  0
SECTION
  2
HEADER
  9
$ACADVER
  1
AC1014
  9
$ACADMAINTVER
 70
     9
  9
$DWGCODEPAGE
  3
ANSI_932
  9
$INSBASE
 10
0.0
 20
0.0
 30
0.0
  9
$EXTMIN
 10
-2.099999999999992
 20
11.5
 30
0.0
  9
$EXTMAX
 10
199.9
 20
291.5
 30
0.0
  9
$LIMMIN
 10
0.0
 20
0.0
  9
$LIMMAX
 10
210.0
 20
297.0
  9
$ORTHOMODE
 70
     0
  9
$REGENMODE
 70
     1
  9
$FILLMODE
 70
     1
  9
$QTEXTMODE
 70
     0
  9
$MIRRTEXT
 70
     1
  9
$DRAGMODE
 70
     2
  9
$LTSCALE
 40
1.0
  9
$OSMODE
 70
    37
  9
$ATTMODE
 70
     1
  9
$TEXTSIZE
 40
2.5
  9
$TRACEWID
 40
1.0
  9
$TEXTSTYLE
  7
STANDARD
  9
$CLAYER
  8
寸法
  9
$CELTYPE
  6
BYLAYER
  9
$CECOLOR
 62
   256
  9
$CELTSCALE
 40
1.0
  9
$DELOBJ
 70
     1
  9
$DISPSILH
 70
     0
  9
$DIMSCALE
 40
1.0
  9
$DIMASZ
 40
2.5
  9
$DIMEXO
 40
0.625
  9
$DIMDLI
 40
3.75
  9
$DIMRND
 40
0.0
  9
$DIMDLE
 40
0.0
  9
$DIMEXE
 40
1.25
  9
$DIMTP
 40
0.0
  9
$DIMTM
 40
0.0
  9
$DIMTXT
 40
2.5
  9
$DIMCEN
 40
2.5
  9
$DIMTSZ
 40
0.0
  9
$DIMTOL
 70
     0
  9
$DIMLIM
 70
     0
  9
$DIMTIH
 70
     0
  9
$DIMTOH
 70
     0
  9
$DIMSE1
 70
     0
  9
$DIMSE2
 70
     0
  9
$DIMTAD
 70
     1
  9
$DIMZIN
 70
     8
  9
$DIMBLK
  1

  9
$DIMASO
 70
     1
  9
$DIMSHO
 70
     1
  9
$DIMPOST
  1

  9
$DIMAPOST
  1

  9
$DIMALT
 70
     0
  9
$DIMALTD
 70
     3
  9
$DIMALTF
 40
0.03937007874016
  9
$DIMLFAC
 40
1.0
  9
$DIMTOFL
 70
     1
  9
$DIMTVP
 40
0.0
  9
$DIMTIX
 70
     0
  9
$DIMSOXD
 70
     0
  9
$DIMSAH
 70
     0
  9
$DIMBLK1
  1

  9
$DIMBLK2
  1

  9
$DIMSTYLE
  2
ISO-25
  9
$DIMCLRD
 70
     0
  9
$DIMCLRE
 70
     0
  9
$DIMCLRT
 70
     0
  9
$DIMTFAC
 40
1.0
  9
$DIMGAP
 40
0.625
  9
$DIMJUST
 70
     0
  9
$DIMSD1
 70
     0
  9
$DIMSD2
 70
     0
  9
$DIMTOLJ
 70
     0
  9
$DIMTZIN
 70
     8
  9
$DIMALTZ
 70
     0
  9
$DIMALTTZ
 70
     0
  9
$DIMFIT
 70
     3
  9
$DIMUPT
 70
     0
  9
$DIMUNIT
 70
     2
  9
$DIMDEC
 70
     2
  9
$DIMTDEC
 70
     2
  9
$DIMALTU
 70
     2
  9
$DIMALTTD
 70
     3
  9
$DIMTXSTY
  7
STANDARD
  9
$DIMAUNIT
 70
     0
  9
$LUNITS
 70
     2
  9
$LUPREC
 70
     4
  9
$SKETCHINC
 40
1.0
  9
$FILLETRAD
 40
10.0
  9
$AUNITS
 70
     0
  9
$AUPREC
 70
     0
  9
$MENU
  1
.
  9
$ELEVATION
 40
0.0
  9
$PELEVATION
 40
0.0
  9
$THICKNESS
 40
0.0
  9
$LIMCHECK
 70
     0
  9
$CHAMFERA
 40
10.0
  9
$CHAMFERB
 40
10.0
  9
$CHAMFERC
 40
20.0
  9
$CHAMFERD
 40
0.0
  9
$SKPOLY
 70
     0
  9
$TDCREATE
 40
2457957.961433171
  9
$TDUPDATE
 40
2457957.961433357
  9
$TDINDWG
 40
0.0000000116
  9
$TDUSRTIMER
 40
0.0000000116
  9
$USRTIMER
 70
     1
  9
$ANGBASE
 50
0.0
  9
$ANGDIR
 70
     0
  9
$PDMODE
 70
     0
  9
$PDSIZE
 40
0.0
  9
$PLINEWID
 40
0.0
  9
$COORDS
 70
     1
  9
$SPLFRAME
 70
     0
  9
$SPLINETYPE
 70
     6
  9
$SPLINESEGS
 70
     8
  9
$ATTDIA
 70
     0
  9
$ATTREQ
 70
     1
  9
$HANDLING
 70
     1
  9
$HANDSEED
  5
34B
  9
$SURFTAB1
 70
     6
  9
$SURFTAB2
 70
     6
  9
$SURFTYPE
 70
     6
  9
$SURFU
 70
     6
  9
$SURFV
 70
     6
  9
$UCSNAME
  2

  9
$UCSORG
 10
0.0
 20
0.0
 30
0.0
  9
$UCSXDIR
 10
1.0
 20
0.0
 30
0.0
  9
$UCSYDIR
 10
0.0
 20
1.0
 30
0.0
  9
$PUCSNAME
  2

  9
$PUCSORG
 10
0.0
 20
0.0
 30
0.0
  9
$PUCSXDIR
 10
1.0
 20
0.0
 30
0.0
  9
$PUCSYDIR
 10
0.0
 20
1.0
 30
0.0
  9
$USERI1
 70
     0
  9
$USERI2
 70
     0
  9
$USERI3
 70
     0
  9
$USERI4
 70
     0
  9
$USERI5
 70
     0
  9
$USERR1
 40
0.0
  9
$USERR2
 40
0.0
  9
$USERR3
 40
0.0
  9
$USERR4
 40
0.0
  9
$USERR5
 40
0.0
  9
$WORLDVIEW
 70
     1
  9
$SHADEDGE
 70
     3
  9
$SHADEDIF
 70
    70
  9
$TILEMODE
 70
     1
  9
$MAXACTVP
 70
    64
  9
$PINSBASE
 10
0.0
 20
0.0
 30
0.0
  9
$PLIMCHECK
 70
     0
  9
$PEXTMIN
 10
1.000000000000000E+20
 20
1.000000000000000E+20
 30
1.000000000000000E+20
  9
$PEXTMAX
 10
-1.000000000000000E+20
 20
-1.000000000000000E+20
 30
-1.000000000000000E+20
  9
$PLIMMIN
 10
0.0
 20
0.0
  9
$PLIMMAX
 10
420.0
 20
297.0
  9
$UNITMODE
 70
     0
  9
$VISRETAIN
 70
     1
  9
$PLINEGEN
 70
     0
  9
$PSLTSCALE
 70
     1
  9
$TREEDEPTH
 70
  3020
  9
$PICKSTYLE
 70
     1
  9
$CMLSTYLE
  2
STANDARD
  9
$CMLJUST
 70
     0
  9
$CMLSCALE
 40
20.0
  9
$PROXYGRAPHICS
 70
     1
  9
$MEASUREMENT
 70
     1
  0
ENDSEC
  0
SECTION
  2
CLASSES
  0
CLASS
  1
ACDBDICTIONARYWDFLT
  2
AcDbDictionaryWithDefault
  3
ObjectDBX Classes
 90
        0
280
     0
281
     0
  0
CLASS
  1
VISUALSTYLE
  2
AcDbVisualStyle
  3
ObjectDBX Classes
 90
     4095
280
     0
281
     0
  0
CLASS
  1
MATERIAL
  2
AcDbMaterial
  3
ObjectDBX Classes
 90
     1153
280
     0
281
     0
  0
CLASS
  1
SUN
  2
AcDbSun
  3
SCENEOE
 90
     1024
280
     0
281
     0
  0
CLASS
  1
DICTIONARYVAR
  2
AcDbDictionaryVar
  3
ObjectDBX Classes
 90
        0
280
     0
281
     0
  0
CLASS
  1
XRECORD
  2
AcDbXrecord
  3
AutoCAD 2000
 90
        0
280
     0
281
     0
  0
CLASS
  1
LWPOLYLINE
  2
AcDbPolyline
  3
AutoCAD 2000
 90
        0
280
     0
281
     1
  0
CLASS
  1
HATCH
  2
AcDbHatch
  3
AutoCAD 2000
 90
        0
280
     0
281
     1
  0
CLASS
  1
ACDBPLACEHOLDER
  2
AcDbPlaceHolder
  3
ObjectDBX Classes
 90
        0
280
     0
281
     0
  0
CLASS
  1
LAYOUT
  2
AcDbLayout
  3
ObjectDBX Classes
 90
        0
280
     0
281
     0
  0
ENDSEC
  0
SECTION
  2
TABLES
  0
TABLE
  2
VPORT
  5
8
330
0
100
AcDbSymbolTable
 70
     1
  0
VPORT
  5
29
330
8
100
AcDbSymbolTableRecord
100
AcDbViewportTableRecord
  2
*ACTIVE
 70
     0
 10
0.0
 20
0.0
 11
1.0
 21
1.0
 12
989.0000000000001
 22
1515.0
 13
0.0
 23
0.0
 14
10.0
 24
10.0
 15
10.0
 25
10.0
 16
0.0
 26
0.0
 36
1.0
 17
0.0
 27
0.0
 37
0.0
 40
2800.0
 41
0.7214285714285715
 42
50.0
 43
0.0
 44
0.0
 50
0.0
 51
0.0
 71
     0
 72
  1000
 73
     1
 74
     3
 75
     0
 76
     0
 77
     0
 78
     0
  0
ENDTAB
  0
TABLE
  2
LTYPE
  5
5
330
0
100
AcDbSymbolTable
 70
     7
  0
LTYPE
  5
14
330
5
100
AcDbSymbolTableRecord
100
AcDbLinetypeTableRecord
  2
BYBLOCK
 70
     0
  3

 72
    65
 73
     0
 40
0.0
  0
LTYPE
  5
15
330
5
100
AcDbSymbolTableRecord
100
AcDbLinetypeTableRecord
  2
BYLAYER
 70
     0
  3

 72
    65
 73
     0
 40
0.0
  0
LTYPE
  5
16
330
5
100
AcDbSymbolTableRecord
100
AcDbLinetypeTableRecord
  2
CONTINUOUS
 70
     0
  3
Solid line
 72
    65
 73
     0
 40
0.0
  0
LTYPE
  5
40
330
5
100
AcDbSymbolTableRecord
100
AcDbLinetypeTableRecord
  2
EXLTYPE1
 70
     0
  3
破線
 72
    65
 73
     2
 40
3.0
 49
2.0
 74
     0
 49
-1.0
 74
     0
  0
LTYPE
  5
41
330
5
100
AcDbSymbolTableRecord
100
AcDbLinetypeTableRecord
  2
EXLTYPE2
 70
     0
  3
点線
 72
    65
 73
     2
 40
2.0
 49
1.0
 74
     0
 49
-1.0
 74
     0
  0
LTYPE
  5
42
330
5
100
AcDbSymbolTableRecord
100
AcDbLinetypeTableRecord
  2
EXLTYPE3
 70
     0
  3
一点鎖線
 72
    65
 73
     4
 40
10.0
 49
7.0
 74
     0
 49
-1.0
 74
     0
 49
1.0
 74
     0
 49
-1.0
 74
     0
  0
LTYPE
  5
43
330
5
100
AcDbSymbolTableRecord
100
AcDbLinetypeTableRecord
  2
EXLTYPE4
 70
     0
  3
二点鎖線
 72
    65
 73
     6
 40
12.0
 49
7.0
 74
     0
 49
-1.0
 74
     0
 49
1.0
 74
     0
 49
-1.0
 74
     0
 49
1.0
 74
     0
 49
-1.0
 74
     0
  0
LTYPE
  5
44
330
5
100
AcDbSymbolTableRecord
100
AcDbLinetypeTableRecord
  2
EXLTYPE5
 70
     0
  3
三点鎖線
 72
    65
 73
     8
 40
37.0
 49
30.0
 74
     0
 49
-1.0
 74
     0
 49
1.0
 74
     0
 49
-1.0
 74
     0
 49
1.0
 74
     0
 49
-1.0
 74
     0
 49
1.0
 74
     0
 49
-1.0
 74
     0
  0
LTYPE
  5
45
330
5
100
AcDbSymbolTableRecord
100
AcDbLinetypeTableRecord
  2
EXLTYPE6
 70
     0
  3
四点鎖線
 72
    65
 73
    10
 40
39.0
 49
30.0
 74
     0
 49
-1.0
 74
     0
 49
1.0
 74
     0
 49
-1.0
 74
     0
 49
1.0
 74
     0
 49
-1.0
 74
     0
 49
1.0
 74
     0
 49
-1.0
 74
     0
 49
1.0
 74
     0
 49
-1.0
 74
     0
  0
ENDTAB
  0
TABLE
  2
LAYER
  5
2
330
0
100
AcDbSymbolTable
 70
     6
  0
LAYER
  5
10
330
2
100
AcDbSymbolTableRecord
100
AcDbLayerTableRecord
  2
0
 70
     0
 62
     7
  6
CONTINUOUS
  0
LAYER
  5
48
330
2
100
AcDbSymbolTableRecord
100
AcDbLayerTableRecord
  2
枠
 70
     0
 62
     7
  6
CONTINUOUS
  0
LAYER
  5
49
330
2
100
AcDbSymbolTableRecord
100
AcDbLayerTableRecord
  2
スト_ル
 70
     0
 62
     7
  6
CONTINUOUS
  0
LAYER
  5
4A
330
2
100
AcDbSymbolTableRecord
100
AcDbLayerTableRecord
  2
寸法
 70
     0
 62
     7
  6
CONTINUOUS
  0
LAYER
  5
4B
330
2
100
AcDbSymbolTableRecord
100
AcDbLayerTableRecord
  2
器具明細表
 70
     0
 62
     7
  6
CONTINUOUS
  0
LAYER
  5
130
330
2
100
AcDbSymbolTableRecord
100
AcDbLayerTableRecord
  2
DEFPOINTS
 70
     0
 62
     7
  6
CONTINUOUS
  0
ENDTAB
  0
TABLE
  2
STYLE
  5
3
330
0
100
AcDbSymbolTable
 70
     5
  0
STYLE
  5
11
330
3
100
AcDbSymbolTableRecord
100
AcDbTextStyleTableRecord
  2
STANDARD
 70
     0
 40
0.0
 41
1.0
 50
0.0
 71
     0
 42
2.5
  3
monotxt
  4
extfont
  0
STYLE
  5
46
330
3
100
AcDbSymbolTableRecord
100
AcDbTextStyleTableRecord
  2
EXCADSTD
 70
     0
 40
0.0
 41
1.0
 50
0.0
 71
     0
 42
0.2
  3
monotxt
  4
extfont
  0
STYLE
  5
47
330
3
100
AcDbSymbolTableRecord
100
AcDbTextStyleTableRecord
  2
EXCADVERT
 70
     4
 40
0.0
 41
1.0
 50
0.0
 71
     0
 42
0.286885
  3
monotxt
  4
extfont
  0
STYLE
  5
12E
330
3
100
AcDbSymbolTableRecord
100
AcDbTextStyleTableRecord
  2
EXCADDIM1
 70
     0
 40
0.0
 41
0.84
 50
0.0
 71
     0
 42
0.2
  3
monotxt
  4
extfont
  0
STYLE
  5
2F1
330
3
100
AcDbSymbolTableRecord
100
AcDbTextStyleTableRecord
  2
EXCADTTF1
 70
     0
 40
0.0
 41
1.0
 50
0.0
 71
     0
 42
0.2
  3
MSGOTHIC.TTC
  4

1001
ACAD
1000
MS Gothic
1071
    32817
  0
ENDTAB
  0
TABLE
  2
VIEW
  5
6
330
0
100
AcDbSymbolTable
 70
     0
  0
ENDTAB
  0
TABLE
  2
UCS
  5
7
330
0
100
AcDbSymbolTable
 70
     0
  0
ENDTAB
  0
TABLE
  2
APPID
  5
9
330
0
100
AcDbSymbolTable
 70
     1
  0
APPID
  5
12
330
9
100
AcDbSymbolTableRecord
100
AcDbRegAppTableRecord
  2
ACAD
 70
     0
  0
ENDTAB
  0
TABLE
  2
DIMSTYLE
  5
A
330
0
100
AcDbSymbolTable
 70
     1
  0
DIMSTYLE
105
27
102
{ACAD_REACTORS
330
12F
330
13D
330
14A
330
157
330
164
330
171
330
17D
330
189
330
195
330
1A3
330
1AE
330
1B9
330
1C4
330
1D3
330
301
330
30F
102
}
330
A
100
AcDbSymbolTableRecord
100
AcDbDimStyleTableRecord
  2
ISO-25
 70
     0
  3

  4

  5

  6

  7

 40
1.0
 41
2.5
 42
0.625
 43
3.75
 44
1.25
 45
0.0
 46
0.0
 47
0.0
 48
0.0
140
2.5
141
2.5
142
0.0
143
0.03937007874016
144
1.0
145
0.0
146
1.0
147
0.625
 71
     0
 72
     0
 73
     0
 74
     0
 75
     0
 76
     0
 77
     1
 78
     8
170
     0
171
     3
172
     1
173
     0
174
     0
175
     0
176
     0
177
     0
178
     0
270
     2
271
     2
272
     2
273
     2
274
     3
340
11
275
     0
280
     0
281
     0
282
     0
283
     0
284
     8
285
     0
286
     0
287
     5
288
     0
  0
ENDTAB
  0
TABLE
  2
BLOCK_RECORD
  5
1
330
0
100
AcDbSymbolTable
 70
    31
  0
BLOCK_RECORD
  5
1F
330
1
100
AcDbSymbolTableRecord
100
AcDbBlockTableRecord
  2
*MODEL_SPACE
  0
BLOCK_RECORD
  5
1B
330
1
100
AcDbSymbolTableRecord
100
AcDbBlockTableRecord
  2
*PAPER_SPACE
  0
BLOCK_RECORD
  5
4C
330
1
100
AcDbSymbolTableRecord
100
AcDbBlockTableRecord
  2
EX_NORM
  0
BLOCK_RECORD
  5
4F
330
1
100
AcDbSymbolTableRecord
100
AcDbBlockTableRecord
  2
EX_BNORM
  0
BLOCK_RECORD
  5
52
330
1
100
AcDbSymbolTableRecord
100
AcDbBlockTableRecord
  2
EX_BCIR
  0
BLOCK_RECORD
  5
55
330
1
100
AcDbSymbolTableRecord
100
AcDbBlockTableRecord
  2
EX_RCIVIL
  0
BLOCK_RECORD
  5
58
330
1
100
AcDbSymbolTableRecord
100
AcDbBlockTableRecord
  2
EX_SLANT
  0
BLOCK_RECORD
  5
5B
330
1
100
AcDbSymbolTableRecord
100
AcDbBlockTableRecord
  2
EX_NONE
  0
BLOCK_RECORD
  5
5E
330
1
100
AcDbSymbolTableRecord
100
AcDbBlockTableRecord
  2
EX_CIVIL
  0
BLOCK_RECORD
  5
61
330
1
100
AcDbSymbolTableRecord
100
AcDbBlockTableRecord
  2
EX_WCIR
  0
BLOCK_RECORD
  5
64
330
1
100
AcDbSymbolTableRecord
100
AcDbBlockTableRecord
  2
EX_WCIR2
  0
BLOCK_RECORD
  5
67
330
1
100
AcDbSymbolTableRecord
100
AcDbBlockTableRecord
  2
EX_WNORM
  0
BLOCK_RECORD
  5
6A
330
1
100
AcDbSymbolTableRecord
100
AcDbBlockTableRecord
  2
EX_NNORM
  0
BLOCK_RECORD
  5
6D
330
1
100
AcDbSymbolTableRecord
100
AcDbBlockTableRecord
  2
EX_BBOX
  0
BLOCK_RECORD
  5
70
330
1
100
AcDbSymbolTableRecord
100
AcDbBlockTableRecord
  2
EX_WBOX
  0
BLOCK_RECORD
  5
73
330
1
100
AcDbSymbolTableRecord
100
AcDbBlockTableRecord
  2
EX_INTEGRAL
  0
BLOCK_RECORD
  5
131
330
1
100
AcDbSymbolTableRecord
100
AcDbBlockTableRecord
  2
*D15
  0
BLOCK_RECORD
  5
13E
330
1
100
AcDbSymbolTableRecord
100
AcDbBlockTableRecord
  2
*D16
  0
BLOCK_RECORD
  5
14B
330
1
100
AcDbSymbolTableRecord
100
AcDbBlockTableRecord
  2
*D17
  0
BLOCK_RECORD
  5
158
330
1
100
AcDbSymbolTableRecord
100
AcDbBlockTableRecord
  2
*D18
  0
BLOCK_RECORD
  5
165
330
1
100
AcDbSymbolTableRecord
100
AcDbBlockTableRecord
  2
*D19
  0
BLOCK_RECORD
  5
172
330
1
100
AcDbSymbolTableRecord
100
AcDbBlockTableRecord
  2
*D20
  0
BLOCK_RECORD
  5
17E
330
1
100
AcDbSymbolTableRecord
100
AcDbBlockTableRecord
  2
*D21
  0
BLOCK_RECORD
  5
18A
330
1
100
AcDbSymbolTableRecord
100
AcDbBlockTableRecord
  2
*D22
  0
BLOCK_RECORD
  5
196
330
1
100
AcDbSymbolTableRecord
100
AcDbBlockTableRecord
  2
*D23
  0
BLOCK_RECORD
  5
1A4
330
1
100
AcDbSymbolTableRecord
100
AcDbBlockTableRecord
  2
*D24
  0
BLOCK_RECORD
  5
1AF
330
1
100
AcDbSymbolTableRecord
100
AcDbBlockTableRecord
  2
*D25
  0
BLOCK_RECORD
  5
1BA
330
1
100
AcDbSymbolTableRecord
100
AcDbBlockTableRecord
  2
*D26
  0
BLOCK_RECORD
  5
1C5
330
1
100
AcDbSymbolTableRecord
100
AcDbBlockTableRecord
  2
*D27
  0
BLOCK_RECORD
  5
1D4
330
1
100
AcDbSymbolTableRecord
100
AcDbBlockTableRecord
  2
*D28
  0
BLOCK_RECORD
  5
302
330
1
100
AcDbSymbolTableRecord
100
AcDbBlockTableRecord
  2
*D29
  0
BLOCK_RECORD
  5
310
330
1
100
AcDbSymbolTableRecord
100
AcDbBlockTableRecord
  2
*D30
  0
ENDTAB
  0
ENDSEC
  0
SECTION
  2
BLOCKS
  0
BLOCK
  5
20
330
1F
100
AcDbEntity
  8
0
100
AcDbBlockBegin
  2
*MODEL_SPACE
 70
     0
 10
0.0
 20
0.0
 30
0.0
  3
*MODEL_SPACE
  1

  0
ENDBLK
  5
21
330
1F
100
AcDbEntity
  8
0
100
AcDbBlockEnd
  0
BLOCK
  5
1C
330
1B
100
AcDbEntity
 67
     1
  8
0
100
AcDbBlockBegin
  2
*PAPER_SPACE
 70
     0
 10
0.0
 20
0.0
 30
0.0
  3
*PAPER_SPACE
  1

  0
ENDBLK
  5
1D
330
1B
100
AcDbEntity
 67
     1
  8
0
100
AcDbBlockEnd
  0
BLOCK
  5
4D
330
4C
100
AcDbEntity
  8
0
100
AcDbBlockBegin
  2
EX_NORM
 70
     0
 10
0.0
 20
0.0
 30
0.0
  3
EX_NORM
  1

  0
LINE
  5
76
330
4C
100
AcDbEntity
  8
0
  6
CONTINUOUS
 62
     0
100
AcDbLine
 10
0.0
 20
0.0
 30
0.0
 11
-1.0
 21
0.0
 31
0.0
  0
LINE
  5
77
330
4C
100
AcDbEntity
  8
0
  6
CONTINUOUS
 62
     0
100
AcDbLine
 10
0.0
 20
0.0
 30
0.0
 11
-1.0
 21
0.166666667
 31
0.0
  0
LINE
  5
78
330
4C
100
AcDbEntity
  8
0
  6
CONTINUOUS
 62
     0
100
AcDbLine
 10
0.0
 20
0.0
 30
0.0
 11
-1.0
 21
-0.166666667
 31
0.0
  0
ENDBLK
  5
4E
330
4C
100
AcDbEntity
  8
0
100
AcDbBlockEnd
  0
BLOCK
  5
50
330
4F
100
AcDbEntity
  8
0
100
AcDbBlockBegin
  2
EX_BNORM
 70
     0
 10
0.0
 20
0.0
 30
0.0
  3
EX_BNORM
  1

  0
LINE
  5
79
330
4F
100
AcDbEntity
  8
0
  6
CONTINUOUS
 62
     0
100
AcDbLine
 10
0.0
 20
0.0
 30
0.0
 11
-1.0
 21
0.0
 31
0.0
  0
LINE
  5
7A
330
4F
100
AcDbEntity
  8
0
  6
CONTINUOUS
 62
     0
100
AcDbLine
 10
0.0
 20
0.0
 30
0.0
 11
-1.0
 21
0.166666667
 31
0.0
  0
LINE
  5
7B
330
4F
100
AcDbEntity
  8
0
  6
CONTINUOUS
 62
     0
100
AcDbLine
 10
0.0
 20
0.0
 30
0.0
 11
-1.0
 21
-0.166666667
 31
0.0
  0
LINE
  5
7C
330
4F
100
AcDbEntity
  8
0
  6
CONTINUOUS
 62
     0
100
AcDbLine
 10
0.0
 20
0.0
 30
0.0
 11
-1.0
 21
0.083333333
 31
0.0
  0
LINE
  5
7D
330
4F
100
AcDbEntity
  8
0
  6
CONTINUOUS
 62
     0
100
AcDbLine
 10
0.0
 20
0.0
 30
0.0
 11
-1.0
 21
-0.083333333
 31
0.0
  0
LINE
  5
7E
330
4F
100
AcDbEntity
  8
0
  6
CONTINUOUS
 62
     0
100
AcDbLine
 10
-1.0
 20
0.166666667
 30
0.0
 11
-1.0
 21
-0.166666667
 31
0.0
  0
ENDBLK
  5
51
330
4F
100
AcDbEntity
  8
0
100
AcDbBlockEnd
  0
BLOCK
  5
53
330
52
100
AcDbEntity
  8
0
100
AcDbBlockBegin
  2
EX_BCIR
 70
     0
 10
0.0
 20
0.0
 30
0.0
  3
EX_BCIR
  1

  0
LINE
  5
7F
330
52
100
AcDbEntity
  8
0
  6
CONTINUOUS
 62
     0
100
AcDbLine
 10
0.0
 20
0.0
 30
0.0
 11
-1.0
 21
0.0
 31
0.0
  0
CIRCLE
  5
80
330
52
100
AcDbEntity
  8
0
  6
CONTINUOUS
 62
     0
100
AcDbCircle
 10
0.0
 20
0.0
 30
0.0
 40
0.5
  0
CIRCLE
  5
81
330
52
100
AcDbEntity
  8
0
  6
CONTINUOUS
 62
     0
100
AcDbCircle
 10
0.0
 20
0.0
 30
0.0
 40
0.25
  0
ENDBLK
  5
54
330
52
100
AcDbEntity
  8
0
100
AcDbBlockEnd
  0
BLOCK
  5
56
330
55
100
AcDbEntity
  8
0
100
AcDbBlockBegin
  2
EX_RCIVIL
 70
     0
 10
0.0
 20
0.0
 30
0.0
  3
EX_RCIVIL
  1

  0
LINE
  5
82
330
55
100
AcDbEntity
  8
0
  6
CONTINUOUS
 62
     0
100
AcDbLine
 10
0.0
 20
0.0
 30
0.0
 11
-1.0
 21
0.0
 31
0.0
  0
LINE
  5
83
330
55
100
AcDbEntity
  8
0
  6
CONTINUOUS
 62
     0
100
AcDbLine
 10
-1.0
 20
-0.25
 30
0.0
 11
0.0
 21
-0.25
 31
0.0
  0
LINE
  5
84
330
55
100
AcDbEntity
  8
0
  6
CONTINUOUS
 62
     0
100
AcDbLine
 10
-1.0
 20
-0.125
 30
0.0
 11
0.0
 21
-0.125
 31
0.0
  0
ENDBLK
  5
57
330
55
100
AcDbEntity
  8
0
100
AcDbBlockEnd
  0
BLOCK
  5
59
330
58
100
AcDbEntity
  8
0
100
AcDbBlockBegin
  2
EX_SLANT
 70
     0
 10
0.0
 20
0.0
 30
0.0
  3
EX_SLANT
  1

  0
LINE
  5
85
330
58
100
AcDbEntity
  8
0
  6
CONTINUOUS
 62
     0
100
AcDbLine
 10
0.0
 20
0.0
 30
0.0
 11
-1.0
 21
0.0
 31
0.0
  0
LINE
  5
86
330
58
100
AcDbEntity
  8
0
  6
CONTINUOUS
 62
     0
100
AcDbLine
 10
0.707106781
 20
0.707106781
 30
0.0
 11
-0.707106781
 21
-0.707106781
 31
0.0
  0
ENDBLK
  5
5A
330
58
100
AcDbEntity
  8
0
100
AcDbBlockEnd
  0
BLOCK
  5
5C
330
5B
100
AcDbEntity
  8
0
100
AcDbBlockBegin
  2
EX_NONE
 70
     0
 10
0.0
 20
0.0
 30
0.0
  3
EX_NONE
  1

  0
LINE
  5
87
330
5B
100
AcDbEntity
  8
0
  6
CONTINUOUS
 62
     0
100
AcDbLine
 10
0.0
 20
0.0
 30
0.0
 11
-1.0
 21
0.0
 31
0.0
  0
ENDBLK
  5
5D
330
5B
100
AcDbEntity
  8
0
100
AcDbBlockEnd
  0
BLOCK
  5
5F
330
5E
100
AcDbEntity
  8
0
100
AcDbBlockBegin
  2
EX_CIVIL
 70
     0
 10
0.0
 20
0.0
 30
0.0
  3
EX_CIVIL
  1

  0
LINE
  5
88
330
5E
100
AcDbEntity
  8
0
  6
CONTINUOUS
 62
     0
100
AcDbLine
 10
0.0
 20
0.0
 30
0.0
 11
-1.0
 21
0.0
 31
0.0
  0
LINE
  5
89
330
5E
100
AcDbEntity
  8
0
  6
CONTINUOUS
 62
     0
100
AcDbLine
 10
-1.0
 20
0.25
 30
0.0
 11
0.0
 21
0.25
 31
0.0
  0
LINE
  5
8A
330
5E
100
AcDbEntity
  8
0
  6
CONTINUOUS
 62
     0
100
AcDbLine
 10
-1.0
 20
0.125
 30
0.0
 11
0.0
 21
0.125
 31
0.0
  0
ENDBLK
  5
60
330
5E
100
AcDbEntity
  8
0
100
AcDbBlockEnd
  0
BLOCK
  5
62
330
61
100
AcDbEntity
  8
0
100
AcDbBlockBegin
  2
EX_WCIR
 70
     0
 10
0.0
 20
0.0
 30
0.0
  3
EX_WCIR
  1

  0
LINE
  5
8B
330
61
100
AcDbEntity
  8
0
  6
CONTINUOUS
 62
     0
100
AcDbLine
 10
0.0
 20
0.0
 30
0.0
 11
-1.0
 21
0.0
 31
0.0
  0
CIRCLE
  5
8C
330
61
100
AcDbEntity
  8
0
  6
CONTINUOUS
 62
     0
100
AcDbCircle
 10
0.0
 20
0.0
 30
0.0
 40
0.5
  0
ENDBLK
  5
63
330
61
100
AcDbEntity
  8
0
100
AcDbBlockEnd
  0
BLOCK
  5
65
330
64
100
AcDbEntity
  8
0
100
AcDbBlockBegin
  2
EX_WCIR2
 70
     0
 10
0.0
 20
0.0
 30
0.0
  3
EX_WCIR2
  1

  0
LINE
  5
8D
330
64
100
AcDbEntity
  8
0
  6
CONTINUOUS
 62
     0
100
AcDbLine
 10
-0.5
 20
0.0
 30
0.0
 11
-1.0
 21
0.0
 31
0.0
  0
CIRCLE
  5
8E
330
64
100
AcDbEntity
  8
0
  6
CONTINUOUS
 62
     0
100
AcDbCircle
 10
0.0
 20
0.0
 30
0.0
 40
0.5
  0
ENDBLK
  5
66
330
64
100
AcDbEntity
  8
0
100
AcDbBlockEnd
  0
BLOCK
  5
68
330
67
100
AcDbEntity
  8
0
100
AcDbBlockBegin
  2
EX_WNORM
 70
     0
 10
0.0
 20
0.0
 30
0.0
  3
EX_WNORM
  1

  0
LINE
  5
8F
330
67
100
AcDbEntity
  8
0
  6
CONTINUOUS
 62
     0
100
AcDbLine
 10
-1.0
 20
0.0
 30
0.0
 11
-1.0
 21
0.0
 31
0.0
  0
LINE
  5
90
330
67
100
AcDbEntity
  8
0
  6
CONTINUOUS
 62
     0
100
AcDbLine
 10
0.0
 20
0.0
 30
0.0
 11
-1.0
 21
0.166666667
 31
0.0
  0
LINE
  5
91
330
67
100
AcDbEntity
  8
0
  6
CONTINUOUS
 62
     0
100
AcDbLine
 10
0.0
 20
0.0
 30
0.0
 11
-1.0
 21
-0.166666667
 31
0.0
  0
LINE
  5
92
330
67
100
AcDbEntity
  8
0
  6
CONTINUOUS
 62
     0
100
AcDbLine
 10
-1.0
 20
0.166666667
 30
0.0
 11
-1.0
 21
-0.166666667
 31
0.0
  0
ENDBLK
  5
69
330
67
100
AcDbEntity
  8
0
100
AcDbBlockEnd
  0
BLOCK
  5
6B
330
6A
100
AcDbEntity
  8
0
100
AcDbBlockBegin
  2
EX_NNORM
 70
     0
 10
0.0
 20
0.0
 30
0.0
  3
EX_NNORM
  1

  0
LINE
  5
93
330
6A
100
AcDbEntity
  8
0
  6
CONTINUOUS
 62
     0
100
AcDbLine
 10
0.0
 20
0.0
 30
0.0
 11
-1.0
 21
0.0
 31
0.0
  0
LINE
  5
94
330
6A
100
AcDbEntity
  8
0
  6
CONTINUOUS
 62
     0
100
AcDbLine
 10
0.0
 20
0.0
 30
0.0
 11
-1.0
 21
0.166666667
 31
0.0
  0
LINE
  5
95
330
6A
100
AcDbEntity
  8
0
  6
CONTINUOUS
 62
     0
100
AcDbLine
 10
0.0
 20
0.0
 30
0.0
 11
-1.0
 21
-0.166666667
 31
0.0
  0
LINE
  5
96
330
6A
100
AcDbEntity
  8
0
  6
CONTINUOUS
 62
     0
100
AcDbLine
 10
-1.0
 20
0.166666667
 30
0.0
 11
-1.0
 21
-0.166666667
 31
0.0
  0
ENDBLK
  5
6C
330
6A
100
AcDbEntity
  8
0
100
AcDbBlockEnd
  0
BLOCK
  5
6E
330
6D
100
AcDbEntity
  8
0
100
AcDbBlockBegin
  2
EX_BBOX
 70
     0
 10
0.0
 20
0.0
 30
0.0
  3
EX_BBOX
  1

  0
LINE
  5
97
330
6D
100
AcDbEntity
  8
0
  6
CONTINUOUS
 62
     0
100
AcDbLine
 10
0.0
 20
0.0
 30
0.0
 11
-1.0
 21
0.0
 31
0.0
  0
LINE
  5
98
330
6D
100
AcDbEntity
  8
0
  6
CONTINUOUS
 62
     0
100
AcDbLine
 10
-0.5
 20
0.5
 30
0.0
 11
0.5
 21
0.5
 31
0.0
  0
LINE
  5
99
330
6D
100
AcDbEntity
  8
0
  6
CONTINUOUS
 62
     0
100
AcDbLine
 10
0.5
 20
0.5
 30
0.0
 11
0.5
 21
-0.5
 31
0.0
  0
LINE
  5
9A
330
6D
100
AcDbEntity
  8
0
  6
CONTINUOUS
 62
     0
100
AcDbLine
 10
0.5
 20
-0.5
 30
0.0
 11
-0.5
 21
-0.5
 31
0.0
  0
LINE
  5
9B
330
6D
100
AcDbEntity
  8
0
  6
CONTINUOUS
 62
     0
100
AcDbLine
 10
-0.5
 20
-0.5
 30
0.0
 11
-0.5
 21
0.5
 31
0.0
  0
LINE
  5
9C
330
6D
100
AcDbEntity
  8
0
  6
CONTINUOUS
 62
     0
100
AcDbLine
 10
-0.25
 20
0.25
 30
0.0
 11
0.25
 21
0.25
 31
0.0
  0
LINE
  5
9D
330
6D
100
AcDbEntity
  8
0
  6
CONTINUOUS
 62
     0
100
AcDbLine
 10
0.25
 20
0.25
 30
0.0
 11
0.25
 21
-0.25
 31
0.0
  0
LINE
  5
9E
330
6D
100
AcDbEntity
  8
0
  6
CONTINUOUS
 62
     0
100
AcDbLine
 10
0.25
 20
-0.25
 30
0.0
 11
-0.25
 21
-0.25
 31
0.0
  0
LINE
  5
9F
330
6D
100
AcDbEntity
  8
0
  6
CONTINUOUS
 62
     0
100
AcDbLine
 10
-0.25
 20
-0.25
 30
0.0
 11
-0.25
 21
0.25
 31
0.0
  0
ENDBLK
  5
6F
330
6D
100
AcDbEntity
  8
0
100
AcDbBlockEnd
  0
BLOCK
  5
71
330
70
100
AcDbEntity
  8
0
100
AcDbBlockBegin
  2
EX_WBOX
 70
     0
 10
0.0
 20
0.0
 30
0.0
  3
EX_WBOX
  1

  0
LINE
  5
A0
330
70
100
AcDbEntity
  8
0
  6
CONTINUOUS
 62
     0
100
AcDbLine
 10
-0.5
 20
0.0
 30
0.0
 11
-1.0
 21
0.0
 31
0.0
  0
LINE
  5
A1
330
70
100
AcDbEntity
  8
0
  6
CONTINUOUS
 62
     0
100
AcDbLine
 10
-0.5
 20
0.5
 30
0.0
 11
0.5
 21
0.5
 31
0.0
  0
LINE
  5
A2
330
70
100
AcDbEntity
  8
0
  6
CONTINUOUS
 62
     0
100
AcDbLine
 10
0.5
 20
0.5
 30
0.0
 11
0.5
 21
-0.5
 31
0.0
  0
LINE
  5
A3
330
70
100
AcDbEntity
  8
0
  6
CONTINUOUS
 62
     0
100
AcDbLine
 10
0.5
 20
-0.5
 30
0.0
 11
-0.5
 21
-0.5
 31
0.0
  0
LINE
  5
A4
330
70
100
AcDbEntity
  8
0
  6
CONTINUOUS
 62
     0
100
AcDbLine
 10
-0.5
 20
-0.5
 30
0.0
 11
-0.5
 21
0.5
 31
0.0
  0
ENDBLK
  5
72
330
70
100
AcDbEntity
  8
0
100
AcDbBlockEnd
  0
BLOCK
  5
74
330
73
100
AcDbEntity
  8
0
100
AcDbBlockBegin
  2
EX_INTEGRAL
 70
     0
 10
0.0
 20
0.0
 30
0.0
  3
EX_INTEGRAL
  1

  0
LINE
  5
A5
330
73
100
AcDbEntity
  8
0
  6
CONTINUOUS
 62
     0
100
AcDbLine
 10
0.0
 20
0.0
 30
0.0
 11
-1.0
 21
0.0
 31
0.0
  0
ARC
  5
A6
330
73
100
AcDbEntity
  8
0
  6
CONTINUOUS
 62
     0
100
AcDbCircle
 10
0.542115
 20
0.164992
 30
0.0
 40
0.56667
100
AcDbArc
 50
73.07249033629006
 51
196.9275130221199
  0
ARC
  5
A7
330
73
100
AcDbEntity
  8
0
  6
CONTINUOUS
 62
     0
100
AcDbCircle
 10
-0.542115
 20
-0.164992
 30
0.0
 40
0.56667
100
AcDbArc
 50
253.0724869220464
 51
16.9275130559125
  0
ENDBLK
  5
75
330
73
100
AcDbEntity
  8
0
100
AcDbBlockEnd
  0
BLOCK
  5
132
330
131
100
AcDbEntity
  8
0
100
AcDbBlockBegin
  2
*D15
 70
     1
 10
0.0
 20
0.0
 30
0.0
  3
*D15
  1

  0
LINE
  5
134
330
131
100
AcDbEntity
  8
寸法
  6
CONTINUOUS
 62
     3
100
AcDbLine
 10
708.1504612897933
 20
1083.0
 30
0.0
 11
615.1504606473
 21
1083.0
 31
0.0
  0
LINE
  5
135
330
131
100
AcDbEntity
  8
寸法
  6
CONTINUOUS
 62
     3
100
AcDbLine
 10
718.0004612897934
 20
722.9999999999999
 30
0.0
 11
615.1504606473
 21
722.9999999999999
 31
0.0
  0
LINE
  5
136
330
131
100
AcDbEntity
  8
寸法
  6
CONTINUOUS
 62
     3
100
AcDbLine
 10
635.1504606473
 20
1048.0
 30
0.0
 11
635.1504606473
 21
757.9999999999999
 31
0.0
  0
INSERT
  5
137
330
131
100
AcDbEntity
  8
寸法
 62
     3
100
AcDbBlockReference
  2
EX_NORM
 10
635.1504606473
 20
1083.0
 30
0.0
 41
35.0
 42
35.0
 43
35.0
 50
90.0
  0
INSERT
  5
138
330
131
100
AcDbEntity
  8
寸法
 62
     3
100
AcDbBlockReference
  2
EX_NORM
 10
635.1504606473
 20
722.9999999999999
 30
0.0
 41
35.0
 42
35.0
 43
35.0
 50
270.0
  0
MTEXT
  5
139
330
131
100
AcDbEntity
  8
寸法
 62
     2
100
AcDbMText
 10
611.6504607069047
 20
903.0
 30
0.0
 40
40.0
 41
0.0
 71
     5
 72
     1
  1
360
  7
EXCADDIM1
 11
0.0
 21
1.0
 31
0.0
  0
POINT
  5
13A
330
131
100
AcDbEntity
  8
DEFPOINTS
 62
     0
100
AcDbPoint
 10
713.3009212945998
 20
1083.0
 30
0.0
  0
POINT
  5
13B
330
131
100
AcDbEntity
  8
DEFPOINTS
 62
     0
100
AcDbPoint
 10
723.1509212945999
 20
722.9999999999999
 30
0.0
  0
POINT
  5
13C
330
131
100
AcDbEntity
  8
DEFPOINTS
 62
     0
100
AcDbPoint
 10
635.1504606473
 20
722.9999999999999
 30
0.0
  0
ENDBLK
  5
133
330
131
100
AcDbEntity
  8
0
100
AcDbBlockEnd
  0
BLOCK
  5
13F
330
13E
100
AcDbEntity
  8
0
100
AcDbBlockBegin
  2
*D16
 70
     1
 10
0.0
 20
0.0
 30
0.0
  3
*D16
  1

  0
LINE
  5
141
330
13E
100
AcDbEntity
  8
寸法
  6
CONTINUOUS
 62
     3
100
AcDbLine
 10
575.0004606473
 20
2385.112023326752
 30
0.0
 11
575.0004606473
 21
2428.9990234
 31
0.0
  0
LINE
  5
142
330
13E
100
AcDbEntity
  8
寸法
  6
CONTINUOUS
 62
     3
100
AcDbLine
 10
915.0004606473
 20
2385.112023326752
 30
0.0
 11
915.0004606473
 21
2428.9990234
 31
0.0
  0
LINE
  5
143
330
13E
100
AcDbEntity
  8
寸法
  6
CONTINUOUS
 62
     3
100
AcDbLine
 10
610.0004606473
 20
2408.9990234
 30
0.0
 11
880.0004606473
 21
2408.9990234
 31
0.0
  0
INSERT
  5
144
330
13E
100
AcDbEntity
  8
寸法
 62
     3
100
AcDbBlockReference
  2
EX_NORM
 10
575.0004606473
 20
2408.9990234
 30
0.0
 41
35.0
 42
35.0
 43
35.0
 50
180.0
  0
INSERT
  5
145
330
13E
100
AcDbEntity
  8
寸法
 62
     3
100
AcDbBlockReference
  2
EX_NORM
 10
915.0004606473
 20
2408.9990234
 30
0.0
 41
35.0
 42
35.0
 43
35.0
  0
MTEXT
  5
146
330
13E
100
AcDbEntity
  8
寸法
 62
     2
100
AcDbMText
 10
745.0004606473001
 20
2432.499023340396
 30
0.0
 40
40.0
 41
0.0
 71
     5
 72
     1
  1
340
  7
EXCADDIM1
  0
POINT
  5
147
330
13E
100
AcDbEntity
  8
DEFPOINTS
 62
     0
100
AcDbPoint
 10
575.0004606473
 20
2366.2922632426
 30
0.0
  0
POINT
  5
148
330
13E
100
AcDbEntity
  8
DEFPOINTS
 62
     0
100
AcDbPoint
 10
915.0004606473
 20
2366.2922632426
 30
0.0
  0
POINT
  5
149
330
13E
100
AcDbEntity
  8
DEFPOINTS
 62
     0
100
AcDbPoint
 10
915.0004606473
 20
2408.9990234
 30
0.0
  0
ENDBLK
  5
140
330
13E
100
AcDbEntity
  8
0
100
AcDbBlockEnd
  0
BLOCK
  5
14C
330
14B
100
AcDbEntity
  8
0
100
AcDbBlockBegin
  2
*D17
 70
     1
 10
0.0
 20
0.0
 30
0.0
  3
*D17
  1

  0
LINE
  5
14E
330
14B
100
AcDbEntity
  8
寸法
  6
CONTINUOUS
 62
     3
100
AcDbLine
 10
560.0004606473
 20
2345.999023280791
 30
0.0
 11
560.0004606473
 21
2488.9990234
 31
0.0
  0
LINE
  5
14F
330
14B
100
AcDbEntity
  8
寸法
  6
CONTINUOUS
 62
     3
100
AcDbLine
 10
930.0004606473
 20
2345.999023280791
 30
0.0
 11
930.0004606473
 21
2488.9990234
 31
0.0
  0
LINE
  5
150
330
14B
100
AcDbEntity
  8
寸法
  6
CONTINUOUS
 62
     3
100
AcDbLine
 10
595.0004606473
 20
2468.9990234
 30
0.0
 11
895.0004606473
 21
2468.9990234
 31
0.0
  0
INSERT
  5
151
330
14B
100
AcDbEntity
  8
寸法
 62
     3
100
AcDbBlockReference
  2
EX_NORM
 10
560.0004606473
 20
2468.9990234
 30
0.0
 41
35.0
 42
35.0
 43
35.0
 50
180.0
  0
INSERT
  5
152
330
14B
100
AcDbEntity
  8
寸法
 62
     3
100
AcDbBlockReference
  2
EX_NORM
 10
930.0004606473
 20
2468.9990234
 30
0.0
 41
35.0
 42
35.0
 43
35.0
  0
MTEXT
  5
153
330
14B
100
AcDbEntity
  8
寸法
 62
     2
100
AcDbMText
 10
745.0004606473001
 20
2492.499023340396
 30
0.0
 40
40.0
 41
0.0
 71
     5
 72
     1
  1
370
  7
EXCADDIM1
  0
POINT
  5
154
330
14B
100
AcDbEntity
  8
DEFPOINTS
 62
     0
100
AcDbPoint
 10
560.0004606473
 20
2338.999023400001
 30
0.0
  0
POINT
  5
155
330
14B
100
AcDbEntity
  8
DEFPOINTS
 62
     0
100
AcDbPoint
 10
930.0004606473
 20
2338.999023400001
 30
0.0
  0
POINT
  5
156
330
14B
100
AcDbEntity
  8
DEFPOINTS
 62
     0
100
AcDbPoint
 10
930.0004606473
 20
2468.9990234
 30
0.0
  0
ENDBLK
  5
14D
330
14B
100
AcDbEntity
  8
0
100
AcDbBlockEnd
  0
BLOCK
  5
159
330
158
100
AcDbEntity
  8
0
100
AcDbBlockBegin
  2
*D18
 70
     1
 10
0.0
 20
0.0
 30
0.0
  3
*D18
  1

  0
LINE
  5
15B
330
158
100
AcDbEntity
  8
寸法
  6
CONTINUOUS
 62
     3
100
AcDbLine
 10
937.0004605280907
 20
2338.9990234
 30
0.0
 11
1020.0004606473
 21
2338.9990234
 31
0.0
  0
LINE
  5
15C
330
158
100
AcDbEntity
  8
寸法
  6
CONTINUOUS
 62
     3
100
AcDbLine
 10
752.0004605280907
 20
2088.9990234
 30
0.0
 11
1020.0004606473
 21
2088.9990234
 31
0.0
  0
LINE
  5
15D
330
158
100
AcDbEntity
  8
寸法
  6
CONTINUOUS
 62
     3
100
AcDbLine
 10
1000.0004606473
 20
2303.9990234
 30
0.0
 11
1000.0004606473
 21
2123.9990234
 31
0.0
  0
INSERT
  5
15E
330
158
100
AcDbEntity
  8
寸法
 62
     3
100
AcDbBlockReference
  2
EX_NORM
 10
1000.0004606473
 20
2338.9990234
 30
0.0
 41
35.0
 42
35.0
 43
35.0
 50
90.0
  0
INSERT
  5
15F
330
158
100
AcDbEntity
  8
寸法
 62
     3
100
AcDbBlockReference
  2
EX_NORM
 10
1000.0004606473
 20
2088.9990234
 30
0.0
 41
35.0
 42
35.0
 43
35.0
 50
270.0
  0
MTEXT
  5
160
330
158
100
AcDbEntity
  8
寸法
 62
     2
100
AcDbMText
 10
976.5004607069047
 20
2213.9990234
 30
0.0
 40
40.0
 41
0.0
 71
     5
 72
     1
  1
250
  7
EXCADDIM1
 11
0.0
 21
1.0
 31
0.0
  0
POINT
  5
161
330
158
100
AcDbEntity
  8
DEFPOINTS
 62
     0
100
AcDbPoint
 10
930.0004606473
 20
2338.9990234
 30
0.0
  0
POINT
  5
162
330
158
100
AcDbEntity
  8
DEFPOINTS
 62
     0
100
AcDbPoint
 10
745.0004606473
 20
2088.9990234
 30
0.0
  0
POINT
  5
163
330
158
100
AcDbEntity
  8
DEFPOINTS
 62
     0
100
AcDbPoint
 10
1000.0004606473
 20
2088.9990234
 30
0.0
  0
ENDBLK
  5
15A
330
158
100
AcDbEntity
  8
0
100
AcDbBlockEnd
  0
BLOCK
  5
166
330
165
100
AcDbEntity
  8
0
100
AcDbBlockBegin
  2
*D19
 70
     1
 10
0.0
 20
0.0
 30
0.0
  3
*D19
  1

  0
LINE
  5
168
330
165
100
AcDbEntity
  8
寸法
  6
CONTINUOUS
 62
     3
100
AcDbLine
 10
585.0004606473
 20
2278.199023519209
 30
0.0
 11
585.0004606473
 21
1998.9990234
 31
0.0
  0
LINE
  5
169
330
165
100
AcDbEntity
  8
寸法
  6
CONTINUOUS
 62
     3
100
AcDbLine
 10
905.0004606473
 20
2278.199023519209
 30
0.0
 11
905.0004606473
 21
1998.9990234
 31
0.0
  0
LINE
  5
16A
330
165
100
AcDbEntity
  8
寸法
  6
CONTINUOUS
 62
     3
100
AcDbLine
 10
620.0004606473
 20
2018.9990234
 30
0.0
 11
870.0004606473
 21
2018.9990234
 31
0.0
  0
INSERT
  5
16B
330
165
100
AcDbEntity
  8
寸法
 62
     3
100
AcDbBlockReference
  2
EX_NORM
 10
585.0004606473
 20
2018.9990234
 30
0.0
 41
35.0
 42
35.0
 43
35.0
 50
180.0
  0
INSERT
  5
16C
330
165
100
AcDbEntity
  8
寸法
 62
     3
100
AcDbBlockReference
  2
EX_NORM
 10
905.0004606473
 20
2018.9990234
 30
0.0
 41
35.0
 42
35.0
 43
35.0
  0
MTEXT
  5
16D
330
165
100
AcDbEntity
  8
寸法
 62
     2
100
AcDbMText
 10
745.0004606473001
 20
2042.499023340396
 30
0.0
 40
40.0
 41
0.0
 71
     5
 72
     1
  1
320
  7
EXCADDIM1
  0
POINT
  5
16E
330
165
100
AcDbEntity
  8
DEFPOINTS
 62
     0
100
AcDbPoint
 10
585.0004606473
 20
2285.1990234
 30
0.0
  0
POINT
  5
16F
330
165
100
AcDbEntity
  8
DEFPOINTS
 62
     0
100
AcDbPoint
 10
905.0004606473
 20
2285.1990234
 30
0.0
  0
POINT
  5
170
330
165
100
AcDbEntity
  8
DEFPOINTS
 62
     0
100
AcDbPoint
 10
905.0004606473
 20
2018.9990234
 30
0.0
  0
ENDBLK
  5
167
330
165
100
AcDbEntity
  8
0
100
AcDbBlockEnd
  0
BLOCK
  5
173
330
172
100
AcDbEntity
  8
0
100
AcDbBlockBegin
  2
*D20
 70
     1
 10
0.0
 20
0.0
 30
0.0
  3
*D20
  1

  0
LINE
  5
175
330
172
100
AcDbEntity
  8
寸法
  6
CONTINUOUS
 62
     3
100
AcDbLine
 10
1518.0
 20
1218.0
 30
0.0
 11
1453.8103943
 21
1218.0
 31
0.0
  0
LINE
  5
176
330
172
100
AcDbEntity
  8
寸法
  6
CONTINUOUS
 62
     3
100
AcDbLine
 10
1453.8103943
 20
787.9999999999998
 30
0.0
 11
1453.8103943
 21
1183.0
 31
0.0
  0
INSERT
  5
177
330
172
100
AcDbEntity
  8
寸法
 62
     3
100
AcDbBlockReference
  2
EX_NORM
 10
1453.8103943
 20
752.9999999999998
 30
0.0
 41
35.0
 42
35.0
 43
35.0
 50
270.0
  0
INSERT
  5
178
330
172
100
AcDbEntity
  8
寸法
 62
     3
100
AcDbBlockReference
  2
EX_NORM
 10
1453.8103943
 20
1218.0
 30
0.0
 41
35.0
 42
35.0
 43
35.0
 50
90.0
  0
MTEXT
  5
179
330
172
100
AcDbEntity
  8
寸法
 62
     2
100
AcDbMText
 10
1430.310394359605
 20
985.4999999999998
 30
0.0
 40
40.0
 41
0.0
 71
     5
 72
     1
  1
465
  7
EXCADDIM1
 11
0.0
 21
1.0
 31
0.0
  0
POINT
  5
17A
330
172
100
AcDbEntity
  8
DEFPOINTS
 62
     0
100
AcDbPoint
 10
1453.8103943
 20
752.9999999999998
 30
0.0
  0
POINT
  5
17B
330
172
100
AcDbEntity
  8
DEFPOINTS
 62
     0
100
AcDbPoint
 10
1518.0
 20
1218.0
 30
0.0
  0
POINT
  5
17C
330
172
100
AcDbEntity
  8
DEFPOINTS
 62
     0
100
AcDbPoint
 10
1453.8103943
 20
1218.0
 30
0.0
  0
ENDBLK
  5
174
330
172
100
AcDbEntity
  8
0
100
AcDbBlockEnd
  0
BLOCK
  5
17F
330
17E
100
AcDbEntity
  8
0
100
AcDbBlockBegin
  2
*D21
 70
     1
 10
0.0
 20
0.0
 30
0.0
  3
*D21
  1

  0
LINE
  5
181
330
17E
100
AcDbEntity
  8
寸法
  6
CONTINUOUS
 62
     3
100
AcDbLine
 10
1744.900005353467
 20
1438.0
 30
0.0
 11
1433.8103943
 21
1438.0
 31
0.0
  0
LINE
  5
182
330
17E
100
AcDbEntity
  8
寸法
  6
CONTINUOUS
 62
     3
100
AcDbLine
 10
1453.8103943
 20
1403.0
 30
0.0
 11
1453.8103943
 21
1253.0
 31
0.0
  0
INSERT
  5
183
330
17E
100
AcDbEntity
  8
寸法
 62
     3
100
AcDbBlockReference
  2
EX_NORM
 10
1453.8103943
 20
1438.0
 30
0.0
 41
35.0
 42
35.0
 43
35.0
 50
90.0
  0
INSERT
  5
184
330
17E
100
AcDbEntity
  8
寸法
 62
     3
100
AcDbBlockReference
  2
EX_NORM
 10
1453.8103943
 20
1218.0
 30
0.0
 41
35.0
 42
35.0
 43
35.0
 50
270.0
  0
MTEXT
  5
185
330
17E
100
AcDbEntity
  8
寸法
 62
     2
100
AcDbMText
 10
1430.310394359605
 20
1328.0
 30
0.0
 40
40.0
 41
0.0
 71
     5
 72
     1
  1
220
  7
EXCADDIM1
 11
0.0
 21
1.0
 31
0.0
  0
POINT
  5
186
330
17E
100
AcDbEntity
  8
DEFPOINTS
 62
     0
100
AcDbPoint
 10
1773.8103943
 20
1438.0
 30
0.0
  0
POINT
  5
187
330
17E
100
AcDbEntity
  8
DEFPOINTS
 62
     0
100
AcDbPoint
 10
1453.8103943
 20
1218.0
 30
0.0
  0
POINT
  5
188
330
17E
100
AcDbEntity
  8
DEFPOINTS
 62
     0
100
AcDbPoint
 10
1453.8103943
 20
1218.0
 30
0.0
  0
ENDBLK
  5
180
330
17E
100
AcDbEntity
  8
0
100
AcDbBlockEnd
  0
BLOCK
  5
18B
330
18A
100
AcDbEntity
  8
0
100
AcDbBlockBegin
  2
*D22
 70
     1
 10
0.0
 20
0.0
 30
0.0
  3
*D22
  1

  0
LINE
  5
18D
330
18A
100
AcDbEntity
  8
寸法
  6
CONTINUOUS
 62
     3
100
AcDbLine
 10
555.1009214138094
 20
1248.0
 30
0.0
 11
487.0000000000002
 21
1248.0
 31
0.0
  0
LINE
  5
18E
330
18A
100
AcDbEntity
  8
寸法
  6
CONTINUOUS
 62
     3
100
AcDbLine
 10
507.0000000000001
 20
787.9999999999999
 30
0.0
 11
507.0000000000002
 21
1213.0
 31
0.0
  0
INSERT
  5
18F
330
18A
100
AcDbEntity
  8
寸法
 62
     3
100
AcDbBlockReference
  2
EX_NORM
 10
507.0000000000001
 20
752.9999999999999
 30
0.0
 41
35.0
 42
35.0
 43
35.0
 50
270.0
  0
INSERT
  5
190
330
18A
100
AcDbEntity
  8
寸法
 62
     3
100
AcDbBlockReference
  2
EX_NORM
 10
507.0000000000002
 20
1248.0
 30
0.0
 41
35.0
 42
35.0
 43
35.0
 50
90.0
  0
MTEXT
  5
191
330
18A
100
AcDbEntity
  8
寸法
 62
     2
100
AcDbMText
 10
483.5000000596049
 20
1000.5
 30
0.0
 40
40.0
 41
0.0
 71
     5
 72
     1
  1
495
  7
EXCADDIM1
 11
1.148351896177939E-16
 21
1.0
 31
0.0
  0
POINT
  5
192
330
18A
100
AcDbEntity
  8
DEFPOINTS
 62
     0
100
AcDbPoint
 10
393.0000000000001
 20
752.9999999999999
 30
0.0
  0
POINT
  5
193
330
18A
100
AcDbEntity
  8
DEFPOINTS
 62
     0
100
AcDbPoint
 10
562.1009212946001
 20
1248.0
 30
0.0
  0
POINT
  5
194
330
18A
100
AcDbEntity
  8
DEFPOINTS
 62
     0
100
AcDbPoint
 10
507.0000000000002
 20
1248.0
 30
0.0
  0
ENDBLK
  5
18C
330
18A
100
AcDbEntity
  8
0
100
AcDbBlockEnd
  0
BLOCK
  5
197
330
196
100
AcDbEntity
  8
0
100
AcDbBlockBegin
  2
*D23
 70
     1
 10
0.0
 20
0.0
 30
0.0
  3
*D23
  1

  0
LINE
  5
199
330
196
100
AcDbEntity
  8
寸法
  6
CONTINUOUS
 62
     3
100
AcDbLine
 10
555.1009214138094
 20
1283.0
 30
0.0
 11
487.0000000000002
 21
1283.0
 31
0.0
  0
LINE
  5
19A
330
196
100
AcDbEntity
  8
寸法
  6
CONTINUOUS
 62
     3
100
AcDbLine
 10
507.0000000000002
 20
1248.0
 30
0.0
 11
507.0000000000002
 21
1283.0
 31
0.0
  0
LINE
  5
19B
330
196
100
AcDbEntity
  8
寸法
  6
CONTINUOUS
 62
     3
100
AcDbLine
 10
507.0000000000002
 20
1213.0
 30
0.0
 11
507.0000000000002
 21
1178.0
 31
0.0
  0
LINE
  5
19C
330
196
100
AcDbEntity
  8
寸法
  6
CONTINUOUS
 62
     3
100
AcDbLine
 10
507.0000000000002
 20
1318.0
 30
0.0
 11
507.0000000000002
 21
1353.0
 31
0.0
  0
INSERT
  5
19D
330
196
100
AcDbEntity
  8
寸法
 62
     3
100
AcDbBlockReference
  2
EX_NORM
 10
507.0000000000002
 20
1248.0
 30
0.0
 41
35.0
 42
35.0
 43
35.0
 50
90.0
  0
INSERT
  5
19E
330
196
100
AcDbEntity
  8
寸法
 62
     3
100
AcDbBlockReference
  2
EX_NORM
 10
507.0000000000002
 20
1283.0
 30
0.0
 41
35.0
 42
35.0
 43
35.0
 50
270.0
  0
MTEXT
  5
19F
330
196
100
AcDbEntity
  8
寸法
 62
     2
100
AcDbMText
 10
483.5000000596052
 20
1353.0
 30
0.0
 40
40.0
 41
0.0
 71
     5
 72
     1
  1
35
  7
EXCADDIM1
 11
0.0
 21
1.0
 31
0.0
  0
POINT
  5
1A0
330
196
100
AcDbEntity
  8
DEFPOINTS
 62
     0
100
AcDbPoint
 10
562.1009212946001
 20
1248.0
 30
0.0
  0
POINT
  5
1A1
330
196
100
AcDbEntity
  8
DEFPOINTS
 62
     0
100
AcDbPoint
 10
562.1009212946001
 20
1283.0
 30
0.0
  0
POINT
  5
1A2
330
196
100
AcDbEntity
  8
DEFPOINTS
 62
     0
100
AcDbPoint
 10
507.0000000000002
 20
1283.0
 30
0.0
  0
ENDBLK
  5
198
330
196
100
AcDbEntity
  8
0
100
AcDbBlockEnd
  0
BLOCK
  5
1A5
330
1A4
100
AcDbEntity
  8
0
100
AcDbBlockBegin
  2
*D24
 70
     1
 10
0.0
 20
0.0
 30
0.0
  3
*D24
  1

  0
LINE
  5
1A7
330
1A4
100
AcDbEntity
  8
寸法
  6
CONTINUOUS
 62
     3
100
AcDbLine
 10
1041.0
 20
788.0
 30
0.0
 11
1041.0
 21
1048.0
 31
0.0
  0
INSERT
  5
1A8
330
1A4
100
AcDbEntity
  8
寸法
 62
     3
100
AcDbBlockReference
  2
EX_NORM
 10
1041.0
 20
753.0
 30
0.0
 41
35.0
 42
35.0
 43
35.0
 50
270.0
  0
INSERT
  5
1A9
330
1A4
100
AcDbEntity
  8
寸法
 62
     3
100
AcDbBlockReference
  2
EX_NORM
 10
1041.0
 20
1083.0
 30
0.0
 41
35.0
 42
35.0
 43
35.0
 50
90.0
  0
MTEXT
  5
1AA
330
1A4
100
AcDbEntity
  8
寸法
 62
     2
100
AcDbMText
 10
1017.500000059605
 20
918.0000000000001
 30
0.0
 40
40.0
 41
0.0
 71
     5
 72
     1
  1
330
  7
EXCADDIM1
 11
0.0
 21
1.0
 31
0.0
  0
POINT
  5
1AB
330
1A4
100
AcDbEntity
  8
DEFPOINTS
 62
     0
100
AcDbPoint
 10
1039.0
 20
752.9999999999999
 30
0.0
  0
POINT
  5
1AC
330
1A4
100
AcDbEntity
  8
DEFPOINTS
 62
     0
100
AcDbPoint
 10
979.0000000000001
 20
1083.0
 30
0.0
  0
POINT
  5
1AD
330
1A4
100
AcDbEntity
  8
DEFPOINTS
 62
     0
100
AcDbPoint
 10
1041.0
 20
1083.0
 30
0.0
  0
ENDBLK
  5
1A6
330
1A4
100
AcDbEntity
  8
0
100
AcDbBlockEnd
  0
BLOCK
  5
1B0
330
1AF
100
AcDbEntity
  8
0
100
AcDbBlockBegin
  2
*D25
 70
     1
 10
0.0
 20
0.0
 30
0.0
  3
*D25
  1

  0
LINE
  5
1B2
330
1AF
100
AcDbEntity
  8
寸法
  6
CONTINUOUS
 62
     3
100
AcDbLine
 10
1041.0
 20
1118.0
 30
0.0
 11
1041.0
 21
1403.0
 31
0.0
  0
INSERT
  5
1B3
330
1AF
100
AcDbEntity
  8
寸法
 62
     3
100
AcDbBlockReference
  2
EX_NORM
 10
1041.0
 20
1083.0
 30
0.0
 41
35.0
 42
35.0
 43
35.0
 50
270.0
  0
INSERT
  5
1B4
330
1AF
100
AcDbEntity
  8
寸法
 62
     3
100
AcDbBlockReference
  2
EX_NORM
 10
1041.0
 20
1438.0
 30
0.0
 41
35.0
 42
35.0
 43
35.0
 50
90.0
  0
MTEXT
  5
1B5
330
1AF
100
AcDbEntity
  8
寸法
 62
     2
100
AcDbMText
 10
1017.500000059605
 20
1260.5
 30
0.0
 40
40.0
 41
0.0
 71
     5
 72
     1
  1
355
  7
EXCADDIM1
 11
0.0
 21
1.0
 31
0.0
  0
POINT
  5
1B6
330
1AF
100
AcDbEntity
  8
DEFPOINTS
 62
     0
100
AcDbPoint
 10
899.0000000000001
 20
1083.0
 30
0.0
  0
POINT
  5
1B7
330
1AF
100
AcDbEntity
  8
DEFPOINTS
 62
     0
100
AcDbPoint
 10
665.0004606473001
 20
1438.0
 30
0.0
  0
POINT
  5
1B8
330
1AF
100
AcDbEntity
  8
DEFPOINTS
 62
     0
100
AcDbPoint
 10
1041.0
 20
1438.0
 30
0.0
  0
ENDBLK
  5
1B1
330
1AF
100
AcDbEntity
  8
0
100
AcDbBlockEnd
  0
BLOCK
  5
1BB
330
1BA
100
AcDbEntity
  8
0
100
AcDbBlockBegin
  2
*D26
 70
     1
 10
0.0
 20
0.0
 30
0.0
  3
*D26
  1

  0
LINE
  5
1BD
330
1BA
100
AcDbEntity
  8
寸法
  6
CONTINUOUS
 62
     3
100
AcDbLine
 10
1121.0
 20
1403.0
 30
0.0
 11
1121.0
 21
787.9999999999999
 31
0.0
  0
INSERT
  5
1BE
330
1BA
100
AcDbEntity
  8
寸法
 62
     3
100
AcDbBlockReference
  2
EX_NORM
 10
1121.0
 20
1438.0
 30
0.0
 41
35.0
 42
35.0
 43
35.0
 50
90.0
  0
INSERT
  5
1BF
330
1BA
100
AcDbEntity
  8
寸法
 62
     3
100
AcDbBlockReference
  2
EX_NORM
 10
1121.0
 20
752.9999999999999
 30
0.0
 41
35.0
 42
35.0
 43
35.0
 50
270.0
  0
MTEXT
  5
1C0
330
1BA
100
AcDbEntity
  8
寸法
 62
     2
100
AcDbMText
 10
1097.500000059605
 20
1095.5
 30
0.0
 40
40.0
 41
0.0
 71
     5
 72
     1
  1
685
  7
EXCADDIM1
 11
0.0
 21
1.0
 31
0.0
  0
POINT
  5
1C1
330
1BA
100
AcDbEntity
  8
DEFPOINTS
 62
     0
100
AcDbPoint
 10
979.0000000000001
 20
1438.0
 30
0.0
  0
POINT
  5
1C2
330
1BA
100
AcDbEntity
  8
DEFPOINTS
 62
     0
100
AcDbPoint
 10
1160.0
 20
752.9999999999999
 30
0.0
  0
POINT
  5
1C3
330
1BA
100
AcDbEntity
  8
DEFPOINTS
 62
     0
100
AcDbPoint
 10
1121.0
 20
752.9999999999999
 30
0.0
  0
ENDBLK
  5
1BC
330
1BA
100
AcDbEntity
  8
0
100
AcDbBlockEnd
  0
BLOCK
  5
1C6
330
1C5
100
AcDbEntity
  8
0
100
AcDbBlockBegin
  2
*D27
 70
     1
 10
0.0
 20
0.0
 30
0.0
  3
*D27
  1

  0
LINE
  5
1C8
330
1C5
100
AcDbEntity
  8
寸法
  6
CONTINUOUS
 62
     3
100
AcDbLine
 10
772.0004605280907
 20
1058.0
 30
0.0
 11
901.0
 21
1058.0
 31
0.0
  0
LINE
  5
1C9
330
1C5
100
AcDbEntity
  8
寸法
  6
CONTINUOUS
 62
     3
100
AcDbLine
 10
799.9999998807906
 20
1083.0
 30
0.0
 11
901.0
 21
1083.0
 31
0.0
  0
LINE
  5
1CA
330
1C5
100
AcDbEntity
  8
寸法
  6
CONTINUOUS
 62
     3
100
AcDbLine
 10
881.0
 20
1058.0
 30
0.0
 11
881.0
 21
1083.0
 31
0.0
  0
LINE
  5
1CB
330
1C5
100
AcDbEntity
  8
寸法
  6
CONTINUOUS
 62
     3
100
AcDbLine
 10
881.0
 20
1023.0
 30
0.0
 11
881.0
 21
988.0
 31
0.0
  0
LINE
  5
1CC
330
1C5
100
AcDbEntity
  8
寸法
  6
CONTINUOUS
 62
     3
100
AcDbLine
 10
881.0
 20
1118.0
 30
0.0
 11
881.0
 21
1153.0
 31
0.0
  0
INSERT
  5
1CD
330
1C5
100
AcDbEntity
  8
寸法
 62
     3
100
AcDbBlockReference
  2
EX_NORM
 10
881.0
 20
1058.0
 30
0.0
 41
35.0
 42
35.0
 43
35.0
 50
90.0
  0
INSERT
  5
1CE
330
1C5
100
AcDbEntity
  8
寸法
 62
     3
100
AcDbBlockReference
  2
EX_NORM
 10
881.0
 20
1083.0
 30
0.0
 41
35.0
 42
35.0
 43
35.0
 50
270.0
  0
MTEXT
  5
1CF
330
1C5
100
AcDbEntity
  8
寸法
 62
     2
100
AcDbMText
 10
857.5000000596049
 20
987.9999999999999
 30
0.0
 40
40.0
 41
0.0
 71
     5
 72
     1
  1
25
  7
EXCADDIM1
 11
0.0
 21
1.0
 31
0.0
  0
POINT
  5
1D0
330
1C5
100
AcDbEntity
  8
DEFPOINTS
 62
     0
100
AcDbPoint
 10
765.0004606473
 20
1058.0
 30
0.0
  0
POINT
  5
1D1
330
1C5
100
AcDbEntity
  8
DEFPOINTS
 62
     0
100
AcDbPoint
 10
792.9999999999999
 20
1083.0
 30
0.0
  0
POINT
  5
1D2
330
1C5
100
AcDbEntity
  8
DEFPOINTS
 62
     0
100
AcDbPoint
 10
881.0
 20
1083.0
 30
0.0
  0
ENDBLK
  5
1C7
330
1C5
100
AcDbEntity
  8
0
100
AcDbBlockEnd
  0
BLOCK
  5
1D5
330
1D4
100
AcDbEntity
  8
0
100
AcDbBlockBegin
  2
*D28
 70
     1
 10
0.0
 20
0.0
 30
0.0
  3
*D28
  1

  0
LINE
  5
1D7
330
1D4
100
AcDbEntity
  8
寸法
  6
CONTINUOUS
 62
     3
100
AcDbLine
 10
789.1183571010897
 20
1098.0
 30
0.0
 11
961.0
 21
1098.0
 31
0.0
  0
LINE
  5
1D8
330
1D4
100
AcDbEntity
  8
寸法
  6
CONTINUOUS
 62
     3
100
AcDbLine
 10
961.0
 20
1098.0
 30
0.0
 11
961.0
 21
1083.0
 31
0.0
  0
LINE
  5
1D9
330
1D4
100
AcDbEntity
  8
寸法
  6
CONTINUOUS
 62
     3
100
AcDbLine
 10
961.0
 20
1133.0
 30
0.0
 11
961.0
 21
1168.0
 31
0.0
  0
LINE
  5
1DA
330
1D4
100
AcDbEntity
  8
寸法
  6
CONTINUOUS
 62
     3
100
AcDbLine
 10
961.0
 20
1048.0
 30
0.0
 11
961.0
 21
1013.0
 31
0.0
  0
INSERT
  5
1DB
330
1D4
100
AcDbEntity
  8
寸法
 62
     3
100
AcDbBlockReference
  2
EX_NORM
 10
961.0
 20
1098.0
 30
0.0
 41
35.0
 42
35.0
 43
35.0
 50
270.0
  0
INSERT
  5
1DC
330
1D4
100
AcDbEntity
  8
寸法
 62
     3
100
AcDbBlockReference
  2
EX_NORM
 10
961.0
 20
1083.0
 30
0.0
 41
35.0
 42
35.0
 43
35.0
 50
90.0
  0
MTEXT
  5
1DD
330
1D4
100
AcDbEntity
  8
寸法
 62
     2
100
AcDbMText
 10
937.5000000596051
 20
1168.0
 30
0.0
 40
40.0
 41
0.0
 71
     5
 72
     1
  1
15
  7
EXCADDIM1
 11
0.0
 21
1.0
 31
0.0
  0
POINT
  5
1DE
330
1D4
100
AcDbEntity
  8
DEFPOINTS
 62
     0
100
AcDbPoint
 10
789.1183571010897
 20
1098.0
 30
0.0
  0
POINT
  5
1DF
330
1D4
100
AcDbEntity
  8
DEFPOINTS
 62
     0
100
AcDbPoint
 10
777.6295222119498
 20
1083.0
 30
0.0
  0
POINT
  5
1E0
330
1D4
100
AcDbEntity
  8
DEFPOINTS
 62
     0
100
AcDbPoint
 10
961.0
 20
1083.0
 30
0.0
  0
ENDBLK
  5
1D6
330
1D4
100
AcDbEntity
  8
0
100
AcDbBlockEnd
  0
BLOCK
  5
303
330
302
100
AcDbEntity
  8
0
100
AcDbBlockBegin
  2
*D29
 70
     1
 10
0.0
 20
0.0
 30
0.0
  3
*D29
  1

  0
LINE
  5
305
330
302
100
AcDbEntity
  8
寸法
  6
CONTINUOUS
 62
     3
100
AcDbLine
 10
1713.8103943
 20
706.0000001192092
 30
0.0
 11
1713.8103943
 21
657.0
 31
0.0
  0
LINE
  5
306
330
302
100
AcDbEntity
  8
寸法
  6
CONTINUOUS
 62
     3
100
AcDbLine
 10
1773.8103943
 20
746.0000001192092
 30
0.0
 11
1773.8103943
 21
657.0
 31
0.0
  0
LINE
  5
307
330
302
100
AcDbEntity
  8
寸法
  6
CONTINUOUS
 62
     3
100
AcDbLine
 10
1743.8103943
 20
667.0
 30
0.0
 11
1743.8103943
 21
667.0
 31
0.0
  0
INSERT
  5
308
330
302
100
AcDbEntity
  8
寸法
 62
     3
100
AcDbBlockReference
  2
EX_NORM
 10
1713.8103943
 20
667.0
 30
0.0
 41
30.0
 42
30.0
 43
30.0
 50
180.0
  0
INSERT
  5
309
330
302
100
AcDbEntity
  8
寸法
 62
     3
100
AcDbBlockReference
  2
EX_NORM
 10
1773.8103943
 20
667.0
 30
0.0
 41
30.0
 42
30.0
 43
30.0
  0
MTEXT
  5
30A
330
302
100
AcDbEntity
  8
寸法
 62
     2
100
AcDbMText
 10
1838.8103943
 20
690.0000001192093
 30
0.0
 40
40.0
 41
0.0
 71
     5
 72
     1
  1
60
  7
EXCADDIM1
  0
POINT
  5
30B
330
302
100
AcDbEntity
  8
DEFPOINTS
 62
     0
100
AcDbPoint
 10
1713.8103943
 20
712.9999999999999
 30
0.0
  0
POINT
  5
30C
330
302
100
AcDbEntity
  8
DEFPOINTS
 62
     0
100
AcDbPoint
 10
1773.8103943
 20
752.9999999999999
 30
0.0
  0
POINT
  5
30D
330
302
100
AcDbEntity
  8
DEFPOINTS
 62
     0
100
AcDbPoint
 10
1773.8103943
 20
667.0
 30
0.0
  0
ENDBLK
  5
304
330
302
100
AcDbEntity
  8
0
100
AcDbBlockEnd
  0
BLOCK
  5
311
330
310
100
AcDbEntity
  8
0
100
AcDbBlockBegin
  2
*D30
 70
     1
 10
0.0
 20
0.0
 30
0.0
  3
*D30
  1

  0
LINE
  5
313
330
310
100
AcDbEntity
  8
寸法
  6
CONTINUOUS
 62
     3
100
AcDbLine
 10
725.0004606473
 20
716.0000001192092
 30
0.0
 11
725.0004606473
 21
610.0
 31
0.0
  0
LINE
  5
314
330
310
100
AcDbEntity
  8
寸法
  6
CONTINUOUS
 62
     3
100
AcDbLine
 10
765.0004606473
 20
716.0000001192092
 30
0.0
 11
765.0004606473
 21
610.0
 31
0.0
  0
LINE
  5
315
330
310
100
AcDbEntity
  8
寸法
  6
CONTINUOUS
 62
     3
100
AcDbLine
 10
725.0004606473
 20
620.0
 30
0.0
 11
765.0004606473
 21
620.0
 31
0.0
  0
LINE
  5
316
330
310
100
AcDbEntity
  8
寸法
  6
CONTINUOUS
 62
     3
100
AcDbLine
 10
695.0004606473
 20
620.0
 30
0.0
 11
665.0004606473
 21
620.0
 31
0.0
  0
LINE
  5
317
330
310
100
AcDbEntity
  8
寸法
  6
CONTINUOUS
 62
     3
100
AcDbLine
 10
795.0004606473
 20
620.0
 30
0.0
 11
825.0004606473
 21
620.0
 31
0.0
  0
INSERT
  5
318
330
310
100
AcDbEntity
  8
寸法
 62
     3
100
AcDbBlockReference
  2
EX_NORM
 10
725.0004606473
 20
620.0
 30
0.0
 41
30.0
 42
30.0
 43
30.0
  0
INSERT
  5
319
330
310
100
AcDbEntity
  8
寸法
 62
     3
100
AcDbBlockReference
  2
EX_NORM
 10
765.0004606473
 20
620.0
 30
0.0
 41
30.0
 42
30.0
 43
30.0
 50
180.0
  0
MTEXT
  5
31A
330
310
100
AcDbEntity
  8
寸法
 62
     2
100
AcDbMText
 10
830.0004606473
 20
643.0000001192093
 30
0.0
 40
40.0
 41
0.0
 71
     5
 72
     1
  1
40
  7
EXCADDIM1
  0
POINT
  5
31B
330
310
100
AcDbEntity
  8
DEFPOINTS
 62
     0
100
AcDbPoint
 10
725.0004606473
 20
722.9999999999999
 30
0.0
  0
POINT
  5
31C
330
310
100
AcDbEntity
  8
DEFPOINTS
 62
     0
100
AcDbPoint
 10
765.0004606473
 20
722.9999999999999
 30
0.0
  0
POINT
  5
31D
330
310
100
AcDbEntity
  8
DEFPOINTS
 62
     0
100
AcDbPoint
 10
765.0004606473
 20
620.0
 30
0.0
  0
ENDBLK
  5
312
330
310
100
AcDbEntity
  8
0
100
AcDbBlockEnd
  0
ENDSEC
  0
SECTION
  2
ENTITIES
  0
LINE
  5
A8
330
1F
100
AcDbEntity
  8
枠
  6
EXLTYPE2
 62
     6
100
AcDbLine
 10
169.0
 20
1515.0
 30
0.0
 11
-21.00000000000001
 21
1515.0
 31
0.0
  0
TEXT
  5
A9
330
1F
100
AcDbEntity
  8
枠
  6
CONTINUOUS
 62
     2
100
AcDbText
 10
1889.5371094
 20
282.7227783
 30
0.0
 40
30.0
  1
１
 41
1.101333333333329
  7
EXCADSTD
 72
     5
 11
1913.1371094
 21
282.7227783
 31
0.0
100
AcDbText
  0
TEXT
  5
AA
330
1F
100
AcDbEntity
  8
枠
  6
CONTINUOUS
 62
     2
100
AcDbText
 10
1930.2792969
 20
238.3488464
 30
0.0
 40
30.0
  1
１０
 41
1.098531212121213
  7
EXCADSTD
 72
     5
 11
1982.0671969
 21
238.3488464
 31
0.0
100
AcDbText
  0
TEXT
  5
AB
330
1F
100
AcDbEntity
  8
枠
  6
CONTINUOUS
 62
     2
100
AcDbText
 10
201.5
 20
288.75
 30
0.0
 40
42.5
  1
製図
 41
1.509694117647059
  7
EXCADSTD
 72
     5
 11
302.326
 21
288.75
 31
0.0
100
AcDbText
  0
TEXT
  5
AC
330
1F
100
AcDbEntity
  8
枠
  6
CONTINUOUS
 62
     2
100
AcDbText
 10
356.5
 20
288.75
 30
0.0
 40
42.5
  1
写図
 41
1.509694117647059
  7
EXCADSTD
 72
     5
 11
457.326
 21
288.75
 31
0.0
100
AcDbText
  0
TEXT
  5
AD
330
1F
100
AcDbEntity
  8
枠
  6
CONTINUOUS
 62
     2
100
AcDbText
 10
506.5
 20
288.75
 30
0.0
 40
42.5
  1
検図
 41
1.303826737967914
  7
EXCADSTD
 72
     5
 11
593.577
 21
288.75
 31
0.0
100
AcDbText
  0
TEXT
  5
AE
330
1F
100
AcDbEntity
  8
枠
  6
CONTINUOUS
 62
     2
100
AcDbText
 10
636.5
 20
288.75
 30
0.0
 40
42.5
  1
承認
 41
1.303826737967914
  7
EXCADSTD
 72
     5
 11
723.577
 21
288.75
 31
0.0
100
AcDbText
  0
TEXT
  5
AF
330
1F
100
AcDbEntity
  8
枠
  6
CONTINUOUS
 62
     2
100
AcDbText
 10
752.75
 20
278.75
 30
0.0
 40
42.5
  1
品
 41
1.12
  7
EXCADSTD
 72
     5
 11
786.75
 21
278.75
 31
0.0
100
AcDbText
  0
TEXT
  5
B0
330
1F
100
AcDbEntity
  8
枠
  6
CONTINUOUS
 62
     2
100
AcDbText
 10
752.75
 20
228.75
 30
0.0
 40
42.5
  1
名
 41
1.12
  7
EXCADSTD
 72
     5
 11
786.75
 21
228.75
 31
0.0
100
AcDbText
  0
TEXT
  5
B1
330
1F
100
AcDbEntity
  8
枠
  6
CONTINUOUS
 62
     2
100
AcDbText
 10
1392.75
 20
278.75
 30
0.0
 40
42.5
  1
品
 41
1.12
  7
EXCADSTD
 72
     5
 11
1426.75
 21
278.75
 31
0.0
100
AcDbText
  0
TEXT
  5
B2
330
1F
100
AcDbEntity
  8
枠
  6
CONTINUOUS
 62
     2
100
AcDbText
 10
1392.75
 20
228.75
 30
0.0
 40
42.5
  1
番
 41
1.12
  7
EXCADSTD
 72
     5
 11
1426.75
 21
228.75
 31
0.0
100
AcDbText
  0
TEXT
  5
B3
330
1F
100
AcDbEntity
  8
枠
  6
CONTINUOUS
 62
     2
100
AcDbText
 10
1812.75
 20
278.75
 30
0.0
 40
42.5
  1
尺
 41
1.12
  7
EXCADSTD
 72
     5
 11
1846.75
 21
278.75
 31
0.0
100
AcDbText
  0
TEXT
  5
B4
330
1F
100
AcDbEntity
  8
枠
  6
CONTINUOUS
 62
     2
100
AcDbText
 10
1812.75
 20
228.75
 30
0.0
 40
42.5
  1
度
 41
1.12
  7
EXCADSTD
 72
     5
 11
1846.75
 21
228.75
 31
0.0
100
AcDbText
  0
TEXT
  5
B5
330
1F
100
AcDbEntity
  8
枠
  6
CONTINUOUS
 62
     2
100
AcDbText
 10
1392.75
 20
165.75
 30
0.0
 40
42.5
  1
図
 41
1.12
  7
EXCADSTD
 72
     5
 11
1426.75
 21
165.75
 31
0.0
100
AcDbText
  0
TEXT
  5
B6
330
1F
100
AcDbEntity
  8
枠
  6
CONTINUOUS
 62
     2
100
AcDbText
 10
1392.75
 20
122.75
 30
0.0
 40
42.5
  1
番
 41
1.12
  7
EXCADSTD
 72
     5
 11
1426.75
 21
122.75
 31
0.0
100
AcDbText
  0
TEXT
  5
B7
330
1F
100
AcDbEntity
  8
枠
  6
CONTINUOUS
 62
     2
100
AcDbText
 10
923.6108398000001
 20
218.2713318
 30
0.0
 40
57.5
  1
小便器用筒
 41
1.206896551724138
  7
EXCADSTD
 72
     5
 11
1211.1108398
 21
218.2713318
 31
0.0
100
AcDbText
  0
TEXT
  5
B8
330
1F
100
AcDbEntity
  8
枠
  6
CONTINUOUS
 62
     2
100
AcDbText
 10
1443.0856934
 20
215.9169922
 30
0.0
 40
57.5
  1
ＴＶ１
 41
1.199488491048593
  7
EXCADSTD
 72
     5
 11
1610.5856934
 21
215.9169922
 31
0.0
100
AcDbText
  0
ARC
  5
B9
330
1F
100
AcDbEntity
  8
スト_ル
  6
CONTINUOUS
 62
     7
100
AcDbCircle
 10
552.334970967464
 20
2397.230572197968
 30
0.0
 40
376.3890692506006
100
AcDbArc
 50
308.9635784352971
 51
336.0875641709797
  0
ARC
  5
BA
330
1F
100
AcDbEntity
  8
スト_ル
  6
CONTINUOUS
 62
     7
100
AcDbCircle
 10
805.0004606473
 20
2285.199023400043
 30
0.0
 40
100.0000000000001
100
AcDbArc
 50
336.087564170981
 51
0.0
  0
ARC
  5
BB
330
1F
100
AcDbEntity
  8
スト_ル
  6
CONTINUOUS
 62
     7
100
AcDbCircle
 10
552.3349709674638
 20
2397.230572197968
 30
0.0
 40
352.3890692506006
100
AcDbArc
 50
308.9635784352971
 51
336.0875641709797
  0
ARC
  5
BC
330
1F
100
AcDbEntity
  8
スト_ル
  6
CONTINUOUS
 62
     7
100
AcDbCircle
 10
937.6659503271361
 20
2397.230572197968
 30
0.0
 40
352.3890692506006
100
AcDbArc
 50
203.9124358290203
 51
231.0364215647028
  0
ARC
  5
BD
330
1F
100
AcDbEntity
  8
スト_ル
  6
CONTINUOUS
 62
     7
100
AcDbCircle
 10
937.6659503271361
 20
2397.230572197968
 30
0.0
 40
376.3890692506006
100
AcDbArc
 50
203.9124358290203
 51
231.0364215647028
  0
ARC
  5
BE
330
1F
100
AcDbEntity
  8
スト_ル
  6
CONTINUOUS
 62
     7
100
AcDbCircle
 10
685.0004606473
 20
2285.199023400043
 30
0.0
 40
100.0000000000001
100
AcDbArc
 50
180.0
 51
203.9124358290201
  0
ARC
  5
BF
330
1F
100
AcDbEntity
  8
スト_ル
  6
CONTINUOUS
 62
     7
100
AcDbCircle
 10
745.0004606473
 20
2158.999023400001
 30
0.0
 40
70.0
100
AcDbArc
 50
231.0364215647033
 51
308.9635784352981
  0
ARC
  5
C0
330
1F
100
AcDbEntity
  8
スト_ル
  6
CONTINUOUS
 62
     7
100
AcDbCircle
 10
745.0004606473
 20
2158.999023400001
 30
0.0
 40
45.99999999999999
100
AcDbArc
 50
231.0364215647033
 51
308.9635784352971
  0
LINE
  5
C1
330
1F
100
AcDbEntity
  8
スト_ル
  6
CONTINUOUS
 62
     7
100
AcDbLine
 10
560.0004606473
 20
2338.999023400001
 30
0.0
 11
560.0004606473
 21
2334.538192777913
 31
0.0
  0
LINE
  5
C2
330
1F
100
AcDbEntity
  8
スト_ル
  6
CONTINUOUS
 62
     7
100
AcDbLine
 10
930.0004606473
 20
2338.999023400001
 30
0.0
 11
930.0004606473
 21
2334.538192777913
 31
0.0
  0
LINE
  5
C3
330
1F
100
AcDbEntity
  8
スト_ル
  6
CONTINUOUS
 62
     7
100
AcDbLine
 10
560.0004606473
 20
2338.999023400001
 30
0.0
 11
930.0004606473
 21
2338.999023400001
 31
0.0
  0
ARC
  5
C4
330
1F
100
AcDbEntity
  8
スト_ル
  6
CONTINUOUS
 62
     7
100
AcDbCircle
 10
617.3318835162087
 20
2249.017952248111
 30
0.0
 40
20.0
100
AcDbArc
 50
106.0338177457681
 51
150.062596396238
  0
ARC
  5
C5
330
1F
100
AcDbEntity
  8
スト_ル
  6
CONTINUOUS
 62
     7
100
AcDbCircle
 10
685.0004606473
 20
2285.199023400043
 30
0.0
 40
76.00000000000007
100
AcDbArc
 50
193.0939762169782
 51
203.9124358290204
  0
ARC
  5
C6
330
1F
100
AcDbEntity
  8
スト_ル
  6
CONTINUOUS
 62
     7
100
AcDbCircle
 10
872.6690377783913
 20
2249.017952248111
 30
0.0
 40
20.0
100
AcDbArc
 50
29.9374036037619
 51
73.96618225423197
  0
ARC
  5
C7
330
1F
100
AcDbEntity
  8
スト_ル
  6
CONTINUOUS
 62
     7
100
AcDbCircle
 10
805.0004606473
 20
2285.199023400043
 30
0.0
 40
76.00000000000007
100
AcDbArc
 50
336.08756417098
 51
346.9060237830219
  0
ARC
  5
C8
330
1F
100
AcDbEntity
  8
スト_ル
  6
CONTINUOUS
 62
     7
100
AcDbCircle
 10
566.0004606472999
 20
2334.538192777913
 30
0.0
 40
6.000000000000012
100
AcDbArc
 50
180.0
 51
268.4487471600173
  0
LINE
  5
C9
330
1F
100
AcDbEntity
  8
スト_ル
  6
CONTINUOUS
 62
     7
100
AcDbLine
 10
581.6558677890719
 20
2328.11202758303
 30
0.0
 11
565.8380336753554
 21
2328.540391724295
 31
0.0
  0
ARC
  5
CA
330
1F
100
AcDbEntity
  8
スト_ル
  6
CONTINUOUS
 62
     7
100
AcDbCircle
 10
581.5628064966926
 20
2324.675633301948
 30
0.0
 40
3.43765415060736
100
AcDbArc
 50
0.0
 51
88.44874716001847
  0
LINE
  5
CB
330
1F
100
AcDbEntity
  8
スト_ル
  6
CONTINUOUS
 62
     7
100
AcDbLine
 10
585.0004606473
 20
2324.675633301948
 30
0.0
 11
585.0004606473
 21
2285.199023400043
 31
0.0
  0
ARC
  5
CC
330
1F
100
AcDbEntity
  8
スト_ル
  6
CONTINUOUS
 62
     7
100
AcDbCircle
 10
924.0004606473
 20
2334.538192777913
 30
0.0
 40
6.000000000000012
100
AcDbArc
 50
271.551252839983
 51
0.0
  0
LINE
  5
CD
330
1F
100
AcDbEntity
  8
スト_ル
  6
CONTINUOUS
 62
     7
100
AcDbLine
 10
908.345053505528
 20
2328.11202758303
 30
0.0
 11
924.1628876192444
 21
2328.540391724295
 31
0.0
  0
ARC
  5
CE
330
1F
100
AcDbEntity
  8
スト_ル
  6
CONTINUOUS
 62
     7
100
AcDbCircle
 10
908.4381147979072
 20
2324.675633301948
 30
0.0
 40
3.43765415060736
100
AcDbArc
 50
91.55125283998149
 51
180.0
  0
LINE
  5
CF
330
1F
100
AcDbEntity
  8
スト_ル
  6
CONTINUOUS
 62
     7
100
AcDbLine
 10
905.0004606473
 20
2324.675633301948
 30
0.0
 11
905.0004606473
 21
2285.199023400043
 31
0.0
  0
ARC
  5
D0
330
1F
100
AcDbEntity
  8
スト_ル
  6
CONTINUOUS
 62
     7
100
AcDbCircle
 10
745.0004606473
 20
1804.774488331084
 30
0.0
 40
482.224535068917
100
AcDbArc
 50
73.96618225423254
 51
90.90142832127967
  0
ARC
  5
D1
330
1F
100
AcDbEntity
  8
スト_ル
  6
CONTINUOUS
 62
     7
100
AcDbCircle
 10
745.0004606473
 20
1804.774488331084
 30
0.0
 40
482.224535068917
100
AcDbArc
 50
90.90142832127967
 51
106.0338177457675
  0
TEXT
  5
D2
330
1F
100
AcDbEntity
  8
スト_ル
  6
CONTINUOUS
 62
     2
100
AcDbText
 10
851.0
 20
757.0001525999999
 30
0.0
 40
40.0
  1
Ｆ．Ｌ
 41
1.225
  7
EXCADSTD
 72
     5
 11
970.0
 21
757.0001525999999
 31
0.0
100
AcDbText
  0
LINE
  5
D3
330
1F
100
AcDbEntity
  8
スト_ル
  6
CONTINUOUS
 62
     7
100
AcDbLine
 10
392.9999999999998
 20
752.9999999999998
 30
0.0
 11
1211.0
 21
752.9999999999998
 31
0.0
  0
LINE
  5
D4
330
1F
100
AcDbEntity
  8
スト_ル
  6
CONTINUOUS
 62
     7
100
AcDbLine
 10
724.1796273139668
 20
753.0000000000001
 30
0.0
 11
725.0004606473002
 21
723.0000000000001
 31
0.0
  0
LINE
  5
D5
330
1F
100
AcDbEntity
  8
スト_ル
  6
CONTINUOUS
 62
     7
100
AcDbLine
 10
725.0004606473002
 20
723.0000000000001
 30
0.0
 11
765.0004606473
 21
723.0000000000001
 31
0.0
  0
LINE
  5
D6
330
1F
100
AcDbEntity
  8
スト_ル
  6
CONTINUOUS
 62
     7
100
AcDbLine
 10
765.8212939806331
 20
753.0000000000001
 30
0.0
 11
765.0004606473
 21
723.0000000000001
 31
0.0
  0
LINE
  5
D7
330
1F
100
AcDbEntity
  8
スト_ル
  6
CONTINUOUS
 62
     7
100
AcDbLine
 10
766.3685162028597
 20
773.0000000000002
 30
0.0
 11
775.0004606473
 21
753.0000000000001
 31
0.0
  0
LINE
  5
D8
330
1F
100
AcDbEntity
  8
スト_ル
  6
CONTINUOUS
 62
     7
100
AcDbLine
 10
723.6324050917401
 20
773.0000000000002
 30
0.0
 11
715.0004606473001
 21
753.0000000000001
 31
0.0
  0
LINE
  5
D9
330
1F
100
AcDbEntity
  8
スト_ル
  6
CONTINUOUS
 62
     7
100
AcDbLine
 10
723.6324050917447
 20
772.9999999999999
 30
0.0
 11
766.3685162028555
 21
772.9999999999999
 31
0.0
  0
LINE
  5
DA
330
1F
100
AcDbEntity
  8
スト_ル
  6
CONTINUOUS
 62
     7
100
AcDbLine
 10
715.1504606473
 20
1083.0
 30
0.0
 11
723.6324050917447
 21
772.9999999999999
 31
0.0
  0
LINE
  5
DB
330
1F
100
AcDbEntity
  8
スト_ル
  6
CONTINUOUS
 62
     7
100
AcDbLine
 10
774.8504606472998
 20
1083.0
 30
0.0
 11
766.3685162028555
 21
772.9999999999999
 31
0.0
  0
ARC
  5
DC
330
1F
100
AcDbEntity
  8
スト_ル
  6
CONTINUOUS
 62
     7
100
AcDbCircle
 10
745.0004606473001
 20
1278.0
 30
0.0
 40
160.0
100
AcDbArc
 50
0.0
 51
180.0
  0
ARC
  5
DD
330
1F
100
AcDbEntity
  8
スト_ル
  6
CONTINUOUS
 62
     7
100
AcDbCircle
 10
570.964060943975
 20
1320.410367060856
 30
0.0
 40
20.0
100
AcDbArc
 50
288.9497879271152
 51
330.2960630678963
  0
ARC
  5
DE
330
1F
100
AcDbEntity
  8
スト_ル
  6
CONTINUOUS
 62
     7
100
AcDbCircle
 10
570.0004606473001
 20
1288.360456005482
 30
0.0
 40
10.0
100
AcDbArc
 50
108.9497879271153
 51
180.0
  0
LINE
  5
DF
330
1F
100
AcDbEntity
  8
スト_ル
  6
CONTINUOUS
 62
     7
100
AcDbLine
 10
566.7530665551609
 20
1297.818491298836
 30
0.0
 11
577.4588491282528
 21
1301.494296474147
 31
0.0
  0
ARC
  5
E0
330
1F
100
AcDbEntity
  8
スト_ル
  6
CONTINUOUS
 62
     7
100
AcDbCircle
 10
570.0004606473001
 20
1242.639543994518
 30
0.0
 40
10.0
100
AcDbArc
 50
180.0
 51
251.0502120728867
  0
LINE
  5
E1
330
1F
100
AcDbEntity
  8
スト_ル
  6
CONTINUOUS
 62
     7
100
AcDbLine
 10
560.0004606473001
 20
1288.360456005482
 30
0.0
 11
560.0004606473001
 21
1242.639543994518
 31
0.0
  0
LINE
  5
E2
330
1F
100
AcDbEntity
  8
スト_ル
  6
CONTINUOUS
 62
     7
100
AcDbLine
 10
566.7530665551609
 20
1233.181508701163
 30
0.0
 11
577.891856598658
 21
1229.35703143301
 31
0.0
  0
LINE
  5
E3
330
1F
100
AcDbEntity
  8
スト_ル
  6
CONTINUOUS
 62
     7
100
AcDbLine
 10
905.0004606473
 20
1258.0
 30
0.0
 11
905.0004606473
 21
1278.0
 31
0.0
  0
ARC
  5
E4
330
1F
100
AcDbEntity
  8
スト_ル
  6
CONTINUOUS
 62
     7
100
AcDbCircle
 10
919.0368603506247
 20
1320.410367060856
 30
0.0
 40
20.0
100
AcDbArc
 50
209.7039369321039
 51
251.0502120728858
  0
ARC
  5
E5
330
1F
100
AcDbEntity
  8
スト_ル
  6
CONTINUOUS
 62
     7
100
AcDbCircle
 10
918.6038528802195
 20
1210.440960846301
 30
0.0
 40
20.0
100
AcDbArc
 50
108.9497879271144
 51
164.6795748698121
  0
ARC
  5
E6
330
1F
100
AcDbEntity
  8
スト_ル
  6
CONTINUOUS
 62
     7
100
AcDbCircle
 10
920.0004606473
 20
1288.360456005482
 30
0.0
 40
10.0
100
AcDbArc
 50
0.0
 51
71.05021207288658
  0
LINE
  5
E7
330
1F
100
AcDbEntity
  8
スト_ル
  6
CONTINUOUS
 62
     7
100
AcDbLine
 10
923.2478547394388
 20
1297.818491298837
 30
0.0
 11
912.5420721663469
 21
1301.494296474147
 31
0.0
  0
ARC
  5
E8
330
1F
100
AcDbEntity
  8
スト_ル
  6
CONTINUOUS
 62
     7
100
AcDbCircle
 10
920.0004606473
 20
1242.639543994518
 30
0.0
 40
10.0
100
AcDbArc
 50
288.9497879271147
 51
0.0
  0
LINE
  5
E9
330
1F
100
AcDbEntity
  8
スト_ル
  6
CONTINUOUS
 62
     7
100
AcDbLine
 10
930.0004606473
 20
1288.360456005482
 30
0.0
 11
930.0004606473
 21
1242.639543994518
 31
0.0
  0
LINE
  5
EA
330
1F
100
AcDbEntity
  8
スト_ル
  6
CONTINUOUS
 62
     7
100
AcDbLine
 10
923.2478547394388
 20
1233.181508701164
 30
0.0
 11
912.1090646959417
 21
1229.35703143301
 31
0.0
  0
ARC
  5
EB
330
1F
100
AcDbEntity
  8
スト_ル
  6
CONTINUOUS
 62
     7
100
AcDbCircle
 10
571.3970684143802
 20
1210.440960846301
 30
0.0
 40
20.0
100
AcDbArc
 50
34.75136866045764
 51
71.0502120728856
  0
ARC
  5
EC
330
1F
100
AcDbEntity
  8
スト_ル
  6
CONTINUOUS
 62
     7
100
AcDbCircle
 10
650.0004606472999
 20
1262.712085285278
 30
0.0
 40
40.0
100
AcDbArc
 50
180.0
 51
264.3208101544174
  0
LINE
  5
ED
330
1F
100
AcDbEntity
  8
スト_ル
  6
CONTINUOUS
 62
     7
100
AcDbLine
 10
610.0004606473001
 20
1278.0
 30
0.0
 11
610.0004606473001
 21
1262.712085285278
 31
0.0
  0
ARC
  5
EE
330
1F
100
AcDbEntity
  8
スト_ル
  6
CONTINUOUS
 62
     7
100
AcDbCircle
 10
840.0004606473002
 20
1262.712085285278
 30
0.0
 40
40.0
100
AcDbArc
 50
275.6791898455821
 51
0.0
  0
LINE
  5
EF
330
1F
100
AcDbEntity
  8
スト_ル
  6
CONTINUOUS
 62
     7
100
AcDbLine
 10
880.0004606473
 20
1278.0
 30
0.0
 11
880.0004606473
 21
1262.712085285278
 31
0.0
  0
ARC
  5
F0
330
1F
100
AcDbEntity
  8
スト_ル
  6
CONTINUOUS
 62
     7
100
AcDbCircle
 10
745.0004606473
 20
1282.910714285714
 30
0.0
 40
135.0892857142858
100
AcDbArc
 50
357.9167466479801
 51
182.08325335202
  0
ARC
  5
F1
330
1F
100
AcDbEntity
  8
スト_ル
  6
CONTINUOUS
 62
     7
100
AcDbCircle
 10
745.0004606473
 20
2217.999999999999
 30
0.0
 40
1000.000000000001
100
AcDbArc
 50
264.3208101544177
 51
275.6791898455826
  0
LINE
  5
F2
330
1F
100
AcDbEntity
  8
スト_ル
  6
CONTINUOUS
 62
     7
100
AcDbLine
 10
712.3713990826533
 20
1083.0
 30
0.0
 11
777.6295222119463
 21
1083.0
 31
0.0
  0
ARC
  5
F3
330
1F
100
AcDbEntity
  8
スト_ル
  6
CONTINUOUS
 62
     7
100
AcDbCircle
 10
712.3713990826533
 20
1088.0
 30
0.0
 40
5.0
100
AcDbArc
 50
203.4921951645472
 51
270.0000000000002
  0
ARC
  5
F4
330
1F
100
AcDbEntity
  8
スト_ル
  6
CONTINUOUS
 62
     7
100
AcDbCircle
 10
777.6295222119463
 20
1088.0
 30
0.0
 40
5.0
100
AcDbArc
 50
270.0000000000002
 51
336.5078048354519
  0
ARC
  5
F5
330
1F
100
AcDbEntity
  8
スト_ル
  6
CONTINUOUS
 62
     7
100
AcDbCircle
 10
777.6295222119463
 20
1088.0
 30
0.0
 40
5.0
100
AcDbArc
 50
270.0000000000002
 51
336.5078048354519
  0
LINE
  5
F6
330
1F
100
AcDbEntity
  8
スト_ル
  6
CONTINUOUS
 62
     7
100
AcDbLine
 10
585.0004606473001
 20
1257.99999999999
 30
0.0
 11
585.0004606473001
 21
1278.0
 31
0.0
  0
ARC
  5
F7
330
1F
100
AcDbEntity
  8
スト_ル
  6
CONTINUOUS
 62
     7
100
AcDbCircle
 10
745.0004606473
 20
1257.99999999999
 30
0.0
 40
160.0
100
AcDbArc
 50
180.0
 51
0.0
  0
LINE
  5
F8
330
1F
100
AcDbEntity
  8
スト_ル
  6
CONTINUOUS
 62
     7
100
AcDbLine
 10
905.0004606473
 20
1257.99999999999
 30
0.0
 11
905.0004606473
 21
1278.0
 31
0.0
  0
ARC
  5
F9
330
1F
100
AcDbEntity
  8
スト_ル
  6
CONTINUOUS
 62
     7
100
AcDbCircle
 10
701.1226921569687
 20
1098.941075596771
 30
0.0
 40
5.0
100
AcDbArc
 50
7.156016043294207
 51
74.57802462568124
  0
LINE
  5
FA
330
1F
100
AcDbEntity
  8
スト_ル
  6
CONTINUOUS
 62
     7
100
AcDbLine
 10
706.0837452714352
 20
1099.563933522337
 30
0.0
 11
707.7858271651282
 21
1086.006879283836
 31
0.0
  0
ARC
  5
FB
330
1F
100
AcDbEntity
  8
スト_ル
  6
CONTINUOUS
 62
     7
100
AcDbCircle
 10
788.878229137631
 20
1098.941075596771
 30
0.0
 40
5.0
100
AcDbArc
 50
105.4219753743212
 51
172.8439839567062
  0
LINE
  5
FC
330
1F
100
AcDbEntity
  8
スト_ル
  6
CONTINUOUS
 62
     7
100
AcDbLine
 10
783.9171760231649
 20
1099.563933522339
 30
0.0
 11
782.2150941294718
 21
1086.006879283836
 31
0.0
  0
LINE
  5
FD
330
1F
100
AcDbEntity
  8
スト_ル
  6
EXLTYPE2
 62
     2
100
AcDbLine
 10
725.0004606473
 20
1058.0
 30
0.0
 11
765.0004606473
 21
1058.0
 31
0.0
  0
LINE
  5
FE
330
1F
100
AcDbEntity
  8
スト_ル
  6
EXLTYPE2
 62
     2
100
AcDbLine
 10
725.0004606473
 20
1073.0
 30
0.0
 11
725.0004606473
 21
1058.0
 31
0.0
  0
LINE
  5
FF
330
1F
100
AcDbEntity
  8
スト_ル
  6
EXLTYPE2
 62
     2
100
AcDbLine
 10
765.0004606473
 20
1073.0
 30
0.0
 11
765.0004606473
 21
1058.0
 31
0.0
  0
ARC
  5
100
330
1F
100
AcDbEntity
  8
スト_ル
  6
EXLTYPE2
 62
     2
100
AcDbCircle
 10
715.0004606473001
 20
1073.0
 30
0.0
 40
10.0
100
AcDbArc
 50
0.0
 51
90.00000000000004
  0
ARC
  5
101
330
1F
100
AcDbEntity
  8
スト_ル
  6
EXLTYPE2
 62
     2
100
AcDbCircle
 10
775.0004606472996
 20
1073.0
 30
0.0
 40
10.0
100
AcDbArc
 50
90.00000000000004
 51
180.0
  0
LINE
  5
102
330
1F
100
AcDbEntity
  8
スト_ル
  6
CONTINUOUS
 62
     7
100
AcDbLine
 10
1773.8103943
 20
1693.0
 30
0.0
 11
1773.8103943
 21
752.9999999999998
 31
0.0
  0
TEXT
  5
103
330
1F
100
AcDbEntity
  8
スト_ル
  6
CONTINUOUS
 62
     2
100
AcDbText
 10
1768.8817139
 20
1566.0
 30
0.0
 40
40.0
  1
Ｗ．Ｌ
 50
90.0
 41
1.225
  7
EXCADSTD
 72
     5
 11
1768.8817139
 21
1685.0
 31
0.0
100
AcDbText
  0
LINE
  5
104
330
1F
100
AcDbEntity
  8
スト_ル
  6
CONTINUOUS
 62
     7
100
AcDbLine
 10
1574.251755017543
 20
1220.113131255006
 30
0.0
 11
1535.157281268767
 21
1217.982213625554
 31
0.0
  0
ARC
  5
105
330
1F
100
AcDbEntity
  8
スト_ル
  6
CONTINUOUS
 62
     7
100
AcDbCircle
 10
1566.087842127123
 20
1369.890801574442
 30
0.0
 40
150.0
100
AcDbArc
 50
273.1199266214573
 51
354.6930798862905
  0
ARC
  5
106
330
1F
100
AcDbEntity
  8
スト_ル
  6
CONTINUOUS
 62
     7
100
AcDbCircle
 10
1685.652509283617
 20
1348.756438719385
 30
0.0
 40
240.0000000000001
100
AcDbArc
 50
239.1457695487472
 51
242.9352170709944
  0
ARC
  5
107
330
1F
100
AcDbEntity
  8
スト_ル
  6
CONTINUOUS
 62
     7
100
AcDbCircle
 10
1681.181332735354
 20
1088.0
 30
0.0
 40
5.0
100
AcDbArc
 50
196.4738890323089
 51
270.0000000000002
  0
ARC
  5
108
330
1F
100
AcDbEntity
  8
スト_ル
  6
CONTINUOUS
 62
     7
100
AcDbCircle
 10
1746.439455864647
 20
1088.0
 30
0.0
 40
5.0
100
AcDbArc
 50
270.0000000000002
 51
343.5261109676919
  0
LINE
  5
109
330
1F
100
AcDbEntity
  8
スト_ル
  6
CONTINUOUS
 62
     7
100
AcDbLine
 10
1773.810394300001
 20
1103.6
 30
0.0
 11
1763.854924324997
 21
1101.23059119488
 31
0.0
  0
ARC
  5
10A
330
1F
100
AcDbEntity
  8
スト_ル
  6
CONTINUOUS
 62
     7
100
AcDbCircle
 10
1746.456203567337
 20
1337.518416051467
 30
0.0
 40
100.0000000000001
100
AcDbArc
 50
92.944109052376
 51
100.4240921963225
  0
ARC
  5
10B
330
1F
100
AcDbEntity
  8
スト_ル
  6
CONTINUOUS
 62
     7
100
AcDbCircle
 10
1767.000918488033
 20
938.0463711111136
 30
0.0
 40
500.0000000000003
100
AcDbArc
 50
89.21966742714746
 51
92.94410905237585
  0
ARC
  5
10C
330
1F
100
AcDbEntity
  8
スト_ル
  6
CONTINUOUS
 62
     7
100
AcDbCircle
 10
724.013483925039
 20
1494.607620286131
 30
0.0
 40
1000.000000000001
100
AcDbArc
 50
354.6930798862904
 51
356.2111921701393
  0
LINE
  5
10D
330
1F
100
AcDbEntity
  8
スト_ル
  6
CONTINUOUS
 62
     7
100
AcDbLine
 10
1715.444872304555
 20
1356.017174198087
 30
0.0
 11
1719.727018441246
 21
1402.116771110434
 31
0.0
  0
ARC
  5
10E
330
1F
100
AcDbEntity
  8
スト_ル
  6
CONTINUOUS
 62
     7
100
AcDbCircle
 10
1668.257280415482
 20
1096.440375784537
 30
0.0
 40
5.0
100
AcDbArc
 50
16.4738890323088
 51
78.0453087392536
  0
LINE
  5
10F
330
1F
100
AcDbEntity
  8
スト_ル
  6
CONTINUOUS
 62
     7
100
AcDbLine
 10
1673.052025752686
 20
1097.858267582722
 30
0.0
 11
1676.386587398149
 21
1086.582108201815
 31
0.0
  0
LINE
  5
110
330
1F
100
AcDbEntity
  8
スト_ル
  6
CONTINUOUS
 62
     7
100
AcDbLine
 10
1681.181332735354
 20
1083.0
 30
0.0
 11
1683.810394300001
 21
1083.0
 31
0.0
  0
LINE
  5
111
330
1F
100
AcDbEntity
  8
スト_ル
  6
CONTINUOUS
 62
     7
100
AcDbLine
 10
1743.810394300001
 20
1083.0
 30
0.0
 11
1746.439455864647
 21
1083.0
 31
0.0
  0
ARC
  5
112
330
1F
100
AcDbEntity
  8
スト_ル
  6
CONTINUOUS
 62
     7
100
AcDbCircle
 10
1758.962771704656
 20
1095.085244616749
 30
0.0
 40
5.0
100
AcDbArc
 50
100.5271301647055
 51
163.5261109676987
  0
LINE
  5
113
330
1F
100
AcDbEntity
  8
スト_ル
  6
CONTINUOUS
 62
     7
100
AcDbLine
 10
1754.168026367452
 20
1096.503136414933
 30
0.0
 11
1751.234201201852
 21
1086.582108201815
 31
0.0
  0
ARC
  5
114
330
1F
100
AcDbEntity
  8
スト_ル
  6
CONTINUOUS
 62
     7
100
AcDbCircle
 10
1736.328032490634
 20
1216.889461276724
 30
0.0
 40
118.8894612767235
100
AcDbArc
 50
280.5271301647054
 51
283.3873715059244
  0
ARC
  5
115
330
1F
100
AcDbEntity
  8
スト_ル
  6
CONTINUOUS
 62
     7
100
AcDbCircle
 10
1701.11523868733
 20
1251.628253959775
 30
0.0
 40
153.6282539597748
100
AcDbArc
 50
256.5424357258043
 51
258.0453087392543
  0
LINE
  5
116
330
1F
100
AcDbEntity
  8
スト_ル
  6
CONTINUOUS
 62
     7
100
AcDbLine
 10
1773.810394300001
 20
1438.0
 30
0.0
 11
1760.19144267604
 21
1438.0
 31
0.0
  0
ARC
  5
117
330
1F
100
AcDbEntity
  8
スト_ル
  6
CONTINUOUS
 62
     7
100
AcDbCircle
 10
1603.595606744268
 20
1211.400460525323
 30
0.0
 40
80.0
100
AcDbArc
 50
184.5551440245851
 51
239.1457695487472
  0
ARC
  5
118
330
1F
100
AcDbEntity
  8
スト_ル
  6
CONTINUOUS
 62
     7
100
AcDbCircle
 10
1535.810394300001
 20
1205.999999999999
 30
0.0
 40
12.00000000000003
100
AcDbArc
 50
93.11992662145798
 51
184.5551440245839
  0
ARC
  5
119
330
1F
100
AcDbEntity
  8
スト_ル
  6
CONTINUOUS
 62
     7
100
AcDbCircle
 10
1712.934083205751
 20
1233.968805504473
 30
0.0
 40
50.00000000000004
100
AcDbArc
 50
338.6004089134759
 51
358.815481110063
  0
LINE
  5
11A
330
1F
100
AcDbEntity
  8
スト_ル
  6
CONTINUOUS
 62
     7
100
AcDbLine
 10
1762.923398483001
 20
1232.935191402562
 30
0.0
 11
1762.923398483001
 21
1296.76762819928
 31
0.0
  0
ARC
  5
11B
330
1F
100
AcDbEntity
  8
スト_ル
  6
CONTINUOUS
 62
     7
100
AcDbCircle
 10
1712.934083205751
 20
1295.734014097367
 30
0.0
 40
50.00000000000004
100
AcDbArc
 50
1.184518889937632
 51
21.39959108652517
  0
ARC
  5
11C
330
1F
100
AcDbEntity
  8
スト_ル
  6
CONTINUOUS
 62
     7
100
AcDbCircle
 10
1729.810394300001
 20
1428.0
 30
0.0
 40
8.0
100
AcDbArc
 50
100.4240921963224
 51
176.211192170139
  0
LINE
  5
11D
330
1F
100
AcDbEntity
  8
スト_ル
  6
CONTINUOUS
 62
     7
100
AcDbLine
 10
1701.11523868733
 20
1098.0
 30
0.0
 11
1736.328032490634
 21
1098.0
 31
0.0
  0
ARC
  5
11E
330
1F
100
AcDbEntity
  8
スト_ル
  6
CONTINUOUS
 62
     7
100
AcDbCircle
 10
1701.11523868733
 20
1251.628253959775
 30
0.0
 40
153.6282539597748
100
AcDbArc
 50
258.0453087392674
 51
270.0000000000002
  0
ARC
  5
11F
330
1F
100
AcDbEntity
  8
スト_ル
  6
CONTINUOUS
 62
     7
100
AcDbCircle
 10
1736.328032490634
 20
1216.889461276724
 30
0.0
 40
118.8894612767235
100
AcDbArc
 50
270.0000000000002
 51
280.5271301646912
  0
LINE
  5
120
330
1F
100
AcDbEntity
  8
スト_ル
  6
CONTINUOUS
 62
     7
100
AcDbLine
 10
1683.810394300001
 20
1083.0
 30
0.0
 11
1743.810394300001
 21
1083.0
 31
0.0
  0
LINE
  5
121
330
1F
100
AcDbEntity
  8
スト_ル
  6
CONTINUOUS
 62
     7
100
AcDbLine
 10
1692.989560966667
 20
753.0000000000001
 30
0.0
 11
1693.810394300001
 21
723.0000000000001
 31
0.0
  0
LINE
  5
122
330
1F
100
AcDbEntity
  8
スト_ル
  6
CONTINUOUS
 62
     7
100
AcDbLine
 10
1693.810394300001
 20
723.0000000000001
 30
0.0
 11
1733.8103943
 21
723.0000000000001
 31
0.0
  0
LINE
  5
123
330
1F
100
AcDbEntity
  8
スト_ル
  6
CONTINUOUS
 62
     7
100
AcDbLine
 10
1734.631227633334
 20
753.0000000000001
 30
0.0
 11
1733.8103943
 21
723.0000000000001
 31
0.0
  0
LINE
  5
124
330
1F
100
AcDbEntity
  8
スト_ル
  6
CONTINUOUS
 62
     7
100
AcDbLine
 10
1735.17844985556
 20
773.0000000000003
 30
0.0
 11
1743.8103943
 21
753.0000000000001
 31
0.0
  0
LINE
  5
125
330
1F
100
AcDbEntity
  8
スト_ル
  6
CONTINUOUS
 62
     7
100
AcDbLine
 10
1692.442338744441
 20
773.0000000000003
 30
0.0
 11
1683.810394300001
 21
753.0000000000001
 31
0.0
  0
LINE
  5
126
330
1F
100
AcDbEntity
  8
スト_ル
  6
CONTINUOUS
 62
     7
100
AcDbLine
 10
1692.442338744445
 20
772.9999999999998
 30
0.0
 11
1735.178449855556
 21
772.9999999999998
 31
0.0
  0
LINE
  5
127
330
1F
100
AcDbEntity
  8
スト_ル
  6
CONTINUOUS
 62
     7
100
AcDbLine
 10
1683.9603943
 20
1083.0
 30
0.0
 11
1692.442338744445
 21
772.9999999999998
 31
0.0
  0
LINE
  5
128
330
1F
100
AcDbEntity
  8
スト_ル
  6
CONTINUOUS
 62
     7
100
AcDbLine
 10
1743.6603943
 20
1083.0
 30
0.0
 11
1735.178449855556
 21
772.9999999999998
 31
0.0
  0
LINE
  5
129
330
1F
100
AcDbEntity
  8
スト_ル
  6
EXLTYPE2
 62
     2
100
AcDbLine
 10
1693.810394300001
 20
1058.0
 30
0.0
 11
1733.810394300001
 21
1058.0
 31
0.0
  0
LINE
  5
12A
330
1F
100
AcDbEntity
  8
スト_ル
  6
EXLTYPE2
 62
     2
100
AcDbLine
 10
1693.810394300001
 20
1073.0
 30
0.0
 11
1693.810394300001
 21
1058.0
 31
0.0
  0
LINE
  5
12B
330
1F
100
AcDbEntity
  8
スト_ル
  6
EXLTYPE2
 62
     2
100
AcDbLine
 10
1733.810394300001
 20
1073.0
 30
0.0
 11
1733.810394300001
 21
1058.0
 31
0.0
  0
ARC
  5
12C
330
1F
100
AcDbEntity
  8
スト_ル
  6
EXLTYPE2
 62
     2
100
AcDbCircle
 10
1683.810394300001
 20
1073.0
 30
0.0
 40
10.0
100
AcDbArc
 50
0.0
 51
90.00000000000004
  0
ARC
  5
12D
330
1F
100
AcDbEntity
  8
スト_ル
  6
EXLTYPE2
 62
     2
100
AcDbCircle
 10
1743.810394300001
 20
1073.0
 30
0.0
 40
10.0
100
AcDbArc
 50
90.00000000000004
 51
180.0
  0
DIMENSION
  5
12F
330
1F
100
AcDbEntity
  8
寸法
  6
CONTINUOUS
 62
     3
100
AcDbDimension
  2
*D15
 10
635.1504606473
 20
722.9999999999999
 30
0.0
 11
611.6504607069047
 21
903.0
 31
0.0
 70
   160
  3
ISO-25
100
AcDbAlignedDimension
 13
713.3009212945998
 23
1083.0
 33
0.0
 14
723.1509212945999
 24
722.9999999999999
 34
0.0
 50
90.0
100
AcDbRotatedDimension
1001
ACAD
1000
DSTYLE
1002
{
1070
   270
1070
     2
1070
     6
1000
EX_NORM
1070
     7
1000
EX_NORM
1070
    41
1040
35.0
1070
    42
1040
5.150460004806519
1070
    44
1040
20.0
1070
    73
1070
     0
1070
    74
1070
     0
1070
    75
1070
     0
1070
    76
1070
     0
1070
    77
1070
     1
1070
    78
1070
     0
1070
   140
1040
40.0
1070
   147
1040
0.0
1070
   173
1070
     1
1070
   176
1070
     3
1070
   177
1070
     3
1070
   178
1070
     2
1070
   271
1070
     0
1070
   277
1070
     2
1070
   279
1070
     2
1070
   280
1070
     0
1070
   287
1070
     5
1070
   340
1005
12E
1002
}
  0
DIMENSION
  5
13D
330
1F
100
AcDbEntity
  8
寸法
  6
CONTINUOUS
 62
     3
100
AcDbDimension
  2
*D16
 10
915.0004606473
 20
2408.9990234
 30
0.0
 11
745.0004606473001
 21
2432.499023340396
 31
0.0
 70
   160
  3
ISO-25
100
AcDbAlignedDimension
 13
575.0004606473
 23
2366.2922632426
 33
0.0
 14
915.0004606473
 24
2366.2922632426
 34
0.0
100
AcDbRotatedDimension
1001
ACAD
1000
DSTYLE
1002
{
1070
   270
1070
     2
1070
     6
1000
EX_NORM
1070
     7
1000
EX_NORM
1070
    41
1040
35.0
1070
    42
1040
18.81976008415222
1070
    44
1040
20.0
1070
    73
1070
     0
1070
    74
1070
     0
1070
    75
1070
     0
1070
    76
1070
     0
1070
    77
1070
     1
1070
    78
1070
     0
1070
   140
1040
40.0
1070
   147
1040
0.0
1070
   173
1070
     1
1070
   176
1070
     3
1070
   177
1070
     3
1070
   178
1070
     2
1070
   271
1070
     0
1070
   277
1070
     2
1070
   279
1070
     2
1070
   280
1070
     0
1070
   287
1070
     5
1070
   340
1005
12E
1002
}
  0
DIMENSION
  5
14A
330
1F
100
AcDbEntity
  8
寸法
  6
CONTINUOUS
 62
     3
100
AcDbDimension
  2
*D17
 10
930.0004606473
 20
2468.9990234
 30
0.0
 11
745.0004606473001
 21
2492.499023340396
 31
0.0
 70
   160
  3
ISO-25
100
AcDbAlignedDimension
 13
560.0004606473
 23
2338.999023400001
 33
0.0
 14
930.0004606473
 24
2338.999023400001
 34
0.0
100
AcDbRotatedDimension
1001
ACAD
1000
DSTYLE
1002
{
1070
   270
1070
     2
1070
     6
1000
EX_NORM
1070
     7
1000
EX_NORM
1070
    41
1040
35.0
1070
    42
1040
6.99999988079071
1070
    44
1040
20.0
1070
    73
1070
     0
1070
    74
1070
     0
1070
    75
1070
     0
1070
    76
1070
     0
1070
    77
1070
     1
1070
    78
1070
     0
1070
   140
1040
40.0
1070
   147
1040
0.0
1070
   173
1070
     1
1070
   176
1070
     3
1070
   177
1070
     3
1070
   178
1070
     2
1070
   271
1070
     0
1070
   277
1070
     2
1070
   279
1070
     2
1070
   280
1070
     0
1070
   287
1070
     5
1070
   340
1005
12E
1002
}
  0
DIMENSION
  5
157
330
1F
100
AcDbEntity
  8
寸法
  6
CONTINUOUS
 62
     3
100
AcDbDimension
  2
*D18
 10
1000.0004606473
 20
2088.9990234
 30
0.0
 11
976.5004607069047
 21
2213.9990234
 31
0.0
 70
   160
  3
ISO-25
100
AcDbAlignedDimension
 13
930.0004606473
 23
2338.9990234
 33
0.0
 14
745.0004606473
 24
2088.9990234
 34
0.0
 50
90.0
100
AcDbRotatedDimension
1001
ACAD
1000
DSTYLE
1002
{
1070
   270
1070
     2
1070
     6
1000
EX_NORM
1070
     7
1000
EX_NORM
1070
    41
1040
35.0
1070
    42
1040
6.99999988079071
1070
    44
1040
20.0
1070
    73
1070
     0
1070
    74
1070
     0
1070
    75
1070
     0
1070
    76
1070
     0
1070
    77
1070
     1
1070
    78
1070
     0
1070
   140
1040
40.0
1070
   147
1040
0.0
1070
   173
1070
     1
1070
   176
1070
     3
1070
   177
1070
     3
1070
   178
1070
     2
1070
   271
1070
     0
1070
   277
1070
     2
1070
   279
1070
     2
1070
   280
1070
     0
1070
   287
1070
     5
1070
   340
1005
12E
1002
}
  0
DIMENSION
  5
164
330
1F
100
AcDbEntity
  8
寸法
  6
CONTINUOUS
 62
     3
100
AcDbDimension
  2
*D19
 10
905.0004606473
 20
2018.9990234
 30
0.0
 11
745.0004606473001
 21
2042.499023340396
 31
0.0
 70
   160
  3
ISO-25
100
AcDbAlignedDimension
 13
585.0004606473
 23
2285.1990234
 33
0.0
 14
905.0004606473
 24
2285.1990234
 34
0.0
100
AcDbRotatedDimension
1001
ACAD
1000
DSTYLE
1002
{
1070
   270
1070
     2
1070
     6
1000
EX_NORM
1070
     7
1000
EX_NORM
1070
    41
1040
35.0
1070
    42
1040
6.99999988079071
1070
    44
1040
20.0
1070
    73
1070
     0
1070
    74
1070
     0
1070
    75
1070
     0
1070
    76
1070
     0
1070
    77
1070
     1
1070
    78
1070
     0
1070
   140
1040
40.0
1070
   147
1040
0.0
1070
   173
1070
     1
1070
   176
1070
     3
1070
   177
1070
     3
1070
   178
1070
     2
1070
   271
1070
     0
1070
   277
1070
     2
1070
   279
1070
     2
1070
   280
1070
     0
1070
   287
1070
     5
1070
   340
1005
12E
1002
}
  0
DIMENSION
  5
171
330
1F
100
AcDbEntity
  8
寸法
  6
CONTINUOUS
 62
     3
100
AcDbDimension
  2
*D20
 10
1453.8103943
 20
1218.0
 30
0.0
 11
1430.310394359605
 21
985.4999999999998
 31
0.0
 70
   160
  3
ISO-25
100
AcDbAlignedDimension
 13
1453.8103943
 23
752.9999999999998
 33
0.0
 14
1518.0
 24
1218.0
 34
0.0
 50
90.0
100
AcDbRotatedDimension
1001
ACAD
1000
DSTYLE
1002
{
1070
   270
1070
     2
1070
     6
1000
EX_NORM
1070
     7
1000
EX_NORM
1070
    41
1040
35.0
1070
    42
1040
0.0
1070
    44
1040
0.0
1070
    73
1070
     0
1070
    74
1070
     0
1070
    75
1070
     1
1070
    76
1070
     0
1070
    77
1070
     1
1070
    78
1070
     0
1070
   140
1040
40.0
1070
   147
1040
0.0
1070
   173
1070
     1
1070
   176
1070
     3
1070
   177
1070
     3
1070
   178
1070
     2
1070
   271
1070
     0
1070
   277
1070
     2
1070
   279
1070
     2
1070
   280
1070
     0
1070
   287
1070
     5
1070
   340
1005
12E
1002
}
  0
DIMENSION
  5
17D
330
1F
100
AcDbEntity
  8
寸法
  6
CONTINUOUS
 62
     3
100
AcDbDimension
  2
*D21
 10
1453.8103943
 20
1218.0
 30
0.0
 11
1430.310394359605
 21
1328.0
 31
0.0
 70
   160
  3
ISO-25
100
AcDbAlignedDimension
 13
1773.8103943
 23
1438.0
 33
0.0
 14
1453.8103943
 24
1218.0
 34
0.0
 50
90.0
100
AcDbRotatedDimension
1001
ACAD
1000
DSTYLE
1002
{
1070
   270
1070
     2
1070
     6
1000
EX_NORM
1070
     7
1000
EX_NORM
1070
    41
1040
35.0
1070
    42
1040
28.9103889465332
1070
    44
1040
20.0
1070
    73
1070
     0
1070
    74
1070
     0
1070
    75
1070
     0
1070
    76
1070
     1
1070
    77
1070
     1
1070
    78
1070
     0
1070
   140
1040
40.0
1070
   147
1040
0.0
1070
   173
1070
     1
1070
   176
1070
     3
1070
   177
1070
     3
1070
   178
1070
     2
1070
   271
1070
     0
1070
   277
1070
     2
1070
   279
1070
     2
1070
   280
1070
     0
1070
   287
1070
     5
1070
   340
1005
12E
1002
}
  0
DIMENSION
  5
189
330
1F
100
AcDbEntity
  8
寸法
  6
CONTINUOUS
 62
     3
100
AcDbDimension
  2
*D22
 10
507.0000000000002
 20
1248.0
 30
0.0
 11
483.5000000596049
 21
1000.5
 31
0.0
 70
   160
  3
ISO-25
100
AcDbAlignedDimension
 13
393.0000000000001
 23
752.9999999999999
 33
0.0
 14
562.1009212946001
 24
1248.0
 34
0.0
 50
90.0
100
AcDbRotatedDimension
1001
ACAD
1000
DSTYLE
1002
{
1070
   270
1070
     2
1070
     6
1000
EX_NORM
1070
     7
1000
EX_NORM
1070
    41
1040
35.0
1070
    42
1040
6.99999988079071
1070
    44
1040
20.0
1070
    73
1070
     0
1070
    74
1070
     0
1070
    75
1070
     1
1070
    76
1070
     0
1070
    77
1070
     1
1070
    78
1070
     0
1070
   140
1040
40.0
1070
   147
1040
0.0
1070
   173
1070
     1
1070
   176
1070
     3
1070
   177
1070
     3
1070
   178
1070
     2
1070
   271
1070
     0
1070
   277
1070
     2
1070
   279
1070
     2
1070
   280
1070
     0
1070
   287
1070
     5
1070
   340
1005
12E
1002
}
  0
DIMENSION
  5
195
330
1F
100
AcDbEntity
  8
寸法
  6
CONTINUOUS
 62
     3
100
AcDbDimension
  2
*D23
 10
507.0000000000002
 20
1283.0
 30
0.0
 11
483.5000000596052
 21
1353.0
 31
0.0
 70
   160
  3
ISO-25
100
AcDbAlignedDimension
 13
562.1009212946001
 23
1248.0
 33
0.0
 14
562.1009212946001
 24
1283.0
 34
0.0
 50
90.0
100
AcDbRotatedDimension
1001
ACAD
1000
DSTYLE
1002
{
1070
   270
1070
     2
1070
     6
1000
EX_NORM
1070
     7
1000
EX_NORM
1070
    41
1040
35.0
1070
    42
1040
6.99999988079071
1070
    44
1040
20.0
1070
    73
1070
     0
1070
    74
1070
     0
1070
    75
1070
     1
1070
    76
1070
     0
1070
    77
1070
     1
1070
    78
1070
     0
1070
   140
1040
40.0
1070
   147
1040
0.0
1070
   173
1070
     1
1070
   176
1070
     3
1070
   177
1070
     3
1070
   178
1070
     2
1070
   271
1070
     0
1070
   277
1070
     2
1070
   279
1070
     2
1070
   280
1070
     2
1070
   287
1070
     5
1070
   340
1005
12E
1002
}
  0
DIMENSION
  5
1A3
330
1F
100
AcDbEntity
  8
寸法
  6
CONTINUOUS
 62
     3
100
AcDbDimension
  2
*D24
 10
1041.0
 20
1083.0
 30
0.0
 11
1017.500000059605
 21
918.0000000000001
 31
0.0
 70
   160
  3
ISO-25
100
AcDbAlignedDimension
 13
1039.0
 23
752.9999999999999
 33
0.0
 14
979.0000000000001
 24
1083.0
 34
0.0
 50
90.0
100
AcDbRotatedDimension
1001
ACAD
1000
DSTYLE
1002
{
1070
   270
1070
     2
1070
     6
1000
EX_NORM
1070
     7
1000
EX_NORM
1070
    41
1040
35.0
1070
    42
1040
0.0
1070
    44
1040
0.0
1070
    73
1070
     0
1070
    74
1070
     0
1070
    75
1070
     1
1070
    76
1070
     1
1070
    77
1070
     1
1070
    78
1070
     0
1070
   140
1040
40.0
1070
   147
1040
0.0
1070
   173
1070
     1
1070
   176
1070
     3
1070
   177
1070
     3
1070
   178
1070
     2
1070
   271
1070
     0
1070
   277
1070
     2
1070
   279
1070
     2
1070
   280
1070
     0
1070
   287
1070
     5
1070
   340
1005
12E
1002
}
  0
DIMENSION
  5
1AE
330
1F
100
AcDbEntity
  8
寸法
  6
CONTINUOUS
 62
     3
100
AcDbDimension
  2
*D25
 10
1041.0
 20
1438.0
 30
0.0
 11
1017.500000059605
 21
1260.5
 31
0.0
 70
   160
  3
ISO-25
100
AcDbAlignedDimension
 13
899.0000000000001
 23
1083.0
 33
0.0
 14
665.0004606473001
 24
1438.0
 34
0.0
 50
90.0
100
AcDbRotatedDimension
1001
ACAD
1000
DSTYLE
1002
{
1070
   270
1070
     2
1070
     6
1000
EX_NORM
1070
     7
1000
EX_NORM
1070
    41
1040
35.0
1070
    42
1040
0.0
1070
    44
1040
0.0
1070
    73
1070
     0
1070
    74
1070
     0
1070
    75
1070
     1
1070
    76
1070
     1
1070
    77
1070
     1
1070
    78
1070
     0
1070
   140
1040
40.0
1070
   147
1040
0.0
1070
   173
1070
     1
1070
   176
1070
     3
1070
   177
1070
     3
1070
   178
1070
     2
1070
   271
1070
     0
1070
   277
1070
     2
1070
   279
1070
     2
1070
   280
1070
     0
1070
   287
1070
     5
1070
   340
1005
12E
1002
}
  0
DIMENSION
  5
1B9
330
1F
100
AcDbEntity
  8
寸法
  6
CONTINUOUS
 62
     3
100
AcDbDimension
  2
*D26
 10
1121.0
 20
752.9999999999999
 30
0.0
 11
1097.500000059605
 21
1095.5
 31
0.0
 70
   160
  3
ISO-25
100
AcDbAlignedDimension
 13
979.0000000000001
 23
1438.0
 33
0.0
 14
1160.0
 24
752.9999999999999
 34
0.0
 50
90.0
100
AcDbRotatedDimension
1001
ACAD
1000
DSTYLE
1002
{
1070
   270
1070
     2
1070
     6
1000
EX_NORM
1070
     7
1000
EX_NORM
1070
    41
1040
35.0
1070
    42
1040
0.0
1070
    44
1040
0.0
1070
    73
1070
     0
1070
    74
1070
     0
1070
    75
1070
     1
1070
    76
1070
     1
1070
    77
1070
     1
1070
    78
1070
     0
1070
   140
1040
40.0
1070
   147
1040
0.0
1070
   173
1070
     1
1070
   176
1070
     3
1070
   177
1070
     3
1070
   178
1070
     2
1070
   271
1070
     0
1070
   277
1070
     2
1070
   279
1070
     2
1070
   280
1070
     0
1070
   287
1070
     5
1070
   340
1005
12E
1002
}
  0
DIMENSION
  5
1C4
330
1F
100
AcDbEntity
  8
寸法
  6
CONTINUOUS
 62
     3
100
AcDbDimension
  2
*D27
 10
881.0
 20
1083.0
 30
0.0
 11
857.5000000596049
 21
987.9999999999999
 31
0.0
 70
   160
  3
ISO-25
100
AcDbAlignedDimension
 13
765.0004606473
 23
1058.0
 33
0.0
 14
792.9999999999999
 24
1083.0
 34
0.0
 50
90.0
100
AcDbRotatedDimension
1001
ACAD
1000
DSTYLE
1002
{
1070
   270
1070
     2
1070
     6
1000
EX_NORM
1070
     7
1000
EX_NORM
1070
    41
1040
35.0
1070
    42
1040
6.99999988079071
1070
    44
1040
20.0
1070
    73
1070
     0
1070
    74
1070
     0
1070
    75
1070
     0
1070
    76
1070
     0
1070
    77
1070
     1
1070
    78
1070
     0
1070
   140
1040
40.0
1070
   147
1040
0.0
1070
   173
1070
     1
1070
   176
1070
     3
1070
   177
1070
     3
1070
   178
1070
     2
1070
   271
1070
     0
1070
   277
1070
     2
1070
   279
1070
     2
1070
   280
1070
     1
1070
   287
1070
     5
1070
   340
1005
12E
1002
}
  0
DIMENSION
  5
1D3
330
1F
100
AcDbEntity
  8
寸法
  6
CONTINUOUS
 62
     3
100
AcDbDimension
  2
*D28
 10
961.0
 20
1083.0
 30
0.0
 11
937.5000000596051
 21
1168.0
 31
0.0
 70
   160
  3
ISO-25
100
AcDbAlignedDimension
 13
789.1183571010897
 23
1098.0
 33
0.0
 14
777.6295222119498
 24
1083.0
 34
0.0
 50
90.0
100
AcDbRotatedDimension
1001
ACAD
1000
DSTYLE
1002
{
1070
   270
1070
     2
1070
     6
1000
EX_NORM
1070
     7
1000
EX_NORM
1070
    41
1040
35.0
1070
    42
1040
0.0
1070
    44
1040
0.0
1070
    73
1070
     0
1070
    74
1070
     0
1070
    75
1070
     0
1070
    76
1070
     1
1070
    77
1070
     1
1070
    78
1070
     0
1070
   140
1040
40.0
1070
   147
1040
0.0
1070
   173
1070
     1
1070
   176
1070
     3
1070
   177
1070
     3
1070
   178
1070
     2
1070
   271
1070
     0
1070
   277
1070
     2
1070
   279
1070
     2
1070
   280
1070
     1
1070
   287
1070
     5
1070
   340
1005
12E
1002
}
  0
LINE
  5
1E1
330
1F
100
AcDbEntity
  8
寸法
  6
CONTINUOUS
 62
     3
100
AcDbLine
 10
745.0004615783693
 20
1438.0
 30
0.0
 11
1141.0
 21
1438.0
 31
0.0
  0
TEXT
  5
1E2
330
1F
100
AcDbEntity
  8
器具明細表
  6
CONTINUOUS
 62
     2
100
AcDbText
 10
1299.4003906
 20
2685.0
 30
0.0
 40
55.0
  1
品　　番
 41
1.245059288537549
  7
EXCADSTD
 72
     5
 11
1524.4003906
 21
2685.0
 31
0.0
100
AcDbText
  0
TEXT
  5
1E3
330
1F
100
AcDbEntity
  8
器具明細表
  6
CONTINUOUS
 62
     2
100
AcDbText
 10
1864.0
 20
2685.0
 30
0.0
 40
55.0
  1
個数
 41
0.9226601652892572
  7
EXCADSTD
 72
     5
 11
1943.7442
 21
2685.0
 31
0.0
100
AcDbText
  0
TEXT
  5
1E4
330
1F
100
AcDbEntity
  8
器具明細表
  6
CONTINUOUS
 62
     2
100
AcDbText
 10
1629.0170898
 20
2685.0
 30
0.0
 40
55.0
  1
品　　名
 41
0.9960474308300394
  7
EXCADSTD
 72
     5
 11
1809.0170898
 21
2685.0
 31
0.0
100
AcDbText
  0
TEXT
  5
1E5
330
1F
100
AcDbEntity
  8
器具明細表
  6
CONTINUOUS
 62
     2
100
AcDbText
 10
1582.918457
 20
2620.0
 30
0.0
 40
50.0
  1
小便器
 41
0.9800000000000001
  7
EXCADSTD
 72
     5
 11
1701.918457
 21
2620.0
 31
0.0
100
AcDbText
  0
TEXT
  5
1E6
330
1F
100
AcDbEntity
  8
器具明細表
  6
CONTINUOUS
 62
     2
100
AcDbText
 10
1884.0
 20
2623.9819336
 30
0.0
 40
47.5
  1
１
 41
1.112926243832238
  7
EXCADSTD
 72
     5
 11
1921.759997558594
 21
2623.9819336
 31
0.0
100
AcDbText
  0
TEXT
  5
1E7
330
1F
100
AcDbEntity
  8
器具明細表
  6
CONTINUOUS
 62
     2
100
AcDbText
 10
1884.0
 20
2558.3816528
 30
0.0
 40
47.5
  1
１
 41
1.112926243832238
  7
EXCADSTD
 72
     5
 11
1921.759997558594
 21
2558.3816528
 31
0.0
100
AcDbText
  0
TEXT
  5
1E8
330
1F
100
AcDbEntity
  8
器具明細表
  6
CONTINUOUS
 62
     2
100
AcDbText
 10
1582.918457
 20
2555.7791138
 30
0.0
 40
50.0
  1
筒
 41
1.008
  7
EXCADSTD
 72
     5
 11
1618.918457
 21
2555.7791138
 31
0.0
100
AcDbText
  0
TEXT
  5
1E9
330
1F
100
AcDbEntity
  8
器具明細表
  6
CONTINUOUS
 62
     2
100
AcDbText
 10
1884.0
 20
2493.381958
 30
0.0
 40
47.5
  1
４
 41
1.112926243832238
  7
EXCADSTD
 72
     5
 11
1921.759997558594
 21
2493.381958
 31
0.0
100
AcDbText
  0
TEXT
  5
1EA
330
1F
100
AcDbEntity
  8
器具明細表
  6
CONTINUOUS
 62
     2
100
AcDbText
 10
1582.918457
 20
2490.779419
 30
0.0
 40
50.0
  1
化粧頭付木ねじ
 41
0.9117073170731708
  7
EXCADSTD
 72
     5
 11
1849.918457
 21
2490.779419
 31
0.0
100
AcDbText
  0
TEXT
  5
1EB
330
1F
100
AcDbEntity
  8
器具明細表
  6
CONTINUOUS
 62
     2
100
AcDbText
 10
1251.9838562
 20
2557.4801636
 30
0.0
 40
50.0
  1
ＴＶ１
 41
0.9800000000000001
  7
EXCADSTD
 72
     5
 11
1370.9838562
 21
2557.4801636
 31
0.0
100
AcDbText
  0
LINE
  5
1EC
330
1F
100
AcDbEntity
  8
枠
  6
CONTINUOUS
 62
     7
100
AcDbLine
 10
179.0
 20
2915.0
 30
0.0
 11
1999.0
 21
2915.0
 31
0.0
  0
LINE
  5
1ED
330
1F
100
AcDbEntity
  8
枠
  6
CONTINUOUS
 62
     7
100
AcDbLine
 10
1999.0
 20
115.0
 30
0.0
 11
1999.0
 21
2915.0
 31
0.0
  0
LINE
  5
1EE
330
1F
100
AcDbEntity
  8
枠
  6
CONTINUOUS
 62
     7
100
AcDbLine
 10
179.0
 20
115.0
 30
0.0
 11
179.0
 21
2915.0
 31
0.0
  0
LINE
  5
1EF
330
1F
100
AcDbEntity
  8
枠
  6
CONTINUOUS
 62
     7
100
AcDbLine
 10
179.0
 20
335.0
 30
0.0
 11
1999.0
 21
335.0
 31
0.0
  0
LINE
  5
1F0
330
1F
100
AcDbEntity
  8
枠
  6
CONTINUOUS
 62
     7
100
AcDbLine
 10
179.0
 20
115.0
 30
0.0
 11
1999.0
 21
115.0
 31
0.0
  0
LINE
  5
1F1
330
1F
100
AcDbEntity
  8
枠
  6
EXLTYPE2
 62
     6
100
AcDbLine
 10
169.0
 20
1515.0
 30
0.0
 11
-21.00000000000001
 21
1515.0
 31
0.0
  0
LINE
  5
1F2
330
1F
100
AcDbEntity
  8
枠
  6
EXLTYPE2
 62
     6
100
AcDbLine
 10
179.0
 20
165.0
 30
0.0
 11
489.0
 21
165.0
 31
0.0
  0
LINE
  5
1F3
330
1F
100
AcDbEntity
  8
枠
  6
CONTINUOUS
 62
     6
100
AcDbLine
 10
179.0
 20
285.0
 30
0.0
 11
749.0
 21
285.0
 31
0.0
  0
LINE
  5
1F4
330
1F
100
AcDbEntity
  8
枠
  6
CONTINUOUS
 62
     6
100
AcDbLine
 10
334.0
 20
335.0
 30
0.0
 11
334.0
 21
115.0
 31
0.0
  0
LINE
  5
1F5
330
1F
100
AcDbEntity
  8
枠
  6
CONTINUOUS
 62
     6
100
AcDbLine
 10
489.0
 20
335.0
 30
0.0
 11
489.0
 21
115.0
 31
0.0
  0
LINE
  5
1F6
330
1F
100
AcDbEntity
  8
枠
  6
CONTINUOUS
 62
     6
100
AcDbLine
 10
619.0
 20
335.0
 30
0.0
 11
619.0
 21
115.0
 31
0.0
  0
LINE
  5
1F7
330
1F
100
AcDbEntity
  8
枠
  6
CONTINUOUS
 62
     6
100
AcDbLine
 10
749.0
 20
335.0
 30
0.0
 11
749.0
 21
115.0
 31
0.0
  0
CIRCLE
  5
1F8
330
1F
100
AcDbEntity
  8
枠
  6
CONTINUOUS
 62
     6
100
AcDbCircle
 10
229.0
 20
140.0
 30
0.0
 40
1.0000002
  0
CIRCLE
  5
1F9
330
1F
100
AcDbEntity
  8
枠
  6
CONTINUOUS
 62
     6
100
AcDbCircle
 10
279.0
 20
140.0
 30
0.0
 40
1.0000002
  0
CIRCLE
  5
1FA
330
1F
100
AcDbEntity
  8
枠
  6
CONTINUOUS
 62
     6
100
AcDbCircle
 10
384.0
 20
140.0
 30
0.0
 40
1.0000002
  0
CIRCLE
  5
1FB
330
1F
100
AcDbEntity
  8
枠
  6
CONTINUOUS
 62
     6
100
AcDbCircle
 10
434.0
 20
140.0
 30
0.0
 40
1.0000002
  0
LINE
  5
1FC
330
1F
100
AcDbEntity
  8
枠
  6
CONTINUOUS
 62
     6
100
AcDbLine
 10
1999.0
 20
215.0
 30
0.0
 11
749.0
 21
215.0
 31
0.0
  0
LINE
  5
1FD
330
1F
100
AcDbEntity
  8
枠
  6
CONTINUOUS
 62
     6
100
AcDbLine
 10
799.0
 20
335.0
 30
0.0
 11
799.0
 21
215.0
 31
0.0
  0
LINE
  5
1FE
330
1F
100
AcDbEntity
  8
枠
  6
CONTINUOUS
 62
     6
100
AcDbLine
 10
1389.0
 20
335.0
 30
0.0
 11
1389.0
 21
115.0
 31
0.0
  0
LINE
  5
1FF
330
1F
100
AcDbEntity
  8
枠
  6
CONTINUOUS
 62
     6
100
AcDbLine
 10
1439.0
 20
335.0
 30
0.0
 11
1439.0
 21
115.0
 31
0.0
  0
LINE
  5
200
330
1F
100
AcDbEntity
  8
枠
  6
CONTINUOUS
 62
     6
100
AcDbLine
 10
1859.0
 20
335.0
 30
0.0
 11
1859.0
 21
215.0
 31
0.0
  0
LINE
  5
201
330
1F
100
AcDbEntity
  8
枠
  6
CONTINUOUS
 62
     6
100
AcDbLine
 10
1809.0
 20
335.0
 30
0.0
 11
1809.0
 21
215.0
 31
0.0
  0
LINE
  5
202
330
1F
100
AcDbEntity
  8
枠
  6
CONTINUOUS
 62
     6
100
AcDbLine
 10
1891.6538086
 20
238.0029297
 30
0.0
 11
1968.9938965
 21
316.6998291
 31
0.0
  0
LINE
  5
203
330
1F
100
AcDbEntity
  8
スト_ル
  6
CONTINUOUS
 62
     6
100
AcDbLine
 10
1808.1501120662
 20
1281.7210017594
 30
0.0
 11
1812.923398483
 21
1283.0
 31
0.0
  0
LINE
  5
204
330
1F
100
AcDbEntity
  8
スト_ル
  6
CONTINUOUS
 62
     6
100
AcDbLine
 10
1808.1501120662
 20
1284.2789982406
 30
0.0
 11
1812.923398483
 21
1283.0
 31
0.0
  0
LINE
  5
205
330
1F
100
AcDbEntity
  8
スト_ル
  6
CONTINUOUS
 62
     6
100
AcDbLine
 10
1776.023398483
 20
1285.9
 30
0.0
 11
1777.323398483
 21
1280.1
 31
0.0
  0
LINE
  5
206
330
1F
100
AcDbEntity
  8
スト_ル
  6
CONTINUOUS
 62
     6
100
AcDbLine
 10
1778.623398483
 20
1285.9
 30
0.0
 11
1779.923398483
 21
1280.1
 31
0.0
  0
LINE
  5
207
330
1F
100
AcDbEntity
  8
スト_ル
  6
CONTINUOUS
 62
     6
100
AcDbLine
 10
1781.223398483
 20
1285.9
 30
0.0
 11
1782.523398483
 21
1280.1
 31
0.0
  0
LINE
  5
208
330
1F
100
AcDbEntity
  8
スト_ル
  6
CONTINUOUS
 62
     6
100
AcDbLine
 10
1783.823398483
 20
1285.9
 30
0.0
 11
1785.123398483
 21
1280.1
 31
0.0
  0
LINE
  5
209
330
1F
100
AcDbEntity
  8
スト_ル
  6
CONTINUOUS
 62
     6
100
AcDbLine
 10
1786.423398483
 20
1285.9
 30
0.0
 11
1787.723398483
 21
1280.1
 31
0.0
  0
LINE
  5
20A
330
1F
100
AcDbEntity
  8
スト_ル
  6
CONTINUOUS
 62
     6
100
AcDbLine
 10
1810.156389602683
 20
1284.414347312182
 30
0.0
 11
1810.754487077786
 21
1281.745912423263
 31
0.0
  0
LINE
  5
20B
330
1F
100
AcDbEntity
  8
スト_ル
  6
CONTINUOUS
 62
     6
100
AcDbLine
 10
1807.433491422949
 20
1284.962662267919
 30
0.0
 11
1808.301790115933
 21
1281.088714253069
 31
0.0
  0
LINE
  5
20C
330
1F
100
AcDbEntity
  8
スト_ル
  6
CONTINUOUS
 62
     6
100
AcDbLine
 10
1791.670916377563
 20
1285.687997085795
 30
0.0
 11
1792.863579472896
 21
1280.36688481431
 31
0.0
  0
LINE
  5
20D
330
1F
100
AcDbEntity
  8
スト_ル
  6
CONTINUOUS
 62
     6
100
AcDbLine
 10
1789.043820536665
 20
1285.808886222108
 30
0.0
 11
1790.290122087288
 21
1280.248463919327
 31
0.0
  0
LINE
  5
20E
330
1F
100
AcDbEntity
  8
スト_ル
  6
CONTINUOUS
 62
     6
100
AcDbLine
 10
1794.298012218461
 20
1285.567107949483
 30
0.0
 11
1795.437036858503
 21
1280.485305709292
 31
0.0
  0
LINE
  5
20F
330
1F
100
AcDbEntity
  8
スト_ル
  6
CONTINUOUS
 62
     6
100
AcDbLine
 10
1796.925108059359
 20
1285.44621881317
 30
0.0
 11
1798.010494244111
 21
1280.603726604275
 31
0.0
  0
LINE
  5
210
330
1F
100
AcDbEntity
  8
スト_ル
  6
CONTINUOUS
 62
     6
100
AcDbLine
 10
1799.552203900256
 20
1285.325329676857
 30
0.0
 11
1800.583951629718
 21
1280.722147499257
 31
0.0
  0
LINE
  5
211
330
1F
100
AcDbEntity
  8
スト_ル
  6
CONTINUOUS
 62
     6
100
AcDbLine
 10
1802.179299741154
 20
1285.204440540545
 30
0.0
 11
1803.157409015326
 21
1280.84056839424
 31
0.0
  0
LINE
  5
212
330
1F
100
AcDbEntity
  8
スト_ル
  6
CONTINUOUS
 62
     6
100
AcDbLine
 10
1804.806395582051
 20
1285.083551404232
 30
0.0
 11
1805.730866400933
 21
1280.958989289222
 31
0.0
  0
ARC
  5
213
330
1F
100
AcDbEntity
  8
スト_ル
  6
CONTINUOUS
 62
     6
100
AcDbCircle
 10
1762.923398483
 20
1283.0
 30
0.0
 40
7.500000000000004
100
AcDbArc
 50
90.00000000000001
 51
270.0000000000002
  0
LINE
  5
214
330
1F
100
AcDbEntity
  8
スト_ル
  6
CONTINUOUS
 62
     6
100
AcDbLine
 10
1808.1501120662
 20
1281.7210017594
 30
0.0
 11
1773.8103943
 21
1280.140816233866
 31
0.0
  0
LINE
  5
215
330
1F
100
AcDbEntity
  8
スト_ル
  6
CONTINUOUS
 62
     6
100
AcDbLine
 10
1773.8103943
 20
1284.173403278
 30
0.0
 11
1774.723398483
 21
1280.1
 31
0.0
  0
LINE
  5
216
330
1F
100
AcDbEntity
  8
スト_ル
  6
CONTINUOUS
 62
     6
100
AcDbLine
 10
1773.810394300002
 20
1285.859183766134
 30
0.0
 11
1808.1501120662
 21
1284.2789982406
 31
0.0
  0
LINE
  5
217
330
1F
100
AcDbEntity
  8
スト_ル
  6
CONTINUOUS
 62
     6
100
AcDbLine
 10
1808.1501120662
 20
1246.7210017594
 30
0.0
 11
1812.923398483
 21
1248.0
 31
0.0
  0
LINE
  5
218
330
1F
100
AcDbEntity
  8
スト_ル
  6
CONTINUOUS
 62
     6
100
AcDbLine
 10
1808.1501120662
 20
1249.2789982406
 30
0.0
 11
1812.923398483
 21
1248.0
 31
0.0
  0
LINE
  5
219
330
1F
100
AcDbEntity
  8
スト_ル
  6
CONTINUOUS
 62
     6
100
AcDbLine
 10
1776.023398483
 20
1250.9
 30
0.0
 11
1777.323398483
 21
1245.1
 31
0.0
  0
LINE
  5
21A
330
1F
100
AcDbEntity
  8
スト_ル
  6
CONTINUOUS
 62
     6
100
AcDbLine
 10
1778.623398483
 20
1250.9
 30
0.0
 11
1779.923398483
 21
1245.1
 31
0.0
  0
LINE
  5
21B
330
1F
100
AcDbEntity
  8
スト_ル
  6
CONTINUOUS
 62
     6
100
AcDbLine
 10
1781.223398483
 20
1250.9
 30
0.0
 11
1782.523398483
 21
1245.1
 31
0.0
  0
LINE
  5
21C
330
1F
100
AcDbEntity
  8
スト_ル
  6
CONTINUOUS
 62
     6
100
AcDbLine
 10
1783.823398483
 20
1250.9
 30
0.0
 11
1785.123398483
 21
1245.1
 31
0.0
  0
LINE
  5
21D
330
1F
100
AcDbEntity
  8
スト_ル
  6
CONTINUOUS
 62
     6
100
AcDbLine
 10
1786.423398483
 20
1250.9
 30
0.0
 11
1787.723398483
 21
1245.1
 31
0.0
  0
LINE
  5
21E
330
1F
100
AcDbEntity
  8
スト_ル
  6
CONTINUOUS
 62
     6
100
AcDbLine
 10
1810.156389602683
 20
1249.414347312182
 30
0.0
 11
1810.754487077786
 21
1246.745912423263
 31
0.0
  0
LINE
  5
21F
330
1F
100
AcDbEntity
  8
スト_ル
  6
CONTINUOUS
 62
     6
100
AcDbLine
 10
1807.433491422949
 20
1249.962662267919
 30
0.0
 11
1808.301790115933
 21
1246.088714253069
 31
0.0
  0
LINE
  5
220
330
1F
100
AcDbEntity
  8
スト_ル
  6
CONTINUOUS
 62
     6
100
AcDbLine
 10
1791.670916377563
 20
1250.687997085795
 30
0.0
 11
1792.863579472896
 21
1245.36688481431
 31
0.0
  0
LINE
  5
221
330
1F
100
AcDbEntity
  8
スト_ル
  6
CONTINUOUS
 62
     6
100
AcDbLine
 10
1789.043820536665
 20
1250.808886222108
 30
0.0
 11
1790.290122087288
 21
1245.248463919327
 31
0.0
  0
LINE
  5
222
330
1F
100
AcDbEntity
  8
スト_ル
  6
CONTINUOUS
 62
     6
100
AcDbLine
 10
1794.298012218461
 20
1250.567107949483
 30
0.0
 11
1795.437036858503
 21
1245.485305709292
 31
0.0
  0
LINE
  5
223
330
1F
100
AcDbEntity
  8
スト_ル
  6
CONTINUOUS
 62
     6
100
AcDbLine
 10
1796.925108059359
 20
1250.44621881317
 30
0.0
 11
1798.010494244111
 21
1245.603726604275
 31
0.0
  0
LINE
  5
224
330
1F
100
AcDbEntity
  8
スト_ル
  6
CONTINUOUS
 62
     6
100
AcDbLine
 10
1799.552203900256
 20
1250.325329676857
 30
0.0
 11
1800.583951629718
 21
1245.722147499257
 31
0.0
  0
LINE
  5
225
330
1F
100
AcDbEntity
  8
スト_ル
  6
CONTINUOUS
 62
     6
100
AcDbLine
 10
1802.179299741154
 20
1250.204440540545
 30
0.0
 11
1803.157409015326
 21
1245.84056839424
 31
0.0
  0
LINE
  5
226
330
1F
100
AcDbEntity
  8
スト_ル
  6
CONTINUOUS
 62
     6
100
AcDbLine
 10
1804.806395582051
 20
1250.083551404232
 30
0.0
 11
1805.730866400933
 21
1245.958989289222
 31
0.0
  0
ARC
  5
227
330
1F
100
AcDbEntity
  8
スト_ル
  6
CONTINUOUS
 62
     6
100
AcDbCircle
 10
1762.923398483
 20
1248.0
 30
0.0
 40
7.500000000000004
100
AcDbArc
 50
90.00000000000001
 51
270.0000000000002
  0
LINE
  5
228
330
1F
100
AcDbEntity
  8
スト_ル
  6
CONTINUOUS
 62
     6
100
AcDbLine
 10
1808.1501120662
 20
1246.7210017594
 30
0.0
 11
1773.8103943
 21
1245.140816233866
 31
0.0
  0
LINE
  5
229
330
1F
100
AcDbEntity
  8
スト_ル
  6
CONTINUOUS
 62
     6
100
AcDbLine
 10
1773.8103943
 20
1249.173403278
 30
0.0
 11
1774.723398483
 21
1245.1
 31
0.0
  0
LINE
  5
22A
330
1F
100
AcDbEntity
  8
スト_ル
  6
CONTINUOUS
 62
     6
100
AcDbLine
 10
1773.810394300002
 20
1250.859183766134
 30
0.0
 11
1808.1501120662
 21
1249.2789982406
 31
0.0
  0
LINE
  5
22B
330
1F
100
AcDbEntity
  8
器具明細表
  6
CONTINUOUS
 62
     6
100
AcDbLine
 10
1249.0
 20
2615.0
 30
0.0
 11
1949.0
 21
2615.0
 31
0.0
  0
LINE
  5
22C
330
1F
100
AcDbEntity
  8
器具明細表
  6
CONTINUOUS
 62
     6
100
AcDbLine
 10
1249.0
 20
2680.0
 30
0.0
 11
1949.0
 21
2680.0
 31
0.0
  0
LINE
  5
22D
330
1F
100
AcDbEntity
  8
器具明細表
  6
CONTINUOUS
 62
     6
100
AcDbLine
 10
1249.0
 20
2550.0003052
 30
0.0
 11
1949.0
 21
2550.0003052
 31
0.0
  0
LINE
  5
22E
330
1F
100
AcDbEntity
  8
器具明細表
  6
CONTINUOUS
 62
     6
100
AcDbLine
 10
1249.0
 20
2485.0006104
 30
0.0
 11
1949.0
 21
2485.0006104
 31
0.0
  0
LINE
  5
22F
330
1F
100
AcDbEntity
  8
器具明細表
  6
CONTINUOUS
 62
     6
100
AcDbLine
 10
1249.0
 20
2745.0
 30
0.0
 11
1249.0
 21
2485.0006104
 31
0.0
  0
LINE
  5
230
330
1F
100
AcDbEntity
  8
器具明細表
  6
CONTINUOUS
 62
     6
100
AcDbLine
 10
1579.0
 20
2745.0
 30
0.0
 11
1579.0
 21
2485.0006104
 31
0.0
  0
LINE
  5
231
330
1F
100
AcDbEntity
  8
器具明細表
  6
CONTINUOUS
 62
     6
100
AcDbLine
 10
1859.0
 20
2745.0
 30
0.0
 11
1859.0
 21
2485.0006104
 31
0.0
  0
LINE
  5
232
330
1F
100
AcDbEntity
  8
器具明細表
  6
CONTINUOUS
 62
     6
100
AcDbLine
 10
1949.0
 20
2745.0
 30
0.0
 11
1949.0
 21
2485.0006104
 31
0.0
  0
LINE
  5
233
330
1F
100
AcDbEntity
  8
器具明細表
  6
CONTINUOUS
 62
     6
100
AcDbLine
 10
1249.0
 20
2745.0
 30
0.0
 11
1949.0
 21
2745.0
 31
0.0
  0
LINE
  5
234
330
1F
100
AcDbEntity
  8
スト_ル
  6
CONTINUOUS
 62
     6
100
AcDbLine
 10
576.2794588879
 20
2373.3387411662
 30
0.0
 11
575.0004606473001
 21
2378.112027583
 31
0.0
  0
LINE
  5
235
330
1F
100
AcDbEntity
  8
スト_ル
  6
CONTINUOUS
 62
     6
100
AcDbLine
 10
573.7214624067001
 20
2373.3387411662
 30
0.0
 11
575.0004606473001
 21
2378.112027583
 31
0.0
  0
LINE
  5
236
330
1F
100
AcDbEntity
  8
スト_ル
  6
CONTINUOUS
 62
     6
100
AcDbLine
 10
572.1004606473001
 20
2341.212027583
 30
0.0
 11
577.9004606473
 21
2342.512027583
 31
0.0
  0
LINE
  5
237
330
1F
100
AcDbEntity
  8
スト_ル
  6
CONTINUOUS
 62
     6
100
AcDbLine
 10
572.1004606473001
 20
2343.812027583
 30
0.0
 11
577.9004606473
 21
2345.112027583
 31
0.0
  0
LINE
  5
238
330
1F
100
AcDbEntity
  8
スト_ル
  6
CONTINUOUS
 62
     6
100
AcDbLine
 10
572.1004606473001
 20
2346.412027583
 30
0.0
 11
577.9004606473
 21
2347.712027583
 31
0.0
  0
LINE
  5
239
330
1F
100
AcDbEntity
  8
スト_ル
  6
CONTINUOUS
 62
     6
100
AcDbLine
 10
572.1004606473001
 20
2349.012027583
 30
0.0
 11
577.9004606473
 21
2350.312027583
 31
0.0
  0
LINE
  5
23A
330
1F
100
AcDbEntity
  8
スト_ル
  6
CONTINUOUS
 62
     6
100
AcDbLine
 10
572.1004606473001
 20
2351.612027583
 30
0.0
 11
577.9004606473
 21
2352.912027583
 31
0.0
  0
LINE
  5
23B
330
1F
100
AcDbEntity
  8
スト_ル
  6
CONTINUOUS
 62
     6
100
AcDbLine
 10
573.5861133351178
 20
2375.345018702683
 30
0.0
 11
576.2545482240366
 21
2375.943116177786
 31
0.0
  0
LINE
  5
23C
330
1F
100
AcDbEntity
  8
スト_ル
  6
CONTINUOUS
 62
     6
100
AcDbLine
 10
573.0377983793809
 20
2372.622120522949
 30
0.0
 11
576.911746394231
 21
2373.490419215933
 31
0.0
  0
LINE
  5
23D
330
1F
100
AcDbEntity
  8
スト_ル
  6
CONTINUOUS
 62
     6
100
AcDbLine
 10
572.3124635615047
 20
2356.859545477563
 30
0.0
 11
577.6335758329903
 21
2358.052208572897
 31
0.0
  0
LINE
  5
23E
330
1F
100
AcDbEntity
  8
スト_ル
  6
CONTINUOUS
 62
     6
100
AcDbLine
 10
572.1915744251921
 20
2354.232449636665
 30
0.0
 11
577.7519967279726
 21
2355.478751187288
 31
0.0
  0
LINE
  5
23F
330
1F
100
AcDbEntity
  8
スト_ル
  6
CONTINUOUS
 62
     6
100
AcDbLine
 10
572.4333526978176
 20
2359.48664131846
 30
0.0
 11
577.5151549380078
 21
2360.625665958504
 31
0.0
  0
LINE
  5
240
330
1F
100
AcDbEntity
  8
スト_ル
  6
CONTINUOUS
 62
     6
100
AcDbLine
 10
572.5542418341302
 20
2362.113737159359
 30
0.0
 11
577.3967340430254
 21
2363.199123344111
 31
0.0
  0
LINE
  5
241
330
1F
100
AcDbEntity
  8
スト_ル
  6
CONTINUOUS
 62
     6
100
AcDbLine
 10
572.6751309704428
 20
2364.740833000256
 30
0.0
 11
577.2783131480431
 21
2365.772580729718
 31
0.0
  0
LINE
  5
242
330
1F
100
AcDbEntity
  8
スト_ル
  6
CONTINUOUS
 62
     6
100
AcDbLine
 10
572.7960201067557
 20
2367.367928841154
 30
0.0
 11
577.1598922530605
 21
2368.346038115326
 31
0.0
  0
LINE
  5
243
330
1F
100
AcDbEntity
  8
スト_ル
  6
CONTINUOUS
 62
     6
100
AcDbLine
 10
572.9169092430683
 20
2369.995024682051
 30
0.0
 11
577.0414713580782
 21
2370.919495500933
 31
0.0
  0
ARC
  5
244
330
1F
100
AcDbEntity
  8
スト_ル
  6
CONTINUOUS
 62
     6
100
AcDbCircle
 10
575.0004606473001
 20
2328.112027583
 30
0.0
 40
7.500000000000004
100
AcDbArc
 50
180.0
 51
0.0
  0
LINE
  5
245
330
1F
100
AcDbEntity
  8
スト_ル
  6
CONTINUOUS
 62
     6
100
AcDbLine
 10
576.2794588879
 20
2373.3387411662
 30
0.0
 11
577.8596444134341
 21
2338.9990234
 31
0.0
  0
LINE
  5
246
330
1F
100
AcDbEntity
  8
スト_ル
  6
CONTINUOUS
 62
     6
100
AcDbLine
 10
573.8270573693
 20
2338.9990234
 30
0.0
 11
577.9004606473
 21
2339.912027583
 31
0.0
  0
LINE
  5
247
330
1F
100
AcDbEntity
  8
スト_ル
  6
CONTINUOUS
 62
     6
100
AcDbLine
 10
572.1412768811659
 20
2338.999023400002
 30
0.0
 11
573.7214624067001
 21
2373.3387411662
 31
0.0
  0
ARC
  5
248
330
1F
100
AcDbEntity
  8
スト_ル
  6
CONTINUOUS
 62
     6
100
AcDbCircle
 10
915.0004606473001
 20
2328.112027583
 30
0.0
 40
7.500000000000004
100
AcDbArc
 50
180.0
 51
0.0
  0
LINE
  5
249
330
1F
100
AcDbEntity
  8
スト_ル
  6
CONTINUOUS
 62
     6
100
AcDbLine
 10
916.2794588879001
 20
2373.3387411662
 30
0.0
 11
915.0004606473001
 21
2378.112027583
 31
0.0
  0
LINE
  5
24A
330
1F
100
AcDbEntity
  8
スト_ル
  6
CONTINUOUS
 62
     6
100
AcDbLine
 10
913.7214624067002
 20
2373.3387411662
 30
0.0
 11
915.0004606473001
 21
2378.112027583
 31
0.0
  0
LINE
  5
24B
330
1F
100
AcDbEntity
  8
スト_ル
  6
CONTINUOUS
 62
     6
100
AcDbLine
 10
912.1004606473002
 20
2341.212027583
 30
0.0
 11
917.9004606473001
 21
2342.512027583
 31
0.0
  0
LINE
  5
24C
330
1F
100
AcDbEntity
  8
スト_ル
  6
CONTINUOUS
 62
     6
100
AcDbLine
 10
912.1004606473002
 20
2343.812027583
 30
0.0
 11
917.9004606473001
 21
2345.112027583
 31
0.0
  0
LINE
  5
24D
330
1F
100
AcDbEntity
  8
スト_ル
  6
CONTINUOUS
 62
     6
100
AcDbLine
 10
912.1004606473002
 20
2346.412027583
 30
0.0
 11
917.9004606473001
 21
2347.712027583
 31
0.0
  0
LINE
  5
24E
330
1F
100
AcDbEntity
  8
スト_ル
  6
CONTINUOUS
 62
     6
100
AcDbLine
 10
912.1004606473002
 20
2349.012027583
 30
0.0
 11
917.9004606473001
 21
2350.312027583
 31
0.0
  0
LINE
  5
24F
330
1F
100
AcDbEntity
  8
スト_ル
  6
CONTINUOUS
 62
     6
100
AcDbLine
 10
912.1004606473002
 20
2351.612027583
 30
0.0
 11
917.9004606473001
 21
2352.912027583
 31
0.0
  0
LINE
  5
250
330
1F
100
AcDbEntity
  8
スト_ル
  6
CONTINUOUS
 62
     6
100
AcDbLine
 10
913.5861133351178
 20
2375.345018702683
 30
0.0
 11
916.2545482240366
 21
2375.943116177786
 31
0.0
  0
LINE
  5
251
330
1F
100
AcDbEntity
  8
スト_ル
  6
CONTINUOUS
 62
     6
100
AcDbLine
 10
913.0377983793809
 20
2372.622120522949
 30
0.0
 11
916.911746394231
 21
2373.490419215933
 31
0.0
  0
LINE
  5
252
330
1F
100
AcDbEntity
  8
スト_ル
  6
CONTINUOUS
 62
     6
100
AcDbLine
 10
912.3124635615047
 20
2356.859545477563
 30
0.0
 11
917.6335758329903
 21
2358.052208572897
 31
0.0
  0
LINE
  5
253
330
1F
100
AcDbEntity
  8
スト_ル
  6
CONTINUOUS
 62
     6
100
AcDbLine
 10
912.1915744251921
 20
2354.232449636665
 30
0.0
 11
917.7519967279727
 21
2355.478751187288
 31
0.0
  0
LINE
  5
254
330
1F
100
AcDbEntity
  8
スト_ル
  6
CONTINUOUS
 62
     6
100
AcDbLine
 10
912.4333526978177
 20
2359.48664131846
 30
0.0
 11
917.5151549380078
 21
2360.625665958504
 31
0.0
  0
LINE
  5
255
330
1F
100
AcDbEntity
  8
スト_ル
  6
CONTINUOUS
 62
     6
100
AcDbLine
 10
912.5542418341303
 20
2362.113737159359
 30
0.0
 11
917.3967340430255
 21
2363.199123344111
 31
0.0
  0
LINE
  5
256
330
1F
100
AcDbEntity
  8
スト_ル
  6
CONTINUOUS
 62
     6
100
AcDbLine
 10
912.6751309704429
 20
2364.740833000256
 30
0.0
 11
917.2783131480431
 21
2365.772580729718
 31
0.0
  0
LINE
  5
257
330
1F
100
AcDbEntity
  8
スト_ル
  6
CONTINUOUS
 62
     6
100
AcDbLine
 10
912.7960201067557
 20
2367.367928841154
 30
0.0
 11
917.1598922530605
 21
2368.346038115326
 31
0.0
  0
LINE
  5
258
330
1F
100
AcDbEntity
  8
スト_ル
  6
CONTINUOUS
 62
     6
100
AcDbLine
 10
912.9169092430683
 20
2369.995024682051
 30
0.0
 11
917.0414713580783
 21
2370.919495500933
 31
0.0
  0
LINE
  5
259
330
1F
100
AcDbEntity
  8
スト_ル
  6
CONTINUOUS
 62
     6
100
AcDbLine
 10
916.2794588879001
 20
2373.3387411662
 30
0.0
 11
917.8596444134342
 21
2338.9990234
 31
0.0
  0
LINE
  5
25A
330
1F
100
AcDbEntity
  8
スト_ル
  6
CONTINUOUS
 62
     6
100
AcDbLine
 10
913.8270573693001
 20
2338.9990234
 30
0.0
 11
917.9004606473001
 21
2339.912027583
 31
0.0
  0
LINE
  5
25B
330
1F
100
AcDbEntity
  8
スト_ル
  6
CONTINUOUS
 62
     6
100
AcDbLine
 10
912.141276881166
 20
2338.999023400002
 30
0.0
 11
913.7214624067002
 21
2373.3387411662
 31
0.0
  0
ARC
  5
25C
330
1F
100
AcDbEntity
  8
スト_ル
  6
CONTINUOUS
 62
     6
100
AcDbCircle
 10
745.0004606473
 20
2278.999023400001
 30
0.0
 40
35.0
100
AcDbArc
 50
168.8372219190371
 51
11.16277808096291
  0
CIRCLE
  5
25D
330
1F
100
AcDbEntity
  8
スト_ル
  6
CONTINUOUS
 62
     6
100
AcDbCircle
 10
745.0004606473
 20
2278.999023400001
 30
0.0
 40
3.200000000000001
  0
LINE
  5
25E
330
1F
100
AcDbEntity
  8
スト_ル
  6
CONTINUOUS
 62
     6
100
AcDbLine
 10
721.6392213822267
 20
2276.4490234
 30
0.0
 11
726.6770466640927
 21
2276.4490234
 31
0.0
  0
LINE
  5
25F
330
1F
100
AcDbEntity
  8
スト_ル
  6
CONTINUOUS
 62
     6
100
AcDbLine
 10
732.1510443181434
 20
2276.4490234
 30
0.0
 11
737.1018848263055
 21
2276.4490234
 31
0.0
  0
LINE
  5
260
330
1F
100
AcDbEntity
  8
スト_ル
  6
CONTINUOUS
 62
     6
100
AcDbLine
 10
742.4504606473
 20
2255.637784134927
 30
0.0
 11
742.4504606473
 21
2260.675609416793
 31
0.0
  0
LINE
  5
261
330
1F
100
AcDbEntity
  8
スト_ル
  6
CONTINUOUS
 62
     6
100
AcDbLine
 10
742.4504606473
 20
2266.149607070844
 30
0.0
 11
742.4504606473
 21
2271.100447579006
 31
0.0
  0
ARC
  5
262
330
1F
100
AcDbEntity
  8
スト_ル
  6
CONTINUOUS
 62
     6
100
AcDbCircle
 10
745.0004606473
 20
2278.999023400001
 30
0.0
 40
13.09999999999974
100
AcDbArc
 50
191.2246573133539
 51
258.7753426866841
  0
ARC
  5
263
330
1F
100
AcDbEntity
  8
スト_ル
  6
CONTINUOUS
 62
     6
100
AcDbCircle
 10
745.0004606473
 20
2278.999023400001
 30
0.0
 40
23.49999999999996
100
AcDbArc
 50
186.2294675108569
 51
263.770532489144
  0
ARC
  5
264
330
1F
100
AcDbEntity
  8
スト_ル
  6
CONTINUOUS
 62
     6
100
AcDbCircle
 10
745.0004606473
 20
2278.999023400001
 30
0.0
 40
18.49999999999996
100
AcDbArc
 50
187.9227504961162
 51
262.0772495038846
  0
ARC
  5
265
330
1F
100
AcDbEntity
  8
スト_ル
  6
CONTINUOUS
 62
     6
100
AcDbCircle
 10
745.0004606473
 20
2278.999023400001
 30
0.0
 40
8.29999999999986
100
AcDbArc
 50
197.8923111832951
 51
252.1076888167071
  0
LINE
  5
266
330
1F
100
AcDbEntity
  8
スト_ル
  6
CONTINUOUS
 62
     6
100
AcDbLine
 10
747.5504606472999
 20
2255.637784134927
 30
0.0
 11
747.5504606472999
 21
2260.675609416793
 31
0.0
  0
LINE
  5
267
330
1F
100
AcDbEntity
  8
スト_ル
  6
CONTINUOUS
 62
     6
100
AcDbLine
 10
747.5504606472999
 20
2266.149607070844
 30
0.0
 11
747.5504606472999
 21
2271.100447579006
 31
0.0
  0
LINE
  5
268
330
1F
100
AcDbEntity
  8
スト_ル
  6
CONTINUOUS
 62
     6
100
AcDbLine
 10
768.3616999123732
 20
2276.4490234
 30
0.0
 11
763.3238746305071
 21
2276.4490234
 31
0.0
  0
LINE
  5
269
330
1F
100
AcDbEntity
  8
スト_ル
  6
CONTINUOUS
 62
     6
100
AcDbLine
 10
757.8498769764566
 20
2276.4490234
 30
0.0
 11
752.8990364682944
 21
2276.4490234
 31
0.0
  0
ARC
  5
26A
330
1F
100
AcDbEntity
  8
スト_ル
  6
CONTINUOUS
 62
     6
100
AcDbCircle
 10
745.0004606473
 20
2278.999023400001
 30
0.0
 40
13.09999999999974
100
AcDbArc
 50
281.2246573133536
 51
348.7753426866829
  0
ARC
  5
26B
330
1F
100
AcDbEntity
  8
スト_ル
  6
CONTINUOUS
 62
     6
100
AcDbCircle
 10
745.0004606473
 20
2278.999023400001
 30
0.0
 40
23.49999999999996
100
AcDbArc
 50
276.2294675108564
 51
353.7705324891432
  0
ARC
  5
26C
330
1F
100
AcDbEntity
  8
スト_ル
  6
CONTINUOUS
 62
     6
100
AcDbCircle
 10
745.0004606473
 20
2278.999023400001
 30
0.0
 40
18.49999999999996
100
AcDbArc
 50
277.9227504961154
 51
352.0772495038839
  0
ARC
  5
26D
330
1F
100
AcDbEntity
  8
スト_ル
  6
CONTINUOUS
 62
     6
100
AcDbCircle
 10
745.0004606473
 20
2278.999023400001
 30
0.0
 40
8.29999999999986
100
AcDbArc
 50
287.8923111832932
 51
342.107688816705
  0
LINE
  5
26E
330
1F
100
AcDbEntity
  8
スト_ル
  6
CONTINUOUS
 62
     6
100
AcDbLine
 10
721.6392213822267
 20
2281.5490234
 30
0.0
 11
726.6770466640927
 21
2281.5490234
 31
0.0
  0
LINE
  5
26F
330
1F
100
AcDbEntity
  8
スト_ル
  6
CONTINUOUS
 62
     6
100
AcDbLine
 10
732.1510443181434
 20
2281.5490234
 30
0.0
 11
737.1018848263055
 21
2281.5490234
 31
0.0
  0
ARC
  5
270
330
1F
100
AcDbEntity
  8
スト_ル
  6
CONTINUOUS
 62
     6
100
AcDbCircle
 10
745.0004606473
 20
2278.999023400001
 30
0.0
 40
8.29999999999986
100
AcDbArc
 50
107.8923111832941
 51
162.1076888167079
  0
LINE
  5
271
330
1F
100
AcDbEntity
  8
スト_ル
  6
CONTINUOUS
 62
     6
100
AcDbLine
 10
768.3616999123732
 20
2281.5490234
 30
0.0
 11
763.3238746305071
 21
2281.5490234
 31
0.0
  0
LINE
  5
272
330
1F
100
AcDbEntity
  8
スト_ル
  6
CONTINUOUS
 62
     6
100
AcDbLine
 10
757.8498769764566
 20
2281.5490234
 30
0.0
 11
752.8990364682944
 21
2281.5490234
 31
0.0
  0
ARC
  5
273
330
1F
100
AcDbEntity
  8
スト_ル
  6
CONTINUOUS
 62
     6
100
AcDbCircle
 10
745.0004606473
 20
2278.999023400001
 30
0.0
 40
8.29999999999986
100
AcDbArc
 50
17.89231118329211
 51
72.1076888167059
  0
ARC
  5
274
330
1F
100
AcDbEntity
  8
スト_ル
  6
CONTINUOUS
 62
     6
100
AcDbCircle
 10
745.0004606473
 20
2278.999023400001
 30
0.0
 40
23.49999999999996
100
AcDbArc
 50
6.229467510855724
 51
18.57342431495758
  0
ARC
  5
275
330
1F
100
AcDbEntity
  8
スト_ル
  6
CONTINUOUS
 62
     6
100
AcDbCircle
 10
745.0004606473
 20
2278.999023400001
 30
0.0
 40
18.49999999999996
100
AcDbArc
 50
7.922750496114773
 51
24.61850285174714
  0
ARC
  5
276
330
1F
100
AcDbEntity
  8
スト_ル
  6
CONTINUOUS
 62
     6
100
AcDbCircle
 10
745.0004606473
 20
2278.999023400001
 30
0.0
 40
13.09999999999974
100
AcDbArc
 50
11.22465731331515
 51
37.01514009739424
  0
ARC
  5
277
330
1F
100
AcDbEntity
  8
スト_ル
  6
CONTINUOUS
 62
     6
100
AcDbCircle
 10
745.0004606473
 20
2278.999023400001
 30
0.0
 40
13.09999999999974
100
AcDbArc
 50
142.9848599026055
 51
168.7753426866484
  0
ARC
  5
278
330
1F
100
AcDbEntity
  8
スト_ル
  6
CONTINUOUS
 62
     6
100
AcDbCircle
 10
745.0004606473
 20
2278.999023400001
 30
0.0
 40
18.49999999999996
100
AcDbArc
 50
155.3814971482527
 51
172.0772495038852
  0
ARC
  5
279
330
1F
100
AcDbEntity
  8
スト_ル
  6
CONTINUOUS
 62
     6
100
AcDbCircle
 10
745.0004606473
 20
2278.999023400001
 30
0.0
 40
23.49999999999996
100
AcDbArc
 50
161.4265756850424
 51
173.7705324891442
  0
ARC
  5
27A
330
1F
100
AcDbEntity
  8
スト_ル
  6
CONTINUOUS
 62
     6
100
AcDbCircle
 10
745.0004606473
 20
2278.999023400001
 30
0.0
 40
28.90000000000001
100
AcDbArc
 50
165.6005428603198
 51
14.39945713968011
  0
CIRCLE
  5
27B
330
1F
100
AcDbEntity
  8
スト_ル
  6
CONTINUOUS
 62
     6
100
AcDbCircle
 10
575.0004606473001
 20
1283.0
 30
0.0
 40
7.500000000000004
  0
CIRCLE
  5
27C
330
1F
100
AcDbEntity
  8
スト_ル
  6
CONTINUOUS
 62
     6
100
AcDbCircle
 10
575.0004606473001
 20
1248.0
 30
0.0
 40
7.500000000000004
  0
CIRCLE
  5
27D
330
1F
100
AcDbEntity
  8
スト_ル
  6
CONTINUOUS
 62
     6
100
AcDbCircle
 10
915.0004606472996
 20
1283.0
 30
0.0
 40
7.500000000000004
  0
CIRCLE
  5
27E
330
1F
100
AcDbEntity
  8
スト_ル
  6
CONTINUOUS
 62
     6
100
AcDbCircle
 10
915.0004606472996
 20
1248.0
 30
0.0
 40
7.500000000000004
  0
LINE
  5
27F
330
1F
100
AcDbEntity
  8
スト_ル
  6
EXLTYPE3
 62
     6
100
AcDbLine
 10
745.0004606472999
 20
1452.0
 30
0.0
 11
745.0004606473001
 21
706.9999999999999
 31
0.0
  0
LINE
  5
280
330
1F
100
AcDbEntity
  8
スト_ル
  6
EXLTYPE3
 62
     6
100
AcDbLine
 10
575.0004606472999
 20
1293.8
 30
0.0
 11
575.0004606472999
 21
1234.2
 31
0.0
  0
LINE
  5
281
330
1F
100
AcDbEntity
  8
スト_ル
  6
EXLTYPE3
 62
     6
100
AcDbLine
 10
562.1009212945997
 20
1283.0
 30
0.0
 11
588.2009212945997
 21
1283.0
 31
0.0
  0
LINE
  5
282
330
1F
100
AcDbEntity
  8
スト_ル
  6
EXLTYPE3
 62
     6
100
AcDbLine
 10
562.1009212945997
 20
1248.0
 30
0.0
 11
588.2009212945997
 21
1248.0
 31
0.0
  0
LINE
  5
283
330
1F
100
AcDbEntity
  8
スト_ル
  6
EXLTYPE3
 62
     6
100
AcDbLine
 10
927.9
 20
1248.0
 30
0.0
 11
901.8000000000001
 21
1248.0
 31
0.0
  0
LINE
  5
284
330
1F
100
AcDbEntity
  8
スト_ル
  6
EXLTYPE3
 62
     6
100
AcDbLine
 10
915.0004606472999
 20
1293.8
 30
0.0
 11
915.0004606472999
 21
1234.2
 31
0.0
  0
LINE
  5
285
330
1F
100
AcDbEntity
  8
スト_ル
  6
EXLTYPE3
 62
     6
100
AcDbLine
 10
927.9
 20
1283.0
 30
0.0
 11
901.8000000000001
 21
1283.0
 31
0.0
  0
LINE
  5
286
330
1F
100
AcDbEntity
  8
スト_ル
  6
EXLTYPE3
 62
     6
100
AcDbLine
 10
1713.810394300001
 20
1118.0
 30
0.0
 11
1713.810394300001
 21
1043.4
 31
0.0
  0
LINE
  5
287
330
1F
100
AcDbEntity
  8
スト_ル
  6
EXLTYPE3
 62
     6
100
AcDbLine
 10
700.3004606472999
 20
2278.999023400001
 30
0.0
 11
791.9004606473
 21
2278.999023400001
 31
0.0
  0
LINE
  5
288
330
1F
100
AcDbEntity
  8
寸法
  6
EXLTYPE3
 62
     6
100
AcDbLine
 10
1713.8103943
 20
835.9999999999999
 30
0.0
 11
1713.8103943
 21
712.9999999999999
 31
0.0
  0
TEXT
  5
289
330
1F
100
AcDbEntity
  8
枠
  6
CONTINUOUS
 62
     7
100
AcDbText
 10
1453.25
 20
130.75
 30
0.0
 40
70.0
  1
Ｕ０１０１４００
 41
1.127659574468085
  7
EXCADSTD
 72
     5
 11
1983.25
 21
130.75
 31
0.0
100
AcDbText
  0
TEXT
  5
28A
330
1F
100
AcDbEntity
  8
0
  6
CONTINUOUS
 62
     6
100
AcDbText
 10
22.89999999999992
 20
20.0
 30
0.0
 40
5.0
  1
堀
 41
1.232
  7
EXCADSTD
 72
     5
 11
27.29999999999992
 21
20.0
 31
0.0
100
AcDbText
  0
TEXT
  5
28B
330
1F
100
AcDbEntity
  8
0
  6
CONTINUOUS
 62
     6
100
AcDbText
 10
18.9688574104633
 20
12.49500732
 30
0.0
 40
3.0
  1
'17
 41
0.4689784011919448
  7
EXCADSTD
 72
     5
 11
22.11771238989493
 21
12.49500732
 31
0.0
100
AcDbText
  0
TEXT
  5
28C
330
1F
100
AcDbEntity
  8
0
  6
CONTINUOUS
 62
     6
100
AcDbText
 10
24.83510740569491
 20
12.49500732
 30
0.0
 40
3.0
  1
7
 41
0.4683823529411762
  7
EXCADSTD
 72
     5
 11
25.97260740569491
 21
12.49500732
 31
0.0
100
AcDbText
  0
TEXT
  5
28D
330
1F
100
AcDbEntity
  8
0
  6
CONTINUOUS
 62
     6
100
AcDbText
 10
29.26010741165538
 20
12.49500732
 30
0.0
 40
3.0
  1
22
 41
0.4086486468443998
  7
EXCADSTD
 72
     5
 11
31.42010740211864
 21
12.49500732
 31
0.0
100
AcDbText
  0
CIRCLE
  5
28E
330
1F
100
AcDbEntity
  8
0
  6
CONTINUOUS
 62
     6
100
AcDbCircle
 10
22.90000000000003
 20
14.0
 30
0.0
 40
0.10000002
  0
CIRCLE
  5
28F
330
1F
100
AcDbEntity
  8
0
  6
CONTINUOUS
 62
     6
100
AcDbCircle
 10
27.90000000000003
 20
14.0
 30
0.0
 40
0.10000002
  0
TEXT
  5
290
330
1F
100
AcDbEntity
  8
0
  6
CONTINUOUS
 62
     6
100
AcDbText
 10
63.34999997615805
 20
20.0
 30
0.0
 40
5.0
  1
間瀬
 41
1.18991346010815
  7
EXCADSTD
 72
     5
 11
72.69932001986494
 21
20.0
 31
0.0
100
AcDbText
  0
ARC
  5
291
330
1F
100
AcDbEntity
  8
0
  6
CONTINUOUS
 62
     3
100
AcDbCircle
 10
92.98424810688707
 20
16.69019437507496
 30
0.0
 40
1.907418003737831
100
AcDbArc
 50
153.7591918158497
 51
169.3462759801917
  0
LINE
  5
292
330
1F
100
AcDbEntity
  8
0
  6
CONTINUOUS
 62
     3
100
AcDbLine
 10
91.02432657332506
 20
17.04282432975408
 30
0.0
 11
91.10970934867314
 21
17.04282432975408
 31
0.0
  0
LINE
  5
293
330
1F
100
AcDbEntity
  8
0
  6
CONTINUOUS
 62
     3
100
AcDbLine
 10
90.38375157332499
 20
17.46199932975408
 30
0.0
 11
90.49310157332505
 21
17.46469932975408
 31
0.0
  0
LINE
  5
294
330
1F
100
AcDbEntity
  8
0
  6
CONTINUOUS
 62
     3
100
AcDbLine
 10
89.38340157332502
 20
16.78632432975406
 30
0.0
 11
89.38677657332497
 21
16.60744932975627
 31
0.0
  0
LINE
  5
295
330
1F
100
AcDbEntity
  8
0
  6
CONTINUOUS
 62
     3
100
AcDbLine
 10
89.87142657332495
 20
16.98814932975405
 30
0.0
 11
89.861976573325
 21
16.81129932975405
 31
0.0
  0
LINE
  5
296
330
1F
100
AcDbEntity
  8
0
  6
CONTINUOUS
 62
     3
100
AcDbLine
 10
91.46240157332508
 20
15.53217432975408
 30
0.0
 11
91.45902657332496
 21
15.24394932975407
 31
0.0
  0
LINE
  5
297
330
1F
100
AcDbEntity
  8
0
  6
CONTINUOUS
 62
     3
100
AcDbLine
 10
90.986526573325
 20
15.25069932975408
 30
0.0
 11
90.99327657332506
 21
15.09544932975406
 31
0.0
  0
ARC
  5
298
330
1F
100
AcDbEntity
  8
0
  6
CONTINUOUS
 62
     3
100
AcDbCircle
 10
88.3534413132094
 20
15.05779759565003
 30
0.0
 40
1.127953740078838
100
AcDbArc
 50
332.3987521421788
 51
359.5124385477116
  0
LINE
  5
299
330
1F
100
AcDbEntity
  8
0
  6
CONTINUOUS
 62
     3
100
AcDbLine
 10
80.51727657332506
 20
16.97194932975408
 30
0.0
 11
80.60502657332503
 21
16.97194932975408
 31
0.0
  0
LINE
  5
29A
330
1F
100
AcDbEntity
  8
0
  6
CONTINUOUS
 62
     3
100
AcDbLine
 10
90.05502657332502
 20
14.33269932975407
 30
0.0
 11
90.37227657332502
 21
14.33269932975407
 31
0.0
  0
LINE
  5
29B
330
1F
100
AcDbEntity
  8
0
  6
CONTINUOUS
 62
     3
100
AcDbLine
 10
89.56902657332509
 20
15.04819932975409
 30
0.0
 11
89.481276573325
 21
15.04819932975409
 31
0.0
  0
LINE
  5
29C
330
1F
100
AcDbEntity
  8
0
  6
CONTINUOUS
 62
     3
100
AcDbLine
 10
90.250776573325
 20
14.57569932975407
 30
0.0
 11
90.41277657332509
 21
14.57569932975407
 31
0.0
  0
LINE
  5
29D
330
1F
100
AcDbEntity
  8
0
  6
CONTINUOUS
 62
     3
100
AcDbLine
 10
90.60852657332507
 20
17.72727432975405
 30
0.0
 11
90.42222657332505
 21
17.72727432975405
 31
0.0
  0
ARC
  5
29E
330
1F
100
AcDbEntity
  8
0
  6
CONTINUOUS
 62
     3
100
AcDbCircle
 10
90.44147339127503
 20
16.85429236291669
 30
0.0
 40
0.612586430102253
100
AcDbArc
 50
17.92452211681263
 51
85.16543319077402
  0
ARC
  5
29F
330
1F
100
AcDbEntity
  8
0
  6
CONTINUOUS
 62
     3
100
AcDbCircle
 10
90.40350964860531
 20
16.92674994707921
 30
0.0
 40
0.535613931103931
100
AcDbArc
 50
92.11404364449162
 51
173.4175047026091
  0
ARC
  5
2A0
330
1F
100
AcDbEntity
  8
0
  6
CONTINUOUS
 62
     3
100
AcDbCircle
 10
91.2303140733263
 20
17.13823182975444
 30
0.0
 40
1.4068519372934
100
AcDbArc
 50
193.4375782160214
 51
199.459638038058
  0
ARC
  5
2A1
330
1F
100
AcDbEntity
  8
0
  6
CONTINUOUS
 62
     3
100
AcDbCircle
 10
90.50721352387447
 20
17.03138641766612
 30
0.0
 40
0.703563707337184
100
AcDbArc
 50
210.9501336849607
 51
251.7794729821079
  0
ARC
  5
2A2
330
1F
100
AcDbEntity
  8
0
  6
CONTINUOUS
 62
     3
100
AcDbCircle
 10
92.15384669692057
 20
21.39359310503512
 30
0.0
 40
5.36564425851668
100
AcDbArc
 50
249.6420733479936
 51
256.4727051201885
  0
ARC
  5
2A3
330
1F
100
AcDbEntity
  8
0
  6
CONTINUOUS
 62
     3
100
AcDbCircle
 10
90.72045721291951
 20
15.45217258531575
 30
0.0
 40
0.746245075729606
100
AcDbArc
 50
6.154262763177246
 51
76.17509904255616
  0
ARC
  5
2A4
330
1F
100
AcDbEntity
  8
0
  6
CONTINUOUS
 62
     3
100
AcDbCircle
 10
90.34663886467561
 20
15.46692467118045
 30
0.0
 40
1.134515058180645
100
AcDbArc
 50
271.2948770866743
 51
348.6654156292868
  0
ARC
  5
2A5
330
1F
100
AcDbEntity
  8
0
  6
CONTINUOUS
 62
     3
100
AcDbCircle
 10
90.1793005459277
 20
16.08156576811025
 30
0.0
 40
1.75327631578002
100
AcDbArc
 50
241.8829576087176
 51
265.9354096935781
  0
ARC
  5
2A6
330
1F
100
AcDbEntity
  8
0
  6
CONTINUOUS
 62
     3
100
AcDbCircle
 10
90.36361043234862
 20
15.46658639777383
 30
0.0
 40
0.898004035462527
100
AcDbArc
 50
207.7689879465537
 51
262.7817283832026
  0
ARC
  5
2A7
330
1F
100
AcDbEntity
  8
0
  6
CONTINUOUS
 62
     3
100
AcDbCircle
 10
90.4035777744651
 20
15.17002363757167
 30
0.0
 40
0.594395491876676
100
AcDbArc
 50
270.8867385422408
 51
352.7925382056677
  0
ARC
  5
2A8
330
1F
100
AcDbEntity
  8
0
  6
CONTINUOUS
 62
     3
100
AcDbCircle
 10
90.53080045853667
 20
15.19846225433168
 30
0.0
 40
0.458710152219014
100
AcDbArc
 50
6.53892419415897
 51
65.09756080693691
  0
ARC
  5
2A9
330
1F
100
AcDbEntity
  8
0
  6
CONTINUOUS
 62
     3
100
AcDbCircle
 10
89.41714891830426
 20
12.99457141755211
 30
0.0
 40
2.927778413972754
100
AcDbArc
 50
63.49050203733571
 51
76.60259219849584
  0
ARC
  5
2AA
330
1F
100
AcDbEntity
  8
0
  6
CONTINUOUS
 62
     3
100
AcDbCircle
 10
90.452681457995
 20
17.02396411006687
 30
0.0
 40
1.234100950779567
100
AcDbArc
 50
226.0402388947521
 51
253.1776672992999
  0
ARC
  5
2AB
330
1F
100
AcDbEntity
  8
0
  6
CONTINUOUS
 62
     3
100
AcDbCircle
 10
90.05599257925999
 20
16.6219276907553
 30
0.0
 40
0.669372605905611
100
AcDbArc
 50
181.2393899443581
 51
226.5942921332421
  0
ARC
  5
2AC
330
1F
100
AcDbEntity
  8
0
  6
CONTINUOUS
 62
     3
100
AcDbCircle
 10
90.37963496799611
 20
16.72009291101865
 30
0.0
 40
0.99843256030919
100
AcDbArc
 50
117.4083995939977
 51
176.1964688215695
  0
ARC
  5
2AD
330
1F
100
AcDbEntity
  8
0
  6
CONTINUOUS
 62
     3
100
AcDbCircle
 10
90.47711044283906
 20
16.40979097937612
 30
0.0
 40
1.319974865367525
100
AcDbArc
 50
92.38301574576484
 51
114.9635286746436
  0
ARC
  5
2AE
330
1F
100
AcDbEntity
  8
0
  6
CONTINUOUS
 62
     3
100
AcDbCircle
 10
90.58542828460568
 20
16.71663038363955
 30
0.0
 40
1.010907867592157
100
AcDbArc
 50
67.66151957087348
 51
88.69073168448988
  0
ARC
  5
2AF
330
1F
100
AcDbEntity
  8
0
  6
CONTINUOUS
 62
     3
100
AcDbCircle
 10
122.6644453232815
 20
98.70297432964203
 30
0.0
 40
87.02800228963156
100
AcDbArc
 50
248.6422112053103
 51
248.8567777804232
  0
ARC
  5
2B0
330
1F
100
AcDbEntity
  8
0
  6
CONTINUOUS
 62
     3
100
AcDbCircle
 10
65.66900575363869
 20
16.03249792766236
 30
0.0
 40
22.20076085035812
100
AcDbArc
 50
355.7940354718673
 51
4.229650257234378
  0
ARC
  5
2B1
330
1F
100
AcDbEntity
  8
0
  6
CONTINUOUS
 62
     3
100
AcDbCircle
 10
108.7254047179557
 20
16.01881005739387
 30
0.0
 40
20.35906390589
100
AcDbArc
 50
175.3387608397566
 51
184.5428594926176
  0
ARC
  5
2B2
330
1F
100
AcDbEntity
  8
0
  6
CONTINUOUS
 62
     3
100
AcDbCircle
 10
88.14144089371334
 20
7.879804184123326
 30
0.0
 40
6.532859485251088
100
AcDbArc
 50
87.46575055044718
 51
92.90832285102188
  0
ARC
  5
2B3
330
1F
100
AcDbEntity
  8
0
  6
CONTINUOUS
 62
     3
100
AcDbCircle
 10
88.11456076027727
 20
18.95332474358078
 30
0.0
 40
1.319228548840207
100
AcDbArc
 50
256.6209501743446
 51
283.9984576255729
  0
CIRCLE
  5
2B4
330
1F
100
AcDbEntity
  8
0
  6
CONTINUOUS
 62
     3
100
AcDbCircle
 10
88.12855140383354
 20
18.8583546687371
 30
0.0
 40
0.357233446676989
  0
LINE
  5
2B5
330
1F
100
AcDbEntity
  8
0
  6
CONTINUOUS
 62
     3
100
AcDbLine
 10
84.448476573325
 20
16.38402432975409
 30
0.0
 11
84.448476573325
 21
15.30469932975405
 31
0.0
  0
ARC
  5
2B6
330
1F
100
AcDbEntity
  8
0
  6
CONTINUOUS
 62
     3
100
AcDbCircle
 10
63.51176988671594
 20
15.99938058671746
 30
0.0
 40
20.43697806131072
100
AcDbArc
 50
355.5405243117485
 51
4.673398698656258
  0
ARC
  5
2B7
330
1F
100
AcDbEntity
  8
0
  6
CONTINUOUS
 62
     3
100
AcDbCircle
 10
84.1708284986124
 20
18.82206879814488
 30
0.0
 40
1.193349358546016
100
AcDbArc
 50
255.9341994177206
 51
284.5896440601899
  0
ARC
  5
2B8
330
1F
100
AcDbEntity
  8
0
  6
CONTINUOUS
 62
     3
100
AcDbCircle
 10
88.20574727396163
 20
17.20785681383053
 30
0.0
 40
3.762465500458181
100
AcDbArc
 50
172.9875214416311
 51
181.4134392789641
  0
ARC
  5
2B9
330
1F
100
AcDbEntity
  8
0
  6
CONTINUOUS
 62
     3
100
AcDbCircle
 10
85.5754106900255
 20
16.392759888186
 30
0.0
 40
1.34194899665726
100
AcDbArc
 50
87.42068310381028
 51
147.4361518966862
  0
ARC
  5
2BA
330
1F
100
AcDbEntity
  8
0
  6
CONTINUOUS
 62
     3
100
AcDbCircle
 10
85.6772405741377
 20
16.79204664797994
 30
0.0
 40
0.94221437555554
100
AcDbArc
 50
34.84393737091607
 51
92.5207065423111
  0
ARC
  5
2BB
330
1F
100
AcDbEntity
  8
0
  6
CONTINUOUS
 62
     3
100
AcDbCircle
 10
85.47905515344823
 20
16.66285942451527
 30
0.0
 40
1.17869965146059
100
AcDbArc
 50
359.8658335690532
 51
34.49363429411157
  0
ARC
  5
2BC
330
1F
100
AcDbEntity
  8
0
  6
CONTINUOUS
 62
     3
100
AcDbCircle
 10
80.51913601210057
 20
16.43315774812141
 30
0.0
 40
6.142809087866958
100
AcDbArc
 50
358.4775281223095
 51
2.117232414210064
  0
ARC
  5
2BD
330
1F
100
AcDbEntity
  8
0
  6
CONTINUOUS
 62
     3
100
AcDbCircle
 10
102.9657633661698
 20
15.19067374739133
 30
0.0
 40
16.34166579853822
100
AcDbArc
 50
176.2131780319488
 51
182.7488833337936
  0
ARC
  5
2BE
330
1F
100
AcDbEntity
  8
0
  6
CONTINUOUS
 62
     3
100
AcDbCircle
 10
86.35771407332507
 20
11.26015261922778
 30
0.0
 40
3.159693252126744
100
AcDbArc
 50
84.82155189294139
 51
95.17844810705873
  0
ARC
  5
2BF
330
1F
100
AcDbEntity
  8
0
  6
CONTINUOUS
 62
     3
100
AcDbCircle
 10
69.61173378649741
 20
15.67751337882465
 30
0.0
 40
16.50975566668588
100
AcDbArc
 50
355.5862454873798
 51
2.816115806820253
  0
ARC
  5
2C0
330
1F
100
AcDbEntity
  8
0
  6
CONTINUOUS
 62
     3
100
AcDbCircle
 10
84.99447404568528
 20
16.50315138821555
 30
0.0
 40
1.107172507744154
100
AcDbArc
 50
359.2495022237244
 51
32.84055016678327
  0
ARC
  5
2C1
330
1F
100
AcDbEntity
  8
0
  6
CONTINUOUS
 62
     3
100
AcDbCircle
 10
85.30100145205532
 20
16.52366273138689
 30
0.0
 40
0.851645057047003
100
AcDbArc
 50
42.91644474042847
 51
128.3015542351336
  0
ARC
  5
2C2
330
1F
100
AcDbEntity
  8
0
  6
CONTINUOUS
 62
     3
100
AcDbCircle
 10
85.556617223664
 20
16.40795225138056
 30
0.0
 40
1.108398956318131
100
AcDbArc
 50
134.9787476233347
 51
181.2369872983282
  0
ARC
  5
2C3
330
1F
100
AcDbEntity
  8
0
  6
CONTINUOUS
 62
     3
100
AcDbCircle
 10
91.84088578951045
 20
15.29150147009814
 30
0.0
 40
7.395120993114926
100
AcDbArc
 50
179.8977458165987
 51
186.8855675734268
  0
ARC
  5
2C4
330
1F
100
AcDbEntity
  8
0
  6
CONTINUOUS
 62
     3
100
AcDbCircle
 10
84.15808780069315
 20
10.45069254511709
 30
0.0
 40
3.968909094418497
100
AcDbArc
 50
85.07099551674689
 51
93.91830029343228
  0
ARC
  5
2C5
330
1F
100
AcDbEntity
  8
0
  6
CONTINUOUS
 62
     3
100
AcDbCircle
 10
-2246.701542217735
 20
79.43265245587831
 30
0.0
 40
2329.776001260591
100
AcDbArc
 50
358.4169008257799
 51
358.4423418242109
  0
ARC
  5
2C6
330
1F
100
AcDbEntity
  8
0
  6
CONTINUOUS
 62
     3
100
AcDbCircle
 10
81.3324469076592
 20
15.57836489530207
 30
0.0
 40
0.993581603997916
100
AcDbArc
 50
278.3335103000368
 51
329.1221464187299
  0
LINE
  5
2C7
330
1F
100
AcDbEntity
  8
0
  6
CONTINUOUS
 62
     3
100
AcDbLine
 10
81.30297657332497
 20
14.5952743297541
 30
0.0
 11
81.47645157332502
 21
14.5952743297541
 31
0.0
  0
ARC
  5
2C8
330
1F
100
AcDbEntity
  8
0
  6
CONTINUOUS
 62
     3
100
AcDbCircle
 10
81.36959653488739
 20
15.17461380097786
 30
0.0
 40
0.583157304846997
100
AcDbArc
 50
183.0707787095794
 51
263.4402016072427
  0
LINE
  5
2C9
330
1F
100
AcDbEntity
  8
0
  6
CONTINUOUS
 62
     3
100
AcDbLine
 10
80.78727657332499
 20
15.33912432975405
 30
0.0
 11
80.78727657332499
 21
15.14337432975408
 31
0.0
  0
ARC
  5
2CA
330
1F
100
AcDbEntity
  8
0
  6
CONTINUOUS
 62
     3
100
AcDbCircle
 10
81.40701866837841
 20
15.25807479047183
 30
0.0
 40
0.625019433457053
100
AcDbArc
 50
115.7403688633493
 51
172.5491744442191
  0
ARC
  5
2CB
330
1F
100
AcDbEntity
  8
0
  6
CONTINUOUS
 62
     3
100
AcDbCircle
 10
81.95660651757706
 20
14.08318862667978
 30
0.0
 40
1.922065786155208
100
AcDbArc
 50
98.71271710191789
 51
115.2874718053599
  0
ARC
  5
2CC
330
1F
100
AcDbEntity
  8
0
  6
CONTINUOUS
 62
     3
100
AcDbCircle
 10
81.06056099353728
 20
20.07501381160507
 30
0.0
 40
4.136406814694017
100
AcDbArc
 50
278.4088456599976
 51
286.1851416003176
  0
ARC
  5
2CD
330
1F
100
AcDbEntity
  8
0
  6
CONTINUOUS
 62
     3
100
AcDbCircle
 10
78.60908200122273
 20
24.17417570522225
 30
0.0
 40
4.400758833490466
100
AcDbArc
 50
261.7986203004403
 51
278.6803384946418
  0
ARC
  5
2CE
330
1F
100
AcDbEntity
  8
0
  6
CONTINUOUS
 62
     3
100
AcDbCircle
 10
144.1542531413434
 20
16.72960360950846
 30
0.0
 40
64.95474244683605
100
AcDbArc
 50
177.2695926307304
 51
181.4833117237826
  0
ARC
  5
2CF
330
1F
100
AcDbEntity
  8
0
  6
CONTINUOUS
 62
     3
100
AcDbCircle
 10
76.94899361790615
 20
14.99631356880094
 30
0.0
 40
2.272875263114311
100
AcDbArc
 50
335.1860595856123
 51
1.308075913059364
  0
ARC
  5
2D0
330
1F
100
AcDbEntity
  8
0
  6
CONTINUOUS
 62
     3
100
AcDbCircle
 10
77.5389732788548
 20
14.8938351862683
 30
0.0
 40
1.701394688196115
100
AcDbArc
 50
286.2966123578915
 51
329.973223283839
  0
ARC
  5
2D1
330
1F
100
AcDbEntity
  8
0
  6
CONTINUOUS
 62
     3
100
AcDbCircle
 10
77.20955749866656
 20
15.37223152915386
 30
0.0
 40
2.260341410821362
100
AcDbArc
 50
277.0901027239701
 51
290.9134154817058
  0
LINE
  5
2D2
330
1F
100
AcDbEntity
  8
0
  6
CONTINUOUS
 62
     3
100
AcDbLine
 10
77.488551573325
 20
13.12917432975406
 30
0.0
 11
77.36502657332503
 21
13.50514932975404
 31
0.0
  0
ARC
  5
2D3
330
1F
100
AcDbEntity
  8
0
  6
CONTINUOUS
 62
     3
100
AcDbCircle
 10
76.98347289685441
 20
14.6675985944599
 30
0.0
 40
1.223467000390025
100
AcDbArc
 50
288.1715191042997
 51
307.8537826235693
  0
ARC
  5
2D4
330
1F
100
AcDbEntity
  8
0
  6
CONTINUOUS
 62
     3
100
AcDbCircle
 10
77.20927386496024
 20
14.23407518472915
 30
0.0
 40
0.747769185530633
100
AcDbArc
 50
314.592391474832
 51
344.9374073189123
  0
ARC
  5
2D5
330
1F
100
AcDbEntity
  8
0
  6
CONTINUOUS
 62
     3
100
AcDbCircle
 10
28.53385521229316
 20
17.25197335838841
 30
0.0
 40
49.51400430399008
100
AcDbArc
 50
356.8390243485978
 51
2.971133813187157
  0
ARC
  5
2D6
330
1F
100
AcDbEntity
  8
0
  6
CONTINUOUS
 62
     3
100
AcDbCircle
 10
71.01439565227074
 20
14.87342761922788
 30
0.0
 40
6.967015049800598
100
AcDbArc
 50
353.1274757312911
 51
357.106204490141
  0
LINE
  5
2D7
330
1F
100
AcDbEntity
  8
0
  6
CONTINUOUS
 62
     3
100
AcDbLine
 10
80.51727657332506
 20
17.3364493297541
 30
0.0
 11
80.51727657332506
 21
16.97194932975408
 31
0.0
  0
ARC
  5
2D8
330
1F
100
AcDbEntity
  8
0
  6
CONTINUOUS
 62
     3
100
AcDbCircle
 10
81.38253617702989
 20
16.52890191857882
 30
0.0
 40
0.894881105176719
100
AcDbArc
 50
103.4267945469744
 51
150.3242613737993
  0
ARC
  5
2D9
330
1F
100
AcDbEntity
  8
0
  6
CONTINUOUS
 62
     3
100
AcDbCircle
 10
81.44799095798308
 20
16.39383830513021
 30
0.0
 40
1.04195273466423
100
AcDbArc
 50
77.23143261361693
 51
105.203415964315
  0
ARC
  5
2DA
330
1F
100
AcDbEntity
  8
0
  6
CONTINUOUS
 62
     3
100
AcDbCircle
 10
81.4928341281769
 20
16.72741886153421
 30
0.0
 40
0.707346538626002
100
AcDbArc
 50
3.537639967999379
 51
74.8013566619203
  0
ARC
  5
2DB
330
1F
100
AcDbEntity
  8
0
  6
CONTINUOUS
 62
     3
100
AcDbCircle
 10
80.90053873566566
 20
16.59229870375124
 30
0.0
 40
1.310543751018921
100
AcDbArc
 50
353.0315250986587
 51
7.839947970678348
  0
ARC
  5
2DC
330
1F
100
AcDbEntity
  8
0
  6
CONTINUOUS
 62
     3
100
AcDbCircle
 10
82.03230955673345
 20
16.46511332504287
 30
0.0
 40
0.172058828228131
100
AcDbArc
 50
291.5204897073511
 51
349.3445900274031
  0
ARC
  5
2DD
330
1F
100
AcDbEntity
  8
0
  6
CONTINUOUS
 62
     3
100
AcDbCircle
 10
81.63433050110896
 20
17.26407362688748
 30
0.0
 40
1.064113335272784
100
AcDbArc
 50
282.7195832898965
 51
295.6781112778079
  0
ARC
  5
2DE
330
1F
100
AcDbEntity
  8
0
  6
CONTINUOUS
 62
     3
100
AcDbCircle
 10
79.08530099985788
 20
28.61202029775212
 30
0.0
 40
12.69482409370382
100
AcDbArc
 50
278.8438342053764
 51
282.6649181367123
  0
ARC
  5
2DF
330
1F
100
AcDbEntity
  8
0
  6
CONTINUOUS
 62
     3
100
AcDbCircle
 10
81.30970138675784
 20
14.79608481482871
 30
0.0
 40
1.30093661698492
100
AcDbArc
 50
102.0988446293839
 51
129.1556705448828
  0
ARC
  5
2E0
330
1F
100
AcDbEntity
  8
0
  6
CONTINUOUS
 62
     3
100
AcDbCircle
 10
80.93972379030149
 20
15.26366332500801
 30
0.0
 40
0.704795370557922
100
AcDbArc
 50
129.8344892359069
 51
168.4089447024628
  0
ARC
  5
2E1
330
1F
100
AcDbEntity
  8
0
  6
CONTINUOUS
 62
     3
100
AcDbCircle
 10
81.09075018569993
 20
15.17758712547744
 30
0.0
 40
0.871709372588669
100
AcDbArc
 50
164.8589457925044
 51
187.8495628504518
  0
ARC
  5
2E2
330
1F
100
AcDbEntity
  8
0
  6
CONTINUOUS
 62
     3
100
AcDbCircle
 10
81.009153329155
 20
15.14015021572864
 30
0.0
 40
0.78619234712629
100
AcDbArc
 50
185.9586126338419
 51
224.0091989319859
  0
ARC
  5
2E3
330
1F
100
AcDbEntity
  8
0
  6
CONTINUOUS
 62
     3
100
AcDbCircle
 10
81.04562953036887
 20
15.18111104772596
 30
0.0
 40
0.840895657756366
100
AcDbArc
 50
224.289750990011
 51
255.6505938786759
  0
ARC
  5
2E4
330
1F
100
AcDbEntity
  8
0
  6
CONTINUOUS
 62
     3
100
AcDbCircle
 10
81.02928130736754
 20
14.96963494387411
 30
0.0
 40
0.633022832091786
100
AcDbArc
 50
252.3384873625213
 51
268.8069976857606
  0
LINE
  5
2E5
330
1F
100
AcDbEntity
  8
0
  6
CONTINUOUS
 62
     3
100
AcDbLine
 10
81.01610157332496
 20
14.33674932975408
 30
0.0
 11
81.29015157332506
 21
14.33674932975408
 31
0.0
  0
ARC
  5
2E6
330
1F
100
AcDbEntity
  8
0
  6
CONTINUOUS
 62
     3
100
AcDbCircle
 10
81.1661304586701
 20
15.69534026256828
 30
0.0
 40
1.364239920103932
100
AcDbArc
 50
275.2158792069686
 51
319.2336424873511
  0
ARC
  5
2E7
330
1F
100
AcDbEntity
  8
0
  6
CONTINUOUS
 62
     3
100
AcDbCircle
 10
82.68315560558315
 20
14.8649259426573
 30
0.0
 40
0.487535134009722
100
AcDbArc
 50
187.1167640402297
 51
216.4860549324747
  0
ARC
  5
2E8
330
1F
100
AcDbEntity
  8
0
  6
CONTINUOUS
 62
     3
100
AcDbCircle
 10
82.62937735081462
 20
14.8336745652863
 30
0.0
 40
0.425769550620398
100
AcDbArc
 50
217.4081478714985
 51
264.8118660441384
  0
ARC
  5
2E9
330
1F
100
AcDbEntity
  8
0
  6
CONTINUOUS
 62
     3
100
AcDbCircle
 10
82.78995891945593
 20
15.26464512823032
 30
0.0
 40
0.856540620020894
100
AcDbArc
 50
271.2220539293239
 51
292.8159509797653
  0
LINE
  5
2EA
330
1F
100
AcDbEntity
  8
0
  6
CONTINUOUS
 62
     3
100
AcDbLine
 10
82.59087657332506
 20
14.40964932975409
 30
0.0
 11
82.80822657332502
 21
14.40964932975409
 31
0.0
  0
LINE
  5
2EB
330
1F
100
AcDbEntity
  8
0
  6
CONTINUOUS
 62
     3
100
AcDbLine
 10
83.12210157332501
 20
14.47512432975408
 30
0.0
 11
83.12210157332501
 21
14.63239932975405
 31
0.0
  0
ARC
  5
2EC
330
1F
100
AcDbEntity
  8
0
  6
CONTINUOUS
 62
     3
100
AcDbCircle
 10
82.9824207845796
 20
14.9006118874109
 30
0.0
 40
0.30240485913648
100
AcDbArc
 50
243.6191685566582
 51
297.5097757939563
  0
ARC
  5
2ED
330
1F
100
AcDbEntity
  8
0
  6
CONTINUOUS
 62
     3
100
AcDbCircle
 10
83.01823989446038
 20
14.88302928780474
 30
0.0
 40
0.305188683107389
100
AcDbArc
 50
179.9117548191414
 51
236.1065985968857
  0
ARC
  5
2EE
330
1F
100
AcDbEntity
  8
0
  6
CONTINUOUS
 62
     3
100
AcDbCircle
 10
128.065013583871
 20
15.39323843931733
 30
0.0
 40
45.35482655865662
100
AcDbArc
 50
178.2526643324597
 51
180.6439560401927
  0
ARC
  5
2EF
330
1F
100
AcDbEntity
  8
0
  6
CONTINUOUS
 62
     3
100
AcDbCircle
 10
81.70706272602794
 20
16.70191625973315
 30
0.0
 40
1.02690407511459
100
AcDbArc
 50
4.148222840814693
 51
92.36000944257292
  0
ARC
  5
2F0
330
1F
100
AcDbEntity
  8
0
  6
CONTINUOUS
 62
     3
100
AcDbCircle
 10
81.62685324125525
 20
15.96167288926888
 30
0.0
 40
1.766683515327064
100
AcDbArc
 50
88.77000393305703
 51
128.9068631829044
  0
TEXT
  5
2F2
330
1F
100
AcDbEntity
  8
0
  6
CONTINUOUS
 62
     2
100
AcDbText
 10
92.80000000000027
 20
13.85000000000003
 30
0.0
 40
3.375
  1
ジャニス工業株式会社
 41
1.025641025641026
  7
EXCADTTF1
 72
     5
 11
137.8000000000003
 21
13.85000000000003
 31
0.0
100
AcDbText
  0
HATCH
  5
2F3
330
1F
100
AcDbEntity
  8
0
  6
CONTINUOUS
 62
     3
100
AcDbHatch
 10
0.0
 20
0.0
 30
0.0
210
0.0
220
0.0
230
1.0
  2
SOLID
 70
     1
 71
     1
 91
        2
 92
        3
 72
     1
 73
     1
 93
       27
 10
80.517276573325
 20
17.3364493297541
 42
-0.1769427732109284
 10
80.51727657332506
 20
17.3364493297541
 42
0.0
 10
80.51727657332506
 20
16.97194932975408
 42
0.0
 10
80.60502657332506
 20
16.97194932975404
 42
-0.207533601427307
 10
81.17474227895704
 20
17.39932359129048
 42
-0.1226604740888933
 10
81.67827657332505
 20
17.41002432975408
 42
-0.3213715781137954
 10
82.19883280222088
 20
16.77106514378476
 42
-0.064704004662446
 10
82.20140157332501
 20
16.43329932975406
 42
-0.257798906330806
 10
82.09542657332507
 20
16.30504932975406
 42
-0.056602577721096
 10
81.86862657332505
 20
16.22607432975409
 42
-0.0166741689362636
 10
81.03702657332501
 20
16.06812432975407
 42
0.1186092302783404
 10
80.48825157332503
 20
15.80487432975407
 42
0.1699204224386695
 10
80.24930157332504
 20
15.40527432975406
 42
0.1006533494296199
 10
80.22720866795818
 20
15.05853555095727
 42
0.1675695228968024
 10
80.44370157332509
 20
14.59392432975407
 42
0.1376980079804242
 10
80.83722657332497
 20
14.36644932975409
 42
0.0719813663796923
 10
81.01610157332496
 20
14.33674932975408
 42
0.0
 10
81.29015157332506
 20
14.33674932975409
 42
0.1944607457809085
 10
82.19937657332507
 20
14.80452432975407
 42
0.1288538183665954
 10
82.29117657332498
 20
14.57502432975404
 42
0.2098387395261546
 10
82.59087657332506
 20
14.40964932975409
 42
0.0
 10
82.80822657332506
 20
14.40829932975409
 42
0.0945009641609563
 10
83.12210157332501
 20
14.47512432975408
 42
0.0
 10
83.122101573325
 20
14.63239932975407
 42
-0.2395739894657535
 10
82.84805157332507
 20
14.62969932975405
 42
-0.2502312110031057
 10
82.713051573325
 20
14.88349932975414
 42
-0.0104343570771765
 10
82.73127657332509
 20
16.77619932975406
 42
0.4051015674140716
 97
        0
 92
        3
 72
     1
 73
     1
 93
        8
 10
82.213551573325
 20
16.10254932975406
 42
-0.0339435190873666
 10
82.21355157332528
 20
16.10254932975294
 42
-0.0001110072973599
 10
82.18520157332507
 20
15.06844932975405
 42
-0.2253076310552528
 10
81.47645157332502
 20
14.5952743297541
 42
0.0
 10
81.30297657332495
 20
14.5952743297541
 42
-0.3657967558150132
 10
80.78727657332499
 20
15.14337432975408
 42
0.0
 10
80.78727657332507
 20
15.33912432975409
 42
-0.2530797830369341
 10
81.13557657332504
 20
15.82107432975406
 42
-0.0724473624720066
 97
        0
 75
     0
 76
     1
 98
        1
 10
0.0
 20
0.0
  0
HATCH
  5
2F4
330
1F
100
AcDbEntity
  8
0
  6
CONTINUOUS
 62
     3
100
AcDbHatch
 10
0.0
 20
0.0
 30
0.0
210
0.0
220
0.0
230
1.0
  2
SOLID
 70
     1
 71
     1
 91
        1
 92
        3
 72
     1
 73
     1
 93
       30
 10
91.27340157332496
 20
17.53354932975412
 42
-0.0009362235736497
 10
91.27340157332497
 20
17.53354932975407
 42
0.0681165430304653
 10
91.10970934867314
 20
17.04282432975408
 42
0.0
 10
90.49310157332505
 20
17.46469932975409
 42
-0.302112590907374
 10
90.49310157332505
 20
17.46469932975408
 42
0.0
 10
89.871426573325
 20
16.98814932975408
 42
-0.3704245237568778
 10
89.87142657332495
 20
16.98814932975405
 42
0.0
 10
89.90382657332503
 20
16.66954932975407
 42
-0.0262822419456939
 10
90.28722657332503
 20
16.36309932975405
 42
-0.180060563604375
 10
90.89877657332504
 20
16.17679932975409
 42
-0.0298130817160724
 10
90.89877657332501
 20
16.17679932975405
 42
-0.3153987453686078
 10
91.46240157332508
 20
15.53217432975408
 42
0.0
 10
91.45902657332508
 20
15.24394932975405
 42
-0.3510306079065168
 10
90.37227657332502
 20
14.33269932975407
 42
0.0
 10
90.05502657332495
 20
14.33269932975405
 42
-0.1053356344842436
 10
89.35302657332501
 20
14.53519932975408
 42
0.1188608286962634
 10
89.481276573325
 20
15.04819932975409
 42
0.0
 10
90.25077657332504
 20
14.57569932975408
 42
-0.2447573632916039
 10
90.250776573325
 20
14.57569932975407
 42
0.0
 10
90.99327657332503
 20
15.09544932975409
 42
-0.3734162676407277
 10
90.99327657332506
 20
15.09544932975406
 42
0.0
 10
90.72395157332505
 20
15.61452432975409
 42
-0.261219770190848
 10
90.09552657332496
 20
15.84267432975409
 42
-0.0572747914118363
 10
90.09552657332506
 20
15.84267432975408
 42
-0.1189658875692221
 10
89.59602657332499
 20
16.13562432975408
 42
-0.2005226878639636
 10
89.38677657332497
 20
16.60744932975627
 42
0.0
 10
89.38340157332503
 20
16.78632432975404
 42
-0.2622894489606957
 10
89.92002657332506
 20
17.6064493297541
 42
-0.0988461274137808
 10
90.42222657332505
 20
17.72727432975405
 42
0.0
 10
90.60852657332498
 20
17.72727432975409
 42
-0.0920156312561188
 97
        0
 75
     0
 76
     1
 98
        1
 10
0.0
 20
0.0
  0
HATCH
  5
2F5
330
1F
100
AcDbEntity
  8
0
  6
CONTINUOUS
 62
     3
100
AcDbHatch
 10
0.0
 20
0.0
 30
0.0
210
0.0
220
0.0
230
1.0
  2
SOLID
 70
     1
 71
     1
 91
        2
 92
        1
 93
        1
 72
     2
 10
88.12855140383354
 20
18.8583546687371
 40
0.3572334466769884
 50
0.0
 51
360.0
 73
     1
 97
        0
 92
        3
 72
     1
 73
     1
 93
        3
 10
87.80930157332499
 20
17.66989932975406
 42
0.1200283885712921
 10
88.430301573325
 20
14.40627432975403
 42
-0.0401820615762149
 10
87.80997657332499
 20
14.40424932975407
 42
-0.0237521668114666
 97
        0
 75
     0
 76
     1
 98
        1
 10
0.0
 20
0.0
  0
HATCH
  5
2F6
330
1F
100
AcDbEntity
  8
0
  6
CONTINUOUS
 62
     3
100
AcDbHatch
 10
0.0
 20
0.0
 30
0.0
210
0.0
220
0.0
230
1.0
  2
SOLID
 70
     1
 71
     1
 91
        1
 92
        3
 72
     1
 73
     1
 93
       16
 10
83.88687657332501
 20
14.41032432975406
 42
-0.0386228372648426
 10
83.880801573325
 20
17.66449932975407
 42
-0.0398707891902887
 10
84.47142657332503
 20
17.66719932975408
 42
-0.1256886216044368
 10
84.44442657332503
 20
17.11504932975407
 42
-0.0367815758121429
 10
84.44442657332503
 20
17.11504932975405
 42
-0.268021535028829
 10
85.63580157332507
 20
17.73334932975407
 42
-0.2571134422124888
 10
86.45052657332496
 20
17.3303743297541
 42
-0.1522526366014298
 10
86.65775157332502
 20
16.66009932975406
 42
-0.0158825412051521
 10
86.64290157332499
 20
14.40694932975406
 42
-0.0285251271418421
 10
86.07252657332506
 20
14.40694932975406
 42
-0.0452212723224612
 10
86.10155157332503
 20
16.48864932975409
 42
-0.0315567291532142
 10
85.924701573325
 20
17.10357432975409
 42
-0.1476272403790709
 10
84.77315157332501
 20
17.19199932975405
 42
-0.3908144705745794
 10
84.448476573325
 20
16.38402432975404
 42
-0.2046259928850854
 10
84.448476573325
 20
16.38402432975409
 42
0.0
 10
84.49910157332509
 20
14.40492432975408
 42
-0.0304995761723369
 97
        0
 75
     0
 76
     1
 98
        1
 10
0.0
 20
0.0
  0
HATCH
  5
2F7
330
1F
100
AcDbEntity
  8
0
  6
CONTINUOUS
 62
     3
100
AcDbHatch
 10
0.0
 20
0.0
 30
0.0
210
0.0
220
0.0
230
1.0
  2
SOLID
 70
     1
 71
     1
 91
        1
 92
        3
 72
     1
 73
     1
 93
       10
 10
77.97252657332503
 20
14.52169932975406
 42
-0.017362223501556
 10
77.98130157332504
 20
19.8184243297541
 42
-0.0267627618865285
 10
77.981301573325
 20
19.81842432975408
 42
0.0737939047395297
 10
79.27325157332503
 20
19.823824329754
 42
0.0183878899657109
 10
79.22127657332506
 20
15.04819932975405
 42
-0.1144749489451909
 10
79.01202657332497
 20
14.04244932975405
 42
-0.1929163439413163
 10
78.01640157332508
 20
13.26079932975405
 42
-0.0603888289562337
 10
77.488551573325
 20
13.12917432975406
 42
0.0
 10
77.36502657332497
 20
13.50514932975405
 42
0.0860918333465722
 10
77.73425157332503
 20
13.70157432975406
 42
0.1331843103855141
 97
        0
 75
     0
 76
     1
 98
        1
 10
0.0
 20
0.0
  0
TEXT
  5
2F8
330
1F
100
AcDbEntity
  8
器具明細表
  6
CONTINUOUS
 62
     2
100
AcDbText
 10
1251.9838562
 20
2492.4804688
 30
0.0
 40
50.0
  1
ＮＴ７Ａカラー
 41
0.9117073170731708
  7
EXCADSTD
 72
     5
 11
1518.9838562
 21
2492.4804688
 31
0.0
100
AcDbText
  0
TEXT
  5
2F9
330
1F
100
AcDbEntity
  8
器具明細表
  6
CONTINUOUS
 62
     2
100
AcDbText
 10
1251.9838562
 20
2622.4804687
 30
0.0
 40
50.0
  1
Ｕ１Ｍ
 41
0.9800000000000001
  7
EXCADSTD
 72
     5
 11
1370.9838562
 21
2622.4804687
 31
0.0
100
AcDbText
  0
TEXT
  5
2FA
330
1F
100
AcDbEntity
  8
枠
  6
CONTINUOUS
 62
     2
100
AcDbText
 10
1442.795166
 20
271.9315491
 30
0.0
 40
57.5
  1
Ｕ１Ｍ
 41
1.199488491048593
  7
EXCADSTD
 72
     5
 11
1610.295166
 21
271.9315491
 31
0.0
100
AcDbText
  0
TEXT
  5
2FB
330
1F
100
AcDbEntity
  8
枠
  6
CONTINUOUS
 62
     2
100
AcDbText
 10
921.6107178000004
 20
272.9315186
 30
0.0
 40
57.5
  1
非水洗小便器
 41
1.2
  7
EXCADSTD
 72
     5
 11
1266.6107178
 21
272.9315186
 31
0.0
100
AcDbText
  0
TEXT
  5
2FC
330
1F
100
AcDbEntity
  8
器具明細表
  6
CONTINUOUS
 62
     2
100
AcDbText
 10
1266.0507812
 20
2757.0043945
 30
0.0
 40
60.0
  1
器　具　明　細
 41
1.294715447154472
  7
EXCADSTD
 72
     5
 11
1721.0507812
 21
2757.0043945
 31
0.0
100
AcDbText
  0
LEADER
  5
2FD
330
1F
100
AcDbEntity
  8
枠
  6
CONTINUOUS
 62
     6
100
AcDbLeader
  3
ISO-25
 76
     3
 10
1755.9408977559
 20
1285.7376419772
 30
0.0
 10
1647.0
 20
1503.0
 30
0.0
 10
1420.0
 20
1503.0
 30
0.0
1001
ACAD
1000
DSTYLE
1002
{
1070
     5
1000
EX_NORM
1070
    41
1040
30.0
1070
   341
1005
4C
1002
}
  0
TEXT
  5
2FE
330
1F
100
AcDbEntity
  8
枠
  6
CONTINUOUS
 62
     2
100
AcDbText
 10
1415.000000715256
 20
1506.5
 30
0.0
 40
40.0
  1
ＮＴ７Ａカラー
 41
0.9902439024390244
  7
EXCADSTD
 72
     5
 11
1647.000000715256
 21
1506.5
 31
0.0
100
AcDbText
  0
LINE
  5
2FF
330
1F
100
AcDbEntity
  8
スト_ル
  6
CONTINUOUS
 62
     7
100
AcDbLine
 10
1773.8103943
 20
752.9999999999998
 30
0.0
 11
1377.000000000001
 21
752.9999999999998
 31
0.0
  0
ARC
  5
300
330
1F
100
AcDbEntity
  8
スト_ル
  6
CONTINUOUS
 62
     7
100
AcDbCircle
 10
1758.452133042873
 20
1491.235260936972
 30
0.0
 40
400.0000000000003
100
AcDbArc
 50
242.9352170709944
 51
256.5424357258042
  0
DIMENSION
  5
301
330
1F
100
AcDbEntity
  8
寸法
  6
CONTINUOUS
 62
     3
100
AcDbDimension
  2
*D29
 10
1773.8103943
 20
667.0
 30
0.0
 11
1838.8103943
 21
690.0000001192093
 31
0.0
 70
   160
  3
ISO-25
100
AcDbAlignedDimension
 13
1713.8103943
 23
712.9999999999999
 33
0.0
 14
1773.8103943
 24
752.9999999999999
 34
0.0
100
AcDbRotatedDimension
1001
ACAD
1000
DSTYLE
1002
{
1070
   270
1070
     2
1070
     6
1000
EX_NORM
1070
     7
1000
EX_NORM
1070
    41
1040
30.0
1070
    42
1040
6.99999988079071
1070
    44
1040
10.0
1070
    73
1070
     0
1070
    74
1070
     0
1070
    75
1070
     0
1070
    76
1070
     0
1070
    77
1070
     1
1070
    78
1070
     8
1070
   140
1040
40.0
1070
   147
1040
0.0
1070
   173
1070
     1
1070
   176
1070
     3
1070
   177
1070
     3
1070
   178
1070
     2
1070
   271
1070
     1
1070
   277
1070
     2
1070
   279
1070
     2
1070
   280
1070
     2
1070
   287
1070
     5
1070
   340
1005
12E
1002
}
  0
LINE
  5
30E
330
1F
100
AcDbEntity
  8
スト_ル
  6
EXLTYPE3
 62
     6
100
AcDbLine
 10
745.0004606473
 20
2357.9990234
 30
0.0
 11
745.0004606472999
 21
2071.999023400001
 31
0.0
  0
DIMENSION
  5
30F
330
1F
100
AcDbEntity
  8
寸法
  6
CONTINUOUS
 62
     3
100
AcDbDimension
  2
*D30
 10
765.0004606473
 20
620.0
 30
0.0
 11
830.0004606473
 21
643.0000001192093
 31
0.0
 70
   160
  3
ISO-25
100
AcDbAlignedDimension
 13
725.0004606473
 23
722.9999999999999
 33
0.0
 14
765.0004606473
 24
722.9999999999999
 34
0.0
100
AcDbRotatedDimension
1001
ACAD
1000
DSTYLE
1002
{
1070
   270
1070
     2
1070
     6
1000
EX_NORM
1070
     7
1000
EX_NORM
1070
    41
1040
30.0
1070
    42
1040
6.99999988079071
1070
    44
1040
10.0
1070
    73
1070
     0
1070
    74
1070
     0
1070
    75
1070
     0
1070
    76
1070
     0
1070
    77
1070
     1
1070
    78
1070
     8
1070
   140
1040
40.0
1070
   147
1040
0.0
1070
   173
1070
     1
1070
   176
1070
     3
1070
   177
1070
     3
1070
   178
1070
     2
1070
   271
1070
     1
1070
   277
1070
     2
1070
   279
1070
     2
1070
   280
1070
     2
1070
   287
1070
     5
1070
   340
1005
12E
1002
}
  0
ENDSEC
  0
SECTION
  2
OBJECTS
  0
DICTIONARY
  5
C
330
0
100
AcDbDictionary
  3
ACAD_GROUP
350
D
  3
ACAD_LAYOUT
350
1A
  3
ACAD_MATERIAL
350
3B
  3
ACAD_MLEADERSTYLE
350
340
  3
ACAD_MLINESTYLE
350
17
  3
ACAD_PLOTSETTINGS
350
19
  3
ACAD_VISUALSTYLE
350
2A
  3
ACDBHEADERROUNDTRIPXREC
350
31E
  3
ACDBVARIABLEDICTIONARY
350
33E
  0
DICTIONARY
  5
D
102
{ACAD_REACTORS
330
C
102
}
330
C
100
AcDbDictionary
  0
DICTIONARY
  5
1A
102
{ACAD_REACTORS
330
C
102
}
330
C
100
AcDbDictionary
  0
DICTIONARY
  5
3B
102
{ACAD_REACTORS
330
C
102
}
330
C
100
AcDbDictionary
  3
BYBLOCK
350
3D
  3
BYLAYER
350
3C
  3
GLOBAL
350
3E
  0
DICTIONARY
  5
340
102
{ACAD_REACTORS
330
C
102
}
330
C
100
AcDbDictionary
  0
DICTIONARY
  5
17
102
{ACAD_REACTORS
330
C
102
}
330
C
100
AcDbDictionary
  3
STANDARD
350
18
  0
DICTIONARY
  5
19
102
{ACAD_REACTORS
330
C
102
}
330
C
100
AcDbDictionary
  0
DICTIONARY
  5
2A
102
{ACAD_REACTORS
330
C
102
}
330
C
100
AcDbDictionary
  3
2DWIREFRAME
350
2F
  3
3D_HIDDEN
350
31
  3
3DWIREFRAME
350
30
  3
BASIC
350
32
  3
BRIGHTEN
350
36
  3
COLORCHANGE
350
3A
  3
CONCEPTUAL
350
34
  3
DIM
350
35
  3
FACEPATTERN
350
39
  3
FLAT
350
2B
  3
FLATWITHEDGES
350
2C
  3
GOURAUD
350
2D
  3
GOURAUDWITHEDGES
350
2E
  3
LINEPATTERN
350
38
  3
REALISTIC
350
33
  3
THICKEN
350
37
  0
DICTIONARY
  5
31E
102
{ACAD_REACTORS
330
C
102
}
330
C
100
AcDbDictionary
  3
CEPSNTYPE
350
327
  3
DIMSTYLEDATA
350
33D
  3
FINGERPRINTGUID
350
328
  3
HYPERLINKBASE
350
321
  3
INSUNITS
350
326
  3
LAYOUTDICT
350
323
  3
LWETCUNION
350
325
  3
PLOTSETDICT
350
324
  3
PSVPSCALE
350
32A
  3
PUCSBASE
350
32D
  3
PUCSORGBACK
350
333
  3
PUCSORGBOTTOM
350
32F
  3
PUCSORGFRONT
350
332
  3
PUCSORGLEFT
350
330
  3
PUCSORGRIGHT
350
331
  3
PUCSORGTOP
350
32E
  3
PUCSORTHOREF
350
32B
  3
PUCSORTHOVIEW
350
32C
  3
STYLESHEET
350
322
  3
TSTACKALIGN
350
31F
  3
TSTACKSIZE
350
320
  3
UCSBASE
350
336
  3
UCSORGBACK
350
33C
  3
UCSORGBOTTOM
350
338
  3
UCSORGFRONT
350
33B
  3
UCSORGLEFT
350
339
  3
UCSORGRIGHT
350
33A
  3
UCSORGTOP
350
337
  3
UCSORTHOREF
350
334
  3
UCSORTHOVIEW
350
335
  3
VERSIONGUID
350
329
  0
DICTIONARY
  5
33E
102
{ACAD_REACTORS
330
C
102
}
330
C
100
AcDbDictionary
  3
DIMASSOC
350
343
  3
HIDETEXT
350
344
  3
PSOLHEIGHT
350
342
  3
PSOLWIDTH
350
341
  0
MATERIAL
  5
3D
102
{ACAD_REACTORS
330
3B
102
}
102
{ACAD_XDICTIONARY
360
347
102
}
330
3B
100
AcDbMaterial
  1
ByBlock
  0
MATERIAL
  5
3C
102
{ACAD_REACTORS
330
3B
102
}
102
{ACAD_XDICTIONARY
360
345
102
}
330
3B
100
AcDbMaterial
  1
ByLayer
  0
MATERIAL
  5
3E
102
{ACAD_REACTORS
330
3B
102
}
102
{ACAD_XDICTIONARY
360
349
102
}
330
3B
100
AcDbMaterial
  1
Global
  0
MLINESTYLE
  5
18
102
{ACAD_REACTORS
330
17
102
}
330
17
100
AcDbMlineStyle
  2
Standard
 70
     0
  3

 62
   256
 51
90.0
 52
90.0
 71
     2
 49
0.5
 62
   256
  6
BYLAYER
 49
-0.5
 62
   256
  6
BYLAYER
  0
ACAD_PROXY_OBJECT
  5
2F
102
{ACAD_REACTORS
330
2A
102
}
330
2A
100
AcDbProxyObject
 90
      499
 91
      501
 93
      436
310
42CC9915DA5C99599C985B595049028333333333333E3BF0000000000000FB0107901411070040501600405405064090741402480A0340
1001
ACAD
1000
AcDbSavedByObjectVersion
1070
     0
  0
ACAD_PROXY_OBJECT
  5
31
102
{ACAD_REACTORS
330
2A
102
}
330
2A
100
AcDbProxyObject
 90
      499
 91
      501
 93
      500
310
424CD108121A5919195B90640502408333333333333E3BF0000000000000FB01079024090700405020000000000001110200405405064090740C02480A0340
1001
ACAD
1000
AcDbSavedByObjectVersion
1070
     0
  0
ACAD_PROXY_OBJECT
  5
30
102
{ACAD_REACTORS
330
2A
102
}
330
2A
100
AcDbProxyObject
 90
      499
 91
      501
 93
      436
310
42CCD915DA5C99599C985B595059028333333333333E3BF0000000000000FB0107901411070040501600405405064090741402480A0340
1001
ACAD
1000
AcDbSavedByObjectVersion
1070
     0
  0
ACAD_PROXY_OBJECT
  5
32
102
{ACAD_REACTORS
330
2A
102
}
330
2A
100
AcDbProxyObject
 90
      499
 91
      501
 93
      388
310
4150985CDA58D07406404333333333333E3BF0000000000000FB0107A41107004050150841D405064090741402480A0350
1001
ACAD
1000
AcDbSavedByObjectVersion
1070
     0
  0
ACAD_PROXY_OBJECT
  5
36
102
{ACAD_REACTORS
330
2A
102
}
330
2A
100
AcDbProxyObject
 90
      499
 91
      501
 93
      428
310
42109C9A59DA1D195B90C409028333333333333E3BF0000000000000FB010790141107004050150841D405064090741402480A029950
1001
ACAD
1000
AcDbSavedByObjectVersion
1070
     0
  0
ACAD_PROXY_OBJECT
  5
3A
102
{ACAD_REACTORS
330
2A
102
}
330
2A
100
AcDbProxyObject
 90
      499
 91
      501
 93
      452
310
42D0DBDB1BDC90DA185B99D95104090240C333333333333E3BF0000000000000FB0108901411070040501508421405064090741402480A0350
1001
ACAD
1000
AcDbSavedByObjectVersion
1070
     0
  0
ACAD_PROXY_OBJECT
  5
34
102
{ACAD_REACTORS
330
2A
102
}
330
2A
100
AcDbProxyObject
 90
      499
 91
      501
 93
      500
310
4290DBDB98D95C1D1D585B10940D028333333333333E3BF0000000000000FB0107902409070040501000000000000111010841D405064090740C02480A0340
1001
ACAD
1000
AcDbSavedByObjectVersion
1070
     0
  0
ACAD_PROXY_OBJECT
  5
35
102
{ACAD_REACTORS
330
2A
102
}
330
2A
100
AcDbProxyObject
 90
      499
 91
      501
 93
      412
310
40D11A5B50B409028333333333333E3BF0000000000000FB010790141107004050150841D405064090741402480A02677FFFFFD0
1001
ACAD
1000
AcDbSavedByObjectVersion
1070
     0
  0
ACAD_PROXY_OBJECT
  5
39
102
{ACAD_REACTORS
330
2A
102
}
330
2A
100
AcDbProxyObject
 90
      499
 91
      501
 93
      444
310
42D19858D95C185D1D195C9B90F409028333333333333E3BF0000000000000FB010790141107004050150841D405064090741402480A0350
1001
ACAD
1000
AcDbSavedByObjectVersion
1070
     0
  0
ACAD_PROXY_OBJECT
  5
2B
102
{ACAD_REACTORS
330
2A
102
}
330
2A
100
AcDbProxyObject
 90
      499
 91
      501
 93
      388
310
41119B185D240901404333333333333E3BF0000000000000F9010740A41107004050150841D405064090741402480A1B50
1001
ACAD
1000
AcDbSavedByObjectVersion
1070
     0
  0
ACAD_PROXY_OBJECT
  5
2C
102
{ACAD_REACTORS
330
2A
102
}
330
2A
100
AcDbProxyObject
 90
      499
 91
      501
 93
      476
310
43519B185D15DA5D1A115919D95CD0140901404333333333333E3BF0000000000000F9010740901411070040501600405405064090741402480A1B50
1001
ACAD
1000
AcDbSavedByObjectVersion
1070
     0
  0
ACAD_PROXY_OBJECT
  5
2D
102
{ACAD_REACTORS
330
2A
102
}
330
2A
100
AcDbProxyObject
 90
      499
 91
      501
 93
      412
310
41D1DBDD5C985D5910240902404333333333333E3BF0000000000000F9010740A411070040501641D405064090741402480A1B50
1001
ACAD
1000
AcDbSavedByObjectVersion
1070
     0
  0
ACAD_PROXY_OBJECT
  5
2E
102
{ACAD_REACTORS
330
2A
102
}
330
2A
100
AcDbProxyObject
 90
      499
 91
      501
 93
      500
310
4411DBDD5C985D5915DA5D1A115919D95CD0340902404333333333333E3BF0000000000000F9010740901411070040501600405405064090741402480A1B50
1001
ACAD
1000
AcDbSavedByObjectVersion
1070
     0
  0
ACAD_PROXY_OBJECT
  5
38
102
{ACAD_REACTORS
330
2A
102
}
330
2A
100
AcDbProxyObject
 90
      499
 91
      501
 93
      444
310
42D31A5B995C185D1D195C9B90E409028333333333333E3BF0000000000000FB010790141107004050750841D405064090741402483A0350
1001
ACAD
1000
AcDbSavedByObjectVersion
1070
     0
  0
ACAD_PROXY_OBJECT
  5
33
102
{ACAD_REACTORS
330
2A
102
}
330
2A
100
AcDbProxyObject
 90
      499
 91
      501
 93
      420
310
425499585B1A5CDD1A58D08409028333333333333E3BF0000000000000FB01079019070040501508421405064090741402480A1B40
1001
ACAD
1000
AcDbSavedByObjectVersion
1070
     0
  0
ACAD_PROXY_OBJECT
  5
37
102
{ACAD_REACTORS
330
2A
102
}
330
2A
100
AcDbProxyObject
 90
      499
 91
      501
 93
      412
310
41D51A1A58DAD95B90D409028333333333333E3BF0000000000000FB010790141107004050150C41D405064090741402480A0350
1001
ACAD
1000
AcDbSavedByObjectVersion
1070
     0
  0
XRECORD
  5
327
102
{ACAD_REACTORS
330
31E
102
}
330
31E
100
AcDbXrecord
 90
        0
  0
XRECORD
  5
33D
102
{ACAD_REACTORS
330
31E
102
}
330
31E
100
AcDbXrecord
1000
DSTYLE
1002
{
1070
   340
340
11
1002
}
  0
XRECORD
  5
328
102
{ACAD_REACTORS
330
31E
102
}
330
31E
100
AcDbXrecord
  1
{140E4DE2-D4D9-41EF-A6CA-E24157A99536}
  0
XRECORD
  5
321
102
{ACAD_REACTORS
330
31E
102
}
330
31E
100
AcDbXrecord
  1

  0
XRECORD
  5
326
102
{ACAD_REACTORS
330
31E
102
}
330
31E
100
AcDbXrecord
 90
        4
  0
XRECORD
  5
323
102
{ACAD_REACTORS
330
31E
102
}
330
31E
100
AcDbXrecord
340
1A
  0
XRECORD
  5
325
102
{ACAD_REACTORS
330
31E
102
}
330
31E
100
AcDbXrecord
 90
    10781
  0
XRECORD
  5
324
102
{ACAD_REACTORS
330
31E
102
}
330
31E
100
AcDbXrecord
340
19
  0
XRECORD
  5
32A
102
{ACAD_REACTORS
330
31E
102
}
330
31E
100
AcDbXrecord
 40
0.0
  0
XRECORD
  5
32D
102
{ACAD_REACTORS
330
31E
102
}
330
31E
100
AcDbXrecord
340
0
  0
XRECORD
  5
333
102
{ACAD_REACTORS
330
31E
102
}
330
31E
100
AcDbXrecord
 10
0.0
 20
0.0
 30
0.0
  0
XRECORD
  5
32F
102
{ACAD_REACTORS
330
31E
102
}
330
31E
100
AcDbXrecord
 10
0.0
 20
0.0
 30
0.0
  0
XRECORD
  5
332
102
{ACAD_REACTORS
330
31E
102
}
330
31E
100
AcDbXrecord
 10
0.0
 20
0.0
 30
0.0
  0
XRECORD
  5
330
102
{ACAD_REACTORS
330
31E
102
}
330
31E
100
AcDbXrecord
 10
0.0
 20
0.0
 30
0.0
  0
XRECORD
  5
331
102
{ACAD_REACTORS
330
31E
102
}
330
31E
100
AcDbXrecord
 10
0.0
 20
0.0
 30
0.0
  0
XRECORD
  5
32E
102
{ACAD_REACTORS
330
31E
102
}
330
31E
100
AcDbXrecord
 10
0.0
 20
0.0
 30
0.0
  0
XRECORD
  5
32B
102
{ACAD_REACTORS
330
31E
102
}
330
31E
100
AcDbXrecord
340
0
  0
XRECORD
  5
32C
102
{ACAD_REACTORS
330
31E
102
}
330
31E
100
AcDbXrecord
 70
     0
  0
XRECORD
  5
322
102
{ACAD_REACTORS
330
31E
102
}
330
31E
100
AcDbXrecord
  1

  0
XRECORD
  5
31F
102
{ACAD_REACTORS
330
31E
102
}
330
31E
100
AcDbXrecord
 90
        1
  0
XRECORD
  5
320
102
{ACAD_REACTORS
330
31E
102
}
330
31E
100
AcDbXrecord
 90
       70
  0
XRECORD
  5
336
102
{ACAD_REACTORS
330
31E
102
}
330
31E
100
AcDbXrecord
340
0
  0
XRECORD
  5
33C
102
{ACAD_REACTORS
330
31E
102
}
330
31E
100
AcDbXrecord
 10
0.0
 20
0.0
 30
0.0
  0
XRECORD
  5
338
102
{ACAD_REACTORS
330
31E
102
}
330
31E
100
AcDbXrecord
 10
0.0
 20
0.0
 30
0.0
  0
XRECORD
  5
33B
102
{ACAD_REACTORS
330
31E
102
}
330
31E
100
AcDbXrecord
 10
0.0
 20
0.0
 30
0.0
  0
XRECORD
  5
339
102
{ACAD_REACTORS
330
31E
102
}
330
31E
100
AcDbXrecord
 10
0.0
 20
0.0
 30
0.0
  0
XRECORD
  5
33A
102
{ACAD_REACTORS
330
31E
102
}
330
31E
100
AcDbXrecord
 10
0.0
 20
0.0
 30
0.0
  0
XRECORD
  5
337
102
{ACAD_REACTORS
330
31E
102
}
330
31E
100
AcDbXrecord
 10
0.0
 20
0.0
 30
0.0
  0
XRECORD
  5
334
102
{ACAD_REACTORS
330
31E
102
}
330
31E
100
AcDbXrecord
340
0
  0
XRECORD
  5
335
102
{ACAD_REACTORS
330
31E
102
}
330
31E
100
AcDbXrecord
 70
     0
  0
XRECORD
  5
329
102
{ACAD_REACTORS
330
31E
102
}
330
31E
100
AcDbXrecord
  1
{FAEB1C32-E019-11D5-929B-00C0DF256EC4}
  0
DICTIONARYVAR
  5
343
102
{ACAD_REACTORS
330
33E
102
}
330
33E
100
DictionaryVariables
280
     0
  1
2
  0
DICTIONARYVAR
  5
344
102
{ACAD_REACTORS
330
33E
102
}
330
33E
100
DictionaryVariables
280
     0
  1
1
  0
DICTIONARYVAR
  5
342
102
{ACAD_REACTORS
330
33E
102
}
330
33E
100
DictionaryVariables
280
     0
  1
80.000000
  0
DICTIONARYVAR
  5
341
102
{ACAD_REACTORS
330
33E
102
}
330
33E
100
DictionaryVariables
280
     0
  1
5.000000
  0
DICTIONARY
  5
347
330
3D
100
AcDbDictionary
280
     1
  3
ACAD_XREC_ROUNDTRIP
360
348
  0
DICTIONARY
  5
345
330
3C
100
AcDbDictionary
280
     1
  3
ACAD_XREC_ROUNDTRIP
360
346
  0
DICTIONARY
  5
349
330
3E
100
AcDbDictionary
280
     1
  3
ACAD_XREC_ROUNDTRIP
360
34A
  0
XRECORD
  5
348
102
{ACAD_REACTORS
330
347
102
}
330
347
100
AcDbXrecord
102
MATERIAL
148
0.0
149
0.0
149
0.0
 93
        0
 94
      127
282
     0
 72
     1
 77
     1
171
     1
175
     1
179
     1
273
     0
  0
XRECORD
  5
346
102
{ACAD_REACTORS
330
345
102
}
330
345
100
AcDbXrecord
102
MATERIAL
148
0.0
149
0.0
149
0.0
 93
        0
 94
      127
282
     0
 72
     1
 77
     1
171
     1
175
     1
179
     1
273
     0
  0
XRECORD
  5
34A
102
{ACAD_REACTORS
330
349
102
}
330
349
100
AcDbXrecord
102
MATERIAL
148
0.0
149
0.0
149
0.0
 93
        0
 94
      127
282
     0
 72
     1
 77
     1
171
     1
175
     1
179
     1
273
     0
  0
ENDSEC
  0
EOF
