  0
SECTION
  2
HEADER
  9
$ACADVER
  1
AC1014
  9
$ACADMAINTVER
 70
     9
  9
$DWGCODEPAGE
  3
ANSI_932
  9
$INSBASE
 10
0.0
 20
0.0
 30
0.0
  9
$EXTMIN
 10
-1.999999999999991
 20
11.5
 30
0.0
  9
$EXTMAX
 10
200.0
 20
291.5
 30
0.0
  9
$LIMMIN
 10
0.0
 20
0.0
  9
$LIMMAX
 10
210.0
 20
297.0
  9
$ORTHOMODE
 70
     0
  9
$REGENMODE
 70
     1
  9
$FILLMODE
 70
     1
  9
$QTEXTMODE
 70
     0
  9
$MIRRTEXT
 70
     1
  9
$DRAGMODE
 70
     2
  9
$LTSCALE
 40
1.0
  9
$OSMODE
 70
    37
  9
$ATTMODE
 70
     1
  9
$TEXTSIZE
 40
2.5
  9
$TRACEWID
 40
1.0
  9
$TEXTSTYLE
  7
STANDARD
  9
$CLAYER
  8
洗面器
  9
$CELTYPE
  6
BYLAYER
  9
$CECOLOR
 62
   256
  9
$CELTSCALE
 40
1.0
  9
$DELOBJ
 70
     1
  9
$DISPSILH
 70
     0
  9
$DIMSCALE
 40
1.0
  9
$DIMASZ
 40
2.5
  9
$DIMEXO
 40
0.625
  9
$DIMDLI
 40
3.75
  9
$DIMRND
 40
0.0
  9
$DIMDLE
 40
0.0
  9
$DIMEXE
 40
1.25
  9
$DIMTP
 40
0.0
  9
$DIMTM
 40
0.0
  9
$DIMTXT
 40
2.5
  9
$DIMCEN
 40
2.5
  9
$DIMTSZ
 40
0.0
  9
$DIMTOL
 70
     0
  9
$DIMLIM
 70
     0
  9
$DIMTIH
 70
     0
  9
$DIMTOH
 70
     0
  9
$DIMSE1
 70
     0
  9
$DIMSE2
 70
     0
  9
$DIMTAD
 70
     1
  9
$DIMZIN
 70
     8
  9
$DIMBLK
  1

  9
$DIMASO
 70
     1
  9
$DIMSHO
 70
     1
  9
$DIMPOST
  1

  9
$DIMAPOST
  1

  9
$DIMALT
 70
     0
  9
$DIMALTD
 70
     3
  9
$DIMALTF
 40
0.03937007874016
  9
$DIMLFAC
 40
1.0
  9
$DIMTOFL
 70
     1
  9
$DIMTVP
 40
0.0
  9
$DIMTIX
 70
     0
  9
$DIMSOXD
 70
     0
  9
$DIMSAH
 70
     0
  9
$DIMBLK1
  1

  9
$DIMBLK2
  1

  9
$DIMSTYLE
  2
ISO-25
  9
$DIMCLRD
 70
     0
  9
$DIMCLRE
 70
     0
  9
$DIMCLRT
 70
     0
  9
$DIMTFAC
 40
1.0
  9
$DIMGAP
 40
0.625
  9
$DIMJUST
 70
     0
  9
$DIMSD1
 70
     0
  9
$DIMSD2
 70
     0
  9
$DIMTOLJ
 70
     0
  9
$DIMTZIN
 70
     8
  9
$DIMALTZ
 70
     0
  9
$DIMALTTZ
 70
     0
  9
$DIMFIT
 70
     3
  9
$DIMUPT
 70
     0
  9
$DIMUNIT
 70
     2
  9
$DIMDEC
 70
     2
  9
$DIMTDEC
 70
     2
  9
$DIMALTU
 70
     2
  9
$DIMALTTD
 70
     3
  9
$DIMTXSTY
  7
STANDARD
  9
$DIMAUNIT
 70
     0
  9
$LUNITS
 70
     2
  9
$LUPREC
 70
     4
  9
$SKETCHINC
 40
1.0
  9
$FILLETRAD
 40
10.0
  9
$AUNITS
 70
     0
  9
$AUPREC
 70
     0
  9
$MENU
  1
.
  9
$ELEVATION
 40
0.0
  9
$PELEVATION
 40
0.0
  9
$THICKNESS
 40
0.0
  9
$LIMCHECK
 70
     0
  9
$CHAMFERA
 40
10.0
  9
$CHAMFERB
 40
10.0
  9
$CHAMFERC
 40
20.0
  9
$CHAMFERD
 40
0.0
  9
$SKPOLY
 70
     0
  9
$TDCREATE
 40
2460035.620869595
  9
$TDUPDATE
 40
2460035.620869849
  9
$TDINDWG
 40
0.0000000116
  9
$TDUSRTIMER
 40
0.0000000116
  9
$USRTIMER
 70
     1
  9
$ANGBASE
 50
0.0
  9
$ANGDIR
 70
     0
  9
$PDMODE
 70
     0
  9
$PDSIZE
 40
0.0
  9
$PLINEWID
 40
0.0
  9
$COORDS
 70
     1
  9
$SPLFRAME
 70
     0
  9
$SPLINETYPE
 70
     6
  9
$SPLINESEGS
 70
     8
  9
$ATTDIA
 70
     0
  9
$ATTREQ
 70
     1
  9
$HANDLING
 70
     1
  9
$HANDSEED
  5
583
  9
$SURFTAB1
 70
     6
  9
$SURFTAB2
 70
     6
  9
$SURFTYPE
 70
     6
  9
$SURFU
 70
     6
  9
$SURFV
 70
     6
  9
$UCSNAME
  2

  9
$UCSORG
 10
0.0
 20
0.0
 30
0.0
  9
$UCSXDIR
 10
1.0
 20
0.0
 30
0.0
  9
$UCSYDIR
 10
0.0
 20
1.0
 30
0.0
  9
$PUCSNAME
  2

  9
$PUCSORG
 10
0.0
 20
0.0
 30
0.0
  9
$PUCSXDIR
 10
1.0
 20
0.0
 30
0.0
  9
$PUCSYDIR
 10
0.0
 20
1.0
 30
0.0
  9
$USERI1
 70
     0
  9
$USERI2
 70
     0
  9
$USERI3
 70
     0
  9
$USERI4
 70
     0
  9
$USERI5
 70
     0
  9
$USERR1
 40
0.0
  9
$USERR2
 40
0.0
  9
$USERR3
 40
0.0
  9
$USERR4
 40
0.0
  9
$USERR5
 40
0.0
  9
$WORLDVIEW
 70
     1
  9
$SHADEDGE
 70
     3
  9
$SHADEDIF
 70
    70
  9
$TILEMODE
 70
     1
  9
$MAXACTVP
 70
    64
  9
$PINSBASE
 10
0.0
 20
0.0
 30
0.0
  9
$PLIMCHECK
 70
     0
  9
$PEXTMIN
 10
1.000000000000000E+20
 20
1.000000000000000E+20
 30
1.000000000000000E+20
  9
$PEXTMAX
 10
-1.000000000000000E+20
 20
-1.000000000000000E+20
 30
-1.000000000000000E+20
  9
$PLIMMIN
 10
0.0
 20
0.0
  9
$PLIMMAX
 10
420.0
 20
297.0
  9
$UNITMODE
 70
     0
  9
$VISRETAIN
 70
     1
  9
$PLINEGEN
 70
     0
  9
$PSLTSCALE
 70
     1
  9
$TREEDEPTH
 70
  3020
  9
$PICKSTYLE
 70
     1
  9
$CMLSTYLE
  2
STANDARD
  9
$CMLJUST
 70
     0
  9
$CMLSCALE
 40
20.0
  9
$PROXYGRAPHICS
 70
     1
  9
$MEASUREMENT
 70
     1
  0
ENDSEC
  0
SECTION
  2
CLASSES
  0
CLASS
  1
ACDBDICTIONARYWDFLT
  2
AcDbDictionaryWithDefault
  3
ObjectDBX Classes
 90
        0
280
     0
281
     0
  0
CLASS
  1
VISUALSTYLE
  2
AcDbVisualStyle
  3
ObjectDBX Classes
 90
     4095
280
     0
281
     0
  0
CLASS
  1
MATERIAL
  2
AcDbMaterial
  3
ObjectDBX Classes
 90
     1153
280
     0
281
     0
  0
CLASS
  1
SUN
  2
AcDbSun
  3
SCENEOE
 90
     1024
280
     0
281
     0
  0
CLASS
  1
DICTIONARYVAR
  2
AcDbDictionaryVar
  3
ObjectDBX Classes
 90
        0
280
     0
281
     0
  0
CLASS
  1
XRECORD
  2
AcDbXrecord
  3
AutoCAD 2000
 90
        0
280
     0
281
     0
  0
CLASS
  1
LWPOLYLINE
  2
AcDbPolyline
  3
AutoCAD 2000
 90
        0
280
     0
281
     1
  0
CLASS
  1
HATCH
  2
AcDbHatch
  3
AutoCAD 2000
 90
        0
280
     0
281
     1
  0
CLASS
  1
ACDBPLACEHOLDER
  2
AcDbPlaceHolder
  3
ObjectDBX Classes
 90
        0
280
     0
281
     0
  0
CLASS
  1
LAYOUT
  2
AcDbLayout
  3
ObjectDBX Classes
 90
        0
280
     0
281
     0
  0
ENDSEC
  0
SECTION
  2
TABLES
  0
TABLE
  2
VPORT
  5
8
330
0
100
AcDbSymbolTable
 70
     1
  0
VPORT
  5
29
330
8
100
AcDbSymbolTableRecord
100
AcDbViewportTableRecord
  2
*ACTIVE
 70
     0
 10
0.0
 20
0.0
 11
1.0
 21
1.0
 12
990.0000000000001
 22
1515.0
 13
0.0
 23
0.0
 14
10.0
 24
10.0
 15
10.0
 25
10.0
 16
0.0
 26
0.0
 36
1.0
 17
0.0
 27
0.0
 37
0.0
 40
2800.0
 41
0.7214285714285715
 42
50.0
 43
0.0
 44
0.0
 50
0.0
 51
0.0
 71
     0
 72
  1000
 73
     1
 74
     3
 75
     0
 76
     0
 77
     0
 78
     0
  0
ENDTAB
  0
TABLE
  2
LTYPE
  5
5
330
0
100
AcDbSymbolTable
 70
     7
  0
LTYPE
  5
14
330
5
100
AcDbSymbolTableRecord
100
AcDbLinetypeTableRecord
  2
BYBLOCK
 70
     0
  3

 72
    65
 73
     0
 40
0.0
  0
LTYPE
  5
15
330
5
100
AcDbSymbolTableRecord
100
AcDbLinetypeTableRecord
  2
BYLAYER
 70
     0
  3

 72
    65
 73
     0
 40
0.0
  0
LTYPE
  5
16
330
5
100
AcDbSymbolTableRecord
100
AcDbLinetypeTableRecord
  2
CONTINUOUS
 70
     0
  3
Solid line
 72
    65
 73
     0
 40
0.0
  0
LTYPE
  5
40
330
5
100
AcDbSymbolTableRecord
100
AcDbLinetypeTableRecord
  2
EXLTYPE1
 70
     0
  3
破線
 72
    65
 73
     2
 40
3.0
 49
2.0
 74
     0
 49
-1.0
 74
     0
  0
LTYPE
  5
41
330
5
100
AcDbSymbolTableRecord
100
AcDbLinetypeTableRecord
  2
EXLTYPE2
 70
     0
  3
点線
 72
    65
 73
     2
 40
2.0
 49
1.0
 74
     0
 49
-1.0
 74
     0
  0
LTYPE
  5
42
330
5
100
AcDbSymbolTableRecord
100
AcDbLinetypeTableRecord
  2
EXLTYPE3
 70
     0
  3
一点鎖線
 72
    65
 73
     4
 40
10.0
 49
7.0
 74
     0
 49
-1.0
 74
     0
 49
1.0
 74
     0
 49
-1.0
 74
     0
  0
LTYPE
  5
43
330
5
100
AcDbSymbolTableRecord
100
AcDbLinetypeTableRecord
  2
EXLTYPE4
 70
     0
  3
二点鎖線
 72
    65
 73
     6
 40
12.0
 49
7.0
 74
     0
 49
-1.0
 74
     0
 49
1.0
 74
     0
 49
-1.0
 74
     0
 49
1.0
 74
     0
 49
-1.0
 74
     0
  0
LTYPE
  5
44
330
5
100
AcDbSymbolTableRecord
100
AcDbLinetypeTableRecord
  2
EXLTYPE5
 70
     0
  3
三点鎖線
 72
    65
 73
     8
 40
37.0
 49
30.0
 74
     0
 49
-1.0
 74
     0
 49
1.0
 74
     0
 49
-1.0
 74
     0
 49
1.0
 74
     0
 49
-1.0
 74
     0
 49
1.0
 74
     0
 49
-1.0
 74
     0
  0
LTYPE
  5
45
330
5
100
AcDbSymbolTableRecord
100
AcDbLinetypeTableRecord
  2
EXLTYPE6
 70
     0
  3
四点鎖線
 72
    65
 73
    10
 40
39.0
 49
30.0
 74
     0
 49
-1.0
 74
     0
 49
1.0
 74
     0
 49
-1.0
 74
     0
 49
1.0
 74
     0
 49
-1.0
 74
     0
 49
1.0
 74
     0
 49
-1.0
 74
     0
 49
1.0
 74
     0
 49
-1.0
 74
     0
  0
ENDTAB
  0
TABLE
  2
LAYER
  5
2
330
0
100
AcDbSymbolTable
 70
     9
  0
LAYER
  5
10
330
2
100
AcDbSymbolTableRecord
100
AcDbLayerTableRecord
  2
0
 70
     0
 62
     7
  6
CONTINUOUS
  0
LAYER
  5
48
330
2
100
AcDbSymbolTableRecord
100
AcDbLayerTableRecord
  2
枠_
 70
     0
 62
     7
  6
CONTINUOUS
  0
LAYER
  5
49
330
2
100
AcDbSymbolTableRecord
100
AcDbLayerTableRecord
  2
洗面器
 70
     0
 62
     7
  6
CONTINUOUS
  0
LAYER
  5
4A
330
2
100
AcDbSymbolTableRecord
100
AcDbLayerTableRecord
  2
水栓
 70
     0
 62
     7
  6
CONTINUOUS
  0
LAYER
  5
4B
330
2
100
AcDbSymbolTableRecord
100
AcDbLayerTableRecord
  2
止水栓
 70
     0
 62
     7
  6
CONTINUOUS
  0
LAYER
  5
4C
330
2
100
AcDbSymbolTableRecord
100
AcDbLayerTableRecord
  2
トラップ
 70
     0
 62
     7
  6
CONTINUOUS
  0
LAYER
  5
4D
330
2
100
AcDbSymbolTableRecord
100
AcDbLayerTableRecord
  2
寸法
 70
     0
 62
     7
  6
CONTINUOUS
  0
LAYER
  5
4E
330
2
100
AcDbSymbolTableRecord
100
AcDbLayerTableRecord
  2
器具明細表
 70
     0
 62
     7
  6
CONTINUOUS
  0
LAYER
  5
453
330
2
100
AcDbSymbolTableRecord
100
AcDbLayerTableRecord
  2
DEFPOINTS
 70
     0
 62
     7
  6
CONTINUOUS
  0
ENDTAB
  0
TABLE
  2
STYLE
  5
3
330
0
100
AcDbSymbolTable
 70
     5
  0
STYLE
  5
11
330
3
100
AcDbSymbolTableRecord
100
AcDbTextStyleTableRecord
  2
STANDARD
 70
     0
 40
0.0
 41
1.0
 50
0.0
 71
     0
 42
2.5
  3
monotxt
  4
extfont
  0
STYLE
  5
46
330
3
100
AcDbSymbolTableRecord
100
AcDbTextStyleTableRecord
  2
EXCADSTD
 70
     0
 40
0.0
 41
1.0
 50
0.0
 71
     0
 42
0.2
  3
monotxt
  4
extfont
  0
STYLE
  5
47
330
3
100
AcDbSymbolTableRecord
100
AcDbTextStyleTableRecord
  2
EXCADVERT
 70
     4
 40
0.0
 41
1.0
 50
0.0
 71
     0
 42
0.286885
  3
monotxt
  4
extfont
  0
STYLE
  5
110
330
3
100
AcDbSymbolTableRecord
100
AcDbTextStyleTableRecord
  2
EXCADTTF1
 70
     0
 40
0.0
 41
1.0
 50
0.0
 71
     0
 42
0.2
  3
MSGOTHIC.TTC
  4

1001
ACAD
1000
MS Gothic
1071
    32817
  0
STYLE
  5
451
330
3
100
AcDbSymbolTableRecord
100
AcDbTextStyleTableRecord
  2
EXCADDIM1
 70
     0
 40
0.0
 41
0.84
 50
0.0
 71
     0
 42
0.2
  3
monotxt
  4
extfont
  0
ENDTAB
  0
TABLE
  2
VIEW
  5
6
330
0
100
AcDbSymbolTable
 70
     0
  0
ENDTAB
  0
TABLE
  2
UCS
  5
7
330
0
100
AcDbSymbolTable
 70
     0
  0
ENDTAB
  0
TABLE
  2
APPID
  5
9
330
0
100
AcDbSymbolTable
 70
     1
  0
APPID
  5
12
330
9
100
AcDbSymbolTableRecord
100
AcDbRegAppTableRecord
  2
ACAD
 70
     0
  0
ENDTAB
  0
TABLE
  2
DIMSTYLE
  5
A
330
0
100
AcDbSymbolTable
 70
     1
  0
DIMSTYLE
105
27
102
{ACAD_REACTORS
330
452
330
460
330
46D
330
479
330
485
330
492
330
4A0
330
4AC
330
4BB
330
4C8
330
4D4
330
4E1
330
4EE
330
4FA
330
521
330
52E
330
544
102
}
330
A
100
AcDbSymbolTableRecord
100
AcDbDimStyleTableRecord
  2
ISO-25
 70
     0
  3

  4

  5

  6

  7

 40
1.0
 41
2.5
 42
0.625
 43
3.75
 44
1.25
 45
0.0
 46
0.0
 47
0.0
 48
0.0
140
2.5
141
2.5
142
0.0
143
0.03937007874016
144
1.0
145
0.0
146
1.0
147
0.625
 71
     0
 72
     0
 73
     0
 74
     0
 75
     0
 76
     0
 77
     1
 78
     8
170
     0
171
     3
172
     1
173
     0
174
     0
175
     0
176
     0
177
     0
178
     0
270
     2
271
     2
272
     2
273
     2
274
     3
340
11
275
     0
280
     0
281
     0
282
     0
283
     0
284
     8
285
     0
286
     0
287
     5
288
     0
  0
ENDTAB
  0
TABLE
  2
BLOCK_RECORD
  5
1
330
0
100
AcDbSymbolTable
 70
    32
  0
BLOCK_RECORD
  5
1F
330
1
100
AcDbSymbolTableRecord
100
AcDbBlockTableRecord
  2
*MODEL_SPACE
  0
BLOCK_RECORD
  5
1B
330
1
100
AcDbSymbolTableRecord
100
AcDbBlockTableRecord
  2
*PAPER_SPACE
  0
BLOCK_RECORD
  5
4F
330
1
100
AcDbSymbolTableRecord
100
AcDbBlockTableRecord
  2
EX_NORM
  0
BLOCK_RECORD
  5
52
330
1
100
AcDbSymbolTableRecord
100
AcDbBlockTableRecord
  2
EX_BNORM
  0
BLOCK_RECORD
  5
55
330
1
100
AcDbSymbolTableRecord
100
AcDbBlockTableRecord
  2
EX_BCIR
  0
BLOCK_RECORD
  5
58
330
1
100
AcDbSymbolTableRecord
100
AcDbBlockTableRecord
  2
EX_RCIVIL
  0
BLOCK_RECORD
  5
5B
330
1
100
AcDbSymbolTableRecord
100
AcDbBlockTableRecord
  2
EX_SLANT
  0
BLOCK_RECORD
  5
5E
330
1
100
AcDbSymbolTableRecord
100
AcDbBlockTableRecord
  2
EX_NONE
  0
BLOCK_RECORD
  5
61
330
1
100
AcDbSymbolTableRecord
100
AcDbBlockTableRecord
  2
EX_CIVIL
  0
BLOCK_RECORD
  5
64
330
1
100
AcDbSymbolTableRecord
100
AcDbBlockTableRecord
  2
EX_WCIR
  0
BLOCK_RECORD
  5
67
330
1
100
AcDbSymbolTableRecord
100
AcDbBlockTableRecord
  2
EX_WCIR2
  0
BLOCK_RECORD
  5
6A
330
1
100
AcDbSymbolTableRecord
100
AcDbBlockTableRecord
  2
EX_WNORM
  0
BLOCK_RECORD
  5
6D
330
1
100
AcDbSymbolTableRecord
100
AcDbBlockTableRecord
  2
EX_NNORM
  0
BLOCK_RECORD
  5
70
330
1
100
AcDbSymbolTableRecord
100
AcDbBlockTableRecord
  2
EX_BBOX
  0
BLOCK_RECORD
  5
73
330
1
100
AcDbSymbolTableRecord
100
AcDbBlockTableRecord
  2
EX_WBOX
  0
BLOCK_RECORD
  5
76
330
1
100
AcDbSymbolTableRecord
100
AcDbBlockTableRecord
  2
EX_INTEGRAL
  0
BLOCK_RECORD
  5
454
330
1
100
AcDbSymbolTableRecord
100
AcDbBlockTableRecord
  2
*D15
  0
BLOCK_RECORD
  5
461
330
1
100
AcDbSymbolTableRecord
100
AcDbBlockTableRecord
  2
*D16
  0
BLOCK_RECORD
  5
46E
330
1
100
AcDbSymbolTableRecord
100
AcDbBlockTableRecord
  2
*D17
  0
BLOCK_RECORD
  5
47A
330
1
100
AcDbSymbolTableRecord
100
AcDbBlockTableRecord
  2
*D18
  0
BLOCK_RECORD
  5
486
330
1
100
AcDbSymbolTableRecord
100
AcDbBlockTableRecord
  2
*D19
  0
BLOCK_RECORD
  5
493
330
1
100
AcDbSymbolTableRecord
100
AcDbBlockTableRecord
  2
*D20
  0
BLOCK_RECORD
  5
4A1
330
1
100
AcDbSymbolTableRecord
100
AcDbBlockTableRecord
  2
*D21
  0
BLOCK_RECORD
  5
4AD
330
1
100
AcDbSymbolTableRecord
100
AcDbBlockTableRecord
  2
*D22
  0
BLOCK_RECORD
  5
4BC
330
1
100
AcDbSymbolTableRecord
100
AcDbBlockTableRecord
  2
*D23
  0
BLOCK_RECORD
  5
4C9
330
1
100
AcDbSymbolTableRecord
100
AcDbBlockTableRecord
  2
*D24
  0
BLOCK_RECORD
  5
4D5
330
1
100
AcDbSymbolTableRecord
100
AcDbBlockTableRecord
  2
*D25
  0
BLOCK_RECORD
  5
4E2
330
1
100
AcDbSymbolTableRecord
100
AcDbBlockTableRecord
  2
*D26
  0
BLOCK_RECORD
  5
4EF
330
1
100
AcDbSymbolTableRecord
100
AcDbBlockTableRecord
  2
*D27
  0
BLOCK_RECORD
  5
4FB
330
1
100
AcDbSymbolTableRecord
100
AcDbBlockTableRecord
  2
*D28
  0
BLOCK_RECORD
  5
522
330
1
100
AcDbSymbolTableRecord
100
AcDbBlockTableRecord
  2
*D29
  0
BLOCK_RECORD
  5
52F
330
1
100
AcDbSymbolTableRecord
100
AcDbBlockTableRecord
  2
*D30
  0
BLOCK_RECORD
  5
545
330
1
100
AcDbSymbolTableRecord
100
AcDbBlockTableRecord
  2
*D31
  0
ENDTAB
  0
ENDSEC
  0
SECTION
  2
BLOCKS
  0
BLOCK
  5
20
330
1F
100
AcDbEntity
  8
0
100
AcDbBlockBegin
  2
*MODEL_SPACE
 70
     0
 10
0.0
 20
0.0
 30
0.0
  3
*MODEL_SPACE
  1

  0
ENDBLK
  5
21
330
1F
100
AcDbEntity
  8
0
100
AcDbBlockEnd
  0
BLOCK
  5
1C
330
1B
100
AcDbEntity
 67
     1
  8
0
100
AcDbBlockBegin
  2
*PAPER_SPACE
 70
     0
 10
0.0
 20
0.0
 30
0.0
  3
*PAPER_SPACE
  1

  0
ENDBLK
  5
1D
330
1B
100
AcDbEntity
 67
     1
  8
0
100
AcDbBlockEnd
  0
BLOCK
  5
50
330
4F
100
AcDbEntity
  8
0
100
AcDbBlockBegin
  2
EX_NORM
 70
     0
 10
0.0
 20
0.0
 30
0.0
  3
EX_NORM
  1

  0
LINE
  5
79
330
4F
100
AcDbEntity
  8
0
  6
CONTINUOUS
 62
     0
100
AcDbLine
 10
0.0
 20
0.0
 30
0.0
 11
-1.0
 21
0.0
 31
0.0
  0
LINE
  5
7A
330
4F
100
AcDbEntity
  8
0
  6
CONTINUOUS
 62
     0
100
AcDbLine
 10
0.0
 20
0.0
 30
0.0
 11
-1.0
 21
0.166666667
 31
0.0
  0
LINE
  5
7B
330
4F
100
AcDbEntity
  8
0
  6
CONTINUOUS
 62
     0
100
AcDbLine
 10
0.0
 20
0.0
 30
0.0
 11
-1.0
 21
-0.166666667
 31
0.0
  0
ENDBLK
  5
51
330
4F
100
AcDbEntity
  8
0
100
AcDbBlockEnd
  0
BLOCK
  5
53
330
52
100
AcDbEntity
  8
0
100
AcDbBlockBegin
  2
EX_BNORM
 70
     0
 10
0.0
 20
0.0
 30
0.0
  3
EX_BNORM
  1

  0
LINE
  5
7C
330
52
100
AcDbEntity
  8
0
  6
CONTINUOUS
 62
     0
100
AcDbLine
 10
0.0
 20
0.0
 30
0.0
 11
-1.0
 21
0.0
 31
0.0
  0
LINE
  5
7D
330
52
100
AcDbEntity
  8
0
  6
CONTINUOUS
 62
     0
100
AcDbLine
 10
0.0
 20
0.0
 30
0.0
 11
-1.0
 21
0.166666667
 31
0.0
  0
LINE
  5
7E
330
52
100
AcDbEntity
  8
0
  6
CONTINUOUS
 62
     0
100
AcDbLine
 10
0.0
 20
0.0
 30
0.0
 11
-1.0
 21
-0.166666667
 31
0.0
  0
LINE
  5
7F
330
52
100
AcDbEntity
  8
0
  6
CONTINUOUS
 62
     0
100
AcDbLine
 10
0.0
 20
0.0
 30
0.0
 11
-1.0
 21
0.083333333
 31
0.0
  0
LINE
  5
80
330
52
100
AcDbEntity
  8
0
  6
CONTINUOUS
 62
     0
100
AcDbLine
 10
0.0
 20
0.0
 30
0.0
 11
-1.0
 21
-0.083333333
 31
0.0
  0
LINE
  5
81
330
52
100
AcDbEntity
  8
0
  6
CONTINUOUS
 62
     0
100
AcDbLine
 10
-1.0
 20
0.166666667
 30
0.0
 11
-1.0
 21
-0.166666667
 31
0.0
  0
ENDBLK
  5
54
330
52
100
AcDbEntity
  8
0
100
AcDbBlockEnd
  0
BLOCK
  5
56
330
55
100
AcDbEntity
  8
0
100
AcDbBlockBegin
  2
EX_BCIR
 70
     0
 10
0.0
 20
0.0
 30
0.0
  3
EX_BCIR
  1

  0
LINE
  5
82
330
55
100
AcDbEntity
  8
0
  6
CONTINUOUS
 62
     0
100
AcDbLine
 10
0.0
 20
0.0
 30
0.0
 11
-1.0
 21
0.0
 31
0.0
  0
CIRCLE
  5
83
330
55
100
AcDbEntity
  8
0
  6
CONTINUOUS
 62
     0
100
AcDbCircle
 10
0.0
 20
0.0
 30
0.0
 40
0.5
  0
CIRCLE
  5
84
330
55
100
AcDbEntity
  8
0
  6
CONTINUOUS
 62
     0
100
AcDbCircle
 10
0.0
 20
0.0
 30
0.0
 40
0.25
  0
ENDBLK
  5
57
330
55
100
AcDbEntity
  8
0
100
AcDbBlockEnd
  0
BLOCK
  5
59
330
58
100
AcDbEntity
  8
0
100
AcDbBlockBegin
  2
EX_RCIVIL
 70
     0
 10
0.0
 20
0.0
 30
0.0
  3
EX_RCIVIL
  1

  0
LINE
  5
85
330
58
100
AcDbEntity
  8
0
  6
CONTINUOUS
 62
     0
100
AcDbLine
 10
0.0
 20
0.0
 30
0.0
 11
-1.0
 21
0.0
 31
0.0
  0
LINE
  5
86
330
58
100
AcDbEntity
  8
0
  6
CONTINUOUS
 62
     0
100
AcDbLine
 10
-1.0
 20
-0.25
 30
0.0
 11
0.0
 21
-0.25
 31
0.0
  0
LINE
  5
87
330
58
100
AcDbEntity
  8
0
  6
CONTINUOUS
 62
     0
100
AcDbLine
 10
-1.0
 20
-0.125
 30
0.0
 11
0.0
 21
-0.125
 31
0.0
  0
ENDBLK
  5
5A
330
58
100
AcDbEntity
  8
0
100
AcDbBlockEnd
  0
BLOCK
  5
5C
330
5B
100
AcDbEntity
  8
0
100
AcDbBlockBegin
  2
EX_SLANT
 70
     0
 10
0.0
 20
0.0
 30
0.0
  3
EX_SLANT
  1

  0
LINE
  5
88
330
5B
100
AcDbEntity
  8
0
  6
CONTINUOUS
 62
     0
100
AcDbLine
 10
0.0
 20
0.0
 30
0.0
 11
-1.0
 21
0.0
 31
0.0
  0
LINE
  5
89
330
5B
100
AcDbEntity
  8
0
  6
CONTINUOUS
 62
     0
100
AcDbLine
 10
0.707106781
 20
0.707106781
 30
0.0
 11
-0.707106781
 21
-0.707106781
 31
0.0
  0
ENDBLK
  5
5D
330
5B
100
AcDbEntity
  8
0
100
AcDbBlockEnd
  0
BLOCK
  5
5F
330
5E
100
AcDbEntity
  8
0
100
AcDbBlockBegin
  2
EX_NONE
 70
     0
 10
0.0
 20
0.0
 30
0.0
  3
EX_NONE
  1

  0
LINE
  5
8A
330
5E
100
AcDbEntity
  8
0
  6
CONTINUOUS
 62
     0
100
AcDbLine
 10
0.0
 20
0.0
 30
0.0
 11
-1.0
 21
0.0
 31
0.0
  0
ENDBLK
  5
60
330
5E
100
AcDbEntity
  8
0
100
AcDbBlockEnd
  0
BLOCK
  5
62
330
61
100
AcDbEntity
  8
0
100
AcDbBlockBegin
  2
EX_CIVIL
 70
     0
 10
0.0
 20
0.0
 30
0.0
  3
EX_CIVIL
  1

  0
LINE
  5
8B
330
61
100
AcDbEntity
  8
0
  6
CONTINUOUS
 62
     0
100
AcDbLine
 10
0.0
 20
0.0
 30
0.0
 11
-1.0
 21
0.0
 31
0.0
  0
LINE
  5
8C
330
61
100
AcDbEntity
  8
0
  6
CONTINUOUS
 62
     0
100
AcDbLine
 10
-1.0
 20
0.25
 30
0.0
 11
0.0
 21
0.25
 31
0.0
  0
LINE
  5
8D
330
61
100
AcDbEntity
  8
0
  6
CONTINUOUS
 62
     0
100
AcDbLine
 10
-1.0
 20
0.125
 30
0.0
 11
0.0
 21
0.125
 31
0.0
  0
ENDBLK
  5
63
330
61
100
AcDbEntity
  8
0
100
AcDbBlockEnd
  0
BLOCK
  5
65
330
64
100
AcDbEntity
  8
0
100
AcDbBlockBegin
  2
EX_WCIR
 70
     0
 10
0.0
 20
0.0
 30
0.0
  3
EX_WCIR
  1

  0
LINE
  5
8E
330
64
100
AcDbEntity
  8
0
  6
CONTINUOUS
 62
     0
100
AcDbLine
 10
0.0
 20
0.0
 30
0.0
 11
-1.0
 21
0.0
 31
0.0
  0
CIRCLE
  5
8F
330
64
100
AcDbEntity
  8
0
  6
CONTINUOUS
 62
     0
100
AcDbCircle
 10
0.0
 20
0.0
 30
0.0
 40
0.5
  0
ENDBLK
  5
66
330
64
100
AcDbEntity
  8
0
100
AcDbBlockEnd
  0
BLOCK
  5
68
330
67
100
AcDbEntity
  8
0
100
AcDbBlockBegin
  2
EX_WCIR2
 70
     0
 10
0.0
 20
0.0
 30
0.0
  3
EX_WCIR2
  1

  0
LINE
  5
90
330
67
100
AcDbEntity
  8
0
  6
CONTINUOUS
 62
     0
100
AcDbLine
 10
-0.5
 20
0.0
 30
0.0
 11
-1.0
 21
0.0
 31
0.0
  0
CIRCLE
  5
91
330
67
100
AcDbEntity
  8
0
  6
CONTINUOUS
 62
     0
100
AcDbCircle
 10
0.0
 20
0.0
 30
0.0
 40
0.5
  0
ENDBLK
  5
69
330
67
100
AcDbEntity
  8
0
100
AcDbBlockEnd
  0
BLOCK
  5
6B
330
6A
100
AcDbEntity
  8
0
100
AcDbBlockBegin
  2
EX_WNORM
 70
     0
 10
0.0
 20
0.0
 30
0.0
  3
EX_WNORM
  1

  0
LINE
  5
92
330
6A
100
AcDbEntity
  8
0
  6
CONTINUOUS
 62
     0
100
AcDbLine
 10
-1.0
 20
0.0
 30
0.0
 11
-1.0
 21
0.0
 31
0.0
  0
LINE
  5
93
330
6A
100
AcDbEntity
  8
0
  6
CONTINUOUS
 62
     0
100
AcDbLine
 10
0.0
 20
0.0
 30
0.0
 11
-1.0
 21
0.166666667
 31
0.0
  0
LINE
  5
94
330
6A
100
AcDbEntity
  8
0
  6
CONTINUOUS
 62
     0
100
AcDbLine
 10
0.0
 20
0.0
 30
0.0
 11
-1.0
 21
-0.166666667
 31
0.0
  0
LINE
  5
95
330
6A
100
AcDbEntity
  8
0
  6
CONTINUOUS
 62
     0
100
AcDbLine
 10
-1.0
 20
0.166666667
 30
0.0
 11
-1.0
 21
-0.166666667
 31
0.0
  0
ENDBLK
  5
6C
330
6A
100
AcDbEntity
  8
0
100
AcDbBlockEnd
  0
BLOCK
  5
6E
330
6D
100
AcDbEntity
  8
0
100
AcDbBlockBegin
  2
EX_NNORM
 70
     0
 10
0.0
 20
0.0
 30
0.0
  3
EX_NNORM
  1

  0
LINE
  5
96
330
6D
100
AcDbEntity
  8
0
  6
CONTINUOUS
 62
     0
100
AcDbLine
 10
0.0
 20
0.0
 30
0.0
 11
-1.0
 21
0.0
 31
0.0
  0
LINE
  5
97
330
6D
100
AcDbEntity
  8
0
  6
CONTINUOUS
 62
     0
100
AcDbLine
 10
0.0
 20
0.0
 30
0.0
 11
-1.0
 21
0.166666667
 31
0.0
  0
LINE
  5
98
330
6D
100
AcDbEntity
  8
0
  6
CONTINUOUS
 62
     0
100
AcDbLine
 10
0.0
 20
0.0
 30
0.0
 11
-1.0
 21
-0.166666667
 31
0.0
  0
LINE
  5
99
330
6D
100
AcDbEntity
  8
0
  6
CONTINUOUS
 62
     0
100
AcDbLine
 10
-1.0
 20
0.166666667
 30
0.0
 11
-1.0
 21
-0.166666667
 31
0.0
  0
ENDBLK
  5
6F
330
6D
100
AcDbEntity
  8
0
100
AcDbBlockEnd
  0
BLOCK
  5
71
330
70
100
AcDbEntity
  8
0
100
AcDbBlockBegin
  2
EX_BBOX
 70
     0
 10
0.0
 20
0.0
 30
0.0
  3
EX_BBOX
  1

  0
LINE
  5
9A
330
70
100
AcDbEntity
  8
0
  6
CONTINUOUS
 62
     0
100
AcDbLine
 10
0.0
 20
0.0
 30
0.0
 11
-1.0
 21
0.0
 31
0.0
  0
LINE
  5
9B
330
70
100
AcDbEntity
  8
0
  6
CONTINUOUS
 62
     0
100
AcDbLine
 10
-0.5
 20
0.5
 30
0.0
 11
0.5
 21
0.5
 31
0.0
  0
LINE
  5
9C
330
70
100
AcDbEntity
  8
0
  6
CONTINUOUS
 62
     0
100
AcDbLine
 10
0.5
 20
0.5
 30
0.0
 11
0.5
 21
-0.5
 31
0.0
  0
LINE
  5
9D
330
70
100
AcDbEntity
  8
0
  6
CONTINUOUS
 62
     0
100
AcDbLine
 10
0.5
 20
-0.5
 30
0.0
 11
-0.5
 21
-0.5
 31
0.0
  0
LINE
  5
9E
330
70
100
AcDbEntity
  8
0
  6
CONTINUOUS
 62
     0
100
AcDbLine
 10
-0.5
 20
-0.5
 30
0.0
 11
-0.5
 21
0.5
 31
0.0
  0
LINE
  5
9F
330
70
100
AcDbEntity
  8
0
  6
CONTINUOUS
 62
     0
100
AcDbLine
 10
-0.25
 20
0.25
 30
0.0
 11
0.25
 21
0.25
 31
0.0
  0
LINE
  5
A0
330
70
100
AcDbEntity
  8
0
  6
CONTINUOUS
 62
     0
100
AcDbLine
 10
0.25
 20
0.25
 30
0.0
 11
0.25
 21
-0.25
 31
0.0
  0
LINE
  5
A1
330
70
100
AcDbEntity
  8
0
  6
CONTINUOUS
 62
     0
100
AcDbLine
 10
0.25
 20
-0.25
 30
0.0
 11
-0.25
 21
-0.25
 31
0.0
  0
LINE
  5
A2
330
70
100
AcDbEntity
  8
0
  6
CONTINUOUS
 62
     0
100
AcDbLine
 10
-0.25
 20
-0.25
 30
0.0
 11
-0.25
 21
0.25
 31
0.0
  0
ENDBLK
  5
72
330
70
100
AcDbEntity
  8
0
100
AcDbBlockEnd
  0
BLOCK
  5
74
330
73
100
AcDbEntity
  8
0
100
AcDbBlockBegin
  2
EX_WBOX
 70
     0
 10
0.0
 20
0.0
 30
0.0
  3
EX_WBOX
  1

  0
LINE
  5
A3
330
73
100
AcDbEntity
  8
0
  6
CONTINUOUS
 62
     0
100
AcDbLine
 10
-0.5
 20
0.0
 30
0.0
 11
-1.0
 21
0.0
 31
0.0
  0
LINE
  5
A4
330
73
100
AcDbEntity
  8
0
  6
CONTINUOUS
 62
     0
100
AcDbLine
 10
-0.5
 20
0.5
 30
0.0
 11
0.5
 21
0.5
 31
0.0
  0
LINE
  5
A5
330
73
100
AcDbEntity
  8
0
  6
CONTINUOUS
 62
     0
100
AcDbLine
 10
0.5
 20
0.5
 30
0.0
 11
0.5
 21
-0.5
 31
0.0
  0
LINE
  5
A6
330
73
100
AcDbEntity
  8
0
  6
CONTINUOUS
 62
     0
100
AcDbLine
 10
0.5
 20
-0.5
 30
0.0
 11
-0.5
 21
-0.5
 31
0.0
  0
LINE
  5
A7
330
73
100
AcDbEntity
  8
0
  6
CONTINUOUS
 62
     0
100
AcDbLine
 10
-0.5
 20
-0.5
 30
0.0
 11
-0.5
 21
0.5
 31
0.0
  0
ENDBLK
  5
75
330
73
100
AcDbEntity
  8
0
100
AcDbBlockEnd
  0
BLOCK
  5
77
330
76
100
AcDbEntity
  8
0
100
AcDbBlockBegin
  2
EX_INTEGRAL
 70
     0
 10
0.0
 20
0.0
 30
0.0
  3
EX_INTEGRAL
  1

  0
LINE
  5
A8
330
76
100
AcDbEntity
  8
0
  6
CONTINUOUS
 62
     0
100
AcDbLine
 10
0.0
 20
0.0
 30
0.0
 11
-1.0
 21
0.0
 31
0.0
  0
ARC
  5
A9
330
76
100
AcDbEntity
  8
0
  6
CONTINUOUS
 62
     0
100
AcDbCircle
 10
0.542115
 20
0.164992
 30
0.0
 40
0.56667
100
AcDbArc
 50
73.07249033629006
 51
196.9275130221199
  0
ARC
  5
AA
330
76
100
AcDbEntity
  8
0
  6
CONTINUOUS
 62
     0
100
AcDbCircle
 10
-0.542115
 20
-0.164992
 30
0.0
 40
0.56667
100
AcDbArc
 50
253.0724869220464
 51
16.9275130559125
  0
ENDBLK
  5
78
330
76
100
AcDbEntity
  8
0
100
AcDbBlockEnd
  0
BLOCK
  5
455
330
454
100
AcDbEntity
  8
0
100
AcDbBlockBegin
  2
*D15
 70
     1
 10
0.0
 20
0.0
 30
0.0
  3
*D15
  1

  0
LINE
  5
457
330
454
100
AcDbEntity
  8
寸法
  6
CONTINUOUS
 62
     3
100
AcDbLine
 10
675.0000000000002
 20
2454.999999999999
 30
0.0
 11
408.5369873000002
 21
2454.999999999999
 31
0.0
  0
LINE
  5
458
330
454
100
AcDbEntity
  8
寸法
  6
CONTINUOUS
 62
     3
100
AcDbLine
 10
675.0000000000002
 20
2234.999999999999
 30
0.0
 11
408.5369873000002
 21
2234.999999999999
 31
0.0
  0
LINE
  5
459
330
454
100
AcDbEntity
  8
寸法
  6
CONTINUOUS
 62
     3
100
AcDbLine
 10
418.5369873000002
 20
2424.999999999999
 30
0.0
 11
418.5369873000002
 21
2264.999999999999
 31
0.0
  0
INSERT
  5
45A
330
454
100
AcDbEntity
  8
寸法
 62
     3
100
AcDbBlockReference
  2
EX_NORM
 10
418.5369873000002
 20
2454.999999999999
 30
0.0
 41
30.0
 42
30.0
 43
30.0
 50
90.0
  0
INSERT
  5
45B
330
454
100
AcDbEntity
  8
寸法
 62
     3
100
AcDbBlockReference
  2
EX_NORM
 10
418.5369873000002
 20
2234.999999999999
 30
0.0
 41
30.0
 42
30.0
 43
30.0
 50
270.0
  0
MTEXT
  5
45C
330
454
100
AcDbEntity
  8
寸法
 62
     2
100
AcDbMText
 10
395.5369871807914
 20
2344.999999999999
 30
0.0
 40
40.0
 41
0.0
 71
     5
 72
     1
  1
220
  7
EXCADDIM1
 11
0.0
 21
1.0
 31
0.0
  0
POINT
  5
45D
330
454
100
AcDbEntity
  8
DEFPOINTS
 62
     0
100
AcDbPoint
 10
680.0000000000002
 20
2454.999999999999
 30
0.0
  0
POINT
  5
45E
330
454
100
AcDbEntity
  8
DEFPOINTS
 62
     0
100
AcDbPoint
 10
680.0000000000002
 20
2234.999999999999
 30
0.0
  0
POINT
  5
45F
330
454
100
AcDbEntity
  8
DEFPOINTS
 62
     0
100
AcDbPoint
 10
418.5369873000002
 20
2234.999999999999
 30
0.0
  0
ENDBLK
  5
456
330
454
100
AcDbEntity
  8
0
100
AcDbBlockEnd
  0
BLOCK
  5
462
330
461
100
AcDbEntity
  8
0
100
AcDbBlockBegin
  2
*D16
 70
     1
 10
0.0
 20
0.0
 30
0.0
  3
*D16
  1

  0
LINE
  5
464
330
461
100
AcDbEntity
  8
寸法
  6
CONTINUOUS
 62
     3
100
AcDbLine
 10
530.0000000000002
 20
2307.514045386999
 30
0.0
 11
530.0000000000002
 21
2114.6442871
 31
0.0
  0
LINE
  5
465
330
461
100
AcDbEntity
  8
寸法
  6
CONTINUOUS
 62
     3
100
AcDbLine
 10
830.0000000000002
 20
2307.514045386999
 30
0.0
 11
830.0000000000002
 21
2114.6442871
 31
0.0
  0
LINE
  5
466
330
461
100
AcDbEntity
  8
寸法
  6
CONTINUOUS
 62
     3
100
AcDbLine
 10
560.0000000000002
 20
2124.6442871
 30
0.0
 11
800.0000000000002
 21
2124.6442871
 31
0.0
  0
INSERT
  5
467
330
461
100
AcDbEntity
  8
寸法
 62
     3
100
AcDbBlockReference
  2
EX_NORM
 10
530.0000000000002
 20
2124.6442871
 30
0.0
 41
30.0
 42
30.0
 43
30.0
 50
180.0
  0
INSERT
  5
468
330
461
100
AcDbEntity
  8
寸法
 62
     3
100
AcDbBlockReference
  2
EX_NORM
 10
830.0000000000002
 20
2124.6442871
 30
0.0
 41
30.0
 42
30.0
 43
30.0
  0
MTEXT
  5
469
330
461
100
AcDbEntity
  8
寸法
 62
     2
100
AcDbMText
 10
680.0000000000003
 20
2147.644287219209
 30
0.0
 40
40.0
 41
0.0
 71
     5
 72
     1
  1
300
  7
EXCADDIM1
  0
POINT
  5
46A
330
461
100
AcDbEntity
  8
DEFPOINTS
 62
     0
100
AcDbPoint
 10
530.0000000000002
 20
2312.514045386999
 30
0.0
  0
POINT
  5
46B
330
461
100
AcDbEntity
  8
DEFPOINTS
 62
     0
100
AcDbPoint
 10
830.0000000000002
 20
2312.514045386999
 30
0.0
  0
POINT
  5
46C
330
461
100
AcDbEntity
  8
DEFPOINTS
 62
     0
100
AcDbPoint
 10
830.0000000000002
 20
2124.6442871
 30
0.0
  0
ENDBLK
  5
463
330
461
100
AcDbEntity
  8
0
100
AcDbBlockEnd
  0
BLOCK
  5
46F
330
46E
100
AcDbEntity
  8
0
100
AcDbBlockBegin
  2
*D17
 70
     1
 10
0.0
 20
0.0
 30
0.0
  3
*D17
  1

  0
LINE
  5
471
330
46E
100
AcDbEntity
  8
寸法
  6
CONTINUOUS
 62
     3
100
AcDbLine
 10
829.7000000000003
 20
2449.999999999999
 30
0.0
 11
951.0000000000002
 21
2449.999999999999
 31
0.0
  0
LINE
  5
472
330
46E
100
AcDbEntity
  8
寸法
  6
CONTINUOUS
 62
     3
100
AcDbLine
 10
941.0000000000002
 20
2484.999999999999
 30
0.0
 11
941.0000000000002
 21
2479.999999999999
 31
0.0
  0
INSERT
  5
473
330
46E
100
AcDbEntity
  8
寸法
 62
     3
100
AcDbBlockReference
  2
EX_NORM
 10
941.0000000000002
 20
2514.999999999999
 30
0.0
 41
30.0
 42
30.0
 43
30.0
 50
90.0
  0
INSERT
  5
474
330
46E
100
AcDbEntity
  8
寸法
 62
     3
100
AcDbBlockReference
  2
EX_NORM
 10
941.0000000000002
 20
2449.999999999999
 30
0.0
 41
30.0
 42
30.0
 43
30.0
 50
270.0
  0
MTEXT
  5
475
330
46E
100
AcDbEntity
  8
寸法
 62
     2
100
AcDbMText
 10
917.999999880791
 20
2482.499999999999
 30
0.0
 40
40.0
 41
0.0
 71
     5
 72
     1
  1
65
  7
EXCADDIM1
 11
0.0
 21
1.0
 31
0.0
  0
POINT
  5
476
330
46E
100
AcDbEntity
  8
DEFPOINTS
 62
     0
100
AcDbPoint
 10
865.0000000000002
 20
2514.999999999999
 30
0.0
  0
POINT
  5
477
330
46E
100
AcDbEntity
  8
DEFPOINTS
 62
     0
100
AcDbPoint
 10
829.7000000000003
 20
2449.999999999999
 30
0.0
  0
POINT
  5
478
330
46E
100
AcDbEntity
  8
DEFPOINTS
 62
     0
100
AcDbPoint
 10
941.0000000000002
 20
2449.999999999999
 30
0.0
  0
ENDBLK
  5
470
330
46E
100
AcDbEntity
  8
0
100
AcDbBlockEnd
  0
BLOCK
  5
47B
330
47A
100
AcDbEntity
  8
0
100
AcDbBlockBegin
  2
*D18
 70
     1
 10
0.0
 20
0.0
 30
0.0
  3
*D18
  1

  0
LINE
  5
47D
330
47A
100
AcDbEntity
  8
寸法
  6
CONTINUOUS
 62
     3
100
AcDbLine
 10
685.0000000000002
 20
2194.999999999999
 30
0.0
 11
1011.0
 21
2194.999999999999
 31
0.0
  0
LINE
  5
47E
330
47A
100
AcDbEntity
  8
寸法
  6
CONTINUOUS
 62
     3
100
AcDbLine
 10
1001.0
 20
2484.999999999999
 30
0.0
 11
1001.0
 21
2224.999999999999
 31
0.0
  0
INSERT
  5
47F
330
47A
100
AcDbEntity
  8
寸法
 62
     3
100
AcDbBlockReference
  2
EX_NORM
 10
1001.0
 20
2514.999999999999
 30
0.0
 41
30.0
 42
30.0
 43
30.0
 50
90.0
  0
INSERT
  5
480
330
47A
100
AcDbEntity
  8
寸法
 62
     3
100
AcDbBlockReference
  2
EX_NORM
 10
1001.0
 20
2194.999999999999
 30
0.0
 41
30.0
 42
30.0
 43
30.0
 50
270.0
  0
MTEXT
  5
481
330
47A
100
AcDbEntity
  8
寸法
 62
     2
100
AcDbMText
 10
977.999999880791
 20
2354.999999999999
 30
0.0
 40
40.0
 41
0.0
 71
     5
 72
     1
  1
320
  7
EXCADDIM1
 11
0.0
 21
1.0
 31
0.0
  0
POINT
  5
482
330
47A
100
AcDbEntity
  8
DEFPOINTS
 62
     0
100
AcDbPoint
 10
941.0000000000002
 20
2514.999999999999
 30
0.0
  0
POINT
  5
483
330
47A
100
AcDbEntity
  8
DEFPOINTS
 62
     0
100
AcDbPoint
 10
680.0000000000002
 20
2194.999999999999
 30
0.0
  0
POINT
  5
484
330
47A
100
AcDbEntity
  8
DEFPOINTS
 62
     0
100
AcDbPoint
 10
1001.0
 20
2194.999999999999
 30
0.0
  0
ENDBLK
  5
47C
330
47A
100
AcDbEntity
  8
0
100
AcDbBlockEnd
  0
BLOCK
  5
487
330
486
100
AcDbEntity
  8
0
100
AcDbBlockBegin
  2
*D19
 70
     1
 10
0.0
 20
0.0
 30
0.0
  3
*D19
  1

  0
LINE
  5
489
330
486
100
AcDbEntity
  8
寸法
  6
CONTINUOUS
 62
     3
100
AcDbLine
 10
480.0000000000003
 20
2268.463807584
 30
0.0
 11
480.0000000000003
 21
2060.6442871
 31
0.0
  0
LINE
  5
48A
330
486
100
AcDbEntity
  8
寸法
  6
CONTINUOUS
 62
     3
100
AcDbLine
 10
880.0
 20
2268.463807584
 30
0.0
 11
880.0
 21
2060.6442871
 31
0.0
  0
LINE
  5
48B
330
486
100
AcDbEntity
  8
寸法
  6
CONTINUOUS
 62
     3
100
AcDbLine
 10
510.0000000000003
 20
2070.6442871
 30
0.0
 11
850.0
 21
2070.6442871
 31
0.0
  0
INSERT
  5
48C
330
486
100
AcDbEntity
  8
寸法
 62
     3
100
AcDbBlockReference
  2
EX_NORM
 10
480.0000000000003
 20
2070.6442871
 30
0.0
 41
30.0
 42
30.0
 43
30.0
 50
180.0
  0
INSERT
  5
48D
330
486
100
AcDbEntity
  8
寸法
 62
     3
100
AcDbBlockReference
  2
EX_NORM
 10
880.0
 20
2070.6442871
 30
0.0
 41
30.0
 42
30.0
 43
30.0
  0
MTEXT
  5
48E
330
486
100
AcDbEntity
  8
寸法
 62
     2
100
AcDbMText
 10
680.0000000000002
 20
2093.644287219209
 30
0.0
 40
40.0
 41
0.0
 71
     5
 72
     1
  1
400
  7
EXCADDIM1
  0
POINT
  5
48F
330
486
100
AcDbEntity
  8
DEFPOINTS
 62
     0
100
AcDbPoint
 10
480.0000000000003
 20
2273.463807584
 30
0.0
  0
POINT
  5
490
330
486
100
AcDbEntity
  8
DEFPOINTS
 62
     0
100
AcDbPoint
 10
880.0
 20
2273.463807584
 30
0.0
  0
POINT
  5
491
330
486
100
AcDbEntity
  8
DEFPOINTS
 62
     0
100
AcDbPoint
 10
880.0
 20
2070.6442871
 30
0.0
  0
ENDBLK
  5
488
330
486
100
AcDbEntity
  8
0
100
AcDbBlockEnd
  0
BLOCK
  5
494
330
493
100
AcDbEntity
  8
0
100
AcDbBlockBegin
  2
*D20
 70
     1
 10
0.0
 20
0.0
 30
0.0
  3
*D20
  1

  0
LINE
  5
496
330
493
100
AcDbEntity
  8
寸法
  6
CONTINUOUS
 62
     3
100
AcDbLine
 10
865.0008178793502
 20
1390.0
 30
0.0
 11
1011.000000000009
 21
1390.0
 31
0.0
  0
LINE
  5
497
330
493
100
AcDbEntity
  8
寸法
  6
CONTINUOUS
 62
     3
100
AcDbLine
 10
1001.000000000009
 20
1345.0
 30
0.0
 11
1001.000000000009
 21
1390.0
 31
0.0
  0
LINE
  5
498
330
493
100
AcDbEntity
  8
寸法
  6
CONTINUOUS
 62
     3
100
AcDbLine
 10
1001.000000000009
 20
1315.0
 30
0.0
 11
1001.000000000009
 21
1285.0
 31
0.0
  0
LINE
  5
499
330
493
100
AcDbEntity
  8
寸法
  6
CONTINUOUS
 62
     3
100
AcDbLine
 10
1001.000000000009
 20
1420.0
 30
0.0
 11
1001.000000000009
 21
1450.0
 31
0.0
  0
INSERT
  5
49A
330
493
100
AcDbEntity
  8
寸法
 62
     3
100
AcDbBlockReference
  2
EX_NORM
 10
1001.000000000009
 20
1345.0
 30
0.0
 41
30.0
 42
30.0
 43
30.0
 50
90.0
  0
INSERT
  5
49B
330
493
100
AcDbEntity
  8
寸法
 62
     3
100
AcDbBlockReference
  2
EX_NORM
 10
1001.000000000009
 20
1390.0
 30
0.0
 41
30.0
 42
30.0
 43
30.0
 50
270.0
  0
MTEXT
  5
49C
330
493
100
AcDbEntity
  8
寸法
 62
     2
100
AcDbMText
 10
977.9999998807996
 20
1454.999999999999
 30
0.0
 40
40.0
 41
0.0
 71
     5
 72
     1
  1
45
  7
EXCADDIM1
 11
0.0
 21
1.0
 31
0.0
  0
POINT
  5
49D
330
493
100
AcDbEntity
  8
DEFPOINTS
 62
     0
100
AcDbPoint
 10
680.0
 20
1345.0
 30
0.0
  0
POINT
  5
49E
330
493
100
AcDbEntity
  8
DEFPOINTS
 62
     0
100
AcDbPoint
 10
860.0008178793502
 20
1390.0
 30
0.0
  0
POINT
  5
49F
330
493
100
AcDbEntity
  8
DEFPOINTS
 62
     0
100
AcDbPoint
 10
1001.000000000009
 20
1390.0
 30
0.0
  0
ENDBLK
  5
495
330
493
100
AcDbEntity
  8
0
100
AcDbBlockEnd
  0
BLOCK
  5
4A2
330
4A1
100
AcDbEntity
  8
0
100
AcDbBlockBegin
  2
*D21
 70
     1
 10
0.0
 20
0.0
 30
0.0
  3
*D21
  1

  0
LINE
  5
4A4
330
4A1
100
AcDbEntity
  8
寸法
  6
CONTINUOUS
 62
     3
100
AcDbLine
 10
1635.0
 20
1092.030029240395
 30
0.0
 11
1635.0
 21
921.2300288708468
 31
0.0
  0
LINE
  5
4A5
330
4A1
100
AcDbEntity
  8
寸法
  6
CONTINUOUS
 62
     3
100
AcDbLine
 10
1670.0
 20
932.0300293000003
 30
0.0
 11
1685.0
 21
932.0300293000003
 31
0.0
  0
INSERT
  5
4A6
330
4A1
100
AcDbEntity
  8
寸法
 62
     3
100
AcDbBlockReference
  2
EX_NORM
 10
1635.0
 20
932.0300293000003
 30
0.0
 41
35.0
 42
35.0
 43
35.0
 50
180.0
  0
INSERT
  5
4A7
330
4A1
100
AcDbEntity
  8
寸法
 62
     3
100
AcDbBlockReference
  2
EX_NORM
 10
1720.0
 20
932.0300293000003
 30
0.0
 41
35.0
 42
35.0
 43
35.0
  0
MTEXT
  5
4A8
330
4A1
100
AcDbEntity
  8
寸法
 62
     2
100
AcDbMText
 10
1677.5
 20
955.5300292403956
 30
0.0
 40
40.0
 41
0.0
 71
     5
 72
     1
  1
85
  7
EXCADDIM1
  0
POINT
  5
4A9
330
4A1
100
AcDbEntity
  8
DEFPOINTS
 62
     0
100
AcDbPoint
 10
1635.0
 20
1093.5300293
 30
0.0
  0
POINT
  5
4AA
330
4A1
100
AcDbEntity
  8
DEFPOINTS
 62
     0
100
AcDbPoint
 10
1720.0
 20
1079.5300293
 30
0.0
  0
POINT
  5
4AB
330
4A1
100
AcDbEntity
  8
DEFPOINTS
 62
     0
100
AcDbPoint
 10
1720.0
 20
932.0300293000003
 30
0.0
  0
ENDBLK
  5
4A3
330
4A1
100
AcDbEntity
  8
0
100
AcDbBlockEnd
  0
BLOCK
  5
4AE
330
4AD
100
AcDbEntity
  8
0
100
AcDbBlockBegin
  2
*D22
 70
     1
 10
0.0
 20
0.0
 30
0.0
  3
*D22
  1

  0
LINE
  5
4B0
330
4AD
100
AcDbEntity
  8
寸法
  6
CONTINUOUS
 62
     3
100
AcDbLine
 10
605.0000162664301
 20
2537.900255246711
 30
0.0
 11
605.0000162664301
 21
2610.0
 31
0.0
  0
LINE
  5
4B1
330
4AD
100
AcDbEntity
  8
寸法
  6
CONTINUOUS
 62
     3
100
AcDbLine
 10
755.0000162664301
 20
2537.900255246711
 30
0.0
 11
755.0000162664301
 21
2610.0
 31
0.0
  0
LINE
  5
4B2
330
4AD
100
AcDbEntity
  8
寸法
  6
CONTINUOUS
 62
     3
100
AcDbLine
 10
640.0000162664301
 20
2590.0
 30
0.0
 11
720.0000162664301
 21
2590.0
 31
0.0
  0
INSERT
  5
4B3
330
4AD
100
AcDbEntity
  8
寸法
 62
     3
100
AcDbBlockReference
  2
EX_NORM
 10
605.0000162664301
 20
2590.0
 30
0.0
 41
35.0
 42
35.0
 43
35.0
 50
180.0
  0
INSERT
  5
4B4
330
4AD
100
AcDbEntity
  8
寸法
 62
     3
100
AcDbBlockReference
  2
EX_NORM
 10
755.0000162664301
 20
2590.0
 30
0.0
 41
35.0
 42
35.0
 43
35.0
  0
MTEXT
  5
4B5
330
4AD
100
AcDbEntity
  8
寸法
 62
     2
100
AcDbMText
 10
680.0000162664302
 20
2613.499999940395
 30
0.0
 40
40.0
 41
0.0
 71
     5
 72
     1
  1
150
  7
EXCADDIM1
  0
POINT
  5
4B6
330
4AD
100
AcDbEntity
  8
DEFPOINTS
 62
     0
100
AcDbPoint
 10
605.0000162664301
 20
2537.9002552467
 30
0.0
  0
POINT
  5
4B7
330
4AD
100
AcDbEntity
  8
DEFPOINTS
 62
     0
100
AcDbPoint
 10
755.0000162664301
 20
2537.9002552467
 30
0.0
  0
POINT
  5
4B8
330
4AD
100
AcDbEntity
  8
DEFPOINTS
 62
     0
100
AcDbPoint
 10
755.0000162664301
 20
2590.0
 30
0.0
  0
ENDBLK
  5
4AF
330
4AD
100
AcDbEntity
  8
0
100
AcDbBlockEnd
  0
BLOCK
  5
4BD
330
4BC
100
AcDbEntity
  8
0
100
AcDbBlockBegin
  2
*D23
 70
     1
 10
0.0
 20
0.0
 30
0.0
  3
*D23
  1

  0
LINE
  5
4BF
330
4BC
100
AcDbEntity
  8
寸法
  6
CONTINUOUS
 62
     3
100
AcDbLine
 10
492.9991822398594
 20
1390.0
 30
0.0
 11
410.0000000000001
 21
1390.0
 31
0.0
  0
LINE
  5
4C0
330
4BC
100
AcDbEntity
  8
寸法
  6
CONTINUOUS
 62
     3
100
AcDbLine
 10
640.6078603326595
 20
1180.0
 30
0.0
 11
410.0000000000001
 21
1180.0
 31
0.0
  0
LINE
  5
4C1
330
4BC
100
AcDbEntity
  8
寸法
  6
CONTINUOUS
 62
     3
100
AcDbLine
 10
420.0000000000001
 20
1360.0
 30
0.0
 11
420.0000000000001
 21
1210.0
 31
0.0
  0
INSERT
  5
4C2
330
4BC
100
AcDbEntity
  8
寸法
 62
     3
100
AcDbBlockReference
  2
EX_NORM
 10
420.0000000000001
 20
1390.0
 30
0.0
 41
30.0
 42
30.0
 43
30.0
 50
90.0
  0
INSERT
  5
4C3
330
4BC
100
AcDbEntity
  8
寸法
 62
     3
100
AcDbBlockReference
  2
EX_NORM
 10
420.0000000000001
 20
1180.0
 30
0.0
 41
30.0
 42
30.0
 43
30.0
 50
270.0
  0
MTEXT
  5
4C4
330
4BC
100
AcDbEntity
  8
寸法
 62
     2
100
AcDbMText
 10
396.500000059605
 20
1285.0
 30
0.0
 40
40.0
 41
0.0
 71
     5
 72
     1
  1
210
  7
EXCADDIM1
 11
0.0
 21
1.0
 31
0.0
  0
POINT
  5
4C5
330
4BC
100
AcDbEntity
  8
DEFPOINTS
 62
     0
100
AcDbPoint
 10
499.9991821206501
 20
1390.0
 30
0.0
  0
POINT
  5
4C6
330
4BC
100
AcDbEntity
  8
DEFPOINTS
 62
     0
100
AcDbPoint
 10
647.6078602134502
 20
1180.0
 30
0.0
  0
POINT
  5
4C7
330
4BC
100
AcDbEntity
  8
DEFPOINTS
 62
     0
100
AcDbPoint
 10
420.0000000000001
 20
1180.0
 30
0.0
  0
ENDBLK
  5
4BE
330
4BC
100
AcDbEntity
  8
0
100
AcDbBlockEnd
  0
BLOCK
  5
4CA
330
4C9
100
AcDbEntity
  8
0
100
AcDbBlockBegin
  2
*D24
 70
     1
 10
0.0
 20
0.0
 30
0.0
  3
*D24
  1

  0
LINE
  5
4CC
330
4C9
100
AcDbEntity
  8
寸法
  6
CONTINUOUS
 62
     3
100
AcDbLine
 10
686.9999998807907
 20
1345.0
 30
0.0
 11
1011.0
 21
1345.0
 31
0.0
  0
LINE
  5
4CD
330
4C9
100
AcDbEntity
  8
寸法
  6
CONTINUOUS
 62
     3
100
AcDbLine
 10
1001.0
 20
1315.0
 30
0.0
 11
1001.0
 21
615.0
 31
0.0
  0
INSERT
  5
4CE
330
4C9
100
AcDbEntity
  8
寸法
 62
     3
100
AcDbBlockReference
  2
EX_NORM
 10
1001.0
 20
1345.0
 30
0.0
 41
30.0
 42
30.0
 43
30.0
 50
90.0
  0
INSERT
  5
4CF
330
4C9
100
AcDbEntity
  8
寸法
 62
     3
100
AcDbBlockReference
  2
EX_NORM
 10
1001.0
 20
585.0
 30
0.0
 41
30.0
 42
30.0
 43
30.0
 50
270.0
  0
MTEXT
  5
4D0
330
4C9
100
AcDbEntity
  8
寸法
 62
     2
100
AcDbMText
 10
977.5000000596051
 20
964.9999999999998
 30
0.0
 40
40.0
 41
0.0
 71
     5
 72
     1
  1
760
  7
EXCADDIM1
 11
0.0
 21
1.0
 31
0.0
  0
POINT
  5
4D1
330
4C9
100
AcDbEntity
  8
DEFPOINTS
 62
     0
100
AcDbPoint
 10
680.0
 20
1345.0
 30
0.0
  0
POINT
  5
4D2
330
4C9
100
AcDbEntity
  8
DEFPOINTS
 62
     0
100
AcDbPoint
 10
1007.2314453
 20
585.0
 30
0.0
  0
POINT
  5
4D3
330
4C9
100
AcDbEntity
  8
DEFPOINTS
 62
     0
100
AcDbPoint
 10
1001.0
 20
585.0
 30
0.0
  0
ENDBLK
  5
4CB
330
4C9
100
AcDbEntity
  8
0
100
AcDbBlockEnd
  0
BLOCK
  5
4D6
330
4D5
100
AcDbEntity
  8
0
100
AcDbBlockBegin
  2
*D25
 70
     1
 10
0.0
 20
0.0
 30
0.0
  3
*D25
  1

  0
LINE
  5
4D8
330
4D5
100
AcDbEntity
  8
寸法
  6
CONTINUOUS
 62
     3
100
AcDbLine
 10
1726.999999880791
 20
585.0
 30
0.0
 11
1810.0
 21
585.0000000000001
 31
0.0
  0
LINE
  5
4D9
330
4D5
100
AcDbEntity
  8
寸法
  6
CONTINUOUS
 62
     3
100
AcDbLine
 10
1756.999999880791
 20
1065.0
 30
0.0
 11
1810.0
 21
1065.0
 31
0.0
  0
LINE
  5
4DA
330
4D5
100
AcDbEntity
  8
寸法
  6
CONTINUOUS
 62
     3
100
AcDbLine
 10
1800.0
 20
615.0000000000001
 30
0.0
 11
1800.0
 21
1035.0
 31
0.0
  0
INSERT
  5
4DB
330
4D5
100
AcDbEntity
  8
寸法
 62
     3
100
AcDbBlockReference
  2
EX_NORM
 10
1800.0
 20
585.0000000000001
 30
0.0
 41
30.0
 42
30.0
 43
30.0
 50
270.0
  0
INSERT
  5
4DC
330
4D5
100
AcDbEntity
  8
寸法
 62
     3
100
AcDbBlockReference
  2
EX_NORM
 10
1800.0
 20
1065.0
 30
0.0
 41
30.0
 42
30.0
 43
30.0
 50
90.0
  0
MTEXT
  5
4DD
330
4D5
100
AcDbEntity
  8
寸法
 62
     2
100
AcDbMText
 10
1776.500000059605
 20
824.9999999999997
 30
0.0
 40
40.0
 41
0.0
 71
     5
 72
     1
  1
480
  7
EXCADDIM1
 11
0.0
 21
1.0
 31
0.0
  0
POINT
  5
4DE
330
4D5
100
AcDbEntity
  8
DEFPOINTS
 62
     0
100
AcDbPoint
 10
1720.0
 20
585.0
 30
0.0
  0
POINT
  5
4DF
330
4D5
100
AcDbEntity
  8
DEFPOINTS
 62
     0
100
AcDbPoint
 10
1750.0
 20
1065.0
 30
0.0
  0
POINT
  5
4E0
330
4D5
100
AcDbEntity
  8
DEFPOINTS
 62
     0
100
AcDbPoint
 10
1800.0
 20
1065.0
 30
0.0
  0
ENDBLK
  5
4D7
330
4D5
100
AcDbEntity
  8
0
100
AcDbBlockEnd
  0
BLOCK
  5
4E3
330
4E2
100
AcDbEntity
  8
0
100
AcDbBlockBegin
  2
*D26
 70
     1
 10
0.0
 20
0.0
 30
0.0
  3
*D26
  1

  0
LINE
  5
4E5
330
4E2
100
AcDbEntity
  8
寸法
  6
CONTINUOUS
 62
     3
100
AcDbLine
 10
842.5369871307907
 20
1110.0
 30
0.0
 11
947.9999998807904
 21
1110.0
 31
0.0
  0
LINE
  5
4E6
330
4E2
100
AcDbEntity
  8
寸法
  6
CONTINUOUS
 62
     3
100
AcDbLine
 10
937.9999998807904
 20
1080.0
 30
0.0
 11
937.9999998807904
 21
614.9999999999999
 31
0.0
  0
INSERT
  5
4E7
330
4E2
100
AcDbEntity
  8
寸法
 62
     3
100
AcDbBlockReference
  2
EX_NORM
 10
937.9999998807904
 20
1110.0
 30
0.0
 41
30.0
 42
30.0
 43
30.0
 50
90.0
  0
INSERT
  5
4E8
330
4E2
100
AcDbEntity
  8
寸法
 62
     3
100
AcDbBlockReference
  2
EX_NORM
 10
937.9999998807904
 20
584.9999999999999
 30
0.0
 41
30.0
 42
30.0
 43
30.0
 50
270.0
  0
MTEXT
  5
4E9
330
4E2
100
AcDbEntity
  8
寸法
 62
     2
100
AcDbMText
 10
914.499999940395
 20
847.5
 30
0.0
 40
40.0
 41
0.0
 71
     5
 72
     1
  1
525
  7
EXCADDIM1
 11
0.0
 21
1.0
 31
0.0
  0
POINT
  5
4EA
330
4E2
100
AcDbEntity
  8
DEFPOINTS
 62
     0
100
AcDbPoint
 10
835.53698725
 20
1110.0
 30
0.0
  0
POINT
  5
4EB
330
4E2
100
AcDbEntity
  8
DEFPOINTS
 62
     0
100
AcDbPoint
 10
883.5369873000002
 20
585.0
 30
0.0
  0
POINT
  5
4EC
330
4E2
100
AcDbEntity
  8
DEFPOINTS
 62
     0
100
AcDbPoint
 10
937.9999998807904
 20
584.9999999999999
 30
0.0
  0
ENDBLK
  5
4E4
330
4E2
100
AcDbEntity
  8
0
100
AcDbBlockEnd
  0
BLOCK
  5
4F0
330
4EF
100
AcDbEntity
  8
0
100
AcDbBlockBegin
  2
*D27
 70
     1
 10
0.0
 20
0.0
 30
0.0
  3
*D27
  1

  0
LINE
  5
4F2
330
4EF
100
AcDbEntity
  8
寸法
  6
CONTINUOUS
 62
     3
100
AcDbLine
 10
1575.0
 20
1007.000000119209
 30
0.0
 11
1575.0
 21
857.0300293000003
 31
0.0
  0
LINE
  5
4F3
330
4EF
100
AcDbEntity
  8
寸法
  6
CONTINUOUS
 62
     3
100
AcDbLine
 10
1605.0
 20
867.0300293000003
 30
0.0
 11
1690.0
 21
867.0300293000003
 31
0.0
  0
INSERT
  5
4F4
330
4EF
100
AcDbEntity
  8
寸法
 62
     3
100
AcDbBlockReference
  2
EX_NORM
 10
1575.0
 20
867.0300293000003
 30
0.0
 41
30.0
 42
30.0
 43
30.0
 50
180.0
  0
INSERT
  5
4F5
330
4EF
100
AcDbEntity
  8
寸法
 62
     3
100
AcDbBlockReference
  2
EX_NORM
 10
1720.0
 20
867.0300293000003
 30
0.0
 41
30.0
 42
30.0
 43
30.0
  0
MTEXT
  5
4F6
330
4EF
100
AcDbEntity
  8
寸法
 62
     2
100
AcDbMText
 10
1647.5
 20
890.5300292403956
 30
0.0
 40
40.0
 41
0.0
 71
     5
 72
     1
  1
145
  7
EXCADDIM1
  0
POINT
  5
4F7
330
4EF
100
AcDbEntity
  8
DEFPOINTS
 62
     0
100
AcDbPoint
 10
1575.0
 20
1014.0
 30
0.0
  0
POINT
  5
4F8
330
4EF
100
AcDbEntity
  8
DEFPOINTS
 62
     0
100
AcDbPoint
 10
1720.0
 20
1007.0300293
 30
0.0
  0
POINT
  5
4F9
330
4EF
100
AcDbEntity
  8
DEFPOINTS
 62
     0
100
AcDbPoint
 10
1720.0
 20
867.0300293000003
 30
0.0
  0
ENDBLK
  5
4F1
330
4EF
100
AcDbEntity
  8
0
100
AcDbBlockEnd
  0
BLOCK
  5
4FC
330
4FB
100
AcDbEntity
  8
0
100
AcDbBlockBegin
  2
*D28
 70
     1
 10
0.0
 20
0.0
 30
0.0
  3
*D28
  1

  0
LINE
  5
4FE
330
4FB
100
AcDbEntity
  8
寸法
  6
CONTINUOUS
 62
     3
100
AcDbLine
 10
1726.999999880791
 20
1389.9999836335
 30
0.0
 11
1810.0
 21
1389.9999836335
 31
0.0
  0
LINE
  5
4FF
330
4FB
100
AcDbEntity
  8
寸法
  6
CONTINUOUS
 62
     3
100
AcDbLine
 10
1749.900288236191
 20
1364.9999837336
 30
0.0
 11
1810.0
 21
1364.9999837336
 31
0.0
  0
LINE
  5
500
330
4FB
100
AcDbEntity
  8
寸法
  6
CONTINUOUS
 62
     3
100
AcDbLine
 10
1800.0
 20
1389.9999836335
 30
0.0
 11
1800.0
 21
1364.9999837336
 31
0.0
  0
LINE
  5
501
330
4FB
100
AcDbEntity
  8
寸法
  6
CONTINUOUS
 62
     3
100
AcDbLine
 10
1800.0
 20
1419.9999836335
 30
0.0
 11
1800.0
 21
1449.9999836335
 31
0.0
  0
LINE
  5
502
330
4FB
100
AcDbEntity
  8
寸法
  6
CONTINUOUS
 62
     3
100
AcDbLine
 10
1800.0
 20
1334.9999837336
 30
0.0
 11
1800.0
 21
1304.9999837336
 31
0.0
  0
INSERT
  5
503
330
4FB
100
AcDbEntity
  8
寸法
 62
     3
100
AcDbBlockReference
  2
EX_NORM
 10
1800.0
 20
1389.9999836335
 30
0.0
 41
30.0
 42
30.0
 43
30.0
 50
270.0
  0
INSERT
  5
504
330
4FB
100
AcDbEntity
  8
寸法
 62
     3
100
AcDbBlockReference
  2
EX_NORM
 10
1800.0
 20
1364.9999837336
 30
0.0
 41
30.0
 42
30.0
 43
30.0
 50
90.0
  0
MTEXT
  5
505
330
4FB
100
AcDbEntity
  8
寸法
 62
     2
100
AcDbMText
 10
1776.500000059606
 20
1454.9999836335
 30
0.0
 40
40.0
 41
0.0
 71
     5
 72
     1
  1
25
  7
EXCADDIM1
 11
0.0
 21
1.0
 31
0.0
  0
POINT
  5
506
330
4FB
100
AcDbEntity
  8
DEFPOINTS
 62
     0
100
AcDbPoint
 10
1720.0
 20
1389.9999836335
 30
0.0
  0
POINT
  5
507
330
4FB
100
AcDbEntity
  8
DEFPOINTS
 62
     0
100
AcDbPoint
 10
1742.9002883554
 20
1364.9999837336
 30
0.0
  0
POINT
  5
508
330
4FB
100
AcDbEntity
  8
DEFPOINTS
 62
     0
100
AcDbPoint
 10
1800.0
 20
1364.9999837336
 30
0.0
  0
ENDBLK
  5
4FD
330
4FB
100
AcDbEntity
  8
0
100
AcDbBlockEnd
  0
BLOCK
  5
523
330
522
100
AcDbEntity
  8
0
100
AcDbBlockBegin
  2
*D29
 70
     1
 10
0.0
 20
0.0
 30
0.0
  3
*D29
  1

  0
LINE
  5
525
330
522
100
AcDbEntity
  8
寸法
  6
CONTINUOUS
 62
     3
100
AcDbLine
 10
1655.0
 20
545.830028632428
 30
0.0
 11
1655.0
 21
495.0
 31
0.0
  0
LINE
  5
526
330
522
100
AcDbEntity
  8
寸法
  6
CONTINUOUS
 62
     3
100
AcDbLine
 10
1720.0
 20
560.699999332428
 30
0.0
 11
1720.0
 21
495.0
 31
0.0
  0
LINE
  5
527
330
522
100
AcDbEntity
  8
寸法
  6
CONTINUOUS
 62
     3
100
AcDbLine
 10
1685.0
 20
505.0
 30
0.0
 11
1690.0
 21
505.0
 31
0.0
  0
INSERT
  5
528
330
522
100
AcDbEntity
  8
寸法
 62
     3
100
AcDbBlockReference
  2
EX_NORM
 10
1655.0
 20
505.0
 30
0.0
 41
30.0
 42
30.0
 43
30.0
 50
180.0
  0
INSERT
  5
529
330
522
100
AcDbEntity
  8
寸法
 62
     3
100
AcDbBlockReference
  2
EX_NORM
 10
1720.0
 20
505.0
 30
0.0
 41
30.0
 42
30.0
 43
30.0
  0
MTEXT
  5
52A
330
522
100
AcDbEntity
  8
寸法
 62
     2
100
AcDbMText
 10
1875.0
 20
528.4999999403954
 30
0.0
 40
40.0
 41
0.0
 71
     5
 72
     1
  1
65（床給排水）
  7
EXCADDIM1
  0
POINT
  5
52B
330
522
100
AcDbEntity
  8
DEFPOINTS
 62
     0
100
AcDbPoint
 10
1655.0
 20
570.1300293
 30
0.0
  0
POINT
  5
52C
330
522
100
AcDbEntity
  8
DEFPOINTS
 62
     0
100
AcDbPoint
 10
1720.0
 20
585.0
 30
0.0
  0
POINT
  5
52D
330
522
100
AcDbEntity
  8
DEFPOINTS
 62
     0
100
AcDbPoint
 10
1720.0
 20
505.0
 30
0.0
  0
ENDBLK
  5
524
330
522
100
AcDbEntity
  8
0
100
AcDbBlockEnd
  0
BLOCK
  5
530
330
52F
100
AcDbEntity
  8
0
100
AcDbBlockBegin
  2
*D30
 70
     1
 10
0.0
 20
0.0
 30
0.0
  3
*D30
  1

  0
LINE
  5
532
330
52F
100
AcDbEntity
  8
寸法
  6
CONTINUOUS
 62
     3
100
AcDbLine
 10
680.0
 20
510.0300293000001
 30
0.0
 11
680.0
 21
505.0
 31
0.0
  0
LINE
  5
533
330
52F
100
AcDbEntity
  8
寸法
  6
CONTINUOUS
 62
     3
100
AcDbLine
 10
795.0000000000002
 20
559.0300293
 30
0.0
 11
795.0000000000002
 21
505.0
 31
0.0
  0
LINE
  5
534
330
52F
100
AcDbEntity
  8
寸法
  6
CONTINUOUS
 62
     3
100
AcDbLine
 10
710.0
 20
505.0
 30
0.0
 11
765.0000000000002
 21
505.0
 31
0.0
  0
INSERT
  5
535
330
52F
100
AcDbEntity
  8
寸法
 62
     3
100
AcDbBlockReference
  2
EX_NORM
 10
680.0
 20
505.0
 30
0.0
 41
30.0
 42
30.0
 43
30.0
 50
180.0
  0
INSERT
  5
536
330
52F
100
AcDbEntity
  8
寸法
 62
     3
100
AcDbBlockReference
  2
EX_NORM
 10
795.0000000000002
 20
505.0
 30
0.0
 41
30.0
 42
30.0
 43
30.0
  0
MTEXT
  5
537
330
52F
100
AcDbEntity
  8
寸法
 62
     2
100
AcDbMText
 10
875.0000000000002
 20
528.4999999403954
 30
0.0
 40
40.0
 41
0.0
 71
     5
 72
     1
  1
115
  7
EXCADDIM1
  0
POINT
  5
538
330
52F
100
AcDbEntity
  8
DEFPOINTS
 62
     0
100
AcDbPoint
 10
680.0
 20
510.0300293000001
 30
0.0
  0
POINT
  5
539
330
52F
100
AcDbEntity
  8
DEFPOINTS
 62
     0
100
AcDbPoint
 10
795.0000000000002
 20
559.0300293
 30
0.0
  0
POINT
  5
53A
330
52F
100
AcDbEntity
  8
DEFPOINTS
 62
     0
100
AcDbPoint
 10
795.0000000000002
 20
505.0
 30
0.0
  0
ENDBLK
  5
531
330
52F
100
AcDbEntity
  8
0
100
AcDbBlockEnd
  0
BLOCK
  5
546
330
545
100
AcDbEntity
  8
0
100
AcDbBlockBegin
  2
*D31
 70
     1
 10
0.0
 20
0.0
 30
0.0
  3
*D31
  1

  0
LINE
  5
548
330
545
100
AcDbEntity
  8
寸法
  6
CONTINUOUS
 62
     3
100
AcDbLine
 10
565.0000000000001
 20
2487.6442871
 30
0.0
 11
565.0000000000001
 21
2654.6442871
 31
0.0
  0
LINE
  5
549
330
545
100
AcDbEntity
  8
寸法
  6
CONTINUOUS
 62
     3
100
AcDbLine
 10
795.0000000000002
 20
2487.6442871
 30
0.0
 11
795.0000000000002
 21
2654.6442871
 31
0.0
  0
LINE
  5
54A
330
545
100
AcDbEntity
  8
寸法
  6
CONTINUOUS
 62
     3
100
AcDbLine
 10
595.0000000000001
 20
2644.6442871
 30
0.0
 11
765.0000000000002
 21
2644.6442871
 31
0.0
  0
INSERT
  5
54B
330
545
100
AcDbEntity
  8
寸法
 62
     3
100
AcDbBlockReference
  2
EX_NORM
 10
565.0000000000001
 20
2644.6442871
 30
0.0
 41
30.0
 42
30.0
 43
30.0
 50
180.0
  0
INSERT
  5
54C
330
545
100
AcDbEntity
  8
寸法
 62
     3
100
AcDbBlockReference
  2
EX_NORM
 10
795.0000000000002
 20
2644.6442871
 30
0.0
 41
30.0
 42
30.0
 43
30.0
  0
MTEXT
  5
54D
330
545
100
AcDbEntity
  8
寸法
 62
     2
100
AcDbMText
 10
680.0000000000003
 20
2668.144287040395
 30
0.0
 40
40.0
 41
0.0
 71
     5
 72
     1
  1
230
  7
EXCADDIM1
  0
POINT
  5
54E
330
545
100
AcDbEntity
  8
DEFPOINTS
 62
     0
100
AcDbPoint
 10
565.0000000000001
 20
2482.6442871
 30
0.0
  0
POINT
  5
54F
330
545
100
AcDbEntity
  8
DEFPOINTS
 62
     0
100
AcDbPoint
 10
795.0000000000002
 20
2482.6442871
 30
0.0
  0
POINT
  5
550
330
545
100
AcDbEntity
  8
DEFPOINTS
 62
     0
100
AcDbPoint
 10
795.0000000000002
 20
2644.6442871
 30
0.0
  0
ENDBLK
  5
547
330
545
100
AcDbEntity
  8
0
100
AcDbBlockEnd
  0
ENDSEC
  0
SECTION
  2
ENTITIES
  0
HATCH
  5
AB
330
1F
100
AcDbEntity
  8
0
  6
CONTINUOUS
 62
     3
100
AcDbHatch
 10
0.0
 20
0.0
 30
0.0
210
0.0
220
0.0
230
1.0
  2
SOLID
 70
     1
 71
     1
 91
        2
 92
        3
 72
     1
 73
     1
 93
       27
 10
799.1727657332502
 20
175.3644932975409
 42
-0.1769427732109284
 10
799.1727657332503
 20
175.364493297541
 42
0.0
 10
799.1727657332503
 20
171.7194932975408
 42
0.0
 10
800.0502657332509
 20
171.7194932975404
 42
-0.207533601427307
 10
805.7474227895701
 20
175.9932359129048
 42
-0.1226604740888933
 10
810.7827657332508
 20
176.1002432975407
 42
-0.3213715781137954
 10
815.9883280222091
 20
169.7106514378475
 42
-0.064704004662446
 10
816.0140157332493
 20
166.3329932975406
 42
-0.257798906330806
 10
814.9542657332504
 20
165.0504932975406
 42
-0.056602577721096
 10
812.6862657332501
 20
164.2607432975409
 42
-0.0166741689362636
 10
804.3702657332504
 20
162.6812432975407
 42
0.1186092302783404
 10
798.8825157332506
 20
160.0487432975407
 42
0.1699204224386695
 10
796.4930157332501
 20
156.0527432975406
 42
0.1006533494296199
 10
796.2720866795815
 20
152.5853555095727
 42
0.1675695228968024
 10
798.4370157332505
 20
147.9392432975407
 42
0.1376980079804242
 10
802.3722657332501
 20
145.6644932975409
 42
0.0719813663796923
 10
804.1610157332493
 20
145.3674932975408
 42
0.0
 10
806.9015157332503
 20
145.3674932975409
 42
0.1944607457809085
 10
815.9937657332505
 20
150.0452432975407
 42
0.1288538183665954
 10
816.9117657332495
 20
147.7502432975404
 42
0.2098387395261546
 10
819.9087657332498
 20
146.0964932975409
 42
0.0
 10
822.0822657332503
 20
146.0829932975409
 42
0.0945009641609563
 10
825.2210157332504
 20
146.7512432975408
 42
0.0
 10
825.2210157332502
 20
148.3239932975407
 42
-0.2395739894657535
 10
822.480515733251
 20
148.2969932975405
 42
-0.2502312110031057
 10
821.1305157332497
 20
150.8349932975414
 42
-0.0104343570771765
 10
821.31276573325
 20
169.7619932975406
 42
0.4051015674140716
 97
        0
 92
        3
 72
     1
 73
     1
 93
        8
 10
816.1355157332498
 20
163.0254932975405
 42
-0.0339435190873666
 10
816.1355157332546
 20
163.0254932975295
 42
-0.0001110072973599
 10
815.852015733251
 20
152.6844932975405
 42
-0.2253076310552528
 10
808.7645157332499
 20
147.952743297541
 42
0.0
 10
807.0297657332493
 20
147.952743297541
 42
-0.3657967558150132
 10
801.8727657332502
 20
153.4337432975408
 42
0.0
 10
801.872765733251
 20
155.3912432975409
 42
-0.2530797830369341
 10
805.3557657332502
 20
160.2107432975406
 42
-0.0724473624720066
 97
        0
 75
     0
 76
     1
 98
        1
 10
0.0
 20
0.0
  0
HATCH
  5
AC
330
1F
100
AcDbEntity
  8
0
  6
CONTINUOUS
 62
     3
100
AcDbHatch
 10
0.0
 20
0.0
 30
0.0
210
0.0
220
0.0
230
1.0
  2
SOLID
 70
     1
 71
     1
 91
        1
 92
        3
 72
     1
 73
     1
 93
       30
 10
906.73401573325
 20
177.3354932975412
 42
-0.0009362235736497
 10
906.7340157332501
 20
177.3354932975407
 42
0.0681165430304653
 10
905.0970934867316
 20
172.4282432975408
 42
0.0
 10
898.9310157332508
 20
176.6469932975409
 42
-0.302112590907374
 10
898.9310157332502
 20
176.6469932975408
 42
0.0
 10
892.7142657332503
 20
171.8814932975407
 42
-0.3704245237568778
 10
892.7142657332492
 20
171.8814932975405
 42
0.0
 10
893.0382657332495
 20
168.6954932975407
 42
-0.0262822419456939
 10
896.8722657332506
 20
165.6309932975405
 42
-0.180060563604375
 10
902.9877657332506
 20
163.7679932975409
 42
-0.0298130817160724
 10
902.9877657332503
 20
163.7679932975406
 42
-0.3153987453686078
 10
908.62401573325
 20
157.3217432975408
 42
0.0
 10
908.5902657332505
 20
154.4394932975405
 42
-0.3510306079065168
 10
897.7227657332494
 20
145.3269932975408
 42
0.0
 10
894.5502657332498
 20
145.3269932975405
 42
-0.1053356344842436
 10
887.5302657332498
 20
147.3519932975408
 42
0.1188608286962634
 10
888.8127657332498
 20
152.481993297541
 42
0.0
 10
896.5077657332506
 20
147.7569932975408
 42
-0.2447573632916039
 10
896.5077657332497
 20
147.7569932975407
 42
0.0
 10
903.9327657332507
 20
152.9544932975409
 42
-0.3734162676407277
 10
903.9327657332503
 20
152.9544932975406
 42
0.0
 10
901.2395157332502
 20
158.1452432975409
 42
-0.261219770190848
 10
894.9552657332499
 20
160.4267432975409
 42
-0.0572747914118363
 10
894.9552657332509
 20
160.4267432975408
 42
-0.1189658875692221
 10
889.9602657332497
 20
163.3562432975408
 42
-0.2005226878639636
 10
887.8677657332494
 20
168.0744932975627
 42
0.0
 10
887.8340157332506
 20
169.8632432975404
 42
-0.2622894489606957
 10
893.2002657332504
 20
178.0644932975409
 42
-0.0988461274137808
 10
898.2222657332502
 20
179.2727432975405
 42
0.0
 10
900.0852657332496
 20
179.2727432975408
 42
-0.0920156312561188
 97
        0
 75
     0
 76
     1
 98
        1
 10
0.0
 20
0.0
  0
ARC
  5
AD
330
1F
100
AcDbEntity
  8
0
  6
CONTINUOUS
 62
     3
100
AcDbCircle
 10
923.8424810688709
 20
168.9019437507496
 30
0.0
 40
19.07418003737831
100
AcDbArc
 50
153.7591918158497
 51
169.3462759801917
  0
LINE
  5
AE
330
1F
100
AcDbEntity
  8
0
  6
CONTINUOUS
 62
     3
100
AcDbLine
 10
904.2432657332497
 20
172.4282432975408
 30
0.0
 11
905.0970934867316
 21
172.4282432975408
 31
0.0
  0
LINE
  5
AF
330
1F
100
AcDbEntity
  8
0
  6
CONTINUOUS
 62
     3
100
AcDbLine
 10
897.8375157332496
 20
176.6199932975407
 30
0.0
 11
898.9310157332502
 21
176.6469932975408
 31
0.0
  0
LINE
  5
B0
330
1F
100
AcDbEntity
  8
0
  6
CONTINUOUS
 62
     3
100
AcDbLine
 10
887.8340157332505
 20
169.8632432975406
 30
0.0
 11
887.8677657332494
 21
168.0744932975627
 31
0.0
  0
LINE
  5
B1
330
1F
100
AcDbEntity
  8
0
  6
CONTINUOUS
 62
     3
100
AcDbLine
 10
892.7142657332492
 20
171.8814932975405
 30
0.0
 11
892.6197657332502
 21
170.1129932975404
 31
0.0
  0
LINE
  5
B2
330
1F
100
AcDbEntity
  8
0
  6
CONTINUOUS
 62
     3
100
AcDbLine
 10
908.62401573325
 20
157.3217432975408
 30
0.0
 11
908.5902657332499
 21
154.4394932975407
 31
0.0
  0
LINE
  5
B3
330
1F
100
AcDbEntity
  8
0
  6
CONTINUOUS
 62
     3
100
AcDbLine
 10
903.8652657332502
 20
154.5069932975408
 30
0.0
 11
903.9327657332503
 21
152.9544932975406
 31
0.0
  0
ARC
  5
B4
330
1F
100
AcDbEntity
  8
0
  6
CONTINUOUS
 62
     3
100
AcDbCircle
 10
877.5344131320937
 20
152.5779759565003
 30
0.0
 40
11.27953740078838
100
AcDbArc
 50
332.3987521421788
 51
359.5124385477116
  0
LINE
  5
B5
330
1F
100
AcDbEntity
  8
0
  6
CONTINUOUS
 62
     3
100
AcDbLine
 10
799.1727657332503
 20
171.7194932975408
 30
0.0
 11
800.0502657332506
 21
171.7194932975408
 31
0.0
  0
HATCH
  5
B6
330
1F
100
AcDbEntity
  8
0
  6
CONTINUOUS
 62
     3
100
AcDbHatch
 10
0.0
 20
0.0
 30
0.0
210
0.0
220
0.0
230
1.0
  2
SOLID
 70
     1
 71
     1
 91
        2
 92
        1
 93
        1
 72
     2
 10
875.2855140383351
 20
190.583546687371
 40
3.572334466769884
 50
0.0
 51
360.0
 73
     1
 97
        0
 92
        3
 72
     1
 73
     1
 93
        3
 10
872.0930157332501
 20
178.6989932975406
 42
0.1200283885712921
 10
878.3030157332503
 20
146.0627432975403
 42
-0.0401820615762149
 10
872.0997657332501
 20
146.0424932975407
 42
-0.0237521668114666
 97
        0
 75
     0
 76
     1
 98
        1
 10
0.0
 20
0.0
  0
HATCH
  5
B7
330
1F
100
AcDbEntity
  8
0
  6
CONTINUOUS
 62
     3
100
AcDbHatch
 10
0.0
 20
0.0
 30
0.0
210
0.0
220
0.0
230
1.0
  2
SOLID
 70
     1
 71
     1
 91
        1
 92
        3
 72
     1
 73
     1
 93
       16
 10
832.8687657332499
 20
146.1032432975406
 42
-0.0386228372648426
 10
832.8080157332497
 20
178.6449932975406
 42
-0.0398707891902887
 10
838.7142657332495
 20
178.6719932975408
 42
-0.1256886216044368
 10
838.4442657332501
 20
173.1504932975407
 42
-0.0367815758121429
 10
838.4442657332501
 20
173.1504932975405
 42
-0.268021535028829
 10
850.3580157332498
 20
179.3334932975407
 42
-0.2571134422124888
 10
858.5052657332499
 20
175.303743297541
 42
-0.1522526366014298
 10
860.5775157332505
 20
168.6009932975406
 42
-0.0158825412051521
 10
860.4290157332496
 20
146.0694932975406
 42
-0.0285251271418421
 10
854.7252657332504
 20
146.0694932975406
 42
-0.0452212723224612
 10
855.0155157332505
 20
166.8864932975409
 42
-0.0315567291532142
 10
853.2470157332497
 20
173.0357432975408
 42
-0.1476272403790709
 10
841.7315157332498
 20
173.9199932975405
 42
-0.3908144705745794
 10
838.4847657332502
 20
165.8402432975404
 42
-0.2046259928850854
 10
838.4847657332502
 20
165.8402432975409
 42
0.0
 10
838.9910157332502
 20
146.0492432975408
 42
-0.0304995761723369
 97
        0
 75
     0
 76
     1
 98
        1
 10
0.0
 20
0.0
  0
HATCH
  5
B8
330
1F
100
AcDbEntity
  8
0
  6
CONTINUOUS
 62
     3
100
AcDbHatch
 10
0.0
 20
0.0
 30
0.0
210
0.0
220
0.0
230
1.0
  2
SOLID
 70
     1
 71
     1
 91
        1
 92
        3
 72
     1
 73
     1
 93
       10
 10
773.7252657332506
 20
147.2169932975405
 42
-0.017362223501556
 10
773.8130157332498
 20
200.184243297541
 42
-0.0267627618865285
 10
773.8130157332504
 20
200.1842432975407
 42
0.0737939047395297
 10
786.7325157332507
 20
200.23824329754
 42
0.0183878899657109
 10
786.2127657332503
 20
152.4819932975405
 42
-0.1144749489451909
 10
784.1202657332494
 20
142.4244932975405
 42
-0.1929163439413163
 10
774.1640157332505
 20
134.6079932975405
 42
-0.0603888289562337
 10
768.8855157332503
 20
133.2917432975406
 42
0.0
 10
767.6502657332501
 20
137.0514932975406
 42
0.0860918333465722
 10
771.34251573325
 20
139.0157432975406
 42
0.1331843103855141
 97
        0
 75
     0
 76
     1
 98
        1
 10
0.0
 20
0.0
  0
LINE
  5
B9
330
1F
100
AcDbEntity
  8
0
  6
CONTINUOUS
 62
     3
100
AcDbLine
 10
894.55026573325
 20
145.3269932975408
 30
0.0
 11
897.7227657332494
 21
145.3269932975408
 31
0.0
  0
LINE
  5
BA
330
1F
100
AcDbEntity
  8
0
  6
CONTINUOUS
 62
     3
100
AcDbLine
 10
889.69026573325
 20
152.481993297541
 30
0.0
 11
888.8127657332498
 21
152.481993297541
 31
0.0
  0
LINE
  5
BB
330
1F
100
AcDbEntity
  8
0
  6
CONTINUOUS
 62
     3
100
AcDbLine
 10
896.5077657332497
 20
147.7569932975407
 30
0.0
 11
898.12776573325
 21
147.7569932975407
 31
0.0
  0
LINE
  5
BC
330
1F
100
AcDbEntity
  8
0
  6
CONTINUOUS
 62
     3
100
AcDbLine
 10
900.0852657332498
 20
179.2727432975405
 30
0.0
 11
898.2222657332502
 21
179.2727432975405
 31
0.0
  0
ARC
  5
BD
330
1F
100
AcDbEntity
  8
0
  6
CONTINUOUS
 62
     3
100
AcDbCircle
 10
898.4147339127505
 20
170.5429236291669
 30
0.0
 40
6.12586430102253
100
AcDbArc
 50
17.92452211681263
 51
85.16543319077402
  0
ARC
  5
BE
330
1F
100
AcDbEntity
  8
0
  6
CONTINUOUS
 62
     3
100
AcDbCircle
 10
898.0350964860534
 20
171.2674994707921
 30
0.0
 40
5.35613931103931
100
AcDbArc
 50
92.11404364449162
 51
173.4175047026091
  0
ARC
  5
BF
330
1F
100
AcDbEntity
  8
0
  6
CONTINUOUS
 62
     3
100
AcDbCircle
 10
906.3031407332621
 20
173.3823182975444
 30
0.0
 40
14.068519372934
100
AcDbArc
 50
193.4375782160214
 51
199.459638038058
  0
ARC
  5
C0
330
1F
100
AcDbEntity
  8
0
  6
CONTINUOUS
 62
     3
100
AcDbCircle
 10
899.072135238745
 20
172.3138641766612
 30
0.0
 40
7.03563707337184
100
AcDbArc
 50
210.9501336849607
 51
251.7794729821079
  0
ARC
  5
C1
330
1F
100
AcDbEntity
  8
0
  6
CONTINUOUS
 62
     3
100
AcDbCircle
 10
915.538466969206
 20
215.9359310503512
 30
0.0
 40
53.65644258516679
100
AcDbArc
 50
249.6420733479936
 51
256.4727051201885
  0
ARC
  5
C2
330
1F
100
AcDbEntity
  8
0
  6
CONTINUOUS
 62
     3
100
AcDbCircle
 10
901.2045721291954
 20
156.5217258531575
 30
0.0
 40
7.462450757296059
100
AcDbArc
 50
6.154262763177246
 51
76.17509904255616
  0
ARC
  5
C3
330
1F
100
AcDbEntity
  8
0
  6
CONTINUOUS
 62
     3
100
AcDbCircle
 10
897.4663886467558
 20
156.6692467118045
 30
0.0
 40
11.34515058180645
100
AcDbArc
 50
271.2948770866743
 51
348.6654156292868
  0
ARC
  5
C4
330
1F
100
AcDbEntity
  8
0
  6
CONTINUOUS
 62
     3
100
AcDbCircle
 10
895.7930054592773
 20
162.8156576811025
 30
0.0
 40
17.5327631578002
100
AcDbArc
 50
241.8829576087176
 51
265.9354096935781
  0
ARC
  5
C5
330
1F
100
AcDbEntity
  8
0
  6
CONTINUOUS
 62
     3
100
AcDbCircle
 10
897.6361043234865
 20
156.6658639777384
 30
0.0
 40
8.98004035462527
100
AcDbArc
 50
207.7689879465537
 51
262.7817283832026
  0
ARC
  5
C6
330
1F
100
AcDbEntity
  8
0
  6
CONTINUOUS
 62
     3
100
AcDbCircle
 10
898.0357777446513
 20
153.7002363757167
 30
0.0
 40
5.943954918766759
100
AcDbArc
 50
270.8867385422408
 51
352.7925382056677
  0
ARC
  5
C7
330
1F
100
AcDbEntity
  8
0
  6
CONTINUOUS
 62
     3
100
AcDbCircle
 10
899.3080045853665
 20
153.9846225433168
 30
0.0
 40
4.58710152219014
100
AcDbArc
 50
6.53892419415897
 51
65.09756080693691
  0
ARC
  5
C8
330
1F
100
AcDbEntity
  8
0
  6
CONTINUOUS
 62
     3
100
AcDbCircle
 10
888.1714891830429
 20
131.9457141755211
 30
0.0
 40
29.27778413972754
100
AcDbArc
 50
63.49050203733571
 51
76.60259219849584
  0
ARC
  5
C9
330
1F
100
AcDbEntity
  8
0
  6
CONTINUOUS
 62
     3
100
AcDbCircle
 10
898.5268145799503
 20
172.2396411006686
 30
0.0
 40
12.34100950779567
100
AcDbArc
 50
226.0402388947521
 51
253.1776672992999
  0
ARC
  5
CA
330
1F
100
AcDbEntity
  8
0
  6
CONTINUOUS
 62
     3
100
AcDbCircle
 10
894.5599257925996
 20
168.2192769075529
 30
0.0
 40
6.693726059056109
100
AcDbArc
 50
181.2393899443581
 51
226.5942921332421
  0
ARC
  5
CB
330
1F
100
AcDbEntity
  8
0
  6
CONTINUOUS
 62
     3
100
AcDbCircle
 10
897.7963496799614
 20
169.2009291101865
 30
0.0
 40
9.9843256030919
100
AcDbArc
 50
117.4083995939977
 51
176.1964688215695
  0
ARC
  5
CC
330
1F
100
AcDbEntity
  8
0
  6
CONTINUOUS
 62
     3
100
AcDbCircle
 10
898.7711044283903
 20
166.0979097937612
 30
0.0
 40
13.19974865367525
100
AcDbArc
 50
92.38301574576484
 51
114.9635286746436
  0
ARC
  5
CD
330
1F
100
AcDbEntity
  8
0
  6
CONTINUOUS
 62
     3
100
AcDbCircle
 10
899.8542828460565
 20
169.1663038363955
 30
0.0
 40
10.10907867592157
100
AcDbArc
 50
67.66151957087348
 51
88.69073168448988
  0
ARC
  5
CE
330
1F
100
AcDbEntity
  8
0
  6
CONTINUOUS
 62
     3
100
AcDbCircle
 10
1220.644453232815
 20
989.0297432964203
 30
0.0
 40
870.2800228963156
100
AcDbArc
 50
248.6422112053103
 51
248.8567777804232
  0
ARC
  5
CF
330
1F
100
AcDbEntity
  8
0
  6
CONTINUOUS
 62
     3
100
AcDbCircle
 10
650.6900575363866
 20
162.3249792766236
 30
0.0
 40
222.0076085035812
100
AcDbArc
 50
355.7940354718673
 51
4.229650257234378
  0
ARC
  5
D0
330
1F
100
AcDbEntity
  8
0
  6
CONTINUOUS
 62
     3
100
AcDbCircle
 10
1081.254047179557
 20
162.1881005739387
 30
0.0
 40
203.5906390589
100
AcDbArc
 50
175.3387608397566
 51
184.5428594926176
  0
ARC
  5
D1
330
1F
100
AcDbEntity
  8
0
  6
CONTINUOUS
 62
     3
100
AcDbCircle
 10
875.4144089371337
 20
80.79804184123327
 30
0.0
 40
65.32859485251088
100
AcDbArc
 50
87.46575055044718
 51
92.90832285102188
  0
ARC
  5
D2
330
1F
100
AcDbEntity
  8
0
  6
CONTINUOUS
 62
     3
100
AcDbCircle
 10
875.145607602773
 20
191.5332474358077
 30
0.0
 40
13.19228548840207
100
AcDbArc
 50
256.6209501743446
 51
283.9984576255729
  0
CIRCLE
  5
D3
330
1F
100
AcDbEntity
  8
0
  6
CONTINUOUS
 62
     3
100
AcDbCircle
 10
875.2855140383351
 20
190.583546687371
 30
0.0
 40
3.57233446676989
  0
LINE
  5
D4
330
1F
100
AcDbEntity
  8
0
  6
CONTINUOUS
 62
     3
100
AcDbLine
 10
838.4847657332502
 20
165.8402432975409
 30
0.0
 11
838.4847657332502
 21
155.0469932975406
 31
0.0
  0
ARC
  5
D5
330
1F
100
AcDbEntity
  8
0
  6
CONTINUOUS
 62
     3
100
AcDbCircle
 10
629.1176988671591
 20
161.9938058671746
 30
0.0
 40
204.3697806131072
100
AcDbArc
 50
355.5405243117485
 51
4.673398698656258
  0
ARC
  5
D6
330
1F
100
AcDbEntity
  8
0
  6
CONTINUOUS
 62
     3
100
AcDbCircle
 10
835.7082849861231
 20
190.2206879814488
 30
0.0
 40
11.93349358546016
100
AcDbArc
 50
255.9341994177206
 51
284.5896440601899
  0
ARC
  5
D7
330
1F
100
AcDbEntity
  8
0
  6
CONTINUOUS
 62
     3
100
AcDbCircle
 10
876.0574727396161
 20
174.0785681383053
 30
0.0
 40
37.6246550045818
100
AcDbArc
 50
172.9875214416311
 51
181.4134392789641
  0
ARC
  5
D8
330
1F
100
AcDbEntity
  8
0
  6
CONTINUOUS
 62
     3
100
AcDbCircle
 10
849.7541069002548
 20
165.92759888186
 30
0.0
 40
13.4194899665726
100
AcDbArc
 50
87.42068310381028
 51
147.4361518966862
  0
ARC
  5
D9
330
1F
100
AcDbEntity
  8
0
  6
CONTINUOUS
 62
     3
100
AcDbCircle
 10
850.7724057413761
 20
169.9204664797994
 30
0.0
 40
9.4221437555554
100
AcDbArc
 50
34.84393737091607
 51
92.5207065423111
  0
ARC
  5
DA
330
1F
100
AcDbEntity
  8
0
  6
CONTINUOUS
 62
     3
100
AcDbCircle
 10
848.7905515344826
 20
168.6285942451527
 30
0.0
 40
11.7869965146059
100
AcDbArc
 50
359.8658335690532
 51
34.49363429411157
  0
ARC
  5
DB
330
1F
100
AcDbEntity
  8
0
  6
CONTINUOUS
 62
     3
100
AcDbCircle
 10
799.191360121006
 20
166.3315774812141
 30
0.0
 40
61.42809087866958
100
AcDbArc
 50
358.4775281223095
 51
2.117232414210064
  0
ARC
  5
DC
330
1F
100
AcDbEntity
  8
0
  6
CONTINUOUS
 62
     3
100
AcDbCircle
 10
1023.657633661698
 20
153.9067374739133
 30
0.0
 40
163.4166579853822
100
AcDbArc
 50
176.2131780319488
 51
182.7488833337936
  0
ARC
  5
DD
330
1F
100
AcDbEntity
  8
0
  6
CONTINUOUS
 62
     3
100
AcDbCircle
 10
857.5771407332504
 20
114.6015261922778
 30
0.0
 40
31.59693252126744
100
AcDbArc
 50
84.82155189294139
 51
95.17844810705873
  0
ARC
  5
DE
330
1F
100
AcDbEntity
  8
0
  6
CONTINUOUS
 62
     3
100
AcDbCircle
 10
690.1173378649744
 20
158.7751337882465
 30
0.0
 40
165.0975566668588
100
AcDbArc
 50
355.5862454873798
 51
2.816115806820253
  0
ARC
  5
DF
330
1F
100
AcDbEntity
  8
0
  6
CONTINUOUS
 62
     3
100
AcDbCircle
 10
843.9447404568525
 20
167.0315138821555
 30
0.0
 40
11.07172507744154
100
AcDbArc
 50
359.2495022237244
 51
32.84055016678327
  0
ARC
  5
E0
330
1F
100
AcDbEntity
  8
0
  6
CONTINUOUS
 62
     3
100
AcDbCircle
 10
847.0100145205529
 20
167.2366273138689
 30
0.0
 40
8.51645057047003
100
AcDbArc
 50
42.91644474042847
 51
128.3015542351336
  0
ARC
  5
E1
330
1F
100
AcDbEntity
  8
0
  6
CONTINUOUS
 62
     3
100
AcDbCircle
 10
849.5661722366403
 20
166.0795225138056
 30
0.0
 40
11.08398956318131
100
AcDbArc
 50
134.9787476233347
 51
181.2369872983282
  0
ARC
  5
E2
330
1F
100
AcDbEntity
  8
0
  6
CONTINUOUS
 62
     3
100
AcDbCircle
 10
912.4088578951037
 20
154.9150147009814
 30
0.0
 40
73.95120993114925
100
AcDbArc
 50
179.8977458165987
 51
186.8855675734268
  0
ARC
  5
E3
330
1F
100
AcDbEntity
  8
0
  6
CONTINUOUS
 62
     3
100
AcDbCircle
 10
835.5808780069312
 20
106.5069254511709
 30
0.0
 40
39.68909094418497
100
AcDbArc
 50
85.07099551674689
 51
93.91830029343228
  0
ARC
  5
E4
330
1F
100
AcDbEntity
  8
0
  6
CONTINUOUS
 62
     3
100
AcDbCircle
 10
-22473.01542217735
 20
796.3265245587831
 30
0.0
 40
23297.76001260591
100
AcDbArc
 50
358.4169008257799
 51
358.4423418242109
  0
ARC
  5
E5
330
1F
100
AcDbEntity
  8
0
  6
CONTINUOUS
 62
     3
100
AcDbCircle
 10
807.3244690765923
 20
157.7836489530207
 30
0.0
 40
9.935816039979159
100
AcDbArc
 50
278.3335103000368
 51
329.1221464187299
  0
LINE
  5
E6
330
1F
100
AcDbEntity
  8
0
  6
CONTINUOUS
 62
     3
100
AcDbLine
 10
807.0297657332494
 20
147.952743297541
 30
0.0
 11
808.7645157332499
 21
147.952743297541
 31
0.0
  0
ARC
  5
E7
330
1F
100
AcDbEntity
  8
0
  6
CONTINUOUS
 62
     3
100
AcDbCircle
 10
807.6959653488736
 20
153.7461380097786
 30
0.0
 40
5.83157304846997
100
AcDbArc
 50
183.0707787095794
 51
263.4402016072427
  0
LINE
  5
E8
330
1F
100
AcDbEntity
  8
0
  6
CONTINUOUS
 62
     3
100
AcDbLine
 10
801.8727657332502
 20
155.3912432975405
 30
0.0
 11
801.8727657332502
 21
153.4337432975408
 31
0.0
  0
ARC
  5
E9
330
1F
100
AcDbEntity
  8
0
  6
CONTINUOUS
 62
     3
100
AcDbCircle
 10
808.0701866837844
 20
154.5807479047184
 30
0.0
 40
6.25019433457053
100
AcDbArc
 50
115.7403688633493
 51
172.5491744442191
  0
ARC
  5
EA
330
1F
100
AcDbEntity
  8
0
  6
CONTINUOUS
 62
     3
100
AcDbCircle
 10
813.5660651757703
 20
142.8318862667978
 30
0.0
 40
19.22065786155208
100
AcDbArc
 50
98.71271710191789
 51
115.2874718053599
  0
ARC
  5
EB
330
1F
100
AcDbEntity
  8
0
  6
CONTINUOUS
 62
     3
100
AcDbCircle
 10
804.6056099353725
 20
202.7501381160507
 30
0.0
 40
41.36406814694017
100
AcDbArc
 50
278.4088456599976
 51
286.1851416003176
  0
ARC
  5
EC
330
1F
100
AcDbEntity
  8
0
  6
CONTINUOUS
 62
     3
100
AcDbCircle
 10
780.0908200122276
 20
243.7417570522225
 30
0.0
 40
44.00758833490465
100
AcDbArc
 50
261.7986203004403
 51
278.6803384946418
  0
ARC
  5
ED
330
1F
100
AcDbEntity
  8
0
  6
CONTINUOUS
 62
     3
100
AcDbCircle
 10
1435.542531413435
 20
169.2960360950845
 30
0.0
 40
649.5474244683604
100
AcDbArc
 50
177.2695926307304
 51
181.4833117237826
  0
ARC
  5
EE
330
1F
100
AcDbEntity
  8
0
  6
CONTINUOUS
 62
     3
100
AcDbCircle
 10
763.4899361790613
 20
151.9631356880094
 30
0.0
 40
22.72875263114311
100
AcDbArc
 50
335.1860595856123
 51
1.308075913059364
  0
ARC
  5
EF
330
1F
100
AcDbEntity
  8
0
  6
CONTINUOUS
 62
     3
100
AcDbCircle
 10
769.3897327885477
 20
150.938351862683
 30
0.0
 40
17.01394688196115
100
AcDbArc
 50
286.2966123578915
 51
329.973223283839
  0
ARC
  5
F0
330
1F
100
AcDbEntity
  8
0
  6
CONTINUOUS
 62
     3
100
AcDbCircle
 10
766.0955749866653
 20
155.7223152915386
 30
0.0
 40
22.60341410821362
100
AcDbArc
 50
277.0901027239701
 51
290.9134154817058
  0
LINE
  5
F1
330
1F
100
AcDbEntity
  8
0
  6
CONTINUOUS
 62
     3
100
AcDbLine
 10
768.8855157332503
 20
133.2917432975406
 30
0.0
 11
767.6502657332505
 21
137.0514932975404
 31
0.0
  0
ARC
  5
F2
330
1F
100
AcDbEntity
  8
0
  6
CONTINUOUS
 62
     3
100
AcDbCircle
 10
763.8347289685444
 20
148.675985944599
 30
0.0
 40
12.23467000390025
100
AcDbArc
 50
288.1715191042997
 51
307.8537826235693
  0
ARC
  5
F3
330
1F
100
AcDbEntity
  8
0
  6
CONTINUOUS
 62
     3
100
AcDbCircle
 10
766.0927386496021
 20
144.3407518472915
 30
0.0
 40
7.47769185530633
100
AcDbArc
 50
314.592391474832
 51
344.9374073189123
  0
ARC
  5
F4
330
1F
100
AcDbEntity
  8
0
  6
CONTINUOUS
 62
     3
100
AcDbCircle
 10
279.3385521229311
 20
174.5197335838841
 30
0.0
 40
495.1400430399008
100
AcDbArc
 50
356.8390243485978
 51
2.971133813187157
  0
ARC
  5
F5
330
1F
100
AcDbEntity
  8
0
  6
CONTINUOUS
 62
     3
100
AcDbCircle
 10
704.1439565227076
 20
150.7342761922788
 30
0.0
 40
69.67015049800598
100
AcDbArc
 50
353.1274757312911
 51
357.106204490141
  0
LINE
  5
F6
330
1F
100
AcDbEntity
  8
0
  6
CONTINUOUS
 62
     3
100
AcDbLine
 10
799.1727657332503
 20
175.364493297541
 30
0.0
 11
799.1727657332503
 21
171.7194932975408
 31
0.0
  0
ARC
  5
F7
330
1F
100
AcDbEntity
  8
0
  6
CONTINUOUS
 62
     3
100
AcDbCircle
 10
807.8253617702992
 20
167.2890191857882
 30
0.0
 40
8.94881105176719
100
AcDbArc
 50
103.4267945469744
 51
150.3242613737993
  0
ARC
  5
F8
330
1F
100
AcDbEntity
  8
0
  6
CONTINUOUS
 62
     3
100
AcDbCircle
 10
808.4799095798305
 20
165.9383830513021
 30
0.0
 40
10.4195273466423
100
AcDbArc
 50
77.23143261361693
 51
105.203415964315
  0
ARC
  5
F9
330
1F
100
AcDbEntity
  8
0
  6
CONTINUOUS
 62
     3
100
AcDbCircle
 10
808.9283412817692
 20
169.2741886153421
 30
0.0
 40
7.07346538626002
100
AcDbArc
 50
3.537639967999379
 51
74.8013566619203
  0
ARC
  5
FA
330
1F
100
AcDbEntity
  8
0
  6
CONTINUOUS
 62
     3
100
AcDbCircle
 10
803.0053873566569
 20
167.9229870375123
 30
0.0
 40
13.10543751018921
100
AcDbArc
 50
353.0315250986587
 51
7.839947970678348
  0
ARC
  5
FB
330
1F
100
AcDbEntity
  8
0
  6
CONTINUOUS
 62
     3
100
AcDbCircle
 10
814.3230955673337
 20
166.6511332504287
 30
0.0
 40
1.72058828228131
100
AcDbArc
 50
291.5204897073511
 51
349.3445900274031
  0
ARC
  5
FC
330
1F
100
AcDbEntity
  8
0
  6
CONTINUOUS
 62
     3
100
AcDbCircle
 10
810.3433050110893
 20
174.6407362688747
 30
0.0
 40
10.64113335272784
100
AcDbArc
 50
282.7195832898965
 51
295.6781112778079
  0
ARC
  5
FD
330
1F
100
AcDbEntity
  8
0
  6
CONTINUOUS
 62
     3
100
AcDbCircle
 10
784.8530099985785
 20
288.1202029775212
 30
0.0
 40
126.9482409370382
100
AcDbArc
 50
278.8438342053764
 51
282.6649181367123
  0
ARC
  5
FE
330
1F
100
AcDbEntity
  8
0
  6
CONTINUOUS
 62
     3
100
AcDbCircle
 10
807.0970138675787
 20
149.9608481482871
 30
0.0
 40
13.0093661698492
100
AcDbArc
 50
102.0988446293839
 51
129.1556705448828
  0
ARC
  5
FF
330
1F
100
AcDbEntity
  8
0
  6
CONTINUOUS
 62
     3
100
AcDbCircle
 10
803.3972379030151
 20
154.6366332500801
 30
0.0
 40
7.04795370557922
100
AcDbArc
 50
129.8344892359069
 51
168.4089447024628
  0
ARC
  5
100
330
1F
100
AcDbEntity
  8
0
  6
CONTINUOUS
 62
     3
100
AcDbCircle
 10
804.907501856999
 20
153.7758712547744
 30
0.0
 40
8.71709372588669
100
AcDbArc
 50
164.8589457925044
 51
187.8495628504518
  0
ARC
  5
101
330
1F
100
AcDbEntity
  8
0
  6
CONTINUOUS
 62
     3
100
AcDbCircle
 10
804.0915332915497
 20
153.4015021572864
 30
0.0
 40
7.8619234712629
100
AcDbArc
 50
185.9586126338419
 51
224.0091989319859
  0
ARC
  5
102
330
1F
100
AcDbEntity
  8
0
  6
CONTINUOUS
 62
     3
100
AcDbCircle
 10
804.4562953036884
 20
153.8111104772596
 30
0.0
 40
8.408956577563659
100
AcDbArc
 50
224.289750990011
 51
255.6505938786759
  0
ARC
  5
103
330
1F
100
AcDbEntity
  8
0
  6
CONTINUOUS
 62
     3
100
AcDbCircle
 10
804.2928130736757
 20
151.6963494387411
 30
0.0
 40
6.330228320917859
100
AcDbArc
 50
252.3384873625213
 51
268.8069976857606
  0
LINE
  5
104
330
1F
100
AcDbEntity
  8
0
  6
CONTINUOUS
 62
     3
100
AcDbLine
 10
804.1610157332493
 20
145.3674932975408
 30
0.0
 11
806.9015157332503
 21
145.3674932975408
 31
0.0
  0
ARC
  5
105
330
1F
100
AcDbEntity
  8
0
  6
CONTINUOUS
 62
     3
100
AcDbCircle
 10
805.6613045867007
 20
158.9534026256828
 30
0.0
 40
13.64239920103932
100
AcDbArc
 50
275.2158792069686
 51
319.2336424873511
  0
ARC
  5
106
330
1F
100
AcDbEntity
  8
0
  6
CONTINUOUS
 62
     3
100
AcDbCircle
 10
820.8315560558312
 20
150.6492594265731
 30
0.0
 40
4.87535134009722
100
AcDbArc
 50
187.1167640402297
 51
216.4860549324747
  0
ARC
  5
107
330
1F
100
AcDbEntity
  8
0
  6
CONTINUOUS
 62
     3
100
AcDbCircle
 10
820.2937735081459
 20
150.336745652863
 30
0.0
 40
4.25769550620398
100
AcDbArc
 50
217.4081478714985
 51
264.8118660441384
  0
ARC
  5
108
330
1F
100
AcDbEntity
  8
0
  6
CONTINUOUS
 62
     3
100
AcDbCircle
 10
821.899589194559
 20
154.6464512823032
 30
0.0
 40
8.56540620020894
100
AcDbArc
 50
271.2220539293239
 51
292.8159509797653
  0
LINE
  5
109
330
1F
100
AcDbEntity
  8
0
  6
CONTINUOUS
 62
     3
100
AcDbLine
 10
819.9087657332498
 20
146.0964932975409
 30
0.0
 11
822.0822657332499
 21
146.0964932975409
 31
0.0
  0
LINE
  5
10A
330
1F
100
AcDbEntity
  8
0
  6
CONTINUOUS
 62
     3
100
AcDbLine
 10
825.2210157332504
 20
146.7512432975408
 30
0.0
 11
825.2210157332504
 21
148.3239932975405
 31
0.0
  0
ARC
  5
10B
330
1F
100
AcDbEntity
  8
0
  6
CONTINUOUS
 62
     3
100
AcDbCircle
 10
823.8242078457963
 20
151.006118874109
 30
0.0
 40
3.0240485913648
100
AcDbArc
 50
243.6191685566582
 51
297.5097757939563
  0
ARC
  5
10C
330
1F
100
AcDbEntity
  8
0
  6
CONTINUOUS
 62
     3
100
AcDbCircle
 10
824.1823989446041
 20
150.8302928780474
 30
0.0
 40
3.05188683107389
100
AcDbArc
 50
179.9117548191414
 51
236.1065985968857
  0
ARC
  5
10D
330
1F
100
AcDbEntity
  8
0
  6
CONTINUOUS
 62
     3
100
AcDbCircle
 10
1274.65013583871
 20
155.9323843931733
 30
0.0
 40
453.5482655865662
100
AcDbArc
 50
178.2526643324597
 51
180.6439560401927
  0
ARC
  5
10E
330
1F
100
AcDbEntity
  8
0
  6
CONTINUOUS
 62
     3
100
AcDbCircle
 10
811.0706272602786
 20
169.0191625973315
 30
0.0
 40
10.2690407511459
100
AcDbArc
 50
4.148222840814693
 51
92.36000944257292
  0
ARC
  5
10F
330
1F
100
AcDbEntity
  8
0
  6
CONTINUOUS
 62
     3
100
AcDbCircle
 10
810.2685324125528
 20
161.6167288926888
 30
0.0
 40
17.66683515327064
100
AcDbArc
 50
88.77000393305703
 51
128.9068631829044
  0
TEXT
  5
111
330
1F
100
AcDbEntity
  8
0
  6
CONTINUOUS
 62
     2
100
AcDbText
 10
922.000000000003
 20
140.5000000000003
 30
0.0
 40
33.75
  1
ジャニス工業株式会社
 41
1.025641025641026
  7
EXCADTTF1
 72
     5
 11
1372.000000000003
 21
140.5000000000003
 31
0.0
100
AcDbText
  0
LINE
  5
112
330
1F
100
AcDbEntity
  8
枠_
  6
EXLTYPE2
 62
     6
100
AcDbLine
 10
170.0
 20
1515.0
 30
0.0
 11
-20.0
 21
1515.0
 31
0.0
  0
TEXT
  5
113
330
1F
100
AcDbEntity
  8
枠_
  6
CONTINUOUS
 62
     2
100
AcDbText
 10
1493.099999761565
 20
2505.497732745775
 30
0.0
 40
40.0
  1
水石けん入れ
 41
1.075
  7
EXCADSTD
 72
     5
 11
1708.099999761565
 21
2505.497732745775
 31
0.0
100
AcDbText
  0
TEXT
  5
114
330
1F
100
AcDbEntity
  8
枠_
  6
CONTINUOUS
 62
     2
100
AcDbText
 10
1247.002929699983
 20
2505.497732745775
 30
0.0
 40
40.0
  1
ＮＴ３１＃
 41
0.9655172413793103
  7
EXCADSTD
 72
     5
 11
1407.002929699983
 21
2505.497732745775
 31
0.0
100
AcDbText
  0
LINE
  5
115
330
1F
100
AcDbEntity
  8
枠_
  6
CONTINUOUS
 62
     6
100
AcDbLine
 10
1969.999999999982
 20
2445.997083732701
 30
0.0
 11
1969.999999999982
 21
2816.9993519406
 31
0.0
  0
LINE
  5
116
330
1F
100
AcDbEntity
  8
枠_
  6
CONTINUOUS
 62
     6
100
AcDbLine
 10
1869.999999999982
 20
2816.9993519406
 30
0.0
 11
1869.999999999982
 21
2445.997083732701
 31
0.0
  0
LINE
  5
117
330
1F
100
AcDbEntity
  8
枠_
  6
CONTINUOUS
 62
     6
100
AcDbLine
 10
1484.999999999982
 20
2816.9993519406
 30
0.0
 11
1484.999999999982
 21
2445.997083732701
 31
0.0
  0
LINE
  5
118
330
1F
100
AcDbEntity
  8
枠_
  6
CONTINUOUS
 62
     6
100
AcDbLine
 10
1243.002929699981
 20
2816.9993519406
 30
0.0
 11
1243.002929699981
 21
2445.997083732701
 31
0.0
  0
TEXT
  5
119
330
1F
100
AcDbEntity
  8
枠_
  6
CONTINUOUS
 62
     2
100
AcDbText
 10
1902.799999999984
 20
2505.497732745775
 30
0.0
 40
40.0
  1
１
 41
1.12
  7
EXCADSTD
 72
     5
 11
1934.799999999984
 21
2505.497732745775
 31
0.0
100
AcDbText
  0
TEXT
  5
11A
330
1F
100
AcDbEntity
  8
枠_
  6
CONTINUOUS
 62
     2
100
AcDbText
 10
1902.799999999984
 20
2452.497408716074
 30
0.0
 40
40.0
  1
２
 41
1.12
  7
EXCADSTD
 72
     5
 11
1934.799999999984
 21
2452.497408716074
 31
0.0
100
AcDbText
  0
TEXT
  5
11B
330
1F
100
AcDbEntity
  8
枠_
  6
CONTINUOUS
 62
     2
100
AcDbText
 10
1493.099999761565
 20
2452.497408716074
 30
0.0
 40
40.0
  1
化粧頭付木ねじ
 41
1.067073170731707
  7
EXCADSTD
 72
     5
 11
1743.099999761565
 21
2452.497408716074
 31
0.0
100
AcDbText
  0
LINE
  5
11C
330
1F
100
AcDbEntity
  8
枠_
  6
CONTINUOUS
 62
     6
100
AcDbLine
 10
1243.002929699981
 20
2763.9990279109
 30
0.0
 11
1969.999999999982
 21
2763.9990279109
 31
0.0
  0
LINE
  5
11D
330
1F
100
AcDbEntity
  8
枠_
  6
CONTINUOUS
 62
     6
100
AcDbLine
 10
1243.002929699981
 20
2710.998703881201
 30
0.0
 11
1969.999999999982
 21
2710.998703881201
 31
0.0
  0
LINE
  5
11E
330
1F
100
AcDbEntity
  8
枠_
  6
CONTINUOUS
 62
     6
100
AcDbLine
 10
1243.002929699981
 20
2816.9993519406
 30
0.0
 11
1969.999999999982
 21
2816.9993519406
 31
0.0
  0
TEXT
  5
11F
330
1F
100
AcDbEntity
  8
枠_
  6
CONTINUOUS
 62
     2
100
AcDbText
 10
1607.094125707002
 20
2768.706474288304
 30
0.0
 40
40.0
  1
品名
 41
2.18734090909091
  7
EXCADSTD
 72
     5
 11
1744.584125707002
 21
2768.706474288304
 31
0.0
100
AcDbText
  0
TEXT
  5
120
330
1F
100
AcDbEntity
  8
枠_
  6
CONTINUOUS
 62
     2
100
AcDbText
 10
1292.594125707001
 20
2768.706474288304
 30
0.0
 40
40.0
  1
品番
 41
2.18734090909091
  7
EXCADSTD
 72
     5
 11
1430.084125707001
 21
2768.706474288304
 31
0.0
100
AcDbText
  0
TEXT
  5
121
330
1F
100
AcDbEntity
  8
枠_
  6
CONTINUOUS
 62
     2
100
AcDbText
 10
1493.099999761565
 20
2717.499028864574
 30
0.0
 40
40.0
  1
手洗器
 41
1.132352941176471
  7
EXCADSTD
 72
     5
 11
1603.099999761565
 21
2717.499028864574
 31
0.0
100
AcDbText
  0
TEXT
  5
122
330
1F
100
AcDbEntity
  8
枠_
  6
CONTINUOUS
 62
     2
100
AcDbText
 10
1493.099999761565
 20
2664.498704834874
 30
0.0
 40
40.0
  1
立水栓
 41
1.132352941176471
  7
EXCADSTD
 72
     5
 11
1603.099999761565
 21
2664.498704834874
 31
0.0
100
AcDbText
  0
TEXT
  5
123
330
1F
100
AcDbEntity
  8
枠_
  6
CONTINUOUS
 62
     2
100
AcDbText
 10
1493.099999761565
 20
2611.498380805175
 30
0.0
 40
40.0
  1
アングル形止水栓（共用形）
 41
0.8386363636363637
  7
EXCADSTD
 72
     5
 11
1862.099999761565
 21
2611.498380805175
 31
0.0
100
AcDbText
  0
TEXT
  5
124
330
1F
100
AcDbEntity
  8
枠_
  6
CONTINUOUS
 62
     2
100
AcDbText
 10
1493.099999761565
 20
2558.498056775475
 30
0.0
 40
40.0
  1
Ｐトラップ
 41
1.086206896551724
  7
EXCADSTD
 72
     5
 11
1673.099999761565
 21
2558.498056775475
 31
0.0
100
AcDbText
  0
TEXT
  5
125
330
1F
100
AcDbEntity
  8
枠_
  6
CONTINUOUS
 62
     2
100
AcDbText
 10
1247.002929699983
 20
2558.498056775476
 30
0.0
 40
40.0
  1
ＮＬ３１Ｐ
 41
0.9655172413793103
  7
EXCADSTD
 72
     5
 11
1407.002929699983
 21
2558.498056775476
 31
0.0
100
AcDbText
  0
TEXT
  5
126
330
1F
100
AcDbEntity
  8
枠_
  6
CONTINUOUS
 62
     2
100
AcDbText
 10
1247.002929699983
 20
2664.498704834875
 30
0.0
 40
40.0
  1
Ｋ５
 41
1.020759090909092
  7
EXCADSTD
 72
     5
 11
1311.164929699983
 21
2664.498704834875
 31
0.0
100
AcDbText
  0
TEXT
  5
127
330
1F
100
AcDbEntity
  8
枠_
  6
CONTINUOUS
 62
     2
100
AcDbText
 10
1902.799999999984
 20
2558.498056775476
 30
0.0
 40
40.0
  1
１
 41
1.12
  7
EXCADSTD
 72
     5
 11
1934.799999999984
 21
2558.498056775476
 31
0.0
100
AcDbText
  0
TEXT
  5
128
330
1F
100
AcDbEntity
  8
枠_
  6
CONTINUOUS
 62
     2
100
AcDbText
 10
1271.999999999981
 20
2825.999351940601
 30
0.0
 40
50.0
  1
器具明細
 41
2.556521739130435
  7
EXCADSTD
 72
     5
 11
1691.999999999981
 21
2825.999351940601
 31
0.0
100
AcDbText
  0
TEXT
  5
129
330
1F
100
AcDbEntity
  8
枠_
  6
CONTINUOUS
 62
     2
100
AcDbText
 10
1902.799999999984
 20
2664.498704834875
 30
0.0
 40
40.0
  1
１
 41
1.12
  7
EXCADSTD
 72
     5
 11
1934.799999999984
 21
2664.498704834875
 31
0.0
100
AcDbText
  0
TEXT
  5
12A
330
1F
100
AcDbEntity
  8
枠_
  6
CONTINUOUS
 62
     2
100
AcDbText
 10
1902.799999999984
 20
2611.498380805175
 30
0.0
 40
40.0
  1
１
 41
1.12
  7
EXCADSTD
 72
     5
 11
1934.799999999984
 21
2611.498380805175
 31
0.0
100
AcDbText
  0
TEXT
  5
12B
330
1F
100
AcDbEntity
  8
枠_
  6
CONTINUOUS
 62
     2
100
AcDbText
 10
1882.594125766606
 20
2768.706474288304
 30
0.0
 40
40.0
  1
個数
 41
1.195746363636364
  7
EXCADSTD
 72
     5
 11
1957.755325766606
 21
2768.706474288304
 31
0.0
100
AcDbText
  0
TEXT
  5
12C
330
1F
100
AcDbEntity
  8
枠_
  6
CONTINUOUS
 62
     2
100
AcDbText
 10
1902.799999999984
 20
2717.499028864574
 30
0.0
 40
40.0
  1
１
 41
1.12
  7
EXCADSTD
 72
     5
 11
1934.799999999984
 21
2717.499028864574
 31
0.0
100
AcDbText
  0
LINE
  5
12D
330
1F
100
AcDbEntity
  8
枠_
  6
CONTINUOUS
 62
     6
100
AcDbLine
 10
1243.002929699981
 20
2551.9977317921
 30
0.0
 11
1969.999999999982
 21
2551.9977317921
 31
0.0
  0
LINE
  5
12E
330
1F
100
AcDbEntity
  8
枠_
  6
CONTINUOUS
 62
     6
100
AcDbLine
 10
1243.002929699981
 20
2445.997083732701
 30
0.0
 11
1969.999999999982
 21
2445.997083732701
 31
0.0
  0
LINE
  5
12F
330
1F
100
AcDbEntity
  8
枠_
  6
CONTINUOUS
 62
     6
100
AcDbLine
 10
1243.002929699981
 20
2498.997407762401
 30
0.0
 11
1969.999999999982
 21
2498.997407762401
 31
0.0
  0
LINE
  5
130
330
1F
100
AcDbEntity
  8
枠_
  6
CONTINUOUS
 62
     6
100
AcDbLine
 10
1243.002929699981
 20
2604.998055821801
 30
0.0
 11
1969.999999999982
 21
2604.998055821801
 31
0.0
  0
LINE
  5
131
330
1F
100
AcDbEntity
  8
枠_
  6
CONTINUOUS
 62
     6
100
AcDbLine
 10
1243.002929699981
 20
2657.9983798515
 30
0.0
 11
1969.999999999982
 21
2657.9983798515
 31
0.0
  0
TEXT
  5
132
330
1F
100
AcDbEntity
  8
枠_
  6
CONTINUOUS
 62
     2
100
AcDbText
 10
1491.999999999984
 20
2334.497084686374
 30
0.0
 40
40.0
  1
Ｓトラップ
 41
1.086206896551724
  7
EXCADSTD
 72
     5
 11
1671.999999999984
 21
2334.497084686374
 31
0.0
100
AcDbText
  0
TEXT
  5
133
330
1F
100
AcDbEntity
  8
枠_
  6
CONTINUOUS
 62
     2
100
AcDbText
 10
1247.002929699983
 20
2334.497084686374
 30
0.0
 40
40.0
  1
ＮＬ３１Ｓ
 41
0.9655172413793103
  7
EXCADSTD
 72
     5
 11
1407.002929699983
 21
2334.497084686374
 31
0.0
100
AcDbText
  0
TEXT
  5
134
330
1F
100
AcDbEntity
  8
枠_
  6
CONTINUOUS
 62
     2
100
AcDbText
 10
1247.002929699983
 20
2387.497408716074
 30
0.0
 40
40.0
  1
Ｓトラップの場合
 41
1.061170212765957
  7
EXCADSTD
 72
     5
 11
1532.002929699983
 21
2387.497408716074
 31
0.0
100
AcDbText
  0
TEXT
  5
135
330
1F
100
AcDbEntity
  8
枠_
  6
CONTINUOUS
 62
     2
100
AcDbText
 10
1902.799999999984
 20
2334.497084686374
 30
0.0
 40
40.0
  1
１
 41
1.12
  7
EXCADSTD
 72
     5
 11
1934.799999999984
 21
2334.497084686374
 31
0.0
100
AcDbText
  0
LINE
  5
136
330
1F
100
AcDbEntity
  8
枠_
  6
CONTINUOUS
 62
     6
100
AcDbLine
 10
1484.999999999982
 20
2380.997083732701
 30
0.0
 11
1484.999999999982
 21
2327.996759703
 31
0.0
  0
LINE
  5
137
330
1F
100
AcDbEntity
  8
枠_
  6
CONTINUOUS
 62
     6
100
AcDbLine
 10
1243.002929699982
 20
2327.996759703
 30
0.0
 11
1969.999999999982
 21
2327.996759703
 31
0.0
  0
LINE
  5
138
330
1F
100
AcDbEntity
  8
枠_
  6
CONTINUOUS
 62
     6
100
AcDbLine
 10
1969.999999999982
 20
2327.996759703
 30
0.0
 11
1969.999999999982
 21
2380.997083732701
 31
0.0
  0
LINE
  5
139
330
1F
100
AcDbEntity
  8
枠_
  6
CONTINUOUS
 62
     6
100
AcDbLine
 10
1243.002929699981
 20
2380.997083732701
 30
0.0
 11
1243.002929699981
 21
2327.996759703
 31
0.0
  0
LINE
  5
13A
330
1F
100
AcDbEntity
  8
枠_
  6
CONTINUOUS
 62
     6
100
AcDbLine
 10
1243.002929699982
 20
2380.997083732701
 30
0.0
 11
1969.999999999982
 21
2380.997083732701
 31
0.0
  0
LINE
  5
13B
330
1F
100
AcDbEntity
  8
枠_
  6
CONTINUOUS
 62
     6
100
AcDbLine
 10
1869.999999999982
 20
2380.997083732701
 30
0.0
 11
1869.999999999982
 21
2327.996759703
 31
0.0
  0
LINE
  5
13C
330
1F
100
AcDbEntity
  8
枠_
  6
CONTINUOUS
 62
     6
100
AcDbLine
 10
1243.002929699981
 20
2262.996759703
 30
0.0
 11
1969.999999999981
 21
2262.996759703
 31
0.0
  0
TEXT
  5
13D
330
1F
100
AcDbEntity
  8
枠_
  6
CONTINUOUS
 62
     2
100
AcDbText
 10
1247.002929699982
 20
2269.497084686374
 30
0.0
 40
40.0
  1
ストレート形止水栓の場合
 41
1.047535211267606
  7
EXCADSTD
 72
     5
 11
1672.002929699982
 21
2269.497084686374
 31
0.0
100
AcDbText
  0
TEXT
  5
13E
330
1F
100
AcDbEntity
  8
枠_
  6
CONTINUOUS
 62
     2
100
AcDbText
 10
1491.999999999984
 20
2216.496760656673
 30
0.0
 40
40.0
  1
ストレート形止水栓（共用形）
 41
0.8075301204819278
  7
EXCADSTD
 72
     5
 11
1874.999999999984
 21
2216.496760656673
 31
0.0
100
AcDbText
  0
TEXT
  5
13F
330
1F
100
AcDbEntity
  8
枠_
  6
CONTINUOUS
 62
     2
100
AcDbText
 10
1902.799999999984
 20
2216.496760656674
 30
0.0
 40
40.0
  1
１
 41
1.12
  7
EXCADSTD
 72
     5
 11
1934.799999999984
 21
2216.496760656674
 31
0.0
100
AcDbText
  0
LINE
  5
140
330
1F
100
AcDbEntity
  8
枠_
  6
CONTINUOUS
 62
     6
100
AcDbLine
 10
1484.999999999982
 20
2262.996759703
 30
0.0
 11
1484.999999999982
 21
2209.9964356733
 31
0.0
  0
LINE
  5
141
330
1F
100
AcDbEntity
  8
枠_
  6
CONTINUOUS
 62
     6
100
AcDbLine
 10
1969.999999999982
 20
2209.9964356733
 30
0.0
 11
1969.999999999982
 21
2262.996759703
 31
0.0
  0
LINE
  5
142
330
1F
100
AcDbEntity
  8
枠_
  6
CONTINUOUS
 62
     6
100
AcDbLine
 10
1243.002929699981
 20
2262.996759703
 30
0.0
 11
1243.002929699981
 21
2209.9964356733
 31
0.0
  0
LINE
  5
143
330
1F
100
AcDbEntity
  8
枠_
  6
CONTINUOUS
 62
     6
100
AcDbLine
 10
1243.002929699982
 20
2209.9964356733
 30
0.0
 11
1969.999999999982
 21
2209.9964356733
 31
0.0
  0
LINE
  5
144
330
1F
100
AcDbEntity
  8
枠_
  6
CONTINUOUS
 62
     6
100
AcDbLine
 10
1869.999999999982
 20
2262.996759703
 30
0.0
 11
1869.999999999982
 21
2209.9964356733
 31
0.0
  0
LINE
  5
145
330
1F
100
AcDbEntity
  8
枠_
  6
CONTINUOUS
 62
     7
100
AcDbLine
 10
180.0
 20
115.0
 30
0.0
 11
180.0
 21
2915.0
 31
0.0
  0
LINE
  5
146
330
1F
100
AcDbEntity
  8
枠_
  6
CONTINUOUS
 62
     7
100
AcDbLine
 10
180.0
 20
2915.0
 30
0.0
 11
2000.0
 21
2915.0
 31
0.0
  0
LINE
  5
147
330
1F
100
AcDbEntity
  8
枠_
  6
CONTINUOUS
 62
     7
100
AcDbLine
 10
2000.0
 20
115.0
 30
0.0
 11
2000.0
 21
2915.0
 31
0.0
  0
LINE
  5
148
330
1F
100
AcDbEntity
  8
枠_
  6
CONTINUOUS
 62
     3
100
AcDbLine
 10
809.7837515733249
 20
211.1619993297541
 30
0.0
 11
809.8931015733251
 21
211.1646993297541
 31
0.0
  0
LINE
  5
149
330
1F
100
AcDbEntity
  8
枠_
  6
CONTINUOUS
 62
     3
100
AcDbLine
 10
810.008526573325
 20
211.4272743297541
 30
0.0
 11
809.822226573325
 21
211.4272743297541
 31
0.0
  0
ARC
  5
14A
330
1F
100
AcDbEntity
  8
枠_
  6
CONTINUOUS
 62
     3
100
AcDbCircle
 10
809.8771104428391
 20
210.1097909793761
 30
0.0
 40
1.319974865367525
100
AcDbArc
 50
92.38301574576484
 51
114.9635286746436
  0
ARC
  5
14B
330
1F
100
AcDbEntity
  8
枠_
  6
CONTINUOUS
 62
     3
100
AcDbCircle
 10
809.9854282846056
 20
210.4166303836396
 30
0.0
 40
1.010907867592157
100
AcDbArc
 50
67.66151957087348
 51
88.69073168448988
  0
ARC
  5
14C
330
1F
100
AcDbEntity
  8
枠_
  6
CONTINUOUS
 62
     3
100
AcDbCircle
 10
842.0644453232815
 20
292.402974329642
 30
0.0
 40
87.02800228963156
100
AcDbArc
 50
248.6422112053103
 51
248.8567777804232
  0
ARC
  5
14D
330
1F
100
AcDbEntity
  8
枠_
  6
CONTINUOUS
 62
     3
100
AcDbCircle
 10
807.5145607602773
 20
212.6533247435808
 30
0.0
 40
1.319228548840207
100
AcDbArc
 50
256.6209501743446
 51
283.9984576255729
  0
CIRCLE
  5
14E
330
1F
100
AcDbEntity
  8
枠_
  6
CONTINUOUS
 62
     3
100
AcDbCircle
 10
807.5285514038336
 20
212.5583546687371
 30
0.0
 40
0.357233446676989
  0
ARC
  5
14F
330
1F
100
AcDbEntity
  8
枠_
  6
CONTINUOUS
 62
     3
100
AcDbCircle
 10
805.0772405741376
 20
210.49204664798
 30
0.0
 40
0.9422143755555401
100
AcDbArc
 50
34.84393737091607
 51
92.5207065423111
  0
ARC
  5
150
330
1F
100
AcDbEntity
  8
枠_
  6
CONTINUOUS
 62
     2
100
AcDbCircle
 10
1178.254662377
 20
232.7616559414
 30
0.0
 40
8.802341196146006
100
AcDbArc
 50
217.6316802396001
 51
309.0122025121001
  0
ARC
  5
151
330
1F
100
AcDbEntity
  8
枠_
  6
CONTINUOUS
 62
     2
100
AcDbCircle
 10
1167.987898278
 20
245.4345342
 30
0.0
 40
25.11210172220001
100
AcDbArc
 50
309.0122025121001
 51
28.16590414281999
  0
ARC
  5
152
330
1F
100
AcDbEntity
  8
枠_
  6
CONTINUOUS
 62
     2
100
AcDbCircle
 10
1194.945337623
 20
232.7616559414
 30
0.0
 40
8.802341196146006
100
AcDbArc
 50
230.9877974879001
 51
322.3683197604001
  0
ARC
  5
153
330
1F
100
AcDbEntity
  8
枠_
  6
CONTINUOUS
 62
     2
100
AcDbCircle
 10
1186.6
 20
255.4
 30
0.0
 40
4.0
100
AcDbArc
 50
28.16590414281999
 51
151.8340958572
  0
ARC
  5
154
330
1F
100
AcDbEntity
  8
枠_
  6
CONTINUOUS
 62
     2
100
AcDbCircle
 10
1205.212101722
 20
245.4345342
 30
0.0
 40
25.11210172220001
100
AcDbArc
 50
151.8340958572
 51
230.9877974879001
  0
TEXT
  5
155
330
1F
100
AcDbEntity
  8
枠_
  6
CONTINUOUS
 62
     2
100
AcDbText
 10
946.25
 20
218.5
 30
0.0
 40
45.0
  1
（容量２.０  ）
 41
0.8842887473460721
  7
EXCADSTD
 72
     5
 11
1243.75
 21
218.5
 31
0.0
100
AcDbText
  0
TEXT
  5
156
330
1F
100
AcDbEntity
  8
枠_
  6
CONTINUOUS
 62
     2
100
AcDbText
 10
872.5
 20
266.0
 30
0.0
 40
60.0
  1
そで付大形手洗器
 41
1.104609929078014
  7
EXCADSTD
 72
     5
 11
1317.5
 21
266.0
 31
0.0
100
AcDbText
  0
TEXT
  5
157
330
1F
100
AcDbEntity
  8
枠_
  6
CONTINUOUS
 62
     2
100
AcDbText
 10
1247.002929699983
 20
2452.497408716074
 30
0.0
 40
40.0
  1
ＮＴ７ＡＢＷ１
 41
0.9390243902439025
  7
EXCADSTD
 72
     5
 11
1467.002929699983
 21
2452.497408716074
 31
0.0
100
AcDbText
  0
TEXT
  5
158
330
1F
100
AcDbEntity
  8
枠_
  6
CONTINUOUS
 62
     2
100
AcDbText
 10
1247.002929699983
 20
2717.499028864574
 30
0.0
 40
40.0
  1
Ｌ１３１Ｎ＃ ＢＷ１
 41
0.7072916666666668
  7
EXCADSTD
 72
     5
 11
1489.502929699983
 21
2717.499028864574
 31
0.0
100
AcDbText
  0
TEXT
  5
159
330
1F
100
AcDbEntity
  8
枠_
  6
CONTINUOUS
 62
     6
100
AcDbText
 10
186.250000019209
 20
125.0
 30
0.0
 40
30.0
  1
'23
 41
0.4689784042553192
  7
EXCADSTD
 72
     5
 11
217.738550019209
 21
125.0
 31
0.0
100
AcDbText
  0
TEXT
  5
15A
330
1F
100
AcDbEntity
  8
枠_
  6
CONTINUOUS
 62
     6
100
AcDbText
 10
246.2500000000001
 20
125.0
 30
0.0
 40
30.0
  1
3
 41
0.4683823529411765
  7
EXCADSTD
 72
     5
 11
257.6250000000001
 21
125.0
 31
0.0
100
AcDbText
  0
TEXT
  5
15B
330
1F
100
AcDbEntity
  8
枠_
  6
CONTINUOUS
 62
     6
100
AcDbText
 10
294.5000001596046
 20
125.0
 30
0.0
 40
30.0
  1
31
 41
0.4877419354838714
  7
EXCADSTD
 72
     5
 11
316.1000001596046
 21
125.0
 31
0.0
100
AcDbText
  0
TEXT
  5
15C
330
1F
100
AcDbEntity
  8
枠_
  6
CONTINUOUS
 62
     2
100
AcDbText
 10
1247.002929699983
 20
2611.498380805175
 30
0.0
 40
40.0
  1
ＪＬ２ＭＹ
 41
0.9655172413793103
  7
EXCADSTD
 72
     5
 11
1407.002929699983
 21
2611.498380805175
 31
0.0
100
AcDbText
  0
TEXT
  5
15D
330
1F
100
AcDbEntity
  8
枠_
  6
CONTINUOUS
 62
     2
100
AcDbText
 10
1247.002929699983
 20
2216.496760656674
 30
0.0
 40
40.0
  1
ＪＬ２００Ｔ４ＷＭＹ
 41
0.7118644067796611
  7
EXCADSTD
 72
     5
 11
1487.002929699983
 21
2216.496760656674
 31
0.0
100
AcDbText
  0
TEXT
  5
15E
330
1F
100
AcDbEntity
  8
洗面器
  6
CONTINUOUS
 62
     2
100
AcDbText
 10
1890.5371094
 20
282.7227783
 30
0.0
 40
30.0
  1
１
 41
1.101333333333329
  7
EXCADSTD
 72
     5
 11
1914.1371094
 21
282.7227783
 31
0.0
100
AcDbText
  0
TEXT
  5
15F
330
1F
100
AcDbEntity
  8
洗面器
  6
CONTINUOUS
 62
     2
100
AcDbText
 10
1931.2792969
 20
238.3488464
 30
0.0
 40
30.0
  1
１０
 41
1.098531212121213
  7
EXCADSTD
 72
     5
 11
1983.0671969
 21
238.3488464
 31
0.0
100
AcDbText
  0
TEXT
  5
160
330
1F
100
AcDbEntity
  8
洗面器
  6
CONTINUOUS
 62
     2
100
AcDbText
 10
202.5
 20
288.75
 30
0.0
 40
42.5
  1
製図
 41
1.509694117647059
  7
EXCADSTD
 72
     5
 11
303.326
 21
288.75
 31
0.0
100
AcDbText
  0
TEXT
  5
161
330
1F
100
AcDbEntity
  8
洗面器
  6
CONTINUOUS
 62
     2
100
AcDbText
 10
357.5
 20
288.75
 30
0.0
 40
42.5
  1
写図
 41
1.509694117647059
  7
EXCADSTD
 72
     5
 11
458.326
 21
288.75
 31
0.0
100
AcDbText
  0
TEXT
  5
162
330
1F
100
AcDbEntity
  8
洗面器
  6
CONTINUOUS
 62
     2
100
AcDbText
 10
507.5
 20
288.75
 30
0.0
 40
42.5
  1
検図
 41
1.303826737967914
  7
EXCADSTD
 72
     5
 11
594.577
 21
288.75
 31
0.0
100
AcDbText
  0
TEXT
  5
163
330
1F
100
AcDbEntity
  8
洗面器
  6
CONTINUOUS
 62
     2
100
AcDbText
 10
637.5
 20
288.75
 30
0.0
 40
42.5
  1
承認
 41
1.303826737967914
  7
EXCADSTD
 72
     5
 11
724.577
 21
288.75
 31
0.0
100
AcDbText
  0
TEXT
  5
164
330
1F
100
AcDbEntity
  8
洗面器
  6
CONTINUOUS
 62
     2
100
AcDbText
 10
755.75
 20
278.75
 30
0.0
 40
42.5
  1
品
 41
1.12
  7
EXCADSTD
 72
     5
 11
789.75
 21
278.75
 31
0.0
100
AcDbText
  0
TEXT
  5
165
330
1F
100
AcDbEntity
  8
洗面器
  6
CONTINUOUS
 62
     2
100
AcDbText
 10
755.75
 20
228.75
 30
0.0
 40
42.5
  1
名
 41
1.12
  7
EXCADSTD
 72
     5
 11
789.75
 21
228.75
 31
0.0
100
AcDbText
  0
TEXT
  5
166
330
1F
100
AcDbEntity
  8
洗面器
  6
CONTINUOUS
 62
     2
100
AcDbText
 10
1395.75
 20
278.75
 30
0.0
 40
42.5
  1
品
 41
1.12
  7
EXCADSTD
 72
     5
 11
1429.75
 21
278.75
 31
0.0
100
AcDbText
  0
TEXT
  5
167
330
1F
100
AcDbEntity
  8
洗面器
  6
CONTINUOUS
 62
     2
100
AcDbText
 10
1395.75
 20
228.75
 30
0.0
 40
42.5
  1
番
 41
1.12
  7
EXCADSTD
 72
     5
 11
1429.75
 21
228.75
 31
0.0
100
AcDbText
  0
TEXT
  5
168
330
1F
100
AcDbEntity
  8
洗面器
  6
CONTINUOUS
 62
     2
100
AcDbText
 10
1816.75
 20
278.75
 30
0.0
 40
42.5
  1
尺
 41
1.12
  7
EXCADSTD
 72
     5
 11
1850.75
 21
278.75
 31
0.0
100
AcDbText
  0
TEXT
  5
169
330
1F
100
AcDbEntity
  8
洗面器
  6
CONTINUOUS
 62
     2
100
AcDbText
 10
1816.75
 20
228.75
 30
0.0
 40
42.5
  1
度
 41
1.12
  7
EXCADSTD
 72
     5
 11
1850.75
 21
228.75
 31
0.0
100
AcDbText
  0
TEXT
  5
16A
330
1F
100
AcDbEntity
  8
洗面器
  6
CONTINUOUS
 62
     2
100
AcDbText
 10
1395.75
 20
165.75
 30
0.0
 40
42.5
  1
図
 41
1.12
  7
EXCADSTD
 72
     5
 11
1429.75
 21
165.75
 31
0.0
100
AcDbText
  0
TEXT
  5
16B
330
1F
100
AcDbEntity
  8
洗面器
  6
CONTINUOUS
 62
     2
100
AcDbText
 10
1395.75
 20
122.75
 30
0.0
 40
42.5
  1
番
 41
1.12
  7
EXCADSTD
 72
     5
 11
1429.75
 21
122.75
 31
0.0
100
AcDbText
  0
TEXT
  5
16C
330
1F
100
AcDbEntity
  8
洗面器
  6
CONTINUOUS
 62
     6
100
AcDbText
 10
212.5000001192124
 20
200.0
 30
0.0
 40
50.0
  1
川野
 41
1.096586909090909
  7
EXCADSTD
 72
     5
 11
298.6604001192123
 21
200.0
 31
0.0
100
AcDbText
  0
LINE
  5
16D
330
1F
100
AcDbEntity
  8
洗面器
  6
CONTINUOUS
 62
     6
100
AcDbLine
 10
2000.0
 20
215.0
 30
0.0
 11
750.0
 21
215.0
 31
0.0
  0
LINE
  5
16E
330
1F
100
AcDbEntity
  8
洗面器
  6
CONTINUOUS
 62
     6
100
AcDbLine
 10
1860.0
 20
335.0
 30
0.0
 11
1860.0
 21
215.0
 31
0.0
  0
LINE
  5
16F
330
1F
100
AcDbEntity
  8
洗面器
  6
CONTINUOUS
 62
     6
100
AcDbLine
 10
1810.0
 20
335.0
 30
0.0
 11
1810.0
 21
215.0
 31
0.0
  0
LINE
  5
170
330
1F
100
AcDbEntity
  8
洗面器
  6
CONTINUOUS
 62
     6
100
AcDbLine
 10
1440.0
 20
335.0
 30
0.0
 11
1440.0
 21
115.0
 31
0.0
  0
LINE
  5
171
330
1F
100
AcDbEntity
  8
洗面器
  6
CONTINUOUS
 62
     6
100
AcDbLine
 10
1390.0
 20
335.0
 30
0.0
 11
1390.0
 21
115.0
 31
0.0
  0
LINE
  5
172
330
1F
100
AcDbEntity
  8
洗面器
  6
CONTINUOUS
 62
     6
100
AcDbLine
 10
800.0
 20
335.0
 30
0.0
 11
800.0
 21
215.0
 31
0.0
  0
LINE
  5
173
330
1F
100
AcDbEntity
  8
洗面器
  6
CONTINUOUS
 62
     6
100
AcDbLine
 10
750.0
 20
335.0
 30
0.0
 11
750.0
 21
115.0
 31
0.0
  0
LINE
  5
174
330
1F
100
AcDbEntity
  8
洗面器
  6
CONTINUOUS
 62
     6
100
AcDbLine
 10
620.0
 20
335.0
 30
0.0
 11
620.0
 21
115.0
 31
0.0
  0
LINE
  5
175
330
1F
100
AcDbEntity
  8
洗面器
  6
CONTINUOUS
 62
     6
100
AcDbLine
 10
490.0
 20
335.0
 30
0.0
 11
490.0
 21
115.0
 31
0.0
  0
LINE
  5
176
330
1F
100
AcDbEntity
  8
洗面器
  6
CONTINUOUS
 62
     6
100
AcDbLine
 10
335.0
 20
335.0
 30
0.0
 11
335.0
 21
115.0
 31
0.0
  0
LINE
  5
177
330
1F
100
AcDbEntity
  8
洗面器
  6
CONTINUOUS
 62
     6
100
AcDbLine
 10
180.0
 20
285.0
 30
0.0
 11
750.0
 21
285.0
 31
0.0
  0
LINE
  5
178
330
1F
100
AcDbEntity
  8
洗面器
  6
CONTINUOUS
 62
     6
100
AcDbLine
 10
1892.6538086
 20
238.0029297
 30
0.0
 11
1969.9938965
 21
316.6998291
 31
0.0
  0
CIRCLE
  5
179
330
1F
100
AcDbEntity
  8
洗面器
  6
CONTINUOUS
 62
     6
100
AcDbCircle
 10
230.0000000000001
 20
140.0
 30
0.0
 40
1.0000002
  0
CIRCLE
  5
17A
330
1F
100
AcDbEntity
  8
洗面器
  6
CONTINUOUS
 62
     6
100
AcDbCircle
 10
280.0000000000001
 20
140.0
 30
0.0
 40
1.0000002
  0
CIRCLE
  5
17B
330
1F
100
AcDbEntity
  8
洗面器
  6
CONTINUOUS
 62
     6
100
AcDbCircle
 10
385.0000000000001
 20
140.0
 30
0.0
 40
1.0000002
  0
CIRCLE
  5
17C
330
1F
100
AcDbEntity
  8
洗面器
  6
CONTINUOUS
 62
     6
100
AcDbCircle
 10
435.0000000000001
 20
140.0
 30
0.0
 40
1.0000002
  0
LINE
  5
17D
330
1F
100
AcDbEntity
  8
洗面器
  6
EXLTYPE2
 62
     6
100
AcDbLine
 10
180.0000000000001
 20
165.0000000000001
 30
0.0
 11
490.0000000000001
 21
165.0
 31
0.0
  0
LINE
  5
17E
330
1F
100
AcDbEntity
  8
洗面器
  6
CONTINUOUS
 62
     7
100
AcDbLine
 10
180.0
 20
335.0
 30
0.0
 11
2000.0
 21
335.0
 31
0.0
  0
LINE
  5
17F
330
1F
100
AcDbEntity
  8
洗面器
  6
CONTINUOUS
 62
     7
100
AcDbLine
 10
180.0
 20
115.0
 30
0.0
 11
2000.0
 21
115.0
 31
0.0
  0
TEXT
  5
180
330
1F
100
AcDbEntity
  8
洗面器
  6
CONTINUOUS
 62
     2
100
AcDbText
 10
1470.0
 20
245.0
 30
0.0
 40
60.0
  1
Ｌ１３１Ｎ＃
 41
1.033333333333333
  7
EXCADSTD
 72
     5
 11
1780.0
 21
245.0
 31
0.0
100
AcDbText
  0
ARC
  5
181
330
1F
100
AcDbEntity
  8
洗面器
  6
CONTINUOUS
 62
     2
100
AcDbCircle
 10
1605.955178156922
 20
1274.997911719027
 30
0.0
 40
57.50000000000004
100
AcDbArc
 50
331.214870469374
 51
346.4410435866366
  0
ARC
  5
182
330
1F
100
AcDbEntity
  8
洗面器
  6
CONTINUOUS
 62
     2
100
AcDbCircle
 10
1605.955178156922
 20
1274.997911719027
 30
0.0
 40
57.50000000000004
100
AcDbArc
 50
275.0668473591965
 51
307.9892503506562
  0
LINE
  5
183
330
1F
100
AcDbEntity
  8
洗面器
  6
EXLTYPE3
 62
     6
100
AcDbLine
 10
1575.0
 20
1014.0
 30
0.0
 11
1575.0
 21
1190.0300293
 31
0.0
  0
ARC
  5
184
330
1F
100
AcDbEntity
  8
洗面器
  6
CONTINUOUS
 62
     2
100
AcDbCircle
 10
1605.955178156922
 20
1274.997911719027
 30
0.0
 40
57.50000000000004
100
AcDbArc
 50
346.4410435866596
 51
356.7663684443577
  0
ARC
  5
185
330
1F
100
AcDbEntity
  8
洗面器
  6
CONTINUOUS
 62
     2
100
AcDbCircle
 10
1585.66091896543
 20
1503.886331588287
 30
0.0
 40
287.2863479548063
100
AcDbArc
 50
270.0000000000002
 51
275.0668473591966
  0
LINE
  5
186
330
1F
100
AcDbEntity
  8
洗面器
  6
CONTINUOUS
 62
     2
100
AcDbLine
 10
1585.66091896543
 20
1216.59998363348
 30
0.0
 11
1541.099999999999
 21
1216.59998363348
 31
0.0
  0
LINE
  5
187
330
1F
100
AcDbEntity
  8
洗面器
  6
CONTINUOUS
 62
     2
100
AcDbLine
 10
1663.363628151632
 20
1271.75447693398
 30
0.0
 11
1663.53367734925
 21
1274.764329607157
 31
0.0
  0
LINE
  5
188
330
1F
100
AcDbEntity
  8
洗面器
  6
CONTINUOUS
 62
     2
100
AcDbLine
 10
1609.2
 20
1183.229559802151
 30
0.0
 11
1579.599999999999
 21
1183.229559802151
 31
0.0
  0
ARC
  5
189
330
1F
100
AcDbEntity
  8
洗面器
  6
CONTINUOUS
 62
     7
100
AcDbCircle
 10
1580.099915372999
 20
1330.458969415001
 30
0.0
 40
150.0000000000001
100
AcDbArc
 50
297.1836174538586
 51
309.4663080844162
  0
ARC
  5
18A
330
1F
100
AcDbEntity
  8
洗面器
  6
CONTINUOUS
 62
     7
100
AcDbCircle
 10
1580.099915372999
 20
1330.458969415001
 30
0.0
 40
150.0000000000001
100
AcDbArc
 50
282.8218333307506
 51
289.1398221293981
  0
ARC
  5
18B
330
1F
100
AcDbEntity
  8
洗面器
  6
CONTINUOUS
 62
     7
100
AcDbCircle
 10
1523.67792059819
 20
1202.728758269206
 30
0.0
 40
13.00000000000001
100
AcDbArc
 50
8.000000000001009
 51
63.45557370554345
  0
LINE
  5
18C
330
1F
100
AcDbEntity
  8
洗面器
  6
CONTINUOUS
 62
     7
100
AcDbLine
 10
1409.801505873899
 20
1296.17298157539
 30
0.0
 11
1719.999999999999
 21
1269.999983633501
 31
0.0
  0
ARC
  5
18D
330
1F
100
AcDbEntity
  8
洗面器
  6
CONTINUOUS
 62
     7
100
AcDbCircle
 10
1770.787225826474
 20
1098.859423577751
 30
0.0
 40
150.0000000000001
100
AcDbArc
 50
109.7904752691746
 51
129.4663080844156
  0
ARC
  5
18E
330
1F
100
AcDbEntity
  8
洗面器
  6
CONTINUOUS
 62
     7
100
AcDbCircle
 10
1405.0
 20
1340.653912185983
 30
0.0
 40
5.0
100
AcDbArc
 50
98.00472885730368
 51
187.5310720796808
  0
ARC
  5
18F
330
1F
100
AcDbEntity
  8
洗面器
  6
CONTINUOUS
 62
     7
100
AcDbCircle
 10
1410.221887151
 20
1301.155278192586
 30
0.0
 40
5.0
100
AcDbArc
 50
187.5310720796808
 51
265.1770919435301
  0
LINE
  5
190
330
1F
100
AcDbEntity
  8
洗面器
  6
CONTINUOUS
 62
     7
100
AcDbLine
 10
1400.043130350433
 20
1339.998592968195
 30
0.0
 11
1405.265017501433
 21
1300.499958974797
 31
0.0
  0
ARC
  5
191
330
1F
100
AcDbEntity
  8
洗面器
  6
CONTINUOUS
 62
     7
100
AcDbCircle
 10
854.5811530842451
 20
6315.296019208351
 30
0.0
 40
5000.000000000005
100
AcDbArc
 50
276.3138050025677
 51
279.6956527120182
  0
LINE
  5
192
330
1F
100
AcDbEntity
  8
洗面器
  6
CONTINUOUS
 62
     7
100
AcDbLine
 10
1696.799898540128
 20
1386.737469365706
 30
0.0
 11
1719.999999999999
 21
1389.9999836335
 31
0.0
  0
ARC
  5
193
330
1F
100
AcDbEntity
  8
洗面器
  6
CONTINUOUS
 62
     7
100
AcDbCircle
 10
1588.742019842917
 20
1364.385842733599
 30
0.0
 40
160.0
100
AcDbArc
 50
206.4322310270668
 51
237.8022187308987
  0
LINE
  5
194
330
1F
100
AcDbEntity
  8
洗面器
  6
CONTINUOUS
 62
     7
100
AcDbLine
 10
1539.637056007221
 20
1182.582464330623
 30
0.0
 11
1536.55140549183
 21
1204.538008581687
 31
0.0
  0
ARC
  5
195
330
1F
100
AcDbEntity
  8
洗面器
  6
CONTINUOUS
 62
     7
100
AcDbCircle
 10
1664.6722196691
 20
1484.971309330351
 30
0.0
 40
302.5000000000003
100
AcDbArc
 50
237.8022187308991
 51
243.4555737055471
  0
ARC
  5
196
330
1F
100
AcDbEntity
  8
洗面器
  6
CONTINUOUS
 62
     7
100
AcDbCircle
 10
1542.607860213445
 20
1182.999983633503
 30
0.0
 40
3.000000000000003
100
AcDbArc
 50
188.0000000000016
 51
270.0000000000002
  0
ARC
  5
197
330
1F
100
AcDbEntity
  8
洗面器
  6
CONTINUOUS
 62
     7
100
AcDbCircle
 10
1607.392139786554
 20
1182.999983633503
 30
0.0
 40
3.000000000000003
100
AcDbArc
 50
270.0000000000002
 51
332.644608104803
  0
ARC
  5
198
330
1F
100
AcDbEntity
  8
洗面器
  6
CONTINUOUS
 62
     7
100
AcDbCircle
 10
1614.497527053652
 20
1179.323916198789
 30
0.0
 40
5.0
100
AcDbArc
 50
102.8218333307527
 51
152.6446081048092
  0
ARC
  5
199
330
1F
100
AcDbEntity
  8
洗面器
  6
CONTINUOUS
 62
     7
100
AcDbCircle
 10
1542.607860213445
 20
1182.999983633503
 30
0.0
 40
3.000000000000003
100
AcDbArc
 50
188.0000000000016
 51
270.0000000000002
  0
LINE
  5
19A
330
1F
100
AcDbEntity
  8
洗面器
  6
CONTINUOUS
 62
     7
100
AcDbLine
 10
1607.499999999999
 20
1179.999983633501
 30
0.0
 11
1542.5
 21
1179.999983633501
 31
0.0
  0
LINE
  5
19B
330
1F
100
AcDbEntity
  8
洗面器
  6
CONTINUOUS
 62
     6
100
AcDbLine
 10
1719.999999999999
 20
1362.1000508336
 30
0.0
 11
1732.9002666956
 21
1362.1000508336
 31
0.0
  0
LINE
  5
19C
330
1F
100
AcDbEntity
  8
洗面器
  6
CONTINUOUS
 62
     6
100
AcDbLine
 10
1719.999999999999
 20
1367.8999166336
 30
0.0
 11
1732.9002666956
 21
1367.8999166336
 31
0.0
  0
ARC
  5
19D
330
1F
100
AcDbEntity
  8
洗面器
  6
CONTINUOUS
 62
     6
100
AcDbCircle
 10
1729.6715068956
 20
1338.0741719336
 30
0.0
 40
30.00000000000002
100
AcDbArc
 50
63.83496093999945
 51
83.82153320000008
  0
ARC
  5
19E
330
1F
100
AcDbEntity
  8
洗面器
  6
CONTINUOUS
 62
     6
100
AcDbCircle
 10
1729.6715068956
 20
1391.9257955336
 30
0.0
 40
30.00000000000002
100
AcDbArc
 50
276.1784668
 51
296.1650390600004
  0
CIRCLE
  5
19F
330
1F
100
AcDbEntity
  8
洗面器
  6
CONTINUOUS
 62
     6
100
AcDbCircle
 10
605.0000000000001
 20
1365.0000001001
 30
0.0
 40
7.500000000000004
  0
LINE
  5
1A0
330
1F
100
AcDbEntity
  8
洗面器
  6
CONTINUOUS
 62
     6
100
AcDbLine
 10
592.5369873000001
 20
1365.0000001001
 30
0.0
 11
619.1369873000002
 21
1365.0000001001
 31
0.0
  0
CIRCLE
  5
1A1
330
1F
100
AcDbEntity
  8
洗面器
  6
CONTINUOUS
 62
     6
100
AcDbCircle
 10
755.0000000000002
 20
1365.0000001001
 30
0.0
 40
7.500000000000004
  0
LINE
  5
1A2
330
1F
100
AcDbEntity
  8
洗面器
  6
CONTINUOUS
 62
     6
100
AcDbLine
 10
767.4630127000004
 20
1365.0000001001
 30
0.0
 11
740.8630127000001
 21
1365.0000001001
 31
0.0
  0
LINE
  5
1A3
330
1F
100
AcDbEntity
  8
洗面器
  6
EXLTYPE3
 62
     6
100
AcDbLine
 10
755.0000000000006
 20
1377.5292969
 30
0.0
 11
755.0000000000006
 21
1352.700000100099
 31
0.0
  0
LINE
  5
1A4
330
1F
100
AcDbEntity
  8
洗面器
  6
CONTINUOUS
 62
     7
100
AcDbLine
 10
712.5000000000002
 20
1180.0
 30
0.0
 11
647.4999999999998
 21
1180.0
 31
0.0
  0
ARC
  5
1A5
330
1F
100
AcDbEntity
  8
洗面器
  6
CONTINUOUS
 62
     7
100
AcDbCircle
 10
528.1903215038745
 20
1280.0
 30
0.0
 40
10.0
100
AcDbArc
 50
270.0000000000002
 51
303.7390030479121
  0
ARC
  5
1A6
330
1F
100
AcDbEntity
  8
洗面器
  6
CONTINUOUS
 62
     7
100
AcDbCircle
 10
503.1210612693278
 20
1280.0
 30
0.0
 40
10.0
100
AcDbArc
 50
215.6535571190618
 51
270.0000000000002
  0
ARC
  5
1A7
330
1F
100
AcDbEntity
  8
洗面器
  6
CONTINUOUS
 62
     7
100
AcDbCircle
 10
559.9999999999999
 20
1320.801793206578
 30
0.0
 40
80.0
100
AcDbArc
 50
180.0
 51
215.6535571190636
  0
LINE
  5
1A8
330
1F
100
AcDbEntity
  8
洗面器
  6
CONTINUOUS
 62
     7
100
AcDbLine
 10
528.1903215038745
 20
1270.0
 30
0.0
 11
503.1210612693278
 21
1270.0
 31
0.0
  0
LINE
  5
1A9
330
1F
100
AcDbEntity
  8
洗面器
  6
CONTINUOUS
 62
     7
100
AcDbLine
 10
480.0000000000003
 20
1353.787248103808
 30
0.0
 11
480.0000000000003
 21
1320.80179320658
 31
0.0
  0
ARC
  5
1AA
330
1F
100
AcDbEntity
  8
洗面器
  6
CONTINUOUS
 62
     7
100
AcDbCircle
 10
824.2518735438803
 20
1339.99299453193
 30
0.0
 40
50.00000000000004
100
AcDbArc
 50
53.92393918726744
 51
87.67985395008671
  0
LINE
  5
1AB
330
1F
100
AcDbEntity
  8
洗面器
  6
CONTINUOUS
 62
     7
100
AcDbLine
 10
644.6370560072211
 20
1182.582480697122
 30
0.0
 11
641.1805492795241
 21
1207.176804012591
 31
0.0
  0
ARC
  5
1AC
330
1F
100
AcDbEntity
  8
洗面器
  6
CONTINUOUS
 62
     7
100
AcDbCircle
 10
647.6078602134459
 20
1183.000000000003
 30
0.0
 40
3.000000000000003
100
AcDbArc
 50
188.0000000000043
 51
270.0000000000002
  0
ARC
  5
1AD
330
1F
100
AcDbEntity
  8
洗面器
  6
CONTINUOUS
 62
     7
100
AcDbCircle
 10
707.6874913200791
 20
1403.023183065288
 30
0.0
 40
200.0000000000002
100
AcDbArc
 50
217.9793368399005
 51
248.1191246727961
  0
ARC
  5
1AE
330
1F
100
AcDbEntity
  8
洗面器
  6
CONTINUOUS
 62
     7
100
AcDbCircle
 10
564.37269332162
 20
1225.82674807657
 30
0.0
 40
55.14526271584901
100
AcDbArc
 50
104.4554862591726
 51
123.7390030479107
  0
ARC
  5
1AF
330
1F
100
AcDbEntity
  8
洗面器
  6
CONTINUOUS
 62
     7
100
AcDbCircle
 10
534.2762897034926
 20
1267.64018873479
 30
0.0
 40
20.0
100
AcDbArc
 50
37.97933683989997
 51
90.00000000000001
  0
ARC
  5
1B0
330
1F
100
AcDbEntity
  8
洗面器
  6
CONTINUOUS
 62
     7
100
AcDbCircle
 10
628.307064385884
 20
1205.367553700109
 30
0.0
 40
13.00000000000001
100
AcDbArc
 50
7.999999999999062
 51
68.11912467279616
  0
ARC
  5
1B1
330
1F
100
AcDbEntity
  8
洗面器
  6
CONTINUOUS
 62
     7
100
AcDbCircle
 10
712.3921397865544
 20
1183.000000000003
 30
0.0
 40
3.000000000000003
100
AcDbArc
 50
270.0000000000002
 51
351.9999999999956
  0
ARC
  5
1B2
330
1F
100
AcDbEntity
  8
洗面器
  6
CONTINUOUS
 62
     7
100
AcDbCircle
 10
489.9885620227187
 20
1360.833348030437
 30
0.0
 40
9.78075986834111
100
AcDbArc
 50
176.6214681945194
 51
258.6720649147309
  0
ARC
  5
1B3
330
1F
100
AcDbEntity
  8
洗面器
  6
CONTINUOUS
 62
     7
100
AcDbCircle
 10
500.6016665035885
 20
1413.81230452034
 30
0.0
 40
63.81230452034021
100
AcDbArc
 50
258.6720649147319
 51
270.0000000000002
  0
ARC
  5
1B4
330
1F
100
AcDbEntity
  8
洗面器
  6
CONTINUOUS
 62
     7
100
AcDbCircle
 10
847.8062220842719
 20
1372.32243413174
 30
0.0
 40
10.0
100
AcDbArc
 50
2.078193143316081
 51
53.92393918726934
  0
ARC
  5
1B5
330
1F
100
AcDbEntity
  8
洗面器
  6
CONTINUOUS
 62
     7
100
AcDbCircle
 10
535.7481264561201
 20
1339.99299453193
 30
0.0
 40
50.00000000000004
100
AcDbArc
 50
92.32014604991329
 51
126.0760608127324
  0
ARC
  5
1B6
330
1F
100
AcDbEntity
  8
洗面器
  6
CONTINUOUS
 62
     7
100
AcDbCircle
 10
512.1937779157282
 20
1372.32243413174
 30
0.0
 40
10.0
100
AcDbArc
 50
126.076060812728
 51
177.9218068566839
  0
LINE
  5
1B7
330
1F
100
AcDbEntity
  8
洗面器
  6
CONTINUOUS
 62
     7
100
AcDbLine
 10
502.2003552352602
 20
1372.685067734014
 30
0.0
 11
502.2003552352602
 21
1361.5
 31
0.0
  0
ARC
  5
1B8
330
1F
100
AcDbEntity
  8
洗面器
  6
CONTINUOUS
 62
     7
100
AcDbCircle
 10
513.7003552352602
 20
1361.5
 30
0.0
 40
11.49999999999977
100
AcDbArc
 50
180.0
 51
270.0000000000002
  0
ARC
  5
1B9
330
1F
100
AcDbEntity
  8
洗面器
  6
CONTINUOUS
 62
     7
100
AcDbCircle
 10
499.9991821206539
 20
1371.41216923795
 30
0.0
 40
18.58783076205009
100
AcDbArc
 50
90.00000000000001
 51
170.8433865491168
  0
ARC
  5
1BA
330
1F
100
AcDbEntity
  8
洗面器
  6
CONTINUOUS
 62
     7
100
AcDbCircle
 10
609.3432977605142
 20
1353.787248103808
 30
0.0
 40
129.3432977605144
100
AcDbArc
 50
170.8433865491162
 51
180.0
  0
ARC
  5
1BB
330
1F
100
AcDbEntity
  8
洗面器
  6
CONTINUOUS
 62
     7
100
AcDbCircle
 10
860.0008178793462
 20
1371.41216923795
 30
0.0
 40
18.58783076205009
100
AcDbArc
 50
9.156613450883262
 51
90.00000000000001
  0
LINE
  5
1BC
330
1F
100
AcDbEntity
  8
洗面器
  6
CONTINUOUS
 62
     7
100
AcDbLine
 10
846.2996447647404
 20
1350.0
 30
0.0
 11
498.8318871696662
 21
1350.0
 31
0.0
  0
ARC
  5
1BD
330
1F
100
AcDbEntity
  8
洗面器
  6
CONTINUOUS
 62
     7
100
AcDbCircle
 10
831.8096784961258
 20
1280.0
 30
0.0
 40
10.0
100
AcDbArc
 50
236.2609969520883
 51
270.0000000000002
  0
ARC
  5
1BE
330
1F
100
AcDbEntity
  8
洗面器
  6
CONTINUOUS
 62
     7
100
AcDbCircle
 10
856.8789387306728
 20
1280.0
 30
0.0
 40
10.0
100
AcDbArc
 50
270.0000000000002
 51
324.3464428809383
  0
ARC
  5
1BF
330
1F
100
AcDbEntity
  8
洗面器
  6
CONTINUOUS
 62
     7
100
AcDbCircle
 10
800.0000000000006
 20
1320.801793206578
 30
0.0
 40
80.0
100
AcDbArc
 50
324.3464428809365
 51
0.0
  0
LINE
  5
1C0
330
1F
100
AcDbEntity
  8
洗面器
  6
CONTINUOUS
 62
     7
100
AcDbLine
 10
831.8096784961258
 20
1270.0
 30
0.0
 11
856.8789387306728
 21
1270.0
 31
0.0
  0
LINE
  5
1C1
330
1F
100
AcDbEntity
  8
洗面器
  6
CONTINUOUS
 62
     7
100
AcDbLine
 10
880.0000000000002
 20
1353.787248103808
 30
0.0
 11
880.0000000000002
 21
1320.80179320658
 31
0.0
  0
ARC
  5
1C2
330
1F
100
AcDbEntity
  8
洗面器
  6
CONTINUOUS
 62
     7
100
AcDbCircle
 10
795.6273066783805
 20
1225.82674807657
 30
0.0
 40
55.14526271584901
100
AcDbArc
 50
56.26099695208926
 51
75.54451374082731
  0
ARC
  5
1C3
330
1F
100
AcDbEntity
  8
洗面器
  6
CONTINUOUS
 62
     7
100
AcDbCircle
 10
825.7237102965078
 20
1267.64018873479
 30
0.0
 40
20.0
100
AcDbArc
 50
90.00000000000001
 51
142.0206631601
  0
ARC
  5
1C4
330
1F
100
AcDbEntity
  8
洗面器
  6
CONTINUOUS
 62
     7
100
AcDbCircle
 10
870.0114379772818
 20
1360.833348030437
 30
0.0
 40
9.78075986834111
100
AcDbArc
 50
281.3279350852699
 51
3.378531805480768
  0
ARC
  5
1C5
330
1F
100
AcDbEntity
  8
洗面器
  6
CONTINUOUS
 62
     7
100
AcDbCircle
 10
859.3983334964119
 20
1413.81230452034
 30
0.0
 40
63.81230452034021
100
AcDbArc
 50
270.0000000000002
 51
281.3279350852682
  0
ARC
  5
1C6
330
1F
100
AcDbEntity
  8
洗面器
  6
CONTINUOUS
 62
     7
100
AcDbCircle
 10
824.2518735438804
 20
1339.99299453193
 30
0.0
 40
50.00000000000004
100
AcDbArc
 50
53.92393918726761
 51
87.67985395008671
  0
ARC
  5
1C7
330
1F
100
AcDbEntity
  8
洗面器
  6
CONTINUOUS
 62
     7
100
AcDbCircle
 10
847.8062220842721
 20
1372.32243413174
 30
0.0
 40
10.0
100
AcDbArc
 50
2.078193143316024
 51
53.92393918727225
  0
LINE
  5
1C8
330
1F
100
AcDbEntity
  8
洗面器
  6
CONTINUOUS
 62
     7
100
AcDbLine
 10
857.7996447647402
 20
1372.685067734014
 30
0.0
 11
857.7996447647402
 21
1361.5
 31
0.0
  0
ARC
  5
1C9
330
1F
100
AcDbEntity
  8
洗面器
  6
CONTINUOUS
 62
     7
100
AcDbCircle
 10
846.2996447647404
 20
1361.5
 30
0.0
 40
11.49999999999977
100
AcDbArc
 50
270.0000000000002
 51
0.0
  0
ARC
  5
1CA
330
1F
100
AcDbEntity
  8
洗面器
  6
CONTINUOUS
 62
     7
100
AcDbCircle
 10
860.0008178793464
 20
1371.41216923795
 30
0.0
 40
18.58783076205009
100
AcDbArc
 50
9.156613450883262
 51
90.00000000000001
  0
ARC
  5
1CB
330
1F
100
AcDbEntity
  8
洗面器
  6
CONTINUOUS
 62
     7
100
AcDbCircle
 10
750.6567022394861
 20
1353.787248103808
 30
0.0
 40
129.3432977605144
100
AcDbArc
 50
0.0
 51
9.156613450883778
  0
ARC
  5
1CC
330
1F
100
AcDbEntity
  8
洗面器
  6
CONTINUOUS
 62
     7
100
AcDbCircle
 10
652.3125086799213
 20
1403.023183065288
 30
0.0
 40
200.0000000000002
100
AcDbArc
 50
291.8808753272039
 51
322.0206631600994
  0
ARC
  5
1CD
330
1F
100
AcDbEntity
  8
洗面器
  6
CONTINUOUS
 62
     7
100
AcDbCircle
 10
731.6929356141164
 20
1205.367553700109
 30
0.0
 40
13.00000000000001
100
AcDbArc
 50
111.8808753272038
 51
172.0000000000009
  0
LINE
  5
1CE
330
1F
100
AcDbEntity
  8
洗面器
  6
CONTINUOUS
 62
     7
100
AcDbLine
 10
715.3629439927793
 20
1182.582480697122
 30
0.0
 11
718.8194507204762
 21
1207.176804012591
 31
0.0
  0
ARC
  5
1CF
330
1F
100
AcDbEntity
  8
洗面器
  6
CONTINUOUS
 62
     7
100
AcDbCircle
 10
680.0000000000002
 20
4629.688510649245
 30
0.0
 40
3284.688510649248
100
AcDbArc
 50
266.8070522325542
 51
273.130947984428
  0
LINE
  5
1D0
330
1F
100
AcDbEntity
  8
洗面器
  6
CONTINUOUS
 62
     7
100
AcDbLine
 10
547.9653071064876
 20
1390.0
 30
0.0
 11
499.9991821206539
 21
1390.0
 31
0.0
  0
LINE
  5
1D1
330
1F
100
AcDbEntity
  8
洗面器
  6
CONTINUOUS
 62
     7
100
AcDbLine
 10
737.2920203633768
 20
1390.0
 30
0.0
 11
585.7888959139908
 21
1390.0
 31
0.0
  0
LINE
  5
1D2
330
1F
100
AcDbEntity
  8
洗面器
  6
CONTINUOUS
 62
     7
100
AcDbLine
 10
860.0008178793462
 20
1390.0
 30
0.0
 11
808.7493254154011
 21
1390.0
 31
0.0
  0
LINE
  5
1D3
330
1F
100
AcDbEntity
  8
洗面器
  6
CONTINUOUS
 62
     2
100
AcDbLine
 10
716.2000000000004
 20
1216.59999999998
 30
0.0
 11
643.7999999999997
 21
1216.59999999998
 31
0.0
  0
ARC
  5
1D4
330
1F
100
AcDbEntity
  8
洗面器
  6
CONTINUOUS
 62
     7
100
AcDbCircle
 10
680.0000000000002
 20
-2705.499999999998
 30
0.0
 40
4002.499999999998
100
AcDbArc
 50
87.21126391639199
 51
92.78873608360794
  0
LINE
  5
1D5
330
1F
100
AcDbEntity
  8
洗面器
  6
EXLTYPE3
 62
     6
100
AcDbLine
 10
680.0000000000002
 20
2523.699999999999
 30
0.0
 11
680.0000000000002
 21
2187.999999999999
 31
0.0
  0
CIRCLE
  5
1D6
330
1F
100
AcDbEntity
  8
洗面器
  6
CONTINUOUS
 62
     6
100
AcDbCircle
 10
680.0000000000002
 20
2370.0
 30
0.0
 40
17.50000000000001
  0
CIRCLE
  5
1D7
330
1F
100
AcDbEntity
  8
洗面器
  6
CONTINUOUS
 62
     6
100
AcDbCircle
 10
680.0000000000002
 20
2370.0
 30
0.0
 40
26.9999695
  0
LINE
  5
1D8
330
1F
100
AcDbEntity
  8
洗面器
  6
CONTINUOUS
 62
     6
100
AcDbLine
 10
640.0000000000002
 20
2370.0
 30
0.0
 11
676.1088562
 21
2370.0
 31
0.0
  0
CIRCLE
  5
1D9
330
1F
100
AcDbEntity
  8
洗面器
  6
CONTINUOUS
 62
     6
100
AcDbCircle
 10
680.0000000000002
 20
2370.0
 30
0.0
 40
3.000030500000002
  0
ARC
  5
1DA
330
1F
100
AcDbEntity
  8
洗面器
  6
CONTINUOUS
 62
     6
100
AcDbCircle
 10
680.0000000000002
 20
2377.199706999999
 30
0.0
 40
7.199971700000005
100
AcDbArc
 50
294.0516357400017
 51
245.9483642599983
  0
ARC
  5
1DB
330
1F
100
AcDbEntity
  8
洗面器
  6
CONTINUOUS
 62
     6
100
AcDbCircle
 10
680.0000000000002
 20
2377.199706999999
 30
0.0
 40
8.400058700000002
100
AcDbArc
 50
290.3610382100014
 51
249.6388702399988
  0
LINE
  5
1DC
330
1F
100
AcDbEntity
  8
洗面器
  6
CONTINUOUS
 62
     6
100
AcDbLine
 10
683.3601379
 20
2370.0
 30
0.0
 11
720.0000000000002
 21
2370.0
 31
0.0
  0
CIRCLE
  5
1DD
330
1F
100
AcDbEntity
  8
洗面器
  6
CONTINUOUS
 62
     6
100
AcDbCircle
 10
681.9097900000003
 20
2386.8286133
 30
0.0
 40
1.7500305
  0
CIRCLE
  5
1DE
330
1F
100
AcDbEntity
  8
洗面器
  6
CONTINUOUS
 62
     6
100
AcDbCircle
 10
682.2724915
 20
2390.9985351
 30
0.0
 40
1.7500305
  0
CIRCLE
  5
1DF
330
1F
100
AcDbEntity
  8
洗面器
  6
CONTINUOUS
 62
     6
100
AcDbCircle
 10
681.3659668
 20
2395.710449199999
 30
0.0
 40
1.7500305
  0
CIRCLE
  5
1E0
330
1F
100
AcDbEntity
  8
洗面器
  6
CONTINUOUS
 62
     6
100
AcDbCircle
 10
678.8281250000002
 20
2399.519042999999
 30
0.0
 40
1.7500305
  0
CIRCLE
  5
1E1
330
1F
100
AcDbEntity
  8
洗面器
  6
CONTINUOUS
 62
     6
100
AcDbCircle
 10
674.6586609000002
 20
2401.511230499999
 30
0.0
 40
1.7500305
  0
CIRCLE
  5
1E2
330
1F
100
AcDbEntity
  8
洗面器
  6
CONTINUOUS
 62
     6
100
AcDbCircle
 10
671.3955689000002
 20
2404.594726599999
 30
0.0
 40
1.7500305
  0
CIRCLE
  5
1E3
330
1F
100
AcDbEntity
  8
洗面器
  6
CONTINUOUS
 62
     6
100
AcDbCircle
 10
610.0000000000002
 20
2465.0
 30
0.0
 40
6.999969500000002
  0
ARC
  5
1E4
330
1F
100
AcDbEntity
  8
洗面器
  6
CONTINUOUS
 62
     6
100
AcDbCircle
 10
610.0000000000002
 20
2465.0
 30
0.0
 40
5.000030400000004
100
AcDbArc
 50
36.87443541999805
 51
143.1255645800019
  0
LINE
  5
1E5
330
1F
100
AcDbEntity
  8
洗面器
  6
CONTINUOUS
 62
     6
100
AcDbLine
 10
606.0000610000003
 20
2468.0004883
 30
0.0
 11
606.0000610000003
 21
2461.999511699999
 31
0.0
  0
ARC
  5
1E6
330
1F
100
AcDbEntity
  8
洗面器
  6
CONTINUOUS
 62
     6
100
AcDbCircle
 10
610.0000000000002
 20
2465.0
 30
0.0
 40
5.000030400000004
100
AcDbArc
 50
216.8744354199983
 51
323.1255645800019
  0
ARC
  5
1E7
330
1F
100
AcDbEntity
  8
洗面器
  6
CONTINUOUS
 62
     6
100
AcDbCircle
 10
610.0000000000002
 20
2457.800292999999
 30
0.0
 40
8.400021800000006
100
AcDbArc
 50
118.43284607
 51
61.56713867000036
  0
ARC
  5
1E8
330
1F
100
AcDbEntity
  8
洗面器
  6
CONTINUOUS
 62
     6
100
AcDbCircle
 10
610.0000000000002
 20
2457.800292999999
 30
0.0
 40
7.2000355
100
AcDbArc
 50
123.7496948199993
 51
56.25048828000103
  0
LINE
  5
1E9
330
1F
100
AcDbEntity
  8
洗面器
  6
CONTINUOUS
 62
     6
100
AcDbLine
 10
613.9999390000002
 20
2468.0004883
 30
0.0
 11
613.9999390000002
 21
2461.999511699999
 31
0.0
  0
LINE
  5
1EA
330
1F
100
AcDbEntity
  8
洗面器
  6
EXLTYPE3
 62
     6
100
AcDbLine
 10
756.9000000000002
 20
2449.999999999999
 30
0.0
 11
829.7000000000003
 21
2449.999999999999
 31
0.0
  0
ARC
  5
1EB
330
1F
100
AcDbEntity
  8
洗面器
  6
CONTINUOUS
 62
     6
100
AcDbCircle
 10
605.0004244908001
 20
2488.400717085599
 30
0.0
 40
7.499933200000004
100
AcDbArc
 50
183.82632446
 51
356.17367554
  0
ARC
  5
1EC
330
1F
100
AcDbEntity
  8
洗面器
  6
CONTINUOUS
 62
     6
100
AcDbCircle
 10
631.9258118000001
 20
2524.671506895599
 30
0.0
 40
30.00000000000002
100
AcDbArc
 50
153.8349609399997
 51
173.8215332000002
  0
ARC
  5
1ED
330
1F
100
AcDbEntity
  8
洗面器
  6
CONTINUOUS
 62
     6
100
AcDbCircle
 10
578.0741882000001
 20
2524.671506895599
 30
0.0
 40
30.00000000000002
100
AcDbArc
 50
6.178466799999886
 51
26.16503906000028
  0
LINE
  5
1EE
330
1F
100
AcDbEntity
  8
洗面器
  6
CONTINUOUS
 62
     6
100
AcDbLine
 10
607.8999329000001
 20
2514.999999999999
 30
0.0
 11
607.8999329000001
 21
2527.900266695599
 31
0.0
  0
LINE
  5
1EF
330
1F
100
AcDbEntity
  8
洗面器
  6
CONTINUOUS
 62
     6
100
AcDbLine
 10
602.1000671
 20
2514.999999999999
 30
0.0
 11
602.1000671
 21
2527.900266695599
 31
0.0
  0
ARC
  5
1F0
330
1F
100
AcDbEntity
  8
洗面器
  6
CONTINUOUS
 62
     6
100
AcDbCircle
 10
754.9995755092001
 20
2488.400717085599
 30
0.0
 40
7.499933200000004
100
AcDbArc
 50
183.8263244600002
 51
356.17367554
  0
ARC
  5
1F1
330
1F
100
AcDbEntity
  8
洗面器
  6
CONTINUOUS
 62
     6
100
AcDbCircle
 10
728.0741882000001
 20
2524.671506895599
 30
0.0
 40
30.00000000000002
100
AcDbArc
 50
6.178466799999828
 51
26.16503906000028
  0
ARC
  5
1F2
330
1F
100
AcDbEntity
  8
洗面器
  6
CONTINUOUS
 62
     6
100
AcDbCircle
 10
781.9258118000001
 20
2524.671506895599
 30
0.0
 40
30.00000000000002
100
AcDbArc
 50
153.8349609399997
 51
173.8215332000002
  0
LINE
  5
1F3
330
1F
100
AcDbEntity
  8
洗面器
  6
CONTINUOUS
 62
     6
100
AcDbLine
 10
752.1000670999999
 20
2514.999999999999
 30
0.0
 11
752.1000670999999
 21
2527.900266695599
 31
0.0
  0
LINE
  5
1F4
330
1F
100
AcDbEntity
  8
洗面器
  6
CONTINUOUS
 62
     6
100
AcDbLine
 10
757.8999329000001
 20
2514.999999999999
 30
0.0
 11
757.8999329000001
 21
2527.900266695599
 31
0.0
  0
LINE
  5
1F5
330
1F
100
AcDbEntity
  8
洗面器
  6
EXLTYPE3
 62
     6
100
AcDbLine
 10
795.0000000000002
 20
2482.6442871
 30
0.0
 11
795.0000000000002
 21
2412.144287099999
 31
0.0
  0
LINE
  5
1F6
330
1F
100
AcDbEntity
  8
洗面器
  6
CONTINUOUS
 62
     7
100
AcDbLine
 10
495.0
 20
2514.999999999999
 30
0.0
 11
865.0000000000002
 21
2514.999999999999
 31
0.0
  0
ARC
  5
1F7
330
1F
100
AcDbEntity
  8
洗面器
  6
CONTINUOUS
 62
     7
100
AcDbCircle
 10
680.0000000000002
 20
2794.999999999999
 30
0.0
 40
600.0000000000006
100
AcDbArc
 50
254.9738862409003
 51
285.0261137591001
  0
LINE
  5
1F8
330
1F
100
AcDbEntity
  8
洗面器
  6
CONTINUOUS
 62
     7
100
AcDbLine
 10
865.0000000000002
 20
2514.999999999999
 30
0.0
 11
879.8828242750002
 21
2277.211787953
 31
0.0
  0
ARC
  5
1F9
330
1F
100
AcDbEntity
  8
洗面器
  6
CONTINUOUS
 62
     7
100
AcDbCircle
 10
680.0000000000002
 20
2535.0
 30
0.0
 40
300.0000000000003
100
AcDbArc
 50
247.975687163
 51
292.6198649480001
  0
ARC
  5
1FA
330
1F
100
AcDbEntity
  8
洗面器
  6
CONTINUOUS
 62
     7
100
AcDbCircle
 10
589.9999999999999
 20
2312.514045386999
 30
0.0
 40
60.00000000000004
100
AcDbArc
 50
180.0
 51
247.9756871630005
  0
ARC
  5
1FB
330
1F
100
AcDbEntity
  8
洗面器
  6
CONTINUOUS
 62
     7
100
AcDbCircle
 10
680.0000000000002
 20
2285.0
 30
0.0
 40
170.0
100
AcDbArc
 50
72.02691636493978
 51
107.9730836351
  0
ARC
  5
1FC
330
1F
100
AcDbEntity
  8
洗面器
  6
CONTINUOUS
 62
     7
100
AcDbCircle
 10
770.0000000000002
 20
2312.514045386999
 30
0.0
 40
60.00000000000004
100
AcDbArc
 50
292.0243128370013
 51
0.0
  0
LINE
  5
1FD
330
1F
100
AcDbEntity
  8
洗面器
  6
CONTINUOUS
 62
     7
100
AcDbLine
 10
496.5045429538006
 20
2311.950494290999
 30
0.0
 11
509.3417948154999
 21
2442.782777450999
 31
0.0
  0
LINE
  5
1FE
330
1F
100
AcDbEntity
  8
洗面器
  6
CONTINUOUS
 62
     7
100
AcDbLine
 10
863.4954570462003
 20
2311.950494290999
 30
0.0
 11
850.6582051845
 21
2442.782777450999
 31
0.0
  0
LINE
  5
1FF
330
1F
100
AcDbEntity
  8
洗面器
  6
CONTINUOUS
 62
     7
100
AcDbLine
 10
559.1028309899999
 20
2487.900229054999
 30
0.0
 11
800.8971690100003
 21
2487.900229054999
 31
0.0
  0
ARC
  5
200
330
1F
100
AcDbEntity
  8
洗面器
  6
CONTINUOUS
 62
     7
100
AcDbCircle
 10
559.1028309899999
 20
2437.900229054999
 30
0.0
 40
50.00000000000004
100
AcDbArc
 50
90.00000000000001
 51
174.3960812661995
  0
ARC
  5
201
330
1F
100
AcDbEntity
  8
洗面器
  6
CONTINUOUS
 62
     7
100
AcDbCircle
 10
800.8971690100003
 20
2437.900229054999
 30
0.0
 40
50.00000000000004
100
AcDbArc
 50
5.603918733790051
 51
90.00000000000001
  0
LINE
  5
202
330
1F
100
AcDbEntity
  8
洗面器
  6
CONTINUOUS
 62
     7
100
AcDbLine
 10
495.0000000000003
 20
2514.999999999999
 30
0.0
 11
480.1171757250117
 21
2277.211787953183
 31
0.0
  0
ARC
  5
203
330
1F
100
AcDbEntity
  8
洗面器
  6
CONTINUOUS
 62
     7
100
AcDbCircle
 10
820.0000000000002
 20
2273.463807583999
 30
0.0
 40
60.00000000000004
100
AcDbArc
 50
285.0261137591007
 51
3.581389317268607
  0
ARC
  5
204
330
1F
100
AcDbEntity
  8
洗面器
  6
CONTINUOUS
 62
     7
100
AcDbCircle
 10
539.9999999999999
 20
2273.463807583999
 30
0.0
 40
60.00000000000004
100
AcDbArc
 50
176.4186106827314
 51
254.9738862409004
  0
ARC
  5
205
330
1F
100
AcDbEntity
  8
洗面器
  6
CONTINUOUS
 62
     7
100
AcDbCircle
 10
688.9255673391002
 20
2312.514045386999
 30
0.0
 40
141.0744326609001
100
AcDbArc
 50
59.42445925510408
 51
72.02691636494008
  0
ARC
  5
206
330
1F
100
AcDbEntity
  8
洗面器
  6
CONTINUOUS
 62
     7
100
AcDbCircle
 10
688.9255673391002
 20
2312.514045386999
 30
0.0
 40
141.0744326609001
100
AcDbArc
 50
0.0
 51
48.49438356666648
  0
ARC
  5
207
330
1F
100
AcDbEntity
  8
洗面器
  6
CONTINUOUS
 62
     7
100
AcDbCircle
 10
671.0744326609002
 20
2312.514045386999
 30
0.0
 40
141.0744326609001
100
AcDbArc
 50
107.9730836351
 51
124.4463879850817
  0
ARC
  5
208
330
1F
100
AcDbEntity
  8
洗面器
  6
CONTINUOUS
 62
     7
100
AcDbCircle
 10
671.0744326609002
 20
2312.514045386999
 30
0.0
 40
141.0744326609001
100
AcDbArc
 50
131.8935610573767
 51
180.0
  0
CIRCLE
  5
209
330
1F
100
AcDbEntity
  8
洗面器
  6
CONTINUOUS
 62
     6
100
AcDbCircle
 10
609.7756532629604
 20
2449.820288734406
 30
0.0
 40
1.7500305
  0
CIRCLE
  5
20A
330
1F
100
AcDbEntity
  8
洗面器
  6
CONTINUOUS
 62
     6
100
AcDbCircle
 10
613.0817891239155
 20
2446.778344298798
 30
0.0
 40
1.7500305
  0
CIRCLE
  5
20B
330
1F
100
AcDbEntity
  8
洗面器
  6
CONTINUOUS
 62
     6
100
AcDbCircle
 10
614.9722524243641
 20
2442.644361137603
 30
0.0
 40
1.7500305
  0
CIRCLE
  5
20C
330
1F
100
AcDbEntity
  8
洗面器
  6
CONTINUOUS
 62
     6
100
AcDbCircle
 10
645.0358778298457
 20
2420.972590944391
 30
0.0
 40
1.7500305
  0
CIRCLE
  5
20D
330
1F
100
AcDbEntity
  8
洗面器
  6
CONTINUOUS
 62
     6
100
AcDbCircle
 10
640.8065708176214
 20
2421.774440179815
 30
0.0
 40
1.7500305
  0
CIRCLE
  5
20E
330
1F
100
AcDbEntity
  8
洗面器
  6
CONTINUOUS
 62
     6
100
AcDbCircle
 10
636.1758215236694
 20
2422.217340819419
 30
0.0
 40
1.7500305
  0
CIRCLE
  5
20F
330
1F
100
AcDbEntity
  8
洗面器
  6
CONTINUOUS
 62
     6
100
AcDbCircle
 10
632.5697522223186
 20
2424.523043357445
 30
0.0
 40
1.7500305
  0
CIRCLE
  5
210
330
1F
100
AcDbEntity
  8
洗面器
  6
CONTINUOUS
 62
     6
100
AcDbCircle
 10
629.2762904493192
 20
2427.120754756221
 30
0.0
 40
1.7500305
  0
CIRCLE
  5
211
330
1F
100
AcDbEntity
  8
洗面器
  6
CONTINUOUS
 62
     6
100
AcDbCircle
 10
625.711313373744
 20
2429.634347794425
 30
0.0
 40
1.7500305
  0
CIRCLE
  5
212
330
1F
100
AcDbEntity
  8
洗面器
  6
CONTINUOUS
 62
     6
100
AcDbCircle
 10
617.2501607903461
 20
2439.035913780265
 30
0.0
 40
1.7500305
  0
CIRCLE
  5
213
330
1F
100
AcDbEntity
  8
洗面器
  6
CONTINUOUS
 62
     6
100
AcDbCircle
 10
619.9774485340677
 20
2435.783285859822
 30
0.0
 40
1.7500305
  0
CIRCLE
  5
214
330
1F
100
AcDbEntity
  8
洗面器
  6
CONTINUOUS
 62
     6
100
AcDbCircle
 10
622.5334156566996
 20
2432.470900416401
 30
0.0
 40
1.7500305
  0
CIRCLE
  5
215
330
1F
100
AcDbEntity
  8
洗面器
  6
CONTINUOUS
 62
     6
100
AcDbCircle
 10
646.7450396583696
 20
2412.545688679118
 30
0.0
 40
1.7500305
  0
CIRCLE
  5
216
330
1F
100
AcDbEntity
  8
洗面器
  6
CONTINUOUS
 62
     6
100
AcDbCircle
 10
649.548285636795
 20
2409.140519618371
 30
0.0
 40
1.7500305
  0
CIRCLE
  5
217
330
1F
100
AcDbEntity
  8
洗面器
  6
CONTINUOUS
 62
     6
100
AcDbCircle
 10
653.4686653618577
 20
2407.426211549599
 30
0.0
 40
1.7500305
  0
CIRCLE
  5
218
330
1F
100
AcDbEntity
  8
洗面器
  6
CONTINUOUS
 62
     6
100
AcDbCircle
 10
657.2182994662368
 20
2408.545180171022
 30
0.0
 40
1.7500305
  0
CIRCLE
  5
219
330
1F
100
AcDbEntity
  8
洗面器
  6
CONTINUOUS
 62
     6
100
AcDbCircle
 10
661.0557860999999
 20
2410.085742199999
 30
0.0
 40
1.7500305
  0
CIRCLE
  5
21A
330
1F
100
AcDbEntity
  8
洗面器
  6
CONTINUOUS
 62
     6
100
AcDbCircle
 10
665.6505049251001
 20
2410.211602785699
 30
0.0
 40
1.7500305
  0
CIRCLE
  5
21B
330
1F
100
AcDbEntity
  8
洗面器
  6
CONTINUOUS
 62
     6
100
AcDbCircle
 10
670.0505049251001
 20
2408.711602785699
 30
0.0
 40
1.7500305
  0
CIRCLE
  5
21C
330
1F
100
AcDbEntity
  8
洗面器
  6
CONTINUOUS
 62
     6
100
AcDbCircle
 10
647.5542472519726
 20
2417.151235348914
 30
0.0
 40
1.7500305
  0
LINE
  5
21D
330
1F
100
AcDbEntity
  8
洗面器
  6
CONTINUOUS
 62
     7
100
AcDbLine
 10
280.0000000000005
 20
585.0
 30
0.0
 11
1080.0
 21
585.0000000000001
 31
0.0
  0
LINE
  5
21E
330
1F
100
AcDbEntity
  8
洗面器
  6
CONTINUOUS
 62
     7
100
AcDbLine
 10
1080.000000000001
 20
2515.0
 30
0.0
 11
280.0000000000008
 21
2515.0
 31
0.0
  0
LINE
  5
21F
330
1F
100
AcDbEntity
  8
洗面器
  6
CONTINUOUS
 62
     7
100
AcDbLine
 10
1220.0
 20
585.0
 30
0.0
 11
1720.0
 21
585.0
 31
0.0
  0
LINE
  5
220
330
1F
100
AcDbEntity
  8
洗面器
  6
CONTINUOUS
 62
     7
100
AcDbLine
 10
1720.0
 20
585.0
 30
0.0
 11
1720.0
 21
1885.0
 31
0.0
  0
LINE
  5
221
330
1F
100
AcDbEntity
  8
洗面器
  6
EXLTYPE3
 62
     6
100
AcDbLine
 10
604.9999999999999
 20
1377.5292969
 30
0.0
 11
604.9999999999999
 21
1352.700000100099
 31
0.0
  0
TEXT
  5
222
330
1F
100
AcDbEntity
  8
洗面器
  6
CONTINUOUS
 62
     7
100
AcDbText
 10
1465.0
 20
131.5000000000001
 30
0.0
 40
70.0
  1
Ｌ０１３１０７３０
 41
0.9622641509433962
  7
EXCADSTD
 72
     5
 11
1975.0
 21
131.5000000000001
 31
0.0
100
AcDbText
  0
LINE
  5
223
330
1F
100
AcDbEntity
  8
水栓
  6
CONTINUOUS
 62
     6
100
AcDbLine
 10
1598.2175832964
 20
1376.2416508773
 30
0.0
 11
1602.289567335827
 21
1380.590249703048
 31
0.0
  0
ARC
  5
224
330
1F
100
AcDbEntity
  8
水栓
  6
CONTINUOUS
 62
     6
100
AcDbCircle
 10
1607.1908154
 20
1378.014571642619
 30
0.0
 40
4.700776425981076
100
AcDbArc
 50
44.85015601206753
 51
90.00000000000001
  0
ARC
  5
225
330
1F
100
AcDbEntity
  8
水栓
  6
CONTINUOUS
 62
     6
100
AcDbCircle
 10
1607.1908154
 20
1376.000770495996
 30
0.0
 40
6.714577572604186
100
AcDbArc
 50
90.00000000000001
 51
136.881480516426
  0
LINE
  5
226
330
1F
100
AcDbEntity
  8
水栓
  6
CONTINUOUS
 62
     6
100
AcDbLine
 10
1593.0
 20
1386.0634109664
 30
0.0
 11
1601.239041908243
 21
1394.862140927169
 31
0.0
  0
ARC
  5
227
330
1F
100
AcDbEntity
  8
水栓
  6
CONTINUOUS
 62
     6
100
AcDbCircle
 10
1606.778195415502
 20
1388.745251168527
 30
0.0
 40
8.252185280055151
100
AcDbArc
 50
92.90781050102318
 51
141.6005261143067
  0
LINE
  5
228
330
1F
100
AcDbEntity
  8
水栓
  6
CONTINUOUS
 62
     6
100
AcDbLine
 10
1593.0
 20
1386.0634109664
 30
0.0
 11
1597.2951306479
 21
1376.3489940733
 31
0.0
  0
LINE
  5
229
330
1F
100
AcDbEntity
  8
水栓
  6
CONTINUOUS
 62
     6
100
AcDbLine
 10
1638.2163669986
 20
1382.2082763877
 30
0.0
 11
1610.07765663074
 21
1396.48693586018
 31
0.0
  0
ARC
  5
22A
330
1F
100
AcDbEntity
  8
水栓
  6
CONTINUOUS
 62
     6
100
AcDbCircle
 10
1639.235235202917
 20
1384.866356928176
 30
0.0
 40
2.846662006227835
100
AcDbArc
 50
249.0276843794171
 51
308.6306824029173
  0
ARC
  5
22B
330
1F
100
AcDbEntity
  8
水栓
  6
CONTINUOUS
 62
     6
100
AcDbCircle
 10
1637.791118330511
 20
1386.673385359665
 30
0.0
 40
5.159847103332624
100
AcDbArc
 50
308.6306824038488
 51
357.0047856521402
  0
LINE
  5
22C
330
1F
100
AcDbEntity
  8
水栓
  6
CONTINUOUS
 62
     6
100
AcDbLine
 10
1668.571078211123
 20
1381.998906547105
 30
0.0
 11
1667.0514267632
 21
1388.6997616443
 31
0.0
  0
LINE
  5
22D
330
1F
100
AcDbEntity
  8
水栓
  6
CONTINUOUS
 62
     6
100
AcDbLine
 10
1650.13973983242
 20
1396.1650561995
 30
0.0
 11
1650.1456473692
 21
1389.5362664667
 31
0.0
  0
LINE
  5
22E
330
1F
100
AcDbEntity
  8
水栓
  6
CONTINUOUS
 62
     6
100
AcDbLine
 10
1659.84886842642
 20
1396.1650561995
 30
0.0
 11
1659.8547759632
 21
1389.5362664667
 31
0.0
  0
ARC
  5
22F
330
1F
100
AcDbEntity
  8
水栓
  6
CONTINUOUS
 62
     6
100
AcDbCircle
 10
1655.414631192116
 20
1389.449031136291
 30
0.0
 40
8.047356372835944
100
AcDbArc
 50
56.57035164124194
 51
92.99552717006748
  0
ARC
  5
230
330
1F
100
AcDbEntity
  8
水栓
  6
CONTINUOUS
 62
     6
100
AcDbCircle
 10
1654.573553734324
 20
1389.449031136291
 30
0.0
 40
8.047356372835944
100
AcDbArc
 50
87.00447282993213
 51
123.4296483587577
  0
LINE
  5
231
330
1F
100
AcDbEntity
  8
水栓
  6
CONTINUOUS
 62
     6
100
AcDbLine
 10
1646.26104883275
 20
1396.1650561995
 30
0.0
 11
1646.26695636953
 21
1389.5362664667
 31
0.0
  0
LINE
  5
232
330
1F
100
AcDbEntity
  8
水栓
  6
CONTINUOUS
 62
     6
100
AcDbLine
 10
1641.24409246322
 20
1396.1290729455
 30
0.0
 11
1641.25
 21
1389.2098771863
 31
0.0
  0
ARC
  5
233
330
1F
100
AcDbEntity
  8
水栓
  6
CONTINUOUS
 62
     6
100
AcDbCircle
 10
1641.907512596621
 20
1395.867556452962
 30
0.0
 40
0.778945030813095
100
AcDbArc
 50
106.0976589377045
 51
136.5942542322198
  0
ARC
  5
234
330
1F
100
AcDbEntity
  8
水栓
  6
CONTINUOUS
 62
     6
100
AcDbCircle
 10
1641.672293497813
 20
1396.131441980062
 30
0.0
 40
0.4277842620041331
100
AcDbArc
 50
140.6265306670342
 51
180.3173010037323
  0
ARC
  5
235
330
1F
100
AcDbEntity
  8
水栓
  6
CONTINUOUS
 62
     6
100
AcDbCircle
 10
1642.740103083346
 20
1392.137331779984
 30
0.0
 40
5.349731111917274
100
AcDbArc
 50
48.84077895732544
 51
84.57305325090229
  0
LINE
  5
236
330
1F
100
AcDbEntity
  8
水栓
  6
CONTINUOUS
 62
     6
100
AcDbLine
 10
1668.74409246322
 20
1396.1290729455
 30
0.0
 11
1668.75
 21
1389.2098771863
 31
0.0
  0
ARC
  5
237
330
1F
100
AcDbEntity
  8
水栓
  6
CONTINUOUS
 62
     6
100
AcDbCircle
 10
1668.080672329818
 20
1395.867556452962
 30
0.0
 40
0.778945030813095
100
AcDbArc
 50
43.40574576777736
 51
73.90234106229548
  0
ARC
  5
238
330
1F
100
AcDbEntity
  8
水栓
  6
CONTINUOUS
 62
     6
100
AcDbCircle
 10
1668.315891428627
 20
1396.131441980062
 30
0.0
 40
0.4277842620041331
100
AcDbArc
 50
359.6826989962678
 51
39.37346933296691
  0
LINE
  5
239
330
1F
100
AcDbEntity
  8
水栓
  6
CONTINUOUS
 62
     6
100
AcDbLine
 10
1663.72713609369
 20
1396.1650561995
 30
0.0
 11
1663.73304363047
 21
1389.5362664667
 31
0.0
  0
ARC
  5
23A
330
1F
100
AcDbEntity
  8
水栓
  6
CONTINUOUS
 62
     6
100
AcDbCircle
 10
1667.248081843094
 20
1392.137331779984
 30
0.0
 40
5.349731111917274
100
AcDbArc
 50
95.4269467490977
 51
131.1592210426746
  0
ARC
  5
23B
330
1F
100
AcDbEntity
  8
水栓
  6
CONTINUOUS
 62
     6
100
AcDbCircle
 10
1622.736408509842
 20
1424.777368814929
 30
0.0
 40
33.94645225944432
100
AcDbArc
 50
303.9440449050104
 51
319.2193593747007
  0
ARC
  5
23C
330
1F
100
AcDbEntity
  8
水栓
  6
CONTINUOUS
 62
     6
100
AcDbCircle
 10
1687.235626207681
 20
1424.708498064029
 30
0.0
 40
33.88030950030249
100
AcDbArc
 50
220.7233384557307
 51
236.0135783950876
  0
LINE
  5
23D
330
1F
100
AcDbEntity
  8
水栓
  6
CONTINUOUS
 62
     6
100
AcDbLine
 10
1646.26695636953
 20
1389.5362664667
 30
0.0
 11
1645.58962452953
 21
1388.7027249711
 31
0.0
  0
LINE
  5
23E
330
1F
100
AcDbEntity
  8
水栓
  6
CONTINUOUS
 62
     6
100
AcDbLine
 10
1641.7605388744
 20
1388.6997616443
 30
0.0
 11
1668.2394611256
 21
1388.6997616443
 31
0.0
  0
LINE
  5
23F
330
1F
100
AcDbEntity
  8
水栓
  6
CONTINUOUS
 62
     6
100
AcDbLine
 10
1663.73304363047
 20
1389.5362664667
 30
0.0
 11
1664.41037547047
 21
1388.7027249711
 31
0.0
  0
ARC
  5
240
330
1F
100
AcDbEntity
  8
水栓
  6
CONTINUOUS
 62
     6
100
AcDbCircle
 10
1668.238188614424
 20
1389.211574261559
 30
0.0
 40
0.511814199167523
100
AcDbArc
 50
270.1424532476763
 51
359.8100181117405
  0
ARC
  5
241
330
1F
100
AcDbEntity
  8
水栓
  6
CONTINUOUS
 62
     6
100
AcDbCircle
 10
1641.761811385576
 20
1389.211574261559
 30
0.0
 40
0.511814199167523
100
AcDbArc
 50
180.1899818882595
 51
269.8575467523301
  0
LINE
  5
242
330
1F
100
AcDbEntity
  8
水栓
  6
CONTINUOUS
 62
     6
100
AcDbLine
 10
1659.8547759632
 20
1389.5362664667
 30
0.0
 11
1659.1799841176
 21
1388.7027249711
 31
0.0
  0
LINE
  5
243
330
1F
100
AcDbEntity
  8
水栓
  6
CONTINUOUS
 62
     6
100
AcDbLine
 10
1650.1456473692
 20
1389.5362664667
 30
0.0
 11
1650.8204392148
 21
1388.7027249711
 31
0.0
  0
LINE
  5
244
330
1F
100
AcDbEntity
  8
水栓
  6
CONTINUOUS
 62
     6
100
AcDbLine
 10
1660.623165318883
 20
1403.0604666495
 30
0.0
 11
1649.37683468112
 21
1403.0604666495
 31
0.0
  0
ARC
  5
245
330
1F
100
AcDbEntity
  8
水栓
  6
CONTINUOUS
 62
     6
100
AcDbCircle
 10
1649.742528803589
 20
1401.12134365039
 30
0.0
 40
1.973304385260744
100
AcDbArc
 50
100.6798296622751
 51
131.2592895147447
  0
ARC
  5
246
330
1F
100
AcDbEntity
  8
水栓
  6
CONTINUOUS
 62
     6
100
AcDbCircle
 10
1660.257471196411
 20
1401.12134365039
 30
0.0
 40
1.973304385260744
100
AcDbArc
 50
48.74071048938145
 51
79.32017033772489
  0
LINE
  5
247
330
1F
100
AcDbEntity
  8
水栓
  6
CONTINUOUS
 62
     6
100
AcDbLine
 10
1661.1345098084
 20
1422.0004069659
 30
0.0
 11
1661.1345098084
 21
1420.0004069659
 31
0.0
  0
LINE
  5
248
330
1F
100
AcDbEntity
  8
水栓
  6
CONTINUOUS
 62
     6
100
AcDbLine
 10
1659.7993194188
 20
1422.0004069659
 30
0.0
 11
1659.7993194188
 21
1420.0004069659
 31
0.0
  0
LINE
  5
249
330
1F
100
AcDbEntity
  8
水栓
  6
CONTINUOUS
 62
     6
100
AcDbLine
 10
1658.172876338
 20
1422.0004069659
 30
0.0
 11
1658.172876338
 21
1420.0004069659
 31
0.0
  0
LINE
  5
24A
330
1F
100
AcDbEntity
  8
水栓
  6
CONTINUOUS
 62
     6
100
AcDbLine
 10
1656.2124239936
 20
1422.0004069659
 30
0.0
 11
1656.2124239936
 21
1420.0004069659
 31
0.0
  0
LINE
  5
24B
330
1F
100
AcDbEntity
  8
水栓
  6
CONTINUOUS
 62
     6
100
AcDbLine
 10
1653.7918093304
 20
1422.0004069659
 30
0.0
 11
1653.7918093304
 21
1420.0004069659
 31
0.0
  0
LINE
  5
24C
330
1F
100
AcDbEntity
  8
水栓
  6
CONTINUOUS
 62
     6
100
AcDbLine
 10
1651.8309336536
 20
1422.0004069659
 30
0.0
 11
1651.8309336536
 21
1420.0004069659
 31
0.0
  0
LINE
  5
24D
330
1F
100
AcDbEntity
  8
水栓
  6
CONTINUOUS
 62
     6
100
AcDbLine
 10
1650.2044905728
 20
1422.0004069659
 30
0.0
 11
1650.2044905728
 21
1420.0004069659
 31
0.0
  0
LINE
  5
24E
330
1F
100
AcDbEntity
  8
水栓
  6
CONTINUOUS
 62
     6
100
AcDbLine
 10
1648.8693001832
 20
1422.0004069659
 30
0.0
 11
1648.8693001832
 21
1420.0004069659
 31
0.0
  0
LINE
  5
24F
330
1F
100
AcDbEntity
  8
水栓
  6
CONTINUOUS
 62
     6
100
AcDbLine
 10
1648.1
 20
1422.0004069659
 30
0.0
 11
1661.900000000001
 21
1422.0004069659
 31
0.0
  0
LINE
  5
250
330
1F
100
AcDbEntity
  8
水栓
  6
CONTINUOUS
 62
     6
100
AcDbLine
 10
1642.9439165804
 20
1388.6997616443
 30
0.0
 11
1642.9439165804
 21
1386.40377021597
 31
0.0
  0
LINE
  5
251
330
1F
100
AcDbEntity
  8
水栓
  6
CONTINUOUS
 62
     6
100
AcDbLine
 10
1660.3983347648
 20
1408.5004069659
 30
0.0
 11
1660.3983347648
 21
1403.0604666495
 31
0.0
  0
LINE
  5
252
330
1F
100
AcDbEntity
  8
水栓
  6
CONTINUOUS
 62
     6
100
AcDbLine
 10
1649.6706684164
 20
1408.5004069659
 30
0.0
 11
1649.6706684164
 21
1403.0604666495
 31
0.0
  0
ARC
  5
253
330
1F
100
AcDbEntity
  8
水栓
  6
CONTINUOUS
 62
     6
100
AcDbCircle
 10
1632.814756044946
 20
1410.862610371822
 30
0.0
 40
7.824153488035601
100
AcDbArc
 50
95.66874558397856
 51
112.2609612399853
  0
ARC
  5
254
330
1F
100
AcDbEntity
  8
水栓
  6
CONTINUOUS
 62
     6
100
AcDbCircle
 10
1632.814756044946
 20
1410.862610371822
 30
0.0
 40
7.824153488035601
100
AcDbArc
 50
112.2609612399853
 51
171.8861632329181
  0
LINE
  5
255
330
1F
100
AcDbEntity
  8
水栓
  6
CONTINUOUS
 62
     6
100
AcDbLine
 10
1624.99864177155
 20
1408.5004069659
 30
0.0
 11
1673.0
 21
1408.5004069659
 31
0.0
  0
LINE
  5
256
330
1F
100
AcDbEntity
  8
水栓
  6
CONTINUOUS
 62
     6
100
AcDbLine
 10
1648.058090092399
 20
1420.0004069659
 30
0.0
 11
1661.900000000002
 21
1420.0004069659
 31
0.0
  0
LINE
  5
257
330
1F
100
AcDbEntity
  8
水栓
  6
CONTINUOUS
 62
     6
100
AcDbLine
 10
1661.9
 20
1420.0004069659
 30
0.0
 11
1661.9
 21
1422.0004069659
 31
0.0
  0
LINE
  5
258
330
1F
100
AcDbEntity
  8
水栓
  6
CONTINUOUS
 62
     6
100
AcDbLine
 10
1648.0580900924
 20
1420.0004069659
 30
0.0
 11
1648.0580900924
 21
1421.987718623798
 31
0.0
  0
ARC
  5
259
330
1F
100
AcDbEntity
  8
水栓
  6
CONTINUOUS
 62
     6
100
AcDbCircle
 10
1664.990077899604
 20
1411.293252785603
 30
0.0
 40
7.968166508950754
100
AcDbArc
 50
4.849806568437553
 51
69.87938217398494
  0
ARC
  5
25A
330
1F
100
AcDbEntity
  8
水栓
  6
CONTINUOUS
 62
     6
100
AcDbCircle
 10
1655.543155886402
 20
1375.260444119455
 30
0.0
 40
45.18931004768627
100
AcDbArc
 50
74.35306364125438
 51
81.91330010299941
  0
LINE
  5
25B
330
1F
100
AcDbEntity
  8
水栓
  6
CONTINUOUS
 62
     6
100
AcDbLine
 10
1672.9297163211
 20
1411.96691386528
 30
0.0
 11
1673.0
 21
1408.5004069659
 31
0.0
  0
LINE
  5
25C
330
1F
100
AcDbEntity
  8
水栓
  6
CONTINUOUS
 62
     6
100
AcDbLine
 10
1625.06892545045
 20
1411.96691386528
 30
0.0
 11
1624.99864177155
 21
1408.5004069659
 31
0.0
  0
ARC
  5
25D
330
1F
100
AcDbEntity
  8
水栓
  6
CONTINUOUS
 62
     6
100
AcDbCircle
 10
1742.668710691058
 20
203.4333963385075
 30
0.0
 40
1220.240329147063
100
AcDbArc
 50
94.44685782769271
 51
95.20165865369175
  0
ARC
  5
25E
330
1F
100
AcDbEntity
  8
水栓
  6
CONTINUOUS
 62
     6
100
AcDbCircle
 10
1654.878072406132
 20
1399.536707363595
 30
0.0
 40
23.46401639458544
100
AcDbArc
 50
89.70226887600734
 51
106.7903727529292
  0
ARC
  5
25F
330
1F
100
AcDbEntity
  8
水栓
  6
CONTINUOUS
 62
     6
100
AcDbCircle
 10
1655.121927593869
 20
1399.536707363595
 30
0.0
 40
23.46401639458544
100
AcDbArc
 50
73.2096272470707
 51
90.29773112399253
  0
LINE
  5
260
330
1F
100
AcDbEntity
  8
水栓
  6
CONTINUOUS
 62
     6
100
AcDbLine
 10
1606.8785538213
 20
1396.999983633501
 30
0.0
 11
1614.6852815753
 21
1396.999983633501
 31
0.0
  0
ARC
  5
261
330
1F
100
AcDbEntity
  8
水栓
  6
CONTINUOUS
 62
     6
100
AcDbCircle
 10
1606.8785538213
 20
1386.7694774789
 30
0.0
 40
10.2305061545
100
AcDbArc
 50
71.77784065079878
 51
92.90781050102726
  0
LINE
  5
262
330
1F
100
AcDbEntity
  8
水栓
  6
CONTINUOUS
 62
     6
100
AcDbLine
 10
1609.8731767375
 20
1376.348994073301
 30
0.0
 11
1611.7276937039
 21
1380.119256990601
 31
0.0
  0
ARC
  5
263
330
1F
100
AcDbEntity
  8
水栓
  6
CONTINUOUS
 62
     6
100
AcDbCircle
 10
1603.5841536927
 20
1426.376433527801
 30
0.0
 40
50.4211910731
100
AcDbArc
 50
262.8348499835
 51
277.1651500164999
  0
LINE
  5
264
330
1F
100
AcDbEntity
  8
水栓
  6
CONTINUOUS
 62
     6
100
AcDbLine
 10
1617.908186249995
 20
1373.906352278773
 30
0.0
 11
1610.258037001664
 21
1381.596620968022
 31
0.0
  0
LINE
  5
265
330
1F
100
AcDbEntity
  8
水栓
  6
CONTINUOUS
 62
     6
100
AcDbLine
 10
1641.270951462711
 20
1389.066624923428
 30
0.0
 11
1626.072534168483
 21
1394.892326553504
 31
0.0
  0
ARC
  5
266
330
1F
100
AcDbEntity
  8
水栓
  6
CONTINUOUS
 62
     6
100
AcDbCircle
 10
1614.6852815753
 20
1365.1846230466
 30
0.0
 40
31.81536058690002
100
AcDbArc
 50
69.02768437944017
 51
90.00000000000001
  0
ARC
  5
267
330
1F
100
AcDbEntity
  8
水栓
  6
CONTINUOUS
 62
     6
100
AcDbCircle
 10
1560.964558557
 20
1370.718520387624
 30
0.0
 40
76.87980459712323
100
AcDbArc
 50
33.25508599303357
 51
63.45052785422816
  0
ARC
  5
268
330
1F
100
AcDbEntity
  8
水栓
  6
CONTINUOUS
 62
     6
100
AcDbCircle
 10
1560.964558557
 20
1370.718520387624
 30
0.0
 40
76.87980459712323
100
AcDbArc
 50
15.66293392819363
 51
29.43533713975609
  0
ARC
  5
269
330
1F
100
AcDbEntity
  8
水栓
  6
CONTINUOUS
 62
     6
100
AcDbCircle
 10
1558.635337774783
 20
1353.996028838527
 30
0.0
 40
116.4332555246542
100
AcDbArc
 50
36.27217949106573
 51
66.08019408175484
  0
LINE
  5
26A
330
1F
100
AcDbEntity
  8
水栓
  6
CONTINUOUS
 62
     6
100
AcDbLine
 10
1595.3275539857
 20
1439.491254083947
 30
0.0
 11
1595.3275539857
 21
1413.9999836335
 31
0.0
  0
LINE
  5
26B
330
1F
100
AcDbEntity
  8
水栓
  6
CONTINUOUS
 62
     6
100
AcDbLine
 10
1587.3275539857
 20
1439.491254083947
 30
0.0
 11
1587.3275539857
 21
1413.9999836335
 31
0.0
  0
LINE
  5
26C
330
1F
100
AcDbEntity
  8
水栓
  6
CONTINUOUS
 62
     6
100
AcDbLine
 10
1587.32755398586
 20
1439.4912540839
 30
0.0
 11
1595.3275539857
 21
1439.4912540839
 31
0.0
  0
ARC
  5
26D
330
1F
100
AcDbEntity
  8
水栓
  6
CONTINUOUS
 62
     6
100
AcDbCircle
 10
1591.3275539857
 20
1453.445812724767
 30
0.0
 40
14.5165321912665
100
AcDbArc
 50
285.9946682398234
 51
0.0
  0
ARC
  5
26E
330
1F
100
AcDbEntity
  8
水栓
  6
CONTINUOUS
 62
     6
100
AcDbCircle
 10
1591.3275539857
 20
1453.445812724767
 30
0.0
 40
14.5165321912665
100
AcDbArc
 50
179.9999999998682
 51
254.0053317601772
  0
LINE
  5
26F
330
1F
100
AcDbEntity
  8
水栓
  6
CONTINUOUS
 62
     6
100
AcDbLine
 10
1595.3275539857
 20
1413.9999836335
 30
0.0
 11
1587.3275539857
 21
1413.9999836335
 31
0.0
  0
LINE
  5
270
330
1F
100
AcDbEntity
  8
水栓
  6
CONTINUOUS
 62
     6
100
AcDbLine
 10
1605.84408617697
 20
1463.9999836335
 30
0.0
 11
1576.81102179443
 21
1463.9999836335
 31
0.0
  0
LINE
  5
271
330
1F
100
AcDbEntity
  8
水栓
  6
CONTINUOUS
 62
     6
100
AcDbLine
 10
1605.84408617697
 20
1463.9999836335
 30
0.0
 11
1605.84408617697
 21
1453.445812724767
 31
0.0
  0
LINE
  5
272
330
1F
100
AcDbEntity
  8
水栓
  6
CONTINUOUS
 62
     6
100
AcDbLine
 10
1576.81102179443
 20
1463.9999836335
 30
0.0
 11
1576.81102179443
 21
1453.445812724767
 31
0.0
  0
LINE
  5
273
330
1F
100
AcDbEntity
  8
水栓
  6
CONTINUOUS
 62
     6
100
AcDbLine
 10
1600.85599110366
 20
1468.5807427735
 30
0.0
 11
1600.85599110366
 21
1463.9999836335
 31
0.0
  0
LINE
  5
274
330
1F
100
AcDbEntity
  8
水栓
  6
CONTINUOUS
 62
     6
100
AcDbLine
 10
1581.79911686774
 20
1468.5807427735
 30
0.0
 11
1581.79911686774
 21
1463.9999836335
 31
0.0
  0
LINE
  5
275
330
1F
100
AcDbEntity
  8
水栓
  6
CONTINUOUS
 62
     6
100
AcDbLine
 10
1581.79911686774
 20
1468.5807427735
 30
0.0
 11
1600.85599110366
 21
1468.5807427735
 31
0.0
  0
ARC
  5
276
330
1F
100
AcDbEntity
  8
水栓
  6
CONTINUOUS
 62
     6
100
AcDbCircle
 10
1591.3275539857
 20
1507.4292805335
 30
0.0
 40
39.99999999999977
100
AcDbArc
 50
283.7809719071926
 51
0.0
  0
ARC
  5
277
330
1F
100
AcDbEntity
  8
水栓
  6
CONTINUOUS
 62
     6
100
AcDbCircle
 10
1591.3275539857
 20
1507.4292805335
 30
0.0
 40
39.99999999999977
100
AcDbArc
 50
180.0
 51
256.2190280928027
  0
LINE
  5
278
330
1F
100
AcDbEntity
  8
水栓
  6
CONTINUOUS
 62
     6
100
AcDbLine
 10
1631.3275539857
 20
1549.999983633501
 30
0.0
 11
1631.3275539857
 21
1507.4292805335
 31
0.0
  0
LINE
  5
279
330
1F
100
AcDbEntity
  8
水栓
  6
CONTINUOUS
 62
     6
100
AcDbLine
 10
1551.3275539857
 20
1549.999983633501
 30
0.0
 11
1551.3275539857
 21
1507.4292805335
 31
0.0
  0
LINE
  5
27A
330
1F
100
AcDbEntity
  8
水栓
  6
CONTINUOUS
 62
     6
100
AcDbLine
 10
1554.49000732209
 20
1565.588285523301
 30
0.0
 11
1628.165100649293
 21
1565.588285523301
 31
0.0
  0
ARC
  5
27B
330
1F
100
AcDbEntity
  8
水栓
  6
CONTINUOUS
 62
     6
100
AcDbCircle
 10
1591.3275539857
 20
1549.999983633501
 30
0.0
 40
39.99999999999977
100
AcDbArc
 50
0.0
 51
180.0
  0
ARC
  5
27C
330
1F
100
AcDbEntity
  8
水栓
  6
CONTINUOUS
 62
     6
100
AcDbCircle
 10
610.0535194912699
 20
1550.0
 30
0.0
 40
39.99999999999977
100
AcDbArc
 50
0.0
 51
180.0
  0
LINE
  5
27D
330
1F
100
AcDbEntity
  8
水栓
  6
CONTINUOUS
 62
     6
100
AcDbLine
 10
573.21597282766
 20
1565.5883018898
 30
0.0
 11
646.8910661548634
 21
1565.5883018898
 31
0.0
  0
LINE
  5
27E
330
1F
100
AcDbEntity
  8
水栓
  6
CONTINUOUS
 62
     6
100
AcDbLine
 10
570.0535194912701
 20
1550.0
 30
0.0
 11
570.0535194912701
 21
1507.4292969
 31
0.0
  0
LINE
  5
27F
330
1F
100
AcDbEntity
  8
水栓
  6
CONTINUOUS
 62
     6
100
AcDbLine
 10
650.0535194912701
 20
1550.0
 30
0.0
 11
650.0535194912701
 21
1507.4292969
 31
0.0
  0
ARC
  5
280
330
1F
100
AcDbEntity
  8
水栓
  6
CONTINUOUS
 62
     6
100
AcDbCircle
 10
610.0535194912701
 20
1507.4292969
 30
0.0
 40
39.99999999999977
100
AcDbArc
 50
180.0
 51
256.2190280928027
  0
ARC
  5
281
330
1F
100
AcDbEntity
  8
水栓
  6
CONTINUOUS
 62
     6
100
AcDbCircle
 10
610.0535194912701
 20
1507.4292969
 30
0.0
 40
39.99999999999977
100
AcDbArc
 50
283.7809719071926
 51
0.0
  0
LINE
  5
282
330
1F
100
AcDbEntity
  8
水栓
  6
CONTINUOUS
 62
     6
100
AcDbLine
 10
600.52508237331
 20
1468.58075914
 30
0.0
 11
619.5819566092301
 21
1468.58075914
 31
0.0
  0
LINE
  5
283
330
1F
100
AcDbEntity
  8
水栓
  6
CONTINUOUS
 62
     6
100
AcDbLine
 10
600.52508237331
 20
1468.58075914
 30
0.0
 11
600.52508237331
 21
1464.0
 31
0.0
  0
LINE
  5
284
330
1F
100
AcDbEntity
  8
水栓
  6
CONTINUOUS
 62
     6
100
AcDbLine
 10
619.5819566092304
 20
1468.58075914
 30
0.0
 11
619.5819566092304
 21
1464.0
 31
0.0
  0
LINE
  5
285
330
1F
100
AcDbEntity
  8
水栓
  6
CONTINUOUS
 62
     6
100
AcDbLine
 10
595.5369873000001
 20
1464.0
 30
0.0
 11
595.5369873000001
 21
1453.445829091266
 31
0.0
  0
LINE
  5
286
330
1F
100
AcDbEntity
  8
水栓
  6
CONTINUOUS
 62
     6
100
AcDbLine
 10
624.5700516825403
 20
1464.0
 30
0.0
 11
624.5700516825403
 21
1453.445829091266
 31
0.0
  0
LINE
  5
287
330
1F
100
AcDbEntity
  8
水栓
  6
CONTINUOUS
 62
     6
100
AcDbLine
 10
624.5700516825403
 20
1464.0
 30
0.0
 11
595.5369873000001
 21
1464.0
 31
0.0
  0
ARC
  5
288
330
1F
100
AcDbEntity
  8
水栓
  6
CONTINUOUS
 62
     6
100
AcDbCircle
 10
610.0535194912703
 20
1453.445829091266
 30
0.0
 40
14.5165321912665
100
AcDbArc
 50
179.9999999998682
 51
254.0053317601772
  0
ARC
  5
289
330
1F
100
AcDbEntity
  8
水栓
  6
CONTINUOUS
 62
     6
100
AcDbCircle
 10
610.0535194912703
 20
1453.445829091266
 30
0.0
 40
14.5165321912665
100
AcDbArc
 50
285.9946682398234
 51
0.0
  0
LINE
  5
28A
330
1F
100
AcDbEntity
  8
水栓
  6
CONTINUOUS
 62
     6
100
AcDbLine
 10
614.0535194912703
 20
1414.0
 30
0.0
 11
606.0535194912699
 21
1414.0
 31
0.0
  0
LINE
  5
28B
330
1F
100
AcDbEntity
  8
水栓
  6
CONTINUOUS
 62
     6
100
AcDbLine
 10
606.0535194912703
 20
1439.491270450447
 30
0.0
 11
606.0535194912699
 21
1414.0
 31
0.0
  0
LINE
  5
28C
330
1F
100
AcDbEntity
  8
水栓
  6
CONTINUOUS
 62
     6
100
AcDbLine
 10
614.0535194912703
 20
1439.491270450447
 30
0.0
 11
614.0535194912703
 21
1414.0
 31
0.0
  0
LINE
  5
28D
330
1F
100
AcDbEntity
  8
水栓
  6
CONTINUOUS
 62
     6
100
AcDbLine
 10
606.0535194914299
 20
1439.4912704504
 30
0.0
 11
614.0535194912701
 21
1439.4912704504
 31
0.0
  0
ARC
  5
28E
330
1F
100
AcDbEntity
  8
水栓
  6
CONTINUOUS
 62
     6
100
AcDbCircle
 10
740.7139042215641
 20
1366.936727889741
 30
0.0
 40
156.6322850485604
100
AcDbArc
 50
151.8025552487107
 51
186.207558494621
  0
ARC
  5
28F
330
1F
100
AcDbEntity
  8
水栓
  6
CONTINUOUS
 62
     6
100
AcDbCircle
 10
675.2685316445554
 20
1360.452758012014
 30
0.0
 40
130.6872238854521
100
AcDbArc
 50
127.5963295105624
 51
184.5875893609177
  0
ARC
  5
290
330
1F
100
AcDbEntity
  8
水栓
  6
CONTINUOUS
 62
     6
100
AcDbCircle
 10
795.0000000000002
 20
1413.6170959
 30
0.0
 40
5.532779100000004
100
AcDbArc
 50
7.000166889999958
 51
172.9998321500001
  0
ARC
  5
291
330
1F
100
AcDbEntity
  8
水栓
  6
CONTINUOUS
 62
     6
100
AcDbCircle
 10
718.8007704446002
 20
1329.4329917428
 30
0.0
 40
62.06800678490004
100
AcDbArc
 50
19.35149296306003
 51
54.12408288019837
  0
ARC
  5
292
330
1F
100
AcDbEntity
  8
水栓
  6
CONTINUOUS
 62
     6
100
AcDbCircle
 10
669.6279557620946
 20
1207.093437958719
 30
0.0
 40
200.0
100
AcDbArc
 50
45.60492433872655
 51
60.65620125078471
  0
LINE
  5
293
330
1F
100
AcDbEntity
  8
水栓
  6
CONTINUOUS
 62
     6
100
AcDbLine
 10
767.3495483000003
 20
1408.5004843324
 30
0.0
 11
822.6506042000002
 21
1408.5004843324
 31
0.0
  0
LINE
  5
294
330
1F
100
AcDbEntity
  8
水栓
  6
CONTINUOUS
 62
     6
100
AcDbLine
 10
767.3495483000003
 20
1408.5004843324
 30
0.0
 11
767.9081726000002
 21
1413.0506552324
 31
0.0
  0
ARC
  5
295
330
1F
100
AcDbEntity
  8
水栓
  6
CONTINUOUS
 62
     6
100
AcDbCircle
 10
773.8635254000003
 20
1412.3194540324
 30
0.0
 40
6.000000200000002
100
AcDbArc
 50
98.80786132999947
 51
173.0002288799988
  0
ARC
  5
296
330
1F
100
AcDbEntity
  8
水栓
  6
CONTINUOUS
 62
     6
100
AcDbCircle
 10
803.5711670000001
 20
1220.6075705324
 30
0.0
 40
200.0
100
AcDbArc
 50
94.46531677
 51
98.80847168000001
  0
ARC
  5
297
330
1F
100
AcDbEntity
  8
水栓
  6
CONTINUOUS
 62
     6
100
AcDbCircle
 10
786.4291382000002
 20
1220.6074179324
 30
0.0
 40
200.0
100
AcDbArc
 50
81.19152831999999
 51
85.53477477999998
  0
ARC
  5
298
330
1F
100
AcDbEntity
  8
水栓
  6
CONTINUOUS
 62
     6
100
AcDbCircle
 10
816.1366272000001
 20
1412.3193014324
 30
0.0
 40
6.000000200000002
100
AcDbArc
 50
6.999770160000155
 51
81.19068908999972
  0
LINE
  5
299
330
1F
100
AcDbEntity
  8
水栓
  6
CONTINUOUS
 62
     6
100
AcDbLine
 10
822.6506042000002
 20
1408.5004843324
 30
0.0
 11
822.0919800000001
 21
1413.0505026324
 31
0.0
  0
LINE
  5
29A
330
1F
100
AcDbEntity
  8
水栓
  6
CONTINUOUS
 62
     6
100
AcDbLine
 10
788.7973740608053
 20
1408.5004843324
 30
0.0
 11
789.5085144000002
 21
1414.2913818
 31
0.0
  0
LINE
  5
29B
330
1F
100
AcDbEntity
  8
水栓
  6
CONTINUOUS
 62
     6
100
AcDbLine
 10
801.2025651588078
 20
1408.5004843324
 30
0.0
 11
800.4916382000002
 21
1414.2913818
 31
0.0
  0
LINE
  5
29C
330
1F
100
AcDbEntity
  8
水栓
  6
CONTINUOUS
 62
     6
100
AcDbLine
 10
806.7440158818767
 20
1388.6997780108
 30
0.0
 11
815.0000000000003
 21
1350.0
 31
0.0
  0
ARC
  5
29D
330
1F
100
AcDbEntity
  8
水栓
  6
CONTINUOUS
 62
     6
100
AcDbCircle
 10
762.5294257525401
 20
1372.3202587283
 30
0.0
 40
10.3981917827
100
AcDbArc
 50
60.57591286987975
 51
127.9958358185412
  0
ARC
  5
29E
330
1F
100
AcDbEntity
  8
水栓
  6
CONTINUOUS
 62
     6
100
AcDbCircle
 10
750.3443548816001
 20
1269.1529191463
 30
0.0
 40
128.213840459
100
AcDbArc
 50
66.4096831144899
 51
89.4553942418053
  0
ARC
  5
29F
330
1F
100
AcDbEntity
  8
水栓
  6
CONTINUOUS
 62
     6
100
AcDbCircle
 10
751.7451498244402
 20
1380.3632997909
 30
0.0
 40
16.9970743912
100
AcDbArc
 50
90.61397320745004
 51
135.0886281856
  0
ARC
  5
2A0
330
1F
100
AcDbEntity
  8
水栓
  6
CONTINUOUS
 62
     6
100
AcDbCircle
 10
762.9614553667102
 20
1379.7540686414
 30
0.0
 40
16.9970743912
100
AcDbArc
 50
90.61397320745004
 51
135.0886281856
  0
LINE
  5
2A1
330
1F
100
AcDbEntity
  8
水栓
  6
CONTINUOUS
 62
     6
100
AcDbLine
 10
745.1072625278002
 20
1386.0634273329
 30
0.0
 11
733.2682274759602
 21
1386.0634273329
 31
0.0
  0
LINE
  5
2A2
330
1F
100
AcDbEntity
  8
水栓
  6
CONTINUOUS
 62
     6
100
AcDbLine
 10
750.6657553460602
 20
1376.0005960309
 30
0.0
 11
745.1072625278002
 21
1386.0634273329
 31
0.0
  0
LINE
  5
2A3
330
1F
100
AcDbEntity
  8
水栓
  6
CONTINUOUS
 62
     6
100
AcDbLine
 10
738.8267202942202
 20
1376.0005960309
 30
0.0
 11
733.2682274759602
 21
1386.0634273329
 31
0.0
  0
LINE
  5
2A4
330
1F
100
AcDbEntity
  8
水栓
  6
CONTINUOUS
 62
     6
100
AcDbLine
 10
738.8267202942202
 20
1376.0005960309
 30
0.0
 11
750.6657553460602
 21
1376.0005960309
 31
0.0
  0
LINE
  5
2A5
330
1F
100
AcDbEntity
  8
水栓
  6
CONTINUOUS
 62
     6
100
AcDbLine
 10
733.2682274759602
 20
1386.0634273329
 30
0.0
 11
740.0116394945219
 21
1392.660668338588
 31
0.0
  0
LINE
  5
2A6
330
1F
100
AcDbEntity
  8
水栓
  6
CONTINUOUS
 62
     6
100
AcDbLine
 10
745.1072625278002
 20
1386.0634273329
 30
0.0
 11
751.8506745463619
 21
1392.660668338588
 31
0.0
  0
LINE
  5
2A7
330
1F
100
AcDbEntity
  8
水栓
  6
CONTINUOUS
 62
     6
100
AcDbLine
 10
750.6657553460602
 20
1376.0005960309
 30
0.0
 11
756.1282551966355
 21
1380.514610921367
 31
0.0
  0
LINE
  5
2A8
330
1F
100
AcDbEntity
  8
水栓
  6
CONTINUOUS
 62
     6
100
AcDbLine
 10
789.6706684164005
 20
1408.5004233324
 30
0.0
 11
789.6706684164005
 21
1403.060483016
 31
0.0
  0
LINE
  5
2A9
330
1F
100
AcDbEntity
  8
水栓
  6
CONTINUOUS
 62
     6
100
AcDbLine
 10
800.3983347648007
 20
1408.5004233324
 30
0.0
 11
800.3983347648007
 21
1403.060483016
 31
0.0
  0
ARC
  5
2AA
330
1F
100
AcDbEntity
  8
水栓
  6
CONTINUOUS
 62
     6
100
AcDbCircle
 10
800.2574711964116
 20
1401.12136001689
 30
0.0
 40
1.973304385260744
100
AcDbArc
 50
48.74071048938145
 51
79.32017033772489
  0
ARC
  5
2AB
330
1F
100
AcDbEntity
  8
水栓
  6
CONTINUOUS
 62
     6
100
AcDbCircle
 10
789.7425288035896
 20
1401.12136001689
 30
0.0
 40
1.973304385260744
100
AcDbArc
 50
100.6798296622751
 51
131.2592895147447
  0
LINE
  5
2AC
330
1F
100
AcDbEntity
  8
水栓
  6
CONTINUOUS
 62
     6
100
AcDbLine
 10
800.6231653188837
 20
1403.060483016
 30
0.0
 11
789.3768346811205
 21
1403.060483016
 31
0.0
  0
LINE
  5
2AD
330
1F
100
AcDbEntity
  8
水栓
  6
CONTINUOUS
 62
     6
100
AcDbLine
 10
799.8547759632006
 20
1389.5362828332
 30
0.0
 11
799.1799841176005
 21
1388.7027413376
 31
0.0
  0
ARC
  5
2AE
330
1F
100
AcDbEntity
  8
水栓
  6
CONTINUOUS
 62
     6
100
AcDbCircle
 10
808.2381886144244
 20
1389.211590628058
 30
0.0
 40
0.511814199167523
100
AcDbArc
 50
270.1424532476763
 51
359.8100181117405
  0
LINE
  5
2AF
330
1F
100
AcDbEntity
  8
水栓
  6
CONTINUOUS
 62
     6
100
AcDbLine
 10
803.7330436304701
 20
1389.5362828332
 30
0.0
 11
804.4103754704702
 21
1388.7027413376
 31
0.0
  0
ARC
  5
2B0
330
1F
100
AcDbEntity
  8
水栓
  6
CONTINUOUS
 62
     6
100
AcDbCircle
 10
827.2356262076819
 20
1424.708514430528
 30
0.0
 40
33.88030950030249
100
AcDbArc
 50
220.7233384557307
 51
236.0135783950876
  0
ARC
  5
2B1
330
1F
100
AcDbEntity
  8
水栓
  6
CONTINUOUS
 62
     6
100
AcDbCircle
 10
762.7364085098429
 20
1424.777385181429
 30
0.0
 40
33.94645225944432
100
AcDbArc
 50
303.9440449050104
 51
319.2193593747007
  0
ARC
  5
2B2
330
1F
100
AcDbEntity
  8
水栓
  6
CONTINUOUS
 62
     6
100
AcDbCircle
 10
807.248081843095
 20
1392.137348146484
 30
0.0
 40
5.349731111917274
100
AcDbArc
 50
95.4269467490977
 51
131.1592210426746
  0
LINE
  5
2B3
330
1F
100
AcDbEntity
  8
水栓
  6
CONTINUOUS
 62
     6
100
AcDbLine
 10
803.7271360936902
 20
1396.165072566
 30
0.0
 11
803.7330436304701
 21
1389.5362828332
 31
0.0
  0
ARC
  5
2B4
330
1F
100
AcDbEntity
  8
水栓
  6
CONTINUOUS
 62
     6
100
AcDbCircle
 10
808.3158914286271
 20
1396.131458346562
 30
0.0
 40
0.4277842620041331
100
AcDbArc
 50
359.6826989962678
 51
39.37346933296691
  0
ARC
  5
2B5
330
1F
100
AcDbEntity
  8
水栓
  6
CONTINUOUS
 62
     6
100
AcDbCircle
 10
808.0806723298188
 20
1395.867572819462
 30
0.0
 40
0.778945030813095
100
AcDbArc
 50
43.40574576777736
 51
73.90234106229548
  0
LINE
  5
2B6
330
1F
100
AcDbEntity
  8
水栓
  6
CONTINUOUS
 62
     6
100
AcDbLine
 10
808.7440924632201
 20
1396.129089312
 30
0.0
 11
808.7500000000002
 21
1389.2098935528
 31
0.0
  0
ARC
  5
2B7
330
1F
100
AcDbEntity
  8
水栓
  6
CONTINUOUS
 62
     6
100
AcDbCircle
 10
782.740103083346
 20
1392.137348146484
 30
0.0
 40
5.349731111917274
100
AcDbArc
 50
48.84077895732544
 51
84.57305325090229
  0
ARC
  5
2B8
330
1F
100
AcDbEntity
  8
水栓
  6
CONTINUOUS
 62
     6
100
AcDbCircle
 10
781.6722934978139
 20
1396.131458346562
 30
0.0
 40
0.4277842620041331
100
AcDbArc
 50
140.6265306670342
 51
180.3173010037323
  0
ARC
  5
2B9
330
1F
100
AcDbEntity
  8
水栓
  6
CONTINUOUS
 62
     6
100
AcDbCircle
 10
781.9075125966219
 20
1395.867572819462
 30
0.0
 40
0.778945030813095
100
AcDbArc
 50
106.0976589377045
 51
136.5942542322198
  0
ARC
  5
2BA
330
1F
100
AcDbEntity
  8
水栓
  6
CONTINUOUS
 62
     6
100
AcDbCircle
 10
794.5735537343248
 20
1389.449047502791
 30
0.0
 40
8.047356372835944
100
AcDbArc
 50
87.00447282993213
 51
123.4296483587577
  0
ARC
  5
2BB
330
1F
100
AcDbEntity
  8
水栓
  6
CONTINUOUS
 62
     6
100
AcDbCircle
 10
795.4146311921164
 20
1389.449047502791
 30
0.0
 40
8.047356372835944
100
AcDbArc
 50
56.57035164124194
 51
92.99552717006748
  0
LINE
  5
2BC
330
1F
100
AcDbEntity
  8
水栓
  6
CONTINUOUS
 62
     6
100
AcDbLine
 10
799.8488684264208
 20
1396.165072566
 30
0.0
 11
799.8547759632006
 21
1389.5362828332
 31
0.0
  0
LINE
  5
2BD
330
1F
100
AcDbEntity
  8
水栓
  6
CONTINUOUS
 62
     6
100
AcDbLine
 10
781.2440924632206
 20
1396.129089312
 30
0.0
 11
781.246262802108
 21
1393.587082349651
 31
0.0
  0
LINE
  5
2BE
330
1F
100
AcDbEntity
  8
水栓
  6
CONTINUOUS
 62
     6
100
AcDbLine
 10
786.2610488327508
 20
1396.165072566
 30
0.0
 11
786.2645537165201
 21
1392.232276476868
 31
0.0
  0
LINE
  5
2BF
330
1F
100
AcDbEntity
  8
水栓
  6
CONTINUOUS
 62
     6
100
AcDbLine
 10
790.1397398324207
 20
1396.165072566
 30
0.0
 11
790.1443135110935
 21
1391.032992080051
 31
0.0
  0
LINE
  5
2C0
330
1F
100
AcDbEntity
  8
水栓
  6
CONTINUOUS
 62
     6
100
AcDbLine
 10
796.6837271354103
 20
1388.6997780108
 30
0.0
 11
808.2394611256004
 21
1388.6997780108
 31
0.0
  0
ARC
  5
2C1
330
1F
100
AcDbEntity
  8
水栓
  6
CONTINUOUS
 62
     6
100
AcDbCircle
 10
795.1219275938693
 20
1399.536723730095
 30
0.0
 40
23.46401639458544
100
AcDbArc
 50
73.2096272470707
 51
90.29773112399253
  0
ARC
  5
2C2
330
1F
100
AcDbEntity
  8
水栓
  6
CONTINUOUS
 62
     6
100
AcDbCircle
 10
794.8780724061319
 20
1399.536723730095
 30
0.0
 40
23.46401639458544
100
AcDbArc
 50
89.70226887600734
 51
106.7903727529292
  0
LINE
  5
2C3
330
1F
100
AcDbEntity
  8
水栓
  6
CONTINUOUS
 62
     6
100
AcDbLine
 10
788.0580900924008
 20
1420.0004233324
 30
0.0
 11
788.0580900924006
 21
1421.987734990298
 31
0.0
  0
LINE
  5
2C4
330
1F
100
AcDbEntity
  8
水栓
  6
CONTINUOUS
 62
     6
100
AcDbLine
 10
801.9000000000005
 20
1420.0004233324
 30
0.0
 11
801.9000000000005
 21
1422.0004233324
 31
0.0
  0
LINE
  5
2C5
330
1F
100
AcDbEntity
  8
水栓
  6
CONTINUOUS
 62
     6
100
AcDbLine
 10
788.0580900923992
 20
1420.0004233324
 30
0.0
 11
801.9000000000028
 21
1420.0004233324
 31
0.0
  0
LINE
  5
2C6
330
1F
100
AcDbEntity
  8
水栓
  6
CONTINUOUS
 62
     6
100
AcDbLine
 10
788.1000000000004
 20
1422.0004233324
 30
0.0
 11
801.9000000000008
 21
1422.0004233324
 31
0.0
  0
LINE
  5
2C7
330
1F
100
AcDbEntity
  8
水栓
  6
CONTINUOUS
 62
     6
100
AcDbLine
 10
788.8693001832005
 20
1422.0004233324
 30
0.0
 11
788.8693001832005
 21
1420.0004233324
 31
0.0
  0
LINE
  5
2C8
330
1F
100
AcDbEntity
  8
水栓
  6
CONTINUOUS
 62
     6
100
AcDbLine
 10
790.2044905728005
 20
1422.0004233324
 30
0.0
 11
790.2044905728005
 21
1420.0004233324
 31
0.0
  0
LINE
  5
2C9
330
1F
100
AcDbEntity
  8
水栓
  6
CONTINUOUS
 62
     6
100
AcDbLine
 10
791.8309336536006
 20
1422.0004233324
 30
0.0
 11
791.8309336536006
 21
1420.0004233324
 31
0.0
  0
LINE
  5
2CA
330
1F
100
AcDbEntity
  8
水栓
  6
CONTINUOUS
 62
     6
100
AcDbLine
 10
793.7918093304006
 20
1422.0004233324
 30
0.0
 11
793.7918093304006
 21
1420.0004233324
 31
0.0
  0
LINE
  5
2CB
330
1F
100
AcDbEntity
  8
水栓
  6
CONTINUOUS
 62
     6
100
AcDbLine
 10
796.2124239936006
 20
1422.0004233324
 30
0.0
 11
796.2124239936006
 21
1420.0004233324
 31
0.0
  0
LINE
  5
2CC
330
1F
100
AcDbEntity
  8
水栓
  6
CONTINUOUS
 62
     6
100
AcDbLine
 10
798.1728763380006
 20
1422.0004233324
 30
0.0
 11
798.1728763380006
 21
1420.0004233324
 31
0.0
  0
LINE
  5
2CD
330
1F
100
AcDbEntity
  8
水栓
  6
CONTINUOUS
 62
     6
100
AcDbLine
 10
799.7993194188007
 20
1422.0004233324
 30
0.0
 11
799.7993194188007
 21
1420.0004233324
 31
0.0
  0
LINE
  5
2CE
330
1F
100
AcDbEntity
  8
水栓
  6
CONTINUOUS
 62
     6
100
AcDbLine
 10
801.1345098084005
 20
1422.0004233324
 30
0.0
 11
801.1345098084005
 21
1420.0004233324
 31
0.0
  0
LINE
  5
2CF
330
1F
100
AcDbEntity
  8
水栓
  6
CONTINUOUS
 62
     3
100
AcDbLine
 10
903.0130965356102
 20
1533.935959115
 30
0.0
 11
963.5369873000002
 21
1533.935959115
 31
0.0
  0
CIRCLE
  5
2D0
330
1F
100
AcDbEntity
  8
水栓
  6
CONTINUOUS
 62
     6
100
AcDbCircle
 10
795.0000000000002
 20
2450.0
 30
0.0
 40
5.5000305
  0
CIRCLE
  5
2D1
330
1F
100
AcDbEntity
  8
水栓
  6
CONTINUOUS
 62
     6
100
AcDbCircle
 10
795.0000000000002
 20
2450.0
 30
0.0
 40
6.999969500000002
  0
ARC
  5
2D2
330
1F
100
AcDbEntity
  8
水栓
  6
CONTINUOUS
 62
     6
100
AcDbCircle
 10
795.0000000000002
 20
2450.0
 30
0.0
 40
20.0000381
100
AcDbArc
 50
298.3380770414001
 51
9.66231665344969
  0
ARC
  5
2D3
330
1F
100
AcDbEntity
  8
水栓
  6
CONTINUOUS
 62
     6
100
AcDbCircle
 10
795.0001525999309
 20
2450.000264310881
 30
0.0
 40
19.9999809
100
AcDbArc
 50
58.33695541631968
 51
129.6627023981
  0
ARC
  5
2D4
330
1F
100
AcDbEntity
  8
水栓
  6
CONTINUOUS
 62
     6
100
AcDbCircle
 10
586.5674372478451
 20
2585.92818116144
 30
0.0
 40
235.0000000000002
100
AcDbArc
 50
315.0000171700003
 51
324.2269471008005
  0
ARC
  5
2D5
330
1F
100
AcDbEntity
  8
水栓
  6
CONTINUOUS
 62
     6
100
AcDbCircle
 10
930.9291642637265
 20
2241.568115735204
 30
0.0
 40
235.0000000000002
100
AcDbArc
 50
127.1699116934
 51
135.0000457800001
  0
ARC
  5
2D6
330
1F
100
AcDbEntity
  8
水栓
  6
CONTINUOUS
 62
     6
100
AcDbCircle
 10
652.8938688082146
 20
2511.894135508751
 30
0.0
 40
134.9999237
100
AcDbArc
 50
315.0000343300003
 51
333.5348057256007
  0
ARC
  5
2D7
330
1F
100
AcDbEntity
  8
水栓
  6
CONTINUOUS
 62
     6
100
AcDbCircle
 10
856.8949928493017
 20
2307.894359349164
 30
0.0
 40
135.0000954
100
AcDbArc
 50
119.5792429201
 51
135.0000457800001
  0
LINE
  5
2D8
330
1F
100
AcDbEntity
  8
水栓
  6
CONTINUOUS
 62
     6
100
AcDbLine
 10
802.6049004177244
 20
2423.776854471779
 30
0.0
 11
806.0226136127773
 21
2439.375984188515
 31
0.0
  0
ARC
  5
2D9
330
1F
100
AcDbEntity
  8
水栓
  6
CONTINUOUS
 62
     6
100
AcDbCircle
 10
825.5591584490617
 20
2435.09557580575
 30
0.0
 40
20.0000286
100
AcDbArc
 50
140.3576660199992
 51
167.6419220000003
  0
LINE
  5
2DA
330
1F
100
AcDbEntity
  8
水栓
  6
CONTINUOUS
 62
     6
100
AcDbLine
 10
810.158292374484
 20
2447.855448704856
 30
0.0
 11
820.3461683382427
 21
2460.151858543381
 31
0.0
  0
ARC
  5
2DB
330
1F
100
AcDbEntity
  8
水栓
  6
CONTINUOUS
 62
     6
100
AcDbCircle
 10
815.72599987139
 20
2463.979826821362
 30
0.0
 40
5.9999418
100
AcDbArc
 50
320.3570861800038
 51
107.6433105499979
  0
LINE
  5
2DC
330
1F
100
AcDbEntity
  8
水栓
  6
CONTINUOUS
 62
     6
100
AcDbLine
 10
813.9074663865764
 20
2469.697589019416
 30
0.0
 11
798.6898157421706
 21
2464.857790365519
 31
0.0
  0
ARC
  5
2DD
330
1F
100
AcDbEntity
  8
水栓
  6
CONTINUOUS
 62
     6
100
AcDbCircle
 10
792.6282841478447
 20
2483.917116857427
 30
0.0
 40
19.9999619
100
AcDbArc
 50
260.3560943600014
 51
287.6425323500014
  0
LINE
  5
2DE
330
1F
100
AcDbEntity
  8
水栓
  6
CONTINUOUS
 62
     6
100
AcDbLine
 10
789.2778212027448
 20
2464.199792565981
 30
0.0
 11
773.5352961698983
 21
2466.874797810191
 31
0.0
  0
ARC
  5
2DF
330
1F
100
AcDbEntity
  8
水栓
  6
CONTINUOUS
 62
     6
100
AcDbCircle
 10
772.5302192236055
 20
2460.959589536519
 30
0.0
 40
5.999989500000001
100
AcDbArc
 50
80.35670471000044
 51
227.6418914799997
  0
LINE
  5
2E0
330
1F
100
AcDbEntity
  8
水栓
  6
CONTINUOUS
 62
     6
100
AcDbLine
 10
768.4876119060239
 20
2456.525860965351
 30
0.0
 11
780.2880165852806
 21
2445.766409601776
 31
0.0
  0
ARC
  5
2E1
330
1F
100
AcDbEntity
  8
水栓
  6
CONTINUOUS
 62
     6
100
AcDbCircle
 10
766.8126988867739
 20
2430.987470202958
 30
0.0
 40
20.0000191
100
AcDbArc
 50
20.35711669999962
 51
47.6416931199992
  0
LINE
  5
2E2
330
1F
100
AcDbEntity
  8
水栓
  6
CONTINUOUS
 62
     6
100
AcDbLine
 10
785.5635713213857
 20
2437.94488966776
 30
0.0
 11
791.118666430458
 21
2422.973658747812
 31
0.0
  0
ARC
  5
2E3
330
1F
100
AcDbEntity
  8
水栓
  6
CONTINUOUS
 62
     6
100
AcDbCircle
 10
796.7439118436033
 20
2425.060898743504
 30
0.0
 40
5.999996700000001
100
AcDbArc
 50
200.3573150599997
 51
347.6427002000013
  0
LINE
  5
2E4
330
1F
100
AcDbEntity
  8
水栓
  6
EXLTYPE3
 62
     6
100
AcDbLine
 10
603.1000000000007
 20
2449.999999999999
 30
0.0
 11
530.3000000000008
 21
2449.999999999999
 31
0.0
  0
ARC
  5
2E5
330
1F
100
AcDbEntity
  8
水栓
  6
CONTINUOUS
 62
     6
100
AcDbCircle
 10
565.0000000000001
 20
2450.0
 30
0.0
 40
20.0
100
AcDbArc
 50
343.3238611504538
 51
267.2412654491969
  0
LINE
  5
2E6
330
1F
100
AcDbEntity
  8
水栓
  6
EXLTYPE3
 62
     6
100
AcDbLine
 10
565.0000000000007
 20
2482.6442871
 30
0.0
 11
565.0000000000007
 21
2412.144287099999
 31
0.0
  0
LINE
  5
2E7
330
1F
100
AcDbEntity
  8
水栓
  6
CONTINUOUS
 62
     6
100
AcDbLine
 10
577.8369873
 20
2457.9442871
 30
0.0
 11
593.9980924223833
 21
2422.963919275336
 31
0.0
  0
LINE
  5
2E8
330
1F
100
AcDbEntity
  8
水栓
  6
CONTINUOUS
 62
     6
100
AcDbLine
 10
553.2370587768276
 20
2440.537803941591
 30
0.0
 11
580.8468881089744
 21
2413.658354985647
 31
0.0
  0
CIRCLE
  5
2E9
330
1F
100
AcDbEntity
  8
水栓
  6
CONTINUOUS
 62
     6
100
AcDbCircle
 10
610.0535194912701
 20
2386.3275539857
 30
0.0
 40
40.0
  0
CIRCLE
  5
2EA
330
1F
100
AcDbEntity
  8
水栓
  6
CONTINUOUS
 62
     6
100
AcDbCircle
 10
610.0535194912701
 20
2386.3275539857
 30
0.0
 40
36.83754666358995
  0
ARC
  5
2EB
330
1F
100
AcDbEntity
  8
水栓
  6
CONTINUOUS
 62
     6
100
AcDbCircle
 10
736.2681578830288
 20
2400.107124939137
 30
0.0
 40
2.999995900000002
100
AcDbArc
 50
135.001785279997
 51
203.4273223900022
  0
ARC
  5
2EC
330
1F
100
AcDbEntity
  8
水栓
  6
CONTINUOUS
 62
     6
100
AcDbCircle
 10
751.8665515151891
 20
2406.866461626436
 30
0.0
 40
20.0000286
100
AcDbArc
 50
203.42857361
 51
246.5714263900012
  0
ARC
  5
2ED
330
1F
100
AcDbEntity
  8
水栓
  6
CONTINUOUS
 62
     6
100
AcDbCircle
 10
745.1072625278001
 20
2391.268038477141
 30
0.0
 40
3.0000561
100
AcDbArc
 50
246.5712585499993
 51
314.9989471399974
  0
LINE
  5
2EE
330
1F
100
AcDbEntity
  8
水栓
  6
CONTINUOUS
 62
     6
100
AcDbLine
 10
734.1468468614707
 20
2402.228444844109
 30
0.0
 11
748.3532780013667
 21
2416.434816491907
 31
0.0
  0
LINE
  5
2EF
330
1F
100
AcDbEntity
  8
水栓
  6
CONTINUOUS
 62
     6
100
AcDbLine
 10
733.4402942747272
 20
2400.460980215404
 30
0.0
 11
752.7374779943401
 21
2419.758149030339
 31
0.0
  0
LINE
  5
2F0
330
1F
100
AcDbEntity
  8
水栓
  6
CONTINUOUS
 62
     6
100
AcDbLine
 10
745.2948419864782
 20
2388.273852352382
 30
0.0
 11
764.7591234672435
 21
2407.738147779808
 31
0.0
  0
LINE
  5
2F1
330
1F
100
AcDbEntity
  8
水栓
  6
CONTINUOUS
 62
     6
100
AcDbLine
 10
747.0315938735706
 20
2388.94968040052
 30
0.0
 11
761.4355837427473
 21
2403.353678316027
 31
0.0
  0
LINE
  5
2F2
330
1F
100
AcDbEntity
  8
止水栓
  6
CONTINUOUS
 62
     6
100
AcDbLine
 10
788.6500000000001
 20
1148.9993286
 30
0.0
 11
788.6500000000001
 21
1256.694483007686
 31
0.0
  0
LINE
  5
2F3
330
1F
100
AcDbEntity
  8
止水栓
  6
CONTINUOUS
 62
     6
100
AcDbLine
 10
801.3500000000001
 20
1148.9993286
 30
0.0
 11
801.3500000000001
 21
1269.652173542913
 31
0.0
  0
ARC
  5
2F4
330
1F
100
AcDbEntity
  8
止水栓
  6
CONTINUOUS
 62
     6
100
AcDbCircle
 10
680.0
 20
1065.0
 30
0.0
 40
30.0
100
AcDbArc
 50
295.0450009920564
 51
59.32887755564067
  0
ARC
  5
2F5
330
1F
100
AcDbEntity
  8
止水栓
  6
CONTINUOUS
 62
     6
100
AcDbCircle
 10
680.0
 20
1065.0
 30
0.0
 40
30.0
100
AcDbArc
 50
120.9637565320736
 51
244.9543922369366
  0
LINE
  5
2F6
330
1F
100
AcDbEntity
  8
止水栓
  6
EXLTYPE3
 62
     6
100
AcDbLine
 10
805.5000305000001
 20
577.0
 30
0.0
 11
784.4999695000001
 21
577.0
 31
0.0
  0
LINE
  5
2F7
330
1F
100
AcDbEntity
  8
止水栓
  6
EXLTYPE4
 62
     6
100
AcDbLine
 10
784.4999695000001
 20
577.0
 30
0.0
 11
784.4999695000001
 21
715.0104682537301
 31
0.0
  0
LINE
  5
2F8
330
1F
100
AcDbEntity
  8
止水栓
  6
EXLTYPE4
 62
     6
100
AcDbLine
 10
805.5000305000001
 20
577.0
 30
0.0
 11
805.5000305000001
 21
715.0104682537301
 31
0.0
  0
LINE
  5
2F9
330
1F
100
AcDbEntity
  8
止水栓
  6
EXLTYPE3
 62
     6
100
AcDbLine
 10
754.5369872499999
 20
1110.0
 30
0.0
 11
835.5369872499998
 21
1110.0
 31
0.0
  0
LINE
  5
2FA
330
1F
100
AcDbEntity
  8
止水栓
  6
EXLTYPE3
 62
     6
100
AcDbLine
 10
1733.63999634
 20
1109.999999999996
 30
0.0
 11
1579.0
 21
1109.999999999996
 31
0.0
  0
ARC
  5
2FB
330
1F
100
AcDbEntity
  8
止水栓
  6
CONTINUOUS
 62
     6
100
AcDbCircle
 10
1665.0
 20
1173.000000000001
 30
0.0
 40
36.35
100
AcDbArc
 50
166.3625067193881
 51
180.0
  0
ARC
  5
2FC
330
1F
100
AcDbEntity
  8
止水栓
  6
CONTINUOUS
 62
     6
100
AcDbCircle
 10
1665.0
 20
1173.000000000001
 30
0.0
 40
23.65
100
AcDbArc
 50
166.3625067193881
 51
180.0
  0
LINE
  5
2FD
330
1F
100
AcDbEntity
  8
止水栓
  6
CONTINUOUS
 62
     6
100
AcDbLine
 10
1629.674818461316
 20
1181.57053377912
 30
0.0
 11
1642.983233655842
 21
1236.423848036419
 31
0.0
  0
LINE
  5
2FE
330
1F
100
AcDbEntity
  8
止水栓
  6
CONTINUOUS
 62
     6
100
AcDbLine
 10
1642.016766344157
 20
1178.576151963582
 30
0.0
 11
1655.325181538683
 21
1233.429466220881
 31
0.0
  0
ARC
  5
2FF
330
1F
100
AcDbEntity
  8
止水栓
  6
CONTINUOUS
 62
     6
100
AcDbCircle
 10
1620.0
 20
1242.000000000001
 30
0.0
 40
23.65
100
AcDbArc
 50
346.362506719388
 51
0.0
  0
ARC
  5
300
330
1F
100
AcDbEntity
  8
止水栓
  6
CONTINUOUS
 62
     6
100
AcDbCircle
 10
1620.0
 20
1242.000000000001
 30
0.0
 40
36.35
100
AcDbArc
 50
346.362506719388
 51
0.0
  0
LINE
  5
301
330
1F
100
AcDbEntity
  8
止水栓
  6
CONTINUOUS
 62
     6
100
AcDbLine
 10
1643.649999999999
 20
1242.000000000001
 30
0.0
 11
1643.649999999999
 21
1276.44203125
 31
0.0
  0
LINE
  5
302
330
1F
100
AcDbEntity
  8
止水栓
  6
CONTINUOUS
 62
     6
100
AcDbLine
 10
1656.35
 20
1242.000000000001
 30
0.0
 11
1656.35
 21
1275.37046875
 31
0.0
  0
LINE
  5
303
330
1F
100
AcDbEntity
  8
止水栓
  6
EXLTYPE3
 62
     6
100
AcDbLine
 10
1635.0
 20
1166.8300293
 30
0.0
 11
1635.0
 21
1093.5300293
 31
0.0
  0
LINE
  5
304
330
1F
100
AcDbEntity
  8
止水栓
  6
EXLTYPE3
 62
     6
100
AcDbLine
 10
794.9999999500003
 20
569.0300293
 30
0.0
 11
794.9999999500002
 21
1262.879400345357
 31
0.0
  0
ARC
  5
305
330
1F
100
AcDbEntity
  8
止水栓
  6
CONTINUOUS
 62
     6
100
AcDbCircle
 10
794.9999999500001
 20
1110.0
 30
0.0
 40
27.4999905
100
AcDbArc
 50
114.71974182
 51
196.9602203400001
  0
ARC
  5
306
330
1F
100
AcDbEntity
  8
止水栓
  6
CONTINUOUS
 62
     6
100
AcDbCircle
 10
794.9999999500001
 20
1110.0
 30
0.0
 40
27.50002860000002
100
AcDbArc
 50
220.43508911
 51
319.56488037
  0
ARC
  5
307
330
1F
100
AcDbEntity
  8
止水栓
  6
CONTINUOUS
 62
     6
100
AcDbCircle
 10
794.9999999500001
 20
1110.0
 30
0.0
 40
27.49992370000001
100
AcDbArc
 50
343.0396423300004
 51
65.28027343999983
  0
CIRCLE
  5
308
330
1F
100
AcDbEntity
  8
止水栓
  6
CONTINUOUS
 62
     6
100
AcDbCircle
 10
794.9999999500001
 20
1110.0
 30
0.0
 40
6.999969500000002
  0
LINE
  5
309
330
1F
100
AcDbEntity
  8
止水栓
  6
CONTINUOUS
 62
     6
100
AcDbLine
 10
787.132592952024
 20
1129.500000000012
 30
0.0
 11
782.4999999499955
 21
1129.500000000012
 31
0.0
  0
LINE
  5
30A
330
1F
100
AcDbEntity
  8
止水栓
  6
CONTINUOUS
 62
     6
100
AcDbLine
 10
808.4999999500002
 20
1114.926834687083
 30
0.0
 11
808.4999999500002
 21
1128.500000000012
 31
0.0
  0
LINE
  5
30B
330
1F
100
AcDbEntity
  8
止水栓
  6
CONTINUOUS
 62
     6
100
AcDbLine
 10
781.4999999499955
 20
1114.926834687031
 30
0.0
 11
781.4999999499955
 21
1128.500000000012
 31
0.0
  0
ARC
  5
30C
330
1F
100
AcDbEntity
  8
止水栓
  6
CONTINUOUS
 62
     6
100
AcDbCircle
 10
794.9999999499951
 20
1134.99999999999
 30
0.0
 40
6.000000000000001
100
AcDbArc
 50
16.35746339780006
 51
163.64253660223
  0
ARC
  5
30D
330
1F
100
AcDbEntity
  8
止水栓
  6
CONTINUOUS
 62
     6
100
AcDbCircle
 10
816.6506350446111
 20
1097.5
 30
0.0
 40
6.000000000000001
100
AcDbArc
 50
256.3574633978
 51
43.64253660220007
  0
ARC
  5
30E
330
1F
100
AcDbEntity
  8
止水栓
  6
CONTINUOUS
 62
     6
100
AcDbCircle
 10
794.999999949986
 20
1075.999999999975
 30
0.0
 40
20.0
100
AcDbArc
 50
76.35746339780019
 51
103.6425366022002
  0
LINE
  5
30F
330
1F
100
AcDbEntity
  8
止水栓
  6
CONTINUOUS
 62
     6
100
AcDbLine
 10
815.2354532301629
 20
1091.669283025868
 30
0.0
 11
799.7172726648264
 21
1095.435723247037
 31
0.0
  0
LINE
  5
310
330
1F
100
AcDbEntity
  8
止水栓
  6
CONTINUOUS
 62
     6
100
AcDbLine
 10
790.2827272352198
 20
1095.435723247041
 30
0.0
 11
774.7645466698242
 21
1091.669283025948
 31
0.0
  0
ARC
  5
311
330
1F
100
AcDbEntity
  8
止水栓
  6
CONTINUOUS
 62
     6
100
AcDbCircle
 10
773.3493648553949
 20
1097.500000000009
 30
0.0
 40
6.000000000000001
100
AcDbArc
 50
136.3574633978002
 51
283.6425366022
  0
LINE
  5
312
330
1F
100
AcDbEntity
  8
止水栓
  6
CONTINUOUS
 62
     6
100
AcDbLine
 10
769.0074067407472
 20
1101.640941889304
 30
0.0
 11
780.0283299367552
 21
1113.196860368904
 31
0.0
  0
ARC
  5
313
330
1F
100
AcDbEntity
  8
止水栓
  6
CONTINUOUS
 62
     6
100
AcDbCircle
 10
765.5551362213296
 20
1127.0
 30
0.0
 40
20.0
100
AcDbArc
 50
316.3574633978001
 51
343.6425366022
  0
LINE
  5
314
330
1F
100
AcDbEntity
  8
止水栓
  6
CONTINUOUS
 62
     6
100
AcDbLine
 10
784.7456026515551
 20
1121.367416384096
 30
0.0
 11
789.2428600209473
 21
1136.689775084796
 31
0.0
  0
LINE
  5
315
330
1F
100
AcDbEntity
  8
止水栓
  6
CONTINUOUS
 62
     6
100
AcDbLine
 10
800.7571398790237
 20
1136.689775084752
 30
0.0
 11
805.2543972484195
 21
1121.367416384059
 31
0.0
  0
LINE
  5
316
330
1F
100
AcDbEntity
  8
止水栓
  6
CONTINUOUS
 62
     6
100
AcDbLine
 10
820.992593159263
 20
1101.640941889352
 30
0.0
 11
809.9716699632268
 21
1113.196860368863
 31
0.0
  0
ARC
  5
317
330
1F
100
AcDbEntity
  8
止水栓
  6
CONTINUOUS
 62
     6
100
AcDbCircle
 10
824.444863678686
 20
1127.000000000025
 30
0.0
 40
20.0
100
AcDbArc
 50
196.35746339777
 51
223.64253660223
  0
LINE
  5
318
330
1F
100
AcDbEntity
  8
止水栓
  6
CONTINUOUS
 62
     6
100
AcDbLine
 10
781.4999999499955
 20
1128.500000000012
 30
0.0
 11
782.4999999499955
 21
1129.500000000012
 31
0.0
  0
LINE
  5
319
330
1F
100
AcDbEntity
  8
止水栓
  6
CONTINUOUS
 62
     6
100
AcDbLine
 10
808.4999999500002
 20
1128.500000000012
 30
0.0
 11
807.4999999500001
 21
1129.500000000012
 31
0.0
  0
CIRCLE
  5
31A
330
1F
100
AcDbEntity
  8
止水栓
  6
CONTINUOUS
 62
     6
100
AcDbCircle
 10
794.9999999500005
 20
1110.0
 30
0.0
 40
6.850000000000001
  0
CIRCLE
  5
31B
330
1F
100
AcDbEntity
  8
止水栓
  6
CONTINUOUS
 62
     6
100
AcDbCircle
 10
794.9999999500005
 20
1110.0
 30
0.0
 40
6.850000000000001
  0
LINE
  5
31C
330
1F
100
AcDbEntity
  8
止水栓
  6
CONTINUOUS
 62
     6
100
AcDbLine
 10
783.4999999500005
 20
1132.00000000002
 30
0.0
 11
783.4999999500005
 21
1144.00000000002
 31
0.0
  0
LINE
  5
31D
330
1F
100
AcDbEntity
  8
止水栓
  6
CONTINUOUS
 62
     6
100
AcDbLine
 10
806.4999999500005
 20
1132.00000000002
 30
0.0
 11
806.4999999500005
 21
1144.00000000002
 31
0.0
  0
LINE
  5
31E
330
1F
100
AcDbEntity
  8
止水栓
  6
CONTINUOUS
 62
     6
100
AcDbLine
 10
805.649999950002
 20
1137.407694933352
 30
0.0
 11
805.649999950002
 21
1138.592305066688
 31
0.0
  0
LINE
  5
31F
330
1F
100
AcDbEntity
  8
止水栓
  6
CONTINUOUS
 62
     6
100
AcDbLine
 10
784.3499999499986
 20
1137.407694933352
 30
0.0
 11
784.3499999499986
 21
1138.592305066688
 31
0.0
  0
LINE
  5
320
330
1F
100
AcDbEntity
  8
止水栓
  6
CONTINUOUS
 62
     6
100
AcDbLine
 10
783.4999999500005
 20
1144.00000000002
 30
0.0
 11
806.4999999500005
 21
1144.00000000002
 31
0.0
  0
LINE
  5
321
330
1F
100
AcDbEntity
  8
止水栓
  6
CONTINUOUS
 62
     6
100
AcDbLine
 10
784.522499950004
 20
1131.512643038402
 30
0.0
 11
785.6844999500029
 21
1131.512643038402
 31
0.0
  0
LINE
  5
322
330
1F
100
AcDbEntity
  8
止水栓
  6
CONTINUOUS
 62
     6
100
AcDbLine
 10
785.6844999500029
 20
1132.00000000002
 30
0.0
 11
785.6844999500029
 21
1131.512643038402
 31
0.0
  0
LINE
  5
323
330
1F
100
AcDbEntity
  8
止水栓
  6
CONTINUOUS
 62
     6
100
AcDbLine
 10
804.3154999500041
 20
1132.00000000002
 30
0.0
 11
804.3154999500041
 21
1131.512643038402
 31
0.0
  0
LINE
  5
324
330
1F
100
AcDbEntity
  8
止水栓
  6
CONTINUOUS
 62
     6
100
AcDbLine
 10
785.6844999500029
 20
1132.00000000002
 30
0.0
 11
785.6844999500029
 21
1131.512643038402
 31
0.0
  0
LINE
  5
325
330
1F
100
AcDbEntity
  8
止水栓
  6
CONTINUOUS
 62
     6
100
AcDbLine
 10
805.4774999500037
 20
1129.500000000001
 30
0.0
 11
804.3154999500041
 21
1131.512643038402
 31
0.0
  0
LINE
  5
326
330
1F
100
AcDbEntity
  8
止水栓
  6
CONTINUOUS
 62
     6
100
AcDbLine
 10
784.5224999500028
 20
1129.500000000001
 30
0.0
 11
785.6844999500029
 21
1131.512643038402
 31
0.0
  0
LINE
  5
327
330
1F
100
AcDbEntity
  8
止水栓
  6
CONTINUOUS
 62
     6
100
AcDbLine
 10
784.5224999500039
 20
1132.00000000002
 30
0.0
 11
784.5224999500039
 21
1129.500000000012
 31
0.0
  0
LINE
  5
328
330
1F
100
AcDbEntity
  8
止水栓
  6
CONTINUOUS
 62
     6
100
AcDbLine
 10
805.477499950003
 20
1132.00000000002
 30
0.0
 11
805.4774999500029
 21
1129.500000000012
 31
0.0
  0
LINE
  5
329
330
1F
100
AcDbEntity
  8
止水栓
  6
CONTINUOUS
 62
     6
100
AcDbLine
 10
807.4999999499996
 20
1129.500000000012
 30
0.0
 11
802.8674069479368
 21
1129.500000000012
 31
0.0
  0
ARC
  5
32A
330
1F
100
AcDbEntity
  8
止水栓
  6
CONTINUOUS
 62
     6
100
AcDbCircle
 10
789.2499999499992
 20
1138.592305066688
 30
0.0
 40
4.900000000001684
100
AcDbArc
 50
27.2496958890704
 51
180.0
  0
ARC
  5
32B
330
1F
100
AcDbEntity
  8
止水栓
  6
CONTINUOUS
 62
     6
100
AcDbCircle
 10
800.749999950001
 20
1138.592305066688
 30
0.0
 40
4.900000000001684
100
AcDbArc
 50
0.0
 51
152.7503041109563
  0
ARC
  5
32C
330
1F
100
AcDbEntity
  8
止水栓
  6
CONTINUOUS
 62
     6
100
AcDbCircle
 10
800.749999950001
 20
1137.407694933352
 30
0.0
 40
4.900000000001684
100
AcDbArc
 50
284.0727880517863
 51
0.0
  0
ARC
  5
32D
330
1F
100
AcDbEntity
  8
止水栓
  6
CONTINUOUS
 62
     6
100
AcDbCircle
 10
789.2499999499992
 20
1137.407694933352
 30
0.0
 40
4.900000000001684
100
AcDbArc
 50
180.0
 51
255.9272119477573
  0
LINE
  5
32E
330
1F
100
AcDbEntity
  8
止水栓
  6
CONTINUOUS
 62
     6
100
AcDbLine
 10
1611.000000000014
 20
1105.25
 30
0.0
 11
1597.900449696486
 21
1105.25
 31
0.0
  0
LINE
  5
32F
330
1F
100
AcDbEntity
  8
止水栓
  6
CONTINUOUS
 62
     6
100
AcDbLine
 10
1611.000000000014
 20
1114.750000000001
 30
0.0
 11
1597.900449696486
 21
1114.750000000001
 31
0.0
  0
LINE
  5
330
330
1F
100
AcDbEntity
  8
止水栓
  6
CONTINUOUS
 62
     6
100
AcDbLine
 10
1624.522500000004
 20
1131.512643038402
 30
0.0
 11
1625.684500000003
 21
1131.512643038402
 31
0.0
  0
LINE
  5
331
330
1F
100
AcDbEntity
  8
止水栓
  6
CONTINUOUS
 62
     6
100
AcDbLine
 10
1624.522500000004
 20
1131.512643038401
 30
0.0
 11
1645.477500000003
 21
1131.512643038402
 31
0.0
  0
LINE
  5
332
330
1F
100
AcDbEntity
  8
止水栓
  6
CONTINUOUS
 62
     6
100
AcDbLine
 10
1625.684500000003
 20
1132.00000000002
 30
0.0
 11
1625.684500000003
 21
1131.512643038402
 31
0.0
  0
LINE
  5
333
330
1F
100
AcDbEntity
  8
止水栓
  6
CONTINUOUS
 62
     6
100
AcDbLine
 10
1644.315500000004
 20
1132.00000000002
 30
0.0
 11
1644.315500000004
 21
1131.512643038402
 31
0.0
  0
LINE
  5
334
330
1F
100
AcDbEntity
  8
止水栓
  6
CONTINUOUS
 62
     6
100
AcDbLine
 10
1625.684500000003
 20
1132.00000000002
 30
0.0
 11
1625.684500000003
 21
1131.512643038402
 31
0.0
  0
ARC
  5
335
330
1F
100
AcDbEntity
  8
止水栓
  6
CONTINUOUS
 62
     6
100
AcDbCircle
 10
1636.589285714306
 20
1138.00000000002
 30
0.0
 40
11.16071428571
100
AcDbArc
 50
327.4795905833994
 51
32.5204094166201
  0
LINE
  5
336
330
1F
100
AcDbEntity
  8
止水栓
  6
CONTINUOUS
 62
     6
100
AcDbLine
 10
1623.999999999997
 20
1144.00000000002
 30
0.0
 11
1646.000000000006
 21
1144.00000000002
 31
0.0
  0
ARC
  5
337
330
1F
100
AcDbEntity
  8
止水栓
  6
CONTINUOUS
 62
     6
100
AcDbCircle
 10
1633.410714285706
 20
1138.00000000002
 30
0.0
 40
11.16071428571
100
AcDbArc
 50
147.4795905833994
 51
212.5204094166006
  0
ELLIPSE
  5
338
330
1F
100
AcDbEntity
  8
止水栓
  6
CONTINUOUS
 62
     6
100
AcDbEllipse
 10
1625.039569468466
 20
1138.00000000002
 30
0.0
 11
-1.009017125273216E-15
 21
-5.492833394770001
 31
0.0
210
0.0
220
0.0
230
1.0
 40
0.5009973991492653
 41
0.0
 42
6.283185307179586
  0
CIRCLE
  5
339
330
1F
100
AcDbEntity
  8
止水栓
  6
CONTINUOUS
 62
     6
100
AcDbCircle
 10
1634.989201700206
 20
1138.00000000002
 30
0.0
 40
5.492844008880002
  0
LINE
  5
33A
330
1F
100
AcDbEntity
  8
止水栓
  6
CONTINUOUS
 62
     6
100
AcDbLine
 10
1623.999999999996
 20
1132.00000000002
 30
0.0
 11
1646.000000000016
 21
1132.00000000002
 31
0.0
  0
ELLIPSE
  5
33B
330
1F
100
AcDbEntity
  8
止水栓
  6
CONTINUOUS
 62
     6
100
AcDbEllipse
 10
1644.960430531546
 20
1138.00000000002
 30
0.0
 11
3.363390417577386E-16
 21
5.492833394770001
 31
0.0
210
0.0
220
0.0
230
1.0
 40
0.5009973991492653
 41
0.0
 42
6.283185307179586
  0
LINE
  5
33C
330
1F
100
AcDbEntity
  8
止水栓
  6
CONTINUOUS
 62
     6
100
AcDbLine
 10
1718.000000000006
 20
1082.5
 30
0.0
 11
1720.000000000006
 21
1082.5
 31
0.0
  0
ARC
  5
33D
330
1F
100
AcDbEntity
  8
止水栓
  6
CONTINUOUS
 62
     6
100
AcDbCircle
 10
1718.000000000006
 20
1095.5
 30
0.0
 40
13.00000000000001
100
AcDbArc
 50
206.0514678999996
 51
269.999999999999
  0
LINE
  5
33E
330
1F
100
AcDbEntity
  8
止水栓
  6
CONTINUOUS
 62
     6
100
AcDbLine
 10
1720.000000000006
 20
1120.5275116
 30
0.0
 11
1728.477401730006
 21
1120.2625885
 31
0.0
  0
LINE
  5
33F
330
1F
100
AcDbEntity
  8
止水栓
  6
CONTINUOUS
 62
     6
100
AcDbLine
 10
1704.000000000006
 20
1122.6437224436
 30
0.0
 11
1704.000000000006
 21
1097.3562775464
 31
0.0
  0
ARC
  5
340
330
1F
100
AcDbEntity
  8
止水栓
  6
CONTINUOUS
 62
     6
100
AcDbCircle
 10
1729.050323490006
 20
1119.09809875
 30
0.0
 40
25.30000305
100
AcDbArc
 50
153.9485168500002
 51
171.9438666039
  0
ARC
  5
341
330
1F
100
AcDbEntity
  8
止水栓
  6
CONTINUOUS
 62
     6
100
AcDbCircle
 10
1718.000000000006
 20
1124.5
 30
0.0
 40
13.00000000000001
100
AcDbArc
 50
89.99999999999899
 51
153.9485320999996
  0
LINE
  5
342
330
1F
100
AcDbEntity
  8
止水栓
  6
CONTINUOUS
 62
     6
100
AcDbLine
 10
1718.000000000006
 20
1137.5
 30
0.0
 11
1720.000000000006
 21
1137.5
 31
0.0
  0
LINE
  5
343
330
1F
100
AcDbEntity
  8
止水栓
  6
CONTINUOUS
 62
     6
100
AcDbLine
 10
1720.000000000006
 20
1137.5
 30
0.0
 11
1720.000000000006
 21
1082.5
 31
0.0
  0
LINE
  5
344
330
1F
100
AcDbEntity
  8
止水栓
  6
CONTINUOUS
 62
     6
100
AcDbLine
 10
1728.477401730006
 20
1099.7374115
 30
0.0
 11
1728.477401730006
 21
1120.2625885
 31
0.0
  0
LINE
  5
345
330
1F
100
AcDbEntity
  8
止水栓
  6
CONTINUOUS
 62
     6
100
AcDbLine
 10
1728.477401730006
 20
1120.2625885
 30
0.0
 11
1729.839996340006
 21
1118.8999939
 31
0.0
  0
LINE
  5
346
330
1F
100
AcDbEntity
  8
止水栓
  6
CONTINUOUS
 62
     6
100
AcDbLine
 10
1729.839996340006
 20
1118.8999939
 30
0.0
 11
1729.839996340006
 21
1101.1000061
 31
0.0
  0
LINE
  5
347
330
1F
100
AcDbEntity
  8
止水栓
  6
CONTINUOUS
 62
     6
100
AcDbLine
 10
1728.477401730006
 20
1099.7374115
 30
0.0
 11
1729.839996340006
 21
1101.1000061
 31
0.0
  0
LINE
  5
348
330
1F
100
AcDbEntity
  8
止水栓
  6
CONTINUOUS
 62
     6
100
AcDbLine
 10
1720.000000000006
 20
1099.4724980154
 30
0.0
 11
1728.477401730006
 21
1099.7374115
 31
0.0
  0
LINE
  5
349
330
1F
100
AcDbEntity
  8
止水栓
  6
CONTINUOUS
 62
     6
100
AcDbLine
 10
1720.000000000006
 20
1119.35250854
 30
0.0
 11
1729.690307620006
 21
1119.04968262
 31
0.0
  0
LINE
  5
34A
330
1F
100
AcDbEntity
  8
止水栓
  6
CONTINUOUS
 62
     6
100
AcDbLine
 10
1720.000000000006
 20
1100.6475009678
 30
0.0
 11
1729.690307620006
 21
1100.95031738
 31
0.0
  0
LINE
  5
34B
330
1F
100
AcDbEntity
  8
止水栓
  6
CONTINUOUS
 62
     6
100
AcDbLine
 10
1663.000000000006
 20
1120.4750019876
 30
0.0
 11
1663.799957280006
 21
1120.5
 31
0.0
  0
LINE
  5
34C
330
1F
100
AcDbEntity
  8
止水栓
  6
CONTINUOUS
 62
     6
100
AcDbLine
 10
1666.339996340006
 20
1119.40437317
 30
0.0
 11
1668.237686160006
 21
1120.5
 31
0.0
  0
LINE
  5
34D
330
1F
100
AcDbEntity
  8
止水栓
  6
CONTINUOUS
 62
     6
100
AcDbLine
 10
1666.339996340006
 20
1119.40437317
 30
0.0
 11
1663.000000000006
 21
1119.3000002493
 31
0.0
  0
LINE
  5
34E
330
1F
100
AcDbEntity
  8
止水栓
  6
CONTINUOUS
 62
     6
100
AcDbLine
 10
1621.500000000001
 20
1128.500000000012
 30
0.0
 11
1622.500000000001
 21
1129.500000000012
 31
0.0
  0
LINE
  5
34F
330
1F
100
AcDbEntity
  8
止水栓
  6
CONTINUOUS
 62
     6
100
AcDbLine
 10
1648.500000000005
 20
1128.500000000012
 30
0.0
 11
1647.500000000005
 21
1129.500000000012
 31
0.0
  0
LINE
  5
350
330
1F
100
AcDbEntity
  8
止水栓
  6
CONTINUOUS
 62
     6
100
AcDbLine
 10
1612.000000000014
 20
1096.500000000012
 30
0.0
 11
1653.000000000001
 21
1096.500000000012
 31
0.0
  0
LINE
  5
351
330
1F
100
AcDbEntity
  8
止水栓
  6
CONTINUOUS
 62
     6
100
AcDbLine
 10
1612.000000000014
 20
1096.500000000012
 30
0.0
 11
1611.000000000014
 21
1097.500000000012
 31
0.0
  0
LINE
  5
352
330
1F
100
AcDbEntity
  8
止水栓
  6
CONTINUOUS
 62
     6
100
AcDbLine
 10
1611.000000000014
 20
1097.500000000012
 30
0.0
 11
1611.000000000014
 21
1122.5
 31
0.0
  0
LINE
  5
353
330
1F
100
AcDbEntity
  8
止水栓
  6
CONTINUOUS
 62
     6
100
AcDbLine
 10
1611.000000000014
 20
1122.5
 30
0.0
 11
1612.000000000014
 21
1123.5
 31
0.0
  0
LINE
  5
354
330
1F
100
AcDbEntity
  8
止水栓
  6
CONTINUOUS
 62
     6
100
AcDbLine
 10
1612.000000000014
 20
1123.5
 30
0.0
 11
1617.500000000001
 21
1123.5
 31
0.0
  0
LINE
  5
355
330
1F
100
AcDbEntity
  8
止水栓
  6
CONTINUOUS
 62
     6
100
AcDbLine
 10
1621.500000000001
 20
1126.5
 30
0.0
 11
1621.500000000001
 21
1128.500000000012
 31
0.0
  0
LINE
  5
356
330
1F
100
AcDbEntity
  8
止水栓
  6
CONTINUOUS
 62
     6
100
AcDbLine
 10
1618.500000000001
 20
1123.5
 30
0.0
 11
1615.500000000006
 21
1123.5
 31
0.0
  0
ARC
  5
357
330
1F
100
AcDbEntity
  8
止水栓
  6
CONTINUOUS
 62
     6
100
AcDbCircle
 10
1618.500000000001
 20
1126.5
 30
0.0
 40
3.0
100
AcDbArc
 50
270.0
 51
0.0
  0
LINE
  5
358
330
1F
100
AcDbEntity
  8
止水栓
  6
CONTINUOUS
 62
     6
100
AcDbLine
 10
1653.00000000001
 20
1123.500000000002
 30
0.0
 11
1651.500000000005
 21
1123.500000000002
 31
0.0
  0
LINE
  5
359
330
1F
100
AcDbEntity
  8
止水栓
  6
CONTINUOUS
 62
     6
100
AcDbLine
 10
1648.500000000005
 20
1126.500000000002
 30
0.0
 11
1648.500000000005
 21
1128.500000000012
 31
0.0
  0
ARC
  5
35A
330
1F
100
AcDbEntity
  8
止水栓
  6
CONTINUOUS
 62
     6
100
AcDbCircle
 10
1651.500000000005
 20
1126.500000000002
 30
0.0
 40
3.0
100
AcDbArc
 50
180.0
 51
270.0
  0
LINE
  5
35B
330
1F
100
AcDbEntity
  8
止水栓
  6
CONTINUOUS
 62
     6
100
AcDbLine
 10
1647.500000000005
 20
1129.500000000012
 30
0.0
 11
1622.500000000001
 21
1129.500000000012
 31
0.0
  0
LINE
  5
35C
330
1F
100
AcDbEntity
  8
止水栓
  6
CONTINUOUS
 62
     6
100
AcDbLine
 10
1652.982609375213
 20
1123.500000000002
 30
0.0
 11
1654.685792669321
 21
1126.450000000001
 31
0.0
  0
ARC
  5
35D
330
1F
100
AcDbEntity
  8
止水栓
  6
CONTINUOUS
 62
     6
100
AcDbCircle
 10
1658.769077984218
 20
1122.349999999991
 30
0.0
 40
5.786468609005347
100
AcDbArc
 50
165.1170287414822
 51
225.1170287413561
  0
LINE
  5
35E
330
1F
100
AcDbEntity
  8
止水栓
  6
CONTINUOUS
 62
     6
100
AcDbLine
 10
1663.000000000007
 20
1123.75000000001
 30
0.0
 11
1660.300000000017
 21
1126.45
 31
0.0
  0
LINE
  5
35F
330
1F
100
AcDbEntity
  8
止水栓
  6
CONTINUOUS
 62
     6
100
AcDbLine
 10
1660.300000000016
 20
1126.450000000001
 30
0.0
 11
1654.685792669321
 21
1126.450000000001
 31
0.0
  0
LINE
  5
360
330
1F
100
AcDbEntity
  8
止水栓
  6
CONTINUOUS
 62
     6
100
AcDbLine
 10
1660.300000000018
 20
1118.250000000001
 30
0.0
 11
1654.685792669317
 21
1118.250000000002
 31
0.0
  0
ARC
  5
361
330
1F
100
AcDbEntity
  8
止水栓
  6
CONTINUOUS
 62
     6
100
AcDbCircle
 10
1658.537037037038
 20
1122.35
 30
0.0
 40
4.462962962968728
100
AcDbArc
 50
293.2672679980691
 51
23.26726799807452
  0
LINE
  5
362
330
1F
100
AcDbEntity
  8
止水栓
  6
CONTINUOUS
 62
     6
100
AcDbLine
 10
1622.703675805146
 20
1122.10367580514
 30
0.0
 11
1633.403675805146
 21
1111.40367580514
 31
0.0
  0
LINE
  5
363
330
1F
100
AcDbEntity
  8
止水栓
  6
CONTINUOUS
 62
     6
100
AcDbLine
 10
1647.29632419486
 20
1122.10367580514
 30
0.0
 11
1636.59632419486
 21
1111.40367580514
 31
0.0
  0
LINE
  5
364
330
1F
100
AcDbEntity
  8
止水栓
  6
CONTINUOUS
 62
     6
100
AcDbLine
 10
1663.717996340006
 20
1120.5
 30
0.0
 11
1704.000000000006
 21
1120.5
 31
0.0
  0
LINE
  5
365
330
1F
100
AcDbEntity
  8
止水栓
  6
CONTINUOUS
 62
     6
100
AcDbLine
 10
1645.477500000004
 20
1129.500000000001
 30
0.0
 11
1644.315500000004
 21
1131.512643038402
 31
0.0
  0
LINE
  5
366
330
1F
100
AcDbEntity
  8
止水栓
  6
CONTINUOUS
 62
     6
100
AcDbLine
 10
1666.339996340006
 20
1119.40437317
 30
0.0
 11
1666.339996340006
 21
1120.5
 31
0.0
  0
LINE
  5
367
330
1F
100
AcDbEntity
  8
止水栓
  6
CONTINUOUS
 62
     6
100
AcDbLine
 10
1666.339996340006
 20
1120.5
 30
0.0
 11
1666.339996340006
 21
1119.40437317
 31
0.0
  0
LINE
  5
368
330
1F
100
AcDbEntity
  8
止水栓
  6
CONTINUOUS
 62
     6
100
AcDbLine
 10
1666.339996340006
 20
1119.40437317
 30
0.0
 11
1668.237686160006
 21
1120.5
 31
0.0
  0
LINE
  5
369
330
1F
100
AcDbEntity
  8
止水栓
  6
CONTINUOUS
 62
     6
100
AcDbLine
 10
1662.692791773352
 20
1120.467899742914
 30
0.0
 11
1663.000000000006
 21
1121.0
 31
0.0
  0
LINE
  5
36A
330
1F
100
AcDbEntity
  8
止水栓
  6
CONTINUOUS
 62
     6
100
AcDbLine
 10
1663.000000000004
 20
1110.0
 30
0.0
 11
1663.000000000004
 21
1123.750000000001
 31
0.0
  0
ARC
  5
36B
330
1F
100
AcDbEntity
  8
止水栓
  6
CONTINUOUS
 62
     6
100
AcDbCircle
 10
1649.045833333297
 20
1110.0
 30
0.0
 40
13.95416666670988
100
AcDbArc
 50
0.0
 51
36.24372049567449
  0
ARC
  5
36C
330
1F
100
AcDbEntity
  8
止水栓
  6
CONTINUOUS
 62
     6
100
AcDbCircle
 10
1673.815168495182
 20
1110.0
 30
0.0
 40
20.83255911996942
100
AcDbArc
 50
156.6707256133634
 51
179.9999999999994
  0
LINE
  5
36D
330
1F
100
AcDbEntity
  8
止水栓
  6
CONTINUOUS
 62
     6
100
AcDbLine
 10
1652.982609375213
 20
1110.0
 30
0.0
 11
1652.982609375213
 21
1123.500000000002
 31
0.0
  0
LINE
  5
36E
330
1F
100
AcDbEntity
  8
止水栓
  6
CONTINUOUS
 62
     6
100
AcDbLine
 10
1666.339996340006
 20
1110.0
 30
0.0
 11
1666.339996340006
 21
1120.5
 31
0.0
  0
LINE
  5
36F
330
1F
100
AcDbEntity
  8
止水栓
  6
CONTINUOUS
 62
     6
100
AcDbLine
 10
1624.522500000003
 20
1129.500000000001
 30
0.0
 11
1625.684500000003
 21
1131.512643038402
 31
0.0
  0
LINE
  5
370
330
1F
100
AcDbEntity
  8
止水栓
  6
CONTINUOUS
 62
     6
100
AcDbLine
 10
1624.522500000004
 20
1132.00000000002
 30
0.0
 11
1624.522500000004
 21
1129.500000000012
 31
0.0
  0
LINE
  5
371
330
1F
100
AcDbEntity
  8
止水栓
  6
CONTINUOUS
 62
     6
100
AcDbLine
 10
1645.477500000003
 20
1132.00000000002
 30
0.0
 11
1645.477500000003
 21
1129.500000000012
 31
0.0
  0
LINE
  5
372
330
1F
100
AcDbEntity
  8
止水栓
  6
CONTINUOUS
 62
     6
100
AcDbLine
 10
1663.000000000006
 20
1099.524998012401
 30
0.0
 11
1663.799957280006
 21
1099.500000000001
 31
0.0
  0
LINE
  5
373
330
1F
100
AcDbEntity
  8
止水栓
  6
CONTINUOUS
 62
     6
100
AcDbLine
 10
1666.339996340006
 20
1100.595626830001
 30
0.0
 11
1668.237686160006
 21
1099.500000000001
 31
0.0
  0
LINE
  5
374
330
1F
100
AcDbEntity
  8
止水栓
  6
CONTINUOUS
 62
     6
100
AcDbLine
 10
1666.339996340006
 20
1100.595626830001
 30
0.0
 11
1663.000000000006
 21
1100.699999750701
 31
0.0
  0
LINE
  5
375
330
1F
100
AcDbEntity
  8
止水栓
  6
CONTINUOUS
 62
     6
100
AcDbLine
 10
1652.982609375213
 20
1096.499999999999
 30
0.0
 11
1654.685792669321
 21
1093.55
 31
0.0
  0
ARC
  5
376
330
1F
100
AcDbEntity
  8
止水栓
  6
CONTINUOUS
 62
     6
100
AcDbCircle
 10
1658.769077984218
 20
1097.65000000001
 30
0.0
 40
5.786468609005347
100
AcDbArc
 50
134.8829712586407
 51
194.8829712585135
  0
LINE
  5
377
330
1F
100
AcDbEntity
  8
止水栓
  6
CONTINUOUS
 62
     6
100
AcDbLine
 10
1663.000000000007
 20
1096.249999999991
 30
0.0
 11
1660.300000000017
 21
1093.550000000001
 31
0.0
  0
LINE
  5
378
330
1F
100
AcDbEntity
  8
止水栓
  6
CONTINUOUS
 62
     6
100
AcDbLine
 10
1660.300000000016
 20
1093.55
 30
0.0
 11
1654.685792669321
 21
1093.55
 31
0.0
  0
LINE
  5
379
330
1F
100
AcDbEntity
  8
止水栓
  6
CONTINUOUS
 62
     6
100
AcDbLine
 10
1660.300000000018
 20
1101.75
 30
0.0
 11
1654.685792669317
 21
1101.75
 31
0.0
  0
ARC
  5
37A
330
1F
100
AcDbEntity
  8
止水栓
  6
CONTINUOUS
 62
     6
100
AcDbCircle
 10
1658.537037037038
 20
1097.650000000001
 30
0.0
 40
4.462962962968728
100
AcDbArc
 50
336.7327320019243
 51
66.73273200193088
  0
LINE
  5
37B
330
1F
100
AcDbEntity
  8
止水栓
  6
CONTINUOUS
 62
     6
100
AcDbLine
 10
1666.339996340006
 20
1100.595626830001
 30
0.0
 11
1666.339996340006
 21
1099.500000000001
 31
0.0
  0
LINE
  5
37C
330
1F
100
AcDbEntity
  8
止水栓
  6
CONTINUOUS
 62
     6
100
AcDbLine
 10
1666.339996340006
 20
1099.500000000001
 30
0.0
 11
1666.339996340006
 21
1100.595626830001
 31
0.0
  0
LINE
  5
37D
330
1F
100
AcDbEntity
  8
止水栓
  6
CONTINUOUS
 62
     6
100
AcDbLine
 10
1666.339996340006
 20
1100.595626830001
 30
0.0
 11
1668.237686160006
 21
1099.500000000001
 31
0.0
  0
LINE
  5
37E
330
1F
100
AcDbEntity
  8
止水栓
  6
CONTINUOUS
 62
     6
100
AcDbLine
 10
1662.692791773352
 20
1099.532100257087
 30
0.0
 11
1663.000000000006
 21
1099.000000000001
 31
0.0
  0
LINE
  5
37F
330
1F
100
AcDbEntity
  8
止水栓
  6
CONTINUOUS
 62
     6
100
AcDbLine
 10
1663.000000000004
 20
1110.000000000001
 30
0.0
 11
1663.000000000004
 21
1096.25
 31
0.0
  0
ARC
  5
380
330
1F
100
AcDbEntity
  8
止水栓
  6
CONTINUOUS
 62
     6
100
AcDbCircle
 10
1649.045833333297
 20
1110.000000000002
 30
0.0
 40
13.95416666670988
100
AcDbArc
 50
323.756279504324
 51
0.0
  0
ARC
  5
381
330
1F
100
AcDbEntity
  8
止水栓
  6
CONTINUOUS
 62
     6
100
AcDbCircle
 10
1673.815168495182
 20
1110.0
 30
0.0
 40
20.83255911996942
100
AcDbArc
 50
179.9999999999994
 51
203.3292743866355
  0
LINE
  5
382
330
1F
100
AcDbEntity
  8
止水栓
  6
CONTINUOUS
 62
     6
100
AcDbLine
 10
1652.982609375213
 20
1110.000000000001
 30
0.0
 11
1652.982609375213
 21
1096.499999999999
 31
0.0
  0
LINE
  5
383
330
1F
100
AcDbEntity
  8
止水栓
  6
CONTINUOUS
 62
     6
100
AcDbLine
 10
1666.339996340006
 20
1110.000000000001
 30
0.0
 11
1666.339996340006
 21
1099.500000000001
 31
0.0
  0
LINE
  5
384
330
1F
100
AcDbEntity
  8
止水栓
  6
CONTINUOUS
 62
     6
100
AcDbLine
 10
1663.717996340006
 20
1099.5
 30
0.0
 11
1704.000000000006
 21
1099.5
 31
0.0
  0
ARC
  5
385
330
1F
100
AcDbEntity
  8
止水栓
  6
CONTINUOUS
 62
     6
100
AcDbCircle
 10
1729.050323490006
 20
1100.901901250001
 30
0.0
 40
25.30000305
100
AcDbArc
 50
188.0561333961
 51
206.0514831499999
  0
LINE
  5
386
330
1F
100
AcDbEntity
  8
止水栓
  6
CONTINUOUS
 62
     6
100
AcDbLine
 10
1586.900449696482
 20
1116.137435120913
 30
0.0
 11
1588.483287692328
 21
1135.131491071063
 31
0.0
  0
ARC
  5
387
330
1F
100
AcDbEntity
  8
止水栓
  6
CONTINUOUS
 62
     6
100
AcDbCircle
 10
1594.861180545095
 20
1134.599999999999
 30
0.0
 40
6.400000000000001
100
AcDbArc
 50
90.00000000000001
 51
175.2363583092772
  0
LINE
  5
388
330
1F
100
AcDbEntity
  8
止水栓
  6
CONTINUOUS
 62
     6
100
AcDbLine
 10
1594.861180545095
 20
1141.0
 30
0.0
 11
1597.900449696482
 21
1141.0
 31
0.0
  0
LINE
  5
389
330
1F
100
AcDbEntity
  8
止水栓
  6
CONTINUOUS
 62
     6
100
AcDbLine
 10
1586.900449696482
 20
1103.821426936992
 30
0.0
 11
1588.332231100458
 21
1095.683894621661
 31
0.0
  0
ARC
  5
38A
330
1F
100
AcDbEntity
  8
止水栓
  6
CONTINUOUS
 62
     6
100
AcDbCircle
 10
1593.158101641111
 20
1096.532996220323
 30
0.0
 40
4.9
100
AcDbArc
 50
189.9789316680603
 51
270.0
  0
LINE
  5
38B
330
1F
100
AcDbEntity
  8
止水栓
  6
CONTINUOUS
 62
     6
100
AcDbLine
 10
1593.158101641111
 20
1091.632996220322
 30
0.0
 11
1597.900449696482
 21
1091.632996220322
 31
0.0
  0
LINE
  5
38C
330
1F
100
AcDbEntity
  8
止水栓
  6
CONTINUOUS
 62
     6
100
AcDbLine
 10
1586.900449696482
 20
1116.85
 30
0.0
 11
1586.900449696482
 21
1103.15
 31
0.0
  0
LINE
  5
38D
330
1F
100
AcDbEntity
  8
止水栓
  6
CONTINUOUS
 62
     6
100
AcDbLine
 10
1584.900449696482
 20
1116.85
 30
0.0
 11
1584.900449696482
 21
1103.15
 31
0.0
  0
ARC
  5
38E
330
1F
100
AcDbEntity
  8
止水栓
  6
CONTINUOUS
 62
     6
100
AcDbCircle
 10
1607.861699696482
 20
1110.0
 30
0.0
 40
23.96125000000048
100
AcDbArc
 50
163.3886475888869
 51
196.6113524111132
  0
LINE
  5
38F
330
1F
100
AcDbEntity
  8
止水栓
  6
CONTINUOUS
 62
     6
100
AcDbLine
 10
1586.900449696482
 20
1103.821426936992
 30
0.0
 11
1586.900449696482
 21
1116.137435120913
 31
0.0
  0
LINE
  5
390
330
1F
100
AcDbEntity
  8
止水栓
  6
CONTINUOUS
 62
     6
100
AcDbLine
 10
1584.900449696482
 20
1115.999999999999
 30
0.0
 11
1586.900449696482
 21
1115.999999999999
 31
0.0
  0
LINE
  5
391
330
1F
100
AcDbEntity
  8
止水栓
  6
CONTINUOUS
 62
     6
100
AcDbLine
 10
1584.900449696482
 20
1116.85
 30
0.0
 11
1586.900449696482
 21
1116.85
 31
0.0
  0
LINE
  5
392
330
1F
100
AcDbEntity
  8
止水栓
  6
CONTINUOUS
 62
     6
100
AcDbLine
 10
1584.900449696482
 20
1103.15
 30
0.0
 11
1586.900449696482
 21
1103.15
 31
0.0
  0
LINE
  5
393
330
1F
100
AcDbEntity
  8
止水栓
  6
CONTINUOUS
 62
     6
100
AcDbLine
 10
1584.900449696482
 20
1112.399999999999
 30
0.0
 11
1586.900449696482
 21
1112.399999999999
 31
0.0
  0
LINE
  5
394
330
1F
100
AcDbEntity
  8
止水栓
  6
CONTINUOUS
 62
     6
100
AcDbLine
 10
1584.900449696482
 20
1113.299999999999
 30
0.0
 11
1586.900449696482
 21
1113.299999999999
 31
0.0
  0
LINE
  5
395
330
1F
100
AcDbEntity
  8
止水栓
  6
CONTINUOUS
 62
     6
100
AcDbLine
 10
1584.900449696482
 20
1114.199999999999
 30
0.0
 11
1586.900449696482
 21
1114.199999999999
 31
0.0
  0
LINE
  5
396
330
1F
100
AcDbEntity
  8
止水栓
  6
CONTINUOUS
 62
     6
100
AcDbLine
 10
1584.900449696482
 20
1115.099999999999
 30
0.0
 11
1586.900449696482
 21
1115.099999999999
 31
0.0
  0
LINE
  5
397
330
1F
100
AcDbEntity
  8
止水栓
  6
CONTINUOUS
 62
     6
100
AcDbLine
 10
1584.900449696482
 20
1110.599999999999
 30
0.0
 11
1586.900449696482
 21
1110.599999999999
 31
0.0
  0
LINE
  5
398
330
1F
100
AcDbEntity
  8
止水栓
  6
CONTINUOUS
 62
     6
100
AcDbLine
 10
1584.900449696482
 20
1111.5
 30
0.0
 11
1586.900449696482
 21
1111.5
 31
0.0
  0
LINE
  5
399
330
1F
100
AcDbEntity
  8
止水栓
  6
CONTINUOUS
 62
     6
100
AcDbLine
 10
1597.900449696482
 20
1091.632996220322
 30
0.0
 11
1597.900449696482
 21
1141.0
 31
0.0
  0
LINE
  5
39A
330
1F
100
AcDbEntity
  8
止水栓
  6
CONTINUOUS
 62
     6
100
AcDbLine
 10
1584.900449696482
 20
1104.000000000004
 30
0.0
 11
1586.900449696482
 21
1104.000000000004
 31
0.0
  0
LINE
  5
39B
330
1F
100
AcDbEntity
  8
止水栓
  6
CONTINUOUS
 62
     6
100
AcDbLine
 10
1584.900449696482
 20
1107.600000000004
 30
0.0
 11
1586.900449696482
 21
1107.600000000004
 31
0.0
  0
LINE
  5
39C
330
1F
100
AcDbEntity
  8
止水栓
  6
CONTINUOUS
 62
     6
100
AcDbLine
 10
1584.900449696482
 20
1106.700000000004
 30
0.0
 11
1586.900449696482
 21
1106.700000000004
 31
0.0
  0
LINE
  5
39D
330
1F
100
AcDbEntity
  8
止水栓
  6
CONTINUOUS
 62
     6
100
AcDbLine
 10
1584.900449696482
 20
1105.800000000004
 30
0.0
 11
1586.900449696482
 21
1105.800000000004
 31
0.0
  0
LINE
  5
39E
330
1F
100
AcDbEntity
  8
止水栓
  6
CONTINUOUS
 62
     6
100
AcDbLine
 10
1584.900449696482
 20
1104.900000000004
 30
0.0
 11
1586.900449696482
 21
1104.900000000004
 31
0.0
  0
LINE
  5
39F
330
1F
100
AcDbEntity
  8
止水栓
  6
CONTINUOUS
 62
     6
100
AcDbLine
 10
1584.900449696482
 20
1109.400000000003
 30
0.0
 11
1586.900449696482
 21
1109.400000000003
 31
0.0
  0
LINE
  5
3A0
330
1F
100
AcDbEntity
  8
止水栓
  6
CONTINUOUS
 62
     6
100
AcDbLine
 10
1584.900449696482
 20
1108.500000000003
 30
0.0
 11
1586.900449696482
 21
1108.500000000003
 31
0.0
  0
LINE
  5
3A1
330
1F
100
AcDbEntity
  8
止水栓
  6
CONTINUOUS
 62
     6
100
AcDbLine
 10
1628.649999999999
 20
1144.00000000002
 30
0.0
 11
1628.649999999999
 21
1173.000000000001
 31
0.0
  0
LINE
  5
3A2
330
1F
100
AcDbEntity
  8
止水栓
  6
CONTINUOUS
 62
     6
100
AcDbLine
 10
1641.35
 20
1144.00000000002
 30
0.0
 11
1641.35
 21
1173.000000000001
 31
0.0
  0
LINE
  5
3A3
330
1F
100
AcDbEntity
  8
止水栓
  6
CONTINUOUS
 62
     6
100
AcDbLine
 10
783.4999999500005
 20
1132.00000000002
 30
0.0
 11
787.8663666250685
 21
1132.00000000002
 31
0.0
  0
LINE
  5
3A4
330
1F
100
AcDbEntity
  8
止水栓
  6
CONTINUOUS
 62
     6
100
AcDbLine
 10
784.522499950004
 20
1131.512643038401
 30
0.0
 11
787.7233227419445
 21
1131.512643038401
 31
0.0
  0
LINE
  5
3A5
330
1F
100
AcDbEntity
  8
止水栓
  6
CONTINUOUS
 62
     6
100
AcDbLine
 10
802.2766771580154
 20
1131.512643038402
 30
0.0
 11
805.477499950003
 21
1131.512643038402
 31
0.0
  0
LINE
  5
3A6
330
1F
100
AcDbEntity
  8
止水栓
  6
CONTINUOUS
 62
     6
100
AcDbLine
 10
802.1336332748913
 20
1132.00000000002
 30
0.0
 11
806.4999999500005
 21
1132.00000000002
 31
0.0
  0
LINE
  5
3A7
330
1F
100
AcDbEntity
  8
止水栓
  6
CONTINUOUS
 62
     6
100
AcDbLine
 10
788.6500000000001
 20
1144.00000000002
 30
0.0
 11
788.6500000000001
 21
1256.9300293
 31
0.0
  0
LINE
  5
3A8
330
1F
100
AcDbEntity
  8
止水栓
  6
CONTINUOUS
 62
     6
100
AcDbLine
 10
801.3500000000001
 20
1144.00000000002
 30
0.0
 11
801.3500000000001
 21
1269.2300293
 31
0.0
  0
LINE
  5
3A9
330
1F
100
AcDbEntity
  8
トラップ
  6
EXLTYPE3
 62
     6
100
AcDbLine
 10
1655.0
 20
725.9
 30
0.0
 11
1655.0
 21
549.8300293
 31
0.0
  0
LINE
  5
3AA
330
1F
100
AcDbEntity
  8
トラップ
  6
EXLTYPE4
 62
     6
100
AcDbLine
 10
1642.305074954269
 20
707.9804087530923
 30
0.0
 11
1642.307207824224
 21
552.9696212087694
 31
0.0
  0
LINE
  5
3AB
330
1F
100
AcDbEntity
  8
トラップ
  6
EXLTYPE4
 62
     6
100
AcDbLine
 10
1667.705159037063
 20
707.980469320204
 30
0.0
 11
1667.707293661947
 21
552.9699707
 31
0.0
  0
LINE
  5
3AC
330
1F
100
AcDbEntity
  8
トラップ
  6
EXLTYPE3
 62
     6
100
AcDbLine
 10
1665.7608154
 20
577.0
 30
0.0
 11
1644.4999695
 21
577.0
 31
0.0
  0
LINE
  5
3AD
330
1F
100
AcDbEntity
  8
トラップ
  6
EXLTYPE4
 62
     6
100
AcDbLine
 10
1665.5000305
 20
577.0
 30
0.0
 11
1665.5000305
 21
707.98043895373
 31
0.0
  0
LINE
  5
3AE
330
1F
100
AcDbEntity
  8
トラップ
  6
EXLTYPE4
 62
     6
100
AcDbLine
 10
1644.4999695
 20
577.0
 30
0.0
 11
1644.4999695
 21
707.98043895373
 31
0.0
  0
ARC
  5
3AF
330
1F
100
AcDbEntity
  8
トラップ
  6
CONTINUOUS
 62
     6
100
AcDbCircle
 10
1718.0004883
 20
1083.0004883
 30
0.0
 40
11.9999695
100
AcDbArc
 50
154.0593469161287
 51
179.9999847400003
  0
ARC
  5
3B0
330
1F
100
AcDbEntity
  8
トラップ
  6
CONTINUOUS
 62
     6
100
AcDbCircle
 10
1585.9359741
 20
1096.4995117
 30
0.0
 40
8.5642064
100
AcDbArc
 50
320.0384826700005
 51
324.6329891706491
  0
LINE
  5
3B1
330
1F
100
AcDbEntity
  8
トラップ
  6
CONTINUOUS
 62
     6
100
AcDbLine
 10
1557.4996948
 20
1102.0
 30
0.0
 11
1586.238297872341
 21
1102.0
 31
0.0
  0
ELLIPSE
  5
3B2
330
1F
100
AcDbEntity
  8
トラップ
  6
CONTINUOUS
 62
     6
100
AcDbEllipse
 10
1583.999552113
 20
1096.4990235
 30
0.0
 11
6.495567014209002
 21
0.0
 31
0.0
210
0.0
220
0.0
230
1.0
 40
0.7453989898028338
 41
1.206625191310486
 42
5.442119272549172
  0
LINE
  5
3B3
330
1F
100
AcDbEntity
  8
トラップ
  6
CONTINUOUS
 62
     6
100
AcDbLine
 10
1562.5
 20
1102.0
 30
0.0
 11
1562.5
 21
1147.93039435
 31
0.0
  0
LINE
  5
3B4
330
1F
100
AcDbEntity
  8
トラップ
  6
CONTINUOUS
 62
     6
100
AcDbLine
 10
1592.9995727
 20
1148.58957395
 30
0.0
 11
1592.9995727
 21
1158.27219115
 31
0.0
  0
ARC
  5
3B5
330
1F
100
AcDbEntity
  8
トラップ
  6
CONTINUOUS
 62
     6
100
AcDbCircle
 10
1585.9359741
 20
1153.43088255
 30
0.0
 40
8.5642064
100
AcDbArc
 50
320.0384826700005
 51
325.5771637
  0
ARC
  5
3B6
330
1F
100
AcDbEntity
  8
トラップ
  6
CONTINUOUS
 62
     6
100
AcDbCircle
 10
1585.9359741
 20
1153.43088255
 30
0.0
 40
8.5642171
100
AcDbArc
 50
34.42283629999997
 51
39.96086120999999
  0
ELLIPSE
  5
3B7
330
1F
100
AcDbEntity
  8
トラップ
  6
CONTINUOUS
 62
     6
100
AcDbEllipse
 10
1583.999552113
 20
1153.43039435
 30
0.0
 11
6.495567014209001
 21
0.0
 31
0.0
210
0.0
220
0.0
230
1.0
 40
0.745398989802834
 41
0.0
 42
6.283185307179586
  0
ELLIPSE
  5
3B8
330
1F
100
AcDbEntity
  8
トラップ
  6
CONTINUOUS
 62
     6
100
AcDbEllipse
 10
1566.000447887
 20
1153.43039435
 30
0.0
 11
6.495567014209001
 21
0.0
 31
0.0
210
0.0
220
0.0
230
1.0
 40
0.745398989802834
 41
0.0
 42
6.283185307179586
  0
LINE
  5
3B9
330
1F
100
AcDbEntity
  8
トラップ
  6
CONTINUOUS
 62
     6
100
AcDbLine
 10
1557.0004273
 20
1148.58957395
 30
0.0
 11
1557.0004273
 21
1158.27219115
 31
0.0
  0
ARC
  5
3BA
330
1F
100
AcDbEntity
  8
トラップ
  6
CONTINUOUS
 62
     6
100
AcDbCircle
 10
1564.0640259
 20
1153.43088255
 30
0.0
 40
8.5642064
100
AcDbArc
 50
214.4228363
 51
219.96151733
  0
ARC
  5
3BB
330
1F
100
AcDbEntity
  8
トラップ
  6
CONTINUOUS
 62
     6
100
AcDbCircle
 10
1564.0640259
 20
1153.43088255
 30
0.0
 40
8.5642171
100
AcDbArc
 50
140.03913879
 51
145.5771637
  0
LINE
  5
3BC
330
1F
100
AcDbEntity
  8
トラップ
  6
CONTINUOUS
 62
     6
100
AcDbLine
 10
1557.4998474
 20
1147.93039435
 30
0.0
 11
1592.500232749
 21
1147.93039435
 31
0.0
  0
LINE
  5
3BD
330
1F
100
AcDbEntity
  8
トラップ
  6
CONTINUOUS
 62
     6
100
AcDbLine
 10
1592.499999999999
 20
1158.93137085
 30
0.0
 11
1557.499999999999
 21
1158.93137085
 31
0.0
  0
LINE
  5
3BE
330
1F
100
AcDbEntity
  8
トラップ
  6
CONTINUOUS
 62
     6
100
AcDbLine
 10
1601.25
 20
1178.700000000001
 30
0.0
 11
1599.134920634921
 21
1180.0
 31
0.0
  0
LINE
  5
3BF
330
1F
100
AcDbEntity
  8
トラップ
  6
CONTINUOUS
 62
     6
100
AcDbLine
 10
1548.75
 20
1178.700000000001
 30
0.0
 11
1550.865079365078
 21
1180.0
 31
0.0
  0
LINE
  5
3C0
330
1F
100
AcDbEntity
  8
トラップ
  6
CONTINUOUS
 62
     6
100
AcDbLine
 10
1559.0
 20
1168.5
 30
0.0
 11
1559.0
 21
1158.93137085
 31
0.0
  0
LINE
  5
3C1
330
1F
100
AcDbEntity
  8
トラップ
  6
CONTINUOUS
 62
     6
100
AcDbLine
 10
1590.999999999999
 20
1168.5
 30
0.0
 11
1590.999999999999
 21
1158.93137085
 31
0.0
  0
ARC
  5
3C2
330
1F
100
AcDbEntity
  8
トラップ
  6
CONTINUOUS
 62
     6
100
AcDbCircle
 10
1558.421108570999
 20
1174.610105678104
 30
0.0
 40
6.110105678103862
100
AcDbArc
 50
222.2737374192943
 51
317.7262625807115
  0
LINE
  5
3C3
330
1F
100
AcDbEntity
  8
トラップ
  6
CONTINUOUS
 62
     6
100
AcDbLine
 10
1562.942217142001
 20
1170.499999999801
 30
0.0
 11
1562.942217142001
 21
1174.5
 31
0.0
  0
LINE
  5
3C4
330
1F
100
AcDbEntity
  8
トラップ
  6
CONTINUOUS
 62
     6
100
AcDbLine
 10
1566.0333952914
 20
1170.499999999801
 30
0.0
 11
1562.942217141999
 21
1170.499999999801
 31
0.0
  0
LINE
  5
3C5
330
1F
100
AcDbEntity
  8
トラップ
  6
CONTINUOUS
 62
     6
100
AcDbLine
 10
1566.0333952914
 20
1170.499999999801
 30
0.0
 11
1566.0333952914
 21
1174.5
 31
0.0
  0
ARC
  5
3C6
330
1F
100
AcDbEntity
  8
トラップ
  6
CONTINUOUS
 62
     6
100
AcDbCircle
 10
1575.0
 20
1189.600000001982
 30
0.0
 40
21.10000000198211
100
AcDbArc
 50
244.8520222959027
 51
295.1479777040973
  0
LINE
  5
3C7
330
1F
100
AcDbEntity
  8
トラップ
  6
CONTINUOUS
 62
     6
100
AcDbLine
 10
1583.966604708599
 20
1170.499999999801
 30
0.0
 11
1583.966604708599
 21
1174.5
 31
0.0
  0
LINE
  5
3C8
330
1F
100
AcDbEntity
  8
トラップ
  6
CONTINUOUS
 62
     6
100
AcDbLine
 10
1587.057782857999
 20
1170.499999999801
 30
0.0
 11
1583.966604708599
 21
1170.499999999801
 31
0.0
  0
LINE
  5
3C9
330
1F
100
AcDbEntity
  8
トラップ
  6
CONTINUOUS
 62
     6
100
AcDbLine
 10
1587.057782857999
 20
1170.499999999801
 30
0.0
 11
1587.057782857999
 21
1174.5
 31
0.0
  0
ARC
  5
3CA
330
1F
100
AcDbEntity
  8
トラップ
  6
CONTINUOUS
 62
     6
100
AcDbCircle
 10
1591.578891429
 20
1174.610105678105
 30
0.0
 40
6.110105678105146
100
AcDbArc
 50
222.2737374192949
 51
317.7262625806995
  0
LINE
  5
3CB
330
1F
100
AcDbEntity
  8
トラップ
  6
CONTINUOUS
 62
     6
100
AcDbLine
 10
1594.1000000002
 20
1168.5
 30
0.0
 11
1555.899999999799
 21
1168.5
 31
0.0
  0
LINE
  5
3CC
330
1F
100
AcDbEntity
  8
トラップ
  6
CONTINUOUS
 62
     6
100
AcDbLine
 10
1553.899999999999
 20
1170.499999999801
 30
0.0
 11
1553.899999999999
 21
1174.5
 31
0.0
  0
LINE
  5
3CD
330
1F
100
AcDbEntity
  8
トラップ
  6
CONTINUOUS
 62
     6
100
AcDbLine
 10
1596.1
 20
1170.499999999801
 30
0.0
 11
1596.1
 21
1174.5
 31
0.0
  0
LINE
  5
3CE
330
1F
100
AcDbEntity
  8
トラップ
  6
CONTINUOUS
 62
     6
100
AcDbLine
 10
1555.899999999888
 20
1168.499999999888
 30
0.0
 11
1553.899999999999
 21
1170.499999999776
 31
0.0
  0
LINE
  5
3CF
330
1F
100
AcDbEntity
  8
トラップ
  6
CONTINUOUS
 62
     6
100
AcDbLine
 10
1594.100000000111
 20
1168.499999999888
 30
0.0
 11
1596.1
 21
1170.499999999776
 31
0.0
  0
LINE
  5
3D0
330
1F
100
AcDbEntity
  8
トラップ
  6
CONTINUOUS
 62
     6
100
AcDbLine
 10
1599.5
 20
1177.0
 30
0.0
 11
1550.5
 21
1177.0
 31
0.0
  0
LINE
  5
3D1
330
1F
100
AcDbEntity
  8
トラップ
  6
CONTINUOUS
 62
     6
100
AcDbLine
 10
1599.5
 20
1174.5
 30
0.0
 11
1550.5
 21
1174.5
 31
0.0
  0
LINE
  5
3D2
330
1F
100
AcDbEntity
  8
トラップ
  6
CONTINUOUS
 62
     6
100
AcDbLine
 10
1550.5
 20
1174.5
 30
0.0
 11
1550.5
 21
1177.0
 31
0.0
  0
LINE
  5
3D3
330
1F
100
AcDbEntity
  8
トラップ
  6
CONTINUOUS
 62
     6
100
AcDbLine
 10
1599.5
 20
1174.5
 30
0.0
 11
1599.5
 21
1177.0
 31
0.0
  0
LINE
  5
3D4
330
1F
100
AcDbEntity
  8
トラップ
  6
CONTINUOUS
 62
     6
100
AcDbLine
 10
1550.0
 20
1177.500000000009
 30
0.0
 11
1600.0
 21
1177.500000000009
 31
0.0
  0
LINE
  5
3D5
330
1F
100
AcDbEntity
  8
トラップ
  6
CONTINUOUS
 62
     6
100
AcDbLine
 10
1550.0
 20
1177.000000000009
 30
0.0
 11
1600.0
 21
1177.000000000009
 31
0.0
  0
LINE
  5
3D6
330
1F
100
AcDbEntity
  8
トラップ
  6
CONTINUOUS
 62
     6
100
AcDbLine
 10
1600.0
 20
1177.500000000009
 30
0.0
 11
1600.0
 21
1177.000000000009
 31
0.0
  0
LINE
  5
3D7
330
1F
100
AcDbEntity
  8
トラップ
  6
CONTINUOUS
 62
     6
100
AcDbLine
 10
1592.5
 20
1177.500000000009
 30
0.0
 11
1592.5
 21
1177.000000000009
 31
0.0
  0
LINE
  5
3D8
330
1F
100
AcDbEntity
  8
トラップ
  6
CONTINUOUS
 62
     6
100
AcDbLine
 10
1550.0
 20
1177.500000000009
 30
0.0
 11
1550.0
 21
1177.000000000009
 31
0.0
  0
LINE
  5
3D9
330
1F
100
AcDbEntity
  8
トラップ
  6
CONTINUOUS
 62
     6
100
AcDbLine
 10
1548.75
 20
1178.7
 30
0.0
 11
1601.25
 21
1178.7
 31
0.0
  0
LINE
  5
3DA
330
1F
100
AcDbEntity
  8
トラップ
  6
CONTINUOUS
 62
     6
100
AcDbLine
 10
1548.75
 20
1177.5
 30
0.0
 11
1601.25
 21
1177.5
 31
0.0
  0
LINE
  5
3DB
330
1F
100
AcDbEntity
  8
トラップ
  6
CONTINUOUS
 62
     6
100
AcDbLine
 10
1548.75
 20
1178.7
 30
0.0
 11
1548.75
 21
1177.5
 31
0.0
  0
LINE
  5
3DC
330
1F
100
AcDbEntity
  8
トラップ
  6
CONTINUOUS
 62
     6
100
AcDbLine
 10
1601.25
 20
1178.7
 30
0.0
 11
1601.25
 21
1177.5
 31
0.0
  0
ELLIPSE
  5
3DD
330
1F
100
AcDbEntity
  8
トラップ
  6
CONTINUOUS
 62
     6
100
AcDbEllipse
 10
1566.000447887
 20
1096.4990235
 30
0.0
 11
6.495567014209001
 21
0.0
 31
0.0
210
0.0
220
0.0
230
1.0
 40
0.745398989802834
 41
0.0
 42
6.283185307179586
  0
LINE
  5
3DE
330
1F
100
AcDbEntity
  8
トラップ
  6
CONTINUOUS
 62
     6
100
AcDbLine
 10
1557.0004273
 20
1091.6582031
 30
0.0
 11
1557.0004273
 21
1101.3408203
 31
0.0
  0
ARC
  5
3DF
330
1F
100
AcDbEntity
  8
トラップ
  6
CONTINUOUS
 62
     6
100
AcDbCircle
 10
1564.0640259
 20
1096.4995117
 30
0.0
 40
8.5642064
100
AcDbArc
 50
214.4228363
 51
219.96151733
  0
ARC
  5
3E0
330
1F
100
AcDbEntity
  8
トラップ
  6
CONTINUOUS
 62
     6
100
AcDbCircle
 10
1564.0640259
 20
1096.4995117
 30
0.0
 40
8.5642171
100
AcDbArc
 50
140.03913879
 51
145.5771637
  0
LINE
  5
3E1
330
1F
100
AcDbEntity
  8
トラップ
  6
CONTINUOUS
 62
     6
100
AcDbLine
 10
1557.4998474
 20
1090.9990235
 30
0.0
 11
1592.500232749
 21
1090.9990235
 31
0.0
  0
LINE
  5
3E2
330
1F
100
AcDbEntity
  8
トラップ
  6
CONTINUOUS
 62
     6
100
AcDbLine
 10
1720.0
 20
1052.5
 30
0.0
 11
1750.0
 21
1052.5
 31
0.0
  0
LINE
  5
3E3
330
1F
100
AcDbEntity
  8
トラップ
  6
CONTINUOUS
 62
     6
100
AcDbLine
 10
1669.0
 20
1052.5
 30
0.0
 11
1706.0009765
 21
1052.5
 31
0.0
  0
LINE
  5
3E4
330
1F
100
AcDbEntity
  8
トラップ
  6
CONTINUOUS
 62
     6
100
AcDbLine
 10
1720.0
 20
1077.5
 30
0.0
 11
1750.0
 21
1077.5
 31
0.0
  0
LINE
  5
3E5
330
1F
100
AcDbEntity
  8
トラップ
  6
CONTINUOUS
 62
     6
100
AcDbLine
 10
1669.0
 20
1077.5
 30
0.0
 11
1706.0009765
 21
1077.5
 31
0.0
  0
LINE
  5
3E6
330
1F
100
AcDbEntity
  8
トラップ
  6
CONTINUOUS
 62
     6
100
AcDbLine
 10
1626.5
 20
1014.0
 30
0.0
 11
1626.5
 21
1018.7
 31
0.0
  0
LINE
  5
3E7
330
1F
100
AcDbEntity
  8
トラップ
  6
CONTINUOUS
 62
     6
100
AcDbLine
 10
1651.5
 20
1014.0
 30
0.0
 11
1651.5
 21
1018.7
 31
0.0
  0
LINE
  5
3E8
330
1F
100
AcDbEntity
  8
トラップ
  6
CONTINUOUS
 62
     6
100
AcDbLine
 10
1651.5
 20
1035.000000000001
 30
0.0
 11
1651.5
 21
1029.7
 31
0.0
  0
LINE
  5
3E9
330
1F
100
AcDbEntity
  8
トラップ
  6
CONTINUOUS
 62
     6
100
AcDbLine
 10
1626.5
 20
1035.000000000001
 30
0.0
 11
1626.5
 21
1029.7
 31
0.0
  0
LINE
  5
3EA
330
1F
100
AcDbEntity
  8
トラップ
  6
CONTINUOUS
 62
     6
100
AcDbLine
 10
1589.499999999824
 20
1090.000000000176
 30
0.0
 11
1590.499999999648
 21
1091.0
 31
0.0
  0
LINE
  5
3EB
330
1F
100
AcDbEntity
  8
トラップ
  6
CONTINUOUS
 62
     6
100
AcDbLine
 10
1560.500000000176
 20
1090.000000000176
 30
0.0
 11
1559.500000000352
 21
1091.0
 31
0.0
  0
ARC
  5
3EC
330
1F
100
AcDbEntity
  8
トラップ
  6
CONTINUOUS
 62
     6
100
AcDbCircle
 10
1607.0
 20
1014.0
 30
0.0
 40
44.5
100
AcDbArc
 50
180.0
 51
0.0
  0
ARC
  5
3ED
330
1F
100
AcDbEntity
  8
トラップ
  6
CONTINUOUS
 62
     6
100
AcDbCircle
 10
1607.0
 20
1014.0
 30
0.0
 40
19.5
100
AcDbArc
 50
180.0
 51
0.0
  0
LINE
  5
3EE
330
1F
100
AcDbEntity
  8
トラップ
  6
CONTINUOUS
 62
     6
100
AcDbLine
 10
1562.5
 20
1044.647372055735
 30
0.0
 11
1562.5
 21
1014.0
 31
0.0
  0
LINE
  5
3EF
330
1F
100
AcDbEntity
  8
トラップ
  6
CONTINUOUS
 62
     6
100
AcDbLine
 10
1561.25
 20
1046.812435565195
 30
0.0
 11
1562.5
 21
1044.647372055735
 31
0.0
  0
LINE
  5
3F0
330
1F
100
AcDbEntity
  8
トラップ
  6
CONTINUOUS
 62
     6
100
AcDbLine
 10
1587.5
 20
1044.647372055735
 30
0.0
 11
1587.5
 21
1014.0
 31
0.0
  0
LINE
  5
3F1
330
1F
100
AcDbEntity
  8
トラップ
  6
CONTINUOUS
 62
     6
100
AcDbLine
 10
1588.75
 20
1046.812435565195
 30
0.0
 11
1587.5
 21
1044.647372055735
 31
0.0
  0
LINE
  5
3F2
330
1F
100
AcDbEntity
  8
トラップ
  6
CONTINUOUS
 62
     6
100
AcDbLine
 10
1562.5
 20
1044.647372055731
 30
0.0
 11
1587.5
 21
1044.647372055731
 31
0.0
  0
LINE
  5
3F3
330
1F
100
AcDbEntity
  8
トラップ
  6
CONTINUOUS
 62
     6
100
AcDbLine
 10
1561.25
 20
1090.0
 30
0.0
 11
1561.25
 21
1046.812435565195
 31
0.0
  0
LINE
  5
3F4
330
1F
100
AcDbEntity
  8
トラップ
  6
CONTINUOUS
 62
     6
100
AcDbLine
 10
1588.75
 20
1090.0
 30
0.0
 11
1588.75
 21
1046.812435565195
 31
0.0
  0
LINE
  5
3F5
330
1F
100
AcDbEntity
  8
トラップ
  6
CONTINUOUS
 62
     6
100
AcDbLine
 10
1560.500000000401
 20
1090.0
 30
0.0
 11
1589.4999999996
 21
1090.0
 31
0.0
  0
ARC
  5
3F6
330
1F
100
AcDbEntity
  8
トラップ
  6
CONTINUOUS
 62
     6
100
AcDbCircle
 10
1627.097222222224
 20
1024.2
 30
0.0
 40
7.847222222222516
100
AcDbArc
 50
135.5019526855774
 51
224.4980473144227
  0
ARC
  5
3F7
330
1F
100
AcDbEntity
  8
トラップ
  6
CONTINUOUS
 62
     6
100
AcDbCircle
 10
1650.902777777778
 20
1024.2
 30
0.0
 40
7.847222222222516
100
AcDbArc
 50
315.5019526855773
 51
44.49804731442267
  0
LINE
  5
3F8
330
1F
100
AcDbEntity
  8
トラップ
  6
CONTINUOUS
 62
     6
100
AcDbLine
 10
1621.500000000001
 20
1018.7
 30
0.0
 11
1656.500000000001
 21
1018.7
 31
0.0
  0
LINE
  5
3F9
330
1F
100
AcDbEntity
  8
トラップ
  6
CONTINUOUS
 62
     6
100
AcDbLine
 10
1621.500000000001
 20
1029.7
 30
0.0
 11
1656.500000000001
 21
1029.7
 31
0.0
  0
ARC
  5
3FA
330
1F
100
AcDbEntity
  8
トラップ
  6
CONTINUOUS
 62
     6
100
AcDbCircle
 10
1669.0
 20
1035.000000000001
 30
0.0
 40
42.4999999999991
100
AcDbArc
 50
90.00000000000001
 51
180.0
  0
ARC
  5
3FB
330
1F
100
AcDbEntity
  8
トラップ
  6
CONTINUOUS
 62
     6
100
AcDbCircle
 10
1669.0
 20
1035.000000000001
 30
0.0
 40
17.4999999999991
100
AcDbArc
 50
90.00000000000001
 51
180.0
  0
ELLIPSE
  5
3FC
330
1F
100
AcDbEntity
  8
トラップ
  6
CONTINUOUS
 62
     6
100
AcDbEllipse
 10
1654.588457268101
 20
1024.2
 30
0.0
 11
-9.074479906138043E-16
 21
-4.939916778430074
 31
0.0
210
0.0
220
0.0
230
1.0
 40
0.8226741935096998
 41
0.0
 42
6.283185307179586
  0
ELLIPSE
  5
3FD
330
1F
100
AcDbEntity
  8
トラップ
  6
CONTINUOUS
 62
     6
100
AcDbEllipse
 10
1639.000000000001
 20
1024.2
 30
0.0
 11
8.12788410350004
 21
-1.990757450238396E-15
 31
0.0
210
0.0
220
0.0
230
1.0
 40
0.6077740178778928
 41
0.0
 42
6.283185307179586
  0
ELLIPSE
  5
3FE
330
1F
100
AcDbEntity
  8
トラップ
  6
CONTINUOUS
 62
     6
100
AcDbEllipse
 10
1623.411542731901
 20
1024.2
 30
0.0
 11
-9.074479906138043E-16
 21
-4.939916778430074
 31
0.0
210
0.0
220
0.0
230
1.0
 40
0.8226741935096998
 41
0.0
 42
6.283185307179586
  0
LINE
  5
3FF
330
1F
100
AcDbEntity
  8
トラップ
  6
EXLTYPE3
 62
     6
100
AcDbLine
 10
1750.0
 20
1065.0
 30
0.0
 11
1669.9139021872
 21
1065.0
 31
0.0
  0
LINE
  5
400
330
1F
100
AcDbEntity
  8
トラップ
  6
CONTINUOUS
 62
     6
100
AcDbLine
 10
1706.0009765
 20
1083.0004883
 30
0.0
 11
1706.0009765
 21
1046.9995117
 31
0.0
  0
ARC
  5
401
330
1F
100
AcDbEntity
  8
トラップ
  6
CONTINUOUS
 62
     6
100
AcDbCircle
 10
1718.0004883
 20
1046.9995117
 30
0.0
 40
11.9999695
100
AcDbArc
 50
180.0000152600002
 51
270.0000000000002
  0
LINE
  5
402
330
1F
100
AcDbEntity
  8
トラップ
  6
CONTINUOUS
 62
     6
100
AcDbLine
 10
1718.0004883
 20
1035.0
 30
0.0
 11
1720.0
 21
1035.0
 31
0.0
  0
LINE
  5
403
330
1F
100
AcDbEntity
  8
トラップ
  6
CONTINUOUS
 62
     6
100
AcDbLine
 10
1750.0
 20
1077.7001953
 30
0.0
 11
1750.0
 21
1052.2998047
 31
0.0
  0
LINE
  5
404
330
1F
100
AcDbEntity
  8
トラップ
  6
EXLTYPE2
 62
     6
100
AcDbLine
 10
1642.3071289
 20
552.9699707
 30
0.0
 11
1667.7072144
 21
552.9699707
 31
0.0
  0
ARC
  5
405
330
1F
100
AcDbEntity
  8
トラップ
  6
CONTINUOUS
 62
     6
100
AcDbCircle
 10
669.0640259
 20
1024.1995117
 30
0.0
 40
8.5642171
100
AcDbArc
 50
140.03913879
 51
145.5771637
  0
ARC
  5
406
330
1F
100
AcDbEntity
  8
トラップ
  6
CONTINUOUS
 62
     6
100
AcDbCircle
 10
669.0640259
 20
1024.1995117
 30
0.0
 40
8.5642064
100
AcDbArc
 50
214.4228363
 51
219.96151733
  0
LINE
  5
407
330
1F
100
AcDbEntity
  8
トラップ
  6
CONTINUOUS
 62
     6
100
AcDbLine
 10
662.0004272999998
 20
1019.3582031
 30
0.0
 11
662.0004272999998
 21
1029.0408203
 31
0.0
  0
ARC
  5
408
330
1F
100
AcDbEntity
  8
トラップ
  6
CONTINUOUS
 62
     6
100
AcDbCircle
 10
690.9359741000001
 20
1024.1995117
 30
0.0
 40
8.5642171
100
AcDbArc
 50
34.42283629999997
 51
39.96086120999999
  0
ARC
  5
409
330
1F
100
AcDbEntity
  8
トラップ
  6
CONTINUOUS
 62
     6
100
AcDbCircle
 10
690.9359741000001
 20
1024.1995117
 30
0.0
 40
8.5642064
100
AcDbArc
 50
320.0384826700005
 51
325.5771637
  0
LINE
  5
40A
330
1F
100
AcDbEntity
  8
トラップ
  6
CONTINUOUS
 62
     6
100
AcDbLine
 10
697.9995726999997
 20
1019.3582031
 30
0.0
 11
697.9995726999997
 21
1029.0408203
 31
0.0
  0
LINE
  5
40B
330
1F
100
AcDbEntity
  8
トラップ
  6
CONTINUOUS
 62
     6
100
AcDbLine
 10
662.4998474
 20
1018.6990235
 30
0.0
 11
667.2998047
 21
1018.6990235
 31
0.0
  0
LINE
  5
40C
330
1F
100
AcDbEntity
  8
トラップ
  6
CONTINUOUS
 62
     6
100
AcDbLine
 10
692.6998901
 20
1018.6990235
 30
0.0
 11
697.5002327489998
 21
1018.6990235
 31
0.0
  0
ELLIPSE
  5
40D
330
1F
100
AcDbEntity
  8
トラップ
  6
CONTINUOUS
 62
     6
100
AcDbEllipse
 10
688.9995521129996
 20
1024.1990235
 30
0.0
 11
6.495567014209002
 21
0.0
 31
0.0
210
0.0
220
0.0
230
1.0
 40
0.7453989898028338
 41
5.318513084332949
 42
7.247864511015755
  0
ELLIPSE
  5
40E
330
1F
100
AcDbEntity
  8
トラップ
  6
CONTINUOUS
 62
     6
100
AcDbEllipse
 10
671.000447887
 20
1024.1990235
 30
0.0
 11
6.495567014209002
 21
0.0
 31
0.0
210
0.0
220
0.0
230
1.0
 40
0.7453989898028338
 41
2.176948166677463
 42
4.106244121479147
  0
ARC
  5
40F
330
1F
100
AcDbEntity
  8
トラップ
  6
CONTINUOUS
 62
     6
100
AcDbCircle
 10
680.0000000000001
 20
982.2000426999998
 30
0.0
 40
12.7000427
100
AcDbArc
 50
180.0000152599999
 51
0.0
  0
LINE
  5
410
330
1F
100
AcDbEntity
  8
トラップ
  6
CONTINUOUS
 62
     6
100
AcDbLine
 10
692.6998901
 20
1044.6473720578
 30
0.0
 11
693.6997986000001
 21
1048.3802821578
 31
0.0
  0
LINE
  5
411
330
1F
100
AcDbEntity
  8
トラップ
  6
CONTINUOUS
 62
     6
100
AcDbLine
 10
667.2998047
 20
1044.6473720578
 30
0.0
 11
666.2998962
 21
1048.3778407578
 31
0.0
  0
LINE
  5
412
330
1F
100
AcDbEntity
  8
トラップ
  6
EXLTYPE3
 62
     6
100
AcDbLine
 10
667.2998047
 20
1044.6473720578
 30
0.0
 11
692.6998901
 21
1044.6473720578
 31
0.0
  0
LINE
  5
413
330
1F
100
AcDbEntity
  8
トラップ
  6
CONTINUOUS
 62
     6
100
AcDbLine
 10
667.299781417141
 20
1044.647372055591
 30
0.0
 11
667.3000740956135
 21
982.14557615142
 31
0.0
  0
LINE
  5
414
330
1F
100
AcDbEntity
  8
トラップ
  6
CONTINUOUS
 62
     6
100
AcDbLine
 10
666.2998605831164
 20
1048.3779736376
 30
0.0
 11
666.2995624367596
 21
1090.0
 31
0.0
  0
LINE
  5
415
330
1F
100
AcDbEntity
  8
トラップ
  6
CONTINUOUS
 62
     6
100
AcDbLine
 10
693.69985814417
 20
1048.2300293
 30
0.0
 11
693.69985814417
 21
1090.0
 31
0.0
  0
ELLIPSE
  5
416
330
1F
100
AcDbEntity
  8
トラップ
  6
CONTINUOUS
 62
     6
100
AcDbEllipse
 10
664.411542731901
 20
1096.5
 30
0.0
 11
-9.074479906138043E-16
 21
-4.939916778430074
 31
0.0
210
0.0
220
0.0
230
1.0
 40
0.8226741935096998
 41
0.0
 42
6.283185307179586
  0
ELLIPSE
  5
417
330
1F
100
AcDbEntity
  8
トラップ
  6
CONTINUOUS
 62
     6
100
AcDbEllipse
 10
680.0000000000009
 20
1096.5
 30
0.0
 11
8.12788410350004
 21
-1.990757450238396E-15
 31
0.0
210
0.0
220
0.0
230
1.0
 40
0.6077740178778928
 41
0.0
 42
6.283185307179586
  0
ELLIPSE
  5
418
330
1F
100
AcDbEntity
  8
トラップ
  6
CONTINUOUS
 62
     6
100
AcDbEllipse
 10
695.5884572681007
 20
1096.5
 30
0.0
 11
-9.074479906138043E-16
 21
-4.939916778430074
 31
0.0
210
0.0
220
0.0
230
1.0
 40
0.8226741935096998
 41
0.0
 42
6.283185307179586
  0
LINE
  5
419
330
1F
100
AcDbEntity
  8
トラップ
  6
CONTINUOUS
 62
     6
100
AcDbLine
 10
662.5000000000008
 20
1102.0
 30
0.0
 11
697.5000000000009
 21
1102.0
 31
0.0
  0
LINE
  5
41A
330
1F
100
AcDbEntity
  8
トラップ
  6
CONTINUOUS
 62
     6
100
AcDbLine
 10
662.5000000000008
 20
1091.0
 30
0.0
 11
697.5000000000009
 21
1091.0
 31
0.0
  0
ARC
  5
41B
330
1F
100
AcDbEntity
  8
トラップ
  6
CONTINUOUS
 62
     6
100
AcDbCircle
 10
691.9027777777783
 20
1096.5
 30
0.0
 40
7.847222222222516
100
AcDbArc
 50
315.5019526855773
 51
44.49804731442267
  0
ARC
  5
41C
330
1F
100
AcDbEntity
  8
トラップ
  6
CONTINUOUS
 62
     6
100
AcDbCircle
 10
668.0972222222234
 20
1096.5
 30
0.0
 40
7.847222222222516
100
AcDbArc
 50
135.5019526855774
 51
224.4980473144227
  0
LINE
  5
41D
330
1F
100
AcDbEntity
  8
トラップ
  6
CONTINUOUS
 62
     6
100
AcDbLine
 10
665.5000000004005
 20
1090.0
 30
0.0
 11
694.4999999995998
 21
1090.0
 31
0.0
  0
LINE
  5
41E
330
1F
100
AcDbEntity
  8
トラップ
  6
CONTINUOUS
 62
     6
100
AcDbLine
 10
694.499999999824
 20
1090.000000000176
 30
0.0
 11
695.499999999648
 21
1091.0
 31
0.0
  0
LINE
  5
41F
330
1F
100
AcDbEntity
  8
トラップ
  6
CONTINUOUS
 62
     6
100
AcDbLine
 10
665.5000000001763
 20
1090.000000000176
 30
0.0
 11
664.5000000003519
 21
1091.0
 31
0.0
  0
LINE
  5
420
330
1F
100
AcDbEntity
  8
トラップ
  6
CONTINUOUS
 62
     6
100
AcDbLine
 10
667.2999573000001
 20
1102.0
 30
0.0
 11
667.2999573000001
 21
1147.93137085
 31
0.0
  0
LINE
  5
421
330
1F
100
AcDbEntity
  8
トラップ
  6
CONTINUOUS
 62
     6
100
AcDbLine
 10
692.7000426999999
 20
1102.0
 30
0.0
 11
692.7000426999999
 21
1147.93137085
 31
0.0
  0
LINE
  5
422
330
1F
100
AcDbEntity
  8
トラップ
  6
CONTINUOUS
 62
     6
100
AcDbLine
 10
706.2499999999998
 20
1178.7
 30
0.0
 11
706.2499999999998
 21
1177.5
 31
0.0
  0
LINE
  5
423
330
1F
100
AcDbEntity
  8
トラップ
  6
CONTINUOUS
 62
     6
100
AcDbLine
 10
653.7499999999998
 20
1178.7
 30
0.0
 11
653.7499999999998
 21
1177.5
 31
0.0
  0
LINE
  5
424
330
1F
100
AcDbEntity
  8
トラップ
  6
CONTINUOUS
 62
     6
100
AcDbLine
 10
653.7499999999998
 20
1177.5
 30
0.0
 11
706.2499999999998
 21
1177.5
 31
0.0
  0
LINE
  5
425
330
1F
100
AcDbEntity
  8
トラップ
  6
CONTINUOUS
 62
     6
100
AcDbLine
 10
653.7499999999998
 20
1178.7
 30
0.0
 11
706.2499999999998
 21
1178.7
 31
0.0
  0
LINE
  5
426
330
1F
100
AcDbEntity
  8
トラップ
  6
CONTINUOUS
 62
     6
100
AcDbLine
 10
654.9999999999998
 20
1177.500000000009
 30
0.0
 11
654.9999999999998
 21
1177.000000000009
 31
0.0
  0
LINE
  5
427
330
1F
100
AcDbEntity
  8
トラップ
  6
CONTINUOUS
 62
     6
100
AcDbLine
 10
697.4999999999998
 20
1177.500000000009
 30
0.0
 11
697.4999999999998
 21
1177.000000000009
 31
0.0
  0
LINE
  5
428
330
1F
100
AcDbEntity
  8
トラップ
  6
CONTINUOUS
 62
     6
100
AcDbLine
 10
704.9999999999998
 20
1177.500000000009
 30
0.0
 11
704.9999999999998
 21
1177.000000000009
 31
0.0
  0
LINE
  5
429
330
1F
100
AcDbEntity
  8
トラップ
  6
CONTINUOUS
 62
     6
100
AcDbLine
 10
654.9999999999998
 20
1177.000000000009
 30
0.0
 11
704.9999999999998
 21
1177.000000000009
 31
0.0
  0
LINE
  5
42A
330
1F
100
AcDbEntity
  8
トラップ
  6
CONTINUOUS
 62
     6
100
AcDbLine
 10
654.9999999999998
 20
1177.500000000009
 30
0.0
 11
704.9999999999998
 21
1177.500000000009
 31
0.0
  0
LINE
  5
42B
330
1F
100
AcDbEntity
  8
トラップ
  6
CONTINUOUS
 62
     6
100
AcDbLine
 10
704.4999999999997
 20
1174.5
 30
0.0
 11
704.4999999999997
 21
1177.0
 31
0.0
  0
LINE
  5
42C
330
1F
100
AcDbEntity
  8
トラップ
  6
CONTINUOUS
 62
     6
100
AcDbLine
 10
655.4999999999999
 20
1174.5
 30
0.0
 11
655.4999999999999
 21
1177.0
 31
0.0
  0
LINE
  5
42D
330
1F
100
AcDbEntity
  8
トラップ
  6
CONTINUOUS
 62
     6
100
AcDbLine
 10
704.4999999999997
 20
1174.5
 30
0.0
 11
655.4999999999999
 21
1174.5
 31
0.0
  0
LINE
  5
42E
330
1F
100
AcDbEntity
  8
トラップ
  6
CONTINUOUS
 62
     6
100
AcDbLine
 10
704.4999999999997
 20
1177.0
 30
0.0
 11
655.4999999999999
 21
1177.0
 31
0.0
  0
LINE
  5
42F
330
1F
100
AcDbEntity
  8
トラップ
  6
CONTINUOUS
 62
     6
100
AcDbLine
 10
699.1000000001111
 20
1168.499999999888
 30
0.0
 11
701.1000000000001
 21
1170.499999999776
 31
0.0
  0
LINE
  5
430
330
1F
100
AcDbEntity
  8
トラップ
  6
CONTINUOUS
 62
     6
100
AcDbLine
 10
660.8999999998886
 20
1168.499999999888
 30
0.0
 11
658.8999999999995
 21
1170.499999999776
 31
0.0
  0
LINE
  5
431
330
1F
100
AcDbEntity
  8
トラップ
  6
CONTINUOUS
 62
     6
100
AcDbLine
 10
701.1000000000001
 20
1170.499999999801
 30
0.0
 11
701.1000000000001
 21
1174.5
 31
0.0
  0
LINE
  5
432
330
1F
100
AcDbEntity
  8
トラップ
  6
CONTINUOUS
 62
     6
100
AcDbLine
 10
658.8999999999995
 20
1170.499999999801
 30
0.0
 11
658.8999999999995
 21
1174.5
 31
0.0
  0
LINE
  5
433
330
1F
100
AcDbEntity
  8
トラップ
  6
CONTINUOUS
 62
     6
100
AcDbLine
 10
699.1000000002001
 20
1168.5
 30
0.0
 11
660.8999999997994
 21
1168.5
 31
0.0
  0
ARC
  5
434
330
1F
100
AcDbEntity
  8
トラップ
  6
CONTINUOUS
 62
     6
100
AcDbCircle
 10
696.5788914290002
 20
1174.610105678105
 30
0.0
 40
6.110105678105146
100
AcDbArc
 50
222.2737374192949
 51
317.7262625806995
  0
LINE
  5
435
330
1F
100
AcDbEntity
  8
トラップ
  6
CONTINUOUS
 62
     6
100
AcDbLine
 10
692.0577828579987
 20
1170.499999999801
 30
0.0
 11
692.0577828579987
 21
1174.5
 31
0.0
  0
LINE
  5
436
330
1F
100
AcDbEntity
  8
トラップ
  6
CONTINUOUS
 62
     6
100
AcDbLine
 10
692.0577828579987
 20
1170.499999999801
 30
0.0
 11
688.9666047085991
 21
1170.499999999801
 31
0.0
  0
LINE
  5
437
330
1F
100
AcDbEntity
  8
トラップ
  6
CONTINUOUS
 62
     6
100
AcDbLine
 10
688.9666047085991
 20
1170.499999999801
 30
0.0
 11
688.9666047085991
 21
1174.5
 31
0.0
  0
ARC
  5
438
330
1F
100
AcDbEntity
  8
トラップ
  6
CONTINUOUS
 62
     6
100
AcDbCircle
 10
679.9999999999998
 20
1189.600000001982
 30
0.0
 40
21.10000000198211
100
AcDbArc
 50
244.8520222959027
 51
295.1479777040973
  0
LINE
  5
439
330
1F
100
AcDbEntity
  8
トラップ
  6
CONTINUOUS
 62
     6
100
AcDbLine
 10
671.0333952914006
 20
1170.499999999801
 30
0.0
 11
671.0333952914006
 21
1174.5
 31
0.0
  0
LINE
  5
43A
330
1F
100
AcDbEntity
  8
トラップ
  6
CONTINUOUS
 62
     6
100
AcDbLine
 10
671.0333952914006
 20
1170.499999999801
 30
0.0
 11
667.942217141999
 21
1170.499999999801
 31
0.0
  0
LINE
  5
43B
330
1F
100
AcDbEntity
  8
トラップ
  6
CONTINUOUS
 62
     6
100
AcDbLine
 10
667.9422171420009
 20
1170.499999999801
 30
0.0
 11
667.9422171420009
 21
1174.5
 31
0.0
  0
ARC
  5
43C
330
1F
100
AcDbEntity
  8
トラップ
  6
CONTINUOUS
 62
     6
100
AcDbCircle
 10
663.4211085709993
 20
1174.610105678104
 30
0.0
 40
6.110105678103862
100
AcDbArc
 50
222.2737374192943
 51
317.7262625807115
  0
ARC
  5
43D
330
1F
100
AcDbEntity
  8
トラップ
  6
CONTINUOUS
 62
     6
100
AcDbCircle
 10
691.9027777777771
 20
1153.43137085
 30
0.0
 40
7.847222222222516
100
AcDbArc
 50
315.5019526855774
 51
44.49804731442273
  0
ARC
  5
43E
330
1F
100
AcDbEntity
  8
トラップ
  6
CONTINUOUS
 62
     6
100
AcDbCircle
 10
668.0972222222224
 20
1153.43137085
 30
0.0
 40
7.847222222222516
100
AcDbArc
 50
135.5019526855774
 51
224.4980473144227
  0
LINE
  5
43F
330
1F
100
AcDbEntity
  8
トラップ
  6
CONTINUOUS
 62
     6
100
AcDbLine
 10
697.4999999999998
 20
1158.93137085
 30
0.0
 11
662.4999999999998
 21
1158.93137085
 31
0.0
  0
LINE
  5
440
330
1F
100
AcDbEntity
  8
トラップ
  6
CONTINUOUS
 62
     6
100
AcDbLine
 10
697.4999999999998
 20
1147.93137085
 30
0.0
 11
662.4999999999998
 21
1147.93137085
 31
0.0
  0
ELLIPSE
  5
441
330
1F
100
AcDbEntity
  8
トラップ
  6
CONTINUOUS
 62
     6
100
AcDbEllipse
 10
664.4115427318992
 20
1153.43137085
 30
0.0
 11
-1.891281075320144E-15
 21
4.939916778430074
 31
0.0
210
0.0
220
0.0
230
1.0
 40
0.8226741935096998
 41
0.0
 42
6.283185307179586
  0
ELLIPSE
  5
442
330
1F
100
AcDbEntity
  8
トラップ
  6
CONTINUOUS
 62
     6
100
AcDbEllipse
 10
679.9999999999998
 20
1153.43137085
 30
0.0
 11
-8.12788410350004
 21
-2.614126904157020E-15
 31
0.0
210
0.0
220
0.0
230
1.0
 40
0.6077740178778928
 41
0.0
 42
6.283185307179586
  0
ELLIPSE
  5
443
330
1F
100
AcDbEntity
  8
トラップ
  6
CONTINUOUS
 62
     6
100
AcDbEllipse
 10
695.5884572680986
 20
1153.43137085
 30
0.0
 11
-1.891281075320144E-15
 21
4.939916778430074
 31
0.0
210
0.0
220
0.0
230
1.0
 40
0.8226741935096998
 41
0.0
 42
6.283185307179586
  0
LINE
  5
444
330
1F
100
AcDbEntity
  8
トラップ
  6
CONTINUOUS
 62
     6
100
AcDbLine
 10
695.9999999999997
 20
1168.5
 30
0.0
 11
695.9999999999997
 21
1158.93137085
 31
0.0
  0
LINE
  5
445
330
1F
100
AcDbEntity
  8
トラップ
  6
CONTINUOUS
 62
     6
100
AcDbLine
 10
663.9999999999999
 20
1168.5
 30
0.0
 11
663.9999999999999
 21
1158.93137085
 31
0.0
  0
LINE
  5
446
330
1F
100
AcDbEntity
  8
トラップ
  6
CONTINUOUS
 62
     6
100
AcDbLine
 10
653.7499999999998
 20
1178.700000000001
 30
0.0
 11
655.8650793650785
 21
1180.0
 31
0.0
  0
LINE
  5
447
330
1F
100
AcDbEntity
  8
トラップ
  6
CONTINUOUS
 62
     6
100
AcDbLine
 10
706.2499999999998
 20
1178.700000000001
 30
0.0
 11
704.1349206349211
 21
1180.0
 31
0.0
  0
LINE
  5
448
330
1F
100
AcDbEntity
  8
トラップ
  6
CONTINUOUS
 62
     6
100
AcDbLine
 10
662.4996948000002
 20
1029.7
 30
0.0
 11
667.299781417141
 21
1029.7
 31
0.0
  0
LINE
  5
449
330
1F
100
AcDbEntity
  8
トラップ
  6
CONTINUOUS
 62
     6
100
AcDbLine
 10
692.699866817141
 20
1029.7
 30
0.0
 11
697.5003039390001
 21
1029.7
 31
0.0
  0
LINE
  5
44A
330
1F
100
AcDbEntity
  8
トラップ
  6
CONTINUOUS
 62
     6
100
AcDbLine
 10
692.699866817141
 20
1044.6473720557
 30
0.0
 11
692.7001592402834
 21
982.2001021713023
 31
0.0
  0
LINE
  5
44B
330
1F
100
AcDbEntity
  8
トラップ
  6
EXLTYPE3
 62
     6
100
AcDbLine
 10
680.0000000000002
 20
1391.0007325001
 30
0.0
 11
680.0000000000002
 21
543.0300293
 31
0.0
  0
LINE
  5
44C
330
1F
100
AcDbEntity
  8
トラップ
  6
EXLTYPE3
 62
     6
100
AcDbLine
 10
731.0
 20
1065.0
 30
0.0
 11
622.0
 21
1065.0
 31
0.0
  0
LINE
  5
44D
330
1F
100
AcDbEntity
  8
トラップ
  6
EXLTYPE4
 62
     6
100
AcDbLine
 10
692.7002223854461
 20
552.9999999999999
 30
0.0
 11
692.6990524426026
 21
715.0098053196209
 31
0.0
  0
LINE
  5
44E
330
1F
100
AcDbEntity
  8
トラップ
  6
EXLTYPE4
 62
     6
100
AcDbLine
 10
667.3001337188297
 20
552.9999999999999
 30
0.0
 11
667.29898193821
 21
714.0298058672698
 31
0.0
  0
LINE
  5
44F
330
1F
100
AcDbEntity
  8
トラップ
  6
EXLTYPE2
 62
     6
100
AcDbLine
 10
667.30016045003
 20
553.0
 30
0.0
 11
692.7002458500301
 21
553.0
 31
0.0
  0
LINE
  5
450
330
1F
100
AcDbEntity
  8
トラップ
  6
CONTINUOUS
 62
     6
100
AcDbLine
 10
1587.5
 20
1123.332038763127
 30
0.0
 11
1587.5
 21
1147.93039435
 31
0.0
  0
DIMENSION
  5
452
330
1F
100
AcDbEntity
  8
寸法
  6
CONTINUOUS
 62
     3
100
AcDbDimension
  2
*D15
 10
418.5369873000002
 20
2234.999999999999
 30
0.0
 11
395.5369871807914
 21
2344.999999999999
 31
0.0
 70
   160
  3
ISO-25
100
AcDbAlignedDimension
 13
680.0000000000002
 23
2454.999999999999
 33
0.0
 14
680.0000000000002
 24
2234.999999999999
 34
0.0
 50
90.0
100
AcDbRotatedDimension
1001
ACAD
1000
DSTYLE
1002
{
1070
   270
1070
     2
1070
     6
1000
EX_NORM
1070
     7
1000
EX_NORM
1070
    41
1040
30.0
1070
    42
1040
5.0
1070
    44
1040
10.0
1070
    73
1070
     0
1070
    74
1070
     0
1070
    75
1070
     0
1070
    76
1070
     0
1070
    77
1070
     1
1070
    78
1070
     8
1070
   140
1040
40.0
1070
   147
1040
0.0
1070
   173
1070
     1
1070
   176
1070
     3
1070
   177
1070
     3
1070
   178
1070
     2
1070
   271
1070
     2
1070
   277
1070
     2
1070
   279
1070
     2
1070
   280
1070
     0
1070
   287
1070
     5
1070
   340
1005
451
1002
}
  0
DIMENSION
  5
460
330
1F
100
AcDbEntity
  8
寸法
  6
CONTINUOUS
 62
     3
100
AcDbDimension
  2
*D16
 10
830.0000000000002
 20
2124.6442871
 30
0.0
 11
680.0000000000003
 21
2147.644287219209
 31
0.0
 70
   160
  3
ISO-25
100
AcDbAlignedDimension
 13
530.0000000000002
 23
2312.514045386999
 33
0.0
 14
830.0000000000002
 24
2312.514045386999
 34
0.0
100
AcDbRotatedDimension
1001
ACAD
1000
DSTYLE
1002
{
1070
   270
1070
     2
1070
     6
1000
EX_NORM
1070
     7
1000
EX_NORM
1070
    41
1040
30.0
1070
    42
1040
5.0
1070
    44
1040
10.0
1070
    73
1070
     0
1070
    74
1070
     0
1070
    75
1070
     0
1070
    76
1070
     0
1070
    77
1070
     1
1070
    78
1070
     8
1070
   140
1040
40.0
1070
   147
1040
0.0
1070
   173
1070
     1
1070
   176
1070
     3
1070
   177
1070
     3
1070
   178
1070
     2
1070
   271
1070
     2
1070
   277
1070
     2
1070
   279
1070
     2
1070
   280
1070
     0
1070
   287
1070
     5
1070
   340
1005
451
1002
}
  0
DIMENSION
  5
46D
330
1F
100
AcDbEntity
  8
寸法
  6
CONTINUOUS
 62
     3
100
AcDbDimension
  2
*D17
 10
941.0000000000002
 20
2449.999999999999
 30
0.0
 11
917.999999880791
 21
2482.499999999999
 31
0.0
 70
   160
  3
ISO-25
100
AcDbAlignedDimension
 13
865.0000000000002
 23
2514.999999999999
 33
0.0
 14
829.7000000000003
 24
2449.999999999999
 34
0.0
 50
90.0
100
AcDbRotatedDimension
1001
ACAD
1000
DSTYLE
1002
{
1070
   270
1070
     2
1070
     6
1000
EX_NORM
1070
     7
1000
EX_NORM
1070
    41
1040
30.0
1070
    42
1040
0.0
1070
    44
1040
10.0
1070
    73
1070
     0
1070
    74
1070
     0
1070
    75
1070
     1
1070
    76
1070
     0
1070
    77
1070
     1
1070
    78
1070
     8
1070
   140
1040
40.0
1070
   147
1040
0.0
1070
   173
1070
     1
1070
   176
1070
     3
1070
   177
1070
     3
1070
   178
1070
     2
1070
   271
1070
     2
1070
   277
1070
     2
1070
   279
1070
     2
1070
   280
1070
     0
1070
   287
1070
     5
1070
   340
1005
451
1002
}
  0
DIMENSION
  5
479
330
1F
100
AcDbEntity
  8
寸法
  6
CONTINUOUS
 62
     3
100
AcDbDimension
  2
*D18
 10
1001.0
 20
2194.999999999999
 30
0.0
 11
977.999999880791
 21
2354.999999999999
 31
0.0
 70
   160
  3
ISO-25
100
AcDbAlignedDimension
 13
941.0000000000002
 23
2514.999999999999
 33
0.0
 14
680.0000000000002
 24
2194.999999999999
 34
0.0
 50
90.0
100
AcDbRotatedDimension
1001
ACAD
1000
DSTYLE
1002
{
1070
   270
1070
     2
1070
     6
1000
EX_NORM
1070
     7
1000
EX_NORM
1070
    41
1040
30.0
1070
    42
1040
5.0
1070
    44
1040
10.0
1070
    73
1070
     0
1070
    74
1070
     0
1070
    75
1070
     1
1070
    76
1070
     0
1070
    77
1070
     1
1070
    78
1070
     8
1070
   140
1040
40.0
1070
   147
1040
0.0
1070
   173
1070
     1
1070
   176
1070
     3
1070
   177
1070
     3
1070
   178
1070
     2
1070
   271
1070
     2
1070
   277
1070
     2
1070
   279
1070
     2
1070
   280
1070
     0
1070
   287
1070
     5
1070
   340
1005
451
1002
}
  0
DIMENSION
  5
485
330
1F
100
AcDbEntity
  8
寸法
  6
CONTINUOUS
 62
     3
100
AcDbDimension
  2
*D19
 10
880.0
 20
2070.6442871
 30
0.0
 11
680.0000000000002
 21
2093.644287219209
 31
0.0
 70
   160
  3
ISO-25
100
AcDbAlignedDimension
 13
480.0000000000003
 23
2273.463807584
 33
0.0
 14
880.0
 24
2273.463807584
 34
0.0
100
AcDbRotatedDimension
1001
ACAD
1000
DSTYLE
1002
{
1070
   270
1070
     2
1070
     6
1000
EX_NORM
1070
     7
1000
EX_NORM
1070
    41
1040
30.0
1070
    42
1040
5.0
1070
    44
1040
10.0
1070
    73
1070
     0
1070
    74
1070
     0
1070
    75
1070
     0
1070
    76
1070
     0
1070
    77
1070
     1
1070
    78
1070
     8
1070
   140
1040
40.0
1070
   147
1040
0.0
1070
   173
1070
     1
1070
   176
1070
     3
1070
   177
1070
     3
1070
   178
1070
     2
1070
   271
1070
     2
1070
   277
1070
     2
1070
   279
1070
     2
1070
   280
1070
     0
1070
   287
1070
     5
1070
   340
1005
451
1002
}
  0
DIMENSION
  5
492
330
1F
100
AcDbEntity
  8
寸法
  6
CONTINUOUS
 62
     3
100
AcDbDimension
  2
*D20
 10
1001.000000000009
 20
1390.0
 30
0.0
 11
977.9999998807996
 21
1454.999999999999
 31
0.0
 70
   160
  3
ISO-25
100
AcDbAlignedDimension
 13
680.0
 23
1345.0
 33
0.0
 14
860.0008178793502
 24
1390.0
 34
0.0
 50
90.0
100
AcDbRotatedDimension
1001
ACAD
1000
DSTYLE
1002
{
1070
   270
1070
     2
1070
     6
1000
EX_NORM
1070
     7
1000
EX_NORM
1070
    41
1040
30.0
1070
    42
1040
5.0
1070
    44
1040
10.0
1070
    73
1070
     0
1070
    74
1070
     0
1070
    75
1070
     1
1070
    76
1070
     0
1070
    77
1070
     1
1070
    78
1070
     8
1070
   140
1040
40.0
1070
   147
1040
0.0
1070
   173
1070
     1
1070
   176
1070
     3
1070
   177
1070
     3
1070
   178
1070
     2
1070
   271
1070
     2
1070
   277
1070
     2
1070
   279
1070
     2
1070
   280
1070
     2
1070
   287
1070
     5
1070
   340
1005
451
1002
}
  0
DIMENSION
  5
4A0
330
1F
100
AcDbEntity
  8
寸法
  6
CONTINUOUS
 62
     3
100
AcDbDimension
  2
*D21
 10
1720.0
 20
932.0300293000003
 30
0.0
 11
1677.5
 21
955.5300292403956
 31
0.0
 70
   160
  3
ISO-25
100
AcDbAlignedDimension
 13
1635.0
 23
1093.5300293
 33
0.0
 14
1720.0
 24
1079.5300293
 34
0.0
100
AcDbRotatedDimension
1001
ACAD
1000
DSTYLE
1002
{
1070
   270
1070
     2
1070
     6
1000
EX_NORM
1070
     7
1000
EX_NORM
1070
    41
1040
35.0
1070
    42
1040
1.500000059604645
1070
    44
1040
10.80000042915344
1070
    73
1070
     0
1070
    74
1070
     0
1070
    75
1070
     0
1070
    76
1070
     1
1070
    77
1070
     1
1070
    78
1070
     0
1070
   140
1040
40.0
1070
   147
1040
0.0
1070
   173
1070
     1
1070
   176
1070
     3
1070
   177
1070
     3
1070
   178
1070
     2
1070
   271
1070
     0
1070
   277
1070
     2
1070
   279
1070
     2
1070
   280
1070
     0
1070
   287
1070
     5
1070
   340
1005
451
1002
}
  0
DIMENSION
  5
4AC
330
1F
100
AcDbEntity
  8
寸法
  6
CONTINUOUS
 62
     3
100
AcDbDimension
  2
*D22
 10
755.0000162664301
 20
2590.0
 30
0.0
 11
680.0000162664302
 21
2613.499999940395
 31
0.0
 70
   160
  3
ISO-25
100
AcDbAlignedDimension
 13
605.0000162664301
 23
2537.9002552467
 33
0.0
 14
755.0000162664301
 24
2537.9002552467
 34
0.0
100
AcDbRotatedDimension
1001
ACAD
1000
DSTYLE
1002
{
1070
   270
1070
     2
1070
     6
1000
EX_NORM
1070
     7
1000
EX_NORM
1070
    41
1040
35.0
1070
    42
1040
0.0000000000109139
1070
    44
1040
20.0
1070
    73
1070
     0
1070
    74
1070
     0
1070
    75
1070
     0
1070
    76
1070
     0
1070
    77
1070
     1
1070
    78
1070
     0
1070
   140
1040
40.0
1070
   147
1040
0.0
1070
   173
1070
     1
1070
   176
1070
     3
1070
   177
1070
     3
1070
   178
1070
     2
1070
   271
1070
     0
1070
   277
1070
     2
1070
   279
1070
     2
1070
   280
1070
     0
1070
   287
1070
     5
1070
   340
1005
451
1002
}
  0
LINE
  5
4B9
330
1F
100
AcDbEntity
  8
寸法
  6
CONTINUOUS
 62
     3
100
AcDbLine
 10
1750.0
 20
585.0
 30
0.0
 11
1827.9608154
 21
585.0
 31
0.0
  0
LEADER
  5
4BA
330
1F
100
AcDbEntity
  8
寸法
  6
CONTINUOUS
 62
     3
100
AcDbLeader
  3
ISO-25
 76
     2
 10
795.7282912344806
 20
1422.9929039072
 30
0.0
 10
903.0130965356138
 20
1533.935959115
 30
0.0
1001
ACAD
1000
DSTYLE
1002
{
1070
     5
1000
EX_NORM
1070
    41
1040
35.0
1070
   341
1005
4F
1002
}
  0
DIMENSION
  5
4BB
330
1F
100
AcDbEntity
  8
寸法
  6
CONTINUOUS
 62
     3
100
AcDbDimension
  2
*D23
 10
420.0000000000001
 20
1180.0
 30
0.0
 11
396.500000059605
 21
1285.0
 31
0.0
 70
   160
  3
ISO-25
100
AcDbAlignedDimension
 13
499.9991821206501
 23
1390.0
 33
0.0
 14
647.6078602134502
 24
1180.0
 34
0.0
 50
90.0
100
AcDbRotatedDimension
1001
ACAD
1000
DSTYLE
1002
{
1070
   270
1070
     2
1070
     6
1000
EX_NORM
1070
     7
1000
EX_NORM
1070
    41
1040
30.0
1070
    42
1040
6.99999988079071
1070
    44
1040
10.0
1070
    73
1070
     0
1070
    74
1070
     0
1070
    75
1070
     0
1070
    76
1070
     0
1070
    77
1070
     1
1070
    78
1070
     0
1070
   140
1040
40.0
1070
   147
1040
0.0
1070
   173
1070
     1
1070
   176
1070
     3
1070
   177
1070
     3
1070
   178
1070
     2
1070
   271
1070
     0
1070
   277
1070
     2
1070
   279
1070
     2
1070
   280
1070
     0
1070
   287
1070
     5
1070
   340
1005
451
1002
}
  0
DIMENSION
  5
4C8
330
1F
100
AcDbEntity
  8
寸法
  6
CONTINUOUS
 62
     3
100
AcDbDimension
  2
*D24
 10
1001.0
 20
585.0
 30
0.0
 11
977.5000000596051
 21
964.9999999999998
 31
0.0
 70
   160
  3
ISO-25
100
AcDbAlignedDimension
 13
680.0
 23
1345.0
 33
0.0
 14
1007.2314453
 24
585.0
 34
0.0
 50
90.0
100
AcDbRotatedDimension
1001
ACAD
1000
DSTYLE
1002
{
1070
   270
1070
     2
1070
     6
1000
EX_NORM
1070
     7
1000
EX_NORM
1070
    41
1040
30.0
1070
    42
1040
6.99999988079071
1070
    44
1040
10.0
1070
    73
1070
     0
1070
    74
1070
     0
1070
    75
1070
     0
1070
    76
1070
     1
1070
    77
1070
     1
1070
    78
1070
     0
1070
   140
1040
40.0
1070
   147
1040
0.0
1070
   173
1070
     1
1070
   176
1070
     3
1070
   177
1070
     3
1070
   178
1070
     2
1070
   271
1070
     0
1070
   277
1070
     2
1070
   279
1070
     2
1070
   280
1070
     0
1070
   287
1070
     5
1070
   340
1005
451
1002
}
  0
DIMENSION
  5
4D4
330
1F
100
AcDbEntity
  8
寸法
  6
CONTINUOUS
 62
     3
100
AcDbDimension
  2
*D25
 10
1800.0
 20
1065.0
 30
0.0
 11
1776.500000059605
 21
824.9999999999997
 31
0.0
 70
   160
  3
ISO-25
100
AcDbAlignedDimension
 13
1720.0
 23
585.0
 33
0.0
 14
1750.0
 24
1065.0
 34
0.0
 50
90.0
100
AcDbRotatedDimension
1001
ACAD
1000
DSTYLE
1002
{
1070
   270
1070
     2
1070
     6
1000
EX_NORM
1070
     7
1000
EX_NORM
1070
    41
1040
30.0
1070
    42
1040
6.99999988079071
1070
    44
1040
10.0
1070
    73
1070
     0
1070
    74
1070
     0
1070
    75
1070
     0
1070
    76
1070
     0
1070
    77
1070
     1
1070
    78
1070
     0
1070
   140
1040
40.0
1070
   147
1040
0.0
1070
   173
1070
     1
1070
   176
1070
     3
1070
   177
1070
     3
1070
   178
1070
     2
1070
   271
1070
     0
1070
   277
1070
     2
1070
   279
1070
     2
1070
   280
1070
     0
1070
   287
1070
     5
1070
   340
1005
451
1002
}
  0
DIMENSION
  5
4E1
330
1F
100
AcDbEntity
  8
寸法
  6
CONTINUOUS
 62
     3
100
AcDbDimension
  2
*D26
 10
937.9999998807904
 20
584.9999999999999
 30
0.0
 11
914.499999940395
 21
847.5
 31
0.0
 70
   160
  3
ISO-25
100
AcDbAlignedDimension
 13
835.53698725
 23
1110.0
 33
0.0
 14
883.5369873000002
 24
585.0
 34
0.0
 50
90.0
100
AcDbRotatedDimension
1001
ACAD
1000
DSTYLE
1002
{
1070
   270
1070
     2
1070
     6
1000
EX_NORM
1070
     7
1000
EX_NORM
1070
    41
1040
30.0
1070
    42
1040
6.99999988079071
1070
    44
1040
10.0
1070
    73
1070
     0
1070
    74
1070
     0
1070
    75
1070
     0
1070
    76
1070
     1
1070
    77
1070
     1
1070
    78
1070
     0
1070
   140
1040
40.0
1070
   147
1040
0.0
1070
   173
1070
     1
1070
   176
1070
     3
1070
   177
1070
     3
1070
   178
1070
     2
1070
   271
1070
     0
1070
   277
1070
     2
1070
   279
1070
     2
1070
   280
1070
     0
1070
   287
1070
     5
1070
   340
1005
451
1002
}
  0
LEADER
  5
4ED
330
1F
100
AcDbEntity
  8
寸法
  6
CONTINUOUS
 62
     3
100
AcDbLeader
  3
ISO-25
 76
     2
 10
599.7668915589483
 20
1370.372576394989
 30
0.0
 10
455.7799014819715
 20
1534.0300293
 30
0.0
1001
ACAD
1000
DSTYLE
1002
{
1070
     5
1000
EX_NORM
1070
    41
1040
35.0
1070
   341
1005
4F
1002
}
  0
DIMENSION
  5
4EE
330
1F
100
AcDbEntity
  8
寸法
  6
CONTINUOUS
 62
     3
100
AcDbDimension
  2
*D27
 10
1720.0
 20
867.0300293000003
 30
0.0
 11
1647.5
 21
890.5300292403956
 31
0.0
 70
   160
  3
ISO-25
100
AcDbAlignedDimension
 13
1575.0
 23
1014.0
 33
0.0
 14
1720.0
 24
1007.0300293
 34
0.0
100
AcDbRotatedDimension
1001
ACAD
1000
DSTYLE
1002
{
1070
   270
1070
     2
1070
     6
1000
EX_NORM
1070
     7
1000
EX_NORM
1070
    41
1040
30.0
1070
    42
1040
6.99999988079071
1070
    44
1040
10.0
1070
    73
1070
     0
1070
    74
1070
     0
1070
    75
1070
     0
1070
    76
1070
     1
1070
    77
1070
     1
1070
    78
1070
     0
1070
   140
1040
40.0
1070
   147
1040
0.0
1070
   173
1070
     1
1070
   176
1070
     3
1070
   177
1070
     3
1070
   178
1070
     2
1070
   271
1070
     0
1070
   277
1070
     2
1070
   279
1070
     2
1070
   280
1070
     0
1070
   287
1070
     5
1070
   340
1005
451
1002
}
  0
DIMENSION
  5
4FA
330
1F
100
AcDbEntity
  8
寸法
  6
CONTINUOUS
 62
     3
100
AcDbDimension
  2
*D28
 10
1800.0
 20
1364.9999837336
 30
0.0
 11
1776.500000059606
 21
1454.9999836335
 31
0.0
 70
   160
  3
ISO-25
100
AcDbAlignedDimension
 13
1720.0
 23
1389.9999836335
 33
0.0
 14
1742.9002883554
 24
1364.9999837336
 34
0.0
 50
90.0
100
AcDbRotatedDimension
1001
ACAD
1000
DSTYLE
1002
{
1070
   270
1070
     2
1070
     6
1000
EX_NORM
1070
     7
1000
EX_NORM
1070
    41
1040
30.0
1070
    42
1040
6.99999988079071
1070
    44
1040
10.0
1070
    73
1070
     0
1070
    74
1070
     0
1070
    75
1070
     0
1070
    76
1070
     0
1070
    77
1070
     1
1070
    78
1070
     0
1070
   140
1040
40.0
1070
   147
1040
0.0
1070
   173
1070
     1
1070
   176
1070
     3
1070
   177
1070
     3
1070
   178
1070
     2
1070
   271
1070
     0
1070
   277
1070
     2
1070
   279
1070
     2
1070
   280
1070
     1
1070
   287
1070
     5
1070
   340
1005
451
1002
}
  0
LEADER
  5
509
330
1F
100
AcDbEntity
  8
寸法
  6
CONTINUOUS
 62
     3
100
AcDbLeader
  3
ISO-25
 76
     2
 10
1562.499999999989
 20
1024.77541546608
 30
0.0
 10
1465.9608154
 20
1076.0300293
 30
0.0
1001
ACAD
1000
DSTYLE
1002
{
1070
     5
1000
EX_NORM
1070
    41
1040
35.0
1070
   341
1005
4F
1002
}
  0
LEADER
  5
50A
330
1F
100
AcDbEntity
  8
寸法
  6
CONTINUOUS
 62
     3
100
AcDbLeader
  3
ISO-25
 76
     2
 10
1583.234550630417
 20
1111.359935438332
 30
0.0
 10
1470.9614258
 20
1170.9680177
 30
0.0
1001
ACAD
1000
DSTYLE
1002
{
1070
     5
1000
EX_NORM
1070
    41
1040
35.0
1070
   341
1005
4F
1002
}
  0
LINE
  5
50B
330
1F
100
AcDbEntity
  8
寸法
  6
CONTINUOUS
 62
     3
100
AcDbLine
 10
1303.960205
 20
1170.9680177
 30
0.0
 11
1470.9614258
 21
1170.9680177
 31
0.0
  0
TEXT
  5
50C
330
1F
100
AcDbEntity
  8
寸法
  6
CONTINUOUS
 62
     2
100
AcDbText
 10
1305.1414925686
 20
1083.29376398764
 30
0.0
 40
40.0
  1
ＮＬ３１Ｐ
 41
0.9655172413793103
  7
EXCADSTD
 72
     5
 11
1465.1414925686
 21
1083.29376398764
 31
0.0
100
AcDbText
  0
LINE
  5
50D
330
1F
100
AcDbEntity
  8
寸法
  6
CONTINUOUS
 62
     3
100
AcDbLine
 10
1303.960205
 20
1076.0300293
 30
0.0
 11
1465.9608154
 21
1076.0300293
 31
0.0
  0
TEXT
  5
50E
330
1F
100
AcDbEntity
  8
寸法
  6
CONTINUOUS
 62
     2
100
AcDbText
 10
240.6933535819709
 20
1539.0300293
 30
0.0
 40
40.0
  1
ＮＴ７ＡＢＷ１
 41
0.9390243902439025
  7
EXCADSTD
 72
     5
 11
460.6933535819709
 21
1539.0300293
 31
0.0
100
AcDbText
  0
LINE
  5
50F
330
1F
100
AcDbEntity
  8
寸法
  6
CONTINUOUS
 62
     3
100
AcDbLine
 10
455.7799014819708
 20
1534.0300293
 30
0.0
 11
242.5369873000001
 21
1534.0300293
 31
0.0
  0
TEXT
  5
510
330
1F
100
AcDbEntity
  8
寸法
  6
CONTINUOUS
 62
     2
100
AcDbText
 10
452.5821790002202
 20
759.92127710804
 30
0.0
 40
40.0
  1
ＮＬ３１Ｓ
 41
0.9655172413793103
  7
EXCADSTD
 72
     5
 11
612.5821790002202
 21
759.92127710804
 31
0.0
100
AcDbText
  0
LEADER
  5
511
330
1F
100
AcDbEntity
  8
寸法
  6
CONTINUOUS
 62
     3
100
AcDbLeader
  3
ISO-25
 76
     3
 10
667.2991321410249
 20
693.0300347513142
 30
0.0
 10
611.49110368962
 20
752.6265778383499
 30
0.0
 10
446.53682279047
 20
752.6265778383499
 30
0.0
1001
ACAD
1000
DSTYLE
1002
{
1070
     5
1000
EX_NORM
1070
    41
1040
30.0
1070
   341
1005
4F
1002
}
  0
TEXT
  5
512
330
1F
100
AcDbEntity
  8
寸法
  6
CONTINUOUS
 62
     2
100
AcDbText
 10
283.5369873000001
 20
2469.1442871
 30
0.0
 40
40.0
  1
Ｗ.Ｌ.
 41
0.9692307692307692
  7
EXCADSTD
 72
     5
 11
379.5369873000001
 21
2469.1442871
 31
0.0
100
AcDbText
  0
LINE
  5
513
330
1F
100
AcDbEntity
  8
寸法
  6
CONTINUOUS
 62
     3
100
AcDbLine
 10
1777.2033569
 20
1204.3031269335
 30
0.0
 11
1873.1608154
 21
1204.3031269335
 31
0.0
  0
TEXT
  5
514
330
1F
100
AcDbEntity
  8
寸法
  6
CONTINUOUS
 62
     2
100
AcDbText
 10
1843.7335083
 20
1208.2496601335
 30
0.0
 40
25.0
  1
２
 41
1.12
  7
EXCADSTD
 72
     5
 11
1863.7335083
 21
1208.2496601335
 31
0.0
100
AcDbText
  0
TEXT
  5
515
330
1F
100
AcDbEntity
  8
寸法
  6
CONTINUOUS
 62
     6
100
AcDbText
 10
1820.0681946
 20
1210.4107624335
 30
0.0
 40
40.0
  1
／
 41
1.12
  7
EXCADSTD
 72
     5
 11
1852.0681946
 21
1210.4107624335
 31
0.0
100
AcDbText
  0
TEXT
  5
516
330
1F
100
AcDbEntity
  8
寸法
  6
CONTINUOUS
 62
     2
100
AcDbText
 10
1808.4745666
 20
1225.8337361335
 30
0.0
 40
25.0
  1
１
 41
1.12
  7
EXCADSTD
 72
     5
 11
1828.4745666
 21
1225.8337361335
 31
0.0
100
AcDbText
  0
TEXT
  5
517
330
1F
100
AcDbEntity
  8
寸法
  6
CONTINUOUS
 62
     2
100
AcDbText
 10
1777.2033569
 20
1209.3031269335
 30
0.0
 40
40.0
  1
Ｒ
 41
1.12
  7
EXCADSTD
 72
     5
 11
1809.2033569
 21
1209.3031269335
 31
0.0
100
AcDbText
  0
LEADER
  5
518
330
1F
100
AcDbEntity
  8
寸法
  6
CONTINUOUS
 62
     3
100
AcDbLeader
  3
ISO-25
 76
     2
 10
1721.947099682738
 20
1120.500000000001
 30
0.0
 10
1777.2033569
 20
1204.3031269335
 30
0.0
1001
ACAD
1000
DSTYLE
1002
{
1070
     5
1000
EX_NORM
1070
    41
1040
35.0
1070
   341
1005
4F
1002
}
  0
TEXT
  5
519
330
1F
100
AcDbEntity
  8
寸法
  6
CONTINUOUS
 62
     2
100
AcDbText
 10
1768.9445739
 20
1128.5178364335
 30
0.0
 40
40.0
  1
φ２５
 41
1.029411764705882
  7
EXCADSTD
 72
     5
 11
1868.9445739
 21
1128.5178364335
 31
0.0
100
AcDbText
  0
POLYLINE
  5
51A
330
1F
100
AcDbEntity
  8
寸法
  6
CONTINUOUS
 62
     3
100
AcDb2dPolyline
 66
     1
 10
0.0
 20
0.0
 30
0.0
 70
   128
  0
VERTEX
  5
51B
330
51A
100
AcDbEntity
  8
寸法
  6
CONTINUOUS
 62
     3
100
AcDbVertex
100
AcDb2dVertex
 10
1739.078460427016
 20
1079.781999000988
 30
0.0
  0
VERTEX
  5
51C
330
51A
100
AcDbEntity
  8
寸法
  6
CONTINUOUS
 62
     3
100
AcDbVertex
100
AcDb2dVertex
 10
1773.097397392
 20
1124.3297566335
 30
0.0
  0
SEQEND
  5
51D
330
51A
100
AcDbEntity
  8
寸法
  6
CONTINUOUS
 62
     3
  0
LINE
  5
51E
330
1F
100
AcDbEntity
  8
寸法
  6
CONTINUOUS
 62
     3
100
AcDbLine
 10
1755.684579662645
 20
1111.139048953269
 30
0.0
 11
1739.078460427016
 21
1079.781999000988
 31
0.0
  0
LINE
  5
51F
330
1F
100
AcDbEntity
  8
寸法
  6
CONTINUOUS
 62
     3
100
AcDbLine
 10
1739.078460427016
 20
1079.781999000988
 30
0.0
 11
1764.956805634432
 21
1104.058304879428
 31
0.0
  0
LINE
  5
520
330
1F
100
AcDbEntity
  8
寸法
  6
CONTINUOUS
 62
     3
100
AcDbLine
 10
1773.097397392
 20
1124.3297566335
 30
0.0
 11
1871.2608154
 21
1124.3297566335
 31
0.0
  0
DIMENSION
  5
521
330
1F
100
AcDbEntity
  8
寸法
  6
CONTINUOUS
 62
     3
100
AcDbDimension
  2
*D29
 10
1720.0
 20
505.0
 30
0.0
 11
1875.0
 21
528.4999999403954
 31
0.0
 70
   160
  1
65（床給排水）
  3
ISO-25
100
AcDbAlignedDimension
 13
1655.0
 23
570.1300293
 33
0.0
 14
1720.0
 24
585.0
 34
0.0
100
AcDbRotatedDimension
1001
ACAD
1000
DSTYLE
1002
{
1070
   270
1070
     2
1070
     6
1000
EX_NORM
1070
     7
1000
EX_NORM
1070
    41
1040
30.0
1070
    42
1040
24.30000066757202
1070
    44
1040
10.0
1070
    73
1070
     0
1070
    74
1070
     0
1070
    75
1070
     0
1070
    76
1070
     0
1070
    77
1070
     1
1070
    78
1070
     8
1070
   140
1040
40.0
1070
   147
1040
0.0
1070
   173
1070
     1
1070
   176
1070
     3
1070
   177
1070
     3
1070
   178
1070
     2
1070
   271
1070
     2
1070
   277
1070
     2
1070
   279
1070
     2
1070
   280
1070
     0
1070
   287
1070
     5
1070
   340
1005
451
1002
}
  0
DIMENSION
  5
52E
330
1F
100
AcDbEntity
  8
寸法
  6
CONTINUOUS
 62
     3
100
AcDbDimension
  2
*D30
 10
795.0000000000002
 20
505.0
 30
0.0
 11
875.0000000000002
 21
528.4999999403954
 31
0.0
 70
   160
  1
115
  3
ISO-25
100
AcDbAlignedDimension
 13
680.0
 23
510.0300293000001
 33
0.0
 14
795.0000000000002
 24
559.0300293
 34
0.0
100
AcDbRotatedDimension
1001
ACAD
1000
DSTYLE
1002
{
1070
   270
1070
     2
1070
     6
1000
EX_NORM
1070
     7
1000
EX_NORM
1070
    41
1040
30.0
1070
    42
1040
0.0
1070
    44
1040
0.0
1070
    73
1070
     0
1070
    74
1070
     0
1070
    75
1070
     0
1070
    76
1070
     0
1070
    77
1070
     1
1070
    78
1070
     8
1070
   140
1040
40.0
1070
   147
1040
0.0
1070
   173
1070
     1
1070
   176
1070
     3
1070
   177
1070
     3
1070
   178
1070
     2
1070
   271
1070
     2
1070
   277
1070
     2
1070
   279
1070
     2
1070
   280
1070
     2
1070
   287
1070
     5
1070
   340
1005
451
1002
}
  0
TEXT
  5
53B
330
1F
100
AcDbEntity
  8
寸法
  6
CONTINUOUS
 62
     2
100
AcDbText
 10
383.6933535819709
 20
1624.5346447952
 30
0.0
 40
40.0
  1
ＮＴ３１＃
 41
0.9655172413793103
  7
EXCADSTD
 72
     5
 11
543.6933535819709
 21
1624.5346447952
 31
0.0
100
AcDbText
  0
POLYLINE
  5
53C
330
1F
100
AcDbEntity
  8
寸法
  6
CONTINUOUS
 62
     3
100
AcDb2dPolyline
 66
     1
 10
0.0
 20
0.0
 30
0.0
 70
   128
  0
VERTEX
  5
53D
330
53C
100
AcDbEntity
  8
寸法
  6
CONTINUOUS
 62
     3
100
AcDbVertex
100
AcDb2dVertex
 10
578.4192507199454
 20
1574.480053907296
 30
0.0
  0
VERTEX
  5
53E
330
53C
100
AcDbEntity
  8
寸法
  6
CONTINUOUS
 62
     3
100
AcDbVertex
100
AcDb2dVertex
 10
538.779901481971
 20
1619.5346447952
 30
0.0
  0
SEQEND
  5
53F
330
53C
100
AcDbEntity
  8
寸法
  6
CONTINUOUS
 62
     3
  0
LINE
  5
540
330
1F
100
AcDbEntity
  8
寸法
  6
CONTINUOUS
 62
     3
100
AcDbLine
 10
550.920550015365
 20
1596.904354059981
 30
0.0
 11
578.4192507199454
 21
1574.480053907296
 31
0.0
  0
LINE
  5
541
330
1F
100
AcDbEntity
  8
寸法
  6
CONTINUOUS
 62
     3
100
AcDbLine
 10
578.4192507199454
 20
1574.480053907296
 30
0.0
 11
559.679712265132
 21
1604.610727253213
 31
0.0
  0
LINE
  5
542
330
1F
100
AcDbEntity
  8
寸法
  6
CONTINUOUS
 62
     3
100
AcDbLine
 10
538.7799014819708
 20
1619.5346447952
 30
0.0
 11
383.5369873000001
 21
1619.5346447952
 31
0.0
  0
TEXT
  5
543
330
1F
100
AcDbEntity
  8
寸法
  6
CONTINUOUS
 62
     2
100
AcDbText
 10
901.2369873000006
 20
1538.73737983
 30
0.0
 40
40.0
  1
Ｋ５
 41
1.020759090909092
  7
EXCADSTD
 72
     5
 11
965.3989873000006
 21
1538.73737983
 31
0.0
100
AcDbText
  0
DIMENSION
  5
544
330
1F
100
AcDbEntity
  8
寸法
  6
CONTINUOUS
 62
     3
100
AcDbDimension
  2
*D31
 10
795.0000000000002
 20
2644.6442871
 30
0.0
 11
680.0000000000003
 21
2668.144287040395
 31
0.0
 70
   160
  3
ISO-25
100
AcDbAlignedDimension
 13
565.0000000000001
 23
2482.6442871
 33
0.0
 14
795.0000000000002
 24
2482.6442871
 34
0.0
100
AcDbRotatedDimension
1001
ACAD
1000
DSTYLE
1002
{
1070
   270
1070
     2
1070
     6
1000
EX_NORM
1070
     7
1000
EX_NORM
1070
    41
1040
30.0
1070
    42
1040
5.0
1070
    44
1040
10.0
1070
    73
1070
     0
1070
    74
1070
     0
1070
    75
1070
     0
1070
    76
1070
     0
1070
    77
1070
     1
1070
    78
1070
     8
1070
   140
1040
40.0
1070
   147
1040
0.0
1070
   173
1070
     1
1070
   176
1070
     3
1070
   177
1070
     3
1070
   178
1070
     2
1070
   271
1070
     2
1070
   277
1070
     2
1070
   279
1070
     2
1070
   280
1070
     0
1070
   287
1070
     5
1070
   340
1005
451
1002
}
  0
TEXT
  5
551
330
1F
100
AcDbEntity
  8
寸法
  6
CONTINUOUS
 62
     2
100
AcDbText
 10
286.9608154
 20
588.5
 30
0.0
 40
40.0
  1
Ｆ.Ｌ.
 41
0.9692307692307692
  7
EXCADSTD
 72
     5
 11
382.9608154
 21
588.5
 31
0.0
100
AcDbText
  0
TEXT
  5
552
330
1F
100
AcDbEntity
  8
寸法
  6
CONTINUOUS
 62
     2
100
AcDbText
 10
1716.5
 20
1787.129280533501
 30
0.0
 40
40.0
  1
Ｗ.Ｌ.
 50
90.0
 41
0.9692307692307692
  7
EXCADSTD
 72
     5
 11
1716.5
 21
1883.129280533501
 31
0.0
100
AcDbText
  0
TEXT
  5
553
330
1F
100
AcDbEntity
  8
寸法
  6
CONTINUOUS
 62
     2
100
AcDbText
 10
1307.274157700001
 20
1175.9680177
 30
0.0
 40
40.0
  1
ＪＬ２ＭＹ
 41
0.9655172413793103
  7
EXCADSTD
 72
     5
 11
1467.274157700001
 21
1175.9680177
 31
0.0
100
AcDbText
  0
TEXT
  5
554
330
1F
100
AcDbEntity
  8
寸法
  6
CONTINUOUS
 62
     2
100
AcDbText
 10
313.0928728230002
 20
878.3247147803299
 30
0.0
 40
40.0
  1
ＪＬ２００Ｔ４ＷＭＹ
 41
0.9194915254237289
  7
EXCADSTD
 72
     5
 11
623.0928728230002
 21
878.3247147803299
 31
0.0
100
AcDbText
  0
LEADER
  5
555
330
1F
100
AcDbEntity
  8
寸法
  6
CONTINUOUS
 62
     3
100
AcDbLeader
  3
ISO-25
 76
     3
 10
784.4999694999999
 20
689.461266028916
 30
0.0
 10
613.5369873000002
 20
872.0300293
 30
0.0
 10
315.0000000000001
 20
872.0300293
 30
0.0
1001
ACAD
1000
DSTYLE
1002
{
1070
     5
1000
EX_NORM
1070
    41
1040
30.0
1070
   341
1005
4F
1002
}
  0
ENDSEC
  0
SECTION
  2
OBJECTS
  0
DICTIONARY
  5
C
330
0
100
AcDbDictionary
  3
ACAD_GROUP
350
D
  3
ACAD_LAYOUT
350
1A
  3
ACAD_MATERIAL
350
3B
  3
ACAD_MLEADERSTYLE
350
578
  3
ACAD_MLINESTYLE
350
17
  3
ACAD_PLOTSETTINGS
350
19
  3
ACAD_VISUALSTYLE
350
2A
  3
ACDBHEADERROUNDTRIPXREC
350
556
  3
ACDBVARIABLEDICTIONARY
350
576
  0
DICTIONARY
  5
D
102
{ACAD_REACTORS
330
C
102
}
330
C
100
AcDbDictionary
  0
DICTIONARY
  5
1A
102
{ACAD_REACTORS
330
C
102
}
330
C
100
AcDbDictionary
  0
DICTIONARY
  5
3B
102
{ACAD_REACTORS
330
C
102
}
330
C
100
AcDbDictionary
  3
BYBLOCK
350
3D
  3
BYLAYER
350
3C
  3
GLOBAL
350
3E
  0
DICTIONARY
  5
578
102
{ACAD_REACTORS
330
C
102
}
330
C
100
AcDbDictionary
  0
DICTIONARY
  5
17
102
{ACAD_REACTORS
330
C
102
}
330
C
100
AcDbDictionary
  3
STANDARD
350
18
  0
DICTIONARY
  5
19
102
{ACAD_REACTORS
330
C
102
}
330
C
100
AcDbDictionary
  0
DICTIONARY
  5
2A
102
{ACAD_REACTORS
330
C
102
}
330
C
100
AcDbDictionary
  3
2DWIREFRAME
350
2F
  3
3D_HIDDEN
350
31
  3
3DWIREFRAME
350
30
  3
BASIC
350
32
  3
BRIGHTEN
350
36
  3
COLORCHANGE
350
3A
  3
CONCEPTUAL
350
34
  3
DIM
350
35
  3
FACEPATTERN
350
39
  3
FLAT
350
2B
  3
FLATWITHEDGES
350
2C
  3
GOURAUD
350
2D
  3
GOURAUDWITHEDGES
350
2E
  3
LINEPATTERN
350
38
  3
REALISTIC
350
33
  3
THICKEN
350
37
  0
DICTIONARY
  5
556
102
{ACAD_REACTORS
330
C
102
}
330
C
100
AcDbDictionary
  3
CEPSNTYPE
350
55F
  3
DIMSTYLEDATA
350
575
  3
FINGERPRINTGUID
350
560
  3
HYPERLINKBASE
350
559
  3
INSUNITS
350
55E
  3
LAYOUTDICT
350
55B
  3
LWETCUNION
350
55D
  3
PLOTSETDICT
350
55C
  3
PSVPSCALE
350
562
  3
PUCSBASE
350
565
  3
PUCSORGBACK
350
56B
  3
PUCSORGBOTTOM
350
567
  3
PUCSORGFRONT
350
56A
  3
PUCSORGLEFT
350
568
  3
PUCSORGRIGHT
350
569
  3
PUCSORGTOP
350
566
  3
PUCSORTHOREF
350
563
  3
PUCSORTHOVIEW
350
564
  3
STYLESHEET
350
55A
  3
TSTACKALIGN
350
557
  3
TSTACKSIZE
350
558
  3
UCSBASE
350
56E
  3
UCSORGBACK
350
574
  3
UCSORGBOTTOM
350
570
  3
UCSORGFRONT
350
573
  3
UCSORGLEFT
350
571
  3
UCSORGRIGHT
350
572
  3
UCSORGTOP
350
56F
  3
UCSORTHOREF
350
56C
  3
UCSORTHOVIEW
350
56D
  3
VERSIONGUID
350
561
  0
DICTIONARY
  5
576
102
{ACAD_REACTORS
330
C
102
}
330
C
100
AcDbDictionary
  3
DIMASSOC
350
57B
  3
HIDETEXT
350
57C
  3
PSOLHEIGHT
350
57A
  3
PSOLWIDTH
350
579
  0
MATERIAL
  5
3D
102
{ACAD_REACTORS
330
3B
102
}
102
{ACAD_XDICTIONARY
360
57F
102
}
330
3B
100
AcDbMaterial
  1
ByBlock
  0
MATERIAL
  5
3C
102
{ACAD_REACTORS
330
3B
102
}
102
{ACAD_XDICTIONARY
360
57D
102
}
330
3B
100
AcDbMaterial
  1
ByLayer
  0
MATERIAL
  5
3E
102
{ACAD_REACTORS
330
3B
102
}
102
{ACAD_XDICTIONARY
360
581
102
}
330
3B
100
AcDbMaterial
  1
Global
  0
MLINESTYLE
  5
18
102
{ACAD_REACTORS
330
17
102
}
330
17
100
AcDbMlineStyle
  2
Standard
 70
     0
  3

 62
   256
 51
90.0
 52
90.0
 71
     2
 49
0.5
 62
   256
  6
BYLAYER
 49
-0.5
 62
   256
  6
BYLAYER
  0
ACAD_PROXY_OBJECT
  5
2F
102
{ACAD_REACTORS
330
2A
102
}
330
2A
100
AcDbProxyObject
 90
      499
 91
      501
 93
      436
310
42CC9915DA5C99599C985B595049028333333333333E3BF0000000000000FB0107901411070040501600405405064090741402480A0340
1001
ACAD
1000
AcDbSavedByObjectVersion
1070
     0
  0
ACAD_PROXY_OBJECT
  5
31
102
{ACAD_REACTORS
330
2A
102
}
330
2A
100
AcDbProxyObject
 90
      499
 91
      501
 93
      500
310
424CD108121A5919195B90640502408333333333333E3BF0000000000000FB01079024090700405020000000000001110200405405064090740C02480A0340
1001
ACAD
1000
AcDbSavedByObjectVersion
1070
     0
  0
ACAD_PROXY_OBJECT
  5
30
102
{ACAD_REACTORS
330
2A
102
}
330
2A
100
AcDbProxyObject
 90
      499
 91
      501
 93
      436
310
42CCD915DA5C99599C985B595059028333333333333E3BF0000000000000FB0107901411070040501600405405064090741402480A0340
1001
ACAD
1000
AcDbSavedByObjectVersion
1070
     0
  0
ACAD_PROXY_OBJECT
  5
32
102
{ACAD_REACTORS
330
2A
102
}
330
2A
100
AcDbProxyObject
 90
      499
 91
      501
 93
      388
310
4150985CDA58D07406404333333333333E3BF0000000000000FB0107A41107004050150841D405064090741402480A0350
1001
ACAD
1000
AcDbSavedByObjectVersion
1070
     0
  0
ACAD_PROXY_OBJECT
  5
36
102
{ACAD_REACTORS
330
2A
102
}
330
2A
100
AcDbProxyObject
 90
      499
 91
      501
 93
      428
310
42109C9A59DA1D195B90C409028333333333333E3BF0000000000000FB010790141107004050150841D405064090741402480A029950
1001
ACAD
1000
AcDbSavedByObjectVersion
1070
     0
  0
ACAD_PROXY_OBJECT
  5
3A
102
{ACAD_REACTORS
330
2A
102
}
330
2A
100
AcDbProxyObject
 90
      499
 91
      501
 93
      452
310
42D0DBDB1BDC90DA185B99D95104090240C333333333333E3BF0000000000000FB0108901411070040501508421405064090741402480A0350
1001
ACAD
1000
AcDbSavedByObjectVersion
1070
     0
  0
ACAD_PROXY_OBJECT
  5
34
102
{ACAD_REACTORS
330
2A
102
}
330
2A
100
AcDbProxyObject
 90
      499
 91
      501
 93
      500
310
4290DBDB98D95C1D1D585B10940D028333333333333E3BF0000000000000FB0107902409070040501000000000000111010841D405064090740C02480A0340
1001
ACAD
1000
AcDbSavedByObjectVersion
1070
     0
  0
ACAD_PROXY_OBJECT
  5
35
102
{ACAD_REACTORS
330
2A
102
}
330
2A
100
AcDbProxyObject
 90
      499
 91
      501
 93
      412
310
40D11A5B50B409028333333333333E3BF0000000000000FB010790141107004050150841D405064090741402480A02677FFFFFD0
1001
ACAD
1000
AcDbSavedByObjectVersion
1070
     0
  0
ACAD_PROXY_OBJECT
  5
39
102
{ACAD_REACTORS
330
2A
102
}
330
2A
100
AcDbProxyObject
 90
      499
 91
      501
 93
      444
310
42D19858D95C185D1D195C9B90F409028333333333333E3BF0000000000000FB010790141107004050150841D405064090741402480A0350
1001
ACAD
1000
AcDbSavedByObjectVersion
1070
     0
  0
ACAD_PROXY_OBJECT
  5
2B
102
{ACAD_REACTORS
330
2A
102
}
330
2A
100
AcDbProxyObject
 90
      499
 91
      501
 93
      388
310
41119B185D240901404333333333333E3BF0000000000000F9010740A41107004050150841D405064090741402480A1B50
1001
ACAD
1000
AcDbSavedByObjectVersion
1070
     0
  0
ACAD_PROXY_OBJECT
  5
2C
102
{ACAD_REACTORS
330
2A
102
}
330
2A
100
AcDbProxyObject
 90
      499
 91
      501
 93
      476
310
43519B185D15DA5D1A115919D95CD0140901404333333333333E3BF0000000000000F9010740901411070040501600405405064090741402480A1B50
1001
ACAD
1000
AcDbSavedByObjectVersion
1070
     0
  0
ACAD_PROXY_OBJECT
  5
2D
102
{ACAD_REACTORS
330
2A
102
}
330
2A
100
AcDbProxyObject
 90
      499
 91
      501
 93
      412
310
41D1DBDD5C985D5910240902404333333333333E3BF0000000000000F9010740A411070040501641D405064090741402480A1B50
1001
ACAD
1000
AcDbSavedByObjectVersion
1070
     0
  0
ACAD_PROXY_OBJECT
  5
2E
102
{ACAD_REACTORS
330
2A
102
}
330
2A
100
AcDbProxyObject
 90
      499
 91
      501
 93
      500
310
4411DBDD5C985D5915DA5D1A115919D95CD0340902404333333333333E3BF0000000000000F9010740901411070040501600405405064090741402480A1B50
1001
ACAD
1000
AcDbSavedByObjectVersion
1070
     0
  0
ACAD_PROXY_OBJECT
  5
38
102
{ACAD_REACTORS
330
2A
102
}
330
2A
100
AcDbProxyObject
 90
      499
 91
      501
 93
      444
310
42D31A5B995C185D1D195C9B90E409028333333333333E3BF0000000000000FB010790141107004050750841D405064090741402483A0350
1001
ACAD
1000
AcDbSavedByObjectVersion
1070
     0
  0
ACAD_PROXY_OBJECT
  5
33
102
{ACAD_REACTORS
330
2A
102
}
330
2A
100
AcDbProxyObject
 90
      499
 91
      501
 93
      420
310
425499585B1A5CDD1A58D08409028333333333333E3BF0000000000000FB01079019070040501508421405064090741402480A1B40
1001
ACAD
1000
AcDbSavedByObjectVersion
1070
     0
  0
ACAD_PROXY_OBJECT
  5
37
102
{ACAD_REACTORS
330
2A
102
}
330
2A
100
AcDbProxyObject
 90
      499
 91
      501
 93
      412
310
41D51A1A58DAD95B90D409028333333333333E3BF0000000000000FB010790141107004050150C41D405064090741402480A0350
1001
ACAD
1000
AcDbSavedByObjectVersion
1070
     0
  0
XRECORD
  5
55F
102
{ACAD_REACTORS
330
556
102
}
330
556
100
AcDbXrecord
 90
        0
  0
XRECORD
  5
575
102
{ACAD_REACTORS
330
556
102
}
330
556
100
AcDbXrecord
1000
DSTYLE
1002
{
1070
   340
340
11
1002
}
  0
XRECORD
  5
560
102
{ACAD_REACTORS
330
556
102
}
330
556
100
AcDbXrecord
  1
{69056D7E-78A6-4CC8-95D0-BCC9A4BBD48F}
  0
XRECORD
  5
559
102
{ACAD_REACTORS
330
556
102
}
330
556
100
AcDbXrecord
  1

  0
XRECORD
  5
55E
102
{ACAD_REACTORS
330
556
102
}
330
556
100
AcDbXrecord
 90
        4
  0
XRECORD
  5
55B
102
{ACAD_REACTORS
330
556
102
}
330
556
100
AcDbXrecord
340
1A
  0
XRECORD
  5
55D
102
{ACAD_REACTORS
330
556
102
}
330
556
100
AcDbXrecord
 90
    10781
  0
XRECORD
  5
55C
102
{ACAD_REACTORS
330
556
102
}
330
556
100
AcDbXrecord
340
19
  0
XRECORD
  5
562
102
{ACAD_REACTORS
330
556
102
}
330
556
100
AcDbXrecord
 40
0.0
  0
XRECORD
  5
565
102
{ACAD_REACTORS
330
556
102
}
330
556
100
AcDbXrecord
340
0
  0
XRECORD
  5
56B
102
{ACAD_REACTORS
330
556
102
}
330
556
100
AcDbXrecord
 10
0.0
 20
0.0
 30
0.0
  0
XRECORD
  5
567
102
{ACAD_REACTORS
330
556
102
}
330
556
100
AcDbXrecord
 10
0.0
 20
0.0
 30
0.0
  0
XRECORD
  5
56A
102
{ACAD_REACTORS
330
556
102
}
330
556
100
AcDbXrecord
 10
0.0
 20
0.0
 30
0.0
  0
XRECORD
  5
568
102
{ACAD_REACTORS
330
556
102
}
330
556
100
AcDbXrecord
 10
0.0
 20
0.0
 30
0.0
  0
XRECORD
  5
569
102
{ACAD_REACTORS
330
556
102
}
330
556
100
AcDbXrecord
 10
0.0
 20
0.0
 30
0.0
  0
XRECORD
  5
566
102
{ACAD_REACTORS
330
556
102
}
330
556
100
AcDbXrecord
 10
0.0
 20
0.0
 30
0.0
  0
XRECORD
  5
563
102
{ACAD_REACTORS
330
556
102
}
330
556
100
AcDbXrecord
340
0
  0
XRECORD
  5
564
102
{ACAD_REACTORS
330
556
102
}
330
556
100
AcDbXrecord
 70
     0
  0
XRECORD
  5
55A
102
{ACAD_REACTORS
330
556
102
}
330
556
100
AcDbXrecord
  1

  0
XRECORD
  5
557
102
{ACAD_REACTORS
330
556
102
}
330
556
100
AcDbXrecord
 90
        1
  0
XRECORD
  5
558
102
{ACAD_REACTORS
330
556
102
}
330
556
100
AcDbXrecord
 90
       70
  0
XRECORD
  5
56E
102
{ACAD_REACTORS
330
556
102
}
330
556
100
AcDbXrecord
340
0
  0
XRECORD
  5
574
102
{ACAD_REACTORS
330
556
102
}
330
556
100
AcDbXrecord
 10
0.0
 20
0.0
 30
0.0
  0
XRECORD
  5
570
102
{ACAD_REACTORS
330
556
102
}
330
556
100
AcDbXrecord
 10
0.0
 20
0.0
 30
0.0
  0
XRECORD
  5
573
102
{ACAD_REACTORS
330
556
102
}
330
556
100
AcDbXrecord
 10
0.0
 20
0.0
 30
0.0
  0
XRECORD
  5
571
102
{ACAD_REACTORS
330
556
102
}
330
556
100
AcDbXrecord
 10
0.0
 20
0.0
 30
0.0
  0
XRECORD
  5
572
102
{ACAD_REACTORS
330
556
102
}
330
556
100
AcDbXrecord
 10
0.0
 20
0.0
 30
0.0
  0
XRECORD
  5
56F
102
{ACAD_REACTORS
330
556
102
}
330
556
100
AcDbXrecord
 10
0.0
 20
0.0
 30
0.0
  0
XRECORD
  5
56C
102
{ACAD_REACTORS
330
556
102
}
330
556
100
AcDbXrecord
340
0
  0
XRECORD
  5
56D
102
{ACAD_REACTORS
330
556
102
}
330
556
100
AcDbXrecord
 70
     0
  0
XRECORD
  5
561
102
{ACAD_REACTORS
330
556
102
}
330
556
100
AcDbXrecord
  1
{FAEB1C32-E019-11D5-929B-00C0DF256EC4}
  0
DICTIONARYVAR
  5
57B
102
{ACAD_REACTORS
330
576
102
}
330
576
100
DictionaryVariables
280
     0
  1
2
  0
DICTIONARYVAR
  5
57C
102
{ACAD_REACTORS
330
576
102
}
330
576
100
DictionaryVariables
280
     0
  1
1
  0
DICTIONARYVAR
  5
57A
102
{ACAD_REACTORS
330
576
102
}
330
576
100
DictionaryVariables
280
     0
  1
80.000000
  0
DICTIONARYVAR
  5
579
102
{ACAD_REACTORS
330
576
102
}
330
576
100
DictionaryVariables
280
     0
  1
5.000000
  0
DICTIONARY
  5
57F
330
3D
100
AcDbDictionary
280
     1
  3
ACAD_XREC_ROUNDTRIP
360
580
  0
DICTIONARY
  5
57D
330
3C
100
AcDbDictionary
280
     1
  3
ACAD_XREC_ROUNDTRIP
360
57E
  0
DICTIONARY
  5
581
330
3E
100
AcDbDictionary
280
     1
  3
ACAD_XREC_ROUNDTRIP
360
582
  0
XRECORD
  5
580
102
{ACAD_REACTORS
330
57F
102
}
330
57F
100
AcDbXrecord
102
MATERIAL
148
0.0
149
0.0
149
0.0
 93
        0
 94
      127
282
     0
 72
     1
 77
     1
171
     1
175
     1
179
     1
273
     0
  0
XRECORD
  5
57E
102
{ACAD_REACTORS
330
57D
102
}
330
57D
100
AcDbXrecord
102
MATERIAL
148
0.0
149
0.0
149
0.0
 93
        0
 94
      127
282
     0
 72
     1
 77
     1
171
     1
175
     1
179
     1
273
     0
  0
XRECORD
  5
582
102
{ACAD_REACTORS
330
581
102
}
330
581
100
AcDbXrecord
102
MATERIAL
148
0.0
149
0.0
149
0.0
 93
        0
 94
      127
282
     0
 72
     1
 77
     1
171
     1
175
     1
179
     1
273
     0
  0
ENDSEC
  0
EOF
