  0
SECTION
  2
HEADER
  9
$ACADVER
  1
AC1014
  9
$ACADMAINTVER
 70
     9
  9
$DWGCODEPAGE
  3
ANSI_932
  9
$INSBASE
 10
0.0
 20
0.0
 30
0.0
  9
$EXTMIN
 10
17.40000000000407
 20
9.299999999999955
 30
0.0
  9
$EXTMAX
 10
199.4000000000043
 20
289.3
 30
0.0
  9
$LIMMIN
 10
0.0
 20
0.0
  9
$LIMMAX
 10
210.0
 20
297.0
  9
$ORTHOMODE
 70
     0
  9
$REGENMODE
 70
     1
  9
$FILLMODE
 70
     1
  9
$QTEXTMODE
 70
     0
  9
$MIRRTEXT
 70
     1
  9
$DRAGMODE
 70
     2
  9
$LTSCALE
 40
1.0
  9
$OSMODE
 70
    37
  9
$ATTMODE
 70
     1
  9
$TEXTSIZE
 40
2.5
  9
$TRACEWID
 40
1.0
  9
$TEXTSTYLE
  7
STANDARD
  9
$CLAYER
  8
寸法
  9
$CELTYPE
  6
BYLAYER
  9
$CECOLOR
 62
   256
  9
$CELTSCALE
 40
1.0
  9
$DELOBJ
 70
     1
  9
$DISPSILH
 70
     0
  9
$DIMSCALE
 40
1.0
  9
$DIMASZ
 40
2.5
  9
$DIMEXO
 40
0.625
  9
$DIMDLI
 40
3.75
  9
$DIMRND
 40
0.0
  9
$DIMDLE
 40
0.0
  9
$DIMEXE
 40
1.25
  9
$DIMTP
 40
0.0
  9
$DIMTM
 40
0.0
  9
$DIMTXT
 40
2.5
  9
$DIMCEN
 40
2.5
  9
$DIMTSZ
 40
0.0
  9
$DIMTOL
 70
     0
  9
$DIMLIM
 70
     0
  9
$DIMTIH
 70
     0
  9
$DIMTOH
 70
     0
  9
$DIMSE1
 70
     0
  9
$DIMSE2
 70
     0
  9
$DIMTAD
 70
     1
  9
$DIMZIN
 70
     8
  9
$DIMBLK
  1

  9
$DIMASO
 70
     1
  9
$DIMSHO
 70
     1
  9
$DIMPOST
  1

  9
$DIMAPOST
  1

  9
$DIMALT
 70
     0
  9
$DIMALTD
 70
     3
  9
$DIMALTF
 40
0.03937007874016
  9
$DIMLFAC
 40
1.0
  9
$DIMTOFL
 70
     1
  9
$DIMTVP
 40
0.0
  9
$DIMTIX
 70
     0
  9
$DIMSOXD
 70
     0
  9
$DIMSAH
 70
     0
  9
$DIMBLK1
  1

  9
$DIMBLK2
  1

  9
$DIMSTYLE
  2
ISO-25
  9
$DIMCLRD
 70
     0
  9
$DIMCLRE
 70
     0
  9
$DIMCLRT
 70
     0
  9
$DIMTFAC
 40
1.0
  9
$DIMGAP
 40
0.625
  9
$DIMJUST
 70
     0
  9
$DIMSD1
 70
     0
  9
$DIMSD2
 70
     0
  9
$DIMTOLJ
 70
     0
  9
$DIMTZIN
 70
     8
  9
$DIMALTZ
 70
     0
  9
$DIMALTTZ
 70
     0
  9
$DIMFIT
 70
     3
  9
$DIMUPT
 70
     0
  9
$DIMUNIT
 70
     2
  9
$DIMDEC
 70
     2
  9
$DIMTDEC
 70
     2
  9
$DIMALTU
 70
     2
  9
$DIMALTTD
 70
     3
  9
$DIMTXSTY
  7
STANDARD
  9
$DIMAUNIT
 70
     0
  9
$LUNITS
 70
     2
  9
$LUPREC
 70
     4
  9
$SKETCHINC
 40
1.0
  9
$FILLETRAD
 40
10.0
  9
$AUNITS
 70
     0
  9
$AUPREC
 70
     0
  9
$MENU
  1
.
  9
$ELEVATION
 40
0.0
  9
$PELEVATION
 40
0.0
  9
$THICKNESS
 40
0.0
  9
$LIMCHECK
 70
     0
  9
$CHAMFERA
 40
10.0
  9
$CHAMFERB
 40
10.0
  9
$CHAMFERC
 40
20.0
  9
$CHAMFERD
 40
0.0
  9
$SKPOLY
 70
     0
  9
$TDCREATE
 40
2458963.639336435
  9
$TDUPDATE
 40
2458963.63933662
  9
$TDINDWG
 40
0.0000000116
  9
$TDUSRTIMER
 40
0.0000000116
  9
$USRTIMER
 70
     1
  9
$ANGBASE
 50
0.0
  9
$ANGDIR
 70
     0
  9
$PDMODE
 70
     0
  9
$PDSIZE
 40
0.0
  9
$PLINEWID
 40
0.0
  9
$COORDS
 70
     1
  9
$SPLFRAME
 70
     0
  9
$SPLINETYPE
 70
     6
  9
$SPLINESEGS
 70
     8
  9
$ATTDIA
 70
     0
  9
$ATTREQ
 70
     1
  9
$HANDLING
 70
     1
  9
$HANDSEED
  5
460
  9
$SURFTAB1
 70
     6
  9
$SURFTAB2
 70
     6
  9
$SURFTYPE
 70
     6
  9
$SURFU
 70
     6
  9
$SURFV
 70
     6
  9
$UCSNAME
  2

  9
$UCSORG
 10
0.0
 20
0.0
 30
0.0
  9
$UCSXDIR
 10
1.0
 20
0.0
 30
0.0
  9
$UCSYDIR
 10
0.0
 20
1.0
 30
0.0
  9
$PUCSNAME
  2

  9
$PUCSORG
 10
0.0
 20
0.0
 30
0.0
  9
$PUCSXDIR
 10
1.0
 20
0.0
 30
0.0
  9
$PUCSYDIR
 10
0.0
 20
1.0
 30
0.0
  9
$USERI1
 70
     0
  9
$USERI2
 70
     0
  9
$USERI3
 70
     0
  9
$USERI4
 70
     0
  9
$USERI5
 70
     0
  9
$USERR1
 40
0.0
  9
$USERR2
 40
0.0
  9
$USERR3
 40
0.0
  9
$USERR4
 40
0.0
  9
$USERR5
 40
0.0
  9
$WORLDVIEW
 70
     1
  9
$SHADEDGE
 70
     3
  9
$SHADEDIF
 70
    70
  9
$TILEMODE
 70
     1
  9
$MAXACTVP
 70
    64
  9
$PINSBASE
 10
0.0
 20
0.0
 30
0.0
  9
$PLIMCHECK
 70
     0
  9
$PEXTMIN
 10
1.000000000000000E+20
 20
1.000000000000000E+20
 30
1.000000000000000E+20
  9
$PEXTMAX
 10
-1.000000000000000E+20
 20
-1.000000000000000E+20
 30
-1.000000000000000E+20
  9
$PLIMMIN
 10
0.0
 20
0.0
  9
$PLIMMAX
 10
420.0
 20
297.0
  9
$UNITMODE
 70
     0
  9
$VISRETAIN
 70
     1
  9
$PLINEGEN
 70
     0
  9
$PSLTSCALE
 70
     1
  9
$TREEDEPTH
 70
  3020
  9
$PICKSTYLE
 70
     1
  9
$CMLSTYLE
  2
STANDARD
  9
$CMLJUST
 70
     0
  9
$CMLSCALE
 40
20.0
  9
$PROXYGRAPHICS
 70
     1
  9
$MEASUREMENT
 70
     1
  0
ENDSEC
  0
SECTION
  2
CLASSES
  0
CLASS
  1
ACDBDICTIONARYWDFLT
  2
AcDbDictionaryWithDefault
  3
ObjectDBX Classes
 90
        0
280
     0
281
     0
  0
CLASS
  1
VISUALSTYLE
  2
AcDbVisualStyle
  3
ObjectDBX Classes
 90
     4095
280
     0
281
     0
  0
CLASS
  1
MATERIAL
  2
AcDbMaterial
  3
ObjectDBX Classes
 90
     1153
280
     0
281
     0
  0
CLASS
  1
SUN
  2
AcDbSun
  3
SCENEOE
 90
     1024
280
     0
281
     0
  0
CLASS
  1
DICTIONARYVAR
  2
AcDbDictionaryVar
  3
ObjectDBX Classes
 90
        0
280
     0
281
     0
  0
CLASS
  1
XRECORD
  2
AcDbXrecord
  3
AutoCAD 2000
 90
        0
280
     0
281
     0
  0
CLASS
  1
LWPOLYLINE
  2
AcDbPolyline
  3
AutoCAD 2000
 90
        0
280
     0
281
     1
  0
CLASS
  1
HATCH
  2
AcDbHatch
  3
AutoCAD 2000
 90
        0
280
     0
281
     1
  0
CLASS
  1
ACDBPLACEHOLDER
  2
AcDbPlaceHolder
  3
ObjectDBX Classes
 90
        0
280
     0
281
     0
  0
CLASS
  1
LAYOUT
  2
AcDbLayout
  3
ObjectDBX Classes
 90
        0
280
     0
281
     0
  0
ENDSEC
  0
SECTION
  2
TABLES
  0
TABLE
  2
VPORT
  5
8
330
0
100
AcDbSymbolTable
 70
     1
  0
VPORT
  5
29
330
8
100
AcDbSymbolTableRecord
100
AcDbViewportTableRecord
  2
*ACTIVE
 70
     0
 10
0.0
 20
0.0
 11
1.0
 21
1.0
 12
1626.000000000063
 22
2239.5
 13
0.0
 23
0.0
 14
10.0
 24
10.0
 15
10.0
 25
10.0
 16
0.0
 26
0.0
 36
1.0
 17
0.0
 27
0.0
 37
0.0
 40
4200.0
 41
0.650000000000001
 42
50.0
 43
0.0
 44
0.0
 50
0.0
 51
0.0
 71
     0
 72
  1000
 73
     1
 74
     3
 75
     0
 76
     0
 77
     0
 78
     0
  0
ENDTAB
  0
TABLE
  2
LTYPE
  5
5
330
0
100
AcDbSymbolTable
 70
     7
  0
LTYPE
  5
14
330
5
100
AcDbSymbolTableRecord
100
AcDbLinetypeTableRecord
  2
BYBLOCK
 70
     0
  3

 72
    65
 73
     0
 40
0.0
  0
LTYPE
  5
15
330
5
100
AcDbSymbolTableRecord
100
AcDbLinetypeTableRecord
  2
BYLAYER
 70
     0
  3

 72
    65
 73
     0
 40
0.0
  0
LTYPE
  5
16
330
5
100
AcDbSymbolTableRecord
100
AcDbLinetypeTableRecord
  2
CONTINUOUS
 70
     0
  3
Solid line
 72
    65
 73
     0
 40
0.0
  0
LTYPE
  5
40
330
5
100
AcDbSymbolTableRecord
100
AcDbLinetypeTableRecord
  2
EXLTYPE1
 70
     0
  3
破線
 72
    65
 73
     2
 40
3.0
 49
2.0
 74
     0
 49
-1.0
 74
     0
  0
LTYPE
  5
41
330
5
100
AcDbSymbolTableRecord
100
AcDbLinetypeTableRecord
  2
EXLTYPE2
 70
     0
  3
点線
 72
    65
 73
     2
 40
2.0
 49
1.0
 74
     0
 49
-1.0
 74
     0
  0
LTYPE
  5
42
330
5
100
AcDbSymbolTableRecord
100
AcDbLinetypeTableRecord
  2
EXLTYPE3
 70
     0
  3
一点鎖線
 72
    65
 73
     4
 40
10.0
 49
7.0
 74
     0
 49
-1.0
 74
     0
 49
1.0
 74
     0
 49
-1.0
 74
     0
  0
LTYPE
  5
43
330
5
100
AcDbSymbolTableRecord
100
AcDbLinetypeTableRecord
  2
EXLTYPE4
 70
     0
  3
二点鎖線
 72
    65
 73
     6
 40
12.0
 49
7.0
 74
     0
 49
-1.0
 74
     0
 49
1.0
 74
     0
 49
-1.0
 74
     0
 49
1.0
 74
     0
 49
-1.0
 74
     0
  0
LTYPE
  5
44
330
5
100
AcDbSymbolTableRecord
100
AcDbLinetypeTableRecord
  2
EXLTYPE5
 70
     0
  3
三点鎖線
 72
    65
 73
     8
 40
37.0
 49
30.0
 74
     0
 49
-1.0
 74
     0
 49
1.0
 74
     0
 49
-1.0
 74
     0
 49
1.0
 74
     0
 49
-1.0
 74
     0
 49
1.0
 74
     0
 49
-1.0
 74
     0
  0
LTYPE
  5
45
330
5
100
AcDbSymbolTableRecord
100
AcDbLinetypeTableRecord
  2
EXLTYPE6
 70
     0
  3
四点鎖線
 72
    65
 73
    10
 40
39.0
 49
30.0
 74
     0
 49
-1.0
 74
     0
 49
1.0
 74
     0
 49
-1.0
 74
     0
 49
1.0
 74
     0
 49
-1.0
 74
     0
 49
1.0
 74
     0
 49
-1.0
 74
     0
 49
1.0
 74
     0
 49
-1.0
 74
     0
  0
ENDTAB
  0
TABLE
  2
LAYER
  5
2
330
0
100
AcDbSymbolTable
 70
     7
  0
LAYER
  5
10
330
2
100
AcDbSymbolTableRecord
100
AcDbLayerTableRecord
  2
0
 70
     0
 62
     7
  6
CONTINUOUS
  0
LAYER
  5
48
330
2
100
AcDbSymbolTableRecord
100
AcDbLayerTableRecord
  2
枠_表
 70
     0
 62
     7
  6
CONTINUOUS
  0
LAYER
  5
49
330
2
100
AcDbSymbolTableRecord
100
AcDbLayerTableRecord
  2
化粧台
 70
     0
 62
     7
  6
CONTINUOUS
  0
LAYER
  5
4A
330
2
100
AcDbSymbolTableRecord
100
AcDbLayerTableRecord
  2
鏡台
 70
     0
 62
     7
  6
CONTINUOUS
  0
LAYER
  5
4B
330
2
100
AcDbSymbolTableRecord
100
AcDbLayerTableRecord
  2
付属金具
 70
     0
 62
     7
  6
CONTINUOUS
  0
LAYER
  5
4C
330
2
100
AcDbSymbolTableRecord
100
AcDbLayerTableRecord
  2
寸法
 70
     0
 62
     7
  6
CONTINUOUS
  0
LAYER
  5
2F5
330
2
100
AcDbSymbolTableRecord
100
AcDbLayerTableRecord
  2
DEFPOINTS
 70
     0
 62
     7
  6
CONTINUOUS
  0
ENDTAB
  0
TABLE
  2
STYLE
  5
3
330
0
100
AcDbSymbolTable
 70
     5
  0
STYLE
  5
11
330
3
100
AcDbSymbolTableRecord
100
AcDbTextStyleTableRecord
  2
STANDARD
 70
     0
 40
0.0
 41
1.0
 50
0.0
 71
     0
 42
2.5
  3
monotxt
  4
extfont
  0
STYLE
  5
46
330
3
100
AcDbSymbolTableRecord
100
AcDbTextStyleTableRecord
  2
EXCADSTD
 70
     0
 40
0.0
 41
1.0
 50
0.0
 71
     0
 42
0.2
  3
monotxt
  4
extfont
  0
STYLE
  5
47
330
3
100
AcDbSymbolTableRecord
100
AcDbTextStyleTableRecord
  2
EXCADVERT
 70
     4
 40
0.0
 41
1.0
 50
0.0
 71
     0
 42
0.286885
  3
monotxt
  4
extfont
  0
STYLE
  5
B0
330
3
100
AcDbSymbolTableRecord
100
AcDbTextStyleTableRecord
  2
EXCADTTF1
 70
     0
 40
0.0
 41
1.0
 50
0.0
 71
     0
 42
0.2
  3
MSGOTHIC.TTC
  4

1001
ACAD
1000
MS Gothic
1071
    32817
  0
STYLE
  5
2F3
330
3
100
AcDbSymbolTableRecord
100
AcDbTextStyleTableRecord
  2
EXCADDIM1
 70
     0
 40
0.0
 41
0.84
 50
0.0
 71
     0
 42
0.2
  3
monotxt
  4
extfont
  0
ENDTAB
  0
TABLE
  2
VIEW
  5
6
330
0
100
AcDbSymbolTable
 70
     0
  0
ENDTAB
  0
TABLE
  2
UCS
  5
7
330
0
100
AcDbSymbolTable
 70
     0
  0
ENDTAB
  0
TABLE
  2
APPID
  5
9
330
0
100
AcDbSymbolTable
 70
     1
  0
APPID
  5
12
330
9
100
AcDbSymbolTableRecord
100
AcDbRegAppTableRecord
  2
ACAD
 70
     0
  0
ENDTAB
  0
TABLE
  2
DIMSTYLE
  5
A
330
0
100
AcDbSymbolTable
 70
     1
  0
DIMSTYLE
105
27
102
{ACAD_REACTORS
330
2F4
330
302
330
30F
330
31B
330
327
330
334
330
341
330
34D
330
359
330
365
330
372
330
380
330
38D
330
39A
330
3A7
330
3B3
330
3C6
330
3D3
330
3DF
330
3F5
330
402
330
417
330
425
102
}
330
A
100
AcDbSymbolTableRecord
100
AcDbDimStyleTableRecord
  2
ISO-25
 70
     0
  3

  4

  5

  6

  7

 40
1.0
 41
2.5
 42
0.625
 43
3.75
 44
1.25
 45
0.0
 46
0.0
 47
0.0
 48
0.0
140
2.5
141
2.5
142
0.0
143
0.03937007874016
144
1.0
145
0.0
146
1.0
147
0.625
 71
     0
 72
     0
 73
     0
 74
     0
 75
     0
 76
     0
 77
     1
 78
     8
170
     0
171
     3
172
     1
173
     0
174
     0
175
     0
176
     0
177
     0
178
     0
270
     2
271
     2
272
     2
273
     2
274
     3
340
11
275
     0
280
     0
281
     0
282
     0
283
     0
284
     8
285
     0
286
     0
287
     5
288
     0
  0
ENDTAB
  0
TABLE
  2
BLOCK_RECORD
  5
1
330
0
100
AcDbSymbolTable
 70
    38
  0
BLOCK_RECORD
  5
1F
330
1
100
AcDbSymbolTableRecord
100
AcDbBlockTableRecord
  2
*MODEL_SPACE
  0
BLOCK_RECORD
  5
1B
330
1
100
AcDbSymbolTableRecord
100
AcDbBlockTableRecord
  2
*PAPER_SPACE
  0
BLOCK_RECORD
  5
4D
330
1
100
AcDbSymbolTableRecord
100
AcDbBlockTableRecord
  2
EX_NORM
  0
BLOCK_RECORD
  5
50
330
1
100
AcDbSymbolTableRecord
100
AcDbBlockTableRecord
  2
EX_BNORM
  0
BLOCK_RECORD
  5
53
330
1
100
AcDbSymbolTableRecord
100
AcDbBlockTableRecord
  2
EX_BCIR
  0
BLOCK_RECORD
  5
56
330
1
100
AcDbSymbolTableRecord
100
AcDbBlockTableRecord
  2
EX_RCIVIL
  0
BLOCK_RECORD
  5
59
330
1
100
AcDbSymbolTableRecord
100
AcDbBlockTableRecord
  2
EX_SLANT
  0
BLOCK_RECORD
  5
5C
330
1
100
AcDbSymbolTableRecord
100
AcDbBlockTableRecord
  2
EX_NONE
  0
BLOCK_RECORD
  5
5F
330
1
100
AcDbSymbolTableRecord
100
AcDbBlockTableRecord
  2
EX_CIVIL
  0
BLOCK_RECORD
  5
62
330
1
100
AcDbSymbolTableRecord
100
AcDbBlockTableRecord
  2
EX_WCIR
  0
BLOCK_RECORD
  5
65
330
1
100
AcDbSymbolTableRecord
100
AcDbBlockTableRecord
  2
EX_WCIR2
  0
BLOCK_RECORD
  5
68
330
1
100
AcDbSymbolTableRecord
100
AcDbBlockTableRecord
  2
EX_WNORM
  0
BLOCK_RECORD
  5
6B
330
1
100
AcDbSymbolTableRecord
100
AcDbBlockTableRecord
  2
EX_NNORM
  0
BLOCK_RECORD
  5
6E
330
1
100
AcDbSymbolTableRecord
100
AcDbBlockTableRecord
  2
EX_BBOX
  0
BLOCK_RECORD
  5
71
330
1
100
AcDbSymbolTableRecord
100
AcDbBlockTableRecord
  2
EX_WBOX
  0
BLOCK_RECORD
  5
74
330
1
100
AcDbSymbolTableRecord
100
AcDbBlockTableRecord
  2
EX_INTEGRAL
  0
BLOCK_RECORD
  5
2F6
330
1
100
AcDbSymbolTableRecord
100
AcDbBlockTableRecord
  2
*D15
  0
BLOCK_RECORD
  5
303
330
1
100
AcDbSymbolTableRecord
100
AcDbBlockTableRecord
  2
*D16
  0
BLOCK_RECORD
  5
310
330
1
100
AcDbSymbolTableRecord
100
AcDbBlockTableRecord
  2
*D17
  0
BLOCK_RECORD
  5
31C
330
1
100
AcDbSymbolTableRecord
100
AcDbBlockTableRecord
  2
*D18
  0
BLOCK_RECORD
  5
328
330
1
100
AcDbSymbolTableRecord
100
AcDbBlockTableRecord
  2
*D19
  0
BLOCK_RECORD
  5
335
330
1
100
AcDbSymbolTableRecord
100
AcDbBlockTableRecord
  2
*D20
  0
BLOCK_RECORD
  5
342
330
1
100
AcDbSymbolTableRecord
100
AcDbBlockTableRecord
  2
*D21
  0
BLOCK_RECORD
  5
34E
330
1
100
AcDbSymbolTableRecord
100
AcDbBlockTableRecord
  2
*D22
  0
BLOCK_RECORD
  5
35A
330
1
100
AcDbSymbolTableRecord
100
AcDbBlockTableRecord
  2
*D23
  0
BLOCK_RECORD
  5
366
330
1
100
AcDbSymbolTableRecord
100
AcDbBlockTableRecord
  2
*D24
  0
BLOCK_RECORD
  5
373
330
1
100
AcDbSymbolTableRecord
100
AcDbBlockTableRecord
  2
*D25
  0
BLOCK_RECORD
  5
381
330
1
100
AcDbSymbolTableRecord
100
AcDbBlockTableRecord
  2
*D26
  0
BLOCK_RECORD
  5
38E
330
1
100
AcDbSymbolTableRecord
100
AcDbBlockTableRecord
  2
*D27
  0
BLOCK_RECORD
  5
39B
330
1
100
AcDbSymbolTableRecord
100
AcDbBlockTableRecord
  2
*D28
  0
BLOCK_RECORD
  5
3A8
330
1
100
AcDbSymbolTableRecord
100
AcDbBlockTableRecord
  2
*D29
  0
BLOCK_RECORD
  5
3B4
330
1
100
AcDbSymbolTableRecord
100
AcDbBlockTableRecord
  2
*D30
  0
BLOCK_RECORD
  5
3C7
330
1
100
AcDbSymbolTableRecord
100
AcDbBlockTableRecord
  2
*D31
  0
BLOCK_RECORD
  5
3D4
330
1
100
AcDbSymbolTableRecord
100
AcDbBlockTableRecord
  2
*D32
  0
BLOCK_RECORD
  5
3E0
330
1
100
AcDbSymbolTableRecord
100
AcDbBlockTableRecord
  2
*D33
  0
BLOCK_RECORD
  5
3F6
330
1
100
AcDbSymbolTableRecord
100
AcDbBlockTableRecord
  2
*D34
  0
BLOCK_RECORD
  5
403
330
1
100
AcDbSymbolTableRecord
100
AcDbBlockTableRecord
  2
*D35
  0
BLOCK_RECORD
  5
418
330
1
100
AcDbSymbolTableRecord
100
AcDbBlockTableRecord
  2
*D36
  0
BLOCK_RECORD
  5
426
330
1
100
AcDbSymbolTableRecord
100
AcDbBlockTableRecord
  2
*D37
  0
ENDTAB
  0
ENDSEC
  0
SECTION
  2
BLOCKS
  0
BLOCK
  5
20
330
1F
100
AcDbEntity
  8
0
100
AcDbBlockBegin
  2
*MODEL_SPACE
 70
     0
 10
0.0
 20
0.0
 30
0.0
  3
*MODEL_SPACE
  1

  0
ENDBLK
  5
21
330
1F
100
AcDbEntity
  8
0
100
AcDbBlockEnd
  0
BLOCK
  5
1C
330
1B
100
AcDbEntity
 67
     1
  8
0
100
AcDbBlockBegin
  2
*PAPER_SPACE
 70
     0
 10
0.0
 20
0.0
 30
0.0
  3
*PAPER_SPACE
  1

  0
ENDBLK
  5
1D
330
1B
100
AcDbEntity
 67
     1
  8
0
100
AcDbBlockEnd
  0
BLOCK
  5
4E
330
4D
100
AcDbEntity
  8
0
100
AcDbBlockBegin
  2
EX_NORM
 70
     0
 10
0.0
 20
0.0
 30
0.0
  3
EX_NORM
  1

  0
LINE
  5
77
330
4D
100
AcDbEntity
  8
0
  6
CONTINUOUS
 62
     0
100
AcDbLine
 10
0.0
 20
0.0
 30
0.0
 11
-1.0
 21
0.0
 31
0.0
  0
LINE
  5
78
330
4D
100
AcDbEntity
  8
0
  6
CONTINUOUS
 62
     0
100
AcDbLine
 10
0.0
 20
0.0
 30
0.0
 11
-1.0
 21
0.166666667
 31
0.0
  0
LINE
  5
79
330
4D
100
AcDbEntity
  8
0
  6
CONTINUOUS
 62
     0
100
AcDbLine
 10
0.0
 20
0.0
 30
0.0
 11
-1.0
 21
-0.166666667
 31
0.0
  0
ENDBLK
  5
4F
330
4D
100
AcDbEntity
  8
0
100
AcDbBlockEnd
  0
BLOCK
  5
51
330
50
100
AcDbEntity
  8
0
100
AcDbBlockBegin
  2
EX_BNORM
 70
     0
 10
0.0
 20
0.0
 30
0.0
  3
EX_BNORM
  1

  0
LINE
  5
7A
330
50
100
AcDbEntity
  8
0
  6
CONTINUOUS
 62
     0
100
AcDbLine
 10
0.0
 20
0.0
 30
0.0
 11
-1.0
 21
0.0
 31
0.0
  0
LINE
  5
7B
330
50
100
AcDbEntity
  8
0
  6
CONTINUOUS
 62
     0
100
AcDbLine
 10
0.0
 20
0.0
 30
0.0
 11
-1.0
 21
0.166666667
 31
0.0
  0
LINE
  5
7C
330
50
100
AcDbEntity
  8
0
  6
CONTINUOUS
 62
     0
100
AcDbLine
 10
0.0
 20
0.0
 30
0.0
 11
-1.0
 21
-0.166666667
 31
0.0
  0
LINE
  5
7D
330
50
100
AcDbEntity
  8
0
  6
CONTINUOUS
 62
     0
100
AcDbLine
 10
0.0
 20
0.0
 30
0.0
 11
-1.0
 21
0.083333333
 31
0.0
  0
LINE
  5
7E
330
50
100
AcDbEntity
  8
0
  6
CONTINUOUS
 62
     0
100
AcDbLine
 10
0.0
 20
0.0
 30
0.0
 11
-1.0
 21
-0.083333333
 31
0.0
  0
LINE
  5
7F
330
50
100
AcDbEntity
  8
0
  6
CONTINUOUS
 62
     0
100
AcDbLine
 10
-1.0
 20
0.166666667
 30
0.0
 11
-1.0
 21
-0.166666667
 31
0.0
  0
ENDBLK
  5
52
330
50
100
AcDbEntity
  8
0
100
AcDbBlockEnd
  0
BLOCK
  5
54
330
53
100
AcDbEntity
  8
0
100
AcDbBlockBegin
  2
EX_BCIR
 70
     0
 10
0.0
 20
0.0
 30
0.0
  3
EX_BCIR
  1

  0
LINE
  5
80
330
53
100
AcDbEntity
  8
0
  6
CONTINUOUS
 62
     0
100
AcDbLine
 10
0.0
 20
0.0
 30
0.0
 11
-1.0
 21
0.0
 31
0.0
  0
CIRCLE
  5
81
330
53
100
AcDbEntity
  8
0
  6
CONTINUOUS
 62
     0
100
AcDbCircle
 10
0.0
 20
0.0
 30
0.0
 40
0.5
  0
CIRCLE
  5
82
330
53
100
AcDbEntity
  8
0
  6
CONTINUOUS
 62
     0
100
AcDbCircle
 10
0.0
 20
0.0
 30
0.0
 40
0.25
  0
ENDBLK
  5
55
330
53
100
AcDbEntity
  8
0
100
AcDbBlockEnd
  0
BLOCK
  5
57
330
56
100
AcDbEntity
  8
0
100
AcDbBlockBegin
  2
EX_RCIVIL
 70
     0
 10
0.0
 20
0.0
 30
0.0
  3
EX_RCIVIL
  1

  0
LINE
  5
83
330
56
100
AcDbEntity
  8
0
  6
CONTINUOUS
 62
     0
100
AcDbLine
 10
0.0
 20
0.0
 30
0.0
 11
-1.0
 21
0.0
 31
0.0
  0
LINE
  5
84
330
56
100
AcDbEntity
  8
0
  6
CONTINUOUS
 62
     0
100
AcDbLine
 10
-1.0
 20
-0.25
 30
0.0
 11
0.0
 21
-0.25
 31
0.0
  0
LINE
  5
85
330
56
100
AcDbEntity
  8
0
  6
CONTINUOUS
 62
     0
100
AcDbLine
 10
-1.0
 20
-0.125
 30
0.0
 11
0.0
 21
-0.125
 31
0.0
  0
ENDBLK
  5
58
330
56
100
AcDbEntity
  8
0
100
AcDbBlockEnd
  0
BLOCK
  5
5A
330
59
100
AcDbEntity
  8
0
100
AcDbBlockBegin
  2
EX_SLANT
 70
     0
 10
0.0
 20
0.0
 30
0.0
  3
EX_SLANT
  1

  0
LINE
  5
86
330
59
100
AcDbEntity
  8
0
  6
CONTINUOUS
 62
     0
100
AcDbLine
 10
0.0
 20
0.0
 30
0.0
 11
-1.0
 21
0.0
 31
0.0
  0
LINE
  5
87
330
59
100
AcDbEntity
  8
0
  6
CONTINUOUS
 62
     0
100
AcDbLine
 10
0.707106781
 20
0.707106781
 30
0.0
 11
-0.707106781
 21
-0.707106781
 31
0.0
  0
ENDBLK
  5
5B
330
59
100
AcDbEntity
  8
0
100
AcDbBlockEnd
  0
BLOCK
  5
5D
330
5C
100
AcDbEntity
  8
0
100
AcDbBlockBegin
  2
EX_NONE
 70
     0
 10
0.0
 20
0.0
 30
0.0
  3
EX_NONE
  1

  0
LINE
  5
88
330
5C
100
AcDbEntity
  8
0
  6
CONTINUOUS
 62
     0
100
AcDbLine
 10
0.0
 20
0.0
 30
0.0
 11
-1.0
 21
0.0
 31
0.0
  0
ENDBLK
  5
5E
330
5C
100
AcDbEntity
  8
0
100
AcDbBlockEnd
  0
BLOCK
  5
60
330
5F
100
AcDbEntity
  8
0
100
AcDbBlockBegin
  2
EX_CIVIL
 70
     0
 10
0.0
 20
0.0
 30
0.0
  3
EX_CIVIL
  1

  0
LINE
  5
89
330
5F
100
AcDbEntity
  8
0
  6
CONTINUOUS
 62
     0
100
AcDbLine
 10
0.0
 20
0.0
 30
0.0
 11
-1.0
 21
0.0
 31
0.0
  0
LINE
  5
8A
330
5F
100
AcDbEntity
  8
0
  6
CONTINUOUS
 62
     0
100
AcDbLine
 10
-1.0
 20
0.25
 30
0.0
 11
0.0
 21
0.25
 31
0.0
  0
LINE
  5
8B
330
5F
100
AcDbEntity
  8
0
  6
CONTINUOUS
 62
     0
100
AcDbLine
 10
-1.0
 20
0.125
 30
0.0
 11
0.0
 21
0.125
 31
0.0
  0
ENDBLK
  5
61
330
5F
100
AcDbEntity
  8
0
100
AcDbBlockEnd
  0
BLOCK
  5
63
330
62
100
AcDbEntity
  8
0
100
AcDbBlockBegin
  2
EX_WCIR
 70
     0
 10
0.0
 20
0.0
 30
0.0
  3
EX_WCIR
  1

  0
LINE
  5
8C
330
62
100
AcDbEntity
  8
0
  6
CONTINUOUS
 62
     0
100
AcDbLine
 10
0.0
 20
0.0
 30
0.0
 11
-1.0
 21
0.0
 31
0.0
  0
CIRCLE
  5
8D
330
62
100
AcDbEntity
  8
0
  6
CONTINUOUS
 62
     0
100
AcDbCircle
 10
0.0
 20
0.0
 30
0.0
 40
0.5
  0
ENDBLK
  5
64
330
62
100
AcDbEntity
  8
0
100
AcDbBlockEnd
  0
BLOCK
  5
66
330
65
100
AcDbEntity
  8
0
100
AcDbBlockBegin
  2
EX_WCIR2
 70
     0
 10
0.0
 20
0.0
 30
0.0
  3
EX_WCIR2
  1

  0
LINE
  5
8E
330
65
100
AcDbEntity
  8
0
  6
CONTINUOUS
 62
     0
100
AcDbLine
 10
-0.5
 20
0.0
 30
0.0
 11
-1.0
 21
0.0
 31
0.0
  0
CIRCLE
  5
8F
330
65
100
AcDbEntity
  8
0
  6
CONTINUOUS
 62
     0
100
AcDbCircle
 10
0.0
 20
0.0
 30
0.0
 40
0.5
  0
ENDBLK
  5
67
330
65
100
AcDbEntity
  8
0
100
AcDbBlockEnd
  0
BLOCK
  5
69
330
68
100
AcDbEntity
  8
0
100
AcDbBlockBegin
  2
EX_WNORM
 70
     0
 10
0.0
 20
0.0
 30
0.0
  3
EX_WNORM
  1

  0
LINE
  5
90
330
68
100
AcDbEntity
  8
0
  6
CONTINUOUS
 62
     0
100
AcDbLine
 10
-1.0
 20
0.0
 30
0.0
 11
-1.0
 21
0.0
 31
0.0
  0
LINE
  5
91
330
68
100
AcDbEntity
  8
0
  6
CONTINUOUS
 62
     0
100
AcDbLine
 10
0.0
 20
0.0
 30
0.0
 11
-1.0
 21
0.166666667
 31
0.0
  0
LINE
  5
92
330
68
100
AcDbEntity
  8
0
  6
CONTINUOUS
 62
     0
100
AcDbLine
 10
0.0
 20
0.0
 30
0.0
 11
-1.0
 21
-0.166666667
 31
0.0
  0
LINE
  5
93
330
68
100
AcDbEntity
  8
0
  6
CONTINUOUS
 62
     0
100
AcDbLine
 10
-1.0
 20
0.166666667
 30
0.0
 11
-1.0
 21
-0.166666667
 31
0.0
  0
ENDBLK
  5
6A
330
68
100
AcDbEntity
  8
0
100
AcDbBlockEnd
  0
BLOCK
  5
6C
330
6B
100
AcDbEntity
  8
0
100
AcDbBlockBegin
  2
EX_NNORM
 70
     0
 10
0.0
 20
0.0
 30
0.0
  3
EX_NNORM
  1

  0
LINE
  5
94
330
6B
100
AcDbEntity
  8
0
  6
CONTINUOUS
 62
     0
100
AcDbLine
 10
0.0
 20
0.0
 30
0.0
 11
-1.0
 21
0.0
 31
0.0
  0
LINE
  5
95
330
6B
100
AcDbEntity
  8
0
  6
CONTINUOUS
 62
     0
100
AcDbLine
 10
0.0
 20
0.0
 30
0.0
 11
-1.0
 21
0.166666667
 31
0.0
  0
LINE
  5
96
330
6B
100
AcDbEntity
  8
0
  6
CONTINUOUS
 62
     0
100
AcDbLine
 10
0.0
 20
0.0
 30
0.0
 11
-1.0
 21
-0.166666667
 31
0.0
  0
LINE
  5
97
330
6B
100
AcDbEntity
  8
0
  6
CONTINUOUS
 62
     0
100
AcDbLine
 10
-1.0
 20
0.166666667
 30
0.0
 11
-1.0
 21
-0.166666667
 31
0.0
  0
ENDBLK
  5
6D
330
6B
100
AcDbEntity
  8
0
100
AcDbBlockEnd
  0
BLOCK
  5
6F
330
6E
100
AcDbEntity
  8
0
100
AcDbBlockBegin
  2
EX_BBOX
 70
     0
 10
0.0
 20
0.0
 30
0.0
  3
EX_BBOX
  1

  0
LINE
  5
98
330
6E
100
AcDbEntity
  8
0
  6
CONTINUOUS
 62
     0
100
AcDbLine
 10
0.0
 20
0.0
 30
0.0
 11
-1.0
 21
0.0
 31
0.0
  0
LINE
  5
99
330
6E
100
AcDbEntity
  8
0
  6
CONTINUOUS
 62
     0
100
AcDbLine
 10
-0.5
 20
0.5
 30
0.0
 11
0.5
 21
0.5
 31
0.0
  0
LINE
  5
9A
330
6E
100
AcDbEntity
  8
0
  6
CONTINUOUS
 62
     0
100
AcDbLine
 10
0.5
 20
0.5
 30
0.0
 11
0.5
 21
-0.5
 31
0.0
  0
LINE
  5
9B
330
6E
100
AcDbEntity
  8
0
  6
CONTINUOUS
 62
     0
100
AcDbLine
 10
0.5
 20
-0.5
 30
0.0
 11
-0.5
 21
-0.5
 31
0.0
  0
LINE
  5
9C
330
6E
100
AcDbEntity
  8
0
  6
CONTINUOUS
 62
     0
100
AcDbLine
 10
-0.5
 20
-0.5
 30
0.0
 11
-0.5
 21
0.5
 31
0.0
  0
LINE
  5
9D
330
6E
100
AcDbEntity
  8
0
  6
CONTINUOUS
 62
     0
100
AcDbLine
 10
-0.25
 20
0.25
 30
0.0
 11
0.25
 21
0.25
 31
0.0
  0
LINE
  5
9E
330
6E
100
AcDbEntity
  8
0
  6
CONTINUOUS
 62
     0
100
AcDbLine
 10
0.25
 20
0.25
 30
0.0
 11
0.25
 21
-0.25
 31
0.0
  0
LINE
  5
9F
330
6E
100
AcDbEntity
  8
0
  6
CONTINUOUS
 62
     0
100
AcDbLine
 10
0.25
 20
-0.25
 30
0.0
 11
-0.25
 21
-0.25
 31
0.0
  0
LINE
  5
A0
330
6E
100
AcDbEntity
  8
0
  6
CONTINUOUS
 62
     0
100
AcDbLine
 10
-0.25
 20
-0.25
 30
0.0
 11
-0.25
 21
0.25
 31
0.0
  0
ENDBLK
  5
70
330
6E
100
AcDbEntity
  8
0
100
AcDbBlockEnd
  0
BLOCK
  5
72
330
71
100
AcDbEntity
  8
0
100
AcDbBlockBegin
  2
EX_WBOX
 70
     0
 10
0.0
 20
0.0
 30
0.0
  3
EX_WBOX
  1

  0
LINE
  5
A1
330
71
100
AcDbEntity
  8
0
  6
CONTINUOUS
 62
     0
100
AcDbLine
 10
-0.5
 20
0.0
 30
0.0
 11
-1.0
 21
0.0
 31
0.0
  0
LINE
  5
A2
330
71
100
AcDbEntity
  8
0
  6
CONTINUOUS
 62
     0
100
AcDbLine
 10
-0.5
 20
0.5
 30
0.0
 11
0.5
 21
0.5
 31
0.0
  0
LINE
  5
A3
330
71
100
AcDbEntity
  8
0
  6
CONTINUOUS
 62
     0
100
AcDbLine
 10
0.5
 20
0.5
 30
0.0
 11
0.5
 21
-0.5
 31
0.0
  0
LINE
  5
A4
330
71
100
AcDbEntity
  8
0
  6
CONTINUOUS
 62
     0
100
AcDbLine
 10
0.5
 20
-0.5
 30
0.0
 11
-0.5
 21
-0.5
 31
0.0
  0
LINE
  5
A5
330
71
100
AcDbEntity
  8
0
  6
CONTINUOUS
 62
     0
100
AcDbLine
 10
-0.5
 20
-0.5
 30
0.0
 11
-0.5
 21
0.5
 31
0.0
  0
ENDBLK
  5
73
330
71
100
AcDbEntity
  8
0
100
AcDbBlockEnd
  0
BLOCK
  5
75
330
74
100
AcDbEntity
  8
0
100
AcDbBlockBegin
  2
EX_INTEGRAL
 70
     0
 10
0.0
 20
0.0
 30
0.0
  3
EX_INTEGRAL
  1

  0
LINE
  5
A6
330
74
100
AcDbEntity
  8
0
  6
CONTINUOUS
 62
     0
100
AcDbLine
 10
0.0
 20
0.0
 30
0.0
 11
-1.0
 21
0.0
 31
0.0
  0
ARC
  5
A7
330
74
100
AcDbEntity
  8
0
  6
CONTINUOUS
 62
     0
100
AcDbCircle
 10
0.542115
 20
0.164992
 30
0.0
 40
0.56667
100
AcDbArc
 50
73.07249033629006
 51
196.9275130221199
  0
ARC
  5
A8
330
74
100
AcDbEntity
  8
0
  6
CONTINUOUS
 62
     0
100
AcDbCircle
 10
-0.542115
 20
-0.164992
 30
0.0
 40
0.56667
100
AcDbArc
 50
253.0724869220464
 51
16.9275130559125
  0
ENDBLK
  5
76
330
74
100
AcDbEntity
  8
0
100
AcDbBlockEnd
  0
BLOCK
  5
2F7
330
2F6
100
AcDbEntity
  8
0
100
AcDbBlockBegin
  2
*D15
 70
     1
 10
0.0
 20
0.0
 30
0.0
  3
*D15
  1

  0
LINE
  5
2F9
330
2F6
100
AcDbEntity
  8
寸法
  6
CONTINUOUS
 62
     3
100
AcDbLine
 10
686.0000000000591
 20
3324.500000178814
 30
0.0
 11
686.0000000000591
 21
3190.000000000051
 31
0.0
  0
LINE
  5
2FA
330
2F6
100
AcDbEntity
  8
寸法
  6
CONTINUOUS
 62
     3
100
AcDbLine
 10
1236.000000000057
 20
3324.500000178814
 30
0.0
 11
1236.000000000057
 21
3190.000000000051
 31
0.0
  0
LINE
  5
2FB
330
2F6
100
AcDbEntity
  8
寸法
  6
CONTINUOUS
 62
     3
100
AcDbLine
 10
730.9999961853619
 20
3205.000000000051
 30
0.0
 11
1191.000003814754
 21
3205.000000000051
 31
0.0
  0
INSERT
  5
2FC
330
2F6
100
AcDbEntity
  8
寸法
 62
     3
100
AcDbBlockReference
  2
EX_NORM
 10
686.0000000000591
 20
3205.000000000051
 30
0.0
 41
44.99999618530273
 42
44.99999618530273
 43
44.99999618530273
 50
180.0
  0
INSERT
  5
2FD
330
2F6
100
AcDbEntity
  8
寸法
 62
     3
100
AcDbBlockReference
  2
EX_NORM
 10
1236.000000000057
 20
3205.000000000051
 30
0.0
 41
44.99999618530273
 42
44.99999618530273
 43
44.99999618530273
  0
MTEXT
  5
2FE
330
2F6
100
AcDbEntity
  8
寸法
 62
     2
100
AcDbMText
 10
961.0000000000582
 20
3240.249999910644
 30
0.0
 40
59.99999618530273
 41
0.0
 71
     5
 72
     1
  1
550
  7
EXCADDIM1
  0
POINT
  5
2FF
330
2F6
100
AcDbEntity
  8
DEFPOINTS
 62
     0
100
AcDbPoint
 10
686.0000000000591
 20
3335.0
 30
0.0
  0
POINT
  5
300
330
2F6
100
AcDbEntity
  8
DEFPOINTS
 62
     0
100
AcDbPoint
 10
1236.000000000057
 20
3335.0
 30
0.0
  0
POINT
  5
301
330
2F6
100
AcDbEntity
  8
DEFPOINTS
 62
     0
100
AcDbPoint
 10
1236.000000000057
 20
3205.000000000051
 30
0.0
  0
ENDBLK
  5
2F8
330
2F6
100
AcDbEntity
  8
0
100
AcDbBlockEnd
  0
BLOCK
  5
304
330
303
100
AcDbEntity
  8
0
100
AcDbBlockBegin
  2
*D16
 70
     1
 10
0.0
 20
0.0
 30
0.0
  3
*D16
  1

  0
LINE
  5
306
330
303
100
AcDbEntity
  8
寸法
  6
CONTINUOUS
 62
     3
100
AcDbLine
 10
586.0000000000591
 20
3364.500000178814
 30
0.0
 11
586.0000000000591
 21
3100.000000000051
 31
0.0
  0
LINE
  5
307
330
303
100
AcDbEntity
  8
寸法
  6
CONTINUOUS
 62
     3
100
AcDbLine
 10
1336.000000000055
 20
3364.500000178814
 30
0.0
 11
1336.000000000055
 21
3100.000000000051
 31
0.0
  0
LINE
  5
308
330
303
100
AcDbEntity
  8
寸法
  6
CONTINUOUS
 62
     3
100
AcDbLine
 10
630.9999961853619
 20
3115.000000000051
 30
0.0
 11
1291.000003814752
 21
3115.000000000051
 31
0.0
  0
INSERT
  5
309
330
303
100
AcDbEntity
  8
寸法
 62
     3
100
AcDbBlockReference
  2
EX_NORM
 10
586.0000000000591
 20
3115.000000000051
 30
0.0
 41
44.99999618530273
 42
44.99999618530273
 43
44.99999618530273
 50
180.0
  0
INSERT
  5
30A
330
303
100
AcDbEntity
  8
寸法
 62
     3
100
AcDbBlockReference
  2
EX_NORM
 10
1336.000000000055
 20
3115.000000000051
 30
0.0
 41
44.99999618530273
 42
44.99999618530273
 43
44.99999618530273
  0
MTEXT
  5
30B
330
303
100
AcDbEntity
  8
寸法
 62
     2
100
AcDbMText
 10
961.0000000000573
 20
3150.249999910644
 30
0.0
 40
59.99999618530273
 41
0.0
 71
     5
 72
     1
  1
750
  7
EXCADDIM1
  0
POINT
  5
30C
330
303
100
AcDbEntity
  8
DEFPOINTS
 62
     0
100
AcDbPoint
 10
586.0000000000591
 20
3375.0
 30
0.0
  0
POINT
  5
30D
330
303
100
AcDbEntity
  8
DEFPOINTS
 62
     0
100
AcDbPoint
 10
1336.000000000055
 20
3375.0
 30
0.0
  0
POINT
  5
30E
330
303
100
AcDbEntity
  8
DEFPOINTS
 62
     0
100
AcDbPoint
 10
1336.000000000055
 20
3115.000000000051
 30
0.0
  0
ENDBLK
  5
305
330
303
100
AcDbEntity
  8
0
100
AcDbBlockEnd
  0
BLOCK
  5
311
330
310
100
AcDbEntity
  8
0
100
AcDbBlockBegin
  2
*D17
 70
     1
 10
0.0
 20
0.0
 30
0.0
  3
*D17
  1

  0
LINE
  5
313
330
310
100
AcDbEntity
  8
寸法
  6
CONTINUOUS
 62
     3
100
AcDbLine
 10
1346.499999821241
 20
3375.0
 30
0.0
 11
1471.000000000057
 21
3375.0
 31
0.0
  0
LINE
  5
314
330
310
100
AcDbEntity
  8
寸法
  6
CONTINUOUS
 62
     3
100
AcDbLine
 10
1456.000000000057
 20
3780.000003814697
 30
0.0
 11
1456.000000000057
 21
3419.999996185303
 31
0.0
  0
INSERT
  5
315
330
310
100
AcDbEntity
  8
寸法
 62
     3
100
AcDbBlockReference
  2
EX_NORM
 10
1456.000000000057
 20
3825.0
 30
0.0
 41
44.99999618530273
 42
44.99999618530273
 43
44.99999618530273
 50
90.0
  0
INSERT
  5
316
330
310
100
AcDbEntity
  8
寸法
 62
     3
100
AcDbBlockReference
  2
EX_NORM
 10
1456.000000000057
 20
3375.0
 30
0.0
 41
44.99999618530273
 42
44.99999618530273
 43
44.99999618530273
 50
270.0
  0
MTEXT
  5
317
330
310
100
AcDbEntity
  8
寸法
 62
     2
100
AcDbMText
 10
1420.750000089466
 20
3600.0
 30
0.0
 40
59.99999618530273
 41
0.0
 71
     5
 72
     1
  1
450
  7
EXCADDIM1
 11
0.0
 21
1.0
 31
0.0
  0
POINT
  5
318
330
310
100
AcDbEntity
  8
DEFPOINTS
 62
     0
100
AcDbPoint
 10
1336.000000000055
 20
3825.0
 30
0.0
  0
POINT
  5
319
330
310
100
AcDbEntity
  8
DEFPOINTS
 62
     0
100
AcDbPoint
 10
1336.000000000055
 20
3375.0
 30
0.0
  0
POINT
  5
31A
330
310
100
AcDbEntity
  8
DEFPOINTS
 62
     0
100
AcDbPoint
 10
1456.000000000057
 20
3375.0
 30
0.0
  0
ENDBLK
  5
312
330
310
100
AcDbEntity
  8
0
100
AcDbBlockEnd
  0
BLOCK
  5
31D
330
31C
100
AcDbEntity
  8
0
100
AcDbBlockBegin
  2
*D18
 70
     1
 10
0.0
 20
0.0
 30
0.0
  3
*D18
  1

  0
LINE
  5
31F
330
31C
100
AcDbEntity
  8
寸法
  6
CONTINUOUS
 62
     3
100
AcDbLine
 10
1236.499999821243
 20
3325.0
 30
0.0
 11
1561.000000000057
 21
3325.0
 31
0.0
  0
LINE
  5
320
330
31C
100
AcDbEntity
  8
寸法
  6
CONTINUOUS
 62
     3
100
AcDbLine
 10
1546.000000000057
 20
3780.000003814697
 30
0.0
 11
1546.000000000057
 21
3369.999996185303
 31
0.0
  0
INSERT
  5
321
330
31C
100
AcDbEntity
  8
寸法
 62
     3
100
AcDbBlockReference
  2
EX_NORM
 10
1546.000000000057
 20
3825.0
 30
0.0
 41
44.99999618530273
 42
44.99999618530273
 43
44.99999618530273
 50
90.0
  0
INSERT
  5
322
330
31C
100
AcDbEntity
  8
寸法
 62
     3
100
AcDbBlockReference
  2
EX_NORM
 10
1546.000000000057
 20
3325.0
 30
0.0
 41
44.99999618530273
 42
44.99999618530273
 43
44.99999618530273
 50
270.0
  0
MTEXT
  5
323
330
31C
100
AcDbEntity
  8
寸法
 62
     2
100
AcDbMText
 10
1510.750000089466
 20
3575.0
 30
0.0
 40
59.99999618530273
 41
0.0
 71
     5
 72
     1
  1
500
  7
EXCADDIM1
 11
0.0
 21
1.0
 31
0.0
  0
POINT
  5
324
330
31C
100
AcDbEntity
  8
DEFPOINTS
 62
     0
100
AcDbPoint
 10
1336.000000000055
 20
3825.0
 30
0.0
  0
POINT
  5
325
330
31C
100
AcDbEntity
  8
DEFPOINTS
 62
     0
100
AcDbPoint
 10
1226.000000000057
 20
3325.0
 30
0.0
  0
POINT
  5
326
330
31C
100
AcDbEntity
  8
DEFPOINTS
 62
     0
100
AcDbPoint
 10
1546.000000000057
 20
3325.0
 30
0.0
  0
ENDBLK
  5
31E
330
31C
100
AcDbEntity
  8
0
100
AcDbBlockEnd
  0
BLOCK
  5
329
330
328
100
AcDbEntity
  8
0
100
AcDbBlockBegin
  2
*D19
 70
     1
 10
0.0
 20
0.0
 30
0.0
  3
*D19
  1

  0
LINE
  5
32B
330
328
100
AcDbEntity
  8
寸法
  6
CONTINUOUS
 62
     3
100
AcDbLine
 10
861.00000000006
 20
3843.499999821186
 30
0.0
 11
861.00000000006
 21
3929.999999999999
 31
0.0
  0
LINE
  5
32C
330
328
100
AcDbEntity
  8
寸法
  6
CONTINUOUS
 62
     3
100
AcDbLine
 10
1061.000000000059
 20
3848.999999821186
 30
0.0
 11
1061.000000000059
 21
3929.999999999999
 31
0.0
  0
LINE
  5
32D
330
328
100
AcDbEntity
  8
寸法
  6
CONTINUOUS
 62
     3
100
AcDbLine
 10
905.9999961853628
 20
3914.999999999999
 30
0.0
 11
1016.000003814756
 21
3914.999999999999
 31
0.0
  0
INSERT
  5
32E
330
328
100
AcDbEntity
  8
寸法
 62
     3
100
AcDbBlockReference
  2
EX_NORM
 10
861.00000000006
 20
3914.999999999999
 30
0.0
 41
44.99999618530273
 42
44.99999618530273
 43
44.99999618530273
 50
180.0
  0
INSERT
  5
32F
330
328
100
AcDbEntity
  8
寸法
 62
     3
100
AcDbBlockReference
  2
EX_NORM
 10
1061.000000000059
 20
3914.999999999999
 30
0.0
 41
44.99999618530273
 42
44.99999618530273
 43
44.99999618530273
  0
MTEXT
  5
330
330
328
100
AcDbEntity
  8
寸法
 62
     2
100
AcDbMText
 10
628.5000000000601
 20
3950.249999910592
 30
0.0
 40
59.99999618530273
 41
0.0
 71
     5
 72
     1
  1
200（壁給水）
  7
EXCADDIM1
  0
POINT
  5
331
330
328
100
AcDbEntity
  8
DEFPOINTS
 62
     0
100
AcDbPoint
 10
861.00000000006
 20
3833.0
 30
0.0
  0
POINT
  5
332
330
328
100
AcDbEntity
  8
DEFPOINTS
 62
     0
100
AcDbPoint
 10
1061.000000000059
 20
3838.5
 30
0.0
  0
POINT
  5
333
330
328
100
AcDbEntity
  8
DEFPOINTS
 62
     0
100
AcDbPoint
 10
1061.000000000059
 20
3914.999999999999
 30
0.0
  0
ENDBLK
  5
32A
330
328
100
AcDbEntity
  8
0
100
AcDbBlockEnd
  0
BLOCK
  5
336
330
335
100
AcDbEntity
  8
0
100
AcDbBlockBegin
  2
*D20
 70
     1
 10
0.0
 20
0.0
 30
0.0
  3
*D20
  1

  0
LINE
  5
338
330
335
100
AcDbEntity
  8
寸法
  6
CONTINUOUS
 62
     3
100
AcDbLine
 10
961.0000000000568
 20
3835.499999821186
 30
0.0
 11
961.0000000000568
 21
4019.999999999999
 31
0.0
  0
LINE
  5
339
330
335
100
AcDbEntity
  8
寸法
  6
CONTINUOUS
 62
     3
100
AcDbLine
 10
1161.000000000059
 20
3885.499999821186
 30
0.0
 11
1161.000000000059
 21
4019.999999999999
 31
0.0
  0
LINE
  5
33A
330
335
100
AcDbEntity
  8
寸法
  6
CONTINUOUS
 62
     3
100
AcDbLine
 10
1005.99999618536
 20
4004.999999999999
 30
0.0
 11
1116.000003814756
 21
4004.999999999999
 31
0.0
  0
INSERT
  5
33B
330
335
100
AcDbEntity
  8
寸法
 62
     3
100
AcDbBlockReference
  2
EX_NORM
 10
961.0000000000568
 20
4004.999999999999
 30
0.0
 41
44.99999618530273
 42
44.99999618530273
 43
44.99999618530273
 50
180.0
  0
INSERT
  5
33C
330
335
100
AcDbEntity
  8
寸法
 62
     3
100
AcDbBlockReference
  2
EX_NORM
 10
1161.000000000059
 20
4004.999999999999
 30
0.0
 41
44.99999618530273
 42
44.99999618530273
 43
44.99999618530273
  0
MTEXT
  5
33D
330
335
100
AcDbEntity
  8
寸法
 62
     2
100
AcDbMText
 10
728.5000000000571
 20
4040.249999910592
 30
0.0
 40
59.99999618530273
 41
0.0
 71
     5
 72
     1
  1
200（壁排水）
  7
EXCADDIM1
  0
POINT
  5
33E
330
335
100
AcDbEntity
  8
DEFPOINTS
 62
     0
100
AcDbPoint
 10
961.0000000000568
 20
3825.0
 30
0.0
  0
POINT
  5
33F
330
335
100
AcDbEntity
  8
DEFPOINTS
 62
     0
100
AcDbPoint
 10
1161.000000000059
 20
3875.0
 30
0.0
  0
POINT
  5
340
330
335
100
AcDbEntity
  8
DEFPOINTS
 62
     0
100
AcDbPoint
 10
1161.000000000059
 20
4004.999999999999
 30
0.0
  0
ENDBLK
  5
337
330
335
100
AcDbEntity
  8
0
100
AcDbBlockEnd
  0
BLOCK
  5
343
330
342
100
AcDbEntity
  8
0
100
AcDbBlockBegin
  2
*D21
 70
     1
 10
0.0
 20
0.0
 30
0.0
  3
*D21
  1

  0
LINE
  5
345
330
342
100
AcDbEntity
  8
寸法
  6
CONTINUOUS
 62
     3
100
AcDbLine
 10
2551.499999821245
 20
1349.5
 30
0.0
 11
2716.000000000059
 21
1349.5
 31
0.0
  0
LINE
  5
346
330
342
100
AcDbEntity
  8
寸法
  6
CONTINUOUS
 62
     3
100
AcDbLine
 10
2701.000000000059
 20
964.4999961853026
 30
0.0
 11
2701.000000000059
 21
1304.500003814697
 31
0.0
  0
INSERT
  5
347
330
342
100
AcDbEntity
  8
寸法
 62
     3
100
AcDbBlockReference
  2
EX_NORM
 10
2701.000000000059
 20
919.4999999999999
 30
0.0
 41
44.99999618530273
 42
44.99999618530273
 43
44.99999618530273
 50
270.0
  0
INSERT
  5
348
330
342
100
AcDbEntity
  8
寸法
 62
     3
100
AcDbBlockReference
  2
EX_NORM
 10
2701.000000000059
 20
1349.5
 30
0.0
 41
44.99999618530273
 42
44.99999618530273
 43
44.99999618530273
 50
90.0
  0
MTEXT
  5
349
330
342
100
AcDbEntity
  8
寸法
 62
     2
100
AcDbMText
 10
2665.750000089466
 20
1134.499999999998
 30
0.0
 40
59.99999618530273
 41
0.0
 71
     5
 72
     1
  1
430（壁排水）
  7
EXCADDIM1
 11
0.0
 21
1.0
 31
0.0
  0
POINT
  5
34A
330
342
100
AcDbEntity
  8
DEFPOINTS
 62
     0
100
AcDbPoint
 10
2491.000000000059
 20
919.5
 30
0.0
  0
POINT
  5
34B
330
342
100
AcDbEntity
  8
DEFPOINTS
 62
     0
100
AcDbPoint
 10
2541.000000000059
 20
1349.5
 30
0.0
  0
POINT
  5
34C
330
342
100
AcDbEntity
  8
DEFPOINTS
 62
     0
100
AcDbPoint
 10
2701.000000000059
 20
1349.5
 30
0.0
  0
ENDBLK
  5
344
330
342
100
AcDbEntity
  8
0
100
AcDbBlockEnd
  0
BLOCK
  5
34F
330
34E
100
AcDbEntity
  8
0
100
AcDbBlockBegin
  2
*D22
 70
     1
 10
0.0
 20
0.0
 30
0.0
  3
*D22
  1

  0
LINE
  5
351
330
34E
100
AcDbEntity
  8
寸法
  6
CONTINUOUS
 62
     3
100
AcDbLine
 10
2551.499999821245
 20
1349.5
 30
0.0
 11
2626.000000000059
 21
1349.5
 31
0.0
  0
LINE
  5
352
330
34E
100
AcDbEntity
  8
寸法
  6
CONTINUOUS
 62
     3
100
AcDbLine
 10
2611.000000000059
 20
964.4999961853026
 30
0.0
 11
2611.000000000059
 21
1304.500003814697
 31
0.0
  0
INSERT
  5
353
330
34E
100
AcDbEntity
  8
寸法
 62
     3
100
AcDbBlockReference
  2
EX_NORM
 10
2611.000000000059
 20
919.4999999999999
 30
0.0
 41
44.99999618530273
 42
44.99999618530273
 43
44.99999618530273
 50
270.0
  0
INSERT
  5
354
330
34E
100
AcDbEntity
  8
寸法
 62
     3
100
AcDbBlockReference
  2
EX_NORM
 10
2611.000000000059
 20
1349.5
 30
0.0
 41
44.99999618530273
 42
44.99999618530273
 43
44.99999618530273
 50
90.0
  0
MTEXT
  5
355
330
34E
100
AcDbEntity
  8
寸法
 62
     2
100
AcDbMText
 10
2575.750000089466
 20
1134.499999999998
 30
0.0
 40
59.99999618530273
 41
0.0
 71
     5
 72
     1
  1
430（壁給水）
  7
EXCADDIM1
 11
0.0
 21
1.0
 31
0.0
  0
POINT
  5
356
330
34E
100
AcDbEntity
  8
DEFPOINTS
 62
     0
100
AcDbPoint
 10
2491.000000000059
 20
919.5
 30
0.0
  0
POINT
  5
357
330
34E
100
AcDbEntity
  8
DEFPOINTS
 62
     0
100
AcDbPoint
 10
2541.000000000059
 20
1349.5
 30
0.0
  0
POINT
  5
358
330
34E
100
AcDbEntity
  8
DEFPOINTS
 62
     0
100
AcDbPoint
 10
2611.000000000059
 20
1349.5
 30
0.0
  0
ENDBLK
  5
350
330
34E
100
AcDbEntity
  8
0
100
AcDbBlockEnd
  0
BLOCK
  5
35B
330
35A
100
AcDbEntity
  8
0
100
AcDbBlockBegin
  2
*D23
 70
     1
 10
0.0
 20
0.0
 30
0.0
  3
*D23
  1

  0
LINE
  5
35D
330
35A
100
AcDbEntity
  8
寸法
  6
CONTINUOUS
 62
     3
100
AcDbLine
 10
2534.000005543145
 20
1499.5
 30
0.0
 11
2806.000000000059
 21
1499.5
 31
0.0
  0
LINE
  5
35E
330
35A
100
AcDbEntity
  8
寸法
  6
CONTINUOUS
 62
     3
100
AcDbLine
 10
2791.000000000059
 20
964.4999961853026
 30
0.0
 11
2791.000000000059
 21
1454.500003814697
 31
0.0
  0
INSERT
  5
35F
330
35A
100
AcDbEntity
  8
寸法
 62
     3
100
AcDbBlockReference
  2
EX_NORM
 10
2791.000000000059
 20
919.4999999999999
 30
0.0
 41
44.99999618530273
 42
44.99999618530273
 43
44.99999618530273
 50
270.0
  0
INSERT
  5
360
330
35A
100
AcDbEntity
  8
寸法
 62
     3
100
AcDbBlockReference
  2
EX_NORM
 10
2791.000000000059
 20
1499.5
 30
0.0
 41
44.99999618530273
 42
44.99999618530273
 43
44.99999618530273
 50
90.0
  0
MTEXT
  5
361
330
35A
100
AcDbEntity
  8
寸法
 62
     2
100
AcDbMText
 10
2755.750000089466
 20
1209.499999999998
 30
0.0
 40
59.99999618530273
 41
0.0
 71
     5
 72
     1
  1
580（壁固定）
  7
EXCADDIM1
 11
0.0
 21
1.0
 31
0.0
  0
POINT
  5
362
330
35A
100
AcDbEntity
  8
DEFPOINTS
 62
     0
100
AcDbPoint
 10
2491.000000000059
 20
919.5
 30
0.0
  0
POINT
  5
363
330
35A
100
AcDbEntity
  8
DEFPOINTS
 62
     0
100
AcDbPoint
 10
2523.500005721959
 20
1499.5
 30
0.0
  0
POINT
  5
364
330
35A
100
AcDbEntity
  8
DEFPOINTS
 62
     0
100
AcDbPoint
 10
2791.000000000059
 20
1499.5
 30
0.0
  0
ENDBLK
  5
35C
330
35A
100
AcDbEntity
  8
0
100
AcDbBlockEnd
  0
BLOCK
  5
367
330
366
100
AcDbEntity
  8
0
100
AcDbBlockBegin
  2
*D24
 70
     1
 10
0.0
 20
0.0
 30
0.0
  3
*D24
  1

  0
LINE
  5
369
330
366
100
AcDbEntity
  8
寸法
  6
CONTINUOUS
 62
     3
100
AcDbLine
 10
2391.000000000057
 20
859.0000001786939
 30
0.0
 11
2391.000000000057
 21
604.4999999999945
 31
0.0
  0
LINE
  5
36A
330
366
100
AcDbEntity
  8
寸法
  6
CONTINUOUS
 62
     3
100
AcDbLine
 10
2491.000000000059
 20
909.0000001788139
 30
0.0
 11
2491.000000000059
 21
604.4999999999945
 31
0.0
  0
LINE
  5
36B
330
366
100
AcDbEntity
  8
寸法
  6
CONTINUOUS
 62
     3
100
AcDbLine
 10
2435.99999618536
 20
619.4999999999945
 30
0.0
 11
2446.000003814756
 21
619.4999999999945
 31
0.0
  0
INSERT
  5
36C
330
366
100
AcDbEntity
  8
寸法
 62
     3
100
AcDbBlockReference
  2
EX_NORM
 10
2391.000000000057
 20
619.4999999999945
 30
0.0
 41
44.99999618530273
 42
44.99999618530273
 43
44.99999618530273
 50
180.0
  0
INSERT
  5
36D
330
366
100
AcDbEntity
  8
寸法
 62
     3
100
AcDbBlockReference
  2
EX_NORM
 10
2491.000000000059
 20
619.4999999999945
 30
0.0
 41
44.99999618530273
 42
44.99999618530273
 43
44.99999618530273
  0
MTEXT
  5
36E
330
366
100
AcDbEntity
  8
寸法
 62
     2
100
AcDbMText
 10
2723.500000000059
 20
654.7499999105876
 30
0.0
 40
59.99999618530273
 41
0.0
 71
     5
 72
     1
  1
100（床排水）
  7
EXCADDIM1
  0
POINT
  5
36F
330
366
100
AcDbEntity
  8
DEFPOINTS
 62
     0
100
AcDbPoint
 10
2391.000000000057
 20
869.49999999988
 30
0.0
  0
POINT
  5
370
330
366
100
AcDbEntity
  8
DEFPOINTS
 62
     0
100
AcDbPoint
 10
2491.000000000059
 20
919.5
 30
0.0
  0
POINT
  5
371
330
366
100
AcDbEntity
  8
DEFPOINTS
 62
     0
100
AcDbPoint
 10
2491.000000000059
 20
619.4999999999945
 30
0.0
  0
ENDBLK
  5
368
330
366
100
AcDbEntity
  8
0
100
AcDbBlockEnd
  0
BLOCK
  5
374
330
373
100
AcDbEntity
  8
0
100
AcDbBlockBegin
  2
*D25
 70
     1
 10
0.0
 20
0.0
 30
0.0
  3
*D25
  1

  0
LINE
  5
376
330
373
100
AcDbEntity
  8
寸法
  6
CONTINUOUS
 62
     3
100
AcDbLine
 10
2411.000000000059
 20
901.0000001788139
 30
0.0
 11
2411.000000000059
 21
694.4999999999945
 31
0.0
  0
LINE
  5
377
330
373
100
AcDbEntity
  8
寸法
  6
CONTINUOUS
 62
     3
100
AcDbLine
 10
2411.000000000059
 20
709.4999999999945
 30
0.0
 11
2491.000000000059
 21
709.4999999999945
 31
0.0
  0
LINE
  5
378
330
373
100
AcDbEntity
  8
寸法
  6
CONTINUOUS
 62
     3
100
AcDbLine
 10
2366.000003814756
 20
709.4999999999945
 30
0.0
 11
2321.000007629453
 21
709.4999999999945
 31
0.0
  0
LINE
  5
379
330
373
100
AcDbEntity
  8
寸法
  6
CONTINUOUS
 62
     3
100
AcDbLine
 10
2535.999996185361
 20
709.4999999999945
 30
0.0
 11
2580.999992370664
 21
709.4999999999945
 31
0.0
  0
INSERT
  5
37A
330
373
100
AcDbEntity
  8
寸法
 62
     3
100
AcDbBlockReference
  2
EX_NORM
 10
2411.000000000059
 20
709.4999999999945
 30
0.0
 41
44.99999618530273
 42
44.99999618530273
 43
44.99999618530273
  0
INSERT
  5
37B
330
373
100
AcDbEntity
  8
寸法
 62
     3
100
AcDbBlockReference
  2
EX_NORM
 10
2491.000000000059
 20
709.4999999999945
 30
0.0
 41
44.99999618530273
 42
44.99999618530273
 43
44.99999618530273
 50
180.0
  0
MTEXT
  5
37C
330
373
100
AcDbEntity
  8
寸法
 62
     2
100
AcDbMText
 10
2701.000000000059
 20
744.7499999105876
 30
0.0
 40
59.99999618530273
 41
0.0
 71
     5
 72
     1
  1
80（床給水）
  7
EXCADDIM1
  0
POINT
  5
37D
330
373
100
AcDbEntity
  8
DEFPOINTS
 62
     0
100
AcDbPoint
 10
2411.000000000059
 20
911.5
 30
0.0
  0
POINT
  5
37E
330
373
100
AcDbEntity
  8
DEFPOINTS
 62
     0
100
AcDbPoint
 10
2491.000000000059
 20
919.5
 30
0.0
  0
POINT
  5
37F
330
373
100
AcDbEntity
  8
DEFPOINTS
 62
     0
100
AcDbPoint
 10
2491.000000000059
 20
709.4999999999945
 30
0.0
  0
ENDBLK
  5
375
330
373
100
AcDbEntity
  8
0
100
AcDbBlockEnd
  0
BLOCK
  5
382
330
381
100
AcDbEntity
  8
0
100
AcDbBlockBegin
  2
*D26
 70
     1
 10
0.0
 20
0.0
 30
0.0
  3
*D26
  1

  0
LINE
  5
384
330
381
100
AcDbEntity
  8
寸法
  6
CONTINUOUS
 62
     3
100
AcDbLine
 10
706.0000000000387
 20
1485.200000178913
 30
0.0
 11
706.0000000000387
 21
1208.5
 31
0.0
  0
LINE
  5
385
330
381
100
AcDbEntity
  8
寸法
  6
CONTINUOUS
 62
     3
100
AcDbLine
 10
1216.000000000057
 20
1485.200000178913
 30
0.0
 11
1216.000000000057
 21
1208.5
 31
0.0
  0
LINE
  5
386
330
381
100
AcDbEntity
  8
寸法
  6
CONTINUOUS
 62
     3
100
AcDbLine
 10
750.9999961853414
 20
1223.5
 30
0.0
 11
1171.000003814754
 21
1223.5
 31
0.0
  0
INSERT
  5
387
330
381
100
AcDbEntity
  8
寸法
 62
     3
100
AcDbBlockReference
  2
EX_NORM
 10
706.0000000000387
 20
1223.5
 30
0.0
 41
44.99999618530273
 42
44.99999618530273
 43
44.99999618530273
 50
180.0
  0
INSERT
  5
388
330
381
100
AcDbEntity
  8
寸法
 62
     3
100
AcDbBlockReference
  2
EX_NORM
 10
1216.000000000057
 20
1223.5
 30
0.0
 41
44.99999618530273
 42
44.99999618530273
 43
44.99999618530273
  0
MTEXT
  5
389
330
381
100
AcDbEntity
  8
寸法
 62
     2
100
AcDbMText
 10
961.0000000000477
 20
1258.749999910593
 30
0.0
 40
59.99999618530273
 41
0.0
 71
     5
 72
     1
  1
510（壁固定）
  7
EXCADDIM1
  0
POINT
  5
38A
330
381
100
AcDbEntity
  8
DEFPOINTS
 62
     0
100
AcDbPoint
 10
706.0000000000387
 20
1495.700000000099
 30
0.0
  0
POINT
  5
38B
330
381
100
AcDbEntity
  8
DEFPOINTS
 62
     0
100
AcDbPoint
 10
1216.000000000057
 20
1495.700000000099
 30
0.0
  0
POINT
  5
38C
330
381
100
AcDbEntity
  8
DEFPOINTS
 62
     0
100
AcDbPoint
 10
1216.000000000057
 20
1223.5
 30
0.0
  0
ENDBLK
  5
383
330
381
100
AcDbEntity
  8
0
100
AcDbBlockEnd
  0
BLOCK
  5
38F
330
38E
100
AcDbEntity
  8
0
100
AcDbBlockBegin
  2
*D27
 70
     1
 10
0.0
 20
0.0
 30
0.0
  3
*D27
  1

  0
LINE
  5
391
330
38E
100
AcDbEntity
  8
寸法
  6
CONTINUOUS
 62
     3
100
AcDbLine
 10
796.0000000000582
 20
901.0000001788139
 30
0.0
 11
796.0000000000582
 21
784.4999999999945
 31
0.0
  0
LINE
  5
392
330
38E
100
AcDbEntity
  8
寸法
  6
CONTINUOUS
 62
     3
100
AcDbLine
 10
1126.000000000059
 20
901.0000001788139
 30
0.0
 11
1126.000000000059
 21
784.4999999999945
 31
0.0
  0
LINE
  5
393
330
38E
100
AcDbEntity
  8
寸法
  6
CONTINUOUS
 62
     3
100
AcDbLine
 10
840.9999961853609
 20
799.4999999999945
 30
0.0
 11
1081.000003814756
 21
799.4999999999945
 31
0.0
  0
INSERT
  5
394
330
38E
100
AcDbEntity
  8
寸法
 62
     3
100
AcDbBlockReference
  2
EX_NORM
 10
796.0000000000582
 20
799.4999999999945
 30
0.0
 41
44.99999618530273
 42
44.99999618530273
 43
44.99999618530273
 50
180.0
  0
INSERT
  5
395
330
38E
100
AcDbEntity
  8
寸法
 62
     3
100
AcDbBlockReference
  2
EX_NORM
 10
1126.000000000059
 20
799.4999999999945
 30
0.0
 41
44.99999618530273
 42
44.99999618530273
 43
44.99999618530273
  0
MTEXT
  5
396
330
38E
100
AcDbEntity
  8
寸法
 62
     2
100
AcDbMText
 10
563.5000000000581
 20
834.7499999105876
 30
0.0
 40
59.99999618530273
 41
0.0
 71
     5
 72
     1
  1
330（床給水）
  7
EXCADDIM1
  0
POINT
  5
397
330
38E
100
AcDbEntity
  8
DEFPOINTS
 62
     0
100
AcDbPoint
 10
796.0000000000582
 20
911.5
 30
0.0
  0
POINT
  5
398
330
38E
100
AcDbEntity
  8
DEFPOINTS
 62
     0
100
AcDbPoint
 10
1126.000000000059
 20
911.5
 30
0.0
  0
POINT
  5
399
330
38E
100
AcDbEntity
  8
DEFPOINTS
 62
     0
100
AcDbPoint
 10
1126.000000000059
 20
799.4999999999945
 30
0.0
  0
ENDBLK
  5
390
330
38E
100
AcDbEntity
  8
0
100
AcDbBlockEnd
  0
BLOCK
  5
39C
330
39B
100
AcDbEntity
  8
0
100
AcDbBlockBegin
  2
*D28
 70
     1
 10
0.0
 20
0.0
 30
0.0
  3
*D28
  1

  0
LINE
  5
39E
330
39B
100
AcDbEntity
  8
寸法
  6
CONTINUOUS
 62
     3
100
AcDbLine
 10
961.0000000000568
 20
909.0000001788139
 30
0.0
 11
961.0000000000568
 21
694.4999999999945
 31
0.0
  0
LINE
  5
39F
330
39B
100
AcDbEntity
  8
寸法
  6
CONTINUOUS
 62
     3
100
AcDbLine
 10
1201.000000000059
 20
859.0000001786939
 30
0.0
 11
1201.000000000059
 21
694.4999999999945
 31
0.0
  0
LINE
  5
3A0
330
39B
100
AcDbEntity
  8
寸法
  6
CONTINUOUS
 62
     3
100
AcDbLine
 10
1005.99999618536
 20
709.4999999999945
 30
0.0
 11
1156.000003814756
 21
709.4999999999945
 31
0.0
  0
INSERT
  5
3A1
330
39B
100
AcDbEntity
  8
寸法
 62
     3
100
AcDbBlockReference
  2
EX_NORM
 10
961.0000000000568
 20
709.4999999999945
 30
0.0
 41
44.99999618530273
 42
44.99999618530273
 43
44.99999618530273
 50
180.0
  0
INSERT
  5
3A2
330
39B
100
AcDbEntity
  8
寸法
 62
     3
100
AcDbBlockReference
  2
EX_NORM
 10
1201.000000000059
 20
709.4999999999945
 30
0.0
 41
44.99999618530273
 42
44.99999618530273
 43
44.99999618530273
  0
MTEXT
  5
3A3
330
39B
100
AcDbEntity
  8
寸法
 62
     2
100
AcDbMText
 10
728.5000000000568
 20
744.7499999105876
 30
0.0
 40
59.99999618530273
 41
0.0
 71
     5
 72
     1
  1
240（床排水）
  7
EXCADDIM1
  0
POINT
  5
3A4
330
39B
100
AcDbEntity
  8
DEFPOINTS
 62
     0
100
AcDbPoint
 10
961.0000000000568
 20
919.5
 30
0.0
  0
POINT
  5
3A5
330
39B
100
AcDbEntity
  8
DEFPOINTS
 62
     0
100
AcDbPoint
 10
1201.000000000059
 20
869.49999999988
 30
0.0
  0
POINT
  5
3A6
330
39B
100
AcDbEntity
  8
DEFPOINTS
 62
     0
100
AcDbPoint
 10
1201.000000000059
 20
709.4999999999945
 30
0.0
  0
ENDBLK
  5
39D
330
39B
100
AcDbEntity
  8
0
100
AcDbBlockEnd
  0
BLOCK
  5
3A9
330
3A8
100
AcDbEntity
  8
0
100
AcDbBlockBegin
  2
*D29
 70
     1
 10
0.0
 20
0.0
 30
0.0
  3
*D29
  1

  0
LINE
  5
3AB
330
3A8
100
AcDbEntity
  8
寸法
  6
CONTINUOUS
 62
     3
100
AcDbLine
 10
1346.499999821241
 20
1618.5
 30
0.0
 11
1471.000000000057
 21
1618.5
 31
0.0
  0
LINE
  5
3AC
330
3A8
100
AcDbEntity
  8
寸法
  6
CONTINUOUS
 62
     3
100
AcDbLine
 10
1456.000000000057
 20
964.4999961853028
 30
0.0
 11
1456.000000000057
 21
1573.500003814697
 31
0.0
  0
INSERT
  5
3AD
330
3A8
100
AcDbEntity
  8
寸法
 62
     3
100
AcDbBlockReference
  2
EX_NORM
 10
1456.000000000057
 20
919.5000000000001
 30
0.0
 41
44.99999618530273
 42
44.99999618530273
 43
44.99999618530273
 50
270.0
  0
INSERT
  5
3AE
330
3A8
100
AcDbEntity
  8
寸法
 62
     3
100
AcDbBlockReference
  2
EX_NORM
 10
1456.000000000057
 20
1618.5
 30
0.0
 41
44.99999618530273
 42
44.99999618530273
 43
44.99999618530273
 50
90.0
  0
MTEXT
  5
3AF
330
3A8
100
AcDbEntity
  8
寸法
 62
     2
100
AcDbMText
 10
1420.750000089464
 20
1269.0
 30
0.0
 40
59.99999618530273
 41
0.0
 71
     5
 72
     1
  1
699
  7
EXCADDIM1
 11
0.0
 21
1.0
 31
0.0
  0
POINT
  5
3B0
330
3A8
100
AcDbEntity
  8
DEFPOINTS
 62
     0
100
AcDbPoint
 10
1334.000000000055
 20
919.5
 30
0.0
  0
POINT
  5
3B1
330
3A8
100
AcDbEntity
  8
DEFPOINTS
 62
     0
100
AcDbPoint
 10
1336.000000000055
 20
1618.5
 30
0.0
  0
POINT
  5
3B2
330
3A8
100
AcDbEntity
  8
DEFPOINTS
 62
     0
100
AcDbPoint
 10
1456.000000000057
 20
1618.5
 30
0.0
  0
ENDBLK
  5
3AA
330
3A8
100
AcDbEntity
  8
0
100
AcDbBlockEnd
  0
BLOCK
  5
3B5
330
3B4
100
AcDbEntity
  8
0
100
AcDbBlockBegin
  2
*D30
 70
     1
 10
0.0
 20
0.0
 30
0.0
  3
*D30
  1

  0
LINE
  5
3B7
330
3B4
100
AcDbEntity
  8
寸法
  6
CONTINUOUS
 62
     3
100
AcDbLine
 10
1241.499999821243
 20
1758.5
 30
0.0
 11
1561.000000000057
 21
1758.5
 31
0.0
  0
LINE
  5
3B8
330
3B4
100
AcDbEntity
  8
寸法
  6
CONTINUOUS
 62
     3
100
AcDbLine
 10
1546.000000000057
 20
964.4999961853028
 30
0.0
 11
1546.000000000057
 21
1713.500003814697
 31
0.0
  0
INSERT
  5
3B9
330
3B4
100
AcDbEntity
  8
寸法
 62
     3
100
AcDbBlockReference
  2
EX_NORM
 10
1546.000000000057
 20
919.5000000000001
 30
0.0
 41
44.99999618530273
 42
44.99999618530273
 43
44.99999618530273
 50
270.0
  0
INSERT
  5
3BA
330
3B4
100
AcDbEntity
  8
寸法
 62
     3
100
AcDbBlockReference
  2
EX_NORM
 10
1546.000000000057
 20
1758.5
 30
0.0
 41
44.99999618530273
 42
44.99999618530273
 43
44.99999618530273
 50
90.0
  0
MTEXT
  5
3BB
330
3B4
100
AcDbEntity
  8
寸法
 62
     2
100
AcDbMText
 10
1510.750000089464
 20
1339.0
 30
0.0
 40
59.99999618530273
 41
0.0
 71
     5
 72
     1
  1
（839）
  7
EXCADDIM1
 11
0.0
 21
1.0
 31
0.0
  0
POINT
  5
3BC
330
3B4
100
AcDbEntity
  8
DEFPOINTS
 62
     0
100
AcDbPoint
 10
1334.000000000055
 20
919.5
 30
0.0
  0
POINT
  5
3BD
330
3B4
100
AcDbEntity
  8
DEFPOINTS
 62
     0
100
AcDbPoint
 10
1231.000000000057
 20
1758.5
 30
0.0
  0
POINT
  5
3BE
330
3B4
100
AcDbEntity
  8
DEFPOINTS
 62
     0
100
AcDbPoint
 10
1546.000000000057
 20
1758.5
 30
0.0
  0
ENDBLK
  5
3B6
330
3B4
100
AcDbEntity
  8
0
100
AcDbBlockEnd
  0
BLOCK
  5
3C8
330
3C7
100
AcDbEntity
  8
0
100
AcDbBlockBegin
  2
*D31
 70
     1
 10
0.0
 20
0.0
 30
0.0
  3
*D31
  1

  0
LINE
  5
3CA
330
3C7
100
AcDbEntity
  8
寸法
  6
CONTINUOUS
 62
     3
100
AcDbLine
 10
1346.499999821241
 20
1618.5
 30
0.0
 11
1471.000000000057
 21
1618.5
 31
0.0
  0
LINE
  5
3CB
330
3C7
100
AcDbEntity
  8
寸法
  6
CONTINUOUS
 62
     3
100
AcDbLine
 10
1241.499999821243
 20
1758.5
 30
0.0
 11
1471.000000000057
 21
1758.5
 31
0.0
  0
LINE
  5
3CC
330
3C7
100
AcDbEntity
  8
寸法
  6
CONTINUOUS
 62
     3
100
AcDbLine
 10
1456.000000000057
 20
1663.499996185303
 30
0.0
 11
1456.000000000057
 21
1713.500003814697
 31
0.0
  0
INSERT
  5
3CD
330
3C7
100
AcDbEntity
  8
寸法
 62
     3
100
AcDbBlockReference
  2
EX_NORM
 10
1456.000000000057
 20
1618.5
 30
0.0
 41
44.99999618530273
 42
44.99999618530273
 43
44.99999618530273
 50
270.0
  0
INSERT
  5
3CE
330
3C7
100
AcDbEntity
  8
寸法
 62
     3
100
AcDbBlockReference
  2
EX_NORM
 10
1456.000000000057
 20
1758.5
 30
0.0
 41
44.99999618530273
 42
44.99999618530273
 43
44.99999618530273
 50
90.0
  0
MTEXT
  5
3CF
330
3C7
100
AcDbEntity
  8
寸法
 62
     2
100
AcDbMText
 10
1420.750000089464
 20
1688.5
 30
0.0
 40
59.99999618530273
 41
0.0
 71
     5
 72
     1
  1
140
  7
EXCADDIM1
 11
0.0
 21
1.0
 31
0.0
  0
POINT
  5
3D0
330
3C7
100
AcDbEntity
  8
DEFPOINTS
 62
     0
100
AcDbPoint
 10
1336.000000000055
 20
1618.5
 30
0.0
  0
POINT
  5
3D1
330
3C7
100
AcDbEntity
  8
DEFPOINTS
 62
     0
100
AcDbPoint
 10
1231.000000000057
 20
1758.5
 30
0.0
  0
POINT
  5
3D2
330
3C7
100
AcDbEntity
  8
DEFPOINTS
 62
     0
100
AcDbPoint
 10
1456.000000000057
 20
1758.5
 30
0.0
  0
ENDBLK
  5
3C9
330
3C7
100
AcDbEntity
  8
0
100
AcDbBlockEnd
  0
BLOCK
  5
3D5
330
3D4
100
AcDbEntity
  8
0
100
AcDbBlockBegin
  2
*D32
 70
     1
 10
0.0
 20
0.0
 30
0.0
  3
*D32
  1

  0
LINE
  5
3D7
330
3D4
100
AcDbEntity
  8
寸法
  6
CONTINUOUS
 62
     3
100
AcDbLine
 10
1283.500000000105
 20
2669.5
 30
0.0
 11
1666.5
 21
2669.5
 31
0.0
  0
LINE
  5
3D8
330
3D4
100
AcDbEntity
  8
寸法
  6
CONTINUOUS
 62
     3
100
AcDbLine
 10
1644.0
 20
964.4999961853027
 30
0.0
 11
1644.0
 21
2624.500003814697
 31
0.0
  0
INSERT
  5
3D9
330
3D4
100
AcDbEntity
  8
寸法
 62
     3
100
AcDbBlockReference
  2
EX_NORM
 10
1644.0
 20
919.5
 30
0.0
 41
44.99999618530273
 42
44.99999618530273
 43
44.99999618530273
 50
270.0
  0
INSERT
  5
3DA
330
3D4
100
AcDbEntity
  8
寸法
 62
     3
100
AcDbBlockReference
  2
EX_NORM
 10
1644.0
 20
2669.5
 30
0.0
 41
44.99999618530273
 42
44.99999618530273
 43
44.99999618530273
 50
90.0
  0
MTEXT
  5
3DB
330
3D4
100
AcDbEntity
  8
寸法
 62
     2
100
AcDbMText
 10
1606.500000000001
 20
1794.499999999999
 30
0.0
 40
59.99999618530273
 41
0.0
 71
     5
 72
     1
  1
（1750）
  7
EXCADDIM1
 11
0.0
 21
1.0
 31
0.0
  0
POINT
  5
3DC
330
3D4
100
AcDbEntity
  8
DEFPOINTS
 62
     0
100
AcDbPoint
 10
1243.000000000205
 20
919.5
 30
0.0
  0
POINT
  5
3DD
330
3D4
100
AcDbEntity
  8
DEFPOINTS
 62
     0
100
AcDbPoint
 10
1261.000000000105
 20
2669.5
 30
0.0
  0
POINT
  5
3DE
330
3D4
100
AcDbEntity
  8
DEFPOINTS
 62
     0
100
AcDbPoint
 10
1644.0
 20
2669.5
 30
0.0
  0
ENDBLK
  5
3D6
330
3D4
100
AcDbEntity
  8
0
100
AcDbBlockEnd
  0
BLOCK
  5
3E1
330
3E0
100
AcDbEntity
  8
0
100
AcDbBlockBegin
  2
*D33
 70
     1
 10
0.0
 20
0.0
 30
0.0
  3
*D33
  1

  0
LINE
  5
3E3
330
3E0
100
AcDbEntity
  8
寸法
  6
CONTINUOUS
 62
     3
100
AcDbLine
 10
661.0000000001046
 20
2679.999999821232
 30
0.0
 11
661.0000000001046
 21
2904.000000000005
 31
0.0
  0
LINE
  5
3E4
330
3E0
100
AcDbEntity
  8
寸法
  6
CONTINUOUS
 62
     3
100
AcDbLine
 10
1261.000000000102
 20
2679.999999821232
 30
0.0
 11
1261.000000000102
 21
2904.000000000005
 31
0.0
  0
LINE
  5
3E5
330
3E0
100
AcDbEntity
  8
寸法
  6
CONTINUOUS
 62
     3
100
AcDbLine
 10
705.9999961854073
 20
2889.000000000005
 30
0.0
 11
1216.0000038148
 21
2889.000000000005
 31
0.0
  0
INSERT
  5
3E6
330
3E0
100
AcDbEntity
  8
寸法
 62
     3
100
AcDbBlockReference
  2
EX_NORM
 10
661.0000000001046
 20
2889.000000000005
 30
0.0
 41
44.99999618530273
 42
44.99999618530273
 43
44.99999618530273
 50
180.0
  0
INSERT
  5
3E7
330
3E0
100
AcDbEntity
  8
寸法
 62
     3
100
AcDbBlockReference
  2
EX_NORM
 10
1261.000000000102
 20
2889.000000000005
 30
0.0
 41
44.99999618530273
 42
44.99999618530273
 43
44.99999618530273
  0
MTEXT
  5
3E8
330
3E0
100
AcDbEntity
  8
寸法
 62
     2
100
AcDbMText
 10
961.0000000001037
 20
2924.249999910598
 30
0.0
 40
59.99999618530273
 41
0.0
 71
     5
 72
     1
  1
600
  7
EXCADDIM1
  0
POINT
  5
3E9
330
3E0
100
AcDbEntity
  8
DEFPOINTS
 62
     0
100
AcDbPoint
 10
661.0000000001046
 20
2669.500000000045
 30
0.0
  0
POINT
  5
3EA
330
3E0
100
AcDbEntity
  8
DEFPOINTS
 62
     0
100
AcDbPoint
 10
1261.000000000102
 20
2669.500000000045
 30
0.0
  0
POINT
  5
3EB
330
3E0
100
AcDbEntity
  8
DEFPOINTS
 62
     0
100
AcDbPoint
 10
1261.000000000102
 20
2889.000000000005
 30
0.0
  0
ENDBLK
  5
3E2
330
3E0
100
AcDbEntity
  8
0
100
AcDbBlockEnd
  0
BLOCK
  5
3F7
330
3F6
100
AcDbEntity
  8
0
100
AcDbBlockBegin
  2
*D34
 70
     1
 10
0.0
 20
0.0
 30
0.0
  3
*D34
  1

  0
LINE
  5
3F9
330
3F6
100
AcDbEntity
  8
寸法
  6
CONTINUOUS
 62
     3
100
AcDbLine
 10
1271.499999821288
 20
2669.500000000045
 30
0.0
 11
1448.000000000006
 21
2669.500000000045
 31
0.0
  0
LINE
  5
3FA
330
3F6
100
AcDbEntity
  8
寸法
  6
CONTINUOUS
 62
     3
100
AcDbLine
 10
1271.499999821288
 20
2149.500000000045
 30
0.0
 11
1448.000000000006
 21
2149.500000000045
 31
0.0
  0
LINE
  5
3FB
330
3F6
100
AcDbEntity
  8
寸法
  6
CONTINUOUS
 62
     3
100
AcDbLine
 10
1433.000000000006
 20
2624.500003814743
 30
0.0
 11
1433.000000000006
 21
2194.499996185348
 31
0.0
  0
INSERT
  5
3FC
330
3F6
100
AcDbEntity
  8
寸法
 62
     3
100
AcDbBlockReference
  2
EX_NORM
 10
1433.000000000006
 20
2669.500000000045
 30
0.0
 41
44.99999618530273
 42
44.99999618530273
 43
44.99999618530273
 50
90.0
  0
INSERT
  5
3FD
330
3F6
100
AcDbEntity
  8
寸法
 62
     3
100
AcDbBlockReference
  2
EX_NORM
 10
1433.000000000006
 20
2149.500000000045
 30
0.0
 41
44.99999618530273
 42
44.99999618530273
 43
44.99999618530273
 50
270.0
  0
MTEXT
  5
3FE
330
3F6
100
AcDbEntity
  8
寸法
 62
     2
100
AcDbMText
 10
1397.750000089413
 20
2409.500000000045
 30
0.0
 40
59.99999618530273
 41
0.0
 71
     5
 72
     1
  1
520
  7
EXCADDIM1
 11
0.0
 21
1.0
 31
0.0
  0
POINT
  5
3FF
330
3F6
100
AcDbEntity
  8
DEFPOINTS
 62
     0
100
AcDbPoint
 10
1261.000000000102
 20
2669.500000000045
 30
0.0
  0
POINT
  5
400
330
3F6
100
AcDbEntity
  8
DEFPOINTS
 62
     0
100
AcDbPoint
 10
1261.000000000102
 20
2149.500000000045
 30
0.0
  0
POINT
  5
401
330
3F6
100
AcDbEntity
  8
DEFPOINTS
 62
     0
100
AcDbPoint
 10
1433.000000000006
 20
2149.500000000045
 30
0.0
  0
ENDBLK
  5
3F8
330
3F6
100
AcDbEntity
  8
0
100
AcDbBlockEnd
  0
BLOCK
  5
404
330
403
100
AcDbEntity
  8
0
100
AcDbBlockBegin
  2
*D35
 70
     1
 10
0.0
 20
0.0
 30
0.0
  3
*D35
  1

  0
LINE
  5
406
330
403
100
AcDbEntity
  8
寸法
  6
CONTINUOUS
 62
     3
100
AcDbLine
 10
2887.999999821141
 20
919.500000000006
 30
0.0
 11
2896.5
 21
919.5000000000065
 31
0.0
  0
LINE
  5
407
330
403
100
AcDbEntity
  8
寸法
  6
CONTINUOUS
 62
     3
100
AcDbLine
 10
2544.499999642442
 20
2169.500000000005
 30
0.0
 11
2896.5
 21
2169.500000000005
 31
0.0
  0
LINE
  5
408
330
403
100
AcDbEntity
  8
寸法
  6
CONTINUOUS
 62
     3
100
AcDbLine
 10
2881.5
 20
964.4999961853084
 30
0.0
 11
2881.5
 21
2124.500003814703
 31
0.0
  0
INSERT
  5
409
330
403
100
AcDbEntity
  8
寸法
 62
     3
100
AcDbBlockReference
  2
EX_NORM
 10
2881.5
 20
919.5000000000057
 30
0.0
 41
44.99999618530273
 42
44.99999618530273
 43
44.99999618530273
 50
270.0
  0
INSERT
  5
40A
330
403
100
AcDbEntity
  8
寸法
 62
     3
100
AcDbBlockReference
  2
EX_NORM
 10
2881.5
 20
2169.500000000005
 30
0.0
 41
44.99999618530273
 42
44.99999618530273
 43
44.99999618530273
 50
90.0
  0
MTEXT
  5
40B
330
403
100
AcDbEntity
  8
寸法
 62
     2
100
AcDbMText
 10
2844.0
 20
1544.500000000005
 30
0.0
 40
59.99999618530273
 41
0.0
 71
     5
 72
     1
  1
（1250）
  7
EXCADDIM1
 11
0.0
 21
1.0
 31
0.0
  0
POINT
  5
40C
330
403
100
AcDbEntity
  8
DEFPOINTS
 62
     0
100
AcDbPoint
 10
2877.499999999955
 20
919.5000000000055
 30
0.0
  0
POINT
  5
40D
330
403
100
AcDbEntity
  8
DEFPOINTS
 62
     0
100
AcDbPoint
 10
2533.999999821256
 20
2169.500000000005
 30
0.0
  0
POINT
  5
40E
330
403
100
AcDbEntity
  8
DEFPOINTS
 62
     0
100
AcDbPoint
 10
2881.5
 20
2169.500000000005
 30
0.0
  0
ENDBLK
  5
405
330
403
100
AcDbEntity
  8
0
100
AcDbBlockEnd
  0
BLOCK
  5
419
330
418
100
AcDbEntity
  8
0
100
AcDbBlockBegin
  2
*D36
 70
     1
 10
0.0
 20
0.0
 30
0.0
  3
*D36
  1

  0
LINE
  5
41B
330
418
100
AcDbEntity
  8
寸法
  6
CONTINUOUS
 62
     3
100
AcDbLine
 10
2611.000000000055
 20
2669.500000000005
 30
0.0
 11
2881.5
 21
2669.500000000005
 31
0.0
  0
LINE
  5
41C
330
418
100
AcDbEntity
  8
寸法
  6
CONTINUOUS
 62
     3
100
AcDbLine
 10
2881.5
 20
2609.480762113506
 30
0.0
 11
2881.5
 21
2669.500000000005
 31
0.0
  0
LINE
  5
41D
330
418
100
AcDbEntity
  8
寸法
  6
CONTINUOUS
 62
     3
100
AcDbLine
 10
2881.5
 20
2564.480765928203
 30
0.0
 11
2881.5
 21
2519.4807697429
 31
0.0
  0
LINE
  5
41E
330
418
100
AcDbEntity
  8
寸法
  6
CONTINUOUS
 62
     3
100
AcDbLine
 10
2881.5
 20
2714.499996185308
 30
0.0
 11
2881.5
 21
2759.499992370611
 31
0.0
  0
INSERT
  5
41F
330
418
100
AcDbEntity
  8
寸法
 62
     3
100
AcDbBlockReference
  2
EX_NONE
 10
2881.5
 20
2609.480762113506
 30
0.0
 41
44.99999618530273
 42
44.99999618530273
 43
44.99999618530273
 50
90.0
  0
INSERT
  5
420
330
418
100
AcDbEntity
  8
寸法
 62
     3
100
AcDbBlockReference
  2
EX_NORM
 10
2881.5
 20
2669.500000000005
 30
0.0
 41
44.99999618530273
 42
44.99999618530273
 43
44.99999618530273
 50
270.0
  0
MTEXT
  5
421
330
418
100
AcDbEntity
  8
寸法
 62
     2
100
AcDbMText
 10
2843.999999999998
 20
2767.000000000004
 30
0.0
 40
59.99999618530273
 41
0.0
 71
     5
 72
     1
  1
60
  7
EXCADDIM1
 11
0.0
 21
1.0
 31
0.0
  0
POINT
  5
422
330
418
100
AcDbEntity
  8
DEFPOINTS
 62
     0
100
AcDbPoint
 10
2869.999999999955
 20
2609.480762113506
 30
0.0
  0
POINT
  5
423
330
418
100
AcDbEntity
  8
DEFPOINTS
 62
     0
100
AcDbPoint
 10
2611.000000000055
 20
2669.500000000005
 30
0.0
  0
POINT
  5
424
330
418
100
AcDbEntity
  8
DEFPOINTS
 62
     0
100
AcDbPoint
 10
2881.5
 20
2669.500000000005
 30
0.0
  0
ENDBLK
  5
41A
330
418
100
AcDbEntity
  8
0
100
AcDbBlockEnd
  0
BLOCK
  5
427
330
426
100
AcDbEntity
  8
0
100
AcDbBlockBegin
  2
*D37
 70
     1
 10
0.0
 20
0.0
 30
0.0
  3
*D37
  1

  0
LINE
  5
429
330
426
100
AcDbEntity
  8
寸法
  6
CONTINUOUS
 62
     3
100
AcDbLine
 10
2453.800000000054
 20
2681.199999821191
 30
0.0
 11
2453.800000000054
 21
2744.500000000005
 31
0.0
  0
LINE
  5
42A
330
426
100
AcDbEntity
  8
寸法
  6
CONTINUOUS
 62
     3
100
AcDbLine
 10
2453.800000000054
 20
2729.500000000005
 30
0.0
 11
2491.000000000055
 21
2729.500000000005
 31
0.0
  0
LINE
  5
42B
330
426
100
AcDbEntity
  8
寸法
  6
CONTINUOUS
 62
     3
100
AcDbLine
 10
2408.800003814752
 20
2729.500000000005
 30
0.0
 11
2363.800007629449
 21
2729.500000000005
 31
0.0
  0
LINE
  5
42C
330
426
100
AcDbEntity
  8
寸法
  6
CONTINUOUS
 62
     3
100
AcDbLine
 10
2535.999996185358
 20
2729.500000000005
 30
0.0
 11
2580.99999237066
 21
2729.500000000005
 31
0.0
  0
INSERT
  5
42D
330
426
100
AcDbEntity
  8
寸法
 62
     3
100
AcDbBlockReference
  2
EX_NORM
 10
2453.800000000054
 20
2729.500000000005
 30
0.0
 41
44.99999618530273
 42
44.99999618530273
 43
44.99999618530273
  0
INSERT
  5
42E
330
426
100
AcDbEntity
  8
寸法
 62
     3
100
AcDbBlockReference
  2
EX_NORM
 10
2491.000000000055
 20
2729.500000000005
 30
0.0
 41
44.99999618530273
 42
44.99999618530273
 43
44.99999618530273
 50
180.0
  0
MTEXT
  5
42F
330
426
100
AcDbEntity
  8
寸法
 62
     2
100
AcDbMText
 10
2356.300000000054
 20
2764.749999910598
 30
0.0
 40
59.99999618530273
 41
0.0
 71
     5
 72
     1
  1
38
  7
EXCADDIM1
  0
POINT
  5
430
330
426
100
AcDbEntity
  8
DEFPOINTS
 62
     0
100
AcDbPoint
 10
2453.800000000054
 20
2670.700000000005
 30
0.0
  0
POINT
  5
431
330
426
100
AcDbEntity
  8
DEFPOINTS
 62
     0
100
AcDbPoint
 10
2491.000000000055
 20
2668.500000000005
 30
0.0
  0
POINT
  5
432
330
426
100
AcDbEntity
  8
DEFPOINTS
 62
     0
100
AcDbPoint
 10
2491.000000000055
 20
2729.500000000005
 30
0.0
  0
ENDBLK
  5
428
330
426
100
AcDbEntity
  8
0
100
AcDbBlockEnd
  0
ENDSEC
  0
SECTION
  2
ENTITIES
  0
LINE
  5
A9
330
1F
100
AcDbEntity
  8
枠_表
  6
CONTINUOUS
 62
     7
100
AcDbLine
 10
17.40000000000441
 20
9.299999999999955
 30
0.0
 11
17.40000000000441
 21
289.3
 31
0.0
  0
LINE
  5
AA
330
1F
100
AcDbEntity
  8
枠_表
  6
CONTINUOUS
 62
     7
100
AcDbLine
 10
17.40000000000407
 20
9.299999999999955
 30
0.0
 11
199.4000000000041
 21
9.299999999999955
 31
0.0
  0
HATCH
  5
AB
330
1F
100
AcDbEntity
  8
枠_表
  6
CONTINUOUS
 62
     3
100
AcDbHatch
 10
0.0
 20
0.0
 30
0.0
210
0.0
220
0.0
230
1.0
  2
SOLID
 70
     1
 71
     1
 91
        1
 92
        3
 72
     1
 73
     1
 93
       10
 10
77.47252657332938
 20
12.321699329754
 42
-0.017362223501556
 10
77.48130157332933
 20
17.61842432975422
 42
-0.0267627618865285
 10
77.48130157332923
 20
17.61842432975408
 42
0.0737939047395297
 10
78.77325157332915
 20
17.62382432975406
 42
0.0183878899657109
 10
78.72127657332946
 20
12.84819932975411
 42
-0.1144749489451909
 10
78.51202657332927
 20
11.84244932975416
 42
-0.1929163439413163
 10
77.51640157332949
 20
11.06079932975399
 42
-0.0603888289562337
 10
76.98855157332935
 20
10.92917432975401
 42
0.0
 10
76.8650265733292
 20
11.30514932975417
 42
0.0860918333465722
 10
77.23425157332932
 20
11.501574329754
 42
0.1331843103855141
 97
        0
 75
     0
 76
     1
 98
        1
 10
0.0
 20
0.0
  0
HATCH
  5
AC
330
1F
100
AcDbEntity
  8
枠_表
  6
CONTINUOUS
 62
     3
100
AcDbHatch
 10
0.0
 20
0.0
 30
0.0
210
0.0
220
0.0
230
1.0
  2
SOLID
 70
     1
 71
     1
 91
        1
 92
        3
 72
     1
 73
     1
 93
       16
 10
83.3868765733293
 20
12.21032432975406
 42
-0.0386228372648426
 10
83.3808015733294
 20
15.46449932975407
 42
-0.0398707891902887
 10
83.97142657332938
 20
15.46719932975414
 42
-0.1256886216044368
 10
83.94442657332944
 20
14.91504932975413
 42
-0.0367815758121429
 10
83.94442657332932
 20
14.91504932975399
 42
-0.268021535028829
 10
85.13580157332942
 20
15.53334932975407
 42
-0.2571134422124888
 10
85.95052657332931
 20
15.1303743297541
 42
-0.1522526366014298
 10
86.15775157332936
 20
14.46009932975401
 42
-0.0158825412051521
 10
86.14290157332917
 20
12.20694932975412
 42
-0.0285251271418421
 10
85.57252657332947
 20
12.20694932975417
 42
-0.0452212723224612
 10
85.60155157332937
 20
14.28864932975404
 42
-0.0315567291532142
 10
85.42470157332929
 20
14.90357432975414
 42
-0.1476272403790709
 10
84.27315157332941
 20
14.99199932975417
 42
-0.3908144705745794
 10
83.94847657332923
 20
14.18402432975416
 42
-0.2046259928850854
 10
83.94847657332923
 20
14.18402432975404
 42
0.0
 10
83.99910157332944
 20
12.20492432975408
 42
-0.0304995761723369
 97
        0
 75
     0
 76
     1
 98
        1
 10
0.0
 20
0.0
  0
HATCH
  5
AD
330
1F
100
AcDbEntity
  8
枠_表
  6
CONTINUOUS
 62
     3
100
AcDbHatch
 10
0.0
 20
0.0
 30
0.0
210
0.0
220
0.0
230
1.0
  2
SOLID
 70
     1
 71
     1
 91
        2
 92
        1
 93
        1
 72
     2
 10
87.62855140383783
 20
16.65835466873705
 40
0.3572334466769884
 50
0.0
 51
360.0
 73
     1
 97
        0
 92
        3
 72
     1
 73
     1
 93
        3
 10
87.30930157332922
 20
15.46989932975412
 42
0.1200283885712921
 10
87.93030157332912
 20
12.20627432975403
 42
-0.0401820615762149
 10
87.30997657332934
 20
12.20424932975419
 42
-0.0237521668114666
 97
        0
 75
     0
 76
     1
 98
        1
 10
0.0
 20
0.0
  0
HATCH
  5
AE
330
1F
100
AcDbEntity
  8
枠_表
  6
CONTINUOUS
 62
     3
100
AcDbHatch
 10
0.0
 20
0.0
 30
0.0
210
0.0
220
0.0
230
1.0
  2
SOLID
 70
     1
 71
     1
 91
        1
 92
        3
 72
     1
 73
     1
 93
       30
 10
90.77340157332908
 20
15.33354932975412
 42
-0.0009362235736497
 10
90.77340157332932
 20
15.33354932975402
 42
0.0681165430304653
 10
90.60970934867748
 20
14.84282432975419
 42
0.0
 10
89.9931015733294
 20
15.26469932975415
 42
-0.302112590907374
 10
89.99310157332945
 20
15.26469932975419
 42
0.0
 10
89.37142657332934
 20
14.78814932975413
 42
-0.3704245237568778
 10
89.37142657332936
 20
14.78814932975411
 42
0.0
 10
89.40382657332927
 20
14.46954932975402
 42
-0.0262822419456939
 10
89.78722657332926
 20
14.16309932975411
 42
-0.180060563604375
 10
90.39877657332939
 20
13.9767993297542
 42
-0.0298130817160724
 10
90.39877657332936
 20
13.97679932975406
 42
-0.3153987453686078
 10
90.96240157332943
 20
13.33217432975403
 42
0.0
 10
90.95902657332937
 20
13.04394932975411
 42
-0.3510306079065168
 10
89.87227657332926
 20
12.13269932975413
 42
0.0
 10
89.5550265733293
 20
12.13269932975405
 42
-0.1053356344842436
 10
88.8530265733293
 20
12.33519932975408
 42
0.1188608286962634
 10
88.98127657332941
 20
12.84819932975415
 42
0.0
 10
89.75077657332928
 20
12.37569932975408
 42
-0.2447573632916039
 10
89.75077657332929
 20
12.37569932975407
 42
0.0
 10
90.49327657332938
 20
12.8954493297542
 42
-0.3734162676407277
 10
90.49327657332935
 20
12.895449329754
 42
0.0
 10
90.22395157332934
 20
13.4145243297542
 42
-0.261219770190848
 10
89.5955265733292
 20
13.64267432975409
 42
-0.0572747914118363
 10
89.59552657332941
 20
13.64267432975419
 42
-0.1189658875692221
 10
89.0960265733294
 20
13.9356243297542
 42
-0.2005226878639636
 10
88.88677657332926
 20
14.40744932975622
 42
0.0
 10
88.88340157332938
 20
14.58632432975416
 42
-0.2622894489606957
 10
89.42002657332935
 20
15.40644932975404
 42
-0.0988461274137808
 10
89.92222657332934
 20
15.52727432975416
 42
0.0
 10
90.10852657332927
 20
15.52727432975403
 42
-0.0920156312561188
 97
        0
 75
     0
 76
     1
 98
        1
 10
0.0
 20
0.0
  0
HATCH
  5
AF
330
1F
100
AcDbEntity
  8
枠_表
  6
CONTINUOUS
 62
     3
100
AcDbHatch
 10
0.0
 20
0.0
 30
0.0
210
0.0
220
0.0
230
1.0
  2
SOLID
 70
     1
 71
     1
 91
        2
 92
        3
 72
     1
 73
     1
 93
       27
 10
80.01727657332924
 20
15.13644932975421
 42
-0.1769427732109284
 10
80.01727657332947
 20
15.13644932975421
 42
0.0
 10
80.01727657332947
 20
14.77194932975408
 42
0.0
 10
80.10502657332941
 20
14.77194932975404
 42
-0.207533601427307
 10
80.67474227896133
 20
15.19932359129042
 42
-0.1226604740888933
 10
81.1782765733294
 20
15.21002432975408
 42
-0.3213715781137954
 10
81.69883280222523
 20
14.57106514378481
 42
-0.064704004662446
 10
81.70140157332925
 20
14.23329932975406
 42
-0.257798906330806
 10
81.59542657332948
 20
14.105049329754
 42
-0.056602577721096
 10
81.36862657332934
 20
14.02607432975415
 42
-0.0166741689362636
 10
80.53702657332936
 20
13.86812432975419
 42
0.1186092302783404
 10
79.98825157332926
 20
13.60487432975412
 42
0.1699204224386695
 10
79.74930157332933
 20
13.205274329754
 42
0.1006533494296199
 10
79.72720866796259
 20
12.85853555095727
 42
0.1675695228968024
 10
79.94370157332949
 20
12.39392432975412
 42
0.1376980079804242
 10
80.33722657332932
 20
12.16644932975403
 42
0.0719813663796923
 10
80.51610157332937
 20
12.13674932975414
 42
0.0
 10
80.79015157332947
 20
12.13674932975415
 42
0.1944607457809085
 10
81.69937657332947
 20
12.60452432975418
 42
0.1288538183665954
 10
81.79117657332938
 20
12.3750243297541
 42
0.2098387395261546
 10
82.09087657332941
 20
12.20964932975403
 42
0.0
 10
82.30822657332935
 20
12.20829932975404
 42
0.0945009641609563
 10
82.62210157332936
 20
12.27512432975414
 42
0.0
 10
82.62210157332935
 20
12.43239932975418
 42
-0.2395739894657535
 10
82.34805157332941
 20
12.42969932975416
 42
-0.2502312110031058
 10
82.21305157332918
 20
12.6834993297542
 42
-0.0104343570771765
 10
82.23127657332932
 20
14.57619932975412
 42
0.4051015674140717
 97
        0
 92
        3
 72
     1
 73
     1
 93
        8
 10
81.7135515733293
 20
13.90254932975417
 42
-0.0339435190873666
 10
81.71355157332937
 20
13.90254932975308
 42
-0.0001110072973599
 10
81.68520157332931
 20
12.86844932975416
 42
-0.2253076310552528
 10
80.97645157332943
 20
12.3952743297541
 42
0.0
 10
80.80297657332925
 20
12.39527432975421
 42
-0.3657967558150132
 10
80.28727657332922
 20
12.94337432975408
 42
0.0
 10
80.28727657332931
 20
13.13912432975414
 42
-0.2530797830369341
 10
80.63557657332944
 20
13.62107432975412
 42
-0.0724473624720066
 97
        0
 75
     0
 76
     1
 98
        1
 10
0.0
 20
0.0
  0
TEXT
  5
B1
330
1F
100
AcDbEntity
  8
枠_表
  6
CONTINUOUS
 62
     2
100
AcDbText
 10
92.30000000000439
 20
11.65000000000009
 30
0.0
 40
3.375
  1
ジャニス工業株式会社
 41
1.025641025641026
  7
EXCADTTF1
 72
     5
 11
137.3000000000044
 21
11.65000000000009
 31
0.0
100
AcDbText
  0
ARC
  5
B2
330
1F
100
AcDbEntity
  8
枠_表
  6
CONTINUOUS
 62
     3
100
AcDbCircle
 10
81.12685324125948
 20
13.76167288926899
 30
0.0
 40
1.766683515327064
100
AcDbArc
 50
88.77000393305703
 51
128.9068631829044
  0
ARC
  5
B3
330
1F
100
AcDbEntity
  8
枠_表
  6
CONTINUOUS
 62
     3
100
AcDbCircle
 10
81.20706272603218
 20
14.50191625973321
 30
0.0
 40
1.02690407511459
100
AcDbArc
 50
4.148222840814693
 51
92.36000944257292
  0
ARC
  5
B4
330
1F
100
AcDbEntity
  8
枠_表
  6
CONTINUOUS
 62
     3
100
AcDbCircle
 10
127.5650135838752
 20
13.19323843931738
 30
0.0
 40
45.35482655865662
100
AcDbArc
 50
178.2526643324597
 51
180.6439560401927
  0
ARC
  5
B5
330
1F
100
AcDbEntity
  8
枠_表
  6
CONTINUOUS
 62
     3
100
AcDbCircle
 10
82.51823989446473
 20
12.68302928780486
 30
0.0
 40
0.305188683107389
100
AcDbArc
 50
179.9117548191414
 51
236.1065985968857
  0
ARC
  5
B6
330
1F
100
AcDbEntity
  8
枠_表
  6
CONTINUOUS
 62
     3
100
AcDbCircle
 10
82.48242078458395
 20
12.70061188741101
 30
0.0
 40
0.30240485913648
100
AcDbArc
 50
243.6191685566582
 51
297.5097757939563
  0
LINE
  5
B7
330
1F
100
AcDbEntity
  8
枠_表
  6
CONTINUOUS
 62
     3
100
AcDbLine
 10
82.62210157332936
 20
12.27512432975414
 30
0.0
 11
82.62210157332936
 21
12.43239932975416
 31
0.0
  0
LINE
  5
B8
330
1F
100
AcDbEntity
  8
枠_表
  6
CONTINUOUS
 62
     3
100
AcDbLine
 10
82.09087657332941
 20
12.20964932975403
 30
0.0
 11
82.3082265733293
 21
12.20964932975403
 31
0.0
  0
ARC
  5
B9
330
1F
100
AcDbEntity
  8
枠_表
  6
CONTINUOUS
 62
     3
100
AcDbCircle
 10
82.28995891946022
 20
13.06464512823027
 30
0.0
 40
0.856540620020894
100
AcDbArc
 50
271.2220539293239
 51
292.8159509797653
  0
ARC
  5
BA
330
1F
100
AcDbEntity
  8
枠_表
  6
CONTINUOUS
 62
     3
100
AcDbCircle
 10
82.12937735081903
 20
12.63367456528636
 30
0.0
 40
0.425769550620398
100
AcDbArc
 50
217.4081478714985
 51
264.8118660441384
  0
ARC
  5
BB
330
1F
100
AcDbEntity
  8
枠_表
  6
CONTINUOUS
 62
     3
100
AcDbCircle
 10
82.18315560558756
 20
12.66492594265742
 30
0.0
 40
0.487535134009722
100
AcDbArc
 50
187.1167640402297
 51
216.4860549324747
  0
ARC
  5
BC
330
1F
100
AcDbEntity
  8
枠_表
  6
CONTINUOUS
 62
     3
100
AcDbCircle
 10
80.6661304586745
 20
13.49534026256833
 30
0.0
 40
1.364239920103932
100
AcDbArc
 50
275.2158792069686
 51
319.2336424873511
  0
LINE
  5
BD
330
1F
100
AcDbEntity
  8
枠_表
  6
CONTINUOUS
 62
     3
100
AcDbLine
 10
80.51610157332937
 20
12.13674932975414
 30
0.0
 11
80.79015157332935
 21
12.13674932975414
 31
0.0
  0
ARC
  5
BE
330
1F
100
AcDbEntity
  8
枠_表
  6
CONTINUOUS
 62
     3
100
AcDbCircle
 10
80.52928130737189
 20
12.76963494387405
 30
0.0
 40
0.633022832091786
100
AcDbArc
 50
252.3384873625213
 51
268.8069976857606
  0
ARC
  5
BF
330
1F
100
AcDbEntity
  8
枠_表
  6
CONTINUOUS
 62
     3
100
AcDbCircle
 10
80.54562953037328
 20
12.98111104772602
 30
0.0
 40
0.840895657756366
100
AcDbArc
 50
224.289750990011
 51
255.6505938786759
  0
ARC
  5
C0
330
1F
100
AcDbEntity
  8
枠_表
  6
CONTINUOUS
 62
     3
100
AcDbCircle
 10
80.5091533291594
 20
12.94015021572864
 30
0.0
 40
0.78619234712629
100
AcDbArc
 50
185.9586126338419
 51
224.0091989319859
  0
ARC
  5
C1
330
1F
100
AcDbEntity
  8
枠_表
  6
CONTINUOUS
 62
     3
100
AcDbCircle
 10
80.59075018570422
 20
12.97758712547738
 30
0.0
 40
0.871709372588669
100
AcDbArc
 50
164.8589457925044
 51
187.8495628504518
  0
ARC
  5
C2
330
1F
100
AcDbEntity
  8
枠_表
  6
CONTINUOUS
 62
     3
100
AcDbCircle
 10
80.43972379030572
 20
13.06366332500806
 30
0.0
 40
0.704795370557922
100
AcDbArc
 50
129.8344892359069
 51
168.4089447024628
  0
ARC
  5
C3
330
1F
100
AcDbEntity
  8
枠_表
  6
CONTINUOUS
 62
     3
100
AcDbCircle
 10
80.80970138676219
 20
12.59608481482883
 30
0.0
 40
1.30093661698492
100
AcDbArc
 50
102.0988446293839
 51
129.1556705448828
  0
ARC
  5
C4
330
1F
100
AcDbEntity
  8
枠_表
  6
CONTINUOUS
 62
     3
100
AcDbCircle
 10
78.58530099986217
 20
26.41202029775218
 30
0.0
 40
12.69482409370382
100
AcDbArc
 50
278.8438342053764
 51
282.6649181367123
  0
ARC
  5
C5
330
1F
100
AcDbEntity
  8
枠_表
  6
CONTINUOUS
 62
     3
100
AcDbCircle
 10
81.13433050111337
 20
15.06407362688742
 30
0.0
 40
1.064113335272784
100
AcDbArc
 50
282.7195832898965
 51
295.6781112778079
  0
ARC
  5
C6
330
1F
100
AcDbEntity
  8
枠_表
  6
CONTINUOUS
 62
     3
100
AcDbCircle
 10
81.53230955673769
 20
14.26511332504288
 30
0.0
 40
0.172058828228131
100
AcDbArc
 50
291.5204897073511
 51
349.3445900274031
  0
ARC
  5
C7
330
1F
100
AcDbEntity
  8
枠_表
  6
CONTINUOUS
 62
     3
100
AcDbCircle
 10
80.40053873567001
 20
14.39229870375129
 30
0.0
 40
1.310543751018921
100
AcDbArc
 50
353.0315250986587
 51
7.839947970678348
  0
ARC
  5
C8
330
1F
100
AcDbEntity
  8
枠_表
  6
CONTINUOUS
 62
     3
100
AcDbCircle
 10
80.99283412818124
 20
14.52741886153422
 30
0.0
 40
0.707346538626002
100
AcDbArc
 50
3.537639967999379
 51
74.8013566619203
  0
ARC
  5
C9
330
1F
100
AcDbEntity
  8
枠_表
  6
CONTINUOUS
 62
     3
100
AcDbCircle
 10
80.94799095798737
 20
14.19383830513016
 30
0.0
 40
1.04195273466423
100
AcDbArc
 50
77.23143261361693
 51
105.203415964315
  0
ARC
  5
CA
330
1F
100
AcDbEntity
  8
枠_表
  6
CONTINUOUS
 62
     3
100
AcDbCircle
 10
80.88253617703424
 20
14.32890191857882
 30
0.0
 40
0.894881105176719
100
AcDbArc
 50
103.4267945469744
 51
150.3242613737993
  0
LINE
  5
CB
330
1F
100
AcDbEntity
  8
枠_表
  6
CONTINUOUS
 62
     3
100
AcDbLine
 10
80.01727657332947
 20
15.13644932975421
 30
0.0
 11
80.01727657332947
 21
14.77194932975408
 31
0.0
  0
ARC
  5
CC
330
1F
100
AcDbEntity
  8
枠_表
  6
CONTINUOUS
 62
     3
100
AcDbCircle
 10
70.51439565227508
 20
12.67342761922782
 30
0.0
 40
6.967015049800598
100
AcDbArc
 50
353.1274757312911
 51
357.106204490141
  0
ARC
  5
CD
330
1F
100
AcDbEntity
  8
枠_表
  6
CONTINUOUS
 62
     3
100
AcDbCircle
 10
28.03385521229745
 20
15.05197335838852
 30
0.0
 40
49.51400430399008
100
AcDbArc
 50
356.8390243485978
 51
2.971133813187157
  0
ARC
  5
CE
330
1F
100
AcDbEntity
  8
枠_表
  6
CONTINUOUS
 62
     3
100
AcDbCircle
 10
76.70927386496453
 20
12.03407518472909
 30
0.0
 40
0.747769185530633
100
AcDbArc
 50
314.592391474832
 51
344.9374073189123
  0
ARC
  5
CF
330
1F
100
AcDbEntity
  8
枠_表
  6
CONTINUOUS
 62
     3
100
AcDbCircle
 10
76.48347289685864
 20
12.46759859446001
 30
0.0
 40
1.223467000390025
100
AcDbArc
 50
288.1715191042997
 51
307.8537826235693
  0
LINE
  5
D0
330
1F
100
AcDbEntity
  8
枠_表
  6
CONTINUOUS
 62
     3
100
AcDbLine
 10
76.98855157332935
 20
10.92917432975401
 30
0.0
 11
76.86502657332937
 21
11.30514932975416
 31
0.0
  0
ARC
  5
D1
330
1F
100
AcDbEntity
  8
枠_表
  6
CONTINUOUS
 62
     3
100
AcDbCircle
 10
76.70955749867096
 20
13.17223152915381
 30
0.0
 40
2.260341410821362
100
AcDbArc
 50
277.0901027239701
 51
290.9134154817058
  0
ARC
  5
D2
330
1F
100
AcDbEntity
  8
枠_表
  6
CONTINUOUS
 62
     3
100
AcDbCircle
 10
77.03897327885909
 20
12.69383518626842
 30
0.0
 40
1.701394688196115
100
AcDbArc
 50
286.2966123578915
 51
329.973223283839
  0
ARC
  5
D3
330
1F
100
AcDbEntity
  8
枠_表
  6
CONTINUOUS
 62
     3
100
AcDbCircle
 10
76.44899361791056
 20
12.796313568801
 30
0.0
 40
2.272875263114311
100
AcDbArc
 50
335.1860595856123
 51
1.308075913059364
  0
ARC
  5
D4
330
1F
100
AcDbEntity
  8
枠_表
  6
CONTINUOUS
 62
     3
100
AcDbCircle
 10
143.6542531413476
 20
14.52960360950851
 30
0.0
 40
64.95474244683605
100
AcDbArc
 50
177.2695926307304
 51
181.4833117237826
  0
ARC
  5
D5
330
1F
100
AcDbEntity
  8
枠_表
  6
CONTINUOUS
 62
     3
100
AcDbCircle
 10
78.10908200122697
 20
21.97417570522225
 30
0.0
 40
4.400758833490466
100
AcDbArc
 50
261.7986203004403
 51
278.6803384946418
  0
ARC
  5
D6
330
1F
100
AcDbEntity
  8
枠_表
  6
CONTINUOUS
 62
     3
100
AcDbCircle
 10
80.56056099354157
 20
17.87501381160519
 30
0.0
 40
4.136406814694017
100
AcDbArc
 50
278.4088456599976
 51
286.1851416003176
  0
ARC
  5
D7
330
1F
100
AcDbEntity
  8
枠_表
  6
CONTINUOUS
 62
     3
100
AcDbCircle
 10
81.45660651758146
 20
11.88318862667984
 30
0.0
 40
1.922065786155208
100
AcDbArc
 50
98.71271710191789
 51
115.2874718053599
  0
ARC
  5
D8
330
1F
100
AcDbEntity
  8
枠_表
  6
CONTINUOUS
 62
     3
100
AcDbCircle
 10
80.90701866838265
 20
13.05807479047189
 30
0.0
 40
0.625019433457053
100
AcDbArc
 50
115.7403688633493
 51
172.5491744442191
  0
LINE
  5
D9
330
1F
100
AcDbEntity
  8
枠_表
  6
CONTINUOUS
 62
     3
100
AcDbLine
 10
80.28727657332922
 20
13.13912432975417
 30
0.0
 11
80.28727657332922
 21
12.94337432975408
 31
0.0
  0
ARC
  5
DA
330
1F
100
AcDbEntity
  8
枠_表
  6
CONTINUOUS
 62
     3
100
AcDbCircle
 10
80.86959653489168
 20
12.97461380097798
 30
0.0
 40
0.583157304846997
100
AcDbArc
 50
183.0707787095794
 51
263.4402016072427
  0
LINE
  5
DB
330
1F
100
AcDbEntity
  8
枠_表
  6
CONTINUOUS
 62
     3
100
AcDbLine
 10
80.80297657332937
 20
12.3952743297541
 30
0.0
 11
80.97645157332943
 21
12.3952743297541
 31
0.0
  0
ARC
  5
DC
330
1F
100
AcDbEntity
  8
枠_表
  6
CONTINUOUS
 62
     3
100
AcDbCircle
 10
80.83244690766344
 20
13.37836489530218
 30
0.0
 40
0.993581603997916
100
AcDbArc
 50
278.3335103000368
 51
329.1221464187299
  0
ARC
  5
DD
330
1F
100
AcDbEntity
  8
枠_表
  6
CONTINUOUS
 62
     3
100
AcDbCircle
 10
-2247.201542217731
 20
77.23265245587845
 30
0.0
 40
2329.776001260591
100
AcDbArc
 50
358.4169008257799
 51
358.4423418242109
  0
ARC
  5
DE
330
1F
100
AcDbEntity
  8
枠_表
  6
CONTINUOUS
 62
     3
100
AcDbCircle
 10
83.65808780069744
 20
8.25069254511709
 30
0.0
 40
3.968909094418497
100
AcDbArc
 50
85.07099551674689
 51
93.91830029343228
  0
ARC
  5
DF
330
1F
100
AcDbEntity
  8
枠_表
  6
CONTINUOUS
 62
     3
100
AcDbCircle
 10
91.3408857895148
 20
13.09150147009814
 30
0.0
 40
7.395120993114926
100
AcDbArc
 50
179.8977458165987
 51
186.8855675734268
  0
ARC
  5
E0
330
1F
100
AcDbEntity
  8
枠_表
  6
CONTINUOUS
 62
     3
100
AcDbCircle
 10
85.05661722366824
 20
14.20795225138068
 30
0.0
 40
1.108398956318131
100
AcDbArc
 50
134.9787476233347
 51
181.2369872983282
  0
ARC
  5
E1
330
1F
100
AcDbEntity
  8
枠_表
  6
CONTINUOUS
 62
     3
100
AcDbCircle
 10
84.80100145205972
 20
14.323662731387
 30
0.0
 40
0.851645057047003
100
AcDbArc
 50
42.91644474042847
 51
128.3015542351336
  0
ARC
  5
E2
330
1F
100
AcDbEntity
  8
枠_表
  6
CONTINUOUS
 62
     3
100
AcDbCircle
 10
84.49447404568957
 20
14.30315138821561
 30
0.0
 40
1.107172507744154
100
AcDbArc
 50
359.2495022237244
 51
32.84055016678327
  0
ARC
  5
E3
330
1F
100
AcDbEntity
  8
枠_表
  6
CONTINUOUS
 62
     3
100
AcDbCircle
 10
69.11173378650176
 20
13.4775133788246
 30
0.0
 40
16.50975566668588
100
AcDbArc
 50
355.5862454873798
 51
2.816115806820253
  0
ARC
  5
E4
330
1F
100
AcDbEntity
  8
枠_表
  6
CONTINUOUS
 62
     3
100
AcDbCircle
 10
85.85771407332948
 20
9.060152619227893
 30
0.0
 40
3.159693252126744
100
AcDbArc
 50
84.82155189294139
 51
95.17844810705873
  0
ARC
  5
E5
330
1F
100
AcDbEntity
  8
枠_表
  6
CONTINUOUS
 62
     3
100
AcDbCircle
 10
102.465763366174
 20
12.99067374739138
 30
0.0
 40
16.34166579853822
100
AcDbArc
 50
176.2131780319488
 51
182.7488833337936
  0
ARC
  5
E6
330
1F
100
AcDbEntity
  8
枠_表
  6
CONTINUOUS
 62
     3
100
AcDbCircle
 10
80.01913601210492
 20
14.23315774812136
 30
0.0
 40
6.142809087866958
100
AcDbArc
 50
358.4775281223095
 51
2.117232414210064
  0
ARC
  5
E7
330
1F
100
AcDbEntity
  8
枠_表
  6
CONTINUOUS
 62
     3
100
AcDbCircle
 10
84.97905515345258
 20
14.46285942451527
 30
0.0
 40
1.17869965146059
100
AcDbArc
 50
359.8658335690532
 51
34.49363429411157
  0
ARC
  5
E8
330
1F
100
AcDbEntity
  8
枠_表
  6
CONTINUOUS
 62
     3
100
AcDbCircle
 10
85.17724057414205
 20
14.59204664797994
 30
0.0
 40
0.94221437555554
100
AcDbArc
 50
34.84393737091607
 51
92.5207065423111
  0
ARC
  5
E9
330
1F
100
AcDbEntity
  8
枠_表
  6
CONTINUOUS
 62
     3
100
AcDbCircle
 10
85.0754106900298
 20
14.19275988818595
 30
0.0
 40
1.34194899665726
100
AcDbArc
 50
87.42068310381028
 51
147.4361518966862
  0
ARC
  5
EA
330
1F
100
AcDbEntity
  8
枠_表
  6
CONTINUOUS
 62
     3
100
AcDbCircle
 10
87.70574727396604
 20
15.00785681383059
 30
0.0
 40
3.762465500458181
100
AcDbArc
 50
172.9875214416311
 51
181.4134392789641
  0
ARC
  5
EB
330
1F
100
AcDbEntity
  8
枠_表
  6
CONTINUOUS
 62
     3
100
AcDbCircle
 10
83.67082849861674
 20
16.62206879814494
 30
0.0
 40
1.193349358546016
100
AcDbArc
 50
255.9341994177206
 51
284.5896440601899
  0
ARC
  5
EC
330
1F
100
AcDbEntity
  8
枠_表
  6
CONTINUOUS
 62
     3
100
AcDbCircle
 10
63.01176988672034
 20
13.79938058671746
 30
0.0
 40
20.43697806131072
100
AcDbArc
 50
355.5405243117485
 51
4.673398698656258
  0
LINE
  5
ED
330
1F
100
AcDbEntity
  8
枠_表
  6
CONTINUOUS
 62
     3
100
AcDbLine
 10
83.94847657332923
 20
14.18402432975404
 30
0.0
 11
83.94847657332923
 21
13.10469932975411
 31
0.0
  0
CIRCLE
  5
EE
330
1F
100
AcDbEntity
  8
枠_表
  6
CONTINUOUS
 62
     3
100
AcDbCircle
 10
87.62855140383783
 20
16.65835466873705
 30
0.0
 40
0.357233446676989
  0
ARC
  5
EF
330
1F
100
AcDbEntity
  8
枠_表
  6
CONTINUOUS
 62
     3
100
AcDbCircle
 10
87.6145607602815
 20
16.75332474358083
 30
0.0
 40
1.319228548840207
100
AcDbArc
 50
256.6209501743446
 51
283.9984576255729
  0
ARC
  5
F0
330
1F
100
AcDbEntity
  8
枠_表
  6
CONTINUOUS
 62
     3
100
AcDbCircle
 10
87.64144089371769
 20
5.679804184123441
 30
0.0
 40
6.532859485251088
100
AcDbArc
 50
87.46575055044718
 51
92.90832285102188
  0
ARC
  5
F1
330
1F
100
AcDbEntity
  8
枠_表
  6
CONTINUOUS
 62
     3
100
AcDbCircle
 10
108.2254047179598
 20
13.81881005739388
 30
0.0
 40
20.35906390589
100
AcDbArc
 50
175.3387608397566
 51
184.5428594926176
  0
ARC
  5
F2
330
1F
100
AcDbEntity
  8
枠_表
  6
CONTINUOUS
 62
     3
100
AcDbCircle
 10
65.16900575364309
 20
13.83249792766242
 30
0.0
 40
22.20076085035812
100
AcDbArc
 50
355.7940354718673
 51
4.229650257234378
  0
ARC
  5
F3
330
1F
100
AcDbEntity
  8
枠_表
  6
CONTINUOUS
 62
     3
100
AcDbCircle
 10
122.1644453232856
 20
96.50297432964203
 30
0.0
 40
87.02800228963156
100
AcDbArc
 50
248.6422112053103
 51
248.8567777804232
  0
ARC
  5
F4
330
1F
100
AcDbEntity
  8
枠_表
  6
CONTINUOUS
 62
     3
100
AcDbCircle
 10
90.08542828460997
 20
14.51663038363949
 30
0.0
 40
1.010907867592157
100
AcDbArc
 50
67.66151957087348
 51
88.69073168448988
  0
ARC
  5
F5
330
1F
100
AcDbEntity
  8
枠_表
  6
CONTINUOUS
 62
     3
100
AcDbCircle
 10
89.97711044284335
 20
14.20979097937607
 30
0.0
 40
1.319974865367525
100
AcDbArc
 50
92.38301574576484
 51
114.9635286746436
  0
ARC
  5
F6
330
1F
100
AcDbEntity
  8
枠_表
  6
CONTINUOUS
 62
     3
100
AcDbCircle
 10
89.87963496800046
 20
14.52009291101876
 30
0.0
 40
0.99843256030919
100
AcDbArc
 50
117.4083995939977
 51
176.1964688215695
  0
ARC
  5
F7
330
1F
100
AcDbEntity
  8
枠_表
  6
CONTINUOUS
 62
     3
100
AcDbCircle
 10
89.5559925792644
 20
14.42192769075541
 30
0.0
 40
0.669372605905611
100
AcDbArc
 50
181.2393899443581
 51
226.5942921332421
  0
ARC
  5
F8
330
1F
100
AcDbEntity
  8
枠_表
  6
CONTINUOUS
 62
     3
100
AcDbCircle
 10
89.95268145799935
 20
14.82396411006698
 30
0.0
 40
1.234100950779567
100
AcDbArc
 50
226.0402388947521
 51
253.1776672992999
  0
ARC
  5
F9
330
1F
100
AcDbEntity
  8
枠_表
  6
CONTINUOUS
 62
     3
100
AcDbCircle
 10
88.9171489183085
 20
10.79457141755211
 30
0.0
 40
2.927778413972754
100
AcDbArc
 50
63.49050203733571
 51
76.60259219849584
  0
ARC
  5
FA
330
1F
100
AcDbEntity
  8
枠_表
  6
CONTINUOUS
 62
     3
100
AcDbCircle
 10
90.03080045854097
 20
12.9984622543318
 30
0.0
 40
0.458710152219014
100
AcDbArc
 50
6.53892419415897
 51
65.09756080693691
  0
ARC
  5
FB
330
1F
100
AcDbEntity
  8
枠_表
  6
CONTINUOUS
 62
     3
100
AcDbCircle
 10
89.90357777446945
 20
12.97002363757179
 30
0.0
 40
0.594395491876676
100
AcDbArc
 50
270.8867385422408
 51
352.7925382056677
  0
ARC
  5
FC
330
1F
100
AcDbEntity
  8
枠_表
  6
CONTINUOUS
 62
     3
100
AcDbCircle
 10
89.86361043235286
 20
13.26658639777384
 30
0.0
 40
0.898004035462527
100
AcDbArc
 50
207.7689879465537
 51
262.7817283832026
  0
ARC
  5
FD
330
1F
100
AcDbEntity
  8
枠_表
  6
CONTINUOUS
 62
     3
100
AcDbCircle
 10
89.67930054593205
 20
13.88156576811025
 30
0.0
 40
1.75327631578002
100
AcDbArc
 50
241.8829576087176
 51
265.9354096935781
  0
ARC
  5
FE
330
1F
100
AcDbEntity
  8
枠_表
  6
CONTINUOUS
 62
     3
100
AcDbCircle
 10
89.8466388646799
 20
13.2669246711805
 30
0.0
 40
1.134515058180645
100
AcDbArc
 50
271.2948770866743
 51
348.6654156292868
  0
ARC
  5
FF
330
1F
100
AcDbEntity
  8
枠_表
  6
CONTINUOUS
 62
     3
100
AcDbCircle
 10
90.22045721292386
 20
13.25217258531575
 30
0.0
 40
0.746245075729606
100
AcDbArc
 50
6.154262763177246
 51
76.17509904255616
  0
ARC
  5
100
330
1F
100
AcDbEntity
  8
枠_表
  6
CONTINUOUS
 62
     3
100
AcDbCircle
 10
91.65384669692492
 20
19.19359310503523
 30
0.0
 40
5.36564425851668
100
AcDbArc
 50
249.6420733479936
 51
256.4727051201885
  0
ARC
  5
101
330
1F
100
AcDbEntity
  8
枠_表
  6
CONTINUOUS
 62
     3
100
AcDbCircle
 10
90.0072135238787
 20
14.83138641766618
 30
0.0
 40
0.703563707337184
100
AcDbArc
 50
210.9501336849607
 51
251.7794729821079
  0
ARC
  5
102
330
1F
100
AcDbEntity
  8
枠_表
  6
CONTINUOUS
 62
     3
100
AcDbCircle
 10
90.73031407333053
 20
14.93823182975439
 30
0.0
 40
1.4068519372934
100
AcDbArc
 50
193.4375782160214
 51
199.459638038058
  0
ARC
  5
103
330
1F
100
AcDbEntity
  8
枠_表
  6
CONTINUOUS
 62
     3
100
AcDbCircle
 10
89.90350964860966
 20
14.72674994707927
 30
0.0
 40
0.535613931103931
100
AcDbArc
 50
92.11404364449162
 51
173.4175047026091
  0
ARC
  5
104
330
1F
100
AcDbEntity
  8
枠_表
  6
CONTINUOUS
 62
     3
100
AcDbCircle
 10
89.94147339127937
 20
14.65429236291675
 30
0.0
 40
0.612586430102253
100
AcDbArc
 50
17.92452211681263
 51
85.16543319077402
  0
LINE
  5
105
330
1F
100
AcDbEntity
  8
枠_表
  6
CONTINUOUS
 62
     3
100
AcDbLine
 10
90.10852657332941
 20
15.52727432975416
 30
0.0
 11
89.92222657332934
 21
15.52727432975416
 31
0.0
  0
LINE
  5
106
330
1F
100
AcDbEntity
  8
枠_表
  6
CONTINUOUS
 62
     3
100
AcDbLine
 10
89.75077657332929
 20
12.37569932975407
 30
0.0
 11
89.91277657332932
 21
12.37569932975407
 31
0.0
  0
LINE
  5
107
330
1F
100
AcDbEntity
  8
枠_表
  6
CONTINUOUS
 62
     3
100
AcDbLine
 10
89.06902657332932
 20
12.84819932975415
 30
0.0
 11
88.98127657332941
 21
12.84819932975415
 31
0.0
  0
LINE
  5
108
330
1F
100
AcDbEntity
  8
枠_表
  6
CONTINUOUS
 62
     3
100
AcDbLine
 10
89.55502657332943
 20
12.13269932975413
 30
0.0
 11
89.87227657332926
 21
12.13269932975413
 31
0.0
  0
LINE
  5
109
330
1F
100
AcDbEntity
  8
枠_表
  6
CONTINUOUS
 62
     3
100
AcDbLine
 10
80.01727657332947
 20
14.77194932975408
 30
0.0
 11
80.10502657332938
 21
14.77194932975408
 31
0.0
  0
ARC
  5
10A
330
1F
100
AcDbEntity
  8
枠_表
  6
CONTINUOUS
 62
     3
100
AcDbCircle
 10
87.8534413132137
 20
12.85779759565003
 30
0.0
 40
1.127953740078838
100
AcDbArc
 50
332.3987521421788
 51
359.5124385477116
  0
LINE
  5
10B
330
1F
100
AcDbEntity
  8
枠_表
  6
CONTINUOUS
 62
     3
100
AcDbLine
 10
90.48652657332934
 20
13.05069932975402
 30
0.0
 11
90.49327657332935
 21
12.895449329754
 31
0.0
  0
LINE
  5
10C
330
1F
100
AcDbEntity
  8
枠_表
  6
CONTINUOUS
 62
     3
100
AcDbLine
 10
90.96240157332943
 20
13.33217432975403
 30
0.0
 11
90.9590265733292
 21
13.04394932975401
 31
0.0
  0
LINE
  5
10D
330
1F
100
AcDbEntity
  8
枠_表
  6
CONTINUOUS
 62
     3
100
AcDbLine
 10
89.37142657332936
 20
14.78814932975411
 30
0.0
 11
89.36197657332934
 21
14.61129932975405
 31
0.0
  0
LINE
  5
10E
330
1F
100
AcDbEntity
  8
枠_表
  6
CONTINUOUS
 62
     3
100
AcDbLine
 10
88.88340157332925
 20
14.58632432975401
 30
0.0
 11
88.88677657332926
 21
14.40744932975622
 31
0.0
  0
LINE
  5
10F
330
1F
100
AcDbEntity
  8
枠_表
  6
CONTINUOUS
 62
     3
100
AcDbLine
 10
89.88375157332928
 20
15.26199932975419
 30
0.0
 11
89.99310157332945
 21
15.26469932975419
 31
0.0
  0
LINE
  5
110
330
1F
100
AcDbEntity
  8
枠_表
  6
CONTINUOUS
 62
     3
100
AcDbLine
 10
90.5243265733294
 20
14.84282432975419
 30
0.0
 11
90.60970934867748
 21
14.84282432975419
 31
0.0
  0
ARC
  5
111
330
1F
100
AcDbEntity
  8
枠_表
  6
CONTINUOUS
 62
     3
100
AcDbCircle
 10
92.48424810689141
 20
14.49019437507491
 30
0.0
 40
1.907418003737831
100
AcDbArc
 50
153.7591918158497
 51
169.3462759801917
  0
TEXT
  5
112
330
1F
100
AcDbEntity
  8
枠_表
  6
CONTINUOUS
 62
     2
100
AcDbText
 10
188.4537109400043
 20
26.07227783000008
 30
0.0
 40
3.0
  1
１
 41
1.101333351135257
  7
EXCADSTD
 72
     5
 11
190.8137109781512
 21
26.07227783000008
 31
0.0
100
AcDbText
  0
TEXT
  5
113
330
1F
100
AcDbEntity
  8
枠_表
  6
CONTINUOUS
 62
     2
100
AcDbText
 10
19.6500000000043
 20
26.67499999999995
 30
0.0
 40
4.25
  1
製図
 41
1.509694117647059
  7
EXCADSTD
 72
     5
 11
29.7326000000043
 21
26.67499999999995
 31
0.0
100
AcDbText
  0
TEXT
  5
114
330
1F
100
AcDbEntity
  8
枠_表
  6
CONTINUOUS
 62
     2
100
AcDbText
 10
35.1500000000043
 20
26.67499999999995
 30
0.0
 40
4.25
  1
写図
 41
1.509694117647059
  7
EXCADSTD
 72
     5
 11
45.2326000000043
 21
26.67499999999995
 31
0.0
100
AcDbText
  0
TEXT
  5
115
330
1F
100
AcDbEntity
  8
枠_表
  6
CONTINUOUS
 62
     2
100
AcDbText
 10
50.1500000000043
 20
26.67499999999995
 30
0.0
 40
4.25
  1
検図
 41
1.303826737967915
  7
EXCADSTD
 72
     5
 11
58.8577000000043
 21
26.67499999999995
 31
0.0
100
AcDbText
  0
TEXT
  5
116
330
1F
100
AcDbEntity
  8
枠_表
  6
CONTINUOUS
 62
     2
100
AcDbText
 10
63.1500000000043
 20
26.67499999999995
 30
0.0
 40
4.25
  1
承認
 41
1.303826737967915
  7
EXCADSTD
 72
     5
 11
71.8577000000043
 21
26.67499999999995
 31
0.0
100
AcDbText
  0
TEXT
  5
117
330
1F
100
AcDbEntity
  8
枠_表
  6
CONTINUOUS
 62
     2
100
AcDbText
 10
74.97500000000434
 20
25.67499999999995
 30
0.0
 40
4.25
  1
品
 41
1.120000000000002
  7
EXCADSTD
 72
     5
 11
78.37500000000435
 21
25.67499999999995
 31
0.0
100
AcDbText
  0
TEXT
  5
118
330
1F
100
AcDbEntity
  8
枠_表
  6
CONTINUOUS
 62
     2
100
AcDbText
 10
74.97500000000434
 20
20.67499999999995
 30
0.0
 40
4.25
  1
名
 41
1.120000000000002
  7
EXCADSTD
 72
     5
 11
78.37500000000435
 21
20.67499999999995
 31
0.0
100
AcDbText
  0
TEXT
  5
119
330
1F
100
AcDbEntity
  8
枠_表
  6
CONTINUOUS
 62
     2
100
AcDbText
 10
138.9750000000041
 20
25.67499999999995
 30
0.0
 40
4.25
  1
品
 41
1.120000000000002
  7
EXCADSTD
 72
     5
 11
142.3750000000041
 21
25.67499999999995
 31
0.0
100
AcDbText
  0
TEXT
  5
11A
330
1F
100
AcDbEntity
  8
枠_表
  6
CONTINUOUS
 62
     2
100
AcDbText
 10
138.9750000000041
 20
20.67499999999995
 30
0.0
 40
4.25
  1
番
 41
1.120000000000002
  7
EXCADSTD
 72
     5
 11
142.3750000000041
 21
20.67499999999995
 31
0.0
100
AcDbText
  0
TEXT
  5
11B
330
1F
100
AcDbEntity
  8
枠_表
  6
CONTINUOUS
 62
     2
100
AcDbText
 10
181.0750000000043
 20
25.67499999999995
 30
0.0
 40
4.25
  1
尺
 41
1.120000000000002
  7
EXCADSTD
 72
     5
 11
184.4750000000043
 21
25.67499999999995
 31
0.0
100
AcDbText
  0
TEXT
  5
11C
330
1F
100
AcDbEntity
  8
枠_表
  6
CONTINUOUS
 62
     2
100
AcDbText
 10
181.0750000000043
 20
20.67499999999995
 30
0.0
 40
4.25
  1
度
 41
1.120000000000002
  7
EXCADSTD
 72
     5
 11
184.4750000000043
 21
20.67499999999995
 31
0.0
100
AcDbText
  0
TEXT
  5
11D
330
1F
100
AcDbEntity
  8
枠_表
  6
CONTINUOUS
 62
     2
100
AcDbText
 10
138.9750000000041
 20
14.375
 30
0.0
 40
4.25
  1
図
 41
1.120000000000002
  7
EXCADSTD
 72
     5
 11
142.3750000000041
 21
14.375
 31
0.0
100
AcDbText
  0
TEXT
  5
11E
330
1F
100
AcDbEntity
  8
枠_表
  6
CONTINUOUS
 62
     2
100
AcDbText
 10
138.9750000000041
 20
10.07500000000005
 30
0.0
 40
4.25
  1
番
 41
1.120000000000002
  7
EXCADSTD
 72
     5
 11
142.3750000000041
 21
10.07500000000005
 31
0.0
100
AcDbText
  0
LINE
  5
11F
330
1F
100
AcDbEntity
  8
枠_表
  6
CONTINUOUS
 62
     7
100
AcDbLine
 10
17.4000000000043
 20
31.29999999999995
 30
0.0
 11
199.4000000000043
 21
31.29999999999995
 31
0.0
  0
LINE
  5
120
330
1F
100
AcDbEntity
  8
枠_表
  6
CONTINUOUS
 62
     7
100
AcDbLine
 10
199.4000000000043
 20
9.299999999999955
 30
0.0
 11
199.4000000000043
 21
289.3
 31
0.0
  0
LINE
  5
121
330
1F
100
AcDbEntity
  8
枠_表
  6
CONTINUOUS
 62
     7
100
AcDbLine
 10
17.4000000000043
 20
289.3
 30
0.0
 11
199.4000000000043
 21
289.3
 31
0.0
  0
LINE
  5
122
330
1F
100
AcDbEntity
  8
枠_表
  6
CONTINUOUS
 62
     6
100
AcDbLine
 10
199.4000000000043
 20
19.29999999999995
 30
0.0
 11
74.4000000000043
 21
19.29999999999995
 31
0.0
  0
LINE
  5
123
330
1F
100
AcDbEntity
  8
枠_表
  6
CONTINUOUS
 62
     6
100
AcDbLine
 10
185.4000000000043
 20
31.29999999999995
 30
0.0
 11
185.4000000000043
 21
19.29999999999995
 31
0.0
  0
LINE
  5
124
330
1F
100
AcDbEntity
  8
枠_表
  6
CONTINUOUS
 62
     6
100
AcDbLine
 10
180.4000000000043
 20
31.29999999999995
 30
0.0
 11
180.4000000000043
 21
19.29999999999995
 31
0.0
  0
LINE
  5
125
330
1F
100
AcDbEntity
  8
枠_表
  6
CONTINUOUS
 62
     6
100
AcDbLine
 10
143.4000000000042
 20
31.29999999999995
 30
0.0
 11
143.4000000000042
 21
9.299999999999955
 31
0.0
  0
LINE
  5
126
330
1F
100
AcDbEntity
  8
枠_表
  6
CONTINUOUS
 62
     6
100
AcDbLine
 10
138.4000000000042
 20
31.29999999999995
 30
0.0
 11
138.4000000000042
 21
9.299999999999955
 31
0.0
  0
LINE
  5
127
330
1F
100
AcDbEntity
  8
枠_表
  6
CONTINUOUS
 62
     6
100
AcDbLine
 10
79.4000000000043
 20
31.29999999999995
 30
0.0
 11
79.4000000000043
 21
19.29999999999995
 31
0.0
  0
LINE
  5
128
330
1F
100
AcDbEntity
  8
枠_表
  6
CONTINUOUS
 62
     6
100
AcDbLine
 10
74.4000000000043
 20
31.29999999999995
 30
0.0
 11
74.4000000000043
 21
9.299999999999955
 31
0.0
  0
LINE
  5
129
330
1F
100
AcDbEntity
  8
枠_表
  6
CONTINUOUS
 62
     6
100
AcDbLine
 10
61.4000000000043
 20
31.29999999999995
 30
0.0
 11
61.4000000000043
 21
9.299999999999955
 31
0.0
  0
LINE
  5
12A
330
1F
100
AcDbEntity
  8
枠_表
  6
CONTINUOUS
 62
     6
100
AcDbLine
 10
48.4000000000043
 20
31.29999999999995
 30
0.0
 11
48.4000000000043
 21
9.299999999999955
 31
0.0
  0
LINE
  5
12B
330
1F
100
AcDbEntity
  8
枠_表
  6
CONTINUOUS
 62
     6
100
AcDbLine
 10
32.9000000000043
 20
31.29999999999995
 30
0.0
 11
32.9000000000043
 21
9.299999999999955
 31
0.0
  0
LINE
  5
12C
330
1F
100
AcDbEntity
  8
枠_表
  6
CONTINUOUS
 62
     6
100
AcDbLine
 10
17.4000000000043
 20
26.29999999999995
 30
0.0
 11
74.4000000000043
 21
26.29999999999995
 31
0.0
  0
LINE
  5
12D
330
1F
100
AcDbEntity
  8
枠_表
  6
CONTINUOUS
 62
     6
100
AcDbLine
 10
188.6653808600042
 20
21.60029297000005
 30
0.0
 11
196.3993896500043
 21
29.46998291
 31
0.0
  0
CIRCLE
  5
12E
330
1F
100
AcDbEntity
  8
枠_表
  6
CONTINUOUS
 62
     6
100
AcDbCircle
 10
37.9000000000043
 20
11.79999999999995
 30
0.0
 40
0.10000002
  0
CIRCLE
  5
12F
330
1F
100
AcDbEntity
  8
枠_表
  6
CONTINUOUS
 62
     6
100
AcDbCircle
 10
42.9000000000043
 20
11.79999999999995
 30
0.0
 40
0.10000002
  0
LINE
  5
130
330
1F
100
AcDbEntity
  8
枠_表
  6
EXLTYPE2
 62
     6
100
AcDbLine
 10
17.4000000000043
 20
14.29999999999995
 30
0.0
 11
48.4000000000043
 21
14.29999999999995
 31
0.0
  0
TEXT
  5
131
330
1F
100
AcDbEntity
  8
枠_表
  6
CONTINUOUS
 62
     2
100
AcDbText
 10
192.5279296900043
 20
21.63488464000011
 30
0.0
 40
3.0
  1
１５
 41
1.098531230663534
  7
EXCADSTD
 72
     5
 11
197.7067197774181
 21
21.63488464000011
 31
0.0
100
AcDbText
  0
TEXT
  5
132
330
1F
100
AcDbEntity
  8
枠_表
  6
CONTINUOUS
 62
     2
100
AcDbText
 10
189.4000000000078
 20
276.8749999999998
 30
0.0
 40
4.0
  1
１
 41
1.119999999999996
  7
EXCADSTD
 72
     5
 11
192.6000000000078
 21
276.8749999999998
 31
0.0
100
AcDbText
  0
TEXT
  5
133
330
1F
100
AcDbEntity
  8
枠_表
  6
CONTINUOUS
 62
     2
100
AcDbText
 10
189.4000000000078
 20
271.9249999999997
 30
0.0
 40
4.0
  1
１
 41
1.119999999999996
  7
EXCADSTD
 72
     5
 11
192.6000000000078
 21
271.9249999999997
 31
0.0
100
AcDbText
  0
TEXT
  5
134
330
1F
100
AcDbEntity
  8
枠_表
  6
CONTINUOUS
 62
     2
100
AcDbText
 10
147.2999999999939
 20
276.7749999999996
 30
0.0
 40
4.0
  1
洗面化粧台
 41
1.01379310057081
  7
EXCADSTD
 72
     5
 11
164.0999999523102
 21
276.7749999999996
 31
0.0
100
AcDbText
  0
LINE
  5
135
330
1F
100
AcDbEntity
  8
枠_表
  6
CONTINUOUS
 62
     6
100
AcDbLine
 10
116.4000000000077
 20
281.3499999999997
 30
0.0
 11
196.4000000000078
 21
281.3499999999997
 31
0.0
  0
LINE
  5
136
330
1F
100
AcDbEntity
  8
枠_表
  6
CONTINUOUS
 62
     6
100
AcDbLine
 10
116.4000000000077
 20
286.2999999999997
 30
0.0
 11
196.4000000000078
 21
286.2999999999997
 31
0.0
  0
LINE
  5
137
330
1F
100
AcDbEntity
  8
枠_表
  6
CONTINUOUS
 62
     6
100
AcDbLine
 10
116.4000000000077
 20
271.4499999999996
 30
0.0
 11
196.4000000000078
 21
271.4499999999996
 31
0.0
  0
LINE
  5
138
330
1F
100
AcDbEntity
  8
枠_表
  6
CONTINUOUS
 62
     6
100
AcDbLine
 10
116.4000000000077
 20
276.3999999999996
 30
0.0
 11
196.4000000000078
 21
276.3999999999996
 31
0.0
  0
TEXT
  5
139
330
1F
100
AcDbEntity
  8
枠_表
  6
CONTINUOUS
 62
     2
100
AcDbText
 10
187.8000000059682
 20
281.825
 30
0.0
 40
4.0
  1
個数
 41
1.049923634625296
  7
EXCADSTD
 72
     5
 11
194.3995199950415
 21
281.825
 31
0.0
100
AcDbText
  0
TEXT
  5
13A
330
1F
100
AcDbEntity
  8
枠_表
  6
CONTINUOUS
 62
     2
100
AcDbText
 10
124.900000000007
 20
281.825
 30
0.0
 40
4.0
  1
品番
 41
1.895695454545453
  7
EXCADSTD
 72
     5
 11
136.815800000007
 21
281.825
 31
0.0
100
AcDbText
  0
TEXT
  5
13B
330
1F
100
AcDbEntity
  8
枠_表
  6
CONTINUOUS
 62
     2
100
AcDbText
 10
159.9000000000071
 20
281.825
 30
0.0
 40
4.0
  1
品名
 41
1.895695454545453
  7
EXCADSTD
 72
     5
 11
171.8158000000071
 21
281.825
 31
0.0
100
AcDbText
  0
TEXT
  5
13C
330
1F
100
AcDbEntity
  8
枠_表
  6
CONTINUOUS
 62
     2
100
AcDbText
 10
98.00000002384934
 20
20.29999999999995
 30
0.0
 40
5.0
  1
洗面化粧台
 41
1.052413790801476
  7
EXCADSTD
 72
     5
 11
119.7999999761656
 21
20.29999999999995
 31
0.0
100
AcDbText
  0
TEXT
  5
13D
330
1F
100
AcDbEntity
  8
枠_表
  6
CONTINUOUS
 62
     2
100
AcDbText
 10
117.1000000000071
 20
276.8749999999998
 30
0.0
 40
4.0
  1
ＬＵ０７５１ＣＳＤ１Ｅ
 41
0.7080769089552075
  7
EXCADSTD
 72
     5
 11
143.3999994754862
 21
276.8749999999998
 31
0.0
100
AcDbText
  0
TEXT
  5
13E
330
1F
100
AcDbEntity
  8
枠_表
  6
CONTINUOUS
 62
     2
100
AcDbText
 10
117.1000000000071
 20
271.9249999999997
 30
0.0
 40
4.0
  1
ＬＵ０７５１ＣＳＤ１Ｙ
 41
0.7080769089552075
  7
EXCADSTD
 72
     5
 11
143.3999994754862
 21
271.9249999999997
 31
0.0
100
AcDbText
  0
TEXT
  5
13F
330
1F
100
AcDbEntity
  8
枠_表
  6
CONTINUOUS
 62
     2
100
AcDbText
 10
80.4000000000043
 20
26.79999999999995
 30
0.0
 40
4.0
  1
７５０ｍｍ幅
 41
0.9999999970197677
  7
EXCADSTD
 72
     5
 11
100.3999999403997
 21
26.79999999999995
 31
0.0
100
AcDbText
  0
TEXT
  5
140
330
1F
100
AcDbEntity
  8
枠_表
  6
CONTINUOUS
 62
     2
100
AcDbText
 10
147.2999999999939
 20
271.8249999999996
 30
0.0
 40
4.0
  1
洗面化粧台（寒冷地形）
 41
0.9692307660212887
  7
EXCADSTD
 72
     5
 11
183.2999998807846
 21
271.8249999999996
 31
0.0
100
AcDbText
  0
TEXT
  5
141
330
1F
100
AcDbEntity
  8
枠_表
  6
CONTINUOUS
 62
     2
100
AcDbText
 10
147.1000000476903
 20
22.79999999999995
 30
0.0
 40
5.0
  1
ＬＵ０７５１ＣＳ型
 41
0.7818867899336905
  7
EXCADSTD
 72
     5
 11
176.6999999523229
 21
22.79999999999995
 31
0.0
100
AcDbText
  0
TEXT
  5
142
330
1F
100
AcDbEntity
  8
枠_表
  6
CONTINUOUS
 62
     2
100
AcDbText
 10
116.0999999999107
 20
260.9500000000005
 30
0.0
 40
4.0
  1
※止水栓（別途手配）
 41
1.052966101694915
  7
EXCADSTD
 72
     5
 11
151.5999999999107
 21
260.9500000000005
 31
0.0
100
AcDbText
  0
TEXT
  5
143
330
1F
100
AcDbEntity
  8
枠_表
  6
CONTINUOUS
 62
     2
100
AcDbText
 10
189.4000000000077
 20
238.5749999999998
 30
0.0
 40
4.0
  1
１
 41
1.119999999999996
  7
EXCADSTD
 72
     5
 11
192.6000000000077
 21
238.5749999999998
 31
0.0
100
AcDbText
  0
TEXT
  5
144
330
1F
100
AcDbEntity
  8
枠_表
  6
CONTINUOUS
 62
     2
100
AcDbText
 10
189.4000000000077
 20
231.05
 30
0.0
 40
4.0
  1
１
 41
1.119999999999996
  7
EXCADSTD
 72
     5
 11
192.6000000000077
 21
231.05
 31
0.0
100
AcDbText
  0
TEXT
  5
145
330
1F
100
AcDbEntity
  8
枠_表
  6
CONTINUOUS
 62
     2
100
AcDbText
 10
152.2999999999939
 20
233.7149999999999
 30
0.0
 40
4.0
  1
配管アダプター
 41
0.9902438993861036
  7
EXCADSTD
 72
     5
 11
175.4999999284684
 21
233.7149999999999
 31
0.0
100
AcDbText
  0
TEXT
  5
146
330
1F
100
AcDbEntity
  8
枠_表
  6
CONTINUOUS
 62
     2
100
AcDbText
 10
152.2999999999939
 20
228.7649999999999
 30
0.0
 40
4.0
  1
（ＶＰ５０・ＶＵ５０用）
 41
0.8183098559228469
  7
EXCADSTD
 72
     5
 11
185.4999998688637
 21
228.7649999999999
 31
0.0
100
AcDbText
  0
TEXT
  5
147
330
1F
100
AcDbEntity
  8
枠_表
  6
CONTINUOUS
 62
     2
100
AcDbText
 10
116.400000000007
 20
243.6249999999998
 30
0.0
 40
4.0
  1
※壁排水用部材（別途手配）
 41
1.045454545454546
  7
EXCADSTD
 72
     5
 11
162.400000000007
 21
243.6249999999998
 31
0.0
100
AcDbText
  0
LINE
  5
148
330
1F
100
AcDbEntity
  8
枠_表
  6
CONTINUOUS
 62
     6
100
AcDbLine
 10
116.4000000000077
 20
259.9499999999998
 30
0.0
 11
196.4000000000078
 21
259.9499999999998
 31
0.0
  0
LINE
  5
149
330
1F
100
AcDbEntity
  8
枠_表
  6
CONTINUOUS
 62
     6
100
AcDbLine
 10
116.4000000000077
 20
250.0499999999997
 30
0.0
 11
196.4000000000078
 21
250.0499999999997
 31
0.0
  0
LINE
  5
14A
330
1F
100
AcDbEntity
  8
枠_表
  6
CONTINUOUS
 62
     6
100
AcDbLine
 10
116.4000000000077
 20
254.9999999999998
 30
0.0
 11
196.4000000000078
 21
254.9999999999998
 31
0.0
  0
LINE
  5
14B
330
1F
100
AcDbEntity
  8
枠_表
  6
CONTINUOUS
 62
     6
100
AcDbLine
 10
116.4000000000077
 20
250.05
 30
0.0
 11
116.4000000000077
 21
259.9499999999998
 31
0.0
  0
LINE
  5
14C
330
1F
100
AcDbEntity
  8
枠_表
  6
CONTINUOUS
 62
     6
100
AcDbLine
 10
151.4000000000077
 20
250.0499999999997
 30
0.0
 11
151.4000000000077
 21
259.9499999999998
 31
0.0
  0
LINE
  5
14D
330
1F
100
AcDbEntity
  8
枠_表
  6
CONTINUOUS
 62
     6
100
AcDbLine
 10
186.4000000000078
 20
250.0499999999997
 30
0.0
 11
186.4000000000078
 21
259.9499999999998
 31
0.0
  0
LINE
  5
14E
330
1F
100
AcDbEntity
  8
枠_表
  6
CONTINUOUS
 62
     6
100
AcDbLine
 10
196.4000000000078
 20
250.05
 30
0.0
 11
196.4000000000078
 21
259.9499999999998
 31
0.0
  0
LINE
  5
14F
330
1F
100
AcDbEntity
  8
枠_表
  6
CONTINUOUS
 62
     6
100
AcDbLine
 10
116.4000000000077
 20
228.1999999999998
 30
0.0
 11
196.4000000000078
 21
228.1999999999998
 31
0.0
  0
LINE
  5
150
330
1F
100
AcDbEntity
  8
枠_表
  6
CONTINUOUS
 62
     6
100
AcDbLine
 10
116.4000000000077
 20
238.0999999999999
 30
0.0
 11
196.4000000000078
 21
238.0999999999999
 31
0.0
  0
LINE
  5
151
330
1F
100
AcDbEntity
  8
枠_表
  6
CONTINUOUS
 62
     6
100
AcDbLine
 10
116.4000000000077
 20
243.0499999999997
 30
0.0
 11
196.4000000000078
 21
243.0499999999997
 31
0.0
  0
LINE
  5
152
330
1F
100
AcDbEntity
  8
枠_表
  6
CONTINUOUS
 62
     6
100
AcDbLine
 10
116.4000000000077
 20
228.1999999999998
 30
0.0
 11
116.4000000000077
 21
243.0499999999997
 31
0.0
  0
LINE
  5
153
330
1F
100
AcDbEntity
  8
枠_表
  6
CONTINUOUS
 62
     6
100
AcDbLine
 10
151.4000000000077
 20
228.1999999999998
 30
0.0
 11
151.4000000000077
 21
243.0499999999997
 31
0.0
  0
LINE
  5
154
330
1F
100
AcDbEntity
  8
枠_表
  6
CONTINUOUS
 62
     6
100
AcDbLine
 10
186.4000000000078
 20
228.1999999999998
 30
0.0
 11
186.4000000000078
 21
243.0499999999997
 31
0.0
  0
LINE
  5
155
330
1F
100
AcDbEntity
  8
枠_表
  6
CONTINUOUS
 62
     6
100
AcDbLine
 10
196.4000000000078
 20
228.1999999999998
 30
0.0
 11
196.4000000000078
 21
243.0499999999997
 31
0.0
  0
TEXT
  5
156
330
1F
100
AcDbEntity
  8
枠_表
  6
CONTINUOUS
 62
     2
100
AcDbText
 10
116.9000000000111
 20
231.125
 30
0.0
 40
4.0
  1
ＬＵＭＥＨ７０－２０－３２Ｂ
 41
0.6999999859246864
  7
EXCADSTD
 72
     5
 11
150.0999993324391
 21
231.125
 31
0.0
100
AcDbText
  0
TEXT
  5
157
330
1F
100
AcDbEntity
  8
枠_表
  6
CONTINUOUS
 62
     2
100
AcDbText
 10
117.1000000000071
 20
238.5749999999998
 30
0.0
 40
4.0
  1
４４１３１
 41
0.7543103304402583
  7
EXCADSTD
 72
     5
 11
129.5999997615885
 21
238.5749999999998
 31
0.0
100
AcDbText
  0
TEXT
  5
158
330
1F
100
AcDbEntity
  8
枠_表
  6
CONTINUOUS
 62
     2
100
AcDbText
 10
152.2999999999939
 20
238.4749999999997
 30
0.0
 40
4.0
  1
Ｌ管
 41
1.049923634625296
  7
EXCADSTD
 72
     5
 11
158.8995199890672
 21
238.4749999999997
 31
0.0
100
AcDbText
  0
TEXT
  5
159
330
1F
100
AcDbEntity
  8
枠_表
  6
CONTINUOUS
 62
     2
100
AcDbText
 10
189.4000000000077
 20
255.5249999999999
 30
0.0
 40
4.0
  1
２
 41
1.119999999999996
  7
EXCADSTD
 72
     5
 11
192.6000000000077
 21
255.5249999999999
 31
0.0
100
AcDbText
  0
TEXT
  5
15A
330
1F
100
AcDbEntity
  8
枠_表
  6
CONTINUOUS
 62
     2
100
AcDbText
 10
152.2999999999939
 20
255.5749999999998
 30
0.0
 40
4.0
  1
床給水用止水栓
 41
0.9902438993861036
  7
EXCADSTD
 72
     5
 11
175.4999999284684
 21
255.5749999999998
 31
0.0
100
AcDbText
  0
TEXT
  5
15B
330
1F
100
AcDbEntity
  8
枠_表
  6
CONTINUOUS
 62
     2
100
AcDbText
 10
189.4000000000077
 20
250.6249999999998
 30
0.0
 40
4.0
  1
２
 41
1.119999999999996
  7
EXCADSTD
 72
     5
 11
192.6000000000077
 21
250.6249999999998
 31
0.0
100
AcDbText
  0
TEXT
  5
15C
330
1F
100
AcDbEntity
  8
枠_表
  6
CONTINUOUS
 62
     2
100
AcDbText
 10
152.0999999999939
 20
250.6249999999998
 30
0.0
 40
4.0
  1
壁給水用止水栓
 41
0.9902438993861036
  7
EXCADSTD
 72
     5
 11
175.2999999284683
 21
250.6249999999998
 31
0.0
100
AcDbText
  0
TEXT
  5
15D
330
1F
100
AcDbEntity
  8
枠_表
  6
CONTINUOUS
 62
     2
100
AcDbText
 10
117.1000000000071
 20
250.5249999999999
 30
0.0
 40
4.0
  1
ＮＬ２２１－７５ＷＭＹ
 41
0.7080769089552075
  7
EXCADSTD
 72
     5
 11
143.3999994754862
 21
250.5249999999999
 31
0.0
100
AcDbText
  0
TEXT
  5
15E
330
1F
100
AcDbEntity
  8
枠_表
  6
CONTINUOUS
 62
     2
100
AcDbText
 10
116.0999999999107
 20
222.2000000000005
 30
0.0
 40
4.0
  1
※洗面化粧台には、床排水用トラップを付属
 41
1.036764705882353
  7
EXCADSTD
 72
     5
 11
186.5999999999107
 21
222.2000000000005
 31
0.0
100
AcDbText
  0
TEXT
  5
15F
330
1F
100
AcDbEntity
  8
枠_表
  6
CONTINUOUS
 62
     2
100
AcDbText
 10
116.0999999999107
 20
218.2000000000005
 30
0.0
 40
4.0
  1
※洗面化粧台には、止水栓は含まれない
 41
1.038551401869159
  7
EXCADSTD
 72
     5
 11
179.5999999999107
 21
218.2000000000005
 31
0.0
100
AcDbText
  0
TEXT
  5
160
330
1F
100
AcDbEntity
  8
枠_表
  6
CONTINUOUS
 62
     2
100
AcDbText
 10
116.0999999999107
 20
214.2000000000005
 30
0.0
 40
4.0
  1
※湯水混合水栓は、節湯Ｃ１形、吐水口引出式
 41
1.036
  7
EXCADSTD
 72
     5
 11
190.0999999999107
 21
214.2000000000005
 31
0.0
100
AcDbText
  0
TEXT
  5
161
330
1F
100
AcDbEntity
  8
枠_表
  6
CONTINUOUS
 62
     2
100
AcDbText
 10
116.9000000000111
 20
255.45
 30
0.0
 40
4.0
  1
ＮＬ２２１Ｆ２００ＷＹ２５
 41
0.7022727131843568
  7
EXCADSTD
 72
     5
 11
147.7999993801228
 21
255.45
 31
0.0
100
AcDbText
  0
TEXT
  5
162
330
1F
100
AcDbEntity
  8
枠_表
  6
CONTINUOUS
 62
     2
100
AcDbText
 10
189.4000000000102
 20
266.8199999999999
 30
0.0
 40
4.0
  1
１
 41
1.119999999999996
  7
EXCADSTD
 72
     5
 11
192.6000000000102
 21
266.8199999999999
 31
0.0
100
AcDbText
  0
LINE
  5
163
330
1F
100
AcDbEntity
  8
枠_表
  6
CONTINUOUS
 62
     6
100
AcDbLine
 10
196.40000000001
 20
266.4499999999996
 30
0.0
 11
116.40000000001
 21
266.4499999999996
 31
0.0
  0
LINE
  5
164
330
1F
100
AcDbEntity
  8
枠_表
  6
CONTINUOUS
 62
     6
100
AcDbLine
 10
196.4000000000078
 20
266.45
 30
0.0
 11
196.4000000000078
 21
286.3
 31
0.0
  0
LINE
  5
165
330
1F
100
AcDbEntity
  8
枠_表
  6
CONTINUOUS
 62
     6
100
AcDbLine
 10
186.4000000000078
 20
266.4499999999996
 30
0.0
 11
186.4000000000078
 21
286.2999999999997
 31
0.0
  0
LINE
  5
166
330
1F
100
AcDbEntity
  8
枠_表
  6
CONTINUOUS
 62
     6
100
AcDbLine
 10
146.4000000000077
 20
286.2999999999997
 30
0.0
 11
146.4000000000077
 21
266.4499999999996
 31
0.0
  0
LINE
  5
167
330
1F
100
AcDbEntity
  8
枠_表
  6
CONTINUOUS
 62
     6
100
AcDbLine
 10
116.4000000000077
 20
266.45
 30
0.0
 11
116.4000000000077
 21
286.3
 31
0.0
  0
CIRCLE
  5
168
330
1F
100
AcDbEntity
  8
枠_表
  6
CONTINUOUS
 62
     6
100
AcDbCircle
 10
22.40000000000043
 20
11.79999999999995
 30
0.0
 40
0.10000002
  0
CIRCLE
  5
169
330
1F
100
AcDbEntity
  8
枠_表
  6
CONTINUOUS
 62
     6
100
AcDbCircle
 10
27.40000000000043
 20
11.79999999999995
 30
0.0
 40
0.10000002
  0
CIRCLE
  5
16A
330
1F
100
AcDbEntity
  8
枠_表
  6
CONTINUOUS
 62
     6
100
AcDbCircle
 10
22.40000000000043
 20
11.79999999999995
 30
0.0
 40
0.10000002
  0
CIRCLE
  5
16B
330
1F
100
AcDbEntity
  8
枠_表
  6
CONTINUOUS
 62
     6
100
AcDbCircle
 10
27.40000000000043
 20
11.79999999999995
 30
0.0
 40
0.10000002
  0
TEXT
  5
16C
330
1F
100
AcDbEntity
  8
枠_表
  6
CONTINUOUS
 62
     6
100
AcDbText
 10
24.30691160569529
 20
10.24500732000001
 30
0.0
 40
3.0
  1
4
 41
0.4423611111111109
  7
EXCADSTD
 72
     5
 11
25.44441160569529
 21
10.24500732000001
 31
0.0
100
AcDbText
  0
TEXT
  5
16D
330
1F
100
AcDbEntity
  8
枠_表
  6
CONTINUOUS
 62
     2
100
AcDbText
 10
20.15000000000043
 20
17.80000000000018
 30
0.0
 40
5.0
  1
岩田
 41
1.166581818181818
  7
EXCADSTD
 72
     5
 11
29.31600000000043
 21
17.80000000000018
 31
0.0
100
AcDbText
  0
TEXT
  5
16E
330
1F
100
AcDbEntity
  8
枠_表
  6
CONTINUOUS
 62
     6
100
AcDbText
 10
18.03441156754832
 20
10.24500732000001
 30
0.0
 40
3.0
  1
'20
 41
0.4689784011919448
  7
EXCADSTD
 72
     5
 11
21.18326654697995
 21
10.24500732000001
 31
0.0
100
AcDbText
  0
TEXT
  5
16F
330
1F
100
AcDbEntity
  8
枠_表
  6
CONTINUOUS
 62
     6
100
AcDbText
 10
28.98941159139019
 20
10.24500732000001
 30
0.0
 40
3.0
  1
15
 41
0.4086486468443998
  7
EXCADSTD
 72
     5
 11
31.14941158185345
 21
10.24500732000001
 31
0.0
100
AcDbText
  0
TEXT
  5
170
330
1F
100
AcDbEntity
  8
枠_表
  6
CONTINUOUS
 62
     2
100
AcDbText
 10
147.2700000000098
 20
266.925
 30
0.0
 40
4.0
  1
化粧鏡
 41
1.070588232839809
  7
EXCADSTD
 72
     5
 11
157.6699999761679
 21
266.925
 31
0.0
100
AcDbText
  0
TEXT
  5
171
330
1F
100
AcDbEntity
  8
枠_表
  6
CONTINUOUS
 62
     2
100
AcDbText
 10
117.1000000000097
 20
266.925
 30
0.0
 40
4.0
  1
ＬＵＭ６０２ＣＳ
 41
0.7819148936170214
  7
EXCADSTD
 72
     5
 11
138.1000000000097
 21
266.925
 31
0.0
100
AcDbText
  0
TEXT
  5
172
330
1F
100
AcDbEntity
  8
枠_表
  6
CONTINUOUS
 62
     7
100
AcDbText
 10
150.900000000001
 20
11.45000000000005
 30
0.0
 40
6.0
  1
ＬＵ３１８５４０
 41
1.017730496453901
  7
EXCADSTD
 72
     5
 11
191.900000000001
 21
11.45000000000005
 31
0.0
100
AcDbText
  0
LINE
  5
173
330
1F
100
AcDbEntity
  8
化粧台
  6
CONTINUOUS
 62
     2
100
AcDbLine
 10
1230.996305873214
 20
1623.307834389494
 30
0.0
 11
1235.996305873214
 21
1753.307834389494
 31
0.0
  0
ARC
  5
174
330
1F
100
AcDbEntity
  8
化粧台
  6
CONTINUOUS
 62
     2
100
AcDbCircle
 10
1231.000000000059
 20
1753.5
 30
0.0
 40
5.0
100
AcDbArc
 50
357.7974018382349
 51
90.00000000000001
  0
ARC
  5
175
330
1F
100
AcDbEntity
  8
化粧台
  6
CONTINUOUS
 62
     2
100
AcDbCircle
 10
1226.000000000059
 20
1623.5
 30
0.0
 40
5.0
100
AcDbArc
 50
270.0000000000002
 51
357.7974018382349
  0
LINE
  5
176
330
1F
100
AcDbEntity
  8
化粧台
  6
CONTINUOUS
 62
     2
100
AcDbLine
 10
691.0036941269032
 20
1623.307834389494
 30
0.0
 11
686.0036941269032
 21
1753.307834389494
 31
0.0
  0
ARC
  5
177
330
1F
100
AcDbEntity
  8
化粧台
  6
CONTINUOUS
 62
     2
100
AcDbCircle
 10
691.0000000000605
 20
1753.5
 30
0.0
 40
5.0
100
AcDbArc
 50
90.00000000000001
 51
182.2025981617654
  0
ARC
  5
178
330
1F
100
AcDbEntity
  8
化粧台
  6
CONTINUOUS
 62
     2
100
AcDbCircle
 10
696.0000000000605
 20
1623.5
 30
0.0
 40
5.0
100
AcDbArc
 50
182.2025981617654
 51
270.0000000000002
  0
LINE
  5
179
330
1F
100
AcDbEntity
  8
化粧台
  6
CONTINUOUS
 62
     2
100
AcDbLine
 10
696.0000000000605
 20
1618.5
 30
0.0
 11
1226.000000000059
 21
1618.5
 31
0.0
  0
LINE
  5
17A
330
1F
100
AcDbEntity
  8
化粧台
  6
CONTINUOUS
 62
     2
100
AcDbLine
 10
691.0000000000605
 20
1758.5
 30
0.0
 11
1231.000000000059
 21
1758.5
 31
0.0
  0
LINE
  5
17B
330
1F
100
AcDbEntity
  8
化粧台
  6
CONTINUOUS
 62
     6
100
AcDbLine
 10
882.6148288607078
 20
1768.924412548848
 30
0.0
 11
886.2500000000823
 21
1760.176247290652
 31
0.0
  0
ARC
  5
17C
330
1F
100
AcDbEntity
  8
化粧台
  6
CONTINUOUS
 62
     6
100
AcDbCircle
 10
884.0000000000732
 20
1769.500000000651
 30
0.0
 40
1.5
100
AcDbArc
 50
89.99999999997263
 51
202.5646074934729
  0
LINE
  5
17D
330
1F
100
AcDbEntity
  8
化粧台
  6
CONTINUOUS
 62
     6
100
AcDbLine
 10
899.3851711394386
 20
1768.924412548859
 30
0.0
 11
895.7500000000769
 21
1760.176247290659
 31
0.0
  0
ARC
  5
17E
330
1F
100
AcDbEntity
  8
化粧台
  6
CONTINUOUS
 62
     6
100
AcDbCircle
 10
898.0000000000714
 20
1769.500000000658
 30
0.0
 40
1.5
100
AcDbArc
 50
337.4353925066304
 51
90.00000000011136
  0
LINE
  5
17F
330
1F
100
AcDbEntity
  8
化粧台
  6
CONTINUOUS
 62
     6
100
AcDbLine
 10
884.0000000000714
 20
1771.000000000651
 30
0.0
 11
898.0000000000714
 21
1771.000000000658
 31
0.0
  0
LINE
  5
180
330
1F
100
AcDbEntity
  8
化粧台
  6
CONTINUOUS
 62
     6
100
AcDbLine
 10
886.2500000000805
 20
1758.5
 30
0.0
 11
886.2500000000769
 21
1760.176247290659
 31
0.0
  0
LINE
  5
181
330
1F
100
AcDbEntity
  8
化粧台
  6
CONTINUOUS
 62
     6
100
AcDbLine
 10
895.7500000000805
 20
1758.5
 30
0.0
 11
895.7500000000805
 21
1760.176247290667
 31
0.0
  0
LINE
  5
182
330
1F
100
AcDbEntity
  8
化粧台
  6
CONTINUOUS
 62
     6
100
AcDbLine
 10
1115.500000000057
 20
911.5
 30
0.0
 11
1136.500000000048
 21
911.5
 31
0.0
  0
LINE
  5
183
330
1F
100
AcDbEntity
  8
化粧台
  6
CONTINUOUS
 62
     6
100
AcDbLine
 10
1136.500000000048
 20
919.5
 30
0.0
 11
1136.500000000048
 21
911.5
 31
0.0
  0
LINE
  5
184
330
1F
100
AcDbEntity
  8
化粧台
  6
CONTINUOUS
 62
     6
100
AcDbLine
 10
1115.50000000004
 20
919.5
 30
0.0
 11
1115.50000000004
 21
911.5
 31
0.0
  0
LINE
  5
185
330
1F
100
AcDbEntity
  8
化粧台
  6
CONTINUOUS
 62
     6
100
AcDbLine
 10
806.5000000000587
 20
911.5
 30
0.0
 11
785.5000000000678
 21
911.5
 31
0.0
  0
LINE
  5
186
330
1F
100
AcDbEntity
  8
化粧台
  6
CONTINUOUS
 62
     6
100
AcDbLine
 10
785.5000000000678
 20
919.5
 30
0.0
 11
785.5000000000678
 21
911.5
 31
0.0
  0
LINE
  5
187
330
1F
100
AcDbEntity
  8
化粧台
  6
CONTINUOUS
 62
     6
100
AcDbLine
 10
806.500000000075
 20
919.5
 30
0.0
 11
806.500000000075
 21
911.5
 31
0.0
  0
LINE
  5
188
330
1F
100
AcDbEntity
  8
化粧台
  6
EXLTYPE4
 62
     6
100
AcDbLine
 10
785.5000000000587
 20
919.5
 30
0.0
 11
785.5000000000587
 21
1069.5
 31
0.0
  0
LINE
  5
189
330
1F
100
AcDbEntity
  8
化粧台
  6
EXLTYPE4
 62
     6
100
AcDbLine
 10
806.5000000000587
 20
919.5
 30
0.0
 11
806.5000000000587
 21
1069.5
 31
0.0
  0
LINE
  5
18A
330
1F
100
AcDbEntity
  8
化粧台
  6
EXLTYPE4
 62
     6
100
AcDbLine
 10
1115.500000000057
 20
919.5
 30
0.0
 11
1115.500000000057
 21
1069.5
 31
0.0
  0
LINE
  5
18B
330
1F
100
AcDbEntity
  8
化粧台
  6
EXLTYPE4
 62
     6
100
AcDbLine
 10
1136.500000000057
 20
919.5
 30
0.0
 11
1136.500000000057
 21
1069.5
 31
0.0
  0
LINE
  5
18C
330
1F
100
AcDbEntity
  8
化粧台
  6
EXLTYPE2
 62
     6
100
AcDbLine
 10
1185.000000000057
 20
919.4999999999
 30
0.0
 11
1185.000000000057
 21
1089.5
 31
0.0
  0
LINE
  5
18D
330
1F
100
AcDbEntity
  8
化粧台
  6
EXLTYPE2
 62
     6
100
AcDbLine
 10
1217.000000000057
 20
919.4999999999
 30
0.0
 11
1217.000000000057
 21
1089.5
 31
0.0
  0
LINE
  5
18E
330
1F
100
AcDbEntity
  8
化粧台
  6
EXLTYPE3
 62
     6
100
AcDbLine
 10
796.0000000000587
 20
1084.5
 30
0.0
 11
796.0000000000587
 21
896.5
 31
0.0
  0
LINE
  5
18F
330
1F
100
AcDbEntity
  8
化粧台
  6
EXLTYPE3
 62
     6
100
AcDbLine
 10
1126.000000000057
 20
1084.5
 30
0.0
 11
1126.000000000057
 21
896.5
 31
0.0
  0
LINE
  5
190
330
1F
100
AcDbEntity
  8
化粧台
  6
EXLTYPE3
 62
     6
100
AcDbLine
 10
1201.000000000057
 20
1104.5
 30
0.0
 11
1201.000000000057
 21
854.49999999988
 31
0.0
  0
LINE
  5
191
330
1F
100
AcDbEntity
  8
化粧台
  6
EXLTYPE2
 62
     6
100
AcDbLine
 10
1178.200000000058
 20
963.7000000000007
 30
0.0
 11
1223.800000000058
 21
963.7000000000007
 31
0.0
  0
LINE
  5
192
330
1F
100
AcDbEntity
  8
化粧台
  6
EXLTYPE2
 62
     6
100
AcDbLine
 10
1178.200000000058
 20
981.5
 30
0.0
 11
1223.800000000058
 21
981.5
 31
0.0
  0
LINE
  5
193
330
1F
100
AcDbEntity
  8
化粧台
  6
EXLTYPE2
 62
     6
100
AcDbLine
 10
1167.500000000059
 20
923.5
 30
0.0
 11
1234.50000000006
 21
923.5
 31
0.0
  0
LINE
  5
194
330
1F
100
AcDbEntity
  8
化粧台
  6
EXLTYPE2
 62
     6
100
AcDbLine
 10
1234.50000000006
 20
943.5
 30
0.0
 11
1234.50000000006
 21
923.5
 31
0.0
  0
ARC
  5
195
330
1F
100
AcDbEntity
  8
化粧台
  6
EXLTYPE2
 62
     6
100
AcDbCircle
 10
1231.50000000006
 20
943.5
 30
0.0
 40
3.000000000000003
100
AcDbArc
 50
0.0
 51
90.00000000000001
  0
LINE
  5
196
330
1F
100
AcDbEntity
  8
化粧台
  6
EXLTYPE2
 62
     6
100
AcDbLine
 10
1228.000000000059
 20
958.5
 30
0.0
 11
1228.000000000059
 21
946.5
 31
0.0
  0
ARC
  5
197
330
1F
100
AcDbEntity
  8
化粧台
  6
EXLTYPE2
 62
     6
100
AcDbCircle
 10
1225.00000000006
 20
958.5
 30
0.0
 40
3.000000000000003
100
AcDbArc
 50
0.0
 51
90.00000000000001
  0
LINE
  5
198
330
1F
100
AcDbEntity
  8
化粧台
  6
EXLTYPE2
 62
     6
100
AcDbLine
 10
1174.00000000006
 20
958.5
 30
0.0
 11
1174.00000000006
 21
946.5
 31
0.0
  0
LINE
  5
199
330
1F
100
AcDbEntity
  8
化粧台
  6
EXLTYPE2
 62
     6
100
AcDbLine
 10
1177.00000000006
 20
961.5
 30
0.0
 11
1225.00000000006
 21
961.5
 31
0.0
  0
ARC
  5
19A
330
1F
100
AcDbEntity
  8
化粧台
  6
EXLTYPE2
 62
     6
100
AcDbCircle
 10
1177.00000000006
 20
958.5
 30
0.0
 40
3.000000000000003
100
AcDbArc
 50
90.00000000000001
 51
180.0
  0
LINE
  5
19B
330
1F
100
AcDbEntity
  8
化粧台
  6
EXLTYPE2
 62
     6
100
AcDbLine
 10
1167.500000000059
 20
943.5
 30
0.0
 11
1167.500000000059
 21
923.5
 31
0.0
  0
LINE
  5
19C
330
1F
100
AcDbEntity
  8
化粧台
  6
EXLTYPE2
 62
     6
100
AcDbLine
 10
1170.500000000059
 20
946.5
 30
0.0
 11
1231.50000000006
 21
946.5
 31
0.0
  0
ARC
  5
19D
330
1F
100
AcDbEntity
  8
化粧台
  6
EXLTYPE2
 62
     6
100
AcDbCircle
 10
1170.500000000059
 20
943.5
 30
0.0
 40
3.000000000000003
100
AcDbArc
 50
90.00000000000001
 51
180.0
  0
LINE
  5
19E
330
1F
100
AcDbEntity
  8
化粧台
  6
CONTINUOUS
 62
     6
100
AcDbLine
 10
1178.200000000058
 20
981.5
 30
0.0
 11
1178.200000000058
 21
963.7000000000007
 31
0.0
  0
LINE
  5
19F
330
1F
100
AcDbEntity
  8
化粧台
  6
CONTINUOUS
 62
     6
100
AcDbLine
 10
1223.800000000058
 20
981.5
 30
0.0
 11
1223.800000000058
 21
963.7000000000007
 31
0.0
  0
ELLIPSE
  5
1A0
330
1F
100
AcDbEntity
  8
化粧台
  6
CONTINUOUS
 62
     6
100
AcDbEllipse
 10
961.0000000000587
 20
1811.4999999999
 30
0.0
 11
11.50000000000001
 21
0.0
 31
0.0
210
0.0
220
0.0
230
1.0
 40
0.4226182617406996
 41
0.0
 42
6.283185307179586
  0
CIRCLE
  5
1A1
330
1F
100
AcDbEntity
  8
化粧台
  6
CONTINUOUS
 62
     6
100
AcDbCircle
 10
961.0000000000587
 20
1877.0
 30
0.0
 40
4.0
  0
ELLIPSE
  5
1A2
330
1F
100
AcDbEntity
  8
化粧台
  6
CONTINUOUS
 62
     6
100
AcDbEllipse
 10
961.0000000000587
 20
1837.5
 30
0.0
 11
15.00000000000001
 21
0.0
 31
0.0
210
0.0
220
0.0
230
1.0
 40
0.8660254037844385
 41
0.0
 42
6.283185307179586
  0
ELLIPSE
  5
1A3
330
1F
100
AcDbEntity
  8
化粧台
  6
CONTINUOUS
 62
     6
100
AcDbEllipse
 10
961.0000000000587
 20
1779.476297946399
 30
0.0
 11
1.060575238719482E-15
 21
17.32050807560018
 31
0.0
210
0.0
220
0.0
230
1.0
 40
0.8660254037888688
 41
1.570796326794897
 42
4.71238898038469
  0
LINE
  5
1A4
330
1F
100
AcDbEntity
  8
化粧台
  6
CONTINUOUS
 62
     6
100
AcDbLine
 10
946.0000000000587
 20
1837.5
 30
0.0
 11
946.0000000000587
 21
1779.476297946399
 31
0.0
  0
LINE
  5
1A5
330
1F
100
AcDbEntity
  8
化粧台
  6
CONTINUOUS
 62
     6
100
AcDbLine
 10
976.0000000000587
 20
1837.5
 30
0.0
 11
976.0000000000587
 21
1779.476297946399
 31
0.0
  0
LINE
  5
1A6
330
1F
100
AcDbEntity
  8
化粧台
  6
CONTINUOUS
 62
     6
100
AcDbLine
 10
949.5000000000587
 20
1811.4999999999
 30
0.0
 11
949.5000000000587
 21
1820.2902360689
 31
0.0
  0
LINE
  5
1A7
330
1F
100
AcDbEntity
  8
化粧台
  6
CONTINUOUS
 62
     6
100
AcDbLine
 10
972.5000000000587
 20
1811.4999999999
 30
0.0
 11
972.5000000000587
 21
1820.2902360689
 31
0.0
  0
ELLIPSE
  5
1A8
330
1F
100
AcDbEntity
  8
化粧台
  6
CONTINUOUS
 62
     6
100
AcDbEllipse
 10
961.0000000000587
 20
1820.2902360689
 30
0.0
 11
11.50000000000001
 21
0.0
 31
0.0
210
0.0
220
0.0
230
1.0
 40
0.1739668486608696
 41
0.0
 42
3.141592653589793
  0
LINE
  5
1A9
330
1F
100
AcDbEntity
  8
化粧台
  6
CONTINUOUS
 62
     6
100
AcDbLine
 10
936.5000000000587
 20
1844.5
 30
0.0
 11
948.3640723860412
 21
1844.5
 31
0.0
  0
LINE
  5
1AA
330
1F
100
AcDbEntity
  8
化粧台
  6
CONTINUOUS
 62
     6
100
AcDbLine
 10
973.6359276140743
 20
1844.5
 30
0.0
 11
985.5000000000587
 21
1844.5
 31
0.0
  0
LINE
  5
1AB
330
1F
100
AcDbEntity
  8
化粧台
  6
CONTINUOUS
 62
     6
100
AcDbLine
 10
947.155626895194
 20
1842.5
 30
0.0
 11
936.5000000000587
 21
1842.5
 31
0.0
  0
LINE
  5
1AC
330
1F
100
AcDbEntity
  8
化粧台
  6
CONTINUOUS
 62
     6
100
AcDbLine
 10
985.5000000000587
 20
1842.5
 30
0.0
 11
974.8443731049215
 21
1842.5
 31
0.0
  0
LINE
  5
1AD
330
1F
100
AcDbEntity
  8
化粧台
  6
CONTINUOUS
 62
     6
100
AcDbLine
 10
936.5000000000587
 20
1884.5
 30
0.0
 11
936.5000000000587
 21
1844.5
 31
0.0
  0
ARC
  5
1AE
330
1F
100
AcDbEntity
  8
化粧台
  6
CONTINUOUS
 62
     6
100
AcDbCircle
 10
938.5000000000587
 20
1884.5
 30
0.0
 40
2.0
100
AcDbArc
 50
90.00000000000001
 51
180.0
  0
LINE
  5
1AF
330
1F
100
AcDbEntity
  8
化粧台
  6
CONTINUOUS
 62
     6
100
AcDbLine
 10
985.5000000000587
 20
1884.5
 30
0.0
 11
985.5000000000587
 21
1844.5
 31
0.0
  0
LINE
  5
1B0
330
1F
100
AcDbEntity
  8
化粧台
  6
CONTINUOUS
 62
     6
100
AcDbLine
 10
938.5000000000587
 20
1886.5
 30
0.0
 11
983.5000000000587
 21
1886.5
 31
0.0
  0
ARC
  5
1B1
330
1F
100
AcDbEntity
  8
化粧台
  6
CONTINUOUS
 62
     6
100
AcDbCircle
 10
983.5000000000587
 20
1884.5
 30
0.0
 40
2.0
100
AcDbArc
 50
0.0
 51
90.00000000000001
  0
LINE
  5
1B2
330
1F
100
AcDbEntity
  8
化粧台
  6
CONTINUOUS
 62
     6
100
AcDbLine
 10
936.5000000000587
 20
1842.5
 30
0.0
 11
936.5000000000587
 21
1758.5
 31
0.0
  0
LINE
  5
1B3
330
1F
100
AcDbEntity
  8
化粧台
  6
CONTINUOUS
 62
     6
100
AcDbLine
 10
985.5000000000587
 20
1842.5
 30
0.0
 11
985.5000000000587
 21
1758.5
 31
0.0
  0
ELLIPSE
  5
1B4
330
1F
100
AcDbEntity
  8
化粧台
  6
CONTINUOUS
 62
     6
100
AcDbEllipse
 10
961.0000000000587
 20
1797.4999999999
 30
0.0
 11
15.00000000000001
 21
0.0
 31
0.0
210
0.0
220
0.0
230
1.0
 40
0.8660254037844385
 41
3.141592653589793
 42
6.283185307179586
  0
LINE
  5
1B5
330
1F
100
AcDbEntity
  8
化粧台
  6
CONTINUOUS
 62
     2
100
AcDbLine
 10
1185.000000000055
 20
919.4999999999
 30
0.0
 11
1185.000000000055
 21
869.49999999988
 31
0.0
  0
LINE
  5
1B6
330
1F
100
AcDbEntity
  8
化粧台
  6
CONTINUOUS
 62
     2
100
AcDbLine
 10
1217.000000000055
 20
869.49999999988
 30
0.0
 11
1185.000000000055
 21
869.49999999988
 31
0.0
  0
LINE
  5
1B7
330
1F
100
AcDbEntity
  8
化粧台
  6
CONTINUOUS
 62
     2
100
AcDbLine
 10
1217.000000000055
 20
919.4999999999
 30
0.0
 11
1217.000000000055
 21
869.49999999988
 31
0.0
  0
LINE
  5
1B8
330
1F
100
AcDbEntity
  8
化粧台
  6
CONTINUOUS
 62
     2
100
AcDbLine
 10
2041.000000000057
 20
1616.5
 30
0.0
 11
2041.000000000057
 21
1601.5
 31
0.0
  0
ARC
  5
1B9
330
1F
100
AcDbEntity
  8
化粧台
  6
CONTINUOUS
 62
     2
100
AcDbCircle
 10
2043.000000000057
 20
1601.5
 30
0.0
 40
2.0
100
AcDbArc
 50
180.0
 51
270.0000000000002
  0
LINE
  5
1BA
330
1F
100
AcDbEntity
  8
化粧台
  6
CONTINUOUS
 62
     2
100
AcDbLine
 10
2066.000000000057
 20
919.5
 30
0.0
 11
2491.000000000057
 21
919.5
 31
0.0
  0
LINE
  5
1BB
330
1F
100
AcDbEntity
  8
化粧台
  6
CONTINUOUS
 62
     2
100
AcDbLine
 10
2066.000000000057
 20
919.5
 30
0.0
 11
2066.000000000057
 21
1599.5
 31
0.0
  0
LINE
  5
1BC
330
1F
100
AcDbEntity
  8
化粧台
  6
CONTINUOUS
 62
     2
100
AcDbLine
 10
2491.000000000057
 20
1599.5
 30
0.0
 11
2043.000000000057
 21
1599.5
 31
0.0
  0
LINE
  5
1BD
330
1F
100
AcDbEntity
  8
化粧台
  6
CONTINUOUS
 62
     6
100
AcDbLine
 10
2044.500000000057
 20
1564.499999999995
 30
0.0
 11
2044.500000000057
 21
1562.5
 31
0.0
  0
LINE
  5
1BE
330
1F
100
AcDbEntity
  8
化粧台
  6
CONTINUOUS
 62
     6
100
AcDbLine
 10
2043.000000000057
 20
1565.543551862876
 30
0.0
 11
2043.000000000057
 21
1563.5
 31
0.0
  0
LINE
  5
1BF
330
1F
100
AcDbEntity
  8
化粧台
  6
CONTINUOUS
 62
     6
100
AcDbLine
 10
2044.500000000057
 20
1562.5
 30
0.0
 11
2044.000000000057
 21
1562.5
 31
0.0
  0
ARC
  5
1C0
330
1F
100
AcDbEntity
  8
化粧台
  6
CONTINUOUS
 62
     6
100
AcDbCircle
 10
2044.000000000057
 20
1563.5
 30
0.0
 40
1.0
100
AcDbArc
 50
180.0
 51
270.000000000026
  0
LINE
  5
1C1
330
1F
100
AcDbEntity
  8
化粧台
  6
CONTINUOUS
 62
     6
100
AcDbLine
 10
2062.500000000057
 20
1549.5
 30
0.0
 11
2063.000000000057
 21
1549.5
 31
0.0
  0
ARC
  5
1C2
330
1F
100
AcDbEntity
  8
化粧台
  6
CONTINUOUS
 62
     6
100
AcDbCircle
 10
2044.000000000057
 20
1565.543551862876
 30
0.0
 40
1.0
100
AcDbArc
 50
92.8514919099879
 51
180.0
  0
ARC
  5
1C3
330
1F
100
AcDbEntity
  8
化粧台
  6
CONTINUOUS
 62
     6
100
AcDbCircle
 10
2054.150000000051
 20
1575.060271065815
 30
0.0
 40
8.0
100
AcDbArc
 50
272.8514919099882
 51
0.0
  0
LINE
  5
1C4
330
1F
100
AcDbEntity
  8
化粧台
  6
CONTINUOUS
 62
     6
100
AcDbLine
 10
2043.950252619671
 20
1566.54231369542
 30
0.0
 11
2054.547979043146
 21
1567.070176405472
 31
0.0
  0
LINE
  5
1C5
330
1F
100
AcDbEntity
  8
化粧台
  6
CONTINUOUS
 62
     6
100
AcDbLine
 10
2062.500000000059
 20
1564.499999999995
 30
0.0
 11
2062.500000000059
 21
1549.5
 31
0.0
  0
LINE
  5
1C6
330
1F
100
AcDbEntity
  8
化粧台
  6
CONTINUOUS
 62
     6
100
AcDbLine
 10
2062.150000000051
 20
1591.449999999999
 30
0.0
 11
2062.150000000051
 21
1575.060271065815
 31
0.0
  0
LINE
  5
1C7
330
1F
100
AcDbEntity
  8
化粧台
  6
CONTINUOUS
 62
     6
100
AcDbLine
 10
2048.327167025357
 20
1592.45000000001
 30
0.0
 11
2061.150000000051
 21
1592.45000000001
 31
0.0
  0
LINE
  5
1C8
330
1F
100
AcDbEntity
  8
化粧台
  6
CONTINUOUS
 62
     6
100
AcDbLine
 10
2048.365960544058
 20
1594.5
 30
0.0
 11
2061.000000000057
 21
1594.5
 31
0.0
  0
ARC
  5
1C9
330
1F
100
AcDbEntity
  8
化粧台
  6
CONTINUOUS
 62
     6
100
AcDbCircle
 10
2048.365960544098
 20
1591.5
 30
0.0
 40
3.000000000000003
100
AcDbArc
 50
90.00000000000001
 51
142.0420920441179
  0
ARC
  5
1CA
330
1F
100
AcDbEntity
  8
化粧台
  6
CONTINUOUS
 62
     6
100
AcDbCircle
 10
2057.827514544852
 20
1584.119011184754
 30
0.0
 40
15.00000000000001
100
AcDbArc
 50
142.0420920441203
 51
170.7449623899722
  0
ARC
  5
1CB
330
1F
100
AcDbEntity
  8
化粧台
  6
CONTINUOUS
 62
     6
100
AcDbCircle
 10
2048.327167025388
 20
1591.450000000008
 30
0.0
 40
1.0
100
AcDbArc
 50
90.00000000000001
 51
142.3442539694352
  0
ARC
  5
1CC
330
1F
100
AcDbEntity
  8
化粧台
  6
CONTINUOUS
 62
     6
100
AcDbCircle
 10
2057.827514544852
 20
1584.119011184754
 30
0.0
 40
13.00000000000001
100
AcDbArc
 50
142.344253969435
 51
163.1780394406755
  0
ARC
  5
1CD
330
1F
100
AcDbEntity
  8
化粧台
  6
CONTINUOUS
 62
     6
100
AcDbCircle
 10
2044.750000000057
 20
1586.25
 30
0.0
 40
1.750000000000001
100
AcDbArc
 50
170.7449623899685
 51
68.7663136548995
  0
ARC
  5
1CE
330
1F
100
AcDbEntity
  8
化粧台
  6
CONTINUOUS
 62
     6
100
AcDbCircle
 10
2061.150000000051
 20
1591.450000000008
 30
0.0
 40
1.0
100
AcDbArc
 50
0.0
 51
90.00000000000001
  0
LINE
  5
1CF
330
1F
100
AcDbEntity
  8
化粧台
  6
CONTINUOUS
 62
     6
100
AcDbLine
 10
2044.500000000062
 20
1564.499999999995
 30
0.0
 11
2062.500000000059
 21
1564.499999999995
 31
0.0
  0
LINE
  5
1D0
330
1F
100
AcDbEntity
  8
化粧台
  6
CONTINUOUS
 62
     2
100
AcDbLine
 10
2062.500000000057
 20
1419.5
 30
0.0
 11
2062.500000000057
 21
1564.5
 31
0.0
  0
LINE
  5
1D1
330
1F
100
AcDbEntity
  8
化粧台
  6
CONTINUOUS
 62
     2
100
AcDbLine
 10
2045.500000000057
 20
1419.5
 30
0.0
 11
2045.500000000057
 21
1564.5
 31
0.0
  0
LINE
  5
1D2
330
1F
100
AcDbEntity
  8
化粧台
  6
CONTINUOUS
 62
     2
100
AcDbLine
 10
2045.500000000057
 20
1564.5
 30
0.0
 11
2062.500000000057
 21
1564.5
 31
0.0
  0
LINE
  5
1D3
330
1F
100
AcDbEntity
  8
化粧台
  6
CONTINUOUS
 62
     2
100
AcDbLine
 10
2045.500000000057
 20
1419.5
 30
0.0
 11
2062.500000000057
 21
1419.5
 31
0.0
  0
ARC
  5
1D4
330
1F
100
AcDbEntity
  8
化粧台
  6
CONTINUOUS
 62
     6
100
AcDbCircle
 10
2061.000000000057
 20
1591.5
 30
0.0
 40
3.000000000000003
100
AcDbArc
 50
0.0
 51
90.00000000000001
  0
LINE
  5
1D5
330
1F
100
AcDbEntity
  8
化粧台
  6
CONTINUOUS
 62
     6
100
AcDbLine
 10
2064.000000000057
 20
1591.5
 30
0.0
 11
2064.000000000057
 21
1550.5
 31
0.0
  0
ARC
  5
1D6
330
1F
100
AcDbEntity
  8
化粧台
  6
CONTINUOUS
 62
     6
100
AcDbCircle
 10
2063.000000000057
 20
1550.5
 30
0.0
 40
1.0
100
AcDbArc
 50
269.999999999987
 51
0.0
  0
LINE
  5
1D7
330
1F
100
AcDbEntity
  8
化粧台
  6
CONTINUOUS
 62
     2
100
AcDbLine
 10
2045.500000000057
 20
1009.5
 30
0.0
 11
2062.500000000057
 21
1009.5
 31
0.0
  0
LINE
  5
1D8
330
1F
100
AcDbEntity
  8
化粧台
  6
CONTINUOUS
 62
     2
100
AcDbLine
 10
2062.500000000057
 20
1009.5
 30
0.0
 11
2062.500000000057
 21
1385.499999999995
 31
0.0
  0
LINE
  5
1D9
330
1F
100
AcDbEntity
  8
化粧台
  6
CONTINUOUS
 62
     2
100
AcDbLine
 10
2045.500000000057
 20
1009.5
 30
0.0
 11
2045.500000000057
 21
1385.499999999995
 31
0.0
  0
LINE
  5
1DA
330
1F
100
AcDbEntity
  8
化粧台
  6
CONTINUOUS
 62
     6
100
AcDbLine
 10
2044.500000000057
 20
1385.499999999995
 30
0.0
 11
2044.500000000057
 21
1383.5
 31
0.0
  0
LINE
  5
1DB
330
1F
100
AcDbEntity
  8
化粧台
  6
CONTINUOUS
 62
     6
100
AcDbLine
 10
2043.000000000057
 20
1386.543551862876
 30
0.0
 11
2043.000000000057
 21
1384.5
 31
0.0
  0
LINE
  5
1DC
330
1F
100
AcDbEntity
  8
化粧台
  6
CONTINUOUS
 62
     6
100
AcDbLine
 10
2044.500000000057
 20
1383.5
 30
0.0
 11
2044.000000000057
 21
1383.5
 31
0.0
  0
ARC
  5
1DD
330
1F
100
AcDbEntity
  8
化粧台
  6
CONTINUOUS
 62
     6
100
AcDbCircle
 10
2044.000000000057
 20
1384.5
 30
0.0
 40
1.0
100
AcDbArc
 50
180.0
 51
270.000000000026
  0
ARC
  5
1DE
330
1F
100
AcDbEntity
  8
化粧台
  6
CONTINUOUS
 62
     6
100
AcDbCircle
 10
2044.000000000057
 20
1386.543551862876
 30
0.0
 40
1.0
100
AcDbArc
 50
92.8514919099879
 51
180.0
  0
ARC
  5
1DF
330
1F
100
AcDbEntity
  8
化粧台
  6
CONTINUOUS
 62
     6
100
AcDbCircle
 10
2054.150000000051
 20
1396.060271065815
 30
0.0
 40
8.0
100
AcDbArc
 50
272.8514919099882
 51
0.0
  0
LINE
  5
1E0
330
1F
100
AcDbEntity
  8
化粧台
  6
CONTINUOUS
 62
     6
100
AcDbLine
 10
2043.950252619671
 20
1387.54231369542
 30
0.0
 11
2054.547979043146
 21
1388.070176405472
 31
0.0
  0
LINE
  5
1E1
330
1F
100
AcDbEntity
  8
化粧台
  6
CONTINUOUS
 62
     6
100
AcDbLine
 10
2062.500000000059
 20
1385.499999999995
 30
0.0
 11
2062.500000000059
 21
1370.5
 31
0.0
  0
LINE
  5
1E2
330
1F
100
AcDbEntity
  8
化粧台
  6
CONTINUOUS
 62
     6
100
AcDbLine
 10
2062.150000000051
 20
1412.449999999999
 30
0.0
 11
2062.150000000051
 21
1396.060271065815
 31
0.0
  0
LINE
  5
1E3
330
1F
100
AcDbEntity
  8
化粧台
  6
CONTINUOUS
 62
     6
100
AcDbLine
 10
2048.327167025357
 20
1413.450000000008
 30
0.0
 11
2061.150000000051
 21
1413.450000000008
 31
0.0
  0
LINE
  5
1E4
330
1F
100
AcDbEntity
  8
化粧台
  6
CONTINUOUS
 62
     6
100
AcDbLine
 10
2048.365960544058
 20
1415.5
 30
0.0
 11
2061.000000000057
 21
1415.5
 31
0.0
  0
ARC
  5
1E5
330
1F
100
AcDbEntity
  8
化粧台
  6
CONTINUOUS
 62
     6
100
AcDbCircle
 10
2048.365960544098
 20
1412.5
 30
0.0
 40
3.000000000000003
100
AcDbArc
 50
90.00000000000001
 51
142.0420920441179
  0
ARC
  5
1E6
330
1F
100
AcDbEntity
  8
化粧台
  6
CONTINUOUS
 62
     6
100
AcDbCircle
 10
2057.827514544852
 20
1405.119011184754
 30
0.0
 40
15.00000000000001
100
AcDbArc
 50
142.0420920441203
 51
170.7449623899722
  0
ARC
  5
1E7
330
1F
100
AcDbEntity
  8
化粧台
  6
CONTINUOUS
 62
     6
100
AcDbCircle
 10
2048.327167025388
 20
1412.450000000008
 30
0.0
 40
1.0
100
AcDbArc
 50
90.00000000000001
 51
142.3442539694352
  0
ARC
  5
1E8
330
1F
100
AcDbEntity
  8
化粧台
  6
CONTINUOUS
 62
     6
100
AcDbCircle
 10
2057.827514544852
 20
1405.119011184754
 30
0.0
 40
13.00000000000001
100
AcDbArc
 50
142.344253969435
 51
163.1780394406755
  0
ARC
  5
1E9
330
1F
100
AcDbEntity
  8
化粧台
  6
CONTINUOUS
 62
     6
100
AcDbCircle
 10
2044.750000000057
 20
1407.25
 30
0.0
 40
1.750000000000001
100
AcDbArc
 50
170.7449623899685
 51
68.7663136548995
  0
ARC
  5
1EA
330
1F
100
AcDbEntity
  8
化粧台
  6
CONTINUOUS
 62
     6
100
AcDbCircle
 10
2061.150000000051
 20
1412.450000000008
 30
0.0
 40
1.0
100
AcDbArc
 50
0.0
 51
90.00000000000001
  0
LINE
  5
1EB
330
1F
100
AcDbEntity
  8
化粧台
  6
CONTINUOUS
 62
     6
100
AcDbLine
 10
2044.500000000062
 20
1385.499999999995
 30
0.0
 11
2062.500000000059
 21
1385.499999999995
 31
0.0
  0
LINE
  5
1EC
330
1F
100
AcDbEntity
  8
化粧台
  6
CONTINUOUS
 62
     2
100
AcDbLine
 10
2045.500000000057
 20
1385.5
 30
0.0
 11
2062.500000000057
 21
1385.5
 31
0.0
  0
ARC
  5
1ED
330
1F
100
AcDbEntity
  8
化粧台
  6
CONTINUOUS
 62
     6
100
AcDbCircle
 10
2061.000000000057
 20
1412.5
 30
0.0
 40
3.000000000000003
100
AcDbArc
 50
0.0
 51
90.00000000000001
  0
LINE
  5
1EE
330
1F
100
AcDbEntity
  8
化粧台
  6
CONTINUOUS
 62
     6
100
AcDbLine
 10
2064.000000000057
 20
1412.5
 30
0.0
 11
2064.000000000057
 21
1371.5
 31
0.0
  0
ARC
  5
1EF
330
1F
100
AcDbEntity
  8
化粧台
  6
CONTINUOUS
 62
     6
100
AcDbCircle
 10
2063.000000000057
 20
1371.5
 30
0.0
 40
1.0
100
AcDbArc
 50
269.999999999987
 51
0.0
  0
LINE
  5
1F0
330
1F
100
AcDbEntity
  8
化粧台
  6
CONTINUOUS
 62
     6
100
AcDbLine
 10
2062.500000000057
 20
1370.5
 30
0.0
 11
2063.000000000057
 21
1370.5
 31
0.0
  0
LINE
  5
1F1
330
1F
100
AcDbEntity
  8
化粧台
  6
CONTINUOUS
 62
     2
100
AcDbLine
 10
2491.000000000057
 20
1618.5
 30
0.0
 11
2043.000000000057
 21
1618.5
 31
0.0
  0
ARC
  5
1F2
330
1F
100
AcDbEntity
  8
化粧台
  6
CONTINUOUS
 62
     2
100
AcDbCircle
 10
2043.000000000057
 20
1616.5
 30
0.0
 40
2.0
100
AcDbArc
 50
90.00000000000001
 51
180.0
  0
LINE
  5
1F3
330
1F
100
AcDbEntity
  8
化粧台
  6
CONTINUOUS
 62
     2
100
AcDbLine
 10
2491.000000000057
 20
919.5
 30
0.0
 11
2491.000000000057
 21
1618.5
 31
0.0
  0
LINE
  5
1F4
330
1F
100
AcDbEntity
  8
化粧台
  6
EXLTYPE2
 62
     6
100
AcDbLine
 10
2332.500000000057
 20
1509.5
 30
0.0
 11
2332.500000000057
 21
1434.5
 31
0.0
  0
LINE
  5
1F5
330
1F
100
AcDbEntity
  8
化粧台
  6
EXLTYPE2
 62
     6
100
AcDbLine
 10
2332.500000000057
 20
1434.5
 30
0.0
 11
2062.500000000057
 21
1434.5
 31
0.0
  0
LINE
  5
1F6
330
1F
100
AcDbEntity
  8
化粧台
  6
EXLTYPE2
 62
     6
100
AcDbLine
 10
2332.500000000057
 20
1509.5
 30
0.0
 11
2062.500000000057
 21
1509.5
 31
0.0
  0
LINE
  5
1F7
330
1F
100
AcDbEntity
  8
化粧台
  6
EXLTYPE2
 62
     6
100
AcDbLine
 10
2332.500000000057
 20
1179.5
 30
0.0
 11
2332.500000000057
 21
1039.5
 31
0.0
  0
LINE
  5
1F8
330
1F
100
AcDbEntity
  8
化粧台
  6
EXLTYPE2
 62
     6
100
AcDbLine
 10
2332.500000000057
 20
1039.5
 30
0.0
 11
2062.500000000057
 21
1039.5
 31
0.0
  0
LINE
  5
1F9
330
1F
100
AcDbEntity
  8
化粧台
  6
EXLTYPE2
 62
     6
100
AcDbLine
 10
2332.500000000057
 20
1179.5
 30
0.0
 11
2062.500000000057
 21
1179.5
 31
0.0
  0
LINE
  5
1FA
330
1F
100
AcDbEntity
  8
化粧台
  6
CONTINUOUS
 62
     6
100
AcDbLine
 10
2523.500005722063
 20
1499.499999999958
 30
0.0
 11
2491.000005722063
 21
1497.49999999996
 31
0.0
  0
LINE
  5
1FB
330
1F
100
AcDbEntity
  8
化粧台
  6
CONTINUOUS
 62
     6
100
AcDbLine
 10
2491.000005722063
 20
1501.49999999996
 30
0.0
 11
2523.500005722063
 21
1499.499999999958
 31
0.0
  0
LINE
  5
1FC
330
1F
100
AcDbEntity
  8
化粧台
  6
CONTINUOUS
 62
     6
100
AcDbLine
 10
2486.000000000059
 20
1499.499999999953
 30
0.0
 11
2528.500005721959
 21
1499.499999999953
 31
0.0
  0
ARC
  5
1FD
330
1F
100
AcDbEntity
  8
化粧台
  6
CONTINUOUS
 62
     2
100
AcDbCircle
 10
1996.363160000056
 20
1753.499999999949
 30
0.0
 40
5.0
100
AcDbArc
 50
90.00000300000029
 51
189.3347286182104
  0
LINE
  5
1FE
330
1F
100
AcDbEntity
  8
化粧台
  6
CONTINUOUS
 62
     2
100
AcDbLine
 10
1991.429372087996
 20
1752.688990235023
 30
0.0
 11
2012.936322473558
 21
1621.851192188009
 31
0.0
  0
ARC
  5
1FF
330
1F
100
AcDbEntity
  8
化粧台
  6
CONTINUOUS
 62
     2
100
AcDbCircle
 10
2016.883352803207
 20
1622.499999999949
 30
0.0
 40
4.0
100
AcDbArc
 50
189.3347286182108
 51
270.0000000000002
  0
LINE
  5
200
330
1F
100
AcDbEntity
  8
化粧台
  6
CONTINUOUS
 62
     2
100
AcDbLine
 10
2491.000000000059
 20
1618.499999999949
 30
0.0
 11
2016.883352803156
 21
1618.499999999949
 31
0.0
  0
LINE
  5
201
330
1F
100
AcDbEntity
  8
化粧台
  6
CONTINUOUS
 62
     2
100
AcDbLine
 10
2491.000000000059
 20
1618.499999999949
 30
0.0
 11
2491.000000000059
 21
1758.499999999949
 31
0.0
  0
LINE
  5
202
330
1F
100
AcDbEntity
  8
化粧台
  6
CONTINUOUS
 62
     2
100
AcDbLine
 10
2491.000000000059
 20
1758.499999999949
 30
0.0
 11
1996.363160000056
 21
1758.499999999949
 31
0.0
  0
LINE
  5
203
330
1F
100
AcDbEntity
  8
化粧台
  6
EXLTYPE3
 62
     6
100
AcDbLine
 10
2406.000000000059
 20
1728.5
 30
0.0
 11
2406.000000000059
 21
1901.5
 31
0.0
  0
LINE
  5
204
330
1F
100
AcDbEntity
  8
化粧台
  6
EXLTYPE2
 62
     6
100
AcDbLine
 10
2375.000000000059
 20
919.4999999999
 30
0.0
 11
2375.000000000059
 21
1089.5
 31
0.0
  0
LINE
  5
205
330
1F
100
AcDbEntity
  8
化粧台
  6
EXLTYPE2
 62
     6
100
AcDbLine
 10
2407.000000000059
 20
919.4999999999
 30
0.0
 11
2407.000000000059
 21
1089.5
 31
0.0
  0
LINE
  5
206
330
1F
100
AcDbEntity
  8
化粧台
  6
EXLTYPE3
 62
     6
100
AcDbLine
 10
2391.000000000059
 20
1104.5
 30
0.0
 11
2391.000000000059
 21
854.49999999988
 31
0.0
  0
LINE
  5
207
330
1F
100
AcDbEntity
  8
化粧台
  6
EXLTYPE2
 62
     6
100
AcDbLine
 10
2368.200000000059
 20
963.7000000000007
 30
0.0
 11
2413.80000000006
 21
963.7000000000007
 31
0.0
  0
LINE
  5
208
330
1F
100
AcDbEntity
  8
化粧台
  6
EXLTYPE2
 62
     6
100
AcDbLine
 10
2368.200000000059
 20
981.5
 30
0.0
 11
2413.80000000006
 21
981.5
 31
0.0
  0
LINE
  5
209
330
1F
100
AcDbEntity
  8
化粧台
  6
EXLTYPE2
 62
     6
100
AcDbLine
 10
2357.50000000006
 20
923.5
 30
0.0
 11
2424.500000000062
 21
923.5
 31
0.0
  0
LINE
  5
20A
330
1F
100
AcDbEntity
  8
化粧台
  6
EXLTYPE2
 62
     6
100
AcDbLine
 10
2424.500000000062
 20
943.5
 30
0.0
 11
2424.500000000062
 21
923.5
 31
0.0
  0
ARC
  5
20B
330
1F
100
AcDbEntity
  8
化粧台
  6
EXLTYPE2
 62
     6
100
AcDbCircle
 10
2421.500000000062
 20
943.5
 30
0.0
 40
3.000000000000003
100
AcDbArc
 50
0.0
 51
90.00000000000001
  0
LINE
  5
20C
330
1F
100
AcDbEntity
  8
化粧台
  6
EXLTYPE2
 62
     6
100
AcDbLine
 10
2418.00000000006
 20
958.5
 30
0.0
 11
2418.00000000006
 21
946.5
 31
0.0
  0
ARC
  5
20D
330
1F
100
AcDbEntity
  8
化粧台
  6
EXLTYPE2
 62
     6
100
AcDbCircle
 10
2415.000000000062
 20
958.5
 30
0.0
 40
3.000000000000003
100
AcDbArc
 50
0.0
 51
90.00000000000001
  0
LINE
  5
20E
330
1F
100
AcDbEntity
  8
化粧台
  6
EXLTYPE2
 62
     6
100
AcDbLine
 10
2364.000000000062
 20
958.5
 30
0.0
 11
2364.000000000062
 21
946.5
 31
0.0
  0
LINE
  5
20F
330
1F
100
AcDbEntity
  8
化粧台
  6
EXLTYPE2
 62
     6
100
AcDbLine
 10
2367.000000000062
 20
961.5
 30
0.0
 11
2415.000000000062
 21
961.5
 31
0.0
  0
ARC
  5
210
330
1F
100
AcDbEntity
  8
化粧台
  6
EXLTYPE2
 62
     6
100
AcDbCircle
 10
2367.000000000062
 20
958.5
 30
0.0
 40
3.000000000000003
100
AcDbArc
 50
90.00000000000001
 51
180.0
  0
LINE
  5
211
330
1F
100
AcDbEntity
  8
化粧台
  6
EXLTYPE2
 62
     6
100
AcDbLine
 10
2357.50000000006
 20
943.5
 30
0.0
 11
2357.50000000006
 21
923.5
 31
0.0
  0
LINE
  5
212
330
1F
100
AcDbEntity
  8
化粧台
  6
EXLTYPE2
 62
     6
100
AcDbLine
 10
2360.50000000006
 20
946.5
 30
0.0
 11
2421.500000000062
 21
946.5
 31
0.0
  0
ARC
  5
213
330
1F
100
AcDbEntity
  8
化粧台
  6
EXLTYPE2
 62
     6
100
AcDbCircle
 10
2360.50000000006
 20
943.5
 30
0.0
 40
3.000000000000003
100
AcDbArc
 50
90.00000000000001
 51
180.0
  0
LINE
  5
214
330
1F
100
AcDbEntity
  8
化粧台
  6
CONTINUOUS
 62
     6
100
AcDbLine
 10
2368.200000000059
 20
981.5
 30
0.0
 11
2368.200000000059
 21
963.7000000000007
 31
0.0
  0
LINE
  5
215
330
1F
100
AcDbEntity
  8
化粧台
  6
CONTINUOUS
 62
     6
100
AcDbLine
 10
2413.80000000006
 20
981.5
 30
0.0
 11
2413.80000000006
 21
963.7000000000007
 31
0.0
  0
LINE
  5
216
330
1F
100
AcDbEntity
  8
化粧台
  6
CONTINUOUS
 62
     6
100
AcDbLine
 10
2421.500000000059
 20
911.5
 30
0.0
 11
2400.500000000068
 21
911.5
 31
0.0
  0
LINE
  5
217
330
1F
100
AcDbEntity
  8
化粧台
  6
CONTINUOUS
 62
     6
100
AcDbLine
 10
2400.500000000068
 20
919.5
 30
0.0
 11
2400.500000000068
 21
911.5
 31
0.0
  0
LINE
  5
218
330
1F
100
AcDbEntity
  8
化粧台
  6
CONTINUOUS
 62
     6
100
AcDbLine
 10
2421.500000000075
 20
919.5
 30
0.0
 11
2421.500000000075
 21
911.5
 31
0.0
  0
LINE
  5
219
330
1F
100
AcDbEntity
  8
化粧台
  6
EXLTYPE4
 62
     6
100
AcDbLine
 10
2400.500000000059
 20
919.5
 30
0.0
 11
2400.500000000059
 21
1069.5
 31
0.0
  0
LINE
  5
21A
330
1F
100
AcDbEntity
  8
化粧台
  6
EXLTYPE4
 62
     6
100
AcDbLine
 10
2421.500000000059
 20
919.5
 30
0.0
 11
2421.500000000059
 21
1069.5
 31
0.0
  0
LINE
  5
21B
330
1F
100
AcDbEntity
  8
化粧台
  6
EXLTYPE3
 62
     6
100
AcDbLine
 10
2411.000000000059
 20
1084.5
 30
0.0
 11
2411.000000000059
 21
896.5
 31
0.0
  0
LINE
  5
21C
330
1F
100
AcDbEntity
  8
化粧台
  6
CONTINUOUS
 62
     6
100
AcDbLine
 10
2274.577460449144
 20
1816.360110009868
 30
0.0
 11
2295.422539550975
 21
1806.639889989834
 31
0.0
  0
LINE
  5
21D
330
1F
100
AcDbEntity
  8
化粧台
  6
CONTINUOUS
 62
     6
100
AcDbLine
 10
2274.577460449137
 20
1816.360110009919
 30
0.0
 11
2277.343012176655
 21
1822.290854828603
 31
0.0
  0
LINE
  5
21E
330
1F
100
AcDbEntity
  8
化粧台
  6
CONTINUOUS
 62
     6
100
AcDbLine
 10
2295.422539550981
 20
1806.639889989881
 30
0.0
 11
2297.337682219743
 21
1810.746926696807
 31
0.0
  0
LINE
  5
21F
330
1F
100
AcDbEntity
  8
化粧台
  6
CONTINUOUS
 62
     6
100
AcDbLine
 10
2321.000000000059
 20
1881.0
 30
0.0
 11
2321.000000000059
 21
1873.0
 31
0.0
  0
LINE
  5
220
330
1F
100
AcDbEntity
  8
化粧台
  6
CONTINUOUS
 62
     6
100
AcDbLine
 10
2321.000000000059
 20
1873.0
 30
0.0
 11
2381.500000000059
 21
1873.0
 31
0.0
  0
LINE
  5
221
330
1F
100
AcDbEntity
  8
化粧台
  6
CONTINUOUS
 62
     6
100
AcDbLine
 10
2321.000000000059
 20
1881.0
 30
0.0
 11
2381.500000000059
 21
1881.0
 31
0.0
  0
ELLIPSE
  5
222
330
1F
100
AcDbEntity
  8
化粧台
  6
CONTINUOUS
 62
     6
100
AcDbEllipse
 10
2381.500000000059
 20
1779.47629794645
 30
0.0
 11
-3.181725716167551E-15
 21
-17.32050807564974
 31
0.0
210
0.0
220
0.0
230
1.0
 40
0.2961015548620202
 41
0.0
 42
3.141592653589793
  0
LINE
  5
223
330
1F
100
AcDbEntity
  8
化粧台
  6
CONTINUOUS
 62
     6
100
AcDbLine
 10
2297.337682219774
 20
1810.746926696826
 30
0.0
 11
2381.500000000059
 21
1762.155789870762
 31
0.0
  0
ELLIPSE
  5
224
330
1F
100
AcDbEntity
  8
化粧台
  6
CONTINUOUS
 62
     6
100
AcDbEllipse
 10
2287.34034719821
 20
1816.5188907627
 30
0.0
 11
9.997335021550128
 21
-5.77196406590008
 31
0.0
210
0.0
220
0.0
230
1.0
 40
0.4017250258051183
 41
0.0
 42
3.141592653594508
  0
LINE
  5
225
330
1F
100
AcDbEntity
  8
化粧台
  6
CONTINUOUS
 62
     6
100
AcDbLine
 10
2405.99999999998
 20
1844.500000000136
 30
0.0
 11
2430.500000000059
 21
1858.645081595325
 31
0.0
  0
LINE
  5
226
330
1F
100
AcDbEntity
  8
化粧台
  6
CONTINUOUS
 62
     6
100
AcDbLine
 10
2381.500000000059
 20
1842.5
 30
0.0
 11
2430.500000000059
 21
1842.5
 31
0.0
  0
LINE
  5
227
330
1F
100
AcDbEntity
  8
化粧台
  6
CONTINUOUS
 62
     6
100
AcDbLine
 10
2381.500000000059
 20
1844.5
 30
0.0
 11
2405.999999999744
 21
1844.5
 31
0.0
  0
LINE
  5
228
330
1F
100
AcDbEntity
  8
化粧台
  6
CONTINUOUS
 62
     6
100
AcDbLine
 10
2381.500000000059
 20
1842.5
 30
0.0
 11
2381.500000000059
 21
1796.796806022099
 31
0.0
  0
ARC
  5
229
330
1F
100
AcDbEntity
  8
化粧台
  6
CONTINUOUS
 62
     6
100
AcDbCircle
 10
2383.500000000059
 20
1884.5
 30
0.0
 40
2.0
100
AcDbArc
 50
90.00000000000001
 51
180.0
  0
LINE
  5
22A
330
1F
100
AcDbEntity
  8
化粧台
  6
CONTINUOUS
 62
     6
100
AcDbLine
 10
2430.500000000059
 20
1884.5
 30
0.0
 11
2430.500000000059
 21
1858.645081595325
 31
0.0
  0
LINE
  5
22B
330
1F
100
AcDbEntity
  8
化粧台
  6
CONTINUOUS
 62
     6
100
AcDbLine
 10
2383.500000000059
 20
1886.5
 30
0.0
 11
2428.500000000059
 21
1886.5
 31
0.0
  0
ARC
  5
22C
330
1F
100
AcDbEntity
  8
化粧台
  6
CONTINUOUS
 62
     6
100
AcDbCircle
 10
2428.500000000059
 20
1884.5
 30
0.0
 40
2.0
100
AcDbArc
 50
0.0
 51
90.00000000000001
  0
LINE
  5
22D
330
1F
100
AcDbEntity
  8
化粧台
  6
CONTINUOUS
 62
     6
100
AcDbLine
 10
2289.366025404101
 20
1849.990381056617
 30
0.0
 11
2381.500000000059
 21
1796.796806022137
 31
0.0
  0
ARC
  5
22E
330
1F
100
AcDbEntity
  8
化粧台
  6
CONTINUOUS
 62
     6
100
AcDbCircle
 10
2288.866025404101
 20
1849.124355652833
 30
0.0
 40
1.0
100
AcDbArc
 50
60.00000000000271
 51
150.0000000000029
  0
LINE
  5
22F
330
1F
100
AcDbEntity
  8
化粧台
  6
CONTINUOUS
 62
     6
100
AcDbLine
 10
2288.000000000317
 20
1849.624355652833
 30
0.0
 11
2274.000000000317
 21
1825.375644346868
 31
0.0
  0
LINE
  5
230
330
1F
100
AcDbEntity
  8
化粧台
  6
CONTINUOUS
 62
     6
100
AcDbLine
 10
2274.366025404103
 20
1824.009618943084
 30
0.0
 11
2277.343012176647
 21
1822.290854828581
 31
0.0
  0
ARC
  5
231
330
1F
100
AcDbEntity
  8
化粧台
  6
CONTINUOUS
 62
     6
100
AcDbCircle
 10
2274.866025404103
 20
1824.875644346868
 30
0.0
 40
1.0
100
AcDbArc
 50
150.0000000000029
 51
240.0000000000029
  0
ARC
  5
232
330
1F
100
AcDbEntity
  8
化粧台
  6
CONTINUOUS
 62
     6
100
AcDbCircle
 10
2406.000000000359
 20
1842.5
 30
0.0
 40
21.50470878668207
100
AcDbArc
 50
0.0
 51
34.61977017493128
  0
LINE
  5
233
330
1F
100
AcDbEntity
  8
化粧台
  6
CONTINUOUS
 62
     6
100
AcDbLine
 10
2381.500000000059
 20
1884.5
 30
0.0
 11
2381.500000000059
 21
1881.0
 31
0.0
  0
LINE
  5
234
330
1F
100
AcDbEntity
  8
化粧台
  6
CONTINUOUS
 62
     6
100
AcDbLine
 10
2381.500000000059
 20
1873.0
 30
0.0
 11
2381.500000000059
 21
1844.5
 31
0.0
  0
ELLIPSE
  5
235
330
1F
100
AcDbEntity
  8
化粧台
  6
CONTINUOUS
 62
     6
100
AcDbEllipse
 10
2381.500000000059
 20
1877.0
 30
0.0
 11
-1.531427479570780E-15
 21
4.0
 31
0.0
210
0.0
220
0.0
230
1.0
 40
0.1525819451966582
 41
3.141592653589784
 42
6.283185307179586
  0
LINE
  5
236
330
1F
100
AcDbEntity
  8
化粧台
  6
CONTINUOUS
 62
     6
100
AcDbLine
 10
2357.782032303072
 20
1810.490381056621
 30
0.0
 11
2342.782032303074
 21
1784.509618943088
 31
0.0
  0
LINE
  5
237
330
1F
100
AcDbEntity
  8
化粧台
  6
CONTINUOUS
 62
     6
100
AcDbLine
 10
2381.500000000059
 20
1762.1557898708
 30
0.0
 11
2381.500000000059
 21
1758.499999999949
 31
0.0
  0
LINE
  5
238
330
1F
100
AcDbEntity
  8
化粧台
  6
CONTINUOUS
 62
     6
100
AcDbLine
 10
2430.500000000059
 20
1842.5
 30
0.0
 11
2430.500000000059
 21
1758.499999999949
 31
0.0
  0
LINE
  5
239
330
1F
100
AcDbEntity
  8
化粧台
  6
CONTINUOUS
 62
     6
100
AcDbLine
 10
2491.000000000059
 20
1333.499999999998
 30
0.0
 11
2541.000000000059
 21
1333.499999999998
 31
0.0
  0
LINE
  5
23A
330
1F
100
AcDbEntity
  8
化粧台
  6
CONTINUOUS
 62
     6
100
AcDbLine
 10
2491.000000000059
 20
1365.499999999998
 30
0.0
 11
2541.000000000059
 21
1365.499999999998
 31
0.0
  0
LINE
  5
23B
330
1F
100
AcDbEntity
  8
化粧台
  6
CONTINUOUS
 62
     6
100
AcDbLine
 10
2541.000000000059
 20
1365.499999999998
 30
0.0
 11
2541.000000000059
 21
1333.499999999998
 31
0.0
  0
LINE
  5
23C
330
1F
100
AcDbEntity
  8
化粧台
  6
EXLTYPE3
 62
     6
100
AcDbLine
 10
2461.000000000059
 20
1349.499999999998
 30
0.0
 11
2556.000000000059
 21
1349.499999999998
 31
0.0
  0
LINE
  5
23D
330
1F
100
AcDbEntity
  8
化粧台
  6
CONTINUOUS
 62
     6
100
AcDbLine
 10
2499.000000000059
 20
1338.999999999996
 30
0.0
 11
2499.000000000059
 21
1359.999999999985
 31
0.0
  0
LINE
  5
23E
330
1F
100
AcDbEntity
  8
化粧台
  6
CONTINUOUS
 62
     6
100
AcDbLine
 10
2491.000000000059
 20
1359.999999999985
 30
0.0
 11
2499.000000000059
 21
1359.999999999985
 31
0.0
  0
LINE
  5
23F
330
1F
100
AcDbEntity
  8
化粧台
  6
CONTINUOUS
 62
     6
100
AcDbLine
 10
2491.000000000059
 20
1338.999999999978
 30
0.0
 11
2499.000000000059
 21
1338.999999999978
 31
0.0
  0
LINE
  5
240
330
1F
100
AcDbEntity
  8
化粧台
  6
CONTINUOUS
 62
     2
100
AcDbLine
 10
2407.000000000057
 20
919.4999999999
 30
0.0
 11
2407.000000000057
 21
869.49999999988
 31
0.0
  0
LINE
  5
241
330
1F
100
AcDbEntity
  8
化粧台
  6
CONTINUOUS
 62
     2
100
AcDbLine
 10
2407.000000000057
 20
869.49999999988
 30
0.0
 11
2375.000000000057
 21
869.49999999988
 31
0.0
  0
LINE
  5
242
330
1F
100
AcDbEntity
  8
化粧台
  6
CONTINUOUS
 62
     2
100
AcDbLine
 10
2375.000000000057
 20
919.4999999999
 30
0.0
 11
2375.000000000057
 21
869.49999999988
 31
0.0
  0
LINE
  5
243
330
1F
100
AcDbEntity
  8
化粧台
  6
EXLTYPE3
 62
     6
100
AcDbLine
 10
961.0000000000587
 20
1906.5
 30
0.0
 11
961.0000000000587
 21
1311.0
 31
0.0
  0
LINE
  5
244
330
1F
100
AcDbEntity
  8
化粧台
  6
EXLTYPE3
 62
     6
100
AcDbLine
 10
961.0000000000587
 20
1194.0
 30
0.0
 11
961.0000000000587
 21
899.5
 31
0.0
  0
LINE
  5
245
330
1F
100
AcDbEntity
  8
化粧台
  6
CONTINUOUS
 62
     2
100
AcDbLine
 10
1319.000000000055
 20
919.5
 30
0.0
 11
1319.000000000055
 21
1009.5
 31
0.0
  0
LINE
  5
246
330
1F
100
AcDbEntity
  8
化粧台
  6
CONTINUOUS
 62
     2
100
AcDbLine
 10
1336.000000000055
 20
1618.5
 30
0.0
 11
1336.000000000055
 21
1599.5
 31
0.0
  0
LINE
  5
247
330
1F
100
AcDbEntity
  8
化粧台
  6
CONTINUOUS
 62
     2
100
AcDbLine
 10
1334.000000000055
 20
919.5
 30
0.0
 11
1334.000000000055
 21
1599.5
 31
0.0
  0
LINE
  5
248
330
1F
100
AcDbEntity
  8
化粧台
  6
CONTINUOUS
 62
     6
100
AcDbLine
 10
1331.000000000057
 20
1594.5
 30
0.0
 11
1331.000000000057
 21
1562.5
 31
0.0
  0
LINE
  5
249
330
1F
100
AcDbEntity
  8
化粧台
  6
CONTINUOUS
 62
     2
100
AcDbLine
 10
1331.000000000055
 20
1562.5
 30
0.0
 11
1331.000000000055
 21
1419.5
 31
0.0
  0
LINE
  5
24A
330
1F
100
AcDbEntity
  8
化粧台
  6
CONTINUOUS
 62
     6
100
AcDbLine
 10
1331.000000000057
 20
1415.5
 30
0.0
 11
1331.000000000057
 21
1383.5
 31
0.0
  0
LINE
  5
24B
330
1F
100
AcDbEntity
  8
化粧台
  6
CONTINUOUS
 62
     2
100
AcDbLine
 10
1331.000000000055
 20
1383.5
 30
0.0
 11
1331.000000000055
 21
1009.5
 31
0.0
  0
LINE
  5
24C
330
1F
100
AcDbEntity
  8
化粧台
  6
CONTINUOUS
 62
     2
100
AcDbLine
 10
1304.000000000055
 20
919.5
 30
0.0
 11
1304.000000000055
 21
1009.5
 31
0.0
  0
LINE
  5
24D
330
1F
100
AcDbEntity
  8
化粧台
  6
CONTINUOUS
 62
     6
100
AcDbLine
 10
1206.000000000035
 20
1499.500000000038
 30
0.0
 11
1226.000000000035
 21
1499.500000000038
 31
0.0
  0
LINE
  5
24E
330
1F
100
AcDbEntity
  8
化粧台
  6
CONTINUOUS
 62
     6
100
AcDbLine
 10
1216.000000000035
 20
1489.5
 30
0.0
 11
1216.000000000035
 21
1509.50000000004
 31
0.0
  0
CIRCLE
  5
24F
330
1F
100
AcDbEntity
  8
化粧台
  6
CONTINUOUS
 62
     6
100
AcDbCircle
 10
1215.999999997456
 20
1499.500000000098
 30
0.0
 40
3.800000000000001
  0
LINE
  5
250
330
1F
100
AcDbEntity
  8
化粧台
  6
CONTINUOUS
 62
     2
100
AcDbLine
 10
603.0000000000587
 20
919.5
 30
0.0
 11
603.0000000000587
 21
1009.5
 31
0.0
  0
LINE
  5
251
330
1F
100
AcDbEntity
  8
化粧台
  6
CONTINUOUS
 62
     2
100
AcDbLine
 10
586.0000000000587
 20
1618.5
 30
0.0
 11
586.0000000000587
 21
1599.5
 31
0.0
  0
LINE
  5
252
330
1F
100
AcDbEntity
  8
化粧台
  6
CONTINUOUS
 62
     2
100
AcDbLine
 10
588.0000000000587
 20
919.5
 30
0.0
 11
588.0000000000587
 21
1599.5
 31
0.0
  0
LINE
  5
253
330
1F
100
AcDbEntity
  8
化粧台
  6
CONTINUOUS
 62
     6
100
AcDbLine
 10
591.0000000000605
 20
1594.5
 30
0.0
 11
591.0000000000605
 21
1562.5
 31
0.0
  0
LINE
  5
254
330
1F
100
AcDbEntity
  8
化粧台
  6
CONTINUOUS
 62
     2
100
AcDbLine
 10
591.0000000000587
 20
1562.5
 30
0.0
 11
591.0000000000587
 21
1419.5
 31
0.0
  0
LINE
  5
255
330
1F
100
AcDbEntity
  8
化粧台
  6
CONTINUOUS
 62
     6
100
AcDbLine
 10
591.0000000000605
 20
1415.5
 30
0.0
 11
591.0000000000605
 21
1383.5
 31
0.0
  0
LINE
  5
256
330
1F
100
AcDbEntity
  8
化粧台
  6
CONTINUOUS
 62
     2
100
AcDbLine
 10
591.0000000000587
 20
1383.5
 30
0.0
 11
591.0000000000587
 21
1009.5
 31
0.0
  0
LINE
  5
257
330
1F
100
AcDbEntity
  8
化粧台
  6
CONTINUOUS
 62
     2
100
AcDbLine
 10
618.0000000000587
 20
919.5
 30
0.0
 11
618.0000000000587
 21
1009.5
 31
0.0
  0
LINE
  5
258
330
1F
100
AcDbEntity
  8
化粧台
  6
CONTINUOUS
 62
     6
100
AcDbLine
 10
696.0000000000368
 20
1499.500000000038
 30
0.0
 11
716.0000000000368
 21
1499.500000000038
 31
0.0
  0
LINE
  5
259
330
1F
100
AcDbEntity
  8
化粧台
  6
CONTINUOUS
 62
     6
100
AcDbLine
 10
706.0000000000368
 20
1489.5
 30
0.0
 11
706.0000000000368
 21
1509.50000000004
 31
0.0
  0
CIRCLE
  5
25A
330
1F
100
AcDbEntity
  8
化粧台
  6
CONTINUOUS
 62
     6
100
AcDbCircle
 10
705.9999999974575
 20
1499.500000000098
 30
0.0
 40
3.800000000000001
  0
LINE
  5
25B
330
1F
100
AcDbEntity
  8
化粧台
  6
CONTINUOUS
 62
     2
100
AcDbLine
 10
1336.000000000055
 20
1599.5
 30
0.0
 11
586.0000000000587
 21
1599.5
 31
0.0
  0
LINE
  5
25C
330
1F
100
AcDbEntity
  8
化粧台
  6
CONTINUOUS
 62
     2
100
AcDbLine
 10
1336.000000000055
 20
1618.5
 30
0.0
 11
586.0000000000587
 21
1618.5
 31
0.0
  0
LINE
  5
25D
330
1F
100
AcDbEntity
  8
化粧台
  6
CONTINUOUS
 62
     2
100
AcDbLine
 10
588.0000000000587
 20
919.5
 30
0.0
 11
1334.000000000055
 21
919.5
 31
0.0
  0
LINE
  5
25E
330
1F
100
AcDbEntity
  8
化粧台
  6
CONTINUOUS
 62
     6
100
AcDbLine
 10
1331.000000000057
 20
1584.5
 30
0.0
 11
591.0000000000605
 21
1584.5
 31
0.0
  0
LINE
  5
25F
330
1F
100
AcDbEntity
  8
化粧台
  6
CONTINUOUS
 62
     6
100
AcDbLine
 10
1331.000000000057
 20
1594.5
 30
0.0
 11
591.0000000000605
 21
1594.5
 31
0.0
  0
LINE
  5
260
330
1F
100
AcDbEntity
  8
化粧台
  6
CONTINUOUS
 62
     2
100
AcDbLine
 10
1331.000000000055
 20
1009.5
 30
0.0
 11
591.0000000000587
 21
1009.5
 31
0.0
  0
LINE
  5
261
330
1F
100
AcDbEntity
  8
化粧台
  6
CONTINUOUS
 62
     6
100
AcDbLine
 10
1331.000000000057
 20
1566.542313695401
 30
0.0
 11
591.0000000000605
 21
1566.542313695401
 31
0.0
  0
LINE
  5
262
330
1F
100
AcDbEntity
  8
化粧台
  6
CONTINUOUS
 62
     6
100
AcDbLine
 10
1331.000000000057
 20
1562.5
 30
0.0
 11
591.0000000000605
 21
1562.5
 31
0.0
  0
LINE
  5
263
330
1F
100
AcDbEntity
  8
化粧台
  6
CONTINUOUS
 62
     6
100
AcDbLine
 10
1331.000000000057
 20
1405.5
 30
0.0
 11
591.0000000000605
 21
1405.5
 31
0.0
  0
LINE
  5
264
330
1F
100
AcDbEntity
  8
化粧台
  6
CONTINUOUS
 62
     6
100
AcDbLine
 10
1331.000000000057
 20
1415.5
 30
0.0
 11
591.0000000000605
 21
1415.5
 31
0.0
  0
LINE
  5
265
330
1F
100
AcDbEntity
  8
化粧台
  6
CONTINUOUS
 62
     2
100
AcDbLine
 10
1331.000000000055
 20
1419.5
 30
0.0
 11
591.0000000000587
 21
1419.5
 31
0.0
  0
LINE
  5
266
330
1F
100
AcDbEntity
  8
化粧台
  6
CONTINUOUS
 62
     6
100
AcDbLine
 10
1331.000000000057
 20
1387.5423136954
 30
0.0
 11
591.0000000000605
 21
1387.5423136954
 31
0.0
  0
LINE
  5
267
330
1F
100
AcDbEntity
  8
化粧台
  6
CONTINUOUS
 62
     6
100
AcDbLine
 10
1331.000000000057
 20
1383.5
 30
0.0
 11
591.0000000000605
 21
1383.5
 31
0.0
  0
LINE
  5
268
330
1F
100
AcDbEntity
  8
化粧台
  6
CONTINUOUS
 62
     7
100
AcDbLine
 10
1891.000000000057
 20
919.5
 30
0.0
 11
2491.000000000059
 21
919.5
 31
0.0
  0
TEXT
  5
269
330
1F
100
AcDbEntity
  8
化粧台
  6
CONTINUOUS
 62
     2
100
AcDbText
 10
427.9000000000142
 20
926.6999999999998
 30
0.0
 40
59.99999618530273
  1
Ｆ.Ｌ.
 41
0.9086538461538461
  7
EXCADSTD
 72
     5
 11
562.8999914169453
 21
926.6999999999998
 31
0.0
100
AcDbText
  0
TEXT
  5
26A
330
1F
100
AcDbEntity
  8
化粧台
  6
CONTINUOUS
 62
     2
100
AcDbText
 10
1882.900000000014
 20
926.6999999999998
 30
0.0
 40
59.99999618530273
  1
Ｆ.Ｌ.
 41
0.9086538461538461
  7
EXCADSTD
 72
     5
 11
2017.899991416945
 21
926.6999999999998
 31
0.0
100
AcDbText
  0
LINE
  5
26B
330
1F
100
AcDbEntity
  8
化粧台
  6
CONTINUOUS
 62
     6
100
AcDbLine
 10
924.1000000000613
 20
3590.0
 30
0.0
 11
997.9000000000601
 21
3590.0
 31
0.0
  0
ARC
  5
26C
330
1F
100
AcDbEntity
  8
化粧台
  6
CONTINUOUS
 62
     6
100
AcDbCircle
 10
292.0624573311043
 20
4025.946075093718
 30
0.0
 40
800.0000000000006
100
AcDbArc
 50
301.6289008635034
 51
317.9381374214719
  0
ARC
  5
26D
330
1F
100
AcDbEntity
  8
化粧台
  6
CONTINUOUS
 62
     6
100
AcDbCircle
 10
1629.937542669014
 20
4025.946075093718
 30
0.0
 40
800.0000000000006
100
AcDbArc
 50
222.0618625785282
 51
238.3710991364966
  0
LINE
  5
26E
330
1F
100
AcDbEntity
  8
化粧台
  6
CONTINUOUS
 62
     6
100
AcDbLine
 10
886.0000000000609
 20
3636.0
 30
0.0
 11
886.0000000000609
 21
3490.0
 31
0.0
  0
LINE
  5
26F
330
1F
100
AcDbEntity
  8
化粧台
  6
CONTINUOUS
 62
     6
100
AcDbLine
 10
886.0000000000609
 20
3490.0
 30
0.0
 11
1036.00000000006
 21
3490.0
 31
0.0
  0
LINE
  5
270
330
1F
100
AcDbEntity
  8
化粧台
  6
CONTINUOUS
 62
     6
100
AcDbLine
 10
1036.00000000006
 20
3636.0
 30
0.0
 11
1036.00000000006
 21
3490.0
 31
0.0
  0
LINE
  5
271
330
1F
100
AcDbEntity
  8
化粧台
  6
CONTINUOUS
 62
     6
100
AcDbLine
 10
1036.00000000006
 20
3636.0
 30
0.0
 11
1204.500000000059
 21
3675.0
 31
0.0
  0
LINE
  5
272
330
1F
100
AcDbEntity
  8
化粧台
  6
CONTINUOUS
 62
     6
100
AcDbLine
 10
886.0000000000609
 20
3636.0
 30
0.0
 11
717.5000000000609
 21
3675.0
 31
0.0
  0
ARC
  5
273
330
1F
100
AcDbEntity
  8
化粧台
  6
CONTINUOUS
 62
     2
100
AcDbCircle
 10
696.0000000000609
 20
3335.0
 30
0.0
 40
10.0
100
AcDbArc
 50
180.0
 51
270.0000000000002
  0
ARC
  5
274
330
1F
100
AcDbEntity
  8
化粧台
  6
CONTINUOUS
 62
     2
100
AcDbCircle
 10
1226.000000000059
 20
3335.0
 30
0.0
 40
10.0
100
AcDbArc
 50
270.0000000000002
 51
0.0
  0
LINE
  5
275
330
1F
100
AcDbEntity
  8
化粧台
  6
CONTINUOUS
 62
     2
100
AcDbLine
 10
686.0000000000609
 20
3825.0
 30
0.0
 11
1236.000000000059
 21
3825.0
 31
0.0
  0
LINE
  5
276
330
1F
100
AcDbEntity
  8
化粧台
  6
CONTINUOUS
 62
     2
100
AcDbLine
 10
1236.000000000059
 20
3825.0
 30
0.0
 11
1236.000000000059
 21
3335.0
 31
0.0
  0
LINE
  5
277
330
1F
100
AcDbEntity
  8
化粧台
  6
CONTINUOUS
 62
     2
100
AcDbLine
 10
696.0000000000609
 20
3325.0
 30
0.0
 11
1226.000000000059
 21
3325.0
 31
0.0
  0
LINE
  5
278
330
1F
100
AcDbEntity
  8
化粧台
  6
CONTINUOUS
 62
     2
100
AcDbLine
 10
686.0000000000609
 20
3825.0
 30
0.0
 11
686.0000000000609
 21
3335.0
 31
0.0
  0
LINE
  5
279
330
1F
100
AcDbEntity
  8
化粧台
  6
CONTINUOUS
 62
     2
100
AcDbLine
 10
717.0000000000609
 20
3336.0
 30
0.0
 11
1205.000000000059
 21
3336.0
 31
0.0
  0
ARC
  5
27A
330
1F
100
AcDbEntity
  8
化粧台
  6
CONTINUOUS
 62
     2
100
AcDbCircle
 10
717.0000000000609
 20
3356.0
 30
0.0
 40
20.0
100
AcDbArc
 50
180.0
 51
270.0000000000002
  0
ARC
  5
27B
330
1F
100
AcDbEntity
  8
化粧台
  6
CONTINUOUS
 62
     2
100
AcDbCircle
 10
1205.000000000059
 20
3356.0
 30
0.0
 40
20.0
100
AcDbArc
 50
270.0000000000002
 51
0.0
  0
ARC
  5
27C
330
1F
100
AcDbEntity
  8
化粧台
  6
CONTINUOUS
 62
     2
100
AcDbCircle
 10
707.0000000000609
 20
3800.0
 30
0.0
 40
10.0
100
AcDbArc
 50
90.00000000000001
 51
180.0
  0
ARC
  5
27D
330
1F
100
AcDbEntity
  8
化粧台
  6
CONTINUOUS
 62
     2
100
AcDbCircle
 10
1215.000000000059
 20
3800.0
 30
0.0
 40
10.0
100
AcDbArc
 50
0.0
 51
90.00000000000001
  0
LINE
  5
27E
330
1F
100
AcDbEntity
  8
化粧台
  6
CONTINUOUS
 62
     2
100
AcDbLine
 10
697.0000000000609
 20
3800.0
 30
0.0
 11
697.0000000000609
 21
3356.0
 31
0.0
  0
LINE
  5
27F
330
1F
100
AcDbEntity
  8
化粧台
  6
CONTINUOUS
 62
     2
100
AcDbLine
 10
707.0000000000609
 20
3810.0
 30
0.0
 11
1215.000000000059
 21
3810.0
 31
0.0
  0
LINE
  5
280
330
1F
100
AcDbEntity
  8
化粧台
  6
CONTINUOUS
 62
     2
100
AcDbLine
 10
1225.000000000059
 20
3800.0
 30
0.0
 11
1225.000000000059
 21
3356.0
 31
0.0
  0
LINE
  5
281
330
1F
100
AcDbEntity
  8
化粧台
  6
CONTINUOUS
 62
     2
100
AcDbLine
 10
717.5000000000609
 20
3675.0
 30
0.0
 11
712.4012519610087
 21
3800.661772545198
 31
0.0
  0
LINE
  5
282
330
1F
100
AcDbEntity
  8
化粧台
  6
CONTINUOUS
 62
     2
100
AcDbLine
 10
1204.500000000059
 20
3675.0
 30
0.0
 11
1209.598748039111
 21
3800.661772545198
 31
0.0
  0
CIRCLE
  5
283
330
1F
100
AcDbEntity
  8
化粧台
  6
CONTINUOUS
 62
     6
100
AcDbCircle
 10
891.0000000000609
 20
3730.0
 30
0.0
 40
8.50000000060004
  0
CIRCLE
  5
284
330
1F
100
AcDbEntity
  8
化粧台
  6
CONTINUOUS
 62
     6
100
AcDbCircle
 10
891.0000000000609
 20
3730.0
 30
0.0
 40
12.5
  0
LINE
  5
285
330
1F
100
AcDbEntity
  8
化粧台
  6
CONTINUOUS
 62
     6
100
AcDbLine
 10
886.0000000000609
 20
3636.0
 30
0.0
 11
940.9158947460755
 21
3636.0
 31
0.0
  0
LINE
  5
286
330
1F
100
AcDbEntity
  8
化粧台
  6
CONTINUOUS
 62
     6
100
AcDbLine
 10
981.0841052540568
 20
3636.0
 30
0.0
 11
1036.00000000006
 21
3636.0
 31
0.0
  0
LINE
  5
287
330
1F
100
AcDbEntity
  8
化粧台
  6
CONTINUOUS
 62
     2
100
AcDbLine
 10
717.5000000000591
 20
3675.0
 30
0.0
 11
946.0000000000587
 21
3675.0
 31
0.0
  0
LINE
  5
288
330
1F
100
AcDbEntity
  8
化粧台
  6
CONTINUOUS
 62
     2
100
AcDbLine
 10
976.0000000000587
 20
3675.0
 30
0.0
 11
1204.500000000059
 21
3675.0
 31
0.0
  0
ARC
  5
289
330
1F
100
AcDbEntity
  8
化粧台
  6
CONTINUOUS
 62
     2
100
AcDbCircle
 10
961.0000000000587
 20
3590.0
 30
0.0
 40
26.90000000000001
100
AcDbArc
 50
122.1685825196854
 51
57.83141748031862
  0
ARC
  5
28A
330
1F
100
AcDbEntity
  8
化粧台
  6
CONTINUOUS
 62
     2
100
AcDbCircle
 10
961.0000000000587
 20
3590.0
 30
0.0
 40
19.20000000000001
100
AcDbArc
 50
108.8435915236058
 51
71.15640847639469
  0
LINE
  5
28B
330
1F
100
AcDbEntity
  8
化粧台
  6
CONTINUOUS
 62
     6
100
AcDbLine
 10
921.5000000000591
 20
3740.0
 30
0.0
 11
1000.500000000059
 21
3740.0
 31
0.0
  0
LINE
  5
28C
330
1F
100
AcDbEntity
  8
化粧台
  6
EXLTYPE3
 62
     6
100
AcDbLine
 10
961.0000000000605
 20
3845.0
 30
0.0
 11
961.0000000000605
 21
3305.0
 31
0.0
  0
CIRCLE
  5
28D
330
1F
100
AcDbEntity
  8
化粧台
  6
CONTINUOUS
 62
     6
100
AcDbCircle
 10
961.0000000000587
 20
3740.0
 30
0.0
 40
24.50000000000002
  0
LINE
  5
28E
330
1F
100
AcDbEntity
  8
化粧台
  6
CONTINUOUS
 62
     6
100
AcDbLine
 10
957.0000000000587
 20
3654.999999999989
 30
0.0
 11
965.0000000000587
 21
3654.999999999989
 31
0.0
  0
LINE
  5
28F
330
1F
100
AcDbEntity
  8
化粧台
  6
CONTINUOUS
 62
     6
100
AcDbLine
 10
957.0000000000587
 20
3715.828736069456
 30
0.0
 11
957.0000000000587
 21
3654.999999999989
 31
0.0
  0
LINE
  5
290
330
1F
100
AcDbEntity
  8
化粧台
  6
CONTINUOUS
 62
     6
100
AcDbLine
 10
965.0000000000587
 20
3715.828736069456
 30
0.0
 11
965.0000000000587
 21
3654.999999999989
 31
0.0
  0
ELLIPSE
  5
291
330
1F
100
AcDbEntity
  8
化粧台
  6
CONTINUOUS
 62
     6
100
AcDbEllipse
 10
961.0000000000587
 20
3615.0
 30
0.0
 11
15.00000000000001
 21
0.0
 31
0.0
210
0.0
220
0.0
230
1.0
 40
0.4999999999999999
 41
0.0
 42
6.283185307179586
  0
LINE
  5
292
330
1F
100
AcDbEntity
  8
化粧台
  6
CONTINUOUS
 62
     6
100
AcDbLine
 10
946.0000000000587
 20
3720.62862937219
 30
0.0
 11
946.0000000000587
 21
3615.0
 31
0.0
  0
LINE
  5
293
330
1F
100
AcDbEntity
  8
化粧台
  6
CONTINUOUS
 62
     6
100
AcDbLine
 10
976.0000000000587
 20
3720.62862937219
 30
0.0
 11
976.0000000000587
 21
3615.0
 31
0.0
  0
ELLIPSE
  5
294
330
1F
100
AcDbEntity
  8
化粧台
  6
CONTINUOUS
 62
     6
100
AcDbEllipse
 10
961.0000000000587
 20
3684.282032302999
 30
0.0
 11
15.00000000000001
 21
0.0
 31
0.0
210
0.0
220
0.0
230
1.0
 40
0.5000000000000004
 41
0.0
 42
1.300863530961499
  0
ELLIPSE
  5
295
330
1F
100
AcDbEntity
  8
化粧台
  6
CONTINUOUS
 62
     6
100
AcDbEllipse
 10
961.0000000000587
 20
3684.282032302999
 30
0.0
 11
15.00000000000001
 21
0.0
 31
0.0
210
0.0
220
0.0
230
1.0
 40
0.5000000000000004
 41
1.840729122628308
 42
3.141592653589793
  0
LINE
  5
296
330
1F
100
AcDbEntity
  8
化粧台
  6
CONTINUOUS
 62
     6
100
AcDbLine
 10
850.5000000000591
 20
3833.0
 30
0.0
 11
871.50000000005
 21
3833.0
 31
0.0
  0
LINE
  5
297
330
1F
100
AcDbEntity
  8
化粧台
  6
CONTINUOUS
 62
     6
100
AcDbLine
 10
871.50000000005
 20
3825.0
 30
0.0
 11
871.50000000005
 21
3833.0
 31
0.0
  0
LINE
  5
298
330
1F
100
AcDbEntity
  8
化粧台
  6
CONTINUOUS
 62
     6
100
AcDbLine
 10
850.5000000000427
 20
3825.0
 30
0.0
 11
850.5000000000427
 21
3833.0
 31
0.0
  0
LINE
  5
299
330
1F
100
AcDbEntity
  8
化粧台
  6
EXLTYPE3
 62
     6
100
AcDbLine
 10
861.0000000000591
 20
3795.0
 30
0.0
 11
861.0000000000591
 21
3848.0
 31
0.0
  0
LINE
  5
29A
330
1F
100
AcDbEntity
  8
化粧台
  6
CONTINUOUS
 62
     6
100
AcDbLine
 10
1071.500000000064
 20
3833.0
 30
0.0
 11
1050.500000000073
 21
3833.0
 31
0.0
  0
LINE
  5
29B
330
1F
100
AcDbEntity
  8
化粧台
  6
CONTINUOUS
 62
     6
100
AcDbLine
 10
1050.500000000073
 20
3825.0
 30
0.0
 11
1050.500000000073
 21
3833.0
 31
0.0
  0
LINE
  5
29C
330
1F
100
AcDbEntity
  8
化粧台
  6
CONTINUOUS
 62
     6
100
AcDbLine
 10
1071.50000000008
 20
3825.0
 30
0.0
 11
1071.50000000008
 21
3833.0
 31
0.0
  0
LINE
  5
29D
330
1F
100
AcDbEntity
  8
化粧台
  6
EXLTYPE3
 62
     6
100
AcDbLine
 10
1061.000000000064
 20
3795.0
 30
0.0
 11
1061.000000000064
 21
3848.0
 31
0.0
  0
LINE
  5
29E
330
1F
100
AcDbEntity
  8
化粧台
  6
CONTINUOUS
 62
     6
100
AcDbLine
 10
1177.000000000059
 20
3825.0
 30
0.0
 11
1177.000000000059
 21
3875.0
 31
0.0
  0
LINE
  5
29F
330
1F
100
AcDbEntity
  8
化粧台
  6
CONTINUOUS
 62
     6
100
AcDbLine
 10
1145.000000000059
 20
3825.0
 30
0.0
 11
1145.000000000059
 21
3875.0
 31
0.0
  0
LINE
  5
2A0
330
1F
100
AcDbEntity
  8
化粧台
  6
CONTINUOUS
 62
     6
100
AcDbLine
 10
1145.000000000059
 20
3875.0
 30
0.0
 11
1177.000000000059
 21
3875.0
 31
0.0
  0
LINE
  5
2A1
330
1F
100
AcDbEntity
  8
化粧台
  6
EXLTYPE3
 62
     6
100
AcDbLine
 10
1161.000000000059
 20
3795.0
 30
0.0
 11
1161.000000000059
 21
3890.0
 31
0.0
  0
LINE
  5
2A2
330
1F
100
AcDbEntity
  8
化粧台
  6
CONTINUOUS
 62
     2
100
AcDbLine
 10
1336.000000000055
 20
3825.0
 30
0.0
 11
1336.000000000055
 21
3375.0
 31
0.0
  0
LINE
  5
2A3
330
1F
100
AcDbEntity
  8
化粧台
  6
CONTINUOUS
 62
     2
100
AcDbLine
 10
1236.000000000059
 20
3375.0
 30
0.0
 11
1336.000000000055
 21
3375.0
 31
0.0
  0
LINE
  5
2A4
330
1F
100
AcDbEntity
  8
化粧台
  6
CONTINUOUS
 62
     6
100
AcDbLine
 10
1216.000000000099
 20
3857.500005722002
 30
0.0
 11
1218.000000000097
 21
3825.000005722002
 31
0.0
  0
LINE
  5
2A5
330
1F
100
AcDbEntity
  8
化粧台
  6
CONTINUOUS
 62
     6
100
AcDbLine
 10
1214.000000000097
 20
3825.000005722002
 30
0.0
 11
1216.000000000099
 21
3857.500005722002
 31
0.0
  0
LINE
  5
2A6
330
1F
100
AcDbEntity
  8
化粧台
  6
CONTINUOUS
 62
     6
100
AcDbLine
 10
1216.000000000104
 20
3820.0
 30
0.0
 11
1216.000000000104
 21
3862.5000057219
 31
0.0
  0
LINE
  5
2A7
330
1F
100
AcDbEntity
  8
化粧台
  6
CONTINUOUS
 62
     2
100
AcDbLine
 10
586.0000000000609
 20
3825.0
 30
0.0
 11
586.0000000000609
 21
3375.0
 31
0.0
  0
LINE
  5
2A8
330
1F
100
AcDbEntity
  8
化粧台
  6
CONTINUOUS
 62
     2
100
AcDbLine
 10
586.0000000000591
 20
3375.0
 30
0.0
 11
686.0000000000609
 21
3375.0
 31
0.0
  0
LINE
  5
2A9
330
1F
100
AcDbEntity
  8
化粧台
  6
CONTINUOUS
 62
     6
100
AcDbLine
 10
706.00000000003
 20
3857.500005722002
 30
0.0
 11
708.0000000000282
 21
3825.000005722002
 31
0.0
  0
LINE
  5
2AA
330
1F
100
AcDbEntity
  8
化粧台
  6
CONTINUOUS
 62
     6
100
AcDbLine
 10
704.00000000003
 20
3825.000005722002
 30
0.0
 11
706.00000000003
 21
3857.500005722002
 31
0.0
  0
LINE
  5
2AB
330
1F
100
AcDbEntity
  8
化粧台
  6
CONTINUOUS
 62
     6
100
AcDbLine
 10
706.0000000000373
 20
3820.0
 30
0.0
 11
706.0000000000373
 21
3862.5000057219
 31
0.0
  0
LINE
  5
2AC
330
1F
100
AcDbEntity
  8
化粧台
  6
CONTINUOUS
 62
     2
100
AcDbLine
 10
586.0000000000609
 20
3825.0
 30
0.0
 11
1336.000000000055
 21
3825.0
 31
0.0
  0
LINE
  5
2AD
330
1F
100
AcDbEntity
  8
化粧台
  6
CONTINUOUS
 62
     7
100
AcDbLine
 10
436.0000000000609
 20
3825.0
 30
0.0
 11
1591.000000000057
 21
3825.0
 31
0.0
  0
TEXT
  5
2AE
330
1F
100
AcDbEntity
  8
化粧台
  6
CONTINUOUS
 62
     2
100
AcDbText
 10
434.700000000274
 20
3758.000003814647
 30
0.0
 40
59.99999618530273
  1
Ｗ.Ｌ.
 41
0.9086538461538461
  7
EXCADSTD
 72
     5
 11
569.6999914172052
 21
3758.000003814647
 31
0.0
100
AcDbText
  0
LINE
  5
2AF
330
1F
100
AcDbEntity
  8
化粧台
  6
CONTINUOUS
 62
     7
100
AcDbLine
 10
2491.000000000059
 20
919.5
 30
0.0
 11
2491.00000000006
 21
2926.35
 31
0.0
  0
TEXT
  5
2B0
330
1F
100
AcDbEntity
  8
化粧台
  6
CONTINUOUS
 62
     2
100
AcDbText
 10
2481.499999999996
 20
2799.5
 30
0.0
 40
59.99999618530273
  1
Ｗ.Ｌ.
 50
90.0
 41
0.9086538461538461
  7
EXCADSTD
 72
     5
 11
2481.499999999996
 21
2934.499991416932
 31
0.0
100
AcDbText
  0
LINE
  5
2B1
330
1F
100
AcDbEntity
  8
化粧台
  6
CONTINUOUS
 62
     7
100
AcDbLine
 10
436.0000000000587
 20
919.5
 30
0.0
 11
1665.0
 21
919.5
 31
0.0
  0
LINE
  5
2B2
330
1F
100
AcDbEntity
  8
鏡台
  6
EXLTYPE3
 62
     6
100
AcDbLine
 10
961.0000000001023
 20
2717.700000000005
 30
0.0
 11
961.0000000001023
 21
2086.200000000005
 31
0.0
  0
LINE
  5
2B3
330
1F
100
AcDbEntity
  8
鏡台
  6
CONTINUOUS
 62
     2
100
AcDbLine
 10
661.0000000001046
 20
2669.500000000045
 30
0.0
 11
661.0000000001046
 21
2149.500000000045
 31
0.0
  0
LINE
  5
2B4
330
1F
100
AcDbEntity
  8
鏡台
  6
CONTINUOUS
 62
     2
100
AcDbLine
 10
1261.000000000102
 20
2669.500000000045
 30
0.0
 11
1261.000000000102
 21
2149.500000000045
 31
0.0
  0
LINE
  5
2B5
330
1F
100
AcDbEntity
  8
鏡台
  6
CONTINUOUS
 62
     2
100
AcDbLine
 10
701.5000000001046
 20
2669.500000000045
 30
0.0
 11
701.5000000001046
 21
2149.500000000045
 31
0.0
  0
LINE
  5
2B6
330
1F
100
AcDbEntity
  8
鏡台
  6
CONTINUOUS
 62
     2
100
AcDbLine
 10
1220.500000000102
 20
2669.500000000045
 30
0.0
 11
1220.500000000102
 21
2149.500000000045
 31
0.0
  0
LINE
  5
2B7
330
1F
100
AcDbEntity
  8
鏡台
  6
CONTINUOUS
 62
     2
100
AcDbLine
 10
661.0000000001046
 20
2669.500000000045
 30
0.0
 11
703.5000000001046
 21
2669.500000000045
 31
0.0
  0
LINE
  5
2B8
330
1F
100
AcDbEntity
  8
鏡台
  6
CONTINUOUS
 62
     2
100
AcDbLine
 10
1218.500000000102
 20
2669.500000000045
 30
0.0
 11
1261.000000000102
 21
2669.500000000045
 31
0.0
  0
LINE
  5
2B9
330
1F
100
AcDbEntity
  8
鏡台
  6
CONTINUOUS
 62
     2
100
AcDbLine
 10
1218.500000000102
 20
2149.500000000045
 30
0.0
 11
1261.000000000102
 21
2149.500000000045
 31
0.0
  0
LINE
  5
2BA
330
1F
100
AcDbEntity
  8
鏡台
  6
CONTINUOUS
 62
     2
100
AcDbLine
 10
661.0000000001046
 20
2149.500000000045
 30
0.0
 11
703.5000000001046
 21
2149.500000000045
 31
0.0
  0
LINE
  5
2BB
330
1F
100
AcDbEntity
  8
鏡台
  6
CONTINUOUS
 62
     6
100
AcDbLine
 10
1017.535533906034
 20
2493.964466094083
 30
0.0
 11
1032.535533906035
 21
2508.964466094081
 31
0.0
  0
LINE
  5
2BC
330
1F
100
AcDbEntity
  8
鏡台
  6
CONTINUOUS
 62
     6
100
AcDbLine
 10
1007.0000000001
 20
2490.50000000002
 30
0.0
 11
1039.500000000103
 21
2523.000000000016
 31
0.0
  0
LINE
  5
2BD
330
1F
100
AcDbEntity
  8
鏡台
  6
CONTINUOUS
 62
     6
100
AcDbLine
 10
1027.714466094168
 20
2518.285533905948
 30
0.0
 11
1014.964466094169
 21
2505.535533905952
 31
0.0
  0
LINE
  5
2BE
330
1F
100
AcDbEntity
  8
鏡台
  6
CONTINUOUS
 62
     6
100
AcDbLine
 10
852.5355339060352
 20
2466.964466094082
 30
0.0
 11
867.5355339060361
 21
2481.964466094081
 31
0.0
  0
LINE
  5
2BF
330
1F
100
AcDbEntity
  8
鏡台
  6
CONTINUOUS
 62
     6
100
AcDbLine
 10
842.000000000101
 20
2463.500000000019
 30
0.0
 11
874.5000000001046
 21
2496.000000000016
 31
0.0
  0
LINE
  5
2C0
330
1F
100
AcDbEntity
  8
鏡台
  6
CONTINUOUS
 62
     6
100
AcDbLine
 10
862.7144660941694
 20
2491.285533905948
 30
0.0
 11
849.9644660941703
 21
2478.535533905951
 31
0.0
  0
LINE
  5
2C1
330
1F
100
AcDbEntity
  8
鏡台
  6
CONTINUOUS
 62
     6
100
AcDbLine
 10
996.5355339060338
 20
2303.964466094082
 30
0.0
 11
1011.535533906035
 21
2318.964466094081
 31
0.0
  0
LINE
  5
2C2
330
1F
100
AcDbEntity
  8
鏡台
  6
CONTINUOUS
 62
     6
100
AcDbLine
 10
986.0000000001005
 20
2300.500000000019
 30
0.0
 11
1018.500000000103
 21
2333.000000000016
 31
0.0
  0
LINE
  5
2C3
330
1F
100
AcDbEntity
  8
鏡台
  6
CONTINUOUS
 62
     6
100
AcDbLine
 10
1006.714466094168
 20
2328.285533905948
 30
0.0
 11
993.964466094169
 21
2315.535533905951
 31
0.0
  0
LINE
  5
2C4
330
1F
100
AcDbEntity
  8
鏡台
  6
EXLTYPE3
 62
     6
100
AcDbLine
 10
1111.000000000103
 20
2596.480762113546
 30
0.0
 11
1111.000000000103
 21
2622.480762113546
 31
0.0
  0
LINE
  5
2C5
330
1F
100
AcDbEntity
  8
鏡台
  6
EXLTYPE3
 62
     6
100
AcDbLine
 10
1124.000000000103
 20
2609.480762113546
 30
0.0
 11
1098.000000000103
 21
2609.480762113546
 31
0.0
  0
LINE
  5
2C6
330
1F
100
AcDbEntity
  8
鏡台
  6
EXLTYPE3
 62
     6
100
AcDbLine
 10
824.0000000001046
 20
2169.500000000046
 30
0.0
 11
798.0000000001046
 21
2169.500000000046
 31
0.0
  0
LINE
  5
2C7
330
1F
100
AcDbEntity
  8
鏡台
  6
EXLTYPE3
 62
     6
100
AcDbLine
 10
811.0000000001037
 20
2156.500000000045
 30
0.0
 11
811.0000000001037
 21
2182.500000000045
 31
0.0
  0
LINE
  5
2C8
330
1F
100
AcDbEntity
  8
鏡台
  6
EXLTYPE3
 62
     6
100
AcDbLine
 10
1124.000000000103
 20
2169.500000000046
 30
0.0
 11
1098.000000000103
 21
2169.500000000046
 31
0.0
  0
LINE
  5
2C9
330
1F
100
AcDbEntity
  8
鏡台
  6
EXLTYPE3
 62
     6
100
AcDbLine
 10
1111.000000000103
 20
2156.500000000045
 30
0.0
 11
1111.000000000103
 21
2182.500000000045
 31
0.0
  0
LINE
  5
2CA
330
1F
100
AcDbEntity
  8
鏡台
  6
EXLTYPE3
 62
     6
100
AcDbLine
 10
824.0000000001046
 20
2609.480762113546
 30
0.0
 11
798.0000000001046
 21
2609.480762113546
 31
0.0
  0
LINE
  5
2CB
330
1F
100
AcDbEntity
  8
鏡台
  6
EXLTYPE3
 62
     6
100
AcDbLine
 10
811.0000000001037
 20
2596.480762113546
 30
0.0
 11
811.0000000001037
 21
2622.480762113546
 31
0.0
  0
LINE
  5
2CC
330
1F
100
AcDbEntity
  8
鏡台
  6
CONTINUOUS
 62
     4
100
AcDbLine
 10
703.5000000001046
 20
2660.700000000045
 30
0.0
 11
1218.500000000102
 21
2660.700000000045
 31
0.0
  0
LINE
  5
2CD
330
1F
100
AcDbEntity
  8
鏡台
  6
CONTINUOUS
 62
     4
100
AcDbLine
 10
703.5000000001046
 20
2670.700000000045
 30
0.0
 11
1218.500000000102
 21
2670.700000000045
 31
0.0
  0
LINE
  5
2CE
330
1F
100
AcDbEntity
  8
鏡台
  6
CONTINUOUS
 62
     4
100
AcDbLine
 10
1218.500000000102
 20
2670.700000000045
 30
0.0
 11
1218.500000000102
 21
2660.700000000045
 31
0.0
  0
LINE
  5
2CF
330
1F
100
AcDbEntity
  8
鏡台
  6
CONTINUOUS
 62
     4
100
AcDbLine
 10
703.5000000001055
 20
2670.700000000045
 30
0.0
 11
703.5000000001055
 21
2660.700000000045
 31
0.0
  0
LINE
  5
2D0
330
1F
100
AcDbEntity
  8
鏡台
  6
CONTINUOUS
 62
     4
100
AcDbLine
 10
703.5000000001046
 20
2148.300000000046
 30
0.0
 11
1218.500000000102
 21
2148.300000000046
 31
0.0
  0
LINE
  5
2D1
330
1F
100
AcDbEntity
  8
鏡台
  6
CONTINUOUS
 62
     4
100
AcDbLine
 10
1218.500000000102
 20
2158.300000000046
 30
0.0
 11
1218.500000000102
 21
2148.300000000046
 31
0.0
  0
LINE
  5
2D2
330
1F
100
AcDbEntity
  8
鏡台
  6
CONTINUOUS
 62
     4
100
AcDbLine
 10
703.5000000001046
 20
2158.300000000046
 30
0.0
 11
1218.500000000102
 21
2158.300000000046
 31
0.0
  0
LINE
  5
2D3
330
1F
100
AcDbEntity
  8
鏡台
  6
CONTINUOUS
 62
     4
100
AcDbLine
 10
703.5000000001055
 20
2158.300000000046
 30
0.0
 11
703.5000000001055
 21
2148.300000000046
 31
0.0
  0
LINE
  5
2D4
330
1F
100
AcDbEntity
  8
鏡台
  6
CONTINUOUS
 62
     6
100
AcDbLine
 10
2478.800000000054
 20
2154.500000000006
 30
0.0
 11
2488.200000000054
 21
2154.500000000006
 31
0.0
  0
LINE
  5
2D5
330
1F
100
AcDbEntity
  8
鏡台
  6
CONTINUOUS
 62
     2
100
AcDbLine
 10
2491.000000000055
 20
2154.500000000005
 30
0.0
 11
2478.500000000055
 21
2154.500000000005
 31
0.0
  0
LINE
  5
2D6
330
1F
100
AcDbEntity
  8
鏡台
  6
CONTINUOUS
 62
     2
100
AcDbLine
 10
2491.000000000055
 20
2184.500000000005
 30
0.0
 11
2478.500000000055
 21
2184.500000000005
 31
0.0
  0
LINE
  5
2D7
330
1F
100
AcDbEntity
  8
鏡台
  6
CONTINUOUS
 62
     2
100
AcDbLine
 10
2491.000000000055
 20
2214.500000000005
 30
0.0
 11
2478.500000000055
 21
2214.500000000005
 31
0.0
  0
LINE
  5
2D8
330
1F
100
AcDbEntity
  8
鏡台
  6
CONTINUOUS
 62
     2
100
AcDbLine
 10
2478.500000000055
 20
2669.500000000005
 30
0.0
 11
2478.500000000055
 21
2149.500000000005
 31
0.0
  0
LINE
  5
2D9
330
1F
100
AcDbEntity
  8
鏡台
  6
CONTINUOUS
 62
     2
100
AcDbLine
 10
2478.500000000055
 20
2594.480762113506
 30
0.0
 11
2491.000000000055
 21
2594.480762113506
 31
0.0
  0
LINE
  5
2DA
330
1F
100
AcDbEntity
  8
鏡台
  6
CONTINUOUS
 62
     2
100
AcDbLine
 10
2491.000000000055
 20
2618.500000000005
 30
0.0
 11
2478.500000000055
 21
2640.150635094589
 31
0.0
  0
LINE
  5
2DB
330
1F
100
AcDbEntity
  8
鏡台
  6
CONTINUOUS
 62
     2
100
AcDbLine
 10
2491.000000000055
 20
2668.500000000005
 30
0.0
 11
2478.500000000055
 21
2668.500000000005
 31
0.0
  0
LINE
  5
2DC
330
1F
100
AcDbEntity
  8
鏡台
  6
CONTINUOUS
 62
     2
100
AcDbLine
 10
2491.000000000055
 20
2668.500000000005
 30
0.0
 11
2491.000000000055
 21
2594.480762113506
 31
0.0
  0
LINE
  5
2DD
330
1F
100
AcDbEntity
  8
鏡台
  6
CONTINUOUS
 62
     2
100
AcDbLine
 10
2455.000000000055
 20
2149.500000000005
 30
0.0
 11
2478.500000000055
 21
2149.500000000005
 31
0.0
  0
LINE
  5
2DE
330
1F
100
AcDbEntity
  8
鏡台
  6
CONTINUOUS
 62
     2
100
AcDbLine
 10
2453.800000000054
 20
2158.300000000006
 30
0.0
 11
2453.800000000054
 21
2148.300000000006
 31
0.0
  0
LINE
  5
2DF
330
1F
100
AcDbEntity
  8
鏡台
  6
CONTINUOUS
 62
     2
100
AcDbLine
 10
2453.800000000054
 20
2148.300000000006
 30
0.0
 11
2473.800000000054
 21
2148.300000000006
 31
0.0
  0
LINE
  5
2E0
330
1F
100
AcDbEntity
  8
鏡台
  6
CONTINUOUS
 62
     2
100
AcDbLine
 10
2473.80000000006
 20
2149.500000000005
 30
0.0
 11
2473.80000000006
 21
2148.300000000006
 31
0.0
  0
LINE
  5
2E1
330
1F
100
AcDbEntity
  8
鏡台
  6
CONTINUOUS
 62
     2
100
AcDbLine
 10
2453.800000000054
 20
2158.300000000006
 30
0.0
 11
2455.000000000055
 21
2158.300000000006
 31
0.0
  0
LINE
  5
2E2
330
1F
100
AcDbEntity
  8
鏡台
  6
CONTINUOUS
 62
     2
100
AcDbLine
 10
2455.000000000055
 20
2669.500000000005
 30
0.0
 11
2478.500000000055
 21
2669.500000000005
 31
0.0
  0
LINE
  5
2E3
330
1F
100
AcDbEntity
  8
鏡台
  6
CONTINUOUS
 62
     2
100
AcDbLine
 10
2453.800000000054
 20
2660.700000000005
 30
0.0
 11
2453.800000000054
 21
2670.700000000005
 31
0.0
  0
LINE
  5
2E4
330
1F
100
AcDbEntity
  8
鏡台
  6
CONTINUOUS
 62
     2
100
AcDbLine
 10
2453.800000000054
 20
2670.700000000005
 30
0.0
 11
2473.800000000054
 21
2670.700000000005
 31
0.0
  0
LINE
  5
2E5
330
1F
100
AcDbEntity
  8
鏡台
  6
CONTINUOUS
 62
     2
100
AcDbLine
 10
2453.800000000054
 20
2660.70000000001
 30
0.0
 11
2455.000000000055
 21
2660.70000000001
 31
0.0
  0
LINE
  5
2E6
330
1F
100
AcDbEntity
  8
鏡台
  6
CONTINUOUS
 62
     2
100
AcDbLine
 10
2473.80000000006
 20
2670.700000000005
 30
0.0
 11
2473.80000000006
 21
2669.500000000005
 31
0.0
  0
LINE
  5
2E7
330
1F
100
AcDbEntity
  8
鏡台
  6
CONTINUOUS
 62
     2
100
AcDbLine
 10
2455.000000000055
 20
2668.500000000005
 30
0.0
 11
2460.000000000055
 21
2668.500000000005
 31
0.0
  0
LINE
  5
2E8
330
1F
100
AcDbEntity
  8
鏡台
  6
CONTINUOUS
 62
     2
100
AcDbLine
 10
2491.000000000055
 20
2214.500000000005
 30
0.0
 11
2491.000000000055
 21
2154.500000000005
 31
0.0
  0
LINE
  5
2E9
330
1F
100
AcDbEntity
  8
鏡台
  6
CONTINUOUS
 62
     2
100
AcDbLine
 10
2461.000000000055
 20
2669.500000000005
 30
0.0
 11
2461.000000000055
 21
2149.500000000005
 31
0.0
  0
LINE
  5
2EA
330
1F
100
AcDbEntity
  8
鏡台
  6
EXLTYPE3
 62
     6
100
AcDbLine
 10
2476.000000000055
 20
2609.480762113505
 30
0.0
 11
2533.500000000055
 21
2609.480762113504
 31
0.0
  0
LINE
  5
2EB
330
1F
100
AcDbEntity
  8
鏡台
  6
CONTINUOUS
 62
     6
100
AcDbLine
 10
2523.500000000059
 20
2609.480762113504
 30
0.0
 11
2491.000000000059
 21
2607.480762113506
 31
0.0
  0
LINE
  5
2EC
330
1F
100
AcDbEntity
  8
鏡台
  6
CONTINUOUS
 62
     6
100
AcDbLine
 10
2491.000000000059
 20
2611.480762113506
 30
0.0
 11
2523.500000000059
 21
2609.480762113504
 31
0.0
  0
LINE
  5
2ED
330
1F
100
AcDbEntity
  8
鏡台
  6
EXLTYPE3
 62
     6
100
AcDbLine
 10
2476.000000000055
 20
2169.500000000005
 30
0.0
 11
2533.500000000055
 21
2169.500000000005
 31
0.0
  0
LINE
  5
2EE
330
1F
100
AcDbEntity
  8
鏡台
  6
CONTINUOUS
 62
     6
100
AcDbLine
 10
2523.500000000059
 20
2169.500000000005
 30
0.0
 11
2491.000000000059
 21
2167.500000000005
 31
0.0
  0
LINE
  5
2EF
330
1F
100
AcDbEntity
  8
鏡台
  6
CONTINUOUS
 62
     6
100
AcDbLine
 10
2491.000000000059
 20
2171.500000000005
 30
0.0
 11
2523.500000000059
 21
2169.500000000005
 31
0.0
  0
ARC
  5
2F0
330
1F
100
AcDbEntity
  8
鏡台
  6
CONTINUOUS
 62
     6
100
AcDbCircle
 10
2483.500000000055
 20
2157.668000000006
 30
0.0
 40
5.668000000000172
100
AcDbArc
 50
213.9816465839783
 51
326.018353416022
  0
LINE
  5
2F1
330
1F
100
AcDbEntity
  8
鏡台
  6
CONTINUOUS
 62
     4
100
AcDbLine
 10
2455.000000000055
 20
2669.500000000005
 30
0.0
 11
2455.000000000055
 21
2149.500000000005
 31
0.0
  0
LINE
  5
2F2
330
1F
100
AcDbEntity
  8
鏡台
  6
CONTINUOUS
 62
     4
100
AcDbLine
 10
2460.000000000055
 20
2668.500000000005
 30
0.0
 11
2460.000000000055
 21
2149.500000000005
 31
0.0
  0
DIMENSION
  5
2F4
330
1F
100
AcDbEntity
  8
寸法
  6
CONTINUOUS
 62
     3
100
AcDbDimension
  2
*D15
 10
1236.000000000057
 20
3205.000000000051
 30
0.0
 11
961.0000000000582
 21
3240.249999910644
 31
0.0
 70
   160
  3
ISO-25
100
AcDbAlignedDimension
 13
686.0000000000591
 23
3335.0
 33
0.0
 14
1236.000000000057
 24
3335.0
 34
0.0
100
AcDbRotatedDimension
1001
ACAD
1000
DSTYLE
1002
{
1070
   270
1070
     2
1070
     6
1000
EX_NORM
1070
     7
1000
EX_NORM
1070
    41
1040
44.99999618530273
1070
    42
1040
10.49999982118607
1070
    44
1040
15.0
1070
    73
1070
     0
1070
    74
1070
     0
1070
    75
1070
     0
1070
    76
1070
     0
1070
    77
1070
     1
1070
    78
1070
     0
1070
   140
1040
59.99999618530273
1070
   147
1040
0.0
1070
   173
1070
     1
1070
   176
1070
     3
1070
   177
1070
     3
1070
   178
1070
     2
1070
   271
1070
     0
1070
   277
1070
     2
1070
   279
1070
     2
1070
   280
1070
     0
1070
   287
1070
     5
1070
   340
1005
2F3
1002
}
  0
DIMENSION
  5
302
330
1F
100
AcDbEntity
  8
寸法
  6
CONTINUOUS
 62
     3
100
AcDbDimension
  2
*D16
 10
1336.000000000055
 20
3115.000000000051
 30
0.0
 11
961.0000000000573
 21
3150.249999910644
 31
0.0
 70
   160
  3
ISO-25
100
AcDbAlignedDimension
 13
586.0000000000591
 23
3375.0
 33
0.0
 14
1336.000000000055
 24
3375.0
 34
0.0
100
AcDbRotatedDimension
1001
ACAD
1000
DSTYLE
1002
{
1070
   270
1070
     2
1070
     6
1000
EX_NORM
1070
     7
1000
EX_NORM
1070
    41
1040
44.99999618530273
1070
    42
1040
10.49999982118607
1070
    44
1040
15.0
1070
    73
1070
     0
1070
    74
1070
     0
1070
    75
1070
     0
1070
    76
1070
     0
1070
    77
1070
     1
1070
    78
1070
     0
1070
   140
1040
59.99999618530273
1070
   147
1040
0.0
1070
   173
1070
     1
1070
   176
1070
     3
1070
   177
1070
     3
1070
   178
1070
     2
1070
   271
1070
     0
1070
   277
1070
     2
1070
   279
1070
     2
1070
   280
1070
     0
1070
   287
1070
     5
1070
   340
1005
2F3
1002
}
  0
DIMENSION
  5
30F
330
1F
100
AcDbEntity
  8
寸法
  6
CONTINUOUS
 62
     3
100
AcDbDimension
  2
*D17
 10
1456.000000000057
 20
3375.0
 30
0.0
 11
1420.750000089466
 21
3600.0
 31
0.0
 70
   160
  3
ISO-25
100
AcDbAlignedDimension
 13
1336.000000000055
 23
3825.0
 33
0.0
 14
1336.000000000055
 24
3375.0
 34
0.0
 50
90.0
100
AcDbRotatedDimension
1001
ACAD
1000
DSTYLE
1002
{
1070
   270
1070
     2
1070
     6
1000
EX_NORM
1070
     7
1000
EX_NORM
1070
    41
1040
44.99999618530273
1070
    42
1040
10.49999982118607
1070
    44
1040
15.0
1070
    73
1070
     0
1070
    74
1070
     0
1070
    75
1070
     1
1070
    76
1070
     0
1070
    77
1070
     1
1070
    78
1070
     0
1070
   140
1040
59.99999618530273
1070
   147
1040
0.0
1070
   173
1070
     1
1070
   176
1070
     3
1070
   177
1070
     3
1070
   178
1070
     2
1070
   271
1070
     0
1070
   277
1070
     2
1070
   279
1070
     2
1070
   280
1070
     0
1070
   287
1070
     5
1070
   340
1005
2F3
1002
}
  0
DIMENSION
  5
31B
330
1F
100
AcDbEntity
  8
寸法
  6
CONTINUOUS
 62
     3
100
AcDbDimension
  2
*D18
 10
1546.000000000057
 20
3325.0
 30
0.0
 11
1510.750000089466
 21
3575.0
 31
0.0
 70
   160
  3
ISO-25
100
AcDbAlignedDimension
 13
1336.000000000055
 23
3825.0
 33
0.0
 14
1226.000000000057
 24
3325.0
 34
0.0
 50
90.0
100
AcDbRotatedDimension
1001
ACAD
1000
DSTYLE
1002
{
1070
   270
1070
     2
1070
     6
1000
EX_NORM
1070
     7
1000
EX_NORM
1070
    41
1040
44.99999618530273
1070
    42
1040
10.49999982118607
1070
    44
1040
15.0
1070
    73
1070
     0
1070
    74
1070
     0
1070
    75
1070
     1
1070
    76
1070
     0
1070
    77
1070
     1
1070
    78
1070
     0
1070
   140
1040
59.99999618530273
1070
   147
1040
0.0
1070
   173
1070
     1
1070
   176
1070
     3
1070
   177
1070
     3
1070
   178
1070
     2
1070
   271
1070
     0
1070
   277
1070
     2
1070
   279
1070
     2
1070
   280
1070
     0
1070
   287
1070
     5
1070
   340
1005
2F3
1002
}
  0
DIMENSION
  5
327
330
1F
100
AcDbEntity
  8
寸法
  6
CONTINUOUS
 62
     3
100
AcDbDimension
  2
*D19
 10
1061.000000000059
 20
3914.999999999999
 30
0.0
 11
628.5000000000601
 21
3950.249999910592
 31
0.0
 70
   160
  1
200（壁給水）
  3
ISO-25
100
AcDbAlignedDimension
 13
861.00000000006
 23
3833.0
 33
0.0
 14
1061.000000000059
 24
3838.5
 34
0.0
100
AcDbRotatedDimension
1001
ACAD
1000
DSTYLE
1002
{
1070
   270
1070
     2
1070
     6
1000
EX_NORM
1070
     7
1000
EX_NORM
1070
    41
1040
44.99999618530273
1070
    42
1040
10.49999982118561
1070
    44
1040
15.0
1070
    73
1070
     0
1070
    74
1070
     0
1070
    75
1070
     0
1070
    76
1070
     0
1070
    77
1070
     1
1070
    78
1070
     0
1070
   140
1040
59.99999618530273
1070
   147
1040
0.0
1070
   173
1070
     1
1070
   176
1070
     3
1070
   177
1070
     3
1070
   178
1070
     2
1070
   271
1070
     0
1070
   277
1070
     2
1070
   279
1070
     2
1070
   280
1070
     1
1070
   287
1070
     5
1070
   340
1005
2F3
1002
}
  0
DIMENSION
  5
334
330
1F
100
AcDbEntity
  8
寸法
  6
CONTINUOUS
 62
     3
100
AcDbDimension
  2
*D20
 10
1161.000000000059
 20
4004.999999999999
 30
0.0
 11
728.5000000000571
 21
4040.249999910592
 31
0.0
 70
   160
  1
200（壁排水）
  3
ISO-25
100
AcDbAlignedDimension
 13
961.0000000000568
 23
3825.0
 33
0.0
 14
1161.000000000059
 24
3875.0
 34
0.0
100
AcDbRotatedDimension
1001
ACAD
1000
DSTYLE
1002
{
1070
   270
1070
     2
1070
     6
1000
EX_NORM
1070
     7
1000
EX_NORM
1070
    41
1040
44.99999618530273
1070
    42
1040
10.49999982118607
1070
    44
1040
15.0
1070
    73
1070
     0
1070
    74
1070
     0
1070
    75
1070
     0
1070
    76
1070
     0
1070
    77
1070
     1
1070
    78
1070
     0
1070
   140
1040
59.99999618530273
1070
   147
1040
0.0
1070
   173
1070
     1
1070
   176
1070
     3
1070
   177
1070
     3
1070
   178
1070
     2
1070
   271
1070
     0
1070
   277
1070
     2
1070
   279
1070
     2
1070
   280
1070
     1
1070
   287
1070
     5
1070
   340
1005
2F3
1002
}
  0
DIMENSION
  5
341
330
1F
100
AcDbEntity
  8
寸法
  6
CONTINUOUS
 62
     3
100
AcDbDimension
  2
*D21
 10
2701.000000000059
 20
1349.5
 30
0.0
 11
2665.750000089466
 21
1134.499999999998
 31
0.0
 70
   160
  1
430（壁排水）
  3
ISO-25
100
AcDbAlignedDimension
 13
2491.000000000059
 23
919.5
 33
0.0
 14
2541.000000000059
 24
1349.5
 34
0.0
 50
90.0
100
AcDbRotatedDimension
1001
ACAD
1000
DSTYLE
1002
{
1070
   270
1070
     2
1070
     6
1000
EX_NORM
1070
     7
1000
EX_NORM
1070
    41
1040
44.99999618530273
1070
    42
1040
10.49999982118607
1070
    44
1040
15.0
1070
    73
1070
     0
1070
    74
1070
     0
1070
    75
1070
     1
1070
    76
1070
     0
1070
    77
1070
     1
1070
    78
1070
     0
1070
   140
1040
59.99999618530273
1070
   147
1040
0.0
1070
   173
1070
     1
1070
   176
1070
     3
1070
   177
1070
     3
1070
   178
1070
     2
1070
   271
1070
     0
1070
   277
1070
     2
1070
   279
1070
     2
1070
   280
1070
     0
1070
   287
1070
     5
1070
   340
1005
2F3
1002
}
  0
DIMENSION
  5
34D
330
1F
100
AcDbEntity
  8
寸法
  6
CONTINUOUS
 62
     3
100
AcDbDimension
  2
*D22
 10
2611.000000000059
 20
1349.5
 30
0.0
 11
2575.750000089466
 21
1134.499999999998
 31
0.0
 70
   160
  1
430（壁給水）
  3
ISO-25
100
AcDbAlignedDimension
 13
2491.000000000059
 23
919.5
 33
0.0
 14
2541.000000000059
 24
1349.5
 34
0.0
 50
90.0
100
AcDbRotatedDimension
1001
ACAD
1000
DSTYLE
1002
{
1070
   270
1070
     2
1070
     6
1000
EX_NORM
1070
     7
1000
EX_NORM
1070
    41
1040
44.99999618530273
1070
    42
1040
10.49999982118607
1070
    44
1040
15.0
1070
    73
1070
     0
1070
    74
1070
     0
1070
    75
1070
     1
1070
    76
1070
     0
1070
    77
1070
     1
1070
    78
1070
     0
1070
   140
1040
59.99999618530273
1070
   147
1040
0.0
1070
   173
1070
     1
1070
   176
1070
     3
1070
   177
1070
     3
1070
   178
1070
     2
1070
   271
1070
     0
1070
   277
1070
     2
1070
   279
1070
     2
1070
   280
1070
     0
1070
   287
1070
     5
1070
   340
1005
2F3
1002
}
  0
DIMENSION
  5
359
330
1F
100
AcDbEntity
  8
寸法
  6
CONTINUOUS
 62
     3
100
AcDbDimension
  2
*D23
 10
2791.000000000059
 20
1499.5
 30
0.0
 11
2755.750000089466
 21
1209.499999999998
 31
0.0
 70
   160
  1
580（壁固定）
  3
ISO-25
100
AcDbAlignedDimension
 13
2491.000000000059
 23
919.5
 33
0.0
 14
2523.500005721959
 24
1499.5
 34
0.0
 50
90.0
100
AcDbRotatedDimension
1001
ACAD
1000
DSTYLE
1002
{
1070
   270
1070
     2
1070
     6
1000
EX_NORM
1070
     7
1000
EX_NORM
1070
    41
1040
44.99999618530273
1070
    42
1040
10.49999982118607
1070
    44
1040
15.0
1070
    73
1070
     0
1070
    74
1070
     0
1070
    75
1070
     1
1070
    76
1070
     0
1070
    77
1070
     1
1070
    78
1070
     0
1070
   140
1040
59.99999618530273
1070
   147
1040
0.0
1070
   173
1070
     1
1070
   176
1070
     3
1070
   177
1070
     3
1070
   178
1070
     2
1070
   271
1070
     0
1070
   277
1070
     2
1070
   279
1070
     2
1070
   280
1070
     0
1070
   287
1070
     5
1070
   340
1005
2F3
1002
}
  0
DIMENSION
  5
365
330
1F
100
AcDbEntity
  8
寸法
  6
CONTINUOUS
 62
     3
100
AcDbDimension
  2
*D24
 10
2491.000000000059
 20
619.4999999999945
 30
0.0
 11
2723.500000000059
 21
654.7499999105876
 31
0.0
 70
   160
  1
100（床排水）
  3
ISO-25
100
AcDbAlignedDimension
 13
2391.000000000057
 23
869.49999999988
 33
0.0
 14
2491.000000000059
 24
919.5
 34
0.0
100
AcDbRotatedDimension
1001
ACAD
1000
DSTYLE
1002
{
1070
   270
1070
     2
1070
     6
1000
EX_NORM
1070
     7
1000
EX_NORM
1070
    41
1040
44.99999618530273
1070
    42
1040
10.49999982118607
1070
    44
1040
15.0
1070
    73
1070
     0
1070
    74
1070
     0
1070
    75
1070
     0
1070
    76
1070
     0
1070
    77
1070
     1
1070
    78
1070
     0
1070
   140
1040
59.99999618530273
1070
   147
1040
0.0
1070
   173
1070
     1
1070
   176
1070
     3
1070
   177
1070
     3
1070
   178
1070
     2
1070
   271
1070
     0
1070
   277
1070
     2
1070
   279
1070
     2
1070
   280
1070
     2
1070
   287
1070
     5
1070
   340
1005
2F3
1002
}
  0
DIMENSION
  5
372
330
1F
100
AcDbEntity
  8
寸法
  6
CONTINUOUS
 62
     3
100
AcDbDimension
  2
*D25
 10
2491.000000000059
 20
709.4999999999945
 30
0.0
 11
2701.000000000059
 21
744.7499999105876
 31
0.0
 70
   160
  1
80（床給水）
  3
ISO-25
100
AcDbAlignedDimension
 13
2411.000000000059
 23
911.5
 33
0.0
 14
2491.000000000059
 24
919.5
 34
0.0
100
AcDbRotatedDimension
1001
ACAD
1000
DSTYLE
1002
{
1070
   270
1070
     2
1070
     6
1000
EX_NORM
1070
     7
1000
EX_NORM
1070
    41
1040
44.99999618530273
1070
    42
1040
10.49999982118607
1070
    44
1040
15.0
1070
    73
1070
     0
1070
    74
1070
     0
1070
    75
1070
     0
1070
    76
1070
     1
1070
    77
1070
     1
1070
    78
1070
     0
1070
   140
1040
59.99999618530273
1070
   147
1040
0.0
1070
   173
1070
     1
1070
   176
1070
     3
1070
   177
1070
     3
1070
   178
1070
     2
1070
   271
1070
     0
1070
   277
1070
     2
1070
   279
1070
     2
1070
   280
1070
     2
1070
   287
1070
     5
1070
   340
1005
2F3
1002
}
  0
DIMENSION
  5
380
330
1F
100
AcDbEntity
  8
寸法
  6
CONTINUOUS
 62
     3
100
AcDbDimension
  2
*D26
 10
1216.000000000057
 20
1223.5
 30
0.0
 11
961.0000000000477
 21
1258.749999910593
 31
0.0
 70
   160
  1
510（壁固定）
  3
ISO-25
100
AcDbAlignedDimension
 13
706.0000000000387
 23
1495.700000000099
 33
0.0
 14
1216.000000000057
 24
1495.700000000099
 34
0.0
100
AcDbRotatedDimension
1001
ACAD
1000
DSTYLE
1002
{
1070
   270
1070
     2
1070
     6
1000
EX_NORM
1070
     7
1000
EX_NORM
1070
    41
1040
44.99999618530273
1070
    42
1040
10.49999982118607
1070
    44
1040
15.0
1070
    73
1070
     0
1070
    74
1070
     0
1070
    75
1070
     0
1070
    76
1070
     0
1070
    77
1070
     1
1070
    78
1070
     0
1070
   140
1040
59.99999618530273
1070
   147
1040
0.0
1070
   173
1070
     1
1070
   176
1070
     3
1070
   177
1070
     3
1070
   178
1070
     2
1070
   271
1070
     0
1070
   277
1070
     2
1070
   279
1070
     2
1070
   280
1070
     0
1070
   287
1070
     5
1070
   340
1005
2F3
1002
}
  0
DIMENSION
  5
38D
330
1F
100
AcDbEntity
  8
寸法
  6
CONTINUOUS
 62
     3
100
AcDbDimension
  2
*D27
 10
1126.000000000059
 20
799.4999999999945
 30
0.0
 11
563.5000000000581
 21
834.7499999105876
 31
0.0
 70
   160
  1
330（床給水）
  3
ISO-25
100
AcDbAlignedDimension
 13
796.0000000000582
 23
911.5
 33
0.0
 14
1126.000000000059
 24
911.5
 34
0.0
100
AcDbRotatedDimension
1001
ACAD
1000
DSTYLE
1002
{
1070
   270
1070
     2
1070
     6
1000
EX_NORM
1070
     7
1000
EX_NORM
1070
    41
1040
44.99999618530273
1070
    42
1040
10.49999982118607
1070
    44
1040
15.0
1070
    73
1070
     0
1070
    74
1070
     0
1070
    75
1070
     0
1070
    76
1070
     0
1070
    77
1070
     1
1070
    78
1070
     0
1070
   140
1040
59.99999618530273
1070
   147
1040
0.0
1070
   173
1070
     1
1070
   176
1070
     3
1070
   177
1070
     3
1070
   178
1070
     2
1070
   271
1070
     0
1070
   277
1070
     2
1070
   279
1070
     2
1070
   280
1070
     1
1070
   287
1070
     5
1070
   340
1005
2F3
1002
}
  0
DIMENSION
  5
39A
330
1F
100
AcDbEntity
  8
寸法
  6
CONTINUOUS
 62
     3
100
AcDbDimension
  2
*D28
 10
1201.000000000059
 20
709.4999999999945
 30
0.0
 11
728.5000000000568
 21
744.7499999105876
 31
0.0
 70
   160
  1
240（床排水）
  3
ISO-25
100
AcDbAlignedDimension
 13
961.0000000000568
 23
919.5
 33
0.0
 14
1201.000000000059
 24
869.49999999988
 34
0.0
100
AcDbRotatedDimension
1001
ACAD
1000
DSTYLE
1002
{
1070
   270
1070
     2
1070
     6
1000
EX_NORM
1070
     7
1000
EX_NORM
1070
    41
1040
44.99999618530273
1070
    42
1040
10.49999982118607
1070
    44
1040
15.0
1070
    73
1070
     0
1070
    74
1070
     0
1070
    75
1070
     0
1070
    76
1070
     0
1070
    77
1070
     1
1070
    78
1070
     0
1070
   140
1040
59.99999618530273
1070
   147
1040
0.0
1070
   173
1070
     1
1070
   176
1070
     3
1070
   177
1070
     3
1070
   178
1070
     2
1070
   271
1070
     0
1070
   277
1070
     2
1070
   279
1070
     2
1070
   280
1070
     1
1070
   287
1070
     5
1070
   340
1005
2F3
1002
}
  0
DIMENSION
  5
3A7
330
1F
100
AcDbEntity
  8
寸法
  6
CONTINUOUS
 62
     3
100
AcDbDimension
  2
*D29
 10
1456.000000000057
 20
1618.5
 30
0.0
 11
1420.750000089464
 21
1269.0
 31
0.0
 70
   160
  3
ISO-25
100
AcDbAlignedDimension
 13
1334.000000000055
 23
919.5
 33
0.0
 14
1336.000000000055
 24
1618.5
 34
0.0
 50
90.0
100
AcDbRotatedDimension
1001
ACAD
1000
DSTYLE
1002
{
1070
   270
1070
     2
1070
     6
1000
EX_NORM
1070
     7
1000
EX_NORM
1070
    41
1040
44.99999618530273
1070
    42
1040
10.49999982118607
1070
    44
1040
15.0
1070
    73
1070
     0
1070
    74
1070
     0
1070
    75
1070
     1
1070
    76
1070
     0
1070
    77
1070
     1
1070
    78
1070
     0
1070
   140
1040
59.99999618530273
1070
   147
1040
0.0
1070
   173
1070
     1
1070
   176
1070
     3
1070
   177
1070
     3
1070
   178
1070
     2
1070
   271
1070
     0
1070
   277
1070
     2
1070
   279
1070
     2
1070
   280
1070
     0
1070
   287
1070
     5
1070
   340
1005
2F3
1002
}
  0
DIMENSION
  5
3B3
330
1F
100
AcDbEntity
  8
寸法
  6
CONTINUOUS
 62
     3
100
AcDbDimension
  2
*D30
 10
1546.000000000057
 20
1758.5
 30
0.0
 11
1510.750000089464
 21
1339.0
 31
0.0
 70
   160
  1
（<>）
  3
ISO-25
100
AcDbAlignedDimension
 13
1334.000000000055
 23
919.5
 33
0.0
 14
1231.000000000057
 24
1758.5
 34
0.0
 50
90.0
100
AcDbRotatedDimension
1001
ACAD
1000
DSTYLE
1002
{
1070
   270
1070
     2
1070
     6
1000
EX_NORM
1070
     7
1000
EX_NORM
1070
    41
1040
44.99999618530273
1070
    42
1040
10.49999982118607
1070
    44
1040
15.0
1070
    73
1070
     0
1070
    74
1070
     0
1070
    75
1070
     1
1070
    76
1070
     0
1070
    77
1070
     1
1070
    78
1070
     0
1070
   140
1040
59.99999618530273
1070
   147
1040
0.0
1070
   173
1070
     1
1070
   176
1070
     3
1070
   177
1070
     3
1070
   178
1070
     2
1070
   271
1070
     0
1070
   277
1070
     2
1070
   279
1070
     2
1070
   280
1070
     0
1070
   287
1070
     5
1070
   340
1005
2F3
1002
}
  0
TEXT
  5
3BF
330
1F
100
AcDbEntity
  8
寸法
  6
CONTINUOUS
 62
     2
100
AcDbText
 10
2536.150000000058
 20
804.749999910593
 30
0.0
 40
59.99999618530273
  1
Ｒ１/２
 41
0.8342465643686785
  7
EXCADSTD
 72
     5
 11
2710.149986648618
 21
804.749999910593
 31
0.0
100
AcDbText
  0
LEADER
  5
3C0
330
1F
100
AcDbEntity
  8
寸法
  6
CONTINUOUS
 62
     3
100
AcDbLeader
  3
ISO-25
 76
     3
 10
2421.500000000059
 20
911.5
 30
0.0
 10
2536.150000000058
 20
799.5
 30
0.0
 10
2693.650000000058
 20
799.5
 30
0.0
1001
ACAD
1000
DSTYLE
1002
{
1070
     5
1000
EX_NORM
1070
    41
1040
45.0
1070
   341
1005
4D
1002
}
  0
TEXT
  5
3C1
330
1F
100
AcDbEntity
  8
寸法
  6
CONTINUOUS
 62
     2
100
AcDbText
 10
2144.050000357686
 20
804.749999910593
 30
0.0
 40
59.99999618530273
  1
φ３２
 41
1.070588224822399
  7
EXCADSTD
 72
     5
 11
2300.049988913594
 21
804.749999910593
 31
0.0
100
AcDbText
  0
LEADER
  5
3C2
330
1F
100
AcDbEntity
  8
寸法
  6
CONTINUOUS
 62
     3
100
AcDbLeader
  3
ISO-25
 76
     3
 10
2375.000000000059
 20
882.5499999999993
 30
0.0
 10
2300.050000000058
 20
799.5
 30
0.0
 10
2146.450000000058
 20
799.5
 30
0.0
1001
ACAD
1000
DSTYLE
1002
{
1070
     5
1000
EX_NORM
1070
    41
1040
45.0
1070
   341
1005
4D
1002
}
  0
TEXT
  5
3C3
330
1F
100
AcDbEntity
  8
寸法
  6
CONTINUOUS
 62
     2
100
AcDbText
 10
1381.750000000064
 20
819.7499960958958
 30
0.0
 40
59.99999618530273
  1
ＶＰ･ＶＵ４０･５０
 41
0.8542372745578565
  7
EXCADSTD
 72
     5
 11
1813.749965667789
 21
819.7499960958958
 31
0.0
100
AcDbText
  0
TEXT
  5
3C4
330
1F
100
AcDbEntity
  8
寸法
  6
CONTINUOUS
 62
     2
100
AcDbText
 10
1381.750000000064
 20
759.749999910593
 30
0.0
 40
59.99999618530273
  1
４０～５０mm立上げ
 41
0.7522387940136347
  7
EXCADSTD
 72
     5
 11
1813.749965667789
 21
759.749999910593
 31
0.0
100
AcDbText
  0
LEADER
  5
3C5
330
1F
100
AcDbEntity
  8
寸法
  6
CONTINUOUS
 62
     3
100
AcDbLeader
  3
ISO-25
 76
     3
 10
1234.500000000057
 20
935.5
 30
0.0
 10
1381.750000000057
 20
754.5
 30
0.0
 10
1812.250000000057
 20
754.5
 30
0.0
1001
ACAD
1000
DSTYLE
1002
{
1070
     5
1000
EX_NORM
1070
    41
1040
45.0
1070
   341
1005
4D
1002
}
  0
DIMENSION
  5
3C6
330
1F
100
AcDbEntity
  8
寸法
  6
CONTINUOUS
 62
     3
100
AcDbDimension
  2
*D31
 10
1456.000000000057
 20
1758.5
 30
0.0
 11
1420.750000089464
 21
1688.5
 31
0.0
 70
   160
  3
ISO-25
100
AcDbAlignedDimension
 13
1336.000000000055
 23
1618.5
 33
0.0
 14
1231.000000000057
 24
1758.5
 34
0.0
 50
90.0
100
AcDbRotatedDimension
1001
ACAD
1000
DSTYLE
1002
{
1070
   270
1070
     2
1070
     6
1000
EX_NORM
1070
     7
1000
EX_NORM
1070
    41
1040
44.99999618530273
1070
    42
1040
10.49999982118607
1070
    44
1040
15.0
1070
    73
1070
     0
1070
    74
1070
     0
1070
    75
1070
     0
1070
    76
1070
     0
1070
    77
1070
     1
1070
    78
1070
     0
1070
   140
1040
59.99999618530273
1070
   147
1040
0.0
1070
   173
1070
     1
1070
   176
1070
     3
1070
   177
1070
     3
1070
   178
1070
     2
1070
   271
1070
     0
1070
   277
1070
     2
1070
   279
1070
     2
1070
   280
1070
     0
1070
   287
1070
     5
1070
   340
1005
2F3
1002
}
  0
DIMENSION
  5
3D3
330
1F
100
AcDbEntity
  8
寸法
  6
CONTINUOUS
 62
     3
100
AcDbDimension
  2
*D32
 10
1644.0
 20
2669.5
 30
0.0
 11
1606.500000000001
 21
1794.499999999999
 31
0.0
 70
   160
  1
（1750）
  3
ISO-25
100
AcDbAlignedDimension
 13
1243.000000000205
 23
919.5
 33
0.0
 14
1261.000000000105
 24
2669.5
 34
0.0
 50
90.0
100
AcDbRotatedDimension
1001
ACAD
1000
DSTYLE
1002
{
1070
   270
1070
     2
1070
     6
1000
EX_NORM
1070
     7
1000
EX_NORM
1070
    41
1040
44.99999618530273
1070
    42
1040
22.5
1070
    44
1040
22.5
1070
    73
1070
     0
1070
    74
1070
     0
1070
    75
1070
     1
1070
    76
1070
     0
1070
    77
1070
     1
1070
    78
1070
     0
1070
   140
1040
59.99999618530273
1070
   147
1040
0.0
1070
   173
1070
     1
1070
   176
1070
     3
1070
   177
1070
     3
1070
   178
1070
     2
1070
   271
1070
     0
1070
   277
1070
     2
1070
   279
1070
     2
1070
   280
1070
     0
1070
   287
1070
     5
1070
   340
1005
2F3
1002
}
  0
DIMENSION
  5
3DF
330
1F
100
AcDbEntity
  8
寸法
  6
CONTINUOUS
 62
     3
100
AcDbDimension
  2
*D33
 10
1261.000000000102
 20
2889.000000000005
 30
0.0
 11
961.0000000001037
 21
2924.249999910598
 31
0.0
 70
   160
  3
ISO-25
100
AcDbAlignedDimension
 13
661.0000000001046
 23
2669.500000000045
 33
0.0
 14
1261.000000000102
 24
2669.500000000045
 34
0.0
100
AcDbRotatedDimension
1001
ACAD
1000
DSTYLE
1002
{
1070
   270
1070
     2
1070
     6
1000
EX_NORM
1070
     7
1000
EX_NORM
1070
    41
1040
44.99999618530273
1070
    42
1040
10.49999982118607
1070
    44
1040
15.0
1070
    73
1070
     0
1070
    74
1070
     0
1070
    75
1070
     0
1070
    76
1070
     0
1070
    77
1070
     1
1070
    78
1070
     8
1070
   140
1040
59.99999618530273
1070
   147
1040
0.0
1070
   173
1070
     1
1070
   176
1070
     3
1070
   177
1070
     3
1070
   178
1070
     2
1070
   271
1070
     2
1070
   277
1070
     2
1070
   279
1070
     2
1070
   280
1070
     0
1070
   287
1070
     5
1070
   340
1005
2F3
1002
}
  0
LINE
  5
3EC
330
1F
100
AcDbEntity
  8
寸法
  6
CONTINUOUS
 62
     3
100
AcDbLine
 10
811.0000000001046
 20
2619.980761934732
 30
0.0
 11
811.0000000001046
 21
2778.000000000005
 31
0.0
  0
LINE
  5
3ED
330
1F
100
AcDbEntity
  8
寸法
  6
CONTINUOUS
 62
     3
100
AcDbLine
 10
1111.000000000104
 20
2619.980761934732
 30
0.0
 11
1111.000000000104
 21
2778.000000000005
 31
0.0
  0
TEXT
  5
3EE
330
1F
100
AcDbEntity
  8
寸法
  6
CONTINUOUS
 62
     2
100
AcDbText
 10
788.2000005544278
 20
2768.249999910598
 30
0.0
 40
59.99999618530273
  1
３００
 41
1.070588224822399
  7
EXCADSTD
 72
     5
 11
944.199989110336
 21
2768.249999910598
 31
0.0
100
AcDbText
  0
TEXT
  5
3EF
330
1F
100
AcDbEntity
  8
寸法
  6
CONTINUOUS
 62
     2
100
AcDbText
 10
938.200000107393
 20
2768.249999910598
 30
0.0
 40
48.0
  1
（壁固定）
 41
1.013793114958139
  7
EXCADSTD
 72
     5
 11
1139.800002396211
 21
2768.249999910598
 31
0.0
100
AcDbText
  0
LINE
  5
3F0
330
1F
100
AcDbEntity
  8
寸法
  6
CONTINUOUS
 62
     3
100
AcDbLine
 10
766.0000000001048
 20
2763.000000000005
 30
0.0
 11
1156.000000000104
 21
2763.000000000005
 31
0.0
  0
LINE
  5
3F1
330
1F
100
AcDbEntity
  8
寸法
  6
CONTINUOUS
 62
     3
100
AcDbLine
 10
766.0000000001046
 20
2755.500000000005
 30
0.0
 11
811.0000000001046
 21
2763.000000000005
 31
0.0
  0
LINE
  5
3F2
330
1F
100
AcDbEntity
  8
寸法
  6
CONTINUOUS
 62
     3
100
AcDbLine
 10
811.0000000001046
 20
2763.000000000005
 30
0.0
 11
766.0000000001046
 21
2770.500000000005
 31
0.0
  0
LINE
  5
3F3
330
1F
100
AcDbEntity
  8
寸法
  6
CONTINUOUS
 62
     3
100
AcDbLine
 10
1156.000000000104
 20
2770.500000000005
 30
0.0
 11
1111.000000000104
 21
2763.000000000005
 31
0.0
  0
LINE
  5
3F4
330
1F
100
AcDbEntity
  8
寸法
  6
CONTINUOUS
 62
     3
100
AcDbLine
 10
1111.000000000104
 20
2763.000000000005
 30
0.0
 11
1156.000000000104
 21
2755.500000000005
 31
0.0
  0
DIMENSION
  5
3F5
330
1F
100
AcDbEntity
  8
寸法
  6
CONTINUOUS
 62
     3
100
AcDbDimension
  2
*D34
 10
1433.000000000006
 20
2149.500000000045
 30
0.0
 11
1397.750000089413
 21
2409.500000000045
 31
0.0
 70
   160
  3
ISO-25
100
AcDbAlignedDimension
 13
1261.000000000102
 23
2669.500000000045
 33
0.0
 14
1261.000000000102
 24
2149.500000000045
 34
0.0
 50
90.0
100
AcDbRotatedDimension
1001
ACAD
1000
DSTYLE
1002
{
1070
   270
1070
     2
1070
     6
1000
EX_NORM
1070
     7
1000
EX_NORM
1070
    41
1040
44.99999618530273
1070
    42
1040
10.49999982118607
1070
    44
1040
15.0
1070
    73
1070
     0
1070
    74
1070
     0
1070
    75
1070
     0
1070
    76
1070
     0
1070
    77
1070
     1
1070
    78
1070
     8
1070
   140
1040
59.99999618530273
1070
   147
1040
0.0
1070
   173
1070
     1
1070
   176
1070
     3
1070
   177
1070
     3
1070
   178
1070
     2
1070
   271
1070
     2
1070
   277
1070
     2
1070
   279
1070
     2
1070
   280
1070
     0
1070
   287
1070
     5
1070
   340
1005
2F3
1002
}
  0
DIMENSION
  5
402
330
1F
100
AcDbEntity
  8
寸法
  6
CONTINUOUS
 62
     3
100
AcDbDimension
  2
*D35
 10
2881.5
 20
2169.500000000005
 30
0.0
 11
2844.0
 21
1544.500000000005
 31
0.0
 70
   160
  1
（1250）
  3
ISO-25
100
AcDbAlignedDimension
 13
2877.499999999955
 23
919.5000000000055
 33
0.0
 14
2533.999999821256
 24
2169.500000000005
 34
0.0
 50
90.0
100
AcDbRotatedDimension
1001
ACAD
1000
DSTYLE
1002
{
1070
   270
1070
     2
1070
     6
1000
EX_NORM
1070
     7
1000
EX_NORM
1070
    41
1040
44.99999618530273
1070
    42
1040
10.49999982118607
1070
    44
1040
15.0
1070
    73
1070
     0
1070
    74
1070
     0
1070
    75
1070
     0
1070
    76
1070
     0
1070
    77
1070
     1
1070
    78
1070
     8
1070
   140
1040
59.99999618530273
1070
   147
1040
0.0
1070
   173
1070
     1
1070
   176
1070
     3
1070
   177
1070
     3
1070
   178
1070
     2
1070
   271
1070
     1
1070
   277
1070
     2
1070
   279
1070
     2
1070
   280
1070
     0
1070
   287
1070
     5
1070
   340
1005
2F3
1002
}
  0
TEXT
  5
40F
330
1F
100
AcDbEntity
  8
寸法
  6
CONTINUOUS
 62
     2
100
AcDbText
 10
2874.0
 20
2216.690381611078
 30
0.0
 40
59.99999618530273
  1
４４０
 50
90.0
 41
1.070588224822399
  7
EXCADSTD
 72
     5
 11
2874.0
 21
2372.690370166987
 31
0.0
100
AcDbText
  0
TEXT
  5
410
330
1F
100
AcDbEntity
  8
寸法
  6
CONTINUOUS
 62
     2
100
AcDbText
 10
2874.0
 20
2366.690381164044
 30
0.0
 40
48.0
  1
（壁固定）
 50
90.0
 41
1.013793114958139
  7
EXCADSTD
 72
     5
 11
2874.0
 21
2568.290383452862
 31
0.0
100
AcDbText
  0
LINE
  5
411
330
1F
100
AcDbEntity
  8
寸法
  6
CONTINUOUS
 62
     3
100
AcDbLine
 10
2881.5
 20
2169.500000000004
 30
0.0
 11
2881.5
 21
2609.480762113506
 31
0.0
  0
LINE
  5
412
330
1F
100
AcDbEntity
  8
寸法
  6
CONTINUOUS
 62
     3
100
AcDbLine
 10
2874.0
 20
2214.500000000004
 30
0.0
 11
2881.5
 21
2169.500000000004
 31
0.0
  0
LINE
  5
413
330
1F
100
AcDbEntity
  8
寸法
  6
CONTINUOUS
 62
     3
100
AcDbLine
 10
2881.5
 20
2169.500000000004
 30
0.0
 11
2889.0
 21
2214.500000000004
 31
0.0
  0
LINE
  5
414
330
1F
100
AcDbEntity
  8
寸法
  6
CONTINUOUS
 62
     3
100
AcDbLine
 10
2889.0
 20
2564.480762113506
 30
0.0
 11
2881.5
 21
2609.480762113506
 31
0.0
  0
LINE
  5
415
330
1F
100
AcDbEntity
  8
寸法
  6
CONTINUOUS
 62
     3
100
AcDbLine
 10
2881.5
 20
2609.480762113506
 30
0.0
 11
2874.0
 21
2564.480762113506
 31
0.0
  0
LINE
  5
416
330
1F
100
AcDbEntity
  8
寸法
  6
CONTINUOUS
 62
     3
100
AcDbLine
 10
2538.500001907404
 20
2609.480762113506
 30
0.0
 11
2896.5
 21
2609.480762113506
 31
0.0
  0
DIMENSION
  5
417
330
1F
100
AcDbEntity
  8
寸法
  6
CONTINUOUS
 62
     3
100
AcDbDimension
  2
*D36
 10
2881.5
 20
2669.500000000005
 30
0.0
 11
2843.999999999998
 21
2767.000000000004
 31
0.0
 70
   160
  3
ISO-25
100
AcDbAlignedDimension
 13
2869.999999999955
 23
2609.480762113506
 33
0.0
 14
2611.000000000055
 24
2669.500000000005
 34
0.0
 50
90.0
100
AcDbRotatedDimension
1001
ACAD
1000
DSTYLE
1002
{
1070
   270
1070
     2
1070
     6
1000
EX_NONE
1070
     7
1000
EX_NORM
1070
    41
1040
44.99999618530273
1070
    42
1040
0.0
1070
    44
1040
0.0
1070
    73
1070
     0
1070
    74
1070
     0
1070
    75
1070
     1
1070
    76
1070
     0
1070
    77
1070
     1
1070
    78
1070
     8
1070
   140
1040
59.99999618530273
1070
   147
1040
0.0
1070
   173
1070
     1
1070
   176
1070
     3
1070
   177
1070
     3
1070
   178
1070
     2
1070
   271
1070
     1
1070
   277
1070
     2
1070
   279
1070
     2
1070
   280
1070
     2
1070
   287
1070
     5
1070
   340
1005
2F3
1002
}
  0
DIMENSION
  5
425
330
1F
100
AcDbEntity
  8
寸法
  6
CONTINUOUS
 62
     3
100
AcDbDimension
  2
*D37
 10
2491.000000000055
 20
2729.500000000005
 30
0.0
 11
2356.300000000054
 21
2764.749999910598
 31
0.0
 70
   160
  1
38
  3
ISO-25
100
AcDbAlignedDimension
 13
2453.800000000054
 23
2670.700000000005
 33
0.0
 14
2491.000000000055
 24
2668.500000000005
 34
0.0
100
AcDbRotatedDimension
1001
ACAD
1000
DSTYLE
1002
{
1070
   270
1070
     2
1070
     6
1000
EX_NORM
1070
     7
1000
EX_NORM
1070
    41
1040
44.99999618530273
1070
    42
1040
10.49999982118607
1070
    44
1040
15.0
1070
    73
1070
     0
1070
    74
1070
     0
1070
    75
1070
     0
1070
    76
1070
     1
1070
    77
1070
     1
1070
    78
1070
     8
1070
   140
1040
59.99999618530273
1070
   147
1040
0.0
1070
   173
1070
     1
1070
   176
1070
     3
1070
   177
1070
     3
1070
   178
1070
     2
1070
   271
1070
     2
1070
   277
1070
     2
1070
   279
1070
     2
1070
   280
1070
     1
1070
   287
1070
     5
1070
   340
1005
2F3
1002
}
  0
ENDSEC
  0
SECTION
  2
OBJECTS
  0
DICTIONARY
  5
C
330
0
100
AcDbDictionary
  3
ACAD_GROUP
350
D
  3
ACAD_LAYOUT
350
1A
  3
ACAD_MATERIAL
350
3B
  3
ACAD_MLEADERSTYLE
350
455
  3
ACAD_MLINESTYLE
350
17
  3
ACAD_PLOTSETTINGS
350
19
  3
ACAD_VISUALSTYLE
350
2A
  3
ACDBHEADERROUNDTRIPXREC
350
433
  3
ACDBVARIABLEDICTIONARY
350
453
  0
DICTIONARY
  5
D
102
{ACAD_REACTORS
330
C
102
}
330
C
100
AcDbDictionary
  0
DICTIONARY
  5
1A
102
{ACAD_REACTORS
330
C
102
}
330
C
100
AcDbDictionary
  0
DICTIONARY
  5
3B
102
{ACAD_REACTORS
330
C
102
}
330
C
100
AcDbDictionary
  3
BYBLOCK
350
3D
  3
BYLAYER
350
3C
  3
GLOBAL
350
3E
  0
DICTIONARY
  5
455
102
{ACAD_REACTORS
330
C
102
}
330
C
100
AcDbDictionary
  0
DICTIONARY
  5
17
102
{ACAD_REACTORS
330
C
102
}
330
C
100
AcDbDictionary
  3
STANDARD
350
18
  0
DICTIONARY
  5
19
102
{ACAD_REACTORS
330
C
102
}
330
C
100
AcDbDictionary
  0
DICTIONARY
  5
2A
102
{ACAD_REACTORS
330
C
102
}
330
C
100
AcDbDictionary
  3
2DWIREFRAME
350
2F
  3
3D_HIDDEN
350
31
  3
3DWIREFRAME
350
30
  3
BASIC
350
32
  3
BRIGHTEN
350
36
  3
COLORCHANGE
350
3A
  3
CONCEPTUAL
350
34
  3
DIM
350
35
  3
FACEPATTERN
350
39
  3
FLAT
350
2B
  3
FLATWITHEDGES
350
2C
  3
GOURAUD
350
2D
  3
GOURAUDWITHEDGES
350
2E
  3
LINEPATTERN
350
38
  3
REALISTIC
350
33
  3
THICKEN
350
37
  0
DICTIONARY
  5
433
102
{ACAD_REACTORS
330
C
102
}
330
C
100
AcDbDictionary
  3
CEPSNTYPE
350
43C
  3
DIMSTYLEDATA
350
452
  3
FINGERPRINTGUID
350
43D
  3
HYPERLINKBASE
350
436
  3
INSUNITS
350
43B
  3
LAYOUTDICT
350
438
  3
LWETCUNION
350
43A
  3
PLOTSETDICT
350
439
  3
PSVPSCALE
350
43F
  3
PUCSBASE
350
442
  3
PUCSORGBACK
350
448
  3
PUCSORGBOTTOM
350
444
  3
PUCSORGFRONT
350
447
  3
PUCSORGLEFT
350
445
  3
PUCSORGRIGHT
350
446
  3
PUCSORGTOP
350
443
  3
PUCSORTHOREF
350
440
  3
PUCSORTHOVIEW
350
441
  3
STYLESHEET
350
437
  3
TSTACKALIGN
350
434
  3
TSTACKSIZE
350
435
  3
UCSBASE
350
44B
  3
UCSORGBACK
350
451
  3
UCSORGBOTTOM
350
44D
  3
UCSORGFRONT
350
450
  3
UCSORGLEFT
350
44E
  3
UCSORGRIGHT
350
44F
  3
UCSORGTOP
350
44C
  3
UCSORTHOREF
350
449
  3
UCSORTHOVIEW
350
44A
  3
VERSIONGUID
350
43E
  0
DICTIONARY
  5
453
102
{ACAD_REACTORS
330
C
102
}
330
C
100
AcDbDictionary
  3
DIMASSOC
350
458
  3
HIDETEXT
350
459
  3
PSOLHEIGHT
350
457
  3
PSOLWIDTH
350
456
  0
MATERIAL
  5
3D
102
{ACAD_REACTORS
330
3B
102
}
102
{ACAD_XDICTIONARY
360
45C
102
}
330
3B
100
AcDbMaterial
  1
ByBlock
  0
MATERIAL
  5
3C
102
{ACAD_REACTORS
330
3B
102
}
102
{ACAD_XDICTIONARY
360
45A
102
}
330
3B
100
AcDbMaterial
  1
ByLayer
  0
MATERIAL
  5
3E
102
{ACAD_REACTORS
330
3B
102
}
102
{ACAD_XDICTIONARY
360
45E
102
}
330
3B
100
AcDbMaterial
  1
Global
  0
MLINESTYLE
  5
18
102
{ACAD_REACTORS
330
17
102
}
330
17
100
AcDbMlineStyle
  2
Standard
 70
     0
  3

 62
   256
 51
90.0
 52
90.0
 71
     2
 49
0.5
 62
   256
  6
BYLAYER
 49
-0.5
 62
   256
  6
BYLAYER
  0
ACAD_PROXY_OBJECT
  5
2F
102
{ACAD_REACTORS
330
2A
102
}
330
2A
100
AcDbProxyObject
 90
      499
 91
      501
 93
      436
310
42CC9915DA5C99599C985B595049028333333333333E3BF0000000000000FB0107901411070040501600405405064090741402480A0340
1001
ACAD
1000
AcDbSavedByObjectVersion
1070
     0
  0
ACAD_PROXY_OBJECT
  5
31
102
{ACAD_REACTORS
330
2A
102
}
330
2A
100
AcDbProxyObject
 90
      499
 91
      501
 93
      500
310
424CD108121A5919195B90640502408333333333333E3BF0000000000000FB01079024090700405020000000000001110200405405064090740C02480A0340
1001
ACAD
1000
AcDbSavedByObjectVersion
1070
     0
  0
ACAD_PROXY_OBJECT
  5
30
102
{ACAD_REACTORS
330
2A
102
}
330
2A
100
AcDbProxyObject
 90
      499
 91
      501
 93
      436
310
42CCD915DA5C99599C985B595059028333333333333E3BF0000000000000FB0107901411070040501600405405064090741402480A0340
1001
ACAD
1000
AcDbSavedByObjectVersion
1070
     0
  0
ACAD_PROXY_OBJECT
  5
32
102
{ACAD_REACTORS
330
2A
102
}
330
2A
100
AcDbProxyObject
 90
      499
 91
      501
 93
      388
310
4150985CDA58D07406404333333333333E3BF0000000000000FB0107A41107004050150841D405064090741402480A0350
1001
ACAD
1000
AcDbSavedByObjectVersion
1070
     0
  0
ACAD_PROXY_OBJECT
  5
36
102
{ACAD_REACTORS
330
2A
102
}
330
2A
100
AcDbProxyObject
 90
      499
 91
      501
 93
      428
310
42109C9A59DA1D195B90C409028333333333333E3BF0000000000000FB010790141107004050150841D405064090741402480A029950
1001
ACAD
1000
AcDbSavedByObjectVersion
1070
     0
  0
ACAD_PROXY_OBJECT
  5
3A
102
{ACAD_REACTORS
330
2A
102
}
330
2A
100
AcDbProxyObject
 90
      499
 91
      501
 93
      452
310
42D0DBDB1BDC90DA185B99D95104090240C333333333333E3BF0000000000000FB0108901411070040501508421405064090741402480A0350
1001
ACAD
1000
AcDbSavedByObjectVersion
1070
     0
  0
ACAD_PROXY_OBJECT
  5
34
102
{ACAD_REACTORS
330
2A
102
}
330
2A
100
AcDbProxyObject
 90
      499
 91
      501
 93
      500
310
4290DBDB98D95C1D1D585B10940D028333333333333E3BF0000000000000FB0107902409070040501000000000000111010841D405064090740C02480A0340
1001
ACAD
1000
AcDbSavedByObjectVersion
1070
     0
  0
ACAD_PROXY_OBJECT
  5
35
102
{ACAD_REACTORS
330
2A
102
}
330
2A
100
AcDbProxyObject
 90
      499
 91
      501
 93
      412
310
40D11A5B50B409028333333333333E3BF0000000000000FB010790141107004050150841D405064090741402480A02677FFFFFD0
1001
ACAD
1000
AcDbSavedByObjectVersion
1070
     0
  0
ACAD_PROXY_OBJECT
  5
39
102
{ACAD_REACTORS
330
2A
102
}
330
2A
100
AcDbProxyObject
 90
      499
 91
      501
 93
      444
310
42D19858D95C185D1D195C9B90F409028333333333333E3BF0000000000000FB010790141107004050150841D405064090741402480A0350
1001
ACAD
1000
AcDbSavedByObjectVersion
1070
     0
  0
ACAD_PROXY_OBJECT
  5
2B
102
{ACAD_REACTORS
330
2A
102
}
330
2A
100
AcDbProxyObject
 90
      499
 91
      501
 93
      388
310
41119B185D240901404333333333333E3BF0000000000000F9010740A41107004050150841D405064090741402480A1B50
1001
ACAD
1000
AcDbSavedByObjectVersion
1070
     0
  0
ACAD_PROXY_OBJECT
  5
2C
102
{ACAD_REACTORS
330
2A
102
}
330
2A
100
AcDbProxyObject
 90
      499
 91
      501
 93
      476
310
43519B185D15DA5D1A115919D95CD0140901404333333333333E3BF0000000000000F9010740901411070040501600405405064090741402480A1B50
1001
ACAD
1000
AcDbSavedByObjectVersion
1070
     0
  0
ACAD_PROXY_OBJECT
  5
2D
102
{ACAD_REACTORS
330
2A
102
}
330
2A
100
AcDbProxyObject
 90
      499
 91
      501
 93
      412
310
41D1DBDD5C985D5910240902404333333333333E3BF0000000000000F9010740A411070040501641D405064090741402480A1B50
1001
ACAD
1000
AcDbSavedByObjectVersion
1070
     0
  0
ACAD_PROXY_OBJECT
  5
2E
102
{ACAD_REACTORS
330
2A
102
}
330
2A
100
AcDbProxyObject
 90
      499
 91
      501
 93
      500
310
4411DBDD5C985D5915DA5D1A115919D95CD0340902404333333333333E3BF0000000000000F9010740901411070040501600405405064090741402480A1B50
1001
ACAD
1000
AcDbSavedByObjectVersion
1070
     0
  0
ACAD_PROXY_OBJECT
  5
38
102
{ACAD_REACTORS
330
2A
102
}
330
2A
100
AcDbProxyObject
 90
      499
 91
      501
 93
      444
310
42D31A5B995C185D1D195C9B90E409028333333333333E3BF0000000000000FB010790141107004050750841D405064090741402483A0350
1001
ACAD
1000
AcDbSavedByObjectVersion
1070
     0
  0
ACAD_PROXY_OBJECT
  5
33
102
{ACAD_REACTORS
330
2A
102
}
330
2A
100
AcDbProxyObject
 90
      499
 91
      501
 93
      420
310
425499585B1A5CDD1A58D08409028333333333333E3BF0000000000000FB01079019070040501508421405064090741402480A1B40
1001
ACAD
1000
AcDbSavedByObjectVersion
1070
     0
  0
ACAD_PROXY_OBJECT
  5
37
102
{ACAD_REACTORS
330
2A
102
}
330
2A
100
AcDbProxyObject
 90
      499
 91
      501
 93
      412
310
41D51A1A58DAD95B90D409028333333333333E3BF0000000000000FB010790141107004050150C41D405064090741402480A0350
1001
ACAD
1000
AcDbSavedByObjectVersion
1070
     0
  0
XRECORD
  5
43C
102
{ACAD_REACTORS
330
433
102
}
330
433
100
AcDbXrecord
 90
        0
  0
XRECORD
  5
452
102
{ACAD_REACTORS
330
433
102
}
330
433
100
AcDbXrecord
1000
DSTYLE
1002
{
1070
   340
340
11
1002
}
  0
XRECORD
  5
43D
102
{ACAD_REACTORS
330
433
102
}
330
433
100
AcDbXrecord
  1
{1B1893C1-1FE2-4962-ABC0-80B55A3859FF}
  0
XRECORD
  5
436
102
{ACAD_REACTORS
330
433
102
}
330
433
100
AcDbXrecord
  1

  0
XRECORD
  5
43B
102
{ACAD_REACTORS
330
433
102
}
330
433
100
AcDbXrecord
 90
        4
  0
XRECORD
  5
438
102
{ACAD_REACTORS
330
433
102
}
330
433
100
AcDbXrecord
340
1A
  0
XRECORD
  5
43A
102
{ACAD_REACTORS
330
433
102
}
330
433
100
AcDbXrecord
 90
    10781
  0
XRECORD
  5
439
102
{ACAD_REACTORS
330
433
102
}
330
433
100
AcDbXrecord
340
19
  0
XRECORD
  5
43F
102
{ACAD_REACTORS
330
433
102
}
330
433
100
AcDbXrecord
 40
0.0
  0
XRECORD
  5
442
102
{ACAD_REACTORS
330
433
102
}
330
433
100
AcDbXrecord
340
0
  0
XRECORD
  5
448
102
{ACAD_REACTORS
330
433
102
}
330
433
100
AcDbXrecord
 10
0.0
 20
0.0
 30
0.0
  0
XRECORD
  5
444
102
{ACAD_REACTORS
330
433
102
}
330
433
100
AcDbXrecord
 10
0.0
 20
0.0
 30
0.0
  0
XRECORD
  5
447
102
{ACAD_REACTORS
330
433
102
}
330
433
100
AcDbXrecord
 10
0.0
 20
0.0
 30
0.0
  0
XRECORD
  5
445
102
{ACAD_REACTORS
330
433
102
}
330
433
100
AcDbXrecord
 10
0.0
 20
0.0
 30
0.0
  0
XRECORD
  5
446
102
{ACAD_REACTORS
330
433
102
}
330
433
100
AcDbXrecord
 10
0.0
 20
0.0
 30
0.0
  0
XRECORD
  5
443
102
{ACAD_REACTORS
330
433
102
}
330
433
100
AcDbXrecord
 10
0.0
 20
0.0
 30
0.0
  0
XRECORD
  5
440
102
{ACAD_REACTORS
330
433
102
}
330
433
100
AcDbXrecord
340
0
  0
XRECORD
  5
441
102
{ACAD_REACTORS
330
433
102
}
330
433
100
AcDbXrecord
 70
     0
  0
XRECORD
  5
437
102
{ACAD_REACTORS
330
433
102
}
330
433
100
AcDbXrecord
  1

  0
XRECORD
  5
434
102
{ACAD_REACTORS
330
433
102
}
330
433
100
AcDbXrecord
 90
        1
  0
XRECORD
  5
435
102
{ACAD_REACTORS
330
433
102
}
330
433
100
AcDbXrecord
 90
       70
  0
XRECORD
  5
44B
102
{ACAD_REACTORS
330
433
102
}
330
433
100
AcDbXrecord
340
0
  0
XRECORD
  5
451
102
{ACAD_REACTORS
330
433
102
}
330
433
100
AcDbXrecord
 10
0.0
 20
0.0
 30
0.0
  0
XRECORD
  5
44D
102
{ACAD_REACTORS
330
433
102
}
330
433
100
AcDbXrecord
 10
0.0
 20
0.0
 30
0.0
  0
XRECORD
  5
450
102
{ACAD_REACTORS
330
433
102
}
330
433
100
AcDbXrecord
 10
0.0
 20
0.0
 30
0.0
  0
XRECORD
  5
44E
102
{ACAD_REACTORS
330
433
102
}
330
433
100
AcDbXrecord
 10
0.0
 20
0.0
 30
0.0
  0
XRECORD
  5
44F
102
{ACAD_REACTORS
330
433
102
}
330
433
100
AcDbXrecord
 10
0.0
 20
0.0
 30
0.0
  0
XRECORD
  5
44C
102
{ACAD_REACTORS
330
433
102
}
330
433
100
AcDbXrecord
 10
0.0
 20
0.0
 30
0.0
  0
XRECORD
  5
449
102
{ACAD_REACTORS
330
433
102
}
330
433
100
AcDbXrecord
340
0
  0
XRECORD
  5
44A
102
{ACAD_REACTORS
330
433
102
}
330
433
100
AcDbXrecord
 70
     0
  0
XRECORD
  5
43E
102
{ACAD_REACTORS
330
433
102
}
330
433
100
AcDbXrecord
  1
{FAEB1C32-E019-11D5-929B-00C0DF256EC4}
  0
DICTIONARYVAR
  5
458
102
{ACAD_REACTORS
330
453
102
}
330
453
100
DictionaryVariables
280
     0
  1
2
  0
DICTIONARYVAR
  5
459
102
{ACAD_REACTORS
330
453
102
}
330
453
100
DictionaryVariables
280
     0
  1
1
  0
DICTIONARYVAR
  5
457
102
{ACAD_REACTORS
330
453
102
}
330
453
100
DictionaryVariables
280
     0
  1
80.000000
  0
DICTIONARYVAR
  5
456
102
{ACAD_REACTORS
330
453
102
}
330
453
100
DictionaryVariables
280
     0
  1
5.000000
  0
DICTIONARY
  5
45C
330
3D
100
AcDbDictionary
280
     1
  3
ACAD_XREC_ROUNDTRIP
360
45D
  0
DICTIONARY
  5
45A
330
3C
100
AcDbDictionary
280
     1
  3
ACAD_XREC_ROUNDTRIP
360
45B
  0
DICTIONARY
  5
45E
330
3E
100
AcDbDictionary
280
     1
  3
ACAD_XREC_ROUNDTRIP
360
45F
  0
XRECORD
  5
45D
102
{ACAD_REACTORS
330
45C
102
}
330
45C
100
AcDbXrecord
102
MATERIAL
148
0.0
149
0.0
149
0.0
 93
        0
 94
      127
282
     0
 72
     1
 77
     1
171
     1
175
     1
179
     1
273
     0
  0
XRECORD
  5
45B
102
{ACAD_REACTORS
330
45A
102
}
330
45A
100
AcDbXrecord
102
MATERIAL
148
0.0
149
0.0
149
0.0
 93
        0
 94
      127
282
     0
 72
     1
 77
     1
171
     1
175
     1
179
     1
273
     0
  0
XRECORD
  5
45F
102
{ACAD_REACTORS
330
45E
102
}
330
45E
100
AcDbXrecord
102
MATERIAL
148
0.0
149
0.0
149
0.0
 93
        0
 94
      127
282
     0
 72
     1
 77
     1
171
     1
175
     1
179
     1
273
     0
  0
ENDSEC
  0
EOF
