  0
SECTION
  2
HEADER
  9
$ACADVER
  1
AC1014
  9
$ACADMAINTVER
 70
     9
  9
$DWGCODEPAGE
  3
ANSI_932
  9
$INSBASE
 10
0.0
 20
0.0
 30
0.0
  9
$EXTMIN
 10
-0.6000000000000136
 20
9.100000000000001
 30
0.0
  9
$EXTMAX
 10
199.4000000000001
 20
289.1
 30
0.0
  9
$LIMMIN
 10
0.0
 20
0.0
  9
$LIMMAX
 10
210.0
 20
297.0
  9
$ORTHOMODE
 70
     0
  9
$REGENMODE
 70
     1
  9
$FILLMODE
 70
     1
  9
$QTEXTMODE
 70
     0
  9
$MIRRTEXT
 70
     1
  9
$DRAGMODE
 70
     2
  9
$LTSCALE
 40
1.0
  9
$OSMODE
 70
    37
  9
$ATTMODE
 70
     1
  9
$TEXTSIZE
 40
2.5
  9
$TRACEWID
 40
1.0
  9
$TEXTSTYLE
  7
STANDARD
  9
$CLAYER
  8
図
  9
$CELTYPE
  6
BYLAYER
  9
$CECOLOR
 62
   256
  9
$CELTSCALE
 40
1.0
  9
$DELOBJ
 70
     1
  9
$DISPSILH
 70
     0
  9
$DIMSCALE
 40
1.0
  9
$DIMASZ
 40
2.5
  9
$DIMEXO
 40
0.625
  9
$DIMDLI
 40
3.75
  9
$DIMRND
 40
0.0
  9
$DIMDLE
 40
0.0
  9
$DIMEXE
 40
1.25
  9
$DIMTP
 40
0.0
  9
$DIMTM
 40
0.0
  9
$DIMTXT
 40
2.5
  9
$DIMCEN
 40
2.5
  9
$DIMTSZ
 40
0.0
  9
$DIMTOL
 70
     0
  9
$DIMLIM
 70
     0
  9
$DIMTIH
 70
     0
  9
$DIMTOH
 70
     0
  9
$DIMSE1
 70
     0
  9
$DIMSE2
 70
     0
  9
$DIMTAD
 70
     1
  9
$DIMZIN
 70
     8
  9
$DIMBLK
  1

  9
$DIMASO
 70
     1
  9
$DIMSHO
 70
     1
  9
$DIMPOST
  1

  9
$DIMAPOST
  1

  9
$DIMALT
 70
     0
  9
$DIMALTD
 70
     3
  9
$DIMALTF
 40
0.03937007874016
  9
$DIMLFAC
 40
1.0
  9
$DIMTOFL
 70
     1
  9
$DIMTVP
 40
0.0
  9
$DIMTIX
 70
     0
  9
$DIMSOXD
 70
     0
  9
$DIMSAH
 70
     0
  9
$DIMBLK1
  1

  9
$DIMBLK2
  1

  9
$DIMSTYLE
  2
ISO-25
  9
$DIMCLRD
 70
     0
  9
$DIMCLRE
 70
     0
  9
$DIMCLRT
 70
     0
  9
$DIMTFAC
 40
1.0
  9
$DIMGAP
 40
0.625
  9
$DIMJUST
 70
     0
  9
$DIMSD1
 70
     0
  9
$DIMSD2
 70
     0
  9
$DIMTOLJ
 70
     0
  9
$DIMTZIN
 70
     8
  9
$DIMALTZ
 70
     0
  9
$DIMALTTZ
 70
     0
  9
$DIMFIT
 70
     3
  9
$DIMUPT
 70
     0
  9
$DIMUNIT
 70
     2
  9
$DIMDEC
 70
     2
  9
$DIMTDEC
 70
     2
  9
$DIMALTU
 70
     2
  9
$DIMALTTD
 70
     3
  9
$DIMTXSTY
  7
STANDARD
  9
$DIMAUNIT
 70
     0
  9
$LUNITS
 70
     2
  9
$LUPREC
 70
     4
  9
$SKETCHINC
 40
1.0
  9
$FILLETRAD
 40
10.0
  9
$AUNITS
 70
     0
  9
$AUPREC
 70
     0
  9
$MENU
  1
.
  9
$ELEVATION
 40
0.0
  9
$PELEVATION
 40
0.0
  9
$THICKNESS
 40
0.0
  9
$LIMCHECK
 70
     0
  9
$CHAMFERA
 40
10.0
  9
$CHAMFERB
 40
10.0
  9
$CHAMFERC
 40
20.0
  9
$CHAMFERD
 40
0.0
  9
$SKPOLY
 70
     0
  9
$TDCREATE
 40
2460368.627510613
  9
$TDUPDATE
 40
2460368.62751081
  9
$TDINDWG
 40
0.0000000116
  9
$TDUSRTIMER
 40
0.0000000116
  9
$USRTIMER
 70
     1
  9
$ANGBASE
 50
0.0
  9
$ANGDIR
 70
     0
  9
$PDMODE
 70
     0
  9
$PDSIZE
 40
0.0
  9
$PLINEWID
 40
0.0
  9
$COORDS
 70
     1
  9
$SPLFRAME
 70
     0
  9
$SPLINETYPE
 70
     6
  9
$SPLINESEGS
 70
     8
  9
$ATTDIA
 70
     0
  9
$ATTREQ
 70
     1
  9
$HANDLING
 70
     1
  9
$HANDSEED
  5
64D
  9
$SURFTAB1
 70
     6
  9
$SURFTAB2
 70
     6
  9
$SURFTYPE
 70
     6
  9
$SURFU
 70
     6
  9
$SURFV
 70
     6
  9
$UCSNAME
  2

  9
$UCSORG
 10
0.0
 20
0.0
 30
0.0
  9
$UCSXDIR
 10
1.0
 20
0.0
 30
0.0
  9
$UCSYDIR
 10
0.0
 20
1.0
 30
0.0
  9
$PUCSNAME
  2

  9
$PUCSORG
 10
0.0
 20
0.0
 30
0.0
  9
$PUCSXDIR
 10
1.0
 20
0.0
 30
0.0
  9
$PUCSYDIR
 10
0.0
 20
1.0
 30
0.0
  9
$USERI1
 70
     0
  9
$USERI2
 70
     0
  9
$USERI3
 70
     0
  9
$USERI4
 70
     0
  9
$USERI5
 70
     0
  9
$USERR1
 40
0.0
  9
$USERR2
 40
0.0
  9
$USERR3
 40
0.0
  9
$USERR4
 40
0.0
  9
$USERR5
 40
0.0
  9
$WORLDVIEW
 70
     1
  9
$SHADEDGE
 70
     3
  9
$SHADEDIF
 70
    70
  9
$TILEMODE
 70
     1
  9
$MAXACTVP
 70
    64
  9
$PINSBASE
 10
0.0
 20
0.0
 30
0.0
  9
$PLIMCHECK
 70
     0
  9
$PEXTMIN
 10
1.000000000000000E+20
 20
1.000000000000000E+20
 30
1.000000000000000E+20
  9
$PEXTMAX
 10
-1.000000000000000E+20
 20
-1.000000000000000E+20
 30
-1.000000000000000E+20
  9
$PLIMMIN
 10
0.0
 20
0.0
  9
$PLIMMAX
 10
420.0
 20
297.0
  9
$UNITMODE
 70
     0
  9
$VISRETAIN
 70
     1
  9
$PLINEGEN
 70
     0
  9
$PSLTSCALE
 70
     1
  9
$TREEDEPTH
 70
  3020
  9
$PICKSTYLE
 70
     1
  9
$CMLSTYLE
  2
STANDARD
  9
$CMLJUST
 70
     0
  9
$CMLSCALE
 40
20.0
  9
$PROXYGRAPHICS
 70
     1
  9
$MEASUREMENT
 70
     1
  0
ENDSEC
  0
SECTION
  2
CLASSES
  0
CLASS
  1
ACDBDICTIONARYWDFLT
  2
AcDbDictionaryWithDefault
  3
ObjectDBX Classes
 90
        0
280
     0
281
     0
  0
CLASS
  1
VISUALSTYLE
  2
AcDbVisualStyle
  3
ObjectDBX Classes
 90
     4095
280
     0
281
     0
  0
CLASS
  1
MATERIAL
  2
AcDbMaterial
  3
ObjectDBX Classes
 90
     1153
280
     0
281
     0
  0
CLASS
  1
SUN
  2
AcDbSun
  3
SCENEOE
 90
     1024
280
     0
281
     0
  0
CLASS
  1
DICTIONARYVAR
  2
AcDbDictionaryVar
  3
ObjectDBX Classes
 90
        0
280
     0
281
     0
  0
CLASS
  1
XRECORD
  2
AcDbXrecord
  3
AutoCAD 2000
 90
        0
280
     0
281
     0
  0
CLASS
  1
LWPOLYLINE
  2
AcDbPolyline
  3
AutoCAD 2000
 90
        0
280
     0
281
     1
  0
CLASS
  1
HATCH
  2
AcDbHatch
  3
AutoCAD 2000
 90
        0
280
     0
281
     1
  0
CLASS
  1
ACDBPLACEHOLDER
  2
AcDbPlaceHolder
  3
ObjectDBX Classes
 90
        0
280
     0
281
     0
  0
CLASS
  1
LAYOUT
  2
AcDbLayout
  3
ObjectDBX Classes
 90
        0
280
     0
281
     0
  0
ENDSEC
  0
SECTION
  2
TABLES
  0
TABLE
  2
VPORT
  5
8
330
0
100
AcDbSymbolTable
 70
     1
  0
VPORT
  5
29
330
8
100
AcDbSymbolTableRecord
100
AcDbViewportTableRecord
  2
*ACTIVE
 70
     0
 10
0.0
 20
0.0
 11
1.0
 21
1.0
 12
497.0000000000002
 22
745.5000000000001
 13
0.0
 23
0.0
 14
10.0
 24
10.0
 15
10.0
 25
10.0
 16
0.0
 26
0.0
 36
1.0
 17
0.0
 27
0.0
 37
0.0
 40
1400.0
 41
0.7142857142857147
 42
50.0
 43
0.0
 44
0.0
 50
0.0
 51
0.0
 71
     0
 72
  1000
 73
     1
 74
     3
 75
     0
 76
     0
 77
     0
 78
     0
  0
ENDTAB
  0
TABLE
  2
LTYPE
  5
5
330
0
100
AcDbSymbolTable
 70
     9
  0
LTYPE
  5
14
330
5
100
AcDbSymbolTableRecord
100
AcDbLinetypeTableRecord
  2
BYBLOCK
 70
     0
  3

 72
    65
 73
     0
 40
0.0
  0
LTYPE
  5
15
330
5
100
AcDbSymbolTableRecord
100
AcDbLinetypeTableRecord
  2
BYLAYER
 70
     0
  3

 72
    65
 73
     0
 40
0.0
  0
LTYPE
  5
16
330
5
100
AcDbSymbolTableRecord
100
AcDbLinetypeTableRecord
  2
CONTINUOUS
 70
     0
  3
Solid line
 72
    65
 73
     0
 40
0.0
  0
LTYPE
  5
40
330
5
100
AcDbSymbolTableRecord
100
AcDbLinetypeTableRecord
  2
EXLTYPE1
 70
     0
  3
破線
 72
    65
 73
     2
 40
3.0
 49
2.0
 74
     0
 49
-1.0
 74
     0
  0
LTYPE
  5
41
330
5
100
AcDbSymbolTableRecord
100
AcDbLinetypeTableRecord
  2
EXLTYPE2
 70
     0
  3
点線
 72
    65
 73
     2
 40
2.0
 49
1.0
 74
     0
 49
-1.0
 74
     0
  0
LTYPE
  5
42
330
5
100
AcDbSymbolTableRecord
100
AcDbLinetypeTableRecord
  2
EXLTYPE3
 70
     0
  3
一点鎖線
 72
    65
 73
     4
 40
10.0
 49
7.0
 74
     0
 49
-1.0
 74
     0
 49
1.0
 74
     0
 49
-1.0
 74
     0
  0
LTYPE
  5
43
330
5
100
AcDbSymbolTableRecord
100
AcDbLinetypeTableRecord
  2
EXLTYPE4
 70
     0
  3
二点鎖線
 72
    65
 73
     6
 40
12.0
 49
7.0
 74
     0
 49
-1.0
 74
     0
 49
1.0
 74
     0
 49
-1.0
 74
     0
 49
1.0
 74
     0
 49
-1.0
 74
     0
  0
LTYPE
  5
44
330
5
100
AcDbSymbolTableRecord
100
AcDbLinetypeTableRecord
  2
EXLTYPE5
 70
     0
  3
三点鎖線
 72
    65
 73
     8
 40
37.0
 49
30.0
 74
     0
 49
-1.0
 74
     0
 49
1.0
 74
     0
 49
-1.0
 74
     0
 49
1.0
 74
     0
 49
-1.0
 74
     0
 49
1.0
 74
     0
 49
-1.0
 74
     0
  0
LTYPE
  5
45
330
5
100
AcDbSymbolTableRecord
100
AcDbLinetypeTableRecord
  2
EXLTYPE6
 70
     0
  3
四点鎖線
 72
    65
 73
    10
 40
39.0
 49
30.0
 74
     0
 49
-1.0
 74
     0
 49
1.0
 74
     0
 49
-1.0
 74
     0
 49
1.0
 74
     0
 49
-1.0
 74
     0
 49
1.0
 74
     0
 49
-1.0
 74
     0
 49
1.0
 74
     0
 49
-1.0
 74
     0
  0
LTYPE
  5
46
330
5
100
AcDbSymbolTableRecord
100
AcDbLinetypeTableRecord
  2
EXLTYPE7
 70
     0
  3
一点鎖線4
 72
    65
 73
     4
 40
4.283333333333333
 49
2.1
 74
     0
 49
-1.05
 74
     0
 49
0.0833333333333333
 74
     0
 49
-1.05
 74
     0
  0
LTYPE
  5
47
330
5
100
AcDbSymbolTableRecord
100
AcDbLinetypeTableRecord
  2
EXLTYPE8
 70
     0
  3
二点鎖線4
 72
    65
 73
     6
 40
5.416666666666666
 49
2.1
 74
     0
 49
-1.05
 74
     0
 49
0.0833333333333333
 74
     0
 49
-1.05
 74
     0
 49
0.0833333333333333
 74
     0
 49
-1.05
 74
     0
  0
ENDTAB
  0
TABLE
  2
LAYER
  5
2
330
0
100
AcDbSymbolTable
 70
     4
  0
LAYER
  5
10
330
2
100
AcDbSymbolTableRecord
100
AcDbLayerTableRecord
  2
0
 70
     0
 62
     7
  6
CONTINUOUS
  0
LAYER
  5
4A
330
2
100
AcDbSymbolTableRecord
100
AcDbLayerTableRecord
  2
図枠
 70
     0
 62
     7
  6
CONTINUOUS
  0
LAYER
  5
4B
330
2
100
AcDbSymbolTableRecord
100
AcDbLayerTableRecord
  2
図
 70
     0
 62
     7
  6
CONTINUOUS
  0
LAYER
  5
154
330
2
100
AcDbSymbolTableRecord
100
AcDbLayerTableRecord
  2
DEFPOINTS
 70
     0
 62
     7
  6
CONTINUOUS
  0
ENDTAB
  0
TABLE
  2
STYLE
  5
3
330
0
100
AcDbSymbolTable
 70
     5
  0
STYLE
  5
11
330
3
100
AcDbSymbolTableRecord
100
AcDbTextStyleTableRecord
  2
STANDARD
 70
     0
 40
0.0
 41
1.0
 50
0.0
 71
     0
 42
2.5
  3
monotxt
  4
extfont
  0
STYLE
  5
48
330
3
100
AcDbSymbolTableRecord
100
AcDbTextStyleTableRecord
  2
EXCADSTD
 70
     0
 40
0.0
 41
1.0
 50
0.0
 71
     0
 42
0.2
  3
monotxt
  4
extfont
  0
STYLE
  5
49
330
3
100
AcDbSymbolTableRecord
100
AcDbTextStyleTableRecord
  2
EXCADVERT
 70
     4
 40
0.0
 41
1.0
 50
0.0
 71
     0
 42
0.286885
  3
monotxt
  4
extfont
  0
STYLE
  5
A8
330
3
100
AcDbSymbolTableRecord
100
AcDbTextStyleTableRecord
  2
EXCADTTF1
 70
     0
 40
0.0
 41
1.0
 50
0.0
 71
     0
 42
0.2
  3
MSGOTHIC.TTC
  4

1001
ACAD
1000
MS Gothic
1071
    32817
  0
STYLE
  5
152
330
3
100
AcDbSymbolTableRecord
100
AcDbTextStyleTableRecord
  2
EXCADDIM1
 70
     0
 40
0.0
 41
0.84
 50
0.0
 71
     0
 42
0.2
  3
monotxt
  4
extfont
  0
ENDTAB
  0
TABLE
  2
VIEW
  5
6
330
0
100
AcDbSymbolTable
 70
     0
  0
ENDTAB
  0
TABLE
  2
UCS
  5
7
330
0
100
AcDbSymbolTable
 70
     0
  0
ENDTAB
  0
TABLE
  2
APPID
  5
9
330
0
100
AcDbSymbolTable
 70
     1
  0
APPID
  5
12
330
9
100
AcDbSymbolTableRecord
100
AcDbRegAppTableRecord
  2
ACAD
 70
     0
  0
ENDTAB
  0
TABLE
  2
DIMSTYLE
  5
A
330
0
100
AcDbSymbolTable
 70
     1
  0
DIMSTYLE
105
27
102
{ACAD_REACTORS
330
153
330
161
330
170
330
17D
330
295
330
2A4
330
2B1
330
2BE
330
2CB
102
}
330
A
100
AcDbSymbolTableRecord
100
AcDbDimStyleTableRecord
  2
ISO-25
 70
     0
  3

  4

  5

  6

  7

 40
1.0
 41
2.5
 42
0.625
 43
3.75
 44
1.25
 45
0.0
 46
0.0
 47
0.0
 48
0.0
140
2.5
141
2.5
142
0.0
143
0.03937007874016
144
1.0
145
0.0
146
1.0
147
0.625
 71
     0
 72
     0
 73
     0
 74
     0
 75
     0
 76
     0
 77
     1
 78
     8
170
     0
171
     3
172
     1
173
     0
174
     0
175
     0
176
     0
177
     0
178
     0
270
     2
271
     2
272
     2
273
     2
274
     3
340
11
275
     0
280
     0
281
     0
282
     0
283
     0
284
     8
285
     0
286
     0
287
     5
288
     0
  0
ENDTAB
  0
TABLE
  2
BLOCK_RECORD
  5
1
330
0
100
AcDbSymbolTable
 70
    24
  0
BLOCK_RECORD
  5
1F
330
1
100
AcDbSymbolTableRecord
100
AcDbBlockTableRecord
  2
*MODEL_SPACE
  0
BLOCK_RECORD
  5
1B
330
1
100
AcDbSymbolTableRecord
100
AcDbBlockTableRecord
  2
*PAPER_SPACE
  0
BLOCK_RECORD
  5
4C
330
1
100
AcDbSymbolTableRecord
100
AcDbBlockTableRecord
  2
EX_NORM
  0
BLOCK_RECORD
  5
4F
330
1
100
AcDbSymbolTableRecord
100
AcDbBlockTableRecord
  2
EX_BNORM
  0
BLOCK_RECORD
  5
52
330
1
100
AcDbSymbolTableRecord
100
AcDbBlockTableRecord
  2
EX_BCIR
  0
BLOCK_RECORD
  5
55
330
1
100
AcDbSymbolTableRecord
100
AcDbBlockTableRecord
  2
EX_RCIVIL
  0
BLOCK_RECORD
  5
58
330
1
100
AcDbSymbolTableRecord
100
AcDbBlockTableRecord
  2
EX_SLANT
  0
BLOCK_RECORD
  5
5B
330
1
100
AcDbSymbolTableRecord
100
AcDbBlockTableRecord
  2
EX_NONE
  0
BLOCK_RECORD
  5
5E
330
1
100
AcDbSymbolTableRecord
100
AcDbBlockTableRecord
  2
EX_CIVIL
  0
BLOCK_RECORD
  5
61
330
1
100
AcDbSymbolTableRecord
100
AcDbBlockTableRecord
  2
EX_WCIR
  0
BLOCK_RECORD
  5
64
330
1
100
AcDbSymbolTableRecord
100
AcDbBlockTableRecord
  2
EX_WCIR2
  0
BLOCK_RECORD
  5
67
330
1
100
AcDbSymbolTableRecord
100
AcDbBlockTableRecord
  2
EX_WNORM
  0
BLOCK_RECORD
  5
6A
330
1
100
AcDbSymbolTableRecord
100
AcDbBlockTableRecord
  2
EX_NNORM
  0
BLOCK_RECORD
  5
6D
330
1
100
AcDbSymbolTableRecord
100
AcDbBlockTableRecord
  2
EX_BBOX
  0
BLOCK_RECORD
  5
70
330
1
100
AcDbSymbolTableRecord
100
AcDbBlockTableRecord
  2
EX_WBOX
  0
BLOCK_RECORD
  5
73
330
1
100
AcDbSymbolTableRecord
100
AcDbBlockTableRecord
  2
EX_INTEGRAL
  0
BLOCK_RECORD
  5
155
330
1
100
AcDbSymbolTableRecord
100
AcDbBlockTableRecord
  2
*D15
  0
BLOCK_RECORD
  5
162
330
1
100
AcDbSymbolTableRecord
100
AcDbBlockTableRecord
  2
*D16
  0
BLOCK_RECORD
  5
171
330
1
100
AcDbSymbolTableRecord
100
AcDbBlockTableRecord
  2
*D17
  0
BLOCK_RECORD
  5
17E
330
1
100
AcDbSymbolTableRecord
100
AcDbBlockTableRecord
  2
*D18
  0
BLOCK_RECORD
  5
296
330
1
100
AcDbSymbolTableRecord
100
AcDbBlockTableRecord
  2
*D19
  0
BLOCK_RECORD
  5
2A5
330
1
100
AcDbSymbolTableRecord
100
AcDbBlockTableRecord
  2
*D20
  0
BLOCK_RECORD
  5
2B2
330
1
100
AcDbSymbolTableRecord
100
AcDbBlockTableRecord
  2
*D21
  0
BLOCK_RECORD
  5
2BF
330
1
100
AcDbSymbolTableRecord
100
AcDbBlockTableRecord
  2
*D22
  0
BLOCK_RECORD
  5
2CC
330
1
100
AcDbSymbolTableRecord
100
AcDbBlockTableRecord
  2
*D23
  0
ENDTAB
  0
ENDSEC
  0
SECTION
  2
BLOCKS
  0
BLOCK
  5
20
330
1F
100
AcDbEntity
  8
0
100
AcDbBlockBegin
  2
*MODEL_SPACE
 70
     0
 10
0.0
 20
0.0
 30
0.0
  3
*MODEL_SPACE
  1

  0
ENDBLK
  5
21
330
1F
100
AcDbEntity
  8
0
100
AcDbBlockEnd
  0
BLOCK
  5
1C
330
1B
100
AcDbEntity
 67
     1
  8
0
100
AcDbBlockBegin
  2
*PAPER_SPACE
 70
     0
 10
0.0
 20
0.0
 30
0.0
  3
*PAPER_SPACE
  1

  0
ENDBLK
  5
1D
330
1B
100
AcDbEntity
 67
     1
  8
0
100
AcDbBlockEnd
  0
BLOCK
  5
4D
330
4C
100
AcDbEntity
  8
0
100
AcDbBlockBegin
  2
EX_NORM
 70
     0
 10
0.0
 20
0.0
 30
0.0
  3
EX_NORM
  1

  0
LINE
  5
76
330
4C
100
AcDbEntity
  8
0
  6
CONTINUOUS
 62
     0
100
AcDbLine
 10
0.0
 20
0.0
 30
0.0
 11
-1.0
 21
0.0
 31
0.0
  0
LINE
  5
77
330
4C
100
AcDbEntity
  8
0
  6
CONTINUOUS
 62
     0
100
AcDbLine
 10
0.0
 20
0.0
 30
0.0
 11
-1.0
 21
0.166666667
 31
0.0
  0
LINE
  5
78
330
4C
100
AcDbEntity
  8
0
  6
CONTINUOUS
 62
     0
100
AcDbLine
 10
0.0
 20
0.0
 30
0.0
 11
-1.0
 21
-0.166666667
 31
0.0
  0
ENDBLK
  5
4E
330
4C
100
AcDbEntity
  8
0
100
AcDbBlockEnd
  0
BLOCK
  5
50
330
4F
100
AcDbEntity
  8
0
100
AcDbBlockBegin
  2
EX_BNORM
 70
     0
 10
0.0
 20
0.0
 30
0.0
  3
EX_BNORM
  1

  0
LINE
  5
79
330
4F
100
AcDbEntity
  8
0
  6
CONTINUOUS
 62
     0
100
AcDbLine
 10
0.0
 20
0.0
 30
0.0
 11
-1.0
 21
0.0
 31
0.0
  0
LINE
  5
7A
330
4F
100
AcDbEntity
  8
0
  6
CONTINUOUS
 62
     0
100
AcDbLine
 10
0.0
 20
0.0
 30
0.0
 11
-1.0
 21
0.166666667
 31
0.0
  0
LINE
  5
7B
330
4F
100
AcDbEntity
  8
0
  6
CONTINUOUS
 62
     0
100
AcDbLine
 10
0.0
 20
0.0
 30
0.0
 11
-1.0
 21
-0.166666667
 31
0.0
  0
LINE
  5
7C
330
4F
100
AcDbEntity
  8
0
  6
CONTINUOUS
 62
     0
100
AcDbLine
 10
0.0
 20
0.0
 30
0.0
 11
-1.0
 21
0.083333333
 31
0.0
  0
LINE
  5
7D
330
4F
100
AcDbEntity
  8
0
  6
CONTINUOUS
 62
     0
100
AcDbLine
 10
0.0
 20
0.0
 30
0.0
 11
-1.0
 21
-0.083333333
 31
0.0
  0
LINE
  5
7E
330
4F
100
AcDbEntity
  8
0
  6
CONTINUOUS
 62
     0
100
AcDbLine
 10
-1.0
 20
0.166666667
 30
0.0
 11
-1.0
 21
-0.166666667
 31
0.0
  0
ENDBLK
  5
51
330
4F
100
AcDbEntity
  8
0
100
AcDbBlockEnd
  0
BLOCK
  5
53
330
52
100
AcDbEntity
  8
0
100
AcDbBlockBegin
  2
EX_BCIR
 70
     0
 10
0.0
 20
0.0
 30
0.0
  3
EX_BCIR
  1

  0
LINE
  5
7F
330
52
100
AcDbEntity
  8
0
  6
CONTINUOUS
 62
     0
100
AcDbLine
 10
0.0
 20
0.0
 30
0.0
 11
-1.0
 21
0.0
 31
0.0
  0
CIRCLE
  5
80
330
52
100
AcDbEntity
  8
0
  6
CONTINUOUS
 62
     0
100
AcDbCircle
 10
0.0
 20
0.0
 30
0.0
 40
0.5
  0
CIRCLE
  5
81
330
52
100
AcDbEntity
  8
0
  6
CONTINUOUS
 62
     0
100
AcDbCircle
 10
0.0
 20
0.0
 30
0.0
 40
0.25
  0
ENDBLK
  5
54
330
52
100
AcDbEntity
  8
0
100
AcDbBlockEnd
  0
BLOCK
  5
56
330
55
100
AcDbEntity
  8
0
100
AcDbBlockBegin
  2
EX_RCIVIL
 70
     0
 10
0.0
 20
0.0
 30
0.0
  3
EX_RCIVIL
  1

  0
LINE
  5
82
330
55
100
AcDbEntity
  8
0
  6
CONTINUOUS
 62
     0
100
AcDbLine
 10
0.0
 20
0.0
 30
0.0
 11
-1.0
 21
0.0
 31
0.0
  0
LINE
  5
83
330
55
100
AcDbEntity
  8
0
  6
CONTINUOUS
 62
     0
100
AcDbLine
 10
-1.0
 20
-0.25
 30
0.0
 11
0.0
 21
-0.25
 31
0.0
  0
LINE
  5
84
330
55
100
AcDbEntity
  8
0
  6
CONTINUOUS
 62
     0
100
AcDbLine
 10
-1.0
 20
-0.125
 30
0.0
 11
0.0
 21
-0.125
 31
0.0
  0
ENDBLK
  5
57
330
55
100
AcDbEntity
  8
0
100
AcDbBlockEnd
  0
BLOCK
  5
59
330
58
100
AcDbEntity
  8
0
100
AcDbBlockBegin
  2
EX_SLANT
 70
     0
 10
0.0
 20
0.0
 30
0.0
  3
EX_SLANT
  1

  0
LINE
  5
85
330
58
100
AcDbEntity
  8
0
  6
CONTINUOUS
 62
     0
100
AcDbLine
 10
0.0
 20
0.0
 30
0.0
 11
-1.0
 21
0.0
 31
0.0
  0
LINE
  5
86
330
58
100
AcDbEntity
  8
0
  6
CONTINUOUS
 62
     0
100
AcDbLine
 10
0.707106781
 20
0.707106781
 30
0.0
 11
-0.707106781
 21
-0.707106781
 31
0.0
  0
ENDBLK
  5
5A
330
58
100
AcDbEntity
  8
0
100
AcDbBlockEnd
  0
BLOCK
  5
5C
330
5B
100
AcDbEntity
  8
0
100
AcDbBlockBegin
  2
EX_NONE
 70
     0
 10
0.0
 20
0.0
 30
0.0
  3
EX_NONE
  1

  0
LINE
  5
87
330
5B
100
AcDbEntity
  8
0
  6
CONTINUOUS
 62
     0
100
AcDbLine
 10
0.0
 20
0.0
 30
0.0
 11
-1.0
 21
0.0
 31
0.0
  0
ENDBLK
  5
5D
330
5B
100
AcDbEntity
  8
0
100
AcDbBlockEnd
  0
BLOCK
  5
5F
330
5E
100
AcDbEntity
  8
0
100
AcDbBlockBegin
  2
EX_CIVIL
 70
     0
 10
0.0
 20
0.0
 30
0.0
  3
EX_CIVIL
  1

  0
LINE
  5
88
330
5E
100
AcDbEntity
  8
0
  6
CONTINUOUS
 62
     0
100
AcDbLine
 10
0.0
 20
0.0
 30
0.0
 11
-1.0
 21
0.0
 31
0.0
  0
LINE
  5
89
330
5E
100
AcDbEntity
  8
0
  6
CONTINUOUS
 62
     0
100
AcDbLine
 10
-1.0
 20
0.25
 30
0.0
 11
0.0
 21
0.25
 31
0.0
  0
LINE
  5
8A
330
5E
100
AcDbEntity
  8
0
  6
CONTINUOUS
 62
     0
100
AcDbLine
 10
-1.0
 20
0.125
 30
0.0
 11
0.0
 21
0.125
 31
0.0
  0
ENDBLK
  5
60
330
5E
100
AcDbEntity
  8
0
100
AcDbBlockEnd
  0
BLOCK
  5
62
330
61
100
AcDbEntity
  8
0
100
AcDbBlockBegin
  2
EX_WCIR
 70
     0
 10
0.0
 20
0.0
 30
0.0
  3
EX_WCIR
  1

  0
LINE
  5
8B
330
61
100
AcDbEntity
  8
0
  6
CONTINUOUS
 62
     0
100
AcDbLine
 10
0.0
 20
0.0
 30
0.0
 11
-1.0
 21
0.0
 31
0.0
  0
CIRCLE
  5
8C
330
61
100
AcDbEntity
  8
0
  6
CONTINUOUS
 62
     0
100
AcDbCircle
 10
0.0
 20
0.0
 30
0.0
 40
0.5
  0
ENDBLK
  5
63
330
61
100
AcDbEntity
  8
0
100
AcDbBlockEnd
  0
BLOCK
  5
65
330
64
100
AcDbEntity
  8
0
100
AcDbBlockBegin
  2
EX_WCIR2
 70
     0
 10
0.0
 20
0.0
 30
0.0
  3
EX_WCIR2
  1

  0
LINE
  5
8D
330
64
100
AcDbEntity
  8
0
  6
CONTINUOUS
 62
     0
100
AcDbLine
 10
-0.5
 20
0.0
 30
0.0
 11
-1.0
 21
0.0
 31
0.0
  0
CIRCLE
  5
8E
330
64
100
AcDbEntity
  8
0
  6
CONTINUOUS
 62
     0
100
AcDbCircle
 10
0.0
 20
0.0
 30
0.0
 40
0.5
  0
ENDBLK
  5
66
330
64
100
AcDbEntity
  8
0
100
AcDbBlockEnd
  0
BLOCK
  5
68
330
67
100
AcDbEntity
  8
0
100
AcDbBlockBegin
  2
EX_WNORM
 70
     0
 10
0.0
 20
0.0
 30
0.0
  3
EX_WNORM
  1

  0
LINE
  5
8F
330
67
100
AcDbEntity
  8
0
  6
CONTINUOUS
 62
     0
100
AcDbLine
 10
-1.0
 20
0.0
 30
0.0
 11
-1.0
 21
0.0
 31
0.0
  0
LINE
  5
90
330
67
100
AcDbEntity
  8
0
  6
CONTINUOUS
 62
     0
100
AcDbLine
 10
0.0
 20
0.0
 30
0.0
 11
-1.0
 21
0.166666667
 31
0.0
  0
LINE
  5
91
330
67
100
AcDbEntity
  8
0
  6
CONTINUOUS
 62
     0
100
AcDbLine
 10
0.0
 20
0.0
 30
0.0
 11
-1.0
 21
-0.166666667
 31
0.0
  0
LINE
  5
92
330
67
100
AcDbEntity
  8
0
  6
CONTINUOUS
 62
     0
100
AcDbLine
 10
-1.0
 20
0.166666667
 30
0.0
 11
-1.0
 21
-0.166666667
 31
0.0
  0
ENDBLK
  5
69
330
67
100
AcDbEntity
  8
0
100
AcDbBlockEnd
  0
BLOCK
  5
6B
330
6A
100
AcDbEntity
  8
0
100
AcDbBlockBegin
  2
EX_NNORM
 70
     0
 10
0.0
 20
0.0
 30
0.0
  3
EX_NNORM
  1

  0
LINE
  5
93
330
6A
100
AcDbEntity
  8
0
  6
CONTINUOUS
 62
     0
100
AcDbLine
 10
0.0
 20
0.0
 30
0.0
 11
-1.0
 21
0.0
 31
0.0
  0
LINE
  5
94
330
6A
100
AcDbEntity
  8
0
  6
CONTINUOUS
 62
     0
100
AcDbLine
 10
0.0
 20
0.0
 30
0.0
 11
-1.0
 21
0.166666667
 31
0.0
  0
LINE
  5
95
330
6A
100
AcDbEntity
  8
0
  6
CONTINUOUS
 62
     0
100
AcDbLine
 10
0.0
 20
0.0
 30
0.0
 11
-1.0
 21
-0.166666667
 31
0.0
  0
LINE
  5
96
330
6A
100
AcDbEntity
  8
0
  6
CONTINUOUS
 62
     0
100
AcDbLine
 10
-1.0
 20
0.166666667
 30
0.0
 11
-1.0
 21
-0.166666667
 31
0.0
  0
ENDBLK
  5
6C
330
6A
100
AcDbEntity
  8
0
100
AcDbBlockEnd
  0
BLOCK
  5
6E
330
6D
100
AcDbEntity
  8
0
100
AcDbBlockBegin
  2
EX_BBOX
 70
     0
 10
0.0
 20
0.0
 30
0.0
  3
EX_BBOX
  1

  0
LINE
  5
97
330
6D
100
AcDbEntity
  8
0
  6
CONTINUOUS
 62
     0
100
AcDbLine
 10
0.0
 20
0.0
 30
0.0
 11
-1.0
 21
0.0
 31
0.0
  0
LINE
  5
98
330
6D
100
AcDbEntity
  8
0
  6
CONTINUOUS
 62
     0
100
AcDbLine
 10
-0.5
 20
0.5
 30
0.0
 11
0.5
 21
0.5
 31
0.0
  0
LINE
  5
99
330
6D
100
AcDbEntity
  8
0
  6
CONTINUOUS
 62
     0
100
AcDbLine
 10
0.5
 20
0.5
 30
0.0
 11
0.5
 21
-0.5
 31
0.0
  0
LINE
  5
9A
330
6D
100
AcDbEntity
  8
0
  6
CONTINUOUS
 62
     0
100
AcDbLine
 10
0.5
 20
-0.5
 30
0.0
 11
-0.5
 21
-0.5
 31
0.0
  0
LINE
  5
9B
330
6D
100
AcDbEntity
  8
0
  6
CONTINUOUS
 62
     0
100
AcDbLine
 10
-0.5
 20
-0.5
 30
0.0
 11
-0.5
 21
0.5
 31
0.0
  0
LINE
  5
9C
330
6D
100
AcDbEntity
  8
0
  6
CONTINUOUS
 62
     0
100
AcDbLine
 10
-0.25
 20
0.25
 30
0.0
 11
0.25
 21
0.25
 31
0.0
  0
LINE
  5
9D
330
6D
100
AcDbEntity
  8
0
  6
CONTINUOUS
 62
     0
100
AcDbLine
 10
0.25
 20
0.25
 30
0.0
 11
0.25
 21
-0.25
 31
0.0
  0
LINE
  5
9E
330
6D
100
AcDbEntity
  8
0
  6
CONTINUOUS
 62
     0
100
AcDbLine
 10
0.25
 20
-0.25
 30
0.0
 11
-0.25
 21
-0.25
 31
0.0
  0
LINE
  5
9F
330
6D
100
AcDbEntity
  8
0
  6
CONTINUOUS
 62
     0
100
AcDbLine
 10
-0.25
 20
-0.25
 30
0.0
 11
-0.25
 21
0.25
 31
0.0
  0
ENDBLK
  5
6F
330
6D
100
AcDbEntity
  8
0
100
AcDbBlockEnd
  0
BLOCK
  5
71
330
70
100
AcDbEntity
  8
0
100
AcDbBlockBegin
  2
EX_WBOX
 70
     0
 10
0.0
 20
0.0
 30
0.0
  3
EX_WBOX
  1

  0
LINE
  5
A0
330
70
100
AcDbEntity
  8
0
  6
CONTINUOUS
 62
     0
100
AcDbLine
 10
-0.5
 20
0.0
 30
0.0
 11
-1.0
 21
0.0
 31
0.0
  0
LINE
  5
A1
330
70
100
AcDbEntity
  8
0
  6
CONTINUOUS
 62
     0
100
AcDbLine
 10
-0.5
 20
0.5
 30
0.0
 11
0.5
 21
0.5
 31
0.0
  0
LINE
  5
A2
330
70
100
AcDbEntity
  8
0
  6
CONTINUOUS
 62
     0
100
AcDbLine
 10
0.5
 20
0.5
 30
0.0
 11
0.5
 21
-0.5
 31
0.0
  0
LINE
  5
A3
330
70
100
AcDbEntity
  8
0
  6
CONTINUOUS
 62
     0
100
AcDbLine
 10
0.5
 20
-0.5
 30
0.0
 11
-0.5
 21
-0.5
 31
0.0
  0
LINE
  5
A4
330
70
100
AcDbEntity
  8
0
  6
CONTINUOUS
 62
     0
100
AcDbLine
 10
-0.5
 20
-0.5
 30
0.0
 11
-0.5
 21
0.5
 31
0.0
  0
ENDBLK
  5
72
330
70
100
AcDbEntity
  8
0
100
AcDbBlockEnd
  0
BLOCK
  5
74
330
73
100
AcDbEntity
  8
0
100
AcDbBlockBegin
  2
EX_INTEGRAL
 70
     0
 10
0.0
 20
0.0
 30
0.0
  3
EX_INTEGRAL
  1

  0
LINE
  5
A5
330
73
100
AcDbEntity
  8
0
  6
CONTINUOUS
 62
     0
100
AcDbLine
 10
0.0
 20
0.0
 30
0.0
 11
-1.0
 21
0.0
 31
0.0
  0
ARC
  5
A6
330
73
100
AcDbEntity
  8
0
  6
CONTINUOUS
 62
     0
100
AcDbCircle
 10
0.542115
 20
0.164992
 30
0.0
 40
0.56667
100
AcDbArc
 50
73.07249033629006
 51
196.9275130221199
  0
ARC
  5
A7
330
73
100
AcDbEntity
  8
0
  6
CONTINUOUS
 62
     0
100
AcDbCircle
 10
-0.542115
 20
-0.164992
 30
0.0
 40
0.56667
100
AcDbArc
 50
253.0724869220464
 51
16.9275130559125
  0
ENDBLK
  5
75
330
73
100
AcDbEntity
  8
0
100
AcDbBlockEnd
  0
BLOCK
  5
156
330
155
100
AcDbEntity
  8
0
100
AcDbBlockBegin
  2
*D15
 70
     1
 10
0.0
 20
0.0
 30
0.0
  3
*D15
  1

  0
LINE
  5
158
330
155
100
AcDbEntity
  8
図
  6
CONTINUOUS
 62
     3
100
AcDbLine
 10
233.5
 20
847.8974316790153
 30
0.0
 11
233.5
 21
968.4999999999801
 31
0.0
  0
LINE
  5
159
330
155
100
AcDbEntity
  8
図
  6
CONTINUOUS
 62
     3
100
AcDbLine
 10
633.5
 20
847.8974316790053
 30
0.0
 11
633.5
 21
968.4999999999801
 31
0.0
  0
LINE
  5
15A
330
155
100
AcDbEntity
  8
図
  6
CONTINUOUS
 62
     3
100
AcDbLine
 10
248.5
 20
963.4999999999801
 30
0.0
 11
618.5
 21
963.4999999999801
 31
0.0
  0
INSERT
  5
15B
330
155
100
AcDbEntity
  8
図
 62
     3
100
AcDbBlockReference
  2
EX_NORM
 10
233.5
 20
963.4999999999801
 30
0.0
 41
15.0
 42
15.0
 43
15.0
 50
180.0
  0
INSERT
  5
15C
330
155
100
AcDbEntity
  8
図
 62
     3
100
AcDbBlockReference
  2
EX_NORM
 10
633.5
 20
963.4999999999801
 30
0.0
 41
15.0
 42
15.0
 43
15.0
  0
MTEXT
  5
15D
330
155
100
AcDbEntity
  8
図
 62
     2
100
AcDbMText
 10
433.5000000000001
 20
975.2499999701778
 30
0.0
 40
20.0
 41
0.0
 71
     5
 72
     1
  1
400
  7
EXCADDIM1
  0
POINT
  5
15E
330
155
100
AcDbEntity
  8
DEFPOINTS
 62
     0
100
AcDbPoint
 10
233.5
 20
844.39743173862
 30
0.0
  0
POINT
  5
15F
330
155
100
AcDbEntity
  8
DEFPOINTS
 62
     0
100
AcDbPoint
 10
633.5
 20
844.39743173861
 30
0.0
  0
POINT
  5
160
330
155
100
AcDbEntity
  8
DEFPOINTS
 62
     0
100
AcDbPoint
 10
633.5
 20
963.4999999999801
 30
0.0
  0
ENDBLK
  5
157
330
155
100
AcDbEntity
  8
0
100
AcDbBlockEnd
  0
BLOCK
  5
163
330
162
100
AcDbEntity
  8
0
100
AcDbBlockBegin
  2
*D16
 70
     1
 10
0.0
 20
0.0
 30
0.0
  3
*D16
  1

  0
LINE
  5
165
330
162
100
AcDbEntity
  8
図
  6
CONTINUOUS
 62
     3
100
AcDbLine
 10
623.5
 20
847.5729373688455
 30
0.0
 11
623.5
 21
875.9999999999801
 31
0.0
  0
LINE
  5
166
330
162
100
AcDbEntity
  8
図
  6
CONTINUOUS
 62
     3
100
AcDbLine
 10
643.5
 20
847.5729373688455
 30
0.0
 11
643.5
 21
875.9999999999801
 31
0.0
  0
LINE
  5
167
330
162
100
AcDbEntity
  8
図
  6
CONTINUOUS
 62
     3
100
AcDbLine
 10
623.5
 20
870.9999999999801
 30
0.0
 11
643.5
 21
870.9999999999801
 31
0.0
  0
LINE
  5
168
330
162
100
AcDbEntity
  8
図
  6
CONTINUOUS
 62
     3
100
AcDbLine
 10
608.5
 20
870.9999999999801
 30
0.0
 11
593.5
 21
870.9999999999801
 31
0.0
  0
LINE
  5
169
330
162
100
AcDbEntity
  8
図
  6
CONTINUOUS
 62
     3
100
AcDbLine
 10
658.5
 20
870.9999999999801
 30
0.0
 11
673.5
 21
870.9999999999801
 31
0.0
  0
INSERT
  5
16A
330
162
100
AcDbEntity
  8
図
 62
     3
100
AcDbBlockReference
  2
EX_NORM
 10
623.5
 20
870.9999999999801
 30
0.0
 41
15.0
 42
15.0
 43
15.0
  0
INSERT
  5
16B
330
162
100
AcDbEntity
  8
図
 62
     3
100
AcDbBlockReference
  2
EX_NORM
 10
643.5
 20
870.9999999999801
 30
0.0
 41
15.0
 42
15.0
 43
15.0
 50
180.0
  0
MTEXT
  5
16C
330
162
100
AcDbEntity
  8
図
 62
     2
100
AcDbMText
 10
676.0
 20
882.7499999701778
 30
0.0
 40
20.0
 41
0.0
 71
     5
 72
     1
  1
20
  7
EXCADDIM1
  0
POINT
  5
16D
330
162
100
AcDbEntity
  8
DEFPOINTS
 62
     0
100
AcDbPoint
 10
623.5
 20
844.0729374284501
 30
0.0
  0
POINT
  5
16E
330
162
100
AcDbEntity
  8
DEFPOINTS
 62
     0
100
AcDbPoint
 10
643.5
 20
844.0729374284501
 30
0.0
  0
POINT
  5
16F
330
162
100
AcDbEntity
  8
DEFPOINTS
 62
     0
100
AcDbPoint
 10
643.5
 20
870.9999999999801
 30
0.0
  0
ENDBLK
  5
164
330
162
100
AcDbEntity
  8
0
100
AcDbBlockEnd
  0
BLOCK
  5
172
330
171
100
AcDbEntity
  8
0
100
AcDbBlockBegin
  2
*D17
 70
     1
 10
0.0
 20
0.0
 30
0.0
  3
*D17
  1

  0
LINE
  5
174
330
171
100
AcDbEntity
  8
図
  6
CONTINUOUS
 62
     3
100
AcDbLine
 10
615.5
 20
754.7410868589947
 30
0.0
 11
615.5
 21
711.39999999998
 31
0.0
  0
LINE
  5
175
330
171
100
AcDbEntity
  8
図
  6
CONTINUOUS
 62
     3
100
AcDbLine
 10
651.5
 20
754.7410868589745
 30
0.0
 11
651.5
 21
711.39999999998
 31
0.0
  0
LINE
  5
176
330
171
100
AcDbEntity
  8
図
  6
CONTINUOUS
 62
     3
100
AcDbLine
 10
630.5
 20
716.39999999998
 30
0.0
 11
636.5
 21
716.39999999998
 31
0.0
  0
INSERT
  5
177
330
171
100
AcDbEntity
  8
図
 62
     3
100
AcDbBlockReference
  2
EX_NORM
 10
615.5
 20
716.39999999998
 30
0.0
 41
15.0
 42
15.0
 43
15.0
 50
180.0
  0
INSERT
  5
178
330
171
100
AcDbEntity
  8
図
 62
     3
100
AcDbBlockReference
  2
EX_NORM
 10
651.5
 20
716.39999999998
 30
0.0
 41
15.0
 42
15.0
 43
15.0
  0
MTEXT
  5
179
330
171
100
AcDbEntity
  8
図
 62
     2
100
AcDbMText
 10
633.5
 20
728.1499999701776
 30
0.0
 40
20.0
 41
0.0
 71
     5
 72
     1
  1
36
  7
EXCADDIM1
  0
POINT
  5
17A
330
171
100
AcDbEntity
  8
DEFPOINTS
 62
     0
100
AcDbPoint
 10
615.5
 20
758.24108679939
 30
0.0
  0
POINT
  5
17B
330
171
100
AcDbEntity
  8
DEFPOINTS
 62
     0
100
AcDbPoint
 10
651.5
 20
758.2410867993699
 30
0.0
  0
POINT
  5
17C
330
171
100
AcDbEntity
  8
DEFPOINTS
 62
     0
100
AcDbPoint
 10
651.5
 20
716.39999999998
 30
0.0
  0
ENDBLK
  5
173
330
171
100
AcDbEntity
  8
0
100
AcDbBlockEnd
  0
BLOCK
  5
17F
330
17E
100
AcDbEntity
  8
0
100
AcDbBlockBegin
  2
*D18
 70
     1
 10
0.0
 20
0.0
 30
0.0
  3
*D18
  1

  0
LINE
  5
181
330
17E
100
AcDbEntity
  8
図
  6
CONTINUOUS
 62
     3
100
AcDbLine
 10
215.50000000001
 20
754.7410868586746
 30
0.0
 11
215.50000000001
 21
671.99999999998
 31
0.0
  0
LINE
  5
182
330
17E
100
AcDbEntity
  8
図
  6
CONTINUOUS
 62
     3
100
AcDbLine
 10
651.5
 20
754.7410868595547
 30
0.0
 11
651.5
 21
671.99999999998
 31
0.0
  0
LINE
  5
183
330
17E
100
AcDbEntity
  8
図
  6
CONTINUOUS
 62
     3
100
AcDbLine
 10
230.50000000001
 20
676.99999999998
 30
0.0
 11
636.5
 21
676.99999999998
 31
0.0
  0
INSERT
  5
184
330
17E
100
AcDbEntity
  8
図
 62
     3
100
AcDbBlockReference
  2
EX_NORM
 10
215.50000000001
 20
676.99999999998
 30
0.0
 41
15.0
 42
15.0
 43
15.0
 50
180.0
  0
INSERT
  5
185
330
17E
100
AcDbEntity
  8
図
 62
     3
100
AcDbBlockReference
  2
EX_NORM
 10
651.5
 20
676.99999999998
 30
0.0
 41
15.0
 42
15.0
 43
15.0
  0
MTEXT
  5
186
330
17E
100
AcDbEntity
  8
図
 62
     2
100
AcDbMText
 10
433.5000000000051
 20
688.7499999701777
 30
0.0
 40
20.0
 41
0.0
 71
     5
 72
     1
  1
（436）
  7
EXCADDIM1
  0
POINT
  5
187
330
17E
100
AcDbEntity
  8
DEFPOINTS
 62
     0
100
AcDbPoint
 10
215.50000000001
 20
758.24108679907
 30
0.0
  0
POINT
  5
188
330
17E
100
AcDbEntity
  8
DEFPOINTS
 62
     0
100
AcDbPoint
 10
651.5
 20
758.24108679995
 30
0.0
  0
POINT
  5
189
330
17E
100
AcDbEntity
  8
DEFPOINTS
 62
     0
100
AcDbPoint
 10
651.5
 20
676.99999999998
 30
0.0
  0
ENDBLK
  5
180
330
17E
100
AcDbEntity
  8
0
100
AcDbBlockEnd
  0
BLOCK
  5
297
330
296
100
AcDbEntity
  8
0
100
AcDbBlockBegin
  2
*D19
 70
     1
 10
0.0
 20
0.0
 30
0.0
  3
*D19
  1

  0
LINE
  5
299
330
296
100
AcDbEntity
  8
図
  6
CONTINUOUS
 62
     3
100
AcDbLine
 10
867.8132880648253
 20
494.79862313698
 30
0.0
 11
914.15
 21
494.79862313698
 31
0.0
  0
LINE
  5
29A
330
296
100
AcDbEntity
  8
図
  6
CONTINUOUS
 62
     3
100
AcDbLine
 10
902.3862254932953
 20
479.7986231371
 30
0.0
 11
914.15
 21
479.7986231371
 31
0.0
  0
LINE
  5
29B
330
296
100
AcDbEntity
  8
図
  6
CONTINUOUS
 62
     3
100
AcDbLine
 10
909.15
 20
494.79862313698
 30
0.0
 11
909.15
 21
479.7986231371
 31
0.0
  0
LINE
  5
29C
330
296
100
AcDbEntity
  8
図
  6
CONTINUOUS
 62
     3
100
AcDbLine
 10
909.15
 20
509.79862313698
 30
0.0
 11
909.15
 21
524.79862313698
 31
0.0
  0
LINE
  5
29D
330
296
100
AcDbEntity
  8
図
  6
CONTINUOUS
 62
     3
100
AcDbLine
 10
909.15
 20
464.7986231371
 30
0.0
 11
909.15
 21
449.7986231371
 31
0.0
  0
INSERT
  5
29E
330
296
100
AcDbEntity
  8
図
 62
     3
100
AcDbBlockReference
  2
EX_NORM
 10
909.15
 20
494.79862313698
 30
0.0
 41
15.0
 42
15.0
 43
15.0
 50
270.0
  0
INSERT
  5
29F
330
296
100
AcDbEntity
  8
図
 62
     3
100
AcDbBlockReference
  2
EX_NORM
 10
909.15
 20
479.7986231371
 30
0.0
 41
15.0
 42
15.0
 43
15.0
 50
90.0
  0
MTEXT
  5
2A0
330
296
100
AcDbEntity
  8
図
 62
     2
100
AcDbMText
 10
897.4000000298025
 20
527.2986231369797
 30
0.0
 40
20.0
 41
0.0
 71
     5
 72
     1
  1
15
  7
EXCADDIM1
 11
0.0
 21
1.0
 31
0.0
  0
POINT
  5
2A1
330
296
100
AcDbEntity
  8
DEFPOINTS
 62
     0
100
AcDbPoint
 10
864.31328812443
 20
494.79862313698
 30
0.0
  0
POINT
  5
2A2
330
296
100
AcDbEntity
  8
DEFPOINTS
 62
     0
100
AcDbPoint
 10
898.8862255529
 20
479.7986231371
 30
0.0
  0
POINT
  5
2A3
330
296
100
AcDbEntity
  8
DEFPOINTS
 62
     0
100
AcDbPoint
 10
909.15
 20
479.7986231371
 30
0.0
  0
ENDBLK
  5
298
330
296
100
AcDbEntity
  8
0
100
AcDbBlockEnd
  0
BLOCK
  5
2A6
330
2A5
100
AcDbEntity
  8
0
100
AcDbBlockBegin
  2
*D20
 70
     1
 10
0.0
 20
0.0
 30
0.0
  3
*D20
  1

  0
LINE
  5
2A8
330
2A5
100
AcDbEntity
  8
図
  6
CONTINUOUS
 62
     3
100
AcDbLine
 10
867.8132880648253
 20
494.79862313698
 30
0.0
 11
945.52330926483
 21
494.79862313698
 31
0.0
  0
LINE
  5
2A9
330
2A5
100
AcDbEntity
  8
図
  6
CONTINUOUS
 62
     3
100
AcDbLine
 10
867.8132880648253
 20
458.79862313703
 30
0.0
 11
945.52330926483
 21
458.79862313703
 31
0.0
  0
LINE
  5
2AA
330
2A5
100
AcDbEntity
  8
図
  6
CONTINUOUS
 62
     3
100
AcDbLine
 10
940.52330926483
 20
479.79862313698
 30
0.0
 11
940.52330926483
 21
473.79862313703
 31
0.0
  0
INSERT
  5
2AB
330
2A5
100
AcDbEntity
  8
図
 62
     3
100
AcDbBlockReference
  2
EX_NORM
 10
940.52330926483
 20
494.79862313698
 30
0.0
 41
15.0
 42
15.0
 43
15.0
 50
90.0
  0
INSERT
  5
2AC
330
2A5
100
AcDbEntity
  8
図
 62
     3
100
AcDbBlockReference
  2
EX_NORM
 10
940.52330926483
 20
458.79862313703
 30
0.0
 41
15.0
 42
15.0
 43
15.0
 50
270.0
  0
MTEXT
  5
2AD
330
2A5
100
AcDbEntity
  8
図
 62
     2
100
AcDbMText
 10
928.7733092946323
 20
476.7986231370049
 30
0.0
 40
20.0
 41
0.0
 71
     5
 72
     1
  1
36
  7
EXCADDIM1
 11
0.0
 21
1.0
 31
0.0
  0
POINT
  5
2AE
330
2A5
100
AcDbEntity
  8
DEFPOINTS
 62
     0
100
AcDbPoint
 10
864.31328812443
 20
494.79862313698
 30
0.0
  0
POINT
  5
2AF
330
2A5
100
AcDbEntity
  8
DEFPOINTS
 62
     0
100
AcDbPoint
 10
864.31328812443
 20
458.79862313703
 30
0.0
  0
POINT
  5
2B0
330
2A5
100
AcDbEntity
  8
DEFPOINTS
 62
     0
100
AcDbPoint
 10
940.52330926483
 20
458.79862313703
 30
0.0
  0
ENDBLK
  5
2A7
330
2A5
100
AcDbEntity
  8
0
100
AcDbBlockEnd
  0
BLOCK
  5
2B3
330
2B2
100
AcDbEntity
  8
0
100
AcDbBlockBegin
  2
*D21
 70
     1
 10
0.0
 20
0.0
 30
0.0
  3
*D21
  1

  0
LINE
  5
2B5
330
2B2
100
AcDbEntity
  8
図
  6
CONTINUOUS
 62
     3
100
AcDbLine
 10
810.3132881244801
 20
461.7986230773454
 30
0.0
 11
810.3132881244801
 21
545.65
 31
0.0
  0
LINE
  5
2B6
330
2B2
100
AcDbEntity
  8
図
  6
CONTINUOUS
 62
     3
100
AcDbLine
 10
864.31328812443
 20
507.4999999403954
 30
0.0
 11
864.31328812443
 21
545.65
 31
0.0
  0
LINE
  5
2B7
330
2B2
100
AcDbEntity
  8
図
  6
CONTINUOUS
 62
     3
100
AcDbLine
 10
825.3132881244801
 20
540.65
 30
0.0
 11
849.31328812443
 21
540.65
 31
0.0
  0
INSERT
  5
2B8
330
2B2
100
AcDbEntity
  8
図
 62
     3
100
AcDbBlockReference
  2
EX_NORM
 10
810.3132881244801
 20
540.65
 30
0.0
 41
15.0
 42
15.0
 43
15.0
 50
180.0
  0
INSERT
  5
2B9
330
2B2
100
AcDbEntity
  8
図
 62
     3
100
AcDbBlockReference
  2
EX_NORM
 10
864.31328812443
 20
540.65
 30
0.0
 41
15.0
 42
15.0
 43
15.0
  0
MTEXT
  5
2BA
330
2B2
100
AcDbEntity
  8
図
 62
     2
100
AcDbMText
 10
837.313288124455
 20
552.3999999701977
 30
0.0
 40
20.0
 41
0.0
 71
     5
 72
     1
  1
54
  7
EXCADDIM1
  0
POINT
  5
2BB
330
2B2
100
AcDbEntity
  8
DEFPOINTS
 62
     0
100
AcDbPoint
 10
810.3132881244801
 20
458.29862313695
 30
0.0
  0
POINT
  5
2BC
330
2B2
100
AcDbEntity
  8
DEFPOINTS
 62
     0
100
AcDbPoint
 10
864.31328812443
 20
504.0000000000001
 30
0.0
  0
POINT
  5
2BD
330
2B2
100
AcDbEntity
  8
DEFPOINTS
 62
     0
100
AcDbPoint
 10
864.31328812443
 20
540.65
 30
0.0
  0
ENDBLK
  5
2B4
330
2B2
100
AcDbEntity
  8
0
100
AcDbBlockEnd
  0
BLOCK
  5
2C0
330
2BF
100
AcDbEntity
  8
0
100
AcDbBlockBegin
  2
*D22
 70
     1
 10
0.0
 20
0.0
 30
0.0
  3
*D22
  1

  0
LINE
  5
2C2
330
2BF
100
AcDbEntity
  8
図
  6
CONTINUOUS
 62
     3
100
AcDbLine
 10
860.8132881840346
 20
494.79862313698
 30
0.0
 11
764.3000000000001
 21
494.79862313698
 31
0.0
  0
LINE
  5
2C3
330
2BF
100
AcDbEntity
  8
図
  6
CONTINUOUS
 62
     3
100
AcDbLine
 10
815.8132881842147
 20
447.79862313697
 30
0.0
 11
764.3000000000001
 21
447.79862313697
 31
0.0
  0
LINE
  5
2C4
330
2BF
100
AcDbEntity
  8
図
  6
CONTINUOUS
 62
     3
100
AcDbLine
 10
769.3000000000001
 20
479.79862313698
 30
0.0
 11
769.3000000000001
 21
462.79862313697
 31
0.0
  0
INSERT
  5
2C5
330
2BF
100
AcDbEntity
  8
図
 62
     3
100
AcDbBlockReference
  2
EX_NORM
 10
769.3000000000001
 20
494.79862313698
 30
0.0
 41
15.0
 42
15.0
 43
15.0
 50
90.0
  0
INSERT
  5
2C6
330
2BF
100
AcDbEntity
  8
図
 62
     3
100
AcDbBlockReference
  2
EX_NORM
 10
769.3000000000001
 20
447.79862313697
 30
0.0
 41
15.0
 42
15.0
 43
15.0
 50
270.0
  0
MTEXT
  5
2C7
330
2BF
100
AcDbEntity
  8
図
 62
     2
100
AcDbMText
 10
757.5500000298024
 20
471.298623136975
 30
0.0
 40
20.0
 41
0.0
 71
     5
 72
     1
  1
47
  7
EXCADDIM1
 11
0.0
 21
1.0
 31
0.0
  0
POINT
  5
2C8
330
2BF
100
AcDbEntity
  8
DEFPOINTS
 62
     0
100
AcDbPoint
 10
864.31328812443
 20
494.79862313698
 30
0.0
  0
POINT
  5
2C9
330
2BF
100
AcDbEntity
  8
DEFPOINTS
 62
     0
100
AcDbPoint
 10
819.31328812461
 20
447.79862313697
 30
0.0
  0
POINT
  5
2CA
330
2BF
100
AcDbEntity
  8
DEFPOINTS
 62
     0
100
AcDbPoint
 10
769.3000000000001
 20
447.79862313697
 30
0.0
  0
ENDBLK
  5
2C1
330
2BF
100
AcDbEntity
  8
0
100
AcDbBlockEnd
  0
BLOCK
  5
2CD
330
2CC
100
AcDbEntity
  8
0
100
AcDbBlockBegin
  2
*D23
 70
     1
 10
0.0
 20
0.0
 30
0.0
  3
*D23
  1

  0
LINE
  5
2CF
330
2CC
100
AcDbEntity
  8
図
  6
CONTINUOUS
 62
     3
100
AcDbLine
 10
534.5
 20
464.2986231371
 30
0.0
 11
534.5
 21
454.2986231371
 31
0.0
  0
LINE
  5
2D0
330
2CC
100
AcDbEntity
  8
図
  6
CONTINUOUS
 62
     3
100
AcDbLine
 10
534.5
 20
479.2986231371
 30
0.0
 11
534.5
 21
494.2986231371
 31
0.0
  0
LINE
  5
2D1
330
2CC
100
AcDbEntity
  8
図
  6
CONTINUOUS
 62
     3
100
AcDbLine
 10
534.5
 20
439.2986231371
 30
0.0
 11
534.5
 21
424.2986231371
 31
0.0
  0
INSERT
  5
2D2
330
2CC
100
AcDbEntity
  8
図
 62
     3
100
AcDbBlockReference
  2
EX_NORM
 10
534.5
 20
464.2986231371
 30
0.0
 41
15.0
 42
15.0
 43
15.0
 50
270.0
  0
INSERT
  5
2D3
330
2CC
100
AcDbEntity
  8
図
 62
     3
100
AcDbBlockReference
  2
EX_NORM
 10
534.5
 20
454.2986231371
 30
0.0
 41
15.0
 42
15.0
 43
15.0
 50
90.0
  0
MTEXT
  5
2D4
330
2CC
100
AcDbEntity
  8
図
 62
     2
100
AcDbMText
 10
522.7500000298024
 20
414.2986231370999
 30
0.0
 40
20.0
 41
0.0
 71
     5
 72
     1
  1
%%c10
  7
EXCADDIM1
 11
0.0
 21
1.0
 31
0.0
  0
POINT
  5
2D5
330
2CC
100
AcDbEntity
  8
DEFPOINTS
 62
     0
100
AcDbPoint
 10
569.2553693528
 20
464.2986231371
 30
0.0
  0
POINT
  5
2D6
330
2CC
100
AcDbEntity
  8
DEFPOINTS
 62
     0
100
AcDbPoint
 10
569.2553693528
 20
454.2986231371
 30
0.0
  0
POINT
  5
2D7
330
2CC
100
AcDbEntity
  8
DEFPOINTS
 62
     0
100
AcDbPoint
 10
534.5
 20
454.2986231371
 30
0.0
  0
ENDBLK
  5
2CE
330
2CC
100
AcDbEntity
  8
0
100
AcDbBlockEnd
  0
ENDSEC
  0
SECTION
  2
ENTITIES
  0
TEXT
  5
A9
330
1F
100
AcDbEntity
  8
0
  6
CONTINUOUS
 62
     2
100
AcDbText
 10
458.0000000000015
 20
58.25000000000017
 30
0.0
 40
16.875
  1
ジャニス工業株式会社
 41
1.025641025641026
  7
EXCADTTF1
 72
     5
 11
683.0000000000015
 21
58.25000000000017
 31
0.0
100
AcDbText
  0
HATCH
  5
AA
330
1F
100
AcDbEntity
  8
0
  6
CONTINUOUS
 62
     3
100
AcDbHatch
 10
0.0
 20
0.0
 30
0.0
210
0.0
220
0.0
230
1.0
  2
SOLID
 70
     1
 71
     1
 91
        2
 92
        3
 72
     1
 73
     1
 93
       27
 10
396.5863828666252
 20
75.68224664877047
 42
-0.1769427732109284
 10
396.5863828666252
 20
75.6822466487705
 42
0.0
 10
396.5863828666252
 20
73.8597466487704
 42
0.0
 10
397.0251328666255
 20
73.85974664877021
 42
-0.207533601427307
 10
399.8737113947851
 20
75.9966179564524
 42
-0.1226604740888933
 10
402.3913828666255
 20
76.05012164877039
 42
-0.3213715781137954
 10
404.9941640111046
 20
72.85532571892378
 42
-0.064704004662446
 10
405.0070078666247
 20
71.16649664877029
 42
-0.257798906330806
 10
404.4771328666253
 20
70.52524664877029
 42
-0.056602577721096
 10
403.3431328666251
 20
70.13037164877048
 42
-0.0166741689362636
 10
399.1851328666253
 20
69.34062164877037
 42
0.1186092302783404
 10
396.4412578666253
 20
68.02437164877033
 42
0.1699204224386695
 10
395.2465078666251
 20
66.02637164877028
 42
0.1006533494296199
 10
395.1360433397908
 20
64.29267775478637
 42
0.1675695228968024
 10
396.2185078666253
 20
61.96962164877034
 42
0.1376980079804242
 10
398.1861328666251
 20
60.83224664877045
 42
0.0719813663796923
 10
399.0805078666247
 20
60.68374664877041
 42
0.0
 10
400.4507578666252
 20
60.68374664877045
 42
0.1944607457809085
 10
404.9968828666253
 20
63.02262164877035
 42
0.1288538183665954
 10
405.4558828666248
 20
61.8751216487702
 42
0.2098387395261546
 10
406.9543828666249
 20
61.04824664877043
 42
0.0
 10
408.0411328666252
 20
61.04149664877047
 42
0.0945009641609563
 10
409.6105078666253
 20
61.37562164877039
 42
0.0
 10
409.6105078666251
 20
62.16199664877033
 42
-0.2395739894657535
 10
408.2402578666255
 20
62.14849664877023
 42
-0.2502312110031057
 10
407.5652578666248
 20
63.41749664877072
 42
-0.0104343570771765
 10
407.6563828666251
 20
72.88099664877032
 42
0.4051015674140716
 97
        0
 92
        3
 72
     1
 73
     1
 93
        8
 10
405.067757866625
 20
69.51274664877029
 42
-0.0339435190873666
 10
405.0677578666273
 20
69.51274664876468
 42
-0.0001110072973599
 10
404.9260078666256
 20
64.34224664877024
 42
-0.2253076310552528
 10
401.382257866625
 20
61.97637164877051
 42
0.0
 10
400.5148828666247
 20
61.97637164877049
 42
-0.3657967558150132
 10
397.9363828666251
 20
64.7168716487704
 42
0.0
 10
397.9363828666255
 20
65.69562164877043
 42
-0.2530797830369341
 10
399.6778828666252
 20
68.1053716487703
 42
-0.0724473624720066
 97
        0
 75
     0
 76
     1
 98
        1
 10
0.0
 20
0.0
  0
HATCH
  5
AB
330
1F
100
AcDbEntity
  8
0
  6
CONTINUOUS
 62
     3
100
AcDbHatch
 10
0.0
 20
0.0
 30
0.0
210
0.0
220
0.0
230
1.0
  2
SOLID
 70
     1
 71
     1
 91
        1
 92
        3
 72
     1
 73
     1
 93
       30
 10
450.367007866625
 20
76.66774664877062
 42
-0.0009362235736497
 10
450.3670078666251
 20
76.66774664877036
 42
0.0681165430304653
 10
449.5485467433659
 20
74.2141216487704
 42
0.0
 10
446.4655078666254
 20
76.32349664877044
 42
-0.302112590907374
 10
446.4655078666252
 20
76.3234966487704
 42
0.0
 10
443.3571328666252
 20
73.94074664877039
 42
-0.3704245237568778
 10
443.3571328666247
 20
73.94074664877024
 42
0.0
 10
443.5191328666248
 20
72.34774664877037
 42
-0.0262822419456939
 10
445.4361328666254
 20
70.81549664877025
 42
-0.180060563604375
 10
448.4938828666254
 20
69.88399664877045
 42
-0.0298130817160724
 10
448.4938828666252
 20
69.88399664877028
 42
-0.3153987453686078
 10
451.312007866625
 20
66.66087164877041
 42
0.0
 10
451.2951328666253
 20
65.21974664877024
 42
-0.3510306079065168
 10
445.8613828666248
 20
60.66349664877038
 42
0.0
 10
444.275132866625
 20
60.66349664877026
 42
-0.1053356344842436
 10
440.765132866625
 20
61.67599664877039
 42
0.1188608286962634
 10
441.4063828666249
 20
64.24099664877048
 42
0.0
 10
445.2538828666254
 20
61.87849664877042
 42
-0.2447573632916039
 10
445.2538828666249
 20
61.87849664877035
 42
0.0
 10
448.9663828666254
 20
64.47724664877043
 42
-0.3734162676407277
 10
448.9663828666252
 20
64.47724664877029
 42
0.0
 10
447.6197578666252
 20
67.07262164877045
 42
-0.261219770190848
 10
444.477632866625
 20
68.21337164877046
 42
-0.0572747914118363
 10
444.4776328666255
 20
68.21337164877039
 42
-0.1189658875692221
 10
441.9801328666249
 20
69.67812164877043
 42
-0.2005226878639636
 10
440.9338828666247
 20
72.03724664878138
 42
0.0
 10
440.9170078666253
 20
72.93162164877023
 42
-0.2622894489606957
 10
443.6001328666252
 20
77.03224664877047
 42
-0.0988461274137808
 10
446.1111328666252
 20
77.63637164877025
 42
0.0
 10
447.0426328666248
 20
77.63637164877044
 42
-0.0920156312561188
 97
        0
 75
     0
 76
     1
 98
        1
 10
0.0
 20
0.0
  0
ARC
  5
AC
330
1F
100
AcDbEntity
  8
0
  6
CONTINUOUS
 62
     3
100
AcDbCircle
 10
458.9212405344355
 20
72.45097187537482
 30
0.0
 40
9.537090018689154
100
AcDbArc
 50
153.7591918158497
 51
169.3462759801917
  0
LINE
  5
AD
330
1F
100
AcDbEntity
  8
0
  6
CONTINUOUS
 62
     3
100
AcDbLine
 10
449.1216328666249
 20
74.2141216487704
 30
0.0
 11
449.5485467433659
 21
74.2141216487704
 31
0.0
  0
LINE
  5
AE
330
1F
100
AcDbEntity
  8
0
  6
CONTINUOUS
 62
     3
100
AcDbLine
 10
445.9187578666248
 20
76.30999664877038
 30
0.0
 11
446.4655078666252
 21
76.3234966487704
 31
0.0
  0
LINE
  5
AF
330
1F
100
AcDbEntity
  8
0
  6
CONTINUOUS
 62
     3
100
AcDbLine
 10
440.9170078666253
 20
72.93162164877032
 30
0.0
 11
440.9338828666247
 21
72.03724664878138
 31
0.0
  0
LINE
  5
B0
330
1F
100
AcDbEntity
  8
0
  6
CONTINUOUS
 62
     3
100
AcDbLine
 10
443.3571328666247
 20
73.94074664877024
 30
0.0
 11
443.3098828666252
 21
73.05649664877023
 31
0.0
  0
LINE
  5
B1
330
1F
100
AcDbEntity
  8
0
  6
CONTINUOUS
 62
     3
100
AcDbLine
 10
451.312007866625
 20
66.66087164877041
 30
0.0
 11
451.295132866625
 21
65.21974664877035
 31
0.0
  0
LINE
  5
B2
330
1F
100
AcDbEntity
  8
0
  6
CONTINUOUS
 62
     3
100
AcDbLine
 10
448.9326328666252
 20
65.25349664877041
 30
0.0
 11
448.9663828666252
 21
64.47724664877029
 31
0.0
  0
ARC
  5
B3
330
1F
100
AcDbEntity
  8
0
  6
CONTINUOUS
 62
     3
100
AcDbCircle
 10
435.7672065660469
 20
64.28898797825013
 30
0.0
 40
5.63976870039419
100
AcDbArc
 50
332.3987521421788
 51
359.5124385477116
  0
LINE
  5
B4
330
1F
100
AcDbEntity
  8
0
  6
CONTINUOUS
 62
     3
100
AcDbLine
 10
396.5863828666252
 20
73.8597466487704
 30
0.0
 11
397.0251328666254
 21
73.8597466487704
 31
0.0
  0
HATCH
  5
B5
330
1F
100
AcDbEntity
  8
0
  6
CONTINUOUS
 62
     3
100
AcDbHatch
 10
0.0
 20
0.0
 30
0.0
210
0.0
220
0.0
230
1.0
  2
SOLID
 70
     1
 71
     1
 91
        2
 92
        1
 93
        1
 72
     2
 10
434.6427570191676
 20
83.29177334368552
 40
1.786167233384942
 50
0.0
 51
360.0
 73
     1
 97
        0
 92
        3
 72
     1
 73
     1
 93
        3
 10
433.0465078666251
 20
77.34949664877033
 42
0.1200283885712921
 10
436.1515078666251
 20
61.03137164877016
 42
-0.0401820615762149
 10
433.0498828666251
 20
61.02124664877036
 42
-0.0237521668114666
 97
        0
 75
     0
 76
     1
 98
        1
 10
0.0
 20
0.0
  0
HATCH
  5
B6
330
1F
100
AcDbEntity
  8
0
  6
CONTINUOUS
 62
     3
100
AcDbHatch
 10
0.0
 20
0.0
 30
0.0
210
0.0
220
0.0
230
1.0
  2
SOLID
 70
     1
 71
     1
 91
        1
 92
        3
 72
     1
 73
     1
 93
       16
 10
413.434382866625
 20
61.05162164877028
 42
-0.0386228372648426
 10
413.404007866625
 20
77.32249664877033
 42
-0.0398707891902887
 10
416.3571328666248
 20
77.33599664877043
 42
-0.1256886216044368
 10
416.2221328666251
 20
74.57524664877036
 42
-0.0367815758121429
 10
416.2221328666251
 20
74.57524664877025
 42
-0.268021535028829
 10
422.1790078666249
 20
77.66674664877036
 42
-0.2571134422124888
 10
426.252632866625
 20
75.65187164877051
 42
-0.1522526366014298
 10
427.2887578666253
 20
72.30049664877032
 42
-0.0158825412051521
 10
427.2145078666248
 20
61.03474664877032
 42
-0.0285251271418421
 10
424.3626328666252
 20
61.0347466487703
 42
-0.0452212723224612
 10
424.5077578666253
 20
71.44324664877047
 42
-0.0315567291532142
 10
423.6235078666249
 20
74.51787164877044
 42
-0.1476272403790709
 10
417.865757866625
 20
74.95999664877027
 42
-0.3908144705745794
 10
416.2423828666252
 20
70.92012164877023
 42
-0.2046259928850854
 10
416.2423828666252
 20
70.92012164877048
 42
0.0
 10
416.4955078666251
 20
61.02462164877039
 42
-0.0304995761723369
 97
        0
 75
     0
 76
     1
 98
        1
 10
0.0
 20
0.0
  0
HATCH
  5
B7
330
1F
100
AcDbEntity
  8
0
  6
CONTINUOUS
 62
     3
100
AcDbHatch
 10
0.0
 20
0.0
 30
0.0
210
0.0
220
0.0
230
1.0
  2
SOLID
 70
     1
 71
     1
 91
        1
 92
        3
 72
     1
 73
     1
 93
       10
 10
383.8626328666253
 20
61.60849664877028
 42
-0.017362223501556
 10
383.906507866625
 20
88.09212164877052
 42
-0.0267627618865285
 10
383.9065078666252
 20
88.09212164877039
 42
0.0737939047395297
 10
390.3662578666253
 20
88.11912164877
 42
0.0183878899657109
 10
390.1063828666252
 20
64.24099664877026
 42
-0.1144749489451909
 10
389.0601328666248
 20
59.21224664877023
 42
-0.1929163439413163
 10
384.0820078666253
 20
55.30399664877024
 42
-0.0603888289562337
 10
381.4427578666252
 20
54.64587164877031
 42
0.0
 10
380.8251328666251
 20
56.52574664877028
 42
0.0860918333465722
 10
382.6712578666251
 20
57.5078716487703
 42
0.1331843103855141
 97
        0
 75
     0
 76
     1
 98
        1
 10
0.0
 20
0.0
  0
LINE
  5
B8
330
1F
100
AcDbEntity
  8
0
  6
CONTINUOUS
 62
     3
100
AcDbLine
 10
444.275132866625
 20
60.66349664877038
 30
0.0
 11
445.8613828666248
 21
60.66349664877038
 31
0.0
  0
LINE
  5
B9
330
1F
100
AcDbEntity
  8
0
  6
CONTINUOUS
 62
     3
100
AcDbLine
 10
441.8451328666251
 20
64.24099664877048
 30
0.0
 11
441.4063828666249
 21
64.24099664877048
 31
0.0
  0
LINE
  5
BA
330
1F
100
AcDbEntity
  8
0
  6
CONTINUOUS
 62
     3
100
AcDbLine
 10
445.2538828666249
 20
61.87849664877035
 30
0.0
 11
446.0638828666251
 21
61.87849664877035
 31
0.0
  0
LINE
  5
BB
330
1F
100
AcDbEntity
  8
0
  6
CONTINUOUS
 62
     3
100
AcDbLine
 10
447.042632866625
 20
77.63637164877025
 30
0.0
 11
446.1111328666252
 21
77.63637164877025
 31
0.0
  0
ARC
  5
BC
330
1F
100
AcDbEntity
  8
0
  6
CONTINUOUS
 62
     3
100
AcDbCircle
 10
446.2073669563753
 20
73.27146181458346
 30
0.0
 40
3.062932150511265
100
AcDbArc
 50
17.92452211681263
 51
85.16543319077402
  0
ARC
  5
BD
330
1F
100
AcDbEntity
  8
0
  6
CONTINUOUS
 62
     3
100
AcDbCircle
 10
446.0175482430267
 20
73.63374973539607
 30
0.0
 40
2.678069655519655
100
AcDbArc
 50
92.11404364449162
 51
173.4175047026091
  0
ARC
  5
BE
330
1F
100
AcDbEntity
  8
0
  6
CONTINUOUS
 62
     3
100
AcDbCircle
 10
450.1515703666311
 20
74.69115914877221
 30
0.0
 40
7.034259686467
100
AcDbArc
 50
193.4375782160214
 51
199.459638038058
  0
ARC
  5
BF
330
1F
100
AcDbEntity
  8
0
  6
CONTINUOUS
 62
     3
100
AcDbCircle
 10
446.5360676193725
 20
74.15693208833062
 30
0.0
 40
3.51781853668592
100
AcDbArc
 50
210.9501336849607
 51
251.7794729821079
  0
ARC
  5
C0
330
1F
100
AcDbEntity
  8
0
  6
CONTINUOUS
 62
     3
100
AcDbCircle
 10
454.769233484603
 20
95.9679655251756
 30
0.0
 40
26.8282212925834
100
AcDbArc
 50
249.6420733479936
 51
256.4727051201885
  0
ARC
  5
C1
330
1F
100
AcDbEntity
  8
0
  6
CONTINUOUS
 62
     3
100
AcDbCircle
 10
447.6022860645978
 20
66.26086292657874
 30
0.0
 40
3.73122537864803
100
AcDbArc
 50
6.154262763177246
 51
76.17509904255616
  0
ARC
  5
C2
330
1F
100
AcDbEntity
  8
0
  6
CONTINUOUS
 62
     3
100
AcDbCircle
 10
445.733194323378
 20
66.33462335590224
 30
0.0
 40
5.672575290903224
100
AcDbArc
 50
271.2948770866743
 51
348.6654156292868
  0
ARC
  5
C3
330
1F
100
AcDbEntity
  8
0
  6
CONTINUOUS
 62
     3
100
AcDbCircle
 10
444.8965027296387
 20
69.40782884055125
 30
0.0
 40
8.766381578900099
100
AcDbArc
 50
241.8829576087176
 51
265.9354096935781
  0
ARC
  5
C4
330
1F
100
AcDbEntity
  8
0
  6
CONTINUOUS
 62
     3
100
AcDbCircle
 10
445.8180521617433
 20
66.33293198886918
 30
0.0
 40
4.490020177312635
100
AcDbArc
 50
207.7689879465537
 51
262.7817283832026
  0
ARC
  5
C5
330
1F
100
AcDbEntity
  8
0
  6
CONTINUOUS
 62
     3
100
AcDbCircle
 10
446.0178888723257
 20
64.85011818785836
 30
0.0
 40
2.97197745938338
100
AcDbArc
 50
270.8867385422408
 51
352.7925382056677
  0
ARC
  5
C6
330
1F
100
AcDbEntity
  8
0
  6
CONTINUOUS
 62
     3
100
AcDbCircle
 10
446.6540022926833
 20
64.99231127165842
 30
0.0
 40
2.29355076109507
100
AcDbArc
 50
6.53892419415897
 51
65.09756080693691
  0
ARC
  5
C7
330
1F
100
AcDbEntity
  8
0
  6
CONTINUOUS
 62
     3
100
AcDbCircle
 10
441.0857445915215
 20
53.97285708776053
 30
0.0
 40
14.63889206986377
100
AcDbArc
 50
63.49050203733571
 51
76.60259219849584
  0
ARC
  5
C8
330
1F
100
AcDbEntity
  8
0
  6
CONTINUOUS
 62
     3
100
AcDbCircle
 10
446.2634072899752
 20
74.11982055033434
 30
0.0
 40
6.170504753897835
100
AcDbArc
 50
226.0402388947521
 51
253.1776672992999
  0
ARC
  5
C9
330
1F
100
AcDbEntity
  8
0
  6
CONTINUOUS
 62
     3
100
AcDbCircle
 10
444.2799628962999
 20
72.10963845377648
 30
0.0
 40
3.346863029528055
100
AcDbArc
 50
181.2393899443581
 51
226.5942921332421
  0
ARC
  5
CA
330
1F
100
AcDbEntity
  8
0
  6
CONTINUOUS
 62
     3
100
AcDbCircle
 10
445.8981748399808
 20
72.60046455509325
 30
0.0
 40
4.99216280154595
100
AcDbArc
 50
117.4083995939977
 51
176.1964688215695
  0
ARC
  5
CB
330
1F
100
AcDbEntity
  8
0
  6
CONTINUOUS
 62
     3
100
AcDbCircle
 10
446.3855522141952
 20
71.04895489688062
 30
0.0
 40
6.599874326837624
100
AcDbArc
 50
92.38301574576484
 51
114.9635286746436
  0
ARC
  5
CC
330
1F
100
AcDbEntity
  8
0
  6
CONTINUOUS
 62
     3
100
AcDbCircle
 10
446.9271414230283
 20
72.58315191819776
 30
0.0
 40
5.054539337960785
100
AcDbArc
 50
67.66151957087348
 51
88.69073168448988
  0
ARC
  5
CD
330
1F
100
AcDbEntity
  8
0
  6
CONTINUOUS
 62
     3
100
AcDbCircle
 10
607.3222266164074
 20
482.5148716482101
 30
0.0
 40
435.1400114481578
100
AcDbArc
 50
248.6422112053103
 51
248.8567777804232
  0
ARC
  5
CE
330
1F
100
AcDbEntity
  8
0
  6
CONTINUOUS
 62
     3
100
AcDbCircle
 10
322.3450287681933
 20
69.1624896383118
 30
0.0
 40
111.0038042517906
100
AcDbArc
 50
355.7940354718673
 51
4.229650257234378
  0
ARC
  5
CF
330
1F
100
AcDbEntity
  8
0
  6
CONTINUOUS
 62
     3
100
AcDbCircle
 10
537.6270235897786
 20
69.09405028696938
 30
0.0
 40
101.79531952945
100
AcDbArc
 50
175.3387608397566
 51
184.5428594926176
  0
ARC
  5
D0
330
1F
100
AcDbEntity
  8
0
  6
CONTINUOUS
 62
     3
100
AcDbCircle
 10
434.7072044685669
 20
28.39902092061664
 30
0.0
 40
32.66429742625544
100
AcDbArc
 50
87.46575055044718
 51
92.90832285102188
  0
ARC
  5
D1
330
1F
100
AcDbEntity
  8
0
  6
CONTINUOUS
 62
     3
100
AcDbCircle
 10
434.5728038013866
 20
83.76662371790388
 30
0.0
 40
6.596142744201035
100
AcDbArc
 50
256.6209501743446
 51
283.9984576255729
  0
CIRCLE
  5
D2
330
1F
100
AcDbEntity
  8
0
  6
CONTINUOUS
 62
     3
100
AcDbCircle
 10
434.6427570191676
 20
83.29177334368552
 30
0.0
 40
1.786167233384945
  0
LINE
  5
D3
330
1F
100
AcDbEntity
  8
0
  6
CONTINUOUS
 62
     3
100
AcDbLine
 10
416.2423828666252
 20
70.92012164877048
 30
0.0
 11
416.2423828666252
 21
65.52349664877028
 31
0.0
  0
ARC
  5
D4
330
1F
100
AcDbEntity
  8
0
  6
CONTINUOUS
 62
     3
100
AcDbCircle
 10
311.5588494335796
 20
68.99690293358731
 30
0.0
 40
102.1848903065536
100
AcDbArc
 50
355.5405243117485
 51
4.673398698656258
  0
ARC
  5
D5
330
1F
100
AcDbEntity
  8
0
  6
CONTINUOUS
 62
     3
100
AcDbCircle
 10
414.8541424930616
 20
83.1103439907244
 30
0.0
 40
5.966746792730079
100
AcDbArc
 50
255.9341994177206
 51
284.5896440601899
  0
ARC
  5
D6
330
1F
100
AcDbEntity
  8
0
  6
CONTINUOUS
 62
     3
100
AcDbCircle
 10
435.0287363698081
 20
75.03928406915264
 30
0.0
 40
18.8123275022909
100
AcDbArc
 50
172.9875214416311
 51
181.4134392789641
  0
ARC
  5
D7
330
1F
100
AcDbEntity
  8
0
  6
CONTINUOUS
 62
     3
100
AcDbCircle
 10
421.8770534501274
 20
70.96379944093002
 30
0.0
 40
6.709744983286299
100
AcDbArc
 50
87.42068310381028
 51
147.4361518966862
  0
ARC
  5
D8
330
1F
100
AcDbEntity
  8
0
  6
CONTINUOUS
 62
     3
100
AcDbCircle
 10
422.3862028706881
 20
72.96023323989971
 30
0.0
 40
4.7110718777777
100
AcDbArc
 50
34.84393737091607
 51
92.5207065423111
  0
ARC
  5
D9
330
1F
100
AcDbEntity
  8
0
  6
CONTINUOUS
 62
     3
100
AcDbCircle
 10
421.3952757672413
 20
72.31429712257636
 30
0.0
 40
5.89349825730295
100
AcDbArc
 50
359.8658335690532
 51
34.49363429411157
  0
ARC
  5
DA
330
1F
100
AcDbEntity
  8
0
  6
CONTINUOUS
 62
     3
100
AcDbCircle
 10
396.5956800605031
 20
71.16578874060707
 30
0.0
 40
30.71404543933479
100
AcDbArc
 50
358.4775281223095
 51
2.117232414210064
  0
ARC
  5
DB
330
1F
100
AcDbEntity
  8
0
  6
CONTINUOUS
 62
     3
100
AcDbCircle
 10
508.8288168308489
 20
64.95336873695663
 30
0.0
 40
81.70832899269108
100
AcDbArc
 50
176.2131780319488
 51
182.7488833337936
  0
ARC
  5
DC
330
1F
100
AcDbEntity
  8
0
  6
CONTINUOUS
 62
     3
100
AcDbCircle
 10
425.7885703666253
 20
45.30076309613889
 30
0.0
 40
15.79846626063372
100
AcDbArc
 50
84.82155189294139
 51
95.17844810705873
  0
ARC
  5
DD
330
1F
100
AcDbEntity
  8
0
  6
CONTINUOUS
 62
     3
100
AcDbCircle
 10
342.0586689324873
 20
67.38756689412327
 30
0.0
 40
82.5487783334294
100
AcDbArc
 50
355.5862454873798
 51
2.816115806820253
  0
ARC
  5
DE
330
1F
100
AcDbEntity
  8
0
  6
CONTINUOUS
 62
     3
100
AcDbCircle
 10
418.9723702284263
 20
71.51575694107777
 30
0.0
 40
5.53586253872077
100
AcDbArc
 50
359.2495022237244
 51
32.84055016678327
  0
ARC
  5
DF
330
1F
100
AcDbEntity
  8
0
  6
CONTINUOUS
 62
     3
100
AcDbCircle
 10
420.5050072602765
 20
71.61831365693445
 30
0.0
 40
4.258225285235015
100
AcDbArc
 50
42.91644474042847
 51
128.3015542351336
  0
ARC
  5
E0
330
1F
100
AcDbEntity
  8
0
  6
CONTINUOUS
 62
     3
100
AcDbCircle
 10
421.7830861183202
 20
71.0397612569028
 30
0.0
 40
5.541994781590654
100
AcDbArc
 50
134.9787476233347
 51
181.2369872983282
  0
ARC
  5
E1
330
1F
100
AcDbEntity
  8
0
  6
CONTINUOUS
 62
     3
100
AcDbCircle
 10
453.2044289475519
 20
65.45750735049069
 30
0.0
 40
36.97560496557463
100
AcDbArc
 50
179.8977458165987
 51
186.8855675734268
  0
ARC
  5
E2
330
1F
100
AcDbEntity
  8
0
  6
CONTINUOUS
 62
     3
100
AcDbCircle
 10
414.7904390034657
 20
41.25346272558545
 30
0.0
 40
19.84454547209248
100
AcDbArc
 50
85.07099551674689
 51
93.91830029343228
  0
ARC
  5
E3
330
1F
100
AcDbEntity
  8
0
  6
CONTINUOUS
 62
     3
100
AcDbCircle
 10
-11239.50771108867
 20
386.1632622793915
 30
0.0
 40
11648.88000630296
100
AcDbArc
 50
358.4169008257799
 51
358.4423418242109
  0
ARC
  5
E4
330
1F
100
AcDbEntity
  8
0
  6
CONTINUOUS
 62
     3
100
AcDbCircle
 10
400.6622345382962
 20
66.89182447651035
 30
0.0
 40
4.967908019989579
100
AcDbArc
 50
278.3335103000368
 51
329.1221464187299
  0
LINE
  5
E5
330
1F
100
AcDbEntity
  8
0
  6
CONTINUOUS
 62
     3
100
AcDbLine
 10
400.5148828666248
 20
61.97637164877051
 30
0.0
 11
401.382257866625
 21
61.97637164877051
 31
0.0
  0
ARC
  5
E6
330
1F
100
AcDbEntity
  8
0
  6
CONTINUOUS
 62
     3
100
AcDbCircle
 10
400.8479826744369
 20
64.87306900488932
 30
0.0
 40
2.915786524234985
100
AcDbArc
 50
183.0707787095794
 51
263.4402016072427
  0
LINE
  5
E7
330
1F
100
AcDbEntity
  8
0
  6
CONTINUOUS
 62
     3
100
AcDbLine
 10
397.9363828666251
 20
65.69562164877027
 30
0.0
 11
397.9363828666251
 21
64.7168716487704
 31
0.0
  0
ARC
  5
E8
330
1F
100
AcDbEntity
  8
0
  6
CONTINUOUS
 62
     3
100
AcDbCircle
 10
401.0350933418923
 20
65.29037395235918
 30
0.0
 40
3.125097167285265
100
AcDbArc
 50
115.7403688633493
 51
172.5491744442191
  0
ARC
  5
E9
330
1F
100
AcDbEntity
  8
0
  6
CONTINUOUS
 62
     3
100
AcDbCircle
 10
403.7830325878852
 20
59.41594313339891
 30
0.0
 40
9.610328930776038
100
AcDbArc
 50
98.71271710191789
 51
115.2874718053599
  0
ARC
  5
EA
330
1F
100
AcDbEntity
  8
0
  6
CONTINUOUS
 62
     3
100
AcDbCircle
 10
399.3028049676863
 20
89.37506905802536
 30
0.0
 40
20.68203407347008
100
AcDbArc
 50
278.4088456599976
 51
286.1851416003176
  0
ARC
  5
EB
330
1F
100
AcDbEntity
  8
0
  6
CONTINUOUS
 62
     3
100
AcDbCircle
 10
387.0454100061139
 20
109.8708785261113
 30
0.0
 40
22.00379416745233
100
AcDbArc
 50
261.7986203004403
 51
278.6803384946418
  0
ARC
  5
EC
330
1F
100
AcDbEntity
  8
0
  6
CONTINUOUS
 62
     3
100
AcDbCircle
 10
714.7712657067174
 20
72.64801804754228
 30
0.0
 40
324.7737122341802
100
AcDbArc
 50
177.2695926307304
 51
181.4833117237826
  0
ARC
  5
ED
330
1F
100
AcDbEntity
  8
0
  6
CONTINUOUS
 62
     3
100
AcDbCircle
 10
378.7449680895307
 20
63.9815678440047
 30
0.0
 40
11.36437631557155
100
AcDbArc
 50
335.1860595856123
 51
1.308075913059364
  0
ARC
  5
EE
330
1F
100
AcDbEntity
  8
0
  6
CONTINUOUS
 62
     3
100
AcDbCircle
 10
381.6948663942739
 20
63.46917593134151
 30
0.0
 40
8.506973440980575
100
AcDbArc
 50
286.2966123578915
 51
329.973223283839
  0
ARC
  5
EF
330
1F
100
AcDbEntity
  8
0
  6
CONTINUOUS
 62
     3
100
AcDbCircle
 10
380.0477874933327
 20
65.86115764576931
 30
0.0
 40
11.30170705410681
100
AcDbArc
 50
277.0901027239701
 51
290.9134154817058
  0
ARC
  5
F0
330
1F
100
AcDbEntity
  8
0
  6
CONTINUOUS
 62
     3
100
AcDbCircle
 10
378.9173644842722
 20
62.3379929722995
 30
0.0
 40
6.117335001950124
100
AcDbArc
 50
288.1715191042997
 51
307.8537826235693
  0
ARC
  5
F1
330
1F
100
AcDbEntity
  8
0
  6
CONTINUOUS
 62
     3
100
AcDbCircle
 10
380.0463693248011
 20
60.17037592364574
 30
0.0
 40
3.738845927653165
100
AcDbArc
 50
314.592391474832
 51
344.9374073189123
  0
ARC
  5
F2
330
1F
100
AcDbEntity
  8
0
  6
CONTINUOUS
 62
     3
100
AcDbCircle
 10
136.6692760614656
 20
75.25986679194204
 30
0.0
 40
247.5700215199504
100
AcDbArc
 50
356.8390243485978
 51
2.971133813187157
  0
ARC
  5
F3
330
1F
100
AcDbEntity
  8
0
  6
CONTINUOUS
 62
     3
100
AcDbCircle
 10
349.0719782613539
 20
63.3671380961394
 30
0.0
 40
34.83507524900299
100
AcDbArc
 50
353.1274757312911
 51
357.106204490141
  0
LINE
  5
F4
330
1F
100
AcDbEntity
  8
0
  6
CONTINUOUS
 62
     3
100
AcDbLine
 10
396.5863828666252
 20
75.6822466487705
 30
0.0
 11
396.5863828666252
 21
73.8597466487704
 31
0.0
  0
ARC
  5
F5
330
1F
100
AcDbEntity
  8
0
  6
CONTINUOUS
 62
     3
100
AcDbCircle
 10
400.9126808851497
 20
71.64450959289411
 30
0.0
 40
4.474405525883595
100
AcDbArc
 50
103.4267945469744
 51
150.3242613737993
  0
ARC
  5
F6
330
1F
100
AcDbEntity
  8
0
  6
CONTINUOUS
 62
     3
100
AcDbCircle
 10
401.2399547899153
 20
70.96919152565107
 30
0.0
 40
5.209763673321151
100
AcDbArc
 50
77.23143261361693
 51
105.203415964315
  0
ARC
  5
F7
330
1F
100
AcDbEntity
  8
0
  6
CONTINUOUS
 62
     3
100
AcDbCircle
 10
401.4641706408847
 20
72.63709430767108
 30
0.0
 40
3.53673269313001
100
AcDbArc
 50
3.537639967999379
 51
74.8013566619203
  0
ARC
  5
F8
330
1F
100
AcDbEntity
  8
0
  6
CONTINUOUS
 62
     3
100
AcDbCircle
 10
398.5026936783285
 20
71.96149351875619
 30
0.0
 40
6.552718755094605
100
AcDbArc
 50
353.0315250986587
 51
7.839947970678348
  0
ARC
  5
F9
330
1F
100
AcDbEntity
  8
0
  6
CONTINUOUS
 62
     3
100
AcDbCircle
 10
404.1615477836669
 20
71.32556662521438
 30
0.0
 40
0.860294141140655
100
AcDbArc
 50
291.5204897073511
 51
349.3445900274031
  0
ARC
  5
FA
330
1F
100
AcDbEntity
  8
0
  6
CONTINUOUS
 62
     3
100
AcDbCircle
 10
402.1716525055447
 20
75.32036813443739
 30
0.0
 40
5.32056667636392
100
AcDbArc
 50
282.7195832898965
 51
295.6781112778079
  0
ARC
  5
FB
330
1F
100
AcDbEntity
  8
0
  6
CONTINUOUS
 62
     3
100
AcDbCircle
 10
389.4265049992893
 20
132.0601014887606
 30
0.0
 40
63.47412046851909
100
AcDbArc
 50
278.8438342053764
 51
282.6649181367123
  0
ARC
  5
FC
330
1F
100
AcDbEntity
  8
0
  6
CONTINUOUS
 62
     3
100
AcDbCircle
 10
400.5485069337894
 20
62.98042407414357
 30
0.0
 40
6.504683084924599
100
AcDbArc
 50
102.0988446293839
 51
129.1556705448828
  0
ARC
  5
FD
330
1F
100
AcDbEntity
  8
0
  6
CONTINUOUS
 62
     3
100
AcDbCircle
 10
398.6986189515076
 20
65.31831662504004
 30
0.0
 40
3.52397685278961
100
AcDbArc
 50
129.8344892359069
 51
168.4089447024628
  0
ARC
  5
FE
330
1F
100
AcDbEntity
  8
0
  6
CONTINUOUS
 62
     3
100
AcDbCircle
 10
399.4537509284996
 20
64.88793562738721
 30
0.0
 40
4.358546862943345
100
AcDbArc
 50
164.8589457925044
 51
187.8495628504518
  0
ARC
  5
FF
330
1F
100
AcDbEntity
  8
0
  6
CONTINUOUS
 62
     3
100
AcDbCircle
 10
399.0457666457749
 20
64.70075107864318
 30
0.0
 40
3.93096173563145
100
AcDbArc
 50
185.9586126338419
 51
224.0091989319859
  0
ARC
  5
100
330
1F
100
AcDbEntity
  8
0
  6
CONTINUOUS
 62
     3
100
AcDbCircle
 10
399.2281476518443
 20
64.9055552386298
 30
0.0
 40
4.204478288781829
100
AcDbArc
 50
224.289750990011
 51
255.6505938786759
  0
ARC
  5
101
330
1F
100
AcDbEntity
  8
0
  6
CONTINUOUS
 62
     3
100
AcDbCircle
 10
399.1464065368379
 20
63.84817471937055
 30
0.0
 40
3.16511416045893
100
AcDbArc
 50
252.3384873625213
 51
268.8069976857606
  0
LINE
  5
102
330
1F
100
AcDbEntity
  8
0
  6
CONTINUOUS
 62
     3
100
AcDbLine
 10
399.0805078666247
 20
60.68374664877041
 30
0.0
 11
400.4507578666252
 21
60.68374664877041
 31
0.0
  0
ARC
  5
103
330
1F
100
AcDbEntity
  8
0
  6
CONTINUOUS
 62
     3
100
AcDbCircle
 10
399.8306522933504
 20
67.47670131284139
 30
0.0
 40
6.821199600519659
100
AcDbArc
 50
275.2158792069686
 51
319.2336424873511
  0
ARC
  5
104
330
1F
100
AcDbEntity
  8
0
  6
CONTINUOUS
 62
     3
100
AcDbCircle
 10
407.4157780279157
 20
63.32462971328653
 30
0.0
 40
2.43767567004861
100
AcDbArc
 50
187.1167640402297
 51
216.4860549324747
  0
ARC
  5
105
330
1F
100
AcDbEntity
  8
0
  6
CONTINUOUS
 62
     3
100
AcDbCircle
 10
407.146886754073
 20
63.16837282643149
 30
0.0
 40
2.12884775310199
100
AcDbArc
 50
217.4081478714985
 51
264.8118660441384
  0
ARC
  5
106
330
1F
100
AcDbEntity
  8
0
  6
CONTINUOUS
 62
     3
100
AcDbCircle
 10
407.9497945972795
 20
65.32322564115162
 30
0.0
 40
4.28270310010447
100
AcDbArc
 50
271.2220539293239
 51
292.8159509797653
  0
LINE
  5
107
330
1F
100
AcDbEntity
  8
0
  6
CONTINUOUS
 62
     3
100
AcDbLine
 10
406.9543828666249
 20
61.04824664877043
 30
0.0
 11
408.041132866625
 21
61.04824664877043
 31
0.0
  0
LINE
  5
108
330
1F
100
AcDbEntity
  8
0
  6
CONTINUOUS
 62
     3
100
AcDbLine
 10
409.6105078666253
 20
61.37562164877039
 30
0.0
 11
409.6105078666253
 21
62.16199664877024
 31
0.0
  0
ARC
  5
109
330
1F
100
AcDbEntity
  8
0
  6
CONTINUOUS
 62
     3
100
AcDbCircle
 10
408.9121039228982
 20
63.5030594370545
 30
0.0
 40
1.5120242956824
100
AcDbArc
 50
243.6191685566582
 51
297.5097757939563
  0
ARC
  5
10A
330
1F
100
AcDbEntity
  8
0
  6
CONTINUOUS
 62
     3
100
AcDbCircle
 10
409.0911994723021
 20
63.41514643902372
 30
0.0
 40
1.525943415536945
100
AcDbArc
 50
179.9117548191414
 51
236.1065985968857
  0
ARC
  5
10B
330
1F
100
AcDbEntity
  8
0
  6
CONTINUOUS
 62
     3
100
AcDbCircle
 10
634.3250679193548
 20
65.96619219658663
 30
0.0
 40
226.7741327932831
100
AcDbArc
 50
178.2526643324597
 51
180.6439560401927
  0
ARC
  5
10C
330
1F
100
AcDbEntity
  8
0
  6
CONTINUOUS
 62
     3
100
AcDbCircle
 10
402.5353136301393
 20
72.50958129866575
 30
0.0
 40
5.134520375572949
100
AcDbArc
 50
4.148222840814693
 51
92.36000944257292
  0
ARC
  5
10D
330
1F
100
AcDbEntity
  8
0
  6
CONTINUOUS
 62
     3
100
AcDbCircle
 10
402.1342662062764
 20
68.8083644463444
 30
0.0
 40
8.83341757663532
100
AcDbArc
 50
88.77000393305703
 51
128.9068631829044
  0
LINE
  5
10E
330
1F
100
AcDbEntity
  8
0
  6
CONTINUOUS
 62
     6
100
AcDbLine
 10
381.4427578666252
 20
54.64587164877031
 30
0.0
 11
380.8251328666253
 21
56.52574664877022
 31
0.0
  0
TEXT
  5
10F
330
1F
100
AcDbEntity
  8
図枠
  6
CONTINUOUS
 62
     2
100
AcDbText
 10
98.25000000000013
 20
132.375
 30
0.0
 40
21.25
  1
製図
 41
1.509694117647059
  7
EXCADSTD
 72
     5
 11
148.6630000000001
 21
132.375
 31
0.0
100
AcDbText
  0
TEXT
  5
110
330
1F
100
AcDbEntity
  8
図枠
  6
CONTINUOUS
 62
     2
100
AcDbText
 10
175.7500000000001
 20
132.375
 30
0.0
 40
21.25
  1
写図
 41
1.509694117647059
  7
EXCADSTD
 72
     5
 11
226.1630000000001
 21
132.375
 31
0.0
100
AcDbText
  0
TEXT
  5
111
330
1F
100
AcDbEntity
  8
図枠
  6
CONTINUOUS
 62
     2
100
AcDbText
 10
250.7500000000001
 20
132.375
 30
0.0
 40
21.25
  1
検図
 41
1.303826737967914
  7
EXCADSTD
 72
     5
 11
294.2885000000001
 21
132.375
 31
0.0
100
AcDbText
  0
LINE
  5
112
330
1F
100
AcDbEntity
  8
図枠
  6
EXLTYPE2
 62
     6
100
AcDbLine
 10
-3.000000000000114
 20
745.5000000000001
 30
0.0
 11
87.00000000000013
 21
745.5000000000001
 31
0.0
  0
LINE
  5
113
330
1F
100
AcDbEntity
  8
図枠
  6
CONTINUOUS
 62
     7
100
AcDbLine
 10
87.00000000000013
 20
45.50000000000001
 30
0.0
 11
87.00000000000013
 21
1445.5
 31
0.0
  0
LINE
  5
114
330
1F
100
AcDbEntity
  8
図枠
  6
CONTINUOUS
 62
     7
100
AcDbLine
 10
87.00000000000013
 20
1445.5
 30
0.0
 11
997.0
 21
1445.5
 31
0.0
  0
LINE
  5
115
330
1F
100
AcDbEntity
  8
図枠
  6
CONTINUOUS
 62
     7
100
AcDbLine
 10
997.0
 20
45.50000000000001
 30
0.0
 11
997.0
 21
1445.5
 31
0.0
  0
LINE
  5
116
330
1F
100
AcDbEntity
  8
図枠
  6
CONTINUOUS
 62
     7
100
AcDbLine
 10
87.00000000000013
 20
155.5
 30
0.0
 11
997.0
 21
155.5
 31
0.0
  0
LINE
  5
117
330
1F
100
AcDbEntity
  8
図枠
  6
CONTINUOUS
 62
     7
100
AcDbLine
 10
87.00000000000013
 20
45.50000000000001
 30
0.0
 11
997.0
 21
45.50000000000001
 31
0.0
  0
LINE
  5
118
330
1F
100
AcDbEntity
  8
図枠
  6
CONTINUOUS
 62
     6
100
AcDbLine
 10
372.0000000000002
 20
155.5
 30
0.0
 11
372.0000000000002
 21
45.50000000000001
 31
0.0
  0
LINE
  5
119
330
1F
100
AcDbEntity
  8
図枠
  6
CONTINUOUS
 62
     6
100
AcDbLine
 10
242.0000000000001
 20
155.5
 30
0.0
 11
242.0000000000001
 21
45.50000000000001
 31
0.0
  0
LINE
  5
11A
330
1F
100
AcDbEntity
  8
図枠
  6
CONTINUOUS
 62
     6
100
AcDbLine
 10
164.5000000000001
 20
155.5
 30
0.0
 11
164.5000000000001
 21
45.50000000000001
 31
0.0
  0
CIRCLE
  5
11B
330
1F
100
AcDbEntity
  8
図枠
  6
CONTINUOUS
 62
     6
100
AcDbCircle
 10
112.0000000000001
 20
58.00000000000001
 30
0.0
 40
0.5000001
  0
CIRCLE
  5
11C
330
1F
100
AcDbEntity
  8
図枠
  6
CONTINUOUS
 62
     6
100
AcDbCircle
 10
137.0000000000001
 20
58.00000000000001
 30
0.0
 40
0.5000001
  0
CIRCLE
  5
11D
330
1F
100
AcDbEntity
  8
図枠
  6
CONTINUOUS
 62
     6
100
AcDbCircle
 10
189.5000000000001
 20
58.00000000000001
 30
0.0
 40
0.5000001
  0
CIRCLE
  5
11E
330
1F
100
AcDbEntity
  8
図枠
  6
CONTINUOUS
 62
     6
100
AcDbCircle
 10
214.5000000000001
 20
58.00000000000001
 30
0.0
 40
0.5000001
  0
LINE
  5
11F
330
1F
100
AcDbEntity
  8
図枠
  6
CONTINUOUS
 62
     6
100
AcDbLine
 10
307.0000000000001
 20
155.5
 30
0.0
 11
307.0000000000001
 21
45.50000000000001
 31
0.0
  0
LINE
  5
120
330
1F
100
AcDbEntity
  8
図枠
  6
EXLTYPE2
 62
     6
100
AcDbLine
 10
87.00000000000013
 20
70.5
 30
0.0
 11
242.0000000000001
 21
70.5
 31
0.0
  0
LINE
  5
121
330
1F
100
AcDbEntity
  8
図枠
  6
CONTINUOUS
 62
     6
100
AcDbLine
 10
997.0
 20
95.5
 30
0.0
 11
372.0000000000002
 21
95.5
 31
0.0
  0
LINE
  5
122
330
1F
100
AcDbEntity
  8
図枠
  6
CONTINUOUS
 62
     6
100
AcDbLine
 10
927.0
 20
155.5
 30
0.0
 11
927.0
 21
95.5
 31
0.0
  0
LINE
  5
123
330
1F
100
AcDbEntity
  8
図枠
  6
CONTINUOUS
 62
     6
100
AcDbLine
 10
717.0000000000001
 20
155.5
 30
0.0
 11
717.0000000000001
 21
45.50000000000001
 31
0.0
  0
LINE
  5
124
330
1F
100
AcDbEntity
  8
図枠
  6
CONTINUOUS
 62
     6
100
AcDbLine
 10
692.0000000000001
 20
155.5
 30
0.0
 11
692.0000000000001
 21
45.50000000000001
 31
0.0
  0
LINE
  5
125
330
1F
100
AcDbEntity
  8
図枠
  6
CONTINUOUS
 62
     6
100
AcDbLine
 10
943.3269043000001
 20
107.00146485
 30
0.0
 11
981.9969482500001
 21
146.34991455
 31
0.0
  0
LINE
  5
126
330
1F
100
AcDbEntity
  8
図枠
  6
CONTINUOUS
 62
     6
100
AcDbLine
 10
902.0
 20
155.5
 30
0.0
 11
902.0
 21
95.5
 31
0.0
  0
TEXT
  5
127
330
1F
100
AcDbEntity
  8
図枠
  6
CONTINUOUS
 62
     2
100
AcDbText
 10
315.7500000000002
 20
132.375
 30
0.0
 40
21.25
  1
承認
 41
1.303826737967914
  7
EXCADSTD
 72
     5
 11
359.2885000000002
 21
132.375
 31
0.0
100
AcDbText
  0
TEXT
  5
128
330
1F
100
AcDbEntity
  8
図枠
  6
CONTINUOUS
 62
     2
100
AcDbText
 10
942.2685546999998
 20
129.3613891499999
 30
0.0
 40
15.0
  1
１
 41
1.101333333333329
  7
EXCADSTD
 72
     5
 11
954.0685546999997
 21
129.3613891499999
 31
0.0
100
AcDbText
  0
TEXT
  5
129
330
1F
100
AcDbEntity
  8
図枠
  6
CONTINUOUS
 62
     2
100
AcDbText
 10
694.8750000000002
 20
127.375
 30
0.0
 40
21.25
  1
品
 41
1.12
  7
EXCADSTD
 72
     5
 11
711.8750000000002
 21
127.375
 31
0.0
100
AcDbText
  0
TEXT
  5
12A
330
1F
100
AcDbEntity
  8
図枠
  6
CONTINUOUS
 62
     2
100
AcDbText
 10
694.8750000000002
 20
102.375
 30
0.0
 40
21.25
  1
番
 41
1.12
  7
EXCADSTD
 72
     5
 11
711.8750000000002
 21
102.375
 31
0.0
100
AcDbText
  0
TEXT
  5
12B
330
1F
100
AcDbEntity
  8
図枠
  6
CONTINUOUS
 62
     2
100
AcDbText
 10
905.375
 20
127.375
 30
0.0
 40
21.25
  1
尺
 41
1.12
  7
EXCADSTD
 72
     5
 11
922.375
 21
127.375
 31
0.0
100
AcDbText
  0
TEXT
  5
12C
330
1F
100
AcDbEntity
  8
図枠
  6
CONTINUOUS
 62
     2
100
AcDbText
 10
905.375
 20
102.375
 30
0.0
 40
21.25
  1
度
 41
1.12
  7
EXCADSTD
 72
     5
 11
922.375
 21
102.375
 31
0.0
100
AcDbText
  0
TEXT
  5
12D
330
1F
100
AcDbEntity
  8
図枠
  6
CONTINUOUS
 62
     2
100
AcDbText
 10
694.8750000000002
 20
70.875
 30
0.0
 40
21.25
  1
図
 41
1.12
  7
EXCADSTD
 72
     5
 11
711.8750000000002
 21
70.875
 31
0.0
100
AcDbText
  0
TEXT
  5
12E
330
1F
100
AcDbEntity
  8
図枠
  6
CONTINUOUS
 62
     2
100
AcDbText
 10
694.8750000000002
 20
49.375
 30
0.0
 40
21.25
  1
番
 41
1.12
  7
EXCADSTD
 72
     5
 11
711.8750000000002
 21
49.375
 31
0.0
100
AcDbText
  0
LINE
  5
12F
330
1F
100
AcDbEntity
  8
図枠
  6
CONTINUOUS
 62
     6
100
AcDbLine
 10
87.00000000000013
 20
130.5
 30
0.0
 11
372.0000000000002
 21
130.5
 31
0.0
  0
TEXT
  5
130
330
1F
100
AcDbEntity
  8
図枠
  6
CONTINUOUS
 62
     2
100
AcDbText
 10
374.8749999999998
 20
127.3750000000001
 30
0.0
 40
21.25
  1
品
 41
1.12
  7
EXCADSTD
 72
     5
 11
391.8749999999998
 21
127.3750000000001
 31
0.0
100
AcDbText
  0
TEXT
  5
131
330
1F
100
AcDbEntity
  8
図枠
  6
CONTINUOUS
 62
     2
100
AcDbText
 10
374.8749999999998
 20
102.3750000000001
 30
0.0
 40
21.25
  1
名
 41
1.12
  7
EXCADSTD
 72
     5
 11
391.8749999999998
 21
102.3750000000001
 31
0.0
100
AcDbText
  0
LINE
  5
132
330
1F
100
AcDbEntity
  8
図枠
  6
CONTINUOUS
 62
     6
100
AcDbLine
 10
396.9999999999999
 20
155.5000000000001
 30
0.0
 11
396.9999999999999
 21
95.50000000000011
 31
0.0
  0
TEXT
  5
133
330
1F
100
AcDbEntity
  8
図枠
  6
CONTINUOUS
 62
     6
100
AcDbText
 10
98.25000000000148
 20
88.00000000000068
 30
0.0
 40
25.0
  1
岩田
 41
1.28324
  7
EXCADSTD
 72
     5
 11
148.6630000000015
 21
88.00000000000068
 31
0.0
100
AcDbText
  0
TEXT
  5
134
330
1F
100
AcDbEntity
  8
図枠
  6
CONTINUOUS
 62
     6
100
AcDbText
 10
90.17205783773956
 20
50.22503660000007
 30
0.0
 40
15.0
  1
'21
 41
0.5376093902439024
  7
EXCADSTD
 72
     5
 11
105.9163328377396
 21
50.22503660000007
 31
0.0
100
AcDbText
  0
TEXT
  5
135
330
1F
100
AcDbEntity
  8
図枠
  6
CONTINUOUS
 62
     2
100
AcDbText
 10
682.2499999999998
 20
1422.5
 30
0.0
 40
20.0
  1
材質
 41
1.895695454545453
  7
EXCADSTD
 72
     5
 11
741.8289999999997
 21
1422.5
 31
0.0
100
AcDbText
  0
TEXT
  5
136
330
1F
100
AcDbEntity
  8
図枠
  6
CONTINUOUS
 62
     2
100
AcDbText
 10
427.0000000000003
 20
1398.0
 30
0.0
 40
20.0
  1
１
 41
1.12
  7
EXCADSTD
 72
     5
 11
443.0000000000003
 21
1398.0
 31
0.0
100
AcDbText
  0
TEXT
  5
137
330
1F
100
AcDbEntity
  8
図枠
  6
CONTINUOUS
 62
     2
100
AcDbText
 10
427.0000000000003
 20
1373.0
 30
0.0
 40
20.0
  1
２
 41
1.12
  7
EXCADSTD
 72
     5
 11
443.0000000000003
 21
1373.0
 31
0.0
100
AcDbText
  0
TEXT
  5
138
330
1F
100
AcDbEntity
  8
図枠
  6
CONTINUOUS
 62
     2
100
AcDbText
 10
812.0000000000002
 20
1398.0
 30
0.0
 40
20.0
  1
１
 41
1.12
  7
EXCADSTD
 72
     5
 11
828.0000000000002
 21
1398.0
 31
0.0
100
AcDbText
  0
TEXT
  5
139
330
1F
100
AcDbEntity
  8
図枠
  6
CONTINUOUS
 62
     2
100
AcDbText
 10
417.0000000000003
 20
1423.0
 30
0.0
 40
20.0
  1
番号
 41
1.166581818181818
  7
EXCADSTD
 72
     5
 11
453.6640000000003
 21
1423.0
 31
0.0
100
AcDbText
  0
TEXT
  5
13A
330
1F
100
AcDbEntity
  8
図枠
  6
CONTINUOUS
 62
     2
100
AcDbText
 10
516.5000000000001
 20
1423.0
 30
0.0
 40
20.0
  1
品名
 41
1.895695454545453
  7
EXCADSTD
 72
     5
 11
576.0790000000001
 21
1423.0
 31
0.0
100
AcDbText
  0
TEXT
  5
13B
330
1F
100
AcDbEntity
  8
図枠
  6
CONTINUOUS
 62
     2
100
AcDbText
 10
802.0000000000002
 20
1423.0
 30
0.0
 40
20.0
  1
個数
 41
1.166581818181818
  7
EXCADSTD
 72
     5
 11
838.6640000000002
 21
1423.0
 31
0.0
100
AcDbText
  0
TEXT
  5
13C
330
1F
100
AcDbEntity
  8
図枠
  6
CONTINUOUS
 62
     2
100
AcDbText
 10
889.5000000000002
 20
1423.0
 30
0.0
 40
20.0
  1
備考
 41
1.895695454545453
  7
EXCADSTD
 72
     5
 11
949.0790000000002
 21
1423.0
 31
0.0
100
AcDbText
  0
LINE
  5
13D
330
1F
100
AcDbEntity
  8
図枠
  6
CONTINUOUS
 62
     6
100
AcDbLine
 10
409.5000000000003
 20
1420.5
 30
0.0
 11
997.0000000000002
 21
1420.5
 31
0.0
  0
LINE
  5
13E
330
1F
100
AcDbEntity
  8
図枠
  6
CONTINUOUS
 62
     6
100
AcDbLine
 10
409.5000000000003
 20
1395.5
 30
0.0
 11
997.0000000000002
 21
1395.5
 31
0.0
  0
LINE
  5
13F
330
1F
100
AcDbEntity
  8
図枠
  6
CONTINUOUS
 62
     6
100
AcDbLine
 10
409.5000000000003
 20
1370.5
 30
0.0
 11
997.0000000000002
 21
1370.5
 31
0.0
  0
LINE
  5
140
330
1F
100
AcDbEntity
  8
図枠
  6
CONTINUOUS
 62
     6
100
AcDbLine
 10
632.5000000000003
 20
1445.5
 30
0.0
 11
632.5000000000003
 21
1370.5
 31
0.0
  0
LINE
  5
141
330
1F
100
AcDbEntity
  8
図枠
  6
CONTINUOUS
 62
     6
100
AcDbLine
 10
796.9999999999997
 20
1370.5
 30
0.0
 11
796.9999999999997
 21
1445.5
 31
0.0
  0
LINE
  5
142
330
1F
100
AcDbEntity
  8
図枠
  6
CONTINUOUS
 62
     6
100
AcDbLine
 10
847.0000000000002
 20
1445.5
 30
0.0
 11
847.0000000000002
 21
1370.5
 31
0.0
  0
LINE
  5
143
330
1F
100
AcDbEntity
  8
図枠
  6
CONTINUOUS
 62
     6
100
AcDbLine
 10
460.5000000000002
 20
1445.5
 30
0.0
 11
460.5000000000002
 21
1370.5
 31
0.0
  0
LINE
  5
144
330
1F
100
AcDbEntity
  8
図枠
  6
CONTINUOUS
 62
     6
100
AcDbLine
 10
409.5000000000002
 20
1445.5
 30
0.0
 11
409.5000000000002
 21
1370.5
 31
0.0
  0
TEXT
  5
145
330
1F
100
AcDbEntity
  8
図枠
  6
CONTINUOUS
 62
     2
100
AcDbText
 10
467.0000000000003
 20
1373.0
 30
0.0
 40
20.0
  1
バインドタッピンねじ
 41
0.9046610169491522
  7
EXCADSTD
 72
     5
 11
619.5000000000002
 21
1373.0
 31
0.0
100
AcDbText
  0
TEXT
  5
146
330
1F
100
AcDbEntity
  8
図枠
  6
CONTINUOUS
 62
     2
100
AcDbText
 10
849.4999999999999
 20
1398.0
 30
0.0
 40
20.0
  1
クロムメッキ
 41
0.95
  7
EXCADSTD
 72
     5
 11
944.4999999999999
 21
1398.0
 31
0.0
100
AcDbText
  0
TEXT
  5
147
330
1F
100
AcDbEntity
  8
図枠
  6
CONTINUOUS
 62
     2
100
AcDbText
 10
467.0000000000003
 20
1398.0
 30
0.0
 40
20.0
  1
本体
 41
1.093670454545455
  7
EXCADSTD
 72
     5
 11
501.3725000000003
 21
1398.0
 31
0.0
100
AcDbText
  0
TEXT
  5
148
330
1F
100
AcDbEntity
  8
図枠
  6
CONTINUOUS
 62
     2
100
AcDbText
 10
853.5000000000005
 20
1373.0
 30
0.0
 40
20.0
  1
４×３５
 41
0.9891304347826085
  7
EXCADSTD
 72
     5
 11
918.5000000000005
 21
1373.0
 31
0.0
100
AcDbText
  0
TEXT
  5
149
330
1F
100
AcDbEntity
  8
図枠
  6
CONTINUOUS
 62
     2
100
AcDbText
 10
812.0000000000002
 20
1373.0
 30
0.0
 40
20.0
  1
４
 41
1.12
  7
EXCADSTD
 72
     5
 11
828.0000000000002
 21
1373.0
 31
0.0
100
AcDbText
  0
TEXT
  5
14A
330
1F
100
AcDbEntity
  8
図枠
  6
CONTINUOUS
 62
     2
100
AcDbText
 10
634.9999999999998
 20
1398.0
 30
0.0
 40
20.0
  1
亜鉛ダイカスト,真鍮
 41
0.9008875739644971
  7
EXCADSTD
 72
     5
 11
779.9999999999998
 21
1398.0
 31
0.0
100
AcDbText
  0
TEXT
  5
14B
330
1F
100
AcDbEntity
  8
図枠
  6
CONTINUOUS
 62
     2
100
AcDbText
 10
634.9999999999998
 20
1373.0
 30
0.0
 40
20.0
  1
ステンレス
 41
0.9655172413793103
  7
EXCADSTD
 72
     5
 11
714.9999999999998
 21
1373.0
 31
0.0
100
AcDbText
  0
TEXT
  5
14C
330
1F
100
AcDbEntity
  8
図枠
  6
CONTINUOUS
 62
     2
100
AcDbText
 10
466.8054198999998
 20
112.6356659
 30
0.0
 40
25.0
  1
ＳＬタオル掛け
 41
1.092682926829268
  7
EXCADSTD
 72
     5
 11
626.8054198999998
 21
112.6356659
 31
0.0
100
AcDbText
  0
TEXT
  5
14D
330
1F
100
AcDbEntity
  8
図枠
  6
CONTINUOUS
 62
     2
100
AcDbText
 10
962.6396484499998
 20
107.1744232000001
 30
0.0
 40
15.0
  1
５
 41
1.101333333333329
  7
EXCADSTD
 72
     5
 11
974.4396484499997
 21
107.1744232000001
 31
0.0
100
AcDbText
  0
TEXT
  5
14E
330
1F
100
AcDbEntity
  8
図枠
  6
CONTINUOUS
 62
     2
100
AcDbText
 10
732.749995708468
 20
112.9999999999989
 30
0.0
 40
25.0
  1
６１０－８５１ＪＳ
 41
0.8109433962264152
  7
EXCADSTD
 72
     5
 11
886.249995708468
 21
112.9999999999989
 31
0.0
100
AcDbText
  0
TEXT
  5
14F
330
1F
100
AcDbEntity
  8
図枠
  6
CONTINUOUS
 62
     6
100
AcDbText
 10
122.1595580284744
 20
50.22503660000007
 30
0.0
 40
15.0
  1
3
 41
0.4014705882352941
  7
EXCADSTD
 72
     5
 11
127.0345580284744
 21
50.22503660000007
 31
0.0
100
AcDbText
  0
TEXT
  5
150
330
1F
100
AcDbEntity
  8
図枠
  6
CONTINUOUS
 62
     6
100
AcDbText
 10
146.1970581059605
 20
50.22503660000007
 30
0.0
 40
15.0
  1
15
 41
0.3329729585389835
  7
EXCADSTD
 72
     5
 11
154.9970577244908
 21
50.22503660000007
 31
0.0
100
AcDbText
  0
TEXT
  5
151
330
1F
100
AcDbEntity
  8
図枠
  6
CONTINUOUS
 62
     7
100
AcDbText
 10
779.125
 20
55.875
 30
0.0
 40
30.0
  1
９９０８１０
 41
1.033333333333333
  7
EXCADSTD
 72
     5
 11
934.125
 21
55.875
 31
0.0
100
AcDbText
  0
DIMENSION
  5
153
330
1F
100
AcDbEntity
  8
図
  6
CONTINUOUS
 62
     3
100
AcDbDimension
  2
*D15
 10
633.5
 20
963.4999999999801
 30
0.0
 11
433.5000000000001
 21
975.2499999701778
 31
0.0
 70
   160
  3
ISO-25
100
AcDbAlignedDimension
 13
233.5
 23
844.39743173862
 33
0.0
 14
633.5
 24
844.39743173861
 34
0.0
100
AcDbRotatedDimension
1001
ACAD
1000
DSTYLE
1002
{
1070
   270
1070
     2
1070
     6
1000
EX_NORM
1070
     7
1000
EX_NORM
1070
    41
1040
15.0
1070
    42
1040
3.499999940395355
1070
    44
1040
5.0
1070
    73
1070
     0
1070
    74
1070
     0
1070
    75
1070
     0
1070
    76
1070
     0
1070
    77
1070
     1
1070
    78
1070
     0
1070
   140
1040
20.0
1070
   147
1040
0.0
1070
   173
1070
     1
1070
   176
1070
     3
1070
   177
1070
     3
1070
   178
1070
     2
1070
   271
1070
     0
1070
   277
1070
     2
1070
   279
1070
     2
1070
   280
1070
     0
1070
   287
1070
     5
1070
   340
1005
152
1002
}
  0
DIMENSION
  5
161
330
1F
100
AcDbEntity
  8
図
  6
CONTINUOUS
 62
     3
100
AcDbDimension
  2
*D16
 10
643.5
 20
870.9999999999801
 30
0.0
 11
676.0
 21
882.7499999701778
 31
0.0
 70
   160
  3
ISO-25
100
AcDbAlignedDimension
 13
623.5
 23
844.0729374284501
 33
0.0
 14
643.5
 24
844.0729374284501
 34
0.0
100
AcDbRotatedDimension
1001
ACAD
1000
DSTYLE
1002
{
1070
   270
1070
     2
1070
     6
1000
EX_NORM
1070
     7
1000
EX_NORM
1070
    41
1040
15.0
1070
    42
1040
3.499999940395355
1070
    44
1040
5.0
1070
    73
1070
     0
1070
    74
1070
     0
1070
    75
1070
     0
1070
    76
1070
     0
1070
    77
1070
     1
1070
    78
1070
     0
1070
   140
1040
20.0
1070
   147
1040
0.0
1070
   173
1070
     1
1070
   176
1070
     3
1070
   177
1070
     3
1070
   178
1070
     2
1070
   271
1070
     0
1070
   277
1070
     2
1070
   279
1070
     2
1070
   280
1070
     2
1070
   287
1070
     5
1070
   340
1005
152
1002
}
  0
DIMENSION
  5
170
330
1F
100
AcDbEntity
  8
図
  6
CONTINUOUS
 62
     3
100
AcDbDimension
  2
*D17
 10
651.5
 20
716.39999999998
 30
0.0
 11
633.5
 21
728.1499999701776
 31
0.0
 70
   160
  3
ISO-25
100
AcDbAlignedDimension
 13
615.5
 23
758.24108679939
 33
0.0
 14
651.5
 24
758.2410867993699
 34
0.0
100
AcDbRotatedDimension
1001
ACAD
1000
DSTYLE
1002
{
1070
   270
1070
     2
1070
     6
1000
EX_NORM
1070
     7
1000
EX_NORM
1070
    41
1040
15.0
1070
    42
1040
3.499999940395355
1070
    44
1040
5.0
1070
    73
1070
     0
1070
    74
1070
     0
1070
    75
1070
     0
1070
    76
1070
     0
1070
    77
1070
     1
1070
    78
1070
     0
1070
   140
1040
20.0
1070
   147
1040
0.0
1070
   173
1070
     1
1070
   176
1070
     3
1070
   177
1070
     3
1070
   178
1070
     2
1070
   271
1070
     0
1070
   277
1070
     2
1070
   279
1070
     2
1070
   280
1070
     0
1070
   287
1070
     5
1070
   340
1005
152
1002
}
  0
DIMENSION
  5
17D
330
1F
100
AcDbEntity
  8
図
  6
CONTINUOUS
 62
     3
100
AcDbDimension
  2
*D18
 10
651.5
 20
676.99999999998
 30
0.0
 11
433.5000000000051
 21
688.7499999701777
 31
0.0
 70
   160
  1
（436）
  3
ISO-25
100
AcDbAlignedDimension
 13
215.50000000001
 23
758.24108679907
 33
0.0
 14
651.5
 24
758.24108679995
 34
0.0
100
AcDbRotatedDimension
1001
ACAD
1000
DSTYLE
1002
{
1070
   270
1070
     2
1070
     6
1000
EX_NORM
1070
     7
1000
EX_NORM
1070
    41
1040
15.0
1070
    42
1040
3.499999940395355
1070
    44
1040
5.0
1070
    73
1070
     0
1070
    74
1070
     0
1070
    75
1070
     0
1070
    76
1070
     0
1070
    77
1070
     1
1070
    78
1070
     0
1070
   140
1040
20.0
1070
   147
1040
0.0
1070
   173
1070
     1
1070
   176
1070
     3
1070
   177
1070
     3
1070
   178
1070
     2
1070
   271
1070
     0
1070
   277
1070
     2
1070
   279
1070
     2
1070
   280
1070
     0
1070
   287
1070
     5
1070
   340
1005
152
1002
}
  0
LINE
  5
18A
330
1F
100
AcDbEntity
  8
図
  6
CONTINUOUS
 62
     2
100
AcDbLine
 10
251.5000000000001
 20
458.1738700235
 30
0.0
 11
251.5000000000001
 21
492.6133175823
 31
0.0
  0
POLYLINE
  5
18B
330
1F
100
AcDbEntity
  8
図
  6
CONTINUOUS
 62
     2
100
AcDb2dPolyline
 66
     1
 10
0.0
 20
0.0
 30
0.0
 70
   128
  0
VERTEX
  5
18C
330
18B
100
AcDbEntity
  8
図
  6
CONTINUOUS
 62
     2
100
AcDbVertex
100
AcDb2dVertex
 10
251.4999999999601
 20
492.61331758221
 30
0.0
  0
VERTEX
  5
18D
330
18B
100
AcDbEntity
  8
図
  6
CONTINUOUS
 62
     2
100
AcDbVertex
100
AcDb2dVertex
 10
251.4988723066328
 20
492.6242091675554
 30
0.0
  0
VERTEX
  5
18E
330
18B
100
AcDbEntity
  8
図
  6
CONTINUOUS
 62
     2
100
AcDbVertex
100
AcDb2dVertex
 10
251.4955084997754
 20
492.6550970179984
 30
0.0
  0
VERTEX
  5
18F
330
18B
100
AcDbEntity
  8
図
  6
CONTINUOUS
 62
     2
100
AcDbVertex
100
AcDb2dVertex
 10
251.489937489075
 20
492.703300775149
 30
0.0
  0
VERTEX
  5
190
330
18B
100
AcDbEntity
  8
図
  6
CONTINUOUS
 62
     2
100
AcDbVertex
100
AcDb2dVertex
 10
251.4821881842181
 20
492.766140080617
 30
0.0
  0
VERTEX
  5
191
330
18B
100
AcDbEntity
  8
図
  6
CONTINUOUS
 62
     2
100
AcDbVertex
100
AcDb2dVertex
 10
251.4722894948918
 20
492.8409345760123
 30
0.0
  0
VERTEX
  5
192
330
18B
100
AcDbEntity
  8
図
  6
CONTINUOUS
 62
     2
100
AcDbVertex
100
AcDb2dVertex
 10
251.460270330783
 20
492.9250039029453
 30
0.0
  0
VERTEX
  5
193
330
18B
100
AcDbEntity
  8
図
  6
CONTINUOUS
 62
     2
100
AcDbVertex
100
AcDb2dVertex
 10
251.4461596015784
 20
493.0156677030255
 30
0.0
  0
VERTEX
  5
194
330
18B
100
AcDbEntity
  8
図
  6
CONTINUOUS
 62
     2
100
AcDbVertex
100
AcDb2dVertex
 10
251.429986216965
 20
493.1102456178631
 30
0.0
  0
VERTEX
  5
195
330
18B
100
AcDbEntity
  8
図
  6
CONTINUOUS
 62
     2
100
AcDbVertex
100
AcDb2dVertex
 10
251.4117790866296
 20
493.2060572890683
 30
0.0
  0
VERTEX
  5
196
330
18B
100
AcDbEntity
  8
図
  6
CONTINUOUS
 62
     2
100
AcDbVertex
100
AcDb2dVertex
 10
251.3915671202589
 20
493.3004223582504
 30
0.0
  0
VERTEX
  5
197
330
18B
100
AcDbEntity
  8
図
  6
CONTINUOUS
 62
     2
100
AcDbVertex
100
AcDb2dVertex
 10
251.36937922754
 20
493.39066046702
 30
0.0
  0
VERTEX
  5
198
330
18B
100
AcDbEntity
  8
図
  6
CONTINUOUS
 62
     2
100
AcDbVertex
100
AcDb2dVertex
 10
251.3451896627386
 20
493.474773119184
 30
0.0
  0
VERTEX
  5
199
330
18B
100
AcDbEntity
  8
図
  6
CONTINUOUS
 62
     2
100
AcDbVertex
100
AcDb2dVertex
 10
251.3189906730474
 20
493.5526890585809
 30
0.0
  0
VERTEX
  5
19A
330
18B
100
AcDbEntity
  8
図
  6
CONTINUOUS
 62
     2
100
AcDbVertex
100
AcDb2dVertex
 10
251.2907261321188
 20
493.6250408544735
 30
0.0
  0
VERTEX
  5
19B
330
18B
100
AcDbEntity
  8
図
  6
CONTINUOUS
 62
     2
100
AcDbVertex
100
AcDb2dVertex
 10
251.2603399136056
 20
493.692461076124
 30
0.0
  0
VERTEX
  5
19C
330
18B
100
AcDbEntity
  8
図
  6
CONTINUOUS
 62
     2
100
AcDbVertex
100
AcDb2dVertex
 10
251.2277758911604
 20
493.7555822927951
 30
0.0
  0
VERTEX
  5
19D
330
18B
100
AcDbEntity
  8
図
  6
CONTINUOUS
 62
     2
100
AcDbVertex
100
AcDb2dVertex
 10
251.1929779384361
 20
493.8150370737491
 30
0.0
  0
VERTEX
  5
19E
330
18B
100
AcDbEntity
  8
図
  6
CONTINUOUS
 62
     2
100
AcDbVertex
100
AcDb2dVertex
 10
251.1558899290852
 20
493.8714579882485
 30
0.0
  0
VERTEX
  5
19F
330
18B
100
AcDbEntity
  8
図
  6
CONTINUOUS
 62
     2
100
AcDbVertex
100
AcDb2dVertex
 10
251.1164557367605
 20
493.9254776055559
 30
0.0
  0
VERTEX
  5
1A0
330
18B
100
AcDbEntity
  8
図
  6
CONTINUOUS
 62
     2
100
AcDbVertex
100
AcDb2dVertex
 10
251.0746192351145
 20
493.9777284949336
 30
0.0
  0
VERTEX
  5
1A1
330
18B
100
AcDbEntity
  8
図
  6
CONTINUOUS
 62
     2
100
AcDbVertex
100
AcDb2dVertex
 10
251.0303242978002
 20
494.0288432256442
 30
0.0
  0
VERTEX
  5
1A2
330
18B
100
AcDbEntity
  8
図
  6
CONTINUOUS
 62
     2
100
AcDbVertex
100
AcDb2dVertex
 10
250.9835147984701
 20
494.0794543669501
 30
0.0
  0
VERTEX
  5
1A3
330
18B
100
AcDbEntity
  8
図
  6
CONTINUOUS
 62
     2
100
AcDbVertex
100
AcDb2dVertex
 10
250.9367572425323
 20
494.1274803431141
 30
0.0
  0
VERTEX
  5
1A4
330
18B
100
AcDbEntity
  8
図
  6
CONTINUOUS
 62
     2
100
AcDbVertex
100
AcDb2dVertex
 10
250.8879866286339
 20
494.1753779977152
 30
0.0
  0
VERTEX
  5
1A5
330
18B
100
AcDbEntity
  8
図
  6
CONTINUOUS
 62
     2
100
AcDbVertex
100
AcDb2dVertex
 10
250.8375067513512
 20
494.2229027651072
 30
0.0
  0
VERTEX
  5
1A6
330
18B
100
AcDbEntity
  8
図
  6
CONTINUOUS
 62
     2
100
AcDbVertex
100
AcDb2dVertex
 10
250.7856214052608
 20
494.2698100796442
 30
0.0
  0
VERTEX
  5
1A7
330
18B
100
AcDbEntity
  8
図
  6
CONTINUOUS
 62
     2
100
AcDbVertex
100
AcDb2dVertex
 10
250.7326343849392
 20
494.3158553756803
 30
0.0
  0
VERTEX
  5
1A8
330
18B
100
AcDbEntity
  8
図
  6
CONTINUOUS
 62
     2
100
AcDbVertex
100
AcDb2dVertex
 10
250.6788494849631
 20
494.3607940875698
 30
0.0
  0
VERTEX
  5
1A9
330
18B
100
AcDbEntity
  8
図
  6
CONTINUOUS
 62
     2
100
AcDbVertex
100
AcDb2dVertex
 10
250.6245704999086
 20
494.4043816496667
 30
0.0
  0
VERTEX
  5
1AA
330
18B
100
AcDbEntity
  8
図
  6
CONTINUOUS
 62
     2
100
AcDbVertex
100
AcDb2dVertex
 10
250.5701012243526
 20
494.446373496325
 30
0.0
  0
VERTEX
  5
1AB
330
18B
100
AcDbEntity
  8
図
  6
CONTINUOUS
 62
     2
100
AcDbVertex
100
AcDb2dVertex
 10
250.5157454528715
 20
494.4865250618989
 30
0.0
  0
VERTEX
  5
1AC
330
18B
100
AcDbEntity
  8
図
  6
CONTINUOUS
 62
     2
100
AcDbVertex
100
AcDb2dVertex
 10
250.4618069800418
 20
494.5245917807425
 30
0.0
  0
VERTEX
  5
1AD
330
18B
100
AcDbEntity
  8
図
  6
CONTINUOUS
 62
     2
100
AcDbVertex
100
AcDb2dVertex
 10
250.4085896004399
 20
494.5603290872099
 30
0.0
  0
VERTEX
  5
1AE
330
18B
100
AcDbEntity
  8
図
  6
CONTINUOUS
 62
     2
100
AcDbVertex
100
AcDb2dVertex
 10
250.3607800721437
 20
494.5907138696753
 30
0.0
  0
VERTEX
  5
1AF
330
18B
100
AcDbEntity
  8
図
  6
CONTINUOUS
 62
     2
100
AcDbVertex
100
AcDb2dVertex
 10
250.3130581265484
 20
494.6189721547263
 30
0.0
  0
VERTEX
  5
1B0
330
18B
100
AcDbEntity
  8
図
  6
CONTINUOUS
 62
     2
100
AcDbVertex
100
AcDb2dVertex
 10
250.2646590743516
 20
494.6451179030529
 30
0.0
  0
VERTEX
  5
1B1
330
18B
100
AcDbEntity
  8
図
  6
CONTINUOUS
 62
     2
100
AcDbVertex
100
AcDb2dVertex
 10
250.2148182262505
 20
494.6691650753445
 30
0.0
  0
VERTEX
  5
1B2
330
18B
100
AcDbEntity
  8
図
  6
CONTINUOUS
 62
     2
100
AcDbVertex
100
AcDb2dVertex
 10
250.1627708929424
 20
494.6911276322906
 30
0.0
  0
VERTEX
  5
1B3
330
18B
100
AcDbEntity
  8
図
  6
CONTINUOUS
 62
     2
100
AcDbVertex
100
AcDb2dVertex
 10
250.1077523851248
 20
494.7110195345809
 30
0.0
  0
VERTEX
  5
1B4
330
18B
100
AcDbEntity
  8
図
  6
CONTINUOUS
 62
     2
100
AcDbVertex
100
AcDb2dVertex
 10
250.0489980134949
 20
494.7288547429049
 30
0.0
  0
VERTEX
  5
1B5
330
18B
100
AcDbEntity
  8
図
  6
CONTINUOUS
 62
     2
100
AcDbVertex
100
AcDb2dVertex
 10
249.9857430887502
 20
494.7446472179523
 30
0.0
  0
VERTEX
  5
1B6
330
18B
100
AcDbEntity
  8
図
  6
CONTINUOUS
 62
     2
100
AcDbVertex
100
AcDb2dVertex
 10
249.9172229215879
 20
494.7584109204125
 30
0.0
  0
VERTEX
  5
1B7
330
18B
100
AcDbEntity
  8
図
  6
CONTINUOUS
 62
     2
100
AcDbVertex
100
AcDb2dVertex
 10
249.8426728227053
 20
494.7701598109752
 30
0.0
  0
VERTEX
  5
1B8
330
18B
100
AcDbEntity
  8
図
  6
CONTINUOUS
 62
     2
100
AcDbVertex
100
AcDb2dVertex
 10
249.7613281027998
 20
494.77990785033
 30
0.0
  0
VERTEX
  5
1B9
330
18B
100
AcDbEntity
  8
図
  6
CONTINUOUS
 62
     2
100
AcDbVertex
100
AcDb2dVertex
 10
249.7283150078979
 20
494.7831164143399
 30
0.0
  0
VERTEX
  5
1BA
330
18B
100
AcDbEntity
  8
図
  6
CONTINUOUS
 62
     2
100
AcDbVertex
100
AcDb2dVertex
 10
249.6949316654639
 20
494.7860306613383
 30
0.0
  0
VERTEX
  5
1BB
330
18B
100
AcDbEntity
  8
図
  6
CONTINUOUS
 62
     2
100
AcDbVertex
100
AcDb2dVertex
 10
249.6619185576513
 20
494.7886482187083
 30
0.0
  0
VERTEX
  5
1BC
330
18B
100
AcDbEntity
  8
図
  6
CONTINUOUS
 62
     2
100
AcDbVertex
100
AcDb2dVertex
 10
249.6300161666138
 20
494.7909667138339
 30
0.0
  0
VERTEX
  5
1BD
330
18B
100
AcDbEntity
  8
図
  6
CONTINUOUS
 62
     2
100
AcDbVertex
100
AcDb2dVertex
 10
249.599964974505
 20
494.7929837740983
 30
0.0
  0
VERTEX
  5
1BE
330
18B
100
AcDbEntity
  8
図
  6
CONTINUOUS
 62
     2
100
AcDbVertex
100
AcDb2dVertex
 10
249.5725054634787
 20
494.7946970268852
 30
0.0
  0
VERTEX
  5
1BF
330
18B
100
AcDbEntity
  8
図
  6
CONTINUOUS
 62
     2
100
AcDbVertex
100
AcDb2dVertex
 10
249.5483781156883
 20
494.7961040995781
 30
0.0
  0
VERTEX
  5
1C0
330
18B
100
AcDbEntity
  8
図
  6
CONTINUOUS
 62
     2
100
AcDbVertex
100
AcDb2dVertex
 10
249.5283234132877
 20
494.7972026195605
 30
0.0
  0
VERTEX
  5
1C1
330
18B
100
AcDbEntity
  8
図
  6
CONTINUOUS
 62
     2
100
AcDbVertex
100
AcDb2dVertex
 10
249.5130818384303
 20
494.7979902142159
 30
0.0
  0
VERTEX
  5
1C2
330
18B
100
AcDbEntity
  8
図
  6
CONTINUOUS
 62
     2
100
AcDbVertex
100
AcDb2dVertex
 10
249.5033938732699
 20
494.7984645109279
 30
0.0
  0
VERTEX
  5
1C3
330
18B
100
AcDbEntity
  8
図
  6
CONTINUOUS
 62
     2
100
AcDbVertex
100
AcDb2dVertex
 10
249.4999999999601
 20
494.79862313708
 30
0.0
  0
SEQEND
  5
1C4
330
18B
100
AcDbEntity
  8
図
  6
CONTINUOUS
 62
     2
  0
LINE
  5
1C5
330
1F
100
AcDbEntity
  8
図
  6
CONTINUOUS
 62
     2
100
AcDbLine
 10
217.5000000000001
 20
494.7986231371
 30
0.0
 11
249.5000000000001
 21
494.7986231371
 31
0.0
  0
LINE
  5
1C6
330
1F
100
AcDbEntity
  8
図
  6
CONTINUOUS
 62
     2
100
AcDbLine
 10
251.5000000000001
 20
454.2986231371
 30
0.0
 11
615.5
 21
454.2986231371
 31
0.0
  0
LINE
  5
1C7
330
1F
100
AcDbEntity
  8
図
  6
CONTINUOUS
 62
     2
100
AcDbLine
 10
615.5
 20
464.2986231371
 30
0.0
 11
251.5000000000001
 21
464.2986231371
 31
0.0
  0
LINE
  5
1C8
330
1F
100
AcDbEntity
  8
図
  6
CONTINUOUS
 62
     2
100
AcDbLine
 10
217.5000000000001
 20
448.2327868851
 30
0.0
 11
249.5000000000001
 21
448.2327868851
 31
0.0
  0
ARC
  5
1C9
330
1F
100
AcDbEntity
  8
図
  6
CONTINUOUS
 62
     2
100
AcDbCircle
 10
217.5000000000001
 20
450.2327868851
 30
0.0
 40
2.0
100
AcDbArc
 50
180.0
 51
270.0000000000101
  0
ARC
  5
1CA
330
1F
100
AcDbEntity
  8
図
  6
CONTINUOUS
 62
     2
100
AcDbCircle
 10
249.5000000000001
 20
450.2327868851
 30
0.0
 40
2.0
100
AcDbArc
 50
270.0
 51
0.0
  0
LINE
  5
1CB
330
1F
100
AcDbEntity
  8
図
  6
CONTINUOUS
 62
     2
100
AcDbLine
 10
617.5
 20
448.2327868851
 30
0.0
 11
649.5
 21
448.2327868851
 31
0.0
  0
ARC
  5
1CC
330
1F
100
AcDbEntity
  8
図
  6
CONTINUOUS
 62
     2
100
AcDbCircle
 10
617.50000000001
 20
450.2327868851
 30
0.0
 40
2.0
100
AcDbArc
 50
180.0
 51
269.99999999985
  0
ARC
  5
1CD
330
1F
100
AcDbEntity
  8
図
  6
CONTINUOUS
 62
     2
100
AcDbCircle
 10
649.5
 20
450.2327868850901
 30
0.0
 40
2.0
100
AcDbArc
 50
270.0
 51
0.0000000002393818
  0
LINE
  5
1CE
330
1F
100
AcDbEntity
  8
図
  6
CONTINUOUS
 62
     2
100
AcDbLine
 10
251.5000000000001
 20
450.2327868851
 30
0.0
 11
251.5000000000001
 21
458.1738700235
 31
0.0
  0
LINE
  5
1CF
330
1F
100
AcDbEntity
  8
図
  6
CONTINUOUS
 62
     2
100
AcDbLine
 10
215.5000000000001
 20
458.1738700235
 30
0.0
 11
215.5000000000001
 21
450.2327868851
 31
0.0
  0
LINE
  5
1D0
330
1F
100
AcDbEntity
  8
図
  6
CONTINUOUS
 62
     2
100
AcDbLine
 10
215.5000000000001
 20
492.6133175823
 30
0.0
 11
215.5000000000001
 21
458.1738700235
 31
0.0
  0
POLYLINE
  5
1D1
330
1F
100
AcDbEntity
  8
図
  6
CONTINUOUS
 62
     2
100
AcDb2dPolyline
 66
     1
 10
0.0
 20
0.0
 30
0.0
 70
   128
  0
VERTEX
  5
1D2
330
1D1
100
AcDbEntity
  8
図
  6
CONTINUOUS
 62
     2
100
AcDbVertex
100
AcDb2dVertex
 10
217.4999999999601
 20
494.79862313708
 30
0.0
  0
VERTEX
  5
1D3
330
1D1
100
AcDbEntity
  8
図
  6
CONTINUOUS
 62
     2
100
AcDbVertex
100
AcDb2dVertex
 10
217.491297057138
 20
494.7976856579119
 30
0.0
  0
VERTEX
  5
1D4
330
1D1
100
AcDbEntity
  8
図
  6
CONTINUOUS
 62
     2
100
AcDbVertex
100
AcDb2dVertex
 10
217.4666173833482
 20
494.7948918223565
 30
0.0
  0
VERTEX
  5
1D5
330
1D1
100
AcDbEntity
  8
図
  6
CONTINUOUS
 62
     2
100
AcDbVertex
100
AcDb2dVertex
 10
217.4281047106057
 20
494.7902695333369
 30
0.0
  0
VERTEX
  5
1D6
330
1D1
100
AcDbEntity
  8
図
  6
CONTINUOUS
 62
     2
100
AcDbVertex
100
AcDb2dVertex
 10
217.3779027709253
 20
494.7838466937758
 30
0.0
  0
VERTEX
  5
1D7
330
1D1
100
AcDbEntity
  8
図
  6
CONTINUOUS
 62
     2
100
AcDbVertex
100
AcDb2dVertex
 10
217.3181552963218
 20
494.7756512065962
 30
0.0
  0
VERTEX
  5
1D8
330
1D1
100
AcDbEntity
  8
図
  6
CONTINUOUS
 62
     2
100
AcDbVertex
100
AcDb2dVertex
 10
217.2510060188102
 20
494.7657109747213
 30
0.0
  0
VERTEX
  5
1D9
330
1D1
100
AcDbEntity
  8
図
  6
CONTINUOUS
 62
     2
100
AcDbVertex
100
AcDb2dVertex
 10
217.1785986704053
 20
494.7540539010739
 30
0.0
  0
VERTEX
  5
1DA
330
1D1
100
AcDbEntity
  8
図
  6
CONTINUOUS
 62
     2
100
AcDbVertex
100
AcDb2dVertex
 10
217.103076983122
 20
494.740707888577
 30
0.0
  0
VERTEX
  5
1DB
330
1D1
100
AcDbEntity
  8
図
  6
CONTINUOUS
 62
     2
100
AcDbVertex
100
AcDb2dVertex
 10
217.026584688975
 20
494.7257008401538
 30
0.0
  0
VERTEX
  5
1DC
330
1D1
100
AcDbEntity
  8
図
  6
CONTINUOUS
 62
     2
100
AcDbVertex
100
AcDb2dVertex
 10
216.9512655199795
 20
494.7090606587272
 30
0.0
  0
VERTEX
  5
1DD
330
1D1
100
AcDbEntity
  8
図
  6
CONTINUOUS
 62
     2
100
AcDbVertex
100
AcDb2dVertex
 10
216.87926320815
 20
494.69081524722
 30
0.0
  0
VERTEX
  5
1DE
330
1D1
100
AcDbEntity
  8
図
  6
CONTINUOUS
 62
     2
100
AcDbVertex
100
AcDb2dVertex
 10
216.8123592371261
 20
494.6710131157024
 30
0.0
  0
VERTEX
  5
1DF
330
1D1
100
AcDbEntity
  8
図
  6
CONTINUOUS
 62
     2
100
AcDbVertex
100
AcDb2dVertex
 10
216.7503850095937
 20
494.6496326574971
 30
0.0
  0
VERTEX
  5
1E0
330
1D1
100
AcDbEntity
  8
図
  6
CONTINUOUS
 62
     2
100
AcDbVertex
100
AcDb2dVertex
 10
216.6928234923137
 20
494.6266688832568
 30
0.0
  0
VERTEX
  5
1E1
330
1D1
100
AcDbEntity
  8
図
  6
CONTINUOUS
 62
     2
100
AcDbVertex
100
AcDb2dVertex
 10
216.6391576520476
 20
494.6021168036339
 30
0.0
  0
VERTEX
  5
1E2
330
1D1
100
AcDbEntity
  8
図
  6
CONTINUOUS
 62
     2
100
AcDbVertex
100
AcDb2dVertex
 10
216.5888704555564
 20
494.5759714292809
 30
0.0
  0
VERTEX
  5
1E3
330
1D1
100
AcDbEntity
  8
図
  6
CONTINUOUS
 62
     2
100
AcDbVertex
100
AcDb2dVertex
 10
216.5414448696013
 20
494.5482277708502
 30
0.0
  0
VERTEX
  5
1E4
330
1D1
100
AcDbEntity
  8
図
  6
CONTINUOUS
 62
     2
100
AcDbVertex
100
AcDb2dVertex
 10
216.4963638609436
 20
494.5188808389944
 30
0.0
  0
VERTEX
  5
1E5
330
1D1
100
AcDbEntity
  8
図
  6
CONTINUOUS
 62
     2
100
AcDbVertex
100
AcDb2dVertex
 10
216.4531103963444
 20
494.487925644366
 30
0.0
  0
VERTEX
  5
1E6
330
1D1
100
AcDbEntity
  8
図
  6
CONTINUOUS
 62
     2
100
AcDbVertex
100
AcDb2dVertex
 10
216.411167442565
 20
494.4553571976175
 30
0.0
  0
VERTEX
  5
1E7
330
1D1
100
AcDbEntity
  8
図
  6
CONTINUOUS
 62
     2
100
AcDbVertex
100
AcDb2dVertex
 10
216.3700179663664
 20
494.4211705094013
 30
0.0
  0
VERTEX
  5
1E8
330
1D1
100
AcDbEntity
  8
図
  6
CONTINUOUS
 62
     2
100
AcDbVertex
100
AcDb2dVertex
 10
216.3291449345099
 20
494.3853605903699
 30
0.0
  0
VERTEX
  5
1E9
330
1D1
100
AcDbEntity
  8
図
  6
CONTINUOUS
 62
     2
100
AcDbVertex
100
AcDb2dVertex
 10
216.2867254998914
 20
494.3466336450603
 30
0.0
  0
VERTEX
  5
1EA
330
1D1
100
AcDbEntity
  8
図
  6
CONTINUOUS
 62
     2
100
AcDbVertex
100
AcDb2dVertex
 10
216.2442273010438
 20
494.3063614249259
 30
0.0
  0
VERTEX
  5
1EB
330
1D1
100
AcDbEntity
  8
図
  6
CONTINUOUS
 62
     2
100
AcDbVertex
100
AcDb2dVertex
 10
216.2018290742449
 20
494.2647413270728
 30
0.0
  0
VERTEX
  5
1EC
330
1D1
100
AcDbEntity
  8
図
  6
CONTINUOUS
 62
     2
100
AcDbVertex
100
AcDb2dVertex
 10
216.1597095557724
 20
494.2219707486072
 30
0.0
  0
VERTEX
  5
1ED
330
1D1
100
AcDbEntity
  8
図
  6
CONTINUOUS
 62
     2
100
AcDbVertex
100
AcDb2dVertex
 10
216.1180474819041
 20
494.1782470866352
 30
0.0
  0
VERTEX
  5
1EE
330
1D1
100
AcDbEntity
  8
図
  6
CONTINUOUS
 62
     2
100
AcDbVertex
100
AcDb2dVertex
 10
216.0770215889179
 20
494.1337677382633
 30
0.0
  0
VERTEX
  5
1EF
330
1D1
100
AcDbEntity
  8
図
  6
CONTINUOUS
 62
     2
100
AcDbVertex
100
AcDb2dVertex
 10
216.0368106130915
 20
494.0887301005976
 30
0.0
  0
VERTEX
  5
1F0
330
1D1
100
AcDbEntity
  8
図
  6
CONTINUOUS
 62
     2
100
AcDbVertex
100
AcDb2dVertex
 10
215.9975932907028
 20
494.043331570744
 30
0.0
  0
VERTEX
  5
1F1
330
1D1
100
AcDbEntity
  8
図
  6
CONTINUOUS
 62
     2
100
AcDbVertex
100
AcDb2dVertex
 10
215.9595483580295
 20
493.9977695458092
 30
0.0
  0
VERTEX
  5
1F2
330
1D1
100
AcDbEntity
  8
図
  6
CONTINUOUS
 62
     2
100
AcDbVertex
100
AcDb2dVertex
 10
215.9228545513492
 20
493.9522414228991
 30
0.0
  0
VERTEX
  5
1F3
330
1D1
100
AcDbEntity
  8
図
  6
CONTINUOUS
 62
     2
100
AcDbVertex
100
AcDb2dVertex
 10
215.88769060694
 20
493.9069445991199
 30
0.0
  0
VERTEX
  5
1F4
330
1D1
100
AcDbEntity
  8
図
  6
CONTINUOUS
 62
     2
100
AcDbVertex
100
AcDb2dVertex
 10
215.8515979718846
 20
493.8583758572185
 30
0.0
  0
VERTEX
  5
1F5
330
1D1
100
AcDbEntity
  8
図
  6
CONTINUOUS
 62
     2
100
AcDbVertex
100
AcDb2dVertex
 10
215.8174605136965
 20
493.8097114723654
 30
0.0
  0
VERTEX
  5
1F6
330
1D1
100
AcDbEntity
  8
図
  6
CONTINUOUS
 62
     2
100
AcDbVertex
100
AcDb2dVertex
 10
215.785240922141
 20
493.7603558762612
 30
0.0
  0
VERTEX
  5
1F7
330
1D1
100
AcDbEntity
  8
図
  6
CONTINUOUS
 62
     2
100
AcDbVertex
100
AcDb2dVertex
 10
215.7549018869829
 20
493.7097135006068
 30
0.0
  0
VERTEX
  5
1F8
330
1D1
100
AcDbEntity
  8
図
  6
CONTINUOUS
 62
     2
100
AcDbVertex
100
AcDb2dVertex
 10
215.7264060979871
 20
493.6571887771025
 30
0.0
  0
VERTEX
  5
1F9
330
1D1
100
AcDbEntity
  8
図
  6
CONTINUOUS
 62
     2
100
AcDbVertex
100
AcDb2dVertex
 10
215.6997162449187
 20
493.6021861374492
 30
0.0
  0
VERTEX
  5
1FA
330
1D1
100
AcDbEntity
  8
図
  6
CONTINUOUS
 62
     2
100
AcDbVertex
100
AcDb2dVertex
 10
215.6747950175426
 20
493.5441100133474
 30
0.0
  0
VERTEX
  5
1FB
330
1D1
100
AcDbEntity
  8
図
  6
CONTINUOUS
 62
     2
100
AcDbVertex
100
AcDb2dVertex
 10
215.6516051056237
 20
493.482364836498
 30
0.0
  0
VERTEX
  5
1FC
330
1D1
100
AcDbEntity
  8
図
  6
CONTINUOUS
 62
     2
100
AcDbVertex
100
AcDb2dVertex
 10
215.630109198927
 20
493.4163550386015
 30
0.0
  0
VERTEX
  5
1FD
330
1D1
100
AcDbEntity
  8
図
  6
CONTINUOUS
 62
     2
100
AcDbVertex
100
AcDb2dVertex
 10
215.6102699872174
 20
493.3454850513586
 30
0.0
  0
VERTEX
  5
1FE
330
1D1
100
AcDbEntity
  8
図
  6
CONTINUOUS
 62
     2
100
AcDbVertex
100
AcDb2dVertex
 10
215.59205016026
 20
493.26915930647
 30
0.0
  0
VERTEX
  5
1FF
330
1D1
100
AcDbEntity
  8
図
  6
CONTINUOUS
 62
     2
100
AcDbVertex
100
AcDb2dVertex
 10
215.5763411632667
 20
493.1921791484526
 30
0.0
  0
VERTEX
  5
200
330
1D1
100
AcDbEntity
  8
図
  6
CONTINUOUS
 62
     2
100
AcDbVertex
100
AcDb2dVertex
 10
215.5620523292747
 20
493.1120387768365
 30
0.0
  0
VERTEX
  5
201
330
1D1
100
AcDbEntity
  8
図
  6
CONTINUOUS
 62
     2
100
AcDbVertex
100
AcDb2dVertex
 10
215.5491996573237
 20
493.0309488083604
 30
0.0
  0
VERTEX
  5
202
330
1D1
100
AcDbEntity
  8
図
  6
CONTINUOUS
 62
     2
100
AcDbVertex
100
AcDb2dVertex
 10
215.5377991464535
 20
492.9511198597626
 30
0.0
  0
VERTEX
  5
203
330
1D1
100
AcDbEntity
  8
図
  6
CONTINUOUS
 62
     2
100
AcDbVertex
100
AcDb2dVertex
 10
215.5278667957038
 20
492.8747625477818
 30
0.0
  0
VERTEX
  5
204
330
1D1
100
AcDbEntity
  8
図
  6
CONTINUOUS
 62
     2
100
AcDbVertex
100
AcDb2dVertex
 10
215.5194186041143
 20
492.8040874891565
 30
0.0
  0
VERTEX
  5
205
330
1D1
100
AcDbEntity
  8
図
  6
CONTINUOUS
 62
     2
100
AcDbVertex
100
AcDb2dVertex
 10
215.5124705707247
 20
492.7413053006252
 30
0.0
  0
VERTEX
  5
206
330
1D1
100
AcDbEntity
  8
図
  6
CONTINUOUS
 62
     2
100
AcDbVertex
100
AcDb2dVertex
 10
215.5070386945748
 20
492.6886265989263
 30
0.0
  0
VERTEX
  5
207
330
1D1
100
AcDbEntity
  8
図
  6
CONTINUOUS
 62
     2
100
AcDbVertex
100
AcDb2dVertex
 10
215.5031389747042
 20
492.6482620007986
 30
0.0
  0
VERTEX
  5
208
330
1D1
100
AcDbEntity
  8
図
  6
CONTINUOUS
 62
     2
100
AcDbVertex
100
AcDb2dVertex
 10
215.5007874101527
 20
492.6224221229802
 30
0.0
  0
VERTEX
  5
209
330
1D1
100
AcDbEntity
  8
図
  6
CONTINUOUS
 62
     2
100
AcDbVertex
100
AcDb2dVertex
 10
215.4999999999601
 20
492.61331758221
 30
0.0
  0
SEQEND
  5
20A
330
1D1
100
AcDbEntity
  8
図
  6
CONTINUOUS
 62
     2
  0
LINE
  5
20B
330
1F
100
AcDbEntity
  8
図
  6
CONTINUOUS
 62
     2
100
AcDbLine
 10
651.5
 20
458.1738700235
 30
0.0
 11
651.5
 21
450.2327868851
 31
0.0
  0
LINE
  5
20C
330
1F
100
AcDbEntity
  8
図
  6
CONTINUOUS
 62
     2
100
AcDbLine
 10
615.5
 20
450.2327868851
 30
0.0
 11
615.5
 21
458.1738700235
 31
0.0
  0
LINE
  5
20D
330
1F
100
AcDbEntity
  8
図
  6
CONTINUOUS
 62
     2
100
AcDbLine
 10
651.5
 20
492.6133175823
 30
0.0
 11
651.5
 21
458.1738700235
 31
0.0
  0
POLYLINE
  5
20E
330
1F
100
AcDbEntity
  8
図
  6
CONTINUOUS
 62
     2
100
AcDb2dPolyline
 66
     1
 10
0.0
 20
0.0
 30
0.0
 70
   128
  0
VERTEX
  5
20F
330
20E
100
AcDbEntity
  8
図
  6
CONTINUOUS
 62
     2
100
AcDbVertex
100
AcDb2dVertex
 10
649.4999999999599
 20
494.79862313708
 30
0.0
  0
VERTEX
  5
210
330
20E
100
AcDbEntity
  8
図
  6
CONTINUOUS
 62
     2
100
AcDbVertex
100
AcDb2dVertex
 10
649.6383493395601
 20
494.79862313708
 30
0.0
  0
VERTEX
  5
211
330
20E
100
AcDbEntity
  8
図
  6
CONTINUOUS
 62
     2
100
AcDbVertex
100
AcDb2dVertex
 10
649.7740069555098
 20
494.78312471754
 30
0.0
  0
VERTEX
  5
212
330
20E
100
AcDbEntity
  8
図
  6
CONTINUOUS
 62
     2
100
AcDbVertex
100
AcDb2dVertex
 10
650.0402134301198
 20
494.72271265097
 30
0.0
  0
VERTEX
  5
213
330
20E
100
AcDbEntity
  8
図
  6
CONTINUOUS
 62
     2
100
AcDbVertex
100
AcDb2dVertex
 10
650.1720189528501
 20
494.6769477258701
 30
0.0
  0
VERTEX
  5
214
330
20E
100
AcDbEntity
  8
図
  6
CONTINUOUS
 62
     2
100
AcDbVertex
100
AcDb2dVertex
 10
650.5427776117699
 20
494.50145566617
 30
0.0
  0
VERTEX
  5
215
330
20E
100
AcDbEntity
  8
図
  6
CONTINUOUS
 62
     2
100
AcDbVertex
100
AcDb2dVertex
 10
650.7651240237897
 20
494.33000969486
 30
0.0
  0
VERTEX
  5
216
330
20E
100
AcDbEntity
  8
図
  6
CONTINUOUS
 62
     2
100
AcDbVertex
100
AcDb2dVertex
 10
651.0350682910798
 20
494.0218635564
 30
0.0
  0
VERTEX
  5
217
330
20E
100
AcDbEntity
  8
図
  6
CONTINUOUS
 62
     2
100
AcDbVertex
100
AcDb2dVertex
 10
651.1160275371699
 20
493.9090304327701
 30
0.0
  0
VERTEX
  5
218
330
20E
100
AcDbEntity
  8
図
  6
CONTINUOUS
 62
     2
100
AcDbVertex
100
AcDb2dVertex
 10
651.25442258684
 20
493.67244348835
 30
0.0
  0
VERTEX
  5
219
330
20E
100
AcDbEntity
  8
図
  6
CONTINUOUS
 62
     2
100
AcDbVertex
100
AcDb2dVertex
 10
651.3121565184997
 20
493.54883615606
 30
0.0
  0
VERTEX
  5
21A
330
20E
100
AcDbEntity
  8
図
  6
CONTINUOUS
 62
     2
100
AcDbVertex
100
AcDb2dVertex
 10
651.40564329685
 20
493.29143232931
 30
0.0
  0
VERTEX
  5
21B
330
20E
100
AcDbEntity
  8
図
  6
CONTINUOUS
 62
     2
100
AcDbVertex
100
AcDb2dVertex
 10
651.4412273007197
 20
493.157220021
 30
0.0
  0
VERTEX
  5
21C
330
20E
100
AcDbEntity
  8
図
  6
CONTINUOUS
 62
     2
100
AcDbVertex
100
AcDb2dVertex
 10
651.4881619264501
 20
492.88773177639
 30
0.0
  0
VERTEX
  5
21D
330
20E
100
AcDbEntity
  8
図
  6
CONTINUOUS
 62
     2
100
AcDbVertex
100
AcDb2dVertex
 10
651.49999999996
 20
492.75135544115
 30
0.0
  0
VERTEX
  5
21E
330
20E
100
AcDbEntity
  8
図
  6
CONTINUOUS
 62
     2
100
AcDbVertex
100
AcDb2dVertex
 10
651.49999999996
 20
492.61331758221
 30
0.0
  0
SEQEND
  5
21F
330
20E
100
AcDbEntity
  8
図
  6
CONTINUOUS
 62
     2
  0
LINE
  5
220
330
1F
100
AcDbEntity
  8
図
  6
CONTINUOUS
 62
     2
100
AcDbLine
 10
615.5
 20
458.1738700235
 30
0.0
 11
615.5
 21
492.6133175823
 31
0.0
  0
POLYLINE
  5
221
330
1F
100
AcDbEntity
  8
図
  6
CONTINUOUS
 62
     2
100
AcDb2dPolyline
 66
     1
 10
0.0
 20
0.0
 30
0.0
 70
   128
  0
VERTEX
  5
222
330
221
100
AcDbEntity
  8
図
  6
CONTINUOUS
 62
     2
100
AcDbVertex
100
AcDb2dVertex
 10
615.49999999996
 20
492.61331758221
 30
0.0
  0
VERTEX
  5
223
330
221
100
AcDbEntity
  8
図
  6
CONTINUOUS
 62
     2
100
AcDbVertex
100
AcDb2dVertex
 10
615.49999999996
 20
492.8897616293
 30
0.0
  0
VERTEX
  5
224
330
221
100
AcDbEntity
  8
図
  6
CONTINUOUS
 62
     2
100
AcDbVertex
100
AcDb2dVertex
 10
615.5466192342296
 20
493.15954933358
 30
0.0
  0
VERTEX
  5
225
330
221
100
AcDbEntity
  8
図
  6
CONTINUOUS
 62
     2
100
AcDbVertex
100
AcDb2dVertex
 10
615.7347177055499
 20
493.67834028691
 30
0.0
  0
VERTEX
  5
226
330
221
100
AcDbEntity
  8
図
  6
CONTINUOUS
 62
     2
100
AcDbVertex
100
AcDb2dVertex
 10
615.8724883687
 20
493.9160240399301
 30
0.0
  0
VERTEX
  5
227
330
221
100
AcDbEntity
  8
図
  6
CONTINUOUS
 62
     2
100
AcDbVertex
100
AcDb2dVertex
 10
616.1445629100699
 20
494.22707129825
 30
0.0
  0
VERTEX
  5
228
330
221
100
AcDbEntity
  8
図
  6
CONTINUOUS
 62
     2
100
AcDbVertex
100
AcDb2dVertex
 10
616.2439158798798
 20
494.32039823609
 30
0.0
  0
VERTEX
  5
229
330
221
100
AcDbEntity
  8
図
  6
CONTINUOUS
 62
     2
100
AcDbVertex
100
AcDb2dVertex
 10
616.46025763535
 20
494.48596704638
 30
0.0
  0
VERTEX
  5
22A
330
221
100
AcDbEntity
  8
図
  6
CONTINUOUS
 62
     2
100
AcDbVertex
100
AcDb2dVertex
 10
616.57895280701
 20
494.55894382384
 30
0.0
  0
VERTEX
  5
22B
330
221
100
AcDbEntity
  8
図
  6
CONTINUOUS
 62
     2
100
AcDbVertex
100
AcDb2dVertex
 10
616.82687152054
 20
494.67655178141
 30
0.0
  0
VERTEX
  5
22C
330
221
100
AcDbEntity
  8
図
  6
CONTINUOUS
 62
     2
100
AcDbVertex
100
AcDb2dVertex
 10
616.9555482260098
 20
494.72145023424
 30
0.0
  0
VERTEX
  5
22D
330
221
100
AcDbEntity
  8
図
  6
CONTINUOUS
 62
     2
100
AcDbVertex
100
AcDb2dVertex
 10
617.22260379297
 20
494.78264768907
 30
0.0
  0
VERTEX
  5
22E
330
221
100
AcDbEntity
  8
図
  6
CONTINUOUS
 62
     2
100
AcDbVertex
100
AcDb2dVertex
 10
617.3613743246201
 20
494.79862313708
 30
0.0
  0
VERTEX
  5
22F
330
221
100
AcDbEntity
  8
図
  6
CONTINUOUS
 62
     2
100
AcDbVertex
100
AcDb2dVertex
 10
617.49999999996
 20
494.79862313708
 30
0.0
  0
SEQEND
  5
230
330
221
100
AcDbEntity
  8
図
  6
CONTINUOUS
 62
     2
  0
LINE
  5
231
330
1F
100
AcDbEntity
  8
図
  6
CONTINUOUS
 62
     2
100
AcDbLine
 10
649.5
 20
494.7986231371
 30
0.0
 11
617.5
 21
494.7986231371
 31
0.0
  0
LINE
  5
232
330
1F
100
AcDbEntity
  8
図
  6
CONTINUOUS
 62
     4
100
AcDbLine
 10
249.5000000000001
 20
494.7986231371
 30
0.0
 11
249.5000000000001
 21
459.6153237777
 31
0.0
  0
LINE
  5
233
330
1F
100
AcDbEntity
  8
図
  6
CONTINUOUS
 62
     4
100
AcDbLine
 10
251.5000000000001
 20
458.1738700235
 30
0.0
 11
251.4615705607999
 21
457.9199438263001
 31
0.0
  0
LINE
  5
234
330
1F
100
AcDbEntity
  8
図
  6
CONTINUOUS
 62
     4
100
AcDbLine
 10
251.4615705607999
 20
457.9199438263001
 30
0.0
 11
251.3477590650001
 21
457.6757758703
 31
0.0
  0
LINE
  5
235
330
1F
100
AcDbEntity
  8
図
  6
CONTINUOUS
 62
     4
100
AcDbLine
 10
251.3477590650001
 20
457.6757758703
 30
0.0
 11
251.1629392246001
 21
457.4507493935
 31
0.0
  0
LINE
  5
236
330
1F
100
AcDbEntity
  8
図
  6
CONTINUOUS
 62
     4
100
AcDbLine
 10
251.1629392246001
 20
457.4507493935
 30
0.0
 11
250.9142135624001
 21
457.2535120369
 31
0.0
  0
LINE
  5
237
330
1F
100
AcDbEntity
  8
図
  6
CONTINUOUS
 62
     4
100
AcDbLine
 10
250.9142135624001
 20
457.2535120369
 30
0.0
 11
250.6111404659999
 21
457.0916435215
 31
0.0
  0
LINE
  5
238
330
1F
100
AcDbEntity
  8
図
  6
CONTINUOUS
 62
     4
100
AcDbLine
 10
250.6111404659999
 20
457.0916435215
 30
0.0
 11
250.2653668645999
 21
456.9713643637
 31
0.0
  0
LINE
  5
239
330
1F
100
AcDbEntity
  8
図
  6
CONTINUOUS
 62
     4
100
AcDbLine
 10
250.2653668645999
 20
456.9713643637
 30
0.0
 11
249.890180644
 21
456.8972968241
 31
0.0
  0
LINE
  5
23A
330
1F
100
AcDbEntity
  8
図
  6
CONTINUOUS
 62
     4
100
AcDbLine
 10
249.890180644
 20
456.8972968241
 30
0.0
 11
249.5000000000001
 21
456.8722872765
 31
0.0
  0
ARC
  5
23B
330
1F
100
AcDbEntity
  8
図
  6
CONTINUOUS
 62
     4
100
AcDbCircle
 10
249.74027638421
 20
457.8404893879
 30
0.0
 40
1.7910248048949
100
AcDbArc
 50
10.72758063700203
 51
97.70980734406298
  0
LINE
  5
23C
330
1F
100
AcDbEntity
  8
図
  6
CONTINUOUS
 62
     4
100
AcDbLine
 10
249.5000000000001
 20
459.6153237777
 30
0.0
 11
217.5000000000001
 21
459.6153237777
 31
0.0
  0
LINE
  5
23D
330
1F
100
AcDbEntity
  8
図
  6
CONTINUOUS
 62
     4
100
AcDbLine
 10
217.5000000000001
 20
456.8722872765
 30
0.0
 11
249.5000000000001
 21
456.8722872765
 31
0.0
  0
ARC
  5
23E
330
1F
100
AcDbEntity
  8
図
  6
CONTINUOUS
 62
     4
100
AcDbCircle
 10
217.2597236155999
 20
457.84048938789
 30
0.0
 40
1.7910248048948
100
AcDbArc
 50
82.29019265599901
 51
169.27241936295
  0
LINE
  5
23F
330
1F
100
AcDbEntity
  8
図
  6
CONTINUOUS
 62
     4
100
AcDbLine
 10
217.5000000000001
 20
456.8722872765
 30
0.0
 11
217.109819356
 21
456.8972968241
 31
0.0
  0
LINE
  5
240
330
1F
100
AcDbEntity
  8
図
  6
CONTINUOUS
 62
     4
100
AcDbLine
 10
217.109819356
 20
456.8972968241
 30
0.0
 11
216.7346331351999
 21
456.9713643637
 31
0.0
  0
LINE
  5
241
330
1F
100
AcDbEntity
  8
図
  6
CONTINUOUS
 62
     4
100
AcDbLine
 10
216.7346331351999
 20
456.9713643637
 30
0.0
 11
216.3888595340001
 21
457.0916435215
 31
0.0
  0
LINE
  5
242
330
1F
100
AcDbEntity
  8
図
  6
CONTINUOUS
 62
     4
100
AcDbLine
 10
216.3888595340001
 20
457.0916435215
 30
0.0
 11
216.0857864375999
 21
457.2535120369
 31
0.0
  0
LINE
  5
243
330
1F
100
AcDbEntity
  8
図
  6
CONTINUOUS
 62
     4
100
AcDbLine
 10
216.0857864375999
 20
457.2535120369
 30
0.0
 11
215.8370607754001
 21
457.4507493935
 31
0.0
  0
LINE
  5
244
330
1F
100
AcDbEntity
  8
図
  6
CONTINUOUS
 62
     4
100
AcDbLine
 10
215.8370607754001
 20
457.4507493935
 30
0.0
 11
215.6522409350001
 21
457.6757758703
 31
0.0
  0
LINE
  5
245
330
1F
100
AcDbEntity
  8
図
  6
CONTINUOUS
 62
     4
100
AcDbLine
 10
215.6522409350001
 20
457.6757758703
 30
0.0
 11
215.5384294392
 21
457.9199438263001
 31
0.0
  0
LINE
  5
246
330
1F
100
AcDbEntity
  8
図
  6
CONTINUOUS
 62
     4
100
AcDbLine
 10
215.5384294392
 20
457.9199438263001
 30
0.0
 11
215.5000000000001
 21
458.1738700235
 31
0.0
  0
LINE
  5
247
330
1F
100
AcDbEntity
  8
図
  6
CONTINUOUS
 62
     4
100
AcDbLine
 10
249.5000000000001
 20
456.8722872765
 30
0.0
 11
249.5000000000001
 21
448.9312041383
 31
0.0
  0
LINE
  5
248
330
1F
100
AcDbEntity
  8
図
  6
CONTINUOUS
 62
     4
100
AcDbLine
 10
249.5000000000001
 20
448.9312041383
 30
0.0
 11
217.5000000000001
 21
448.9312041383
 31
0.0
  0
LINE
  5
249
330
1F
100
AcDbEntity
  8
図
  6
CONTINUOUS
 62
     4
100
AcDbLine
 10
217.5000000000001
 20
448.9312041383
 30
0.0
 11
217.5000000000001
 21
456.8722872765
 31
0.0
  0
LINE
  5
24A
330
1F
100
AcDbEntity
  8
図
  6
CONTINUOUS
 62
     4
100
AcDbLine
 10
251.5000000000001
 20
450.2327868851
 30
0.0
 11
251.4615705607999
 21
449.9788606879
 31
0.0
  0
LINE
  5
24B
330
1F
100
AcDbEntity
  8
図
  6
CONTINUOUS
 62
     4
100
AcDbLine
 10
251.4615705607999
 20
449.9788606879
 30
0.0
 11
251.3477590650001
 21
449.7346927321
 31
0.0
  0
LINE
  5
24C
330
1F
100
AcDbEntity
  8
図
  6
CONTINUOUS
 62
     4
100
AcDbLine
 10
251.3477590650001
 20
449.7346927321
 30
0.0
 11
251.1629392246001
 21
449.5096662551001
 31
0.0
  0
LINE
  5
24D
330
1F
100
AcDbEntity
  8
図
  6
CONTINUOUS
 62
     4
100
AcDbLine
 10
251.1629392246001
 20
449.5096662551001
 30
0.0
 11
250.9142135624001
 21
449.3124288985
 31
0.0
  0
LINE
  5
24E
330
1F
100
AcDbEntity
  8
図
  6
CONTINUOUS
 62
     4
100
AcDbLine
 10
250.9142135624001
 20
449.3124288985
 30
0.0
 11
250.6111404659999
 21
449.1505603833
 31
0.0
  0
LINE
  5
24F
330
1F
100
AcDbEntity
  8
図
  6
CONTINUOUS
 62
     4
100
AcDbLine
 10
250.6111404659999
 20
449.1505603833
 30
0.0
 11
250.2653668645999
 21
449.0302812255
 31
0.0
  0
LINE
  5
250
330
1F
100
AcDbEntity
  8
図
  6
CONTINUOUS
 62
     4
100
AcDbLine
 10
250.2653668645999
 20
449.0302812255
 30
0.0
 11
249.890180644
 21
448.9562136857
 31
0.0
  0
LINE
  5
251
330
1F
100
AcDbEntity
  8
図
  6
CONTINUOUS
 62
     4
100
AcDbLine
 10
249.890180644
 20
448.9562136857
 30
0.0
 11
249.5000000000001
 21
448.9312041383
 31
0.0
  0
LINE
  5
252
330
1F
100
AcDbEntity
  8
図
  6
CONTINUOUS
 62
     4
100
AcDbLine
 10
217.5000000000001
 20
448.9312041383
 30
0.0
 11
217.109819356
 21
448.9562136857
 31
0.0
  0
LINE
  5
253
330
1F
100
AcDbEntity
  8
図
  6
CONTINUOUS
 62
     4
100
AcDbLine
 10
217.109819356
 20
448.9562136857
 30
0.0
 11
216.7346331351999
 21
449.0302812255
 31
0.0
  0
LINE
  5
254
330
1F
100
AcDbEntity
  8
図
  6
CONTINUOUS
 62
     4
100
AcDbLine
 10
216.7346331351999
 20
449.0302812255
 30
0.0
 11
216.3888595340001
 21
449.1505603833
 31
0.0
  0
LINE
  5
255
330
1F
100
AcDbEntity
  8
図
  6
CONTINUOUS
 62
     4
100
AcDbLine
 10
216.3888595340001
 20
449.1505603833
 30
0.0
 11
216.0857864375999
 21
449.3124288985
 31
0.0
  0
LINE
  5
256
330
1F
100
AcDbEntity
  8
図
  6
CONTINUOUS
 62
     4
100
AcDbLine
 10
216.0857864375999
 20
449.3124288985
 30
0.0
 11
215.8370607754001
 21
449.5096662551001
 31
0.0
  0
LINE
  5
257
330
1F
100
AcDbEntity
  8
図
  6
CONTINUOUS
 62
     4
100
AcDbLine
 10
215.8370607754001
 20
449.5096662551001
 30
0.0
 11
215.6522409350001
 21
449.7346927321
 31
0.0
  0
LINE
  5
258
330
1F
100
AcDbEntity
  8
図
  6
CONTINUOUS
 62
     4
100
AcDbLine
 10
215.6522409350001
 20
449.7346927321
 30
0.0
 11
215.5384294392
 21
449.9788606879
 31
0.0
  0
LINE
  5
259
330
1F
100
AcDbEntity
  8
図
  6
CONTINUOUS
 62
     4
100
AcDbLine
 10
215.5384294392
 20
449.9788606879
 30
0.0
 11
215.5000000000001
 21
450.2327868851
 31
0.0
  0
LINE
  5
25A
330
1F
100
AcDbEntity
  8
図
  6
CONTINUOUS
 62
     4
100
AcDbLine
 10
217.5000000000001
 20
459.6153237777
 30
0.0
 11
217.5000000000001
 21
494.7986231371
 31
0.0
  0
LINE
  5
25B
330
1F
100
AcDbEntity
  8
図
  6
CONTINUOUS
 62
     4
100
AcDbLine
 10
649.5
 20
456.8722872765
 30
0.0
 11
617.5
 21
456.8722872765
 31
0.0
  0
LINE
  5
25C
330
1F
100
AcDbEntity
  8
図
  6
CONTINUOUS
 62
     4
100
AcDbLine
 10
617.5
 20
459.6153237777
 30
0.0
 11
649.5
 21
459.6153237777
 31
0.0
  0
LINE
  5
25D
330
1F
100
AcDbEntity
  8
図
  6
CONTINUOUS
 62
     4
100
AcDbLine
 10
615.5
 20
458.1738700235
 30
0.0
 11
615.5384294391997
 21
457.9199438263001
 31
0.0
  0
LINE
  5
25E
330
1F
100
AcDbEntity
  8
図
  6
CONTINUOUS
 62
     4
100
AcDbLine
 10
615.5384294391997
 20
457.9199438263001
 30
0.0
 11
615.652240935
 21
457.6757758703
 31
0.0
  0
LINE
  5
25F
330
1F
100
AcDbEntity
  8
図
  6
CONTINUOUS
 62
     4
100
AcDbLine
 10
615.652240935
 20
457.6757758703
 30
0.0
 11
615.8370607754
 21
457.4507493935
 31
0.0
  0
LINE
  5
260
330
1F
100
AcDbEntity
  8
図
  6
CONTINUOUS
 62
     4
100
AcDbLine
 10
615.8370607754
 20
457.4507493935
 30
0.0
 11
616.0857864375998
 21
457.2535120369
 31
0.0
  0
LINE
  5
261
330
1F
100
AcDbEntity
  8
図
  6
CONTINUOUS
 62
     4
100
AcDbLine
 10
616.0857864375998
 20
457.2535120369
 30
0.0
 11
616.388859534
 21
457.0916435215
 31
0.0
  0
LINE
  5
262
330
1F
100
AcDbEntity
  8
図
  6
CONTINUOUS
 62
     4
100
AcDbLine
 10
616.388859534
 20
457.0916435215
 30
0.0
 11
616.7346331352
 21
456.9713643637
 31
0.0
  0
LINE
  5
263
330
1F
100
AcDbEntity
  8
図
  6
CONTINUOUS
 62
     4
100
AcDbLine
 10
616.7346331352
 20
456.9713643637
 30
0.0
 11
617.1098193559997
 21
456.8972968241
 31
0.0
  0
LINE
  5
264
330
1F
100
AcDbEntity
  8
図
  6
CONTINUOUS
 62
     4
100
AcDbLine
 10
617.1098193559997
 20
456.8972968241
 30
0.0
 11
617.5
 21
456.8722872765
 31
0.0
  0
ARC
  5
265
330
1F
100
AcDbEntity
  8
図
  6
CONTINUOUS
 62
     4
100
AcDbCircle
 10
617.2597236155998
 20
457.8404893879
 30
0.0
 40
1.7910248048948
100
AcDbArc
 50
82.29019265599803
 51
169.27241936302
  0
ARC
  5
266
330
1F
100
AcDbEntity
  8
図
  6
CONTINUOUS
 62
     4
100
AcDbCircle
 10
649.7402763842096
 20
457.8404893879
 30
0.0
 40
1.791024804895
100
AcDbArc
 50
10.72758063699498
 51
97.70980734403699
  0
LINE
  5
267
330
1F
100
AcDbEntity
  8
図
  6
CONTINUOUS
 62
     4
100
AcDbLine
 10
649.5
 20
456.8722872765
 30
0.0
 11
649.8901806439998
 21
456.8972968241
 31
0.0
  0
LINE
  5
268
330
1F
100
AcDbEntity
  8
図
  6
CONTINUOUS
 62
     4
100
AcDbLine
 10
649.8901806439998
 20
456.8972968241
 30
0.0
 11
650.2653668645999
 21
456.9713643637
 31
0.0
  0
LINE
  5
269
330
1F
100
AcDbEntity
  8
図
  6
CONTINUOUS
 62
     4
100
AcDbLine
 10
650.2653668645999
 20
456.9713643637
 30
0.0
 11
650.611140466
 21
457.0916435215
 31
0.0
  0
LINE
  5
26A
330
1F
100
AcDbEntity
  8
図
  6
CONTINUOUS
 62
     4
100
AcDbLine
 10
650.611140466
 20
457.0916435215
 30
0.0
 11
650.9142135624002
 21
457.2535120369
 31
0.0
  0
LINE
  5
26B
330
1F
100
AcDbEntity
  8
図
  6
CONTINUOUS
 62
     4
100
AcDbLine
 10
650.9142135624002
 20
457.2535120369
 30
0.0
 11
651.1629392246
 21
457.4507493935
 31
0.0
  0
LINE
  5
26C
330
1F
100
AcDbEntity
  8
図
  6
CONTINUOUS
 62
     4
100
AcDbLine
 10
651.1629392246
 20
457.4507493935
 30
0.0
 11
651.3477590649999
 21
457.6757758703
 31
0.0
  0
LINE
  5
26D
330
1F
100
AcDbEntity
  8
図
  6
CONTINUOUS
 62
     4
100
AcDbLine
 10
651.3477590649999
 20
457.6757758703
 30
0.0
 11
651.4615705607998
 21
457.9199438263001
 31
0.0
  0
LINE
  5
26E
330
1F
100
AcDbEntity
  8
図
  6
CONTINUOUS
 62
     4
100
AcDbLine
 10
651.4615705607998
 20
457.9199438263001
 30
0.0
 11
651.5
 21
458.1738700235
 31
0.0
  0
LINE
  5
26F
330
1F
100
AcDbEntity
  8
図
  6
CONTINUOUS
 62
     4
100
AcDbLine
 10
617.5
 20
448.9312041383
 30
0.0
 11
649.5
 21
448.9312041383
 31
0.0
  0
LINE
  5
270
330
1F
100
AcDbEntity
  8
図
  6
CONTINUOUS
 62
     4
100
AcDbLine
 10
617.5
 20
456.8722872765
 30
0.0
 11
617.5
 21
448.9312041383
 31
0.0
  0
LINE
  5
271
330
1F
100
AcDbEntity
  8
図
  6
CONTINUOUS
 62
     4
100
AcDbLine
 10
649.5
 20
448.9312041383
 30
0.0
 11
649.5
 21
456.8722872765
 31
0.0
  0
LINE
  5
272
330
1F
100
AcDbEntity
  8
図
  6
CONTINUOUS
 62
     4
100
AcDbLine
 10
649.5
 20
448.9312041383
 30
0.0
 11
649.8901806439998
 21
448.9562136857
 31
0.0
  0
LINE
  5
273
330
1F
100
AcDbEntity
  8
図
  6
CONTINUOUS
 62
     4
100
AcDbLine
 10
649.8901806439998
 20
448.9562136857
 30
0.0
 11
650.2653668645999
 21
449.0302812255
 31
0.0
  0
LINE
  5
274
330
1F
100
AcDbEntity
  8
図
  6
CONTINUOUS
 62
     4
100
AcDbLine
 10
650.2653668645999
 20
449.0302812255
 30
0.0
 11
650.611140466
 21
449.1505603833
 31
0.0
  0
LINE
  5
275
330
1F
100
AcDbEntity
  8
図
  6
CONTINUOUS
 62
     4
100
AcDbLine
 10
650.611140466
 20
449.1505603833
 30
0.0
 11
650.9142135624002
 21
449.3124288985
 31
0.0
  0
LINE
  5
276
330
1F
100
AcDbEntity
  8
図
  6
CONTINUOUS
 62
     4
100
AcDbLine
 10
650.9142135624002
 20
449.3124288985
 30
0.0
 11
651.1629392246
 21
449.5096662551001
 31
0.0
  0
LINE
  5
277
330
1F
100
AcDbEntity
  8
図
  6
CONTINUOUS
 62
     4
100
AcDbLine
 10
651.1629392246
 20
449.5096662551001
 30
0.0
 11
651.3477590649999
 21
449.7346927321
 31
0.0
  0
LINE
  5
278
330
1F
100
AcDbEntity
  8
図
  6
CONTINUOUS
 62
     4
100
AcDbLine
 10
651.3477590649999
 20
449.7346927321
 30
0.0
 11
651.4615705607998
 21
449.9788606879
 31
0.0
  0
LINE
  5
279
330
1F
100
AcDbEntity
  8
図
  6
CONTINUOUS
 62
     4
100
AcDbLine
 10
651.4615705607998
 20
449.9788606879
 30
0.0
 11
651.5
 21
450.2327868851
 31
0.0
  0
LINE
  5
27A
330
1F
100
AcDbEntity
  8
図
  6
CONTINUOUS
 62
     4
100
AcDbLine
 10
615.5
 20
450.2327868851
 30
0.0
 11
615.5384294391997
 21
449.9788606879
 31
0.0
  0
LINE
  5
27B
330
1F
100
AcDbEntity
  8
図
  6
CONTINUOUS
 62
     4
100
AcDbLine
 10
615.5384294391997
 20
449.9788606879
 30
0.0
 11
615.652240935
 21
449.7346927321
 31
0.0
  0
LINE
  5
27C
330
1F
100
AcDbEntity
  8
図
  6
CONTINUOUS
 62
     4
100
AcDbLine
 10
615.652240935
 20
449.7346927321
 30
0.0
 11
615.8370607754
 21
449.5096662551001
 31
0.0
  0
LINE
  5
27D
330
1F
100
AcDbEntity
  8
図
  6
CONTINUOUS
 62
     4
100
AcDbLine
 10
615.8370607754
 20
449.5096662551001
 30
0.0
 11
616.0857864375998
 21
449.3124288985
 31
0.0
  0
LINE
  5
27E
330
1F
100
AcDbEntity
  8
図
  6
CONTINUOUS
 62
     4
100
AcDbLine
 10
616.0857864375998
 20
449.3124288985
 30
0.0
 11
616.388859534
 21
449.1505603833
 31
0.0
  0
LINE
  5
27F
330
1F
100
AcDbEntity
  8
図
  6
CONTINUOUS
 62
     4
100
AcDbLine
 10
616.388859534
 20
449.1505603833
 30
0.0
 11
616.7346331352
 21
449.0302812255
 31
0.0
  0
LINE
  5
280
330
1F
100
AcDbEntity
  8
図
  6
CONTINUOUS
 62
     4
100
AcDbLine
 10
616.7346331352
 20
449.0302812255
 30
0.0
 11
617.1098193559997
 21
448.9562136857
 31
0.0
  0
LINE
  5
281
330
1F
100
AcDbEntity
  8
図
  6
CONTINUOUS
 62
     4
100
AcDbLine
 10
617.1098193559997
 20
448.9562136857
 30
0.0
 11
617.5
 21
448.9312041383
 31
0.0
  0
LINE
  5
282
330
1F
100
AcDbEntity
  8
図
  6
CONTINUOUS
 62
     4
100
AcDbLine
 10
649.5
 20
459.6153237777
 30
0.0
 11
649.5
 21
494.7986231371
 31
0.0
  0
LINE
  5
283
330
1F
100
AcDbEntity
  8
図
  6
CONTINUOUS
 62
     4
100
AcDbLine
 10
617.5
 20
494.7986231371
 30
0.0
 11
617.5
 21
459.6153237777
 31
0.0
  0
LINE
  5
284
330
1F
100
AcDbEntity
  8
図
  6
EXLTYPE3
 62
     6
100
AcDbLine
 10
623.4769128767598
 20
459.2986231371
 30
0.0
 11
244.84649952815
 21
459.2986231371
 31
0.0
  0
LINE
  5
285
330
1F
100
AcDbEntity
  8
図
  6
EXLTYPE3
 62
     6
100
AcDbLine
 10
898.8862255529
 20
479.7986231371
 30
0.0
 11
861.4197016977397
 21
479.7986231371
 31
0.0
  0
LINE
  5
286
330
1F
100
AcDbEntity
  8
図
  6
CONTINUOUS
 62
     6
100
AcDbLine
 10
864.3132881244317
 20
477.7986231370969
 30
0.0
 11
886.1073399554692
 21
477.7986231370969
 31
0.0
  0
LINE
  5
287
330
1F
100
AcDbEntity
  8
図
  6
CONTINUOUS
 62
     6
100
AcDbLine
 10
887.0583740241995
 20
478.0392101099446
 30
0.0
 11
890.3132881244318
 21
479.7986231370969
 31
0.0
  0
LINE
  5
288
330
1F
100
AcDbEntity
  8
図
  6
CONTINUOUS
 62
     6
100
AcDbLine
 10
864.3132881244317
 20
481.7986231370968
 30
0.0
 11
886.1073399554692
 21
481.7986231370968
 31
0.0
  0
LINE
  5
289
330
1F
100
AcDbEntity
  8
図
  6
CONTINUOUS
 62
     6
100
AcDbLine
 10
887.0583740241995
 20
481.5580361642491
 30
0.0
 11
890.3132881244318
 21
479.7986231370969
 31
0.0
  0
ARC
  5
28A
330
1F
100
AcDbEntity
  8
図
  6
CONTINUOUS
 62
     6
100
AcDbCircle
 10
886.1073399554692
 20
479.7986231370969
 30
0.0
 40
2.0
100
AcDbArc
 50
270.0000000000002
 51
298.3930194213758
  0
ARC
  5
28B
330
1F
100
AcDbEntity
  8
図
  6
CONTINUOUS
 62
     6
100
AcDbCircle
 10
886.1073399554692
 20
479.7986231370969
 30
0.0
 40
2.0
100
AcDbArc
 50
61.6069805786228
 51
90.00000000000001
  0
ARC
  5
28C
330
1F
100
AcDbEntity
  8
図
  6
CONTINUOUS
 62
     2
100
AcDbCircle
 10
819.8610176138301
 20
450.23278688503
 30
0.0
 40
2.0000000000001
100
AcDbArc
 50
220.601294645
 51
293.9295914539899
  0
ARC
  5
28D
330
1F
100
AcDbEntity
  8
図
  6
CONTINUOUS
 62
     2
100
AcDbCircle
 10
813.0543749240397
 20
458.17387002342
 30
0.0
 40
2.0
100
AcDbArc
 50
133.88547459269
 51
220.60129464471
  0
LINE
  5
28E
330
1F
100
AcDbEntity
  8
図
  6
CONTINUOUS
 62
     2
100
AcDbLine
 10
856.4454545500299
 20
462.26645671163
 30
0.0
 11
856.4799547912299
 21
462.23195647043
 31
0.0
  0
LINE
  5
28F
330
1F
100
AcDbEntity
  8
図
  6
CONTINUOUS
 62
     2
100
AcDbLine
 10
856.4799547912299
 20
462.23195647043
 30
0.0
 11
856.7550128428298
 21
462.3694854962301
 31
0.0
  0
ARC
  5
290
330
1F
100
AcDbEntity
  8
図
  6
CONTINUOUS
 62
     2
100
AcDbCircle
 10
846.8324561106398
 20
456.79862313703
 30
0.0
 40
2.0
100
AcDbArc
 50
90.00000000016898
 51
109.99406494568
  0
LINE
  5
291
330
1F
100
AcDbEntity
  8
図
  6
CONTINUOUS
 62
     2
100
AcDbLine
 10
864.3132881244302
 20
458.79862313703
 30
0.0
 11
846.8324561106298
 21
458.79862313703
 31
0.0
  0
LINE
  5
292
330
1F
100
AcDbEntity
  8
図
  6
CONTINUOUS
 62
     2
100
AcDbLine
 10
864.3132881244302
 20
460.79862313703
 30
0.0
 11
864.3132881244302
 21
458.79862313703
 31
0.0
  0
LINE
  5
293
330
1F
100
AcDbEntity
  8
図
  6
CONTINUOUS
 62
     2
100
AcDbLine
 10
864.3132881244302
 20
464.79862313688
 30
0.0
 11
864.3132881244302
 21
494.7986231371
 31
0.0
  0
LINE
  5
294
330
1F
100
AcDbEntity
  8
図
  6
CONTINUOUS
 62
     2
100
AcDbLine
 10
864.3132881244302
 20
460.79862313703
 30
0.0
 11
864.3132881244302
 21
464.79862313688
 31
0.0
  0
DIMENSION
  5
295
330
1F
100
AcDbEntity
  8
図
  6
CONTINUOUS
 62
     3
100
AcDbDimension
  2
*D19
 10
909.15
 20
479.7986231371
 30
0.0
 11
897.4000000298025
 21
527.2986231369797
 31
0.0
 70
   160
  3
ISO-25
100
AcDbAlignedDimension
 13
864.31328812443
 23
494.79862313698
 33
0.0
 14
898.8862255529
 24
479.7986231371
 34
0.0
 50
90.0
100
AcDbRotatedDimension
1001
ACAD
1000
DSTYLE
1002
{
1070
   270
1070
     2
1070
     6
1000
EX_NORM
1070
     7
1000
EX_NORM
1070
    41
1040
15.0
1070
    42
1040
3.499999940395355
1070
    44
1040
5.0
1070
    73
1070
     0
1070
    74
1070
     0
1070
    75
1070
     0
1070
    76
1070
     0
1070
    77
1070
     1
1070
    78
1070
     0
1070
   140
1040
20.0
1070
   147
1040
0.0
1070
   173
1070
     1
1070
   176
1070
     3
1070
   177
1070
     3
1070
   178
1070
     2
1070
   271
1070
     0
1070
   277
1070
     2
1070
   279
1070
     2
1070
   280
1070
     1
1070
   287
1070
     5
1070
   340
1005
152
1002
}
  0
DIMENSION
  5
2A4
330
1F
100
AcDbEntity
  8
図
  6
CONTINUOUS
 62
     3
100
AcDbDimension
  2
*D20
 10
940.52330926483
 20
458.79862313703
 30
0.0
 11
928.7733092946323
 21
476.7986231370049
 31
0.0
 70
   160
  3
ISO-25
100
AcDbAlignedDimension
 13
864.31328812443
 23
494.79862313698
 33
0.0
 14
864.31328812443
 24
458.79862313703
 34
0.0
 50
90.0
100
AcDbRotatedDimension
1001
ACAD
1000
DSTYLE
1002
{
1070
   270
1070
     2
1070
     6
1000
EX_NORM
1070
     7
1000
EX_NORM
1070
    41
1040
15.0
1070
    42
1040
3.499999940395355
1070
    44
1040
5.0
1070
    73
1070
     0
1070
    74
1070
     0
1070
    75
1070
     0
1070
    76
1070
     0
1070
    77
1070
     1
1070
    78
1070
     0
1070
   140
1040
20.0
1070
   147
1040
0.0
1070
   173
1070
     1
1070
   176
1070
     3
1070
   177
1070
     3
1070
   178
1070
     2
1070
   271
1070
     0
1070
   277
1070
     2
1070
   279
1070
     2
1070
   280
1070
     0
1070
   287
1070
     5
1070
   340
1005
152
1002
}
  0
DIMENSION
  5
2B1
330
1F
100
AcDbEntity
  8
図
  6
CONTINUOUS
 62
     3
100
AcDbDimension
  2
*D21
 10
864.31328812443
 20
540.65
 30
0.0
 11
837.313288124455
 21
552.3999999701977
 31
0.0
 70
   160
  3
ISO-25
100
AcDbAlignedDimension
 13
810.3132881244801
 23
458.29862313695
 33
0.0
 14
864.31328812443
 24
504.0000000000001
 34
0.0
100
AcDbRotatedDimension
1001
ACAD
1000
DSTYLE
1002
{
1070
   270
1070
     2
1070
     6
1000
EX_NORM
1070
     7
1000
EX_NORM
1070
    41
1040
15.0
1070
    42
1040
3.499999940395355
1070
    44
1040
5.0
1070
    73
1070
     0
1070
    74
1070
     0
1070
    75
1070
     0
1070
    76
1070
     0
1070
    77
1070
     1
1070
    78
1070
     0
1070
   140
1040
20.0
1070
   147
1040
0.0
1070
   173
1070
     1
1070
   176
1070
     3
1070
   177
1070
     3
1070
   178
1070
     2
1070
   271
1070
     0
1070
   277
1070
     2
1070
   279
1070
     2
1070
   280
1070
     0
1070
   287
1070
     5
1070
   340
1005
152
1002
}
  0
DIMENSION
  5
2BE
330
1F
100
AcDbEntity
  8
図
  6
CONTINUOUS
 62
     3
100
AcDbDimension
  2
*D22
 10
769.3000000000001
 20
447.79862313697
 30
0.0
 11
757.5500000298024
 21
471.298623136975
 31
0.0
 70
   160
  3
ISO-25
100
AcDbAlignedDimension
 13
864.31328812443
 23
494.79862313698
 33
0.0
 14
819.31328812461
 24
447.79862313697
 34
0.0
 50
90.0
100
AcDbRotatedDimension
1001
ACAD
1000
DSTYLE
1002
{
1070
   270
1070
     2
1070
     6
1000
EX_NORM
1070
     7
1000
EX_NORM
1070
    41
1040
15.0
1070
    42
1040
3.499999940395355
1070
    44
1040
5.0
1070
    73
1070
     0
1070
    74
1070
     0
1070
    75
1070
     0
1070
    76
1070
     0
1070
    77
1070
     1
1070
    78
1070
     0
1070
   140
1040
20.0
1070
   147
1040
0.0
1070
   173
1070
     1
1070
   176
1070
     3
1070
   177
1070
     3
1070
   178
1070
     2
1070
   271
1070
     0
1070
   277
1070
     2
1070
   279
1070
     2
1070
   280
1070
     0
1070
   287
1070
     5
1070
   340
1005
152
1002
}
  0
DIMENSION
  5
2CB
330
1F
100
AcDbEntity
  8
図
  6
CONTINUOUS
 62
     3
100
AcDbDimension
  2
*D23
 10
534.5
 20
454.2986231371
 30
0.0
 11
522.7500000298024
 21
414.2986231370999
 31
0.0
 70
   160
  1
%%c<>
  3
ISO-25
100
AcDbAlignedDimension
 13
569.2553693528
 23
464.2986231371
 33
0.0
 14
569.2553693528
 24
454.2986231371
 34
0.0
 50
90.0
100
AcDbRotatedDimension
1001
ACAD
1000
DSTYLE
1002
{
1070
   270
1070
     2
1070
     6
1000
EX_NORM
1070
     7
1000
EX_NORM
1070
    41
1040
15.0
1070
    42
1040
0.0
1070
    44
1040
0.0
1070
    73
1070
     0
1070
    74
1070
     0
1070
    75
1070
     1
1070
    76
1070
     1
1070
    77
1070
     1
1070
    78
1070
     0
1070
   140
1040
20.0
1070
   147
1040
0.0
1070
   173
1070
     1
1070
   176
1070
     3
1070
   177
1070
     3
1070
   178
1070
     2
1070
   271
1070
     0
1070
   277
1070
     2
1070
   279
1070
     2
1070
   280
1070
     2
1070
   287
1070
     5
1070
   340
1005
152
1002
}
  0
ARC
  5
2D8
330
1F
100
AcDbEntity
  8
図
  6
CONTINUOUS
 62
     2
100
AcDbCircle
 10
936.4473808878298
 20
329.884485898228
 30
0.0
 40
180.0
100
AcDbArc
 50
113.6247577746
 51
133.885474592705
  0
LINE
  5
2D9
330
1F
100
AcDbEntity
  8
図
  6
CONTINUOUS
 62
     2
100
AcDbLine
 10
818.3425044092411
 20
448.9312041382175
 30
0.0
 11
811.535861719239
 21
456.8722872764192
 31
0.0
  0
ARC
  5
2DA
330
1F
100
AcDbEntity
  8
図
  6
CONTINUOUS
 62
     2
100
AcDbCircle
 10
982.91773141143
 20
82.78686149523001
 30
0.0
 40
400.0
100
AcDbArc
 50
107.2481721764
 51
113.9295914540374
  0
CIRCLE
  5
2DB
330
1F
100
AcDbEntity
  8
図
  6
CONTINUOUS
 62
     3
100
AcDbCircle
 10
457.0
 20
866.49999999998
 30
0.0
 40
17.5
  0
TEXT
  5
2DC
330
1F
100
AcDbEntity
  8
図
  6
CONTINUOUS
 62
     2
100
AcDbText
 10
445.3256310939789
 20
854.1256313323775
 30
0.0
 40
24.74873733520508
  1
1
 41
1.240909090909092
  7
EXCADSTD
 72
     5
 11
461.4123103618622
 21
854.1256313323775
 31
0.0
100
AcDbText
  0
LEADER
  5
2DD
330
1F
100
AcDbEntity
  8
図
  6
CONTINUOUS
 62
     3
100
AcDbLeader
  3
ISO-25
 76
     2
 10
430.0
 20
774.49999999998
 30
0.0
 10
452.0719718178174
 20
849.7082002680986
 30
0.0
1001
ACAD
1000
DSTYLE
1002
{
1070
     5
1000
EX_NORM
1070
    41
1040
15.0
1070
   341
1005
4C
1002
}
  0
CIRCLE
  5
2DE
330
1F
100
AcDbEntity
  8
図
  6
CONTINUOUS
 62
     3
100
AcDbCircle
 10
732.9999999999999
 20
868.99999999998
 30
0.0
 40
17.5
  0
TEXT
  5
2DF
330
1F
100
AcDbEntity
  8
図
  6
CONTINUOUS
 62
     2
100
AcDbText
 10
721.3256310939788
 20
856.6256313323775
 30
0.0
 40
24.74873733520508
  1
2
 41
0.8029411764705858
  7
EXCADSTD
 72
     5
 11
737.4123103618621
 21
856.6256313323775
 31
0.0
100
AcDbText
  0
LEADER
  5
2E0
330
1F
100
AcDbEntity
  8
図
  6
CONTINUOUS
 62
     3
100
AcDbLeader
  3
ISO-25
 76
     2
 10
645.4999999999999
 20
816.49999999998
 30
0.0
 10
717.9938738000303
 20
859.9963242799982
 30
0.0
1001
ACAD
1000
DSTYLE
1002
{
1070
     5
1000
EX_NORM
1070
    41
1040
15.0
1070
   341
1005
4C
1002
}
  0
LINE
  5
2E1
330
1F
100
AcDbEntity
  8
図
  6
CONTINUOUS
 62
     2
100
AcDbLine
 10
712.8582065186902
 20
1192.26013234409
 30
0.0
 11
831.5849509726303
 21
1123.72064167493
 31
0.0
  0
LINE
  5
2E2
330
1F
100
AcDbEntity
  8
図
  6
CONTINUOUS
 62
     2
100
AcDbLine
 10
834.0733322145502
 20
1127.67258631269
 30
0.0
 11
715.1913502282301
 21
1196.30169370191
 31
0.0
  0
LINE
  5
2E3
330
1F
100
AcDbEntity
  8
図
  6
CONTINUOUS
 62
     2
100
AcDbLine
 10
712.9828138363501
 20
1189.49752843639
 30
0.0
 11
714.6067825802301
 21
1191.25070087013
 31
0.0
  0
POLYLINE
  5
2E4
330
1F
100
AcDbEntity
  8
図
  6
CONTINUOUS
 62
     2
100
AcDb2dPolyline
 66
     1
 10
0.0
 20
0.0
 30
0.0
 70
   128
  0
VERTEX
  5
2E5
330
2E4
100
AcDbEntity
  8
図
  6
CONTINUOUS
 62
     2
100
AcDbVertex
100
AcDb2dVertex
 10
717.9142484137901
 20
1194.72979803806
 30
0.0
  0
VERTEX
  5
2E6
330
2E4
100
AcDbEntity
  8
図
  6
CONTINUOUS
 62
     2
100
AcDbVertex
100
AcDb2dVertex
 10
717.9177710787465
 20
1194.73350367656
 30
0.0
  0
VERTEX
  5
2E7
330
2E4
100
AcDbEntity
  8
図
  6
CONTINUOUS
 62
     2
100
AcDbVertex
100
AcDb2dVertex
 10
717.927881001141
 20
1194.744137301587
 30
0.0
  0
VERTEX
  5
2E8
330
2E4
100
AcDbEntity
  8
図
  6
CONTINUOUS
 62
     2
100
AcDbVertex
100
AcDb2dVertex
 10
717.9438910722611
 20
1194.760973977432
 30
0.0
  0
VERTEX
  5
2E9
330
2E4
100
AcDbEntity
  8
図
  6
CONTINUOUS
 62
     2
100
AcDbVertex
100
AcDb2dVertex
 10
717.9651141833947
 20
1194.783288768384
 30
0.0
  0
VERTEX
  5
2EA
330
2E4
100
AcDbEntity
  8
図
  6
CONTINUOUS
 62
     2
100
AcDbVertex
100
AcDb2dVertex
 10
717.9908632258296
 20
1194.810356738735
 30
0.0
  0
VERTEX
  5
2EB
330
2E4
100
AcDbEntity
  8
図
  6
CONTINUOUS
 62
     2
100
AcDbVertex
100
AcDb2dVertex
 10
718.0204510908535
 20
1194.841452952775
 30
0.0
  0
VERTEX
  5
2EC
330
2E4
100
AcDbEntity
  8
図
  6
CONTINUOUS
 62
     2
100
AcDbVertex
100
AcDb2dVertex
 10
718.0531906697543
 20
1194.875852474793
 30
0.0
  0
VERTEX
  5
2ED
330
2E4
100
AcDbEntity
  8
図
  6
CONTINUOUS
 62
     2
100
AcDbVertex
100
AcDb2dVertex
 10
718.0883948538195
 20
1194.912830369082
 30
0.0
  0
VERTEX
  5
2EE
330
2E4
100
AcDbEntity
  8
図
  6
CONTINUOUS
 62
     2
100
AcDbVertex
100
AcDb2dVertex
 10
718.125376534337
 20
1194.951661699931
 30
0.0
  0
VERTEX
  5
2EF
330
2E4
100
AcDbEntity
  8
図
  6
CONTINUOUS
 62
     2
100
AcDbVertex
100
AcDb2dVertex
 10
718.1634486025948
 20
1194.99162153163
 30
0.0
  0
VERTEX
  5
2F0
330
2E4
100
AcDbEntity
  8
図
  6
CONTINUOUS
 62
     2
100
AcDbVertex
100
AcDb2dVertex
 10
718.2019239498801
 20
1195.03198492847
 30
0.0
  0
VERTEX
  5
2F1
330
2E4
100
AcDbEntity
  8
図
  6
CONTINUOUS
 62
     2
100
AcDbVertex
100
AcDb2dVertex
 10
718.6376779699707
 20
1195.487394738707
 30
0.0
  0
VERTEX
  5
2F2
330
2E4
100
AcDbEntity
  8
図
  6
CONTINUOUS
 62
     2
100
AcDbVertex
100
AcDb2dVertex
 10
719.0376009753269
 20
1195.902253682637
 30
0.0
  0
VERTEX
  5
2F3
330
2E4
100
AcDbEntity
  8
図
  6
CONTINUOUS
 62
     2
100
AcDbVertex
100
AcDb2dVertex
 10
719.40560718856
 20
1196.281013056264
 30
0.0
  0
VERTEX
  5
2F4
330
2E4
100
AcDbEntity
  8
図
  6
CONTINUOUS
 62
     2
100
AcDbVertex
100
AcDb2dVertex
 10
719.7456108322801
 20
1196.628124155594
 30
0.0
  0
VERTEX
  5
2F5
330
2E4
100
AcDbEntity
  8
図
  6
CONTINUOUS
 62
     2
100
AcDbVertex
100
AcDb2dVertex
 10
720.0615261290982
 20
1196.948038276629
 30
0.0
  0
VERTEX
  5
2F6
330
2E4
100
AcDbEntity
  8
図
  6
CONTINUOUS
 62
     2
100
AcDbVertex
100
AcDb2dVertex
 10
720.3572673016247
 20
1197.245206715373
 30
0.0
  0
VERTEX
  5
2F7
330
2E4
100
AcDbEntity
  8
図
  6
CONTINUOUS
 62
     2
100
AcDbVertex
100
AcDb2dVertex
 10
720.6367485724707
 20
1197.524080767832
 30
0.0
  0
VERTEX
  5
2F8
330
2E4
100
AcDbEntity
  8
図
  6
CONTINUOUS
 62
     2
100
AcDbVertex
100
AcDb2dVertex
 10
720.9038841642466
 20
1197.789111730009
 30
0.0
  0
VERTEX
  5
2F9
330
2E4
100
AcDbEntity
  8
図
  6
CONTINUOUS
 62
     2
100
AcDbVertex
100
AcDb2dVertex
 10
721.1625882995629
 20
1198.044750897908
 30
0.0
  0
VERTEX
  5
2FA
330
2E4
100
AcDbEntity
  8
図
  6
CONTINUOUS
 62
     2
100
AcDbVertex
100
AcDb2dVertex
 10
721.4167752010305
 20
1198.295449567534
 30
0.0
  0
VERTEX
  5
2FB
330
2E4
100
AcDbEntity
  8
図
  6
CONTINUOUS
 62
     2
100
AcDbVertex
100
AcDb2dVertex
 10
721.6703590912603
 20
1198.54565903489
 30
0.0
  0
VERTEX
  5
2FC
330
2E4
100
AcDbEntity
  8
図
  6
CONTINUOUS
 62
     2
100
AcDbVertex
100
AcDb2dVertex
 10
721.924876584487
 20
1198.797318545931
 30
0.0
  0
VERTEX
  5
2FD
330
2E4
100
AcDbEntity
  8
図
  6
CONTINUOUS
 62
     2
100
AcDbVertex
100
AcDb2dVertex
 10
722.1850356287835
 20
1199.054867255879
 30
0.0
  0
VERTEX
  5
2FE
330
2E4
100
AcDbEntity
  8
図
  6
CONTINUOUS
 62
     2
100
AcDbVertex
100
AcDb2dVertex
 10
722.4532208493493
 20
1199.320297226272
 30
0.0
  0
VERTEX
  5
2FF
330
2E4
100
AcDbEntity
  8
図
  6
CONTINUOUS
 62
     2
100
AcDbVertex
100
AcDb2dVertex
 10
722.7318168713839
 20
1199.595600518644
 30
0.0
  0
VERTEX
  5
300
330
2E4
100
AcDbEntity
  8
図
  6
CONTINUOUS
 62
     2
100
AcDbVertex
100
AcDb2dVertex
 10
723.0232083200868
 20
1199.882769194532
 30
0.0
  0
VERTEX
  5
301
330
2E4
100
AcDbEntity
  8
図
  6
CONTINUOUS
 62
     2
100
AcDbVertex
100
AcDb2dVertex
 10
723.3297798206574
 20
1200.183795315472
 30
0.0
  0
VERTEX
  5
302
330
2E4
100
AcDbEntity
  8
図
  6
CONTINUOUS
 62
     2
100
AcDbVertex
100
AcDb2dVertex
 10
723.6539159982956
 20
1200.500670943001
 30
0.0
  0
VERTEX
  5
303
330
2E4
100
AcDbEntity
  8
図
  6
CONTINUOUS
 62
     2
100
AcDbVertex
100
AcDb2dVertex
 10
723.9980014782002
 20
1200.835388138654
 30
0.0
  0
VERTEX
  5
304
330
2E4
100
AcDbEntity
  8
図
  6
CONTINUOUS
 62
     2
100
AcDbVertex
100
AcDb2dVertex
 10
724.3644208855712
 20
1201.189938963968
 30
0.0
  0
VERTEX
  5
305
330
2E4
100
AcDbEntity
  8
図
  6
CONTINUOUS
 62
     2
100
AcDbVertex
100
AcDb2dVertex
 10
724.7555588456081
 20
1201.566315480478
 30
0.0
  0
VERTEX
  5
306
330
2E4
100
AcDbEntity
  8
図
  6
CONTINUOUS
 62
     2
100
AcDbVertex
100
AcDb2dVertex
 10
725.17379998351
 20
1201.96650974972
 30
0.0
  0
VERTEX
  5
307
330
2E4
100
AcDbEntity
  8
図
  6
CONTINUOUS
 62
     2
100
AcDbVertex
100
AcDb2dVertex
 10
725.4592347280338
 20
1202.238407189744
 30
0.0
  0
VERTEX
  5
308
330
2E4
100
AcDbEntity
  8
図
  6
CONTINUOUS
 62
     2
100
AcDbVertex
100
AcDb2dVertex
 10
725.7501708962841
 20
1202.514754151792
 30
0.0
  0
VERTEX
  5
309
330
2E4
100
AcDbEntity
  8
図
  6
CONTINUOUS
 62
     2
100
AcDbVertex
100
AcDb2dVertex
 10
726.0397215378864
 20
1202.789156975236
 30
0.0
  0
VERTEX
  5
30A
330
2E4
100
AcDbEntity
  8
図
  6
CONTINUOUS
 62
     2
100
AcDbVertex
100
AcDb2dVertex
 10
726.3209997024667
 20
1203.05522199945
 30
0.0
  0
VERTEX
  5
30B
330
2E4
100
AcDbEntity
  8
図
  6
CONTINUOUS
 62
     2
100
AcDbVertex
100
AcDb2dVertex
 10
726.5871184396503
 20
1203.306555563805
 30
0.0
  0
VERTEX
  5
30C
330
2E4
100
AcDbEntity
  8
図
  6
CONTINUOUS
 62
     2
100
AcDbVertex
100
AcDb2dVertex
 10
726.8311907990635
 20
1203.536764007673
 30
0.0
  0
VERTEX
  5
30D
330
2E4
100
AcDbEntity
  8
図
  6
CONTINUOUS
 62
     2
100
AcDbVertex
100
AcDb2dVertex
 10
727.0463298303318
 20
1203.739453670427
 30
0.0
  0
VERTEX
  5
30E
330
2E4
100
AcDbEntity
  8
図
  6
CONTINUOUS
 62
     2
100
AcDbVertex
100
AcDb2dVertex
 10
727.225648583081
 20
1203.908230891439
 30
0.0
  0
VERTEX
  5
30F
330
2E4
100
AcDbEntity
  8
図
  6
CONTINUOUS
 62
     2
100
AcDbVertex
100
AcDb2dVertex
 10
727.3622601069366
 20
1204.036702010082
 30
0.0
  0
VERTEX
  5
310
330
2E4
100
AcDbEntity
  8
図
  6
CONTINUOUS
 62
     2
100
AcDbVertex
100
AcDb2dVertex
 10
727.4492774515243
 20
1204.118473365729
 30
0.0
  0
VERTEX
  5
311
330
2E4
100
AcDbEntity
  8
図
  6
CONTINUOUS
 62
     2
100
AcDbVertex
100
AcDb2dVertex
 10
727.47981366647
 20
1204.14715129775
 30
0.0
  0
SEQEND
  5
312
330
2E4
100
AcDbEntity
  8
図
  6
CONTINUOUS
 62
     2
  0
ARC
  5
313
330
1F
100
AcDbEntity
  8
図
  6
CONTINUOUS
 62
     2
100
AcDbCircle
 10
712.2951454672701
 20
1190.12857782067
 30
0.0
 40
0.93333333333339
100
AcDbArc
 50
240.0026882664501
 51
317.4584773403
  0
LINE
  5
314
330
1F
100
AcDbEntity
  8
図
  6
CONTINUOUS
 62
     2
100
AcDbLine
 10
701.2690554597501
 20
1195.41611278415
 30
0.0
 11
711.8285167253902
 21
1189.32026554919
 31
0.0
  0
LINE
  5
315
330
1F
100
AcDbEntity
  8
図
  6
CONTINUOUS
 62
     2
100
AcDbLine
 10
698.9202157766301
 20
1197.21423042799
 30
0.0
 11
701.16629327141
 21
1195.48489474537
 31
0.0
  0
ARC
  5
316
330
1F
100
AcDbEntity
  8
図
  6
CONTINUOUS
 62
     2
100
AcDbCircle
 10
701.73568420181
 20
1196.22442505553
 30
0.0
 40
0.93333333333328
100
AcDbArc
 50
232.40603479318
 51
240.00268825367
  0
ARC
  5
317
330
1F
100
AcDbEntity
  8
図
  6
CONTINUOUS
 62
     2
100
AcDbCircle
 10
714.9928783619101
 20
1195.53667585601
 30
0.0
 40
1.1822573833463
100
AcDbArc
 50
10.11857917884698
 51
58.03595429861699
  0
ARC
  5
318
330
1F
100
AcDbEntity
  8
図
  6
CONTINUOUS
 62
     2
100
AcDbCircle
 10
713.4205631045501
 20
1192.80220929042
 30
0.0
 40
1.1709386142186
100
AcDbArc
 50
241.72307711842
 51
290.13314246843
  0
LINE
  5
319
330
1F
100
AcDbEntity
  8
図
  6
CONTINUOUS
 62
     2
100
AcDbLine
 10
715.6603825346301
 20
1196.03092711477
 30
0.0
 11
715.5923435451501
 21
1196.10127794399
 31
0.0
  0
LINE
  5
31A
330
1F
100
AcDbEntity
  8
図
  6
CONTINUOUS
 62
     2
100
AcDbLine
 10
714.4184422235501
 20
1196.17206171915
 30
0.0
 11
713.9605305850301
 21
1195.88555527151
 31
0.0
  0
LINE
  5
31B
330
1F
100
AcDbEntity
  8
図
  6
CONTINUOUS
 62
     2
100
AcDbLine
 10
713.9605305850301
 20
1195.88555527151
 30
0.0
 11
713.5247769013502
 21
1195.46999908935
 31
0.0
  0
LINE
  5
31C
330
1F
100
AcDbEntity
  8
図
  6
CONTINUOUS
 62
     2
100
AcDbLine
 10
713.5247769013502
 20
1195.46999908935
 30
0.0
 11
713.1434990296901
 21
1194.95621307381
 31
0.0
  0
LINE
  5
31D
330
1F
100
AcDbEntity
  8
図
  6
CONTINUOUS
 62
     2
100
AcDbLine
 10
713.1434990296901
 20
1194.95621307381
 30
0.0
 11
712.8449746055901
 21
1194.38230238331
 31
0.0
  0
LINE
  5
31E
330
1F
100
AcDbEntity
  8
図
  6
CONTINUOUS
 62
     2
100
AcDbLine
 10
712.8449746055901
 20
1194.38230238331
 30
0.0
 11
712.65134381999
 21
1193.79083134819
 31
0.0
  0
LINE
  5
31F
330
1F
100
AcDbEntity
  8
図
  6
CONTINUOUS
 62
     2
100
AcDbLine
 10
712.65134381999
 20
1193.79083134819
 30
0.0
 11
712.5769673824701
 21
1193.22566666937
 31
0.0
  0
LINE
  5
320
330
1F
100
AcDbEntity
  8
図
  6
CONTINUOUS
 62
     2
100
AcDbLine
 10
712.5769673824701
 20
1193.22566666937
 30
0.0
 11
712.6273614530501
 21
1192.72872402569
 31
0.0
  0
LINE
  5
321
330
1F
100
AcDbEntity
  8
図
  6
CONTINUOUS
 62
     2
100
AcDbLine
 10
712.6273614530501
 20
1192.72872402569
 30
0.0
 11
712.79878853405
 21
1192.33685937951
 31
0.0
  0
LINE
  5
322
330
1F
100
AcDbEntity
  8
図
  6
CONTINUOUS
 62
     2
100
AcDbLine
 10
712.79878853405
 20
1192.33685937951
 30
0.0
 11
713.07853466323
 21
1192.07913553915
 31
0.0
  0
LINE
  5
323
330
1F
100
AcDbEntity
  8
図
  6
CONTINUOUS
 62
     2
100
AcDbLine
 10
713.07853466323
 20
1192.07913553915
 30
0.0
 11
713.3272388250901
 21
1191.98936575695
 31
0.0
  0
LINE
  5
324
330
1F
100
AcDbEntity
  8
図
  6
CONTINUOUS
 62
     2
100
AcDbLine
 10
712.4608862798501
 20
1192.91683552115
 30
0.0
 11
712.5225700958902
 21
1193.51628987525
 31
0.0
  0
LINE
  5
325
330
1F
100
AcDbEntity
  8
図
  6
CONTINUOUS
 62
     2
100
AcDbLine
 10
712.5225700958902
 20
1193.51628987525
 30
0.0
 11
712.70374572311
 21
1194.14929692559
 31
0.0
  0
LINE
  5
326
330
1F
100
AcDbEntity
  8
図
  6
CONTINUOUS
 62
     2
100
AcDbLine
 10
712.70374572311
 20
1194.14929692559
 30
0.0
 11
712.99302923049
 21
1194.77608251145
 31
0.0
  0
LINE
  5
327
330
1F
100
AcDbEntity
  8
図
  6
CONTINUOUS
 62
     2
100
AcDbLine
 10
712.99302923049
 20
1194.77608251145
 30
0.0
 11
713.37224387119
 21
1195.35726338921
 31
0.0
  0
LINE
  5
328
330
1F
100
AcDbEntity
  8
図
  6
CONTINUOUS
 62
     2
100
AcDbLine
 10
713.37224387119
 20
1195.35726338921
 30
0.0
 11
713.8175621949902
 21
1195.85632182671
 31
0.0
  0
LINE
  5
329
330
1F
100
AcDbEntity
  8
図
  6
CONTINUOUS
 62
     2
100
AcDbLine
 10
713.8175621949902
 20
1195.85632182671
 30
0.0
 11
714.3010032136101
 21
1196.24190014725
 31
0.0
  0
LINE
  5
32A
330
1F
100
AcDbEntity
  8
図
  6
CONTINUOUS
 62
     2
100
AcDbLine
 10
716.0127099374702
 20
1196.29992263765
 30
0.0
 11
716.2498091024302
 21
1195.93876879103
 31
0.0
  0
LINE
  5
32B
330
1F
100
AcDbEntity
  8
図
  6
CONTINUOUS
 62
     2
100
AcDbLine
 10
716.2498091024302
 20
1195.93876879103
 30
0.0
 11
716.34348694431
 21
1195.63657933297
 31
0.0
  0
LINE
  5
32C
330
1F
100
AcDbEntity
  8
図
  6
CONTINUOUS
 62
     2
100
AcDbLine
 10
714.0103432347701
 20
1191.59501797529
 30
0.0
 11
713.8175621949902
 21
1191.54373388579
 31
0.0
  0
LINE
  5
32D
330
1F
100
AcDbEntity
  8
図
  6
CONTINUOUS
 62
     2
100
AcDbLine
 10
713.8175621949902
 20
1191.54373388579
 30
0.0
 11
713.37224387119
 21
1191.52863873075
 31
0.0
  0
LINE
  5
32E
330
1F
100
AcDbEntity
  8
図
  6
CONTINUOUS
 62
     2
100
AcDbLine
 10
713.37224387119
 20
1191.52863873075
 30
0.0
 11
712.99302923049
 21
1191.67198770379
 31
0.0
  0
LINE
  5
32F
330
1F
100
AcDbEntity
  8
図
  6
CONTINUOUS
 62
     2
100
AcDbLine
 10
712.99302923049
 20
1191.67198770379
 30
0.0
 11
712.70374572311
 21
1191.96477366145
 31
0.0
  0
LINE
  5
330
330
1F
100
AcDbEntity
  8
図
  6
CONTINUOUS
 62
     2
100
AcDbLine
 10
712.70374572311
 20
1191.96477366145
 30
0.0
 11
712.5225700958902
 21
1192.38859978515
 31
0.0
  0
LINE
  5
331
330
1F
100
AcDbEntity
  8
図
  6
CONTINUOUS
 62
     2
100
AcDbLine
 10
712.5225700958902
 20
1192.38859978515
 30
0.0
 11
712.4608862798501
 21
1192.91683552115
 31
0.0
  0
POLYLINE
  5
332
330
1F
100
AcDbEntity
  8
図
  6
CONTINUOUS
 62
     2
100
AcDb2dPolyline
 66
     1
 10
0.0
 20
0.0
 30
0.0
 70
   128
  0
VERTEX
  5
333
330
332
100
AcDbEntity
  8
図
  6
CONTINUOUS
 62
     2
100
AcDbVertex
100
AcDb2dVertex
 10
715.8784588033501
 20
1221.64592179364
 30
0.0
  0
VERTEX
  5
334
330
332
100
AcDbEntity
  8
図
  6
CONTINUOUS
 62
     2
100
AcDbVertex
100
AcDb2dVertex
 10
715.8656902116954
 20
1221.632006889609
 30
0.0
  0
VERTEX
  5
335
330
332
100
AcDbEntity
  8
図
  6
CONTINUOUS
 62
     2
100
AcDbVertex
100
AcDb2dVertex
 10
715.8292616181823
 20
1221.59229177786
 30
0.0
  0
VERTEX
  5
336
330
332
100
AcDbEntity
  8
図
  6
CONTINUOUS
 62
     2
100
AcDbVertex
100
AcDb2dVertex
 10
715.7719887949852
 20
1221.529820858901
 30
0.0
  0
VERTEX
  5
337
330
332
100
AcDbEntity
  8
図
  6
CONTINUOUS
 62
     2
100
AcDbVertex
100
AcDb2dVertex
 10
715.6966875142797
 20
1221.447638533244
 30
0.0
  0
VERTEX
  5
338
330
332
100
AcDbEntity
  8
図
  6
CONTINUOUS
 62
     2
100
AcDbVertex
100
AcDb2dVertex
 10
715.6061735482411
 20
1221.348789201399
 30
0.0
  0
VERTEX
  5
339
330
332
100
AcDbEntity
  8
図
  6
CONTINUOUS
 62
     2
100
AcDbVertex
100
AcDb2dVertex
 10
715.503262669045
 20
1221.236317263877
 30
0.0
  0
VERTEX
  5
33A
330
332
100
AcDbEntity
  8
図
  6
CONTINUOUS
 62
     2
100
AcDbVertex
100
AcDb2dVertex
 10
715.3907706488661
 20
1221.113267121188
 30
0.0
  0
VERTEX
  5
33B
330
332
100
AcDbEntity
  8
図
  6
CONTINUOUS
 62
     2
100
AcDbVertex
100
AcDb2dVertex
 10
715.27151325988
 20
1220.982683173843
 30
0.0
  0
VERTEX
  5
33C
330
332
100
AcDbEntity
  8
図
  6
CONTINUOUS
 62
     2
100
AcDbVertex
100
AcDb2dVertex
 10
715.1483062742617
 20
1220.847609822353
 30
0.0
  0
VERTEX
  5
33D
330
332
100
AcDbEntity
  8
図
  6
CONTINUOUS
 62
     2
100
AcDbVertex
100
AcDb2dVertex
 10
715.0239654641866
 20
1220.711091467228
 30
0.0
  0
VERTEX
  5
33E
330
332
100
AcDbEntity
  8
図
  6
CONTINUOUS
 62
     2
100
AcDbVertex
100
AcDb2dVertex
 10
714.90130660183
 20
1220.57617250898
 30
0.0
  0
VERTEX
  5
33F
330
332
100
AcDbEntity
  8
図
  6
CONTINUOUS
 62
     2
100
AcDbVertex
100
AcDb2dVertex
 10
714.6300200987707
 20
1220.276613814485
 30
0.0
  0
VERTEX
  5
340
330
332
100
AcDbEntity
  8
図
  6
CONTINUOUS
 62
     2
100
AcDbVertex
100
AcDb2dVertex
 10
714.3806352792703
 20
1219.999547574602
 30
0.0
  0
VERTEX
  5
341
330
332
100
AcDbEntity
  8
図
  6
CONTINUOUS
 62
     2
100
AcDbVertex
100
AcDb2dVertex
 10
714.1503727538828
 20
1219.741983576049
 30
0.0
  0
VERTEX
  5
342
330
332
100
AcDbEntity
  8
図
  6
CONTINUOUS
 62
     2
100
AcDbVertex
100
AcDb2dVertex
 10
713.9364531331628
 20
1219.500931605549
 30
0.0
  0
VERTEX
  5
343
330
332
100
AcDbEntity
  8
図
  6
CONTINUOUS
 62
     2
100
AcDbVertex
100
AcDb2dVertex
 10
713.7360970276643
 20
1219.27340144982
 30
0.0
  0
VERTEX
  5
344
330
332
100
AcDbEntity
  8
図
  6
CONTINUOUS
 62
     2
100
AcDbVertex
100
AcDb2dVertex
 10
713.5465250479415
 20
1219.056402895583
 30
0.0
  0
VERTEX
  5
345
330
332
100
AcDbEntity
  8
図
  6
CONTINUOUS
 62
     2
100
AcDbVertex
100
AcDb2dVertex
 10
713.3649578045485
 20
1218.846945729559
 30
0.0
  0
VERTEX
  5
346
330
332
100
AcDbEntity
  8
図
  6
CONTINUOUS
 62
     2
100
AcDbVertex
100
AcDb2dVertex
 10
713.1886159080395
 20
1218.642039738467
 30
0.0
  0
VERTEX
  5
347
330
332
100
AcDbEntity
  8
図
  6
CONTINUOUS
 62
     2
100
AcDbVertex
100
AcDb2dVertex
 10
713.0147199689691
 20
1218.438694709029
 30
0.0
  0
VERTEX
  5
348
330
332
100
AcDbEntity
  8
図
  6
CONTINUOUS
 62
     2
100
AcDbVertex
100
AcDb2dVertex
 10
712.8404905978912
 20
1218.233920427963
 30
0.0
  0
VERTEX
  5
349
330
332
100
AcDbEntity
  8
図
  6
CONTINUOUS
 62
     2
100
AcDbVertex
100
AcDb2dVertex
 10
712.6631484053601
 20
1218.02472668199
 30
0.0
  0
VERTEX
  5
34A
330
332
100
AcDbEntity
  8
図
  6
CONTINUOUS
 62
     2
100
AcDbVertex
100
AcDb2dVertex
 10
712.4789064999698
 20
1217.806868058942
 30
0.0
  0
VERTEX
  5
34B
330
332
100
AcDbEntity
  8
図
  6
CONTINUOUS
 62
     2
100
AcDbVertex
100
AcDb2dVertex
 10
712.2894269360659
 20
1217.582289952706
 30
0.0
  0
VERTEX
  5
34C
330
332
100
AcDbEntity
  8
図
  6
CONTINUOUS
 62
     2
100
AcDbVertex
100
AcDb2dVertex
 10
712.0954660092245
 20
1217.351810504198
 30
0.0
  0
VERTEX
  5
34D
330
332
100
AcDbEntity
  8
図
  6
CONTINUOUS
 62
     2
100
AcDbVertex
100
AcDb2dVertex
 10
711.8977800150222
 20
1217.116247854327
 30
0.0
  0
VERTEX
  5
34E
330
332
100
AcDbEntity
  8
図
  6
CONTINUOUS
 62
     2
100
AcDbVertex
100
AcDb2dVertex
 10
711.697125249035
 20
1216.876420144009
 30
0.0
  0
VERTEX
  5
34F
330
332
100
AcDbEntity
  8
図
  6
CONTINUOUS
 62
     2
100
AcDbVertex
100
AcDb2dVertex
 10
711.4942580068392
 20
1216.633145514156
 30
0.0
  0
VERTEX
  5
350
330
332
100
AcDbEntity
  8
図
  6
CONTINUOUS
 62
     2
100
AcDbVertex
100
AcDb2dVertex
 10
711.2899345840111
 20
1216.387242105679
 30
0.0
  0
VERTEX
  5
351
330
332
100
AcDbEntity
  8
図
  6
CONTINUOUS
 62
     2
100
AcDbVertex
100
AcDb2dVertex
 10
711.0849112761268
 20
1216.139528059493
 30
0.0
  0
VERTEX
  5
352
330
332
100
AcDbEntity
  8
図
  6
CONTINUOUS
 62
     2
100
AcDbVertex
100
AcDb2dVertex
 10
710.8799443787627
 20
1215.890821516509
 30
0.0
  0
VERTEX
  5
353
330
332
100
AcDbEntity
  8
図
  6
CONTINUOUS
 62
     2
100
AcDbVertex
100
AcDb2dVertex
 10
710.6757901874951
 20
1215.64194061764
 30
0.0
  0
VERTEX
  5
354
330
332
100
AcDbEntity
  8
図
  6
CONTINUOUS
 62
     2
100
AcDbVertex
100
AcDb2dVertex
 10
710.4732049979002
 20
1215.3937035038
 30
0.0
  0
VERTEX
  5
355
330
332
100
AcDbEntity
  8
図
  6
CONTINUOUS
 62
     2
100
AcDbVertex
100
AcDb2dVertex
 10
710.2713114346697
 20
1215.144934109898
 30
0.0
  0
VERTEX
  5
356
330
332
100
AcDbEntity
  8
図
  6
CONTINUOUS
 62
     2
100
AcDbVertex
100
AcDb2dVertex
 10
710.0715650206471
 20
1214.897416526663
 30
0.0
  0
VERTEX
  5
357
330
332
100
AcDbEntity
  8
図
  6
CONTINUOUS
 62
     2
100
AcDbVertex
100
AcDb2dVertex
 10
709.8737531132713
 20
1214.650918951947
 30
0.0
  0
VERTEX
  5
358
330
332
100
AcDbEntity
  8
図
  6
CONTINUOUS
 62
     2
100
AcDbVertex
100
AcDb2dVertex
 10
709.6776630699824
 20
1214.405209583601
 30
0.0
  0
VERTEX
  5
359
330
332
100
AcDbEntity
  8
図
  6
CONTINUOUS
 62
     2
100
AcDbVertex
100
AcDb2dVertex
 10
709.4830822482193
 20
1214.160056619475
 30
0.0
  0
VERTEX
  5
35A
330
332
100
AcDbEntity
  8
図
  6
CONTINUOUS
 62
     2
100
AcDbVertex
100
AcDb2dVertex
 10
709.2897980054215
 20
1213.915228257422
 30
0.0
  0
VERTEX
  5
35B
330
332
100
AcDbEntity
  8
図
  6
CONTINUOUS
 62
     2
100
AcDbVertex
100
AcDb2dVertex
 10
709.0975976990283
 20
1213.67049269529
 30
0.0
  0
VERTEX
  5
35C
330
332
100
AcDbEntity
  8
図
  6
CONTINUOUS
 62
     2
100
AcDbVertex
100
AcDb2dVertex
 10
708.9062686864792
 20
1213.425618130932
 30
0.0
  0
VERTEX
  5
35D
330
332
100
AcDbEntity
  8
図
  6
CONTINUOUS
 62
     2
100
AcDbVertex
100
AcDb2dVertex
 10
708.7155983252136
 20
1213.180372762199
 30
0.0
  0
VERTEX
  5
35E
330
332
100
AcDbEntity
  8
図
  6
CONTINUOUS
 62
     2
100
AcDbVertex
100
AcDb2dVertex
 10
708.5253739726706
 20
1212.934524786942
 30
0.0
  0
VERTEX
  5
35F
330
332
100
AcDbEntity
  8
図
  6
CONTINUOUS
 62
     2
100
AcDbVertex
100
AcDb2dVertex
 10
708.3353829862904
 20
1212.68784240301
 30
0.0
  0
VERTEX
  5
360
330
332
100
AcDbEntity
  8
図
  6
CONTINUOUS
 62
     2
100
AcDbVertex
100
AcDb2dVertex
 10
708.144278792638
 20
1212.438604135743
 30
0.0
  0
VERTEX
  5
361
330
332
100
AcDbEntity
  8
図
  6
CONTINUOUS
 62
     2
100
AcDbVertex
100
AcDb2dVertex
 10
707.9532819261065
 20
1212.188400118441
 30
0.0
  0
VERTEX
  5
362
330
332
100
AcDbEntity
  8
図
  6
CONTINUOUS
 62
     2
100
AcDbVertex
100
AcDb2dVertex
 10
707.7624787310774
 20
1211.937344144285
 30
0.0
  0
VERTEX
  5
363
330
332
100
AcDbEntity
  8
図
  6
CONTINUOUS
 62
     2
100
AcDbVertex
100
AcDb2dVertex
 10
707.5719555519324
 20
1211.685550006456
 30
0.0
  0
VERTEX
  5
364
330
332
100
AcDbEntity
  8
図
  6
CONTINUOUS
 62
     2
100
AcDbVertex
100
AcDb2dVertex
 10
707.3817987330531
 20
1211.433131498133
 30
0.0
  0
VERTEX
  5
365
330
332
100
AcDbEntity
  8
図
  6
CONTINUOUS
 62
     2
100
AcDbVertex
100
AcDb2dVertex
 10
707.1920946188211
 20
1211.180202412497
 30
0.0
  0
VERTEX
  5
366
330
332
100
AcDbEntity
  8
図
  6
CONTINUOUS
 62
     2
100
AcDbVertex
100
AcDb2dVertex
 10
707.0029295536181
 20
1210.926876542729
 30
0.0
  0
VERTEX
  5
367
330
332
100
AcDbEntity
  8
図
  6
CONTINUOUS
 62
     2
100
AcDbVertex
100
AcDb2dVertex
 10
706.814389881826
 20
1210.673267682007
 30
0.0
  0
VERTEX
  5
368
330
332
100
AcDbEntity
  8
図
  6
CONTINUOUS
 62
     2
100
AcDbVertex
100
AcDb2dVertex
 10
706.6265619478261
 20
1210.419489623514
 30
0.0
  0
VERTEX
  5
369
330
332
100
AcDbEntity
  8
図
  6
CONTINUOUS
 62
     2
100
AcDbVertex
100
AcDb2dVertex
 10
706.4395320960003
 20
1210.165656160428
 30
0.0
  0
VERTEX
  5
36A
330
332
100
AcDbEntity
  8
図
  6
CONTINUOUS
 62
     2
100
AcDbVertex
100
AcDb2dVertex
 10
706.2533866707302
 20
1209.91188108593
 30
0.0
  0
VERTEX
  5
36B
330
332
100
AcDbEntity
  8
図
  6
CONTINUOUS
 62
     2
100
AcDbVertex
100
AcDb2dVertex
 10
706.0672383865842
 20
1209.656937372565
 30
0.0
  0
VERTEX
  5
36C
330
332
100
AcDbEntity
  8
図
  6
CONTINUOUS
 62
     2
100
AcDbVertex
100
AcDb2dVertex
 10
705.8819395509149
 20
1209.401956726005
 30
0.0
  0
VERTEX
  5
36D
330
332
100
AcDbEntity
  8
図
  6
CONTINUOUS
 62
     2
100
AcDbVertex
100
AcDb2dVertex
 10
705.6973589627892
 20
1209.146728279182
 30
0.0
  0
VERTEX
  5
36E
330
332
100
AcDbEntity
  8
図
  6
CONTINUOUS
 62
     2
100
AcDbVertex
100
AcDb2dVertex
 10
705.513365421274
 20
1208.891041165025
 30
0.0
  0
VERTEX
  5
36F
330
332
100
AcDbEntity
  8
図
  6
CONTINUOUS
 62
     2
100
AcDbVertex
100
AcDb2dVertex
 10
705.3298277254362
 20
1208.634684516466
 30
0.0
  0
VERTEX
  5
370
330
332
100
AcDbEntity
  8
図
  6
CONTINUOUS
 62
     2
100
AcDbVertex
100
AcDb2dVertex
 10
705.1466146743427
 20
1208.377447466438
 30
0.0
  0
VERTEX
  5
371
330
332
100
AcDbEntity
  8
図
  6
CONTINUOUS
 62
     2
100
AcDbVertex
100
AcDb2dVertex
 10
704.9635950670602
 20
1208.11911914787
 30
0.0
  0
VERTEX
  5
372
330
332
100
AcDbEntity
  8
図
  6
CONTINUOUS
 62
     2
100
AcDbVertex
100
AcDb2dVertex
 10
704.780637702656
 20
1207.859488693694
 30
0.0
  0
VERTEX
  5
373
330
332
100
AcDbEntity
  8
図
  6
CONTINUOUS
 62
     2
100
AcDbVertex
100
AcDb2dVertex
 10
704.5976113801966
 20
1207.598345236841
 30
0.0
  0
VERTEX
  5
374
330
332
100
AcDbEntity
  8
図
  6
CONTINUOUS
 62
     2
100
AcDbVertex
100
AcDb2dVertex
 10
704.4143848987491
 20
1207.335477910243
 30
0.0
  0
VERTEX
  5
375
330
332
100
AcDbEntity
  8
図
  6
CONTINUOUS
 62
     2
100
AcDbVertex
100
AcDb2dVertex
 10
704.2308270573801
 20
1207.07067584683
 30
0.0
  0
VERTEX
  5
376
330
332
100
AcDbEntity
  8
図
  6
CONTINUOUS
 62
     2
100
AcDbVertex
100
AcDb2dVertex
 10
704.0461804124311
 20
1206.802837502152
 30
0.0
  0
VERTEX
  5
377
330
332
100
AcDbEntity
  8
図
  6
CONTINUOUS
 62
     2
100
AcDbVertex
100
AcDb2dVertex
 10
703.8615091308988
 20
1206.533580683156
 30
0.0
  0
VERTEX
  5
378
330
332
100
AcDbEntity
  8
図
  6
CONTINUOUS
 62
     2
100
AcDbVertex
100
AcDb2dVertex
 10
703.6772547682073
 20
1206.263649362631
 30
0.0
  0
VERTEX
  5
379
330
332
100
AcDbEntity
  8
図
  6
CONTINUOUS
 62
     2
100
AcDbVertex
100
AcDb2dVertex
 10
703.4938588797813
 20
1205.993787513367
 30
0.0
  0
VERTEX
  5
37A
330
332
100
AcDbEntity
  8
図
  6
CONTINUOUS
 62
     2
100
AcDbVertex
100
AcDb2dVertex
 10
703.3117630210454
 20
1205.724739108157
 30
0.0
  0
VERTEX
  5
37B
330
332
100
AcDbEntity
  8
図
  6
CONTINUOUS
 62
     2
100
AcDbVertex
100
AcDb2dVertex
 10
703.131408747424
 20
1205.45724811979
 30
0.0
  0
VERTEX
  5
37C
330
332
100
AcDbEntity
  8
図
  6
CONTINUOUS
 62
     2
100
AcDbVertex
100
AcDb2dVertex
 10
702.9532376143414
 20
1205.192058521056
 30
0.0
  0
VERTEX
  5
37D
330
332
100
AcDbEntity
  8
図
  6
CONTINUOUS
 62
     2
100
AcDbVertex
100
AcDb2dVertex
 10
702.7776911772223
 20
1204.929914284747
 30
0.0
  0
VERTEX
  5
37E
330
332
100
AcDbEntity
  8
図
  6
CONTINUOUS
 62
     2
100
AcDbVertex
100
AcDb2dVertex
 10
702.605210991491
 20
1204.671559383652
 30
0.0
  0
VERTEX
  5
37F
330
332
100
AcDbEntity
  8
図
  6
CONTINUOUS
 62
     2
100
AcDbVertex
100
AcDb2dVertex
 10
702.4362386125722
 20
1204.417737790563
 30
0.0
  0
VERTEX
  5
380
330
332
100
AcDbEntity
  8
図
  6
CONTINUOUS
 62
     2
100
AcDbVertex
100
AcDb2dVertex
 10
702.2712155958902
 20
1204.16919347827
 30
0.0
  0
VERTEX
  5
381
330
332
100
AcDbEntity
  8
図
  6
CONTINUOUS
 62
     2
100
AcDbVertex
100
AcDb2dVertex
 10
702.1097992832396
 20
1203.925424221227
 30
0.0
  0
VERTEX
  5
382
330
332
100
AcDbEntity
  8
図
  6
CONTINUOUS
 62
     2
100
AcDbVertex
100
AcDb2dVertex
 10
701.9511594631979
 20
1203.684944828797
 30
0.0
  0
VERTEX
  5
383
330
332
100
AcDbEntity
  8
図
  6
CONTINUOUS
 62
     2
100
AcDbVertex
100
AcDb2dVertex
 10
701.7936574375562
 20
1203.444990626292
 30
0.0
  0
VERTEX
  5
384
330
332
100
AcDbEntity
  8
図
  6
CONTINUOUS
 62
     2
100
AcDbVertex
100
AcDb2dVertex
 10
701.6356545081052
 20
1203.202796939024
 30
0.0
  0
VERTEX
  5
385
330
332
100
AcDbEntity
  8
図
  6
CONTINUOUS
 62
     2
100
AcDbVertex
100
AcDb2dVertex
 10
701.4755119766355
 20
1202.955599092304
 30
0.0
  0
VERTEX
  5
386
330
332
100
AcDbEntity
  8
図
  6
CONTINUOUS
 62
     2
100
AcDbVertex
100
AcDb2dVertex
 10
701.3115911449386
 20
1202.700632411445
 30
0.0
  0
VERTEX
  5
387
330
332
100
AcDbEntity
  8
図
  6
CONTINUOUS
 62
     2
100
AcDbVertex
100
AcDb2dVertex
 10
701.1422533148049
 20
1202.435132221759
 30
0.0
  0
VERTEX
  5
388
330
332
100
AcDbEntity
  8
図
  6
CONTINUOUS
 62
     2
100
AcDbVertex
100
AcDb2dVertex
 10
700.9658597880252
 20
1202.156333848558
 30
0.0
  0
VERTEX
  5
389
330
332
100
AcDbEntity
  8
図
  6
CONTINUOUS
 62
     2
100
AcDbVertex
100
AcDb2dVertex
 10
700.7807718663906
 20
1201.861472617153
 30
0.0
  0
VERTEX
  5
38A
330
332
100
AcDbEntity
  8
図
  6
CONTINUOUS
 62
     2
100
AcDbVertex
100
AcDb2dVertex
 10
700.585350851692
 20
1201.547783852856
 30
0.0
  0
VERTEX
  5
38B
330
332
100
AcDbEntity
  8
図
  6
CONTINUOUS
 62
     2
100
AcDbVertex
100
AcDb2dVertex
 10
700.3779580457201
 20
1201.21250288098
 30
0.0
  0
VERTEX
  5
38C
330
332
100
AcDbEntity
  8
図
  6
CONTINUOUS
 62
     2
100
AcDbVertex
100
AcDb2dVertex
 10
700.1745701549139
 20
1200.881674560799
 30
0.0
  0
VERTEX
  5
38D
330
332
100
AcDbEntity
  8
図
  6
CONTINUOUS
 62
     2
100
AcDbVertex
100
AcDb2dVertex
 10
699.9648806732764
 20
1200.539019708692
 30
0.0
  0
VERTEX
  5
38E
330
332
100
AcDbEntity
  8
図
  6
CONTINUOUS
 62
     2
100
AcDbVertex
100
AcDb2dVertex
 10
699.7542987231062
 20
1200.193668898012
 30
0.0
  0
VERTEX
  5
38F
330
332
100
AcDbEntity
  8
図
  6
CONTINUOUS
 62
     2
100
AcDbVertex
100
AcDb2dVertex
 10
699.548233426701
 20
1199.854752702111
 30
0.0
  0
VERTEX
  5
390
330
332
100
AcDbEntity
  8
図
  6
CONTINUOUS
 62
     2
100
AcDbVertex
100
AcDb2dVertex
 10
699.3520939063599
 20
1199.531401694342
 30
0.0
  0
VERTEX
  5
391
330
332
100
AcDbEntity
  8
図
  6
CONTINUOUS
 62
     2
100
AcDbVertex
100
AcDb2dVertex
 10
699.1712892843809
 20
1199.232746448057
 30
0.0
  0
VERTEX
  5
392
330
332
100
AcDbEntity
  8
図
  6
CONTINUOUS
 62
     2
100
AcDbVertex
100
AcDb2dVertex
 10
699.0112286830623
 20
1198.96791753661
 30
0.0
  0
VERTEX
  5
393
330
332
100
AcDbEntity
  8
図
  6
CONTINUOUS
 62
     2
100
AcDbVertex
100
AcDb2dVertex
 10
698.8773212247027
 20
1198.746045533352
 30
0.0
  0
VERTEX
  5
394
330
332
100
AcDbEntity
  8
図
  6
CONTINUOUS
 62
     2
100
AcDbVertex
100
AcDb2dVertex
 10
698.7749760316002
 20
1198.576261011636
 30
0.0
  0
VERTEX
  5
395
330
332
100
AcDbEntity
  8
図
  6
CONTINUOUS
 62
     2
100
AcDbVertex
100
AcDb2dVertex
 10
698.7096022260531
 20
1198.467694544814
 30
0.0
  0
VERTEX
  5
396
330
332
100
AcDbEntity
  8
図
  6
CONTINUOUS
 62
     2
100
AcDbVertex
100
AcDb2dVertex
 10
698.6866089303601
 20
1198.42947670624
 30
0.0
  0
SEQEND
  5
397
330
332
100
AcDbEntity
  8
図
  6
CONTINUOUS
 62
     2
  0
ARC
  5
398
330
1F
100
AcDbEntity
  8
図
  6
CONTINUOUS
 62
     2
100
AcDbCircle
 10
699.4896067067101
 20
1197.95376073825
 30
0.0
 40
0.93333333333339
100
AcDbArc
 50
149.35643873349
 51
232.40603480574
  0
LINE
  5
399
330
1F
100
AcDbEntity
  8
図
  6
CONTINUOUS
 62
     2
100
AcDbLine
 10
715.5923435451501
 20
1196.10127794399
 30
0.0
 11
715.2657699128702
 21
1196.28407688157
 31
0.0
  0
LINE
  5
39A
330
1F
100
AcDbEntity
  8
図
  6
CONTINUOUS
 62
     2
100
AcDbLine
 10
715.2657699128702
 20
1196.28407688157
 30
0.0
 11
714.86455060543
 21
1196.30826956001
 31
0.0
  0
LINE
  5
39B
330
1F
100
AcDbEntity
  8
図
  6
CONTINUOUS
 62
     2
100
AcDbLine
 10
714.86455060543
 20
1196.30826956001
 30
0.0
 11
714.4184422235501
 21
1196.17206171915
 31
0.0
  0
POLYLINE
  5
39C
330
1F
100
AcDbEntity
  8
図
  6
CONTINUOUS
 62
     2
100
AcDb2dPolyline
 66
     1
 10
0.0
 20
0.0
 30
0.0
 70
   128
  0
VERTEX
  5
39D
330
39C
100
AcDbEntity
  8
図
  6
CONTINUOUS
 62
     2
100
AcDbVertex
100
AcDb2dVertex
 10
727.6236126910801
 20
1214.36473473006
 30
0.0
  0
VERTEX
  5
39E
330
39C
100
AcDbEntity
  8
図
  6
CONTINUOUS
 62
     2
100
AcDbVertex
100
AcDb2dVertex
 10
727.6232014074296
 20
1214.369173242727
 30
0.0
  0
VERTEX
  5
39F
330
39C
100
AcDbEntity
  8
図
  6
CONTINUOUS
 62
     2
100
AcDbVertex
100
AcDb2dVertex
 10
727.62198958182
 20
1214.381774833476
 30
0.0
  0
VERTEX
  5
3A0
330
39C
100
AcDbEntity
  8
図
  6
CONTINUOUS
 62
     2
100
AcDbVertex
100
AcDb2dVertex
 10
727.6200102522638
 20
1214.401468581429
 30
0.0
  0
VERTEX
  5
3A1
330
39C
100
AcDbEntity
  8
図
  6
CONTINUOUS
 62
     2
100
AcDbVertex
100
AcDb2dVertex
 10
727.6172964567734
 20
1214.427183565709
 30
0.0
  0
VERTEX
  5
3A2
330
39C
100
AcDbEntity
  8
図
  6
CONTINUOUS
 62
     2
100
AcDbVertex
100
AcDb2dVertex
 10
727.6138812333613
 20
1214.457848865438
 30
0.0
  0
VERTEX
  5
3A3
330
39C
100
AcDbEntity
  8
図
  6
CONTINUOUS
 62
     2
100
AcDbVertex
100
AcDb2dVertex
 10
727.6097976200405
 20
1214.492393559739
 30
0.0
  0
VERTEX
  5
3A4
330
39C
100
AcDbEntity
  8
図
  6
CONTINUOUS
 62
     2
100
AcDbVertex
100
AcDb2dVertex
 10
727.6050786548232
 20
1214.529746727734
 30
0.0
  0
VERTEX
  5
3A5
330
39C
100
AcDbEntity
  8
図
  6
CONTINUOUS
 62
     2
100
AcDbVertex
100
AcDb2dVertex
 10
727.5997573757219
 20
1214.568837448545
 30
0.0
  0
VERTEX
  5
3A6
330
39C
100
AcDbEntity
  8
図
  6
CONTINUOUS
 62
     2
100
AcDbVertex
100
AcDb2dVertex
 10
727.5938668207492
 20
1214.608594801295
 30
0.0
  0
VERTEX
  5
3A7
330
39C
100
AcDbEntity
  8
図
  6
CONTINUOUS
 62
     2
100
AcDbVertex
100
AcDb2dVertex
 10
727.5874400279178
 20
1214.647947865106
 30
0.0
  0
VERTEX
  5
3A8
330
39C
100
AcDbEntity
  8
図
  6
CONTINUOUS
 62
     2
100
AcDbVertex
100
AcDb2dVertex
 10
727.5805100352401
 20
1214.6858257191
 30
0.0
  0
VERTEX
  5
3A9
330
39C
100
AcDbEntity
  8
図
  6
CONTINUOUS
 62
     2
100
AcDbVertex
100
AcDb2dVertex
 10
727.572264925028
 20
1214.725110978386
 30
0.0
  0
VERTEX
  5
3AA
330
39C
100
AcDbEntity
  8
図
  6
CONTINUOUS
 62
     2
100
AcDbVertex
100
AcDb2dVertex
 10
727.5634196048225
 20
1214.761610454353
 30
0.0
  0
VERTEX
  5
3AB
330
39C
100
AcDbEntity
  8
図
  6
CONTINUOUS
 62
     2
100
AcDbVertex
100
AcDb2dVertex
 10
727.553952129148
 20
1214.795669917402
 30
0.0
  0
VERTEX
  5
3AC
330
39C
100
AcDbEntity
  8
図
  6
CONTINUOUS
 62
     2
100
AcDbVertex
100
AcDb2dVertex
 10
727.5438405525297
 20
1214.827635137935
 30
0.0
  0
VERTEX
  5
3AD
330
39C
100
AcDbEntity
  8
図
  6
CONTINUOUS
 62
     2
100
AcDbVertex
100
AcDb2dVertex
 10
727.5330629294921
 20
1214.857851886352
 30
0.0
  0
VERTEX
  5
3AE
330
39C
100
AcDbEntity
  8
図
  6
CONTINUOUS
 62
     2
100
AcDbVertex
100
AcDb2dVertex
 10
727.52159731456
 20
1214.886665933054
 30
0.0
  0
VERTEX
  5
3AF
330
39C
100
AcDbEntity
  8
図
  6
CONTINUOUS
 62
     2
100
AcDbVertex
100
AcDb2dVertex
 10
727.5094217622583
 20
1214.914423048442
 30
0.0
  0
VERTEX
  5
3B0
330
39C
100
AcDbEntity
  8
図
  6
CONTINUOUS
 62
     2
100
AcDbVertex
100
AcDb2dVertex
 10
727.4965143271116
 20
1214.941469002918
 30
0.0
  0
VERTEX
  5
3B1
330
39C
100
AcDbEntity
  8
図
  6
CONTINUOUS
 62
     2
100
AcDbVertex
100
AcDb2dVertex
 10
727.4828530636448
 20
1214.968149566882
 30
0.0
  0
VERTEX
  5
3B2
330
39C
100
AcDbEntity
  8
図
  6
CONTINUOUS
 62
     2
100
AcDbVertex
100
AcDb2dVertex
 10
727.4684160263827
 20
1214.994810510736
 30
0.0
  0
VERTEX
  5
3B3
330
39C
100
AcDbEntity
  8
図
  6
CONTINUOUS
 62
     2
100
AcDbVertex
100
AcDb2dVertex
 10
727.4531812698499
 20
1215.02179760488
 30
0.0
  0
VERTEX
  5
3B4
330
39C
100
AcDbEntity
  8
図
  6
CONTINUOUS
 62
     2
100
AcDbVertex
100
AcDb2dVertex
 10
727.4376263543675
 20
1215.048560209246
 30
0.0
  0
VERTEX
  5
3B5
330
39C
100
AcDbEntity
  8
図
  6
CONTINUOUS
 62
     2
100
AcDbVertex
100
AcDb2dVertex
 10
727.4214072842899
 20
1215.075790497807
 30
0.0
  0
VERTEX
  5
3B6
330
39C
100
AcDbEntity
  8
図
  6
CONTINUOUS
 62
     2
100
AcDbVertex
100
AcDb2dVertex
 10
727.4046326471134
 20
1215.103322698948
 30
0.0
  0
VERTEX
  5
3B7
330
39C
100
AcDbEntity
  8
図
  6
CONTINUOUS
 62
     2
100
AcDbVertex
100
AcDb2dVertex
 10
727.3874110303332
 20
1215.130991041045
 30
0.0
  0
VERTEX
  5
3B8
330
39C
100
AcDbEntity
  8
図
  6
CONTINUOUS
 62
     2
100
AcDbVertex
100
AcDb2dVertex
 10
727.3698510214451
 20
1215.158629752482
 30
0.0
  0
VERTEX
  5
3B9
330
39C
100
AcDbEntity
  8
図
  6
CONTINUOUS
 62
     2
100
AcDbVertex
100
AcDb2dVertex
 10
727.3520612079453
 20
1215.186073061639
 30
0.0
  0
VERTEX
  5
3BA
330
39C
100
AcDbEntity
  8
図
  6
CONTINUOUS
 62
     2
100
AcDbVertex
100
AcDb2dVertex
 10
727.3341501773293
 20
1215.213155196898
 30
0.0
  0
VERTEX
  5
3BB
330
39C
100
AcDbEntity
  8
図
  6
CONTINUOUS
 62
     2
100
AcDbVertex
100
AcDb2dVertex
 10
727.3162265170932
 20
1215.239710386638
 30
0.0
  0
VERTEX
  5
3BC
330
39C
100
AcDbEntity
  8
図
  6
CONTINUOUS
 62
     2
100
AcDbVertex
100
AcDb2dVertex
 10
727.2983988147323
 20
1215.265572859241
 30
0.0
  0
VERTEX
  5
3BD
330
39C
100
AcDbEntity
  8
図
  6
CONTINUOUS
 62
     2
100
AcDbVertex
100
AcDb2dVertex
 10
727.2807756577428
 20
1215.290576843088
 30
0.0
  0
VERTEX
  5
3BE
330
39C
100
AcDbEntity
  8
図
  6
CONTINUOUS
 62
     2
100
AcDbVertex
100
AcDb2dVertex
 10
727.2634656336202
 20
1215.31455656656
 30
0.0
  0
VERTEX
  5
3BF
330
39C
100
AcDbEntity
  8
図
  6
CONTINUOUS
 62
     2
100
AcDbVertex
100
AcDb2dVertex
 10
727.2489718312813
 20
1215.334114055765
 30
0.0
  0
VERTEX
  5
3C0
330
39C
100
AcDbEntity
  8
図
  6
CONTINUOUS
 62
     2
100
AcDbVertex
100
AcDb2dVertex
 10
727.2344617674875
 20
1215.352985730319
 30
0.0
  0
VERTEX
  5
3C1
330
39C
100
AcDbEntity
  8
図
  6
CONTINUOUS
 62
     2
100
AcDbVertex
100
AcDb2dVertex
 10
727.2196126592596
 20
1215.371350733615
 30
0.0
  0
VERTEX
  5
3C2
330
39C
100
AcDbEntity
  8
図
  6
CONTINUOUS
 62
     2
100
AcDbVertex
100
AcDb2dVertex
 10
727.2041017236188
 20
1215.389388209047
 30
0.0
  0
VERTEX
  5
3C3
330
39C
100
AcDbEntity
  8
図
  6
CONTINUOUS
 62
     2
100
AcDbVertex
100
AcDb2dVertex
 10
727.1876061775863
 20
1215.407277300008
 30
0.0
  0
VERTEX
  5
3C4
330
39C
100
AcDbEntity
  8
図
  6
CONTINUOUS
 62
     2
100
AcDbVertex
100
AcDb2dVertex
 10
727.1698032381829
 20
1215.425197149892
 30
0.0
  0
VERTEX
  5
3C5
330
39C
100
AcDbEntity
  8
図
  6
CONTINUOUS
 62
     2
100
AcDbVertex
100
AcDb2dVertex
 10
727.1503701224296
 20
1215.443326902093
 30
0.0
  0
VERTEX
  5
3C6
330
39C
100
AcDbEntity
  8
図
  6
CONTINUOUS
 62
     2
100
AcDbVertex
100
AcDb2dVertex
 10
727.1289840473478
 20
1215.461845700003
 30
0.0
  0
VERTEX
  5
3C7
330
39C
100
AcDbEntity
  8
図
  6
CONTINUOUS
 62
     2
100
AcDbVertex
100
AcDb2dVertex
 10
727.1053222299581
 20
1215.480932687017
 30
0.0
  0
VERTEX
  5
3C8
330
39C
100
AcDbEntity
  8
図
  6
CONTINUOUS
 62
     2
100
AcDbVertex
100
AcDb2dVertex
 10
727.0790618872819
 20
1215.500767006529
 30
0.0
  0
VERTEX
  5
3C9
330
39C
100
AcDbEntity
  8
図
  6
CONTINUOUS
 62
     2
100
AcDbVertex
100
AcDb2dVertex
 10
727.0498802363401
 20
1215.52152780193
 30
0.0
  0
VERTEX
  5
3CA
330
39C
100
AcDbEntity
  8
図
  6
CONTINUOUS
 62
     2
100
AcDbVertex
100
AcDb2dVertex
 10
727.0390432778647
 20
1215.528964064297
 30
0.0
  0
VERTEX
  5
3CB
330
39C
100
AcDbEntity
  8
図
  6
CONTINUOUS
 62
     2
100
AcDbVertex
100
AcDb2dVertex
 10
727.0280625572566
 20
1215.536387284966
 30
0.0
  0
VERTEX
  5
3CC
330
39C
100
AcDbEntity
  8
図
  6
CONTINUOUS
 62
     2
100
AcDbVertex
100
AcDb2dVertex
 10
727.0171858295838
 20
1215.543650989199
 30
0.0
  0
VERTEX
  5
3CD
330
39C
100
AcDbEntity
  8
図
  6
CONTINUOUS
 62
     2
100
AcDbVertex
100
AcDb2dVertex
 10
727.0066608499135
 20
1215.550608702254
 30
0.0
  0
VERTEX
  5
3CE
330
39C
100
AcDbEntity
  8
図
  6
CONTINUOUS
 62
     2
100
AcDbVertex
100
AcDb2dVertex
 10
726.9967353733134
 20
1215.557113949391
 30
0.0
  0
VERTEX
  5
3CF
330
39C
100
AcDbEntity
  8
図
  6
CONTINUOUS
 62
     2
100
AcDbVertex
100
AcDb2dVertex
 10
726.9876571548511
 20
1215.563020255872
 30
0.0
  0
VERTEX
  5
3D0
330
39C
100
AcDbEntity
  8
図
  6
CONTINUOUS
 62
     2
100
AcDbVertex
100
AcDb2dVertex
 10
726.979673949594
 20
1215.568181146954
 30
0.0
  0
VERTEX
  5
3D1
330
39C
100
AcDbEntity
  8
図
  6
CONTINUOUS
 62
     2
100
AcDbVertex
100
AcDb2dVertex
 10
726.9730335126098
 20
1215.5724501479
 30
0.0
  0
VERTEX
  5
3D2
330
39C
100
AcDbEntity
  8
図
  6
CONTINUOUS
 62
     2
100
AcDbVertex
100
AcDb2dVertex
 10
726.9679835989662
 20
1215.575680783968
 30
0.0
  0
VERTEX
  5
3D3
330
39C
100
AcDbEntity
  8
図
  6
CONTINUOUS
 62
     2
100
AcDbVertex
100
AcDb2dVertex
 10
726.9647719637302
 20
1215.577726580417
 30
0.0
  0
VERTEX
  5
3D4
330
39C
100
AcDbEntity
  8
図
  6
CONTINUOUS
 62
     2
100
AcDbVertex
100
AcDb2dVertex
 10
726.96364636197
 20
1215.57844106251
 30
0.0
  0
SEQEND
  5
3D5
330
39C
100
AcDbEntity
  8
図
  6
CONTINUOUS
 62
     2
  0
LINE
  5
3D6
330
1F
100
AcDbEntity
  8
図
  6
CONTINUOUS
 62
     2
100
AcDbLine
 10
716.4041850962301
 20
1221.67428829751
 30
0.0
 11
726.9636463620101
 21
1215.57844106255
 31
0.0
  0
LINE
  5
3D7
330
1F
100
AcDbEntity
  8
図
  6
CONTINUOUS
 62
     2
100
AcDbLine
 10
727.6236126911301
 20
1204.56367887237
 30
0.0
 11
727.6236126911301
 21
1214.36473473011
 31
0.0
  0
LINE
  5
3D8
330
1F
100
AcDbEntity
  8
図
  6
CONTINUOUS
 62
     2
100
AcDbLine
 10
714.3010032136101
 20
1196.24190014725
 30
0.0
 11
714.7921905499701
 21
1196.48977104661
 31
0.0
  0
LINE
  5
3D9
330
1F
100
AcDbEntity
  8
図
  6
CONTINUOUS
 62
     2
100
AcDbLine
 10
714.7921905499701
 20
1196.48977104661
 30
0.0
 11
715.26026109725
 21
1196.58435988459
 31
0.0
  0
LINE
  5
3DA
330
1F
100
AcDbEntity
  8
図
  6
CONTINUOUS
 62
     2
100
AcDbLine
 10
715.26026109725
 20
1196.58435988459
 30
0.0
 11
715.6758042615102
 21
1196.51972329677
 31
0.0
  0
LINE
  5
3DB
330
1F
100
AcDbEntity
  8
図
  6
CONTINUOUS
 62
     2
100
AcDbLine
 10
715.6758042615102
 20
1196.51972329677
 30
0.0
 11
716.0127099374702
 21
1196.29992263765
 31
0.0
  0
POLYLINE
  5
3DC
330
1F
100
AcDbEntity
  8
図
  6
CONTINUOUS
 62
     2
100
AcDb2dPolyline
 66
     1
 10
0.0
 20
0.0
 30
0.0
 70
   128
  0
VERTEX
  5
3DD
330
3DC
100
AcDbEntity
  8
図
  6
CONTINUOUS
 62
     2
100
AcDbVertex
100
AcDb2dVertex
 10
716.4041850962601
 20
1221.67428829745
 30
0.0
  0
VERTEX
  5
3DE
330
3DC
100
AcDbEntity
  8
図
  6
CONTINUOUS
 62
     2
100
AcDbVertex
100
AcDb2dVertex
 10
716.4013182445068
 20
1221.67552359306
 30
0.0
  0
VERTEX
  5
3DF
330
3DC
100
AcDbEntity
  8
図
  6
CONTINUOUS
 62
     2
100
AcDbVertex
100
AcDb2dVertex
 10
716.3931872970858
 20
1221.678990458978
 30
0.0
  0
VERTEX
  5
3E0
330
3DC
100
AcDbEntity
  8
図
  6
CONTINUOUS
 62
     2
100
AcDbVertex
100
AcDb2dVertex
 10
716.3804966657553
 20
1221.684330363833
 30
0.0
  0
VERTEX
  5
3E1
330
3DC
100
AcDbEntity
  8
図
  6
CONTINUOUS
 62
     2
100
AcDbVertex
100
AcDb2dVertex
 10
716.3639507622731
 20
1221.691184776256
 30
0.0
  0
VERTEX
  5
3E2
330
3DC
100
AcDbEntity
  8
図
  6
CONTINUOUS
 62
     2
100
AcDbVertex
100
AcDb2dVertex
 10
716.3442539983976
 20
1221.699195164876
 30
0.0
  0
VERTEX
  5
3E3
330
3DC
100
AcDbEntity
  8
図
  6
CONTINUOUS
 62
     2
100
AcDbVertex
100
AcDb2dVertex
 10
716.3221107858869
 20
1221.708002998326
 30
0.0
  0
VERTEX
  5
3E4
330
3DC
100
AcDbEntity
  8
図
  6
CONTINUOUS
 62
     2
100
AcDbVertex
100
AcDb2dVertex
 10
716.2982255364991
 20
1221.717249745234
 30
0.0
  0
VERTEX
  5
3E5
330
3DC
100
AcDbEntity
  8
図
  6
CONTINUOUS
 62
     2
100
AcDbVertex
100
AcDb2dVertex
 10
716.2733026619925
 20
1221.726576874231
 30
0.0
  0
VERTEX
  5
3E6
330
3DC
100
AcDbEntity
  8
図
  6
CONTINUOUS
 62
     2
100
AcDbVertex
100
AcDb2dVertex
 10
716.2480465741253
 20
1221.735625853948
 30
0.0
  0
VERTEX
  5
3E7
330
3DC
100
AcDbEntity
  8
図
  6
CONTINUOUS
 62
     2
100
AcDbVertex
100
AcDb2dVertex
 10
716.223161684655
 20
1221.744038153014
 30
0.0
  0
VERTEX
  5
3E8
330
3DC
100
AcDbEntity
  8
図
  6
CONTINUOUS
 62
     2
100
AcDbVertex
100
AcDb2dVertex
 10
716.1993524053403
 20
1221.75145524006
 30
0.0
  0
VERTEX
  5
3E9
330
3DC
100
AcDbEntity
  8
図
  6
CONTINUOUS
 62
     2
100
AcDbVertex
100
AcDb2dVertex
 10
716.1807889457369
 20
1221.756625816793
 30
0.0
  0
VERTEX
  5
3EA
330
3DC
100
AcDbEntity
  8
図
  6
CONTINUOUS
 62
     2
100
AcDbVertex
100
AcDb2dVertex
 10
716.1632504902842
 20
1221.760783965981
 30
0.0
  0
VERTEX
  5
3EB
330
3DC
100
AcDbEntity
  8
図
  6
CONTINUOUS
 62
     2
100
AcDbVertex
100
AcDb2dVertex
 10
716.1465327544885
 20
1221.763852159455
 30
0.0
  0
VERTEX
  5
3EC
330
3DC
100
AcDbEntity
  8
図
  6
CONTINUOUS
 62
     2
100
AcDbVertex
100
AcDb2dVertex
 10
716.1304314538559
 20
1221.765752869047
 30
0.0
  0
VERTEX
  5
3ED
330
3DC
100
AcDbEntity
  8
図
  6
CONTINUOUS
 62
     2
100
AcDbVertex
100
AcDb2dVertex
 10
716.1147423038929
 20
1221.766408566589
 30
0.0
  0
VERTEX
  5
3EE
330
3DC
100
AcDbEntity
  8
図
  6
CONTINUOUS
 62
     2
100
AcDbVertex
100
AcDb2dVertex
 10
716.0992610201054
 20
1221.765741723911
 30
0.0
  0
VERTEX
  5
3EF
330
3DC
100
AcDbEntity
  8
図
  6
CONTINUOUS
 62
     2
100
AcDbVertex
100
AcDb2dVertex
 10
716.0837833179996
 20
1221.763674812845
 30
0.0
  0
VERTEX
  5
3F0
330
3DC
100
AcDbEntity
  8
図
  6
CONTINUOUS
 62
     2
100
AcDbVertex
100
AcDb2dVertex
 10
716.0681049130822
 20
1221.760130305223
 30
0.0
  0
VERTEX
  5
3F1
330
3DC
100
AcDbEntity
  8
図
  6
CONTINUOUS
 62
     2
100
AcDbVertex
100
AcDb2dVertex
 10
716.0520215208588
 20
1221.755030672875
 30
0.0
  0
VERTEX
  5
3F2
330
3DC
100
AcDbEntity
  8
図
  6
CONTINUOUS
 62
     2
100
AcDbVertex
100
AcDb2dVertex
 10
716.035328856836
 20
1221.748298387634
 30
0.0
  0
VERTEX
  5
3F3
330
3DC
100
AcDbEntity
  8
図
  6
CONTINUOUS
 62
     2
100
AcDbVertex
100
AcDb2dVertex
 10
716.0178226365201
 20
1221.73985592133
 30
0.0
  0
VERTEX
  5
3F4
330
3DC
100
AcDbEntity
  8
図
  6
CONTINUOUS
 62
     2
100
AcDbVertex
100
AcDb2dVertex
 10
716.0008471140288
 20
1221.730548744381
 30
0.0
  0
VERTEX
  5
3F5
330
3DC
100
AcDbEntity
  8
図
  6
CONTINUOUS
 62
     2
100
AcDbVertex
100
AcDb2dVertex
 10
715.9834352982249
 20
1221.720135358363
 30
0.0
  0
VERTEX
  5
3F6
330
3DC
100
AcDbEntity
  8
図
  6
CONTINUOUS
 62
     2
100
AcDbVertex
100
AcDb2dVertex
 10
715.9660197630667
 20
1221.70903561021
 30
0.0
  0
VERTEX
  5
3F7
330
3DC
100
AcDbEntity
  8
図
  6
CONTINUOUS
 62
     2
100
AcDbVertex
100
AcDb2dVertex
 10
715.9490330825133
 20
1221.697669346855
 30
0.0
  0
VERTEX
  5
3F8
330
3DC
100
AcDbEntity
  8
図
  6
CONTINUOUS
 62
     2
100
AcDbVertex
100
AcDb2dVertex
 10
715.9329078305232
 20
1221.68645641523
 30
0.0
  0
VERTEX
  5
3F9
330
3DC
100
AcDbEntity
  8
図
  6
CONTINUOUS
 62
     2
100
AcDbVertex
100
AcDb2dVertex
 10
715.9180765810554
 20
1221.67581666227
 30
0.0
  0
VERTEX
  5
3FA
330
3DC
100
AcDbEntity
  8
図
  6
CONTINUOUS
 62
     2
100
AcDbVertex
100
AcDb2dVertex
 10
715.9049719080679
 20
1221.666169934907
 30
0.0
  0
VERTEX
  5
3FB
330
3DC
100
AcDbEntity
  8
図
  6
CONTINUOUS
 62
     2
100
AcDbVertex
100
AcDb2dVertex
 10
715.8940263855201
 20
1221.657936080074
 30
0.0
  0
VERTEX
  5
3FC
330
3DC
100
AcDbEntity
  8
図
  6
CONTINUOUS
 62
     2
100
AcDbVertex
100
AcDb2dVertex
 10
715.8856725873702
 20
1221.651534944705
 30
0.0
  0
VERTEX
  5
3FD
330
3DC
100
AcDbEntity
  8
図
  6
CONTINUOUS
 62
     2
100
AcDbVertex
100
AcDb2dVertex
 10
715.8803430875773
 20
1221.647386375733
 30
0.0
  0
VERTEX
  5
3FE
330
3DC
100
AcDbEntity
  8
図
  6
CONTINUOUS
 62
     2
100
AcDbVertex
100
AcDb2dVertex
 10
715.8784704601001
 20
1221.64591022009
 30
0.0
  0
SEQEND
  5
3FF
330
3DC
100
AcDbEntity
  8
図
  6
CONTINUOUS
 62
     2
  0
POLYLINE
  5
400
330
1F
100
AcDbEntity
  8
図
  6
CONTINUOUS
 62
     2
100
AcDb2dPolyline
 66
     1
 10
0.0
 20
0.0
 30
0.0
 70
   128
  0
VERTEX
  5
401
330
400
100
AcDbEntity
  8
図
  6
CONTINUOUS
 62
     2
100
AcDbVertex
100
AcDb2dVertex
 10
727.4764581193801
 20
1204.15072512383
 30
0.0
  0
VERTEX
  5
402
330
400
100
AcDbEntity
  8
図
  6
CONTINUOUS
 62
     2
100
AcDbVertex
100
AcDb2dVertex
 10
727.4768951871774
 20
1204.151097277567
 30
0.0
  0
VERTEX
  5
403
330
400
100
AcDbEntity
  8
図
  6
CONTINUOUS
 62
     2
100
AcDbVertex
100
AcDb2dVertex
 10
727.4781386647169
 20
1204.152163026135
 30
0.0
  0
VERTEX
  5
404
330
400
100
AcDbEntity
  8
図
  6
CONTINUOUS
 62
     2
100
AcDbVertex
100
AcDb2dVertex
 10
727.4800869632189
 20
1204.153846300571
 30
0.0
  0
VERTEX
  5
405
330
400
100
AcDbEntity
  8
図
  6
CONTINUOUS
 62
     2
100
AcDbVertex
100
AcDb2dVertex
 10
727.4826384939041
 20
1204.156071031913
 30
0.0
  0
VERTEX
  5
406
330
400
100
AcDbEntity
  8
図
  6
CONTINUOUS
 62
     2
100
AcDbVertex
100
AcDb2dVertex
 10
727.485691667993
 20
1204.158761151198
 30
0.0
  0
VERTEX
  5
407
330
400
100
AcDbEntity
  8
図
  6
CONTINUOUS
 62
     2
100
AcDbVertex
100
AcDb2dVertex
 10
727.4891448967071
 20
1204.161840589463
 30
0.0
  0
VERTEX
  5
408
330
400
100
AcDbEntity
  8
図
  6
CONTINUOUS
 62
     2
100
AcDbVertex
100
AcDb2dVertex
 10
727.4928965912663
 20
1204.165233277745
 30
0.0
  0
VERTEX
  5
409
330
400
100
AcDbEntity
  8
図
  6
CONTINUOUS
 62
     2
100
AcDbVertex
100
AcDb2dVertex
 10
727.4968451628915
 20
1204.168863147082
 30
0.0
  0
VERTEX
  5
40A
330
400
100
AcDbEntity
  8
図
  6
CONTINUOUS
 62
     2
100
AcDbVertex
100
AcDb2dVertex
 10
727.5008890228034
 20
1204.17265412851
 30
0.0
  0
VERTEX
  5
40B
330
400
100
AcDbEntity
  8
図
  6
CONTINUOUS
 62
     2
100
AcDbVertex
100
AcDb2dVertex
 10
727.504926582223
 20
1204.176530153067
 30
0.0
  0
VERTEX
  5
40C
330
400
100
AcDbEntity
  8
図
  6
CONTINUOUS
 62
     2
100
AcDbVertex
100
AcDb2dVertex
 10
727.5088562523703
 20
1204.18041515179
 30
0.0
  0
VERTEX
  5
40D
330
400
100
AcDbEntity
  8
図
  6
CONTINUOUS
 62
     2
100
AcDbVertex
100
AcDb2dVertex
 10
727.5170103954929
 20
1204.188971082824
 30
0.0
  0
VERTEX
  5
40E
330
400
100
AcDbEntity
  8
図
  6
CONTINUOUS
 62
     2
100
AcDbVertex
100
AcDb2dVertex
 10
727.5242006637627
 20
1204.197221954086
 30
0.0
  0
VERTEX
  5
40F
330
400
100
AcDbEntity
  8
図
  6
CONTINUOUS
 62
     2
100
AcDbVertex
100
AcDb2dVertex
 10
727.5305301135146
 20
1204.205204438652
 30
0.0
  0
VERTEX
  5
410
330
400
100
AcDbEntity
  8
図
  6
CONTINUOUS
 62
     2
100
AcDbVertex
100
AcDb2dVertex
 10
727.5361018010831
 20
1204.2129552096
 30
0.0
  0
VERTEX
  5
411
330
400
100
AcDbEntity
  8
図
  6
CONTINUOUS
 62
     2
100
AcDbVertex
100
AcDb2dVertex
 10
727.5410187828033
 20
1204.220510940007
 30
0.0
  0
VERTEX
  5
412
330
400
100
AcDbEntity
  8
図
  6
CONTINUOUS
 62
     2
100
AcDbVertex
100
AcDb2dVertex
 10
727.5453841150095
 20
1204.22790830295
 30
0.0
  0
VERTEX
  5
413
330
400
100
AcDbEntity
  8
図
  6
CONTINUOUS
 62
     2
100
AcDbVertex
100
AcDb2dVertex
 10
727.5493008540368
 20
1204.235183971505
 30
0.0
  0
VERTEX
  5
414
330
400
100
AcDbEntity
  8
図
  6
CONTINUOUS
 62
     2
100
AcDbVertex
100
AcDb2dVertex
 10
727.5528720562197
 20
1204.242374618751
 30
0.0
  0
VERTEX
  5
415
330
400
100
AcDbEntity
  8
図
  6
CONTINUOUS
 62
     2
100
AcDbVertex
100
AcDb2dVertex
 10
727.556200777893
 20
1204.249516917764
 30
0.0
  0
VERTEX
  5
416
330
400
100
AcDbEntity
  8
図
  6
CONTINUOUS
 62
     2
100
AcDbVertex
100
AcDb2dVertex
 10
727.5593900753915
 20
1204.256647541622
 30
0.0
  0
VERTEX
  5
417
330
400
100
AcDbEntity
  8
図
  6
CONTINUOUS
 62
     2
100
AcDbVertex
100
AcDb2dVertex
 10
727.56254300505
 20
1204.2638031634
 30
0.0
  0
VERTEX
  5
418
330
400
100
AcDbEntity
  8
図
  6
CONTINUOUS
 62
     2
100
AcDbVertex
100
AcDb2dVertex
 10
727.5661251383383
 20
1204.271882054895
 30
0.0
  0
VERTEX
  5
419
330
400
100
AcDbEntity
  8
図
  6
CONTINUOUS
 62
     2
100
AcDbVertex
100
AcDb2dVertex
 10
727.5697635709237
 20
1204.280088597284
 30
0.0
  0
VERTEX
  5
41A
330
400
100
AcDbEntity
  8
図
  6
CONTINUOUS
 62
     2
100
AcDbVertex
100
AcDb2dVertex
 10
727.5734311578848
 20
1204.288473275404
 30
0.0
  0
VERTEX
  5
41B
330
400
100
AcDbEntity
  8
図
  6
CONTINUOUS
 62
     2
100
AcDbVertex
100
AcDb2dVertex
 10
727.5771007543003
 20
1204.297086574092
 30
0.0
  0
VERTEX
  5
41C
330
400
100
AcDbEntity
  8
図
  6
CONTINUOUS
 62
     2
100
AcDbVertex
100
AcDb2dVertex
 10
727.580745215249
 20
1204.305978978183
 30
0.0
  0
VERTEX
  5
41D
330
400
100
AcDbEntity
  8
図
  6
CONTINUOUS
 62
     2
100
AcDbVertex
100
AcDb2dVertex
 10
727.5843373958091
 20
1204.315200972515
 30
0.0
  0
VERTEX
  5
41E
330
400
100
AcDbEntity
  8
図
  6
CONTINUOUS
 62
     2
100
AcDbVertex
100
AcDb2dVertex
 10
727.5878501510599
 20
1204.324803041923
 30
0.0
  0
VERTEX
  5
41F
330
400
100
AcDbEntity
  8
図
  6
CONTINUOUS
 62
     2
100
AcDbVertex
100
AcDb2dVertex
 10
727.5912563360797
 20
1204.334835671244
 30
0.0
  0
VERTEX
  5
420
330
400
100
AcDbEntity
  8
図
  6
CONTINUOUS
 62
     2
100
AcDbVertex
100
AcDb2dVertex
 10
727.5945288059473
 20
1204.345349345315
 30
0.0
  0
VERTEX
  5
421
330
400
100
AcDbEntity
  8
図
  6
CONTINUOUS
 62
     2
100
AcDbVertex
100
AcDb2dVertex
 10
727.597640415741
 20
1204.356394548971
 30
0.0
  0
VERTEX
  5
422
330
400
100
AcDbEntity
  8
図
  6
CONTINUOUS
 62
     2
100
AcDbVertex
100
AcDb2dVertex
 10
727.6005640205401
 20
1204.36802176705
 30
0.0
  0
VERTEX
  5
423
330
400
100
AcDbEntity
  8
図
  6
CONTINUOUS
 62
     2
100
AcDbVertex
100
AcDb2dVertex
 10
727.6052404495155
 20
1204.390095343451
 30
0.0
  0
VERTEX
  5
424
330
400
100
AcDbEntity
  8
図
  6
CONTINUOUS
 62
     2
100
AcDbVertex
100
AcDb2dVertex
 10
727.6092789350656
 20
1204.413450626027
 30
0.0
  0
VERTEX
  5
425
330
400
100
AcDbEntity
  8
図
  6
CONTINUOUS
 62
     2
100
AcDbVertex
100
AcDb2dVertex
 10
727.6127200519793
 20
1204.437374608263
 30
0.0
  0
VERTEX
  5
426
330
400
100
AcDbEntity
  8
図
  6
CONTINUOUS
 62
     2
100
AcDbVertex
100
AcDb2dVertex
 10
727.6156043750461
 20
1204.461154283648
 30
0.0
  0
VERTEX
  5
427
330
400
100
AcDbEntity
  8
図
  6
CONTINUOUS
 62
     2
100
AcDbVertex
100
AcDb2dVertex
 10
727.617972479055
 20
1204.484076645668
 30
0.0
  0
VERTEX
  5
428
330
400
100
AcDbEntity
  8
図
  6
CONTINUOUS
 62
     2
100
AcDbVertex
100
AcDb2dVertex
 10
727.619864938795
 20
1204.50542868781
 30
0.0
  0
VERTEX
  5
429
330
400
100
AcDbEntity
  8
図
  6
CONTINUOUS
 62
     2
100
AcDbVertex
100
AcDb2dVertex
 10
727.6213223290551
 20
1204.524497403561
 30
0.0
  0
VERTEX
  5
42A
330
400
100
AcDbEntity
  8
図
  6
CONTINUOUS
 62
     2
100
AcDbVertex
100
AcDb2dVertex
 10
727.6223852246247
 20
1204.540569786409
 30
0.0
  0
VERTEX
  5
42B
330
400
100
AcDbEntity
  8
図
  6
CONTINUOUS
 62
     2
100
AcDbVertex
100
AcDb2dVertex
 10
727.6230942002927
 20
1204.55293282984
 30
0.0
  0
VERTEX
  5
42C
330
400
100
AcDbEntity
  8
図
  6
CONTINUOUS
 62
     2
100
AcDbVertex
100
AcDb2dVertex
 10
727.623489830848
 20
1204.560873527341
 30
0.0
  0
VERTEX
  5
42D
330
400
100
AcDbEntity
  8
図
  6
CONTINUOUS
 62
     2
100
AcDbVertex
100
AcDb2dVertex
 10
727.6236126910801
 20
1204.5636788724
 30
0.0
  0
SEQEND
  5
42E
330
400
100
AcDbEntity
  8
図
  6
CONTINUOUS
 62
     2
  0
POLYLINE
  5
42F
330
1F
100
AcDbEntity
  8
図
  6
CONTINUOUS
 62
     2
100
AcDb2dPolyline
 66
     1
 10
0.0
 20
0.0
 30
0.0
 70
   128
  0
VERTEX
  5
430
330
42F
100
AcDbEntity
  8
図
  6
CONTINUOUS
 62
     2
100
AcDbVertex
100
AcDb2dVertex
 10
847.8713234432001
 20
1145.44739215835
 30
0.0
  0
VERTEX
  5
431
330
42F
100
AcDbEntity
  8
図
  6
CONTINUOUS
 62
     2
100
AcDbVertex
100
AcDb2dVertex
 10
847.8585604002111
 20
1145.433483283568
 30
0.0
  0
VERTEX
  5
432
330
42F
100
AcDbEntity
  8
図
  6
CONTINUOUS
 62
     2
100
AcDbVertex
100
AcDb2dVertex
 10
847.8221475594486
 20
1145.393785299761
 30
0.0
  0
VERTEX
  5
433
330
42F
100
AcDbEntity
  8
図
  6
CONTINUOUS
 62
     2
100
AcDbVertex
100
AcDb2dVertex
 10
847.7648993532188
 20
1145.331341167733
 30
0.0
  0
VERTEX
  5
434
330
42F
100
AcDbEntity
  8
図
  6
CONTINUOUS
 62
     2
100
AcDbVertex
100
AcDb2dVertex
 10
847.6896302138277
 20
1145.249193848289
 30
0.0
  0
VERTEX
  5
435
330
42F
100
AcDbEntity
  8
図
  6
CONTINUOUS
 62
     2
100
AcDbVertex
100
AcDb2dVertex
 10
847.5991545735817
 20
1145.150386302236
 30
0.0
  0
VERTEX
  5
436
330
42F
100
AcDbEntity
  8
図
  6
CONTINUOUS
 62
     2
100
AcDbVertex
100
AcDb2dVertex
 10
847.4962868647876
 20
1145.037961490378
 30
0.0
  0
VERTEX
  5
437
330
42F
100
AcDbEntity
  8
図
  6
CONTINUOUS
 62
     2
100
AcDbVertex
100
AcDb2dVertex
 10
847.3838415197513
 20
1144.91496237352
 30
0.0
  0
VERTEX
  5
438
330
42F
100
AcDbEntity
  8
図
  6
CONTINUOUS
 62
     2
100
AcDbVertex
100
AcDb2dVertex
 10
847.2646329707788
 20
1144.784431912468
 30
0.0
  0
VERTEX
  5
439
330
42F
100
AcDbEntity
  8
図
  6
CONTINUOUS
 62
     2
100
AcDbVertex
100
AcDb2dVertex
 10
847.141475650177
 20
1144.649413068027
 30
0.0
  0
VERTEX
  5
43A
330
42F
100
AcDbEntity
  8
図
  6
CONTINUOUS
 62
     2
100
AcDbVertex
100
AcDb2dVertex
 10
847.0171839902521
 20
1144.512948801002
 30
0.0
  0
VERTEX
  5
43B
330
42F
100
AcDbEntity
  8
図
  6
CONTINUOUS
 62
     2
100
AcDbVertex
100
AcDb2dVertex
 10
846.8945724233099
 20
1144.3780820722
 30
0.0
  0
VERTEX
  5
43C
330
42F
100
AcDbEntity
  8
図
  6
CONTINUOUS
 62
     2
100
AcDbVertex
100
AcDb2dVertex
 10
846.6232785473757
 20
1144.078515765378
 30
0.0
  0
VERTEX
  5
43D
330
42F
100
AcDbEntity
  8
図
  6
CONTINUOUS
 62
     2
100
AcDbVertex
100
AcDb2dVertex
 10
846.3738887741704
 20
1143.801444410905
 30
0.0
  0
VERTEX
  5
43E
330
42F
100
AcDbEntity
  8
図
  6
CONTINUOUS
 62
     2
100
AcDbVertex
100
AcDb2dVertex
 10
846.1436233993837
 20
1143.543877470411
 30
0.0
  0
VERTEX
  5
43F
330
42F
100
AcDbEntity
  8
図
  6
CONTINUOUS
 62
     2
100
AcDbVertex
100
AcDb2dVertex
 10
845.9297027187044
 20
1143.302824405524
 30
0.0
  0
VERTEX
  5
440
330
42F
100
AcDbEntity
  8
図
  6
CONTINUOUS
 62
     2
100
AcDbVertex
100
AcDb2dVertex
 10
845.7293470278219
 20
1143.075294677875
 30
0.0
  0
VERTEX
  5
441
330
42F
100
AcDbEntity
  8
図
  6
CONTINUOUS
 62
     2
100
AcDbVertex
100
AcDb2dVertex
 10
845.5397766224252
 20
1142.858297749092
 30
0.0
  0
VERTEX
  5
442
330
42F
100
AcDbEntity
  8
図
  6
CONTINUOUS
 62
     2
100
AcDbVertex
100
AcDb2dVertex
 10
845.3582117982035
 20
1142.648843080805
 30
0.0
  0
VERTEX
  5
443
330
42F
100
AcDbEntity
  8
図
  6
CONTINUOUS
 62
     2
100
AcDbVertex
100
AcDb2dVertex
 10
845.1818728508458
 20
1142.443940134643
 30
0.0
  0
VERTEX
  5
444
330
42F
100
AcDbEntity
  8
図
  6
CONTINUOUS
 62
     2
100
AcDbVertex
100
AcDb2dVertex
 10
845.0079800760416
 20
1142.240598372235
 30
0.0
  0
VERTEX
  5
445
330
42F
100
AcDbEntity
  8
図
  6
CONTINUOUS
 62
     2
100
AcDbVertex
100
AcDb2dVertex
 10
844.8337537694802
 20
1142.035827255211
 30
0.0
  0
VERTEX
  5
446
330
42F
100
AcDbEntity
  8
図
  6
CONTINUOUS
 62
     2
100
AcDbVertex
100
AcDb2dVertex
 10
844.6564142268501
 20
1141.8266362452
 30
0.0
  0
VERTEX
  5
447
330
42F
100
AcDbEntity
  8
図
  6
CONTINUOUS
 62
     2
100
AcDbVertex
100
AcDb2dVertex
 10
844.4721743224019
 20
1141.608779688077
 30
0.0
  0
VERTEX
  5
448
330
42F
100
AcDbEntity
  8
図
  6
CONTINUOUS
 62
     2
100
AcDbVertex
100
AcDb2dVertex
 10
844.2826961028356
 20
1141.38420296984
 30
0.0
  0
VERTEX
  5
449
330
42F
100
AcDbEntity
  8
図
  6
CONTINUOUS
 62
     2
100
AcDbVertex
100
AcDb2dVertex
 10
844.0887359491996
 20
1141.153724319648
 30
0.0
  0
VERTEX
  5
44A
330
42F
100
AcDbEntity
  8
図
  6
CONTINUOUS
 62
     2
100
AcDbVertex
100
AcDb2dVertex
 10
843.8910502425423
 20
1140.918161966661
 30
0.0
  0
VERTEX
  5
44B
330
42F
100
AcDbEntity
  8
図
  6
CONTINUOUS
 62
     2
100
AcDbVertex
100
AcDb2dVertex
 10
843.6903953639118
 20
1140.678334140042
 30
0.0
  0
VERTEX
  5
44C
330
42F
100
AcDbEntity
  8
図
  6
CONTINUOUS
 62
     2
100
AcDbVertex
100
AcDb2dVertex
 10
843.487527694356
 20
1140.435059068949
 30
0.0
  0
VERTEX
  5
44D
330
42F
100
AcDbEntity
  8
図
  6
CONTINUOUS
 62
     2
100
AcDbVertex
100
AcDb2dVertex
 10
843.2832036149234
 20
1140.189154982543
 30
0.0
  0
VERTEX
  5
44E
330
42F
100
AcDbEntity
  8
図
  6
CONTINUOUS
 62
     2
100
AcDbVertex
100
AcDb2dVertex
 10
843.0781795066625
 20
1139.941440109987
 30
0.0
  0
VERTEX
  5
44F
330
42F
100
AcDbEntity
  8
図
  6
CONTINUOUS
 62
     2
100
AcDbVertex
100
AcDb2dVertex
 10
842.873211750621
 20
1139.692732680438
 30
0.0
  0
VERTEX
  5
450
330
42F
100
AcDbEntity
  8
図
  6
CONTINUOUS
 62
     2
100
AcDbVertex
100
AcDb2dVertex
 10
842.6690567278473
 20
1139.443850923059
 30
0.0
  0
VERTEX
  5
451
330
42F
100
AcDbEntity
  8
図
  6
CONTINUOUS
 62
     2
100
AcDbVertex
100
AcDb2dVertex
 10
842.46647081939
 20
1139.19561306701
 30
0.0
  0
VERTEX
  5
452
330
42F
100
AcDbEntity
  8
図
  6
CONTINUOUS
 62
     2
100
AcDbVertex
100
AcDb2dVertex
 10
842.2645767140913
 20
1138.946843113435
 30
0.0
  0
VERTEX
  5
453
330
42F
100
AcDbEntity
  8
図
  6
CONTINUOUS
 62
     2
100
AcDbVertex
100
AcDb2dVertex
 10
842.0648299358943
 20
1138.699325154199
 30
0.0
  0
VERTEX
  5
454
330
42F
100
AcDbEntity
  8
図
  6
CONTINUOUS
 62
     2
100
AcDbVertex
100
AcDb2dVertex
 10
841.8670178190785
 20
1138.452827363241
 30
0.0
  0
VERTEX
  5
455
330
42F
100
AcDbEntity
  8
図
  6
CONTINUOUS
 62
     2
100
AcDbVertex
100
AcDb2dVertex
 10
841.6709276979229
 20
1138.207117914499
 30
0.0
  0
VERTEX
  5
456
330
42F
100
AcDbEntity
  8
図
  6
CONTINUOUS
 62
     2
100
AcDbVertex
100
AcDb2dVertex
 10
841.476346906707
 20
1137.961964981913
 30
0.0
  0
VERTEX
  5
457
330
42F
100
AcDbEntity
  8
図
  6
CONTINUOUS
 62
     2
100
AcDbVertex
100
AcDb2dVertex
 10
841.2830627797101
 20
1137.717136739421
 30
0.0
  0
VERTEX
  5
458
330
42F
100
AcDbEntity
  8
図
  6
CONTINUOUS
 62
     2
100
AcDbVertex
100
AcDb2dVertex
 10
841.0908626512112
 20
1137.472401360961
 30
0.0
  0
VERTEX
  5
459
330
42F
100
AcDbEntity
  8
図
  6
CONTINUOUS
 62
     2
100
AcDbVertex
100
AcDb2dVertex
 10
840.8995338554894
 20
1137.227527020472
 30
0.0
  0
VERTEX
  5
45A
330
42F
100
AcDbEntity
  8
図
  6
CONTINUOUS
 62
     2
100
AcDbVertex
100
AcDb2dVertex
 10
840.7088637268241
 20
1136.982281891894
 30
0.0
  0
VERTEX
  5
45B
330
42F
100
AcDbEntity
  8
図
  6
CONTINUOUS
 62
     2
100
AcDbVertex
100
AcDb2dVertex
 10
840.5186395994947
 20
1136.736434149163
 30
0.0
  0
VERTEX
  5
45C
330
42F
100
AcDbEntity
  8
図
  6
CONTINUOUS
 62
     2
100
AcDbVertex
100
AcDb2dVertex
 10
840.3286488077802
 20
1136.48975196622
 30
0.0
  0
VERTEX
  5
45D
330
42F
100
AcDbEntity
  8
図
  6
CONTINUOUS
 62
     2
100
AcDbVertex
100
AcDb2dVertex
 10
840.1375447607247
 20
1136.24051385031
 30
0.0
  0
VERTEX
  5
45E
330
42F
100
AcDbEntity
  8
図
  6
CONTINUOUS
 62
     2
100
AcDbVertex
100
AcDb2dVertex
 10
839.946547992676
 20
1135.990309934689
 30
0.0
  0
VERTEX
  5
45F
330
42F
100
AcDbEntity
  8
図
  6
CONTINUOUS
 62
     2
100
AcDbVertex
100
AcDb2dVertex
 10
839.7557448542802
 20
1135.739254019006
 30
0.0
  0
VERTEX
  5
460
330
42F
100
AcDbEntity
  8
図
  6
CONTINUOUS
 62
     2
100
AcDbVertex
100
AcDb2dVertex
 10
839.5652216961842
 20
1135.487459902909
 30
0.0
  0
VERTEX
  5
461
330
42F
100
AcDbEntity
  8
図
  6
CONTINUOUS
 62
     2
100
AcDbVertex
100
AcDb2dVertex
 10
839.3750648690349
 20
1135.235041386048
 30
0.0
  0
VERTEX
  5
462
330
42F
100
AcDbEntity
  8
図
  6
CONTINUOUS
 62
     2
100
AcDbVertex
100
AcDb2dVertex
 10
839.1853607234782
 20
1134.982112268071
 30
0.0
  0
VERTEX
  5
463
330
42F
100
AcDbEntity
  8
図
  6
CONTINUOUS
 62
     2
100
AcDbVertex
100
AcDb2dVertex
 10
838.9961956101613
 20
1134.728786348625
 30
0.0
  0
VERTEX
  5
464
330
42F
100
AcDbEntity
  8
図
  6
CONTINUOUS
 62
     2
100
AcDbVertex
100
AcDb2dVertex
 10
838.8076558797303
 20
1134.475177427361
 30
0.0
  0
VERTEX
  5
465
330
42F
100
AcDbEntity
  8
図
  6
CONTINUOUS
 62
     2
100
AcDbVertex
100
AcDb2dVertex
 10
838.619827882832
 20
1134.221399303926
 30
0.0
  0
VERTEX
  5
466
330
42F
100
AcDbEntity
  8
図
  6
CONTINUOUS
 62
     2
100
AcDbVertex
100
AcDb2dVertex
 10
838.432797970113
 20
1133.967565777969
 30
0.0
  0
VERTEX
  5
467
330
42F
100
AcDbEntity
  8
図
  6
CONTINUOUS
 62
     2
100
AcDbVertex
100
AcDb2dVertex
 10
838.2466524922199
 20
1133.71379064914
 30
0.0
  0
VERTEX
  5
468
330
42F
100
AcDbEntity
  8
図
  6
CONTINUOUS
 62
     2
100
AcDbVertex
100
AcDb2dVertex
 10
838.0605041684986
 20
1133.458846894915
 30
0.0
  0
VERTEX
  5
469
330
42F
100
AcDbEntity
  8
図
  6
CONTINUOUS
 62
     2
100
AcDbVertex
100
AcDb2dVertex
 10
837.875205306245
 20
1133.203866220907
 30
0.0
  0
VERTEX
  5
46A
330
42F
100
AcDbEntity
  8
図
  6
CONTINUOUS
 62
     2
100
AcDbVertex
100
AcDb2dVertex
 10
837.6906247028339
 20
1132.948637758302
 30
0.0
  0
VERTEX
  5
46B
330
42F
100
AcDbEntity
  8
図
  6
CONTINUOUS
 62
     2
100
AcDbVertex
100
AcDb2dVertex
 10
837.5066311556405
 20
1132.692950638282
 30
0.0
  0
VERTEX
  5
46C
330
42F
100
AcDbEntity
  8
図
  6
CONTINUOUS
 62
     2
100
AcDbVertex
100
AcDb2dVertex
 10
837.3230934620394
 20
1132.436593992034
 30
0.0
  0
VERTEX
  5
46D
330
42F
100
AcDbEntity
  8
図
  6
CONTINUOUS
 62
     2
100
AcDbVertex
100
AcDb2dVertex
 10
837.1398804194059
 20
1132.17935695074
 30
0.0
  0
VERTEX
  5
46E
330
42F
100
AcDbEntity
  8
図
  6
CONTINUOUS
 62
     2
100
AcDbVertex
100
AcDb2dVertex
 10
836.9568608251147
 20
1131.921028645585
 30
0.0
  0
VERTEX
  5
46F
330
42F
100
AcDbEntity
  8
図
  6
CONTINUOUS
 62
     2
100
AcDbVertex
100
AcDb2dVertex
 10
836.7739034765405
 20
1131.661398207753
 30
0.0
  0
VERTEX
  5
470
330
42F
100
AcDbEntity
  8
図
  6
CONTINUOUS
 62
     2
100
AcDbVertex
100
AcDb2dVertex
 10
836.5908771710583
 20
1131.400254768429
 30
0.0
  0
VERTEX
  5
471
330
42F
100
AcDbEntity
  8
図
  6
CONTINUOUS
 62
     2
100
AcDbVertex
100
AcDb2dVertex
 10
836.4076507060433
 20
1131.137387458797
 30
0.0
  0
VERTEX
  5
472
330
42F
100
AcDbEntity
  8
図
  6
CONTINUOUS
 62
     2
100
AcDbVertex
100
AcDb2dVertex
 10
836.2240928788702
 20
1130.87258541004
 30
0.0
  0
VERTEX
  5
473
330
42F
100
AcDbEntity
  8
図
  6
CONTINUOUS
 62
     2
100
AcDbVertex
100
AcDb2dVertex
 10
836.0394462445798
 20
1130.604747076367
 30
0.0
  0
VERTEX
  5
474
330
42F
100
AcDbEntity
  8
図
  6
CONTINUOUS
 62
     2
100
AcDbVertex
100
AcDb2dVertex
 10
835.8547749702033
 20
1130.335490264758
 30
0.0
  0
VERTEX
  5
475
330
42F
100
AcDbEntity
  8
図
  6
CONTINUOUS
 62
     2
100
AcDbVertex
100
AcDb2dVertex
 10
835.6705206116221
 20
1130.065558948477
 30
0.0
  0
VERTEX
  5
476
330
42F
100
AcDbEntity
  8
図
  6
CONTINUOUS
 62
     2
100
AcDbVertex
100
AcDb2dVertex
 10
835.4871247247178
 20
1129.795697100784
 30
0.0
  0
VERTEX
  5
477
330
42F
100
AcDbEntity
  8
図
  6
CONTINUOUS
 62
     2
100
AcDbVertex
100
AcDb2dVertex
 10
835.3050288653716
 20
1129.526648694943
 30
0.0
  0
VERTEX
  5
478
330
42F
100
AcDbEntity
  8
図
  6
CONTINUOUS
 62
     2
100
AcDbVertex
100
AcDb2dVertex
 10
835.1246745894653
 20
1129.259157704217
 30
0.0
  0
VERTEX
  5
479
330
42F
100
AcDbEntity
  8
図
  6
CONTINUOUS
 62
     2
100
AcDbVertex
100
AcDb2dVertex
 10
834.9465034528799
 20
1128.993968101867
 30
0.0
  0
VERTEX
  5
47A
330
42F
100
AcDbEntity
  8
図
  6
CONTINUOUS
 62
     2
100
AcDbVertex
100
AcDb2dVertex
 10
834.7709570114976
 20
1128.731823861156
 30
0.0
  0
VERTEX
  5
47B
330
42F
100
AcDbEntity
  8
図
  6
CONTINUOUS
 62
     2
100
AcDbVertex
100
AcDb2dVertex
 10
834.5984768211989
 20
1128.473468955346
 30
0.0
  0
VERTEX
  5
47C
330
42F
100
AcDbEntity
  8
図
  6
CONTINUOUS
 62
     2
100
AcDbVertex
100
AcDb2dVertex
 10
834.4295044378661
 20
1128.2196473577
 30
0.0
  0
VERTEX
  5
47D
330
42F
100
AcDbEntity
  8
図
  6
CONTINUOUS
 62
     2
100
AcDbVertex
100
AcDb2dVertex
 10
834.2644814173802
 20
1127.97110304148
 30
0.0
  0
VERTEX
  5
47E
330
42F
100
AcDbEntity
  8
図
  6
CONTINUOUS
 62
     2
100
AcDbVertex
100
AcDb2dVertex
 10
834.1030651018891
 20
1127.727333781505
 30
0.0
  0
VERTEX
  5
47F
330
42F
100
AcDbEntity
  8
図
  6
CONTINUOUS
 62
     2
100
AcDbVertex
100
AcDb2dVertex
 10
833.944425279954
 20
1127.486854387121
 30
0.0
  0
VERTEX
  5
480
330
42F
100
AcDbEntity
  8
図
  6
CONTINUOUS
 62
     2
100
AcDbVertex
100
AcDb2dVertex
 10
833.786923253239
 20
1127.24690018351
 30
0.0
  0
VERTEX
  5
481
330
42F
100
AcDbEntity
  8
図
  6
CONTINUOUS
 62
     2
100
AcDbVertex
100
AcDb2dVertex
 10
833.6289203234091
 20
1127.004706495852
 30
0.0
  0
VERTEX
  5
482
330
42F
100
AcDbEntity
  8
図
  6
CONTINUOUS
 62
     2
100
AcDbVertex
100
AcDb2dVertex
 10
833.4687777921285
 20
1126.757508649329
 30
0.0
  0
VERTEX
  5
483
330
42F
100
AcDbEntity
  8
図
  6
CONTINUOUS
 62
     2
100
AcDbVertex
100
AcDb2dVertex
 10
833.304856961062
 20
1126.502541969122
 30
0.0
  0
VERTEX
  5
484
330
42F
100
AcDbEntity
  8
図
  6
CONTINUOUS
 62
     2
100
AcDbVertex
100
AcDb2dVertex
 10
833.135519131874
 20
1126.237041780414
 30
0.0
  0
VERTEX
  5
485
330
42F
100
AcDbEntity
  8
図
  6
CONTINUOUS
 62
     2
100
AcDbVertex
100
AcDb2dVertex
 10
832.9591256062295
 20
1125.958243408385
 30
0.0
  0
VERTEX
  5
486
330
42F
100
AcDbEntity
  8
図
  6
CONTINUOUS
 62
     2
100
AcDbVertex
100
AcDb2dVertex
 10
832.7740376857926
 20
1125.663382178217
 30
0.0
  0
VERTEX
  5
487
330
42F
100
AcDbEntity
  8
図
  6
CONTINUOUS
 62
     2
100
AcDbVertex
100
AcDb2dVertex
 10
832.5786166722277
 20
1125.349693415092
 30
0.0
  0
VERTEX
  5
488
330
42F
100
AcDbEntity
  8
図
  6
CONTINUOUS
 62
     2
100
AcDbVertex
100
AcDb2dVertex
 10
832.3712238672
 20
1125.01441244419
 30
0.0
  0
VERTEX
  5
489
330
42F
100
AcDbEntity
  8
図
  6
CONTINUOUS
 62
     2
100
AcDbVertex
100
AcDb2dVertex
 10
832.1678359770133
 20
1124.683584124648
 30
0.0
  0
VERTEX
  5
48A
330
42F
100
AcDbEntity
  8
図
  6
CONTINUOUS
 62
     2
100
AcDbVertex
100
AcDb2dVertex
 10
831.9581464957605
 20
1124.340929272937
 30
0.0
  0
VERTEX
  5
48B
330
42F
100
AcDbEntity
  8
図
  6
CONTINUOUS
 62
     2
100
AcDbVertex
100
AcDb2dVertex
 10
831.7475645457769
 20
1123.995578462449
 30
0.0
  0
VERTEX
  5
48C
330
42F
100
AcDbEntity
  8
図
  6
CONTINUOUS
 62
     2
100
AcDbVertex
100
AcDb2dVertex
 10
831.5414992493979
 20
1123.656662266574
 30
0.0
  0
VERTEX
  5
48D
330
42F
100
AcDbEntity
  8
図
  6
CONTINUOUS
 62
     2
100
AcDbVertex
100
AcDb2dVertex
 10
831.3453597289589
 20
1123.333311258702
 30
0.0
  0
VERTEX
  5
48E
330
42F
100
AcDbEntity
  8
図
  6
CONTINUOUS
 62
     2
100
AcDbVertex
100
AcDb2dVertex
 10
831.1645551067954
 20
1123.034656012226
 30
0.0
  0
VERTEX
  5
48F
330
42F
100
AcDbEntity
  8
図
  6
CONTINUOUS
 62
     2
100
AcDbVertex
100
AcDb2dVertex
 10
831.004494505243
 20
1122.769827100536
 30
0.0
  0
VERTEX
  5
490
330
42F
100
AcDbEntity
  8
図
  6
CONTINUOUS
 62
     2
100
AcDbVertex
100
AcDb2dVertex
 10
830.8705870466368
 20
1122.547955097022
 30
0.0
  0
VERTEX
  5
491
330
42F
100
AcDbEntity
  8
図
  6
CONTINUOUS
 62
     2
100
AcDbVertex
100
AcDb2dVertex
 10
830.7682418533122
 20
1122.378170575076
 30
0.0
  0
VERTEX
  5
492
330
42F
100
AcDbEntity
  8
図
  6
CONTINUOUS
 62
     2
100
AcDbVertex
100
AcDb2dVertex
 10
830.702868047605
 20
1122.269604108088
 30
0.0
  0
VERTEX
  5
493
330
42F
100
AcDbEntity
  8
図
  6
CONTINUOUS
 62
     2
100
AcDbVertex
100
AcDb2dVertex
 10
830.6798747518502
 20
1122.23138626945
 30
0.0
  0
SEQEND
  5
494
330
42F
100
AcDbEntity
  8
図
  6
CONTINUOUS
 62
     2
  0
POLYLINE
  5
495
330
1F
100
AcDbEntity
  8
図
  6
CONTINUOUS
 62
     2
100
AcDb2dPolyline
 66
     1
 10
0.0
 20
0.0
 30
0.0
 70
   128
  0
VERTEX
  5
496
330
495
100
AcDbEntity
  8
図
  6
CONTINUOUS
 62
     2
100
AcDbVertex
100
AcDb2dVertex
 10
844.9760796577801
 20
1113.29943799966
 30
0.0
  0
VERTEX
  5
497
330
495
100
AcDbEntity
  8
図
  6
CONTINUOUS
 62
     2
100
AcDbVertex
100
AcDb2dVertex
 10
844.9997033553515
 20
1113.325022654386
 30
0.0
  0
VERTEX
  5
498
330
495
100
AcDbEntity
  8
図
  6
CONTINUOUS
 62
     2
100
AcDbVertex
100
AcDb2dVertex
 10
845.0670374343647
 20
1113.397925620426
 30
0.0
  0
VERTEX
  5
499
330
495
100
AcDbEntity
  8
図
  6
CONTINUOUS
 62
     2
100
AcDbVertex
100
AcDb2dVertex
 10
845.1727763742691
 20
1113.51237040057
 30
0.0
  0
VERTEX
  5
49A
330
495
100
AcDbEntity
  8
図
  6
CONTINUOUS
 62
     2
100
AcDbVertex
100
AcDb2dVertex
 10
845.3116146545135
 20
1113.662580497607
 30
0.0
  0
VERTEX
  5
49B
330
495
100
AcDbEntity
  8
図
  6
CONTINUOUS
 62
     2
100
AcDbVertex
100
AcDb2dVertex
 10
845.478246754547
 20
1113.842779414329
 30
0.0
  0
VERTEX
  5
49C
330
495
100
AcDbEntity
  8
図
  6
CONTINUOUS
 62
     2
100
AcDbVertex
100
AcDb2dVertex
 10
845.667367153819
 20
1114.047190653524
 30
0.0
  0
VERTEX
  5
49D
330
495
100
AcDbEntity
  8
図
  6
CONTINUOUS
 62
     2
100
AcDbVertex
100
AcDb2dVertex
 10
845.8736703317783
 20
1114.270037717985
 30
0.0
  0
VERTEX
  5
49E
330
495
100
AcDbEntity
  8
図
  6
CONTINUOUS
 62
     2
100
AcDbVertex
100
AcDb2dVertex
 10
846.0918507678739
 20
1114.505544110501
 30
0.0
  0
VERTEX
  5
49F
330
495
100
AcDbEntity
  8
図
  6
CONTINUOUS
 62
     2
100
AcDbVertex
100
AcDb2dVertex
 10
846.316602941555
 20
1114.747933333862
 30
0.0
  0
VERTEX
  5
4A0
330
495
100
AcDbEntity
  8
図
  6
CONTINUOUS
 62
     2
100
AcDbVertex
100
AcDb2dVertex
 10
846.5426213322708
 20
1114.991428890858
 30
0.0
  0
VERTEX
  5
4A1
330
495
100
AcDbEntity
  8
図
  6
CONTINUOUS
 62
     2
100
AcDbVertex
100
AcDb2dVertex
 10
846.7646004194701
 20
1115.23025428428
 30
0.0
  0
VERTEX
  5
4A2
330
495
100
AcDbEntity
  8
図
  6
CONTINUOUS
 62
     2
100
AcDbVertex
100
AcDb2dVertex
 10
847.161067384555
 20
1115.655759545429
 30
0.0
  0
VERTEX
  5
4A3
330
495
100
AcDbEntity
  8
図
  6
CONTINUOUS
 62
     2
100
AcDbVertex
100
AcDb2dVertex
 10
847.5282572298404
 20
1116.048369063409
 30
0.0
  0
VERTEX
  5
4A4
330
495
100
AcDbEntity
  8
図
  6
CONTINUOUS
 62
     2
100
AcDbVertex
100
AcDb2dVertex
 10
847.8702893148715
 20
1116.412521312213
 30
0.0
  0
VERTEX
  5
4A5
330
495
100
AcDbEntity
  8
図
  6
CONTINUOUS
 62
     2
100
AcDbVertex
100
AcDb2dVertex
 10
848.1912829991932
 20
1116.752654765836
 30
0.0
  0
VERTEX
  5
4A6
330
495
100
AcDbEntity
  8
図
  6
CONTINUOUS
 62
     2
100
AcDbVertex
100
AcDb2dVertex
 10
848.4953576423507
 20
1117.073207898274
 30
0.0
  0
VERTEX
  5
4A7
330
495
100
AcDbEntity
  8
図
  6
CONTINUOUS
 62
     2
100
AcDbVertex
100
AcDb2dVertex
 10
848.7866326038886
 20
1117.378619183519
 30
0.0
  0
VERTEX
  5
4A8
330
495
100
AcDbEntity
  8
図
  6
CONTINUOUS
 62
     2
100
AcDbVertex
100
AcDb2dVertex
 10
849.0692272433528
 20
1117.673327095568
 30
0.0
  0
VERTEX
  5
4A9
330
495
100
AcDbEntity
  8
図
  6
CONTINUOUS
 62
     2
100
AcDbVertex
100
AcDb2dVertex
 10
849.3472609202879
 20
1117.961770108413
 30
0.0
  0
VERTEX
  5
4AA
330
495
100
AcDbEntity
  8
図
  6
CONTINUOUS
 62
     2
100
AcDbVertex
100
AcDb2dVertex
 10
849.6248529942392
 20
1118.248386696051
 30
0.0
  0
VERTEX
  5
4AB
330
495
100
AcDbEntity
  8
図
  6
CONTINUOUS
 62
     2
100
AcDbVertex
100
AcDb2dVertex
 10
849.9061228247514
 20
1118.537615332475
 30
0.0
  0
VERTEX
  5
4AC
330
495
100
AcDbEntity
  8
図
  6
CONTINUOUS
 62
     2
100
AcDbVertex
100
AcDb2dVertex
 10
850.1951897713702
 20
1118.83389449168
 30
0.0
  0
VERTEX
  5
4AD
330
495
100
AcDbEntity
  8
図
  6
CONTINUOUS
 62
     2
100
AcDbVertex
100
AcDb2dVertex
 10
850.492790891049
 20
1119.138173195888
 30
0.0
  0
VERTEX
  5
4AE
330
495
100
AcDbEntity
  8
図
  6
CONTINUOUS
 62
     2
100
AcDbVertex
100
AcDb2dVertex
 10
850.8000780167042
 20
1119.451693960676
 30
0.0
  0
VERTEX
  5
4AF
330
495
100
AcDbEntity
  8
図
  6
CONTINUOUS
 62
     2
100
AcDbVertex
100
AcDb2dVertex
 10
851.1150032240697
 20
1119.772385846823
 30
0.0
  0
VERTEX
  5
4B0
330
495
100
AcDbEntity
  8
図
  6
CONTINUOUS
 62
     2
100
AcDbVertex
100
AcDb2dVertex
 10
851.4355185888809
 20
1120.098177915104
 30
0.0
  0
VERTEX
  5
4B1
330
495
100
AcDbEntity
  8
図
  6
CONTINUOUS
 62
     2
100
AcDbVertex
100
AcDb2dVertex
 10
851.7595761868722
 20
1120.426999226296
 30
0.0
  0
VERTEX
  5
4B2
330
495
100
AcDbEntity
  8
図
  6
CONTINUOUS
 62
     2
100
AcDbVertex
100
AcDb2dVertex
 10
852.0851280937785
 20
1120.756778841178
 30
0.0
  0
VERTEX
  5
4B3
330
495
100
AcDbEntity
  8
図
  6
CONTINUOUS
 62
     2
100
AcDbVertex
100
AcDb2dVertex
 10
852.4101263853345
 20
1121.085445820525
 30
0.0
  0
VERTEX
  5
4B4
330
495
100
AcDbEntity
  8
図
  6
CONTINUOUS
 62
     2
100
AcDbVertex
100
AcDb2dVertex
 10
852.7325231372749
 20
1121.410929225115
 30
0.0
  0
VERTEX
  5
4B5
330
495
100
AcDbEntity
  8
図
  6
CONTINUOUS
 62
     2
100
AcDbVertex
100
AcDb2dVertex
 10
853.0502704253346
 20
1121.731158115724
 30
0.0
  0
VERTEX
  5
4B6
330
495
100
AcDbEntity
  8
図
  6
CONTINUOUS
 62
     2
100
AcDbVertex
100
AcDb2dVertex
 10
853.361320325248
 20
1122.04406155313
 30
0.0
  0
VERTEX
  5
4B7
330
495
100
AcDbEntity
  8
図
  6
CONTINUOUS
 62
     2
100
AcDbVertex
100
AcDb2dVertex
 10
853.6636249127503
 20
1122.34756859811
 30
0.0
  0
VERTEX
  5
4B8
330
495
100
AcDbEntity
  8
図
  6
CONTINUOUS
 62
     2
100
AcDbVertex
100
AcDb2dVertex
 10
853.9537977299161
 20
1122.638232946867
 30
0.0
  0
VERTEX
  5
4B9
330
495
100
AcDbEntity
  8
図
  6
CONTINUOUS
 62
     2
100
AcDbVertex
100
AcDb2dVertex
 10
854.2374244219608
 20
1122.921453901361
 30
0.0
  0
VERTEX
  5
4BA
330
495
100
AcDbEntity
  8
図
  6
CONTINUOUS
 62
     2
100
AcDbVertex
100
AcDb2dVertex
 10
854.5185751512181
 20
1123.201067398336
 30
0.0
  0
VERTEX
  5
4BB
330
495
100
AcDbEntity
  8
図
  6
CONTINUOUS
 62
     2
100
AcDbVertex
100
AcDb2dVertex
 10
854.8013200800219
 20
1123.480909374539
 30
0.0
  0
VERTEX
  5
4BC
330
495
100
AcDbEntity
  8
図
  6
CONTINUOUS
 62
     2
100
AcDbVertex
100
AcDb2dVertex
 10
855.0897293707062
 20
1123.764815766715
 30
0.0
  0
VERTEX
  5
4BD
330
495
100
AcDbEntity
  8
図
  6
CONTINUOUS
 62
     2
100
AcDbVertex
100
AcDb2dVertex
 10
855.3878731856048
 20
1124.056622511608
 30
0.0
  0
VERTEX
  5
4BE
330
495
100
AcDbEntity
  8
図
  6
CONTINUOUS
 62
     2
100
AcDbVertex
100
AcDb2dVertex
 10
855.6998216870521
 20
1124.360165545966
 30
0.0
  0
VERTEX
  5
4BF
330
495
100
AcDbEntity
  8
図
  6
CONTINUOUS
 62
     2
100
AcDbVertex
100
AcDb2dVertex
 10
856.029645037381
 20
1124.679280806532
 30
0.0
  0
VERTEX
  5
4C0
330
495
100
AcDbEntity
  8
図
  6
CONTINUOUS
 62
     2
100
AcDbVertex
100
AcDb2dVertex
 10
856.3814133989264
 20
1125.017804230054
 30
0.0
  0
VERTEX
  5
4C1
330
495
100
AcDbEntity
  8
図
  6
CONTINUOUS
 62
     2
100
AcDbVertex
100
AcDb2dVertex
 10
856.7591969340214
 20
1125.379571753274
 30
0.0
  0
VERTEX
  5
4C2
330
495
100
AcDbEntity
  8
図
  6
CONTINUOUS
 62
     2
100
AcDbVertex
100
AcDb2dVertex
 10
857.1670658050002
 20
1125.76841931294
 30
0.0
  0
VERTEX
  5
4C3
330
495
100
AcDbEntity
  8
図
  6
CONTINUOUS
 62
     2
100
AcDbVertex
100
AcDb2dVertex
 10
857.448041252818
 20
1126.035438914336
 30
0.0
  0
VERTEX
  5
4C4
330
495
100
AcDbEntity
  8
図
  6
CONTINUOUS
 62
     2
100
AcDbVertex
100
AcDb2dVertex
 10
857.7362115046622
 20
1126.308760526642
 30
0.0
  0
VERTEX
  5
4C5
330
495
100
AcDbEntity
  8
図
  6
CONTINUOUS
 62
     2
100
AcDbVertex
100
AcDb2dVertex
 10
858.0244222951799
 20
1126.581698048534
 30
0.0
  0
VERTEX
  5
4C6
330
495
100
AcDbEntity
  8
図
  6
CONTINUOUS
 62
     2
100
AcDbVertex
100
AcDb2dVertex
 10
858.3055193590176
 20
1126.84756537869
 30
0.0
  0
VERTEX
  5
4C7
330
495
100
AcDbEntity
  8
図
  6
CONTINUOUS
 62
     2
100
AcDbVertex
100
AcDb2dVertex
 10
858.5723484308226
 20
1127.099676415785
 30
0.0
  0
VERTEX
  5
4C8
330
495
100
AcDbEntity
  8
図
  6
CONTINUOUS
 62
     2
100
AcDbVertex
100
AcDb2dVertex
 10
858.8177552452414
 20
1127.331345058497
 30
0.0
  0
VERTEX
  5
4C9
330
495
100
AcDbEntity
  8
図
  6
CONTINUOUS
 62
     2
100
AcDbVertex
100
AcDb2dVertex
 10
859.0345855369214
 20
1127.535885205502
 30
0.0
  0
VERTEX
  5
4CA
330
495
100
AcDbEntity
  8
図
  6
CONTINUOUS
 62
     2
100
AcDbVertex
100
AcDb2dVertex
 10
859.2156850405095
 20
1127.706610755476
 30
0.0
  0
VERTEX
  5
4CB
330
495
100
AcDbEntity
  8
図
  6
CONTINUOUS
 62
     2
100
AcDbVertex
100
AcDb2dVertex
 10
859.3538994906522
 20
1127.836835607096
 30
0.0
  0
VERTEX
  5
4CC
330
495
100
AcDbEntity
  8
図
  6
CONTINUOUS
 62
     2
100
AcDbVertex
100
AcDb2dVertex
 10
859.4420746219968
 20
1127.919873659039
 30
0.0
  0
VERTEX
  5
4CD
330
495
100
AcDbEntity
  8
図
  6
CONTINUOUS
 62
     2
100
AcDbVertex
100
AcDb2dVertex
 10
859.4730561691902
 20
1127.94903880998
 30
0.0
  0
SEQEND
  5
4CE
330
495
100
AcDbEntity
  8
図
  6
CONTINUOUS
 62
     2
  0
ARC
  5
4CF
330
1F
100
AcDbEntity
  8
図
  6
CONTINUOUS
 62
     2
100
AcDbCircle
 10
844.2884112887401
 20
1113.93048738395
 30
0.0
 40
0.93333333333342
100
AcDbArc
 50
240.0026882665502
 51
317.45847734079
  0
LINE
  5
4D0
330
1F
100
AcDbEntity
  8
図
  6
CONTINUOUS
 62
     2
100
AcDbLine
 10
833.2623212812302
 20
1119.21802234729
 30
0.0
 11
843.8217825468702
 21
1113.12217511233
 31
0.0
  0
ARC
  5
4D1
330
1F
100
AcDbEntity
  8
図
  6
CONTINUOUS
 62
     2
100
AcDbCircle
 10
831.4828725282101
 20
1121.75567030138
 30
0.0
 40
0.93333333333332
100
AcDbArc
 50
149.35643873333
 51
232.40603480444
  0
LINE
  5
4D2
330
1F
100
AcDbEntity
  8
図
  6
CONTINUOUS
 62
     2
100
AcDbLine
 10
830.9134815981101
 20
1121.01613999113
 30
0.0
 11
833.1595590928902
 21
1119.28680430865
 31
0.0
  0
ARC
  5
4D3
330
1F
100
AcDbEntity
  8
図
  6
CONTINUOUS
 62
     2
100
AcDbCircle
 10
833.7289500230702
 20
1120.02633461894
 30
0.0
 40
0.93333333333332
100
AcDbArc
 50
232.4060348086501
 51
240.00268826927
  0
POLYLINE
  5
4D4
330
1F
100
AcDbEntity
  8
図
  6
CONTINUOUS
 62
     2
100
AcDb2dPolyline
 66
     1
 10
0.0
 20
0.0
 30
0.0
 70
   128
  0
VERTEX
  5
4D5
330
4D4
100
AcDbEntity
  8
図
  6
CONTINUOUS
 62
     2
100
AcDbVertex
100
AcDb2dVertex
 10
858.9569121834601
 20
1139.38035062572
 30
0.0
  0
VERTEX
  5
4D6
330
4D4
100
AcDbEntity
  8
図
  6
CONTINUOUS
 62
     2
100
AcDbVertex
100
AcDb2dVertex
 10
859.0025651363601
 20
1139.35399573699
 30
0.0
  0
VERTEX
  5
4D7
330
4D4
100
AcDbEntity
  8
図
  6
CONTINUOUS
 62
     2
100
AcDbVertex
100
AcDb2dVertex
 10
859.0473298657702
 20
1139.32224789913
 30
0.0
  0
VERTEX
  5
4D8
330
4D4
100
AcDbEntity
  8
図
  6
CONTINUOUS
 62
     2
100
AcDbVertex
100
AcDb2dVertex
 10
859.1351735206803
 20
1139.24851667489
 30
0.0
  0
VERTEX
  5
4D9
330
4D4
100
AcDbEntity
  8
図
  6
CONTINUOUS
 62
     2
100
AcDbVertex
100
AcDb2dVertex
 10
859.1786671241802
 20
1139.20596951846
 30
0.0
  0
VERTEX
  5
4DA
330
4D4
100
AcDbEntity
  8
図
  6
CONTINUOUS
 62
     2
100
AcDbVertex
100
AcDb2dVertex
 10
859.3010112397401
 20
1139.06847009708
 30
0.0
  0
VERTEX
  5
4DB
330
4D4
100
AcDbEntity
  8
図
  6
CONTINUOUS
 62
     2
100
AcDbVertex
100
AcDb2dVertex
 10
859.3743818124001
 20
1138.96078427183
 30
0.0
  0
VERTEX
  5
4DC
330
4D4
100
AcDbEntity
  8
図
  6
CONTINUOUS
 62
     2
100
AcDbVertex
100
AcDb2dVertex
 10
859.4634588759701
 20
1138.7919413585
 30
0.0
  0
VERTEX
  5
4DD
330
4D4
100
AcDbEntity
  8
図
  6
CONTINUOUS
 62
     2
100
AcDbVertex
100
AcDb2dVertex
 10
859.4901740642001
 20
1138.73352367843
 30
0.0
  0
VERTEX
  5
4DE
330
4D4
100
AcDbEntity
  8
図
  6
CONTINUOUS
 62
     2
100
AcDbVertex
100
AcDb2dVertex
 10
859.5358421006501
 20
1138.61700806418
 30
0.0
  0
VERTEX
  5
4DF
330
4D4
100
AcDbEntity
  8
図
  6
CONTINUOUS
 62
     2
100
AcDbVertex
100
AcDb2dVertex
 10
859.5548933261201
 20
1138.5589091578
 30
0.0
  0
VERTEX
  5
4E0
330
4D4
100
AcDbEntity
  8
図
  6
CONTINUOUS
 62
     2
100
AcDbVertex
100
AcDb2dVertex
 10
859.5857423890801
 20
1138.4430160323
 30
0.0
  0
VERTEX
  5
4E1
330
4D4
100
AcDbEntity
  8
図
  6
CONTINUOUS
 62
     2
100
AcDbVertex
100
AcDb2dVertex
 10
859.5974845112901
 20
1138.38509553008
 30
0.0
  0
VERTEX
  5
4E2
330
4D4
100
AcDbEntity
  8
図
  6
CONTINUOUS
 62
     2
100
AcDbVertex
100
AcDb2dVertex
 10
859.6129721476101
 20
1138.27346557125
 30
0.0
  0
VERTEX
  5
4E3
330
4D4
100
AcDbEntity
  8
図
  6
CONTINUOUS
 62
     2
100
AcDbVertex
100
AcDb2dVertex
 10
859.6168785125701
 20
1138.2192439478
 30
0.0
  0
VERTEX
  5
4E4
330
4D4
100
AcDbEntity
  8
図
  6
CONTINUOUS
 62
     2
100
AcDbVertex
100
AcDb2dVertex
 10
859.6168785125701
 20
1138.16664429327
 30
0.0
  0
SEQEND
  5
4E5
330
4D4
100
AcDbEntity
  8
図
  6
CONTINUOUS
 62
     2
  0
LINE
  5
4E6
330
1F
100
AcDbEntity
  8
図
  6
CONTINUOUS
 62
     2
100
AcDbLine
 10
858.9569121834901
 20
1139.38035062569
 30
0.0
 11
848.3974509177102
 21
1145.47619786065
 31
0.0
  0
LINE
  5
4E7
330
1F
100
AcDbEntity
  8
図
  6
CONTINUOUS
 62
     2
100
AcDbLine
 10
859.6168785126101
 20
1128.36558843565
 30
0.0
 11
859.6168785126101
 21
1138.16664429325
 31
0.0
  0
POLYLINE
  5
4E8
330
1F
100
AcDbEntity
  8
図
  6
CONTINUOUS
 62
     2
100
AcDb2dPolyline
 66
     1
 10
0.0
 20
0.0
 30
0.0
 70
   128
  0
VERTEX
  5
4E9
330
4E8
100
AcDbEntity
  8
図
  6
CONTINUOUS
 62
     2
100
AcDbVertex
100
AcDb2dVertex
 10
847.8730503601801
 20
1145.44582047957
 30
0.0
  0
VERTEX
  5
4EA
330
4E8
100
AcDbEntity
  8
図
  6
CONTINUOUS
 62
     2
100
AcDbVertex
100
AcDb2dVertex
 10
847.873489654798
 20
1145.446355919463
 30
0.0
  0
VERTEX
  5
4EB
330
4E8
100
AcDbEntity
  8
図
  6
CONTINUOUS
 62
     2
100
AcDbVertex
100
AcDb2dVertex
 10
847.874747079151
 20
1145.447876786812
 30
0.0
  0
VERTEX
  5
4EC
330
4E8
100
AcDbEntity
  8
図
  6
CONTINUOUS
 62
     2
100
AcDbVertex
100
AcDb2dVertex
 10
847.8767319439871
 20
1145.450254903124
 30
0.0
  0
VERTEX
  5
4ED
330
4E8
100
AcDbEntity
  8
図
  6
CONTINUOUS
 62
     2
100
AcDbVertex
100
AcDb2dVertex
 10
847.8793535600548
 20
1145.453362089904
 30
0.0
  0
VERTEX
  5
4EE
330
4E8
100
AcDbEntity
  8
図
  6
CONTINUOUS
 62
     2
100
AcDbVertex
100
AcDb2dVertex
 10
847.8825212381024
 20
1145.457070168657
 30
0.0
  0
VERTEX
  5
4EF
330
4E8
100
AcDbEntity
  8
図
  6
CONTINUOUS
 62
     2
100
AcDbVertex
100
AcDb2dVertex
 10
847.8861442888781
 20
1145.461250960889
 30
0.0
  0
VERTEX
  5
4F0
330
4E8
100
AcDbEntity
  8
図
  6
CONTINUOUS
 62
     2
100
AcDbVertex
100
AcDb2dVertex
 10
847.8901320231303
 20
1145.465776288106
 30
0.0
  0
VERTEX
  5
4F1
330
4E8
100
AcDbEntity
  8
図
  6
CONTINUOUS
 62
     2
100
AcDbVertex
100
AcDb2dVertex
 10
847.8943937516074
 20
1145.470517971814
 30
0.0
  0
VERTEX
  5
4F2
330
4E8
100
AcDbEntity
  8
図
  6
CONTINUOUS
 62
     2
100
AcDbVertex
100
AcDb2dVertex
 10
847.8988387850573
 20
1145.475347833519
 30
0.0
  0
VERTEX
  5
4F3
330
4E8
100
AcDbEntity
  8
図
  6
CONTINUOUS
 62
     2
100
AcDbVertex
100
AcDb2dVertex
 10
847.9033764342289
 20
1145.480137694726
 30
0.0
  0
VERTEX
  5
4F4
330
4E8
100
AcDbEntity
  8
図
  6
CONTINUOUS
 62
     2
100
AcDbVertex
100
AcDb2dVertex
 10
847.90791600987
 20
1145.48475937694
 30
0.0
  0
VERTEX
  5
4F5
330
4E8
100
AcDbEntity
  8
図
  6
CONTINUOUS
 62
     2
100
AcDbVertex
100
AcDb2dVertex
 10
847.9163649960509
 20
1145.492809480818
 30
0.0
  0
VERTEX
  5
4F6
330
4E8
100
AcDbEntity
  8
図
  6
CONTINUOUS
 62
     2
100
AcDbVertex
100
AcDb2dVertex
 10
847.9245395635867
 20
1145.499878907551
 30
0.0
  0
VERTEX
  5
4F7
330
4E8
100
AcDbEntity
  8
図
  6
CONTINUOUS
 62
     2
100
AcDbVertex
100
AcDb2dVertex
 10
847.932488182441
 20
1145.506065027056
 30
0.0
  0
VERTEX
  5
4F8
330
4E8
100
AcDbEntity
  8
図
  6
CONTINUOUS
 62
     2
100
AcDbVertex
100
AcDb2dVertex
 10
847.9402593225772
 20
1145.511465209251
 30
0.0
  0
VERTEX
  5
4F9
330
4E8
100
AcDbEntity
  8
図
  6
CONTINUOUS
 62
     2
100
AcDbVertex
100
AcDb2dVertex
 10
847.9479014539584
 20
1145.516176824054
 30
0.0
  0
VERTEX
  5
4FA
330
4E8
100
AcDbEntity
  8
図
  6
CONTINUOUS
 62
     2
100
AcDbVertex
100
AcDb2dVertex
 10
847.9554630465483
 20
1145.520297241382
 30
0.0
  0
VERTEX
  5
4FB
330
4E8
100
AcDbEntity
  8
図
  6
CONTINUOUS
 62
     2
100
AcDbVertex
100
AcDb2dVertex
 10
847.9629925703107
 20
1145.523923831153
 30
0.0
  0
VERTEX
  5
4FC
330
4E8
100
AcDbEntity
  8
図
  6
CONTINUOUS
 62
     2
100
AcDbVertex
100
AcDb2dVertex
 10
847.9705384952085
 20
1145.527153963284
 30
0.0
  0
VERTEX
  5
4FD
330
4E8
100
AcDbEntity
  8
図
  6
CONTINUOUS
 62
     2
100
AcDbVertex
100
AcDb2dVertex
 10
847.9781492912053
 20
1145.530085007694
 30
0.0
  0
VERTEX
  5
4FE
330
4E8
100
AcDbEntity
  8
図
  6
CONTINUOUS
 62
     2
100
AcDbVertex
100
AcDb2dVertex
 10
847.9858734282644
 20
1145.5328143343
 30
0.0
  0
VERTEX
  5
4FF
330
4E8
100
AcDbEntity
  8
図
  6
CONTINUOUS
 62
     2
100
AcDbVertex
100
AcDb2dVertex
 10
847.9937593763501
 20
1145.53543931302
 30
0.0
  0
VERTEX
  5
500
330
4E8
100
AcDbEntity
  8
図
  6
CONTINUOUS
 62
     2
100
AcDbVertex
100
AcDb2dVertex
 10
848.0023961706258
 20
1145.538210630938
 30
0.0
  0
VERTEX
  5
501
330
4E8
100
AcDbEntity
  8
図
  6
CONTINUOUS
 62
     2
100
AcDbVertex
100
AcDb2dVertex
 10
848.0112529256867
 20
1145.540942139572
 30
0.0
  0
VERTEX
  5
502
330
4E8
100
AcDbEntity
  8
図
  6
CONTINUOUS
 62
     2
100
AcDbVertex
100
AcDb2dVertex
 10
848.0203100638932
 20
1145.543601978485
 30
0.0
  0
VERTEX
  5
503
330
4E8
100
AcDbEntity
  8
図
  6
CONTINUOUS
 62
     2
100
AcDbVertex
100
AcDb2dVertex
 10
848.0295480076063
 20
1145.546158287241
 30
0.0
  0
VERTEX
  5
504
330
4E8
100
AcDbEntity
  8
図
  6
CONTINUOUS
 62
     2
100
AcDbVertex
100
AcDb2dVertex
 10
848.038947179187
 20
1145.548579205402
 30
0.0
  0
VERTEX
  5
505
330
4E8
100
AcDbEntity
  8
図
  6
CONTINUOUS
 62
     2
100
AcDbVertex
100
AcDb2dVertex
 10
848.0484880009961
 20
1145.550832872534
 30
0.0
  0
VERTEX
  5
506
330
4E8
100
AcDbEntity
  8
図
  6
CONTINUOUS
 62
     2
100
AcDbVertex
100
AcDb2dVertex
 10
848.0581508953948
 20
1145.552887428199
 30
0.0
  0
VERTEX
  5
507
330
4E8
100
AcDbEntity
  8
図
  6
CONTINUOUS
 62
     2
100
AcDbVertex
100
AcDb2dVertex
 10
848.0679162847434
 20
1145.55471101196
 30
0.0
  0
VERTEX
  5
508
330
4E8
100
AcDbEntity
  8
図
  6
CONTINUOUS
 62
     2
100
AcDbVertex
100
AcDb2dVertex
 10
848.0777645914034
 20
1145.556271763382
 30
0.0
  0
VERTEX
  5
509
330
4E8
100
AcDbEntity
  8
図
  6
CONTINUOUS
 62
     2
100
AcDbVertex
100
AcDb2dVertex
 10
848.0876762377355
 20
1145.557537822027
 30
0.0
  0
VERTEX
  5
50A
330
4E8
100
AcDbEntity
  8
図
  6
CONTINUOUS
 62
     2
100
AcDbVertex
100
AcDb2dVertex
 10
848.0976316461002
 20
1145.55847732746
 30
0.0
  0
VERTEX
  5
50B
330
4E8
100
AcDbEntity
  8
図
  6
CONTINUOUS
 62
     2
100
AcDbVertex
100
AcDb2dVertex
 10
848.107186596684
 20
1145.559050281666
 30
0.0
  0
VERTEX
  5
50C
330
4E8
100
AcDbEntity
  8
図
  6
CONTINUOUS
 62
     2
100
AcDbVertex
100
AcDb2dVertex
 10
848.1167426360881
 20
1145.559319610915
 30
0.0
  0
VERTEX
  5
50D
330
4E8
100
AcDbEntity
  8
図
  6
CONTINUOUS
 62
     2
100
AcDbVertex
100
AcDb2dVertex
 10
848.1262786790031
 20
1145.559310311708
 30
0.0
  0
VERTEX
  5
50E
330
4E8
100
AcDbEntity
  8
図
  6
CONTINUOUS
 62
     2
100
AcDbVertex
100
AcDb2dVertex
 10
848.1357736401199
 20
1145.55904738055
 30
0.0
  0
VERTEX
  5
50F
330
4E8
100
AcDbEntity
  8
図
  6
CONTINUOUS
 62
     2
100
AcDbVertex
100
AcDb2dVertex
 10
848.1452064341283
 20
1145.558555813943
 30
0.0
  0
VERTEX
  5
510
330
4E8
100
AcDbEntity
  8
図
  6
CONTINUOUS
 62
     2
100
AcDbVertex
100
AcDb2dVertex
 10
848.1545559757194
 20
1145.557860608389
 30
0.0
  0
VERTEX
  5
511
330
4E8
100
AcDbEntity
  8
図
  6
CONTINUOUS
 62
     2
100
AcDbVertex
100
AcDb2dVertex
 10
848.1638011795834
 20
1145.556986760391
 30
0.0
  0
VERTEX
  5
512
330
4E8
100
AcDbEntity
  8
図
  6
CONTINUOUS
 62
     2
100
AcDbVertex
100
AcDb2dVertex
 10
848.1729209604109
 20
1145.555959266451
 30
0.0
  0
VERTEX
  5
513
330
4E8
100
AcDbEntity
  8
図
  6
CONTINUOUS
 62
     2
100
AcDbVertex
100
AcDb2dVertex
 10
848.1818942328925
 20
1145.554803123073
 30
0.0
  0
VERTEX
  5
514
330
4E8
100
AcDbEntity
  8
図
  6
CONTINUOUS
 62
     2
100
AcDbVertex
100
AcDb2dVertex
 10
848.1906999117189
 20
1145.553543326758
 30
0.0
  0
VERTEX
  5
515
330
4E8
100
AcDbEntity
  8
図
  6
CONTINUOUS
 62
     2
100
AcDbVertex
100
AcDb2dVertex
 10
848.1993169115801
 20
1145.55220487401
 30
0.0
  0
VERTEX
  5
516
330
4E8
100
AcDbEntity
  8
図
  6
CONTINUOUS
 62
     2
100
AcDbVertex
100
AcDb2dVertex
 10
848.2089550948712
 20
1145.550591177513
 30
0.0
  0
VERTEX
  5
517
330
4E8
100
AcDbEntity
  8
図
  6
CONTINUOUS
 62
     2
100
AcDbVertex
100
AcDb2dVertex
 10
848.2184133439617
 20
1145.54885367786
 30
0.0
  0
VERTEX
  5
518
330
4E8
100
AcDbEntity
  8
図
  6
CONTINUOUS
 62
     2
100
AcDbVertex
100
AcDb2dVertex
 10
848.2277872739832
 20
1145.546939060343
 30
0.0
  0
VERTEX
  5
519
330
4E8
100
AcDbEntity
  8
図
  6
CONTINUOUS
 62
     2
100
AcDbVertex
100
AcDb2dVertex
 10
848.237172500066
 20
1145.544794010254
 30
0.0
  0
VERTEX
  5
51A
330
4E8
100
AcDbEntity
  8
図
  6
CONTINUOUS
 62
     2
100
AcDbVertex
100
AcDb2dVertex
 10
848.2466646373417
 20
1145.542365212887
 30
0.0
  0
VERTEX
  5
51B
330
4E8
100
AcDbEntity
  8
図
  6
CONTINUOUS
 62
     2
100
AcDbVertex
100
AcDb2dVertex
 10
848.2563593009413
 20
1145.539599353531
 30
0.0
  0
VERTEX
  5
51C
330
4E8
100
AcDbEntity
  8
図
  6
CONTINUOUS
 62
     2
100
AcDbVertex
100
AcDb2dVertex
 10
848.2663521059956
 20
1145.53644311748
 30
0.0
  0
VERTEX
  5
51D
330
4E8
100
AcDbEntity
  8
図
  6
CONTINUOUS
 62
     2
100
AcDbVertex
100
AcDb2dVertex
 10
848.2767386676354
 20
1145.532843190025
 30
0.0
  0
VERTEX
  5
51E
330
4E8
100
AcDbEntity
  8
図
  6
CONTINUOUS
 62
     2
100
AcDbVertex
100
AcDb2dVertex
 10
848.287614600992
 20
1145.528746256459
 30
0.0
  0
VERTEX
  5
51F
330
4E8
100
AcDbEntity
  8
図
  6
CONTINUOUS
 62
     2
100
AcDbVertex
100
AcDb2dVertex
 10
848.2990755211968
 20
1145.524099002073
 30
0.0
  0
VERTEX
  5
520
330
4E8
100
AcDbEntity
  8
図
  6
CONTINUOUS
 62
     2
100
AcDbVertex
100
AcDb2dVertex
 10
848.3112170433801
 20
1145.51884811216
 30
0.0
  0
VERTEX
  5
521
330
4E8
100
AcDbEntity
  8
図
  6
CONTINUOUS
 62
     2
100
AcDbVertex
100
AcDb2dVertex
 10
848.3217462766497
 20
1145.514061724394
 30
0.0
  0
VERTEX
  5
522
330
4E8
100
AcDbEntity
  8
図
  6
CONTINUOUS
 62
     2
100
AcDbVertex
100
AcDb2dVertex
 10
848.3325362076293
 20
1145.508986325105
 30
0.0
  0
VERTEX
  5
523
330
4E8
100
AcDbEntity
  8
図
  6
CONTINUOUS
 62
     2
100
AcDbVertex
100
AcDb2dVertex
 10
848.3433206177399
 20
1145.503778857609
 30
0.0
  0
VERTEX
  5
524
330
4E8
100
AcDbEntity
  8
図
  6
CONTINUOUS
 62
     2
100
AcDbVertex
100
AcDb2dVertex
 10
848.3538332884004
 20
1145.498596265229
 30
0.0
  0
VERTEX
  5
525
330
4E8
100
AcDbEntity
  8
図
  6
CONTINUOUS
 62
     2
100
AcDbVertex
100
AcDb2dVertex
 10
848.3638080010321
 20
1145.493595491283
 30
0.0
  0
VERTEX
  5
526
330
4E8
100
AcDbEntity
  8
図
  6
CONTINUOUS
 62
     2
100
AcDbVertex
100
AcDb2dVertex
 10
848.3729785370549
 20
1145.488933479093
 30
0.0
  0
VERTEX
  5
527
330
4E8
100
AcDbEntity
  8
図
  6
CONTINUOUS
 62
     2
100
AcDbVertex
100
AcDb2dVertex
 10
848.3810786778888
 20
1145.484767171977
 30
0.0
  0
VERTEX
  5
528
330
4E8
100
AcDbEntity
  8
図
  6
CONTINUOUS
 62
     2
100
AcDbVertex
100
AcDb2dVertex
 10
848.387842204954
 20
1145.481253513256
 30
0.0
  0
VERTEX
  5
529
330
4E8
100
AcDbEntity
  8
図
  6
CONTINUOUS
 62
     2
100
AcDbVertex
100
AcDb2dVertex
 10
848.3930028996709
 20
1145.478549446249
 30
0.0
  0
VERTEX
  5
52A
330
4E8
100
AcDbEntity
  8
図
  6
CONTINUOUS
 62
     2
100
AcDbVertex
100
AcDb2dVertex
 10
848.3962945434595
 20
1145.476811914277
 30
0.0
  0
VERTEX
  5
52B
330
4E8
100
AcDbEntity
  8
図
  6
CONTINUOUS
 62
     2
100
AcDbVertex
100
AcDb2dVertex
 10
848.3974509177401
 20
1145.47619786066
 30
0.0
  0
SEQEND
  5
52C
330
4E8
100
AcDbEntity
  8
図
  6
CONTINUOUS
 62
     2
  0
POLYLINE
  5
52D
330
1F
100
AcDbEntity
  8
図
  6
CONTINUOUS
 62
     2
100
AcDb2dPolyline
 66
     1
 10
0.0
 20
0.0
 30
0.0
 70
   128
  0
VERTEX
  5
52E
330
52D
100
AcDbEntity
  8
図
  6
CONTINUOUS
 62
     2
100
AcDbVertex
100
AcDb2dVertex
 10
859.6168785125701
 20
1128.36558843562
 30
0.0
  0
VERTEX
  5
52F
330
52D
100
AcDbEntity
  8
図
  6
CONTINUOUS
 62
     2
100
AcDbVertex
100
AcDb2dVertex
 10
859.6167028796102
 20
1128.363713921819
 30
0.0
  0
VERTEX
  5
530
330
52D
100
AcDbEntity
  8
図
  6
CONTINUOUS
 62
     2
100
AcDbVertex
100
AcDb2dVertex
 10
859.6162047478243
 20
1128.358401836649
 30
0.0
  0
VERTEX
  5
531
330
52D
100
AcDbEntity
  8
図
  6
CONTINUOUS
 62
     2
100
AcDbVertex
100
AcDb2dVertex
 10
859.6154272678529
 20
1128.350119364461
 30
0.0
  0
VERTEX
  5
532
330
52D
100
AcDbEntity
  8
図
  6
CONTINUOUS
 62
     2
100
AcDbVertex
100
AcDb2dVertex
 10
859.6144135903357
 20
1128.339333689603
 30
0.0
  0
VERTEX
  5
533
330
52D
100
AcDbEntity
  8
図
  6
CONTINUOUS
 62
     2
100
AcDbVertex
100
AcDb2dVertex
 10
859.6132068659138
 20
1128.326511996427
 30
0.0
  0
VERTEX
  5
534
330
52D
100
AcDbEntity
  8
図
  6
CONTINUOUS
 62
     2
100
AcDbVertex
100
AcDb2dVertex
 10
859.6118502452273
 20
1128.312121469281
 30
0.0
  0
VERTEX
  5
535
330
52D
100
AcDbEntity
  8
図
  6
CONTINUOUS
 62
     2
100
AcDbVertex
100
AcDb2dVertex
 10
859.6103868789169
 20
1128.296629292516
 30
0.0
  0
VERTEX
  5
536
330
52D
100
AcDbEntity
  8
図
  6
CONTINUOUS
 62
     2
100
AcDbVertex
100
AcDb2dVertex
 10
859.6088599176223
 20
1128.280502650481
 30
0.0
  0
VERTEX
  5
537
330
52D
100
AcDbEntity
  8
図
  6
CONTINUOUS
 62
     2
100
AcDbVertex
100
AcDb2dVertex
 10
859.6073125119847
 20
1128.264208727528
 30
0.0
  0
VERTEX
  5
538
330
52D
100
AcDbEntity
  8
図
  6
CONTINUOUS
 62
     2
100
AcDbVertex
100
AcDb2dVertex
 10
859.6057878126437
 20
1128.248214708004
 30
0.0
  0
VERTEX
  5
539
330
52D
100
AcDbEntity
  8
図
  6
CONTINUOUS
 62
     2
100
AcDbVertex
100
AcDb2dVertex
 10
859.6043289702402
 20
1128.23298777626
 30
0.0
  0
VERTEX
  5
53A
330
52D
100
AcDbEntity
  8
図
  6
CONTINUOUS
 62
     2
100
AcDbVertex
100
AcDb2dVertex
 10
859.6030767063119
 20
1128.220121295657
 30
0.0
  0
VERTEX
  5
53B
330
52D
100
AcDbEntity
  8
図
  6
CONTINUOUS
 62
     2
100
AcDbVertex
100
AcDb2dVertex
 10
859.6018296305057
 20
1128.208127137612
 30
0.0
  0
VERTEX
  5
53C
330
52D
100
AcDbEntity
  8
図
  6
CONTINUOUS
 62
     2
100
AcDbVertex
100
AcDb2dVertex
 10
859.6005028495772
 20
1128.196857650454
 30
0.0
  0
VERTEX
  5
53D
330
52D
100
AcDbEntity
  8
図
  6
CONTINUOUS
 62
     2
100
AcDbVertex
100
AcDb2dVertex
 10
859.599011470282
 20
1128.186165182512
 30
0.0
  0
VERTEX
  5
53E
330
52D
100
AcDbEntity
  8
図
  6
CONTINUOUS
 62
     2
100
AcDbVertex
100
AcDb2dVertex
 10
859.5972705993754
 20
1128.175902082115
 30
0.0
  0
VERTEX
  5
53F
330
52D
100
AcDbEntity
  8
図
  6
CONTINUOUS
 62
     2
100
AcDbVertex
100
AcDb2dVertex
 10
859.5951953436138
 20
1128.165920697592
 30
0.0
  0
VERTEX
  5
540
330
52D
100
AcDbEntity
  8
図
  6
CONTINUOUS
 62
     2
100
AcDbVertex
100
AcDb2dVertex
 10
859.5927008097522
 20
1128.156073377274
 30
0.0
  0
VERTEX
  5
541
330
52D
100
AcDbEntity
  8
図
  6
CONTINUOUS
 62
     2
100
AcDbVertex
100
AcDb2dVertex
 10
859.5897021045464
 20
1128.146212469488
 30
0.0
  0
VERTEX
  5
542
330
52D
100
AcDbEntity
  8
図
  6
CONTINUOUS
 62
     2
100
AcDbVertex
100
AcDb2dVertex
 10
859.586114334752
 20
1128.136190322565
 30
0.0
  0
VERTEX
  5
543
330
52D
100
AcDbEntity
  8
図
  6
CONTINUOUS
 62
     2
100
AcDbVertex
100
AcDb2dVertex
 10
859.5818526071248
 20
1128.125859284832
 30
0.0
  0
VERTEX
  5
544
330
52D
100
AcDbEntity
  8
図
  6
CONTINUOUS
 62
     2
100
AcDbVertex
100
AcDb2dVertex
 10
859.5768320284201
 20
1128.11507170462
 30
0.0
  0
VERTEX
  5
545
330
52D
100
AcDbEntity
  8
図
  6
CONTINUOUS
 62
     2
100
AcDbVertex
100
AcDb2dVertex
 10
859.5671015208859
 20
1128.096592282044
 30
0.0
  0
VERTEX
  5
546
330
52D
100
AcDbEntity
  8
図
  6
CONTINUOUS
 62
     2
100
AcDbVertex
100
AcDb2dVertex
 10
859.5557299504843
 20
1128.077128514972
 30
0.0
  0
VERTEX
  5
547
330
52D
100
AcDbEntity
  8
図
  6
CONTINUOUS
 62
     2
100
AcDbVertex
100
AcDb2dVertex
 10
859.5432583540241
 20
1128.057258631626
 30
0.0
  0
VERTEX
  5
548
330
52D
100
AcDbEntity
  8
図
  6
CONTINUOUS
 62
     2
100
AcDbVertex
100
AcDb2dVertex
 10
859.5302277683143
 20
1128.03756086023
 30
0.0
  0
VERTEX
  5
549
330
52D
100
AcDbEntity
  8
図
  6
CONTINUOUS
 62
     2
100
AcDbVertex
100
AcDb2dVertex
 10
859.5171792301637
 20
1128.018613429006
 30
0.0
  0
VERTEX
  5
54A
330
52D
100
AcDbEntity
  8
図
  6
CONTINUOUS
 62
     2
100
AcDbVertex
100
AcDb2dVertex
 10
859.5046537763812
 20
1128.000994566179
 30
0.0
  0
VERTEX
  5
54B
330
52D
100
AcDbEntity
  8
図
  6
CONTINUOUS
 62
     2
100
AcDbVertex
100
AcDb2dVertex
 10
859.4931924437756
 20
1127.985282499971
 30
0.0
  0
VERTEX
  5
54C
330
52D
100
AcDbEntity
  8
図
  6
CONTINUOUS
 62
     2
100
AcDbVertex
100
AcDb2dVertex
 10
859.4833362691559
 20
1127.972055458606
 30
0.0
  0
VERTEX
  5
54D
330
52D
100
AcDbEntity
  8
図
  6
CONTINUOUS
 62
     2
100
AcDbVertex
100
AcDb2dVertex
 10
859.4756262893308
 20
1127.961891670307
 30
0.0
  0
VERTEX
  5
54E
330
52D
100
AcDbEntity
  8
図
  6
CONTINUOUS
 62
     2
100
AcDbVertex
100
AcDb2dVertex
 10
859.4706035411094
 20
1127.955369363297
 30
0.0
  0
VERTEX
  5
54F
330
52D
100
AcDbEntity
  8
図
  6
CONTINUOUS
 62
     2
100
AcDbVertex
100
AcDb2dVertex
 10
859.4688090613001
 20
1127.9530667658
 30
0.0
  0
SEQEND
  5
550
330
52D
100
AcDbEntity
  8
図
  6
CONTINUOUS
 62
     2
  0
ARC
  5
551
330
1F
100
AcDbEntity
  8
図
  6
CONTINUOUS
 62
     4
100
AcDbCircle
 10
829.3553227644101
 20
1121.48882080155
 30
0.0
 40
137.75077576007
100
AcDbArc
 50
137.6054988413
 51
149.4641266926
  0
ARC
  5
552
330
1F
100
AcDbEntity
  8
図
  6
CONTINUOUS
 62
     4
100
AcDbCircle
 10
829.4415912955702
 20
1121.45754507805
 30
0.0
 40
139.14191409751
100
AcDbArc
 50
137.4340710351
 51
149.4686113698
  0
ARC
  5
553
330
1F
100
AcDbEntity
  8
図
  6
CONTINUOUS
 62
     4
100
AcDbCircle
 10
909.6224498035301
 20
1009.81045868007
 30
0.0
 40
266.55654838245
100
AcDbArc
 50
133.0610766986
 51
136.0432227891
  0
LINE
  5
554
330
1F
100
AcDbEntity
  8
図
  6
CONTINUOUS
 62
     4
100
AcDbLine
 10
714.4362304596101
 20
1191.34915851361
 30
0.0
 11
712.9551117963902
 21
1189.74758736859
 31
0.0
  0
ARC
  5
555
330
1F
100
AcDbEntity
  8
図
  6
CONTINUOUS
 62
     4
100
AcDbCircle
 10
709.9100279508101
 20
1191.90229961569
 30
0.0
 40
0.9051830589684401
100
AcDbArc
 50
246.42385559272
 51
331.96996830019
  0
ARC
  5
556
330
1F
100
AcDbEntity
  8
図
  6
CONTINUOUS
 62
     4
100
AcDbCircle
 10
710.2654991665
 20
1191.57954575376
 30
0.0
 40
0.87849186819861
100
AcDbArc
 50
140.09838682732
 51
215.23846939169
  0
LINE
  5
557
330
1F
100
AcDbEntity
  8
図
  6
CONTINUOUS
 62
     4
100
AcDbLine
 10
709.5479841797701
 20
1191.07267278507
 30
0.0
 11
711.7940616745501
 21
1189.34333710245
 31
0.0
  0
ARC
  5
558
330
1F
100
AcDbEntity
  8
図
  6
CONTINUOUS
 62
     4
100
AcDbCircle
 10
712.1561054456001
 20
1190.17296393309
 30
0.0
 40
0.9051830589683701
100
AcDbArc
 50
246.42385559262
 51
331.9699682987101
  0
LINE
  5
559
330
1F
100
AcDbEntity
  8
図
  6
CONTINUOUS
 62
     4
100
AcDbLine
 10
698.9885229139901
 20
1197.16852002003
 30
0.0
 11
709.5479841797701
 21
1191.07267278507
 31
0.0
  0
LINE
  5
55A
330
1F
100
AcDbEntity
  8
図
  6
CONTINUOUS
 62
     4
100
AcDbLine
 10
711.7940616745501
 20
1189.34333710245
 30
0.0
 11
701.23460040891
 21
1195.43918433741
 31
0.0
  0
LINE
  5
55B
330
1F
100
AcDbEntity
  8
図
  6
CONTINUOUS
 62
     4
100
AcDbLine
 10
701.23460040891
 20
1195.43918433741
 30
0.0
 11
698.9885229139901
 21
1197.16852002003
 31
0.0
  0
LINE
  5
55C
330
1F
100
AcDbEntity
  8
図
  6
CONTINUOUS
 62
     4
100
AcDbLine
 10
711.8285167253902
 20
1189.32026554919
 30
0.0
 11
711.7940616745501
 21
1189.34333710245
 31
0.0
  0
LINE
  5
55D
330
1F
100
AcDbEntity
  8
図
  6
CONTINUOUS
 62
     4
100
AcDbLine
 10
701.23460040891
 20
1195.43918433741
 30
0.0
 11
701.2690554597501
 21
1195.41611278415
 31
0.0
  0
LINE
  5
55E
330
1F
100
AcDbEntity
  8
図
  6
CONTINUOUS
 62
     4
100
AcDbLine
 10
701.23460040891
 20
1195.43918433741
 30
0.0
 11
701.16629327141
 21
1195.48489474537
 31
0.0
  0
ARC
  5
55F
330
1F
100
AcDbEntity
  8
図
  6
CONTINUOUS
 62
     4
100
AcDbCircle
 10
818.8821300297901
 20
1127.55339231301
 30
0.0
 40
139.14191409753
100
AcDbArc
 50
137.4340710351
 51
149.4686113698
  0
ARC
  5
560
330
1F
100
AcDbEntity
  8
図
  6
CONTINUOUS
 62
     4
100
AcDbCircle
 10
699.7060379007002
 20
1197.67539298875
 30
0.0
 40
0.87849186819882
100
AcDbArc
 50
140.0983868280501
 51
215.23846939446
  0
LINE
  5
561
330
1F
100
AcDbEntity
  8
図
  6
CONTINUOUS
 62
     4
100
AcDbLine
 10
698.9885229139901
 20
1197.16852002003
 30
0.0
 11
698.9202157766301
 21
1197.21423042799
 31
0.0
  0
ARC
  5
562
330
1F
100
AcDbEntity
  8
図
  6
CONTINUOUS
 62
     4
100
AcDbCircle
 10
961.3485885858901
 20
1045.29073036469
 30
0.0
 40
137.75077576008
100
AcDbArc
 50
137.6054988413
 51
149.4641266926
  0
ARC
  5
563
330
1F
100
AcDbEntity
  8
図
  6
CONTINUOUS
 62
     4
100
AcDbCircle
 10
961.4348571170501
 20
1045.25945464133
 30
0.0
 40
139.14191409751
100
AcDbArc
 50
137.4340710351
 51
149.4686113698
  0
ARC
  5
564
330
1F
100
AcDbEntity
  8
図
  6
CONTINUOUS
 62
     4
100
AcDbCircle
 10
950.8753958512701
 20
1051.35530187616
 30
0.0
 40
139.14191409753
100
AcDbArc
 50
137.4340710351
 51
149.4686113698
  0
ARC
  5
565
330
1F
100
AcDbEntity
  8
図
  6
CONTINUOUS
 62
     4
100
AcDbCircle
 10
1044.48266077209
 20
930.67211207709
 30
0.0
 40
270.66227673085
100
AcDbArc
 50
133.0795198457
 51
137.4940847176
  0
ARC
  5
566
330
1F
100
AcDbEntity
  8
図
  6
CONTINUOUS
 62
     4
100
AcDbCircle
 10
842.2587649879802
 20
1115.3814553169
 30
0.0
 40
0.8784918681986
100
AcDbArc
 50
140.0983868274701
 51
215.2384693922801
  0
ARC
  5
567
330
1F
100
AcDbEntity
  8
図
  6
CONTINUOUS
 62
     4
100
AcDbCircle
 10
841.9032937723001
 20
1115.70420917886
 30
0.0
 40
0.9051830589683901
100
AcDbArc
 50
246.42385559257
 51
331.9699682977901
  0
ARC
  5
568
330
1F
100
AcDbEntity
  8
図
  6
CONTINUOUS
 62
     4
100
AcDbCircle
 10
844.1493712670701
 20
1113.97487349635
 30
0.0
 40
0.90518305896849
100
AcDbArc
 50
246.42385559274
 51
331.9699683001701
  0
LINE
  5
569
330
1F
100
AcDbEntity
  8
図
  6
CONTINUOUS
 62
     4
100
AcDbLine
 10
841.5412500012502
 20
1114.87458234821
 30
0.0
 11
830.9817887354701
 21
1120.97042958317
 31
0.0
  0
ARC
  5
56A
330
1F
100
AcDbEntity
  8
図
  6
CONTINUOUS
 62
     4
100
AcDbCircle
 10
831.6993037221903
 20
1121.47730255187
 30
0.0
 40
0.87849186819861
100
AcDbArc
 50
140.0983868277
 51
215.23846939326
  0
LINE
  5
56B
330
1F
100
AcDbEntity
  8
図
  6
CONTINUOUS
 62
     4
100
AcDbLine
 10
833.2278662303901
 20
1119.24109390055
 30
0.0
 11
843.7873274960301
 21
1113.14524666559
 31
0.0
  0
LINE
  5
56C
330
1F
100
AcDbEntity
  8
図
  6
CONTINUOUS
 62
     4
100
AcDbLine
 10
830.9817887354701
 20
1120.97042958317
 30
0.0
 11
833.2278662303901
 21
1119.24109390055
 31
0.0
  0
LINE
  5
56D
330
1F
100
AcDbEntity
  8
図
  6
CONTINUOUS
 62
     4
100
AcDbLine
 10
843.7873274960301
 20
1113.14524666559
 30
0.0
 11
843.8217825468702
 21
1113.12217511233
 31
0.0
  0
LINE
  5
56E
330
1F
100
AcDbEntity
  8
図
  6
CONTINUOUS
 62
     4
100
AcDbLine
 10
833.2623212812302
 20
1119.21802234729
 30
0.0
 11
833.2278662303901
 21
1119.24109390055
 31
0.0
  0
LINE
  5
56F
330
1F
100
AcDbEntity
  8
図
  6
CONTINUOUS
 62
     4
100
AcDbLine
 10
830.9134815981101
 20
1121.01613999113
 30
0.0
 11
830.9817887354701
 21
1120.97042958317
 31
0.0
  0
LINE
  5
570
330
1F
100
AcDbEntity
  8
図
  6
CONTINUOUS
 62
     4
100
AcDbLine
 10
833.1595590928902
 20
1119.28680430865
 30
0.0
 11
833.2278662303901
 21
1119.24109390055
 31
0.0
  0
LINE
  5
571
330
1F
100
AcDbEntity
  8
図
  6
EXLTYPE3
 62
     6
100
AcDbLine
 10
623.4769128767598
 20
769.49999999998
 30
0.0
 11
244.84649952815
 21
769.49999999998
 31
0.0
  0
LINE
  5
572
330
1F
100
AcDbEntity
  8
図
  6
EXLTYPE3
 62
     6
100
AcDbLine
 10
243.5000000000001
 20
844.0729374284501
 30
0.0
 11
243.5000000000001
 21
806.60641357329
 31
0.0
  0
LINE
  5
573
330
1F
100
AcDbEntity
  8
図
  6
EXLTYPE3
 62
     6
100
AcDbLine
 10
223.5000000000001
 20
844.0729374284501
 30
0.0
 11
223.5000000000001
 21
806.60641357329
 31
0.0
  0
LINE
  5
574
330
1F
100
AcDbEntity
  8
図
  6
EXLTYPE3
 62
     6
100
AcDbLine
 10
233.5000000000001
 20
750.05775371228
 30
0.0
 11
233.5000000000001
 21
844.3974317386201
 31
0.0
  0
LINE
  5
575
330
1F
100
AcDbEntity
  8
図
  6
EXLTYPE3
 62
     6
100
AcDbLine
 10
633.5
 20
750.05775371228
 30
0.0
 11
633.5
 21
844.3974317386102
 31
0.0
  0
LINE
  5
576
330
1F
100
AcDbEntity
  8
図
  6
EXLTYPE3
 62
     6
100
AcDbLine
 10
623.5
 20
844.0729374284501
 30
0.0
 11
623.5
 21
806.60641357329
 31
0.0
  0
LINE
  5
577
330
1F
100
AcDbEntity
  8
図
  6
EXLTYPE3
 62
     6
100
AcDbLine
 10
643.5
 20
844.0729374284501
 30
0.0
 11
643.5
 21
806.60641357329
 31
0.0
  0
LINE
  5
578
330
1F
100
AcDbEntity
  8
図
  6
CONTINUOUS
 62
     6
100
AcDbLine
 10
225.5000000000028
 20
809.4999999999919
 30
0.0
 11
225.500000000003
 21
831.2940518310292
 31
0.0
  0
LINE
  5
579
330
1F
100
AcDbEntity
  8
図
  6
CONTINUOUS
 62
     6
100
AcDbLine
 10
225.2594130271553
 20
832.2450858997594
 30
0.0
 11
223.500000000003
 21
835.4999999999917
 31
0.0
  0
LINE
  5
57A
330
1F
100
AcDbEntity
  8
図
  6
CONTINUOUS
 62
     6
100
AcDbLine
 10
221.500000000003
 20
809.4999999999919
 30
0.0
 11
221.500000000003
 21
831.2940518310292
 31
0.0
  0
LINE
  5
57B
330
1F
100
AcDbEntity
  8
図
  6
CONTINUOUS
 62
     6
100
AcDbLine
 10
221.7405869728507
 20
832.2450858997594
 30
0.0
 11
223.500000000003
 21
835.4999999999917
 31
0.0
  0
ARC
  5
57C
330
1F
100
AcDbEntity
  8
図
  6
CONTINUOUS
 62
     6
100
AcDbCircle
 10
223.500000000003
 20
831.2940518310292
 30
0.0
 40
2.0
100
AcDbArc
 50
151.6069805786228
 51
180.0000000000002
  0
ARC
  5
57D
330
1F
100
AcDbEntity
  8
図
  6
CONTINUOUS
 62
     6
100
AcDbCircle
 10
223.500000000003
 20
831.2940518310292
 30
0.0
 40
2.0
100
AcDbArc
 50
0.0000000000001719
 51
28.3930194213758
  0
LINE
  5
57E
330
1F
100
AcDbEntity
  8
図
  6
CONTINUOUS
 62
     6
100
AcDbLine
 10
245.5000000000028
 20
809.4999999999919
 30
0.0
 11
245.500000000003
 21
831.2940518310292
 31
0.0
  0
LINE
  5
57F
330
1F
100
AcDbEntity
  8
図
  6
CONTINUOUS
 62
     6
100
AcDbLine
 10
245.2594130271553
 20
832.2450858997594
 30
0.0
 11
243.500000000003
 21
835.4999999999917
 31
0.0
  0
LINE
  5
580
330
1F
100
AcDbEntity
  8
図
  6
CONTINUOUS
 62
     6
100
AcDbLine
 10
241.500000000003
 20
809.4999999999919
 30
0.0
 11
241.500000000003
 21
831.2940518310292
 31
0.0
  0
LINE
  5
581
330
1F
100
AcDbEntity
  8
図
  6
CONTINUOUS
 62
     6
100
AcDbLine
 10
241.7405869728507
 20
832.2450858997594
 30
0.0
 11
243.500000000003
 21
835.4999999999917
 31
0.0
  0
ARC
  5
582
330
1F
100
AcDbEntity
  8
図
  6
CONTINUOUS
 62
     6
100
AcDbCircle
 10
243.500000000003
 20
831.2940518310292
 30
0.0
 40
2.0
100
AcDbArc
 50
151.6069805786228
 51
180.0000000000002
  0
ARC
  5
583
330
1F
100
AcDbEntity
  8
図
  6
CONTINUOUS
 62
     6
100
AcDbCircle
 10
243.500000000003
 20
831.2940518310292
 30
0.0
 40
2.0
100
AcDbArc
 50
0.0000000000001719
 51
28.3930194213758
  0
LINE
  5
584
330
1F
100
AcDbEntity
  8
図
  6
CONTINUOUS
 62
     6
100
AcDbLine
 10
625.5000000000027
 20
809.4999999999919
 30
0.0
 11
625.500000000003
 21
831.2940518310292
 31
0.0
  0
LINE
  5
585
330
1F
100
AcDbEntity
  8
図
  6
CONTINUOUS
 62
     6
100
AcDbLine
 10
625.2594130271552
 20
832.2450858997594
 30
0.0
 11
623.500000000003
 21
835.4999999999917
 31
0.0
  0
LINE
  5
586
330
1F
100
AcDbEntity
  8
図
  6
CONTINUOUS
 62
     6
100
AcDbLine
 10
621.500000000003
 20
809.4999999999919
 30
0.0
 11
621.500000000003
 21
831.2940518310292
 31
0.0
  0
LINE
  5
587
330
1F
100
AcDbEntity
  8
図
  6
CONTINUOUS
 62
     6
100
AcDbLine
 10
621.7405869728507
 20
832.2450858997594
 30
0.0
 11
623.500000000003
 21
835.4999999999917
 31
0.0
  0
ARC
  5
588
330
1F
100
AcDbEntity
  8
図
  6
CONTINUOUS
 62
     6
100
AcDbCircle
 10
623.500000000003
 20
831.2940518310292
 30
0.0
 40
2.0
100
AcDbArc
 50
151.6069805786228
 51
180.0000000000002
  0
ARC
  5
589
330
1F
100
AcDbEntity
  8
図
  6
CONTINUOUS
 62
     6
100
AcDbCircle
 10
623.500000000003
 20
831.2940518310292
 30
0.0
 40
2.0
100
AcDbArc
 50
0.0000000000001719
 51
28.3930194213758
  0
LINE
  5
58A
330
1F
100
AcDbEntity
  8
図
  6
CONTINUOUS
 62
     6
100
AcDbLine
 10
645.5000000000027
 20
809.4999999999919
 30
0.0
 11
645.500000000003
 21
831.2940518310292
 31
0.0
  0
LINE
  5
58B
330
1F
100
AcDbEntity
  8
図
  6
CONTINUOUS
 62
     6
100
AcDbLine
 10
645.2594130271552
 20
832.2450858997594
 30
0.0
 11
643.5000000000028
 21
835.4999999999917
 31
0.0
  0
LINE
  5
58C
330
1F
100
AcDbEntity
  8
図
  6
CONTINUOUS
 62
     6
100
AcDbLine
 10
641.500000000003
 20
809.4999999999919
 30
0.0
 11
641.500000000003
 21
831.2940518310292
 31
0.0
  0
LINE
  5
58D
330
1F
100
AcDbEntity
  8
図
  6
CONTINUOUS
 62
     6
100
AcDbLine
 10
641.7405869728507
 20
832.2450858997594
 30
0.0
 11
643.5000000000028
 21
835.4999999999917
 31
0.0
  0
ARC
  5
58E
330
1F
100
AcDbEntity
  8
図
  6
CONTINUOUS
 62
     6
100
AcDbCircle
 10
643.5000000000028
 20
831.2940518310292
 30
0.0
 40
2.0
100
AcDbArc
 50
151.6069805786228
 51
180.0000000000002
  0
ARC
  5
58F
330
1F
100
AcDbEntity
  8
図
  6
CONTINUOUS
 62
     6
100
AcDbCircle
 10
643.5000000000028
 20
831.2940518310292
 30
0.0
 40
2.0
100
AcDbArc
 50
0.0000000000001719
 51
28.3930194213758
  0
LINE
  5
590
330
1F
100
AcDbEntity
  8
図
  6
CONTINUOUS
 62
     2
100
AcDbLine
 10
251.5000000000001
 20
764.49999999998
 30
0.0
 11
615.5
 21
764.49999999998
 31
0.0
  0
LINE
  5
591
330
1F
100
AcDbEntity
  8
図
  6
CONTINUOUS
 62
     2
100
AcDbLine
 10
615.5
 20
774.49999999998
 30
0.0
 11
251.5000000000001
 21
774.49999999998
 31
0.0
  0
ARC
  5
592
330
1F
100
AcDbEntity
  8
図
  6
CONTINUOUS
 62
     2
100
AcDbCircle
 10
249.5000000000001
 20
758.24108679939
 30
0.0
 40
2.0
100
AcDbArc
 50
270.0
 51
0.0
  0
LINE
  5
593
330
1F
100
AcDbEntity
  8
図
  6
CONTINUOUS
 62
     2
100
AcDbLine
 10
217.5000000000001
 20
756.2410867993899
 30
0.0
 11
249.5000000000001
 21
756.2410867993899
 31
0.0
  0
LINE
  5
594
330
1F
100
AcDbEntity
  8
図
  6
CONTINUOUS
 62
     2
100
AcDbLine
 10
251.5000000000001
 20
758.24108679939
 30
0.0
 11
251.5000000000001
 21
809.49999999999
 31
0.0
  0
POLYLINE
  5
595
330
1F
100
AcDbEntity
  8
図
  6
CONTINUOUS
 62
     2
100
AcDb2dPolyline
 66
     1
 10
0.0
 20
0.0
 30
0.0
 70
   128
  0
VERTEX
  5
596
330
595
100
AcDbEntity
  8
図
  6
CONTINUOUS
 62
     2
100
AcDbVertex
100
AcDb2dVertex
 10
251.4999999999601
 20
809.5
 30
0.0
  0
VERTEX
  5
597
330
595
100
AcDbEntity
  8
図
  6
CONTINUOUS
 62
     2
100
AcDbVertex
100
AcDb2dVertex
 10
251.4983186139746
 20
809.5
 30
0.0
  0
VERTEX
  5
598
330
595
100
AcDbEntity
  8
図
  6
CONTINUOUS
 62
     2
100
AcDbVertex
100
AcDb2dVertex
 10
251.493515206206
 20
809.5
 30
0.0
  0
VERTEX
  5
599
330
595
100
AcDbEntity
  8
図
  6
CONTINUOUS
 62
     2
100
AcDbVertex
100
AcDb2dVertex
 10
251.4859509019361
 20
809.5
 30
0.0
  0
VERTEX
  5
59A
330
595
100
AcDbEntity
  8
図
  6
CONTINUOUS
 62
     2
100
AcDbVertex
100
AcDb2dVertex
 10
251.4759868264466
 20
809.5
 30
0.0
  0
VERTEX
  5
59B
330
595
100
AcDbEntity
  8
図
  6
CONTINUOUS
 62
     2
100
AcDbVertex
100
AcDb2dVertex
 10
251.4639841050193
 20
809.5
 30
0.0
  0
VERTEX
  5
59C
330
595
100
AcDbEntity
  8
図
  6
CONTINUOUS
 62
     2
100
AcDbVertex
100
AcDb2dVertex
 10
251.4503038629359
 20
809.5
 30
0.0
  0
VERTEX
  5
59D
330
595
100
AcDbEntity
  8
図
  6
CONTINUOUS
 62
     2
100
AcDbVertex
100
AcDb2dVertex
 10
251.4353072254782
 20
809.5
 30
0.0
  0
VERTEX
  5
59E
330
595
100
AcDbEntity
  8
図
  6
CONTINUOUS
 62
     2
100
AcDbVertex
100
AcDb2dVertex
 10
251.4193553179281
 20
809.5
 30
0.0
  0
VERTEX
  5
59F
330
595
100
AcDbEntity
  8
図
  6
CONTINUOUS
 62
     2
100
AcDbVertex
100
AcDb2dVertex
 10
251.4028092655671
 20
809.5
 30
0.0
  0
VERTEX
  5
5A0
330
595
100
AcDbEntity
  8
図
  6
CONTINUOUS
 62
     2
100
AcDbVertex
100
AcDb2dVertex
 10
251.3860301936772
 20
809.5
 30
0.0
  0
VERTEX
  5
5A1
330
595
100
AcDbEntity
  8
図
  6
CONTINUOUS
 62
     2
100
AcDbVertex
100
AcDb2dVertex
 10
251.36937922754
 20
809.5000000000001
 30
0.0
  0
VERTEX
  5
5A2
330
595
100
AcDbEntity
  8
図
  6
CONTINUOUS
 62
     2
100
AcDbVertex
100
AcDb2dVertex
 10
251.3227884370347
 20
809.5
 30
0.0
  0
VERTEX
  5
5A3
330
595
100
AcDbEntity
  8
図
  6
CONTINUOUS
 62
     2
100
AcDbVertex
100
AcDb2dVertex
 10
251.279975248938
 20
809.5
 30
0.0
  0
VERTEX
  5
5A4
330
595
100
AcDbEntity
  8
図
  6
CONTINUOUS
 62
     2
100
AcDbVertex
100
AcDb2dVertex
 10
251.2404479428498
 20
809.5
 30
0.0
  0
VERTEX
  5
5A5
330
595
100
AcDbEntity
  8
図
  6
CONTINUOUS
 62
     2
100
AcDbVertex
100
AcDb2dVertex
 10
251.2037147983705
 20
809.5
 30
0.0
  0
VERTEX
  5
5A6
330
595
100
AcDbEntity
  8
図
  6
CONTINUOUS
 62
     2
100
AcDbVertex
100
AcDb2dVertex
 10
251.1692840950999
 20
809.5
 30
0.0
  0
VERTEX
  5
5A7
330
595
100
AcDbEntity
  8
図
  6
CONTINUOUS
 62
     2
100
AcDbVertex
100
AcDb2dVertex
 10
251.1366641126384
 20
809.5
 30
0.0
  0
VERTEX
  5
5A8
330
595
100
AcDbEntity
  8
図
  6
CONTINUOUS
 62
     2
100
AcDbVertex
100
AcDb2dVertex
 10
251.1053631305859
 20
809.5
 30
0.0
  0
VERTEX
  5
5A9
330
595
100
AcDbEntity
  8
図
  6
CONTINUOUS
 62
     2
100
AcDbVertex
100
AcDb2dVertex
 10
251.0748894285427
 20
809.5
 30
0.0
  0
VERTEX
  5
5AA
330
595
100
AcDbEntity
  8
図
  6
CONTINUOUS
 62
     2
100
AcDbVertex
100
AcDb2dVertex
 10
251.0447512861089
 20
809.5
 30
0.0
  0
VERTEX
  5
5AB
330
595
100
AcDbEntity
  8
図
  6
CONTINUOUS
 62
     2
100
AcDbVertex
100
AcDb2dVertex
 10
251.0144569828847
 20
809.5
 30
0.0
  0
VERTEX
  5
5AC
330
595
100
AcDbEntity
  8
図
  6
CONTINUOUS
 62
     2
100
AcDbVertex
100
AcDb2dVertex
 10
250.9835147984701
 20
809.5
 30
0.0
  0
VERTEX
  5
5AD
330
595
100
AcDbEntity
  8
図
  6
CONTINUOUS
 62
     2
100
AcDbVertex
100
AcDb2dVertex
 10
250.9354902041317
 20
809.5
 30
0.0
  0
VERTEX
  5
5AE
330
595
100
AcDbEntity
  8
図
  6
CONTINUOUS
 62
     2
100
AcDbVertex
100
AcDb2dVertex
 10
250.8853561055354
 20
809.5
 30
0.0
  0
VERTEX
  5
5AF
330
595
100
AcDbEntity
  8
図
  6
CONTINUOUS
 62
     2
100
AcDbVertex
100
AcDb2dVertex
 10
250.8335329152501
 20
809.5000000000001
 30
0.0
  0
VERTEX
  5
5B0
330
595
100
AcDbEntity
  8
図
  6
CONTINUOUS
 62
     2
100
AcDbVertex
100
AcDb2dVertex
 10
250.7804410458448
 20
809.5000000000002
 30
0.0
  0
VERTEX
  5
5B1
330
595
100
AcDbEntity
  8
図
  6
CONTINUOUS
 62
     2
100
AcDbVertex
100
AcDb2dVertex
 10
250.7265009098884
 20
809.5000000000002
 30
0.0
  0
VERTEX
  5
5B2
330
595
100
AcDbEntity
  8
図
  6
CONTINUOUS
 62
     2
100
AcDbVertex
100
AcDb2dVertex
 10
250.6721329199499
 20
809.5000000000001
 30
0.0
  0
VERTEX
  5
5B3
330
595
100
AcDbEntity
  8
図
  6
CONTINUOUS
 62
     2
100
AcDbVertex
100
AcDb2dVertex
 10
250.6177574885983
 20
809.5000000000002
 30
0.0
  0
VERTEX
  5
5B4
330
595
100
AcDbEntity
  8
図
  6
CONTINUOUS
 62
     2
100
AcDbVertex
100
AcDb2dVertex
 10
250.5637950284025
 20
809.5000000000001
 30
0.0
  0
VERTEX
  5
5B5
330
595
100
AcDbEntity
  8
図
  6
CONTINUOUS
 62
     2
100
AcDbVertex
100
AcDb2dVertex
 10
250.5106659519315
 20
809.5
 30
0.0
  0
VERTEX
  5
5B6
330
595
100
AcDbEntity
  8
図
  6
CONTINUOUS
 62
     2
100
AcDbVertex
100
AcDb2dVertex
 10
250.4587906717544
 20
809.5000000000001
 30
0.0
  0
VERTEX
  5
5B7
330
595
100
AcDbEntity
  8
図
  6
CONTINUOUS
 62
     2
100
AcDbVertex
100
AcDb2dVertex
 10
250.40858960044
 20
809.5000000000002
 30
0.0
  0
VERTEX
  5
5B8
330
595
100
AcDbEntity
  8
図
  6
CONTINUOUS
 62
     2
100
AcDbVertex
100
AcDb2dVertex
 10
250.3543509485685
 20
809.5000000000002
 30
0.0
  0
VERTEX
  5
5B9
330
595
100
AcDbEntity
  8
図
  6
CONTINUOUS
 62
     2
100
AcDbVertex
100
AcDb2dVertex
 10
250.3018732801468
 20
809.5000000000002
 30
0.0
  0
VERTEX
  5
5BA
330
595
100
AcDbEntity
  8
図
  6
CONTINUOUS
 62
     2
100
AcDbVertex
100
AcDb2dVertex
 10
250.250262713861
 20
809.5000000000001
 30
0.0
  0
VERTEX
  5
5BB
330
595
100
AcDbEntity
  8
図
  6
CONTINUOUS
 62
     2
100
AcDbVertex
100
AcDb2dVertex
 10
250.1986253683971
 20
809.5000000000001
 30
0.0
  0
VERTEX
  5
5BC
330
595
100
AcDbEntity
  8
図
  6
CONTINUOUS
 62
     2
100
AcDbVertex
100
AcDb2dVertex
 10
250.1460673624413
 20
809.5000000000002
 30
0.0
  0
VERTEX
  5
5BD
330
595
100
AcDbEntity
  8
図
  6
CONTINUOUS
 62
     2
100
AcDbVertex
100
AcDb2dVertex
 10
250.0916948146798
 20
809.5
 30
0.0
  0
VERTEX
  5
5BE
330
595
100
AcDbEntity
  8
図
  6
CONTINUOUS
 62
     2
100
AcDbVertex
100
AcDb2dVertex
 10
250.0346138437986
 20
809.5
 30
0.0
  0
VERTEX
  5
5BF
330
595
100
AcDbEntity
  8
図
  6
CONTINUOUS
 62
     2
100
AcDbVertex
100
AcDb2dVertex
 10
249.9739305684839
 20
809.5
 30
0.0
  0
VERTEX
  5
5C0
330
595
100
AcDbEntity
  8
図
  6
CONTINUOUS
 62
     2
100
AcDbVertex
100
AcDb2dVertex
 10
249.9087511074218
 20
809.5
 30
0.0
  0
VERTEX
  5
5C1
330
595
100
AcDbEntity
  8
図
  6
CONTINUOUS
 62
     2
100
AcDbVertex
100
AcDb2dVertex
 10
249.8381815792984
 20
809.5
 30
0.0
  0
VERTEX
  5
5C2
330
595
100
AcDbEntity
  8
図
  6
CONTINUOUS
 62
     2
100
AcDbVertex
100
AcDb2dVertex
 10
249.7613281027998
 20
809.5
 30
0.0
  0
VERTEX
  5
5C3
330
595
100
AcDbEntity
  8
図
  6
CONTINUOUS
 62
     2
100
AcDbVertex
100
AcDb2dVertex
 10
249.728449835441
 20
809.5000000000001
 30
0.0
  0
VERTEX
  5
5C4
330
595
100
AcDbEntity
  8
図
  6
CONTINUOUS
 62
     2
100
AcDbVertex
100
AcDb2dVertex
 10
249.6951500860836
 20
809.4999999999999
 30
0.0
  0
VERTEX
  5
5C5
330
595
100
AcDbEntity
  8
図
  6
CONTINUOUS
 62
     2
100
AcDbVertex
100
AcDb2dVertex
 10
249.6621774265339
 20
809.5
 30
0.0
  0
VERTEX
  5
5C6
330
595
100
AcDbEntity
  8
図
  6
CONTINUOUS
 62
     2
100
AcDbVertex
100
AcDb2dVertex
 10
249.6302804285981
 20
809.5
 30
0.0
  0
VERTEX
  5
5C7
330
595
100
AcDbEntity
  8
図
  6
CONTINUOUS
 62
     2
100
AcDbVertex
100
AcDb2dVertex
 10
249.6002076640826
 20
809.5
 30
0.0
  0
VERTEX
  5
5C8
330
595
100
AcDbEntity
  8
図
  6
CONTINUOUS
 62
     2
100
AcDbVertex
100
AcDb2dVertex
 10
249.5727077047933
 20
809.5
 30
0.0
  0
VERTEX
  5
5C9
330
595
100
AcDbEntity
  8
図
  6
CONTINUOUS
 62
     2
100
AcDbVertex
100
AcDb2dVertex
 10
249.5485291225365
 20
809.5
 30
0.0
  0
VERTEX
  5
5CA
330
595
100
AcDbEntity
  8
図
  6
CONTINUOUS
 62
     2
100
AcDbVertex
100
AcDb2dVertex
 10
249.5284204891187
 20
809.5
 30
0.0
  0
VERTEX
  5
5CB
330
595
100
AcDbEntity
  8
図
  6
CONTINUOUS
 62
     2
100
AcDbVertex
100
AcDb2dVertex
 10
249.5131303763458
 20
809.5
 30
0.0
  0
VERTEX
  5
5CC
330
595
100
AcDbEntity
  8
図
  6
CONTINUOUS
 62
     2
100
AcDbVertex
100
AcDb2dVertex
 10
249.5034073560243
 20
809.5
 30
0.0
  0
VERTEX
  5
5CD
330
595
100
AcDbEntity
  8
図
  6
CONTINUOUS
 62
     2
100
AcDbVertex
100
AcDb2dVertex
 10
249.4999999999601
 20
809.5
 30
0.0
  0
SEQEND
  5
5CE
330
595
100
AcDbEntity
  8
図
  6
CONTINUOUS
 62
     2
  0
LINE
  5
5CF
330
1F
100
AcDbEntity
  8
図
  6
CONTINUOUS
 62
     2
100
AcDbLine
 10
217.5000000000001
 20
809.49999999999
 30
0.0
 11
249.5000000000001
 21
809.49999999999
 31
0.0
  0
ARC
  5
5D0
330
1F
100
AcDbEntity
  8
図
  6
CONTINUOUS
 62
     2
100
AcDbCircle
 10
217.5000000000101
 20
758.24108679939
 30
0.0
 40
2.0
100
AcDbArc
 50
180.0
 51
269.9999999999
  0
ARC
  5
5D1
330
1F
100
AcDbEntity
  8
図
  6
CONTINUOUS
 62
     2
100
AcDbCircle
 10
649.5
 20
758.2410867993699
 30
0.0
 40
2.0
100
AcDbArc
 50
270.0
 51
0.0000000002963911
  0
ARC
  5
5D2
330
1F
100
AcDbEntity
  8
図
  6
CONTINUOUS
 62
     2
100
AcDbCircle
 10
617.50000000001
 20
758.24108679939
 30
0.0
 40
2.0
100
AcDbArc
 50
180.0
 51
269.9999999997901
  0
LINE
  5
5D3
330
1F
100
AcDbEntity
  8
図
  6
CONTINUOUS
 62
     2
100
AcDbLine
 10
617.5
 20
756.2410867993899
 30
0.0
 11
649.5
 21
756.2410867993899
 31
0.0
  0
LINE
  5
5D4
330
1F
100
AcDbEntity
  8
図
  6
CONTINUOUS
 62
     2
100
AcDbLine
 10
215.5000000000001
 20
809.49999999999
 30
0.0
 11
215.5000000000001
 21
758.24108679939
 31
0.0
  0
POLYLINE
  5
5D5
330
1F
100
AcDbEntity
  8
図
  6
CONTINUOUS
 62
     2
100
AcDb2dPolyline
 66
     1
 10
0.0
 20
0.0
 30
0.0
 70
   128
  0
VERTEX
  5
5D6
330
5D5
100
AcDbEntity
  8
図
  6
CONTINUOUS
 62
     2
100
AcDbVertex
100
AcDb2dVertex
 10
217.4999999999601
 20
809.5
 30
0.0
  0
VERTEX
  5
5D7
330
5D5
100
AcDbEntity
  8
図
  6
CONTINUOUS
 62
     2
100
AcDbVertex
100
AcDb2dVertex
 10
217.4913290846541
 20
809.5
 30
0.0
  0
VERTEX
  5
5D8
330
5D5
100
AcDbEntity
  8
図
  6
CONTINUOUS
 62
     2
100
AcDbVertex
100
AcDb2dVertex
 10
217.4667326824063
 20
809.5
 30
0.0
  0
VERTEX
  5
5D9
330
5D5
100
AcDbEntity
  8
図
  6
CONTINUOUS
 62
     2
100
AcDbVertex
100
AcDb2dVertex
 10
217.4283353087219
 20
809.5
 30
0.0
  0
VERTEX
  5
5DA
330
5D5
100
AcDbEntity
  8
図
  6
CONTINUOUS
 62
     2
100
AcDbVertex
100
AcDb2dVertex
 10
217.3782614791061
 20
809.5
 30
0.0
  0
VERTEX
  5
5DB
330
5D5
100
AcDbEntity
  8
図
  6
CONTINUOUS
 62
     2
100
AcDbVertex
100
AcDb2dVertex
 10
217.3186357090639
 20
809.5
 30
0.0
  0
VERTEX
  5
5DC
330
5D5
100
AcDbEntity
  8
図
  6
CONTINUOUS
 62
     2
100
AcDbVertex
100
AcDb2dVertex
 10
217.2515825141007
 20
809.5
 30
0.0
  0
VERTEX
  5
5DD
330
5D5
100
AcDbEntity
  8
図
  6
CONTINUOUS
 62
     2
100
AcDbVertex
100
AcDb2dVertex
 10
217.1792264097216
 20
809.5
 30
0.0
  0
VERTEX
  5
5DE
330
5D5
100
AcDbEntity
  8
図
  6
CONTINUOUS
 62
     2
100
AcDbVertex
100
AcDb2dVertex
 10
217.1036919114318
 20
809.5
 30
0.0
  0
VERTEX
  5
5DF
330
5D5
100
AcDbEntity
  8
図
  6
CONTINUOUS
 62
     2
100
AcDbVertex
100
AcDb2dVertex
 10
217.0271035347365
 20
809.5
 30
0.0
  0
VERTEX
  5
5E0
330
5D5
100
AcDbEntity
  8
図
  6
CONTINUOUS
 62
     2
100
AcDbVertex
100
AcDb2dVertex
 10
216.9515857951408
 20
809.5
 30
0.0
  0
VERTEX
  5
5E1
330
5D5
100
AcDbEntity
  8
図
  6
CONTINUOUS
 62
     2
100
AcDbVertex
100
AcDb2dVertex
 10
216.87926320815
 20
809.5
 30
0.0
  0
VERTEX
  5
5E2
330
5D5
100
AcDbEntity
  8
図
  6
CONTINUOUS
 62
     2
100
AcDbVertex
100
AcDb2dVertex
 10
216.8192105375885
 20
809.5
 30
0.0
  0
VERTEX
  5
5E3
330
5D5
100
AcDbEntity
  8
図
  6
CONTINUOUS
 62
     2
100
AcDbVertex
100
AcDb2dVertex
 10
216.7627935586976
 20
809.5
 30
0.0
  0
VERTEX
  5
5E4
330
5D5
100
AcDbEntity
  8
図
  6
CONTINUOUS
 62
     2
100
AcDbVertex
100
AcDb2dVertex
 10
216.7094698354811
 20
809.5
 30
0.0
  0
VERTEX
  5
5E5
330
5D5
100
AcDbEntity
  8
図
  6
CONTINUOUS
 62
     2
100
AcDbVertex
100
AcDb2dVertex
 10
216.6586969319431
 20
809.5
 30
0.0
  0
VERTEX
  5
5E6
330
5D5
100
AcDbEntity
  8
図
  6
CONTINUOUS
 62
     2
100
AcDbVertex
100
AcDb2dVertex
 10
216.6099324120876
 20
809.5000000000001
 30
0.0
  0
VERTEX
  5
5E7
330
5D5
100
AcDbEntity
  8
図
  6
CONTINUOUS
 62
     2
100
AcDbVertex
100
AcDb2dVertex
 10
216.5626338399186
 20
809.5000000000001
 30
0.0
  0
VERTEX
  5
5E8
330
5D5
100
AcDbEntity
  8
図
  6
CONTINUOUS
 62
     2
100
AcDbVertex
100
AcDb2dVertex
 10
216.51625877944
 20
809.5000000000001
 30
0.0
  0
VERTEX
  5
5E9
330
5D5
100
AcDbEntity
  8
図
  6
CONTINUOUS
 62
     2
100
AcDbVertex
100
AcDb2dVertex
 10
216.4702647946558
 20
809.5000000000001
 30
0.0
  0
VERTEX
  5
5EA
330
5D5
100
AcDbEntity
  8
図
  6
CONTINUOUS
 62
     2
100
AcDbVertex
100
AcDb2dVertex
 10
216.4241094495702
 20
809.5000000000002
 30
0.0
  0
VERTEX
  5
5EB
330
5D5
100
AcDbEntity
  8
図
  6
CONTINUOUS
 62
     2
100
AcDbVertex
100
AcDb2dVertex
 10
216.3772503081869
 20
809.5000000000002
 30
0.0
  0
VERTEX
  5
5EC
330
5D5
100
AcDbEntity
  8
図
  6
CONTINUOUS
 62
     2
100
AcDbVertex
100
AcDb2dVertex
 10
216.32914493451
 20
809.5000000000002
 30
0.0
  0
VERTEX
  5
5ED
330
5D5
100
AcDbEntity
  8
図
  6
CONTINUOUS
 62
     2
100
AcDbVertex
100
AcDb2dVertex
 10
216.2893657406771
 20
809.5000000000001
 30
0.0
  0
VERTEX
  5
5EE
330
5D5
100
AcDbEntity
  8
図
  6
CONTINUOUS
 62
     2
100
AcDbVertex
100
AcDb2dVertex
 10
216.2487050217927
 20
809.5
 30
0.0
  0
VERTEX
  5
5EF
330
5D5
100
AcDbEntity
  8
図
  6
CONTINUOUS
 62
     2
100
AcDbVertex
100
AcDb2dVertex
 10
216.2074330850231
 20
809.5000000000001
 30
0.0
  0
VERTEX
  5
5F0
330
5D5
100
AcDbEntity
  8
図
  6
CONTINUOUS
 62
     2
100
AcDbVertex
100
AcDb2dVertex
 10
216.1658202375344
 20
809.5
 30
0.0
  0
VERTEX
  5
5F1
330
5D5
100
AcDbEntity
  8
図
  6
CONTINUOUS
 62
     2
100
AcDbVertex
100
AcDb2dVertex
 10
216.1241367864929
 20
809.5000000000002
 30
0.0
  0
VERTEX
  5
5F2
330
5D5
100
AcDbEntity
  8
図
  6
CONTINUOUS
 62
     2
100
AcDbVertex
100
AcDb2dVertex
 10
216.0826530390646
 20
809.5
 30
0.0
  0
VERTEX
  5
5F3
330
5D5
100
AcDbEntity
  8
図
  6
CONTINUOUS
 62
     2
100
AcDbVertex
100
AcDb2dVertex
 10
216.0416393024159
 20
809.5
 30
0.0
  0
VERTEX
  5
5F4
330
5D5
100
AcDbEntity
  8
図
  6
CONTINUOUS
 62
     2
100
AcDbVertex
100
AcDb2dVertex
 10
216.0013658837129
 20
809.5
 30
0.0
  0
VERTEX
  5
5F5
330
5D5
100
AcDbEntity
  8
図
  6
CONTINUOUS
 62
     2
100
AcDbVertex
100
AcDb2dVertex
 10
215.9621030901218
 20
809.5
 30
0.0
  0
VERTEX
  5
5F6
330
5D5
100
AcDbEntity
  8
図
  6
CONTINUOUS
 62
     2
100
AcDbVertex
100
AcDb2dVertex
 10
215.9241212288088
 20
809.5
 30
0.0
  0
VERTEX
  5
5F7
330
5D5
100
AcDbEntity
  8
図
  6
CONTINUOUS
 62
     2
100
AcDbVertex
100
AcDb2dVertex
 10
215.8876906069401
 20
809.5000000000001
 30
0.0
  0
VERTEX
  5
5F8
330
5D5
100
AcDbEntity
  8
図
  6
CONTINUOUS
 62
     2
100
AcDbVertex
100
AcDb2dVertex
 10
215.8642189788501
 20
809.5
 30
0.0
  0
VERTEX
  5
5F9
330
5D5
100
AcDbEntity
  8
図
  6
CONTINUOUS
 62
     2
100
AcDbVertex
100
AcDb2dVertex
 10
215.8411898257983
 20
809.5000000000002
 30
0.0
  0
VERTEX
  5
5FA
330
5D5
100
AcDbEntity
  8
図
  6
CONTINUOUS
 62
     2
100
AcDbVertex
100
AcDb2dVertex
 10
215.8182286710284
 20
809.5000000000001
 30
0.0
  0
VERTEX
  5
5FB
330
5D5
100
AcDbEntity
  8
図
  6
CONTINUOUS
 62
     2
100
AcDbVertex
100
AcDb2dVertex
 10
215.794961037784
 20
809.5000000000002
 30
0.0
  0
VERTEX
  5
5FC
330
5D5
100
AcDbEntity
  8
図
  6
CONTINUOUS
 62
     2
100
AcDbVertex
100
AcDb2dVertex
 10
215.771012449309
 20
809.5000000000002
 30
0.0
  0
VERTEX
  5
5FD
330
5D5
100
AcDbEntity
  8
図
  6
CONTINUOUS
 62
     2
100
AcDbVertex
100
AcDb2dVertex
 10
215.7460084288468
 20
809.5000000000001
 30
0.0
  0
VERTEX
  5
5FE
330
5D5
100
AcDbEntity
  8
図
  6
CONTINUOUS
 62
     2
100
AcDbVertex
100
AcDb2dVertex
 10
215.7195744996414
 20
809.5000000000002
 30
0.0
  0
VERTEX
  5
5FF
330
5D5
100
AcDbEntity
  8
図
  6
CONTINUOUS
 62
     2
100
AcDbVertex
100
AcDb2dVertex
 10
215.6913361849363
 20
809.5000000000001
 30
0.0
  0
VERTEX
  5
600
330
5D5
100
AcDbEntity
  8
図
  6
CONTINUOUS
 62
     2
100
AcDbVertex
100
AcDb2dVertex
 10
215.6609190079753
 20
809.5
 30
0.0
  0
VERTEX
  5
601
330
5D5
100
AcDbEntity
  8
図
  6
CONTINUOUS
 62
     2
100
AcDbVertex
100
AcDb2dVertex
 10
215.6279484920019
 20
809.5
 30
0.0
  0
VERTEX
  5
602
330
5D5
100
AcDbEntity
  8
図
  6
CONTINUOUS
 62
     2
100
AcDbVertex
100
AcDb2dVertex
 10
215.5920501602601
 20
809.5
 30
0.0
  0
VERTEX
  5
603
330
5D5
100
AcDbEntity
  8
図
  6
CONTINUOUS
 62
     2
100
AcDbVertex
100
AcDb2dVertex
 10
215.5802600308801
 20
809.5
 30
0.0
  0
VERTEX
  5
604
330
5D5
100
AcDbEntity
  8
図
  6
CONTINUOUS
 62
     2
100
AcDbVertex
100
AcDb2dVertex
 10
215.5684008948082
 20
809.5
 30
0.0
  0
VERTEX
  5
605
330
5D5
100
AcDbEntity
  8
図
  6
CONTINUOUS
 62
     2
100
AcDbVertex
100
AcDb2dVertex
 10
215.5567238831413
 20
809.5
 30
0.0
  0
VERTEX
  5
606
330
5D5
100
AcDbEntity
  8
図
  6
CONTINUOUS
 62
     2
100
AcDbVertex
100
AcDb2dVertex
 10
215.5454801269756
 20
809.5
 30
0.0
  0
VERTEX
  5
607
330
5D5
100
AcDbEntity
  8
図
  6
CONTINUOUS
 62
     2
100
AcDbVertex
100
AcDb2dVertex
 10
215.5349207574077
 20
809.5
 30
0.0
  0
VERTEX
  5
608
330
5D5
100
AcDbEntity
  8
図
  6
CONTINUOUS
 62
     2
100
AcDbVertex
100
AcDb2dVertex
 10
215.5252969055342
 20
809.5
 30
0.0
  0
VERTEX
  5
609
330
5D5
100
AcDbEntity
  8
図
  6
CONTINUOUS
 62
     2
100
AcDbVertex
100
AcDb2dVertex
 10
215.5168597024516
 20
809.5
 30
0.0
  0
VERTEX
  5
60A
330
5D5
100
AcDbEntity
  8
図
  6
CONTINUOUS
 62
     2
100
AcDbVertex
100
AcDb2dVertex
 10
215.5098602792563
 20
809.5
 30
0.0
  0
VERTEX
  5
60B
330
5D5
100
AcDbEntity
  8
図
  6
CONTINUOUS
 62
     2
100
AcDbVertex
100
AcDb2dVertex
 10
215.504549767045
 20
809.5
 30
0.0
  0
VERTEX
  5
60C
330
5D5
100
AcDbEntity
  8
図
  6
CONTINUOUS
 62
     2
100
AcDbVertex
100
AcDb2dVertex
 10
215.501179296914
 20
809.5
 30
0.0
  0
VERTEX
  5
60D
330
5D5
100
AcDbEntity
  8
図
  6
CONTINUOUS
 62
     2
100
AcDbVertex
100
AcDb2dVertex
 10
215.4999999999601
 20
809.5
 30
0.0
  0
SEQEND
  5
60E
330
5D5
100
AcDbEntity
  8
図
  6
CONTINUOUS
 62
     2
  0
LINE
  5
60F
330
1F
100
AcDbEntity
  8
図
  6
CONTINUOUS
 62
     2
100
AcDbLine
 10
615.5
 20
758.24108679939
 30
0.0
 11
615.5
 21
809.49999999999
 31
0.0
  0
LINE
  5
610
330
1F
100
AcDbEntity
  8
図
  6
CONTINUOUS
 62
     2
100
AcDbLine
 10
651.5
 20
809.49999999999
 30
0.0
 11
651.5
 21
758.24108679939
 31
0.0
  0
LINE
  5
611
330
1F
100
AcDbEntity
  8
図
  6
CONTINUOUS
 62
     2
100
AcDbLine
 10
651.5
 20
809.49999999999
 30
0.0
 11
615.5
 21
809.49999999999
 31
0.0
  0
ARC
  5
612
330
1F
100
AcDbEntity
  8
図
  6
CONTINUOUS
 62
     4
100
AcDbCircle
 10
249.7597236155999
 20
758.6157498789801
 30
0.0
 40
1.780150082678
100
AcDbArc
 50
261.610609492
 51
347.8502713292101
  0
LINE
  5
613
330
1F
100
AcDbEntity
  8
図
  6
CONTINUOUS
 62
     4
100
AcDbLine
 10
249.5000000000001
 20
809.49999999999
 30
0.0
 11
249.5000000000001
 21
756.8546485301899
 31
0.0
  0
LINE
  5
614
330
1F
100
AcDbEntity
  8
図
  6
CONTINUOUS
 62
     4
100
AcDbLine
 10
249.5000000000001
 20
756.8546485301899
 30
0.0
 11
217.5000000000001
 21
756.8546485301899
 31
0.0
  0
LINE
  5
615
330
1F
100
AcDbEntity
  8
図
  6
CONTINUOUS
 62
     4
100
AcDbLine
 10
217.5000000000001
 20
756.8546485301899
 30
0.0
 11
217.5000000000001
 21
809.49999999999
 31
0.0
  0
ARC
  5
616
330
1F
100
AcDbEntity
  8
図
  6
CONTINUOUS
 62
     4
100
AcDbCircle
 10
217.24027638421
 20
758.61574987899
 30
0.0
 40
1.780150082678
100
AcDbArc
 50
192.14972867079
 51
278.38939050793
  0
LINE
  5
617
330
1F
100
AcDbEntity
  8
図
  6
CONTINUOUS
 62
     4
100
AcDbLine
 10
617.5
 20
809.49999999999
 30
0.0
 11
617.5
 21
756.8546485301899
 31
0.0
  0
ARC
  5
618
330
1F
100
AcDbEntity
  8
図
  6
CONTINUOUS
 62
     4
100
AcDbCircle
 10
617.2402763842097
 20
758.61574987899
 30
0.0
 40
1.780150082678
100
AcDbArc
 50
192.14972867078
 51
278.3893905078601
  0
ARC
  5
619
330
1F
100
AcDbEntity
  8
図
  6
CONTINUOUS
 62
     4
100
AcDbCircle
 10
649.7597236156097
 20
758.61574987899
 30
0.0
 40
1.7801500826781
100
AcDbArc
 50
261.61060949199
 51
347.85027132904
  0
LINE
  5
61A
330
1F
100
AcDbEntity
  8
図
  6
CONTINUOUS
 62
     4
100
AcDbLine
 10
649.5
 20
756.8546485301899
 30
0.0
 11
649.5
 21
809.49999999999
 31
0.0
  0
LINE
  5
61B
330
1F
100
AcDbEntity
  8
図
  6
CONTINUOUS
 62
     4
100
AcDbLine
 10
617.5
 20
756.8546485301899
 30
0.0
 11
649.5
 21
756.8546485301899
 31
0.0
  0
LINE
  5
61C
330
1F
100
AcDbEntity
  8
図
  6
CONTINUOUS
 62
     7
100
AcDbLine
 10
864.31328812443
 20
397.0
 30
0.0
 11
864.31328812443
 21
636.5
 31
0.0
  0
TEXT
  5
61D
330
1F
100
AcDbEntity
  8
図
  6
CONTINUOUS
 62
     2
100
AcDbText
 10
861.1886900931717
 20
596.7223611873469
 30
0.0
 40
20.0
  1
Ｗ.Ｌ
 50
90.0
 41
0.9767441860465117
  7
EXCADSTD
 72
     5
 11
861.1886900931717
 21
636.7223611873469
 31
0.0
100
AcDbText
  0
TEXT
  5
61E
330
1F
100
AcDbEntity
  8
図
  6
CONTINUOUS
 62
     2
100
AcDbText
 10
721.5223611873469
 20
788.0248904003583
 30
0.0
 40
20.0
  1
Ｗ.Ｌ
 41
0.9767441860465117
  7
EXCADSTD
 72
     5
 11
761.5223611873469
 21
788.0248904003583
 31
0.0
100
AcDbText
  0
LINE
  5
61F
330
1F
100
AcDbEntity
  8
図
  6
CONTINUOUS
 62
     7
100
AcDbLine
 10
766.0
 20
809.5
 30
0.0
 11
145.0
 21
809.5
 31
0.0
  0
ENDSEC
  0
SECTION
  2
OBJECTS
  0
DICTIONARY
  5
C
330
0
100
AcDbDictionary
  3
ACAD_GROUP
350
D
  3
ACAD_LAYOUT
350
1A
  3
ACAD_MATERIAL
350
3B
  3
ACAD_MLEADERSTYLE
350
642
  3
ACAD_MLINESTYLE
350
17
  3
ACAD_PLOTSETTINGS
350
19
  3
ACAD_VISUALSTYLE
350
2A
  3
ACDBHEADERROUNDTRIPXREC
350
620
  3
ACDBVARIABLEDICTIONARY
350
640
  0
DICTIONARY
  5
D
102
{ACAD_REACTORS
330
C
102
}
330
C
100
AcDbDictionary
  0
DICTIONARY
  5
1A
102
{ACAD_REACTORS
330
C
102
}
330
C
100
AcDbDictionary
  0
DICTIONARY
  5
3B
102
{ACAD_REACTORS
330
C
102
}
330
C
100
AcDbDictionary
  3
BYBLOCK
350
3D
  3
BYLAYER
350
3C
  3
GLOBAL
350
3E
  0
DICTIONARY
  5
642
102
{ACAD_REACTORS
330
C
102
}
330
C
100
AcDbDictionary
  0
DICTIONARY
  5
17
102
{ACAD_REACTORS
330
C
102
}
330
C
100
AcDbDictionary
  3
STANDARD
350
18
  0
DICTIONARY
  5
19
102
{ACAD_REACTORS
330
C
102
}
330
C
100
AcDbDictionary
  0
DICTIONARY
  5
2A
102
{ACAD_REACTORS
330
C
102
}
330
C
100
AcDbDictionary
  3
2DWIREFRAME
350
2F
  3
3D_HIDDEN
350
31
  3
3DWIREFRAME
350
30
  3
BASIC
350
32
  3
BRIGHTEN
350
36
  3
COLORCHANGE
350
3A
  3
CONCEPTUAL
350
34
  3
DIM
350
35
  3
FACEPATTERN
350
39
  3
FLAT
350
2B
  3
FLATWITHEDGES
350
2C
  3
GOURAUD
350
2D
  3
GOURAUDWITHEDGES
350
2E
  3
LINEPATTERN
350
38
  3
REALISTIC
350
33
  3
THICKEN
350
37
  0
DICTIONARY
  5
620
102
{ACAD_REACTORS
330
C
102
}
330
C
100
AcDbDictionary
  3
CEPSNTYPE
350
629
  3
DIMSTYLEDATA
350
63F
  3
FINGERPRINTGUID
350
62A
  3
HYPERLINKBASE
350
623
  3
INSUNITS
350
628
  3
LAYOUTDICT
350
625
  3
LWETCUNION
350
627
  3
PLOTSETDICT
350
626
  3
PSVPSCALE
350
62C
  3
PUCSBASE
350
62F
  3
PUCSORGBACK
350
635
  3
PUCSORGBOTTOM
350
631
  3
PUCSORGFRONT
350
634
  3
PUCSORGLEFT
350
632
  3
PUCSORGRIGHT
350
633
  3
PUCSORGTOP
350
630
  3
PUCSORTHOREF
350
62D
  3
PUCSORTHOVIEW
350
62E
  3
STYLESHEET
350
624
  3
TSTACKALIGN
350
621
  3
TSTACKSIZE
350
622
  3
UCSBASE
350
638
  3
UCSORGBACK
350
63E
  3
UCSORGBOTTOM
350
63A
  3
UCSORGFRONT
350
63D
  3
UCSORGLEFT
350
63B
  3
UCSORGRIGHT
350
63C
  3
UCSORGTOP
350
639
  3
UCSORTHOREF
350
636
  3
UCSORTHOVIEW
350
637
  3
VERSIONGUID
350
62B
  0
DICTIONARY
  5
640
102
{ACAD_REACTORS
330
C
102
}
330
C
100
AcDbDictionary
  3
DIMASSOC
350
645
  3
HIDETEXT
350
646
  3
PSOLHEIGHT
350
644
  3
PSOLWIDTH
350
643
  0
MATERIAL
  5
3D
102
{ACAD_REACTORS
330
3B
102
}
102
{ACAD_XDICTIONARY
360
649
102
}
330
3B
100
AcDbMaterial
  1
ByBlock
  0
MATERIAL
  5
3C
102
{ACAD_REACTORS
330
3B
102
}
102
{ACAD_XDICTIONARY
360
647
102
}
330
3B
100
AcDbMaterial
  1
ByLayer
  0
MATERIAL
  5
3E
102
{ACAD_REACTORS
330
3B
102
}
102
{ACAD_XDICTIONARY
360
64B
102
}
330
3B
100
AcDbMaterial
  1
Global
  0
MLINESTYLE
  5
18
102
{ACAD_REACTORS
330
17
102
}
330
17
100
AcDbMlineStyle
  2
Standard
 70
     0
  3

 62
   256
 51
90.0
 52
90.0
 71
     2
 49
0.5
 62
   256
  6
BYLAYER
 49
-0.5
 62
   256
  6
BYLAYER
  0
ACAD_PROXY_OBJECT
  5
2F
102
{ACAD_REACTORS
330
2A
102
}
330
2A
100
AcDbProxyObject
 90
      499
 91
      501
 93
      436
310
42CC9915DA5C99599C985B595049028333333333333E3BF0000000000000FB0107901411070040501600405405064090741402480A0340
1001
ACAD
1000
AcDbSavedByObjectVersion
1070
     0
  0
ACAD_PROXY_OBJECT
  5
31
102
{ACAD_REACTORS
330
2A
102
}
330
2A
100
AcDbProxyObject
 90
      499
 91
      501
 93
      500
310
424CD108121A5919195B90640502408333333333333E3BF0000000000000FB01079024090700405020000000000001110200405405064090740C02480A0340
1001
ACAD
1000
AcDbSavedByObjectVersion
1070
     0
  0
ACAD_PROXY_OBJECT
  5
30
102
{ACAD_REACTORS
330
2A
102
}
330
2A
100
AcDbProxyObject
 90
      499
 91
      501
 93
      436
310
42CCD915DA5C99599C985B595059028333333333333E3BF0000000000000FB0107901411070040501600405405064090741402480A0340
1001
ACAD
1000
AcDbSavedByObjectVersion
1070
     0
  0
ACAD_PROXY_OBJECT
  5
32
102
{ACAD_REACTORS
330
2A
102
}
330
2A
100
AcDbProxyObject
 90
      499
 91
      501
 93
      388
310
4150985CDA58D07406404333333333333E3BF0000000000000FB0107A41107004050150841D405064090741402480A0350
1001
ACAD
1000
AcDbSavedByObjectVersion
1070
     0
  0
ACAD_PROXY_OBJECT
  5
36
102
{ACAD_REACTORS
330
2A
102
}
330
2A
100
AcDbProxyObject
 90
      499
 91
      501
 93
      428
310
42109C9A59DA1D195B90C409028333333333333E3BF0000000000000FB010790141107004050150841D405064090741402480A029950
1001
ACAD
1000
AcDbSavedByObjectVersion
1070
     0
  0
ACAD_PROXY_OBJECT
  5
3A
102
{ACAD_REACTORS
330
2A
102
}
330
2A
100
AcDbProxyObject
 90
      499
 91
      501
 93
      452
310
42D0DBDB1BDC90DA185B99D95104090240C333333333333E3BF0000000000000FB0108901411070040501508421405064090741402480A0350
1001
ACAD
1000
AcDbSavedByObjectVersion
1070
     0
  0
ACAD_PROXY_OBJECT
  5
34
102
{ACAD_REACTORS
330
2A
102
}
330
2A
100
AcDbProxyObject
 90
      499
 91
      501
 93
      500
310
4290DBDB98D95C1D1D585B10940D028333333333333E3BF0000000000000FB0107902409070040501000000000000111010841D405064090740C02480A0340
1001
ACAD
1000
AcDbSavedByObjectVersion
1070
     0
  0
ACAD_PROXY_OBJECT
  5
35
102
{ACAD_REACTORS
330
2A
102
}
330
2A
100
AcDbProxyObject
 90
      499
 91
      501
 93
      412
310
40D11A5B50B409028333333333333E3BF0000000000000FB010790141107004050150841D405064090741402480A02677FFFFFD0
1001
ACAD
1000
AcDbSavedByObjectVersion
1070
     0
  0
ACAD_PROXY_OBJECT
  5
39
102
{ACAD_REACTORS
330
2A
102
}
330
2A
100
AcDbProxyObject
 90
      499
 91
      501
 93
      444
310
42D19858D95C185D1D195C9B90F409028333333333333E3BF0000000000000FB010790141107004050150841D405064090741402480A0350
1001
ACAD
1000
AcDbSavedByObjectVersion
1070
     0
  0
ACAD_PROXY_OBJECT
  5
2B
102
{ACAD_REACTORS
330
2A
102
}
330
2A
100
AcDbProxyObject
 90
      499
 91
      501
 93
      388
310
41119B185D240901404333333333333E3BF0000000000000F9010740A41107004050150841D405064090741402480A1B50
1001
ACAD
1000
AcDbSavedByObjectVersion
1070
     0
  0
ACAD_PROXY_OBJECT
  5
2C
102
{ACAD_REACTORS
330
2A
102
}
330
2A
100
AcDbProxyObject
 90
      499
 91
      501
 93
      476
310
43519B185D15DA5D1A115919D95CD0140901404333333333333E3BF0000000000000F9010740901411070040501600405405064090741402480A1B50
1001
ACAD
1000
AcDbSavedByObjectVersion
1070
     0
  0
ACAD_PROXY_OBJECT
  5
2D
102
{ACAD_REACTORS
330
2A
102
}
330
2A
100
AcDbProxyObject
 90
      499
 91
      501
 93
      412
310
41D1DBDD5C985D5910240902404333333333333E3BF0000000000000F9010740A411070040501641D405064090741402480A1B50
1001
ACAD
1000
AcDbSavedByObjectVersion
1070
     0
  0
ACAD_PROXY_OBJECT
  5
2E
102
{ACAD_REACTORS
330
2A
102
}
330
2A
100
AcDbProxyObject
 90
      499
 91
      501
 93
      500
310
4411DBDD5C985D5915DA5D1A115919D95CD0340902404333333333333E3BF0000000000000F9010740901411070040501600405405064090741402480A1B50
1001
ACAD
1000
AcDbSavedByObjectVersion
1070
     0
  0
ACAD_PROXY_OBJECT
  5
38
102
{ACAD_REACTORS
330
2A
102
}
330
2A
100
AcDbProxyObject
 90
      499
 91
      501
 93
      444
310
42D31A5B995C185D1D195C9B90E409028333333333333E3BF0000000000000FB010790141107004050750841D405064090741402483A0350
1001
ACAD
1000
AcDbSavedByObjectVersion
1070
     0
  0
ACAD_PROXY_OBJECT
  5
33
102
{ACAD_REACTORS
330
2A
102
}
330
2A
100
AcDbProxyObject
 90
      499
 91
      501
 93
      420
310
425499585B1A5CDD1A58D08409028333333333333E3BF0000000000000FB01079019070040501508421405064090741402480A1B40
1001
ACAD
1000
AcDbSavedByObjectVersion
1070
     0
  0
ACAD_PROXY_OBJECT
  5
37
102
{ACAD_REACTORS
330
2A
102
}
330
2A
100
AcDbProxyObject
 90
      499
 91
      501
 93
      412
310
41D51A1A58DAD95B90D409028333333333333E3BF0000000000000FB010790141107004050150C41D405064090741402480A0350
1001
ACAD
1000
AcDbSavedByObjectVersion
1070
     0
  0
XRECORD
  5
629
102
{ACAD_REACTORS
330
620
102
}
330
620
100
AcDbXrecord
 90
        0
  0
XRECORD
  5
63F
102
{ACAD_REACTORS
330
620
102
}
330
620
100
AcDbXrecord
1000
DSTYLE
1002
{
1070
   340
340
11
1002
}
  0
XRECORD
  5
62A
102
{ACAD_REACTORS
330
620
102
}
330
620
100
AcDbXrecord
  1
{C93F1B8F-8FFA-4E2C-8142-1601798FCB95}
  0
XRECORD
  5
623
102
{ACAD_REACTORS
330
620
102
}
330
620
100
AcDbXrecord
  1

  0
XRECORD
  5
628
102
{ACAD_REACTORS
330
620
102
}
330
620
100
AcDbXrecord
 90
        4
  0
XRECORD
  5
625
102
{ACAD_REACTORS
330
620
102
}
330
620
100
AcDbXrecord
340
1A
  0
XRECORD
  5
627
102
{ACAD_REACTORS
330
620
102
}
330
620
100
AcDbXrecord
 90
    10781
  0
XRECORD
  5
626
102
{ACAD_REACTORS
330
620
102
}
330
620
100
AcDbXrecord
340
19
  0
XRECORD
  5
62C
102
{ACAD_REACTORS
330
620
102
}
330
620
100
AcDbXrecord
 40
0.0
  0
XRECORD
  5
62F
102
{ACAD_REACTORS
330
620
102
}
330
620
100
AcDbXrecord
340
0
  0
XRECORD
  5
635
102
{ACAD_REACTORS
330
620
102
}
330
620
100
AcDbXrecord
 10
0.0
 20
0.0
 30
0.0
  0
XRECORD
  5
631
102
{ACAD_REACTORS
330
620
102
}
330
620
100
AcDbXrecord
 10
0.0
 20
0.0
 30
0.0
  0
XRECORD
  5
634
102
{ACAD_REACTORS
330
620
102
}
330
620
100
AcDbXrecord
 10
0.0
 20
0.0
 30
0.0
  0
XRECORD
  5
632
102
{ACAD_REACTORS
330
620
102
}
330
620
100
AcDbXrecord
 10
0.0
 20
0.0
 30
0.0
  0
XRECORD
  5
633
102
{ACAD_REACTORS
330
620
102
}
330
620
100
AcDbXrecord
 10
0.0
 20
0.0
 30
0.0
  0
XRECORD
  5
630
102
{ACAD_REACTORS
330
620
102
}
330
620
100
AcDbXrecord
 10
0.0
 20
0.0
 30
0.0
  0
XRECORD
  5
62D
102
{ACAD_REACTORS
330
620
102
}
330
620
100
AcDbXrecord
340
0
  0
XRECORD
  5
62E
102
{ACAD_REACTORS
330
620
102
}
330
620
100
AcDbXrecord
 70
     0
  0
XRECORD
  5
624
102
{ACAD_REACTORS
330
620
102
}
330
620
100
AcDbXrecord
  1

  0
XRECORD
  5
621
102
{ACAD_REACTORS
330
620
102
}
330
620
100
AcDbXrecord
 90
        1
  0
XRECORD
  5
622
102
{ACAD_REACTORS
330
620
102
}
330
620
100
AcDbXrecord
 90
       70
  0
XRECORD
  5
638
102
{ACAD_REACTORS
330
620
102
}
330
620
100
AcDbXrecord
340
0
  0
XRECORD
  5
63E
102
{ACAD_REACTORS
330
620
102
}
330
620
100
AcDbXrecord
 10
0.0
 20
0.0
 30
0.0
  0
XRECORD
  5
63A
102
{ACAD_REACTORS
330
620
102
}
330
620
100
AcDbXrecord
 10
0.0
 20
0.0
 30
0.0
  0
XRECORD
  5
63D
102
{ACAD_REACTORS
330
620
102
}
330
620
100
AcDbXrecord
 10
0.0
 20
0.0
 30
0.0
  0
XRECORD
  5
63B
102
{ACAD_REACTORS
330
620
102
}
330
620
100
AcDbXrecord
 10
0.0
 20
0.0
 30
0.0
  0
XRECORD
  5
63C
102
{ACAD_REACTORS
330
620
102
}
330
620
100
AcDbXrecord
 10
0.0
 20
0.0
 30
0.0
  0
XRECORD
  5
639
102
{ACAD_REACTORS
330
620
102
}
330
620
100
AcDbXrecord
 10
0.0
 20
0.0
 30
0.0
  0
XRECORD
  5
636
102
{ACAD_REACTORS
330
620
102
}
330
620
100
AcDbXrecord
340
0
  0
XRECORD
  5
637
102
{ACAD_REACTORS
330
620
102
}
330
620
100
AcDbXrecord
 70
     0
  0
XRECORD
  5
62B
102
{ACAD_REACTORS
330
620
102
}
330
620
100
AcDbXrecord
  1
{FAEB1C32-E019-11D5-929B-00C0DF256EC4}
  0
DICTIONARYVAR
  5
645
102
{ACAD_REACTORS
330
640
102
}
330
640
100
DictionaryVariables
280
     0
  1
2
  0
DICTIONARYVAR
  5
646
102
{ACAD_REACTORS
330
640
102
}
330
640
100
DictionaryVariables
280
     0
  1
1
  0
DICTIONARYVAR
  5
644
102
{ACAD_REACTORS
330
640
102
}
330
640
100
DictionaryVariables
280
     0
  1
80.000000
  0
DICTIONARYVAR
  5
643
102
{ACAD_REACTORS
330
640
102
}
330
640
100
DictionaryVariables
280
     0
  1
5.000000
  0
DICTIONARY
  5
649
330
3D
100
AcDbDictionary
280
     1
  3
ACAD_XREC_ROUNDTRIP
360
64A
  0
DICTIONARY
  5
647
330
3C
100
AcDbDictionary
280
     1
  3
ACAD_XREC_ROUNDTRIP
360
648
  0
DICTIONARY
  5
64B
330
3E
100
AcDbDictionary
280
     1
  3
ACAD_XREC_ROUNDTRIP
360
64C
  0
XRECORD
  5
64A
102
{ACAD_REACTORS
330
649
102
}
330
649
100
AcDbXrecord
102
MATERIAL
148
0.0
149
0.0
149
0.0
 93
        0
 94
      127
282
     0
 72
     1
 77
     1
171
     1
175
     1
179
     1
273
     0
  0
XRECORD
  5
648
102
{ACAD_REACTORS
330
647
102
}
330
647
100
AcDbXrecord
102
MATERIAL
148
0.0
149
0.0
149
0.0
 93
        0
 94
      127
282
     0
 72
     1
 77
     1
171
     1
175
     1
179
     1
273
     0
  0
XRECORD
  5
64C
102
{ACAD_REACTORS
330
64B
102
}
330
64B
100
AcDbXrecord
102
MATERIAL
148
0.0
149
0.0
149
0.0
 93
        0
 94
      127
282
     0
 72
     1
 77
     1
171
     1
175
     1
179
     1
273
     0
  0
ENDSEC
  0
EOF
