  0
SECTION
  2
HEADER
  9
$ACADVER
  1
AC1014
  9
$ACADMAINTVER
 70
     9
  9
$DWGCODEPAGE
  3
ANSI_932
  9
$INSBASE
 10
0.0
 20
0.0
 30
0.0
  9
$EXTMIN
 10
17.4000000000252
 20
9.299999999999955
 30
0.0
  9
$EXTMAX
 10
199.4000000000257
 20
289.3
 30
0.0
  9
$LIMMIN
 10
0.0
 20
0.0
  9
$LIMMAX
 10
210.0
 20
297.0
  9
$ORTHOMODE
 70
     0
  9
$REGENMODE
 70
     1
  9
$FILLMODE
 70
     1
  9
$QTEXTMODE
 70
     0
  9
$MIRRTEXT
 70
     1
  9
$DRAGMODE
 70
     2
  9
$LTSCALE
 40
1.0
  9
$OSMODE
 70
    37
  9
$ATTMODE
 70
     1
  9
$TEXTSIZE
 40
2.5
  9
$TRACEWID
 40
1.0
  9
$TEXTSTYLE
  7
STANDARD
  9
$CLAYER
  8
枠_表
  9
$CELTYPE
  6
BYLAYER
  9
$CECOLOR
 62
   256
  9
$CELTSCALE
 40
1.0
  9
$DELOBJ
 70
     1
  9
$DISPSILH
 70
     0
  9
$DIMSCALE
 40
1.0
  9
$DIMASZ
 40
2.5
  9
$DIMEXO
 40
0.625
  9
$DIMDLI
 40
3.75
  9
$DIMRND
 40
0.0
  9
$DIMDLE
 40
0.0
  9
$DIMEXE
 40
1.25
  9
$DIMTP
 40
0.0
  9
$DIMTM
 40
0.0
  9
$DIMTXT
 40
2.5
  9
$DIMCEN
 40
2.5
  9
$DIMTSZ
 40
0.0
  9
$DIMTOL
 70
     0
  9
$DIMLIM
 70
     0
  9
$DIMTIH
 70
     0
  9
$DIMTOH
 70
     0
  9
$DIMSE1
 70
     0
  9
$DIMSE2
 70
     0
  9
$DIMTAD
 70
     1
  9
$DIMZIN
 70
     8
  9
$DIMBLK
  1

  9
$DIMASO
 70
     1
  9
$DIMSHO
 70
     1
  9
$DIMPOST
  1

  9
$DIMAPOST
  1

  9
$DIMALT
 70
     0
  9
$DIMALTD
 70
     3
  9
$DIMALTF
 40
0.03937007874016
  9
$DIMLFAC
 40
1.0
  9
$DIMTOFL
 70
     1
  9
$DIMTVP
 40
0.0
  9
$DIMTIX
 70
     0
  9
$DIMSOXD
 70
     0
  9
$DIMSAH
 70
     0
  9
$DIMBLK1
  1

  9
$DIMBLK2
  1

  9
$DIMSTYLE
  2
ISO-25
  9
$DIMCLRD
 70
     0
  9
$DIMCLRE
 70
     0
  9
$DIMCLRT
 70
     0
  9
$DIMTFAC
 40
1.0
  9
$DIMGAP
 40
0.625
  9
$DIMJUST
 70
     0
  9
$DIMSD1
 70
     0
  9
$DIMSD2
 70
     0
  9
$DIMTOLJ
 70
     0
  9
$DIMTZIN
 70
     8
  9
$DIMALTZ
 70
     0
  9
$DIMALTTZ
 70
     0
  9
$DIMFIT
 70
     3
  9
$DIMUPT
 70
     0
  9
$DIMUNIT
 70
     2
  9
$DIMDEC
 70
     2
  9
$DIMTDEC
 70
     2
  9
$DIMALTU
 70
     2
  9
$DIMALTTD
 70
     3
  9
$DIMTXSTY
  7
STANDARD
  9
$DIMAUNIT
 70
     0
  9
$LUNITS
 70
     2
  9
$LUPREC
 70
     4
  9
$SKETCHINC
 40
1.0
  9
$FILLETRAD
 40
10.0
  9
$AUNITS
 70
     0
  9
$AUPREC
 70
     0
  9
$MENU
  1
.
  9
$ELEVATION
 40
0.0
  9
$PELEVATION
 40
0.0
  9
$THICKNESS
 40
0.0
  9
$LIMCHECK
 70
     0
  9
$CHAMFERA
 40
10.0
  9
$CHAMFERB
 40
10.0
  9
$CHAMFERC
 40
20.0
  9
$CHAMFERD
 40
0.0
  9
$SKPOLY
 70
     0
  9
$TDCREATE
 40
2458967.733977974
  9
$TDUPDATE
 40
2458967.733978322
  9
$TDINDWG
 40
0.0000000116
  9
$TDUSRTIMER
 40
0.0000000116
  9
$USRTIMER
 70
     1
  9
$ANGBASE
 50
0.0
  9
$ANGDIR
 70
     0
  9
$PDMODE
 70
     0
  9
$PDSIZE
 40
0.0
  9
$PLINEWID
 40
0.0
  9
$COORDS
 70
     1
  9
$SPLFRAME
 70
     0
  9
$SPLINETYPE
 70
     6
  9
$SPLINESEGS
 70
     8
  9
$ATTDIA
 70
     0
  9
$ATTREQ
 70
     1
  9
$HANDLING
 70
     1
  9
$HANDSEED
  5
488
  9
$SURFTAB1
 70
     6
  9
$SURFTAB2
 70
     6
  9
$SURFTYPE
 70
     6
  9
$SURFU
 70
     6
  9
$SURFV
 70
     6
  9
$UCSNAME
  2

  9
$UCSORG
 10
0.0
 20
0.0
 30
0.0
  9
$UCSXDIR
 10
1.0
 20
0.0
 30
0.0
  9
$UCSYDIR
 10
0.0
 20
1.0
 30
0.0
  9
$PUCSNAME
  2

  9
$PUCSORG
 10
0.0
 20
0.0
 30
0.0
  9
$PUCSXDIR
 10
1.0
 20
0.0
 30
0.0
  9
$PUCSYDIR
 10
0.0
 20
1.0
 30
0.0
  9
$USERI1
 70
     0
  9
$USERI2
 70
     0
  9
$USERI3
 70
     0
  9
$USERI4
 70
     0
  9
$USERI5
 70
     0
  9
$USERR1
 40
0.0
  9
$USERR2
 40
0.0
  9
$USERR3
 40
0.0
  9
$USERR4
 40
0.0
  9
$USERR5
 40
0.0
  9
$WORLDVIEW
 70
     1
  9
$SHADEDGE
 70
     3
  9
$SHADEDIF
 70
    70
  9
$TILEMODE
 70
     1
  9
$MAXACTVP
 70
    64
  9
$PINSBASE
 10
0.0
 20
0.0
 30
0.0
  9
$PLIMCHECK
 70
     0
  9
$PEXTMIN
 10
1.000000000000000E+20
 20
1.000000000000000E+20
 30
1.000000000000000E+20
  9
$PEXTMAX
 10
-1.000000000000000E+20
 20
-1.000000000000000E+20
 30
-1.000000000000000E+20
  9
$PLIMMIN
 10
0.0
 20
0.0
  9
$PLIMMAX
 10
420.0
 20
297.0
  9
$UNITMODE
 70
     0
  9
$VISRETAIN
 70
     1
  9
$PLINEGEN
 70
     0
  9
$PSLTSCALE
 70
     1
  9
$TREEDEPTH
 70
  3020
  9
$PICKSTYLE
 70
     1
  9
$CMLSTYLE
  2
STANDARD
  9
$CMLJUST
 70
     0
  9
$CMLSCALE
 40
20.0
  9
$PROXYGRAPHICS
 70
     1
  9
$MEASUREMENT
 70
     1
  0
ENDSEC
  0
SECTION
  2
CLASSES
  0
CLASS
  1
ACDBDICTIONARYWDFLT
  2
AcDbDictionaryWithDefault
  3
ObjectDBX Classes
 90
        0
280
     0
281
     0
  0
CLASS
  1
VISUALSTYLE
  2
AcDbVisualStyle
  3
ObjectDBX Classes
 90
     4095
280
     0
281
     0
  0
CLASS
  1
MATERIAL
  2
AcDbMaterial
  3
ObjectDBX Classes
 90
     1153
280
     0
281
     0
  0
CLASS
  1
SUN
  2
AcDbSun
  3
SCENEOE
 90
     1024
280
     0
281
     0
  0
CLASS
  1
DICTIONARYVAR
  2
AcDbDictionaryVar
  3
ObjectDBX Classes
 90
        0
280
     0
281
     0
  0
CLASS
  1
XRECORD
  2
AcDbXrecord
  3
AutoCAD 2000
 90
        0
280
     0
281
     0
  0
CLASS
  1
LWPOLYLINE
  2
AcDbPolyline
  3
AutoCAD 2000
 90
        0
280
     0
281
     1
  0
CLASS
  1
HATCH
  2
AcDbHatch
  3
AutoCAD 2000
 90
        0
280
     0
281
     1
  0
CLASS
  1
ACDBPLACEHOLDER
  2
AcDbPlaceHolder
  3
ObjectDBX Classes
 90
        0
280
     0
281
     0
  0
CLASS
  1
LAYOUT
  2
AcDbLayout
  3
ObjectDBX Classes
 90
        0
280
     0
281
     0
  0
ENDSEC
  0
SECTION
  2
TABLES
  0
TABLE
  2
VPORT
  5
8
330
0
100
AcDbSymbolTable
 70
     1
  0
VPORT
  5
29
330
8
100
AcDbSymbolTableRecord
100
AcDbViewportTableRecord
  2
*ACTIVE
 70
     0
 10
0.0
 20
0.0
 11
1.0
 21
1.0
 12
108.4000000000254
 22
149.3
 13
0.0
 23
0.0
 14
10.0
 24
10.0
 15
10.0
 25
10.0
 16
0.0
 26
0.0
 36
1.0
 17
0.0
 27
0.0
 37
0.0
 40
280.0000000000001
 41
0.6500000000000017
 42
50.0
 43
0.0
 44
0.0
 50
0.0
 51
0.0
 71
     0
 72
  1000
 73
     1
 74
     3
 75
     0
 76
     0
 77
     0
 78
     0
  0
ENDTAB
  0
TABLE
  2
LTYPE
  5
5
330
0
100
AcDbSymbolTable
 70
     7
  0
LTYPE
  5
14
330
5
100
AcDbSymbolTableRecord
100
AcDbLinetypeTableRecord
  2
BYBLOCK
 70
     0
  3

 72
    65
 73
     0
 40
0.0
  0
LTYPE
  5
15
330
5
100
AcDbSymbolTableRecord
100
AcDbLinetypeTableRecord
  2
BYLAYER
 70
     0
  3

 72
    65
 73
     0
 40
0.0
  0
LTYPE
  5
16
330
5
100
AcDbSymbolTableRecord
100
AcDbLinetypeTableRecord
  2
CONTINUOUS
 70
     0
  3
Solid line
 72
    65
 73
     0
 40
0.0
  0
LTYPE
  5
40
330
5
100
AcDbSymbolTableRecord
100
AcDbLinetypeTableRecord
  2
EXLTYPE1
 70
     0
  3
破線
 72
    65
 73
     2
 40
3.0
 49
2.0
 74
     0
 49
-1.0
 74
     0
  0
LTYPE
  5
41
330
5
100
AcDbSymbolTableRecord
100
AcDbLinetypeTableRecord
  2
EXLTYPE2
 70
     0
  3
点線
 72
    65
 73
     2
 40
2.0
 49
1.0
 74
     0
 49
-1.0
 74
     0
  0
LTYPE
  5
42
330
5
100
AcDbSymbolTableRecord
100
AcDbLinetypeTableRecord
  2
EXLTYPE3
 70
     0
  3
一点鎖線
 72
    65
 73
     4
 40
10.0
 49
7.0
 74
     0
 49
-1.0
 74
     0
 49
1.0
 74
     0
 49
-1.0
 74
     0
  0
LTYPE
  5
43
330
5
100
AcDbSymbolTableRecord
100
AcDbLinetypeTableRecord
  2
EXLTYPE4
 70
     0
  3
二点鎖線
 72
    65
 73
     6
 40
12.0
 49
7.0
 74
     0
 49
-1.0
 74
     0
 49
1.0
 74
     0
 49
-1.0
 74
     0
 49
1.0
 74
     0
 49
-1.0
 74
     0
  0
LTYPE
  5
44
330
5
100
AcDbSymbolTableRecord
100
AcDbLinetypeTableRecord
  2
EXLTYPE5
 70
     0
  3
三点鎖線
 72
    65
 73
     8
 40
37.0
 49
30.0
 74
     0
 49
-1.0
 74
     0
 49
1.0
 74
     0
 49
-1.0
 74
     0
 49
1.0
 74
     0
 49
-1.0
 74
     0
 49
1.0
 74
     0
 49
-1.0
 74
     0
  0
LTYPE
  5
45
330
5
100
AcDbSymbolTableRecord
100
AcDbLinetypeTableRecord
  2
EXLTYPE6
 70
     0
  3
四点鎖線
 72
    65
 73
    10
 40
39.0
 49
30.0
 74
     0
 49
-1.0
 74
     0
 49
1.0
 74
     0
 49
-1.0
 74
     0
 49
1.0
 74
     0
 49
-1.0
 74
     0
 49
1.0
 74
     0
 49
-1.0
 74
     0
 49
1.0
 74
     0
 49
-1.0
 74
     0
  0
ENDTAB
  0
TABLE
  2
LAYER
  5
2
330
0
100
AcDbSymbolTable
 70
     7
  0
LAYER
  5
10
330
2
100
AcDbSymbolTableRecord
100
AcDbLayerTableRecord
  2
0
 70
     0
 62
     7
  6
CONTINUOUS
  0
LAYER
  5
48
330
2
100
AcDbSymbolTableRecord
100
AcDbLayerTableRecord
  2
枠_表
 70
     0
 62
     7
  6
CONTINUOUS
  0
LAYER
  5
49
330
2
100
AcDbSymbolTableRecord
100
AcDbLayerTableRecord
  2
化粧台
 70
     0
 62
     7
  6
CONTINUOUS
  0
LAYER
  5
4A
330
2
100
AcDbSymbolTableRecord
100
AcDbLayerTableRecord
  2
鏡台
 70
     0
 62
     7
  6
CONTINUOUS
  0
LAYER
  5
4B
330
2
100
AcDbSymbolTableRecord
100
AcDbLayerTableRecord
  2
付属金具
 70
     0
 62
     7
  6
CONTINUOUS
  0
LAYER
  5
4C
330
2
100
AcDbSymbolTableRecord
100
AcDbLayerTableRecord
  2
寸法
 70
     0
 62
     7
  6
CONTINUOUS
  0
LAYER
  5
320
330
2
100
AcDbSymbolTableRecord
100
AcDbLayerTableRecord
  2
DEFPOINTS
 70
     0
 62
     7
  6
CONTINUOUS
  0
ENDTAB
  0
TABLE
  2
STYLE
  5
3
330
0
100
AcDbSymbolTable
 70
     5
  0
STYLE
  5
11
330
3
100
AcDbSymbolTableRecord
100
AcDbTextStyleTableRecord
  2
STANDARD
 70
     0
 40
0.0
 41
1.0
 50
0.0
 71
     0
 42
2.5
  3
monotxt
  4
extfont
  0
STYLE
  5
46
330
3
100
AcDbSymbolTableRecord
100
AcDbTextStyleTableRecord
  2
EXCADSTD
 70
     0
 40
0.0
 41
1.0
 50
0.0
 71
     0
 42
0.2
  3
monotxt
  4
extfont
  0
STYLE
  5
47
330
3
100
AcDbSymbolTableRecord
100
AcDbTextStyleTableRecord
  2
EXCADVERT
 70
     4
 40
0.0
 41
1.0
 50
0.0
 71
     0
 42
0.286885
  3
monotxt
  4
extfont
  0
STYLE
  5
135
330
3
100
AcDbSymbolTableRecord
100
AcDbTextStyleTableRecord
  2
EXCADTTF1
 70
     0
 40
0.0
 41
1.0
 50
0.0
 71
     0
 42
0.2
  3
MSGOTHIC.TTC
  4

1001
ACAD
1000
MS Gothic
1071
    32817
  0
STYLE
  5
31E
330
3
100
AcDbSymbolTableRecord
100
AcDbTextStyleTableRecord
  2
EXCADDIM1
 70
     0
 40
0.0
 41
0.84
 50
0.0
 71
     0
 42
0.2
  3
monotxt
  4
extfont
  0
ENDTAB
  0
TABLE
  2
VIEW
  5
6
330
0
100
AcDbSymbolTable
 70
     0
  0
ENDTAB
  0
TABLE
  2
UCS
  5
7
330
0
100
AcDbSymbolTable
 70
     0
  0
ENDTAB
  0
TABLE
  2
APPID
  5
9
330
0
100
AcDbSymbolTable
 70
     1
  0
APPID
  5
12
330
9
100
AcDbSymbolTableRecord
100
AcDbRegAppTableRecord
  2
ACAD
 70
     0
  0
ENDTAB
  0
TABLE
  2
DIMSTYLE
  5
A
330
0
100
AcDbSymbolTable
 70
     1
  0
DIMSTYLE
105
27
102
{ACAD_REACTORS
330
31F
330
32C
330
339
330
346
330
353
330
361
330
36E
330
37B
330
388
330
395
330
3A1
330
3AE
330
3BA
330
3C6
330
3D2
330
3DF
330
3EB
330
3F6
330
402
330
40F
330
41C
330
428
330
434
330
43F
330
44E
102
}
330
A
100
AcDbSymbolTableRecord
100
AcDbDimStyleTableRecord
  2
ISO-25
 70
     0
  3

  4

  5

  6

  7

 40
1.0
 41
2.5
 42
0.625
 43
3.75
 44
1.25
 45
0.0
 46
0.0
 47
0.0
 48
0.0
140
2.5
141
2.5
142
0.0
143
0.03937007874016
144
1.0
145
0.0
146
1.0
147
0.625
 71
     0
 72
     0
 73
     0
 74
     0
 75
     0
 76
     0
 77
     1
 78
     8
170
     0
171
     3
172
     1
173
     0
174
     0
175
     0
176
     0
177
     0
178
     0
270
     2
271
     2
272
     2
273
     2
274
     3
340
11
275
     0
280
     0
281
     0
282
     0
283
     0
284
     8
285
     0
286
     0
287
     5
288
     0
  0
ENDTAB
  0
TABLE
  2
BLOCK_RECORD
  5
1
330
0
100
AcDbSymbolTable
 70
    40
  0
BLOCK_RECORD
  5
1F
330
1
100
AcDbSymbolTableRecord
100
AcDbBlockTableRecord
  2
*MODEL_SPACE
  0
BLOCK_RECORD
  5
1B
330
1
100
AcDbSymbolTableRecord
100
AcDbBlockTableRecord
  2
*PAPER_SPACE
  0
BLOCK_RECORD
  5
4D
330
1
100
AcDbSymbolTableRecord
100
AcDbBlockTableRecord
  2
EX_NORM
  0
BLOCK_RECORD
  5
50
330
1
100
AcDbSymbolTableRecord
100
AcDbBlockTableRecord
  2
EX_BNORM
  0
BLOCK_RECORD
  5
53
330
1
100
AcDbSymbolTableRecord
100
AcDbBlockTableRecord
  2
EX_BCIR
  0
BLOCK_RECORD
  5
56
330
1
100
AcDbSymbolTableRecord
100
AcDbBlockTableRecord
  2
EX_RCIVIL
  0
BLOCK_RECORD
  5
59
330
1
100
AcDbSymbolTableRecord
100
AcDbBlockTableRecord
  2
EX_SLANT
  0
BLOCK_RECORD
  5
5C
330
1
100
AcDbSymbolTableRecord
100
AcDbBlockTableRecord
  2
EX_NONE
  0
BLOCK_RECORD
  5
5F
330
1
100
AcDbSymbolTableRecord
100
AcDbBlockTableRecord
  2
EX_CIVIL
  0
BLOCK_RECORD
  5
62
330
1
100
AcDbSymbolTableRecord
100
AcDbBlockTableRecord
  2
EX_WCIR
  0
BLOCK_RECORD
  5
65
330
1
100
AcDbSymbolTableRecord
100
AcDbBlockTableRecord
  2
EX_WCIR2
  0
BLOCK_RECORD
  5
68
330
1
100
AcDbSymbolTableRecord
100
AcDbBlockTableRecord
  2
EX_WNORM
  0
BLOCK_RECORD
  5
6B
330
1
100
AcDbSymbolTableRecord
100
AcDbBlockTableRecord
  2
EX_NNORM
  0
BLOCK_RECORD
  5
6E
330
1
100
AcDbSymbolTableRecord
100
AcDbBlockTableRecord
  2
EX_BBOX
  0
BLOCK_RECORD
  5
71
330
1
100
AcDbSymbolTableRecord
100
AcDbBlockTableRecord
  2
EX_WBOX
  0
BLOCK_RECORD
  5
74
330
1
100
AcDbSymbolTableRecord
100
AcDbBlockTableRecord
  2
EX_INTEGRAL
  0
BLOCK_RECORD
  5
321
330
1
100
AcDbSymbolTableRecord
100
AcDbBlockTableRecord
  2
*D15
  0
BLOCK_RECORD
  5
32D
330
1
100
AcDbSymbolTableRecord
100
AcDbBlockTableRecord
  2
*D16
  0
BLOCK_RECORD
  5
33A
330
1
100
AcDbSymbolTableRecord
100
AcDbBlockTableRecord
  2
*D17
  0
BLOCK_RECORD
  5
347
330
1
100
AcDbSymbolTableRecord
100
AcDbBlockTableRecord
  2
*D18
  0
BLOCK_RECORD
  5
354
330
1
100
AcDbSymbolTableRecord
100
AcDbBlockTableRecord
  2
*D19
  0
BLOCK_RECORD
  5
362
330
1
100
AcDbSymbolTableRecord
100
AcDbBlockTableRecord
  2
*D20
  0
BLOCK_RECORD
  5
36F
330
1
100
AcDbSymbolTableRecord
100
AcDbBlockTableRecord
  2
*D21
  0
BLOCK_RECORD
  5
37C
330
1
100
AcDbSymbolTableRecord
100
AcDbBlockTableRecord
  2
*D22
  0
BLOCK_RECORD
  5
389
330
1
100
AcDbSymbolTableRecord
100
AcDbBlockTableRecord
  2
*D23
  0
BLOCK_RECORD
  5
396
330
1
100
AcDbSymbolTableRecord
100
AcDbBlockTableRecord
  2
*D24
  0
BLOCK_RECORD
  5
3A2
330
1
100
AcDbSymbolTableRecord
100
AcDbBlockTableRecord
  2
*D25
  0
BLOCK_RECORD
  5
3AF
330
1
100
AcDbSymbolTableRecord
100
AcDbBlockTableRecord
  2
*D26
  0
BLOCK_RECORD
  5
3BB
330
1
100
AcDbSymbolTableRecord
100
AcDbBlockTableRecord
  2
*D27
  0
BLOCK_RECORD
  5
3C7
330
1
100
AcDbSymbolTableRecord
100
AcDbBlockTableRecord
  2
*D28
  0
BLOCK_RECORD
  5
3D3
330
1
100
AcDbSymbolTableRecord
100
AcDbBlockTableRecord
  2
*D29
  0
BLOCK_RECORD
  5
3E0
330
1
100
AcDbSymbolTableRecord
100
AcDbBlockTableRecord
  2
*D30
  0
BLOCK_RECORD
  5
3EC
330
1
100
AcDbSymbolTableRecord
100
AcDbBlockTableRecord
  2
*D31
  0
BLOCK_RECORD
  5
3F7
330
1
100
AcDbSymbolTableRecord
100
AcDbBlockTableRecord
  2
*D32
  0
BLOCK_RECORD
  5
403
330
1
100
AcDbSymbolTableRecord
100
AcDbBlockTableRecord
  2
*D33
  0
BLOCK_RECORD
  5
410
330
1
100
AcDbSymbolTableRecord
100
AcDbBlockTableRecord
  2
*D34
  0
BLOCK_RECORD
  5
41D
330
1
100
AcDbSymbolTableRecord
100
AcDbBlockTableRecord
  2
*D35
  0
BLOCK_RECORD
  5
429
330
1
100
AcDbSymbolTableRecord
100
AcDbBlockTableRecord
  2
*D36
  0
BLOCK_RECORD
  5
435
330
1
100
AcDbSymbolTableRecord
100
AcDbBlockTableRecord
  2
*D37
  0
BLOCK_RECORD
  5
440
330
1
100
AcDbSymbolTableRecord
100
AcDbBlockTableRecord
  2
*D38
  0
BLOCK_RECORD
  5
44F
330
1
100
AcDbSymbolTableRecord
100
AcDbBlockTableRecord
  2
*D39
  0
ENDTAB
  0
ENDSEC
  0
SECTION
  2
BLOCKS
  0
BLOCK
  5
20
330
1F
100
AcDbEntity
  8
0
100
AcDbBlockBegin
  2
*MODEL_SPACE
 70
     0
 10
0.0
 20
0.0
 30
0.0
  3
*MODEL_SPACE
  1

  0
ENDBLK
  5
21
330
1F
100
AcDbEntity
  8
0
100
AcDbBlockEnd
  0
BLOCK
  5
1C
330
1B
100
AcDbEntity
 67
     1
  8
0
100
AcDbBlockBegin
  2
*PAPER_SPACE
 70
     0
 10
0.0
 20
0.0
 30
0.0
  3
*PAPER_SPACE
  1

  0
ENDBLK
  5
1D
330
1B
100
AcDbEntity
 67
     1
  8
0
100
AcDbBlockEnd
  0
BLOCK
  5
4E
330
4D
100
AcDbEntity
  8
0
100
AcDbBlockBegin
  2
EX_NORM
 70
     0
 10
0.0
 20
0.0
 30
0.0
  3
EX_NORM
  1

  0
LINE
  5
77
330
4D
100
AcDbEntity
  8
0
  6
CONTINUOUS
 62
     0
100
AcDbLine
 10
0.0
 20
0.0
 30
0.0
 11
-1.0
 21
0.0
 31
0.0
  0
LINE
  5
78
330
4D
100
AcDbEntity
  8
0
  6
CONTINUOUS
 62
     0
100
AcDbLine
 10
0.0
 20
0.0
 30
0.0
 11
-1.0
 21
0.166666667
 31
0.0
  0
LINE
  5
79
330
4D
100
AcDbEntity
  8
0
  6
CONTINUOUS
 62
     0
100
AcDbLine
 10
0.0
 20
0.0
 30
0.0
 11
-1.0
 21
-0.166666667
 31
0.0
  0
ENDBLK
  5
4F
330
4D
100
AcDbEntity
  8
0
100
AcDbBlockEnd
  0
BLOCK
  5
51
330
50
100
AcDbEntity
  8
0
100
AcDbBlockBegin
  2
EX_BNORM
 70
     0
 10
0.0
 20
0.0
 30
0.0
  3
EX_BNORM
  1

  0
LINE
  5
7A
330
50
100
AcDbEntity
  8
0
  6
CONTINUOUS
 62
     0
100
AcDbLine
 10
0.0
 20
0.0
 30
0.0
 11
-1.0
 21
0.0
 31
0.0
  0
LINE
  5
7B
330
50
100
AcDbEntity
  8
0
  6
CONTINUOUS
 62
     0
100
AcDbLine
 10
0.0
 20
0.0
 30
0.0
 11
-1.0
 21
0.166666667
 31
0.0
  0
LINE
  5
7C
330
50
100
AcDbEntity
  8
0
  6
CONTINUOUS
 62
     0
100
AcDbLine
 10
0.0
 20
0.0
 30
0.0
 11
-1.0
 21
-0.166666667
 31
0.0
  0
LINE
  5
7D
330
50
100
AcDbEntity
  8
0
  6
CONTINUOUS
 62
     0
100
AcDbLine
 10
0.0
 20
0.0
 30
0.0
 11
-1.0
 21
0.083333333
 31
0.0
  0
LINE
  5
7E
330
50
100
AcDbEntity
  8
0
  6
CONTINUOUS
 62
     0
100
AcDbLine
 10
0.0
 20
0.0
 30
0.0
 11
-1.0
 21
-0.083333333
 31
0.0
  0
LINE
  5
7F
330
50
100
AcDbEntity
  8
0
  6
CONTINUOUS
 62
     0
100
AcDbLine
 10
-1.0
 20
0.166666667
 30
0.0
 11
-1.0
 21
-0.166666667
 31
0.0
  0
ENDBLK
  5
52
330
50
100
AcDbEntity
  8
0
100
AcDbBlockEnd
  0
BLOCK
  5
54
330
53
100
AcDbEntity
  8
0
100
AcDbBlockBegin
  2
EX_BCIR
 70
     0
 10
0.0
 20
0.0
 30
0.0
  3
EX_BCIR
  1

  0
LINE
  5
80
330
53
100
AcDbEntity
  8
0
  6
CONTINUOUS
 62
     0
100
AcDbLine
 10
0.0
 20
0.0
 30
0.0
 11
-1.0
 21
0.0
 31
0.0
  0
CIRCLE
  5
81
330
53
100
AcDbEntity
  8
0
  6
CONTINUOUS
 62
     0
100
AcDbCircle
 10
0.0
 20
0.0
 30
0.0
 40
0.5
  0
CIRCLE
  5
82
330
53
100
AcDbEntity
  8
0
  6
CONTINUOUS
 62
     0
100
AcDbCircle
 10
0.0
 20
0.0
 30
0.0
 40
0.25
  0
ENDBLK
  5
55
330
53
100
AcDbEntity
  8
0
100
AcDbBlockEnd
  0
BLOCK
  5
57
330
56
100
AcDbEntity
  8
0
100
AcDbBlockBegin
  2
EX_RCIVIL
 70
     0
 10
0.0
 20
0.0
 30
0.0
  3
EX_RCIVIL
  1

  0
LINE
  5
83
330
56
100
AcDbEntity
  8
0
  6
CONTINUOUS
 62
     0
100
AcDbLine
 10
0.0
 20
0.0
 30
0.0
 11
-1.0
 21
0.0
 31
0.0
  0
LINE
  5
84
330
56
100
AcDbEntity
  8
0
  6
CONTINUOUS
 62
     0
100
AcDbLine
 10
-1.0
 20
-0.25
 30
0.0
 11
0.0
 21
-0.25
 31
0.0
  0
LINE
  5
85
330
56
100
AcDbEntity
  8
0
  6
CONTINUOUS
 62
     0
100
AcDbLine
 10
-1.0
 20
-0.125
 30
0.0
 11
0.0
 21
-0.125
 31
0.0
  0
ENDBLK
  5
58
330
56
100
AcDbEntity
  8
0
100
AcDbBlockEnd
  0
BLOCK
  5
5A
330
59
100
AcDbEntity
  8
0
100
AcDbBlockBegin
  2
EX_SLANT
 70
     0
 10
0.0
 20
0.0
 30
0.0
  3
EX_SLANT
  1

  0
LINE
  5
86
330
59
100
AcDbEntity
  8
0
  6
CONTINUOUS
 62
     0
100
AcDbLine
 10
0.0
 20
0.0
 30
0.0
 11
-1.0
 21
0.0
 31
0.0
  0
LINE
  5
87
330
59
100
AcDbEntity
  8
0
  6
CONTINUOUS
 62
     0
100
AcDbLine
 10
0.707106781
 20
0.707106781
 30
0.0
 11
-0.707106781
 21
-0.707106781
 31
0.0
  0
ENDBLK
  5
5B
330
59
100
AcDbEntity
  8
0
100
AcDbBlockEnd
  0
BLOCK
  5
5D
330
5C
100
AcDbEntity
  8
0
100
AcDbBlockBegin
  2
EX_NONE
 70
     0
 10
0.0
 20
0.0
 30
0.0
  3
EX_NONE
  1

  0
LINE
  5
88
330
5C
100
AcDbEntity
  8
0
  6
CONTINUOUS
 62
     0
100
AcDbLine
 10
0.0
 20
0.0
 30
0.0
 11
-1.0
 21
0.0
 31
0.0
  0
ENDBLK
  5
5E
330
5C
100
AcDbEntity
  8
0
100
AcDbBlockEnd
  0
BLOCK
  5
60
330
5F
100
AcDbEntity
  8
0
100
AcDbBlockBegin
  2
EX_CIVIL
 70
     0
 10
0.0
 20
0.0
 30
0.0
  3
EX_CIVIL
  1

  0
LINE
  5
89
330
5F
100
AcDbEntity
  8
0
  6
CONTINUOUS
 62
     0
100
AcDbLine
 10
0.0
 20
0.0
 30
0.0
 11
-1.0
 21
0.0
 31
0.0
  0
LINE
  5
8A
330
5F
100
AcDbEntity
  8
0
  6
CONTINUOUS
 62
     0
100
AcDbLine
 10
-1.0
 20
0.25
 30
0.0
 11
0.0
 21
0.25
 31
0.0
  0
LINE
  5
8B
330
5F
100
AcDbEntity
  8
0
  6
CONTINUOUS
 62
     0
100
AcDbLine
 10
-1.0
 20
0.125
 30
0.0
 11
0.0
 21
0.125
 31
0.0
  0
ENDBLK
  5
61
330
5F
100
AcDbEntity
  8
0
100
AcDbBlockEnd
  0
BLOCK
  5
63
330
62
100
AcDbEntity
  8
0
100
AcDbBlockBegin
  2
EX_WCIR
 70
     0
 10
0.0
 20
0.0
 30
0.0
  3
EX_WCIR
  1

  0
LINE
  5
8C
330
62
100
AcDbEntity
  8
0
  6
CONTINUOUS
 62
     0
100
AcDbLine
 10
0.0
 20
0.0
 30
0.0
 11
-1.0
 21
0.0
 31
0.0
  0
CIRCLE
  5
8D
330
62
100
AcDbEntity
  8
0
  6
CONTINUOUS
 62
     0
100
AcDbCircle
 10
0.0
 20
0.0
 30
0.0
 40
0.5
  0
ENDBLK
  5
64
330
62
100
AcDbEntity
  8
0
100
AcDbBlockEnd
  0
BLOCK
  5
66
330
65
100
AcDbEntity
  8
0
100
AcDbBlockBegin
  2
EX_WCIR2
 70
     0
 10
0.0
 20
0.0
 30
0.0
  3
EX_WCIR2
  1

  0
LINE
  5
8E
330
65
100
AcDbEntity
  8
0
  6
CONTINUOUS
 62
     0
100
AcDbLine
 10
-0.5
 20
0.0
 30
0.0
 11
-1.0
 21
0.0
 31
0.0
  0
CIRCLE
  5
8F
330
65
100
AcDbEntity
  8
0
  6
CONTINUOUS
 62
     0
100
AcDbCircle
 10
0.0
 20
0.0
 30
0.0
 40
0.5
  0
ENDBLK
  5
67
330
65
100
AcDbEntity
  8
0
100
AcDbBlockEnd
  0
BLOCK
  5
69
330
68
100
AcDbEntity
  8
0
100
AcDbBlockBegin
  2
EX_WNORM
 70
     0
 10
0.0
 20
0.0
 30
0.0
  3
EX_WNORM
  1

  0
LINE
  5
90
330
68
100
AcDbEntity
  8
0
  6
CONTINUOUS
 62
     0
100
AcDbLine
 10
-1.0
 20
0.0
 30
0.0
 11
-1.0
 21
0.0
 31
0.0
  0
LINE
  5
91
330
68
100
AcDbEntity
  8
0
  6
CONTINUOUS
 62
     0
100
AcDbLine
 10
0.0
 20
0.0
 30
0.0
 11
-1.0
 21
0.166666667
 31
0.0
  0
LINE
  5
92
330
68
100
AcDbEntity
  8
0
  6
CONTINUOUS
 62
     0
100
AcDbLine
 10
0.0
 20
0.0
 30
0.0
 11
-1.0
 21
-0.166666667
 31
0.0
  0
LINE
  5
93
330
68
100
AcDbEntity
  8
0
  6
CONTINUOUS
 62
     0
100
AcDbLine
 10
-1.0
 20
0.166666667
 30
0.0
 11
-1.0
 21
-0.166666667
 31
0.0
  0
ENDBLK
  5
6A
330
68
100
AcDbEntity
  8
0
100
AcDbBlockEnd
  0
BLOCK
  5
6C
330
6B
100
AcDbEntity
  8
0
100
AcDbBlockBegin
  2
EX_NNORM
 70
     0
 10
0.0
 20
0.0
 30
0.0
  3
EX_NNORM
  1

  0
LINE
  5
94
330
6B
100
AcDbEntity
  8
0
  6
CONTINUOUS
 62
     0
100
AcDbLine
 10
0.0
 20
0.0
 30
0.0
 11
-1.0
 21
0.0
 31
0.0
  0
LINE
  5
95
330
6B
100
AcDbEntity
  8
0
  6
CONTINUOUS
 62
     0
100
AcDbLine
 10
0.0
 20
0.0
 30
0.0
 11
-1.0
 21
0.166666667
 31
0.0
  0
LINE
  5
96
330
6B
100
AcDbEntity
  8
0
  6
CONTINUOUS
 62
     0
100
AcDbLine
 10
0.0
 20
0.0
 30
0.0
 11
-1.0
 21
-0.166666667
 31
0.0
  0
LINE
  5
97
330
6B
100
AcDbEntity
  8
0
  6
CONTINUOUS
 62
     0
100
AcDbLine
 10
-1.0
 20
0.166666667
 30
0.0
 11
-1.0
 21
-0.166666667
 31
0.0
  0
ENDBLK
  5
6D
330
6B
100
AcDbEntity
  8
0
100
AcDbBlockEnd
  0
BLOCK
  5
6F
330
6E
100
AcDbEntity
  8
0
100
AcDbBlockBegin
  2
EX_BBOX
 70
     0
 10
0.0
 20
0.0
 30
0.0
  3
EX_BBOX
  1

  0
LINE
  5
98
330
6E
100
AcDbEntity
  8
0
  6
CONTINUOUS
 62
     0
100
AcDbLine
 10
0.0
 20
0.0
 30
0.0
 11
-1.0
 21
0.0
 31
0.0
  0
LINE
  5
99
330
6E
100
AcDbEntity
  8
0
  6
CONTINUOUS
 62
     0
100
AcDbLine
 10
-0.5
 20
0.5
 30
0.0
 11
0.5
 21
0.5
 31
0.0
  0
LINE
  5
9A
330
6E
100
AcDbEntity
  8
0
  6
CONTINUOUS
 62
     0
100
AcDbLine
 10
0.5
 20
0.5
 30
0.0
 11
0.5
 21
-0.5
 31
0.0
  0
LINE
  5
9B
330
6E
100
AcDbEntity
  8
0
  6
CONTINUOUS
 62
     0
100
AcDbLine
 10
0.5
 20
-0.5
 30
0.0
 11
-0.5
 21
-0.5
 31
0.0
  0
LINE
  5
9C
330
6E
100
AcDbEntity
  8
0
  6
CONTINUOUS
 62
     0
100
AcDbLine
 10
-0.5
 20
-0.5
 30
0.0
 11
-0.5
 21
0.5
 31
0.0
  0
LINE
  5
9D
330
6E
100
AcDbEntity
  8
0
  6
CONTINUOUS
 62
     0
100
AcDbLine
 10
-0.25
 20
0.25
 30
0.0
 11
0.25
 21
0.25
 31
0.0
  0
LINE
  5
9E
330
6E
100
AcDbEntity
  8
0
  6
CONTINUOUS
 62
     0
100
AcDbLine
 10
0.25
 20
0.25
 30
0.0
 11
0.25
 21
-0.25
 31
0.0
  0
LINE
  5
9F
330
6E
100
AcDbEntity
  8
0
  6
CONTINUOUS
 62
     0
100
AcDbLine
 10
0.25
 20
-0.25
 30
0.0
 11
-0.25
 21
-0.25
 31
0.0
  0
LINE
  5
A0
330
6E
100
AcDbEntity
  8
0
  6
CONTINUOUS
 62
     0
100
AcDbLine
 10
-0.25
 20
-0.25
 30
0.0
 11
-0.25
 21
0.25
 31
0.0
  0
ENDBLK
  5
70
330
6E
100
AcDbEntity
  8
0
100
AcDbBlockEnd
  0
BLOCK
  5
72
330
71
100
AcDbEntity
  8
0
100
AcDbBlockBegin
  2
EX_WBOX
 70
     0
 10
0.0
 20
0.0
 30
0.0
  3
EX_WBOX
  1

  0
LINE
  5
A1
330
71
100
AcDbEntity
  8
0
  6
CONTINUOUS
 62
     0
100
AcDbLine
 10
-0.5
 20
0.0
 30
0.0
 11
-1.0
 21
0.0
 31
0.0
  0
LINE
  5
A2
330
71
100
AcDbEntity
  8
0
  6
CONTINUOUS
 62
     0
100
AcDbLine
 10
-0.5
 20
0.5
 30
0.0
 11
0.5
 21
0.5
 31
0.0
  0
LINE
  5
A3
330
71
100
AcDbEntity
  8
0
  6
CONTINUOUS
 62
     0
100
AcDbLine
 10
0.5
 20
0.5
 30
0.0
 11
0.5
 21
-0.5
 31
0.0
  0
LINE
  5
A4
330
71
100
AcDbEntity
  8
0
  6
CONTINUOUS
 62
     0
100
AcDbLine
 10
0.5
 20
-0.5
 30
0.0
 11
-0.5
 21
-0.5
 31
0.0
  0
LINE
  5
A5
330
71
100
AcDbEntity
  8
0
  6
CONTINUOUS
 62
     0
100
AcDbLine
 10
-0.5
 20
-0.5
 30
0.0
 11
-0.5
 21
0.5
 31
0.0
  0
ENDBLK
  5
73
330
71
100
AcDbEntity
  8
0
100
AcDbBlockEnd
  0
BLOCK
  5
75
330
74
100
AcDbEntity
  8
0
100
AcDbBlockBegin
  2
EX_INTEGRAL
 70
     0
 10
0.0
 20
0.0
 30
0.0
  3
EX_INTEGRAL
  1

  0
LINE
  5
A6
330
74
100
AcDbEntity
  8
0
  6
CONTINUOUS
 62
     0
100
AcDbLine
 10
0.0
 20
0.0
 30
0.0
 11
-1.0
 21
0.0
 31
0.0
  0
ARC
  5
A7
330
74
100
AcDbEntity
  8
0
  6
CONTINUOUS
 62
     0
100
AcDbCircle
 10
0.542115
 20
0.164992
 30
0.0
 40
0.56667
100
AcDbArc
 50
73.07249033629006
 51
196.9275130221199
  0
ARC
  5
A8
330
74
100
AcDbEntity
  8
0
  6
CONTINUOUS
 62
     0
100
AcDbCircle
 10
-0.542115
 20
-0.164992
 30
0.0
 40
0.56667
100
AcDbArc
 50
253.0724869220464
 51
16.9275130559125
  0
ENDBLK
  5
76
330
74
100
AcDbEntity
  8
0
100
AcDbBlockEnd
  0
BLOCK
  5
322
330
321
100
AcDbEntity
  8
0
100
AcDbBlockBegin
  2
*D15
 70
     1
 10
0.0
 20
0.0
 30
0.0
  3
*D15
  1

  0
LINE
  5
324
330
321
100
AcDbEntity
  8
寸法
  6
CONTINUOUS
 62
     3
100
AcDbLine
 10
1346.49999982156
 20
1618.5
 30
0.0
 11
1471.000000000387
 21
1618.5
 31
0.0
  0
LINE
  5
325
330
321
100
AcDbEntity
  8
寸法
  6
CONTINUOUS
 62
     3
100
AcDbLine
 10
1456.000000000387
 20
964.4999961853019
 30
0.0
 11
1456.000000000387
 21
1573.500003814697
 31
0.0
  0
INSERT
  5
326
330
321
100
AcDbEntity
  8
寸法
 62
     3
100
AcDbBlockReference
  2
EX_NORM
 10
1456.000000000387
 20
919.4999999999992
 30
0.0
 41
44.99999618530273
 42
44.99999618530273
 43
44.99999618530273
 50
270.0
  0
INSERT
  5
327
330
321
100
AcDbEntity
  8
寸法
 62
     3
100
AcDbBlockReference
  2
EX_NORM
 10
1456.000000000387
 20
1618.5
 30
0.0
 41
44.99999618530273
 42
44.99999618530273
 43
44.99999618530273
 50
90.0
  0
MTEXT
  5
328
330
321
100
AcDbEntity
  8
寸法
 62
     2
100
AcDbMText
 10
1420.750000089792
 20
1269.0
 30
0.0
 40
59.99999618530273
 41
0.0
 71
     5
 72
     1
  1
699
  7
EXCADDIM1
 11
0.0
 21
1.0
 31
0.0
  0
POINT
  5
329
330
321
100
AcDbEntity
  8
DEFPOINTS
 62
     0
100
AcDbPoint
 10
1334.000000000374
 20
919.4999999999991
 30
0.0
  0
POINT
  5
32A
330
321
100
AcDbEntity
  8
DEFPOINTS
 62
     0
100
AcDbPoint
 10
1336.000000000374
 20
1618.5
 30
0.0
  0
POINT
  5
32B
330
321
100
AcDbEntity
  8
DEFPOINTS
 62
     0
100
AcDbPoint
 10
1456.000000000387
 20
1618.5
 30
0.0
  0
ENDBLK
  5
323
330
321
100
AcDbEntity
  8
0
100
AcDbBlockEnd
  0
BLOCK
  5
32E
330
32D
100
AcDbEntity
  8
0
100
AcDbBlockBegin
  2
*D16
 70
     1
 10
0.0
 20
0.0
 30
0.0
  3
*D16
  1

  0
LINE
  5
330
330
32D
100
AcDbEntity
  8
寸法
  6
CONTINUOUS
 62
     3
100
AcDbLine
 10
961.0000000003781
 20
909.000000178813
 30
0.0
 11
961.0000000003781
 21
694.4999999999945
 31
0.0
  0
LINE
  5
331
330
32D
100
AcDbEntity
  8
寸法
  6
CONTINUOUS
 62
     3
100
AcDbLine
 10
1201.000000000376
 20
859.000000178693
 30
0.0
 11
1201.000000000376
 21
694.4999999999945
 31
0.0
  0
LINE
  5
332
330
32D
100
AcDbEntity
  8
寸法
  6
CONTINUOUS
 62
     3
100
AcDbLine
 10
1005.999996185681
 20
709.4999999999945
 30
0.0
 11
1156.000003815073
 21
709.4999999999945
 31
0.0
  0
INSERT
  5
333
330
32D
100
AcDbEntity
  8
寸法
 62
     3
100
AcDbBlockReference
  2
EX_NORM
 10
961.0000000003781
 20
709.4999999999945
 30
0.0
 41
44.99999618530273
 42
44.99999618530273
 43
44.99999618530273
 50
180.0
  0
INSERT
  5
334
330
32D
100
AcDbEntity
  8
寸法
 62
     3
100
AcDbBlockReference
  2
EX_NORM
 10
1201.000000000376
 20
709.4999999999945
 30
0.0
 41
44.99999618530273
 42
44.99999618530273
 43
44.99999618530273
  0
MTEXT
  5
335
330
32D
100
AcDbEntity
  8
寸法
 62
     2
100
AcDbMText
 10
728.5000000003781
 20
744.7499999105876
 30
0.0
 40
59.99999618530273
 41
0.0
 71
     5
 72
     1
  1
240（床排水）
  7
EXCADDIM1
  0
POINT
  5
336
330
32D
100
AcDbEntity
  8
DEFPOINTS
 62
     0
100
AcDbPoint
 10
961.0000000003781
 20
919.4999999999991
 30
0.0
  0
POINT
  5
337
330
32D
100
AcDbEntity
  8
DEFPOINTS
 62
     0
100
AcDbPoint
 10
1201.000000000376
 20
869.499999999879
 30
0.0
  0
POINT
  5
338
330
32D
100
AcDbEntity
  8
DEFPOINTS
 62
     0
100
AcDbPoint
 10
1201.000000000376
 20
709.4999999999945
 30
0.0
  0
ENDBLK
  5
32F
330
32D
100
AcDbEntity
  8
0
100
AcDbBlockEnd
  0
BLOCK
  5
33B
330
33A
100
AcDbEntity
  8
0
100
AcDbBlockBegin
  2
*D17
 70
     1
 10
0.0
 20
0.0
 30
0.0
  3
*D17
  1

  0
LINE
  5
33D
330
33A
100
AcDbEntity
  8
寸法
  6
CONTINUOUS
 62
     3
100
AcDbLine
 10
796.0000000003776
 20
901.0000001788139
 30
0.0
 11
796.0000000003776
 21
784.4999999999945
 31
0.0
  0
LINE
  5
33E
330
33A
100
AcDbEntity
  8
寸法
  6
CONTINUOUS
 62
     3
100
AcDbLine
 10
1126.000000000376
 20
901.0000001788139
 30
0.0
 11
1126.000000000376
 21
784.4999999999945
 31
0.0
  0
LINE
  5
33F
330
33A
100
AcDbEntity
  8
寸法
  6
CONTINUOUS
 62
     3
100
AcDbLine
 10
840.9999961856803
 20
799.4999999999945
 30
0.0
 11
1081.000003815073
 21
799.4999999999945
 31
0.0
  0
INSERT
  5
340
330
33A
100
AcDbEntity
  8
寸法
 62
     3
100
AcDbBlockReference
  2
EX_NORM
 10
796.0000000003776
 20
799.4999999999945
 30
0.0
 41
44.99999618530273
 42
44.99999618530273
 43
44.99999618530273
 50
180.0
  0
INSERT
  5
341
330
33A
100
AcDbEntity
  8
寸法
 62
     3
100
AcDbBlockReference
  2
EX_NORM
 10
1126.000000000376
 20
799.4999999999945
 30
0.0
 41
44.99999618530273
 42
44.99999618530273
 43
44.99999618530273
  0
MTEXT
  5
342
330
33A
100
AcDbEntity
  8
寸法
 62
     2
100
AcDbMText
 10
563.5000000003777
 20
834.7499999105876
 30
0.0
 40
59.99999618530273
 41
0.0
 71
     5
 72
     1
  1
330（床給水）
  7
EXCADDIM1
  0
POINT
  5
343
330
33A
100
AcDbEntity
  8
DEFPOINTS
 62
     0
100
AcDbPoint
 10
796.0000000003776
 20
911.5
 30
0.0
  0
POINT
  5
344
330
33A
100
AcDbEntity
  8
DEFPOINTS
 62
     0
100
AcDbPoint
 10
1126.000000000376
 20
911.5
 30
0.0
  0
POINT
  5
345
330
33A
100
AcDbEntity
  8
DEFPOINTS
 62
     0
100
AcDbPoint
 10
1126.000000000376
 20
799.4999999999945
 30
0.0
  0
ENDBLK
  5
33C
330
33A
100
AcDbEntity
  8
0
100
AcDbBlockEnd
  0
BLOCK
  5
348
330
347
100
AcDbEntity
  8
0
100
AcDbBlockBegin
  2
*D18
 70
     1
 10
0.0
 20
0.0
 30
0.0
  3
*D18
  1

  0
LINE
  5
34A
330
347
100
AcDbEntity
  8
寸法
  6
CONTINUOUS
 62
     3
100
AcDbLine
 10
706.000000000358
 20
1485.200000178913
 30
0.0
 11
706.000000000358
 21
1208.500000000001
 31
0.0
  0
LINE
  5
34B
330
347
100
AcDbEntity
  8
寸法
  6
CONTINUOUS
 62
     3
100
AcDbLine
 10
1216.000000000376
 20
1485.200000178913
 30
0.0
 11
1216.000000000376
 21
1208.500000000001
 31
0.0
  0
LINE
  5
34C
330
347
100
AcDbEntity
  8
寸法
  6
CONTINUOUS
 62
     3
100
AcDbLine
 10
750.9999961856607
 20
1223.500000000001
 30
0.0
 11
1171.000003815073
 21
1223.500000000001
 31
0.0
  0
INSERT
  5
34D
330
347
100
AcDbEntity
  8
寸法
 62
     3
100
AcDbBlockReference
  2
EX_NORM
 10
706.000000000358
 20
1223.500000000001
 30
0.0
 41
44.99999618530273
 42
44.99999618530273
 43
44.99999618530273
 50
180.0
  0
INSERT
  5
34E
330
347
100
AcDbEntity
  8
寸法
 62
     3
100
AcDbBlockReference
  2
EX_NORM
 10
1216.000000000376
 20
1223.500000000001
 30
0.0
 41
44.99999618530273
 42
44.99999618530273
 43
44.99999618530273
  0
MTEXT
  5
34F
330
347
100
AcDbEntity
  8
寸法
 62
     2
100
AcDbMText
 10
961.000000000367
 20
1258.749999910594
 30
0.0
 40
59.99999618530273
 41
0.0
 71
     5
 72
     1
  1
510（壁固定）
  7
EXCADDIM1
  0
POINT
  5
350
330
347
100
AcDbEntity
  8
DEFPOINTS
 62
     0
100
AcDbPoint
 10
706.000000000358
 20
1495.700000000099
 30
0.0
  0
POINT
  5
351
330
347
100
AcDbEntity
  8
DEFPOINTS
 62
     0
100
AcDbPoint
 10
1216.000000000376
 20
1495.700000000099
 30
0.0
  0
POINT
  5
352
330
347
100
AcDbEntity
  8
DEFPOINTS
 62
     0
100
AcDbPoint
 10
1216.000000000376
 20
1223.500000000001
 30
0.0
  0
ENDBLK
  5
349
330
347
100
AcDbEntity
  8
0
100
AcDbBlockEnd
  0
BLOCK
  5
355
330
354
100
AcDbEntity
  8
0
100
AcDbBlockBegin
  2
*D19
 70
     1
 10
0.0
 20
0.0
 30
0.0
  3
*D19
  1

  0
LINE
  5
357
330
354
100
AcDbEntity
  8
寸法
  6
CONTINUOUS
 62
     3
100
AcDbLine
 10
2411.000000000378
 20
901.0000001788139
 30
0.0
 11
2411.000000000378
 21
694.4999999999945
 31
0.0
  0
LINE
  5
358
330
354
100
AcDbEntity
  8
寸法
  6
CONTINUOUS
 62
     3
100
AcDbLine
 10
2411.000000000378
 20
709.4999999999945
 30
0.0
 11
2491.000000000378
 21
709.4999999999945
 31
0.0
  0
LINE
  5
359
330
354
100
AcDbEntity
  8
寸法
  6
CONTINUOUS
 62
     3
100
AcDbLine
 10
2366.000003815075
 20
709.4999999999945
 30
0.0
 11
2321.000007629772
 21
709.4999999999945
 31
0.0
  0
LINE
  5
35A
330
354
100
AcDbEntity
  8
寸法
  6
CONTINUOUS
 62
     3
100
AcDbLine
 10
2535.999996185681
 20
709.4999999999945
 30
0.0
 11
2580.999992370983
 21
709.4999999999945
 31
0.0
  0
INSERT
  5
35B
330
354
100
AcDbEntity
  8
寸法
 62
     3
100
AcDbBlockReference
  2
EX_NORM
 10
2411.000000000378
 20
709.4999999999945
 30
0.0
 41
44.99999618530273
 42
44.99999618530273
 43
44.99999618530273
  0
INSERT
  5
35C
330
354
100
AcDbEntity
  8
寸法
 62
     3
100
AcDbBlockReference
  2
EX_NORM
 10
2491.000000000378
 20
709.4999999999945
 30
0.0
 41
44.99999618530273
 42
44.99999618530273
 43
44.99999618530273
 50
180.0
  0
MTEXT
  5
35D
330
354
100
AcDbEntity
  8
寸法
 62
     2
100
AcDbMText
 10
2701.000000000378
 20
744.7499999105876
 30
0.0
 40
59.99999618530273
 41
0.0
 71
     5
 72
     1
  1
80（床給水）
  7
EXCADDIM1
  0
POINT
  5
35E
330
354
100
AcDbEntity
  8
DEFPOINTS
 62
     0
100
AcDbPoint
 10
2411.000000000378
 20
911.5
 30
0.0
  0
POINT
  5
35F
330
354
100
AcDbEntity
  8
DEFPOINTS
 62
     0
100
AcDbPoint
 10
2491.000000000378
 20
919.4999999999991
 30
0.0
  0
POINT
  5
360
330
354
100
AcDbEntity
  8
DEFPOINTS
 62
     0
100
AcDbPoint
 10
2491.000000000378
 20
709.4999999999945
 30
0.0
  0
ENDBLK
  5
356
330
354
100
AcDbEntity
  8
0
100
AcDbBlockEnd
  0
BLOCK
  5
363
330
362
100
AcDbEntity
  8
0
100
AcDbBlockBegin
  2
*D20
 70
     1
 10
0.0
 20
0.0
 30
0.0
  3
*D20
  1

  0
LINE
  5
365
330
362
100
AcDbEntity
  8
寸法
  6
CONTINUOUS
 62
     3
100
AcDbLine
 10
2391.000000000378
 20
859.000000178693
 30
0.0
 11
2391.000000000378
 21
604.4999999999945
 31
0.0
  0
LINE
  5
366
330
362
100
AcDbEntity
  8
寸法
  6
CONTINUOUS
 62
     3
100
AcDbLine
 10
2491.000000000378
 20
909.000000178813
 30
0.0
 11
2491.000000000378
 21
604.4999999999945
 31
0.0
  0
LINE
  5
367
330
362
100
AcDbEntity
  8
寸法
  6
CONTINUOUS
 62
     3
100
AcDbLine
 10
2435.999996185681
 20
619.4999999999945
 30
0.0
 11
2446.000003815075
 21
619.4999999999945
 31
0.0
  0
INSERT
  5
368
330
362
100
AcDbEntity
  8
寸法
 62
     3
100
AcDbBlockReference
  2
EX_NORM
 10
2391.000000000378
 20
619.4999999999945
 30
0.0
 41
44.99999618530273
 42
44.99999618530273
 43
44.99999618530273
 50
180.0
  0
INSERT
  5
369
330
362
100
AcDbEntity
  8
寸法
 62
     3
100
AcDbBlockReference
  2
EX_NORM
 10
2491.000000000378
 20
619.4999999999945
 30
0.0
 41
44.99999618530273
 42
44.99999618530273
 43
44.99999618530273
  0
MTEXT
  5
36A
330
362
100
AcDbEntity
  8
寸法
 62
     2
100
AcDbMText
 10
2723.500000000378
 20
654.7499999105876
 30
0.0
 40
59.99999618530273
 41
0.0
 71
     5
 72
     1
  1
100（床排水）
  7
EXCADDIM1
  0
POINT
  5
36B
330
362
100
AcDbEntity
  8
DEFPOINTS
 62
     0
100
AcDbPoint
 10
2391.000000000378
 20
869.499999999879
 30
0.0
  0
POINT
  5
36C
330
362
100
AcDbEntity
  8
DEFPOINTS
 62
     0
100
AcDbPoint
 10
2491.000000000378
 20
919.4999999999991
 30
0.0
  0
POINT
  5
36D
330
362
100
AcDbEntity
  8
DEFPOINTS
 62
     0
100
AcDbPoint
 10
2491.000000000378
 20
619.4999999999945
 30
0.0
  0
ENDBLK
  5
364
330
362
100
AcDbEntity
  8
0
100
AcDbBlockEnd
  0
BLOCK
  5
370
330
36F
100
AcDbEntity
  8
0
100
AcDbBlockBegin
  2
*D21
 70
     1
 10
0.0
 20
0.0
 30
0.0
  3
*D21
  1

  0
LINE
  5
372
330
36F
100
AcDbEntity
  8
寸法
  6
CONTINUOUS
 62
     3
100
AcDbLine
 10
2501.499999821564
 20
919.4999999999991
 30
0.0
 11
2806.000000000389
 21
919.499999999999
 31
0.0
  0
LINE
  5
373
330
36F
100
AcDbEntity
  8
寸法
  6
CONTINUOUS
 62
     3
100
AcDbLine
 10
2534.000005543464
 20
1499.5
 30
0.0
 11
2806.000000000389
 21
1499.5
 31
0.0
  0
LINE
  5
374
330
36F
100
AcDbEntity
  8
寸法
  6
CONTINUOUS
 62
     3
100
AcDbLine
 10
2791.000000000389
 20
964.4999961853017
 30
0.0
 11
2791.000000000389
 21
1454.500003814697
 31
0.0
  0
INSERT
  5
375
330
36F
100
AcDbEntity
  8
寸法
 62
     3
100
AcDbBlockReference
  2
EX_NORM
 10
2791.000000000389
 20
919.499999999999
 30
0.0
 41
44.99999618530273
 42
44.99999618530273
 43
44.99999618530273
 50
270.0
  0
INSERT
  5
376
330
36F
100
AcDbEntity
  8
寸法
 62
     3
100
AcDbBlockReference
  2
EX_NORM
 10
2791.000000000389
 20
1499.5
 30
0.0
 41
44.99999618530273
 42
44.99999618530273
 43
44.99999618530273
 50
90.0
  0
MTEXT
  5
377
330
36F
100
AcDbEntity
  8
寸法
 62
     2
100
AcDbMText
 10
2755.750000089795
 20
1209.499999999998
 30
0.0
 40
59.99999618530273
 41
0.0
 71
     5
 72
     1
  1
580（壁固定）
  7
EXCADDIM1
 11
0.0
 21
1.0
 31
0.0
  0
POINT
  5
378
330
36F
100
AcDbEntity
  8
DEFPOINTS
 62
     0
100
AcDbPoint
 10
2491.000000000378
 20
919.4999999999991
 30
0.0
  0
POINT
  5
379
330
36F
100
AcDbEntity
  8
DEFPOINTS
 62
     0
100
AcDbPoint
 10
2523.500005722278
 20
1499.5
 30
0.0
  0
POINT
  5
37A
330
36F
100
AcDbEntity
  8
DEFPOINTS
 62
     0
100
AcDbPoint
 10
2791.000000000389
 20
1499.5
 30
0.0
  0
ENDBLK
  5
371
330
36F
100
AcDbEntity
  8
0
100
AcDbBlockEnd
  0
BLOCK
  5
37D
330
37C
100
AcDbEntity
  8
0
100
AcDbBlockBegin
  2
*D22
 70
     1
 10
0.0
 20
0.0
 30
0.0
  3
*D22
  1

  0
LINE
  5
37F
330
37C
100
AcDbEntity
  8
寸法
  6
CONTINUOUS
 62
     3
100
AcDbLine
 10
961.0000000003781
 20
3835.499999821186
 30
0.0
 11
961.0000000003781
 21
4020.0
 31
0.0
  0
LINE
  5
380
330
37C
100
AcDbEntity
  8
寸法
  6
CONTINUOUS
 62
     3
100
AcDbLine
 10
1161.000000000378
 20
3885.499999821186
 30
0.0
 11
1161.000000000378
 21
4020.0
 31
0.0
  0
LINE
  5
381
330
37C
100
AcDbEntity
  8
寸法
  6
CONTINUOUS
 62
     3
100
AcDbLine
 10
1005.999996185681
 20
4005.0
 30
0.0
 11
1116.000003815075
 21
4005.0
 31
0.0
  0
INSERT
  5
382
330
37C
100
AcDbEntity
  8
寸法
 62
     3
100
AcDbBlockReference
  2
EX_NORM
 10
961.0000000003781
 20
4005.0
 30
0.0
 41
44.99999618530273
 42
44.99999618530273
 43
44.99999618530273
 50
180.0
  0
INSERT
  5
383
330
37C
100
AcDbEntity
  8
寸法
 62
     3
100
AcDbBlockReference
  2
EX_NORM
 10
1161.000000000378
 20
4005.0
 30
0.0
 41
44.99999618530273
 42
44.99999618530273
 43
44.99999618530273
  0
MTEXT
  5
384
330
37C
100
AcDbEntity
  8
寸法
 62
     2
100
AcDbMText
 10
728.5000000003783
 20
4040.249999910593
 30
0.0
 40
59.99999618530273
 41
0.0
 71
     5
 72
     1
  1
200（壁排水）
  7
EXCADDIM1
  0
POINT
  5
385
330
37C
100
AcDbEntity
  8
DEFPOINTS
 62
     0
100
AcDbPoint
 10
961.0000000003781
 20
3825.0
 30
0.0
  0
POINT
  5
386
330
37C
100
AcDbEntity
  8
DEFPOINTS
 62
     0
100
AcDbPoint
 10
1161.000000000378
 20
3875.0
 30
0.0
  0
POINT
  5
387
330
37C
100
AcDbEntity
  8
DEFPOINTS
 62
     0
100
AcDbPoint
 10
1161.000000000378
 20
4005.0
 30
0.0
  0
ENDBLK
  5
37E
330
37C
100
AcDbEntity
  8
0
100
AcDbBlockEnd
  0
BLOCK
  5
38A
330
389
100
AcDbEntity
  8
0
100
AcDbBlockBegin
  2
*D23
 70
     1
 10
0.0
 20
0.0
 30
0.0
  3
*D23
  1

  0
LINE
  5
38C
330
389
100
AcDbEntity
  8
寸法
  6
CONTINUOUS
 62
     3
100
AcDbLine
 10
861.0000000003816
 20
3843.499999821186
 30
0.0
 11
861.0000000003816
 21
3930.0
 31
0.0
  0
LINE
  5
38D
330
389
100
AcDbEntity
  8
寸法
  6
CONTINUOUS
 62
     3
100
AcDbLine
 10
1061.000000000378
 20
3848.999999821186
 30
0.0
 11
1061.000000000378
 21
3930.0
 31
0.0
  0
LINE
  5
38E
330
389
100
AcDbEntity
  8
寸法
  6
CONTINUOUS
 62
     3
100
AcDbLine
 10
905.9999961856844
 20
3915.0
 30
0.0
 11
1016.000003815075
 21
3915.0
 31
0.0
  0
INSERT
  5
38F
330
389
100
AcDbEntity
  8
寸法
 62
     3
100
AcDbBlockReference
  2
EX_NORM
 10
861.0000000003816
 20
3915.0
 30
0.0
 41
44.99999618530273
 42
44.99999618530273
 43
44.99999618530273
 50
180.0
  0
INSERT
  5
390
330
389
100
AcDbEntity
  8
寸法
 62
     3
100
AcDbBlockReference
  2
EX_NORM
 10
1061.000000000378
 20
3915.0
 30
0.0
 41
44.99999618530273
 42
44.99999618530273
 43
44.99999618530273
  0
MTEXT
  5
391
330
389
100
AcDbEntity
  8
寸法
 62
     2
100
AcDbMText
 10
628.5000000003819
 20
3950.249999910593
 30
0.0
 40
59.99999618530273
 41
0.0
 71
     5
 72
     1
  1
200（壁給水）
  7
EXCADDIM1
  0
POINT
  5
392
330
389
100
AcDbEntity
  8
DEFPOINTS
 62
     0
100
AcDbPoint
 10
861.0000000003816
 20
3833.0
 30
0.0
  0
POINT
  5
393
330
389
100
AcDbEntity
  8
DEFPOINTS
 62
     0
100
AcDbPoint
 10
1061.000000000378
 20
3838.5
 30
0.0
  0
POINT
  5
394
330
389
100
AcDbEntity
  8
DEFPOINTS
 62
     0
100
AcDbPoint
 10
1061.000000000378
 20
3915.0
 30
0.0
  0
ENDBLK
  5
38B
330
389
100
AcDbEntity
  8
0
100
AcDbBlockEnd
  0
BLOCK
  5
397
330
396
100
AcDbEntity
  8
0
100
AcDbBlockBegin
  2
*D24
 70
     1
 10
0.0
 20
0.0
 30
0.0
  3
*D24
  1

  0
LINE
  5
399
330
396
100
AcDbEntity
  8
寸法
  6
CONTINUOUS
 62
     3
100
AcDbLine
 10
1346.49999982156
 20
3375.0
 30
0.0
 11
1471.000000000385
 21
3375.0
 31
0.0
  0
LINE
  5
39A
330
396
100
AcDbEntity
  8
寸法
  6
CONTINUOUS
 62
     3
100
AcDbLine
 10
1456.000000000385
 20
3780.000003814697
 30
0.0
 11
1456.000000000385
 21
3419.999996185303
 31
0.0
  0
INSERT
  5
39B
330
396
100
AcDbEntity
  8
寸法
 62
     3
100
AcDbBlockReference
  2
EX_NORM
 10
1456.000000000385
 20
3825.0
 30
0.0
 41
44.99999618530273
 42
44.99999618530273
 43
44.99999618530273
 50
90.0
  0
INSERT
  5
39C
330
396
100
AcDbEntity
  8
寸法
 62
     3
100
AcDbBlockReference
  2
EX_NORM
 10
1456.000000000385
 20
3375.0
 30
0.0
 41
44.99999618530273
 42
44.99999618530273
 43
44.99999618530273
 50
270.0
  0
MTEXT
  5
39D
330
396
100
AcDbEntity
  8
寸法
 62
     2
100
AcDbMText
 10
1420.750000089794
 20
3599.999999999999
 30
0.0
 40
59.99999618530273
 41
0.0
 71
     5
 72
     1
  1
450
  7
EXCADDIM1
 11
0.0
 21
1.0
 31
0.0
  0
POINT
  5
39E
330
396
100
AcDbEntity
  8
DEFPOINTS
 62
     0
100
AcDbPoint
 10
1336.000000000374
 20
3825.0
 30
0.0
  0
POINT
  5
39F
330
396
100
AcDbEntity
  8
DEFPOINTS
 62
     0
100
AcDbPoint
 10
1336.000000000374
 20
3375.0
 30
0.0
  0
POINT
  5
3A0
330
396
100
AcDbEntity
  8
DEFPOINTS
 62
     0
100
AcDbPoint
 10
1456.000000000385
 20
3375.0
 30
0.0
  0
ENDBLK
  5
398
330
396
100
AcDbEntity
  8
0
100
AcDbBlockEnd
  0
BLOCK
  5
3A3
330
3A2
100
AcDbEntity
  8
0
100
AcDbBlockBegin
  2
*D25
 70
     1
 10
0.0
 20
0.0
 30
0.0
  3
*D25
  1

  0
LINE
  5
3A5
330
3A2
100
AcDbEntity
  8
寸法
  6
CONTINUOUS
 62
     3
100
AcDbLine
 10
586.000000000378
 20
3364.500000178814
 30
0.0
 11
586.000000000378
 21
3100.0
 31
0.0
  0
LINE
  5
3A6
330
3A2
100
AcDbEntity
  8
寸法
  6
CONTINUOUS
 62
     3
100
AcDbLine
 10
1336.000000000374
 20
3364.500000178814
 30
0.0
 11
1336.000000000374
 21
3100.0
 31
0.0
  0
LINE
  5
3A7
330
3A2
100
AcDbEntity
  8
寸法
  6
CONTINUOUS
 62
     3
100
AcDbLine
 10
630.9999961856807
 20
3115.0
 30
0.0
 11
1291.000003815072
 21
3115.0
 31
0.0
  0
INSERT
  5
3A8
330
3A2
100
AcDbEntity
  8
寸法
 62
     3
100
AcDbBlockReference
  2
EX_NORM
 10
586.000000000378
 20
3115.0
 30
0.0
 41
44.99999618530273
 42
44.99999618530273
 43
44.99999618530273
 50
180.0
  0
INSERT
  5
3A9
330
3A2
100
AcDbEntity
  8
寸法
 62
     3
100
AcDbBlockReference
  2
EX_NORM
 10
1336.000000000374
 20
3115.0
 30
0.0
 41
44.99999618530273
 42
44.99999618530273
 43
44.99999618530273
  0
MTEXT
  5
3AA
330
3A2
100
AcDbEntity
  8
寸法
 62
     2
100
AcDbMText
 10
961.0000000003763
 20
3150.249999910593
 30
0.0
 40
59.99999618530273
 41
0.0
 71
     5
 72
     1
  1
750
  7
EXCADDIM1
  0
POINT
  5
3AB
330
3A2
100
AcDbEntity
  8
DEFPOINTS
 62
     0
100
AcDbPoint
 10
586.000000000378
 20
3375.0
 30
0.0
  0
POINT
  5
3AC
330
3A2
100
AcDbEntity
  8
DEFPOINTS
 62
     0
100
AcDbPoint
 10
1336.000000000374
 20
3375.0
 30
0.0
  0
POINT
  5
3AD
330
3A2
100
AcDbEntity
  8
DEFPOINTS
 62
     0
100
AcDbPoint
 10
1336.000000000374
 20
3115.0
 30
0.0
  0
ENDBLK
  5
3A4
330
3A2
100
AcDbEntity
  8
0
100
AcDbBlockEnd
  0
BLOCK
  5
3B0
330
3AF
100
AcDbEntity
  8
0
100
AcDbBlockBegin
  2
*D26
 70
     1
 10
0.0
 20
0.0
 30
0.0
  3
*D26
  1

  0
LINE
  5
3B2
330
3AF
100
AcDbEntity
  8
寸法
  6
CONTINUOUS
 62
     3
100
AcDbLine
 10
2509.499999821575
 20
1379.5
 30
0.0
 11
2626.000000000389
 21
1379.5
 31
0.0
  0
LINE
  5
3B3
330
3AF
100
AcDbEntity
  8
寸法
  6
CONTINUOUS
 62
     3
100
AcDbLine
 10
2611.000000000389
 20
964.4999961853017
 30
0.0
 11
2611.000000000389
 21
1334.500003814697
 31
0.0
  0
INSERT
  5
3B4
330
3AF
100
AcDbEntity
  8
寸法
 62
     3
100
AcDbBlockReference
  2
EX_NORM
 10
2611.000000000389
 20
919.499999999999
 30
0.0
 41
44.99999618530273
 42
44.99999618530273
 43
44.99999618530273
 50
270.0
  0
INSERT
  5
3B5
330
3AF
100
AcDbEntity
  8
寸法
 62
     3
100
AcDbBlockReference
  2
EX_NORM
 10
2611.000000000389
 20
1379.5
 30
0.0
 41
44.99999618530273
 42
44.99999618530273
 43
44.99999618530273
 50
90.0
  0
MTEXT
  5
3B6
330
3AF
100
AcDbEntity
  8
寸法
 62
     2
100
AcDbMText
 10
2575.750000089795
 20
1149.5
 30
0.0
 40
59.99999618530273
 41
0.0
 71
     5
 72
     1
  1
460（壁給水）
  7
EXCADDIM1
 11
0.0
 21
1.0
 31
0.0
  0
POINT
  5
3B7
330
3AF
100
AcDbEntity
  8
DEFPOINTS
 62
     0
100
AcDbPoint
 10
2491.000000000389
 20
919.4999999999991
 30
0.0
  0
POINT
  5
3B8
330
3AF
100
AcDbEntity
  8
DEFPOINTS
 62
     0
100
AcDbPoint
 10
2499.000000000389
 20
1379.5
 30
0.0
  0
POINT
  5
3B9
330
3AF
100
AcDbEntity
  8
DEFPOINTS
 62
     0
100
AcDbPoint
 10
2611.000000000389
 20
1379.5
 30
0.0
  0
ENDBLK
  5
3B1
330
3AF
100
AcDbEntity
  8
0
100
AcDbBlockEnd
  0
BLOCK
  5
3BC
330
3BB
100
AcDbEntity
  8
0
100
AcDbBlockBegin
  2
*D27
 70
     1
 10
0.0
 20
0.0
 30
0.0
  3
*D27
  1

  0
LINE
  5
3BE
330
3BB
100
AcDbEntity
  8
寸法
  6
CONTINUOUS
 62
     3
100
AcDbLine
 10
2551.499999821575
 20
1389.5
 30
0.0
 11
2716.000000000389
 21
1389.5
 31
0.0
  0
LINE
  5
3BF
330
3BB
100
AcDbEntity
  8
寸法
  6
CONTINUOUS
 62
     3
100
AcDbLine
 10
2701.000000000389
 20
964.4999961853017
 30
0.0
 11
2701.000000000389
 21
1344.500003814697
 31
0.0
  0
INSERT
  5
3C0
330
3BB
100
AcDbEntity
  8
寸法
 62
     3
100
AcDbBlockReference
  2
EX_NORM
 10
2701.000000000389
 20
919.499999999999
 30
0.0
 41
44.99999618530273
 42
44.99999618530273
 43
44.99999618530273
 50
270.0
  0
INSERT
  5
3C1
330
3BB
100
AcDbEntity
  8
寸法
 62
     3
100
AcDbBlockReference
  2
EX_NORM
 10
2701.000000000389
 20
1389.5
 30
0.0
 41
44.99999618530273
 42
44.99999618530273
 43
44.99999618530273
 50
90.0
  0
MTEXT
  5
3C2
330
3BB
100
AcDbEntity
  8
寸法
 62
     2
100
AcDbMText
 10
2665.750000089795
 20
1154.5
 30
0.0
 40
59.99999618530273
 41
0.0
 71
     5
 72
     1
  1
470（壁排水）
  7
EXCADDIM1
 11
0.0
 21
1.0
 31
0.0
  0
POINT
  5
3C3
330
3BB
100
AcDbEntity
  8
DEFPOINTS
 62
     0
100
AcDbPoint
 10
2491.000000000389
 20
919.4999999999991
 30
0.0
  0
POINT
  5
3C4
330
3BB
100
AcDbEntity
  8
DEFPOINTS
 62
     0
100
AcDbPoint
 10
2541.000000000389
 20
1389.5
 30
0.0
  0
POINT
  5
3C5
330
3BB
100
AcDbEntity
  8
DEFPOINTS
 62
     0
100
AcDbPoint
 10
2701.000000000389
 20
1389.5
 30
0.0
  0
ENDBLK
  5
3BD
330
3BB
100
AcDbEntity
  8
0
100
AcDbBlockEnd
  0
BLOCK
  5
3C8
330
3C7
100
AcDbEntity
  8
0
100
AcDbBlockBegin
  2
*D28
 70
     1
 10
0.0
 20
0.0
 30
0.0
  3
*D28
  1

  0
LINE
  5
3CA
330
3C7
100
AcDbEntity
  8
寸法
  6
CONTINUOUS
 62
     3
100
AcDbLine
 10
971.4999998215659
 20
3343.0
 30
0.0
 11
1561.000000000385
 21
3343.0
 31
0.0
  0
LINE
  5
3CB
330
3C7
100
AcDbEntity
  8
寸法
  6
CONTINUOUS
 62
     3
100
AcDbLine
 10
1546.000000000385
 20
3387.999996185303
 30
0.0
 11
1546.000000000385
 21
3780.000003814697
 31
0.0
  0
INSERT
  5
3CC
330
3C7
100
AcDbEntity
  8
寸法
 62
     3
100
AcDbBlockReference
  2
EX_NORM
 10
1546.000000000385
 20
3343.0
 30
0.0
 41
44.99999618530273
 42
44.99999618530273
 43
44.99999618530273
 50
270.0
  0
INSERT
  5
3CD
330
3C7
100
AcDbEntity
  8
寸法
 62
     3
100
AcDbBlockReference
  2
EX_NORM
 10
1546.000000000385
 20
3825.0
 30
0.0
 41
44.99999618530273
 42
44.99999618530273
 43
44.99999618530273
 50
90.0
  0
MTEXT
  5
3CE
330
3C7
100
AcDbEntity
  8
寸法
 62
     2
100
AcDbMText
 10
1510.750000089792
 20
3584.0
 30
0.0
 40
59.99999618530273
 41
0.0
 71
     5
 72
     1
  1
480
  7
EXCADDIM1
 11
0.0
 21
1.0
 31
0.0
  0
POINT
  5
3CF
330
3C7
100
AcDbEntity
  8
DEFPOINTS
 62
     0
100
AcDbPoint
 10
961.0000000003798
 20
3343.0
 30
0.0
  0
POINT
  5
3D0
330
3C7
100
AcDbEntity
  8
DEFPOINTS
 62
     0
100
AcDbPoint
 10
1336.000000000385
 20
3825.0
 30
0.0
  0
POINT
  5
3D1
330
3C7
100
AcDbEntity
  8
DEFPOINTS
 62
     0
100
AcDbPoint
 10
1546.000000000385
 20
3825.0
 30
0.0
  0
ENDBLK
  5
3C9
330
3C7
100
AcDbEntity
  8
0
100
AcDbBlockEnd
  0
BLOCK
  5
3D4
330
3D3
100
AcDbEntity
  8
0
100
AcDbBlockBegin
  2
*D29
 70
     1
 10
0.0
 20
0.0
 30
0.0
  3
*D29
  1

  0
LINE
  5
3D6
330
3D3
100
AcDbEntity
  8
寸法
  6
CONTINUOUS
 62
     3
100
AcDbLine
 10
736.0000000003871
 20
3560.000000178814
 30
0.0
 11
736.0000000003871
 21
3190.0
 31
0.0
  0
LINE
  5
3D7
330
3D3
100
AcDbEntity
  8
寸法
  6
CONTINUOUS
 62
     3
100
AcDbLine
 10
1186.000000000385
 20
3560.000000178814
 30
0.0
 11
1186.000000000385
 21
3190.0
 31
0.0
  0
LINE
  5
3D8
330
3D3
100
AcDbEntity
  8
寸法
  6
CONTINUOUS
 62
     3
100
AcDbLine
 10
780.9999961856898
 20
3205.0
 30
0.0
 11
1141.000003815082
 21
3205.0
 31
0.0
  0
INSERT
  5
3D9
330
3D3
100
AcDbEntity
  8
寸法
 62
     3
100
AcDbBlockReference
  2
EX_NORM
 10
736.0000000003871
 20
3205.0
 30
0.0
 41
44.99999618530273
 42
44.99999618530273
 43
44.99999618530273
 50
180.0
  0
INSERT
  5
3DA
330
3D3
100
AcDbEntity
  8
寸法
 62
     3
100
AcDbBlockReference
  2
EX_NORM
 10
1186.000000000385
 20
3205.0
 30
0.0
 41
44.99999618530273
 42
44.99999618530273
 43
44.99999618530273
  0
MTEXT
  5
3DB
330
3D3
100
AcDbEntity
  8
寸法
 62
     2
100
AcDbMText
 10
961.0000000003865
 20
3240.249999910593
 30
0.0
 40
59.99999618530273
 41
0.0
 71
     5
 72
     1
  1
450
  7
EXCADDIM1
  0
POINT
  5
3DC
330
3D3
100
AcDbEntity
  8
DEFPOINTS
 62
     0
100
AcDbPoint
 10
736.0000000003871
 20
3570.5
 30
0.0
  0
POINT
  5
3DD
330
3D3
100
AcDbEntity
  8
DEFPOINTS
 62
     0
100
AcDbPoint
 10
1186.000000000385
 20
3570.5
 30
0.0
  0
POINT
  5
3DE
330
3D3
100
AcDbEntity
  8
DEFPOINTS
 62
     0
100
AcDbPoint
 10
1186.000000000385
 20
3205.0
 30
0.0
  0
ENDBLK
  5
3D5
330
3D3
100
AcDbEntity
  8
0
100
AcDbBlockEnd
  0
BLOCK
  5
3E1
330
3E0
100
AcDbEntity
  8
0
100
AcDbBlockBegin
  2
*D30
 70
     1
 10
0.0
 20
0.0
 30
0.0
  3
*D30
  1

  0
LINE
  5
3E3
330
3E0
100
AcDbEntity
  8
寸法
  6
CONTINUOUS
 62
     3
100
AcDbLine
 10
971.4999998215659
 20
1788.5
 30
0.0
 11
1561.000000000387
 21
1788.5
 31
0.0
  0
LINE
  5
3E4
330
3E0
100
AcDbEntity
  8
寸法
  6
CONTINUOUS
 62
     3
100
AcDbLine
 10
1546.000000000387
 20
964.4999961853019
 30
0.0
 11
1546.000000000387
 21
1743.500003814697
 31
0.0
  0
INSERT
  5
3E5
330
3E0
100
AcDbEntity
  8
寸法
 62
     3
100
AcDbBlockReference
  2
EX_NORM
 10
1546.000000000387
 20
919.4999999999992
 30
0.0
 41
44.99999618530273
 42
44.99999618530273
 43
44.99999618530273
 50
270.0
  0
INSERT
  5
3E6
330
3E0
100
AcDbEntity
  8
寸法
 62
     3
100
AcDbBlockReference
  2
EX_NORM
 10
1546.000000000387
 20
1788.5
 30
0.0
 41
44.99999618530273
 42
44.99999618530273
 43
44.99999618530273
 50
90.0
  0
MTEXT
  5
3E7
330
3E0
100
AcDbEntity
  8
寸法
 62
     2
100
AcDbMText
 10
1510.750000089792
 20
1354.0
 30
0.0
 40
59.99999618530273
 41
0.0
 71
     5
 72
     1
  1
（869）
  7
EXCADDIM1
 11
0.0
 21
1.0
 31
0.0
  0
POINT
  5
3E8
330
3E0
100
AcDbEntity
  8
DEFPOINTS
 62
     0
100
AcDbPoint
 10
1334.000000000385
 20
919.4999999999991
 30
0.0
  0
POINT
  5
3E9
330
3E0
100
AcDbEntity
  8
DEFPOINTS
 62
     0
100
AcDbPoint
 10
961.0000000003798
 20
1788.5
 30
0.0
  0
POINT
  5
3EA
330
3E0
100
AcDbEntity
  8
DEFPOINTS
 62
     0
100
AcDbPoint
 10
1546.000000000387
 20
1788.5
 30
0.0
  0
ENDBLK
  5
3E2
330
3E0
100
AcDbEntity
  8
0
100
AcDbBlockEnd
  0
BLOCK
  5
3ED
330
3EC
100
AcDbEntity
  8
0
100
AcDbBlockBegin
  2
*D31
 70
     1
 10
0.0
 20
0.0
 30
0.0
  3
*D31
  1

  0
LINE
  5
3EF
330
3EC
100
AcDbEntity
  8
寸法
  6
CONTINUOUS
 62
     3
100
AcDbLine
 10
1456.000000000387
 20
1663.499996185303
 30
0.0
 11
1456.000000000387
 21
1743.500003814697
 31
0.0
  0
INSERT
  5
3F0
330
3EC
100
AcDbEntity
  8
寸法
 62
     3
100
AcDbBlockReference
  2
EX_NORM
 10
1456.000000000387
 20
1618.5
 30
0.0
 41
44.99999618530273
 42
44.99999618530273
 43
44.99999618530273
 50
270.0
  0
INSERT
  5
3F1
330
3EC
100
AcDbEntity
  8
寸法
 62
     3
100
AcDbBlockReference
  2
EX_NORM
 10
1456.000000000387
 20
1788.5
 30
0.0
 41
44.99999618530273
 42
44.99999618530273
 43
44.99999618530273
 50
90.0
  0
MTEXT
  5
3F2
330
3EC
100
AcDbEntity
  8
寸法
 62
     2
100
AcDbMText
 10
1420.750000089794
 20
1703.5
 30
0.0
 40
59.99999618530273
 41
0.0
 71
     5
 72
     1
  1
170
  7
EXCADDIM1
 11
0.0
 21
1.0
 31
0.0
  0
POINT
  5
3F3
330
3EC
100
AcDbEntity
  8
DEFPOINTS
 62
     0
100
AcDbPoint
 10
1336.000000000385
 20
1618.5
 30
0.0
  0
POINT
  5
3F4
330
3EC
100
AcDbEntity
  8
DEFPOINTS
 62
     0
100
AcDbPoint
 10
961.0000000003889
 20
1788.5
 30
0.0
  0
POINT
  5
3F5
330
3EC
100
AcDbEntity
  8
DEFPOINTS
 62
     0
100
AcDbPoint
 10
1456.000000000387
 20
1788.5
 30
0.0
  0
ENDBLK
  5
3EE
330
3EC
100
AcDbEntity
  8
0
100
AcDbBlockEnd
  0
BLOCK
  5
3F8
330
3F7
100
AcDbEntity
  8
0
100
AcDbBlockBegin
  2
*D32
 70
     1
 10
0.0
 20
0.0
 30
0.0
  3
*D32
  1

  0
LINE
  5
3FA
330
3F7
100
AcDbEntity
  8
寸法
  6
CONTINUOUS
 62
     3
100
AcDbLine
 10
1261.000000000335
 20
2669.5
 30
0.0
 11
1635.000000000332
 21
2669.5
 31
0.0
  0
LINE
  5
3FB
330
3F7
100
AcDbEntity
  8
寸法
  6
CONTINUOUS
 62
     3
100
AcDbLine
 10
1635.000000000332
 20
964.4999961853018
 30
0.0
 11
1635.000000000332
 21
2624.500003814697
 31
0.0
  0
INSERT
  5
3FC
330
3F7
100
AcDbEntity
  8
寸法
 62
     3
100
AcDbBlockReference
  2
EX_NORM
 10
1635.000000000332
 20
919.4999999999991
 30
0.0
 41
44.99999618530273
 42
44.99999618530273
 43
44.99999618530273
 50
270.0
  0
INSERT
  5
3FD
330
3F7
100
AcDbEntity
  8
寸法
 62
     3
100
AcDbBlockReference
  2
EX_NORM
 10
1635.000000000332
 20
2669.5
 30
0.0
 41
44.99999618530273
 42
44.99999618530273
 43
44.99999618530273
 50
90.0
  0
MTEXT
  5
3FE
330
3F7
100
AcDbEntity
  8
寸法
 62
     2
100
AcDbMText
 10
1597.500000000332
 20
1794.499999999999
 30
0.0
 40
59.99999618530273
 41
0.0
 71
     5
 72
     1
  1
（1750）
  7
EXCADDIM1
 11
0.0
 21
1.0
 31
0.0
  0
POINT
  5
3FF
330
3F7
100
AcDbEntity
  8
DEFPOINTS
 62
     0
100
AcDbPoint
 10
1243.000000000435
 20
919.4999999999991
 30
0.0
  0
POINT
  5
400
330
3F7
100
AcDbEntity
  8
DEFPOINTS
 62
     0
100
AcDbPoint
 10
1261.000000000335
 20
2669.5
 30
0.0
  0
POINT
  5
401
330
3F7
100
AcDbEntity
  8
DEFPOINTS
 62
     0
100
AcDbPoint
 10
1635.000000000332
 20
2669.5
 30
0.0
  0
ENDBLK
  5
3F9
330
3F7
100
AcDbEntity
  8
0
100
AcDbBlockEnd
  0
BLOCK
  5
404
330
403
100
AcDbEntity
  8
0
100
AcDbBlockBegin
  2
*D33
 70
     1
 10
0.0
 20
0.0
 30
0.0
  3
*D33
  1

  0
LINE
  5
406
330
403
100
AcDbEntity
  8
寸法
  6
CONTINUOUS
 62
     3
100
AcDbLine
 10
811.0000000003298
 20
2631.799999821185
 30
0.0
 11
811.0000000003298
 21
2747.499999999999
 31
0.0
  0
LINE
  5
407
330
403
100
AcDbEntity
  8
寸法
  6
CONTINUOUS
 62
     3
100
AcDbLine
 10
1111.00000000033
 20
2631.799999821185
 30
0.0
 11
1111.00000000033
 21
2747.499999999999
 31
0.0
  0
LINE
  5
408
330
403
100
AcDbEntity
  8
寸法
  6
CONTINUOUS
 62
     3
100
AcDbLine
 10
855.9999961856325
 20
2732.499999999999
 30
0.0
 11
1066.000003815027
 21
2732.499999999999
 31
0.0
  0
INSERT
  5
409
330
403
100
AcDbEntity
  8
寸法
 62
     3
100
AcDbBlockReference
  2
EX_NORM
 10
811.0000000003298
 20
2732.499999999999
 30
0.0
 41
44.99999618530273
 42
44.99999618530273
 43
44.99999618530273
 50
180.0
  0
INSERT
  5
40A
330
403
100
AcDbEntity
  8
寸法
 62
     3
100
AcDbBlockReference
  2
EX_NORM
 10
1111.00000000033
 20
2732.499999999999
 30
0.0
 41
44.99999618530273
 42
44.99999618530273
 43
44.99999618530273
  0
MTEXT
  5
40B
330
403
100
AcDbEntity
  8
寸法
 62
     2
100
AcDbMText
 10
961.0000000003299
 20
2767.749999910592
 30
0.0
 40
59.99999618530273
 41
0.0
 71
     5
 72
     1
  1
300（壁固定）
  7
EXCADDIM1
  0
POINT
  5
40C
330
403
100
AcDbEntity
  8
DEFPOINTS
 62
     0
100
AcDbPoint
 10
811.0000000003298
 20
2621.299999999999
 30
0.0
  0
POINT
  5
40D
330
403
100
AcDbEntity
  8
DEFPOINTS
 62
     0
100
AcDbPoint
 10
1111.00000000033
 20
2621.299999999999
 30
0.0
  0
POINT
  5
40E
330
403
100
AcDbEntity
  8
DEFPOINTS
 62
     0
100
AcDbPoint
 10
1111.00000000033
 20
2732.499999999999
 30
0.0
  0
ENDBLK
  5
405
330
403
100
AcDbEntity
  8
0
100
AcDbBlockEnd
  0
BLOCK
  5
411
330
410
100
AcDbEntity
  8
0
100
AcDbBlockBegin
  2
*D34
 70
     1
 10
0.0
 20
0.0
 30
0.0
  3
*D34
  1

  0
LINE
  5
413
330
410
100
AcDbEntity
  8
寸法
  6
CONTINUOUS
 62
     3
100
AcDbLine
 10
736.0000000003298
 20
2678.799999821185
 30
0.0
 11
736.0000000003298
 21
2863.499999999999
 31
0.0
  0
LINE
  5
414
330
410
100
AcDbEntity
  8
寸法
  6
CONTINUOUS
 62
     3
100
AcDbLine
 10
1186.00000000033
 20
2678.799999821185
 30
0.0
 11
1186.00000000033
 21
2863.499999999999
 31
0.0
  0
LINE
  5
415
330
410
100
AcDbEntity
  8
寸法
  6
CONTINUOUS
 62
     3
100
AcDbLine
 10
780.9999961856325
 20
2848.499999999999
 30
0.0
 11
1141.000003815027
 21
2848.499999999999
 31
0.0
  0
INSERT
  5
416
330
410
100
AcDbEntity
  8
寸法
 62
     3
100
AcDbBlockReference
  2
EX_NORM
 10
736.0000000003298
 20
2848.499999999999
 30
0.0
 41
44.99999618530273
 42
44.99999618530273
 43
44.99999618530273
 50
180.0
  0
INSERT
  5
417
330
410
100
AcDbEntity
  8
寸法
 62
     3
100
AcDbBlockReference
  2
EX_NORM
 10
1186.00000000033
 20
2848.499999999999
 30
0.0
 41
44.99999618530273
 42
44.99999618530273
 43
44.99999618530273
  0
MTEXT
  5
418
330
410
100
AcDbEntity
  8
寸法
 62
     2
100
AcDbMText
 10
961.0000000003299
 20
2883.749999910592
 30
0.0
 40
59.99999618530273
 41
0.0
 71
     5
 72
     1
  1
450
  7
EXCADDIM1
  0
POINT
  5
419
330
410
100
AcDbEntity
  8
DEFPOINTS
 62
     0
100
AcDbPoint
 10
736.0000000003298
 20
2668.299999999999
 30
0.0
  0
POINT
  5
41A
330
410
100
AcDbEntity
  8
DEFPOINTS
 62
     0
100
AcDbPoint
 10
1186.00000000033
 20
2668.299999999999
 30
0.0
  0
POINT
  5
41B
330
410
100
AcDbEntity
  8
DEFPOINTS
 62
     0
100
AcDbPoint
 10
1186.00000000033
 20
2848.499999999999
 30
0.0
  0
ENDBLK
  5
412
330
410
100
AcDbEntity
  8
0
100
AcDbBlockEnd
  0
BLOCK
  5
41E
330
41D
100
AcDbEntity
  8
0
100
AcDbBlockBegin
  2
*D35
 70
     1
 10
0.0
 20
0.0
 30
0.0
  3
*D35
  1

  0
LINE
  5
420
330
41D
100
AcDbEntity
  8
寸法
  6
CONTINUOUS
 62
     3
100
AcDbLine
 10
1194.999999821516
 20
2167.099999999999
 30
0.0
 11
1561.000000000427
 21
2167.099999999999
 31
0.0
  0
LINE
  5
421
330
41D
100
AcDbEntity
  8
寸法
  6
CONTINUOUS
 62
     3
100
AcDbLine
 10
1546.000000000427
 20
2212.099996185301
 30
0.0
 11
1546.000000000427
 21
2624.500003814697
 31
0.0
  0
INSERT
  5
422
330
41D
100
AcDbEntity
  8
寸法
 62
     3
100
AcDbBlockReference
  2
EX_NORM
 10
1546.000000000427
 20
2167.099999999999
 30
0.0
 41
44.99999618530273
 42
44.99999618530273
 43
44.99999618530273
 50
270.0
  0
INSERT
  5
423
330
41D
100
AcDbEntity
  8
寸法
 62
     3
100
AcDbBlockReference
  2
EX_NORM
 10
1546.000000000427
 20
2669.5
 30
0.0
 41
44.99999618530273
 42
44.99999618530273
 43
44.99999618530273
 50
90.0
  0
MTEXT
  5
424
330
41D
100
AcDbEntity
  8
寸法
 62
     2
100
AcDbMText
 10
1510.750000089834
 20
2418.299999999998
 30
0.0
 40
59.99999618530273
 41
0.0
 71
     5
 72
     1
  1
503
  7
EXCADDIM1
 11
0.0
 21
1.0
 31
0.0
  0
POINT
  5
425
330
41D
100
AcDbEntity
  8
DEFPOINTS
 62
     0
100
AcDbPoint
 10
1184.50000000033
 20
2167.099999999999
 30
0.0
  0
POINT
  5
426
330
41D
100
AcDbEntity
  8
DEFPOINTS
 62
     0
100
AcDbPoint
 10
1184.50000000033
 20
2669.5
 30
0.0
  0
POINT
  5
427
330
41D
100
AcDbEntity
  8
DEFPOINTS
 62
     0
100
AcDbPoint
 10
1546.000000000427
 20
2669.5
 30
0.0
  0
ENDBLK
  5
41F
330
41D
100
AcDbEntity
  8
0
100
AcDbBlockEnd
  0
BLOCK
  5
42A
330
429
100
AcDbEntity
  8
0
100
AcDbBlockBegin
  2
*D36
 70
     1
 10
0.0
 20
0.0
 30
0.0
  3
*D36
  1

  0
LINE
  5
42C
330
429
100
AcDbEntity
  8
寸法
  6
CONTINUOUS
 62
     3
100
AcDbLine
 10
2369.800000000399
 20
2679.999999821186
 30
0.0
 11
2369.800000000399
 21
2749.499999999999
 31
0.0
  0
LINE
  5
42D
330
429
100
AcDbEntity
  8
寸法
  6
CONTINUOUS
 62
     3
100
AcDbLine
 10
2414.799996185702
 20
2734.499999999999
 30
0.0
 11
2446.000003815097
 21
2734.499999999999
 31
0.0
  0
INSERT
  5
42E
330
429
100
AcDbEntity
  8
寸法
 62
     3
100
AcDbBlockReference
  2
EX_NORM
 10
2369.800000000399
 20
2734.499999999999
 30
0.0
 41
44.99999618530273
 42
44.99999618530273
 43
44.99999618530273
 50
180.0
  0
INSERT
  5
42F
330
429
100
AcDbEntity
  8
寸法
 62
     3
100
AcDbBlockReference
  2
EX_NORM
 10
2491.0000000004
 20
2734.499999999999
 30
0.0
 41
44.99999618530273
 42
44.99999618530273
 43
44.99999618530273
  0
MTEXT
  5
430
330
429
100
AcDbEntity
  8
寸法
 62
     2
100
AcDbMText
 10
2604.550000000399
 20
2769.749999910592
 30
0.0
 40
59.99999618530273
 41
0.0
 71
     5
 72
     1
  1
122
  7
EXCADDIM1
  0
POINT
  5
431
330
429
100
AcDbEntity
  8
DEFPOINTS
 62
     0
100
AcDbPoint
 10
2369.800000000399
 20
2669.5
 30
0.0
  0
POINT
  5
432
330
429
100
AcDbEntity
  8
DEFPOINTS
 62
     0
100
AcDbPoint
 10
2491.0000000004
 20
2663.299999999999
 30
0.0
  0
POINT
  5
433
330
429
100
AcDbEntity
  8
DEFPOINTS
 62
     0
100
AcDbPoint
 10
2491.0000000004
 20
2734.499999999999
 30
0.0
  0
ENDBLK
  5
42B
330
429
100
AcDbEntity
  8
0
100
AcDbBlockEnd
  0
BLOCK
  5
436
330
435
100
AcDbEntity
  8
0
100
AcDbBlockBegin
  2
*D37
 70
     1
 10
0.0
 20
0.0
 30
0.0
  3
*D37
  1

  0
LINE
  5
438
330
435
100
AcDbEntity
  8
寸法
  6
CONTINUOUS
 62
     3
100
AcDbLine
 10
2896.000000000369
 20
2278.299996185302
 30
0.0
 11
2896.000000000369
 21
2568.300003814697
 31
0.0
  0
INSERT
  5
439
330
435
100
AcDbEntity
  8
寸法
 62
     3
100
AcDbBlockReference
  2
EX_NORM
 10
2896.000000000369
 20
2233.299999999999
 30
0.0
 41
44.99999618530273
 42
44.99999618530273
 43
44.99999618530273
 50
270.0
  0
INSERT
  5
43A
330
435
100
AcDbEntity
  8
寸法
 62
     3
100
AcDbBlockReference
  2
EX_NORM
 10
2896.000000000369
 20
2613.299999999999
 30
0.0
 41
44.99999618530273
 42
44.99999618530273
 43
44.99999618530273
 50
90.0
  0
MTEXT
  5
43B
330
435
100
AcDbEntity
  8
寸法
 62
     2
100
AcDbMText
 10
2860.750000089777
 20
2423.299999999999
 30
0.0
 40
59.99999618530273
 41
0.0
 71
     5
 72
     1
  1
380（壁固定）
  7
EXCADDIM1
 11
0.0
 21
1.0
 31
0.0
  0
POINT
  5
43C
330
435
100
AcDbEntity
  8
DEFPOINTS
 62
     0
100
AcDbPoint
 10
2524.2000000004
 20
2233.299999999999
 30
0.0
  0
POINT
  5
43D
330
435
100
AcDbEntity
  8
DEFPOINTS
 62
     0
100
AcDbPoint
 10
2524.2000000004
 20
2613.299999999999
 30
0.0
  0
POINT
  5
43E
330
435
100
AcDbEntity
  8
DEFPOINTS
 62
     0
100
AcDbPoint
 10
2896.000000000369
 20
2613.299999999999
 30
0.0
  0
ENDBLK
  5
437
330
435
100
AcDbEntity
  8
0
100
AcDbBlockEnd
  0
BLOCK
  5
441
330
440
100
AcDbEntity
  8
0
100
AcDbBlockBegin
  2
*D38
 70
     1
 10
0.0
 20
0.0
 30
0.0
  3
*D38
  1

  0
LINE
  5
443
330
440
100
AcDbEntity
  8
寸法
  6
CONTINUOUS
 62
     3
100
AcDbLine
 10
2534.699999821586
 20
2613.299999999999
 30
0.0
 11
2911.000000000369
 21
2613.299999999999
 31
0.0
  0
LINE
  5
444
330
440
100
AcDbEntity
  8
寸法
  6
CONTINUOUS
 62
     3
100
AcDbLine
 10
2400.299999821585
 20
2669.499999999999
 30
0.0
 11
2911.000000000369
 21
2669.499999999999
 31
0.0
  0
LINE
  5
445
330
440
100
AcDbEntity
  8
寸法
  6
CONTINUOUS
 62
     3
100
AcDbLine
 10
2896.000000000369
 20
2613.299999999999
 30
0.0
 11
2896.000000000369
 21
2669.499999999999
 31
0.0
  0
LINE
  5
446
330
440
100
AcDbEntity
  8
寸法
  6
CONTINUOUS
 62
     3
100
AcDbLine
 10
2896.000000000369
 20
2568.300003814697
 30
0.0
 11
2896.000000000369
 21
2523.300007629394
 31
0.0
  0
LINE
  5
447
330
440
100
AcDbEntity
  8
寸法
  6
CONTINUOUS
 62
     3
100
AcDbLine
 10
2896.000000000369
 20
2714.499996185302
 30
0.0
 11
2896.000000000369
 21
2759.499992370605
 31
0.0
  0
INSERT
  5
448
330
440
100
AcDbEntity
  8
寸法
 62
     3
100
AcDbBlockReference
  2
EX_NONE
 10
2896.000000000369
 20
2613.299999999999
 30
0.0
 41
44.99999618530273
 42
44.99999618530273
 43
44.99999618530273
 50
90.0
  0
INSERT
  5
449
330
440
100
AcDbEntity
  8
寸法
 62
     3
100
AcDbBlockReference
  2
EX_NORM
 10
2896.000000000369
 20
2669.499999999999
 30
0.0
 41
44.99999618530273
 42
44.99999618530273
 43
44.99999618530273
 50
270.0
  0
MTEXT
  5
44A
330
440
100
AcDbEntity
  8
寸法
 62
     2
100
AcDbMText
 10
2860.750000089777
 20
2764.699999999998
 30
0.0
 40
59.99999618530273
 41
0.0
 71
     5
 72
     1
  1
56
  7
EXCADDIM1
 11
-3.035887853477192E-14
 21
1.0
 31
0.0
  0
POINT
  5
44B
330
440
100
AcDbEntity
  8
DEFPOINTS
 62
     0
100
AcDbPoint
 10
2524.2000000004
 20
2613.299999999999
 30
0.0
  0
POINT
  5
44C
330
440
100
AcDbEntity
  8
DEFPOINTS
 62
     0
100
AcDbPoint
 10
2389.800000000399
 20
2669.499999999999
 30
0.0
  0
POINT
  5
44D
330
440
100
AcDbEntity
  8
DEFPOINTS
 62
     0
100
AcDbPoint
 10
2896.000000000369
 20
2669.499999999999
 30
0.0
  0
ENDBLK
  5
442
330
440
100
AcDbEntity
  8
0
100
AcDbBlockEnd
  0
BLOCK
  5
450
330
44F
100
AcDbEntity
  8
0
100
AcDbBlockBegin
  2
*D39
 70
     1
 10
0.0
 20
0.0
 30
0.0
  3
*D39
  1

  0
LINE
  5
452
330
44F
100
AcDbEntity
  8
寸法
  6
CONTINUOUS
 62
     3
100
AcDbLine
 10
2511.999999642655
 20
919.4999999999991
 30
0.0
 11
2911.50000000027
 21
919.4999999999991
 31
0.0
  0
LINE
  5
453
330
44F
100
AcDbEntity
  8
寸法
  6
CONTINUOUS
 62
     3
100
AcDbLine
 10
2545.199999642756
 20
2233.299999999999
 30
0.0
 11
2911.50000000027
 21
2233.299999999999
 31
0.0
  0
LINE
  5
454
330
44F
100
AcDbEntity
  8
寸法
  6
CONTINUOUS
 62
     3
100
AcDbLine
 10
2896.50000000027
 20
964.4999961853018
 30
0.0
 11
2896.50000000027
 21
2188.300003814697
 31
0.0
  0
INSERT
  5
455
330
44F
100
AcDbEntity
  8
寸法
 62
     3
100
AcDbBlockReference
  2
EX_NORM
 10
2896.50000000027
 20
919.4999999999991
 30
0.0
 41
44.99999618530273
 42
44.99999618530273
 43
44.99999618530273
 50
270.0
  0
INSERT
  5
456
330
44F
100
AcDbEntity
  8
寸法
 62
     3
100
AcDbBlockReference
  2
EX_NORM
 10
2896.50000000027
 20
2233.299999999999
 30
0.0
 41
44.99999618530273
 42
44.99999618530273
 43
44.99999618530273
 50
90.0
  0
MTEXT
  5
457
330
44F
100
AcDbEntity
  8
寸法
 62
     2
100
AcDbMText
 10
2861.250000089677
 20
1576.399999999999
 30
0.0
 40
59.99999618530273
 41
0.0
 71
     5
 72
     1
  1
（1314）
  7
EXCADDIM1
 11
0.0
 21
1.0
 31
0.0
  0
POINT
  5
458
330
44F
100
AcDbEntity
  8
DEFPOINTS
 62
     0
100
AcDbPoint
 10
2501.499999821469
 20
919.4999999999991
 30
0.0
  0
POINT
  5
459
330
44F
100
AcDbEntity
  8
DEFPOINTS
 62
     0
100
AcDbPoint
 10
2534.69999982157
 20
2233.299999999999
 30
0.0
  0
POINT
  5
45A
330
44F
100
AcDbEntity
  8
DEFPOINTS
 62
     0
100
AcDbPoint
 10
2896.50000000027
 20
2233.299999999999
 30
0.0
  0
ENDBLK
  5
451
330
44F
100
AcDbEntity
  8
0
100
AcDbBlockEnd
  0
ENDSEC
  0
SECTION
  2
ENTITIES
  0
TEXT
  5
A9
330
1F
100
AcDbEntity
  8
枠_表
  6
CONTINUOUS
 62
     2
100
AcDbText
 10
98.0000000238707
 20
20.29999999999995
 30
0.0
 40
5.0
  1
洗面化粧台
 41
1.052413790801476
  7
EXCADSTD
 72
     5
 11
119.799999976187
 21
20.29999999999995
 31
0.0
100
AcDbText
  0
TEXT
  5
AA
330
1F
100
AcDbEntity
  8
枠_表
  6
CONTINUOUS
 62
     2
100
AcDbText
 10
159.9000000000285
 20
281.8250000000001
 30
0.0
 40
4.0
  1
品名
 41
1.895695454545453
  7
EXCADSTD
 72
     5
 11
171.8158000000285
 21
281.8250000000001
 31
0.0
100
AcDbText
  0
TEXT
  5
AB
330
1F
100
AcDbEntity
  8
枠_表
  6
CONTINUOUS
 62
     2
100
AcDbText
 10
124.9000000000284
 20
281.8250000000001
 30
0.0
 40
4.0
  1
品番
 41
1.895695454545453
  7
EXCADSTD
 72
     5
 11
136.8158000000284
 21
281.8250000000001
 31
0.0
100
AcDbText
  0
TEXT
  5
AC
330
1F
100
AcDbEntity
  8
枠_表
  6
CONTINUOUS
 62
     2
100
AcDbText
 10
187.8000000059894
 20
281.8250000000001
 30
0.0
 40
4.0
  1
個数
 41
1.049923634625296
  7
EXCADSTD
 72
     5
 11
194.3995199950627
 21
281.8250000000001
 31
0.0
100
AcDbText
  0
LINE
  5
AD
330
1F
100
AcDbEntity
  8
枠_表
  6
CONTINUOUS
 62
     6
100
AcDbLine
 10
116.4000000000291
 20
276.3999999999997
 30
0.0
 11
196.4000000000291
 21
276.3999999999997
 31
0.0
  0
LINE
  5
AE
330
1F
100
AcDbEntity
  8
枠_表
  6
CONTINUOUS
 62
     6
100
AcDbLine
 10
116.4000000000291
 20
271.4499999999996
 30
0.0
 11
196.4000000000291
 21
271.4499999999996
 31
0.0
  0
LINE
  5
AF
330
1F
100
AcDbEntity
  8
枠_表
  6
CONTINUOUS
 62
     6
100
AcDbLine
 10
116.4000000000291
 20
286.2999999999998
 30
0.0
 11
196.4000000000291
 21
286.2999999999998
 31
0.0
  0
LINE
  5
B0
330
1F
100
AcDbEntity
  8
枠_表
  6
CONTINUOUS
 62
     6
100
AcDbLine
 10
116.4000000000291
 20
281.3499999999997
 30
0.0
 11
196.4000000000291
 21
281.3499999999997
 31
0.0
  0
TEXT
  5
B1
330
1F
100
AcDbEntity
  8
枠_表
  6
CONTINUOUS
 62
     2
100
AcDbText
 10
147.3000000000152
 20
276.7749999999997
 30
0.0
 40
4.0
  1
洗面化粧台
 41
1.01379310057081
  7
EXCADSTD
 72
     5
 11
164.0999999523315
 21
276.7749999999997
 31
0.0
100
AcDbText
  0
TEXT
  5
B2
330
1F
100
AcDbEntity
  8
枠_表
  6
CONTINUOUS
 62
     2
100
AcDbText
 10
189.4000000000291
 20
271.9249999999998
 30
0.0
 40
4.0
  1
１
 41
1.119999999999996
  7
EXCADSTD
 72
     5
 11
192.6000000000291
 21
271.9249999999998
 31
0.0
100
AcDbText
  0
TEXT
  5
B3
330
1F
100
AcDbEntity
  8
枠_表
  6
CONTINUOUS
 62
     2
100
AcDbText
 10
189.4000000000291
 20
276.8749999999998
 30
0.0
 40
4.0
  1
１
 41
1.119999999999996
  7
EXCADSTD
 72
     5
 11
192.6000000000291
 21
276.8749999999998
 31
0.0
100
AcDbText
  0
TEXT
  5
B4
330
1F
100
AcDbEntity
  8
枠_表
  6
CONTINUOUS
 62
     2
100
AcDbText
 10
192.5279296900256
 20
21.63488463999988
 30
0.0
 40
3.0
  1
１５
 41
1.098531230663534
  7
EXCADSTD
 72
     5
 11
197.7067197774394
 21
21.63488463999988
 31
0.0
100
AcDbText
  0
LINE
  5
B5
330
1F
100
AcDbEntity
  8
枠_表
  6
CONTINUOUS
 62
     7
100
AcDbLine
 10
17.40000000002566
 20
9.299999999999955
 30
0.0
 11
17.40000000002566
 21
289.3
 31
0.0
  0
LINE
  5
B6
330
1F
100
AcDbEntity
  8
枠_表
  6
EXLTYPE2
 62
     6
100
AcDbLine
 10
17.40000000002566
 20
14.29999999999995
 30
0.0
 11
48.40000000002566
 21
14.29999999999995
 31
0.0
  0
CIRCLE
  5
B7
330
1F
100
AcDbEntity
  8
枠_表
  6
CONTINUOUS
 62
     6
100
AcDbCircle
 10
42.90000000002566
 20
11.79999999999995
 30
0.0
 40
0.10000002
  0
CIRCLE
  5
B8
330
1F
100
AcDbEntity
  8
枠_表
  6
CONTINUOUS
 62
     6
100
AcDbCircle
 10
37.90000000002566
 20
11.79999999999995
 30
0.0
 40
0.10000002
  0
LINE
  5
B9
330
1F
100
AcDbEntity
  8
枠_表
  6
CONTINUOUS
 62
     6
100
AcDbLine
 10
188.6653808600256
 20
21.60029297000005
 30
0.0
 11
196.3993896500257
 21
29.46998291
 31
0.0
  0
LINE
  5
BA
330
1F
100
AcDbEntity
  8
枠_表
  6
CONTINUOUS
 62
     6
100
AcDbLine
 10
17.40000000002566
 20
26.29999999999995
 30
0.0
 11
74.40000000002566
 21
26.29999999999995
 31
0.0
  0
LINE
  5
BB
330
1F
100
AcDbEntity
  8
枠_表
  6
CONTINUOUS
 62
     6
100
AcDbLine
 10
32.90000000002566
 20
31.29999999999995
 30
0.0
 11
32.90000000002566
 21
9.299999999999955
 31
0.0
  0
LINE
  5
BC
330
1F
100
AcDbEntity
  8
枠_表
  6
CONTINUOUS
 62
     6
100
AcDbLine
 10
48.40000000002566
 20
31.29999999999995
 30
0.0
 11
48.40000000002566
 21
9.299999999999955
 31
0.0
  0
LINE
  5
BD
330
1F
100
AcDbEntity
  8
枠_表
  6
CONTINUOUS
 62
     6
100
AcDbLine
 10
61.40000000002566
 20
31.29999999999995
 30
0.0
 11
61.40000000002566
 21
9.299999999999955
 31
0.0
  0
LINE
  5
BE
330
1F
100
AcDbEntity
  8
枠_表
  6
CONTINUOUS
 62
     6
100
AcDbLine
 10
74.40000000002566
 20
31.29999999999995
 30
0.0
 11
74.40000000002566
 21
9.299999999999955
 31
0.0
  0
LINE
  5
BF
330
1F
100
AcDbEntity
  8
枠_表
  6
CONTINUOUS
 62
     6
100
AcDbLine
 10
79.40000000002566
 20
31.29999999999995
 30
0.0
 11
79.40000000002566
 21
19.29999999999995
 31
0.0
  0
LINE
  5
C0
330
1F
100
AcDbEntity
  8
枠_表
  6
CONTINUOUS
 62
     6
100
AcDbLine
 10
138.4000000000256
 20
31.29999999999995
 30
0.0
 11
138.4000000000256
 21
9.299999999999955
 31
0.0
  0
LINE
  5
C1
330
1F
100
AcDbEntity
  8
枠_表
  6
CONTINUOUS
 62
     6
100
AcDbLine
 10
143.4000000000256
 20
31.29999999999995
 30
0.0
 11
143.4000000000256
 21
9.299999999999955
 31
0.0
  0
LINE
  5
C2
330
1F
100
AcDbEntity
  8
枠_表
  6
CONTINUOUS
 62
     6
100
AcDbLine
 10
180.4000000000257
 20
31.29999999999995
 30
0.0
 11
180.4000000000257
 21
19.29999999999995
 31
0.0
  0
LINE
  5
C3
330
1F
100
AcDbEntity
  8
枠_表
  6
CONTINUOUS
 62
     6
100
AcDbLine
 10
185.4000000000257
 20
31.29999999999995
 30
0.0
 11
185.4000000000257
 21
19.29999999999995
 31
0.0
  0
LINE
  5
C4
330
1F
100
AcDbEntity
  8
枠_表
  6
CONTINUOUS
 62
     6
100
AcDbLine
 10
199.4000000000257
 20
19.29999999999995
 30
0.0
 11
74.40000000002566
 21
19.29999999999995
 31
0.0
  0
LINE
  5
C5
330
1F
100
AcDbEntity
  8
枠_表
  6
CONTINUOUS
 62
     7
100
AcDbLine
 10
17.40000000002566
 20
289.3
 30
0.0
 11
199.4000000000257
 21
289.3
 31
0.0
  0
LINE
  5
C6
330
1F
100
AcDbEntity
  8
枠_表
  6
CONTINUOUS
 62
     7
100
AcDbLine
 10
199.4000000000257
 20
9.299999999999955
 30
0.0
 11
199.4000000000257
 21
289.3
 31
0.0
  0
LINE
  5
C7
330
1F
100
AcDbEntity
  8
枠_表
  6
CONTINUOUS
 62
     7
100
AcDbLine
 10
17.40000000002566
 20
31.29999999999995
 30
0.0
 11
199.4000000000257
 21
31.29999999999995
 31
0.0
  0
TEXT
  5
C8
330
1F
100
AcDbEntity
  8
枠_表
  6
CONTINUOUS
 62
     2
100
AcDbText
 10
138.9750000000255
 20
10.07500000000005
 30
0.0
 40
4.25
  1
番
 41
1.120000000000002
  7
EXCADSTD
 72
     5
 11
142.3750000000255
 21
10.07500000000005
 31
0.0
100
AcDbText
  0
TEXT
  5
C9
330
1F
100
AcDbEntity
  8
枠_表
  6
CONTINUOUS
 62
     2
100
AcDbText
 10
138.9750000000255
 20
14.375
 30
0.0
 40
4.25
  1
図
 41
1.120000000000002
  7
EXCADSTD
 72
     5
 11
142.3750000000255
 21
14.375
 31
0.0
100
AcDbText
  0
TEXT
  5
CA
330
1F
100
AcDbEntity
  8
枠_表
  6
CONTINUOUS
 62
     2
100
AcDbText
 10
181.0750000000256
 20
20.67499999999995
 30
0.0
 40
4.25
  1
度
 41
1.120000000000002
  7
EXCADSTD
 72
     5
 11
184.4750000000256
 21
20.67499999999995
 31
0.0
100
AcDbText
  0
TEXT
  5
CB
330
1F
100
AcDbEntity
  8
枠_表
  6
CONTINUOUS
 62
     2
100
AcDbText
 10
181.0750000000256
 20
25.67499999999995
 30
0.0
 40
4.25
  1
尺
 41
1.120000000000002
  7
EXCADSTD
 72
     5
 11
184.4750000000256
 21
25.67499999999995
 31
0.0
100
AcDbText
  0
TEXT
  5
CC
330
1F
100
AcDbEntity
  8
枠_表
  6
CONTINUOUS
 62
     2
100
AcDbText
 10
138.9750000000255
 20
20.67499999999995
 30
0.0
 40
4.25
  1
番
 41
1.120000000000002
  7
EXCADSTD
 72
     5
 11
142.3750000000255
 21
20.67499999999995
 31
0.0
100
AcDbText
  0
TEXT
  5
CD
330
1F
100
AcDbEntity
  8
枠_表
  6
CONTINUOUS
 62
     2
100
AcDbText
 10
138.9750000000255
 20
25.67499999999995
 30
0.0
 40
4.25
  1
品
 41
1.120000000000002
  7
EXCADSTD
 72
     5
 11
142.3750000000255
 21
25.67499999999995
 31
0.0
100
AcDbText
  0
TEXT
  5
CE
330
1F
100
AcDbEntity
  8
枠_表
  6
CONTINUOUS
 62
     2
100
AcDbText
 10
74.9750000000257
 20
20.67499999999995
 30
0.0
 40
4.25
  1
名
 41
1.120000000000002
  7
EXCADSTD
 72
     5
 11
78.37500000002571
 21
20.67499999999995
 31
0.0
100
AcDbText
  0
TEXT
  5
CF
330
1F
100
AcDbEntity
  8
枠_表
  6
CONTINUOUS
 62
     2
100
AcDbText
 10
74.9750000000257
 20
25.67499999999995
 30
0.0
 40
4.25
  1
品
 41
1.120000000000002
  7
EXCADSTD
 72
     5
 11
78.37500000002571
 21
25.67499999999995
 31
0.0
100
AcDbText
  0
TEXT
  5
D0
330
1F
100
AcDbEntity
  8
枠_表
  6
CONTINUOUS
 62
     2
100
AcDbText
 10
63.15000000002566
 20
26.67499999999995
 30
0.0
 40
4.25
  1
承認
 41
1.303826737967915
  7
EXCADSTD
 72
     5
 11
71.85770000002566
 21
26.67499999999995
 31
0.0
100
AcDbText
  0
TEXT
  5
D1
330
1F
100
AcDbEntity
  8
枠_表
  6
CONTINUOUS
 62
     2
100
AcDbText
 10
50.15000000002566
 20
26.67499999999995
 30
0.0
 40
4.25
  1
検図
 41
1.303826737967915
  7
EXCADSTD
 72
     5
 11
58.85770000002566
 21
26.67499999999995
 31
0.0
100
AcDbText
  0
TEXT
  5
D2
330
1F
100
AcDbEntity
  8
枠_表
  6
CONTINUOUS
 62
     2
100
AcDbText
 10
35.15000000002566
 20
26.67499999999995
 30
0.0
 40
4.25
  1
写図
 41
1.509694117647059
  7
EXCADSTD
 72
     5
 11
45.23260000002566
 21
26.67499999999995
 31
0.0
100
AcDbText
  0
TEXT
  5
D3
330
1F
100
AcDbEntity
  8
枠_表
  6
CONTINUOUS
 62
     2
100
AcDbText
 10
19.65000000002566
 20
26.67499999999995
 30
0.0
 40
4.25
  1
製図
 41
1.509694117647059
  7
EXCADSTD
 72
     5
 11
29.73260000002566
 21
26.67499999999995
 31
0.0
100
AcDbText
  0
TEXT
  5
D4
330
1F
100
AcDbEntity
  8
枠_表
  6
CONTINUOUS
 62
     2
100
AcDbText
 10
188.4537109400256
 20
26.07227783000008
 30
0.0
 40
3.0
  1
１
 41
1.101333351135257
  7
EXCADSTD
 72
     5
 11
190.8137109781726
 21
26.07227783000008
 31
0.0
100
AcDbText
  0
ARC
  5
D5
330
1F
100
AcDbEntity
  8
枠_表
  6
CONTINUOUS
 62
     3
100
AcDbCircle
 10
92.48424810691277
 20
14.49019437507491
 30
0.0
 40
1.907418003737831
100
AcDbArc
 50
153.7591918158497
 51
169.3462759801917
  0
LINE
  5
D6
330
1F
100
AcDbEntity
  8
枠_表
  6
CONTINUOUS
 62
     3
100
AcDbLine
 10
90.52432657335076
 20
14.84282432975397
 30
0.0
 11
90.60970934869884
 21
14.84282432975397
 31
0.0
  0
LINE
  5
D7
330
1F
100
AcDbEntity
  8
枠_表
  6
CONTINUOUS
 62
     3
100
AcDbLine
 10
89.88375157335064
 20
15.26199932975396
 30
0.0
 11
89.99310157335081
 21
15.26469932975397
 31
0.0
  0
LINE
  5
D8
330
1F
100
AcDbEntity
  8
枠_表
  6
CONTINUOUS
 62
     3
100
AcDbLine
 10
88.88340157335061
 20
14.58632432975401
 30
0.0
 11
88.88677657335062
 21
14.40744932975622
 31
0.0
  0
LINE
  5
D9
330
1F
100
AcDbEntity
  8
枠_表
  6
CONTINUOUS
 62
     3
100
AcDbLine
 10
89.37142657335072
 20
14.78814932975411
 30
0.0
 11
89.3619765733507
 21
14.61129932975405
 31
0.0
  0
LINE
  5
DA
330
1F
100
AcDbEntity
  8
枠_表
  6
CONTINUOUS
 62
     3
100
AcDbLine
 10
90.96240157335079
 20
13.33217432975403
 30
0.0
 11
90.95902657335056
 21
13.04394932975401
 31
0.0
  0
LINE
  5
DB
330
1F
100
AcDbEntity
  8
枠_表
  6
CONTINUOUS
 62
     3
100
AcDbLine
 10
90.4865265733507
 20
13.05069932975402
 30
0.0
 11
90.49327657335071
 21
12.895449329754
 31
0.0
  0
ARC
  5
DC
330
1F
100
AcDbEntity
  8
枠_表
  6
CONTINUOUS
 62
     3
100
AcDbCircle
 10
87.85344131323505
 20
12.85779759565003
 30
0.0
 40
1.127953740078838
100
AcDbArc
 50
332.3987521421788
 51
359.5124385477116
  0
LINE
  5
DD
330
1F
100
AcDbEntity
  8
枠_表
  6
CONTINUOUS
 62
     3
100
AcDbLine
 10
80.01727657335083
 20
14.77194932975408
 30
0.0
 11
80.10502657335074
 21
14.77194932975408
 31
0.0
  0
LINE
  5
DE
330
1F
100
AcDbEntity
  8
枠_表
  6
CONTINUOUS
 62
     3
100
AcDbLine
 10
89.55502657335079
 20
12.13269932975413
 30
0.0
 11
89.87227657335062
 21
12.13269932975413
 31
0.0
  0
LINE
  5
DF
330
1F
100
AcDbEntity
  8
枠_表
  6
CONTINUOUS
 62
     3
100
AcDbLine
 10
89.06902657335068
 20
12.84819932975415
 30
0.0
 11
88.98127657335077
 21
12.84819932975415
 31
0.0
  0
LINE
  5
E0
330
1F
100
AcDbEntity
  8
枠_表
  6
CONTINUOUS
 62
     3
100
AcDbLine
 10
89.75077657335065
 20
12.37569932975407
 30
0.0
 11
89.91277657335068
 21
12.37569932975407
 31
0.0
  0
LINE
  5
E1
330
1F
100
AcDbEntity
  8
枠_表
  6
CONTINUOUS
 62
     3
100
AcDbLine
 10
90.10852657335077
 20
15.52727432975394
 30
0.0
 11
89.9222265733507
 21
15.52727432975394
 31
0.0
  0
ARC
  5
E2
330
1F
100
AcDbEntity
  8
枠_表
  6
CONTINUOUS
 62
     3
100
AcDbCircle
 10
89.94147339130073
 20
14.65429236291675
 30
0.0
 40
0.612586430102253
100
AcDbArc
 50
17.92452211681263
 51
85.16543319077402
  0
ARC
  5
E3
330
1F
100
AcDbEntity
  8
枠_表
  6
CONTINUOUS
 62
     3
100
AcDbCircle
 10
89.90350964863102
 20
14.72674994707927
 30
0.0
 40
0.535613931103931
100
AcDbArc
 50
92.11404364449162
 51
173.4175047026091
  0
ARC
  5
E4
330
1F
100
AcDbEntity
  8
枠_表
  6
CONTINUOUS
 62
     3
100
AcDbCircle
 10
90.73031407335189
 20
14.93823182975439
 30
0.0
 40
1.4068519372934
100
AcDbArc
 50
193.4375782160214
 51
199.459638038058
  0
ARC
  5
E5
330
1F
100
AcDbEntity
  8
枠_表
  6
CONTINUOUS
 62
     3
100
AcDbCircle
 10
90.00721352390006
 20
14.83138641766618
 30
0.0
 40
0.703563707337184
100
AcDbArc
 50
210.9501336849607
 51
251.7794729821079
  0
ARC
  5
E6
330
1F
100
AcDbEntity
  8
枠_表
  6
CONTINUOUS
 62
     3
100
AcDbCircle
 10
91.65384669694627
 20
19.19359310503501
 30
0.0
 40
5.36564425851668
100
AcDbArc
 50
249.6420733479936
 51
256.4727051201885
  0
ARC
  5
E7
330
1F
100
AcDbEntity
  8
枠_表
  6
CONTINUOUS
 62
     3
100
AcDbCircle
 10
90.22045721294522
 20
13.25217258531575
 30
0.0
 40
0.746245075729606
100
AcDbArc
 50
6.154262763177246
 51
76.17509904255616
  0
ARC
  5
E8
330
1F
100
AcDbEntity
  8
枠_表
  6
CONTINUOUS
 62
     3
100
AcDbCircle
 10
89.84663886470126
 20
13.2669246711805
 30
0.0
 40
1.134515058180645
100
AcDbArc
 50
271.2948770866743
 51
348.6654156292868
  0
ARC
  5
E9
330
1F
100
AcDbEntity
  8
枠_表
  6
CONTINUOUS
 62
     3
100
AcDbCircle
 10
89.67930054595341
 20
13.88156576811025
 30
0.0
 40
1.75327631578002
100
AcDbArc
 50
241.8829576087176
 51
265.9354096935781
  0
ARC
  5
EA
330
1F
100
AcDbEntity
  8
枠_表
  6
CONTINUOUS
 62
     3
100
AcDbCircle
 10
89.86361043237422
 20
13.26658639777384
 30
0.0
 40
0.898004035462527
100
AcDbArc
 50
207.7689879465537
 51
262.7817283832026
  0
ARC
  5
EB
330
1F
100
AcDbEntity
  8
枠_表
  6
CONTINUOUS
 62
     3
100
AcDbCircle
 10
89.90357777449081
 20
12.97002363757156
 30
0.0
 40
0.594395491876676
100
AcDbArc
 50
270.8867385422408
 51
352.7925382056677
  0
ARC
  5
EC
330
1F
100
AcDbEntity
  8
枠_表
  6
CONTINUOUS
 62
     3
100
AcDbCircle
 10
90.03080045856233
 20
12.99846225433157
 30
0.0
 40
0.458710152219014
100
AcDbArc
 50
6.53892419415897
 51
65.09756080693691
  0
ARC
  5
ED
330
1F
100
AcDbEntity
  8
枠_表
  6
CONTINUOUS
 62
     3
100
AcDbCircle
 10
88.91714891832986
 20
10.79457141755211
 30
0.0
 40
2.927778413972754
100
AcDbArc
 50
63.49050203733571
 51
76.60259219849584
  0
ARC
  5
EE
330
1F
100
AcDbEntity
  8
枠_表
  6
CONTINUOUS
 62
     3
100
AcDbCircle
 10
89.9526814580207
 20
14.82396411006675
 30
0.0
 40
1.234100950779567
100
AcDbArc
 50
226.0402388947521
 51
253.1776672992999
  0
ARC
  5
EF
330
1F
100
AcDbEntity
  8
枠_表
  6
CONTINUOUS
 62
     3
100
AcDbCircle
 10
89.55599257928576
 20
14.42192769075518
 30
0.0
 40
0.669372605905611
100
AcDbArc
 50
181.2393899443581
 51
226.5942921332421
  0
ARC
  5
F0
330
1F
100
AcDbEntity
  8
枠_表
  6
CONTINUOUS
 62
     3
100
AcDbCircle
 10
89.87963496802182
 20
14.52009291101854
 30
0.0
 40
0.99843256030919
100
AcDbArc
 50
117.4083995939977
 51
176.1964688215695
  0
ARC
  5
F1
330
1F
100
AcDbEntity
  8
枠_表
  6
CONTINUOUS
 62
     3
100
AcDbCircle
 10
89.97711044286471
 20
14.20979097937607
 30
0.0
 40
1.319974865367525
100
AcDbArc
 50
92.38301574576484
 51
114.9635286746436
  0
ARC
  5
F2
330
1F
100
AcDbEntity
  8
枠_表
  6
CONTINUOUS
 62
     3
100
AcDbCircle
 10
90.08542828463133
 20
14.51663038363949
 30
0.0
 40
1.010907867592157
100
AcDbArc
 50
67.66151957087348
 51
88.69073168448988
  0
ARC
  5
F3
330
1F
100
AcDbEntity
  8
枠_表
  6
CONTINUOUS
 62
     3
100
AcDbCircle
 10
122.1644453233069
 20
96.50297432964209
 30
0.0
 40
87.02800228963156
100
AcDbArc
 50
248.6422112053103
 51
248.8567777804232
  0
ARC
  5
F4
330
1F
100
AcDbEntity
  8
枠_表
  6
CONTINUOUS
 62
     3
100
AcDbCircle
 10
65.16900575366445
 20
13.83249792766242
 30
0.0
 40
22.20076085035812
100
AcDbArc
 50
355.7940354718673
 51
4.229650257234378
  0
ARC
  5
F5
330
1F
100
AcDbEntity
  8
枠_表
  6
CONTINUOUS
 62
     3
100
AcDbCircle
 10
108.2254047179812
 20
13.81881005739388
 30
0.0
 40
20.35906390589
100
AcDbArc
 50
175.3387608397566
 51
184.5428594926176
  0
ARC
  5
F6
330
1F
100
AcDbEntity
  8
枠_表
  6
CONTINUOUS
 62
     3
100
AcDbCircle
 10
87.64144089373904
 20
5.679804184123213
 30
0.0
 40
6.532859485251088
100
AcDbArc
 50
87.46575055044718
 51
92.90832285102188
  0
ARC
  5
F7
330
1F
100
AcDbEntity
  8
枠_表
  6
CONTINUOUS
 62
     3
100
AcDbCircle
 10
87.61456076030287
 20
16.75332474358083
 30
0.0
 40
1.319228548840207
100
AcDbArc
 50
256.6209501743446
 51
283.9984576255729
  0
CIRCLE
  5
F8
330
1F
100
AcDbEntity
  8
枠_表
  6
CONTINUOUS
 62
     3
100
AcDbCircle
 10
87.62855140385919
 20
16.65835466873705
 30
0.0
 40
0.357233446676989
  0
LINE
  5
F9
330
1F
100
AcDbEntity
  8
枠_表
  6
CONTINUOUS
 62
     3
100
AcDbLine
 10
83.94847657335059
 20
14.18402432975404
 30
0.0
 11
83.94847657335059
 21
13.10469932975411
 31
0.0
  0
ARC
  5
FA
330
1F
100
AcDbEntity
  8
枠_表
  6
CONTINUOUS
 62
     3
100
AcDbCircle
 10
63.01176988674148
 20
13.79938058671746
 30
0.0
 40
20.43697806131072
100
AcDbArc
 50
355.5405243117485
 51
4.673398698656258
  0
ARC
  5
FB
330
1F
100
AcDbEntity
  8
枠_表
  6
CONTINUOUS
 62
     3
100
AcDbCircle
 10
83.6708284986381
 20
16.62206879814494
 30
0.0
 40
1.193349358546016
100
AcDbArc
 50
255.9341994177206
 51
284.5896440601899
  0
ARC
  5
FC
330
1F
100
AcDbEntity
  8
枠_表
  6
CONTINUOUS
 62
     3
100
AcDbCircle
 10
87.7057472739874
 20
15.00785681383059
 30
0.0
 40
3.762465500458181
100
AcDbArc
 50
172.9875214416311
 51
181.4134392789641
  0
ARC
  5
FD
330
1F
100
AcDbEntity
  8
枠_表
  6
CONTINUOUS
 62
     3
100
AcDbCircle
 10
85.07541069005116
 20
14.19275988818595
 30
0.0
 40
1.34194899665726
100
AcDbArc
 50
87.42068310381028
 51
147.4361518966862
  0
ARC
  5
FE
330
1F
100
AcDbEntity
  8
枠_表
  6
CONTINUOUS
 62
     3
100
AcDbCircle
 10
85.1772405741634
 20
14.59204664797994
 30
0.0
 40
0.94221437555554
100
AcDbArc
 50
34.84393737091607
 51
92.5207065423111
  0
ARC
  5
FF
330
1F
100
AcDbEntity
  8
枠_表
  6
CONTINUOUS
 62
     3
100
AcDbCircle
 10
84.97905515347394
 20
14.46285942451527
 30
0.0
 40
1.17869965146059
100
AcDbArc
 50
359.8658335690532
 51
34.49363429411157
  0
ARC
  5
100
330
1F
100
AcDbEntity
  8
枠_表
  6
CONTINUOUS
 62
     3
100
AcDbCircle
 10
80.01913601212628
 20
14.23315774812136
 30
0.0
 40
6.142809087866958
100
AcDbArc
 50
358.4775281223095
 51
2.117232414210064
  0
ARC
  5
101
330
1F
100
AcDbEntity
  8
枠_表
  6
CONTINUOUS
 62
     3
100
AcDbCircle
 10
102.4657633661953
 20
12.99067374739138
 30
0.0
 40
16.34166579853822
100
AcDbArc
 50
176.2131780319488
 51
182.7488833337936
  0
ARC
  5
102
330
1F
100
AcDbEntity
  8
枠_表
  6
CONTINUOUS
 62
     3
100
AcDbCircle
 10
85.85771407335083
 20
9.060152619227665
 30
0.0
 40
3.159693252126744
100
AcDbArc
 50
84.82155189294139
 51
95.17844810705873
  0
ARC
  5
103
330
1F
100
AcDbEntity
  8
枠_表
  6
CONTINUOUS
 62
     3
100
AcDbCircle
 10
69.11173378652312
 20
13.4775133788246
 30
0.0
 40
16.50975566668588
100
AcDbArc
 50
355.5862454873798
 51
2.816115806820253
  0
ARC
  5
104
330
1F
100
AcDbEntity
  8
枠_表
  6
CONTINUOUS
 62
     3
100
AcDbCircle
 10
84.49447404571093
 20
14.30315138821561
 30
0.0
 40
1.107172507744154
100
AcDbArc
 50
359.2495022237244
 51
32.84055016678327
  0
ARC
  5
105
330
1F
100
AcDbEntity
  8
枠_表
  6
CONTINUOUS
 62
     3
100
AcDbCircle
 10
84.80100145208108
 20
14.32366273138678
 30
0.0
 40
0.851645057047003
100
AcDbArc
 50
42.91644474042847
 51
128.3015542351336
  0
ARC
  5
106
330
1F
100
AcDbEntity
  8
枠_表
  6
CONTINUOUS
 62
     3
100
AcDbCircle
 10
85.0566172236896
 20
14.20795225138045
 30
0.0
 40
1.108398956318131
100
AcDbArc
 50
134.9787476233347
 51
181.2369872983282
  0
ARC
  5
107
330
1F
100
AcDbEntity
  8
枠_表
  6
CONTINUOUS
 62
     3
100
AcDbCircle
 10
91.34088578953616
 20
13.09150147009814
 30
0.0
 40
7.395120993114926
100
AcDbArc
 50
179.8977458165987
 51
186.8855675734268
  0
ARC
  5
108
330
1F
100
AcDbEntity
  8
枠_表
  6
CONTINUOUS
 62
     3
100
AcDbCircle
 10
83.6580878007188
 20
8.25069254511709
 30
0.0
 40
3.968909094418497
100
AcDbArc
 50
85.07099551674689
 51
93.91830029343228
  0
ARC
  5
109
330
1F
100
AcDbEntity
  8
枠_表
  6
CONTINUOUS
 62
     3
100
AcDbCircle
 10
-2247.20154221771
 20
77.23265245587822
 30
0.0
 40
2329.776001260591
100
AcDbArc
 50
358.4169008257799
 51
358.4423418242109
  0
ARC
  5
10A
330
1F
100
AcDbEntity
  8
枠_表
  6
CONTINUOUS
 62
     3
100
AcDbCircle
 10
80.8324469076848
 20
13.37836489530196
 30
0.0
 40
0.993581603997916
100
AcDbArc
 50
278.3335103000368
 51
329.1221464187299
  0
LINE
  5
10B
330
1F
100
AcDbEntity
  8
枠_表
  6
CONTINUOUS
 62
     3
100
AcDbLine
 10
80.80297657335073
 20
12.3952743297541
 30
0.0
 11
80.97645157335079
 21
12.3952743297541
 31
0.0
  0
ARC
  5
10C
330
1F
100
AcDbEntity
  8
枠_表
  6
CONTINUOUS
 62
     3
100
AcDbCircle
 10
80.86959653491304
 20
12.97461380097775
 30
0.0
 40
0.583157304846997
100
AcDbArc
 50
183.0707787095794
 51
263.4402016072427
  0
LINE
  5
10D
330
1F
100
AcDbEntity
  8
枠_表
  6
CONTINUOUS
 62
     3
100
AcDbLine
 10
80.28727657335058
 20
13.13912432975394
 30
0.0
 11
80.28727657335058
 21
12.94337432975408
 31
0.0
  0
ARC
  5
10E
330
1F
100
AcDbEntity
  8
枠_表
  6
CONTINUOUS
 62
     3
100
AcDbCircle
 10
80.907018668404
 20
13.05807479047189
 30
0.0
 40
0.625019433457053
100
AcDbArc
 50
115.7403688633493
 51
172.5491744442191
  0
ARC
  5
10F
330
1F
100
AcDbEntity
  8
枠_表
  6
CONTINUOUS
 62
     3
100
AcDbCircle
 10
81.45660651760282
 20
11.88318862667984
 30
0.0
 40
1.922065786155208
100
AcDbArc
 50
98.71271710191789
 51
115.2874718053599
  0
ARC
  5
110
330
1F
100
AcDbEntity
  8
枠_表
  6
CONTINUOUS
 62
     3
100
AcDbCircle
 10
80.56056099356293
 20
17.87501381160496
 30
0.0
 40
4.136406814694017
100
AcDbArc
 50
278.4088456599976
 51
286.1851416003176
  0
ARC
  5
111
330
1F
100
AcDbEntity
  8
枠_表
  6
CONTINUOUS
 62
     3
100
AcDbCircle
 10
78.10908200124832
 20
21.97417570522225
 30
0.0
 40
4.400758833490466
100
AcDbArc
 50
261.7986203004403
 51
278.6803384946418
  0
ARC
  5
112
330
1F
100
AcDbEntity
  8
枠_表
  6
CONTINUOUS
 62
     3
100
AcDbCircle
 10
143.6542531413689
 20
14.52960360950851
 30
0.0
 40
64.95474244683605
100
AcDbArc
 50
177.2695926307304
 51
181.4833117237826
  0
ARC
  5
113
330
1F
100
AcDbEntity
  8
枠_表
  6
CONTINUOUS
 62
     3
100
AcDbCircle
 10
76.44899361793192
 20
12.796313568801
 30
0.0
 40
2.272875263114311
100
AcDbArc
 50
335.1860595856123
 51
1.308075913059364
  0
ARC
  5
114
330
1F
100
AcDbEntity
  8
枠_表
  6
CONTINUOUS
 62
     3
100
AcDbCircle
 10
77.03897327888045
 20
12.69383518626819
 30
0.0
 40
1.701394688196115
100
AcDbArc
 50
286.2966123578915
 51
329.973223283839
  0
ARC
  5
115
330
1F
100
AcDbEntity
  8
枠_表
  6
CONTINUOUS
 62
     3
100
AcDbCircle
 10
76.70955749869232
 20
13.17223152915381
 30
0.0
 40
2.260341410821362
100
AcDbArc
 50
277.0901027239701
 51
290.9134154817058
  0
LINE
  5
116
330
1F
100
AcDbEntity
  8
枠_表
  6
CONTINUOUS
 62
     3
100
AcDbLine
 10
76.9885515733507
 20
10.92917432975401
 30
0.0
 11
76.86502657335073
 21
11.30514932975393
 31
0.0
  0
ARC
  5
117
330
1F
100
AcDbEntity
  8
枠_表
  6
CONTINUOUS
 62
     3
100
AcDbCircle
 10
76.48347289688
 20
12.46759859445979
 30
0.0
 40
1.223467000390025
100
AcDbArc
 50
288.1715191042997
 51
307.8537826235693
  0
ARC
  5
118
330
1F
100
AcDbEntity
  8
枠_表
  6
CONTINUOUS
 62
     3
100
AcDbCircle
 10
76.70927386498589
 20
12.03407518472909
 30
0.0
 40
0.747769185530633
100
AcDbArc
 50
314.592391474832
 51
344.9374073189123
  0
ARC
  5
119
330
1F
100
AcDbEntity
  8
枠_表
  6
CONTINUOUS
 62
     3
100
AcDbCircle
 10
28.03385521231881
 20
15.0519733583883
 30
0.0
 40
49.51400430399008
100
AcDbArc
 50
356.8390243485978
 51
2.971133813187157
  0
ARC
  5
11A
330
1F
100
AcDbEntity
  8
枠_表
  6
CONTINUOUS
 62
     3
100
AcDbCircle
 10
70.51439565229644
 20
12.67342761922782
 30
0.0
 40
6.967015049800598
100
AcDbArc
 50
353.1274757312911
 51
357.106204490141
  0
LINE
  5
11B
330
1F
100
AcDbEntity
  8
枠_表
  6
CONTINUOUS
 62
     3
100
AcDbLine
 10
80.01727657335083
 20
15.13644932975399
 30
0.0
 11
80.01727657335083
 21
14.77194932975408
 31
0.0
  0
ARC
  5
11C
330
1F
100
AcDbEntity
  8
枠_表
  6
CONTINUOUS
 62
     3
100
AcDbCircle
 10
80.8825361770556
 20
14.32890191857882
 30
0.0
 40
0.894881105176719
100
AcDbArc
 50
103.4267945469744
 51
150.3242613737993
  0
ARC
  5
11D
330
1F
100
AcDbEntity
  8
枠_表
  6
CONTINUOUS
 62
     3
100
AcDbCircle
 10
80.94799095800873
 20
14.19383830513016
 30
0.0
 40
1.04195273466423
100
AcDbArc
 50
77.23143261361693
 51
105.203415964315
  0
ARC
  5
11E
330
1F
100
AcDbEntity
  8
枠_表
  6
CONTINUOUS
 62
     3
100
AcDbCircle
 10
80.9928341282026
 20
14.52741886153422
 30
0.0
 40
0.707346538626002
100
AcDbArc
 50
3.537639967999379
 51
74.8013566619203
  0
ARC
  5
11F
330
1F
100
AcDbEntity
  8
枠_表
  6
CONTINUOUS
 62
     3
100
AcDbCircle
 10
80.40053873569137
 20
14.39229870375129
 30
0.0
 40
1.310543751018921
100
AcDbArc
 50
353.0315250986587
 51
7.839947970678348
  0
ARC
  5
120
330
1F
100
AcDbEntity
  8
枠_表
  6
CONTINUOUS
 62
     3
100
AcDbCircle
 10
81.53230955675905
 20
14.26511332504288
 30
0.0
 40
0.172058828228131
100
AcDbArc
 50
291.5204897073511
 51
349.3445900274031
  0
ARC
  5
121
330
1F
100
AcDbEntity
  8
枠_表
  6
CONTINUOUS
 62
     3
100
AcDbCircle
 10
81.13433050113473
 20
15.06407362688742
 30
0.0
 40
1.064113335272784
100
AcDbArc
 50
282.7195832898965
 51
295.6781112778079
  0
ARC
  5
122
330
1F
100
AcDbEntity
  8
枠_表
  6
CONTINUOUS
 62
     3
100
AcDbCircle
 10
78.58530099988353
 20
26.41202029775218
 30
0.0
 40
12.69482409370382
100
AcDbArc
 50
278.8438342053764
 51
282.6649181367123
  0
ARC
  5
123
330
1F
100
AcDbEntity
  8
枠_表
  6
CONTINUOUS
 62
     3
100
AcDbCircle
 10
80.80970138678354
 20
12.5960848148286
 30
0.0
 40
1.30093661698492
100
AcDbArc
 50
102.0988446293839
 51
129.1556705448828
  0
ARC
  5
124
330
1F
100
AcDbEntity
  8
枠_表
  6
CONTINUOUS
 62
     3
100
AcDbCircle
 10
80.43972379032708
 20
13.06366332500806
 30
0.0
 40
0.704795370557922
100
AcDbArc
 50
129.8344892359069
 51
168.4089447024628
  0
ARC
  5
125
330
1F
100
AcDbEntity
  8
枠_表
  6
CONTINUOUS
 62
     3
100
AcDbCircle
 10
80.59075018572558
 20
12.97758712547738
 30
0.0
 40
0.871709372588669
100
AcDbArc
 50
164.8589457925044
 51
187.8495628504518
  0
ARC
  5
126
330
1F
100
AcDbEntity
  8
枠_表
  6
CONTINUOUS
 62
     3
100
AcDbCircle
 10
80.50915332918076
 20
12.94015021572864
 30
0.0
 40
0.78619234712629
100
AcDbArc
 50
185.9586126338419
 51
224.0091989319859
  0
ARC
  5
127
330
1F
100
AcDbEntity
  8
枠_表
  6
CONTINUOUS
 62
     3
100
AcDbCircle
 10
80.54562953039463
 20
12.98111104772602
 30
0.0
 40
0.840895657756366
100
AcDbArc
 50
224.289750990011
 51
255.6505938786759
  0
ARC
  5
128
330
1F
100
AcDbEntity
  8
枠_表
  6
CONTINUOUS
 62
     3
100
AcDbCircle
 10
80.52928130739325
 20
12.76963494387405
 30
0.0
 40
0.633022832091786
100
AcDbArc
 50
252.3384873625213
 51
268.8069976857606
  0
LINE
  5
129
330
1F
100
AcDbEntity
  8
枠_表
  6
CONTINUOUS
 62
     3
100
AcDbLine
 10
80.51610157335072
 20
12.13674932975414
 30
0.0
 11
80.79015157335071
 21
12.13674932975414
 31
0.0
  0
ARC
  5
12A
330
1F
100
AcDbEntity
  8
枠_表
  6
CONTINUOUS
 62
     3
100
AcDbCircle
 10
80.66613045869586
 20
13.49534026256833
 30
0.0
 40
1.364239920103932
100
AcDbArc
 50
275.2158792069686
 51
319.2336424873511
  0
ARC
  5
12B
330
1F
100
AcDbEntity
  8
枠_表
  6
CONTINUOUS
 62
     3
100
AcDbCircle
 10
82.18315560560892
 20
12.66492594265719
 30
0.0
 40
0.487535134009722
100
AcDbArc
 50
187.1167640402297
 51
216.4860549324747
  0
ARC
  5
12C
330
1F
100
AcDbEntity
  8
枠_表
  6
CONTINUOUS
 62
     3
100
AcDbCircle
 10
82.12937735084039
 20
12.63367456528636
 30
0.0
 40
0.425769550620398
100
AcDbArc
 50
217.4081478714985
 51
264.8118660441384
  0
ARC
  5
12D
330
1F
100
AcDbEntity
  8
枠_表
  6
CONTINUOUS
 62
     3
100
AcDbCircle
 10
82.28995891948158
 20
13.06464512823027
 30
0.0
 40
0.856540620020894
100
AcDbArc
 50
271.2220539293239
 51
292.8159509797653
  0
LINE
  5
12E
330
1F
100
AcDbEntity
  8
枠_表
  6
CONTINUOUS
 62
     3
100
AcDbLine
 10
82.09087657335077
 20
12.20964932975403
 30
0.0
 11
82.30822657335067
 21
12.20964932975403
 31
0.0
  0
LINE
  5
12F
330
1F
100
AcDbEntity
  8
枠_表
  6
CONTINUOUS
 62
     3
100
AcDbLine
 10
82.62210157335072
 20
12.27512432975414
 30
0.0
 11
82.62210157335072
 21
12.43239932975393
 31
0.0
  0
ARC
  5
130
330
1F
100
AcDbEntity
  8
枠_表
  6
CONTINUOUS
 62
     3
100
AcDbCircle
 10
82.48242078460531
 20
12.70061188741079
 30
0.0
 40
0.30240485913648
100
AcDbArc
 50
243.6191685566582
 51
297.5097757939563
  0
ARC
  5
131
330
1F
100
AcDbEntity
  8
枠_表
  6
CONTINUOUS
 62
     3
100
AcDbCircle
 10
82.51823989448609
 20
12.68302928780463
 30
0.0
 40
0.305188683107389
100
AcDbArc
 50
179.9117548191414
 51
236.1065985968857
  0
ARC
  5
132
330
1F
100
AcDbEntity
  8
枠_表
  6
CONTINUOUS
 62
     3
100
AcDbCircle
 10
127.5650135838965
 20
13.19323843931738
 30
0.0
 40
45.35482655865662
100
AcDbArc
 50
178.2526643324597
 51
180.6439560401927
  0
ARC
  5
133
330
1F
100
AcDbEntity
  8
枠_表
  6
CONTINUOUS
 62
     3
100
AcDbCircle
 10
81.20706272605354
 20
14.50191625973321
 30
0.0
 40
1.02690407511459
100
AcDbArc
 50
4.148222840814693
 51
92.36000944257292
  0
ARC
  5
134
330
1F
100
AcDbEntity
  8
枠_表
  6
CONTINUOUS
 62
     3
100
AcDbCircle
 10
81.12685324128084
 20
13.76167288926877
 30
0.0
 40
1.766683515327064
100
AcDbArc
 50
88.77000393305703
 51
128.9068631829044
  0
TEXT
  5
136
330
1F
100
AcDbEntity
  8
枠_表
  6
CONTINUOUS
 62
     2
100
AcDbText
 10
92.30000000002575
 20
11.65000000000009
 30
0.0
 40
3.375
  1
ジャニス工業株式会社
 41
1.025641025641026
  7
EXCADTTF1
 72
     5
 11
137.3000000000258
 21
11.65000000000009
 31
0.0
100
AcDbText
  0
HATCH
  5
137
330
1F
100
AcDbEntity
  8
枠_表
  6
CONTINUOUS
 62
     3
100
AcDbHatch
 10
0.0
 20
0.0
 30
0.0
210
0.0
220
0.0
230
1.0
  2
SOLID
 70
     1
 71
     1
 91
        2
 92
        3
 72
     1
 73
     1
 93
       27
 10
80.0172765733506
 20
15.13644932975398
 42
-0.1769427732109284
 10
80.01727657335083
 20
15.13644932975399
 42
0.0
 10
80.01727657335083
 20
14.77194932975408
 42
0.0
 10
80.10502657335077
 20
14.77194932975404
 42
-0.207533601427307
 10
80.67474227898269
 20
15.19932359129042
 42
-0.1226604740888933
 10
81.17827657335076
 20
15.21002432975408
 42
-0.3213715781137954
 10
81.69883280224659
 20
14.57106514378481
 42
-0.064704004662446
 10
81.70140157335061
 20
14.23329932975406
 42
-0.257798906330806
 10
81.59542657335084
 20
14.105049329754
 42
-0.056602577721096
 10
81.3686265733507
 20
14.02607432975415
 42
-0.0166741689362636
 10
80.53702657335072
 20
13.86812432975396
 42
0.1186092302783404
 10
79.98825157335062
 20
13.60487432975412
 42
0.1699204224386695
 10
79.74930157335069
 20
13.205274329754
 42
0.1006533494296199
 10
79.72720866798394
 20
12.85853555095727
 42
0.1675695228968024
 10
79.94370157335085
 20
12.39392432975412
 42
0.1376980079804242
 10
80.33722657335068
 20
12.16644932975403
 42
0.0719813663796923
 10
80.51610157335072
 20
12.13674932975414
 42
0.0
 10
80.79015157335083
 20
12.13674932975415
 42
0.1944607457809085
 10
81.69937657335083
 20
12.60452432975396
 42
0.1288538183665954
 10
81.79117657335074
 20
12.3750243297541
 42
0.2098387395261546
 10
82.09087657335077
 20
12.20964932975403
 42
0.0
 10
82.30822657335071
 20
12.20829932975404
 42
0.0945009641609563
 10
82.62210157335072
 20
12.27512432975414
 42
0.0
 10
82.6221015733507
 20
12.43239932975395
 42
-0.2395739894657535
 10
82.34805157335077
 20
12.42969932975393
 42
-0.2502312110031058
 10
82.21305157335053
 20
12.6834993297542
 42
-0.0104343570771765
 10
82.23127657335068
 20
14.57619932975412
 42
0.4051015674140717
 97
        0
 92
        3
 72
     1
 73
     1
 93
        8
 10
81.71355157335066
 20
13.90254932975395
 42
-0.0339435190873666
 10
81.71355157335074
 20
13.90254932975285
 42
-0.0001110072973599
 10
81.68520157335067
 20
12.86844932975393
 42
-0.2253076310552528
 10
80.97645157335079
 20
12.3952743297541
 42
0.0
 10
80.8029765733506
 20
12.39527432975398
 42
-0.3657967558150132
 10
80.28727657335058
 20
12.94337432975408
 42
0.0
 10
80.28727657335067
 20
13.13912432975414
 42
-0.2530797830369341
 10
80.6355765733508
 20
13.62107432975412
 42
-0.0724473624720066
 97
        0
 75
     0
 76
     1
 98
        1
 10
0.0
 20
0.0
  0
HATCH
  5
138
330
1F
100
AcDbEntity
  8
枠_表
  6
CONTINUOUS
 62
     3
100
AcDbHatch
 10
0.0
 20
0.0
 30
0.0
210
0.0
220
0.0
230
1.0
  2
SOLID
 70
     1
 71
     1
 91
        1
 92
        3
 72
     1
 73
     1
 93
       30
 10
90.77340157335044
 20
15.33354932975418
 42
-0.0009362235736497
 10
90.77340157335068
 20
15.33354932975402
 42
0.0681165430304653
 10
90.60970934869884
 20
14.84282432975397
 42
0.0
 10
89.99310157335076
 20
15.26469932975415
 42
-0.302112590907374
 10
89.99310157335081
 20
15.26469932975397
 42
0.0
 10
89.3714265733507
 20
14.78814932975413
 42
-0.3704245237568778
 10
89.37142657335072
 20
14.78814932975411
 42
0.0
 10
89.40382657335063
 20
14.46954932975402
 42
-0.0262822419456939
 10
89.78722657335062
 20
14.16309932975411
 42
-0.180060563604375
 10
90.39877657335074
 20
13.97679932975398
 42
-0.0298130817160724
 10
90.39877657335072
 20
13.97679932975406
 42
-0.3153987453686078
 10
90.96240157335079
 20
13.33217432975403
 42
0.0
 10
90.95902657335073
 20
13.04394932975411
 42
-0.3510306079065168
 10
89.87227657335062
 20
12.13269932975413
 42
0.0
 10
89.55502657335066
 20
12.13269932975405
 42
-0.1053356344842436
 10
88.85302657335066
 20
12.33519932975408
 42
0.1188608286962634
 10
88.98127657335077
 20
12.84819932975415
 42
0.0
 10
89.75077657335063
 20
12.37569932975408
 42
-0.2447573632916039
 10
89.75077657335065
 20
12.37569932975407
 42
0.0
 10
90.49327657335074
 20
12.89544932975397
 42
-0.3734162676407277
 10
90.49327657335071
 20
12.895449329754
 42
0.0
 10
90.2239515733507
 20
13.41452432975398
 42
-0.261219770190848
 10
89.59552657335055
 20
13.64267432975409
 42
-0.0572747914118363
 10
89.59552657335077
 20
13.64267432975397
 42
-0.1189658875692221
 10
89.09602657335076
 20
13.93562432975397
 42
-0.2005226878639636
 10
88.88677657335062
 20
14.40744932975622
 42
0.0
 10
88.88340157335074
 20
14.58632432975393
 42
-0.2622894489606957
 10
89.42002657335071
 20
15.40644932975404
 42
-0.0988461274137808
 10
89.9222265733507
 20
15.52727432975394
 42
0.0
 10
90.10852657335063
 20
15.52727432975403
 42
-0.0920156312561188
 97
        0
 75
     0
 76
     1
 98
        1
 10
0.0
 20
0.0
  0
HATCH
  5
139
330
1F
100
AcDbEntity
  8
枠_表
  6
CONTINUOUS
 62
     3
100
AcDbHatch
 10
0.0
 20
0.0
 30
0.0
210
0.0
220
0.0
230
1.0
  2
SOLID
 70
     1
 71
     1
 91
        2
 92
        1
 93
        1
 72
     2
 10
87.62855140385919
 20
16.65835466873705
 40
0.3572334466769884
 50
0.0
 51
360.0
 73
     1
 97
        0
 92
        3
 72
     1
 73
     1
 93
        3
 10
87.30930157335058
 20
15.46989932975412
 42
0.1200283885712921
 10
87.93030157335048
 20
12.20627432975403
 42
-0.0401820615762149
 10
87.3099765733507
 20
12.20424932975396
 42
-0.0237521668114666
 97
        0
 75
     0
 76
     1
 98
        1
 10
0.0
 20
0.0
  0
HATCH
  5
13A
330
1F
100
AcDbEntity
  8
枠_表
  6
CONTINUOUS
 62
     3
100
AcDbHatch
 10
0.0
 20
0.0
 30
0.0
210
0.0
220
0.0
230
1.0
  2
SOLID
 70
     1
 71
     1
 91
        1
 92
        3
 72
     1
 73
     1
 93
       16
 10
83.38687657335066
 20
12.21032432975406
 42
-0.0386228372648426
 10
83.38080157335054
 20
15.46449932975407
 42
-0.0398707891902887
 10
83.97142657335074
 20
15.46719932975414
 42
-0.1256886216044368
 10
83.9444265733508
 20
14.91504932975413
 42
-0.0367815758121429
 10
83.94442657335068
 20
14.91504932975399
 42
-0.268021535028829
 10
85.13580157335078
 20
15.53334932975407
 42
-0.2571134422124888
 10
85.95052657335067
 20
15.1303743297541
 42
-0.1522526366014298
 10
86.15775157335074
 20
14.46009932975401
 42
-0.0158825412051521
 10
86.14290157335053
 20
12.20694932975412
 42
-0.0285251271418421
 10
85.57252657335083
 20
12.20694932975395
 42
-0.0452212723224612
 10
85.60155157335072
 20
14.28864932975404
 42
-0.0315567291532142
 10
85.42470157335065
 20
14.90357432975414
 42
-0.1476272403790709
 10
84.27315157335077
 20
14.99199932975394
 42
-0.3908144705745794
 10
83.94847657335059
 20
14.18402432975393
 42
-0.2046259928850854
 10
83.94847657335059
 20
14.18402432975404
 42
0.0
 10
83.9991015733508
 20
12.20492432975408
 42
-0.0304995761723369
 97
        0
 75
     0
 76
     1
 98
        1
 10
0.0
 20
0.0
  0
HATCH
  5
13B
330
1F
100
AcDbEntity
  8
枠_表
  6
CONTINUOUS
 62
     3
100
AcDbHatch
 10
0.0
 20
0.0
 30
0.0
210
0.0
220
0.0
230
1.0
  2
SOLID
 70
     1
 71
     1
 91
        1
 92
        3
 72
     1
 73
     1
 93
       10
 10
77.47252657335073
 20
12.321699329754
 42
-0.017362223501556
 10
77.48130157335069
 20
17.61842432975399
 42
-0.0267627618865285
 10
77.48130157335059
 20
17.61842432975408
 42
0.0737939047395297
 10
78.77325157335052
 20
17.62382432975406
 42
0.0183878899657109
 10
78.72127657335082
 20
12.84819932975411
 42
-0.1144749489451909
 10
78.51202657335062
 20
11.84244932975393
 42
-0.1929163439413163
 10
77.51640157335085
 20
11.06079932975399
 42
-0.0603888289562337
 10
76.9885515733507
 20
10.92917432975401
 42
0.0
 10
76.86502657335056
 20
11.30514932975394
 42
0.0860918333465722
 10
77.23425157335068
 20
11.501574329754
 42
0.1331843103855141
 97
        0
 75
     0
 76
     1
 98
        1
 10
0.0
 20
0.0
  0
LINE
  5
13C
330
1F
100
AcDbEntity
  8
枠_表
  6
CONTINUOUS
 62
     7
100
AcDbLine
 10
17.4000000000252
 20
9.299999999999955
 30
0.0
 11
199.4000000000253
 21
9.299999999999955
 31
0.0
  0
TEXT
  5
13D
330
1F
100
AcDbEntity
  8
枠_表
  6
CONTINUOUS
 62
     2
100
AcDbText
 10
117.1000000000284
 20
276.8749999999998
 30
0.0
 40
4.0
  1
ＬＵ０７５２ＣＳＤ１Ｅ
 41
0.7080769089552078
  7
EXCADSTD
 72
     5
 11
143.3999994755076
 21
276.8749999999998
 31
0.0
100
AcDbText
  0
TEXT
  5
13E
330
1F
100
AcDbEntity
  8
枠_表
  6
CONTINUOUS
 62
     2
100
AcDbText
 10
117.1000000000284
 20
271.9249999999998
 30
0.0
 40
4.0
  1
ＬＵ０７５２ＣＳＤ１Ｙ
 41
0.7080769089552078
  7
EXCADSTD
 72
     5
 11
143.3999994755076
 21
271.9249999999998
 31
0.0
100
AcDbText
  0
TEXT
  5
13F
330
1F
100
AcDbEntity
  8
枠_表
  6
CONTINUOUS
 62
     2
100
AcDbText
 10
80.40000000002566
 20
26.79999999999995
 30
0.0
 40
4.0
  1
７５０ｍｍ幅
 41
0.9999999970197677
  7
EXCADSTD
 72
     5
 11
100.399999940421
 21
26.79999999999995
 31
0.0
100
AcDbText
  0
TEXT
  5
140
330
1F
100
AcDbEntity
  8
枠_表
  6
CONTINUOUS
 62
     2
100
AcDbText
 10
147.3000000000152
 20
271.8249999999996
 30
0.0
 40
4.0
  1
洗面化粧台（寒冷地形）
 41
0.9692307660212887
  7
EXCADSTD
 72
     5
 11
183.2999998808059
 21
271.8249999999996
 31
0.0
100
AcDbText
  0
TEXT
  5
141
330
1F
100
AcDbEntity
  8
枠_表
  6
CONTINUOUS
 62
     2
100
AcDbText
 10
147.1000000477117
 20
22.79999999999995
 30
0.0
 40
5.0
  1
ＬＵ０７５２ＣＳ型
 41
0.7818867899336905
  7
EXCADSTD
 72
     5
 11
176.6999999523442
 21
22.79999999999995
 31
0.0
100
AcDbText
  0
TEXT
  5
142
330
1F
100
AcDbEntity
  8
枠_表
  6
CONTINUOUS
 62
     2
100
AcDbText
 10
116.9000000000325
 20
255.4500000000001
 30
0.0
 40
4.0
  1
ＮＬ２２１Ｆ２００ＷＹ３０
 41
0.7022727131843571
  7
EXCADSTD
 72
     5
 11
147.7999993801442
 21
255.4500000000001
 31
0.0
100
AcDbText
  0
TEXT
  5
143
330
1F
100
AcDbEntity
  8
枠_表
  6
CONTINUOUS
 62
     2
100
AcDbText
 10
116.0999999999327
 20
222.2000000000006
 30
0.0
 40
4.0
  1
※洗面化粧台には、床排水用トラップを付属
 41
1.036764705882353
  7
EXCADSTD
 72
     5
 11
186.5999999999327
 21
222.2000000000006
 31
0.0
100
AcDbText
  0
TEXT
  5
144
330
1F
100
AcDbEntity
  8
枠_表
  6
CONTINUOUS
 62
     2
100
AcDbText
 10
116.0999999999327
 20
218.2000000000006
 30
0.0
 40
4.0
  1
※洗面化粧台には、止水栓は含まれない
 41
1.038551401869159
  7
EXCADSTD
 72
     5
 11
179.5999999999327
 21
218.2000000000006
 31
0.0
100
AcDbText
  0
TEXT
  5
145
330
1F
100
AcDbEntity
  8
枠_表
  6
CONTINUOUS
 62
     2
100
AcDbText
 10
116.0999999999327
 20
214.2000000000006
 30
0.0
 40
4.0
  1
※湯水混合水栓は、節湯Ｃ１形、吐水口引出式
 41
1.036
  7
EXCADSTD
 72
     5
 11
190.0999999999327
 21
214.2000000000006
 31
0.0
100
AcDbText
  0
TEXT
  5
146
330
1F
100
AcDbEntity
  8
枠_表
  6
CONTINUOUS
 62
     2
100
AcDbText
 10
116.099999999932
 20
260.9500000000006
 30
0.0
 40
4.0
  1
※止水栓（別途手配）
 41
1.052966101694916
  7
EXCADSTD
 72
     5
 11
151.599999999932
 21
260.9500000000006
 31
0.0
100
AcDbText
  0
TEXT
  5
147
330
1F
100
AcDbEntity
  8
枠_表
  6
CONTINUOUS
 62
     2
100
AcDbText
 10
189.4000000000291
 20
238.5749999999999
 30
0.0
 40
4.0
  1
１
 41
1.119999999999996
  7
EXCADSTD
 72
     5
 11
192.6000000000291
 21
238.5749999999999
 31
0.0
100
AcDbText
  0
TEXT
  5
148
330
1F
100
AcDbEntity
  8
枠_表
  6
CONTINUOUS
 62
     2
100
AcDbText
 10
189.4000000000291
 20
231.0499999999998
 30
0.0
 40
4.0
  1
１
 41
1.119999999999996
  7
EXCADSTD
 72
     5
 11
192.6000000000291
 21
231.0499999999998
 31
0.0
100
AcDbText
  0
TEXT
  5
149
330
1F
100
AcDbEntity
  8
枠_表
  6
CONTINUOUS
 62
     2
100
AcDbText
 10
152.3000000000153
 20
233.7149999999997
 30
0.0
 40
4.0
  1
配管アダプター
 41
0.9902438993861036
  7
EXCADSTD
 72
     5
 11
175.4999999284897
 21
233.7149999999997
 31
0.0
100
AcDbText
  0
TEXT
  5
14A
330
1F
100
AcDbEntity
  8
枠_表
  6
CONTINUOUS
 62
     2
100
AcDbText
 10
152.3000000000153
 20
228.7649999999999
 30
0.0
 40
4.0
  1
（ＶＰ５０・ＶＵ５０用）
 41
0.8183098559228469
  7
EXCADSTD
 72
     5
 11
185.4999998688851
 21
228.7649999999999
 31
0.0
100
AcDbText
  0
TEXT
  5
14B
330
1F
100
AcDbEntity
  8
枠_表
  6
CONTINUOUS
 62
     2
100
AcDbText
 10
116.4000000000284
 20
243.6249999999998
 30
0.0
 40
4.0
  1
※壁排水用部材（別途手配）
 41
1.045454545454546
  7
EXCADSTD
 72
     5
 11
162.4000000000284
 21
243.6249999999998
 31
0.0
100
AcDbText
  0
LINE
  5
14C
330
1F
100
AcDbEntity
  8
枠_表
  6
CONTINUOUS
 62
     6
100
AcDbLine
 10
116.4000000000291
 20
259.9499999999999
 30
0.0
 11
196.4000000000292
 21
259.9499999999999
 31
0.0
  0
LINE
  5
14D
330
1F
100
AcDbEntity
  8
枠_表
  6
CONTINUOUS
 62
     6
100
AcDbLine
 10
116.4000000000291
 20
250.0499999999998
 30
0.0
 11
196.4000000000292
 21
250.0499999999998
 31
0.0
  0
LINE
  5
14E
330
1F
100
AcDbEntity
  8
枠_表
  6
CONTINUOUS
 62
     6
100
AcDbLine
 10
116.4000000000291
 20
254.9999999999998
 30
0.0
 11
196.4000000000292
 21
254.9999999999998
 31
0.0
  0
LINE
  5
14F
330
1F
100
AcDbEntity
  8
枠_表
  6
CONTINUOUS
 62
     6
100
AcDbLine
 10
116.4000000000291
 20
250.05
 30
0.0
 11
116.4000000000291
 21
259.9499999999999
 31
0.0
  0
LINE
  5
150
330
1F
100
AcDbEntity
  8
枠_表
  6
CONTINUOUS
 62
     6
100
AcDbLine
 10
151.4000000000291
 20
250.0499999999998
 30
0.0
 11
151.4000000000291
 21
259.9499999999999
 31
0.0
  0
LINE
  5
151
330
1F
100
AcDbEntity
  8
枠_表
  6
CONTINUOUS
 62
     6
100
AcDbLine
 10
186.4000000000292
 20
250.0499999999998
 30
0.0
 11
186.4000000000292
 21
259.9499999999999
 31
0.0
  0
LINE
  5
152
330
1F
100
AcDbEntity
  8
枠_表
  6
CONTINUOUS
 62
     6
100
AcDbLine
 10
196.4000000000292
 20
250.05
 30
0.0
 11
196.4000000000292
 21
259.9499999999999
 31
0.0
  0
LINE
  5
153
330
1F
100
AcDbEntity
  8
枠_表
  6
CONTINUOUS
 62
     6
100
AcDbLine
 10
116.4000000000291
 20
228.1999999999999
 30
0.0
 11
196.4000000000292
 21
228.1999999999999
 31
0.0
  0
LINE
  5
154
330
1F
100
AcDbEntity
  8
枠_表
  6
CONTINUOUS
 62
     6
100
AcDbLine
 10
116.4000000000291
 20
238.1
 30
0.0
 11
196.4000000000292
 21
238.1
 31
0.0
  0
LINE
  5
155
330
1F
100
AcDbEntity
  8
枠_表
  6
CONTINUOUS
 62
     6
100
AcDbLine
 10
116.4000000000291
 20
243.0499999999998
 30
0.0
 11
196.4000000000292
 21
243.0499999999998
 31
0.0
  0
LINE
  5
156
330
1F
100
AcDbEntity
  8
枠_表
  6
CONTINUOUS
 62
     6
100
AcDbLine
 10
151.4000000000291
 20
228.1999999999999
 30
0.0
 11
151.4000000000291
 21
243.0499999999998
 31
0.0
  0
LINE
  5
157
330
1F
100
AcDbEntity
  8
枠_表
  6
CONTINUOUS
 62
     6
100
AcDbLine
 10
186.4000000000292
 20
228.1999999999999
 30
0.0
 11
186.4000000000292
 21
243.0499999999998
 31
0.0
  0
LINE
  5
158
330
1F
100
AcDbEntity
  8
枠_表
  6
CONTINUOUS
 62
     6
100
AcDbLine
 10
196.4000000000292
 20
228.1999999999999
 30
0.0
 11
196.4000000000292
 21
243.0499999999998
 31
0.0
  0
TEXT
  5
159
330
1F
100
AcDbEntity
  8
枠_表
  6
CONTINUOUS
 62
     2
100
AcDbText
 10
116.9000000000325
 20
231.1250000000001
 30
0.0
 40
4.0
  1
ＬＵＭＥＨ７０－２０－３２Ｂ
 41
0.6999999859246867
  7
EXCADSTD
 72
     5
 11
150.0999993324605
 21
231.1250000000001
 31
0.0
100
AcDbText
  0
TEXT
  5
15A
330
1F
100
AcDbEntity
  8
枠_表
  6
CONTINUOUS
 62
     2
100
AcDbText
 10
117.1000000000284
 20
238.5749999999999
 30
0.0
 40
4.0
  1
４４１３１
 41
0.7543103304402591
  7
EXCADSTD
 72
     5
 11
129.5999997616099
 21
238.5749999999999
 31
0.0
100
AcDbText
  0
TEXT
  5
15B
330
1F
100
AcDbEntity
  8
枠_表
  6
CONTINUOUS
 62
     2
100
AcDbText
 10
152.3000000000153
 20
238.4749999999997
 30
0.0
 40
4.0
  1
Ｌ管
 41
1.049923634625296
  7
EXCADSTD
 72
     5
 11
158.8995199890886
 21
238.4749999999997
 31
0.0
100
AcDbText
  0
TEXT
  5
15C
330
1F
100
AcDbEntity
  8
枠_表
  6
CONTINUOUS
 62
     2
100
AcDbText
 10
189.4000000000291
 20
255.5249999999999
 30
0.0
 40
4.0
  1
２
 41
1.119999999999996
  7
EXCADSTD
 72
     5
 11
192.6000000000291
 21
255.5249999999999
 31
0.0
100
AcDbText
  0
TEXT
  5
15D
330
1F
100
AcDbEntity
  8
枠_表
  6
CONTINUOUS
 62
     2
100
AcDbText
 10
152.3000000000153
 20
255.5749999999999
 30
0.0
 40
4.0
  1
床給水用止水栓
 41
0.9902438993861036
  7
EXCADSTD
 72
     5
 11
175.4999999284897
 21
255.5749999999999
 31
0.0
100
AcDbText
  0
TEXT
  5
15E
330
1F
100
AcDbEntity
  8
枠_表
  6
CONTINUOUS
 62
     2
100
AcDbText
 10
189.4000000000291
 20
250.6249999999998
 30
0.0
 40
4.0
  1
２
 41
1.119999999999996
  7
EXCADSTD
 72
     5
 11
192.6000000000291
 21
250.6249999999998
 31
0.0
100
AcDbText
  0
TEXT
  5
15F
330
1F
100
AcDbEntity
  8
枠_表
  6
CONTINUOUS
 62
     2
100
AcDbText
 10
152.1000000000153
 20
250.6249999999998
 30
0.0
 40
4.0
  1
壁給水用止水栓
 41
0.9902438993861036
  7
EXCADSTD
 72
     5
 11
175.2999999284897
 21
250.6249999999998
 31
0.0
100
AcDbText
  0
TEXT
  5
160
330
1F
100
AcDbEntity
  8
枠_表
  6
CONTINUOUS
 62
     2
100
AcDbText
 10
117.1000000000284
 20
250.5249999999999
 30
0.0
 40
4.0
  1
ＮＬ２２１－７５ＷＭＹ
 41
0.7080769089552078
  7
EXCADSTD
 72
     5
 11
143.3999994755076
 21
250.5249999999999
 31
0.0
100
AcDbText
  0
TEXT
  5
161
330
1F
100
AcDbEntity
  8
枠_表
  6
CONTINUOUS
 62
     2
100
AcDbText
 10
189.4000000000323
 20
266.8199999999999
 30
0.0
 40
4.0
  1
１
 41
1.119999999999996
  7
EXCADSTD
 72
     5
 11
192.6000000000323
 21
266.8199999999999
 31
0.0
100
AcDbText
  0
LINE
  5
162
330
1F
100
AcDbEntity
  8
枠_表
  6
CONTINUOUS
 62
     6
100
AcDbLine
 10
196.400000000032
 20
266.4499999999996
 30
0.0
 11
116.400000000032
 21
266.4499999999996
 31
0.0
  0
LINE
  5
163
330
1F
100
AcDbEntity
  8
枠_表
  6
CONTINUOUS
 62
     6
100
AcDbLine
 10
116.4000000000291
 20
266.45
 30
0.0
 11
116.4000000000291
 21
286.3
 31
0.0
  0
LINE
  5
164
330
1F
100
AcDbEntity
  8
枠_表
  6
CONTINUOUS
 62
     6
100
AcDbLine
 10
146.4000000000291
 20
286.2999999999998
 30
0.0
 11
146.4000000000291
 21
266.4499999999996
 31
0.0
  0
LINE
  5
165
330
1F
100
AcDbEntity
  8
枠_表
  6
CONTINUOUS
 62
     6
100
AcDbLine
 10
186.4000000000291
 20
266.4499999999996
 30
0.0
 11
186.4000000000291
 21
286.2999999999998
 31
0.0
  0
LINE
  5
166
330
1F
100
AcDbEntity
  8
枠_表
  6
CONTINUOUS
 62
     6
100
AcDbLine
 10
196.4000000000291
 20
266.45
 30
0.0
 11
196.4000000000291
 21
286.3
 31
0.0
  0
CIRCLE
  5
167
330
1F
100
AcDbEntity
  8
枠_表
  6
CONTINUOUS
 62
     6
100
AcDbCircle
 10
22.40000000002242
 20
11.79999999999995
 30
0.0
 40
0.10000002
  0
CIRCLE
  5
168
330
1F
100
AcDbEntity
  8
枠_表
  6
CONTINUOUS
 62
     6
100
AcDbCircle
 10
27.40000000002242
 20
11.79999999999995
 30
0.0
 40
0.10000002
  0
TEXT
  5
169
330
1F
100
AcDbEntity
  8
枠_表
  6
CONTINUOUS
 62
     6
100
AcDbText
 10
24.30691160571727
 20
10.24500732000001
 30
0.0
 40
3.0
  1
4
 41
0.4423611111111109
  7
EXCADSTD
 72
     5
 11
25.44441160571727
 21
10.24500732000001
 31
0.0
100
AcDbText
  0
TEXT
  5
16A
330
1F
100
AcDbEntity
  8
枠_表
  6
CONTINUOUS
 62
     6
100
AcDbText
 10
18.0344115675703
 20
10.24500732000001
 30
0.0
 40
3.0
  1
'20
 41
0.4689784011919448
  7
EXCADSTD
 72
     5
 11
21.18326654700193
 21
10.24500732000001
 31
0.0
100
AcDbText
  0
TEXT
  5
16B
330
1F
100
AcDbEntity
  8
枠_表
  6
CONTINUOUS
 62
     2
100
AcDbText
 10
147.2700000000318
 20
266.925
 30
0.0
 40
4.0
  1
化粧鏡
 41
1.070588232839809
  7
EXCADSTD
 72
     5
 11
157.66999997619
 21
266.925
 31
0.0
100
AcDbText
  0
TEXT
  5
16C
330
1F
100
AcDbEntity
  8
枠_表
  6
CONTINUOUS
 62
     2
100
AcDbText
 10
20.15000000002242
 20
17.80000000000018
 30
0.0
 40
5.0
  1
川野
 41
1.166581818181818
  7
EXCADSTD
 72
     5
 11
29.31600000002242
 21
17.80000000000018
 31
0.0
100
AcDbText
  0
TEXT
  5
16D
330
1F
100
AcDbEntity
  8
枠_表
  6
CONTINUOUS
 62
     6
100
AcDbText
 10
28.98941159141218
 20
10.24500732000001
 30
0.0
 40
3.0
  1
24
 41
0.3978947350853366
  7
EXCADSTD
 72
     5
 11
31.14941158187543
 21
10.24500732000001
 31
0.0
100
AcDbText
  0
TEXT
  5
16E
330
1F
100
AcDbEntity
  8
枠_表
  6
CONTINUOUS
 62
     2
100
AcDbText
 10
117.1000000000317
 20
266.925
 30
0.0
 40
4.0
  1
ＬＵＭ４５１ＣＳ
 41
0.7819148936170219
  7
EXCADSTD
 72
     5
 11
138.1000000000317
 21
266.925
 31
0.0
100
AcDbText
  0
TEXT
  5
16F
330
1F
100
AcDbEntity
  8
枠_表
  6
CONTINUOUS
 62
     7
100
AcDbText
 10
150.9000000000224
 20
11.45000000000005
 30
0.0
 40
6.0
  1
ＬＵ３１８７２０
 41
1.017730496453901
  7
EXCADSTD
 72
     5
 11
191.9000000000224
 21
11.45000000000005
 31
0.0
100
AcDbText
  0
TEXT
  5
170
330
1F
100
AcDbEntity
  8
枠_表
  6
CONTINUOUS
 62
     2
100
AcDbText
 10
50.45000000002237
 20
17.80000000000018
 30
0.0
 40
5.0
  1
岩田
 41
1.166581818181818
  7
EXCADSTD
 72
     5
 11
59.61600000002237
 21
17.80000000000018
 31
0.0
100
AcDbText
  0
LINE
  5
171
330
1F
100
AcDbEntity
  8
枠_表
  6
CONTINUOUS
 62
     6
100
AcDbLine
 10
116.40000000003
 20
243.05
 30
0.0
 11
116.40000000003
 21
228.2
 31
0.0
  0
LINE
  5
172
330
1F
100
AcDbEntity
  8
化粧台
  6
EXLTYPE3
 62
     6
100
AcDbLine
 10
961.000000000378
 20
1194.0
 30
0.0
 11
961.000000000378
 21
899.5
 31
0.0
  0
LINE
  5
173
330
1F
100
AcDbEntity
  8
化粧台
  6
CONTINUOUS
 62
     2
100
AcDbLine
 10
2375.000000000376
 20
919.4999999999
 30
0.0
 11
2375.000000000376
 21
869.49999999988
 31
0.0
  0
LINE
  5
174
330
1F
100
AcDbEntity
  8
化粧台
  6
CONTINUOUS
 62
     2
100
AcDbLine
 10
2407.000000000376
 20
869.49999999988
 30
0.0
 11
2375.000000000376
 21
869.49999999988
 31
0.0
  0
LINE
  5
175
330
1F
100
AcDbEntity
  8
化粧台
  6
CONTINUOUS
 62
     2
100
AcDbLine
 10
2407.000000000376
 20
919.4999999999
 30
0.0
 11
2407.000000000376
 21
869.49999999988
 31
0.0
  0
LINE
  5
176
330
1F
100
AcDbEntity
  8
化粧台
  6
EXLTYPE3
 62
     6
100
AcDbLine
 10
2411.000000000378
 20
1084.5
 30
0.0
 11
2411.000000000378
 21
896.5
 31
0.0
  0
LINE
  5
177
330
1F
100
AcDbEntity
  8
化粧台
  6
EXLTYPE4
 62
     6
100
AcDbLine
 10
2421.500000000378
 20
919.5
 30
0.0
 11
2421.500000000378
 21
1069.5
 31
0.0
  0
LINE
  5
178
330
1F
100
AcDbEntity
  8
化粧台
  6
EXLTYPE4
 62
     6
100
AcDbLine
 10
2400.500000000378
 20
919.5
 30
0.0
 11
2400.500000000378
 21
1069.5
 31
0.0
  0
LINE
  5
179
330
1F
100
AcDbEntity
  8
化粧台
  6
CONTINUOUS
 62
     6
100
AcDbLine
 10
2421.500000000394
 20
919.5
 30
0.0
 11
2421.500000000394
 21
911.5
 31
0.0
  0
LINE
  5
17A
330
1F
100
AcDbEntity
  8
化粧台
  6
CONTINUOUS
 62
     6
100
AcDbLine
 10
2400.500000000387
 20
919.5
 30
0.0
 11
2400.500000000387
 21
911.5
 31
0.0
  0
LINE
  5
17B
330
1F
100
AcDbEntity
  8
化粧台
  6
CONTINUOUS
 62
     6
100
AcDbLine
 10
2421.500000000378
 20
911.5
 30
0.0
 11
2400.500000000387
 21
911.5
 31
0.0
  0
LINE
  5
17C
330
1F
100
AcDbEntity
  8
化粧台
  6
CONTINUOUS
 62
     6
100
AcDbLine
 10
2413.800000000379
 20
981.5
 30
0.0
 11
2413.800000000379
 21
963.7000000000007
 31
0.0
  0
LINE
  5
17D
330
1F
100
AcDbEntity
  8
化粧台
  6
CONTINUOUS
 62
     6
100
AcDbLine
 10
2368.200000000379
 20
981.5
 30
0.0
 11
2368.200000000379
 21
963.7000000000007
 31
0.0
  0
ARC
  5
17E
330
1F
100
AcDbEntity
  8
化粧台
  6
EXLTYPE2
 62
     6
100
AcDbCircle
 10
2360.50000000038
 20
943.5
 30
0.0
 40
3.000000000000003
100
AcDbArc
 50
90.00000000000001
 51
180.0
  0
LINE
  5
17F
330
1F
100
AcDbEntity
  8
化粧台
  6
EXLTYPE2
 62
     6
100
AcDbLine
 10
2360.50000000038
 20
946.5
 30
0.0
 11
2421.500000000382
 21
946.5
 31
0.0
  0
LINE
  5
180
330
1F
100
AcDbEntity
  8
化粧台
  6
EXLTYPE2
 62
     6
100
AcDbLine
 10
2357.50000000038
 20
943.5
 30
0.0
 11
2357.50000000038
 21
923.5
 31
0.0
  0
ARC
  5
181
330
1F
100
AcDbEntity
  8
化粧台
  6
EXLTYPE2
 62
     6
100
AcDbCircle
 10
2367.000000000382
 20
958.5
 30
0.0
 40
3.000000000000003
100
AcDbArc
 50
90.00000000000001
 51
180.0
  0
LINE
  5
182
330
1F
100
AcDbEntity
  8
化粧台
  6
EXLTYPE2
 62
     6
100
AcDbLine
 10
2367.000000000382
 20
961.5
 30
0.0
 11
2415.000000000382
 21
961.5
 31
0.0
  0
LINE
  5
183
330
1F
100
AcDbEntity
  8
化粧台
  6
EXLTYPE2
 62
     6
100
AcDbLine
 10
2364.000000000382
 20
958.5
 30
0.0
 11
2364.000000000382
 21
946.5
 31
0.0
  0
ARC
  5
184
330
1F
100
AcDbEntity
  8
化粧台
  6
EXLTYPE2
 62
     6
100
AcDbCircle
 10
2415.000000000382
 20
958.5
 30
0.0
 40
3.000000000000003
100
AcDbArc
 50
0.0
 51
90.00000000000001
  0
LINE
  5
185
330
1F
100
AcDbEntity
  8
化粧台
  6
EXLTYPE2
 62
     6
100
AcDbLine
 10
2418.00000000038
 20
958.5
 30
0.0
 11
2418.00000000038
 21
946.5
 31
0.0
  0
ARC
  5
186
330
1F
100
AcDbEntity
  8
化粧台
  6
EXLTYPE2
 62
     6
100
AcDbCircle
 10
2421.500000000382
 20
943.5
 30
0.0
 40
3.000000000000003
100
AcDbArc
 50
0.0
 51
90.00000000000001
  0
LINE
  5
187
330
1F
100
AcDbEntity
  8
化粧台
  6
EXLTYPE2
 62
     6
100
AcDbLine
 10
2424.500000000382
 20
943.5
 30
0.0
 11
2424.500000000382
 21
923.5
 31
0.0
  0
LINE
  5
188
330
1F
100
AcDbEntity
  8
化粧台
  6
EXLTYPE2
 62
     6
100
AcDbLine
 10
2357.50000000038
 20
923.5
 30
0.0
 11
2424.500000000382
 21
923.5
 31
0.0
  0
LINE
  5
189
330
1F
100
AcDbEntity
  8
化粧台
  6
EXLTYPE2
 62
     6
100
AcDbLine
 10
2368.200000000379
 20
981.5
 30
0.0
 11
2413.800000000379
 21
981.5
 31
0.0
  0
LINE
  5
18A
330
1F
100
AcDbEntity
  8
化粧台
  6
EXLTYPE2
 62
     6
100
AcDbLine
 10
2368.200000000379
 20
963.7000000000007
 30
0.0
 11
2413.800000000379
 21
963.7000000000007
 31
0.0
  0
LINE
  5
18B
330
1F
100
AcDbEntity
  8
化粧台
  6
EXLTYPE3
 62
     6
100
AcDbLine
 10
2391.000000000378
 20
1104.5
 30
0.0
 11
2391.000000000378
 21
854.49999999988
 31
0.0
  0
LINE
  5
18C
330
1F
100
AcDbEntity
  8
化粧台
  6
EXLTYPE2
 62
     6
100
AcDbLine
 10
2407.000000000378
 20
919.4999999999
 30
0.0
 11
2407.000000000378
 21
1089.5
 31
0.0
  0
LINE
  5
18D
330
1F
100
AcDbEntity
  8
化粧台
  6
EXLTYPE2
 62
     6
100
AcDbLine
 10
2375.000000000378
 20
919.4999999999
 30
0.0
 11
2375.000000000378
 21
1089.5
 31
0.0
  0
LINE
  5
18E
330
1F
100
AcDbEntity
  8
化粧台
  6
CONTINUOUS
 62
     6
100
AcDbLine
 10
2486.000000000378
 20
1499.499999999953
 30
0.0
 11
2528.500005722278
 21
1499.499999999953
 31
0.0
  0
LINE
  5
18F
330
1F
100
AcDbEntity
  8
化粧台
  6
CONTINUOUS
 62
     6
100
AcDbLine
 10
2491.000005722382
 20
1501.49999999996
 30
0.0
 11
2523.500005722382
 21
1499.499999999958
 31
0.0
  0
LINE
  5
190
330
1F
100
AcDbEntity
  8
化粧台
  6
CONTINUOUS
 62
     6
100
AcDbLine
 10
2523.500005722382
 20
1499.499999999958
 30
0.0
 11
2491.000005722382
 21
1497.49999999996
 31
0.0
  0
LINE
  5
191
330
1F
100
AcDbEntity
  8
化粧台
  6
EXLTYPE2
 62
     6
100
AcDbLine
 10
2332.500000000376
 20
1179.5
 30
0.0
 11
2062.500000000378
 21
1179.5
 31
0.0
  0
LINE
  5
192
330
1F
100
AcDbEntity
  8
化粧台
  6
EXLTYPE2
 62
     6
100
AcDbLine
 10
2332.500000000376
 20
1039.5
 30
0.0
 11
2062.500000000378
 21
1039.5
 31
0.0
  0
LINE
  5
193
330
1F
100
AcDbEntity
  8
化粧台
  6
EXLTYPE2
 62
     6
100
AcDbLine
 10
2332.500000000376
 20
1179.5
 30
0.0
 11
2332.500000000376
 21
1039.5
 31
0.0
  0
LINE
  5
194
330
1F
100
AcDbEntity
  8
化粧台
  6
EXLTYPE2
 62
     6
100
AcDbLine
 10
2332.500000000376
 20
1509.5
 30
0.0
 11
2062.500000000378
 21
1509.5
 31
0.0
  0
LINE
  5
195
330
1F
100
AcDbEntity
  8
化粧台
  6
EXLTYPE2
 62
     6
100
AcDbLine
 10
2332.500000000376
 20
1434.5
 30
0.0
 11
2062.500000000378
 21
1434.5
 31
0.0
  0
LINE
  5
196
330
1F
100
AcDbEntity
  8
化粧台
  6
EXLTYPE2
 62
     6
100
AcDbLine
 10
2332.500000000376
 20
1509.5
 30
0.0
 11
2332.500000000376
 21
1434.5
 31
0.0
  0
ARC
  5
197
330
1F
100
AcDbEntity
  8
化粧台
  6
CONTINUOUS
 62
     2
100
AcDbCircle
 10
2043.000000000376
 20
1616.5
 30
0.0
 40
2.0
100
AcDbArc
 50
90.00000000000001
 51
180.0
  0
LINE
  5
198
330
1F
100
AcDbEntity
  8
化粧台
  6
CONTINUOUS
 62
     6
100
AcDbLine
 10
2062.500000000378
 20
1370.5
 30
0.0
 11
2063.000000000378
 21
1370.5
 31
0.0
  0
ARC
  5
199
330
1F
100
AcDbEntity
  8
化粧台
  6
CONTINUOUS
 62
     6
100
AcDbCircle
 10
2063.000000000378
 20
1371.5
 30
0.0
 40
1.0
100
AcDbArc
 50
269.999999999987
 51
0.0
  0
LINE
  5
19A
330
1F
100
AcDbEntity
  8
化粧台
  6
CONTINUOUS
 62
     6
100
AcDbLine
 10
2064.000000000378
 20
1412.5
 30
0.0
 11
2064.000000000378
 21
1371.5
 31
0.0
  0
ARC
  5
19B
330
1F
100
AcDbEntity
  8
化粧台
  6
CONTINUOUS
 62
     6
100
AcDbCircle
 10
2061.000000000378
 20
1412.5
 30
0.0
 40
3.000000000000003
100
AcDbArc
 50
0.0
 51
90.00000000000001
  0
LINE
  5
19C
330
1F
100
AcDbEntity
  8
化粧台
  6
CONTINUOUS
 62
     6
100
AcDbLine
 10
2044.500000000382
 20
1385.499999999995
 30
0.0
 11
2062.50000000038
 21
1385.499999999995
 31
0.0
  0
ARC
  5
19D
330
1F
100
AcDbEntity
  8
化粧台
  6
CONTINUOUS
 62
     6
100
AcDbCircle
 10
2061.150000000372
 20
1412.450000000008
 30
0.0
 40
1.0
100
AcDbArc
 50
0.0
 51
90.00000000000001
  0
ARC
  5
19E
330
1F
100
AcDbEntity
  8
化粧台
  6
CONTINUOUS
 62
     6
100
AcDbCircle
 10
2044.750000000376
 20
1407.25
 30
0.0
 40
1.750000000000001
100
AcDbArc
 50
170.7449623899685
 51
68.7663136548995
  0
ARC
  5
19F
330
1F
100
AcDbEntity
  8
化粧台
  6
CONTINUOUS
 62
     6
100
AcDbCircle
 10
2057.827514545173
 20
1405.119011184754
 30
0.0
 40
13.00000000000001
100
AcDbArc
 50
142.344253969435
 51
163.1780394406755
  0
ARC
  5
1A0
330
1F
100
AcDbEntity
  8
化粧台
  6
CONTINUOUS
 62
     6
100
AcDbCircle
 10
2048.327167025709
 20
1412.450000000008
 30
0.0
 40
1.0
100
AcDbArc
 50
90.00000000000001
 51
142.3442539694352
  0
ARC
  5
1A1
330
1F
100
AcDbEntity
  8
化粧台
  6
CONTINUOUS
 62
     6
100
AcDbCircle
 10
2057.827514545173
 20
1405.119011184754
 30
0.0
 40
15.00000000000001
100
AcDbArc
 50
142.0420920441203
 51
170.7449623899722
  0
ARC
  5
1A2
330
1F
100
AcDbEntity
  8
化粧台
  6
CONTINUOUS
 62
     6
100
AcDbCircle
 10
2048.365960544419
 20
1412.5
 30
0.0
 40
3.000000000000003
100
AcDbArc
 50
90.00000000000001
 51
142.0420920441179
  0
LINE
  5
1A3
330
1F
100
AcDbEntity
  8
化粧台
  6
CONTINUOUS
 62
     6
100
AcDbLine
 10
2048.365960544379
 20
1415.5
 30
0.0
 11
2061.000000000378
 21
1415.5
 31
0.0
  0
LINE
  5
1A4
330
1F
100
AcDbEntity
  8
化粧台
  6
CONTINUOUS
 62
     6
100
AcDbLine
 10
2048.327167025678
 20
1413.450000000008
 30
0.0
 11
2061.150000000372
 21
1413.450000000008
 31
0.0
  0
LINE
  5
1A5
330
1F
100
AcDbEntity
  8
化粧台
  6
CONTINUOUS
 62
     6
100
AcDbLine
 10
2062.150000000372
 20
1412.449999999999
 30
0.0
 11
2062.150000000372
 21
1396.060271065815
 31
0.0
  0
LINE
  5
1A6
330
1F
100
AcDbEntity
  8
化粧台
  6
CONTINUOUS
 62
     6
100
AcDbLine
 10
2043.95025261999
 20
1387.54231369542
 30
0.0
 11
2054.547979043467
 21
1388.070176405472
 31
0.0
  0
ARC
  5
1A7
330
1F
100
AcDbEntity
  8
化粧台
  6
CONTINUOUS
 62
     6
100
AcDbCircle
 10
2054.150000000372
 20
1396.060271065815
 30
0.0
 40
8.0
100
AcDbArc
 50
272.8514919099882
 51
0.0
  0
ARC
  5
1A8
330
1F
100
AcDbEntity
  8
化粧台
  6
CONTINUOUS
 62
     6
100
AcDbCircle
 10
2044.000000000376
 20
1386.543551862876
 30
0.0
 40
1.0
100
AcDbArc
 50
92.8514919099879
 51
180.0
  0
ARC
  5
1A9
330
1F
100
AcDbEntity
  8
化粧台
  6
CONTINUOUS
 62
     6
100
AcDbCircle
 10
2044.000000000376
 20
1384.5
 30
0.0
 40
1.0
100
AcDbArc
 50
180.0
 51
270.000000000026
  0
LINE
  5
1AA
330
1F
100
AcDbEntity
  8
化粧台
  6
CONTINUOUS
 62
     6
100
AcDbLine
 10
2044.500000000376
 20
1383.5
 30
0.0
 11
2044.000000000376
 21
1383.5
 31
0.0
  0
LINE
  5
1AB
330
1F
100
AcDbEntity
  8
化粧台
  6
CONTINUOUS
 62
     6
100
AcDbLine
 10
2043.000000000376
 20
1386.543551862876
 30
0.0
 11
2043.000000000376
 21
1384.5
 31
0.0
  0
LINE
  5
1AC
330
1F
100
AcDbEntity
  8
化粧台
  6
CONTINUOUS
 62
     6
100
AcDbLine
 10
2044.500000000376
 20
1385.499999999995
 30
0.0
 11
2044.500000000376
 21
1383.5
 31
0.0
  0
LINE
  5
1AD
330
1F
100
AcDbEntity
  8
化粧台
  6
CONTINUOUS
 62
     2
100
AcDbLine
 10
2045.500000000376
 20
1009.5
 30
0.0
 11
2045.500000000376
 21
1385.499999999995
 31
0.0
  0
LINE
  5
1AE
330
1F
100
AcDbEntity
  8
化粧台
  6
CONTINUOUS
 62
     2
100
AcDbLine
 10
2062.500000000378
 20
1009.5
 30
0.0
 11
2062.500000000378
 21
1385.499999999995
 31
0.0
  0
LINE
  5
1AF
330
1F
100
AcDbEntity
  8
化粧台
  6
CONTINUOUS
 62
     2
100
AcDbLine
 10
2045.500000000376
 20
1009.5
 30
0.0
 11
2062.500000000378
 21
1009.5
 31
0.0
  0
ARC
  5
1B0
330
1F
100
AcDbEntity
  8
化粧台
  6
CONTINUOUS
 62
     6
100
AcDbCircle
 10
2063.000000000378
 20
1550.5
 30
0.0
 40
1.0
100
AcDbArc
 50
269.999999999987
 51
0.0
  0
LINE
  5
1B1
330
1F
100
AcDbEntity
  8
化粧台
  6
CONTINUOUS
 62
     6
100
AcDbLine
 10
2064.000000000378
 20
1591.5
 30
0.0
 11
2064.000000000378
 21
1550.5
 31
0.0
  0
ARC
  5
1B2
330
1F
100
AcDbEntity
  8
化粧台
  6
CONTINUOUS
 62
     6
100
AcDbCircle
 10
2061.000000000378
 20
1591.5
 30
0.0
 40
3.000000000000003
100
AcDbArc
 50
0.0
 51
90.00000000000001
  0
LINE
  5
1B3
330
1F
100
AcDbEntity
  8
化粧台
  6
CONTINUOUS
 62
     2
100
AcDbLine
 10
2045.500000000376
 20
1419.5
 30
0.0
 11
2062.500000000378
 21
1419.5
 31
0.0
  0
LINE
  5
1B4
330
1F
100
AcDbEntity
  8
化粧台
  6
CONTINUOUS
 62
     2
100
AcDbLine
 10
2045.500000000376
 20
1419.5
 30
0.0
 11
2045.500000000376
 21
1564.5
 31
0.0
  0
LINE
  5
1B5
330
1F
100
AcDbEntity
  8
化粧台
  6
CONTINUOUS
 62
     2
100
AcDbLine
 10
2062.500000000378
 20
1419.5
 30
0.0
 11
2062.500000000378
 21
1564.5
 31
0.0
  0
LINE
  5
1B6
330
1F
100
AcDbEntity
  8
化粧台
  6
CONTINUOUS
 62
     6
100
AcDbLine
 10
2044.500000000382
 20
1564.499999999995
 30
0.0
 11
2062.50000000038
 21
1564.499999999995
 31
0.0
  0
ARC
  5
1B7
330
1F
100
AcDbEntity
  8
化粧台
  6
CONTINUOUS
 62
     6
100
AcDbCircle
 10
2061.150000000372
 20
1591.450000000008
 30
0.0
 40
1.0
100
AcDbArc
 50
0.0
 51
90.00000000000001
  0
ARC
  5
1B8
330
1F
100
AcDbEntity
  8
化粧台
  6
CONTINUOUS
 62
     6
100
AcDbCircle
 10
2044.750000000376
 20
1586.25
 30
0.0
 40
1.750000000000001
100
AcDbArc
 50
170.7449623899685
 51
68.7663136548995
  0
ARC
  5
1B9
330
1F
100
AcDbEntity
  8
化粧台
  6
CONTINUOUS
 62
     6
100
AcDbCircle
 10
2057.827514545173
 20
1584.119011184754
 30
0.0
 40
13.00000000000001
100
AcDbArc
 50
142.344253969435
 51
163.1780394406755
  0
ARC
  5
1BA
330
1F
100
AcDbEntity
  8
化粧台
  6
CONTINUOUS
 62
     6
100
AcDbCircle
 10
2048.327167025709
 20
1591.450000000008
 30
0.0
 40
1.0
100
AcDbArc
 50
90.00000000000001
 51
142.3442539694352
  0
ARC
  5
1BB
330
1F
100
AcDbEntity
  8
化粧台
  6
CONTINUOUS
 62
     6
100
AcDbCircle
 10
2057.827514545173
 20
1584.119011184754
 30
0.0
 40
15.00000000000001
100
AcDbArc
 50
142.0420920441203
 51
170.7449623899722
  0
ARC
  5
1BC
330
1F
100
AcDbEntity
  8
化粧台
  6
CONTINUOUS
 62
     6
100
AcDbCircle
 10
2048.365960544419
 20
1591.5
 30
0.0
 40
3.000000000000003
100
AcDbArc
 50
90.00000000000001
 51
142.0420920441179
  0
LINE
  5
1BD
330
1F
100
AcDbEntity
  8
化粧台
  6
CONTINUOUS
 62
     6
100
AcDbLine
 10
2048.365960544379
 20
1594.5
 30
0.0
 11
2061.000000000378
 21
1594.5
 31
0.0
  0
LINE
  5
1BE
330
1F
100
AcDbEntity
  8
化粧台
  6
CONTINUOUS
 62
     6
100
AcDbLine
 10
2048.327167025678
 20
1592.45000000001
 30
0.0
 11
2061.150000000372
 21
1592.45000000001
 31
0.0
  0
LINE
  5
1BF
330
1F
100
AcDbEntity
  8
化粧台
  6
CONTINUOUS
 62
     6
100
AcDbLine
 10
2062.150000000372
 20
1591.449999999999
 30
0.0
 11
2062.150000000372
 21
1575.060271065815
 31
0.0
  0
LINE
  5
1C0
330
1F
100
AcDbEntity
  8
化粧台
  6
CONTINUOUS
 62
     6
100
AcDbLine
 10
2043.95025261999
 20
1566.54231369542
 30
0.0
 11
2054.547979043467
 21
1567.070176405472
 31
0.0
  0
ARC
  5
1C1
330
1F
100
AcDbEntity
  8
化粧台
  6
CONTINUOUS
 62
     6
100
AcDbCircle
 10
2054.150000000372
 20
1575.060271065815
 30
0.0
 40
8.0
100
AcDbArc
 50
272.8514919099882
 51
0.0
  0
ARC
  5
1C2
330
1F
100
AcDbEntity
  8
化粧台
  6
CONTINUOUS
 62
     6
100
AcDbCircle
 10
2044.000000000376
 20
1565.543551862876
 30
0.0
 40
1.0
100
AcDbArc
 50
92.8514919099879
 51
180.0
  0
LINE
  5
1C3
330
1F
100
AcDbEntity
  8
化粧台
  6
CONTINUOUS
 62
     6
100
AcDbLine
 10
2062.500000000378
 20
1549.5
 30
0.0
 11
2063.000000000378
 21
1549.5
 31
0.0
  0
ARC
  5
1C4
330
1F
100
AcDbEntity
  8
化粧台
  6
CONTINUOUS
 62
     6
100
AcDbCircle
 10
2044.000000000376
 20
1563.5
 30
0.0
 40
1.0
100
AcDbArc
 50
180.0
 51
270.000000000026
  0
LINE
  5
1C5
330
1F
100
AcDbEntity
  8
化粧台
  6
CONTINUOUS
 62
     6
100
AcDbLine
 10
2044.500000000376
 20
1562.5
 30
0.0
 11
2044.000000000376
 21
1562.5
 31
0.0
  0
LINE
  5
1C6
330
1F
100
AcDbEntity
  8
化粧台
  6
CONTINUOUS
 62
     6
100
AcDbLine
 10
2043.000000000376
 20
1565.543551862876
 30
0.0
 11
2043.000000000376
 21
1563.5
 31
0.0
  0
LINE
  5
1C7
330
1F
100
AcDbEntity
  8
化粧台
  6
CONTINUOUS
 62
     6
100
AcDbLine
 10
2044.500000000376
 20
1564.499999999995
 30
0.0
 11
2044.500000000376
 21
1562.5
 31
0.0
  0
LINE
  5
1C8
330
1F
100
AcDbEntity
  8
化粧台
  6
CONTINUOUS
 62
     2
100
AcDbLine
 10
2491.000000000376
 20
1599.5
 30
0.0
 11
2043.000000000376
 21
1599.5
 31
0.0
  0
LINE
  5
1C9
330
1F
100
AcDbEntity
  8
化粧台
  6
CONTINUOUS
 62
     2
100
AcDbLine
 10
2066.000000000378
 20
919.5
 30
0.0
 11
2066.000000000378
 21
1599.5
 31
0.0
  0
ARC
  5
1CA
330
1F
100
AcDbEntity
  8
化粧台
  6
CONTINUOUS
 62
     2
100
AcDbCircle
 10
2043.000000000376
 20
1601.5
 30
0.0
 40
2.0
100
AcDbArc
 50
180.0
 51
270.0000000000002
  0
LINE
  5
1CB
330
1F
100
AcDbEntity
  8
化粧台
  6
CONTINUOUS
 62
     2
100
AcDbLine
 10
2041.000000000376
 20
1616.5
 30
0.0
 11
2041.000000000376
 21
1601.5
 31
0.0
  0
LINE
  5
1CC
330
1F
100
AcDbEntity
  8
化粧台
  6
CONTINUOUS
 62
     2
100
AcDbLine
 10
1217.000000000376
 20
919.4999999999
 30
0.0
 11
1217.000000000376
 21
869.49999999988
 31
0.0
  0
LINE
  5
1CD
330
1F
100
AcDbEntity
  8
化粧台
  6
CONTINUOUS
 62
     2
100
AcDbLine
 10
1217.000000000376
 20
869.49999999988
 30
0.0
 11
1185.000000000376
 21
869.49999999988
 31
0.0
  0
LINE
  5
1CE
330
1F
100
AcDbEntity
  8
化粧台
  6
CONTINUOUS
 62
     2
100
AcDbLine
 10
1185.000000000376
 20
919.4999999999
 30
0.0
 11
1185.000000000376
 21
869.49999999988
 31
0.0
  0
LINE
  5
1CF
330
1F
100
AcDbEntity
  8
化粧台
  6
CONTINUOUS
 62
     6
100
AcDbLine
 10
1223.800000000377
 20
981.5
 30
0.0
 11
1223.800000000377
 21
963.7000000000007
 31
0.0
  0
LINE
  5
1D0
330
1F
100
AcDbEntity
  8
化粧台
  6
CONTINUOUS
 62
     6
100
AcDbLine
 10
1178.200000000379
 20
981.5
 30
0.0
 11
1178.200000000379
 21
963.7000000000007
 31
0.0
  0
ARC
  5
1D1
330
1F
100
AcDbEntity
  8
化粧台
  6
EXLTYPE2
 62
     6
100
AcDbCircle
 10
1170.50000000038
 20
943.5
 30
0.0
 40
3.000000000000003
100
AcDbArc
 50
90.00000000000001
 51
180.0
  0
LINE
  5
1D2
330
1F
100
AcDbEntity
  8
化粧台
  6
EXLTYPE2
 62
     6
100
AcDbLine
 10
1170.50000000038
 20
946.5
 30
0.0
 11
1231.50000000038
 21
946.5
 31
0.0
  0
LINE
  5
1D3
330
1F
100
AcDbEntity
  8
化粧台
  6
EXLTYPE2
 62
     6
100
AcDbLine
 10
1167.500000000378
 20
943.5
 30
0.0
 11
1167.500000000378
 21
923.5
 31
0.0
  0
ARC
  5
1D4
330
1F
100
AcDbEntity
  8
化粧台
  6
EXLTYPE2
 62
     6
100
AcDbCircle
 10
1177.00000000038
 20
958.5
 30
0.0
 40
3.000000000000003
100
AcDbArc
 50
90.00000000000001
 51
180.0
  0
LINE
  5
1D5
330
1F
100
AcDbEntity
  8
化粧台
  6
EXLTYPE2
 62
     6
100
AcDbLine
 10
1177.00000000038
 20
961.5
 30
0.0
 11
1225.00000000038
 21
961.5
 31
0.0
  0
LINE
  5
1D6
330
1F
100
AcDbEntity
  8
化粧台
  6
EXLTYPE2
 62
     6
100
AcDbLine
 10
1174.00000000038
 20
958.5
 30
0.0
 11
1174.00000000038
 21
946.5
 31
0.0
  0
ARC
  5
1D7
330
1F
100
AcDbEntity
  8
化粧台
  6
EXLTYPE2
 62
     6
100
AcDbCircle
 10
1225.00000000038
 20
958.5
 30
0.0
 40
3.000000000000003
100
AcDbArc
 50
0.0
 51
90.00000000000001
  0
LINE
  5
1D8
330
1F
100
AcDbEntity
  8
化粧台
  6
EXLTYPE2
 62
     6
100
AcDbLine
 10
1228.00000000038
 20
958.5
 30
0.0
 11
1228.00000000038
 21
946.5
 31
0.0
  0
ARC
  5
1D9
330
1F
100
AcDbEntity
  8
化粧台
  6
EXLTYPE2
 62
     6
100
AcDbCircle
 10
1231.50000000038
 20
943.5
 30
0.0
 40
3.000000000000003
100
AcDbArc
 50
0.0
 51
90.00000000000001
  0
LINE
  5
1DA
330
1F
100
AcDbEntity
  8
化粧台
  6
EXLTYPE2
 62
     6
100
AcDbLine
 10
1234.50000000038
 20
943.5
 30
0.0
 11
1234.50000000038
 21
923.5
 31
0.0
  0
LINE
  5
1DB
330
1F
100
AcDbEntity
  8
化粧台
  6
EXLTYPE2
 62
     6
100
AcDbLine
 10
1167.500000000378
 20
923.5
 30
0.0
 11
1234.50000000038
 21
923.5
 31
0.0
  0
LINE
  5
1DC
330
1F
100
AcDbEntity
  8
化粧台
  6
EXLTYPE2
 62
     6
100
AcDbLine
 10
1178.200000000379
 20
981.5
 30
0.0
 11
1223.800000000377
 21
981.5
 31
0.0
  0
LINE
  5
1DD
330
1F
100
AcDbEntity
  8
化粧台
  6
EXLTYPE2
 62
     6
100
AcDbLine
 10
1178.200000000379
 20
963.7000000000007
 30
0.0
 11
1223.800000000377
 21
963.7000000000007
 31
0.0
  0
LINE
  5
1DE
330
1F
100
AcDbEntity
  8
化粧台
  6
EXLTYPE3
 62
     6
100
AcDbLine
 10
1201.000000000378
 20
1104.5
 30
0.0
 11
1201.000000000378
 21
854.49999999988
 31
0.0
  0
LINE
  5
1DF
330
1F
100
AcDbEntity
  8
化粧台
  6
EXLTYPE3
 62
     6
100
AcDbLine
 10
1126.000000000378
 20
1084.5
 30
0.0
 11
1126.000000000378
 21
896.5
 31
0.0
  0
LINE
  5
1E0
330
1F
100
AcDbEntity
  8
化粧台
  6
EXLTYPE3
 62
     6
100
AcDbLine
 10
796.0000000003798
 20
1084.5
 30
0.0
 11
796.0000000003798
 21
896.5
 31
0.0
  0
LINE
  5
1E1
330
1F
100
AcDbEntity
  8
化粧台
  6
EXLTYPE2
 62
     6
100
AcDbLine
 10
1217.000000000378
 20
919.4999999999
 30
0.0
 11
1217.000000000378
 21
1089.5
 31
0.0
  0
LINE
  5
1E2
330
1F
100
AcDbEntity
  8
化粧台
  6
EXLTYPE2
 62
     6
100
AcDbLine
 10
1185.000000000378
 20
919.4999999999
 30
0.0
 11
1185.000000000378
 21
1089.5
 31
0.0
  0
LINE
  5
1E3
330
1F
100
AcDbEntity
  8
化粧台
  6
EXLTYPE4
 62
     6
100
AcDbLine
 10
1136.500000000376
 20
919.5
 30
0.0
 11
1136.500000000376
 21
1069.5
 31
0.0
  0
LINE
  5
1E4
330
1F
100
AcDbEntity
  8
化粧台
  6
EXLTYPE4
 62
     6
100
AcDbLine
 10
1115.500000000376
 20
919.5
 30
0.0
 11
1115.500000000376
 21
1069.5
 31
0.0
  0
LINE
  5
1E5
330
1F
100
AcDbEntity
  8
化粧台
  6
EXLTYPE4
 62
     6
100
AcDbLine
 10
806.5000000003798
 20
919.5
 30
0.0
 11
806.5000000003798
 21
1069.5
 31
0.0
  0
LINE
  5
1E6
330
1F
100
AcDbEntity
  8
化粧台
  6
EXLTYPE4
 62
     6
100
AcDbLine
 10
785.5000000003798
 20
919.5
 30
0.0
 11
785.5000000003798
 21
1069.5
 31
0.0
  0
LINE
  5
1E7
330
1F
100
AcDbEntity
  8
化粧台
  6
CONTINUOUS
 62
     6
100
AcDbLine
 10
806.5000000003962
 20
919.5
 30
0.0
 11
806.5000000003962
 21
911.5
 31
0.0
  0
LINE
  5
1E8
330
1F
100
AcDbEntity
  8
化粧台
  6
CONTINUOUS
 62
     6
100
AcDbLine
 10
785.5000000003889
 20
919.5
 30
0.0
 11
785.5000000003889
 21
911.5
 31
0.0
  0
LINE
  5
1E9
330
1F
100
AcDbEntity
  8
化粧台
  6
CONTINUOUS
 62
     6
100
AcDbLine
 10
806.5000000003798
 20
911.5
 30
0.0
 11
785.5000000003889
 21
911.5
 31
0.0
  0
LINE
  5
1EA
330
1F
100
AcDbEntity
  8
化粧台
  6
CONTINUOUS
 62
     6
100
AcDbLine
 10
1115.50000000036
 20
919.5
 30
0.0
 11
1115.50000000036
 21
911.5
 31
0.0
  0
LINE
  5
1EB
330
1F
100
AcDbEntity
  8
化粧台
  6
CONTINUOUS
 62
     6
100
AcDbLine
 10
1136.500000000367
 20
919.5
 30
0.0
 11
1136.500000000367
 21
911.5
 31
0.0
  0
LINE
  5
1EC
330
1F
100
AcDbEntity
  8
化粧台
  6
CONTINUOUS
 62
     6
100
AcDbLine
 10
1115.500000000376
 20
911.5
 30
0.0
 11
1136.500000000367
 21
911.5
 31
0.0
  0
LINE
  5
1ED
330
1F
100
AcDbEntity
  8
化粧台
  6
CONTINUOUS
 62
     6
100
AcDbLine
 10
862.6435055528942
 20
1779.5
 30
0.0
 11
1059.356494447878
 21
1779.5
 31
0.0
  0
LINE
  5
1EE
330
1F
100
AcDbEntity
  8
化粧台
  6
CONTINUOUS
 62
     2
100
AcDbLine
 10
736.2834769815778
 20
1776.840358287754
 30
0.0
 11
792.0000000003889
 21
1618.5
 31
0.0
  0
LINE
  5
1EF
330
1F
100
AcDbEntity
  8
化粧台
  6
CONTINUOUS
 62
     2
100
AcDbLine
 10
1130.000000000387
 20
1618.5
 30
0.0
 11
1185.716523019198
 21
1776.840358287754
 31
0.0
  0
ARC
  5
1F0
330
1F
100
AcDbEntity
  8
化粧台
  6
CONTINUOUS
 62
     2
100
AcDbCircle
 10
741.0000000003889
 20
1778.5
 30
0.0
 40
5.0
100
AcDbArc
 50
92.60390534515753
 51
199.3858598894216
  0
ARC
  5
1F1
330
1F
100
AcDbEntity
  8
化粧台
  6
CONTINUOUS
 62
     2
100
AcDbCircle
 10
1181.000000000387
 20
1778.5
 30
0.0
 40
5.0
100
AcDbArc
 50
340.6141401105788
 51
87.39609465484251
  0
ARC
  5
1F2
330
1F
100
AcDbEntity
  8
化粧台
  6
CONTINUOUS
 62
     2
100
AcDbCircle
 10
961.0000000003889
 20
6616.000000000004
 30
0.0
 40
4837.500000000005
100
AcDbArc
 50
267.4553150987836
 51
272.5446849012167
  0
ARC
  5
1F3
330
1F
100
AcDbEntity
  8
化粧台
  6
CONTINUOUS
 62
     6
100
AcDbCircle
 10
900.835000000539
 20
1682.500000000287
 30
0.0
 40
100.0
100
AcDbArc
 50
83.99726479958528
 51
95.78779095102057
  0
ARC
  5
1F4
330
1F
100
AcDbEntity
  8
化粧台
  6
CONTINUOUS
 62
     6
100
AcDbCircle
 10
891.0029816636885
 20
1779.500000000175
 30
0.0
 40
2.502981663321009
100
AcDbArc
 50
95.78779095101787
 51
180.0000000040806
  0
ARC
  5
1F5
330
1F
100
AcDbEntity
  8
化粧台
  6
CONTINUOUS
 62
     6
100
AcDbCircle
 10
911.0347926092287
 20
1779.500000000247
 30
0.0
 40
2.465207391219374
100
AcDbArc
 50
0.0
 51
83.99726479958545
  0
LINE
  5
1F6
330
1F
100
AcDbEntity
  8
化粧台
  6
CONTINUOUS
 62
     6
100
AcDbLine
 10
892.6148288610362
 20
1804.424412548848
 30
0.0
 11
896.2500000004108
 21
1795.676247290652
 31
0.0
  0
ARC
  5
1F7
330
1F
100
AcDbEntity
  8
化粧台
  6
CONTINUOUS
 62
     6
100
AcDbCircle
 10
894.0000000004017
 20
1805.000000000651
 30
0.0
 40
1.5
100
AcDbArc
 50
89.99999999997263
 51
202.5646074934729
  0
LINE
  5
1F8
330
1F
100
AcDbEntity
  8
化粧台
  6
CONTINUOUS
 62
     6
100
AcDbLine
 10
909.3851711397671
 20
1804.424412548859
 30
0.0
 11
905.7500000004053
 21
1795.676247290659
 31
0.0
  0
ARC
  5
1F9
330
1F
100
AcDbEntity
  8
化粧台
  6
CONTINUOUS
 62
     6
100
AcDbCircle
 10
908.0000000003998
 20
1805.000000000658
 30
0.0
 40
1.5
100
AcDbArc
 50
337.4353925066304
 51
90.00000000011136
  0
LINE
  5
1FA
330
1F
100
AcDbEntity
  8
化粧台
  6
CONTINUOUS
 62
     6
100
AcDbLine
 10
894.0000000003998
 20
1806.500000000651
 30
0.0
 11
908.0000000003998
 21
1806.500000000658
 31
0.0
  0
ARC
  5
1FB
330
1F
100
AcDbEntity
  8
化粧台
  6
CONTINUOUS
 62
     6
100
AcDbCircle
 10
897.7500000004089
 20
1793.000000000651
 30
0.0
 40
1.5
100
AcDbArc
 50
180.0000000000381
 51
270.0000000001
  0
ARC
  5
1FC
330
1F
100
AcDbEntity
  8
化粧台
  6
CONTINUOUS
 62
     6
100
AcDbCircle
 10
904.2500000004089
 20
1793.000000000658
 30
0.0
 40
1.5
100
AcDbArc
 50
269.9999999999722
 51
0.0000000000343202
  0
LINE
  5
1FD
330
1F
100
AcDbEntity
  8
化粧台
  6
CONTINUOUS
 62
     6
100
AcDbLine
 10
896.2500000004089
 20
1793.000000000651
 30
0.0
 11
896.2500000004053
 21
1795.676247290659
 31
0.0
  0
LINE
  5
1FE
330
1F
100
AcDbEntity
  8
化粧台
  6
CONTINUOUS
 62
     6
100
AcDbLine
 10
905.7500000004089
 20
1793.000000000658
 30
0.0
 11
905.7500000004089
 21
1795.676247290667
 31
0.0
  0
LINE
  5
1FF
330
1F
100
AcDbEntity
  8
化粧台
  6
CONTINUOUS
 62
     6
100
AcDbLine
 10
904.2500000003853
 20
1791.500000000655
 30
0.0
 11
897.7500000004435
 21
1791.500000000655
 31
0.0
  0
LINE
  5
200
330
1F
100
AcDbEntity
  8
化粧台
  6
CONTINUOUS
 62
     6
100
AcDbLine
 10
903.5000000004198
 20
1782.224782419045
 30
0.0
 11
903.5000000004162
 21
1791.500000000655
 31
0.0
  0
LINE
  5
201
330
1F
100
AcDbEntity
  8
化粧台
  6
CONTINUOUS
 62
     6
100
AcDbLine
 10
898.5000000004217
 20
1782.380581251931
 30
0.0
 11
898.500000000418
 21
1791.500000000655
 31
0.0
  0
ARC
  5
202
330
1F
100
AcDbEntity
  8
化粧台
  6
CONTINUOUS
 62
     2
100
AcDbCircle
 10
961.0000000003889
 20
-3059.000000000005
 30
0.0
 40
4847.500000000005
100
AcDbArc
 50
90.73874893071417
 51
92.60390534515777
  0
ELLIPSE
  5
203
330
1F
100
AcDbEntity
  8
化粧台
  6
CONTINUOUS
 62
     6
100
AcDbEllipse
 10
961.000000000378
 20
1847.883863229501
 30
0.0
 11
11.50000000000001
 21
0.0
 31
0.0
210
0.0
220
0.0
230
1.0
 40
0.4226182617406996
 41
0.0
 42
6.283185307179586
  0
CIRCLE
  5
204
330
1F
100
AcDbEntity
  8
化粧台
  6
CONTINUOUS
 62
     6
100
AcDbCircle
 10
961.000000000378
 20
1913.383863229599
 30
0.0
 40
4.0
  0
ELLIPSE
  5
205
330
1F
100
AcDbEntity
  8
化粧台
  6
CONTINUOUS
 62
     6
100
AcDbEllipse
 10
961.000000000378
 20
1873.883863229599
 30
0.0
 11
15.00000000000001
 21
0.0
 31
0.0
210
0.0
220
0.0
230
1.0
 40
0.8660254037844385
 41
0.0
 42
6.283185307179586
  0
ELLIPSE
  5
206
330
1F
100
AcDbEntity
  8
化粧台
  6
CONTINUOUS
 62
     6
100
AcDbEllipse
 10
961.000000000378
 20
1815.860161176
 30
0.0
 11
1.060575238719482E-15
 21
17.32050807560018
 31
0.0
210
0.0
220
0.0
230
1.0
 40
0.8660254037888688
 41
1.570796326794897
 42
4.71238898038469
  0
LINE
  5
207
330
1F
100
AcDbEntity
  8
化粧台
  6
CONTINUOUS
 62
     6
100
AcDbLine
 10
946.000000000378
 20
1873.883863229599
 30
0.0
 11
946.000000000378
 21
1815.860161176
 31
0.0
  0
LINE
  5
208
330
1F
100
AcDbEntity
  8
化粧台
  6
CONTINUOUS
 62
     6
100
AcDbLine
 10
976.000000000378
 20
1873.883863229599
 30
0.0
 11
976.000000000378
 21
1815.860161176
 31
0.0
  0
LINE
  5
209
330
1F
100
AcDbEntity
  8
化粧台
  6
CONTINUOUS
 62
     6
100
AcDbLine
 10
949.500000000378
 20
1847.883863229501
 30
0.0
 11
949.500000000378
 21
1856.6740992985
 31
0.0
  0
LINE
  5
20A
330
1F
100
AcDbEntity
  8
化粧台
  6
CONTINUOUS
 62
     6
100
AcDbLine
 10
972.500000000378
 20
1847.883863229501
 30
0.0
 11
972.500000000378
 21
1856.6740992985
 31
0.0
  0
ELLIPSE
  5
20B
330
1F
100
AcDbEntity
  8
化粧台
  6
CONTINUOUS
 62
     6
100
AcDbEllipse
 10
961.000000000378
 20
1856.6740992985
 30
0.0
 11
11.50000000000001
 21
0.0
 31
0.0
210
0.0
220
0.0
230
1.0
 40
0.1739668486608696
 41
0.0
 42
3.141592653589793
  0
LINE
  5
20C
330
1F
100
AcDbEntity
  8
化粧台
  6
CONTINUOUS
 62
     6
100
AcDbLine
 10
936.500000000378
 20
1880.883863229599
 30
0.0
 11
948.3640723863606
 21
1880.883863229599
 31
0.0
  0
LINE
  5
20D
330
1F
100
AcDbEntity
  8
化粧台
  6
CONTINUOUS
 62
     6
100
AcDbLine
 10
973.6359276143936
 20
1880.883863229599
 30
0.0
 11
985.500000000378
 21
1880.883863229599
 31
0.0
  0
LINE
  5
20E
330
1F
100
AcDbEntity
  8
化粧台
  6
CONTINUOUS
 62
     6
100
AcDbLine
 10
947.1556268955134
 20
1878.883863229599
 30
0.0
 11
936.500000000378
 21
1878.883863229599
 31
0.0
  0
LINE
  5
20F
330
1F
100
AcDbEntity
  8
化粧台
  6
CONTINUOUS
 62
     6
100
AcDbLine
 10
985.500000000378
 20
1878.883863229599
 30
0.0
 11
974.8443731052408
 21
1878.883863229599
 31
0.0
  0
LINE
  5
210
330
1F
100
AcDbEntity
  8
化粧台
  6
CONTINUOUS
 62
     6
100
AcDbLine
 10
936.500000000378
 20
1920.883863229599
 30
0.0
 11
936.500000000378
 21
1880.883863229599
 31
0.0
  0
ARC
  5
211
330
1F
100
AcDbEntity
  8
化粧台
  6
CONTINUOUS
 62
     6
100
AcDbCircle
 10
938.500000000378
 20
1920.883863229599
 30
0.0
 40
2.0
100
AcDbArc
 50
90.00000000000001
 51
180.0
  0
LINE
  5
212
330
1F
100
AcDbEntity
  8
化粧台
  6
CONTINUOUS
 62
     6
100
AcDbLine
 10
985.500000000378
 20
1920.883863229599
 30
0.0
 11
985.500000000378
 21
1880.883863229599
 31
0.0
  0
LINE
  5
213
330
1F
100
AcDbEntity
  8
化粧台
  6
CONTINUOUS
 62
     6
100
AcDbLine
 10
938.500000000378
 20
1922.883863229599
 30
0.0
 11
983.500000000378
 21
1922.883863229599
 31
0.0
  0
ARC
  5
214
330
1F
100
AcDbEntity
  8
化粧台
  6
CONTINUOUS
 62
     6
100
AcDbCircle
 10
983.500000000378
 20
1920.883863229599
 30
0.0
 40
2.0
100
AcDbArc
 50
0.0
 51
90.00000000000001
  0
LINE
  5
215
330
1F
100
AcDbEntity
  8
化粧台
  6
CONTINUOUS
 62
     6
100
AcDbLine
 10
936.500000000378
 20
1878.883863229599
 30
0.0
 11
936.5000000003762
 21
1778.562041741518
 31
0.0
  0
LINE
  5
216
330
1F
100
AcDbEntity
  8
化粧台
  6
CONTINUOUS
 62
     6
100
AcDbLine
 10
985.500000000378
 20
1878.883863229599
 30
0.0
 11
985.5000000003762
 21
1778.562041741518
 31
0.0
  0
ELLIPSE
  5
217
330
1F
100
AcDbEntity
  8
化粧台
  6
CONTINUOUS
 62
     6
100
AcDbEllipse
 10
961.000000000378
 20
1833.883863229501
 30
0.0
 11
15.00000000000001
 21
0.0
 31
0.0
210
0.0
220
0.0
230
1.0
 40
0.8660254037844385
 41
3.141592653589793
 42
6.283185307179586
  0
ARC
  5
218
330
1F
100
AcDbEntity
  8
化粧台
  6
CONTINUOUS
 62
     2
100
AcDbCircle
 10
961.0000000003889
 20
-3059.000000000005
 30
0.0
 40
4847.500000000005
100
AcDbArc
 50
90.28958278998701
 51
90.67964612359954
  0
ARC
  5
219
330
1F
100
AcDbEntity
  8
化粧台
  6
CONTINUOUS
 62
     2
100
AcDbCircle
 10
961.0000000003889
 20
-3059.000000000005
 30
0.0
 40
4847.500000000005
100
AcDbArc
 50
87.39609465484229
 51
89.71041721001328
  0
LINE
  5
21A
330
1F
100
AcDbEntity
  8
化粧台
  6
EXLTYPE3
 62
     6
100
AcDbLine
 10
961.000000000378
 20
1942.883863229599
 30
0.0
 11
961.000000000378
 21
1311.0
 31
0.0
  0
LINE
  5
21B
330
1F
100
AcDbEntity
  8
化粧台
  6
CONTINUOUS
 62
     2
100
AcDbLine
 10
2491.000000000378
 20
1618.499999999949
 30
0.0
 11
2043.000000000387
 21
1618.499999999949
 31
0.0
  0
LINE
  5
21C
330
1F
100
AcDbEntity
  8
化粧台
  6
CONTINUOUS
 62
     2
100
AcDbLine
 10
2119.000000000387
 20
1618.4999999999
 30
0.0
 11
2009.936776138507
 21
1770.586203190225
 31
0.0
  0
LINE
  5
21D
330
1F
100
AcDbEntity
  8
化粧台
  6
CONTINUOUS
 62
     2
100
AcDbLine
 10
2013.887668809149
 20
1778.498738010985
 30
0.0
 11
2458.887668809127
 21
1788.498738010987
 31
0.0
  0
LINE
  5
21E
330
1F
100
AcDbEntity
  8
化粧台
  6
CONTINUOUS
 62
     2
100
AcDbLine
 10
2463.995489493687
 20
1783.287668367015
 30
0.0
 11
2456.991244013688
 21
1618.4999999999
 31
0.0
  0
ARC
  5
21F
330
1F
100
AcDbEntity
  8
化粧台
  6
CONTINUOUS
 62
     2
100
AcDbCircle
 10
2459.000000000387
 20
1783.499999999902
 30
0.0
 40
5.0
100
AcDbArc
 50
357.566126804928
 51
91.28732894152482
  0
ARC
  5
220
330
1F
100
AcDbEntity
  8
化粧台
  6
CONTINUOUS
 62
     2
100
AcDbCircle
 10
2014.000000000409
 20
1773.499999999902
 30
0.0
 40
5.0
100
AcDbArc
 50
91.28732894152482
 51
215.6448564186274
  0
LINE
  5
221
330
1F
100
AcDbEntity
  8
化粧台
  6
CONTINUOUS
 62
     6
100
AcDbLine
 10
2250.577460449063
 20
1852.743973239369
 30
0.0
 11
2271.422539550894
 21
1843.023753219335
 31
0.0
  0
LINE
  5
222
330
1F
100
AcDbEntity
  8
化粧台
  6
CONTINUOUS
 62
     6
100
AcDbLine
 10
2250.577460449056
 20
1852.74397323942
 30
0.0
 11
2253.343012176574
 21
1858.674718058104
 31
0.0
  0
LINE
  5
223
330
1F
100
AcDbEntity
  8
化粧台
  6
CONTINUOUS
 62
     6
100
AcDbLine
 10
2271.4225395509
 20
1843.023753219382
 30
0.0
 11
2273.337682219662
 21
1847.130789926308
 31
0.0
  0
LINE
  5
224
330
1F
100
AcDbEntity
  8
化粧台
  6
CONTINUOUS
 62
     6
100
AcDbLine
 10
2296.999999999978
 20
1917.383863229501
 30
0.0
 11
2296.999999999978
 21
1909.383863229501
 31
0.0
  0
LINE
  5
225
330
1F
100
AcDbEntity
  8
化粧台
  6
CONTINUOUS
 62
     6
100
AcDbLine
 10
2296.999999999978
 20
1909.383863229501
 30
0.0
 11
2357.499999999978
 21
1909.383863229501
 31
0.0
  0
LINE
  5
226
330
1F
100
AcDbEntity
  8
化粧台
  6
CONTINUOUS
 62
     6
100
AcDbLine
 10
2296.999999999978
 20
1917.383863229501
 30
0.0
 11
2357.499999999978
 21
1917.383863229501
 31
0.0
  0
ELLIPSE
  5
227
330
1F
100
AcDbEntity
  8
化粧台
  6
CONTINUOUS
 62
     6
100
AcDbEllipse
 10
2263.340347198129
 20
1852.902753992201
 30
0.0
 11
9.997335021550128
 21
-5.77196406590008
 31
0.0
210
0.0
220
0.0
230
1.0
 40
0.4017250258051183
 41
0.0
 42
3.141592653594508
  0
LINE
  5
228
330
1F
100
AcDbEntity
  8
化粧台
  6
CONTINUOUS
 62
     6
100
AcDbLine
 10
2381.9999999999
 20
1880.883863229637
 30
0.0
 11
2406.499999999978
 21
1895.028944824826
 31
0.0
  0
LINE
  5
229
330
1F
100
AcDbEntity
  8
化粧台
  6
CONTINUOUS
 62
     6
100
AcDbLine
 10
2357.499999999978
 20
1878.883863229501
 30
0.0
 11
2406.499999999978
 21
1878.883863229501
 31
0.0
  0
LINE
  5
22A
330
1F
100
AcDbEntity
  8
化粧台
  6
CONTINUOUS
 62
     6
100
AcDbLine
 10
2357.499999999978
 20
1880.883863229501
 30
0.0
 11
2381.999999999663
 21
1880.883863229501
 31
0.0
  0
LINE
  5
22B
330
1F
100
AcDbEntity
  8
化粧台
  6
CONTINUOUS
 62
     6
100
AcDbLine
 10
2357.499999999978
 20
1878.883863229501
 30
0.0
 11
2357.499999999978
 21
1833.1806692516
 31
0.0
  0
ARC
  5
22C
330
1F
100
AcDbEntity
  8
化粧台
  6
CONTINUOUS
 62
     6
100
AcDbCircle
 10
2359.499999999978
 20
1920.883863229501
 30
0.0
 40
2.0
100
AcDbArc
 50
90.00000000000001
 51
180.0
  0
LINE
  5
22D
330
1F
100
AcDbEntity
  8
化粧台
  6
CONTINUOUS
 62
     6
100
AcDbLine
 10
2406.499999999978
 20
1920.883863229501
 30
0.0
 11
2406.499999999978
 21
1895.028944824826
 31
0.0
  0
LINE
  5
22E
330
1F
100
AcDbEntity
  8
化粧台
  6
CONTINUOUS
 62
     6
100
AcDbLine
 10
2359.499999999978
 20
1922.883863229501
 30
0.0
 11
2404.499999999978
 21
1922.883863229501
 31
0.0
  0
ARC
  5
22F
330
1F
100
AcDbEntity
  8
化粧台
  6
CONTINUOUS
 62
     6
100
AcDbCircle
 10
2404.499999999978
 20
1920.883863229501
 30
0.0
 40
2.0
100
AcDbArc
 50
0.0
 51
90.00000000000001
  0
LINE
  5
230
330
1F
100
AcDbEntity
  8
化粧台
  6
CONTINUOUS
 62
     6
100
AcDbLine
 10
2265.36602540402
 20
1886.374244286118
 30
0.0
 11
2357.499999999978
 21
1833.180669251638
 31
0.0
  0
ARC
  5
231
330
1F
100
AcDbEntity
  8
化粧台
  6
CONTINUOUS
 62
     6
100
AcDbCircle
 10
2264.86602540402
 20
1885.508218882334
 30
0.0
 40
1.0
100
AcDbArc
 50
60.00000000000271
 51
150.0000000000029
  0
LINE
  5
232
330
1F
100
AcDbEntity
  8
化粧台
  6
CONTINUOUS
 62
     6
100
AcDbLine
 10
2264.000000000236
 20
1886.008218882334
 30
0.0
 11
2250.000000000236
 21
1861.759507576369
 31
0.0
  0
LINE
  5
233
330
1F
100
AcDbEntity
  8
化粧台
  6
CONTINUOUS
 62
     6
100
AcDbLine
 10
2250.366025404022
 20
1860.393482172585
 30
0.0
 11
2253.343012176566
 21
1858.674718058082
 31
0.0
  0
ARC
  5
234
330
1F
100
AcDbEntity
  8
化粧台
  6
CONTINUOUS
 62
     6
100
AcDbCircle
 10
2250.866025404022
 20
1861.259507576369
 30
0.0
 40
1.0
100
AcDbArc
 50
150.0000000000029
 51
240.0000000000029
  0
ARC
  5
235
330
1F
100
AcDbEntity
  8
化粧台
  6
CONTINUOUS
 62
     6
100
AcDbCircle
 10
2382.000000000278
 20
1878.883863229501
 30
0.0
 40
21.50470878668207
100
AcDbArc
 50
0.0
 51
34.61977017493128
  0
LINE
  5
236
330
1F
100
AcDbEntity
  8
化粧台
  6
CONTINUOUS
 62
     6
100
AcDbLine
 10
2357.499999999978
 20
1920.883863229501
 30
0.0
 11
2357.499999999978
 21
1917.383863229501
 31
0.0
  0
LINE
  5
237
330
1F
100
AcDbEntity
  8
化粧台
  6
CONTINUOUS
 62
     6
100
AcDbLine
 10
2357.499999999978
 20
1909.383863229501
 30
0.0
 11
2357.499999999978
 21
1880.883863229501
 31
0.0
  0
ELLIPSE
  5
238
330
1F
100
AcDbEntity
  8
化粧台
  6
CONTINUOUS
 62
     6
100
AcDbEllipse
 10
2357.499999999978
 20
1913.383863229501
 30
0.0
 11
-1.531427479570780E-15
 21
4.0
 31
0.0
210
0.0
220
0.0
230
1.0
 40
0.1525819451966582
 41
3.141592653589784
 42
6.283185307179586
  0
ELLIPSE
  5
239
330
1F
100
AcDbEntity
  8
化粧台
  6
CONTINUOUS
 62
     6
100
AcDbEllipse
 10
2357.499999999978
 20
1815.860161175951
 30
0.0
 11
-3.181725716167551E-15
 21
-17.32050807564974
 31
0.0
210
0.0
220
0.0
230
1.0
 40
0.2961015548620202
 41
0.0
 42
3.141592653589793
  0
LINE
  5
23A
330
1F
100
AcDbEntity
  8
化粧台
  6
CONTINUOUS
 62
     6
100
AcDbLine
 10
2273.337682219693
 20
1847.130789926327
 30
0.0
 11
2357.499999999978
 21
1798.539653100263
 31
0.0
  0
LINE
  5
23B
330
1F
100
AcDbEntity
  8
化粧台
  6
CONTINUOUS
 62
     6
100
AcDbLine
 10
2333.782032302991
 20
1846.874244286122
 30
0.0
 11
2318.782032302993
 21
1820.893482172589
 31
0.0
  0
LINE
  5
23C
330
1F
100
AcDbEntity
  8
化粧台
  6
CONTINUOUS
 62
     6
100
AcDbLine
 10
2357.499999999978
 20
1798.539653100299
 30
0.0
 11
2357.499999999978
 21
1786.26265479187
 31
0.0
  0
LINE
  5
23D
330
1F
100
AcDbEntity
  8
化粧台
  6
CONTINUOUS
 62
     6
100
AcDbLine
 10
2406.499999999978
 20
1878.883863229501
 30
0.0
 11
2406.499999999978
 21
1787.3762911555
 31
0.0
  0
LINE
  5
23E
330
1F
100
AcDbEntity
  8
化粧台
  6
EXLTYPE3
 62
     6
100
AcDbLine
 10
2385.000000000396
 20
1937.883863229501
 30
0.0
 11
2385.000000000396
 21
1756.838340959104
 31
0.0
  0
LINE
  5
23F
330
1F
100
AcDbEntity
  8
化粧台
  6
EXLTYPE3
 62
     6
100
AcDbLine
 10
2461.000000000378
 20
1389.499999999998
 30
0.0
 11
2556.000000000378
 21
1389.499999999998
 31
0.0
  0
LINE
  5
240
330
1F
100
AcDbEntity
  8
化粧台
  6
CONTINUOUS
 62
     6
100
AcDbLine
 10
2541.000000000378
 20
1405.499999999998
 30
0.0
 11
2541.000000000378
 21
1373.499999999998
 31
0.0
  0
LINE
  5
241
330
1F
100
AcDbEntity
  8
化粧台
  6
CONTINUOUS
 62
     6
100
AcDbLine
 10
2491.000000000378
 20
1405.499999999998
 30
0.0
 11
2541.000000000378
 21
1405.499999999998
 31
0.0
  0
LINE
  5
242
330
1F
100
AcDbEntity
  8
化粧台
  6
CONTINUOUS
 62
     6
100
AcDbLine
 10
2491.000000000378
 20
1373.499999999998
 30
0.0
 11
2541.000000000378
 21
1373.499999999998
 31
0.0
  0
LINE
  5
243
330
1F
100
AcDbEntity
  8
化粧台
  6
CONTINUOUS
 62
     6
100
AcDbLine
 10
2491.000000000378
 20
1368.999999999978
 30
0.0
 11
2499.000000000378
 21
1368.999999999978
 31
0.0
  0
LINE
  5
244
330
1F
100
AcDbEntity
  8
化粧台
  6
CONTINUOUS
 62
     6
100
AcDbLine
 10
2491.000000000378
 20
1389.999999999985
 30
0.0
 11
2499.000000000378
 21
1389.999999999985
 31
0.0
  0
LINE
  5
245
330
1F
100
AcDbEntity
  8
化粧台
  6
CONTINUOUS
 62
     6
100
AcDbLine
 10
2499.000000000378
 20
1368.999999999996
 30
0.0
 11
2499.000000000378
 21
1389.999999999985
 31
0.0
  0
LINE
  5
246
330
1F
100
AcDbEntity
  8
化粧台
  6
EXLTYPE3
 62
     6
100
AcDbLine
 10
2461.000000000378
 20
1379.499999999998
 30
0.0
 11
2514.000000000389
 21
1379.499999999998
 31
0.0
  0
CIRCLE
  5
247
330
1F
100
AcDbEntity
  8
化粧台
  6
CONTINUOUS
 62
     6
100
AcDbCircle
 10
705.9999999977787
 20
1499.500000000098
 30
0.0
 40
3.800000000000001
  0
LINE
  5
248
330
1F
100
AcDbEntity
  8
化粧台
  6
CONTINUOUS
 62
     6
100
AcDbLine
 10
706.000000000358
 20
1489.5
 30
0.0
 11
706.000000000358
 21
1509.50000000004
 31
0.0
  0
LINE
  5
249
330
1F
100
AcDbEntity
  8
化粧台
  6
CONTINUOUS
 62
     6
100
AcDbLine
 10
696.000000000358
 20
1499.500000000038
 30
0.0
 11
716.000000000358
 21
1499.500000000038
 31
0.0
  0
LINE
  5
24A
330
1F
100
AcDbEntity
  8
化粧台
  6
CONTINUOUS
 62
     2
100
AcDbLine
 10
618.000000000378
 20
919.5
 30
0.0
 11
618.000000000378
 21
1009.5
 31
0.0
  0
LINE
  5
24B
330
1F
100
AcDbEntity
  8
化粧台
  6
CONTINUOUS
 62
     2
100
AcDbLine
 10
591.000000000378
 20
1383.5
 30
0.0
 11
591.000000000378
 21
1009.5
 31
0.0
  0
LINE
  5
24C
330
1F
100
AcDbEntity
  8
化粧台
  6
CONTINUOUS
 62
     6
100
AcDbLine
 10
591.0000000003816
 20
1415.5
 30
0.0
 11
591.0000000003816
 21
1383.5
 31
0.0
  0
LINE
  5
24D
330
1F
100
AcDbEntity
  8
化粧台
  6
CONTINUOUS
 62
     2
100
AcDbLine
 10
591.000000000378
 20
1562.5
 30
0.0
 11
591.000000000378
 21
1419.5
 31
0.0
  0
LINE
  5
24E
330
1F
100
AcDbEntity
  8
化粧台
  6
CONTINUOUS
 62
     6
100
AcDbLine
 10
591.0000000003816
 20
1594.5
 30
0.0
 11
591.0000000003816
 21
1562.5
 31
0.0
  0
LINE
  5
24F
330
1F
100
AcDbEntity
  8
化粧台
  6
CONTINUOUS
 62
     2
100
AcDbLine
 10
588.000000000378
 20
919.5
 30
0.0
 11
588.000000000378
 21
1599.5
 31
0.0
  0
LINE
  5
250
330
1F
100
AcDbEntity
  8
化粧台
  6
CONTINUOUS
 62
     2
100
AcDbLine
 10
586.0000000003798
 20
1618.5
 30
0.0
 11
586.0000000003798
 21
1599.5
 31
0.0
  0
LINE
  5
251
330
1F
100
AcDbEntity
  8
化粧台
  6
CONTINUOUS
 62
     2
100
AcDbLine
 10
603.000000000378
 20
919.5
 30
0.0
 11
603.000000000378
 21
1009.5
 31
0.0
  0
CIRCLE
  5
252
330
1F
100
AcDbEntity
  8
化粧台
  6
CONTINUOUS
 62
     6
100
AcDbCircle
 10
1215.999999997777
 20
1499.500000000098
 30
0.0
 40
3.800000000000001
  0
LINE
  5
253
330
1F
100
AcDbEntity
  8
化粧台
  6
CONTINUOUS
 62
     6
100
AcDbLine
 10
1216.000000000356
 20
1489.5
 30
0.0
 11
1216.000000000356
 21
1509.50000000004
 31
0.0
  0
LINE
  5
254
330
1F
100
AcDbEntity
  8
化粧台
  6
CONTINUOUS
 62
     6
100
AcDbLine
 10
1206.000000000356
 20
1499.500000000038
 30
0.0
 11
1226.000000000356
 21
1499.500000000038
 31
0.0
  0
LINE
  5
255
330
1F
100
AcDbEntity
  8
化粧台
  6
CONTINUOUS
 62
     2
100
AcDbLine
 10
1304.000000000376
 20
919.5
 30
0.0
 11
1304.000000000376
 21
1009.5
 31
0.0
  0
LINE
  5
256
330
1F
100
AcDbEntity
  8
化粧台
  6
CONTINUOUS
 62
     2
100
AcDbLine
 10
1331.000000000376
 20
1383.5
 30
0.0
 11
1331.000000000376
 21
1009.5
 31
0.0
  0
LINE
  5
257
330
1F
100
AcDbEntity
  8
化粧台
  6
CONTINUOUS
 62
     6
100
AcDbLine
 10
1331.000000000378
 20
1415.5
 30
0.0
 11
1331.000000000378
 21
1383.5
 31
0.0
  0
LINE
  5
258
330
1F
100
AcDbEntity
  8
化粧台
  6
CONTINUOUS
 62
     2
100
AcDbLine
 10
1331.000000000376
 20
1562.5
 30
0.0
 11
1331.000000000376
 21
1419.5
 31
0.0
  0
LINE
  5
259
330
1F
100
AcDbEntity
  8
化粧台
  6
CONTINUOUS
 62
     6
100
AcDbLine
 10
1331.000000000378
 20
1594.5
 30
0.0
 11
1331.000000000378
 21
1562.5
 31
0.0
  0
LINE
  5
25A
330
1F
100
AcDbEntity
  8
化粧台
  6
CONTINUOUS
 62
     2
100
AcDbLine
 10
1334.000000000376
 20
919.5
 30
0.0
 11
1334.000000000376
 21
1599.5
 31
0.0
  0
LINE
  5
25B
330
1F
100
AcDbEntity
  8
化粧台
  6
CONTINUOUS
 62
     2
100
AcDbLine
 10
1336.000000000376
 20
1618.5
 30
0.0
 11
1336.000000000376
 21
1599.5
 31
0.0
  0
LINE
  5
25C
330
1F
100
AcDbEntity
  8
化粧台
  6
CONTINUOUS
 62
     2
100
AcDbLine
 10
1319.000000000376
 20
919.5
 30
0.0
 11
1319.000000000376
 21
1009.5
 31
0.0
  0
LINE
  5
25D
330
1F
100
AcDbEntity
  8
化粧台
  6
CONTINUOUS
 62
     6
100
AcDbLine
 10
1331.000000000378
 20
1383.5
 30
0.0
 11
591.0000000003816
 21
1383.5
 31
0.0
  0
LINE
  5
25E
330
1F
100
AcDbEntity
  8
化粧台
  6
CONTINUOUS
 62
     6
100
AcDbLine
 10
1331.000000000378
 20
1387.5423136954
 30
0.0
 11
591.0000000003816
 21
1387.5423136954
 31
0.0
  0
LINE
  5
25F
330
1F
100
AcDbEntity
  8
化粧台
  6
CONTINUOUS
 62
     2
100
AcDbLine
 10
1331.000000000376
 20
1419.5
 30
0.0
 11
591.000000000378
 21
1419.5
 31
0.0
  0
LINE
  5
260
330
1F
100
AcDbEntity
  8
化粧台
  6
CONTINUOUS
 62
     6
100
AcDbLine
 10
1331.000000000378
 20
1415.5
 30
0.0
 11
591.0000000003816
 21
1415.5
 31
0.0
  0
LINE
  5
261
330
1F
100
AcDbEntity
  8
化粧台
  6
CONTINUOUS
 62
     6
100
AcDbLine
 10
1331.000000000378
 20
1405.5
 30
0.0
 11
591.0000000003816
 21
1405.5
 31
0.0
  0
LINE
  5
262
330
1F
100
AcDbEntity
  8
化粧台
  6
CONTINUOUS
 62
     6
100
AcDbLine
 10
1331.000000000378
 20
1562.5
 30
0.0
 11
591.0000000003816
 21
1562.5
 31
0.0
  0
LINE
  5
263
330
1F
100
AcDbEntity
  8
化粧台
  6
CONTINUOUS
 62
     6
100
AcDbLine
 10
1331.000000000378
 20
1566.542313695401
 30
0.0
 11
591.0000000003816
 21
1566.542313695401
 31
0.0
  0
LINE
  5
264
330
1F
100
AcDbEntity
  8
化粧台
  6
CONTINUOUS
 62
     2
100
AcDbLine
 10
1331.000000000376
 20
1009.5
 30
0.0
 11
591.000000000378
 21
1009.5
 31
0.0
  0
LINE
  5
265
330
1F
100
AcDbEntity
  8
化粧台
  6
CONTINUOUS
 62
     6
100
AcDbLine
 10
1331.000000000378
 20
1594.5
 30
0.0
 11
591.0000000003816
 21
1594.5
 31
0.0
  0
LINE
  5
266
330
1F
100
AcDbEntity
  8
化粧台
  6
CONTINUOUS
 62
     6
100
AcDbLine
 10
1331.000000000378
 20
1584.5
 30
0.0
 11
591.0000000003816
 21
1584.5
 31
0.0
  0
LINE
  5
267
330
1F
100
AcDbEntity
  8
化粧台
  6
CONTINUOUS
 62
     2
100
AcDbLine
 10
1336.000000000376
 20
1618.5
 30
0.0
 11
586.0000000003798
 21
1618.5
 31
0.0
  0
LINE
  5
268
330
1F
100
AcDbEntity
  8
化粧台
  6
CONTINUOUS
 62
     2
100
AcDbLine
 10
1336.000000000376
 20
1599.5
 30
0.0
 11
586.0000000003798
 21
1599.5
 31
0.0
  0
LINE
  5
269
330
1F
100
AcDbEntity
  8
化粧台
  6
CONTINUOUS
 62
     7
100
AcDbLine
 10
1891.000000000376
 20
919.5
 30
0.0
 11
2491.000000000378
 21
919.5
 31
0.0
  0
TEXT
  5
26A
330
1F
100
AcDbEntity
  8
化粧台
  6
CONTINUOUS
 62
     2
100
AcDbText
 10
430.0000000002439
 20
926.6999999999989
 30
0.0
 40
59.99999618530273
  1
Ｆ.Ｌ.
 41
0.9086538461538461
  7
EXCADSTD
 72
     5
 11
564.999991417175
 21
926.6999999999989
 31
0.0
100
AcDbText
  0
TEXT
  5
26B
330
1F
100
AcDbEntity
  8
化粧台
  6
CONTINUOUS
 62
     2
100
AcDbText
 10
1885.000000000243
 20
926.6999999999989
 30
0.0
 40
59.99999618530273
  1
Ｆ.Ｌ.
 41
0.9086538461538461
  7
EXCADSTD
 72
     5
 11
2019.999991417174
 21
926.6999999999989
 31
0.0
100
AcDbText
  0
LINE
  5
26C
330
1F
100
AcDbEntity
  8
化粧台
  6
EXLTYPE3
 62
     6
100
AcDbLine
 10
1161.000000000378
 20
3795.0
 30
0.0
 11
1161.000000000378
 21
3890.0
 31
0.0
  0
LINE
  5
26D
330
1F
100
AcDbEntity
  8
化粧台
  6
CONTINUOUS
 62
     6
100
AcDbLine
 10
1145.00000000038
 20
3875.0
 30
0.0
 11
1177.00000000038
 21
3875.0
 31
0.0
  0
LINE
  5
26E
330
1F
100
AcDbEntity
  8
化粧台
  6
CONTINUOUS
 62
     6
100
AcDbLine
 10
1145.00000000038
 20
3825.0
 30
0.0
 11
1145.00000000038
 21
3875.0
 31
0.0
  0
LINE
  5
26F
330
1F
100
AcDbEntity
  8
化粧台
  6
CONTINUOUS
 62
     6
100
AcDbLine
 10
1177.00000000038
 20
3825.0
 30
0.0
 11
1177.00000000038
 21
3875.0
 31
0.0
  0
LINE
  5
270
330
1F
100
AcDbEntity
  8
化粧台
  6
EXLTYPE3
 62
     6
100
AcDbLine
 10
1061.000000000383
 20
3795.0
 30
0.0
 11
1061.000000000383
 21
3848.0
 31
0.0
  0
LINE
  5
271
330
1F
100
AcDbEntity
  8
化粧台
  6
CONTINUOUS
 62
     6
100
AcDbLine
 10
1071.5000000004
 20
3825.0
 30
0.0
 11
1071.5000000004
 21
3833.0
 31
0.0
  0
LINE
  5
272
330
1F
100
AcDbEntity
  8
化粧台
  6
CONTINUOUS
 62
     6
100
AcDbLine
 10
1050.500000000392
 20
3825.0
 30
0.0
 11
1050.500000000392
 21
3833.0
 31
0.0
  0
LINE
  5
273
330
1F
100
AcDbEntity
  8
化粧台
  6
CONTINUOUS
 62
     6
100
AcDbLine
 10
1071.500000000383
 20
3833.0
 30
0.0
 11
1050.500000000392
 21
3833.0
 31
0.0
  0
LINE
  5
274
330
1F
100
AcDbEntity
  8
化粧台
  6
EXLTYPE3
 62
     6
100
AcDbLine
 10
861.000000000378
 20
3795.0
 30
0.0
 11
861.000000000378
 21
3848.0
 31
0.0
  0
LINE
  5
275
330
1F
100
AcDbEntity
  8
化粧台
  6
CONTINUOUS
 62
     6
100
AcDbLine
 10
850.5000000003616
 20
3825.0
 30
0.0
 11
850.5000000003616
 21
3833.0
 31
0.0
  0
LINE
  5
276
330
1F
100
AcDbEntity
  8
化粧台
  6
CONTINUOUS
 62
     6
100
AcDbLine
 10
871.5000000003689
 20
3825.0
 30
0.0
 11
871.5000000003689
 21
3833.0
 31
0.0
  0
LINE
  5
277
330
1F
100
AcDbEntity
  8
化粧台
  6
CONTINUOUS
 62
     6
100
AcDbLine
 10
850.500000000378
 20
3833.0
 30
0.0
 11
871.5000000003689
 21
3833.0
 31
0.0
  0
ARC
  5
278
330
1F
100
AcDbEntity
  8
化粧台
  6
CONTINUOUS
 62
     6
100
AcDbCircle
 10
909.038475773999
 20
3600.0
 30
0.0
 40
50.00000000000004
100
AcDbArc
 50
90.00000000000001
 51
171.7867892961641
  0
ARC
  5
279
330
1F
100
AcDbEntity
  8
化粧台
  6
CONTINUOUS
 62
     6
100
AcDbCircle
 10
1012.961524226779
 20
3600.0
 30
0.0
 40
50.00000000000004
100
AcDbArc
 50
8.213210703835998
 51
90.00000000000001
  0
ARC
  5
27A
330
1F
100
AcDbEntity
  8
化粧台
  6
CONTINUOUS
 62
     6
100
AcDbCircle
 10
961.0000000003889
 20
3592.499999998156
 30
0.0
 40
102.4999999995951
100
AcDbArc
 50
171.7867892961641
 51
8.213210703835998
  0
ARC
  5
27B
330
1F
100
AcDbEntity
  8
化粧台
  6
CONTINUOUS
 62
     2
100
AcDbCircle
 10
961.0000000003889
 20
3580.429987018266
 30
0.0
 40
212.5700129817332
100
AcDbArc
 50
9.763897427589361
 51
170.2361025724106
  0
ARC
  5
27C
330
1F
100
AcDbEntity
  8
化粧台
  6
CONTINUOUS
 62
     2
100
AcDbCircle
 10
800.7848212404857
 20
3608.0
 30
0.0
 40
50.00000000000004
100
AcDbArc
 50
90.00000000000001
 51
170.2361025724106
  0
ARC
  5
27D
330
1F
100
AcDbEntity
  8
化粧台
  6
CONTINUOUS
 62
     2
100
AcDbCircle
 10
1121.21517876029
 20
3608.0
 30
0.0
 40
50.00000000000004
100
AcDbArc
 50
9.763897427589361
 51
90.00000000000001
  0
LINE
  5
27E
330
1F
100
AcDbEntity
  8
化粧台
  6
CONTINUOUS
 62
     6
100
AcDbLine
 10
924.1000000003893
 20
3570.0
 30
0.0
 11
997.9000000003886
 21
3570.0
 31
0.0
  0
CIRCLE
  5
27F
330
1F
100
AcDbEntity
  8
化粧台
  6
CONTINUOUS
 62
     2
100
AcDbCircle
 10
961.0000000003889
 20
3570.0
 30
0.0
 40
19.20000000000001
  0
CIRCLE
  5
280
330
1F
100
AcDbEntity
  8
化粧台
  6
CONTINUOUS
 62
     6
100
AcDbCircle
 10
901.0000000003889
 20
3709.0
 30
0.0
 40
8.50000000060004
  0
CIRCLE
  5
281
330
1F
100
AcDbEntity
  8
化粧台
  6
CONTINUOUS
 62
     6
100
AcDbCircle
 10
901.0000000003889
 20
3709.0
 30
0.0
 40
12.5
  0
ELLIPSE
  5
282
330
1F
100
AcDbEntity
  8
化粧台
  6
CONTINUOUS
 62
     2
100
AcDbEllipse
 10
961.0000000003871
 20
3570.5
 30
0.0
 11
1.393035734030114E-14
 21
227.5
 31
0.0
210
0.0
220
0.0
230
1.0
 40
0.9890109890109892
 41
0.0
 42
6.283185307179586
  0
CIRCLE
  5
283
330
1F
100
AcDbEntity
  8
化粧台
  6
CONTINUOUS
 62
     6
100
AcDbCircle
 10
961.000000000378
 20
3719.0
 30
0.0
 40
25.00000000010004
  0
ELLIPSE
  5
284
330
1F
100
AcDbEntity
  8
化粧台
  6
CONTINUOUS
 62
     6
100
AcDbEllipse
 10
961.000000000378
 20
3625.440536449099
 30
0.0
 11
-7.500000000000006
 21
9.184850993605156E-16
 31
0.0
210
0.0
220
0.0
230
1.0
 40
0.4388120546666563
 41
0.0
 42
6.283185307179586
  0
ELLIPSE
  5
285
330
1F
100
AcDbEntity
  8
化粧台
  6
CONTINUOUS
 62
     6
100
AcDbEllipse
 10
961.000000000378
 20
3601.2145230735
 30
0.0
 11
-15.00000000000001
 21
1.836970198721031E-15
 31
0.0
210
0.0
220
0.0
230
1.0
 40
0.4362793889666742
 41
0.0
 42
6.283185307179586
  0
LINE
  5
286
330
1F
100
AcDbEntity
  8
化粧台
  6
CONTINUOUS
 62
     6
100
AcDbLine
 10
946.000000000378
 20
3601.2145230735
 30
0.0
 11
946.000000000378
 21
3698.999999999874
 31
0.0
  0
LINE
  5
287
330
1F
100
AcDbEntity
  8
化粧台
  6
CONTINUOUS
 62
     6
100
AcDbLine
 10
976.000000000378
 20
3601.2145230735
 30
0.0
 11
976.000000000378
 21
3698.999999999874
 31
0.0
  0
LINE
  5
288
330
1F
100
AcDbEntity
  8
化粧台
  6
CONTINUOUS
 62
     6
100
AcDbLine
 10
953.500000000378
 20
3625.440536449099
 30
0.0
 11
953.500000000378
 21
3695.151519964471
 31
0.0
  0
LINE
  5
289
330
1F
100
AcDbEntity
  8
化粧台
  6
CONTINUOUS
 62
     6
100
AcDbLine
 10
968.500000000378
 20
3625.440536449099
 30
0.0
 11
968.500000000378
 21
3695.151519964471
 31
0.0
  0
LINE
  5
28A
330
1F
100
AcDbEntity
  8
化粧台
  6
CONTINUOUS
 62
     6
100
AcDbLine
 10
946.000000000378
 20
3650.0
 30
0.0
 11
909.038475773999
 21
3650.0
 31
0.0
  0
LINE
  5
28B
330
1F
100
AcDbEntity
  8
化粧台
  6
CONTINUOUS
 62
     2
100
AcDbLine
 10
800.7848212404857
 20
3658.0
 30
0.0
 11
946.000000000378
 21
3658.0
 31
0.0
  0
LINE
  5
28C
330
1F
100
AcDbEntity
  8
化粧台
  6
CONTINUOUS
 62
     2
100
AcDbLine
 10
976.000000000378
 20
3658.0
 30
0.0
 11
1121.21517876029
 21
3658.0
 31
0.0
  0
LINE
  5
28D
330
1F
100
AcDbEntity
  8
化粧台
  6
CONTINUOUS
 62
     6
100
AcDbLine
 10
1012.961524226779
 20
3650.0
 30
0.0
 11
976.000000000378
 21
3650.0
 31
0.0
  0
ARC
  5
28E
330
1F
100
AcDbEntity
  8
化粧台
  6
CONTINUOUS
 62
     2
100
AcDbCircle
 10
961.0000000003889
 20
3570.0
 30
0.0
 40
26.90000000000001
100
AcDbArc
 50
107.3170186528517
 51
72.68298134716953
  0
LINE
  5
28F
330
1F
100
AcDbEntity
  8
化粧台
  6
CONTINUOUS
 62
     6
100
AcDbLine
 10
1001.00000000048
 20
3718.999999999989
 30
0.0
 11
921.0000000002798
 21
3718.999999999989
 31
0.0
  0
LINE
  5
290
330
1F
100
AcDbEntity
  8
化粧台
  6
EXLTYPE3
 62
     6
100
AcDbLine
 10
961.0000000003798
 20
3845.0
 30
0.0
 11
961.0000000003798
 21
3317.5
 31
0.0
  0
LINE
  5
291
330
1F
100
AcDbEntity
  8
化粧台
  6
CONTINUOUS
 62
     6
100
AcDbLine
 10
1216.000000000425
 20
3820.0
 30
0.0
 11
1216.000000000425
 21
3862.5000057219
 31
0.0
  0
LINE
  5
292
330
1F
100
AcDbEntity
  8
化粧台
  6
CONTINUOUS
 62
     6
100
AcDbLine
 10
1214.000000000418
 20
3825.000005722004
 30
0.0
 11
1216.00000000042
 21
3857.500005722004
 31
0.0
  0
LINE
  5
293
330
1F
100
AcDbEntity
  8
化粧台
  6
CONTINUOUS
 62
     6
100
AcDbLine
 10
1216.00000000042
 20
3857.500005722004
 30
0.0
 11
1218.000000000418
 21
3825.000005722004
 31
0.0
  0
LINE
  5
294
330
1F
100
AcDbEntity
  8
化粧台
  6
CONTINUOUS
 62
     2
100
AcDbLine
 10
1336.000000000376
 20
3825.0
 30
0.0
 11
1336.000000000376
 21
3375.0
 31
0.0
  0
LINE
  5
295
330
1F
100
AcDbEntity
  8
化粧台
  6
CONTINUOUS
 62
     2
100
AcDbLine
 10
1076.065807604994
 20
3375.0
 30
0.0
 11
1336.000000000376
 21
3375.0
 31
0.0
  0
LINE
  5
296
330
1F
100
AcDbEntity
  8
化粧台
  6
CONTINUOUS
 62
     6
100
AcDbLine
 10
706.0000000003562
 20
3820.0
 30
0.0
 11
706.0000000003562
 21
3862.5000057219
 31
0.0
  0
LINE
  5
297
330
1F
100
AcDbEntity
  8
化粧台
  6
CONTINUOUS
 62
     6
100
AcDbLine
 10
704.0000000003489
 20
3825.000005722004
 30
0.0
 11
706.0000000003507
 21
3857.500005722004
 31
0.0
  0
LINE
  5
298
330
1F
100
AcDbEntity
  8
化粧台
  6
CONTINUOUS
 62
     6
100
AcDbLine
 10
706.0000000003507
 20
3857.500005722004
 30
0.0
 11
708.0000000003489
 21
3825.000005722004
 31
0.0
  0
LINE
  5
299
330
1F
100
AcDbEntity
  8
化粧台
  6
CONTINUOUS
 62
     2
100
AcDbLine
 10
586.0000000003798
 20
3825.0
 30
0.0
 11
586.0000000003798
 21
3375.0
 31
0.0
  0
LINE
  5
29A
330
1F
100
AcDbEntity
  8
化粧台
  6
CONTINUOUS
 62
     2
100
AcDbLine
 10
586.000000000378
 20
3375.0
 30
0.0
 11
845.9341923957796
 21
3375.0
 31
0.0
  0
ELLIPSE
  5
29B
330
1F
100
AcDbEntity
  8
化粧台
  6
CONTINUOUS
 62
     6
100
AcDbEllipse
 10
961.0000000003871
 20
3570.5
 30
0.0
 11
1.362419564051430E-14
 21
222.5
 31
0.0
210
0.0
220
0.0
230
1.0
 40
0.9887640449438201
 41
0.0
 42
6.283185307179586
  0
LINE
  5
29C
330
1F
100
AcDbEntity
  8
化粧台
  6
CONTINUOUS
 62
     7
100
AcDbLine
 10
436.0000000003798
 20
3825.0
 30
0.0
 11
1591.000000000376
 21
3825.0
 31
0.0
  0
TEXT
  5
29D
330
1F
100
AcDbEntity
  8
化粧台
  6
CONTINUOUS
 62
     2
100
AcDbText
 10
435.5500000006033
 20
3758.000003814646
 30
0.0
 40
59.99999618530273
  1
Ｗ.Ｌ.
 41
0.9086538461538461
  7
EXCADSTD
 72
     5
 11
570.5499914175344
 21
3758.000003814646
 31
0.0
100
AcDbText
  0
LINE
  5
29E
330
1F
100
AcDbEntity
  8
化粧台
  6
CONTINUOUS
 62
     7
100
AcDbLine
 10
2491.000000000378
 20
919.4999999999991
 30
0.0
 11
2491.000000000378
 21
2926.35
 31
0.0
  0
TEXT
  5
29F
330
1F
100
AcDbEntity
  8
化粧台
  6
CONTINUOUS
 62
     2
100
AcDbText
 10
2481.500000000225
 20
2792.0
 30
0.0
 40
59.99999618530273
  1
Ｗ.Ｌ.
 50
90.0
 41
0.9086538461538461
  7
EXCADSTD
 72
     5
 11
2481.500000000225
 21
2926.999991416931
 31
0.0
100
AcDbText
  0
LINE
  5
2A0
330
1F
100
AcDbEntity
  8
化粧台
  6
CONTINUOUS
 62
     7
100
AcDbLine
 10
436.0000000003798
 20
919.4999999999991
 30
0.0
 11
1665.000000000331
 21
919.4999999999991
 31
0.0
  0
LINE
  5
2A1
330
1F
100
AcDbEntity
  8
鏡台
  6
CONTINUOUS
 62
     2
100
AcDbLine
 10
736.0000000002998
 20
2668.299999999999
 30
0.0
 11
736.0000000002998
 21
2168.299999999999
 31
0.0
  0
LINE
  5
2A2
330
1F
100
AcDbEntity
  8
鏡台
  6
CONTINUOUS
 62
     2
100
AcDbLine
 10
736.0000000002998
 20
2668.299999999999
 30
0.0
 11
737.5000000002998
 21
2668.299999999999
 31
0.0
  0
LINE
  5
2A3
330
1F
100
AcDbEntity
  8
鏡台
  6
CONTINUOUS
 62
     2
100
AcDbLine
 10
736.0000000002998
 20
2168.299999999999
 30
0.0
 11
737.5000000002998
 21
2168.299999999999
 31
0.0
  0
LINE
  5
2A4
330
1F
100
AcDbEntity
  8
鏡台
  6
CONTINUOUS
 62
     4
100
AcDbLine
 10
737.5000000002998
 20
2177.099999999999
 30
0.0
 11
737.5000000002998
 21
2167.099999999999
 31
0.0
  0
LINE
  5
2A5
330
1F
100
AcDbEntity
  8
鏡台
  6
CONTINUOUS
 62
     4
100
AcDbLine
 10
737.5000000002998
 20
2659.499999999999
 30
0.0
 11
737.5000000002998
 21
2669.499999999999
 31
0.0
  0
LINE
  5
2A6
330
1F
100
AcDbEntity
  8
鏡台
  6
CONTINUOUS
 62
     2
100
AcDbLine
 10
1184.5000000003
 20
2668.299999999999
 30
0.0
 11
1186.0000000003
 21
2668.299999999999
 31
0.0
  0
LINE
  5
2A7
330
1F
100
AcDbEntity
  8
鏡台
  6
CONTINUOUS
 62
     4
100
AcDbLine
 10
1184.5000000003
 20
2659.499999999999
 30
0.0
 11
1184.5000000003
 21
2669.499999999999
 31
0.0
  0
LINE
  5
2A8
330
1F
100
AcDbEntity
  8
鏡台
  6
CONTINUOUS
 62
     4
100
AcDbLine
 10
1184.5000000003
 20
2669.499999999999
 30
0.0
 11
737.5000000002998
 21
2669.499999999999
 31
0.0
  0
LINE
  5
2A9
330
1F
100
AcDbEntity
  8
鏡台
  6
CONTINUOUS
 62
     4
100
AcDbLine
 10
1184.5000000003
 20
2659.499999999999
 30
0.0
 11
737.5000000002998
 21
2659.499999999999
 31
0.0
  0
LINE
  5
2AA
330
1F
100
AcDbEntity
  8
鏡台
  6
EXLTYPE3
 62
     6
100
AcDbLine
 10
1186.0000000003
 20
2668.299999999999
 30
0.0
 11
736.0000000002998
 21
2418.299999999999
 31
0.0
  0
LINE
  5
2AB
330
1F
100
AcDbEntity
  8
鏡台
  6
CONTINUOUS
 62
     6
100
AcDbLine
 10
793.0000000002998
 20
2233.299999999998
 30
0.0
 11
829.0000000002998
 21
2233.299999999998
 31
0.0
  0
LINE
  5
2AC
330
1F
100
AcDbEntity
  8
鏡台
  6
CONTINUOUS
 62
     6
100
AcDbLine
 10
811.0000000002998
 20
2215.299999999999
 30
0.0
 11
811.0000000002998
 21
2251.299999999999
 31
0.0
  0
CIRCLE
  5
2AD
330
1F
100
AcDbEntity
  8
鏡台
  6
EXLTYPE2
 62
     6
100
AcDbCircle
 10
811.0000000002998
 20
2233.299999999999
 30
0.0
 40
2.5
  0
CIRCLE
  5
2AE
330
1F
100
AcDbEntity
  8
鏡台
  6
EXLTYPE2
 62
     6
100
AcDbCircle
 10
811.0000000002998
 20
2233.299999999999
 30
0.0
 40
8.0
  0
LINE
  5
2AF
330
1F
100
AcDbEntity
  8
鏡台
  6
CONTINUOUS
 62
     6
100
AcDbLine
 10
1093.0000000003
 20
2233.299999999998
 30
0.0
 11
1129.0000000003
 21
2233.299999999998
 31
0.0
  0
LINE
  5
2B0
330
1F
100
AcDbEntity
  8
鏡台
  6
CONTINUOUS
 62
     6
100
AcDbLine
 10
1111.0000000003
 20
2215.299999999999
 30
0.0
 11
1111.0000000003
 21
2251.299999999999
 31
0.0
  0
CIRCLE
  5
2B1
330
1F
100
AcDbEntity
  8
鏡台
  6
EXLTYPE2
 62
     6
100
AcDbCircle
 10
1111.0000000003
 20
2233.299999999999
 30
0.0
 40
2.5
  0
CIRCLE
  5
2B2
330
1F
100
AcDbEntity
  8
鏡台
  6
EXLTYPE2
 62
     6
100
AcDbCircle
 10
1111.0000000003
 20
2233.299999999999
 30
0.0
 40
8.0
  0
LINE
  5
2B3
330
1F
100
AcDbEntity
  8
鏡台
  6
CONTINUOUS
 62
     6
100
AcDbLine
 10
1093.0000000003
 20
2613.299999999998
 30
0.0
 11
1129.0000000003
 21
2613.299999999998
 31
0.0
  0
LINE
  5
2B4
330
1F
100
AcDbEntity
  8
鏡台
  6
CONTINUOUS
 62
     6
100
AcDbLine
 10
1111.0000000003
 20
2595.299999999999
 30
0.0
 11
1111.0000000003
 21
2631.299999999999
 31
0.0
  0
CIRCLE
  5
2B5
330
1F
100
AcDbEntity
  8
鏡台
  6
EXLTYPE2
 62
     6
100
AcDbCircle
 10
1111.0000000003
 20
2613.299999999999
 30
0.0
 40
2.5
  0
CIRCLE
  5
2B6
330
1F
100
AcDbEntity
  8
鏡台
  6
EXLTYPE2
 62
     6
100
AcDbCircle
 10
1111.0000000003
 20
2613.299999999999
 30
0.0
 40
8.0
  0
LINE
  5
2B7
330
1F
100
AcDbEntity
  8
鏡台
  6
CONTINUOUS
 62
     6
100
AcDbLine
 10
793.0000000002998
 20
2613.299999999998
 30
0.0
 11
829.0000000002998
 21
2613.299999999998
 31
0.0
  0
LINE
  5
2B8
330
1F
100
AcDbEntity
  8
鏡台
  6
CONTINUOUS
 62
     6
100
AcDbLine
 10
811.0000000002998
 20
2595.299999999999
 30
0.0
 11
811.0000000002998
 21
2631.299999999999
 31
0.0
  0
CIRCLE
  5
2B9
330
1F
100
AcDbEntity
  8
鏡台
  6
EXLTYPE2
 62
     6
100
AcDbCircle
 10
811.0000000002998
 20
2613.299999999999
 30
0.0
 40
2.5
  0
CIRCLE
  5
2BA
330
1F
100
AcDbEntity
  8
鏡台
  6
EXLTYPE2
 62
     6
100
AcDbCircle
 10
811.0000000002998
 20
2613.299999999999
 30
0.0
 40
8.0
  0
LINE
  5
2BB
330
1F
100
AcDbEntity
  8
鏡台
  6
CONTINUOUS
 62
     2
100
AcDbLine
 10
1186.0000000003
 20
2168.299999999999
 30
0.0
 11
1184.5000000003
 21
2168.299999999999
 31
0.0
  0
LINE
  5
2BC
330
1F
100
AcDbEntity
  8
鏡台
  6
CONTINUOUS
 62
     4
100
AcDbLine
 10
1184.5000000003
 20
2177.099999999999
 30
0.0
 11
1184.5000000003
 21
2167.099999999999
 31
0.0
  0
LINE
  5
2BD
330
1F
100
AcDbEntity
  8
鏡台
  6
CONTINUOUS
 62
     2
100
AcDbLine
 10
1186.0000000003
 20
2668.299999999999
 30
0.0
 11
1186.0000000003
 21
2168.299999999999
 31
0.0
  0
LINE
  5
2BE
330
1F
100
AcDbEntity
  8
鏡台
  6
CONTINUOUS
 62
     4
100
AcDbLine
 10
1184.5000000003
 20
2177.099999999999
 30
0.0
 11
737.5000000002998
 21
2177.099999999999
 31
0.0
  0
LINE
  5
2BF
330
1F
100
AcDbEntity
  8
鏡台
  6
CONTINUOUS
 62
     4
100
AcDbLine
 10
1184.5000000003
 20
2167.099999999999
 30
0.0
 11
737.5000000002998
 21
2167.099999999999
 31
0.0
  0
LINE
  5
2C0
330
1F
100
AcDbEntity
  8
鏡台
  6
EXLTYPE3
 62
     6
100
AcDbLine
 10
1186.0000000003
 20
2168.299999999999
 30
0.0
 11
736.0000000002998
 21
2418.299999999999
 31
0.0
  0
LINE
  5
2C1
330
1F
100
AcDbEntity
  8
鏡台
  6
EXLTYPE2
 62
     6
100
AcDbLine
 10
1186.0000000003
 20
2662.299999999999
 30
0.0
 11
736.0000000002998
 21
2662.299999999999
 31
0.0
  0
LINE
  5
2C2
330
1F
100
AcDbEntity
  8
鏡台
  6
EXLTYPE2
 62
     6
100
AcDbLine
 10
1186.0000000003
 20
2183.299999999999
 30
0.0
 11
736.0000000002998
 21
2183.299999999999
 31
0.0
  0
LINE
  5
2C3
330
1F
100
AcDbEntity
  8
鏡台
  6
CONTINUOUS
 62
     6
100
AcDbLine
 10
878.2144660943683
 20
2294.585533905901
 30
0.0
 11
865.4644660943683
 21
2281.835533905904
 31
0.0
  0
LINE
  5
2C4
330
1F
100
AcDbEntity
  8
鏡台
  6
CONTINUOUS
 62
     6
100
AcDbLine
 10
857.5000000002998
 20
2266.799999999973
 30
0.0
 11
890.0000000003034
 21
2299.29999999997
 31
0.0
  0
LINE
  5
2C5
330
1F
100
AcDbEntity
  8
鏡台
  6
CONTINUOUS
 62
     6
100
AcDbLine
 10
868.0355339062331
 20
2270.264466094036
 30
0.0
 11
883.035533906235
 21
2285.264466094034
 31
0.0
  0
LINE
  5
2C6
330
1F
100
AcDbEntity
  8
鏡台
  6
CONTINUOUS
 62
     6
100
AcDbLine
 10
1052.214466094368
 20
2397.585533905901
 30
0.0
 11
1039.464466094368
 21
2384.835533905904
 31
0.0
  0
LINE
  5
2C7
330
1F
100
AcDbEntity
  8
鏡台
  6
CONTINUOUS
 62
     6
100
AcDbLine
 10
1031.500000000298
 20
2369.799999999973
 30
0.0
 11
1064.000000000301
 21
2402.29999999997
 31
0.0
  0
LINE
  5
2C8
330
1F
100
AcDbEntity
  8
鏡台
  6
CONTINUOUS
 62
     6
100
AcDbLine
 10
1042.035533906233
 20
2373.264466094036
 30
0.0
 11
1057.035533906235
 21
2388.264466094034
 31
0.0
  0
LINE
  5
2C9
330
1F
100
AcDbEntity
  8
鏡台
  6
CONTINUOUS
 62
     6
100
AcDbLine
 10
896.1106925094588
 20
2562.972326358701
 30
0.0
 11
883.3606925094588
 21
2550.222326358705
 31
0.0
  0
LINE
  5
2CA
330
1F
100
AcDbEntity
  8
鏡台
  6
CONTINUOUS
 62
     6
100
AcDbLine
 10
875.3962264153885
 20
2535.186792452773
 30
0.0
 11
907.8962264153921
 21
2567.686792452771
 31
0.0
  0
LINE
  5
2CB
330
1F
100
AcDbEntity
  8
鏡台
  6
CONTINUOUS
 62
     6
100
AcDbLine
 10
885.9317603213236
 20
2538.651258546836
 30
0.0
 11
900.9317603213254
 21
2553.651258546834
 31
0.0
  0
LINE
  5
2CC
330
1F
100
AcDbEntity
  8
鏡台
  6
EXLTYPE2
 62
     6
100
AcDbLine
 10
752.0000000002998
 20
2480.299999999999
 30
0.0
 11
752.0000000002998
 21
2440.299999999999
 31
0.0
  0
LINE
  5
2CD
330
1F
100
AcDbEntity
  8
鏡台
  6
EXLTYPE2
 62
     6
100
AcDbLine
 10
1170.0000000003
 20
2480.299999999999
 30
0.0
 11
1170.0000000003
 21
2440.299999999999
 31
0.0
  0
LINE
  5
2CE
330
1F
100
AcDbEntity
  8
鏡台
  6
EXLTYPE2
 62
     6
100
AcDbLine
 10
1170.0000000003
 20
2480.299999999999
 30
0.0
 11
752.0000000002998
 21
2480.299999999999
 31
0.0
  0
LINE
  5
2CF
330
1F
100
AcDbEntity
  8
鏡台
  6
EXLTYPE2
 62
     6
100
AcDbLine
 10
1170.0000000003
 20
2440.299999999999
 30
0.0
 11
752.0000000002998
 21
2440.299999999999
 31
0.0
  0
LINE
  5
2D0
330
1F
100
AcDbEntity
  8
鏡台
  6
EXLTYPE2
 62
     6
100
AcDbLine
 10
752.0000000002998
 20
2240.299999999999
 30
0.0
 11
752.0000000002998
 21
2200.299999999999
 31
0.0
  0
LINE
  5
2D1
330
1F
100
AcDbEntity
  8
鏡台
  6
EXLTYPE2
 62
     6
100
AcDbLine
 10
1170.0000000003
 20
2240.299999999999
 30
0.0
 11
1170.0000000003
 21
2200.299999999999
 31
0.0
  0
LINE
  5
2D2
330
1F
100
AcDbEntity
  8
鏡台
  6
EXLTYPE2
 62
     6
100
AcDbLine
 10
1170.0000000003
 20
2240.299999999999
 30
0.0
 11
752.0000000002998
 21
2240.299999999999
 31
0.0
  0
LINE
  5
2D3
330
1F
100
AcDbEntity
  8
鏡台
  6
EXLTYPE2
 62
     6
100
AcDbLine
 10
1170.0000000003
 20
2200.299999999999
 30
0.0
 11
752.0000000002998
 21
2200.299999999999
 31
0.0
  0
LINE
  5
2D4
330
1F
100
AcDbEntity
  8
鏡台
  6
EXLTYPE3
 62
     6
100
AcDbLine
 10
961.0000000002998
 20
2146.499999999999
 30
0.0
 11
961.0000000002998
 21
2695.499999999999
 31
0.0
  0
LINE
  5
2D5
330
1F
100
AcDbEntity
  8
鏡台
  6
EXLTYPE2
 62
     6
100
AcDbLine
 10
2457.500000000369
 20
2202.799999999998
 30
0.0
 11
2466.75000000037
 21
2202.799999999997
 31
0.0
  0
LINE
  5
2D6
330
1F
100
AcDbEntity
  8
鏡台
  6
EXLTYPE2
 62
     6
100
AcDbLine
 10
2457.50000000037
 20
2215.299999999998
 30
0.0
 11
2457.500000000369
 21
2202.799999999998
 31
0.0
  0
LINE
  5
2D7
330
1F
100
AcDbEntity
  8
鏡台
  6
EXLTYPE2
 62
     6
100
AcDbLine
 10
2460.00000000037
 20
2205.299999999997
 30
0.0
 11
2466.75000000037
 21
2205.299999999998
 31
0.0
  0
LINE
  5
2D8
330
1F
100
AcDbEntity
  8
鏡台
  6
EXLTYPE2
 62
     6
100
AcDbLine
 10
2460.00000000037
 20
2215.299999999997
 30
0.0
 11
2460.00000000037
 21
2205.299999999997
 31
0.0
  0
LINE
  5
2D9
330
1F
100
AcDbEntity
  8
鏡台
  6
EXLTYPE2
 62
     6
100
AcDbLine
 10
2460.00000000037
 20
2215.299999999997
 30
0.0
 11
2473.00000000037
 21
2215.299999999997
 31
0.0
  0
LINE
  5
2DA
330
1F
100
AcDbEntity
  8
鏡台
  6
EXLTYPE2
 62
     6
100
AcDbLine
 10
2473.00000000037
 20
2217.799999999999
 30
0.0
 11
2473.00000000037
 21
2215.299999999997
 31
0.0
  0
LINE
  5
2DB
330
1F
100
AcDbEntity
  8
鏡台
  6
EXLTYPE2
 62
     6
100
AcDbLine
 10
2397.50000000037
 20
2217.799999999998
 30
0.0
 11
2473.00000000037
 21
2217.799999999998
 31
0.0
  0
LINE
  5
2DC
330
1F
100
AcDbEntity
  8
鏡台
  6
EXLTYPE2
 62
     6
100
AcDbLine
 10
2412.00000000037
 20
2215.299999999998
 30
0.0
 11
2457.50000000037
 21
2215.299999999998
 31
0.0
  0
LINE
  5
2DD
330
1F
100
AcDbEntity
  8
鏡台
  6
EXLTYPE2
 62
     6
100
AcDbLine
 10
2412.00000000037
 20
2215.299999999998
 30
0.0
 11
2412.00000000037
 21
2208.549999999999
 31
0.0
  0
LINE
  5
2DE
330
1F
100
AcDbEntity
  8
鏡台
  6
EXLTYPE2
 62
     6
100
AcDbLine
 10
2409.50000000037
 20
2215.299999999998
 30
0.0
 11
2409.50000000037
 21
2208.549999999999
 31
0.0
  0
LINE
  5
2DF
330
1F
100
AcDbEntity
  8
鏡台
  6
EXLTYPE2
 62
     6
100
AcDbLine
 10
2397.50000000037
 20
2215.299999999998
 30
0.0
 11
2409.50000000037
 21
2215.299999999998
 31
0.0
  0
LINE
  5
2E0
330
1F
100
AcDbEntity
  8
鏡台
  6
EXLTYPE2
 62
     6
100
AcDbLine
 10
2397.50000000037
 20
2215.299999999998
 30
0.0
 11
2397.50000000037
 21
2200.299999999998
 31
0.0
  0
LINE
  5
2E1
330
1F
100
AcDbEntity
  8
鏡台
  6
EXLTYPE2
 62
     6
100
AcDbLine
 10
2395.00000000037
 20
2200.299999999998
 30
0.0
 11
2397.50000000037
 21
2200.299999999998
 31
0.0
  0
LINE
  5
2E2
330
1F
100
AcDbEntity
  8
鏡台
  6
EXLTYPE2
 62
     6
100
AcDbLine
 10
2395.00000000037
 20
2240.299999999998
 30
0.0
 11
2395.00000000037
 21
2200.299999999999
 31
0.0
  0
LINE
  5
2E3
330
1F
100
AcDbEntity
  8
鏡台
  6
EXLTYPE2
 62
     6
100
AcDbLine
 10
2395.00000000037
 20
2240.299999999998
 30
0.0
 11
2397.50000000037
 21
2240.299999999998
 31
0.0
  0
LINE
  5
2E4
330
1F
100
AcDbEntity
  8
鏡台
  6
EXLTYPE2
 62
     6
100
AcDbLine
 10
2397.50000000037
 20
2240.299999999998
 30
0.0
 11
2397.50000000037
 21
2217.799999999998
 31
0.0
  0
ARC
  5
2E5
330
1F
100
AcDbEntity
  8
鏡台
  6
EXLTYPE2
 62
     6
100
AcDbCircle
 10
2466.75000000037
 20
2204.049999999998
 30
0.0
 40
1.249999999999631
100
AcDbArc
 50
270.0000000000002
 51
90.00000000000001
  0
ARC
  5
2E6
330
1F
100
AcDbEntity
  8
鏡台
  6
EXLTYPE2
 62
     6
100
AcDbCircle
 10
2410.75000000037
 20
2208.549999999998
 30
0.0
 40
1.250000000000569
100
AcDbArc
 50
180.0
 51
0.0
  0
LINE
  5
2E7
330
1F
100
AcDbEntity
  8
鏡台
  6
EXLTYPE2
 62
     6
100
AcDbLine
 10
2457.500000000369
 20
2442.799999999998
 30
0.0
 11
2466.75000000037
 21
2442.799999999997
 31
0.0
  0
LINE
  5
2E8
330
1F
100
AcDbEntity
  8
鏡台
  6
EXLTYPE2
 62
     6
100
AcDbLine
 10
2457.50000000037
 20
2455.299999999998
 30
0.0
 11
2457.500000000369
 21
2442.799999999998
 31
0.0
  0
LINE
  5
2E9
330
1F
100
AcDbEntity
  8
鏡台
  6
EXLTYPE2
 62
     6
100
AcDbLine
 10
2460.00000000037
 20
2445.299999999997
 30
0.0
 11
2466.75000000037
 21
2445.299999999998
 31
0.0
  0
LINE
  5
2EA
330
1F
100
AcDbEntity
  8
鏡台
  6
EXLTYPE2
 62
     6
100
AcDbLine
 10
2460.00000000037
 20
2455.299999999997
 30
0.0
 11
2460.00000000037
 21
2445.299999999997
 31
0.0
  0
LINE
  5
2EB
330
1F
100
AcDbEntity
  8
鏡台
  6
EXLTYPE2
 62
     6
100
AcDbLine
 10
2460.00000000037
 20
2455.299999999997
 30
0.0
 11
2473.00000000037
 21
2455.299999999997
 31
0.0
  0
LINE
  5
2EC
330
1F
100
AcDbEntity
  8
鏡台
  6
EXLTYPE2
 62
     6
100
AcDbLine
 10
2473.00000000037
 20
2457.799999999999
 30
0.0
 11
2473.00000000037
 21
2455.299999999997
 31
0.0
  0
LINE
  5
2ED
330
1F
100
AcDbEntity
  8
鏡台
  6
EXLTYPE2
 62
     6
100
AcDbLine
 10
2397.50000000037
 20
2457.799999999998
 30
0.0
 11
2473.00000000037
 21
2457.799999999998
 31
0.0
  0
LINE
  5
2EE
330
1F
100
AcDbEntity
  8
鏡台
  6
EXLTYPE2
 62
     6
100
AcDbLine
 10
2412.00000000037
 20
2455.299999999998
 30
0.0
 11
2457.50000000037
 21
2455.299999999998
 31
0.0
  0
LINE
  5
2EF
330
1F
100
AcDbEntity
  8
鏡台
  6
EXLTYPE2
 62
     6
100
AcDbLine
 10
2412.00000000037
 20
2455.299999999998
 30
0.0
 11
2412.00000000037
 21
2448.549999999999
 31
0.0
  0
LINE
  5
2F0
330
1F
100
AcDbEntity
  8
鏡台
  6
EXLTYPE2
 62
     6
100
AcDbLine
 10
2409.50000000037
 20
2455.299999999998
 30
0.0
 11
2409.50000000037
 21
2448.549999999999
 31
0.0
  0
LINE
  5
2F1
330
1F
100
AcDbEntity
  8
鏡台
  6
EXLTYPE2
 62
     6
100
AcDbLine
 10
2397.50000000037
 20
2455.299999999998
 30
0.0
 11
2409.50000000037
 21
2455.299999999998
 31
0.0
  0
LINE
  5
2F2
330
1F
100
AcDbEntity
  8
鏡台
  6
EXLTYPE2
 62
     6
100
AcDbLine
 10
2397.50000000037
 20
2455.299999999998
 30
0.0
 11
2397.50000000037
 21
2440.299999999998
 31
0.0
  0
LINE
  5
2F3
330
1F
100
AcDbEntity
  8
鏡台
  6
EXLTYPE2
 62
     6
100
AcDbLine
 10
2395.00000000037
 20
2440.299999999998
 30
0.0
 11
2397.50000000037
 21
2440.299999999998
 31
0.0
  0
LINE
  5
2F4
330
1F
100
AcDbEntity
  8
鏡台
  6
EXLTYPE2
 62
     6
100
AcDbLine
 10
2395.00000000037
 20
2480.299999999998
 30
0.0
 11
2395.00000000037
 21
2440.299999999999
 31
0.0
  0
LINE
  5
2F5
330
1F
100
AcDbEntity
  8
鏡台
  6
EXLTYPE2
 62
     6
100
AcDbLine
 10
2395.00000000037
 20
2480.299999999998
 30
0.0
 11
2397.50000000037
 21
2480.299999999998
 31
0.0
  0
LINE
  5
2F6
330
1F
100
AcDbEntity
  8
鏡台
  6
EXLTYPE2
 62
     6
100
AcDbLine
 10
2397.50000000037
 20
2480.299999999998
 30
0.0
 11
2397.50000000037
 21
2457.799999999998
 31
0.0
  0
ARC
  5
2F7
330
1F
100
AcDbEntity
  8
鏡台
  6
EXLTYPE2
 62
     6
100
AcDbCircle
 10
2466.75000000037
 20
2444.049999999998
 30
0.0
 40
1.249999999999631
100
AcDbArc
 50
270.0000000000002
 51
90.00000000000001
  0
ARC
  5
2F8
330
1F
100
AcDbEntity
  8
鏡台
  6
EXLTYPE2
 62
     6
100
AcDbCircle
 10
2410.75000000037
 20
2448.549999999998
 30
0.0
 40
1.250000000000569
100
AcDbArc
 50
180.0
 51
0.0
  0
LINE
  5
2F9
330
1F
100
AcDbEntity
  8
鏡台
  6
CONTINUOUS
 62
     6
100
AcDbLine
 10
2491.000000000368
 20
2234.799999999999
 30
0.0
 11
2517.661651585068
 21
2234.799999999999
 31
0.0
  0
LINE
  5
2FA
330
1F
100
AcDbEntity
  8
鏡台
  6
CONTINUOUS
 62
     6
100
AcDbLine
 10
2491.000000000368
 20
2231.799999999999
 30
0.0
 11
2517.661651585099
 21
2231.799999999999
 31
0.0
  0
ARC
  5
2FB
330
1F
100
AcDbEntity
  8
鏡台
  6
CONTINUOUS
 62
     6
100
AcDbCircle
 10
2517.661651585099
 20
2246.799999999999
 30
0.0
 40
15.00000000000001
100
AcDbArc
 50
270.0000000000002
 51
295.8419327630793
  0
ARC
  5
2FC
330
1F
100
AcDbEntity
  8
鏡台
  6
CONTINUOUS
 62
     6
100
AcDbCircle
 10
2517.661651585068
 20
2219.799999999999
 30
0.0
 40
15.00000000000001
100
AcDbArc
 50
64.15806723683205
 51
90.00000000000001
  0
LINE
  5
2FD
330
1F
100
AcDbEntity
  8
鏡台
  6
EXLTYPE3
 62
     6
100
AcDbLine
 10
2531.800000000209
 20
2233.299999999999
 30
0.0
 11
2489.050000000209
 21
2233.299999999999
 31
0.0
  0
LINE
  5
2FE
330
1F
100
AcDbEntity
  8
鏡台
  6
CONTINUOUS
 62
     6
100
AcDbLine
 10
2491.000000000368
 20
2614.799999999999
 30
0.0
 11
2517.661651585068
 21
2614.799999999999
 31
0.0
  0
LINE
  5
2FF
330
1F
100
AcDbEntity
  8
鏡台
  6
CONTINUOUS
 62
     6
100
AcDbLine
 10
2491.000000000368
 20
2611.799999999999
 30
0.0
 11
2517.661651585099
 21
2611.799999999999
 31
0.0
  0
ARC
  5
300
330
1F
100
AcDbEntity
  8
鏡台
  6
CONTINUOUS
 62
     6
100
AcDbCircle
 10
2517.661651585099
 20
2626.799999999999
 30
0.0
 40
15.00000000000001
100
AcDbArc
 50
270.0000000000002
 51
295.8419327630793
  0
ARC
  5
301
330
1F
100
AcDbEntity
  8
鏡台
  6
CONTINUOUS
 62
     6
100
AcDbCircle
 10
2517.661651585068
 20
2599.799999999999
 30
0.0
 40
15.00000000000001
100
AcDbArc
 50
64.15806723683205
 51
90.00000000000001
  0
LINE
  5
302
330
1F
100
AcDbEntity
  8
鏡台
  6
EXLTYPE3
 62
     6
100
AcDbLine
 10
2531.800000000209
 20
2613.299999999999
 30
0.0
 11
2489.050000000209
 21
2613.299999999999
 31
0.0
  0
LINE
  5
303
330
1F
100
AcDbEntity
  8
鏡台
  6
CONTINUOUS
 62
     2
100
AcDbLine
 10
2389.00000000037
 20
2668.299999999999
 30
0.0
 11
2389.00000000037
 21
2168.299999999999
 31
0.0
  0
LINE
  5
304
330
1F
100
AcDbEntity
  8
鏡台
  6
CONTINUOUS
 62
     2
100
AcDbLine
 10
2391.00000000037
 20
2183.299999999999
 30
0.0
 11
2491.00000000037
 21
2183.299999999999
 31
0.0
  0
LINE
  5
305
330
1F
100
AcDbEntity
  8
鏡台
  6
CONTINUOUS
 62
     2
100
AcDbLine
 10
2391.00000000037
 20
2663.299999999999
 30
0.0
 11
2491.00000000037
 21
2663.299999999999
 31
0.0
  0
LINE
  5
306
330
1F
100
AcDbEntity
  8
鏡台
  6
CONTINUOUS
 62
     2
100
AcDbLine
 10
2391.00000000037
 20
2663.299999999999
 30
0.0
 11
2391.00000000037
 21
2183.299999999999
 31
0.0
  0
LINE
  5
307
330
1F
100
AcDbEntity
  8
鏡台
  6
CONTINUOUS
 62
     4
100
AcDbLine
 10
2371.00000000037
 20
2168.299999999999
 30
0.0
 11
2389.800000000369
 21
2168.299999999999
 31
0.0
  0
LINE
  5
308
330
1F
100
AcDbEntity
  8
鏡台
  6
CONTINUOUS
 62
     4
100
AcDbLine
 10
2369.800000000373
 20
2167.099999999999
 30
0.0
 11
2389.800000000369
 21
2167.099999999999
 31
0.0
  0
LINE
  5
309
330
1F
100
AcDbEntity
  8
鏡台
  6
CONTINUOUS
 62
     4
100
AcDbLine
 10
2389.800000000369
 20
2167.099999999999
 30
0.0
 11
2389.800000000369
 21
2168.299999999999
 31
0.0
  0
LINE
  5
30A
330
1F
100
AcDbEntity
  8
鏡台
  6
CONTINUOUS
 62
     4
100
AcDbLine
 10
2369.800000000373
 20
2669.499999999999
 30
0.0
 11
2389.800000000369
 21
2669.499999999999
 31
0.0
  0
LINE
  5
30B
330
1F
100
AcDbEntity
  8
鏡台
  6
CONTINUOUS
 62
     4
100
AcDbLine
 10
2371.00000000037
 20
2668.299999999999
 30
0.0
 11
2389.800000000369
 21
2668.299999999999
 31
0.0
  0
LINE
  5
30C
330
1F
100
AcDbEntity
  8
鏡台
  6
CONTINUOUS
 62
     4
100
AcDbLine
 10
2389.800000000369
 20
2669.499999999999
 30
0.0
 11
2389.800000000369
 21
2668.299999999999
 31
0.0
  0
LINE
  5
30D
330
1F
100
AcDbEntity
  8
鏡台
  6
CONTINUOUS
 62
     4
100
AcDbLine
 10
2371.00000000037
 20
2177.099999999999
 30
0.0
 11
2371.00000000037
 21
2168.299999999999
 31
0.0
  0
LINE
  5
30E
330
1F
100
AcDbEntity
  8
鏡台
  6
CONTINUOUS
 62
     4
100
AcDbLine
 10
2369.800000000373
 20
2167.099999999999
 30
0.0
 11
2369.800000000373
 21
2177.099999999999
 31
0.0
  0
LINE
  5
30F
330
1F
100
AcDbEntity
  8
鏡台
  6
CONTINUOUS
 62
     4
100
AcDbLine
 10
2369.800000000369
 20
2177.099999999999
 30
0.0
 11
2371.00000000037
 21
2177.099999999999
 31
0.0
  0
LINE
  5
310
330
1F
100
AcDbEntity
  8
鏡台
  6
CONTINUOUS
 62
     4
100
AcDbLine
 10
2371.00000000037
 20
2659.499999999999
 30
0.0
 11
2371.00000000037
 21
2668.299999999999
 31
0.0
  0
LINE
  5
311
330
1F
100
AcDbEntity
  8
鏡台
  6
CONTINUOUS
 62
     4
100
AcDbLine
 10
2369.800000000369
 20
2659.499999999999
 30
0.0
 11
2371.00000000037
 21
2659.499999999999
 31
0.0
  0
LINE
  5
312
330
1F
100
AcDbEntity
  8
鏡台
  6
CONTINUOUS
 62
     4
100
AcDbLine
 10
2369.800000000373
 20
2669.499999999999
 30
0.0
 11
2369.800000000373
 21
2659.499999999999
 31
0.0
  0
LINE
  5
313
330
1F
100
AcDbEntity
  8
鏡台
  6
CONTINUOUS
 62
     2
100
AcDbLine
 10
2374.00000000037
 20
2668.299999999999
 30
0.0
 11
2374.00000000037
 21
2168.299999999999
 31
0.0
  0
LINE
  5
314
330
1F
100
AcDbEntity
  8
鏡台
  6
CONTINUOUS
 62
     2
100
AcDbLine
 10
2371.00000000037
 20
2168.799999999999
 30
0.0
 11
2374.00000000037
 21
2168.799999999999
 31
0.0
  0
LINE
  5
315
330
1F
100
AcDbEntity
  8
鏡台
  6
CONTINUOUS
 62
     2
100
AcDbLine
 10
2371.00000000037
 20
2667.799999999999
 30
0.0
 11
2374.00000000037
 21
2667.799999999999
 31
0.0
  0
LINE
  5
316
330
1F
100
AcDbEntity
  8
鏡台
  6
CONTINUOUS
 62
     2
100
AcDbLine
 10
2371.00000000037
 20
2667.799999999999
 30
0.0
 11
2371.00000000037
 21
2168.799999999999
 31
0.0
  0
TEXT
  5
317
330
1F
100
AcDbEntity
  8
寸法
  6
CONTINUOUS
 62
     2
100
AcDbText
 10
1381.750000000372
 20
819.7499960958949
 30
0.0
 40
59.99999618530273
  1
ＶＰ･ＶＵ４０･５０
 41
0.8542372745578565
  7
EXCADSTD
 72
     5
 11
1813.749965668096
 21
819.7499960958949
 31
0.0
100
AcDbText
  0
TEXT
  5
318
330
1F
100
AcDbEntity
  8
寸法
  6
CONTINUOUS
 62
     2
100
AcDbText
 10
1381.750000000372
 20
759.7499999105921
 30
0.0
 40
59.99999618530273
  1
４０～５０mm立上げ
 41
0.7522387940136347
  7
EXCADSTD
 72
     5
 11
1813.749965668096
 21
759.7499999105921
 31
0.0
100
AcDbText
  0
LEADER
  5
319
330
1F
100
AcDbEntity
  8
寸法
  6
CONTINUOUS
 62
     3
100
AcDbLeader
  3
ISO-25
 76
     3
 10
1234.500000000376
 20
935.5
 30
0.0
 10
1381.750000000376
 20
754.5
 30
0.0
 10
1812.250000000376
 20
754.5
 30
0.0
1001
ACAD
1000
DSTYLE
1002
{
1070
     5
1000
EX_NORM
1070
    41
1040
45.0
1070
   341
1005
4D
1002
}
  0
TEXT
  5
31A
330
1F
100
AcDbEntity
  8
寸法
  6
CONTINUOUS
 62
     2
100
AcDbText
 10
2144.050000358007
 20
804.749999910593
 30
0.0
 40
59.99999618530273
  1
φ３２
 41
1.070588224822399
  7
EXCADSTD
 72
     5
 11
2300.049988913915
 21
804.749999910593
 31
0.0
100
AcDbText
  0
LEADER
  5
31B
330
1F
100
AcDbEntity
  8
寸法
  6
CONTINUOUS
 62
     3
100
AcDbLeader
  3
ISO-25
 76
     3
 10
2375.000000000378
 20
882.5499999999993
 30
0.0
 10
2300.050000000379
 20
799.5
 30
0.0
 10
2146.450000000377
 20
799.5
 30
0.0
1001
ACAD
1000
DSTYLE
1002
{
1070
     5
1000
EX_NORM
1070
    41
1040
45.0
1070
   341
1005
4D
1002
}
  0
TEXT
  5
31C
330
1F
100
AcDbEntity
  8
寸法
  6
CONTINUOUS
 62
     2
100
AcDbText
 10
2536.150000000378
 20
804.749999910593
 30
0.0
 40
59.99999618530273
  1
Ｒ１/２
 41
0.8342465643686785
  7
EXCADSTD
 72
     5
 11
2710.149986648937
 21
804.749999910593
 31
0.0
100
AcDbText
  0
LEADER
  5
31D
330
1F
100
AcDbEntity
  8
寸法
  6
CONTINUOUS
 62
     3
100
AcDbLeader
  3
ISO-25
 76
     3
 10
2421.500000000378
 20
911.5
 30
0.0
 10
2536.150000000378
 20
799.5
 30
0.0
 10
2693.650000000378
 20
799.5
 30
0.0
1001
ACAD
1000
DSTYLE
1002
{
1070
     5
1000
EX_NORM
1070
    41
1040
45.0
1070
   341
1005
4D
1002
}
  0
DIMENSION
  5
31F
330
1F
100
AcDbEntity
  8
寸法
  6
CONTINUOUS
 62
     3
100
AcDbDimension
  2
*D15
 10
1456.000000000387
 20
1618.5
 30
0.0
 11
1420.750000089792
 21
1269.0
 31
0.0
 70
   160
  3
ISO-25
100
AcDbAlignedDimension
 13
1334.000000000374
 23
919.4999999999991
 33
0.0
 14
1336.000000000374
 24
1618.5
 34
0.0
 50
90.0
100
AcDbRotatedDimension
1001
ACAD
1000
DSTYLE
1002
{
1070
   270
1070
     2
1070
     6
1000
EX_NORM
1070
     7
1000
EX_NORM
1070
    41
1040
44.99999618530273
1070
    42
1040
10.49999982118607
1070
    44
1040
15.0
1070
    73
1070
     0
1070
    74
1070
     0
1070
    75
1070
     1
1070
    76
1070
     0
1070
    77
1070
     1
1070
    78
1070
     0
1070
   140
1040
59.99999618530273
1070
   147
1040
0.0
1070
   173
1070
     1
1070
   176
1070
     3
1070
   177
1070
     3
1070
   178
1070
     2
1070
   271
1070
     0
1070
   277
1070
     2
1070
   279
1070
     2
1070
   280
1070
     0
1070
   287
1070
     5
1070
   340
1005
31E
1002
}
  0
DIMENSION
  5
32C
330
1F
100
AcDbEntity
  8
寸法
  6
CONTINUOUS
 62
     3
100
AcDbDimension
  2
*D16
 10
1201.000000000376
 20
709.4999999999945
 30
0.0
 11
728.5000000003781
 21
744.7499999105876
 31
0.0
 70
   160
  1
240（床排水）
  3
ISO-25
100
AcDbAlignedDimension
 13
961.0000000003781
 23
919.4999999999991
 33
0.0
 14
1201.000000000376
 24
869.499999999879
 34
0.0
100
AcDbRotatedDimension
1001
ACAD
1000
DSTYLE
1002
{
1070
   270
1070
     2
1070
     6
1000
EX_NORM
1070
     7
1000
EX_NORM
1070
    41
1040
44.99999618530273
1070
    42
1040
10.49999982118607
1070
    44
1040
15.0
1070
    73
1070
     0
1070
    74
1070
     0
1070
    75
1070
     0
1070
    76
1070
     0
1070
    77
1070
     1
1070
    78
1070
     0
1070
   140
1040
59.99999618530273
1070
   147
1040
0.0
1070
   173
1070
     1
1070
   176
1070
     3
1070
   177
1070
     3
1070
   178
1070
     2
1070
   271
1070
     0
1070
   277
1070
     2
1070
   279
1070
     2
1070
   280
1070
     1
1070
   287
1070
     5
1070
   340
1005
31E
1002
}
  0
DIMENSION
  5
339
330
1F
100
AcDbEntity
  8
寸法
  6
CONTINUOUS
 62
     3
100
AcDbDimension
  2
*D17
 10
1126.000000000376
 20
799.4999999999945
 30
0.0
 11
563.5000000003777
 21
834.7499999105876
 31
0.0
 70
   160
  1
330（床給水）
  3
ISO-25
100
AcDbAlignedDimension
 13
796.0000000003776
 23
911.5
 33
0.0
 14
1126.000000000376
 24
911.5
 34
0.0
100
AcDbRotatedDimension
1001
ACAD
1000
DSTYLE
1002
{
1070
   270
1070
     2
1070
     6
1000
EX_NORM
1070
     7
1000
EX_NORM
1070
    41
1040
44.99999618530273
1070
    42
1040
10.49999982118607
1070
    44
1040
15.0
1070
    73
1070
     0
1070
    74
1070
     0
1070
    75
1070
     0
1070
    76
1070
     0
1070
    77
1070
     1
1070
    78
1070
     0
1070
   140
1040
59.99999618530273
1070
   147
1040
0.0
1070
   173
1070
     1
1070
   176
1070
     3
1070
   177
1070
     3
1070
   178
1070
     2
1070
   271
1070
     0
1070
   277
1070
     2
1070
   279
1070
     2
1070
   280
1070
     1
1070
   287
1070
     5
1070
   340
1005
31E
1002
}
  0
DIMENSION
  5
346
330
1F
100
AcDbEntity
  8
寸法
  6
CONTINUOUS
 62
     3
100
AcDbDimension
  2
*D18
 10
1216.000000000376
 20
1223.500000000001
 30
0.0
 11
961.000000000367
 21
1258.749999910594
 31
0.0
 70
   160
  1
510（壁固定）
  3
ISO-25
100
AcDbAlignedDimension
 13
706.000000000358
 23
1495.700000000099
 33
0.0
 14
1216.000000000376
 24
1495.700000000099
 34
0.0
100
AcDbRotatedDimension
1001
ACAD
1000
DSTYLE
1002
{
1070
   270
1070
     2
1070
     6
1000
EX_NORM
1070
     7
1000
EX_NORM
1070
    41
1040
44.99999618530273
1070
    42
1040
10.49999982118607
1070
    44
1040
15.0
1070
    73
1070
     0
1070
    74
1070
     0
1070
    75
1070
     0
1070
    76
1070
     0
1070
    77
1070
     1
1070
    78
1070
     0
1070
   140
1040
59.99999618530273
1070
   147
1040
0.0
1070
   173
1070
     1
1070
   176
1070
     3
1070
   177
1070
     3
1070
   178
1070
     2
1070
   271
1070
     0
1070
   277
1070
     2
1070
   279
1070
     2
1070
   280
1070
     0
1070
   287
1070
     5
1070
   340
1005
31E
1002
}
  0
DIMENSION
  5
353
330
1F
100
AcDbEntity
  8
寸法
  6
CONTINUOUS
 62
     3
100
AcDbDimension
  2
*D19
 10
2491.000000000378
 20
709.4999999999945
 30
0.0
 11
2701.000000000378
 21
744.7499999105876
 31
0.0
 70
   160
  1
80（床給水）
  3
ISO-25
100
AcDbAlignedDimension
 13
2411.000000000378
 23
911.5
 33
0.0
 14
2491.000000000378
 24
919.4999999999991
 34
0.0
100
AcDbRotatedDimension
1001
ACAD
1000
DSTYLE
1002
{
1070
   270
1070
     2
1070
     6
1000
EX_NORM
1070
     7
1000
EX_NORM
1070
    41
1040
44.99999618530273
1070
    42
1040
10.49999982118607
1070
    44
1040
15.0
1070
    73
1070
     0
1070
    74
1070
     0
1070
    75
1070
     0
1070
    76
1070
     1
1070
    77
1070
     1
1070
    78
1070
     0
1070
   140
1040
59.99999618530273
1070
   147
1040
0.0
1070
   173
1070
     1
1070
   176
1070
     3
1070
   177
1070
     3
1070
   178
1070
     2
1070
   271
1070
     0
1070
   277
1070
     2
1070
   279
1070
     2
1070
   280
1070
     2
1070
   287
1070
     5
1070
   340
1005
31E
1002
}
  0
DIMENSION
  5
361
330
1F
100
AcDbEntity
  8
寸法
  6
CONTINUOUS
 62
     3
100
AcDbDimension
  2
*D20
 10
2491.000000000378
 20
619.4999999999945
 30
0.0
 11
2723.500000000378
 21
654.7499999105876
 31
0.0
 70
   160
  1
100（床排水）
  3
ISO-25
100
AcDbAlignedDimension
 13
2391.000000000378
 23
869.499999999879
 33
0.0
 14
2491.000000000378
 24
919.4999999999991
 34
0.0
100
AcDbRotatedDimension
1001
ACAD
1000
DSTYLE
1002
{
1070
   270
1070
     2
1070
     6
1000
EX_NORM
1070
     7
1000
EX_NORM
1070
    41
1040
44.99999618530273
1070
    42
1040
10.49999982118607
1070
    44
1040
15.0
1070
    73
1070
     0
1070
    74
1070
     0
1070
    75
1070
     0
1070
    76
1070
     0
1070
    77
1070
     1
1070
    78
1070
     0
1070
   140
1040
59.99999618530273
1070
   147
1040
0.0
1070
   173
1070
     1
1070
   176
1070
     3
1070
   177
1070
     3
1070
   178
1070
     2
1070
   271
1070
     0
1070
   277
1070
     2
1070
   279
1070
     2
1070
   280
1070
     2
1070
   287
1070
     5
1070
   340
1005
31E
1002
}
  0
DIMENSION
  5
36E
330
1F
100
AcDbEntity
  8
寸法
  6
CONTINUOUS
 62
     3
100
AcDbDimension
  2
*D21
 10
2791.000000000389
 20
1499.5
 30
0.0
 11
2755.750000089795
 21
1209.499999999998
 31
0.0
 70
   160
  1
580（壁固定）
  3
ISO-25
100
AcDbAlignedDimension
 13
2491.000000000378
 23
919.4999999999991
 33
0.0
 14
2523.500005722278
 24
1499.5
 34
0.0
 50
90.0
100
AcDbRotatedDimension
1001
ACAD
1000
DSTYLE
1002
{
1070
   270
1070
     2
1070
     6
1000
EX_NORM
1070
     7
1000
EX_NORM
1070
    41
1040
44.99999618530273
1070
    42
1040
10.49999982118607
1070
    44
1040
15.0
1070
    73
1070
     0
1070
    74
1070
     0
1070
    75
1070
     0
1070
    76
1070
     0
1070
    77
1070
     1
1070
    78
1070
     0
1070
   140
1040
59.99999618530273
1070
   147
1040
0.0
1070
   173
1070
     1
1070
   176
1070
     3
1070
   177
1070
     3
1070
   178
1070
     2
1070
   271
1070
     0
1070
   277
1070
     2
1070
   279
1070
     2
1070
   280
1070
     0
1070
   287
1070
     5
1070
   340
1005
31E
1002
}
  0
DIMENSION
  5
37B
330
1F
100
AcDbEntity
  8
寸法
  6
CONTINUOUS
 62
     3
100
AcDbDimension
  2
*D22
 10
1161.000000000378
 20
4005.0
 30
0.0
 11
728.5000000003783
 21
4040.249999910593
 31
0.0
 70
   160
  1
200（壁排水）
  3
ISO-25
100
AcDbAlignedDimension
 13
961.0000000003781
 23
3825.0
 33
0.0
 14
1161.000000000378
 24
3875.0
 34
0.0
100
AcDbRotatedDimension
1001
ACAD
1000
DSTYLE
1002
{
1070
   270
1070
     2
1070
     6
1000
EX_NORM
1070
     7
1000
EX_NORM
1070
    41
1040
44.99999618530273
1070
    42
1040
10.49999982118607
1070
    44
1040
15.0
1070
    73
1070
     0
1070
    74
1070
     0
1070
    75
1070
     0
1070
    76
1070
     0
1070
    77
1070
     1
1070
    78
1070
     0
1070
   140
1040
59.99999618530273
1070
   147
1040
0.0
1070
   173
1070
     1
1070
   176
1070
     3
1070
   177
1070
     3
1070
   178
1070
     2
1070
   271
1070
     0
1070
   277
1070
     2
1070
   279
1070
     2
1070
   280
1070
     1
1070
   287
1070
     5
1070
   340
1005
31E
1002
}
  0
DIMENSION
  5
388
330
1F
100
AcDbEntity
  8
寸法
  6
CONTINUOUS
 62
     3
100
AcDbDimension
  2
*D23
 10
1061.000000000378
 20
3915.0
 30
0.0
 11
628.5000000003819
 21
3950.249999910593
 31
0.0
 70
   160
  1
200（壁給水）
  3
ISO-25
100
AcDbAlignedDimension
 13
861.0000000003816
 23
3833.0
 33
0.0
 14
1061.000000000378
 24
3838.5
 34
0.0
100
AcDbRotatedDimension
1001
ACAD
1000
DSTYLE
1002
{
1070
   270
1070
     2
1070
     6
1000
EX_NORM
1070
     7
1000
EX_NORM
1070
    41
1040
44.99999618530273
1070
    42
1040
10.49999982118561
1070
    44
1040
15.0
1070
    73
1070
     0
1070
    74
1070
     0
1070
    75
1070
     0
1070
    76
1070
     0
1070
    77
1070
     1
1070
    78
1070
     0
1070
   140
1040
59.99999618530273
1070
   147
1040
0.0
1070
   173
1070
     1
1070
   176
1070
     3
1070
   177
1070
     3
1070
   178
1070
     2
1070
   271
1070
     0
1070
   277
1070
     2
1070
   279
1070
     2
1070
   280
1070
     1
1070
   287
1070
     5
1070
   340
1005
31E
1002
}
  0
DIMENSION
  5
395
330
1F
100
AcDbEntity
  8
寸法
  6
CONTINUOUS
 62
     3
100
AcDbDimension
  2
*D24
 10
1456.000000000385
 20
3375.0
 30
0.0
 11
1420.750000089794
 21
3599.999999999999
 31
0.0
 70
   160
  3
ISO-25
100
AcDbAlignedDimension
 13
1336.000000000374
 23
3825.0
 33
0.0
 14
1336.000000000374
 24
3375.0
 34
0.0
 50
90.0
100
AcDbRotatedDimension
1001
ACAD
1000
DSTYLE
1002
{
1070
   270
1070
     2
1070
     6
1000
EX_NORM
1070
     7
1000
EX_NORM
1070
    41
1040
44.99999618530273
1070
    42
1040
10.49999982118607
1070
    44
1040
15.0
1070
    73
1070
     0
1070
    74
1070
     0
1070
    75
1070
     1
1070
    76
1070
     0
1070
    77
1070
     1
1070
    78
1070
     0
1070
   140
1040
59.99999618530273
1070
   147
1040
0.0
1070
   173
1070
     1
1070
   176
1070
     3
1070
   177
1070
     3
1070
   178
1070
     2
1070
   271
1070
     0
1070
   277
1070
     2
1070
   279
1070
     2
1070
   280
1070
     0
1070
   287
1070
     5
1070
   340
1005
31E
1002
}
  0
DIMENSION
  5
3A1
330
1F
100
AcDbEntity
  8
寸法
  6
CONTINUOUS
 62
     3
100
AcDbDimension
  2
*D25
 10
1336.000000000374
 20
3115.0
 30
0.0
 11
961.0000000003763
 21
3150.249999910593
 31
0.0
 70
   160
  3
ISO-25
100
AcDbAlignedDimension
 13
586.000000000378
 23
3375.0
 33
0.0
 14
1336.000000000374
 24
3375.0
 34
0.0
100
AcDbRotatedDimension
1001
ACAD
1000
DSTYLE
1002
{
1070
   270
1070
     2
1070
     6
1000
EX_NORM
1070
     7
1000
EX_NORM
1070
    41
1040
44.99999618530273
1070
    42
1040
10.49999982118607
1070
    44
1040
15.0
1070
    73
1070
     0
1070
    74
1070
     0
1070
    75
1070
     0
1070
    76
1070
     0
1070
    77
1070
     1
1070
    78
1070
     0
1070
   140
1040
59.99999618530273
1070
   147
1040
0.0
1070
   173
1070
     1
1070
   176
1070
     3
1070
   177
1070
     3
1070
   178
1070
     2
1070
   271
1070
     0
1070
   277
1070
     2
1070
   279
1070
     2
1070
   280
1070
     0
1070
   287
1070
     5
1070
   340
1005
31E
1002
}
  0
DIMENSION
  5
3AE
330
1F
100
AcDbEntity
  8
寸法
  6
CONTINUOUS
 62
     3
100
AcDbDimension
  2
*D26
 10
2611.000000000389
 20
1379.5
 30
0.0
 11
2575.750000089795
 21
1149.5
 31
0.0
 70
   160
  1
460（壁給水）
  3
ISO-25
100
AcDbAlignedDimension
 13
2491.000000000389
 23
919.4999999999991
 33
0.0
 14
2499.000000000389
 24
1379.5
 34
0.0
 50
90.0
100
AcDbRotatedDimension
1001
ACAD
1000
DSTYLE
1002
{
1070
   270
1070
     2
1070
     6
1000
EX_NORM
1070
     7
1000
EX_NORM
1070
    41
1040
44.99999618530273
1070
    42
1040
10.49999982118607
1070
    44
1040
15.0
1070
    73
1070
     0
1070
    74
1070
     0
1070
    75
1070
     1
1070
    76
1070
     0
1070
    77
1070
     1
1070
    78
1070
     0
1070
   140
1040
59.99999618530273
1070
   147
1040
0.0
1070
   173
1070
     1
1070
   176
1070
     3
1070
   177
1070
     3
1070
   178
1070
     2
1070
   271
1070
     0
1070
   277
1070
     2
1070
   279
1070
     2
1070
   280
1070
     0
1070
   287
1070
     5
1070
   340
1005
31E
1002
}
  0
DIMENSION
  5
3BA
330
1F
100
AcDbEntity
  8
寸法
  6
CONTINUOUS
 62
     3
100
AcDbDimension
  2
*D27
 10
2701.000000000389
 20
1389.5
 30
0.0
 11
2665.750000089795
 21
1154.5
 31
0.0
 70
   160
  1
470（壁排水）
  3
ISO-25
100
AcDbAlignedDimension
 13
2491.000000000389
 23
919.4999999999991
 33
0.0
 14
2541.000000000389
 24
1389.5
 34
0.0
 50
90.0
100
AcDbRotatedDimension
1001
ACAD
1000
DSTYLE
1002
{
1070
   270
1070
     2
1070
     6
1000
EX_NORM
1070
     7
1000
EX_NORM
1070
    41
1040
44.99999618530273
1070
    42
1040
10.49999982118607
1070
    44
1040
15.0
1070
    73
1070
     0
1070
    74
1070
     0
1070
    75
1070
     1
1070
    76
1070
     0
1070
    77
1070
     1
1070
    78
1070
     0
1070
   140
1040
59.99999618530273
1070
   147
1040
0.0
1070
   173
1070
     1
1070
   176
1070
     3
1070
   177
1070
     3
1070
   178
1070
     2
1070
   271
1070
     0
1070
   277
1070
     2
1070
   279
1070
     2
1070
   280
1070
     0
1070
   287
1070
     5
1070
   340
1005
31E
1002
}
  0
DIMENSION
  5
3C6
330
1F
100
AcDbEntity
  8
寸法
  6
CONTINUOUS
 62
     3
100
AcDbDimension
  2
*D28
 10
1546.000000000385
 20
3825.0
 30
0.0
 11
1510.750000089792
 21
3584.0
 31
0.0
 70
   160
  1
480
  3
ISO-25
100
AcDbAlignedDimension
 13
961.0000000003798
 23
3343.0
 33
0.0
 14
1336.000000000385
 24
3825.0
 34
0.0
 50
90.0
100
AcDbRotatedDimension
1001
ACAD
1000
DSTYLE
1002
{
1070
   270
1070
     2
1070
     6
1000
EX_NORM
1070
     7
1000
EX_NORM
1070
    41
1040
44.99999618530273
1070
    42
1040
10.49999982118607
1070
    44
1040
15.0
1070
    73
1070
     0
1070
    74
1070
     0
1070
    75
1070
     0
1070
    76
1070
     1
1070
    77
1070
     1
1070
    78
1070
     0
1070
   140
1040
59.99999618530273
1070
   147
1040
0.0
1070
   173
1070
     1
1070
   176
1070
     3
1070
   177
1070
     3
1070
   178
1070
     2
1070
   271
1070
     0
1070
   277
1070
     2
1070
   279
1070
     2
1070
   280
1070
     0
1070
   287
1070
     5
1070
   340
1005
31E
1002
}
  0
DIMENSION
  5
3D2
330
1F
100
AcDbEntity
  8
寸法
  6
CONTINUOUS
 62
     3
100
AcDbDimension
  2
*D29
 10
1186.000000000385
 20
3205.0
 30
0.0
 11
961.0000000003865
 21
3240.249999910593
 31
0.0
 70
   160
  3
ISO-25
100
AcDbAlignedDimension
 13
736.0000000003871
 23
3570.5
 33
0.0
 14
1186.000000000385
 24
3570.5
 34
0.0
100
AcDbRotatedDimension
1001
ACAD
1000
DSTYLE
1002
{
1070
   270
1070
     2
1070
     6
1000
EX_NORM
1070
     7
1000
EX_NORM
1070
    41
1040
44.99999618530273
1070
    42
1040
10.49999982118607
1070
    44
1040
15.0
1070
    73
1070
     0
1070
    74
1070
     0
1070
    75
1070
     0
1070
    76
1070
     0
1070
    77
1070
     1
1070
    78
1070
     0
1070
   140
1040
59.99999618530273
1070
   147
1040
0.0
1070
   173
1070
     1
1070
   176
1070
     3
1070
   177
1070
     3
1070
   178
1070
     2
1070
   271
1070
     0
1070
   277
1070
     2
1070
   279
1070
     2
1070
   280
1070
     0
1070
   287
1070
     5
1070
   340
1005
31E
1002
}
  0
DIMENSION
  5
3DF
330
1F
100
AcDbEntity
  8
寸法
  6
CONTINUOUS
 62
     3
100
AcDbDimension
  2
*D30
 10
1546.000000000387
 20
1788.5
 30
0.0
 11
1510.750000089792
 21
1354.0
 31
0.0
 70
   160
  1
（<>）
  3
ISO-25
100
AcDbAlignedDimension
 13
1334.000000000385
 23
919.4999999999991
 33
0.0
 14
961.0000000003798
 24
1788.5
 34
0.0
 50
90.0
100
AcDbRotatedDimension
1001
ACAD
1000
DSTYLE
1002
{
1070
   270
1070
     2
1070
     6
1000
EX_NORM
1070
     7
1000
EX_NORM
1070
    41
1040
44.99999618530273
1070
    42
1040
10.49999982118607
1070
    44
1040
15.0
1070
    73
1070
     0
1070
    74
1070
     0
1070
    75
1070
     1
1070
    76
1070
     0
1070
    77
1070
     1
1070
    78
1070
     0
1070
   140
1040
59.99999618530273
1070
   147
1040
0.0
1070
   173
1070
     1
1070
   176
1070
     3
1070
   177
1070
     3
1070
   178
1070
     2
1070
   271
1070
     0
1070
   277
1070
     2
1070
   279
1070
     2
1070
   280
1070
     0
1070
   287
1070
     5
1070
   340
1005
31E
1002
}
  0
DIMENSION
  5
3EB
330
1F
100
AcDbEntity
  8
寸法
  6
CONTINUOUS
 62
     3
100
AcDbDimension
  2
*D31
 10
1456.000000000387
 20
1788.5
 30
0.0
 11
1420.750000089794
 21
1703.5
 31
0.0
 70
   160
  3
ISO-25
100
AcDbAlignedDimension
 13
1336.000000000385
 23
1618.5
 33
0.0
 14
961.0000000003889
 24
1788.5
 34
0.0
 50
90.0
100
AcDbRotatedDimension
1001
ACAD
1000
DSTYLE
1002
{
1070
   270
1070
     2
1070
     6
1000
EX_NORM
1070
     7
1000
EX_NORM
1070
    41
1040
44.99999618530273
1070
    42
1040
0.0
1070
    44
1040
0.0
1070
    73
1070
     0
1070
    74
1070
     0
1070
    75
1070
     1
1070
    76
1070
     1
1070
    77
1070
     1
1070
    78
1070
     0
1070
   140
1040
59.99999618530273
1070
   147
1040
0.0
1070
   173
1070
     1
1070
   176
1070
     3
1070
   177
1070
     3
1070
   178
1070
     2
1070
   271
1070
     0
1070
   277
1070
     2
1070
   279
1070
     2
1070
   280
1070
     0
1070
   287
1070
     5
1070
   340
1005
31E
1002
}
  0
DIMENSION
  5
3F6
330
1F
100
AcDbEntity
  8
寸法
  6
CONTINUOUS
 62
     3
100
AcDbDimension
  2
*D32
 10
1635.000000000332
 20
2669.5
 30
0.0
 11
1597.500000000332
 21
1794.499999999999
 31
0.0
 70
   160
  1
（1750）
  3
ISO-25
100
AcDbAlignedDimension
 13
1243.000000000435
 23
919.4999999999991
 33
0.0
 14
1261.000000000335
 24
2669.5
 34
0.0
 50
90.0
100
AcDbRotatedDimension
1001
ACAD
1000
DSTYLE
1002
{
1070
   270
1070
     2
1070
     6
1000
EX_NORM
1070
     7
1000
EX_NORM
1070
    41
1040
44.99999618530273
1070
    42
1040
0.0
1070
    44
1040
0.0
1070
    73
1070
     0
1070
    74
1070
     0
1070
    75
1070
     1
1070
    76
1070
     0
1070
    77
1070
     1
1070
    78
1070
     0
1070
   140
1040
59.99999618530273
1070
   147
1040
0.0
1070
   173
1070
     1
1070
   176
1070
     3
1070
   177
1070
     3
1070
   178
1070
     2
1070
   271
1070
     0
1070
   277
1070
     2
1070
   279
1070
     2
1070
   280
1070
     0
1070
   287
1070
     5
1070
   340
1005
31E
1002
}
  0
DIMENSION
  5
402
330
1F
100
AcDbEntity
  8
寸法
  6
CONTINUOUS
 62
     3
100
AcDbDimension
  2
*D33
 10
1111.00000000033
 20
2732.499999999999
 30
0.0
 11
961.0000000003299
 21
2767.749999910592
 31
0.0
 70
   160
  1
<>（壁固定）
  3
ISO-25
100
AcDbAlignedDimension
 13
811.0000000003298
 23
2621.299999999999
 33
0.0
 14
1111.00000000033
 24
2621.299999999999
 34
0.0
100
AcDbRotatedDimension
1001
ACAD
1000
DSTYLE
1002
{
1070
   270
1070
     2
1070
     6
1000
EX_NORM
1070
     7
1000
EX_NORM
1070
    41
1040
44.99999618530273
1070
    42
1040
10.49999982118607
1070
    44
1040
15.0
1070
    73
1070
     0
1070
    74
1070
     0
1070
    75
1070
     0
1070
    76
1070
     0
1070
    77
1070
     1
1070
    78
1070
     8
1070
   140
1040
59.99999618530273
1070
   147
1040
0.0
1070
   173
1070
     1
1070
   176
1070
     3
1070
   177
1070
     3
1070
   178
1070
     2
1070
   271
1070
     2
1070
   277
1070
     2
1070
   279
1070
     2
1070
   280
1070
     0
1070
   287
1070
     5
1070
   340
1005
31E
1002
}
  0
DIMENSION
  5
40F
330
1F
100
AcDbEntity
  8
寸法
  6
CONTINUOUS
 62
     3
100
AcDbDimension
  2
*D34
 10
1186.00000000033
 20
2848.499999999999
 30
0.0
 11
961.0000000003299
 21
2883.749999910592
 31
0.0
 70
   160
  3
ISO-25
100
AcDbAlignedDimension
 13
736.0000000003298
 23
2668.299999999999
 33
0.0
 14
1186.00000000033
 24
2668.299999999999
 34
0.0
100
AcDbRotatedDimension
1001
ACAD
1000
DSTYLE
1002
{
1070
   270
1070
     2
1070
     6
1000
EX_NORM
1070
     7
1000
EX_NORM
1070
    41
1040
44.99999618530273
1070
    42
1040
10.49999982118607
1070
    44
1040
15.0
1070
    73
1070
     0
1070
    74
1070
     0
1070
    75
1070
     0
1070
    76
1070
     0
1070
    77
1070
     1
1070
    78
1070
     8
1070
   140
1040
59.99999618530273
1070
   147
1040
0.0
1070
   173
1070
     1
1070
   176
1070
     3
1070
   177
1070
     3
1070
   178
1070
     2
1070
   271
1070
     2
1070
   277
1070
     2
1070
   279
1070
     2
1070
   280
1070
     0
1070
   287
1070
     5
1070
   340
1005
31E
1002
}
  0
DIMENSION
  5
41C
330
1F
100
AcDbEntity
  8
寸法
  6
CONTINUOUS
 62
     3
100
AcDbDimension
  2
*D35
 10
1546.000000000427
 20
2669.5
 30
0.0
 11
1510.750000089834
 21
2418.299999999998
 31
0.0
 70
   160
  1
503
  3
ISO-25
100
AcDbAlignedDimension
 13
1184.50000000033
 23
2167.099999999999
 33
0.0
 14
1184.50000000033
 24
2669.5
 34
0.0
 50
90.0
100
AcDbRotatedDimension
1001
ACAD
1000
DSTYLE
1002
{
1070
   270
1070
     2
1070
     6
1000
EX_NORM
1070
     7
1000
EX_NORM
1070
    41
1040
44.99999618530273
1070
    42
1040
10.49999982118607
1070
    44
1040
15.0
1070
    73
1070
     0
1070
    74
1070
     0
1070
    75
1070
     0
1070
    76
1070
     1
1070
    77
1070
     1
1070
    78
1070
     8
1070
   140
1040
59.99999618530273
1070
   147
1040
0.0
1070
   173
1070
     1
1070
   176
1070
     3
1070
   177
1070
     3
1070
   178
1070
     2
1070
   271
1070
     2
1070
   277
1070
     2
1070
   279
1070
     2
1070
   280
1070
     0
1070
   287
1070
     5
1070
   340
1005
31E
1002
}
  0
DIMENSION
  5
428
330
1F
100
AcDbEntity
  8
寸法
  6
CONTINUOUS
 62
     3
100
AcDbDimension
  2
*D36
 10
2491.0000000004
 20
2734.499999999999
 30
0.0
 11
2604.550000000399
 21
2769.749999910592
 31
0.0
 70
   160
  1
122
  3
ISO-25
100
AcDbAlignedDimension
 13
2369.800000000399
 23
2669.5
 33
0.0
 14
2491.0000000004
 24
2663.299999999999
 34
0.0
100
AcDbRotatedDimension
1001
ACAD
1000
DSTYLE
1002
{
1070
   270
1070
     2
1070
     6
1000
EX_NORM
1070
     7
1000
EX_NORM
1070
    41
1040
44.99999618530273
1070
    42
1040
10.49999982118607
1070
    44
1040
15.0
1070
    73
1070
     0
1070
    74
1070
     0
1070
    75
1070
     0
1070
    76
1070
     1
1070
    77
1070
     1
1070
    78
1070
     8
1070
   140
1040
59.99999618530273
1070
   147
1040
0.0
1070
   173
1070
     1
1070
   176
1070
     3
1070
   177
1070
     3
1070
   178
1070
     2
1070
   271
1070
     2
1070
   277
1070
     2
1070
   279
1070
     2
1070
   280
1070
     0
1070
   287
1070
     5
1070
   340
1005
31E
1002
}
  0
DIMENSION
  5
434
330
1F
100
AcDbEntity
  8
寸法
  6
CONTINUOUS
 62
     3
100
AcDbDimension
  2
*D37
 10
2896.000000000369
 20
2613.299999999999
 30
0.0
 11
2860.750000089777
 21
2423.299999999999
 31
0.0
 70
   160
  1
<>（壁固定）
  3
ISO-25
100
AcDbAlignedDimension
 13
2524.2000000004
 23
2233.299999999999
 33
0.0
 14
2524.2000000004
 24
2613.299999999999
 34
0.0
 50
90.0
100
AcDbRotatedDimension
1001
ACAD
1000
DSTYLE
1002
{
1070
   270
1070
     2
1070
     6
1000
EX_NORM
1070
     7
1000
EX_NORM
1070
    41
1040
44.99999618530273
1070
    42
1040
0.0
1070
    44
1040
0.0
1070
    73
1070
     0
1070
    74
1070
     0
1070
    75
1070
     1
1070
    76
1070
     1
1070
    77
1070
     1
1070
    78
1070
     8
1070
   140
1040
59.99999618530273
1070
   147
1040
0.0
1070
   173
1070
     1
1070
   176
1070
     3
1070
   177
1070
     3
1070
   178
1070
     2
1070
   271
1070
     2
1070
   277
1070
     2
1070
   279
1070
     2
1070
   280
1070
     0
1070
   287
1070
     5
1070
   340
1005
31E
1002
}
  0
DIMENSION
  5
43F
330
1F
100
AcDbEntity
  8
寸法
  6
CONTINUOUS
 62
     3
100
AcDbDimension
  2
*D38
 10
2896.000000000369
 20
2669.499999999999
 30
0.0
 11
2860.750000089777
 21
2764.699999999998
 31
0.0
 70
   160
  1
56
 53
90.00000000000173
  3
ISO-25
100
AcDbAlignedDimension
 13
2524.2000000004
 23
2613.299999999999
 33
0.0
 14
2389.800000000399
 24
2669.499999999999
 34
0.0
 50
90.0
100
AcDbRotatedDimension
1001
ACAD
1000
DSTYLE
1002
{
1070
   270
1070
     2
1070
     6
1000
EX_NONE
1070
     7
1000
EX_NORM
1070
    41
1040
44.99999618530273
1070
    42
1040
10.49999982118607
1070
    44
1040
15.0
1070
    73
1070
     0
1070
    74
1070
     0
1070
    75
1070
     0
1070
    76
1070
     0
1070
    77
1070
     1
1070
    78
1070
     8
1070
   140
1040
59.99999618530273
1070
   147
1040
0.0
1070
   173
1070
     1
1070
   176
1070
     3
1070
   177
1070
     3
1070
   178
1070
     2
1070
   271
1070
     2
1070
   277
1070
     2
1070
   279
1070
     2
1070
   280
1070
     0
1070
   287
1070
     5
1070
   340
1005
31E
1002
}
  0
DIMENSION
  5
44E
330
1F
100
AcDbEntity
  8
寸法
  6
CONTINUOUS
 62
     3
100
AcDbDimension
  2
*D39
 10
2896.50000000027
 20
2233.299999999999
 30
0.0
 11
2861.250000089677
 21
1576.399999999999
 31
0.0
 70
   160
  1
（1314）
  3
ISO-25
100
AcDbAlignedDimension
 13
2501.499999821469
 23
919.4999999999991
 33
0.0
 14
2534.69999982157
 24
2233.299999999999
 34
0.0
 50
90.0
100
AcDbRotatedDimension
1001
ACAD
1000
DSTYLE
1002
{
1070
   270
1070
     2
1070
     6
1000
EX_NORM
1070
     7
1000
EX_NORM
1070
    41
1040
44.99999618530273
1070
    42
1040
10.49999982118607
1070
    44
1040
15.0
1070
    73
1070
     0
1070
    74
1070
     0
1070
    75
1070
     0
1070
    76
1070
     0
1070
    77
1070
     1
1070
    78
1070
     0
1070
   140
1040
59.99999618530273
1070
   147
1040
0.0
1070
   173
1070
     1
1070
   176
1070
     3
1070
   177
1070
     3
1070
   178
1070
     2
1070
   271
1070
     0
1070
   277
1070
     2
1070
   279
1070
     2
1070
   280
1070
     0
1070
   287
1070
     5
1070
   340
1005
31E
1002
}
  0
ENDSEC
  0
SECTION
  2
OBJECTS
  0
DICTIONARY
  5
C
330
0
100
AcDbDictionary
  3
ACAD_GROUP
350
D
  3
ACAD_LAYOUT
350
1A
  3
ACAD_MATERIAL
350
3B
  3
ACAD_MLEADERSTYLE
350
47D
  3
ACAD_MLINESTYLE
350
17
  3
ACAD_PLOTSETTINGS
350
19
  3
ACAD_VISUALSTYLE
350
2A
  3
ACDBHEADERROUNDTRIPXREC
350
45B
  3
ACDBVARIABLEDICTIONARY
350
47B
  0
DICTIONARY
  5
D
102
{ACAD_REACTORS
330
C
102
}
330
C
100
AcDbDictionary
  0
DICTIONARY
  5
1A
102
{ACAD_REACTORS
330
C
102
}
330
C
100
AcDbDictionary
  0
DICTIONARY
  5
3B
102
{ACAD_REACTORS
330
C
102
}
330
C
100
AcDbDictionary
  3
BYBLOCK
350
3D
  3
BYLAYER
350
3C
  3
GLOBAL
350
3E
  0
DICTIONARY
  5
47D
102
{ACAD_REACTORS
330
C
102
}
330
C
100
AcDbDictionary
  0
DICTIONARY
  5
17
102
{ACAD_REACTORS
330
C
102
}
330
C
100
AcDbDictionary
  3
STANDARD
350
18
  0
DICTIONARY
  5
19
102
{ACAD_REACTORS
330
C
102
}
330
C
100
AcDbDictionary
  0
DICTIONARY
  5
2A
102
{ACAD_REACTORS
330
C
102
}
330
C
100
AcDbDictionary
  3
2DWIREFRAME
350
2F
  3
3D_HIDDEN
350
31
  3
3DWIREFRAME
350
30
  3
BASIC
350
32
  3
BRIGHTEN
350
36
  3
COLORCHANGE
350
3A
  3
CONCEPTUAL
350
34
  3
DIM
350
35
  3
FACEPATTERN
350
39
  3
FLAT
350
2B
  3
FLATWITHEDGES
350
2C
  3
GOURAUD
350
2D
  3
GOURAUDWITHEDGES
350
2E
  3
LINEPATTERN
350
38
  3
REALISTIC
350
33
  3
THICKEN
350
37
  0
DICTIONARY
  5
45B
102
{ACAD_REACTORS
330
C
102
}
330
C
100
AcDbDictionary
  3
CEPSNTYPE
350
464
  3
DIMSTYLEDATA
350
47A
  3
FINGERPRINTGUID
350
465
  3
HYPERLINKBASE
350
45E
  3
INSUNITS
350
463
  3
LAYOUTDICT
350
460
  3
LWETCUNION
350
462
  3
PLOTSETDICT
350
461
  3
PSVPSCALE
350
467
  3
PUCSBASE
350
46A
  3
PUCSORGBACK
350
470
  3
PUCSORGBOTTOM
350
46C
  3
PUCSORGFRONT
350
46F
  3
PUCSORGLEFT
350
46D
  3
PUCSORGRIGHT
350
46E
  3
PUCSORGTOP
350
46B
  3
PUCSORTHOREF
350
468
  3
PUCSORTHOVIEW
350
469
  3
STYLESHEET
350
45F
  3
TSTACKALIGN
350
45C
  3
TSTACKSIZE
350
45D
  3
UCSBASE
350
473
  3
UCSORGBACK
350
479
  3
UCSORGBOTTOM
350
475
  3
UCSORGFRONT
350
478
  3
UCSORGLEFT
350
476
  3
UCSORGRIGHT
350
477
  3
UCSORGTOP
350
474
  3
UCSORTHOREF
350
471
  3
UCSORTHOVIEW
350
472
  3
VERSIONGUID
350
466
  0
DICTIONARY
  5
47B
102
{ACAD_REACTORS
330
C
102
}
330
C
100
AcDbDictionary
  3
DIMASSOC
350
480
  3
HIDETEXT
350
481
  3
PSOLHEIGHT
350
47F
  3
PSOLWIDTH
350
47E
  0
MATERIAL
  5
3D
102
{ACAD_REACTORS
330
3B
102
}
102
{ACAD_XDICTIONARY
360
484
102
}
330
3B
100
AcDbMaterial
  1
ByBlock
  0
MATERIAL
  5
3C
102
{ACAD_REACTORS
330
3B
102
}
102
{ACAD_XDICTIONARY
360
482
102
}
330
3B
100
AcDbMaterial
  1
ByLayer
  0
MATERIAL
  5
3E
102
{ACAD_REACTORS
330
3B
102
}
102
{ACAD_XDICTIONARY
360
486
102
}
330
3B
100
AcDbMaterial
  1
Global
  0
MLINESTYLE
  5
18
102
{ACAD_REACTORS
330
17
102
}
330
17
100
AcDbMlineStyle
  2
Standard
 70
     0
  3

 62
   256
 51
90.0
 52
90.0
 71
     2
 49
0.5
 62
   256
  6
BYLAYER
 49
-0.5
 62
   256
  6
BYLAYER
  0
ACAD_PROXY_OBJECT
  5
2F
102
{ACAD_REACTORS
330
2A
102
}
330
2A
100
AcDbProxyObject
 90
      499
 91
      501
 93
      436
310
42CC9915DA5C99599C985B595049028333333333333E3BF0000000000000FB0107901411070040501600405405064090741402480A0340
1001
ACAD
1000
AcDbSavedByObjectVersion
1070
     0
  0
ACAD_PROXY_OBJECT
  5
31
102
{ACAD_REACTORS
330
2A
102
}
330
2A
100
AcDbProxyObject
 90
      499
 91
      501
 93
      500
310
424CD108121A5919195B90640502408333333333333E3BF0000000000000FB01079024090700405020000000000001110200405405064090740C02480A0340
1001
ACAD
1000
AcDbSavedByObjectVersion
1070
     0
  0
ACAD_PROXY_OBJECT
  5
30
102
{ACAD_REACTORS
330
2A
102
}
330
2A
100
AcDbProxyObject
 90
      499
 91
      501
 93
      436
310
42CCD915DA5C99599C985B595059028333333333333E3BF0000000000000FB0107901411070040501600405405064090741402480A0340
1001
ACAD
1000
AcDbSavedByObjectVersion
1070
     0
  0
ACAD_PROXY_OBJECT
  5
32
102
{ACAD_REACTORS
330
2A
102
}
330
2A
100
AcDbProxyObject
 90
      499
 91
      501
 93
      388
310
4150985CDA58D07406404333333333333E3BF0000000000000FB0107A41107004050150841D405064090741402480A0350
1001
ACAD
1000
AcDbSavedByObjectVersion
1070
     0
  0
ACAD_PROXY_OBJECT
  5
36
102
{ACAD_REACTORS
330
2A
102
}
330
2A
100
AcDbProxyObject
 90
      499
 91
      501
 93
      428
310
42109C9A59DA1D195B90C409028333333333333E3BF0000000000000FB010790141107004050150841D405064090741402480A029950
1001
ACAD
1000
AcDbSavedByObjectVersion
1070
     0
  0
ACAD_PROXY_OBJECT
  5
3A
102
{ACAD_REACTORS
330
2A
102
}
330
2A
100
AcDbProxyObject
 90
      499
 91
      501
 93
      452
310
42D0DBDB1BDC90DA185B99D95104090240C333333333333E3BF0000000000000FB0108901411070040501508421405064090741402480A0350
1001
ACAD
1000
AcDbSavedByObjectVersion
1070
     0
  0
ACAD_PROXY_OBJECT
  5
34
102
{ACAD_REACTORS
330
2A
102
}
330
2A
100
AcDbProxyObject
 90
      499
 91
      501
 93
      500
310
4290DBDB98D95C1D1D585B10940D028333333333333E3BF0000000000000FB0107902409070040501000000000000111010841D405064090740C02480A0340
1001
ACAD
1000
AcDbSavedByObjectVersion
1070
     0
  0
ACAD_PROXY_OBJECT
  5
35
102
{ACAD_REACTORS
330
2A
102
}
330
2A
100
AcDbProxyObject
 90
      499
 91
      501
 93
      412
310
40D11A5B50B409028333333333333E3BF0000000000000FB010790141107004050150841D405064090741402480A02677FFFFFD0
1001
ACAD
1000
AcDbSavedByObjectVersion
1070
     0
  0
ACAD_PROXY_OBJECT
  5
39
102
{ACAD_REACTORS
330
2A
102
}
330
2A
100
AcDbProxyObject
 90
      499
 91
      501
 93
      444
310
42D19858D95C185D1D195C9B90F409028333333333333E3BF0000000000000FB010790141107004050150841D405064090741402480A0350
1001
ACAD
1000
AcDbSavedByObjectVersion
1070
     0
  0
ACAD_PROXY_OBJECT
  5
2B
102
{ACAD_REACTORS
330
2A
102
}
330
2A
100
AcDbProxyObject
 90
      499
 91
      501
 93
      388
310
41119B185D240901404333333333333E3BF0000000000000F9010740A41107004050150841D405064090741402480A1B50
1001
ACAD
1000
AcDbSavedByObjectVersion
1070
     0
  0
ACAD_PROXY_OBJECT
  5
2C
102
{ACAD_REACTORS
330
2A
102
}
330
2A
100
AcDbProxyObject
 90
      499
 91
      501
 93
      476
310
43519B185D15DA5D1A115919D95CD0140901404333333333333E3BF0000000000000F9010740901411070040501600405405064090741402480A1B50
1001
ACAD
1000
AcDbSavedByObjectVersion
1070
     0
  0
ACAD_PROXY_OBJECT
  5
2D
102
{ACAD_REACTORS
330
2A
102
}
330
2A
100
AcDbProxyObject
 90
      499
 91
      501
 93
      412
310
41D1DBDD5C985D5910240902404333333333333E3BF0000000000000F9010740A411070040501641D405064090741402480A1B50
1001
ACAD
1000
AcDbSavedByObjectVersion
1070
     0
  0
ACAD_PROXY_OBJECT
  5
2E
102
{ACAD_REACTORS
330
2A
102
}
330
2A
100
AcDbProxyObject
 90
      499
 91
      501
 93
      500
310
4411DBDD5C985D5915DA5D1A115919D95CD0340902404333333333333E3BF0000000000000F9010740901411070040501600405405064090741402480A1B50
1001
ACAD
1000
AcDbSavedByObjectVersion
1070
     0
  0
ACAD_PROXY_OBJECT
  5
38
102
{ACAD_REACTORS
330
2A
102
}
330
2A
100
AcDbProxyObject
 90
      499
 91
      501
 93
      444
310
42D31A5B995C185D1D195C9B90E409028333333333333E3BF0000000000000FB010790141107004050750841D405064090741402483A0350
1001
ACAD
1000
AcDbSavedByObjectVersion
1070
     0
  0
ACAD_PROXY_OBJECT
  5
33
102
{ACAD_REACTORS
330
2A
102
}
330
2A
100
AcDbProxyObject
 90
      499
 91
      501
 93
      420
310
425499585B1A5CDD1A58D08409028333333333333E3BF0000000000000FB01079019070040501508421405064090741402480A1B40
1001
ACAD
1000
AcDbSavedByObjectVersion
1070
     0
  0
ACAD_PROXY_OBJECT
  5
37
102
{ACAD_REACTORS
330
2A
102
}
330
2A
100
AcDbProxyObject
 90
      499
 91
      501
 93
      412
310
41D51A1A58DAD95B90D409028333333333333E3BF0000000000000FB010790141107004050150C41D405064090741402480A0350
1001
ACAD
1000
AcDbSavedByObjectVersion
1070
     0
  0
XRECORD
  5
464
102
{ACAD_REACTORS
330
45B
102
}
330
45B
100
AcDbXrecord
 90
        0
  0
XRECORD
  5
47A
102
{ACAD_REACTORS
330
45B
102
}
330
45B
100
AcDbXrecord
1000
DSTYLE
1002
{
1070
   340
340
11
1002
}
  0
XRECORD
  5
465
102
{ACAD_REACTORS
330
45B
102
}
330
45B
100
AcDbXrecord
  1
{3F4EEBA6-6C21-4117-8EF5-6095B2BBFA7E}
  0
XRECORD
  5
45E
102
{ACAD_REACTORS
330
45B
102
}
330
45B
100
AcDbXrecord
  1

  0
XRECORD
  5
463
102
{ACAD_REACTORS
330
45B
102
}
330
45B
100
AcDbXrecord
 90
        4
  0
XRECORD
  5
460
102
{ACAD_REACTORS
330
45B
102
}
330
45B
100
AcDbXrecord
340
1A
  0
XRECORD
  5
462
102
{ACAD_REACTORS
330
45B
102
}
330
45B
100
AcDbXrecord
 90
    10781
  0
XRECORD
  5
461
102
{ACAD_REACTORS
330
45B
102
}
330
45B
100
AcDbXrecord
340
19
  0
XRECORD
  5
467
102
{ACAD_REACTORS
330
45B
102
}
330
45B
100
AcDbXrecord
 40
0.0
  0
XRECORD
  5
46A
102
{ACAD_REACTORS
330
45B
102
}
330
45B
100
AcDbXrecord
340
0
  0
XRECORD
  5
470
102
{ACAD_REACTORS
330
45B
102
}
330
45B
100
AcDbXrecord
 10
0.0
 20
0.0
 30
0.0
  0
XRECORD
  5
46C
102
{ACAD_REACTORS
330
45B
102
}
330
45B
100
AcDbXrecord
 10
0.0
 20
0.0
 30
0.0
  0
XRECORD
  5
46F
102
{ACAD_REACTORS
330
45B
102
}
330
45B
100
AcDbXrecord
 10
0.0
 20
0.0
 30
0.0
  0
XRECORD
  5
46D
102
{ACAD_REACTORS
330
45B
102
}
330
45B
100
AcDbXrecord
 10
0.0
 20
0.0
 30
0.0
  0
XRECORD
  5
46E
102
{ACAD_REACTORS
330
45B
102
}
330
45B
100
AcDbXrecord
 10
0.0
 20
0.0
 30
0.0
  0
XRECORD
  5
46B
102
{ACAD_REACTORS
330
45B
102
}
330
45B
100
AcDbXrecord
 10
0.0
 20
0.0
 30
0.0
  0
XRECORD
  5
468
102
{ACAD_REACTORS
330
45B
102
}
330
45B
100
AcDbXrecord
340
0
  0
XRECORD
  5
469
102
{ACAD_REACTORS
330
45B
102
}
330
45B
100
AcDbXrecord
 70
     0
  0
XRECORD
  5
45F
102
{ACAD_REACTORS
330
45B
102
}
330
45B
100
AcDbXrecord
  1

  0
XRECORD
  5
45C
102
{ACAD_REACTORS
330
45B
102
}
330
45B
100
AcDbXrecord
 90
        1
  0
XRECORD
  5
45D
102
{ACAD_REACTORS
330
45B
102
}
330
45B
100
AcDbXrecord
 90
       70
  0
XRECORD
  5
473
102
{ACAD_REACTORS
330
45B
102
}
330
45B
100
AcDbXrecord
340
0
  0
XRECORD
  5
479
102
{ACAD_REACTORS
330
45B
102
}
330
45B
100
AcDbXrecord
 10
0.0
 20
0.0
 30
0.0
  0
XRECORD
  5
475
102
{ACAD_REACTORS
330
45B
102
}
330
45B
100
AcDbXrecord
 10
0.0
 20
0.0
 30
0.0
  0
XRECORD
  5
478
102
{ACAD_REACTORS
330
45B
102
}
330
45B
100
AcDbXrecord
 10
0.0
 20
0.0
 30
0.0
  0
XRECORD
  5
476
102
{ACAD_REACTORS
330
45B
102
}
330
45B
100
AcDbXrecord
 10
0.0
 20
0.0
 30
0.0
  0
XRECORD
  5
477
102
{ACAD_REACTORS
330
45B
102
}
330
45B
100
AcDbXrecord
 10
0.0
 20
0.0
 30
0.0
  0
XRECORD
  5
474
102
{ACAD_REACTORS
330
45B
102
}
330
45B
100
AcDbXrecord
 10
0.0
 20
0.0
 30
0.0
  0
XRECORD
  5
471
102
{ACAD_REACTORS
330
45B
102
}
330
45B
100
AcDbXrecord
340
0
  0
XRECORD
  5
472
102
{ACAD_REACTORS
330
45B
102
}
330
45B
100
AcDbXrecord
 70
     0
  0
XRECORD
  5
466
102
{ACAD_REACTORS
330
45B
102
}
330
45B
100
AcDbXrecord
  1
{FAEB1C32-E019-11D5-929B-00C0DF256EC4}
  0
DICTIONARYVAR
  5
480
102
{ACAD_REACTORS
330
47B
102
}
330
47B
100
DictionaryVariables
280
     0
  1
2
  0
DICTIONARYVAR
  5
481
102
{ACAD_REACTORS
330
47B
102
}
330
47B
100
DictionaryVariables
280
     0
  1
1
  0
DICTIONARYVAR
  5
47F
102
{ACAD_REACTORS
330
47B
102
}
330
47B
100
DictionaryVariables
280
     0
  1
80.000000
  0
DICTIONARYVAR
  5
47E
102
{ACAD_REACTORS
330
47B
102
}
330
47B
100
DictionaryVariables
280
     0
  1
5.000000
  0
DICTIONARY
  5
484
330
3D
100
AcDbDictionary
280
     1
  3
ACAD_XREC_ROUNDTRIP
360
485
  0
DICTIONARY
  5
482
330
3C
100
AcDbDictionary
280
     1
  3
ACAD_XREC_ROUNDTRIP
360
483
  0
DICTIONARY
  5
486
330
3E
100
AcDbDictionary
280
     1
  3
ACAD_XREC_ROUNDTRIP
360
487
  0
XRECORD
  5
485
102
{ACAD_REACTORS
330
484
102
}
330
484
100
AcDbXrecord
102
MATERIAL
148
0.0
149
0.0
149
0.0
 93
        0
 94
      127
282
     0
 72
     1
 77
     1
171
     1
175
     1
179
     1
273
     0
  0
XRECORD
  5
483
102
{ACAD_REACTORS
330
482
102
}
330
482
100
AcDbXrecord
102
MATERIAL
148
0.0
149
0.0
149
0.0
 93
        0
 94
      127
282
     0
 72
     1
 77
     1
171
     1
175
     1
179
     1
273
     0
  0
XRECORD
  5
487
102
{ACAD_REACTORS
330
486
102
}
330
486
100
AcDbXrecord
102
MATERIAL
148
0.0
149
0.0
149
0.0
 93
        0
 94
      127
282
     0
 72
     1
 77
     1
171
     1
175
     1
179
     1
273
     0
  0
ENDSEC
  0
EOF
