  0
SECTION
  2
HEADER
  9
$ACADVER
  1
AC1014
  9
$ACADMAINTVER
 70
     9
  9
$DWGCODEPAGE
  3
ANSI_932
  9
$INSBASE
 10
0.0
 20
0.0
 30
0.0
  9
$EXTMIN
 10
-0.6000000000000136
 20
9.100000000000001
 30
0.0
  9
$EXTMAX
 10
199.4000000000001
 20
289.1
 30
0.0
  9
$LIMMIN
 10
0.0
 20
0.0
  9
$LIMMAX
 10
210.0
 20
297.0
  9
$ORTHOMODE
 70
     0
  9
$REGENMODE
 70
     1
  9
$FILLMODE
 70
     1
  9
$QTEXTMODE
 70
     0
  9
$MIRRTEXT
 70
     1
  9
$DRAGMODE
 70
     2
  9
$LTSCALE
 40
1.0
  9
$OSMODE
 70
    37
  9
$ATTMODE
 70
     1
  9
$TEXTSIZE
 40
2.5
  9
$TRACEWID
 40
1.0
  9
$TEXTSTYLE
  7
STANDARD
  9
$CLAYER
  8
図枠
  9
$CELTYPE
  6
BYLAYER
  9
$CECOLOR
 62
   256
  9
$CELTSCALE
 40
1.0
  9
$DELOBJ
 70
     1
  9
$DISPSILH
 70
     0
  9
$DIMSCALE
 40
1.0
  9
$DIMASZ
 40
2.5
  9
$DIMEXO
 40
0.625
  9
$DIMDLI
 40
3.75
  9
$DIMRND
 40
0.0
  9
$DIMDLE
 40
0.0
  9
$DIMEXE
 40
1.25
  9
$DIMTP
 40
0.0
  9
$DIMTM
 40
0.0
  9
$DIMTXT
 40
2.5
  9
$DIMCEN
 40
2.5
  9
$DIMTSZ
 40
0.0
  9
$DIMTOL
 70
     0
  9
$DIMLIM
 70
     0
  9
$DIMTIH
 70
     0
  9
$DIMTOH
 70
     0
  9
$DIMSE1
 70
     0
  9
$DIMSE2
 70
     0
  9
$DIMTAD
 70
     1
  9
$DIMZIN
 70
     8
  9
$DIMBLK
  1

  9
$DIMASO
 70
     1
  9
$DIMSHO
 70
     1
  9
$DIMPOST
  1

  9
$DIMAPOST
  1

  9
$DIMALT
 70
     0
  9
$DIMALTD
 70
     3
  9
$DIMALTF
 40
0.03937007874016
  9
$DIMLFAC
 40
1.0
  9
$DIMTOFL
 70
     1
  9
$DIMTVP
 40
0.0
  9
$DIMTIX
 70
     0
  9
$DIMSOXD
 70
     0
  9
$DIMSAH
 70
     0
  9
$DIMBLK1
  1

  9
$DIMBLK2
  1

  9
$DIMSTYLE
  2
ISO-25
  9
$DIMCLRD
 70
     0
  9
$DIMCLRE
 70
     0
  9
$DIMCLRT
 70
     0
  9
$DIMTFAC
 40
1.0
  9
$DIMGAP
 40
0.625
  9
$DIMJUST
 70
     0
  9
$DIMSD1
 70
     0
  9
$DIMSD2
 70
     0
  9
$DIMTOLJ
 70
     0
  9
$DIMTZIN
 70
     8
  9
$DIMALTZ
 70
     0
  9
$DIMALTTZ
 70
     0
  9
$DIMFIT
 70
     3
  9
$DIMUPT
 70
     0
  9
$DIMUNIT
 70
     2
  9
$DIMDEC
 70
     2
  9
$DIMTDEC
 70
     2
  9
$DIMALTU
 70
     2
  9
$DIMALTTD
 70
     3
  9
$DIMTXSTY
  7
STANDARD
  9
$DIMAUNIT
 70
     0
  9
$LUNITS
 70
     2
  9
$LUPREC
 70
     4
  9
$SKETCHINC
 40
1.0
  9
$FILLETRAD
 40
10.0
  9
$AUNITS
 70
     0
  9
$AUPREC
 70
     0
  9
$MENU
  1
.
  9
$ELEVATION
 40
0.0
  9
$PELEVATION
 40
0.0
  9
$THICKNESS
 40
0.0
  9
$LIMCHECK
 70
     0
  9
$CHAMFERA
 40
10.0
  9
$CHAMFERB
 40
10.0
  9
$CHAMFERC
 40
20.0
  9
$CHAMFERD
 40
0.0
  9
$SKPOLY
 70
     0
  9
$TDCREATE
 40
2459341.374130359
  9
$TDUPDATE
 40
2459341.374130717
  9
$TDINDWG
 40
0.0000000116
  9
$TDUSRTIMER
 40
0.0000000116
  9
$USRTIMER
 70
     1
  9
$ANGBASE
 50
0.0
  9
$ANGDIR
 70
     0
  9
$PDMODE
 70
     0
  9
$PDSIZE
 40
0.0
  9
$PLINEWID
 40
0.0
  9
$COORDS
 70
     1
  9
$SPLFRAME
 70
     0
  9
$SPLINETYPE
 70
     6
  9
$SPLINESEGS
 70
     8
  9
$ATTDIA
 70
     0
  9
$ATTREQ
 70
     1
  9
$HANDLING
 70
     1
  9
$HANDSEED
  5
2E6
  9
$SURFTAB1
 70
     6
  9
$SURFTAB2
 70
     6
  9
$SURFTYPE
 70
     6
  9
$SURFU
 70
     6
  9
$SURFV
 70
     6
  9
$UCSNAME
  2

  9
$UCSORG
 10
0.0
 20
0.0
 30
0.0
  9
$UCSXDIR
 10
1.0
 20
0.0
 30
0.0
  9
$UCSYDIR
 10
0.0
 20
1.0
 30
0.0
  9
$PUCSNAME
  2

  9
$PUCSORG
 10
0.0
 20
0.0
 30
0.0
  9
$PUCSXDIR
 10
1.0
 20
0.0
 30
0.0
  9
$PUCSYDIR
 10
0.0
 20
1.0
 30
0.0
  9
$USERI1
 70
     0
  9
$USERI2
 70
     0
  9
$USERI3
 70
     0
  9
$USERI4
 70
     0
  9
$USERI5
 70
     0
  9
$USERR1
 40
0.0
  9
$USERR2
 40
0.0
  9
$USERR3
 40
0.0
  9
$USERR4
 40
0.0
  9
$USERR5
 40
0.0
  9
$WORLDVIEW
 70
     1
  9
$SHADEDGE
 70
     3
  9
$SHADEDIF
 70
    70
  9
$TILEMODE
 70
     1
  9
$MAXACTVP
 70
    64
  9
$PINSBASE
 10
0.0
 20
0.0
 30
0.0
  9
$PLIMCHECK
 70
     0
  9
$PEXTMIN
 10
1.000000000000000E+20
 20
1.000000000000000E+20
 30
1.000000000000000E+20
  9
$PEXTMAX
 10
-1.000000000000000E+20
 20
-1.000000000000000E+20
 30
-1.000000000000000E+20
  9
$PLIMMIN
 10
0.0
 20
0.0
  9
$PLIMMAX
 10
420.0
 20
297.0
  9
$UNITMODE
 70
     0
  9
$VISRETAIN
 70
     1
  9
$PLINEGEN
 70
     0
  9
$PSLTSCALE
 70
     1
  9
$TREEDEPTH
 70
  3020
  9
$PICKSTYLE
 70
     1
  9
$CMLSTYLE
  2
STANDARD
  9
$CMLJUST
 70
     0
  9
$CMLSCALE
 40
20.0
  9
$PROXYGRAPHICS
 70
     1
  9
$MEASUREMENT
 70
     1
  0
ENDSEC
  0
SECTION
  2
CLASSES
  0
CLASS
  1
ACDBDICTIONARYWDFLT
  2
AcDbDictionaryWithDefault
  3
ObjectDBX Classes
 90
        0
280
     0
281
     0
  0
CLASS
  1
VISUALSTYLE
  2
AcDbVisualStyle
  3
ObjectDBX Classes
 90
     4095
280
     0
281
     0
  0
CLASS
  1
MATERIAL
  2
AcDbMaterial
  3
ObjectDBX Classes
 90
     1153
280
     0
281
     0
  0
CLASS
  1
SUN
  2
AcDbSun
  3
SCENEOE
 90
     1024
280
     0
281
     0
  0
CLASS
  1
DICTIONARYVAR
  2
AcDbDictionaryVar
  3
ObjectDBX Classes
 90
        0
280
     0
281
     0
  0
CLASS
  1
XRECORD
  2
AcDbXrecord
  3
AutoCAD 2000
 90
        0
280
     0
281
     0
  0
CLASS
  1
LWPOLYLINE
  2
AcDbPolyline
  3
AutoCAD 2000
 90
        0
280
     0
281
     1
  0
CLASS
  1
HATCH
  2
AcDbHatch
  3
AutoCAD 2000
 90
        0
280
     0
281
     1
  0
CLASS
  1
ACDBPLACEHOLDER
  2
AcDbPlaceHolder
  3
ObjectDBX Classes
 90
        0
280
     0
281
     0
  0
CLASS
  1
LAYOUT
  2
AcDbLayout
  3
ObjectDBX Classes
 90
        0
280
     0
281
     0
  0
ENDSEC
  0
SECTION
  2
TABLES
  0
TABLE
  2
VPORT
  5
8
330
0
100
AcDbSymbolTable
 70
     1
  0
VPORT
  5
29
330
8
100
AcDbSymbolTableRecord
100
AcDbViewportTableRecord
  2
*ACTIVE
 70
     0
 10
0.0
 20
0.0
 11
1.0
 21
1.0
 12
99.40000000000003
 22
149.1
 13
0.0
 23
0.0
 14
10.0
 24
10.0
 15
10.0
 25
10.0
 16
0.0
 26
0.0
 36
1.0
 17
0.0
 27
0.0
 37
0.0
 40
280.0
 41
0.7142857142857147
 42
50.0
 43
0.0
 44
0.0
 50
0.0
 51
0.0
 71
     0
 72
  1000
 73
     1
 74
     3
 75
     0
 76
     0
 77
     0
 78
     0
  0
ENDTAB
  0
TABLE
  2
LTYPE
  5
5
330
0
100
AcDbSymbolTable
 70
     9
  0
LTYPE
  5
14
330
5
100
AcDbSymbolTableRecord
100
AcDbLinetypeTableRecord
  2
BYBLOCK
 70
     0
  3

 72
    65
 73
     0
 40
0.0
  0
LTYPE
  5
15
330
5
100
AcDbSymbolTableRecord
100
AcDbLinetypeTableRecord
  2
BYLAYER
 70
     0
  3

 72
    65
 73
     0
 40
0.0
  0
LTYPE
  5
16
330
5
100
AcDbSymbolTableRecord
100
AcDbLinetypeTableRecord
  2
CONTINUOUS
 70
     0
  3
Solid line
 72
    65
 73
     0
 40
0.0
  0
LTYPE
  5
40
330
5
100
AcDbSymbolTableRecord
100
AcDbLinetypeTableRecord
  2
EXLTYPE1
 70
     0
  3
破線
 72
    65
 73
     2
 40
3.0
 49
2.0
 74
     0
 49
-1.0
 74
     0
  0
LTYPE
  5
41
330
5
100
AcDbSymbolTableRecord
100
AcDbLinetypeTableRecord
  2
EXLTYPE2
 70
     0
  3
点線
 72
    65
 73
     2
 40
2.0
 49
1.0
 74
     0
 49
-1.0
 74
     0
  0
LTYPE
  5
42
330
5
100
AcDbSymbolTableRecord
100
AcDbLinetypeTableRecord
  2
EXLTYPE3
 70
     0
  3
一点鎖線
 72
    65
 73
     4
 40
10.0
 49
7.0
 74
     0
 49
-1.0
 74
     0
 49
1.0
 74
     0
 49
-1.0
 74
     0
  0
LTYPE
  5
43
330
5
100
AcDbSymbolTableRecord
100
AcDbLinetypeTableRecord
  2
EXLTYPE4
 70
     0
  3
二点鎖線
 72
    65
 73
     6
 40
12.0
 49
7.0
 74
     0
 49
-1.0
 74
     0
 49
1.0
 74
     0
 49
-1.0
 74
     0
 49
1.0
 74
     0
 49
-1.0
 74
     0
  0
LTYPE
  5
44
330
5
100
AcDbSymbolTableRecord
100
AcDbLinetypeTableRecord
  2
EXLTYPE5
 70
     0
  3
三点鎖線
 72
    65
 73
     8
 40
37.0
 49
30.0
 74
     0
 49
-1.0
 74
     0
 49
1.0
 74
     0
 49
-1.0
 74
     0
 49
1.0
 74
     0
 49
-1.0
 74
     0
 49
1.0
 74
     0
 49
-1.0
 74
     0
  0
LTYPE
  5
45
330
5
100
AcDbSymbolTableRecord
100
AcDbLinetypeTableRecord
  2
EXLTYPE6
 70
     0
  3
四点鎖線
 72
    65
 73
    10
 40
39.0
 49
30.0
 74
     0
 49
-1.0
 74
     0
 49
1.0
 74
     0
 49
-1.0
 74
     0
 49
1.0
 74
     0
 49
-1.0
 74
     0
 49
1.0
 74
     0
 49
-1.0
 74
     0
 49
1.0
 74
     0
 49
-1.0
 74
     0
  0
LTYPE
  5
46
330
5
100
AcDbSymbolTableRecord
100
AcDbLinetypeTableRecord
  2
EXLTYPE7
 70
     0
  3
一点鎖線4
 72
    65
 73
     4
 40
4.283333333333333
 49
2.1
 74
     0
 49
-1.05
 74
     0
 49
0.0833333333333333
 74
     0
 49
-1.05
 74
     0
  0
LTYPE
  5
47
330
5
100
AcDbSymbolTableRecord
100
AcDbLinetypeTableRecord
  2
EXLTYPE8
 70
     0
  3
二点鎖線4
 72
    65
 73
     6
 40
5.416666666666666
 49
2.1
 74
     0
 49
-1.05
 74
     0
 49
0.0833333333333333
 74
     0
 49
-1.05
 74
     0
 49
0.0833333333333333
 74
     0
 49
-1.05
 74
     0
  0
ENDTAB
  0
TABLE
  2
LAYER
  5
2
330
0
100
AcDbSymbolTable
 70
     4
  0
LAYER
  5
10
330
2
100
AcDbSymbolTableRecord
100
AcDbLayerTableRecord
  2
0
 70
     0
 62
     7
  6
CONTINUOUS
  0
LAYER
  5
4A
330
2
100
AcDbSymbolTableRecord
100
AcDbLayerTableRecord
  2
図枠
 70
     0
 62
     7
  6
CONTINUOUS
  0
LAYER
  5
4B
330
2
100
AcDbSymbolTableRecord
100
AcDbLayerTableRecord
  2
図
 70
     0
 62
     7
  6
CONTINUOUS
  0
LAYER
  5
16A
330
2
100
AcDbSymbolTableRecord
100
AcDbLayerTableRecord
  2
DEFPOINTS
 70
     0
 62
     7
  6
CONTINUOUS
  0
ENDTAB
  0
TABLE
  2
STYLE
  5
3
330
0
100
AcDbSymbolTable
 70
     5
  0
STYLE
  5
11
330
3
100
AcDbSymbolTableRecord
100
AcDbTextStyleTableRecord
  2
STANDARD
 70
     0
 40
0.0
 41
1.0
 50
0.0
 71
     0
 42
2.5
  3
monotxt
  4
extfont
  0
STYLE
  5
48
330
3
100
AcDbSymbolTableRecord
100
AcDbTextStyleTableRecord
  2
EXCADSTD
 70
     0
 40
0.0
 41
1.0
 50
0.0
 71
     0
 42
0.2
  3
monotxt
  4
extfont
  0
STYLE
  5
49
330
3
100
AcDbSymbolTableRecord
100
AcDbTextStyleTableRecord
  2
EXCADVERT
 70
     4
 40
0.0
 41
1.0
 50
0.0
 71
     0
 42
0.286885
  3
monotxt
  4
extfont
  0
STYLE
  5
A8
330
3
100
AcDbSymbolTableRecord
100
AcDbTextStyleTableRecord
  2
EXCADTTF1
 70
     0
 40
0.0
 41
1.0
 50
0.0
 71
     0
 42
0.2
  3
MSGOTHIC.TTC
  4

1001
ACAD
1000
MS Gothic
1071
    32817
  0
STYLE
  5
168
330
3
100
AcDbSymbolTableRecord
100
AcDbTextStyleTableRecord
  2
EXCADDIM1
 70
     0
 40
0.0
 41
0.84
 50
0.0
 71
     0
 42
0.2
  3
monotxt
  4
extfont
  0
ENDTAB
  0
TABLE
  2
VIEW
  5
6
330
0
100
AcDbSymbolTable
 70
     0
  0
ENDTAB
  0
TABLE
  2
UCS
  5
7
330
0
100
AcDbSymbolTable
 70
     0
  0
ENDTAB
  0
TABLE
  2
APPID
  5
9
330
0
100
AcDbSymbolTable
 70
     1
  0
APPID
  5
12
330
9
100
AcDbSymbolTableRecord
100
AcDbRegAppTableRecord
  2
ACAD
 70
     0
  0
ENDTAB
  0
TABLE
  2
DIMSTYLE
  5
A
330
0
100
AcDbSymbolTable
 70
     1
  0
DIMSTYLE
105
27
102
{ACAD_REACTORS
330
169
330
178
330
187
330
196
330
1A3
330
1B2
330
1BF
330
1CE
330
1DD
330
1EA
330
1F6
330
26B
330
27A
330
289
102
}
330
A
100
AcDbSymbolTableRecord
100
AcDbDimStyleTableRecord
  2
ISO-25
 70
     0
  3

  4

  5

  6

  7

 40
1.0
 41
2.5
 42
0.625
 43
3.75
 44
1.25
 45
0.0
 46
0.0
 47
0.0
 48
0.0
140
2.5
141
2.5
142
0.0
143
0.03937007874016
144
1.0
145
0.0
146
1.0
147
0.625
 71
     0
 72
     0
 73
     0
 74
     0
 75
     0
 76
     0
 77
     1
 78
     8
170
     0
171
     3
172
     1
173
     0
174
     0
175
     0
176
     0
177
     0
178
     0
270
     2
271
     2
272
     2
273
     2
274
     3
340
11
275
     0
280
     0
281
     0
282
     0
283
     0
284
     8
285
     0
286
     0
287
     5
288
     0
  0
ENDTAB
  0
TABLE
  2
BLOCK_RECORD
  5
1
330
0
100
AcDbSymbolTable
 70
    29
  0
BLOCK_RECORD
  5
1F
330
1
100
AcDbSymbolTableRecord
100
AcDbBlockTableRecord
  2
*MODEL_SPACE
  0
BLOCK_RECORD
  5
1B
330
1
100
AcDbSymbolTableRecord
100
AcDbBlockTableRecord
  2
*PAPER_SPACE
  0
BLOCK_RECORD
  5
4C
330
1
100
AcDbSymbolTableRecord
100
AcDbBlockTableRecord
  2
EX_NORM
  0
BLOCK_RECORD
  5
4F
330
1
100
AcDbSymbolTableRecord
100
AcDbBlockTableRecord
  2
EX_BNORM
  0
BLOCK_RECORD
  5
52
330
1
100
AcDbSymbolTableRecord
100
AcDbBlockTableRecord
  2
EX_BCIR
  0
BLOCK_RECORD
  5
55
330
1
100
AcDbSymbolTableRecord
100
AcDbBlockTableRecord
  2
EX_RCIVIL
  0
BLOCK_RECORD
  5
58
330
1
100
AcDbSymbolTableRecord
100
AcDbBlockTableRecord
  2
EX_SLANT
  0
BLOCK_RECORD
  5
5B
330
1
100
AcDbSymbolTableRecord
100
AcDbBlockTableRecord
  2
EX_NONE
  0
BLOCK_RECORD
  5
5E
330
1
100
AcDbSymbolTableRecord
100
AcDbBlockTableRecord
  2
EX_CIVIL
  0
BLOCK_RECORD
  5
61
330
1
100
AcDbSymbolTableRecord
100
AcDbBlockTableRecord
  2
EX_WCIR
  0
BLOCK_RECORD
  5
64
330
1
100
AcDbSymbolTableRecord
100
AcDbBlockTableRecord
  2
EX_WCIR2
  0
BLOCK_RECORD
  5
67
330
1
100
AcDbSymbolTableRecord
100
AcDbBlockTableRecord
  2
EX_WNORM
  0
BLOCK_RECORD
  5
6A
330
1
100
AcDbSymbolTableRecord
100
AcDbBlockTableRecord
  2
EX_NNORM
  0
BLOCK_RECORD
  5
6D
330
1
100
AcDbSymbolTableRecord
100
AcDbBlockTableRecord
  2
EX_BBOX
  0
BLOCK_RECORD
  5
70
330
1
100
AcDbSymbolTableRecord
100
AcDbBlockTableRecord
  2
EX_WBOX
  0
BLOCK_RECORD
  5
73
330
1
100
AcDbSymbolTableRecord
100
AcDbBlockTableRecord
  2
EX_INTEGRAL
  0
BLOCK_RECORD
  5
16B
330
1
100
AcDbSymbolTableRecord
100
AcDbBlockTableRecord
  2
*D15
  0
BLOCK_RECORD
  5
179
330
1
100
AcDbSymbolTableRecord
100
AcDbBlockTableRecord
  2
*D16
  0
BLOCK_RECORD
  5
188
330
1
100
AcDbSymbolTableRecord
100
AcDbBlockTableRecord
  2
*D17
  0
BLOCK_RECORD
  5
197
330
1
100
AcDbSymbolTableRecord
100
AcDbBlockTableRecord
  2
*D18
  0
BLOCK_RECORD
  5
1A4
330
1
100
AcDbSymbolTableRecord
100
AcDbBlockTableRecord
  2
*D19
  0
BLOCK_RECORD
  5
1B3
330
1
100
AcDbSymbolTableRecord
100
AcDbBlockTableRecord
  2
*D20
  0
BLOCK_RECORD
  5
1C0
330
1
100
AcDbSymbolTableRecord
100
AcDbBlockTableRecord
  2
*D21
  0
BLOCK_RECORD
  5
1CF
330
1
100
AcDbSymbolTableRecord
100
AcDbBlockTableRecord
  2
*D22
  0
BLOCK_RECORD
  5
1DE
330
1
100
AcDbSymbolTableRecord
100
AcDbBlockTableRecord
  2
*D23
  0
BLOCK_RECORD
  5
1EB
330
1
100
AcDbSymbolTableRecord
100
AcDbBlockTableRecord
  2
*D24
  0
BLOCK_RECORD
  5
1F7
330
1
100
AcDbSymbolTableRecord
100
AcDbBlockTableRecord
  2
*D25
  0
BLOCK_RECORD
  5
26C
330
1
100
AcDbSymbolTableRecord
100
AcDbBlockTableRecord
  2
*D26
  0
BLOCK_RECORD
  5
27B
330
1
100
AcDbSymbolTableRecord
100
AcDbBlockTableRecord
  2
*D27
  0
BLOCK_RECORD
  5
28A
330
1
100
AcDbSymbolTableRecord
100
AcDbBlockTableRecord
  2
*D28
  0
ENDTAB
  0
ENDSEC
  0
SECTION
  2
BLOCKS
  0
BLOCK
  5
20
330
1F
100
AcDbEntity
  8
0
100
AcDbBlockBegin
  2
*MODEL_SPACE
 70
     0
 10
0.0
 20
0.0
 30
0.0
  3
*MODEL_SPACE
  1

  0
ENDBLK
  5
21
330
1F
100
AcDbEntity
  8
0
100
AcDbBlockEnd
  0
BLOCK
  5
1C
330
1B
100
AcDbEntity
 67
     1
  8
0
100
AcDbBlockBegin
  2
*PAPER_SPACE
 70
     0
 10
0.0
 20
0.0
 30
0.0
  3
*PAPER_SPACE
  1

  0
ENDBLK
  5
1D
330
1B
100
AcDbEntity
 67
     1
  8
0
100
AcDbBlockEnd
  0
BLOCK
  5
4D
330
4C
100
AcDbEntity
  8
0
100
AcDbBlockBegin
  2
EX_NORM
 70
     0
 10
0.0
 20
0.0
 30
0.0
  3
EX_NORM
  1

  0
LINE
  5
76
330
4C
100
AcDbEntity
  8
0
  6
CONTINUOUS
 62
     0
100
AcDbLine
 10
0.0
 20
0.0
 30
0.0
 11
-1.0
 21
0.0
 31
0.0
  0
LINE
  5
77
330
4C
100
AcDbEntity
  8
0
  6
CONTINUOUS
 62
     0
100
AcDbLine
 10
0.0
 20
0.0
 30
0.0
 11
-1.0
 21
0.166666667
 31
0.0
  0
LINE
  5
78
330
4C
100
AcDbEntity
  8
0
  6
CONTINUOUS
 62
     0
100
AcDbLine
 10
0.0
 20
0.0
 30
0.0
 11
-1.0
 21
-0.166666667
 31
0.0
  0
ENDBLK
  5
4E
330
4C
100
AcDbEntity
  8
0
100
AcDbBlockEnd
  0
BLOCK
  5
50
330
4F
100
AcDbEntity
  8
0
100
AcDbBlockBegin
  2
EX_BNORM
 70
     0
 10
0.0
 20
0.0
 30
0.0
  3
EX_BNORM
  1

  0
LINE
  5
79
330
4F
100
AcDbEntity
  8
0
  6
CONTINUOUS
 62
     0
100
AcDbLine
 10
0.0
 20
0.0
 30
0.0
 11
-1.0
 21
0.0
 31
0.0
  0
LINE
  5
7A
330
4F
100
AcDbEntity
  8
0
  6
CONTINUOUS
 62
     0
100
AcDbLine
 10
0.0
 20
0.0
 30
0.0
 11
-1.0
 21
0.166666667
 31
0.0
  0
LINE
  5
7B
330
4F
100
AcDbEntity
  8
0
  6
CONTINUOUS
 62
     0
100
AcDbLine
 10
0.0
 20
0.0
 30
0.0
 11
-1.0
 21
-0.166666667
 31
0.0
  0
LINE
  5
7C
330
4F
100
AcDbEntity
  8
0
  6
CONTINUOUS
 62
     0
100
AcDbLine
 10
0.0
 20
0.0
 30
0.0
 11
-1.0
 21
0.083333333
 31
0.0
  0
LINE
  5
7D
330
4F
100
AcDbEntity
  8
0
  6
CONTINUOUS
 62
     0
100
AcDbLine
 10
0.0
 20
0.0
 30
0.0
 11
-1.0
 21
-0.083333333
 31
0.0
  0
LINE
  5
7E
330
4F
100
AcDbEntity
  8
0
  6
CONTINUOUS
 62
     0
100
AcDbLine
 10
-1.0
 20
0.166666667
 30
0.0
 11
-1.0
 21
-0.166666667
 31
0.0
  0
ENDBLK
  5
51
330
4F
100
AcDbEntity
  8
0
100
AcDbBlockEnd
  0
BLOCK
  5
53
330
52
100
AcDbEntity
  8
0
100
AcDbBlockBegin
  2
EX_BCIR
 70
     0
 10
0.0
 20
0.0
 30
0.0
  3
EX_BCIR
  1

  0
LINE
  5
7F
330
52
100
AcDbEntity
  8
0
  6
CONTINUOUS
 62
     0
100
AcDbLine
 10
0.0
 20
0.0
 30
0.0
 11
-1.0
 21
0.0
 31
0.0
  0
CIRCLE
  5
80
330
52
100
AcDbEntity
  8
0
  6
CONTINUOUS
 62
     0
100
AcDbCircle
 10
0.0
 20
0.0
 30
0.0
 40
0.5
  0
CIRCLE
  5
81
330
52
100
AcDbEntity
  8
0
  6
CONTINUOUS
 62
     0
100
AcDbCircle
 10
0.0
 20
0.0
 30
0.0
 40
0.25
  0
ENDBLK
  5
54
330
52
100
AcDbEntity
  8
0
100
AcDbBlockEnd
  0
BLOCK
  5
56
330
55
100
AcDbEntity
  8
0
100
AcDbBlockBegin
  2
EX_RCIVIL
 70
     0
 10
0.0
 20
0.0
 30
0.0
  3
EX_RCIVIL
  1

  0
LINE
  5
82
330
55
100
AcDbEntity
  8
0
  6
CONTINUOUS
 62
     0
100
AcDbLine
 10
0.0
 20
0.0
 30
0.0
 11
-1.0
 21
0.0
 31
0.0
  0
LINE
  5
83
330
55
100
AcDbEntity
  8
0
  6
CONTINUOUS
 62
     0
100
AcDbLine
 10
-1.0
 20
-0.25
 30
0.0
 11
0.0
 21
-0.25
 31
0.0
  0
LINE
  5
84
330
55
100
AcDbEntity
  8
0
  6
CONTINUOUS
 62
     0
100
AcDbLine
 10
-1.0
 20
-0.125
 30
0.0
 11
0.0
 21
-0.125
 31
0.0
  0
ENDBLK
  5
57
330
55
100
AcDbEntity
  8
0
100
AcDbBlockEnd
  0
BLOCK
  5
59
330
58
100
AcDbEntity
  8
0
100
AcDbBlockBegin
  2
EX_SLANT
 70
     0
 10
0.0
 20
0.0
 30
0.0
  3
EX_SLANT
  1

  0
LINE
  5
85
330
58
100
AcDbEntity
  8
0
  6
CONTINUOUS
 62
     0
100
AcDbLine
 10
0.0
 20
0.0
 30
0.0
 11
-1.0
 21
0.0
 31
0.0
  0
LINE
  5
86
330
58
100
AcDbEntity
  8
0
  6
CONTINUOUS
 62
     0
100
AcDbLine
 10
0.707106781
 20
0.707106781
 30
0.0
 11
-0.707106781
 21
-0.707106781
 31
0.0
  0
ENDBLK
  5
5A
330
58
100
AcDbEntity
  8
0
100
AcDbBlockEnd
  0
BLOCK
  5
5C
330
5B
100
AcDbEntity
  8
0
100
AcDbBlockBegin
  2
EX_NONE
 70
     0
 10
0.0
 20
0.0
 30
0.0
  3
EX_NONE
  1

  0
LINE
  5
87
330
5B
100
AcDbEntity
  8
0
  6
CONTINUOUS
 62
     0
100
AcDbLine
 10
0.0
 20
0.0
 30
0.0
 11
-1.0
 21
0.0
 31
0.0
  0
ENDBLK
  5
5D
330
5B
100
AcDbEntity
  8
0
100
AcDbBlockEnd
  0
BLOCK
  5
5F
330
5E
100
AcDbEntity
  8
0
100
AcDbBlockBegin
  2
EX_CIVIL
 70
     0
 10
0.0
 20
0.0
 30
0.0
  3
EX_CIVIL
  1

  0
LINE
  5
88
330
5E
100
AcDbEntity
  8
0
  6
CONTINUOUS
 62
     0
100
AcDbLine
 10
0.0
 20
0.0
 30
0.0
 11
-1.0
 21
0.0
 31
0.0
  0
LINE
  5
89
330
5E
100
AcDbEntity
  8
0
  6
CONTINUOUS
 62
     0
100
AcDbLine
 10
-1.0
 20
0.25
 30
0.0
 11
0.0
 21
0.25
 31
0.0
  0
LINE
  5
8A
330
5E
100
AcDbEntity
  8
0
  6
CONTINUOUS
 62
     0
100
AcDbLine
 10
-1.0
 20
0.125
 30
0.0
 11
0.0
 21
0.125
 31
0.0
  0
ENDBLK
  5
60
330
5E
100
AcDbEntity
  8
0
100
AcDbBlockEnd
  0
BLOCK
  5
62
330
61
100
AcDbEntity
  8
0
100
AcDbBlockBegin
  2
EX_WCIR
 70
     0
 10
0.0
 20
0.0
 30
0.0
  3
EX_WCIR
  1

  0
LINE
  5
8B
330
61
100
AcDbEntity
  8
0
  6
CONTINUOUS
 62
     0
100
AcDbLine
 10
0.0
 20
0.0
 30
0.0
 11
-1.0
 21
0.0
 31
0.0
  0
CIRCLE
  5
8C
330
61
100
AcDbEntity
  8
0
  6
CONTINUOUS
 62
     0
100
AcDbCircle
 10
0.0
 20
0.0
 30
0.0
 40
0.5
  0
ENDBLK
  5
63
330
61
100
AcDbEntity
  8
0
100
AcDbBlockEnd
  0
BLOCK
  5
65
330
64
100
AcDbEntity
  8
0
100
AcDbBlockBegin
  2
EX_WCIR2
 70
     0
 10
0.0
 20
0.0
 30
0.0
  3
EX_WCIR2
  1

  0
LINE
  5
8D
330
64
100
AcDbEntity
  8
0
  6
CONTINUOUS
 62
     0
100
AcDbLine
 10
-0.5
 20
0.0
 30
0.0
 11
-1.0
 21
0.0
 31
0.0
  0
CIRCLE
  5
8E
330
64
100
AcDbEntity
  8
0
  6
CONTINUOUS
 62
     0
100
AcDbCircle
 10
0.0
 20
0.0
 30
0.0
 40
0.5
  0
ENDBLK
  5
66
330
64
100
AcDbEntity
  8
0
100
AcDbBlockEnd
  0
BLOCK
  5
68
330
67
100
AcDbEntity
  8
0
100
AcDbBlockBegin
  2
EX_WNORM
 70
     0
 10
0.0
 20
0.0
 30
0.0
  3
EX_WNORM
  1

  0
LINE
  5
8F
330
67
100
AcDbEntity
  8
0
  6
CONTINUOUS
 62
     0
100
AcDbLine
 10
-1.0
 20
0.0
 30
0.0
 11
-1.0
 21
0.0
 31
0.0
  0
LINE
  5
90
330
67
100
AcDbEntity
  8
0
  6
CONTINUOUS
 62
     0
100
AcDbLine
 10
0.0
 20
0.0
 30
0.0
 11
-1.0
 21
0.166666667
 31
0.0
  0
LINE
  5
91
330
67
100
AcDbEntity
  8
0
  6
CONTINUOUS
 62
     0
100
AcDbLine
 10
0.0
 20
0.0
 30
0.0
 11
-1.0
 21
-0.166666667
 31
0.0
  0
LINE
  5
92
330
67
100
AcDbEntity
  8
0
  6
CONTINUOUS
 62
     0
100
AcDbLine
 10
-1.0
 20
0.166666667
 30
0.0
 11
-1.0
 21
-0.166666667
 31
0.0
  0
ENDBLK
  5
69
330
67
100
AcDbEntity
  8
0
100
AcDbBlockEnd
  0
BLOCK
  5
6B
330
6A
100
AcDbEntity
  8
0
100
AcDbBlockBegin
  2
EX_NNORM
 70
     0
 10
0.0
 20
0.0
 30
0.0
  3
EX_NNORM
  1

  0
LINE
  5
93
330
6A
100
AcDbEntity
  8
0
  6
CONTINUOUS
 62
     0
100
AcDbLine
 10
0.0
 20
0.0
 30
0.0
 11
-1.0
 21
0.0
 31
0.0
  0
LINE
  5
94
330
6A
100
AcDbEntity
  8
0
  6
CONTINUOUS
 62
     0
100
AcDbLine
 10
0.0
 20
0.0
 30
0.0
 11
-1.0
 21
0.166666667
 31
0.0
  0
LINE
  5
95
330
6A
100
AcDbEntity
  8
0
  6
CONTINUOUS
 62
     0
100
AcDbLine
 10
0.0
 20
0.0
 30
0.0
 11
-1.0
 21
-0.166666667
 31
0.0
  0
LINE
  5
96
330
6A
100
AcDbEntity
  8
0
  6
CONTINUOUS
 62
     0
100
AcDbLine
 10
-1.0
 20
0.166666667
 30
0.0
 11
-1.0
 21
-0.166666667
 31
0.0
  0
ENDBLK
  5
6C
330
6A
100
AcDbEntity
  8
0
100
AcDbBlockEnd
  0
BLOCK
  5
6E
330
6D
100
AcDbEntity
  8
0
100
AcDbBlockBegin
  2
EX_BBOX
 70
     0
 10
0.0
 20
0.0
 30
0.0
  3
EX_BBOX
  1

  0
LINE
  5
97
330
6D
100
AcDbEntity
  8
0
  6
CONTINUOUS
 62
     0
100
AcDbLine
 10
0.0
 20
0.0
 30
0.0
 11
-1.0
 21
0.0
 31
0.0
  0
LINE
  5
98
330
6D
100
AcDbEntity
  8
0
  6
CONTINUOUS
 62
     0
100
AcDbLine
 10
-0.5
 20
0.5
 30
0.0
 11
0.5
 21
0.5
 31
0.0
  0
LINE
  5
99
330
6D
100
AcDbEntity
  8
0
  6
CONTINUOUS
 62
     0
100
AcDbLine
 10
0.5
 20
0.5
 30
0.0
 11
0.5
 21
-0.5
 31
0.0
  0
LINE
  5
9A
330
6D
100
AcDbEntity
  8
0
  6
CONTINUOUS
 62
     0
100
AcDbLine
 10
0.5
 20
-0.5
 30
0.0
 11
-0.5
 21
-0.5
 31
0.0
  0
LINE
  5
9B
330
6D
100
AcDbEntity
  8
0
  6
CONTINUOUS
 62
     0
100
AcDbLine
 10
-0.5
 20
-0.5
 30
0.0
 11
-0.5
 21
0.5
 31
0.0
  0
LINE
  5
9C
330
6D
100
AcDbEntity
  8
0
  6
CONTINUOUS
 62
     0
100
AcDbLine
 10
-0.25
 20
0.25
 30
0.0
 11
0.25
 21
0.25
 31
0.0
  0
LINE
  5
9D
330
6D
100
AcDbEntity
  8
0
  6
CONTINUOUS
 62
     0
100
AcDbLine
 10
0.25
 20
0.25
 30
0.0
 11
0.25
 21
-0.25
 31
0.0
  0
LINE
  5
9E
330
6D
100
AcDbEntity
  8
0
  6
CONTINUOUS
 62
     0
100
AcDbLine
 10
0.25
 20
-0.25
 30
0.0
 11
-0.25
 21
-0.25
 31
0.0
  0
LINE
  5
9F
330
6D
100
AcDbEntity
  8
0
  6
CONTINUOUS
 62
     0
100
AcDbLine
 10
-0.25
 20
-0.25
 30
0.0
 11
-0.25
 21
0.25
 31
0.0
  0
ENDBLK
  5
6F
330
6D
100
AcDbEntity
  8
0
100
AcDbBlockEnd
  0
BLOCK
  5
71
330
70
100
AcDbEntity
  8
0
100
AcDbBlockBegin
  2
EX_WBOX
 70
     0
 10
0.0
 20
0.0
 30
0.0
  3
EX_WBOX
  1

  0
LINE
  5
A0
330
70
100
AcDbEntity
  8
0
  6
CONTINUOUS
 62
     0
100
AcDbLine
 10
-0.5
 20
0.0
 30
0.0
 11
-1.0
 21
0.0
 31
0.0
  0
LINE
  5
A1
330
70
100
AcDbEntity
  8
0
  6
CONTINUOUS
 62
     0
100
AcDbLine
 10
-0.5
 20
0.5
 30
0.0
 11
0.5
 21
0.5
 31
0.0
  0
LINE
  5
A2
330
70
100
AcDbEntity
  8
0
  6
CONTINUOUS
 62
     0
100
AcDbLine
 10
0.5
 20
0.5
 30
0.0
 11
0.5
 21
-0.5
 31
0.0
  0
LINE
  5
A3
330
70
100
AcDbEntity
  8
0
  6
CONTINUOUS
 62
     0
100
AcDbLine
 10
0.5
 20
-0.5
 30
0.0
 11
-0.5
 21
-0.5
 31
0.0
  0
LINE
  5
A4
330
70
100
AcDbEntity
  8
0
  6
CONTINUOUS
 62
     0
100
AcDbLine
 10
-0.5
 20
-0.5
 30
0.0
 11
-0.5
 21
0.5
 31
0.0
  0
ENDBLK
  5
72
330
70
100
AcDbEntity
  8
0
100
AcDbBlockEnd
  0
BLOCK
  5
74
330
73
100
AcDbEntity
  8
0
100
AcDbBlockBegin
  2
EX_INTEGRAL
 70
     0
 10
0.0
 20
0.0
 30
0.0
  3
EX_INTEGRAL
  1

  0
LINE
  5
A5
330
73
100
AcDbEntity
  8
0
  6
CONTINUOUS
 62
     0
100
AcDbLine
 10
0.0
 20
0.0
 30
0.0
 11
-1.0
 21
0.0
 31
0.0
  0
ARC
  5
A6
330
73
100
AcDbEntity
  8
0
  6
CONTINUOUS
 62
     0
100
AcDbCircle
 10
0.542115
 20
0.164992
 30
0.0
 40
0.56667
100
AcDbArc
 50
73.07249033629006
 51
196.9275130221199
  0
ARC
  5
A7
330
73
100
AcDbEntity
  8
0
  6
CONTINUOUS
 62
     0
100
AcDbCircle
 10
-0.542115
 20
-0.164992
 30
0.0
 40
0.56667
100
AcDbArc
 50
253.0724869220464
 51
16.9275130559125
  0
ENDBLK
  5
75
330
73
100
AcDbEntity
  8
0
100
AcDbBlockEnd
  0
BLOCK
  5
16C
330
16B
100
AcDbEntity
  8
0
100
AcDbBlockBegin
  2
*D15
 70
     1
 10
0.0
 20
0.0
 30
0.0
  3
*D15
  1

  0
LINE
  5
16E
330
16B
100
AcDbEntity
  8
図
  6
CONTINUOUS
 62
     3
100
AcDbLine
 10
907.8010511557109
 20
875.990507447
 30
0.0
 11
988.0000000000081
 21
875.9905074469999
 31
0.0
  0
LINE
  5
16F
330
16B
100
AcDbEntity
  8
図
  6
CONTINUOUS
 62
     3
100
AcDbLine
 10
978.0000000000081
 20
860.9905074469999
 30
0.0
 11
978.0000000000081
 21
875.9905074469999
 31
0.0
  0
LINE
  5
170
330
16B
100
AcDbEntity
  8
図
  6
CONTINUOUS
 62
     3
100
AcDbLine
 10
978.0000000000081
 20
830.9905074469999
 30
0.0
 11
978.0000000000081
 21
800.9905074469999
 31
0.0
  0
LINE
  5
171
330
16B
100
AcDbEntity
  8
図
  6
CONTINUOUS
 62
     3
100
AcDbLine
 10
978.0000000000081
 20
905.9905074469999
 30
0.0
 11
978.0000000000081
 21
935.9905074469999
 31
0.0
  0
INSERT
  5
172
330
16B
100
AcDbEntity
  8
図
 62
     3
100
AcDbBlockReference
  2
EX_NORM
 10
978.0000000000081
 20
860.9905074469999
 30
0.0
 41
30.0
 42
30.0
 43
30.0
 50
90.0
  0
INSERT
  5
173
330
16B
100
AcDbEntity
  8
図
 62
     3
100
AcDbBlockReference
  2
EX_NORM
 10
978.0000000000081
 20
875.9905074469999
 30
0.0
 41
30.0
 42
30.0
 43
30.0
 50
270.0
  0
MTEXT
  5
174
330
16B
100
AcDbEntity
  8
図
 62
     2
100
AcDbMText
 10
954.5000000596128
 20
940.9905074469999
 30
0.0
 40
40.0
 41
0.0
 71
     5
 72
     1
  1
15
  7
EXCADDIM1
 11
0.0
 21
1.0
 31
0.0
  0
POINT
  5
175
330
16B
100
AcDbEntity
  8
DEFPOINTS
 62
     0
100
AcDbPoint
 10
915.8010512749202
 20
860.990507447
 30
0.0
  0
POINT
  5
176
330
16B
100
AcDbEntity
  8
DEFPOINTS
 62
     0
100
AcDbPoint
 10
900.8010512749202
 20
875.990507447
 30
0.0
  0
POINT
  5
177
330
16B
100
AcDbEntity
  8
DEFPOINTS
 62
     0
100
AcDbPoint
 10
978.0000000000081
 20
875.9905074469999
 30
0.0
  0
ENDBLK
  5
16D
330
16B
100
AcDbEntity
  8
0
100
AcDbBlockEnd
  0
BLOCK
  5
17A
330
179
100
AcDbEntity
  8
0
100
AcDbBlockBegin
  2
*D16
 70
     1
 10
0.0
 20
0.0
 30
0.0
  3
*D16
  1

  0
LINE
  5
17C
330
179
100
AcDbEntity
  8
図
  6
CONTINUOUS
 62
     3
100
AcDbLine
 10
566.8010512749202
 20
853.9905075662093
 30
0.0
 11
566.8010512749202
 21
766.0
 31
0.0
  0
LINE
  5
17D
330
179
100
AcDbEntity
  8
図
  6
CONTINUOUS
 62
     3
100
AcDbLine
 10
581.8010512749202
 20
853.9905075662093
 30
0.0
 11
581.8010512749202
 21
766.0
 31
0.0
  0
LINE
  5
17E
330
179
100
AcDbEntity
  8
図
  6
CONTINUOUS
 62
     3
100
AcDbLine
 10
566.8010512749202
 20
776.0
 30
0.0
 11
581.8010512749202
 21
776.0
 31
0.0
  0
LINE
  5
17F
330
179
100
AcDbEntity
  8
図
  6
CONTINUOUS
 62
     3
100
AcDbLine
 10
536.8010512749202
 20
776.0
 30
0.0
 11
506.8010512749202
 21
776.0
 31
0.0
  0
LINE
  5
180
330
179
100
AcDbEntity
  8
図
  6
CONTINUOUS
 62
     3
100
AcDbLine
 10
611.8010512749202
 20
776.0
 30
0.0
 11
641.8010512749202
 21
776.0
 31
0.0
  0
INSERT
  5
181
330
179
100
AcDbEntity
  8
図
 62
     3
100
AcDbBlockReference
  2
EX_NORM
 10
566.8010512749202
 20
776.0
 30
0.0
 41
30.0
 42
30.0
 43
30.0
  0
INSERT
  5
182
330
179
100
AcDbEntity
  8
図
 62
     3
100
AcDbBlockReference
  2
EX_NORM
 10
581.8010512749202
 20
776.0
 30
0.0
 41
30.0
 42
30.0
 43
30.0
 50
180.0
  0
MTEXT
  5
183
330
179
100
AcDbEntity
  8
図
 62
     2
100
AcDbMText
 10
501.8010512749203
 20
799.4999999403954
 30
0.0
 40
40.0
 41
0.0
 71
     5
 72
     1
  1
15
  7
EXCADDIM1
  0
POINT
  5
184
330
179
100
AcDbEntity
  8
DEFPOINTS
 62
     0
100
AcDbPoint
 10
566.8010512749202
 20
860.990507447
 30
0.0
  0
POINT
  5
185
330
179
100
AcDbEntity
  8
DEFPOINTS
 62
     0
100
AcDbPoint
 10
581.8010512749202
 20
860.990507447
 30
0.0
  0
POINT
  5
186
330
179
100
AcDbEntity
  8
DEFPOINTS
 62
     0
100
AcDbPoint
 10
581.8010512749202
 20
776.0
 30
0.0
  0
ENDBLK
  5
17B
330
179
100
AcDbEntity
  8
0
100
AcDbBlockEnd
  0
BLOCK
  5
189
330
188
100
AcDbEntity
  8
0
100
AcDbBlockBegin
  2
*D17
 70
     1
 10
0.0
 20
0.0
 30
0.0
  3
*D17
  1

  0
LINE
  5
18B
330
188
100
AcDbEntity
  8
図
  6
CONTINUOUS
 62
     3
100
AcDbLine
 10
900.8010512749202
 20
853.9905075662093
 30
0.0
 11
900.8010512749202
 21
766.0
 31
0.0
  0
LINE
  5
18C
330
188
100
AcDbEntity
  8
図
  6
CONTINUOUS
 62
     3
100
AcDbLine
 10
915.8010512749202
 20
853.9905075662093
 30
0.0
 11
915.8010512749202
 21
766.0
 31
0.0
  0
LINE
  5
18D
330
188
100
AcDbEntity
  8
図
  6
CONTINUOUS
 62
     3
100
AcDbLine
 10
900.8010512749202
 20
776.0
 30
0.0
 11
915.8010512749202
 21
776.0
 31
0.0
  0
LINE
  5
18E
330
188
100
AcDbEntity
  8
図
  6
CONTINUOUS
 62
     3
100
AcDbLine
 10
870.8010512749202
 20
776.0
 30
0.0
 11
840.8010512749202
 21
776.0
 31
0.0
  0
LINE
  5
18F
330
188
100
AcDbEntity
  8
図
  6
CONTINUOUS
 62
     3
100
AcDbLine
 10
945.8010512749202
 20
776.0
 30
0.0
 11
975.8010512749202
 21
776.0
 31
0.0
  0
INSERT
  5
190
330
188
100
AcDbEntity
  8
図
 62
     3
100
AcDbBlockReference
  2
EX_NORM
 10
900.8010512749202
 20
776.0
 30
0.0
 41
30.0
 42
30.0
 43
30.0
  0
INSERT
  5
191
330
188
100
AcDbEntity
  8
図
 62
     3
100
AcDbBlockReference
  2
EX_NORM
 10
915.8010512749202
 20
776.0
 30
0.0
 41
30.0
 42
30.0
 43
30.0
 50
180.0
  0
MTEXT
  5
192
330
188
100
AcDbEntity
  8
図
 62
     2
100
AcDbMText
 10
980.8010512749202
 20
799.4999999403954
 30
0.0
 40
40.0
 41
0.0
 71
     5
 72
     1
  1
15
  7
EXCADDIM1
  0
POINT
  5
193
330
188
100
AcDbEntity
  8
DEFPOINTS
 62
     0
100
AcDbPoint
 10
900.8010512749202
 20
860.990507447
 30
0.0
  0
POINT
  5
194
330
188
100
AcDbEntity
  8
DEFPOINTS
 62
     0
100
AcDbPoint
 10
915.8010512749202
 20
860.990507447
 30
0.0
  0
POINT
  5
195
330
188
100
AcDbEntity
  8
DEFPOINTS
 62
     0
100
AcDbPoint
 10
915.8010512749202
 20
776.0
 30
0.0
  0
ENDBLK
  5
18A
330
188
100
AcDbEntity
  8
0
100
AcDbBlockEnd
  0
BLOCK
  5
198
330
197
100
AcDbEntity
  8
0
100
AcDbBlockBegin
  2
*D18
 70
     1
 10
0.0
 20
0.0
 30
0.0
  3
*D18
  1

  0
LINE
  5
19A
330
197
100
AcDbEntity
  8
図
  6
CONTINUOUS
 62
     3
100
AcDbLine
 10
566.8010512749202
 20
853.9905075662093
 30
0.0
 11
566.8010512749202
 21
692.0
 31
0.0
  0
LINE
  5
19B
330
197
100
AcDbEntity
  8
図
  6
CONTINUOUS
 62
     3
100
AcDbLine
 10
915.8010512749202
 20
853.9905075662093
 30
0.0
 11
915.8010512749202
 21
692.0
 31
0.0
  0
LINE
  5
19C
330
197
100
AcDbEntity
  8
図
  6
CONTINUOUS
 62
     3
100
AcDbLine
 10
596.8010512749202
 20
702.0
 30
0.0
 11
885.8010512749202
 21
702.0
 31
0.0
  0
INSERT
  5
19D
330
197
100
AcDbEntity
  8
図
 62
     3
100
AcDbBlockReference
  2
EX_NORM
 10
566.8010512749202
 20
702.0
 30
0.0
 41
30.0
 42
30.0
 43
30.0
 50
180.0
  0
INSERT
  5
19E
330
197
100
AcDbEntity
  8
図
 62
     3
100
AcDbBlockReference
  2
EX_NORM
 10
915.8010512749202
 20
702.0
 30
0.0
 41
30.0
 42
30.0
 43
30.0
  0
MTEXT
  5
19F
330
197
100
AcDbEntity
  8
図
 62
     2
100
AcDbMText
 10
741.3010512749202
 20
725.4999999403954
 30
0.0
 40
40.0
 41
0.0
 71
     5
 72
     1
  1
349
  7
EXCADDIM1
  0
POINT
  5
1A0
330
197
100
AcDbEntity
  8
DEFPOINTS
 62
     0
100
AcDbPoint
 10
566.8010512749202
 20
860.990507447
 30
0.0
  0
POINT
  5
1A1
330
197
100
AcDbEntity
  8
DEFPOINTS
 62
     0
100
AcDbPoint
 10
915.8010512749202
 20
860.990507447
 30
0.0
  0
POINT
  5
1A2
330
197
100
AcDbEntity
  8
DEFPOINTS
 62
     0
100
AcDbPoint
 10
915.8010512749202
 20
702.0
 30
0.0
  0
ENDBLK
  5
199
330
197
100
AcDbEntity
  8
0
100
AcDbBlockEnd
  0
BLOCK
  5
1A5
330
1A4
100
AcDbEntity
  8
0
100
AcDbBlockBegin
  2
*D19
 70
     1
 10
0.0
 20
0.0
 30
0.0
  3
*D19
  1

  0
LINE
  5
1A7
330
1A4
100
AcDbEntity
  8
図
  6
CONTINUOUS
 62
     3
100
AcDbLine
 10
922.8010511557109
 20
1760.990507447
 30
0.0
 11
987.9999999999994
 21
1760.990507447
 31
0.0
  0
LINE
  5
1A8
330
1A4
100
AcDbEntity
  8
図
  6
CONTINUOUS
 62
     3
100
AcDbLine
 10
905.8010511557109
 20
1745.990507447
 30
0.0
 11
987.9999999999994
 21
1745.990507447
 31
0.0
  0
LINE
  5
1A9
330
1A4
100
AcDbEntity
  8
図
  6
CONTINUOUS
 62
     3
100
AcDbLine
 10
977.9999999999999
 20
1760.990507447
 30
0.0
 11
977.9999999999999
 21
1745.990507447
 31
0.0
  0
LINE
  5
1AA
330
1A4
100
AcDbEntity
  8
図
  6
CONTINUOUS
 62
     3
100
AcDbLine
 10
977.9999999999999
 20
1790.990507447
 30
0.0
 11
977.9999999999999
 21
1820.990507447
 31
0.0
  0
LINE
  5
1AB
330
1A4
100
AcDbEntity
  8
図
  6
CONTINUOUS
 62
     3
100
AcDbLine
 10
977.9999999999999
 20
1715.990507447
 30
0.0
 11
977.9999999999999
 21
1685.990507447
 31
0.0
  0
INSERT
  5
1AC
330
1A4
100
AcDbEntity
  8
図
 62
     3
100
AcDbBlockReference
  2
EX_NORM
 10
977.9999999999999
 20
1760.990507447
 30
0.0
 41
30.0
 42
30.0
 43
30.0
 50
270.0
  0
INSERT
  5
1AD
330
1A4
100
AcDbEntity
  8
図
 62
     3
100
AcDbBlockReference
  2
EX_NORM
 10
977.9999999999999
 20
1745.990507447
 30
0.0
 41
30.0
 42
30.0
 43
30.0
 50
90.0
  0
MTEXT
  5
1AE
330
1A4
100
AcDbEntity
  8
図
 62
     2
100
AcDbMText
 10
954.5000000596051
 20
1680.990507447
 30
0.0
 40
40.0
 41
0.0
 71
     5
 72
     1
  1
15
  7
EXCADDIM1
 11
0.0
 21
1.0
 31
0.0
  0
POINT
  5
1AF
330
1A4
100
AcDbEntity
  8
DEFPOINTS
 62
     0
100
AcDbPoint
 10
915.8010512749202
 20
1760.990507447
 30
0.0
  0
POINT
  5
1B0
330
1A4
100
AcDbEntity
  8
DEFPOINTS
 62
     0
100
AcDbPoint
 10
898.8010512749202
 20
1745.990507447
 30
0.0
  0
POINT
  5
1B1
330
1A4
100
AcDbEntity
  8
DEFPOINTS
 62
     0
100
AcDbPoint
 10
977.9999999999999
 20
1745.990507447
 30
0.0
  0
ENDBLK
  5
1A6
330
1A4
100
AcDbEntity
  8
0
100
AcDbBlockEnd
  0
BLOCK
  5
1B4
330
1B3
100
AcDbEntity
  8
0
100
AcDbBlockBegin
  2
*D20
 70
     1
 10
0.0
 20
0.0
 30
0.0
  3
*D20
  1

  0
LINE
  5
1B6
330
1B3
100
AcDbEntity
  8
図
  6
CONTINUOUS
 62
     3
100
AcDbLine
 10
922.8010511557109
 20
1760.990507447
 30
0.0
 11
1135.999999999999
 21
1760.990507447
 31
0.0
  0
LINE
  5
1B7
330
1B3
100
AcDbEntity
  8
図
  6
CONTINUOUS
 62
     3
100
AcDbLine
 10
922.8010511557109
 20
860.990507447
 30
0.0
 11
1135.999999999999
 21
860.9905074469999
 31
0.0
  0
LINE
  5
1B8
330
1B3
100
AcDbEntity
  8
図
  6
CONTINUOUS
 62
     3
100
AcDbLine
 10
1126.0
 20
1730.990507447
 30
0.0
 11
1126.0
 21
890.9905074469999
 31
0.0
  0
INSERT
  5
1B9
330
1B3
100
AcDbEntity
  8
図
 62
     3
100
AcDbBlockReference
  2
EX_NORM
 10
1126.0
 20
1760.990507447
 30
0.0
 41
30.0
 42
30.0
 43
30.0
 50
90.0
  0
INSERT
  5
1BA
330
1B3
100
AcDbEntity
  8
図
 62
     3
100
AcDbBlockReference
  2
EX_NORM
 10
1126.0
 20
860.9905074469999
 30
0.0
 41
30.0
 42
30.0
 43
30.0
 50
270.0
  0
MTEXT
  5
1BB
330
1B3
100
AcDbEntity
  8
図
 62
     2
100
AcDbMText
 10
1102.500000059604
 20
1310.990507447
 30
0.0
 40
40.0
 41
0.0
 71
     5
 72
     1
  1
900
  7
EXCADDIM1
 11
0.0
 21
1.0
 31
0.0
  0
POINT
  5
1BC
330
1B3
100
AcDbEntity
  8
DEFPOINTS
 62
     0
100
AcDbPoint
 10
915.8010512749202
 20
1760.990507447
 30
0.0
  0
POINT
  5
1BD
330
1B3
100
AcDbEntity
  8
DEFPOINTS
 62
     0
100
AcDbPoint
 10
915.8010512749202
 20
860.990507447
 30
0.0
  0
POINT
  5
1BE
330
1B3
100
AcDbEntity
  8
DEFPOINTS
 62
     0
100
AcDbPoint
 10
1126.0
 20
860.9905074469999
 30
0.0
  0
ENDBLK
  5
1B5
330
1B3
100
AcDbEntity
  8
0
100
AcDbBlockEnd
  0
BLOCK
  5
1C1
330
1C0
100
AcDbEntity
  8
0
100
AcDbBlockBegin
  2
*D21
 70
     1
 10
0.0
 20
0.0
 30
0.0
  3
*D21
  1

  0
LINE
  5
1C3
330
1C0
100
AcDbEntity
  8
図
  6
CONTINUOUS
 62
     3
100
AcDbLine
 10
574.8010513941294
 20
1303.490507447
 30
0.0
 11
521.3010512749202
 21
1303.490507447
 31
0.0
  0
LINE
  5
1C4
330
1C0
100
AcDbEntity
  8
図
  6
CONTINUOUS
 62
     3
100
AcDbLine
 10
574.8010513941294
 20
1318.490507447
 30
0.0
 11
521.3010512749202
 21
1318.490507447
 31
0.0
  0
LINE
  5
1C5
330
1C0
100
AcDbEntity
  8
図
  6
CONTINUOUS
 62
     3
100
AcDbLine
 10
531.3010512749202
 20
1303.490507447
 30
0.0
 11
531.3010512749202
 21
1318.490507447
 31
0.0
  0
LINE
  5
1C6
330
1C0
100
AcDbEntity
  8
図
  6
CONTINUOUS
 62
     3
100
AcDbLine
 10
531.3010512749202
 20
1273.490507447
 30
0.0
 11
531.3010512749202
 21
1243.490507447
 31
0.0
  0
LINE
  5
1C7
330
1C0
100
AcDbEntity
  8
図
  6
CONTINUOUS
 62
     3
100
AcDbLine
 10
531.3010512749202
 20
1348.490507447
 30
0.0
 11
531.3010512749202
 21
1378.490507447
 31
0.0
  0
INSERT
  5
1C8
330
1C0
100
AcDbEntity
  8
図
 62
     3
100
AcDbBlockReference
  2
EX_NORM
 10
531.3010512749202
 20
1303.490507447
 30
0.0
 41
30.0
 42
30.0
 43
30.0
 50
90.0
  0
INSERT
  5
1C9
330
1C0
100
AcDbEntity
  8
図
 62
     3
100
AcDbBlockReference
  2
EX_NORM
 10
531.3010512749202
 20
1318.490507447
 30
0.0
 41
30.0
 42
30.0
 43
30.0
 50
270.0
  0
MTEXT
  5
1CA
330
1C0
100
AcDbEntity
  8
図
 62
     2
100
AcDbMText
 10
507.8010513345251
 20
1383.490507447
 30
0.0
 40
40.0
 41
0.0
 71
     5
 72
     1
  1
15
  7
EXCADDIM1
 11
0.0
 21
1.0
 31
0.0
  0
POINT
  5
1CB
330
1C0
100
AcDbEntity
  8
DEFPOINTS
 62
     0
100
AcDbPoint
 10
581.8010512749202
 20
1303.490507447
 30
0.0
  0
POINT
  5
1CC
330
1C0
100
AcDbEntity
  8
DEFPOINTS
 62
     0
100
AcDbPoint
 10
581.8010512749202
 20
1318.490507447
 30
0.0
  0
POINT
  5
1CD
330
1C0
100
AcDbEntity
  8
DEFPOINTS
 62
     0
100
AcDbPoint
 10
531.3010512749202
 20
1318.490507447
 30
0.0
  0
ENDBLK
  5
1C2
330
1C0
100
AcDbEntity
  8
0
100
AcDbBlockEnd
  0
BLOCK
  5
1D0
330
1CF
100
AcDbEntity
  8
0
100
AcDbBlockBegin
  2
*D22
 70
     1
 10
0.0
 20
0.0
 30
0.0
  3
*D22
  1

  0
LINE
  5
1D2
330
1CF
100
AcDbEntity
  8
図
  6
CONTINUOUS
 62
     3
100
AcDbLine
 10
1509.00000000002
 20
1767.990507327791
 30
0.0
 11
1509.00000000002
 21
1784.740507447
 31
0.0
  0
LINE
  5
1D3
330
1CF
100
AcDbEntity
  8
図
  6
CONTINUOUS
 62
     3
100
AcDbLine
 10
1512.00000000002
 20
1767.990507327791
 30
0.0
 11
1512.00000000002
 21
1784.740507447
 31
0.0
  0
LINE
  5
1D4
330
1CF
100
AcDbEntity
  8
図
  6
CONTINUOUS
 62
     3
100
AcDbLine
 10
1509.00000000002
 20
1774.740507447
 30
0.0
 11
1512.00000000002
 21
1774.740507447
 31
0.0
  0
LINE
  5
1D5
330
1CF
100
AcDbEntity
  8
図
  6
CONTINUOUS
 62
     3
100
AcDbLine
 10
1479.00000000002
 20
1774.740507447
 30
0.0
 11
1449.00000000002
 21
1774.740507447
 31
0.0
  0
LINE
  5
1D6
330
1CF
100
AcDbEntity
  8
図
  6
CONTINUOUS
 62
     3
100
AcDbLine
 10
1542.00000000002
 20
1774.740507447
 30
0.0
 11
1572.00000000002
 21
1774.740507447
 31
0.0
  0
INSERT
  5
1D7
330
1CF
100
AcDbEntity
  8
図
 62
     3
100
AcDbBlockReference
  2
EX_NONE
 10
1509.00000000002
 20
1774.740507447
 30
0.0
 41
30.0
 42
30.0
 43
30.0
  0
INSERT
  5
1D8
330
1CF
100
AcDbEntity
  8
図
 62
     3
100
AcDbBlockReference
  2
EX_NORM
 10
1512.00000000002
 20
1774.740507447
 30
0.0
 41
30.0
 42
30.0
 43
30.0
 50
180.0
  0
MTEXT
  5
1D9
330
1CF
100
AcDbEntity
  8
図
 62
     2
100
AcDbMText
 10
1562.00000000002
 20
1798.240507387395
 30
0.0
 40
40.0
 41
0.0
 71
     5
 72
     1
  1
3
  7
EXCADDIM1
  0
POINT
  5
1DA
330
1CF
100
AcDbEntity
  8
DEFPOINTS
 62
     0
100
AcDbPoint
 10
1509.00000000002
 20
1760.990507447
 30
0.0
  0
POINT
  5
1DB
330
1CF
100
AcDbEntity
  8
DEFPOINTS
 62
     0
100
AcDbPoint
 10
1512.00000000002
 20
1760.990507447
 30
0.0
  0
POINT
  5
1DC
330
1CF
100
AcDbEntity
  8
DEFPOINTS
 62
     0
100
AcDbPoint
 10
1512.00000000002
 20
1774.740507447
 30
0.0
  0
ENDBLK
  5
1D1
330
1CF
100
AcDbEntity
  8
0
100
AcDbBlockEnd
  0
BLOCK
  5
1DF
330
1DE
100
AcDbEntity
  8
0
100
AcDbBlockBegin
  2
*D23
 70
     1
 10
0.0
 20
0.0
 30
0.0
  3
*D23
  1

  0
LINE
  5
1E1
330
1DE
100
AcDbEntity
  8
図
  6
CONTINUOUS
 62
     3
100
AcDbLine
 10
1380.00000000002
 20
853.9905075662093
 30
0.0
 11
1380.00000000002
 21
766.0
 31
0.0
  0
LINE
  5
1E2
330
1DE
100
AcDbEntity
  8
図
  6
CONTINUOUS
 62
     3
100
AcDbLine
 10
1512.00000000002
 20
853.9905075662093
 30
0.0
 11
1512.00000000002
 21
766.0
 31
0.0
  0
LINE
  5
1E3
330
1DE
100
AcDbEntity
  8
図
  6
CONTINUOUS
 62
     3
100
AcDbLine
 10
1410.00000000002
 20
776.0
 30
0.0
 11
1482.00000000002
 21
776.0
 31
0.0
  0
INSERT
  5
1E4
330
1DE
100
AcDbEntity
  8
図
 62
     3
100
AcDbBlockReference
  2
EX_NORM
 10
1380.00000000002
 20
776.0
 30
0.0
 41
30.0
 42
30.0
 43
30.0
 50
180.0
  0
INSERT
  5
1E5
330
1DE
100
AcDbEntity
  8
図
 62
     3
100
AcDbBlockReference
  2
EX_NORM
 10
1512.00000000002
 20
776.0
 30
0.0
 41
30.0
 42
30.0
 43
30.0
  0
MTEXT
  5
1E6
330
1DE
100
AcDbEntity
  8
図
 62
     2
100
AcDbMText
 10
1446.00000000002
 20
799.4999999403954
 30
0.0
 40
40.0
 41
0.0
 71
     5
 72
     1
  1
132
  7
EXCADDIM1
  0
POINT
  5
1E7
330
1DE
100
AcDbEntity
  8
DEFPOINTS
 62
     0
100
AcDbPoint
 10
1380.00000000002
 20
860.990507447
 30
0.0
  0
POINT
  5
1E8
330
1DE
100
AcDbEntity
  8
DEFPOINTS
 62
     0
100
AcDbPoint
 10
1512.00000000002
 20
860.990507447
 30
0.0
  0
POINT
  5
1E9
330
1DE
100
AcDbEntity
  8
DEFPOINTS
 62
     0
100
AcDbPoint
 10
1512.00000000002
 20
776.0
 30
0.0
  0
ENDBLK
  5
1E0
330
1DE
100
AcDbEntity
  8
0
100
AcDbBlockEnd
  0
BLOCK
  5
1EC
330
1EB
100
AcDbEntity
  8
0
100
AcDbBlockBegin
  2
*D24
 70
     1
 10
0.0
 20
0.0
 30
0.0
  3
*D24
  1

  0
LINE
  5
1EE
330
1EB
100
AcDbEntity
  8
図
  6
CONTINUOUS
 62
     3
100
AcDbLine
 10
907.8010511557109
 20
1303.490507447
 30
0.0
 11
1043.0
 21
1303.490507447
 31
0.0
  0
LINE
  5
1EF
330
1EB
100
AcDbEntity
  8
図
  6
CONTINUOUS
 62
     3
100
AcDbLine
 10
1033.0
 20
890.990507447
 30
0.0
 11
1033.0
 21
1273.490507447
 31
0.0
  0
INSERT
  5
1F0
330
1EB
100
AcDbEntity
  8
図
 62
     3
100
AcDbBlockReference
  2
EX_NORM
 10
1033.0
 20
860.990507447
 30
0.0
 41
30.0
 42
30.0
 43
30.0
 50
270.0
  0
INSERT
  5
1F1
330
1EB
100
AcDbEntity
  8
図
 62
     3
100
AcDbBlockReference
  2
EX_NORM
 10
1033.0
 20
1303.490507447
 30
0.0
 41
30.0
 42
30.0
 43
30.0
 50
90.0
  0
MTEXT
  5
1F2
330
1EB
100
AcDbEntity
  8
図
 62
     2
100
AcDbMText
 10
1009.500000059605
 20
1082.240507447
 30
0.0
 40
40.0
 41
0.0
 71
     5
 72
     1
  1
443
  7
EXCADDIM1
 11
0.0
 21
1.0
 31
0.0
  0
POINT
  5
1F3
330
1EB
100
AcDbEntity
  8
DEFPOINTS
 62
     0
100
AcDbPoint
 10
915.8010512749202
 20
860.990507447
 30
0.0
  0
POINT
  5
1F4
330
1EB
100
AcDbEntity
  8
DEFPOINTS
 62
     0
100
AcDbPoint
 10
900.8010512749202
 20
1303.490507447
 30
0.0
  0
POINT
  5
1F5
330
1EB
100
AcDbEntity
  8
DEFPOINTS
 62
     0
100
AcDbPoint
 10
1033.0
 20
1303.490507447
 30
0.0
  0
ENDBLK
  5
1ED
330
1EB
100
AcDbEntity
  8
0
100
AcDbBlockEnd
  0
BLOCK
  5
1F8
330
1F7
100
AcDbEntity
  8
0
100
AcDbBlockBegin
  2
*D25
 70
     1
 10
0.0
 20
0.0
 30
0.0
  3
*D25
  1

  0
LINE
  5
1FA
330
1F7
100
AcDbEntity
  8
図
  6
CONTINUOUS
 62
     3
100
AcDbLine
 10
1509.00000000002
 20
1767.990507327791
 30
0.0
 11
1509.00000000002
 21
1834.000000000001
 31
0.0
  0
LINE
  5
1FB
330
1F7
100
AcDbEntity
  8
図
  6
CONTINUOUS
 62
     3
100
AcDbLine
 10
1434.00000000002
 20
1728.990507327791
 30
0.0
 11
1434.00000000002
 21
1834.000000000001
 31
0.0
  0
LINE
  5
1FC
330
1F7
100
AcDbEntity
  8
図
  6
CONTINUOUS
 62
     3
100
AcDbLine
 10
1479.00000000002
 20
1824.0
 30
0.0
 11
1464.00000000002
 21
1824.0
 31
0.0
  0
INSERT
  5
1FD
330
1F7
100
AcDbEntity
  8
図
 62
     3
100
AcDbBlockReference
  2
EX_NORM
 10
1509.00000000002
 20
1824.0
 30
0.0
 41
30.0
 42
30.0
 43
30.0
  0
INSERT
  5
1FE
330
1F7
100
AcDbEntity
  8
図
 62
     3
100
AcDbBlockReference
  2
EX_NORM
 10
1434.00000000002
 20
1824.0
 30
0.0
 41
30.0
 42
30.0
 43
30.0
 50
180.0
  0
MTEXT
  5
1FF
330
1F7
100
AcDbEntity
  8
図
 62
     2
100
AcDbMText
 10
1471.500000000021
 20
1847.499999940395
 30
0.0
 40
40.0
 41
0.0
 71
     5
 72
     1
  1
75
  7
EXCADDIM1
  0
POINT
  5
200
330
1F7
100
AcDbEntity
  8
DEFPOINTS
 62
     0
100
AcDbPoint
 10
1509.00000000002
 20
1760.990507447
 30
0.0
  0
POINT
  5
201
330
1F7
100
AcDbEntity
  8
DEFPOINTS
 62
     0
100
AcDbPoint
 10
1434.00000000002
 20
1721.990507447
 30
0.0
  0
POINT
  5
202
330
1F7
100
AcDbEntity
  8
DEFPOINTS
 62
     0
100
AcDbPoint
 10
1434.00000000002
 20
1824.0
 30
0.0
  0
ENDBLK
  5
1F9
330
1F7
100
AcDbEntity
  8
0
100
AcDbBlockEnd
  0
BLOCK
  5
26D
330
26C
100
AcDbEntity
  8
0
100
AcDbBlockBegin
  2
*D26
 70
     1
 10
0.0
 20
0.0
 30
0.0
  3
*D26
  1

  0
LINE
  5
26F
330
26C
100
AcDbEntity
  8
図
  6
CONTINUOUS
 62
     3
100
AcDbLine
 10
1515.999999880791
 20
1745.990507447
 30
0.0
 11
1649.0
 21
1745.990507447
 31
0.0
  0
LINE
  5
270
330
26C
100
AcDbEntity
  8
図
  6
CONTINUOUS
 62
     3
100
AcDbLine
 10
1445.999999880791
 20
1716.990507447
 30
0.0
 11
1649.0
 21
1716.990507447
 31
0.0
  0
LINE
  5
271
330
26C
100
AcDbEntity
  8
図
  6
CONTINUOUS
 62
     3
100
AcDbLine
 10
1639.0
 20
1745.990507447
 30
0.0
 11
1639.0
 21
1716.990507447
 31
0.0
  0
LINE
  5
272
330
26C
100
AcDbEntity
  8
図
  6
CONTINUOUS
 62
     3
100
AcDbLine
 10
1639.0
 20
1775.990507447
 30
0.0
 11
1639.0
 21
1805.990507447
 31
0.0
  0
LINE
  5
273
330
26C
100
AcDbEntity
  8
図
  6
CONTINUOUS
 62
     3
100
AcDbLine
 10
1639.0
 20
1686.990507447
 30
0.0
 11
1639.0
 21
1656.990507447
 31
0.0
  0
INSERT
  5
274
330
26C
100
AcDbEntity
  8
図
 62
     3
100
AcDbBlockReference
  2
EX_NORM
 10
1639.0
 20
1745.990507447
 30
0.0
 41
30.0
 42
30.0
 43
30.0
 50
270.0
  0
INSERT
  5
275
330
26C
100
AcDbEntity
  8
図
 62
     3
100
AcDbBlockReference
  2
EX_NORM
 10
1639.0
 20
1716.990507447
 30
0.0
 41
30.0
 42
30.0
 43
30.0
 50
90.0
  0
MTEXT
  5
276
330
26C
100
AcDbEntity
  8
図
 62
     2
100
AcDbMText
 10
1615.500000059605
 20
1810.990507446999
 30
0.0
 40
40.0
 41
0.0
 71
     5
 72
     1
  1
29
  7
EXCADDIM1
 11
0.0
 21
1.0
 31
0.0
  0
POINT
  5
277
330
26C
100
AcDbEntity
  8
DEFPOINTS
 62
     0
100
AcDbPoint
 10
1509.0
 20
1745.990507447
 30
0.0
  0
POINT
  5
278
330
26C
100
AcDbEntity
  8
DEFPOINTS
 62
     0
100
AcDbPoint
 10
1439.0
 20
1716.990507447
 30
0.0
  0
POINT
  5
279
330
26C
100
AcDbEntity
  8
DEFPOINTS
 62
     0
100
AcDbPoint
 10
1639.0
 20
1716.990507447
 30
0.0
  0
ENDBLK
  5
26E
330
26C
100
AcDbEntity
  8
0
100
AcDbBlockEnd
  0
BLOCK
  5
27C
330
27B
100
AcDbEntity
  8
0
100
AcDbBlockBegin
  2
*D27
 70
     1
 10
0.0
 20
0.0
 30
0.0
  3
*D27
  1

  0
LINE
  5
27E
330
27B
100
AcDbEntity
  8
図
  6
CONTINUOUS
 62
     3
100
AcDbLine
 10
1445.999999880791
 20
904.9905074470001
 30
0.0
 11
1648.999999999991
 21
904.9905074470001
 31
0.0
  0
LINE
  5
27F
330
27B
100
AcDbEntity
  8
図
  6
CONTINUOUS
 62
     3
100
AcDbLine
 10
1515.999999880791
 20
875.990507447
 30
0.0
 11
1648.999999999991
 21
875.990507447
 31
0.0
  0
LINE
  5
280
330
27B
100
AcDbEntity
  8
図
  6
CONTINUOUS
 62
     3
100
AcDbLine
 10
1638.999999999992
 20
904.9905074470001
 30
0.0
 11
1638.999999999992
 21
875.990507447
 31
0.0
  0
LINE
  5
281
330
27B
100
AcDbEntity
  8
図
  6
CONTINUOUS
 62
     3
100
AcDbLine
 10
1638.999999999992
 20
934.9905074470001
 30
0.0
 11
1638.999999999992
 21
964.9905074470001
 31
0.0
  0
LINE
  5
282
330
27B
100
AcDbEntity
  8
図
  6
CONTINUOUS
 62
     3
100
AcDbLine
 10
1638.999999999992
 20
845.990507447
 30
0.0
 11
1638.999999999992
 21
815.990507447
 31
0.0
  0
INSERT
  5
283
330
27B
100
AcDbEntity
  8
図
 62
     3
100
AcDbBlockReference
  2
EX_NORM
 10
1638.999999999992
 20
904.9905074470001
 30
0.0
 41
30.0
 42
30.0
 43
30.0
 50
270.0
  0
INSERT
  5
284
330
27B
100
AcDbEntity
  8
図
 62
     3
100
AcDbBlockReference
  2
EX_NORM
 10
1638.999999999992
 20
875.990507447
 30
0.0
 41
30.0
 42
30.0
 43
30.0
 50
90.0
  0
MTEXT
  5
285
330
27B
100
AcDbEntity
  8
図
 62
     2
100
AcDbMText
 10
1615.500000059597
 20
810.9905074469996
 30
0.0
 40
40.0
 41
0.0
 71
     5
 72
     1
  1
29
  7
EXCADDIM1
 11
0.0
 21
1.0
 31
0.0
  0
POINT
  5
286
330
27B
100
AcDbEntity
  8
DEFPOINTS
 62
     0
100
AcDbPoint
 10
1439.0
 20
904.9905074470001
 30
0.0
  0
POINT
  5
287
330
27B
100
AcDbEntity
  8
DEFPOINTS
 62
     0
100
AcDbPoint
 10
1509.0
 20
875.990507447
 30
0.0
  0
POINT
  5
288
330
27B
100
AcDbEntity
  8
DEFPOINTS
 62
     0
100
AcDbPoint
 10
1638.999999999992
 20
875.990507447
 30
0.0
  0
ENDBLK
  5
27D
330
27B
100
AcDbEntity
  8
0
100
AcDbBlockEnd
  0
BLOCK
  5
28B
330
28A
100
AcDbEntity
  8
0
100
AcDbBlockBegin
  2
*D28
 70
     1
 10
0.0
 20
0.0
 30
0.0
  3
*D28
  1

  0
LINE
  5
28D
330
28A
100
AcDbEntity
  8
図
  6
CONTINUOUS
 62
     3
100
AcDbLine
 10
559.8010513941293
 20
2058.0
 30
0.0
 11
513.0
 21
2058.0
 31
0.0
  0
LINE
  5
28E
330
28A
100
AcDbEntity
  8
図
  6
CONTINUOUS
 62
     3
100
AcDbLine
 10
559.8010513941293
 20
2040.0
 30
0.0
 11
513.0
 21
2040.0
 31
0.0
  0
LINE
  5
28F
330
28A
100
AcDbEntity
  8
図
  6
CONTINUOUS
 62
     3
100
AcDbLine
 10
523.0
 20
2058.0
 30
0.0
 11
523.0
 21
2040.0
 31
0.0
  0
LINE
  5
290
330
28A
100
AcDbEntity
  8
図
  6
CONTINUOUS
 62
     3
100
AcDbLine
 10
523.0
 20
2088.0
 30
0.0
 11
523.0
 21
2118.0
 31
0.0
  0
LINE
  5
291
330
28A
100
AcDbEntity
  8
図
  6
CONTINUOUS
 62
     3
100
AcDbLine
 10
523.0
 20
2010.0
 30
0.0
 11
523.0
 21
1980.0
 31
0.0
  0
INSERT
  5
292
330
28A
100
AcDbEntity
  8
図
 62
     3
100
AcDbBlockReference
  2
EX_NORM
 10
523.0
 20
2058.0
 30
0.0
 41
30.0
 42
30.0
 43
30.0
 50
270.0
  0
INSERT
  5
293
330
28A
100
AcDbEntity
  8
図
 62
     3
100
AcDbBlockReference
  2
EX_NORM
 10
523.0
 20
2040.0
 30
0.0
 41
30.0
 42
30.0
 43
30.0
 50
90.0
  0
MTEXT
  5
294
330
28A
100
AcDbEntity
  8
図
 62
     2
100
AcDbMText
 10
499.5000000596052
 20
1975.0
 30
0.0
 40
40.0
 41
0.0
 71
     5
 72
     1
  1
18
  7
EXCADDIM1
 11
0.0
 21
1.0
 31
0.0
  0
POINT
  5
295
330
28A
100
AcDbEntity
  8
DEFPOINTS
 62
     0
100
AcDbPoint
 10
566.80105127492
 20
2058.0
 30
0.0
  0
POINT
  5
296
330
28A
100
AcDbEntity
  8
DEFPOINTS
 62
     0
100
AcDbPoint
 10
566.80105127492
 20
2040.0
 30
0.0
  0
POINT
  5
297
330
28A
100
AcDbEntity
  8
DEFPOINTS
 62
     0
100
AcDbPoint
 10
523.0
 20
2040.0
 30
0.0
  0
ENDBLK
  5
28C
330
28A
100
AcDbEntity
  8
0
100
AcDbBlockEnd
  0
ENDSEC
  0
SECTION
  2
ENTITIES
  0
TEXT
  5
A9
330
1F
100
AcDbEntity
  8
0
  6
CONTINUOUS
 62
     2
100
AcDbText
 10
91.6000000000003
 20
11.65000000000003
 30
0.0
 40
3.375
  1
ジャニス工業株式会社
 41
1.025641025641026
  7
EXCADTTF1
 72
     5
 11
136.6000000000003
 21
11.65000000000003
 31
0.0
100
AcDbText
  0
HATCH
  5
AA
330
1F
100
AcDbEntity
  8
0
  6
CONTINUOUS
 62
     3
100
AcDbHatch
 10
0.0
 20
0.0
 30
0.0
210
0.0
220
0.0
230
1.0
  2
SOLID
 70
     1
 71
     1
 91
        2
 92
        3
 72
     1
 73
     1
 93
       27
 10
79.31727657332505
 20
15.13644932975409
 42
-0.1769427732109284
 10
79.31727657332505
 20
15.1364493297541
 42
0.0
 10
79.31727657332505
 20
14.77194932975408
 42
0.0
 10
79.4050265733251
 20
14.77194932975404
 42
-0.207533601427307
 10
79.97474227895702
 20
15.19932359129048
 42
-0.1226604740888933
 10
80.47827657332509
 20
15.21002432975408
 42
-0.3213715781137954
 10
80.99883280222092
 20
14.57106514378476
 42
-0.064704004662446
 10
81.00140157332494
 20
14.23329932975406
 42
-0.257798906330806
 10
80.89542657332505
 20
14.10504932975406
 42
-0.056602577721096
 10
80.66862657332503
 20
14.02607432975409
 42
-0.0166741689362636
 10
79.83702657332505
 20
13.86812432975407
 42
0.1186092302783404
 10
79.28825157332507
 20
13.60487432975407
 42
0.1699204224386695
 10
79.04930157332502
 20
13.20527432975406
 42
0.1006533494296199
 10
79.02720866795816
 20
12.85853555095727
 42
0.1675695228968024
 10
79.24370157332507
 20
12.39392432975407
 42
0.1376980079804242
 10
79.63722657332501
 20
12.16644932975409
 42
0.0719813663796923
 10
79.81610157332494
 20
12.13674932975408
 42
0.0
 10
80.09015157332504
 20
12.13674932975409
 42
0.1944607457809085
 10
80.99937657332505
 20
12.60452432975407
 42
0.1288538183665954
 10
81.09117657332496
 20
12.37502432975404
 42
0.2098387395261546
 10
81.39087657332499
 20
12.20964932975409
 42
0.0
 10
81.60822657332504
 20
12.20829932975409
 42
0.0945009641609563
 10
81.92210157332505
 20
12.27512432975408
 42
0.0
 10
81.92210157332504
 20
12.43239932975407
 42
-0.2395739894657535
 10
81.6480515733251
 20
12.42969932975405
 42
-0.2502312110031057
 10
81.51305157332499
 20
12.68349932975415
 42
-0.0104343570771765
 10
81.53127657332502
 20
14.57619932975406
 42
0.4051015674140716
 97
        0
 92
        3
 72
     1
 73
     1
 93
        8
 10
81.01355157332499
 20
13.90254932975406
 42
-0.0339435190873666
 10
81.01355157332546
 20
13.90254932975294
 42
-0.0001110072973599
 10
80.98520157332511
 20
12.86844932975405
 42
-0.2253076310552528
 10
80.276451573325
 20
12.3952743297541
 42
0.0
 10
80.10297657332494
 20
12.3952743297541
 42
-0.3657967558150132
 10
79.58727657332503
 20
12.94337432975408
 42
0.0
 10
79.58727657332511
 20
13.13912432975409
 42
-0.2530797830369341
 10
79.93557657332502
 20
13.62107432975406
 42
-0.0724473624720066
 97
        0
 75
     0
 76
     1
 98
        1
 10
0.0
 20
0.0
  0
HATCH
  5
AB
330
1F
100
AcDbEntity
  8
0
  6
CONTINUOUS
 62
     3
100
AcDbHatch
 10
0.0
 20
0.0
 30
0.0
210
0.0
220
0.0
230
1.0
  2
SOLID
 70
     1
 71
     1
 91
        1
 92
        3
 72
     1
 73
     1
 93
       30
 10
90.073401573325
 20
15.33354932975412
 42
-0.0009362235736497
 10
90.07340157332501
 20
15.33354932975407
 42
0.0681165430304653
 10
89.90970934867318
 20
14.84282432975408
 42
0.0
 10
89.29310157332509
 20
15.26469932975409
 42
-0.302112590907374
 10
89.29310157332503
 20
15.26469932975408
 42
0.0
 10
88.67142657332504
 20
14.78814932975408
 42
-0.3704245237568778
 10
88.67142657332494
 20
14.78814932975405
 42
0.0
 10
88.70382657332496
 20
14.46954932975407
 42
-0.0262822419456939
 10
89.08722657332507
 20
14.16309932975405
 42
-0.180060563604375
 10
89.69877657332508
 20
13.97679932975409
 42
-0.0298130817160724
 10
89.69877657332505
 20
13.97679932975406
 42
-0.3153987453686078
 10
90.26240157332501
 20
13.33217432975408
 42
0.0
 10
90.25902657332506
 20
13.04394932975405
 42
-0.3510306079065168
 10
89.17227657332495
 20
12.13269932975408
 42
0.0
 10
88.85502657332499
 20
12.13269932975405
 42
-0.1053356344842436
 10
88.153026573325
 20
12.33519932975408
 42
0.1188608286962634
 10
88.28127657332499
 20
12.8481993297541
 42
0.0
 10
89.05077657332508
 20
12.37569932975408
 42
-0.2447573632916039
 10
89.05077657332498
 20
12.37569932975407
 42
0.0
 10
89.79327657332507
 20
12.89544932975409
 42
-0.3734162676407277
 10
89.79327657332504
 20
12.89544932975406
 42
0.0
 10
89.52395157332504
 20
13.41452432975409
 42
-0.261219770190848
 10
88.895526573325
 20
13.64267432975409
 42
-0.0572747914118363
 10
88.8955265733251
 20
13.64267432975408
 42
-0.1189658875692221
 10
88.39602657332497
 20
13.93562432975409
 42
-0.2005226878639636
 10
88.18677657332495
 20
14.40744932975628
 42
0.0
 10
88.18340157332507
 20
14.58632432975405
 42
-0.2622894489606957
 10
88.72002657332504
 20
15.40644932975409
 42
-0.0988461274137808
 10
89.22222657332503
 20
15.52727432975405
 42
0.0
 10
89.40852657332496
 20
15.52727432975409
 42
-0.0920156312561188
 97
        0
 75
     0
 76
     1
 98
        1
 10
0.0
 20
0.0
  0
ARC
  5
AC
330
1F
100
AcDbEntity
  8
0
  6
CONTINUOUS
 62
     3
100
AcDbCircle
 10
91.7842481068871
 20
14.49019437507496
 30
0.0
 40
1.907418003737831
100
AcDbArc
 50
153.7591918158497
 51
169.3462759801917
  0
LINE
  5
AD
330
1F
100
AcDbEntity
  8
0
  6
CONTINUOUS
 62
     3
100
AcDbLine
 10
89.82432657332498
 20
14.84282432975408
 30
0.0
 11
89.90970934867318
 21
14.84282432975408
 31
0.0
  0
LINE
  5
AE
330
1F
100
AcDbEntity
  8
0
  6
CONTINUOUS
 62
     3
100
AcDbLine
 10
89.18375157332497
 20
15.26199932975408
 30
0.0
 11
89.29310157332503
 21
15.26469932975408
 31
0.0
  0
LINE
  5
AF
330
1F
100
AcDbEntity
  8
0
  6
CONTINUOUS
 62
     3
100
AcDbLine
 10
88.18340157332506
 20
14.58632432975406
 30
0.0
 11
88.18677657332495
 21
14.40744932975628
 31
0.0
  0
LINE
  5
B0
330
1F
100
AcDbEntity
  8
0
  6
CONTINUOUS
 62
     3
100
AcDbLine
 10
88.67142657332494
 20
14.78814932975405
 30
0.0
 11
88.66197657332503
 21
14.61129932975405
 31
0.0
  0
LINE
  5
B1
330
1F
100
AcDbEntity
  8
0
  6
CONTINUOUS
 62
     3
100
AcDbLine
 10
90.26240157332501
 20
13.33217432975408
 30
0.0
 11
90.259026573325
 21
13.04394932975407
 31
0.0
  0
LINE
  5
B2
330
1F
100
AcDbEntity
  8
0
  6
CONTINUOUS
 62
     3
100
AcDbLine
 10
89.78652657332503
 20
13.05069932975408
 30
0.0
 11
89.79327657332504
 21
12.89544932975406
 31
0.0
  0
ARC
  5
B3
330
1F
100
AcDbEntity
  8
0
  6
CONTINUOUS
 62
     3
100
AcDbCircle
 10
87.15344131320938
 20
12.85779759565003
 30
0.0
 40
1.127953740078838
100
AcDbArc
 50
332.3987521421788
 51
359.5124385477116
  0
LINE
  5
B4
330
1F
100
AcDbEntity
  8
0
  6
CONTINUOUS
 62
     3
100
AcDbLine
 10
79.31727657332505
 20
14.77194932975408
 30
0.0
 11
79.40502657332507
 21
14.77194932975408
 31
0.0
  0
HATCH
  5
B5
330
1F
100
AcDbEntity
  8
0
  6
CONTINUOUS
 62
     3
100
AcDbHatch
 10
0.0
 20
0.0
 30
0.0
210
0.0
220
0.0
230
1.0
  2
SOLID
 70
     1
 71
     1
 91
        2
 92
        1
 93
        1
 72
     2
 10
86.92855140383352
 20
16.6583546687371
 40
0.3572334466769884
 50
0.0
 51
360.0
 73
     1
 97
        0
 92
        3
 72
     1
 73
     1
 93
        3
 10
86.60930157332503
 20
15.46989932975407
 42
0.1200283885712921
 10
87.23030157332504
 20
12.20627432975403
 42
-0.0401820615762149
 10
86.60997657332503
 20
12.20424932975407
 42
-0.0237521668114666
 97
        0
 75
     0
 76
     1
 98
        1
 10
0.0
 20
0.0
  0
HATCH
  5
B6
330
1F
100
AcDbEntity
  8
0
  6
CONTINUOUS
 62
     3
100
AcDbHatch
 10
0.0
 20
0.0
 30
0.0
210
0.0
220
0.0
230
1.0
  2
SOLID
 70
     1
 71
     1
 91
        1
 92
        3
 72
     1
 73
     1
 93
       16
 10
82.686876573325
 20
12.21032432975406
 42
-0.0386228372648426
 10
82.68080157332498
 20
15.46449932975407
 42
-0.0398707891902887
 10
83.27142657332496
 20
15.46719932975408
 42
-0.1256886216044368
 10
83.24442657332501
 20
14.91504932975407
 42
-0.0367815758121429
 10
83.24442657332501
 20
14.91504932975405
 42
-0.268021535028829
 10
84.435801573325
 20
15.53334932975407
 42
-0.2571134422124888
 10
85.250526573325
 20
15.1303743297541
 42
-0.1522526366014298
 10
85.45775157332506
 20
14.46009932975407
 42
-0.0158825412051521
 10
85.44290157332497
 20
12.20694932975407
 42
-0.0285251271418421
 10
84.87252657332505
 20
12.20694932975406
 42
-0.0452212723224612
 10
84.90155157332507
 20
14.28864932975409
 42
-0.0315567291532142
 10
84.72470157332498
 20
14.90357432975409
 42
-0.1476272403790709
 10
83.57315157332499
 20
14.99199932975406
 42
-0.3908144705745794
 10
83.24847657332504
 20
14.18402432975405
 42
-0.2046259928850854
 10
83.24847657332504
 20
14.1840243297541
 42
0.0
 10
83.29910157332502
 20
12.20492432975408
 42
-0.0304995761723369
 97
        0
 75
     0
 76
     1
 98
        1
 10
0.0
 20
0.0
  0
HATCH
  5
B7
330
1F
100
AcDbEntity
  8
0
  6
CONTINUOUS
 62
     3
100
AcDbHatch
 10
0.0
 20
0.0
 30
0.0
210
0.0
220
0.0
230
1.0
  2
SOLID
 70
     1
 71
     1
 91
        1
 92
        3
 72
     1
 73
     1
 93
       10
 10
76.77252657332507
 20
12.32169932975406
 42
-0.017362223501556
 10
76.781301573325
 20
17.61842432975411
 42
-0.0267627618865285
 10
76.78130157332504
 20
17.61842432975408
 42
0.0737939047395297
 10
78.07325157332507
 20
17.623824329754
 42
0.0183878899657109
 10
78.02127657332504
 20
12.84819932975405
 42
-0.1144749489451909
 10
77.81202657332496
 20
11.84244932975405
 42
-0.1929163439413163
 10
76.81640157332507
 20
11.06079932975405
 42
-0.0603888289562337
 10
76.28855157332504
 20
10.92917432975406
 42
0.0
 10
76.16502657332501
 20
11.30514932975406
 42
0.0860918333465722
 10
76.53425157332501
 20
11.50157432975406
 42
0.1331843103855141
 97
        0
 75
     0
 76
     1
 98
        1
 10
0.0
 20
0.0
  0
LINE
  5
B8
330
1F
100
AcDbEntity
  8
0
  6
CONTINUOUS
 62
     3
100
AcDbLine
 10
88.855026573325
 20
12.13269932975408
 30
0.0
 11
89.17227657332495
 21
12.13269932975408
 31
0.0
  0
LINE
  5
B9
330
1F
100
AcDbEntity
  8
0
  6
CONTINUOUS
 62
     3
100
AcDbLine
 10
88.36902657332502
 20
12.8481993297541
 30
0.0
 11
88.28127657332499
 21
12.8481993297541
 31
0.0
  0
LINE
  5
BA
330
1F
100
AcDbEntity
  8
0
  6
CONTINUOUS
 62
     3
100
AcDbLine
 10
89.05077657332498
 20
12.37569932975407
 30
0.0
 11
89.21277657332502
 21
12.37569932975407
 31
0.0
  0
LINE
  5
BB
330
1F
100
AcDbEntity
  8
0
  6
CONTINUOUS
 62
     3
100
AcDbLine
 10
89.40852657332499
 20
15.52727432975405
 30
0.0
 11
89.22222657332503
 21
15.52727432975405
 31
0.0
  0
ARC
  5
BC
330
1F
100
AcDbEntity
  8
0
  6
CONTINUOUS
 62
     3
100
AcDbCircle
 10
89.24147339127506
 20
14.65429236291669
 30
0.0
 40
0.612586430102253
100
AcDbArc
 50
17.92452211681263
 51
85.16543319077402
  0
ARC
  5
BD
330
1F
100
AcDbEntity
  8
0
  6
CONTINUOUS
 62
     3
100
AcDbCircle
 10
89.20350964860535
 20
14.72674994707921
 30
0.0
 40
0.535613931103931
100
AcDbArc
 50
92.11404364449162
 51
173.4175047026091
  0
ARC
  5
BE
330
1F
100
AcDbEntity
  8
0
  6
CONTINUOUS
 62
     3
100
AcDbCircle
 10
90.03031407332622
 20
14.93823182975444
 30
0.0
 40
1.4068519372934
100
AcDbArc
 50
193.4375782160214
 51
199.459638038058
  0
ARC
  5
BF
330
1F
100
AcDbEntity
  8
0
  6
CONTINUOUS
 62
     3
100
AcDbCircle
 10
89.30721352387451
 20
14.83138641766612
 30
0.0
 40
0.703563707337184
100
AcDbArc
 50
210.9501336849607
 51
251.7794729821079
  0
ARC
  5
C0
330
1F
100
AcDbEntity
  8
0
  6
CONTINUOUS
 62
     3
100
AcDbCircle
 10
90.9538466969206
 20
19.19359310503512
 30
0.0
 40
5.36564425851668
100
AcDbArc
 50
249.6420733479936
 51
256.4727051201885
  0
ARC
  5
C1
330
1F
100
AcDbEntity
  8
0
  6
CONTINUOUS
 62
     3
100
AcDbCircle
 10
89.52045721291955
 20
13.25217258531575
 30
0.0
 40
0.746245075729606
100
AcDbArc
 50
6.154262763177246
 51
76.17509904255616
  0
ARC
  5
C2
330
1F
100
AcDbEntity
  8
0
  6
CONTINUOUS
 62
     3
100
AcDbCircle
 10
89.1466388646756
 20
13.26692467118045
 30
0.0
 40
1.134515058180645
100
AcDbArc
 50
271.2948770866743
 51
348.6654156292868
  0
ARC
  5
C3
330
1F
100
AcDbEntity
  8
0
  6
CONTINUOUS
 62
     3
100
AcDbCircle
 10
88.97930054592774
 20
13.88156576811025
 30
0.0
 40
1.75327631578002
100
AcDbArc
 50
241.8829576087176
 51
265.9354096935781
  0
ARC
  5
C4
330
1F
100
AcDbEntity
  8
0
  6
CONTINUOUS
 62
     3
100
AcDbCircle
 10
89.16361043234866
 20
13.26658639777384
 30
0.0
 40
0.898004035462527
100
AcDbArc
 50
207.7689879465537
 51
262.7817283832026
  0
ARC
  5
C5
330
1F
100
AcDbEntity
  8
0
  6
CONTINUOUS
 62
     3
100
AcDbCircle
 10
89.20357777446515
 20
12.97002363757167
 30
0.0
 40
0.594395491876676
100
AcDbArc
 50
270.8867385422408
 51
352.7925382056677
  0
ARC
  5
C6
330
1F
100
AcDbEntity
  8
0
  6
CONTINUOUS
 62
     3
100
AcDbCircle
 10
89.33080045853666
 20
12.99846225433168
 30
0.0
 40
0.458710152219014
100
AcDbArc
 50
6.53892419415897
 51
65.09756080693691
  0
ARC
  5
C7
330
1F
100
AcDbEntity
  8
0
  6
CONTINUOUS
 62
     3
100
AcDbCircle
 10
88.2171489183043
 20
10.79457141755211
 30
0.0
 40
2.927778413972754
100
AcDbArc
 50
63.49050203733571
 51
76.60259219849584
  0
ARC
  5
C8
330
1F
100
AcDbEntity
  8
0
  6
CONTINUOUS
 62
     3
100
AcDbCircle
 10
89.25268145799504
 20
14.82396411006687
 30
0.0
 40
1.234100950779567
100
AcDbArc
 50
226.0402388947521
 51
253.1776672992999
  0
ARC
  5
C9
330
1F
100
AcDbEntity
  8
0
  6
CONTINUOUS
 62
     3
100
AcDbCircle
 10
88.85599257925998
 20
14.4219276907553
 30
0.0
 40
0.669372605905611
100
AcDbArc
 50
181.2393899443581
 51
226.5942921332421
  0
ARC
  5
CA
330
1F
100
AcDbEntity
  8
0
  6
CONTINUOUS
 62
     3
100
AcDbCircle
 10
89.17963496799615
 20
14.52009291101865
 30
0.0
 40
0.99843256030919
100
AcDbArc
 50
117.4083995939977
 51
176.1964688215695
  0
ARC
  5
CB
330
1F
100
AcDbEntity
  8
0
  6
CONTINUOUS
 62
     3
100
AcDbCircle
 10
89.27711044283905
 20
14.20979097937612
 30
0.0
 40
1.319974865367525
100
AcDbArc
 50
92.38301574576484
 51
114.9635286746436
  0
ARC
  5
CC
330
1F
100
AcDbEntity
  8
0
  6
CONTINUOUS
 62
     3
100
AcDbCircle
 10
89.38542828460567
 20
14.51663038363955
 30
0.0
 40
1.010907867592157
100
AcDbArc
 50
67.66151957087348
 51
88.69073168448988
  0
ARC
  5
CD
330
1F
100
AcDbEntity
  8
0
  6
CONTINUOUS
 62
     3
100
AcDbCircle
 10
121.4644453232815
 20
96.50297432964203
 30
0.0
 40
87.02800228963156
100
AcDbArc
 50
248.6422112053103
 51
248.8567777804232
  0
ARC
  5
CE
330
1F
100
AcDbEntity
  8
0
  6
CONTINUOUS
 62
     3
100
AcDbCircle
 10
64.46900575363867
 20
13.83249792766236
 30
0.0
 40
22.20076085035812
100
AcDbArc
 50
355.7940354718673
 51
4.229650257234378
  0
ARC
  5
CF
330
1F
100
AcDbEntity
  8
0
  6
CONTINUOUS
 62
     3
100
AcDbCircle
 10
107.5254047179557
 20
13.81881005739388
 30
0.0
 40
20.35906390589
100
AcDbArc
 50
175.3387608397566
 51
184.5428594926176
  0
ARC
  5
D0
330
1F
100
AcDbEntity
  8
0
  6
CONTINUOUS
 62
     3
100
AcDbCircle
 10
86.94144089371338
 20
5.679804184123327
 30
0.0
 40
6.532859485251088
100
AcDbArc
 50
87.46575055044718
 51
92.90832285102188
  0
ARC
  5
D1
330
1F
100
AcDbEntity
  8
0
  6
CONTINUOUS
 62
     3
100
AcDbCircle
 10
86.91456076027731
 20
16.75332474358078
 30
0.0
 40
1.319228548840207
100
AcDbArc
 50
256.6209501743446
 51
283.9984576255729
  0
CIRCLE
  5
D2
330
1F
100
AcDbEntity
  8
0
  6
CONTINUOUS
 62
     3
100
AcDbCircle
 10
86.92855140383352
 20
16.6583546687371
 30
0.0
 40
0.357233446676989
  0
LINE
  5
D3
330
1F
100
AcDbEntity
  8
0
  6
CONTINUOUS
 62
     3
100
AcDbLine
 10
83.24847657332504
 20
14.1840243297541
 30
0.0
 11
83.24847657332504
 21
13.10469932975406
 31
0.0
  0
ARC
  5
D4
330
1F
100
AcDbEntity
  8
0
  6
CONTINUOUS
 62
     3
100
AcDbCircle
 10
62.31176988671592
 20
13.79938058671746
 30
0.0
 40
20.43697806131072
100
AcDbArc
 50
355.5405243117485
 51
4.673398698656258
  0
ARC
  5
D5
330
1F
100
AcDbEntity
  8
0
  6
CONTINUOUS
 62
     3
100
AcDbCircle
 10
82.97082849861232
 20
16.62206879814488
 30
0.0
 40
1.193349358546016
100
AcDbArc
 50
255.9341994177206
 51
284.5896440601899
  0
ARC
  5
D6
330
1F
100
AcDbEntity
  8
0
  6
CONTINUOUS
 62
     3
100
AcDbCircle
 10
87.00574727396162
 20
15.00785681383053
 30
0.0
 40
3.762465500458181
100
AcDbArc
 50
172.9875214416311
 51
181.4134392789641
  0
ARC
  5
D7
330
1F
100
AcDbEntity
  8
0
  6
CONTINUOUS
 62
     3
100
AcDbCircle
 10
84.37541069002549
 20
14.192759888186
 30
0.0
 40
1.34194899665726
100
AcDbArc
 50
87.42068310381028
 51
147.4361518966862
  0
ARC
  5
D8
330
1F
100
AcDbEntity
  8
0
  6
CONTINUOUS
 62
     3
100
AcDbCircle
 10
84.47724057413762
 20
14.59204664797994
 30
0.0
 40
0.94221437555554
100
AcDbArc
 50
34.84393737091607
 51
92.5207065423111
  0
ARC
  5
D9
330
1F
100
AcDbEntity
  8
0
  6
CONTINUOUS
 62
     3
100
AcDbCircle
 10
84.27905515344827
 20
14.46285942451527
 30
0.0
 40
1.17869965146059
100
AcDbArc
 50
359.8658335690532
 51
34.49363429411157
  0
ARC
  5
DA
330
1F
100
AcDbEntity
  8
0
  6
CONTINUOUS
 62
     3
100
AcDbCircle
 10
79.31913601210061
 20
14.23315774812141
 30
0.0
 40
6.142809087866958
100
AcDbArc
 50
358.4775281223095
 51
2.117232414210064
  0
ARC
  5
DB
330
1F
100
AcDbEntity
  8
0
  6
CONTINUOUS
 62
     3
100
AcDbCircle
 10
101.7657633661698
 20
12.99067374739133
 30
0.0
 40
16.34166579853822
100
AcDbArc
 50
176.2131780319488
 51
182.7488833337936
  0
ARC
  5
DC
330
1F
100
AcDbEntity
  8
0
  6
CONTINUOUS
 62
     3
100
AcDbCircle
 10
85.15771407332505
 20
9.060152619227779
 30
0.0
 40
3.159693252126744
100
AcDbArc
 50
84.82155189294139
 51
95.17844810705873
  0
ARC
  5
DD
330
1F
100
AcDbEntity
  8
0
  6
CONTINUOUS
 62
     3
100
AcDbCircle
 10
68.41173378649745
 20
13.47751337882465
 30
0.0
 40
16.50975566668588
100
AcDbArc
 50
355.5862454873798
 51
2.816115806820253
  0
ARC
  5
DE
330
1F
100
AcDbEntity
  8
0
  6
CONTINUOUS
 62
     3
100
AcDbCircle
 10
83.79447404568526
 20
14.30315138821555
 30
0.0
 40
1.107172507744154
100
AcDbArc
 50
359.2495022237244
 51
32.84055016678327
  0
ARC
  5
DF
330
1F
100
AcDbEntity
  8
0
  6
CONTINUOUS
 62
     3
100
AcDbCircle
 10
84.1010014520553
 20
14.32366273138689
 30
0.0
 40
0.851645057047003
100
AcDbArc
 50
42.91644474042847
 51
128.3015542351336
  0
ARC
  5
E0
330
1F
100
AcDbEntity
  8
0
  6
CONTINUOUS
 62
     3
100
AcDbCircle
 10
84.35661722366405
 20
14.20795225138056
 30
0.0
 40
1.108398956318131
100
AcDbArc
 50
134.9787476233347
 51
181.2369872983282
  0
ARC
  5
E1
330
1F
100
AcDbEntity
  8
0
  6
CONTINUOUS
 62
     3
100
AcDbCircle
 10
90.64088578951038
 20
13.09150147009814
 30
0.0
 40
7.395120993114926
100
AcDbArc
 50
179.8977458165987
 51
186.8855675734268
  0
ARC
  5
E2
330
1F
100
AcDbEntity
  8
0
  6
CONTINUOUS
 62
     3
100
AcDbCircle
 10
82.95808780069314
 20
8.25069254511709
 30
0.0
 40
3.968909094418497
100
AcDbArc
 50
85.07099551674689
 51
93.91830029343228
  0
ARC
  5
E3
330
1F
100
AcDbEntity
  8
0
  6
CONTINUOUS
 62
     3
100
AcDbCircle
 10
-2247.901542217735
 20
77.23265245587831
 30
0.0
 40
2329.776001260591
100
AcDbArc
 50
358.4169008257799
 51
358.4423418242109
  0
ARC
  5
E4
330
1F
100
AcDbEntity
  8
0
  6
CONTINUOUS
 62
     3
100
AcDbCircle
 10
80.13244690765924
 20
13.37836489530207
 30
0.0
 40
0.993581603997916
100
AcDbArc
 50
278.3335103000368
 51
329.1221464187299
  0
LINE
  5
E5
330
1F
100
AcDbEntity
  8
0
  6
CONTINUOUS
 62
     3
100
AcDbLine
 10
80.10297657332495
 20
12.3952743297541
 30
0.0
 11
80.276451573325
 21
12.3952743297541
 31
0.0
  0
ARC
  5
E6
330
1F
100
AcDbEntity
  8
0
  6
CONTINUOUS
 62
     3
100
AcDbCircle
 10
80.16959653488738
 20
12.97461380097786
 30
0.0
 40
0.583157304846997
100
AcDbArc
 50
183.0707787095794
 51
263.4402016072427
  0
LINE
  5
E7
330
1F
100
AcDbEntity
  8
0
  6
CONTINUOUS
 62
     3
100
AcDbLine
 10
79.58727657332503
 20
13.13912432975405
 30
0.0
 11
79.58727657332503
 21
12.94337432975408
 31
0.0
  0
ARC
  5
E8
330
1F
100
AcDbEntity
  8
0
  6
CONTINUOUS
 62
     3
100
AcDbCircle
 10
80.20701866837845
 20
13.05807479047184
 30
0.0
 40
0.625019433457053
100
AcDbArc
 50
115.7403688633493
 51
172.5491744442191
  0
ARC
  5
E9
330
1F
100
AcDbEntity
  8
0
  6
CONTINUOUS
 62
     3
100
AcDbCircle
 10
80.75660651757704
 20
11.88318862667978
 30
0.0
 40
1.922065786155208
100
AcDbArc
 50
98.71271710191789
 51
115.2874718053599
  0
ARC
  5
EA
330
1F
100
AcDbEntity
  8
0
  6
CONTINUOUS
 62
     3
100
AcDbCircle
 10
79.86056099353726
 20
17.87501381160507
 30
0.0
 40
4.136406814694017
100
AcDbArc
 50
278.4088456599976
 51
286.1851416003176
  0
ARC
  5
EB
330
1F
100
AcDbEntity
  8
0
  6
CONTINUOUS
 62
     3
100
AcDbCircle
 10
77.40908200122277
 20
21.97417570522225
 30
0.0
 40
4.400758833490466
100
AcDbArc
 50
261.7986203004403
 51
278.6803384946418
  0
ARC
  5
EC
330
1F
100
AcDbEntity
  8
0
  6
CONTINUOUS
 62
     3
100
AcDbCircle
 10
142.9542531413435
 20
14.52960360950846
 30
0.0
 40
64.95474244683605
100
AcDbArc
 50
177.2695926307304
 51
181.4833117237826
  0
ARC
  5
ED
330
1F
100
AcDbEntity
  8
0
  6
CONTINUOUS
 62
     3
100
AcDbCircle
 10
75.74899361790614
 20
12.79631356880094
 30
0.0
 40
2.272875263114311
100
AcDbArc
 50
335.1860595856123
 51
1.308075913059364
  0
ARC
  5
EE
330
1F
100
AcDbEntity
  8
0
  6
CONTINUOUS
 62
     3
100
AcDbCircle
 10
76.33897327885478
 20
12.6938351862683
 30
0.0
 40
1.701394688196115
100
AcDbArc
 50
286.2966123578915
 51
329.973223283839
  0
ARC
  5
EF
330
1F
100
AcDbEntity
  8
0
  6
CONTINUOUS
 62
     3
100
AcDbCircle
 10
76.00955749866654
 20
13.17223152915386
 30
0.0
 40
2.260341410821362
100
AcDbArc
 50
277.0901027239701
 51
290.9134154817058
  0
ARC
  5
F0
330
1F
100
AcDbEntity
  8
0
  6
CONTINUOUS
 62
     3
100
AcDbCircle
 10
75.78347289685445
 20
12.4675985944599
 30
0.0
 40
1.223467000390025
100
AcDbArc
 50
288.1715191042997
 51
307.8537826235693
  0
ARC
  5
F1
330
1F
100
AcDbEntity
  8
0
  6
CONTINUOUS
 62
     3
100
AcDbCircle
 10
76.00927386496022
 20
12.03407518472915
 30
0.0
 40
0.747769185530633
100
AcDbArc
 50
314.592391474832
 51
344.9374073189123
  0
ARC
  5
F2
330
1F
100
AcDbEntity
  8
0
  6
CONTINUOUS
 62
     3
100
AcDbCircle
 10
27.33385521229312
 20
15.05197335838841
 30
0.0
 40
49.51400430399008
100
AcDbArc
 50
356.8390243485978
 51
2.971133813187157
  0
ARC
  5
F3
330
1F
100
AcDbEntity
  8
0
  6
CONTINUOUS
 62
     3
100
AcDbCircle
 10
69.81439565227078
 20
12.67342761922788
 30
0.0
 40
6.967015049800598
100
AcDbArc
 50
353.1274757312911
 51
357.106204490141
  0
LINE
  5
F4
330
1F
100
AcDbEntity
  8
0
  6
CONTINUOUS
 62
     3
100
AcDbLine
 10
79.31727657332505
 20
15.1364493297541
 30
0.0
 11
79.31727657332505
 21
14.77194932975408
 31
0.0
  0
ARC
  5
F5
330
1F
100
AcDbEntity
  8
0
  6
CONTINUOUS
 62
     3
100
AcDbCircle
 10
80.18253617702993
 20
14.32890191857882
 30
0.0
 40
0.894881105176719
100
AcDbArc
 50
103.4267945469744
 51
150.3242613737993
  0
ARC
  5
F6
330
1F
100
AcDbEntity
  8
0
  6
CONTINUOUS
 62
     3
100
AcDbCircle
 10
80.24799095798306
 20
14.19383830513021
 30
0.0
 40
1.04195273466423
100
AcDbArc
 50
77.23143261361693
 51
105.203415964315
  0
ARC
  5
F7
330
1F
100
AcDbEntity
  8
0
  6
CONTINUOUS
 62
     3
100
AcDbCircle
 10
80.29283412817693
 20
14.52741886153422
 30
0.0
 40
0.707346538626002
100
AcDbArc
 50
3.537639967999379
 51
74.8013566619203
  0
ARC
  5
F8
330
1F
100
AcDbEntity
  8
0
  6
CONTINUOUS
 62
     3
100
AcDbCircle
 10
79.7005387356657
 20
14.39229870375124
 30
0.0
 40
1.310543751018921
100
AcDbArc
 50
353.0315250986587
 51
7.839947970678348
  0
ARC
  5
F9
330
1F
100
AcDbEntity
  8
0
  6
CONTINUOUS
 62
     3
100
AcDbCircle
 10
80.83230955673338
 20
14.26511332504288
 30
0.0
 40
0.172058828228131
100
AcDbArc
 50
291.5204897073511
 51
349.3445900274031
  0
ARC
  5
FA
330
1F
100
AcDbEntity
  8
0
  6
CONTINUOUS
 62
     3
100
AcDbCircle
 10
80.43433050110895
 20
15.06407362688748
 30
0.0
 40
1.064113335272784
100
AcDbArc
 50
282.7195832898965
 51
295.6781112778079
  0
ARC
  5
FB
330
1F
100
AcDbEntity
  8
0
  6
CONTINUOUS
 62
     3
100
AcDbCircle
 10
77.88530099985786
 20
26.41202029775212
 30
0.0
 40
12.69482409370382
100
AcDbArc
 50
278.8438342053764
 51
282.6649181367123
  0
ARC
  5
FC
330
1F
100
AcDbEntity
  8
0
  6
CONTINUOUS
 62
     3
100
AcDbCircle
 10
80.10970138675788
 20
12.59608481482871
 30
0.0
 40
1.30093661698492
100
AcDbArc
 50
102.0988446293839
 51
129.1556705448828
  0
ARC
  5
FD
330
1F
100
AcDbEntity
  8
0
  6
CONTINUOUS
 62
     3
100
AcDbCircle
 10
79.73972379030153
 20
13.06366332500801
 30
0.0
 40
0.704795370557922
100
AcDbArc
 50
129.8344892359069
 51
168.4089447024628
  0
ARC
  5
FE
330
1F
100
AcDbEntity
  8
0
  6
CONTINUOUS
 62
     3
100
AcDbCircle
 10
79.89075018569991
 20
12.97758712547744
 30
0.0
 40
0.871709372588669
100
AcDbArc
 50
164.8589457925044
 51
187.8495628504518
  0
ARC
  5
FF
330
1F
100
AcDbEntity
  8
0
  6
CONTINUOUS
 62
     3
100
AcDbCircle
 10
79.80915332915498
 20
12.94015021572864
 30
0.0
 40
0.78619234712629
100
AcDbArc
 50
185.9586126338419
 51
224.0091989319859
  0
ARC
  5
100
330
1F
100
AcDbEntity
  8
0
  6
CONTINUOUS
 62
     3
100
AcDbCircle
 10
79.84562953036885
 20
12.98111104772596
 30
0.0
 40
0.840895657756366
100
AcDbArc
 50
224.289750990011
 51
255.6505938786759
  0
ARC
  5
101
330
1F
100
AcDbEntity
  8
0
  6
CONTINUOUS
 62
     3
100
AcDbCircle
 10
79.82928130736758
 20
12.76963494387411
 30
0.0
 40
0.633022832091786
100
AcDbArc
 50
252.3384873625213
 51
268.8069976857606
  0
LINE
  5
102
330
1F
100
AcDbEntity
  8
0
  6
CONTINUOUS
 62
     3
100
AcDbLine
 10
79.81610157332494
 20
12.13674932975408
 30
0.0
 11
80.09015157332504
 21
12.13674932975408
 31
0.0
  0
ARC
  5
103
330
1F
100
AcDbEntity
  8
0
  6
CONTINUOUS
 62
     3
100
AcDbCircle
 10
79.96613045867008
 20
13.49534026256828
 30
0.0
 40
1.364239920103932
100
AcDbArc
 50
275.2158792069686
 51
319.2336424873511
  0
ARC
  5
104
330
1F
100
AcDbEntity
  8
0
  6
CONTINUOUS
 62
     3
100
AcDbCircle
 10
81.48315560558314
 20
12.66492594265731
 30
0.0
 40
0.487535134009722
100
AcDbArc
 50
187.1167640402297
 51
216.4860549324747
  0
ARC
  5
105
330
1F
100
AcDbEntity
  8
0
  6
CONTINUOUS
 62
     3
100
AcDbCircle
 10
81.4293773508146
 20
12.6336745652863
 30
0.0
 40
0.425769550620398
100
AcDbArc
 50
217.4081478714985
 51
264.8118660441384
  0
ARC
  5
106
330
1F
100
AcDbEntity
  8
0
  6
CONTINUOUS
 62
     3
100
AcDbCircle
 10
81.58995891945591
 20
13.06464512823032
 30
0.0
 40
0.856540620020894
100
AcDbArc
 50
271.2220539293239
 51
292.8159509797653
  0
LINE
  5
107
330
1F
100
AcDbEntity
  8
0
  6
CONTINUOUS
 62
     3
100
AcDbLine
 10
81.39087657332499
 20
12.20964932975409
 30
0.0
 11
81.608226573325
 21
12.20964932975409
 31
0.0
  0
LINE
  5
108
330
1F
100
AcDbEntity
  8
0
  6
CONTINUOUS
 62
     3
100
AcDbLine
 10
81.92210157332505
 20
12.27512432975408
 30
0.0
 11
81.92210157332505
 21
12.43239932975405
 31
0.0
  0
ARC
  5
109
330
1F
100
AcDbEntity
  8
0
  6
CONTINUOUS
 62
     3
100
AcDbCircle
 10
81.78242078457964
 20
12.7006118874109
 30
0.0
 40
0.30240485913648
100
AcDbArc
 50
243.6191685566582
 51
297.5097757939563
  0
ARC
  5
10A
330
1F
100
AcDbEntity
  8
0
  6
CONTINUOUS
 62
     3
100
AcDbCircle
 10
81.81823989446042
 20
12.68302928780474
 30
0.0
 40
0.305188683107389
100
AcDbArc
 50
179.9117548191414
 51
236.1065985968857
  0
ARC
  5
10B
330
1F
100
AcDbEntity
  8
0
  6
CONTINUOUS
 62
     3
100
AcDbCircle
 10
126.865013583871
 20
13.19323843931733
 30
0.0
 40
45.35482655865662
100
AcDbArc
 50
178.2526643324597
 51
180.6439560401927
  0
ARC
  5
10C
330
1F
100
AcDbEntity
  8
0
  6
CONTINUOUS
 62
     3
100
AcDbCircle
 10
80.50706272602787
 20
14.50191625973315
 30
0.0
 40
1.02690407511459
100
AcDbArc
 50
4.148222840814693
 51
92.36000944257292
  0
ARC
  5
10D
330
1F
100
AcDbEntity
  8
0
  6
CONTINUOUS
 62
     3
100
AcDbCircle
 10
80.42685324125529
 20
13.76167288926888
 30
0.0
 40
1.766683515327064
100
AcDbArc
 50
88.77000393305703
 51
128.9068631829044
  0
LINE
  5
10E
330
1F
100
AcDbEntity
  8
0
  6
CONTINUOUS
 62
     6
100
AcDbLine
 10
76.28855157332504
 20
10.92917432975406
 30
0.0
 11
76.16502657332506
 21
11.30514932975404
 31
0.0
  0
TEXT
  5
10F
330
1F
100
AcDbEntity
  8
図枠
  6
CONTINUOUS
 62
     2
100
AcDbText
 10
19.65000000000003
 20
26.475
 30
0.0
 40
4.25
  1
製図
 41
1.509694117647059
  7
EXCADSTD
 72
     5
 11
29.73260000000003
 21
26.475
 31
0.0
100
AcDbText
  0
TEXT
  5
110
330
1F
100
AcDbEntity
  8
図枠
  6
CONTINUOUS
 62
     2
100
AcDbText
 10
35.15000000000003
 20
26.475
 30
0.0
 40
4.25
  1
写図
 41
1.509694117647059
  7
EXCADSTD
 72
     5
 11
45.23260000000003
 21
26.475
 31
0.0
100
AcDbText
  0
TEXT
  5
111
330
1F
100
AcDbEntity
  8
図枠
  6
CONTINUOUS
 62
     2
100
AcDbText
 10
50.15000000000003
 20
26.475
 30
0.0
 40
4.25
  1
検図
 41
1.303826737967914
  7
EXCADSTD
 72
     5
 11
58.85770000000002
 21
26.475
 31
0.0
100
AcDbText
  0
LINE
  5
112
330
1F
100
AcDbEntity
  8
図枠
  6
EXLTYPE2
 62
     6
100
AcDbLine
 10
-0.6000000000000227
 20
149.1
 30
0.0
 11
17.40000000000003
 21
149.1
 31
0.0
  0
LINE
  5
113
330
1F
100
AcDbEntity
  8
図枠
  6
CONTINUOUS
 62
     7
100
AcDbLine
 10
17.40000000000003
 20
9.100000000000001
 30
0.0
 11
17.40000000000003
 21
289.1
 31
0.0
  0
LINE
  5
114
330
1F
100
AcDbEntity
  8
図枠
  6
CONTINUOUS
 62
     7
100
AcDbLine
 10
17.40000000000003
 20
289.1
 30
0.0
 11
199.4
 21
289.1
 31
0.0
  0
LINE
  5
115
330
1F
100
AcDbEntity
  8
図枠
  6
CONTINUOUS
 62
     7
100
AcDbLine
 10
199.4
 20
9.100000000000001
 30
0.0
 11
199.4
 21
289.1
 31
0.0
  0
LINE
  5
116
330
1F
100
AcDbEntity
  8
図枠
  6
CONTINUOUS
 62
     7
100
AcDbLine
 10
17.40000000000003
 20
31.1
 30
0.0
 11
199.4
 21
31.1
 31
0.0
  0
LINE
  5
117
330
1F
100
AcDbEntity
  8
図枠
  6
CONTINUOUS
 62
     7
100
AcDbLine
 10
17.40000000000003
 20
9.100000000000001
 30
0.0
 11
199.4
 21
9.100000000000001
 31
0.0
  0
LINE
  5
118
330
1F
100
AcDbEntity
  8
図枠
  6
CONTINUOUS
 62
     6
100
AcDbLine
 10
74.40000000000003
 20
31.1
 30
0.0
 11
74.40000000000003
 21
9.100000000000001
 31
0.0
  0
LINE
  5
119
330
1F
100
AcDbEntity
  8
図枠
  6
CONTINUOUS
 62
     6
100
AcDbLine
 10
48.40000000000003
 20
31.1
 30
0.0
 11
48.40000000000003
 21
9.100000000000001
 31
0.0
  0
LINE
  5
11A
330
1F
100
AcDbEntity
  8
図枠
  6
CONTINUOUS
 62
     6
100
AcDbLine
 10
32.90000000000003
 20
31.1
 30
0.0
 11
32.90000000000003
 21
9.100000000000001
 31
0.0
  0
CIRCLE
  5
11B
330
1F
100
AcDbEntity
  8
図枠
  6
CONTINUOUS
 62
     6
100
AcDbCircle
 10
22.40000000000003
 20
11.6
 30
0.0
 40
0.10000002
  0
CIRCLE
  5
11C
330
1F
100
AcDbEntity
  8
図枠
  6
CONTINUOUS
 62
     6
100
AcDbCircle
 10
27.40000000000003
 20
11.6
 30
0.0
 40
0.10000002
  0
CIRCLE
  5
11D
330
1F
100
AcDbEntity
  8
図枠
  6
CONTINUOUS
 62
     6
100
AcDbCircle
 10
37.90000000000003
 20
11.6
 30
0.0
 40
0.10000002
  0
CIRCLE
  5
11E
330
1F
100
AcDbEntity
  8
図枠
  6
CONTINUOUS
 62
     6
100
AcDbCircle
 10
42.90000000000003
 20
11.6
 30
0.0
 40
0.10000002
  0
LINE
  5
11F
330
1F
100
AcDbEntity
  8
図枠
  6
CONTINUOUS
 62
     6
100
AcDbLine
 10
61.40000000000003
 20
31.1
 30
0.0
 11
61.40000000000003
 21
9.100000000000001
 31
0.0
  0
LINE
  5
120
330
1F
100
AcDbEntity
  8
図枠
  6
EXLTYPE2
 62
     6
100
AcDbLine
 10
17.40000000000003
 20
14.1
 30
0.0
 11
48.40000000000003
 21
14.1
 31
0.0
  0
LINE
  5
121
330
1F
100
AcDbEntity
  8
図枠
  6
CONTINUOUS
 62
     6
100
AcDbLine
 10
199.4
 20
19.1
 30
0.0
 11
74.40000000000003
 21
19.1
 31
0.0
  0
LINE
  5
122
330
1F
100
AcDbEntity
  8
図枠
  6
CONTINUOUS
 62
     6
100
AcDbLine
 10
185.4
 20
31.1
 30
0.0
 11
185.4
 21
19.1
 31
0.0
  0
LINE
  5
123
330
1F
100
AcDbEntity
  8
図枠
  6
CONTINUOUS
 62
     6
100
AcDbLine
 10
143.4
 20
31.1
 30
0.0
 11
143.4
 21
9.100000000000001
 31
0.0
  0
LINE
  5
124
330
1F
100
AcDbEntity
  8
図枠
  6
CONTINUOUS
 62
     6
100
AcDbLine
 10
138.4
 20
31.1
 30
0.0
 11
138.4
 21
9.100000000000001
 31
0.0
  0
LINE
  5
125
330
1F
100
AcDbEntity
  8
図枠
  6
CONTINUOUS
 62
     6
100
AcDbLine
 10
188.66538086
 20
21.40029297000001
 30
0.0
 11
196.39938965
 21
29.26998291
 31
0.0
  0
LINE
  5
126
330
1F
100
AcDbEntity
  8
図枠
  6
CONTINUOUS
 62
     6
100
AcDbLine
 10
180.4
 20
31.1
 30
0.0
 11
180.4
 21
19.1
 31
0.0
  0
TEXT
  5
127
330
1F
100
AcDbEntity
  8
図枠
  6
CONTINUOUS
 62
     2
100
AcDbText
 10
63.15000000000003
 20
26.475
 30
0.0
 40
4.25
  1
承認
 41
1.303826737967915
  7
EXCADSTD
 72
     5
 11
71.85770000000004
 21
26.475
 31
0.0
100
AcDbText
  0
TEXT
  5
128
330
1F
100
AcDbEntity
  8
図枠
  6
CONTINUOUS
 62
     2
100
AcDbText
 10
188.45371094
 20
25.87227782999999
 30
0.0
 40
3.0
  1
１
 41
1.101333351135257
  7
EXCADSTD
 72
     5
 11
190.8137109781469
 21
25.87227782999999
 31
0.0
100
AcDbText
  0
TEXT
  5
129
330
1F
100
AcDbEntity
  8
図枠
  6
CONTINUOUS
 62
     2
100
AcDbText
 10
138.9750000000001
 20
25.475
 30
0.0
 40
4.25
  1
品
 41
1.120000000000002
  7
EXCADSTD
 72
     5
 11
142.3750000000001
 21
25.475
 31
0.0
100
AcDbText
  0
TEXT
  5
12A
330
1F
100
AcDbEntity
  8
図枠
  6
CONTINUOUS
 62
     2
100
AcDbText
 10
138.9750000000001
 20
20.475
 30
0.0
 40
4.25
  1
番
 41
1.120000000000002
  7
EXCADSTD
 72
     5
 11
142.3750000000001
 21
20.475
 31
0.0
100
AcDbText
  0
TEXT
  5
12B
330
1F
100
AcDbEntity
  8
図枠
  6
CONTINUOUS
 62
     2
100
AcDbText
 10
181.075
 20
25.475
 30
0.0
 40
4.25
  1
尺
 41
1.120000000000002
  7
EXCADSTD
 72
     5
 11
184.475
 21
25.475
 31
0.0
100
AcDbText
  0
TEXT
  5
12C
330
1F
100
AcDbEntity
  8
図枠
  6
CONTINUOUS
 62
     2
100
AcDbText
 10
181.075
 20
20.475
 30
0.0
 40
4.25
  1
度
 41
1.120000000000002
  7
EXCADSTD
 72
     5
 11
184.475
 21
20.475
 31
0.0
100
AcDbText
  0
TEXT
  5
12D
330
1F
100
AcDbEntity
  8
図枠
  6
CONTINUOUS
 62
     2
100
AcDbText
 10
138.9750000000001
 20
14.175
 30
0.0
 40
4.25
  1
図
 41
1.120000000000002
  7
EXCADSTD
 72
     5
 11
142.3750000000001
 21
14.175
 31
0.0
100
AcDbText
  0
TEXT
  5
12E
330
1F
100
AcDbEntity
  8
図枠
  6
CONTINUOUS
 62
     2
100
AcDbText
 10
138.9750000000001
 20
9.875
 30
0.0
 40
4.25
  1
番
 41
1.120000000000002
  7
EXCADSTD
 72
     5
 11
142.3750000000001
 21
9.875
 31
0.0
100
AcDbText
  0
LINE
  5
12F
330
1F
100
AcDbEntity
  8
図枠
  6
CONTINUOUS
 62
     6
100
AcDbLine
 10
17.40000000000003
 20
26.1
 30
0.0
 11
74.40000000000003
 21
26.1
 31
0.0
  0
TEXT
  5
130
330
1F
100
AcDbEntity
  8
図枠
  6
CONTINUOUS
 62
     2
100
AcDbText
 10
74.97499999999997
 20
20.47500000000002
 30
0.0
 40
4.25
  1
名
 41
1.120000000000002
  7
EXCADSTD
 72
     5
 11
78.37499999999997
 21
20.47500000000002
 31
0.0
100
AcDbText
  0
LINE
  5
131
330
1F
100
AcDbEntity
  8
図枠
  6
CONTINUOUS
 62
     6
100
AcDbLine
 10
79.39999999999998
 20
31.10000000000002
 30
0.0
 11
79.39999999999998
 21
19.10000000000002
 31
0.0
  0
TEXT
  5
132
330
1F
100
AcDbEntity
  8
図枠
  6
CONTINUOUS
 62
     6
100
AcDbText
 10
19.6500000000003
 20
17.60000000000014
 30
0.0
 40
5.0
  1
岩田
 41
1.28324
  7
EXCADSTD
 72
     5
 11
29.7326000000003
 21
17.60000000000014
 31
0.0
100
AcDbText
  0
TEXT
  5
133
330
1F
100
AcDbEntity
  8
図枠
  6
CONTINUOUS
 62
     6
100
AcDbText
 10
18.03441156754791
 20
10.04500732000001
 30
0.0
 40
3.0
  1
'21
 41
0.5376093867322295
  7
EXCADSTD
 72
     5
 11
21.18326654697954
 21
10.04500732000001
 31
0.0
100
AcDbText
  0
TEXT
  5
134
330
1F
100
AcDbEntity
  8
図枠
  6
CONTINUOUS
 62
     6
100
AcDbText
 10
24.43191160569489
 20
10.04500732000001
 30
0.0
 40
3.0
  1
2
 41
0.4014705882352947
  7
EXCADSTD
 72
     5
 11
25.40691160569489
 21
10.04500732000001
 31
0.0
100
AcDbText
  0
TEXT
  5
135
330
1F
100
AcDbEntity
  8
図枠
  6
CONTINUOUS
 62
     2
100
AcDbText
 10
136.45
 20
284.5000000000001
 30
0.0
 40
4.0
  1
材質
 41
1.895695454545453
  7
EXCADSTD
 72
     5
 11
148.3658
 21
284.5000000000001
 31
0.0
100
AcDbText
  0
TEXT
  5
136
330
1F
100
AcDbEntity
  8
図枠
  6
CONTINUOUS
 62
     2
100
AcDbText
 10
85.40000000000006
 20
279.6
 30
0.0
 40
4.0
  1
１
 41
1.120000000000001
  7
EXCADSTD
 72
     5
 11
88.60000000000007
 21
279.6
 31
0.0
100
AcDbText
  0
TEXT
  5
137
330
1F
100
AcDbEntity
  8
図枠
  6
CONTINUOUS
 62
     2
100
AcDbText
 10
85.40000000000006
 20
274.6
 30
0.0
 40
4.0
  1
２
 41
1.120000000000001
  7
EXCADSTD
 72
     5
 11
88.60000000000007
 21
274.6
 31
0.0
100
AcDbText
  0
TEXT
  5
138
330
1F
100
AcDbEntity
  8
図枠
  6
CONTINUOUS
 62
     2
100
AcDbText
 10
162.4000000000001
 20
279.6
 30
0.0
 40
4.0
  1
１
 41
1.119999999999996
  7
EXCADSTD
 72
     5
 11
165.6000000000001
 21
279.6
 31
0.0
100
AcDbText
  0
TEXT
  5
139
330
1F
100
AcDbEntity
  8
図枠
  6
CONTINUOUS
 62
     2
100
AcDbText
 10
83.40000000000006
 20
284.6
 30
0.0
 40
4.0
  1
番号
 41
1.166581818181819
  7
EXCADSTD
 72
     5
 11
90.73280000000007
 21
284.6
 31
0.0
100
AcDbText
  0
TEXT
  5
13A
330
1F
100
AcDbEntity
  8
図枠
  6
CONTINUOUS
 62
     2
100
AcDbText
 10
103.3
 20
284.6
 30
0.0
 40
4.0
  1
品名
 41
1.895695454545456
  7
EXCADSTD
 72
     5
 11
115.2158
 21
284.6
 31
0.0
100
AcDbText
  0
TEXT
  5
13B
330
1F
100
AcDbEntity
  8
図枠
  6
CONTINUOUS
 62
     2
100
AcDbText
 10
160.4000000000001
 20
284.6
 30
0.0
 40
4.0
  1
個数
 41
1.166581818181817
  7
EXCADSTD
 72
     5
 11
167.7328000000001
 21
284.6
 31
0.0
100
AcDbText
  0
TEXT
  5
13C
330
1F
100
AcDbEntity
  8
図枠
  6
CONTINUOUS
 62
     2
100
AcDbText
 10
177.9000000000001
 20
284.6
 30
0.0
 40
4.0
  1
備考
 41
1.895695454545453
  7
EXCADSTD
 72
     5
 11
189.8158000000001
 21
284.6
 31
0.0
100
AcDbText
  0
LINE
  5
13D
330
1F
100
AcDbEntity
  8
図枠
  6
CONTINUOUS
 62
     6
100
AcDbLine
 10
81.90000000000006
 20
284.1
 30
0.0
 11
199.4000000000001
 21
284.1
 31
0.0
  0
LINE
  5
13E
330
1F
100
AcDbEntity
  8
図枠
  6
CONTINUOUS
 62
     6
100
AcDbLine
 10
81.90000000000006
 20
279.1
 30
0.0
 11
199.4000000000001
 21
279.1
 31
0.0
  0
LINE
  5
13F
330
1F
100
AcDbEntity
  8
図枠
  6
CONTINUOUS
 62
     6
100
AcDbLine
 10
81.90000000000006
 20
259.1
 30
0.0
 11
199.4000000000001
 21
259.1
 31
0.0
  0
LINE
  5
140
330
1F
100
AcDbEntity
  8
図枠
  6
CONTINUOUS
 62
     6
100
AcDbLine
 10
81.90000000000006
 20
264.1
 30
0.0
 11
199.4000000000001
 21
264.1
 31
0.0
  0
LINE
  5
141
330
1F
100
AcDbEntity
  8
図枠
  6
CONTINUOUS
 62
     6
100
AcDbLine
 10
199.4
 20
269.1
 30
0.0
 11
81.9
 21
269.1
 31
0.0
  0
LINE
  5
142
330
1F
100
AcDbEntity
  8
図枠
  6
CONTINUOUS
 62
     6
100
AcDbLine
 10
81.9
 20
274.1
 30
0.0
 11
198.2
 21
274.1
 31
0.0
  0
LINE
  5
143
330
1F
100
AcDbEntity
  8
図枠
  6
CONTINUOUS
 62
     6
100
AcDbLine
 10
199.4
 20
254.1
 30
0.0
 11
81.9
 21
254.1
 31
0.0
  0
TEXT
  5
144
330
1F
100
AcDbEntity
  8
図枠
  6
CONTINUOUS
 62
     2
100
AcDbText
 10
85.40000000000006
 20
269.6
 30
0.0
 40
4.0
  1
３
 41
1.120000000000001
  7
EXCADSTD
 72
     5
 11
88.60000000000007
 21
269.6
 31
0.0
100
AcDbText
  0
TEXT
  5
145
330
1F
100
AcDbEntity
  8
図枠
  6
CONTINUOUS
 62
     2
100
AcDbText
 10
85.40000000000006
 20
264.6
 30
0.0
 40
4.0
  1
４
 41
1.120000000000001
  7
EXCADSTD
 72
     5
 11
88.60000000000007
 21
264.6
 31
0.0
100
AcDbText
  0
TEXT
  5
146
330
1F
100
AcDbEntity
  8
図枠
  6
CONTINUOUS
 62
     2
100
AcDbText
 10
85.40000000000006
 20
259.6
 30
0.0
 40
4.0
  1
５
 41
1.120000000000001
  7
EXCADSTD
 72
     5
 11
88.60000000000007
 21
259.6
 31
0.0
100
AcDbText
  0
TEXT
  5
147
330
1F
100
AcDbEntity
  8
図枠
  6
CONTINUOUS
 62
     2
100
AcDbText
 10
85.40000000000006
 20
254.6
 30
0.0
 40
4.0
  1
６
 41
1.120000000000001
  7
EXCADSTD
 72
     5
 11
88.60000000000007
 21
254.6
 31
0.0
100
AcDbText
  0
TEXT
  5
148
330
1F
100
AcDbEntity
  8
図枠
  6
CONTINUOUS
 62
     2
100
AcDbText
 10
93.40000000000006
 20
274.6
 30
0.0
 40
4.0
  1
取付ビス
 41
1.103260869565218
  7
EXCADSTD
 72
     5
 11
107.9000000000001
 21
274.6
 31
0.0
100
AcDbText
  0
TEXT
  5
149
330
1F
100
AcDbEntity
  8
図枠
  6
CONTINUOUS
 62
     2
100
AcDbText
 10
93.40000000000006
 20
279.6
 30
0.0
 40
4.0
  1
本体
 41
1.093670454545454
  7
EXCADSTD
 72
     5
 11
100.2745000000001
 21
279.6
 31
0.0
100
AcDbText
  0
TEXT
  5
14A
330
1F
100
AcDbEntity
  8
図枠
  6
CONTINUOUS
 62
     2
100
AcDbText
 10
93.40000000000006
 20
269.6
 30
0.0
 40
4.0
  1
ビスワッシャー
 41
1.067073170731707
  7
EXCADSTD
 72
     5
 11
118.4000000000001
 21
269.6
 31
0.0
100
AcDbText
  0
TEXT
  5
14B
330
1F
100
AcDbEntity
  8
図枠
  6
CONTINUOUS
 62
     2
100
AcDbText
 10
93.40000000000006
 20
264.6
 30
0.0
 40
4.0
  1
ビスキャップ
 41
1.075
  7
EXCADSTD
 72
     5
 11
114.9000000000001
 21
264.6
 31
0.0
100
AcDbText
  0
TEXT
  5
14C
330
1F
100
AcDbEntity
  8
図枠
  6
CONTINUOUS
 62
     2
100
AcDbText
 10
170.0000000000001
 20
274.6
 30
0.0
 40
4.0
  1
３.８×５７
 41
0.9201030927835052
  7
EXCADSTD
 72
     5
 11
187.0000000000001
 21
274.6
 31
0.0
100
AcDbText
  0
TEXT
  5
14D
330
1F
100
AcDbEntity
  8
図枠
  6
CONTINUOUS
 62
     6
100
AcDbText
 10
29.23941159138979
 20
10.04500732000001
 30
0.0
 40
3.0
  1
10
 41
0.3329729711687243
  7
EXCADSTD
 72
     5
 11
30.99941158185305
 21
10.04500732000001
 31
0.0
100
AcDbText
  0
TEXT
  5
14E
330
1F
100
AcDbEntity
  8
図枠
  6
CONTINUOUS
 62
     2
100
AcDbText
 10
146.5499991416936
 20
22.59999999999977
 30
0.0
 40
5.0
  1
ＡＷ３１ＷＦ－１３
 41
0.8109434415709298
  7
EXCADSTD
 72
     5
 11
177.2500008583074
 21
22.59999999999977
 31
0.0
100
AcDbText
  0
TEXT
  5
14F
330
1F
100
AcDbEntity
  8
図枠
  6
CONTINUOUS
 62
     2
100
AcDbText
 10
162.4000000000001
 20
274.6
 30
0.0
 40
4.0
  1
４
 41
1.119999999999996
  7
EXCADSTD
 72
     5
 11
165.6000000000001
 21
274.6
 31
0.0
100
AcDbText
  0
TEXT
  5
150
330
1F
100
AcDbEntity
  8
図枠
  6
CONTINUOUS
 62
     2
100
AcDbText
 10
162.4000000000001
 20
269.6
 30
0.0
 40
4.0
  1
４
 41
1.119999999999996
  7
EXCADSTD
 72
     5
 11
165.6000000000001
 21
269.6
 31
0.0
100
AcDbText
  0
TEXT
  5
151
330
1F
100
AcDbEntity
  8
図枠
  6
CONTINUOUS
 62
     2
100
AcDbText
 10
162.4000000000001
 20
264.6
 30
0.0
 40
4.0
  1
４
 41
1.119999999999996
  7
EXCADSTD
 72
     5
 11
165.6000000000001
 21
264.6
 31
0.0
100
AcDbText
  0
LINE
  5
152
330
1F
100
AcDbEntity
  8
図枠
  6
CONTINUOUS
 62
     6
100
AcDbLine
 10
81.90000000000006
 20
254.1
 30
0.0
 11
199.4000000000001
 21
254.1
 31
0.0
  0
LINE
  5
153
330
1F
100
AcDbEntity
  8
図枠
  6
CONTINUOUS
 62
     6
100
AcDbLine
 10
199.4
 20
249.1
 30
0.0
 11
81.9
 21
249.1
 31
0.0
  0
TEXT
  5
154
330
1F
100
AcDbEntity
  8
図枠
  6
CONTINUOUS
 62
     2
100
AcDbText
 10
93.40000000000006
 20
249.6
 30
0.0
 40
4.0
  1
可動棚板
 41
1.103260869565218
  7
EXCADSTD
 72
     5
 11
107.9000000000001
 21
249.6
 31
0.0
100
AcDbText
  0
TEXT
  5
155
330
1F
100
AcDbEntity
  8
図枠
  6
CONTINUOUS
 62
     2
100
AcDbText
 10
170.0000000000001
 20
249.6
 30
0.0
 40
4.0
  1
１２２×３１７　ｔ＝１５
 41
0.7098591420012462
  7
EXCADSTD
 72
     5
 11
198.7999994754792
 21
249.6
 31
0.0
100
AcDbText
  0
TEXT
  5
156
330
1F
100
AcDbEntity
  8
図枠
  6
CONTINUOUS
 62
     2
100
AcDbText
 10
162.4000000000001
 20
249.6
 30
0.0
 40
4.0
  1
２
 41
1.119999999999996
  7
EXCADSTD
 72
     5
 11
165.6000000000001
 21
249.6
 31
0.0
100
AcDbText
  0
LINE
  5
157
330
1F
100
AcDbEntity
  8
図枠
  6
CONTINUOUS
 62
     6
100
AcDbLine
 10
81.90000000000005
 20
289.1
 30
0.0
 11
81.90000000000005
 21
249.1
 31
0.0
  0
LINE
  5
158
330
1F
100
AcDbEntity
  8
図枠
  6
CONTINUOUS
 62
     6
100
AcDbLine
 10
92.10000000000005
 20
289.1
 30
0.0
 11
92.10000000000005
 21
249.1
 31
0.0
  0
LINE
  5
159
330
1F
100
AcDbEntity
  8
図枠
  6
CONTINUOUS
 62
     6
100
AcDbLine
 10
126.5000000000001
 20
289.1
 30
0.0
 11
126.5000000000001
 21
249.1
 31
0.0
  0
LINE
  5
15A
330
1F
100
AcDbEntity
  8
図枠
  6
CONTINUOUS
 62
     6
100
AcDbLine
 10
159.3999999999999
 20
249.1
 30
0.0
 11
159.3999999999999
 21
289.1
 31
0.0
  0
LINE
  5
15B
330
1F
100
AcDbEntity
  8
図枠
  6
CONTINUOUS
 62
     6
100
AcDbLine
 10
169.4000000000001
 20
289.1
 30
0.0
 11
169.4000000000001
 21
249.1
 31
0.0
  0
TEXT
  5
15C
330
1F
100
AcDbEntity
  8
図枠
  6
CONTINUOUS
 62
     2
100
AcDbText
 10
85.40000000000006
 20
249.6
 30
0.0
 40
4.0
  1
７
 41
1.120000000000001
  7
EXCADSTD
 72
     5
 11
88.60000000000007
 21
249.6
 31
0.0
100
AcDbText
  0
TEXT
  5
15D
330
1F
100
AcDbEntity
  8
図枠
  6
CONTINUOUS
 62
     2
100
AcDbText
 10
93.40000000000006
 20
259.6
 30
0.0
 40
4.0
  1
棚受けダボ（前）
 41
1.061170212765957
  7
EXCADSTD
 72
     5
 11
121.9000000000001
 21
259.6
 31
0.0
100
AcDbText
  0
TEXT
  5
15E
330
1F
100
AcDbEntity
  8
図枠
  6
CONTINUOUS
 62
     2
100
AcDbText
 10
93.40000000000006
 20
254.6
 30
0.0
 40
4.0
  1
棚受けダボ（後）
 41
1.061170212765957
  7
EXCADSTD
 72
     5
 11
121.9000000000001
 21
254.6
 31
0.0
100
AcDbText
  0
TEXT
  5
15F
330
1F
100
AcDbEntity
  8
図枠
  6
CONTINUOUS
 62
     2
100
AcDbText
 10
162.4000000000001
 20
254.6
 30
0.0
 40
4.0
  1
４
 41
1.119999999999996
  7
EXCADSTD
 72
     5
 11
165.6000000000001
 21
254.6
 31
0.0
100
AcDbText
  0
TEXT
  5
160
330
1F
100
AcDbEntity
  8
図枠
  6
CONTINUOUS
 62
     2
100
AcDbText
 10
162.4000000000001
 20
259.6
 30
0.0
 40
4.0
  1
４
 41
1.119999999999996
  7
EXCADSTD
 72
     5
 11
165.6000000000001
 21
259.6
 31
0.0
100
AcDbText
  0
TEXT
  5
161
330
1F
100
AcDbEntity
  8
図枠
  6
CONTINUOUS
 62
     2
100
AcDbText
 10
170.0000000000001
 20
259.6
 30
0.0
 40
4.0
  1
（Ｌ）２　（Ｒ）２
 41
0.7231131949514714
  7
EXCADSTD
 72
     5
 11
191.8999996185304
 21
259.6
 31
0.0
100
AcDbText
  0
TEXT
  5
162
330
1F
100
AcDbEntity
  8
図枠
  6
CONTINUOUS
 62
     2
100
AcDbText
 10
192.52792969
 20
21.43488464000002
 30
0.0
 40
3.0
  1
１０
 41
1.098531230663534
  7
EXCADSTD
 72
     5
 11
197.7067197774138
 21
21.43488464000002
 31
0.0
100
AcDbText
  0
TEXT
  5
163
330
1F
100
AcDbEntity
  8
図枠
  6
CONTINUOUS
 62
     2
100
AcDbText
 10
74.97499999999997
 20
25.47500000000002
 30
0.0
 40
4.25
  1
品
 41
1.120000000000002
  7
EXCADSTD
 72
     5
 11
78.37499999999997
 21
25.47500000000002
 31
0.0
100
AcDbText
  0
TEXT
  5
164
330
1F
100
AcDbEntity
  8
図枠
  6
CONTINUOUS
 62
     2
100
AcDbText
 10
127.8000000000001
 20
279.6
 30
0.0
 40
4.0
  1
集成材、パーティクルボード他
 41
0.6009036144578314
  7
EXCADSTD
 72
     5
 11
156.3000000000001
 21
279.6
 31
0.0
100
AcDbText
  0
TEXT
  5
165
330
1F
100
AcDbEntity
  8
図枠
  6
CONTINUOUS
 62
     2
100
AcDbText
 10
127.8000000000001
 20
249.6
 30
0.0
 40
4.0
  1
パーティクルボード
 41
0.9080188679245285
  7
EXCADSTD
 72
     5
 11
155.3000000000001
 21
249.6
 31
0.0
100
AcDbText
  0
TEXT
  5
166
330
1F
100
AcDbEntity
  8
図枠
  6
CONTINUOUS
 62
     7
100
AcDbText
 10
155.825
 20
11.175
 30
0.0
 40
6.0
  1
９９２３００
 41
1.033333333333333
  7
EXCADSTD
 72
     5
 11
186.825
 21
11.175
 31
0.0
100
AcDbText
  0
TEXT
  5
167
330
1F
100
AcDbEntity
  8
図枠
  6
CONTINUOUS
 62
     2
100
AcDbText
 10
93.36108397999998
 20
22.62713318
 30
0.0
 40
5.0
  1
洗面所壁収納
 41
1.1
  7
EXCADSTD
 72
     5
 11
120.86108398
 21
22.62713318
 31
0.0
100
AcDbText
  0
DIMENSION
  5
169
330
1F
100
AcDbEntity
  8
図
  6
CONTINUOUS
 62
     3
100
AcDbDimension
  2
*D15
 10
978.0000000000081
 20
875.9905074469999
 30
0.0
 11
954.5000000596128
 21
940.9905074469999
 31
0.0
 70
   160
  3
ISO-25
100
AcDbAlignedDimension
 13
915.8010512749202
 23
860.990507447
 33
0.0
 14
900.8010512749202
 24
875.990507447
 34
0.0
 50
90.0
100
AcDbRotatedDimension
1001
ACAD
1000
DSTYLE
1002
{
1070
   270
1070
     2
1070
     6
1000
EX_NORM
1070
     7
1000
EX_NORM
1070
    41
1040
30.0
1070
    42
1040
6.99999988079071
1070
    44
1040
10.0
1070
    73
1070
     0
1070
    74
1070
     0
1070
    75
1070
     1
1070
    76
1070
     0
1070
    77
1070
     1
1070
    78
1070
     0
1070
   140
1040
40.0
1070
   147
1040
0.0
1070
   173
1070
     1
1070
   176
1070
     3
1070
   177
1070
     3
1070
   178
1070
     2
1070
   271
1070
     0
1070
   277
1070
     2
1070
   279
1070
     2
1070
   280
1070
     2
1070
   287
1070
     5
1070
   340
1005
168
1002
}
  0
DIMENSION
  5
178
330
1F
100
AcDbEntity
  8
図
  6
CONTINUOUS
 62
     3
100
AcDbDimension
  2
*D16
 10
581.8010512749202
 20
776.0
 30
0.0
 11
501.8010512749203
 21
799.4999999403954
 31
0.0
 70
   160
  3
ISO-25
100
AcDbAlignedDimension
 13
566.8010512749202
 23
860.990507447
 33
0.0
 14
581.8010512749202
 24
860.990507447
 34
0.0
100
AcDbRotatedDimension
1001
ACAD
1000
DSTYLE
1002
{
1070
   270
1070
     2
1070
     6
1000
EX_NORM
1070
     7
1000
EX_NORM
1070
    41
1040
30.0
1070
    42
1040
6.99999988079071
1070
    44
1040
10.0
1070
    73
1070
     0
1070
    74
1070
     0
1070
    75
1070
     0
1070
    76
1070
     0
1070
    77
1070
     1
1070
    78
1070
     0
1070
   140
1040
40.0
1070
   147
1040
0.0
1070
   173
1070
     1
1070
   176
1070
     3
1070
   177
1070
     3
1070
   178
1070
     2
1070
   271
1070
     0
1070
   277
1070
     2
1070
   279
1070
     2
1070
   280
1070
     1
1070
   287
1070
     5
1070
   340
1005
168
1002
}
  0
DIMENSION
  5
187
330
1F
100
AcDbEntity
  8
図
  6
CONTINUOUS
 62
     3
100
AcDbDimension
  2
*D17
 10
915.8010512749202
 20
776.0
 30
0.0
 11
980.8010512749202
 21
799.4999999403954
 31
0.0
 70
   160
  3
ISO-25
100
AcDbAlignedDimension
 13
900.8010512749202
 23
860.990507447
 33
0.0
 14
915.8010512749202
 24
860.990507447
 34
0.0
100
AcDbRotatedDimension
1001
ACAD
1000
DSTYLE
1002
{
1070
   270
1070
     2
1070
     6
1000
EX_NORM
1070
     7
1000
EX_NORM
1070
    41
1040
30.0
1070
    42
1040
6.99999988079071
1070
    44
1040
10.0
1070
    73
1070
     0
1070
    74
1070
     0
1070
    75
1070
     0
1070
    76
1070
     0
1070
    77
1070
     1
1070
    78
1070
     0
1070
   140
1040
40.0
1070
   147
1040
0.0
1070
   173
1070
     1
1070
   176
1070
     3
1070
   177
1070
     3
1070
   178
1070
     2
1070
   271
1070
     0
1070
   277
1070
     2
1070
   279
1070
     2
1070
   280
1070
     2
1070
   287
1070
     5
1070
   340
1005
168
1002
}
  0
DIMENSION
  5
196
330
1F
100
AcDbEntity
  8
図
  6
CONTINUOUS
 62
     3
100
AcDbDimension
  2
*D18
 10
915.8010512749202
 20
702.0
 30
0.0
 11
741.3010512749202
 21
725.4999999403954
 31
0.0
 70
   160
  3
ISO-25
100
AcDbAlignedDimension
 13
566.8010512749202
 23
860.990507447
 33
0.0
 14
915.8010512749202
 24
860.990507447
 34
0.0
100
AcDbRotatedDimension
1001
ACAD
1000
DSTYLE
1002
{
1070
   270
1070
     2
1070
     6
1000
EX_NORM
1070
     7
1000
EX_NORM
1070
    41
1040
30.0
1070
    42
1040
6.99999988079071
1070
    44
1040
10.0
1070
    73
1070
     0
1070
    74
1070
     0
1070
    75
1070
     0
1070
    76
1070
     0
1070
    77
1070
     1
1070
    78
1070
     0
1070
   140
1040
40.0
1070
   147
1040
0.0
1070
   173
1070
     1
1070
   176
1070
     3
1070
   177
1070
     3
1070
   178
1070
     2
1070
   271
1070
     0
1070
   277
1070
     2
1070
   279
1070
     2
1070
   280
1070
     0
1070
   287
1070
     5
1070
   340
1005
168
1002
}
  0
DIMENSION
  5
1A3
330
1F
100
AcDbEntity
  8
図
  6
CONTINUOUS
 62
     3
100
AcDbDimension
  2
*D19
 10
977.9999999999999
 20
1745.990507447
 30
0.0
 11
954.5000000596051
 21
1680.990507447
 31
0.0
 70
   160
  3
ISO-25
100
AcDbAlignedDimension
 13
915.8010512749202
 23
1760.990507447
 33
0.0
 14
898.8010512749202
 24
1745.990507447
 34
0.0
 50
90.0
100
AcDbRotatedDimension
1001
ACAD
1000
DSTYLE
1002
{
1070
   270
1070
     2
1070
     6
1000
EX_NORM
1070
     7
1000
EX_NORM
1070
    41
1040
30.0
1070
    42
1040
6.99999988079071
1070
    44
1040
9.999999999999545
1070
    73
1070
     0
1070
    74
1070
     0
1070
    75
1070
     0
1070
    76
1070
     0
1070
    77
1070
     1
1070
    78
1070
     0
1070
   140
1040
40.0
1070
   147
1040
0.0
1070
   173
1070
     1
1070
   176
1070
     3
1070
   177
1070
     3
1070
   178
1070
     2
1070
   271
1070
     0
1070
   277
1070
     2
1070
   279
1070
     2
1070
   280
1070
     2
1070
   287
1070
     5
1070
   340
1005
168
1002
}
  0
DIMENSION
  5
1B2
330
1F
100
AcDbEntity
  8
図
  6
CONTINUOUS
 62
     3
100
AcDbDimension
  2
*D20
 10
1126.0
 20
860.9905074469999
 30
0.0
 11
1102.500000059604
 21
1310.990507447
 31
0.0
 70
   160
  3
ISO-25
100
AcDbAlignedDimension
 13
915.8010512749202
 23
1760.990507447
 33
0.0
 14
915.8010512749202
 24
860.990507447
 34
0.0
 50
90.0
100
AcDbRotatedDimension
1001
ACAD
1000
DSTYLE
1002
{
1070
   270
1070
     2
1070
     6
1000
EX_NORM
1070
     7
1000
EX_NORM
1070
    41
1040
30.0
1070
    42
1040
6.99999988079071
1070
    44
1040
9.999999999999545
1070
    73
1070
     0
1070
    74
1070
     0
1070
    75
1070
     0
1070
    76
1070
     0
1070
    77
1070
     1
1070
    78
1070
     0
1070
   140
1040
40.0
1070
   147
1040
0.0
1070
   173
1070
     1
1070
   176
1070
     3
1070
   177
1070
     3
1070
   178
1070
     2
1070
   271
1070
     0
1070
   277
1070
     2
1070
   279
1070
     2
1070
   280
1070
     0
1070
   287
1070
     5
1070
   340
1005
168
1002
}
  0
DIMENSION
  5
1BF
330
1F
100
AcDbEntity
  8
図
  6
CONTINUOUS
 62
     3
100
AcDbDimension
  2
*D21
 10
531.3010512749202
 20
1318.490507447
 30
0.0
 11
507.8010513345251
 21
1383.490507447
 31
0.0
 70
   160
  3
ISO-25
100
AcDbAlignedDimension
 13
581.8010512749202
 23
1303.490507447
 33
0.0
 14
581.8010512749202
 24
1318.490507447
 34
0.0
 50
90.0
100
AcDbRotatedDimension
1001
ACAD
1000
DSTYLE
1002
{
1070
   270
1070
     2
1070
     6
1000
EX_NORM
1070
     7
1000
EX_NORM
1070
    41
1040
30.0
1070
    42
1040
6.99999988079071
1070
    44
1040
10.0
1070
    73
1070
     0
1070
    74
1070
     0
1070
    75
1070
     0
1070
    76
1070
     0
1070
    77
1070
     1
1070
    78
1070
     0
1070
   140
1040
40.0
1070
   147
1040
0.0
1070
   173
1070
     1
1070
   176
1070
     3
1070
   177
1070
     3
1070
   178
1070
     2
1070
   271
1070
     0
1070
   277
1070
     2
1070
   279
1070
     2
1070
   280
1070
     2
1070
   287
1070
     5
1070
   340
1005
168
1002
}
  0
DIMENSION
  5
1CE
330
1F
100
AcDbEntity
  8
図
  6
CONTINUOUS
 62
     3
100
AcDbDimension
  2
*D22
 10
1512.00000000002
 20
1774.740507447
 30
0.0
 11
1562.00000000002
 21
1798.240507387395
 31
0.0
 70
   160
  3
ISO-25
100
AcDbAlignedDimension
 13
1509.00000000002
 23
1760.990507447
 33
0.0
 14
1512.00000000002
 24
1760.990507447
 34
0.0
100
AcDbRotatedDimension
1001
ACAD
1000
DSTYLE
1002
{
1070
   270
1070
     2
1070
     6
1000
EX_NONE
1070
     7
1000
EX_NORM
1070
    41
1040
30.0
1070
    42
1040
6.99999988079071
1070
    44
1040
10.0
1070
    73
1070
     0
1070
    74
1070
     0
1070
    75
1070
     0
1070
    76
1070
     0
1070
    77
1070
     1
1070
    78
1070
     0
1070
   140
1040
40.0
1070
   147
1040
0.0
1070
   173
1070
     1
1070
   176
1070
     3
1070
   177
1070
     3
1070
   178
1070
     2
1070
   271
1070
     0
1070
   277
1070
     2
1070
   279
1070
     2
1070
   280
1070
     2
1070
   287
1070
     5
1070
   340
1005
168
1002
}
  0
DIMENSION
  5
1DD
330
1F
100
AcDbEntity
  8
図
  6
CONTINUOUS
 62
     3
100
AcDbDimension
  2
*D23
 10
1512.00000000002
 20
776.0
 30
0.0
 11
1446.00000000002
 21
799.4999999403954
 31
0.0
 70
   160
  3
ISO-25
100
AcDbAlignedDimension
 13
1380.00000000002
 23
860.990507447
 33
0.0
 14
1512.00000000002
 24
860.990507447
 34
0.0
100
AcDbRotatedDimension
1001
ACAD
1000
DSTYLE
1002
{
1070
   270
1070
     2
1070
     6
1000
EX_NORM
1070
     7
1000
EX_NORM
1070
    41
1040
30.0
1070
    42
1040
6.99999988079071
1070
    44
1040
10.0
1070
    73
1070
     0
1070
    74
1070
     0
1070
    75
1070
     0
1070
    76
1070
     0
1070
    77
1070
     1
1070
    78
1070
     0
1070
   140
1040
40.0
1070
   147
1040
0.0
1070
   173
1070
     1
1070
   176
1070
     3
1070
   177
1070
     3
1070
   178
1070
     2
1070
   271
1070
     0
1070
   277
1070
     2
1070
   279
1070
     2
1070
   280
1070
     0
1070
   287
1070
     5
1070
   340
1005
168
1002
}
  0
DIMENSION
  5
1EA
330
1F
100
AcDbEntity
  8
図
  6
CONTINUOUS
 62
     3
100
AcDbDimension
  2
*D24
 10
1033.0
 20
1303.490507447
 30
0.0
 11
1009.500000059605
 21
1082.240507447
 31
0.0
 70
   160
  3
ISO-25
100
AcDbAlignedDimension
 13
915.8010512749202
 23
860.990507447
 33
0.0
 14
900.8010512749202
 24
1303.490507447
 34
0.0
 50
90.0
100
AcDbRotatedDimension
1001
ACAD
1000
DSTYLE
1002
{
1070
   270
1070
     2
1070
     6
1000
EX_NORM
1070
     7
1000
EX_NORM
1070
    41
1040
30.0
1070
    42
1040
6.99999988079071
1070
    44
1040
10.0
1070
    73
1070
     0
1070
    74
1070
     0
1070
    75
1070
     1
1070
    76
1070
     0
1070
    77
1070
     1
1070
    78
1070
     0
1070
   140
1040
40.0
1070
   147
1040
0.0
1070
   173
1070
     1
1070
   176
1070
     3
1070
   177
1070
     3
1070
   178
1070
     2
1070
   271
1070
     0
1070
   277
1070
     2
1070
   279
1070
     2
1070
   280
1070
     0
1070
   287
1070
     5
1070
   340
1005
168
1002
}
  0
DIMENSION
  5
1F6
330
1F
100
AcDbEntity
  8
図
  6
CONTINUOUS
 62
     3
100
AcDbDimension
  2
*D25
 10
1434.00000000002
 20
1824.0
 30
0.0
 11
1471.500000000021
 21
1847.499999940395
 31
0.0
 70
   160
  3
ISO-25
100
AcDbAlignedDimension
 13
1509.00000000002
 23
1760.990507447
 33
0.0
 14
1434.00000000002
 24
1721.990507447
 34
0.0
100
AcDbRotatedDimension
1001
ACAD
1000
DSTYLE
1002
{
1070
   270
1070
     2
1070
     6
1000
EX_NORM
1070
     7
1000
EX_NORM
1070
    41
1040
30.0
1070
    42
1040
6.99999988079071
1070
    44
1040
10.00000000000068
1070
    73
1070
     0
1070
    74
1070
     0
1070
    75
1070
     0
1070
    76
1070
     0
1070
    77
1070
     1
1070
    78
1070
     0
1070
   140
1040
40.0
1070
   147
1040
0.0
1070
   173
1070
     1
1070
   176
1070
     3
1070
   177
1070
     3
1070
   178
1070
     2
1070
   271
1070
     0
1070
   277
1070
     2
1070
   279
1070
     2
1070
   280
1070
     0
1070
   287
1070
     5
1070
   340
1005
168
1002
}
  0
LINE
  5
203
330
1F
100
AcDbEntity
  8
図
  6
CONTINUOUS
 62
     2
100
AcDbLine
 10
566.8010512749202
 20
1760.990507447
 30
0.0
 11
566.8010512749202
 21
860.990507447
 31
0.0
  0
LINE
  5
204
330
1F
100
AcDbEntity
  8
図
  6
CONTINUOUS
 62
     2
100
AcDbLine
 10
581.8010512749202
 20
1760.990507447
 30
0.0
 11
581.8010512749202
 21
860.990507447
 31
0.0
  0
LINE
  5
205
330
1F
100
AcDbEntity
  8
図
  6
CONTINUOUS
 62
     2
100
AcDbLine
 10
900.8010512749202
 20
1303.490507446998
 30
0.0
 11
581.8010512749199
 21
1303.490507446998
 31
0.0
  0
LINE
  5
206
330
1F
100
AcDbEntity
  8
図
  6
CONTINUOUS
 62
     2
100
AcDbLine
 10
900.8010512749202
 20
1318.490507447
 30
0.0
 11
581.8010512749199
 21
1318.490507447
 31
0.0
  0
LINE
  5
207
330
1F
100
AcDbEntity
  8
図
  6
CONTINUOUS
 62
     2
100
AcDbLine
 10
566.8010512749202
 20
1760.990507447
 30
0.0
 11
915.8010512749202
 21
1760.990507447
 31
0.0
  0
LINE
  5
208
330
1F
100
AcDbEntity
  8
図
  6
CONTINUOUS
 62
     2
100
AcDbLine
 10
900.8010512749204
 20
1745.990507447
 30
0.0
 11
581.8010512749202
 21
1745.990507447
 31
0.0
  0
LINE
  5
209
330
1F
100
AcDbEntity
  8
図
  6
CONTINUOUS
 62
     2
100
AcDbLine
 10
566.8010512749202
 20
860.990507447
 30
0.0
 11
915.8010512749202
 21
860.9905074470001
 31
0.0
  0
LINE
  5
20A
330
1F
100
AcDbEntity
  8
図
  6
CONTINUOUS
 62
     2
100
AcDbLine
 10
900.8010512749202
 20
875.990507447
 30
0.0
 11
581.8010512749202
 21
875.990507447
 31
0.0
  0
LINE
  5
20B
330
1F
100
AcDbEntity
  8
図
  6
CONTINUOUS
 62
     2
100
AcDbLine
 10
900.8010512749204
 20
1760.990507447
 30
0.0
 11
900.8010512749204
 21
860.9905074470001
 31
0.0
  0
LINE
  5
20C
330
1F
100
AcDbEntity
  8
図
  6
CONTINUOUS
 62
     2
100
AcDbLine
 10
915.8010512749202
 20
860.990507447
 30
0.0
 11
915.8010512749202
 21
1760.990507447
 31
0.0
  0
LINE
  5
20D
330
1F
100
AcDbEntity
  8
図
  6
CONTINUOUS
 62
     6
100
AcDbLine
 10
1439.00000000002
 20
904.990507447
 30
0.0
 11
1429.00000000002
 21
904.990507447
 31
0.0
  0
LINE
  5
20E
330
1F
100
AcDbEntity
  8
図
  6
EXLTYPE3
 62
     6
100
AcDbLine
 10
1434.00000000002
 20
899.990507447
 30
0.0
 11
1434.00000000002
 21
909.990507447
 31
0.0
  0
LINE
  5
20F
330
1F
100
AcDbEntity
  8
図
  6
CONTINUOUS
 62
     6
100
AcDbLine
 10
1439.00000000002
 20
1716.990507447
 30
0.0
 11
1429.00000000002
 21
1716.990507447
 31
0.0
  0
LINE
  5
210
330
1F
100
AcDbEntity
  8
図
  6
EXLTYPE3
 62
     6
100
AcDbLine
 10
1434.00000000002
 20
1711.990507447
 30
0.0
 11
1434.00000000002
 21
1721.990507447
 31
0.0
  0
LINE
  5
211
330
1F
100
AcDbEntity
  8
図
  6
EXLTYPE3
 62
     6
100
AcDbLine
 10
1484.00000000002
 20
1277.990507447
 30
0.0
 11
1484.00000000002
 21
1283.990507447
 31
0.0
  0
LINE
  5
212
330
1F
100
AcDbEntity
  8
図
  6
EXLTYPE3
 62
     6
100
AcDbLine
 10
1484.000000000019
 20
1247.990507447
 30
0.0
 11
1484.000000000019
 21
1253.990507447
 31
0.0
  0
LINE
  5
213
330
1F
100
AcDbEntity
  8
図
  6
EXLTYPE3
 62
     6
100
AcDbLine
 10
1484.000000000019
 20
1217.990507447
 30
0.0
 11
1484.000000000019
 21
1223.990507447
 31
0.0
  0
LINE
  5
214
330
1F
100
AcDbEntity
  8
図
  6
EXLTYPE3
 62
     6
100
AcDbLine
 10
1484.000000000019
 20
1187.990507447
 30
0.0
 11
1484.000000000019
 21
1193.990507447
 31
0.0
  0
LINE
  5
215
330
1F
100
AcDbEntity
  8
図
  6
EXLTYPE3
 62
     6
100
AcDbLine
 10
1484.000000000019
 20
1157.990507447
 30
0.0
 11
1484.000000000019
 21
1163.990507447
 31
0.0
  0
LINE
  5
216
330
1F
100
AcDbEntity
  8
図
  6
EXLTYPE3
 62
     6
100
AcDbLine
 10
1484.000000000019
 20
1128.090507447
 30
0.0
 11
1484.000000000019
 21
1134.090507447
 31
0.0
  0
LINE
  5
217
330
1F
100
AcDbEntity
  8
図
  6
EXLTYPE3
 62
     6
100
AcDbLine
 10
1484.000000000019
 20
1098.090507447
 30
0.0
 11
1484.000000000019
 21
1104.090507447
 31
0.0
  0
LINE
  5
218
330
1F
100
AcDbEntity
  8
図
  6
EXLTYPE3
 62
     6
100
AcDbLine
 10
1484.000000000019
 20
1068.090507447
 30
0.0
 11
1484.000000000019
 21
1074.090507447
 31
0.0
  0
LINE
  5
219
330
1F
100
AcDbEntity
  8
図
  6
EXLTYPE3
 62
     6
100
AcDbLine
 10
1484.000000000019
 20
1038.090507447
 30
0.0
 11
1484.000000000019
 21
1044.090507447
 31
0.0
  0
LINE
  5
21A
330
1F
100
AcDbEntity
  8
図
  6
EXLTYPE3
 62
     6
100
AcDbLine
 10
1487.00000000002
 20
1041.090507446999
 30
0.0
 11
1481.00000000002
 21
1041.090507446999
 31
0.0
  0
LINE
  5
21B
330
1F
100
AcDbEntity
  8
図
  6
EXLTYPE3
 62
     6
100
AcDbLine
 10
1487.00000000002
 20
1071.090507446997
 30
0.0
 11
1481.00000000002
 21
1071.090507446997
 31
0.0
  0
LINE
  5
21C
330
1F
100
AcDbEntity
  8
図
  6
EXLTYPE3
 62
     6
100
AcDbLine
 10
1487.00000000002
 20
1101.090507447
 30
0.0
 11
1481.00000000002
 21
1101.090507447
 31
0.0
  0
LINE
  5
21D
330
1F
100
AcDbEntity
  8
図
  6
EXLTYPE3
 62
     6
100
AcDbLine
 10
1481.00000000002
 20
1131.090507447
 30
0.0
 11
1487.00000000002
 21
1131.090507447
 31
0.0
  0
LINE
  5
21E
330
1F
100
AcDbEntity
  8
図
  6
EXLTYPE3
 62
     6
100
AcDbLine
 10
1487.00000000002
 20
1160.990507447
 30
0.0
 11
1481.00000000002
 21
1160.990507447
 31
0.0
  0
LINE
  5
21F
330
1F
100
AcDbEntity
  8
図
  6
EXLTYPE3
 62
     6
100
AcDbLine
 10
1487.00000000002
 20
1190.990507446999
 30
0.0
 11
1481.00000000002
 21
1190.990507446999
 31
0.0
  0
LINE
  5
220
330
1F
100
AcDbEntity
  8
図
  6
EXLTYPE3
 62
     6
100
AcDbLine
 10
1487.00000000002
 20
1220.990507446998
 30
0.0
 11
1481.00000000002
 21
1220.990507446998
 31
0.0
  0
LINE
  5
221
330
1F
100
AcDbEntity
  8
図
  6
EXLTYPE3
 62
     6
100
AcDbLine
 10
1487.00000000002
 20
1250.990507446998
 30
0.0
 11
1481.00000000002
 21
1250.990507446998
 31
0.0
  0
LINE
  5
222
330
1F
100
AcDbEntity
  8
図
  6
EXLTYPE3
 62
     6
100
AcDbLine
 10
1481.00000000002
 20
1280.990507446998
 30
0.0
 11
1487.00000000002
 21
1280.990507446998
 31
0.0
  0
LINE
  5
223
330
1F
100
AcDbEntity
  8
図
  6
EXLTYPE3
 62
     6
100
AcDbLine
 10
1402.00000000002
 20
1280.990507446998
 30
0.0
 11
1408.00000000002
 21
1280.990507446998
 31
0.0
  0
LINE
  5
224
330
1F
100
AcDbEntity
  8
図
  6
EXLTYPE3
 62
     6
100
AcDbLine
 10
1405.00000000002
 20
1277.990507447
 30
0.0
 11
1405.00000000002
 21
1283.990507447
 31
0.0
  0
LINE
  5
225
330
1F
100
AcDbEntity
  8
図
  6
EXLTYPE3
 62
     6
100
AcDbLine
 10
1408.00000000002
 20
1250.990507446998
 30
0.0
 11
1402.00000000002
 21
1250.990507446998
 31
0.0
  0
LINE
  5
226
330
1F
100
AcDbEntity
  8
図
  6
EXLTYPE3
 62
     6
100
AcDbLine
 10
1405.00000000002
 20
1247.990507447
 30
0.0
 11
1405.00000000002
 21
1253.990507447
 31
0.0
  0
LINE
  5
227
330
1F
100
AcDbEntity
  8
図
  6
EXLTYPE3
 62
     6
100
AcDbLine
 10
1405.00000000002
 20
1217.990507447
 30
0.0
 11
1405.00000000002
 21
1223.990507447
 31
0.0
  0
LINE
  5
228
330
1F
100
AcDbEntity
  8
図
  6
EXLTYPE3
 62
     6
100
AcDbLine
 10
1408.00000000002
 20
1190.990507446999
 30
0.0
 11
1402.00000000002
 21
1190.990507446999
 31
0.0
  0
LINE
  5
229
330
1F
100
AcDbEntity
  8
図
  6
EXLTYPE3
 62
     6
100
AcDbLine
 10
1405.00000000002
 20
1187.990507447
 30
0.0
 11
1405.00000000002
 21
1193.990507447
 31
0.0
  0
LINE
  5
22A
330
1F
100
AcDbEntity
  8
図
  6
EXLTYPE3
 62
     6
100
AcDbLine
 10
1408.00000000002
 20
1160.990507447
 30
0.0
 11
1402.00000000002
 21
1160.990507447
 31
0.0
  0
LINE
  5
22B
330
1F
100
AcDbEntity
  8
図
  6
EXLTYPE3
 62
     6
100
AcDbLine
 10
1405.00000000002
 20
1157.990507447
 30
0.0
 11
1405.00000000002
 21
1163.990507447
 31
0.0
  0
LINE
  5
22C
330
1F
100
AcDbEntity
  8
図
  6
EXLTYPE3
 62
     6
100
AcDbLine
 10
1402.00000000002
 20
1131.090507447
 30
0.0
 11
1408.00000000002
 21
1131.090507447
 31
0.0
  0
LINE
  5
22D
330
1F
100
AcDbEntity
  8
図
  6
EXLTYPE3
 62
     6
100
AcDbLine
 10
1405.00000000002
 20
1128.090507447
 30
0.0
 11
1405.00000000002
 21
1134.090507447
 31
0.0
  0
LINE
  5
22E
330
1F
100
AcDbEntity
  8
図
  6
EXLTYPE3
 62
     6
100
AcDbLine
 10
1408.00000000002
 20
1101.090507447
 30
0.0
 11
1402.00000000002
 21
1101.090507447
 31
0.0
  0
LINE
  5
22F
330
1F
100
AcDbEntity
  8
図
  6
EXLTYPE3
 62
     6
100
AcDbLine
 10
1405.00000000002
 20
1098.090507447
 30
0.0
 11
1405.00000000002
 21
1104.090507447
 31
0.0
  0
LINE
  5
230
330
1F
100
AcDbEntity
  8
図
  6
EXLTYPE3
 62
     6
100
AcDbLine
 10
1408.00000000002
 20
1071.090507446997
 30
0.0
 11
1402.00000000002
 21
1071.090507446997
 31
0.0
  0
LINE
  5
231
330
1F
100
AcDbEntity
  8
図
  6
EXLTYPE3
 62
     6
100
AcDbLine
 10
1405.00000000002
 20
1068.090507447
 30
0.0
 11
1405.00000000002
 21
1074.090507447
 31
0.0
  0
LINE
  5
232
330
1F
100
AcDbEntity
  8
図
  6
EXLTYPE3
 62
     6
100
AcDbLine
 10
1408.00000000002
 20
1041.090507446999
 30
0.0
 11
1402.00000000002
 21
1041.090507446999
 31
0.0
  0
LINE
  5
233
330
1F
100
AcDbEntity
  8
図
  6
EXLTYPE3
 62
     6
100
AcDbLine
 10
1405.00000000002
 20
1038.090507447
 30
0.0
 11
1405.00000000002
 21
1044.090507447
 31
0.0
  0
LINE
  5
234
330
1F
100
AcDbEntity
  8
図
  6
EXLTYPE3
 62
     6
100
AcDbLine
 10
1405.00000000002
 20
1008.090507447
 30
0.0
 11
1405.00000000002
 21
1014.090507447
 31
0.0
  0
LINE
  5
235
330
1F
100
AcDbEntity
  8
図
  6
EXLTYPE3
 62
     6
100
AcDbLine
 10
1402.00000000002
 20
1011.090507446998
 30
0.0
 11
1408.00000000002
 21
1011.090507446998
 31
0.0
  0
LINE
  5
236
330
1F
100
AcDbEntity
  8
図
  6
EXLTYPE3
 62
     6
100
AcDbLine
 10
1481.00000000002
 20
1011.090507446998
 30
0.0
 11
1487.00000000002
 21
1011.090507446998
 31
0.0
  0
LINE
  5
237
330
1F
100
AcDbEntity
  8
図
  6
EXLTYPE3
 62
     6
100
AcDbLine
 10
1484.000000000019
 20
1008.090507447
 30
0.0
 11
1484.00000000002
 21
1014.090507447
 31
0.0
  0
LINE
  5
238
330
1F
100
AcDbEntity
  8
図
  6
EXLTYPE3
 62
     6
100
AcDbLine
 10
1408.00000000002
 20
1220.990507446998
 30
0.0
 11
1401.200000000019
 21
1220.990507446998
 31
0.0
  0
LINE
  5
239
330
1F
100
AcDbEntity
  8
図
  6
EXLTYPE3
 62
     6
100
AcDbLine
 10
1484.00000000002
 20
1607.890507447
 30
0.0
 11
1484.00000000002
 21
1613.890507447
 31
0.0
  0
LINE
  5
23A
330
1F
100
AcDbEntity
  8
図
  6
EXLTYPE3
 62
     6
100
AcDbLine
 10
1484.00000000002
 20
1577.890507447
 30
0.0
 11
1484.00000000002
 21
1583.890507447
 31
0.0
  0
LINE
  5
23B
330
1F
100
AcDbEntity
  8
図
  6
EXLTYPE3
 62
     6
100
AcDbLine
 10
1484.00000000002
 20
1547.890507447
 30
0.0
 11
1484.00000000002
 21
1553.890507447
 31
0.0
  0
LINE
  5
23C
330
1F
100
AcDbEntity
  8
図
  6
EXLTYPE3
 62
     6
100
AcDbLine
 10
1484.00000000002
 20
1517.890507447
 30
0.0
 11
1484.00000000002
 21
1523.890507447
 31
0.0
  0
LINE
  5
23D
330
1F
100
AcDbEntity
  8
図
  6
EXLTYPE3
 62
     6
100
AcDbLine
 10
1484.00000000002
 20
1487.890507447
 30
0.0
 11
1484.00000000002
 21
1493.890507447
 31
0.0
  0
LINE
  5
23E
330
1F
100
AcDbEntity
  8
図
  6
EXLTYPE3
 62
     6
100
AcDbLine
 10
1484.00000000002
 20
1457.990507447
 30
0.0
 11
1484.00000000002
 21
1463.990507447
 31
0.0
  0
LINE
  5
23F
330
1F
100
AcDbEntity
  8
図
  6
EXLTYPE3
 62
     6
100
AcDbLine
 10
1484.00000000002
 20
1427.990507447
 30
0.0
 11
1484.00000000002
 21
1433.990507447
 31
0.0
  0
LINE
  5
240
330
1F
100
AcDbEntity
  8
図
  6
EXLTYPE3
 62
     6
100
AcDbLine
 10
1484.00000000002
 20
1397.990507447
 30
0.0
 11
1484.00000000002
 21
1403.990507447
 31
0.0
  0
LINE
  5
241
330
1F
100
AcDbEntity
  8
図
  6
EXLTYPE3
 62
     6
100
AcDbLine
 10
1484.00000000002
 20
1367.990507447
 30
0.0
 11
1484.00000000002
 21
1373.990507447
 31
0.0
  0
LINE
  5
242
330
1F
100
AcDbEntity
  8
図
  6
EXLTYPE3
 62
     6
100
AcDbLine
 10
1487.00000000002
 20
1370.990507446999
 30
0.0
 11
1481.00000000002
 21
1370.990507446999
 31
0.0
  0
LINE
  5
243
330
1F
100
AcDbEntity
  8
図
  6
EXLTYPE3
 62
     6
100
AcDbLine
 10
1487.00000000002
 20
1400.990507446998
 30
0.0
 11
1481.00000000002
 21
1400.990507446998
 31
0.0
  0
LINE
  5
244
330
1F
100
AcDbEntity
  8
図
  6
EXLTYPE3
 62
     6
100
AcDbLine
 10
1487.00000000002
 20
1430.990507447
 30
0.0
 11
1481.00000000002
 21
1430.990507447
 31
0.0
  0
LINE
  5
245
330
1F
100
AcDbEntity
  8
図
  6
EXLTYPE3
 62
     6
100
AcDbLine
 10
1481.00000000002
 20
1460.990507447
 30
0.0
 11
1487.00000000002
 21
1460.990507447
 31
0.0
  0
LINE
  5
246
330
1F
100
AcDbEntity
  8
図
  6
EXLTYPE3
 62
     6
100
AcDbLine
 10
1487.00000000002
 20
1490.890507447
 30
0.0
 11
1481.00000000002
 21
1490.890507447
 31
0.0
  0
LINE
  5
247
330
1F
100
AcDbEntity
  8
図
  6
EXLTYPE3
 62
     6
100
AcDbLine
 10
1487.00000000002
 20
1520.890507446999
 30
0.0
 11
1481.00000000002
 21
1520.890507446999
 31
0.0
  0
LINE
  5
248
330
1F
100
AcDbEntity
  8
図
  6
EXLTYPE3
 62
     6
100
AcDbLine
 10
1487.00000000002
 20
1550.890507446998
 30
0.0
 11
1481.00000000002
 21
1550.890507446998
 31
0.0
  0
LINE
  5
249
330
1F
100
AcDbEntity
  8
図
  6
EXLTYPE3
 62
     6
100
AcDbLine
 10
1487.00000000002
 20
1580.890507446998
 30
0.0
 11
1481.00000000002
 21
1580.890507446998
 31
0.0
  0
LINE
  5
24A
330
1F
100
AcDbEntity
  8
図
  6
EXLTYPE3
 62
     6
100
AcDbLine
 10
1481.00000000002
 20
1610.890507446998
 30
0.0
 11
1487.00000000002
 21
1610.890507446998
 31
0.0
  0
LINE
  5
24B
330
1F
100
AcDbEntity
  8
図
  6
EXLTYPE3
 62
     6
100
AcDbLine
 10
1402.00000000002
 20
1610.890507446998
 30
0.0
 11
1408.00000000002
 21
1610.890507446998
 31
0.0
  0
LINE
  5
24C
330
1F
100
AcDbEntity
  8
図
  6
EXLTYPE3
 62
     6
100
AcDbLine
 10
1405.00000000002
 20
1607.890507447
 30
0.0
 11
1405.00000000002
 21
1613.890507447
 31
0.0
  0
LINE
  5
24D
330
1F
100
AcDbEntity
  8
図
  6
EXLTYPE3
 62
     6
100
AcDbLine
 10
1408.00000000002
 20
1580.890507446998
 30
0.0
 11
1402.00000000002
 21
1580.890507446998
 31
0.0
  0
LINE
  5
24E
330
1F
100
AcDbEntity
  8
図
  6
EXLTYPE3
 62
     6
100
AcDbLine
 10
1405.00000000002
 20
1577.890507447
 30
0.0
 11
1405.00000000002
 21
1583.890507447
 31
0.0
  0
LINE
  5
24F
330
1F
100
AcDbEntity
  8
図
  6
EXLTYPE3
 62
     6
100
AcDbLine
 10
1405.00000000002
 20
1547.890507447
 30
0.0
 11
1405.00000000002
 21
1553.890507447
 31
0.0
  0
LINE
  5
250
330
1F
100
AcDbEntity
  8
図
  6
EXLTYPE3
 62
     6
100
AcDbLine
 10
1408.00000000002
 20
1520.890507446999
 30
0.0
 11
1402.00000000002
 21
1520.890507446999
 31
0.0
  0
LINE
  5
251
330
1F
100
AcDbEntity
  8
図
  6
EXLTYPE3
 62
     6
100
AcDbLine
 10
1405.00000000002
 20
1517.890507447
 30
0.0
 11
1405.00000000002
 21
1523.890507447
 31
0.0
  0
LINE
  5
252
330
1F
100
AcDbEntity
  8
図
  6
EXLTYPE3
 62
     6
100
AcDbLine
 10
1408.00000000002
 20
1490.890507447
 30
0.0
 11
1402.00000000002
 21
1490.890507447
 31
0.0
  0
LINE
  5
253
330
1F
100
AcDbEntity
  8
図
  6
EXLTYPE3
 62
     6
100
AcDbLine
 10
1405.00000000002
 20
1487.890507447
 30
0.0
 11
1405.00000000002
 21
1493.890507447
 31
0.0
  0
LINE
  5
254
330
1F
100
AcDbEntity
  8
図
  6
EXLTYPE3
 62
     6
100
AcDbLine
 10
1402.00000000002
 20
1460.990507447
 30
0.0
 11
1408.00000000002
 21
1460.990507447
 31
0.0
  0
LINE
  5
255
330
1F
100
AcDbEntity
  8
図
  6
EXLTYPE3
 62
     6
100
AcDbLine
 10
1405.00000000002
 20
1457.990507447
 30
0.0
 11
1405.00000000002
 21
1463.990507447
 31
0.0
  0
LINE
  5
256
330
1F
100
AcDbEntity
  8
図
  6
EXLTYPE3
 62
     6
100
AcDbLine
 10
1408.00000000002
 20
1430.990507447
 30
0.0
 11
1402.00000000002
 21
1430.990507447
 31
0.0
  0
LINE
  5
257
330
1F
100
AcDbEntity
  8
図
  6
EXLTYPE3
 62
     6
100
AcDbLine
 10
1405.00000000002
 20
1427.990507447
 30
0.0
 11
1405.00000000002
 21
1433.990507447
 31
0.0
  0
LINE
  5
258
330
1F
100
AcDbEntity
  8
図
  6
EXLTYPE3
 62
     6
100
AcDbLine
 10
1408.00000000002
 20
1400.990507446998
 30
0.0
 11
1402.00000000002
 21
1400.990507446998
 31
0.0
  0
LINE
  5
259
330
1F
100
AcDbEntity
  8
図
  6
EXLTYPE3
 62
     6
100
AcDbLine
 10
1405.00000000002
 20
1397.990507447
 30
0.0
 11
1405.00000000002
 21
1403.990507447
 31
0.0
  0
LINE
  5
25A
330
1F
100
AcDbEntity
  8
図
  6
EXLTYPE3
 62
     6
100
AcDbLine
 10
1408.00000000002
 20
1370.990507446999
 30
0.0
 11
1402.00000000002
 21
1370.990507446999
 31
0.0
  0
LINE
  5
25B
330
1F
100
AcDbEntity
  8
図
  6
EXLTYPE3
 62
     6
100
AcDbLine
 10
1405.00000000002
 20
1367.990507447
 30
0.0
 11
1405.00000000002
 21
1373.990507447
 31
0.0
  0
LINE
  5
25C
330
1F
100
AcDbEntity
  8
図
  6
EXLTYPE3
 62
     6
100
AcDbLine
 10
1405.00000000002
 20
1337.990507447
 30
0.0
 11
1405.00000000002
 21
1343.990507447
 31
0.0
  0
LINE
  5
25D
330
1F
100
AcDbEntity
  8
図
  6
EXLTYPE3
 62
     6
100
AcDbLine
 10
1402.00000000002
 20
1340.990507446998
 30
0.0
 11
1408.00000000002
 21
1340.990507446998
 31
0.0
  0
LINE
  5
25E
330
1F
100
AcDbEntity
  8
図
  6
EXLTYPE3
 62
     6
100
AcDbLine
 10
1481.00000000002
 20
1340.990507446998
 30
0.0
 11
1487.00000000002
 21
1340.990507446998
 31
0.0
  0
LINE
  5
25F
330
1F
100
AcDbEntity
  8
図
  6
EXLTYPE3
 62
     6
100
AcDbLine
 10
1484.00000000002
 20
1337.990507447
 30
0.0
 11
1484.00000000002
 21
1343.990507447
 31
0.0
  0
LINE
  5
260
330
1F
100
AcDbEntity
  8
図
  6
EXLTYPE3
 62
     6
100
AcDbLine
 10
1408.00000000002
 20
1550.890507446998
 30
0.0
 11
1401.20000000002
 21
1550.890507446998
 31
0.0
  0
LINE
  5
261
330
1F
100
AcDbEntity
  8
図
  6
CONTINUOUS
 62
     2
100
AcDbLine
 10
1383.70000000002
 20
1303.490507446998
 30
0.0
 11
1383.70000000002
 21
1318.490507447
 31
0.0
  0
LINE
  5
262
330
1F
100
AcDbEntity
  8
図
  6
CONTINUOUS
 62
     2
100
AcDbLine
 10
1509.00000000002
 20
1303.490507446998
 30
0.0
 11
1383.70000000002
 21
1303.490507446998
 31
0.0
  0
LINE
  5
263
330
1F
100
AcDbEntity
  8
図
  6
CONTINUOUS
 62
     2
100
AcDbLine
 10
1509.00000000002
 20
1318.490507447
 30
0.0
 11
1383.70000000002
 21
1318.490507447
 31
0.0
  0
LINE
  5
264
330
1F
100
AcDbEntity
  8
図
  6
CONTINUOUS
 62
     2
100
AcDbLine
 10
1380.00000000002
 20
1760.990507447
 30
0.0
 11
1512.00000000002
 21
1760.990507447
 31
0.0
  0
LINE
  5
265
330
1F
100
AcDbEntity
  8
図
  6
CONTINUOUS
 62
     2
100
AcDbLine
 10
1380.00000000002
 20
860.990507447
 30
0.0
 11
1380.00000000002
 21
1760.990507447
 31
0.0
  0
LINE
  5
266
330
1F
100
AcDbEntity
  8
図
  6
CONTINUOUS
 62
     2
100
AcDbLine
 10
1509.00000000002
 20
1745.990507447
 30
0.0
 11
1380.00000000002
 21
1745.990507447
 31
0.0
  0
LINE
  5
267
330
1F
100
AcDbEntity
  8
図
  6
CONTINUOUS
 62
     2
100
AcDbLine
 10
1380.00000000002
 20
875.9905074470003
 30
0.0
 11
1509.00000000002
 21
875.9905074470003
 31
0.0
  0
LINE
  5
268
330
1F
100
AcDbEntity
  8
図
  6
CONTINUOUS
 62
     2
100
AcDbLine
 10
1509.00000000002
 20
860.990507447
 30
0.0
 11
1509.00000000002
 21
1760.990507447
 31
0.0
  0
LINE
  5
269
330
1F
100
AcDbEntity
  8
図
  6
CONTINUOUS
 62
     2
100
AcDbLine
 10
1380.00000000002
 20
860.9905074470003
 30
0.0
 11
1512.00000000002
 21
860.9905074470003
 31
0.0
  0
LINE
  5
26A
330
1F
100
AcDbEntity
  8
図
  6
CONTINUOUS
 62
     2
100
AcDbLine
 10
1512.00000000002
 20
1760.990507447
 30
0.0
 11
1512.00000000002
 21
860.9905074470003
 31
0.0
  0
DIMENSION
  5
26B
330
1F
100
AcDbEntity
  8
図
  6
CONTINUOUS
 62
     3
100
AcDbDimension
  2
*D26
 10
1639.0
 20
1716.990507447
 30
0.0
 11
1615.500000059605
 21
1810.990507446999
 31
0.0
 70
   160
  3
ISO-25
100
AcDbAlignedDimension
 13
1509.0
 23
1745.990507447
 33
0.0
 14
1439.0
 24
1716.990507447
 34
0.0
 50
90.0
100
AcDbRotatedDimension
1001
ACAD
1000
DSTYLE
1002
{
1070
   270
1070
     2
1070
     6
1000
EX_NORM
1070
     7
1000
EX_NORM
1070
    41
1040
30.0
1070
    42
1040
6.99999988079071
1070
    44
1040
9.999999999999773
1070
    73
1070
     0
1070
    74
1070
     0
1070
    75
1070
     0
1070
    76
1070
     0
1070
    77
1070
     1
1070
    78
1070
     0
1070
   140
1040
40.0
1070
   147
1040
0.0
1070
   173
1070
     1
1070
   176
1070
     3
1070
   177
1070
     3
1070
   178
1070
     2
1070
   271
1070
     0
1070
   277
1070
     2
1070
   279
1070
     2
1070
   280
1070
     1
1070
   287
1070
     5
1070
   340
1005
168
1002
}
  0
DIMENSION
  5
27A
330
1F
100
AcDbEntity
  8
図
  6
CONTINUOUS
 62
     3
100
AcDbDimension
  2
*D27
 10
1638.999999999992
 20
875.990507447
 30
0.0
 11
1615.500000059597
 21
810.9905074469996
 31
0.0
 70
   160
  3
ISO-25
100
AcDbAlignedDimension
 13
1439.0
 23
904.9905074470001
 33
0.0
 14
1509.0
 24
875.990507447
 34
0.0
 50
90.0
100
AcDbRotatedDimension
1001
ACAD
1000
DSTYLE
1002
{
1070
   270
1070
     2
1070
     6
1000
EX_NORM
1070
     7
1000
EX_NORM
1070
    41
1040
30.0
1070
    42
1040
6.99999988079071
1070
    44
1040
9.999999999999545
1070
    73
1070
     0
1070
    74
1070
     0
1070
    75
1070
     0
1070
    76
1070
     0
1070
    77
1070
     1
1070
    78
1070
     0
1070
   140
1040
40.0
1070
   147
1040
0.0
1070
   173
1070
     1
1070
   176
1070
     3
1070
   177
1070
     3
1070
   178
1070
     2
1070
   271
1070
     0
1070
   277
1070
     2
1070
   279
1070
     2
1070
   280
1070
     2
1070
   287
1070
     5
1070
   340
1005
168
1002
}
  0
DIMENSION
  5
289
330
1F
100
AcDbEntity
  8
図
  6
CONTINUOUS
 62
     3
100
AcDbDimension
  2
*D28
 10
523.0
 20
2040.0
 30
0.0
 11
499.5000000596052
 21
1975.0
 31
0.0
 70
   160
  3
ISO-25
100
AcDbAlignedDimension
 13
566.80105127492
 23
2058.0
 33
0.0
 14
566.80105127492
 24
2040.0
 34
0.0
 50
90.0
100
AcDbRotatedDimension
1001
ACAD
1000
DSTYLE
1002
{
1070
   270
1070
     2
1070
     6
1000
EX_NORM
1070
     7
1000
EX_NORM
1070
    41
1040
30.0
1070
    42
1040
6.99999988079071
1070
    44
1040
10.0
1070
    73
1070
     0
1070
    74
1070
     0
1070
    75
1070
     0
1070
    76
1070
     0
1070
    77
1070
     1
1070
    78
1070
     0
1070
   140
1040
40.0
1070
   147
1040
0.0
1070
   173
1070
     1
1070
   176
1070
     3
1070
   177
1070
     3
1070
   178
1070
     2
1070
   271
1070
     0
1070
   277
1070
     2
1070
   279
1070
     2
1070
   280
1070
     2
1070
   287
1070
     5
1070
   340
1005
168
1002
}
  0
TEXT
  5
298
330
1F
100
AcDbEntity
  8
図
  6
CONTINUOUS
 62
     2
100
AcDbText
 10
1022.0
 20
1976.499999940395
 30
0.0
 40
40.0
  1
仕上壁
 41
1.132352941176471
  7
EXCADSTD
 72
     5
 11
1132.0
 21
1976.499999940395
 31
0.0
100
AcDbText
  0
LEADER
  5
299
330
1F
100
AcDbEntity
  8
図
  6
CONTINUOUS
 62
     3
100
AcDbLeader
  3
ISO-25
 76
     3
 10
987.0000000000005
 20
2058.0
 30
0.0
 10
1022.0
 20
1973.0
 30
0.0
 10
1129.8
 20
1973.0
 30
0.0
1001
ACAD
1000
DSTYLE
1002
{
1070
     5
1000
EX_NORM
1070
    41
1040
30.0
1070
   341
1005
4C
1002
}
  0
TEXT
  5
29A
330
1F
100
AcDbEntity
  8
図
  6
CONTINUOUS
 62
     2
100
AcDbText
 10
845.7000000000002
 20
2313.699999940396
 30
0.0
 40
40.0
  1
間柱等
 41
1.132352941176471
  7
EXCADSTD
 72
     5
 11
955.7000000000002
 21
2313.699999940396
 31
0.0
100
AcDbText
  0
LEADER
  5
29B
330
1F
100
AcDbEntity
  8
図
  6
CONTINUOUS
 62
     3
100
AcDbLeader
  3
ISO-25
 76
     3
 10
933.0000000000005
 20
2172.0
 30
0.0
 10
845.7000000000003
 20
2310.2
 30
0.0
 10
953.1000000000001
 20
2310.2
 30
0.0
1001
ACAD
1000
DSTYLE
1002
{
1070
     5
1000
EX_NORM
1070
    41
1040
30.0
1070
   341
1005
4C
1002
}
  0
LINE
  5
29C
330
1F
100
AcDbEntity
  8
図
  6
CONTINUOUS
 62
     2
100
AcDbLine
 10
566.80105127492
 20
2172.0
 30
0.0
 11
915.80105127492
 21
2172.0
 31
0.0
  0
LINE
  5
29D
330
1F
100
AcDbEntity
  8
図
  6
CONTINUOUS
 62
     2
100
AcDbLine
 10
566.80105127492
 20
2040.0
 30
0.0
 11
566.80105127492
 21
2172.0
 31
0.0
  0
LINE
  5
29E
330
1F
100
AcDbEntity
  8
図
  6
CONTINUOUS
 62
     2
100
AcDbLine
 10
915.80105127492
 20
2040.0
 30
0.0
 11
915.80105127492
 21
2172.0
 31
0.0
  0
LINE
  5
29F
330
1F
100
AcDbEntity
  8
図
  6
CONTINUOUS
 62
     2
100
AcDbLine
 10
915.80105127492
 20
2040.0
 30
0.0
 11
566.80105127492
 21
2040.0
 31
0.0
  0
LINE
  5
2A0
330
1F
100
AcDbEntity
  8
図
  6
CONTINUOUS
 62
     2
100
AcDbLine
 10
915.80105127492
 20
2169.0
 30
0.0
 11
566.80105127492
 21
2169.0
 31
0.0
  0
LINE
  5
2A1
330
1F
100
AcDbEntity
  8
図
  6
CONTINUOUS
 62
     2
100
AcDbLine
 10
900.801051274921
 20
2040.0
 30
0.0
 11
900.801051274921
 21
2169.0
 31
0.0
  0
LINE
  5
2A2
330
1F
100
AcDbEntity
  8
図
  6
CONTINUOUS
 62
     2
100
AcDbLine
 10
581.801051274921
 20
2040.0
 30
0.0
 11
581.801051274921
 21
2169.0
 31
0.0
  0
LINE
  5
2A3
330
1F
100
AcDbEntity
  8
図
  6
CONTINUOUS
 62
     6
100
AcDbLine
 10
539.1311782935412
 20
2096.499999999982
 30
0.0
 11
529.8010512747427
 21
2093.999999999982
 31
0.0
  0
LINE
  5
2A4
330
1F
100
AcDbEntity
  8
図
  6
CONTINUOUS
 62
     6
100
AcDbLine
 10
539.1311782935412
 20
2091.499999999982
 30
0.0
 11
529.8010512747427
 21
2093.999999999982
 31
0.0
  0
LINE
  5
2A5
330
1F
100
AcDbEntity
  8
図
  6
CONTINUOUS
 62
     6
100
AcDbLine
 10
539.1311782935412
 20
2091.499999999982
 30
0.0
 11
566.8010512749291
 21
2091.499999999982
 31
0.0
  0
LINE
  5
2A6
330
1F
100
AcDbEntity
  8
図
  6
CONTINUOUS
 62
     6
100
AcDbLine
 10
566.8010512749291
 20
2096.499999999982
 30
0.0
 11
539.1311782935412
 21
2096.499999999982
 31
0.0
  0
LINE
  5
2A7
330
1F
100
AcDbEntity
  8
図
  6
EXLTYPE3
 62
     6
100
AcDbLine
 10
569.8073184948393
 20
2094.000000000004
 30
0.0
 11
523.5073184948395
 21
2094.000000000004
 31
0.0
  0
LINE
  5
2A8
330
1F
100
AcDbEntity
  8
図
  6
CONTINUOUS
 62
     6
100
AcDbLine
 10
943.4709242562991
 20
2091.500000000018
 30
0.0
 11
952.8010512750976
 21
2094.000000000018
 31
0.0
  0
LINE
  5
2A9
330
1F
100
AcDbEntity
  8
図
  6
CONTINUOUS
 62
     6
100
AcDbLine
 10
943.4709242562991
 20
2096.500000000018
 30
0.0
 11
952.8010512750976
 21
2094.000000000018
 31
0.0
  0
LINE
  5
2AA
330
1F
100
AcDbEntity
  8
図
  6
CONTINUOUS
 62
     6
100
AcDbLine
 10
943.4709242562991
 20
2096.500000000018
 30
0.0
 11
915.8010512749112
 21
2096.500000000018
 31
0.0
  0
LINE
  5
2AB
330
1F
100
AcDbEntity
  8
図
  6
CONTINUOUS
 62
     6
100
AcDbLine
 10
915.8010512749112
 20
2091.500000000018
 30
0.0
 11
943.4709242562991
 21
2091.500000000018
 31
0.0
  0
LINE
  5
2AC
330
1F
100
AcDbEntity
  8
図
  6
EXLTYPE3
 62
     6
100
AcDbLine
 10
912.7947840550011
 20
2093.999999999996
 30
0.0
 11
959.0947840550008
 21
2093.999999999996
 31
0.0
  0
LINE
  5
2AD
330
1F
100
AcDbEntity
  8
図
  6
EXLTYPE4
 62
     3
100
AcDbLine
 10
536.80105127492
 20
2172.0
 30
0.0
 11
566.80105127492
 21
2073.0
 31
0.0
  0
LINE
  5
2AE
330
1F
100
AcDbEntity
  8
図
  6
EXLTYPE4
 62
     3
100
AcDbLine
 10
915.80105127492
 20
2172.0
 30
0.0
 11
945.80105127492
 21
2073.0
 31
0.0
  0
LINE
  5
2AF
330
1F
100
AcDbEntity
  8
図
  6
EXLTYPE4
 62
     3
100
AcDbLine
 10
536.801051274921
 20
2073.0
 30
0.0
 11
536.801051274921
 21
2172.0
 31
0.0
  0
LINE
  5
2B0
330
1F
100
AcDbEntity
  8
図
  6
EXLTYPE4
 62
     3
100
AcDbLine
 10
945.801051274921
 20
2073.0
 30
0.0
 11
945.801051274921
 21
2172.0
 31
0.0
  0
LINE
  5
2B1
330
1F
100
AcDbEntity
  8
図
  6
EXLTYPE4
 62
     3
100
AcDbLine
 10
566.80105127492
 20
2172.0
 30
0.0
 11
466.801051274921
 21
2172.0
 31
0.0
  0
LINE
  5
2B2
330
1F
100
AcDbEntity
  8
図
  6
EXLTYPE4
 62
     3
100
AcDbLine
 10
566.80105127492
 20
2073.0
 30
0.0
 11
466.801051274921
 21
2073.0
 31
0.0
  0
LINE
  5
2B3
330
1F
100
AcDbEntity
  8
図
  6
EXLTYPE4
 62
     3
100
AcDbLine
 10
566.80105127492
 20
2058.0
 30
0.0
 11
466.801051274921
 21
2058.0
 31
0.0
  0
LINE
  5
2B4
330
1F
100
AcDbEntity
  8
図
  6
EXLTYPE4
 62
     3
100
AcDbLine
 10
1015.801051274919
 20
2187.0
 30
0.0
 11
466.801051274921
 21
2187.0
 31
0.0
  0
LINE
  5
2B5
330
1F
100
AcDbEntity
  8
図
  6
EXLTYPE4
 62
     3
100
AcDbLine
 10
915.80105127492
 20
2172.0
 30
0.0
 11
1015.801051274919
 21
2172.0
 31
0.0
  0
LINE
  5
2B6
330
1F
100
AcDbEntity
  8
図
  6
EXLTYPE4
 62
     3
100
AcDbLine
 10
1015.801051274919
 20
2073.0
 30
0.0
 11
915.80105127492
 21
2073.0
 31
0.0
  0
LINE
  5
2B7
330
1F
100
AcDbEntity
  8
図
  6
EXLTYPE4
 62
     3
100
AcDbLine
 10
1015.801051274919
 20
2058.0
 30
0.0
 11
915.80105127492
 21
2058.0
 31
0.0
  0
LEADER
  5
2B8
330
1F
100
AcDbEntity
  8
図
  6
CONTINUOUS
 62
     3
100
AcDbLeader
  3
ISO-25
 76
     2
 10
549.4
 20
2172.0
 30
0.0
 10
845.6999999999999
 20
2310.2
 30
0.0
1001
ACAD
1000
DSTYLE
1002
{
1070
     5
1000
EX_NORM
1070
    41
1040
30.0
1070
   341
1005
4C
1002
}
  0
ENDSEC
  0
SECTION
  2
OBJECTS
  0
DICTIONARY
  5
C
330
0
100
AcDbDictionary
  3
ACAD_GROUP
350
D
  3
ACAD_LAYOUT
350
1A
  3
ACAD_MATERIAL
350
3B
  3
ACAD_MLEADERSTYLE
350
2DB
  3
ACAD_MLINESTYLE
350
17
  3
ACAD_PLOTSETTINGS
350
19
  3
ACAD_VISUALSTYLE
350
2A
  3
ACDBHEADERROUNDTRIPXREC
350
2B9
  3
ACDBVARIABLEDICTIONARY
350
2D9
  0
DICTIONARY
  5
D
102
{ACAD_REACTORS
330
C
102
}
330
C
100
AcDbDictionary
  0
DICTIONARY
  5
1A
102
{ACAD_REACTORS
330
C
102
}
330
C
100
AcDbDictionary
  0
DICTIONARY
  5
3B
102
{ACAD_REACTORS
330
C
102
}
330
C
100
AcDbDictionary
  3
BYBLOCK
350
3D
  3
BYLAYER
350
3C
  3
GLOBAL
350
3E
  0
DICTIONARY
  5
2DB
102
{ACAD_REACTORS
330
C
102
}
330
C
100
AcDbDictionary
  0
DICTIONARY
  5
17
102
{ACAD_REACTORS
330
C
102
}
330
C
100
AcDbDictionary
  3
STANDARD
350
18
  0
DICTIONARY
  5
19
102
{ACAD_REACTORS
330
C
102
}
330
C
100
AcDbDictionary
  0
DICTIONARY
  5
2A
102
{ACAD_REACTORS
330
C
102
}
330
C
100
AcDbDictionary
  3
2DWIREFRAME
350
2F
  3
3D_HIDDEN
350
31
  3
3DWIREFRAME
350
30
  3
BASIC
350
32
  3
BRIGHTEN
350
36
  3
COLORCHANGE
350
3A
  3
CONCEPTUAL
350
34
  3
DIM
350
35
  3
FACEPATTERN
350
39
  3
FLAT
350
2B
  3
FLATWITHEDGES
350
2C
  3
GOURAUD
350
2D
  3
GOURAUDWITHEDGES
350
2E
  3
LINEPATTERN
350
38
  3
REALISTIC
350
33
  3
THICKEN
350
37
  0
DICTIONARY
  5
2B9
102
{ACAD_REACTORS
330
C
102
}
330
C
100
AcDbDictionary
  3
CEPSNTYPE
350
2C2
  3
DIMSTYLEDATA
350
2D8
  3
FINGERPRINTGUID
350
2C3
  3
HYPERLINKBASE
350
2BC
  3
INSUNITS
350
2C1
  3
LAYOUTDICT
350
2BE
  3
LWETCUNION
350
2C0
  3
PLOTSETDICT
350
2BF
  3
PSVPSCALE
350
2C5
  3
PUCSBASE
350
2C8
  3
PUCSORGBACK
350
2CE
  3
PUCSORGBOTTOM
350
2CA
  3
PUCSORGFRONT
350
2CD
  3
PUCSORGLEFT
350
2CB
  3
PUCSORGRIGHT
350
2CC
  3
PUCSORGTOP
350
2C9
  3
PUCSORTHOREF
350
2C6
  3
PUCSORTHOVIEW
350
2C7
  3
STYLESHEET
350
2BD
  3
TSTACKALIGN
350
2BA
  3
TSTACKSIZE
350
2BB
  3
UCSBASE
350
2D1
  3
UCSORGBACK
350
2D7
  3
UCSORGBOTTOM
350
2D3
  3
UCSORGFRONT
350
2D6
  3
UCSORGLEFT
350
2D4
  3
UCSORGRIGHT
350
2D5
  3
UCSORGTOP
350
2D2
  3
UCSORTHOREF
350
2CF
  3
UCSORTHOVIEW
350
2D0
  3
VERSIONGUID
350
2C4
  0
DICTIONARY
  5
2D9
102
{ACAD_REACTORS
330
C
102
}
330
C
100
AcDbDictionary
  3
DIMASSOC
350
2DE
  3
HIDETEXT
350
2DF
  3
PSOLHEIGHT
350
2DD
  3
PSOLWIDTH
350
2DC
  0
MATERIAL
  5
3D
102
{ACAD_REACTORS
330
3B
102
}
102
{ACAD_XDICTIONARY
360
2E2
102
}
330
3B
100
AcDbMaterial
  1
ByBlock
  0
MATERIAL
  5
3C
102
{ACAD_REACTORS
330
3B
102
}
102
{ACAD_XDICTIONARY
360
2E0
102
}
330
3B
100
AcDbMaterial
  1
ByLayer
  0
MATERIAL
  5
3E
102
{ACAD_REACTORS
330
3B
102
}
102
{ACAD_XDICTIONARY
360
2E4
102
}
330
3B
100
AcDbMaterial
  1
Global
  0
MLINESTYLE
  5
18
102
{ACAD_REACTORS
330
17
102
}
330
17
100
AcDbMlineStyle
  2
Standard
 70
     0
  3

 62
   256
 51
90.0
 52
90.0
 71
     2
 49
0.5
 62
   256
  6
BYLAYER
 49
-0.5
 62
   256
  6
BYLAYER
  0
ACAD_PROXY_OBJECT
  5
2F
102
{ACAD_REACTORS
330
2A
102
}
330
2A
100
AcDbProxyObject
 90
      499
 91
      501
 93
      436
310
42CC9915DA5C99599C985B595049028333333333333E3BF0000000000000FB0107901411070040501600405405064090741402480A0340
1001
ACAD
1000
AcDbSavedByObjectVersion
1070
     0
  0
ACAD_PROXY_OBJECT
  5
31
102
{ACAD_REACTORS
330
2A
102
}
330
2A
100
AcDbProxyObject
 90
      499
 91
      501
 93
      500
310
424CD108121A5919195B90640502408333333333333E3BF0000000000000FB01079024090700405020000000000001110200405405064090740C02480A0340
1001
ACAD
1000
AcDbSavedByObjectVersion
1070
     0
  0
ACAD_PROXY_OBJECT
  5
30
102
{ACAD_REACTORS
330
2A
102
}
330
2A
100
AcDbProxyObject
 90
      499
 91
      501
 93
      436
310
42CCD915DA5C99599C985B595059028333333333333E3BF0000000000000FB0107901411070040501600405405064090741402480A0340
1001
ACAD
1000
AcDbSavedByObjectVersion
1070
     0
  0
ACAD_PROXY_OBJECT
  5
32
102
{ACAD_REACTORS
330
2A
102
}
330
2A
100
AcDbProxyObject
 90
      499
 91
      501
 93
      388
310
4150985CDA58D07406404333333333333E3BF0000000000000FB0107A41107004050150841D405064090741402480A0350
1001
ACAD
1000
AcDbSavedByObjectVersion
1070
     0
  0
ACAD_PROXY_OBJECT
  5
36
102
{ACAD_REACTORS
330
2A
102
}
330
2A
100
AcDbProxyObject
 90
      499
 91
      501
 93
      428
310
42109C9A59DA1D195B90C409028333333333333E3BF0000000000000FB010790141107004050150841D405064090741402480A029950
1001
ACAD
1000
AcDbSavedByObjectVersion
1070
     0
  0
ACAD_PROXY_OBJECT
  5
3A
102
{ACAD_REACTORS
330
2A
102
}
330
2A
100
AcDbProxyObject
 90
      499
 91
      501
 93
      452
310
42D0DBDB1BDC90DA185B99D95104090240C333333333333E3BF0000000000000FB0108901411070040501508421405064090741402480A0350
1001
ACAD
1000
AcDbSavedByObjectVersion
1070
     0
  0
ACAD_PROXY_OBJECT
  5
34
102
{ACAD_REACTORS
330
2A
102
}
330
2A
100
AcDbProxyObject
 90
      499
 91
      501
 93
      500
310
4290DBDB98D95C1D1D585B10940D028333333333333E3BF0000000000000FB0107902409070040501000000000000111010841D405064090740C02480A0340
1001
ACAD
1000
AcDbSavedByObjectVersion
1070
     0
  0
ACAD_PROXY_OBJECT
  5
35
102
{ACAD_REACTORS
330
2A
102
}
330
2A
100
AcDbProxyObject
 90
      499
 91
      501
 93
      412
310
40D11A5B50B409028333333333333E3BF0000000000000FB010790141107004050150841D405064090741402480A02677FFFFFD0
1001
ACAD
1000
AcDbSavedByObjectVersion
1070
     0
  0
ACAD_PROXY_OBJECT
  5
39
102
{ACAD_REACTORS
330
2A
102
}
330
2A
100
AcDbProxyObject
 90
      499
 91
      501
 93
      444
310
42D19858D95C185D1D195C9B90F409028333333333333E3BF0000000000000FB010790141107004050150841D405064090741402480A0350
1001
ACAD
1000
AcDbSavedByObjectVersion
1070
     0
  0
ACAD_PROXY_OBJECT
  5
2B
102
{ACAD_REACTORS
330
2A
102
}
330
2A
100
AcDbProxyObject
 90
      499
 91
      501
 93
      388
310
41119B185D240901404333333333333E3BF0000000000000F9010740A41107004050150841D405064090741402480A1B50
1001
ACAD
1000
AcDbSavedByObjectVersion
1070
     0
  0
ACAD_PROXY_OBJECT
  5
2C
102
{ACAD_REACTORS
330
2A
102
}
330
2A
100
AcDbProxyObject
 90
      499
 91
      501
 93
      476
310
43519B185D15DA5D1A115919D95CD0140901404333333333333E3BF0000000000000F9010740901411070040501600405405064090741402480A1B50
1001
ACAD
1000
AcDbSavedByObjectVersion
1070
     0
  0
ACAD_PROXY_OBJECT
  5
2D
102
{ACAD_REACTORS
330
2A
102
}
330
2A
100
AcDbProxyObject
 90
      499
 91
      501
 93
      412
310
41D1DBDD5C985D5910240902404333333333333E3BF0000000000000F9010740A411070040501641D405064090741402480A1B50
1001
ACAD
1000
AcDbSavedByObjectVersion
1070
     0
  0
ACAD_PROXY_OBJECT
  5
2E
102
{ACAD_REACTORS
330
2A
102
}
330
2A
100
AcDbProxyObject
 90
      499
 91
      501
 93
      500
310
4411DBDD5C985D5915DA5D1A115919D95CD0340902404333333333333E3BF0000000000000F9010740901411070040501600405405064090741402480A1B50
1001
ACAD
1000
AcDbSavedByObjectVersion
1070
     0
  0
ACAD_PROXY_OBJECT
  5
38
102
{ACAD_REACTORS
330
2A
102
}
330
2A
100
AcDbProxyObject
 90
      499
 91
      501
 93
      444
310
42D31A5B995C185D1D195C9B90E409028333333333333E3BF0000000000000FB010790141107004050750841D405064090741402483A0350
1001
ACAD
1000
AcDbSavedByObjectVersion
1070
     0
  0
ACAD_PROXY_OBJECT
  5
33
102
{ACAD_REACTORS
330
2A
102
}
330
2A
100
AcDbProxyObject
 90
      499
 91
      501
 93
      420
310
425499585B1A5CDD1A58D08409028333333333333E3BF0000000000000FB01079019070040501508421405064090741402480A1B40
1001
ACAD
1000
AcDbSavedByObjectVersion
1070
     0
  0
ACAD_PROXY_OBJECT
  5
37
102
{ACAD_REACTORS
330
2A
102
}
330
2A
100
AcDbProxyObject
 90
      499
 91
      501
 93
      412
310
41D51A1A58DAD95B90D409028333333333333E3BF0000000000000FB010790141107004050150C41D405064090741402480A0350
1001
ACAD
1000
AcDbSavedByObjectVersion
1070
     0
  0
XRECORD
  5
2C2
102
{ACAD_REACTORS
330
2B9
102
}
330
2B9
100
AcDbXrecord
 90
        0
  0
XRECORD
  5
2D8
102
{ACAD_REACTORS
330
2B9
102
}
330
2B9
100
AcDbXrecord
1000
DSTYLE
1002
{
1070
   340
340
11
1002
}
  0
XRECORD
  5
2C3
102
{ACAD_REACTORS
330
2B9
102
}
330
2B9
100
AcDbXrecord
  1
{AC038535-7C96-4E3A-AD07-3FF16731EB8A}
  0
XRECORD
  5
2BC
102
{ACAD_REACTORS
330
2B9
102
}
330
2B9
100
AcDbXrecord
  1

  0
XRECORD
  5
2C1
102
{ACAD_REACTORS
330
2B9
102
}
330
2B9
100
AcDbXrecord
 90
        4
  0
XRECORD
  5
2BE
102
{ACAD_REACTORS
330
2B9
102
}
330
2B9
100
AcDbXrecord
340
1A
  0
XRECORD
  5
2C0
102
{ACAD_REACTORS
330
2B9
102
}
330
2B9
100
AcDbXrecord
 90
    10781
  0
XRECORD
  5
2BF
102
{ACAD_REACTORS
330
2B9
102
}
330
2B9
100
AcDbXrecord
340
19
  0
XRECORD
  5
2C5
102
{ACAD_REACTORS
330
2B9
102
}
330
2B9
100
AcDbXrecord
 40
0.0
  0
XRECORD
  5
2C8
102
{ACAD_REACTORS
330
2B9
102
}
330
2B9
100
AcDbXrecord
340
0
  0
XRECORD
  5
2CE
102
{ACAD_REACTORS
330
2B9
102
}
330
2B9
100
AcDbXrecord
 10
0.0
 20
0.0
 30
0.0
  0
XRECORD
  5
2CA
102
{ACAD_REACTORS
330
2B9
102
}
330
2B9
100
AcDbXrecord
 10
0.0
 20
0.0
 30
0.0
  0
XRECORD
  5
2CD
102
{ACAD_REACTORS
330
2B9
102
}
330
2B9
100
AcDbXrecord
 10
0.0
 20
0.0
 30
0.0
  0
XRECORD
  5
2CB
102
{ACAD_REACTORS
330
2B9
102
}
330
2B9
100
AcDbXrecord
 10
0.0
 20
0.0
 30
0.0
  0
XRECORD
  5
2CC
102
{ACAD_REACTORS
330
2B9
102
}
330
2B9
100
AcDbXrecord
 10
0.0
 20
0.0
 30
0.0
  0
XRECORD
  5
2C9
102
{ACAD_REACTORS
330
2B9
102
}
330
2B9
100
AcDbXrecord
 10
0.0
 20
0.0
 30
0.0
  0
XRECORD
  5
2C6
102
{ACAD_REACTORS
330
2B9
102
}
330
2B9
100
AcDbXrecord
340
0
  0
XRECORD
  5
2C7
102
{ACAD_REACTORS
330
2B9
102
}
330
2B9
100
AcDbXrecord
 70
     0
  0
XRECORD
  5
2BD
102
{ACAD_REACTORS
330
2B9
102
}
330
2B9
100
AcDbXrecord
  1

  0
XRECORD
  5
2BA
102
{ACAD_REACTORS
330
2B9
102
}
330
2B9
100
AcDbXrecord
 90
        1
  0
XRECORD
  5
2BB
102
{ACAD_REACTORS
330
2B9
102
}
330
2B9
100
AcDbXrecord
 90
       70
  0
XRECORD
  5
2D1
102
{ACAD_REACTORS
330
2B9
102
}
330
2B9
100
AcDbXrecord
340
0
  0
XRECORD
  5
2D7
102
{ACAD_REACTORS
330
2B9
102
}
330
2B9
100
AcDbXrecord
 10
0.0
 20
0.0
 30
0.0
  0
XRECORD
  5
2D3
102
{ACAD_REACTORS
330
2B9
102
}
330
2B9
100
AcDbXrecord
 10
0.0
 20
0.0
 30
0.0
  0
XRECORD
  5
2D6
102
{ACAD_REACTORS
330
2B9
102
}
330
2B9
100
AcDbXrecord
 10
0.0
 20
0.0
 30
0.0
  0
XRECORD
  5
2D4
102
{ACAD_REACTORS
330
2B9
102
}
330
2B9
100
AcDbXrecord
 10
0.0
 20
0.0
 30
0.0
  0
XRECORD
  5
2D5
102
{ACAD_REACTORS
330
2B9
102
}
330
2B9
100
AcDbXrecord
 10
0.0
 20
0.0
 30
0.0
  0
XRECORD
  5
2D2
102
{ACAD_REACTORS
330
2B9
102
}
330
2B9
100
AcDbXrecord
 10
0.0
 20
0.0
 30
0.0
  0
XRECORD
  5
2CF
102
{ACAD_REACTORS
330
2B9
102
}
330
2B9
100
AcDbXrecord
340
0
  0
XRECORD
  5
2D0
102
{ACAD_REACTORS
330
2B9
102
}
330
2B9
100
AcDbXrecord
 70
     0
  0
XRECORD
  5
2C4
102
{ACAD_REACTORS
330
2B9
102
}
330
2B9
100
AcDbXrecord
  1
{FAEB1C32-E019-11D5-929B-00C0DF256EC4}
  0
DICTIONARYVAR
  5
2DE
102
{ACAD_REACTORS
330
2D9
102
}
330
2D9
100
DictionaryVariables
280
     0
  1
2
  0
DICTIONARYVAR
  5
2DF
102
{ACAD_REACTORS
330
2D9
102
}
330
2D9
100
DictionaryVariables
280
     0
  1
1
  0
DICTIONARYVAR
  5
2DD
102
{ACAD_REACTORS
330
2D9
102
}
330
2D9
100
DictionaryVariables
280
     0
  1
80.000000
  0
DICTIONARYVAR
  5
2DC
102
{ACAD_REACTORS
330
2D9
102
}
330
2D9
100
DictionaryVariables
280
     0
  1
5.000000
  0
DICTIONARY
  5
2E2
330
3D
100
AcDbDictionary
280
     1
  3
ACAD_XREC_ROUNDTRIP
360
2E3
  0
DICTIONARY
  5
2E0
330
3C
100
AcDbDictionary
280
     1
  3
ACAD_XREC_ROUNDTRIP
360
2E1
  0
DICTIONARY
  5
2E4
330
3E
100
AcDbDictionary
280
     1
  3
ACAD_XREC_ROUNDTRIP
360
2E5
  0
XRECORD
  5
2E3
102
{ACAD_REACTORS
330
2E2
102
}
330
2E2
100
AcDbXrecord
102
MATERIAL
148
0.0
149
0.0
149
0.0
 93
        0
 94
      127
282
     0
 72
     1
 77
     1
171
     1
175
     1
179
     1
273
     0
  0
XRECORD
  5
2E1
102
{ACAD_REACTORS
330
2E0
102
}
330
2E0
100
AcDbXrecord
102
MATERIAL
148
0.0
149
0.0
149
0.0
 93
        0
 94
      127
282
     0
 72
     1
 77
     1
171
     1
175
     1
179
     1
273
     0
  0
XRECORD
  5
2E5
102
{ACAD_REACTORS
330
2E4
102
}
330
2E4
100
AcDbXrecord
102
MATERIAL
148
0.0
149
0.0
149
0.0
 93
        0
 94
      127
282
     0
 72
     1
 77
     1
171
     1
175
     1
179
     1
273
     0
  0
ENDSEC
  0
EOF
