  0
SECTION
  2
HEADER
  9
$ACADVER
  1
AC1014
  9
$ACADMAINTVER
 70
     9
  9
$DWGCODEPAGE
  3
ANSI_932
  9
$INSBASE
 10
0.0
 20
0.0
 30
0.0
  9
$EXTMIN
 10
-0.6000000000000136
 20
14.30000000000001
 30
0.0
  9
$EXTMAX
 10
199.4
 20
289.3
 30
0.0
  9
$LIMMIN
 10
0.0
 20
0.0
  9
$LIMMAX
 10
210.0
 20
297.0
  9
$ORTHOMODE
 70
     0
  9
$REGENMODE
 70
     1
  9
$FILLMODE
 70
     1
  9
$QTEXTMODE
 70
     0
  9
$MIRRTEXT
 70
     1
  9
$DRAGMODE
 70
     2
  9
$LTSCALE
 40
1.0
  9
$OSMODE
 70
    37
  9
$ATTMODE
 70
     1
  9
$TEXTSIZE
 40
2.5
  9
$TRACEWID
 40
1.0
  9
$TEXTSTYLE
  7
STANDARD
  9
$CLAYER
  8
図
  9
$CELTYPE
  6
BYLAYER
  9
$CECOLOR
 62
   256
  9
$CELTSCALE
 40
1.0
  9
$DELOBJ
 70
     1
  9
$DISPSILH
 70
     0
  9
$DIMSCALE
 40
1.0
  9
$DIMASZ
 40
2.5
  9
$DIMEXO
 40
0.625
  9
$DIMDLI
 40
3.75
  9
$DIMRND
 40
0.0
  9
$DIMDLE
 40
0.0
  9
$DIMEXE
 40
1.25
  9
$DIMTP
 40
0.0
  9
$DIMTM
 40
0.0
  9
$DIMTXT
 40
2.5
  9
$DIMCEN
 40
2.5
  9
$DIMTSZ
 40
0.0
  9
$DIMTOL
 70
     0
  9
$DIMLIM
 70
     0
  9
$DIMTIH
 70
     0
  9
$DIMTOH
 70
     0
  9
$DIMSE1
 70
     0
  9
$DIMSE2
 70
     0
  9
$DIMTAD
 70
     1
  9
$DIMZIN
 70
     8
  9
$DIMBLK
  1

  9
$DIMASO
 70
     1
  9
$DIMSHO
 70
     1
  9
$DIMPOST
  1

  9
$DIMAPOST
  1

  9
$DIMALT
 70
     0
  9
$DIMALTD
 70
     3
  9
$DIMALTF
 40
0.03937007874016
  9
$DIMLFAC
 40
1.0
  9
$DIMTOFL
 70
     1
  9
$DIMTVP
 40
0.0
  9
$DIMTIX
 70
     0
  9
$DIMSOXD
 70
     0
  9
$DIMSAH
 70
     0
  9
$DIMBLK1
  1

  9
$DIMBLK2
  1

  9
$DIMSTYLE
  2
ISO-25
  9
$DIMCLRD
 70
     0
  9
$DIMCLRE
 70
     0
  9
$DIMCLRT
 70
     0
  9
$DIMTFAC
 40
1.0
  9
$DIMGAP
 40
0.625
  9
$DIMJUST
 70
     0
  9
$DIMSD1
 70
     0
  9
$DIMSD2
 70
     0
  9
$DIMTOLJ
 70
     0
  9
$DIMTZIN
 70
     8
  9
$DIMALTZ
 70
     0
  9
$DIMALTTZ
 70
     0
  9
$DIMFIT
 70
     3
  9
$DIMUPT
 70
     0
  9
$DIMUNIT
 70
     2
  9
$DIMDEC
 70
     2
  9
$DIMTDEC
 70
     2
  9
$DIMALTU
 70
     2
  9
$DIMALTTD
 70
     3
  9
$DIMTXSTY
  7
STANDARD
  9
$DIMAUNIT
 70
     0
  9
$LUNITS
 70
     2
  9
$LUPREC
 70
     4
  9
$SKETCHINC
 40
1.0
  9
$FILLETRAD
 40
10.0
  9
$AUNITS
 70
     0
  9
$AUPREC
 70
     0
  9
$MENU
  1
.
  9
$ELEVATION
 40
0.0
  9
$PELEVATION
 40
0.0
  9
$THICKNESS
 40
0.0
  9
$LIMCHECK
 70
     0
  9
$CHAMFERA
 40
10.0
  9
$CHAMFERB
 40
10.0
  9
$CHAMFERC
 40
20.0
  9
$CHAMFERD
 40
0.0
  9
$SKPOLY
 70
     0
  9
$TDCREATE
 40
2460132.607493623
  9
$TDUPDATE
 40
2460132.607493715
  9
$TDINDWG
 40
0.0000000116
  9
$TDUSRTIMER
 40
0.0000000116
  9
$USRTIMER
 70
     1
  9
$ANGBASE
 50
0.0
  9
$ANGDIR
 70
     0
  9
$PDMODE
 70
     0
  9
$PDSIZE
 40
0.0
  9
$PLINEWID
 40
0.0
  9
$COORDS
 70
     1
  9
$SPLFRAME
 70
     0
  9
$SPLINETYPE
 70
     6
  9
$SPLINESEGS
 70
     8
  9
$ATTDIA
 70
     0
  9
$ATTREQ
 70
     1
  9
$HANDLING
 70
     1
  9
$HANDSEED
  5
286
  9
$SURFTAB1
 70
     6
  9
$SURFTAB2
 70
     6
  9
$SURFTYPE
 70
     6
  9
$SURFU
 70
     6
  9
$SURFV
 70
     6
  9
$UCSNAME
  2

  9
$UCSORG
 10
0.0
 20
0.0
 30
0.0
  9
$UCSXDIR
 10
1.0
 20
0.0
 30
0.0
  9
$UCSYDIR
 10
0.0
 20
1.0
 30
0.0
  9
$PUCSNAME
  2

  9
$PUCSORG
 10
0.0
 20
0.0
 30
0.0
  9
$PUCSXDIR
 10
1.0
 20
0.0
 30
0.0
  9
$PUCSYDIR
 10
0.0
 20
1.0
 30
0.0
  9
$USERI1
 70
     0
  9
$USERI2
 70
     0
  9
$USERI3
 70
     0
  9
$USERI4
 70
     0
  9
$USERI5
 70
     0
  9
$USERR1
 40
0.0
  9
$USERR2
 40
0.0
  9
$USERR3
 40
0.0
  9
$USERR4
 40
0.0
  9
$USERR5
 40
0.0
  9
$WORLDVIEW
 70
     1
  9
$SHADEDGE
 70
     3
  9
$SHADEDIF
 70
    70
  9
$TILEMODE
 70
     1
  9
$MAXACTVP
 70
    64
  9
$PINSBASE
 10
0.0
 20
0.0
 30
0.0
  9
$PLIMCHECK
 70
     0
  9
$PEXTMIN
 10
1.000000000000000E+20
 20
1.000000000000000E+20
 30
1.000000000000000E+20
  9
$PEXTMAX
 10
-1.000000000000000E+20
 20
-1.000000000000000E+20
 30
-1.000000000000000E+20
  9
$PLIMMIN
 10
0.0
 20
0.0
  9
$PLIMMAX
 10
420.0
 20
297.0
  9
$UNITMODE
 70
     0
  9
$VISRETAIN
 70
     1
  9
$PLINEGEN
 70
     0
  9
$PSLTSCALE
 70
     1
  9
$TREEDEPTH
 70
  3020
  9
$PICKSTYLE
 70
     1
  9
$CMLSTYLE
  2
STANDARD
  9
$CMLJUST
 70
     0
  9
$CMLSCALE
 40
20.0
  9
$PROXYGRAPHICS
 70
     1
  9
$MEASUREMENT
 70
     1
  0
ENDSEC
  0
SECTION
  2
CLASSES
  0
CLASS
  1
ACDBDICTIONARYWDFLT
  2
AcDbDictionaryWithDefault
  3
ObjectDBX Classes
 90
        0
280
     0
281
     0
  0
CLASS
  1
VISUALSTYLE
  2
AcDbVisualStyle
  3
ObjectDBX Classes
 90
     4095
280
     0
281
     0
  0
CLASS
  1
MATERIAL
  2
AcDbMaterial
  3
ObjectDBX Classes
 90
     1153
280
     0
281
     0
  0
CLASS
  1
SUN
  2
AcDbSun
  3
SCENEOE
 90
     1024
280
     0
281
     0
  0
CLASS
  1
DICTIONARYVAR
  2
AcDbDictionaryVar
  3
ObjectDBX Classes
 90
        0
280
     0
281
     0
  0
CLASS
  1
XRECORD
  2
AcDbXrecord
  3
AutoCAD 2000
 90
        0
280
     0
281
     0
  0
CLASS
  1
LWPOLYLINE
  2
AcDbPolyline
  3
AutoCAD 2000
 90
        0
280
     0
281
     1
  0
CLASS
  1
HATCH
  2
AcDbHatch
  3
AutoCAD 2000
 90
        0
280
     0
281
     1
  0
CLASS
  1
ACDBPLACEHOLDER
  2
AcDbPlaceHolder
  3
ObjectDBX Classes
 90
        0
280
     0
281
     0
  0
CLASS
  1
LAYOUT
  2
AcDbLayout
  3
ObjectDBX Classes
 90
        0
280
     0
281
     0
  0
ENDSEC
  0
SECTION
  2
TABLES
  0
TABLE
  2
VPORT
  5
8
330
0
100
AcDbSymbolTable
 70
     1
  0
VPORT
  5
29
330
8
100
AcDbSymbolTableRecord
100
AcDbViewportTableRecord
  2
*ACTIVE
 70
     0
 10
0.0
 20
0.0
 11
1.0
 21
1.0
 12
198.8
 22
303.6
 13
0.0
 23
0.0
 14
10.0
 24
10.0
 15
10.0
 25
10.0
 16
0.0
 26
0.0
 36
1.0
 17
0.0
 27
0.0
 37
0.0
 40
550.0
 41
0.7272727272727274
 42
50.0
 43
0.0
 44
0.0
 50
0.0
 51
0.0
 71
     0
 72
  1000
 73
     1
 74
     3
 75
     0
 76
     0
 77
     0
 78
     0
  0
ENDTAB
  0
TABLE
  2
LTYPE
  5
5
330
0
100
AcDbSymbolTable
 70
     8
  0
LTYPE
  5
14
330
5
100
AcDbSymbolTableRecord
100
AcDbLinetypeTableRecord
  2
BYBLOCK
 70
     0
  3

 72
    65
 73
     0
 40
0.0
  0
LTYPE
  5
15
330
5
100
AcDbSymbolTableRecord
100
AcDbLinetypeTableRecord
  2
BYLAYER
 70
     0
  3

 72
    65
 73
     0
 40
0.0
  0
LTYPE
  5
16
330
5
100
AcDbSymbolTableRecord
100
AcDbLinetypeTableRecord
  2
CONTINUOUS
 70
     0
  3
Solid line
 72
    65
 73
     0
 40
0.0
  0
LTYPE
  5
40
330
5
100
AcDbSymbolTableRecord
100
AcDbLinetypeTableRecord
  2
EXLTYPE1
 70
     0
  3
破線
 72
    65
 73
     2
 40
3.0
 49
2.0
 74
     0
 49
-1.0
 74
     0
  0
LTYPE
  5
41
330
5
100
AcDbSymbolTableRecord
100
AcDbLinetypeTableRecord
  2
EXLTYPE2
 70
     0
  3
点線
 72
    65
 73
     2
 40
2.0
 49
1.0
 74
     0
 49
-1.0
 74
     0
  0
LTYPE
  5
42
330
5
100
AcDbSymbolTableRecord
100
AcDbLinetypeTableRecord
  2
EXLTYPE3
 70
     0
  3
一点鎖線
 72
    65
 73
     4
 40
10.0
 49
7.0
 74
     0
 49
-1.0
 74
     0
 49
1.0
 74
     0
 49
-1.0
 74
     0
  0
LTYPE
  5
43
330
5
100
AcDbSymbolTableRecord
100
AcDbLinetypeTableRecord
  2
EXLTYPE4
 70
     0
  3
二点鎖線
 72
    65
 73
     6
 40
12.0
 49
7.0
 74
     0
 49
-1.0
 74
     0
 49
1.0
 74
     0
 49
-1.0
 74
     0
 49
1.0
 74
     0
 49
-1.0
 74
     0
  0
LTYPE
  5
44
330
5
100
AcDbSymbolTableRecord
100
AcDbLinetypeTableRecord
  2
EXLTYPE5
 70
     0
  3
三点鎖線
 72
    65
 73
     8
 40
37.0
 49
30.0
 74
     0
 49
-1.0
 74
     0
 49
1.0
 74
     0
 49
-1.0
 74
     0
 49
1.0
 74
     0
 49
-1.0
 74
     0
 49
1.0
 74
     0
 49
-1.0
 74
     0
  0
LTYPE
  5
45
330
5
100
AcDbSymbolTableRecord
100
AcDbLinetypeTableRecord
  2
EXLTYPE6
 70
     0
  3
四点鎖線
 72
    65
 73
    10
 40
39.0
 49
30.0
 74
     0
 49
-1.0
 74
     0
 49
1.0
 74
     0
 49
-1.0
 74
     0
 49
1.0
 74
     0
 49
-1.0
 74
     0
 49
1.0
 74
     0
 49
-1.0
 74
     0
 49
1.0
 74
     0
 49
-1.0
 74
     0
  0
LTYPE
  5
46
330
5
100
AcDbSymbolTableRecord
100
AcDbLinetypeTableRecord
  2
EXLTYPE7
 70
     0
  3
一点鎖線2
 72
    65
 73
     4
 40
7.0
 49
5.5
 74
     0
 49
-0.5
 74
     0
 49
0.5
 74
     0
 49
-0.5
 74
     0
  0
ENDTAB
  0
TABLE
  2
LAYER
  5
2
330
0
100
AcDbSymbolTable
 70
     7
  0
LAYER
  5
10
330
2
100
AcDbSymbolTableRecord
100
AcDbLayerTableRecord
  2
0
 70
     0
 62
     7
  6
CONTINUOUS
  0
LAYER
  5
49
330
2
100
AcDbSymbolTableRecord
100
AcDbLayerTableRecord
  2
図枠
 70
     0
 62
     7
  6
CONTINUOUS
  0
LAYER
  5
4A
330
2
100
AcDbSymbolTableRecord
100
AcDbLayerTableRecord
  2
図
 70
     0
 62
     7
  6
CONTINUOUS
  0
LAYER
  5
4B
330
2
100
AcDbSymbolTableRecord
100
AcDbLayerTableRecord
  2
寸法
 70
     0
 62
     7
  6
CONTINUOUS
  0
LAYER
  5
4C
330
2
100
AcDbSymbolTableRecord
100
AcDbLayerTableRecord
  2
部品
 70
     0
 62
     7
  6
CONTINUOUS
  0
LAYER
  5
4D
330
2
100
AcDbSymbolTableRecord
100
AcDbLayerTableRecord
  2
器具明細
 70
     0
 62
     7
  6
CONTINUOUS
  0
LAYER
  5
20A
330
2
100
AcDbSymbolTableRecord
100
AcDbLayerTableRecord
  2
DEFPOINTS
 70
     0
 62
     7
  6
CONTINUOUS
  0
ENDTAB
  0
TABLE
  2
STYLE
  5
3
330
0
100
AcDbSymbolTable
 70
     5
  0
STYLE
  5
11
330
3
100
AcDbSymbolTableRecord
100
AcDbTextStyleTableRecord
  2
STANDARD
 70
     0
 40
0.0
 41
1.0
 50
0.0
 71
     0
 42
2.5
  3
monotxt
  4
extfont
  0
STYLE
  5
47
330
3
100
AcDbSymbolTableRecord
100
AcDbTextStyleTableRecord
  2
EXCADSTD
 70
     0
 40
0.0
 41
1.0
 50
0.0
 71
     0
 42
0.2
  3
monotxt
  4
extfont
  0
STYLE
  5
48
330
3
100
AcDbSymbolTableRecord
100
AcDbTextStyleTableRecord
  2
EXCADVERT
 70
     4
 40
0.0
 41
1.0
 50
0.0
 71
     0
 42
0.286885
  3
monotxt
  4
extfont
  0
STYLE
  5
AF
330
3
100
AcDbSymbolTableRecord
100
AcDbTextStyleTableRecord
  2
EXCADTTF1
 70
     0
 40
0.0
 41
1.0
 50
0.0
 71
     0
 42
0.2
  3
MSGOTHIC.TTC
  4

1001
ACAD
1000
MS Gothic
1071
    32817
  0
STYLE
  5
208
330
3
100
AcDbSymbolTableRecord
100
AcDbTextStyleTableRecord
  2
EXCADDIM1
 70
     0
 40
0.0
 41
0.84
 50
0.0
 71
     0
 42
0.2
  3
monotxt
  4
extfont
  0
ENDTAB
  0
TABLE
  2
VIEW
  5
6
330
0
100
AcDbSymbolTable
 70
     0
  0
ENDTAB
  0
TABLE
  2
UCS
  5
7
330
0
100
AcDbSymbolTable
 70
     0
  0
ENDTAB
  0
TABLE
  2
APPID
  5
9
330
0
100
AcDbSymbolTable
 70
     1
  0
APPID
  5
12
330
9
100
AcDbSymbolTableRecord
100
AcDbRegAppTableRecord
  2
ACAD
 70
     0
  0
ENDTAB
  0
TABLE
  2
DIMSTYLE
  5
A
330
0
100
AcDbSymbolTable
 70
     1
  0
DIMSTYLE
105
27
102
{ACAD_REACTORS
330
209
330
216
330
223
330
230
330
23F
330
24C
102
}
330
A
100
AcDbSymbolTableRecord
100
AcDbDimStyleTableRecord
  2
ISO-25
 70
     0
  3

  4

  5

  6

  7

 40
1.0
 41
2.5
 42
0.625
 43
3.75
 44
1.25
 45
0.0
 46
0.0
 47
0.0
 48
0.0
140
2.5
141
2.5
142
0.0
143
0.03937007874016
144
1.0
145
0.0
146
1.0
147
0.625
 71
     0
 72
     0
 73
     0
 74
     0
 75
     0
 76
     0
 77
     1
 78
     8
170
     0
171
     3
172
     1
173
     0
174
     0
175
     0
176
     0
177
     0
178
     0
270
     2
271
     2
272
     2
273
     2
274
     3
340
11
275
     0
280
     0
281
     0
282
     0
283
     0
284
     8
285
     0
286
     0
287
     5
288
     0
  0
ENDTAB
  0
TABLE
  2
BLOCK_RECORD
  5
1
330
0
100
AcDbSymbolTable
 70
    21
  0
BLOCK_RECORD
  5
1F
330
1
100
AcDbSymbolTableRecord
100
AcDbBlockTableRecord
  2
*MODEL_SPACE
  0
BLOCK_RECORD
  5
1B
330
1
100
AcDbSymbolTableRecord
100
AcDbBlockTableRecord
  2
*PAPER_SPACE
  0
BLOCK_RECORD
  5
4E
330
1
100
AcDbSymbolTableRecord
100
AcDbBlockTableRecord
  2
EX_NORM
  0
BLOCK_RECORD
  5
51
330
1
100
AcDbSymbolTableRecord
100
AcDbBlockTableRecord
  2
EX_BNORM
  0
BLOCK_RECORD
  5
54
330
1
100
AcDbSymbolTableRecord
100
AcDbBlockTableRecord
  2
EX_BCIR
  0
BLOCK_RECORD
  5
57
330
1
100
AcDbSymbolTableRecord
100
AcDbBlockTableRecord
  2
EX_RCIVIL
  0
BLOCK_RECORD
  5
5A
330
1
100
AcDbSymbolTableRecord
100
AcDbBlockTableRecord
  2
EX_SLANT
  0
BLOCK_RECORD
  5
5D
330
1
100
AcDbSymbolTableRecord
100
AcDbBlockTableRecord
  2
EX_NONE
  0
BLOCK_RECORD
  5
60
330
1
100
AcDbSymbolTableRecord
100
AcDbBlockTableRecord
  2
EX_CIVIL
  0
BLOCK_RECORD
  5
63
330
1
100
AcDbSymbolTableRecord
100
AcDbBlockTableRecord
  2
EX_WCIR
  0
BLOCK_RECORD
  5
66
330
1
100
AcDbSymbolTableRecord
100
AcDbBlockTableRecord
  2
EX_WCIR2
  0
BLOCK_RECORD
  5
69
330
1
100
AcDbSymbolTableRecord
100
AcDbBlockTableRecord
  2
EX_WNORM
  0
BLOCK_RECORD
  5
6C
330
1
100
AcDbSymbolTableRecord
100
AcDbBlockTableRecord
  2
EX_NNORM
  0
BLOCK_RECORD
  5
6F
330
1
100
AcDbSymbolTableRecord
100
AcDbBlockTableRecord
  2
EX_BBOX
  0
BLOCK_RECORD
  5
72
330
1
100
AcDbSymbolTableRecord
100
AcDbBlockTableRecord
  2
EX_WBOX
  0
BLOCK_RECORD
  5
75
330
1
100
AcDbSymbolTableRecord
100
AcDbBlockTableRecord
  2
EX_INTEGRAL
  0
BLOCK_RECORD
  5
20B
330
1
100
AcDbSymbolTableRecord
100
AcDbBlockTableRecord
  2
*D15
  0
BLOCK_RECORD
  5
217
330
1
100
AcDbSymbolTableRecord
100
AcDbBlockTableRecord
  2
*D16
  0
BLOCK_RECORD
  5
224
330
1
100
AcDbSymbolTableRecord
100
AcDbBlockTableRecord
  2
*D17
  0
BLOCK_RECORD
  5
231
330
1
100
AcDbSymbolTableRecord
100
AcDbBlockTableRecord
  2
*D18
  0
BLOCK_RECORD
  5
240
330
1
100
AcDbSymbolTableRecord
100
AcDbBlockTableRecord
  2
*D19
  0
BLOCK_RECORD
  5
24D
330
1
100
AcDbSymbolTableRecord
100
AcDbBlockTableRecord
  2
*D20
  0
ENDTAB
  0
ENDSEC
  0
SECTION
  2
BLOCKS
  0
BLOCK
  5
20
330
1F
100
AcDbEntity
  8
0
100
AcDbBlockBegin
  2
*MODEL_SPACE
 70
     0
 10
0.0
 20
0.0
 30
0.0
  3
*MODEL_SPACE
  1

  0
ENDBLK
  5
21
330
1F
100
AcDbEntity
  8
0
100
AcDbBlockEnd
  0
BLOCK
  5
1C
330
1B
100
AcDbEntity
 67
     1
  8
0
100
AcDbBlockBegin
  2
*PAPER_SPACE
 70
     0
 10
0.0
 20
0.0
 30
0.0
  3
*PAPER_SPACE
  1

  0
ENDBLK
  5
1D
330
1B
100
AcDbEntity
 67
     1
  8
0
100
AcDbBlockEnd
  0
BLOCK
  5
4F
330
4E
100
AcDbEntity
  8
0
100
AcDbBlockBegin
  2
EX_NORM
 70
     0
 10
0.0
 20
0.0
 30
0.0
  3
EX_NORM
  1

  0
LINE
  5
78
330
4E
100
AcDbEntity
  8
0
  6
CONTINUOUS
 62
     0
100
AcDbLine
 10
0.0
 20
0.0
 30
0.0
 11
-1.0
 21
0.0
 31
0.0
  0
LINE
  5
79
330
4E
100
AcDbEntity
  8
0
  6
CONTINUOUS
 62
     0
100
AcDbLine
 10
0.0
 20
0.0
 30
0.0
 11
-1.0
 21
0.166666667
 31
0.0
  0
LINE
  5
7A
330
4E
100
AcDbEntity
  8
0
  6
CONTINUOUS
 62
     0
100
AcDbLine
 10
0.0
 20
0.0
 30
0.0
 11
-1.0
 21
-0.166666667
 31
0.0
  0
ENDBLK
  5
50
330
4E
100
AcDbEntity
  8
0
100
AcDbBlockEnd
  0
BLOCK
  5
52
330
51
100
AcDbEntity
  8
0
100
AcDbBlockBegin
  2
EX_BNORM
 70
     0
 10
0.0
 20
0.0
 30
0.0
  3
EX_BNORM
  1

  0
LINE
  5
7B
330
51
100
AcDbEntity
  8
0
  6
CONTINUOUS
 62
     0
100
AcDbLine
 10
0.0
 20
0.0
 30
0.0
 11
-1.0
 21
0.0
 31
0.0
  0
LINE
  5
7C
330
51
100
AcDbEntity
  8
0
  6
CONTINUOUS
 62
     0
100
AcDbLine
 10
0.0
 20
0.0
 30
0.0
 11
-1.0
 21
0.166666667
 31
0.0
  0
LINE
  5
7D
330
51
100
AcDbEntity
  8
0
  6
CONTINUOUS
 62
     0
100
AcDbLine
 10
0.0
 20
0.0
 30
0.0
 11
-1.0
 21
-0.166666667
 31
0.0
  0
LINE
  5
7E
330
51
100
AcDbEntity
  8
0
  6
CONTINUOUS
 62
     0
100
AcDbLine
 10
0.0
 20
0.0
 30
0.0
 11
-1.0
 21
0.083333333
 31
0.0
  0
LINE
  5
7F
330
51
100
AcDbEntity
  8
0
  6
CONTINUOUS
 62
     0
100
AcDbLine
 10
0.0
 20
0.0
 30
0.0
 11
-1.0
 21
-0.083333333
 31
0.0
  0
LINE
  5
80
330
51
100
AcDbEntity
  8
0
  6
CONTINUOUS
 62
     0
100
AcDbLine
 10
-1.0
 20
0.166666667
 30
0.0
 11
-1.0
 21
-0.166666667
 31
0.0
  0
ENDBLK
  5
53
330
51
100
AcDbEntity
  8
0
100
AcDbBlockEnd
  0
BLOCK
  5
55
330
54
100
AcDbEntity
  8
0
100
AcDbBlockBegin
  2
EX_BCIR
 70
     0
 10
0.0
 20
0.0
 30
0.0
  3
EX_BCIR
  1

  0
LINE
  5
81
330
54
100
AcDbEntity
  8
0
  6
CONTINUOUS
 62
     0
100
AcDbLine
 10
0.0
 20
0.0
 30
0.0
 11
-1.0
 21
0.0
 31
0.0
  0
CIRCLE
  5
82
330
54
100
AcDbEntity
  8
0
  6
CONTINUOUS
 62
     0
100
AcDbCircle
 10
0.0
 20
0.0
 30
0.0
 40
0.5
  0
CIRCLE
  5
83
330
54
100
AcDbEntity
  8
0
  6
CONTINUOUS
 62
     0
100
AcDbCircle
 10
0.0
 20
0.0
 30
0.0
 40
0.25
  0
ENDBLK
  5
56
330
54
100
AcDbEntity
  8
0
100
AcDbBlockEnd
  0
BLOCK
  5
58
330
57
100
AcDbEntity
  8
0
100
AcDbBlockBegin
  2
EX_RCIVIL
 70
     0
 10
0.0
 20
0.0
 30
0.0
  3
EX_RCIVIL
  1

  0
LINE
  5
84
330
57
100
AcDbEntity
  8
0
  6
CONTINUOUS
 62
     0
100
AcDbLine
 10
0.0
 20
0.0
 30
0.0
 11
-1.0
 21
0.0
 31
0.0
  0
LINE
  5
85
330
57
100
AcDbEntity
  8
0
  6
CONTINUOUS
 62
     0
100
AcDbLine
 10
-1.0
 20
-0.25
 30
0.0
 11
0.0
 21
-0.25
 31
0.0
  0
LINE
  5
86
330
57
100
AcDbEntity
  8
0
  6
CONTINUOUS
 62
     0
100
AcDbLine
 10
-1.0
 20
-0.125
 30
0.0
 11
0.0
 21
-0.125
 31
0.0
  0
ENDBLK
  5
59
330
57
100
AcDbEntity
  8
0
100
AcDbBlockEnd
  0
BLOCK
  5
5B
330
5A
100
AcDbEntity
  8
0
100
AcDbBlockBegin
  2
EX_SLANT
 70
     0
 10
0.0
 20
0.0
 30
0.0
  3
EX_SLANT
  1

  0
LINE
  5
87
330
5A
100
AcDbEntity
  8
0
  6
CONTINUOUS
 62
     0
100
AcDbLine
 10
0.0
 20
0.0
 30
0.0
 11
-1.0
 21
0.0
 31
0.0
  0
LINE
  5
88
330
5A
100
AcDbEntity
  8
0
  6
CONTINUOUS
 62
     0
100
AcDbLine
 10
0.707106781
 20
0.707106781
 30
0.0
 11
-0.707106781
 21
-0.707106781
 31
0.0
  0
ENDBLK
  5
5C
330
5A
100
AcDbEntity
  8
0
100
AcDbBlockEnd
  0
BLOCK
  5
5E
330
5D
100
AcDbEntity
  8
0
100
AcDbBlockBegin
  2
EX_NONE
 70
     0
 10
0.0
 20
0.0
 30
0.0
  3
EX_NONE
  1

  0
LINE
  5
89
330
5D
100
AcDbEntity
  8
0
  6
CONTINUOUS
 62
     0
100
AcDbLine
 10
0.0
 20
0.0
 30
0.0
 11
-1.0
 21
0.0
 31
0.0
  0
ENDBLK
  5
5F
330
5D
100
AcDbEntity
  8
0
100
AcDbBlockEnd
  0
BLOCK
  5
61
330
60
100
AcDbEntity
  8
0
100
AcDbBlockBegin
  2
EX_CIVIL
 70
     0
 10
0.0
 20
0.0
 30
0.0
  3
EX_CIVIL
  1

  0
LINE
  5
8A
330
60
100
AcDbEntity
  8
0
  6
CONTINUOUS
 62
     0
100
AcDbLine
 10
0.0
 20
0.0
 30
0.0
 11
-1.0
 21
0.0
 31
0.0
  0
LINE
  5
8B
330
60
100
AcDbEntity
  8
0
  6
CONTINUOUS
 62
     0
100
AcDbLine
 10
-1.0
 20
0.25
 30
0.0
 11
0.0
 21
0.25
 31
0.0
  0
LINE
  5
8C
330
60
100
AcDbEntity
  8
0
  6
CONTINUOUS
 62
     0
100
AcDbLine
 10
-1.0
 20
0.125
 30
0.0
 11
0.0
 21
0.125
 31
0.0
  0
ENDBLK
  5
62
330
60
100
AcDbEntity
  8
0
100
AcDbBlockEnd
  0
BLOCK
  5
64
330
63
100
AcDbEntity
  8
0
100
AcDbBlockBegin
  2
EX_WCIR
 70
     0
 10
0.0
 20
0.0
 30
0.0
  3
EX_WCIR
  1

  0
LINE
  5
8D
330
63
100
AcDbEntity
  8
0
  6
CONTINUOUS
 62
     0
100
AcDbLine
 10
0.0
 20
0.0
 30
0.0
 11
-1.0
 21
0.0
 31
0.0
  0
CIRCLE
  5
8E
330
63
100
AcDbEntity
  8
0
  6
CONTINUOUS
 62
     0
100
AcDbCircle
 10
0.0
 20
0.0
 30
0.0
 40
0.5
  0
ENDBLK
  5
65
330
63
100
AcDbEntity
  8
0
100
AcDbBlockEnd
  0
BLOCK
  5
67
330
66
100
AcDbEntity
  8
0
100
AcDbBlockBegin
  2
EX_WCIR2
 70
     0
 10
0.0
 20
0.0
 30
0.0
  3
EX_WCIR2
  1

  0
LINE
  5
8F
330
66
100
AcDbEntity
  8
0
  6
CONTINUOUS
 62
     0
100
AcDbLine
 10
-0.5
 20
0.0
 30
0.0
 11
-1.0
 21
0.0
 31
0.0
  0
CIRCLE
  5
90
330
66
100
AcDbEntity
  8
0
  6
CONTINUOUS
 62
     0
100
AcDbCircle
 10
0.0
 20
0.0
 30
0.0
 40
0.5
  0
ENDBLK
  5
68
330
66
100
AcDbEntity
  8
0
100
AcDbBlockEnd
  0
BLOCK
  5
6A
330
69
100
AcDbEntity
  8
0
100
AcDbBlockBegin
  2
EX_WNORM
 70
     0
 10
0.0
 20
0.0
 30
0.0
  3
EX_WNORM
  1

  0
LINE
  5
91
330
69
100
AcDbEntity
  8
0
  6
CONTINUOUS
 62
     0
100
AcDbLine
 10
-1.0
 20
0.0
 30
0.0
 11
-1.0
 21
0.0
 31
0.0
  0
LINE
  5
92
330
69
100
AcDbEntity
  8
0
  6
CONTINUOUS
 62
     0
100
AcDbLine
 10
0.0
 20
0.0
 30
0.0
 11
-1.0
 21
0.166666667
 31
0.0
  0
LINE
  5
93
330
69
100
AcDbEntity
  8
0
  6
CONTINUOUS
 62
     0
100
AcDbLine
 10
0.0
 20
0.0
 30
0.0
 11
-1.0
 21
-0.166666667
 31
0.0
  0
LINE
  5
94
330
69
100
AcDbEntity
  8
0
  6
CONTINUOUS
 62
     0
100
AcDbLine
 10
-1.0
 20
0.166666667
 30
0.0
 11
-1.0
 21
-0.166666667
 31
0.0
  0
ENDBLK
  5
6B
330
69
100
AcDbEntity
  8
0
100
AcDbBlockEnd
  0
BLOCK
  5
6D
330
6C
100
AcDbEntity
  8
0
100
AcDbBlockBegin
  2
EX_NNORM
 70
     0
 10
0.0
 20
0.0
 30
0.0
  3
EX_NNORM
  1

  0
LINE
  5
95
330
6C
100
AcDbEntity
  8
0
  6
CONTINUOUS
 62
     0
100
AcDbLine
 10
0.0
 20
0.0
 30
0.0
 11
-1.0
 21
0.0
 31
0.0
  0
LINE
  5
96
330
6C
100
AcDbEntity
  8
0
  6
CONTINUOUS
 62
     0
100
AcDbLine
 10
0.0
 20
0.0
 30
0.0
 11
-1.0
 21
0.166666667
 31
0.0
  0
LINE
  5
97
330
6C
100
AcDbEntity
  8
0
  6
CONTINUOUS
 62
     0
100
AcDbLine
 10
0.0
 20
0.0
 30
0.0
 11
-1.0
 21
-0.166666667
 31
0.0
  0
LINE
  5
98
330
6C
100
AcDbEntity
  8
0
  6
CONTINUOUS
 62
     0
100
AcDbLine
 10
-1.0
 20
0.166666667
 30
0.0
 11
-1.0
 21
-0.166666667
 31
0.0
  0
ENDBLK
  5
6E
330
6C
100
AcDbEntity
  8
0
100
AcDbBlockEnd
  0
BLOCK
  5
70
330
6F
100
AcDbEntity
  8
0
100
AcDbBlockBegin
  2
EX_BBOX
 70
     0
 10
0.0
 20
0.0
 30
0.0
  3
EX_BBOX
  1

  0
LINE
  5
99
330
6F
100
AcDbEntity
  8
0
  6
CONTINUOUS
 62
     0
100
AcDbLine
 10
0.0
 20
0.0
 30
0.0
 11
-1.0
 21
0.0
 31
0.0
  0
LINE
  5
9A
330
6F
100
AcDbEntity
  8
0
  6
CONTINUOUS
 62
     0
100
AcDbLine
 10
-0.5
 20
0.5
 30
0.0
 11
0.5
 21
0.5
 31
0.0
  0
LINE
  5
9B
330
6F
100
AcDbEntity
  8
0
  6
CONTINUOUS
 62
     0
100
AcDbLine
 10
0.5
 20
0.5
 30
0.0
 11
0.5
 21
-0.5
 31
0.0
  0
LINE
  5
9C
330
6F
100
AcDbEntity
  8
0
  6
CONTINUOUS
 62
     0
100
AcDbLine
 10
0.5
 20
-0.5
 30
0.0
 11
-0.5
 21
-0.5
 31
0.0
  0
LINE
  5
9D
330
6F
100
AcDbEntity
  8
0
  6
CONTINUOUS
 62
     0
100
AcDbLine
 10
-0.5
 20
-0.5
 30
0.0
 11
-0.5
 21
0.5
 31
0.0
  0
LINE
  5
9E
330
6F
100
AcDbEntity
  8
0
  6
CONTINUOUS
 62
     0
100
AcDbLine
 10
-0.25
 20
0.25
 30
0.0
 11
0.25
 21
0.25
 31
0.0
  0
LINE
  5
9F
330
6F
100
AcDbEntity
  8
0
  6
CONTINUOUS
 62
     0
100
AcDbLine
 10
0.25
 20
0.25
 30
0.0
 11
0.25
 21
-0.25
 31
0.0
  0
LINE
  5
A0
330
6F
100
AcDbEntity
  8
0
  6
CONTINUOUS
 62
     0
100
AcDbLine
 10
0.25
 20
-0.25
 30
0.0
 11
-0.25
 21
-0.25
 31
0.0
  0
LINE
  5
A1
330
6F
100
AcDbEntity
  8
0
  6
CONTINUOUS
 62
     0
100
AcDbLine
 10
-0.25
 20
-0.25
 30
0.0
 11
-0.25
 21
0.25
 31
0.0
  0
ENDBLK
  5
71
330
6F
100
AcDbEntity
  8
0
100
AcDbBlockEnd
  0
BLOCK
  5
73
330
72
100
AcDbEntity
  8
0
100
AcDbBlockBegin
  2
EX_WBOX
 70
     0
 10
0.0
 20
0.0
 30
0.0
  3
EX_WBOX
  1

  0
LINE
  5
A2
330
72
100
AcDbEntity
  8
0
  6
CONTINUOUS
 62
     0
100
AcDbLine
 10
-0.5
 20
0.0
 30
0.0
 11
-1.0
 21
0.0
 31
0.0
  0
LINE
  5
A3
330
72
100
AcDbEntity
  8
0
  6
CONTINUOUS
 62
     0
100
AcDbLine
 10
-0.5
 20
0.5
 30
0.0
 11
0.5
 21
0.5
 31
0.0
  0
LINE
  5
A4
330
72
100
AcDbEntity
  8
0
  6
CONTINUOUS
 62
     0
100
AcDbLine
 10
0.5
 20
0.5
 30
0.0
 11
0.5
 21
-0.5
 31
0.0
  0
LINE
  5
A5
330
72
100
AcDbEntity
  8
0
  6
CONTINUOUS
 62
     0
100
AcDbLine
 10
0.5
 20
-0.5
 30
0.0
 11
-0.5
 21
-0.5
 31
0.0
  0
LINE
  5
A6
330
72
100
AcDbEntity
  8
0
  6
CONTINUOUS
 62
     0
100
AcDbLine
 10
-0.5
 20
-0.5
 30
0.0
 11
-0.5
 21
0.5
 31
0.0
  0
ENDBLK
  5
74
330
72
100
AcDbEntity
  8
0
100
AcDbBlockEnd
  0
BLOCK
  5
76
330
75
100
AcDbEntity
  8
0
100
AcDbBlockBegin
  2
EX_INTEGRAL
 70
     0
 10
0.0
 20
0.0
 30
0.0
  3
EX_INTEGRAL
  1

  0
LINE
  5
A7
330
75
100
AcDbEntity
  8
0
  6
CONTINUOUS
 62
     0
100
AcDbLine
 10
0.0
 20
0.0
 30
0.0
 11
-1.0
 21
0.0
 31
0.0
  0
ARC
  5
A8
330
75
100
AcDbEntity
  8
0
  6
CONTINUOUS
 62
     0
100
AcDbCircle
 10
0.542115
 20
0.164992
 30
0.0
 40
0.56667
100
AcDbArc
 50
73.07249033629006
 51
196.9275130221199
  0
ARC
  5
A9
330
75
100
AcDbEntity
  8
0
  6
CONTINUOUS
 62
     0
100
AcDbCircle
 10
-0.542115
 20
-0.164992
 30
0.0
 40
0.56667
100
AcDbArc
 50
253.0724869220464
 51
16.9275130559125
  0
ENDBLK
  5
77
330
75
100
AcDbEntity
  8
0
100
AcDbBlockEnd
  0
BLOCK
  5
20C
330
20B
100
AcDbEntity
  8
0
100
AcDbBlockBegin
  2
*D15
 70
     1
 10
0.0
 20
0.0
 30
0.0
  3
*D15
  1

  0
LINE
  5
20E
330
20B
100
AcDbEntity
  8
寸法
  6
CONTINUOUS
 62
     3
100
AcDbLine
 10
223.0
 20
258.80000002384
 30
0.0
 11
223.0
 21
231.4
 31
0.0
  0
LINE
  5
20F
330
20B
100
AcDbEntity
  8
寸法
  6
CONTINUOUS
 62
     3
100
AcDbLine
 10
229.0
 20
231.4
 30
0.0
 11
273.0
 21
231.4
 31
0.0
  0
INSERT
  5
210
330
20B
100
AcDbEntity
  8
寸法
 62
     3
100
AcDbBlockReference
  2
EX_NORM
 10
223.0
 20
231.4
 30
0.0
 41
6.0
 42
6.0
 43
6.0
 50
180.0
  0
INSERT
  5
211
330
20B
100
AcDbEntity
  8
寸法
 62
     3
100
AcDbBlockReference
  2
EX_NORM
 10
279.0
 20
231.4
 30
0.0
 41
6.0
 42
6.0
 43
6.0
  0
MTEXT
  5
212
330
20B
100
AcDbEntity
  8
寸法
 62
     2
100
AcDbMText
 10
251.0
 20
236.0999999880791
 30
0.0
 40
8.0
 41
0.0
 71
     5
 72
     1
  1
56
  7
EXCADDIM1
  0
POINT
  5
213
330
20B
100
AcDbEntity
  8
DEFPOINTS
 62
     0
100
AcDbPoint
 10
223.0
 20
258.80000002384
 30
0.0
  0
POINT
  5
214
330
20B
100
AcDbEntity
  8
DEFPOINTS
 62
     0
100
AcDbPoint
 10
279.0
 20
273.0
 30
0.0
  0
POINT
  5
215
330
20B
100
AcDbEntity
  8
DEFPOINTS
 62
     0
100
AcDbPoint
 10
279.0
 20
231.4
 30
0.0
  0
ENDBLK
  5
20D
330
20B
100
AcDbEntity
  8
0
100
AcDbBlockEnd
  0
BLOCK
  5
218
330
217
100
AcDbEntity
  8
0
100
AcDbBlockBegin
  2
*D16
 70
     1
 10
0.0
 20
0.0
 30
0.0
  3
*D16
  1

  0
LINE
  5
21A
330
217
100
AcDbEntity
  8
寸法
  6
CONTINUOUS
 62
     3
100
AcDbLine
 10
279.0
 20
273.6000000238419
 30
0.0
 11
279.0
 21
229.4
 31
0.0
  0
LINE
  5
21B
330
217
100
AcDbEntity
  8
寸法
  6
CONTINUOUS
 62
     3
100
AcDbLine
 10
293.0
 20
289.2376173723719
 30
0.0
 11
293.0
 21
229.4
 31
0.0
  0
LINE
  5
21C
330
217
100
AcDbEntity
  8
寸法
  6
CONTINUOUS
 62
     3
100
AcDbLine
 10
285.0
 20
231.4
 30
0.0
 11
287.0
 21
231.4
 31
0.0
  0
INSERT
  5
21D
330
217
100
AcDbEntity
  8
寸法
 62
     3
100
AcDbBlockReference
  2
EX_NORM
 10
279.0
 20
231.4
 30
0.0
 41
6.0
 42
6.0
 43
6.0
 50
180.0
  0
INSERT
  5
21E
330
217
100
AcDbEntity
  8
寸法
 62
     3
100
AcDbBlockReference
  2
EX_NORM
 10
293.0
 20
231.4
 30
0.0
 41
6.0
 42
6.0
 43
6.0
  0
MTEXT
  5
21F
330
217
100
AcDbEntity
  8
寸法
 62
     2
100
AcDbMText
 10
286.0
 20
236.0999999880791
 30
0.0
 40
8.0
 41
0.0
 71
     5
 72
     1
  1
14
  7
EXCADDIM1
  0
POINT
  5
220
330
217
100
AcDbEntity
  8
DEFPOINTS
 62
     0
100
AcDbPoint
 10
279.0
 20
275.0
 30
0.0
  0
POINT
  5
221
330
217
100
AcDbEntity
  8
DEFPOINTS
 62
     0
100
AcDbPoint
 10
293.0
 20
290.63761734853
 30
0.0
  0
POINT
  5
222
330
217
100
AcDbEntity
  8
DEFPOINTS
 62
     0
100
AcDbPoint
 10
293.0
 20
231.4
 30
0.0
  0
ENDBLK
  5
219
330
217
100
AcDbEntity
  8
0
100
AcDbBlockEnd
  0
BLOCK
  5
225
330
224
100
AcDbEntity
  8
0
100
AcDbBlockBegin
  2
*D17
 70
     1
 10
0.0
 20
0.0
 30
0.0
  3
*D17
  1

  0
LINE
  5
227
330
224
100
AcDbEntity
  8
寸法
  6
CONTINUOUS
 62
     3
100
AcDbLine
 10
152.8000000238418
 20
300.0
 30
0.0
 11
115.8
 21
300.0
 31
0.0
  0
LINE
  5
228
330
224
100
AcDbEntity
  8
寸法
  6
CONTINUOUS
 62
     3
100
AcDbLine
 10
221.6000000238419
 20
357.0
 30
0.0
 11
115.8
 21
357.0
 31
0.0
  0
LINE
  5
229
330
224
100
AcDbEntity
  8
寸法
  6
CONTINUOUS
 62
     3
100
AcDbLine
 10
117.8
 20
306.0
 30
0.0
 11
117.8
 21
351.0
 31
0.0
  0
INSERT
  5
22A
330
224
100
AcDbEntity
  8
寸法
 62
     3
100
AcDbBlockReference
  2
EX_NORM
 10
117.8
 20
300.0
 30
0.0
 41
6.0
 42
6.0
 43
6.0
 50
270.0
  0
INSERT
  5
22B
330
224
100
AcDbEntity
  8
寸法
 62
     3
100
AcDbBlockReference
  2
EX_NORM
 10
117.8
 20
357.0
 30
0.0
 41
6.0
 42
6.0
 43
6.0
 50
90.0
  0
MTEXT
  5
22C
330
224
100
AcDbEntity
  8
寸法
 62
     2
100
AcDbMText
 10
113.1000000119209
 20
328.5
 30
0.0
 40
8.0
 41
0.0
 71
     5
 72
     1
  1
57
  7
EXCADDIM1
 11
0.0
 21
1.0
 31
0.0
  0
POINT
  5
22D
330
224
100
AcDbEntity
  8
DEFPOINTS
 62
     0
100
AcDbPoint
 10
154.2
 20
300.0
 30
0.0
  0
POINT
  5
22E
330
224
100
AcDbEntity
  8
DEFPOINTS
 62
     0
100
AcDbPoint
 10
223.0
 20
357.0
 30
0.0
  0
POINT
  5
22F
330
224
100
AcDbEntity
  8
DEFPOINTS
 62
     0
100
AcDbPoint
 10
117.8
 20
357.0
 30
0.0
  0
ENDBLK
  5
226
330
224
100
AcDbEntity
  8
0
100
AcDbBlockEnd
  0
BLOCK
  5
232
330
231
100
AcDbEntity
  8
0
100
AcDbBlockBegin
  2
*D18
 70
     1
 10
0.0
 20
0.0
 30
0.0
  3
*D18
  1

  0
LINE
  5
234
330
231
100
AcDbEntity
  8
寸法
  6
CONTINUOUS
 62
     3
100
AcDbLine
 10
280.3999999761581
 20
325.0
 30
0.0
 11
313.6999999999999
 21
325.0
 31
0.0
  0
LINE
  5
235
330
231
100
AcDbEntity
  8
寸法
  6
CONTINUOUS
 62
     3
100
AcDbLine
 10
280.3999999761581
 20
275.0
 30
0.0
 11
313.6999999999999
 21
275.0
 31
0.0
  0
LINE
  5
236
330
231
100
AcDbEntity
  8
寸法
  6
CONTINUOUS
 62
     3
100
AcDbLine
 10
311.6999999999999
 20
319.0
 30
0.0
 11
311.6999999999999
 21
281.0
 31
0.0
  0
INSERT
  5
237
330
231
100
AcDbEntity
  8
寸法
 62
     3
100
AcDbBlockReference
  2
EX_NORM
 10
311.6999999999999
 20
325.0
 30
0.0
 41
6.0
 42
6.0
 43
6.0
 50
90.0
  0
INSERT
  5
238
330
231
100
AcDbEntity
  8
寸法
 62
     3
100
AcDbBlockReference
  2
EX_NORM
 10
311.6999999999999
 20
275.0
 30
0.0
 41
6.0
 42
6.0
 43
6.0
 50
270.0
  0
MTEXT
  5
239
330
231
100
AcDbEntity
  8
寸法
 62
     2
100
AcDbMText
 10
307.0000000119209
 20
300.0
 30
0.0
 40
8.0
 41
0.0
 71
     5
 72
     1
  1
%%c50
  7
EXCADDIM1
 11
0.0
 21
1.0
 31
0.0
  0
POINT
  5
23A
330
231
100
AcDbEntity
  8
DEFPOINTS
 62
     0
100
AcDbPoint
 10
279.0
 20
325.0
 30
0.0
  0
POINT
  5
23B
330
231
100
AcDbEntity
  8
DEFPOINTS
 62
     0
100
AcDbPoint
 10
279.0
 20
275.0
 30
0.0
  0
POINT
  5
23C
330
231
100
AcDbEntity
  8
DEFPOINTS
 62
     0
100
AcDbPoint
 10
311.6999999999999
 20
275.0
 30
0.0
  0
ENDBLK
  5
233
330
231
100
AcDbEntity
  8
0
100
AcDbBlockEnd
  0
BLOCK
  5
241
330
240
100
AcDbEntity
  8
0
100
AcDbBlockBegin
  2
*D19
 70
     1
 10
0.0
 20
0.0
 30
0.0
  3
*D19
  1

  0
LINE
  5
243
330
240
100
AcDbEntity
  8
寸法
  6
CONTINUOUS
 62
     3
100
AcDbLine
 10
223.0
 20
280.8000000238418
 30
0.0
 11
223.0
 21
229.4000000000001
 31
0.0
  0
LINE
  5
244
330
240
100
AcDbEntity
  8
寸法
  6
CONTINUOUS
 62
     3
100
AcDbLine
 10
148.0
 20
255.6000000238419
 30
0.0
 11
148.0
 21
229.4000000000001
 31
0.0
  0
LINE
  5
245
330
240
100
AcDbEntity
  8
寸法
  6
CONTINUOUS
 62
     3
100
AcDbLine
 10
217.0
 20
231.4
 30
0.0
 11
154.0
 21
231.4
 31
0.0
  0
INSERT
  5
246
330
240
100
AcDbEntity
  8
寸法
 62
     3
100
AcDbBlockReference
  2
EX_NORM
 10
223.0
 20
231.4
 30
0.0
 41
6.0
 42
6.0
 43
6.0
  0
INSERT
  5
247
330
240
100
AcDbEntity
  8
寸法
 62
     3
100
AcDbBlockReference
  2
EX_NORM
 10
148.0
 20
231.4
 30
0.0
 41
6.0
 42
6.0
 43
6.0
 50
180.0
  0
MTEXT
  5
248
330
240
100
AcDbEntity
  8
寸法
 62
     2
100
AcDbMText
 10
185.5
 20
236.0999999880791
 30
0.0
 40
8.0
 41
0.0
 71
     5
 72
     1
  1
75
  7
EXCADDIM1
  0
POINT
  5
249
330
240
100
AcDbEntity
  8
DEFPOINTS
 62
     0
100
AcDbPoint
 10
223.0
 20
282.2
 30
0.0
  0
POINT
  5
24A
330
240
100
AcDbEntity
  8
DEFPOINTS
 62
     0
100
AcDbPoint
 10
148.0
 20
257.0
 30
0.0
  0
POINT
  5
24B
330
240
100
AcDbEntity
  8
DEFPOINTS
 62
     0
100
AcDbPoint
 10
148.0
 20
231.4
 30
0.0
  0
ENDBLK
  5
242
330
240
100
AcDbEntity
  8
0
100
AcDbBlockEnd
  0
BLOCK
  5
24E
330
24D
100
AcDbEntity
  8
0
100
AcDbBlockBegin
  2
*D20
 70
     1
 10
0.0
 20
0.0
 30
0.0
  3
*D20
  1

  0
LINE
  5
250
330
24D
100
AcDbEntity
  8
寸法
  6
CONTINUOUS
 62
     3
100
AcDbLine
 10
152.8000000238418
 20
300.0
 30
0.0
 11
115.8
 21
300.0
 31
0.0
  0
LINE
  5
251
330
24D
100
AcDbEntity
  8
寸法
  6
CONTINUOUS
 62
     3
100
AcDbLine
 10
146.6000000238419
 20
257.0
 30
0.0
 11
115.8
 21
257.0
 31
0.0
  0
LINE
  5
252
330
24D
100
AcDbEntity
  8
寸法
  6
CONTINUOUS
 62
     3
100
AcDbLine
 10
117.8
 20
294.0
 30
0.0
 11
117.8
 21
263.0
 31
0.0
  0
INSERT
  5
253
330
24D
100
AcDbEntity
  8
寸法
 62
     3
100
AcDbBlockReference
  2
EX_NORM
 10
117.8
 20
300.0
 30
0.0
 41
6.0
 42
6.0
 43
6.0
 50
90.0
  0
INSERT
  5
254
330
24D
100
AcDbEntity
  8
寸法
 62
     3
100
AcDbBlockReference
  2
EX_NORM
 10
117.8
 20
257.0
 30
0.0
 41
6.0
 42
6.0
 43
6.0
 50
270.0
  0
MTEXT
  5
255
330
24D
100
AcDbEntity
  8
寸法
 62
     2
100
AcDbMText
 10
113.1000000119209
 20
278.5
 30
0.0
 40
8.0
 41
0.0
 71
     5
 72
     1
  1
43
  7
EXCADDIM1
 11
0.0
 21
1.0
 31
0.0
  0
POINT
  5
256
330
24D
100
AcDbEntity
  8
DEFPOINTS
 62
     0
100
AcDbPoint
 10
154.2
 20
300.0
 30
0.0
  0
POINT
  5
257
330
24D
100
AcDbEntity
  8
DEFPOINTS
 62
     0
100
AcDbPoint
 10
148.0
 20
257.0
 30
0.0
  0
POINT
  5
258
330
24D
100
AcDbEntity
  8
DEFPOINTS
 62
     0
100
AcDbPoint
 10
117.8
 20
257.0
 30
0.0
  0
ENDBLK
  5
24F
330
24D
100
AcDbEntity
  8
0
100
AcDbBlockEnd
  0
ENDSEC
  0
SECTION
  2
ENTITIES
  0
HATCH
  5
AA
330
1F
100
AcDbEntity
  8
0
  6
CONTINUOUS
 62
     3
100
AcDbHatch
 10
0.0
 20
0.0
 30
0.0
210
0.0
220
0.0
230
1.0
  2
SOLID
 70
     1
 71
     1
 91
        1
 92
        3
 72
     1
 73
     1
 93
       10
 10
154.94505314665
 20
34.64339865950811
 42
-0.017362223501556
 10
154.96260314665
 20
45.23684865950821
 42
-0.0267627618865285
 10
154.9626031466499
 20
45.23684865950815
 42
0.0737939047395297
 10
157.54650314665
 20
45.247648659508
 42
0.0183878899657109
 10
157.4425531466501
 20
35.69639865950811
 42
-0.1144749489451909
 10
157.0240531466499
 20
33.68489865950809
 42
-0.1929163439413163
 10
155.0328031466501
 20
32.12159865950809
 42
-0.0603888289562337
 10
153.9771031466499
 20
31.85834865950812
 42
0.0
 10
153.7300531466499
 20
32.61029865950811
 42
0.0860918333465722
 10
154.46850314665
 20
33.00314865950812
 42
0.1331843103855141
 97
        0
 75
     0
 76
     1
 98
        1
 10
0.0
 20
0.0
  0
HATCH
  5
AB
330
1F
100
AcDbEntity
  8
0
  6
CONTINUOUS
 62
     3
100
AcDbHatch
 10
0.0
 20
0.0
 30
0.0
210
0.0
220
0.0
230
1.0
  2
SOLID
 70
     1
 71
     1
 91
        1
 92
        3
 72
     1
 73
     1
 93
       16
 10
166.77375314665
 20
34.42064865950811
 42
-0.0386228372648426
 10
166.7616031466499
 20
40.92899865950813
 42
-0.0398707891902887
 10
167.94285314665
 20
40.93439865950817
 42
-0.1256886216044368
 10
167.88885314665
 20
39.83009865950815
 42
-0.0367815758121429
 10
167.88885314665
 20
39.8300986595081
 42
-0.268021535028829
 10
170.2716031466501
 20
41.06669865950814
 42
-0.2571134422124888
 10
171.9010531466499
 20
40.2607486595082
 42
-0.1522526366014298
 10
172.31550314665
 20
38.92019865950813
 42
-0.0158825412051521
 10
172.2858031466499
 20
34.41389865950813
 42
-0.0285251271418421
 10
171.1450531466501
 20
34.41389865950812
 42
-0.0452212723224612
 10
171.20310314665
 20
38.57729865950819
 42
-0.0315567291532142
 10
170.8494031466499
 20
39.80714865950817
 42
-0.1476272403790709
 10
168.54630314665
 20
39.98399865950811
 42
-0.3908144705745794
 10
167.8969531466499
 20
38.36804865950809
 42
-0.2046259928850854
 10
167.8969531466499
 20
38.36804865950819
 42
0.0
 10
167.9982031466501
 20
34.40984865950816
 42
-0.0304995761723369
 97
        0
 75
     0
 76
     1
 98
        1
 10
0.0
 20
0.0
  0
HATCH
  5
AC
330
1F
100
AcDbEntity
  8
0
  6
CONTINUOUS
 62
     3
100
AcDbHatch
 10
0.0
 20
0.0
 30
0.0
210
0.0
220
0.0
230
1.0
  2
SOLID
 70
     1
 71
     1
 91
        2
 92
        1
 93
        1
 72
     2
 10
175.257102807667
 20
43.31670933747421
 40
0.7144668933539768
 50
0.0
 51
360.0
 73
     1
 97
        0
 92
        3
 72
     1
 73
     1
 93
        3
 10
174.6186031466499
 20
40.93979865950813
 42
0.1200283885712921
 10
175.8606031466499
 20
34.41254865950807
 42
-0.0401820615762149
 10
174.6199531466499
 20
34.40849865950815
 42
-0.0237521668114666
 97
        0
 75
     0
 76
     1
 98
        1
 10
0.0
 20
0.0
  0
HATCH
  5
AD
330
1F
100
AcDbEntity
  8
0
  6
CONTINUOUS
 62
     3
100
AcDbHatch
 10
0.0
 20
0.0
 30
0.0
210
0.0
220
0.0
230
1.0
  2
SOLID
 70
     1
 71
     1
 91
        1
 92
        3
 72
     1
 73
     1
 93
       30
 10
181.5468031466499
 20
40.66709865950824
 42
-0.0009362235736497
 10
181.5468031466499
 20
40.66709865950815
 42
0.0681165430304653
 10
181.2194186973462
 20
39.68564865950816
 42
0.0
 10
179.98620314665
 20
40.52939865950817
 42
-0.302112590907374
 10
179.98620314665
 20
40.52939865950816
 42
0.0
 10
178.7428531466499
 20
39.57629865950815
 42
-0.3704245237568778
 10
178.7428531466498
 20
39.5762986595081
 42
0.0
 10
178.80765314665
 20
38.93909865950815
 42
-0.0262822419456939
 10
179.57445314665
 20
38.32619865950809
 42
-0.180060563604375
 10
180.79755314665
 20
37.95359865950818
 42
-0.0298130817160724
 10
180.79755314665
 20
37.95359865950811
 42
-0.3153987453686078
 10
181.9248031466501
 20
36.66434865950816
 42
0.0
 10
181.9180531466501
 20
36.0878986595081
 42
-0.3510306079065168
 10
179.74455314665
 20
34.26539865950815
 42
0.0
 10
179.1100531466498
 20
34.26539865950811
 42
-0.1053356344842436
 10
177.70605314665
 20
34.67039865950815
 42
0.1188608286962634
 10
177.96255314665
 20
35.69639865950819
 42
0.0
 10
179.50155314665
 20
34.75139865950817
 42
-0.2447573632916039
 10
179.5015531466499
 20
34.75139865950814
 42
0.0
 10
180.98655314665
 20
35.79089865950817
 42
-0.3734162676407277
 10
180.9865531466501
 20
35.79089865950812
 42
0.0
 10
180.44790314665
 20
36.82904865950818
 42
-0.261219770190848
 10
179.1910531466499
 20
37.28534865950819
 42
-0.0572747914118363
 10
179.1910531466501
 20
37.28534865950816
 42
-0.1189658875692221
 10
178.1920531466499
 20
37.87124865950817
 42
-0.2005226878639636
 10
177.7735531466499
 20
38.81489865951255
 42
0.0
 10
177.76680314665
 20
39.17264865950809
 42
-0.2622894489606957
 10
178.8400531466501
 20
40.81289865950819
 42
-0.0988461274137808
 10
179.84445314665
 20
41.0545486595081
 42
0.0
 10
180.2170531466499
 20
41.05454865950818
 42
-0.0920156312561188
 97
        0
 75
     0
 76
     1
 98
        1
 10
0.0
 20
0.0
  0
HATCH
  5
AE
330
1F
100
AcDbEntity
  8
0
  6
CONTINUOUS
 62
     3
100
AcDbHatch
 10
0.0
 20
0.0
 30
0.0
210
0.0
220
0.0
230
1.0
  2
SOLID
 70
     1
 71
     1
 91
        2
 92
        3
 72
     1
 73
     1
 93
       27
 10
160.03455314665
 20
40.27289865950819
 42
-0.1769427732109284
 10
160.0345531466501
 20
40.2728986595082
 42
0.0
 10
160.0345531466501
 20
39.54389865950816
 42
0.0
 10
160.2100531466501
 20
39.54389865950809
 42
-0.207533601427307
 10
161.349484557914
 20
40.39864718258096
 42
-0.1226604740888933
 10
162.35655314665
 20
40.42004865950815
 42
-0.3213715781137954
 10
163.3976656044417
 20
39.14213028756951
 42
-0.064704004662446
 10
163.40280314665
 20
38.46659865950812
 42
-0.257798906330806
 10
163.1908531466501
 20
38.21009865950812
 42
-0.056602577721096
 10
162.73725314665
 20
38.05214865950819
 42
-0.0166741689362636
 10
161.07405314665
 20
37.73624865950814
 42
0.1186092302783404
 10
159.97650314665
 20
37.20974865950813
 42
0.1699204224386695
 10
159.49860314665
 20
36.41054865950811
 42
0.1006533494296199
 10
159.4544173359163
 20
35.71707110191455
 42
0.1675695228968024
 10
159.8874031466501
 20
34.78784865950814
 42
0.1376980079804242
 10
160.6744531466499
 20
34.33289865950818
 42
0.0719813663796923
 10
161.0322031466499
 20
34.27349865950816
 42
0.0
 10
161.5803031466501
 20
34.27349865950818
 42
0.1944607457809085
 10
163.3987531466501
 20
35.20904865950814
 42
0.1288538183665954
 10
163.5823531466499
 20
34.75004865950808
 42
0.2098387395261546
 10
164.1817531466501
 20
34.41929865950817
 42
0.0
 10
164.6164531466501
 20
34.41659865950819
 42
0.0945009641609563
 10
165.24420314665
 20
34.55024865950816
 42
0.0
 10
165.2442031466499
 20
34.86479865950813
 42
-0.2395739894657535
 10
164.6961031466501
 20
34.85939865950809
 42
-0.2502312110031057
 10
164.42610314665
 20
35.36699865950829
 42
-0.0104343570771765
 10
164.4625531466501
 20
39.15239865950813
 42
0.4051015674140716
 97
        0
 92
        3
 72
     1
 73
     1
 93
        8
 10
163.42710314665
 20
37.80509865950812
 42
-0.0339435190873666
 10
163.4271031466506
 20
37.80509865950587
 42
-0.0001110072973599
 10
163.3704031466501
 20
35.73689865950809
 42
-0.2253076310552528
 10
161.95290314665
 20
34.7905486595082
 42
0.0
 10
161.6059531466499
 20
34.7905486595082
 42
-0.3657967558150132
 10
160.5745531466499
 20
35.88674865950816
 42
0.0
 10
160.5745531466501
 20
36.27824865950817
 42
-0.2530797830369341
 10
161.27115314665
 20
37.24214865950812
 42
-0.0724473624720066
 97
        0
 75
     0
 76
     1
 98
        1
 10
0.0
 20
0.0
  0
TEXT
  5
B0
330
1F
100
AcDbEntity
  8
0
  6
CONTINUOUS
 62
     2
100
AcDbText
 10
184.6000000000005
 20
33.30000000000007
 30
0.0
 40
6.75
  1
ジャニス工業株式会社
 41
1.025641025641026
  7
EXCADTTF1
 72
     5
 11
274.6000000000005
 21
33.30000000000007
 31
0.0
100
AcDbText
  0
ARC
  5
B1
330
1F
100
AcDbEntity
  8
0
  6
CONTINUOUS
 62
     3
100
AcDbCircle
 10
162.2537064825104
 20
37.52334577853776
 30
0.0
 40
3.533367030654128
100
AcDbArc
 50
88.77000393305703
 51
128.9068631829044
  0
ARC
  5
B2
330
1F
100
AcDbEntity
  8
0
  6
CONTINUOUS
 62
     3
100
AcDbCircle
 10
162.4141254520558
 20
39.0038325194663
 30
0.0
 40
2.05380815022918
100
AcDbArc
 50
4.148222840814693
 51
92.36000944257292
  0
ARC
  5
B3
330
1F
100
AcDbEntity
  8
0
  6
CONTINUOUS
 62
     3
100
AcDbCircle
 10
255.1300271677419
 20
36.38647687863465
 30
0.0
 40
90.70965311731324
100
AcDbArc
 50
178.2526643324597
 51
180.6439560401927
  0
ARC
  5
B4
330
1F
100
AcDbEntity
  8
0
  6
CONTINUOUS
 62
     3
100
AcDbCircle
 10
165.0364797889207
 20
35.36605857560949
 30
0.0
 40
0.610377366214778
100
AcDbArc
 50
179.9117548191414
 51
236.1065985968857
  0
ARC
  5
B5
330
1F
100
AcDbEntity
  8
0
  6
CONTINUOUS
 62
     3
100
AcDbCircle
 10
164.9648415691591
 20
35.4012237748218
 30
0.0
 40
0.60480971827296
100
AcDbArc
 50
243.6191685566582
 51
297.5097757939563
  0
LINE
  5
B6
330
1F
100
AcDbEntity
  8
0
  6
CONTINUOUS
 62
     3
100
AcDbLine
 10
165.24420314665
 20
34.55024865950816
 30
0.0
 11
165.24420314665
 21
34.8647986595081
 31
0.0
  0
LINE
  5
B7
330
1F
100
AcDbEntity
  8
0
  6
CONTINUOUS
 62
     3
100
AcDbLine
 10
164.1817531466501
 20
34.41929865950817
 30
0.0
 11
164.61645314665
 21
34.41929865950817
 31
0.0
  0
ARC
  5
B8
330
1F
100
AcDbEntity
  8
0
  6
CONTINUOUS
 62
     3
100
AcDbCircle
 10
164.5799178389118
 20
36.12929025646065
 30
0.0
 40
1.713081240041788
100
AcDbArc
 50
271.2220539293239
 51
292.8159509797653
  0
ARC
  5
B9
330
1F
100
AcDbEntity
  8
0
  6
CONTINUOUS
 62
     3
100
AcDbCircle
 10
164.2587547016292
 20
35.2673491305726
 30
0.0
 40
0.851539101240796
100
AcDbArc
 50
217.4081478714985
 51
264.8118660441384
  0
ARC
  5
BA
330
1F
100
AcDbEntity
  8
0
  6
CONTINUOUS
 62
     3
100
AcDbCircle
 10
164.3663112111662
 20
35.32985188531461
 30
0.0
 40
0.975070268019444
100
AcDbArc
 50
187.1167640402297
 51
216.4860549324747
  0
ARC
  5
BB
330
1F
100
AcDbEntity
  8
0
  6
CONTINUOUS
 62
     3
100
AcDbCircle
 10
161.3322609173401
 20
36.99068052513655
 30
0.0
 40
2.728479840207864
100
AcDbArc
 50
275.2158792069686
 51
319.2336424873511
  0
LINE
  5
BC
330
1F
100
AcDbEntity
  8
0
  6
CONTINUOUS
 62
     3
100
AcDbLine
 10
161.0322031466499
 20
34.27349865950816
 30
0.0
 11
161.5803031466501
 21
34.27349865950816
 31
0.0
  0
ARC
  5
BD
330
1F
100
AcDbEntity
  8
0
  6
CONTINUOUS
 62
     3
100
AcDbCircle
 10
161.058562614735
 20
35.53926988774822
 30
0.0
 40
1.266045664183572
100
AcDbArc
 50
252.3384873625213
 51
268.8069976857606
  0
ARC
  5
BE
330
1F
100
AcDbEntity
  8
0
  6
CONTINUOUS
 62
     3
100
AcDbCircle
 10
161.0912590607377
 20
35.96222209545192
 30
0.0
 40
1.681791315512732
100
AcDbArc
 50
224.289750990011
 51
255.6505938786759
  0
ARC
  5
BF
330
1F
100
AcDbEntity
  8
0
  6
CONTINUOUS
 62
     3
100
AcDbCircle
 10
161.0183066583099
 20
35.88030043145727
 30
0.0
 40
1.57238469425258
100
AcDbArc
 50
185.9586126338419
 51
224.0091989319859
  0
ARC
  5
C0
330
1F
100
AcDbEntity
  8
0
  6
CONTINUOUS
 62
     3
100
AcDbCircle
 10
161.1815003713998
 20
35.95517425095488
 30
0.0
 40
1.743418745177338
100
AcDbArc
 50
164.8589457925044
 51
187.8495628504518
  0
ARC
  5
C1
330
1F
100
AcDbEntity
  8
0
  6
CONTINUOUS
 62
     3
100
AcDbCircle
 10
160.8794475806029
 20
36.12732665001602
 30
0.0
 40
1.409590741115844
100
AcDbArc
 50
129.8344892359069
 51
168.4089447024628
  0
ARC
  5
C2
330
1F
100
AcDbEntity
  8
0
  6
CONTINUOUS
 62
     3
100
AcDbCircle
 10
161.6194027735156
 20
35.19216962965743
 30
0.0
 40
2.60187323396984
100
AcDbArc
 50
102.0988446293839
 51
129.1556705448828
  0
ARC
  5
C3
330
1F
100
AcDbEntity
  8
0
  6
CONTINUOUS
 62
     3
100
AcDbCircle
 10
157.1706019997157
 20
62.82404059550424
 30
0.0
 40
25.38964818740764
100
AcDbArc
 50
278.8438342053764
 51
282.6649181367123
  0
ARC
  5
C4
330
1F
100
AcDbEntity
  8
0
  6
CONTINUOUS
 62
     3
100
AcDbCircle
 10
162.2686610022179
 20
40.12814725377496
 30
0.0
 40
2.128226670545568
100
AcDbArc
 50
282.7195832898965
 51
295.6781112778079
  0
ARC
  5
C5
330
1F
100
AcDbEntity
  8
0
  6
CONTINUOUS
 62
     3
100
AcDbCircle
 10
163.0646191134668
 20
38.53022665008575
 30
0.0
 40
0.344117656456262
100
AcDbArc
 50
291.5204897073511
 51
349.3445900274031
  0
ARC
  5
C6
330
1F
100
AcDbEntity
  8
0
  6
CONTINUOUS
 62
     3
100
AcDbCircle
 10
160.8010774713313
 20
38.78459740750247
 30
0.0
 40
2.621087502037842
100
AcDbArc
 50
353.0315250986587
 51
7.839947970678348
  0
ARC
  5
C7
330
1F
100
AcDbEntity
  8
0
  6
CONTINUOUS
 62
     3
100
AcDbCircle
 10
161.9856682563537
 20
39.05483772306843
 30
0.0
 40
1.414693077252004
100
AcDbArc
 50
3.537639967999379
 51
74.8013566619203
  0
ARC
  5
C8
330
1F
100
AcDbEntity
  8
0
  6
CONTINUOUS
 62
     3
100
AcDbCircle
 10
161.8959819159661
 20
38.38767661026043
 30
0.0
 40
2.08390546932846
100
AcDbArc
 50
77.23143261361693
 51
105.203415964315
  0
ARC
  5
C9
330
1F
100
AcDbEntity
  8
0
  6
CONTINUOUS
 62
     3
100
AcDbCircle
 10
161.7650723540597
 20
38.65780383715764
 30
0.0
 40
1.789762210353438
100
AcDbArc
 50
103.4267945469744
 51
150.3242613737993
  0
LINE
  5
CA
330
1F
100
AcDbEntity
  8
0
  6
CONTINUOUS
 62
     3
100
AcDbLine
 10
160.0345531466501
 20
40.2728986595082
 30
0.0
 11
160.0345531466501
 21
39.54389865950816
 31
0.0
  0
ARC
  5
CB
330
1F
100
AcDbEntity
  8
0
  6
CONTINUOUS
 62
     3
100
AcDbCircle
 10
141.0287913045414
 20
35.34685523845576
 30
0.0
 40
13.9340300996012
100
AcDbArc
 50
353.1274757312911
 51
357.106204490141
  0
ARC
  5
CC
330
1F
100
AcDbEntity
  8
0
  6
CONTINUOUS
 62
     3
100
AcDbCircle
 10
56.06771042458627
 20
40.10394671677682
 30
0.0
 40
99.02800860798017
100
AcDbArc
 50
356.8390243485978
 51
2.971133813187157
  0
ARC
  5
CD
330
1F
100
AcDbEntity
  8
0
  6
CONTINUOUS
 62
     3
100
AcDbCircle
 10
153.4185477299204
 20
34.06815036945829
 30
0.0
 40
1.495538371061266
100
AcDbArc
 50
314.592391474832
 51
344.9374073189123
  0
ARC
  5
CE
330
1F
100
AcDbEntity
  8
0
  6
CONTINUOUS
 62
     3
100
AcDbCircle
 10
152.9669457937088
 20
34.9351971889198
 30
0.0
 40
2.44693400078005
100
AcDbArc
 50
288.1715191042997
 51
307.8537826235693
  0
LINE
  5
CF
330
1F
100
AcDbEntity
  8
0
  6
CONTINUOUS
 62
     3
100
AcDbLine
 10
153.9771031466499
 20
31.85834865950812
 30
0.0
 11
153.73005314665
 21
32.61029865950809
 31
0.0
  0
ARC
  5
D0
330
1F
100
AcDbEntity
  8
0
  6
CONTINUOUS
 62
     3
100
AcDbCircle
 10
153.4191149973331
 20
36.34446305830772
 30
0.0
 40
4.520682821642724
100
AcDbArc
 50
277.0901027239701
 51
290.9134154817058
  0
ARC
  5
D1
330
1F
100
AcDbEntity
  8
0
  6
CONTINUOUS
 62
     3
100
AcDbCircle
 10
154.0779465577095
 20
35.3876703725366
 30
0.0
 40
3.40278937639223
100
AcDbArc
 50
286.2966123578915
 51
329.973223283839
  0
ARC
  5
D2
330
1F
100
AcDbEntity
  8
0
  6
CONTINUOUS
 62
     3
100
AcDbCircle
 10
152.8979872358123
 20
35.59262713760188
 30
0.0
 40
4.545750526228622
100
AcDbArc
 50
335.1860595856123
 51
1.308075913059364
  0
ARC
  5
D3
330
1F
100
AcDbEntity
  8
0
  6
CONTINUOUS
 62
     3
100
AcDbCircle
 10
287.3085062826868
 20
39.05920721901691
 30
0.0
 40
129.9094848936721
100
AcDbArc
 50
177.2695926307304
 51
181.4833117237826
  0
ARC
  5
D4
330
1F
100
AcDbEntity
  8
0
  6
CONTINUOUS
 62
     3
100
AcDbCircle
 10
156.2181640024454
 20
53.9483514104445
 30
0.0
 40
8.801517666980931
100
AcDbArc
 50
261.7986203004403
 51
278.6803384946418
  0
ARC
  5
D5
330
1F
100
AcDbEntity
  8
0
  6
CONTINUOUS
 62
     3
100
AcDbCircle
 10
161.1211219870745
 20
45.75002762321014
 30
0.0
 40
8.272813629388034
100
AcDbArc
 50
278.4088456599976
 51
286.1851416003176
  0
ARC
  5
D6
330
1F
100
AcDbEntity
  8
0
  6
CONTINUOUS
 62
     3
100
AcDbCircle
 10
162.9132130351541
 20
33.76637725335956
 30
0.0
 40
3.844131572310416
100
AcDbArc
 50
98.71271710191789
 51
115.2874718053599
  0
ARC
  5
D7
330
1F
100
AcDbEntity
  8
0
  6
CONTINUOUS
 62
     3
100
AcDbCircle
 10
161.8140373367568
 20
36.11614958094367
 30
0.0
 40
1.250038866914106
100
AcDbArc
 50
115.7403688633493
 51
172.5491744442191
  0
LINE
  5
D8
330
1F
100
AcDbEntity
  8
0
  6
CONTINUOUS
 62
     3
100
AcDbLine
 10
160.5745531466499
 20
36.27824865950811
 30
0.0
 11
160.5745531466499
 21
35.88674865950816
 31
0.0
  0
ARC
  5
D9
330
1F
100
AcDbEntity
  8
0
  6
CONTINUOUS
 62
     3
100
AcDbCircle
 10
161.7391930697747
 20
35.94922760195573
 30
0.0
 40
1.166314609693994
100
AcDbArc
 50
183.0707787095794
 51
263.4402016072427
  0
LINE
  5
DA
330
1F
100
AcDbEntity
  8
0
  6
CONTINUOUS
 62
     3
100
AcDbLine
 10
161.6059531466499
 20
34.7905486595082
 30
0.0
 11
161.95290314665
 21
34.7905486595082
 31
0.0
  0
ARC
  5
DB
330
1F
100
AcDbEntity
  8
0
  6
CONTINUOUS
 62
     3
100
AcDbCircle
 10
161.6648938153184
 20
36.75672979060414
 30
0.0
 40
1.987163207995832
100
AcDbArc
 50
278.3335103000368
 51
329.1221464187299
  0
ARC
  5
DC
330
1F
100
AcDbEntity
  8
0
  6
CONTINUOUS
 62
     3
100
AcDbCircle
 10
-4494.40308443547
 20
164.4653049117566
 30
0.0
 40
4659.552002521183
100
AcDbArc
 50
358.4169008257799
 51
358.4423418242109
  0
ARC
  5
DD
330
1F
100
AcDbEntity
  8
0
  6
CONTINUOUS
 62
     3
100
AcDbCircle
 10
167.3161756013862
 20
26.50138509023418
 30
0.0
 40
7.937818188836994
100
AcDbArc
 50
85.07099551674689
 51
93.91830029343228
  0
ARC
  5
DE
330
1F
100
AcDbEntity
  8
0
  6
CONTINUOUS
 62
     3
100
AcDbCircle
 10
182.6817715790208
 20
36.18300294019627
 30
0.0
 40
14.79024198622985
100
AcDbArc
 50
179.8977458165987
 51
186.8855675734268
  0
ARC
  5
DF
330
1F
100
AcDbEntity
  8
0
  6
CONTINUOUS
 62
     3
100
AcDbCircle
 10
170.113234447328
 20
38.41590450276112
 30
0.0
 40
2.216797912636262
100
AcDbArc
 50
134.9787476233347
 51
181.2369872983282
  0
ARC
  5
E0
330
1F
100
AcDbEntity
  8
0
  6
CONTINUOUS
 62
     3
100
AcDbCircle
 10
169.6020029041106
 20
38.64732546277378
 30
0.0
 40
1.703290114094006
100
AcDbArc
 50
42.91644474042847
 51
128.3015542351336
  0
ARC
  5
E1
330
1F
100
AcDbEntity
  8
0
  6
CONTINUOUS
 62
     3
100
AcDbCircle
 10
168.9889480913705
 20
38.60630277643111
 30
0.0
 40
2.214345015488308
100
AcDbArc
 50
359.2495022237244
 51
32.84055016678327
  0
ARC
  5
E2
330
1F
100
AcDbEntity
  8
0
  6
CONTINUOUS
 62
     3
100
AcDbCircle
 10
138.2234675729948
 20
36.95502675764931
 30
0.0
 40
33.01951133337176
100
AcDbArc
 50
355.5862454873798
 51
2.816115806820253
  0
ARC
  5
E3
330
1F
100
AcDbEntity
  8
0
  6
CONTINUOUS
 62
     3
100
AcDbCircle
 10
171.7154281466501
 20
28.12030523845556
 30
0.0
 40
6.319386504253488
100
AcDbArc
 50
84.82155189294139
 51
95.17844810705873
  0
ARC
  5
E4
330
1F
100
AcDbEntity
  8
0
  6
CONTINUOUS
 62
     3
100
AcDbCircle
 10
204.9315267323395
 20
35.98134749478265
 30
0.0
 40
32.68333159707643
100
AcDbArc
 50
176.2131780319488
 51
182.7488833337936
  0
ARC
  5
E5
330
1F
100
AcDbEntity
  8
0
  6
CONTINUOUS
 62
     3
100
AcDbCircle
 10
160.0382720242011
 20
38.46631549624283
 30
0.0
 40
12.28561817573392
100
AcDbArc
 50
358.4775281223095
 51
2.117232414210064
  0
ARC
  5
E6
330
1F
100
AcDbEntity
  8
0
  6
CONTINUOUS
 62
     3
100
AcDbCircle
 10
169.9581103068964
 20
38.92571884903055
 30
0.0
 40
2.35739930292118
100
AcDbArc
 50
359.8658335690532
 51
34.49363429411157
  0
ARC
  5
E7
330
1F
100
AcDbEntity
  8
0
  6
CONTINUOUS
 62
     3
100
AcDbCircle
 10
170.3544811482753
 20
39.18409329595988
 30
0.0
 40
1.88442875111108
100
AcDbArc
 50
34.84393737091607
 51
92.5207065423111
  0
ARC
  5
E8
330
1F
100
AcDbEntity
  8
0
  6
CONTINUOUS
 62
     3
100
AcDbCircle
 10
170.150821380051
 20
38.38551977637201
 30
0.0
 40
2.68389799331452
100
AcDbArc
 50
87.42068310381028
 51
147.4361518966862
  0
ARC
  5
E9
330
1F
100
AcDbEntity
  8
0
  6
CONTINUOUS
 62
     3
100
AcDbCircle
 10
175.4114945479232
 20
40.01571362766106
 30
0.0
 40
7.524931000916362
100
AcDbArc
 50
172.9875214416311
 51
181.4134392789641
  0
ARC
  5
EA
330
1F
100
AcDbEntity
  8
0
  6
CONTINUOUS
 62
     3
100
AcDbCircle
 10
167.3416569972247
 20
43.24413759628976
 30
0.0
 40
2.386698717092032
100
AcDbArc
 50
255.9341994177206
 51
284.5896440601899
  0
ARC
  5
EB
330
1F
100
AcDbEntity
  8
0
  6
CONTINUOUS
 62
     3
100
AcDbCircle
 10
126.0235397734318
 20
37.59876117343492
 30
0.0
 40
40.87395612262144
100
AcDbArc
 50
355.5405243117485
 51
4.673398698656258
  0
LINE
  5
EC
330
1F
100
AcDbEntity
  8
0
  6
CONTINUOUS
 62
     3
100
AcDbLine
 10
167.8969531466499
 20
38.36804865950819
 30
0.0
 11
167.8969531466499
 21
36.20939865950811
 31
0.0
  0
CIRCLE
  5
ED
330
1F
100
AcDbEntity
  8
0
  6
CONTINUOUS
 62
     3
100
AcDbCircle
 10
175.257102807667
 20
43.31670933747421
 30
0.0
 40
0.714466893353978
  0
ARC
  5
EE
330
1F
100
AcDbEntity
  8
0
  6
CONTINUOUS
 62
     3
100
AcDbCircle
 10
175.2291215205545
 20
43.50664948716155
 30
0.0
 40
2.638457097680414
100
AcDbArc
 50
256.6209501743446
 51
283.9984576255729
  0
ARC
  5
EF
330
1F
100
AcDbEntity
  8
0
  6
CONTINUOUS
 62
     3
100
AcDbCircle
 10
175.2828817874266
 20
21.35960836824665
 30
0.0
 40
13.06571897050218
100
AcDbArc
 50
87.46575055044718
 51
92.90832285102188
  0
ARC
  5
F0
330
1F
100
AcDbEntity
  8
0
  6
CONTINUOUS
 62
     3
100
AcDbCircle
 10
216.4508094359113
 20
37.63762011478775
 30
0.0
 40
40.71812781178001
100
AcDbArc
 50
175.3387608397566
 51
184.5428594926176
  0
ARC
  5
F1
330
1F
100
AcDbEntity
  8
0
  6
CONTINUOUS
 62
     3
100
AcDbCircle
 10
130.3380115072773
 20
37.66499585532472
 30
0.0
 40
44.40152170071624
100
AcDbArc
 50
355.7940354718673
 51
4.229650257234378
  0
ARC
  5
F2
330
1F
100
AcDbEntity
  8
0
  6
CONTINUOUS
 62
     3
100
AcDbCircle
 10
244.3288906465629
 20
203.0059486592841
 30
0.0
 40
174.0560045792631
100
AcDbArc
 50
248.6422112053103
 51
248.8567777804232
  0
ARC
  5
F3
330
1F
100
AcDbEntity
  8
0
  6
CONTINUOUS
 62
     3
100
AcDbCircle
 10
180.1708565692113
 20
39.0332607672791
 30
0.0
 40
2.021815735184314
100
AcDbArc
 50
67.66151957087348
 51
88.69073168448988
  0
ARC
  5
F4
330
1F
100
AcDbEntity
  8
0
  6
CONTINUOUS
 62
     3
100
AcDbCircle
 10
179.9542208856781
 20
38.41958195875225
 30
0.0
 40
2.63994973073505
100
AcDbArc
 50
92.38301574576484
 51
114.9635286746436
  0
ARC
  5
F5
330
1F
100
AcDbEntity
  8
0
  6
CONTINUOUS
 62
     3
100
AcDbCircle
 10
179.7592699359922
 20
39.0401858220373
 30
0.0
 40
1.99686512061838
100
AcDbArc
 50
117.4083995939977
 51
176.1964688215695
  0
ARC
  5
F6
330
1F
100
AcDbEntity
  8
0
  6
CONTINUOUS
 62
     3
100
AcDbCircle
 10
179.1119851585199
 20
38.84385538151059
 30
0.0
 40
1.338745211811222
100
AcDbArc
 50
181.2393899443581
 51
226.5942921332421
  0
ARC
  5
F7
330
1F
100
AcDbEntity
  8
0
  6
CONTINUOUS
 62
     3
100
AcDbCircle
 10
179.9053629159899
 20
39.64792822013374
 30
0.0
 40
2.468201901559134
100
AcDbArc
 50
226.0402388947521
 51
253.1776672992999
  0
ARC
  5
F8
330
1F
100
AcDbEntity
  8
0
  6
CONTINUOUS
 62
     3
100
AcDbCircle
 10
177.8342978366085
 20
31.58914283510421
 30
0.0
 40
5.855556827945508
100
AcDbArc
 50
63.49050203733571
 51
76.60259219849584
  0
ARC
  5
F9
330
1F
100
AcDbEntity
  8
0
  6
CONTINUOUS
 62
     3
100
AcDbCircle
 10
180.0616009170733
 20
35.99692450866337
 30
0.0
 40
0.917420304438028
100
AcDbArc
 50
6.53892419415897
 51
65.09756080693691
  0
ARC
  5
FA
330
1F
100
AcDbEntity
  8
0
  6
CONTINUOUS
 62
     3
100
AcDbCircle
 10
179.8071555489302
 20
35.94004727514334
 30
0.0
 40
1.188790983753352
100
AcDbArc
 50
270.8867385422408
 51
352.7925382056677
  0
ARC
  5
FB
330
1F
100
AcDbEntity
  8
0
  6
CONTINUOUS
 62
     3
100
AcDbCircle
 10
179.7272208646972
 20
36.53317279554767
 30
0.0
 40
1.796008070925054
100
AcDbArc
 50
207.7689879465537
 51
262.7817283832026
  0
ARC
  5
FC
330
1F
100
AcDbEntity
  8
0
  6
CONTINUOUS
 62
     3
100
AcDbCircle
 10
179.3586010918553
 20
37.7631315362205
 30
0.0
 40
3.50655263156004
100
AcDbArc
 50
241.8829576087176
 51
265.9354096935781
  0
ARC
  5
FD
330
1F
100
AcDbEntity
  8
0
  6
CONTINUOUS
 62
     3
100
AcDbCircle
 10
179.6932777293512
 20
36.5338493423609
 30
0.0
 40
2.26903011636129
100
AcDbArc
 50
271.2948770866743
 51
348.6654156292868
  0
ARC
  5
FE
330
1F
100
AcDbEntity
  8
0
  6
CONTINUOUS
 62
     3
100
AcDbCircle
 10
180.440914425839
 20
36.5043451706315
 30
0.0
 40
1.492490151459212
100
AcDbArc
 50
6.154262763177246
 51
76.17509904255616
  0
ARC
  5
FF
330
1F
100
AcDbEntity
  8
0
  6
CONTINUOUS
 62
     3
100
AcDbCircle
 10
183.3076933938411
 20
48.38718621007024
 30
0.0
 40
10.73128851703336
100
AcDbArc
 50
249.6420733479936
 51
256.4727051201885
  0
ARC
  5
100
330
1F
100
AcDbEntity
  8
0
  6
CONTINUOUS
 62
     3
100
AcDbCircle
 10
180.0144270477489
 20
39.66277283533225
 30
0.0
 40
1.407127414674368
100
AcDbArc
 50
210.9501336849607
 51
251.7794729821079
  0
ARC
  5
101
330
1F
100
AcDbEntity
  8
0
  6
CONTINUOUS
 62
     3
100
AcDbCircle
 10
181.4606281466525
 20
39.87646365950889
 30
0.0
 40
2.8137038745868
100
AcDbArc
 50
193.4375782160214
 51
199.459638038058
  0
ARC
  5
102
330
1F
100
AcDbEntity
  8
0
  6
CONTINUOUS
 62
     3
100
AcDbCircle
 10
179.8070192972106
 20
39.45349989415843
 30
0.0
 40
1.071227862207862
100
AcDbArc
 50
92.11404364449162
 51
173.4175047026091
  0
ARC
  5
103
330
1F
100
AcDbEntity
  8
0
  6
CONTINUOUS
 62
     3
100
AcDbCircle
 10
179.88294678255
 20
39.30858472583338
 30
0.0
 40
1.225172860204506
100
AcDbArc
 50
17.92452211681263
 51
85.16543319077402
  0
LINE
  5
104
330
1F
100
AcDbEntity
  8
0
  6
CONTINUOUS
 62
     3
100
AcDbLine
 10
180.2170531466501
 20
41.0545486595081
 30
0.0
 11
179.84445314665
 21
41.0545486595081
 31
0.0
  0
LINE
  5
105
330
1F
100
AcDbEntity
  8
0
  6
CONTINUOUS
 62
     3
100
AcDbLine
 10
179.5015531466499
 20
34.75139865950814
 30
0.0
 11
179.8255531466501
 21
34.75139865950814
 31
0.0
  0
LINE
  5
106
330
1F
100
AcDbEntity
  8
0
  6
CONTINUOUS
 62
     3
100
AcDbLine
 10
178.1380531466501
 20
35.69639865950819
 30
0.0
 11
177.96255314665
 21
35.69639865950819
 31
0.0
  0
LINE
  5
107
330
1F
100
AcDbEntity
  8
0
  6
CONTINUOUS
 62
     3
100
AcDbLine
 10
179.11005314665
 20
34.26539865950815
 30
0.0
 11
179.74455314665
 21
34.26539865950815
 31
0.0
  0
LINE
  5
108
330
1F
100
AcDbEntity
  8
0
  6
CONTINUOUS
 62
     3
100
AcDbLine
 10
160.0345531466501
 20
39.54389865950816
 30
0.0
 11
160.21005314665
 21
39.54389865950816
 31
0.0
  0
ARC
  5
109
330
1F
100
AcDbEntity
  8
0
  6
CONTINUOUS
 62
     3
100
AcDbCircle
 10
175.7068826264187
 20
35.71559519130005
 30
0.0
 40
2.255907480157676
100
AcDbArc
 50
332.3987521421788
 51
359.5124385477116
  0
LINE
  5
10A
330
1F
100
AcDbEntity
  8
0
  6
CONTINUOUS
 62
     3
100
AcDbLine
 10
180.9730531466499
 20
36.10139865950816
 30
0.0
 11
180.9865531466501
 21
35.79089865950812
 31
0.0
  0
LINE
  5
10B
330
1F
100
AcDbEntity
  8
0
  6
CONTINUOUS
 62
     3
100
AcDbLine
 10
181.9248031466501
 20
36.66434865950816
 30
0.0
 11
181.9180531466499
 21
36.08789865950814
 31
0.0
  0
LINE
  5
10C
330
1F
100
AcDbEntity
  8
0
  6
CONTINUOUS
 62
     3
100
AcDbLine
 10
178.7428531466498
 20
39.5762986595081
 30
0.0
 11
178.7239531466499
 21
39.22259865950809
 31
0.0
  0
LINE
  5
10D
330
1F
100
AcDbEntity
  8
0
  6
CONTINUOUS
 62
     3
100
AcDbLine
 10
177.76680314665
 20
39.17264865950813
 30
0.0
 11
177.7735531466499
 21
38.81489865951255
 31
0.0
  0
LINE
  5
10E
330
1F
100
AcDbEntity
  8
0
  6
CONTINUOUS
 62
     3
100
AcDbLine
 10
179.7675031466499
 20
40.52399865950815
 30
0.0
 11
179.98620314665
 21
40.52939865950816
 31
0.0
  0
LINE
  5
10F
330
1F
100
AcDbEntity
  8
0
  6
CONTINUOUS
 62
     3
100
AcDbLine
 10
181.0486531466501
 20
39.68564865950816
 30
0.0
 11
181.2194186973462
 21
39.68564865950816
 31
0.0
  0
ARC
  5
110
330
1F
100
AcDbEntity
  8
0
  6
CONTINUOUS
 62
     3
100
AcDbCircle
 10
184.9684962137741
 20
38.98038875014993
 30
0.0
 40
3.814836007475662
100
AcDbArc
 50
153.7591918158497
 51
169.3462759801917
  0
TEXT
  5
111
330
1F
100
AcDbEntity
  8
図枠
  6
CONTINUOUS
 62
     2
100
AcDbText
 10
376.90742188
 20
62.14455566000007
 30
0.0
 40
6.0
  1
１
 41
1.101333351135257
  7
EXCADSTD
 72
     5
 11
381.627421956294
 21
62.14455566000007
 31
0.0
100
AcDbText
  0
TEXT
  5
112
330
1F
100
AcDbEntity
  8
図枠
  6
CONTINUOUS
 62
     2
100
AcDbText
 10
39.29999999999996
 20
63.35000000000005
 30
0.0
 40
8.5
  1
製図
 41
1.509694117647059
  7
EXCADSTD
 72
     5
 11
59.46519999999996
 21
63.35000000000005
 31
0.0
100
AcDbText
  0
TEXT
  5
113
330
1F
100
AcDbEntity
  8
図枠
  6
CONTINUOUS
 62
     2
100
AcDbText
 10
70.29999999999995
 20
63.35000000000005
 30
0.0
 40
8.5
  1
写図
 41
1.509694117647059
  7
EXCADSTD
 72
     5
 11
90.46519999999995
 21
63.35000000000005
 31
0.0
100
AcDbText
  0
TEXT
  5
114
330
1F
100
AcDbEntity
  8
図枠
  6
CONTINUOUS
 62
     2
100
AcDbText
 10
100.3
 20
63.35000000000005
 30
0.0
 40
8.5
  1
検図
 41
1.303826737967915
  7
EXCADSTD
 72
     5
 11
117.7154
 21
63.35000000000005
 31
0.0
100
AcDbText
  0
TEXT
  5
115
330
1F
100
AcDbEntity
  8
図枠
  6
CONTINUOUS
 62
     2
100
AcDbText
 10
126.3
 20
63.35000000000005
 30
0.0
 40
8.5
  1
承認
 41
1.303826737967915
  7
EXCADSTD
 72
     5
 11
143.7154
 21
63.35000000000005
 31
0.0
100
AcDbText
  0
TEXT
  5
116
330
1F
100
AcDbEntity
  8
図枠
  6
CONTINUOUS
 62
     2
100
AcDbText
 10
149.9499999999999
 20
61.35000000000005
 30
0.0
 40
8.5
  1
品
 41
1.120000000000002
  7
EXCADSTD
 72
     5
 11
156.7499999999999
 21
61.35000000000005
 31
0.0
100
AcDbText
  0
TEXT
  5
117
330
1F
100
AcDbEntity
  8
図枠
  6
CONTINUOUS
 62
     2
100
AcDbText
 10
149.9499999999999
 20
51.35000000000005
 30
0.0
 40
8.5
  1
名
 41
1.120000000000002
  7
EXCADSTD
 72
     5
 11
156.7499999999999
 21
51.35000000000005
 31
0.0
100
AcDbText
  0
TEXT
  5
118
330
1F
100
AcDbEntity
  8
図枠
  6
CONTINUOUS
 62
     2
100
AcDbText
 10
277.9499999999999
 20
61.35000000000005
 30
0.0
 40
8.5
  1
品
 41
1.120000000000002
  7
EXCADSTD
 72
     5
 11
284.7499999999999
 21
61.35000000000005
 31
0.0
100
AcDbText
  0
TEXT
  5
119
330
1F
100
AcDbEntity
  8
図枠
  6
CONTINUOUS
 62
     2
100
AcDbText
 10
277.9499999999999
 20
51.35000000000005
 30
0.0
 40
8.5
  1
番
 41
1.120000000000002
  7
EXCADSTD
 72
     5
 11
284.7499999999999
 21
51.35000000000005
 31
0.0
100
AcDbText
  0
TEXT
  5
11A
330
1F
100
AcDbEntity
  8
図枠
  6
CONTINUOUS
 62
     2
100
AcDbText
 10
362.15
 20
61.35000000000005
 30
0.0
 40
8.5
  1
尺
 41
1.120000000000002
  7
EXCADSTD
 72
     5
 11
368.95
 21
61.35000000000005
 31
0.0
100
AcDbText
  0
TEXT
  5
11B
330
1F
100
AcDbEntity
  8
図枠
  6
CONTINUOUS
 62
     2
100
AcDbText
 10
362.15
 20
51.35000000000005
 30
0.0
 40
8.5
  1
度
 41
1.120000000000002
  7
EXCADSTD
 72
     5
 11
368.95
 21
51.35000000000005
 31
0.0
100
AcDbText
  0
TEXT
  5
11C
330
1F
100
AcDbEntity
  8
図枠
  6
CONTINUOUS
 62
     2
100
AcDbText
 10
277.9499999999999
 20
38.75000000000003
 30
0.0
 40
8.5
  1
図
 41
1.120000000000002
  7
EXCADSTD
 72
     5
 11
284.7499999999999
 21
38.75000000000003
 31
0.0
100
AcDbText
  0
TEXT
  5
11D
330
1F
100
AcDbEntity
  8
図枠
  6
CONTINUOUS
 62
     2
100
AcDbText
 10
277.9499999999999
 20
30.14999999999998
 30
0.0
 40
8.5
  1
番
 41
1.120000000000002
  7
EXCADSTD
 72
     5
 11
284.7499999999999
 21
30.14999999999998
 31
0.0
100
AcDbText
  0
LINE
  5
11E
330
1F
100
AcDbEntity
  8
図枠
  6
CONTINUOUS
 62
     7
100
AcDbLine
 10
34.79999999999996
 20
28.60000000000002
 30
0.0
 11
398.8
 21
28.60000000000002
 31
0.0
  0
LINE
  5
11F
330
1F
100
AcDbEntity
  8
図枠
  6
CONTINUOUS
 62
     7
100
AcDbLine
 10
34.79999999999996
 20
72.60000000000005
 30
0.0
 11
398.8
 21
72.60000000000005
 31
0.0
  0
LINE
  5
120
330
1F
100
AcDbEntity
  8
図枠
  6
CONTINUOUS
 62
     7
100
AcDbLine
 10
34.79999999999996
 20
28.60000000000002
 30
0.0
 11
34.79999999999996
 21
578.6
 31
0.0
  0
LINE
  5
121
330
1F
100
AcDbEntity
  8
図枠
  6
CONTINUOUS
 62
     7
100
AcDbLine
 10
398.8
 20
28.60000000000002
 30
0.0
 11
398.8
 21
578.6
 31
0.0
  0
LINE
  5
122
330
1F
100
AcDbEntity
  8
図枠
  6
CONTINUOUS
 62
     7
100
AcDbLine
 10
34.79999999999996
 20
578.6
 30
0.0
 11
398.8
 21
578.6
 31
0.0
  0
LINE
  5
123
330
1F
100
AcDbEntity
  8
図枠
  6
CONTINUOUS
 62
     6
100
AcDbLine
 10
398.8
 20
48.60000000000005
 30
0.0
 11
148.8
 21
48.60000000000005
 31
0.0
  0
LINE
  5
124
330
1F
100
AcDbEntity
  8
図枠
  6
CONTINUOUS
 62
     6
100
AcDbLine
 10
370.8
 20
72.60000000000005
 30
0.0
 11
370.8
 21
48.60000000000005
 31
0.0
  0
LINE
  5
125
330
1F
100
AcDbEntity
  8
図枠
  6
CONTINUOUS
 62
     6
100
AcDbLine
 10
360.8
 20
72.60000000000005
 30
0.0
 11
360.8
 21
48.60000000000005
 31
0.0
  0
LINE
  5
126
330
1F
100
AcDbEntity
  8
図枠
  6
CONTINUOUS
 62
     6
100
AcDbLine
 10
286.8
 20
72.60000000000005
 30
0.0
 11
286.8
 21
28.60000000000002
 31
0.0
  0
LINE
  5
127
330
1F
100
AcDbEntity
  8
図枠
  6
CONTINUOUS
 62
     6
100
AcDbLine
 10
276.8
 20
72.60000000000005
 30
0.0
 11
276.8
 21
28.60000000000002
 31
0.0
  0
LINE
  5
128
330
1F
100
AcDbEntity
  8
図枠
  6
CONTINUOUS
 62
     6
100
AcDbLine
 10
158.8
 20
72.60000000000005
 30
0.0
 11
158.8
 21
48.60000000000005
 31
0.0
  0
LINE
  5
129
330
1F
100
AcDbEntity
  8
図枠
  6
CONTINUOUS
 62
     6
100
AcDbLine
 10
148.8
 20
72.60000000000005
 30
0.0
 11
148.8
 21
28.60000000000002
 31
0.0
  0
LINE
  5
12A
330
1F
100
AcDbEntity
  8
図枠
  6
CONTINUOUS
 62
     6
100
AcDbLine
 10
122.8
 20
72.60000000000005
 30
0.0
 11
122.8
 21
28.60000000000002
 31
0.0
  0
LINE
  5
12B
330
1F
100
AcDbEntity
  8
図枠
  6
CONTINUOUS
 62
     6
100
AcDbLine
 10
96.79999999999995
 20
72.60000000000005
 30
0.0
 11
96.79999999999995
 21
28.60000000000002
 31
0.0
  0
LINE
  5
12C
330
1F
100
AcDbEntity
  8
図枠
  6
CONTINUOUS
 62
     6
100
AcDbLine
 10
65.79999999999995
 20
72.60000000000005
 30
0.0
 11
65.79999999999995
 21
28.60000000000002
 31
0.0
  0
LINE
  5
12D
330
1F
100
AcDbEntity
  8
図枠
  6
CONTINUOUS
 62
     6
100
AcDbLine
 10
34.79999999999996
 20
62.60000000000005
 30
0.0
 11
148.8
 21
62.60000000000005
 31
0.0
  0
LINE
  5
12E
330
1F
100
AcDbEntity
  8
図枠
  6
CONTINUOUS
 62
     6
100
AcDbLine
 10
377.3307617199999
 20
53.20058594000002
 30
0.0
 11
392.7987793
 21
68.93996582000003
 31
0.0
  0
CIRCLE
  5
12F
330
1F
100
AcDbEntity
  8
図枠
  6
CONTINUOUS
 62
     6
100
AcDbCircle
 10
44.79999999999996
 20
33.60000000000002
 30
0.0
 40
0.20000004
  0
CIRCLE
  5
130
330
1F
100
AcDbEntity
  8
図枠
  6
CONTINUOUS
 62
     6
100
AcDbCircle
 10
54.79999999999996
 20
33.60000000000002
 30
0.0
 40
0.20000004
  0
CIRCLE
  5
131
330
1F
100
AcDbEntity
  8
図枠
  6
CONTINUOUS
 62
     6
100
AcDbCircle
 10
75.79999999999995
 20
33.60000000000002
 30
0.0
 40
0.20000004
  0
CIRCLE
  5
132
330
1F
100
AcDbEntity
  8
図枠
  6
CONTINUOUS
 62
     6
100
AcDbCircle
 10
85.79999999999995
 20
33.60000000000002
 30
0.0
 40
0.20000004
  0
LINE
  5
133
330
1F
100
AcDbEntity
  8
図枠
  6
EXLTYPE2
 62
     6
100
AcDbLine
 10
34.79999999999996
 20
38.60000000000002
 30
0.0
 11
96.79999999999995
 21
38.60000000000002
 31
0.0
  0
CIRCLE
  5
134
330
1F
100
AcDbEntity
  8
図枠
  6
CONTINUOUS
 62
     6
100
AcDbCircle
 10
44.80000000000008
 20
33.60000000000002
 30
0.0
 40
0.20000004
  0
CIRCLE
  5
135
330
1F
100
AcDbEntity
  8
図枠
  6
CONTINUOUS
 62
     6
100
AcDbCircle
 10
54.80000000000008
 20
33.60000000000002
 30
0.0
 40
0.20000004
  0
CIRCLE
  5
136
330
1F
100
AcDbEntity
  8
図枠
  6
CONTINUOUS
 62
     6
100
AcDbCircle
 10
75.79999999999995
 20
33.60000000000002
 30
0.0
 40
0.20000004
  0
CIRCLE
  5
137
330
1F
100
AcDbEntity
  8
図枠
  6
CONTINUOUS
 62
     6
100
AcDbCircle
 10
85.79999999999995
 20
33.60000000000002
 30
0.0
 40
0.20000004
  0
CIRCLE
  5
138
330
1F
100
AcDbEntity
  8
図枠
  6
CONTINUOUS
 62
     6
100
AcDbCircle
 10
75.80000000000007
 20
33.60000000000002
 30
0.0
 40
0.20000004
  0
CIRCLE
  5
139
330
1F
100
AcDbEntity
  8
図枠
  6
CONTINUOUS
 62
     6
100
AcDbCircle
 10
85.80000000000007
 20
33.60000000000002
 30
0.0
 40
0.20000004
  0
LINE
  5
13A
330
1F
100
AcDbEntity
  8
図枠
  6
EXLTYPE2
 62
     6
100
AcDbLine
 10
-1.200000000000045
 20
298.2
 30
0.0
 11
34.80000000000005
 21
298.2
 31
0.0
  0
TEXT
  5
13B
330
1F
100
AcDbEntity
  8
図枠
  6
CONTINUOUS
 62
     6
100
AcDbText
 10
40.69999995231623
 20
45.40000000000005
 30
0.0
 40
10.0
  1
川野
 41
1.18991346010815
  7
EXCADSTD
 72
     5
 11
59.39864003973002
 21
45.40000000000005
 31
0.0
100
AcDbText
  0
TEXT
  5
13C
330
1F
100
AcDbEntity
  8
図枠
  6
CONTINUOUS
 62
     6
100
AcDbText
 10
36.06882313509585
 20
30.49001464000003
 30
0.0
 40
6.0
  1
'21
 41
0.5376093867322295
  7
EXCADSTD
 72
     5
 11
42.36653309395911
 21
30.49001464000003
 31
0.0
100
AcDbText
  0
TEXT
  5
13D
330
1F
100
AcDbEntity
  8
図枠
  6
CONTINUOUS
 62
     2
100
AcDbText
 10
186.7821679599999
 20
58.85426636
 30
0.0
 40
12.0
  1
横水栓 １３
 41
0.988425925925926
  7
EXCADSTD
 72
     5
 11
247.7821679599999
 21
58.85426636
 31
0.0
100
AcDbText
  0
TEXT
  5
13E
330
1F
100
AcDbEntity
  8
図枠
  6
CONTINUOUS
 62
     2
100
AcDbText
 10
292.2980663999999
 20
54.97261964
 30
0.0
 40
12.0
  1
Ｋ１１１ＢＮＪ
 41
0.9247967479674798
  7
EXCADSTD
 72
     5
 11
357.2980663999999
 21
54.97261964
 31
0.0
100
AcDbText
  0
TEXT
  5
13F
330
1F
100
AcDbEntity
  8
図枠
  6
CONTINUOUS
 62
     2
100
AcDbText
 10
386.85585938
 20
53.26976928000002
 30
0.0
 40
6.0
  1
２
 41
1.101333351135257
  7
EXCADSTD
 72
     5
 11
391.575859456294
 21
53.26976928000002
 31
0.0
100
AcDbText
  0
TEXT
  5
140
330
1F
100
AcDbEntity
  8
図枠
  6
CONTINUOUS
 62
     2
100
AcDbText
 10
157.1821679599999
 20
49.85426635999999
 30
0.0
 40
8.0
  1
（送り座付、吐水口回転形、ホース接続形、逆止弁）
 41
0.740384615384615
  7
EXCADSTD
 72
     5
 11
278.1821679599999
 21
49.85426635999999
 31
0.0
100
AcDbText
  0
TEXT
  5
141
330
1F
100
AcDbEntity
  8
図枠
  6
CONTINUOUS
 62
     6
100
AcDbText
 10
100.1999999523162
 20
45.40000000000005
 30
0.0
 40
10.0
  1
椎葉
 41
1.18991346010815
  7
EXCADSTD
 72
     5
 11
118.89864003973
 21
45.40000000000005
 31
0.0
100
AcDbText
  0
TEXT
  5
142
330
1F
100
AcDbEntity
  8
図枠
  6
CONTINUOUS
 62
     6
100
AcDbText
 10
126.1999999523162
 20
45.40000000000005
 30
0.0
 40
10.0
  1
椎葉
 41
1.18991346010815
  7
EXCADSTD
 72
     5
 11
144.89864003973
 21
45.40000000000005
 31
0.0
100
AcDbText
  0
TEXT
  5
143
330
1F
100
AcDbEntity
  8
図枠
  6
CONTINUOUS
 62
     6
100
AcDbText
 10
47.66382322331072
 20
30.49001464000003
 30
0.0
 40
6.0
  1
12
 41
0.4086486468443998
  7
EXCADSTD
 72
     5
 11
51.98382320423723
 21
30.49001464000003
 31
0.0
100
AcDbText
  0
TEXT
  5
144
330
1F
100
AcDbEntity
  8
図枠
  6
CONTINUOUS
 62
     6
100
AcDbText
 10
57.9788231827796
 20
30.49001464000003
 30
0.0
 40
6.0
  1
16
 41
0.4086486468443998
  7
EXCADSTD
 72
     5
 11
62.29882316370611
 21
30.49001464000003
 31
0.0
100
AcDbText
  0
TEXT
  5
145
330
1F
100
AcDbEntity
  8
図枠
  6
CONTINUOUS
 62
     7
100
AcDbText
 10
310.6
 20
32.2
 30
0.0
 40
12.0
  1
９９６９００
 41
1.033333333333333
  7
EXCADSTD
 72
     5
 11
372.6
 21
32.2
 31
0.0
100
AcDbText
  0
LINE
  5
146
330
1F
100
AcDbEntity
  8
図
  6
EXLTYPE3
 62
     6
100
AcDbLine
 10
296.2
 20
300.0000000000001
 30
0.0
 11
154.2
 21
300.0000000000001
 31
0.0
  0
LINE
  5
147
330
1F
100
AcDbEntity
  8
図
  6
CONTINUOUS
 62
     2
100
AcDbLine
 10
278.999999999998
 20
325.0000000000026
 30
0.0
 11
277.1089967045926
 21
325.0000000000026
 31
0.0
  0
ARC
  5
148
330
1F
100
AcDbEntity
  8
図
  6
CONTINUOUS
 62
     2
100
AcDbCircle
 10
277.1178431294798
 20
322.6305163094108
 30
0.0
 40
2.369500204516059
100
AcDbArc
 50
90.21391177198596
 51
176.1899157546555
  0
LINE
  5
149
330
1F
100
AcDbEntity
  8
図
  6
CONTINUOUS
 62
     2
100
AcDbLine
 10
274.7410164967924
 20
322.78796845047
 30
0.0
 11
274.7410164967924
 21
316.4899690604159
 31
0.0
  0
LINE
  5
14A
330
1F
100
AcDbEntity
  8
図
  6
CONTINUOUS
 62
     2
100
AcDbLine
 10
278.9999999999978
 20
274.9999999999999
 30
0.0
 11
278.999999999998
 21
325.0
 31
0.0
  0
LINE
  5
14B
330
1F
100
AcDbEntity
  8
図
  6
CONTINUOUS
 62
     2
100
AcDbLine
 10
278.999999999998
 20
274.9999999999974
 30
0.0
 11
277.1089967045926
 21
274.9999999999974
 31
0.0
  0
ARC
  5
14C
330
1F
100
AcDbEntity
  8
図
  6
CONTINUOUS
 62
     2
100
AcDbCircle
 10
277.1178431294798
 20
277.3694836905892
 30
0.0
 40
2.369500204516059
100
AcDbArc
 50
183.8100842453443
 51
269.7860882280141
  0
LINE
  5
14D
330
1F
100
AcDbEntity
  8
図
  6
CONTINUOUS
 62
     2
100
AcDbLine
 10
274.7410164967924
 20
277.21203154953
 30
0.0
 11
274.7410164967924
 21
283.5100309395841
 31
0.0
  0
ARC
  5
14E
330
1F
100
AcDbEntity
  8
図
  6
CONTINUOUS
 62
     2
100
AcDbCircle
 10
266.4753299408017
 20
319.3591455169117
 30
0.0
 40
8.749499858868148
100
AcDbArc
 50
314.6784581374047
 51
340.8571430346097
  0
ARC
  5
14F
330
1F
100
AcDbEntity
  8
図
  6
CONTINUOUS
 62
     2
100
AcDbCircle
 10
270.4928040693939
 20
315.4028545479922
 30
0.0
 40
3.112429519563806
100
AcDbArc
 50
288.7955386113762
 51
313.2994372681291
  0
ARC
  5
150
330
1F
100
AcDbEntity
  8
図
  6
CONTINUOUS
 62
     2
100
AcDbCircle
 10
270.5794183758989
 20
316.2304224262638
 30
0.0
 40
3.883640196853761
100
AcDbArc
 50
274.0802921463196
 51
283.6452090693696
  0
LINE
  5
151
330
1F
100
AcDbEntity
  8
図
  6
CONTINUOUS
 62
     2
100
AcDbLine
 10
270.8557562831801
 20
312.35662602743
 30
0.0
 11
270.8557562831801
 21
312.24651928807
 31
0.0
  0
ARC
  5
152
330
1F
100
AcDbEntity
  8
図
  6
CONTINUOUS
 62
     2
100
AcDbCircle
 10
270.4928040693939
 20
284.5971454520078
 30
0.0
 40
3.112429519563806
100
AcDbArc
 50
46.70056273187107
 51
71.20446138862386
  0
ARC
  5
153
330
1F
100
AcDbEntity
  8
図
  6
CONTINUOUS
 62
     2
100
AcDbCircle
 10
270.5794183758989
 20
283.7695775737362
 30
0.0
 40
3.883640196853761
100
AcDbArc
 50
76.35479093063047
 51
85.91970785368049
  0
LINE
  5
154
330
1F
100
AcDbEntity
  8
図
  6
CONTINUOUS
 62
     2
100
AcDbLine
 10
270.8557562831801
 20
287.64337397257
 30
0.0
 11
270.8557562831801
 21
287.75348071193
 31
0.0
  0
ARC
  5
155
330
1F
100
AcDbEntity
  8
図
  6
CONTINUOUS
 62
     2
100
AcDbCircle
 10
270.4928040693939
 20
284.5971454520078
 30
0.0
 40
3.112429519563806
100
AcDbArc
 50
46.70056273187107
 51
71.20446138862386
  0
ARC
  5
156
330
1F
100
AcDbEntity
  8
図
  6
CONTINUOUS
 62
     2
100
AcDbCircle
 10
266.4753299408017
 20
280.6408544830883
 30
0.0
 40
8.749499858868148
100
AcDbArc
 50
19.14285696539025
 51
45.32154186259545
  0
LINE
  5
157
330
1F
100
AcDbEntity
  8
図
  6
CONTINUOUS
 62
     6
100
AcDbLine
 10
284.5249791906847
 20
310.5000000000015
 30
0.0
 11
284.5249791906847
 21
289.4999999999976
 31
0.0
  0
LINE
  5
158
330
1F
100
AcDbEntity
  8
図
  6
CONTINUOUS
 62
     6
100
AcDbLine
 10
282.170248341562
 20
310.5000000000015
 30
0.0
 11
282.170248341562
 21
289.4999999999976
 31
0.0
  0
LINE
  5
159
330
1F
100
AcDbEntity
  8
図
  6
CONTINUOUS
 62
     6
100
AcDbLine
 10
286.8778825420587
 20
310.5000000000015
 30
0.0
 11
286.8778825420587
 21
289.4999999999976
 31
0.0
  0
LINE
  5
15A
330
1F
100
AcDbEntity
  8
図
  6
CONTINUOUS
 62
     6
100
AcDbLine
 10
289.2326133911813
 20
310.5000000000015
 30
0.0
 11
289.2326133911813
 21
289.4999999999976
 31
0.0
  0
LINE
  5
15B
330
1F
100
AcDbEntity
  8
図
  6
CONTINUOUS
 62
     6
100
AcDbLine
 10
291.5868873658668
 20
310.5
 30
0.0
 11
291.5868873658668
 21
289.4999999999976
 31
0.0
  0
LINE
  5
15C
330
1F
100
AcDbEntity
  8
図
  6
CONTINUOUS
 62
     6
100
AcDbLine
 10
279.815517492442
 20
310.5000000000015
 30
0.0
 11
279.815517492442
 21
289.4999999999976
 31
0.0
  0
LINE
  5
15D
330
1F
100
AcDbEntity
  8
図
  6
CONTINUOUS
 62
     2
100
AcDbLine
 10
291.86192577704
 20
289.4999999999976
 30
0.0
 11
278.9999999999978
 21
289.4999999999976
 31
0.0
  0
LINE
  5
15E
330
1F
100
AcDbEntity
  8
図
  6
CONTINUOUS
 62
     2
100
AcDbLine
 10
293.0000000000027
 20
290.637617348526
 30
0.0
 11
291.8619257770371
 21
289.4999999999976
 31
0.0
  0
LINE
  5
15F
330
1F
100
AcDbEntity
  8
図
  6
CONTINUOUS
 62
     2
100
AcDbLine
 10
278.9999999999978
 20
310.5000000000015
 30
0.0
 11
291.86192577704
 21
310.5000000000015
 31
0.0
  0
LINE
  5
160
330
1F
100
AcDbEntity
  8
図
  6
CONTINUOUS
 62
     2
100
AcDbLine
 10
291.8619257770371
 20
310.5000000000015
 30
0.0
 11
293.0000000000027
 21
309.3623826514731
 31
0.0
  0
LINE
  5
161
330
1F
100
AcDbEntity
  8
図
  6
CONTINUOUS
 62
     2
100
AcDbLine
 10
293.0000000000027
 20
309.36238265147
 30
0.0
 11
293.0000000000027
 21
290.63761734853
 31
0.0
  0
ARC
  5
162
330
1F
100
AcDbEntity
  8
図
  6
CONTINUOUS
 62
     2
100
AcDbCircle
 10
251.6363650254675
 20
288.8898451427147
 30
0.0
 40
1.136365716179741
100
AcDbArc
 50
179.9368276323079
 51
270.086178101623
  0
ARC
  5
163
330
1F
100
AcDbEntity
  8
図
  6
CONTINUOUS
 62
     2
100
AcDbCircle
 10
251.6363650254675
 20
311.1101548572853
 30
0.0
 40
1.136365716179741
100
AcDbArc
 50
89.91382189837705
 51
180.0631723676922
  0
LINE
  5
164
330
1F
100
AcDbEntity
  8
図
  6
CONTINUOUS
 62
     2
100
AcDbLine
 10
250.5000000000003
 20
311.1089019395455
 30
0.0
 11
250.5000000000003
 21
288.9025199213836
 31
0.0
  0
LINE
  5
165
330
1F
100
AcDbEntity
  8
図
  6
CONTINUOUS
 62
     2
100
AcDbLine
 10
270.8557562831837
 20
312.2465192880738
 30
0.0
 11
251.63636502547
 21
312.2465192880738
 31
0.0
  0
LINE
  5
166
330
1F
100
AcDbEntity
  8
図
  6
CONTINUOUS
 62
     2
100
AcDbLine
 10
270.8557562831837
 20
287.7534807119262
 30
0.0
 11
251.63807422297
 21
287.7534807119262
 31
0.0
  0
LINE
  5
167
330
1F
100
AcDbEntity
  8
図
  6
CONTINUOUS
 62
     2
100
AcDbLine
 10
235.054204882075
 20
317.3753608587001
 30
0.0
 11
235.054204882075
 21
322.6993546784
 31
0.0
  0
ARC
  5
168
330
1F
100
AcDbEntity
  8
図
  6
CONTINUOUS
 62
     2
100
AcDbCircle
 10
244.2704432284487
 20
318.2042667324499
 30
0.0
 40
9.2183078486638
100
AcDbArc
 50
181.2140962197781
 51
266.8372272780063
  0
LINE
  5
169
330
1F
100
AcDbEntity
  8
図
  6
CONTINUOUS
 62
     2
100
AcDbLine
 10
250.5000000000003
 20
308.9999999999951
 30
0.0
 11
243.76184367029
 21
308.9999999999951
 31
0.0
  0
ARC
  5
16A
330
1F
100
AcDbEntity
  8
図
  6
CONTINUOUS
 62
     2
100
AcDbCircle
 10
244.8338005879268
 20
257.0502872283866
 30
0.0
 40
33.94972568895039
100
AcDbArc
 50
91.56195713272105
 51
101.3149041425705
  0
LINE
  5
16B
330
1F
100
AcDbEntity
  8
図
  6
CONTINUOUS
 62
     2
100
AcDbLine
 10
250.5000000000003
 20
290.999999999995
 30
0.0
 11
243.90840174219
 21
290.999999999995
 31
0.0
  0
ARC
  5
16C
330
1F
100
AcDbEntity
  8
図
  6
CONTINUOUS
 62
     2
100
AcDbCircle
 10
241.6546590798592
 20
273.0041421144967
 30
0.0
 40
17.68220863390609
100
AcDbArc
 50
101.3564293177025
 51
115.504769086701
  0
ARC
  5
16D
330
1F
100
AcDbEntity
  8
図
  6
CONTINUOUS
 62
     2
100
AcDbCircle
 10
224.0698828258363
 20
315.1283242849581
 30
0.0
 40
28.0006298686339
100
AcDbArc
 50
267.8102386868973
 51
290.8609558858561
  0
ARC
  5
16E
330
1F
100
AcDbEntity
  8
図
  6
CONTINUOUS
 62
     2
100
AcDbCircle
 10
222.8456000605292
 20
317.7668476364321
 30
0.0
 40
30.61909534012943
100
AcDbArc
 50
255.732490114693
 51
270.2889210893399
  0
ARC
  5
16F
330
1F
100
AcDbEntity
  8
図
  6
CONTINUOUS
 62
     2
100
AcDbCircle
 10
68.94839419185692
 20
-127.3209086418936
 30
0.0
 40
440.4452965972076
100
AcDbArc
 50
70.58390504376491
 51
70.93782852221092
  0
ARC
  5
170
330
1F
100
AcDbEntity
  8
図
  6
CONTINUOUS
 62
     2
100
AcDbCircle
 10
223.1219275938688
 20
333.5363003976946
 30
0.0
 40
23.46401639458544
100
AcDbArc
 50
73.2096272470707
 51
90.29773112399253
  0
ARC
  5
171
330
1F
100
AcDbEntity
  8
図
  6
CONTINUOUS
 62
     2
100
AcDbCircle
 10
222.8780724061313
 20
333.5363003976946
 30
0.0
 40
23.46401639458544
100
AcDbArc
 50
89.70226887600734
 51
106.7903727529292
  0
ARC
  5
172
330
1F
100
AcDbEntity
  8
図
  6
CONTINUOUS
 62
     2
100
AcDbCircle
 10
310.6687106910576
 20
-862.5670106273928
 30
0.0
 40
1220.240329147063
100
AcDbArc
 50
94.44685782769271
 51
95.20165865369175
  0
LINE
  5
173
330
1F
100
AcDbEntity
  8
図
  6
CONTINUOUS
 62
     2
100
AcDbLine
 10
193.0689254504501
 20
345.96650689938
 30
0.0
 11
192.99864177155
 21
342.4999999999999
 31
0.0
  0
LINE
  5
174
330
1F
100
AcDbEntity
  8
図
  6
CONTINUOUS
 62
     2
100
AcDbLine
 10
240.9297163211001
 20
345.96650689938
 30
0.0
 11
241.0
 21
342.4999999999999
 31
0.0
  0
ARC
  5
175
330
1F
100
AcDbEntity
  8
図
  6
CONTINUOUS
 62
     2
100
AcDbCircle
 10
223.5431558864017
 20
309.2600371535544
 30
0.0
 40
45.18931004768628
100
AcDbArc
 50
74.35306364125438
 51
81.91330010299941
  0
ARC
  5
176
330
1F
100
AcDbEntity
  8
図
  6
CONTINUOUS
 62
     2
100
AcDbCircle
 10
232.9900778996042
 20
345.2928458197029
 30
0.0
 40
7.968166508950754
100
AcDbArc
 50
4.849806568437553
 51
69.87938217398494
  0
LINE
  5
177
330
1F
100
AcDbEntity
  8
図
  6
CONTINUOUS
 62
     2
100
AcDbLine
 10
216.0580900924004
 20
353.9999999999996
 30
0.0
 11
216.0580900924001
 21
355.9873116578977
 31
0.0
  0
LINE
  5
178
330
1F
100
AcDbEntity
  8
図
  6
CONTINUOUS
 62
     2
100
AcDbLine
 10
229.9000000000001
 20
353.9999999999998
 30
0.0
 11
229.9000000000001
 21
355.9999999999999
 31
0.0
  0
LINE
  5
179
330
1F
100
AcDbEntity
  8
図
  6
CONTINUOUS
 62
     2
100
AcDbLine
 10
216.0580900923987
 20
353.9999999999996
 30
0.0
 11
229.9000000000023
 21
353.9999999999996
 31
0.0
  0
LINE
  5
17A
330
1F
100
AcDbEntity
  8
図
  6
CONTINUOUS
 62
     2
100
AcDbLine
 10
192.99864177155
 20
342.4999999999999
 30
0.0
 11
241.0000000000003
 21
342.4999999999999
 31
0.0
  0
ARC
  5
17B
330
1F
100
AcDbEntity
  8
図
  6
CONTINUOUS
 62
     2
100
AcDbCircle
 10
200.8147560449463
 20
344.8622034059213
 30
0.0
 40
7.8241534880356
100
AcDbArc
 50
112.2609612399853
 51
171.8861632329181
  0
ARC
  5
17C
330
1F
100
AcDbEntity
  8
図
  6
CONTINUOUS
 62
     2
100
AcDbCircle
 10
200.8147560449463
 20
344.8622034059213
 30
0.0
 40
7.8241534880356
100
AcDbArc
 50
95.66874558397856
 51
112.2609612399853
  0
LINE
  5
17D
330
1F
100
AcDbEntity
  8
図
  6
CONTINUOUS
 62
     6
100
AcDbLine
 10
216.0999999999999
 20
355.9999999999999
 30
0.0
 11
229.9000000000002
 21
355.9999999999999
 31
0.0
  0
LINE
  5
17E
330
1F
100
AcDbEntity
  8
図
  6
CONTINUOUS
 62
     6
100
AcDbLine
 10
216.8693001832001
 20
355.9999999999999
 30
0.0
 11
216.8693001832001
 21
353.9999999999998
 31
0.0
  0
LINE
  5
17F
330
1F
100
AcDbEntity
  8
図
  6
CONTINUOUS
 62
     6
100
AcDbLine
 10
218.2044905728001
 20
355.9999999999999
 30
0.0
 11
218.2044905728001
 21
353.9999999999998
 31
0.0
  0
LINE
  5
180
330
1F
100
AcDbEntity
  8
図
  6
CONTINUOUS
 62
     6
100
AcDbLine
 10
219.8309336536001
 20
355.9999999999999
 30
0.0
 11
219.8309336536001
 21
353.9999999999998
 31
0.0
  0
LINE
  5
181
330
1F
100
AcDbEntity
  8
図
  6
CONTINUOUS
 62
     6
100
AcDbLine
 10
221.7918093304001
 20
355.9999999999999
 30
0.0
 11
221.7918093304001
 21
353.9999999999998
 31
0.0
  0
LINE
  5
182
330
1F
100
AcDbEntity
  8
図
  6
CONTINUOUS
 62
     6
100
AcDbLine
 10
224.2124239936001
 20
355.9999999999999
 30
0.0
 11
224.2124239936001
 21
353.9999999999998
 31
0.0
  0
LINE
  5
183
330
1F
100
AcDbEntity
  8
図
  6
CONTINUOUS
 62
     6
100
AcDbLine
 10
226.1728763380001
 20
355.9999999999999
 30
0.0
 11
226.1728763380001
 21
353.9999999999998
 31
0.0
  0
LINE
  5
184
330
1F
100
AcDbEntity
  8
図
  6
CONTINUOUS
 62
     6
100
AcDbLine
 10
227.7993194188001
 20
355.9999999999999
 30
0.0
 11
227.7993194188001
 21
353.9999999999998
 31
0.0
  0
LINE
  5
185
330
1F
100
AcDbEntity
  8
図
  6
CONTINUOUS
 62
     6
100
AcDbLine
 10
229.1345098084001
 20
355.9999999999999
 30
0.0
 11
229.1345098084001
 21
353.9999999999998
 31
0.0
  0
ARC
  5
186
330
1F
100
AcDbEntity
  8
図
  6
CONTINUOUS
 62
     2
100
AcDbCircle
 10
228.2574711964112
 20
335.1209366844897
 30
0.0
 40
1.973304385260744
100
AcDbArc
 50
48.74071048938145
 51
79.32017033772489
  0
ARC
  5
187
330
1F
100
AcDbEntity
  8
図
  6
CONTINUOUS
 62
     2
100
AcDbCircle
 10
217.7425288035891
 20
335.1209366844897
 30
0.0
 40
1.973304385260744
100
AcDbArc
 50
100.6798296622751
 51
131.2592895147447
  0
LINE
  5
188
330
1F
100
AcDbEntity
  8
図
  6
CONTINUOUS
 62
     2
100
AcDbLine
 10
228.6231653188832
 20
337.0600596835999
 30
0.0
 11
217.3768346811201
 21
337.0600596835999
 31
0.0
  0
LINE
  5
189
330
1F
100
AcDbEntity
  8
図
  6
CONTINUOUS
 62
     6
100
AcDbLine
 10
218.1456473692001
 20
323.5358595008
 30
0.0
 11
218.8204392148001
 21
322.7023180052
 31
0.0
  0
LINE
  5
18A
330
1F
100
AcDbEntity
  8
図
  6
CONTINUOUS
 62
     6
100
AcDbLine
 10
227.8547759632002
 20
323.5358595008
 30
0.0
 11
227.1799841176001
 21
322.7023180052
 31
0.0
  0
ARC
  5
18B
330
1F
100
AcDbEntity
  8
図
  6
CONTINUOUS
 62
     2
100
AcDbCircle
 10
209.7618113855758
 20
323.2111672956583
 30
0.0
 40
0.511814199167523
100
AcDbArc
 50
180.1899818882595
 51
269.8575467523301
  0
ARC
  5
18C
330
1F
100
AcDbEntity
  8
図
  6
CONTINUOUS
 62
     2
100
AcDbCircle
 10
236.238188614424
 20
323.2111672956583
 30
0.0
 40
0.511814199167523
100
AcDbArc
 50
270.1424532476763
 51
359.8100181117405
  0
LINE
  5
18D
330
1F
100
AcDbEntity
  8
図
  6
CONTINUOUS
 62
     6
100
AcDbLine
 10
231.7330436304697
 20
323.5358595008
 30
0.0
 11
232.4103754704697
 21
322.7023180052
 31
0.0
  0
LINE
  5
18E
330
1F
100
AcDbEntity
  8
図
  6
CONTINUOUS
 62
     2
100
AcDbLine
 10
209.7605388744001
 20
322.6993546784
 30
0.0
 11
236.2394611255999
 21
322.6993546784
 31
0.0
  0
LINE
  5
18F
330
1F
100
AcDbEntity
  8
図
  6
CONTINUOUS
 62
     2
100
AcDbLine
 10
227.7499999999999
 20
342.5
 30
0.0
 11
227.7499999999999
 21
337.0600596835999
 31
0.0
  0
LINE
  5
190
330
1F
100
AcDbEntity
  8
図
  6
CONTINUOUS
 62
     2
100
AcDbLine
 10
218.2499999999999
 20
342.4999999999999
 30
0.0
 11
218.2499999999999
 21
337.0600596835999
 31
0.0
  0
LINE
  5
191
330
1F
100
AcDbEntity
  8
図
  6
CONTINUOUS
 62
     6
100
AcDbLine
 10
214.2669563695302
 20
323.5358595008
 30
0.0
 11
213.5896245295301
 21
322.7023180052
 31
0.0
  0
LINE
  5
192
330
1F
100
AcDbEntity
  8
図
  6
CONTINUOUS
 62
     2
100
AcDbLine
 10
169.4429899405758
 20
273.1161783120711
 30
0.0
 11
132.585968341997
 21
278.953700333582
 31
0.0
  0
LINE
  5
193
330
1F
100
AcDbEntity
  8
図
  6
CONTINUOUS
 62
     2
100
AcDbLine
 10
130.25616165359
 20
282.1579586551711
 30
0.0
 11
172.6522026623531
 21
275.4435078003841
 31
0.0
  0
LINE
  5
194
330
1F
100
AcDbEntity
  8
図
  6
CONTINUOUS
 62
     2
100
AcDbLine
 10
138.272381157774
 20
282.8268026805511
 30
0.0
 11
164.8527381663941
 21
278.577165919294
 31
0.0
  0
LINE
  5
195
330
1F
100
AcDbEntity
  8
図
  6
CONTINUOUS
 62
     2
100
AcDbLine
 10
158.3513265196912
 20
272.5055484889
 30
0.0
 11
142.9493349352461
 21
274.9505449816781
 31
0.0
  0
LINE
  5
196
330
1F
100
AcDbEntity
  8
図
  6
CONTINUOUS
 62
     2
100
AcDbLine
 10
156.8154624614109
 20
271.3920470466472
 30
0.0
 11
144.0628363774989
 21
273.4109651232572
 31
0.0
  0
LINE
  5
197
330
1F
100
AcDbEntity
  8
図
  6
CONTINUOUS
 62
     2
100
AcDbLine
 10
156.4959036492852
 20
269.3731289700373
 30
0.0
 11
143.7432775653729
 21
271.3920470466472
 31
0.0
  0
LINE
  5
198
330
1F
100
AcDbEntity
  8
図
  6
CONTINUOUS
 62
     2
100
AcDbLine
 10
157.9735535053559
 20
267.3306774925342
 30
0.0
 11
141.7082576881521
 21
269.9094427903881
 31
0.0
  0
LINE
  5
199
330
1F
100
AcDbEntity
  8
図
  6
CONTINUOUS
 62
     2
100
AcDbLine
 10
157.7406966965198
 20
265.8654136369332
 30
0.0
 11
141.4754008793161
 21
268.4379859345523
 31
0.0
  0
LINE
  5
19A
330
1F
100
AcDbEntity
  8
図
  6
CONTINUOUS
 62
     2
100
AcDbLine
 10
157.2254390769681
 20
265.488879222645
 30
0.0
 11
155.6858592185469
 21
255.7794934542122
 31
0.0
  0
LINE
  5
19B
330
1F
100
AcDbEntity
  8
図
  6
CONTINUOUS
 62
     2
100
AcDbLine
 10
158.7154749335092
 20
274.8142989765082
 30
0.0
 11
158.3488493195968
 21
272.5043098888531
 31
0.0
  0
LINE
  5
19C
330
1F
100
AcDbEntity
  8
図
  6
CONTINUOUS
 62
     2
100
AcDbLine
 10
158.3488493195968
 20
272.5043098888531
 30
0.0
 11
156.8167010614579
 21
271.3908084466
 31
0.0
  0
LINE
  5
19D
330
1F
100
AcDbEntity
  8
図
  6
CONTINUOUS
 62
     2
100
AcDbLine
 10
156.8167010614579
 20
271.3908084466
 30
0.0
 11
156.4959036492852
 21
269.3718903699901
 31
0.0
  0
LINE
  5
19E
330
1F
100
AcDbEntity
  8
図
  6
CONTINUOUS
 62
     2
100
AcDbLine
 10
156.4959036492852
 20
269.3718903699901
 30
0.0
 11
157.9723149053089
 21
267.3319160925813
 31
0.0
  0
LINE
  5
19F
330
1F
100
AcDbEntity
  8
図
  6
CONTINUOUS
 62
     2
100
AcDbLine
 10
157.9723149053089
 20
267.3319160925813
 30
0.0
 11
157.7406966965198
 21
265.8629364368391
 31
0.0
  0
LINE
  5
1A0
330
1F
100
AcDbEntity
  8
図
  6
CONTINUOUS
 62
     2
100
AcDbLine
 10
157.7406966965198
 20
265.8629364368391
 30
0.0
 11
157.2254390769681
 21
265.488879222645
 31
0.0
  0
LINE
  5
1A1
330
1F
100
AcDbEntity
  8
図
  6
CONTINUOUS
 62
     2
100
AcDbLine
 10
143.314721949111
 20
277.2543410690981
 30
0.0
 11
142.95181213534
 21
274.948067781584
 31
0.0
  0
LINE
  5
1A2
330
1F
100
AcDbEntity
  8
図
  6
CONTINUOUS
 62
     2
100
AcDbLine
 10
142.95181213534
 20
274.948067781584
 30
0.0
 11
144.0653135775931
 21
273.4097265232102
 31
0.0
  0
LINE
  5
1A3
330
1F
100
AcDbEntity
  8
図
  6
CONTINUOUS
 62
     2
100
AcDbLine
 10
144.0653135775931
 20
273.4097265232102
 30
0.0
 11
143.746993365514
 21
271.3908084466
 31
0.0
  0
LINE
  5
1A4
330
1F
100
AcDbEntity
  8
図
  6
CONTINUOUS
 62
     2
100
AcDbLine
 10
143.746993365514
 20
271.3908084466
 30
0.0
 11
141.710734888246
 21
269.913158590529
 31
0.0
  0
LINE
  5
1A5
330
1F
100
AcDbEntity
  8
図
  6
CONTINUOUS
 62
     2
100
AcDbLine
 10
141.710734888246
 20
269.913158590529
 30
0.0
 11
141.4754008793161
 21
268.4404631346462
 31
0.0
  0
LINE
  5
1A6
330
1F
100
AcDbEntity
  8
図
  6
CONTINUOUS
 62
     2
100
AcDbLine
 10
141.4754008793161
 20
268.4404631346462
 30
0.0
 11
141.8519352936041
 21
267.919012514859
 31
0.0
  0
LINE
  5
1A7
330
1F
100
AcDbEntity
  8
図
  6
CONTINUOUS
 62
     2
100
AcDbLine
 10
132.585968341997
 20
278.953700333582
 30
0.0
 11
132.0665217770861
 21
279.0734506633262
 31
0.0
  0
LINE
  5
1A8
330
1F
100
AcDbEntity
  8
図
  6
CONTINUOUS
 62
     2
100
AcDbLine
 10
132.0665217770861
 20
279.0734506633262
 30
0.0
 11
131.6133502234901
 21
279.2546008746
 31
0.0
  0
LINE
  5
1A9
330
1F
100
AcDbEntity
  8
図
  6
CONTINUOUS
 62
     2
100
AcDbLine
 10
131.6133502234901
 20
279.2546008746
 30
0.0
 11
131.2254727099715
 21
279.4908489703648
 31
0.0
  0
LINE
  5
1AA
330
1F
100
AcDbEntity
  8
図
  6
CONTINUOUS
 62
     2
100
AcDbLine
 10
131.2254727099715
 20
279.4908489703648
 30
0.0
 11
130.9019082652935
 21
279.7758929535811
 31
0.0
  0
LINE
  5
1AB
330
1F
100
AcDbEntity
  8
図
  6
CONTINUOUS
 62
     2
100
AcDbLine
 10
130.9019082652935
 20
279.7758929535811
 30
0.0
 11
130.6416759182187
 21
280.1034308272099
 31
0.0
  0
LINE
  5
1AC
330
1F
100
AcDbEntity
  8
図
  6
CONTINUOUS
 62
     2
100
AcDbLine
 10
130.6416759182187
 20
280.1034308272099
 30
0.0
 11
130.44379469751
 21
280.467160594212
 31
0.0
  0
LINE
  5
1AD
330
1F
100
AcDbEntity
  8
図
  6
CONTINUOUS
 62
     2
100
AcDbLine
 10
130.44379469751
 20
280.467160594212
 30
0.0
 11
130.3072836319299
 21
280.8607802575482
 31
0.0
  0
LINE
  5
1AE
330
1F
100
AcDbEntity
  8
図
  6
CONTINUOUS
 62
     2
100
AcDbLine
 10
130.3072836319299
 20
280.8607802575482
 30
0.0
 11
130.2311617502414
 21
281.2779878201798
 31
0.0
  0
LINE
  5
1AF
330
1F
100
AcDbEntity
  8
図
  6
CONTINUOUS
 62
     2
100
AcDbLine
 10
130.2311617502414
 20
281.2779878201798
 30
0.0
 11
130.2144480812072
 21
281.7124812850671
 31
0.0
  0
LINE
  5
1B0
330
1F
100
AcDbEntity
  8
図
  6
CONTINUOUS
 62
     2
100
AcDbLine
 10
130.2144480812072
 20
281.7124812850671
 30
0.0
 11
130.25616165359
 21
282.1579586551711
 31
0.0
  0
LINE
  5
1B1
330
1F
100
AcDbEntity
  8
図
  6
CONTINUOUS
 62
     2
100
AcDbLine
 10
135.406260649016
 20
281.5337042314831
 30
0.0
 11
135.5710873502706
 21
281.8036385327262
 31
0.0
  0
LINE
  5
1B2
330
1F
100
AcDbEntity
  8
図
  6
CONTINUOUS
 62
     2
100
AcDbLine
 10
135.5710873502706
 20
281.8036385327262
 30
0.0
 11
135.764265606601
 21
282.0491600270427
 31
0.0
  0
LINE
  5
1B3
330
1F
100
AcDbEntity
  8
図
  6
CONTINUOUS
 62
     2
100
AcDbLine
 10
135.764265606601
 20
282.0491600270427
 30
0.0
 11
135.9853123639887
 21
282.2677048123356
 31
0.0
  0
LINE
  5
1B4
330
1F
100
AcDbEntity
  8
図
  6
CONTINUOUS
 62
     2
100
AcDbLine
 10
135.9853123639887
 20
282.2677048123356
 30
0.0
 11
136.2337445684158
 21
282.4567089865074
 31
0.0
  0
LINE
  5
1B5
330
1F
100
AcDbEntity
  8
図
  6
CONTINUOUS
 62
     2
100
AcDbLine
 10
136.2337445684158
 20
282.4567089865074
 30
0.0
 11
136.5090791658637
 21
282.6136086474614
 31
0.0
  0
LINE
  5
1B6
330
1F
100
AcDbEntity
  8
図
  6
CONTINUOUS
 62
     2
100
AcDbLine
 10
136.5090791658637
 20
282.6136086474614
 30
0.0
 11
136.8108331023139
 21
282.7358398930994
 31
0.0
  0
LINE
  5
1B7
330
1F
100
AcDbEntity
  8
図
  6
CONTINUOUS
 62
     2
100
AcDbLine
 10
136.8108331023139
 20
282.7358398930994
 30
0.0
 11
137.1385233237486
 21
282.8208388213248
 31
0.0
  0
LINE
  5
1B8
330
1F
100
AcDbEntity
  8
図
  6
CONTINUOUS
 62
     2
100
AcDbLine
 10
137.1385233237486
 20
282.8208388213248
 30
0.0
 11
137.4916667761489
 21
282.86604153004
 31
0.0
  0
LINE
  5
1B9
330
1F
100
AcDbEntity
  8
図
  6
CONTINUOUS
 62
     2
100
AcDbLine
 10
137.4916667761489
 20
282.86604153004
 30
0.0
 11
137.8697804054969
 21
282.8688841171478
 31
0.0
  0
LINE
  5
1BA
330
1F
100
AcDbEntity
  8
図
  6
CONTINUOUS
 62
     2
100
AcDbLine
 10
137.8697804054969
 20
282.8688841171478
 30
0.0
 11
138.272381157774
 21
282.8268026805511
 31
0.0
  0
LINE
  5
1BB
330
1F
100
AcDbEntity
  8
図
  6
CONTINUOUS
 62
     2
100
AcDbLine
 10
164.8527381663941
 20
278.577165919294
 30
0.0
 11
165.2489440266285
 21
278.4932569591101
 31
0.0
  0
LINE
  5
1BC
330
1F
100
AcDbEntity
  8
図
  6
CONTINUOUS
 62
     2
100
AcDbLine
 10
165.2489440266285
 20
278.4932569591101
 30
0.0
 11
165.6077094846422
 21
278.3740850555881
 31
0.0
  0
LINE
  5
1BD
330
1F
100
AcDbEntity
  8
図
  6
CONTINUOUS
 62
     2
100
AcDbLine
 10
165.6077094846422
 20
278.3740850555881
 30
0.0
 11
165.9294209836499
 21
278.2222884268279
 31
0.0
  0
LINE
  5
1BE
330
1F
100
AcDbEntity
  8
図
  6
CONTINUOUS
 62
     2
100
AcDbLine
 10
165.9294209836499
 20
278.2222884268279
 30
0.0
 11
166.2144649668661
 21
278.04050529093
 31
0.0
  0
LINE
  5
1BF
330
1F
100
AcDbEntity
  8
図
  6
CONTINUOUS
 62
     2
100
AcDbLine
 10
166.2144649668661
 20
278.04050529093
 30
0.0
 11
166.4632278775058
 21
277.8313738659942
 31
0.0
  0
LINE
  5
1C0
330
1F
100
AcDbEntity
  8
図
  6
CONTINUOUS
 62
     2
100
AcDbLine
 10
166.4632278775058
 20
277.8313738659942
 30
0.0
 11
166.6760961587834
 21
277.5975323701207
 31
0.0
  0
LINE
  5
1C1
330
1F
100
AcDbEntity
  8
図
  6
CONTINUOUS
 62
     2
100
AcDbLine
 10
166.6760961587834
 20
277.5975323701207
 30
0.0
 11
166.8534562539133
 21
277.3416190214099
 31
0.0
  0
LINE
  5
1C2
330
1F
100
AcDbEntity
  8
図
  6
CONTINUOUS
 62
     2
100
AcDbLine
 10
166.8534562539133
 20
277.3416190214099
 30
0.0
 11
166.9956946061107
 21
277.0662720379617
 31
0.0
  0
LINE
  5
1C3
330
1F
100
AcDbEntity
  8
図
  6
CONTINUOUS
 62
     2
100
AcDbLine
 10
166.9956946061107
 20
277.0662720379617
 30
0.0
 11
167.1031976585901
 21
276.774129637876
 31
0.0
  0
LINE
  5
1C4
330
1F
100
AcDbEntity
  8
図
  6
CONTINUOUS
 62
     2
100
AcDbLine
 10
167.1031976585901
 20
276.774129637876
 30
0.0
 11
167.1763518545661
 21
276.4678300392531
 31
0.0
  0
LINE
  5
1C5
330
1F
100
AcDbEntity
  8
図
  6
CONTINUOUS
 62
     2
100
AcDbLine
 10
172.6522026623531
 20
275.4435078003841
 30
0.0
 11
172.5541179246312
 21
275.0065321810026
 31
0.0
  0
LINE
  5
1C6
330
1F
100
AcDbEntity
  8
図
  6
CONTINUOUS
 62
     2
100
AcDbLine
 10
172.5541179246312
 20
275.0065321810026
 30
0.0
 11
172.4039376689322
 21
274.5982574019103
 31
0.0
  0
LINE
  5
1C7
330
1F
100
AcDbEntity
  8
図
  6
CONTINUOUS
 62
     2
100
AcDbLine
 10
172.4039376689322
 20
274.5982574019103
 30
0.0
 11
172.2026280032933
 21
274.2249408705442
 31
0.0
  0
LINE
  5
1C8
330
1F
100
AcDbEntity
  8
図
  6
CONTINUOUS
 62
     2
100
AcDbLine
 10
172.2026280032933
 20
274.2249408705442
 30
0.0
 11
171.951155035751
 21
273.8928399943424
 31
0.0
  0
LINE
  5
1C9
330
1F
100
AcDbEntity
  8
図
  6
CONTINUOUS
 62
     2
100
AcDbLine
 10
171.951155035751
 20
273.8928399943424
 30
0.0
 11
171.6504848743419
 21
273.6082121807419
 31
0.0
  0
LINE
  5
1CA
330
1F
100
AcDbEntity
  8
図
  6
CONTINUOUS
 62
     2
100
AcDbLine
 10
171.6504848743419
 20
273.6082121807419
 30
0.0
 11
171.3015836271022
 21
273.3773148371802
 31
0.0
  0
LINE
  5
1CB
330
1F
100
AcDbEntity
  8
図
  6
CONTINUOUS
 62
     2
100
AcDbLine
 10
171.3015836271022
 20
273.3773148371802
 30
0.0
 11
170.9054174020694
 21
273.2064053710948
 31
0.0
  0
LINE
  5
1CC
330
1F
100
AcDbEntity
  8
図
  6
CONTINUOUS
 62
     2
100
AcDbLine
 10
170.9054174020694
 20
273.2064053710948
 30
0.0
 11
170.4629523072796
 21
273.1017411899233
 31
0.0
  0
LINE
  5
1CD
330
1F
100
AcDbEntity
  8
図
  6
CONTINUOUS
 62
     2
100
AcDbLine
 10
170.4629523072796
 20
273.1017411899233
 30
0.0
 11
169.9751544507697
 21
273.0695797011029
 31
0.0
  0
LINE
  5
1CE
330
1F
100
AcDbEntity
  8
図
  6
CONTINUOUS
 62
     2
100
AcDbLine
 10
169.9751544507697
 20
273.0695797011029
 30
0.0
 11
169.4429899405758
 21
273.1161783120711
 31
0.0
  0
LINE
  5
1CF
330
1F
100
AcDbEntity
  8
図
  6
CONTINUOUS
 62
     2
100
AcDbLine
 10
155.6858592185469
 20
255.7794934542122
 30
0.0
 11
140.3141407814632
 21
258.2205065457783
 31
0.0
  0
LINE
  5
1D0
330
1F
100
AcDbEntity
  8
図
  6
CONTINUOUS
 62
     2
100
AcDbLine
 10
141.8537206398782
 20
267.929892314215
 30
0.0
 11
140.314140781457
 21
258.2205065457823
 31
0.0
  0
LINE
  5
1D1
330
1F
100
AcDbEntity
  8
図
  6
CONTINUOUS
 62
     2
100
AcDbLine
 10
160.828805705203
 20
301.2765319905682
 30
0.0
 11
154.5702174754085
 21
296.2687840066237
 31
0.0
  0
ARC
  5
1D2
330
1F
100
AcDbEntity
  8
図
  6
CONTINUOUS
 62
     2
100
AcDbCircle
 10
181.8601941880396
 20
258.1279066001915
 30
0.0
 40
33.94938428397856
100
AcDbArc
 50
93.86694723410429
 51
105.4657419951164
  0
ARC
  5
1D3
330
1F
100
AcDbEntity
  8
図
  6
CONTINUOUS
 62
     2
100
AcDbCircle
 10
181.5544585664626
 20
273.0790706047677
 30
0.0
 40
34.99499271509243
100
AcDbArc
 50
93.72831749565204
 51
126.3165707713697
  0
ARC
  5
1D4
330
1F
100
AcDbEntity
  8
図
  6
CONTINUOUS
 62
     2
100
AcDbCircle
 10
132.3604274294141
 20
307.801266940291
 30
0.0
 40
23.90107175528001
100
AcDbArc
 50
294.4994213043979
 51
314.0693985660831
  0
ARC
  5
1D5
330
1F
100
AcDbEntity
  8
図
  6
CONTINUOUS
 62
     2
100
AcDbCircle
 10
203.0126657334062
 20
242.7081489343795
 30
0.0
 40
72.21781236350066
100
AcDbArc
 50
132.1274910697933
 51
138.4286922717316
  0
LINE
  5
1D6
330
1F
100
AcDbEntity
  8
図
  6
CONTINUOUS
 62
     2
100
AcDbLine
 10
142.271820709537
 20
286.052117202939
 30
0.0
 11
141.7429384894681
 21
282.3239310614692
 31
0.0
  0
LINE
  5
1D7
330
1F
100
AcDbEntity
  8
図
  6
CONTINUOUS
 62
     2
100
AcDbLine
 10
162.5276722821759
 20
282.7239389978554
 30
0.0
 11
162.0857056613958
 21
278.9413143331121
 31
0.0
  0
LINE
  5
1D8
330
1F
100
AcDbEntity
  8
図
  6
CONTINUOUS
 62
     2
100
AcDbLine
 10
142.27058210949
 20
286.0521172029392
 30
0.0
 11
162.5284679069955
 21
282.7287888576916
 31
0.0
  0
ARC
  5
1D9
330
1F
100
AcDbEntity
  8
図
  6
CONTINUOUS
 62
     2
100
AcDbCircle
 10
176.5901311227604
 20
275.492957780867
 30
0.0
 40
15.81415896485758
100
AcDbArc
 50
103.8400980586854
 51
152.77061862712
  0
LINE
  5
1DA
330
1F
100
AcDbEntity
  8
図
  6
EXLTYPE3
 62
     6
100
AcDbLine
 10
152.8968915486465
 20
287.8823273127992
 30
0.0
 11
147.4763680322135
 21
253.6977063592095
 31
0.0
  0
ARC
  5
1DB
330
1F
100
AcDbEntity
  8
図
  6
CONTINUOUS
 62
     2
100
AcDbCircle
 10
255.2356262076815
 20
358.7080910981285
 30
0.0
 40
33.88030950030249
100
AcDbArc
 50
220.7233384557307
 51
236.0135783950876
  0
ARC
  5
1DC
330
1F
100
AcDbEntity
  8
図
  6
CONTINUOUS
 62
     2
100
AcDbCircle
 10
190.7364085098426
 20
358.7769618490288
 30
0.0
 40
33.94645225944432
100
AcDbArc
 50
303.9440449050104
 51
319.2193593747007
  0
ARC
  5
1DD
330
1F
100
AcDbEntity
  8
図
  6
CONTINUOUS
 62
     6
100
AcDbCircle
 10
235.2480818430944
 20
326.1369248140841
 30
0.0
 40
5.349731111917274
100
AcDbArc
 50
95.4269467490977
 51
131.1592210426746
  0
LINE
  5
1DE
330
1F
100
AcDbEntity
  8
図
  6
CONTINUOUS
 62
     6
100
AcDbLine
 10
231.7271360936897
 20
330.1646492336
 30
0.0
 11
231.7330436304697
 21
323.5358595008
 31
0.0
  0
ARC
  5
1DF
330
1F
100
AcDbEntity
  8
図
  6
CONTINUOUS
 62
     2
100
AcDbCircle
 10
236.3158914286265
 20
330.1310350141616
 30
0.0
 40
0.427784262004133
100
AcDbArc
 50
359.6826989962678
 51
39.37346933296691
  0
ARC
  5
1E0
330
1F
100
AcDbEntity
  8
図
  6
CONTINUOUS
 62
     2
100
AcDbCircle
 10
236.0806723298183
 20
329.867149487062
 30
0.0
 40
0.778945030813095
100
AcDbArc
 50
43.40574576777736
 51
73.90234106229548
  0
LINE
  5
1E1
330
1F
100
AcDbEntity
  8
図
  6
CONTINUOUS
 62
     2
100
AcDbLine
 10
236.7440924632197
 20
330.1286659796
 30
0.0
 11
236.7499999999998
 21
323.2094702204
 31
0.0
  0
ARC
  5
1E2
330
1F
100
AcDbEntity
  8
図
  6
CONTINUOUS
 62
     6
100
AcDbCircle
 10
210.7401030833454
 20
326.1369248140841
 30
0.0
 40
5.349731111917274
100
AcDbArc
 50
48.84077895732544
 51
84.57305325090229
  0
ARC
  5
1E3
330
1F
100
AcDbEntity
  8
図
  6
CONTINUOUS
 62
     2
100
AcDbCircle
 10
209.6722934978133
 20
330.1310350141616
 30
0.0
 40
0.427784262004133
100
AcDbArc
 50
140.6265306670342
 51
180.3173010037323
  0
ARC
  5
1E4
330
1F
100
AcDbEntity
  8
図
  6
CONTINUOUS
 62
     2
100
AcDbCircle
 10
209.9075125966215
 20
329.867149487062
 30
0.0
 40
0.778945030813095
100
AcDbArc
 50
106.0976589377045
 51
136.5942542322198
  0
LINE
  5
1E5
330
1F
100
AcDbEntity
  8
図
  6
CONTINUOUS
 62
     2
100
AcDbLine
 10
209.2440924632201
 20
330.1286659796
 30
0.0
 11
209.25
 21
323.2094702204
 31
0.0
  0
LINE
  5
1E6
330
1F
100
AcDbEntity
  8
図
  6
CONTINUOUS
 62
     6
100
AcDbLine
 10
214.2610488327502
 20
330.1646492336
 30
0.0
 11
214.2669563695302
 21
323.5358595008
 31
0.0
  0
ARC
  5
1E7
330
1F
100
AcDbEntity
  8
図
  6
CONTINUOUS
 62
     6
100
AcDbCircle
 10
222.5735537343243
 20
323.4486241703908
 30
0.0
 40
8.047356372835944
100
AcDbArc
 50
87.00447282993213
 51
123.4296483587577
  0
ARC
  5
1E8
330
1F
100
AcDbEntity
  8
図
  6
CONTINUOUS
 62
     6
100
AcDbCircle
 10
223.4146311921158
 20
323.4486241703908
 30
0.0
 40
8.047356372835944
100
AcDbArc
 50
56.57035164124194
 51
92.99552717006748
  0
LINE
  5
1E9
330
1F
100
AcDbEntity
  8
図
  6
CONTINUOUS
 62
     6
100
AcDbLine
 10
227.8488684264202
 20
330.1646492336
 30
0.0
 11
227.8547759632002
 21
323.5358595008
 31
0.0
  0
LINE
  5
1EA
330
1F
100
AcDbEntity
  8
図
  6
CONTINUOUS
 62
     6
100
AcDbLine
 10
218.1397398324201
 20
330.1646492336
 30
0.0
 11
218.1456473692001
 21
323.5358595008
 31
0.0
  0
LINE
  5
1EB
330
1F
100
AcDbEntity
  8
図
  6
EXLTYPE3
 62
     6
100
AcDbLine
 10
223.0
 20
358.6
 30
0.0
 11
223.0
 21
282.2
 31
0.0
  0
LINE
  5
1EC
330
1F
100
AcDbEntity
  8
図
  6
CONTINUOUS
 62
     2
100
AcDbLine
 10
188.4999999999999
 20
310.35
 30
0.0
 11
188.4999999999999
 21
289.65
 31
0.0
  0
ARC
  5
1ED
330
1F
100
AcDbEntity
  8
図
  6
CONTINUOUS
 62
     6
100
AcDbCircle
 10
214.1249999997837
 20
300.0
 30
0.0
 40
21.62499999979366
100
AcDbArc
 50
162.5076754747173
 51
197.4923245252827
  0
ARC
  5
1EE
330
1F
100
AcDbEntity
  8
図
  6
CONTINUOUS
 62
     6
100
AcDbCircle
 10
178.8750000002041
 20
300.0
 30
0.0
 40
21.62499999979366
100
AcDbArc
 50
342.5076754747174
 51
17.49232452528269
  0
ARC
  5
1EF
330
1F
100
AcDbEntity
  8
図
  6
CONTINUOUS
 62
     6
100
AcDbCircle
 10
198.1600781249273
 20
312.212499999995
 30
0.0
 40
5.660078124937278
100
AcDbArc
 50
145.4189360020567
 51
214.5810639979437
  0
ARC
  5
1F0
330
1F
100
AcDbEntity
  8
図
  6
CONTINUOUS
 62
     6
100
AcDbCircle
 10
194.8399218749432
 20
312.2125
 30
0.0
 40
5.660078125046854
100
AcDbArc
 50
325.4189360027593
 51
34.58106399724033
  0
LINE
  5
1F1
330
1F
100
AcDbEntity
  8
図
  6
CONTINUOUS
 62
     6
100
AcDbLine
 10
193.5000000000001
 20
309.0
 30
0.0
 11
199.5000000000001
 21
309.0
 31
0.0
  0
ARC
  5
1F2
330
1F
100
AcDbEntity
  8
図
  6
CONTINUOUS
 62
     6
100
AcDbCircle
 10
198.1600781249273
 20
287.787500000005
 30
0.0
 40
5.660078124937278
100
AcDbArc
 50
145.4189360020563
 51
214.5810639979433
  0
ARC
  5
1F3
330
1F
100
AcDbEntity
  8
図
  6
CONTINUOUS
 62
     6
100
AcDbCircle
 10
194.8399218749432
 20
287.7875
 30
0.0
 40
5.660078125046854
100
AcDbArc
 50
325.4189360027597
 51
34.58106399724079
  0
LINE
  5
1F4
330
1F
100
AcDbEntity
  8
図
  6
CONTINUOUS
 62
     6
100
AcDbLine
 10
193.5000000000001
 20
291.0
 30
0.0
 11
199.5000000000001
 21
291.0
 31
0.0
  0
LINE
  5
1F5
330
1F
100
AcDbEntity
  8
図
  6
CONTINUOUS
 62
     2
100
AcDbLine
 10
200.4999999999949
 20
314.0474811550121
 30
0.0
 11
200.4999999999949
 21
285.95251884499
 31
0.0
  0
LINE
  5
1F6
330
1F
100
AcDbEntity
  8
図
  6
CONTINUOUS
 62
     2
100
AcDbLine
 10
200.4999999999943
 20
285.952518844987
 30
0.0
 11
199.4999999999998
 21
284.575
 31
0.0
  0
LINE
  5
1F7
330
1F
100
AcDbEntity
  8
図
  6
CONTINUOUS
 62
     2
100
AcDbLine
 10
200.4999999999943
 20
314.047481155013
 30
0.0
 11
199.4999999999998
 21
315.425
 31
0.0
  0
LINE
  5
1F8
330
1F
100
AcDbEntity
  8
図
  6
CONTINUOUS
 62
     2
100
AcDbLine
 10
193.5000000000001
 20
315.4250000000001
 30
0.0
 11
199.5000000000001
 21
315.4250000000001
 31
0.0
  0
LINE
  5
1F9
330
1F
100
AcDbEntity
  8
図
  6
CONTINUOUS
 62
     2
100
AcDbLine
 10
193.5000000000001
 20
284.5749999999999
 30
0.0
 11
199.5000000000001
 21
284.5749999999999
 31
0.0
  0
LINE
  5
1FA
330
1F
100
AcDbEntity
  8
図
  6
CONTINUOUS
 62
     6
100
AcDbLine
 10
193.5000000000001
 20
306.5
 30
0.0
 11
199.5000000000001
 21
306.5
 31
0.0
  0
LINE
  5
1FB
330
1F
100
AcDbEntity
  8
図
  6
CONTINUOUS
 62
     6
100
AcDbLine
 10
193.5000000000001
 20
293.5000000000001
 30
0.0
 11
199.5000000000001
 21
293.5000000000001
 31
0.0
  0
ARC
  5
1FC
330
1F
100
AcDbEntity
  8
図
  6
CONTINUOUS
 62
     2
100
AcDbCircle
 10
205.5402056976129
 20
316.7550237599184
 30
0.0
 40
5.397222204554564
100
AcDbArc
 50
279.3714319923878
 51
0.0542414886001736
  0
ARC
  5
1FD
330
1F
100
AcDbEntity
  8
図
  6
CONTINUOUS
 62
     2
100
AcDbCircle
 10
205.906647520226
 20
320.4277491870952
 30
0.0
 40
9.012491907207574
100
AcDbArc
 50
240.720114406792
 51
273.259337118493
  0
LINE
  5
1FE
330
1F
100
AcDbEntity
  8
図
  6
CONTINUOUS
 62
     2
100
AcDbLine
 10
200.4999999999949
 20
312.5666840299751
 30
0.0
 11
201.49885158881
 21
312.5666840299751
 31
0.0
  0
LINE
  5
1FF
330
1F
100
AcDbEntity
  8
図
  6
CONTINUOUS
 62
     2
100
AcDbLine
 10
210.9374254836
 20
316.26
 30
0.0
 11
210.9374254836
 21
322.6993546784
 31
0.0
  0
LINE
  5
200
330
1F
100
AcDbEntity
  8
図
  6
CONTINUOUS
 62
     6
100
AcDbLine
 10
201.499999999985
 20
312.5660402119501
 30
0.0
 11
201.499999999985
 21
288.1299270730751
 31
0.0
  0
ARC
  5
201
330
1F
100
AcDbEntity
  8
図
  6
CONTINUOUS
 62
     2
100
AcDbCircle
 10
207.2750949198688
 20
279.3231137146648
 30
0.0
 40
10.5314615729998
100
AcDbArc
 50
84.33251258002745
 51
123.2549823117191
  0
LINE
  5
202
330
1F
100
AcDbEntity
  8
図
  6
CONTINUOUS
 62
     2
100
AcDbLine
 10
201.499999999985
 20
288.1299270730751
 30
0.0
 11
200.4999999999949
 21
288.1299270730751
 31
0.0
  0
ARC
  5
203
330
1F
100
AcDbEntity
  8
図
  6
CONTINUOUS
 62
     2
100
AcDbCircle
 10
206.4931194051851
 20
267.4792912471926
 30
0.0
 40
22.39803430948259
100
AcDbArc
 50
73.6582643003746
 51
85.33400951947421
  0
LINE
  5
204
330
1F
100
AcDbEntity
  8
図
  6
CONTINUOUS
 62
     2
100
AcDbLine
 10
188.5
 20
310.35
 30
0.0
 11
193.50000000001
 21
315.425
 31
0.0
  0
LINE
  5
205
330
1F
100
AcDbEntity
  8
図
  6
CONTINUOUS
 62
     2
100
AcDbLine
 10
188.5
 20
289.65
 30
0.0
 11
193.50000000001
 21
284.575
 31
0.0
  0
LINE
  5
206
330
1F
100
AcDbEntity
  8
図
  6
CONTINUOUS
 62
     2
100
AcDbLine
 10
188.5
 20
308.000000000001
 30
0.0
 11
179.2788915376557
 21
308.000000000001
 31
0.0
  0
LINE
  5
207
330
1F
100
AcDbEntity
  8
図
  6
CONTINUOUS
 62
     2
100
AcDbLine
 10
188.4999999999999
 20
292.0000000000011
 30
0.0
 11
179.5706566854201
 21
292.0000000000011
 31
0.0
  0
DIMENSION
  5
209
330
1F
100
AcDbEntity
  8
寸法
  6
CONTINUOUS
 62
     3
100
AcDbDimension
  2
*D15
 10
279.0
 20
231.4
 30
0.0
 11
251.0
 21
236.0999999880791
 31
0.0
 70
   160
  3
ISO-25
100
AcDbAlignedDimension
 13
223.0
 23
258.80000002384
 33
0.0
 14
279.0
 24
273.0
 34
0.0
100
AcDbRotatedDimension
1001
ACAD
1000
DSTYLE
1002
{
1070
   270
1070
     2
1070
     6
1000
EX_NORM
1070
     7
1000
EX_NORM
1070
    41
1040
6.0
1070
    42
1040
0.0
1070
    44
1040
0.0
1070
    73
1070
     0
1070
    74
1070
     0
1070
    75
1070
     0
1070
    76
1070
     1
1070
    77
1070
     1
1070
    78
1070
     0
1070
   140
1040
8.0
1070
   147
1040
0.0
1070
   173
1070
     1
1070
   176
1070
     3
1070
   177
1070
     3
1070
   178
1070
     2
1070
   271
1070
     0
1070
   277
1070
     2
1070
   279
1070
     2
1070
   280
1070
     0
1070
   287
1070
     5
1070
   340
1005
208
1002
}
  0
DIMENSION
  5
216
330
1F
100
AcDbEntity
  8
寸法
  6
CONTINUOUS
 62
     3
100
AcDbDimension
  2
*D16
 10
293.0
 20
231.4
 30
0.0
 11
286.0
 21
236.0999999880791
 31
0.0
 70
   160
  3
ISO-25
100
AcDbAlignedDimension
 13
279.0
 23
275.0
 33
0.0
 14
293.0
 24
290.63761734853
 34
0.0
100
AcDbRotatedDimension
1001
ACAD
1000
DSTYLE
1002
{
1070
   270
1070
     2
1070
     6
1000
EX_NORM
1070
     7
1000
EX_NORM
1070
    41
1040
6.0
1070
    42
1040
1.399999976158142
1070
    44
1040
2.0
1070
    73
1070
     0
1070
    74
1070
     0
1070
    75
1070
     0
1070
    76
1070
     0
1070
    77
1070
     1
1070
    78
1070
     0
1070
   140
1040
8.0
1070
   147
1040
0.0
1070
   173
1070
     1
1070
   176
1070
     3
1070
   177
1070
     3
1070
   178
1070
     2
1070
   271
1070
     0
1070
   277
1070
     2
1070
   279
1070
     2
1070
   280
1070
     0
1070
   287
1070
     5
1070
   340
1005
208
1002
}
  0
DIMENSION
  5
223
330
1F
100
AcDbEntity
  8
寸法
  6
CONTINUOUS
 62
     3
100
AcDbDimension
  2
*D17
 10
117.8
 20
357.0
 30
0.0
 11
113.1000000119209
 21
328.5
 31
0.0
 70
   160
  3
ISO-25
100
AcDbAlignedDimension
 13
154.2
 23
300.0
 33
0.0
 14
223.0
 24
357.0
 34
0.0
 50
90.0
100
AcDbRotatedDimension
1001
ACAD
1000
DSTYLE
1002
{
1070
   270
1070
     2
1070
     6
1000
EX_NORM
1070
     7
1000
EX_NORM
1070
    41
1040
6.0
1070
    42
1040
1.399999976158142
1070
    44
1040
2.0
1070
    73
1070
     0
1070
    74
1070
     0
1070
    75
1070
     0
1070
    76
1070
     0
1070
    77
1070
     1
1070
    78
1070
     0
1070
   140
1040
8.0
1070
   147
1040
0.0
1070
   173
1070
     1
1070
   176
1070
     3
1070
   177
1070
     3
1070
   178
1070
     2
1070
   271
1070
     0
1070
   277
1070
     2
1070
   279
1070
     2
1070
   280
1070
     0
1070
   287
1070
     5
1070
   340
1005
208
1002
}
  0
DIMENSION
  5
230
330
1F
100
AcDbEntity
  8
寸法
  6
CONTINUOUS
 62
     3
100
AcDbDimension
  2
*D18
 10
311.6999999999999
 20
275.0
 30
0.0
 11
307.0000000119209
 21
300.0
 31
0.0
 70
   160
  1
%%c50
  3
ISO-25
100
AcDbAlignedDimension
 13
279.0
 23
325.0
 33
0.0
 14
279.0
 24
275.0
 34
0.0
 50
90.0
100
AcDbRotatedDimension
1001
ACAD
1000
DSTYLE
1002
{
1070
   270
1070
     2
1070
     6
1000
EX_NORM
1070
     7
1000
EX_NORM
1070
    41
1040
6.0
1070
    42
1040
1.399999976158142
1070
    44
1040
2.0
1070
    73
1070
     0
1070
    74
1070
     0
1070
    75
1070
     0
1070
    76
1070
     0
1070
    77
1070
     1
1070
    78
1070
     0
1070
   140
1040
8.0
1070
   147
1040
0.0
1070
   173
1070
     1
1070
   176
1070
     3
1070
   177
1070
     3
1070
   178
1070
     2
1070
   271
1070
     0
1070
   277
1070
     2
1070
   279
1070
     2
1070
   280
1070
     0
1070
   287
1070
     5
1070
   340
1005
208
1002
}
  0
LEADER
  5
23D
330
1F
100
AcDbEntity
  8
寸法
  6
CONTINUOUS
 62
     3
100
AcDbLeader
  3
ISO-25
 76
     3
 10
287.4578209492901
 20
310.5000000000001
 30
0.0
 10
312.2499999999999
 20
335.2921790507102
 30
0.0
 10
346.0999999999999
 20
335.2921790507102
 30
0.0
1001
ACAD
1000
DSTYLE
1002
{
1070
     5
1000
EX_NORM
1070
    41
1040
6.0
1070
   341
1005
4E
1002
}
  0
TEXT
  5
23E
330
1F
100
AcDbEntity
  8
寸法
  6
CONTINUOUS
 62
     2
100
AcDbText
 10
312.2499999999999
 20
335.9921790387891
 30
0.0
 40
8.0
  1
ＰＪ１／２
 41
1.01379310057081
  7
EXCADSTD
 72
     5
 11
345.8499999046325
 21
335.9921790387891
 31
0.0
100
AcDbText
  0
DIMENSION
  5
23F
330
1F
100
AcDbEntity
  8
寸法
  6
CONTINUOUS
 62
     3
100
AcDbDimension
  2
*D19
 10
148.0
 20
231.4
 30
0.0
 11
185.5
 21
236.0999999880791
 31
0.0
 70
   160
  3
ISO-25
100
AcDbAlignedDimension
 13
223.0
 23
282.2
 33
0.0
 14
148.0
 24
257.0
 34
0.0
100
AcDbRotatedDimension
1001
ACAD
1000
DSTYLE
1002
{
1070
   270
1070
     2
1070
     6
1000
EX_NORM
1070
     7
1000
EX_NORM
1070
    41
1040
6.0
1070
    42
1040
1.399999976158142
1070
    44
1040
1.999999999999943
1070
    73
1070
     0
1070
    74
1070
     0
1070
    75
1070
     0
1070
    76
1070
     0
1070
    77
1070
     1
1070
    78
1070
     0
1070
   140
1040
8.0
1070
   147
1040
0.0
1070
   173
1070
     1
1070
   176
1070
     3
1070
   177
1070
     3
1070
   178
1070
     2
1070
   271
1070
     0
1070
   277
1070
     2
1070
   279
1070
     2
1070
   280
1070
     0
1070
   287
1070
     5
1070
   340
1005
208
1002
}
  0
DIMENSION
  5
24C
330
1F
100
AcDbEntity
  8
寸法
  6
CONTINUOUS
 62
     3
100
AcDbDimension
  2
*D20
 10
117.8
 20
257.0
 30
0.0
 11
113.1000000119209
 21
278.5
 31
0.0
 70
   160
  3
ISO-25
100
AcDbAlignedDimension
 13
154.2
 23
300.0
 33
0.0
 14
148.0
 24
257.0
 34
0.0
 50
90.0
100
AcDbRotatedDimension
1001
ACAD
1000
DSTYLE
1002
{
1070
   270
1070
     2
1070
     6
1000
EX_NORM
1070
     7
1000
EX_NORM
1070
    41
1040
6.0
1070
    42
1040
1.399999976158142
1070
    44
1040
2.0
1070
    73
1070
     0
1070
    74
1070
     0
1070
    75
1070
     0
1070
    76
1070
     0
1070
    77
1070
     1
1070
    78
1070
     0
1070
   140
1040
8.0
1070
   147
1040
0.0
1070
   173
1070
     1
1070
   176
1070
     3
1070
   177
1070
     3
1070
   178
1070
     2
1070
   271
1070
     0
1070
   277
1070
     2
1070
   279
1070
     2
1070
   280
1070
     0
1070
   287
1070
     5
1070
   340
1005
208
1002
}
  0
ENDSEC
  0
SECTION
  2
OBJECTS
  0
DICTIONARY
  5
C
330
0
100
AcDbDictionary
  3
ACAD_GROUP
350
D
  3
ACAD_LAYOUT
350
1A
  3
ACAD_MATERIAL
350
3B
  3
ACAD_MLEADERSTYLE
350
27B
  3
ACAD_MLINESTYLE
350
17
  3
ACAD_PLOTSETTINGS
350
19
  3
ACAD_VISUALSTYLE
350
2A
  3
ACDBHEADERROUNDTRIPXREC
350
259
  3
ACDBVARIABLEDICTIONARY
350
279
  0
DICTIONARY
  5
D
102
{ACAD_REACTORS
330
C
102
}
330
C
100
AcDbDictionary
  0
DICTIONARY
  5
1A
102
{ACAD_REACTORS
330
C
102
}
330
C
100
AcDbDictionary
  0
DICTIONARY
  5
3B
102
{ACAD_REACTORS
330
C
102
}
330
C
100
AcDbDictionary
  3
BYBLOCK
350
3D
  3
BYLAYER
350
3C
  3
GLOBAL
350
3E
  0
DICTIONARY
  5
27B
102
{ACAD_REACTORS
330
C
102
}
330
C
100
AcDbDictionary
  0
DICTIONARY
  5
17
102
{ACAD_REACTORS
330
C
102
}
330
C
100
AcDbDictionary
  3
STANDARD
350
18
  0
DICTIONARY
  5
19
102
{ACAD_REACTORS
330
C
102
}
330
C
100
AcDbDictionary
  0
DICTIONARY
  5
2A
102
{ACAD_REACTORS
330
C
102
}
330
C
100
AcDbDictionary
  3
2DWIREFRAME
350
2F
  3
3D_HIDDEN
350
31
  3
3DWIREFRAME
350
30
  3
BASIC
350
32
  3
BRIGHTEN
350
36
  3
COLORCHANGE
350
3A
  3
CONCEPTUAL
350
34
  3
DIM
350
35
  3
FACEPATTERN
350
39
  3
FLAT
350
2B
  3
FLATWITHEDGES
350
2C
  3
GOURAUD
350
2D
  3
GOURAUDWITHEDGES
350
2E
  3
LINEPATTERN
350
38
  3
REALISTIC
350
33
  3
THICKEN
350
37
  0
DICTIONARY
  5
259
102
{ACAD_REACTORS
330
C
102
}
330
C
100
AcDbDictionary
  3
CEPSNTYPE
350
262
  3
DIMSTYLEDATA
350
278
  3
FINGERPRINTGUID
350
263
  3
HYPERLINKBASE
350
25C
  3
INSUNITS
350
261
  3
LAYOUTDICT
350
25E
  3
LWETCUNION
350
260
  3
PLOTSETDICT
350
25F
  3
PSVPSCALE
350
265
  3
PUCSBASE
350
268
  3
PUCSORGBACK
350
26E
  3
PUCSORGBOTTOM
350
26A
  3
PUCSORGFRONT
350
26D
  3
PUCSORGLEFT
350
26B
  3
PUCSORGRIGHT
350
26C
  3
PUCSORGTOP
350
269
  3
PUCSORTHOREF
350
266
  3
PUCSORTHOVIEW
350
267
  3
STYLESHEET
350
25D
  3
TSTACKALIGN
350
25A
  3
TSTACKSIZE
350
25B
  3
UCSBASE
350
271
  3
UCSORGBACK
350
277
  3
UCSORGBOTTOM
350
273
  3
UCSORGFRONT
350
276
  3
UCSORGLEFT
350
274
  3
UCSORGRIGHT
350
275
  3
UCSORGTOP
350
272
  3
UCSORTHOREF
350
26F
  3
UCSORTHOVIEW
350
270
  3
VERSIONGUID
350
264
  0
DICTIONARY
  5
279
102
{ACAD_REACTORS
330
C
102
}
330
C
100
AcDbDictionary
  3
DIMASSOC
350
27E
  3
HIDETEXT
350
27F
  3
PSOLHEIGHT
350
27D
  3
PSOLWIDTH
350
27C
  0
MATERIAL
  5
3D
102
{ACAD_REACTORS
330
3B
102
}
102
{ACAD_XDICTIONARY
360
282
102
}
330
3B
100
AcDbMaterial
  1
ByBlock
  0
MATERIAL
  5
3C
102
{ACAD_REACTORS
330
3B
102
}
102
{ACAD_XDICTIONARY
360
280
102
}
330
3B
100
AcDbMaterial
  1
ByLayer
  0
MATERIAL
  5
3E
102
{ACAD_REACTORS
330
3B
102
}
102
{ACAD_XDICTIONARY
360
284
102
}
330
3B
100
AcDbMaterial
  1
Global
  0
MLINESTYLE
  5
18
102
{ACAD_REACTORS
330
17
102
}
330
17
100
AcDbMlineStyle
  2
Standard
 70
     0
  3

 62
   256
 51
90.0
 52
90.0
 71
     2
 49
0.5
 62
   256
  6
BYLAYER
 49
-0.5
 62
   256
  6
BYLAYER
  0
ACAD_PROXY_OBJECT
  5
2F
102
{ACAD_REACTORS
330
2A
102
}
330
2A
100
AcDbProxyObject
 90
      499
 91
      501
 93
      436
310
42CC9915DA5C99599C985B595049028333333333333E3BF0000000000000FB0107901411070040501600405405064090741402480A0340
1001
ACAD
1000
AcDbSavedByObjectVersion
1070
     0
  0
ACAD_PROXY_OBJECT
  5
31
102
{ACAD_REACTORS
330
2A
102
}
330
2A
100
AcDbProxyObject
 90
      499
 91
      501
 93
      500
310
424CD108121A5919195B90640502408333333333333E3BF0000000000000FB01079024090700405020000000000001110200405405064090740C02480A0340
1001
ACAD
1000
AcDbSavedByObjectVersion
1070
     0
  0
ACAD_PROXY_OBJECT
  5
30
102
{ACAD_REACTORS
330
2A
102
}
330
2A
100
AcDbProxyObject
 90
      499
 91
      501
 93
      436
310
42CCD915DA5C99599C985B595059028333333333333E3BF0000000000000FB0107901411070040501600405405064090741402480A0340
1001
ACAD
1000
AcDbSavedByObjectVersion
1070
     0
  0
ACAD_PROXY_OBJECT
  5
32
102
{ACAD_REACTORS
330
2A
102
}
330
2A
100
AcDbProxyObject
 90
      499
 91
      501
 93
      388
310
4150985CDA58D07406404333333333333E3BF0000000000000FB0107A41107004050150841D405064090741402480A0350
1001
ACAD
1000
AcDbSavedByObjectVersion
1070
     0
  0
ACAD_PROXY_OBJECT
  5
36
102
{ACAD_REACTORS
330
2A
102
}
330
2A
100
AcDbProxyObject
 90
      499
 91
      501
 93
      428
310
42109C9A59DA1D195B90C409028333333333333E3BF0000000000000FB010790141107004050150841D405064090741402480A029950
1001
ACAD
1000
AcDbSavedByObjectVersion
1070
     0
  0
ACAD_PROXY_OBJECT
  5
3A
102
{ACAD_REACTORS
330
2A
102
}
330
2A
100
AcDbProxyObject
 90
      499
 91
      501
 93
      452
310
42D0DBDB1BDC90DA185B99D95104090240C333333333333E3BF0000000000000FB0108901411070040501508421405064090741402480A0350
1001
ACAD
1000
AcDbSavedByObjectVersion
1070
     0
  0
ACAD_PROXY_OBJECT
  5
34
102
{ACAD_REACTORS
330
2A
102
}
330
2A
100
AcDbProxyObject
 90
      499
 91
      501
 93
      500
310
4290DBDB98D95C1D1D585B10940D028333333333333E3BF0000000000000FB0107902409070040501000000000000111010841D405064090740C02480A0340
1001
ACAD
1000
AcDbSavedByObjectVersion
1070
     0
  0
ACAD_PROXY_OBJECT
  5
35
102
{ACAD_REACTORS
330
2A
102
}
330
2A
100
AcDbProxyObject
 90
      499
 91
      501
 93
      412
310
40D11A5B50B409028333333333333E3BF0000000000000FB010790141107004050150841D405064090741402480A02677FFFFFD0
1001
ACAD
1000
AcDbSavedByObjectVersion
1070
     0
  0
ACAD_PROXY_OBJECT
  5
39
102
{ACAD_REACTORS
330
2A
102
}
330
2A
100
AcDbProxyObject
 90
      499
 91
      501
 93
      444
310
42D19858D95C185D1D195C9B90F409028333333333333E3BF0000000000000FB010790141107004050150841D405064090741402480A0350
1001
ACAD
1000
AcDbSavedByObjectVersion
1070
     0
  0
ACAD_PROXY_OBJECT
  5
2B
102
{ACAD_REACTORS
330
2A
102
}
330
2A
100
AcDbProxyObject
 90
      499
 91
      501
 93
      388
310
41119B185D240901404333333333333E3BF0000000000000F9010740A41107004050150841D405064090741402480A1B50
1001
ACAD
1000
AcDbSavedByObjectVersion
1070
     0
  0
ACAD_PROXY_OBJECT
  5
2C
102
{ACAD_REACTORS
330
2A
102
}
330
2A
100
AcDbProxyObject
 90
      499
 91
      501
 93
      476
310
43519B185D15DA5D1A115919D95CD0140901404333333333333E3BF0000000000000F9010740901411070040501600405405064090741402480A1B50
1001
ACAD
1000
AcDbSavedByObjectVersion
1070
     0
  0
ACAD_PROXY_OBJECT
  5
2D
102
{ACAD_REACTORS
330
2A
102
}
330
2A
100
AcDbProxyObject
 90
      499
 91
      501
 93
      412
310
41D1DBDD5C985D5910240902404333333333333E3BF0000000000000F9010740A411070040501641D405064090741402480A1B50
1001
ACAD
1000
AcDbSavedByObjectVersion
1070
     0
  0
ACAD_PROXY_OBJECT
  5
2E
102
{ACAD_REACTORS
330
2A
102
}
330
2A
100
AcDbProxyObject
 90
      499
 91
      501
 93
      500
310
4411DBDD5C985D5915DA5D1A115919D95CD0340902404333333333333E3BF0000000000000F9010740901411070040501600405405064090741402480A1B50
1001
ACAD
1000
AcDbSavedByObjectVersion
1070
     0
  0
ACAD_PROXY_OBJECT
  5
38
102
{ACAD_REACTORS
330
2A
102
}
330
2A
100
AcDbProxyObject
 90
      499
 91
      501
 93
      444
310
42D31A5B995C185D1D195C9B90E409028333333333333E3BF0000000000000FB010790141107004050750841D405064090741402483A0350
1001
ACAD
1000
AcDbSavedByObjectVersion
1070
     0
  0
ACAD_PROXY_OBJECT
  5
33
102
{ACAD_REACTORS
330
2A
102
}
330
2A
100
AcDbProxyObject
 90
      499
 91
      501
 93
      420
310
425499585B1A5CDD1A58D08409028333333333333E3BF0000000000000FB01079019070040501508421405064090741402480A1B40
1001
ACAD
1000
AcDbSavedByObjectVersion
1070
     0
  0
ACAD_PROXY_OBJECT
  5
37
102
{ACAD_REACTORS
330
2A
102
}
330
2A
100
AcDbProxyObject
 90
      499
 91
      501
 93
      412
310
41D51A1A58DAD95B90D409028333333333333E3BF0000000000000FB010790141107004050150C41D405064090741402480A0350
1001
ACAD
1000
AcDbSavedByObjectVersion
1070
     0
  0
XRECORD
  5
262
102
{ACAD_REACTORS
330
259
102
}
330
259
100
AcDbXrecord
 90
        0
  0
XRECORD
  5
278
102
{ACAD_REACTORS
330
259
102
}
330
259
100
AcDbXrecord
1000
DSTYLE
1002
{
1070
   340
340
11
1002
}
  0
XRECORD
  5
263
102
{ACAD_REACTORS
330
259
102
}
330
259
100
AcDbXrecord
  1
{22E935B2-9CF1-41D2-880F-809C49EED7A0}
  0
XRECORD
  5
25C
102
{ACAD_REACTORS
330
259
102
}
330
259
100
AcDbXrecord
  1

  0
XRECORD
  5
261
102
{ACAD_REACTORS
330
259
102
}
330
259
100
AcDbXrecord
 90
        4
  0
XRECORD
  5
25E
102
{ACAD_REACTORS
330
259
102
}
330
259
100
AcDbXrecord
340
1A
  0
XRECORD
  5
260
102
{ACAD_REACTORS
330
259
102
}
330
259
100
AcDbXrecord
 90
    10781
  0
XRECORD
  5
25F
102
{ACAD_REACTORS
330
259
102
}
330
259
100
AcDbXrecord
340
19
  0
XRECORD
  5
265
102
{ACAD_REACTORS
330
259
102
}
330
259
100
AcDbXrecord
 40
0.0
  0
XRECORD
  5
268
102
{ACAD_REACTORS
330
259
102
}
330
259
100
AcDbXrecord
340
0
  0
XRECORD
  5
26E
102
{ACAD_REACTORS
330
259
102
}
330
259
100
AcDbXrecord
 10
0.0
 20
0.0
 30
0.0
  0
XRECORD
  5
26A
102
{ACAD_REACTORS
330
259
102
}
330
259
100
AcDbXrecord
 10
0.0
 20
0.0
 30
0.0
  0
XRECORD
  5
26D
102
{ACAD_REACTORS
330
259
102
}
330
259
100
AcDbXrecord
 10
0.0
 20
0.0
 30
0.0
  0
XRECORD
  5
26B
102
{ACAD_REACTORS
330
259
102
}
330
259
100
AcDbXrecord
 10
0.0
 20
0.0
 30
0.0
  0
XRECORD
  5
26C
102
{ACAD_REACTORS
330
259
102
}
330
259
100
AcDbXrecord
 10
0.0
 20
0.0
 30
0.0
  0
XRECORD
  5
269
102
{ACAD_REACTORS
330
259
102
}
330
259
100
AcDbXrecord
 10
0.0
 20
0.0
 30
0.0
  0
XRECORD
  5
266
102
{ACAD_REACTORS
330
259
102
}
330
259
100
AcDbXrecord
340
0
  0
XRECORD
  5
267
102
{ACAD_REACTORS
330
259
102
}
330
259
100
AcDbXrecord
 70
     0
  0
XRECORD
  5
25D
102
{ACAD_REACTORS
330
259
102
}
330
259
100
AcDbXrecord
  1

  0
XRECORD
  5
25A
102
{ACAD_REACTORS
330
259
102
}
330
259
100
AcDbXrecord
 90
        1
  0
XRECORD
  5
25B
102
{ACAD_REACTORS
330
259
102
}
330
259
100
AcDbXrecord
 90
       70
  0
XRECORD
  5
271
102
{ACAD_REACTORS
330
259
102
}
330
259
100
AcDbXrecord
340
0
  0
XRECORD
  5
277
102
{ACAD_REACTORS
330
259
102
}
330
259
100
AcDbXrecord
 10
0.0
 20
0.0
 30
0.0
  0
XRECORD
  5
273
102
{ACAD_REACTORS
330
259
102
}
330
259
100
AcDbXrecord
 10
0.0
 20
0.0
 30
0.0
  0
XRECORD
  5
276
102
{ACAD_REACTORS
330
259
102
}
330
259
100
AcDbXrecord
 10
0.0
 20
0.0
 30
0.0
  0
XRECORD
  5
274
102
{ACAD_REACTORS
330
259
102
}
330
259
100
AcDbXrecord
 10
0.0
 20
0.0
 30
0.0
  0
XRECORD
  5
275
102
{ACAD_REACTORS
330
259
102
}
330
259
100
AcDbXrecord
 10
0.0
 20
0.0
 30
0.0
  0
XRECORD
  5
272
102
{ACAD_REACTORS
330
259
102
}
330
259
100
AcDbXrecord
 10
0.0
 20
0.0
 30
0.0
  0
XRECORD
  5
26F
102
{ACAD_REACTORS
330
259
102
}
330
259
100
AcDbXrecord
340
0
  0
XRECORD
  5
270
102
{ACAD_REACTORS
330
259
102
}
330
259
100
AcDbXrecord
 70
     0
  0
XRECORD
  5
264
102
{ACAD_REACTORS
330
259
102
}
330
259
100
AcDbXrecord
  1
{FAEB1C32-E019-11D5-929B-00C0DF256EC4}
  0
DICTIONARYVAR
  5
27E
102
{ACAD_REACTORS
330
279
102
}
330
279
100
DictionaryVariables
280
     0
  1
2
  0
DICTIONARYVAR
  5
27F
102
{ACAD_REACTORS
330
279
102
}
330
279
100
DictionaryVariables
280
     0
  1
1
  0
DICTIONARYVAR
  5
27D
102
{ACAD_REACTORS
330
279
102
}
330
279
100
DictionaryVariables
280
     0
  1
80.000000
  0
DICTIONARYVAR
  5
27C
102
{ACAD_REACTORS
330
279
102
}
330
279
100
DictionaryVariables
280
     0
  1
5.000000
  0
DICTIONARY
  5
282
330
3D
100
AcDbDictionary
280
     1
  3
ACAD_XREC_ROUNDTRIP
360
283
  0
DICTIONARY
  5
280
330
3C
100
AcDbDictionary
280
     1
  3
ACAD_XREC_ROUNDTRIP
360
281
  0
DICTIONARY
  5
284
330
3E
100
AcDbDictionary
280
     1
  3
ACAD_XREC_ROUNDTRIP
360
285
  0
XRECORD
  5
283
102
{ACAD_REACTORS
330
282
102
}
330
282
100
AcDbXrecord
102
MATERIAL
148
0.0
149
0.0
149
0.0
 93
        0
 94
      127
282
     0
 72
     1
 77
     1
171
     1
175
     1
179
     1
273
     0
  0
XRECORD
  5
281
102
{ACAD_REACTORS
330
280
102
}
330
280
100
AcDbXrecord
102
MATERIAL
148
0.0
149
0.0
149
0.0
 93
        0
 94
      127
282
     0
 72
     1
 77
     1
171
     1
175
     1
179
     1
273
     0
  0
XRECORD
  5
285
102
{ACAD_REACTORS
330
284
102
}
330
284
100
AcDbXrecord
102
MATERIAL
148
0.0
149
0.0
149
0.0
 93
        0
 94
      127
282
     0
 72
     1
 77
     1
171
     1
175
     1
179
     1
273
     0
  0
ENDSEC
  0
EOF
