  0
SECTION
  2
HEADER
  9
$ACADVER
  1
AC1014
  9
$ACADMAINTVER
 70
     9
  9
$DWGCODEPAGE
  3
ANSI_932
  9
$INSBASE
 10
0.0
 20
0.0
 30
0.0
  9
$EXTMIN
 10
1.000000000000009
 20
-31.65947500000146
 30
0.0
  9
$EXTMAX
 10
200.0
 20
288.5
 30
0.0
  9
$LIMMIN
 10
0.0
 20
0.0
  9
$LIMMAX
 10
210.0
 20
297.0
  9
$ORTHOMODE
 70
     0
  9
$REGENMODE
 70
     1
  9
$FILLMODE
 70
     1
  9
$QTEXTMODE
 70
     0
  9
$MIRRTEXT
 70
     1
  9
$DRAGMODE
 70
     2
  9
$LTSCALE
 40
1.0
  9
$OSMODE
 70
    37
  9
$ATTMODE
 70
     1
  9
$TEXTSIZE
 40
2.5
  9
$TRACEWID
 40
1.0
  9
$TEXTSTYLE
  7
STANDARD
  9
$CLAYER
  8
枠_表
  9
$CELTYPE
  6
BYLAYER
  9
$CECOLOR
 62
   256
  9
$CELTSCALE
 40
1.0
  9
$DELOBJ
 70
     1
  9
$DISPSILH
 70
     0
  9
$DIMSCALE
 40
1.0
  9
$DIMASZ
 40
2.5
  9
$DIMEXO
 40
0.625
  9
$DIMDLI
 40
3.75
  9
$DIMRND
 40
0.0
  9
$DIMDLE
 40
0.0
  9
$DIMEXE
 40
1.25
  9
$DIMTP
 40
0.0
  9
$DIMTM
 40
0.0
  9
$DIMTXT
 40
2.5
  9
$DIMCEN
 40
2.5
  9
$DIMTSZ
 40
0.0
  9
$DIMTOL
 70
     0
  9
$DIMLIM
 70
     0
  9
$DIMTIH
 70
     0
  9
$DIMTOH
 70
     0
  9
$DIMSE1
 70
     0
  9
$DIMSE2
 70
     0
  9
$DIMTAD
 70
     1
  9
$DIMZIN
 70
     8
  9
$DIMBLK
  1

  9
$DIMASO
 70
     1
  9
$DIMSHO
 70
     1
  9
$DIMPOST
  1

  9
$DIMAPOST
  1

  9
$DIMALT
 70
     0
  9
$DIMALTD
 70
     3
  9
$DIMALTF
 40
0.03937007874016
  9
$DIMLFAC
 40
1.0
  9
$DIMTOFL
 70
     1
  9
$DIMTVP
 40
0.0
  9
$DIMTIX
 70
     0
  9
$DIMSOXD
 70
     0
  9
$DIMSAH
 70
     0
  9
$DIMBLK1
  1

  9
$DIMBLK2
  1

  9
$DIMSTYLE
  2
ISO-25
  9
$DIMCLRD
 70
     0
  9
$DIMCLRE
 70
     0
  9
$DIMCLRT
 70
     0
  9
$DIMTFAC
 40
1.0
  9
$DIMGAP
 40
0.625
  9
$DIMJUST
 70
     0
  9
$DIMSD1
 70
     0
  9
$DIMSD2
 70
     0
  9
$DIMTOLJ
 70
     0
  9
$DIMTZIN
 70
     8
  9
$DIMALTZ
 70
     0
  9
$DIMALTTZ
 70
     0
  9
$DIMFIT
 70
     3
  9
$DIMUPT
 70
     0
  9
$DIMUNIT
 70
     2
  9
$DIMDEC
 70
     2
  9
$DIMTDEC
 70
     2
  9
$DIMALTU
 70
     2
  9
$DIMALTTD
 70
     3
  9
$DIMTXSTY
  7
STANDARD
  9
$DIMAUNIT
 70
     0
  9
$LUNITS
 70
     2
  9
$LUPREC
 70
     4
  9
$SKETCHINC
 40
1.0
  9
$FILLETRAD
 40
10.0
  9
$AUNITS
 70
     0
  9
$AUPREC
 70
     0
  9
$MENU
  1
.
  9
$ELEVATION
 40
0.0
  9
$PELEVATION
 40
0.0
  9
$THICKNESS
 40
0.0
  9
$LIMCHECK
 70
     0
  9
$CHAMFERA
 40
10.0
  9
$CHAMFERB
 40
10.0
  9
$CHAMFERC
 40
20.0
  9
$CHAMFERD
 40
0.0
  9
$SKPOLY
 70
     0
  9
$TDCREATE
 40
2458537.460525058
  9
$TDUPDATE
 40
2458537.460525231
  9
$TDINDWG
 40
0.0000000116
  9
$TDUSRTIMER
 40
0.0000000116
  9
$USRTIMER
 70
     1
  9
$ANGBASE
 50
0.0
  9
$ANGDIR
 70
     0
  9
$PDMODE
 70
     0
  9
$PDSIZE
 40
0.0
  9
$PLINEWID
 40
0.0
  9
$COORDS
 70
     1
  9
$SPLFRAME
 70
     0
  9
$SPLINETYPE
 70
     6
  9
$SPLINESEGS
 70
     8
  9
$ATTDIA
 70
     0
  9
$ATTREQ
 70
     1
  9
$HANDLING
 70
     1
  9
$HANDSEED
  5
686
  9
$SURFTAB1
 70
     6
  9
$SURFTAB2
 70
     6
  9
$SURFTYPE
 70
     6
  9
$SURFU
 70
     6
  9
$SURFV
 70
     6
  9
$UCSNAME
  2

  9
$UCSORG
 10
0.0
 20
0.0
 30
0.0
  9
$UCSXDIR
 10
1.0
 20
0.0
 30
0.0
  9
$UCSYDIR
 10
0.0
 20
1.0
 30
0.0
  9
$PUCSNAME
  2

  9
$PUCSORG
 10
0.0
 20
0.0
 30
0.0
  9
$PUCSXDIR
 10
1.0
 20
0.0
 30
0.0
  9
$PUCSYDIR
 10
0.0
 20
1.0
 30
0.0
  9
$USERI1
 70
     0
  9
$USERI2
 70
     0
  9
$USERI3
 70
     0
  9
$USERI4
 70
     0
  9
$USERI5
 70
     0
  9
$USERR1
 40
0.0
  9
$USERR2
 40
0.0
  9
$USERR3
 40
0.0
  9
$USERR4
 40
0.0
  9
$USERR5
 40
0.0
  9
$WORLDVIEW
 70
     1
  9
$SHADEDGE
 70
     3
  9
$SHADEDIF
 70
    70
  9
$TILEMODE
 70
     1
  9
$MAXACTVP
 70
    64
  9
$PINSBASE
 10
0.0
 20
0.0
 30
0.0
  9
$PLIMCHECK
 70
     0
  9
$PEXTMIN
 10
1.000000000000000E+20
 20
1.000000000000000E+20
 30
1.000000000000000E+20
  9
$PEXTMAX
 10
-1.000000000000000E+20
 20
-1.000000000000000E+20
 30
-1.000000000000000E+20
  9
$PLIMMIN
 10
0.0
 20
0.0
  9
$PLIMMAX
 10
420.0
 20
297.0
  9
$UNITMODE
 70
     0
  9
$VISRETAIN
 70
     1
  9
$PLINEGEN
 70
     0
  9
$PSLTSCALE
 70
     1
  9
$TREEDEPTH
 70
  3020
  9
$PICKSTYLE
 70
     1
  9
$CMLSTYLE
  2
STANDARD
  9
$CMLJUST
 70
     0
  9
$CMLSCALE
 40
20.0
  9
$PROXYGRAPHICS
 70
     1
  9
$MEASUREMENT
 70
     1
  0
ENDSEC
  0
SECTION
  2
CLASSES
  0
CLASS
  1
ACDBDICTIONARYWDFLT
  2
AcDbDictionaryWithDefault
  3
ObjectDBX Classes
 90
        0
280
     0
281
     0
  0
CLASS
  1
VISUALSTYLE
  2
AcDbVisualStyle
  3
ObjectDBX Classes
 90
     4095
280
     0
281
     0
  0
CLASS
  1
MATERIAL
  2
AcDbMaterial
  3
ObjectDBX Classes
 90
     1153
280
     0
281
     0
  0
CLASS
  1
SUN
  2
AcDbSun
  3
SCENEOE
 90
     1024
280
     0
281
     0
  0
CLASS
  1
DICTIONARYVAR
  2
AcDbDictionaryVar
  3
ObjectDBX Classes
 90
        0
280
     0
281
     0
  0
CLASS
  1
XRECORD
  2
AcDbXrecord
  3
AutoCAD 2000
 90
        0
280
     0
281
     0
  0
CLASS
  1
LWPOLYLINE
  2
AcDbPolyline
  3
AutoCAD 2000
 90
        0
280
     0
281
     1
  0
CLASS
  1
HATCH
  2
AcDbHatch
  3
AutoCAD 2000
 90
        0
280
     0
281
     1
  0
CLASS
  1
ACDBPLACEHOLDER
  2
AcDbPlaceHolder
  3
ObjectDBX Classes
 90
        0
280
     0
281
     0
  0
CLASS
  1
LAYOUT
  2
AcDbLayout
  3
ObjectDBX Classes
 90
        0
280
     0
281
     0
  0
ENDSEC
  0
SECTION
  2
TABLES
  0
TABLE
  2
VPORT
  5
8
330
0
100
AcDbSymbolTable
 70
     1
  0
VPORT
  5
29
330
8
100
AcDbSymbolTableRecord
100
AcDbViewportTableRecord
  2
*ACTIVE
 70
     0
 10
0.0
 20
0.0
 11
1.0
 21
1.0
 12
100.5
 22
128.4202624999993
 13
0.0
 23
0.0
 14
10.0
 24
10.0
 15
10.0
 25
10.0
 16
0.0
 26
0.0
 36
1.0
 17
0.0
 27
0.0
 37
0.0
 40
320.1594750000015
 41
0.6215652371368959
 42
50.0
 43
0.0
 44
0.0
 50
0.0
 51
0.0
 71
     0
 72
  1000
 73
     1
 74
     3
 75
     0
 76
     0
 77
     0
 78
     0
  0
ENDTAB
  0
TABLE
  2
LTYPE
  5
5
330
0
100
AcDbSymbolTable
 70
     9
  0
LTYPE
  5
14
330
5
100
AcDbSymbolTableRecord
100
AcDbLinetypeTableRecord
  2
BYBLOCK
 70
     0
  3

 72
    65
 73
     0
 40
0.0
  0
LTYPE
  5
15
330
5
100
AcDbSymbolTableRecord
100
AcDbLinetypeTableRecord
  2
BYLAYER
 70
     0
  3

 72
    65
 73
     0
 40
0.0
  0
LTYPE
  5
16
330
5
100
AcDbSymbolTableRecord
100
AcDbLinetypeTableRecord
  2
CONTINUOUS
 70
     0
  3
Solid line
 72
    65
 73
     0
 40
0.0
  0
LTYPE
  5
40
330
5
100
AcDbSymbolTableRecord
100
AcDbLinetypeTableRecord
  2
EXLTYPE1
 70
     0
  3
破線
 72
    65
 73
     2
 40
3.0
 49
2.0
 74
     0
 49
-1.0
 74
     0
  0
LTYPE
  5
41
330
5
100
AcDbSymbolTableRecord
100
AcDbLinetypeTableRecord
  2
EXLTYPE2
 70
     0
  3
点線
 72
    65
 73
     2
 40
2.0
 49
1.0
 74
     0
 49
-1.0
 74
     0
  0
LTYPE
  5
42
330
5
100
AcDbSymbolTableRecord
100
AcDbLinetypeTableRecord
  2
EXLTYPE3
 70
     0
  3
一点鎖線
 72
    65
 73
     4
 40
10.0
 49
7.0
 74
     0
 49
-1.0
 74
     0
 49
1.0
 74
     0
 49
-1.0
 74
     0
  0
LTYPE
  5
43
330
5
100
AcDbSymbolTableRecord
100
AcDbLinetypeTableRecord
  2
EXLTYPE4
 70
     0
  3
二点鎖線
 72
    65
 73
     6
 40
12.0
 49
7.0
 74
     0
 49
-1.0
 74
     0
 49
1.0
 74
     0
 49
-1.0
 74
     0
 49
1.0
 74
     0
 49
-1.0
 74
     0
  0
LTYPE
  5
44
330
5
100
AcDbSymbolTableRecord
100
AcDbLinetypeTableRecord
  2
EXLTYPE5
 70
     0
  3
三点鎖線
 72
    65
 73
     8
 40
37.0
 49
30.0
 74
     0
 49
-1.0
 74
     0
 49
1.0
 74
     0
 49
-1.0
 74
     0
 49
1.0
 74
     0
 49
-1.0
 74
     0
 49
1.0
 74
     0
 49
-1.0
 74
     0
  0
LTYPE
  5
45
330
5
100
AcDbSymbolTableRecord
100
AcDbLinetypeTableRecord
  2
EXLTYPE6
 70
     0
  3
四点鎖線
 72
    65
 73
    10
 40
39.0
 49
30.0
 74
     0
 49
-1.0
 74
     0
 49
1.0
 74
     0
 49
-1.0
 74
     0
 49
1.0
 74
     0
 49
-1.0
 74
     0
 49
1.0
 74
     0
 49
-1.0
 74
     0
 49
1.0
 74
     0
 49
-1.0
 74
     0
  0
LTYPE
  5
46
330
5
100
AcDbSymbolTableRecord
100
AcDbLinetypeTableRecord
  2
EXLTYPE7
 70
     0
  3
破線3
 72
    65
 73
     2
 40
1.5
 49
1.0
 74
     0
 49
-0.5
 74
     0
  0
LTYPE
  5
47
330
5
100
AcDbSymbolTableRecord
100
AcDbLinetypeTableRecord
  2
EXLTYPE8
 70
     0
  3
一点鎖線7
 72
    65
 73
     4
 40
5.2915312
 49
3.175
 74
     0
 49
-1.0580624
 74
     0
 49
0.3527044
 74
     0
 49
-0.7057644000000001
 74
     0
  0
ENDTAB
  0
TABLE
  2
LAYER
  5
2
330
0
100
AcDbSymbolTable
 70
     5
  0
LAYER
  5
10
330
2
100
AcDbSymbolTableRecord
100
AcDbLayerTableRecord
  2
0
 70
     0
 62
     7
  6
CONTINUOUS
  0
LAYER
  5
4A
330
2
100
AcDbSymbolTableRecord
100
AcDbLayerTableRecord
  2
枠_表
 70
     0
 62
     7
  6
CONTINUOUS
  0
LAYER
  5
4B
330
2
100
AcDbSymbolTableRecord
100
AcDbLayerTableRecord
  2
鏡台
 70
     0
 62
     7
  6
CONTINUOUS
  0
LAYER
  5
4C
330
2
100
AcDbSymbolTableRecord
100
AcDbLayerTableRecord
  2
寸法
 70
     0
 62
     7
  6
CONTINUOUS
  0
LAYER
  5
5B3
330
2
100
AcDbSymbolTableRecord
100
AcDbLayerTableRecord
  2
DEFPOINTS
 70
     0
 62
     7
  6
CONTINUOUS
  0
ENDTAB
  0
TABLE
  2
STYLE
  5
3
330
0
100
AcDbSymbolTable
 70
     5
  0
STYLE
  5
11
330
3
100
AcDbSymbolTableRecord
100
AcDbTextStyleTableRecord
  2
STANDARD
 70
     0
 40
0.0
 41
1.0
 50
0.0
 71
     0
 42
2.5
  3
monotxt
  4
extfont
  0
STYLE
  5
48
330
3
100
AcDbSymbolTableRecord
100
AcDbTextStyleTableRecord
  2
EXCADSTD
 70
     0
 40
0.0
 41
1.0
 50
0.0
 71
     0
 42
0.2
  3
monotxt
  4
extfont
  0
STYLE
  5
49
330
3
100
AcDbSymbolTableRecord
100
AcDbTextStyleTableRecord
  2
EXCADVERT
 70
     4
 40
0.0
 41
1.0
 50
0.0
 71
     0
 42
0.286885
  3
monotxt
  4
extfont
  0
STYLE
  5
10E
330
3
100
AcDbSymbolTableRecord
100
AcDbTextStyleTableRecord
  2
EXCADTTF1
 70
     0
 40
0.0
 41
1.0
 50
0.0
 71
     0
 42
0.2
  3
MSGOTHIC.TTC
  4

1001
ACAD
1000
MS Gothic
1071
    32817
  0
STYLE
  5
5B1
330
3
100
AcDbSymbolTableRecord
100
AcDbTextStyleTableRecord
  2
EXCADDIM1
 70
     0
 40
0.0
 41
0.84
 50
0.0
 71
     0
 42
0.2
  3
monotxt
  4
extfont
  0
ENDTAB
  0
TABLE
  2
VIEW
  5
6
330
0
100
AcDbSymbolTable
 70
     0
  0
ENDTAB
  0
TABLE
  2
UCS
  5
7
330
0
100
AcDbSymbolTable
 70
     0
  0
ENDTAB
  0
TABLE
  2
APPID
  5
9
330
0
100
AcDbSymbolTable
 70
     1
  0
APPID
  5
12
330
9
100
AcDbSymbolTableRecord
100
AcDbRegAppTableRecord
  2
ACAD
 70
     0
  0
ENDTAB
  0
TABLE
  2
DIMSTYLE
  5
A
330
0
100
AcDbSymbolTable
 70
     1
  0
DIMSTYLE
105
27
102
{ACAD_REACTORS
330
5B2
330
5C2
330
5CF
330
5DC
330
5EB
330
5FA
330
609
330
616
330
623
330
632
330
63F
330
64C
102
}
330
A
100
AcDbSymbolTableRecord
100
AcDbDimStyleTableRecord
  2
ISO-25
 70
     0
  3

  4

  5

  6

  7

 40
1.0
 41
2.5
 42
0.625
 43
3.75
 44
1.25
 45
0.0
 46
0.0
 47
0.0
 48
0.0
140
2.5
141
2.5
142
0.0
143
0.03937007874016
144
1.0
145
0.0
146
1.0
147
0.625
 71
     0
 72
     0
 73
     0
 74
     0
 75
     0
 76
     0
 77
     1
 78
     8
170
     0
171
     3
172
     1
173
     0
174
     0
175
     0
176
     0
177
     0
178
     0
270
     2
271
     2
272
     2
273
     2
274
     3
340
11
275
     0
280
     0
281
     0
282
     0
283
     0
284
     8
285
     0
286
     0
287
     5
288
     0
  0
ENDTAB
  0
TABLE
  2
BLOCK_RECORD
  5
1
330
0
100
AcDbSymbolTable
 70
    27
  0
BLOCK_RECORD
  5
1F
330
1
100
AcDbSymbolTableRecord
100
AcDbBlockTableRecord
  2
*MODEL_SPACE
  0
BLOCK_RECORD
  5
1B
330
1
100
AcDbSymbolTableRecord
100
AcDbBlockTableRecord
  2
*PAPER_SPACE
  0
BLOCK_RECORD
  5
4D
330
1
100
AcDbSymbolTableRecord
100
AcDbBlockTableRecord
  2
EX_NORM
  0
BLOCK_RECORD
  5
50
330
1
100
AcDbSymbolTableRecord
100
AcDbBlockTableRecord
  2
EX_BNORM
  0
BLOCK_RECORD
  5
53
330
1
100
AcDbSymbolTableRecord
100
AcDbBlockTableRecord
  2
EX_BCIR
  0
BLOCK_RECORD
  5
56
330
1
100
AcDbSymbolTableRecord
100
AcDbBlockTableRecord
  2
EX_RCIVIL
  0
BLOCK_RECORD
  5
59
330
1
100
AcDbSymbolTableRecord
100
AcDbBlockTableRecord
  2
EX_SLANT
  0
BLOCK_RECORD
  5
5C
330
1
100
AcDbSymbolTableRecord
100
AcDbBlockTableRecord
  2
EX_NONE
  0
BLOCK_RECORD
  5
5F
330
1
100
AcDbSymbolTableRecord
100
AcDbBlockTableRecord
  2
EX_CIVIL
  0
BLOCK_RECORD
  5
62
330
1
100
AcDbSymbolTableRecord
100
AcDbBlockTableRecord
  2
EX_WCIR
  0
BLOCK_RECORD
  5
65
330
1
100
AcDbSymbolTableRecord
100
AcDbBlockTableRecord
  2
EX_WCIR2
  0
BLOCK_RECORD
  5
68
330
1
100
AcDbSymbolTableRecord
100
AcDbBlockTableRecord
  2
EX_WNORM
  0
BLOCK_RECORD
  5
6B
330
1
100
AcDbSymbolTableRecord
100
AcDbBlockTableRecord
  2
EX_NNORM
  0
BLOCK_RECORD
  5
6E
330
1
100
AcDbSymbolTableRecord
100
AcDbBlockTableRecord
  2
EX_BBOX
  0
BLOCK_RECORD
  5
71
330
1
100
AcDbSymbolTableRecord
100
AcDbBlockTableRecord
  2
EX_WBOX
  0
BLOCK_RECORD
  5
74
330
1
100
AcDbSymbolTableRecord
100
AcDbBlockTableRecord
  2
EX_INTEGRAL
  0
BLOCK_RECORD
  5
5B4
330
1
100
AcDbSymbolTableRecord
100
AcDbBlockTableRecord
  2
*D15
  0
BLOCK_RECORD
  5
5C3
330
1
100
AcDbSymbolTableRecord
100
AcDbBlockTableRecord
  2
*D16
  0
BLOCK_RECORD
  5
5D0
330
1
100
AcDbSymbolTableRecord
100
AcDbBlockTableRecord
  2
*D17
  0
BLOCK_RECORD
  5
5DD
330
1
100
AcDbSymbolTableRecord
100
AcDbBlockTableRecord
  2
*D18
  0
BLOCK_RECORD
  5
5EC
330
1
100
AcDbSymbolTableRecord
100
AcDbBlockTableRecord
  2
*D19
  0
BLOCK_RECORD
  5
5FB
330
1
100
AcDbSymbolTableRecord
100
AcDbBlockTableRecord
  2
*D20
  0
BLOCK_RECORD
  5
60A
330
1
100
AcDbSymbolTableRecord
100
AcDbBlockTableRecord
  2
*D21
  0
BLOCK_RECORD
  5
617
330
1
100
AcDbSymbolTableRecord
100
AcDbBlockTableRecord
  2
*D22
  0
BLOCK_RECORD
  5
624
330
1
100
AcDbSymbolTableRecord
100
AcDbBlockTableRecord
  2
*D23
  0
BLOCK_RECORD
  5
633
330
1
100
AcDbSymbolTableRecord
100
AcDbBlockTableRecord
  2
*D24
  0
BLOCK_RECORD
  5
640
330
1
100
AcDbSymbolTableRecord
100
AcDbBlockTableRecord
  2
*D25
  0
BLOCK_RECORD
  5
64D
330
1
100
AcDbSymbolTableRecord
100
AcDbBlockTableRecord
  2
*D26
  0
ENDTAB
  0
ENDSEC
  0
SECTION
  2
BLOCKS
  0
BLOCK
  5
20
330
1F
100
AcDbEntity
  8
0
100
AcDbBlockBegin
  2
*MODEL_SPACE
 70
     0
 10
0.0
 20
0.0
 30
0.0
  3
*MODEL_SPACE
  1

  0
ENDBLK
  5
21
330
1F
100
AcDbEntity
  8
0
100
AcDbBlockEnd
  0
BLOCK
  5
1C
330
1B
100
AcDbEntity
 67
     1
  8
0
100
AcDbBlockBegin
  2
*PAPER_SPACE
 70
     0
 10
0.0
 20
0.0
 30
0.0
  3
*PAPER_SPACE
  1

  0
ENDBLK
  5
1D
330
1B
100
AcDbEntity
 67
     1
  8
0
100
AcDbBlockEnd
  0
BLOCK
  5
4E
330
4D
100
AcDbEntity
  8
0
100
AcDbBlockBegin
  2
EX_NORM
 70
     0
 10
0.0
 20
0.0
 30
0.0
  3
EX_NORM
  1

  0
LINE
  5
77
330
4D
100
AcDbEntity
  8
0
  6
CONTINUOUS
 62
     0
100
AcDbLine
 10
0.0
 20
0.0
 30
0.0
 11
-1.0
 21
0.0
 31
0.0
  0
LINE
  5
78
330
4D
100
AcDbEntity
  8
0
  6
CONTINUOUS
 62
     0
100
AcDbLine
 10
0.0
 20
0.0
 30
0.0
 11
-1.0
 21
0.166666667
 31
0.0
  0
LINE
  5
79
330
4D
100
AcDbEntity
  8
0
  6
CONTINUOUS
 62
     0
100
AcDbLine
 10
0.0
 20
0.0
 30
0.0
 11
-1.0
 21
-0.166666667
 31
0.0
  0
ENDBLK
  5
4F
330
4D
100
AcDbEntity
  8
0
100
AcDbBlockEnd
  0
BLOCK
  5
51
330
50
100
AcDbEntity
  8
0
100
AcDbBlockBegin
  2
EX_BNORM
 70
     0
 10
0.0
 20
0.0
 30
0.0
  3
EX_BNORM
  1

  0
LINE
  5
7A
330
50
100
AcDbEntity
  8
0
  6
CONTINUOUS
 62
     0
100
AcDbLine
 10
0.0
 20
0.0
 30
0.0
 11
-1.0
 21
0.0
 31
0.0
  0
LINE
  5
7B
330
50
100
AcDbEntity
  8
0
  6
CONTINUOUS
 62
     0
100
AcDbLine
 10
0.0
 20
0.0
 30
0.0
 11
-1.0
 21
0.166666667
 31
0.0
  0
LINE
  5
7C
330
50
100
AcDbEntity
  8
0
  6
CONTINUOUS
 62
     0
100
AcDbLine
 10
0.0
 20
0.0
 30
0.0
 11
-1.0
 21
-0.166666667
 31
0.0
  0
LINE
  5
7D
330
50
100
AcDbEntity
  8
0
  6
CONTINUOUS
 62
     0
100
AcDbLine
 10
0.0
 20
0.0
 30
0.0
 11
-1.0
 21
0.083333333
 31
0.0
  0
LINE
  5
7E
330
50
100
AcDbEntity
  8
0
  6
CONTINUOUS
 62
     0
100
AcDbLine
 10
0.0
 20
0.0
 30
0.0
 11
-1.0
 21
-0.083333333
 31
0.0
  0
LINE
  5
7F
330
50
100
AcDbEntity
  8
0
  6
CONTINUOUS
 62
     0
100
AcDbLine
 10
-1.0
 20
0.166666667
 30
0.0
 11
-1.0
 21
-0.166666667
 31
0.0
  0
ENDBLK
  5
52
330
50
100
AcDbEntity
  8
0
100
AcDbBlockEnd
  0
BLOCK
  5
54
330
53
100
AcDbEntity
  8
0
100
AcDbBlockBegin
  2
EX_BCIR
 70
     0
 10
0.0
 20
0.0
 30
0.0
  3
EX_BCIR
  1

  0
LINE
  5
80
330
53
100
AcDbEntity
  8
0
  6
CONTINUOUS
 62
     0
100
AcDbLine
 10
0.0
 20
0.0
 30
0.0
 11
-1.0
 21
0.0
 31
0.0
  0
CIRCLE
  5
81
330
53
100
AcDbEntity
  8
0
  6
CONTINUOUS
 62
     0
100
AcDbCircle
 10
0.0
 20
0.0
 30
0.0
 40
0.5
  0
CIRCLE
  5
82
330
53
100
AcDbEntity
  8
0
  6
CONTINUOUS
 62
     0
100
AcDbCircle
 10
0.0
 20
0.0
 30
0.0
 40
0.25
  0
ENDBLK
  5
55
330
53
100
AcDbEntity
  8
0
100
AcDbBlockEnd
  0
BLOCK
  5
57
330
56
100
AcDbEntity
  8
0
100
AcDbBlockBegin
  2
EX_RCIVIL
 70
     0
 10
0.0
 20
0.0
 30
0.0
  3
EX_RCIVIL
  1

  0
LINE
  5
83
330
56
100
AcDbEntity
  8
0
  6
CONTINUOUS
 62
     0
100
AcDbLine
 10
0.0
 20
0.0
 30
0.0
 11
-1.0
 21
0.0
 31
0.0
  0
LINE
  5
84
330
56
100
AcDbEntity
  8
0
  6
CONTINUOUS
 62
     0
100
AcDbLine
 10
-1.0
 20
-0.25
 30
0.0
 11
0.0
 21
-0.25
 31
0.0
  0
LINE
  5
85
330
56
100
AcDbEntity
  8
0
  6
CONTINUOUS
 62
     0
100
AcDbLine
 10
-1.0
 20
-0.125
 30
0.0
 11
0.0
 21
-0.125
 31
0.0
  0
ENDBLK
  5
58
330
56
100
AcDbEntity
  8
0
100
AcDbBlockEnd
  0
BLOCK
  5
5A
330
59
100
AcDbEntity
  8
0
100
AcDbBlockBegin
  2
EX_SLANT
 70
     0
 10
0.0
 20
0.0
 30
0.0
  3
EX_SLANT
  1

  0
LINE
  5
86
330
59
100
AcDbEntity
  8
0
  6
CONTINUOUS
 62
     0
100
AcDbLine
 10
0.0
 20
0.0
 30
0.0
 11
-1.0
 21
0.0
 31
0.0
  0
LINE
  5
87
330
59
100
AcDbEntity
  8
0
  6
CONTINUOUS
 62
     0
100
AcDbLine
 10
0.707106781
 20
0.707106781
 30
0.0
 11
-0.707106781
 21
-0.707106781
 31
0.0
  0
ENDBLK
  5
5B
330
59
100
AcDbEntity
  8
0
100
AcDbBlockEnd
  0
BLOCK
  5
5D
330
5C
100
AcDbEntity
  8
0
100
AcDbBlockBegin
  2
EX_NONE
 70
     0
 10
0.0
 20
0.0
 30
0.0
  3
EX_NONE
  1

  0
LINE
  5
88
330
5C
100
AcDbEntity
  8
0
  6
CONTINUOUS
 62
     0
100
AcDbLine
 10
0.0
 20
0.0
 30
0.0
 11
-1.0
 21
0.0
 31
0.0
  0
ENDBLK
  5
5E
330
5C
100
AcDbEntity
  8
0
100
AcDbBlockEnd
  0
BLOCK
  5
60
330
5F
100
AcDbEntity
  8
0
100
AcDbBlockBegin
  2
EX_CIVIL
 70
     0
 10
0.0
 20
0.0
 30
0.0
  3
EX_CIVIL
  1

  0
LINE
  5
89
330
5F
100
AcDbEntity
  8
0
  6
CONTINUOUS
 62
     0
100
AcDbLine
 10
0.0
 20
0.0
 30
0.0
 11
-1.0
 21
0.0
 31
0.0
  0
LINE
  5
8A
330
5F
100
AcDbEntity
  8
0
  6
CONTINUOUS
 62
     0
100
AcDbLine
 10
-1.0
 20
0.25
 30
0.0
 11
0.0
 21
0.25
 31
0.0
  0
LINE
  5
8B
330
5F
100
AcDbEntity
  8
0
  6
CONTINUOUS
 62
     0
100
AcDbLine
 10
-1.0
 20
0.125
 30
0.0
 11
0.0
 21
0.125
 31
0.0
  0
ENDBLK
  5
61
330
5F
100
AcDbEntity
  8
0
100
AcDbBlockEnd
  0
BLOCK
  5
63
330
62
100
AcDbEntity
  8
0
100
AcDbBlockBegin
  2
EX_WCIR
 70
     0
 10
0.0
 20
0.0
 30
0.0
  3
EX_WCIR
  1

  0
LINE
  5
8C
330
62
100
AcDbEntity
  8
0
  6
CONTINUOUS
 62
     0
100
AcDbLine
 10
0.0
 20
0.0
 30
0.0
 11
-1.0
 21
0.0
 31
0.0
  0
CIRCLE
  5
8D
330
62
100
AcDbEntity
  8
0
  6
CONTINUOUS
 62
     0
100
AcDbCircle
 10
0.0
 20
0.0
 30
0.0
 40
0.5
  0
ENDBLK
  5
64
330
62
100
AcDbEntity
  8
0
100
AcDbBlockEnd
  0
BLOCK
  5
66
330
65
100
AcDbEntity
  8
0
100
AcDbBlockBegin
  2
EX_WCIR2
 70
     0
 10
0.0
 20
0.0
 30
0.0
  3
EX_WCIR2
  1

  0
LINE
  5
8E
330
65
100
AcDbEntity
  8
0
  6
CONTINUOUS
 62
     0
100
AcDbLine
 10
-0.5
 20
0.0
 30
0.0
 11
-1.0
 21
0.0
 31
0.0
  0
CIRCLE
  5
8F
330
65
100
AcDbEntity
  8
0
  6
CONTINUOUS
 62
     0
100
AcDbCircle
 10
0.0
 20
0.0
 30
0.0
 40
0.5
  0
ENDBLK
  5
67
330
65
100
AcDbEntity
  8
0
100
AcDbBlockEnd
  0
BLOCK
  5
69
330
68
100
AcDbEntity
  8
0
100
AcDbBlockBegin
  2
EX_WNORM
 70
     0
 10
0.0
 20
0.0
 30
0.0
  3
EX_WNORM
  1

  0
LINE
  5
90
330
68
100
AcDbEntity
  8
0
  6
CONTINUOUS
 62
     0
100
AcDbLine
 10
-1.0
 20
0.0
 30
0.0
 11
-1.0
 21
0.0
 31
0.0
  0
LINE
  5
91
330
68
100
AcDbEntity
  8
0
  6
CONTINUOUS
 62
     0
100
AcDbLine
 10
0.0
 20
0.0
 30
0.0
 11
-1.0
 21
0.166666667
 31
0.0
  0
LINE
  5
92
330
68
100
AcDbEntity
  8
0
  6
CONTINUOUS
 62
     0
100
AcDbLine
 10
0.0
 20
0.0
 30
0.0
 11
-1.0
 21
-0.166666667
 31
0.0
  0
LINE
  5
93
330
68
100
AcDbEntity
  8
0
  6
CONTINUOUS
 62
     0
100
AcDbLine
 10
-1.0
 20
0.166666667
 30
0.0
 11
-1.0
 21
-0.166666667
 31
0.0
  0
ENDBLK
  5
6A
330
68
100
AcDbEntity
  8
0
100
AcDbBlockEnd
  0
BLOCK
  5
6C
330
6B
100
AcDbEntity
  8
0
100
AcDbBlockBegin
  2
EX_NNORM
 70
     0
 10
0.0
 20
0.0
 30
0.0
  3
EX_NNORM
  1

  0
LINE
  5
94
330
6B
100
AcDbEntity
  8
0
  6
CONTINUOUS
 62
     0
100
AcDbLine
 10
0.0
 20
0.0
 30
0.0
 11
-1.0
 21
0.0
 31
0.0
  0
LINE
  5
95
330
6B
100
AcDbEntity
  8
0
  6
CONTINUOUS
 62
     0
100
AcDbLine
 10
0.0
 20
0.0
 30
0.0
 11
-1.0
 21
0.166666667
 31
0.0
  0
LINE
  5
96
330
6B
100
AcDbEntity
  8
0
  6
CONTINUOUS
 62
     0
100
AcDbLine
 10
0.0
 20
0.0
 30
0.0
 11
-1.0
 21
-0.166666667
 31
0.0
  0
LINE
  5
97
330
6B
100
AcDbEntity
  8
0
  6
CONTINUOUS
 62
     0
100
AcDbLine
 10
-1.0
 20
0.166666667
 30
0.0
 11
-1.0
 21
-0.166666667
 31
0.0
  0
ENDBLK
  5
6D
330
6B
100
AcDbEntity
  8
0
100
AcDbBlockEnd
  0
BLOCK
  5
6F
330
6E
100
AcDbEntity
  8
0
100
AcDbBlockBegin
  2
EX_BBOX
 70
     0
 10
0.0
 20
0.0
 30
0.0
  3
EX_BBOX
  1

  0
LINE
  5
98
330
6E
100
AcDbEntity
  8
0
  6
CONTINUOUS
 62
     0
100
AcDbLine
 10
0.0
 20
0.0
 30
0.0
 11
-1.0
 21
0.0
 31
0.0
  0
LINE
  5
99
330
6E
100
AcDbEntity
  8
0
  6
CONTINUOUS
 62
     0
100
AcDbLine
 10
-0.5
 20
0.5
 30
0.0
 11
0.5
 21
0.5
 31
0.0
  0
LINE
  5
9A
330
6E
100
AcDbEntity
  8
0
  6
CONTINUOUS
 62
     0
100
AcDbLine
 10
0.5
 20
0.5
 30
0.0
 11
0.5
 21
-0.5
 31
0.0
  0
LINE
  5
9B
330
6E
100
AcDbEntity
  8
0
  6
CONTINUOUS
 62
     0
100
AcDbLine
 10
0.5
 20
-0.5
 30
0.0
 11
-0.5
 21
-0.5
 31
0.0
  0
LINE
  5
9C
330
6E
100
AcDbEntity
  8
0
  6
CONTINUOUS
 62
     0
100
AcDbLine
 10
-0.5
 20
-0.5
 30
0.0
 11
-0.5
 21
0.5
 31
0.0
  0
LINE
  5
9D
330
6E
100
AcDbEntity
  8
0
  6
CONTINUOUS
 62
     0
100
AcDbLine
 10
-0.25
 20
0.25
 30
0.0
 11
0.25
 21
0.25
 31
0.0
  0
LINE
  5
9E
330
6E
100
AcDbEntity
  8
0
  6
CONTINUOUS
 62
     0
100
AcDbLine
 10
0.25
 20
0.25
 30
0.0
 11
0.25
 21
-0.25
 31
0.0
  0
LINE
  5
9F
330
6E
100
AcDbEntity
  8
0
  6
CONTINUOUS
 62
     0
100
AcDbLine
 10
0.25
 20
-0.25
 30
0.0
 11
-0.25
 21
-0.25
 31
0.0
  0
LINE
  5
A0
330
6E
100
AcDbEntity
  8
0
  6
CONTINUOUS
 62
     0
100
AcDbLine
 10
-0.25
 20
-0.25
 30
0.0
 11
-0.25
 21
0.25
 31
0.0
  0
ENDBLK
  5
70
330
6E
100
AcDbEntity
  8
0
100
AcDbBlockEnd
  0
BLOCK
  5
72
330
71
100
AcDbEntity
  8
0
100
AcDbBlockBegin
  2
EX_WBOX
 70
     0
 10
0.0
 20
0.0
 30
0.0
  3
EX_WBOX
  1

  0
LINE
  5
A1
330
71
100
AcDbEntity
  8
0
  6
CONTINUOUS
 62
     0
100
AcDbLine
 10
-0.5
 20
0.0
 30
0.0
 11
-1.0
 21
0.0
 31
0.0
  0
LINE
  5
A2
330
71
100
AcDbEntity
  8
0
  6
CONTINUOUS
 62
     0
100
AcDbLine
 10
-0.5
 20
0.5
 30
0.0
 11
0.5
 21
0.5
 31
0.0
  0
LINE
  5
A3
330
71
100
AcDbEntity
  8
0
  6
CONTINUOUS
 62
     0
100
AcDbLine
 10
0.5
 20
0.5
 30
0.0
 11
0.5
 21
-0.5
 31
0.0
  0
LINE
  5
A4
330
71
100
AcDbEntity
  8
0
  6
CONTINUOUS
 62
     0
100
AcDbLine
 10
0.5
 20
-0.5
 30
0.0
 11
-0.5
 21
-0.5
 31
0.0
  0
LINE
  5
A5
330
71
100
AcDbEntity
  8
0
  6
CONTINUOUS
 62
     0
100
AcDbLine
 10
-0.5
 20
-0.5
 30
0.0
 11
-0.5
 21
0.5
 31
0.0
  0
ENDBLK
  5
73
330
71
100
AcDbEntity
  8
0
100
AcDbBlockEnd
  0
BLOCK
  5
75
330
74
100
AcDbEntity
  8
0
100
AcDbBlockBegin
  2
EX_INTEGRAL
 70
     0
 10
0.0
 20
0.0
 30
0.0
  3
EX_INTEGRAL
  1

  0
LINE
  5
A6
330
74
100
AcDbEntity
  8
0
  6
CONTINUOUS
 62
     0
100
AcDbLine
 10
0.0
 20
0.0
 30
0.0
 11
-1.0
 21
0.0
 31
0.0
  0
ARC
  5
A7
330
74
100
AcDbEntity
  8
0
  6
CONTINUOUS
 62
     0
100
AcDbCircle
 10
0.542115
 20
0.164992
 30
0.0
 40
0.56667
100
AcDbArc
 50
73.07249033629006
 51
196.9275130221199
  0
ARC
  5
A8
330
74
100
AcDbEntity
  8
0
  6
CONTINUOUS
 62
     0
100
AcDbCircle
 10
-0.542115
 20
-0.164992
 30
0.0
 40
0.56667
100
AcDbArc
 50
253.0724869220464
 51
16.9275130559125
  0
ENDBLK
  5
76
330
74
100
AcDbEntity
  8
0
100
AcDbBlockEnd
  0
BLOCK
  5
5B5
330
5B4
100
AcDbEntity
  8
0
100
AcDbBlockBegin
  2
*D15
 70
     1
 10
0.0
 20
0.0
 30
0.0
  3
*D15
  1

  0
LINE
  5
5B7
330
5B4
100
AcDbEntity
  8
寸法
  6
CONTINUOUS
 62
     3
100
AcDbLine
 10
1130.488971781191
 20
496.0
 30
0.0
 11
1242.0
 21
495.9999999999999
 31
0.0
  0
LINE
  5
5B8
330
5B4
100
AcDbEntity
  8
寸法
  6
CONTINUOUS
 62
     3
100
AcDbLine
 10
1135.488934898191
 20
581.0
 30
0.0
 11
1242.0
 21
581.0
 31
0.0
  0
LINE
  5
5B9
330
5B4
100
AcDbEntity
  8
寸法
  6
CONTINUOUS
 62
     3
100
AcDbLine
 10
1232.0
 20
526.0
 30
0.0
 11
1232.0
 21
551.0
 31
0.0
  0
INSERT
  5
5BA
330
5B4
100
AcDbEntity
  8
寸法
 62
     3
100
AcDbBlockReference
  2
EX_NORM
 10
1232.0
 20
495.9999999999999
 30
0.0
 41
30.0
 42
30.0
 43
30.0
 50
270.0
  0
INSERT
  5
5BB
330
5B4
100
AcDbEntity
  8
寸法
 62
     3
100
AcDbBlockReference
  2
EX_NORM
 10
1232.0
 20
581.0
 30
0.0
 41
30.0
 42
30.0
 43
30.0
 50
90.0
  0
MTEXT
  5
5BC
330
5B4
100
AcDbEntity
  8
寸法
 62
     2
100
AcDbMText
 10
1208.500000059605
 20
645.9999999999997
 30
0.0
 40
40.0
 41
0.0
 71
     5
 72
     1
  1
85
  7
EXCADDIM1
 11
0.0
 21
1.0
 31
0.0
  0
POINT
  5
5BD
330
5B4
100
AcDbEntity
  8
DEFPOINTS
 62
     0
100
AcDbPoint
 10
1123.4889719004
 20
496.0
 30
0.0
  0
POINT
  5
5BE
330
5B4
100
AcDbEntity
  8
DEFPOINTS
 62
     0
100
AcDbPoint
 10
1128.4889350174
 20
581.0
 30
0.0
  0
POINT
  5
5BF
330
5B4
100
AcDbEntity
  8
DEFPOINTS
 62
     0
100
AcDbPoint
 10
1232.0
 20
581.0
 30
0.0
  0
ENDBLK
  5
5B6
330
5B4
100
AcDbEntity
  8
0
100
AcDbBlockEnd
  0
BLOCK
  5
5C4
330
5C3
100
AcDbEntity
  8
0
100
AcDbBlockBegin
  2
*D16
 70
     1
 10
0.0
 20
0.0
 30
0.0
  3
*D16
  1

  0
LINE
  5
5C6
330
5C3
100
AcDbEntity
  8
寸法
  6
CONTINUOUS
 62
     3
100
AcDbLine
 10
1130.488971781191
 20
1546.0
 30
0.0
 11
1304.0
 21
1546.0
 31
0.0
  0
LINE
  5
5C7
330
5C3
100
AcDbEntity
  8
寸法
  6
CONTINUOUS
 62
     3
100
AcDbLine
 10
1130.488971781191
 20
496.0
 30
0.0
 11
1304.0
 21
496.0
 31
0.0
  0
LINE
  5
5C8
330
5C3
100
AcDbEntity
  8
寸法
  6
CONTINUOUS
 62
     3
100
AcDbLine
 10
1294.0
 20
1516.0
 30
0.0
 11
1294.0
 21
526.0
 31
0.0
  0
INSERT
  5
5C9
330
5C3
100
AcDbEntity
  8
寸法
 62
     3
100
AcDbBlockReference
  2
EX_NORM
 10
1294.0
 20
1546.0
 30
0.0
 41
30.0
 42
30.0
 43
30.0
 50
90.0
  0
INSERT
  5
5CA
330
5C3
100
AcDbEntity
  8
寸法
 62
     3
100
AcDbBlockReference
  2
EX_NORM
 10
1294.0
 20
496.0
 30
0.0
 41
30.0
 42
30.0
 43
30.0
 50
270.0
  0
MTEXT
  5
5CB
330
5C3
100
AcDbEntity
  8
寸法
 62
     2
100
AcDbMText
 10
1270.500000059605
 20
1021.0
 30
0.0
 40
40.0
 41
0.0
 71
     5
 72
     1
  1
1050
  7
EXCADDIM1
 11
0.0
 21
1.0
 31
0.0
  0
POINT
  5
5CC
330
5C3
100
AcDbEntity
  8
DEFPOINTS
 62
     0
100
AcDbPoint
 10
1123.4889719004
 20
1546.0
 30
0.0
  0
POINT
  5
5CD
330
5C3
100
AcDbEntity
  8
DEFPOINTS
 62
     0
100
AcDbPoint
 10
1123.4889719004
 20
496.0
 30
0.0
  0
POINT
  5
5CE
330
5C3
100
AcDbEntity
  8
DEFPOINTS
 62
     0
100
AcDbPoint
 10
1294.0
 20
496.0
 30
0.0
  0
ENDBLK
  5
5C5
330
5C3
100
AcDbEntity
  8
0
100
AcDbBlockEnd
  0
BLOCK
  5
5D1
330
5D0
100
AcDbEntity
  8
0
100
AcDbBlockBegin
  2
*D17
 70
     1
 10
0.0
 20
0.0
 30
0.0
  3
*D17
  1

  0
LINE
  5
5D3
330
5D0
100
AcDbEntity
  8
寸法
  6
CONTINUOUS
 62
     3
100
AcDbLine
 10
1595.5
 20
779.9999998808007
 30
0.0
 11
1595.5
 21
822.0
 31
0.0
  0
LINE
  5
5D4
330
5D0
100
AcDbEntity
  8
寸法
  6
CONTINUOUS
 62
     3
100
AcDbLine
 10
1700.5
 20
779.9999998807908
 30
0.0
 11
1700.5
 21
822.0
 31
0.0
  0
LINE
  5
5D5
330
5D0
100
AcDbEntity
  8
寸法
  6
CONTINUOUS
 62
     3
100
AcDbLine
 10
1625.5
 20
812.0
 30
0.0
 11
1670.5
 21
812.0
 31
0.0
  0
INSERT
  5
5D6
330
5D0
100
AcDbEntity
  8
寸法
 62
     3
100
AcDbBlockReference
  2
EX_NORM
 10
1595.5
 20
812.0
 30
0.0
 41
30.0
 42
30.0
 43
30.0
 50
180.0
  0
INSERT
  5
5D7
330
5D0
100
AcDbEntity
  8
寸法
 62
     3
100
AcDbBlockReference
  2
EX_NORM
 10
1700.5
 20
812.0
 30
0.0
 41
30.0
 42
30.0
 43
30.0
  0
MTEXT
  5
5D8
330
5D0
100
AcDbEntity
  8
寸法
 62
     2
100
AcDbMText
 10
1515.5
 20
835.4999999403954
 30
0.0
 40
40.0
 41
0.0
 71
     5
 72
     1
  1
105
  7
EXCADDIM1
  0
POINT
  5
5D9
330
5D0
100
AcDbEntity
  8
DEFPOINTS
 62
     0
100
AcDbPoint
 10
1595.5
 20
773.00000000001
 30
0.0
  0
POINT
  5
5DA
330
5D0
100
AcDbEntity
  8
DEFPOINTS
 62
     0
100
AcDbPoint
 10
1700.5
 20
773.0000000000001
 30
0.0
  0
POINT
  5
5DB
330
5D0
100
AcDbEntity
  8
DEFPOINTS
 62
     0
100
AcDbPoint
 10
1700.5
 20
812.0
 30
0.0
  0
ENDBLK
  5
5D2
330
5D0
100
AcDbEntity
  8
0
100
AcDbBlockEnd
  0
BLOCK
  5
5DE
330
5DD
100
AcDbEntity
  8
0
100
AcDbBlockBegin
  2
*D18
 70
     1
 10
0.0
 20
0.0
 30
0.0
  3
*D18
  1

  0
LINE
  5
5E0
330
5DD
100
AcDbEntity
  8
寸法
  6
CONTINUOUS
 62
     3
100
AcDbLine
 10
1700.5
 20
489.0000001192093
 30
0.0
 11
1700.5
 21
425.0
 31
0.0
  0
LINE
  5
5E1
330
5DD
100
AcDbEntity
  8
寸法
  6
CONTINUOUS
 62
     3
100
AcDbLine
 10
1680.5
 20
510.0000001192093
 30
0.0
 11
1680.5
 21
425.0
 31
0.0
  0
LINE
  5
5E2
330
5DD
100
AcDbEntity
  8
寸法
  6
CONTINUOUS
 62
     3
100
AcDbLine
 10
1700.5
 20
435.0
 30
0.0
 11
1680.5
 21
435.0
 31
0.0
  0
LINE
  5
5E3
330
5DD
100
AcDbEntity
  8
寸法
  6
CONTINUOUS
 62
     3
100
AcDbLine
 10
1730.5
 20
435.0
 30
0.0
 11
1760.5
 21
435.0
 31
0.0
  0
LINE
  5
5E4
330
5DD
100
AcDbEntity
  8
寸法
  6
CONTINUOUS
 62
     3
100
AcDbLine
 10
1650.5
 20
435.0
 30
0.0
 11
1620.5
 21
435.0
 31
0.0
  0
INSERT
  5
5E5
330
5DD
100
AcDbEntity
  8
寸法
 62
     3
100
AcDbBlockReference
  2
EX_NORM
 10
1700.5
 20
435.0
 30
0.0
 41
30.0
 42
30.0
 43
30.0
 50
180.0
  0
INSERT
  5
5E6
330
5DD
100
AcDbEntity
  8
寸法
 62
     3
100
AcDbBlockReference
  2
EX_NORM
 10
1680.5
 20
435.0
 30
0.0
 41
30.0
 42
30.0
 43
30.0
  0
MTEXT
  5
5E7
330
5DD
100
AcDbEntity
  8
寸法
 62
     2
100
AcDbMText
 10
1615.5
 20
458.4999999403949
 30
0.0
 40
40.0
 41
0.0
 71
     5
 72
     1
  1
20
  7
EXCADDIM1
  0
POINT
  5
5E8
330
5DD
100
AcDbEntity
  8
DEFPOINTS
 62
     0
100
AcDbPoint
 10
1700.5
 20
496.0
 30
0.0
  0
POINT
  5
5E9
330
5DD
100
AcDbEntity
  8
DEFPOINTS
 62
     0
100
AcDbPoint
 10
1680.5
 20
517.0
 30
0.0
  0
POINT
  5
5EA
330
5DD
100
AcDbEntity
  8
DEFPOINTS
 62
     0
100
AcDbPoint
 10
1680.5
 20
435.0
 30
0.0
  0
ENDBLK
  5
5DF
330
5DD
100
AcDbEntity
  8
0
100
AcDbBlockEnd
  0
BLOCK
  5
5ED
330
5EC
100
AcDbEntity
  8
0
100
AcDbBlockBegin
  2
*D19
 70
     1
 10
0.0
 20
0.0
 30
0.0
  3
*D19
  1

  0
LINE
  5
5EF
330
5EC
100
AcDbEntity
  8
寸法
  6
CONTINUOUS
 62
     3
100
AcDbLine
 10
1707.499999880791
 20
496.0
 30
0.0
 11
1820.0
 21
496.0
 31
0.0
  0
LINE
  5
5F0
330
5EC
100
AcDbEntity
  8
寸法
  6
CONTINUOUS
 62
     3
100
AcDbLine
 10
1754.999999880791
 20
521.0
 30
0.0
 11
1820.0
 21
521.0
 31
0.0
  0
LINE
  5
5F1
330
5EC
100
AcDbEntity
  8
寸法
  6
CONTINUOUS
 62
     3
100
AcDbLine
 10
1810.0
 20
496.0
 30
0.0
 11
1810.0
 21
521.0
 31
0.0
  0
LINE
  5
5F2
330
5EC
100
AcDbEntity
  8
寸法
  6
CONTINUOUS
 62
     3
100
AcDbLine
 10
1810.0
 20
466.0
 30
0.0
 11
1810.0
 21
436.0
 31
0.0
  0
LINE
  5
5F3
330
5EC
100
AcDbEntity
  8
寸法
  6
CONTINUOUS
 62
     3
100
AcDbLine
 10
1810.0
 20
551.0
 30
0.0
 11
1810.0
 21
581.0
 31
0.0
  0
INSERT
  5
5F4
330
5EC
100
AcDbEntity
  8
寸法
 62
     3
100
AcDbBlockReference
  2
EX_NORM
 10
1810.0
 20
496.0
 30
0.0
 41
30.0
 42
30.0
 43
30.0
 50
90.0
  0
INSERT
  5
5F5
330
5EC
100
AcDbEntity
  8
寸法
 62
     3
100
AcDbBlockReference
  2
EX_NORM
 10
1810.0
 20
521.0
 30
0.0
 41
30.0
 42
30.0
 43
30.0
 50
270.0
  0
MTEXT
  5
5F6
330
5EC
100
AcDbEntity
  8
寸法
 62
     2
100
AcDbMText
 10
1786.500000059605
 20
430.9999999999995
 30
0.0
 40
40.0
 41
0.0
 71
     5
 72
     1
  1
25
  7
EXCADDIM1
 11
0.0
 21
1.0
 31
0.0
  0
POINT
  5
5F7
330
5EC
100
AcDbEntity
  8
DEFPOINTS
 62
     0
100
AcDbPoint
 10
1700.5
 20
496.0
 30
0.0
  0
POINT
  5
5F8
330
5EC
100
AcDbEntity
  8
DEFPOINTS
 62
     0
100
AcDbPoint
 10
1748.0
 20
521.0
 30
0.0
  0
POINT
  5
5F9
330
5EC
100
AcDbEntity
  8
DEFPOINTS
 62
     0
100
AcDbPoint
 10
1810.0
 20
521.0
 30
0.0
  0
ENDBLK
  5
5EE
330
5EC
100
AcDbEntity
  8
0
100
AcDbBlockEnd
  0
BLOCK
  5
5FC
330
5FB
100
AcDbEntity
  8
0
100
AcDbBlockBegin
  2
*D20
 70
     1
 10
0.0
 20
0.0
 30
0.0
  3
*D20
  1

  0
LINE
  5
5FE
330
5FB
100
AcDbEntity
  8
寸法
  6
CONTINUOUS
 62
     3
100
AcDbLine
 10
1739.999999880791
 20
1491.0
 30
0.0
 11
1820.0
 21
1491.0
 31
0.0
  0
LINE
  5
5FF
330
5FB
100
AcDbEntity
  8
寸法
  6
CONTINUOUS
 62
     3
100
AcDbLine
 10
1739.999999880791
 20
521.0
 30
0.0
 11
1820.0
 21
521.0
 31
0.0
  0
LINE
  5
600
330
5FB
100
AcDbEntity
  8
寸法
  6
CONTINUOUS
 62
     3
100
AcDbLine
 10
1810.0
 20
1461.0
 30
0.0
 11
1810.0
 21
551.0
 31
0.0
  0
INSERT
  5
601
330
5FB
100
AcDbEntity
  8
寸法
 62
     3
100
AcDbBlockReference
  2
EX_NORM
 10
1810.0
 20
1491.0
 30
0.0
 41
30.0
 42
30.0
 43
30.0
 50
90.0
  0
INSERT
  5
602
330
5FB
100
AcDbEntity
  8
寸法
 62
     3
100
AcDbBlockReference
  2
EX_NORM
 10
1810.0
 20
521.0
 30
0.0
 41
30.0
 42
30.0
 43
30.0
 50
270.0
  0
MTEXT
  5
603
330
5FB
100
AcDbEntity
  8
寸法
 62
     2
100
AcDbMText
 10
1786.500000059605
 20
1006.0
 30
0.0
 40
40.0
 41
0.0
 71
     5
 72
     1
  1
970
  7
EXCADDIM1
 11
0.0
 21
1.0
 31
0.0
  0
POINT
  5
604
330
5FB
100
AcDbEntity
  8
DEFPOINTS
 62
     0
100
AcDbPoint
 10
1733.0
 20
1491.0
 30
0.0
  0
POINT
  5
605
330
5FB
100
AcDbEntity
  8
DEFPOINTS
 62
     0
100
AcDbPoint
 10
1733.0
 20
521.0
 30
0.0
  0
POINT
  5
606
330
5FB
100
AcDbEntity
  8
DEFPOINTS
 62
     0
100
AcDbPoint
 10
1810.0
 20
521.0
 30
0.0
  0
ENDBLK
  5
5FD
330
5FB
100
AcDbEntity
  8
0
100
AcDbBlockEnd
  0
BLOCK
  5
60B
330
60A
100
AcDbEntity
  8
0
100
AcDbBlockBegin
  2
*D21
 70
     1
 10
0.0
 20
0.0
 30
0.0
  3
*D21
  1

  0
LINE
  5
60D
330
60A
100
AcDbEntity
  8
寸法
  6
CONTINUOUS
 62
     3
100
AcDbLine
 10
1540.5
 20
1525.103198998991
 30
0.0
 11
1540.5
 21
1627.0
 31
0.0
  0
LINE
  5
60E
330
60A
100
AcDbEntity
  8
寸法
  6
CONTINUOUS
 62
     3
100
AcDbLine
 10
1700.5
 20
1552.999999880791
 30
0.0
 11
1700.5
 21
1627.0
 31
0.0
  0
LINE
  5
60F
330
60A
100
AcDbEntity
  8
寸法
  6
CONTINUOUS
 62
     3
100
AcDbLine
 10
1570.5
 20
1617.0
 30
0.0
 11
1670.5
 21
1617.0
 31
0.0
  0
INSERT
  5
610
330
60A
100
AcDbEntity
  8
寸法
 62
     3
100
AcDbBlockReference
  2
EX_NORM
 10
1540.5
 20
1617.0
 30
0.0
 41
30.0
 42
30.0
 43
30.0
 50
180.0
  0
INSERT
  5
611
330
60A
100
AcDbEntity
  8
寸法
 62
     3
100
AcDbBlockReference
  2
EX_NORM
 10
1700.5
 20
1617.0
 30
0.0
 41
30.0
 42
30.0
 43
30.0
  0
MTEXT
  5
612
330
60A
100
AcDbEntity
  8
寸法
 62
     2
100
AcDbMText
 10
1620.5
 20
1640.499999940395
 30
0.0
 40
40.0
 41
0.0
 71
     5
 72
     1
  1
160
  7
EXCADDIM1
  0
POINT
  5
613
330
60A
100
AcDbEntity
  8
DEFPOINTS
 62
     0
100
AcDbPoint
 10
1540.5
 20
1518.1031991182
 30
0.0
  0
POINT
  5
614
330
60A
100
AcDbEntity
  8
DEFPOINTS
 62
     0
100
AcDbPoint
 10
1700.5
 20
1546.0
 30
0.0
  0
POINT
  5
615
330
60A
100
AcDbEntity
  8
DEFPOINTS
 62
     0
100
AcDbPoint
 10
1700.5
 20
1617.0
 30
0.0
  0
ENDBLK
  5
60C
330
60A
100
AcDbEntity
  8
0
100
AcDbBlockEnd
  0
BLOCK
  5
618
330
617
100
AcDbEntity
  8
0
100
AcDbBlockBegin
  2
*D22
 70
     1
 10
0.0
 20
0.0
 30
0.0
  3
*D22
  1

  0
LINE
  5
61A
330
617
100
AcDbEntity
  8
寸法
  6
CONTINUOUS
 62
     3
100
AcDbLine
 10
378.50000000002
 20
1547.999999880791
 30
0.0
 11
378.50000000002
 21
1632.0
 31
0.0
  0
LINE
  5
61B
330
617
100
AcDbEntity
  8
寸法
  6
CONTINUOUS
 62
     3
100
AcDbLine
 10
1128.4889350174
 20
1547.999999880791
 30
0.0
 11
1128.4889350174
 21
1632.0
 31
0.0
  0
LINE
  5
61C
330
617
100
AcDbEntity
  8
寸法
  6
CONTINUOUS
 62
     3
100
AcDbLine
 10
408.50000000002
 20
1622.0
 30
0.0
 11
1098.4889350174
 21
1622.0
 31
0.0
  0
INSERT
  5
61D
330
617
100
AcDbEntity
  8
寸法
 62
     3
100
AcDbBlockReference
  2
EX_NORM
 10
378.50000000002
 20
1622.0
 30
0.0
 41
30.0
 42
30.0
 43
30.0
 50
180.0
  0
INSERT
  5
61E
330
617
100
AcDbEntity
  8
寸法
 62
     3
100
AcDbBlockReference
  2
EX_NORM
 10
1128.4889350174
 20
1622.0
 30
0.0
 41
30.0
 42
30.0
 43
30.0
  0
MTEXT
  5
61F
330
617
100
AcDbEntity
  8
寸法
 62
     2
100
AcDbMText
 10
753.4944675087102
 20
1645.499999940395
 30
0.0
 40
40.0
 41
0.0
 71
     5
 72
     1
  1
750
  7
EXCADDIM1
  0
POINT
  5
620
330
617
100
AcDbEntity
  8
DEFPOINTS
 62
     0
100
AcDbPoint
 10
378.50000000002
 20
1541.0
 30
0.0
  0
POINT
  5
621
330
617
100
AcDbEntity
  8
DEFPOINTS
 62
     0
100
AcDbPoint
 10
1128.4889350174
 20
1541.0
 30
0.0
  0
POINT
  5
622
330
617
100
AcDbEntity
  8
DEFPOINTS
 62
     0
100
AcDbPoint
 10
1128.4889350174
 20
1622.0
 30
0.0
  0
ENDBLK
  5
619
330
617
100
AcDbEntity
  8
0
100
AcDbBlockEnd
  0
BLOCK
  5
625
330
624
100
AcDbEntity
  8
0
100
AcDbBlockBegin
  2
*D23
 70
     1
 10
0.0
 20
0.0
 30
0.0
  3
*D23
  1

  0
LINE
  5
627
330
624
100
AcDbEntity
  8
寸法
  6
CONTINUOUS
 62
     3
100
AcDbLine
 10
378.5
 20
2007.999999880791
 30
0.0
 11
378.5
 21
2104.0
 31
0.0
  0
LINE
  5
628
330
624
100
AcDbEntity
  8
寸法
  6
CONTINUOUS
 62
     3
100
AcDbLine
 10
398.49999999999
 20
2027.999999880791
 30
0.0
 11
398.49999999999
 21
2104.0
 31
0.0
  0
LINE
  5
629
330
624
100
AcDbEntity
  8
寸法
  6
CONTINUOUS
 62
     3
100
AcDbLine
 10
378.5
 20
2094.0
 30
0.0
 11
398.49999999999
 21
2094.0
 31
0.0
  0
LINE
  5
62A
330
624
100
AcDbEntity
  8
寸法
  6
CONTINUOUS
 62
     3
100
AcDbLine
 10
348.5
 20
2094.0
 30
0.0
 11
318.5
 21
2094.0
 31
0.0
  0
LINE
  5
62B
330
624
100
AcDbEntity
  8
寸法
  6
CONTINUOUS
 62
     3
100
AcDbLine
 10
428.49999999999
 20
2094.0
 30
0.0
 11
458.49999999999
 21
2094.0
 31
0.0
  0
INSERT
  5
62C
330
624
100
AcDbEntity
  8
寸法
 62
     3
100
AcDbBlockReference
  2
EX_NORM
 10
378.5
 20
2094.0
 30
0.0
 41
30.0
 42
30.0
 43
30.0
  0
INSERT
  5
62D
330
624
100
AcDbEntity
  8
寸法
 62
     3
100
AcDbBlockReference
  2
EX_BCIR
 10
398.49999999999
 20
2094.0
 30
0.0
 41
30.0
 42
30.0
 43
30.0
 50
180.0
  0
MTEXT
  5
62E
330
624
100
AcDbEntity
  8
寸法
 62
     2
100
AcDbMText
 10
313.5000000000001
 20
2117.499999940395
 30
0.0
 40
40.0
 41
0.0
 71
     5
 72
     1
  1
20
  7
EXCADDIM1
  0
POINT
  5
62F
330
624
100
AcDbEntity
  8
DEFPOINTS
 62
     0
100
AcDbPoint
 10
378.5
 20
2001.0
 30
0.0
  0
POINT
  5
630
330
624
100
AcDbEntity
  8
DEFPOINTS
 62
     0
100
AcDbPoint
 10
398.49999999999
 20
2021.0
 30
0.0
  0
POINT
  5
631
330
624
100
AcDbEntity
  8
DEFPOINTS
 62
     0
100
AcDbPoint
 10
398.49999999999
 20
2094.0
 30
0.0
  0
ENDBLK
  5
626
330
624
100
AcDbEntity
  8
0
100
AcDbBlockEnd
  0
BLOCK
  5
634
330
633
100
AcDbEntity
  8
0
100
AcDbBlockBegin
  2
*D24
 70
     1
 10
0.0
 20
0.0
 30
0.0
  3
*D24
  1

  0
LINE
  5
636
330
633
100
AcDbEntity
  8
寸法
  6
CONTINUOUS
 62
     3
100
AcDbLine
 10
398.49999999999
 20
2027.999999880791
 30
0.0
 11
398.49999999999
 21
2103.7
 31
0.0
  0
LINE
  5
637
330
633
100
AcDbEntity
  8
寸法
  6
CONTINUOUS
 62
     3
100
AcDbLine
 10
433.4944675086999
 20
2027.999999880791
 30
0.0
 11
433.4944675086999
 21
2103.7
 31
0.0
  0
LINE
  5
638
330
633
100
AcDbEntity
  8
寸法
  6
CONTINUOUS
 62
     3
100
AcDbLine
 10
405.49999999999
 20
2093.7
 30
0.0
 11
426.4944675086999
 21
2093.7
 31
0.0
  0
INSERT
  5
639
330
633
100
AcDbEntity
  8
寸法
 62
     3
100
AcDbBlockReference
  2
EX_BCIR
 10
398.49999999999
 20
2093.7
 30
0.0
 41
7.0
 42
7.0
 43
7.0
 50
180.0
  0
INSERT
  5
63A
330
633
100
AcDbEntity
  8
寸法
 62
     3
100
AcDbBlockReference
  2
EX_NORM
 10
433.4944675086999
 20
2093.7
 30
0.0
 41
7.0
 42
7.0
 43
7.0
  0
MTEXT
  5
63B
330
633
100
AcDbEntity
  8
寸法
 62
     2
100
AcDbMText
 10
498.4944675086999
 20
2117.199999940395
 30
0.0
 40
40.0
 41
0.0
 71
     5
 72
     1
  1
35
  7
EXCADDIM1
  0
POINT
  5
63C
330
633
100
AcDbEntity
  8
DEFPOINTS
 62
     0
100
AcDbPoint
 10
398.49999999999
 20
2021.0
 30
0.0
  0
POINT
  5
63D
330
633
100
AcDbEntity
  8
DEFPOINTS
 62
     0
100
AcDbPoint
 10
433.4944675086999
 20
2021.0
 30
0.0
  0
POINT
  5
63E
330
633
100
AcDbEntity
  8
DEFPOINTS
 62
     0
100
AcDbPoint
 10
433.4944675086999
 20
2093.7
 30
0.0
  0
ENDBLK
  5
635
330
633
100
AcDbEntity
  8
0
100
AcDbBlockEnd
  0
BLOCK
  5
641
330
640
100
AcDbEntity
  8
0
100
AcDbBlockBegin
  2
*D25
 70
     1
 10
0.0
 20
0.0
 30
0.0
  3
*D25
  1

  0
LINE
  5
643
330
640
100
AcDbEntity
  8
寸法
  6
CONTINUOUS
 62
     3
100
AcDbLine
 10
433.4944675086999
 20
2027.999999880791
 30
0.0
 11
433.4944675086999
 21
2157.0
 31
0.0
  0
LINE
  5
644
330
640
100
AcDbEntity
  8
寸法
  6
CONTINUOUS
 62
     3
100
AcDbLine
 10
1073.4944675087
 20
2027.999999880791
 30
0.0
 11
1073.4944675087
 21
2157.0
 31
0.0
  0
LINE
  5
645
330
640
100
AcDbEntity
  8
寸法
  6
CONTINUOUS
 62
     3
100
AcDbLine
 10
463.4944675086999
 20
2147.0
 30
0.0
 11
1043.4944675087
 21
2147.0
 31
0.0
  0
INSERT
  5
646
330
640
100
AcDbEntity
  8
寸法
 62
     3
100
AcDbBlockReference
  2
EX_NORM
 10
433.4944675086999
 20
2147.0
 30
0.0
 41
30.0
 42
30.0
 43
30.0
 50
180.0
  0
INSERT
  5
647
330
640
100
AcDbEntity
  8
寸法
 62
     3
100
AcDbBlockReference
  2
EX_NORM
 10
1073.4944675087
 20
2147.0
 30
0.0
 41
30.0
 42
30.0
 43
30.0
  0
MTEXT
  5
648
330
640
100
AcDbEntity
  8
寸法
 62
     2
100
AcDbMText
 10
753.4944675087002
 20
2170.499999940395
 30
0.0
 40
40.0
 41
0.0
 71
     5
 72
     1
  1
640
  7
EXCADDIM1
  0
POINT
  5
649
330
640
100
AcDbEntity
  8
DEFPOINTS
 62
     0
100
AcDbPoint
 10
433.4944675086999
 20
2021.0
 30
0.0
  0
POINT
  5
64A
330
640
100
AcDbEntity
  8
DEFPOINTS
 62
     0
100
AcDbPoint
 10
1073.4944675087
 20
2021.0
 30
0.0
  0
POINT
  5
64B
330
640
100
AcDbEntity
  8
DEFPOINTS
 62
     0
100
AcDbPoint
 10
1073.4944675087
 20
2147.0
 30
0.0
  0
ENDBLK
  5
642
330
640
100
AcDbEntity
  8
0
100
AcDbBlockEnd
  0
BLOCK
  5
64E
330
64D
100
AcDbEntity
  8
0
100
AcDbBlockBegin
  2
*D26
 70
     1
 10
0.0
 20
0.0
 30
0.0
  3
*D26
  1

  0
LINE
  5
650
330
64D
100
AcDbEntity
  8
寸法
  6
CONTINUOUS
 62
     3
100
AcDbLine
 10
398.49999999999
 20
2027.999999880791
 30
0.0
 11
398.49999999999
 21
2209.0
 31
0.0
  0
LINE
  5
651
330
64D
100
AcDbEntity
  8
寸法
  6
CONTINUOUS
 62
     3
100
AcDbLine
 10
1108.5
 20
2027.999999880791
 30
0.0
 11
1108.5
 21
2209.0
 31
0.0
  0
LINE
  5
652
330
64D
100
AcDbEntity
  8
寸法
  6
CONTINUOUS
 62
     3
100
AcDbLine
 10
428.49999999999
 20
2199.0
 30
0.0
 11
1078.5
 21
2199.0
 31
0.0
  0
INSERT
  5
653
330
64D
100
AcDbEntity
  8
寸法
 62
     3
100
AcDbBlockReference
  2
EX_NORM
 10
398.49999999999
 20
2199.0
 30
0.0
 41
30.0
 42
30.0
 43
30.0
 50
180.0
  0
INSERT
  5
654
330
64D
100
AcDbEntity
  8
寸法
 62
     3
100
AcDbBlockReference
  2
EX_NORM
 10
1108.5
 20
2199.0
 30
0.0
 41
30.0
 42
30.0
 43
30.0
  0
MTEXT
  5
655
330
64D
100
AcDbEntity
  8
寸法
 62
     2
100
AcDbMText
 10
753.4999999999952
 20
2222.499999940395
 30
0.0
 40
40.0
 41
0.0
 71
     5
 72
     1
  1
710
  7
EXCADDIM1
  0
POINT
  5
656
330
64D
100
AcDbEntity
  8
DEFPOINTS
 62
     0
100
AcDbPoint
 10
398.49999999999
 20
2021.0
 30
0.0
  0
POINT
  5
657
330
64D
100
AcDbEntity
  8
DEFPOINTS
 62
     0
100
AcDbPoint
 10
1108.5
 20
2021.0
 30
0.0
  0
POINT
  5
658
330
64D
100
AcDbEntity
  8
DEFPOINTS
 62
     0
100
AcDbPoint
 10
1108.5
 20
2199.0
 30
0.0
  0
ENDBLK
  5
64F
330
64D
100
AcDbEntity
  8
0
100
AcDbBlockEnd
  0
ENDSEC
  0
SECTION
  2
ENTITIES
  0
HATCH
  5
A9
330
1F
100
AcDbEntity
  8
0
  6
CONTINUOUS
 62
     3
100
AcDbHatch
 10
0.0
 20
0.0
 30
0.0
210
0.0
220
0.0
230
1.0
  2
SOLID
 70
     1
 71
     1
 91
        2
 92
        3
 72
     1
 73
     1
 93
       27
 10
82.01572499999997
 20
-27.45220000000141
 42
-0.1769427732109284
 10
82.01572499999997
 20
-27.4522000000014
 42
0.0
 10
82.01572499999997
 20
-27.81670000000143
 42
0.0
 10
82.10347500000003
 20
-27.81670000000146
 42
-0.207533601427307
 10
82.67319070563195
 20
-27.38932573846503
 42
-0.1226604740888933
 10
83.17672500000002
 20
-27.37862500000143
 42
-0.3213715781137954
 10
83.69728122889585
 20
-28.01758418597075
 42
-0.064704004662446
 10
83.69984999999987
 20
-28.35535000000145
 42
-0.257798906330806
 10
83.59387499999998
 20
-28.48360000000145
 42
-0.056602577721096
 10
83.36707499999996
 20
-28.56257500000141
 42
-0.0166741689362636
 10
82.53547499999998
 20
-28.72052500000143
 42
0.1186092302783404
 10
81.9867
 20
-28.98377500000144
 42
0.1699204224386695
 10
81.74774999999995
 20
-29.38337500000145
 42
0.1006533494296199
 10
81.72565709463309
 20
-29.73011377879823
 42
0.1675695228968024
 10
81.94215
 20
-30.19472500000144
 42
0.1376980079804242
 10
82.33567499999994
 20
-30.42220000000141
 42
0.0719813663796923
 10
82.51454999999987
 20
-30.45190000000142
 42
0.0
 10
82.78859999999997
 20
-30.45190000000142
 42
0.1944607457809085
 10
83.69782499999998
 20
-29.98412500000143
 42
0.1288538183665954
 10
83.78962499999989
 20
-30.21362500000146
 42
0.2098387395261546
 10
84.08932499999992
 20
-30.37900000000142
 42
0.0
 10
84.30667499999997
 20
-30.38035000000141
 42
0.0945009641609563
 10
84.62054999999998
 20
-30.31352500000143
 42
0.0
 10
84.62054999999997
 20
-30.15625000000144
 42
-0.2395739894657535
 10
84.34650000000003
 20
-30.15895000000146
 42
-0.2502312110031057
 10
84.21149999999992
 20
-29.90515000000136
 42
-0.0104343570771765
 10
84.22972499999995
 20
-28.01245000000144
 42
0.4051015674140716
 97
        0
 92
        3
 72
     1
 73
     1
 93
        8
 10
83.71199999999992
 20
-28.68610000000145
 42
-0.0339435190873666
 10
83.7120000000009
 20
-28.68610000000257
 42
-0.0001110072973599
 10
83.68365000000004
 20
-29.72020000000146
 42
-0.2253076310552528
 10
82.97489999999993
 20
-30.1933750000014
 42
0.0
 10
82.80142499999987
 20
-30.19337500000141
 42
-0.3657967558150132
 10
82.28572499999996
 20
-29.64527500000143
 42
0.0
 10
82.28572500000004
 20
-29.44952500000142
 42
-0.2530797830369341
 10
82.63402499999995
 20
-28.96757500000145
 42
-0.0724473624720066
 97
        0
 75
     0
 76
     1
 98
        1
 10
0.0
 20
0.0
  0
HATCH
  5
AA
330
1F
100
AcDbEntity
  8
0
  6
CONTINUOUS
 62
     3
100
AcDbHatch
 10
0.0
 20
0.0
 30
0.0
210
0.0
220
0.0
230
1.0
  2
SOLID
 70
     1
 71
     1
 91
        1
 92
        3
 72
     1
 73
     1
 93
       30
 10
92.77184999999993
 20
-27.25510000000138
 42
-0.0009362235736497
 10
92.77184999999994
 20
-27.25510000000143
 42
0.0681165430304653
 10
92.6081577753481
 20
-27.74582500000142
 42
0.0
 10
91.99155000000002
 20
-27.32395000000142
 42
-0.302112590907374
 10
91.99154999999996
 20
-27.32395000000142
 42
0.0
 10
91.36987499999996
 20
-27.80050000000143
 42
-0.3704245237568778
 10
91.36987499999987
 20
-27.80050000000146
 42
0.0
 10
91.40227499999989
 20
-28.11910000000143
 42
-0.0262822419456939
 10
91.785675
 20
-28.42555000000146
 42
-0.180060563604375
 10
92.397225
 20
-28.61185000000141
 42
-0.0298130817160724
 10
92.39722499999998
 20
-28.61185000000145
 42
-0.3153987453686078
 10
92.96084999999994
 20
-29.25647500000142
 42
0.0
 10
92.95747499999999
 20
-29.54470000000146
 42
-0.3510306079065168
 10
91.87072499999988
 20
-30.45595000000143
 42
0.0
 10
91.55347499999992
 20
-30.45595000000145
 42
-0.1053356344842436
 10
90.85147499999992
 20
-30.25345000000143
 42
0.1188608286962634
 10
90.97972499999992
 20
-29.74045000000141
 42
0.0
 10
91.74922500000001
 20
-30.21295000000142
 42
-0.2447573632916039
 10
91.74922499999991
 20
-30.21295000000143
 42
0.0
 10
92.491725
 20
-29.69320000000142
 42
-0.3734162676407277
 10
92.49172499999997
 20
-29.69320000000145
 42
0.0
 10
92.22239999999996
 20
-29.17412500000141
 42
-0.261219770190848
 10
91.59397499999993
 20
-28.94597500000141
 42
-0.0572747914118363
 10
91.59397500000003
 20
-28.94597500000143
 42
-0.1189658875692221
 10
91.0944749999999
 20
-28.65302500000142
 42
-0.2005226878639636
 10
90.88522499999988
 20
-28.18119999999923
 42
0.0
 10
90.88185
 20
-28.00232500000146
 42
-0.2622894489606957
 10
91.41847499999997
 20
-27.18220000000141
 42
-0.0988461274137808
 10
91.92067499999996
 20
-27.06137500000145
 42
0.0
 10
92.10697499999989
 20
-27.06137500000142
 42
-0.0920156312561188
 97
        0
 75
     0
 76
     1
 98
        1
 10
0.0
 20
0.0
  0
ARC
  5
AB
330
1F
100
AcDbEntity
  8
0
  6
CONTINUOUS
 62
     3
100
AcDbCircle
 10
94.48269653356203
 20
-28.09845495468054
 30
0.0
 40
1.907418003737831
100
AcDbArc
 50
153.7591918158497
 51
169.3462759801917
  0
LINE
  5
AC
330
1F
100
AcDbEntity
  8
0
  6
CONTINUOUS
 62
     3
100
AcDbLine
 10
92.52277499999991
 20
-27.74582500000142
 30
0.0
 11
92.6081577753481
 21
-27.74582500000142
 31
0.0
  0
LINE
  5
AD
330
1F
100
AcDbEntity
  8
0
  6
CONTINUOUS
 62
     3
100
AcDbLine
 10
91.8821999999999
 20
-27.32665000000143
 30
0.0
 11
91.99154999999996
 21
-27.32395000000142
 31
0.0
  0
LINE
  5
AE
330
1F
100
AcDbEntity
  8
0
  6
CONTINUOUS
 62
     3
100
AcDbLine
 10
90.88184999999999
 20
-28.00232500000144
 30
0.0
 11
90.88522499999988
 21
-28.18119999999923
 31
0.0
  0
LINE
  5
AF
330
1F
100
AcDbEntity
  8
0
  6
CONTINUOUS
 62
     3
100
AcDbLine
 10
91.36987499999987
 20
-27.80050000000146
 30
0.0
 11
91.36042499999996
 21
-27.97735000000146
 31
0.0
  0
LINE
  5
B0
330
1F
100
AcDbEntity
  8
0
  6
CONTINUOUS
 62
     3
100
AcDbLine
 10
92.96084999999994
 20
-29.25647500000142
 30
0.0
 11
92.95747499999993
 21
-29.54470000000143
 31
0.0
  0
LINE
  5
B1
330
1F
100
AcDbEntity
  8
0
  6
CONTINUOUS
 62
     3
100
AcDbLine
 10
92.48497499999996
 20
-29.53795000000142
 30
0.0
 11
92.49172499999997
 21
-29.69320000000145
 31
0.0
  0
ARC
  5
B2
330
1F
100
AcDbEntity
  8
0
  6
CONTINUOUS
 62
     3
100
AcDbCircle
 10
89.85188973988431
 20
-29.73085173410548
 30
0.0
 40
1.127953740078838
100
AcDbArc
 50
332.3987521421788
 51
359.5124385477116
  0
LINE
  5
B3
330
1F
100
AcDbEntity
  8
0
  6
CONTINUOUS
 62
     3
100
AcDbLine
 10
82.01572499999997
 20
-27.81670000000143
 30
0.0
 11
82.103475
 21
-27.81670000000143
 31
0.0
  0
HATCH
  5
B4
330
1F
100
AcDbEntity
  8
0
  6
CONTINUOUS
 62
     3
100
AcDbHatch
 10
0.0
 20
0.0
 30
0.0
210
0.0
220
0.0
230
1.0
  2
SOLID
 70
     1
 71
     1
 91
        2
 92
        1
 93
        1
 72
     2
 10
89.62699983050845
 20
-25.9302946610184
 40
0.3572334466769884
 50
0.0
 51
360.0
 73
     1
 97
        0
 92
        3
 72
     1
 73
     1
 93
        3
 10
89.30774999999996
 20
-27.11875000000144
 42
0.1200283885712921
 10
89.92874999999997
 20
-30.38237500000147
 42
-0.0401820615762149
 10
89.30842499999996
 20
-30.38440000000143
 42
-0.0237521668114666
 97
        0
 75
     0
 76
     1
 98
        1
 10
0.0
 20
0.0
  0
HATCH
  5
B5
330
1F
100
AcDbEntity
  8
0
  6
CONTINUOUS
 62
     3
100
AcDbHatch
 10
0.0
 20
0.0
 30
0.0
210
0.0
220
0.0
230
1.0
  2
SOLID
 70
     1
 71
     1
 91
        1
 92
        3
 72
     1
 73
     1
 93
       16
 10
85.38532499999992
 20
-30.37832500000145
 42
-0.0386228372648426
 10
85.37924999999991
 20
-27.12415000000144
 42
-0.0398707891902887
 10
85.96987499999989
 20
-27.12145000000142
 42
-0.1256886216044368
 10
85.94287499999994
 20
-27.67360000000143
 42
-0.0367815758121429
 10
85.94287499999994
 20
-27.67360000000145
 42
-0.268021535028829
 10
87.13424999999992
 20
-27.05530000000143
 42
-0.2571134422124888
 10
87.94897499999993
 20
-27.4582750000014
 42
-0.1522526366014298
 10
88.15619999999998
 20
-28.12855000000144
 42
-0.0158825412051521
 10
88.1413499999999
 20
-30.38170000000144
 42
-0.0285251271418421
 10
87.57097499999998
 20
-30.38170000000144
 42
-0.0452212723224612
 10
87.6
 20
-28.30000000000141
 42
-0.0315567291532142
 10
87.42314999999991
 20
-27.68507500000142
 42
-0.1476272403790709
 10
86.27159999999992
 20
-27.59665000000145
 42
-0.3908144705745794
 10
85.94692499999996
 20
-28.40462500000146
 42
-0.2046259928850854
 10
85.94692499999996
 20
-28.40462500000141
 42
0.0
 10
85.99754999999995
 20
-30.38372500000143
 42
-0.0304995761723369
 97
        0
 75
     0
 76
     1
 98
        1
 10
0.0
 20
0.0
  0
HATCH
  5
B6
330
1F
100
AcDbEntity
  8
0
  6
CONTINUOUS
 62
     3
100
AcDbHatch
 10
0.0
 20
0.0
 30
0.0
210
0.0
220
0.0
230
1.0
  2
SOLID
 70
     1
 71
     1
 91
        1
 92
        3
 72
     1
 73
     1
 93
       10
 10
79.470975
 20
-30.26695000000145
 42
-0.017362223501556
 10
79.47974999999995
 20
-24.9702250000014
 42
-0.0267627618865285
 10
79.47974999999997
 20
-24.97022500000143
 42
0.0737939047395297
 10
80.7717
 20
-24.9648250000015
 42
0.0183878899657109
 10
80.71972499999997
 20
-29.74045000000145
 42
-0.1144749489451909
 10
80.51047499999989
 20
-30.74620000000146
 42
-0.1929163439413163
 10
79.51485
 20
-31.52785000000146
 42
-0.0603888289562337
 10
78.98699999999997
 20
-31.65947500000144
 42
0.0
 10
78.86347499999994
 20
-31.28350000000145
 42
0.0860918333465722
 10
79.23269999999994
 20
-31.08707500000144
 42
0.1331843103855141
 97
        0
 75
     0
 76
     1
 98
        1
 10
0.0
 20
0.0
  0
LINE
  5
B7
330
1F
100
AcDbEntity
  8
0
  6
CONTINUOUS
 62
     3
100
AcDbLine
 10
91.55347499999993
 20
-30.45595000000143
 30
0.0
 11
91.87072499999988
 21
-30.45595000000143
 31
0.0
  0
LINE
  5
B8
330
1F
100
AcDbEntity
  8
0
  6
CONTINUOUS
 62
     3
100
AcDbLine
 10
91.06747499999994
 20
-29.74045000000141
 30
0.0
 11
90.97972499999992
 21
-29.74045000000141
 31
0.0
  0
LINE
  5
B9
330
1F
100
AcDbEntity
  8
0
  6
CONTINUOUS
 62
     3
100
AcDbLine
 10
91.74922499999991
 20
-30.21295000000143
 30
0.0
 11
91.91122499999994
 21
-30.21295000000143
 31
0.0
  0
LINE
  5
BA
330
1F
100
AcDbEntity
  8
0
  6
CONTINUOUS
 62
     3
100
AcDbLine
 10
92.10697499999992
 20
-27.06137500000145
 30
0.0
 11
91.92067499999996
 21
-27.06137500000145
 31
0.0
  0
ARC
  5
BB
330
1F
100
AcDbEntity
  8
0
  6
CONTINUOUS
 62
     3
100
AcDbCircle
 10
91.93992181795
 20
-27.93435696683881
 30
0.0
 40
0.612586430102253
100
AcDbArc
 50
17.92452211681263
 51
85.16543319077402
  0
ARC
  5
BC
330
1F
100
AcDbEntity
  8
0
  6
CONTINUOUS
 62
     3
100
AcDbCircle
 10
91.90195807528028
 20
-27.86189938267629
 30
0.0
 40
0.535613931103931
100
AcDbArc
 50
92.11404364449162
 51
173.4175047026091
  0
ARC
  5
BD
330
1F
100
AcDbEntity
  8
0
  6
CONTINUOUS
 62
     3
100
AcDbCircle
 10
92.72876250000115
 20
-27.65041750000106
 30
0.0
 40
1.4068519372934
100
AcDbArc
 50
193.4375782160214
 51
199.459638038058
  0
ARC
  5
BE
330
1F
100
AcDbEntity
  8
0
  6
CONTINUOUS
 62
     3
100
AcDbCircle
 10
92.00566195054944
 20
-27.75726291208938
 30
0.0
 40
0.703563707337184
100
AcDbArc
 50
210.9501336849607
 51
251.7794729821079
  0
ARC
  5
BF
330
1F
100
AcDbEntity
  8
0
  6
CONTINUOUS
 62
     3
100
AcDbCircle
 10
93.65229512359554
 20
-23.39505622472038
 30
0.0
 40
5.36564425851668
100
AcDbArc
 50
249.6420733479936
 51
256.4727051201885
  0
ARC
  5
C0
330
1F
100
AcDbEntity
  8
0
  6
CONTINUOUS
 62
     3
100
AcDbCircle
 10
92.21890563959448
 20
-29.33647674443976
 30
0.0
 40
0.746245075729606
100
AcDbArc
 50
6.154262763177246
 51
76.17509904255616
  0
ARC
  5
C1
330
1F
100
AcDbEntity
  8
0
  6
CONTINUOUS
 62
     3
100
AcDbCircle
 10
91.84508729135052
 20
-29.32172465857506
 30
0.0
 40
1.134515058180645
100
AcDbArc
 50
271.2948770866743
 51
348.6654156292868
  0
ARC
  5
C2
330
1F
100
AcDbEntity
  8
0
  6
CONTINUOUS
 62
     3
100
AcDbCircle
 10
91.67774897260267
 20
-28.70708356164526
 30
0.0
 40
1.75327631578002
100
AcDbArc
 50
241.8829576087176
 51
265.9354096935781
  0
ARC
  5
C3
330
1F
100
AcDbEntity
  8
0
  6
CONTINUOUS
 62
     3
100
AcDbCircle
 10
91.86205885902359
 20
-29.32206293198167
 30
0.0
 40
0.898004035462527
100
AcDbArc
 50
207.7689879465537
 51
262.7817283832026
  0
ARC
  5
C4
330
1F
100
AcDbEntity
  8
0
  6
CONTINUOUS
 62
     3
100
AcDbCircle
 10
91.90202620114007
 20
-29.61862569218383
 30
0.0
 40
0.594395491876676
100
AcDbArc
 50
270.8867385422408
 51
352.7925382056677
  0
ARC
  5
C5
330
1F
100
AcDbEntity
  8
0
  6
CONTINUOUS
 62
     3
100
AcDbCircle
 10
92.02924888521159
 20
-29.59018707542382
 30
0.0
 40
0.458710152219014
100
AcDbArc
 50
6.53892419415897
 51
65.09756080693691
  0
ARC
  5
C6
330
1F
100
AcDbEntity
  8
0
  6
CONTINUOUS
 62
     3
100
AcDbCircle
 10
90.91559734497923
 20
-31.7940779122034
 30
0.0
 40
2.927778413972754
100
AcDbArc
 50
63.49050203733571
 51
76.60259219849584
  0
ARC
  5
C7
330
1F
100
AcDbEntity
  8
0
  6
CONTINUOUS
 62
     3
100
AcDbCircle
 10
91.95112988466997
 20
-27.76468521968864
 30
0.0
 40
1.234100950779567
100
AcDbArc
 50
226.0402388947521
 51
253.1776672992999
  0
ARC
  5
C8
330
1F
100
AcDbEntity
  8
0
  6
CONTINUOUS
 62
     3
100
AcDbCircle
 10
91.5544410059349
 20
-28.16672163900021
 30
0.0
 40
0.669372605905611
100
AcDbArc
 50
181.2393899443581
 51
226.5942921332421
  0
ARC
  5
C9
330
1F
100
AcDbEntity
  8
0
  6
CONTINUOUS
 62
     3
100
AcDbCircle
 10
91.87808339467108
 20
-28.06855641873685
 30
0.0
 40
0.99843256030919
100
AcDbArc
 50
117.4083995939977
 51
176.1964688215695
  0
ARC
  5
CA
330
1F
100
AcDbEntity
  8
0
  6
CONTINUOUS
 62
     3
100
AcDbCircle
 10
91.97555886951397
 20
-28.37885835037938
 30
0.0
 40
1.319974865367525
100
AcDbArc
 50
92.38301574576484
 51
114.9635286746436
  0
ARC
  5
CB
330
1F
100
AcDbEntity
  8
0
  6
CONTINUOUS
 62
     3
100
AcDbCircle
 10
92.0838767112806
 20
-28.07201894611595
 30
0.0
 40
1.010907867592157
100
AcDbArc
 50
67.66151957087348
 51
88.69073168448988
  0
ARC
  5
CC
330
1F
100
AcDbEntity
  8
0
  6
CONTINUOUS
 62
     3
100
AcDbCircle
 10
124.1628937499564
 20
53.91432499988652
 30
0.0
 40
87.02800228963156
100
AcDbArc
 50
248.6422112053103
 51
248.8567777804232
  0
ARC
  5
CD
330
1F
100
AcDbEntity
  8
0
  6
CONTINUOUS
 62
     3
100
AcDbCircle
 10
67.1674541803136
 20
-28.75615140209315
 30
0.0
 40
22.20076085035812
100
AcDbArc
 50
355.7940354718673
 51
4.229650257234378
  0
ARC
  5
CE
330
1F
100
AcDbEntity
  8
0
  6
CONTINUOUS
 62
     3
100
AcDbCircle
 10
110.2238531446307
 20
-28.76983927236163
 30
0.0
 40
20.35906390589
100
AcDbArc
 50
175.3387608397566
 51
184.5428594926176
  0
ARC
  5
CF
330
1F
100
AcDbEntity
  8
0
  6
CONTINUOUS
 62
     3
100
AcDbCircle
 10
89.6398893203883
 20
-36.90884514563218
 30
0.0
 40
6.532859485251088
100
AcDbArc
 50
87.46575055044718
 51
92.90832285102188
  0
ARC
  5
D0
330
1F
100
AcDbEntity
  8
0
  6
CONTINUOUS
 62
     3
100
AcDbCircle
 10
89.61300918695224
 20
-25.83532458617473
 30
0.0
 40
1.319228548840207
100
AcDbArc
 50
256.6209501743446
 51
283.9984576255729
  0
CIRCLE
  5
D1
330
1F
100
AcDbEntity
  8
0
  6
CONTINUOUS
 62
     3
100
AcDbCircle
 10
89.62699983050845
 20
-25.9302946610184
 30
0.0
 40
0.357233446676989
  0
LINE
  5
D2
330
1F
100
AcDbEntity
  8
0
  6
CONTINUOUS
 62
     3
100
AcDbLine
 10
85.94692499999996
 20
-28.40462500000141
 30
0.0
 11
85.94692499999996
 21
-29.48395000000145
 31
0.0
  0
ARC
  5
D3
330
1F
100
AcDbEntity
  8
0
  6
CONTINUOUS
 62
     3
100
AcDbCircle
 10
65.01021831339085
 20
-28.78926874303804
 30
0.0
 40
20.43697806131072
100
AcDbArc
 50
355.5405243117485
 51
4.673398698656258
  0
ARC
  5
D4
330
1F
100
AcDbEntity
  8
0
  6
CONTINUOUS
 62
     3
100
AcDbCircle
 10
85.66927692528725
 20
-25.96658053161062
 30
0.0
 40
1.193349358546016
100
AcDbArc
 50
255.9341994177206
 51
284.5896440601899
  0
ARC
  5
D5
330
1F
100
AcDbEntity
  8
0
  6
CONTINUOUS
 62
     3
100
AcDbCircle
 10
89.70419570063655
 20
-27.58079251592498
 30
0.0
 40
3.762465500458181
100
AcDbArc
 50
172.9875214416311
 51
181.4134392789641
  0
ARC
  5
D6
330
1F
100
AcDbEntity
  8
0
  6
CONTINUOUS
 62
     3
100
AcDbCircle
 10
87.07385911670042
 20
-28.3958894415695
 30
0.0
 40
1.34194899665726
100
AcDbArc
 50
87.42068310381028
 51
147.4361518966862
  0
ARC
  5
D7
330
1F
100
AcDbEntity
  8
0
  6
CONTINUOUS
 62
     3
100
AcDbCircle
 10
87.17568900081255
 20
-27.99660268177556
 30
0.0
 40
0.94221437555554
100
AcDbArc
 50
34.84393737091607
 51
92.5207065423111
  0
ARC
  5
D8
330
1F
100
AcDbEntity
  8
0
  6
CONTINUOUS
 62
     3
100
AcDbCircle
 10
86.9775035801232
 20
-28.12578990524023
 30
0.0
 40
1.17869965146059
100
AcDbArc
 50
359.8658335690532
 51
34.49363429411157
  0
ARC
  5
D9
330
1F
100
AcDbEntity
  8
0
  6
CONTINUOUS
 62
     3
100
AcDbCircle
 10
82.01758443877554
 20
-28.35549158163409
 30
0.0
 40
6.142809087866958
100
AcDbArc
 50
358.4775281223095
 51
2.117232414210064
  0
ARC
  5
DA
330
1F
100
AcDbEntity
  8
0
  6
CONTINUOUS
 62
     3
100
AcDbCircle
 10
104.4642117928447
 20
-29.59797558236418
 30
0.0
 40
16.34166579853822
100
AcDbArc
 50
176.2131780319488
 51
182.7488833337936
  0
ARC
  5
DB
330
1F
100
AcDbEntity
  8
0
  6
CONTINUOUS
 62
     3
100
AcDbCircle
 10
87.85616249999998
 20
-33.52849671052773
 30
0.0
 40
3.159693252126744
100
AcDbArc
 50
84.82155189294139
 51
95.17844810705873
  0
ARC
  5
DC
330
1F
100
AcDbEntity
  8
0
  6
CONTINUOUS
 62
     3
100
AcDbCircle
 10
71.11018221317238
 20
-29.11113595093085
 30
0.0
 40
16.50975566668588
100
AcDbArc
 50
355.5862454873798
 51
2.816115806820253
  0
ARC
  5
DD
330
1F
100
AcDbEntity
  8
0
  6
CONTINUOUS
 62
     3
100
AcDbCircle
 10
86.49292247236019
 20
-28.28549794153995
 30
0.0
 40
1.107172507744154
100
AcDbArc
 50
359.2495022237244
 51
32.84055016678327
  0
ARC
  5
DE
330
1F
100
AcDbEntity
  8
0
  6
CONTINUOUS
 62
     3
100
AcDbCircle
 10
86.79944987873023
 20
-28.26498659836862
 30
0.0
 40
0.851645057047003
100
AcDbArc
 50
42.91644474042847
 51
128.3015542351336
  0
ARC
  5
DF
330
1F
100
AcDbEntity
  8
0
  6
CONTINUOUS
 62
     3
100
AcDbCircle
 10
87.05506565033897
 20
-28.38069707837494
 30
0.0
 40
1.108398956318131
100
AcDbArc
 50
134.9787476233347
 51
181.2369872983282
  0
ARC
  5
E0
330
1F
100
AcDbEntity
  8
0
  6
CONTINUOUS
 62
     3
100
AcDbCircle
 10
93.3393342161853
 20
-29.49714785965737
 30
0.0
 40
7.395120993114926
100
AcDbArc
 50
179.8977458165987
 51
186.8855675734268
  0
ARC
  5
E1
330
1F
100
AcDbEntity
  8
0
  6
CONTINUOUS
 62
     3
100
AcDbCircle
 10
85.65653622736806
 20
-34.33795678463841
 30
0.0
 40
3.968909094418497
100
AcDbArc
 50
85.07099551674689
 51
93.91830029343228
  0
ARC
  5
E2
330
1F
100
AcDbEntity
  8
0
  6
CONTINUOUS
 62
     3
100
AcDbCircle
 10
-2245.203093791059
 20
34.6440031261228
 30
0.0
 40
2329.776001260591
100
AcDbArc
 50
358.4169008257799
 51
358.4423418242109
  0
ARC
  5
E3
330
1F
100
AcDbEntity
  8
0
  6
CONTINUOUS
 62
     3
100
AcDbCircle
 10
82.83089533433417
 20
-29.21028443445343
 30
0.0
 40
0.993581603997916
100
AcDbArc
 50
278.3335103000368
 51
329.1221464187299
  0
LINE
  5
E4
330
1F
100
AcDbEntity
  8
0
  6
CONTINUOUS
 62
     3
100
AcDbLine
 10
82.80142499999988
 20
-30.1933750000014
 30
0.0
 11
82.97489999999993
 21
-30.1933750000014
 31
0.0
  0
ARC
  5
E5
330
1F
100
AcDbEntity
  8
0
  6
CONTINUOUS
 62
     3
100
AcDbCircle
 10
82.8680449615623
 20
-29.61403552877764
 30
0.0
 40
0.583157304846997
100
AcDbArc
 50
183.0707787095794
 51
263.4402016072427
  0
LINE
  5
E6
330
1F
100
AcDbEntity
  8
0
  6
CONTINUOUS
 62
     3
100
AcDbLine
 10
82.28572499999996
 20
-29.44952500000145
 30
0.0
 11
82.28572499999996
 21
-29.64527500000143
 31
0.0
  0
ARC
  5
E7
330
1F
100
AcDbEntity
  8
0
  6
CONTINUOUS
 62
     3
100
AcDbCircle
 10
82.90546709505338
 20
-29.53057453928367
 30
0.0
 40
0.625019433457053
100
AcDbArc
 50
115.7403688633493
 51
172.5491744442191
  0
ARC
  5
E8
330
1F
100
AcDbEntity
  8
0
  6
CONTINUOUS
 62
     3
100
AcDbCircle
 10
83.45505494425197
 20
-30.70546070307572
 30
0.0
 40
1.922065786155208
100
AcDbArc
 50
98.71271710191789
 51
115.2874718053599
  0
ARC
  5
E9
330
1F
100
AcDbEntity
  8
0
  6
CONTINUOUS
 62
     3
100
AcDbCircle
 10
82.55900942021219
 20
-24.71363551815043
 30
0.0
 40
4.136406814694017
100
AcDbArc
 50
278.4088456599976
 51
286.1851416003176
  0
ARC
  5
EA
330
1F
100
AcDbEntity
  8
0
  6
CONTINUOUS
 62
     3
100
AcDbCircle
 10
80.1075304278977
 20
-20.61447362453325
 30
0.0
 40
4.400758833490466
100
AcDbArc
 50
261.7986203004403
 51
278.6803384946418
  0
ARC
  5
EB
330
1F
100
AcDbEntity
  8
0
  6
CONTINUOUS
 62
     3
100
AcDbCircle
 10
145.6527015680184
 20
-28.05904572024705
 30
0.0
 40
64.95474244683605
100
AcDbArc
 50
177.2695926307304
 51
181.4833117237826
  0
ARC
  5
EC
330
1F
100
AcDbEntity
  8
0
  6
CONTINUOUS
 62
     3
100
AcDbCircle
 10
78.44744204458107
 20
-29.79233576095456
 30
0.0
 40
2.272875263114311
100
AcDbArc
 50
335.1860595856123
 51
1.308075913059364
  0
ARC
  5
ED
330
1F
100
AcDbEntity
  8
0
  6
CONTINUOUS
 62
     3
100
AcDbCircle
 10
79.03742170552971
 20
-29.8948141434872
 30
0.0
 40
1.701394688196115
100
AcDbArc
 50
286.2966123578915
 51
329.973223283839
  0
ARC
  5
EE
330
1F
100
AcDbEntity
  8
0
  6
CONTINUOUS
 62
     3
100
AcDbCircle
 10
78.70800592534147
 20
-29.41641780060164
 30
0.0
 40
2.260341410821362
100
AcDbArc
 50
277.0901027239701
 51
290.9134154817058
  0
LINE
  5
EF
330
1F
100
AcDbEntity
  8
0
  6
CONTINUOUS
 62
     3
100
AcDbLine
 10
78.98699999999997
 20
-31.65947500000144
 30
0.0
 11
78.863475
 21
-31.28350000000146
 31
0.0
  0
ARC
  5
F0
330
1F
100
AcDbEntity
  8
0
  6
CONTINUOUS
 62
     3
100
AcDbCircle
 10
78.48192132352938
 20
-30.1210507352956
 30
0.0
 40
1.223467000390025
100
AcDbArc
 50
288.1715191042997
 51
307.8537826235693
  0
ARC
  5
F1
330
1F
100
AcDbEntity
  8
0
  6
CONTINUOUS
 62
     3
100
AcDbCircle
 10
78.70772229163515
 20
-30.55457414502636
 30
0.0
 40
0.747769185530633
100
AcDbArc
 50
314.592391474832
 51
344.9374073189123
  0
ARC
  5
F2
330
1F
100
AcDbEntity
  8
0
  6
CONTINUOUS
 62
     3
100
AcDbCircle
 10
30.03230363896807
 20
-27.5366759713671
 30
0.0
 40
49.51400430399008
100
AcDbArc
 50
356.8390243485978
 51
2.971133813187157
  0
ARC
  5
F3
330
1F
100
AcDbEntity
  8
0
  6
CONTINUOUS
 62
     3
100
AcDbCircle
 10
72.5128440789457
 20
-29.91522171052763
 30
0.0
 40
6.967015049800598
100
AcDbArc
 50
353.1274757312911
 51
357.106204490141
  0
LINE
  5
F4
330
1F
100
AcDbEntity
  8
0
  6
CONTINUOUS
 62
     3
100
AcDbLine
 10
82.01572499999997
 20
-27.4522000000014
 30
0.0
 11
82.01572499999997
 21
-27.81670000000143
 31
0.0
  0
ARC
  5
F5
330
1F
100
AcDbEntity
  8
0
  6
CONTINUOUS
 62
     3
100
AcDbCircle
 10
82.88098460370486
 20
-28.25974741117668
 30
0.0
 40
0.894881105176719
100
AcDbArc
 50
103.4267945469744
 51
150.3242613737993
  0
ARC
  5
F6
330
1F
100
AcDbEntity
  8
0
  6
CONTINUOUS
 62
     3
100
AcDbCircle
 10
82.94643938465799
 20
-28.39481102462529
 30
0.0
 40
1.04195273466423
100
AcDbArc
 50
77.23143261361693
 51
105.203415964315
  0
ARC
  5
F7
330
1F
100
AcDbEntity
  8
0
  6
CONTINUOUS
 62
     3
100
AcDbCircle
 10
82.99128255485186
 20
-28.06123046822129
 30
0.0
 40
0.707346538626002
100
AcDbArc
 50
3.537639967999379
 51
74.8013566619203
  0
ARC
  5
F8
330
1F
100
AcDbEntity
  8
0
  6
CONTINUOUS
 62
     3
100
AcDbCircle
 10
82.39898716234063
 20
-28.19635062600427
 30
0.0
 40
1.310543751018921
100
AcDbArc
 50
353.0315250986587
 51
7.839947970678348
  0
ARC
  5
F9
330
1F
100
AcDbEntity
  8
0
  6
CONTINUOUS
 62
     3
100
AcDbCircle
 10
83.53075798340831
 20
-28.32353600471263
 30
0.0
 40
0.172058828228131
100
AcDbArc
 50
291.5204897073511
 51
349.3445900274031
  0
ARC
  5
FA
330
1F
100
AcDbEntity
  8
0
  6
CONTINUOUS
 62
     3
100
AcDbCircle
 10
83.13277892778387
 20
-27.52457570286803
 30
0.0
 40
1.064113335272784
100
AcDbArc
 50
282.7195832898965
 51
295.6781112778079
  0
ARC
  5
FB
330
1F
100
AcDbEntity
  8
0
  6
CONTINUOUS
 62
     3
100
AcDbCircle
 10
80.58374942653279
 20
-16.17662903200338
 30
0.0
 40
12.69482409370382
100
AcDbArc
 50
278.8438342053764
 51
282.6649181367123
  0
ARC
  5
FC
330
1F
100
AcDbEntity
  8
0
  6
CONTINUOUS
 62
     3
100
AcDbCircle
 10
82.8081498134328
 20
-29.99256451492679
 30
0.0
 40
1.30093661698492
100
AcDbArc
 50
102.0988446293839
 51
129.1556705448828
  0
ARC
  5
FD
330
1F
100
AcDbEntity
  8
0
  6
CONTINUOUS
 62
     3
100
AcDbCircle
 10
82.43817221697645
 20
-29.5249860047475
 30
0.0
 40
0.704795370557922
100
AcDbArc
 50
129.8344892359069
 51
168.4089447024628
  0
ARC
  5
FE
330
1F
100
AcDbEntity
  8
0
  6
CONTINUOUS
 62
     3
100
AcDbCircle
 10
82.58919861237484
 20
-29.61106220427806
 30
0.0
 40
0.871709372588669
100
AcDbArc
 50
164.8589457925044
 51
187.8495628504518
  0
ARC
  5
FF
330
1F
100
AcDbEntity
  8
0
  6
CONTINUOUS
 62
     3
100
AcDbCircle
 10
82.50760175582991
 20
-29.64849911402687
 30
0.0
 40
0.78619234712629
100
AcDbArc
 50
185.9586126338419
 51
224.0091989319859
  0
ARC
  5
100
330
1F
100
AcDbEntity
  8
0
  6
CONTINUOUS
 62
     3
100
AcDbCircle
 10
82.54407795704378
 20
-29.60753828202954
 30
0.0
 40
0.840895657756366
100
AcDbArc
 50
224.289750990011
 51
255.6505938786759
  0
ARC
  5
101
330
1F
100
AcDbEntity
  8
0
  6
CONTINUOUS
 62
     3
100
AcDbCircle
 10
82.52772973404251
 20
-29.8190143858814
 30
0.0
 40
0.633022832091786
100
AcDbArc
 50
252.3384873625213
 51
268.8069976857606
  0
LINE
  5
102
330
1F
100
AcDbEntity
  8
0
  6
CONTINUOUS
 62
     3
100
AcDbLine
 10
82.51454999999987
 20
-30.45190000000142
 30
0.0
 11
82.78859999999997
 21
-30.45190000000142
 31
0.0
  0
ARC
  5
103
330
1F
100
AcDbEntity
  8
0
  6
CONTINUOUS
 62
     3
100
AcDbCircle
 10
82.66457888534501
 20
-29.09330906718723
 30
0.0
 40
1.364239920103932
100
AcDbArc
 50
275.2158792069686
 51
319.2336424873511
  0
ARC
  5
104
330
1F
100
AcDbEntity
  8
0
  6
CONTINUOUS
 62
     3
100
AcDbCircle
 10
84.18160403225806
 20
-29.9237233870982
 30
0.0
 40
0.487535134009722
100
AcDbArc
 50
187.1167640402297
 51
216.4860549324747
  0
ARC
  5
105
330
1F
100
AcDbEntity
  8
0
  6
CONTINUOUS
 62
     3
100
AcDbCircle
 10
84.12782577748953
 20
-29.95497476446921
 30
0.0
 40
0.425769550620398
100
AcDbArc
 50
217.4081478714985
 51
264.8118660441384
  0
ARC
  5
106
330
1F
100
AcDbEntity
  8
0
  6
CONTINUOUS
 62
     3
100
AcDbCircle
 10
84.28840734613084
 20
-29.52400420152518
 30
0.0
 40
0.856540620020894
100
AcDbArc
 50
271.2220539293239
 51
292.8159509797653
  0
LINE
  5
107
330
1F
100
AcDbEntity
  8
0
  6
CONTINUOUS
 62
     3
100
AcDbLine
 10
84.08932499999992
 20
-30.37900000000142
 30
0.0
 11
84.30667499999993
 21
-30.37900000000142
 31
0.0
  0
LINE
  5
108
330
1F
100
AcDbEntity
  8
0
  6
CONTINUOUS
 62
     3
100
AcDbLine
 10
84.62054999999998
 20
-30.31352500000143
 30
0.0
 11
84.62054999999998
 21
-30.15625000000146
 31
0.0
  0
ARC
  5
109
330
1F
100
AcDbEntity
  8
0
  6
CONTINUOUS
 62
     3
100
AcDbCircle
 10
84.48086921125457
 20
-29.8880374423446
 30
0.0
 40
0.30240485913648
100
AcDbArc
 50
243.6191685566582
 51
297.5097757939563
  0
ARC
  5
10A
330
1F
100
AcDbEntity
  8
0
  6
CONTINUOUS
 62
     3
100
AcDbCircle
 10
84.51668832113535
 20
-29.90562004195076
 30
0.0
 40
0.305188683107389
100
AcDbArc
 50
179.9117548191414
 51
236.1065985968857
  0
ARC
  5
10B
330
1F
100
AcDbEntity
  8
0
  6
CONTINUOUS
 62
     3
100
AcDbCircle
 10
129.5634620105459
 20
-29.39541089043818
 30
0.0
 40
45.35482655865662
100
AcDbArc
 50
178.2526643324597
 51
180.6439560401927
  0
ARC
  5
10C
330
1F
100
AcDbEntity
  8
0
  6
CONTINUOUS
 62
     3
100
AcDbCircle
 10
83.2055111527028
 20
-28.08673307002235
 30
0.0
 40
1.02690407511459
100
AcDbArc
 50
4.148222840814693
 51
92.36000944257292
  0
ARC
  5
10D
330
1F
100
AcDbEntity
  8
0
  6
CONTINUOUS
 62
     3
100
AcDbCircle
 10
83.12530166793022
 20
-28.82697644048663
 30
0.0
 40
1.766683515327064
100
AcDbArc
 50
88.77000393305703
 51
128.9068631829044
  0
TEXT
  5
10F
330
1F
100
AcDbEntity
  8
0
  6
CONTINUOUS
 62
     2
100
AcDbText
 10
94.29844842667524
 20
-30.93864932975547
 30
0.0
 40
3.375
  1
ジャニス工業株式会社
 41
1.025641025641026
  7
EXCADTTF1
 72
     5
 11
139.2984484266752
 21
-30.93864932975547
 31
0.0
100
AcDbText
  0
HATCH
  5
110
330
1F
100
AcDbEntity
  8
0
  6
CONTINUOUS
 62
     3
100
AcDbHatch
 10
0.0
 20
0.0
 30
0.0
210
0.0
220
0.0
230
1.0
  2
SOLID
 70
     1
 71
     1
 91
        1
 92
        3
 72
     1
 73
     1
 93
       10
 10
78.0725265733251
 20
16.52169932975401
 42
-0.017362223501556
 10
78.081301573325
 20
21.81842432975407
 42
-0.0267627618865285
 10
78.08130157332494
 20
21.81842432975409
 42
0.0737939047395297
 10
79.37325157332509
 20
21.82382432975402
 42
0.0183878899657109
 10
79.32127657332508
 20
17.04819932975407
 42
-0.1144749489451909
 10
79.112026573325
 20
16.04244932975406
 42
-0.1929163439413163
 10
78.11640157332513
 20
15.26079932975401
 42
-0.0603888289562337
 10
77.58855157332499
 20
15.12917432975391
 42
0.0
 10
77.46502657332499
 20
15.50514932975396
 42
0.0860918333465722
 10
77.83425157332508
 20
15.70157432975385
 42
0.1331843103855141
 97
        0
 75
     0
 76
     1
 98
        1
 10
0.0
 20
0.0
  0
HATCH
  5
111
330
1F
100
AcDbEntity
  8
0
  6
CONTINUOUS
 62
     3
100
AcDbHatch
 10
0.0
 20
0.0
 30
0.0
210
0.0
220
0.0
230
1.0
  2
SOLID
 70
     1
 71
     1
 91
        1
 92
        3
 72
     1
 73
     1
 93
       16
 10
83.98687657332498
 20
16.41032432975408
 42
-0.0386228372648426
 10
83.98080157332502
 20
19.66449932975408
 42
-0.0398707891902887
 10
84.57142657332508
 20
19.66719932975404
 42
-0.1256886216044368
 10
84.54442657332503
 20
19.11504932975398
 42
-0.0367815758121429
 10
84.54442657332505
 20
19.11504932975395
 42
-0.268021535028829
 10
85.73580157332506
 20
19.73334932975386
 42
-0.2571134422124888
 10
86.55052657332496
 20
19.330374329754
 42
-0.1522526366014298
 10
86.75775157332505
 20
18.66009932975397
 42
-0.0158825412051521
 10
86.74290157332499
 20
16.40694932975391
 42
-0.0285251271418421
 10
86.17252657332511
 20
16.40694932975396
 42
-0.0452212723224612
 10
86.20155157332508
 20
18.48864932975394
 42
-0.0315567291532142
 10
86.02470157332499
 20
19.10357432975388
 42
-0.1476272403790709
 10
84.87315157332506
 20
19.19199932975407
 42
-0.3908144705745794
 10
84.54847657332493
 20
18.38402432975406
 42
-0.2046259928850854
 10
84.54847657332502
 20
18.38402432975406
 42
0.0
 10
84.59910157332511
 20
16.40492432975404
 42
-0.0304995761723369
 97
        0
 75
     0
 76
     1
 98
        1
 10
0.0
 20
0.0
  0
HATCH
  5
112
330
1F
100
AcDbEntity
  8
0
  6
CONTINUOUS
 62
     3
100
AcDbHatch
 10
0.0
 20
0.0
 30
0.0
210
0.0
220
0.0
230
1.0
  2
SOLID
 70
     1
 71
     1
 91
        2
 92
        1
 93
        1
 72
     2
 10
88.22855140383348
 20
20.85835466873695
 40
0.3572334466769885
 50
0.0
 51
360.0
 73
     1
 97
        0
 92
        3
 72
     1
 73
     1
 93
        3
 10
87.90930157332495
 20
19.66989932975408
 42
0.1200283885712921
 10
88.5303015733249
 20
16.40627432975382
 42
-0.0401820615762149
 10
87.90997657332504
 20
16.40424932975386
 42
-0.0237521668114666
 97
        0
 75
     0
 76
     1
 98
        1
 10
0.0
 20
0.0
  0
HATCH
  5
113
330
1F
100
AcDbEntity
  8
0
  6
CONTINUOUS
 62
     3
100
AcDbHatch
 10
0.0
 20
0.0
 30
0.0
210
0.0
220
0.0
230
1.0
  2
SOLID
 70
     1
 71
     1
 91
        1
 92
        3
 72
     1
 73
     1
 93
       30
 10
91.37340157332487
 20
19.53354932975397
 42
-0.0009362235736497
 10
91.37340157332491
 20
19.53354932975392
 42
0.0681165430304653
 10
91.2097093486731
 20
19.04282432975398
 42
0.0
 10
90.59310157332507
 20
19.46469932975388
 42
-0.302112590907374
 10
90.59310157332499
 20
19.4646993297541
 42
0.0
 10
89.97142657332505
 20
18.98814932975409
 42
-0.3704245237568778
 10
89.97142657332498
 20
18.9881493297539
 42
0.0
 10
90.00382657332506
 20
18.66954932975403
 42
-0.0262822419456939
 10
90.38722657332497
 20
18.36309932975401
 42
-0.180060563604375
 10
90.99877657332503
 20
18.17679932975399
 42
-0.0298130817160724
 10
90.99877657332506
 20
18.1767993297539
 42
-0.3153987453686078
 10
91.56240157332513
 20
17.5321743297541
 42
0.0
 10
91.55902657332501
 20
17.2439493297539
 42
-0.3510306079065168
 10
90.47227657332493
 20
16.33269932975386
 42
0.0
 10
90.15502657332492
 20
16.33269932975401
 42
-0.1053356344842436
 10
89.45302657332498
 20
16.53519932975387
 42
0.1188608286962634
 10
89.58127657332506
 20
17.04819932975388
 42
0.0
 10
90.35077657332504
 20
16.5756993297541
 42
-0.2447573632916039
 10
90.35077657332502
 20
16.57569932975397
 42
0.0
 10
91.09327657332508
 20
17.09544932975393
 42
-0.3734162676407277
 10
91.09327657332508
 20
17.09544932975396
 42
0.0
 10
90.82395157332499
 20
17.61452432975405
 42
-0.261219770190848
 10
90.19552657332498
 20
17.84267432975405
 42
-0.0572747914118363
 10
90.19552657332503
 20
17.84267432975404
 42
-0.1189658875692221
 10
89.69602657332493
 20
18.13562432975404
 42
-0.2005226878639636
 10
89.4867765733249
 20
18.60744932975612
 42
0.0
 10
89.48340157332497
 20
18.78632432975406
 42
-0.2622894489606957
 10
90.020026573325
 20
19.60644932975394
 42
-0.0988461274137808
 10
90.52222657332501
 20
19.72727432975395
 42
0.0
 10
90.70852657332503
 20
19.72727432975394
 42
-0.0920156312561188
 97
        0
 75
     0
 76
     1
 98
        1
 10
0.0
 20
0.0
  0
HATCH
  5
114
330
1F
100
AcDbEntity
  8
0
  6
CONTINUOUS
 62
     3
100
AcDbHatch
 10
0.0
 20
0.0
 30
0.0
210
0.0
220
0.0
230
1.0
  2
SOLID
 70
     1
 71
     1
 91
        2
 92
        3
 72
     1
 73
     1
 93
       27
 10
80.61727657332494
 20
19.33644932975394
 42
-0.1769427732109284
 10
80.61727657332506
 20
19.33644932975389
 42
0.0
 10
80.61727657332506
 20
18.97194932975387
 42
0.0
 10
80.70502657332503
 20
18.97194932975395
 42
-0.207533601427307
 10
81.274742278957
 20
19.39932359129033
 42
-0.1226604740888933
 10
81.7782765733251
 20
19.41002432975398
 42
-0.3213715781137954
 10
82.29883280222082
 20
18.7710651437846
 42
-0.064704004662446
 10
82.30140157332504
 20
18.43329932975402
 42
-0.257798906330806
 10
82.19542657332507
 20
18.30504932975385
 42
-0.056602577721096
 10
81.96862657332498
 20
18.22607432975405
 42
-0.0166741689362636
 10
81.13702657332495
 20
18.06812432975386
 42
0.1186092302783404
 10
80.58825157332502
 20
17.80487432975385
 42
0.1699204224386695
 10
80.34930157332506
 20
17.40527432975401
 42
0.1006533494296199
 10
80.32720866795823
 20
17.05853555095718
 42
0.1675695228968024
 10
80.54370157332511
 20
16.59392432975391
 42
0.1376980079804242
 10
80.93722657332499
 20
16.36644932975394
 42
0.0719813663796923
 10
81.11610157332501
 20
16.33674932975387
 42
0.0
 10
81.39015157332508
 20
16.33674932975394
 42
0.1944607457809085
 10
82.29937657332512
 20
16.80452432975397
 42
0.1288538183665954
 10
82.391176573325
 20
16.57502432975394
 42
0.2098387395261546
 10
82.690876573325
 20
16.40964932975399
 42
0.0
 10
82.90822657332511
 20
16.40829932975411
 42
0.0945009641609563
 10
83.222101573325
 20
16.4751243297541
 42
0.0
 10
83.22210157332499
 20
16.63239932975391
 42
-0.2395739894657535
 10
82.94805157332503
 20
16.62969932975395
 42
-0.2502312110031057
 10
82.81305157332494
 20
16.88349932975416
 42
-0.0104343570771765
 10
82.831276573325
 20
18.77619932975403
 42
0.4051015674140716
 97
        0
 92
        3
 72
     1
 73
     1
 93
        8
 10
82.31355157332494
 20
18.10254932975402
 42
-0.0339435190873666
 10
82.31355157332519
 20
18.10254932975281
 42
-0.0001110072973599
 10
82.28520157332507
 20
17.06844932975395
 42
-0.2253076310552528
 10
81.57645157332504
 20
16.59527432975401
 42
0.0
 10
81.402976573325
 20
16.59527432975389
 42
-0.3657967558150132
 10
80.88727657332493
 20
17.14337432975404
 42
0.0
 10
80.8872765733251
 20
17.33912432975393
 42
-0.2530797830369341
 10
81.23557657332503
 20
17.82107432975391
 42
-0.0724473624720066
 97
        0
 75
     0
 76
     1
 98
        1
 10
0.0
 20
0.0
  0
ARC
  5
115
330
1F
100
AcDbEntity
  8
0
  6
CONTINUOUS
 62
     3
100
AcDbCircle
 10
81.72685324125518
 20
17.96167288926873
 30
0.0
 40
1.76668351532706
100
AcDbArc
 50
88.77000393305703
 51
128.9068631829044
  0
ARC
  5
116
330
1F
100
AcDbEntity
  8
0
  6
CONTINUOUS
 62
     3
100
AcDbCircle
 10
81.80706272602785
 20
18.70191625973311
 30
0.0
 40
1.02690407511459
100
AcDbArc
 50
4.148222840814693
 51
92.36000944257292
  0
ARC
  5
117
330
1F
100
AcDbEntity
  8
0
  6
CONTINUOUS
 62
     3
100
AcDbCircle
 10
128.1650135838709
 20
17.39323843931734
 30
0.0
 40
45.3548265586566
100
AcDbArc
 50
178.2526643324597
 51
180.6439560401927
  0
ARC
  5
118
330
1F
100
AcDbEntity
  8
0
  6
CONTINUOUS
 62
     3
100
AcDbCircle
 10
83.11823989446034
 20
16.88302928780465
 30
0.0
 40
0.30518868310739
100
AcDbArc
 50
179.9117548191414
 51
236.1065985968857
  0
ARC
  5
119
330
1F
100
AcDbEntity
  8
0
  6
CONTINUOUS
 62
     3
100
AcDbCircle
 10
83.0824207845796
 20
16.90061188741075
 30
0.0
 40
0.30240485913648
100
AcDbArc
 50
243.6191685566582
 51
297.5097757939563
  0
LINE
  5
11A
330
1F
100
AcDbEntity
  8
0
  6
CONTINUOUS
 62
     3
100
AcDbLine
 10
83.222101573325
 20
16.4751243297541
 30
0.0
 11
83.222101573325
 21
16.63239932975407
 31
0.0
  0
LINE
  5
11B
330
1F
100
AcDbEntity
  8
0
  6
CONTINUOUS
 62
     3
100
AcDbLine
 10
82.690876573325
 20
16.40964932975399
 30
0.0
 11
82.90822657332507
 21
16.40964932975399
 31
0.0
  0
ARC
  5
11C
330
1F
100
AcDbEntity
  8
0
  6
CONTINUOUS
 62
     3
100
AcDbCircle
 10
82.88995891945598
 20
17.26464512823034
 30
0.0
 40
0.85654062002089
100
AcDbArc
 50
271.2220539293239
 51
292.8159509797653
  0
ARC
  5
11D
330
1F
100
AcDbEntity
  8
0
  6
CONTINUOUS
 62
     3
100
AcDbCircle
 10
82.72937735081464
 20
16.8336745652862
 30
0.0
 40
0.4257695506204
100
AcDbArc
 50
217.4081478714985
 51
264.8118660441384
  0
ARC
  5
11E
330
1F
100
AcDbEntity
  8
0
  6
CONTINUOUS
 62
     3
100
AcDbCircle
 10
82.7831556055832
 20
16.86492594265721
 30
0.0
 40
0.48753513400972
100
AcDbArc
 50
187.1167640402297
 51
216.4860549324747
  0
ARC
  5
11F
330
1F
100
AcDbEntity
  8
0
  6
CONTINUOUS
 62
     3
100
AcDbCircle
 10
81.26613045867012
 20
17.69534026256812
 30
0.0
 40
1.36423992010393
100
AcDbArc
 50
275.2158792069686
 51
319.2336424873511
  0
LINE
  5
120
330
1F
100
AcDbEntity
  8
0
  6
CONTINUOUS
 62
     3
100
AcDbLine
 10
81.11610157332501
 20
16.33674932975387
 30
0.0
 11
81.39015157332503
 21
16.33674932975387
 31
0.0
  0
ARC
  5
121
330
1F
100
AcDbEntity
  8
0
  6
CONTINUOUS
 62
     3
100
AcDbCircle
 10
81.12928130736756
 20
16.96963494387396
 30
0.0
 40
0.63302283209179
100
AcDbArc
 50
252.3384873625213
 51
268.8069976857606
  0
ARC
  5
122
330
1F
100
AcDbEntity
  8
0
  6
CONTINUOUS
 62
     3
100
AcDbCircle
 10
81.1456295303689
 20
17.18111104772581
 30
0.0
 40
0.84089565775637
100
AcDbArc
 50
224.289750990011
 51
255.6505938786759
  0
ARC
  5
123
330
1F
100
AcDbEntity
  8
0
  6
CONTINUOUS
 62
     3
100
AcDbCircle
 10
81.10915332915505
 20
17.14015021572854
 30
0.0
 40
0.78619234712629
100
AcDbArc
 50
185.9586126338419
 51
224.0091989319859
  0
ARC
  5
124
330
1F
100
AcDbEntity
  8
0
  6
CONTINUOUS
 62
     3
100
AcDbCircle
 10
81.19075018569995
 20
17.1775871254774
 30
0.0
 40
0.87170937258867
100
AcDbArc
 50
164.8589457925044
 51
187.8495628504518
  0
ARC
  5
125
330
1F
100
AcDbEntity
  8
0
  6
CONTINUOUS
 62
     3
100
AcDbCircle
 10
81.03972379030148
 20
17.2636633250078
 30
0.0
 40
0.70479537055792
100
AcDbArc
 50
129.8344892359069
 51
168.4089447024628
  0
ARC
  5
126
330
1F
100
AcDbEntity
  8
0
  6
CONTINUOUS
 62
     3
100
AcDbCircle
 10
81.40970138675777
 20
16.7960848148285
 30
0.0
 40
1.30093661698492
100
AcDbArc
 50
102.0988446293839
 51
129.1556705448828
  0
ARC
  5
127
330
1F
100
AcDbEntity
  8
0
  6
CONTINUOUS
 62
     3
100
AcDbCircle
 10
79.18530099985782
 20
30.61202029775208
 30
0.0
 40
12.69482409370382
100
AcDbArc
 50
278.8438342053764
 51
282.6649181367123
  0
ARC
  5
128
330
1F
100
AcDbEntity
  8
0
  6
CONTINUOUS
 62
     3
100
AcDbCircle
 10
81.73433050110896
 20
19.26407362688727
 30
0.0
 40
1.06411333527278
100
AcDbArc
 50
282.7195832898965
 51
295.6781112778079
  0
ARC
  5
129
330
1F
100
AcDbEntity
  8
0
  6
CONTINUOUS
 62
     3
100
AcDbCircle
 10
82.13230955673347
 20
18.46511332504284
 30
0.0
 40
0.17205882822813
100
AcDbArc
 50
291.5204897073511
 51
349.3445900274031
  0
ARC
  5
12A
330
1F
100
AcDbEntity
  8
0
  6
CONTINUOUS
 62
     3
100
AcDbCircle
 10
81.0005387356656
 20
18.59229870375108
 30
0.0
 40
1.31054375101892
100
AcDbArc
 50
353.0315250986587
 51
7.839947970678348
  0
ARC
  5
12B
330
1F
100
AcDbEntity
  8
0
  6
CONTINUOUS
 62
     3
100
AcDbCircle
 10
81.59283412817695
 20
18.72741886153412
 30
0.0
 40
0.707346538626
100
AcDbArc
 50
3.537639967999379
 51
74.8013566619203
  0
ARC
  5
12C
330
1F
100
AcDbEntity
  8
0
  6
CONTINUOUS
 62
     3
100
AcDbCircle
 10
81.54799095798305
 20
18.39383830513006
 30
0.0
 40
1.04195273466423
100
AcDbArc
 50
77.23143261361693
 51
105.203415964315
  0
ARC
  5
12D
330
1F
100
AcDbEntity
  8
0
  6
CONTINUOUS
 62
     3
100
AcDbCircle
 10
81.48253617702986
 20
18.52890191857873
 30
0.0
 40
0.89488110517672
100
AcDbArc
 50
103.4267945469744
 51
150.3242613737993
  0
LINE
  5
12E
330
1F
100
AcDbEntity
  8
0
  6
CONTINUOUS
 62
     3
100
AcDbLine
 10
80.61727657332506
 20
19.33644932975389
 30
0.0
 11
80.61727657332506
 21
18.97194932975387
 31
0.0
  0
ARC
  5
12F
330
1F
100
AcDbEntity
  8
0
  6
CONTINUOUS
 62
     3
100
AcDbCircle
 10
71.11439565227082
 20
16.87342761922784
 30
0.0
 40
6.9670150498006
100
AcDbArc
 50
353.1274757312911
 51
357.106204490141
  0
ARC
  5
130
330
1F
100
AcDbEntity
  8
0
  6
CONTINUOUS
 62
     3
100
AcDbCircle
 10
28.63385521229313
 20
19.25197335838837
 30
0.0
 40
49.51400430399008
100
AcDbArc
 50
356.8390243485978
 51
2.971133813187157
  0
ARC
  5
131
330
1F
100
AcDbEntity
  8
0
  6
CONTINUOUS
 62
     3
100
AcDbCircle
 10
77.30927386496029
 20
16.23407518472894
 30
0.0
 40
0.74776918553063
100
AcDbArc
 50
314.592391474832
 51
344.9374073189123
  0
ARC
  5
132
330
1F
100
AcDbEntity
  8
0
  6
CONTINUOUS
 62
     3
100
AcDbCircle
 10
77.08347289685443
 20
16.6675985944598
 30
0.0
 40
1.22346700039003
100
AcDbArc
 50
288.1715191042997
 51
307.8537826235693
  0
LINE
  5
133
330
1F
100
AcDbEntity
  8
0
  6
CONTINUOUS
 62
     3
100
AcDbLine
 10
77.58855157332499
 20
15.12917432975391
 30
0.0
 11
77.46502657332508
 21
15.50514932975395
 31
0.0
  0
ARC
  5
134
330
1F
100
AcDbEntity
  8
0
  6
CONTINUOUS
 62
     3
100
AcDbCircle
 10
77.3095574986666
 20
17.37223152915382
 30
0.0
 40
2.26034141082136
100
AcDbArc
 50
277.0901027239701
 51
290.9134154817058
  0
ARC
  5
135
330
1F
100
AcDbEntity
  8
0
  6
CONTINUOUS
 62
     3
100
AcDbCircle
 10
77.63897327885482
 20
16.89383518626832
 30
0.0
 40
1.70139468819612
100
AcDbArc
 50
286.2966123578915
 51
329.973223283839
  0
ARC
  5
136
330
1F
100
AcDbEntity
  8
0
  6
CONTINUOUS
 62
     3
100
AcDbCircle
 10
77.04899361790618
 20
16.99631356880096
 30
0.0
 40
2.27287526311431
100
AcDbArc
 50
335.1860595856123
 51
1.308075913059364
  0
ARC
  5
137
330
1F
100
AcDbEntity
  8
0
  6
CONTINUOUS
 62
     3
100
AcDbCircle
 10
144.2542531413435
 20
18.72960360950847
 30
0.0
 40
64.95474244683605
100
AcDbArc
 50
177.2695926307304
 51
181.4833117237826
  0
ARC
  5
138
330
1F
100
AcDbEntity
  8
0
  6
CONTINUOUS
 62
     3
100
AcDbCircle
 10
78.70908200122267
 20
26.17417570522227
 30
0.0
 40
4.40075883349047
100
AcDbArc
 50
261.7986203004403
 51
278.6803384946418
  0
ARC
  5
139
330
1F
100
AcDbEntity
  8
0
  6
CONTINUOUS
 62
     3
100
AcDbCircle
 10
81.16056099353722
 20
22.07501381160503
 30
0.0
 40
4.13640681469402
100
AcDbArc
 50
278.4088456599976
 51
286.1851416003176
  0
ARC
  5
13A
330
1F
100
AcDbEntity
  8
0
  6
CONTINUOUS
 62
     3
100
AcDbCircle
 10
82.05660651757705
 20
16.08318862667963
 30
0.0
 40
1.92206578615521
100
AcDbArc
 50
98.71271710191789
 51
115.2874718053599
  0
ARC
  5
13B
330
1F
100
AcDbEntity
  8
0
  6
CONTINUOUS
 62
     3
100
AcDbCircle
 10
81.50701866837844
 20
17.25807479047168
 30
0.0
 40
0.62501943345705
100
AcDbArc
 50
115.7403688633493
 51
172.5491744442191
  0
LINE
  5
13C
330
1F
100
AcDbEntity
  8
0
  6
CONTINUOUS
 62
     3
100
AcDbLine
 10
80.88727657332493
 20
17.33912432975407
 30
0.0
 11
80.88727657332493
 21
17.14337432975404
 31
0.0
  0
ARC
  5
13D
330
1F
100
AcDbEntity
  8
0
  6
CONTINUOUS
 62
     3
100
AcDbCircle
 10
81.46959653488744
 20
17.17461380097765
 30
0.0
 40
0.583157304847
100
AcDbArc
 50
183.0707787095794
 51
263.4402016072427
  0
LINE
  5
13E
330
1F
100
AcDbEntity
  8
0
  6
CONTINUOUS
 62
     3
100
AcDbLine
 10
81.4029765733249
 20
16.59527432975401
 30
0.0
 11
81.57645157332504
 21
16.59527432975401
 31
0.0
  0
ARC
  5
13F
330
1F
100
AcDbEntity
  8
0
  6
CONTINUOUS
 62
     3
100
AcDbCircle
 10
81.4324469076592
 20
17.57836489530197
 30
0.0
 40
0.99358160399792
100
AcDbArc
 50
278.3335103000368
 51
329.1221464187299
  0
ARC
  5
140
330
1F
100
AcDbEntity
  8
0
  6
CONTINUOUS
 62
     3
100
AcDbCircle
 10
-2246.601542217735
 20
81.43265245587818
 30
0.0
 40
2329.776001260591
100
AcDbArc
 50
358.4169008257799
 51
358.4423418242109
  0
ARC
  5
141
330
1F
100
AcDbEntity
  8
0
  6
CONTINUOUS
 62
     3
100
AcDbCircle
 10
84.25808780069312
 20
12.45069254511711
 30
0.0
 40
3.9689090944185
100
AcDbArc
 50
85.07099551674689
 51
93.91830029343228
  0
ARC
  5
142
330
1F
100
AcDbEntity
  8
0
  6
CONTINUOUS
 62
     3
100
AcDbCircle
 10
91.94088578951047
 20
17.2915014700981
 30
0.0
 40
7.39512099311493
100
AcDbArc
 50
179.8977458165987
 51
186.8855675734268
  0
ARC
  5
143
330
1F
100
AcDbEntity
  8
0
  6
CONTINUOUS
 62
     3
100
AcDbCircle
 10
85.65661722366394
 20
18.40795225138058
 30
0.0
 40
1.10839895631813
100
AcDbArc
 50
134.9787476233347
 51
181.2369872983282
  0
ARC
  5
144
330
1F
100
AcDbEntity
  8
0
  6
CONTINUOUS
 62
     3
100
AcDbCircle
 10
85.40100145205537
 20
18.52366273138691
 30
0.0
 40
0.851645057047
100
AcDbArc
 50
42.91644474042847
 51
128.3015542351336
  0
ARC
  5
145
330
1F
100
AcDbEntity
  8
0
  6
CONTINUOUS
 62
     3
100
AcDbCircle
 10
85.09447404568527
 20
18.50315138821534
 30
0.0
 40
1.10717250774415
100
AcDbArc
 50
359.2495022237244
 51
32.84055016678327
  0
ARC
  5
146
330
1F
100
AcDbEntity
  8
0
  6
CONTINUOUS
 62
     3
100
AcDbCircle
 10
69.71173378649746
 20
17.6775133788245
 30
0.0
 40
16.50975566668588
100
AcDbArc
 50
355.5862454873798
 51
2.816115806820253
  0
ARC
  5
147
330
1F
100
AcDbEntity
  8
0
  6
CONTINUOUS
 62
     3
100
AcDbCircle
 10
86.45771407332512
 20
13.26015261922768
 30
0.0
 40
3.15969325212674
100
AcDbArc
 50
84.82155189294139
 51
95.17844810705873
  0
ARC
  5
148
330
1F
100
AcDbEntity
  8
0
  6
CONTINUOUS
 62
     3
100
AcDbCircle
 10
103.0657633661698
 20
17.19067374739117
 30
0.0
 40
16.34166579853822
100
AcDbArc
 50
176.2131780319488
 51
182.7488833337936
  0
ARC
  5
149
330
1F
100
AcDbEntity
  8
0
  6
CONTINUOUS
 62
     3
100
AcDbCircle
 10
80.6191360121006
 20
18.43315774812132
 30
0.0
 40
6.14280908786696
100
AcDbArc
 50
358.4775281223095
 51
2.117232414210064
  0
ARC
  5
14A
330
1F
100
AcDbEntity
  8
0
  6
CONTINUOUS
 62
     3
100
AcDbCircle
 10
85.57905515344822
 20
18.66285942451518
 30
0.0
 40
1.17869965146059
100
AcDbArc
 50
359.8658335690532
 51
34.49363429411157
  0
ARC
  5
14B
330
1F
100
AcDbEntity
  8
0
  6
CONTINUOUS
 62
     3
100
AcDbCircle
 10
85.77724057413769
 20
18.79204664797973
 30
0.0
 40
0.94221437555554
100
AcDbArc
 50
34.84393737091607
 51
92.5207065423111
  0
ARC
  5
14C
330
1F
100
AcDbEntity
  8
0
  6
CONTINUOUS
 62
     3
100
AcDbCircle
 10
85.67541069002553
 20
18.39275988818591
 30
0.0
 40
1.34194899665726
100
AcDbArc
 50
87.42068310381028
 51
147.4361518966862
  0
ARC
  5
14D
330
1F
100
AcDbEntity
  8
0
  6
CONTINUOUS
 62
     3
100
AcDbCircle
 10
88.30574727396163
 20
19.20785681383043
 30
0.0
 40
3.76246550045818
100
AcDbArc
 50
172.9875214416311
 51
181.4134392789641
  0
ARC
  5
14E
330
1F
100
AcDbEntity
  8
0
  6
CONTINUOUS
 62
     3
100
AcDbCircle
 10
84.27082849861245
 20
20.82206879814484
 30
0.0
 40
1.19334935854602
100
AcDbArc
 50
255.9341994177206
 51
284.5896440601899
  0
ARC
  5
14F
330
1F
100
AcDbEntity
  8
0
  6
CONTINUOUS
 62
     3
100
AcDbCircle
 10
63.61176988671596
 20
17.99938058671748
 30
0.0
 40
20.43697806131073
100
AcDbArc
 50
355.5405243117485
 51
4.673398698656258
  0
LINE
  5
150
330
1F
100
AcDbEntity
  8
0
  6
CONTINUOUS
 62
     3
100
AcDbLine
 10
84.54847657332502
 20
18.38402432975406
 30
0.0
 11
84.54847657332502
 21
17.30469932975402
 31
0.0
  0
CIRCLE
  5
151
330
1F
100
AcDbEntity
  8
0
  6
CONTINUOUS
 62
     3
100
AcDbCircle
 10
88.22855140383348
 20
20.85835466873695
 30
0.0
 40
0.35723344667699
  0
ARC
  5
152
330
1F
100
AcDbEntity
  8
0
  6
CONTINUOUS
 62
     3
100
AcDbCircle
 10
88.21456076027724
 20
20.95332474358079
 30
0.0
 40
1.31922854884021
100
AcDbArc
 50
256.6209501743446
 51
283.9984576255729
  0
ARC
  5
153
330
1F
100
AcDbEntity
  8
0
  6
CONTINUOUS
 62
     3
100
AcDbCircle
 10
88.24144089371339
 20
9.879804184123117
 30
0.0
 40
6.53285948525109
100
AcDbArc
 50
87.46575055044718
 51
92.90832285102188
  0
ARC
  5
154
330
1F
100
AcDbEntity
  8
0
  6
CONTINUOUS
 62
     3
100
AcDbCircle
 10
108.8254047179556
 20
18.01881005739367
 30
0.0
 40
20.35906390589001
100
AcDbArc
 50
175.3387608397566
 51
184.5428594926176
  0
ARC
  5
155
330
1F
100
AcDbEntity
  8
0
  6
CONTINUOUS
 62
     3
100
AcDbCircle
 10
65.76900575363874
 20
18.03249792766215
 30
0.0
 40
22.20076085035812
100
AcDbArc
 50
355.7940354718673
 51
4.229650257234378
  0
ARC
  5
156
330
1F
100
AcDbEntity
  8
0
  6
CONTINUOUS
 62
     3
100
AcDbCircle
 10
122.7644453232814
 20
100.7029743296419
 30
0.0
 40
87.02800228963157
100
AcDbArc
 50
248.6422112053103
 51
248.8567777804232
  0
ARC
  5
157
330
1F
100
AcDbEntity
  8
0
  6
CONTINUOUS
 62
     3
100
AcDbCircle
 10
90.68542828460573
 20
18.7166303836394
 30
0.0
 40
1.01090786759216
100
AcDbArc
 50
67.66151957087348
 51
88.69073168448988
  0
ARC
  5
158
330
1F
100
AcDbEntity
  8
0
  6
CONTINUOUS
 62
     3
100
AcDbCircle
 10
90.577110442839
 20
18.40979097937597
 30
0.0
 40
1.31997486536753
100
AcDbArc
 50
92.38301574576484
 51
114.9635286746436
  0
ARC
  5
159
330
1F
100
AcDbEntity
  8
0
  6
CONTINUOUS
 62
     3
100
AcDbCircle
 10
90.47963496799605
 20
18.72009291101867
 30
0.0
 40
0.99843256030919
100
AcDbArc
 50
117.4083995939977
 51
176.1964688215695
  0
ARC
  5
15A
330
1F
100
AcDbEntity
  8
0
  6
CONTINUOUS
 62
     3
100
AcDbCircle
 10
90.15599257925993
 20
18.62192769075526
 30
0.0
 40
0.66937260590561
100
AcDbArc
 50
181.2393899443581
 51
226.5942921332421
  0
ARC
  5
15B
330
1F
100
AcDbEntity
  8
0
  6
CONTINUOUS
 62
     3
100
AcDbCircle
 10
90.55268145799496
 20
19.02396411006683
 30
0.0
 40
1.23410095077957
100
AcDbArc
 50
226.0402388947521
 51
253.1776672992999
  0
ARC
  5
15C
330
1F
100
AcDbEntity
  8
0
  6
CONTINUOUS
 62
     3
100
AcDbCircle
 10
89.51714891830429
 20
14.99457141755207
 30
0.0
 40
2.92777841397275
100
AcDbArc
 50
63.49050203733571
 51
76.60259219849584
  0
ARC
  5
15D
330
1F
100
AcDbEntity
  8
0
  6
CONTINUOUS
 62
     3
100
AcDbCircle
 10
90.63080045853661
 20
17.19846225433164
 30
0.0
 40
0.45871015221901
100
AcDbArc
 50
6.53892419415897
 51
65.09756080693691
  0
ARC
  5
15E
330
1F
100
AcDbEntity
  8
0
  6
CONTINUOUS
 62
     3
100
AcDbCircle
 10
90.50357777446516
 20
17.17002363757152
 30
0.0
 40
0.59439549187668
100
AcDbArc
 50
270.8867385422408
 51
352.7925382056677
  0
ARC
  5
15F
330
1F
100
AcDbEntity
  8
0
  6
CONTINUOUS
 62
     3
100
AcDbCircle
 10
90.46361043234862
 20
17.46658639777385
 30
0.0
 40
0.89800403546253
100
AcDbArc
 50
207.7689879465537
 51
262.7817283832026
  0
ARC
  5
160
330
1F
100
AcDbEntity
  8
0
  6
CONTINUOUS
 62
     3
100
AcDbCircle
 10
90.27930054592767
 20
18.08156576811021
 30
0.0
 40
1.75327631578002
100
AcDbArc
 50
241.8829576087176
 51
265.9354096935781
  0
ARC
  5
161
330
1F
100
AcDbEntity
  8
0
  6
CONTINUOUS
 62
     3
100
AcDbCircle
 10
90.44663886467555
 20
17.46692467118029
 30
0.0
 40
1.13451505818065
100
AcDbArc
 50
271.2948770866743
 51
348.6654156292868
  0
ARC
  5
162
330
1F
100
AcDbEntity
  8
0
  6
CONTINUOUS
 62
     3
100
AcDbCircle
 10
90.82045721291956
 20
17.45217258531559
 30
0.0
 40
0.74624507572961
100
AcDbArc
 50
6.154262763177246
 51
76.17509904255616
  0
ARC
  5
163
330
1F
100
AcDbEntity
  8
0
  6
CONTINUOUS
 62
     3
100
AcDbCircle
 10
92.25384669692056
 20
23.39359310503502
 30
0.0
 40
5.36564425851668
100
AcDbArc
 50
249.6420733479936
 51
256.4727051201885
  0
ARC
  5
164
330
1F
100
AcDbEntity
  8
0
  6
CONTINUOUS
 62
     3
100
AcDbCircle
 10
90.6072135238744
 20
19.03138641766608
 30
0.0
 40
0.70356370733718
100
AcDbArc
 50
210.9501336849607
 51
251.7794729821079
  0
ARC
  5
165
330
1F
100
AcDbEntity
  8
0
  6
CONTINUOUS
 62
     3
100
AcDbCircle
 10
91.33031407332632
 20
19.1382318297544
 30
0.0
 40
1.4068519372934
100
AcDbArc
 50
193.4375782160214
 51
199.459638038058
  0
ARC
  5
166
330
1F
100
AcDbEntity
  8
0
  6
CONTINUOUS
 62
     3
100
AcDbCircle
 10
90.50350964860536
 20
18.92674994707923
 30
0.0
 40
0.53561393110393
100
AcDbArc
 50
92.11404364449162
 51
173.4175047026091
  0
ARC
  5
167
330
1F
100
AcDbEntity
  8
0
  6
CONTINUOUS
 62
     3
100
AcDbCircle
 10
90.54147339127505
 20
18.85429236291648
 30
0.0
 40
0.61258643010225
100
AcDbArc
 50
17.92452211681263
 51
85.16543319077402
  0
LINE
  5
168
330
1F
100
AcDbEntity
  8
0
  6
CONTINUOUS
 62
     3
100
AcDbLine
 10
90.70852657332503
 20
19.72727432975395
 30
0.0
 11
90.52222657332501
 21
19.72727432975395
 31
0.0
  0
LINE
  5
169
330
1F
100
AcDbEntity
  8
0
  6
CONTINUOUS
 62
     3
100
AcDbLine
 10
90.35077657332502
 20
16.57569932975397
 30
0.0
 11
90.512776573325
 21
16.57569932975397
 31
0.0
  0
LINE
  5
16A
330
1F
100
AcDbEntity
  8
0
  6
CONTINUOUS
 62
     3
100
AcDbLine
 10
89.66902657332506
 20
17.04819932975388
 30
0.0
 11
89.58127657332506
 21
17.04819932975388
 31
0.0
  0
LINE
  5
16B
330
1F
100
AcDbEntity
  8
0
  6
CONTINUOUS
 62
     3
100
AcDbLine
 10
90.15502657332499
 20
16.33269932975386
 30
0.0
 11
90.47227657332493
 21
16.33269932975386
 31
0.0
  0
LINE
  5
16C
330
1F
100
AcDbEntity
  8
0
  6
CONTINUOUS
 62
     3
100
AcDbLine
 10
80.61727657332506
 20
18.97194932975387
 30
0.0
 11
80.70502657332506
 21
18.97194932975387
 31
0.0
  0
ARC
  5
16D
330
1F
100
AcDbEntity
  8
0
  6
CONTINUOUS
 62
     3
100
AcDbCircle
 10
88.45344131320937
 20
17.05779759564982
 30
0.0
 40
1.12795374007884
100
AcDbArc
 50
332.3987521421788
 51
359.5124385477116
  0
LINE
  5
16E
330
1F
100
AcDbEntity
  8
0
  6
CONTINUOUS
 62
     3
100
AcDbLine
 10
91.08652657332493
 20
17.25069932975393
 30
0.0
 11
91.09327657332508
 21
17.09544932975396
 31
0.0
  0
LINE
  5
16F
330
1F
100
AcDbEntity
  8
0
  6
CONTINUOUS
 62
     3
100
AcDbLine
 10
91.56240157332513
 20
17.5321743297541
 30
0.0
 11
91.55902657332499
 21
17.24394932975392
 31
0.0
  0
LINE
  5
170
330
1F
100
AcDbEntity
  8
0
  6
CONTINUOUS
 62
     3
100
AcDbLine
 10
89.97142657332498
 20
18.9881493297539
 30
0.0
 11
89.96197657332496
 21
18.81129932975389
 31
0.0
  0
LINE
  5
171
330
1F
100
AcDbEntity
  8
0
  6
CONTINUOUS
 62
     3
100
AcDbLine
 10
89.48340157332504
 20
18.78632432975385
 30
0.0
 11
89.4867765733249
 21
18.60744932975612
 31
0.0
  0
LINE
  5
172
330
1F
100
AcDbEntity
  8
0
  6
CONTINUOUS
 62
     3
100
AcDbLine
 10
90.48375157332495
 20
19.46199932975409
 30
0.0
 11
90.59310157332499
 21
19.4646993297541
 31
0.0
  0
LINE
  5
173
330
1F
100
AcDbEntity
  8
0
  6
CONTINUOUS
 62
     3
100
AcDbLine
 10
91.12432657332499
 20
19.04282432975398
 30
0.0
 11
91.2097093486731
 21
19.04282432975398
 31
0.0
  0
ARC
  5
174
330
1F
100
AcDbEntity
  8
0
  6
CONTINUOUS
 62
     3
100
AcDbCircle
 10
93.084248106887
 20
18.69019437507481
 30
0.0
 40
1.90741800373783
100
AcDbArc
 50
153.7591918158497
 51
169.3462759801917
  0
TEXT
  5
175
330
1F
100
AcDbEntity
  8
0
  6
CONTINUOUS
 62
     2
100
AcDbText
 10
92.90000000000029
 20
15.84999999999994
 30
0.0
 40
3.375
  1
ジャニス工業株式会社
 41
1.025641025641026
  7
EXCADTTF1
 72
     5
 11
137.9000000000003
 21
15.84999999999994
 31
0.0
100
AcDbText
  0
TEXT
  5
176
330
1F
100
AcDbEntity
  8
枠_表
  6
CONTINUOUS
 62
     2
100
AcDbText
 10
20.25
 20
30.87499999999994
 30
0.0
 40
4.25
  1
製図
 41
1.509694117647059
  7
EXCADSTD
 72
     5
 11
30.3326
 21
30.87499999999994
 31
0.0
100
AcDbText
  0
TEXT
  5
177
330
1F
100
AcDbEntity
  8
枠_表
  6
CONTINUOUS
 62
     2
100
AcDbText
 10
35.75
 20
30.87499999999994
 30
0.0
 40
4.25
  1
写図
 41
1.509694117647059
  7
EXCADSTD
 72
     5
 11
45.8326
 21
30.87499999999994
 31
0.0
100
AcDbText
  0
TEXT
  5
178
330
1F
100
AcDbEntity
  8
枠_表
  6
CONTINUOUS
 62
     2
100
AcDbText
 10
50.75
 20
30.87499999999994
 30
0.0
 40
4.25
  1
検図
 41
1.303826737967915
  7
EXCADSTD
 72
     5
 11
59.4577
 21
30.87499999999994
 31
0.0
100
AcDbText
  0
TEXT
  5
179
330
1F
100
AcDbEntity
  8
枠_表
  6
CONTINUOUS
 62
     2
100
AcDbText
 10
63.75
 20
30.87499999999994
 30
0.0
 40
4.25
  1
承認
 41
1.303826737967915
  7
EXCADSTD
 72
     5
 11
72.4577
 21
30.87499999999994
 31
0.0
100
AcDbText
  0
TEXT
  5
17A
330
1F
100
AcDbEntity
  8
枠_表
  6
CONTINUOUS
 62
     2
100
AcDbText
 10
75.575
 20
29.87499999999994
 30
0.0
 40
4.25
  1
品
 41
1.120000000000002
  7
EXCADSTD
 72
     5
 11
78.97500000000001
 21
29.87499999999994
 31
0.0
100
AcDbText
  0
TEXT
  5
17B
330
1F
100
AcDbEntity
  8
枠_表
  6
CONTINUOUS
 62
     2
100
AcDbText
 10
75.575
 20
24.87499999999994
 30
0.0
 40
4.25
  1
名
 41
1.120000000000002
  7
EXCADSTD
 72
     5
 11
78.97500000000001
 21
24.87499999999994
 31
0.0
100
AcDbText
  0
TEXT
  5
17C
330
1F
100
AcDbEntity
  8
枠_表
  6
CONTINUOUS
 62
     2
100
AcDbText
 10
139.575
 20
29.87499999999994
 30
0.0
 40
4.25
  1
品
 41
1.120000000000002
  7
EXCADSTD
 72
     5
 11
142.975
 21
29.87499999999994
 31
0.0
100
AcDbText
  0
TEXT
  5
17D
330
1F
100
AcDbEntity
  8
枠_表
  6
CONTINUOUS
 62
     2
100
AcDbText
 10
139.575
 20
24.87499999999994
 30
0.0
 40
4.25
  1
番
 41
1.120000000000002
  7
EXCADSTD
 72
     5
 11
142.975
 21
24.87499999999994
 31
0.0
100
AcDbText
  0
TEXT
  5
17E
330
1F
100
AcDbEntity
  8
枠_表
  6
CONTINUOUS
 62
     2
100
AcDbText
 10
181.675
 20
29.87499999999994
 30
0.0
 40
4.25
  1
尺
 41
1.120000000000002
  7
EXCADSTD
 72
     5
 11
185.075
 21
29.87499999999994
 31
0.0
100
AcDbText
  0
TEXT
  5
17F
330
1F
100
AcDbEntity
  8
枠_表
  6
CONTINUOUS
 62
     2
100
AcDbText
 10
181.675
 20
24.87499999999994
 30
0.0
 40
4.25
  1
度
 41
1.120000000000002
  7
EXCADSTD
 72
     5
 11
185.075
 21
24.87499999999994
 31
0.0
100
AcDbText
  0
TEXT
  5
180
330
1F
100
AcDbEntity
  8
枠_表
  6
CONTINUOUS
 62
     2
100
AcDbText
 10
139.575
 20
18.57499999999993
 30
0.0
 40
4.25
  1
図
 41
1.120000000000002
  7
EXCADSTD
 72
     5
 11
142.975
 21
18.57499999999993
 31
0.0
100
AcDbText
  0
TEXT
  5
181
330
1F
100
AcDbEntity
  8
枠_表
  6
CONTINUOUS
 62
     2
100
AcDbText
 10
139.575
 20
14.27499999999992
 30
0.0
 40
4.25
  1
番
 41
1.120000000000002
  7
EXCADSTD
 72
     5
 11
142.975
 21
14.27499999999992
 31
0.0
100
AcDbText
  0
LINE
  5
182
330
1F
100
AcDbEntity
  8
枠_表
  6
CONTINUOUS
 62
     6
100
AcDbLine
 10
200.0
 20
23.49999999999994
 30
0.0
 11
75.0
 21
23.49999999999994
 31
0.0
  0
LINE
  5
183
330
1F
100
AcDbEntity
  8
枠_表
  6
CONTINUOUS
 62
     6
100
AcDbLine
 10
186.0
 20
35.49999999999994
 30
0.0
 11
186.0
 21
23.49999999999994
 31
0.0
  0
LINE
  5
184
330
1F
100
AcDbEntity
  8
枠_表
  6
CONTINUOUS
 62
     6
100
AcDbLine
 10
181.0
 20
35.49999999999994
 30
0.0
 11
181.0
 21
23.49999999999994
 31
0.0
  0
LINE
  5
185
330
1F
100
AcDbEntity
  8
枠_表
  6
CONTINUOUS
 62
     6
100
AcDbLine
 10
144.0
 20
35.49999999999994
 30
0.0
 11
144.0
 21
13.49999999999994
 31
0.0
  0
LINE
  5
186
330
1F
100
AcDbEntity
  8
枠_表
  6
CONTINUOUS
 62
     6
100
AcDbLine
 10
139.0
 20
35.49999999999994
 30
0.0
 11
139.0
 21
13.49999999999994
 31
0.0
  0
LINE
  5
187
330
1F
100
AcDbEntity
  8
枠_表
  6
CONTINUOUS
 62
     6
100
AcDbLine
 10
80.0
 20
35.49999999999994
 30
0.0
 11
80.0
 21
23.49999999999994
 31
0.0
  0
LINE
  5
188
330
1F
100
AcDbEntity
  8
枠_表
  6
CONTINUOUS
 62
     6
100
AcDbLine
 10
75.0
 20
35.49999999999994
 30
0.0
 11
75.0
 21
13.49999999999994
 31
0.0
  0
LINE
  5
189
330
1F
100
AcDbEntity
  8
枠_表
  6
CONTINUOUS
 62
     6
100
AcDbLine
 10
62.0
 20
35.49999999999994
 30
0.0
 11
62.0
 21
13.49999999999994
 31
0.0
  0
LINE
  5
18A
330
1F
100
AcDbEntity
  8
枠_表
  6
CONTINUOUS
 62
     6
100
AcDbLine
 10
49.0
 20
35.49999999999994
 30
0.0
 11
49.0
 21
13.49999999999994
 31
0.0
  0
LINE
  5
18B
330
1F
100
AcDbEntity
  8
枠_表
  6
CONTINUOUS
 62
     6
100
AcDbLine
 10
33.5
 20
35.49999999999994
 30
0.0
 11
33.5
 21
13.49999999999994
 31
0.0
  0
LINE
  5
18C
330
1F
100
AcDbEntity
  8
枠_表
  6
CONTINUOUS
 62
     6
100
AcDbLine
 10
18.0
 20
30.49999999999994
 30
0.0
 11
75.0
 21
30.49999999999994
 31
0.0
  0
CIRCLE
  5
18D
330
1F
100
AcDbEntity
  8
枠_表
  6
CONTINUOUS
 62
     6
100
AcDbCircle
 10
23.0
 20
15.99999999999994
 30
0.0
 40
0.10000002
  0
CIRCLE
  5
18E
330
1F
100
AcDbEntity
  8
枠_表
  6
CONTINUOUS
 62
     6
100
AcDbCircle
 10
28.0
 20
15.99999999999994
 30
0.0
 40
0.10000002
  0
CIRCLE
  5
18F
330
1F
100
AcDbEntity
  8
枠_表
  6
CONTINUOUS
 62
     6
100
AcDbCircle
 10
38.5
 20
15.99999999999994
 30
0.0
 40
0.10000002
  0
CIRCLE
  5
190
330
1F
100
AcDbEntity
  8
枠_表
  6
CONTINUOUS
 62
     6
100
AcDbCircle
 10
43.5
 20
15.99999999999994
 30
0.0
 40
0.10000002
  0
LINE
  5
191
330
1F
100
AcDbEntity
  8
枠_表
  6
EXLTYPE2
 62
     6
100
AcDbLine
 10
18.0
 20
18.49999999999994
 30
0.0
 11
49.0
 21
18.49999999999994
 31
0.0
  0
LINE
  5
192
330
1F
100
AcDbEntity
  8
枠_表
  6
CONTINUOUS
 62
     7
100
AcDbLine
 10
18.0
 20
13.49999999999994
 30
0.0
 11
200.0
 21
13.49999999999994
 31
0.0
  0
LINE
  5
193
330
1F
100
AcDbEntity
  8
枠_表
  6
CONTINUOUS
 62
     7
100
AcDbLine
 10
18.0
 20
35.49999999999994
 30
0.0
 11
200.0
 21
35.49999999999994
 31
0.0
  0
CIRCLE
  5
194
330
1F
100
AcDbEntity
  8
枠_表
  6
CONTINUOUS
 62
     6
100
AcDbCircle
 10
23.00000000000004
 20
15.99999999999994
 30
0.0
 40
0.10000002
  0
CIRCLE
  5
195
330
1F
100
AcDbEntity
  8
枠_表
  6
CONTINUOUS
 62
     6
100
AcDbCircle
 10
28.00000000000004
 20
15.99999999999994
 30
0.0
 40
0.10000002
  0
TEXT
  5
196
330
1F
100
AcDbEntity
  8
枠_表
  6
CONTINUOUS
 62
     6
100
AcDbText
 10
23.00000000000034
 20
22.00000000000006
 30
0.0
 40
5.0
  1
堀
 41
1.232
  7
EXCADSTD
 72
     5
 11
27.40000000000034
 21
22.00000000000006
 31
0.0
100
AcDbText
  0
LINE
  5
197
330
1F
100
AcDbEntity
  8
枠_表
  6
CONTINUOUS
 62
     7
100
AcDbLine
 10
199.9999999999999
 20
13.5
 30
0.0
 11
199.9999999999999
 21
288.5
 31
0.0
  0
LINE
  5
198
330
1F
100
AcDbEntity
  8
枠_表
  6
CONTINUOUS
 62
     7
100
AcDbLine
 10
18.0
 20
13.5
 30
0.0
 11
18.0
 21
288.5
 31
0.0
  0
LINE
  5
199
330
1F
100
AcDbEntity
  8
枠_表
  6
EXLTYPE2
 62
     6
100
AcDbLine
 10
18.0
 20
151.0
 30
0.0
 11
1.0
 21
151.0
 31
0.0
  0
LINE
  5
19A
330
1F
100
AcDbEntity
  8
枠_表
  6
CONTINUOUS
 62
     7
100
AcDbLine
 10
18.0
 20
288.5
 30
0.0
 11
199.9999999999999
 21
288.5
 31
0.0
  0
LINE
  5
19B
330
1F
100
AcDbEntity
  8
枠_表
  6
CONTINUOUS
 62
     6
100
AcDbLine
 10
99.00000000000006
 20
280.5
 30
0.0
 11
195.0
 21
280.5
 31
0.0
  0
LINE
  5
19C
330
1F
100
AcDbEntity
  8
枠_表
  6
CONTINUOUS
 62
     6
100
AcDbLine
 10
99.00000000000006
 20
275.5
 30
0.0
 11
195.0
 21
275.5
 31
0.0
  0
LINE
  5
19D
330
1F
100
AcDbEntity
  8
枠_表
  6
CONTINUOUS
 62
     6
100
AcDbLine
 10
99.00000000000006
 20
270.5
 30
0.0
 11
195.0
 21
270.5
 31
0.0
  0
LINE
  5
19E
330
1F
100
AcDbEntity
  8
枠_表
  6
CONTINUOUS
 62
     6
100
AcDbLine
 10
99.00000000000006
 20
265.5
 30
0.0
 11
195.0
 21
265.5
 31
0.0
  0
LINE
  5
19F
330
1F
100
AcDbEntity
  8
枠_表
  6
CONTINUOUS
 62
     6
100
AcDbLine
 10
99.00000000000006
 20
260.5
 30
0.0
 11
195.0
 21
260.5
 31
0.0
  0
LINE
  5
1A0
330
1F
100
AcDbEntity
  8
枠_表
  6
CONTINUOUS
 62
     6
100
AcDbLine
 10
99.00000000000006
 20
255.5
 30
0.0
 11
195.0
 21
255.5
 31
0.0
  0
LINE
  5
1A1
330
1F
100
AcDbEntity
  8
枠_表
  6
CONTINUOUS
 62
     6
100
AcDbLine
 10
99.00000000000006
 20
250.5
 30
0.0
 11
195.0
 21
250.5
 31
0.0
  0
LINE
  5
1A2
330
1F
100
AcDbEntity
  8
枠_表
  6
CONTINUOUS
 62
     6
100
AcDbLine
 10
99.00000000000006
 20
245.5
 30
0.0
 11
195.0
 21
245.5
 31
0.0
  0
LINE
  5
1A3
330
1F
100
AcDbEntity
  8
枠_表
  6
CONTINUOUS
 62
     6
100
AcDbLine
 10
99.00000000000006
 20
240.5
 30
0.0
 11
195.0
 21
240.5
 31
0.0
  0
LINE
  5
1A4
330
1F
100
AcDbEntity
  8
枠_表
  6
CONTINUOUS
 62
     6
100
AcDbLine
 10
99.00000000000006
 20
235.5
 30
0.0
 11
195.0
 21
235.5
 31
0.0
  0
LINE
  5
1A5
330
1F
100
AcDbEntity
  8
枠_表
  6
CONTINUOUS
 62
     6
100
AcDbLine
 10
99.00000000000006
 20
230.5
 30
0.0
 11
99.00000000000006
 21
280.5
 31
0.0
  0
LINE
  5
1A6
330
1F
100
AcDbEntity
  8
枠_表
  6
CONTINUOUS
 62
     6
100
AcDbLine
 10
195.0
 20
230.5
 30
0.0
 11
195.0
 21
280.5
 31
0.0
  0
LINE
  5
1A7
330
1F
100
AcDbEntity
  8
枠_表
  6
CONTINUOUS
 62
     6
100
AcDbLine
 10
124.0000000000001
 20
230.5
 30
0.0
 11
124.0000000000001
 21
280.5
 31
0.0
  0
LINE
  5
1A8
330
1F
100
AcDbEntity
  8
枠_表
  6
CONTINUOUS
 62
     6
100
AcDbLine
 10
195.0
 20
230.5
 30
0.0
 11
99.00000000000006
 21
230.5
 31
0.0
  0
TEXT
  5
1A9
330
1F
100
AcDbEntity
  8
枠_表
  6
CONTINUOUS
 62
     6
100
AcDbText
 10
18.63441156754793
 20
14.44500731999995
 30
0.0
 40
3.0
  1
'19
 41
0.4791735838265523
  7
EXCADSTD
 72
     5
 11
21.78326654697956
 21
14.44500731999995
 31
0.0
100
AcDbText
  0
TEXT
  5
1AA
330
1F
100
AcDbEntity
  8
枠_表
  6
CONTINUOUS
 62
     6
100
AcDbText
 10
30.06441158542934
 20
14.44500731999995
 30
0.0
 40
3.0
  1
1
 41
0.7238636363636359
  7
EXCADSTD
 72
     5
 11
31.20191158542934
 21
14.44500731999995
 31
0.0
100
AcDbText
  0
TEXT
  5
1AB
330
1F
100
AcDbEntity
  8
枠_表
  6
CONTINUOUS
 62
     6
100
AcDbText
 10
24.9069116056949
 20
14.44500731999995
 30
0.0
 40
3.0
  1
2
 41
0.4683823529411762
  7
EXCADSTD
 72
     5
 11
26.0444116056949
 21
14.44500731999995
 31
0.0
100
AcDbText
  0
TEXT
  5
1AC
330
1F
100
AcDbEntity
  8
枠_表
  6
CONTINUOUS
 62
     2
100
AcDbText
 10
80.86108397999999
 20
26.32713317999992
 30
0.0
 40
6.0
  1
７５０ｍｍ幅　化粧鏡台
 41
0.9423076901680386
  7
EXCADSTD
 72
     5
 11
133.3610838607907
 21
26.32713317999992
 31
0.0
100
AcDbText
  0
TEXT
  5
1AD
330
1F
100
AcDbEntity
  8
枠_表
  6
CONTINUOUS
 62
     2
100
AcDbText
 10
144.4295166
 20
29.39315490999992
 30
0.0
 40
5.0
  1
ＬＵＭ７５１０ＰＬＮ
 41
0.8542372881355933
  7
EXCADSTD
 72
     5
 11
180.4295166
 21
29.39315490999992
 31
0.0
100
AcDbText
  0
TEXT
  5
1AE
330
1F
100
AcDbEntity
  8
枠_表
  6
CONTINUOUS
 62
     2
100
AcDbText
 10
144.4295166
 20
24.39315490999992
 30
0.0
 40
5.0
  1
ＬＵＭ７５１０ＰＬＨ
 41
0.8542372881355933
  7
EXCADSTD
 72
     5
 11
180.4295166
 21
24.39315490999992
 31
0.0
100
AcDbText
  0
LINE
  5
1AF
330
1F
100
AcDbEntity
  8
枠_表
  6
CONTINUOUS
 62
     6
100
AcDbLine
 10
189.06538086
 20
25.8002929699999
 30
0.0
 11
196.79938965
 21
33.66998290999992
 31
0.0
  0
TEXT
  5
1B0
330
1F
100
AcDbEntity
  8
枠_表
  6
CONTINUOUS
 62
     2
100
AcDbText
 10
188.85371094
 20
30.27227782999992
 30
0.0
 40
4.0
  1
１
 41
1.119999999999996
  7
EXCADSTD
 72
     5
 11
192.05371094
 21
30.27227782999992
 31
0.0
100
AcDbText
  0
TEXT
  5
1B1
330
1F
100
AcDbEntity
  8
枠_表
  6
CONTINUOUS
 62
     2
100
AcDbText
 10
191.8779297376838
 20
25.33488463999991
 30
0.0
 40
4.0
  1
１０
 41
1.130126136363635
  7
EXCADSTD
 72
     5
 11
198.9815797376837
 21
25.33488463999991
 31
0.0
100
AcDbText
  0
TEXT
  5
1B2
330
1F
100
AcDbEntity
  8
枠_表
  6
CONTINUOUS
 62
     7
100
AcDbText
 10
145.200000166893
 20
15.14999999999992
 30
0.0
 40
7.0
  1
ＬＵ９１０９０３
 41
1.140425524813064
  7
EXCADSTD
 72
     5
 11
198.799999833107
 21
15.14999999999992
 31
0.0
100
AcDbText
  0
TEXT
  5
1B3
330
1F
100
AcDbEntity
  8
枠_表
  6
CONTINUOUS
 62
     6
100
AcDbText
 10
50.65000000596079
 20
22.00000000000006
 30
0.0
 40
5.0
  1
間瀬
 41
1.189913453154781
  7
EXCADSTD
 72
     5
 11
59.99931999503407
 21
22.00000000000006
 31
0.0
100
AcDbText
  0
TEXT
  5
1B4
330
1F
100
AcDbEntity
  8
枠_表
  6
CONTINUOUS
 62
     6
100
AcDbText
 10
63.65000000596079
 20
22.00000000000006
 30
0.0
 40
5.0
  1
椎葉
 41
1.189913453154781
  7
EXCADSTD
 72
     5
 11
72.99931999503407
 21
22.00000000000006
 31
0.0
100
AcDbText
  0
TEXT
  5
1B5
330
1F
100
AcDbEntity
  8
枠_表
  6
CONTINUOUS
 62
     2
100
AcDbText
 10
99.50000000000017
 20
276.0
 30
0.0
 40
4.0
  1
本体
 41
1.195746361898021
  7
EXCADSTD
 72
     5
 11
107.0161199890734
 21
276.0
 31
0.0
100
AcDbText
  0
TEXT
  5
1B6
330
1F
100
AcDbEntity
  8
枠_表
  6
CONTINUOUS
 62
     2
100
AcDbText
 10
99.50000000000017
 20
266.0
 30
0.0
 40
4.0
  1
照明器具
 41
1.186956519018049
  7
EXCADSTD
 72
     5
 11
115.0999999642374
 21
266.0
 31
0.0
100
AcDbText
  0
TEXT
  5
1B7
330
1F
100
AcDbEntity
  8
枠_表
  6
CONTINUOUS
 62
     2
100
AcDbText
 10
99.50000000000017
 20
256.0
 30
0.0
 40
4.0
  1
電源コード
 41
1.164655169536328
  7
EXCADSTD
 72
     5
 11
118.7999999523165
 21
256.0
 31
0.0
100
AcDbText
  0
TEXT
  5
1B8
330
1F
100
AcDbEntity
  8
枠_表
  6
CONTINUOUS
 62
     2
100
AcDbText
 10
99.50000000000017
 20
271.0
 30
0.0
 40
4.0
  1
鏡
 41
1.259999999999998
  7
EXCADSTD
 72
     5
 11
103.1000000000002
 21
271.0
 31
0.0
100
AcDbText
  0
TEXT
  5
1B9
330
1F
100
AcDbEntity
  8
枠_表
  6
CONTINUOUS
 62
     2
100
AcDbText
 10
99.50000000000017
 20
261.0
 30
0.0
 40
4.0
  1
コンセント
 41
1.164655169536328
  7
EXCADSTD
 72
     5
 11
118.7999999523165
 21
261.0
 31
0.0
100
AcDbText
  0
TEXT
  5
1BA
330
1F
100
AcDbEntity
  8
枠_表
  6
CONTINUOUS
 62
     2
100
AcDbText
 10
99.00000000000017
 20
281.0
 30
0.0
 40
4.0
  1
化粧鏡台仕様
 41
1.225
  7
EXCADSTD
 72
     5
 11
123.5000000000002
 21
281.0
 31
0.0
100
AcDbText
  0
TEXT
  5
1BB
330
1F
100
AcDbEntity
  8
枠_表
  6
CONTINUOUS
 62
     2
100
AcDbText
 10
124.5000000000002
 20
271.0
 30
0.0
 40
4.0
  1
防湿形
 41
1.22499999754569
  7
EXCADSTD
 72
     5
 11
136.3999999761583
 21
271.0
 31
0.0
100
AcDbText
  0
TEXT
  5
1BC
330
1F
100
AcDbEntity
  8
枠_表
  6
CONTINUOUS
 62
     2
100
AcDbText
 10
124.5000000000002
 20
256.0
 30
0.0
 40
4.0
  1
ＶＦＦ　プラグ付（２.０m㎡）
 41
1.003505531822183
  7
EXCADSTD
 72
     5
 11
176.2999998331072
 21
256.0
 31
0.0
100
AcDbText
  0
TEXT
  5
1BD
330
1F
100
AcDbEntity
  8
枠_表
  6
CONTINUOUS
 62
     2
100
AcDbText
 10
124.5000000000002
 20
276.0
 30
0.0
 40
4.0
  1
合成樹脂（ＨｉＰＳ）
 41
1.121186437495684
  7
EXCADSTD
 72
     5
 11
162.2999998927118
 21
276.0
 31
0.0
100
AcDbText
  0
TEXT
  5
1BE
330
1F
100
AcDbEntity
  8
枠_表
  6
CONTINUOUS
 62
     2
100
AcDbText
 10
99.50000000000017
 20
251.0
 30
0.0
 40
4.0
  1
歯ブラシ立て
 41
1.149999997019768
  7
EXCADSTD
 72
     5
 11
122.4999999403955
 21
251.0
 31
0.0
100
AcDbText
  0
TEXT
  5
1BF
330
1F
100
AcDbEntity
  8
枠_表
  6
CONTINUOUS
 62
     2
100
AcDbText
 10
99.50000000000009
 20
241.0
 30
0.0
 40
4.0
  1
取付ねじ
 41
1.186956519018049
  7
EXCADSTD
 72
     5
 11
115.0999999642373
 21
241.0
 31
0.0
100
AcDbText
  0
TEXT
  5
1C0
330
1F
100
AcDbEntity
  8
枠_表
  6
CONTINUOUS
 62
     2
100
AcDbText
 10
124.5000000000002
 20
241.0000000000001
 30
0.0
 40
4.0
  1
化粧キャップ付木ねじ
 41
1.121186437495684
  7
EXCADSTD
 72
     5
 11
162.2999998927118
 21
241.0000000000001
 31
0.0
100
AcDbText
  0
TEXT
  5
1C1
330
1F
100
AcDbEntity
  8
枠_表
  6
CONTINUOUS
 62
     2
100
AcDbText
 10
99.50000000000017
 20
246.0
 30
0.0
 40
4.0
  1
防水テープ
 41
1.164655169536328
  7
EXCADSTD
 72
     5
 11
118.7999999523165
 21
246.0
 31
0.0
100
AcDbText
  0
TEXT
  5
1C2
330
1F
100
AcDbEntity
  8
枠_表
  6
CONTINUOUS
 62
     2
100
AcDbText
 10
124.5000000000002
 20
261.0
 30
0.0
 40
4.0
  1
許容電力：１２００Ｗ（２口）
 41
1.10903614131083
  7
EXCADSTD
 72
     5
 11
177.0999998450281
 21
261.0
 31
0.0
100
AcDbText
  0
TEXT
  5
1C3
330
1F
100
AcDbEntity
  8
枠_表
  6
CONTINUOUS
 62
     2
100
AcDbText
 10
124.5000000000002
 20
251.0
 30
0.0
 40
4.0
  1
ＰＰ
 41
1.195746361898024
  7
EXCADSTD
 72
     5
 11
132.0161199890735
 21
251.0
 31
0.0
100
AcDbText
  0
TEXT
  5
1C4
330
1F
100
AcDbEntity
  8
枠_表
  6
CONTINUOUS
 62
     2
100
AcDbText
 10
99.70000000000014
 20
230.9
 30
0.0
 40
4.0
  1
電源
 41
1.195746361898021
  7
EXCADSTD
 72
     5
 11
107.2161199890734
 21
230.9
 31
0.0
100
AcDbText
  0
TEXT
  5
1C5
330
1F
100
AcDbEntity
  8
枠_表
  6
CONTINUOUS
 62
     2
100
AcDbText
 10
124.7000000000001
 20
230.9
 30
0.0
 40
4.0
  1
ＡＣ１００Ｖ　５０/６０Ｈｚ
 41
1.044812249748603
  7
EXCADSTD
 72
     5
 11
175.0499998450281
 21
230.9
 31
0.0
100
AcDbText
  0
TEXT
  5
1C6
330
1F
100
AcDbEntity
  8
枠_表
  6
CONTINUOUS
 62
     2
100
AcDbText
 10
99.50000000000009
 20
235.9
 30
0.0
 40
4.0
  1
防曇ヒーター
 41
1.149999997019768
  7
EXCADSTD
 72
     5
 11
122.4999999403954
 21
235.9
 31
0.0
100
AcDbText
  0
TEXT
  5
1C7
330
1F
100
AcDbEntity
  8
枠_表
  6
CONTINUOUS
 62
     2
100
AcDbText
 10
124.5000000000002
 20
235.9000000000001
 30
0.0
 40
4.0
  1
２０Ｗ（ＬＵＭ７５１０ＰＬＨのみ）
 41
1.103712867982316
  7
EXCADSTD
 72
     5
 11
188.1999998092653
 21
235.9000000000001
 31
0.0
100
AcDbText
  0
TEXT
  5
1C8
330
1F
100
AcDbEntity
  8
枠_表
  6
CONTINUOUS
 62
     2
100
AcDbText
 10
124.5000000000002
 20
246.0000000000001
 30
0.0
 40
4.0
  1
合成樹脂
 41
1.186956519018048
  7
EXCADSTD
 72
     5
 11
140.0999999642374
 21
246.0000000000001
 31
0.0
100
AcDbText
  0
TEXT
  5
1C9
330
1F
100
AcDbEntity
  8
枠_表
  6
CONTINUOUS
 62
     2
100
AcDbText
 10
135.0000000000001
 20
222.0
 30
0.0
 40
4.0
  1
・電源コードの取出しは、左又は右
 41
1.105263154600796
  7
EXCADSTD
 72
     5
 11
194.9999998211861
 21
222.0
 31
0.0
100
AcDbText
  0
TEXT
  5
1CA
330
1F
100
AcDbEntity
  8
枠_表
  6
CONTINUOUS
 62
     2
100
AcDbText
 10
135.0000000000001
 20
218.0
 30
0.0
 40
4.0
  1
　有効コード長さ（参考値）
 41
1.111363633112474
  7
EXCADSTD
 72
     5
 11
183.8999998569489
 21
218.0
 31
0.0
100
AcDbText
  0
TEXT
  5
1CB
330
1F
100
AcDbEntity
  8
枠_表
  6
CONTINUOUS
 62
     2
100
AcDbText
 10
135.0000000000001
 20
214.0
 30
0.0
 40
4.0
  1
　　右取出し：１２００㎜
 41
1.114084503810171
  7
EXCADSTD
 72
     5
 11
180.1999998688698
 21
214.0
 31
0.0
100
AcDbText
  0
TEXT
  5
1CC
330
1F
100
AcDbEntity
  8
枠_表
  6
CONTINUOUS
 62
     2
100
AcDbText
 10
135.0000000000001
 20
210.0
 30
0.0
 40
4.0
  1
　　左取出し：１８５０㎜
 41
1.114084503810171
  7
EXCADSTD
 72
     5
 11
180.1999998688698
 21
210.0
 31
0.0
100
AcDbText
  0
TEXT
  5
1CD
330
1F
100
AcDbEntity
  8
枠_表
  6
CONTINUOUS
 62
     2
100
AcDbText
 10
124.5
 20
266.0000000000001
 30
0.0
 40
4.0
  1
直管ＬＥＤランプ２０形　６.７Ｗ
 41
1.094539707802263
  7
EXCADSTD
 72
     5
 11
182.2499998211861
 21
266.0000000000001
 31
0.0
100
AcDbText
  0
LINE
  5
1CE
330
1F
100
AcDbEntity
  8
鏡台
  6
CONTINUOUS
 62
     2
100
AcDbLine
 10
1045.98418786344
 20
1231.0
 30
0.0
 11
1040.9944675087
 21
1231.0
 31
0.0
  0
ARC
  5
1CF
330
1F
100
AcDbEntity
  8
鏡台
  6
CONTINUOUS
 62
     2
100
AcDbCircle
 10
391.4944673794007
 20
1436.00000987069
 30
0.0
 40
2.999999870689865
100
AcDbArc
 50
179.9999975303583
 51
269.9999975303409
  0
LINE
  5
1D0
330
1F
100
AcDbEntity
  8
鏡台
  6
CONTINUOUS
 62
     2
100
AcDbLine
 10
1115.49446776729
 20
1433.00001
 30
0.0
 11
391.4944672500897
 21
1433.00001
 31
0.0
  0
ARC
  5
1D1
330
1F
100
AcDbEntity
  8
鏡台
  6
CONTINUOUS
 62
     2
100
AcDbCircle
 10
1115.494467638021
 20
1436.00000987069
 30
0.0
 40
2.999999870689865
100
AcDbArc
 50
270.0000024696548
 51
0.0000024696418713
  0
LINE
  5
1D2
330
1F
100
AcDbEntity
  8
鏡台
  6
CONTINUOUS
 62
     2
100
AcDbLine
 10
1118.494467508711
 20
1530.0
 30
0.0
 11
1118.494467508711
 21
1436.00001
 31
0.0
  0
ARC
  5
1D3
330
1F
100
AcDbEntity
  8
鏡台
  6
CONTINUOUS
 62
     2
100
AcDbCircle
 10
1115.494467638021
 20
1530.00000012931
 30
0.0
 40
3.000000000000003
100
AcDbArc
 50
359.9999975303583
 51
89.99999753034527
  0
LINE
  5
1D4
330
1F
100
AcDbEntity
  8
鏡台
  6
CONTINUOUS
 62
     2
100
AcDbLine
 10
391.4944672500897
 20
1533.0
 30
0.0
 11
1115.49446776729
 21
1533.0
 31
0.0
  0
ARC
  5
1D5
330
1F
100
AcDbEntity
  8
鏡台
  6
CONTINUOUS
 62
     2
100
AcDbCircle
 10
391.4944673794007
 20
1530.00000012931
 30
0.0
 40
2.999999870689865
100
AcDbArc
 50
90.0000024696592
 51
180.0000024696418
  0
LINE
  5
1D6
330
1F
100
AcDbEntity
  8
鏡台
  6
CONTINUOUS
 62
     2
100
AcDbLine
 10
388.4944675087108
 20
1436.00001
 30
0.0
 11
388.4944675087108
 21
1530.0
 31
0.0
  0
LINE
  5
1D7
330
1F
100
AcDbEntity
  8
鏡台
  6
CONTINUOUS
 62
     2
100
AcDbLine
 10
974.9944675086999
 20
741.0
 30
0.0
 11
1086.9944675087
 21
741.0
 31
0.0
  0
LINE
  5
1D8
330
1F
100
AcDbEntity
  8
鏡台
  6
CONTINUOUS
 62
     2
100
AcDbLine
 10
1086.9944675087
 20
741.0
 30
0.0
 11
1086.9944675087
 21
745.0
 31
0.0
  0
LINE
  5
1D9
330
1F
100
AcDbEntity
  8
鏡台
  6
CONTINUOUS
 62
     2
100
AcDbLine
 10
1079.1333275087
 20
815.999996
 30
0.0
 11
982.8555875087004
 21
815.999996
 31
0.0
  0
LINE
  5
1DA
330
1F
100
AcDbEntity
  8
鏡台
  6
CONTINUOUS
 62
     2
100
AcDbLine
 10
974.9944675086999
 20
745.0
 30
0.0
 11
974.9944675086999
 21
741.0
 31
0.0
  0
LINE
  5
1DB
330
1F
100
AcDbEntity
  8
鏡台
  6
CONTINUOUS
 62
     2
100
AcDbLine
 10
974.9944675086999
 20
745.0
 30
0.0
 11
1086.9944675087
 21
745.0
 31
0.0
  0
LINE
  5
1DC
330
1F
100
AcDbEntity
  8
鏡台
  6
CONTINUOUS
 62
     2
100
AcDbLine
 10
977.8575875086999
 20
811.1407839999999
 30
0.0
 11
975.9944675086999
 21
745.0
 31
0.0
  0
LINE
  5
1DD
330
1F
100
AcDbEntity
  8
鏡台
  6
CONTINUOUS
 62
     2
100
AcDbLine
 10
1085.9944675087
 20
745.0
 30
0.0
 11
1084.1313475087
 21
811.1407839999999
 31
0.0
  0
ARC
  5
1DE
330
1F
100
AcDbEntity
  8
鏡台
  6
CONTINUOUS
 62
     2
100
AcDbCircle
 10
1079.1333275087
 20
810.999996
 30
0.0
 40
4.99999999999982
100
AcDbArc
 50
1.613539000000757
 51
89.99999999999996
  0
ARC
  5
1DF
330
1F
100
AcDbEntity
  8
鏡台
  6
CONTINUOUS
 62
     2
100
AcDbCircle
 10
982.8555875087004
 20
810.999996
 30
0.0
 40
5.0
100
AcDbArc
 50
90.00000000000001
 51
178.3865000000005
  0
LINE
  5
1E0
330
1F
100
AcDbEntity
  8
鏡台
  6
CONTINUOUS
 62
     2
100
AcDbLine
 10
982.9944675086999
 20
815.9980659999999
 30
0.0
 11
982.9944675086999
 21
814.6999954
 31
0.0
  0
LINE
  5
1E1
330
1F
100
AcDbEntity
  8
鏡台
  6
CONTINUOUS
 62
     2
100
AcDbLine
 10
1022.9944675087
 20
814.7134609999998
 30
0.0
 11
1022.9944675087
 21
815.999996
 31
0.0
  0
ARC
  5
1E2
330
1F
100
AcDbEntity
  8
鏡台
  6
CONTINUOUS
 62
     2
100
AcDbCircle
 10
1018.4444075087
 20
828.993246
 30
0.0
 40
14.99999999999998
100
AcDbArc
 50
268.2809999999975
 51
287.8269000000004
  0
ARC
  5
1E3
330
1F
100
AcDbEntity
  8
鏡台
  6
CONTINUOUS
 62
     2
100
AcDbCircle
 10
987.5445075087
 20
828.993246
 30
0.0
 40
15.00000000000001
100
AcDbArc
 50
252.3419000000005
 51
271.7189999999991
  0
LINE
  5
1E4
330
1F
100
AcDbEntity
  8
鏡台
  6
CONTINUOUS
 62
     2
100
AcDbLine
 10
1017.9944675087
 20
813.9999954
 30
0.0
 11
987.9944675086999
 21
813.9999954
 31
0.0
  0
LINE
  5
1E5
330
1F
100
AcDbEntity
  8
鏡台
  6
CONTINUOUS
 62
     2
100
AcDbLine
 10
1041.4609875087
 20
813.9999954
 30
0.0
 11
1038.1707875087
 21
813.9999954
 31
0.0
  0
ARC
  5
1E6
330
1F
100
AcDbEntity
  8
鏡台
  6
CONTINUOUS
 62
     2
100
AcDbCircle
 10
1030.561047508701
 20
798.893394
 30
0.0
 40
17.11209200000005
100
AcDbArc
 50
88.54857000000199
 51
105.4777000000023
  0
ARC
  5
1E7
330
1F
100
AcDbEntity
  8
鏡台
  6
CONTINUOUS
 62
     2
100
AcDbCircle
 10
1026.2958275087
 20
815.1762022
 30
0.0
 40
0.282630999999891
100
AcDbArc
 50
81.72016999999235
 51
243.5736000000366
  0
ARC
  5
1E8
330
1F
100
AcDbEntity
  8
鏡台
  6
CONTINUOUS
 62
     2
100
AcDbCircle
 10
1040.6159075087
 20
925.1027999999999
 30
0.0
 40
111.1297199999999
100
AcDbArc
 50
262.5028000000001
 51
268.9791000000004
  0
ARC
  5
1E9
330
1F
100
AcDbEntity
  8
鏡台
  6
CONTINUOUS
 62
     2
100
AcDbCircle
 10
1039.4376875087
 20
796.787354
 30
0.0
 40
19.2107519999999
100
AcDbArc
 50
76.78236000000079
 51
91.7959799999998
  0
ARC
  5
1EA
330
1F
100
AcDbEntity
  8
鏡台
  6
CONTINUOUS
 62
     2
100
AcDbCircle
 10
1040.8200675087
 20
819.6852959999999
 30
0.0
 40
5.72131399999998
100
AcDbArc
 50
276.4321999999985
 51
299.9787999999998
  0
ARC
  5
1EB
330
1F
100
AcDbEntity
  8
鏡台
  6
CONTINUOUS
 62
     2
100
AcDbCircle
 10
1043.5593475087
 20
815.148199
 30
0.0
 40
0.435491400000028
100
AcDbArc
 50
285.9310000000212
 51
51.53549000002943
  0
LINE
  5
1EC
330
1F
100
AcDbEntity
  8
鏡台
  6
CONTINUOUS
 62
     2
100
AcDbLine
 10
1075.4609875087
 20
813.9999954
 30
0.0
 11
1072.1707875087
 21
813.9999954
 31
0.0
  0
ARC
  5
1ED
330
1F
100
AcDbEntity
  8
鏡台
  6
CONTINUOUS
 62
     2
100
AcDbCircle
 10
1064.561047508701
 20
798.893394
 30
0.0
 40
17.11209200000005
100
AcDbArc
 50
88.54857000000199
 51
105.4777000000023
  0
ARC
  5
1EE
330
1F
100
AcDbEntity
  8
鏡台
  6
CONTINUOUS
 62
     2
100
AcDbCircle
 10
1060.2958275087
 20
815.1762022
 30
0.0
 40
0.282630999999891
100
AcDbArc
 50
81.72016999999235
 51
243.5736000000366
  0
ARC
  5
1EF
330
1F
100
AcDbEntity
  8
鏡台
  6
CONTINUOUS
 62
     2
100
AcDbCircle
 10
1074.6159075087
 20
925.1027999999999
 30
0.0
 40
111.1297199999999
100
AcDbArc
 50
262.5028000000001
 51
268.9791000000004
  0
ARC
  5
1F0
330
1F
100
AcDbEntity
  8
鏡台
  6
CONTINUOUS
 62
     2
100
AcDbCircle
 10
1073.4376875087
 20
796.787354
 30
0.0
 40
19.2107519999999
100
AcDbArc
 50
76.78236000000079
 51
91.7959799999998
  0
ARC
  5
1F1
330
1F
100
AcDbEntity
  8
鏡台
  6
CONTINUOUS
 62
     2
100
AcDbCircle
 10
1074.8200675087
 20
819.6852959999999
 30
0.0
 40
5.72131399999998
100
AcDbArc
 50
276.4321999999985
 51
299.9787999999998
  0
ARC
  5
1F2
330
1F
100
AcDbEntity
  8
鏡台
  6
CONTINUOUS
 62
     2
100
AcDbCircle
 10
1077.5593475087
 20
815.148199
 30
0.0
 40
0.435491400000028
100
AcDbArc
 50
285.9310000000212
 51
51.53549000002943
  0
POLYLINE
  5
1F3
330
1F
100
AcDbEntity
  8
鏡台
  6
CONTINUOUS
 62
     2
100
AcDb2dPolyline
 66
     1
 10
0.0
 20
0.0
 30
0.0
 70
   128
  0
VERTEX
  5
1F4
330
1F3
100
AcDbEntity
  8
鏡台
  6
CONTINUOUS
 62
     2
100
AcDbVertex
100
AcDb2dVertex
 10
463.4944675161505
 20
1396.0
 30
0.0
  0
VERTEX
  5
1F5
330
1F3
100
AcDbEntity
  8
鏡台
  6
CONTINUOUS
 62
     2
100
AcDbVertex
100
AcDb2dVertex
 10
908.4944675161505
 20
1396.0
 30
0.0
  0
VERTEX
  5
1F6
330
1F3
100
AcDbEntity
  8
鏡台
  6
CONTINUOUS
 62
     2
100
AcDbVertex
100
AcDb2dVertex
 10
908.4944675161505
 20
511.0
 30
0.0
  0
VERTEX
  5
1F7
330
1F3
100
AcDbEntity
  8
鏡台
  6
CONTINUOUS
 62
     2
100
AcDbVertex
100
AcDb2dVertex
 10
463.4944675161505
 20
511.0
 30
0.0
  0
VERTEX
  5
1F8
330
1F3
100
AcDbEntity
  8
鏡台
  6
CONTINUOUS
 62
     2
100
AcDbVertex
100
AcDb2dVertex
 10
463.4944675161505
 20
1396.0
 30
0.0
  0
SEQEND
  5
1F9
330
1F3
100
AcDbEntity
  8
鏡台
  6
CONTINUOUS
 62
     2
  0
LINE
  5
1FA
330
1F
100
AcDbEntity
  8
鏡台
  6
CONTINUOUS
 62
     2
100
AcDbLine
 10
438.4944675086999
 20
1406.0
 30
0.0
 11
438.4944675086999
 21
516.0
 31
0.0
  0
LINE
  5
1FB
330
1F
100
AcDbEntity
  8
鏡台
  6
CONTINUOUS
 62
     2
100
AcDbLine
 10
933.4944675086999
 20
1406.0
 30
0.0
 11
933.4944675086999
 21
516.0
 31
0.0
  0
LINE
  5
1FC
330
1F
100
AcDbEntity
  8
鏡台
  6
CONTINUOUS
 62
     2
100
AcDbLine
 10
443.4944675086999
 20
511.0
 30
0.0
 11
928.4944675086999
 21
511.0
 31
0.0
  0
ARC
  5
1FD
330
1F
100
AcDbEntity
  8
鏡台
  6
CONTINUOUS
 62
     2
100
AcDbCircle
 10
443.4944675086999
 20
516.0
 30
0.0
 40
5.0
100
AcDbArc
 50
180.0
 51
270.0
  0
ARC
  5
1FE
330
1F
100
AcDbEntity
  8
鏡台
  6
CONTINUOUS
 62
     2
100
AcDbCircle
 10
453.4944675086999
 20
1406.0
 30
0.0
 40
15.0
100
AcDbArc
 50
90.00000000000001
 51
180.0
  0
ARC
  5
1FF
330
1F
100
AcDbEntity
  8
鏡台
  6
CONTINUOUS
 62
     2
100
AcDbCircle
 10
918.4944675086999
 20
1406.0
 30
0.0
 40
15.0
100
AcDbArc
 50
0.0
 51
90.00000000000001
  0
ARC
  5
200
330
1F
100
AcDbEntity
  8
鏡台
  6
CONTINUOUS
 62
     2
100
AcDbCircle
 10
928.4944675086999
 20
516.0
 30
0.0
 40
5.0
100
AcDbArc
 50
270.0
 51
0.0
  0
LINE
  5
201
330
1F
100
AcDbEntity
  8
鏡台
  6
CONTINUOUS
 62
     2
100
AcDbLine
 10
393.4944675086999
 20
1421.0
 30
0.0
 11
918.4944675086999
 21
1421.0
 31
0.0
  0
ARC
  5
202
330
1F
100
AcDbEntity
  8
鏡台
  6
CONTINUOUS
 62
     2
100
AcDbCircle
 10
393.4944675086999
 20
1411.0
 30
0.0
 40
10.0
100
AcDbArc
 50
90.00000000000001
 51
180.0
  0
LINE
  5
203
330
1F
100
AcDbEntity
  8
鏡台
  6
CONTINUOUS
 62
     2
100
AcDbLine
 10
438.4944675086999
 20
1421.0
 30
0.0
 11
918.4944675086999
 21
1421.0
 31
0.0
  0
ARC
  5
204
330
1F
100
AcDbEntity
  8
鏡台
  6
CONTINUOUS
 62
     2
100
AcDbCircle
 10
918.4944675086999
 20
1406.0
 30
0.0
 40
15.0
100
AcDbArc
 50
0.0
 51
90.00000000000001
  0
POLYLINE
  5
205
330
1F
100
AcDbEntity
  8
鏡台
  6
CONTINUOUS
 62
     2
100
AcDb2dPolyline
 66
     1
 10
0.0
 20
0.0
 30
0.0
 70
   128
  0
VERTEX
  5
206
330
205
100
AcDbEntity
  8
鏡台
  6
CONTINUOUS
 62
     2
100
AcDbVertex
100
AcDb2dVertex
 10
425.9944675086999
 20
771.0
 30
0.0
  0
VERTEX
  5
207
330
205
100
AcDbEntity
  8
鏡台
  6
CONTINUOUS
 62
     2
100
AcDbVertex
100
AcDb2dVertex
 10
425.9944675086999
 20
596.0
 30
0.0
  0
VERTEX
  5
208
330
205
100
AcDbEntity
  8
鏡台
  6
CONTINUOUS
 62
     2
100
AcDbVertex
100
AcDb2dVertex
 10
390.9944675086999
 20
596.0
 30
0.0
  0
VERTEX
  5
209
330
205
100
AcDbEntity
  8
鏡台
  6
CONTINUOUS
 62
     2
100
AcDbVertex
100
AcDb2dVertex
 10
390.9944675086999
 20
771.0
 30
0.0
  0
VERTEX
  5
20A
330
205
100
AcDbEntity
  8
鏡台
  6
CONTINUOUS
 62
     2
100
AcDbVertex
100
AcDb2dVertex
 10
425.9944675086999
 20
771.0
 30
0.0
  0
SEQEND
  5
20B
330
205
100
AcDbEntity
  8
鏡台
  6
CONTINUOUS
 62
     2
  0
LINE
  5
20C
330
1F
100
AcDbEntity
  8
鏡台
  6
CONTINUOUS
 62
     2
100
AcDbLine
 10
388.4944675086999
 20
586.0
 30
0.0
 11
428.4944675086999
 21
586.0
 31
0.0
  0
ARC
  5
20D
330
1F
100
AcDbEntity
  8
鏡台
  6
CONTINUOUS
 62
     2
100
AcDbCircle
 10
428.4944675086999
 20
581.0
 30
0.0
 40
5.0
100
AcDbArc
 50
0.0
 51
90.00000000000001
  0
ARC
  5
20E
330
1F
100
AcDbEntity
  8
鏡台
  6
CONTINUOUS
 62
     2
100
AcDbCircle
 10
388.4944675086999
 20
581.0
 30
0.0
 40
5.0
100
AcDbArc
 50
90.00000000000001
 51
180.0
  0
POLYLINE
  5
20F
330
1F
100
AcDbEntity
  8
鏡台
  6
CONTINUOUS
 62
     2
100
AcDb2dPolyline
 66
     1
 10
0.0
 20
0.0
 30
0.0
 70
   128
  0
VERTEX
  5
210
330
20F
100
AcDbEntity
  8
鏡台
  6
CONTINUOUS
 62
     2
100
AcDbVertex
100
AcDb2dVertex
 10
1100.4944675087
 20
1270.5
 30
0.0
  0
VERTEX
  5
211
330
20F
100
AcDbEntity
  8
鏡台
  6
CONTINUOUS
 62
     2
100
AcDbVertex
100
AcDb2dVertex
 10
1103.4944675087
 20
1270.5
 30
0.0
  0
VERTEX
  5
212
330
20F
100
AcDbEntity
  8
鏡台
  6
CONTINUOUS
 62
     2
100
AcDbVertex
100
AcDb2dVertex
 10
1103.4944675087
 20
1261.5
 30
0.0
  0
VERTEX
  5
213
330
20F
100
AcDbEntity
  8
鏡台
  6
CONTINUOUS
 62
     2
100
AcDbVertex
100
AcDb2dVertex
 10
1100.4944675087
 20
1261.5
 30
0.0
  0
VERTEX
  5
214
330
20F
100
AcDbEntity
  8
鏡台
  6
CONTINUOUS
 62
     2
100
AcDbVertex
100
AcDb2dVertex
 10
1100.4944675087
 20
1270.5
 30
0.0
  0
SEQEND
  5
215
330
20F
100
AcDbEntity
  8
鏡台
  6
CONTINUOUS
 62
     2
  0
POLYLINE
  5
216
330
1F
100
AcDbEntity
  8
鏡台
  6
CONTINUOUS
 62
     2
100
AcDb2dPolyline
 66
     1
 10
0.0
 20
0.0
 30
0.0
 70
   128
  0
VERTEX
  5
217
330
216
100
AcDbEntity
  8
鏡台
  6
CONTINUOUS
 62
     2
100
AcDbVertex
100
AcDb2dVertex
 10
958.4944675086999
 20
1270.5
 30
0.0
  0
VERTEX
  5
218
330
216
100
AcDbEntity
  8
鏡台
  6
CONTINUOUS
 62
     2
100
AcDbVertex
100
AcDb2dVertex
 10
961.4944675086999
 20
1270.5
 30
0.0
  0
VERTEX
  5
219
330
216
100
AcDbEntity
  8
鏡台
  6
CONTINUOUS
 62
     2
100
AcDbVertex
100
AcDb2dVertex
 10
961.4944675086999
 20
1261.5
 30
0.0
  0
VERTEX
  5
21A
330
216
100
AcDbEntity
  8
鏡台
  6
CONTINUOUS
 62
     2
100
AcDbVertex
100
AcDb2dVertex
 10
958.4944675086999
 20
1261.5
 30
0.0
  0
VERTEX
  5
21B
330
216
100
AcDbEntity
  8
鏡台
  6
CONTINUOUS
 62
     2
100
AcDbVertex
100
AcDb2dVertex
 10
958.4944675086999
 20
1270.5
 30
0.0
  0
SEQEND
  5
21C
330
216
100
AcDbEntity
  8
鏡台
  6
CONTINUOUS
 62
     2
  0
POLYLINE
  5
21D
330
1F
100
AcDbEntity
  8
鏡台
  6
CONTINUOUS
 62
     2
100
AcDb2dPolyline
 66
     1
 10
0.0
 20
0.0
 30
0.0
 70
   128
  0
VERTEX
  5
21E
330
21D
100
AcDbEntity
  8
鏡台
  6
CONTINUOUS
 62
     2
100
AcDbVertex
100
AcDb2dVertex
 10
1100.4944675087
 20
1055.5
 30
0.0
  0
VERTEX
  5
21F
330
21D
100
AcDbEntity
  8
鏡台
  6
CONTINUOUS
 62
     2
100
AcDbVertex
100
AcDb2dVertex
 10
1103.4944675087
 20
1055.5
 30
0.0
  0
VERTEX
  5
220
330
21D
100
AcDbEntity
  8
鏡台
  6
CONTINUOUS
 62
     2
100
AcDbVertex
100
AcDb2dVertex
 10
1103.4944675087
 20
1046.5
 30
0.0
  0
VERTEX
  5
221
330
21D
100
AcDbEntity
  8
鏡台
  6
CONTINUOUS
 62
     2
100
AcDbVertex
100
AcDb2dVertex
 10
1100.4944675087
 20
1046.5
 30
0.0
  0
VERTEX
  5
222
330
21D
100
AcDbEntity
  8
鏡台
  6
CONTINUOUS
 62
     2
100
AcDbVertex
100
AcDb2dVertex
 10
1100.4944675087
 20
1055.5
 30
0.0
  0
SEQEND
  5
223
330
21D
100
AcDbEntity
  8
鏡台
  6
CONTINUOUS
 62
     2
  0
POLYLINE
  5
224
330
1F
100
AcDbEntity
  8
鏡台
  6
CONTINUOUS
 62
     2
100
AcDb2dPolyline
 66
     1
 10
0.0
 20
0.0
 30
0.0
 70
   128
  0
VERTEX
  5
225
330
224
100
AcDbEntity
  8
鏡台
  6
CONTINUOUS
 62
     2
100
AcDbVertex
100
AcDb2dVertex
 10
958.4944675086999
 20
1055.5
 30
0.0
  0
VERTEX
  5
226
330
224
100
AcDbEntity
  8
鏡台
  6
CONTINUOUS
 62
     2
100
AcDbVertex
100
AcDb2dVertex
 10
961.4944675086999
 20
1055.5
 30
0.0
  0
VERTEX
  5
227
330
224
100
AcDbEntity
  8
鏡台
  6
CONTINUOUS
 62
     2
100
AcDbVertex
100
AcDb2dVertex
 10
961.4944675086999
 20
1046.5
 30
0.0
  0
VERTEX
  5
228
330
224
100
AcDbEntity
  8
鏡台
  6
CONTINUOUS
 62
     2
100
AcDbVertex
100
AcDb2dVertex
 10
958.4944675086999
 20
1046.5
 30
0.0
  0
VERTEX
  5
229
330
224
100
AcDbEntity
  8
鏡台
  6
CONTINUOUS
 62
     2
100
AcDbVertex
100
AcDb2dVertex
 10
958.4944675086999
 20
1055.5
 30
0.0
  0
SEQEND
  5
22A
330
224
100
AcDbEntity
  8
鏡台
  6
CONTINUOUS
 62
     2
  0
LINE
  5
22B
330
1F
100
AcDbEntity
  8
鏡台
  6
CONTINUOUS
 62
     2
100
AcDbLine
 10
978.5047471539601
 20
991.0
 30
0.0
 11
1083.50474715396
 21
991.0
 31
0.0
  0
LINE
  5
22C
330
1F
100
AcDbEntity
  8
鏡台
  6
CONTINUOUS
 62
     2
100
AcDbLine
 10
968.5047471539601
 20
1016.0
 30
0.0
 11
1093.48418786344
 21
1016.0
 31
0.0
  0
ARC
  5
22D
330
1F
100
AcDbEntity
  8
鏡台
  6
CONTINUOUS
 62
     2
100
AcDbCircle
 10
1093.519284767704
 20
1026.0
 30
0.0
 40
9.985462386256586
100
AcDbArc
 50
270.0
 51
0.0
  0
ARC
  5
22E
330
1F
100
AcDbEntity
  8
鏡台
  6
CONTINUOUS
 62
     2
100
AcDbCircle
 10
968.5047471539601
 20
1026.0
 30
0.0
 40
10.0
100
AcDbArc
 50
180.0
 51
270.0
  0
ARC
  5
22F
330
1F
100
AcDbEntity
  8
鏡台
  6
CONTINUOUS
 62
     2
100
AcDbCircle
 10
978.5047471539601
 20
1026.0
 30
0.0
 40
10.0
100
AcDbArc
 50
180.0
 51
270.0
  0
ARC
  5
230
330
1F
100
AcDbEntity
  8
鏡台
  6
CONTINUOUS
 62
     2
100
AcDbCircle
 10
1083.519284767704
 20
1026.0
 30
0.0
 40
9.985462386256586
100
AcDbArc
 50
270.0
 51
0.0
  0
LINE
  5
231
330
1F
100
AcDbEntity
  8
鏡台
  6
CONTINUOUS
 62
     2
100
AcDbLine
 10
978.5047471539601
 20
971.0
 30
0.0
 11
1083.50474715396
 21
971.0
 31
0.0
  0
ARC
  5
232
330
1F
100
AcDbEntity
  8
鏡台
  6
CONTINUOUS
 62
     2
100
AcDbCircle
 10
1083.50474715396
 20
961.0
 30
0.0
 40
10.0
100
AcDbArc
 50
0.0
 51
90.00000000000001
  0
ARC
  5
233
330
1F
100
AcDbEntity
  8
鏡台
  6
CONTINUOUS
 62
     2
100
AcDbCircle
 10
978.5047471539601
 20
961.0
 30
0.0
 40
10.0
100
AcDbArc
 50
90.00000000000001
 51
180.0
  0
ARC
  5
234
330
1F
100
AcDbEntity
  8
鏡台
  6
CONTINUOUS
 62
     2
100
AcDbCircle
 10
978.5047471539601
 20
971.0
 30
0.0
 40
20.0
100
AcDbArc
 50
90.00000000000001
 51
180.0
  0
ARC
  5
235
330
1F
100
AcDbEntity
  8
鏡台
  6
CONTINUOUS
 62
     2
100
AcDbCircle
 10
1083.50474715396
 20
971.0
 30
0.0
 40
20.0
100
AcDbArc
 50
0.0
 51
90.00000000000001
  0
LINE
  5
236
330
1F
100
AcDbEntity
  8
鏡台
  6
CONTINUOUS
 62
     2
100
AcDbLine
 10
1103.4944675087
 20
1376.0
 30
0.0
 11
1103.4944675087
 21
751.0
 31
0.0
  0
LINE
  5
237
330
1F
100
AcDbEntity
  8
鏡台
  6
CONTINUOUS
 62
     2
100
AcDbLine
 10
958.4944675086999
 20
1376.0
 30
0.0
 11
958.4944675086999
 21
751.0
 31
0.0
  0
ARC
  5
238
330
1F
100
AcDbEntity
  8
鏡台
  6
CONTINUOUS
 62
     2
100
AcDbCircle
 10
968.4944675086999
 20
751.0
 30
0.0
 40
10.0
100
AcDbArc
 50
180.0
 51
270.0
  0
ARC
  5
239
330
1F
100
AcDbEntity
  8
鏡台
  6
CONTINUOUS
 62
     2
100
AcDbCircle
 10
1093.4944675087
 20
751.0
 30
0.0
 40
10.0
100
AcDbArc
 50
270.0
 51
0.0
  0
LINE
  5
23A
330
1F
100
AcDbEntity
  8
鏡台
  6
CONTINUOUS
 62
     2
100
AcDbLine
 10
978.4944675086999
 20
1351.0
 30
0.0
 11
1083.4944675087
 21
1351.0
 31
0.0
  0
ARC
  5
23B
330
1F
100
AcDbEntity
  8
鏡台
  6
CONTINUOUS
 62
     2
100
AcDbCircle
 10
978.4944675086999
 20
1341.0
 30
0.0
 40
10.0
100
AcDbArc
 50
90.00000000000001
 51
180.0
  0
ARC
  5
23C
330
1F
100
AcDbEntity
  8
鏡台
  6
CONTINUOUS
 62
     2
100
AcDbCircle
 10
1083.4944675087
 20
1341.0
 30
0.0
 40
10.0
100
AcDbArc
 50
0.0
 51
90.00000000000001
  0
LINE
  5
23D
330
1F
100
AcDbEntity
  8
鏡台
  6
CONTINUOUS
 62
     2
100
AcDbLine
 10
968.4944675086999
 20
961.0
 30
0.0
 11
968.4944675086999
 21
751.0
 31
0.0
  0
LINE
  5
23E
330
1F
100
AcDbEntity
  8
鏡台
  6
CONTINUOUS
 62
     2
100
AcDbLine
 10
1093.4944675087
 20
961.0
 30
0.0
 11
1093.4944675087
 21
751.0
 31
0.0
  0
ARC
  5
23F
330
1F
100
AcDbEntity
  8
鏡台
  6
CONTINUOUS
 62
     2
100
AcDbCircle
 10
978.4944675086999
 20
751.0
 30
0.0
 40
10.0
100
AcDbArc
 50
180.0
 51
270.0
  0
ARC
  5
240
330
1F
100
AcDbEntity
  8
鏡台
  6
CONTINUOUS
 62
     2
100
AcDbCircle
 10
1083.4944675087
 20
751.0
 30
0.0
 40
10.0
100
AcDbArc
 50
270.0
 51
0.0
  0
LINE
  5
241
330
1F
100
AcDbEntity
  8
鏡台
  6
CONTINUOUS
 62
     2
100
AcDbLine
 10
963.4944675086999
 20
706.0
 30
0.0
 11
1098.4944675087
 21
706.0
 31
0.0
  0
ARC
  5
242
330
1F
100
AcDbEntity
  8
鏡台
  6
CONTINUOUS
 62
     2
100
AcDbCircle
 10
1098.4944675087
 20
686.0
 30
0.0
 40
20.0
100
AcDbArc
 50
0.0
 51
90.00000000000001
  0
ARC
  5
243
330
1F
100
AcDbEntity
  8
鏡台
  6
CONTINUOUS
 62
     2
100
AcDbCircle
 10
963.4944675086999
 20
686.0
 30
0.0
 40
20.0
100
AcDbArc
 50
90.00000000000001
 51
180.0
  0
LINE
  5
244
330
1F
100
AcDbEntity
  8
鏡台
  6
CONTINUOUS
 62
     2
100
AcDbLine
 10
978.5047471539601
 20
1206.0
 30
0.0
 11
1083.50474715396
 21
1206.0
 31
0.0
  0
LINE
  5
245
330
1F
100
AcDbEntity
  8
鏡台
  6
CONTINUOUS
 62
     2
100
AcDbLine
 10
968.5047471539601
 20
1231.0
 30
0.0
 11
1093.48418786344
 21
1231.0
 31
0.0
  0
ARC
  5
246
330
1F
100
AcDbEntity
  8
鏡台
  6
CONTINUOUS
 62
     2
100
AcDbCircle
 10
1093.519284767704
 20
1241.0
 30
0.0
 40
9.985462386256586
100
AcDbArc
 50
270.0
 51
0.0
  0
ARC
  5
247
330
1F
100
AcDbEntity
  8
鏡台
  6
CONTINUOUS
 62
     2
100
AcDbCircle
 10
968.5047471539601
 20
1241.0
 30
0.0
 40
10.0
100
AcDbArc
 50
180.0
 51
270.0
  0
ARC
  5
248
330
1F
100
AcDbEntity
  8
鏡台
  6
CONTINUOUS
 62
     2
100
AcDbCircle
 10
978.5047471539601
 20
1241.0
 30
0.0
 40
10.0
100
AcDbArc
 50
180.0
 51
270.0
  0
ARC
  5
249
330
1F
100
AcDbEntity
  8
鏡台
  6
CONTINUOUS
 62
     2
100
AcDbCircle
 10
1083.519284767704
 20
1241.0
 30
0.0
 40
9.985462386256586
100
AcDbArc
 50
270.0
 51
0.0
  0
LINE
  5
24A
330
1F
100
AcDbEntity
  8
鏡台
  6
CONTINUOUS
 62
     2
100
AcDbLine
 10
978.5047471539601
 20
1186.0
 30
0.0
 11
1083.50474715396
 21
1186.0
 31
0.0
  0
ARC
  5
24B
330
1F
100
AcDbEntity
  8
鏡台
  6
CONTINUOUS
 62
     2
100
AcDbCircle
 10
1083.50474715396
 20
1176.0
 30
0.0
 40
10.0
100
AcDbArc
 50
0.0
 51
90.00000000000001
  0
ARC
  5
24C
330
1F
100
AcDbEntity
  8
鏡台
  6
CONTINUOUS
 62
     2
100
AcDbCircle
 10
978.5047471539601
 20
1176.0
 30
0.0
 40
10.0
100
AcDbArc
 50
90.00000000000001
 51
180.0
  0
ARC
  5
24D
330
1F
100
AcDbEntity
  8
鏡台
  6
CONTINUOUS
 62
     2
100
AcDbCircle
 10
978.5047471539601
 20
1186.0
 30
0.0
 40
20.0
100
AcDbArc
 50
90.00000000000001
 51
180.0
  0
ARC
  5
24E
330
1F
100
AcDbEntity
  8
鏡台
  6
CONTINUOUS
 62
     2
100
AcDbCircle
 10
1083.50474715396
 20
1186.0
 30
0.0
 40
20.0
100
AcDbArc
 50
0.0
 51
90.00000000000001
  0
ARC
  5
24F
330
1F
100
AcDbEntity
  8
鏡台
  6
CONTINUOUS
 62
     2
100
AcDbCircle
 10
978.4944675086999
 20
1376.0
 30
0.0
 40
20.0
100
AcDbArc
 50
90.00000000000001
 51
180.0
  0
ARC
  5
250
330
1F
100
AcDbEntity
  8
鏡台
  6
CONTINUOUS
 62
     2
100
AcDbCircle
 10
1083.4944675087
 20
1376.0
 30
0.0
 40
20.0
100
AcDbArc
 50
0.0
 51
90.00000000000001
  0
LINE
  5
251
330
1F
100
AcDbEntity
  8
鏡台
  6
CONTINUOUS
 62
     2
100
AcDbLine
 10
978.4944675086999
 20
1396.0
 30
0.0
 11
1083.4944675087
 21
1396.0
 31
0.0
  0
LINE
  5
252
330
1F
100
AcDbEntity
  8
鏡台
  6
CONTINUOUS
 62
     2
100
AcDbLine
 10
968.4944675086999
 20
741.0
 30
0.0
 11
1093.4944675087
 21
741.0
 31
0.0
  0
ARC
  5
253
330
1F
100
AcDbEntity
  8
鏡台
  6
CONTINUOUS
 62
     2
100
AcDbCircle
 10
1118.488935017357
 20
1356.00000000001
 30
0.0
 40
5.000000000001052
100
AcDbArc
 50
0.0000000000120321
 51
89.99999999998793
  0
POLYLINE
  5
254
330
1F
100
AcDbEntity
  8
鏡台
  6
CONTINUOUS
 62
     2
100
AcDb2dPolyline
 66
     1
 10
0.0
 20
0.0
 30
0.0
 70
   128
  0
VERTEX
  5
255
330
254
100
AcDbEntity
  8
鏡台
  6
CONTINUOUS
 62
     2
100
AcDbVertex
100
AcDb2dVertex
 10
1118.488935017358
 20
1361.00000000001
 30
0.0
  0
VERTEX
  5
256
330
254
100
AcDbEntity
  8
鏡台
  6
CONTINUOUS
 62
     2
100
AcDbVertex
100
AcDb2dVertex
 10
1108.488935017358
 20
1361.00000000001
 30
0.0
  0
SEQEND
  5
257
330
254
100
AcDbEntity
  8
鏡台
  6
CONTINUOUS
 62
     2
  0
ARC
  5
258
330
1F
100
AcDbEntity
  8
鏡台
  6
CONTINUOUS
 62
     2
100
AcDbCircle
 10
1108.488935017358
 20
1356.00000000001
 30
0.0
 40
5.000000000000314
100
AcDbArc
 50
90.00000000000358
 51
179.9999999999964
  0
ARC
  5
259
330
1F
100
AcDbEntity
  8
鏡台
  6
CONTINUOUS
 62
     2
100
AcDbCircle
 10
953.4944675086995
 20
1356.00000000001
 30
0.0
 40
5.000000000000316
100
AcDbArc
 50
0.0000000000036096
 51
89.99999999999642
  0
POLYLINE
  5
25A
330
1F
100
AcDbEntity
  8
鏡台
  6
CONTINUOUS
 62
     2
100
AcDb2dPolyline
 66
     1
 10
0.0
 20
0.0
 30
0.0
 70
   128
  0
VERTEX
  5
25B
330
25A
100
AcDbEntity
  8
鏡台
  6
CONTINUOUS
 62
     2
100
AcDbVertex
100
AcDb2dVertex
 10
953.4944675086999
 20
1361.00000000001
 30
0.0
  0
VERTEX
  5
25C
330
25A
100
AcDbEntity
  8
鏡台
  6
CONTINUOUS
 62
     2
100
AcDbVertex
100
AcDb2dVertex
 10
943.4944675086999
 20
1361.00000000001
 30
0.0
  0
SEQEND
  5
25D
330
25A
100
AcDbEntity
  8
鏡台
  6
CONTINUOUS
 62
     2
  0
ARC
  5
25E
330
1F
100
AcDbEntity
  8
鏡台
  6
CONTINUOUS
 62
     2
100
AcDbCircle
 10
943.4944675086999
 20
1356.00000000001
 30
0.0
 40
5.000000000000316
100
AcDbArc
 50
90.00000000000364
 51
179.9999999999963
  0
ARC
  5
25F
330
1F
100
AcDbEntity
  8
鏡台
  6
CONTINUOUS
 62
     2
100
AcDbCircle
 10
1118.4944675087
 20
775.9999999999995
 30
0.0
 40
4.999999999999516
100
AcDbArc
 50
269.9999999999945
 51
0.0000000000055577
  0
POLYLINE
  5
260
330
1F
100
AcDbEntity
  8
鏡台
  6
CONTINUOUS
 62
     2
100
AcDb2dPolyline
 66
     1
 10
0.0
 20
0.0
 30
0.0
 70
   128
  0
VERTEX
  5
261
330
260
100
AcDbEntity
  8
鏡台
  6
CONTINUOUS
 62
     2
100
AcDbVertex
100
AcDb2dVertex
 10
1118.4944675087
 20
771.0
 30
0.0
  0
VERTEX
  5
262
330
260
100
AcDbEntity
  8
鏡台
  6
CONTINUOUS
 62
     2
100
AcDbVertex
100
AcDb2dVertex
 10
1108.4944675087
 20
771.0
 30
0.0
  0
SEQEND
  5
263
330
260
100
AcDbEntity
  8
鏡台
  6
CONTINUOUS
 62
     2
  0
ARC
  5
264
330
1F
100
AcDbEntity
  8
鏡台
  6
CONTINUOUS
 62
     2
100
AcDbCircle
 10
1108.494467508699
 20
776.0
 30
0.0
 40
4.999999999999516
100
AcDbArc
 50
179.9999999999945
 51
270.0000000000056
  0
ARC
  5
265
330
1F
100
AcDbEntity
  8
鏡台
  6
CONTINUOUS
 62
     2
100
AcDbCircle
 10
953.5000000000418
 20
775.9999999999995
 30
0.0
 40
4.999999999999516
100
AcDbArc
 50
269.9999999999945
 51
0.0000000000055577
  0
POLYLINE
  5
266
330
1F
100
AcDbEntity
  8
鏡台
  6
CONTINUOUS
 62
     2
100
AcDb2dPolyline
 66
     1
 10
0.0
 20
0.0
 30
0.0
 70
   128
  0
VERTEX
  5
267
330
266
100
AcDbEntity
  8
鏡台
  6
CONTINUOUS
 62
     2
100
AcDbVertex
100
AcDb2dVertex
 10
953.5000000000418
 20
771.0
 30
0.0
  0
VERTEX
  5
268
330
266
100
AcDbEntity
  8
鏡台
  6
CONTINUOUS
 62
     2
100
AcDbVertex
100
AcDb2dVertex
 10
943.5000000000418
 20
771.0
 30
0.0
  0
SEQEND
  5
269
330
266
100
AcDbEntity
  8
鏡台
  6
CONTINUOUS
 62
     2
  0
ARC
  5
26A
330
1F
100
AcDbEntity
  8
鏡台
  6
CONTINUOUS
 62
     2
100
AcDbCircle
 10
943.5000000000423
 20
776.0
 30
0.0
 40
5.000000000000292
100
AcDbArc
 50
180.0000000000034
 51
269.9999999999967
  0
CIRCLE
  5
26B
330
1F
100
AcDbEntity
  8
鏡台
  6
CONTINUOUS
 62
     2
100
AcDbCircle
 10
433.4944675086999
 20
1491.0
 30
0.0
 40
2.000000000000338
  0
CIRCLE
  5
26C
330
1F
100
AcDbEntity
  8
鏡台
  6
CONTINUOUS
 62
     2
100
AcDbCircle
 10
1073.4944675087
 20
1491.0
 30
0.0
 40
2.000000000000338
  0
POLYLINE
  5
26D
330
1F
100
AcDbEntity
  8
鏡台
  6
CONTINUOUS
 62
     2
100
AcDb2dPolyline
 66
     1
 10
0.0
 20
0.0
 30
0.0
 70
   128
  0
VERTEX
  5
26E
330
26D
100
AcDbEntity
  8
鏡台
  6
CONTINUOUS
 62
     2
100
AcDbVertex
100
AcDb2dVertex
 10
383.4999262334704
 20
1546.0
 30
0.0
  0
VERTEX
  5
26F
330
26D
100
AcDbEntity
  8
鏡台
  6
CONTINUOUS
 62
     2
100
AcDbVertex
100
AcDb2dVertex
 10
1123.489008783909
 20
1546.0
 30
0.0
  0
SEQEND
  5
270
330
26D
100
AcDbEntity
  8
鏡台
  6
CONTINUOUS
 62
     2
  0
ARC
  5
271
330
1F
100
AcDbEntity
  8
鏡台
  6
CONTINUOUS
 62
     2
100
AcDbCircle
 10
1123.48897190036
 20
1541.000036883002
 30
0.0
 40
4.999963117134
100
AcDbArc
 50
359.9995773488117
 51
89.99957734254542
  0
POLYLINE
  5
272
330
1F
100
AcDbEntity
  8
鏡台
  6
CONTINUOUS
 62
     2
100
AcDb2dPolyline
 66
     1
 10
0.0
 20
0.0
 30
0.0
 70
   128
  0
VERTEX
  5
273
330
272
100
AcDbEntity
  8
鏡台
  6
CONTINUOUS
 62
     2
100
AcDbVertex
100
AcDb2dVertex
 10
1128.488935017358
 20
1541.0
 30
0.0
  0
VERTEX
  5
274
330
272
100
AcDbEntity
  8
鏡台
  6
CONTINUOUS
 62
     2
100
AcDbVertex
100
AcDb2dVertex
 10
1128.488935017358
 20
501.0
 30
0.0
  0
SEQEND
  5
275
330
272
100
AcDbEntity
  8
鏡台
  6
CONTINUOUS
 62
     2
  0
ARC
  5
276
330
1F
100
AcDbEntity
  8
鏡台
  6
CONTINUOUS
 62
     2
100
AcDbCircle
 10
1123.48897190036
 20
500.9999631169979
 30
0.0
 40
4.999963117133986
100
AcDbArc
 50
270.0004226574544
 51
0.0004226511883973
  0
ARC
  5
277
330
1F
100
AcDbEntity
  8
鏡台
  6
CONTINUOUS
 62
     2
100
AcDbCircle
 10
383.4999631170185
 20
500.9999631169972
 30
0.0
 40
4.99996311713319
100
AcDbArc
 50
179.9995773488025
 51
269.9995773425545
  0
ARC
  5
278
330
1F
100
AcDbEntity
  8
鏡台
  6
CONTINUOUS
 62
     2
100
AcDbCircle
 10
383.4999631170194
 20
1541.000036883002
 30
0.0
 40
4.999963117133986
100
AcDbArc
 50
90.00042265745475
 51
180.0004226511884
  0
POLYLINE
  5
279
330
1F
100
AcDbEntity
  8
鏡台
  6
CONTINUOUS
 62
     2
100
AcDb2dPolyline
 66
     1
 10
0.0
 20
0.0
 30
0.0
 70
   128
  0
VERTEX
  5
27A
330
279
100
AcDbEntity
  8
鏡台
  6
CONTINUOUS
 62
     2
100
AcDbVertex
100
AcDb2dVertex
 10
1696.5
 20
585.0
 30
0.0
  0
VERTEX
  5
27B
330
279
100
AcDbEntity
  8
鏡台
  6
CONTINUOUS
 62
     2
100
AcDbVertex
100
AcDb2dVertex
 10
1700.5
 20
585.0
 30
0.0
  0
VERTEX
  5
27C
330
279
100
AcDbEntity
  8
鏡台
  6
CONTINUOUS
 62
     2
100
AcDbVertex
100
AcDb2dVertex
 10
1700.5
 20
577.0
 30
0.0
  0
VERTEX
  5
27D
330
279
100
AcDbEntity
  8
鏡台
  6
CONTINUOUS
 62
     2
100
AcDbVertex
100
AcDb2dVertex
 10
1696.5
 20
577.0
 30
0.0
  0
SEQEND
  5
27E
330
279
100
AcDbEntity
  8
鏡台
  6
CONTINUOUS
 62
     2
  0
ARC
  5
27F
330
1F
100
AcDbEntity
  8
鏡台
  6
CONTINUOUS
 62
     2
100
AcDbCircle
 10
1696.5
 20
581.0
 30
0.0
 40
4.0
100
AcDbArc
 50
90.00000000000001
 51
270.0
  0
LINE
  5
280
330
1F
100
AcDbEntity
  8
鏡台
  6
CONTINUOUS
 62
     2
100
AcDbLine
 10
1700.5
 20
1546.0
 30
0.0
 11
1700.5
 21
496.0
 31
0.0
  0
LINE
  5
281
330
1F
100
AcDbEntity
  8
鏡台
  6
CONTINUOUS
 62
     2
100
AcDbLine
 10
1700.5
 20
496.0
 30
0.0
 11
1685.5
 21
496.0
 31
0.0
  0
LINE
  5
282
330
1F
100
AcDbEntity
  8
鏡台
  6
CONTINUOUS
 62
     2
100
AcDbLine
 10
1600.5
 20
768.0000000000099
 30
0.0
 11
1600.5
 21
664.9600732931099
 31
0.0
  0
LINE
  5
283
330
1F
100
AcDbEntity
  8
鏡台
  6
CONTINUOUS
 62
     2
100
AcDbLine
 10
1604.354803331373
 20
660.0929874514422
 30
0.0
 11
1676.645196668627
 21
650.1423066662055
 31
0.0
  0
ARC
  5
284
330
1F
100
AcDbEntity
  8
鏡台
  6
CONTINUOUS
 62
     2
100
AcDbCircle
 10
1605.5
 20
664.9600732931099
 30
0.0
 40
5.0
100
AcDbArc
 50
180.0
 51
256.7594800848177
  0
ARC
  5
285
330
1F
100
AcDbEntity
  8
鏡台
  6
CONTINUOUS
 62
     2
100
AcDbCircle
 10
1675.5
 20
645.2752208245374
 30
0.0
 40
5.0
100
AcDbArc
 50
0.0
 51
76.75948008481878
  0
ARC
  5
286
330
1F
100
AcDbEntity
  8
鏡台
  6
CONTINUOUS
 62
     2
100
AcDbCircle
 10
1685.5
 20
501.0
 30
0.0
 40
5.0
100
AcDbArc
 50
180.0
 51
270.0
  0
POLYLINE
  5
287
330
1F
100
AcDbEntity
  8
鏡台
  6
CONTINUOUS
 62
     2
100
AcDb2dPolyline
 66
     1
 10
0.0
 20
0.0
 30
0.0
 70
   128
  0
VERTEX
  5
288
330
287
100
AcDbEntity
  8
鏡台
  6
CONTINUOUS
 62
     2
100
AcDbVertex
100
AcDb2dVertex
 10
1593.5
 20
711.0
 30
0.0
  0
VERTEX
  5
289
330
287
100
AcDbEntity
  8
鏡台
  6
CONTINUOUS
 62
     2
100
AcDbVertex
100
AcDb2dVertex
 10
1600.5
 20
711.0
 30
0.0
  0
VERTEX
  5
28A
330
287
100
AcDbEntity
  8
鏡台
  6
CONTINUOUS
 62
     2
100
AcDbVertex
100
AcDb2dVertex
 10
1600.5
 20
676.0
 30
0.0
  0
VERTEX
  5
28B
330
287
100
AcDbEntity
  8
鏡台
  6
CONTINUOUS
 62
     2
100
AcDbVertex
100
AcDb2dVertex
 10
1593.5
 20
676.0
 30
0.0
  0
VERTEX
  5
28C
330
287
100
AcDbEntity
  8
鏡台
  6
CONTINUOUS
 62
     2
100
AcDbVertex
100
AcDb2dVertex
 10
1593.5
 20
711.0
 30
0.0
  0
SEQEND
  5
28D
330
287
100
AcDbEntity
  8
鏡台
  6
CONTINUOUS
 62
     2
  0
LINE
  5
28E
330
1F
100
AcDbEntity
  8
鏡台
  6
CONTINUOUS
 62
     2
100
AcDbLine
 10
1680.5
 20
501.0
 30
0.0
 11
1680.5
 21
645.2752208245374
 31
0.0
  0
LINE
  5
28F
330
1F
100
AcDbEntity
  8
鏡台
  6
CONTINUOUS
 62
     2
100
AcDbLine
 10
1595.5
 20
1359.00000000001
 30
0.0
 11
1595.5
 21
773.0000000000099
 31
0.0
  0
ARC
  5
290
330
1F
100
AcDbEntity
  8
鏡台
  6
CONTINUOUS
 62
     2
100
AcDbCircle
 10
1597.5
 20
768.0000000000099
 30
0.0
 40
3.0
100
AcDbArc
 50
0.0
 51
90.00000000000001
  0
ARC
  5
291
330
1F
100
AcDbEntity
  8
鏡台
  6
CONTINUOUS
 62
     2
100
AcDbCircle
 10
1597.5
 20
773.0000000000099
 30
0.0
 40
2.0
100
AcDbArc
 50
180.0
 51
270.0
  0
ARC
  5
292
330
1F
100
AcDbEntity
  8
鏡台
  6
CONTINUOUS
 62
     2
100
AcDbCircle
 10
1597.5
 20
1359.00000000001
 30
0.0
 40
2.0
100
AcDbArc
 50
90.00000000000001
 51
180.0
  0
ARC
  5
293
330
1F
100
AcDbEntity
  8
鏡台
  6
CONTINUOUS
 62
     2
100
AcDbCircle
 10
1597.5
 20
1364.00000000001
 30
0.0
 40
3.0
100
AcDbArc
 50
270.0
 51
0.0
  0
LINE
  5
294
330
1F
100
AcDbEntity
  8
鏡台
  6
CONTINUOUS
 62
     2
100
AcDbLine
 10
1700.5
 20
1546.0
 30
0.0
 11
1605.5
 21
1546.0
 31
0.0
  0
ARC
  5
295
330
1F
100
AcDbEntity
  8
鏡台
  6
CONTINUOUS
 62
     2
100
AcDbCircle
 10
1605.5
 20
1541.0
 30
0.0
 40
5.0
100
AcDbArc
 50
90.00000000000001
 51
180.0
  0
LINE
  5
296
330
1F
100
AcDbEntity
  8
鏡台
  6
CONTINUOUS
 62
     2
100
AcDbLine
 10
1600.5
 20
1541.0
 30
0.0
 11
1600.5
 21
1364.0
 31
0.0
  0
LINE
  5
297
330
1F
100
AcDbEntity
  8
鏡台
  6
CONTINUOUS
 62
     2
100
AcDbLine
 10
1600.5
 20
1541.0
 30
0.0
 11
1600.5
 21
1437.500000225621
 31
0.0
  0
POLYLINE
  5
298
330
1F
100
AcDbEntity
  8
鏡台
  6
CONTINUOUS
 62
     2
100
AcDb2dPolyline
 66
     1
 10
0.0
 20
0.0
 30
0.0
 70
   128
  0
VERTEX
  5
299
330
298
100
AcDbEntity
  8
鏡台
  6
CONTINUOUS
 62
     2
100
AcDbVertex
100
AcDb2dVertex
 10
1540.5
 20
1518.103199118194
 30
0.0
  0
VERTEX
  5
29A
330
298
100
AcDbEntity
  8
鏡台
  6
CONTINUOUS
 62
     2
100
AcDbVertex
100
AcDb2dVertex
 10
1540.5
 20
1451.126619836454
 30
0.0
  0
SEQEND
  5
29B
330
298
100
AcDbEntity
  8
鏡台
  6
CONTINUOUS
 62
     2
  0
ARC
  5
29C
330
1F
100
AcDbEntity
  8
鏡台
  6
CONTINUOUS
 62
     2
100
AcDbCircle
 10
1550.432443158591
 20
1451.164364035355
 30
0.0
 40
9.932514874048659
100
AcDbArc
 50
180.2177281917423
 51
261.0498999193213
  0
POLYLINE
  5
29D
330
1F
100
AcDbEntity
  8
鏡台
  6
CONTINUOUS
 62
     2
100
AcDb2dPolyline
 66
     1
 10
0.0
 20
0.0
 30
0.0
 70
   128
  0
VERTEX
  5
29E
330
29D
100
AcDbEntity
  8
鏡台
  6
CONTINUOUS
 62
     2
100
AcDbVertex
100
AcDb2dVertex
 10
1548.887200000002
 20
1441.3527854007
 30
0.0
  0
VERTEX
  5
29F
330
29D
100
AcDbEntity
  8
鏡台
  6
CONTINUOUS
 62
     2
100
AcDbVertex
100
AcDb2dVertex
 10
1600.5
 20
1433.0
 30
0.0
  0
VERTEX
  5
2A0
330
29D
100
AcDbEntity
  8
鏡台
  6
CONTINUOUS
 62
     2
100
AcDbVertex
100
AcDb2dVertex
 10
1600.5
 20
1533.0
 30
0.0
  0
VERTEX
  5
2A1
330
29D
100
AcDbEntity
  8
鏡台
  6
CONTINUOUS
 62
     2
100
AcDbVertex
100
AcDb2dVertex
 10
1549.506477740268
 20
1527.957670860793
 30
0.0
  0
SEQEND
  5
2A2
330
29D
100
AcDbEntity
  8
鏡台
  6
CONTINUOUS
 62
     2
  0
ARC
  5
2A3
330
1F
100
AcDbEntity
  8
鏡台
  6
CONTINUOUS
 62
     2
100
AcDbCircle
 10
1550.440120326388
 20
1518.061406401127
 30
0.0
 40
9.940208183648503
100
AcDbArc
 50
95.38949959134817
 51
179.7591043051668
  0
POLYLINE
  5
2A4
330
1F
100
AcDbEntity
  8
鏡台
  6
CONTINUOUS
 62
     2
100
AcDb2dPolyline
 66
     1
 10
0.0
 20
0.0
 30
0.0
 70
   128
  0
VERTEX
  5
2A5
330
2A4
100
AcDbEntity
  8
鏡台
  6
CONTINUOUS
 62
     2
100
AcDbVertex
100
AcDb2dVertex
 10
1128.499999999995
 20
2001.0
 30
0.0
  0
VERTEX
  5
2A6
330
2A4
100
AcDbEntity
  8
鏡台
  6
CONTINUOUS
 62
     2
100
AcDbVertex
100
AcDb2dVertex
 10
378.499999999995
 20
2001.0
 30
0.0
  0
VERTEX
  5
2A7
330
2A4
100
AcDbEntity
  8
鏡台
  6
CONTINUOUS
 62
     2
100
AcDbVertex
100
AcDb2dVertex
 10
378.499999999995
 20
2021.0
 30
0.0
  0
VERTEX
  5
2A8
330
2A4
100
AcDbEntity
  8
鏡台
  6
CONTINUOUS
 62
     2
100
AcDbVertex
100
AcDb2dVertex
 10
1128.499999999995
 20
2021.0
 30
0.0
  0
VERTEX
  5
2A9
330
2A4
100
AcDbEntity
  8
鏡台
  6
CONTINUOUS
 62
     2
100
AcDbVertex
100
AcDb2dVertex
 10
1128.499999999995
 20
2001.0
 30
0.0
  0
SEQEND
  5
2AA
330
2A4
100
AcDbEntity
  8
鏡台
  6
CONTINUOUS
 62
     2
  0
LINE
  5
2AB
330
1F
100
AcDbEntity
  8
鏡台
  6
CONTINUOUS
 62
     2
100
AcDbLine
 10
378.499999999995
 20
2001.0
 30
0.0
 11
381.3917157868113
 21
1923.887579018233
 31
0.0
  0
LINE
  5
2AC
330
1F
100
AcDbEntity
  8
鏡台
  6
CONTINUOUS
 62
     2
100
AcDbLine
 10
1128.499999999995
 20
2001.0
 30
0.0
 11
1125.608284213179
 21
1923.887579018233
 31
0.0
  0
LINE
  5
2AD
330
1F
100
AcDbEntity
  8
鏡台
  6
CONTINUOUS
 62
     2
100
AcDbLine
 10
1122.610391366051
 20
1921.0
 30
0.0
 11
384.3896086339387
 21
1921.0
 31
0.0
  0
ARC
  5
2AE
330
1F
100
AcDbEntity
  8
鏡台
  6
CONTINUOUS
 62
     2
100
AcDbCircle
 10
1122.610391366051
 20
1924.0
 30
0.0
 40
3.000000000000114
100
AcDbArc
 50
270.0
 51
357.8524145716991
  0
ARC
  5
2AF
330
1F
100
AcDbEntity
  8
鏡台
  6
CONTINUOUS
 62
     2
100
AcDbCircle
 10
384.3896086339387
 20
1924.0
 30
0.0
 40
2.99999999999979
100
AcDbArc
 50
182.1475854282987
 51
270.0
  0
POLYLINE
  5
2B0
330
1F
100
AcDbEntity
  8
鏡台
  6
CONTINUOUS
 62
     2
100
AcDb2dPolyline
 66
     1
 10
0.0
 20
0.0
 30
0.0
 70
   128
  0
VERTEX
  5
2B1
330
2B0
100
AcDbEntity
  8
鏡台
  6
CONTINUOUS
 62
     2
100
AcDbVertex
100
AcDb2dVertex
 10
1068.799663404127
 20
1881.447638730993
 30
0.0
  0
VERTEX
  5
2B2
330
2B0
100
AcDbEntity
  8
鏡台
  6
CONTINUOUS
 62
     2
100
AcDbVertex
100
AcDb2dVertex
 10
1068.790289969762
 20
1881.443938080771
 30
0.0
  0
VERTEX
  5
2B3
330
2B0
100
AcDbEntity
  8
鏡台
  6
CONTINUOUS
 62
     2
100
AcDbVertex
100
AcDb2dVertex
 10
1068.780907424175
 20
1881.440269656406
 30
0.0
  0
VERTEX
  5
2B4
330
2B0
100
AcDbEntity
  8
鏡台
  6
CONTINUOUS
 62
     2
100
AcDbVertex
100
AcDb2dVertex
 10
1068.771515767367
 20
1881.436633457898
 30
0.0
  0
VERTEX
  5
2B5
330
2B0
100
AcDbEntity
  8
鏡台
  6
CONTINUOUS
 62
     2
100
AcDbVertex
100
AcDb2dVertex
 10
1068.762114999337
 20
1881.433029485246
 30
0.0
  0
VERTEX
  5
2B6
330
2B0
100
AcDbEntity
  8
鏡台
  6
CONTINUOUS
 62
     2
100
AcDbVertex
100
AcDb2dVertex
 10
1068.752705120085
 20
1881.42945773845
 30
0.0
  0
VERTEX
  5
2B7
330
2B0
100
AcDbEntity
  8
鏡台
  6
CONTINUOUS
 62
     2
100
AcDbVertex
100
AcDb2dVertex
 10
1068.743286129612
 20
1881.425918217512
 30
0.0
  0
VERTEX
  5
2B8
330
2B0
100
AcDbEntity
  8
鏡台
  6
CONTINUOUS
 62
     2
100
AcDbVertex
100
AcDb2dVertex
 10
1068.733858027917
 20
1881.422410922429
 30
0.0
  0
VERTEX
  5
2B9
330
2B0
100
AcDbEntity
  8
鏡台
  6
CONTINUOUS
 62
     2
100
AcDbVertex
100
AcDb2dVertex
 10
1068.724420815001
 20
1881.418935853204
 30
0.0
  0
VERTEX
  5
2BA
330
2B0
100
AcDbEntity
  8
鏡台
  6
CONTINUOUS
 62
     2
100
AcDbVertex
100
AcDb2dVertex
 10
1068.714974490863
 20
1881.415493009835
 30
0.0
  0
VERTEX
  5
2BB
330
2B0
100
AcDbEntity
  8
鏡台
  6
CONTINUOUS
 62
     2
100
AcDbVertex
100
AcDb2dVertex
 10
1068.705519055504
 20
1881.412082392323
 30
0.0
  0
VERTEX
  5
2BC
330
2B0
100
AcDbEntity
  8
鏡台
  6
CONTINUOUS
 62
     2
100
AcDbVertex
100
AcDb2dVertex
 10
1068.696054508923
 20
1881.408704000667
 30
0.0
  0
VERTEX
  5
2BD
330
2B0
100
AcDbEntity
  8
鏡台
  6
CONTINUOUS
 62
     2
100
AcDbVertex
100
AcDb2dVertex
 10
1068.686580851121
 20
1881.405357834868
 30
0.0
  0
VERTEX
  5
2BE
330
2B0
100
AcDbEntity
  8
鏡台
  6
CONTINUOUS
 62
     2
100
AcDbVertex
100
AcDb2dVertex
 10
1068.677098082097
 20
1881.402043894925
 30
0.0
  0
VERTEX
  5
2BF
330
2B0
100
AcDbEntity
  8
鏡台
  6
CONTINUOUS
 62
     2
100
AcDbVertex
100
AcDb2dVertex
 10
1068.667606201851
 20
1881.398762180839
 30
0.0
  0
VERTEX
  5
2C0
330
2B0
100
AcDbEntity
  8
鏡台
  6
CONTINUOUS
 62
     2
100
AcDbVertex
100
AcDb2dVertex
 10
1068.658105210384
 20
1881.39551269261
 30
0.0
  0
VERTEX
  5
2C1
330
2B0
100
AcDbEntity
  8
鏡台
  6
CONTINUOUS
 62
     2
100
AcDbVertex
100
AcDb2dVertex
 10
1068.648595107696
 20
1881.392295430237
 30
0.0
  0
VERTEX
  5
2C2
330
2B0
100
AcDbEntity
  8
鏡台
  6
CONTINUOUS
 62
     2
100
AcDbVertex
100
AcDb2dVertex
 10
1068.639075893786
 20
1881.389110393721
 30
0.0
  0
VERTEX
  5
2C3
330
2B0
100
AcDbEntity
  8
鏡台
  6
CONTINUOUS
 62
     2
100
AcDbVertex
100
AcDb2dVertex
 10
1068.629547568654
 20
1881.385957583061
 30
0.0
  0
VERTEX
  5
2C4
330
2B0
100
AcDbEntity
  8
鏡台
  6
CONTINUOUS
 62
     2
100
AcDbVertex
100
AcDb2dVertex
 10
1068.620010132301
 20
1881.382836998258
 30
0.0
  0
VERTEX
  5
2C5
330
2B0
100
AcDbEntity
  8
鏡台
  6
CONTINUOUS
 62
     2
100
AcDbVertex
100
AcDb2dVertex
 10
1068.610463584726
 20
1881.379748639312
 30
0.0
  0
VERTEX
  5
2C6
330
2B0
100
AcDbEntity
  8
鏡台
  6
CONTINUOUS
 62
     2
100
AcDbVertex
100
AcDb2dVertex
 10
1068.60090792593
 20
1881.376692506222
 30
0.0
  0
VERTEX
  5
2C7
330
2B0
100
AcDbEntity
  8
鏡台
  6
CONTINUOUS
 62
     2
100
AcDbVertex
100
AcDb2dVertex
 10
1068.591343155912
 20
1881.373668598989
 30
0.0
  0
VERTEX
  5
2C8
330
2B0
100
AcDbEntity
  8
鏡台
  6
CONTINUOUS
 62
     2
100
AcDbVertex
100
AcDb2dVertex
 10
1068.581769274673
 20
1881.370676917612
 30
0.0
  0
VERTEX
  5
2C9
330
2B0
100
AcDbEntity
  8
鏡台
  6
CONTINUOUS
 62
     2
100
AcDbVertex
100
AcDb2dVertex
 10
1068.572186282212
 20
1881.367717462093
 30
0.0
  0
VERTEX
  5
2CA
330
2B0
100
AcDbEntity
  8
鏡台
  6
CONTINUOUS
 62
     2
100
AcDbVertex
100
AcDb2dVertex
 10
1068.562594178529
 20
1881.364790232429
 30
0.0
  0
VERTEX
  5
2CB
330
2B0
100
AcDbEntity
  8
鏡台
  6
CONTINUOUS
 62
     2
100
AcDbVertex
100
AcDb2dVertex
 10
1068.552992963625
 20
1881.361895228622
 30
0.0
  0
VERTEX
  5
2CC
330
2B0
100
AcDbEntity
  8
鏡台
  6
CONTINUOUS
 62
     2
100
AcDbVertex
100
AcDb2dVertex
 10
1068.5433826375
 20
1881.359032450672
 30
0.0
  0
VERTEX
  5
2CD
330
2B0
100
AcDbEntity
  8
鏡台
  6
CONTINUOUS
 62
     2
100
AcDbVertex
100
AcDb2dVertex
 10
1068.533763200153
 20
1881.356201898579
 30
0.0
  0
VERTEX
  5
2CE
330
2B0
100
AcDbEntity
  8
鏡台
  6
CONTINUOUS
 62
     2
100
AcDbVertex
100
AcDb2dVertex
 10
1068.524134651585
 20
1881.353403572342
 30
0.0
  0
VERTEX
  5
2CF
330
2B0
100
AcDbEntity
  8
鏡台
  6
CONTINUOUS
 62
     2
100
AcDbVertex
100
AcDb2dVertex
 10
1068.514496991794
 20
1881.350637471961
 30
0.0
  0
VERTEX
  5
2D0
330
2B0
100
AcDbEntity
  8
鏡台
  6
CONTINUOUS
 62
     2
100
AcDbVertex
100
AcDb2dVertex
 10
1068.504850220783
 20
1881.347903597437
 30
0.0
  0
VERTEX
  5
2D1
330
2B0
100
AcDbEntity
  8
鏡台
  6
CONTINUOUS
 62
     2
100
AcDbVertex
100
AcDb2dVertex
 10
1068.495194338549
 20
1881.34520194877
 30
0.0
  0
VERTEX
  5
2D2
330
2B0
100
AcDbEntity
  8
鏡台
  6
CONTINUOUS
 62
     2
100
AcDbVertex
100
AcDb2dVertex
 10
1068.485529345095
 20
1881.34253252596
 30
0.0
  0
VERTEX
  5
2D3
330
2B0
100
AcDbEntity
  8
鏡台
  6
CONTINUOUS
 62
     2
100
AcDbVertex
100
AcDb2dVertex
 10
1068.475855240418
 20
1881.339895329005
 30
0.0
  0
VERTEX
  5
2D4
330
2B0
100
AcDbEntity
  8
鏡台
  6
CONTINUOUS
 62
     2
100
AcDbVertex
100
AcDb2dVertex
 10
1068.466172024521
 20
1881.337290357908
 30
0.0
  0
VERTEX
  5
2D5
330
2B0
100
AcDbEntity
  8
鏡台
  6
CONTINUOUS
 62
     2
100
AcDbVertex
100
AcDb2dVertex
 10
1068.456479697401
 20
1881.334717612667
 30
0.0
  0
VERTEX
  5
2D6
330
2B0
100
AcDbEntity
  8
鏡台
  6
CONTINUOUS
 62
     2
100
AcDbVertex
100
AcDb2dVertex
 10
1068.44677825906
 20
1881.332177093283
 30
0.0
  0
VERTEX
  5
2D7
330
2B0
100
AcDbEntity
  8
鏡台
  6
CONTINUOUS
 62
     2
100
AcDbVertex
100
AcDb2dVertex
 10
1068.437067709498
 20
1881.329668799756
 30
0.0
  0
VERTEX
  5
2D8
330
2B0
100
AcDbEntity
  8
鏡台
  6
CONTINUOUS
 62
     2
100
AcDbVertex
100
AcDb2dVertex
 10
1068.427348048714
 20
1881.327192732085
 30
0.0
  0
VERTEX
  5
2D9
330
2B0
100
AcDbEntity
  8
鏡台
  6
CONTINUOUS
 62
     2
100
AcDbVertex
100
AcDb2dVertex
 10
1068.417619276709
 20
1881.32474889027
 30
0.0
  0
VERTEX
  5
2DA
330
2B0
100
AcDbEntity
  8
鏡台
  6
CONTINUOUS
 62
     2
100
AcDbVertex
100
AcDb2dVertex
 10
1068.407881393482
 20
1881.322337274313
 30
0.0
  0
VERTEX
  5
2DB
330
2B0
100
AcDbEntity
  8
鏡台
  6
CONTINUOUS
 62
     2
100
AcDbVertex
100
AcDb2dVertex
 10
1068.398134399033
 20
1881.319957884211
 30
0.0
  0
VERTEX
  5
2DC
330
2B0
100
AcDbEntity
  8
鏡台
  6
CONTINUOUS
 62
     2
100
AcDbVertex
100
AcDb2dVertex
 10
1068.388378293363
 20
1881.317610719967
 30
0.0
  0
VERTEX
  5
2DD
330
2B0
100
AcDbEntity
  8
鏡台
  6
CONTINUOUS
 62
     2
100
AcDbVertex
100
AcDb2dVertex
 10
1068.378613076471
 20
1881.315295781578
 30
0.0
  0
VERTEX
  5
2DE
330
2B0
100
AcDbEntity
  8
鏡台
  6
CONTINUOUS
 62
     2
100
AcDbVertex
100
AcDb2dVertex
 10
1068.368838748358
 20
1881.313013069047
 30
0.0
  0
VERTEX
  5
2DF
330
2B0
100
AcDbEntity
  8
鏡台
  6
CONTINUOUS
 62
     2
100
AcDbVertex
100
AcDb2dVertex
 10
1068.359055309023
 20
1881.310762582372
 30
0.0
  0
VERTEX
  5
2E0
330
2B0
100
AcDbEntity
  8
鏡台
  6
CONTINUOUS
 62
     2
100
AcDbVertex
100
AcDb2dVertex
 10
1068.349262758467
 20
1881.308544321554
 30
0.0
  0
VERTEX
  5
2E1
330
2B0
100
AcDbEntity
  8
鏡台
  6
CONTINUOUS
 62
     2
100
AcDbVertex
100
AcDb2dVertex
 10
1068.339461096689
 20
1881.306358286593
 30
0.0
  0
VERTEX
  5
2E2
330
2B0
100
AcDbEntity
  8
鏡台
  6
CONTINUOUS
 62
     2
100
AcDbVertex
100
AcDb2dVertex
 10
1068.32965032369
 20
1881.304204477487
 30
0.0
  0
VERTEX
  5
2E3
330
2B0
100
AcDbEntity
  8
鏡台
  6
CONTINUOUS
 62
     2
100
AcDbVertex
100
AcDb2dVertex
 10
1068.319830439469
 20
1881.302082894239
 30
0.0
  0
VERTEX
  5
2E4
330
2B0
100
AcDbEntity
  8
鏡台
  6
CONTINUOUS
 62
     2
100
AcDbVertex
100
AcDb2dVertex
 10
1068.310001444027
 20
1881.299993536847
 30
0.0
  0
VERTEX
  5
2E5
330
2B0
100
AcDbEntity
  8
鏡台
  6
CONTINUOUS
 62
     2
100
AcDbVertex
100
AcDb2dVertex
 10
1068.300163337362
 20
1881.297936405312
 30
0.0
  0
VERTEX
  5
2E6
330
2B0
100
AcDbEntity
  8
鏡台
  6
CONTINUOUS
 62
     2
100
AcDbVertex
100
AcDb2dVertex
 10
1068.290316119477
 20
1881.295911499633
 30
0.0
  0
VERTEX
  5
2E7
330
2B0
100
AcDbEntity
  8
鏡台
  6
CONTINUOUS
 62
     2
100
AcDbVertex
100
AcDb2dVertex
 10
1068.28045979037
 20
1881.293918819811
 30
0.0
  0
VERTEX
  5
2E8
330
2B0
100
AcDbEntity
  8
鏡台
  6
CONTINUOUS
 62
     2
100
AcDbVertex
100
AcDb2dVertex
 10
1068.270594350041
 20
1881.291958365846
 30
0.0
  0
VERTEX
  5
2E9
330
2B0
100
AcDbEntity
  8
鏡台
  6
CONTINUOUS
 62
     2
100
AcDbVertex
100
AcDb2dVertex
 10
1068.260719798491
 20
1881.290030137737
 30
0.0
  0
VERTEX
  5
2EA
330
2B0
100
AcDbEntity
  8
鏡台
  6
CONTINUOUS
 62
     2
100
AcDbVertex
100
AcDb2dVertex
 10
1068.25083613572
 20
1881.288134135485
 30
0.0
  0
VERTEX
  5
2EB
330
2B0
100
AcDbEntity
  8
鏡台
  6
CONTINUOUS
 62
     2
100
AcDbVertex
100
AcDb2dVertex
 10
1068.240943361726
 20
1881.286270359089
 30
0.0
  0
VERTEX
  5
2EC
330
2B0
100
AcDbEntity
  8
鏡台
  6
CONTINUOUS
 62
     2
100
AcDbVertex
100
AcDb2dVertex
 10
1068.231041476512
 20
1881.28443880855
 30
0.0
  0
VERTEX
  5
2ED
330
2B0
100
AcDbEntity
  8
鏡台
  6
CONTINUOUS
 62
     2
100
AcDbVertex
100
AcDb2dVertex
 10
1068.221130480075
 20
1881.282639483868
 30
0.0
  0
VERTEX
  5
2EE
330
2B0
100
AcDbEntity
  8
鏡台
  6
CONTINUOUS
 62
     2
100
AcDbVertex
100
AcDb2dVertex
 10
1068.211210372417
 20
1881.280872385042
 30
0.0
  0
VERTEX
  5
2EF
330
2B0
100
AcDbEntity
  8
鏡台
  6
CONTINUOUS
 62
     2
100
AcDbVertex
100
AcDb2dVertex
 10
1068.201281153538
 20
1881.279137512073
 30
0.0
  0
VERTEX
  5
2F0
330
2B0
100
AcDbEntity
  8
鏡台
  6
CONTINUOUS
 62
     2
100
AcDbVertex
100
AcDb2dVertex
 10
1068.191342823437
 20
1881.27743486496
 30
0.0
  0
VERTEX
  5
2F1
330
2B0
100
AcDbEntity
  8
鏡台
  6
CONTINUOUS
 62
     2
100
AcDbVertex
100
AcDb2dVertex
 10
1068.181395382114
 20
1881.275764443704
 30
0.0
  0
SEQEND
  5
2F2
330
2B0
100
AcDbEntity
  8
鏡台
  6
CONTINUOUS
 62
     2
  0
ARC
  5
2F3
330
1F
100
AcDbEntity
  8
鏡台
  6
CONTINUOUS
 62
     2
100
AcDbCircle
 10
753.4999999999959
 20
4313.077392679629
 30
0.0
 40
2452.077392679631
100
AcDbArc
 50
262.6267514329845
 51
277.3732485670155
  0
POLYLINE
  5
2F4
330
1F
100
AcDbEntity
  8
鏡台
  6
CONTINUOUS
 62
     2
100
AcDb2dPolyline
 66
     1
 10
0.0
 20
0.0
 30
0.0
 70
   128
  0
VERTEX
  5
2F5
330
2F4
100
AcDbEntity
  8
鏡台
  6
CONTINUOUS
 62
     2
100
AcDbVertex
100
AcDb2dVertex
 10
438.8186046178762
 20
1881.275764443704
 30
0.0
  0
VERTEX
  5
2F6
330
2F4
100
AcDbEntity
  8
鏡台
  6
CONTINUOUS
 62
     2
100
AcDbVertex
100
AcDb2dVertex
 10
438.8086571912017
 20
1881.27743486496
 30
0.0
  0
VERTEX
  5
2F7
330
2F4
100
AcDbEntity
  8
鏡台
  6
CONTINUOUS
 62
     2
100
AcDbVertex
100
AcDb2dVertex
 10
438.7987189050464
 20
1881.279137512073
 30
0.0
  0
VERTEX
  5
2F8
330
2F4
100
AcDbEntity
  8
鏡台
  6
CONTINUOUS
 62
     2
100
AcDbVertex
100
AcDb2dVertex
 10
438.7887897594092
 20
1881.280872385042
 30
0.0
  0
VERTEX
  5
2F9
330
2F4
100
AcDbEntity
  8
鏡台
  6
CONTINUOUS
 62
     2
100
AcDbVertex
100
AcDb2dVertex
 10
438.7788697542906
 20
1881.282639483868
 30
0.0
  0
VERTEX
  5
2FA
330
2F4
100
AcDbEntity
  8
鏡台
  6
CONTINUOUS
 62
     2
100
AcDbVertex
100
AcDb2dVertex
 10
438.7689588896901
 20
1881.28443880855
 30
0.0
  0
VERTEX
  5
2FB
330
2F4
100
AcDbEntity
  8
鏡台
  6
CONTINUOUS
 62
     2
100
AcDbVertex
100
AcDb2dVertex
 10
438.7590571656078
 20
1881.286270359089
 30
0.0
  0
VERTEX
  5
2FC
330
2F4
100
AcDbEntity
  8
鏡台
  6
CONTINUOUS
 62
     2
100
AcDbVertex
100
AcDb2dVertex
 10
438.7491645820442
 20
1881.288134135485
 30
0.0
  0
VERTEX
  5
2FD
330
2F4
100
AcDbEntity
  8
鏡台
  6
CONTINUOUS
 62
     2
100
AcDbVertex
100
AcDb2dVertex
 10
438.7392811389991
 20
1881.290030137737
 30
0.0
  0
VERTEX
  5
2FE
330
2F4
100
AcDbEntity
  8
鏡台
  6
CONTINUOUS
 62
     2
100
AcDbVertex
100
AcDb2dVertex
 10
438.7294068364727
 20
1881.291958365846
 30
0.0
  0
VERTEX
  5
2FF
330
2F4
100
AcDbEntity
  8
鏡台
  6
CONTINUOUS
 62
     2
100
AcDbVertex
100
AcDb2dVertex
 10
438.7195416744644
 20
1881.293918819811
 30
0.0
  0
VERTEX
  5
300
330
2F4
100
AcDbEntity
  8
鏡台
  6
CONTINUOUS
 62
     2
100
AcDbVertex
100
AcDb2dVertex
 10
438.7096856529743
 20
1881.295911499633
 30
0.0
  0
VERTEX
  5
301
330
2F4
100
AcDbEntity
  8
鏡台
  6
CONTINUOUS
 62
     2
100
AcDbVertex
100
AcDb2dVertex
 10
438.6998387720027
 20
1881.297936405312
 30
0.0
  0
VERTEX
  5
302
330
2F4
100
AcDbEntity
  8
鏡台
  6
CONTINUOUS
 62
     2
100
AcDbVertex
100
AcDb2dVertex
 10
438.6900010315499
 20
1881.299993536847
 30
0.0
  0
VERTEX
  5
303
330
2F4
100
AcDbEntity
  8
鏡台
  6
CONTINUOUS
 62
     2
100
AcDbVertex
100
AcDb2dVertex
 10
438.6801724316151
 20
1881.302082894239
 30
0.0
  0
VERTEX
  5
304
330
2F4
100
AcDbEntity
  8
鏡台
  6
CONTINUOUS
 62
     2
100
AcDbVertex
100
AcDb2dVertex
 10
438.6703529721985
 20
1881.304204477487
 30
0.0
  0
VERTEX
  5
305
330
2F4
100
AcDbEntity
  8
鏡台
  6
CONTINUOUS
 62
     2
100
AcDbVertex
100
AcDb2dVertex
 10
438.660542653301
 20
1881.306358286593
 30
0.0
  0
VERTEX
  5
306
330
2F4
100
AcDbEntity
  8
鏡台
  6
CONTINUOUS
 62
     2
100
AcDbVertex
100
AcDb2dVertex
 10
438.6507414749217
 20
1881.308544321554
 30
0.0
  0
VERTEX
  5
307
330
2F4
100
AcDbEntity
  8
鏡台
  6
CONTINUOUS
 62
     2
100
AcDbVertex
100
AcDb2dVertex
 10
438.6409494370605
 20
1881.310762582372
 30
0.0
  0
VERTEX
  5
308
330
2F4
100
AcDbEntity
  8
鏡台
  6
CONTINUOUS
 62
     2
100
AcDbVertex
100
AcDb2dVertex
 10
438.6311665397179
 20
1881.313013069047
 30
0.0
  0
VERTEX
  5
309
330
2F4
100
AcDbEntity
  8
鏡台
  6
CONTINUOUS
 62
     2
100
AcDbVertex
100
AcDb2dVertex
 10
438.6213927828935
 20
1881.315295781578
 30
0.0
  0
VERTEX
  5
30A
330
2F4
100
AcDbEntity
  8
鏡台
  6
CONTINUOUS
 62
     2
100
AcDbVertex
100
AcDb2dVertex
 10
438.6116281665877
 20
1881.317610719967
 30
0.0
  0
VERTEX
  5
30B
330
2F4
100
AcDbEntity
  8
鏡台
  6
CONTINUOUS
 62
     2
100
AcDbVertex
100
AcDb2dVertex
 10
438.6018726908005
 20
1881.319957884211
 30
0.0
  0
VERTEX
  5
30C
330
2F4
100
AcDbEntity
  8
鏡台
  6
CONTINUOUS
 62
     2
100
AcDbVertex
100
AcDb2dVertex
 10
438.5921263555315
 20
1881.322337274313
 30
0.0
  0
VERTEX
  5
30D
330
2F4
100
AcDbEntity
  8
鏡台
  6
CONTINUOUS
 62
     2
100
AcDbVertex
100
AcDb2dVertex
 10
438.5823891607811
 20
1881.32474889027
 30
0.0
  0
VERTEX
  5
30E
330
2F4
100
AcDbEntity
  8
鏡台
  6
CONTINUOUS
 62
     2
100
AcDbVertex
100
AcDb2dVertex
 10
438.5726611065488
 20
1881.327192732085
 30
0.0
  0
VERTEX
  5
30F
330
2F4
100
AcDbEntity
  8
鏡台
  6
CONTINUOUS
 62
     2
100
AcDbVertex
100
AcDb2dVertex
 10
438.5629421928352
 20
1881.329668799756
 30
0.0
  0
VERTEX
  5
310
330
2F4
100
AcDbEntity
  8
鏡台
  6
CONTINUOUS
 62
     2
100
AcDbVertex
100
AcDb2dVertex
 10
438.5532324196397
 20
1881.332177093283
 30
0.0
  0
VERTEX
  5
311
330
2F4
100
AcDbEntity
  8
鏡台
  6
CONTINUOUS
 62
     2
100
AcDbVertex
100
AcDb2dVertex
 10
438.5435317869628
 20
1881.334717612667
 30
0.0
  0
VERTEX
  5
312
330
2F4
100
AcDbEntity
  8
鏡台
  6
CONTINUOUS
 62
     2
100
AcDbVertex
100
AcDb2dVertex
 10
438.5338402948046
 20
1881.337290357908
 30
0.0
  0
VERTEX
  5
313
330
2F4
100
AcDbEntity
  8
鏡台
  6
CONTINUOUS
 62
     2
100
AcDbVertex
100
AcDb2dVertex
 10
438.5241579431645
 20
1881.339895329005
 30
0.0
  0
VERTEX
  5
314
330
2F4
100
AcDbEntity
  8
鏡台
  6
CONTINUOUS
 62
     2
100
AcDbVertex
100
AcDb2dVertex
 10
438.514484732043
 20
1881.34253252596
 30
0.0
  0
VERTEX
  5
315
330
2F4
100
AcDbEntity
  8
鏡台
  6
CONTINUOUS
 62
     2
100
AcDbVertex
100
AcDb2dVertex
 10
438.5048206614397
 20
1881.34520194877
 30
0.0
  0
VERTEX
  5
316
330
2F4
100
AcDbEntity
  8
鏡台
  6
CONTINUOUS
 62
     2
100
AcDbVertex
100
AcDb2dVertex
 10
438.495165731355
 20
1881.347903597437
 30
0.0
  0
VERTEX
  5
317
330
2F4
100
AcDbEntity
  8
鏡台
  6
CONTINUOUS
 62
     2
100
AcDbVertex
100
AcDb2dVertex
 10
438.4855199417884
 20
1881.350637471961
 30
0.0
  0
VERTEX
  5
318
330
2F4
100
AcDbEntity
  8
鏡台
  6
CONTINUOUS
 62
     2
100
AcDbVertex
100
AcDb2dVertex
 10
438.4758832927405
 20
1881.353403572342
 30
0.0
  0
VERTEX
  5
319
330
2F4
100
AcDbEntity
  8
鏡台
  6
CONTINUOUS
 62
     2
100
AcDbVertex
100
AcDb2dVertex
 10
438.4662557842107
 20
1881.356201898579
 30
0.0
  0
VERTEX
  5
31A
330
2F4
100
AcDbEntity
  8
鏡台
  6
CONTINUOUS
 62
     2
100
AcDbVertex
100
AcDb2dVertex
 10
438.4566374161996
 20
1881.359032450672
 30
0.0
  0
VERTEX
  5
31B
330
2F4
100
AcDbEntity
  8
鏡台
  6
CONTINUOUS
 62
     2
100
AcDbVertex
100
AcDb2dVertex
 10
438.447028188707
 20
1881.361895228622
 30
0.0
  0
VERTEX
  5
31C
330
2F4
100
AcDbEntity
  8
鏡台
  6
CONTINUOUS
 62
     2
100
AcDbVertex
100
AcDb2dVertex
 10
438.4374281017326
 20
1881.364790232429
 30
0.0
  0
VERTEX
  5
31D
330
2F4
100
AcDbEntity
  8
鏡台
  6
CONTINUOUS
 62
     2
100
AcDbVertex
100
AcDb2dVertex
 10
438.4278371552768
 20
1881.367717462093
 30
0.0
  0
VERTEX
  5
31E
330
2F4
100
AcDbEntity
  8
鏡台
  6
CONTINUOUS
 62
     2
100
AcDbVertex
100
AcDb2dVertex
 10
438.4182553493392
 20
1881.370676917612
 30
0.0
  0
VERTEX
  5
31F
330
2F4
100
AcDbEntity
  8
鏡台
  6
CONTINUOUS
 62
     2
100
AcDbVertex
100
AcDb2dVertex
 10
438.4086826839202
 20
1881.373668598989
 30
0.0
  0
VERTEX
  5
320
330
2F4
100
AcDbEntity
  8
鏡台
  6
CONTINUOUS
 62
     2
100
AcDbVertex
100
AcDb2dVertex
 10
438.3991191590194
 20
1881.376692506222
 30
0.0
  0
VERTEX
  5
321
330
2F4
100
AcDbEntity
  8
鏡台
  6
CONTINUOUS
 62
     2
100
AcDbVertex
100
AcDb2dVertex
 10
438.3895647746372
 20
1881.379748639312
 30
0.0
  0
VERTEX
  5
322
330
2F4
100
AcDbEntity
  8
鏡台
  6
CONTINUOUS
 62
     2
100
AcDbVertex
100
AcDb2dVertex
 10
438.3800195307736
 20
1881.382836998258
 30
0.0
  0
VERTEX
  5
323
330
2F4
100
AcDbEntity
  8
鏡台
  6
CONTINUOUS
 62
     2
100
AcDbVertex
100
AcDb2dVertex
 10
438.3704834274276
 20
1881.385957583061
 30
0.0
  0
VERTEX
  5
324
330
2F4
100
AcDbEntity
  8
鏡台
  6
CONTINUOUS
 62
     2
100
AcDbVertex
100
AcDb2dVertex
 10
438.3609564646008
 20
1881.389110393721
 30
0.0
  0
VERTEX
  5
325
330
2F4
100
AcDbEntity
  8
鏡台
  6
CONTINUOUS
 62
     2
100
AcDbVertex
100
AcDb2dVertex
 10
438.3514386422921
 20
1881.392295430237
 30
0.0
  0
VERTEX
  5
326
330
2F4
100
AcDbEntity
  8
鏡台
  6
CONTINUOUS
 62
     2
100
AcDbVertex
100
AcDb2dVertex
 10
438.3419299605021
 20
1881.39551269261
 30
0.0
  0
VERTEX
  5
327
330
2F4
100
AcDbEntity
  8
鏡台
  6
CONTINUOUS
 62
     2
100
AcDbVertex
100
AcDb2dVertex
 10
438.3324304192301
 20
1881.398762180839
 30
0.0
  0
VERTEX
  5
328
330
2F4
100
AcDbEntity
  8
鏡台
  6
CONTINUOUS
 62
     2
100
AcDbVertex
100
AcDb2dVertex
 10
438.3229400184769
 20
1881.402043894925
 30
0.0
  0
VERTEX
  5
329
330
2F4
100
AcDbEntity
  8
鏡台
  6
CONTINUOUS
 62
     2
100
AcDbVertex
100
AcDb2dVertex
 10
438.3134587582417
 20
1881.405357834868
 30
0.0
  0
VERTEX
  5
32A
330
2F4
100
AcDbEntity
  8
鏡台
  6
CONTINUOUS
 62
     2
100
AcDbVertex
100
AcDb2dVertex
 10
438.3039866385252
 20
1881.408704000667
 30
0.0
  0
VERTEX
  5
32B
330
2F4
100
AcDbEntity
  8
鏡台
  6
CONTINUOUS
 62
     2
100
AcDbVertex
100
AcDb2dVertex
 10
438.2945236593273
 20
1881.412082392323
 30
0.0
  0
VERTEX
  5
32C
330
2F4
100
AcDbEntity
  8
鏡台
  6
CONTINUOUS
 62
     2
100
AcDbVertex
100
AcDb2dVertex
 10
438.2850698206475
 20
1881.415493009835
 30
0.0
  0
VERTEX
  5
32D
330
2F4
100
AcDbEntity
  8
鏡台
  6
CONTINUOUS
 62
     2
100
AcDbVertex
100
AcDb2dVertex
 10
438.275625122486
 20
1881.418935853204
 30
0.0
  0
VERTEX
  5
32E
330
2F4
100
AcDbEntity
  8
鏡台
  6
CONTINUOUS
 62
     2
100
AcDbVertex
100
AcDb2dVertex
 10
438.2661895648434
 20
1881.422410922429
 30
0.0
  0
VERTEX
  5
32F
330
2F4
100
AcDbEntity
  8
鏡台
  6
CONTINUOUS
 62
     2
100
AcDbVertex
100
AcDb2dVertex
 10
438.2567631477191
 20
1881.425918217512
 30
0.0
  0
VERTEX
  5
330
330
2F4
100
AcDbEntity
  8
鏡台
  6
CONTINUOUS
 62
     2
100
AcDbVertex
100
AcDb2dVertex
 10
438.2473458711129
 20
1881.42945773845
 30
0.0
  0
VERTEX
  5
331
330
2F4
100
AcDbEntity
  8
鏡台
  6
CONTINUOUS
 62
     2
100
AcDbVertex
100
AcDb2dVertex
 10
438.2379377350253
 20
1881.433029485246
 30
0.0
  0
VERTEX
  5
332
330
2F4
100
AcDbEntity
  8
鏡台
  6
CONTINUOUS
 62
     2
100
AcDbVertex
100
AcDb2dVertex
 10
438.2285387394559
 20
1881.436633457898
 30
0.0
  0
VERTEX
  5
333
330
2F4
100
AcDbEntity
  8
鏡台
  6
CONTINUOUS
 62
     2
100
AcDbVertex
100
AcDb2dVertex
 10
438.2191488844051
 20
1881.440269656406
 30
0.0
  0
VERTEX
  5
334
330
2F4
100
AcDbEntity
  8
鏡台
  6
CONTINUOUS
 62
     2
100
AcDbVertex
100
AcDb2dVertex
 10
438.2097681698729
 20
1881.443938080771
 30
0.0
  0
VERTEX
  5
335
330
2F4
100
AcDbEntity
  8
鏡台
  6
CONTINUOUS
 62
     2
100
AcDbVertex
100
AcDb2dVertex
 10
438.2003965958588
 20
1881.447638730993
 30
0.0
  0
VERTEX
  5
336
330
2F4
100
AcDbEntity
  8
鏡台
  6
CONTINUOUS
 62
     2
100
AcDbVertex
100
AcDb2dVertex
 10
390.3858234414542
 20
1900.416236782085
 30
0.0
  0
VERTEX
  5
337
330
2F4
100
AcDbEntity
  8
鏡台
  6
CONTINUOUS
 62
     2
100
AcDbVertex
100
AcDb2dVertex
 10
390.3592113931054
 20
1900.426928670981
 30
0.0
  0
VERTEX
  5
338
330
2F4
100
AcDbEntity
  8
鏡台
  6
CONTINUOUS
 62
     2
100
AcDbVertex
100
AcDb2dVertex
 10
390.3327645950526
 20
1900.437824028458
 30
0.0
  0
VERTEX
  5
339
330
2F4
100
AcDbEntity
  8
鏡台
  6
CONTINUOUS
 62
     2
100
AcDbVertex
100
AcDb2dVertex
 10
390.3064830472968
 20
1900.448922854515
 30
0.0
  0
VERTEX
  5
33A
330
2F4
100
AcDbEntity
  8
鏡台
  6
CONTINUOUS
 62
     2
100
AcDbVertex
100
AcDb2dVertex
 10
390.280366749837
 20
1900.460225149154
 30
0.0
  0
VERTEX
  5
33B
330
2F4
100
AcDbEntity
  8
鏡台
  6
CONTINUOUS
 62
     2
100
AcDbVertex
100
AcDb2dVertex
 10
390.2544157026741
 20
1900.471730912373
 30
0.0
  0
VERTEX
  5
33C
330
2F4
100
AcDbEntity
  8
鏡台
  6
CONTINUOUS
 62
     2
100
AcDbVertex
100
AcDb2dVertex
 10
390.2286299058073
 20
1900.483440144174
 30
0.0
  0
VERTEX
  5
33D
330
2F4
100
AcDbEntity
  8
鏡台
  6
CONTINUOUS
 62
     2
100
AcDbVertex
100
AcDb2dVertex
 10
390.2030093592371
 20
1900.495352844555
 30
0.0
  0
VERTEX
  5
33E
330
2F4
100
AcDbEntity
  8
鏡台
  6
CONTINUOUS
 62
     2
100
AcDbVertex
100
AcDb2dVertex
 10
390.1775540629633
 20
1900.507469013517
 30
0.0
  0
VERTEX
  5
33F
330
2F4
100
AcDbEntity
  8
鏡台
  6
CONTINUOUS
 62
     2
100
AcDbVertex
100
AcDb2dVertex
 10
390.152264016986
 20
1900.51978865106
 30
0.0
  0
VERTEX
  5
340
330
2F4
100
AcDbEntity
  8
鏡台
  6
CONTINUOUS
 62
     2
100
AcDbVertex
100
AcDb2dVertex
 10
390.1271392213052
 20
1900.532311757185
 30
0.0
  0
VERTEX
  5
341
330
2F4
100
AcDbEntity
  8
鏡台
  6
CONTINUOUS
 62
     2
100
AcDbVertex
100
AcDb2dVertex
 10
390.1021796759205
 20
1900.545038331889
 30
0.0
  0
VERTEX
  5
342
330
2F4
100
AcDbEntity
  8
鏡台
  6
CONTINUOUS
 62
     2
100
AcDbVertex
100
AcDb2dVertex
 10
390.0773853808328
 20
1900.557968375175
 30
0.0
  0
VERTEX
  5
343
330
2F4
100
AcDbEntity
  8
鏡台
  6
CONTINUOUS
 62
     2
100
AcDbVertex
100
AcDb2dVertex
 10
390.0527563360411
 20
1900.571101887042
 30
0.0
  0
VERTEX
  5
344
330
2F4
100
AcDbEntity
  8
鏡台
  6
CONTINUOUS
 62
     2
100
AcDbVertex
100
AcDb2dVertex
 10
390.0282925415459
 20
1900.58443886749
 30
0.0
  0
VERTEX
  5
345
330
2F4
100
AcDbEntity
  8
鏡台
  6
CONTINUOUS
 62
     2
100
AcDbVertex
100
AcDb2dVertex
 10
390.0039939973476
 20
1900.597979316519
 30
0.0
  0
VERTEX
  5
346
330
2F4
100
AcDbEntity
  8
鏡台
  6
CONTINUOUS
 62
     2
100
AcDbVertex
100
AcDb2dVertex
 10
389.9798607034454
 20
1900.611723234128
 30
0.0
  0
VERTEX
  5
347
330
2F4
100
AcDbEntity
  8
鏡台
  6
CONTINUOUS
 62
     2
100
AcDbVertex
100
AcDb2dVertex
 10
389.9558926598397
 20
1900.625670620319
 30
0.0
  0
VERTEX
  5
348
330
2F4
100
AcDbEntity
  8
鏡台
  6
CONTINUOUS
 62
     2
100
AcDbVertex
100
AcDb2dVertex
 10
389.9320898665305
 20
1900.63982147509
 30
0.0
  0
VERTEX
  5
349
330
2F4
100
AcDbEntity
  8
鏡台
  6
CONTINUOUS
 62
     2
100
AcDbVertex
100
AcDb2dVertex
 10
389.9084523235174
 20
1900.654175798443
 30
0.0
  0
VERTEX
  5
34A
330
2F4
100
AcDbEntity
  8
鏡台
  6
CONTINUOUS
 62
     2
100
AcDbVertex
100
AcDb2dVertex
 10
389.8849800308012
 20
1900.668733590376
 30
0.0
  0
VERTEX
  5
34B
330
2F4
100
AcDbEntity
  8
鏡台
  6
CONTINUOUS
 62
     2
100
AcDbVertex
100
AcDb2dVertex
 10
389.8616729883815
 20
1900.68349485089
 30
0.0
  0
VERTEX
  5
34C
330
2F4
100
AcDbEntity
  8
鏡台
  6
CONTINUOUS
 62
     2
100
AcDbVertex
100
AcDb2dVertex
 10
389.8385311962579
 20
1900.698459579985
 30
0.0
  0
VERTEX
  5
34D
330
2F4
100
AcDbEntity
  8
鏡台
  6
CONTINUOUS
 62
     2
100
AcDbVertex
100
AcDb2dVertex
 10
389.8155546544308
 20
1900.713627777661
 30
0.0
  0
VERTEX
  5
34E
330
2F4
100
AcDbEntity
  8
鏡台
  6
CONTINUOUS
 62
     2
100
AcDbVertex
100
AcDb2dVertex
 10
389.7927433629002
 20
1900.728999443919
 30
0.0
  0
VERTEX
  5
34F
330
2F4
100
AcDbEntity
  8
鏡台
  6
CONTINUOUS
 62
     2
100
AcDbVertex
100
AcDb2dVertex
 10
389.7700973216661
 20
1900.744574578757
 30
0.0
  0
VERTEX
  5
350
330
2F4
100
AcDbEntity
  8
鏡台
  6
CONTINUOUS
 62
     2
100
AcDbVertex
100
AcDb2dVertex
 10
389.7476165307289
 20
1900.760353182175
 30
0.0
  0
VERTEX
  5
351
330
2F4
100
AcDbEntity
  8
鏡台
  6
CONTINUOUS
 62
     2
100
AcDbVertex
100
AcDb2dVertex
 10
389.7253009900874
 20
1900.776335254175
 30
0.0
  0
VERTEX
  5
352
330
2F4
100
AcDbEntity
  8
鏡台
  6
CONTINUOUS
 62
     2
100
AcDbVertex
100
AcDb2dVertex
 10
389.7031506997428
 20
1900.792520794756
 30
0.0
  0
VERTEX
  5
353
330
2F4
100
AcDbEntity
  8
鏡台
  6
CONTINUOUS
 62
     2
100
AcDbVertex
100
AcDb2dVertex
 10
389.6811656596947
 20
1900.808909803917
 30
0.0
  0
VERTEX
  5
354
330
2F4
100
AcDbEntity
  8
鏡台
  6
CONTINUOUS
 62
     2
100
AcDbVertex
100
AcDb2dVertex
 10
389.6593458699426
 20
1900.82550228166
 30
0.0
  0
VERTEX
  5
355
330
2F4
100
AcDbEntity
  8
鏡台
  6
CONTINUOUS
 62
     2
100
AcDbVertex
100
AcDb2dVertex
 10
389.6376913304871
 20
1900.842298227984
 30
0.0
  0
VERTEX
  5
356
330
2F4
100
AcDbEntity
  8
鏡台
  6
CONTINUOUS
 62
     2
100
AcDbVertex
100
AcDb2dVertex
 10
389.6162020413285
 20
1900.859297642888
 30
0.0
  0
VERTEX
  5
357
330
2F4
100
AcDbEntity
  8
鏡台
  6
CONTINUOUS
 62
     2
100
AcDbVertex
100
AcDb2dVertex
 10
389.594878002466
 20
1900.876500526373
 30
0.0
  0
VERTEX
  5
358
330
2F4
100
AcDbEntity
  8
鏡台
  6
CONTINUOUS
 62
     2
100
AcDbVertex
100
AcDb2dVertex
 10
389.5737192138999
 20
1900.89390687844
 30
0.0
  0
VERTEX
  5
359
330
2F4
100
AcDbEntity
  8
鏡台
  6
CONTINUOUS
 62
     2
100
AcDbVertex
100
AcDb2dVertex
 10
389.5527256756304
 20
1900.911516699087
 30
0.0
  0
VERTEX
  5
35A
330
2F4
100
AcDbEntity
  8
鏡台
  6
CONTINUOUS
 62
     2
100
AcDbVertex
100
AcDb2dVertex
 10
389.5318973876574
 20
1900.929329988315
 30
0.0
  0
VERTEX
  5
35B
330
2F4
100
AcDbEntity
  8
鏡台
  6
CONTINUOUS
 62
     2
100
AcDbVertex
100
AcDb2dVertex
 10
389.5112343499804
 20
1900.947346746124
 30
0.0
  0
VERTEX
  5
35C
330
2F4
100
AcDbEntity
  8
鏡台
  6
CONTINUOUS
 62
     2
100
AcDbVertex
100
AcDb2dVertex
 10
389.4907365626004
 20
1900.965566972514
 30
0.0
  0
VERTEX
  5
35D
330
2F4
100
AcDbEntity
  8
鏡台
  6
CONTINUOUS
 62
     2
100
AcDbVertex
100
AcDb2dVertex
 10
389.4704040255165
 20
1900.983990667484
 30
0.0
  0
VERTEX
  5
35E
330
2F4
100
AcDbEntity
  8
鏡台
  6
CONTINUOUS
 62
     2
100
AcDbVertex
100
AcDb2dVertex
 10
389.4502367387295
 20
1901.002617831036
 30
0.0
  0
VERTEX
  5
35F
330
2F4
100
AcDbEntity
  8
鏡台
  6
CONTINUOUS
 62
     2
100
AcDbVertex
100
AcDb2dVertex
 10
389.4302347022385
 20
1901.021448463169
 30
0.0
  0
VERTEX
  5
360
330
2F4
100
AcDbEntity
  8
鏡台
  6
CONTINUOUS
 62
     2
100
AcDbVertex
100
AcDb2dVertex
 10
389.4103979160441
 20
1901.040482563883
 30
0.0
  0
VERTEX
  5
361
330
2F4
100
AcDbEntity
  8
鏡台
  6
CONTINUOUS
 62
     2
100
AcDbVertex
100
AcDb2dVertex
 10
389.3907263801461
 20
1901.059720133177
 30
0.0
  0
VERTEX
  5
362
330
2F4
100
AcDbEntity
  8
鏡台
  6
CONTINUOUS
 62
     2
100
AcDbVertex
100
AcDb2dVertex
 10
389.3712200945447
 20
1901.079161171053
 30
0.0
  0
VERTEX
  5
363
330
2F4
100
AcDbEntity
  8
鏡台
  6
CONTINUOUS
 62
     2
100
AcDbVertex
100
AcDb2dVertex
 10
389.3518790592398
 20
1901.098805677509
 30
0.0
  0
VERTEX
  5
364
330
2F4
100
AcDbEntity
  8
鏡台
  6
CONTINUOUS
 62
     2
100
AcDbVertex
100
AcDb2dVertex
 10
389.3327032742309
 20
1901.118653652547
 30
0.0
  0
VERTEX
  5
365
330
2F4
100
AcDbEntity
  8
鏡台
  6
CONTINUOUS
 62
     2
100
AcDbVertex
100
AcDb2dVertex
 10
389.313692739519
 20
1901.138705096165
 30
0.0
  0
VERTEX
  5
366
330
2F4
100
AcDbEntity
  8
鏡台
  6
CONTINUOUS
 62
     2
100
AcDbVertex
100
AcDb2dVertex
 10
389.2948474551031
 20
1901.158960008364
 30
0.0
  0
VERTEX
  5
367
330
2F4
100
AcDbEntity
  8
鏡台
  6
CONTINUOUS
 62
     2
100
AcDbVertex
100
AcDb2dVertex
 10
389.2761674209842
 20
1901.179418389144
 30
0.0
  0
VERTEX
  5
368
330
2F4
100
AcDbEntity
  8
鏡台
  6
CONTINUOUS
 62
     2
100
AcDbVertex
100
AcDb2dVertex
 10
389.2576526371613
 20
1901.200080238505
 30
0.0
  0
VERTEX
  5
369
330
2F4
100
AcDbEntity
  8
鏡台
  6
CONTINUOUS
 62
     2
100
AcDbVertex
100
AcDb2dVertex
 10
389.2393031036349
 20
1901.220945556447
 30
0.0
  0
VERTEX
  5
36A
330
2F4
100
AcDbEntity
  8
鏡台
  6
CONTINUOUS
 62
     2
100
AcDbVertex
100
AcDb2dVertex
 10
389.2211188204051
 20
1901.24201434297
 30
0.0
  0
VERTEX
  5
36B
330
2F4
100
AcDbEntity
  8
鏡台
  6
CONTINUOUS
 62
     2
100
AcDbVertex
100
AcDb2dVertex
 10
389.2030997874717
 20
1901.263286598074
 30
0.0
  0
VERTEX
  5
36C
330
2F4
100
AcDbEntity
  8
鏡台
  6
CONTINUOUS
 62
     2
100
AcDbVertex
100
AcDb2dVertex
 10
389.1852460048349
 20
1901.284762321759
 30
0.0
  0
VERTEX
  5
36D
330
2F4
100
AcDbEntity
  8
鏡台
  6
CONTINUOUS
 62
     2
100
AcDbVertex
100
AcDb2dVertex
 10
389.1675574724941
 20
1901.306441514024
 30
0.0
  0
VERTEX
  5
36E
330
2F4
100
AcDbEntity
  8
鏡台
  6
CONTINUOUS
 62
     2
100
AcDbVertex
100
AcDb2dVertex
 10
389.1500341904502
 20
1901.328324174871
 30
0.0
  0
VERTEX
  5
36F
330
2F4
100
AcDbEntity
  8
鏡台
  6
CONTINUOUS
 62
     2
100
AcDbVertex
100
AcDb2dVertex
 10
389.1326761587025
 20
1901.350410304298
 30
0.0
  0
VERTEX
  5
370
330
2F4
100
AcDbEntity
  8
鏡台
  6
CONTINUOUS
 62
     2
100
AcDbVertex
100
AcDb2dVertex
 10
389.1154833772512
 20
1901.372699902307
 30
0.0
  0
VERTEX
  5
371
330
2F4
100
AcDbEntity
  8
鏡台
  6
CONTINUOUS
 62
     2
100
AcDbVertex
100
AcDb2dVertex
 10
389.0984558460964
 20
1901.395192968896
 30
0.0
  0
VERTEX
  5
372
330
2F4
100
AcDbEntity
  8
鏡台
  6
CONTINUOUS
 62
     2
100
AcDbVertex
100
AcDb2dVertex
 10
389.0815935652386
 20
1901.417889504066
 30
0.0
  0
VERTEX
  5
373
330
2F4
100
AcDbEntity
  8
鏡台
  6
CONTINUOUS
 62
     2
100
AcDbVertex
100
AcDb2dVertex
 10
389.0648965346763
 20
1901.440789507817
 30
0.0
  0
VERTEX
  5
374
330
2F4
100
AcDbEntity
  8
鏡台
  6
CONTINUOUS
 62
     2
100
AcDbVertex
100
AcDb2dVertex
 10
389.0483647544111
 20
1901.46389298015
 30
0.0
  0
VERTEX
  5
375
330
2F4
100
AcDbEntity
  8
鏡台
  6
CONTINUOUS
 62
     2
100
AcDbVertex
100
AcDb2dVertex
 10
389.0319982244423
 20
1901.487199921063
 30
0.0
  0
VERTEX
  5
376
330
2F4
100
AcDbEntity
  8
鏡台
  6
CONTINUOUS
 62
     2
100
AcDbVertex
100
AcDb2dVertex
 10
389.01579694477
 20
1901.510710330557
 30
0.0
  0
VERTEX
  5
377
330
2F4
100
AcDbEntity
  8
鏡台
  6
CONTINUOUS
 62
     2
100
AcDbVertex
100
AcDb2dVertex
 10
388.9998042172342
 20
1901.534360775963
 30
0.0
  0
VERTEX
  5
378
330
2F4
100
AcDbEntity
  8
鏡台
  6
CONTINUOUS
 62
     2
100
AcDbVertex
100
AcDb2dVertex
 10
388.9840633436752
 20
1901.558087824611
 30
0.0
  0
VERTEX
  5
379
330
2F4
100
AcDbEntity
  8
鏡台
  6
CONTINUOUS
 62
     2
100
AcDbVertex
100
AcDb2dVertex
 10
388.9685743240934
 20
1901.581891476503
 30
0.0
  0
VERTEX
  5
37A
330
2F4
100
AcDbEntity
  8
鏡台
  6
CONTINUOUS
 62
     2
100
AcDbVertex
100
AcDb2dVertex
 10
388.9533371584885
 20
1901.605771731637
 30
0.0
  0
VERTEX
  5
37B
330
2F4
100
AcDbEntity
  8
鏡台
  6
CONTINUOUS
 62
     2
100
AcDbVertex
100
AcDb2dVertex
 10
388.9383518468603
 20
1901.629728590014
 30
0.0
  0
VERTEX
  5
37C
330
2F4
100
AcDbEntity
  8
鏡台
  6
CONTINUOUS
 62
     2
100
AcDbVertex
100
AcDb2dVertex
 10
388.9236183892094
 20
1901.653762051634
 30
0.0
  0
VERTEX
  5
37D
330
2F4
100
AcDbEntity
  8
鏡台
  6
CONTINUOUS
 62
     2
100
AcDbVertex
100
AcDb2dVertex
 10
388.9091367855353
 20
1901.677872116497
 30
0.0
  0
VERTEX
  5
37E
330
2F4
100
AcDbEntity
  8
鏡台
  6
CONTINUOUS
 62
     2
100
AcDbVertex
100
AcDb2dVertex
 10
388.8949070358385
 20
1901.702058784603
 30
0.0
  0
VERTEX
  5
37F
330
2F4
100
AcDbEntity
  8
鏡台
  6
CONTINUOUS
 62
     2
100
AcDbVertex
100
AcDb2dVertex
 10
388.880929140118
 20
1901.726322055951
 30
0.0
  0
VERTEX
  5
380
330
2F4
100
AcDbEntity
  8
鏡台
  6
CONTINUOUS
 62
     2
100
AcDbVertex
100
AcDb2dVertex
 10
388.8672030983748
 20
1901.750661930542
 30
0.0
  0
VERTEX
  5
381
330
2F4
100
AcDbEntity
  8
鏡台
  6
CONTINUOUS
 62
     2
100
AcDbVertex
100
AcDb2dVertex
 10
388.8537289106084
 20
1901.775078408376
 30
0.0
  0
VERTEX
  5
382
330
2F4
100
AcDbEntity
  8
鏡台
  6
CONTINUOUS
 62
     2
100
AcDbVertex
100
AcDb2dVertex
 10
388.8405065768193
 20
1901.799571489453
 30
0.0
  0
VERTEX
  5
383
330
2F4
100
AcDbEntity
  8
鏡台
  6
CONTINUOUS
 62
     2
100
AcDbVertex
100
AcDb2dVertex
 10
388.8275360970065
 20
1901.824141173773
 30
0.0
  0
VERTEX
  5
384
330
2F4
100
AcDbEntity
  8
鏡台
  6
CONTINUOUS
 62
     2
100
AcDbVertex
100
AcDb2dVertex
 10
388.814817471171
 20
1901.848787461335
 30
0.0
  0
VERTEX
  5
385
330
2F4
100
AcDbEntity
  8
鏡台
  6
CONTINUOUS
 62
     2
100
AcDbVertex
100
AcDb2dVertex
 10
388.8023506993127
 20
1901.873510352141
 30
0.0
  0
VERTEX
  5
386
330
2F4
100
AcDbEntity
  8
鏡台
  6
CONTINUOUS
 62
     2
100
AcDbVertex
100
AcDb2dVertex
 10
388.7901357814308
 20
1901.898309846189
 30
0.0
  0
VERTEX
  5
387
330
2F4
100
AcDbEntity
  8
鏡台
  6
CONTINUOUS
 62
     2
100
AcDbVertex
100
AcDb2dVertex
 10
388.7781727175261
 20
1901.92318594348
 30
0.0
  0
VERTEX
  5
388
330
2F4
100
AcDbEntity
  8
鏡台
  6
CONTINUOUS
 62
     2
100
AcDbVertex
100
AcDb2dVertex
 10
388.7664615075983
 20
1901.948138644014
 30
0.0
  0
VERTEX
  5
389
330
2F4
100
AcDbEntity
  8
鏡台
  6
CONTINUOUS
 62
     2
100
AcDbVertex
100
AcDb2dVertex
 10
388.7550021516477
 20
1901.973167947791
 30
0.0
  0
VERTEX
  5
38A
330
2F4
100
AcDbEntity
  8
鏡台
  6
CONTINUOUS
 62
     2
100
AcDbVertex
100
AcDb2dVertex
 10
388.7437946496739
 20
1901.99827385481
 30
0.0
  0
VERTEX
  5
38B
330
2F4
100
AcDbEntity
  8
鏡台
  6
CONTINUOUS
 62
     2
100
AcDbVertex
100
AcDb2dVertex
 10
388.7328390016769
 20
1902.023456365072
 30
0.0
  0
VERTEX
  5
38C
330
2F4
100
AcDbEntity
  8
鏡台
  6
CONTINUOUS
 62
     2
100
AcDbVertex
100
AcDb2dVertex
 10
388.7221352076567
 20
1902.048715478578
 30
0.0
  0
VERTEX
  5
38D
330
2F4
100
AcDbEntity
  8
鏡台
  6
CONTINUOUS
 62
     2
100
AcDbVertex
100
AcDb2dVertex
 10
388.7116832676138
 20
1902.074051195325
 30
0.0
  0
VERTEX
  5
38E
330
2F4
100
AcDbEntity
  8
鏡台
  6
CONTINUOUS
 62
     2
100
AcDbVertex
100
AcDb2dVertex
 10
388.7014831815477
 20
1902.099463515316
 30
0.0
  0
VERTEX
  5
38F
330
2F4
100
AcDbEntity
  8
鏡台
  6
CONTINUOUS
 62
     2
100
AcDbVertex
100
AcDb2dVertex
 10
388.6915349494584
 20
1902.12495243855
 30
0.0
  0
VERTEX
  5
390
330
2F4
100
AcDbEntity
  8
鏡台
  6
CONTINUOUS
 62
     2
100
AcDbVertex
100
AcDb2dVertex
 10
388.6818385713464
 20
1902.150517965026
 30
0.0
  0
VERTEX
  5
391
330
2F4
100
AcDbEntity
  8
鏡台
  6
CONTINUOUS
 62
     2
100
AcDbVertex
100
AcDb2dVertex
 10
388.6723940472111
 20
1902.176160094745
 30
0.0
  0
VERTEX
  5
392
330
2F4
100
AcDbEntity
  8
鏡台
  6
CONTINUOUS
 62
     2
100
AcDbVertex
100
AcDb2dVertex
 10
388.6632013770527
 20
1902.201878827708
 30
0.0
  0
VERTEX
  5
393
330
2F4
100
AcDbEntity
  8
鏡台
  6
CONTINUOUS
 62
     2
100
AcDbVertex
100
AcDb2dVertex
 10
388.6542605608715
 20
1902.227674163912
 30
0.0
  0
VERTEX
  5
394
330
2F4
100
AcDbEntity
  8
鏡台
  6
CONTINUOUS
 62
     2
100
AcDbVertex
100
AcDb2dVertex
 10
388.6455715986667
 20
1902.25354610336
 30
0.0
  0
VERTEX
  5
395
330
2F4
100
AcDbEntity
  8
鏡台
  6
CONTINUOUS
 62
     2
100
AcDbVertex
100
AcDb2dVertex
 10
388.6371344904392
 20
1902.279494646051
 30
0.0
  0
VERTEX
  5
396
330
2F4
100
AcDbEntity
  8
鏡台
  6
CONTINUOUS
 62
     2
100
AcDbVertex
100
AcDb2dVertex
 10
388.6289492361889
 20
1902.305519791984
 30
0.0
  0
VERTEX
  5
397
330
2F4
100
AcDbEntity
  8
鏡台
  6
CONTINUOUS
 62
     2
100
AcDbVertex
100
AcDb2dVertex
 10
388.6210158359149
 20
1902.33162154116
 30
0.0
  0
VERTEX
  5
398
330
2F4
100
AcDbEntity
  8
鏡台
  6
CONTINUOUS
 62
     2
100
AcDbVertex
100
AcDb2dVertex
 10
388.6133342896183
 20
1902.357799893579
 30
0.0
  0
VERTEX
  5
399
330
2F4
100
AcDbEntity
  8
鏡台
  6
CONTINUOUS
 62
     2
100
AcDbVertex
100
AcDb2dVertex
 10
388.6059045972988
 20
1902.384054849241
 30
0.0
  0
VERTEX
  5
39A
330
2F4
100
AcDbEntity
  8
鏡台
  6
CONTINUOUS
 62
     2
100
AcDbVertex
100
AcDb2dVertex
 10
388.5987267589558
 20
1902.410386408146
 30
0.0
  0
VERTEX
  5
39B
330
2F4
100
AcDbEntity
  8
鏡台
  6
CONTINUOUS
 62
     2
100
AcDbVertex
100
AcDb2dVertex
 10
388.59180077459
 20
1902.436794570293
 30
0.0
  0
VERTEX
  5
39C
330
2F4
100
AcDbEntity
  8
鏡台
  6
CONTINUOUS
 62
     2
100
AcDbVertex
100
AcDb2dVertex
 10
388.585126644201
 20
1902.463279335683
 30
0.0
  0
VERTEX
  5
39D
330
2F4
100
AcDbEntity
  8
鏡台
  6
CONTINUOUS
 62
     2
100
AcDbVertex
100
AcDb2dVertex
 10
388.5787043677892
 20
1902.489840704316
 30
0.0
  0
VERTEX
  5
39E
330
2F4
100
AcDbEntity
  8
鏡台
  6
CONTINUOUS
 62
     2
100
AcDbVertex
100
AcDb2dVertex
 10
388.5725339453538
 20
1902.516478676192
 30
0.0
  0
VERTEX
  5
39F
330
2F4
100
AcDbEntity
  8
鏡台
  6
CONTINUOUS
 62
     2
100
AcDbVertex
100
AcDb2dVertex
 10
388.5666153768962
 20
1902.543193251311
 30
0.0
  0
VERTEX
  5
3A0
330
2F4
100
AcDbEntity
  8
鏡台
  6
CONTINUOUS
 62
     2
100
AcDbVertex
100
AcDb2dVertex
 10
388.5609486624148
 20
1902.569984429673
 30
0.0
  0
VERTEX
  5
3A1
330
2F4
100
AcDbEntity
  8
鏡台
  6
CONTINUOUS
 62
     2
100
AcDbVertex
100
AcDb2dVertex
 10
388.5555338019103
 20
1902.596852211277
 30
0.0
  0
VERTEX
  5
3A2
330
2F4
100
AcDbEntity
  8
鏡台
  6
CONTINUOUS
 62
     2
100
AcDbVertex
100
AcDb2dVertex
 10
388.5503707953831
 20
1902.623796596124
 30
0.0
  0
VERTEX
  5
3A3
330
2F4
100
AcDbEntity
  8
鏡台
  6
CONTINUOUS
 62
     2
100
AcDbVertex
100
AcDb2dVertex
 10
388.5454596428331
 20
1902.650817584214
 30
0.0
  0
VERTEX
  5
3A4
330
2F4
100
AcDbEntity
  8
鏡台
  6
CONTINUOUS
 62
     2
100
AcDbVertex
100
AcDb2dVertex
 10
388.5408003442594
 20
1902.677915175547
 30
0.0
  0
VERTEX
  5
3A5
330
2F4
100
AcDbEntity
  8
鏡台
  6
CONTINUOUS
 62
     2
100
AcDbVertex
100
AcDb2dVertex
 10
388.536392899663
 20
1902.705089370123
 30
0.0
  0
VERTEX
  5
3A6
330
2F4
100
AcDbEntity
  8
鏡台
  6
CONTINUOUS
 62
     2
100
AcDbVertex
100
AcDb2dVertex
 10
388.5322373090435
 20
1902.732340167941
 30
0.0
  0
VERTEX
  5
3A7
330
2F4
100
AcDbEntity
  8
鏡台
  6
CONTINUOUS
 62
     2
100
AcDbVertex
100
AcDb2dVertex
 10
388.5283335724007
 20
1902.759667569002
 30
0.0
  0
VERTEX
  5
3A8
330
2F4
100
AcDbEntity
  8
鏡台
  6
CONTINUOUS
 62
     2
100
AcDbVertex
100
AcDb2dVertex
 10
388.5246816897352
 20
1902.787071573307
 30
0.0
  0
VERTEX
  5
3A9
330
2F4
100
AcDbEntity
  8
鏡台
  6
CONTINUOUS
 62
     2
100
AcDbVertex
100
AcDb2dVertex
 10
388.5212816610465
 20
1902.814552180854
 30
0.0
  0
VERTEX
  5
3AA
330
2F4
100
AcDbEntity
  8
鏡台
  6
CONTINUOUS
 62
     2
100
AcDbVertex
100
AcDb2dVertex
 10
388.5181334863346
 20
1902.842109391643
 30
0.0
  0
VERTEX
  5
3AB
330
2F4
100
AcDbEntity
  8
鏡台
  6
CONTINUOUS
 62
     2
100
AcDbVertex
100
AcDb2dVertex
 10
388.5152371656
 20
1902.869743205676
 30
0.0
  0
VERTEX
  5
3AC
330
2F4
100
AcDbEntity
  8
鏡台
  6
CONTINUOUS
 62
     2
100
AcDbVertex
100
AcDb2dVertex
 10
388.5125926988421
 20
1902.897453622951
 30
0.0
  0
VERTEX
  5
3AD
330
2F4
100
AcDbEntity
  8
鏡台
  6
CONTINUOUS
 62
     2
100
AcDbVertex
100
AcDb2dVertex
 10
388.5102000860611
 20
1902.92524064347
 30
0.0
  0
VERTEX
  5
3AE
330
2F4
100
AcDbEntity
  8
鏡台
  6
CONTINUOUS
 62
     2
100
AcDbVertex
100
AcDb2dVertex
 10
388.5080593272573
 20
1902.953104267231
 30
0.0
  0
VERTEX
  5
3AF
330
2F4
100
AcDbEntity
  8
鏡台
  6
CONTINUOUS
 62
     2
100
AcDbVertex
100
AcDb2dVertex
 10
388.5061704224299
 20
1902.981044494235
 30
0.0
  0
VERTEX
  5
3B0
330
2F4
100
AcDbEntity
  8
鏡台
  6
CONTINUOUS
 62
     2
100
AcDbVertex
100
AcDb2dVertex
 10
388.5045333715802
 20
1903.009061324481
 30
0.0
  0
VERTEX
  5
3B1
330
2F4
100
AcDbEntity
  8
鏡台
  6
CONTINUOUS
 62
     2
100
AcDbVertex
100
AcDb2dVertex
 10
388.5031481747069
 20
1903.037154757971
 30
0.0
  0
VERTEX
  5
3B2
330
2F4
100
AcDbEntity
  8
鏡台
  6
CONTINUOUS
 62
     2
100
AcDbVertex
100
AcDb2dVertex
 10
388.5020148318108
 20
1903.065324794703
 30
0.0
  0
VERTEX
  5
3B3
330
2F4
100
AcDbEntity
  8
鏡台
  6
CONTINUOUS
 62
     2
100
AcDbVertex
100
AcDb2dVertex
 10
388.5011333428911
 20
1903.093571434678
 30
0.0
  0
VERTEX
  5
3B4
330
2F4
100
AcDbEntity
  8
鏡台
  6
CONTINUOUS
 62
     2
100
AcDbVertex
100
AcDb2dVertex
 10
388.5005037079491
 20
1903.121894677897
 30
0.0
  0
VERTEX
  5
3B5
330
2F4
100
AcDbEntity
  8
鏡台
  6
CONTINUOUS
 62
     2
100
AcDbVertex
100
AcDb2dVertex
 10
388.5001259269834
 20
1903.150294524357
 30
0.0
  0
VERTEX
  5
3B6
330
2F4
100
AcDbEntity
  8
鏡台
  6
CONTINUOUS
 62
     2
100
AcDbVertex
100
AcDb2dVertex
 10
388.499999999995
 20
1903.178770974061
 30
0.0
  0
VERTEX
  5
3B7
330
2F4
100
AcDbEntity
  8
鏡台
  6
CONTINUOUS
 62
     2
100
AcDbVertex
100
AcDb2dVertex
 10
388.499999999995
 20
1921.0
 30
0.0
  0
VERTEX
  5
3B8
330
2F4
100
AcDbEntity
  8
鏡台
  6
CONTINUOUS
 62
     2
100
AcDbVertex
100
AcDb2dVertex
 10
1118.499999999995
 20
1921.0
 30
0.0
  0
VERTEX
  5
3B9
330
2F4
100
AcDbEntity
  8
鏡台
  6
CONTINUOUS
 62
     2
100
AcDbVertex
100
AcDb2dVertex
 10
1118.499999999995
 20
1903.178770974061
 30
0.0
  0
VERTEX
  5
3BA
330
2F4
100
AcDbEntity
  8
鏡台
  6
CONTINUOUS
 62
     2
100
AcDbVertex
100
AcDb2dVertex
 10
1118.499874073007
 20
1903.150294524357
 30
0.0
  0
VERTEX
  5
3BB
330
2F4
100
AcDbEntity
  8
鏡台
  6
CONTINUOUS
 62
     2
100
AcDbVertex
100
AcDb2dVertex
 10
1118.499496292041
 20
1903.121894677897
 30
0.0
  0
VERTEX
  5
3BC
330
2F4
100
AcDbEntity
  8
鏡台
  6
CONTINUOUS
 62
     2
100
AcDbVertex
100
AcDb2dVertex
 10
1118.498866657099
 20
1903.093571434678
 30
0.0
  0
VERTEX
  5
3BD
330
2F4
100
AcDbEntity
  8
鏡台
  6
CONTINUOUS
 62
     2
100
AcDbVertex
100
AcDb2dVertex
 10
1118.49798516818
 20
1903.065324794703
 30
0.0
  0
VERTEX
  5
3BE
330
2F4
100
AcDbEntity
  8
鏡台
  6
CONTINUOUS
 62
     2
100
AcDbVertex
100
AcDb2dVertex
 10
1118.496851825284
 20
1903.037154757971
 30
0.0
  0
VERTEX
  5
3BF
330
2F4
100
AcDbEntity
  8
鏡台
  6
CONTINUOUS
 62
     2
100
AcDbVertex
100
AcDb2dVertex
 10
1118.49546662841
 20
1903.009061324481
 30
0.0
  0
VERTEX
  5
3C0
330
2F4
100
AcDbEntity
  8
鏡台
  6
CONTINUOUS
 62
     2
100
AcDbVertex
100
AcDb2dVertex
 10
1118.49382957756
 20
1902.981044494235
 30
0.0
  0
VERTEX
  5
3C1
330
2F4
100
AcDbEntity
  8
鏡台
  6
CONTINUOUS
 62
     2
100
AcDbVertex
100
AcDb2dVertex
 10
1118.491940672733
 20
1902.953104267231
 30
0.0
  0
VERTEX
  5
3C2
330
2F4
100
AcDbEntity
  8
鏡台
  6
CONTINUOUS
 62
     2
100
AcDbVertex
100
AcDb2dVertex
 10
1118.489799913929
 20
1902.92524064347
 30
0.0
  0
VERTEX
  5
3C3
330
2F4
100
AcDbEntity
  8
鏡台
  6
CONTINUOUS
 62
     2
100
AcDbVertex
100
AcDb2dVertex
 10
1118.487407301148
 20
1902.897453622951
 30
0.0
  0
VERTEX
  5
3C4
330
2F4
100
AcDbEntity
  8
鏡台
  6
CONTINUOUS
 62
     2
100
AcDbVertex
100
AcDb2dVertex
 10
1118.48476283439
 20
1902.869743205676
 30
0.0
  0
VERTEX
  5
3C5
330
2F4
100
AcDbEntity
  8
鏡台
  6
CONTINUOUS
 62
     2
100
AcDbVertex
100
AcDb2dVertex
 10
1118.481866513655
 20
1902.842109391643
 30
0.0
  0
VERTEX
  5
3C6
330
2F4
100
AcDbEntity
  8
鏡台
  6
CONTINUOUS
 62
     2
100
AcDbVertex
100
AcDb2dVertex
 10
1118.478718338944
 20
1902.814552180854
 30
0.0
  0
VERTEX
  5
3C7
330
2F4
100
AcDbEntity
  8
鏡台
  6
CONTINUOUS
 62
     2
100
AcDbVertex
100
AcDb2dVertex
 10
1118.475318310255
 20
1902.787071573307
 30
0.0
  0
VERTEX
  5
3C8
330
2F4
100
AcDbEntity
  8
鏡台
  6
CONTINUOUS
 62
     2
100
AcDbVertex
100
AcDb2dVertex
 10
1118.471666427589
 20
1902.759667569002
 30
0.0
  0
VERTEX
  5
3C9
330
2F4
100
AcDbEntity
  8
鏡台
  6
CONTINUOUS
 62
     2
100
AcDbVertex
100
AcDb2dVertex
 10
1118.467762690947
 20
1902.732340167941
 30
0.0
  0
VERTEX
  5
3CA
330
2F4
100
AcDbEntity
  8
鏡台
  6
CONTINUOUS
 62
     2
100
AcDbVertex
100
AcDb2dVertex
 10
1118.463607100327
 20
1902.705089370123
 30
0.0
  0
VERTEX
  5
3CB
330
2F4
100
AcDbEntity
  8
鏡台
  6
CONTINUOUS
 62
     2
100
AcDbVertex
100
AcDb2dVertex
 10
1118.459199655731
 20
1902.677915175547
 30
0.0
  0
VERTEX
  5
3CC
330
2F4
100
AcDbEntity
  8
鏡台
  6
CONTINUOUS
 62
     2
100
AcDbVertex
100
AcDb2dVertex
 10
1118.454540357157
 20
1902.650817584214
 30
0.0
  0
VERTEX
  5
3CD
330
2F4
100
AcDbEntity
  8
鏡台
  6
CONTINUOUS
 62
     2
100
AcDbVertex
100
AcDb2dVertex
 10
1118.449629204607
 20
1902.623796596124
 30
0.0
  0
VERTEX
  5
3CE
330
2F4
100
AcDbEntity
  8
鏡台
  6
CONTINUOUS
 62
     2
100
AcDbVertex
100
AcDb2dVertex
 10
1118.44446619808
 20
1902.596852211277
 30
0.0
  0
VERTEX
  5
3CF
330
2F4
100
AcDbEntity
  8
鏡台
  6
CONTINUOUS
 62
     2
100
AcDbVertex
100
AcDb2dVertex
 10
1118.439051337576
 20
1902.569984429673
 30
0.0
  0
VERTEX
  5
3D0
330
2F4
100
AcDbEntity
  8
鏡台
  6
CONTINUOUS
 62
     2
100
AcDbVertex
100
AcDb2dVertex
 10
1118.433384623094
 20
1902.543193251311
 30
0.0
  0
VERTEX
  5
3D1
330
2F4
100
AcDbEntity
  8
鏡台
  6
CONTINUOUS
 62
     2
100
AcDbVertex
100
AcDb2dVertex
 10
1118.427466054636
 20
1902.516478676192
 30
0.0
  0
VERTEX
  5
3D2
330
2F4
100
AcDbEntity
  8
鏡台
  6
CONTINUOUS
 62
     2
100
AcDbVertex
100
AcDb2dVertex
 10
1118.421295632201
 20
1902.489840704316
 30
0.0
  0
VERTEX
  5
3D3
330
2F4
100
AcDbEntity
  8
鏡台
  6
CONTINUOUS
 62
     2
100
AcDbVertex
100
AcDb2dVertex
 10
1118.414873355789
 20
1902.463279335683
 30
0.0
  0
VERTEX
  5
3D4
330
2F4
100
AcDbEntity
  8
鏡台
  6
CONTINUOUS
 62
     2
100
AcDbVertex
100
AcDb2dVertex
 10
1118.4081992254
 20
1902.436794570293
 30
0.0
  0
VERTEX
  5
3D5
330
2F4
100
AcDbEntity
  8
鏡台
  6
CONTINUOUS
 62
     2
100
AcDbVertex
100
AcDb2dVertex
 10
1118.401273241034
 20
1902.410386408146
 30
0.0
  0
VERTEX
  5
3D6
330
2F4
100
AcDbEntity
  8
鏡台
  6
CONTINUOUS
 62
     2
100
AcDbVertex
100
AcDb2dVertex
 10
1118.394095402692
 20
1902.384054849241
 30
0.0
  0
VERTEX
  5
3D7
330
2F4
100
AcDbEntity
  8
鏡台
  6
CONTINUOUS
 62
     2
100
AcDbVertex
100
AcDb2dVertex
 10
1118.386665710372
 20
1902.357799893579
 30
0.0
  0
VERTEX
  5
3D8
330
2F4
100
AcDbEntity
  8
鏡台
  6
CONTINUOUS
 62
     2
100
AcDbVertex
100
AcDb2dVertex
 10
1118.378984164075
 20
1902.33162154116
 30
0.0
  0
VERTEX
  5
3D9
330
2F4
100
AcDbEntity
  8
鏡台
  6
CONTINUOUS
 62
     2
100
AcDbVertex
100
AcDb2dVertex
 10
1118.371050763802
 20
1902.305519791984
 30
0.0
  0
VERTEX
  5
3DA
330
2F4
100
AcDbEntity
  8
鏡台
  6
CONTINUOUS
 62
     2
100
AcDbVertex
100
AcDb2dVertex
 10
1118.362865509551
 20
1902.279494646051
 30
0.0
  0
VERTEX
  5
3DB
330
2F4
100
AcDbEntity
  8
鏡台
  6
CONTINUOUS
 62
     2
100
AcDbVertex
100
AcDb2dVertex
 10
1118.354428401323
 20
1902.25354610336
 30
0.0
  0
VERTEX
  5
3DC
330
2F4
100
AcDbEntity
  8
鏡台
  6
CONTINUOUS
 62
     2
100
AcDbVertex
100
AcDb2dVertex
 10
1118.345739439119
 20
1902.227674163912
 30
0.0
  0
VERTEX
  5
3DD
330
2F4
100
AcDbEntity
  8
鏡台
  6
CONTINUOUS
 62
     2
100
AcDbVertex
100
AcDb2dVertex
 10
1118.336798622937
 20
1902.201878827708
 30
0.0
  0
VERTEX
  5
3DE
330
2F4
100
AcDbEntity
  8
鏡台
  6
CONTINUOUS
 62
     2
100
AcDbVertex
100
AcDb2dVertex
 10
1118.327605952779
 20
1902.176160094745
 30
0.0
  0
VERTEX
  5
3DF
330
2F4
100
AcDbEntity
  8
鏡台
  6
CONTINUOUS
 62
     2
100
AcDbVertex
100
AcDb2dVertex
 10
1118.318161428644
 20
1902.150517965026
 30
0.0
  0
VERTEX
  5
3E0
330
2F4
100
AcDbEntity
  8
鏡台
  6
CONTINUOUS
 62
     2
100
AcDbVertex
100
AcDb2dVertex
 10
1118.308465050532
 20
1902.12495243855
 30
0.0
  0
VERTEX
  5
3E1
330
2F4
100
AcDbEntity
  8
鏡台
  6
CONTINUOUS
 62
     2
100
AcDbVertex
100
AcDb2dVertex
 10
1118.298516818442
 20
1902.099463515316
 30
0.0
  0
VERTEX
  5
3E2
330
2F4
100
AcDbEntity
  8
鏡台
  6
CONTINUOUS
 62
     2
100
AcDbVertex
100
AcDb2dVertex
 10
1118.288316732376
 20
1902.074051195325
 30
0.0
  0
VERTEX
  5
3E3
330
2F4
100
AcDbEntity
  8
鏡台
  6
CONTINUOUS
 62
     2
100
AcDbVertex
100
AcDb2dVertex
 10
1118.277864792333
 20
1902.048715478578
 30
0.0
  0
VERTEX
  5
3E4
330
2F4
100
AcDbEntity
  8
鏡台
  6
CONTINUOUS
 62
     2
100
AcDbVertex
100
AcDb2dVertex
 10
1118.267160998313
 20
1902.023456365072
 30
0.0
  0
VERTEX
  5
3E5
330
2F4
100
AcDbEntity
  8
鏡台
  6
CONTINUOUS
 62
     2
100
AcDbVertex
100
AcDb2dVertex
 10
1118.256205350316
 20
1901.99827385481
 30
0.0
  0
VERTEX
  5
3E6
330
2F4
100
AcDbEntity
  8
鏡台
  6
CONTINUOUS
 62
     2
100
AcDbVertex
100
AcDb2dVertex
 10
1118.244997848342
 20
1901.973167947791
 30
0.0
  0
VERTEX
  5
3E7
330
2F4
100
AcDbEntity
  8
鏡台
  6
CONTINUOUS
 62
     2
100
AcDbVertex
100
AcDb2dVertex
 10
1118.233538492392
 20
1901.948138644014
 30
0.0
  0
VERTEX
  5
3E8
330
2F4
100
AcDbEntity
  8
鏡台
  6
CONTINUOUS
 62
     2
100
AcDbVertex
100
AcDb2dVertex
 10
1118.221827282464
 20
1901.92318594348
 30
0.0
  0
VERTEX
  5
3E9
330
2F4
100
AcDbEntity
  8
鏡台
  6
CONTINUOUS
 62
     2
100
AcDbVertex
100
AcDb2dVertex
 10
1118.209864218559
 20
1901.898309846189
 30
0.0
  0
VERTEX
  5
3EA
330
2F4
100
AcDbEntity
  8
鏡台
  6
CONTINUOUS
 62
     2
100
AcDbVertex
100
AcDb2dVertex
 10
1118.197649300678
 20
1901.873510352141
 30
0.0
  0
VERTEX
  5
3EB
330
2F4
100
AcDbEntity
  8
鏡台
  6
CONTINUOUS
 62
     2
100
AcDbVertex
100
AcDb2dVertex
 10
1118.185182528819
 20
1901.848787461335
 30
0.0
  0
VERTEX
  5
3EC
330
2F4
100
AcDbEntity
  8
鏡台
  6
CONTINUOUS
 62
     2
100
AcDbVertex
100
AcDb2dVertex
 10
1118.172463902984
 20
1901.824141173773
 30
0.0
  0
VERTEX
  5
3ED
330
2F4
100
AcDbEntity
  8
鏡台
  6
CONTINUOUS
 62
     2
100
AcDbVertex
100
AcDb2dVertex
 10
1118.159493423171
 20
1901.799571489453
 30
0.0
  0
VERTEX
  5
3EE
330
2F4
100
AcDbEntity
  8
鏡台
  6
CONTINUOUS
 62
     2
100
AcDbVertex
100
AcDb2dVertex
 10
1118.146271089382
 20
1901.775078408376
 30
0.0
  0
VERTEX
  5
3EF
330
2F4
100
AcDbEntity
  8
鏡台
  6
CONTINUOUS
 62
     2
100
AcDbVertex
100
AcDb2dVertex
 10
1118.132796901615
 20
1901.750661930542
 30
0.0
  0
VERTEX
  5
3F0
330
2F4
100
AcDbEntity
  8
鏡台
  6
CONTINUOUS
 62
     2
100
AcDbVertex
100
AcDb2dVertex
 10
1118.119070859872
 20
1901.726322055951
 30
0.0
  0
VERTEX
  5
3F1
330
2F4
100
AcDbEntity
  8
鏡台
  6
CONTINUOUS
 62
     2
100
AcDbVertex
100
AcDb2dVertex
 10
1118.105092964152
 20
1901.702058784603
 30
0.0
  0
VERTEX
  5
3F2
330
2F4
100
AcDbEntity
  8
鏡台
  6
CONTINUOUS
 62
     2
100
AcDbVertex
100
AcDb2dVertex
 10
1118.090863214455
 20
1901.677872116497
 30
0.0
  0
VERTEX
  5
3F3
330
2F4
100
AcDbEntity
  8
鏡台
  6
CONTINUOUS
 62
     2
100
AcDbVertex
100
AcDb2dVertex
 10
1118.076381610781
 20
1901.653762051634
 30
0.0
  0
VERTEX
  5
3F4
330
2F4
100
AcDbEntity
  8
鏡台
  6
CONTINUOUS
 62
     2
100
AcDbVertex
100
AcDb2dVertex
 10
1118.06164815313
 20
1901.629728590014
 30
0.0
  0
VERTEX
  5
3F5
330
2F4
100
AcDbEntity
  8
鏡台
  6
CONTINUOUS
 62
     2
100
AcDbVertex
100
AcDb2dVertex
 10
1118.046662841502
 20
1901.605771731637
 30
0.0
  0
VERTEX
  5
3F6
330
2F4
100
AcDbEntity
  8
鏡台
  6
CONTINUOUS
 62
     2
100
AcDbVertex
100
AcDb2dVertex
 10
1118.031425675897
 20
1901.581891476503
 30
0.0
  0
VERTEX
  5
3F7
330
2F4
100
AcDbEntity
  8
鏡台
  6
CONTINUOUS
 62
     2
100
AcDbVertex
100
AcDb2dVertex
 10
1118.015936656315
 20
1901.558087824611
 30
0.0
  0
VERTEX
  5
3F8
330
2F4
100
AcDbEntity
  8
鏡台
  6
CONTINUOUS
 62
     2
100
AcDbVertex
100
AcDb2dVertex
 10
1118.000195782756
 20
1901.534360775963
 30
0.0
  0
VERTEX
  5
3F9
330
2F4
100
AcDbEntity
  8
鏡台
  6
CONTINUOUS
 62
     2
100
AcDbVertex
100
AcDb2dVertex
 10
1117.98420305522
 20
1901.510710330557
 30
0.0
  0
VERTEX
  5
3FA
330
2F4
100
AcDbEntity
  8
鏡台
  6
CONTINUOUS
 62
     2
100
AcDbVertex
100
AcDb2dVertex
 10
1117.968001773978
 20
1901.487199925497
 30
0.0
  0
VERTEX
  5
3FB
330
2F4
100
AcDbEntity
  8
鏡台
  6
CONTINUOUS
 62
     2
100
AcDbVertex
100
AcDb2dVertex
 10
1117.9516352393
 20
1901.463892997886
 30
0.0
  0
VERTEX
  5
3FC
330
2F4
100
AcDbEntity
  8
鏡台
  6
CONTINUOUS
 62
     2
100
AcDbVertex
100
AcDb2dVertex
 10
1117.935103451186
 20
1901.440789547724
 30
0.0
  0
VERTEX
  5
3FD
330
2F4
100
AcDbEntity
  8
鏡台
  6
CONTINUOUS
 62
     2
100
AcDbVertex
100
AcDb2dVertex
 10
1117.918406409637
 20
1901.417889575012
 30
0.0
  0
VERTEX
  5
3FE
330
2F4
100
AcDbEntity
  8
鏡台
  6
CONTINUOUS
 62
     2
100
AcDbVertex
100
AcDb2dVertex
 10
1117.901544114652
 20
1901.395193079748
 30
0.0
  0
VERTEX
  5
3FF
330
2F4
100
AcDbEntity
  8
鏡台
  6
CONTINUOUS
 62
     2
100
AcDbVertex
100
AcDb2dVertex
 10
1117.884516566231
 20
1901.372700061934
 30
0.0
  0
VERTEX
  5
400
330
2F4
100
AcDbEntity
  8
鏡台
  6
CONTINUOUS
 62
     2
100
AcDbVertex
100
AcDb2dVertex
 10
1117.867323764374
 20
1901.350410521569
 30
0.0
  0
VERTEX
  5
401
330
2F4
100
AcDbEntity
  8
鏡台
  6
CONTINUOUS
 62
     2
100
AcDbVertex
100
AcDb2dVertex
 10
1117.849965709081
 20
1901.328324458652
 30
0.0
  0
VERTEX
  5
402
330
2F4
100
AcDbEntity
  8
鏡台
  6
CONTINUOUS
 62
     2
100
AcDbVertex
100
AcDb2dVertex
 10
1117.832442400353
 20
1901.306441873185
 30
0.0
  0
VERTEX
  5
403
330
2F4
100
AcDbEntity
  8
鏡台
  6
CONTINUOUS
 62
     2
100
AcDbVertex
100
AcDb2dVertex
 10
1117.814753838188
 20
1901.284762765167
 30
0.0
  0
VERTEX
  5
404
330
2F4
100
AcDbEntity
  8
鏡台
  6
CONTINUOUS
 62
     2
100
AcDbVertex
100
AcDb2dVertex
 10
1117.796900022588
 20
1901.263287134598
 30
0.0
  0
VERTEX
  5
405
330
2F4
100
AcDbEntity
  8
鏡台
  6
CONTINUOUS
 62
     2
100
AcDbVertex
100
AcDb2dVertex
 10
1117.778880953552
 20
1901.242014981478
 30
0.0
  0
VERTEX
  5
406
330
2F4
100
AcDbEntity
  8
鏡台
  6
CONTINUOUS
 62
     2
100
AcDbVertex
100
AcDb2dVertex
 10
1117.760696631081
 20
1901.220946305807
 30
0.0
  0
VERTEX
  5
407
330
2F4
100
AcDbEntity
  8
鏡台
  6
CONTINUOUS
 62
     2
100
AcDbVertex
100
AcDb2dVertex
 10
1117.742347055173
 20
1901.200081107586
 30
0.0
  0
VERTEX
  5
408
330
2F4
100
AcDbEntity
  8
鏡台
  6
CONTINUOUS
 62
     2
100
AcDbVertex
100
AcDb2dVertex
 10
1117.72383222583
 20
1901.179419386813
 30
0.0
  0
VERTEX
  5
409
330
2F4
100
AcDbEntity
  8
鏡台
  6
CONTINUOUS
 62
     2
100
AcDbVertex
100
AcDb2dVertex
 10
1117.705152143051
 20
1901.15896114349
 30
0.0
  0
VERTEX
  5
40A
330
2F4
100
AcDbEntity
  8
鏡台
  6
CONTINUOUS
 62
     2
100
AcDbVertex
100
AcDb2dVertex
 10
1117.686306806836
 20
1901.138706377615
 30
0.0
  0
VERTEX
  5
40B
330
2F4
100
AcDbEntity
  8
鏡台
  6
CONTINUOUS
 62
     2
100
AcDbVertex
100
AcDb2dVertex
 10
1117.667296217186
 20
1901.11865508919
 30
0.0
  0
VERTEX
  5
40C
330
2F4
100
AcDbEntity
  8
鏡台
  6
CONTINUOUS
 62
     2
100
AcDbVertex
100
AcDb2dVertex
 10
1117.648120374099
 20
1901.098807278214
 30
0.0
  0
VERTEX
  5
40D
330
2F4
100
AcDbEntity
  8
鏡台
  6
CONTINUOUS
 62
     2
100
AcDbVertex
100
AcDb2dVertex
 10
1117.628779277577
 20
1901.079162944687
 30
0.0
  0
VERTEX
  5
40E
330
2F4
100
AcDbEntity
  8
鏡台
  6
CONTINUOUS
 62
     2
100
AcDbVertex
100
AcDb2dVertex
 10
1117.609272927619
 20
1901.059722088609
 30
0.0
  0
VERTEX
  5
40F
330
2F4
100
AcDbEntity
  8
鏡台
  6
CONTINUOUS
 62
     2
100
AcDbVertex
100
AcDb2dVertex
 10
1117.589601324225
 20
1901.04048470998
 30
0.0
  0
VERTEX
  5
410
330
2F4
100
AcDbEntity
  8
鏡台
  6
CONTINUOUS
 62
     2
100
AcDbVertex
100
AcDb2dVertex
 10
1117.569764467396
 20
1901.0214508088
 30
0.0
  0
VERTEX
  5
411
330
2F4
100
AcDbEntity
  8
鏡台
  6
CONTINUOUS
 62
     2
100
AcDbVertex
100
AcDb2dVertex
 10
1117.54976235713
 20
1901.002620385069
 30
0.0
  0
VERTEX
  5
412
330
2F4
100
AcDbEntity
  8
鏡台
  6
CONTINUOUS
 62
     2
100
AcDbVertex
100
AcDb2dVertex
 10
1117.529594993429
 20
1900.983993438788
 30
0.0
  0
VERTEX
  5
413
330
2F4
100
AcDbEntity
  8
鏡台
  6
CONTINUOUS
 62
     2
100
AcDbVertex
100
AcDb2dVertex
 10
1117.509262376292
 20
1900.965569969955
 30
0.0
  0
VERTEX
  5
414
330
2F4
100
AcDbEntity
  8
鏡台
  6
CONTINUOUS
 62
     2
100
AcDbVertex
100
AcDb2dVertex
 10
1117.488764505719
 20
1900.947349978572
 30
0.0
  0
VERTEX
  5
415
330
2F4
100
AcDbEntity
  8
鏡台
  6
CONTINUOUS
 62
     2
100
AcDbVertex
100
AcDb2dVertex
 10
1117.46810138171
 20
1900.929333464637
 30
0.0
  0
VERTEX
  5
416
330
2F4
100
AcDbEntity
  8
鏡台
  6
CONTINUOUS
 62
     2
100
AcDbVertex
100
AcDb2dVertex
 10
1117.447273004266
 20
1900.911520428152
 30
0.0
  0
VERTEX
  5
417
330
2F4
100
AcDbEntity
  8
鏡台
  6
CONTINUOUS
 62
     2
100
AcDbVertex
100
AcDb2dVertex
 10
1117.426279373386
 20
1900.893910869116
 30
0.0
  0
VERTEX
  5
418
330
2F4
100
AcDbEntity
  8
鏡台
  6
CONTINUOUS
 62
     2
100
AcDbVertex
100
AcDb2dVertex
 10
1117.40512048907
 20
1900.876504787529
 30
0.0
  0
VERTEX
  5
419
330
2F4
100
AcDbEntity
  8
鏡台
  6
CONTINUOUS
 62
     2
100
AcDbVertex
100
AcDb2dVertex
 10
1117.383796351318
 20
1900.859302183391
 30
0.0
  0
VERTEX
  5
41A
330
2F4
100
AcDbEntity
  8
鏡台
  6
CONTINUOUS
 62
     2
100
AcDbVertex
100
AcDb2dVertex
 10
1117.36230696013
 20
1900.842303056702
 30
0.0
  0
VERTEX
  5
41B
330
2F4
100
AcDbEntity
  8
鏡台
  6
CONTINUOUS
 62
     2
100
AcDbVertex
100
AcDb2dVertex
 10
1117.340652315507
 20
1900.825507407462
 30
0.0
  0
VERTEX
  5
41C
330
2F4
100
AcDbEntity
  8
鏡台
  6
CONTINUOUS
 62
     2
100
AcDbVertex
100
AcDb2dVertex
 10
1117.318832417448
 20
1900.808915235671
 30
0.0
  0
VERTEX
  5
41D
330
2F4
100
AcDbEntity
  8
鏡台
  6
CONTINUOUS
 62
     2
100
AcDbVertex
100
AcDb2dVertex
 10
1117.296847265953
 20
1900.79252654133
 30
0.0
  0
VERTEX
  5
41E
330
2F4
100
AcDbEntity
  8
鏡台
  6
CONTINUOUS
 62
     2
100
AcDbVertex
100
AcDb2dVertex
 10
1117.274696861022
 20
1900.776341324437
 30
0.0
  0
VERTEX
  5
41F
330
2F4
100
AcDbEntity
  8
鏡台
  6
CONTINUOUS
 62
     2
100
AcDbVertex
100
AcDb2dVertex
 10
1117.252381202656
 20
1900.760359584994
 30
0.0
  0
VERTEX
  5
420
330
2F4
100
AcDbEntity
  8
鏡台
  6
CONTINUOUS
 62
     2
100
AcDbVertex
100
AcDb2dVertex
 10
1117.229900290853
 20
1900.744581322999
 30
0.0
  0
VERTEX
  5
421
330
2F4
100
AcDbEntity
  8
鏡台
  6
CONTINUOUS
 62
     2
100
AcDbVertex
100
AcDb2dVertex
 10
1117.207254125615
 20
1900.729006538454
 30
0.0
  0
VERTEX
  5
422
330
2F4
100
AcDbEntity
  8
鏡台
  6
CONTINUOUS
 62
     2
100
AcDbVertex
100
AcDb2dVertex
 10
1117.184442706941
 20
1900.713635231358
 30
0.0
  0
VERTEX
  5
423
330
2F4
100
AcDbEntity
  8
鏡台
  6
CONTINUOUS
 62
     2
100
AcDbVertex
100
AcDb2dVertex
 10
1117.161466034831
 20
1900.698467401711
 30
0.0
  0
VERTEX
  5
424
330
2F4
100
AcDbEntity
  8
鏡台
  6
CONTINUOUS
 62
     2
100
AcDbVertex
100
AcDb2dVertex
 10
1117.138324109286
 20
1900.683503049513
 30
0.0
  0
VERTEX
  5
425
330
2F4
100
AcDbEntity
  8
鏡台
  6
CONTINUOUS
 62
     2
100
AcDbVertex
100
AcDb2dVertex
 10
1117.115016930305
 20
1900.668742174764
 30
0.0
  0
VERTEX
  5
426
330
2F4
100
AcDbEntity
  8
鏡台
  6
CONTINUOUS
 62
     2
100
AcDbVertex
100
AcDb2dVertex
 10
1117.091544497887
 20
1900.654184777464
 30
0.0
  0
VERTEX
  5
427
330
2F4
100
AcDbEntity
  8
鏡台
  6
CONTINUOUS
 62
     2
100
AcDbVertex
100
AcDb2dVertex
 10
1117.067906812034
 20
1900.639830857614
 30
0.0
  0
VERTEX
  5
428
330
2F4
100
AcDbEntity
  8
鏡台
  6
CONTINUOUS
 62
     2
100
AcDbVertex
100
AcDb2dVertex
 10
1117.044103872746
 20
1900.625680415212
 30
0.0
  0
VERTEX
  5
429
330
2F4
100
AcDbEntity
  8
鏡台
  6
CONTINUOUS
 62
     2
100
AcDbVertex
100
AcDb2dVertex
 10
1117.020135680021
 20
1900.61173345026
 30
0.0
  0
VERTEX
  5
42A
330
2F4
100
AcDbEntity
  8
鏡台
  6
CONTINUOUS
 62
     2
100
AcDbVertex
100
AcDb2dVertex
 10
1116.996002233861
 20
1900.597989962757
 30
0.0
  0
VERTEX
  5
42B
330
2F4
100
AcDbEntity
  8
鏡台
  6
CONTINUOUS
 62
     2
100
AcDbVertex
100
AcDb2dVertex
 10
1116.971703534265
 20
1900.584449952702
 30
0.0
  0
VERTEX
  5
42C
330
2F4
100
AcDbEntity
  8
鏡台
  6
CONTINUOUS
 62
     2
100
AcDbVertex
100
AcDb2dVertex
 10
1116.947239581233
 20
1900.571113420097
 30
0.0
  0
VERTEX
  5
42D
330
2F4
100
AcDbEntity
  8
鏡台
  6
CONTINUOUS
 62
     2
100
AcDbVertex
100
AcDb2dVertex
 10
1116.922610374765
 20
1900.557980364941
 30
0.0
  0
VERTEX
  5
42E
330
2F4
100
AcDbEntity
  8
鏡台
  6
CONTINUOUS
 62
     2
100
AcDbVertex
100
AcDb2dVertex
 10
1116.897815914862
 20
1900.545050787234
 30
0.0
  0
VERTEX
  5
42F
330
2F4
100
AcDbEntity
  8
鏡台
  6
CONTINUOUS
 62
     2
100
AcDbVertex
100
AcDb2dVertex
 10
1116.872856201523
 20
1900.532324686976
 30
0.0
  0
VERTEX
  5
430
330
2F4
100
AcDbEntity
  8
鏡台
  6
CONTINUOUS
 62
     2
100
AcDbVertex
100
AcDb2dVertex
 10
1116.847731234748
 20
1900.519802064167
 30
0.0
  0
VERTEX
  5
431
330
2F4
100
AcDbEntity
  8
鏡台
  6
CONTINUOUS
 62
     2
100
AcDbVertex
100
AcDb2dVertex
 10
1116.822441014537
 20
1900.507482918807
 30
0.0
  0
VERTEX
  5
432
330
2F4
100
AcDbEntity
  8
鏡台
  6
CONTINUOUS
 62
     2
100
AcDbVertex
100
AcDb2dVertex
 10
1116.79698554089
 20
1900.495367250897
 30
0.0
  0
VERTEX
  5
433
330
2F4
100
AcDbEntity
  8
鏡台
  6
CONTINUOUS
 62
     2
100
AcDbVertex
100
AcDb2dVertex
 10
1116.771364813807
 20
1900.483455060435
 30
0.0
  0
VERTEX
  5
434
330
2F4
100
AcDbEntity
  8
鏡台
  6
CONTINUOUS
 62
     2
100
AcDbVertex
100
AcDb2dVertex
 10
1116.745578833289
 20
1900.471746347423
 30
0.0
  0
VERTEX
  5
435
330
2F4
100
AcDbEntity
  8
鏡台
  6
CONTINUOUS
 62
     2
100
AcDbVertex
100
AcDb2dVertex
 10
1116.719627599335
 20
1900.460241111859
 30
0.0
  0
VERTEX
  5
436
330
2F4
100
AcDbEntity
  8
鏡台
  6
CONTINUOUS
 62
     2
100
AcDbVertex
100
AcDb2dVertex
 10
1116.693511111946
 20
1900.448939353745
 30
0.0
  0
VERTEX
  5
437
330
2F4
100
AcDbEntity
  8
鏡台
  6
CONTINUOUS
 62
     2
100
AcDbVertex
100
AcDb2dVertex
 10
1116.66722937112
 20
1900.43784107308
 30
0.0
  0
VERTEX
  5
438
330
2F4
100
AcDbEntity
  8
鏡台
  6
CONTINUOUS
 62
     2
100
AcDbVertex
100
AcDb2dVertex
 10
1116.640782376858
 20
1900.426946269864
 30
0.0
  0
VERTEX
  5
439
330
2F4
100
AcDbEntity
  8
鏡台
  6
CONTINUOUS
 62
     2
100
AcDbVertex
100
AcDb2dVertex
 10
1116.614170129161
 20
1900.416254944097
 30
0.0
  0
VERTEX
  5
43A
330
2F4
100
AcDbEntity
  8
鏡台
  6
CONTINUOUS
 62
     2
100
AcDbVertex
100
AcDb2dVertex
 10
1068.799663404127
 20
1881.447638730993
 30
0.0
  0
SEQEND
  5
43B
330
2F4
100
AcDbEntity
  8
鏡台
  6
CONTINUOUS
 62
     2
  0
POLYLINE
  5
43C
330
1F
100
AcDbEntity
  8
鏡台
  6
CONTINUOUS
 62
     2
100
AcDb2dPolyline
 66
     1
 10
0.0
 20
0.0
 30
0.0
 70
   128
  0
VERTEX
  5
43D
330
43C
100
AcDbEntity
  8
鏡台
  6
CONTINUOUS
 62
     2
100
AcDbVertex
100
AcDb2dVertex
 10
1123.489008783909
 20
496.0
 30
0.0
  0
VERTEX
  5
43E
330
43C
100
AcDbEntity
  8
鏡台
  6
CONTINUOUS
 62
     2
100
AcDbVertex
100
AcDb2dVertex
 10
383.4999631170199
 20
495.9999999999999
 30
0.0
  0
SEQEND
  5
43F
330
43C
100
AcDbEntity
  8
鏡台
  6
CONTINUOUS
 62
     2
  0
LINE
  5
440
330
1F
100
AcDbEntity
  8
鏡台
  6
CONTINUOUS
 62
     2
100
AcDbLine
 10
968.5047471539601
 20
1176.0
 30
0.0
 11
968.5047471539601
 21
1054.0
 31
0.0
  0
LINE
  5
441
330
1F
100
AcDbEntity
  8
鏡台
  6
CONTINUOUS
 62
     2
100
AcDbLine
 10
968.5047471539601
 20
1048.0
 30
0.0
 11
968.5047471539601
 21
1026.0
 31
0.0
  0
LINE
  5
442
330
1F
100
AcDbEntity
  8
鏡台
  6
CONTINUOUS
 62
     2
100
AcDbLine
 10
1093.50474715396
 20
1176.0
 30
0.0
 11
1093.50474715396
 21
1054.0
 31
0.0
  0
LINE
  5
443
330
1F
100
AcDbEntity
  8
鏡台
  6
CONTINUOUS
 62
     2
100
AcDbLine
 10
1093.50474715396
 20
1048.0
 30
0.0
 11
1093.50474715396
 21
1026.0
 31
0.0
  0
LINE
  5
444
330
1F
100
AcDbEntity
  8
鏡台
  6
CONTINUOUS
 62
     2
100
AcDbLine
 10
968.4944675086999
 20
1341.0
 30
0.0
 11
968.4944675086999
 21
1269.0
 31
0.0
  0
LINE
  5
445
330
1F
100
AcDbEntity
  8
鏡台
  6
CONTINUOUS
 62
     2
100
AcDbLine
 10
968.4944675086999
 20
1263.0
 30
0.0
 11
968.4944675086999
 21
1241.0
 31
0.0
  0
LINE
  5
446
330
1F
100
AcDbEntity
  8
鏡台
  6
CONTINUOUS
 62
     2
100
AcDbLine
 10
1093.4944675087
 20
1341.0
 30
0.0
 11
1093.4944675087
 21
1269.0
 31
0.0
  0
LINE
  5
447
330
1F
100
AcDbEntity
  8
鏡台
  6
CONTINUOUS
 62
     2
100
AcDbLine
 10
1093.4944675087
 20
1263.0
 30
0.0
 11
1093.4944675087
 21
1241.0
 31
0.0
  0
CIRCLE
  5
448
330
1F
100
AcDbEntity
  8
鏡台
  6
CONTINUOUS
 62
     2
100
AcDbCircle
 10
398.50000000002
 20
521.0
 30
0.0
 40
2.000000000000338
  0
CIRCLE
  5
449
330
1F
100
AcDbEntity
  8
鏡台
  6
CONTINUOUS
 62
     2
100
AcDbCircle
 10
1108.4889350174
 20
521.0
 30
0.0
 40
2.000000000000338
  0
POLYLINE
  5
44A
330
1F
100
AcDbEntity
  8
鏡台
  6
CONTINUOUS
 62
     6
100
AcDb2dPolyline
 66
     1
 10
0.0
 20
0.0
 30
0.0
 70
   128
  0
VERTEX
  5
44B
330
44A
100
AcDbEntity
  8
鏡台
  6
CONTINUOUS
 62
     6
100
AcDbVertex
100
AcDb2dVertex
 10
419.9944675086999
 20
742.5
 30
0.0
  0
VERTEX
  5
44C
330
44A
100
AcDbEntity
  8
鏡台
  6
CONTINUOUS
 62
     6
100
AcDbVertex
100
AcDb2dVertex
 10
419.9944675086999
 20
714.5
 30
0.0
  0
VERTEX
  5
44D
330
44A
100
AcDbEntity
  8
鏡台
  6
CONTINUOUS
 62
     6
100
AcDbVertex
100
AcDb2dVertex
 10
396.9944675086999
 20
714.5
 30
0.0
  0
VERTEX
  5
44E
330
44A
100
AcDbEntity
  8
鏡台
  6
CONTINUOUS
 62
     6
100
AcDbVertex
100
AcDb2dVertex
 10
396.9944675086999
 20
742.5
 30
0.0
  0
VERTEX
  5
44F
330
44A
100
AcDbEntity
  8
鏡台
  6
CONTINUOUS
 62
     6
100
AcDbVertex
100
AcDb2dVertex
 10
419.9944675086999
 20
742.5
 30
0.0
  0
SEQEND
  5
450
330
44A
100
AcDbEntity
  8
鏡台
  6
CONTINUOUS
 62
     6
  0
POLYLINE
  5
451
330
1F
100
AcDbEntity
  8
鏡台
  6
CONTINUOUS
 62
     6
100
AcDb2dPolyline
 66
     1
 10
0.0
 20
0.0
 30
0.0
 70
   128
  0
VERTEX
  5
452
330
451
100
AcDbEntity
  8
鏡台
  6
CONTINUOUS
 62
     6
100
AcDbVertex
100
AcDb2dVertex
 10
417.4944675086999
 20
740.0
 30
0.0
  0
VERTEX
  5
453
330
451
100
AcDbEntity
  8
鏡台
  6
CONTINUOUS
 62
     6
100
AcDbVertex
100
AcDb2dVertex
 10
417.4944675086999
 20
717.0
 30
0.0
  0
VERTEX
  5
454
330
451
100
AcDbEntity
  8
鏡台
  6
CONTINUOUS
 62
     6
100
AcDbVertex
100
AcDb2dVertex
 10
399.4944675086999
 20
717.0
 30
0.0
  0
VERTEX
  5
455
330
451
100
AcDbEntity
  8
鏡台
  6
CONTINUOUS
 62
     6
100
AcDbVertex
100
AcDb2dVertex
 10
399.4944675086999
 20
740.0
 30
0.0
  0
VERTEX
  5
456
330
451
100
AcDbEntity
  8
鏡台
  6
CONTINUOUS
 62
     6
100
AcDbVertex
100
AcDb2dVertex
 10
417.4944675086999
 20
740.0
 30
0.0
  0
SEQEND
  5
457
330
451
100
AcDbEntity
  8
鏡台
  6
CONTINUOUS
 62
     6
  0
LINE
  5
458
330
1F
100
AcDbEntity
  8
鏡台
  6
CONTINUOUS
 62
     6
100
AcDbLine
 10
417.4944675086999
 20
720.0
 30
0.0
 11
399.4944675086999
 21
720.0
 31
0.0
  0
CIRCLE
  5
459
330
1F
100
AcDbEntity
  8
鏡台
  6
CONTINUOUS
 62
     6
100
AcDbCircle
 10
408.4944675086999
 20
724.0
 30
0.0
 40
1.25
  0
POLYLINE
  5
45A
330
1F
100
AcDbEntity
  8
鏡台
  6
CONTINUOUS
 62
     6
100
AcDb2dPolyline
 66
     1
 10
0.0
 20
0.0
 30
0.0
 70
   128
  0
VERTEX
  5
45B
330
45A
100
AcDbEntity
  8
鏡台
  6
CONTINUOUS
 62
     6
100
AcDbVertex
100
AcDb2dVertex
 10
419.9944675086999
 20
652.4999999999927
 30
0.0
  0
VERTEX
  5
45C
330
45A
100
AcDbEntity
  8
鏡台
  6
CONTINUOUS
 62
     6
100
AcDbVertex
100
AcDb2dVertex
 10
419.9944675086999
 20
624.5
 30
0.0
  0
VERTEX
  5
45D
330
45A
100
AcDbEntity
  8
鏡台
  6
CONTINUOUS
 62
     6
100
AcDbVertex
100
AcDb2dVertex
 10
396.9944675086999
 20
624.5
 30
0.0
  0
VERTEX
  5
45E
330
45A
100
AcDbEntity
  8
鏡台
  6
CONTINUOUS
 62
     6
100
AcDbVertex
100
AcDb2dVertex
 10
396.9944675086999
 20
652.4999999999927
 30
0.0
  0
VERTEX
  5
45F
330
45A
100
AcDbEntity
  8
鏡台
  6
CONTINUOUS
 62
     6
100
AcDbVertex
100
AcDb2dVertex
 10
419.9944675086999
 20
652.4999999999927
 30
0.0
  0
SEQEND
  5
460
330
45A
100
AcDbEntity
  8
鏡台
  6
CONTINUOUS
 62
     6
  0
CIRCLE
  5
461
330
1F
100
AcDbEntity
  8
鏡台
  6
CONTINUOUS
 62
     6
100
AcDbCircle
 10
408.4944675086999
 20
638.4999999999964
 30
0.0
 40
11.0
  0
POLYLINE
  5
462
330
1F
100
AcDbEntity
  8
鏡台
  6
CONTINUOUS
 62
     6
100
AcDb2dPolyline
 66
     1
 10
0.0
 20
0.0
 30
0.0
 70
   128
  0
VERTEX
  5
463
330
462
100
AcDbEntity
  8
鏡台
  6
CONTINUOUS
 62
     6
100
AcDbVertex
100
AcDb2dVertex
 10
418.0207469503293
 20
643.9999999999982
 30
0.0
  0
VERTEX
  5
464
330
462
100
AcDbEntity
  8
鏡台
  6
CONTINUOUS
 62
     6
100
AcDbVertex
100
AcDb2dVertex
 10
419.9944675086999
 20
643.9999999999964
 30
0.0
  0
VERTEX
  5
465
330
462
100
AcDbEntity
  8
鏡台
  6
CONTINUOUS
 62
     6
100
AcDbVertex
100
AcDb2dVertex
 10
419.9944675086999
 20
652.4999999999927
 30
0.0
  0
VERTEX
  5
466
330
462
100
AcDbEntity
  8
鏡台
  6
CONTINUOUS
 62
     6
100
AcDbVertex
100
AcDb2dVertex
 10
396.9944675086999
 20
652.4999999999927
 30
0.0
  0
VERTEX
  5
467
330
462
100
AcDbEntity
  8
鏡台
  6
CONTINUOUS
 62
     6
100
AcDbVertex
100
AcDb2dVertex
 10
396.9944675086999
 20
643.9999999999982
 30
0.0
  0
VERTEX
  5
468
330
462
100
AcDbEntity
  8
鏡台
  6
CONTINUOUS
 62
     6
100
AcDbVertex
100
AcDb2dVertex
 10
398.9681880670714
 20
643.9999999999982
 30
0.0
  0
SEQEND
  5
469
330
462
100
AcDbEntity
  8
鏡台
  6
CONTINUOUS
 62
     6
  0
ARC
  5
46A
330
1F
100
AcDbEntity
  8
鏡台
  6
CONTINUOUS
 62
     6
100
AcDbCircle
 10
408.4944675087004
 20
638.499999999998
 30
0.0
 40
11.00000000000023
100
AcDbArc
 50
30.0000000000007
 51
149.9999999999993
  0
POLYLINE
  5
46B
330
1F
100
AcDbEntity
  8
鏡台
  6
CONTINUOUS
 62
     6
100
AcDb2dPolyline
 66
     1
 10
0.0
 20
0.0
 30
0.0
 70
   128
  0
VERTEX
  5
46C
330
46B
100
AcDbEntity
  8
鏡台
  6
CONTINUOUS
 62
     6
100
AcDbVertex
100
AcDb2dVertex
 10
419.9944675086999
 20
624.5
 30
0.0
  0
VERTEX
  5
46D
330
46B
100
AcDbEntity
  8
鏡台
  6
CONTINUOUS
 62
     6
100
AcDbVertex
100
AcDb2dVertex
 10
419.9944675086999
 20
632.9999999999945
 30
0.0
  0
VERTEX
  5
46E
330
46B
100
AcDbEntity
  8
鏡台
  6
CONTINUOUS
 62
     6
100
AcDbVertex
100
AcDb2dVertex
 10
418.0207469503275
 20
632.9999999999945
 30
0.0
  0
SEQEND
  5
46F
330
46B
100
AcDbEntity
  8
鏡台
  6
CONTINUOUS
 62
     6
  0
ARC
  5
470
330
1F
100
AcDbEntity
  8
鏡台
  6
CONTINUOUS
 62
     6
100
AcDbCircle
 10
408.4944675086999
 20
638.4999999999964
 30
0.0
 40
11.00000000000005
100
AcDbArc
 50
210.0000000000113
 51
329.9999999999888
  0
POLYLINE
  5
471
330
1F
100
AcDbEntity
  8
鏡台
  6
CONTINUOUS
 62
     6
100
AcDb2dPolyline
 66
     1
 10
0.0
 20
0.0
 30
0.0
 70
   128
  0
VERTEX
  5
472
330
471
100
AcDbEntity
  8
鏡台
  6
CONTINUOUS
 62
     6
100
AcDbVertex
100
AcDb2dVertex
 10
398.9681880670719
 20
632.9999999999945
 30
0.0
  0
VERTEX
  5
473
330
471
100
AcDbEntity
  8
鏡台
  6
CONTINUOUS
 62
     6
100
AcDbVertex
100
AcDb2dVertex
 10
396.9944675086999
 20
632.9999999999964
 30
0.0
  0
VERTEX
  5
474
330
471
100
AcDbEntity
  8
鏡台
  6
CONTINUOUS
 62
     6
100
AcDbVertex
100
AcDb2dVertex
 10
396.9944675086999
 20
624.5
 30
0.0
  0
VERTEX
  5
475
330
471
100
AcDbEntity
  8
鏡台
  6
CONTINUOUS
 62
     6
100
AcDbVertex
100
AcDb2dVertex
 10
419.9944675086999
 20
624.5
 30
0.0
  0
SEQEND
  5
476
330
471
100
AcDbEntity
  8
鏡台
  6
CONTINUOUS
 62
     6
  0
POLYLINE
  5
477
330
1F
100
AcDbEntity
  8
鏡台
  6
CONTINUOUS
 62
     6
100
AcDb2dPolyline
 66
     1
 10
0.0
 20
0.0
 30
0.0
 70
   128
  0
VERTEX
  5
478
330
477
100
AcDbEntity
  8
鏡台
  6
CONTINUOUS
 62
     6
100
AcDbVertex
100
AcDb2dVertex
 10
400.9944675086999
 20
642.9999999999964
 30
0.0
  0
VERTEX
  5
479
330
477
100
AcDbEntity
  8
鏡台
  6
CONTINUOUS
 62
     6
100
AcDbVertex
100
AcDb2dVertex
 10
402.9944675086999
 20
642.9999999999964
 30
0.0
  0
VERTEX
  5
47A
330
477
100
AcDbEntity
  8
鏡台
  6
CONTINUOUS
 62
     6
100
AcDbVertex
100
AcDb2dVertex
 10
402.9944675086999
 20
633.9999999999964
 30
0.0
  0
VERTEX
  5
47B
330
477
100
AcDbEntity
  8
鏡台
  6
CONTINUOUS
 62
     6
100
AcDbVertex
100
AcDb2dVertex
 10
400.9944675086999
 20
633.9999999999964
 30
0.0
  0
VERTEX
  5
47C
330
477
100
AcDbEntity
  8
鏡台
  6
CONTINUOUS
 62
     6
100
AcDbVertex
100
AcDb2dVertex
 10
400.9944675086999
 20
642.9999999999964
 30
0.0
  0
SEQEND
  5
47D
330
477
100
AcDbEntity
  8
鏡台
  6
CONTINUOUS
 62
     6
  0
POLYLINE
  5
47E
330
1F
100
AcDbEntity
  8
鏡台
  6
CONTINUOUS
 62
     6
100
AcDb2dPolyline
 66
     1
 10
0.0
 20
0.0
 30
0.0
 70
   128
  0
VERTEX
  5
47F
330
47E
100
AcDbEntity
  8
鏡台
  6
CONTINUOUS
 62
     6
100
AcDbVertex
100
AcDb2dVertex
 10
413.9944675086999
 20
641.9999999999964
 30
0.0
  0
VERTEX
  5
480
330
47E
100
AcDbEntity
  8
鏡台
  6
CONTINUOUS
 62
     6
100
AcDbVertex
100
AcDb2dVertex
 10
415.9944675086999
 20
641.9999999999964
 30
0.0
  0
VERTEX
  5
481
330
47E
100
AcDbEntity
  8
鏡台
  6
CONTINUOUS
 62
     6
100
AcDbVertex
100
AcDb2dVertex
 10
415.9944675086999
 20
634.9999999999964
 30
0.0
  0
VERTEX
  5
482
330
47E
100
AcDbEntity
  8
鏡台
  6
CONTINUOUS
 62
     6
100
AcDbVertex
100
AcDb2dVertex
 10
413.9944675086999
 20
634.9999999999964
 30
0.0
  0
VERTEX
  5
483
330
47E
100
AcDbEntity
  8
鏡台
  6
CONTINUOUS
 62
     6
100
AcDbVertex
100
AcDb2dVertex
 10
413.9944675086999
 20
641.9999999999964
 30
0.0
  0
SEQEND
  5
484
330
47E
100
AcDbEntity
  8
鏡台
  6
CONTINUOUS
 62
     6
  0
POLYLINE
  5
485
330
1F
100
AcDbEntity
  8
鏡台
  6
CONTINUOUS
 62
     6
100
AcDb2dPolyline
 66
     1
 10
0.0
 20
0.0
 30
0.0
 70
   128
  0
VERTEX
  5
486
330
485
100
AcDbEntity
  8
鏡台
  6
CONTINUOUS
 62
     6
100
AcDbVertex
100
AcDb2dVertex
 10
419.9944675086999
 20
697.4999999999927
 30
0.0
  0
VERTEX
  5
487
330
485
100
AcDbEntity
  8
鏡台
  6
CONTINUOUS
 62
     6
100
AcDbVertex
100
AcDb2dVertex
 10
419.9944675086999
 20
669.5
 30
0.0
  0
VERTEX
  5
488
330
485
100
AcDbEntity
  8
鏡台
  6
CONTINUOUS
 62
     6
100
AcDbVertex
100
AcDb2dVertex
 10
396.9944675086999
 20
669.5
 30
0.0
  0
VERTEX
  5
489
330
485
100
AcDbEntity
  8
鏡台
  6
CONTINUOUS
 62
     6
100
AcDbVertex
100
AcDb2dVertex
 10
396.9944675086999
 20
697.4999999999927
 30
0.0
  0
VERTEX
  5
48A
330
485
100
AcDbEntity
  8
鏡台
  6
CONTINUOUS
 62
     6
100
AcDbVertex
100
AcDb2dVertex
 10
419.9944675086999
 20
697.4999999999927
 30
0.0
  0
SEQEND
  5
48B
330
485
100
AcDbEntity
  8
鏡台
  6
CONTINUOUS
 62
     6
  0
CIRCLE
  5
48C
330
1F
100
AcDbEntity
  8
鏡台
  6
CONTINUOUS
 62
     6
100
AcDbCircle
 10
408.4944675086999
 20
683.4999999999964
 30
0.0
 40
11.0
  0
POLYLINE
  5
48D
330
1F
100
AcDbEntity
  8
鏡台
  6
CONTINUOUS
 62
     6
100
AcDb2dPolyline
 66
     1
 10
0.0
 20
0.0
 30
0.0
 70
   128
  0
VERTEX
  5
48E
330
48D
100
AcDbEntity
  8
鏡台
  6
CONTINUOUS
 62
     6
100
AcDbVertex
100
AcDb2dVertex
 10
418.0207469503293
 20
688.9999999999982
 30
0.0
  0
VERTEX
  5
48F
330
48D
100
AcDbEntity
  8
鏡台
  6
CONTINUOUS
 62
     6
100
AcDbVertex
100
AcDb2dVertex
 10
419.9944675086999
 20
688.9999999999964
 30
0.0
  0
VERTEX
  5
490
330
48D
100
AcDbEntity
  8
鏡台
  6
CONTINUOUS
 62
     6
100
AcDbVertex
100
AcDb2dVertex
 10
419.9944675086999
 20
697.4999999999927
 30
0.0
  0
VERTEX
  5
491
330
48D
100
AcDbEntity
  8
鏡台
  6
CONTINUOUS
 62
     6
100
AcDbVertex
100
AcDb2dVertex
 10
396.9944675086999
 20
697.4999999999927
 30
0.0
  0
VERTEX
  5
492
330
48D
100
AcDbEntity
  8
鏡台
  6
CONTINUOUS
 62
     6
100
AcDbVertex
100
AcDb2dVertex
 10
396.9944675086999
 20
688.9999999999982
 30
0.0
  0
VERTEX
  5
493
330
48D
100
AcDbEntity
  8
鏡台
  6
CONTINUOUS
 62
     6
100
AcDbVertex
100
AcDb2dVertex
 10
398.9681880670714
 20
688.9999999999982
 30
0.0
  0
SEQEND
  5
494
330
48D
100
AcDbEntity
  8
鏡台
  6
CONTINUOUS
 62
     6
  0
ARC
  5
495
330
1F
100
AcDbEntity
  8
鏡台
  6
CONTINUOUS
 62
     6
100
AcDbCircle
 10
408.4944675087004
 20
683.499999999998
 30
0.0
 40
11.00000000000023
100
AcDbArc
 50
30.0000000000007
 51
149.9999999999993
  0
POLYLINE
  5
496
330
1F
100
AcDbEntity
  8
鏡台
  6
CONTINUOUS
 62
     6
100
AcDb2dPolyline
 66
     1
 10
0.0
 20
0.0
 30
0.0
 70
   128
  0
VERTEX
  5
497
330
496
100
AcDbEntity
  8
鏡台
  6
CONTINUOUS
 62
     6
100
AcDbVertex
100
AcDb2dVertex
 10
419.9944675086999
 20
669.5
 30
0.0
  0
VERTEX
  5
498
330
496
100
AcDbEntity
  8
鏡台
  6
CONTINUOUS
 62
     6
100
AcDbVertex
100
AcDb2dVertex
 10
419.9944675086999
 20
677.9999999999945
 30
0.0
  0
VERTEX
  5
499
330
496
100
AcDbEntity
  8
鏡台
  6
CONTINUOUS
 62
     6
100
AcDbVertex
100
AcDb2dVertex
 10
418.0207469503275
 20
677.9999999999945
 30
0.0
  0
SEQEND
  5
49A
330
496
100
AcDbEntity
  8
鏡台
  6
CONTINUOUS
 62
     6
  0
ARC
  5
49B
330
1F
100
AcDbEntity
  8
鏡台
  6
CONTINUOUS
 62
     6
100
AcDbCircle
 10
408.4944675086999
 20
683.4999999999964
 30
0.0
 40
11.00000000000005
100
AcDbArc
 50
210.0000000000113
 51
329.9999999999888
  0
POLYLINE
  5
49C
330
1F
100
AcDbEntity
  8
鏡台
  6
CONTINUOUS
 62
     6
100
AcDb2dPolyline
 66
     1
 10
0.0
 20
0.0
 30
0.0
 70
   128
  0
VERTEX
  5
49D
330
49C
100
AcDbEntity
  8
鏡台
  6
CONTINUOUS
 62
     6
100
AcDbVertex
100
AcDb2dVertex
 10
398.9681880670719
 20
677.9999999999945
 30
0.0
  0
VERTEX
  5
49E
330
49C
100
AcDbEntity
  8
鏡台
  6
CONTINUOUS
 62
     6
100
AcDbVertex
100
AcDb2dVertex
 10
396.9944675086999
 20
677.9999999999964
 30
0.0
  0
VERTEX
  5
49F
330
49C
100
AcDbEntity
  8
鏡台
  6
CONTINUOUS
 62
     6
100
AcDbVertex
100
AcDb2dVertex
 10
396.9944675086999
 20
669.5
 30
0.0
  0
VERTEX
  5
4A0
330
49C
100
AcDbEntity
  8
鏡台
  6
CONTINUOUS
 62
     6
100
AcDbVertex
100
AcDb2dVertex
 10
419.9944675086999
 20
669.5
 30
0.0
  0
SEQEND
  5
4A1
330
49C
100
AcDbEntity
  8
鏡台
  6
CONTINUOUS
 62
     6
  0
POLYLINE
  5
4A2
330
1F
100
AcDbEntity
  8
鏡台
  6
CONTINUOUS
 62
     6
100
AcDb2dPolyline
 66
     1
 10
0.0
 20
0.0
 30
0.0
 70
   128
  0
VERTEX
  5
4A3
330
4A2
100
AcDbEntity
  8
鏡台
  6
CONTINUOUS
 62
     6
100
AcDbVertex
100
AcDb2dVertex
 10
400.9944675086999
 20
687.9999999999964
 30
0.0
  0
VERTEX
  5
4A4
330
4A2
100
AcDbEntity
  8
鏡台
  6
CONTINUOUS
 62
     6
100
AcDbVertex
100
AcDb2dVertex
 10
402.9944675086999
 20
687.9999999999964
 30
0.0
  0
VERTEX
  5
4A5
330
4A2
100
AcDbEntity
  8
鏡台
  6
CONTINUOUS
 62
     6
100
AcDbVertex
100
AcDb2dVertex
 10
402.9944675086999
 20
678.9999999999964
 30
0.0
  0
VERTEX
  5
4A6
330
4A2
100
AcDbEntity
  8
鏡台
  6
CONTINUOUS
 62
     6
100
AcDbVertex
100
AcDb2dVertex
 10
400.9944675086999
 20
678.9999999999964
 30
0.0
  0
VERTEX
  5
4A7
330
4A2
100
AcDbEntity
  8
鏡台
  6
CONTINUOUS
 62
     6
100
AcDbVertex
100
AcDb2dVertex
 10
400.9944675086999
 20
687.9999999999964
 30
0.0
  0
SEQEND
  5
4A8
330
4A2
100
AcDbEntity
  8
鏡台
  6
CONTINUOUS
 62
     6
  0
POLYLINE
  5
4A9
330
1F
100
AcDbEntity
  8
鏡台
  6
CONTINUOUS
 62
     6
100
AcDb2dPolyline
 66
     1
 10
0.0
 20
0.0
 30
0.0
 70
   128
  0
VERTEX
  5
4AA
330
4A9
100
AcDbEntity
  8
鏡台
  6
CONTINUOUS
 62
     6
100
AcDbVertex
100
AcDb2dVertex
 10
413.9944675086999
 20
686.9999999999964
 30
0.0
  0
VERTEX
  5
4AB
330
4A9
100
AcDbEntity
  8
鏡台
  6
CONTINUOUS
 62
     6
100
AcDbVertex
100
AcDb2dVertex
 10
415.9944675086999
 20
686.9999999999964
 30
0.0
  0
VERTEX
  5
4AC
330
4A9
100
AcDbEntity
  8
鏡台
  6
CONTINUOUS
 62
     6
100
AcDbVertex
100
AcDb2dVertex
 10
415.9944675086999
 20
679.9999999999964
 30
0.0
  0
VERTEX
  5
4AD
330
4A9
100
AcDbEntity
  8
鏡台
  6
CONTINUOUS
 62
     6
100
AcDbVertex
100
AcDb2dVertex
 10
413.9944675086999
 20
679.9999999999964
 30
0.0
  0
VERTEX
  5
4AE
330
4A9
100
AcDbEntity
  8
鏡台
  6
CONTINUOUS
 62
     6
100
AcDbVertex
100
AcDb2dVertex
 10
413.9944675086999
 20
686.9999999999964
 30
0.0
  0
SEQEND
  5
4AF
330
4A9
100
AcDbEntity
  8
鏡台
  6
CONTINUOUS
 62
     6
  0
LINE
  5
4B0
330
1F
100
AcDbEntity
  8
鏡台
  6
CONTINUOUS
 62
     6
100
AcDbLine
 10
1079.4944675087
 20
1491.0
 30
0.0
 11
1067.4944675087
 21
1491.0
 31
0.0
  0
LINE
  5
4B1
330
1F
100
AcDbEntity
  8
鏡台
  6
CONTINUOUS
 62
     6
100
AcDbLine
 10
1073.4944675087
 20
1497.0
 30
0.0
 11
1073.4944675087
 21
1485.0
 31
0.0
  0
LINE
  5
4B2
330
1F
100
AcDbEntity
  8
鏡台
  6
CONTINUOUS
 62
     6
100
AcDbLine
 10
439.4944675086999
 20
1491.0
 30
0.0
 11
427.4944675086999
 21
1491.0
 31
0.0
  0
LINE
  5
4B3
330
1F
100
AcDbEntity
  8
鏡台
  6
CONTINUOUS
 62
     6
100
AcDbLine
 10
433.4944675086999
 20
1497.0
 30
0.0
 11
433.4944675086999
 21
1485.0
 31
0.0
  0
POLYLINE
  5
4B4
330
1F
100
AcDbEntity
  8
鏡台
  6
CONTINUOUS
 62
     6
100
AcDb2dPolyline
 66
     1
 10
0.0
 20
0.0
 30
0.0
 70
   128
  0
VERTEX
  5
4B5
330
4B4
100
AcDbEntity
  8
鏡台
  6
CONTINUOUS
 62
     6
100
AcDbVertex
100
AcDb2dVertex
 10
961.4944675086999
 20
1269.0
 30
0.0
  0
VERTEX
  5
4B6
330
4B4
100
AcDbEntity
  8
鏡台
  6
CONTINUOUS
 62
     6
100
AcDbVertex
100
AcDb2dVertex
 10
1100.4944675087
 20
1269.0
 30
0.0
  0
VERTEX
  5
4B7
330
4B4
100
AcDbEntity
  8
鏡台
  6
CONTINUOUS
 62
     6
100
AcDbVertex
100
AcDb2dVertex
 10
1100.4944675087
 20
1263.0
 30
0.0
  0
VERTEX
  5
4B8
330
4B4
100
AcDbEntity
  8
鏡台
  6
CONTINUOUS
 62
     6
100
AcDbVertex
100
AcDb2dVertex
 10
961.4944675086999
 20
1263.0
 30
0.0
  0
VERTEX
  5
4B9
330
4B4
100
AcDbEntity
  8
鏡台
  6
CONTINUOUS
 62
     6
100
AcDbVertex
100
AcDb2dVertex
 10
961.4944675086999
 20
1269.0
 30
0.0
  0
SEQEND
  5
4BA
330
4B4
100
AcDbEntity
  8
鏡台
  6
CONTINUOUS
 62
     6
  0
POLYLINE
  5
4BB
330
1F
100
AcDbEntity
  8
鏡台
  6
CONTINUOUS
 62
     6
100
AcDb2dPolyline
 66
     1
 10
0.0
 20
0.0
 30
0.0
 70
   128
  0
VERTEX
  5
4BC
330
4BB
100
AcDbEntity
  8
鏡台
  6
CONTINUOUS
 62
     6
100
AcDbVertex
100
AcDb2dVertex
 10
961.4944675086999
 20
1054.0
 30
0.0
  0
VERTEX
  5
4BD
330
4BB
100
AcDbEntity
  8
鏡台
  6
CONTINUOUS
 62
     6
100
AcDbVertex
100
AcDb2dVertex
 10
1100.4944675087
 20
1054.0
 30
0.0
  0
VERTEX
  5
4BE
330
4BB
100
AcDbEntity
  8
鏡台
  6
CONTINUOUS
 62
     6
100
AcDbVertex
100
AcDb2dVertex
 10
1100.4944675087
 20
1048.0
 30
0.0
  0
VERTEX
  5
4BF
330
4BB
100
AcDbEntity
  8
鏡台
  6
CONTINUOUS
 62
     6
100
AcDbVertex
100
AcDb2dVertex
 10
961.4944675086999
 20
1048.0
 30
0.0
  0
VERTEX
  5
4C0
330
4BB
100
AcDbEntity
  8
鏡台
  6
CONTINUOUS
 62
     6
100
AcDbVertex
100
AcDb2dVertex
 10
961.4944675086999
 20
1054.0
 30
0.0
  0
SEQEND
  5
4C1
330
4BB
100
AcDbEntity
  8
鏡台
  6
CONTINUOUS
 62
     6
  0
LINE
  5
4C2
330
1F
100
AcDbEntity
  8
鏡台
  6
CONTINUOUS
 62
     6
100
AcDbLine
 10
438.4945425087108
 20
1437.73518
 30
0.0
 11
438.4945425087108
 21
1528.48077
 31
0.0
  0
POLYLINE
  5
4C3
330
1F
100
AcDbEntity
  8
鏡台
  6
CONTINUOUS
 62
     6
100
AcDb2dPolyline
 66
     1
 10
0.0
 20
0.0
 30
0.0
 70
   128
  0
VERTEX
  5
4C4
330
4C3
100
AcDbEntity
  8
鏡台
  6
CONTINUOUS
 62
     6
100
AcDbVertex
100
AcDb2dVertex
 10
1115.49631931263
 20
1533.000372709544
 30
0.0
  0
VERTEX
  5
4C5
330
4C3
100
AcDbEntity
  8
鏡台
  6
CONTINUOUS
 62
     6
100
AcDbVertex
100
AcDb2dVertex
 10
1104.183761912507
 20
1532.074981450098
 30
0.0
  0
VERTEX
  5
4C6
330
4C3
100
AcDbEntity
  8
鏡台
  6
CONTINUOUS
 62
     6
100
AcDbVertex
100
AcDb2dVertex
 10
1092.871204512386
 20
1531.178967690953
 30
0.0
  0
VERTEX
  5
4C7
330
4C3
100
AcDbEntity
  8
鏡台
  6
CONTINUOUS
 62
     6
100
AcDbVertex
100
AcDb2dVertex
 10
1081.558647112264
 20
1530.312331432107
 30
0.0
  0
VERTEX
  5
4C8
330
4C3
100
AcDbEntity
  8
鏡台
  6
CONTINUOUS
 62
     6
100
AcDbVertex
100
AcDb2dVertex
 10
1070.246089712142
 20
1529.475072673561
 30
0.0
  0
VERTEX
  5
4C9
330
4C3
100
AcDbEntity
  8
鏡台
  6
CONTINUOUS
 62
     6
100
AcDbVertex
100
AcDb2dVertex
 10
1058.93353231202
 20
1528.667191415315
 30
0.0
  0
VERTEX
  5
4CA
330
4C3
100
AcDbEntity
  8
鏡台
  6
CONTINUOUS
 62
     6
100
AcDbVertex
100
AcDb2dVertex
 10
1047.620974911898
 20
1527.888687657369
 30
0.0
  0
VERTEX
  5
4CB
330
4C3
100
AcDbEntity
  8
鏡台
  6
CONTINUOUS
 62
     6
100
AcDbVertex
100
AcDb2dVertex
 10
1036.308417511776
 20
1527.139561399722
 30
0.0
  0
VERTEX
  5
4CC
330
4C3
100
AcDbEntity
  8
鏡台
  6
CONTINUOUS
 62
     6
100
AcDbVertex
100
AcDb2dVertex
 10
1024.995860111654
 20
1526.419812642376
 30
0.0
  0
VERTEX
  5
4CD
330
4C3
100
AcDbEntity
  8
鏡台
  6
CONTINUOUS
 62
     6
100
AcDbVertex
100
AcDb2dVertex
 10
1013.683302711533
 20
1525.729441385329
 30
0.0
  0
VERTEX
  5
4CE
330
4C3
100
AcDbEntity
  8
鏡台
  6
CONTINUOUS
 62
     6
100
AcDbVertex
100
AcDb2dVertex
 10
1002.37074531141
 20
1525.068447628583
 30
0.0
  0
VERTEX
  5
4CF
330
4C3
100
AcDbEntity
  8
鏡台
  6
CONTINUOUS
 62
     6
100
AcDbVertex
100
AcDb2dVertex
 10
991.0581879112888
 20
1524.436831372136
 30
0.0
  0
VERTEX
  5
4D0
330
4C3
100
AcDbEntity
  8
鏡台
  6
CONTINUOUS
 62
     6
100
AcDbVertex
100
AcDb2dVertex
 10
979.7456305111668
 20
1523.834592615989
 30
0.0
  0
VERTEX
  5
4D1
330
4C3
100
AcDbEntity
  8
鏡台
  6
CONTINUOUS
 62
     6
100
AcDbVertex
100
AcDb2dVertex
 10
968.4330731110449
 20
1523.261731360141
 30
0.0
  0
VERTEX
  5
4D2
330
4C3
100
AcDbEntity
  8
鏡台
  6
CONTINUOUS
 62
     6
100
AcDbVertex
100
AcDb2dVertex
 10
957.120515710923
 20
1522.718247604594
 30
0.0
  0
VERTEX
  5
4D3
330
4C3
100
AcDbEntity
  8
鏡台
  6
CONTINUOUS
 62
     6
100
AcDbVertex
100
AcDb2dVertex
 10
945.807958310801
 20
1522.204141349347
 30
0.0
  0
VERTEX
  5
4D4
330
4C3
100
AcDbEntity
  8
鏡台
  6
CONTINUOUS
 62
     6
100
AcDbVertex
100
AcDb2dVertex
 10
934.4954009106791
 20
1521.719412594399
 30
0.0
  0
VERTEX
  5
4D5
330
4C3
100
AcDbEntity
  8
鏡台
  6
CONTINUOUS
 62
     6
100
AcDbVertex
100
AcDb2dVertex
 10
923.1828435105572
 20
1521.264061339751
 30
0.0
  0
VERTEX
  5
4D6
330
4C3
100
AcDbEntity
  8
鏡台
  6
CONTINUOUS
 62
     6
100
AcDbVertex
100
AcDb2dVertex
 10
911.8702861104352
 20
1520.838087585403
 30
0.0
  0
VERTEX
  5
4D7
330
4C3
100
AcDbEntity
  8
鏡台
  6
CONTINUOUS
 62
     6
100
AcDbVertex
100
AcDb2dVertex
 10
900.5577287103138
 20
1520.441491331355
 30
0.0
  0
VERTEX
  5
4D8
330
4C3
100
AcDbEntity
  8
鏡台
  6
CONTINUOUS
 62
     6
100
AcDbVertex
100
AcDb2dVertex
 10
889.2451713101918
 20
1520.074272577607
 30
0.0
  0
VERTEX
  5
4D9
330
4C3
100
AcDbEntity
  8
鏡台
  6
CONTINUOUS
 62
     6
100
AcDbVertex
100
AcDb2dVertex
 10
877.9326139100699
 20
1519.736431324159
 30
0.0
  0
VERTEX
  5
4DA
330
4C3
100
AcDbEntity
  8
鏡台
  6
CONTINUOUS
 62
     6
100
AcDbVertex
100
AcDb2dVertex
 10
866.620056509948
 20
1519.42796757101
 30
0.0
  0
VERTEX
  5
4DB
330
4C3
100
AcDbEntity
  8
鏡台
  6
CONTINUOUS
 62
     6
100
AcDbVertex
100
AcDb2dVertex
 10
855.307499109826
 20
1519.148881318162
 30
0.0
  0
VERTEX
  5
4DC
330
4C3
100
AcDbEntity
  8
鏡台
  6
CONTINUOUS
 62
     6
100
AcDbVertex
100
AcDb2dVertex
 10
843.9949417097041
 20
1518.899172565613
 30
0.0
  0
VERTEX
  5
4DD
330
4C3
100
AcDbEntity
  8
鏡台
  6
CONTINUOUS
 62
     6
100
AcDbVertex
100
AcDb2dVertex
 10
832.6823843095822
 20
1518.678841313364
 30
0.0
  0
VERTEX
  5
4DE
330
4C3
100
AcDbEntity
  8
鏡台
  6
CONTINUOUS
 62
     6
100
AcDbVertex
100
AcDb2dVertex
 10
821.3698269094602
 20
1518.487887561415
 30
0.0
  0
VERTEX
  5
4DF
330
4C3
100
AcDbEntity
  8
鏡台
  6
CONTINUOUS
 62
     6
100
AcDbVertex
100
AcDb2dVertex
 10
810.0572695093388
 20
1518.326311309766
 30
0.0
  0
VERTEX
  5
4E0
330
4C3
100
AcDbEntity
  8
鏡台
  6
CONTINUOUS
 62
     6
100
AcDbVertex
100
AcDb2dVertex
 10
798.7447121092168
 20
1518.194112558416
 30
0.0
  0
VERTEX
  5
4E1
330
4C3
100
AcDbEntity
  8
鏡台
  6
CONTINUOUS
 62
     6
100
AcDbVertex
100
AcDb2dVertex
 10
787.4321547090949
 20
1518.091291307367
 30
0.0
  0
VERTEX
  5
4E2
330
4C3
100
AcDbEntity
  8
鏡台
  6
CONTINUOUS
 62
     6
100
AcDbVertex
100
AcDb2dVertex
 10
776.119597308973
 20
1518.017847556617
 30
0.0
  0
VERTEX
  5
4E3
330
4C3
100
AcDbEntity
  8
鏡台
  6
CONTINUOUS
 62
     6
100
AcDbVertex
100
AcDb2dVertex
 10
764.807039908851
 20
1517.973781306167
 30
0.0
  0
VERTEX
  5
4E4
330
4C3
100
AcDbEntity
  8
鏡台
  6
CONTINUOUS
 62
     6
100
AcDbVertex
100
AcDb2dVertex
 10
753.4944825087291
 20
1517.959092556018
 30
0.0
  0
VERTEX
  5
4E5
330
4C3
100
AcDbEntity
  8
鏡台
  6
CONTINUOUS
 62
     6
100
AcDbVertex
100
AcDb2dVertex
 10
742.1819251086072
 20
1517.973781306168
 30
0.0
  0
VERTEX
  5
4E6
330
4C3
100
AcDbEntity
  8
鏡台
  6
CONTINUOUS
 62
     6
100
AcDbVertex
100
AcDb2dVertex
 10
730.8693677084852
 20
1518.017847556618
 30
0.0
  0
VERTEX
  5
4E7
330
4C3
100
AcDbEntity
  8
鏡台
  6
CONTINUOUS
 62
     6
100
AcDbVertex
100
AcDb2dVertex
 10
719.5568103083633
 20
1518.091291307367
 30
0.0
  0
VERTEX
  5
4E8
330
4C3
100
AcDbEntity
  8
鏡台
  6
CONTINUOUS
 62
     6
100
AcDbVertex
100
AcDb2dVertex
 10
708.2442529082418
 20
1518.194112558417
 30
0.0
  0
VERTEX
  5
4E9
330
4C3
100
AcDbEntity
  8
鏡台
  6
CONTINUOUS
 62
     6
100
AcDbVertex
100
AcDb2dVertex
 10
696.9316955081199
 20
1518.326311309766
 30
0.0
  0
VERTEX
  5
4EA
330
4C3
100
AcDbEntity
  8
鏡台
  6
CONTINUOUS
 62
     6
100
AcDbVertex
100
AcDb2dVertex
 10
685.619138107998
 20
1518.487887561415
 30
0.0
  0
VERTEX
  5
4EB
330
4C3
100
AcDbEntity
  8
鏡台
  6
CONTINUOUS
 62
     6
100
AcDbVertex
100
AcDb2dVertex
 10
674.306580707876
 20
1518.678841313365
 30
0.0
  0
VERTEX
  5
4EC
330
4C3
100
AcDbEntity
  8
鏡台
  6
CONTINUOUS
 62
     6
100
AcDbVertex
100
AcDb2dVertex
 10
662.9940233077541
 20
1518.899172565613
 30
0.0
  0
VERTEX
  5
4ED
330
4C3
100
AcDbEntity
  8
鏡台
  6
CONTINUOUS
 62
     6
100
AcDbVertex
100
AcDb2dVertex
 10
651.6814659076322
 20
1519.148881318162
 30
0.0
  0
VERTEX
  5
4EE
330
4C3
100
AcDbEntity
  8
鏡台
  6
CONTINUOUS
 62
     6
100
AcDbVertex
100
AcDb2dVertex
 10
640.3689085075102
 20
1519.42796757101
 30
0.0
  0
VERTEX
  5
4EF
330
4C3
100
AcDbEntity
  8
鏡台
  6
CONTINUOUS
 62
     6
100
AcDbVertex
100
AcDb2dVertex
 10
629.0563511073883
 20
1519.736431324159
 30
0.0
  0
VERTEX
  5
4F0
330
4C3
100
AcDbEntity
  8
鏡台
  6
CONTINUOUS
 62
     6
100
AcDbVertex
100
AcDb2dVertex
 10
617.7437937072664
 20
1520.074272577607
 30
0.0
  0
VERTEX
  5
4F1
330
4C3
100
AcDbEntity
  8
鏡台
  6
CONTINUOUS
 62
     6
100
AcDbVertex
100
AcDb2dVertex
 10
606.4312363071449
 20
1520.441491331356
 30
0.0
  0
VERTEX
  5
4F2
330
4C3
100
AcDbEntity
  8
鏡台
  6
CONTINUOUS
 62
     6
100
AcDbVertex
100
AcDb2dVertex
 10
595.118678907023
 20
1520.838087585404
 30
0.0
  0
VERTEX
  5
4F3
330
4C3
100
AcDbEntity
  8
鏡台
  6
CONTINUOUS
 62
     6
100
AcDbVertex
100
AcDb2dVertex
 10
583.806121506901
 20
1521.264061339752
 30
0.0
  0
VERTEX
  5
4F4
330
4C3
100
AcDbEntity
  8
鏡台
  6
CONTINUOUS
 62
     6
100
AcDbVertex
100
AcDb2dVertex
 10
572.4935641067791
 20
1521.719412594399
 30
0.0
  0
VERTEX
  5
4F5
330
4C3
100
AcDbEntity
  8
鏡台
  6
CONTINUOUS
 62
     6
100
AcDbVertex
100
AcDb2dVertex
 10
561.1810067066572
 20
1522.204141349347
 30
0.0
  0
VERTEX
  5
4F6
330
4C3
100
AcDbEntity
  8
鏡台
  6
CONTINUOUS
 62
     6
100
AcDbVertex
100
AcDb2dVertex
 10
549.8684493065352
 20
1522.718247604595
 30
0.0
  0
VERTEX
  5
4F7
330
4C3
100
AcDbEntity
  8
鏡台
  6
CONTINUOUS
 62
     6
100
AcDbVertex
100
AcDb2dVertex
 10
538.5558919064133
 20
1523.261731360142
 30
0.0
  0
VERTEX
  5
4F8
330
4C3
100
AcDbEntity
  8
鏡台
  6
CONTINUOUS
 62
     6
100
AcDbVertex
100
AcDb2dVertex
 10
527.2433345062914
 20
1523.834592615989
 30
0.0
  0
VERTEX
  5
4F9
330
4C3
100
AcDbEntity
  8
鏡台
  6
CONTINUOUS
 62
     6
100
AcDbVertex
100
AcDb2dVertex
 10
515.9307771061699
 20
1524.436831372136
 30
0.0
  0
VERTEX
  5
4FA
330
4C3
100
AcDbEntity
  8
鏡台
  6
CONTINUOUS
 62
     6
100
AcDbVertex
100
AcDb2dVertex
 10
504.618219706048
 20
1525.068447628583
 30
0.0
  0
VERTEX
  5
4FB
330
4C3
100
AcDbEntity
  8
鏡台
  6
CONTINUOUS
 62
     6
100
AcDbVertex
100
AcDb2dVertex
 10
493.305662305926
 20
1525.72944138533
 30
0.0
  0
VERTEX
  5
4FC
330
4C3
100
AcDbEntity
  8
鏡台
  6
CONTINUOUS
 62
     6
100
AcDbVertex
100
AcDb2dVertex
 10
481.9931049058041
 20
1526.419812642376
 30
0.0
  0
VERTEX
  5
4FD
330
4C3
100
AcDbEntity
  8
鏡台
  6
CONTINUOUS
 62
     6
100
AcDbVertex
100
AcDb2dVertex
 10
470.6805475056822
 20
1527.139561399723
 30
0.0
  0
VERTEX
  5
4FE
330
4C3
100
AcDbEntity
  8
鏡台
  6
CONTINUOUS
 62
     6
100
AcDbVertex
100
AcDb2dVertex
 10
459.3679901055602
 20
1527.888687657369
 30
0.0
  0
VERTEX
  5
4FF
330
4C3
100
AcDbEntity
  8
鏡台
  6
CONTINUOUS
 62
     6
100
AcDbVertex
100
AcDb2dVertex
 10
448.0554327054388
 20
1528.667191415315
 30
0.0
  0
VERTEX
  5
500
330
4C3
100
AcDbEntity
  8
鏡台
  6
CONTINUOUS
 62
     6
100
AcDbVertex
100
AcDb2dVertex
 10
436.7428753053164
 20
1529.475072673561
 30
0.0
  0
VERTEX
  5
501
330
4C3
100
AcDbEntity
  8
鏡台
  6
CONTINUOUS
 62
     6
100
AcDbVertex
100
AcDb2dVertex
 10
425.4303179051949
 20
1530.312331432107
 30
0.0
  0
VERTEX
  5
502
330
4C3
100
AcDbEntity
  8
鏡台
  6
CONTINUOUS
 62
     6
100
AcDbVertex
100
AcDb2dVertex
 10
414.117760505073
 20
1531.178967690953
 30
0.0
  0
VERTEX
  5
503
330
4C3
100
AcDbEntity
  8
鏡台
  6
CONTINUOUS
 62
     6
100
AcDbVertex
100
AcDb2dVertex
 10
402.805203104951
 20
1532.074981450099
 30
0.0
  0
VERTEX
  5
504
330
4C3
100
AcDbEntity
  8
鏡台
  6
CONTINUOUS
 62
     6
100
AcDbVertex
100
AcDb2dVertex
 10
391.4926457048291
 20
1533.000372709544
 30
0.0
  0
SEQEND
  5
505
330
4C3
100
AcDbEntity
  8
鏡台
  6
CONTINUOUS
 62
     6
  0
POLYLINE
  5
506
330
1F
100
AcDbEntity
  8
鏡台
  6
CONTINUOUS
 62
     6
100
AcDb2dPolyline
 66
     1
 10
0.0
 20
0.0
 30
0.0
 70
   128
  0
VERTEX
  5
507
330
506
100
AcDbEntity
  8
鏡台
  6
CONTINUOUS
 62
     6
100
AcDbVertex
100
AcDb2dVertex
 10
391.4940793880123
 20
1432.999037563891
 30
0.0
  0
VERTEX
  5
508
330
506
100
AcDbEntity
  8
鏡台
  6
CONTINUOUS
 62
     6
100
AcDbVertex
100
AcDb2dVertex
 10
402.8065919855339
 20
1433.924419527211
 30
0.0
  0
VERTEX
  5
509
330
506
100
AcDbEntity
  8
鏡台
  6
CONTINUOUS
 62
     6
100
AcDbVertex
100
AcDb2dVertex
 10
414.119104583056
 20
1434.820424285347
 30
0.0
  0
VERTEX
  5
50A
330
506
100
AcDbEntity
  8
鏡台
  6
CONTINUOUS
 62
     6
100
AcDbVertex
100
AcDb2dVertex
 10
425.4316171805776
 20
1435.687051838298
 30
0.0
  0
VERTEX
  5
50B
330
506
100
AcDbEntity
  8
鏡台
  6
CONTINUOUS
 62
     6
100
AcDbVertex
100
AcDb2dVertex
 10
436.7441297780997
 20
1436.524302186064
 30
0.0
  0
VERTEX
  5
50C
330
506
100
AcDbEntity
  8
鏡台
  6
CONTINUOUS
 62
     6
100
AcDbVertex
100
AcDb2dVertex
 10
448.0566423756218
 20
1437.332175328645
 30
0.0
  0
VERTEX
  5
50D
330
506
100
AcDbEntity
  8
鏡台
  6
CONTINUOUS
 62
     6
100
AcDbVertex
100
AcDb2dVertex
 10
459.3691549731434
 20
1438.110671266041
 30
0.0
  0
VERTEX
  5
50E
330
506
100
AcDbEntity
  8
鏡台
  6
CONTINUOUS
 62
     6
100
AcDbVertex
100
AcDb2dVertex
 10
470.6816675706655
 20
1438.859789998253
 30
0.0
  0
VERTEX
  5
50F
330
506
100
AcDbEntity
  8
鏡台
  6
CONTINUOUS
 62
     6
100
AcDbVertex
100
AcDb2dVertex
 10
481.9941801681871
 20
1439.57953152528
 30
0.0
  0
VERTEX
  5
510
330
506
100
AcDbEntity
  8
鏡台
  6
CONTINUOUS
 62
     6
100
AcDbVertex
100
AcDb2dVertex
 10
493.3066927657092
 20
1440.269895847122
 30
0.0
  0
VERTEX
  5
511
330
506
100
AcDbEntity
  8
鏡台
  6
CONTINUOUS
 62
     6
100
AcDbVertex
100
AcDb2dVertex
 10
504.6192053632312
 20
1440.93088296378
 30
0.0
  0
VERTEX
  5
512
330
506
100
AcDbEntity
  8
鏡台
  6
CONTINUOUS
 62
     6
100
AcDbVertex
100
AcDb2dVertex
 10
515.9317179607528
 20
1441.562492875252
 30
0.0
  0
VERTEX
  5
513
330
506
100
AcDbEntity
  8
鏡台
  6
CONTINUOUS
 62
     6
100
AcDbVertex
100
AcDb2dVertex
 10
527.2442305582749
 20
1442.16472558154
 30
0.0
  0
VERTEX
  5
514
330
506
100
AcDbEntity
  8
鏡台
  6
CONTINUOUS
 62
     6
100
AcDbVertex
100
AcDb2dVertex
 10
538.5567431557965
 20
1442.737581082643
 30
0.0
  0
VERTEX
  5
515
330
506
100
AcDbEntity
  8
鏡台
  6
CONTINUOUS
 62
     6
100
AcDbVertex
100
AcDb2dVertex
 10
549.8692557533186
 20
1443.281059378561
 30
0.0
  0
VERTEX
  5
516
330
506
100
AcDbEntity
  8
鏡台
  6
CONTINUOUS
 62
     6
100
AcDbVertex
100
AcDb2dVertex
 10
561.1817683508402
 20
1443.795160469295
 30
0.0
  0
VERTEX
  5
517
330
506
100
AcDbEntity
  8
鏡台
  6
CONTINUOUS
 62
     6
100
AcDbVertex
100
AcDb2dVertex
 10
572.4942809483623
 20
1444.279884354844
 30
0.0
  0
VERTEX
  5
518
330
506
100
AcDbEntity
  8
鏡台
  6
CONTINUOUS
 62
     6
100
AcDbVertex
100
AcDb2dVertex
 10
583.8067935458839
 20
1444.735231035208
 30
0.0
  0
VERTEX
  5
519
330
506
100
AcDbEntity
  8
鏡台
  6
CONTINUOUS
 62
     6
100
AcDbVertex
100
AcDb2dVertex
 10
595.119306143406
 20
1445.161200510387
 30
0.0
  0
VERTEX
  5
51A
330
506
100
AcDbEntity
  8
鏡台
  6
CONTINUOUS
 62
     6
100
AcDbVertex
100
AcDb2dVertex
 10
606.4318187409281
 20
1445.557792780382
 30
0.0
  0
VERTEX
  5
51B
330
506
100
AcDbEntity
  8
鏡台
  6
CONTINUOUS
 62
     6
100
AcDbVertex
100
AcDb2dVertex
 10
617.7443313384497
 20
1445.925007845191
 30
0.0
  0
VERTEX
  5
51C
330
506
100
AcDbEntity
  8
鏡台
  6
CONTINUOUS
 62
     6
100
AcDbVertex
100
AcDb2dVertex
 10
629.0568439359718
 20
1446.262845704816
 30
0.0
  0
VERTEX
  5
51D
330
506
100
AcDbEntity
  8
鏡台
  6
CONTINUOUS
 62
     6
100
AcDbVertex
100
AcDb2dVertex
 10
640.3693565334934
 20
1446.571306359256
 30
0.0
  0
VERTEX
  5
51E
330
506
100
AcDbEntity
  8
鏡台
  6
CONTINUOUS
 62
     6
100
AcDbVertex
100
AcDb2dVertex
 10
651.6818691310154
 20
1446.850389808511
 30
0.0
  0
VERTEX
  5
51F
330
506
100
AcDbEntity
  8
鏡台
  6
CONTINUOUS
 62
     6
100
AcDbVertex
100
AcDb2dVertex
 10
662.9943817285371
 20
1447.100096052582
 30
0.0
  0
VERTEX
  5
520
330
506
100
AcDbEntity
  8
鏡台
  6
CONTINUOUS
 62
     6
100
AcDbVertex
100
AcDb2dVertex
 10
674.3068943260591
 20
1447.320425091468
 30
0.0
  0
VERTEX
  5
521
330
506
100
AcDbEntity
  8
鏡台
  6
CONTINUOUS
 62
     6
100
AcDbVertex
100
AcDb2dVertex
 10
685.6194069235812
 20
1447.511376925169
 30
0.0
  0
VERTEX
  5
522
330
506
100
AcDbEntity
  8
鏡台
  6
CONTINUOUS
 62
     6
100
AcDbVertex
100
AcDb2dVertex
 10
696.9319195211028
 20
1447.672951553685
 30
0.0
  0
VERTEX
  5
523
330
506
100
AcDbEntity
  8
鏡台
  6
CONTINUOUS
 62
     6
100
AcDbVertex
100
AcDb2dVertex
 10
708.2444321186249
 20
1447.805148977017
 30
0.0
  0
VERTEX
  5
524
330
506
100
AcDbEntity
  8
鏡台
  6
CONTINUOUS
 62
     6
100
AcDbVertex
100
AcDb2dVertex
 10
719.5569447161465
 20
1447.907969195163
 30
0.0
  0
VERTEX
  5
525
330
506
100
AcDbEntity
  8
鏡台
  6
CONTINUOUS
 62
     6
100
AcDbVertex
100
AcDb2dVertex
 10
730.8694573136686
 20
1447.981412208125
 30
0.0
  0
VERTEX
  5
526
330
506
100
AcDbEntity
  8
鏡台
  6
CONTINUOUS
 62
     6
100
AcDbVertex
100
AcDb2dVertex
 10
742.1819699111902
 20
1448.025478015903
 30
0.0
  0
VERTEX
  5
527
330
506
100
AcDbEntity
  8
鏡台
  6
CONTINUOUS
 62
     6
100
AcDbVertex
100
AcDb2dVertex
 10
753.4944825087123
 20
1448.040166618495
 30
0.0
  0
VERTEX
  5
528
330
506
100
AcDbEntity
  8
鏡台
  6
CONTINUOUS
 62
     6
100
AcDbVertex
100
AcDb2dVertex
 10
764.8069951062339
 20
1448.025478015903
 30
0.0
  0
VERTEX
  5
529
330
506
100
AcDbEntity
  8
鏡台
  6
CONTINUOUS
 62
     6
100
AcDbVertex
100
AcDb2dVertex
 10
776.119507703756
 20
1447.981412208125
 30
0.0
  0
VERTEX
  5
52A
330
506
100
AcDbEntity
  8
鏡台
  6
CONTINUOUS
 62
     6
100
AcDbVertex
100
AcDb2dVertex
 10
787.4320203012776
 20
1447.907969195163
 30
0.0
  0
VERTEX
  5
52B
330
506
100
AcDbEntity
  8
鏡台
  6
CONTINUOUS
 62
     6
100
AcDbVertex
100
AcDb2dVertex
 10
798.7445328987997
 20
1447.805148977017
 30
0.0
  0
VERTEX
  5
52C
330
506
100
AcDbEntity
  8
鏡台
  6
CONTINUOUS
 62
     6
100
AcDbVertex
100
AcDb2dVertex
 10
810.0570454963217
 20
1447.672951553685
 30
0.0
  0
VERTEX
  5
52D
330
506
100
AcDbEntity
  8
鏡台
  6
CONTINUOUS
 62
     6
100
AcDbVertex
100
AcDb2dVertex
 10
821.3695580938434
 20
1447.511376925169
 30
0.0
  0
VERTEX
  5
52E
330
506
100
AcDbEntity
  8
鏡台
  6
CONTINUOUS
 62
     6
100
AcDbVertex
100
AcDb2dVertex
 10
832.6820706913654
 20
1447.320425091468
 30
0.0
  0
VERTEX
  5
52F
330
506
100
AcDbEntity
  8
鏡台
  6
CONTINUOUS
 62
     6
100
AcDbVertex
100
AcDb2dVertex
 10
843.994583288887
 20
1447.100096052582
 30
0.0
  0
VERTEX
  5
530
330
506
100
AcDbEntity
  8
鏡台
  6
CONTINUOUS
 62
     6
100
AcDbVertex
100
AcDb2dVertex
 10
855.3070958864091
 20
1446.850389808511
 30
0.0
  0
VERTEX
  5
531
330
506
100
AcDbEntity
  8
鏡台
  6
CONTINUOUS
 62
     6
100
AcDbVertex
100
AcDb2dVertex
 10
866.6196084839307
 20
1446.571306359256
 30
0.0
  0
VERTEX
  5
532
330
506
100
AcDbEntity
  8
鏡台
  6
CONTINUOUS
 62
     6
100
AcDbVertex
100
AcDb2dVertex
 10
877.9321210814528
 20
1446.262845704816
 30
0.0
  0
VERTEX
  5
533
330
506
100
AcDbEntity
  8
鏡台
  6
CONTINUOUS
 62
     6
100
AcDbVertex
100
AcDb2dVertex
 10
889.2446336789744
 20
1445.925007845191
 30
0.0
  0
VERTEX
  5
534
330
506
100
AcDbEntity
  8
鏡台
  6
CONTINUOUS
 62
     6
100
AcDbVertex
100
AcDb2dVertex
 10
900.5571462764965
 20
1445.557792780382
 30
0.0
  0
VERTEX
  5
535
330
506
100
AcDbEntity
  8
鏡台
  6
CONTINUOUS
 62
     6
100
AcDbVertex
100
AcDb2dVertex
 10
911.8696588740186
 20
1445.161200510387
 30
0.0
  0
VERTEX
  5
536
330
506
100
AcDbEntity
  8
鏡台
  6
CONTINUOUS
 62
     6
100
AcDbVertex
100
AcDb2dVertex
 10
923.1821714715402
 20
1444.735231035208
 30
0.0
  0
VERTEX
  5
537
330
506
100
AcDbEntity
  8
鏡台
  6
CONTINUOUS
 62
     6
100
AcDbVertex
100
AcDb2dVertex
 10
934.4946840690623
 20
1444.279884354844
 30
0.0
  0
VERTEX
  5
538
330
506
100
AcDbEntity
  8
鏡台
  6
CONTINUOUS
 62
     6
100
AcDbVertex
100
AcDb2dVertex
 10
945.8071966665839
 20
1443.795160469295
 30
0.0
  0
VERTEX
  5
539
330
506
100
AcDbEntity
  8
鏡台
  6
CONTINUOUS
 62
     6
100
AcDbVertex
100
AcDb2dVertex
 10
957.119709264106
 20
1443.281059378561
 30
0.0
  0
VERTEX
  5
53A
330
506
100
AcDbEntity
  8
鏡台
  6
CONTINUOUS
 62
     6
100
AcDbVertex
100
AcDb2dVertex
 10
968.4322218616276
 20
1442.737581082643
 30
0.0
  0
VERTEX
  5
53B
330
506
100
AcDbEntity
  8
鏡台
  6
CONTINUOUS
 62
     6
100
AcDbVertex
100
AcDb2dVertex
 10
979.7447344591496
 20
1442.16472558154
 30
0.0
  0
VERTEX
  5
53C
330
506
100
AcDbEntity
  8
鏡台
  6
CONTINUOUS
 62
     6
100
AcDbVertex
100
AcDb2dVertex
 10
991.0572470566713
 20
1441.562492875252
 30
0.0
  0
VERTEX
  5
53D
330
506
100
AcDbEntity
  8
鏡台
  6
CONTINUOUS
 62
     6
100
AcDbVertex
100
AcDb2dVertex
 10
1002.369759654193
 20
1440.93088296378
 30
0.0
  0
VERTEX
  5
53E
330
506
100
AcDbEntity
  8
鏡台
  6
CONTINUOUS
 62
     6
100
AcDbVertex
100
AcDb2dVertex
 10
1013.682272251715
 20
1440.269895847122
 30
0.0
  0
VERTEX
  5
53F
330
506
100
AcDbEntity
  8
鏡台
  6
CONTINUOUS
 62
     6
100
AcDbVertex
100
AcDb2dVertex
 10
1024.994784849237
 20
1439.57953152528
 30
0.0
  0
VERTEX
  5
540
330
506
100
AcDbEntity
  8
鏡台
  6
CONTINUOUS
 62
     6
100
AcDbVertex
100
AcDb2dVertex
 10
1036.307297446759
 20
1438.859789998253
 30
0.0
  0
VERTEX
  5
541
330
506
100
AcDbEntity
  8
鏡台
  6
CONTINUOUS
 62
     6
100
AcDbVertex
100
AcDb2dVertex
 10
1047.619810044281
 20
1438.110671266041
 30
0.0
  0
VERTEX
  5
542
330
506
100
AcDbEntity
  8
鏡台
  6
CONTINUOUS
 62
     6
100
AcDbVertex
100
AcDb2dVertex
 10
1058.932322641803
 20
1437.332175328645
 30
0.0
  0
VERTEX
  5
543
330
506
100
AcDbEntity
  8
鏡台
  6
CONTINUOUS
 62
     6
100
AcDbVertex
100
AcDb2dVertex
 10
1070.244835239324
 20
1436.524302186064
 30
0.0
  0
VERTEX
  5
544
330
506
100
AcDbEntity
  8
鏡台
  6
CONTINUOUS
 62
     6
100
AcDbVertex
100
AcDb2dVertex
 10
1081.557347836846
 20
1435.687051838298
 30
0.0
  0
VERTEX
  5
545
330
506
100
AcDbEntity
  8
鏡台
  6
CONTINUOUS
 62
     6
100
AcDbVertex
100
AcDb2dVertex
 10
1092.869860434368
 20
1434.820424285347
 30
0.0
  0
VERTEX
  5
546
330
506
100
AcDbEntity
  8
鏡台
  6
CONTINUOUS
 62
     6
100
AcDbVertex
100
AcDb2dVertex
 10
1104.18237303189
 20
1433.924419527211
 30
0.0
  0
VERTEX
  5
547
330
506
100
AcDbEntity
  8
鏡台
  6
CONTINUOUS
 62
     6
100
AcDbVertex
100
AcDb2dVertex
 10
1115.494885629412
 20
1432.999037563891
 30
0.0
  0
SEQEND
  5
548
330
506
100
AcDbEntity
  8
鏡台
  6
CONTINUOUS
 62
     6
  0
LINE
  5
549
330
1F
100
AcDbEntity
  8
鏡台
  6
CONTINUOUS
 62
     6
100
AcDbLine
 10
1068.49448250871
 20
1528.48077
 30
0.0
 11
1068.49448250871
 21
1437.73518
 31
0.0
  0
LINE
  5
54A
330
1F
100
AcDbEntity
  8
鏡台
  6
EXLTYPE7
 62
     6
100
AcDbLine
 10
1600.5
 20
1396.0
 30
0.0
 11
1683.662277660168
 21
1368.279240779944
 31
0.0
  0
ARC
  5
54B
330
1F
100
AcDbEntity
  8
鏡台
  6
EXLTYPE7
 62
     6
100
AcDbCircle
 10
1680.5
 20
1358.792407799439
 30
0.0
 40
10.0
100
AcDbArc
 50
0.0
 51
71.56505117707763
  0
LINE
  5
54C
330
1F
100
AcDbEntity
  8
鏡台
  6
EXLTYPE7
 62
     6
100
AcDbLine
 10
1690.5
 20
1358.7924077994
 30
0.0
 11
1690.5
 21
1239.8962038997
 31
0.0
  0
ARC
  5
54D
330
1F
100
AcDbEntity
  8
鏡台
  6
EXLTYPE7
 62
     6
100
AcDbCircle
 10
1685.5
 20
1236.0
 30
0.0
 40
5.0
100
AcDbArc
 50
270.0
 51
0.0
  0
LINE
  5
54E
330
1F
100
AcDbEntity
  8
鏡台
  6
EXLTYPE7
 62
     6
100
AcDbLine
 10
1610.5
 20
1231.0
 30
0.0
 11
1655.5
 21
1231.0
 31
0.0
  0
LINE
  5
54F
330
1F
100
AcDbEntity
  8
鏡台
  6
EXLTYPE7
 62
     6
100
AcDbLine
 10
1605.5
 20
1231.0
 30
0.0
 11
1685.5
 21
1231.0
 31
0.0
  0
ARC
  5
550
330
1F
100
AcDbEntity
  8
鏡台
  6
EXLTYPE7
 62
     6
100
AcDbCircle
 10
1605.5
 20
1226.0
 30
0.0
 40
5.0
100
AcDbArc
 50
90.00000000000001
 51
180.0
  0
LINE
  5
551
330
1F
100
AcDbEntity
  8
鏡台
  6
EXLTYPE7
 62
     6
100
AcDbLine
 10
1600.5
 20
1226.0
 30
0.0
 11
1600.5
 21
1209.96007329311
 31
0.0
  0
LINE
  5
552
330
1F
100
AcDbEntity
  8
鏡台
  6
EXLTYPE7
 62
     6
100
AcDbLine
 10
1604.354803331373
 20
1205.092987451442
 30
0.0
 11
1682.790393337255
 21
1187.814025097116
 31
0.0
  0
ARC
  5
553
330
1F
100
AcDbEntity
  8
鏡台
  6
EXLTYPE7
 62
     6
100
AcDbCircle
 10
1605.5
 20
1209.96007329311
 30
0.0
 40
5.0
100
AcDbArc
 50
180.0
 51
256.7594800848186
  0
ARC
  5
554
330
1F
100
AcDbEntity
  8
鏡台
  6
EXLTYPE7
 62
     6
100
AcDbCircle
 10
1680.5
 20
1178.079853413781
 30
0.0
 40
10.0
100
AcDbArc
 50
0.0
 51
76.7594800848131
  0
LINE
  5
555
330
1F
100
AcDbEntity
  8
鏡台
  6
EXLTYPE1
 62
     6
100
AcDbLine
 10
1690.5
 20
1178.079853413781
 30
0.0
 11
1690.5
 21
1019.539926706881
 31
0.0
  0
ARC
  5
556
330
1F
100
AcDbEntity
  8
鏡台
  6
EXLTYPE7
 62
     6
100
AcDbCircle
 10
1685.5
 20
1021.0
 30
0.0
 40
5.0
100
AcDbArc
 50
270.0
 51
0.0
  0
LINE
  5
557
330
1F
100
AcDbEntity
  8
鏡台
  6
EXLTYPE7
 62
     6
100
AcDbLine
 10
1605.5
 20
1016.0
 30
0.0
 11
1685.5
 21
1016.0
 31
0.0
  0
LINE
  5
558
330
1F
100
AcDbEntity
  8
鏡台
  6
EXLTYPE7
 62
     6
100
AcDbLine
 10
1610.5
 20
1016.0
 30
0.0
 11
1655.5
 21
1016.0
 31
0.0
  0
ARC
  5
559
330
1F
100
AcDbEntity
  8
鏡台
  6
EXLTYPE7
 62
     6
100
AcDbCircle
 10
1605.5
 20
1011.0
 30
0.0
 40
5.0
100
AcDbArc
 50
90.00000000000001
 51
180.0
  0
LINE
  5
55A
330
1F
100
AcDbEntity
  8
鏡台
  6
EXLTYPE7
 62
     6
100
AcDbLine
 10
1600.5
 20
1011.0
 30
0.0
 11
1600.5
 21
994.9600732931099
 31
0.0
  0
ARC
  5
55B
330
1F
100
AcDbEntity
  8
鏡台
  6
EXLTYPE7
 62
     6
100
AcDbCircle
 10
1605.5
 20
994.9600732931099
 30
0.0
 40
5.0
100
AcDbArc
 50
180.0
 51
256.7594800848186
  0
LINE
  5
55C
330
1F
100
AcDbEntity
  8
鏡台
  6
EXLTYPE7
 62
     6
100
AcDbLine
 10
1604.354803331373
 20
990.0929874514418
 30
0.0
 11
1682.790393337255
 21
972.8140250971165
 31
0.0
  0
ARC
  5
55D
330
1F
100
AcDbEntity
  8
鏡台
  6
EXLTYPE7
 62
     6
100
AcDbCircle
 10
1680.5
 20
963.0798534137808
 30
0.0
 40
10.0
100
AcDbArc
 50
0.0
 51
76.7594800848131
  0
LINE
  5
55E
330
1F
100
AcDbEntity
  8
鏡台
  6
EXLTYPE7
 62
     6
100
AcDbLine
 10
1690.5
 20
963.0798534137808
 30
0.0
 11
1690.5
 21
745.9999999999808
 31
0.0
  0
ARC
  5
55F
330
1F
100
AcDbEntity
  8
鏡台
  6
EXLTYPE7
 62
     6
100
AcDbCircle
 10
1685.5
 20
746.0
 30
0.0
 40
5.0
100
AcDbArc
 50
270.0
 51
0.0
  0
LINE
  5
560
330
1F
100
AcDbEntity
  8
鏡台
  6
EXLTYPE7
 62
     6
100
AcDbLine
 10
1605.5
 20
741.0
 30
0.0
 11
1685.5
 21
741.0
 31
0.0
  0
ARC
  5
561
330
1F
100
AcDbEntity
  8
鏡台
  6
EXLTYPE7
 62
     6
100
AcDbCircle
 10
1605.5
 20
736.0
 30
0.0
 40
5.0
100
AcDbArc
 50
90.00000000000001
 51
180.0
  0
LINE
  5
562
330
1F
100
AcDbEntity
  8
鏡台
  6
CONTINUOUS
 62
     6
100
AcDbLine
 10
1185.120637558698
 20
698.4558840559087
 30
0.0
 11
1171.290833339698
 21
701.190754203709
 31
0.0
  0
ARC
  5
563
330
1F
100
AcDbEntity
  8
鏡台
  6
CONTINUOUS
 62
     6
100
AcDbCircle
 10
1171.096783304698
 20
700.2097817323086
 30
0.0
 40
1.0
100
AcDbArc
 50
78.81378199997579
 51
165.0000000000056
  0
ARC
  5
564
330
1F
100
AcDbEntity
  8
鏡台
  6
CONTINUOUS
 62
     6
100
AcDbCircle
 10
1171.096783304698
 20
700.2097817323086
 30
0.0
 40
1.0
100
AcDbArc
 50
78.81378199997579
 51
165.0000000000056
  0
LINE
  5
565
330
1F
100
AcDbEntity
  8
鏡台
  6
CONTINUOUS
 62
     6
100
AcDbLine
 10
1685.499999999998
 20
520.9999999999991
 30
0.0
 11
1747.999999999998
 21
520.9999999999991
 31
0.0
  0
LINE
  5
566
330
1F
100
AcDbEntity
  8
鏡台
  6
CONTINUOUS
 62
     6
100
AcDbLine
 10
1700.499999999998
 20
522.9999999999991
 30
0.0
 11
1732.999999999998
 21
520.9999999999991
 31
0.0
  0
LINE
  5
567
330
1F
100
AcDbEntity
  8
鏡台
  6
CONTINUOUS
 62
     6
100
AcDbLine
 10
1732.999999999998
 20
520.9999999999991
 30
0.0
 11
1700.499999999998
 21
518.9999999999991
 31
0.0
  0
LINE
  5
568
330
1F
100
AcDbEntity
  8
鏡台
  6
CONTINUOUS
 62
     6
100
AcDbLine
 10
1685.499999999998
 20
1490.999999999999
 30
0.0
 11
1747.999999999998
 21
1490.999999999999
 31
0.0
  0
LINE
  5
569
330
1F
100
AcDbEntity
  8
鏡台
  6
CONTINUOUS
 62
     6
100
AcDbLine
 10
1700.499999999998
 20
1492.999999999999
 30
0.0
 11
1732.999999999998
 21
1490.999999999999
 31
0.0
  0
LINE
  5
56A
330
1F
100
AcDbEntity
  8
鏡台
  6
CONTINUOUS
 62
     6
100
AcDbLine
 10
1732.999999999998
 20
1490.999999999999
 30
0.0
 11
1700.499999999998
 21
1488.999999999999
 31
0.0
  0
LINE
  5
56B
330
1F
100
AcDbEntity
  8
鏡台
  6
CONTINUOUS
 62
     6
100
AcDbLine
 10
433.4944675086977
 20
2005.999999999998
 30
0.0
 11
433.4944675086977
 21
2068.499999999998
 31
0.0
  0
LINE
  5
56C
330
1F
100
AcDbEntity
  8
鏡台
  6
CONTINUOUS
 62
     6
100
AcDbLine
 10
431.4944675086977
 20
2020.999999999998
 30
0.0
 11
433.4944675086977
 21
2053.499999999998
 31
0.0
  0
LINE
  5
56D
330
1F
100
AcDbEntity
  8
鏡台
  6
CONTINUOUS
 62
     6
100
AcDbLine
 10
433.4944675086977
 20
2053.499999999998
 30
0.0
 11
435.4944675086977
 21
2020.999999999998
 31
0.0
  0
LINE
  5
56E
330
1F
100
AcDbEntity
  8
鏡台
  6
CONTINUOUS
 62
     6
100
AcDbLine
 10
1073.494467508698
 20
2005.999999999998
 30
0.0
 11
1073.494467508698
 21
2068.499999999998
 31
0.0
  0
LINE
  5
56F
330
1F
100
AcDbEntity
  8
鏡台
  6
CONTINUOUS
 62
     6
100
AcDbLine
 10
1071.494467508698
 20
2020.999999999998
 30
0.0
 11
1073.494467508698
 21
2053.499999999998
 31
0.0
  0
LINE
  5
570
330
1F
100
AcDbEntity
  8
鏡台
  6
CONTINUOUS
 62
     6
100
AcDbLine
 10
1073.494467508698
 20
2053.499999999998
 30
0.0
 11
1075.494467508698
 21
2020.999999999998
 31
0.0
  0
LINE
  5
571
330
1F
100
AcDbEntity
  8
鏡台
  6
CONTINUOUS
 62
     6
100
AcDbLine
 10
398.50000000002
 20
527.0
 30
0.0
 11
398.50000000002
 21
515.0
 31
0.0
  0
LINE
  5
572
330
1F
100
AcDbEntity
  8
鏡台
  6
CONTINUOUS
 62
     6
100
AcDbLine
 10
404.50000000002
 20
521.0
 30
0.0
 11
392.50000000002
 21
521.0
 31
0.0
  0
LINE
  5
573
330
1F
100
AcDbEntity
  8
鏡台
  6
CONTINUOUS
 62
     6
100
AcDbLine
 10
1114.4889350174
 20
521.0
 30
0.0
 11
1102.4889350174
 21
521.0
 31
0.0
  0
LINE
  5
574
330
1F
100
AcDbEntity
  8
鏡台
  6
CONTINUOUS
 62
     6
100
AcDbLine
 10
1108.4889350174
 20
527.0
 30
0.0
 11
1108.4889350174
 21
515.0
 31
0.0
  0
LINE
  5
575
330
1F
100
AcDbEntity
  8
鏡台
  6
CONTINUOUS
 62
     6
100
AcDbLine
 10
398.4999999999877
 20
2005.999999999998
 30
0.0
 11
398.4999999999877
 21
2068.499999999998
 31
0.0
  0
LINE
  5
576
330
1F
100
AcDbEntity
  8
鏡台
  6
CONTINUOUS
 62
     6
100
AcDbLine
 10
396.4999999999877
 20
2020.999999999998
 30
0.0
 11
398.4999999999877
 21
2053.499999999998
 31
0.0
  0
LINE
  5
577
330
1F
100
AcDbEntity
  8
鏡台
  6
CONTINUOUS
 62
     6
100
AcDbLine
 10
398.4999999999877
 20
2053.499999999998
 30
0.0
 11
400.4999999999877
 21
2020.999999999998
 31
0.0
  0
LINE
  5
578
330
1F
100
AcDbEntity
  8
鏡台
  6
CONTINUOUS
 62
     6
100
AcDbLine
 10
1108.499999999998
 20
2005.999999999998
 30
0.0
 11
1108.499999999998
 21
2068.499999999998
 31
0.0
  0
LINE
  5
579
330
1F
100
AcDbEntity
  8
鏡台
  6
CONTINUOUS
 62
     6
100
AcDbLine
 10
1106.499999999998
 20
2020.999999999998
 30
0.0
 11
1108.499999999998
 21
2053.499999999998
 31
0.0
  0
LINE
  5
57A
330
1F
100
AcDbEntity
  8
鏡台
  6
CONTINUOUS
 62
     6
100
AcDbLine
 10
1108.499999999998
 20
2053.499999999998
 30
0.0
 11
1110.499999999998
 21
2020.999999999998
 31
0.0
  0
POLYLINE
  5
57B
330
1F
100
AcDbEntity
  8
鏡台
  6
CONTINUOUS
 62
     2
100
AcDb2dPolyline
 66
     1
 10
0.0
 20
0.0
 30
0.0
 70
   128
  0
VERTEX
  5
57C
330
57B
100
AcDbEntity
  8
鏡台
  6
CONTINUOUS
 62
     2
100
AcDbVertex
100
AcDb2dVertex
 10
378.5000000000214
 20
500.999963117
 30
0.0
  0
VERTEX
  5
57D
330
57B
100
AcDbEntity
  8
鏡台
  6
CONTINUOUS
 62
     2
100
AcDbVertex
100
AcDb2dVertex
 10
378.5000000000214
 20
1541.0
 30
0.0
  0
SEQEND
  5
57E
330
57B
100
AcDbEntity
  8
鏡台
  6
CONTINUOUS
 62
     2
  0
LINE
  5
57F
330
1F
100
AcDbEntity
  8
鏡台
  6
CONTINUOUS
 62
     6
100
AcDbLine
 10
1098.588935017399
 20
580.9999999999991
 30
0.0
 11
1161.665631847999
 21
580.9999999999991
 31
0.0
  0
LINE
  5
580
330
1F
100
AcDbEntity
  8
鏡台
  6
CONTINUOUS
 62
     6
100
AcDbLine
 10
1184.196736656399
 20
695.5872669101991
 30
0.0
 11
1173.571624396399
 21
698.4342680582986
 31
0.0
  0
LINE
  5
581
330
1F
100
AcDbEntity
  8
鏡台
  6
CONTINUOUS
 62
     6
100
AcDbLine
 10
1180.443797011399
 20
681.581392085699
 30
0.0
 11
1166.593601258399
 21
685.9149284016994
 31
0.0
  0
LINE
  5
582
330
1F
100
AcDbEntity
  8
鏡台
  6
CONTINUOUS
 62
     6
100
AcDbLine
 10
1174.641473571399
 20
678.4773263694988
 30
0.0
 11
1165.586465417399
 21
680.9036623491993
 31
0.0
  0
LINE
  5
583
330
1F
100
AcDbEntity
  8
鏡台
  6
CONTINUOUS
 62
     6
100
AcDbLine
 10
1166.593601258399
 20
685.9149284016994
 30
0.0
 11
1162.118913250399
 21
663.6498031211986
 31
0.0
  0
LINE
  5
584
330
1F
100
AcDbEntity
  8
鏡台
  6
CONTINUOUS
 62
     6
100
AcDbLine
 10
1168.996109035399
 20
661.8057711292995
 30
0.0
 11
1175.203530982399
 21
680.137244389799
 31
0.0
  0
LINE
  5
585
330
1F
100
AcDbEntity
  8
鏡台
  6
CONTINUOUS
 62
     6
100
AcDbLine
 10
1199.263362228399
 20
689.9973023498997
 30
0.0
 11
1183.808476953399
 21
694.1383693547987
 31
0.0
  0
LINE
  5
586
330
1F
100
AcDbEntity
  8
鏡台
  6
CONTINUOUS
 62
     6
100
AcDbLine
 10
1196.933928972399
 20
681.3039229308988
 30
0.0
 11
1181.479165320399
 21
685.4449995726991
 31
0.0
  0
LINE
  5
587
330
1F
100
AcDbEntity
  8
鏡台
  6
CONTINUOUS
 62
     6
100
AcDbLine
 10
1173.571502861399
 20
698.4342574252987
 30
0.0
 11
1170.465783808399
 21
686.8432237920997
 31
0.0
  0
LINE
  5
588
330
1F
100
AcDbEntity
  8
鏡台
  6
CONTINUOUS
 62
     6
100
AcDbLine
 10
1181.090906700399
 20
683.9961011081987
 30
0.0
 11
1170.465783808399
 21
686.8432237920997
 31
0.0
  0
LINE
  5
589
330
1F
100
AcDbEntity
  8
鏡台
  6
CONTINUOUS
 62
     6
100
AcDbLine
 10
1180.443797011399
 20
681.581392085699
 30
0.0
 11
1178.917572376399
 21
682.0453533567988
 31
0.0
  0
LINE
  5
58A
330
1F
100
AcDbEntity
  8
鏡台
  6
CONTINUOUS
 62
     6
100
AcDbLine
 10
1184.973133355399
 20
698.4850532932987
 30
0.0
 11
1171.143329136399
 21
701.2199234410991
 31
0.0
  0
LINE
  5
58B
330
1F
100
AcDbEntity
  8
鏡台
  6
CONTINUOUS
 62
     6
100
AcDbLine
 10
1180.443797011399
 20
681.581392085699
 30
0.0
 11
1184.973133355399
 21
698.4850532932987
 31
0.0
  0
LINE
  5
58C
330
1F
100
AcDbEntity
  8
鏡台
  6
CONTINUOUS
 62
     6
100
AcDbLine
 10
1166.334719796399
 20
686.8809042251987
 30
0.0
 11
1169.983347095399
 21
700.497790410499
 31
0.0
  0
LINE
  5
58D
330
1F
100
AcDbEntity
  8
鏡台
  6
CONTINUOUS
 62
     6
100
AcDbLine
 10
1167.790058594399
 20
661.1606048548992
 30
0.0
 11
1162.840450897399
 21
662.4868277983996
 31
0.0
  0
ARC
  5
58E
330
1F
100
AcDbEntity
  8
鏡台
  6
CONTINUOUS
 62
     6
100
AcDbCircle
 10
1310.245612017399
 20
635.8349609999996
 30
0.0
 40
150.0
100
AcDbArc
 50
169.7364188339999
 51
175.9890140000003
  0
ARC
  5
58F
330
1F
100
AcDbEntity
  8
鏡台
  6
CONTINUOUS
 62
     6
100
AcDbCircle
 10
1315.738410017399
 20
636.1166989999992
 30
0.0
 40
150.0
100
AcDbArc
 50
170.3937176707998
 51
175.6141359999999
  0
ARC
  5
590
330
1F
100
AcDbEntity
  8
鏡台
  6
CONTINUOUS
 62
     6
100
AcDbCircle
 10
1178.0450297324
 20
679.1750589176991
 30
0.0
 40
3.000000000000002
100
AcDbArc
 50
73.09075899999961
 51
161.29272500001
  0
ARC
  5
591
330
1F
100
AcDbEntity
  8
鏡台
  6
CONTINUOUS
 62
     6
100
AcDbCircle
 10
1163.099290251399
 20
663.4527608012986
 30
0.0
 40
1.0
100
AcDbArc
 50
168.6365359999535
 51
254.9999389999938
  0
ARC
  5
592
330
1F
100
AcDbEntity
  8
鏡台
  6
CONTINUOUS
 62
     6
100
AcDbCircle
 10
1168.048898035399
 20
662.1265368614995
 30
0.0
 40
1.0
100
AcDbArc
 50
255.0000000000056
 51
341.2927249999935
  0
ARC
  5
593
330
1F
100
AcDbEntity
  8
鏡台
  6
CONTINUOUS
 62
     6
100
AcDbCircle
 10
1189.472591718399
 20
687.9619192266991
 30
0.0
 40
10.0
100
AcDbArc
 50
318.2563779999982
 51
11.74365199999793
  0
ARC
  5
594
330
1F
100
AcDbEntity
  8
鏡台
  6
CONTINUOUS
 62
     6
100
AcDbCircle
 10
1170.949279101399
 20
700.2389509696986
 30
0.0
 40
1.0
100
AcDbArc
 50
78.81378199997579
 51
165.0000000000056
  0
ARC
  5
595
330
1F
100
AcDbEntity
  8
鏡台
  6
CONTINUOUS
 62
     6
100
AcDbCircle
 10
1167.300651802399
 20
686.6220647844993
 30
0.0
 40
1.0
100
AcDbArc
 50
164.9999999999553
 51
253.0908809999582
  0
ARC
  5
596
330
1F
100
AcDbEntity
  8
鏡台
  6
CONTINUOUS
 62
     6
100
AcDbCircle
 10
1040.337592017398
 20
647.8100589999985
 30
0.0
 40
120.0000000000001
100
AcDbArc
 50
332.4231260000005
 51
355.4096070000001
  0
ARC
  5
597
330
1F
100
AcDbEntity
  8
鏡台
  6
CONTINUOUS
 62
     6
100
AcDbCircle
 10
1046.233588017399
 20
646.5830079999987
 30
0.0
 40
120.0000000000001
100
AcDbArc
 50
330.778137
 51
356.6508789999999
  0
ARC
  5
598
330
1F
100
AcDbEntity
  8
鏡台
  6
CONTINUOUS
 62
     6
100
AcDbCircle
 10
1178.0450297324
 20
679.1750589176991
 30
0.0
 40
3.000000000000002
100
AcDbArc
 50
73.09075899999961
 51
161.29272500001
  0
ARC
  5
599
330
1F
100
AcDbEntity
  8
鏡台
  6
CONTINUOUS
 62
     6
100
AcDbCircle
 10
1163.099290251399
 20
663.4527608012986
 30
0.0
 40
1.0
100
AcDbArc
 50
168.6365359999535
 51
254.9999389999938
  0
ARC
  5
59A
330
1F
100
AcDbEntity
  8
鏡台
  6
CONTINUOUS
 62
     6
100
AcDbCircle
 10
1168.048898035399
 20
662.1265368614995
 30
0.0
 40
1.0
100
AcDbArc
 50
255.0000000000056
 51
341.2927249999935
  0
ARC
  5
59B
330
1F
100
AcDbEntity
  8
鏡台
  6
CONTINUOUS
 62
     6
100
AcDbCircle
 10
1189.472591718399
 20
687.9619192266991
 30
0.0
 40
10.0
100
AcDbArc
 50
318.2563779999982
 51
11.74365199999793
  0
ARC
  5
59C
330
1F
100
AcDbEntity
  8
鏡台
  6
CONTINUOUS
 62
     6
100
AcDbCircle
 10
1170.949279101399
 20
700.2389509696986
 30
0.0
 40
1.0
100
AcDbArc
 50
78.81378199997579
 51
165.0000000000056
  0
ARC
  5
59D
330
1F
100
AcDbEntity
  8
鏡台
  6
CONTINUOUS
 62
     6
100
AcDbCircle
 10
1167.300651802399
 20
686.6220647844993
 30
0.0
 40
1.0
100
AcDbArc
 50
164.9999999999553
 51
253.0908809999582
  0
ARC
  5
59E
330
1F
100
AcDbEntity
  8
鏡台
  6
CONTINUOUS
 62
     6
100
AcDbCircle
 10
1157.216743017399
 20
654.9847409999993
 30
0.0
 40
17.00025
100
AcDbArc
 50
231.9271239999991
 51
288.0711059999998
  0
ARC
  5
59F
330
1F
100
AcDbEntity
  8
鏡台
  6
CONTINUOUS
 62
     6
100
AcDbCircle
 10
1167.763496017399
 20
622.6614379999983
 30
0.0
 40
17.000208
100
AcDbArc
 50
79.99896199999944
 51
108.0710449999981
  0
ARC
  5
5A0
330
1F
100
AcDbEntity
  8
鏡台
  6
CONTINUOUS
 62
     6
100
AcDbCircle
 10
1167.763618017399
 20
622.6616209999993
 30
0.0
 40
17.000029
100
AcDbArc
 50
51.92639200000015
 51
79.99896199999789
  0
ARC
  5
5A1
330
1F
100
AcDbEntity
  8
鏡台
  6
CONTINUOUS
 62
     6
100
AcDbCircle
 10
1157.216743017399
 20
662.9847409999993
 30
0.0
 40
17.00025
100
AcDbArc
 50
231.9271239999991
 51
288.0711059999998
  0
ARC
  5
5A2
330
1F
100
AcDbEntity
  8
鏡台
  6
CONTINUOUS
 62
     6
100
AcDbCircle
 10
1167.763496017399
 20
630.6614379999983
 30
0.0
 40
17.000208
100
AcDbArc
 50
79.99896199999944
 51
108.0710449999981
  0
ARC
  5
5A3
330
1F
100
AcDbEntity
  8
鏡台
  6
CONTINUOUS
 62
     6
100
AcDbCircle
 10
1167.763618017399
 20
630.6616209999993
 30
0.0
 40
17.000029
100
AcDbArc
 50
51.92639200000015
 51
79.99896199999789
  0
ARC
  5
5A4
330
1F
100
AcDbEntity
  8
鏡台
  6
CONTINUOUS
 62
     6
100
AcDbCircle
 10
1128.588935017399
 20
607.9999999999991
 30
0.0
 40
30.00000000000002
100
AcDbArc
 50
270.0000000000002
 51
318.2063289999991
  0
ARC
  5
5A5
330
1F
100
AcDbEntity
  8
鏡台
  6
CONTINUOUS
 62
     6
100
AcDbCircle
 10
1128.588935017399
 20
607.9999999999991
 30
0.0
 40
24.00000000000002
100
AcDbArc
 50
270.0000000000002
 51
319.0090329999999
  0
LINE
  5
5A6
330
1F
100
AcDbEntity
  8
鏡台
  6
CONTINUOUS
 62
     6
100
AcDbLine
 10
850.1343303471981
 20
1309.326154339999
 30
0.0
 11
797.1013217581981
 21
1256.293145750999
 31
0.0
  0
LINE
  5
5A7
330
1F
100
AcDbEntity
  8
鏡台
  6
CONTINUOUS
 62
     6
100
AcDbLine
 10
827.4944675086986
 20
1297.999999999999
 30
0.0
 11
808.5444675086987
 21
1279.049999999999
 31
0.0
  0
LINE
  5
5A8
330
1F
100
AcDbEntity
  8
鏡台
  6
CONTINUOUS
 62
     6
100
AcDbLine
 10
844.0081760076987
 20
1291.886291501998
 30
0.0
 11
814.3081760076989
 21
1262.186291501999
 31
0.0
  0
LINE
  5
5A9
330
1F
100
AcDbEntity
  8
鏡台
  6
CONTINUOUS
 62
     6
100
AcDbLine
 10
568.1343303471986
 20
1086.326154339999
 30
0.0
 11
515.1013217581985
 21
1033.293145750999
 31
0.0
  0
LINE
  5
5AA
330
1F
100
AcDbEntity
  8
鏡台
  6
CONTINUOUS
 62
     6
100
AcDbLine
 10
545.4944675086986
 20
1074.999999999999
 30
0.0
 11
526.5444675086987
 21
1056.049999999999
 31
0.0
  0
LINE
  5
5AB
330
1F
100
AcDbEntity
  8
鏡台
  6
CONTINUOUS
 62
     6
100
AcDbLine
 10
562.0081760076987
 20
1068.886291501998
 30
0.0
 11
532.3081760076993
 21
1039.186291501999
 31
0.0
  0
LINE
  5
5AC
330
1F
100
AcDbEntity
  8
鏡台
  6
CONTINUOUS
 62
     6
100
AcDbLine
 10
810.6206218481989
 20
729.4398628379993
 30
0.0
 11
757.5876132591989
 21
676.4068542489993
 31
0.0
  0
LINE
  5
5AD
330
1F
100
AcDbEntity
  8
鏡台
  6
CONTINUOUS
 62
     6
100
AcDbLine
 10
787.9807590096993
 20
718.1137084979989
 30
0.0
 11
769.0307590096995
 21
699.1637084979991
 31
0.0
  0
LINE
  5
5AE
330
1F
100
AcDbEntity
  8
鏡台
  6
CONTINUOUS
 62
     6
100
AcDbLine
 10
804.4944675086995
 20
711.999999999998
 30
0.0
 11
774.7944675086997
 21
682.299999999999
 31
0.0
  0
LEADER
  5
5AF
330
1F
100
AcDbEntity
  8
寸法
  6
CONTINUOUS
 62
     3
100
AcDbLeader
  3
ISO-25
 76
     3
 10
555.4944675086999
 20
495.9999999999991
 30
0.0
 10
594.4944675086999
 20
419.9999999999991
 30
0.0
 10
771.4944675086999
 20
419.9999999999991
 30
0.0
1001
ACAD
1000
DSTYLE
1002
{
1070
     5
1000
EX_NORM
1070
    41
1040
30.0
1070
   341
1005
4D
1002
}
  0
TEXT
  5
5B0
330
1F
100
AcDbEntity
  8
寸法
  6
CONTINUOUS
 62
     2
100
AcDbText
 10
599.4944675086999
 20
423.4999999403945
 30
0.0
 40
40.0
  1
防水テープ
 41
1.013793103448276
  7
EXCADSTD
 72
     5
 11
767.4944675086999
 21
423.4999999403945
 31
0.0
100
AcDbText
  0
DIMENSION
  5
5B2
330
1F
100
AcDbEntity
  8
寸法
  6
CONTINUOUS
 62
     3
100
AcDbDimension
  2
*D15
 10
1232.0
 20
581.0
 30
0.0
 11
1208.500000059605
 21
645.9999999999997
 31
0.0
 70
   160
  3
ISO-25
100
AcDbAlignedDimension
 13
1123.4889719004
 23
496.0
 33
0.0
 14
1128.4889350174
 24
581.0
 34
0.0
 50
90.0
100
AcDbRotatedDimension
1001
ACAD
1000
DSTYLE
1002
{
1070
   270
1070
     2
1070
     6
1000
EX_NORM
1070
     7
1000
EX_NORM
1070
    41
1040
30.0
1070
    42
1040
6.99999988079071
1070
    44
1040
10.0
1070
    73
1070
     0
1070
    74
1070
     0
1070
    75
1070
     0
1070
    76
1070
     0
1070
    77
1070
     1
1070
    78
1070
     8
1070
   140
1040
40.0
1070
   147
1040
0.0
1070
   173
1070
     1
1070
   176
1070
     3
1070
   177
1070
     3
1070
   178
1070
     2
1070
   271
1070
     1
1070
   277
1070
     2
1070
   279
1070
     2
1070
   280
1070
     2
1070
   287
1070
     5
1070
   340
1005
5B1
1002
}
  0
LEADER
  5
5C0
330
1F
100
AcDbEntity
  8
寸法
  6
CONTINUOUS
 62
     3
100
AcDbLeader
  3
ISO-25
 76
     3
 10
1178.2057354492
 20
699.8233191297988
 30
0.0
 10
1233.197303044
 20
759.8192080565589
 30
0.0
 10
1233.197303044
 20
929.8192080565589
 30
0.0
1001
ACAD
1000
DSTYLE
1002
{
1070
     5
1000
EX_NORM
1070
    41
1040
30.0
1070
   341
1005
4D
1002
}
  0
TEXT
  5
5C1
330
1F
100
AcDbEntity
  8
寸法
  6
CONTINUOUS
 62
     2
100
AcDbText
 10
1229.697303103604
 20
764.8192080565589
 30
0.0
 40
40.0
  1
電源コード
 50
90.0
 41
1.013793103448276
  7
EXCADSTD
 72
     5
 11
1229.697303103604
 21
932.8192080565589
 31
0.0
100
AcDbText
  0
DIMENSION
  5
5C2
330
1F
100
AcDbEntity
  8
寸法
  6
CONTINUOUS
 62
     3
100
AcDbDimension
  2
*D16
 10
1294.0
 20
496.0
 30
0.0
 11
1270.500000059605
 21
1021.0
 31
0.0
 70
   160
  3
ISO-25
100
AcDbAlignedDimension
 13
1123.4889719004
 23
1546.0
 33
0.0
 14
1123.4889719004
 24
496.0
 34
0.0
 50
90.0
100
AcDbRotatedDimension
1001
ACAD
1000
DSTYLE
1002
{
1070
   270
1070
     2
1070
     6
1000
EX_NORM
1070
     7
1000
EX_NORM
1070
    41
1040
30.0
1070
    42
1040
6.99999988079071
1070
    44
1040
10.0
1070
    73
1070
     0
1070
    74
1070
     0
1070
    75
1070
     0
1070
    76
1070
     0
1070
    77
1070
     1
1070
    78
1070
     8
1070
   140
1040
40.0
1070
   147
1040
0.0
1070
   173
1070
     1
1070
   176
1070
     3
1070
   177
1070
     3
1070
   178
1070
     2
1070
   271
1070
     1
1070
   277
1070
     2
1070
   279
1070
     2
1070
   280
1070
     0
1070
   287
1070
     5
1070
   340
1005
5B1
1002
}
  0
DIMENSION
  5
5CF
330
1F
100
AcDbEntity
  8
寸法
  6
CONTINUOUS
 62
     3
100
AcDbDimension
  2
*D17
 10
1700.5
 20
812.0
 30
0.0
 11
1515.5
 21
835.4999999403954
 31
0.0
 70
   160
  3
ISO-25
100
AcDbAlignedDimension
 13
1595.5
 23
773.00000000001
 33
0.0
 14
1700.5
 24
773.0000000000001
 34
0.0
100
AcDbRotatedDimension
1001
ACAD
1000
DSTYLE
1002
{
1070
   270
1070
     2
1070
     6
1000
EX_NORM
1070
     7
1000
EX_NORM
1070
    41
1040
30.0
1070
    42
1040
6.99999988079071
1070
    44
1040
10.0
1070
    73
1070
     0
1070
    74
1070
     0
1070
    75
1070
     0
1070
    76
1070
     0
1070
    77
1070
     1
1070
    78
1070
     8
1070
   140
1040
40.0
1070
   147
1040
0.0
1070
   173
1070
     1
1070
   176
1070
     3
1070
   177
1070
     3
1070
   178
1070
     2
1070
   271
1070
     1
1070
   277
1070
     2
1070
   279
1070
     2
1070
   280
1070
     1
1070
   287
1070
     5
1070
   340
1005
5B1
1002
}
  0
DIMENSION
  5
5DC
330
1F
100
AcDbEntity
  8
寸法
  6
CONTINUOUS
 62
     3
100
AcDbDimension
  2
*D18
 10
1680.5
 20
435.0
 30
0.0
 11
1615.5
 21
458.4999999403949
 31
0.0
 70
   160
  3
ISO-25
100
AcDbAlignedDimension
 13
1700.5
 23
496.0
 33
0.0
 14
1680.5
 24
517.0
 34
0.0
100
AcDbRotatedDimension
1001
ACAD
1000
DSTYLE
1002
{
1070
   270
1070
     2
1070
     6
1000
EX_NORM
1070
     7
1000
EX_NORM
1070
    41
1040
30.0
1070
    42
1040
6.99999988079071
1070
    44
1040
10.0
1070
    73
1070
     0
1070
    74
1070
     0
1070
    75
1070
     0
1070
    76
1070
     0
1070
    77
1070
     1
1070
    78
1070
     8
1070
   140
1040
40.0
1070
   147
1040
0.0
1070
   173
1070
     1
1070
   176
1070
     3
1070
   177
1070
     3
1070
   178
1070
     2
1070
   271
1070
     1
1070
   277
1070
     2
1070
   279
1070
     2
1070
   280
1070
     2
1070
   287
1070
     5
1070
   340
1005
5B1
1002
}
  0
DIMENSION
  5
5EB
330
1F
100
AcDbEntity
  8
寸法
  6
CONTINUOUS
 62
     3
100
AcDbDimension
  2
*D19
 10
1810.0
 20
521.0
 30
0.0
 11
1786.500000059605
 21
430.9999999999995
 31
0.0
 70
   160
  3
ISO-25
100
AcDbAlignedDimension
 13
1700.5
 23
496.0
 33
0.0
 14
1748.0
 24
521.0
 34
0.0
 50
90.0
100
AcDbRotatedDimension
1001
ACAD
1000
DSTYLE
1002
{
1070
   270
1070
     2
1070
     6
1000
EX_NORM
1070
     7
1000
EX_NORM
1070
    41
1040
30.0
1070
    42
1040
6.99999988079071
1070
    44
1040
10.0
1070
    73
1070
     0
1070
    74
1070
     0
1070
    75
1070
     0
1070
    76
1070
     0
1070
    77
1070
     1
1070
    78
1070
     8
1070
   140
1040
40.0
1070
   147
1040
0.0
1070
   173
1070
     1
1070
   176
1070
     3
1070
   177
1070
     3
1070
   178
1070
     2
1070
   271
1070
     1
1070
   277
1070
     2
1070
   279
1070
     2
1070
   280
1070
     1
1070
   287
1070
     5
1070
   340
1005
5B1
1002
}
  0
DIMENSION
  5
5FA
330
1F
100
AcDbEntity
  8
寸法
  6
CONTINUOUS
 62
     3
100
AcDbDimension
  2
*D20
 10
1810.0
 20
521.0
 30
0.0
 11
1786.500000059605
 21
1006.0
 31
0.0
 70
   160
  3
ISO-25
100
AcDbAlignedDimension
 13
1733.0
 23
1491.0
 33
0.0
 14
1733.0
 24
521.0
 34
0.0
 50
90.0
100
AcDbRotatedDimension
1001
ACAD
1000
DSTYLE
1002
{
1070
   270
1070
     2
1070
     6
1000
EX_NORM
1070
     7
1000
EX_NORM
1070
    41
1040
30.0
1070
    42
1040
6.99999988079071
1070
    44
1040
10.0
1070
    73
1070
     0
1070
    74
1070
     0
1070
    75
1070
     0
1070
    76
1070
     0
1070
    77
1070
     1
1070
    78
1070
     8
1070
   140
1040
40.0
1070
   147
1040
0.0
1070
   173
1070
     1
1070
   176
1070
     3
1070
   177
1070
     3
1070
   178
1070
     2
1070
   271
1070
     1
1070
   277
1070
     2
1070
   279
1070
     2
1070
   280
1070
     0
1070
   287
1070
     5
1070
   340
1005
5B1
1002
}
  0
LEADER
  5
607
330
1F
100
AcDbEntity
  8
寸法
  6
CONTINUOUS
 62
     3
100
AcDbLeader
  3
ISO-25
 76
     3
 10
1711.987267153999
 20
1492.2930912521
 30
0.0
 10
1744.283424743999
 20
1546.1056520897
 30
0.0
 10
1881.283424743999
 20
1546.1056520897
 30
0.0
1001
ACAD
1000
DSTYLE
1002
{
1070
     5
1000
EX_NORM
1070
    41
1040
30.0
1070
   341
1005
4D
1002
}
  0
TEXT
  5
608
330
1F
100
AcDbEntity
  8
寸法
  6
CONTINUOUS
 62
     2
100
AcDbText
 10
1749.283424743999
 20
1549.605652030095
 30
0.0
 40
40.0
  1
取付ねじ
 41
1.034782608695652
  7
EXCADSTD
 72
     5
 11
1885.283424743999
 21
1549.605652030095
 31
0.0
100
AcDbText
  0
DIMENSION
  5
609
330
1F
100
AcDbEntity
  8
寸法
  6
CONTINUOUS
 62
     3
100
AcDbDimension
  2
*D21
 10
1700.5
 20
1617.0
 30
0.0
 11
1620.5
 21
1640.499999940395
 31
0.0
 70
   160
  3
ISO-25
100
AcDbAlignedDimension
 13
1540.5
 23
1518.1031991182
 33
0.0
 14
1700.5
 24
1546.0
 34
0.0
100
AcDbRotatedDimension
1001
ACAD
1000
DSTYLE
1002
{
1070
   270
1070
     2
1070
     6
1000
EX_NORM
1070
     7
1000
EX_NORM
1070
    41
1040
30.0
1070
    42
1040
6.99999988079071
1070
    44
1040
10.0
1070
    73
1070
     0
1070
    74
1070
     0
1070
    75
1070
     0
1070
    76
1070
     0
1070
    77
1070
     1
1070
    78
1070
     8
1070
   140
1040
40.0
1070
   147
1040
0.0
1070
   173
1070
     1
1070
   176
1070
     3
1070
   177
1070
     3
1070
   178
1070
     2
1070
   271
1070
     1
1070
   277
1070
     2
1070
   279
1070
     2
1070
   280
1070
     0
1070
   287
1070
     5
1070
   340
1005
5B1
1002
}
  0
DIMENSION
  5
616
330
1F
100
AcDbEntity
  8
寸法
  6
CONTINUOUS
 62
     3
100
AcDbDimension
  2
*D22
 10
1128.4889350174
 20
1622.0
 30
0.0
 11
753.4944675087102
 21
1645.499999940395
 31
0.0
 70
   160
  3
ISO-25
100
AcDbAlignedDimension
 13
378.50000000002
 23
1541.0
 33
0.0
 14
1128.4889350174
 24
1541.0
 34
0.0
100
AcDbRotatedDimension
1001
ACAD
1000
DSTYLE
1002
{
1070
   270
1070
     2
1070
     6
1000
EX_NORM
1070
     7
1000
EX_NORM
1070
    41
1040
30.0
1070
    42
1040
6.99999988079071
1070
    44
1040
10.0
1070
    73
1070
     0
1070
    74
1070
     0
1070
    75
1070
     0
1070
    76
1070
     0
1070
    77
1070
     1
1070
    78
1070
     8
1070
   140
1040
40.0
1070
   147
1040
0.0
1070
   173
1070
     1
1070
   176
1070
     3
1070
   177
1070
     3
1070
   178
1070
     2
1070
   271
1070
     1
1070
   277
1070
     2
1070
   279
1070
     2
1070
   280
1070
     0
1070
   287
1070
     5
1070
   340
1005
5B1
1002
}
  0
DIMENSION
  5
623
330
1F
100
AcDbEntity
  8
寸法
  6
CONTINUOUS
 62
     3
100
AcDbDimension
  2
*D23
 10
398.49999999999
 20
2094.0
 30
0.0
 11
313.5000000000001
 21
2117.499999940395
 31
0.0
 70
   160
  3
ISO-25
100
AcDbAlignedDimension
 13
378.5
 23
2001.0
 33
0.0
 14
398.49999999999
 24
2021.0
 34
0.0
100
AcDbRotatedDimension
1001
ACAD
1000
DSTYLE
1002
{
1070
   270
1070
     2
1070
     6
1000
EX_NORM
1070
     7
1000
EX_BCIR
1070
    41
1040
30.0
1070
    42
1040
6.99999988079071
1070
    44
1040
10.0
1070
    73
1070
     0
1070
    74
1070
     0
1070
    75
1070
     0
1070
    76
1070
     0
1070
    77
1070
     1
1070
    78
1070
     8
1070
   140
1040
40.0
1070
   147
1040
0.0
1070
   173
1070
     1
1070
   176
1070
     3
1070
   177
1070
     3
1070
   178
1070
     2
1070
   271
1070
     1
1070
   277
1070
     2
1070
   279
1070
     2
1070
   280
1070
     1
1070
   287
1070
     5
1070
   340
1005
5B1
1002
}
  0
DIMENSION
  5
632
330
1F
100
AcDbEntity
  8
寸法
  6
CONTINUOUS
 62
     3
100
AcDbDimension
  2
*D24
 10
433.4944675086999
 20
2093.7
 30
0.0
 11
498.4944675086999
 21
2117.199999940395
 31
0.0
 70
   160
  3
ISO-25
100
AcDbAlignedDimension
 13
398.49999999999
 23
2021.0
 33
0.0
 14
433.4944675086999
 24
2021.0
 34
0.0
100
AcDbRotatedDimension
1001
ACAD
1000
DSTYLE
1002
{
1070
   270
1070
     2
1070
     6
1000
EX_BCIR
1070
     7
1000
EX_NORM
1070
    41
1040
7.0
1070
    42
1040
6.99999988079071
1070
    44
1040
10.0
1070
    73
1070
     0
1070
    74
1070
     0
1070
    75
1070
     0
1070
    76
1070
     0
1070
    77
1070
     1
1070
    78
1070
     8
1070
   140
1040
40.0
1070
   147
1040
0.0
1070
   173
1070
     1
1070
   176
1070
     3
1070
   177
1070
     3
1070
   178
1070
     2
1070
   271
1070
     1
1070
   277
1070
     2
1070
   279
1070
     2
1070
   280
1070
     2
1070
   287
1070
     5
1070
   340
1005
5B1
1002
}
  0
DIMENSION
  5
63F
330
1F
100
AcDbEntity
  8
寸法
  6
CONTINUOUS
 62
     3
100
AcDbDimension
  2
*D25
 10
1073.4944675087
 20
2147.0
 30
0.0
 11
753.4944675087002
 21
2170.499999940395
 31
0.0
 70
   160
  3
ISO-25
100
AcDbAlignedDimension
 13
433.4944675086999
 23
2021.0
 33
0.0
 14
1073.4944675087
 24
2021.0
 34
0.0
100
AcDbRotatedDimension
1001
ACAD
1000
DSTYLE
1002
{
1070
   270
1070
     2
1070
     6
1000
EX_NORM
1070
     7
1000
EX_NORM
1070
    41
1040
30.0
1070
    42
1040
6.99999988079071
1070
    44
1040
10.0
1070
    73
1070
     0
1070
    74
1070
     0
1070
    75
1070
     0
1070
    76
1070
     0
1070
    77
1070
     1
1070
    78
1070
     8
1070
   140
1040
40.0
1070
   147
1040
0.0
1070
   173
1070
     1
1070
   176
1070
     3
1070
   177
1070
     3
1070
   178
1070
     2
1070
   271
1070
     1
1070
   277
1070
     2
1070
   279
1070
     2
1070
   280
1070
     0
1070
   287
1070
     5
1070
   340
1005
5B1
1002
}
  0
DIMENSION
  5
64C
330
1F
100
AcDbEntity
  8
寸法
  6
CONTINUOUS
 62
     3
100
AcDbDimension
  2
*D26
 10
1108.5
 20
2199.0
 30
0.0
 11
753.4999999999952
 21
2222.499999940395
 31
0.0
 70
   160
  3
ISO-25
100
AcDbAlignedDimension
 13
398.49999999999
 23
2021.0
 33
0.0
 14
1108.5
 24
2021.0
 34
0.0
100
AcDbRotatedDimension
1001
ACAD
1000
DSTYLE
1002
{
1070
   270
1070
     2
1070
     6
1000
EX_NORM
1070
     7
1000
EX_NORM
1070
    41
1040
30.0
1070
    42
1040
6.99999988079071
1070
    44
1040
10.0
1070
    73
1070
     0
1070
    74
1070
     0
1070
    75
1070
     0
1070
    76
1070
     0
1070
    77
1070
     1
1070
    78
1070
     8
1070
   140
1040
40.0
1070
   147
1040
0.0
1070
   173
1070
     1
1070
   176
1070
     3
1070
   177
1070
     3
1070
   178
1070
     2
1070
   271
1070
     1
1070
   277
1070
     2
1070
   279
1070
     2
1070
   280
1070
     0
1070
   287
1070
     5
1070
   340
1005
5B1
1002
}
  0
ENDSEC
  0
SECTION
  2
OBJECTS
  0
DICTIONARY
  5
C
330
0
100
AcDbDictionary
  3
ACAD_GROUP
350
D
  3
ACAD_LAYOUT
350
1A
  3
ACAD_MATERIAL
350
3B
  3
ACAD_MLEADERSTYLE
350
67B
  3
ACAD_MLINESTYLE
350
17
  3
ACAD_PLOTSETTINGS
350
19
  3
ACAD_VISUALSTYLE
350
2A
  3
ACDBHEADERROUNDTRIPXREC
350
659
  3
ACDBVARIABLEDICTIONARY
350
679
  0
DICTIONARY
  5
D
102
{ACAD_REACTORS
330
C
102
}
330
C
100
AcDbDictionary
  0
DICTIONARY
  5
1A
102
{ACAD_REACTORS
330
C
102
}
330
C
100
AcDbDictionary
  0
DICTIONARY
  5
3B
102
{ACAD_REACTORS
330
C
102
}
330
C
100
AcDbDictionary
  3
BYBLOCK
350
3D
  3
BYLAYER
350
3C
  3
GLOBAL
350
3E
  0
DICTIONARY
  5
67B
102
{ACAD_REACTORS
330
C
102
}
330
C
100
AcDbDictionary
  0
DICTIONARY
  5
17
102
{ACAD_REACTORS
330
C
102
}
330
C
100
AcDbDictionary
  3
STANDARD
350
18
  0
DICTIONARY
  5
19
102
{ACAD_REACTORS
330
C
102
}
330
C
100
AcDbDictionary
  0
DICTIONARY
  5
2A
102
{ACAD_REACTORS
330
C
102
}
330
C
100
AcDbDictionary
  3
2DWIREFRAME
350
2F
  3
3D_HIDDEN
350
31
  3
3DWIREFRAME
350
30
  3
BASIC
350
32
  3
BRIGHTEN
350
36
  3
COLORCHANGE
350
3A
  3
CONCEPTUAL
350
34
  3
DIM
350
35
  3
FACEPATTERN
350
39
  3
FLAT
350
2B
  3
FLATWITHEDGES
350
2C
  3
GOURAUD
350
2D
  3
GOURAUDWITHEDGES
350
2E
  3
LINEPATTERN
350
38
  3
REALISTIC
350
33
  3
THICKEN
350
37
  0
DICTIONARY
  5
659
102
{ACAD_REACTORS
330
C
102
}
330
C
100
AcDbDictionary
  3
CEPSNTYPE
350
662
  3
DIMSTYLEDATA
350
678
  3
FINGERPRINTGUID
350
663
  3
HYPERLINKBASE
350
65C
  3
INSUNITS
350
661
  3
LAYOUTDICT
350
65E
  3
LWETCUNION
350
660
  3
PLOTSETDICT
350
65F
  3
PSVPSCALE
350
665
  3
PUCSBASE
350
668
  3
PUCSORGBACK
350
66E
  3
PUCSORGBOTTOM
350
66A
  3
PUCSORGFRONT
350
66D
  3
PUCSORGLEFT
350
66B
  3
PUCSORGRIGHT
350
66C
  3
PUCSORGTOP
350
669
  3
PUCSORTHOREF
350
666
  3
PUCSORTHOVIEW
350
667
  3
STYLESHEET
350
65D
  3
TSTACKALIGN
350
65A
  3
TSTACKSIZE
350
65B
  3
UCSBASE
350
671
  3
UCSORGBACK
350
677
  3
UCSORGBOTTOM
350
673
  3
UCSORGFRONT
350
676
  3
UCSORGLEFT
350
674
  3
UCSORGRIGHT
350
675
  3
UCSORGTOP
350
672
  3
UCSORTHOREF
350
66F
  3
UCSORTHOVIEW
350
670
  3
VERSIONGUID
350
664
  0
DICTIONARY
  5
679
102
{ACAD_REACTORS
330
C
102
}
330
C
100
AcDbDictionary
  3
DIMASSOC
350
67E
  3
HIDETEXT
350
67F
  3
PSOLHEIGHT
350
67D
  3
PSOLWIDTH
350
67C
  0
MATERIAL
  5
3D
102
{ACAD_REACTORS
330
3B
102
}
102
{ACAD_XDICTIONARY
360
682
102
}
330
3B
100
AcDbMaterial
  1
ByBlock
  0
MATERIAL
  5
3C
102
{ACAD_REACTORS
330
3B
102
}
102
{ACAD_XDICTIONARY
360
680
102
}
330
3B
100
AcDbMaterial
  1
ByLayer
  0
MATERIAL
  5
3E
102
{ACAD_REACTORS
330
3B
102
}
102
{ACAD_XDICTIONARY
360
684
102
}
330
3B
100
AcDbMaterial
  1
Global
  0
MLINESTYLE
  5
18
102
{ACAD_REACTORS
330
17
102
}
330
17
100
AcDbMlineStyle
  2
Standard
 70
     0
  3

 62
   256
 51
90.0
 52
90.0
 71
     2
 49
0.5
 62
   256
  6
BYLAYER
 49
-0.5
 62
   256
  6
BYLAYER
  0
ACAD_PROXY_OBJECT
  5
2F
102
{ACAD_REACTORS
330
2A
102
}
330
2A
100
AcDbProxyObject
 90
      499
 91
      501
 93
      436
310
42CC9915DA5C99599C985B595049028333333333333E3BF0000000000000FB0107901411070040501600405405064090741402480A0340
1001
ACAD
1000
AcDbSavedByObjectVersion
1070
     0
  0
ACAD_PROXY_OBJECT
  5
31
102
{ACAD_REACTORS
330
2A
102
}
330
2A
100
AcDbProxyObject
 90
      499
 91
      501
 93
      500
310
424CD108121A5919195B90640502408333333333333E3BF0000000000000FB01079024090700405020000000000001110200405405064090740C02480A0340
1001
ACAD
1000
AcDbSavedByObjectVersion
1070
     0
  0
ACAD_PROXY_OBJECT
  5
30
102
{ACAD_REACTORS
330
2A
102
}
330
2A
100
AcDbProxyObject
 90
      499
 91
      501
 93
      436
310
42CCD915DA5C99599C985B595059028333333333333E3BF0000000000000FB0107901411070040501600405405064090741402480A0340
1001
ACAD
1000
AcDbSavedByObjectVersion
1070
     0
  0
ACAD_PROXY_OBJECT
  5
32
102
{ACAD_REACTORS
330
2A
102
}
330
2A
100
AcDbProxyObject
 90
      499
 91
      501
 93
      388
310
4150985CDA58D07406404333333333333E3BF0000000000000FB0107A41107004050150841D405064090741402480A0350
1001
ACAD
1000
AcDbSavedByObjectVersion
1070
     0
  0
ACAD_PROXY_OBJECT
  5
36
102
{ACAD_REACTORS
330
2A
102
}
330
2A
100
AcDbProxyObject
 90
      499
 91
      501
 93
      428
310
42109C9A59DA1D195B90C409028333333333333E3BF0000000000000FB010790141107004050150841D405064090741402480A029950
1001
ACAD
1000
AcDbSavedByObjectVersion
1070
     0
  0
ACAD_PROXY_OBJECT
  5
3A
102
{ACAD_REACTORS
330
2A
102
}
330
2A
100
AcDbProxyObject
 90
      499
 91
      501
 93
      452
310
42D0DBDB1BDC90DA185B99D95104090240C333333333333E3BF0000000000000FB0108901411070040501508421405064090741402480A0350
1001
ACAD
1000
AcDbSavedByObjectVersion
1070
     0
  0
ACAD_PROXY_OBJECT
  5
34
102
{ACAD_REACTORS
330
2A
102
}
330
2A
100
AcDbProxyObject
 90
      499
 91
      501
 93
      500
310
4290DBDB98D95C1D1D585B10940D028333333333333E3BF0000000000000FB0107902409070040501000000000000111010841D405064090740C02480A0340
1001
ACAD
1000
AcDbSavedByObjectVersion
1070
     0
  0
ACAD_PROXY_OBJECT
  5
35
102
{ACAD_REACTORS
330
2A
102
}
330
2A
100
AcDbProxyObject
 90
      499
 91
      501
 93
      412
310
40D11A5B50B409028333333333333E3BF0000000000000FB010790141107004050150841D405064090741402480A02677FFFFFD0
1001
ACAD
1000
AcDbSavedByObjectVersion
1070
     0
  0
ACAD_PROXY_OBJECT
  5
39
102
{ACAD_REACTORS
330
2A
102
}
330
2A
100
AcDbProxyObject
 90
      499
 91
      501
 93
      444
310
42D19858D95C185D1D195C9B90F409028333333333333E3BF0000000000000FB010790141107004050150841D405064090741402480A0350
1001
ACAD
1000
AcDbSavedByObjectVersion
1070
     0
  0
ACAD_PROXY_OBJECT
  5
2B
102
{ACAD_REACTORS
330
2A
102
}
330
2A
100
AcDbProxyObject
 90
      499
 91
      501
 93
      388
310
41119B185D240901404333333333333E3BF0000000000000F9010740A41107004050150841D405064090741402480A1B50
1001
ACAD
1000
AcDbSavedByObjectVersion
1070
     0
  0
ACAD_PROXY_OBJECT
  5
2C
102
{ACAD_REACTORS
330
2A
102
}
330
2A
100
AcDbProxyObject
 90
      499
 91
      501
 93
      476
310
43519B185D15DA5D1A115919D95CD0140901404333333333333E3BF0000000000000F9010740901411070040501600405405064090741402480A1B50
1001
ACAD
1000
AcDbSavedByObjectVersion
1070
     0
  0
ACAD_PROXY_OBJECT
  5
2D
102
{ACAD_REACTORS
330
2A
102
}
330
2A
100
AcDbProxyObject
 90
      499
 91
      501
 93
      412
310
41D1DBDD5C985D5910240902404333333333333E3BF0000000000000F9010740A411070040501641D405064090741402480A1B50
1001
ACAD
1000
AcDbSavedByObjectVersion
1070
     0
  0
ACAD_PROXY_OBJECT
  5
2E
102
{ACAD_REACTORS
330
2A
102
}
330
2A
100
AcDbProxyObject
 90
      499
 91
      501
 93
      500
310
4411DBDD5C985D5915DA5D1A115919D95CD0340902404333333333333E3BF0000000000000F9010740901411070040501600405405064090741402480A1B50
1001
ACAD
1000
AcDbSavedByObjectVersion
1070
     0
  0
ACAD_PROXY_OBJECT
  5
38
102
{ACAD_REACTORS
330
2A
102
}
330
2A
100
AcDbProxyObject
 90
      499
 91
      501
 93
      444
310
42D31A5B995C185D1D195C9B90E409028333333333333E3BF0000000000000FB010790141107004050750841D405064090741402483A0350
1001
ACAD
1000
AcDbSavedByObjectVersion
1070
     0
  0
ACAD_PROXY_OBJECT
  5
33
102
{ACAD_REACTORS
330
2A
102
}
330
2A
100
AcDbProxyObject
 90
      499
 91
      501
 93
      420
310
425499585B1A5CDD1A58D08409028333333333333E3BF0000000000000FB01079019070040501508421405064090741402480A1B40
1001
ACAD
1000
AcDbSavedByObjectVersion
1070
     0
  0
ACAD_PROXY_OBJECT
  5
37
102
{ACAD_REACTORS
330
2A
102
}
330
2A
100
AcDbProxyObject
 90
      499
 91
      501
 93
      412
310
41D51A1A58DAD95B90D409028333333333333E3BF0000000000000FB010790141107004050150C41D405064090741402480A0350
1001
ACAD
1000
AcDbSavedByObjectVersion
1070
     0
  0
XRECORD
  5
662
102
{ACAD_REACTORS
330
659
102
}
330
659
100
AcDbXrecord
 90
        0
  0
XRECORD
  5
678
102
{ACAD_REACTORS
330
659
102
}
330
659
100
AcDbXrecord
1000
DSTYLE
1002
{
1070
   340
340
11
1002
}
  0
XRECORD
  5
663
102
{ACAD_REACTORS
330
659
102
}
330
659
100
AcDbXrecord
  1
{C1C79634-EB00-41D2-AE33-F8EC703F8FFA}
  0
XRECORD
  5
65C
102
{ACAD_REACTORS
330
659
102
}
330
659
100
AcDbXrecord
  1

  0
XRECORD
  5
661
102
{ACAD_REACTORS
330
659
102
}
330
659
100
AcDbXrecord
 90
        4
  0
XRECORD
  5
65E
102
{ACAD_REACTORS
330
659
102
}
330
659
100
AcDbXrecord
340
1A
  0
XRECORD
  5
660
102
{ACAD_REACTORS
330
659
102
}
330
659
100
AcDbXrecord
 90
    10781
  0
XRECORD
  5
65F
102
{ACAD_REACTORS
330
659
102
}
330
659
100
AcDbXrecord
340
19
  0
XRECORD
  5
665
102
{ACAD_REACTORS
330
659
102
}
330
659
100
AcDbXrecord
 40
0.0
  0
XRECORD
  5
668
102
{ACAD_REACTORS
330
659
102
}
330
659
100
AcDbXrecord
340
0
  0
XRECORD
  5
66E
102
{ACAD_REACTORS
330
659
102
}
330
659
100
AcDbXrecord
 10
0.0
 20
0.0
 30
0.0
  0
XRECORD
  5
66A
102
{ACAD_REACTORS
330
659
102
}
330
659
100
AcDbXrecord
 10
0.0
 20
0.0
 30
0.0
  0
XRECORD
  5
66D
102
{ACAD_REACTORS
330
659
102
}
330
659
100
AcDbXrecord
 10
0.0
 20
0.0
 30
0.0
  0
XRECORD
  5
66B
102
{ACAD_REACTORS
330
659
102
}
330
659
100
AcDbXrecord
 10
0.0
 20
0.0
 30
0.0
  0
XRECORD
  5
66C
102
{ACAD_REACTORS
330
659
102
}
330
659
100
AcDbXrecord
 10
0.0
 20
0.0
 30
0.0
  0
XRECORD
  5
669
102
{ACAD_REACTORS
330
659
102
}
330
659
100
AcDbXrecord
 10
0.0
 20
0.0
 30
0.0
  0
XRECORD
  5
666
102
{ACAD_REACTORS
330
659
102
}
330
659
100
AcDbXrecord
340
0
  0
XRECORD
  5
667
102
{ACAD_REACTORS
330
659
102
}
330
659
100
AcDbXrecord
 70
     0
  0
XRECORD
  5
65D
102
{ACAD_REACTORS
330
659
102
}
330
659
100
AcDbXrecord
  1

  0
XRECORD
  5
65A
102
{ACAD_REACTORS
330
659
102
}
330
659
100
AcDbXrecord
 90
        1
  0
XRECORD
  5
65B
102
{ACAD_REACTORS
330
659
102
}
330
659
100
AcDbXrecord
 90
       70
  0
XRECORD
  5
671
102
{ACAD_REACTORS
330
659
102
}
330
659
100
AcDbXrecord
340
0
  0
XRECORD
  5
677
102
{ACAD_REACTORS
330
659
102
}
330
659
100
AcDbXrecord
 10
0.0
 20
0.0
 30
0.0
  0
XRECORD
  5
673
102
{ACAD_REACTORS
330
659
102
}
330
659
100
AcDbXrecord
 10
0.0
 20
0.0
 30
0.0
  0
XRECORD
  5
676
102
{ACAD_REACTORS
330
659
102
}
330
659
100
AcDbXrecord
 10
0.0
 20
0.0
 30
0.0
  0
XRECORD
  5
674
102
{ACAD_REACTORS
330
659
102
}
330
659
100
AcDbXrecord
 10
0.0
 20
0.0
 30
0.0
  0
XRECORD
  5
675
102
{ACAD_REACTORS
330
659
102
}
330
659
100
AcDbXrecord
 10
0.0
 20
0.0
 30
0.0
  0
XRECORD
  5
672
102
{ACAD_REACTORS
330
659
102
}
330
659
100
AcDbXrecord
 10
0.0
 20
0.0
 30
0.0
  0
XRECORD
  5
66F
102
{ACAD_REACTORS
330
659
102
}
330
659
100
AcDbXrecord
340
0
  0
XRECORD
  5
670
102
{ACAD_REACTORS
330
659
102
}
330
659
100
AcDbXrecord
 70
     0
  0
XRECORD
  5
664
102
{ACAD_REACTORS
330
659
102
}
330
659
100
AcDbXrecord
  1
{FAEB1C32-E019-11D5-929B-00C0DF256EC4}
  0
DICTIONARYVAR
  5
67E
102
{ACAD_REACTORS
330
679
102
}
330
679
100
DictionaryVariables
280
     0
  1
2
  0
DICTIONARYVAR
  5
67F
102
{ACAD_REACTORS
330
679
102
}
330
679
100
DictionaryVariables
280
     0
  1
1
  0
DICTIONARYVAR
  5
67D
102
{ACAD_REACTORS
330
679
102
}
330
679
100
DictionaryVariables
280
     0
  1
80.000000
  0
DICTIONARYVAR
  5
67C
102
{ACAD_REACTORS
330
679
102
}
330
679
100
DictionaryVariables
280
     0
  1
5.000000
  0
DICTIONARY
  5
682
330
3D
100
AcDbDictionary
280
     1
  3
ACAD_XREC_ROUNDTRIP
360
683
  0
DICTIONARY
  5
680
330
3C
100
AcDbDictionary
280
     1
  3
ACAD_XREC_ROUNDTRIP
360
681
  0
DICTIONARY
  5
684
330
3E
100
AcDbDictionary
280
     1
  3
ACAD_XREC_ROUNDTRIP
360
685
  0
XRECORD
  5
683
102
{ACAD_REACTORS
330
682
102
}
330
682
100
AcDbXrecord
102
MATERIAL
148
0.0
149
0.0
149
0.0
 93
        0
 94
      127
282
     0
 72
     1
 77
     1
171
     1
175
     1
179
     1
273
     0
  0
XRECORD
  5
681
102
{ACAD_REACTORS
330
680
102
}
330
680
100
AcDbXrecord
102
MATERIAL
148
0.0
149
0.0
149
0.0
 93
        0
 94
      127
282
     0
 72
     1
 77
     1
171
     1
175
     1
179
     1
273
     0
  0
XRECORD
  5
685
102
{ACAD_REACTORS
330
684
102
}
330
684
100
AcDbXrecord
102
MATERIAL
148
0.0
149
0.0
149
0.0
 93
        0
 94
      127
282
     0
 72
     1
 77
     1
171
     1
175
     1
179
     1
273
     0
  0
ENDSEC
  0
EOF
