  0
SECTION
  2
HEADER
  9
$ACADVER
  1
AC1014
  9
$ACADMAINTVER
 70
     9
  9
$DWGCODEPAGE
  3
ANSI_932
  9
$INSBASE
 10
0.0
 20
0.0
 30
0.0
  9
$EXTMIN
 10
1.000000000000009
 20
13.5
 30
0.0
  9
$EXTMAX
 10
234.7499997377396
 20
311.8000000000002
 30
0.0
  9
$LIMMIN
 10
0.0
 20
0.0
  9
$LIMMAX
 10
210.0
 20
297.0
  9
$ORTHOMODE
 70
     0
  9
$REGENMODE
 70
     1
  9
$FILLMODE
 70
     1
  9
$QTEXTMODE
 70
     0
  9
$MIRRTEXT
 70
     1
  9
$DRAGMODE
 70
     2
  9
$LTSCALE
 40
1.0
  9
$OSMODE
 70
    37
  9
$ATTMODE
 70
     1
  9
$TEXTSIZE
 40
2.5
  9
$TRACEWID
 40
1.0
  9
$TEXTSTYLE
  7
STANDARD
  9
$CLAYER
  8
寸法
  9
$CELTYPE
  6
BYLAYER
  9
$CECOLOR
 62
   256
  9
$CELTSCALE
 40
1.0
  9
$DELOBJ
 70
     1
  9
$DISPSILH
 70
     0
  9
$DIMSCALE
 40
1.0
  9
$DIMASZ
 40
2.5
  9
$DIMEXO
 40
0.625
  9
$DIMDLI
 40
3.75
  9
$DIMRND
 40
0.0
  9
$DIMDLE
 40
0.0
  9
$DIMEXE
 40
1.25
  9
$DIMTP
 40
0.0
  9
$DIMTM
 40
0.0
  9
$DIMTXT
 40
2.5
  9
$DIMCEN
 40
2.5
  9
$DIMTSZ
 40
0.0
  9
$DIMTOL
 70
     0
  9
$DIMLIM
 70
     0
  9
$DIMTIH
 70
     0
  9
$DIMTOH
 70
     0
  9
$DIMSE1
 70
     0
  9
$DIMSE2
 70
     0
  9
$DIMTAD
 70
     1
  9
$DIMZIN
 70
     8
  9
$DIMBLK
  1

  9
$DIMASO
 70
     1
  9
$DIMSHO
 70
     1
  9
$DIMPOST
  1

  9
$DIMAPOST
  1

  9
$DIMALT
 70
     0
  9
$DIMALTD
 70
     3
  9
$DIMALTF
 40
0.03937007874016
  9
$DIMLFAC
 40
1.0
  9
$DIMTOFL
 70
     1
  9
$DIMTVP
 40
0.0
  9
$DIMTIX
 70
     0
  9
$DIMSOXD
 70
     0
  9
$DIMSAH
 70
     0
  9
$DIMBLK1
  1

  9
$DIMBLK2
  1

  9
$DIMSTYLE
  2
ISO-25
  9
$DIMCLRD
 70
     0
  9
$DIMCLRE
 70
     0
  9
$DIMCLRT
 70
     0
  9
$DIMTFAC
 40
1.0
  9
$DIMGAP
 40
0.625
  9
$DIMJUST
 70
     0
  9
$DIMSD1
 70
     0
  9
$DIMSD2
 70
     0
  9
$DIMTOLJ
 70
     0
  9
$DIMTZIN
 70
     8
  9
$DIMALTZ
 70
     0
  9
$DIMALTTZ
 70
     0
  9
$DIMFIT
 70
     3
  9
$DIMUPT
 70
     0
  9
$DIMUNIT
 70
     2
  9
$DIMDEC
 70
     2
  9
$DIMTDEC
 70
     2
  9
$DIMALTU
 70
     2
  9
$DIMALTTD
 70
     3
  9
$DIMTXSTY
  7
STANDARD
  9
$DIMAUNIT
 70
     0
  9
$LUNITS
 70
     2
  9
$LUPREC
 70
     4
  9
$SKETCHINC
 40
1.0
  9
$FILLETRAD
 40
10.0
  9
$AUNITS
 70
     0
  9
$AUPREC
 70
     0
  9
$MENU
  1
.
  9
$ELEVATION
 40
0.0
  9
$PELEVATION
 40
0.0
  9
$THICKNESS
 40
0.0
  9
$LIMCHECK
 70
     0
  9
$CHAMFERA
 40
10.0
  9
$CHAMFERB
 40
10.0
  9
$CHAMFERC
 40
20.0
  9
$CHAMFERD
 40
0.0
  9
$SKPOLY
 70
     0
  9
$TDCREATE
 40
2458430.827257512
  9
$TDUPDATE
 40
2458430.827257697
  9
$TDINDWG
 40
0.0000000116
  9
$TDUSRTIMER
 40
0.0000000116
  9
$USRTIMER
 70
     1
  9
$ANGBASE
 50
0.0
  9
$ANGDIR
 70
     0
  9
$PDMODE
 70
     0
  9
$PDSIZE
 40
0.0
  9
$PLINEWID
 40
0.0
  9
$COORDS
 70
     1
  9
$SPLFRAME
 70
     0
  9
$SPLINETYPE
 70
     6
  9
$SPLINESEGS
 70
     8
  9
$ATTDIA
 70
     0
  9
$ATTREQ
 70
     1
  9
$HANDLING
 70
     1
  9
$HANDSEED
  5
3AF
  9
$SURFTAB1
 70
     6
  9
$SURFTAB2
 70
     6
  9
$SURFTYPE
 70
     6
  9
$SURFU
 70
     6
  9
$SURFV
 70
     6
  9
$UCSNAME
  2

  9
$UCSORG
 10
0.0
 20
0.0
 30
0.0
  9
$UCSXDIR
 10
1.0
 20
0.0
 30
0.0
  9
$UCSYDIR
 10
0.0
 20
1.0
 30
0.0
  9
$PUCSNAME
  2

  9
$PUCSORG
 10
0.0
 20
0.0
 30
0.0
  9
$PUCSXDIR
 10
1.0
 20
0.0
 30
0.0
  9
$PUCSYDIR
 10
0.0
 20
1.0
 30
0.0
  9
$USERI1
 70
     0
  9
$USERI2
 70
     0
  9
$USERI3
 70
     0
  9
$USERI4
 70
     0
  9
$USERI5
 70
     0
  9
$USERR1
 40
0.0
  9
$USERR2
 40
0.0
  9
$USERR3
 40
0.0
  9
$USERR4
 40
0.0
  9
$USERR5
 40
0.0
  9
$WORLDVIEW
 70
     1
  9
$SHADEDGE
 70
     3
  9
$SHADEDIF
 70
    70
  9
$TILEMODE
 70
     1
  9
$MAXACTVP
 70
    64
  9
$PINSBASE
 10
0.0
 20
0.0
 30
0.0
  9
$PLIMCHECK
 70
     0
  9
$PEXTMIN
 10
1.000000000000000E+20
 20
1.000000000000000E+20
 30
1.000000000000000E+20
  9
$PEXTMAX
 10
-1.000000000000000E+20
 20
-1.000000000000000E+20
 30
-1.000000000000000E+20
  9
$PLIMMIN
 10
0.0
 20
0.0
  9
$PLIMMAX
 10
420.0
 20
297.0
  9
$UNITMODE
 70
     0
  9
$VISRETAIN
 70
     1
  9
$PLINEGEN
 70
     0
  9
$PSLTSCALE
 70
     1
  9
$TREEDEPTH
 70
  3020
  9
$PICKSTYLE
 70
     1
  9
$CMLSTYLE
  2
STANDARD
  9
$CMLJUST
 70
     0
  9
$CMLSCALE
 40
20.0
  9
$PROXYGRAPHICS
 70
     1
  9
$MEASUREMENT
 70
     1
  0
ENDSEC
  0
SECTION
  2
CLASSES
  0
CLASS
  1
ACDBDICTIONARYWDFLT
  2
AcDbDictionaryWithDefault
  3
ObjectDBX Classes
 90
        0
280
     0
281
     0
  0
CLASS
  1
VISUALSTYLE
  2
AcDbVisualStyle
  3
ObjectDBX Classes
 90
     4095
280
     0
281
     0
  0
CLASS
  1
MATERIAL
  2
AcDbMaterial
  3
ObjectDBX Classes
 90
     1153
280
     0
281
     0
  0
CLASS
  1
SUN
  2
AcDbSun
  3
SCENEOE
 90
     1024
280
     0
281
     0
  0
CLASS
  1
DICTIONARYVAR
  2
AcDbDictionaryVar
  3
ObjectDBX Classes
 90
        0
280
     0
281
     0
  0
CLASS
  1
XRECORD
  2
AcDbXrecord
  3
AutoCAD 2000
 90
        0
280
     0
281
     0
  0
CLASS
  1
LWPOLYLINE
  2
AcDbPolyline
  3
AutoCAD 2000
 90
        0
280
     0
281
     1
  0
CLASS
  1
HATCH
  2
AcDbHatch
  3
AutoCAD 2000
 90
        0
280
     0
281
     1
  0
CLASS
  1
ACDBPLACEHOLDER
  2
AcDbPlaceHolder
  3
ObjectDBX Classes
 90
        0
280
     0
281
     0
  0
CLASS
  1
LAYOUT
  2
AcDbLayout
  3
ObjectDBX Classes
 90
        0
280
     0
281
     0
  0
ENDSEC
  0
SECTION
  2
TABLES
  0
TABLE
  2
VPORT
  5
8
330
0
100
AcDbSymbolTable
 70
     1
  0
VPORT
  5
29
330
8
100
AcDbSymbolTableRecord
100
AcDbViewportTableRecord
  2
*ACTIVE
 70
     0
 10
0.0
 20
0.0
 11
1.0
 21
1.0
 12
1178.749998688698
 22
1626.500000000001
 13
0.0
 23
0.0
 14
10.0
 24
10.0
 15
10.0
 25
10.0
 16
0.0
 26
0.0
 36
1.0
 17
0.0
 27
0.0
 37
0.0
 40
2983.000000000002
 41
0.7836071060601391
 42
50.0
 43
0.0
 44
0.0
 50
0.0
 51
0.0
 71
     0
 72
  1000
 73
     1
 74
     3
 75
     0
 76
     0
 77
     0
 78
     0
  0
ENDTAB
  0
TABLE
  2
LTYPE
  5
5
330
0
100
AcDbSymbolTable
 70
     7
  0
LTYPE
  5
14
330
5
100
AcDbSymbolTableRecord
100
AcDbLinetypeTableRecord
  2
BYBLOCK
 70
     0
  3

 72
    65
 73
     0
 40
0.0
  0
LTYPE
  5
15
330
5
100
AcDbSymbolTableRecord
100
AcDbLinetypeTableRecord
  2
BYLAYER
 70
     0
  3

 72
    65
 73
     0
 40
0.0
  0
LTYPE
  5
16
330
5
100
AcDbSymbolTableRecord
100
AcDbLinetypeTableRecord
  2
CONTINUOUS
 70
     0
  3
Solid line
 72
    65
 73
     0
 40
0.0
  0
LTYPE
  5
40
330
5
100
AcDbSymbolTableRecord
100
AcDbLinetypeTableRecord
  2
EXLTYPE1
 70
     0
  3
破線
 72
    65
 73
     2
 40
3.0
 49
2.0
 74
     0
 49
-1.0
 74
     0
  0
LTYPE
  5
41
330
5
100
AcDbSymbolTableRecord
100
AcDbLinetypeTableRecord
  2
EXLTYPE2
 70
     0
  3
点線
 72
    65
 73
     2
 40
2.0
 49
1.0
 74
     0
 49
-1.0
 74
     0
  0
LTYPE
  5
42
330
5
100
AcDbSymbolTableRecord
100
AcDbLinetypeTableRecord
  2
EXLTYPE3
 70
     0
  3
一点鎖線
 72
    65
 73
     4
 40
10.0
 49
7.0
 74
     0
 49
-1.0
 74
     0
 49
1.0
 74
     0
 49
-1.0
 74
     0
  0
LTYPE
  5
43
330
5
100
AcDbSymbolTableRecord
100
AcDbLinetypeTableRecord
  2
EXLTYPE4
 70
     0
  3
二点鎖線
 72
    65
 73
     6
 40
12.0
 49
7.0
 74
     0
 49
-1.0
 74
     0
 49
1.0
 74
     0
 49
-1.0
 74
     0
 49
1.0
 74
     0
 49
-1.0
 74
     0
  0
LTYPE
  5
44
330
5
100
AcDbSymbolTableRecord
100
AcDbLinetypeTableRecord
  2
EXLTYPE5
 70
     0
  3
三点鎖線
 72
    65
 73
     8
 40
37.0
 49
30.0
 74
     0
 49
-1.0
 74
     0
 49
1.0
 74
     0
 49
-1.0
 74
     0
 49
1.0
 74
     0
 49
-1.0
 74
     0
 49
1.0
 74
     0
 49
-1.0
 74
     0
  0
LTYPE
  5
45
330
5
100
AcDbSymbolTableRecord
100
AcDbLinetypeTableRecord
  2
EXLTYPE6
 70
     0
  3
四点鎖線
 72
    65
 73
    10
 40
39.0
 49
30.0
 74
     0
 49
-1.0
 74
     0
 49
1.0
 74
     0
 49
-1.0
 74
     0
 49
1.0
 74
     0
 49
-1.0
 74
     0
 49
1.0
 74
     0
 49
-1.0
 74
     0
 49
1.0
 74
     0
 49
-1.0
 74
     0
  0
ENDTAB
  0
TABLE
  2
LAYER
  5
2
330
0
100
AcDbSymbolTable
 70
     6
  0
LAYER
  5
10
330
2
100
AcDbSymbolTableRecord
100
AcDbLayerTableRecord
  2
0
 70
     0
 62
     7
  6
CONTINUOUS
  0
LAYER
  5
48
330
2
100
AcDbSymbolTableRecord
100
AcDbLayerTableRecord
  2
枠_表
 70
     0
 62
     7
  6
CONTINUOUS
  0
LAYER
  5
49
330
2
100
AcDbSymbolTableRecord
100
AcDbLayerTableRecord
  2
鏡台
 70
     0
 62
     7
  6
CONTINUOUS
  0
LAYER
  5
4A
330
2
100
AcDbSymbolTableRecord
100
AcDbLayerTableRecord
  2
付属金具
 70
     0
 62
     7
  6
CONTINUOUS
  0
LAYER
  5
4B
330
2
100
AcDbSymbolTableRecord
100
AcDbLayerTableRecord
  2
寸法
 70
     0
 62
     7
  6
CONTINUOUS
  0
LAYER
  5
1BC
330
2
100
AcDbSymbolTableRecord
100
AcDbLayerTableRecord
  2
DEFPOINTS
 70
     0
 62
     7
  6
CONTINUOUS
  0
ENDTAB
  0
TABLE
  2
STYLE
  5
3
330
0
100
AcDbSymbolTable
 70
     5
  0
STYLE
  5
11
330
3
100
AcDbSymbolTableRecord
100
AcDbTextStyleTableRecord
  2
STANDARD
 70
     0
 40
0.0
 41
1.0
 50
0.0
 71
     0
 42
2.5
  3
monotxt
  4
extfont
  0
STYLE
  5
46
330
3
100
AcDbSymbolTableRecord
100
AcDbTextStyleTableRecord
  2
EXCADSTD
 70
     0
 40
0.0
 41
1.0
 50
0.0
 71
     0
 42
0.2
  3
monotxt
  4
extfont
  0
STYLE
  5
47
330
3
100
AcDbSymbolTableRecord
100
AcDbTextStyleTableRecord
  2
EXCADVERT
 70
     4
 40
0.0
 41
1.0
 50
0.0
 71
     0
 42
0.286885
  3
monotxt
  4
extfont
  0
STYLE
  5
1BA
330
3
100
AcDbSymbolTableRecord
100
AcDbTextStyleTableRecord
  2
EXCADDIM1
 70
     0
 40
0.0
 41
0.84
 50
0.0
 71
     0
 42
0.2
  3
monotxt
  4
extfont
  0
STYLE
  5
346
330
3
100
AcDbSymbolTableRecord
100
AcDbTextStyleTableRecord
  2
EXCADTTF1
 70
     0
 40
0.0
 41
1.0
 50
0.0
 71
     0
 42
0.2
  3
MSGOTHIC.TTC
  4

1001
ACAD
1000
MS Gothic
1071
    32817
  0
ENDTAB
  0
TABLE
  2
VIEW
  5
6
330
0
100
AcDbSymbolTable
 70
     0
  0
ENDTAB
  0
TABLE
  2
UCS
  5
7
330
0
100
AcDbSymbolTable
 70
     0
  0
ENDTAB
  0
TABLE
  2
APPID
  5
9
330
0
100
AcDbSymbolTable
 70
     1
  0
APPID
  5
12
330
9
100
AcDbSymbolTableRecord
100
AcDbRegAppTableRecord
  2
ACAD
 70
     0
  0
ENDTAB
  0
TABLE
  2
DIMSTYLE
  5
A
330
0
100
AcDbSymbolTable
 70
     1
  0
DIMSTYLE
105
27
102
{ACAD_REACTORS
330
1BB
330
1C9
330
1D8
330
1E5
330
1F2
330
1FF
330
20E
330
21C
330
22B
330
23A
330
249
330
256
330
265
330
272
102
}
330
A
100
AcDbSymbolTableRecord
100
AcDbDimStyleTableRecord
  2
ISO-25
 70
     0
  3

  4

  5

  6

  7

 40
1.0
 41
2.5
 42
0.625
 43
3.75
 44
1.25
 45
0.0
 46
0.0
 47
0.0
 48
0.0
140
2.5
141
2.5
142
0.0
143
0.03937007874016
144
1.0
145
0.0
146
1.0
147
0.625
 71
     0
 72
     0
 73
     0
 74
     0
 75
     0
 76
     0
 77
     1
 78
     8
170
     0
171
     3
172
     1
173
     0
174
     0
175
     0
176
     0
177
     0
178
     0
270
     2
271
     2
272
     2
273
     2
274
     3
340
11
275
     0
280
     0
281
     0
282
     0
283
     0
284
     8
285
     0
286
     0
287
     5
288
     0
  0
ENDTAB
  0
TABLE
  2
BLOCK_RECORD
  5
1
330
0
100
AcDbSymbolTable
 70
    29
  0
BLOCK_RECORD
  5
1F
330
1
100
AcDbSymbolTableRecord
100
AcDbBlockTableRecord
  2
*MODEL_SPACE
  0
BLOCK_RECORD
  5
1B
330
1
100
AcDbSymbolTableRecord
100
AcDbBlockTableRecord
  2
*PAPER_SPACE
  0
BLOCK_RECORD
  5
4C
330
1
100
AcDbSymbolTableRecord
100
AcDbBlockTableRecord
  2
EX_NORM
  0
BLOCK_RECORD
  5
4F
330
1
100
AcDbSymbolTableRecord
100
AcDbBlockTableRecord
  2
EX_BNORM
  0
BLOCK_RECORD
  5
52
330
1
100
AcDbSymbolTableRecord
100
AcDbBlockTableRecord
  2
EX_BCIR
  0
BLOCK_RECORD
  5
55
330
1
100
AcDbSymbolTableRecord
100
AcDbBlockTableRecord
  2
EX_RCIVIL
  0
BLOCK_RECORD
  5
58
330
1
100
AcDbSymbolTableRecord
100
AcDbBlockTableRecord
  2
EX_SLANT
  0
BLOCK_RECORD
  5
5B
330
1
100
AcDbSymbolTableRecord
100
AcDbBlockTableRecord
  2
EX_NONE
  0
BLOCK_RECORD
  5
5E
330
1
100
AcDbSymbolTableRecord
100
AcDbBlockTableRecord
  2
EX_CIVIL
  0
BLOCK_RECORD
  5
61
330
1
100
AcDbSymbolTableRecord
100
AcDbBlockTableRecord
  2
EX_WCIR
  0
BLOCK_RECORD
  5
64
330
1
100
AcDbSymbolTableRecord
100
AcDbBlockTableRecord
  2
EX_WCIR2
  0
BLOCK_RECORD
  5
67
330
1
100
AcDbSymbolTableRecord
100
AcDbBlockTableRecord
  2
EX_WNORM
  0
BLOCK_RECORD
  5
6A
330
1
100
AcDbSymbolTableRecord
100
AcDbBlockTableRecord
  2
EX_NNORM
  0
BLOCK_RECORD
  5
6D
330
1
100
AcDbSymbolTableRecord
100
AcDbBlockTableRecord
  2
EX_BBOX
  0
BLOCK_RECORD
  5
70
330
1
100
AcDbSymbolTableRecord
100
AcDbBlockTableRecord
  2
EX_WBOX
  0
BLOCK_RECORD
  5
73
330
1
100
AcDbSymbolTableRecord
100
AcDbBlockTableRecord
  2
EX_INTEGRAL
  0
BLOCK_RECORD
  5
1BD
330
1
100
AcDbSymbolTableRecord
100
AcDbBlockTableRecord
  2
*D15
  0
BLOCK_RECORD
  5
1CA
330
1
100
AcDbSymbolTableRecord
100
AcDbBlockTableRecord
  2
*D16
  0
BLOCK_RECORD
  5
1D9
330
1
100
AcDbSymbolTableRecord
100
AcDbBlockTableRecord
  2
*D17
  0
BLOCK_RECORD
  5
1E6
330
1
100
AcDbSymbolTableRecord
100
AcDbBlockTableRecord
  2
*D18
  0
BLOCK_RECORD
  5
1F3
330
1
100
AcDbSymbolTableRecord
100
AcDbBlockTableRecord
  2
*D19
  0
BLOCK_RECORD
  5
200
330
1
100
AcDbSymbolTableRecord
100
AcDbBlockTableRecord
  2
*D20
  0
BLOCK_RECORD
  5
20F
330
1
100
AcDbSymbolTableRecord
100
AcDbBlockTableRecord
  2
*D21
  0
BLOCK_RECORD
  5
21D
330
1
100
AcDbSymbolTableRecord
100
AcDbBlockTableRecord
  2
*D22
  0
BLOCK_RECORD
  5
22C
330
1
100
AcDbSymbolTableRecord
100
AcDbBlockTableRecord
  2
*D23
  0
BLOCK_RECORD
  5
23B
330
1
100
AcDbSymbolTableRecord
100
AcDbBlockTableRecord
  2
*D24
  0
BLOCK_RECORD
  5
24A
330
1
100
AcDbSymbolTableRecord
100
AcDbBlockTableRecord
  2
*D25
  0
BLOCK_RECORD
  5
257
330
1
100
AcDbSymbolTableRecord
100
AcDbBlockTableRecord
  2
*D26
  0
BLOCK_RECORD
  5
266
330
1
100
AcDbSymbolTableRecord
100
AcDbBlockTableRecord
  2
*D27
  0
BLOCK_RECORD
  5
273
330
1
100
AcDbSymbolTableRecord
100
AcDbBlockTableRecord
  2
*D28
  0
ENDTAB
  0
ENDSEC
  0
SECTION
  2
BLOCKS
  0
BLOCK
  5
20
330
1F
100
AcDbEntity
  8
0
100
AcDbBlockBegin
  2
*MODEL_SPACE
 70
     0
 10
0.0
 20
0.0
 30
0.0
  3
*MODEL_SPACE
  1

  0
ENDBLK
  5
21
330
1F
100
AcDbEntity
  8
0
100
AcDbBlockEnd
  0
BLOCK
  5
1C
330
1B
100
AcDbEntity
 67
     1
  8
0
100
AcDbBlockBegin
  2
*PAPER_SPACE
 70
     0
 10
0.0
 20
0.0
 30
0.0
  3
*PAPER_SPACE
  1

  0
ENDBLK
  5
1D
330
1B
100
AcDbEntity
 67
     1
  8
0
100
AcDbBlockEnd
  0
BLOCK
  5
4D
330
4C
100
AcDbEntity
  8
0
100
AcDbBlockBegin
  2
EX_NORM
 70
     0
 10
0.0
 20
0.0
 30
0.0
  3
EX_NORM
  1

  0
LINE
  5
76
330
4C
100
AcDbEntity
  8
0
  6
CONTINUOUS
 62
     0
100
AcDbLine
 10
0.0
 20
0.0
 30
0.0
 11
-1.0
 21
0.0
 31
0.0
  0
LINE
  5
77
330
4C
100
AcDbEntity
  8
0
  6
CONTINUOUS
 62
     0
100
AcDbLine
 10
0.0
 20
0.0
 30
0.0
 11
-1.0
 21
0.166666667
 31
0.0
  0
LINE
  5
78
330
4C
100
AcDbEntity
  8
0
  6
CONTINUOUS
 62
     0
100
AcDbLine
 10
0.0
 20
0.0
 30
0.0
 11
-1.0
 21
-0.166666667
 31
0.0
  0
ENDBLK
  5
4E
330
4C
100
AcDbEntity
  8
0
100
AcDbBlockEnd
  0
BLOCK
  5
50
330
4F
100
AcDbEntity
  8
0
100
AcDbBlockBegin
  2
EX_BNORM
 70
     0
 10
0.0
 20
0.0
 30
0.0
  3
EX_BNORM
  1

  0
LINE
  5
79
330
4F
100
AcDbEntity
  8
0
  6
CONTINUOUS
 62
     0
100
AcDbLine
 10
0.0
 20
0.0
 30
0.0
 11
-1.0
 21
0.0
 31
0.0
  0
LINE
  5
7A
330
4F
100
AcDbEntity
  8
0
  6
CONTINUOUS
 62
     0
100
AcDbLine
 10
0.0
 20
0.0
 30
0.0
 11
-1.0
 21
0.166666667
 31
0.0
  0
LINE
  5
7B
330
4F
100
AcDbEntity
  8
0
  6
CONTINUOUS
 62
     0
100
AcDbLine
 10
0.0
 20
0.0
 30
0.0
 11
-1.0
 21
-0.166666667
 31
0.0
  0
LINE
  5
7C
330
4F
100
AcDbEntity
  8
0
  6
CONTINUOUS
 62
     0
100
AcDbLine
 10
0.0
 20
0.0
 30
0.0
 11
-1.0
 21
0.083333333
 31
0.0
  0
LINE
  5
7D
330
4F
100
AcDbEntity
  8
0
  6
CONTINUOUS
 62
     0
100
AcDbLine
 10
0.0
 20
0.0
 30
0.0
 11
-1.0
 21
-0.083333333
 31
0.0
  0
LINE
  5
7E
330
4F
100
AcDbEntity
  8
0
  6
CONTINUOUS
 62
     0
100
AcDbLine
 10
-1.0
 20
0.166666667
 30
0.0
 11
-1.0
 21
-0.166666667
 31
0.0
  0
ENDBLK
  5
51
330
4F
100
AcDbEntity
  8
0
100
AcDbBlockEnd
  0
BLOCK
  5
53
330
52
100
AcDbEntity
  8
0
100
AcDbBlockBegin
  2
EX_BCIR
 70
     0
 10
0.0
 20
0.0
 30
0.0
  3
EX_BCIR
  1

  0
LINE
  5
7F
330
52
100
AcDbEntity
  8
0
  6
CONTINUOUS
 62
     0
100
AcDbLine
 10
0.0
 20
0.0
 30
0.0
 11
-1.0
 21
0.0
 31
0.0
  0
CIRCLE
  5
80
330
52
100
AcDbEntity
  8
0
  6
CONTINUOUS
 62
     0
100
AcDbCircle
 10
0.0
 20
0.0
 30
0.0
 40
0.5
  0
CIRCLE
  5
81
330
52
100
AcDbEntity
  8
0
  6
CONTINUOUS
 62
     0
100
AcDbCircle
 10
0.0
 20
0.0
 30
0.0
 40
0.25
  0
ENDBLK
  5
54
330
52
100
AcDbEntity
  8
0
100
AcDbBlockEnd
  0
BLOCK
  5
56
330
55
100
AcDbEntity
  8
0
100
AcDbBlockBegin
  2
EX_RCIVIL
 70
     0
 10
0.0
 20
0.0
 30
0.0
  3
EX_RCIVIL
  1

  0
LINE
  5
82
330
55
100
AcDbEntity
  8
0
  6
CONTINUOUS
 62
     0
100
AcDbLine
 10
0.0
 20
0.0
 30
0.0
 11
-1.0
 21
0.0
 31
0.0
  0
LINE
  5
83
330
55
100
AcDbEntity
  8
0
  6
CONTINUOUS
 62
     0
100
AcDbLine
 10
-1.0
 20
-0.25
 30
0.0
 11
0.0
 21
-0.25
 31
0.0
  0
LINE
  5
84
330
55
100
AcDbEntity
  8
0
  6
CONTINUOUS
 62
     0
100
AcDbLine
 10
-1.0
 20
-0.125
 30
0.0
 11
0.0
 21
-0.125
 31
0.0
  0
ENDBLK
  5
57
330
55
100
AcDbEntity
  8
0
100
AcDbBlockEnd
  0
BLOCK
  5
59
330
58
100
AcDbEntity
  8
0
100
AcDbBlockBegin
  2
EX_SLANT
 70
     0
 10
0.0
 20
0.0
 30
0.0
  3
EX_SLANT
  1

  0
LINE
  5
85
330
58
100
AcDbEntity
  8
0
  6
CONTINUOUS
 62
     0
100
AcDbLine
 10
0.0
 20
0.0
 30
0.0
 11
-1.0
 21
0.0
 31
0.0
  0
LINE
  5
86
330
58
100
AcDbEntity
  8
0
  6
CONTINUOUS
 62
     0
100
AcDbLine
 10
0.707106781
 20
0.707106781
 30
0.0
 11
-0.707106781
 21
-0.707106781
 31
0.0
  0
ENDBLK
  5
5A
330
58
100
AcDbEntity
  8
0
100
AcDbBlockEnd
  0
BLOCK
  5
5C
330
5B
100
AcDbEntity
  8
0
100
AcDbBlockBegin
  2
EX_NONE
 70
     0
 10
0.0
 20
0.0
 30
0.0
  3
EX_NONE
  1

  0
LINE
  5
87
330
5B
100
AcDbEntity
  8
0
  6
CONTINUOUS
 62
     0
100
AcDbLine
 10
0.0
 20
0.0
 30
0.0
 11
-1.0
 21
0.0
 31
0.0
  0
ENDBLK
  5
5D
330
5B
100
AcDbEntity
  8
0
100
AcDbBlockEnd
  0
BLOCK
  5
5F
330
5E
100
AcDbEntity
  8
0
100
AcDbBlockBegin
  2
EX_CIVIL
 70
     0
 10
0.0
 20
0.0
 30
0.0
  3
EX_CIVIL
  1

  0
LINE
  5
88
330
5E
100
AcDbEntity
  8
0
  6
CONTINUOUS
 62
     0
100
AcDbLine
 10
0.0
 20
0.0
 30
0.0
 11
-1.0
 21
0.0
 31
0.0
  0
LINE
  5
89
330
5E
100
AcDbEntity
  8
0
  6
CONTINUOUS
 62
     0
100
AcDbLine
 10
-1.0
 20
0.25
 30
0.0
 11
0.0
 21
0.25
 31
0.0
  0
LINE
  5
8A
330
5E
100
AcDbEntity
  8
0
  6
CONTINUOUS
 62
     0
100
AcDbLine
 10
-1.0
 20
0.125
 30
0.0
 11
0.0
 21
0.125
 31
0.0
  0
ENDBLK
  5
60
330
5E
100
AcDbEntity
  8
0
100
AcDbBlockEnd
  0
BLOCK
  5
62
330
61
100
AcDbEntity
  8
0
100
AcDbBlockBegin
  2
EX_WCIR
 70
     0
 10
0.0
 20
0.0
 30
0.0
  3
EX_WCIR
  1

  0
LINE
  5
8B
330
61
100
AcDbEntity
  8
0
  6
CONTINUOUS
 62
     0
100
AcDbLine
 10
0.0
 20
0.0
 30
0.0
 11
-1.0
 21
0.0
 31
0.0
  0
CIRCLE
  5
8C
330
61
100
AcDbEntity
  8
0
  6
CONTINUOUS
 62
     0
100
AcDbCircle
 10
0.0
 20
0.0
 30
0.0
 40
0.5
  0
ENDBLK
  5
63
330
61
100
AcDbEntity
  8
0
100
AcDbBlockEnd
  0
BLOCK
  5
65
330
64
100
AcDbEntity
  8
0
100
AcDbBlockBegin
  2
EX_WCIR2
 70
     0
 10
0.0
 20
0.0
 30
0.0
  3
EX_WCIR2
  1

  0
LINE
  5
8D
330
64
100
AcDbEntity
  8
0
  6
CONTINUOUS
 62
     0
100
AcDbLine
 10
-0.5
 20
0.0
 30
0.0
 11
-1.0
 21
0.0
 31
0.0
  0
CIRCLE
  5
8E
330
64
100
AcDbEntity
  8
0
  6
CONTINUOUS
 62
     0
100
AcDbCircle
 10
0.0
 20
0.0
 30
0.0
 40
0.5
  0
ENDBLK
  5
66
330
64
100
AcDbEntity
  8
0
100
AcDbBlockEnd
  0
BLOCK
  5
68
330
67
100
AcDbEntity
  8
0
100
AcDbBlockBegin
  2
EX_WNORM
 70
     0
 10
0.0
 20
0.0
 30
0.0
  3
EX_WNORM
  1

  0
LINE
  5
8F
330
67
100
AcDbEntity
  8
0
  6
CONTINUOUS
 62
     0
100
AcDbLine
 10
-1.0
 20
0.0
 30
0.0
 11
-1.0
 21
0.0
 31
0.0
  0
LINE
  5
90
330
67
100
AcDbEntity
  8
0
  6
CONTINUOUS
 62
     0
100
AcDbLine
 10
0.0
 20
0.0
 30
0.0
 11
-1.0
 21
0.166666667
 31
0.0
  0
LINE
  5
91
330
67
100
AcDbEntity
  8
0
  6
CONTINUOUS
 62
     0
100
AcDbLine
 10
0.0
 20
0.0
 30
0.0
 11
-1.0
 21
-0.166666667
 31
0.0
  0
LINE
  5
92
330
67
100
AcDbEntity
  8
0
  6
CONTINUOUS
 62
     0
100
AcDbLine
 10
-1.0
 20
0.166666667
 30
0.0
 11
-1.0
 21
-0.166666667
 31
0.0
  0
ENDBLK
  5
69
330
67
100
AcDbEntity
  8
0
100
AcDbBlockEnd
  0
BLOCK
  5
6B
330
6A
100
AcDbEntity
  8
0
100
AcDbBlockBegin
  2
EX_NNORM
 70
     0
 10
0.0
 20
0.0
 30
0.0
  3
EX_NNORM
  1

  0
LINE
  5
93
330
6A
100
AcDbEntity
  8
0
  6
CONTINUOUS
 62
     0
100
AcDbLine
 10
0.0
 20
0.0
 30
0.0
 11
-1.0
 21
0.0
 31
0.0
  0
LINE
  5
94
330
6A
100
AcDbEntity
  8
0
  6
CONTINUOUS
 62
     0
100
AcDbLine
 10
0.0
 20
0.0
 30
0.0
 11
-1.0
 21
0.166666667
 31
0.0
  0
LINE
  5
95
330
6A
100
AcDbEntity
  8
0
  6
CONTINUOUS
 62
     0
100
AcDbLine
 10
0.0
 20
0.0
 30
0.0
 11
-1.0
 21
-0.166666667
 31
0.0
  0
LINE
  5
96
330
6A
100
AcDbEntity
  8
0
  6
CONTINUOUS
 62
     0
100
AcDbLine
 10
-1.0
 20
0.166666667
 30
0.0
 11
-1.0
 21
-0.166666667
 31
0.0
  0
ENDBLK
  5
6C
330
6A
100
AcDbEntity
  8
0
100
AcDbBlockEnd
  0
BLOCK
  5
6E
330
6D
100
AcDbEntity
  8
0
100
AcDbBlockBegin
  2
EX_BBOX
 70
     0
 10
0.0
 20
0.0
 30
0.0
  3
EX_BBOX
  1

  0
LINE
  5
97
330
6D
100
AcDbEntity
  8
0
  6
CONTINUOUS
 62
     0
100
AcDbLine
 10
0.0
 20
0.0
 30
0.0
 11
-1.0
 21
0.0
 31
0.0
  0
LINE
  5
98
330
6D
100
AcDbEntity
  8
0
  6
CONTINUOUS
 62
     0
100
AcDbLine
 10
-0.5
 20
0.5
 30
0.0
 11
0.5
 21
0.5
 31
0.0
  0
LINE
  5
99
330
6D
100
AcDbEntity
  8
0
  6
CONTINUOUS
 62
     0
100
AcDbLine
 10
0.5
 20
0.5
 30
0.0
 11
0.5
 21
-0.5
 31
0.0
  0
LINE
  5
9A
330
6D
100
AcDbEntity
  8
0
  6
CONTINUOUS
 62
     0
100
AcDbLine
 10
0.5
 20
-0.5
 30
0.0
 11
-0.5
 21
-0.5
 31
0.0
  0
LINE
  5
9B
330
6D
100
AcDbEntity
  8
0
  6
CONTINUOUS
 62
     0
100
AcDbLine
 10
-0.5
 20
-0.5
 30
0.0
 11
-0.5
 21
0.5
 31
0.0
  0
LINE
  5
9C
330
6D
100
AcDbEntity
  8
0
  6
CONTINUOUS
 62
     0
100
AcDbLine
 10
-0.25
 20
0.25
 30
0.0
 11
0.25
 21
0.25
 31
0.0
  0
LINE
  5
9D
330
6D
100
AcDbEntity
  8
0
  6
CONTINUOUS
 62
     0
100
AcDbLine
 10
0.25
 20
0.25
 30
0.0
 11
0.25
 21
-0.25
 31
0.0
  0
LINE
  5
9E
330
6D
100
AcDbEntity
  8
0
  6
CONTINUOUS
 62
     0
100
AcDbLine
 10
0.25
 20
-0.25
 30
0.0
 11
-0.25
 21
-0.25
 31
0.0
  0
LINE
  5
9F
330
6D
100
AcDbEntity
  8
0
  6
CONTINUOUS
 62
     0
100
AcDbLine
 10
-0.25
 20
-0.25
 30
0.0
 11
-0.25
 21
0.25
 31
0.0
  0
ENDBLK
  5
6F
330
6D
100
AcDbEntity
  8
0
100
AcDbBlockEnd
  0
BLOCK
  5
71
330
70
100
AcDbEntity
  8
0
100
AcDbBlockBegin
  2
EX_WBOX
 70
     0
 10
0.0
 20
0.0
 30
0.0
  3
EX_WBOX
  1

  0
LINE
  5
A0
330
70
100
AcDbEntity
  8
0
  6
CONTINUOUS
 62
     0
100
AcDbLine
 10
-0.5
 20
0.0
 30
0.0
 11
-1.0
 21
0.0
 31
0.0
  0
LINE
  5
A1
330
70
100
AcDbEntity
  8
0
  6
CONTINUOUS
 62
     0
100
AcDbLine
 10
-0.5
 20
0.5
 30
0.0
 11
0.5
 21
0.5
 31
0.0
  0
LINE
  5
A2
330
70
100
AcDbEntity
  8
0
  6
CONTINUOUS
 62
     0
100
AcDbLine
 10
0.5
 20
0.5
 30
0.0
 11
0.5
 21
-0.5
 31
0.0
  0
LINE
  5
A3
330
70
100
AcDbEntity
  8
0
  6
CONTINUOUS
 62
     0
100
AcDbLine
 10
0.5
 20
-0.5
 30
0.0
 11
-0.5
 21
-0.5
 31
0.0
  0
LINE
  5
A4
330
70
100
AcDbEntity
  8
0
  6
CONTINUOUS
 62
     0
100
AcDbLine
 10
-0.5
 20
-0.5
 30
0.0
 11
-0.5
 21
0.5
 31
0.0
  0
ENDBLK
  5
72
330
70
100
AcDbEntity
  8
0
100
AcDbBlockEnd
  0
BLOCK
  5
74
330
73
100
AcDbEntity
  8
0
100
AcDbBlockBegin
  2
EX_INTEGRAL
 70
     0
 10
0.0
 20
0.0
 30
0.0
  3
EX_INTEGRAL
  1

  0
LINE
  5
A5
330
73
100
AcDbEntity
  8
0
  6
CONTINUOUS
 62
     0
100
AcDbLine
 10
0.0
 20
0.0
 30
0.0
 11
-1.0
 21
0.0
 31
0.0
  0
ARC
  5
A6
330
73
100
AcDbEntity
  8
0
  6
CONTINUOUS
 62
     0
100
AcDbCircle
 10
0.542115
 20
0.164992
 30
0.0
 40
0.56667
100
AcDbArc
 50
73.07249033629006
 51
196.9275130221199
  0
ARC
  5
A7
330
73
100
AcDbEntity
  8
0
  6
CONTINUOUS
 62
     0
100
AcDbCircle
 10
-0.542115
 20
-0.164992
 30
0.0
 40
0.56667
100
AcDbArc
 50
253.0724869220464
 51
16.9275130559125
  0
ENDBLK
  5
75
330
73
100
AcDbEntity
  8
0
100
AcDbBlockEnd
  0
BLOCK
  5
1BE
330
1BD
100
AcDbEntity
  8
0
100
AcDbBlockBegin
  2
*D15
 70
     1
 10
0.0
 20
0.0
 30
0.0
  3
*D15
  1

  0
LINE
  5
1C0
330
1BD
100
AcDbEntity
  8
枠_表
  6
CONTINUOUS
 62
     3
100
AcDbLine
 10
453.4999999999994
 20
2027.99999988079
 30
0.0
 11
453.4999999999994
 21
2170.999999999999
 31
0.0
  0
LINE
  5
1C1
330
1BD
100
AcDbEntity
  8
枠_表
  6
CONTINUOUS
 62
     3
100
AcDbLine
 10
528.4999999999993
 20
2060.49999988079
 30
0.0
 11
528.4999999999993
 21
2170.999999999999
 31
0.0
  0
LINE
  5
1C2
330
1BD
100
AcDbEntity
  8
枠_表
  6
CONTINUOUS
 62
     3
100
AcDbLine
 10
483.4999999999994
 20
2160.999999999999
 30
0.0
 11
498.4999999999993
 21
2160.999999999999
 31
0.0
  0
INSERT
  5
1C3
330
1BD
100
AcDbEntity
  8
枠_表
 62
     3
100
AcDbBlockReference
  2
EX_NORM
 10
453.4999999999994
 20
2160.999999999999
 30
0.0
 41
30.0
 42
30.0
 43
30.0
 50
180.0
  0
INSERT
  5
1C4
330
1BD
100
AcDbEntity
  8
枠_表
 62
     3
100
AcDbBlockReference
  2
EX_NORM
 10
528.4999999999993
 20
2160.999999999999
 30
0.0
 41
30.0
 42
30.0
 43
30.0
  0
MTEXT
  5
1C5
330
1BD
100
AcDbEntity
  8
枠_表
 62
     2
100
AcDbMText
 10
388.4999999999995
 20
2184.499999940394
 30
0.0
 40
40.0
 41
0.0
 71
     5
 72
     1
  1
75
  7
EXCADDIM1
  0
POINT
  5
1C6
330
1BD
100
AcDbEntity
  8
DEFPOINTS
 62
     0
100
AcDbPoint
 10
453.4999999999994
 20
2020.999999999999
 30
0.0
  0
POINT
  5
1C7
330
1BD
100
AcDbEntity
  8
DEFPOINTS
 62
     0
100
AcDbPoint
 10
528.4999999999993
 20
2053.499999999999
 30
0.0
  0
POINT
  5
1C8
330
1BD
100
AcDbEntity
  8
DEFPOINTS
 62
     0
100
AcDbPoint
 10
528.4999999999993
 20
2160.999999999999
 30
0.0
  0
ENDBLK
  5
1BF
330
1BD
100
AcDbEntity
  8
0
100
AcDbBlockEnd
  0
BLOCK
  5
1CB
330
1CA
100
AcDbEntity
  8
0
100
AcDbBlockBegin
  2
*D16
 70
     1
 10
0.0
 20
0.0
 30
0.0
  3
*D16
  1

  0
LINE
  5
1CD
330
1CA
100
AcDbEntity
  8
枠_表
  6
CONTINUOUS
 62
     3
100
AcDbLine
 10
453.4999999999994
 20
2027.99999988079
 30
0.0
 11
453.4999999999994
 21
2110.999999999999
 31
0.0
  0
LINE
  5
1CE
330
1CA
100
AcDbEntity
  8
枠_表
  6
CONTINUOUS
 62
     3
100
AcDbLine
 10
473.4999999999994
 20
2060.49999988079
 30
0.0
 11
473.4999999999994
 21
2110.999999999999
 31
0.0
  0
LINE
  5
1CF
330
1CA
100
AcDbEntity
  8
枠_表
  6
CONTINUOUS
 62
     3
100
AcDbLine
 10
453.4999999999994
 20
2100.999999999999
 30
0.0
 11
473.4999999999994
 21
2100.999999999999
 31
0.0
  0
LINE
  5
1D0
330
1CA
100
AcDbEntity
  8
枠_表
  6
CONTINUOUS
 62
     3
100
AcDbLine
 10
423.4999999999994
 20
2100.999999999999
 30
0.0
 11
393.4999999999994
 21
2100.999999999999
 31
0.0
  0
LINE
  5
1D1
330
1CA
100
AcDbEntity
  8
枠_表
  6
CONTINUOUS
 62
     3
100
AcDbLine
 10
503.4999999999994
 20
2100.999999999999
 30
0.0
 11
533.4999999999993
 21
2100.999999999999
 31
0.0
  0
INSERT
  5
1D2
330
1CA
100
AcDbEntity
  8
枠_表
 62
     3
100
AcDbBlockReference
  2
EX_NORM
 10
453.4999999999994
 20
2100.999999999999
 30
0.0
 41
30.0
 42
30.0
 43
30.0
  0
INSERT
  5
1D3
330
1CA
100
AcDbEntity
  8
枠_表
 62
     3
100
AcDbBlockReference
  2
EX_NORM
 10
473.4999999999994
 20
2100.999999999999
 30
0.0
 41
30.0
 42
30.0
 43
30.0
 50
180.0
  0
MTEXT
  5
1D4
330
1CA
100
AcDbEntity
  8
枠_表
 62
     2
100
AcDbMText
 10
388.4999999999995
 20
2124.499999940394
 30
0.0
 40
40.0
 41
0.0
 71
     5
 72
     1
  1
20
  7
EXCADDIM1
  0
POINT
  5
1D5
330
1CA
100
AcDbEntity
  8
DEFPOINTS
 62
     0
100
AcDbPoint
 10
453.4999999999994
 20
2020.999999999999
 30
0.0
  0
POINT
  5
1D6
330
1CA
100
AcDbEntity
  8
DEFPOINTS
 62
     0
100
AcDbPoint
 10
473.4999999999994
 20
2053.499999999999
 30
0.0
  0
POINT
  5
1D7
330
1CA
100
AcDbEntity
  8
DEFPOINTS
 62
     0
100
AcDbPoint
 10
473.4999999999994
 20
2100.999999999999
 30
0.0
  0
ENDBLK
  5
1CC
330
1CA
100
AcDbEntity
  8
0
100
AcDbBlockEnd
  0
BLOCK
  5
1DA
330
1D9
100
AcDbEntity
  8
0
100
AcDbBlockBegin
  2
*D17
 70
     1
 10
0.0
 20
0.0
 30
0.0
  3
*D17
  1

  0
LINE
  5
1DC
330
1D9
100
AcDbEntity
  8
枠_表
  6
CONTINUOUS
 62
     3
100
AcDbLine
 10
978.5000000000002
 20
2060.49999988079
 30
0.0
 11
978.5000000000002
 21
2110.999999999999
 31
0.0
  0
LINE
  5
1DD
330
1D9
100
AcDbEntity
  8
枠_表
  6
CONTINUOUS
 62
     3
100
AcDbLine
 10
1053.5
 20
2027.99999988079
 30
0.0
 11
1053.5
 21
2110.999999999999
 31
0.0
  0
LINE
  5
1DE
330
1D9
100
AcDbEntity
  8
枠_表
  6
CONTINUOUS
 62
     3
100
AcDbLine
 10
1008.5
 20
2100.999999999999
 30
0.0
 11
1023.5
 21
2100.999999999999
 31
0.0
  0
INSERT
  5
1DF
330
1D9
100
AcDbEntity
  8
枠_表
 62
     3
100
AcDbBlockReference
  2
EX_NORM
 10
978.5000000000002
 20
2100.999999999999
 30
0.0
 41
30.0
 42
30.0
 43
30.0
 50
180.0
  0
INSERT
  5
1E0
330
1D9
100
AcDbEntity
  8
枠_表
 62
     3
100
AcDbBlockReference
  2
EX_NORM
 10
1053.5
 20
2100.999999999999
 30
0.0
 41
30.0
 42
30.0
 43
30.0
  0
MTEXT
  5
1E1
330
1D9
100
AcDbEntity
  8
枠_表
 62
     2
100
AcDbMText
 10
1118.5
 20
2124.499999940394
 30
0.0
 40
40.0
 41
0.0
 71
     5
 72
     1
  1
75
  7
EXCADDIM1
  0
POINT
  5
1E2
330
1D9
100
AcDbEntity
  8
DEFPOINTS
 62
     0
100
AcDbPoint
 10
978.5000000000002
 20
2053.499999999999
 30
0.0
  0
POINT
  5
1E3
330
1D9
100
AcDbEntity
  8
DEFPOINTS
 62
     0
100
AcDbPoint
 10
1053.5
 20
2020.999999999999
 30
0.0
  0
POINT
  5
1E4
330
1D9
100
AcDbEntity
  8
DEFPOINTS
 62
     0
100
AcDbPoint
 10
1053.5
 20
2100.999999999999
 30
0.0
  0
ENDBLK
  5
1DB
330
1D9
100
AcDbEntity
  8
0
100
AcDbBlockEnd
  0
BLOCK
  5
1E7
330
1E6
100
AcDbEntity
  8
0
100
AcDbBlockBegin
  2
*D18
 70
     1
 10
0.0
 20
0.0
 30
0.0
  3
*D18
  1

  0
LINE
  5
1E9
330
1E6
100
AcDbEntity
  8
枠_表
  6
CONTINUOUS
 62
     3
100
AcDbLine
 10
453.5000000000002
 20
1623.99999988079
 30
0.0
 11
453.5000000000002
 21
1694.999999999999
 31
0.0
  0
LINE
  5
1EA
330
1E6
100
AcDbEntity
  8
枠_表
  6
CONTINUOUS
 62
     3
100
AcDbLine
 10
1053.5
 20
1623.99999988079
 30
0.0
 11
1053.5
 21
1694.999999999999
 31
0.0
  0
LINE
  5
1EB
330
1E6
100
AcDbEntity
  8
枠_表
  6
CONTINUOUS
 62
     3
100
AcDbLine
 10
483.5000000000002
 20
1684.999999999999
 30
0.0
 11
1023.5
 21
1684.999999999999
 31
0.0
  0
INSERT
  5
1EC
330
1E6
100
AcDbEntity
  8
枠_表
 62
     3
100
AcDbBlockReference
  2
EX_NORM
 10
453.5000000000002
 20
1684.999999999999
 30
0.0
 41
30.0
 42
30.0
 43
30.0
 50
180.0
  0
INSERT
  5
1ED
330
1E6
100
AcDbEntity
  8
枠_表
 62
     3
100
AcDbBlockReference
  2
EX_NORM
 10
1053.5
 20
1684.999999999999
 30
0.0
 41
30.0
 42
30.0
 43
30.0
  0
MTEXT
  5
1EE
330
1E6
100
AcDbEntity
  8
枠_表
 62
     2
100
AcDbMText
 10
753.5000000000003
 20
1708.499999940394
 30
0.0
 40
40.0
 41
0.0
 71
     5
 72
     1
  1
600
  7
EXCADDIM1
  0
POINT
  5
1EF
330
1E6
100
AcDbEntity
  8
DEFPOINTS
 62
     0
100
AcDbPoint
 10
453.5000000000002
 20
1616.999999999999
 30
0.0
  0
POINT
  5
1F0
330
1E6
100
AcDbEntity
  8
DEFPOINTS
 62
     0
100
AcDbPoint
 10
1053.5
 20
1616.999999999999
 30
0.0
  0
POINT
  5
1F1
330
1E6
100
AcDbEntity
  8
DEFPOINTS
 62
     0
100
AcDbPoint
 10
1053.5
 20
1684.999999999999
 30
0.0
  0
ENDBLK
  5
1E8
330
1E6
100
AcDbEntity
  8
0
100
AcDbBlockEnd
  0
BLOCK
  5
1F4
330
1F3
100
AcDbEntity
  8
0
100
AcDbBlockBegin
  2
*D19
 70
     1
 10
0.0
 20
0.0
 30
0.0
  3
*D19
  1

  0
LINE
  5
1F6
330
1F3
100
AcDbEntity
  8
枠_表
  6
CONTINUOUS
 62
     3
100
AcDbLine
 10
1052.499999880791
 20
494.9999999999991
 30
0.0
 11
1301.0
 21
494.9999999999991
 31
0.0
  0
LINE
  5
1F7
330
1F3
100
AcDbEntity
  8
枠_表
  6
CONTINUOUS
 62
     3
100
AcDbLine
 10
1052.499999880791
 20
1624.999999999999
 30
0.0
 11
1301.0
 21
1624.999999999999
 31
0.0
  0
LINE
  5
1F8
330
1F3
100
AcDbEntity
  8
枠_表
  6
CONTINUOUS
 62
     3
100
AcDbLine
 10
1291.0
 20
524.9999999999991
 30
0.0
 11
1291.0
 21
1594.999999999999
 31
0.0
  0
INSERT
  5
1F9
330
1F3
100
AcDbEntity
  8
枠_表
 62
     3
100
AcDbBlockReference
  2
EX_NORM
 10
1291.0
 20
494.9999999999991
 30
0.0
 41
30.0
 42
30.0
 43
30.0
 50
270.0
  0
INSERT
  5
1FA
330
1F3
100
AcDbEntity
  8
枠_表
 62
     3
100
AcDbBlockReference
  2
EX_NORM
 10
1291.0
 20
1624.999999999999
 30
0.0
 41
30.0
 42
30.0
 43
30.0
 50
90.0
  0
MTEXT
  5
1FB
330
1F3
100
AcDbEntity
  8
枠_表
 62
     2
100
AcDbMText
 10
1267.500000059605
 20
1059.999999999999
 30
0.0
 40
40.0
 41
0.0
 71
     5
 72
     1
  1
1128
  7
EXCADDIM1
 11
0.0
 21
1.0
 31
0.0
  0
POINT
  5
1FC
330
1F3
100
AcDbEntity
  8
DEFPOINTS
 62
     0
100
AcDbPoint
 10
1045.5
 20
494.9999999999991
 30
0.0
  0
POINT
  5
1FD
330
1F3
100
AcDbEntity
  8
DEFPOINTS
 62
     0
100
AcDbPoint
 10
1045.5
 20
1624.999999999999
 30
0.0
  0
POINT
  5
1FE
330
1F3
100
AcDbEntity
  8
DEFPOINTS
 62
     0
100
AcDbPoint
 10
1291.0
 20
1624.999999999999
 30
0.0
  0
ENDBLK
  5
1F5
330
1F3
100
AcDbEntity
  8
0
100
AcDbBlockEnd
  0
BLOCK
  5
201
330
200
100
AcDbEntity
  8
0
100
AcDbBlockBegin
  2
*D20
 70
     1
 10
0.0
 20
0.0
 30
0.0
  3
*D20
  1

  0
LINE
  5
203
330
200
100
AcDbEntity
  8
枠_表
  6
CONTINUOUS
 62
     3
100
AcDbLine
 10
1052.499999880791
 20
494.9999999999991
 30
0.0
 11
1241.0
 21
494.9999999999992
 31
0.0
  0
LINE
  5
204
330
200
100
AcDbEntity
  8
枠_表
  6
CONTINUOUS
 62
     3
100
AcDbLine
 10
890.4999998807909
 20
1174.999999999999
 30
0.0
 11
1241.0
 21
1174.999999999999
 31
0.0
  0
LINE
  5
205
330
200
100
AcDbEntity
  8
枠_表
  6
CONTINUOUS
 62
     3
100
AcDbLine
 10
1231.0
 20
524.9999999999992
 30
0.0
 11
1231.0
 21
1144.999999999999
 31
0.0
  0
INSERT
  5
206
330
200
100
AcDbEntity
  8
枠_表
 62
     3
100
AcDbBlockReference
  2
EX_NORM
 10
1231.0
 20
494.9999999999992
 30
0.0
 41
30.0
 42
30.0
 43
30.0
 50
270.0
  0
INSERT
  5
207
330
200
100
AcDbEntity
  8
枠_表
 62
     3
100
AcDbBlockReference
  2
EX_NORM
 10
1231.0
 20
1174.999999999999
 30
0.0
 41
30.0
 42
30.0
 43
30.0
 50
90.0
  0
MTEXT
  5
208
330
200
100
AcDbEntity
  8
枠_表
 62
     2
100
AcDbMText
 10
1207.500000059605
 20
834.9999999999986
 30
0.0
 40
40.0
 41
0.0
 71
     5
 72
     1
  1
※680
  7
EXCADDIM1
 11
0.0
 21
1.0
 31
0.0
  0
POINT
  5
209
330
200
100
AcDbEntity
  8
DEFPOINTS
 62
     0
100
AcDbPoint
 10
1045.5
 20
494.9999999999991
 30
0.0
  0
POINT
  5
20A
330
200
100
AcDbEntity
  8
DEFPOINTS
 62
     0
100
AcDbPoint
 10
883.5000000000002
 20
1174.999999999999
 30
0.0
  0
POINT
  5
20B
330
200
100
AcDbEntity
  8
DEFPOINTS
 62
     0
100
AcDbPoint
 10
1231.0
 20
1174.999999999999
 30
0.0
  0
ENDBLK
  5
202
330
200
100
AcDbEntity
  8
0
100
AcDbBlockEnd
  0
BLOCK
  5
210
330
20F
100
AcDbEntity
  8
0
100
AcDbBlockBegin
  2
*D21
 70
     1
 10
0.0
 20
0.0
 30
0.0
  3
*D21
  1

  0
LINE
  5
212
330
20F
100
AcDbEntity
  8
枠_表
  6
CONTINUOUS
 62
     3
100
AcDbLine
 10
883.5000000000002
 20
1168.000000119208
 30
0.0
 11
883.5000000000002
 21
834.9999999999991
 31
0.0
  0
LINE
  5
213
330
20F
100
AcDbEntity
  8
枠_表
  6
CONTINUOUS
 62
     3
100
AcDbLine
 10
913.5000000000002
 20
844.9999999999991
 30
0.0
 11
1023.5
 21
844.9999999999991
 31
0.0
  0
INSERT
  5
214
330
20F
100
AcDbEntity
  8
枠_表
 62
     3
100
AcDbBlockReference
  2
EX_NORM
 10
883.5000000000002
 20
844.9999999999991
 30
0.0
 41
30.0
 42
30.0
 43
30.0
 50
180.0
  0
INSERT
  5
215
330
20F
100
AcDbEntity
  8
枠_表
 62
     3
100
AcDbBlockReference
  2
EX_NORM
 10
1053.5
 20
844.9999999999991
 30
0.0
 41
30.0
 42
30.0
 43
30.0
  0
MTEXT
  5
216
330
20F
100
AcDbEntity
  8
枠_表
 62
     2
100
AcDbMText
 10
968.5000000000002
 20
868.4999999403944
 30
0.0
 40
40.0
 41
0.0
 71
     5
 72
     1
  1
※170
  7
EXCADDIM1
  0
POINT
  5
217
330
20F
100
AcDbEntity
  8
DEFPOINTS
 62
     0
100
AcDbPoint
 10
883.5000000000002
 20
1174.999999999999
 30
0.0
  0
POINT
  5
218
330
20F
100
AcDbEntity
  8
DEFPOINTS
 62
     0
100
AcDbPoint
 10
1053.5
 20
1616.999999999999
 30
0.0
  0
POINT
  5
219
330
20F
100
AcDbEntity
  8
DEFPOINTS
 62
     0
100
AcDbPoint
 10
1053.5
 20
844.9999999999991
 30
0.0
  0
ENDBLK
  5
211
330
20F
100
AcDbEntity
  8
0
100
AcDbBlockEnd
  0
BLOCK
  5
21E
330
21D
100
AcDbEntity
  8
0
100
AcDbBlockBegin
  2
*D22
 70
     1
 10
0.0
 20
0.0
 30
0.0
  3
*D22
  1

  0
LINE
  5
220
330
21D
100
AcDbEntity
  8
枠_表
  6
CONTINUOUS
 62
     3
100
AcDbLine
 10
1052.499999880791
 20
494.9999999999991
 30
0.0
 11
1181.0
 21
494.9999999999991
 31
0.0
  0
LINE
  5
221
330
21D
100
AcDbEntity
  8
枠_表
  6
CONTINUOUS
 62
     3
100
AcDbLine
 10
1060.499999880791
 20
509.9999999999991
 30
0.0
 11
1181.0
 21
509.9999999999991
 31
0.0
  0
LINE
  5
222
330
21D
100
AcDbEntity
  8
枠_表
  6
CONTINUOUS
 62
     3
100
AcDbLine
 10
1171.0
 20
494.9999999999991
 30
0.0
 11
1171.0
 21
509.9999999999991
 31
0.0
  0
LINE
  5
223
330
21D
100
AcDbEntity
  8
枠_表
  6
CONTINUOUS
 62
     3
100
AcDbLine
 10
1171.0
 20
464.9999999999991
 30
0.0
 11
1171.0
 21
434.9999999999991
 31
0.0
  0
LINE
  5
224
330
21D
100
AcDbEntity
  8
枠_表
  6
CONTINUOUS
 62
     3
100
AcDbLine
 10
1171.0
 20
539.9999999999991
 30
0.0
 11
1171.0
 21
569.9999999999991
 31
0.0
  0
INSERT
  5
225
330
21D
100
AcDbEntity
  8
枠_表
 62
     3
100
AcDbBlockReference
  2
EX_NORM
 10
1171.0
 20
494.9999999999991
 30
0.0
 41
30.0
 42
30.0
 43
30.0
 50
90.0
  0
INSERT
  5
226
330
21D
100
AcDbEntity
  8
枠_表
 62
     3
100
AcDbBlockReference
  2
EX_NORM
 10
1171.0
 20
509.9999999999991
 30
0.0
 41
30.0
 42
30.0
 43
30.0
 50
270.0
  0
MTEXT
  5
227
330
21D
100
AcDbEntity
  8
枠_表
 62
     2
100
AcDbMText
 10
1147.500000059605
 20
574.9999999999989
 30
0.0
 40
40.0
 41
0.0
 71
     5
 72
     1
  1
16
  7
EXCADDIM1
 11
0.0
 21
1.0
 31
0.0
  0
POINT
  5
228
330
21D
100
AcDbEntity
  8
DEFPOINTS
 62
     0
100
AcDbPoint
 10
1045.5
 20
494.9999999999991
 30
0.0
  0
POINT
  5
229
330
21D
100
AcDbEntity
  8
DEFPOINTS
 62
     0
100
AcDbPoint
 10
1053.5
 20
509.9999999999991
 30
0.0
  0
POINT
  5
22A
330
21D
100
AcDbEntity
  8
DEFPOINTS
 62
     0
100
AcDbPoint
 10
1171.0
 20
509.9999999999991
 30
0.0
  0
ENDBLK
  5
21F
330
21D
100
AcDbEntity
  8
0
100
AcDbBlockEnd
  0
BLOCK
  5
22D
330
22C
100
AcDbEntity
  8
0
100
AcDbBlockBegin
  2
*D23
 70
     1
 10
0.0
 20
0.0
 30
0.0
  3
*D23
  1

  0
LINE
  5
22F
330
22C
100
AcDbEntity
  8
枠_表
  6
CONTINUOUS
 62
     3
100
AcDbLine
 10
1670.5
 20
493.0000001192084
 30
0.0
 11
1670.5
 21
404.9999999999991
 31
0.0
  0
LINE
  5
230
330
22C
100
AcDbEntity
  8
枠_表
  6
CONTINUOUS
 62
     3
100
AcDbLine
 10
1700.5
 20
488.0000001192084
 30
0.0
 11
1700.5
 21
404.9999999999991
 31
0.0
  0
LINE
  5
231
330
22C
100
AcDbEntity
  8
枠_表
  6
CONTINUOUS
 62
     3
100
AcDbLine
 10
1670.5
 20
414.9999999999991
 30
0.0
 11
1700.5
 21
414.9999999999991
 31
0.0
  0
LINE
  5
232
330
22C
100
AcDbEntity
  8
枠_表
  6
CONTINUOUS
 62
     3
100
AcDbLine
 10
1640.5
 20
414.9999999999991
 30
0.0
 11
1610.5
 21
414.9999999999991
 31
0.0
  0
LINE
  5
233
330
22C
100
AcDbEntity
  8
枠_表
  6
CONTINUOUS
 62
     3
100
AcDbLine
 10
1730.5
 20
414.9999999999991
 30
0.0
 11
1760.5
 21
414.9999999999991
 31
0.0
  0
INSERT
  5
234
330
22C
100
AcDbEntity
  8
枠_表
 62
     3
100
AcDbBlockReference
  2
EX_NORM
 10
1670.5
 20
414.9999999999991
 30
0.0
 41
30.0
 42
30.0
 43
30.0
  0
INSERT
  5
235
330
22C
100
AcDbEntity
  8
枠_表
 62
     3
100
AcDbBlockReference
  2
EX_NORM
 10
1700.5
 20
414.9999999999991
 30
0.0
 41
30.0
 42
30.0
 43
30.0
 50
180.0
  0
MTEXT
  5
236
330
22C
100
AcDbEntity
  8
枠_表
 62
     2
100
AcDbMText
 10
1605.5
 20
438.4999999403945
 30
0.0
 40
40.0
 41
0.0
 71
     5
 72
     1
  1
30
  7
EXCADDIM1
  0
POINT
  5
237
330
22C
100
AcDbEntity
  8
DEFPOINTS
 62
     0
100
AcDbPoint
 10
1670.5
 20
499.9999999999991
 30
0.0
  0
POINT
  5
238
330
22C
100
AcDbEntity
  8
DEFPOINTS
 62
     0
100
AcDbPoint
 10
1700.5
 20
494.9999999999991
 30
0.0
  0
POINT
  5
239
330
22C
100
AcDbEntity
  8
DEFPOINTS
 62
     0
100
AcDbPoint
 10
1700.5
 20
414.9999999999991
 30
0.0
  0
ENDBLK
  5
22E
330
22C
100
AcDbEntity
  8
0
100
AcDbBlockEnd
  0
BLOCK
  5
23C
330
23B
100
AcDbEntity
  8
0
100
AcDbBlockBegin
  2
*D24
 70
     1
 10
0.0
 20
0.0
 30
0.0
  3
*D24
  1

  0
LINE
  5
23E
330
23B
100
AcDbEntity
  8
枠_表
  6
CONTINUOUS
 62
     3
100
AcDbLine
 10
1707.499999880791
 20
494.9999999999991
 30
0.0
 11
1802.000000000001
 21
494.9999999999991
 31
0.0
  0
LINE
  5
23F
330
23B
100
AcDbEntity
  8
枠_表
  6
CONTINUOUS
 62
     3
100
AcDbLine
 10
1739.999999880791
 20
544.9999999999991
 30
0.0
 11
1802.000000000001
 21
544.9999999999991
 31
0.0
  0
LINE
  5
240
330
23B
100
AcDbEntity
  8
枠_表
  6
CONTINUOUS
 62
     3
100
AcDbLine
 10
1792.000000000001
 20
494.9999999999991
 30
0.0
 11
1792.000000000001
 21
544.9999999999991
 31
0.0
  0
LINE
  5
241
330
23B
100
AcDbEntity
  8
枠_表
  6
CONTINUOUS
 62
     3
100
AcDbLine
 10
1792.000000000001
 20
464.9999999999991
 30
0.0
 11
1792.000000000001
 21
434.9999999999991
 31
0.0
  0
LINE
  5
242
330
23B
100
AcDbEntity
  8
枠_表
  6
CONTINUOUS
 62
     3
100
AcDbLine
 10
1792.000000000001
 20
574.9999999999991
 30
0.0
 11
1792.000000000001
 21
604.9999999999991
 31
0.0
  0
INSERT
  5
243
330
23B
100
AcDbEntity
  8
枠_表
 62
     3
100
AcDbBlockReference
  2
EX_NORM
 10
1792.000000000001
 20
494.9999999999991
 30
0.0
 41
30.0
 42
30.0
 43
30.0
 50
90.0
  0
INSERT
  5
244
330
23B
100
AcDbEntity
  8
枠_表
 62
     3
100
AcDbBlockReference
  2
EX_NORM
 10
1792.000000000001
 20
544.9999999999991
 30
0.0
 41
30.0
 42
30.0
 43
30.0
 50
270.0
  0
MTEXT
  5
245
330
23B
100
AcDbEntity
  8
枠_表
 62
     2
100
AcDbMText
 10
1768.500000059605
 20
429.9999999999986
 30
0.0
 40
40.0
 41
0.0
 71
     5
 72
     1
  1
48
  7
EXCADDIM1
 11
0.0
 21
1.0
 31
0.0
  0
POINT
  5
246
330
23B
100
AcDbEntity
  8
DEFPOINTS
 62
     0
100
AcDbPoint
 10
1700.5
 20
494.9999999999991
 30
0.0
  0
POINT
  5
247
330
23B
100
AcDbEntity
  8
DEFPOINTS
 62
     0
100
AcDbPoint
 10
1733.0
 20
544.9999999999991
 30
0.0
  0
POINT
  5
248
330
23B
100
AcDbEntity
  8
DEFPOINTS
 62
     0
100
AcDbPoint
 10
1792.000000000001
 20
544.9999999999991
 30
0.0
  0
ENDBLK
  5
23D
330
23B
100
AcDbEntity
  8
0
100
AcDbBlockEnd
  0
BLOCK
  5
24B
330
24A
100
AcDbEntity
  8
0
100
AcDbBlockBegin
  2
*D25
 70
     1
 10
0.0
 20
0.0
 30
0.0
  3
*D25
  1

  0
LINE
  5
24D
330
24A
100
AcDbEntity
  8
枠_表
  6
CONTINUOUS
 62
     3
100
AcDbLine
 10
1739.999999880791
 20
544.9999999999991
 30
0.0
 11
1802.0
 21
544.9999999999991
 31
0.0
  0
LINE
  5
24E
330
24A
100
AcDbEntity
  8
枠_表
  6
CONTINUOUS
 62
     3
100
AcDbLine
 10
1739.999999880791
 20
944.9999999999991
 30
0.0
 11
1802.0
 21
944.9999999999991
 31
0.0
  0
LINE
  5
24F
330
24A
100
AcDbEntity
  8
枠_表
  6
CONTINUOUS
 62
     3
100
AcDbLine
 10
1792.0
 20
574.9999999999991
 30
0.0
 11
1792.0
 21
914.9999999999991
 31
0.0
  0
INSERT
  5
250
330
24A
100
AcDbEntity
  8
枠_表
 62
     3
100
AcDbBlockReference
  2
EX_NORM
 10
1792.0
 20
544.9999999999991
 30
0.0
 41
30.0
 42
30.0
 43
30.0
 50
270.0
  0
INSERT
  5
251
330
24A
100
AcDbEntity
  8
枠_表
 62
     3
100
AcDbBlockReference
  2
EX_NORM
 10
1792.0
 20
944.9999999999991
 30
0.0
 41
30.0
 42
30.0
 43
30.0
 50
90.0
  0
MTEXT
  5
252
330
24A
100
AcDbEntity
  8
枠_表
 62
     2
100
AcDbMText
 10
1768.500000059605
 20
744.9999999999991
 30
0.0
 40
40.0
 41
0.0
 71
     5
 72
     1
  1
400
  7
EXCADDIM1
 11
0.0
 21
1.0
 31
0.0
  0
POINT
  5
253
330
24A
100
AcDbEntity
  8
DEFPOINTS
 62
     0
100
AcDbPoint
 10
1733.0
 20
544.9999999999991
 30
0.0
  0
POINT
  5
254
330
24A
100
AcDbEntity
  8
DEFPOINTS
 62
     0
100
AcDbPoint
 10
1733.0
 20
944.9999999999991
 30
0.0
  0
POINT
  5
255
330
24A
100
AcDbEntity
  8
DEFPOINTS
 62
     0
100
AcDbPoint
 10
1792.0
 20
944.9999999999991
 30
0.0
  0
ENDBLK
  5
24C
330
24A
100
AcDbEntity
  8
0
100
AcDbBlockEnd
  0
BLOCK
  5
258
330
257
100
AcDbEntity
  8
0
100
AcDbBlockBegin
  2
*D26
 70
     1
 10
0.0
 20
0.0
 30
0.0
  3
*D26
  1

  0
LINE
  5
25A
330
257
100
AcDbEntity
  8
枠_表
  6
CONTINUOUS
 62
     3
100
AcDbLine
 10
1739.999999880791
 20
944.9999999999991
 30
0.0
 11
1802.0
 21
944.9999999999992
 31
0.0
  0
LINE
  5
25B
330
257
100
AcDbEntity
  8
枠_表
  6
CONTINUOUS
 62
     3
100
AcDbLine
 10
1739.999999880791
 20
1444.999999999999
 30
0.0
 11
1802.0
 21
1444.999999999999
 31
0.0
  0
LINE
  5
25C
330
257
100
AcDbEntity
  8
枠_表
  6
CONTINUOUS
 62
     3
100
AcDbLine
 10
1792.0
 20
974.9999999999992
 30
0.0
 11
1792.0
 21
1414.999999999999
 31
0.0
  0
INSERT
  5
25D
330
257
100
AcDbEntity
  8
枠_表
 62
     3
100
AcDbBlockReference
  2
EX_NORM
 10
1792.0
 20
944.9999999999992
 30
0.0
 41
30.0
 42
30.0
 43
30.0
 50
270.0
  0
INSERT
  5
25E
330
257
100
AcDbEntity
  8
枠_表
 62
     3
100
AcDbBlockReference
  2
EX_NORM
 10
1792.0
 20
1444.999999999999
 30
0.0
 41
30.0
 42
30.0
 43
30.0
 50
90.0
  0
MTEXT
  5
25F
330
257
100
AcDbEntity
  8
枠_表
 62
     2
100
AcDbMText
 10
1768.500000059605
 20
1194.999999999999
 30
0.0
 40
40.0
 41
0.0
 71
     5
 72
     1
  1
500
  7
EXCADDIM1
 11
0.0
 21
1.0
 31
0.0
  0
POINT
  5
260
330
257
100
AcDbEntity
  8
DEFPOINTS
 62
     0
100
AcDbPoint
 10
1733.0
 20
944.9999999999991
 30
0.0
  0
POINT
  5
261
330
257
100
AcDbEntity
  8
DEFPOINTS
 62
     0
100
AcDbPoint
 10
1733.0
 20
1444.999999999999
 30
0.0
  0
POINT
  5
262
330
257
100
AcDbEntity
  8
DEFPOINTS
 62
     0
100
AcDbPoint
 10
1792.0
 20
1444.999999999999
 30
0.0
  0
ENDBLK
  5
259
330
257
100
AcDbEntity
  8
0
100
AcDbBlockEnd
  0
BLOCK
  5
267
330
266
100
AcDbEntity
  8
0
100
AcDbBlockBegin
  2
*D27
 70
     1
 10
0.0
 20
0.0
 30
0.0
  3
*D27
  1

  0
LINE
  5
269
330
266
100
AcDbEntity
  8
枠_表
  6
CONTINUOUS
 62
     3
100
AcDbLine
 10
1523.5
 20
1617.99999988079
 30
0.0
 11
1523.5
 21
1694.999999999999
 31
0.0
  0
LINE
  5
26A
330
266
100
AcDbEntity
  8
枠_表
  6
CONTINUOUS
 62
     3
100
AcDbLine
 10
1700.5
 20
1631.99999988079
 30
0.0
 11
1700.5
 21
1694.999999999999
 31
0.0
  0
LINE
  5
26B
330
266
100
AcDbEntity
  8
枠_表
  6
CONTINUOUS
 62
     3
100
AcDbLine
 10
1553.5
 20
1684.999999999999
 30
0.0
 11
1670.5
 21
1684.999999999999
 31
0.0
  0
INSERT
  5
26C
330
266
100
AcDbEntity
  8
枠_表
 62
     3
100
AcDbBlockReference
  2
EX_NORM
 10
1523.5
 20
1684.999999999999
 30
0.0
 41
30.0
 42
30.0
 43
30.0
 50
180.0
  0
INSERT
  5
26D
330
266
100
AcDbEntity
  8
枠_表
 62
     3
100
AcDbBlockReference
  2
EX_NORM
 10
1700.5
 20
1684.999999999999
 30
0.0
 41
30.0
 42
30.0
 43
30.0
  0
MTEXT
  5
26E
330
266
100
AcDbEntity
  8
枠_表
 62
     2
100
AcDbMText
 10
1612.0
 20
1708.499999940394
 30
0.0
 40
40.0
 41
0.0
 71
     5
 72
     1
  1
177
  7
EXCADDIM1
  0
POINT
  5
26F
330
266
100
AcDbEntity
  8
DEFPOINTS
 62
     0
100
AcDbPoint
 10
1523.5
 20
1610.999999999999
 30
0.0
  0
POINT
  5
270
330
266
100
AcDbEntity
  8
DEFPOINTS
 62
     0
100
AcDbPoint
 10
1700.5
 20
1624.999999999999
 30
0.0
  0
POINT
  5
271
330
266
100
AcDbEntity
  8
DEFPOINTS
 62
     0
100
AcDbPoint
 10
1700.5
 20
1684.999999999999
 30
0.0
  0
ENDBLK
  5
268
330
266
100
AcDbEntity
  8
0
100
AcDbBlockEnd
  0
BLOCK
  5
274
330
273
100
AcDbEntity
  8
0
100
AcDbBlockBegin
  2
*D28
 70
     1
 10
0.0
 20
0.0
 30
0.0
  3
*D28
  1

  0
LINE
  5
276
330
273
100
AcDbEntity
  8
寸法
  6
CONTINUOUS
 62
     3
100
AcDbLine
 10
1577.0
 20
766.9999998807907
 30
0.0
 11
1577.0
 21
837.0
 31
0.0
  0
LINE
  5
277
330
273
100
AcDbEntity
  8
寸法
  6
CONTINUOUS
 62
     3
100
AcDbLine
 10
1700.5
 20
805.9999998807907
 30
0.0
 11
1700.5
 21
837.0
 31
0.0
  0
LINE
  5
278
330
273
100
AcDbEntity
  8
寸法
  6
CONTINUOUS
 62
     3
100
AcDbLine
 10
1607.0
 20
827.0
 30
0.0
 11
1670.5
 21
827.0
 31
0.0
  0
INSERT
  5
279
330
273
100
AcDbEntity
  8
寸法
 62
     3
100
AcDbBlockReference
  2
EX_NORM
 10
1577.0
 20
827.0
 30
0.0
 41
30.0
 42
30.0
 43
30.0
 50
180.0
  0
INSERT
  5
27A
330
273
100
AcDbEntity
  8
寸法
 62
     3
100
AcDbBlockReference
  2
EX_NORM
 10
1700.5
 20
827.0
 30
0.0
 41
30.0
 42
30.0
 43
30.0
  0
MTEXT
  5
27B
330
273
100
AcDbEntity
  8
寸法
 62
     2
100
AcDbMText
 10
1477.0
 20
850.4999999403954
 30
0.0
 40
40.0
 41
0.0
 71
     5
 72
     1
  1
123.5
  7
EXCADDIM1
  0
POINT
  5
27C
330
273
100
AcDbEntity
  8
DEFPOINTS
 62
     0
100
AcDbPoint
 10
1577.0
 20
760.0
 30
0.0
  0
POINT
  5
27D
330
273
100
AcDbEntity
  8
DEFPOINTS
 62
     0
100
AcDbPoint
 10
1700.5
 20
799.0
 30
0.0
  0
POINT
  5
27E
330
273
100
AcDbEntity
  8
DEFPOINTS
 62
     0
100
AcDbPoint
 10
1700.5
 20
827.0
 30
0.0
  0
ENDBLK
  5
275
330
273
100
AcDbEntity
  8
0
100
AcDbBlockEnd
  0
ENDSEC
  0
SECTION
  2
ENTITIES
  0
ARC
  5
A8
330
1F
100
AcDbEntity
  8
0
  6
CONTINUOUS
 62
     3
100
AcDbCircle
 10
81.46121191528124
 20
17.75611012269383
 30
0.0
 40
1.766683515327064
100
AcDbArc
 50
88.77000393305703
 51
128.9068631829044
  0
ARC
  5
A9
330
1F
100
AcDbEntity
  8
0
  6
CONTINUOUS
 62
     3
100
AcDbCircle
 10
81.54142140005392
 20
18.49635349315813
 30
0.0
 40
1.02690407511459
100
AcDbArc
 50
4.148222840814693
 51
92.36000944257292
  0
ARC
  5
AA
330
1F
100
AcDbEntity
  8
0
  6
CONTINUOUS
 62
     3
100
AcDbCircle
 10
127.899372257897
 20
17.18767567274228
 30
0.0
 40
45.35482655865662
100
AcDbArc
 50
178.2526643324597
 51
180.6439560401927
  0
ARC
  5
AB
330
1F
100
AcDbEntity
  8
0
  6
CONTINUOUS
 62
     3
100
AcDbCircle
 10
82.85259856848637
 20
16.67746652122974
 30
0.0
 40
0.305188683107389
100
AcDbArc
 50
179.9117548191414
 51
236.1065985968857
  0
ARC
  5
AC
330
1F
100
AcDbEntity
  8
0
  6
CONTINUOUS
 62
     3
100
AcDbCircle
 10
82.8167794586056
 20
16.69504912083588
 30
0.0
 40
0.30240485913648
100
AcDbArc
 50
243.6191685566582
 51
297.5097757939563
  0
LINE
  5
AD
330
1F
100
AcDbEntity
  8
0
  6
CONTINUOUS
 62
     3
100
AcDbLine
 10
82.956460247351
 20
16.26956156317904
 30
0.0
 11
82.956460247351
 21
16.42683656317904
 31
0.0
  0
LINE
  5
AE
330
1F
100
AcDbEntity
  8
0
  6
CONTINUOUS
 62
     3
100
AcDbLine
 10
82.42523524735104
 20
16.20408656317904
 30
0.0
 11
82.64258524735101
 21
16.20408656317904
 31
0.0
  0
ARC
  5
AF
330
1F
100
AcDbEntity
  8
0
  6
CONTINUOUS
 62
     3
100
AcDbCircle
 10
82.62431759348192
 20
17.05908236165528
 30
0.0
 40
0.856540620020894
100
AcDbArc
 50
271.2220539293239
 51
292.8159509797653
  0
ARC
  5
B0
330
1F
100
AcDbEntity
  8
0
  6
CONTINUOUS
 62
     3
100
AcDbCircle
 10
82.46373602484064
 20
16.6281117987113
 30
0.0
 40
0.425769550620398
100
AcDbArc
 50
217.4081478714985
 51
264.8118660441384
  0
ARC
  5
B1
330
1F
100
AcDbEntity
  8
0
  6
CONTINUOUS
 62
     3
100
AcDbCircle
 10
82.51751427960914
 20
16.65936317608228
 30
0.0
 40
0.487535134009722
100
AcDbArc
 50
187.1167640402297
 51
216.4860549324747
  0
ARC
  5
B2
330
1F
100
AcDbEntity
  8
0
  6
CONTINUOUS
 62
     3
100
AcDbCircle
 10
81.00048913269609
 20
17.48977749599323
 30
0.0
 40
1.364239920103932
100
AcDbArc
 50
275.2158792069686
 51
319.2336424873511
  0
LINE
  5
B3
330
1F
100
AcDbEntity
  8
0
  6
CONTINUOUS
 62
     3
100
AcDbLine
 10
80.85046024735098
 20
16.13118656317905
 30
0.0
 11
81.12451024735105
 21
16.13118656317905
 31
0.0
  0
ARC
  5
B4
330
1F
100
AcDbEntity
  8
0
  6
CONTINUOUS
 62
     3
100
AcDbCircle
 10
80.86363998139358
 20
16.76407217729907
 30
0.0
 40
0.633022832091786
100
AcDbArc
 50
252.3384873625213
 51
268.8069976857606
  0
ARC
  5
B5
330
1F
100
AcDbEntity
  8
0
  6
CONTINUOUS
 62
     3
100
AcDbCircle
 10
80.87998820439486
 20
16.97554828115094
 30
0.0
 40
0.840895657756366
100
AcDbArc
 50
224.289750990011
 51
255.6505938786759
  0
ARC
  5
B6
330
1F
100
AcDbEntity
  8
0
  6
CONTINUOUS
 62
     3
100
AcDbCircle
 10
80.84351200318103
 20
16.93458744915359
 30
0.0
 40
0.78619234712629
100
AcDbArc
 50
185.9586126338419
 51
224.0091989319859
  0
ARC
  5
B7
330
1F
100
AcDbEntity
  8
0
  6
CONTINUOUS
 62
     3
100
AcDbCircle
 10
80.92510885972592
 20
16.97202435890243
 30
0.0
 40
0.871709372588669
100
AcDbArc
 50
164.8589457925044
 51
187.8495628504518
  0
ARC
  5
B8
330
1F
100
AcDbEntity
  8
0
  6
CONTINUOUS
 62
     3
100
AcDbCircle
 10
80.7740824643275
 20
17.05810055843299
 30
0.0
 40
0.704795370557922
100
AcDbArc
 50
129.8344892359069
 51
168.4089447024628
  0
ARC
  5
B9
330
1F
100
AcDbEntity
  8
0
  6
CONTINUOUS
 62
     3
100
AcDbCircle
 10
81.14406006078386
 20
16.59052204825368
 30
0.0
 40
1.30093661698492
100
AcDbArc
 50
102.0988446293839
 51
129.1556705448828
  0
ARC
  5
BA
330
1F
100
AcDbEntity
  8
0
  6
CONTINUOUS
 62
     3
100
AcDbCircle
 10
78.91965967388387
 20
30.40645753117708
 30
0.0
 40
12.69482409370382
100
AcDbArc
 50
278.8438342053764
 51
282.6649181367123
  0
ARC
  5
BB
330
1F
100
AcDbEntity
  8
0
  6
CONTINUOUS
 62
     3
100
AcDbCircle
 10
81.46868917513495
 20
19.05851086031246
 30
0.0
 40
1.064113335272784
100
AcDbArc
 50
282.7195832898965
 51
295.6781112778079
  0
ARC
  5
BC
330
1F
100
AcDbEntity
  8
0
  6
CONTINUOUS
 62
     3
100
AcDbCircle
 10
81.86666823075943
 20
18.25955055846786
 30
0.0
 40
0.172058828228131
100
AcDbArc
 50
291.5204897073511
 51
349.3445900274031
  0
ARC
  5
BD
330
1F
100
AcDbEntity
  8
0
  6
CONTINUOUS
 62
     3
100
AcDbCircle
 10
80.73489740969168
 20
18.38673593717623
 30
0.0
 40
1.310543751018921
100
AcDbArc
 50
353.0315250986587
 51
7.839947970678348
  0
ARC
  5
BE
330
1F
100
AcDbEntity
  8
0
  6
CONTINUOUS
 62
     3
100
AcDbCircle
 10
81.32719280220289
 20
18.52185609495918
 30
0.0
 40
0.707346538626002
100
AcDbArc
 50
3.537639967999379
 51
74.8013566619203
  0
ARC
  5
BF
330
1F
100
AcDbEntity
  8
0
  6
CONTINUOUS
 62
     3
100
AcDbCircle
 10
81.28234963200912
 20
18.18827553855518
 30
0.0
 40
1.04195273466423
100
AcDbArc
 50
77.23143261361693
 51
105.203415964315
  0
ARC
  5
C0
330
1F
100
AcDbEntity
  8
0
  6
CONTINUOUS
 62
     3
100
AcDbCircle
 10
81.21689485105588
 20
18.32333915200382
 30
0.0
 40
0.894881105176719
100
AcDbArc
 50
103.4267945469744
 51
150.3242613737993
  0
LINE
  5
C1
330
1F
100
AcDbEntity
  8
0
  6
CONTINUOUS
 62
     3
100
AcDbLine
 10
80.35163524735106
 20
19.13088656317905
 30
0.0
 11
80.35163524735106
 21
18.76638656317905
 31
0.0
  0
ARC
  5
C2
330
1F
100
AcDbEntity
  8
0
  6
CONTINUOUS
 62
     3
100
AcDbCircle
 10
70.84875432629677
 20
16.66786485265287
 30
0.0
 40
6.967015049800598
100
AcDbArc
 50
353.1274757312911
 51
357.106204490141
  0
ARC
  5
C3
330
1F
100
AcDbEntity
  8
0
  6
CONTINUOUS
 62
     3
100
AcDbCircle
 10
28.36821388631915
 20
19.04641059181337
 30
0.0
 40
49.51400430399008
100
AcDbArc
 50
356.8390243485978
 51
2.971133813187157
  0
ARC
  5
C4
330
1F
100
AcDbEntity
  8
0
  6
CONTINUOUS
 62
     3
100
AcDbCircle
 10
77.04363253898626
 20
16.02851241815413
 30
0.0
 40
0.747769185530633
100
AcDbArc
 50
314.592391474832
 51
344.9374073189123
  0
ARC
  5
C5
330
1F
100
AcDbEntity
  8
0
  6
CONTINUOUS
 62
     3
100
AcDbCircle
 10
76.81783157088044
 20
16.46203582788489
 30
0.0
 40
1.223467000390025
100
AcDbArc
 50
288.1715191042997
 51
307.8537826235693
  0
LINE
  5
C6
330
1F
100
AcDbEntity
  8
0
  6
CONTINUOUS
 62
     3
100
AcDbLine
 10
77.32291024735102
 20
14.92361156317904
 30
0.0
 11
77.19938524735102
 21
15.29958656317904
 31
0.0
  0
ARC
  5
C7
330
1F
100
AcDbEntity
  8
0
  6
CONTINUOUS
 62
     3
100
AcDbCircle
 10
77.04391617269255
 20
17.16666876257886
 30
0.0
 40
2.260341410821362
100
AcDbArc
 50
277.0901027239701
 51
290.9134154817058
  0
ARC
  5
C8
330
1F
100
AcDbEntity
  8
0
  6
CONTINUOUS
 62
     3
100
AcDbCircle
 10
77.37333195288082
 20
16.68827241969331
 30
0.0
 40
1.701394688196115
100
AcDbArc
 50
286.2966123578915
 51
329.973223283839
  0
ARC
  5
C9
330
1F
100
AcDbEntity
  8
0
  6
CONTINUOUS
 62
     3
100
AcDbCircle
 10
76.78335229193218
 20
16.79075080222593
 30
0.0
 40
2.272875263114311
100
AcDbArc
 50
335.1860595856123
 51
1.308075913059364
  0
ARC
  5
CA
330
1F
100
AcDbEntity
  8
0
  6
CONTINUOUS
 62
     3
100
AcDbCircle
 10
143.9886118153694
 20
18.52404084293345
 30
0.0
 40
64.95474244683605
100
AcDbArc
 50
177.2695926307304
 51
181.4833117237826
  0
ARC
  5
CB
330
1F
100
AcDbEntity
  8
0
  6
CONTINUOUS
 62
     3
100
AcDbCircle
 10
78.44344067524872
 20
25.96861293864723
 30
0.0
 40
4.400758833490466
100
AcDbArc
 50
261.7986203004403
 51
278.6803384946418
  0
ARC
  5
CC
330
1F
100
AcDbEntity
  8
0
  6
CONTINUOUS
 62
     3
100
AcDbCircle
 10
80.89491966756331
 20
21.86945104503006
 30
0.0
 40
4.136406814694017
100
AcDbArc
 50
278.4088456599976
 51
286.1851416003176
  0
ARC
  5
CD
330
1F
100
AcDbEntity
  8
0
  6
CONTINUOUS
 62
     3
100
AcDbCircle
 10
81.79096519160305
 20
15.87762586010476
 30
0.0
 40
1.922065786155208
100
AcDbArc
 50
98.71271710191789
 51
115.2874718053599
  0
ARC
  5
CE
330
1F
100
AcDbEntity
  8
0
  6
CONTINUOUS
 62
     3
100
AcDbCircle
 10
81.2413773424044
 20
17.0525120238968
 30
0.0
 40
0.625019433457053
100
AcDbArc
 50
115.7403688633493
 51
172.5491744442191
  0
LINE
  5
CF
330
1F
100
AcDbEntity
  8
0
  6
CONTINUOUS
 62
     3
100
AcDbLine
 10
80.62163524735102
 20
17.13356156317905
 30
0.0
 11
80.62163524735102
 21
16.93781156317904
 31
0.0
  0
ARC
  5
D0
330
1F
100
AcDbEntity
  8
0
  6
CONTINUOUS
 62
     3
100
AcDbCircle
 10
81.20395520891343
 20
16.96905103440281
 30
0.0
 40
0.583157304846997
100
AcDbArc
 50
183.0707787095794
 51
263.4402016072427
  0
LINE
  5
D1
330
1F
100
AcDbEntity
  8
0
  6
CONTINUOUS
 62
     3
100
AcDbLine
 10
81.137335247351
 20
16.38971156317905
 30
0.0
 11
81.31081024735104
 21
16.38971156317905
 31
0.0
  0
ARC
  5
D2
330
1F
100
AcDbEntity
  8
0
  6
CONTINUOUS
 62
     3
100
AcDbCircle
 10
81.1668055816852
 20
17.37280212872707
 30
0.0
 40
0.993581603997916
100
AcDbArc
 50
278.3335103000368
 51
329.1221464187299
  0
ARC
  5
D3
330
1F
100
AcDbEntity
  8
0
  6
CONTINUOUS
 62
     3
100
AcDbCircle
 10
-2246.867183543709
 20
81.22708968930328
 30
0.0
 40
2329.776001260591
100
AcDbArc
 50
358.4169008257799
 51
358.4423418242109
  0
ARC
  5
D4
330
1F
100
AcDbEntity
  8
0
  6
CONTINUOUS
 62
     3
100
AcDbCircle
 10
83.99244647471915
 20
12.24512977854208
 30
0.0
 40
3.968909094418497
100
AcDbArc
 50
85.07099551674689
 51
93.91830029343228
  0
ARC
  5
D5
330
1F
100
AcDbEntity
  8
0
  6
CONTINUOUS
 62
     3
100
AcDbCircle
 10
91.67524446353643
 20
17.08593870352311
 30
0.0
 40
7.395120993114926
100
AcDbArc
 50
179.8977458165987
 51
186.8855675734268
  0
ARC
  5
D6
330
1F
100
AcDbEntity
  8
0
  6
CONTINUOUS
 62
     3
100
AcDbCircle
 10
85.39097589769001
 20
18.20238948480556
 30
0.0
 40
1.108398956318131
100
AcDbArc
 50
134.9787476233347
 51
181.2369872983282
  0
ARC
  5
D7
330
1F
100
AcDbEntity
  8
0
  6
CONTINUOUS
 62
     3
100
AcDbCircle
 10
85.13536012608134
 20
18.31809996481188
 30
0.0
 40
0.851645057047003
100
AcDbArc
 50
42.91644474042847
 51
128.3015542351336
  0
ARC
  5
D8
330
1F
100
AcDbEntity
  8
0
  6
CONTINUOUS
 62
     3
100
AcDbCircle
 10
84.82883271971129
 20
18.2975886216405
 30
0.0
 40
1.107172507744154
100
AcDbArc
 50
359.2495022237244
 51
32.84055016678327
  0
ARC
  5
D9
330
1F
100
AcDbEntity
  8
0
  6
CONTINUOUS
 62
     3
100
AcDbCircle
 10
69.4460924605234
 20
17.47195061224961
 30
0.0
 40
16.50975566668588
100
AcDbArc
 50
355.5862454873798
 51
2.816115806820253
  0
ARC
  5
DA
330
1F
100
AcDbEntity
  8
0
  6
CONTINUOUS
 62
     3
100
AcDbCircle
 10
86.19207274735106
 20
13.05458985265276
 30
0.0
 40
3.159693252126744
100
AcDbArc
 50
84.82155189294139
 51
95.17844810705873
  0
ARC
  5
DB
330
1F
100
AcDbEntity
  8
0
  6
CONTINUOUS
 62
     3
100
AcDbCircle
 10
102.8001220401958
 20
16.98511098081632
 30
0.0
 40
16.34166579853822
100
AcDbArc
 50
176.2131780319488
 51
182.7488833337936
  0
ARC
  5
DC
330
1F
100
AcDbEntity
  8
0
  6
CONTINUOUS
 62
     3
100
AcDbCircle
 10
80.3534946861266
 20
18.22759498154639
 30
0.0
 40
6.142809087866958
100
AcDbArc
 50
358.4775281223095
 51
2.117232414210064
  0
ARC
  5
DD
330
1F
100
AcDbEntity
  8
0
  6
CONTINUOUS
 62
     3
100
AcDbCircle
 10
85.31341382747426
 20
18.45729665794022
 30
0.0
 40
1.17869965146059
100
AcDbArc
 50
359.8658335690532
 51
34.49363429411157
  0
ARC
  5
DE
330
1F
100
AcDbEntity
  8
0
  6
CONTINUOUS
 62
     3
100
AcDbCircle
 10
85.51159924816368
 20
18.58648388140492
 30
0.0
 40
0.94221437555554
100
AcDbArc
 50
34.84393737091607
 51
92.5207065423111
  0
ARC
  5
DF
330
1F
100
AcDbEntity
  8
0
  6
CONTINUOUS
 62
     3
100
AcDbCircle
 10
85.40976936405151
 20
18.187197121611
 30
0.0
 40
1.34194899665726
100
AcDbArc
 50
87.42068310381028
 51
147.4361518966862
  0
ARC
  5
E0
330
1F
100
AcDbEntity
  8
0
  6
CONTINUOUS
 62
     3
100
AcDbCircle
 10
88.04010594798763
 20
19.00229404725551
 30
0.0
 40
3.762465500458181
100
AcDbArc
 50
172.9875214416311
 51
181.4134392789641
  0
ARC
  5
E1
330
1F
100
AcDbEntity
  8
0
  6
CONTINUOUS
 62
     3
100
AcDbCircle
 10
84.00518717263837
 20
20.61650603156984
 30
0.0
 40
1.193349358546016
100
AcDbArc
 50
255.9341994177206
 51
284.5896440601899
  0
ARC
  5
E2
330
1F
100
AcDbEntity
  8
0
  6
CONTINUOUS
 62
     3
100
AcDbCircle
 10
63.34612856074196
 20
17.79381782014245
 30
0.0
 40
20.43697806131072
100
AcDbArc
 50
355.5405243117485
 51
4.673398698656258
  0
LINE
  5
E3
330
1F
100
AcDbEntity
  8
0
  6
CONTINUOUS
 62
     3
100
AcDbLine
 10
84.28283524735102
 20
18.17846156317905
 30
0.0
 11
84.28283524735102
 21
17.09913656317904
 31
0.0
  0
CIRCLE
  5
E4
330
1F
100
AcDbEntity
  8
0
  6
CONTINUOUS
 62
     3
100
AcDbCircle
 10
87.96291007785953
 20
20.65279190216209
 30
0.0
 40
0.357233446676989
  0
ARC
  5
E5
330
1F
100
AcDbEntity
  8
0
  6
CONTINUOUS
 62
     3
100
AcDbCircle
 10
87.94891943430329
 20
20.74776197700576
 30
0.0
 40
1.319228548840207
100
AcDbArc
 50
256.6209501743446
 51
283.9984576255729
  0
ARC
  5
E6
330
1F
100
AcDbEntity
  8
0
  6
CONTINUOUS
 62
     3
100
AcDbCircle
 10
87.97579956773934
 20
9.674241417548298
 30
0.0
 40
6.532859485251088
100
AcDbArc
 50
87.46575055044718
 51
92.90832285102188
  0
ARC
  5
E7
330
1F
100
AcDbEntity
  8
0
  6
CONTINUOUS
 62
     3
100
AcDbCircle
 10
108.5597633919817
 20
17.81324729081888
 30
0.0
 40
20.35906390589
100
AcDbArc
 50
175.3387608397566
 51
184.5428594926176
  0
ARC
  5
E8
330
1F
100
AcDbEntity
  8
0
  6
CONTINUOUS
 62
     3
100
AcDbCircle
 10
65.50336442766468
 20
17.82693516108735
 30
0.0
 40
22.20076085035812
100
AcDbArc
 50
355.7940354718673
 51
4.229650257234378
  0
ARC
  5
E9
330
1F
100
AcDbEntity
  8
0
  6
CONTINUOUS
 62
     3
100
AcDbCircle
 10
122.4988039973074
 20
100.497411563067
 30
0.0
 40
87.02800228963156
100
AcDbArc
 50
248.6422112053103
 51
248.8567777804232
  0
ARC
  5
EA
330
1F
100
AcDbEntity
  8
0
  6
CONTINUOUS
 62
     3
100
AcDbCircle
 10
90.41978695863169
 20
18.51106761706451
 30
0.0
 40
1.010907867592157
100
AcDbArc
 50
67.66151957087348
 51
88.69073168448988
  0
ARC
  5
EB
330
1F
100
AcDbEntity
  8
0
  6
CONTINUOUS
 62
     3
100
AcDbCircle
 10
90.31146911686506
 20
18.20422821280107
 30
0.0
 40
1.319974865367525
100
AcDbArc
 50
92.38301574576484
 51
114.9635286746436
  0
ARC
  5
EC
330
1F
100
AcDbEntity
  8
0
  6
CONTINUOUS
 62
     3
100
AcDbCircle
 10
90.21399364202212
 20
18.51453014444364
 30
0.0
 40
0.99843256030919
100
AcDbArc
 50
117.4083995939977
 51
176.1964688215695
  0
ARC
  5
ED
330
1F
100
AcDbEntity
  8
0
  6
CONTINUOUS
 62
     3
100
AcDbCircle
 10
89.89035125328601
 20
18.41636492418026
 30
0.0
 40
0.669372605905611
100
AcDbArc
 50
181.2393899443581
 51
226.5942921332421
  0
ARC
  5
EE
330
1F
100
AcDbEntity
  8
0
  6
CONTINUOUS
 62
     3
100
AcDbCircle
 10
90.28704013202102
 20
18.81840134349182
 30
0.0
 40
1.234100950779567
100
AcDbArc
 50
226.0402388947521
 51
253.1776672992999
  0
ARC
  5
EF
330
1F
100
AcDbEntity
  8
0
  6
CONTINUOUS
 62
     3
100
AcDbCircle
 10
89.2515075923303
 20
14.78900865097706
 30
0.0
 40
2.927778413972754
100
AcDbArc
 50
63.49050203733571
 51
76.60259219849584
  0
ARC
  5
F0
330
1F
100
AcDbEntity
  8
0
  6
CONTINUOUS
 62
     3
100
AcDbCircle
 10
90.3651591325627
 20
16.99289948775663
 30
0.0
 40
0.458710152219014
100
AcDbArc
 50
6.53892419415897
 51
65.09756080693691
  0
ARC
  5
F1
330
1F
100
AcDbEntity
  8
0
  6
CONTINUOUS
 62
     3
100
AcDbCircle
 10
90.23793644849113
 20
16.96446087099663
 30
0.0
 40
0.594395491876676
100
AcDbArc
 50
270.8867385422408
 51
352.7925382056677
  0
ARC
  5
F2
330
1F
100
AcDbEntity
  8
0
  6
CONTINUOUS
 62
     3
100
AcDbCircle
 10
90.19796910637461
 20
17.26102363119879
 30
0.0
 40
0.898004035462527
100
AcDbArc
 50
207.7689879465537
 51
262.7817283832026
  0
ARC
  5
F3
330
1F
100
AcDbEntity
  8
0
  6
CONTINUOUS
 62
     3
100
AcDbCircle
 10
90.01365921995372
 20
17.87600300153525
 30
0.0
 40
1.75327631578002
100
AcDbArc
 50
241.8829576087176
 51
265.9354096935781
  0
ARC
  5
F4
330
1F
100
AcDbEntity
  8
0
  6
CONTINUOUS
 62
     3
100
AcDbCircle
 10
90.1809975387016
 20
17.26136190460545
 30
0.0
 40
1.134515058180645
100
AcDbArc
 50
271.2948770866743
 51
348.6654156292868
  0
ARC
  5
F5
330
1F
100
AcDbEntity
  8
0
  6
CONTINUOUS
 62
     3
100
AcDbCircle
 10
90.55481588694552
 20
17.24660981874074
 30
0.0
 40
0.746245075729606
100
AcDbArc
 50
6.154262763177246
 51
76.17509904255616
  0
ARC
  5
F6
330
1F
100
AcDbEntity
  8
0
  6
CONTINUOUS
 62
     3
100
AcDbCircle
 10
91.98820537094657
 20
23.18803033846007
 30
0.0
 40
5.36564425851668
100
AcDbArc
 50
249.6420733479936
 51
256.4727051201885
  0
ARC
  5
F7
330
1F
100
AcDbEntity
  8
0
  6
CONTINUOUS
 62
     3
100
AcDbCircle
 10
90.34157219790048
 20
18.82582365109112
 30
0.0
 40
0.703563707337184
100
AcDbArc
 50
210.9501336849607
 51
251.7794729821079
  0
ARC
  5
F8
330
1F
100
AcDbEntity
  8
0
  6
CONTINUOUS
 62
     3
100
AcDbCircle
 10
91.06467274735228
 20
18.93266906317942
 30
0.0
 40
1.4068519372934
100
AcDbArc
 50
193.4375782160214
 51
199.459638038058
  0
ARC
  5
F9
330
1F
100
AcDbEntity
  8
0
  6
CONTINUOUS
 62
     3
100
AcDbCircle
 10
90.23786832263131
 20
18.72118718050417
 30
0.0
 40
0.535613931103931
100
AcDbArc
 50
92.11404364449162
 51
173.4175047026091
  0
ARC
  5
FA
330
1F
100
AcDbEntity
  8
0
  6
CONTINUOUS
 62
     3
100
AcDbCircle
 10
90.27583206530105
 20
18.64872959634165
 30
0.0
 40
0.612586430102253
100
AcDbArc
 50
17.92452211681263
 51
85.16543319077402
  0
LINE
  5
FB
330
1F
100
AcDbEntity
  8
0
  6
CONTINUOUS
 62
     3
100
AcDbLine
 10
90.44288524735104
 20
19.52171156317904
 30
0.0
 11
90.25658524735105
 21
19.52171156317904
 31
0.0
  0
LINE
  5
FC
330
1F
100
AcDbEntity
  8
0
  6
CONTINUOUS
 62
     3
100
AcDbLine
 10
90.08513524735102
 20
16.37013656317904
 30
0.0
 11
90.24713524735107
 21
16.37013656317904
 31
0.0
  0
LINE
  5
FD
330
1F
100
AcDbEntity
  8
0
  6
CONTINUOUS
 62
     3
100
AcDbLine
 10
89.40338524735107
 20
16.84263656317905
 30
0.0
 11
89.315635247351
 21
16.84263656317905
 31
0.0
  0
LINE
  5
FE
330
1F
100
AcDbEntity
  8
0
  6
CONTINUOUS
 62
     3
100
AcDbLine
 10
89.88938524735104
 20
16.12713656317904
 30
0.0
 11
90.206635247351
 21
16.12713656317904
 31
0.0
  0
HATCH
  5
FF
330
1F
100
AcDbEntity
  8
0
  6
CONTINUOUS
 62
     3
100
AcDbHatch
 10
0.0
 20
0.0
 30
0.0
210
0.0
220
0.0
230
1.0
  2
SOLID
 70
     1
 71
     1
 91
        1
 92
        3
 72
     1
 73
     1
 93
       10
 10
77.80688524735106
 20
16.31613656317905
 42
-0.017362223501556
 10
77.81566024735103
 20
21.61286156317906
 42
-0.0267627618865285
 10
77.81566024735099
 20
21.61286156317905
 42
0.0737939047395297
 10
79.10761024735102
 20
21.61826156317899
 42
0.0183878899657109
 10
79.05563524735108
 20
16.84263656317904
 42
-0.1144749489451909
 10
78.846385247351
 20
15.83688656317905
 42
-0.1929163439413163
 10
77.85076024735108
 20
15.05523656317905
 42
-0.0603888289562337
 10
77.32291024735102
 20
14.92361156317904
 42
0.0
 10
77.199385247351
 20
15.29958656317904
 42
0.0860918333465722
 10
77.56861024735105
 20
15.49601156317904
 42
0.1331843103855141
 97
        0
 75
     0
 76
     1
 98
        1
 10
0.0
 20
0.0
  0
HATCH
  5
100
330
1F
100
AcDbEntity
  8
0
  6
CONTINUOUS
 62
     3
100
AcDbHatch
 10
0.0
 20
0.0
 30
0.0
210
0.0
220
0.0
230
1.0
  2
SOLID
 70
     1
 71
     1
 91
        1
 92
        3
 72
     1
 73
     1
 93
       16
 10
83.721235247351
 20
16.20476156317904
 42
-0.0386228372648426
 10
83.71516024735102
 20
19.45893656317905
 42
-0.0398707891902887
 10
84.30578524735101
 20
19.46163656317904
 42
-0.1256886216044368
 10
84.27878524735102
 20
18.90948656317905
 42
-0.0367815758121429
 10
84.27878524735104
 20
18.90948656317905
 42
-0.268021535028829
 10
85.47016024735105
 20
19.52778656317905
 42
-0.2571134422124888
 10
86.284885247351
 20
19.12481156317905
 42
-0.1522526366014298
 10
86.49211024735104
 20
18.45453656317904
 42
-0.0158825412051521
 10
86.477260247351
 20
16.20138656317906
 42
-0.0285251271418421
 10
85.90688524735106
 20
16.20138656317905
 42
-0.0452212723224612
 10
85.93591024735102
 20
18.28308656317905
 42
-0.0315567291532142
 10
85.759060247351
 20
18.89801156317904
 42
-0.1476272403790709
 10
84.60751024735103
 20
18.98643656317905
 42
-0.3908144705745794
 10
84.282835247351
 20
18.17846156317905
 42
-0.2046259928850854
 10
84.28283524735102
 20
18.17846156317905
 42
0.0
 10
84.33346024735107
 20
16.19936156317905
 42
-0.0304995761723369
 97
        0
 75
     0
 76
     1
 98
        1
 10
0.0
 20
0.0
  0
HATCH
  5
101
330
1F
100
AcDbEntity
  8
0
  6
CONTINUOUS
 62
     3
100
AcDbHatch
 10
0.0
 20
0.0
 30
0.0
210
0.0
220
0.0
230
1.0
  2
SOLID
 70
     1
 71
     1
 91
        2
 92
        1
 93
        1
 72
     2
 10
87.96291007785953
 20
20.65279190216209
 40
0.3572334466769884
 50
0.0
 51
360.0
 73
     1
 97
        0
 92
        3
 72
     1
 73
     1
 93
        3
 10
87.64366024735101
 20
19.46433656317905
 42
0.1200283885712921
 10
88.26466024735099
 20
16.20071156317903
 42
-0.0401820615762149
 10
87.644335247351
 20
16.19868656317905
 42
-0.0237521668114666
 97
        0
 75
     0
 76
     1
 98
        1
 10
0.0
 20
0.0
  0
LINE
  5
102
330
1F
100
AcDbEntity
  8
0
  6
CONTINUOUS
 62
     3
100
AcDbLine
 10
80.35163524735106
 20
18.76638656317905
 30
0.0
 11
80.43938524735103
 21
18.76638656317905
 31
0.0
  0
ARC
  5
103
330
1F
100
AcDbEntity
  8
0
  6
CONTINUOUS
 62
     3
100
AcDbCircle
 10
88.18779998723542
 20
16.85223482907499
 30
0.0
 40
1.127953740078838
100
AcDbArc
 50
332.3987521421788
 51
359.5124385477116
  0
LINE
  5
104
330
1F
100
AcDbEntity
  8
0
  6
CONTINUOUS
 62
     3
100
AcDbLine
 10
90.82088524735101
 20
17.04513656317904
 30
0.0
 11
90.82763524735105
 21
16.88988656317904
 31
0.0
  0
LINE
  5
105
330
1F
100
AcDbEntity
  8
0
  6
CONTINUOUS
 62
     3
100
AcDbLine
 10
91.29676024735106
 20
17.32661156317905
 30
0.0
 11
91.29338524735098
 21
17.03838656317905
 31
0.0
  0
LINE
  5
106
330
1F
100
AcDbEntity
  8
0
  6
CONTINUOUS
 62
     3
100
AcDbLine
 10
89.70578524735097
 20
18.78258656317905
 30
0.0
 11
89.696335247351
 21
18.60573656317905
 31
0.0
  0
LINE
  5
107
330
1F
100
AcDbEntity
  8
0
  6
CONTINUOUS
 62
     3
100
AcDbLine
 10
89.21776024735101
 20
18.58076156317905
 30
0.0
 11
89.22113524735099
 21
18.40188656318125
 31
0.0
  0
LINE
  5
108
330
1F
100
AcDbEntity
  8
0
  6
CONTINUOUS
 62
     3
100
AcDbLine
 10
90.21811024735099
 20
19.25643656317905
 30
0.0
 11
90.32746024735107
 21
19.25913656317905
 31
0.0
  0
LINE
  5
109
330
1F
100
AcDbEntity
  8
0
  6
CONTINUOUS
 62
     3
100
AcDbLine
 10
90.85868524735103
 20
18.83726156317904
 30
0.0
 11
90.94406802269916
 21
18.83726156317904
 31
0.0
  0
ARC
  5
10A
330
1F
100
AcDbEntity
  8
0
  6
CONTINUOUS
 62
     3
100
AcDbCircle
 10
92.81860678091309
 20
18.48463160849993
 30
0.0
 40
1.907418003737831
100
AcDbArc
 50
153.7591918158497
 51
169.3462759801917
  0
HATCH
  5
10B
330
1F
100
AcDbEntity
  8
0
  6
CONTINUOUS
 62
     3
100
AcDbHatch
 10
0.0
 20
0.0
 30
0.0
210
0.0
220
0.0
230
1.0
  2
SOLID
 70
     1
 71
     1
 91
        1
 92
        3
 72
     1
 73
     1
 93
       30
 10
91.10776024735095
 20
19.3279865631791
 42
-0.0009362235736497
 10
91.107760247351
 20
19.32798656317904
 42
0.0681165430304653
 10
90.94406802269916
 20
18.83726156317904
 42
0.0
 10
90.32746024735107
 20
19.25913656317905
 42
-0.302112590907374
 10
90.32746024735107
 20
19.25913656317905
 42
0.0
 10
89.705785247351
 20
18.78258656317904
 42
-0.3704245237568778
 10
89.70578524735097
 20
18.78258656317905
 42
0.0
 10
89.73818524735101
 20
18.46398656317905
 42
-0.0262822419456939
 10
90.12158524735104
 20
18.15753656317904
 42
-0.180060563604375
 10
90.73313524735104
 20
17.97123656317904
 42
-0.0298130817160724
 10
90.73313524735102
 20
17.97123656317904
 42
-0.3153987453686078
 10
91.29676024735106
 20
17.32661156317905
 42
0.0
 10
91.29338524735107
 20
17.03838656317905
 42
-0.3510306079065168
 10
90.206635247351
 20
16.12713656317904
 42
0.0
 10
89.88938524735097
 20
16.12713656317905
 42
-0.1053356344842436
 10
89.18738524735103
 20
16.32963656317904
 42
0.1188608286962634
 10
89.315635247351
 20
16.84263656317905
 42
0.0
 10
90.08513524735103
 20
16.37013656317903
 42
-0.2447573632916039
 10
90.08513524735102
 20
16.37013656317904
 42
0.0
 10
90.82763524735105
 20
16.88988656317904
 42
-0.3734162676407277
 10
90.82763524735105
 20
16.88988656317904
 42
0.0
 10
90.55831024735107
 20
17.40896156317904
 42
-0.261219770190848
 10
89.929885247351
 20
17.63711156317905
 42
-0.0572747914118363
 10
89.92988524735108
 20
17.63711156317904
 42
-0.1189658875692221
 10
89.43038524735101
 20
17.93006156317904
 42
-0.2005226878639636
 10
89.22113524735099
 20
18.40188656318125
 42
0.0
 10
89.21776024735104
 20
18.58076156317904
 42
-0.2622894489606957
 10
89.75438524735105
 20
19.40088656317905
 42
-0.0988461274137808
 10
90.25658524735105
 20
19.52171156317904
 42
0.0
 10
90.44288524735099
 20
19.52171156317905
 42
-0.0920156312561188
 97
        0
 75
     0
 76
     1
 98
        1
 10
0.0
 20
0.0
  0
HATCH
  5
10C
330
1F
100
AcDbEntity
  8
0
  6
CONTINUOUS
 62
     3
100
AcDbHatch
 10
0.0
 20
0.0
 30
0.0
210
0.0
220
0.0
230
1.0
  2
SOLID
 70
     1
 71
     1
 91
        2
 92
        3
 72
     1
 73
     1
 93
       27
 10
80.351635247351
 20
19.13088656317904
 42
-0.1769427732109284
 10
80.35163524735106
 20
19.13088656317905
 42
0.0
 10
80.35163524735106
 20
18.76638656317905
 42
0.0
 10
80.43938524735105
 20
18.76638656317904
 42
-0.207533601427307
 10
81.00910095298308
 20
19.19376082471544
 42
-0.1226604740888933
 10
81.51263524735104
 20
19.20446156317904
 42
-0.3213715781137954
 10
82.0331914762469
 20
18.56550237720975
 42
-0.064704004662446
 10
82.03576024735099
 20
18.22773656317904
 42
-0.257798906330806
 10
81.92978524735106
 20
18.09948656317904
 42
-0.056602577721096
 10
81.70298524735104
 20
18.02051156317906
 42
-0.0166741689362636
 10
80.87138524735103
 20
17.86256156317904
 42
0.1186092302783404
 10
80.32261024735105
 20
17.59931156317905
 42
0.1699204224386695
 10
80.08366024735103
 20
17.19971156317905
 42
0.1006533494296199
 10
80.06156734198422
 20
16.85297278438222
 42
0.1675695228968024
 10
80.27806024735108
 20
16.38836156317905
 42
0.1376980079804242
 10
80.671585247351
 20
16.16088656317905
 42
0.0719813663796923
 10
80.85046024735098
 20
16.13118656317905
 42
0.0
 10
81.12451024735105
 20
16.13118656317905
 42
0.1944607457809085
 10
82.03373524735106
 20
16.59896156317904
 42
0.1288538183665954
 10
82.125535247351
 20
16.36946156317904
 42
0.2098387395261546
 10
82.42523524735104
 20
16.20408656317904
 42
0.0
 10
82.64258524735105
 20
16.20273656317905
 42
0.0945009641609563
 10
82.956460247351
 20
16.26956156317904
 42
0.0
 10
82.95646024735099
 20
16.42683656317905
 42
-0.2395739894657535
 10
82.68241024735106
 20
16.42413656317904
 42
-0.2502312110031057
 10
82.547410247351
 20
16.6779365631791
 42
-0.0104343570771765
 10
82.56563524735107
 20
18.57063656317904
 42
0.4051015674140716
 97
        0
 92
        3
 72
     1
 73
     1
 93
        8
 10
82.04791024735104
 20
17.89698656317904
 42
-0.0339435190873666
 10
82.04791024735187
 20
17.89698656317791
 42
-0.0001110072973599
 10
82.01956024735107
 20
16.86288656317904
 42
-0.2253076310552528
 10
81.31081024735104
 20
16.38971156317905
 42
0.0
 10
81.13733524735099
 20
16.38971156317905
 42
-0.3657967558150132
 10
80.62163524735102
 20
16.93781156317904
 42
0.0
 10
80.62163524735107
 20
17.13356156317905
 42
-0.2530797830369341
 10
80.96993524735103
 20
17.61551156317904
 42
-0.0724473624720066
 97
        0
 75
     0
 76
     1
 98
        1
 10
0.0
 20
0.0
  0
LINE
  5
10D
330
1F
100
AcDbEntity
  8
枠_表
  6
CONTINUOUS
 62
     7
100
AcDbLine
 10
179.9999999999999
 20
135.0
 30
0.0
 11
1999.999999999999
 21
135.0
 31
0.0
  0
LINE
  5
10E
330
1F
100
AcDbEntity
  8
枠_表
  6
CONTINUOUS
 62
     7
100
AcDbLine
 10
1999.999999999999
 20
135.0
 30
0.0
 11
1999.999999999999
 21
2885.0
 31
0.0
  0
LINE
  5
10F
330
1F
100
AcDbEntity
  8
枠_表
  6
CONTINUOUS
 62
     7
100
AcDbLine
 10
179.9999999999999
 20
2885.0
 30
0.0
 11
1999.999999999999
 21
2885.0
 31
0.0
  0
LINE
  5
110
330
1F
100
AcDbEntity
  8
枠_表
  6
CONTINUOUS
 62
     7
100
AcDbLine
 10
179.9999999999999
 20
355.0
 30
0.0
 11
1999.999999999999
 21
355.0
 31
0.0
  0
LINE
  5
111
330
1F
100
AcDbEntity
  8
枠_表
  6
CONTINUOUS
 62
     1
100
AcDbLine
 10
883.4999999999993
 20
1189.999999999999
 30
0.0
 11
883.4999999999993
 21
1159.999999999999
 31
0.0
  0
LINE
  5
112
330
1F
100
AcDbEntity
  8
枠_表
  6
CONTINUOUS
 62
     1
100
AcDbLine
 10
898.4999999999993
 20
1174.999999999999
 30
0.0
 11
868.4999999999993
 21
1174.999999999999
 31
0.0
  0
CIRCLE
  5
113
330
1F
100
AcDbEntity
  8
枠_表
  6
CONTINUOUS
 62
     1
100
AcDbCircle
 10
883.5000000000002
 20
1174.999999999989
 30
0.0
 40
5.0
  0
LINE
  5
114
330
1F
100
AcDbEntity
  8
枠_表
  6
CONTINUOUS
 62
     2
100
AcDbLine
 10
734.500000000002
 20
1968.999999999998
 30
0.0
 11
734.500000000002
 21
1954.999999999999
 31
0.0
  0
LINE
  5
115
330
1F
100
AcDbEntity
  8
枠_表
  6
CONTINUOUS
 62
     2
100
AcDbLine
 10
772.5000000000002
 20
1968.999999999998
 30
0.0
 11
772.5000000000002
 21
1954.999999999999
 31
0.0
  0
LINE
  5
116
330
1F
100
AcDbEntity
  8
枠_表
  6
CONTINUOUS
 62
     2
100
AcDbLine
 10
734.4999999999993
 20
1954.999999999988
 30
0.0
 11
772.4999999999993
 21
1954.999999999988
 31
0.0
  0
ARC
  5
117
330
1F
100
AcDbEntity
  8
枠_表
  6
CONTINUOUS
 62
     2
100
AcDbCircle
 10
753.4999999999993
 20
2032.999999999998
 30
0.0
 40
185.0000000000001
100
AcDbArc
 50
206.3109966473091
 51
333.6890033526913
  0
ARC
  5
118
330
1F
100
AcDbEntity
  8
枠_表
  6
CONTINUOUS
 62
     2
100
AcDbCircle
 10
753.4999999999993
 20
2032.999999999998
 30
0.0
 40
189.0000000000001
100
AcDbArc
 50
205.7129308458842
 51
334.2870691541158
  0
ARC
  5
119
330
1F
100
AcDbEntity
  8
枠_表
  6
CONTINUOUS
 62
     2
100
AcDbCircle
 10
978.998949920023
 20
1965.575391621109
 30
0.0
 40
63.50000000000004
100
AcDbArc
 50
284.6885077952481
 51
356.8386196555426
  0
ARC
  5
11A
330
1F
100
AcDbEntity
  8
枠_表
  6
CONTINUOUS
 62
     2
100
AcDbCircle
 10
943.4999999999993
 20
2100.999999999999
 30
0.0
 40
203.5000000000001
100
AcDbArc
 50
255.3114922047528
 51
284.688507795248
  0
ARC
  5
11B
330
1F
100
AcDbEntity
  8
枠_表
  6
CONTINUOUS
 62
     2
100
AcDbCircle
 10
978.998949920023
 20
1965.575391621109
 30
0.0
 40
60.50000000000004
100
AcDbArc
 50
284.6885077952482
 51
356.838619655543
  0
LINE
  5
11C
330
1F
100
AcDbEntity
  8
枠_表
  6
CONTINUOUS
 62
     2
100
AcDbLine
 10
1043.82700110264
 20
1987.867809436795
 30
0.0
 11
1042.402313289803
 21
1962.073461667543
 31
0.0
  0
LINE
  5
11D
330
1F
100
AcDbEntity
  8
枠_表
  6
CONTINUOUS
 62
     2
100
AcDbLine
 10
1039.406878799892
 20
1962.238907177159
 30
0.0
 11
1040.762145642382
 21
1986.7763700096
 31
0.0
  0
ARC
  5
11E
330
1F
100
AcDbEntity
  8
枠_表
  6
CONTINUOUS
 62
     2
100
AcDbCircle
 10
934.3730099967227
 20
3306.188919614471
 30
0.0
 40
1400.0
100
AcDbArc
 50
250.0930585355464
 51
255.4644461930923
  0
LINE
  5
11F
330
1F
100
AcDbEntity
  8
枠_表
  6
CONTINUOUS
 62
     2
100
AcDbLine
 10
453.4999999999993
 20
2020.999999999998
 30
0.0
 11
454.3874018610015
 21
1994.377944169926
 31
0.0
  0
ARC
  5
120
330
1F
100
AcDbEntity
  8
枠_表
  6
CONTINUOUS
 62
     2
100
AcDbCircle
 10
459.3846263958969
 20
1994.544518321089
 30
0.0
 40
5.0
100
AcDbArc
 50
181.9091524329973
 51
250.0930585355482
  0
ARC
  5
121
330
1F
100
AcDbEntity
  8
枠_表
  6
CONTINUOUS
 62
     2
100
AcDbCircle
 10
572.6269900032796
 20
3306.188919614471
 30
0.0
 40
1400.0
100
AcDbArc
 50
284.535553806908
 51
289.9069414644537
  0
LINE
  5
122
330
1F
100
AcDbEntity
  8
枠_表
  6
CONTINUOUS
 62
     2
100
AcDbLine
 10
1052.612598138997
 20
1994.377944169924
 30
0.0
 11
1053.499999999999
 21
2020.999999999998
 31
0.0
  0
ARC
  5
123
330
1F
100
AcDbEntity
  8
枠_表
  6
CONTINUOUS
 62
     2
100
AcDbCircle
 10
1047.615373604101
 20
1994.544518321087
 30
0.0
 40
5.0
100
AcDbArc
 50
289.9069414644522
 51
358.090847567003
  0
LINE
  5
124
330
1F
100
AcDbEntity
  8
枠_表
  6
CONTINUOUS
 62
     2
100
AcDbLine
 10
848.0057952922673
 20
1955.447842369626
 30
0.0
 11
846.9942047077395
 21
1964.552157630373
 31
0.0
  0
LINE
  5
125
330
1F
100
AcDbEntity
  8
枠_表
  6
CONTINUOUS
 62
     2
100
AcDbLine
 10
852.9752139656341
 20
1950.999999999999
 30
0.0
 11
924.0000000000066
 21
1950.999999999999
 31
0.0
  0
ARC
  5
126
330
1F
100
AcDbEntity
  8
枠_表
  6
CONTINUOUS
 62
     2
100
AcDbCircle
 10
852.9752139656341
 20
1955.999999999999
 30
0.0
 40
5.0
100
AcDbArc
 50
186.3401917459164
 51
270.0000000000002
  0
ARC
  5
127
330
1F
100
AcDbEntity
  8
枠_表
  6
CONTINUOUS
 62
     2
100
AcDbCircle
 10
842.0247860343718
 20
1963.999999999998
 30
0.0
 40
5.0
100
AcDbArc
 50
6.340191745915316
 51
90.00000000000001
  0
LINE
  5
128
330
1F
100
AcDbEntity
  8
枠_表
  6
CONTINUOUS
 62
     2
100
AcDbLine
 10
844.2438029126417
 20
1968.480620949602
 30
0.0
 11
844.5976867101974
 21
1962.073461667543
 31
0.0
  0
LINE
  5
129
330
1F
100
AcDbEntity
  8
枠_表
  6
CONTINUOUS
 62
     2
100
AcDbLine
 10
664.9752139656305
 20
1968.999999999998
 30
0.0
 11
842.0247860343718
 21
1968.999999999998
 31
0.0
  0
LINE
  5
12A
330
1F
100
AcDbEntity
  8
枠_表
  6
CONTINUOUS
 62
     2
100
AcDbLine
 10
658.994204707735
 20
1955.447842369626
 30
0.0
 11
660.0057952922627
 21
1964.552157630373
 31
0.0
  0
LINE
  5
12B
330
1F
100
AcDbEntity
  8
枠_表
  6
CONTINUOUS
 62
     2
100
AcDbLine
 10
582.9999999999957
 20
1950.999999999999
 30
0.0
 11
654.0247860343682
 21
1950.999999999999
 31
0.0
  0
ARC
  5
12C
330
1F
100
AcDbEntity
  8
枠_表
  6
CONTINUOUS
 62
     2
100
AcDbCircle
 10
654.0247860343682
 20
1955.999999999999
 30
0.0
 40
5.0
100
AcDbArc
 50
270.0000000000002
 51
353.6598082540934
  0
ARC
  5
12D
330
1F
100
AcDbEntity
  8
枠_表
  6
CONTINUOUS
 62
     2
100
AcDbCircle
 10
664.9752139656305
 20
1963.999999999998
 30
0.0
 40
5.0
100
AcDbArc
 50
90.00000000000001
 51
173.6598082540944
  0
LINE
  5
12E
330
1F
100
AcDbEntity
  8
枠_表
  6
CONTINUOUS
 62
     2
100
AcDbLine
 10
453.4999999999993
 20
2020.999999999998
 30
0.0
 11
1053.499999999999
 21
2020.999999999998
 31
0.0
  0
ARC
  5
12F
330
1F
100
AcDbEntity
  8
枠_表
  6
CONTINUOUS
 62
     2
100
AcDbCircle
 10
908.0010500799774
 20
1965.575391621109
 30
0.0
 40
60.50000000000004
100
AcDbArc
 50
191.6899169319215
 51
252.4686377378514
  0
ARC
  5
130
330
1F
100
AcDbEntity
  8
枠_表
  6
CONTINUOUS
 62
     2
100
AcDbCircle
 10
908.0010500799774
 20
1965.575391621109
 30
0.0
 40
63.50000000000004
100
AcDbArc
 50
183.1613803444576
 51
251.182248758614
  0
ARC
  5
131
330
1F
100
AcDbEntity
  8
枠_表
  6
CONTINUOUS
 62
     2
100
AcDbCircle
 10
908.0010500799774
 20
1965.575391621109
 30
0.0
 40
63.50000000000004
100
AcDbArc
 50
255.2149600572401
 51
255.3114922047523
  0
ARC
  5
132
330
1F
100
AcDbEntity
  8
枠_表
  6
CONTINUOUS
 62
     2
100
AcDbCircle
 10
943.4999999999993
 20
2100.999999999999
 30
0.0
 40
200.5000000000001
100
AcDbArc
 50
255.7330638439913
 51
284.6885077952481
  0
LINE
  5
133
330
1F
100
AcDbEntity
  8
枠_表
  6
CONTINUOUS
 62
     2
100
AcDbLine
 10
453.5000000000011
 20
1515.0
 30
0.0
 11
1053.500000000001
 21
1515.0
 31
0.0
  0
LINE
  5
134
330
1F
100
AcDbEntity
  8
枠_表
  6
CONTINUOUS
 62
     2
100
AcDbLine
 10
566.0000000000002
 20
753.9999999999995
 30
0.0
 11
566.0000000000002
 21
753.0000000000323
 31
0.0
  0
LINE
  5
135
330
1F
100
AcDbEntity
  8
枠_表
  6
CONTINUOUS
 62
     2
100
AcDbLine
 10
551.0000000000002
 20
753.9999999999995
 30
0.0
 11
551.0000000000002
 21
753.0000000000323
 31
0.0
  0
ARC
  5
136
330
1F
100
AcDbEntity
  8
枠_表
  6
CONTINUOUS
 62
     2
100
AcDbCircle
 10
558.5000000000002
 20
753.9999999999995
 30
0.0
 40
7.500000000000006
100
AcDbArc
 50
0.0
 51
180.0
  0
LINE
  5
137
330
1F
100
AcDbEntity
  8
枠_表
  6
CONTINUOUS
 62
     2
100
AcDbLine
 10
551.0000000000002
 20
753.0000000000323
 30
0.0
 11
566.0000000000002
 21
753.0000000000323
 31
0.0
  0
LINE
  5
138
330
1F
100
AcDbEntity
  8
枠_表
  6
CONTINUOUS
 62
     2
100
AcDbLine
 10
756.0000000000002
 20
753.9999999999995
 30
0.0
 11
756.0000000000002
 21
753.0000000000323
 31
0.0
  0
LINE
  5
139
330
1F
100
AcDbEntity
  8
枠_表
  6
CONTINUOUS
 62
     2
100
AcDbLine
 10
771.0000000000002
 20
753.9999999999995
 30
0.0
 11
771.0000000000002
 21
753.0000000000323
 31
0.0
  0
ARC
  5
13A
330
1F
100
AcDbEntity
  8
枠_表
  6
CONTINUOUS
 62
     2
100
AcDbCircle
 10
763.5000000000002
 20
753.9999999999995
 30
0.0
 40
7.500000000000006
100
AcDbArc
 50
0.0
 51
180.0
  0
LINE
  5
13B
330
1F
100
AcDbEntity
  8
枠_表
  6
CONTINUOUS
 62
     2
100
AcDbLine
 10
771.0000000000002
 20
753.0000000000323
 30
0.0
 11
756.0000000000002
 21
753.0000000000323
 31
0.0
  0
LINE
  5
13C
330
1F
100
AcDbEntity
  8
枠_表
  6
CONTINUOUS
 62
     2
100
AcDbLine
 10
566.0000000000002
 20
1514.0
 30
0.0
 11
566.0000000000002
 21
1514.999999999967
 31
0.0
  0
LINE
  5
13D
330
1F
100
AcDbEntity
  8
枠_表
  6
CONTINUOUS
 62
     2
100
AcDbLine
 10
551.0000000000002
 20
1514.0
 30
0.0
 11
551.0000000000002
 21
1514.999999999967
 31
0.0
  0
ARC
  5
13E
330
1F
100
AcDbEntity
  8
枠_表
  6
CONTINUOUS
 62
     2
100
AcDbCircle
 10
558.5000000000002
 20
1514.0
 30
0.0
 40
7.500000000000006
100
AcDbArc
 50
180.0
 51
0.0
  0
LINE
  5
13F
330
1F
100
AcDbEntity
  8
枠_表
  6
CONTINUOUS
 62
     2
100
AcDbLine
 10
551.0000000000002
 20
1514.999999999967
 30
0.0
 11
566.0000000000002
 21
1514.999999999967
 31
0.0
  0
LINE
  5
140
330
1F
100
AcDbEntity
  8
枠_表
  6
CONTINUOUS
 62
     2
100
AcDbLine
 10
756.0000000000002
 20
1514.0
 30
0.0
 11
756.0000000000002
 21
1514.999999999967
 31
0.0
  0
LINE
  5
141
330
1F
100
AcDbEntity
  8
枠_表
  6
CONTINUOUS
 62
     2
100
AcDbLine
 10
771.0000000000002
 20
1514.0
 30
0.0
 11
771.0000000000002
 21
1514.999999999967
 31
0.0
  0
ARC
  5
142
330
1F
100
AcDbEntity
  8
枠_表
  6
CONTINUOUS
 62
     2
100
AcDbCircle
 10
763.5000000000002
 20
1514.0
 30
0.0
 40
7.500000000000006
100
AcDbArc
 50
180.0
 51
0.0
  0
LINE
  5
143
330
1F
100
AcDbEntity
  8
枠_表
  6
CONTINUOUS
 62
     2
100
AcDbLine
 10
771.0000000000002
 20
1514.999999999967
 30
0.0
 11
756.0000000000002
 21
1514.999999999967
 31
0.0
  0
LINE
  5
144
330
1F
100
AcDbEntity
  8
枠_表
  6
CONTINUOUS
 62
     2
100
AcDbLine
 10
492.6213203435411
 20
755.5000000000314
 30
0.0
 11
490.4999999999811
 21
757.6213203435914
 31
0.0
  0
LINE
  5
145
330
1F
100
AcDbEntity
  8
枠_表
  6
CONTINUOUS
 62
     2
100
AcDbLine
 10
831.4999999999811
 20
757.6213203435914
 30
0.0
 11
829.3786796564211
 21
755.5000000000314
 31
0.0
  0
LINE
  5
146
330
1F
100
AcDbEntity
  8
枠_表
  6
CONTINUOUS
 62
     2
100
AcDbLine
 10
490.4999999999811
 20
1511.378679656471
 30
0.0
 11
490.4999999999811
 21
757.6213203435914
 31
0.0
  0
LINE
  5
147
330
1F
100
AcDbEntity
  8
枠_表
  6
CONTINUOUS
 62
     2
100
AcDbLine
 10
490.4999999999811
 20
1511.378679656471
 30
0.0
 11
492.6213203435411
 21
1513.500000000031
 31
0.0
  0
LINE
  5
148
330
1F
100
AcDbEntity
  8
枠_表
  6
CONTINUOUS
 62
     2
100
AcDbLine
 10
831.4999999999811
 20
1511.378679656471
 30
0.0
 11
831.4999999999811
 21
757.6213203435914
 31
0.0
  0
LINE
  5
149
330
1F
100
AcDbEntity
  8
枠_表
  6
CONTINUOUS
 62
     2
100
AcDbLine
 10
831.4999999999811
 20
1511.378679656471
 30
0.0
 11
829.3786796564211
 21
1513.500000000031
 31
0.0
  0
LINE
  5
14A
330
1F
100
AcDbEntity
  8
枠_表
  6
CONTINUOUS
 62
     2
100
AcDbLine
 10
551.0166852264504
 20
1513.500000000031
 30
0.0
 11
492.6213203435411
 21
1513.500000000031
 31
0.0
  0
LINE
  5
14B
330
1F
100
AcDbEntity
  8
枠_表
  6
CONTINUOUS
 62
     2
100
AcDbLine
 10
829.3786796564211
 20
1513.500000000031
 30
0.0
 11
770.9833147735501
 21
1513.500000000031
 31
0.0
  0
LINE
  5
14C
330
1F
100
AcDbEntity
  8
枠_表
  6
CONTINUOUS
 62
     2
100
AcDbLine
 10
756.0166852264504
 20
1513.500000000031
 30
0.0
 11
565.9833147735501
 21
1513.500000000031
 31
0.0
  0
LINE
  5
14D
330
1F
100
AcDbEntity
  8
枠_表
  6
CONTINUOUS
 62
     2
100
AcDbLine
 10
829.3786796564211
 20
755.5000000000314
 30
0.0
 11
770.848469228343
 21
755.5000000000314
 31
0.0
  0
LINE
  5
14E
330
1F
100
AcDbEntity
  8
枠_表
  6
CONTINUOUS
 62
     2
100
AcDbLine
 10
756.1515307716575
 20
755.5000000000314
 30
0.0
 11
565.848469228343
 21
755.5000000000314
 31
0.0
  0
LINE
  5
14F
330
1F
100
AcDbEntity
  8
枠_表
  6
CONTINUOUS
 62
     2
100
AcDbLine
 10
551.1515307716575
 20
755.5000000000314
 30
0.0
 11
492.6213203435411
 21
755.5000000000314
 31
0.0
  0
LINE
  5
150
330
1F
100
AcDbEntity
  8
枠_表
  6
CONTINUOUS
 62
     2
100
AcDbLine
 10
583.0000000000002
 20
1625.0
 30
0.0
 11
583.0000000000002
 21
1515.0
 31
0.0
  0
LINE
  5
151
330
1F
100
AcDbEntity
  8
枠_表
  6
CONTINUOUS
 62
     2
100
AcDbLine
 10
924.0000000000039
 20
1625.0
 30
0.0
 11
924.0000000000039
 21
1515.0
 31
0.0
  0
LINE
  5
152
330
1F
100
AcDbEntity
  8
枠_表
  6
CONTINUOUS
 62
     2
100
AcDbLine
 10
844.0000000000002
 20
1258.5
 30
0.0
 11
845.7352227079202
 21
1264.284075693065
 31
0.0
  0
ARC
  5
153
330
1F
100
AcDbEntity
  8
枠_表
  6
CONTINUOUS
 62
     2
100
AcDbCircle
 10
855.3134855601313
 20
1261.410596837402
 30
0.0
 40
10.0
100
AcDbArc
 50
95.31005927673019
 51
163.3007557660029
  0
LINE
  5
154
330
1F
100
AcDbEntity
  8
枠_表
  6
CONTINUOUS
 62
     2
100
AcDbLine
 10
1043.000000000001
 20
1258.5
 30
0.0
 11
1041.264777292081
 21
1264.284075693065
 31
0.0
  0
ARC
  5
155
330
1F
100
AcDbEntity
  8
枠_表
  6
CONTINUOUS
 62
     2
100
AcDbCircle
 10
1031.68651443987
 20
1261.410596837402
 30
0.0
 40
10.0
100
AcDbArc
 50
16.69924423399711
 51
84.6899407232698
  0
ARC
  5
156
330
1F
100
AcDbEntity
  8
枠_表
  6
CONTINUOUS
 62
     2
100
AcDbCircle
 10
943.5000000000002
 20
312.6000000000045
 30
0.0
 40
962.8999999999953
100
AcDbArc
 50
84.6899407232721
 51
95.31005927672784
  0
ARC
  5
157
330
1F
100
AcDbEntity
  8
枠_表
  6
CONTINUOUS
 62
     2
100
AcDbCircle
 10
842.5000000000011
 20
1312.0
 30
0.0
 40
3.000000000000002
100
AcDbArc
 50
90.00000000000001
 51
180.0
  0
LINE
  5
158
330
1F
100
AcDbEntity
  8
枠_表
  6
CONTINUOUS
 62
     2
100
AcDbLine
 10
844.0000000000002
 20
1258.5
 30
0.0
 11
842.5000000000011
 21
1258.5
 31
0.0
  0
LINE
  5
159
330
1F
100
AcDbEntity
  8
枠_表
  6
CONTINUOUS
 62
     2
100
AcDbLine
 10
839.5000000000011
 20
1312.0
 30
0.0
 11
839.5000000000011
 21
1261.5
 31
0.0
  0
ARC
  5
15A
330
1F
100
AcDbEntity
  8
枠_表
  6
CONTINUOUS
 62
     2
100
AcDbCircle
 10
842.5000000000011
 20
1261.5
 30
0.0
 40
3.000000000000002
100
AcDbArc
 50
180.0
 51
270.0000000000002
  0
LINE
  5
15B
330
1F
100
AcDbEntity
  8
枠_表
  6
CONTINUOUS
 62
     2
100
AcDbLine
 10
842.5000000000011
 20
1315.0
 30
0.0
 11
1044.500000000001
 21
1315.0
 31
0.0
  0
ARC
  5
15C
330
1F
100
AcDbEntity
  8
枠_表
  6
CONTINUOUS
 62
     2
100
AcDbCircle
 10
1044.500000000001
 20
1312.0
 30
0.0
 40
3.000000000000002
100
AcDbArc
 50
0.0
 51
90.00000000000001
  0
LINE
  5
15D
330
1F
100
AcDbEntity
  8
枠_表
  6
CONTINUOUS
 62
     2
100
AcDbLine
 10
1044.500000000001
 20
1258.5
 30
0.0
 11
1042.999999999999
 21
1258.5
 31
0.0
  0
LINE
  5
15E
330
1F
100
AcDbEntity
  8
枠_表
  6
CONTINUOUS
 62
     2
100
AcDbLine
 10
1047.500000000001
 20
1312.0
 30
0.0
 11
1047.500000000001
 21
1261.5
 31
0.0
  0
ARC
  5
15F
330
1F
100
AcDbEntity
  8
枠_表
  6
CONTINUOUS
 62
     2
100
AcDbCircle
 10
1044.500000000001
 20
1261.5
 30
0.0
 40
3.000000000000002
100
AcDbArc
 50
270.0000000000002
 51
0.0
  0
LINE
  5
160
330
1F
100
AcDbEntity
  8
枠_表
  6
CONTINUOUS
 62
     2
100
AcDbLine
 10
844.0000000000002
 20
1005.5
 30
0.0
 11
845.7352227079202
 21
1011.284075693066
 31
0.0
  0
ARC
  5
161
330
1F
100
AcDbEntity
  8
枠_表
  6
CONTINUOUS
 62
     2
100
AcDbCircle
 10
855.3134855601313
 20
1008.410596837402
 30
0.0
 40
10.0
100
AcDbArc
 50
95.31005927673019
 51
163.3007557660029
  0
LINE
  5
162
330
1F
100
AcDbEntity
  8
枠_表
  6
CONTINUOUS
 62
     2
100
AcDbLine
 10
1043.000000000001
 20
1005.5
 30
0.0
 11
1041.264777292081
 21
1011.284075693066
 31
0.0
  0
ARC
  5
163
330
1F
100
AcDbEntity
  8
枠_表
  6
CONTINUOUS
 62
     2
100
AcDbCircle
 10
1031.68651443987
 20
1008.410596837402
 30
0.0
 40
10.0
100
AcDbArc
 50
16.69924423399711
 51
84.6899407232698
  0
ARC
  5
164
330
1F
100
AcDbEntity
  8
枠_表
  6
CONTINUOUS
 62
     2
100
AcDbCircle
 10
943.5000000000002
 20
59.60000000000446
 30
0.0
 40
962.8999999999953
100
AcDbArc
 50
84.6899407232721
 51
95.31005927672784
  0
ARC
  5
165
330
1F
100
AcDbEntity
  8
枠_表
  6
CONTINUOUS
 62
     2
100
AcDbCircle
 10
842.5000000000011
 20
1059.0
 30
0.0
 40
3.000000000000002
100
AcDbArc
 50
90.00000000000001
 51
180.0
  0
LINE
  5
166
330
1F
100
AcDbEntity
  8
枠_表
  6
CONTINUOUS
 62
     2
100
AcDbLine
 10
844.0000000000002
 20
1005.5
 30
0.0
 11
842.5000000000011
 21
1005.5
 31
0.0
  0
LINE
  5
167
330
1F
100
AcDbEntity
  8
枠_表
  6
CONTINUOUS
 62
     2
100
AcDbLine
 10
839.5000000000011
 20
1059.0
 30
0.0
 11
839.5000000000011
 21
1008.5
 31
0.0
  0
ARC
  5
168
330
1F
100
AcDbEntity
  8
枠_表
  6
CONTINUOUS
 62
     2
100
AcDbCircle
 10
842.5000000000011
 20
1008.5
 30
0.0
 40
3.000000000000002
100
AcDbArc
 50
180.0
 51
270.0000000000002
  0
LINE
  5
169
330
1F
100
AcDbEntity
  8
枠_表
  6
CONTINUOUS
 62
     2
100
AcDbLine
 10
842.5000000000011
 20
1062.0
 30
0.0
 11
1044.500000000001
 21
1062.0
 31
0.0
  0
ARC
  5
16A
330
1F
100
AcDbEntity
  8
枠_表
  6
CONTINUOUS
 62
     2
100
AcDbCircle
 10
1044.500000000001
 20
1059.0
 30
0.0
 40
3.000000000000002
100
AcDbArc
 50
0.0
 51
90.00000000000001
  0
LINE
  5
16B
330
1F
100
AcDbEntity
  8
枠_表
  6
CONTINUOUS
 62
     2
100
AcDbLine
 10
1044.500000000001
 20
1005.5
 30
0.0
 11
1042.999999999999
 21
1005.5
 31
0.0
  0
LINE
  5
16C
330
1F
100
AcDbEntity
  8
枠_表
  6
CONTINUOUS
 62
     2
100
AcDbLine
 10
1047.500000000001
 20
1059.0
 30
0.0
 11
1047.500000000001
 21
1008.5
 31
0.0
  0
ARC
  5
16D
330
1F
100
AcDbEntity
  8
枠_表
  6
CONTINUOUS
 62
     2
100
AcDbCircle
 10
1044.500000000001
 20
1008.5
 30
0.0
 40
3.000000000000002
100
AcDbArc
 50
270.0000000000002
 51
0.0
  0
LINE
  5
16E
330
1F
100
AcDbEntity
  8
枠_表
  6
CONTINUOUS
 62
     2
100
AcDbLine
 10
844.0000000000002
 20
703.4999999999995
 30
0.0
 11
845.7352227079202
 21
709.2840756930659
 31
0.0
  0
ARC
  5
16F
330
1F
100
AcDbEntity
  8
枠_表
  6
CONTINUOUS
 62
     2
100
AcDbCircle
 10
855.3134855601313
 20
706.410596837402
 30
0.0
 40
10.0
100
AcDbArc
 50
95.31005927673019
 51
163.3007557660029
  0
LINE
  5
170
330
1F
100
AcDbEntity
  8
枠_表
  6
CONTINUOUS
 62
     2
100
AcDbLine
 10
1043.000000000001
 20
703.4999999999995
 30
0.0
 11
1041.264777292081
 21
709.2840756930659
 31
0.0
  0
ARC
  5
171
330
1F
100
AcDbEntity
  8
枠_表
  6
CONTINUOUS
 62
     2
100
AcDbCircle
 10
1031.68651443987
 20
706.410596837402
 30
0.0
 40
10.0
100
AcDbArc
 50
16.69924423399711
 51
84.6899407232698
  0
ARC
  5
172
330
1F
100
AcDbEntity
  8
枠_表
  6
CONTINUOUS
 62
     2
100
AcDbCircle
 10
943.5000000000002
 20
-242.3999999999955
 30
0.0
 40
962.8999999999953
100
AcDbArc
 50
84.6899407232721
 51
95.31005927672784
  0
ARC
  5
173
330
1F
100
AcDbEntity
  8
枠_表
  6
CONTINUOUS
 62
     2
100
AcDbCircle
 10
842.5000000000011
 20
756.9999999999995
 30
0.0
 40
3.000000000000002
100
AcDbArc
 50
90.00000000000001
 51
180.0
  0
LINE
  5
174
330
1F
100
AcDbEntity
  8
枠_表
  6
CONTINUOUS
 62
     2
100
AcDbLine
 10
844.0000000000002
 20
703.4999999999995
 30
0.0
 11
842.5000000000011
 21
703.4999999999995
 31
0.0
  0
LINE
  5
175
330
1F
100
AcDbEntity
  8
枠_表
  6
CONTINUOUS
 62
     2
100
AcDbLine
 10
839.5000000000011
 20
756.9999999999995
 30
0.0
 11
839.5000000000011
 21
706.4999999999995
 31
0.0
  0
ARC
  5
176
330
1F
100
AcDbEntity
  8
枠_表
  6
CONTINUOUS
 62
     2
100
AcDbCircle
 10
842.5000000000011
 20
706.4999999999995
 30
0.0
 40
3.000000000000002
100
AcDbArc
 50
180.0
 51
270.0000000000002
  0
LINE
  5
177
330
1F
100
AcDbEntity
  8
枠_表
  6
CONTINUOUS
 62
     2
100
AcDbLine
 10
842.5000000000011
 20
759.9999999999995
 30
0.0
 11
1044.500000000001
 21
759.9999999999995
 31
0.0
  0
ARC
  5
178
330
1F
100
AcDbEntity
  8
枠_表
  6
CONTINUOUS
 62
     2
100
AcDbCircle
 10
1044.500000000001
 20
756.9999999999995
 30
0.0
 40
3.000000000000002
100
AcDbArc
 50
0.0
 51
90.00000000000001
  0
LINE
  5
179
330
1F
100
AcDbEntity
  8
枠_表
  6
CONTINUOUS
 62
     2
100
AcDbLine
 10
1044.500000000001
 20
703.4999999999995
 30
0.0
 11
1042.999999999999
 21
703.4999999999995
 31
0.0
  0
LINE
  5
17A
330
1F
100
AcDbEntity
  8
枠_表
  6
CONTINUOUS
 62
     2
100
AcDbLine
 10
1047.500000000001
 20
756.9999999999995
 30
0.0
 11
1047.500000000001
 21
706.4999999999995
 31
0.0
  0
ARC
  5
17B
330
1F
100
AcDbEntity
  8
枠_表
  6
CONTINUOUS
 62
     2
100
AcDbCircle
 10
1044.500000000001
 20
706.4999999999995
 30
0.0
 40
3.000000000000002
100
AcDbArc
 50
270.0000000000002
 51
0.0
  0
LINE
  5
17C
330
1F
100
AcDbEntity
  8
枠_表
  6
CONTINUOUS
 62
     2
100
AcDbLine
 10
844.6827156455004
 20
705.7757188183991
 30
0.0
 11
1042.3172843545
 21
705.7757188183991
 31
0.0
  0
LINE
  5
17D
330
1F
100
AcDbEntity
  8
枠_表
  6
CONTINUOUS
 62
     2
100
AcDbLine
 10
846.5000000000011
 20
1007.637928387214
 30
0.0
 11
846.5000000000011
 21
759.9999999999995
 31
0.0
  0
LINE
  5
17E
330
1F
100
AcDbEntity
  8
枠_表
  6
CONTINUOUS
 62
     2
100
AcDbLine
 10
1040.500000000001
 20
1007.637928387215
 30
0.0
 11
1040.500000000001
 21
759.9999999999995
 31
0.0
  0
LINE
  5
17F
330
1F
100
AcDbEntity
  8
枠_表
  6
CONTINUOUS
 62
     2
100
AcDbLine
 10
1040.500000000001
 20
1260.637928387216
 30
0.0
 11
1040.500000000001
 21
1062.0
 31
0.0
  0
LINE
  5
180
330
1F
100
AcDbEntity
  8
枠_表
  6
CONTINUOUS
 62
     2
100
AcDbLine
 10
846.5000000000011
 20
1260.637928387214
 30
0.0
 11
846.5000000000011
 21
1062.0
 31
0.0
  0
ARC
  5
181
330
1F
100
AcDbEntity
  8
枠_表
  6
CONTINUOUS
 62
     2
100
AcDbCircle
 10
943.5000000000002
 20
2298.999999999975
 30
0.0
 40
1295.0
100
AcDbArc
 50
265.7043237762043
 51
274.295676223796
  0
LINE
  5
182
330
1F
100
AcDbEntity
  8
枠_表
  6
CONTINUOUS
 62
     2
100
AcDbLine
 10
846.5000000000011
 20
1512.0
 30
0.0
 11
846.5000000000011
 21
1315.0
 31
0.0
  0
LINE
  5
183
330
1F
100
AcDbEntity
  8
枠_表
  6
CONTINUOUS
 62
     2
100
AcDbLine
 10
1040.500000000001
 20
1512.0
 30
0.0
 11
1040.500000000001
 21
1315.0
 31
0.0
  0
ARC
  5
184
330
1F
100
AcDbEntity
  8
枠_表
  6
CONTINUOUS
 62
     2
100
AcDbCircle
 10
849.5000000000011
 20
1512.0
 30
0.0
 40
3.000000000000002
100
AcDbArc
 50
90.00000000000001
 51
180.0
  0
ARC
  5
185
330
1F
100
AcDbEntity
  8
枠_表
  6
CONTINUOUS
 62
     2
100
AcDbCircle
 10
1037.500000000001
 20
1512.0
 30
0.0
 40
3.000000000000002
100
AcDbArc
 50
0.0
 51
90.00000000000001
  0
LINE
  5
186
330
1F
100
AcDbEntity
  8
枠_表
  6
CONTINUOUS
 62
     2
100
AcDbLine
 10
923.7850551282038
 20
1611.0
 30
0.0
 11
583.2149448718003
 21
1611.0
 31
0.0
  0
ARC
  5
187
330
1F
100
AcDbEntity
  8
枠_表
  6
CONTINUOUS
 62
     2
100
AcDbCircle
 10
865.5000000000075
 20
1082.999999999998
 30
0.0
 40
10.0
100
AcDbArc
 50
180.0
 51
270.0000000000002
  0
LINE
  5
188
330
1F
100
AcDbEntity
  8
枠_表
  6
CONTINUOUS
 62
     2
100
AcDbLine
 10
865.5000000000075
 20
1072.999999999998
 30
0.0
 11
891.5000000000048
 21
1072.999999999998
 31
0.0
  0
ARC
  5
189
330
1F
100
AcDbEntity
  8
枠_表
  6
CONTINUOUS
 62
     2
100
AcDbCircle
 10
891.5000000000048
 20
1082.999999999998
 30
0.0
 40
10.0
100
AcDbArc
 50
270.0000000000002
 51
0.0
  0
LINE
  5
18A
330
1F
100
AcDbEntity
  8
枠_表
  6
CONTINUOUS
 62
     2
100
AcDbLine
 10
901.5000000000048
 20
1245.999999999987
 30
0.0
 11
901.5000000000048
 21
1082.999999999998
 31
0.0
  0
ARC
  5
18B
330
1F
100
AcDbEntity
  8
枠_表
  6
CONTINUOUS
 62
     2
100
AcDbCircle
 10
891.5000000000048
 20
1245.999999999987
 30
0.0
 40
10.0
100
AcDbArc
 50
0.0
 51
90.00000000000001
  0
LINE
  5
18C
330
1F
100
AcDbEntity
  8
枠_表
  6
CONTINUOUS
 62
     2
100
AcDbLine
 10
865.5000000000075
 20
1255.999999999987
 30
0.0
 11
891.5000000000048
 21
1255.999999999987
 31
0.0
  0
LINE
  5
18D
330
1F
100
AcDbEntity
  8
枠_表
  6
CONTINUOUS
 62
     2
100
AcDbLine
 10
855.5000000000075
 20
1245.999999999987
 30
0.0
 11
855.5000000000075
 21
1082.999999999998
 31
0.0
  0
ARC
  5
18E
330
1F
100
AcDbEntity
  8
枠_表
  6
CONTINUOUS
 62
     2
100
AcDbCircle
 10
865.5000000000075
 20
1245.999999999987
 30
0.0
 40
10.0
100
AcDbArc
 50
90.00000000000001
 51
180.0
  0
ARC
  5
18F
330
1F
100
AcDbEntity
  8
枠_表
  6
CONTINUOUS
 62
     2
100
AcDbCircle
 10
943.5000000000002
 20
2551.999999999975
 30
0.0
 40
1295.0
100
AcDbArc
 50
268.5043881906878
 51
274.295676223796
  0
LINE
  5
190
330
1F
100
AcDbEntity
  8
枠_表
  6
CONTINUOUS
 62
     2
100
AcDbLine
 10
844.6827156455004
 20
1260.775718818399
 30
0.0
 11
909.6999999999937
 21
1260.775718818399
 31
0.0
  0
LINE
  5
191
330
1F
100
AcDbEntity
  8
枠_表
  6
CONTINUOUS
 62
     2
100
AcDbLine
 10
909.6999999999937
 20
1260.775718818399
 30
0.0
 11
909.6999999999937
 21
1062.0
 31
0.0
  0
CIRCLE
  5
192
330
1F
100
AcDbEntity
  8
枠_表
  6
CONTINUOUS
 62
     2
100
AcDbCircle
 10
473.5000000000002
 20
1445.0
 30
0.0
 40
7.000000000000004
  0
CIRCLE
  5
193
330
1F
100
AcDbEntity
  8
枠_表
  6
CONTINUOUS
 62
     2
100
AcDbCircle
 10
978.5000000000002
 20
1445.0
 30
0.0
 40
7.000000000000004
  0
CIRCLE
  5
194
330
1F
100
AcDbEntity
  8
枠_表
  6
CONTINUOUS
 62
     2
100
AcDbCircle
 10
978.5000000000002
 20
944.9999999999995
 30
0.0
 40
7.000000000000004
  0
CIRCLE
  5
195
330
1F
100
AcDbEntity
  8
枠_表
  6
CONTINUOUS
 62
     2
100
AcDbCircle
 10
978.5000000000002
 20
544.9999999999995
 30
0.0
 40
7.000000000000004
  0
CIRCLE
  5
196
330
1F
100
AcDbEntity
  8
枠_表
  6
CONTINUOUS
 62
     2
100
AcDbCircle
 10
528.5000000000002
 20
544.9999999999995
 30
0.0
 40
7.000000000000004
  0
LINE
  5
197
330
1F
100
AcDbEntity
  8
枠_表
  6
CONTINUOUS
 62
     2
100
AcDbLine
 10
461.5000000000011
 20
1625.0
 30
0.0
 11
1045.500000000001
 21
1625.0
 31
0.0
  0
LINE
  5
198
330
1F
100
AcDbEntity
  8
枠_表
  6
CONTINUOUS
 62
     2
100
AcDbLine
 10
1053.500000000001
 20
1617.0
 30
0.0
 11
1053.500000000001
 21
502.9999999999995
 31
0.0
  0
LINE
  5
199
330
1F
100
AcDbEntity
  8
枠_表
  6
CONTINUOUS
 62
     2
100
AcDbLine
 10
453.5000000000011
 20
1617.0
 30
0.0
 11
453.5000000000011
 21
502.9999999999995
 31
0.0
  0
ARC
  5
19A
330
1F
100
AcDbEntity
  8
枠_表
  6
CONTINUOUS
 62
     2
100
AcDbCircle
 10
461.5000000000011
 20
502.9999999999995
 30
0.0
 40
8.0
100
AcDbArc
 50
180.0000000000002
 51
270.0000000000002
  0
ARC
  5
19B
330
1F
100
AcDbEntity
  8
枠_表
  6
CONTINUOUS
 62
     2
100
AcDbCircle
 10
1045.500000000001
 20
502.9999999999995
 30
0.0
 40
8.0
100
AcDbArc
 50
270.0000000000002
 51
0.0
  0
ARC
  5
19C
330
1F
100
AcDbEntity
  8
枠_表
  6
CONTINUOUS
 62
     2
100
AcDbCircle
 10
1045.500000000001
 20
1617.0
 30
0.0
 40
8.0
100
AcDbArc
 50
0.0
 51
90.00000000000001
  0
ARC
  5
19D
330
1F
100
AcDbEntity
  8
枠_表
  6
CONTINUOUS
 62
     2
100
AcDbCircle
 10
461.5000000000011
 20
1617.0
 30
0.0
 40
8.0
100
AcDbArc
 50
90.00000000000001
 51
180.0
  0
LINE
  5
19E
330
1F
100
AcDbEntity
  8
枠_表
  6
CONTINUOUS
 62
     2
100
AcDbLine
 10
1700.5
 20
494.9999999999995
 30
0.0
 11
1700.5
 21
1625.0
 31
0.0
  0
LINE
  5
19F
330
1F
100
AcDbEntity
  8
枠_表
  6
CONTINUOUS
 62
     2
100
AcDbLine
 10
1670.5
 20
1624.0
 30
0.0
 11
1700.5
 21
1625.0
 31
0.0
  0
LINE
  5
1A0
330
1F
100
AcDbEntity
  8
枠_表
  6
CONTINUOUS
 62
     2
100
AcDbLine
 10
1523.5
 20
1611.0
 30
0.0
 11
1523.5
 21
1516.0
 31
0.0
  0
LINE
  5
1A1
330
1F
100
AcDbEntity
  8
枠_表
  6
CONTINUOUS
 62
     2
100
AcDbLine
 10
1523.5
 20
1516.0
 30
0.0
 11
1630.5
 21
1521.0
 31
0.0
  0
LINE
  5
1A2
330
1F
100
AcDbEntity
  8
枠_表
  6
CONTINUOUS
 62
     2
100
AcDbLine
 10
1523.5
 20
1611.0
 30
0.0
 11
1630.5
 21
1611.0
 31
0.0
  0
LINE
  5
1A3
330
1F
100
AcDbEntity
  8
枠_表
  6
CONTINUOUS
 62
     2
100
AcDbLine
 10
1577.0
 20
1315.0
 30
0.0
 11
1577.0
 21
1310.0
 31
0.0
  0
LINE
  5
1A4
330
1F
100
AcDbEntity
  8
枠_表
  6
CONTINUOUS
 62
     2
100
AcDbLine
 10
1578.0
 20
1275.5
 30
0.0
 11
1670.5
 21
1258.5
 31
0.0
  0
LINE
  5
1A5
330
1F
100
AcDbEntity
  8
枠_表
  6
CONTINUOUS
 62
     2
100
AcDbLine
 10
1577.0
 20
1315.0
 30
0.0
 11
1670.5
 21
1315.0
 31
0.0
  0
LINE
  5
1A6
330
1F
100
AcDbEntity
  8
枠_表
  6
CONTINUOUS
 62
     2
100
AcDbLine
 10
1578.0
 20
1310.0
 30
0.0
 11
1578.0
 21
1275.5
 31
0.0
  0
LINE
  5
1A7
330
1F
100
AcDbEntity
  8
枠_表
  6
CONTINUOUS
 62
     2
100
AcDbLine
 10
1577.0
 20
1062.0
 30
0.0
 11
1577.0
 21
1057.0
 31
0.0
  0
LINE
  5
1A8
330
1F
100
AcDbEntity
  8
枠_表
  6
CONTINUOUS
 62
     2
100
AcDbLine
 10
1578.0
 20
1022.5
 30
0.0
 11
1670.5
 21
1005.5
 31
0.0
  0
LINE
  5
1A9
330
1F
100
AcDbEntity
  8
枠_表
  6
CONTINUOUS
 62
     2
100
AcDbLine
 10
1577.0
 20
1062.0
 30
0.0
 11
1670.5
 21
1062.0
 31
0.0
  0
LINE
  5
1AA
330
1F
100
AcDbEntity
  8
枠_表
  6
CONTINUOUS
 62
     2
100
AcDbLine
 10
1578.0
 20
1057.0
 30
0.0
 11
1578.0
 21
1022.5
 31
0.0
  0
LINE
  5
1AB
330
1F
100
AcDbEntity
  8
枠_表
  6
CONTINUOUS
 62
     2
100
AcDbLine
 10
1577.0
 20
759.9999999999995
 30
0.0
 11
1577.0
 21
754.9999999999995
 31
0.0
  0
LINE
  5
1AC
330
1F
100
AcDbEntity
  8
枠_表
  6
CONTINUOUS
 62
     2
100
AcDbLine
 10
1578.0
 20
720.4999999999995
 30
0.0
 11
1670.5
 21
703.4999999999995
 31
0.0
  0
LINE
  5
1AD
330
1F
100
AcDbEntity
  8
枠_表
  6
CONTINUOUS
 62
     2
100
AcDbLine
 10
1577.0
 20
759.9999999999995
 30
0.0
 11
1670.5
 21
759.9999999999995
 31
0.0
  0
LINE
  5
1AE
330
1F
100
AcDbEntity
  8
枠_表
  6
CONTINUOUS
 62
     2
100
AcDbLine
 10
1578.0
 20
754.9999999999995
 30
0.0
 11
1578.0
 21
720.4999999999995
 31
0.0
  0
LINE
  5
1AF
330
1F
100
AcDbEntity
  8
枠_表
  6
CONTINUOUS
 62
     2
100
AcDbLine
 10
1650.5
 20
1262.175675675675
 30
0.0
 11
1650.5
 21
1062.0
 31
0.0
  0
LINE
  5
1B0
330
1F
100
AcDbEntity
  8
枠_表
  6
CONTINUOUS
 62
     2
100
AcDbLine
 10
1635.002481404895
 20
1620.450248140489
 30
0.0
 11
1670.5
 21
1624.0
 31
0.0
  0
ARC
  5
1B1
330
1F
100
AcDbEntity
  8
枠_表
  6
CONTINUOUS
 62
     2
100
AcDbCircle
 10
1635.5
 20
1615.47506218944
 30
0.0
 40
5.0
100
AcDbArc
 50
95.7105931375006
 51
180.0
  0
ARC
  5
1B2
330
1F
100
AcDbEntity
  8
枠_表
  6
CONTINUOUS
 62
     2
100
AcDbCircle
 10
1675.5
 20
1619.163889660065
 30
0.0
 40
5.0
100
AcDbArc
 50
91.90915243299736
 51
180.0
  0
LINE
  5
1B3
330
1F
100
AcDbEntity
  8
枠_表
  6
CONTINUOUS
 62
     2
100
AcDbLine
 10
1630.5
 20
1615.47506218944
 30
0.0
 11
1630.5
 21
1519.853747659175
 31
0.0
  0
LINE
  5
1B4
330
1F
100
AcDbEntity
  8
枠_表
  6
CONTINUOUS
 62
     2
100
AcDbLine
 10
1670.5
 20
1515.0
 30
0.0
 11
1633.350187149168
 21
1516.857490642542
 31
0.0
  0
ARC
  5
1B5
330
1F
100
AcDbEntity
  8
枠_表
  6
CONTINUOUS
 62
     2
100
AcDbCircle
 10
1633.5
 20
1519.853747659175
 30
0.0
 40
3.000000000000002
100
AcDbArc
 50
180.0
 51
267.1375947738941
  0
LINE
  5
1B6
330
1F
100
AcDbEntity
  8
枠_表
  6
CONTINUOUS
 62
     2
100
AcDbLine
 10
1670.5
 20
499.9999999999995
 30
0.0
 11
1670.5
 21
1619.163889660065
 31
0.0
  0
ARC
  5
1B7
330
1F
100
AcDbEntity
  8
枠_表
  6
CONTINUOUS
 62
     2
100
AcDbCircle
 10
1675.5
 20
499.9999999999995
 30
0.0
 40
5.0
100
AcDbArc
 50
180.0
 51
270.0000000000002
  0
LINE
  5
1B8
330
1F
100
AcDbEntity
  8
枠_表
  6
CONTINUOUS
 62
     2
100
AcDbLine
 10
1675.5
 20
494.9999999999991
 30
0.0
 11
1700.5
 21
494.9999999999991
 31
0.0
  0
LINE
  5
1B9
330
1F
100
AcDbEntity
  8
枠_表
  6
CONTINUOUS
 62
     2
100
AcDbLine
 10
461.4999999999998
 20
494.9999999999991
 30
0.0
 11
1045.5
 21
494.9999999999991
 31
0.0
  0
DIMENSION
  5
1BB
330
1F
100
AcDbEntity
  8
枠_表
  6
CONTINUOUS
 62
     3
100
AcDbDimension
  2
*D15
 10
528.4999999999993
 20
2160.999999999999
 30
0.0
 11
388.4999999999995
 21
2184.499999940394
 31
0.0
 70
   160
  3
ISO-25
100
AcDbAlignedDimension
 13
453.4999999999994
 23
2020.999999999999
 33
0.0
 14
528.4999999999993
 24
2053.499999999999
 34
0.0
100
AcDbRotatedDimension
1001
ACAD
1000
DSTYLE
1002
{
1070
   270
1070
     2
1070
     6
1000
EX_NORM
1070
     7
1000
EX_NORM
1070
    41
1040
30.0
1070
    42
1040
6.99999988079071
1070
    44
1040
10.0
1070
    73
1070
     0
1070
    74
1070
     0
1070
    75
1070
     0
1070
    76
1070
     0
1070
    77
1070
     1
1070
    78
1070
     8
1070
   140
1040
40.0
1070
   147
1040
0.0
1070
   173
1070
     1
1070
   176
1070
     3
1070
   177
1070
     3
1070
   178
1070
     2
1070
   271
1070
     2
1070
   277
1070
     2
1070
   279
1070
     2
1070
   280
1070
     1
1070
   287
1070
     5
1070
   340
1005
1BA
1002
}
  0
DIMENSION
  5
1C9
330
1F
100
AcDbEntity
  8
枠_表
  6
CONTINUOUS
 62
     3
100
AcDbDimension
  2
*D16
 10
473.4999999999994
 20
2100.999999999999
 30
0.0
 11
388.4999999999995
 21
2124.499999940394
 31
0.0
 70
   160
  3
ISO-25
100
AcDbAlignedDimension
 13
453.4999999999994
 23
2020.999999999999
 33
0.0
 14
473.4999999999994
 24
2053.499999999999
 34
0.0
100
AcDbRotatedDimension
1001
ACAD
1000
DSTYLE
1002
{
1070
   270
1070
     2
1070
     6
1000
EX_NORM
1070
     7
1000
EX_NORM
1070
    41
1040
30.0
1070
    42
1040
6.99999988079071
1070
    44
1040
10.0
1070
    73
1070
     0
1070
    74
1070
     0
1070
    75
1070
     0
1070
    76
1070
     0
1070
    77
1070
     1
1070
    78
1070
     8
1070
   140
1040
40.0
1070
   147
1040
0.0
1070
   173
1070
     1
1070
   176
1070
     3
1070
   177
1070
     3
1070
   178
1070
     2
1070
   271
1070
     2
1070
   277
1070
     2
1070
   279
1070
     2
1070
   280
1070
     1
1070
   287
1070
     5
1070
   340
1005
1BA
1002
}
  0
DIMENSION
  5
1D8
330
1F
100
AcDbEntity
  8
枠_表
  6
CONTINUOUS
 62
     3
100
AcDbDimension
  2
*D17
 10
1053.5
 20
2100.999999999999
 30
0.0
 11
1118.5
 21
2124.499999940394
 31
0.0
 70
   160
  3
ISO-25
100
AcDbAlignedDimension
 13
978.5000000000002
 23
2053.499999999999
 33
0.0
 14
1053.5
 24
2020.999999999999
 34
0.0
100
AcDbRotatedDimension
1001
ACAD
1000
DSTYLE
1002
{
1070
   270
1070
     2
1070
     6
1000
EX_NORM
1070
     7
1000
EX_NORM
1070
    41
1040
30.0
1070
    42
1040
6.99999988079071
1070
    44
1040
10.0
1070
    73
1070
     0
1070
    74
1070
     0
1070
    75
1070
     0
1070
    76
1070
     0
1070
    77
1070
     1
1070
    78
1070
     8
1070
   140
1040
40.0
1070
   147
1040
0.0
1070
   173
1070
     1
1070
   176
1070
     3
1070
   177
1070
     3
1070
   178
1070
     2
1070
   271
1070
     2
1070
   277
1070
     2
1070
   279
1070
     2
1070
   280
1070
     2
1070
   287
1070
     5
1070
   340
1005
1BA
1002
}
  0
DIMENSION
  5
1E5
330
1F
100
AcDbEntity
  8
枠_表
  6
CONTINUOUS
 62
     3
100
AcDbDimension
  2
*D18
 10
1053.5
 20
1684.999999999999
 30
0.0
 11
753.5000000000003
 21
1708.499999940394
 31
0.0
 70
   160
  3
ISO-25
100
AcDbAlignedDimension
 13
453.5000000000002
 23
1616.999999999999
 33
0.0
 14
1053.5
 24
1616.999999999999
 34
0.0
100
AcDbRotatedDimension
1001
ACAD
1000
DSTYLE
1002
{
1070
   270
1070
     2
1070
     6
1000
EX_NORM
1070
     7
1000
EX_NORM
1070
    41
1040
30.0
1070
    42
1040
6.99999988079071
1070
    44
1040
10.0
1070
    73
1070
     0
1070
    74
1070
     0
1070
    75
1070
     0
1070
    76
1070
     0
1070
    77
1070
     1
1070
    78
1070
     8
1070
   140
1040
40.0
1070
   147
1040
0.0
1070
   173
1070
     1
1070
   176
1070
     3
1070
   177
1070
     3
1070
   178
1070
     2
1070
   271
1070
     2
1070
   277
1070
     2
1070
   279
1070
     2
1070
   280
1070
     0
1070
   287
1070
     5
1070
   340
1005
1BA
1002
}
  0
DIMENSION
  5
1F2
330
1F
100
AcDbEntity
  8
枠_表
  6
CONTINUOUS
 62
     3
100
AcDbDimension
  2
*D19
 10
1291.0
 20
1624.999999999999
 30
0.0
 11
1267.500000059605
 21
1059.999999999999
 31
0.0
 70
   160
  1
1128
  3
ISO-25
100
AcDbAlignedDimension
 13
1045.5
 23
494.9999999999991
 33
0.0
 14
1045.5
 24
1624.999999999999
 34
0.0
 50
90.0
100
AcDbRotatedDimension
1001
ACAD
1000
DSTYLE
1002
{
1070
   270
1070
     2
1070
     6
1000
EX_NORM
1070
     7
1000
EX_NORM
1070
    41
1040
30.0
1070
    42
1040
6.99999988079071
1070
    44
1040
10.0
1070
    73
1070
     0
1070
    74
1070
     0
1070
    75
1070
     0
1070
    76
1070
     0
1070
    77
1070
     1
1070
    78
1070
     8
1070
   140
1040
40.0
1070
   147
1040
0.0
1070
   173
1070
     1
1070
   176
1070
     3
1070
   177
1070
     3
1070
   178
1070
     2
1070
   271
1070
     2
1070
   277
1070
     2
1070
   279
1070
     2
1070
   280
1070
     0
1070
   287
1070
     5
1070
   340
1005
1BA
1002
}
  0
DIMENSION
  5
1FF
330
1F
100
AcDbEntity
  8
枠_表
  6
CONTINUOUS
 62
     3
100
AcDbDimension
  2
*D20
 10
1231.0
 20
1174.999999999999
 30
0.0
 11
1207.500000059605
 21
834.9999999999986
 31
0.0
 70
   160
  1
※680
  3
ISO-25
100
AcDbAlignedDimension
 13
1045.5
 23
494.9999999999991
 33
0.0
 14
883.5000000000002
 24
1174.999999999999
 34
0.0
 50
90.0
100
AcDbRotatedDimension
1001
ACAD
1000
DSTYLE
1002
{
1070
   270
1070
     2
1070
     6
1000
EX_NORM
1070
     7
1000
EX_NORM
1070
    41
1040
30.0
1070
    42
1040
6.99999988079071
1070
    44
1040
10.0
1070
    73
1070
     0
1070
    74
1070
     0
1070
    75
1070
     0
1070
    76
1070
     0
1070
    77
1070
     1
1070
    78
1070
     8
1070
   140
1040
40.0
1070
   147
1040
0.0
1070
   173
1070
     1
1070
   176
1070
     3
1070
   177
1070
     3
1070
   178
1070
     2
1070
   271
1070
     2
1070
   277
1070
     2
1070
   279
1070
     2
1070
   280
1070
     0
1070
   287
1070
     5
1070
   340
1005
1BA
1002
}
  0
LEADER
  5
20C
330
1F
100
AcDbEntity
  8
枠_表
  6
CONTINUOUS
 62
     3
100
AcDbLeader
  3
ISO-25
 76
     3
 10
1102.9692962285
 20
628.8524883671889
 30
0.0
 10
1157.960863823301
 20
688.8483772939489
 30
0.0
 10
1157.960863823301
 20
858.8483772939489
 30
0.0
1001
ACAD
1000
DSTYLE
1002
{
1070
     5
1000
EX_NORM
1070
    41
1040
30.0
1070
   341
1005
4C
1002
}
  0
TEXT
  5
20D
330
1F
100
AcDbEntity
  8
枠_表
  6
CONTINUOUS
 62
     2
100
AcDbText
 10
1154.460863823301
 20
693.8483772939489
 30
0.0
 40
40.0
  1
電源コード
 50
90.0
 41
1.013793103448276
  7
EXCADSTD
 72
     5
 11
1154.460863823301
 21
861.8483772939489
 31
0.0
100
AcDbText
  0
DIMENSION
  5
20E
330
1F
100
AcDbEntity
  8
枠_表
  6
CONTINUOUS
 62
     3
100
AcDbDimension
  2
*D21
 10
1053.5
 20
844.9999999999991
 30
0.0
 11
968.5000000000002
 21
868.4999999403944
 31
0.0
 70
   160
  1
※170
  3
ISO-25
100
AcDbAlignedDimension
 13
883.5000000000002
 23
1174.999999999999
 33
0.0
 14
1053.5
 24
1616.999999999999
 34
0.0
100
AcDbRotatedDimension
1001
ACAD
1000
DSTYLE
1002
{
1070
   270
1070
     2
1070
     6
1000
EX_NORM
1070
     7
1000
EX_NORM
1070
    41
1040
30.0
1070
    42
1040
6.99999988079071
1070
    44
1040
10.0
1070
    73
1070
     0
1070
    74
1070
     0
1070
    75
1070
     0
1070
    76
1070
     1
1070
    77
1070
     1
1070
    78
1070
     8
1070
   140
1040
40.0
1070
   147
1040
0.0
1070
   173
1070
     1
1070
   176
1070
     3
1070
   177
1070
     3
1070
   178
1070
     2
1070
   271
1070
     2
1070
   277
1070
     2
1070
   279
1070
     2
1070
   280
1070
     0
1070
   287
1070
     5
1070
   340
1005
1BA
1002
}
  0
LEADER
  5
21A
330
1F
100
AcDbEntity
  8
枠_表
  6
CONTINUOUS
 62
     3
100
AcDbLeader
  3
ISO-25
 76
     3
 10
602.0000000000002
 20
494.9999999999991
 30
0.0
 10
641.0000000000002
 20
418.9999999999991
 30
0.0
 10
818.0000000000002
 20
418.9999999999991
 30
0.0
1001
ACAD
1000
DSTYLE
1002
{
1070
     5
1000
EX_NORM
1070
    41
1040
30.0
1070
   341
1005
4C
1002
}
  0
TEXT
  5
21B
330
1F
100
AcDbEntity
  8
枠_表
  6
CONTINUOUS
 62
     2
100
AcDbText
 10
646.0000000000002
 20
422.4999999999991
 30
0.0
 40
40.0
  1
防水テープ
 41
1.013793103448276
  7
EXCADSTD
 72
     5
 11
814.0000000000002
 21
422.4999999999991
 31
0.0
100
AcDbText
  0
DIMENSION
  5
21C
330
1F
100
AcDbEntity
  8
枠_表
  6
CONTINUOUS
 62
     3
100
AcDbDimension
  2
*D22
 10
1171.0
 20
509.9999999999991
 30
0.0
 11
1147.500000059605
 21
574.9999999999989
 31
0.0
 70
   160
  1
16
  3
ISO-25
100
AcDbAlignedDimension
 13
1045.5
 23
494.9999999999991
 33
0.0
 14
1053.5
 24
509.9999999999991
 34
0.0
 50
90.0
100
AcDbRotatedDimension
1001
ACAD
1000
DSTYLE
1002
{
1070
   270
1070
     2
1070
     6
1000
EX_NORM
1070
     7
1000
EX_NORM
1070
    41
1040
30.0
1070
    42
1040
6.99999988079071
1070
    44
1040
10.0
1070
    73
1070
     0
1070
    74
1070
     0
1070
    75
1070
     0
1070
    76
1070
     0
1070
    77
1070
     1
1070
    78
1070
     8
1070
   140
1040
40.0
1070
   147
1040
0.0
1070
   173
1070
     1
1070
   176
1070
     3
1070
   177
1070
     3
1070
   178
1070
     2
1070
   271
1070
     2
1070
   277
1070
     2
1070
   279
1070
     2
1070
   280
1070
     2
1070
   287
1070
     5
1070
   340
1005
1BA
1002
}
  0
DIMENSION
  5
22B
330
1F
100
AcDbEntity
  8
枠_表
  6
CONTINUOUS
 62
     3
100
AcDbDimension
  2
*D23
 10
1700.5
 20
414.9999999999991
 30
0.0
 11
1605.5
 21
438.4999999403945
 31
0.0
 70
   160
  3
ISO-25
100
AcDbAlignedDimension
 13
1670.5
 23
499.9999999999991
 33
0.0
 14
1700.5
 24
494.9999999999991
 34
0.0
100
AcDbRotatedDimension
1001
ACAD
1000
DSTYLE
1002
{
1070
   270
1070
     2
1070
     6
1000
EX_NORM
1070
     7
1000
EX_NORM
1070
    41
1040
30.0
1070
    42
1040
6.99999988079071
1070
    44
1040
10.0
1070
    73
1070
     0
1070
    74
1070
     0
1070
    75
1070
     0
1070
    76
1070
     0
1070
    77
1070
     1
1070
    78
1070
     8
1070
   140
1040
40.0
1070
   147
1040
0.0
1070
   173
1070
     1
1070
   176
1070
     3
1070
   177
1070
     3
1070
   178
1070
     2
1070
   271
1070
     2
1070
   277
1070
     2
1070
   279
1070
     2
1070
   280
1070
     1
1070
   287
1070
     5
1070
   340
1005
1BA
1002
}
  0
DIMENSION
  5
23A
330
1F
100
AcDbEntity
  8
枠_表
  6
CONTINUOUS
 62
     3
100
AcDbDimension
  2
*D24
 10
1792.000000000001
 20
544.9999999999991
 30
0.0
 11
1768.500000059605
 21
429.9999999999986
 31
0.0
 70
   160
  1
48
  3
ISO-25
100
AcDbAlignedDimension
 13
1700.5
 23
494.9999999999991
 33
0.0
 14
1733.0
 24
544.9999999999991
 34
0.0
 50
90.0
100
AcDbRotatedDimension
1001
ACAD
1000
DSTYLE
1002
{
1070
   270
1070
     2
1070
     6
1000
EX_NORM
1070
     7
1000
EX_NORM
1070
    41
1040
30.0
1070
    42
1040
6.99999988079071
1070
    44
1040
10.0
1070
    73
1070
     0
1070
    74
1070
     0
1070
    75
1070
     0
1070
    76
1070
     0
1070
    77
1070
     1
1070
    78
1070
     8
1070
   140
1040
40.0
1070
   147
1040
0.0
1070
   173
1070
     1
1070
   176
1070
     3
1070
   177
1070
     3
1070
   178
1070
     2
1070
   271
1070
     2
1070
   277
1070
     2
1070
   279
1070
     2
1070
   280
1070
     1
1070
   287
1070
     5
1070
   340
1005
1BA
1002
}
  0
DIMENSION
  5
249
330
1F
100
AcDbEntity
  8
枠_表
  6
CONTINUOUS
 62
     3
100
AcDbDimension
  2
*D25
 10
1792.0
 20
944.9999999999991
 30
0.0
 11
1768.500000059605
 21
744.9999999999991
 31
0.0
 70
   160
  3
ISO-25
100
AcDbAlignedDimension
 13
1733.0
 23
544.9999999999991
 33
0.0
 14
1733.0
 24
944.9999999999991
 34
0.0
 50
90.0
100
AcDbRotatedDimension
1001
ACAD
1000
DSTYLE
1002
{
1070
   270
1070
     2
1070
     6
1000
EX_NORM
1070
     7
1000
EX_NORM
1070
    41
1040
30.0
1070
    42
1040
6.99999988079071
1070
    44
1040
10.0
1070
    73
1070
     0
1070
    74
1070
     0
1070
    75
1070
     0
1070
    76
1070
     0
1070
    77
1070
     1
1070
    78
1070
     8
1070
   140
1040
40.0
1070
   147
1040
0.0
1070
   173
1070
     1
1070
   176
1070
     3
1070
   177
1070
     3
1070
   178
1070
     2
1070
   271
1070
     2
1070
   277
1070
     2
1070
   279
1070
     2
1070
   280
1070
     0
1070
   287
1070
     5
1070
   340
1005
1BA
1002
}
  0
DIMENSION
  5
256
330
1F
100
AcDbEntity
  8
枠_表
  6
CONTINUOUS
 62
     3
100
AcDbDimension
  2
*D26
 10
1792.0
 20
1444.999999999999
 30
0.0
 11
1768.500000059605
 21
1194.999999999999
 31
0.0
 70
   160
  3
ISO-25
100
AcDbAlignedDimension
 13
1733.0
 23
944.9999999999991
 33
0.0
 14
1733.0
 24
1444.999999999999
 34
0.0
 50
90.0
100
AcDbRotatedDimension
1001
ACAD
1000
DSTYLE
1002
{
1070
   270
1070
     2
1070
     6
1000
EX_NORM
1070
     7
1000
EX_NORM
1070
    41
1040
30.0
1070
    42
1040
6.99999988079071
1070
    44
1040
10.0
1070
    73
1070
     0
1070
    74
1070
     0
1070
    75
1070
     0
1070
    76
1070
     0
1070
    77
1070
     1
1070
    78
1070
     8
1070
   140
1040
40.0
1070
   147
1040
0.0
1070
   173
1070
     1
1070
   176
1070
     3
1070
   177
1070
     3
1070
   178
1070
     2
1070
   271
1070
     2
1070
   277
1070
     2
1070
   279
1070
     2
1070
   280
1070
     0
1070
   287
1070
     5
1070
   340
1005
1BA
1002
}
  0
LEADER
  5
263
330
1F
100
AcDbEntity
  8
枠_表
  6
CONTINUOUS
 62
     3
100
AcDbLeader
  3
ISO-25
 76
     3
 10
1713.70384241
 20
1446.187455851699
 30
0.0
 10
1746.0
 20
1500.000016689299
 30
0.0
 10
1883.0
 20
1500.000016689299
 30
0.0
1001
ACAD
1000
DSTYLE
1002
{
1070
     5
1000
EX_NORM
1070
    41
1040
30.0
1070
   341
1005
4C
1002
}
  0
TEXT
  5
264
330
1F
100
AcDbEntity
  8
枠_表
  6
CONTINUOUS
 62
     2
100
AcDbText
 10
1751.0
 20
1503.500016689299
 30
0.0
 40
40.0
  1
取付ねじ
 41
1.034782608695652
  7
EXCADSTD
 72
     5
 11
1887.0
 21
1503.500016689299
 31
0.0
100
AcDbText
  0
DIMENSION
  5
265
330
1F
100
AcDbEntity
  8
枠_表
  6
CONTINUOUS
 62
     3
100
AcDbDimension
  2
*D27
 10
1700.5
 20
1684.999999999999
 30
0.0
 11
1612.0
 21
1708.499999940394
 31
0.0
 70
   160
  3
ISO-25
100
AcDbAlignedDimension
 13
1523.5
 23
1610.999999999999
 33
0.0
 14
1700.5
 24
1624.999999999999
 34
0.0
100
AcDbRotatedDimension
1001
ACAD
1000
DSTYLE
1002
{
1070
   270
1070
     2
1070
     6
1000
EX_NORM
1070
     7
1000
EX_NORM
1070
    41
1040
30.0
1070
    42
1040
6.99999988079071
1070
    44
1040
10.0
1070
    73
1070
     0
1070
    74
1070
     0
1070
    75
1070
     0
1070
    76
1070
     0
1070
    77
1070
     1
1070
    78
1070
     8
1070
   140
1040
40.0
1070
   147
1040
0.0
1070
   173
1070
     1
1070
   176
1070
     3
1070
   177
1070
     3
1070
   178
1070
     2
1070
   271
1070
     2
1070
   277
1070
     2
1070
   279
1070
     2
1070
   280
1070
     0
1070
   287
1070
     5
1070
   340
1005
1BA
1002
}
  0
DIMENSION
  5
272
330
1F
100
AcDbEntity
  8
寸法
  6
CONTINUOUS
 62
     3
100
AcDbDimension
  2
*D28
 10
1700.5
 20
827.0
 30
0.0
 11
1477.0
 21
850.4999999403954
 31
0.0
 70
   160
  3
ISO-25
100
AcDbAlignedDimension
 13
1577.0
 23
760.0
 33
0.0
 14
1700.5
 24
799.0
 34
0.0
100
AcDbRotatedDimension
1001
ACAD
1000
DSTYLE
1002
{
1070
   270
1070
     2
1070
     6
1000
EX_NORM
1070
     7
1000
EX_NORM
1070
    41
1040
30.0
1070
    42
1040
6.99999988079071
1070
    44
1040
10.0
1070
    73
1070
     0
1070
    74
1070
     0
1070
    75
1070
     0
1070
    76
1070
     0
1070
    77
1070
     1
1070
    78
1070
     8
1070
   140
1040
40.0
1070
   147
1040
0.0
1070
   173
1070
     1
1070
   176
1070
     3
1070
   177
1070
     3
1070
   178
1070
     2
1070
   271
1070
     1
1070
   277
1070
     2
1070
   279
1070
     2
1070
   280
1070
     1
1070
   287
1070
     5
1070
   340
1005
1BA
1002
}
  0
LINE
  5
27F
330
1F
100
AcDbEntity
  8
枠_表
  6
CONTINUOUS
 62
     6
100
AcDbLine
 10
1999.999999999999
 20
235.0
 30
0.0
 11
749.9999999999982
 21
235.0
 31
0.0
  0
LINE
  5
280
330
1F
100
AcDbEntity
  8
枠_表
  6
CONTINUOUS
 62
     6
100
AcDbLine
 10
1860.0
 20
355.0
 30
0.0
 11
1860.0
 21
235.0
 31
0.0
  0
LINE
  5
281
330
1F
100
AcDbEntity
  8
枠_表
  6
CONTINUOUS
 62
     6
100
AcDbLine
 10
1810.0
 20
355.0
 30
0.0
 11
1810.0
 21
235.0
 31
0.0
  0
LINE
  5
282
330
1F
100
AcDbEntity
  8
枠_表
  6
CONTINUOUS
 62
     6
100
AcDbLine
 10
1440.0
 20
355.0
 30
0.0
 11
1440.0
 21
135.0
 31
0.0
  0
LINE
  5
283
330
1F
100
AcDbEntity
  8
枠_表
  6
CONTINUOUS
 62
     6
100
AcDbLine
 10
1390.0
 20
355.0
 30
0.0
 11
1390.0
 21
135.0
 31
0.0
  0
LINE
  5
284
330
1F
100
AcDbEntity
  8
枠_表
  6
CONTINUOUS
 62
     6
100
AcDbLine
 10
799.9999999999982
 20
355.0
 30
0.0
 11
799.9999999999982
 21
235.0
 31
0.0
  0
LINE
  5
285
330
1F
100
AcDbEntity
  8
枠_表
  6
CONTINUOUS
 62
     6
100
AcDbLine
 10
749.9999999999982
 20
355.0
 30
0.0
 11
749.9999999999982
 21
135.0
 31
0.0
  0
LINE
  5
286
330
1F
100
AcDbEntity
  8
枠_表
  6
CONTINUOUS
 62
     6
100
AcDbLine
 10
619.9999999999995
 20
355.0
 30
0.0
 11
619.9999999999995
 21
135.0
 31
0.0
  0
LINE
  5
287
330
1F
100
AcDbEntity
  8
枠_表
  6
CONTINUOUS
 62
     6
100
AcDbLine
 10
489.9999999999995
 20
355.0
 30
0.0
 11
489.9999999999995
 21
135.0
 31
0.0
  0
LINE
  5
288
330
1F
100
AcDbEntity
  8
枠_表
  6
CONTINUOUS
 62
     6
100
AcDbLine
 10
334.9999999999999
 20
355.0
 30
0.0
 11
334.9999999999999
 21
135.0
 31
0.0
  0
LINE
  5
289
330
1F
100
AcDbEntity
  8
枠_表
  6
CONTINUOUS
 62
     6
100
AcDbLine
 10
179.9999999999999
 20
305.0
 30
0.0
 11
749.9999999999982
 21
305.0
 31
0.0
  0
LINE
  5
28A
330
1F
100
AcDbEntity
  8
枠_表
  6
CONTINUOUS
 62
     6
100
AcDbLine
 10
1892.653808599999
 20
258.0029297000001
 30
0.0
 11
1969.9938965
 21
336.6998290999991
 31
0.0
  0
CIRCLE
  5
28B
330
1F
100
AcDbEntity
  8
枠_表
  6
CONTINUOUS
 62
     6
100
AcDbCircle
 10
229.9999999999999
 20
160.0
 30
0.0
 40
1.0000002
  0
CIRCLE
  5
28C
330
1F
100
AcDbEntity
  8
枠_表
  6
CONTINUOUS
 62
     6
100
AcDbCircle
 10
279.9999999999999
 20
160.0
 30
0.0
 40
1.0000002
  0
CIRCLE
  5
28D
330
1F
100
AcDbEntity
  8
枠_表
  6
CONTINUOUS
 62
     6
100
AcDbCircle
 10
384.9999999999999
 20
160.0
 30
0.0
 40
1.0000002
  0
CIRCLE
  5
28E
330
1F
100
AcDbEntity
  8
枠_表
  6
CONTINUOUS
 62
     6
100
AcDbCircle
 10
434.9999999999999
 20
160.0
 30
0.0
 40
1.0000002
  0
LINE
  5
28F
330
1F
100
AcDbEntity
  8
枠_表
  6
EXLTYPE2
 62
     6
100
AcDbLine
 10
179.9999999999999
 20
185.0
 30
0.0
 11
489.9999999999995
 21
185.0
 31
0.0
  0
LINE
  5
290
330
1F
100
AcDbEntity
  8
枠_表
  6
EXLTYPE2
 62
     6
100
AcDbLine
 10
180.0
 20
1510.0
 30
0.0
 11
10.0
 21
1510.0
 31
0.0
  0
LINE
  5
291
330
1F
100
AcDbEntity
  8
枠_表
  6
CONTINUOUS
 62
     6
100
AcDbLine
 10
730.499999995621
 20
1924.514699677363
 30
0.0
 11
776.4999999956228
 21
1924.514699677363
 31
0.0
  0
LINE
  5
292
330
1F
100
AcDbEntity
  8
枠_表
  6
CONTINUOUS
 62
     6
100
AcDbLine
 10
779.2999999956221
 20
1914.308819019624
 30
0.0
 11
727.6999999956236
 21
1914.308819019624
 31
0.0
  0
POLYLINE
  5
293
330
1F
100
AcDbEntity
  8
枠_表
  6
CONTINUOUS
 62
     6
100
AcDb2dPolyline
 66
     1
 10
0.0
 20
0.0
 30
0.0
 70
   128
  0
VERTEX
  5
294
330
293
100
AcDbEntity
  8
枠_表
  6
CONTINUOUS
 62
     6
100
AcDbVertex
100
AcDb2dVertex
 10
775.9999999956228
 20
1930.499998033015
 30
0.0
  0
VERTEX
  5
295
330
293
100
AcDbEntity
  8
枠_表
  6
CONTINUOUS
 62
     6
100
AcDbVertex
100
AcDb2dVertex
 10
775.9999999956228
 20
1936.999998033016
 30
0.0
  0
SEQEND
  5
296
330
293
100
AcDbEntity
  8
枠_表
  6
CONTINUOUS
 62
     6
  0
POLYLINE
  5
297
330
1F
100
AcDbEntity
  8
枠_表
  6
CONTINUOUS
 62
     6
100
AcDb2dPolyline
 66
     1
 10
0.0
 20
0.0
 30
0.0
 70
   128
  0
VERTEX
  5
298
330
297
100
AcDbEntity
  8
枠_表
  6
CONTINUOUS
 62
     6
100
AcDbVertex
100
AcDb2dVertex
 10
730.9999999956228
 20
1936.999998033016
 30
0.0
  0
VERTEX
  5
299
330
297
100
AcDbEntity
  8
枠_表
  6
CONTINUOUS
 62
     6
100
AcDbVertex
100
AcDb2dVertex
 10
730.9999999956228
 20
1930.499998033015
 30
0.0
  0
SEQEND
  5
29A
330
297
100
AcDbEntity
  8
枠_表
  6
CONTINUOUS
 62
     6
  0
LINE
  5
29B
330
1F
100
AcDbEntity
  8
枠_表
  6
CONTINUOUS
 62
     6
100
AcDbLine
 10
776.4999999956228
 20
1930.499998033015
 30
0.0
 11
730.499999995621
 21
1930.499998033015
 31
0.0
  0
POLYLINE
  5
29C
330
1F
100
AcDbEntity
  8
枠_表
  6
CONTINUOUS
 62
     6
100
AcDb2dPolyline
 66
     1
 10
0.0
 20
0.0
 30
0.0
 70
   128
  0
VERTEX
  5
29D
330
29C
100
AcDbEntity
  8
枠_表
  6
CONTINUOUS
 62
     6
100
AcDbVertex
100
AcDb2dVertex
 10
776.4999999956228
 20
1924.514699677363
 30
0.0
  0
VERTEX
  5
29E
330
29C
100
AcDbEntity
  8
枠_表
  6
CONTINUOUS
 62
     6
100
AcDbVertex
100
AcDb2dVertex
 10
776.4999999956228
 20
1930.499998033015
 30
0.0
  0
SEQEND
  5
29F
330
29C
100
AcDbEntity
  8
枠_表
  6
CONTINUOUS
 62
     6
  0
ARC
  5
2A0
330
1F
100
AcDbEntity
  8
枠_表
  6
CONTINUOUS
 62
     6
100
AcDbCircle
 10
796.4999999956228
 20
1924.514699677363
 30
0.0
 40
19.99999999999998
100
AcDbArc
 50
180.0
 51
210.6834171089936
  0
ARC
  5
2A1
330
1F
100
AcDbEntity
  8
枠_表
  6
CONTINUOUS
 62
     6
100
AcDbCircle
 10
710.4999999956228
 20
1924.514699677363
 30
0.0
 40
19.99999999999998
100
AcDbArc
 50
329.3165828910066
 51
0.0
  0
POLYLINE
  5
2A2
330
1F
100
AcDbEntity
  8
枠_表
  6
CONTINUOUS
 62
     6
100
AcDb2dPolyline
 66
     1
 10
0.0
 20
0.0
 30
0.0
 70
   128
  0
VERTEX
  5
2A3
330
2A2
100
AcDbEntity
  8
枠_表
  6
CONTINUOUS
 62
     6
100
AcDbVertex
100
AcDb2dVertex
 10
730.499999995621
 20
1930.499998033015
 30
0.0
  0
VERTEX
  5
2A4
330
2A2
100
AcDbEntity
  8
枠_表
  6
CONTINUOUS
 62
     6
100
AcDbVertex
100
AcDb2dVertex
 10
730.499999995621
 20
1924.514699677363
 30
0.0
  0
SEQEND
  5
2A5
330
2A2
100
AcDbEntity
  8
枠_表
  6
CONTINUOUS
 62
     6
  0
ARC
  5
2A6
330
1F
100
AcDbEntity
  8
枠_表
  6
CONTINUOUS
 62
     6
100
AcDbCircle
 10
753.4999999956228
 20
1898.999998033017
 30
0.0
 40
30.00000000000002
100
AcDbArc
 50
149.3165828910039
 51
30.68341710897474
  0
POLYLINE
  5
2A7
330
1F
100
AcDbEntity
  8
枠_表
  6
CONTINUOUS
 62
     6
100
AcDb2dPolyline
 66
     1
 10
0.0
 20
0.0
 30
0.0
 70
   128
  0
VERTEX
  5
2A8
330
2A7
100
AcDbEntity
  8
枠_表
  6
CONTINUOUS
 62
     6
100
AcDbVertex
100
AcDb2dVertex
 10
736.500000596636
 20
1954.999999999969
 30
0.0
  0
VERTEX
  5
2A9
330
2A7
100
AcDbEntity
  8
枠_表
  6
CONTINUOUS
 62
     6
100
AcDbVertex
100
AcDb2dVertex
 10
730.9999999956228
 20
1936.999998033016
 30
0.0
  0
SEQEND
  5
2AA
330
2A7
100
AcDbEntity
  8
枠_表
  6
CONTINUOUS
 62
     6
  0
POLYLINE
  5
2AB
330
1F
100
AcDbEntity
  8
枠_表
  6
CONTINUOUS
 62
     6
100
AcDb2dPolyline
 66
     1
 10
0.0
 20
0.0
 30
0.0
 70
   128
  0
VERTEX
  5
2AC
330
2AB
100
AcDbEntity
  8
枠_表
  6
CONTINUOUS
 62
     6
100
AcDbVertex
100
AcDb2dVertex
 10
775.9999999956228
 20
1936.999998033016
 30
0.0
  0
VERTEX
  5
2AD
330
2AB
100
AcDbEntity
  8
枠_表
  6
CONTINUOUS
 62
     6
100
AcDbVertex
100
AcDb2dVertex
 10
770.4999993946087
 20
1954.999999999969
 30
0.0
  0
SEQEND
  5
2AE
330
2AB
100
AcDbEntity
  8
枠_表
  6
CONTINUOUS
 62
     6
  0
LINE
  5
2AF
330
1F
100
AcDbEntity
  8
枠_表
  6
CONTINUOUS
 62
     6
100
AcDbLine
 10
775.9999999956228
 20
1936.999998033016
 30
0.0
 11
730.9999999956228
 21
1936.999998033016
 31
0.0
  0
LINE
  5
2B0
330
1F
100
AcDbEntity
  8
枠_表
  6
CONTINUOUS
 62
     6
100
AcDbLine
 10
473.4999999999984
 20
2005.999999999998
 30
0.0
 11
473.4999999999993
 21
2068.499999999998
 31
0.0
  0
LINE
  5
2B1
330
1F
100
AcDbEntity
  8
枠_表
  6
CONTINUOUS
 62
     6
100
AcDbLine
 10
471.4999999999993
 20
2020.999999999998
 30
0.0
 11
473.4999999999993
 21
2053.499999999998
 31
0.0
  0
LINE
  5
2B2
330
1F
100
AcDbEntity
  8
枠_表
  6
CONTINUOUS
 62
     6
100
AcDbLine
 10
473.4999999999993
 20
2053.499999999998
 30
0.0
 11
475.4999999999993
 21
2020.999999999998
 31
0.0
  0
LINE
  5
2B3
330
1F
100
AcDbEntity
  8
枠_表
  6
CONTINUOUS
 62
     6
100
AcDbLine
 10
978.4999999999984
 20
2005.999999999998
 30
0.0
 11
978.4999999999993
 21
2068.499999999998
 31
0.0
  0
LINE
  5
2B4
330
1F
100
AcDbEntity
  8
枠_表
  6
CONTINUOUS
 62
     6
100
AcDbLine
 10
976.4999999999993
 20
2020.999999999998
 30
0.0
 11
978.4999999999993
 21
2053.499999999998
 31
0.0
  0
LINE
  5
2B5
330
1F
100
AcDbEntity
  8
枠_表
  6
CONTINUOUS
 62
     6
100
AcDbLine
 10
978.4999999999993
 20
2053.499999999998
 30
0.0
 11
980.4999999999993
 21
2020.999999999998
 31
0.0
  0
LINE
  5
2B6
330
1F
100
AcDbEntity
  8
枠_表
  6
CONTINUOUS
 62
     6
100
AcDbLine
 10
528.4999999999984
 20
2005.999999999998
 30
0.0
 11
528.4999999999993
 21
2068.499999999998
 31
0.0
  0
LINE
  5
2B7
330
1F
100
AcDbEntity
  8
枠_表
  6
CONTINUOUS
 62
     6
100
AcDbLine
 10
526.4999999999993
 20
2020.999999999998
 30
0.0
 11
528.4999999999993
 21
2053.499999999998
 31
0.0
  0
LINE
  5
2B8
330
1F
100
AcDbEntity
  8
枠_表
  6
CONTINUOUS
 62
     6
100
AcDbLine
 10
528.4999999999993
 20
2053.499999999998
 30
0.0
 11
530.4999999999993
 21
2020.999999999998
 31
0.0
  0
LINE
  5
2B9
330
1F
100
AcDbEntity
  8
枠_表
  6
CONTINUOUS
 62
     6
100
AcDbLine
 10
923.7850551282038
 20
1600.000000000004
 30
0.0
 11
583.2149448718003
 21
1600.0
 31
0.0
  0
LINE
  5
2BA
330
1F
100
AcDbEntity
  8
枠_表
  6
CONTINUOUS
 62
     6
100
AcDbLine
 10
923.7850551282038
 20
1595.000000000004
 30
0.0
 11
583.2149448718003
 21
1595.0
 31
0.0
  0
LINE
  5
2BB
330
1F
100
AcDbEntity
  8
枠_表
  6
CONTINUOUS
 62
     6
100
AcDbLine
 10
503.4999999999993
 20
1444.999999999998
 30
0.0
 11
443.4999999999993
 21
1444.999999999998
 31
0.0
  0
LINE
  5
2BC
330
1F
100
AcDbEntity
  8
枠_表
  6
CONTINUOUS
 62
     6
100
AcDbLine
 10
473.4999999999993
 20
1474.999999999998
 30
0.0
 11
473.4999999999993
 21
1414.999999999998
 31
0.0
  0
LINE
  5
2BD
330
1F
100
AcDbEntity
  8
枠_表
  6
CONTINUOUS
 62
     6
100
AcDbLine
 10
1008.499999999999
 20
1444.999999999998
 30
0.0
 11
948.4999999999993
 21
1444.999999999998
 31
0.0
  0
LINE
  5
2BE
330
1F
100
AcDbEntity
  8
枠_表
  6
CONTINUOUS
 62
     6
100
AcDbLine
 10
978.4999999999993
 20
1474.999999999998
 30
0.0
 11
978.4999999999993
 21
1414.999999999998
 31
0.0
  0
LINE
  5
2BF
330
1F
100
AcDbEntity
  8
枠_表
  6
CONTINUOUS
 62
     6
100
AcDbLine
 10
1008.499999999999
 20
944.9999999999986
 30
0.0
 11
948.4999999999993
 21
944.9999999999986
 31
0.0
  0
LINE
  5
2C0
330
1F
100
AcDbEntity
  8
枠_表
  6
CONTINUOUS
 62
     6
100
AcDbLine
 10
978.4999999999993
 20
974.9999999999986
 30
0.0
 11
978.4999999999993
 21
914.9999999999986
 31
0.0
  0
LINE
  5
2C1
330
1F
100
AcDbEntity
  8
枠_表
  6
CONTINUOUS
 62
     6
100
AcDbLine
 10
1008.499999999999
 20
544.9999999999986
 30
0.0
 11
948.4999999999993
 21
544.9999999999986
 31
0.0
  0
LINE
  5
2C2
330
1F
100
AcDbEntity
  8
枠_表
  6
CONTINUOUS
 62
     6
100
AcDbLine
 10
978.4999999999993
 20
574.9999999999986
 30
0.0
 11
978.4999999999993
 21
514.9999999999986
 31
0.0
  0
LINE
  5
2C3
330
1F
100
AcDbEntity
  8
枠_表
  6
CONTINUOUS
 62
     6
100
AcDbLine
 10
881.5000000000102
 20
1193.25
 30
0.0
 11
875.5000000000102
 21
1193.25
 31
0.0
  0
LINE
  5
2C4
330
1F
100
AcDbEntity
  8
枠_表
  6
CONTINUOUS
 62
     6
100
AcDbLine
 10
866.9000000000099
 20
1172.750000000005
 30
0.0
 11
866.9000000000099
 21
1201.250000000005
 31
0.0
  0
LINE
  5
2C5
330
1F
100
AcDbEntity
  8
枠_表
  6
CONTINUOUS
 62
     6
100
AcDbLine
 10
866.9000000000099
 20
1172.750000000005
 30
0.0
 11
890.1000000000097
 21
1172.750000000005
 31
0.0
  0
LINE
  5
2C6
330
1F
100
AcDbEntity
  8
枠_表
  6
CONTINUOUS
 62
     6
100
AcDbLine
 10
890.1000000000097
 20
1172.750000000005
 30
0.0
 11
890.1000000000106
 21
1201.250000000005
 31
0.0
  0
LINE
  5
2C7
330
1F
100
AcDbEntity
  8
枠_表
  6
CONTINUOUS
 62
     6
100
AcDbLine
 10
866.9000000000099
 20
1201.250000000005
 30
0.0
 11
890.1000000000106
 21
1201.250000000005
 31
0.0
  0
LINE
  5
2C8
330
1F
100
AcDbEntity
  8
枠_表
  6
CONTINUOUS
 62
     6
100
AcDbLine
 10
886.3000000000104
 20
1198.750000000005
 30
0.0
 11
886.3000000000104
 21
1175.250000000005
 31
0.0
  0
LINE
  5
2C9
330
1F
100
AcDbEntity
  8
枠_表
  6
CONTINUOUS
 62
     6
100
AcDbLine
 10
886.3000000000104
 20
1198.750000000005
 30
0.0
 11
870.700000000011
 21
1198.750000000005
 31
0.0
  0
LINE
  5
2CA
330
1F
100
AcDbEntity
  8
枠_表
  6
CONTINUOUS
 62
     6
100
AcDbLine
 10
870.70000000001
 20
1175.250000000005
 30
0.0
 11
886.3000000000104
 21
1175.250000000005
 31
0.0
  0
LINE
  5
2CB
330
1F
100
AcDbEntity
  8
枠_表
  6
CONTINUOUS
 62
     6
100
AcDbLine
 10
870.700000000011
 20
1198.750000000005
 30
0.0
 11
870.70000000001
 21
1175.250000000005
 31
0.0
  0
LINE
  5
2CC
330
1F
100
AcDbEntity
  8
枠_表
  6
CONTINUOUS
 62
     6
100
AcDbLine
 10
866.9000000000099
 20
1127.750000000005
 30
0.0
 11
866.9000000000108
 21
1156.250000000005
 31
0.0
  0
LINE
  5
2CD
330
1F
100
AcDbEntity
  8
枠_表
  6
CONTINUOUS
 62
     6
100
AcDbLine
 10
866.9000000000099
 20
1127.750000000005
 30
0.0
 11
890.1000000000106
 21
1127.750000000005
 31
0.0
  0
LINE
  5
2CE
330
1F
100
AcDbEntity
  8
枠_表
  6
CONTINUOUS
 62
     6
100
AcDbLine
 10
890.1000000000106
 20
1127.750000000005
 30
0.0
 11
890.1000000000106
 21
1156.250000000005
 31
0.0
  0
LINE
  5
2CF
330
1F
100
AcDbEntity
  8
枠_表
  6
CONTINUOUS
 62
     6
100
AcDbLine
 10
866.9000000000108
 20
1156.250000000005
 30
0.0
 11
890.1000000000106
 21
1156.250000000005
 31
0.0
  0
LINE
  5
2D0
330
1F
100
AcDbEntity
  8
枠_表
  6
CONTINUOUS
 62
     6
100
AcDbLine
 10
875.0000000000002
 20
1147.999999999989
 30
0.0
 11
882.0000000000066
 21
1147.999999999989
 31
0.0
  0
LINE
  5
2D1
330
1F
100
AcDbEntity
  8
枠_表
  6
CONTINUOUS
 62
     6
100
AcDbLine
 10
874.0000000000002
 20
1135.999999999989
 30
0.0
 11
883.0000000000057
 21
1135.999999999989
 31
0.0
  0
ARC
  5
2D2
330
1F
100
AcDbEntity
  8
枠_表
  6
CONTINUOUS
 62
     6
100
AcDbCircle
 10
867.5000000000002
 20
1231.5
 30
0.0
 40
8.0
100
AcDbArc
 50
90.00000000000001
 51
180.0
  0
LINE
  5
2D3
330
1F
100
AcDbEntity
  8
枠_表
  6
CONTINUOUS
 62
     6
100
AcDbLine
 10
867.5000000000002
 20
1239.5
 30
0.0
 11
889.5000000000002
 21
1239.5
 31
0.0
  0
ARC
  5
2D4
330
1F
100
AcDbEntity
  8
枠_表
  6
CONTINUOUS
 62
     6
100
AcDbCircle
 10
889.5000000000002
 20
1231.5
 30
0.0
 40
8.0
100
AcDbArc
 50
0.0
 51
90.00000000000001
  0
LINE
  5
2D5
330
1F
100
AcDbEntity
  8
枠_表
  6
CONTINUOUS
 62
     6
100
AcDbLine
 10
897.5000000000002
 20
1231.5
 30
0.0
 11
897.5000000000002
 21
1097.5
 31
0.0
  0
ARC
  5
2D6
330
1F
100
AcDbEntity
  8
枠_表
  6
CONTINUOUS
 62
     6
100
AcDbCircle
 10
889.5000000000002
 20
1097.5
 30
0.0
 40
8.0
100
AcDbArc
 50
270.0000000000002
 51
0.0
  0
LINE
  5
2D7
330
1F
100
AcDbEntity
  8
枠_表
  6
CONTINUOUS
 62
     6
100
AcDbLine
 10
859.5000000000002
 20
1231.5
 30
0.0
 11
859.5000000000002
 21
1097.5
 31
0.0
  0
LINE
  5
2D8
330
1F
100
AcDbEntity
  8
枠_表
  6
CONTINUOUS
 62
     6
100
AcDbLine
 10
867.5000000000002
 20
1089.5
 30
0.0
 11
889.5000000000002
 21
1089.5
 31
0.0
  0
ARC
  5
2D9
330
1F
100
AcDbEntity
  8
枠_表
  6
CONTINUOUS
 62
     6
100
AcDbCircle
 10
867.5000000000002
 20
1097.5
 30
0.0
 40
8.0
100
AcDbArc
 50
180.0
 51
270.0000000000002
  0
LINE
  5
2DA
330
1F
100
AcDbEntity
  8
枠_表
  6
CONTINUOUS
 62
     6
100
AcDbLine
 10
558.4999999999993
 20
544.9999999999986
 30
0.0
 11
498.4999999999993
 21
544.9999999999986
 31
0.0
  0
LINE
  5
2DB
330
1F
100
AcDbEntity
  8
枠_表
  6
CONTINUOUS
 62
     6
100
AcDbLine
 10
528.4999999999993
 20
574.9999999999986
 30
0.0
 11
528.4999999999993
 21
514.9999999999986
 31
0.0
  0
ARC
  5
2DC
330
1F
100
AcDbEntity
  8
枠_表
  6
CONTINUOUS
 62
     6
100
AcDbCircle
 10
753.4999999999993
 20
4418.200000001375
 30
0.0
 40
2902.200000001376
100
AcDbArc
 50
266.6362684044902
 51
273.3637315955098
  0
LINE
  5
2DD
330
1F
100
AcDbEntity
  8
枠_表
  6
CONTINUOUS
 62
     6
100
AcDbLine
 10
923.7850551282038
 20
1611.0
 30
0.0
 11
923.7850551282029
 21
1521.0
 31
0.0
  0
LINE
  5
2DE
330
1F
100
AcDbEntity
  8
枠_表
  6
CONTINUOUS
 62
     6
100
AcDbLine
 10
583.2149448718003
 20
1611.0
 30
0.0
 11
583.2149448718003
 21
1521.0
 31
0.0
  0
LINE
  5
2DF
330
1F
100
AcDbEntity
  8
枠_表
  6
CONTINUOUS
 62
     6
100
AcDbLine
 10
1023.5
 20
509.9999999999995
 30
0.0
 11
1086.5766968306
 21
509.9999999999995
 31
0.0
  0
LINE
  5
2E0
330
1F
100
AcDbEntity
  8
枠_表
  6
CONTINUOUS
 62
     6
100
AcDbLine
 10
1109.107801639
 20
624.5872669101996
 30
0.0
 11
1098.482689379
 21
627.434268058299
 31
0.0
  0
LINE
  5
2E1
330
1F
100
AcDbEntity
  8
枠_表
  6
CONTINUOUS
 62
     6
100
AcDbLine
 10
1105.354861994
 20
610.5813920856995
 30
0.0
 11
1091.504666241
 21
614.9149284016999
 31
0.0
  0
LINE
  5
2E2
330
1F
100
AcDbEntity
  8
枠_表
  6
CONTINUOUS
 62
     6
100
AcDbLine
 10
1099.552538554
 20
607.4773263694992
 30
0.0
 11
1090.4975304
 21
609.9036623491997
 31
0.0
  0
LINE
  5
2E3
330
1F
100
AcDbEntity
  8
枠_表
  6
CONTINUOUS
 62
     6
100
AcDbLine
 10
1091.504666241
 20
614.9149284016999
 30
0.0
 11
1087.029978233
 21
592.649803121199
 31
0.0
  0
LINE
  5
2E4
330
1F
100
AcDbEntity
  8
枠_表
  6
CONTINUOUS
 62
     6
100
AcDbLine
 10
1093.907174018
 20
590.8057711293
 30
0.0
 11
1100.114595965
 21
609.1372443897994
 31
0.0
  0
LINE
  5
2E5
330
1F
100
AcDbEntity
  8
枠_表
  6
CONTINUOUS
 62
     6
100
AcDbLine
 10
1124.174427211
 20
618.9973023499001
 30
0.0
 11
1108.719541936
 21
623.1383693547991
 31
0.0
  0
LINE
  5
2E6
330
1F
100
AcDbEntity
  8
枠_表
  6
CONTINUOUS
 62
     6
100
AcDbLine
 10
1121.844993955
 20
610.3039229308993
 30
0.0
 11
1106.390230303
 21
614.4449995726995
 31
0.0
  0
LINE
  5
2E7
330
1F
100
AcDbEntity
  8
枠_表
  6
CONTINUOUS
 62
     6
100
AcDbLine
 10
1098.482567844
 20
627.4342574252992
 30
0.0
 11
1095.376848791
 21
615.8432237921002
 31
0.0
  0
LINE
  5
2E8
330
1F
100
AcDbEntity
  8
枠_表
  6
CONTINUOUS
 62
     6
100
AcDbLine
 10
1106.001971683
 20
612.9961011081991
 30
0.0
 11
1095.376848791
 21
615.8432237921002
 31
0.0
  0
LINE
  5
2E9
330
1F
100
AcDbEntity
  8
枠_表
  6
CONTINUOUS
 62
     6
100
AcDbLine
 10
1105.354861994
 20
610.5813920856995
 30
0.0
 11
1103.828637359
 21
611.0453533567993
 31
0.0
  0
LINE
  5
2EA
330
1F
100
AcDbEntity
  8
枠_表
  6
CONTINUOUS
 62
     6
100
AcDbLine
 10
1109.884198338
 20
627.4850532932992
 30
0.0
 11
1096.054394119
 21
630.2199234410996
 31
0.0
  0
LINE
  5
2EB
330
1F
100
AcDbEntity
  8
枠_表
  6
CONTINUOUS
 62
     6
100
AcDbLine
 10
1105.354861994
 20
610.5813920856995
 30
0.0
 11
1109.884198338
 21
627.4850532932992
 31
0.0
  0
LINE
  5
2EC
330
1F
100
AcDbEntity
  8
枠_表
  6
CONTINUOUS
 62
     6
100
AcDbLine
 10
1091.245784778999
 20
615.8809042251992
 30
0.0
 11
1094.894412078
 21
629.4977904104994
 31
0.0
  0
LINE
  5
2ED
330
1F
100
AcDbEntity
  8
枠_表
  6
CONTINUOUS
 62
     6
100
AcDbLine
 10
1092.701123577
 20
590.1606048548997
 30
0.0
 11
1087.75151588
 21
591.4868277984001
 31
0.0
  0
ARC
  5
2EE
330
1F
100
AcDbEntity
  8
枠_表
  6
CONTINUOUS
 62
     6
100
AcDbCircle
 10
1235.156677
 20
564.834961
 30
0.0
 40
150.0
100
AcDbArc
 50
169.7364188339999
 51
175.9890140000003
  0
ARC
  5
2EF
330
1F
100
AcDbEntity
  8
枠_表
  6
CONTINUOUS
 62
     6
100
AcDbCircle
 10
1240.649474999999
 20
565.1166989999997
 30
0.0
 40
150.0
100
AcDbArc
 50
170.3937176707998
 51
175.6141359999999
  0
ARC
  5
2F0
330
1F
100
AcDbEntity
  8
枠_表
  6
CONTINUOUS
 62
     6
100
AcDbCircle
 10
1102.956094715001
 20
608.1750589176995
 30
0.0
 40
3.000000000000002
100
AcDbArc
 50
73.09075899999961
 51
161.29272500001
  0
ARC
  5
2F1
330
1F
100
AcDbEntity
  8
枠_表
  6
CONTINUOUS
 62
     6
100
AcDbCircle
 10
1088.010355234
 20
592.4527608012991
 30
0.0
 40
1.0
100
AcDbArc
 50
168.6365359999535
 51
254.9999389999938
  0
ARC
  5
2F2
330
1F
100
AcDbEntity
  8
枠_表
  6
CONTINUOUS
 62
     6
100
AcDbCircle
 10
1092.959963018
 20
591.1265368615
 30
0.0
 40
1.0
100
AcDbArc
 50
255.0000000000056
 51
341.2927249999935
  0
ARC
  5
2F3
330
1F
100
AcDbEntity
  8
枠_表
  6
CONTINUOUS
 62
     6
100
AcDbCircle
 10
1114.383656701
 20
616.9619192266996
 30
0.0
 40
10.0
100
AcDbArc
 50
318.2563779999982
 51
11.74365199999793
  0
ARC
  5
2F4
330
1F
100
AcDbEntity
  8
枠_表
  6
CONTINUOUS
 62
     6
100
AcDbCircle
 10
1095.860344084
 20
629.2389509696991
 30
0.0
 40
1.0
100
AcDbArc
 50
78.81378199997579
 51
165.0000000000056
  0
ARC
  5
2F5
330
1F
100
AcDbEntity
  8
枠_表
  6
CONTINUOUS
 62
     6
100
AcDbCircle
 10
1092.211716784999
 20
615.6220647844998
 30
0.0
 40
1.0
100
AcDbArc
 50
164.9999999999553
 51
253.0908809999582
  0
ARC
  5
2F6
330
1F
100
AcDbEntity
  8
枠_表
  6
CONTINUOUS
 62
     6
100
AcDbCircle
 10
965.2486569999994
 20
576.810058999999
 30
0.0
 40
120.0000000000001
100
AcDbArc
 50
332.4231260000005
 51
355.4096070000001
  0
ARC
  5
2F7
330
1F
100
AcDbEntity
  8
枠_表
  6
CONTINUOUS
 62
     6
100
AcDbCircle
 10
971.1446529999996
 20
575.5830079999992
 30
0.0
 40
120.0000000000001
100
AcDbArc
 50
330.778137
 51
356.6508789999999
  0
ARC
  5
2F8
330
1F
100
AcDbEntity
  8
枠_表
  6
CONTINUOUS
 62
     6
100
AcDbCircle
 10
1102.956094715001
 20
608.1750589176995
 30
0.0
 40
3.000000000000002
100
AcDbArc
 50
73.09075899999961
 51
161.29272500001
  0
ARC
  5
2F9
330
1F
100
AcDbEntity
  8
枠_表
  6
CONTINUOUS
 62
     6
100
AcDbCircle
 10
1088.010355234
 20
592.4527608012991
 30
0.0
 40
1.0
100
AcDbArc
 50
168.6365359999535
 51
254.9999389999938
  0
ARC
  5
2FA
330
1F
100
AcDbEntity
  8
枠_表
  6
CONTINUOUS
 62
     6
100
AcDbCircle
 10
1092.959963018
 20
591.1265368615
 30
0.0
 40
1.0
100
AcDbArc
 50
255.0000000000056
 51
341.2927249999935
  0
ARC
  5
2FB
330
1F
100
AcDbEntity
  8
枠_表
  6
CONTINUOUS
 62
     6
100
AcDbCircle
 10
1114.383656701
 20
616.9619192266996
 30
0.0
 40
10.0
100
AcDbArc
 50
318.2563779999982
 51
11.74365199999793
  0
ARC
  5
2FC
330
1F
100
AcDbEntity
  8
枠_表
  6
CONTINUOUS
 62
     6
100
AcDbCircle
 10
1095.860344084
 20
629.2389509696991
 30
0.0
 40
1.0
100
AcDbArc
 50
78.81378199997579
 51
165.0000000000056
  0
ARC
  5
2FD
330
1F
100
AcDbEntity
  8
枠_表
  6
CONTINUOUS
 62
     6
100
AcDbCircle
 10
1092.211716784999
 20
615.6220647844998
 30
0.0
 40
1.0
100
AcDbArc
 50
164.9999999999553
 51
253.0908809999582
  0
ARC
  5
2FE
330
1F
100
AcDbEntity
  8
枠_表
  6
CONTINUOUS
 62
     6
100
AcDbCircle
 10
1082.127808
 20
583.9847409999998
 30
0.0
 40
17.00025
100
AcDbArc
 50
231.9271239999991
 51
288.0711059999998
  0
ARC
  5
2FF
330
1F
100
AcDbEntity
  8
枠_表
  6
CONTINUOUS
 62
     6
100
AcDbCircle
 10
1092.674561
 20
551.6614379999987
 30
0.0
 40
17.000208
100
AcDbArc
 50
79.99896199999944
 51
108.0710449999981
  0
ARC
  5
300
330
1F
100
AcDbEntity
  8
枠_表
  6
CONTINUOUS
 62
     6
100
AcDbCircle
 10
1092.674683
 20
551.6616209999997
 30
0.0
 40
17.000029
100
AcDbArc
 50
51.92639200000015
 51
79.99896199999789
  0
ARC
  5
301
330
1F
100
AcDbEntity
  8
枠_表
  6
CONTINUOUS
 62
     6
100
AcDbCircle
 10
1082.127808
 20
591.9847409999998
 30
0.0
 40
17.00025
100
AcDbArc
 50
231.9271239999991
 51
288.0711059999998
  0
ARC
  5
302
330
1F
100
AcDbEntity
  8
枠_表
  6
CONTINUOUS
 62
     6
100
AcDbCircle
 10
1092.674561
 20
559.6614379999987
 30
0.0
 40
17.000208
100
AcDbArc
 50
79.99896199999944
 51
108.0710449999981
  0
ARC
  5
303
330
1F
100
AcDbEntity
  8
枠_表
  6
CONTINUOUS
 62
     6
100
AcDbCircle
 10
1092.674683
 20
559.6616209999997
 30
0.0
 40
17.000029
100
AcDbArc
 50
51.92639200000015
 51
79.99896199999789
  0
ARC
  5
304
330
1F
100
AcDbEntity
  8
枠_表
  6
CONTINUOUS
 62
     6
100
AcDbCircle
 10
1053.5
 20
536.9999999999995
 30
0.0
 40
30.00000000000002
100
AcDbArc
 50
270.0000000000002
 51
318.2063289999991
  0
ARC
  5
305
330
1F
100
AcDbEntity
  8
枠_表
  6
CONTINUOUS
 62
     6
100
AcDbCircle
 10
1053.5
 20
536.9999999999995
 30
0.0
 40
24.00000000000002
100
AcDbArc
 50
270.0000000000002
 51
319.0090329999999
  0
LINE
  5
306
330
1F
100
AcDbEntity
  8
枠_表
  6
CONTINUOUS
 62
     6
100
AcDbLine
 10
753.0830085889995
 20
1400.333008588999
 30
0.0
 11
700.0499999999995
 21
1347.299999999999
 31
0.0
  0
LINE
  5
307
330
1F
100
AcDbEntity
  8
枠_表
  6
CONTINUOUS
 62
     6
100
AcDbLine
 10
730.4431457505
 20
1389.006854248999
 30
0.0
 11
711.4931457505002
 21
1370.056854249
 31
0.0
  0
LINE
  5
308
330
1F
100
AcDbEntity
  8
枠_表
  6
CONTINUOUS
 62
     6
100
AcDbLine
 10
746.9568542495001
 20
1382.893145750999
 30
0.0
 11
717.2568542495003
 21
1353.193145751
 31
0.0
  0
LINE
  5
309
330
1F
100
AcDbEntity
  8
枠_表
  6
CONTINUOUS
 62
     6
100
AcDbLine
 10
597.0830085889995
 20
1137.833008588999
 30
0.0
 11
544.0499999999995
 21
1084.8
 31
0.0
  0
LINE
  5
30A
330
1F
100
AcDbEntity
  8
枠_表
  6
CONTINUOUS
 62
     6
100
AcDbLine
 10
574.4431457505
 20
1126.506854248999
 30
0.0
 11
555.4931457505002
 21
1107.556854249
 31
0.0
  0
LINE
  5
30B
330
1F
100
AcDbEntity
  8
枠_表
  6
CONTINUOUS
 62
     6
100
AcDbLine
 10
590.9568542495001
 20
1120.393145750999
 30
0.0
 11
561.2568542495003
 21
1090.693145751
 31
0.0
  0
LINE
  5
30C
330
1F
100
AcDbEntity
  8
枠_表
  6
CONTINUOUS
 62
     6
100
AcDbLine
 10
717.0830085889995
 20
926.3330085889997
 30
0.0
 11
664.0499999999995
 21
873.2999999999997
 31
0.0
  0
LINE
  5
30D
330
1F
100
AcDbEntity
  8
枠_表
  6
CONTINUOUS
 62
     6
100
AcDbLine
 10
694.4431457505
 20
915.0068542489994
 30
0.0
 11
675.4931457505002
 21
896.0568542489996
 31
0.0
  0
LINE
  5
30E
330
1F
100
AcDbEntity
  8
枠_表
  6
CONTINUOUS
 62
     6
100
AcDbLine
 10
710.9568542495001
 20
908.8931457509989
 30
0.0
 11
681.2568542495003
 21
879.1931457509995
 31
0.0
  0
LINE
  5
30F
330
1F
100
AcDbEntity
  8
枠_表
  6
CONTINUOUS
 62
     6
100
AcDbLine
 10
1523.5
 20
1600.0
 30
0.0
 11
1630.5
 21
1600.0
 31
0.0
  0
LINE
  5
310
330
1F
100
AcDbEntity
  8
枠_表
  6
CONTINUOUS
 62
     6
100
AcDbLine
 10
1523.5
 20
1595.0
 30
0.0
 11
1630.5
 21
1595.0
 31
0.0
  0
LINE
  5
311
330
1F
100
AcDbEntity
  8
枠_表
  6
CONTINUOUS
 62
     6
100
AcDbLine
 10
1685.499999999999
 20
1445.0
 30
0.0
 11
1747.999999999999
 21
1445.0
 31
0.0
  0
LINE
  5
312
330
1F
100
AcDbEntity
  8
枠_表
  6
CONTINUOUS
 62
     6
100
AcDbLine
 10
1700.499999999999
 20
1447.0
 30
0.0
 11
1732.999999999999
 21
1445.0
 31
0.0
  0
LINE
  5
313
330
1F
100
AcDbEntity
  8
枠_表
  6
CONTINUOUS
 62
     6
100
AcDbLine
 10
1732.999999999999
 20
1445.0
 30
0.0
 11
1700.499999999999
 21
1443.0
 31
0.0
  0
LINE
  5
314
330
1F
100
AcDbEntity
  8
枠_表
  6
CONTINUOUS
 62
     6
100
AcDbLine
 10
1685.499999999999
 20
944.9999999999995
 30
0.0
 11
1747.999999999999
 21
944.9999999999995
 31
0.0
  0
LINE
  5
315
330
1F
100
AcDbEntity
  8
枠_表
  6
CONTINUOUS
 62
     6
100
AcDbLine
 10
1700.499999999999
 20
946.9999999999995
 30
0.0
 11
1732.999999999999
 21
944.9999999999995
 31
0.0
  0
LINE
  5
316
330
1F
100
AcDbEntity
  8
枠_表
  6
CONTINUOUS
 62
     6
100
AcDbLine
 10
1732.999999999999
 20
944.9999999999995
 30
0.0
 11
1700.499999999999
 21
942.9999999999995
 31
0.0
  0
LINE
  5
317
330
1F
100
AcDbEntity
  8
枠_表
  6
CONTINUOUS
 62
     6
100
AcDbLine
 10
1685.499999999999
 20
544.9999999999995
 30
0.0
 11
1747.999999999999
 21
544.9999999999995
 31
0.0
  0
LINE
  5
318
330
1F
100
AcDbEntity
  8
枠_表
  6
CONTINUOUS
 62
     6
100
AcDbLine
 10
1700.499999999999
 20
546.9999999999995
 30
0.0
 11
1732.999999999999
 21
544.9999999999995
 31
0.0
  0
LINE
  5
319
330
1F
100
AcDbEntity
  8
枠_表
  6
CONTINUOUS
 62
     6
100
AcDbLine
 10
1732.999999999999
 20
544.9999999999995
 30
0.0
 11
1700.499999999999
 21
542.9999999999995
 31
0.0
  0
LINE
  5
31A
330
1F
100
AcDbEntity
  8
枠_表
  6
CONTINUOUS
 62
     6
100
AcDbLine
 10
843.0000000000002
 20
1315.0
 30
0.0
 11
843.0000000000002
 21
1310.000000000018
 31
0.0
  0
LINE
  5
31B
330
1F
100
AcDbEntity
  8
枠_表
  6
CONTINUOUS
 62
     6
100
AcDbLine
 10
843.0000000000002
 20
1310.000000000018
 30
0.0
 11
1044.0
 21
1310.000000000018
 31
0.0
  0
LINE
  5
31C
330
1F
100
AcDbEntity
  8
枠_表
  6
CONTINUOUS
 62
     6
100
AcDbLine
 10
1044.0
 20
1315.0
 30
0.0
 11
1044.0
 21
1310.000000000018
 31
0.0
  0
LINE
  5
31D
330
1F
100
AcDbEntity
  8
枠_表
  6
CONTINUOUS
 62
     6
100
AcDbLine
 10
1042.999999999999
 20
1310.000000000018
 30
0.0
 11
1042.999999999999
 21
1258.5
 31
0.0
  0
LINE
  5
31E
330
1F
100
AcDbEntity
  8
枠_表
  6
CONTINUOUS
 62
     6
100
AcDbLine
 10
844.0000000000002
 20
1310.000000000018
 30
0.0
 11
844.0000000000002
 21
1258.5
 31
0.0
  0
LINE
  5
31F
330
1F
100
AcDbEntity
  8
枠_表
  6
CONTINUOUS
 62
     6
100
AcDbLine
 10
843.0000000000002
 20
1062.0
 30
0.0
 11
843.0000000000002
 21
1057.000000000018
 31
0.0
  0
LINE
  5
320
330
1F
100
AcDbEntity
  8
枠_表
  6
CONTINUOUS
 62
     6
100
AcDbLine
 10
843.0000000000002
 20
1057.000000000018
 30
0.0
 11
1044.0
 21
1057.000000000018
 31
0.0
  0
LINE
  5
321
330
1F
100
AcDbEntity
  8
枠_表
  6
CONTINUOUS
 62
     6
100
AcDbLine
 10
1044.0
 20
1062.0
 30
0.0
 11
1044.0
 21
1057.000000000018
 31
0.0
  0
LINE
  5
322
330
1F
100
AcDbEntity
  8
枠_表
  6
CONTINUOUS
 62
     6
100
AcDbLine
 10
1042.999999999999
 20
1057.000000000018
 30
0.0
 11
1042.999999999999
 21
1005.5
 31
0.0
  0
LINE
  5
323
330
1F
100
AcDbEntity
  8
枠_表
  6
CONTINUOUS
 62
     6
100
AcDbLine
 10
844.0000000000002
 20
1057.000000000018
 30
0.0
 11
844.0000000000002
 21
1005.5
 31
0.0
  0
LINE
  5
324
330
1F
100
AcDbEntity
  8
枠_表
  6
CONTINUOUS
 62
     6
100
AcDbLine
 10
843.0000000000002
 20
759.9999999999995
 30
0.0
 11
843.0000000000002
 21
755.0000000000177
 31
0.0
  0
LINE
  5
325
330
1F
100
AcDbEntity
  8
枠_表
  6
CONTINUOUS
 62
     6
100
AcDbLine
 10
843.0000000000002
 20
755.0000000000177
 30
0.0
 11
1044.0
 21
755.0000000000177
 31
0.0
  0
LINE
  5
326
330
1F
100
AcDbEntity
  8
枠_表
  6
CONTINUOUS
 62
     6
100
AcDbLine
 10
1044.0
 20
759.9999999999995
 30
0.0
 11
1044.0
 21
755.0000000000177
 31
0.0
  0
LINE
  5
327
330
1F
100
AcDbEntity
  8
枠_表
  6
CONTINUOUS
 62
     6
100
AcDbLine
 10
1042.999999999999
 20
755.0000000000177
 30
0.0
 11
1042.999999999999
 21
703.4999999999995
 31
0.0
  0
LINE
  5
328
330
1F
100
AcDbEntity
  8
枠_表
  6
CONTINUOUS
 62
     6
100
AcDbLine
 10
844.0000000000002
 20
755.0000000000177
 30
0.0
 11
844.0000000000002
 21
703.4999999999995
 31
0.0
  0
LINE
  5
329
330
1F
100
AcDbEntity
  8
枠_表
  6
CONTINUOUS
 62
     6
100
AcDbLine
 10
1577.0
 20
1310.0
 30
0.0
 11
1667.5
 21
1310.0
 31
0.0
  0
LINE
  5
32A
330
1F
100
AcDbEntity
  8
枠_表
  6
CONTINUOUS
 62
     6
100
AcDbLine
 10
1667.5
 20
1315.0
 30
0.0
 11
1667.5
 21
1259.051351351351
 31
0.0
  0
LINE
  5
32B
330
1F
100
AcDbEntity
  8
枠_表
  6
CONTINUOUS
 62
     6
100
AcDbLine
 10
1577.0
 20
1057.0
 30
0.0
 11
1667.5
 21
1057.0
 31
0.0
  0
LINE
  5
32C
330
1F
100
AcDbEntity
  8
枠_表
  6
CONTINUOUS
 62
     6
100
AcDbLine
 10
1667.5
 20
1062.0
 30
0.0
 11
1667.5
 21
1006.051351351351
 31
0.0
  0
LINE
  5
32D
330
1F
100
AcDbEntity
  8
枠_表
  6
CONTINUOUS
 62
     6
100
AcDbLine
 10
1577.0
 20
754.9999999999995
 30
0.0
 11
1667.5
 21
754.9999999999995
 31
0.0
  0
LINE
  5
32E
330
1F
100
AcDbEntity
  8
枠_表
  6
CONTINUOUS
 62
     6
100
AcDbLine
 10
1667.5
 20
759.9999999999995
 30
0.0
 11
1667.5
 21
704.0513513513511
 31
0.0
  0
LINE
  5
32F
330
1F
100
AcDbEntity
  8
枠_表
  6
CONTINUOUS
 62
     6
100
AcDbLine
 10
1189.0
 20
2305.0
 30
0.0
 11
1189.0
 21
2805.0
 31
0.0
  0
LINE
  5
330
330
1F
100
AcDbEntity
  8
枠_表
  6
CONTINUOUS
 62
     6
100
AcDbLine
 10
479.0000000000005
 20
2305.0
 30
0.0
 11
479.0000000000005
 21
2805.0
 31
0.0
  0
LINE
  5
331
330
1F
100
AcDbEntity
  8
枠_表
  6
CONTINUOUS
 62
     6
100
AcDbLine
 10
229.0000000000005
 20
2305.0
 30
0.0
 11
229.0000000000005
 21
2805.0
 31
0.0
  0
LINE
  5
332
330
1F
100
AcDbEntity
  8
枠_表
  6
CONTINUOUS
 62
     6
100
AcDbLine
 10
229.0000000000005
 20
2305.0
 30
0.0
 11
1189.0
 21
2305.0
 31
0.0
  0
LINE
  5
333
330
1F
100
AcDbEntity
  8
枠_表
  6
CONTINUOUS
 62
     6
100
AcDbLine
 10
229.0000000000005
 20
2355.0
 30
0.0
 11
1189.0
 21
2355.0
 31
0.0
  0
LINE
  5
334
330
1F
100
AcDbEntity
  8
枠_表
  6
CONTINUOUS
 62
     6
100
AcDbLine
 10
229.0000000000005
 20
2405.0
 30
0.0
 11
1189.0
 21
2405.0
 31
0.0
  0
LINE
  5
335
330
1F
100
AcDbEntity
  8
枠_表
  6
CONTINUOUS
 62
     6
100
AcDbLine
 10
229.0000000000005
 20
2455.0
 30
0.0
 11
1189.0
 21
2455.0
 31
0.0
  0
LINE
  5
336
330
1F
100
AcDbEntity
  8
枠_表
  6
CONTINUOUS
 62
     6
100
AcDbLine
 10
229.0000000000005
 20
2505.0
 30
0.0
 11
1189.0
 21
2505.0
 31
0.0
  0
LINE
  5
337
330
1F
100
AcDbEntity
  8
枠_表
  6
CONTINUOUS
 62
     6
100
AcDbLine
 10
229.0000000000005
 20
2555.0
 30
0.0
 11
1189.0
 21
2555.0
 31
0.0
  0
LINE
  5
338
330
1F
100
AcDbEntity
  8
枠_表
  6
CONTINUOUS
 62
     6
100
AcDbLine
 10
229.0000000000005
 20
2605.0
 30
0.0
 11
1189.0
 21
2605.0
 31
0.0
  0
LINE
  5
339
330
1F
100
AcDbEntity
  8
枠_表
  6
CONTINUOUS
 62
     6
100
AcDbLine
 10
229.0000000000005
 20
2655.0
 30
0.0
 11
1189.0
 21
2655.0
 31
0.0
  0
LINE
  5
33A
330
1F
100
AcDbEntity
  8
枠_表
  6
CONTINUOUS
 62
     6
100
AcDbLine
 10
229.0000000000005
 20
2705.0
 30
0.0
 11
1189.0
 21
2705.0
 31
0.0
  0
LINE
  5
33B
330
1F
100
AcDbEntity
  8
枠_表
  6
CONTINUOUS
 62
     6
100
AcDbLine
 10
229.0000000000005
 20
2755.0
 30
0.0
 11
1189.0
 21
2755.0
 31
0.0
  0
LINE
  5
33C
330
1F
100
AcDbEntity
  8
枠_表
  6
CONTINUOUS
 62
     6
100
AcDbLine
 10
229.0000000000005
 20
2805.0
 30
0.0
 11
1189.0
 21
2805.0
 31
0.0
  0
LINE
  5
33D
330
1F
100
AcDbEntity
  8
枠_表
  6
CONTINUOUS
 62
     6
100
AcDbLine
 10
1237.0
 20
2656.999999999999
 30
0.0
 11
1237.0
 21
2807.0
 31
0.0
  0
LINE
  5
33E
330
1F
100
AcDbEntity
  8
枠_表
  6
CONTINUOUS
 62
     6
100
AcDbLine
 10
1413.0
 20
2807.0
 30
0.0
 11
1413.0
 21
2657.0
 31
0.0
  0
LINE
  5
33F
330
1F
100
AcDbEntity
  8
枠_表
  6
CONTINUOUS
 62
     6
100
AcDbLine
 10
1890.0
 20
2807.0
 30
0.0
 11
1890.0
 21
2657.0
 31
0.0
  0
LINE
  5
340
330
1F
100
AcDbEntity
  8
枠_表
  6
CONTINUOUS
 62
     6
100
AcDbLine
 10
1974.0
 20
2807.0
 30
0.0
 11
1974.0
 21
2657.0
 31
0.0
  0
LINE
  5
341
330
1F
100
AcDbEntity
  8
枠_表
  6
CONTINUOUS
 62
     6
100
AcDbLine
 10
1236.999999999999
 20
2807.0
 30
0.0
 11
1974.0
 21
2807.0
 31
0.0
  0
LINE
  5
342
330
1F
100
AcDbEntity
  8
枠_表
  6
CONTINUOUS
 62
     6
100
AcDbLine
 10
1413.0
 20
2757.0
 30
0.0
 11
1974.0
 21
2757.0
 31
0.0
  0
LINE
  5
343
330
1F
100
AcDbEntity
  8
枠_表
  6
CONTINUOUS
 62
     6
100
AcDbLine
 10
1413.0
 20
2707.0
 30
0.0
 11
1974.0
 21
2707.0
 31
0.0
  0
LINE
  5
344
330
1F
100
AcDbEntity
  8
枠_表
  6
CONTINUOUS
 62
     6
100
AcDbLine
 10
1236.999999999999
 20
2657.0
 30
0.0
 11
1974.0
 21
2657.0
 31
0.0
  0
LINE
  5
345
330
1F
100
AcDbEntity
  8
枠_表
  6
CONTINUOUS
 62
     7
100
AcDbLine
 10
179.9999999999999
 20
135.0
 30
0.0
 11
179.9999999999999
 21
2885.0
 31
0.0
  0
TEXT
  5
347
330
1F
100
AcDbEntity
  8
0
  6
CONTINUOUS
 62
     2
100
AcDbText
 10
92.39999999999023
 20
15.65000000000001
 30
0.0
 40
3.375
  1
ジャニス工業株式会社
 41
1.025641025641026
  7
EXCADTTF1
 72
     5
 11
137.3999999999902
 21
15.65000000000001
 31
0.0
100
AcDbText
  0
TEXT
  5
348
330
1F
100
AcDbEntity
  8
枠_表
  6
CONTINUOUS
 62
     2
100
AcDbText
 10
1890.5371094
 20
302.7227782999998
 30
0.0
 40
30.0
  1
１
 41
1.101333333333329
  7
EXCADSTD
 72
     5
 11
1914.1371094
 21
302.7227782999998
 31
0.0
100
AcDbText
  0
TEXT
  5
349
330
1F
100
AcDbEntity
  8
枠_表
  6
CONTINUOUS
 62
     2
100
AcDbText
 10
202.5
 20
308.75
 30
0.0
 40
42.5
  1
製図
 41
1.509694117647059
  7
EXCADSTD
 72
     5
 11
303.326
 21
308.75
 31
0.0
100
AcDbText
  0
TEXT
  5
34A
330
1F
100
AcDbEntity
  8
枠_表
  6
CONTINUOUS
 62
     2
100
AcDbText
 10
357.5
 20
308.75
 30
0.0
 40
42.5
  1
写図
 41
1.509694117647059
  7
EXCADSTD
 72
     5
 11
458.326
 21
308.75
 31
0.0
100
AcDbText
  0
TEXT
  5
34B
330
1F
100
AcDbEntity
  8
枠_表
  6
CONTINUOUS
 62
     2
100
AcDbText
 10
507.4999999999995
 20
308.75
 30
0.0
 40
42.5
  1
検図
 41
1.303826737967914
  7
EXCADSTD
 72
     5
 11
594.5769999999995
 21
308.75
 31
0.0
100
AcDbText
  0
TEXT
  5
34C
330
1F
100
AcDbEntity
  8
枠_表
  6
CONTINUOUS
 62
     2
100
AcDbText
 10
637.4999999999981
 20
308.75
 30
0.0
 40
42.5
  1
承認
 41
1.303826737967914
  7
EXCADSTD
 72
     5
 11
724.5769999999981
 21
308.75
 31
0.0
100
AcDbText
  0
TEXT
  5
34D
330
1F
100
AcDbEntity
  8
枠_表
  6
CONTINUOUS
 62
     2
100
AcDbText
 10
755.7499999999977
 20
298.75
 30
0.0
 40
42.5
  1
品
 41
1.12
  7
EXCADSTD
 72
     5
 11
789.7499999999977
 21
298.75
 31
0.0
100
AcDbText
  0
TEXT
  5
34E
330
1F
100
AcDbEntity
  8
枠_表
  6
CONTINUOUS
 62
     2
100
AcDbText
 10
755.7499999999977
 20
248.75
 30
0.0
 40
42.5
  1
名
 41
1.12
  7
EXCADSTD
 72
     5
 11
789.7499999999977
 21
248.75
 31
0.0
100
AcDbText
  0
TEXT
  5
34F
330
1F
100
AcDbEntity
  8
枠_表
  6
CONTINUOUS
 62
     2
100
AcDbText
 10
1395.749999999999
 20
298.75
 30
0.0
 40
42.5
  1
品
 41
1.12
  7
EXCADSTD
 72
     5
 11
1429.749999999999
 21
298.75
 31
0.0
100
AcDbText
  0
TEXT
  5
350
330
1F
100
AcDbEntity
  8
枠_表
  6
CONTINUOUS
 62
     2
100
AcDbText
 10
1395.749999999999
 20
248.75
 30
0.0
 40
42.5
  1
番
 41
1.12
  7
EXCADSTD
 72
     5
 11
1429.749999999999
 21
248.75
 31
0.0
100
AcDbText
  0
TEXT
  5
351
330
1F
100
AcDbEntity
  8
枠_表
  6
CONTINUOUS
 62
     2
100
AcDbText
 10
1816.75
 20
298.75
 30
0.0
 40
42.5
  1
尺
 41
1.12
  7
EXCADSTD
 72
     5
 11
1850.75
 21
298.75
 31
0.0
100
AcDbText
  0
TEXT
  5
352
330
1F
100
AcDbEntity
  8
枠_表
  6
CONTINUOUS
 62
     2
100
AcDbText
 10
1816.75
 20
248.75
 30
0.0
 40
42.5
  1
度
 41
1.12
  7
EXCADSTD
 72
     5
 11
1850.75
 21
248.75
 31
0.0
100
AcDbText
  0
TEXT
  5
353
330
1F
100
AcDbEntity
  8
枠_表
  6
CONTINUOUS
 62
     2
100
AcDbText
 10
1395.749999999999
 20
185.7499999999991
 30
0.0
 40
42.5
  1
図
 41
1.12
  7
EXCADSTD
 72
     5
 11
1429.749999999999
 21
185.7499999999991
 31
0.0
100
AcDbText
  0
TEXT
  5
354
330
1F
100
AcDbEntity
  8
枠_表
  6
CONTINUOUS
 62
     2
100
AcDbText
 10
1395.749999999999
 20
142.75
 30
0.0
 40
42.5
  1
番
 41
1.12
  7
EXCADSTD
 72
     5
 11
1429.749999999999
 21
142.75
 31
0.0
100
AcDbText
  0
TEXT
  5
355
330
1F
100
AcDbEntity
  8
枠_表
  6
CONTINUOUS
 62
     2
100
AcDbText
 10
1931.2792969
 20
258.3488464000002
 30
0.0
 40
30.0
  1
１０
 41
1.098531212121213
  7
EXCADSTD
 72
     5
 11
1983.0671969
 21
258.3488464000002
 31
0.0
100
AcDbText
  0
TEXT
  5
356
330
1F
100
AcDbEntity
  8
枠_表
  6
CONTINUOUS
 62
     2
100
AcDbText
 10
1601.0
 20
3078.000000000002
 30
0.0
 40
40.0
  1
１２Ｗ/電球型蛍光灯/３波長型昼白色/26口金
 41
0.9178278688524588
  7
EXCADSTD
 72
     5
 11
2347.5
 21
3078.000000000002
 31
0.0
100
AcDbText
  0
TEXT
  5
357
330
1F
100
AcDbEntity
  8
枠_表
  6
CONTINUOUS
 62
     2
100
AcDbText
 10
207.4999999999949
 20
220.0
 30
0.0
 40
50.0
  1
亀井
 41
1.224910909090909
  7
EXCADSTD
 72
     5
 11
303.7429999999949
 21
220.0
 31
0.0
100
AcDbText
  0
TEXT
  5
358
330
1F
100
AcDbEntity
  8
枠_表
  6
CONTINUOUS
 62
     2
100
AcDbText
 10
184.4999999000001
 20
140.0
 30
0.0
 40
40.0
  1
28
 41
0.454054054054054
  7
EXCADSTD
 72
     5
 11
216.4999999000001
 21
140.0
 31
0.0
100
AcDbText
  0
TEXT
  5
359
330
1F
100
AcDbEntity
  8
枠_表
  6
CONTINUOUS
 62
     2
100
AcDbText
 10
243.7499999999999
 20
140.0
 30
0.0
 40
40.0
  1
5
 41
0.4516544117647059
  7
EXCADSTD
 72
     5
 11
258.3749999999999
 21
140.0
 31
0.0
100
AcDbText
  0
TEXT
  5
35A
330
1F
100
AcDbEntity
  8
枠_表
  6
CONTINUOUS
 62
     2
100
AcDbText
 10
288.0000001000002
 20
140.0
 30
0.0
 40
40.0
  1
20
 41
0.454054054054054
  7
EXCADSTD
 72
     5
 11
320.0000001000002
 21
140.0
 31
0.0
100
AcDbText
  0
TEXT
  5
35B
330
1F
100
AcDbEntity
  8
枠_表
  6
CONTINUOUS
 62
     2
100
AcDbText
 10
632.499999999995
 20
214.0
 30
0.0
 40
50.0
  1
間瀬
 41
1.224910909090908
  7
EXCADSTD
 72
     5
 11
728.7429999999949
 21
214.0
 31
0.0
100
AcDbText
  0
TEXT
  5
35C
330
1F
100
AcDbEntity
  8
枠_表
  6
CONTINUOUS
 62
     7
100
AcDbText
 10
1452.00000166893
 20
151.5
 30
0.0
 40
70.0
  1
ＬＵ９１０８２０
 41
1.140425531914894
  7
EXCADSTD
 72
     5
 11
1988.00000166893
 21
151.5
 31
0.0
100
AcDbText
  0
TEXT
  5
35D
330
1F
100
AcDbEntity
  8
枠_表
  6
CONTINUOUS
 62
     2
100
AcDbText
 10
1450.0
 20
295.0
 30
0.0
 40
50.0
  1
ＬＵＭ６０１０ＳＬＮ
 41
0.8542372881355934
  7
EXCADSTD
 72
     5
 11
1810.0
 21
295.0
 31
0.0
100
AcDbText
  0
TEXT
  5
35E
330
1F
100
AcDbEntity
  8
枠_表
  6
CONTINUOUS
 62
     2
100
AcDbText
 10
1450.0
 20
245.0
 30
0.0
 40
50.0
  1
ＬＵＭ６０１０ＳＬＨ
 41
0.8542372881355934
  7
EXCADSTD
 72
     5
 11
1810.0
 21
245.0
 31
0.0
100
AcDbText
  0
TEXT
  5
35F
330
1F
100
AcDbEntity
  8
枠_表
  6
CONTINUOUS
 62
     2
100
AcDbText
 10
809.9999999999983
 20
270.0
 30
0.0
 40
50.0
  1
600㎜幅  化粧鏡台
 41
0.9485507246376811
  7
EXCADSTD
 72
     5
 11
1277.499999999998
 21
270.0
 31
0.0
100
AcDbText
  0
TEXT
  5
360
330
1F
100
AcDbEntity
  8
枠_表
  6
CONTINUOUS
 62
     2
100
AcDbText
 10
484.0000000000016
 20
2360.0
 30
0.0
 40
40.0
  1
１３Ｗ（ＬＵＭ６０１０ＳＬＨのみ）
 41
1.103712871287129
  7
EXCADSTD
 72
     5
 11
1121.000000000002
 21
2360.0
 31
0.0
100
AcDbText
  0
TEXT
  5
361
330
1F
100
AcDbEntity
  8
枠_表
  6
CONTINUOUS
 62
     2
100
AcDbText
 10
484.0000000000016
 20
2710.0
 30
0.0
 40
40.0
  1
防湿形
 41
1.225
  7
EXCADSTD
 72
     5
 11
603.0000000000016
 21
2710.0
 31
0.0
100
AcDbText
  0
TEXT
  5
362
330
1F
100
AcDbEntity
  8
枠_表
  6
CONTINUOUS
 62
     2
100
AcDbText
 10
234.0000000000016
 20
2460.0
 30
0.0
 40
40.0
  1
防水テープ
 41
1.164655172413793
  7
EXCADSTD
 72
     5
 11
427.0000000000016
 21
2460.0
 31
0.0
100
AcDbText
  0
TEXT
  5
363
330
1F
100
AcDbEntity
  8
枠_表
  6
CONTINUOUS
 62
     2
100
AcDbText
 10
484.0000000000016
 20
2410.0
 30
0.0
 40
40.0
  1
化粧キャップ付木ねじ
 41
1.121186440677966
  7
EXCADSTD
 72
     5
 11
862.0000000000016
 21
2410.0
 31
0.0
100
AcDbText
  0
TEXT
  5
364
330
1F
100
AcDbEntity
  8
枠_表
  6
CONTINUOUS
 62
     2
100
AcDbText
 10
234.0000000000007
 20
2410.0
 30
0.0
 40
40.0
  1
取付ねじ
 41
1.18695652173913
  7
EXCADSTD
 72
     5
 11
390.0000000000007
 21
2410.0
 31
0.0
100
AcDbText
  0
TEXT
  5
365
330
1F
100
AcDbEntity
  8
枠_表
  6
CONTINUOUS
 62
     2
100
AcDbText
 10
484.0000000000016
 20
2310.0
 30
0.0
 40
40.0
  1
ＡＣ１００Ｖ　５０/６０Ｈｚ
 41
1.044812252964427
  7
EXCADSTD
 72
     5
 11
987.5000000000016
 21
2310.0
 31
0.0
100
AcDbText
  0
TEXT
  5
366
330
1F
100
AcDbEntity
  8
枠_表
  6
CONTINUOUS
 62
     2
100
AcDbText
 10
234.0000000000016
 20
2310.0
 30
0.0
 40
40.0
  1
電源
 41
1.195746363636363
  7
EXCADSTD
 72
     5
 11
309.1612000000015
 21
2310.0
 31
0.0
100
AcDbText
  0
TEXT
  5
367
330
1F
100
AcDbEntity
  8
枠_表
  6
CONTINUOUS
 62
     2
100
AcDbText
 10
484.0000000000016
 20
2460.0
 30
0.0
 40
40.0
  1
スポンジ
 41
1.18695652173913
  7
EXCADSTD
 72
     5
 11
640.0000000000016
 21
2460.0
 31
0.0
100
AcDbText
  0
TEXT
  5
368
330
1F
100
AcDbEntity
  8
枠_表
  6
CONTINUOUS
 62
     2
100
AcDbText
 10
234.0000000000016
 20
2360.0
 30
0.0
 40
40.0
  1
防曇ヒーター
 41
1.15
  7
EXCADSTD
 72
     5
 11
464.0000000000016
 21
2360.0
 31
0.0
100
AcDbText
  0
TEXT
  5
369
330
1F
100
AcDbEntity
  8
枠_表
  6
CONTINUOUS
 62
     2
100
AcDbText
 10
484.0000000000016
 20
2510.0
 30
0.0
 40
40.0
  1
合成樹脂（ＨｉＰＳ）
 41
1.121186440677966
  7
EXCADSTD
 72
     5
 11
862.0000000000016
 21
2510.0
 31
0.0
100
AcDbText
  0
TEXT
  5
36A
330
1F
100
AcDbEntity
  8
枠_表
  6
CONTINUOUS
 62
     2
100
AcDbText
 10
234.0000000000016
 20
2510.0
 30
0.0
 40
40.0
  1
歯ブラシ立て
 41
1.15
  7
EXCADSTD
 72
     5
 11
464.0000000000016
 21
2510.0
 31
0.0
100
AcDbText
  0
TEXT
  5
36B
330
1F
100
AcDbEntity
  8
枠_表
  6
CONTINUOUS
 62
     2
100
AcDbText
 10
484.0000000000016
 20
2760.0
 30
0.0
 40
40.0
  1
合成樹脂（ＨｉＰＳ）
 41
1.121186440677966
  7
EXCADSTD
 72
     5
 11
862.0000000000016
 21
2760.0
 31
0.0
100
AcDbText
  0
TEXT
  5
36C
330
1F
100
AcDbEntity
  8
枠_表
  6
CONTINUOUS
 62
     2
100
AcDbText
 10
484.0000000000016
 20
2560.0
 30
0.0
 40
40.0
  1
ＶＦＦ　プラグ付（２.０m㎡）
 41
1.003505535055351
  7
EXCADSTD
 72
     5
 11
1002.000000000002
 21
2560.0
 31
0.0
100
AcDbText
  0
TEXT
  5
36D
330
1F
100
AcDbEntity
  8
枠_表
  6
CONTINUOUS
 62
     2
100
AcDbText
 10
229.0000000000016
 20
2810.0
 30
0.0
 40
40.0
  1
化粧鏡台仕様
 41
1.225
  7
EXCADSTD
 72
     5
 11
474.0000000000016
 21
2810.0
 31
0.0
100
AcDbText
  0
TEXT
  5
36E
330
1F
100
AcDbEntity
  8
枠_表
  6
CONTINUOUS
 62
     2
100
AcDbText
 10
234.0000000000016
 20
2610.0
 30
0.0
 40
40.0
  1
コンセント
 41
1.164655172413793
  7
EXCADSTD
 72
     5
 11
427.0000000000016
 21
2610.0
 31
0.0
100
AcDbText
  0
TEXT
  5
36F
330
1F
100
AcDbEntity
  8
枠_表
  6
CONTINUOUS
 62
     2
100
AcDbText
 10
234.0000000000016
 20
2710.0
 30
0.0
 40
40.0
  1
鏡
 41
1.259999999999999
  7
EXCADSTD
 72
     5
 11
270.0000000000016
 21
2710.0
 31
0.0
100
AcDbText
  0
TEXT
  5
370
330
1F
100
AcDbEntity
  8
枠_表
  6
CONTINUOUS
 62
     2
100
AcDbText
 10
234.0000000000016
 20
2560.0
 30
0.0
 40
40.0
  1
電源コード
 41
1.164655172413793
  7
EXCADSTD
 72
     5
 11
427.0000000000016
 21
2560.0
 31
0.0
100
AcDbText
  0
TEXT
  5
371
330
1F
100
AcDbEntity
  8
枠_表
  6
CONTINUOUS
 62
     2
100
AcDbText
 10
234.0000000000016
 20
2660.0
 30
0.0
 40
40.0
  1
照明器具
 41
1.18695652173913
  7
EXCADSTD
 72
     5
 11
390.0000000000016
 21
2660.0
 31
0.0
100
AcDbText
  0
TEXT
  5
372
330
1F
100
AcDbEntity
  8
枠_表
  6
CONTINUOUS
 62
     2
100
AcDbText
 10
234.0000000000016
 20
2760.0
 30
0.0
 40
40.0
  1
本体
 41
1.195746363636363
  7
EXCADSTD
 72
     5
 11
309.1612000000016
 21
2760.0
 31
0.0
100
AcDbText
  0
TEXT
  5
373
330
1F
100
AcDbEntity
  8
枠_表
  6
CONTINUOUS
 62
     2
100
AcDbText
 10
1418.000000000001
 20
2762.0
 30
0.0
 40
40.0
  1
取扱説明書
 41
1.164655172413793
  7
EXCADSTD
 72
     5
 11
1611.000000000001
 21
2762.0
 31
0.0
100
AcDbText
  0
TEXT
  5
374
330
1F
100
AcDbEntity
  8
枠_表
  6
CONTINUOUS
 62
     2
100
AcDbText
 10
1418.0
 20
2712.0
 30
0.0
 40
40.0
  1
バインドタッピンネジ４.０×４０
 41
0.8888989169675091
  7
EXCADSTD
 72
     5
 11
1887.0
 21
2712.0
 31
0.0
100
AcDbText
  0
TEXT
  5
375
330
1F
100
AcDbEntity
  8
枠_表
  6
CONTINUOUS
 62
     2
100
AcDbText
 10
1897.0
 20
2762.0
 30
0.0
 40
40.0
  1
１部
 41
1.049923636363638
  7
EXCADSTD
 72
     5
 11
1962.995200000001
 21
2762.0
 31
0.0
100
AcDbText
  0
TEXT
  5
376
330
1F
100
AcDbEntity
  8
枠_表
  6
CONTINUOUS
 62
     2
100
AcDbText
 10
1418.000000000001
 20
2662.0
 30
0.0
 40
40.0
  1
ネジ穴キャップ
 41
1.139634146341463
  7
EXCADSTD
 72
     5
 11
1685.000000000001
 21
2662.0
 31
0.0
100
AcDbText
  0
TEXT
  5
377
330
1F
100
AcDbEntity
  8
枠_表
  6
CONTINUOUS
 62
     2
100
AcDbText
 10
1897.0
 20
2712.0
 30
0.0
 40
40.0
  1
５本
 41
1.049923636363638
  7
EXCADSTD
 72
     5
 11
1962.995200000001
 21
2712.0
 31
0.0
100
AcDbText
  0
TEXT
  5
378
330
1F
100
AcDbEntity
  8
枠_表
  6
CONTINUOUS
 62
     2
100
AcDbText
 10
1897.0
 20
2662.0
 30
0.0
 40
40.0
  1
５個
 41
1.049923636363638
  7
EXCADSTD
 72
     5
 11
1962.995200000001
 21
2662.0
 31
0.0
100
AcDbText
  0
TEXT
  5
379
330
1F
100
AcDbEntity
  8
枠_表
  6
CONTINUOUS
 62
     2
100
AcDbText
 10
1262.0
 20
2573.999999999999
 30
0.0
 40
40.0
  1
・電源コードの取出しは、左又は右
 41
1.105263157894737
  7
EXCADSTD
 72
     5
 11
1862.0
 21
2573.999999999999
 31
0.0
100
AcDbText
  0
TEXT
  5
37A
330
1F
100
AcDbEntity
  8
枠_表
  6
CONTINUOUS
 62
     2
100
AcDbText
 10
1262.0
 20
2533.999999999999
 30
0.0
 40
40.0
  1
　有効コード長さ（参考値）
 41
1.111363636363637
  7
EXCADSTD
 72
     5
 11
1751.0
 21
2533.999999999999
 31
0.0
100
AcDbText
  0
TEXT
  5
37B
330
1F
100
AcDbEntity
  8
枠_表
  6
CONTINUOUS
 62
     2
100
AcDbText
 10
1262.0
 20
2493.999999999999
 30
0.0
 40
40.0
  1
　　右取出し：１６００㎜
 41
1.114084507042254
  7
EXCADSTD
 72
     5
 11
1714.0
 21
2493.999999999999
 31
0.0
100
AcDbText
  0
TEXT
  5
37C
330
1F
100
AcDbEntity
  8
枠_表
  6
CONTINUOUS
 62
     2
100
AcDbText
 10
1262.0
 20
2453.999999999999
 30
0.0
 40
40.0
  1
　　左取出し：１０００㎜
 41
1.114084507042254
  7
EXCADSTD
 72
     5
 11
1714.0
 21
2453.999999999999
 31
0.0
100
AcDbText
  0
TEXT
  5
37D
330
1F
100
AcDbEntity
  8
枠_表
  6
CONTINUOUS
 62
     2
100
AcDbText
 10
1262.0
 20
2413.999999999999
 30
0.0
 40
40.0
  1
・※付の寸法は、直結配線の場合の
 41
1.105263157894737
  7
EXCADSTD
 72
     5
 11
1862.0
 21
2413.999999999999
 31
0.0
100
AcDbText
  0
TEXT
  5
37E
330
1F
100
AcDbEntity
  8
枠_表
  6
CONTINUOUS
 62
     2
100
AcDbText
 10
1262.0
 20
2373.999999999999
 30
0.0
 40
40.0
  1
　コード取出位置を示す
 41
1.117307692307692
  7
EXCADSTD
 72
     5
 11
1677.0
 21
2373.999999999999
 31
0.0
100
AcDbText
  0
TEXT
  5
37F
330
1F
100
AcDbEntity
  8
枠_表
  6
CONTINUOUS
 62
     2
100
AcDbText
 10
484.0000000000016
 20
2610.0
 30
0.0
 40
40.0
  1
許容電力：１２００Ｗ（外付１コ）
 41
1.105263157894737
  7
EXCADSTD
 72
     5
 11
1084.000000000002
 21
2610.0
 31
0.0
100
AcDbText
  0
TEXT
  5
380
330
1F
100
AcDbEntity
  8
枠_表
  6
CONTINUOUS
 62
     2
100
AcDbText
 10
484.0000000000002
 20
2660.000000000001
 30
0.0
 40
40.0
  1
５Ｗ　ＬＥＤ電球　昼白色　口金Ｅ２６
 41
0.8995327102803738
  7
EXCADSTD
 72
     5
 11
1034.0
 21
2660.000000000001
 31
0.0
100
AcDbText
  0
TEXT
  5
381
330
1F
100
AcDbEntity
  8
枠_表
  6
CONTINUOUS
 62
     2
100
AcDbText
 10
1271.0
 20
2712.0
 30
0.0
 40
40.0
  1
付属品
 41
1.070588235294118
  7
EXCADSTD
 72
     5
 11
1375.0
 21
2712.0
 31
0.0
100
AcDbText
  0
ENDSEC
  0
SECTION
  2
OBJECTS
  0
DICTIONARY
  5
C
330
0
100
AcDbDictionary
  3
ACAD_GROUP
350
D
  3
ACAD_LAYOUT
350
1A
  3
ACAD_MATERIAL
350
3B
  3
ACAD_MLEADERSTYLE
350
3A4
  3
ACAD_MLINESTYLE
350
17
  3
ACAD_PLOTSETTINGS
350
19
  3
ACAD_VISUALSTYLE
350
2A
  3
ACDBHEADERROUNDTRIPXREC
350
382
  3
ACDBVARIABLEDICTIONARY
350
3A2
  0
DICTIONARY
  5
D
102
{ACAD_REACTORS
330
C
102
}
330
C
100
AcDbDictionary
  0
DICTIONARY
  5
1A
102
{ACAD_REACTORS
330
C
102
}
330
C
100
AcDbDictionary
  0
DICTIONARY
  5
3B
102
{ACAD_REACTORS
330
C
102
}
330
C
100
AcDbDictionary
  3
BYBLOCK
350
3D
  3
BYLAYER
350
3C
  3
GLOBAL
350
3E
  0
DICTIONARY
  5
3A4
102
{ACAD_REACTORS
330
C
102
}
330
C
100
AcDbDictionary
  0
DICTIONARY
  5
17
102
{ACAD_REACTORS
330
C
102
}
330
C
100
AcDbDictionary
  3
STANDARD
350
18
  0
DICTIONARY
  5
19
102
{ACAD_REACTORS
330
C
102
}
330
C
100
AcDbDictionary
  0
DICTIONARY
  5
2A
102
{ACAD_REACTORS
330
C
102
}
330
C
100
AcDbDictionary
  3
2DWIREFRAME
350
2F
  3
3D_HIDDEN
350
31
  3
3DWIREFRAME
350
30
  3
BASIC
350
32
  3
BRIGHTEN
350
36
  3
COLORCHANGE
350
3A
  3
CONCEPTUAL
350
34
  3
DIM
350
35
  3
FACEPATTERN
350
39
  3
FLAT
350
2B
  3
FLATWITHEDGES
350
2C
  3
GOURAUD
350
2D
  3
GOURAUDWITHEDGES
350
2E
  3
LINEPATTERN
350
38
  3
REALISTIC
350
33
  3
THICKEN
350
37
  0
DICTIONARY
  5
382
102
{ACAD_REACTORS
330
C
102
}
330
C
100
AcDbDictionary
  3
CEPSNTYPE
350
38B
  3
DIMSTYLEDATA
350
3A1
  3
FINGERPRINTGUID
350
38C
  3
HYPERLINKBASE
350
385
  3
INSUNITS
350
38A
  3
LAYOUTDICT
350
387
  3
LWETCUNION
350
389
  3
PLOTSETDICT
350
388
  3
PSVPSCALE
350
38E
  3
PUCSBASE
350
391
  3
PUCSORGBACK
350
397
  3
PUCSORGBOTTOM
350
393
  3
PUCSORGFRONT
350
396
  3
PUCSORGLEFT
350
394
  3
PUCSORGRIGHT
350
395
  3
PUCSORGTOP
350
392
  3
PUCSORTHOREF
350
38F
  3
PUCSORTHOVIEW
350
390
  3
STYLESHEET
350
386
  3
TSTACKALIGN
350
383
  3
TSTACKSIZE
350
384
  3
UCSBASE
350
39A
  3
UCSORGBACK
350
3A0
  3
UCSORGBOTTOM
350
39C
  3
UCSORGFRONT
350
39F
  3
UCSORGLEFT
350
39D
  3
UCSORGRIGHT
350
39E
  3
UCSORGTOP
350
39B
  3
UCSORTHOREF
350
398
  3
UCSORTHOVIEW
350
399
  3
VERSIONGUID
350
38D
  0
DICTIONARY
  5
3A2
102
{ACAD_REACTORS
330
C
102
}
330
C
100
AcDbDictionary
  3
DIMASSOC
350
3A7
  3
HIDETEXT
350
3A8
  3
PSOLHEIGHT
350
3A6
  3
PSOLWIDTH
350
3A5
  0
MATERIAL
  5
3D
102
{ACAD_REACTORS
330
3B
102
}
102
{ACAD_XDICTIONARY
360
3AB
102
}
330
3B
100
AcDbMaterial
  1
ByBlock
  0
MATERIAL
  5
3C
102
{ACAD_REACTORS
330
3B
102
}
102
{ACAD_XDICTIONARY
360
3A9
102
}
330
3B
100
AcDbMaterial
  1
ByLayer
  0
MATERIAL
  5
3E
102
{ACAD_REACTORS
330
3B
102
}
102
{ACAD_XDICTIONARY
360
3AD
102
}
330
3B
100
AcDbMaterial
  1
Global
  0
MLINESTYLE
  5
18
102
{ACAD_REACTORS
330
17
102
}
330
17
100
AcDbMlineStyle
  2
Standard
 70
     0
  3

 62
   256
 51
90.0
 52
90.0
 71
     2
 49
0.5
 62
   256
  6
BYLAYER
 49
-0.5
 62
   256
  6
BYLAYER
  0
ACAD_PROXY_OBJECT
  5
2F
102
{ACAD_REACTORS
330
2A
102
}
330
2A
100
AcDbProxyObject
 90
      499
 91
      501
 93
      436
310
42CC9915DA5C99599C985B595049028333333333333E3BF0000000000000FB0107901411070040501600405405064090741402480A0340
1001
ACAD
1000
AcDbSavedByObjectVersion
1070
     0
  0
ACAD_PROXY_OBJECT
  5
31
102
{ACAD_REACTORS
330
2A
102
}
330
2A
100
AcDbProxyObject
 90
      499
 91
      501
 93
      500
310
424CD108121A5919195B90640502408333333333333E3BF0000000000000FB01079024090700405020000000000001110200405405064090740C02480A0340
1001
ACAD
1000
AcDbSavedByObjectVersion
1070
     0
  0
ACAD_PROXY_OBJECT
  5
30
102
{ACAD_REACTORS
330
2A
102
}
330
2A
100
AcDbProxyObject
 90
      499
 91
      501
 93
      436
310
42CCD915DA5C99599C985B595059028333333333333E3BF0000000000000FB0107901411070040501600405405064090741402480A0340
1001
ACAD
1000
AcDbSavedByObjectVersion
1070
     0
  0
ACAD_PROXY_OBJECT
  5
32
102
{ACAD_REACTORS
330
2A
102
}
330
2A
100
AcDbProxyObject
 90
      499
 91
      501
 93
      388
310
4150985CDA58D07406404333333333333E3BF0000000000000FB0107A41107004050150841D405064090741402480A0350
1001
ACAD
1000
AcDbSavedByObjectVersion
1070
     0
  0
ACAD_PROXY_OBJECT
  5
36
102
{ACAD_REACTORS
330
2A
102
}
330
2A
100
AcDbProxyObject
 90
      499
 91
      501
 93
      428
310
42109C9A59DA1D195B90C409028333333333333E3BF0000000000000FB010790141107004050150841D405064090741402480A029950
1001
ACAD
1000
AcDbSavedByObjectVersion
1070
     0
  0
ACAD_PROXY_OBJECT
  5
3A
102
{ACAD_REACTORS
330
2A
102
}
330
2A
100
AcDbProxyObject
 90
      499
 91
      501
 93
      452
310
42D0DBDB1BDC90DA185B99D95104090240C333333333333E3BF0000000000000FB0108901411070040501508421405064090741402480A0350
1001
ACAD
1000
AcDbSavedByObjectVersion
1070
     0
  0
ACAD_PROXY_OBJECT
  5
34
102
{ACAD_REACTORS
330
2A
102
}
330
2A
100
AcDbProxyObject
 90
      499
 91
      501
 93
      500
310
4290DBDB98D95C1D1D585B10940D028333333333333E3BF0000000000000FB0107902409070040501000000000000111010841D405064090740C02480A0340
1001
ACAD
1000
AcDbSavedByObjectVersion
1070
     0
  0
ACAD_PROXY_OBJECT
  5
35
102
{ACAD_REACTORS
330
2A
102
}
330
2A
100
AcDbProxyObject
 90
      499
 91
      501
 93
      412
310
40D11A5B50B409028333333333333E3BF0000000000000FB010790141107004050150841D405064090741402480A02677FFFFFD0
1001
ACAD
1000
AcDbSavedByObjectVersion
1070
     0
  0
ACAD_PROXY_OBJECT
  5
39
102
{ACAD_REACTORS
330
2A
102
}
330
2A
100
AcDbProxyObject
 90
      499
 91
      501
 93
      444
310
42D19858D95C185D1D195C9B90F409028333333333333E3BF0000000000000FB010790141107004050150841D405064090741402480A0350
1001
ACAD
1000
AcDbSavedByObjectVersion
1070
     0
  0
ACAD_PROXY_OBJECT
  5
2B
102
{ACAD_REACTORS
330
2A
102
}
330
2A
100
AcDbProxyObject
 90
      499
 91
      501
 93
      388
310
41119B185D240901404333333333333E3BF0000000000000F9010740A41107004050150841D405064090741402480A1B50
1001
ACAD
1000
AcDbSavedByObjectVersion
1070
     0
  0
ACAD_PROXY_OBJECT
  5
2C
102
{ACAD_REACTORS
330
2A
102
}
330
2A
100
AcDbProxyObject
 90
      499
 91
      501
 93
      476
310
43519B185D15DA5D1A115919D95CD0140901404333333333333E3BF0000000000000F9010740901411070040501600405405064090741402480A1B50
1001
ACAD
1000
AcDbSavedByObjectVersion
1070
     0
  0
ACAD_PROXY_OBJECT
  5
2D
102
{ACAD_REACTORS
330
2A
102
}
330
2A
100
AcDbProxyObject
 90
      499
 91
      501
 93
      412
310
41D1DBDD5C985D5910240902404333333333333E3BF0000000000000F9010740A411070040501641D405064090741402480A1B50
1001
ACAD
1000
AcDbSavedByObjectVersion
1070
     0
  0
ACAD_PROXY_OBJECT
  5
2E
102
{ACAD_REACTORS
330
2A
102
}
330
2A
100
AcDbProxyObject
 90
      499
 91
      501
 93
      500
310
4411DBDD5C985D5915DA5D1A115919D95CD0340902404333333333333E3BF0000000000000F9010740901411070040501600405405064090741402480A1B50
1001
ACAD
1000
AcDbSavedByObjectVersion
1070
     0
  0
ACAD_PROXY_OBJECT
  5
38
102
{ACAD_REACTORS
330
2A
102
}
330
2A
100
AcDbProxyObject
 90
      499
 91
      501
 93
      444
310
42D31A5B995C185D1D195C9B90E409028333333333333E3BF0000000000000FB010790141107004050750841D405064090741402483A0350
1001
ACAD
1000
AcDbSavedByObjectVersion
1070
     0
  0
ACAD_PROXY_OBJECT
  5
33
102
{ACAD_REACTORS
330
2A
102
}
330
2A
100
AcDbProxyObject
 90
      499
 91
      501
 93
      420
310
425499585B1A5CDD1A58D08409028333333333333E3BF0000000000000FB01079019070040501508421405064090741402480A1B40
1001
ACAD
1000
AcDbSavedByObjectVersion
1070
     0
  0
ACAD_PROXY_OBJECT
  5
37
102
{ACAD_REACTORS
330
2A
102
}
330
2A
100
AcDbProxyObject
 90
      499
 91
      501
 93
      412
310
41D51A1A58DAD95B90D409028333333333333E3BF0000000000000FB010790141107004050150C41D405064090741402480A0350
1001
ACAD
1000
AcDbSavedByObjectVersion
1070
     0
  0
XRECORD
  5
38B
102
{ACAD_REACTORS
330
382
102
}
330
382
100
AcDbXrecord
 90
        0
  0
XRECORD
  5
3A1
102
{ACAD_REACTORS
330
382
102
}
330
382
100
AcDbXrecord
1000
DSTYLE
1002
{
1070
   340
340
11
1002
}
  0
XRECORD
  5
38C
102
{ACAD_REACTORS
330
382
102
}
330
382
100
AcDbXrecord
  1
{4C2802F5-5439-4059-9662-713A65AFBC7A}
  0
XRECORD
  5
385
102
{ACAD_REACTORS
330
382
102
}
330
382
100
AcDbXrecord
  1

  0
XRECORD
  5
38A
102
{ACAD_REACTORS
330
382
102
}
330
382
100
AcDbXrecord
 90
        4
  0
XRECORD
  5
387
102
{ACAD_REACTORS
330
382
102
}
330
382
100
AcDbXrecord
340
1A
  0
XRECORD
  5
389
102
{ACAD_REACTORS
330
382
102
}
330
382
100
AcDbXrecord
 90
    10781
  0
XRECORD
  5
388
102
{ACAD_REACTORS
330
382
102
}
330
382
100
AcDbXrecord
340
19
  0
XRECORD
  5
38E
102
{ACAD_REACTORS
330
382
102
}
330
382
100
AcDbXrecord
 40
0.0
  0
XRECORD
  5
391
102
{ACAD_REACTORS
330
382
102
}
330
382
100
AcDbXrecord
340
0
  0
XRECORD
  5
397
102
{ACAD_REACTORS
330
382
102
}
330
382
100
AcDbXrecord
 10
0.0
 20
0.0
 30
0.0
  0
XRECORD
  5
393
102
{ACAD_REACTORS
330
382
102
}
330
382
100
AcDbXrecord
 10
0.0
 20
0.0
 30
0.0
  0
XRECORD
  5
396
102
{ACAD_REACTORS
330
382
102
}
330
382
100
AcDbXrecord
 10
0.0
 20
0.0
 30
0.0
  0
XRECORD
  5
394
102
{ACAD_REACTORS
330
382
102
}
330
382
100
AcDbXrecord
 10
0.0
 20
0.0
 30
0.0
  0
XRECORD
  5
395
102
{ACAD_REACTORS
330
382
102
}
330
382
100
AcDbXrecord
 10
0.0
 20
0.0
 30
0.0
  0
XRECORD
  5
392
102
{ACAD_REACTORS
330
382
102
}
330
382
100
AcDbXrecord
 10
0.0
 20
0.0
 30
0.0
  0
XRECORD
  5
38F
102
{ACAD_REACTORS
330
382
102
}
330
382
100
AcDbXrecord
340
0
  0
XRECORD
  5
390
102
{ACAD_REACTORS
330
382
102
}
330
382
100
AcDbXrecord
 70
     0
  0
XRECORD
  5
386
102
{ACAD_REACTORS
330
382
102
}
330
382
100
AcDbXrecord
  1

  0
XRECORD
  5
383
102
{ACAD_REACTORS
330
382
102
}
330
382
100
AcDbXrecord
 90
        1
  0
XRECORD
  5
384
102
{ACAD_REACTORS
330
382
102
}
330
382
100
AcDbXrecord
 90
       70
  0
XRECORD
  5
39A
102
{ACAD_REACTORS
330
382
102
}
330
382
100
AcDbXrecord
340
0
  0
XRECORD
  5
3A0
102
{ACAD_REACTORS
330
382
102
}
330
382
100
AcDbXrecord
 10
0.0
 20
0.0
 30
0.0
  0
XRECORD
  5
39C
102
{ACAD_REACTORS
330
382
102
}
330
382
100
AcDbXrecord
 10
0.0
 20
0.0
 30
0.0
  0
XRECORD
  5
39F
102
{ACAD_REACTORS
330
382
102
}
330
382
100
AcDbXrecord
 10
0.0
 20
0.0
 30
0.0
  0
XRECORD
  5
39D
102
{ACAD_REACTORS
330
382
102
}
330
382
100
AcDbXrecord
 10
0.0
 20
0.0
 30
0.0
  0
XRECORD
  5
39E
102
{ACAD_REACTORS
330
382
102
}
330
382
100
AcDbXrecord
 10
0.0
 20
0.0
 30
0.0
  0
XRECORD
  5
39B
102
{ACAD_REACTORS
330
382
102
}
330
382
100
AcDbXrecord
 10
0.0
 20
0.0
 30
0.0
  0
XRECORD
  5
398
102
{ACAD_REACTORS
330
382
102
}
330
382
100
AcDbXrecord
340
0
  0
XRECORD
  5
399
102
{ACAD_REACTORS
330
382
102
}
330
382
100
AcDbXrecord
 70
     0
  0
XRECORD
  5
38D
102
{ACAD_REACTORS
330
382
102
}
330
382
100
AcDbXrecord
  1
{FAEB1C32-E019-11D5-929B-00C0DF256EC4}
  0
DICTIONARYVAR
  5
3A7
102
{ACAD_REACTORS
330
3A2
102
}
330
3A2
100
DictionaryVariables
280
     0
  1
2
  0
DICTIONARYVAR
  5
3A8
102
{ACAD_REACTORS
330
3A2
102
}
330
3A2
100
DictionaryVariables
280
     0
  1
1
  0
DICTIONARYVAR
  5
3A6
102
{ACAD_REACTORS
330
3A2
102
}
330
3A2
100
DictionaryVariables
280
     0
  1
80.000000
  0
DICTIONARYVAR
  5
3A5
102
{ACAD_REACTORS
330
3A2
102
}
330
3A2
100
DictionaryVariables
280
     0
  1
5.000000
  0
DICTIONARY
  5
3AB
330
3D
100
AcDbDictionary
280
     1
  3
ACAD_XREC_ROUNDTRIP
360
3AC
  0
DICTIONARY
  5
3A9
330
3C
100
AcDbDictionary
280
     1
  3
ACAD_XREC_ROUNDTRIP
360
3AA
  0
DICTIONARY
  5
3AD
330
3E
100
AcDbDictionary
280
     1
  3
ACAD_XREC_ROUNDTRIP
360
3AE
  0
XRECORD
  5
3AC
102
{ACAD_REACTORS
330
3AB
102
}
330
3AB
100
AcDbXrecord
102
MATERIAL
148
0.0
149
0.0
149
0.0
 93
        0
 94
      127
282
     0
 72
     1
 77
     1
171
     1
175
     1
179
     1
273
     0
  0
XRECORD
  5
3AA
102
{ACAD_REACTORS
330
3A9
102
}
330
3A9
100
AcDbXrecord
102
MATERIAL
148
0.0
149
0.0
149
0.0
 93
        0
 94
      127
282
     0
 72
     1
 77
     1
171
     1
175
     1
179
     1
273
     0
  0
XRECORD
  5
3AE
102
{ACAD_REACTORS
330
3AD
102
}
330
3AD
100
AcDbXrecord
102
MATERIAL
148
0.0
149
0.0
149
0.0
 93
        0
 94
      127
282
     0
 72
     1
 77
     1
171
     1
175
     1
179
     1
273
     0
  0
ENDSEC
  0
EOF
