  0
SECTION
  2
HEADER
  9
$ACADVER
  1
AC1014
  9
$ACADMAINTVER
 70
     9
  9
$DWGCODEPAGE
  3
ANSI_932
  9
$INSBASE
 10
0.0
 20
0.0
 30
0.0
  9
$EXTMIN
 10
-2.099999999999985
 20
11.5
 30
0.0
  9
$EXTMAX
 10
199.9
 20
291.5
 30
0.0
  9
$LIMMIN
 10
0.0
 20
0.0
  9
$LIMMAX
 10
210.0
 20
297.0
  9
$ORTHOMODE
 70
     0
  9
$REGENMODE
 70
     1
  9
$FILLMODE
 70
     1
  9
$QTEXTMODE
 70
     0
  9
$MIRRTEXT
 70
     1
  9
$DRAGMODE
 70
     2
  9
$LTSCALE
 40
1.0
  9
$OSMODE
 70
    37
  9
$ATTMODE
 70
     1
  9
$TEXTSIZE
 40
2.5
  9
$TRACEWID
 40
1.0
  9
$TEXTSTYLE
  7
STANDARD
  9
$CLAYER
  8
枠_表
  9
$CELTYPE
  6
BYLAYER
  9
$CECOLOR
 62
   256
  9
$CELTSCALE
 40
1.0
  9
$DELOBJ
 70
     1
  9
$DISPSILH
 70
     0
  9
$DIMSCALE
 40
1.0
  9
$DIMASZ
 40
2.5
  9
$DIMEXO
 40
0.625
  9
$DIMDLI
 40
3.75
  9
$DIMRND
 40
0.0
  9
$DIMDLE
 40
0.0
  9
$DIMEXE
 40
1.25
  9
$DIMTP
 40
0.0
  9
$DIMTM
 40
0.0
  9
$DIMTXT
 40
2.5
  9
$DIMCEN
 40
2.5
  9
$DIMTSZ
 40
0.0
  9
$DIMTOL
 70
     0
  9
$DIMLIM
 70
     0
  9
$DIMTIH
 70
     0
  9
$DIMTOH
 70
     0
  9
$DIMSE1
 70
     0
  9
$DIMSE2
 70
     0
  9
$DIMTAD
 70
     1
  9
$DIMZIN
 70
     8
  9
$DIMBLK
  1

  9
$DIMASO
 70
     1
  9
$DIMSHO
 70
     1
  9
$DIMPOST
  1

  9
$DIMAPOST
  1

  9
$DIMALT
 70
     0
  9
$DIMALTD
 70
     3
  9
$DIMALTF
 40
0.03937007874016
  9
$DIMLFAC
 40
1.0
  9
$DIMTOFL
 70
     1
  9
$DIMTVP
 40
0.0
  9
$DIMTIX
 70
     0
  9
$DIMSOXD
 70
     0
  9
$DIMSAH
 70
     0
  9
$DIMBLK1
  1

  9
$DIMBLK2
  1

  9
$DIMSTYLE
  2
ISO-25
  9
$DIMCLRD
 70
     0
  9
$DIMCLRE
 70
     0
  9
$DIMCLRT
 70
     0
  9
$DIMTFAC
 40
1.0
  9
$DIMGAP
 40
0.625
  9
$DIMJUST
 70
     0
  9
$DIMSD1
 70
     0
  9
$DIMSD2
 70
     0
  9
$DIMTOLJ
 70
     0
  9
$DIMTZIN
 70
     8
  9
$DIMALTZ
 70
     0
  9
$DIMALTTZ
 70
     0
  9
$DIMFIT
 70
     3
  9
$DIMUPT
 70
     0
  9
$DIMUNIT
 70
     2
  9
$DIMDEC
 70
     2
  9
$DIMTDEC
 70
     2
  9
$DIMALTU
 70
     2
  9
$DIMALTTD
 70
     3
  9
$DIMTXSTY
  7
STANDARD
  9
$DIMAUNIT
 70
     0
  9
$LUNITS
 70
     2
  9
$LUPREC
 70
     4
  9
$SKETCHINC
 40
1.0
  9
$FILLETRAD
 40
10.0
  9
$AUNITS
 70
     0
  9
$AUPREC
 70
     0
  9
$MENU
  1
.
  9
$ELEVATION
 40
0.0
  9
$PELEVATION
 40
0.0
  9
$THICKNESS
 40
0.0
  9
$LIMCHECK
 70
     0
  9
$CHAMFERA
 40
10.0
  9
$CHAMFERB
 40
10.0
  9
$CHAMFERC
 40
20.0
  9
$CHAMFERD
 40
0.0
  9
$SKPOLY
 70
     0
  9
$TDCREATE
 40
2459719.599441702
  9
$TDUPDATE
 40
2459719.599441886
  9
$TDINDWG
 40
0.0000000116
  9
$TDUSRTIMER
 40
0.0000000116
  9
$USRTIMER
 70
     1
  9
$ANGBASE
 50
0.0
  9
$ANGDIR
 70
     0
  9
$PDMODE
 70
     0
  9
$PDSIZE
 40
0.0
  9
$PLINEWID
 40
0.0
  9
$COORDS
 70
     1
  9
$SPLFRAME
 70
     0
  9
$SPLINETYPE
 70
     6
  9
$SPLINESEGS
 70
     8
  9
$ATTDIA
 70
     0
  9
$ATTREQ
 70
     1
  9
$HANDLING
 70
     1
  9
$HANDSEED
  5
345
  9
$SURFTAB1
 70
     6
  9
$SURFTAB2
 70
     6
  9
$SURFTYPE
 70
     6
  9
$SURFU
 70
     6
  9
$SURFV
 70
     6
  9
$UCSNAME
  2

  9
$UCSORG
 10
0.0
 20
0.0
 30
0.0
  9
$UCSXDIR
 10
1.0
 20
0.0
 30
0.0
  9
$UCSYDIR
 10
0.0
 20
1.0
 30
0.0
  9
$PUCSNAME
  2

  9
$PUCSORG
 10
0.0
 20
0.0
 30
0.0
  9
$PUCSXDIR
 10
1.0
 20
0.0
 30
0.0
  9
$PUCSYDIR
 10
0.0
 20
1.0
 30
0.0
  9
$USERI1
 70
     0
  9
$USERI2
 70
     0
  9
$USERI3
 70
     0
  9
$USERI4
 70
     0
  9
$USERI5
 70
     0
  9
$USERR1
 40
0.0
  9
$USERR2
 40
0.0
  9
$USERR3
 40
0.0
  9
$USERR4
 40
0.0
  9
$USERR5
 40
0.0
  9
$WORLDVIEW
 70
     1
  9
$SHADEDGE
 70
     3
  9
$SHADEDIF
 70
    70
  9
$TILEMODE
 70
     1
  9
$MAXACTVP
 70
    64
  9
$PINSBASE
 10
0.0
 20
0.0
 30
0.0
  9
$PLIMCHECK
 70
     0
  9
$PEXTMIN
 10
1.000000000000000E+20
 20
1.000000000000000E+20
 30
1.000000000000000E+20
  9
$PEXTMAX
 10
-1.000000000000000E+20
 20
-1.000000000000000E+20
 30
-1.000000000000000E+20
  9
$PLIMMIN
 10
0.0
 20
0.0
  9
$PLIMMAX
 10
420.0
 20
297.0
  9
$UNITMODE
 70
     0
  9
$VISRETAIN
 70
     1
  9
$PLINEGEN
 70
     0
  9
$PSLTSCALE
 70
     1
  9
$TREEDEPTH
 70
  3020
  9
$PICKSTYLE
 70
     1
  9
$CMLSTYLE
  2
STANDARD
  9
$CMLJUST
 70
     0
  9
$CMLSCALE
 40
20.0
  9
$PROXYGRAPHICS
 70
     1
  9
$MEASUREMENT
 70
     1
  0
ENDSEC
  0
SECTION
  2
CLASSES
  0
CLASS
  1
ACDBDICTIONARYWDFLT
  2
AcDbDictionaryWithDefault
  3
ObjectDBX Classes
 90
        0
280
     0
281
     0
  0
CLASS
  1
VISUALSTYLE
  2
AcDbVisualStyle
  3
ObjectDBX Classes
 90
     4095
280
     0
281
     0
  0
CLASS
  1
MATERIAL
  2
AcDbMaterial
  3
ObjectDBX Classes
 90
     1153
280
     0
281
     0
  0
CLASS
  1
SUN
  2
AcDbSun
  3
SCENEOE
 90
     1024
280
     0
281
     0
  0
CLASS
  1
DICTIONARYVAR
  2
AcDbDictionaryVar
  3
ObjectDBX Classes
 90
        0
280
     0
281
     0
  0
CLASS
  1
XRECORD
  2
AcDbXrecord
  3
AutoCAD 2000
 90
        0
280
     0
281
     0
  0
CLASS
  1
LWPOLYLINE
  2
AcDbPolyline
  3
AutoCAD 2000
 90
        0
280
     0
281
     1
  0
CLASS
  1
HATCH
  2
AcDbHatch
  3
AutoCAD 2000
 90
        0
280
     0
281
     1
  0
CLASS
  1
ACDBPLACEHOLDER
  2
AcDbPlaceHolder
  3
ObjectDBX Classes
 90
        0
280
     0
281
     0
  0
CLASS
  1
LAYOUT
  2
AcDbLayout
  3
ObjectDBX Classes
 90
        0
280
     0
281
     0
  0
ENDSEC
  0
SECTION
  2
TABLES
  0
TABLE
  2
VPORT
  5
8
330
0
100
AcDbSymbolTable
 70
     1
  0
VPORT
  5
29
330
8
100
AcDbSymbolTableRecord
100
AcDbViewportTableRecord
  2
*ACTIVE
 70
     0
 10
0.0
 20
0.0
 11
1.0
 21
1.0
 12
98.90000000000002
 22
151.5
 13
0.0
 23
0.0
 14
10.0
 24
10.0
 15
10.0
 25
10.0
 16
0.0
 26
0.0
 36
1.0
 17
0.0
 27
0.0
 37
0.0
 40
280.0
 41
0.7214285714285715
 42
50.0
 43
0.0
 44
0.0
 50
0.0
 51
0.0
 71
     0
 72
  1000
 73
     1
 74
     3
 75
     0
 76
     0
 77
     0
 78
     0
  0
ENDTAB
  0
TABLE
  2
LTYPE
  5
5
330
0
100
AcDbSymbolTable
 70
     8
  0
LTYPE
  5
14
330
5
100
AcDbSymbolTableRecord
100
AcDbLinetypeTableRecord
  2
BYBLOCK
 70
     0
  3

 72
    65
 73
     0
 40
0.0
  0
LTYPE
  5
15
330
5
100
AcDbSymbolTableRecord
100
AcDbLinetypeTableRecord
  2
BYLAYER
 70
     0
  3

 72
    65
 73
     0
 40
0.0
  0
LTYPE
  5
16
330
5
100
AcDbSymbolTableRecord
100
AcDbLinetypeTableRecord
  2
CONTINUOUS
 70
     0
  3
Solid line
 72
    65
 73
     0
 40
0.0
  0
LTYPE
  5
40
330
5
100
AcDbSymbolTableRecord
100
AcDbLinetypeTableRecord
  2
EXLTYPE1
 70
     0
  3
破線
 72
    65
 73
     2
 40
3.0
 49
2.0
 74
     0
 49
-1.0
 74
     0
  0
LTYPE
  5
41
330
5
100
AcDbSymbolTableRecord
100
AcDbLinetypeTableRecord
  2
EXLTYPE2
 70
     0
  3
点線
 72
    65
 73
     2
 40
2.0
 49
1.0
 74
     0
 49
-1.0
 74
     0
  0
LTYPE
  5
42
330
5
100
AcDbSymbolTableRecord
100
AcDbLinetypeTableRecord
  2
EXLTYPE3
 70
     0
  3
一点鎖線
 72
    65
 73
     4
 40
10.0
 49
7.0
 74
     0
 49
-1.0
 74
     0
 49
1.0
 74
     0
 49
-1.0
 74
     0
  0
LTYPE
  5
43
330
5
100
AcDbSymbolTableRecord
100
AcDbLinetypeTableRecord
  2
EXLTYPE4
 70
     0
  3
二点鎖線
 72
    65
 73
     6
 40
12.0
 49
7.0
 74
     0
 49
-1.0
 74
     0
 49
1.0
 74
     0
 49
-1.0
 74
     0
 49
1.0
 74
     0
 49
-1.0
 74
     0
  0
LTYPE
  5
44
330
5
100
AcDbSymbolTableRecord
100
AcDbLinetypeTableRecord
  2
EXLTYPE5
 70
     0
  3
三点鎖線
 72
    65
 73
     8
 40
37.0
 49
30.0
 74
     0
 49
-1.0
 74
     0
 49
1.0
 74
     0
 49
-1.0
 74
     0
 49
1.0
 74
     0
 49
-1.0
 74
     0
 49
1.0
 74
     0
 49
-1.0
 74
     0
  0
LTYPE
  5
45
330
5
100
AcDbSymbolTableRecord
100
AcDbLinetypeTableRecord
  2
EXLTYPE6
 70
     0
  3
四点鎖線
 72
    65
 73
    10
 40
39.0
 49
30.0
 74
     0
 49
-1.0
 74
     0
 49
1.0
 74
     0
 49
-1.0
 74
     0
 49
1.0
 74
     0
 49
-1.0
 74
     0
 49
1.0
 74
     0
 49
-1.0
 74
     0
 49
1.0
 74
     0
 49
-1.0
 74
     0
  0
LTYPE
  5
46
330
5
100
AcDbSymbolTableRecord
100
AcDbLinetypeTableRecord
  2
EXLTYPE7
 70
     0
  3
破線2
 72
    65
 73
     2
 40
3.0
 49
2.0
 74
     0
 49
-1.0
 74
     0
  0
ENDTAB
  0
TABLE
  2
LAYER
  5
2
330
0
100
AcDbSymbolTable
 70
     7
  0
LAYER
  5
10
330
2
100
AcDbSymbolTableRecord
100
AcDbLayerTableRecord
  2
0
 70
     0
 62
     7
  6
CONTINUOUS
  0
LAYER
  5
49
330
2
100
AcDbSymbolTableRecord
100
AcDbLayerTableRecord
  2
枠_表
 70
     0
 62
     7
  6
CONTINUOUS
  0
LAYER
  5
4A
330
2
100
AcDbSymbolTableRecord
100
AcDbLayerTableRecord
  2
洗面器
 70
     0
 62
     7
  6
CONTINUOUS
  0
LAYER
  5
4B
330
2
100
AcDbSymbolTableRecord
100
AcDbLayerTableRecord
  2
水栓
 70
     0
 62
     7
  6
CONTINUOUS
  0
LAYER
  5
4C
330
2
100
AcDbSymbolTableRecord
100
AcDbLayerTableRecord
  2
トラップ
 70
     0
 62
     7
  6
CONTINUOUS
  0
LAYER
  5
4D
330
2
100
AcDbSymbolTableRecord
100
AcDbLayerTableRecord
  2
寸法
 70
     0
 62
     7
  6
CONTINUOUS
  0
LAYER
  5
248
330
2
100
AcDbSymbolTableRecord
100
AcDbLayerTableRecord
  2
DEFPOINTS
 70
     0
 62
     7
  6
CONTINUOUS
  0
ENDTAB
  0
TABLE
  2
STYLE
  5
3
330
0
100
AcDbSymbolTable
 70
     5
  0
STYLE
  5
11
330
3
100
AcDbSymbolTableRecord
100
AcDbTextStyleTableRecord
  2
STANDARD
 70
     0
 40
0.0
 41
1.0
 50
0.0
 71
     0
 42
2.5
  3
monotxt
  4
extfont
  0
STYLE
  5
47
330
3
100
AcDbSymbolTableRecord
100
AcDbTextStyleTableRecord
  2
EXCADSTD
 70
     0
 40
0.0
 41
1.0
 50
0.0
 71
     0
 42
0.2
  3
monotxt
  4
extfont
  0
STYLE
  5
48
330
3
100
AcDbSymbolTableRecord
100
AcDbTextStyleTableRecord
  2
EXCADVERT
 70
     4
 40
0.0
 41
1.0
 50
0.0
 71
     0
 42
0.286885
  3
monotxt
  4
extfont
  0
STYLE
  5
10E
330
3
100
AcDbSymbolTableRecord
100
AcDbTextStyleTableRecord
  2
EXCADTTF1
 70
     0
 40
0.0
 41
1.0
 50
0.0
 71
     0
 42
0.2
  3
MSGOTHIC.TTC
  4

1001
ACAD
1000
MS Gothic
1071
    32817
  0
STYLE
  5
246
330
3
100
AcDbSymbolTableRecord
100
AcDbTextStyleTableRecord
  2
EXCADDIM1
 70
     0
 40
0.0
 41
0.84
 50
0.0
 71
     0
 42
0.2
  3
monotxt
  4
extfont
  0
ENDTAB
  0
TABLE
  2
VIEW
  5
6
330
0
100
AcDbSymbolTable
 70
     0
  0
ENDTAB
  0
TABLE
  2
UCS
  5
7
330
0
100
AcDbSymbolTable
 70
     0
  0
ENDTAB
  0
TABLE
  2
APPID
  5
9
330
0
100
AcDbSymbolTable
 70
     1
  0
APPID
  5
12
330
9
100
AcDbSymbolTableRecord
100
AcDbRegAppTableRecord
  2
ACAD
 70
     0
  0
ENDTAB
  0
TABLE
  2
DIMSTYLE
  5
A
330
0
100
AcDbSymbolTable
 70
     1
  0
DIMSTYLE
105
27
102
{ACAD_REACTORS
330
247
330
255
330
263
330
271
330
27E
330
28B
330
297
330
2A3
330
2AF
330
2BF
330
2CC
330
2D9
330
2ED
330
2F9
102
}
330
A
100
AcDbSymbolTableRecord
100
AcDbDimStyleTableRecord
  2
ISO-25
 70
     0
  3

  4

  5

  6

  7

 40
1.0
 41
2.5
 42
0.625
 43
3.75
 44
1.25
 45
0.0
 46
0.0
 47
0.0
 48
0.0
140
2.5
141
2.5
142
0.0
143
0.03937007874016
144
1.0
145
0.0
146
1.0
147
0.625
 71
     0
 72
     0
 73
     0
 74
     0
 75
     0
 76
     0
 77
     1
 78
     8
170
     0
171
     3
172
     1
173
     0
174
     0
175
     0
176
     0
177
     0
178
     0
270
     2
271
     2
272
     2
273
     2
274
     3
340
11
275
     0
280
     0
281
     0
282
     0
283
     0
284
     8
285
     0
286
     0
287
     5
288
     0
  0
ENDTAB
  0
TABLE
  2
BLOCK_RECORD
  5
1
330
0
100
AcDbSymbolTable
 70
    29
  0
BLOCK_RECORD
  5
1F
330
1
100
AcDbSymbolTableRecord
100
AcDbBlockTableRecord
  2
*MODEL_SPACE
  0
BLOCK_RECORD
  5
1B
330
1
100
AcDbSymbolTableRecord
100
AcDbBlockTableRecord
  2
*PAPER_SPACE
  0
BLOCK_RECORD
  5
4E
330
1
100
AcDbSymbolTableRecord
100
AcDbBlockTableRecord
  2
EX_NORM
  0
BLOCK_RECORD
  5
51
330
1
100
AcDbSymbolTableRecord
100
AcDbBlockTableRecord
  2
EX_BNORM
  0
BLOCK_RECORD
  5
54
330
1
100
AcDbSymbolTableRecord
100
AcDbBlockTableRecord
  2
EX_BCIR
  0
BLOCK_RECORD
  5
57
330
1
100
AcDbSymbolTableRecord
100
AcDbBlockTableRecord
  2
EX_RCIVIL
  0
BLOCK_RECORD
  5
5A
330
1
100
AcDbSymbolTableRecord
100
AcDbBlockTableRecord
  2
EX_SLANT
  0
BLOCK_RECORD
  5
5D
330
1
100
AcDbSymbolTableRecord
100
AcDbBlockTableRecord
  2
EX_NONE
  0
BLOCK_RECORD
  5
60
330
1
100
AcDbSymbolTableRecord
100
AcDbBlockTableRecord
  2
EX_CIVIL
  0
BLOCK_RECORD
  5
63
330
1
100
AcDbSymbolTableRecord
100
AcDbBlockTableRecord
  2
EX_WCIR
  0
BLOCK_RECORD
  5
66
330
1
100
AcDbSymbolTableRecord
100
AcDbBlockTableRecord
  2
EX_WCIR2
  0
BLOCK_RECORD
  5
69
330
1
100
AcDbSymbolTableRecord
100
AcDbBlockTableRecord
  2
EX_WNORM
  0
BLOCK_RECORD
  5
6C
330
1
100
AcDbSymbolTableRecord
100
AcDbBlockTableRecord
  2
EX_NNORM
  0
BLOCK_RECORD
  5
6F
330
1
100
AcDbSymbolTableRecord
100
AcDbBlockTableRecord
  2
EX_BBOX
  0
BLOCK_RECORD
  5
72
330
1
100
AcDbSymbolTableRecord
100
AcDbBlockTableRecord
  2
EX_WBOX
  0
BLOCK_RECORD
  5
75
330
1
100
AcDbSymbolTableRecord
100
AcDbBlockTableRecord
  2
EX_INTEGRAL
  0
BLOCK_RECORD
  5
249
330
1
100
AcDbSymbolTableRecord
100
AcDbBlockTableRecord
  2
*D15
  0
BLOCK_RECORD
  5
256
330
1
100
AcDbSymbolTableRecord
100
AcDbBlockTableRecord
  2
*D16
  0
BLOCK_RECORD
  5
264
330
1
100
AcDbSymbolTableRecord
100
AcDbBlockTableRecord
  2
*D17
  0
BLOCK_RECORD
  5
272
330
1
100
AcDbSymbolTableRecord
100
AcDbBlockTableRecord
  2
*D18
  0
BLOCK_RECORD
  5
27F
330
1
100
AcDbSymbolTableRecord
100
AcDbBlockTableRecord
  2
*D19
  0
BLOCK_RECORD
  5
28C
330
1
100
AcDbSymbolTableRecord
100
AcDbBlockTableRecord
  2
*D20
  0
BLOCK_RECORD
  5
298
330
1
100
AcDbSymbolTableRecord
100
AcDbBlockTableRecord
  2
*D21
  0
BLOCK_RECORD
  5
2A4
330
1
100
AcDbSymbolTableRecord
100
AcDbBlockTableRecord
  2
*D22
  0
BLOCK_RECORD
  5
2B0
330
1
100
AcDbSymbolTableRecord
100
AcDbBlockTableRecord
  2
*D23
  0
BLOCK_RECORD
  5
2C0
330
1
100
AcDbSymbolTableRecord
100
AcDbBlockTableRecord
  2
*D24
  0
BLOCK_RECORD
  5
2CD
330
1
100
AcDbSymbolTableRecord
100
AcDbBlockTableRecord
  2
*D25
  0
BLOCK_RECORD
  5
2DA
330
1
100
AcDbSymbolTableRecord
100
AcDbBlockTableRecord
  2
*D26
  0
BLOCK_RECORD
  5
2EE
330
1
100
AcDbSymbolTableRecord
100
AcDbBlockTableRecord
  2
*D27
  0
BLOCK_RECORD
  5
2FA
330
1
100
AcDbSymbolTableRecord
100
AcDbBlockTableRecord
  2
*D28
  0
ENDTAB
  0
ENDSEC
  0
SECTION
  2
BLOCKS
  0
BLOCK
  5
20
330
1F
100
AcDbEntity
  8
0
100
AcDbBlockBegin
  2
*MODEL_SPACE
 70
     0
 10
0.0
 20
0.0
 30
0.0
  3
*MODEL_SPACE
  1

  0
ENDBLK
  5
21
330
1F
100
AcDbEntity
  8
0
100
AcDbBlockEnd
  0
BLOCK
  5
1C
330
1B
100
AcDbEntity
 67
     1
  8
0
100
AcDbBlockBegin
  2
*PAPER_SPACE
 70
     0
 10
0.0
 20
0.0
 30
0.0
  3
*PAPER_SPACE
  1

  0
ENDBLK
  5
1D
330
1B
100
AcDbEntity
 67
     1
  8
0
100
AcDbBlockEnd
  0
BLOCK
  5
4F
330
4E
100
AcDbEntity
  8
0
100
AcDbBlockBegin
  2
EX_NORM
 70
     0
 10
0.0
 20
0.0
 30
0.0
  3
EX_NORM
  1

  0
LINE
  5
78
330
4E
100
AcDbEntity
  8
0
  6
CONTINUOUS
 62
     0
100
AcDbLine
 10
0.0
 20
0.0
 30
0.0
 11
-1.0
 21
0.0
 31
0.0
  0
LINE
  5
79
330
4E
100
AcDbEntity
  8
0
  6
CONTINUOUS
 62
     0
100
AcDbLine
 10
0.0
 20
0.0
 30
0.0
 11
-1.0
 21
0.166666667
 31
0.0
  0
LINE
  5
7A
330
4E
100
AcDbEntity
  8
0
  6
CONTINUOUS
 62
     0
100
AcDbLine
 10
0.0
 20
0.0
 30
0.0
 11
-1.0
 21
-0.166666667
 31
0.0
  0
ENDBLK
  5
50
330
4E
100
AcDbEntity
  8
0
100
AcDbBlockEnd
  0
BLOCK
  5
52
330
51
100
AcDbEntity
  8
0
100
AcDbBlockBegin
  2
EX_BNORM
 70
     0
 10
0.0
 20
0.0
 30
0.0
  3
EX_BNORM
  1

  0
LINE
  5
7B
330
51
100
AcDbEntity
  8
0
  6
CONTINUOUS
 62
     0
100
AcDbLine
 10
0.0
 20
0.0
 30
0.0
 11
-1.0
 21
0.0
 31
0.0
  0
LINE
  5
7C
330
51
100
AcDbEntity
  8
0
  6
CONTINUOUS
 62
     0
100
AcDbLine
 10
0.0
 20
0.0
 30
0.0
 11
-1.0
 21
0.166666667
 31
0.0
  0
LINE
  5
7D
330
51
100
AcDbEntity
  8
0
  6
CONTINUOUS
 62
     0
100
AcDbLine
 10
0.0
 20
0.0
 30
0.0
 11
-1.0
 21
-0.166666667
 31
0.0
  0
LINE
  5
7E
330
51
100
AcDbEntity
  8
0
  6
CONTINUOUS
 62
     0
100
AcDbLine
 10
0.0
 20
0.0
 30
0.0
 11
-1.0
 21
0.083333333
 31
0.0
  0
LINE
  5
7F
330
51
100
AcDbEntity
  8
0
  6
CONTINUOUS
 62
     0
100
AcDbLine
 10
0.0
 20
0.0
 30
0.0
 11
-1.0
 21
-0.083333333
 31
0.0
  0
LINE
  5
80
330
51
100
AcDbEntity
  8
0
  6
CONTINUOUS
 62
     0
100
AcDbLine
 10
-1.0
 20
0.166666667
 30
0.0
 11
-1.0
 21
-0.166666667
 31
0.0
  0
ENDBLK
  5
53
330
51
100
AcDbEntity
  8
0
100
AcDbBlockEnd
  0
BLOCK
  5
55
330
54
100
AcDbEntity
  8
0
100
AcDbBlockBegin
  2
EX_BCIR
 70
     0
 10
0.0
 20
0.0
 30
0.0
  3
EX_BCIR
  1

  0
LINE
  5
81
330
54
100
AcDbEntity
  8
0
  6
CONTINUOUS
 62
     0
100
AcDbLine
 10
0.0
 20
0.0
 30
0.0
 11
-1.0
 21
0.0
 31
0.0
  0
CIRCLE
  5
82
330
54
100
AcDbEntity
  8
0
  6
CONTINUOUS
 62
     0
100
AcDbCircle
 10
0.0
 20
0.0
 30
0.0
 40
0.5
  0
CIRCLE
  5
83
330
54
100
AcDbEntity
  8
0
  6
CONTINUOUS
 62
     0
100
AcDbCircle
 10
0.0
 20
0.0
 30
0.0
 40
0.25
  0
ENDBLK
  5
56
330
54
100
AcDbEntity
  8
0
100
AcDbBlockEnd
  0
BLOCK
  5
58
330
57
100
AcDbEntity
  8
0
100
AcDbBlockBegin
  2
EX_RCIVIL
 70
     0
 10
0.0
 20
0.0
 30
0.0
  3
EX_RCIVIL
  1

  0
LINE
  5
84
330
57
100
AcDbEntity
  8
0
  6
CONTINUOUS
 62
     0
100
AcDbLine
 10
0.0
 20
0.0
 30
0.0
 11
-1.0
 21
0.0
 31
0.0
  0
LINE
  5
85
330
57
100
AcDbEntity
  8
0
  6
CONTINUOUS
 62
     0
100
AcDbLine
 10
-1.0
 20
-0.25
 30
0.0
 11
0.0
 21
-0.25
 31
0.0
  0
LINE
  5
86
330
57
100
AcDbEntity
  8
0
  6
CONTINUOUS
 62
     0
100
AcDbLine
 10
-1.0
 20
-0.125
 30
0.0
 11
0.0
 21
-0.125
 31
0.0
  0
ENDBLK
  5
59
330
57
100
AcDbEntity
  8
0
100
AcDbBlockEnd
  0
BLOCK
  5
5B
330
5A
100
AcDbEntity
  8
0
100
AcDbBlockBegin
  2
EX_SLANT
 70
     0
 10
0.0
 20
0.0
 30
0.0
  3
EX_SLANT
  1

  0
LINE
  5
87
330
5A
100
AcDbEntity
  8
0
  6
CONTINUOUS
 62
     0
100
AcDbLine
 10
0.0
 20
0.0
 30
0.0
 11
-1.0
 21
0.0
 31
0.0
  0
LINE
  5
88
330
5A
100
AcDbEntity
  8
0
  6
CONTINUOUS
 62
     0
100
AcDbLine
 10
0.707106781
 20
0.707106781
 30
0.0
 11
-0.707106781
 21
-0.707106781
 31
0.0
  0
ENDBLK
  5
5C
330
5A
100
AcDbEntity
  8
0
100
AcDbBlockEnd
  0
BLOCK
  5
5E
330
5D
100
AcDbEntity
  8
0
100
AcDbBlockBegin
  2
EX_NONE
 70
     0
 10
0.0
 20
0.0
 30
0.0
  3
EX_NONE
  1

  0
LINE
  5
89
330
5D
100
AcDbEntity
  8
0
  6
CONTINUOUS
 62
     0
100
AcDbLine
 10
0.0
 20
0.0
 30
0.0
 11
-1.0
 21
0.0
 31
0.0
  0
ENDBLK
  5
5F
330
5D
100
AcDbEntity
  8
0
100
AcDbBlockEnd
  0
BLOCK
  5
61
330
60
100
AcDbEntity
  8
0
100
AcDbBlockBegin
  2
EX_CIVIL
 70
     0
 10
0.0
 20
0.0
 30
0.0
  3
EX_CIVIL
  1

  0
LINE
  5
8A
330
60
100
AcDbEntity
  8
0
  6
CONTINUOUS
 62
     0
100
AcDbLine
 10
0.0
 20
0.0
 30
0.0
 11
-1.0
 21
0.0
 31
0.0
  0
LINE
  5
8B
330
60
100
AcDbEntity
  8
0
  6
CONTINUOUS
 62
     0
100
AcDbLine
 10
-1.0
 20
0.25
 30
0.0
 11
0.0
 21
0.25
 31
0.0
  0
LINE
  5
8C
330
60
100
AcDbEntity
  8
0
  6
CONTINUOUS
 62
     0
100
AcDbLine
 10
-1.0
 20
0.125
 30
0.0
 11
0.0
 21
0.125
 31
0.0
  0
ENDBLK
  5
62
330
60
100
AcDbEntity
  8
0
100
AcDbBlockEnd
  0
BLOCK
  5
64
330
63
100
AcDbEntity
  8
0
100
AcDbBlockBegin
  2
EX_WCIR
 70
     0
 10
0.0
 20
0.0
 30
0.0
  3
EX_WCIR
  1

  0
LINE
  5
8D
330
63
100
AcDbEntity
  8
0
  6
CONTINUOUS
 62
     0
100
AcDbLine
 10
0.0
 20
0.0
 30
0.0
 11
-1.0
 21
0.0
 31
0.0
  0
CIRCLE
  5
8E
330
63
100
AcDbEntity
  8
0
  6
CONTINUOUS
 62
     0
100
AcDbCircle
 10
0.0
 20
0.0
 30
0.0
 40
0.5
  0
ENDBLK
  5
65
330
63
100
AcDbEntity
  8
0
100
AcDbBlockEnd
  0
BLOCK
  5
67
330
66
100
AcDbEntity
  8
0
100
AcDbBlockBegin
  2
EX_WCIR2
 70
     0
 10
0.0
 20
0.0
 30
0.0
  3
EX_WCIR2
  1

  0
LINE
  5
8F
330
66
100
AcDbEntity
  8
0
  6
CONTINUOUS
 62
     0
100
AcDbLine
 10
-0.5
 20
0.0
 30
0.0
 11
-1.0
 21
0.0
 31
0.0
  0
CIRCLE
  5
90
330
66
100
AcDbEntity
  8
0
  6
CONTINUOUS
 62
     0
100
AcDbCircle
 10
0.0
 20
0.0
 30
0.0
 40
0.5
  0
ENDBLK
  5
68
330
66
100
AcDbEntity
  8
0
100
AcDbBlockEnd
  0
BLOCK
  5
6A
330
69
100
AcDbEntity
  8
0
100
AcDbBlockBegin
  2
EX_WNORM
 70
     0
 10
0.0
 20
0.0
 30
0.0
  3
EX_WNORM
  1

  0
LINE
  5
91
330
69
100
AcDbEntity
  8
0
  6
CONTINUOUS
 62
     0
100
AcDbLine
 10
-1.0
 20
0.0
 30
0.0
 11
-1.0
 21
0.0
 31
0.0
  0
LINE
  5
92
330
69
100
AcDbEntity
  8
0
  6
CONTINUOUS
 62
     0
100
AcDbLine
 10
0.0
 20
0.0
 30
0.0
 11
-1.0
 21
0.166666667
 31
0.0
  0
LINE
  5
93
330
69
100
AcDbEntity
  8
0
  6
CONTINUOUS
 62
     0
100
AcDbLine
 10
0.0
 20
0.0
 30
0.0
 11
-1.0
 21
-0.166666667
 31
0.0
  0
LINE
  5
94
330
69
100
AcDbEntity
  8
0
  6
CONTINUOUS
 62
     0
100
AcDbLine
 10
-1.0
 20
0.166666667
 30
0.0
 11
-1.0
 21
-0.166666667
 31
0.0
  0
ENDBLK
  5
6B
330
69
100
AcDbEntity
  8
0
100
AcDbBlockEnd
  0
BLOCK
  5
6D
330
6C
100
AcDbEntity
  8
0
100
AcDbBlockBegin
  2
EX_NNORM
 70
     0
 10
0.0
 20
0.0
 30
0.0
  3
EX_NNORM
  1

  0
LINE
  5
95
330
6C
100
AcDbEntity
  8
0
  6
CONTINUOUS
 62
     0
100
AcDbLine
 10
0.0
 20
0.0
 30
0.0
 11
-1.0
 21
0.0
 31
0.0
  0
LINE
  5
96
330
6C
100
AcDbEntity
  8
0
  6
CONTINUOUS
 62
     0
100
AcDbLine
 10
0.0
 20
0.0
 30
0.0
 11
-1.0
 21
0.166666667
 31
0.0
  0
LINE
  5
97
330
6C
100
AcDbEntity
  8
0
  6
CONTINUOUS
 62
     0
100
AcDbLine
 10
0.0
 20
0.0
 30
0.0
 11
-1.0
 21
-0.166666667
 31
0.0
  0
LINE
  5
98
330
6C
100
AcDbEntity
  8
0
  6
CONTINUOUS
 62
     0
100
AcDbLine
 10
-1.0
 20
0.166666667
 30
0.0
 11
-1.0
 21
-0.166666667
 31
0.0
  0
ENDBLK
  5
6E
330
6C
100
AcDbEntity
  8
0
100
AcDbBlockEnd
  0
BLOCK
  5
70
330
6F
100
AcDbEntity
  8
0
100
AcDbBlockBegin
  2
EX_BBOX
 70
     0
 10
0.0
 20
0.0
 30
0.0
  3
EX_BBOX
  1

  0
LINE
  5
99
330
6F
100
AcDbEntity
  8
0
  6
CONTINUOUS
 62
     0
100
AcDbLine
 10
0.0
 20
0.0
 30
0.0
 11
-1.0
 21
0.0
 31
0.0
  0
LINE
  5
9A
330
6F
100
AcDbEntity
  8
0
  6
CONTINUOUS
 62
     0
100
AcDbLine
 10
-0.5
 20
0.5
 30
0.0
 11
0.5
 21
0.5
 31
0.0
  0
LINE
  5
9B
330
6F
100
AcDbEntity
  8
0
  6
CONTINUOUS
 62
     0
100
AcDbLine
 10
0.5
 20
0.5
 30
0.0
 11
0.5
 21
-0.5
 31
0.0
  0
LINE
  5
9C
330
6F
100
AcDbEntity
  8
0
  6
CONTINUOUS
 62
     0
100
AcDbLine
 10
0.5
 20
-0.5
 30
0.0
 11
-0.5
 21
-0.5
 31
0.0
  0
LINE
  5
9D
330
6F
100
AcDbEntity
  8
0
  6
CONTINUOUS
 62
     0
100
AcDbLine
 10
-0.5
 20
-0.5
 30
0.0
 11
-0.5
 21
0.5
 31
0.0
  0
LINE
  5
9E
330
6F
100
AcDbEntity
  8
0
  6
CONTINUOUS
 62
     0
100
AcDbLine
 10
-0.25
 20
0.25
 30
0.0
 11
0.25
 21
0.25
 31
0.0
  0
LINE
  5
9F
330
6F
100
AcDbEntity
  8
0
  6
CONTINUOUS
 62
     0
100
AcDbLine
 10
0.25
 20
0.25
 30
0.0
 11
0.25
 21
-0.25
 31
0.0
  0
LINE
  5
A0
330
6F
100
AcDbEntity
  8
0
  6
CONTINUOUS
 62
     0
100
AcDbLine
 10
0.25
 20
-0.25
 30
0.0
 11
-0.25
 21
-0.25
 31
0.0
  0
LINE
  5
A1
330
6F
100
AcDbEntity
  8
0
  6
CONTINUOUS
 62
     0
100
AcDbLine
 10
-0.25
 20
-0.25
 30
0.0
 11
-0.25
 21
0.25
 31
0.0
  0
ENDBLK
  5
71
330
6F
100
AcDbEntity
  8
0
100
AcDbBlockEnd
  0
BLOCK
  5
73
330
72
100
AcDbEntity
  8
0
100
AcDbBlockBegin
  2
EX_WBOX
 70
     0
 10
0.0
 20
0.0
 30
0.0
  3
EX_WBOX
  1

  0
LINE
  5
A2
330
72
100
AcDbEntity
  8
0
  6
CONTINUOUS
 62
     0
100
AcDbLine
 10
-0.5
 20
0.0
 30
0.0
 11
-1.0
 21
0.0
 31
0.0
  0
LINE
  5
A3
330
72
100
AcDbEntity
  8
0
  6
CONTINUOUS
 62
     0
100
AcDbLine
 10
-0.5
 20
0.5
 30
0.0
 11
0.5
 21
0.5
 31
0.0
  0
LINE
  5
A4
330
72
100
AcDbEntity
  8
0
  6
CONTINUOUS
 62
     0
100
AcDbLine
 10
0.5
 20
0.5
 30
0.0
 11
0.5
 21
-0.5
 31
0.0
  0
LINE
  5
A5
330
72
100
AcDbEntity
  8
0
  6
CONTINUOUS
 62
     0
100
AcDbLine
 10
0.5
 20
-0.5
 30
0.0
 11
-0.5
 21
-0.5
 31
0.0
  0
LINE
  5
A6
330
72
100
AcDbEntity
  8
0
  6
CONTINUOUS
 62
     0
100
AcDbLine
 10
-0.5
 20
-0.5
 30
0.0
 11
-0.5
 21
0.5
 31
0.0
  0
ENDBLK
  5
74
330
72
100
AcDbEntity
  8
0
100
AcDbBlockEnd
  0
BLOCK
  5
76
330
75
100
AcDbEntity
  8
0
100
AcDbBlockBegin
  2
EX_INTEGRAL
 70
     0
 10
0.0
 20
0.0
 30
0.0
  3
EX_INTEGRAL
  1

  0
LINE
  5
A7
330
75
100
AcDbEntity
  8
0
  6
CONTINUOUS
 62
     0
100
AcDbLine
 10
0.0
 20
0.0
 30
0.0
 11
-1.0
 21
0.0
 31
0.0
  0
ARC
  5
A8
330
75
100
AcDbEntity
  8
0
  6
CONTINUOUS
 62
     0
100
AcDbCircle
 10
0.542115
 20
0.164992
 30
0.0
 40
0.56667
100
AcDbArc
 50
73.07249033629006
 51
196.9275130221199
  0
ARC
  5
A9
330
75
100
AcDbEntity
  8
0
  6
CONTINUOUS
 62
     0
100
AcDbCircle
 10
-0.542115
 20
-0.164992
 30
0.0
 40
0.56667
100
AcDbArc
 50
253.0724869220464
 51
16.9275130559125
  0
ENDBLK
  5
77
330
75
100
AcDbEntity
  8
0
100
AcDbBlockEnd
  0
BLOCK
  5
24A
330
249
100
AcDbEntity
  8
0
100
AcDbBlockBegin
  2
*D15
 70
     1
 10
0.0
 20
0.0
 30
0.0
  3
*D15
  1

  0
LINE
  5
24C
330
249
100
AcDbEntity
  8
寸法
  6
CONTINUOUS
 62
     3
100
AcDbLine
 10
1319.799999880791
 20
1402.0
 30
0.0
 11
1505.498204018195
 21
1402.0
 31
0.0
  0
LINE
  5
24D
330
249
100
AcDbEntity
  8
寸法
  6
CONTINUOUS
 62
     3
100
AcDbLine
 10
1295.999999880791
 20
492.0
 30
0.0
 11
1505.498204018195
 21
491.9999999999999
 31
0.0
  0
LINE
  5
24E
330
249
100
AcDbEntity
  8
寸法
  6
CONTINUOUS
 62
     3
100
AcDbLine
 10
1495.498204018196
 20
1372.0
 30
0.0
 11
1495.498204018196
 21
522.0
 31
0.0
  0
INSERT
  5
24F
330
249
100
AcDbEntity
  8
寸法
 62
     3
100
AcDbBlockReference
  2
EX_NORM
 10
1495.498204018196
 20
1402.0
 30
0.0
 41
30.0
 42
30.0
 43
30.0
 50
90.0
  0
INSERT
  5
250
330
249
100
AcDbEntity
  8
寸法
 62
     3
100
AcDbBlockReference
  2
EX_NORM
 10
1495.498204018196
 20
491.9999999999999
 30
0.0
 41
30.0
 42
30.0
 43
30.0
 50
270.0
  0
MTEXT
  5
251
330
249
100
AcDbEntity
  8
寸法
 62
     2
100
AcDbMText
 10
1472.498203898988
 20
946.9999999999989
 30
0.0
 40
40.0
 41
0.0
 71
     5
 72
     1
  1
910
  7
EXCADDIM1
 11
0.0
 21
1.0
 31
0.0
  0
POINT
  5
252
330
249
100
AcDbEntity
  8
DEFPOINTS
 62
     0
100
AcDbPoint
 10
1312.8
 20
1402.0
 30
0.0
  0
POINT
  5
253
330
249
100
AcDbEntity
  8
DEFPOINTS
 62
     0
100
AcDbPoint
 10
1289.0
 20
492.0
 30
0.0
  0
POINT
  5
254
330
249
100
AcDbEntity
  8
DEFPOINTS
 62
     0
100
AcDbPoint
 10
1495.498204018196
 20
491.9999999999999
 30
0.0
  0
ENDBLK
  5
24B
330
249
100
AcDbEntity
  8
0
100
AcDbBlockEnd
  0
BLOCK
  5
257
330
256
100
AcDbEntity
  8
0
100
AcDbBlockBegin
  2
*D16
 70
     1
 10
0.0
 20
0.0
 30
0.0
  3
*D16
  1

  0
LINE
  5
259
330
256
100
AcDbEntity
  8
寸法
  6
CONTINUOUS
 62
     3
100
AcDbLine
 10
1324.201010442391
 20
1272.00000005
 30
0.0
 11
1379.000000000007
 21
1272.00000005
 31
0.0
  0
LINE
  5
25A
330
256
100
AcDbEntity
  8
寸法
  6
CONTINUOUS
 62
     3
100
AcDbLine
 10
1369.000000000007
 20
1302.0
 30
0.0
 11
1369.000000000007
 21
1272.00000005
 31
0.0
  0
LINE
  5
25B
330
256
100
AcDbEntity
  8
寸法
  6
CONTINUOUS
 62
     3
100
AcDbLine
 10
1369.000000000007
 20
1332.0
 30
0.0
 11
1369.000000000007
 21
1362.0
 31
0.0
  0
LINE
  5
25C
330
256
100
AcDbEntity
  8
寸法
  6
CONTINUOUS
 62
     3
100
AcDbLine
 10
1369.000000000007
 20
1242.00000005
 30
0.0
 11
1369.000000000007
 21
1212.00000005
 31
0.0
  0
INSERT
  5
25D
330
256
100
AcDbEntity
  8
寸法
 62
     3
100
AcDbBlockReference
  2
EX_NORM
 10
1369.000000000007
 20
1302.0
 30
0.0
 41
30.0
 42
30.0
 43
30.0
 50
270.0
  0
INSERT
  5
25E
330
256
100
AcDbEntity
  8
寸法
 62
     3
100
AcDbBlockReference
  2
EX_NORM
 10
1369.000000000007
 20
1272.00000005
 30
0.0
 41
30.0
 42
30.0
 43
30.0
 50
90.0
  0
MTEXT
  5
25F
330
256
100
AcDbEntity
  8
寸法
 62
     2
100
AcDbMText
 10
1345.999999880796
 20
1207.00000005
 30
0.0
 40
40.0
 41
0.0
 71
     5
 72
     1
  1
30
  7
EXCADDIM1
 11
0.0
 21
1.0
 31
0.0
  0
POINT
  5
260
330
256
100
AcDbEntity
  8
DEFPOINTS
 62
     0
100
AcDbPoint
 10
1289.0
 20
1302.0
 30
0.0
  0
POINT
  5
261
330
256
100
AcDbEntity
  8
DEFPOINTS
 62
     0
100
AcDbPoint
 10
1317.2010105616
 20
1272.00000005
 30
0.0
  0
POINT
  5
262
330
256
100
AcDbEntity
  8
DEFPOINTS
 62
     0
100
AcDbPoint
 10
1369.000000000007
 20
1272.00000005
 30
0.0
  0
ENDBLK
  5
258
330
256
100
AcDbEntity
  8
0
100
AcDbBlockEnd
  0
BLOCK
  5
265
330
264
100
AcDbEntity
  8
0
100
AcDbBlockBegin
  2
*D17
 70
     1
 10
0.0
 20
0.0
 30
0.0
  3
*D17
  1

  0
LINE
  5
267
330
264
100
AcDbEntity
  8
寸法
  6
CONTINUOUS
 62
     3
100
AcDbLine
 10
1141.838867219209
 20
1302.0
 30
0.0
 11
894.0000000000003
 21
1302.0
 31
0.0
  0
LINE
  5
268
330
264
100
AcDbEntity
  8
寸法
  6
CONTINUOUS
 62
     3
100
AcDbLine
 10
904.000000000001
 20
1302.0
 30
0.0
 11
904.000000000001
 21
1252.0
 31
0.0
  0
LINE
  5
269
330
264
100
AcDbEntity
  8
寸法
  6
CONTINUOUS
 62
     3
100
AcDbLine
 10
904.000000000001
 20
1332.0
 30
0.0
 11
904.000000000001
 21
1362.0
 31
0.0
  0
LINE
  5
26A
330
264
100
AcDbEntity
  8
寸法
  6
CONTINUOUS
 62
     3
100
AcDbLine
 10
904.000000000001
 20
1222.0
 30
0.0
 11
904.000000000001
 21
1192.0
 31
0.0
  0
INSERT
  5
26B
330
264
100
AcDbEntity
  8
寸法
 62
     3
100
AcDbBlockReference
  2
EX_NORM
 10
904.000000000001
 20
1302.0
 30
0.0
 41
30.0
 42
30.0
 43
30.0
 50
270.0
  0
INSERT
  5
26C
330
264
100
AcDbEntity
  8
寸法
 62
     3
100
AcDbBlockReference
  2
EX_NORM
 10
904.000000000001
 20
1252.0
 30
0.0
 41
30.0
 42
30.0
 43
30.0
 50
90.0
  0
MTEXT
  5
26D
330
264
100
AcDbEntity
  8
寸法
 62
     2
100
AcDbMText
 10
880.9999998807923
 20
1367.0
 30
0.0
 40
40.0
 41
0.0
 71
     5
 72
     1
  1
50
  7
EXCADDIM1
 11
0.0
 21
1.0
 31
0.0
  0
POINT
  5
26E
330
264
100
AcDbEntity
  8
DEFPOINTS
 62
     0
100
AcDbPoint
 10
1148.8388671
 20
1302.0
 30
0.0
  0
POINT
  5
26F
330
264
100
AcDbEntity
  8
DEFPOINTS
 62
     0
100
AcDbPoint
 10
1066.0019531
 20
1252.0
 30
0.0
  0
POINT
  5
270
330
264
100
AcDbEntity
  8
DEFPOINTS
 62
     0
100
AcDbPoint
 10
904.000000000001
 20
1252.0
 30
0.0
  0
ENDBLK
  5
266
330
264
100
AcDbEntity
  8
0
100
AcDbBlockEnd
  0
BLOCK
  5
273
330
272
100
AcDbEntity
  8
0
100
AcDbBlockBegin
  2
*D18
 70
     1
 10
0.0
 20
0.0
 30
0.0
  3
*D18
  1

  0
LINE
  5
275
330
272
100
AcDbEntity
  8
寸法
  6
CONTINUOUS
 62
     3
100
AcDbLine
 10
1059.001953219209
 20
1252.0
 30
0.0
 11
893.9999999999994
 21
1252.0
 31
0.0
  0
LINE
  5
276
330
272
100
AcDbEntity
  8
寸法
  6
CONTINUOUS
 62
     3
100
AcDbLine
 10
903.9999999999999
 20
1222.0
 30
0.0
 11
903.9999999999999
 21
522.0
 31
0.0
  0
INSERT
  5
277
330
272
100
AcDbEntity
  8
寸法
 62
     3
100
AcDbBlockReference
  2
EX_NORM
 10
903.9999999999999
 20
1252.0
 30
0.0
 41
30.0
 42
30.0
 43
30.0
 50
90.0
  0
INSERT
  5
278
330
272
100
AcDbEntity
  8
寸法
 62
     3
100
AcDbBlockReference
  2
EX_NORM
 10
903.9999999999999
 20
492.0
 30
0.0
 41
30.0
 42
30.0
 43
30.0
 50
270.0
  0
MTEXT
  5
279
330
272
100
AcDbEntity
  8
寸法
 62
     2
100
AcDbMText
 10
880.9999998807906
 20
872.0
 30
0.0
 40
40.0
 41
0.0
 71
     5
 72
     1
  1
760
  7
EXCADDIM1
 11
0.0
 21
1.0
 31
0.0
  0
POINT
  5
27A
330
272
100
AcDbEntity
  8
DEFPOINTS
 62
     0
100
AcDbPoint
 10
1066.0019531
 20
1252.0
 30
0.0
  0
POINT
  5
27B
330
272
100
AcDbEntity
  8
DEFPOINTS
 62
     0
100
AcDbPoint
 10
838.6940613000002
 20
492.0
 30
0.0
  0
POINT
  5
27C
330
272
100
AcDbEntity
  8
DEFPOINTS
 62
     0
100
AcDbPoint
 10
903.9999999999999
 20
492.0
 30
0.0
  0
ENDBLK
  5
274
330
272
100
AcDbEntity
  8
0
100
AcDbBlockEnd
  0
BLOCK
  5
280
330
27F
100
AcDbEntity
  8
0
100
AcDbBlockBegin
  2
*D19
 70
     1
 10
0.0
 20
0.0
 30
0.0
  3
*D19
  1

  0
LINE
  5
282
330
27F
100
AcDbEntity
  8
寸法
  6
CONTINUOUS
 62
     3
100
AcDbLine
 10
1179.0024414
 20
2065.999999880791
 30
0.0
 11
1179.0024414
 21
2148.65
 31
0.0
  0
LINE
  5
283
330
27F
100
AcDbEntity
  8
寸法
  6
CONTINUOUS
 62
     3
100
AcDbLine
 10
1289.0
 20
2014.99999988079
 30
0.0
 11
1289.0
 21
2148.65
 31
0.0
  0
LINE
  5
284
330
27F
100
AcDbEntity
  8
寸法
  6
CONTINUOUS
 62
     3
100
AcDbLine
 10
1209.0024414
 20
2138.65
 30
0.0
 11
1259.0
 21
2138.65
 31
0.0
  0
INSERT
  5
285
330
27F
100
AcDbEntity
  8
寸法
 62
     3
100
AcDbBlockReference
  2
EX_NORM
 10
1179.0024414
 20
2138.65
 30
0.0
 41
30.0
 42
30.0
 43
30.0
 50
180.0
  0
INSERT
  5
286
330
27F
100
AcDbEntity
  8
寸法
 62
     3
100
AcDbBlockReference
  2
EX_NORM
 10
1289.0
 20
2138.65
 30
0.0
 41
30.0
 42
30.0
 43
30.0
  0
MTEXT
  5
287
330
27F
100
AcDbEntity
  8
寸法
 62
     2
100
AcDbMText
 10
1057.0
 20
2162.149999940395
 30
0.0
 40
40.0
 41
0.0
 71
     5
 72
     1
  1
110（壁排水）
  7
EXCADDIM1
  0
POINT
  5
288
330
27F
100
AcDbEntity
  8
DEFPOINTS
 62
     0
100
AcDbPoint
 10
1179.0024414
 20
2059.0
 30
0.0
  0
POINT
  5
289
330
27F
100
AcDbEntity
  8
DEFPOINTS
 62
     0
100
AcDbPoint
 10
1289.0
 20
2008.0
 30
0.0
  0
POINT
  5
28A
330
27F
100
AcDbEntity
  8
DEFPOINTS
 62
     0
100
AcDbPoint
 10
1289.0
 20
2138.65
 30
0.0
  0
ENDBLK
  5
281
330
27F
100
AcDbEntity
  8
0
100
AcDbBlockEnd
  0
BLOCK
  5
28D
330
28C
100
AcDbEntity
  8
0
100
AcDbBlockBegin
  2
*D20
 70
     1
 10
0.0
 20
0.0
 30
0.0
  3
*D20
  1

  0
LINE
  5
28F
330
28C
100
AcDbEntity
  8
寸法
  6
CONTINUOUS
 62
     3
100
AcDbLine
 10
1225.4999998808
 20
1948.0
 30
0.0
 11
1378.998203958601
 21
1948.0
 31
0.0
  0
LINE
  5
290
330
28C
100
AcDbEntity
  8
寸法
  6
CONTINUOUS
 62
     3
100
AcDbLine
 10
1378.998203958601
 20
1978.0
 30
0.0
 11
1378.998203958601
 21
1978.0
 31
0.0
  0
INSERT
  5
291
330
28C
100
AcDbEntity
  8
寸法
 62
     3
100
AcDbBlockReference
  2
EX_NORM
 10
1378.998203958601
 20
2008.0
 30
0.0
 41
30.0
 42
30.0
 43
30.0
 50
90.0
  0
INSERT
  5
292
330
28C
100
AcDbEntity
  8
寸法
 62
     3
100
AcDbBlockReference
  2
EX_NORM
 10
1378.998203958601
 20
1948.0
 30
0.0
 41
30.0
 42
30.0
 43
30.0
 50
270.0
  0
MTEXT
  5
293
330
28C
100
AcDbEntity
  8
寸法
 62
     2
100
AcDbMText
 10
1355.498204018205
 20
2163.7
 30
0.0
 40
40.0
 41
0.0
 71
     5
 72
     1
  1
60（床排水）
  7
EXCADDIM1
 11
4.724169043383025E-15
 21
1.0
 31
0.0
  0
POINT
  5
294
330
28C
100
AcDbEntity
  8
DEFPOINTS
 62
     0
100
AcDbPoint
 10
1289.0
 20
2008.0
 30
0.0
  0
POINT
  5
295
330
28C
100
AcDbEntity
  8
DEFPOINTS
 62
     0
100
AcDbPoint
 10
1225.4999998808
 20
1948.0
 30
0.0
  0
POINT
  5
296
330
28C
100
AcDbEntity
  8
DEFPOINTS
 62
     0
100
AcDbPoint
 10
1378.998203958601
 20
1948.0
 30
0.0
  0
ENDBLK
  5
28E
330
28C
100
AcDbEntity
  8
0
100
AcDbBlockEnd
  0
BLOCK
  5
299
330
298
100
AcDbEntity
  8
0
100
AcDbBlockBegin
  2
*D21
 70
     1
 10
0.0
 20
0.0
 30
0.0
  3
*D21
  1

  0
LINE
  5
29B
330
298
100
AcDbEntity
  8
寸法
  6
CONTINUOUS
 62
     3
100
AcDbLine
 10
1295.999999880791
 20
2008.0
 30
0.0
 11
1508.998203958601
 21
2008.0
 31
0.0
  0
LINE
  5
29C
330
298
100
AcDbEntity
  8
寸法
  6
CONTINUOUS
 62
     3
100
AcDbLine
 10
1498.998203958601
 20
1978.0
 30
0.0
 11
1498.998203958601
 21
1928.0
 31
0.0
  0
INSERT
  5
29D
330
298
100
AcDbEntity
  8
寸法
 62
     3
100
AcDbBlockReference
  2
EX_NORM
 10
1498.998203958601
 20
2008.0
 30
0.0
 41
30.0
 42
30.0
 43
30.0
 50
90.0
  0
INSERT
  5
29E
330
298
100
AcDbEntity
  8
寸法
 62
     3
100
AcDbBlockReference
  2
EX_NORM
 10
1498.998203958601
 20
1898.0
 30
0.0
 41
30.0
 42
30.0
 43
30.0
 50
270.0
  0
MTEXT
  5
29F
330
298
100
AcDbEntity
  8
寸法
 62
     2
100
AcDbMText
 10
1475.498204018207
 20
1952.999999999999
 30
0.0
 40
40.0
 41
0.0
 71
     5
 72
     1
  1
110
  7
EXCADDIM1
 11
0.0
 21
1.0
 31
0.0
  0
POINT
  5
2A0
330
298
100
AcDbEntity
  8
DEFPOINTS
 62
     0
100
AcDbPoint
 10
1289.0
 20
2008.0
 30
0.0
  0
POINT
  5
2A1
330
298
100
AcDbEntity
  8
DEFPOINTS
 62
     0
100
AcDbPoint
 10
1219.0
 20
1898.0
 30
0.0
  0
POINT
  5
2A2
330
298
100
AcDbEntity
  8
DEFPOINTS
 62
     0
100
AcDbPoint
 10
1498.998203958601
 20
1898.0
 30
0.0
  0
ENDBLK
  5
29A
330
298
100
AcDbEntity
  8
0
100
AcDbBlockEnd
  0
BLOCK
  5
2A5
330
2A4
100
AcDbEntity
  8
0
100
AcDbBlockBegin
  2
*D22
 70
     1
 10
0.0
 20
0.0
 30
0.0
  3
*D22
  1

  0
LINE
  5
2A7
330
2A4
100
AcDbEntity
  8
寸法
  6
CONTINUOUS
 62
     3
100
AcDbLine
 10
1328.3
 20
1928.0
 30
0.0
 11
1438.9982039586
 21
1928.0
 31
0.0
  0
LINE
  5
2A8
330
2A4
100
AcDbEntity
  8
寸法
  6
CONTINUOUS
 62
     3
100
AcDbLine
 10
1438.9982039586
 20
1978.0
 30
0.0
 11
1438.9982039586
 21
1958.0
 31
0.0
  0
INSERT
  5
2A9
330
2A4
100
AcDbEntity
  8
寸法
 62
     3
100
AcDbBlockReference
  2
EX_NORM
 10
1438.9982039586
 20
2008.0
 30
0.0
 41
30.0
 42
30.0
 43
30.0
 50
90.0
  0
INSERT
  5
2AA
330
2A4
100
AcDbEntity
  8
寸法
 62
     3
100
AcDbBlockReference
  2
EX_NORM
 10
1438.9982039586
 20
1928.0
 30
0.0
 41
30.0
 42
30.0
 43
30.0
 50
270.0
  0
MTEXT
  5
2AB
330
2A4
100
AcDbEntity
  8
寸法
 62
     2
100
AcDbMText
 10
1415.498204018205
 20
1968.0
 30
0.0
 40
40.0
 41
0.0
 71
     5
 72
     1
  1
80
  7
EXCADDIM1
 11
0.0
 21
1.0
 31
0.0
  0
POINT
  5
2AC
330
2A4
100
AcDbEntity
  8
DEFPOINTS
 62
     0
100
AcDbPoint
 10
1289.0
 20
2008.0
 30
0.0
  0
POINT
  5
2AD
330
2A4
100
AcDbEntity
  8
DEFPOINTS
 62
     0
100
AcDbPoint
 10
1328.3
 20
1928.0
 30
0.0
  0
POINT
  5
2AE
330
2A4
100
AcDbEntity
  8
DEFPOINTS
 62
     0
100
AcDbPoint
 10
1438.9982039586
 20
1928.0
 30
0.0
  0
ENDBLK
  5
2A6
330
2A4
100
AcDbEntity
  8
0
100
AcDbBlockEnd
  0
BLOCK
  5
2B1
330
2B0
100
AcDbEntity
  8
0
100
AcDbBlockBegin
  2
*D23
 70
     1
 10
0.0
 20
0.0
 30
0.0
  3
*D23
  1

  0
LINE
  5
2B3
330
2B0
100
AcDbEntity
  8
寸法
  6
CONTINUOUS
 62
     3
100
AcDbLine
 10
1209.0
 20
2048.9999998808
 30
0.0
 11
1209.0
 21
2078.65
 31
0.0
  0
LINE
  5
2B4
330
2B0
100
AcDbEntity
  8
寸法
  6
CONTINUOUS
 62
     3
100
AcDbLine
 10
1239.0
 20
2078.65
 30
0.0
 11
1259.0
 21
2078.65
 31
0.0
  0
INSERT
  5
2B5
330
2B0
100
AcDbEntity
  8
寸法
 62
     3
100
AcDbBlockReference
  2
EX_NORM
 10
1209.0
 20
2078.65
 30
0.0
 41
30.0
 42
30.0
 43
30.0
 50
180.0
  0
INSERT
  5
2B6
330
2B0
100
AcDbEntity
  8
寸法
 62
     3
100
AcDbBlockReference
  2
EX_NORM
 10
1289.0
 20
2078.65
 30
0.0
 41
30.0
 42
30.0
 43
30.0
  0
MTEXT
  5
2B7
330
2B0
100
AcDbEntity
  8
寸法
 62
     2
100
AcDbMText
 10
1249.0
 20
2102.149999940395
 30
0.0
 40
40.0
 41
0.0
 71
     5
 72
     1
  1
80
  7
EXCADDIM1
  0
POINT
  5
2B8
330
2B0
100
AcDbEntity
  8
DEFPOINTS
 62
     0
100
AcDbPoint
 10
1209.0
 20
2048.9999998808
 30
0.0
  0
POINT
  5
2B9
330
2B0
100
AcDbEntity
  8
DEFPOINTS
 62
     0
100
AcDbPoint
 10
1289.0
 20
2041.0
 30
0.0
  0
POINT
  5
2BA
330
2B0
100
AcDbEntity
  8
DEFPOINTS
 62
     0
100
AcDbPoint
 10
1289.0
 20
2078.65
 30
0.0
  0
ENDBLK
  5
2B2
330
2B0
100
AcDbEntity
  8
0
100
AcDbBlockEnd
  0
BLOCK
  5
2C1
330
2C0
100
AcDbEntity
  8
0
100
AcDbBlockBegin
  2
*D24
 70
     1
 10
0.0
 20
0.0
 30
0.0
  3
*D24
  1

  0
LINE
  5
2C3
330
2C0
100
AcDbEntity
  8
寸法
  6
CONTINUOUS
 62
     3
100
AcDbLine
 10
1090.535094404886
 20
1975.048871294989
 30
0.0
 11
916.6720437430545
 21
1801.185820633264
 31
0.0
  0
LINE
  5
2C4
330
2C0
100
AcDbEntity
  8
寸法
  6
CONTINUOUS
 62
     3
100
AcDbLine
 10
1256.049804621787
 20
1809.53416107799
 30
0.0
 11
1082.186753959954
 21
1635.671110416263
 31
0.0
  0
LINE
  5
2C5
330
2C0
100
AcDbEntity
  8
寸法
  6
CONTINUOUS
 62
     3
100
AcDbLine
 10
944.9563149905126
 20
1787.043685009525
 30
0.0
 11
1068.044618336232
 21
1663.95538166373
 31
0.0
  0
INSERT
  5
2C6
330
2C0
100
AcDbEntity
  8
寸法
 62
     3
100
AcDbBlockReference
  2
EX_NORM
 10
923.7431115549227
 20
1808.256888445128
 30
0.0
 41
30.0
 42
30.0
 43
30.0
 50
134.9999999999824
  0
INSERT
  5
2C7
330
2C0
100
AcDbEntity
  8
寸法
 62
     3
100
AcDbBlockReference
  2
EX_NORM
 10
1089.257821771822
 20
1642.742178228127
 30
0.0
 41
30.0
 42
30.0
 43
30.0
 50
314.9999999999824
  0
MTEXT
  5
2C8
330
2C0
100
AcDbEntity
  8
寸法
 62
     2
100
AcDbMText
 10
1023.117475979115
 20
1742.116542652359
 30
0.0
 40
40.0
 41
0.0
 71
     5
 72
     1
  1
235
  7
EXCADDIM1
 11
0.7071067811863309
 21
-0.7071067811867641
 31
0.0
  0
POINT
  5
2C9
330
2C0
100
AcDbEntity
  8
DEFPOINTS
 62
     0
100
AcDbPoint
 10
1095.4848417889
 20
1979.998618679
 30
0.0
  0
POINT
  5
2CA
330
2C0
100
AcDbEntity
  8
DEFPOINTS
 62
     0
100
AcDbPoint
 10
1260.9995520058
 20
1814.483908462
 30
0.0
  0
POINT
  5
2CB
330
2C0
100
AcDbEntity
  8
DEFPOINTS
 62
     0
100
AcDbPoint
 10
1089.257821771822
 20
1642.742178228127
 30
0.0
  0
ENDBLK
  5
2C2
330
2C0
100
AcDbEntity
  8
0
100
AcDbBlockEnd
  0
BLOCK
  5
2CE
330
2CD
100
AcDbEntity
  8
0
100
AcDbBlockBegin
  2
*D25
 70
     1
 10
0.0
 20
0.0
 30
0.0
  3
*D25
  1

  0
LINE
  5
2D0
330
2CD
100
AcDbEntity
  8
寸法
  6
CONTINUOUS
 62
     3
100
AcDbLine
 10
1104.504686193915
 20
1950.766852230586
 30
0.0
 11
977.488667189889
 21
1825.08479558575
 31
0.0
  0
LINE
  5
2D1
330
2CD
100
AcDbEntity
  8
寸法
  6
CONTINUOUS
 62
     3
100
AcDbLine
 10
1231.062341938415
 20
1822.865940706085
 30
0.0
 11
1104.046322934389
 21
1697.183884061249
 31
0.0
  0
LINE
  5
2D2
330
2CD
100
AcDbEntity
  8
寸法
  6
CONTINUOUS
 62
     3
100
AcDbLine
 10
1005.697890781903
 20
1810.793549862028
 30
0.0
 11
1090.053691495012
 21
1725.542414795435
 31
0.0
  0
INSERT
  5
2D3
330
2CD
100
AcDbEntity
  8
寸法
 62
     3
100
AcDbBlockReference
  2
EX_NORM
 10
984.5969632662071
 20
1832.118438090982
 30
0.0
 41
30.0
 42
30.0
 43
30.0
 50
134.6975453688131
  0
INSERT
  5
2D4
330
2CD
100
AcDbEntity
  8
寸法
 62
     3
100
AcDbBlockReference
  2
EX_NORM
 10
1111.154619010707
 20
1704.217526566481
 30
0.0
 41
30.0
 42
30.0
 43
30.0
 50
314.6975453688131
  0
MTEXT
  5
2D5
330
2CD
100
AcDbEntity
  8
寸法
 62
     2
100
AcDbMText
 10
1064.580286875435
 20
1784.697042174102
 30
0.0
 40
40.0
 41
0.0
 71
     5
 72
     1
  1
180
  7
EXCADDIM1
 11
0.7033642505231813
 21
-0.7108296076317894
 31
0.0
  0
POINT
  5
2D6
330
2CD
100
AcDbEntity
  8
DEFPOINTS
 62
     0
100
AcDbPoint
 10
1109.4804933626
 20
1955.6904019004
 30
0.0
  0
POINT
  5
2D7
330
2CD
100
AcDbEntity
  8
DEFPOINTS
 62
     0
100
AcDbPoint
 10
1236.0381491071
 20
1827.7894903759
 30
0.0
  0
POINT
  5
2D8
330
2CD
100
AcDbEntity
  8
DEFPOINTS
 62
     0
100
AcDbPoint
 10
1111.154619010707
 20
1704.217526566481
 30
0.0
  0
ENDBLK
  5
2CF
330
2CD
100
AcDbEntity
  8
0
100
AcDbBlockEnd
  0
BLOCK
  5
2DB
330
2DA
100
AcDbEntity
  8
0
100
AcDbBlockBegin
  2
*D26
 70
     1
 10
0.0
 20
0.0
 30
0.0
  3
*D26
  1

  0
LINE
  5
2DD
330
2DA
100
AcDbEntity
  8
寸法
  6
CONTINUOUS
 62
     3
100
AcDbLine
 10
1289.0
 20
485.0000001192093
 30
0.0
 11
1289.0
 21
395.0
 31
0.0
  0
LINE
  5
2DE
330
2DA
100
AcDbEntity
  8
寸法
  6
CONTINUOUS
 62
     3
100
AcDbLine
 10
1179.0
 20
485.0000001192093
 30
0.0
 11
1179.0
 21
395.0
 31
0.0
  0
LINE
  5
2DF
330
2DA
100
AcDbEntity
  8
寸法
  6
CONTINUOUS
 62
     3
100
AcDbLine
 10
1259.0
 20
405.0
 30
0.0
 11
1209.0
 21
405.0
 31
0.0
  0
INSERT
  5
2E0
330
2DA
100
AcDbEntity
  8
寸法
 62
     3
100
AcDbBlockReference
  2
EX_NORM
 10
1289.0
 20
405.0
 30
0.0
 41
30.0
 42
30.0
 43
30.0
  0
INSERT
  5
2E1
330
2DA
100
AcDbEntity
  8
寸法
 62
     3
100
AcDbBlockReference
  2
EX_NORM
 10
1179.0
 20
405.0
 30
0.0
 41
30.0
 42
30.0
 43
30.0
 50
180.0
  0
MTEXT
  5
2E2
330
2DA
100
AcDbEntity
  8
寸法
 62
     2
100
AcDbMText
 10
1444.0
 20
428.4999999403951
 30
0.0
 40
40.0
 41
0.0
 71
     5
 72
     1
  1
110（床排水）
  7
EXCADDIM1
  0
POINT
  5
2E3
330
2DA
100
AcDbEntity
  8
DEFPOINTS
 62
     0
100
AcDbPoint
 10
1289.0
 20
492.0
 30
0.0
  0
POINT
  5
2E4
330
2DA
100
AcDbEntity
  8
DEFPOINTS
 62
     0
100
AcDbPoint
 10
1179.0
 20
492.0
 30
0.0
  0
POINT
  5
2E5
330
2DA
100
AcDbEntity
  8
DEFPOINTS
 62
     0
100
AcDbPoint
 10
1179.0
 20
405.0
 30
0.0
  0
ENDBLK
  5
2DC
330
2DA
100
AcDbEntity
  8
0
100
AcDbBlockEnd
  0
BLOCK
  5
2EF
330
2EE
100
AcDbEntity
  8
0
100
AcDbBlockBegin
  2
*D27
 70
     1
 10
0.0
 20
0.0
 30
0.0
  3
*D27
  1

  0
LINE
  5
2F1
330
2EE
100
AcDbEntity
  8
寸法
  6
CONTINUOUS
 62
     3
100
AcDbLine
 10
1225.102392480791
 20
992.0
 30
0.0
 11
1445.498204018201
 21
992.0
 31
0.0
  0
LINE
  5
2F2
330
2EE
100
AcDbEntity
  8
寸法
  6
CONTINUOUS
 62
     3
100
AcDbLine
 10
1435.498204018201
 20
522.0
 30
0.0
 11
1435.498204018201
 21
962.0
 31
0.0
  0
INSERT
  5
2F3
330
2EE
100
AcDbEntity
  8
寸法
 62
     3
100
AcDbBlockReference
  2
EX_NORM
 10
1435.498204018201
 20
491.9999999999999
 30
0.0
 41
30.0
 42
30.0
 43
30.0
 50
270.0
  0
INSERT
  5
2F4
330
2EE
100
AcDbEntity
  8
寸法
 62
     3
100
AcDbBlockReference
  2
EX_NORM
 10
1435.498204018201
 20
992.0
 30
0.0
 41
30.0
 42
30.0
 43
30.0
 50
90.0
  0
MTEXT
  5
2F5
330
2EE
100
AcDbEntity
  8
寸法
 62
     2
100
AcDbMText
 10
1411.998204077805
 20
742.0
 30
0.0
 40
40.0
 41
0.0
 71
     5
 72
     1
  1
500
  7
EXCADDIM1
 11
0.0
 21
1.0
 31
0.0
  0
POINT
  5
2F6
330
2EE
100
AcDbEntity
  8
DEFPOINTS
 62
     0
100
AcDbPoint
 10
1289.0
 20
492.0
 30
0.0
  0
POINT
  5
2F7
330
2EE
100
AcDbEntity
  8
DEFPOINTS
 62
     0
100
AcDbPoint
 10
1218.1023926
 20
992.0
 30
0.0
  0
POINT
  5
2F8
330
2EE
100
AcDbEntity
  8
DEFPOINTS
 62
     0
100
AcDbPoint
 10
1435.498204018201
 20
992.0
 30
0.0
  0
ENDBLK
  5
2F0
330
2EE
100
AcDbEntity
  8
0
100
AcDbBlockEnd
  0
BLOCK
  5
2FB
330
2FA
100
AcDbEntity
  8
0
100
AcDbBlockBegin
  2
*D28
 70
     1
 10
0.0
 20
0.0
 30
0.0
  3
*D28
  1

  0
LINE
  5
2FD
330
2FA
100
AcDbEntity
  8
寸法
  6
CONTINUOUS
 62
     3
100
AcDbLine
 10
1217.501513555891
 20
1131.9999904712
 30
0.0
 11
1445.498204018201
 21
1131.9999904712
 31
0.0
  0
LINE
  5
2FE
330
2FA
100
AcDbEntity
  8
寸法
  6
CONTINUOUS
 62
     3
100
AcDbLine
 10
1295.999999880791
 20
1302.0
 30
0.0
 11
1445.498204018201
 21
1302.0
 31
0.0
  0
LINE
  5
2FF
330
2FA
100
AcDbEntity
  8
寸法
  6
CONTINUOUS
 62
     3
100
AcDbLine
 10
1435.498204018202
 20
1161.9999904712
 30
0.0
 11
1435.498204018202
 21
1272.0
 31
0.0
  0
INSERT
  5
300
330
2FA
100
AcDbEntity
  8
寸法
 62
     3
100
AcDbBlockReference
  2
EX_NORM
 10
1435.498204018202
 20
1131.9999904712
 30
0.0
 41
30.0
 42
30.0
 43
30.0
 50
270.0
  0
INSERT
  5
301
330
2FA
100
AcDbEntity
  8
寸法
 62
     3
100
AcDbBlockReference
  2
EX_NORM
 10
1435.498204018202
 20
1302.0
 30
0.0
 41
30.0
 42
30.0
 43
30.0
 50
90.0
  0
MTEXT
  5
302
330
2FA
100
AcDbEntity
  8
寸法
 62
     2
100
AcDbMText
 10
1411.998204077806
 20
1216.9999952356
 30
0.0
 40
40.0
 41
0.0
 71
     5
 72
     1
  1
170
  7
EXCADDIM1
 11
0.0
 21
1.0
 31
0.0
  0
POINT
  5
303
330
2FA
100
AcDbEntity
  8
DEFPOINTS
 62
     0
100
AcDbPoint
 10
1210.5015136751
 20
1131.9999904712
 30
0.0
  0
POINT
  5
304
330
2FA
100
AcDbEntity
  8
DEFPOINTS
 62
     0
100
AcDbPoint
 10
1289.0
 20
1302.0
 30
0.0
  0
POINT
  5
305
330
2FA
100
AcDbEntity
  8
DEFPOINTS
 62
     0
100
AcDbPoint
 10
1435.498204018202
 20
1302.0
 30
0.0
  0
ENDBLK
  5
2FC
330
2FA
100
AcDbEntity
  8
0
100
AcDbBlockEnd
  0
ENDSEC
  0
SECTION
  2
ENTITIES
  0
ARC
  5
AA
330
1F
100
AcDbEntity
  8
枠_表
  6
CONTINUOUS
 62
     3
100
AcDbCircle
 10
80.42685324125519
 20
15.46167288926873
 30
0.0
 40
1.766683515327064
100
AcDbArc
 50
88.77000393305703
 51
128.9068631829044
  0
ARC
  5
AB
330
1F
100
AcDbEntity
  8
枠_表
  6
CONTINUOUS
 62
     3
100
AcDbCircle
 10
80.50706272602788
 20
16.20191625973303
 30
0.0
 40
1.02690407511459
100
AcDbArc
 50
4.148222840814693
 51
92.36000944257292
  0
ARC
  5
AC
330
1F
100
AcDbEntity
  8
枠_表
  6
CONTINUOUS
 62
     3
100
AcDbCircle
 10
126.865013583871
 20
14.8932384393172
 30
0.0
 40
45.3548265586566
100
AcDbArc
 50
178.2526643324597
 51
180.6439560401927
  0
ARC
  5
AD
330
1F
100
AcDbEntity
  8
枠_表
  6
CONTINUOUS
 62
     3
100
AcDbCircle
 10
81.81823989446036
 20
14.38302928780462
 30
0.0
 40
0.305188683107389
100
AcDbArc
 50
179.9117548191414
 51
236.1065985968857
  0
ARC
  5
AE
330
1F
100
AcDbEntity
  8
枠_表
  6
CONTINUOUS
 62
     3
100
AcDbCircle
 10
81.78242078457959
 20
14.40061188741078
 30
0.0
 40
0.30240485913648
100
AcDbArc
 50
243.6191685566582
 51
297.5097757939563
  0
LINE
  5
AF
330
1F
100
AcDbEntity
  8
枠_表
  6
CONTINUOUS
 62
     3
100
AcDbLine
 10
81.922101573325
 20
13.97512432975395
 30
0.0
 11
81.922101573325
 21
14.13239932975392
 31
0.0
  0
LINE
  5
B0
330
1F
100
AcDbEntity
  8
枠_表
  6
CONTINUOUS
 62
     3
100
AcDbLine
 10
81.39087657332504
 20
13.90964932975393
 30
0.0
 11
81.60822657332501
 21
13.90964932975393
 31
0.0
  0
ARC
  5
B1
330
1F
100
AcDbEntity
  8
枠_表
  6
CONTINUOUS
 62
     3
100
AcDbCircle
 10
81.58995891945592
 20
14.76464512823017
 30
0.0
 40
0.856540620020894
100
AcDbArc
 50
271.2220539293239
 51
292.8159509797653
  0
ARC
  5
B2
330
1F
100
AcDbEntity
  8
枠_表
  6
CONTINUOUS
 62
     3
100
AcDbCircle
 10
81.42937735081466
 20
14.3336745652862
 30
0.0
 40
0.425769550620398
100
AcDbArc
 50
217.4081478714985
 51
264.8118660441384
  0
ARC
  5
B3
330
1F
100
AcDbEntity
  8
枠_表
  6
CONTINUOUS
 62
     3
100
AcDbCircle
 10
81.48315560558319
 20
14.36492594265718
 30
0.0
 40
0.487535134009722
100
AcDbArc
 50
187.1167640402297
 51
216.4860549324747
  0
ARC
  5
B4
330
1F
100
AcDbEntity
  8
枠_表
  6
CONTINUOUS
 62
     3
100
AcDbCircle
 10
79.96613045867014
 20
15.19534026256815
 30
0.0
 40
1.364239920103932
100
AcDbArc
 50
275.2158792069686
 51
319.2336424873511
  0
LINE
  5
B5
330
1F
100
AcDbEntity
  8
枠_表
  6
CONTINUOUS
 62
     3
100
AcDbLine
 10
79.816101573325
 20
13.83674932975396
 30
0.0
 11
80.09015157332506
 21
13.83674932975396
 31
0.0
  0
ARC
  5
B6
330
1F
100
AcDbEntity
  8
枠_表
  6
CONTINUOUS
 62
     3
100
AcDbCircle
 10
79.82928130736758
 20
14.46963494387396
 30
0.0
 40
0.633022832091786
100
AcDbArc
 50
252.3384873625213
 51
268.8069976857606
  0
ARC
  5
B7
330
1F
100
AcDbEntity
  8
枠_表
  6
CONTINUOUS
 62
     3
100
AcDbCircle
 10
79.84562953036891
 20
14.68111104772584
 30
0.0
 40
0.840895657756366
100
AcDbArc
 50
224.289750990011
 51
255.6505938786759
  0
ARC
  5
B8
330
1F
100
AcDbEntity
  8
枠_表
  6
CONTINUOUS
 62
     3
100
AcDbCircle
 10
79.80915332915504
 20
14.64015021572848
 30
0.0
 40
0.78619234712629
100
AcDbArc
 50
185.9586126338419
 51
224.0091989319859
  0
ARC
  5
B9
330
1F
100
AcDbEntity
  8
枠_表
  6
CONTINUOUS
 62
     3
100
AcDbCircle
 10
79.89075018569993
 20
14.67758712547734
 30
0.0
 40
0.871709372588669
100
AcDbArc
 50
164.8589457925044
 51
187.8495628504518
  0
ARC
  5
BA
330
1F
100
AcDbEntity
  8
枠_表
  6
CONTINUOUS
 62
     3
100
AcDbCircle
 10
79.73972379030153
 20
14.76366332500788
 30
0.0
 40
0.704795370557922
100
AcDbArc
 50
129.8344892359069
 51
168.4089447024628
  0
ARC
  5
BB
330
1F
100
AcDbEntity
  8
枠_表
  6
CONTINUOUS
 62
     3
100
AcDbCircle
 10
80.10970138675788
 20
14.29608481482859
 30
0.0
 40
1.30093661698492
100
AcDbArc
 50
102.0988446293839
 51
129.1556705448828
  0
ARC
  5
BC
330
1F
100
AcDbEntity
  8
枠_表
  6
CONTINUOUS
 62
     3
100
AcDbCircle
 10
77.88530099985788
 20
28.112020297752
 30
0.0
 40
12.69482409370382
100
AcDbArc
 50
278.8438342053764
 51
282.6649181367123
  0
ARC
  5
BD
330
1F
100
AcDbEntity
  8
枠_表
  6
CONTINUOUS
 62
     3
100
AcDbCircle
 10
80.434330501109
 20
16.76407362688738
 30
0.0
 40
1.064113335272784
100
AcDbArc
 50
282.7195832898965
 51
295.6781112778079
  0
ARC
  5
BE
330
1F
100
AcDbEntity
  8
枠_表
  6
CONTINUOUS
 62
     3
100
AcDbCircle
 10
80.83230955673339
 20
15.96511332504272
 30
0.0
 40
0.172058828228131
100
AcDbArc
 50
291.5204897073511
 51
349.3445900274031
  0
ARC
  5
BF
330
1F
100
AcDbEntity
  8
枠_表
  6
CONTINUOUS
 62
     3
100
AcDbCircle
 10
79.7005387356657
 20
16.09229870375111
 30
0.0
 40
1.310543751018921
100
AcDbArc
 50
353.0315250986587
 51
7.839947970678348
  0
ARC
  5
C0
330
1F
100
AcDbEntity
  8
枠_表
  6
CONTINUOUS
 62
     3
100
AcDbCircle
 10
80.29283412817688
 20
16.22741886153406
 30
0.0
 40
0.707346538626002
100
AcDbArc
 50
3.537639967999379
 51
74.8013566619203
  0
ARC
  5
C1
330
1F
100
AcDbEntity
  8
枠_表
  6
CONTINUOUS
 62
     3
100
AcDbCircle
 10
80.24799095798308
 20
15.89383830513006
 30
0.0
 40
1.04195273466423
100
AcDbArc
 50
77.23143261361693
 51
105.203415964315
  0
ARC
  5
C2
330
1F
100
AcDbEntity
  8
枠_表
  6
CONTINUOUS
 62
     3
100
AcDbCircle
 10
80.18253617702987
 20
16.02890191857873
 30
0.0
 40
0.894881105176719
100
AcDbArc
 50
103.4267945469744
 51
150.3242613737993
  0
LINE
  5
C3
330
1F
100
AcDbEntity
  8
枠_表
  6
CONTINUOUS
 62
     3
100
AcDbLine
 10
79.3172765733251
 20
16.83644932975395
 30
0.0
 11
79.3172765733251
 21
16.47194932975393
 31
0.0
  0
ARC
  5
C4
330
1F
100
AcDbEntity
  8
枠_表
  6
CONTINUOUS
 62
     3
100
AcDbCircle
 10
69.81439565227078
 20
14.37342761922778
 30
0.0
 40
6.967015049800598
100
AcDbArc
 50
353.1274757312911
 51
357.106204490141
  0
ARC
  5
C5
330
1F
100
AcDbEntity
  8
枠_表
  6
CONTINUOUS
 62
     3
100
AcDbCircle
 10
27.33385521229316
 20
16.75197335838826
 30
0.0
 40
49.51400430399008
100
AcDbArc
 50
356.8390243485978
 51
2.971133813187157
  0
ARC
  5
C6
330
1F
100
AcDbEntity
  8
枠_表
  6
CONTINUOUS
 62
     3
100
AcDbCircle
 10
76.00927386496024
 20
13.73407518472905
 30
0.0
 40
0.747769185530633
100
AcDbArc
 50
314.592391474832
 51
344.9374073189123
  0
ARC
  5
C7
330
1F
100
AcDbEntity
  8
枠_表
  6
CONTINUOUS
 62
     3
100
AcDbCircle
 10
75.78347289685445
 20
14.16759859445978
 30
0.0
 40
1.223467000390025
100
AcDbArc
 50
288.1715191042997
 51
307.8537826235693
  0
LINE
  5
C8
330
1F
100
AcDbEntity
  8
枠_表
  6
CONTINUOUS
 62
     3
100
AcDbLine
 10
76.28855157332504
 20
12.62917432975397
 30
0.0
 11
76.16502657332501
 21
13.00514932975392
 31
0.0
  0
ARC
  5
C9
330
1F
100
AcDbEntity
  8
枠_表
  6
CONTINUOUS
 62
     3
100
AcDbCircle
 10
76.0095574986666
 20
14.87223152915377
 30
0.0
 40
2.260341410821362
100
AcDbArc
 50
277.0901027239701
 51
290.9134154817058
  0
ARC
  5
CA
330
1F
100
AcDbEntity
  8
枠_表
  6
CONTINUOUS
 62
     3
100
AcDbCircle
 10
76.3389732788548
 20
14.39383518626818
 30
0.0
 40
1.701394688196115
100
AcDbArc
 50
286.2966123578915
 51
329.973223283839
  0
ARC
  5
CB
330
1F
100
AcDbEntity
  8
枠_表
  6
CONTINUOUS
 62
     3
100
AcDbCircle
 10
75.7489936179062
 20
14.49631356880082
 30
0.0
 40
2.272875263114311
100
AcDbArc
 50
335.1860595856123
 51
1.308075913059364
  0
ARC
  5
CC
330
1F
100
AcDbEntity
  8
枠_表
  6
CONTINUOUS
 62
     3
100
AcDbCircle
 10
142.9542531413434
 20
16.22960360950833
 30
0.0
 40
64.95474244683605
100
AcDbArc
 50
177.2695926307304
 51
181.4833117237826
  0
ARC
  5
CD
330
1F
100
AcDbEntity
  8
枠_表
  6
CONTINUOUS
 62
     3
100
AcDbCircle
 10
79.86056099353728
 20
19.57501381160495
 30
0.0
 40
4.136406814694017
100
AcDbArc
 50
278.4088456599976
 51
286.1851416003176
  0
ARC
  5
CE
330
1F
100
AcDbEntity
  8
枠_表
  6
CONTINUOUS
 62
     3
100
AcDbCircle
 10
80.7566065175771
 20
13.58318862667966
 30
0.0
 40
1.922065786155208
100
AcDbArc
 50
98.71271710191789
 51
115.2874718053599
  0
ARC
  5
CF
330
1F
100
AcDbEntity
  8
枠_表
  6
CONTINUOUS
 62
     3
100
AcDbCircle
 10
80.20701866837835
 20
14.75807479047171
 30
0.0
 40
0.625019433457053
100
AcDbArc
 50
115.7403688633493
 51
172.5491744442191
  0
LINE
  5
D0
330
1F
100
AcDbEntity
  8
枠_表
  6
CONTINUOUS
 62
     3
100
AcDbLine
 10
79.58727657332503
 20
14.83912432975393
 30
0.0
 11
79.58727657332503
 21
14.64337432975393
 31
0.0
  0
ARC
  5
D1
330
1F
100
AcDbEntity
  8
枠_表
  6
CONTINUOUS
 62
     3
100
AcDbCircle
 10
80.16959653488739
 20
14.67461380097771
 30
0.0
 40
0.583157304846997
100
AcDbArc
 50
183.0707787095794
 51
263.4402016072427
  0
LINE
  5
D2
330
1F
100
AcDbEntity
  8
枠_表
  6
CONTINUOUS
 62
     3
100
AcDbLine
 10
80.10297657332501
 20
14.09527432975395
 30
0.0
 11
80.27645157332506
 21
14.09527432975395
 31
0.0
  0
ARC
  5
D3
330
1F
100
AcDbEntity
  8
枠_表
  6
CONTINUOUS
 62
     3
100
AcDbCircle
 10
80.13244690765914
 20
15.07836489530195
 30
0.0
 40
0.993581603997916
100
AcDbArc
 50
278.3335103000368
 51
329.1221464187299
  0
ARC
  5
D4
330
1F
100
AcDbEntity
  8
枠_表
  6
CONTINUOUS
 62
     3
100
AcDbCircle
 10
-2247.901542217735
 20
78.93265245587818
 30
0.0
 40
2329.776001260591
100
AcDbArc
 50
358.4169008257799
 51
358.4423418242109
  0
ARC
  5
D5
330
1F
100
AcDbEntity
  8
枠_表
  6
CONTINUOUS
 62
     3
100
AcDbCircle
 10
82.95808780069315
 20
9.950692545116993
 30
0.0
 40
3.968909094418497
100
AcDbArc
 50
85.07099551674689
 51
93.91830029343228
  0
ARC
  5
D6
330
1F
100
AcDbEntity
  8
枠_表
  6
CONTINUOUS
 62
     3
100
AcDbCircle
 10
90.64088578951043
 20
14.79150147009798
 30
0.0
 40
7.395120993114928
100
AcDbArc
 50
179.8977458165987
 51
186.8855675734268
  0
ARC
  5
D7
330
1F
100
AcDbEntity
  8
枠_表
  6
CONTINUOUS
 62
     3
100
AcDbCircle
 10
84.35661722366405
 20
15.90795225138044
 30
0.0
 40
1.108398956318131
100
AcDbArc
 50
134.9787476233347
 51
181.2369872983282
  0
ARC
  5
D8
330
1F
100
AcDbEntity
  8
枠_表
  6
CONTINUOUS
 62
     3
100
AcDbCircle
 10
84.10100145205536
 20
16.02366273138676
 30
0.0
 40
0.851645057047003
100
AcDbArc
 50
42.91644474042847
 51
128.3015542351336
  0
ARC
  5
D9
330
1F
100
AcDbEntity
  8
枠_表
  6
CONTINUOUS
 62
     3
100
AcDbCircle
 10
83.79447404568528
 20
16.00315138821537
 30
0.0
 40
1.107172507744154
100
AcDbArc
 50
359.2495022237244
 51
32.84055016678327
  0
ARC
  5
DA
330
1F
100
AcDbEntity
  8
枠_表
  6
CONTINUOUS
 62
     3
100
AcDbCircle
 10
68.4117337864974
 20
15.1775133788245
 30
0.0
 40
16.50975566668588
100
AcDbArc
 50
355.5862454873798
 51
2.816115806820253
  0
ARC
  5
DB
330
1F
100
AcDbEntity
  8
枠_表
  6
CONTINUOUS
 62
     3
100
AcDbCircle
 10
85.15771407332511
 20
10.76015261922765
 30
0.0
 40
3.159693252126744
100
AcDbArc
 50
84.82155189294139
 51
95.17844810705873
  0
ARC
  5
DC
330
1F
100
AcDbEntity
  8
枠_表
  6
CONTINUOUS
 62
     3
100
AcDbCircle
 10
101.7657633661698
 20
14.6906737473912
 30
0.0
 40
16.34166579853821
100
AcDbArc
 50
176.2131780319488
 51
182.7488833337936
  0
ARC
  5
DD
330
1F
100
AcDbEntity
  8
枠_表
  6
CONTINUOUS
 62
     3
100
AcDbCircle
 10
79.31913601210061
 20
15.93315774812132
 30
0.0
 40
6.142809087866958
100
AcDbArc
 50
358.4775281223095
 51
2.117232414210064
  0
ARC
  5
DE
330
1F
100
AcDbEntity
  8
枠_表
  6
CONTINUOUS
 62
     3
100
AcDbCircle
 10
84.27905515344827
 20
16.16285942451512
 30
0.0
 40
1.17869965146059
100
AcDbArc
 50
359.8658335690532
 51
34.49363429411157
  0
ARC
  5
DF
330
1F
100
AcDbEntity
  8
枠_表
  6
CONTINUOUS
 62
     3
100
AcDbCircle
 10
84.47724057413768
 20
16.29204664797979
 30
0.0
 40
0.94221437555554
100
AcDbArc
 50
34.84393737091607
 51
92.5207065423111
  0
ARC
  5
E0
330
1F
100
AcDbEntity
  8
枠_表
  6
CONTINUOUS
 62
     3
100
AcDbCircle
 10
84.3754106900255
 20
15.89275988818591
 30
0.0
 40
1.34194899665726
100
AcDbArc
 50
87.42068310381028
 51
147.4361518966862
  0
ARC
  5
E1
330
1F
100
AcDbEntity
  8
枠_表
  6
CONTINUOUS
 62
     3
100
AcDbCircle
 10
87.00574727396167
 20
16.7078568138304
 30
0.0
 40
3.762465500458183
100
AcDbArc
 50
172.9875214416311
 51
181.4134392789641
  0
ARC
  5
E2
330
1F
100
AcDbEntity
  8
枠_表
  6
CONTINUOUS
 62
     3
100
AcDbCircle
 10
82.97082849861238
 20
18.32206879814476
 30
0.0
 40
1.193349358546016
100
AcDbArc
 50
255.9341994177206
 51
284.5896440601899
  0
ARC
  5
E3
330
1F
100
AcDbEntity
  8
枠_表
  6
CONTINUOUS
 62
     3
100
AcDbCircle
 10
62.31176988671598
 20
15.49938058671736
 30
0.0
 40
20.43697806131073
100
AcDbArc
 50
355.5405243117485
 51
4.673398698656258
  0
LINE
  5
E4
330
1F
100
AcDbEntity
  8
枠_表
  6
CONTINUOUS
 62
     3
100
AcDbLine
 10
83.24847657332504
 20
15.88402432975394
 30
0.0
 11
83.24847657332504
 21
14.80469932975393
 31
0.0
  0
CIRCLE
  5
E5
330
1F
100
AcDbEntity
  8
枠_表
  6
CONTINUOUS
 62
     3
100
AcDbCircle
 10
86.92855140383354
 20
18.35835466873701
 30
0.0
 40
0.357233446676989
  0
ARC
  5
E6
330
1F
100
AcDbEntity
  8
枠_表
  6
CONTINUOUS
 62
     3
100
AcDbCircle
 10
86.91456076027731
 20
18.45332474358065
 30
0.0
 40
1.319228548840207
100
AcDbArc
 50
256.6209501743446
 51
283.9984576255729
  0
ARC
  5
E7
330
1F
100
AcDbEntity
  8
枠_表
  6
CONTINUOUS
 62
     3
100
AcDbCircle
 10
86.94144089371338
 20
7.379804184123202
 30
0.0
 40
6.532859485251092
100
AcDbArc
 50
87.46575055044718
 51
92.90832285102188
  0
ARC
  5
E8
330
1F
100
AcDbEntity
  8
枠_表
  6
CONTINUOUS
 62
     3
100
AcDbCircle
 10
107.5254047179557
 20
15.51881005739378
 30
0.0
 40
20.35906390589
100
AcDbArc
 50
175.3387608397566
 51
184.5428594926176
  0
ARC
  5
E9
330
1F
100
AcDbEntity
  8
枠_表
  6
CONTINUOUS
 62
     3
100
AcDbCircle
 10
64.46900575363873
 20
15.53249792766223
 30
0.0
 40
22.20076085035812
100
AcDbArc
 50
355.7940354718673
 51
4.229650257234378
  0
ARC
  5
EA
330
1F
100
AcDbEntity
  8
枠_表
  6
CONTINUOUS
 62
     3
100
AcDbCircle
 10
121.4644453232814
 20
98.20297432964193
 30
0.0
 40
87.02800228963157
100
AcDbArc
 50
248.6422112053103
 51
248.8567777804232
  0
ARC
  5
EB
330
1F
100
AcDbEntity
  8
枠_表
  6
CONTINUOUS
 62
     3
100
AcDbCircle
 10
89.38542828460568
 20
16.2166303836394
 30
0.0
 40
1.010907867592157
100
AcDbArc
 50
67.66151957087348
 51
88.69073168448988
  0
ARC
  5
EC
330
1F
100
AcDbEntity
  8
枠_表
  6
CONTINUOUS
 62
     3
100
AcDbCircle
 10
89.27711044283906
 20
15.90979097937597
 30
0.0
 40
1.319974865367525
100
AcDbArc
 50
92.38301574576484
 51
114.9635286746436
  0
ARC
  5
ED
330
1F
100
AcDbEntity
  8
枠_表
  6
CONTINUOUS
 62
     3
100
AcDbCircle
 10
89.17963496799615
 20
16.22009291101853
 30
0.0
 40
0.99843256030919
100
AcDbArc
 50
117.4083995939977
 51
176.1964688215695
  0
ARC
  5
EE
330
1F
100
AcDbEntity
  8
枠_表
  6
CONTINUOUS
 62
     3
100
AcDbCircle
 10
88.85599257926003
 20
16.12192769075514
 30
0.0
 40
0.669372605905611
100
AcDbArc
 50
181.2393899443581
 51
226.5942921332421
  0
ARC
  5
EF
330
1F
100
AcDbEntity
  8
枠_表
  6
CONTINUOUS
 62
     3
100
AcDbCircle
 10
89.25268145799504
 20
16.52396411006671
 30
0.0
 40
1.234100950779567
100
AcDbArc
 50
226.0402388947521
 51
253.1776672992999
  0
ARC
  5
F0
330
1F
100
AcDbEntity
  8
枠_表
  6
CONTINUOUS
 62
     3
100
AcDbCircle
 10
88.2171489183043
 20
12.49457141755195
 30
0.0
 40
2.927778413972754
100
AcDbArc
 50
63.49050203733571
 51
76.60259219849584
  0
ARC
  5
F1
330
1F
100
AcDbEntity
  8
枠_表
  6
CONTINUOUS
 62
     3
100
AcDbCircle
 10
89.33080045853667
 20
14.69846225433153
 30
0.0
 40
0.458710152219014
100
AcDbArc
 50
6.53892419415897
 51
65.09756080693691
  0
ARC
  5
F2
330
1F
100
AcDbEntity
  8
枠_表
  6
CONTINUOUS
 62
     3
100
AcDbCircle
 10
89.20357777446515
 20
14.67002363757152
 30
0.0
 40
0.594395491876676
100
AcDbArc
 50
270.8867385422408
 51
352.7925382056677
  0
ARC
  5
F3
330
1F
100
AcDbEntity
  8
枠_表
  6
CONTINUOUS
 62
     3
100
AcDbCircle
 10
89.16361043234856
 20
14.96658639777368
 30
0.0
 40
0.898004035462527
100
AcDbArc
 50
207.7689879465537
 51
262.7817283832026
  0
ARC
  5
F4
330
1F
100
AcDbEntity
  8
枠_表
  6
CONTINUOUS
 62
     3
100
AcDbCircle
 10
88.97930054592774
 20
15.58156576811015
 30
0.0
 40
1.75327631578002
100
AcDbArc
 50
241.8829576087176
 51
265.9354096935781
  0
ARC
  5
F5
330
1F
100
AcDbEntity
  8
枠_表
  6
CONTINUOUS
 62
     3
100
AcDbCircle
 10
89.14663886467561
 20
14.96692467118035
 30
0.0
 40
1.134515058180645
100
AcDbArc
 50
271.2948770866743
 51
348.6654156292868
  0
ARC
  5
F6
330
1F
100
AcDbEntity
  8
枠_表
  6
CONTINUOUS
 62
     3
100
AcDbCircle
 10
89.52045721291955
 20
14.95217258531565
 30
0.0
 40
0.746245075729606
100
AcDbArc
 50
6.154262763177246
 51
76.17509904255616
  0
ARC
  5
F7
330
1F
100
AcDbEntity
  8
枠_表
  6
CONTINUOUS
 62
     3
100
AcDbCircle
 10
90.9538466969206
 20
20.89359310503497
 30
0.0
 40
5.365644258516682
100
AcDbArc
 50
249.6420733479936
 51
256.4727051201885
  0
ARC
  5
F8
330
1F
100
AcDbEntity
  8
枠_表
  6
CONTINUOUS
 62
     3
100
AcDbCircle
 10
89.30721352387451
 20
16.53138641766603
 30
0.0
 40
0.703563707337184
100
AcDbArc
 50
210.9501336849607
 51
251.7794729821079
  0
ARC
  5
F9
330
1F
100
AcDbEntity
  8
枠_表
  6
CONTINUOUS
 62
     3
100
AcDbCircle
 10
90.03031407332624
 20
16.63823182975435
 30
0.0
 40
1.4068519372934
100
AcDbArc
 50
193.4375782160214
 51
199.459638038058
  0
ARC
  5
FA
330
1F
100
AcDbEntity
  8
枠_表
  6
CONTINUOUS
 62
     3
100
AcDbCircle
 10
89.20350964860535
 20
16.42674994707909
 30
0.0
 40
0.535613931103931
100
AcDbArc
 50
92.11404364449162
 51
173.4175047026091
  0
ARC
  5
FB
330
1F
100
AcDbEntity
  8
枠_表
  6
CONTINUOUS
 62
     3
100
AcDbCircle
 10
89.24147339127506
 20
16.35429236291657
 30
0.0
 40
0.612586430102253
100
AcDbArc
 50
17.92452211681263
 51
85.16543319077402
  0
LINE
  5
FC
330
1F
100
AcDbEntity
  8
枠_表
  6
CONTINUOUS
 62
     3
100
AcDbLine
 10
89.40852657332505
 20
17.22727432975393
 30
0.0
 11
89.22222657332505
 21
17.22727432975393
 31
0.0
  0
LINE
  5
FD
330
1F
100
AcDbEntity
  8
枠_表
  6
CONTINUOUS
 62
     3
100
AcDbLine
 10
89.050776573325
 20
14.07569932975392
 30
0.0
 11
89.21277657332503
 21
14.07569932975392
 31
0.0
  0
LINE
  5
FE
330
1F
100
AcDbEntity
  8
枠_表
  6
CONTINUOUS
 62
     3
100
AcDbLine
 10
88.36902657332503
 20
14.54819932975391
 30
0.0
 11
88.28127657332504
 21
14.54819932975391
 31
0.0
  0
LINE
  5
FF
330
1F
100
AcDbEntity
  8
枠_表
  6
CONTINUOUS
 62
     3
100
AcDbLine
 10
88.85502657332506
 20
13.83269932975395
 30
0.0
 11
89.17227657332496
 21
13.83269932975395
 31
0.0
  0
HATCH
  5
100
330
1F
100
AcDbEntity
  8
枠_表
  6
CONTINUOUS
 62
     3
100
AcDbHatch
 10
0.0
 20
0.0
 30
0.0
210
0.0
220
0.0
230
1.0
  2
SOLID
 70
     1
 71
     1
 91
        1
 92
        3
 72
     1
 73
     1
 93
       10
 10
76.77252657332507
 20
14.02169932975396
 42
-0.017362223501556
 10
76.78130157332504
 20
19.31842432975395
 42
-0.0267627618865285
 10
76.78130157332494
 20
19.31842432975392
 42
0.0737939047395297
 10
78.07325157332498
 20
19.32382432975388
 42
0.0183878899657109
 10
78.0212765733251
 20
14.54819932975393
 42
-0.1144749489451909
 10
77.81202657332497
 20
13.54244932975392
 42
-0.1929163439413163
 10
76.81640157332512
 20
12.76079932975395
 42
-0.0603888289562337
 10
76.28855157332504
 20
12.62917432975397
 42
0.0
 10
76.16502657332501
 20
13.00514932975393
 42
0.0860918333465722
 10
76.53425157332502
 20
13.20157432975396
 42
0.1331843103855141
 97
        0
 75
     0
 76
     1
 98
        1
 10
0.0
 20
0.0
  0
HATCH
  5
101
330
1F
100
AcDbEntity
  8
枠_表
  6
CONTINUOUS
 62
     3
100
AcDbHatch
 10
0.0
 20
0.0
 30
0.0
210
0.0
220
0.0
230
1.0
  2
SOLID
 70
     1
 71
     1
 91
        1
 92
        3
 72
     1
 73
     1
 93
       16
 10
82.68687657332501
 20
13.91032432975396
 42
-0.0386228372648426
 10
82.68080157332504
 20
17.16449932975397
 42
-0.0398707891902887
 10
83.27142657332502
 20
17.16719932975396
 42
-0.1256886216044368
 10
83.24442657332507
 20
16.61504932975395
 42
-0.0367815758121429
 10
83.24442657332503
 20
16.61504932975395
 42
-0.268021535028829
 10
84.43580157332505
 20
17.23334932975392
 42
-0.2571134422124888
 10
85.250526573325
 20
16.83037432975395
 42
-0.1522526366014298
 10
85.45775157332507
 20
16.16009932975397
 42
-0.0158825412051521
 10
85.44290157332502
 20
13.90694932975394
 42
-0.0285251271418421
 10
84.8725265733251
 20
13.90694932975394
 42
-0.0452212723224612
 10
84.90155157332501
 20
15.98864932975394
 42
-0.0315567291532142
 10
84.72470157332499
 20
16.60357432975391
 42
-0.1476272403790709
 10
83.57315157332505
 20
16.69199932975393
 42
-0.3908144705745794
 10
83.24847657332504
 20
15.88402432975392
 42
-0.2046259928850854
 10
83.24847657332504
 20
15.88402432975394
 42
0.0
 10
83.29910157332507
 20
13.90492432975392
 42
-0.0304995761723369
 97
        0
 75
     0
 76
     1
 98
        1
 10
0.0
 20
0.0
  0
HATCH
  5
102
330
1F
100
AcDbEntity
  8
枠_表
  6
CONTINUOUS
 62
     3
100
AcDbHatch
 10
0.0
 20
0.0
 30
0.0
210
0.0
220
0.0
230
1.0
  2
SOLID
 70
     1
 71
     1
 91
        2
 92
        1
 93
        1
 72
     2
 10
86.92855140383354
 20
18.35835466873701
 40
0.3572334466769885
 50
0.0
 51
360.0
 73
     1
 97
        0
 92
        3
 72
     1
 73
     1
 93
        3
 10
86.60930157332503
 20
17.16989932975394
 42
0.1200283885712921
 10
87.23030157332498
 20
13.90627432975394
 42
-0.0401820615762149
 10
86.60997657332503
 20
13.90424932975395
 42
-0.0237521668114666
 97
        0
 75
     0
 76
     1
 98
        1
 10
0.0
 20
0.0
  0
LINE
  5
103
330
1F
100
AcDbEntity
  8
枠_表
  6
CONTINUOUS
 62
     3
100
AcDbLine
 10
79.3172765733251
 20
16.47194932975393
 30
0.0
 11
79.40502657332502
 21
16.47194932975393
 31
0.0
  0
ARC
  5
104
330
1F
100
AcDbEntity
  8
枠_表
  6
CONTINUOUS
 62
     3
100
AcDbCircle
 10
87.1534413132094
 20
14.55779759564987
 30
0.0
 40
1.127953740078838
100
AcDbArc
 50
332.3987521421788
 51
359.5124385477116
  0
LINE
  5
105
330
1F
100
AcDbEntity
  8
枠_表
  6
CONTINUOUS
 62
     3
100
AcDbLine
 10
89.78652657332503
 20
14.75069932975393
 30
0.0
 11
89.79327657332506
 21
14.59544932975396
 31
0.0
  0
LINE
  5
106
330
1F
100
AcDbEntity
  8
枠_表
  6
CONTINUOUS
 62
     3
100
AcDbLine
 10
90.26240157332506
 20
15.03217432975393
 30
0.0
 11
90.259026573325
 21
14.74394932975397
 31
0.0
  0
LINE
  5
107
330
1F
100
AcDbEntity
  8
枠_表
  6
CONTINUOUS
 62
     3
100
AcDbLine
 10
88.671426573325
 20
16.48814932975395
 30
0.0
 11
88.66197657332503
 21
16.31129932975395
 31
0.0
  0
LINE
  5
108
330
1F
100
AcDbEntity
  8
枠_表
  6
CONTINUOUS
 62
     3
100
AcDbLine
 10
88.18340157332496
 20
16.28632432975397
 30
0.0
 11
88.18677657332496
 21
16.10744932975618
 31
0.0
  0
LINE
  5
109
330
1F
100
AcDbEntity
  8
枠_表
  6
CONTINUOUS
 62
     3
100
AcDbLine
 10
89.18375157332498
 20
16.96199932975395
 30
0.0
 11
89.29310157332509
 21
16.96469932975396
 31
0.0
  0
LINE
  5
10A
330
1F
100
AcDbEntity
  8
枠_表
  6
CONTINUOUS
 62
     3
100
AcDbLine
 10
89.82432657332504
 20
16.54282432975396
 30
0.0
 11
89.90970934867318
 21
16.54282432975396
 31
0.0
  0
ARC
  5
10B
330
1F
100
AcDbEntity
  8
枠_表
  6
CONTINUOUS
 62
     3
100
AcDbCircle
 10
91.7842481068871
 20
16.19019437507481
 30
0.0
 40
1.907418003737831
100
AcDbArc
 50
153.7591918158497
 51
169.3462759801917
  0
HATCH
  5
10C
330
1F
100
AcDbEntity
  8
枠_表
  6
CONTINUOUS
 62
     3
100
AcDbHatch
 10
0.0
 20
0.0
 30
0.0
210
0.0
220
0.0
230
1.0
  2
SOLID
 70
     1
 71
     1
 91
        1
 92
        3
 72
     1
 73
     1
 93
       30
 10
90.07340157332494
 20
17.03354932975402
 42
-0.0009362235736497
 10
90.07340157332501
 20
17.03354932975392
 42
0.0681165430304653
 10
89.90970934867318
 20
16.54282432975396
 42
0.0
 10
89.29310157332509
 20
16.96469932975397
 42
-0.302112590907374
 10
89.29310157332509
 20
16.96469932975396
 42
0.0
 10
88.67142657332504
 20
16.48814932975395
 42
-0.3704245237568778
 10
88.671426573325
 20
16.48814932975395
 42
0.0
 10
88.70382657332497
 20
16.16954932975398
 42
-0.0262822419456939
 10
89.08722657332507
 20
15.86309932975395
 42
-0.180060563604375
 10
89.69877657332508
 20
15.67679932975394
 42
-0.0298130817160724
 10
89.69877657332505
 20
15.67679932975396
 42
-0.3153987453686078
 10
90.26240157332506
 20
15.03217432975393
 42
0.0
 10
90.25902657332507
 20
14.74394932975395
 42
-0.3510306079065168
 10
89.17227657332496
 20
13.83269932975395
 42
0.0
 10
88.85502657332499
 20
13.83269932975396
 42
-0.1053356344842436
 10
88.15302657332501
 20
14.03519932975392
 42
0.1188608286962634
 10
88.28127657332504
 20
14.54819932975391
 42
0.0
 10
89.05077657332498
 20
14.07569932975393
 42
-0.2447573632916039
 10
89.050776573325
 20
14.07569932975392
 42
0.0
 10
89.79327657332507
 20
14.59544932975393
 42
-0.3734162676407277
 10
89.79327657332506
 20
14.59544932975396
 42
0.0
 10
89.52395157332505
 20
15.11452432975394
 42
-0.261219770190848
 10
88.895526573325
 20
15.34267432975394
 42
-0.0572747914118363
 10
88.8955265733251
 20
15.34267432975392
 42
-0.1189658875692221
 10
88.39602657332503
 20
15.63562432975393
 42
-0.2005226878639636
 10
88.18677657332496
 20
16.10744932975618
 42
0.0
 10
88.18340157332507
 20
16.28632432975392
 42
-0.2622894489606957
 10
88.72002657332506
 20
17.10644932975394
 42
-0.0988461274137808
 10
89.22222657332505
 20
17.22727432975393
 42
0.0
 10
89.40852657332498
 20
17.22727432975394
 42
-0.0920156312561188
 97
        0
 75
     0
 76
     1
 98
        1
 10
0.0
 20
0.0
  0
HATCH
  5
10D
330
1F
100
AcDbEntity
  8
枠_表
  6
CONTINUOUS
 62
     3
100
AcDbHatch
 10
0.0
 20
0.0
 30
0.0
210
0.0
220
0.0
230
1.0
  2
SOLID
 70
     1
 71
     1
 91
        2
 92
        3
 72
     1
 73
     1
 93
       27
 10
79.31727657332495
 20
16.83644932975394
 42
-0.1769427732109284
 10
79.3172765733251
 20
16.83644932975395
 42
0.0
 10
79.3172765733251
 20
16.47194932975393
 42
0.0
 10
79.40502657332505
 20
16.47194932975395
 42
-0.207533601427307
 10
79.97474227895704
 20
16.89932359129033
 42
-0.1226604740888933
 10
80.47827657332503
 20
16.91002432975392
 42
-0.3213715781137954
 10
80.99883280222092
 20
16.27106514378463
 42
-0.064704004662446
 10
81.00140157332496
 20
15.9332993297539
 42
-0.257798906330806
 10
80.89542657332511
 20
15.80504932975396
 42
-0.056602577721096
 10
80.66862657332504
 20
15.72607432975396
 42
-0.0166741689362636
 10
79.83702657332505
 20
15.56812432975395
 42
0.1186092302783404
 10
79.28825157332507
 20
15.30487432975394
 42
0.1699204224386695
 10
79.04930157332504
 20
14.90527432975396
 42
0.1006533494296199
 10
79.02720866795822
 20
14.55853555095712
 42
0.1675695228968024
 10
79.24370157332513
 20
14.09392432975394
 42
0.1376980079804242
 10
79.63722657332501
 20
13.86644932975394
 42
0.0719813663796923
 10
79.816101573325
 20
13.83674932975396
 42
0.0
 10
80.0901515733251
 20
13.83674932975397
 42
0.1944607457809085
 10
80.99937657332511
 20
14.30452432975394
 42
0.1288538183665954
 10
81.09117657332501
 20
14.07502432975394
 42
0.2098387395261546
 10
81.39087657332504
 20
13.90964932975393
 42
0.0
 10
81.60822657332506
 20
13.90829932975394
 42
0.0945009641609563
 10
81.922101573325
 20
13.97512432975395
 42
0.0
 10
81.92210157332498
 20
14.13239932975394
 42
-0.2395739894657535
 10
81.64805157332505
 20
14.12969932975392
 42
-0.2502312110031057
 10
81.51305157332503
 20
14.38349932975402
 42
-0.0104343570771765
 10
81.53127657332503
 20
16.27619932975394
 42
0.4051015674140716
 97
        0
 92
        3
 72
     1
 73
     1
 93
        8
 10
81.013551573325
 20
15.60254932975393
 42
-0.0339435190873666
 10
81.01355157332546
 20
15.60254932975281
 42
-0.0001110072973599
 10
80.98520157332501
 20
14.56844932975392
 42
-0.2253076310552528
 10
80.27645157332506
 20
14.09527432975395
 42
0.0
 10
80.10297657332495
 20
14.09527432975394
 42
-0.3657967558150132
 10
79.58727657332503
 20
14.64337432975393
 42
0.0
 10
79.58727657332501
 20
14.83912432975396
 42
-0.2530797830369341
 10
79.93557657332508
 20
15.32107432975393
 42
-0.0724473624720066
 97
        0
 75
     0
 76
     1
 98
        1
 10
0.0
 20
0.0
  0
TEXT
  5
10F
330
1F
100
AcDbEntity
  8
枠_表
  6
CONTINUOUS
 62
     2
100
AcDbText
 10
91.8000000000003
 20
13.30000004768362
 30
0.0
 40
3.449999928474426
  1
ジャニス工業株式会社
 41
1.025641046904667
  7
EXCADTTF1
 72
     5
 11
137.8000000000003
 21
13.30000004768362
 31
0.0
100
AcDbText
  0
ARC
  5
110
330
1F
100
AcDbEntity
  8
枠_表
  6
CONTINUOUS
 62
     3
100
AcDbCircle
 10
77.40908200122267
 20
23.6741757052221
 30
0.0
 40
4.400758833490466
100
AcDbArc
 50
261.7986203004403
 51
278.6803384946418
  0
TEXT
  5
111
330
1F
100
AcDbEntity
  8
枠_表
  6
CONTINUOUS
 62
     2
100
AcDbText
 10
20.15000000000001
 20
28.875
 30
0.0
 40
4.25
  1
製図
 41
1.509694117647059
  7
EXCADSTD
 72
     5
 11
30.23260000000001
 21
28.875
 31
0.0
100
AcDbText
  0
TEXT
  5
112
330
1F
100
AcDbEntity
  8
枠_表
  6
CONTINUOUS
 62
     2
100
AcDbText
 10
35.65000000000001
 20
28.875
 30
0.0
 40
4.25
  1
写図
 41
1.509694117647059
  7
EXCADSTD
 72
     5
 11
45.73260000000001
 21
28.875
 31
0.0
100
AcDbText
  0
TEXT
  5
113
330
1F
100
AcDbEntity
  8
枠_表
  6
CONTINUOUS
 62
     2
100
AcDbText
 10
50.65000000000001
 20
28.875
 30
0.0
 40
4.25
  1
検図
 41
1.303826737967915
  7
EXCADSTD
 72
     5
 11
59.35770000000001
 21
28.875
 31
0.0
100
AcDbText
  0
TEXT
  5
114
330
1F
100
AcDbEntity
  8
枠_表
  6
CONTINUOUS
 62
     2
100
AcDbText
 10
63.65000000000003
 20
28.875
 30
0.0
 40
4.25
  1
承認
 41
1.303826737967915
  7
EXCADSTD
 72
     5
 11
72.35770000000004
 21
28.875
 31
0.0
100
AcDbText
  0
TEXT
  5
115
330
1F
100
AcDbEntity
  8
枠_表
  6
CONTINUOUS
 62
     2
100
AcDbText
 10
75.47500000000002
 20
27.875
 30
0.0
 40
4.25
  1
品
 41
1.120000000000002
  7
EXCADSTD
 72
     5
 11
78.87500000000003
 21
27.875
 31
0.0
100
AcDbText
  0
TEXT
  5
116
330
1F
100
AcDbEntity
  8
枠_表
  6
CONTINUOUS
 62
     2
100
AcDbText
 10
75.47500000000002
 20
22.875
 30
0.0
 40
4.25
  1
名
 41
1.120000000000002
  7
EXCADSTD
 72
     5
 11
78.87500000000003
 21
22.875
 31
0.0
100
AcDbText
  0
TEXT
  5
117
330
1F
100
AcDbEntity
  8
枠_表
  6
CONTINUOUS
 62
     2
100
AcDbText
 10
139.475
 20
27.875
 30
0.0
 40
4.25
  1
品
 41
1.120000000000002
  7
EXCADSTD
 72
     5
 11
142.875
 21
27.875
 31
0.0
100
AcDbText
  0
TEXT
  5
118
330
1F
100
AcDbEntity
  8
枠_表
  6
CONTINUOUS
 62
     2
100
AcDbText
 10
181.575
 20
27.875
 30
0.0
 40
4.25
  1
尺
 41
1.120000000000002
  7
EXCADSTD
 72
     5
 11
184.975
 21
27.875
 31
0.0
100
AcDbText
  0
TEXT
  5
119
330
1F
100
AcDbEntity
  8
枠_表
  6
CONTINUOUS
 62
     2
100
AcDbText
 10
181.575
 20
22.875
 30
0.0
 40
4.25
  1
度
 41
1.120000000000002
  7
EXCADSTD
 72
     5
 11
184.975
 21
22.875
 31
0.0
100
AcDbText
  0
TEXT
  5
11A
330
1F
100
AcDbEntity
  8
枠_表
  6
CONTINUOUS
 62
     2
100
AcDbText
 10
139.475
 20
16.57499999999999
 30
0.0
 40
4.25
  1
図
 41
1.120000000000002
  7
EXCADSTD
 72
     5
 11
142.875
 21
16.57499999999999
 31
0.0
100
AcDbText
  0
TEXT
  5
11B
330
1F
100
AcDbEntity
  8
枠_表
  6
CONTINUOUS
 62
     2
100
AcDbText
 10
139.475
 20
12.27500000000001
 30
0.0
 40
4.25
  1
番
 41
1.120000000000002
  7
EXCADSTD
 72
     5
 11
142.875
 21
12.27500000000001
 31
0.0
100
AcDbText
  0
LINE
  5
11C
330
1F
100
AcDbEntity
  8
枠_表
  6
CONTINUOUS
 62
     7
100
AcDbLine
 10
17.90000000000001
 20
11.5
 30
0.0
 11
199.9
 21
11.5
 31
0.0
  0
TEXT
  5
11D
330
1F
100
AcDbEntity
  8
枠_表
  6
CONTINUOUS
 62
     2
100
AcDbText
 10
139.475
 20
22.875
 30
0.0
 40
4.25
  1
番
 41
1.120000000000002
  7
EXCADSTD
 72
     5
 11
142.875
 21
22.875
 31
0.0
100
AcDbText
  0
TEXT
  5
11E
330
1F
100
AcDbEntity
  8
枠_表
  6
CONTINUOUS
 62
     2
100
AcDbText
 10
188.1537109400001
 20
28.27227783000001
 30
0.0
 40
3.0
  1
１
 41
1.101333351135257
  7
EXCADSTD
 72
     5
 11
190.513710978147
 21
28.27227783000001
 31
0.0
100
AcDbText
  0
TEXT
  5
11F
330
1F
100
AcDbEntity
  8
枠_表
  6
CONTINUOUS
 62
     2
100
AcDbText
 10
192.2279296900001
 20
23.83488463999998
 30
0.0
 40
3.0
  1
１０
 41
1.098531230663534
  7
EXCADSTD
 72
     5
 11
197.4067197774139
 21
23.83488463999998
 31
0.0
100
AcDbText
  0
CIRCLE
  5
120
330
1F
100
AcDbEntity
  8
枠_表
  6
CONTINUOUS
 62
     6
100
AcDbCircle
 10
22.90000000000001
 20
14.0
 30
0.0
 40
0.10000002
  0
CIRCLE
  5
121
330
1F
100
AcDbEntity
  8
枠_表
  6
CONTINUOUS
 62
     6
100
AcDbCircle
 10
27.90000000000001
 20
14.0
 30
0.0
 40
0.10000002
  0
LINE
  5
122
330
1F
100
AcDbEntity
  8
枠_表
  6
EXLTYPE2
 62
     6
100
AcDbLine
 10
17.90000000000001
 20
16.5
 30
0.0
 11
48.90000000000001
 21
16.5
 31
0.0
  0
CIRCLE
  5
123
330
1F
100
AcDbEntity
  8
枠_表
  6
CONTINUOUS
 62
     6
100
AcDbCircle
 10
43.40000000000001
 20
14.0
 30
0.0
 40
0.10000002
  0
CIRCLE
  5
124
330
1F
100
AcDbEntity
  8
枠_表
  6
CONTINUOUS
 62
     6
100
AcDbCircle
 10
38.40000000000001
 20
14.0
 30
0.0
 40
0.10000002
  0
LINE
  5
125
330
1F
100
AcDbEntity
  8
枠_表
  6
CONTINUOUS
 62
     6
100
AcDbLine
 10
17.90000000000001
 20
28.5
 30
0.0
 11
74.90000000000003
 21
28.5
 31
0.0
  0
LINE
  5
126
330
1F
100
AcDbEntity
  8
枠_表
  6
CONTINUOUS
 62
     6
100
AcDbLine
 10
33.40000000000001
 20
33.5
 30
0.0
 11
33.40000000000001
 21
11.5
 31
0.0
  0
LINE
  5
127
330
1F
100
AcDbEntity
  8
枠_表
  6
CONTINUOUS
 62
     6
100
AcDbLine
 10
61.90000000000001
 20
33.5
 30
0.0
 11
61.90000000000001
 21
11.5
 31
0.0
  0
LINE
  5
128
330
1F
100
AcDbEntity
  8
枠_表
  6
CONTINUOUS
 62
     6
100
AcDbLine
 10
74.90000000000003
 20
33.5
 30
0.0
 11
74.90000000000003
 21
11.5
 31
0.0
  0
LINE
  5
129
330
1F
100
AcDbEntity
  8
枠_表
  6
CONTINUOUS
 62
     6
100
AcDbLine
 10
79.90000000000003
 20
33.5
 30
0.0
 11
79.90000000000003
 21
21.5
 31
0.0
  0
LINE
  5
12A
330
1F
100
AcDbEntity
  8
枠_表
  6
CONTINUOUS
 62
     6
100
AcDbLine
 10
185.9
 20
33.5
 30
0.0
 11
185.9
 21
21.5
 31
0.0
  0
LINE
  5
12B
330
1F
100
AcDbEntity
  8
枠_表
  6
CONTINUOUS
 62
     6
100
AcDbLine
 10
180.9
 20
33.5
 30
0.0
 11
180.9
 21
21.5
 31
0.0
  0
LINE
  5
12C
330
1F
100
AcDbEntity
  8
枠_表
  6
CONTINUOUS
 62
     6
100
AcDbLine
 10
143.9
 20
33.5
 30
0.0
 11
143.9
 21
11.5
 31
0.0
  0
LINE
  5
12D
330
1F
100
AcDbEntity
  8
枠_表
  6
CONTINUOUS
 62
     6
100
AcDbLine
 10
138.9
 20
33.5
 30
0.0
 11
138.9
 21
11.5
 31
0.0
  0
LINE
  5
12E
330
1F
100
AcDbEntity
  8
枠_表
  6
CONTINUOUS
 62
     6
100
AcDbLine
 10
48.90000000000001
 20
33.5
 30
0.0
 11
48.90000000000001
 21
11.5
 31
0.0
  0
LINE
  5
12F
330
1F
100
AcDbEntity
  8
枠_表
  6
CONTINUOUS
 62
     6
100
AcDbLine
 10
188.3653808600001
 20
23.80029297000002
 30
0.0
 11
196.09938965
 21
31.66998290999999
 31
0.0
  0
LINE
  5
130
330
1F
100
AcDbEntity
  8
枠_表
  6
EXLTYPE2
 62
     6
100
AcDbLine
 10
17.90000000000001
 20
151.5
 30
0.0
 11
-2.099999999999994
 21
151.5
 31
0.0
  0
LINE
  5
131
330
1F
100
AcDbEntity
  8
枠_表
  6
CONTINUOUS
 62
     7
100
AcDbLine
 10
17.90000000000001
 20
33.5
 30
0.0
 11
199.9
 21
33.5
 31
0.0
  0
LINE
  5
132
330
1F
100
AcDbEntity
  8
枠_表
  6
CONTINUOUS
 62
     7
100
AcDbLine
 10
199.9
 20
11.5
 30
0.0
 11
199.9
 21
291.5
 31
0.0
  0
LINE
  5
133
330
1F
100
AcDbEntity
  8
枠_表
  6
CONTINUOUS
 62
     7
100
AcDbLine
 10
17.90000000000001
 20
291.5
 30
0.0
 11
199.9
 21
291.5
 31
0.0
  0
LINE
  5
134
330
1F
100
AcDbEntity
  8
枠_表
  6
CONTINUOUS
 62
     6
100
AcDbLine
 10
124.2002929699981
 20
243.39974077624
 30
0.0
 11
196.8999999999981
 21
243.39974077624
 31
0.0
  0
LINE
  5
135
330
1F
100
AcDbEntity
  8
枠_表
  6
CONTINUOUS
 62
     6
100
AcDbLine
 10
124.2002929699981
 20
276.39990279109
 30
0.0
 11
196.8999999999982
 21
276.39990279109
 31
0.0
  0
LINE
  5
136
330
1F
100
AcDbEntity
  8
枠_表
  6
CONTINUOUS
 62
     6
100
AcDbLine
 10
124.2002929699981
 20
271.0998703881201
 30
0.0
 11
196.8999999999982
 21
271.0998703881201
 31
0.0
  0
LINE
  5
137
330
1F
100
AcDbEntity
  8
枠_表
  6
CONTINUOUS
 62
     6
100
AcDbLine
 10
124.2002929699981
 20
281.69993519406
 30
0.0
 11
196.8999999999982
 21
281.69993519406
 31
0.0
  0
TEXT
  5
138
330
1F
100
AcDbEntity
  8
枠_表
  6
CONTINUOUS
 62
     2
100
AcDbText
 10
160.6094125707003
 20
276.8706474288305
 30
0.0
 40
4.0
  1
品名
 41
2.187340909090909
  7
EXCADSTD
 72
     5
 11
174.3584125707003
 21
276.8706474288305
 31
0.0
100
AcDbText
  0
TEXT
  5
139
330
1F
100
AcDbEntity
  8
枠_表
  6
CONTINUOUS
 62
     2
100
AcDbText
 10
129.1594125707002
 20
276.8706474288305
 30
0.0
 40
4.0
  1
品番
 41
2.187340909090909
  7
EXCADSTD
 72
     5
 11
142.9084125707002
 21
276.8706474288305
 31
0.0
100
AcDbText
  0
TEXT
  5
13A
330
1F
100
AcDbEntity
  8
枠_表
  6
CONTINUOUS
 62
     2
100
AcDbText
 10
149.2099999761566
 20
271.7499028864574
 30
0.0
 40
4.0
  1
手洗器
 41
1.132352941176471
  7
EXCADSTD
 72
     5
 11
160.2099999761566
 21
271.7499028864574
 31
0.0
100
AcDbText
  0
TEXT
  5
13B
330
1F
100
AcDbEntity
  8
枠_表
  6
CONTINUOUS
 62
     2
100
AcDbText
 10
127.0999999999981
 20
282.5999351940601
 30
0.0
 40
5.0
  1
器具明細
 41
2.556521739130435
  7
EXCADSTD
 72
     5
 11
169.0999999999981
 21
282.5999351940601
 31
0.0
100
AcDbText
  0
TEXT
  5
13C
330
1F
100
AcDbEntity
  8
枠_表
  6
CONTINUOUS
 62
     2
100
AcDbText
 10
190.1799999999984
 20
266.4498704834875
 30
0.0
 40
4.0
  1
１
 41
1.119999999999996
  7
EXCADSTD
 72
     5
 11
193.3799999999983
 21
266.4498704834875
 31
0.0
100
AcDbText
  0
TEXT
  5
13D
330
1F
100
AcDbEntity
  8
枠_表
  6
CONTINUOUS
 62
     2
100
AcDbText
 10
188.1594125766606
 20
276.8706474288305
 30
0.0
 40
4.0
  1
個数
 41
1.195746361898021
  7
EXCADSTD
 72
     5
 11
195.6755325657339
 21
276.8706474288305
 31
0.0
100
AcDbText
  0
TEXT
  5
13E
330
1F
100
AcDbEntity
  8
枠_表
  6
CONTINUOUS
 62
     2
100
AcDbText
 10
190.1799999999984
 20
271.7499028864574
 30
0.0
 40
4.0
  1
１
 41
1.119999999999996
  7
EXCADSTD
 72
     5
 11
193.3799999999983
 21
271.7499028864574
 31
0.0
100
AcDbText
  0
LINE
  5
13F
330
1F
100
AcDbEntity
  8
枠_表
  6
CONTINUOUS
 62
     6
100
AcDbLine
 10
124.2002929699981
 20
260.4998055821801
 30
0.0
 11
196.8999999999982
 21
260.4998055821801
 31
0.0
  0
LINE
  5
140
330
1F
100
AcDbEntity
  8
枠_表
  6
CONTINUOUS
 62
     6
100
AcDbLine
 10
124.2002929699981
 20
265.79983798515
 30
0.0
 11
196.8999999999982
 21
265.79983798515
 31
0.0
  0
LINE
  5
141
330
1F
100
AcDbEntity
  8
枠_表
  6
CONTINUOUS
 62
     6
100
AcDbLine
 10
124.2002929699981
 20
255.1997731792101
 30
0.0
 11
196.8999999999982
 21
255.1997731792101
 31
0.0
  0
TEXT
  5
142
330
1F
100
AcDbEntity
  8
枠_表
  6
CONTINUOUS
 62
     2
100
AcDbText
 10
124.6002929699983
 20
266.4498704834875
 30
0.0
 40
4.0
  1
Ｙ４０Ｊ－１３
 41
0.9390243902439025
  7
EXCADSTD
 72
     5
 11
146.6002929699983
 21
266.4498704834875
 31
0.0
100
AcDbText
  0
TEXT
  5
143
330
1F
100
AcDbEntity
  8
枠_表
  6
CONTINUOUS
 62
     2
100
AcDbText
 10
149.2099999761566
 20
266.4498704834875
 30
0.0
 40
4.0
  1
衛生水栓
 41
1.103260869565218
  7
EXCADSTD
 72
     5
 11
163.7099999761566
 21
266.4498704834875
 31
0.0
100
AcDbText
  0
TEXT
  5
144
330
1F
100
AcDbEntity
  8
枠_表
  6
CONTINUOUS
 62
     2
100
AcDbText
 10
149.0999999999984
 20
244.0497732745773
 30
0.0
 40
4.0
  1
Ｓトラップ
 41
1.086206896551724
  7
EXCADSTD
 72
     5
 11
167.0999999999984
 21
244.0497732745773
 31
0.0
100
AcDbText
  0
TEXT
  5
145
330
1F
100
AcDbEntity
  8
枠_表
  6
CONTINUOUS
 62
     2
100
AcDbText
 10
124.6002929699982
 20
249.3498056775474
 30
0.0
 40
4.0
  1
Ｓトラップの場合
 41
1.061170212765957
  7
EXCADSTD
 72
     5
 11
153.1002929699982
 21
249.3498056775474
 31
0.0
100
AcDbText
  0
TEXT
  5
146
330
1F
100
AcDbEntity
  8
枠_表
  6
CONTINUOUS
 62
     2
100
AcDbText
 10
190.1799999999983
 20
244.0497732745774
 30
0.0
 40
4.0
  1
１
 41
1.119999999999996
  7
EXCADSTD
 72
     5
 11
193.3799999999983
 21
244.0497732745774
 31
0.0
100
AcDbText
  0
LINE
  5
147
330
1F
100
AcDbEntity
  8
枠_表
  6
CONTINUOUS
 62
     6
100
AcDbLine
 10
148.3999999999982
 20
248.69977317921
 30
0.0
 11
148.3999999999982
 21
243.39974077624
 31
0.0
  0
LINE
  5
148
330
1F
100
AcDbEntity
  8
枠_表
  6
CONTINUOUS
 62
     6
100
AcDbLine
 10
124.200292969998
 20
248.69977317921
 30
0.0
 11
124.200292969998
 21
243.39974077624
 31
0.0
  0
LINE
  5
149
330
1F
100
AcDbEntity
  8
枠_表
  6
CONTINUOUS
 62
     6
100
AcDbLine
 10
186.8999999999981
 20
248.69977317921
 30
0.0
 11
186.8999999999981
 21
243.39974077624
 31
0.0
  0
TEXT
  5
14A
330
1F
100
AcDbEntity
  8
枠_表
  6
CONTINUOUS
 62
     2
100
AcDbText
 10
149.2099999761566
 20
261.1498380805175
 30
0.0
 40
4.0
  1
Ｐトラップ
 41
1.086206896551724
  7
EXCADSTD
 72
     5
 11
167.2099999761566
 21
261.1498380805175
 31
0.0
100
AcDbText
  0
TEXT
  5
14B
330
1F
100
AcDbEntity
  8
枠_表
  6
CONTINUOUS
 62
     2
100
AcDbText
 10
190.1799999999984
 20
261.1498380805176
 30
0.0
 40
4.0
  1
１
 41
1.119999999999996
  7
EXCADSTD
 72
     5
 11
193.3799999999983
 21
261.1498380805176
 31
0.0
100
AcDbText
  0
TEXT
  5
14C
330
1F
100
AcDbEntity
  8
枠_表
  6
CONTINUOUS
 62
     2
100
AcDbText
 10
149.2099999761566
 20
255.8498056775474
 30
0.0
 40
4.0
  1
化粧頭付木ねじ
 41
1.067073170731707
  7
EXCADSTD
 72
     5
 11
174.2099999761566
 21
255.8498056775474
 31
0.0
100
AcDbText
  0
LINE
  5
14D
330
1F
100
AcDbEntity
  8
枠_表
  6
CONTINUOUS
 62
     6
100
AcDbLine
 10
124.2002929699981
 20
281.69993519406
 30
0.0
 11
124.2002929699981
 21
255.1997731792101
 31
0.0
  0
LINE
  5
14E
330
1F
100
AcDbEntity
  8
枠_表
  6
CONTINUOUS
 62
     6
100
AcDbLine
 10
148.3999999999983
 20
281.69993519406
 30
0.0
 11
148.3999999999983
 21
255.1997731792101
 31
0.0
  0
LINE
  5
14F
330
1F
100
AcDbEntity
  8
枠_表
  6
CONTINUOUS
 62
     6
100
AcDbLine
 10
186.8999999999982
 20
281.69993519406
 30
0.0
 11
186.8999999999982
 21
255.1997731792101
 31
0.0
  0
LINE
  5
150
330
1F
100
AcDbEntity
  8
枠_表
  6
CONTINUOUS
 62
     6
100
AcDbLine
 10
196.8999999999982
 20
255.19977317921
 30
0.0
 11
196.8999999999982
 21
281.69993519406
 31
0.0
  0
LINE
  5
151
330
1F
100
AcDbEntity
  8
枠_表
  6
CONTINUOUS
 62
     6
100
AcDbLine
 10
124.2002929699981
 20
248.69977317921
 30
0.0
 11
196.8999999999981
 21
248.69977317921
 31
0.0
  0
LINE
  5
152
330
1F
100
AcDbEntity
  8
枠_表
  6
CONTINUOUS
 62
     6
100
AcDbLine
 10
196.8999999999981
 20
243.39974077624
 30
0.0
 11
196.8999999999981
 21
248.69977317921
 31
0.0
  0
TEXT
  5
153
330
1F
100
AcDbEntity
  8
枠_表
  6
CONTINUOUS
 62
     2
100
AcDbText
 10
190.1799999999984
 20
255.8498056775474
 30
0.0
 40
4.0
  1
２
 41
1.119999999999996
  7
EXCADSTD
 72
     5
 11
193.3799999999983
 21
255.8498056775474
 31
0.0
100
AcDbText
  0
TEXT
  5
154
330
1F
100
AcDbEntity
  8
枠_表
  6
CONTINUOUS
 62
     2
100
AcDbText
 10
124.6002929699983
 20
261.1498380805176
 30
0.0
 40
4.0
  1
ＮＬ８１ＤＰ
 41
0.95
  7
EXCADSTD
 72
     5
 11
143.6002929699983
 21
261.1498380805176
 31
0.0
100
AcDbText
  0
TEXT
  5
155
330
1F
100
AcDbEntity
  8
枠_表
  6
CONTINUOUS
 62
     2
100
AcDbText
 10
124.6002929699983
 20
244.0497732745774
 30
0.0
 40
4.0
  1
ＮＬ８１ＤＳ
 41
0.95
  7
EXCADSTD
 72
     5
 11
143.6002929699983
 21
244.0497732745774
 31
0.0
100
AcDbText
  0
TEXT
  5
156
330
1F
100
AcDbEntity
  8
枠_表
  6
CONTINUOUS
 62
     6
100
AcDbText
 10
20.54999997615815
 20
20.0
 30
0.0
 40
5.0
  1
川野
 41
1.18991346010815
  7
EXCADSTD
 72
     5
 11
29.89932001986504
 21
20.0
 31
0.0
100
AcDbText
  0
TEXT
  5
157
330
1F
100
AcDbEntity
  8
枠_表
  6
CONTINUOUS
 62
     6
100
AcDbText
 10
18.5250000019209
 20
12.5
 30
0.0
 40
3.0
  1
'22
 41
0.4689784011919448
  7
EXCADSTD
 72
     5
 11
21.67385498135253
 21
12.5
 31
0.0
100
AcDbText
  0
LINE
  5
158
330
1F
100
AcDbEntity
  8
枠_表
  6
CONTINUOUS
 62
     7
100
AcDbLine
 10
17.90000000000001
 20
11.5
 30
0.0
 11
17.90000000000001
 21
291.5
 31
0.0
  0
LINE
  5
159
330
1F
100
AcDbEntity
  8
枠_表
  6
CONTINUOUS
 62
     6
100
AcDbLine
 10
199.9
 20
21.5
 30
0.0
 11
74.90000000000003
 21
21.5
 31
0.0
  0
TEXT
  5
15A
330
1F
100
AcDbEntity
  8
枠_表
  6
CONTINUOUS
 62
     2
100
AcDbText
 10
91.45000170469314
 20
24.19999999999999
 30
0.0
 40
6.0
  1
隅付小形手洗器
 41
1.058536583330573
  7
EXCADSTD
 72
     5
 11
128.6500016331676
 21
24.19999999999999
 31
0.0
100
AcDbText
  0
TEXT
  5
15B
330
1F
100
AcDbEntity
  8
枠_表
  6
CONTINUOUS
 62
     2
100
AcDbText
 10
151.9000000000001
 20
24.29999999999998
 30
0.0
 40
6.0
  1
Ｌ９１Ｄ
 41
1.065217391304348
  7
EXCADSTD
 72
     5
 11
172.9000000000001
 21
24.29999999999998
 31
0.0
100
AcDbText
  0
TEXT
  5
15C
330
1F
100
AcDbEntity
  8
枠_表
  6
CONTINUOUS
 62
     7
100
AcDbText
 10
146.8000000000005
 20
13.04999999999998
 30
0.0
 40
7.0
  1
Ｌ００９１０１８０
 41
0.9622641509433962
  7
EXCADSTD
 72
     5
 11
197.8000000000005
 21
13.04999999999998
 31
0.0
100
AcDbText
  0
TEXT
  5
15D
330
1F
100
AcDbEntity
  8
枠_表
  6
CONTINUOUS
 62
     6
100
AcDbText
 10
24.52500000000001
 20
12.5
 30
0.0
 40
3.0
  1
5
 41
0.4683823529411762
  7
EXCADSTD
 72
     5
 11
25.6625
 21
12.5
 31
0.0
100
AcDbText
  0
TEXT
  5
15E
330
1F
100
AcDbEntity
  8
枠_表
  6
CONTINUOUS
 62
     2
100
AcDbText
 10
124.6002929699983
 20
255.8498056775474
 30
0.0
 40
4.0
  1
ＮＴ７ＡＢＷ１
 41
0.9390243902439025
  7
EXCADSTD
 72
     5
 11
146.6002929699983
 21
255.8498056775474
 31
0.0
100
AcDbText
  0
TEXT
  5
15F
330
1F
100
AcDbEntity
  8
枠_表
  6
CONTINUOUS
 62
     2
100
AcDbText
 10
124.6002929699983
 20
271.7499028864574
 30
0.0
 40
4.0
  1
Ｌ９１Ｄ ＢＷ１
 41
0.8385416666666667
  7
EXCADSTD
 72
     5
 11
147.6002929699983
 21
271.7499028864574
 31
0.0
100
AcDbText
  0
TEXT
  5
160
330
1F
100
AcDbEntity
  8
枠_表
  6
CONTINUOUS
 62
     6
100
AcDbText
 10
50.90000001192123
 20
20.0
 30
0.0
 40
5.0
  1
中村
 41
1.096586906309561
  7
EXCADSTD
 72
     5
 11
59.51603999006778
 21
20.0
 31
0.0
100
AcDbText
  0
TEXT
  5
161
330
1F
100
AcDbEntity
  8
枠_表
  6
CONTINUOUS
 62
     6
100
AcDbText
 10
29.3500000159605
 20
12.5
 30
0.0
 40
3.0
  1
18
 41
0.4086486468443998
  7
EXCADSTD
 72
     5
 11
31.51000000642375
 21
12.5
 31
0.0
100
AcDbText
  0
LINE
  5
162
330
1F
100
AcDbEntity
  8
洗面器
  6
CONTINUOUS
 62
     7
100
AcDbLine
 10
1289.0
 20
492.0
 30
0.0
 11
1289.0
 21
1637.0
 31
0.0
  0
CIRCLE
  5
163
330
1F
100
AcDbEntity
  8
洗面器
  6
CONTINUOUS
 62
     6
100
AcDbCircle
 10
1209.0024414
 20
1272.0
 30
0.0
 40
7.500000000000004
  0
ARC
  5
164
330
1F
100
AcDbEntity
  8
洗面器
  6
CONTINUOUS
 62
     6
100
AcDbCircle
 10
1303.972229
 20
1298.9258118
 30
0.0
 40
30.00000000000002
100
AcDbArc
 50
276.1784668
 51
296.1650390600004
  0
ARC
  5
165
330
1F
100
AcDbEntity
  8
洗面器
  6
CONTINUOUS
 62
     6
100
AcDbCircle
 10
1303.972229
 20
1245.0741883
 30
0.0
 40
30.00000000000002
100
AcDbArc
 50
63.83496093999969
 51
83.82153320000008
  0
ARC
  5
166
330
1F
100
AcDbEntity
  8
洗面器
  6
CONTINUOUS
 62
     6
100
AcDbCircle
 10
1267.718872
 20
1272.0
 30
0.0
 40
7.5178593
100
AcDbArc
 50
93.95007324000082
 51
256.9047851599989
  0
LINE
  5
167
330
1F
100
AcDbEntity
  8
洗面器
  6
CONTINUOUS
 62
     6
100
AcDbLine
 10
1289.0024414
 20
1274.8999329
 30
0.0
 11
1307.2009887
 21
1274.8999329
 31
0.0
  0
LINE
  5
168
330
1F
100
AcDbEntity
  8
洗面器
  6
CONTINUOUS
 62
     6
100
AcDbLine
 10
1289.0024414
 20
1269.1000672
 30
0.0
 11
1307.2009887
 21
1269.1000672
 31
0.0
  0
LINE
  5
169
330
1F
100
AcDbEntity
  8
洗面器
  6
CONTINUOUS
 62
     6
100
AcDbLine
 10
1209.0024414
 20
1294.5
 30
0.0
 11
1209.0024414
 21
1252.0
 31
0.0
  0
LINE
  5
16A
330
1F
100
AcDbEntity
  8
洗面器
  6
CONTINUOUS
 62
     6
100
AcDbLine
 10
1231.5024414
 20
1272.0
 30
0.0
 11
1186.5024414
 21
1272.0
 31
0.0
  0
ARC
  5
16B
330
1F
100
AcDbEntity
  8
洗面器
  6
CONTINUOUS
 62
     2
100
AcDbCircle
 10
1066.0019531
 20
1240.0000306
 30
0.0
 40
11.9999981
100
AcDbArc
 50
90.00000000000001
 51
180.0
  0
ARC
  5
16C
330
1F
100
AcDbEntity
  8
洗面器
  6
CONTINUOUS
 62
     2
100
AcDbCircle
 10
1260.3867187
 20
1257.0
 30
0.0
 40
5.0
100
AcDbArc
 50
270.0000000000002
 51
355.4262695300001
  0
ARC
  5
16D
330
1F
100
AcDbEntity
  8
洗面器
  6
CONTINUOUS
 62
     2
100
AcDbCircle
 10
1276.3876953
 20
1293.9999695
 30
0.0
 40
8.000000100000006
100
AcDbArc
 50
90.00000000000001
 51
175.4260406500004
  0
ARC
  5
16E
330
1F
100
AcDbEntity
  8
洗面器
  6
CONTINUOUS
 62
     2
100
AcDbCircle
 10
1059.0
 20
1227.0
 30
0.0
 40
5.0
100
AcDbArc
 50
180.0
 51
270.0000000000002
  0
ARC
  5
16F
330
1F
100
AcDbEntity
  8
洗面器
  6
CONTINUOUS
 62
     2
100
AcDbCircle
 10
1148.8388671
 20
1290.0000306
 30
0.0
 40
11.9999981
100
AcDbArc
 50
90.00000000000001
 51
168.6902160599996
  0
ARC
  5
170
330
1F
100
AcDbEntity
  8
洗面器
  6
CONTINUOUS
 62
     2
100
AcDbCircle
 10
1124.9033203
 20
1257.0
 30
0.0
 40
5.0
100
AcDbArc
 50
270.0000000000002
 51
348.6904296900009
  0
LINE
  5
171
330
1F
100
AcDbEntity
  8
洗面器
  6
CONTINUOUS
 62
     2
100
AcDbLine
 10
1268.4116211
 20
1294.6379395
 30
0.0
 11
1265.3696289
 21
1256.6012879
 31
0.0
  0
LINE
  5
172
330
1F
100
AcDbEntity
  8
洗面器
  6
CONTINUOUS
 62
     2
100
AcDbLine
 10
1137.071289
 20
1292.3535462
 30
0.0
 11
1129.805664
 21
1256.0194703
 31
0.0
  0
LINE
  5
173
330
1F
100
AcDbEntity
  8
洗面器
  6
CONTINUOUS
 62
     2
100
AcDbLine
 10
1148.8388671
 20
1302.0
 30
0.0
 11
1289.0024414
 21
1302.0
 31
0.0
  0
LINE
  5
174
330
1F
100
AcDbEntity
  8
洗面器
  6
CONTINUOUS
 62
     2
100
AcDbLine
 10
1059.0
 20
1222.0
 30
0.0
 11
1289.0
 21
1222.0
 31
0.0
  0
LINE
  5
175
330
1F
100
AcDbEntity
  8
洗面器
  6
CONTINUOUS
 62
     2
100
AcDbLine
 10
1054.0024414
 20
1240.0000306
 30
0.0
 11
1054.0
 21
1227.0
 31
0.0
  0
LINE
  5
176
330
1F
100
AcDbEntity
  8
洗面器
  6
CONTINUOUS
 62
     2
100
AcDbLine
 10
1147.4985351
 20
1132.0
 30
0.0
 11
1210.5014648
 21
1132.0
 31
0.0
  0
ARC
  5
177
330
1F
100
AcDbEntity
  8
洗面器
  6
CONTINUOUS
 62
     2
100
AcDbCircle
 10
1062.4526062
 20
1217.0
 30
0.0
 40
5.0
100
AcDbArc
 50
14.74489783999782
 51
90.00000000000001
  0
ARC
  5
178
330
1F
100
AcDbEntity
  8
洗面器
  6
CONTINUOUS
 62
     2
100
AcDbCircle
 10
1273.101715
 20
1217.0
 30
0.0
 40
5.0
100
AcDbArc
 50
90.00000000000001
 51
170.5074920700001
  0
ARC
  5
179
330
1F
100
AcDbEntity
  8
洗面器
  6
CONTINUOUS
 62
     2
100
AcDbCircle
 10
1225.22406
 20
1129.1282959
 30
0.0
 40
15.0
100
AcDbArc
 50
121.8740997299993
 51
168.96279907
  0
ARC
  5
17A
330
1F
100
AcDbEntity
  8
洗面器
  6
CONTINUOUS
 62
     2
100
AcDbCircle
 10
1137.5192871
 20
1131.3571473
 30
0.0
 40
10.0
100
AcDbArc
 50
3.685841559999821
 51
72.13871764999963
  0
ARC
  5
17B
330
1F
100
AcDbEntity
  8
洗面器
  6
CONTINUOUS
 62
     2
100
AcDbCircle
 10
1158.6899414
 20
1236.1293335
 30
0.0
 40
111.0000038000001
100
AcDbArc
 50
301.8737793000001
 51
350.5080566400002
  0
ARC
  5
17C
330
1F
100
AcDbEntity
  8
洗面器
  6
CONTINUOUS
 62
     2
100
AcDbCircle
 10
1174.6323242
 20
1246.5249939
 30
0.0
 40
111.0000038000001
100
AcDbArc
 50
194.7455139200002
 51
252.1383667
  0
LINE
  5
17D
330
1F
100
AcDbEntity
  8
洗面器
  6
CONTINUOUS
 62
     2
100
AcDbLine
 10
1066.0019531
 20
1252.0
 30
0.0
 11
1289.0024414
 21
1252.0
 31
0.0
  0
LINE
  5
17E
330
1F
100
AcDbEntity
  8
洗面器
  6
CONTINUOUS
 62
     7
100
AcDbLine
 10
717.0
 20
2008.0
 30
0.0
 11
1289.0
 21
2008.0
 31
0.0
  0
ARC
  5
17F
330
1F
100
AcDbEntity
  8
洗面器
  6
CONTINUOUS
 62
     6
100
AcDbCircle
 10
1235.9258117
 20
2024.770347179
 30
0.0
 40
30.00000000000002
100
AcDbArc
 50
153.8349609400004
 51
173.8215332000002
  0
ARC
  5
180
330
1F
100
AcDbEntity
  8
洗面器
  6
CONTINUOUS
 62
     6
100
AcDbCircle
 10
1182.0741882
 20
2024.770347179
 30
0.0
 40
30.00000000000002
100
AcDbArc
 50
6.178466799999828
 51
26.16503905999964
  0
ARC
  5
181
330
1F
100
AcDbEntity
  8
洗面器
  6
CONTINUOUS
 62
     6
100
AcDbCircle
 10
1209.0
 20
1988.516990279
 30
0.0
 40
7.5178593
100
AcDbArc
 50
183.9500732400009
 51
356.0500488299995
  0
LINE
  5
182
330
1F
100
AcDbEntity
  8
洗面器
  6
CONTINUOUS
 62
     6
100
AcDbLine
 10
1211.8999328
 20
2007.999106979
 30
0.0
 11
1211.8999328
 21
2027.999106978999
 31
0.0
  0
LINE
  5
183
330
1F
100
AcDbEntity
  8
洗面器
  6
CONTINUOUS
 62
     6
100
AcDbLine
 10
1206.1000671
 20
2007.999106979
 30
0.0
 11
1206.1000671
 21
2027.999106978999
 31
0.0
  0
ARC
  5
184
330
1F
100
AcDbEntity
  8
洗面器
  6
CONTINUOUS
 62
     6
100
AcDbCircle
 10
1269.5178833
 20
1928.000892969199
 30
0.0
 40
7.5178593
100
AcDbArc
 50
93.95007324000082
 51
266.0500488299995
  0
ARC
  5
185
330
1F
100
AcDbEntity
  8
洗面器
  6
CONTINUOUS
 62
     6
100
AcDbCircle
 10
1305.7712402
 20
1901.0750811692
 30
0.0
 40
30.00000000000002
100
AcDbArc
 50
63.83496093999969
 51
83.82153320000008
  0
ARC
  5
186
330
1F
100
AcDbEntity
  8
洗面器
  6
CONTINUOUS
 62
     6
100
AcDbCircle
 10
1305.7712402
 20
1954.9267047692
 30
0.0
 40
30.00000000000002
100
AcDbArc
 50
276.1784668
 51
296.1650390600004
  0
LINE
  5
187
330
1F
100
AcDbEntity
  8
洗面器
  6
CONTINUOUS
 62
     6
100
AcDbLine
 10
1289.0
 20
1930.900825869199
 30
0.0
 11
1309.0
 21
1930.900825869199
 31
0.0
  0
LINE
  5
188
330
1F
100
AcDbEntity
  8
洗面器
  6
CONTINUOUS
 62
     6
100
AcDbLine
 10
1289.0
 20
1925.1009600692
 30
0.0
 11
1309.0
 21
1925.1009600692
 31
0.0
  0
ARC
  5
189
330
1F
100
AcDbEntity
  8
洗面器
  6
CONTINUOUS
 62
     2
100
AcDbCircle
 10
1264.0
 20
1982.999106979
 30
0.0
 40
5.0
100
AcDbArc
 50
0.0
 51
90.00000000000001
  0
LINE
  5
18A
330
1F
100
AcDbEntity
  8
洗面器
  6
CONTINUOUS
 62
     2
100
AcDbLine
 10
1139.0
 20
1987.999106979
 30
0.0
 11
1264.0
 21
1987.999106979
 31
0.0
  0
ARC
  5
18B
330
1F
100
AcDbEntity
  8
洗面器
  6
CONTINUOUS
 62
     2
100
AcDbCircle
 10
1170.9995117
 20
1889.998618679
 30
0.0
 40
90.0
100
AcDbArc
 50
11.83721713378996
 51
357.7717865815005
  0
ARC
  5
18C
330
1F
100
AcDbEntity
  8
洗面器
  6
CONTINUOUS
 62
     2
100
AcDbCircle
 10
1170.9995117
 20
1889.998618679
 30
0.0
 40
116.9999981
100
AcDbArc
 50
136.65397644
 51
313.3446502700002
  0
ARC
  5
18D
330
1F
100
AcDbEntity
  8
洗面器
  6
CONTINUOUS
 62
     2
100
AcDbCircle
 10
1304.0805664
 20
1764.388267179
 30
0.0
 40
300.0000000000003
100
AcDbArc
 50
125.70436096
 51
136.65408325
  0
ARC
  5
18E
330
1F
100
AcDbEntity
  8
洗面器
  6
CONTINUOUS
 62
     2
100
AcDbCircle
 10
1045.3916015
 20
2023.082114779
 30
0.0
 40
300.0000000000003
100
AcDbArc
 50
313.3447113000001
 51
324.2947540300003
  0
LINE
  5
18F
330
1F
100
AcDbEntity
  8
洗面器
  6
CONTINUOUS
 62
     2
100
AcDbLine
 10
1269.0
 20
1857.999106979
 30
0.0
 11
1269.0
 21
1888.498618679
 31
0.0
  0
LINE
  5
190
330
1F
100
AcDbEntity
  8
洗面器
  6
CONTINUOUS
 62
     2
100
AcDbLine
 10
1269.0
 20
1906.498618679
 30
0.0
 11
1269.0
 21
1982.999106979
 31
0.0
  0
ARC
  5
191
330
1F
100
AcDbEntity
  8
洗面器
  6
CONTINUOUS
 62
     2
100
AcDbCircle
 10
1179.0
 20
1898.0
 30
0.0
 40
30.5
100
AcDbArc
 50
17.16882305236076
 51
343.0724643633902
  0
ARC
  5
192
330
1F
100
AcDbEntity
  8
洗面器
  6
CONTINUOUS
 62
     2
100
AcDbCircle
 10
1179.0
 20
1898.0
 30
0.0
 40
20.5
100
AcDbArc
 50
47.300379113554
 51
312.6996208864509
  0
LINE
  5
193
330
1F
100
AcDbEntity
  8
洗面器
  6
EXLTYPE3
 62
     6
100
AcDbLine
 10
1318.8
 20
1898.0
 30
0.0
 11
1149.0
 21
1898.0
 31
0.0
  0
LINE
  5
194
330
1F
100
AcDbEntity
  8
洗面器
  6
CONTINUOUS
 62
     7
100
AcDbLine
 10
1289.0
 20
1746.0
 30
0.0
 11
1289.0
 21
2008.0
 31
0.0
  0
LINE
  5
195
330
1F
100
AcDbEntity
  8
水栓
  6
EXLTYPE3
 62
     6
100
AcDbLine
 10
1261.2
 20
1402.0
 30
0.0
 11
1312.8
 21
1402.0
 31
0.0
  0
LINE
  5
196
330
1F
100
AcDbEntity
  8
水栓
  6
EXLTYPE3
 62
     6
100
AcDbLine
 10
1306.037806531754
 20
1402.000000000003
 30
0.0
 11
1169.499314107079
 21
1402.000000000003
 31
0.0
  0
LINE
  5
197
330
1F
100
AcDbEntity
  8
水栓
  6
EXLTYPE3
 62
     6
100
AcDbLine
 10
1289.000000000001
 20
1412.500000000003
 30
0.0
 11
1290.73205080757
 21
1411.500000000003
 31
0.0
  0
LINE
  5
198
330
1F
100
AcDbEntity
  8
水栓
  6
EXLTYPE3
 62
     6
100
AcDbLine
 10
1290.73205080757
 20
1411.500000000003
 30
0.0
 11
1303.000000000001
 21
1411.500000000003
 31
0.0
  0
LINE
  5
199
330
1F
100
AcDbEntity
  8
水栓
  6
EXLTYPE3
 62
     6
100
AcDbLine
 10
1290.73205080757
 20
1392.500000000003
 30
0.0
 11
1303.000000000001
 21
1392.500000000003
 31
0.0
  0
LINE
  5
19A
330
1F
100
AcDbEntity
  8
水栓
  6
EXLTYPE3
 62
     6
100
AcDbLine
 10
1290.73205080757
 20
1392.500000000003
 30
0.0
 11
1289.000000000001
 21
1391.500000000003
 31
0.0
  0
LINE
  5
19B
330
1F
100
AcDbEntity
  8
水栓
  6
CONTINUOUS
 62
     6
100
AcDbLine
 10
1286.500000000001
 20
1389.068281259683
 30
0.0
 11
1286.500000000001
 21
1424.500000000003
 31
0.0
  0
LINE
  5
19C
330
1F
100
AcDbEntity
  8
水栓
  6
CONTINUOUS
 62
     6
100
AcDbLine
 10
1289.000000000001
 20
1425.000000000003
 30
0.0
 11
1287.000000000001
 21
1425.000000000003
 31
0.0
  0
LINE
  5
19D
330
1F
100
AcDbEntity
  8
水栓
  6
CONTINUOUS
 62
     6
100
AcDbLine
 10
1289.000000000001
 20
1425.000000000003
 30
0.0
 11
1289.000000000001
 21
1391.500000000003
 31
0.0
  0
LINE
  5
19E
330
1F
100
AcDbEntity
  8
水栓
  6
CONTINUOUS
 62
     6
100
AcDbLine
 10
1303.000000000001
 20
1411.500000000003
 30
0.0
 11
1303.000000000001
 21
1392.500000000003
 31
0.0
  0
LINE
  5
19F
330
1F
100
AcDbEntity
  8
水栓
  6
CONTINUOUS
 62
     6
100
AcDbLine
 10
1303.000000000001
 20
1411.500000000003
 30
0.0
 11
1302.000000000001
 21
1412.500000000003
 31
0.0
  0
LINE
  5
1A0
330
1F
100
AcDbEntity
  8
水栓
  6
CONTINUOUS
 62
     6
100
AcDbLine
 10
1290.73205080757
 20
1392.500000000003
 30
0.0
 11
1290.73205080757
 21
1412.500000000003
 31
0.0
  0
LINE
  5
1A1
330
1F
100
AcDbEntity
  8
水栓
  6
CONTINUOUS
 62
     6
100
AcDbLine
 10
1302.000000000001
 20
1412.500000000003
 30
0.0
 11
1289.000000000001
 21
1412.500000000003
 31
0.0
  0
LINE
  5
1A2
330
1F
100
AcDbEntity
  8
水栓
  6
CONTINUOUS
 62
     6
100
AcDbLine
 10
1302.000000000001
 20
1391.500000000003
 30
0.0
 11
1289.000000000001
 21
1391.500000000003
 31
0.0
  0
LINE
  5
1A3
330
1F
100
AcDbEntity
  8
水栓
  6
CONTINUOUS
 62
     6
100
AcDbLine
 10
1290.73205080757
 20
1391.500000000003
 30
0.0
 11
1290.73205080757
 21
1392.500000000003
 31
0.0
  0
LINE
  5
1A4
330
1F
100
AcDbEntity
  8
水栓
  6
CONTINUOUS
 62
     6
100
AcDbLine
 10
1302.000000000001
 20
1391.500000000003
 30
0.0
 11
1303.000000000001
 21
1392.500000000003
 31
0.0
  0
LINE
  5
1A5
330
1F
100
AcDbEntity
  8
水栓
  6
CONTINUOUS
 62
     6
100
AcDbLine
 10
1289.000000000001
 20
1391.500000000003
 30
0.0
 11
1289.000000000001
 21
1379.000000000003
 31
0.0
  0
LINE
  5
1A6
330
1F
100
AcDbEntity
  8
水栓
  6
CONTINUOUS
 62
     6
100
AcDbLine
 10
1289.000000000001
 20
1379.000000000003
 30
0.0
 11
1287.000000000001
 21
1379.000000000003
 31
0.0
  0
LINE
  5
1A7
330
1F
100
AcDbEntity
  8
水栓
  6
CONTINUOUS
 62
     6
100
AcDbLine
 10
1286.500000000001
 20
1389.068281259683
 30
0.0
 11
1286.500000000001
 21
1379.500000000003
 31
0.0
  0
LINE
  5
1A8
330
1F
100
AcDbEntity
  8
水栓
  6
CONTINUOUS
 62
     6
100
AcDbLine
 10
1282.568863964611
 20
1393.06768843505
 30
0.0
 11
1212.172159911524
 21
1394.279817114109
 31
0.0
  0
LINE
  5
1A9
330
1F
100
AcDbEntity
  8
水栓
  6
CONTINUOUS
 62
     6
100
AcDbLine
 10
1282.568863964611
 20
1410.932311564957
 30
0.0
 11
1195.483520265434
 21
1409.432828825766
 31
0.0
  0
LINE
  5
1AA
330
1F
100
AcDbEntity
  8
水栓
  6
CONTINUOUS
 62
     6
100
AcDbLine
 10
1202.000000000001
 20
1372.000000000003
 30
0.0
 11
1200.000000000001
 21
1372.000000000003
 31
0.0
  0
LINE
  5
1AB
330
1F
100
AcDbEntity
  8
水栓
  6
CONTINUOUS
 62
     6
100
AcDbLine
 10
1202.000000000001
 20
1372.000000000003
 30
0.0
 11
1202.000000000001
 21
1384.281299175692
 31
0.0
  0
LINE
  5
1AC
330
1F
100
AcDbEntity
  8
水栓
  6
CONTINUOUS
 62
     6
100
AcDbLine
 10
1166.000000000001
 20
1372.000000000003
 30
0.0
 11
1166.000000000001
 21
1379.437275010512
 31
0.0
  0
LINE
  5
1AD
330
1F
100
AcDbEntity
  8
水栓
  6
CONTINUOUS
 62
     6
100
AcDbLine
 10
1200.000000000001
 20
1372.000000000003
 30
0.0
 11
1166.000000000001
 21
1372.000000000003
 31
0.0
  0
LINE
  5
1AE
330
1F
100
AcDbEntity
  8
水栓
  6
CONTINUOUS
 62
     6
100
AcDbLine
 10
1302.000000000001
 20
1391.500000000003
 30
0.0
 11
1302.000000000001
 21
1412.500000000003
 31
0.0
  0
ARC
  5
1AF
330
1F
100
AcDbEntity
  8
水栓
  6
CONTINUOUS
 62
     6
100
AcDbCircle
 10
1196.000000000001
 20
1379.437275010512
 30
0.0
 40
30.00000000000001
100
AcDbArc
 50
90.98645236641146
 51
180.0
  0
ARC
  5
1B0
330
1F
100
AcDbEntity
  8
水栓
  6
CONTINUOUS
 62
     6
100
AcDbCircle
 10
1212.000000000001
 20
1384.281299175692
 30
0.0
 40
10.0
100
AcDbArc
 50
89.01354763358883
 51
180.0
  0
ARC
  5
1B1
330
1F
100
AcDbEntity
  8
水栓
  6
CONTINUOUS
 62
     6
100
AcDbCircle
 10
1287.000000000001
 20
1424.500000000003
 30
0.0
 40
0.5
100
AcDbArc
 50
90.00000000000001
 51
180.0
  0
ARC
  5
1B2
330
1F
100
AcDbEntity
  8
水栓
  6
CONTINUOUS
 62
     6
100
AcDbCircle
 10
1287.000000000001
 20
1379.500000000003
 30
0.0
 40
0.5
100
AcDbArc
 50
180.0
 51
270.0
  0
ARC
  5
1B3
330
1F
100
AcDbEntity
  8
水栓
  6
CONTINUOUS
 62
     6
100
AcDbCircle
 10
1282.500000000001
 20
1389.068281259683
 30
0.0
 40
4.0
100
AcDbArc
 50
0.0
 51
89.01354763358825
  0
ARC
  5
1B4
330
1F
100
AcDbEntity
  8
水栓
  6
CONTINUOUS
 62
     6
100
AcDbCircle
 10
1282.500000000001
 20
1414.931718740324
 30
0.0
 40
4.000000000000035
100
AcDbArc
 50
270.9864523664117
 51
0.0
  0
LINE
  5
1B5
330
1F
100
AcDbEntity
  8
水栓
  6
CONTINUOUS
 62
     6
100
AcDbLine
 10
1180.847619946772
 20
1364.500000000003
 30
0.0
 11
1187.152380053231
 21
1364.500000000003
 31
0.0
  0
LINE
  5
1B6
330
1F
100
AcDbEntity
  8
水栓
  6
CONTINUOUS
 62
     6
100
AcDbLine
 10
1177.000000000001
 20
1372.000000000003
 30
0.0
 11
1177.000000000001
 21
1364.500000000003
 31
0.0
  0
LINE
  5
1B7
330
1F
100
AcDbEntity
  8
水栓
  6
CONTINUOUS
 62
     6
100
AcDbLine
 10
1180.847619946772
 20
1371.000000000003
 30
0.0
 11
1180.847619946772
 21
1364.500000000003
 31
0.0
  0
LINE
  5
1B8
330
1F
100
AcDbEntity
  8
水栓
  6
CONTINUOUS
 62
     6
100
AcDbLine
 10
1177.000000000001
 20
1364.500000000003
 30
0.0
 11
1180.847619946772
 21
1364.500000000003
 31
0.0
  0
LINE
  5
1B9
330
1F
100
AcDbEntity
  8
水栓
  6
CONTINUOUS
 62
     6
100
AcDbLine
 10
1187.152380053231
 20
1371.000000000003
 30
0.0
 11
1180.847619946772
 21
1371.000000000003
 31
0.0
  0
LINE
  5
1BA
330
1F
100
AcDbEntity
  8
水栓
  6
CONTINUOUS
 62
     6
100
AcDbLine
 10
1184.000000000001
 20
1367.750000000003
 30
0.0
 11
1180.847619946772
 21
1364.500000000003
 31
0.0
  0
LINE
  5
1BB
330
1F
100
AcDbEntity
  8
水栓
  6
CONTINUOUS
 62
     6
100
AcDbLine
 10
1184.000000000001
 20
1367.750000000003
 30
0.0
 11
1180.847619946772
 21
1371.000000000003
 31
0.0
  0
LINE
  5
1BC
330
1F
100
AcDbEntity
  8
水栓
  6
CONTINUOUS
 62
     6
100
AcDbLine
 10
1191.000000000001
 20
1364.500000000003
 30
0.0
 11
1191.000000000001
 21
1372.000000000003
 31
0.0
  0
LINE
  5
1BD
330
1F
100
AcDbEntity
  8
水栓
  6
CONTINUOUS
 62
     6
100
AcDbLine
 10
1187.152380053231
 20
1364.500000000003
 30
0.0
 11
1187.152380053231
 21
1371.000000000003
 31
0.0
  0
LINE
  5
1BE
330
1F
100
AcDbEntity
  8
水栓
  6
CONTINUOUS
 62
     6
100
AcDbLine
 10
1187.152380053231
 20
1364.500000000003
 30
0.0
 11
1191.000000000001
 21
1364.500000000003
 31
0.0
  0
LINE
  5
1BF
330
1F
100
AcDbEntity
  8
水栓
  6
CONTINUOUS
 62
     6
100
AcDbLine
 10
1187.152380053231
 20
1364.500000000003
 30
0.0
 11
1184.000000000001
 21
1367.750000000003
 31
0.0
  0
LINE
  5
1C0
330
1F
100
AcDbEntity
  8
水栓
  6
CONTINUOUS
 62
     6
100
AcDbLine
 10
1187.152380053231
 20
1371.000000000003
 30
0.0
 11
1184.000000000001
 21
1367.750000000003
 31
0.0
  0
LINE
  5
1C1
330
1F
100
AcDbEntity
  8
水栓
  6
CONTINUOUS
 62
     6
100
AcDbLine
 10
1188.525859268233
 20
1348.500000000003
 30
0.0
 11
1188.525859268233
 21
1348.520550528233
 31
0.0
  0
LINE
  5
1C2
330
1F
100
AcDbEntity
  8
水栓
  6
CONTINUOUS
 62
     6
100
AcDbLine
 10
1188.525859268233
 20
1364.500000000003
 30
0.0
 11
1188.525859268233
 21
1348.520550528233
 31
0.0
  0
LINE
  5
1C3
330
1F
100
AcDbEntity
  8
水栓
  6
CONTINUOUS
 62
     6
100
AcDbLine
 10
1179.525859268233
 20
1348.520550528233
 30
0.0
 11
1179.525859268233
 21
1348.500000000003
 31
0.0
  0
LINE
  5
1C4
330
1F
100
AcDbEntity
  8
水栓
  6
CONTINUOUS
 62
     6
100
AcDbLine
 10
1179.525859268233
 20
1348.520550528233
 30
0.0
 11
1179.525859268233
 21
1364.500000000003
 31
0.0
  0
ARC
  5
1C5
330
1F
100
AcDbEntity
  8
水栓
  6
CONTINUOUS
 62
     6
100
AcDbCircle
 10
1184.025859268233
 20
1350.700000000003
 30
0.0
 40
4.999999999999972
100
AcDbArc
 50
205.8419327631667
 51
334.1580672368333
  0
LINE
  5
1C6
330
1F
100
AcDbEntity
  8
水栓
  6
CONTINUOUS
 62
     6
100
AcDbLine
 10
1179.525859268233
 20
1348.500000000003
 30
0.0
 11
1169.091687604824
 21
1348.500000000003
 31
0.0
  0
LINE
  5
1C7
330
1F
100
AcDbEntity
  8
水栓
  6
CONTINUOUS
 62
     6
100
AcDbLine
 10
1188.525859268233
 20
1353.500000000003
 30
0.0
 11
1198.908312395179
 21
1353.500000000003
 31
0.0
  0
LINE
  5
1C8
330
1F
100
AcDbEntity
  8
水栓
  6
CONTINUOUS
 62
     6
100
AcDbLine
 10
1198.908312395179
 20
1348.500000000003
 30
0.0
 11
1188.525859268233
 21
1348.500000000003
 31
0.0
  0
LINE
  5
1C9
330
1F
100
AcDbEntity
  8
水栓
  6
CONTINUOUS
 62
     6
100
AcDbLine
 10
1169.091687604824
 20
1353.500000000003
 30
0.0
 11
1179.525859268233
 21
1353.500000000003
 31
0.0
  0
LINE
  5
1CA
330
1F
100
AcDbEntity
  8
水栓
  6
CONTINUOUS
 62
     6
100
AcDbLine
 10
1169.091687604824
 20
1351.000000000003
 30
0.0
 11
1169.091687604824
 21
1348.500000000003
 31
0.0
  0
LINE
  5
1CB
330
1F
100
AcDbEntity
  8
水栓
  6
CONTINUOUS
 62
     6
100
AcDbLine
 10
1169.091687604824
 20
1353.500000000003
 30
0.0
 11
1169.091687604824
 21
1351.000000000003
 31
0.0
  0
LINE
  5
1CC
330
1F
100
AcDbEntity
  8
水栓
  6
CONTINUOUS
 62
     6
100
AcDbLine
 10
1198.908312395179
 20
1351.000000000003
 30
0.0
 11
1198.908312395179
 21
1348.500000000003
 31
0.0
  0
LINE
  5
1CD
330
1F
100
AcDbEntity
  8
水栓
  6
CONTINUOUS
 62
     6
100
AcDbLine
 10
1198.908312395179
 20
1353.500000000003
 30
0.0
 11
1198.908312395179
 21
1351.000000000003
 31
0.0
  0
ARC
  5
1CE
330
1F
100
AcDbEntity
  8
水栓
  6
CONTINUOUS
 62
     6
100
AcDbCircle
 10
1170.750000000001
 20
1351.000000000003
 30
0.0
 40
3.0
100
AcDbArc
 50
180.0
 51
236.4426902380776
  0
ARC
  5
1CF
330
1F
100
AcDbEntity
  8
水栓
  6
CONTINUOUS
 62
     6
100
AcDbCircle
 10
1170.750000000001
 20
1351.000000000003
 30
0.0
 40
3.000000000000009
100
AcDbArc
 50
123.557309761921
 51
180.0
  0
ARC
  5
1D0
330
1F
100
AcDbEntity
  8
水栓
  6
CONTINUOUS
 62
     6
100
AcDbCircle
 10
1197.250000000001
 20
1351.000000000003
 30
0.0
 40
3.000000000000056
100
AcDbArc
 50
303.5573097619224
 51
0.0
  0
ARC
  5
1D1
330
1F
100
AcDbEntity
  8
水栓
  6
CONTINUOUS
 62
     6
100
AcDbCircle
 10
1197.250000000001
 20
1351.000000000003
 30
0.0
 40
3.0
100
AcDbArc
 50
0.0
 51
56.44269023807765
  0
LINE
  5
1D2
330
1F
100
AcDbEntity
  8
水栓
  6
EXLTYPE3
 62
     6
100
AcDbLine
 10
1162.99999999999
 20
1898.000000000001
 30
0.0
 11
1306.037806531743
 21
1898.000000000001
 31
0.0
  0
LINE
  5
1D3
330
1F
100
AcDbEntity
  8
水栓
  6
EXLTYPE3
 62
     6
100
AcDbLine
 10
1290.732050807559
 20
1907.500000000001
 30
0.0
 11
1301.99999999999
 21
1907.500000000001
 31
0.0
  0
LINE
  5
1D4
330
1F
100
AcDbEntity
  8
水栓
  6
EXLTYPE3
 62
     6
100
AcDbLine
 10
1301.99999999999
 20
1907.500000000001
 30
0.0
 11
1302.99999999999
 21
1907.500000000001
 31
0.0
  0
LINE
  5
1D5
330
1F
100
AcDbEntity
  8
水栓
  6
EXLTYPE3
 62
     6
100
AcDbLine
 10
1302.99999999999
 20
1888.500000000001
 30
0.0
 11
1301.99999999999
 21
1888.500000000001
 31
0.0
  0
LINE
  5
1D6
330
1F
100
AcDbEntity
  8
水栓
  6
EXLTYPE3
 62
     6
100
AcDbLine
 10
1301.99999999999
 20
1888.500000000001
 30
0.0
 11
1290.732050807559
 21
1888.500000000001
 31
0.0
  0
LINE
  5
1D7
330
1F
100
AcDbEntity
  8
水栓
  6
CONTINUOUS
 62
     6
100
AcDbLine
 10
1302.99999999999
 20
1907.500000000001
 30
0.0
 11
1301.99999999999
 21
1908.500000000001
 31
0.0
  0
LINE
  5
1D8
330
1F
100
AcDbEntity
  8
水栓
  6
CONTINUOUS
 62
     6
100
AcDbLine
 10
1301.99999999999
 20
1908.500000000001
 30
0.0
 11
1288.99999999999
 21
1908.500000000001
 31
0.0
  0
LINE
  5
1D9
330
1F
100
AcDbEntity
  8
水栓
  6
CONTINUOUS
 62
     6
100
AcDbLine
 10
1301.99999999999
 20
1887.500000000001
 30
0.0
 11
1288.99999999999
 21
1887.500000000001
 31
0.0
  0
LINE
  5
1DA
330
1F
100
AcDbEntity
  8
水栓
  6
CONTINUOUS
 62
     6
100
AcDbLine
 10
1301.99999999999
 20
1887.500000000001
 30
0.0
 11
1302.99999999999
 21
1888.500000000001
 31
0.0
  0
LINE
  5
1DB
330
1F
100
AcDbEntity
  8
水栓
  6
CONTINUOUS
 62
     6
100
AcDbLine
 10
1302.99999999999
 20
1888.500000000001
 30
0.0
 11
1302.99999999999
 21
1907.500000000001
 31
0.0
  0
LINE
  5
1DC
330
1F
100
AcDbEntity
  8
水栓
  6
CONTINUOUS
 62
     6
100
AcDbLine
 10
1282.568863964599
 20
1906.932311564954
 30
0.0
 11
1210.372621417686
 21
1905.689197454875
 31
0.0
  0
LINE
  5
1DD
330
1F
100
AcDbEntity
  8
水栓
  6
CONTINUOUS
 62
     6
100
AcDbLine
 10
1301.99999999999
 20
1887.500000000001
 30
0.0
 11
1301.99999999999
 21
1908.500000000001
 31
0.0
  0
LINE
  5
1DE
330
1F
100
AcDbEntity
  8
水栓
  6
CONTINUOUS
 62
     6
100
AcDbLine
 10
1210.372621417686
 20
1890.310802545126
 30
0.0
 11
1282.568863964599
 21
1889.067688435047
 31
0.0
  0
ARC
  5
1DF
330
1F
100
AcDbEntity
  8
水栓
  6
CONTINUOUS
 62
     6
100
AcDbCircle
 10
1210.028301594641
 20
1870.313766668291
 30
0.0
 40
19.99999999999997
100
AcDbArc
 50
89.01354763358883
 51
133.2320922517588
  0
ARC
  5
1E0
330
1F
100
AcDbEntity
  8
水栓
  6
CONTINUOUS
 62
     6
100
AcDbCircle
 10
1210.028301594641
 20
1925.686233331711
 30
0.0
 40
19.99999999999998
100
AcDbArc
 50
226.7679077482412
 51
270.9864523664112
  0
ARC
  5
1E1
330
1F
100
AcDbEntity
  8
水栓
  6
CONTINUOUS
 62
     6
100
AcDbCircle
 10
1183.99999999999
 20
1898.000000000001
 30
0.0
 40
17.99999999999999
100
AcDbArc
 50
270.0
 51
313.232092251759
  0
ARC
  5
1E2
330
1F
100
AcDbEntity
  8
水栓
  6
CONTINUOUS
 62
     6
100
AcDbCircle
 10
1183.99999999999
 20
1898.000000000001
 30
0.0
 40
18.0
100
AcDbArc
 50
90.00000000000001
 51
270.0
  0
ARC
  5
1E3
330
1F
100
AcDbEntity
  8
水栓
  6
CONTINUOUS
 62
     6
100
AcDbCircle
 10
1183.99999999999
 20
1898.000000000001
 30
0.0
 40
17.99999999999999
100
AcDbArc
 50
46.76790774824107
 51
90.00000000000001
  0
LINE
  5
1E4
330
1F
100
AcDbEntity
  8
水栓
  6
CONTINUOUS
 62
     6
100
AcDbLine
 10
1288.99999999999
 20
1921.000000000001
 30
0.0
 11
1286.99999999999
 21
1921.000000000001
 31
0.0
  0
LINE
  5
1E5
330
1F
100
AcDbEntity
  8
水栓
  6
CONTINUOUS
 62
     6
100
AcDbLine
 10
1288.99999999999
 20
1875.000000000001
 30
0.0
 11
1288.99999999999
 21
1921.000000000001
 31
0.0
  0
LINE
  5
1E6
330
1F
100
AcDbEntity
  8
水栓
  6
CONTINUOUS
 62
     6
100
AcDbLine
 10
1286.49999999999
 20
1875.500000000001
 30
0.0
 11
1286.49999999999
 21
1920.500000000001
 31
0.0
  0
ARC
  5
1E7
330
1F
100
AcDbEntity
  8
水栓
  6
CONTINUOUS
 62
     6
100
AcDbCircle
 10
1286.99999999999
 20
1920.500000000001
 30
0.0
 40
0.5
100
AcDbArc
 50
90.00000000000001
 51
180.0
  0
LINE
  5
1E8
330
1F
100
AcDbEntity
  8
水栓
  6
EXLTYPE3
 62
     6
100
AcDbLine
 10
1288.99999999999
 20
1908.500000000001
 30
0.0
 11
1290.732050807559
 21
1907.500000000001
 31
0.0
  0
LINE
  5
1E9
330
1F
100
AcDbEntity
  8
水栓
  6
EXLTYPE3
 62
     6
100
AcDbLine
 10
1290.732050807559
 20
1888.500000000001
 30
0.0
 11
1288.99999999999
 21
1887.500000000001
 31
0.0
  0
LINE
  5
1EA
330
1F
100
AcDbEntity
  8
水栓
  6
CONTINUOUS
 62
     6
100
AcDbLine
 10
1288.99999999999
 20
1875.000000000001
 30
0.0
 11
1286.99999999999
 21
1875.000000000001
 31
0.0
  0
LINE
  5
1EB
330
1F
100
AcDbEntity
  8
水栓
  6
CONTINUOUS
 62
     6
100
AcDbLine
 10
1290.732050807559
 20
1908.500000000001
 30
0.0
 11
1290.732050807559
 21
1887.500000000001
 31
0.0
  0
ARC
  5
1EC
330
1F
100
AcDbEntity
  8
水栓
  6
CONTINUOUS
 62
     6
100
AcDbCircle
 10
1286.99999999999
 20
1875.500000000001
 30
0.0
 40
0.5
100
AcDbArc
 50
180.0
 51
270.0
  0
ARC
  5
1ED
330
1F
100
AcDbEntity
  8
水栓
  6
CONTINUOUS
 62
     6
100
AcDbCircle
 10
1282.49999999999
 20
1885.06828125968
 30
0.0
 40
4.0
100
AcDbArc
 50
0.0
 51
89.0135476335887
  0
ARC
  5
1EE
330
1F
100
AcDbEntity
  8
水栓
  6
CONTINUOUS
 62
     6
100
AcDbCircle
 10
1282.49999999999
 20
1910.931718740321
 30
0.0
 40
4.000000000000035
100
AcDbArc
 50
270.9864523664112
 51
0.0
  0
LINE
  5
1EF
330
1F
100
AcDbEntity
  8
水栓
  6
EXLTYPE3
 62
     6
100
AcDbLine
 10
1183.99999999999
 20
1862.4
 30
0.0
 11
1183.99999999999
 21
1934.2
 31
0.0
  0
LINE
  5
1F0
330
1F
100
AcDbEntity
  8
トラップ
  6
CONTINUOUS
 62
     6
100
AcDbLine
 10
1191.1995544
 20
2038.0
 30
0.0
 11
1165.799469
 21
2038.0
 31
0.0
  0
LINE
  5
1F1
330
1F
100
AcDbEntity
  8
トラップ
  6
CONTINUOUS
 62
     6
100
AcDbLine
 10
1165.799469
 20
2008.0
 30
0.0
 11
1165.799469
 21
2038.0
 31
0.0
  0
LINE
  5
1F2
330
1F
100
AcDbEntity
  8
トラップ
  6
CONTINUOUS
 62
     6
100
AcDbLine
 10
1191.1995544
 20
2008.0
 30
0.0
 11
1191.1995544
 21
2038.0
 31
0.0
  0
LINE
  5
1F3
330
1F
100
AcDbEntity
  8
トラップ
  6
EXLTYPE4
 62
     6
100
AcDbLine
 10
1191.5
 20
467.0
 30
0.0
 11
1166.5
 21
467.0
 31
0.0
  0
ARC
  5
1F4
330
1F
100
AcDbEntity
  8
トラップ
  6
CONTINUOUS
 62
     6
100
AcDbCircle
 10
1167.099663622222
 20
951.1999999978998
 30
0.0
 40
7.847222222222516
100
AcDbArc
 50
135.5019526855774
 51
224.4980473144227
  0
ARC
  5
1F5
330
1F
100
AcDbEntity
  8
トラップ
  6
CONTINUOUS
 62
     6
100
AcDbCircle
 10
1190.905219177776
 20
951.1999999978998
 30
0.0
 40
7.847222222222516
100
AcDbArc
 50
315.5019526855773
 51
44.49804731442267
  0
ELLIPSE
  5
1F6
330
1F
100
AcDbEntity
  8
トラップ
  6
CONTINUOUS
 62
     6
100
AcDbEllipse
 10
1163.4139841319
 20
951.1999999978998
 30
0.0
 11
-9.074479906138043E-16
 21
-4.939916778430074
 31
0.0
210
0.0
220
0.0
230
1.0
 40
0.8226741935096998
 41
2.278332046648412
 42
7.146445914120967
  0
ELLIPSE
  5
1F7
330
1F
100
AcDbEntity
  8
トラップ
  6
CONTINUOUS
 62
     6
100
AcDbEllipse
 10
1194.590898668102
 20
951.1999999978998
 30
0.0
 11
-9.074479906138043E-16
 21
-4.939916778430074
 31
0.0
210
0.0
220
0.0
230
1.0
 40
0.8226741935096998
 41
5.419924700236805
 42
10.28803856771216
  0
LINE
  5
1F8
330
1F
100
AcDbEntity
  8
トラップ
  6
CONTINUOUS
 62
     6
100
AcDbLine
 10
1161.502441399999
 20
945.6999999978998
 30
0.0
 11
1166.502441399999
 21
945.6999999978998
 31
0.0
  0
LINE
  5
1F9
330
1F
100
AcDbEntity
  8
トラップ
  6
CONTINUOUS
 62
     6
100
AcDbLine
 10
1191.502441399999
 20
945.6999999978998
 30
0.0
 11
1196.502441399999
 21
945.6999999978998
 31
0.0
  0
LINE
  5
1FA
330
1F
100
AcDbEntity
  8
トラップ
  6
CONTINUOUS
 62
     6
100
AcDbLine
 10
1161.502441399999
 20
956.6999999978998
 30
0.0
 11
1166.502441399999
 21
956.6999999978998
 31
0.0
  0
LINE
  5
1FB
330
1F
100
AcDbEntity
  8
トラップ
  6
CONTINUOUS
 62
     6
100
AcDbLine
 10
1191.502441399999
 20
956.6999999978998
 30
0.0
 11
1196.502441399999
 21
956.6999999978998
 31
0.0
  0
ARC
  5
1FC
330
1F
100
AcDbEntity
  8
トラップ
  6
CONTINUOUS
 62
     6
100
AcDbCircle
 10
1179.002441399998
 20
908.9999999979007
 30
0.0
 40
12.50000000000068
100
AcDbArc
 50
180.0
 51
0.0
  0
LINE
  5
1FD
330
1F
100
AcDbEntity
  8
トラップ
  6
EXLTYPE4
 62
     6
100
AcDbLine
 10
1166.5
 20
670.0
 30
0.0
 11
1166.5
 21
467.0
 31
0.0
  0
LINE
  5
1FE
330
1F
100
AcDbEntity
  8
トラップ
  6
EXLTYPE4
 62
     6
100
AcDbLine
 10
1191.5
 20
467.0000000000002
 30
0.0
 11
1191.5
 21
671.0
 31
0.0
  0
LINE
  5
1FF
330
1F
100
AcDbEntity
  8
トラップ
  6
EXLTYPE3
 62
     6
100
AcDbLine
 10
1139.0
 20
992.0
 30
0.0
 11
1218.1023926
 21
992.0000000000002
 31
0.0
  0
LINE
  5
200
330
1F
100
AcDbEntity
  8
トラップ
  6
CONTINUOUS
 62
     6
100
AcDbLine
 10
1205.252441399999
 20
1130.699999999999
 30
0.0
 11
1205.252441399999
 21
1129.499999999999
 31
0.0
  0
LINE
  5
201
330
1F
100
AcDbEntity
  8
トラップ
  6
CONTINUOUS
 62
     6
100
AcDbLine
 10
1152.752441399999
 20
1130.699999999999
 30
0.0
 11
1152.752441399999
 21
1129.499999999999
 31
0.0
  0
LINE
  5
202
330
1F
100
AcDbEntity
  8
トラップ
  6
CONTINUOUS
 62
     6
100
AcDbLine
 10
1152.752441399999
 20
1129.499999999999
 30
0.0
 11
1205.252441399999
 21
1129.499999999999
 31
0.0
  0
LINE
  5
203
330
1F
100
AcDbEntity
  8
トラップ
  6
CONTINUOUS
 62
     6
100
AcDbLine
 10
1152.752441399999
 20
1130.699999999999
 30
0.0
 11
1205.252441399999
 21
1130.699999999999
 31
0.0
  0
LINE
  5
204
330
1F
100
AcDbEntity
  8
トラップ
  6
CONTINUOUS
 62
     6
100
AcDbLine
 10
1154.002441399999
 20
1129.500000000008
 30
0.0
 11
1154.002441399999
 21
1129.000000000008
 31
0.0
  0
LINE
  5
205
330
1F
100
AcDbEntity
  8
トラップ
  6
CONTINUOUS
 62
     6
100
AcDbLine
 10
1204.002441399999
 20
1129.500000000008
 30
0.0
 11
1204.002441399999
 21
1129.000000000008
 31
0.0
  0
LINE
  5
206
330
1F
100
AcDbEntity
  8
トラップ
  6
CONTINUOUS
 62
     6
100
AcDbLine
 10
1154.002441399999
 20
1129.000000000008
 30
0.0
 11
1204.002441399999
 21
1129.000000000008
 31
0.0
  0
LINE
  5
207
330
1F
100
AcDbEntity
  8
トラップ
  6
CONTINUOUS
 62
     6
100
AcDbLine
 10
1154.002441399999
 20
1129.500000000008
 30
0.0
 11
1204.002441399999
 21
1129.500000000008
 31
0.0
  0
LINE
  5
208
330
1F
100
AcDbEntity
  8
トラップ
  6
CONTINUOUS
 62
     6
100
AcDbLine
 10
1203.502441399999
 20
1126.499999999999
 30
0.0
 11
1203.502441399999
 21
1128.999999999999
 31
0.0
  0
LINE
  5
209
330
1F
100
AcDbEntity
  8
トラップ
  6
CONTINUOUS
 62
     6
100
AcDbLine
 10
1154.502441399999
 20
1126.499999999999
 30
0.0
 11
1154.502441399999
 21
1128.999999999999
 31
0.0
  0
LINE
  5
20A
330
1F
100
AcDbEntity
  8
トラップ
  6
CONTINUOUS
 62
     6
100
AcDbLine
 10
1203.502441399999
 20
1128.999999999999
 30
0.0
 11
1154.502441399999
 21
1128.999999999999
 31
0.0
  0
LINE
  5
20B
330
1F
100
AcDbEntity
  8
トラップ
  6
CONTINUOUS
 62
     6
100
AcDbLine
 10
1198.10244140011
 20
1120.499999999887
 30
0.0
 11
1200.102441400001
 21
1122.499999999774
 31
0.0
  0
LINE
  5
20C
330
1F
100
AcDbEntity
  8
トラップ
  6
CONTINUOUS
 62
     6
100
AcDbLine
 10
1159.902441399888
 20
1120.499999999887
 30
0.0
 11
1157.9024414
 21
1122.499999999774
 31
0.0
  0
LINE
  5
20D
330
1F
100
AcDbEntity
  8
トラップ
  6
CONTINUOUS
 62
     6
100
AcDbLine
 10
1200.102441400001
 20
1122.499999999799
 30
0.0
 11
1200.102441400001
 21
1126.499999999999
 31
0.0
  0
LINE
  5
20E
330
1F
100
AcDbEntity
  8
トラップ
  6
CONTINUOUS
 62
     6
100
AcDbLine
 10
1157.9024414
 20
1122.499999999799
 30
0.0
 11
1157.9024414
 21
1126.499999999999
 31
0.0
  0
LINE
  5
20F
330
1F
100
AcDbEntity
  8
トラップ
  6
CONTINUOUS
 62
     6
100
AcDbLine
 10
1198.102441400201
 20
1120.499999999999
 30
0.0
 11
1159.9024413998
 21
1120.499999999999
 31
0.0
  0
ARC
  5
210
330
1F
100
AcDbEntity
  8
トラップ
  6
CONTINUOUS
 62
     6
100
AcDbCircle
 10
1195.581332829001
 20
1126.610105678104
 30
0.0
 40
6.110105678105146
100
AcDbArc
 50
222.2737374192949
 51
317.7262625806995
  0
LINE
  5
211
330
1F
100
AcDbEntity
  8
トラップ
  6
CONTINUOUS
 62
     6
100
AcDbLine
 10
1191.060224257998
 20
1122.499999999799
 30
0.0
 11
1191.060224257998
 21
1126.499999999999
 31
0.0
  0
LINE
  5
212
330
1F
100
AcDbEntity
  8
トラップ
  6
CONTINUOUS
 62
     6
100
AcDbLine
 10
1191.060224257998
 20
1122.499999999799
 30
0.0
 11
1187.969046108598
 21
1122.499999999799
 31
0.0
  0
LINE
  5
213
330
1F
100
AcDbEntity
  8
トラップ
  6
CONTINUOUS
 62
     6
100
AcDbLine
 10
1187.969046108598
 20
1122.499999999799
 30
0.0
 11
1187.969046108598
 21
1126.499999999999
 31
0.0
  0
ARC
  5
214
330
1F
100
AcDbEntity
  8
トラップ
  6
CONTINUOUS
 62
     6
100
AcDbCircle
 10
1179.002441399999
 20
1141.600000001981
 30
0.0
 40
21.10000000198211
100
AcDbArc
 50
244.8520222959027
 51
295.1479777040973
  0
LINE
  5
215
330
1F
100
AcDbEntity
  8
トラップ
  6
CONTINUOUS
 62
     6
100
AcDbLine
 10
1170.0358366914
 20
1122.499999999799
 30
0.0
 11
1170.0358366914
 21
1126.499999999999
 31
0.0
  0
LINE
  5
216
330
1F
100
AcDbEntity
  8
トラップ
  6
CONTINUOUS
 62
     6
100
AcDbLine
 10
1170.0358366914
 20
1122.499999999799
 30
0.0
 11
1166.944658542
 21
1122.499999999799
 31
0.0
  0
LINE
  5
217
330
1F
100
AcDbEntity
  8
トラップ
  6
CONTINUOUS
 62
     6
100
AcDbLine
 10
1166.944658542
 20
1122.499999999799
 30
0.0
 11
1166.944658542
 21
1126.499999999999
 31
0.0
  0
ARC
  5
218
330
1F
100
AcDbEntity
  8
トラップ
  6
CONTINUOUS
 62
     6
100
AcDbCircle
 10
1162.423549971
 20
1126.610105678104
 30
0.0
 40
6.110105678103862
100
AcDbArc
 50
222.2737374192943
 51
317.7262625807115
  0
ARC
  5
219
330
1F
100
AcDbEntity
  8
トラップ
  6
CONTINUOUS
 62
     6
100
AcDbCircle
 10
1190.905219177776
 20
1106.431370847899
 30
0.0
 40
7.847222222222516
100
AcDbArc
 50
315.5019526855774
 51
44.49804731442273
  0
ARC
  5
21A
330
1F
100
AcDbEntity
  8
トラップ
  6
CONTINUOUS
 62
     6
100
AcDbCircle
 10
1167.099663622222
 20
1106.431370847899
 30
0.0
 40
7.847222222222516
100
AcDbArc
 50
135.5019526855774
 51
224.4980473144227
  0
LINE
  5
21B
330
1F
100
AcDbEntity
  8
トラップ
  6
CONTINUOUS
 62
     6
100
AcDbLine
 10
1196.502441399999
 20
1111.931370847899
 30
0.0
 11
1161.502441399999
 21
1111.931370847899
 31
0.0
  0
LINE
  5
21C
330
1F
100
AcDbEntity
  8
トラップ
  6
CONTINUOUS
 62
     6
100
AcDbLine
 10
1196.502441399999
 20
1100.931370847899
 30
0.0
 11
1161.502441399999
 21
1100.931370847899
 31
0.0
  0
ELLIPSE
  5
21D
330
1F
100
AcDbEntity
  8
トラップ
  6
CONTINUOUS
 62
     6
100
AcDbEllipse
 10
1163.4139841319
 20
1106.431370847899
 30
0.0
 11
-1.891281075320144E-15
 21
4.939916778430074
 31
0.0
210
0.0
220
0.0
230
1.0
 40
0.8226741935096998
 41
0.0
 42
6.283185307179586
  0
ELLIPSE
  5
21E
330
1F
100
AcDbEntity
  8
トラップ
  6
CONTINUOUS
 62
     6
100
AcDbEllipse
 10
1179.002441399999
 20
1106.431370847899
 30
0.0
 11
-8.12788410350004
 21
-2.614126904157020E-15
 31
0.0
210
0.0
220
0.0
230
1.0
 40
0.6077740178778928
 41
0.0
 42
6.283185307179586
  0
ELLIPSE
  5
21F
330
1F
100
AcDbEntity
  8
トラップ
  6
CONTINUOUS
 62
     6
100
AcDbEllipse
 10
1194.590898668098
 20
1106.431370847899
 30
0.0
 11
-1.891281075320144E-15
 21
4.939916778430074
 31
0.0
210
0.0
220
0.0
230
1.0
 40
0.8226741935096998
 41
0.0
 42
6.283185307179586
  0
LINE
  5
220
330
1F
100
AcDbEntity
  8
トラップ
  6
CONTINUOUS
 62
     6
100
AcDbLine
 10
1165.252441399999
 20
973.8124355630953
 30
0.0
 11
1166.502441399999
 21
971.6473720536342
 31
0.0
  0
LINE
  5
221
330
1F
100
AcDbEntity
  8
トラップ
  6
CONTINUOUS
 62
     6
100
AcDbLine
 10
1192.752441399999
 20
973.8124355630953
 30
0.0
 11
1191.502441399999
 21
971.6473720536342
 31
0.0
  0
LINE
  5
222
330
1F
100
AcDbEntity
  8
トラップ
  6
CONTINUOUS
 62
     6
100
AcDbLine
 10
1166.502441399999
 20
971.6473720536287
 30
0.0
 11
1191.502441399999
 21
971.6473720536287
 31
0.0
  0
LINE
  5
223
330
1F
100
AcDbEntity
  8
トラップ
  6
CONTINUOUS
 62
     6
100
AcDbLine
 10
1165.252441399999
 20
1016.999999997899
 30
0.0
 11
1165.252441399999
 21
973.8124355630953
 31
0.0
  0
LINE
  5
224
330
1F
100
AcDbEntity
  8
トラップ
  6
CONTINUOUS
 62
     6
100
AcDbLine
 10
1192.752441399999
 20
1016.999999997899
 30
0.0
 11
1192.752441399999
 21
973.8124355630953
 31
0.0
  0
LINE
  5
225
330
1F
100
AcDbEntity
  8
トラップ
  6
CONTINUOUS
 62
     6
100
AcDbLine
 10
1164.502441400399
 20
1016.999999997899
 30
0.0
 11
1193.502441399599
 21
1016.999999997899
 31
0.0
  0
ARC
  5
226
330
1F
100
AcDbEntity
  8
トラップ
  6
CONTINUOUS
 62
     6
100
AcDbCircle
 10
1167.099663622222
 20
1023.499999997899
 30
0.0
 40
7.847222222222516
100
AcDbArc
 50
135.5019526855774
 51
224.4980473144227
  0
ARC
  5
227
330
1F
100
AcDbEntity
  8
トラップ
  6
CONTINUOUS
 62
     6
100
AcDbCircle
 10
1190.905219177776
 20
1023.499999997899
 30
0.0
 40
7.847222222222516
100
AcDbArc
 50
315.5019526855773
 51
44.49804731442267
  0
LINE
  5
228
330
1F
100
AcDbEntity
  8
トラップ
  6
CONTINUOUS
 62
     6
100
AcDbLine
 10
1161.502441399999
 20
1017.999999997899
 30
0.0
 11
1196.502441399999
 21
1017.999999997899
 31
0.0
  0
LINE
  5
229
330
1F
100
AcDbEntity
  8
トラップ
  6
CONTINUOUS
 62
     6
100
AcDbLine
 10
1161.502441399999
 20
1028.999999997899
 30
0.0
 11
1196.502441399999
 21
1028.999999997899
 31
0.0
  0
ELLIPSE
  5
22A
330
1F
100
AcDbEntity
  8
トラップ
  6
CONTINUOUS
 62
     6
100
AcDbEllipse
 10
1194.590898668102
 20
1023.499999997899
 30
0.0
 11
-9.074479906138043E-16
 21
-4.939916778430074
 31
0.0
210
0.0
220
0.0
230
1.0
 40
0.8226741935096998
 41
0.0
 42
6.283185307179586
  0
ELLIPSE
  5
22B
330
1F
100
AcDbEntity
  8
トラップ
  6
CONTINUOUS
 62
     6
100
AcDbEllipse
 10
1179.002441399999
 20
1023.499999997899
 30
0.0
 11
8.12788410350004
 21
-1.990757450238396E-15
 31
0.0
210
0.0
220
0.0
230
1.0
 40
0.6077740178778928
 41
0.0
 42
6.283185307179586
  0
ELLIPSE
  5
22C
330
1F
100
AcDbEntity
  8
トラップ
  6
CONTINUOUS
 62
     6
100
AcDbEllipse
 10
1163.4139841319
 20
1023.499999997899
 30
0.0
 11
-9.074479906138043E-16
 21
-4.939916778430074
 31
0.0
210
0.0
220
0.0
230
1.0
 40
0.8226741935096998
 41
0.0
 42
6.283185307179586
  0
LINE
  5
22D
330
1F
100
AcDbEntity
  8
トラップ
  6
CONTINUOUS
 62
     6
100
AcDbLine
 10
1152.752441399999
 20
1130.7
 30
0.0
 11
1154.867520765079
 21
1132.0
 31
0.0
  0
LINE
  5
22E
330
1F
100
AcDbEntity
  8
トラップ
  6
CONTINUOUS
 62
     6
100
AcDbLine
 10
1205.252441399999
 20
1130.7
 30
0.0
 11
1203.13736203492
 21
1132.0
 31
0.0
  0
LINE
  5
22F
330
1F
100
AcDbEntity
  8
トラップ
  6
CONTINUOUS
 62
     6
100
AcDbLine
 10
1163.002441399999
 20
1111.931370847899
 30
0.0
 11
1163.002441399999
 21
1120.499999999999
 31
0.0
  0
LINE
  5
230
330
1F
100
AcDbEntity
  8
トラップ
  6
CONTINUOUS
 62
     6
100
AcDbLine
 10
1195.002441399999
 20
1111.931370847899
 30
0.0
 11
1195.002441399999
 21
1120.499999999999
 31
0.0
  0
LINE
  5
231
330
1F
100
AcDbEntity
  8
トラップ
  6
CONTINUOUS
 62
     6
100
AcDbLine
 10
1203.502441399999
 20
1126.499999999999
 30
0.0
 11
1154.502441399999
 21
1126.499999999999
 31
0.0
  0
LINE
  5
232
330
1F
100
AcDbEntity
  8
トラップ
  6
CONTINUOUS
 62
     6
100
AcDbLine
 10
1166.502441399999
 20
1028.999999997899
 30
0.0
 11
1166.502441399999
 21
1100.931370847899
 31
0.0
  0
LINE
  5
233
330
1F
100
AcDbEntity
  8
トラップ
  6
CONTINUOUS
 62
     6
100
AcDbLine
 10
1191.502441399999
 20
1028.999999997899
 30
0.0
 11
1191.502441399999
 21
1100.931370847899
 31
0.0
  0
LINE
  5
234
330
1F
100
AcDbEntity
  8
トラップ
  6
CONTINUOUS
 62
     6
100
AcDbLine
 10
1164.502441400177
 20
1016.999999998076
 30
0.0
 11
1163.502441400352
 21
1017.999999997899
 31
0.0
  0
LINE
  5
235
330
1F
100
AcDbEntity
  8
トラップ
  6
CONTINUOUS
 62
     6
100
AcDbLine
 10
1193.502441399824
 20
1016.999999998076
 30
0.0
 11
1194.502441399647
 21
1017.999999997899
 31
0.0
  0
ARC
  5
236
330
1F
100
AcDbEntity
  8
トラップ
  6
CONTINUOUS
 62
     6
100
AcDbCircle
 10
1179.0024414
 20
992.0
 30
0.0
 40
30.00000000000002
100
AcDbArc
 50
295.0451660199999
 51
59.3288775527136
  0
ARC
  5
237
330
1F
100
AcDbEntity
  8
トラップ
  6
CONTINUOUS
 62
     6
100
AcDbCircle
 10
1179.0024414
 20
992.0
 30
0.0
 40
30.00000000000002
100
AcDbArc
 50
120.6711224472874
 51
244.9548339799996
  0
LINE
  5
238
330
1F
100
AcDbEntity
  8
トラップ
  6
CONTINUOUS
 62
     6
100
AcDbLine
 10
1191.502441399999
 20
971.6473720536342
 30
0.0
 11
1191.502441399999
 21
908.9999999979
 31
0.0
  0
LINE
  5
239
330
1F
100
AcDbEntity
  8
トラップ
  6
CONTINUOUS
 62
     6
100
AcDbLine
 10
1166.502441399999
 20
971.6473720536342
 30
0.0
 11
1166.502441399999
 21
908.9999999979
 31
0.0
  0
CIRCLE
  5
23A
330
1F
100
AcDbEntity
  8
トラップ
  6
EXLTYPE4
 62
     3
100
AcDbCircle
 10
1179.0024414
 20
1948.0
 30
0.0
 40
12.5
  0
LINE
  5
23B
330
1F
100
AcDbEntity
  8
トラップ
  6
EXLTYPE3
 62
     6
100
AcDbLine
 10
1199.4
 20
1948.0
 30
0.0
 11
1159.7
 21
1948.0
 31
0.0
  0
LINE
  5
23C
330
1F
100
AcDbEntity
  8
トラップ
  6
EXLTYPE3
 62
     6
100
AcDbLine
 10
1179.0
 20
475.5300293
 30
0.0
 11
1179.000000000001
 21
1139.0
 31
0.0
  0
LINE
  5
23D
330
1F
100
AcDbEntity
  8
トラップ
  6
EXLTYPE3
 62
     6
100
AcDbLine
 10
1179.0024414
 20
1928.8
 30
0.0
 11
1179.0024414
 21
2059.0
 31
0.0
  0
POLYLINE
  5
23E
330
1F
100
AcDbEntity
  8
寸法
  6
CONTINUOUS
 62
     3
100
AcDb2dPolyline
 66
     1
 10
0.0
 20
0.0
 30
0.0
 70
   128
  0
VERTEX
  5
23F
330
23E
100
AcDbEntity
  8
寸法
  6
CONTINUOUS
 62
     3
100
AcDbVertex
100
AcDb2dVertex
 10
1295.971539565
 20
1412.4775
 30
0.0
  0
VERTEX
  5
240
330
23E
100
AcDbEntity
  8
寸法
  6
CONTINUOUS
 62
     3
100
AcDbVertex
100
AcDb2dVertex
 10
1324.107943641
 20
1461.211181402
 30
0.0
  0
VERTEX
  5
241
330
23E
100
AcDbEntity
  8
寸法
  6
CONTINUOUS
 62
     3
100
AcDbVertex
100
AcDb2dVertex
 10
1455.0
 20
1461.211181402
 30
0.0
  0
SEQEND
  5
242
330
23E
100
AcDbEntity
  8
寸法
  6
CONTINUOUS
 62
     3
  0
LINE
  5
243
330
1F
100
AcDbEntity
  8
寸法
  6
CONTINUOUS
 62
     3
100
AcDbLine
 10
1306.641412546058
 20
1440.958262113541
 30
0.0
 11
1295.971539565
 21
1412.4775
 31
0.0
  0
LINE
  5
244
330
1F
100
AcDbEntity
  8
寸法
  6
CONTINUOUS
 62
     3
100
AcDbLine
 10
1295.971539565
 20
1412.4775
 30
0.0
 11
1315.301666583906
 21
1435.958262113547
 31
0.0
  0
TEXT
  5
245
330
1F
100
AcDbEntity
  8
寸法
  6
CONTINUOUS
 62
     2
100
AcDbText
 10
1324.107943641
 20
1464.711181342395
 30
0.0
 40
40.0
  1
ＰＪ
 41
1.020759090909092
  7
EXCADSTD
 72
     5
 11
1388.269943641
 21
1464.711181342395
 31
0.0
100
AcDbText
  0
DIMENSION
  5
247
330
1F
100
AcDbEntity
  8
寸法
  6
CONTINUOUS
 62
     3
100
AcDbDimension
  2
*D15
 10
1495.498204018196
 20
491.9999999999999
 30
0.0
 11
1472.498203898988
 21
946.9999999999989
 31
0.0
 70
   160
  3
ISO-25
100
AcDbAlignedDimension
 13
1312.8
 23
1402.0
 33
0.0
 14
1289.0
 24
492.0
 34
0.0
 50
90.0
100
AcDbRotatedDimension
1001
ACAD
1000
DSTYLE
1002
{
1070
   270
1070
     2
1070
     6
1000
EX_NORM
1070
     7
1000
EX_NORM
1070
    41
1040
30.0
1070
    42
1040
6.99999988079071
1070
    44
1040
9.999999999998636
1070
    73
1070
     0
1070
    74
1070
     0
1070
    75
1070
     0
1070
    76
1070
     0
1070
    77
1070
     1
1070
    78
1070
     8
1070
   140
1040
40.0
1070
   147
1040
0.0
1070
   173
1070
     1
1070
   176
1070
     3
1070
   177
1070
     3
1070
   178
1070
     2
1070
   271
1070
     1
1070
   277
1070
     2
1070
   279
1070
     2
1070
   280
1070
     0
1070
   287
1070
     5
1070
   340
1005
246
1002
}
  0
DIMENSION
  5
255
330
1F
100
AcDbEntity
  8
寸法
  6
CONTINUOUS
 62
     3
100
AcDbDimension
  2
*D16
 10
1369.000000000007
 20
1272.00000005
 30
0.0
 11
1345.999999880796
 21
1207.00000005
 31
0.0
 70
   160
  3
ISO-25
100
AcDbAlignedDimension
 13
1289.0
 23
1302.0
 33
0.0
 14
1317.2010105616
 24
1272.00000005
 34
0.0
 50
90.0
100
AcDbRotatedDimension
1001
ACAD
1000
DSTYLE
1002
{
1070
   270
1070
     2
1070
     6
1000
EX_NORM
1070
     7
1000
EX_NORM
1070
    41
1040
30.0
1070
    42
1040
6.99999988079071
1070
    44
1040
10.0
1070
    73
1070
     0
1070
    74
1070
     0
1070
    75
1070
     1
1070
    76
1070
     0
1070
    77
1070
     1
1070
    78
1070
     8
1070
   140
1040
40.0
1070
   147
1040
0.0
1070
   173
1070
     1
1070
   176
1070
     3
1070
   177
1070
     3
1070
   178
1070
     2
1070
   271
1070
     1
1070
   277
1070
     2
1070
   279
1070
     2
1070
   280
1070
     2
1070
   287
1070
     5
1070
   340
1005
246
1002
}
  0
DIMENSION
  5
263
330
1F
100
AcDbEntity
  8
寸法
  6
CONTINUOUS
 62
     3
100
AcDbDimension
  2
*D17
 10
904.000000000001
 20
1252.0
 30
0.0
 11
880.9999998807923
 21
1367.0
 31
0.0
 70
   160
  3
ISO-25
100
AcDbAlignedDimension
 13
1148.8388671
 23
1302.0
 33
0.0
 14
1066.0019531
 24
1252.0
 34
0.0
 50
90.0
100
AcDbRotatedDimension
1001
ACAD
1000
DSTYLE
1002
{
1070
   270
1070
     2
1070
     6
1000
EX_NORM
1070
     7
1000
EX_NORM
1070
    41
1040
30.0
1070
    42
1040
6.99999988079071
1070
    44
1040
10.00000000000068
1070
    73
1070
     0
1070
    74
1070
     0
1070
    75
1070
     0
1070
    76
1070
     1
1070
    77
1070
     1
1070
    78
1070
     8
1070
   140
1040
40.0
1070
   147
1040
0.0
1070
   173
1070
     1
1070
   176
1070
     3
1070
   177
1070
     3
1070
   178
1070
     2
1070
   271
1070
     1
1070
   277
1070
     2
1070
   279
1070
     2
1070
   280
1070
     1
1070
   287
1070
     5
1070
   340
1005
246
1002
}
  0
DIMENSION
  5
271
330
1F
100
AcDbEntity
  8
寸法
  6
CONTINUOUS
 62
     3
100
AcDbDimension
  2
*D18
 10
903.9999999999999
 20
492.0
 30
0.0
 11
880.9999998807906
 21
872.0
 31
0.0
 70
   160
  3
ISO-25
100
AcDbAlignedDimension
 13
1066.0019531
 23
1252.0
 33
0.0
 14
838.6940613000002
 24
492.0
 34
0.0
 50
90.0
100
AcDbRotatedDimension
1001
ACAD
1000
DSTYLE
1002
{
1070
   270
1070
     2
1070
     6
1000
EX_NORM
1070
     7
1000
EX_NORM
1070
    41
1040
30.0
1070
    42
1040
6.99999988079071
1070
    44
1040
10.00000000000045
1070
    73
1070
     0
1070
    74
1070
     0
1070
    75
1070
     0
1070
    76
1070
     1
1070
    77
1070
     1
1070
    78
1070
     8
1070
   140
1040
40.0
1070
   147
1040
0.0
1070
   173
1070
     1
1070
   176
1070
     3
1070
   177
1070
     3
1070
   178
1070
     2
1070
   271
1070
     1
1070
   277
1070
     2
1070
   279
1070
     2
1070
   280
1070
     0
1070
   287
1070
     5
1070
   340
1005
246
1002
}
  0
TEXT
  5
27D
330
1F
100
AcDbEntity
  8
寸法
  6
CONTINUOUS
 62
     2
100
AcDbText
 10
1034.704001725001
 20
2077.967596403395
 30
0.0
 40
40.0
  1
φ２５
 41
1.070588235294118
  7
EXCADSTD
 72
     5
 11
1138.704001725001
 21
2077.967596403395
 31
0.0
100
AcDbText
  0
DIMENSION
  5
27E
330
1F
100
AcDbEntity
  8
寸法
  6
CONTINUOUS
 62
     3
100
AcDbDimension
  2
*D19
 10
1289.0
 20
2138.65
 30
0.0
 11
1057.0
 21
2162.149999940395
 31
0.0
 70
   160
  1
110（壁排水）
  3
ISO-25
100
AcDbAlignedDimension
 13
1179.0024414
 23
2059.0
 33
0.0
 14
1289.0
 24
2008.0
 34
0.0
100
AcDbRotatedDimension
1001
ACAD
1000
DSTYLE
1002
{
1070
   270
1070
     2
1070
     6
1000
EX_NORM
1070
     7
1000
EX_NORM
1070
    41
1040
30.0
1070
    42
1040
6.99999988079071
1070
    44
1040
10.0
1070
    73
1070
     0
1070
    74
1070
     0
1070
    75
1070
     0
1070
    76
1070
     0
1070
    77
1070
     1
1070
    78
1070
     0
1070
   140
1040
40.0
1070
   147
1040
0.0
1070
   173
1070
     1
1070
   176
1070
     3
1070
   177
1070
     3
1070
   178
1070
     2
1070
   271
1070
     0
1070
   277
1070
     2
1070
   279
1070
     2
1070
   280
1070
     0
1070
   287
1070
     5
1070
   340
1005
246
1002
}
  0
DIMENSION
  5
28B
330
1F
100
AcDbEntity
  8
寸法
  6
CONTINUOUS
 62
     3
100
AcDbDimension
  2
*D20
 10
1378.998203958601
 20
1948.0
 30
0.0
 11
1355.498204018205
 21
2163.7
 31
0.0
 70
   160
  1
60（床排水）
 53
89.99999999999973
  3
ISO-25
100
AcDbAlignedDimension
 13
1289.0
 23
2008.0
 33
0.0
 14
1225.4999998808
 24
1948.0
 34
0.0
 50
90.0
100
AcDbRotatedDimension
1001
ACAD
1000
DSTYLE
1002
{
1070
   270
1070
     2
1070
     6
1000
EX_NORM
1070
     7
1000
EX_NORM
1070
    41
1040
30.0
1070
    42
1040
0.0
1070
    44
1040
0.0
1070
    73
1070
     0
1070
    74
1070
     0
1070
    75
1070
     1
1070
    76
1070
     0
1070
    77
1070
     1
1070
    78
1070
     0
1070
   140
1040
40.0
1070
   147
1040
0.0
1070
   173
1070
     1
1070
   176
1070
     3
1070
   177
1070
     3
1070
   178
1070
     2
1070
   271
1070
     0
1070
   277
1070
     2
1070
   279
1070
     2
1070
   280
1070
     0
1070
   287
1070
     5
1070
   340
1005
246
1002
}
  0
DIMENSION
  5
297
330
1F
100
AcDbEntity
  8
寸法
  6
CONTINUOUS
 62
     3
100
AcDbDimension
  2
*D21
 10
1498.998203958601
 20
1898.0
 30
0.0
 11
1475.498204018207
 21
1952.999999999999
 31
0.0
 70
   160
  3
ISO-25
100
AcDbAlignedDimension
 13
1289.0
 23
2008.0
 33
0.0
 14
1219.0
 24
1898.0
 34
0.0
 50
90.0
100
AcDbRotatedDimension
1001
ACAD
1000
DSTYLE
1002
{
1070
   270
1070
     2
1070
     6
1000
EX_NORM
1070
     7
1000
EX_NORM
1070
    41
1040
30.0
1070
    42
1040
6.99999988079071
1070
    44
1040
10.0
1070
    73
1070
     0
1070
    74
1070
     0
1070
    75
1070
     0
1070
    76
1070
     1
1070
    77
1070
     1
1070
    78
1070
     0
1070
   140
1040
40.0
1070
   147
1040
0.0
1070
   173
1070
     1
1070
   176
1070
     3
1070
   177
1070
     3
1070
   178
1070
     2
1070
   271
1070
     0
1070
   277
1070
     2
1070
   279
1070
     2
1070
   280
1070
     0
1070
   287
1070
     5
1070
   340
1005
246
1002
}
  0
DIMENSION
  5
2A3
330
1F
100
AcDbEntity
  8
寸法
  6
CONTINUOUS
 62
     3
100
AcDbDimension
  2
*D22
 10
1438.9982039586
 20
1928.0
 30
0.0
 11
1415.498204018205
 21
1968.0
 31
0.0
 70
   160
  3
ISO-25
100
AcDbAlignedDimension
 13
1289.0
 23
2008.0
 33
0.0
 14
1328.3
 24
1928.0
 34
0.0
 50
90.0
100
AcDbRotatedDimension
1001
ACAD
1000
DSTYLE
1002
{
1070
   270
1070
     2
1070
     6
1000
EX_NORM
1070
     7
1000
EX_NORM
1070
    41
1040
30.0
1070
    42
1040
0.0
1070
    44
1040
0.0
1070
    73
1070
     0
1070
    74
1070
     0
1070
    75
1070
     1
1070
    76
1070
     0
1070
    77
1070
     1
1070
    78
1070
     0
1070
   140
1040
40.0
1070
   147
1040
0.0
1070
   173
1070
     1
1070
   176
1070
     3
1070
   177
1070
     3
1070
   178
1070
     2
1070
   271
1070
     0
1070
   277
1070
     2
1070
   279
1070
     2
1070
   280
1070
     0
1070
   287
1070
     5
1070
   340
1005
246
1002
}
  0
DIMENSION
  5
2AF
330
1F
100
AcDbEntity
  8
寸法
  6
CONTINUOUS
 62
     3
100
AcDbDimension
  2
*D23
 10
1289.0
 20
2078.65
 30
0.0
 11
1249.0
 21
2102.149999940395
 31
0.0
 70
   160
  3
ISO-25
100
AcDbAlignedDimension
 13
1209.0
 23
2048.9999998808
 33
0.0
 14
1289.0
 24
2041.0
 34
0.0
100
AcDbRotatedDimension
1001
ACAD
1000
DSTYLE
1002
{
1070
   270
1070
     2
1070
     6
1000
EX_NORM
1070
     7
1000
EX_NORM
1070
    41
1040
30.0
1070
    42
1040
0.0
1070
    44
1040
0.0
1070
    73
1070
     0
1070
    74
1070
     0
1070
    75
1070
     0
1070
    76
1070
     1
1070
    77
1070
     1
1070
    78
1070
     0
1070
   140
1040
40.0
1070
   147
1040
0.0
1070
   173
1070
     1
1070
   176
1070
     3
1070
   177
1070
     3
1070
   178
1070
     2
1070
   271
1070
     0
1070
   277
1070
     2
1070
   279
1070
     2
1070
   280
1070
     0
1070
   287
1070
     5
1070
   340
1005
246
1002
}
  0
LINE
  5
2BB
330
1F
100
AcDbEntity
  8
寸法
  6
CONTINUOUS
 62
     7
100
AcDbLine
 10
716.9999999999998
 20
492.0
 30
0.0
 11
1289.0024414
 21
492.0
 31
0.0
  0
TEXT
  5
2BC
330
1F
100
AcDbEntity
  8
寸法
  6
CONTINUOUS
 62
     2
100
AcDbText
 10
1427.742800841
 20
1466.923004002
 30
0.0
 40
25.0
  1
２
 41
1.321599999999995
  7
EXCADSTD
 72
     5
 11
1451.342800841
 21
1466.923004002
 31
0.0
100
AcDbText
  0
TEXT
  5
2BD
330
1F
100
AcDbEntity
  8
寸法
  6
CONTINUOUS
 62
     2
100
AcDbText
 10
1392.044406041
 20
1478.822418002
 30
0.0
 40
25.0
  1
１
 41
1.321599999999995
  7
EXCADSTD
 72
     5
 11
1415.644406041
 21
1478.822418002
 31
0.0
100
AcDbText
  0
TEXT
  5
2BE
330
1F
100
AcDbEntity
  8
寸法
  6
CONTINUOUS
 62
     3
100
AcDbText
 10
1401.545443641
 20
1464.711242502
 30
0.0
 40
40.0
  1
／
 41
1.321599914550783
  7
EXCADSTD
 72
     5
 11
1439.305441199594
 21
1464.711242502
 31
0.0
100
AcDbText
  0
DIMENSION
  5
2BF
330
1F
100
AcDbEntity
  8
寸法
  6
CONTINUOUS
 62
     3
100
AcDbDimension
  2
*D24
 10
1089.257821771822
 20
1642.742178228127
 30
0.0
 11
1023.117475979115
 21
1742.116542652359
 31
0.0
 70
   160
  1
235
  3
ISO-25
100
AcDbAlignedDimension
 13
1095.4848417889
 23
1979.998618679
 33
0.0
 14
1260.9995520058
 24
1814.483908462
 34
0.0
 50
134.9999999999825
100
AcDbRotatedDimension
1001
ACAD
1000
DSTYLE
1002
{
1070
   270
1070
     2
1070
     6
1000
EX_NORM
1070
     7
1000
EX_NORM
1070
    41
1040
30.0
1070
    42
1040
6.999999880790639
1070
    44
1040
10.0000000000008
1070
    73
1070
     0
1070
    74
1070
     0
1070
    75
1070
     0
1070
    76
1070
     0
1070
    77
1070
     1
1070
    78
1070
     0
1070
   140
1040
40.0
1070
   147
1040
0.0
1070
   173
1070
     1
1070
   176
1070
     3
1070
   177
1070
     3
1070
   178
1070
     2
1070
   271
1070
     0
1070
   277
1070
     2
1070
   279
1070
     2
1070
   280
1070
     0
1070
   287
1070
     5
1070
   340
1005
246
1002
}
  0
DIMENSION
  5
2CC
330
1F
100
AcDbEntity
  8
寸法
  6
CONTINUOUS
 62
     3
100
AcDbDimension
  2
*D25
 10
1111.154619010707
 20
1704.217526566481
 30
0.0
 11
1064.580286875435
 21
1784.697042174102
 31
0.0
 70
   160
  3
ISO-25
100
AcDbAlignedDimension
 13
1109.4804933626
 23
1955.6904019004
 33
0.0
 14
1236.0381491071
 24
1827.7894903759
 34
0.0
 50
134.6975453688131
100
AcDbRotatedDimension
1001
ACAD
1000
DSTYLE
1002
{
1070
   270
1070
     2
1070
     6
1000
EX_NORM
1070
     7
1000
EX_NORM
1070
    41
1040
30.0
1070
    42
1040
6.999999880790814
1070
    44
1040
10.00000000000021
1070
    73
1070
     0
1070
    74
1070
     0
1070
    75
1070
     0
1070
    76
1070
     0
1070
    77
1070
     1
1070
    78
1070
     0
1070
   140
1040
40.0
1070
   147
1040
0.0
1070
   173
1070
     1
1070
   176
1070
     3
1070
   177
1070
     3
1070
   178
1070
     2
1070
   271
1070
     0
1070
   277
1070
     2
1070
   279
1070
     2
1070
   280
1070
     0
1070
   287
1070
     5
1070
   340
1005
246
1002
}
  0
DIMENSION
  5
2D9
330
1F
100
AcDbEntity
  8
寸法
  6
CONTINUOUS
 62
     3
100
AcDbDimension
  2
*D26
 10
1179.0
 20
405.0
 30
0.0
 11
1444.0
 21
428.4999999403951
 31
0.0
 70
   160
  1
110（床排水）
  3
ISO-25
100
AcDbAlignedDimension
 13
1289.0
 23
492.0
 33
0.0
 14
1179.0
 24
492.0
 34
0.0
100
AcDbRotatedDimension
1001
ACAD
1000
DSTYLE
1002
{
1070
   270
1070
     2
1070
     6
1000
EX_NORM
1070
     7
1000
EX_NORM
1070
    41
1040
30.0
1070
    42
1040
6.99999988079071
1070
    44
1040
10.0
1070
    73
1070
     0
1070
    74
1070
     0
1070
    75
1070
     0
1070
    76
1070
     0
1070
    77
1070
     1
1070
    78
1070
     0
1070
   140
1040
40.0
1070
   147
1040
0.0
1070
   173
1070
     1
1070
   176
1070
     3
1070
   177
1070
     3
1070
   178
1070
     2
1070
   271
1070
     0
1070
   277
1070
     2
1070
   279
1070
     2
1070
   280
1070
     1
1070
   287
1070
     5
1070
   340
1005
246
1002
}
  0
POLYLINE
  5
2E6
330
1F
100
AcDbEntity
  8
寸法
  6
CONTINUOUS
 62
     3
100
AcDb2dPolyline
 66
     1
 10
0.0
 20
0.0
 30
0.0
 70
   128
  0
VERTEX
  5
2E7
330
2E6
100
AcDbEntity
  8
寸法
  6
CONTINUOUS
 62
     3
100
AcDbVertex
100
AcDb2dVertex
 10
1166.499999999999
 20
608.5192271527795
 30
0.0
  0
VERTEX
  5
2E8
330
2E6
100
AcDbEntity
  8
寸法
  6
CONTINUOUS
 62
     3
100
AcDbVertex
100
AcDb2dVertex
 10
1136.6238162413
 20
657.0
 30
0.0
  0
VERTEX
  5
2E9
330
2E6
100
AcDbEntity
  8
寸法
  6
CONTINUOUS
 62
     3
100
AcDbVertex
100
AcDb2dVertex
 10
938.0000000000001
 20
657.0
 30
0.0
  0
SEQEND
  5
2EA
330
2E6
100
AcDbEntity
  8
寸法
  6
CONTINUOUS
 62
     3
  0
LINE
  5
2EB
330
1F
100
AcDbEntity
  8
寸法
  6
CONTINUOUS
 62
     3
100
AcDbLine
 10
1146.504434537833
 20
631.4359756535639
 30
0.0
 11
1166.499999999999
 21
608.5192271527795
 31
0.0
  0
LINE
  5
2EC
330
1F
100
AcDbEntity
  8
寸法
  6
CONTINUOUS
 62
     3
100
AcDbLine
 10
1166.499999999999
 20
608.5192271527795
 30
0.0
 11
1155.017734887393
 21
636.6822807493594
 31
0.0
  0
DIMENSION
  5
2ED
330
1F
100
AcDbEntity
  8
寸法
  6
CONTINUOUS
 62
     3
100
AcDbDimension
  2
*D27
 10
1435.498204018201
 20
992.0
 30
0.0
 11
1411.998204077805
 21
742.0
 31
0.0
 70
   160
  3
ISO-25
100
AcDbAlignedDimension
 13
1289.0
 23
492.0
 33
0.0
 14
1218.1023926
 24
992.0
 34
0.0
 50
90.0
100
AcDbRotatedDimension
1001
ACAD
1000
DSTYLE
1002
{
1070
   270
1070
     2
1070
     6
1000
EX_NORM
1070
     7
1000
EX_NORM
1070
    41
1040
30.0
1070
    42
1040
6.99999988079071
1070
    44
1040
10.0
1070
    73
1070
     0
1070
    74
1070
     0
1070
    75
1070
     1
1070
    76
1070
     0
1070
    77
1070
     1
1070
    78
1070
     0
1070
   140
1040
40.0
1070
   147
1040
0.0
1070
   173
1070
     1
1070
   176
1070
     3
1070
   177
1070
     3
1070
   178
1070
     2
1070
   271
1070
     0
1070
   277
1070
     2
1070
   279
1070
     2
1070
   280
1070
     0
1070
   287
1070
     5
1070
   340
1005
246
1002
}
  0
DIMENSION
  5
2F9
330
1F
100
AcDbEntity
  8
寸法
  6
CONTINUOUS
 62
     3
100
AcDbDimension
  2
*D28
 10
1435.498204018202
 20
1302.0
 30
0.0
 11
1411.998204077806
 21
1216.9999952356
 31
0.0
 70
   160
  3
ISO-25
100
AcDbAlignedDimension
 13
1210.5015136751
 23
1131.9999904712
 33
0.0
 14
1289.0
 24
1302.0
 34
0.0
 50
90.0
100
AcDbRotatedDimension
1001
ACAD
1000
DSTYLE
1002
{
1070
   270
1070
     2
1070
     6
1000
EX_NORM
1070
     7
1000
EX_NORM
1070
    41
1040
30.0
1070
    42
1040
6.99999988079071
1070
    44
1040
9.999999999999545
1070
    73
1070
     0
1070
    74
1070
     0
1070
    75
1070
     0
1070
    76
1070
     0
1070
    77
1070
     1
1070
    78
1070
     0
1070
   140
1040
40.0
1070
   147
1040
0.0
1070
   173
1070
     1
1070
   176
1070
     3
1070
   177
1070
     3
1070
   178
1070
     2
1070
   271
1070
     0
1070
   277
1070
     2
1070
   279
1070
     2
1070
   280
1070
     0
1070
   287
1070
     5
1070
   340
1005
246
1002
}
  0
LINE
  5
306
330
1F
100
AcDbEntity
  8
寸法
  6
CONTINUOUS
 62
     3
100
AcDbLine
 10
1320.0
 20
1898.0
 30
0.0
 11
1508.9982039586
 21
1898.0
 31
0.0
  0
LEADER
  5
307
330
1F
100
AcDbEntity
  8
寸法
  6
CONTINUOUS
 62
     3
100
AcDbLeader
  3
ISO-25
 76
     3
 10
1202.5072508717
 20
1275.7500000002
 30
0.0
 10
1045.628625436
 20
1432.628625436
 30
0.0
 10
812.0
 20
1432.628625436
 30
0.0
1001
ACAD
1000
DSTYLE
1002
{
1070
     5
1000
EX_NORM
1070
    41
1040
30.0
1070
   341
1005
4E
1002
}
  0
TEXT
  5
308
330
1F
100
AcDbEntity
  8
寸法
  6
CONTINUOUS
 62
     2
100
AcDbText
 10
813.6286261512562
 20
1436.128625376395
 30
0.0
 40
40.0
  1
ＮＴ７ＡＢＷ１
 41
0.9902439024390244
  7
EXCADSTD
 72
     5
 11
1045.628626151256
 21
1436.128625376395
 31
0.0
100
AcDbText
  0
TEXT
  5
309
330
1F
100
AcDbEntity
  8
寸法
  6
CONTINUOUS
 62
     2
100
AcDbText
 10
807.445206159656
 20
1526.499999940395
 30
0.0
 40
40.0
  1
Ｙ４０Ｊ－１３
 41
0.9902439024390244
  7
EXCADSTD
 72
     5
 11
1039.445206159656
 21
1526.499999940395
 31
0.0
100
AcDbText
  0
LEADER
  5
30A
330
1F
100
AcDbEntity
  8
寸法
  6
CONTINUOUS
 62
     3
100
AcDbLeader
  3
ISO-25
 76
     3
 10
1169.30986875047
 20
1393.135336693931
 30
0.0
 10
1039.4452054444
 20
1523.0
 30
0.0
 10
811.9762502143008
 20
1523.0
 30
0.0
1001
ACAD
1000
DSTYLE
1002
{
1070
     5
1000
EX_NORM
1070
    41
1040
30.0
1070
   341
1005
4E
1002
}
  0
LEADER
  5
30B
330
1F
100
AcDbEntity
  8
寸法
  6
CONTINUOUS
 62
     3
100
AcDbLeader
  3
ISO-25
 76
     3
 10
1166.3023987
 20
927.2839114973999
 30
0.0
 10
1135.831415713
 20
874.5066208073099
 30
0.0
 10
938.0
 20
874.5066208073099
 30
0.0
1001
ACAD
1000
DSTYLE
1002
{
1070
     5
1000
EX_NORM
1070
    41
1040
30.0
1070
   341
1005
4E
1002
}
  0
TEXT
  5
30C
330
1F
100
AcDbEntity
  8
寸法
  6
CONTINUOUS
 62
     2
100
AcDbText
 10
935.8314163090465
 20
878.0066207477053
 30
0.0
 40
40.0
  1
ＮＬ８１ＤＰ
  7
EXCADSTD
 72
     5
 11
1135.831416309047
 21
878.0066207477053
 31
0.0
100
AcDbText
  0
TEXT
  5
30D
330
1F
100
AcDbEntity
  8
寸法
  6
CONTINUOUS
 62
     2
100
AcDbText
 10
936.6238168373463
 20
660.4999999403954
 30
0.0
 40
40.0
  1
ＮＬ８１ＤＳ
  7
EXCADSTD
 72
     5
 11
1136.623816837346
 21
660.4999999403954
 31
0.0
100
AcDbText
  0
POLYLINE
  5
30E
330
1F
100
AcDbEntity
  8
寸法
  6
CONTINUOUS
 62
     3
100
AcDb2dPolyline
 66
     1
 10
0.0
 20
0.0
 30
0.0
 70
   128
  0
VERTEX
  5
30F
330
30E
100
AcDbEntity
  8
寸法
  6
CONTINUOUS
 62
     3
100
AcDbVertex
100
AcDb2dVertex
 10
1171.1
 20
2038.0
 30
0.0
  0
VERTEX
  5
310
330
30E
100
AcDbEntity
  8
寸法
  6
CONTINUOUS
 62
     3
100
AcDbVertex
100
AcDb2dVertex
 10
1130.45
 20
2078.65
 30
0.0
  0
VERTEX
  5
311
330
30E
100
AcDbEntity
  8
寸法
  6
CONTINUOUS
 62
     3
100
AcDbVertex
100
AcDb2dVertex
 10
1038.7
 20
2078.65
 30
0.0
  0
SEQEND
  5
312
330
30E
100
AcDbEntity
  8
寸法
  6
CONTINUOUS
 62
     3
  0
LINE
  5
313
330
1F
100
AcDbEntity
  8
寸法
  6
CONTINUOUS
 62
     3
100
AcDbLine
 10
1146.351262658471
 20
2055.677669529663
 30
0.0
 11
1171.1
 21
2038.0
 31
0.0
  0
LINE
  5
314
330
1F
100
AcDbEntity
  8
寸法
  6
CONTINUOUS
 62
     3
100
AcDbLine
 10
1171.1
 20
2038.0
 30
0.0
 11
1153.422330470336
 21
2062.748737341529
 31
0.0
  0
TEXT
  5
315
330
1F
100
AcDbEntity
  8
寸法
  6
CONTINUOUS
 62
     2
100
AcDbText
 10
721.8940613
 20
495.4999999999999
 30
0.0
 40
40.0
  1
Ｆ.Ｌ.
 41
0.9692307692307692
  7
EXCADSTD
 72
     5
 11
817.8940613
 21
495.4999999999999
 31
0.0
100
AcDbText
  0
TEXT
  5
316
330
1F
100
AcDbEntity
  8
寸法
  6
CONTINUOUS
 62
     2
100
AcDbText
 10
718.4242431999999
 20
1962.5
 30
0.0
 40
40.0
  1
Ｗ.Ｌ.
 41
0.9692307692307692
  7
EXCADSTD
 72
     5
 11
814.4242431999999
 21
1962.5
 31
0.0
100
AcDbText
  0
TEXT
  5
317
330
1F
100
AcDbEntity
  8
寸法
  6
CONTINUOUS
 62
     2
100
AcDbText
 10
1285.5
 20
1518.4242432
 30
0.0
 40
40.0
  1
Ｗ.Ｌ.
 50
90.0
 41
0.9692307692307692
  7
EXCADSTD
 72
     5
 11
1285.5
 21
1614.4242432
 31
0.0
100
AcDbText
  0
ENDSEC
  0
SECTION
  2
OBJECTS
  0
DICTIONARY
  5
C
330
0
100
AcDbDictionary
  3
ACAD_GROUP
350
D
  3
ACAD_LAYOUT
350
1A
  3
ACAD_MATERIAL
350
3B
  3
ACAD_MLEADERSTYLE
350
33A
  3
ACAD_MLINESTYLE
350
17
  3
ACAD_PLOTSETTINGS
350
19
  3
ACAD_VISUALSTYLE
350
2A
  3
ACDBHEADERROUNDTRIPXREC
350
318
  3
ACDBVARIABLEDICTIONARY
350
338
  0
DICTIONARY
  5
D
102
{ACAD_REACTORS
330
C
102
}
330
C
100
AcDbDictionary
  0
DICTIONARY
  5
1A
102
{ACAD_REACTORS
330
C
102
}
330
C
100
AcDbDictionary
  0
DICTIONARY
  5
3B
102
{ACAD_REACTORS
330
C
102
}
330
C
100
AcDbDictionary
  3
BYBLOCK
350
3D
  3
BYLAYER
350
3C
  3
GLOBAL
350
3E
  0
DICTIONARY
  5
33A
102
{ACAD_REACTORS
330
C
102
}
330
C
100
AcDbDictionary
  0
DICTIONARY
  5
17
102
{ACAD_REACTORS
330
C
102
}
330
C
100
AcDbDictionary
  3
STANDARD
350
18
  0
DICTIONARY
  5
19
102
{ACAD_REACTORS
330
C
102
}
330
C
100
AcDbDictionary
  0
DICTIONARY
  5
2A
102
{ACAD_REACTORS
330
C
102
}
330
C
100
AcDbDictionary
  3
2DWIREFRAME
350
2F
  3
3D_HIDDEN
350
31
  3
3DWIREFRAME
350
30
  3
BASIC
350
32
  3
BRIGHTEN
350
36
  3
COLORCHANGE
350
3A
  3
CONCEPTUAL
350
34
  3
DIM
350
35
  3
FACEPATTERN
350
39
  3
FLAT
350
2B
  3
FLATWITHEDGES
350
2C
  3
GOURAUD
350
2D
  3
GOURAUDWITHEDGES
350
2E
  3
LINEPATTERN
350
38
  3
REALISTIC
350
33
  3
THICKEN
350
37
  0
DICTIONARY
  5
318
102
{ACAD_REACTORS
330
C
102
}
330
C
100
AcDbDictionary
  3
CEPSNTYPE
350
321
  3
DIMSTYLEDATA
350
337
  3
FINGERPRINTGUID
350
322
  3
HYPERLINKBASE
350
31B
  3
INSUNITS
350
320
  3
LAYOUTDICT
350
31D
  3
LWETCUNION
350
31F
  3
PLOTSETDICT
350
31E
  3
PSVPSCALE
350
324
  3
PUCSBASE
350
327
  3
PUCSORGBACK
350
32D
  3
PUCSORGBOTTOM
350
329
  3
PUCSORGFRONT
350
32C
  3
PUCSORGLEFT
350
32A
  3
PUCSORGRIGHT
350
32B
  3
PUCSORGTOP
350
328
  3
PUCSORTHOREF
350
325
  3
PUCSORTHOVIEW
350
326
  3
STYLESHEET
350
31C
  3
TSTACKALIGN
350
319
  3
TSTACKSIZE
350
31A
  3
UCSBASE
350
330
  3
UCSORGBACK
350
336
  3
UCSORGBOTTOM
350
332
  3
UCSORGFRONT
350
335
  3
UCSORGLEFT
350
333
  3
UCSORGRIGHT
350
334
  3
UCSORGTOP
350
331
  3
UCSORTHOREF
350
32E
  3
UCSORTHOVIEW
350
32F
  3
VERSIONGUID
350
323
  0
DICTIONARY
  5
338
102
{ACAD_REACTORS
330
C
102
}
330
C
100
AcDbDictionary
  3
DIMASSOC
350
33D
  3
HIDETEXT
350
33E
  3
PSOLHEIGHT
350
33C
  3
PSOLWIDTH
350
33B
  0
MATERIAL
  5
3D
102
{ACAD_REACTORS
330
3B
102
}
102
{ACAD_XDICTIONARY
360
341
102
}
330
3B
100
AcDbMaterial
  1
ByBlock
  0
MATERIAL
  5
3C
102
{ACAD_REACTORS
330
3B
102
}
102
{ACAD_XDICTIONARY
360
33F
102
}
330
3B
100
AcDbMaterial
  1
ByLayer
  0
MATERIAL
  5
3E
102
{ACAD_REACTORS
330
3B
102
}
102
{ACAD_XDICTIONARY
360
343
102
}
330
3B
100
AcDbMaterial
  1
Global
  0
MLINESTYLE
  5
18
102
{ACAD_REACTORS
330
17
102
}
330
17
100
AcDbMlineStyle
  2
Standard
 70
     0
  3

 62
   256
 51
90.0
 52
90.0
 71
     2
 49
0.5
 62
   256
  6
BYLAYER
 49
-0.5
 62
   256
  6
BYLAYER
  0
ACAD_PROXY_OBJECT
  5
2F
102
{ACAD_REACTORS
330
2A
102
}
330
2A
100
AcDbProxyObject
 90
      499
 91
      501
 93
      436
310
42CC9915DA5C99599C985B595049028333333333333E3BF0000000000000FB0107901411070040501600405405064090741402480A0340
1001
ACAD
1000
AcDbSavedByObjectVersion
1070
     0
  0
ACAD_PROXY_OBJECT
  5
31
102
{ACAD_REACTORS
330
2A
102
}
330
2A
100
AcDbProxyObject
 90
      499
 91
      501
 93
      500
310
424CD108121A5919195B90640502408333333333333E3BF0000000000000FB01079024090700405020000000000001110200405405064090740C02480A0340
1001
ACAD
1000
AcDbSavedByObjectVersion
1070
     0
  0
ACAD_PROXY_OBJECT
  5
30
102
{ACAD_REACTORS
330
2A
102
}
330
2A
100
AcDbProxyObject
 90
      499
 91
      501
 93
      436
310
42CCD915DA5C99599C985B595059028333333333333E3BF0000000000000FB0107901411070040501600405405064090741402480A0340
1001
ACAD
1000
AcDbSavedByObjectVersion
1070
     0
  0
ACAD_PROXY_OBJECT
  5
32
102
{ACAD_REACTORS
330
2A
102
}
330
2A
100
AcDbProxyObject
 90
      499
 91
      501
 93
      388
310
4150985CDA58D07406404333333333333E3BF0000000000000FB0107A41107004050150841D405064090741402480A0350
1001
ACAD
1000
AcDbSavedByObjectVersion
1070
     0
  0
ACAD_PROXY_OBJECT
  5
36
102
{ACAD_REACTORS
330
2A
102
}
330
2A
100
AcDbProxyObject
 90
      499
 91
      501
 93
      428
310
42109C9A59DA1D195B90C409028333333333333E3BF0000000000000FB010790141107004050150841D405064090741402480A029950
1001
ACAD
1000
AcDbSavedByObjectVersion
1070
     0
  0
ACAD_PROXY_OBJECT
  5
3A
102
{ACAD_REACTORS
330
2A
102
}
330
2A
100
AcDbProxyObject
 90
      499
 91
      501
 93
      452
310
42D0DBDB1BDC90DA185B99D95104090240C333333333333E3BF0000000000000FB0108901411070040501508421405064090741402480A0350
1001
ACAD
1000
AcDbSavedByObjectVersion
1070
     0
  0
ACAD_PROXY_OBJECT
  5
34
102
{ACAD_REACTORS
330
2A
102
}
330
2A
100
AcDbProxyObject
 90
      499
 91
      501
 93
      500
310
4290DBDB98D95C1D1D585B10940D028333333333333E3BF0000000000000FB0107902409070040501000000000000111010841D405064090740C02480A0340
1001
ACAD
1000
AcDbSavedByObjectVersion
1070
     0
  0
ACAD_PROXY_OBJECT
  5
35
102
{ACAD_REACTORS
330
2A
102
}
330
2A
100
AcDbProxyObject
 90
      499
 91
      501
 93
      412
310
40D11A5B50B409028333333333333E3BF0000000000000FB010790141107004050150841D405064090741402480A02677FFFFFD0
1001
ACAD
1000
AcDbSavedByObjectVersion
1070
     0
  0
ACAD_PROXY_OBJECT
  5
39
102
{ACAD_REACTORS
330
2A
102
}
330
2A
100
AcDbProxyObject
 90
      499
 91
      501
 93
      444
310
42D19858D95C185D1D195C9B90F409028333333333333E3BF0000000000000FB010790141107004050150841D405064090741402480A0350
1001
ACAD
1000
AcDbSavedByObjectVersion
1070
     0
  0
ACAD_PROXY_OBJECT
  5
2B
102
{ACAD_REACTORS
330
2A
102
}
330
2A
100
AcDbProxyObject
 90
      499
 91
      501
 93
      388
310
41119B185D240901404333333333333E3BF0000000000000F9010740A41107004050150841D405064090741402480A1B50
1001
ACAD
1000
AcDbSavedByObjectVersion
1070
     0
  0
ACAD_PROXY_OBJECT
  5
2C
102
{ACAD_REACTORS
330
2A
102
}
330
2A
100
AcDbProxyObject
 90
      499
 91
      501
 93
      476
310
43519B185D15DA5D1A115919D95CD0140901404333333333333E3BF0000000000000F9010740901411070040501600405405064090741402480A1B50
1001
ACAD
1000
AcDbSavedByObjectVersion
1070
     0
  0
ACAD_PROXY_OBJECT
  5
2D
102
{ACAD_REACTORS
330
2A
102
}
330
2A
100
AcDbProxyObject
 90
      499
 91
      501
 93
      412
310
41D1DBDD5C985D5910240902404333333333333E3BF0000000000000F9010740A411070040501641D405064090741402480A1B50
1001
ACAD
1000
AcDbSavedByObjectVersion
1070
     0
  0
ACAD_PROXY_OBJECT
  5
2E
102
{ACAD_REACTORS
330
2A
102
}
330
2A
100
AcDbProxyObject
 90
      499
 91
      501
 93
      500
310
4411DBDD5C985D5915DA5D1A115919D95CD0340902404333333333333E3BF0000000000000F9010740901411070040501600405405064090741402480A1B50
1001
ACAD
1000
AcDbSavedByObjectVersion
1070
     0
  0
ACAD_PROXY_OBJECT
  5
38
102
{ACAD_REACTORS
330
2A
102
}
330
2A
100
AcDbProxyObject
 90
      499
 91
      501
 93
      444
310
42D31A5B995C185D1D195C9B90E409028333333333333E3BF0000000000000FB010790141107004050750841D405064090741402483A0350
1001
ACAD
1000
AcDbSavedByObjectVersion
1070
     0
  0
ACAD_PROXY_OBJECT
  5
33
102
{ACAD_REACTORS
330
2A
102
}
330
2A
100
AcDbProxyObject
 90
      499
 91
      501
 93
      420
310
425499585B1A5CDD1A58D08409028333333333333E3BF0000000000000FB01079019070040501508421405064090741402480A1B40
1001
ACAD
1000
AcDbSavedByObjectVersion
1070
     0
  0
ACAD_PROXY_OBJECT
  5
37
102
{ACAD_REACTORS
330
2A
102
}
330
2A
100
AcDbProxyObject
 90
      499
 91
      501
 93
      412
310
41D51A1A58DAD95B90D409028333333333333E3BF0000000000000FB010790141107004050150C41D405064090741402480A0350
1001
ACAD
1000
AcDbSavedByObjectVersion
1070
     0
  0
XRECORD
  5
321
102
{ACAD_REACTORS
330
318
102
}
330
318
100
AcDbXrecord
 90
        0
  0
XRECORD
  5
337
102
{ACAD_REACTORS
330
318
102
}
330
318
100
AcDbXrecord
1000
DSTYLE
1002
{
1070
   340
340
11
1002
}
  0
XRECORD
  5
322
102
{ACAD_REACTORS
330
318
102
}
330
318
100
AcDbXrecord
  1
{EE5C7FC1-24C1-48A2-ABFE-6667F8D5D65D}
  0
XRECORD
  5
31B
102
{ACAD_REACTORS
330
318
102
}
330
318
100
AcDbXrecord
  1

  0
XRECORD
  5
320
102
{ACAD_REACTORS
330
318
102
}
330
318
100
AcDbXrecord
 90
        4
  0
XRECORD
  5
31D
102
{ACAD_REACTORS
330
318
102
}
330
318
100
AcDbXrecord
340
1A
  0
XRECORD
  5
31F
102
{ACAD_REACTORS
330
318
102
}
330
318
100
AcDbXrecord
 90
    10781
  0
XRECORD
  5
31E
102
{ACAD_REACTORS
330
318
102
}
330
318
100
AcDbXrecord
340
19
  0
XRECORD
  5
324
102
{ACAD_REACTORS
330
318
102
}
330
318
100
AcDbXrecord
 40
0.0
  0
XRECORD
  5
327
102
{ACAD_REACTORS
330
318
102
}
330
318
100
AcDbXrecord
340
0
  0
XRECORD
  5
32D
102
{ACAD_REACTORS
330
318
102
}
330
318
100
AcDbXrecord
 10
0.0
 20
0.0
 30
0.0
  0
XRECORD
  5
329
102
{ACAD_REACTORS
330
318
102
}
330
318
100
AcDbXrecord
 10
0.0
 20
0.0
 30
0.0
  0
XRECORD
  5
32C
102
{ACAD_REACTORS
330
318
102
}
330
318
100
AcDbXrecord
 10
0.0
 20
0.0
 30
0.0
  0
XRECORD
  5
32A
102
{ACAD_REACTORS
330
318
102
}
330
318
100
AcDbXrecord
 10
0.0
 20
0.0
 30
0.0
  0
XRECORD
  5
32B
102
{ACAD_REACTORS
330
318
102
}
330
318
100
AcDbXrecord
 10
0.0
 20
0.0
 30
0.0
  0
XRECORD
  5
328
102
{ACAD_REACTORS
330
318
102
}
330
318
100
AcDbXrecord
 10
0.0
 20
0.0
 30
0.0
  0
XRECORD
  5
325
102
{ACAD_REACTORS
330
318
102
}
330
318
100
AcDbXrecord
340
0
  0
XRECORD
  5
326
102
{ACAD_REACTORS
330
318
102
}
330
318
100
AcDbXrecord
 70
     0
  0
XRECORD
  5
31C
102
{ACAD_REACTORS
330
318
102
}
330
318
100
AcDbXrecord
  1

  0
XRECORD
  5
319
102
{ACAD_REACTORS
330
318
102
}
330
318
100
AcDbXrecord
 90
        1
  0
XRECORD
  5
31A
102
{ACAD_REACTORS
330
318
102
}
330
318
100
AcDbXrecord
 90
       70
  0
XRECORD
  5
330
102
{ACAD_REACTORS
330
318
102
}
330
318
100
AcDbXrecord
340
0
  0
XRECORD
  5
336
102
{ACAD_REACTORS
330
318
102
}
330
318
100
AcDbXrecord
 10
0.0
 20
0.0
 30
0.0
  0
XRECORD
  5
332
102
{ACAD_REACTORS
330
318
102
}
330
318
100
AcDbXrecord
 10
0.0
 20
0.0
 30
0.0
  0
XRECORD
  5
335
102
{ACAD_REACTORS
330
318
102
}
330
318
100
AcDbXrecord
 10
0.0
 20
0.0
 30
0.0
  0
XRECORD
  5
333
102
{ACAD_REACTORS
330
318
102
}
330
318
100
AcDbXrecord
 10
0.0
 20
0.0
 30
0.0
  0
XRECORD
  5
334
102
{ACAD_REACTORS
330
318
102
}
330
318
100
AcDbXrecord
 10
0.0
 20
0.0
 30
0.0
  0
XRECORD
  5
331
102
{ACAD_REACTORS
330
318
102
}
330
318
100
AcDbXrecord
 10
0.0
 20
0.0
 30
0.0
  0
XRECORD
  5
32E
102
{ACAD_REACTORS
330
318
102
}
330
318
100
AcDbXrecord
340
0
  0
XRECORD
  5
32F
102
{ACAD_REACTORS
330
318
102
}
330
318
100
AcDbXrecord
 70
     0
  0
XRECORD
  5
323
102
{ACAD_REACTORS
330
318
102
}
330
318
100
AcDbXrecord
  1
{FAEB1C32-E019-11D5-929B-00C0DF256EC4}
  0
DICTIONARYVAR
  5
33D
102
{ACAD_REACTORS
330
338
102
}
330
338
100
DictionaryVariables
280
     0
  1
2
  0
DICTIONARYVAR
  5
33E
102
{ACAD_REACTORS
330
338
102
}
330
338
100
DictionaryVariables
280
     0
  1
1
  0
DICTIONARYVAR
  5
33C
102
{ACAD_REACTORS
330
338
102
}
330
338
100
DictionaryVariables
280
     0
  1
80.000000
  0
DICTIONARYVAR
  5
33B
102
{ACAD_REACTORS
330
338
102
}
330
338
100
DictionaryVariables
280
     0
  1
5.000000
  0
DICTIONARY
  5
341
330
3D
100
AcDbDictionary
280
     1
  3
ACAD_XREC_ROUNDTRIP
360
342
  0
DICTIONARY
  5
33F
330
3C
100
AcDbDictionary
280
     1
  3
ACAD_XREC_ROUNDTRIP
360
340
  0
DICTIONARY
  5
343
330
3E
100
AcDbDictionary
280
     1
  3
ACAD_XREC_ROUNDTRIP
360
344
  0
XRECORD
  5
342
102
{ACAD_REACTORS
330
341
102
}
330
341
100
AcDbXrecord
102
MATERIAL
148
0.0
149
0.0
149
0.0
 93
        0
 94
      127
282
     0
 72
     1
 77
     1
171
     1
175
     1
179
     1
273
     0
  0
XRECORD
  5
340
102
{ACAD_REACTORS
330
33F
102
}
330
33F
100
AcDbXrecord
102
MATERIAL
148
0.0
149
0.0
149
0.0
 93
        0
 94
      127
282
     0
 72
     1
 77
     1
171
     1
175
     1
179
     1
273
     0
  0
XRECORD
  5
344
102
{ACAD_REACTORS
330
343
102
}
330
343
100
AcDbXrecord
102
MATERIAL
148
0.0
149
0.0
149
0.0
 93
        0
 94
      127
282
     0
 72
     1
 77
     1
171
     1
175
     1
179
     1
273
     0
  0
ENDSEC
  0
EOF
