  0
SECTION
  2
HEADER
  9
$ACADVER
  1
AC1014
  9
$ACADMAINTVER
 70
     9
  9
$DWGCODEPAGE
  3
ANSI_932
  9
$INSBASE
 10
0.0
 20
0.0
 30
0.0
  9
$EXTMIN
 10
17.9
 20
11.5
 30
0.0
  9
$EXTMAX
 10
199.9
 20
291.5
 30
0.0
  9
$LIMMIN
 10
0.0
 20
0.0
  9
$LIMMAX
 10
210.0
 20
297.0
  9
$ORTHOMODE
 70
     0
  9
$REGENMODE
 70
     1
  9
$FILLMODE
 70
     1
  9
$QTEXTMODE
 70
     0
  9
$MIRRTEXT
 70
     1
  9
$DRAGMODE
 70
     2
  9
$LTSCALE
 40
1.0
  9
$OSMODE
 70
    37
  9
$ATTMODE
 70
     1
  9
$TEXTSIZE
 40
2.5
  9
$TRACEWID
 40
1.0
  9
$TEXTSTYLE
  7
STANDARD
  9
$CLAYER
  8
図
  9
$CELTYPE
  6
BYLAYER
  9
$CECOLOR
 62
   256
  9
$CELTSCALE
 40
1.0
  9
$DELOBJ
 70
     1
  9
$DISPSILH
 70
     0
  9
$DIMSCALE
 40
1.0
  9
$DIMASZ
 40
2.5
  9
$DIMEXO
 40
0.625
  9
$DIMDLI
 40
3.75
  9
$DIMRND
 40
0.0
  9
$DIMDLE
 40
0.0
  9
$DIMEXE
 40
1.25
  9
$DIMTP
 40
0.0
  9
$DIMTM
 40
0.0
  9
$DIMTXT
 40
2.5
  9
$DIMCEN
 40
2.5
  9
$DIMTSZ
 40
0.0
  9
$DIMTOL
 70
     0
  9
$DIMLIM
 70
     0
  9
$DIMTIH
 70
     0
  9
$DIMTOH
 70
     0
  9
$DIMSE1
 70
     0
  9
$DIMSE2
 70
     0
  9
$DIMTAD
 70
     1
  9
$DIMZIN
 70
     8
  9
$DIMBLK
  1

  9
$DIMASO
 70
     1
  9
$DIMSHO
 70
     1
  9
$DIMPOST
  1

  9
$DIMAPOST
  1

  9
$DIMALT
 70
     0
  9
$DIMALTD
 70
     3
  9
$DIMALTF
 40
0.03937007874016
  9
$DIMLFAC
 40
1.0
  9
$DIMTOFL
 70
     1
  9
$DIMTVP
 40
0.0
  9
$DIMTIX
 70
     0
  9
$DIMSOXD
 70
     0
  9
$DIMSAH
 70
     0
  9
$DIMBLK1
  1

  9
$DIMBLK2
  1

  9
$DIMSTYLE
  2
ISO-25
  9
$DIMCLRD
 70
     0
  9
$DIMCLRE
 70
     0
  9
$DIMCLRT
 70
     0
  9
$DIMTFAC
 40
1.0
  9
$DIMGAP
 40
0.625
  9
$DIMJUST
 70
     0
  9
$DIMSD1
 70
     0
  9
$DIMSD2
 70
     0
  9
$DIMTOLJ
 70
     0
  9
$DIMTZIN
 70
     8
  9
$DIMALTZ
 70
     0
  9
$DIMALTTZ
 70
     0
  9
$DIMFIT
 70
     3
  9
$DIMUPT
 70
     0
  9
$DIMUNIT
 70
     2
  9
$DIMDEC
 70
     2
  9
$DIMTDEC
 70
     2
  9
$DIMALTU
 70
     2
  9
$DIMALTTD
 70
     3
  9
$DIMTXSTY
  7
STANDARD
  9
$DIMAUNIT
 70
     0
  9
$LUNITS
 70
     2
  9
$LUPREC
 70
     4
  9
$SKETCHINC
 40
1.0
  9
$FILLETRAD
 40
10.0
  9
$AUNITS
 70
     0
  9
$AUPREC
 70
     0
  9
$MENU
  1
.
  9
$ELEVATION
 40
0.0
  9
$PELEVATION
 40
0.0
  9
$THICKNESS
 40
0.0
  9
$LIMCHECK
 70
     0
  9
$CHAMFERA
 40
10.0
  9
$CHAMFERB
 40
10.0
  9
$CHAMFERC
 40
20.0
  9
$CHAMFERD
 40
0.0
  9
$SKPOLY
 70
     0
  9
$TDCREATE
 40
2457915.116242026
  9
$TDUPDATE
 40
2457915.116242026
  9
$TDINDWG
 40
0.0000000116
  9
$TDUSRTIMER
 40
0.0000000116
  9
$USRTIMER
 70
     1
  9
$ANGBASE
 50
0.0
  9
$ANGDIR
 70
     0
  9
$PDMODE
 70
     0
  9
$PDSIZE
 40
0.0
  9
$PLINEWID
 40
0.0
  9
$COORDS
 70
     1
  9
$SPLFRAME
 70
     0
  9
$SPLINETYPE
 70
     6
  9
$SPLINESEGS
 70
     8
  9
$ATTDIA
 70
     0
  9
$ATTREQ
 70
     1
  9
$HANDLING
 70
     1
  9
$HANDSEED
  5
365
  9
$SURFTAB1
 70
     6
  9
$SURFTAB2
 70
     6
  9
$SURFTYPE
 70
     6
  9
$SURFU
 70
     6
  9
$SURFV
 70
     6
  9
$UCSNAME
  2

  9
$UCSORG
 10
0.0
 20
0.0
 30
0.0
  9
$UCSXDIR
 10
1.0
 20
0.0
 30
0.0
  9
$UCSYDIR
 10
0.0
 20
1.0
 30
0.0
  9
$PUCSNAME
  2

  9
$PUCSORG
 10
0.0
 20
0.0
 30
0.0
  9
$PUCSXDIR
 10
1.0
 20
0.0
 30
0.0
  9
$PUCSYDIR
 10
0.0
 20
1.0
 30
0.0
  9
$USERI1
 70
     0
  9
$USERI2
 70
     0
  9
$USERI3
 70
     0
  9
$USERI4
 70
     0
  9
$USERI5
 70
     0
  9
$USERR1
 40
0.0
  9
$USERR2
 40
0.0
  9
$USERR3
 40
0.0
  9
$USERR4
 40
0.0
  9
$USERR5
 40
0.0
  9
$WORLDVIEW
 70
     1
  9
$SHADEDGE
 70
     3
  9
$SHADEDIF
 70
    70
  9
$TILEMODE
 70
     1
  9
$MAXACTVP
 70
    64
  9
$PINSBASE
 10
0.0
 20
0.0
 30
0.0
  9
$PLIMCHECK
 70
     0
  9
$PEXTMIN
 10
1.000000000000000E+20
 20
1.000000000000000E+20
 30
1.000000000000000E+20
  9
$PEXTMAX
 10
-1.000000000000000E+20
 20
-1.000000000000000E+20
 30
-1.000000000000000E+20
  9
$PLIMMIN
 10
0.0
 20
0.0
  9
$PLIMMAX
 10
420.0
 20
297.0
  9
$UNITMODE
 70
     0
  9
$VISRETAIN
 70
     1
  9
$PLINEGEN
 70
     0
  9
$PSLTSCALE
 70
     1
  9
$TREEDEPTH
 70
  3020
  9
$PICKSTYLE
 70
     1
  9
$CMLSTYLE
  2
STANDARD
  9
$CMLJUST
 70
     0
  9
$CMLSCALE
 40
20.0
  9
$PROXYGRAPHICS
 70
     1
  9
$MEASUREMENT
 70
     1
  0
ENDSEC
  0
SECTION
  2
CLASSES
  0
CLASS
  1
ACDBDICTIONARYWDFLT
  2
AcDbDictionaryWithDefault
  3
ObjectDBX Classes
 90
        0
280
     0
281
     0
  0
CLASS
  1
VISUALSTYLE
  2
AcDbVisualStyle
  3
ObjectDBX Classes
 90
     4095
280
     0
281
     0
  0
CLASS
  1
MATERIAL
  2
AcDbMaterial
  3
ObjectDBX Classes
 90
     1153
280
     0
281
     0
  0
CLASS
  1
SUN
  2
AcDbSun
  3
SCENEOE
 90
     1024
280
     0
281
     0
  0
CLASS
  1
DICTIONARYVAR
  2
AcDbDictionaryVar
  3
ObjectDBX Classes
 90
        0
280
     0
281
     0
  0
CLASS
  1
XRECORD
  2
AcDbXrecord
  3
AutoCAD 2000
 90
        0
280
     0
281
     0
  0
CLASS
  1
LWPOLYLINE
  2
AcDbPolyline
  3
AutoCAD 2000
 90
        0
280
     0
281
     1
  0
CLASS
  1
HATCH
  2
AcDbHatch
  3
AutoCAD 2000
 90
        0
280
     0
281
     1
  0
CLASS
  1
ACDBPLACEHOLDER
  2
AcDbPlaceHolder
  3
ObjectDBX Classes
 90
        0
280
     0
281
     0
  0
CLASS
  1
LAYOUT
  2
AcDbLayout
  3
ObjectDBX Classes
 90
        0
280
     0
281
     0
  0
ENDSEC
  0
SECTION
  2
TABLES
  0
TABLE
  2
VPORT
  5
8
330
0
100
AcDbSymbolTable
 70
     1
  0
VPORT
  5
29
330
8
100
AcDbSymbolTableRecord
100
AcDbViewportTableRecord
  2
*ACTIVE
 70
     0
 10
0.0
 20
0.0
 11
1.0
 21
1.0
 12
544.5
 22
757.5
 13
0.0
 23
0.0
 14
10.0
 24
10.0
 15
10.0
 25
10.0
 16
0.0
 26
0.0
 36
1.0
 17
0.0
 27
0.0
 37
0.0
 40
1400.0
 41
0.65
 42
50.0
 43
0.0
 44
0.0
 50
0.0
 51
0.0
 71
     0
 72
  1000
 73
     1
 74
     3
 75
     0
 76
     0
 77
     0
 78
     0
  0
ENDTAB
  0
TABLE
  2
LTYPE
  5
5
330
0
100
AcDbSymbolTable
 70
     7
  0
LTYPE
  5
14
330
5
100
AcDbSymbolTableRecord
100
AcDbLinetypeTableRecord
  2
BYBLOCK
 70
     0
  3

 72
    65
 73
     0
 40
0.0
  0
LTYPE
  5
15
330
5
100
AcDbSymbolTableRecord
100
AcDbLinetypeTableRecord
  2
BYLAYER
 70
     0
  3

 72
    65
 73
     0
 40
0.0
  0
LTYPE
  5
16
330
5
100
AcDbSymbolTableRecord
100
AcDbLinetypeTableRecord
  2
CONTINUOUS
 70
     0
  3
Solid line
 72
    65
 73
     0
 40
0.0
  0
LTYPE
  5
40
330
5
100
AcDbSymbolTableRecord
100
AcDbLinetypeTableRecord
  2
EXLTYPE1
 70
     0
  3
破線
 72
    65
 73
     2
 40
3.0
 49
2.0
 74
     0
 49
-1.0
 74
     0
  0
LTYPE
  5
41
330
5
100
AcDbSymbolTableRecord
100
AcDbLinetypeTableRecord
  2
EXLTYPE2
 70
     0
  3
点線
 72
    65
 73
     2
 40
2.0
 49
1.0
 74
     0
 49
-1.0
 74
     0
  0
LTYPE
  5
42
330
5
100
AcDbSymbolTableRecord
100
AcDbLinetypeTableRecord
  2
EXLTYPE3
 70
     0
  3
一点鎖線
 72
    65
 73
     4
 40
10.0
 49
7.0
 74
     0
 49
-1.0
 74
     0
 49
1.0
 74
     0
 49
-1.0
 74
     0
  0
LTYPE
  5
43
330
5
100
AcDbSymbolTableRecord
100
AcDbLinetypeTableRecord
  2
EXLTYPE4
 70
     0
  3
二点鎖線
 72
    65
 73
     6
 40
12.0
 49
7.0
 74
     0
 49
-1.0
 74
     0
 49
1.0
 74
     0
 49
-1.0
 74
     0
 49
1.0
 74
     0
 49
-1.0
 74
     0
  0
LTYPE
  5
44
330
5
100
AcDbSymbolTableRecord
100
AcDbLinetypeTableRecord
  2
EXLTYPE5
 70
     0
  3
三点鎖線
 72
    65
 73
     8
 40
37.0
 49
30.0
 74
     0
 49
-1.0
 74
     0
 49
1.0
 74
     0
 49
-1.0
 74
     0
 49
1.0
 74
     0
 49
-1.0
 74
     0
 49
1.0
 74
     0
 49
-1.0
 74
     0
  0
LTYPE
  5
45
330
5
100
AcDbSymbolTableRecord
100
AcDbLinetypeTableRecord
  2
EXLTYPE6
 70
     0
  3
四点鎖線
 72
    65
 73
    10
 40
39.0
 49
30.0
 74
     0
 49
-1.0
 74
     0
 49
1.0
 74
     0
 49
-1.0
 74
     0
 49
1.0
 74
     0
 49
-1.0
 74
     0
 49
1.0
 74
     0
 49
-1.0
 74
     0
 49
1.0
 74
     0
 49
-1.0
 74
     0
  0
ENDTAB
  0
TABLE
  2
LAYER
  5
2
330
0
100
AcDbSymbolTable
 70
     5
  0
LAYER
  5
10
330
2
100
AcDbSymbolTableRecord
100
AcDbLayerTableRecord
  2
0
 70
     0
 62
     7
  6
CONTINUOUS
  0
LAYER
  5
48
330
2
100
AcDbSymbolTableRecord
100
AcDbLayerTableRecord
  2
LAY-1
 70
     0
 62
     7
  6
CONTINUOUS
  0
LAYER
  5
49
330
2
100
AcDbSymbolTableRecord
100
AcDbLayerTableRecord
  2
図
 70
     0
 62
     7
  6
CONTINUOUS
  0
LAYER
  5
4A
330
2
100
AcDbSymbolTableRecord
100
AcDbLayerTableRecord
  2
寸法
 70
     0
 62
     7
  6
CONTINUOUS
  0
LAYER
  5
2AA
330
2
100
AcDbSymbolTableRecord
100
AcDbLayerTableRecord
  2
DEFPOINTS
 70
     0
 62
     7
  6
CONTINUOUS
  0
ENDTAB
  0
TABLE
  2
STYLE
  5
3
330
0
100
AcDbSymbolTable
 70
     4
  0
STYLE
  5
11
330
3
100
AcDbSymbolTableRecord
100
AcDbTextStyleTableRecord
  2
STANDARD
 70
     0
 40
0.0
 41
1.0
 50
0.0
 71
     0
 42
2.5
  3
monotxt
  4
extfont
  0
STYLE
  5
46
330
3
100
AcDbSymbolTableRecord
100
AcDbTextStyleTableRecord
  2
EXCADSTD
 70
     0
 40
0.0
 41
1.0
 50
0.0
 71
     0
 42
0.2
  3
monotxt
  4
extfont
  0
STYLE
  5
47
330
3
100
AcDbSymbolTableRecord
100
AcDbTextStyleTableRecord
  2
EXCADVERT
 70
     4
 40
0.0
 41
1.0
 50
0.0
 71
     0
 42
0.286885
  3
monotxt
  4
extfont
  0
STYLE
  5
2A8
330
3
100
AcDbSymbolTableRecord
100
AcDbTextStyleTableRecord
  2
EXCADDIM1
 70
     0
 40
0.0
 41
0.95
 50
0.0
 71
     0
 42
0.2
  3
monotxt
  4
extfont
  0
ENDTAB
  0
TABLE
  2
VIEW
  5
6
330
0
100
AcDbSymbolTable
 70
     0
  0
ENDTAB
  0
TABLE
  2
UCS
  5
7
330
0
100
AcDbSymbolTable
 70
     0
  0
ENDTAB
  0
TABLE
  2
APPID
  5
9
330
0
100
AcDbSymbolTable
 70
     1
  0
APPID
  5
12
330
9
100
AcDbSymbolTableRecord
100
AcDbRegAppTableRecord
  2
ACAD
 70
     0
  0
ENDTAB
  0
TABLE
  2
DIMSTYLE
  5
A
330
0
100
AcDbSymbolTable
 70
     1
  0
DIMSTYLE
105
27
102
{ACAD_REACTORS
330
2A9
330
2B7
330
2C4
330
2D1
330
2DD
330
2EA
102
}
330
A
100
AcDbSymbolTableRecord
100
AcDbDimStyleTableRecord
  2
ISO-25
 70
     0
  3

  4

  5

  6

  7

 40
1.0
 41
2.5
 42
0.625
 43
3.75
 44
1.25
 45
0.0
 46
0.0
 47
0.0
 48
0.0
140
2.5
141
2.5
142
0.0
143
0.03937007874016
144
1.0
145
0.0
146
1.0
147
0.625
 71
     0
 72
     0
 73
     0
 74
     0
 75
     0
 76
     0
 77
     1
 78
     8
170
     0
171
     3
172
     1
173
     0
174
     0
175
     0
176
     0
177
     0
178
     0
270
     2
271
     2
272
     2
273
     2
274
     3
340
11
275
     0
280
     0
281
     0
282
     0
283
     0
284
     8
285
     0
286
     0
287
     5
288
     0
  0
ENDTAB
  0
TABLE
  2
BLOCK_RECORD
  5
1
330
0
100
AcDbSymbolTable
 70
    21
  0
BLOCK_RECORD
  5
1F
330
1
100
AcDbSymbolTableRecord
100
AcDbBlockTableRecord
  2
*MODEL_SPACE
  0
BLOCK_RECORD
  5
1B
330
1
100
AcDbSymbolTableRecord
100
AcDbBlockTableRecord
  2
*PAPER_SPACE
  0
BLOCK_RECORD
  5
4B
330
1
100
AcDbSymbolTableRecord
100
AcDbBlockTableRecord
  2
EX_NORM
  0
BLOCK_RECORD
  5
4E
330
1
100
AcDbSymbolTableRecord
100
AcDbBlockTableRecord
  2
EX_BNORM
  0
BLOCK_RECORD
  5
51
330
1
100
AcDbSymbolTableRecord
100
AcDbBlockTableRecord
  2
EX_BCIR
  0
BLOCK_RECORD
  5
54
330
1
100
AcDbSymbolTableRecord
100
AcDbBlockTableRecord
  2
EX_RCIVIL
  0
BLOCK_RECORD
  5
57
330
1
100
AcDbSymbolTableRecord
100
AcDbBlockTableRecord
  2
EX_SLANT
  0
BLOCK_RECORD
  5
5A
330
1
100
AcDbSymbolTableRecord
100
AcDbBlockTableRecord
  2
EX_NONE
  0
BLOCK_RECORD
  5
5D
330
1
100
AcDbSymbolTableRecord
100
AcDbBlockTableRecord
  2
EX_CIVIL
  0
BLOCK_RECORD
  5
60
330
1
100
AcDbSymbolTableRecord
100
AcDbBlockTableRecord
  2
EX_WCIR
  0
BLOCK_RECORD
  5
63
330
1
100
AcDbSymbolTableRecord
100
AcDbBlockTableRecord
  2
EX_WCIR2
  0
BLOCK_RECORD
  5
66
330
1
100
AcDbSymbolTableRecord
100
AcDbBlockTableRecord
  2
EX_WNORM
  0
BLOCK_RECORD
  5
69
330
1
100
AcDbSymbolTableRecord
100
AcDbBlockTableRecord
  2
EX_NNORM
  0
BLOCK_RECORD
  5
6C
330
1
100
AcDbSymbolTableRecord
100
AcDbBlockTableRecord
  2
EX_BBOX
  0
BLOCK_RECORD
  5
6F
330
1
100
AcDbSymbolTableRecord
100
AcDbBlockTableRecord
  2
EX_WBOX
  0
BLOCK_RECORD
  5
72
330
1
100
AcDbSymbolTableRecord
100
AcDbBlockTableRecord
  2
EX_INTEGRAL
  0
BLOCK_RECORD
  5
2AB
330
1
100
AcDbSymbolTableRecord
100
AcDbBlockTableRecord
  2
*D15
  0
BLOCK_RECORD
  5
2B8
330
1
100
AcDbSymbolTableRecord
100
AcDbBlockTableRecord
  2
*D16
  0
BLOCK_RECORD
  5
2C5
330
1
100
AcDbSymbolTableRecord
100
AcDbBlockTableRecord
  2
*D17
  0
BLOCK_RECORD
  5
2D2
330
1
100
AcDbSymbolTableRecord
100
AcDbBlockTableRecord
  2
*D18
  0
BLOCK_RECORD
  5
2DE
330
1
100
AcDbSymbolTableRecord
100
AcDbBlockTableRecord
  2
*D19
  0
BLOCK_RECORD
  5
2EB
330
1
100
AcDbSymbolTableRecord
100
AcDbBlockTableRecord
  2
*D20
  0
ENDTAB
  0
ENDSEC
  0
SECTION
  2
BLOCKS
  0
BLOCK
  5
20
330
1F
100
AcDbEntity
  8
0
100
AcDbBlockBegin
  2
*MODEL_SPACE
 70
     0
 10
0.0
 20
0.0
 30
0.0
  3
*MODEL_SPACE
  1

  0
ENDBLK
  5
21
330
1F
100
AcDbEntity
  8
0
100
AcDbBlockEnd
  0
BLOCK
  5
1C
330
1B
100
AcDbEntity
 67
     1
  8
0
100
AcDbBlockBegin
  2
*PAPER_SPACE
 70
     0
 10
0.0
 20
0.0
 30
0.0
  3
*PAPER_SPACE
  1

  0
ENDBLK
  5
1D
330
1B
100
AcDbEntity
 67
     1
  8
0
100
AcDbBlockEnd
  0
BLOCK
  5
4C
330
4B
100
AcDbEntity
  8
0
100
AcDbBlockBegin
  2
EX_NORM
 70
     0
 10
0.0
 20
0.0
 30
0.0
  3
EX_NORM
  1

  0
LINE
  5
75
330
4B
100
AcDbEntity
  8
0
  6
CONTINUOUS
 62
     0
100
AcDbLine
 10
0.0
 20
0.0
 30
0.0
 11
-1.0
 21
0.0
 31
0.0
  0
LINE
  5
76
330
4B
100
AcDbEntity
  8
0
  6
CONTINUOUS
 62
     0
100
AcDbLine
 10
0.0
 20
0.0
 30
0.0
 11
-1.0
 21
0.166666667
 31
0.0
  0
LINE
  5
77
330
4B
100
AcDbEntity
  8
0
  6
CONTINUOUS
 62
     0
100
AcDbLine
 10
0.0
 20
0.0
 30
0.0
 11
-1.0
 21
-0.166666667
 31
0.0
  0
ENDBLK
  5
4D
330
4B
100
AcDbEntity
  8
0
100
AcDbBlockEnd
  0
BLOCK
  5
4F
330
4E
100
AcDbEntity
  8
0
100
AcDbBlockBegin
  2
EX_BNORM
 70
     0
 10
0.0
 20
0.0
 30
0.0
  3
EX_BNORM
  1

  0
LINE
  5
78
330
4E
100
AcDbEntity
  8
0
  6
CONTINUOUS
 62
     0
100
AcDbLine
 10
0.0
 20
0.0
 30
0.0
 11
-1.0
 21
0.0
 31
0.0
  0
LINE
  5
79
330
4E
100
AcDbEntity
  8
0
  6
CONTINUOUS
 62
     0
100
AcDbLine
 10
0.0
 20
0.0
 30
0.0
 11
-1.0
 21
0.166666667
 31
0.0
  0
LINE
  5
7A
330
4E
100
AcDbEntity
  8
0
  6
CONTINUOUS
 62
     0
100
AcDbLine
 10
0.0
 20
0.0
 30
0.0
 11
-1.0
 21
-0.166666667
 31
0.0
  0
LINE
  5
7B
330
4E
100
AcDbEntity
  8
0
  6
CONTINUOUS
 62
     0
100
AcDbLine
 10
0.0
 20
0.0
 30
0.0
 11
-1.0
 21
0.083333333
 31
0.0
  0
LINE
  5
7C
330
4E
100
AcDbEntity
  8
0
  6
CONTINUOUS
 62
     0
100
AcDbLine
 10
0.0
 20
0.0
 30
0.0
 11
-1.0
 21
-0.083333333
 31
0.0
  0
LINE
  5
7D
330
4E
100
AcDbEntity
  8
0
  6
CONTINUOUS
 62
     0
100
AcDbLine
 10
-1.0
 20
0.166666667
 30
0.0
 11
-1.0
 21
-0.166666667
 31
0.0
  0
ENDBLK
  5
50
330
4E
100
AcDbEntity
  8
0
100
AcDbBlockEnd
  0
BLOCK
  5
52
330
51
100
AcDbEntity
  8
0
100
AcDbBlockBegin
  2
EX_BCIR
 70
     0
 10
0.0
 20
0.0
 30
0.0
  3
EX_BCIR
  1

  0
LINE
  5
7E
330
51
100
AcDbEntity
  8
0
  6
CONTINUOUS
 62
     0
100
AcDbLine
 10
0.0
 20
0.0
 30
0.0
 11
-1.0
 21
0.0
 31
0.0
  0
CIRCLE
  5
7F
330
51
100
AcDbEntity
  8
0
  6
CONTINUOUS
 62
     0
100
AcDbCircle
 10
0.0
 20
0.0
 30
0.0
 40
0.5
  0
CIRCLE
  5
80
330
51
100
AcDbEntity
  8
0
  6
CONTINUOUS
 62
     0
100
AcDbCircle
 10
0.0
 20
0.0
 30
0.0
 40
0.25
  0
ENDBLK
  5
53
330
51
100
AcDbEntity
  8
0
100
AcDbBlockEnd
  0
BLOCK
  5
55
330
54
100
AcDbEntity
  8
0
100
AcDbBlockBegin
  2
EX_RCIVIL
 70
     0
 10
0.0
 20
0.0
 30
0.0
  3
EX_RCIVIL
  1

  0
LINE
  5
81
330
54
100
AcDbEntity
  8
0
  6
CONTINUOUS
 62
     0
100
AcDbLine
 10
0.0
 20
0.0
 30
0.0
 11
-1.0
 21
0.0
 31
0.0
  0
LINE
  5
82
330
54
100
AcDbEntity
  8
0
  6
CONTINUOUS
 62
     0
100
AcDbLine
 10
-1.0
 20
-0.25
 30
0.0
 11
0.0
 21
-0.25
 31
0.0
  0
LINE
  5
83
330
54
100
AcDbEntity
  8
0
  6
CONTINUOUS
 62
     0
100
AcDbLine
 10
-1.0
 20
-0.125
 30
0.0
 11
0.0
 21
-0.125
 31
0.0
  0
ENDBLK
  5
56
330
54
100
AcDbEntity
  8
0
100
AcDbBlockEnd
  0
BLOCK
  5
58
330
57
100
AcDbEntity
  8
0
100
AcDbBlockBegin
  2
EX_SLANT
 70
     0
 10
0.0
 20
0.0
 30
0.0
  3
EX_SLANT
  1

  0
LINE
  5
84
330
57
100
AcDbEntity
  8
0
  6
CONTINUOUS
 62
     0
100
AcDbLine
 10
0.0
 20
0.0
 30
0.0
 11
-1.0
 21
0.0
 31
0.0
  0
LINE
  5
85
330
57
100
AcDbEntity
  8
0
  6
CONTINUOUS
 62
     0
100
AcDbLine
 10
0.707106781
 20
0.707106781
 30
0.0
 11
-0.707106781
 21
-0.707106781
 31
0.0
  0
ENDBLK
  5
59
330
57
100
AcDbEntity
  8
0
100
AcDbBlockEnd
  0
BLOCK
  5
5B
330
5A
100
AcDbEntity
  8
0
100
AcDbBlockBegin
  2
EX_NONE
 70
     0
 10
0.0
 20
0.0
 30
0.0
  3
EX_NONE
  1

  0
LINE
  5
86
330
5A
100
AcDbEntity
  8
0
  6
CONTINUOUS
 62
     0
100
AcDbLine
 10
0.0
 20
0.0
 30
0.0
 11
-1.0
 21
0.0
 31
0.0
  0
ENDBLK
  5
5C
330
5A
100
AcDbEntity
  8
0
100
AcDbBlockEnd
  0
BLOCK
  5
5E
330
5D
100
AcDbEntity
  8
0
100
AcDbBlockBegin
  2
EX_CIVIL
 70
     0
 10
0.0
 20
0.0
 30
0.0
  3
EX_CIVIL
  1

  0
LINE
  5
87
330
5D
100
AcDbEntity
  8
0
  6
CONTINUOUS
 62
     0
100
AcDbLine
 10
0.0
 20
0.0
 30
0.0
 11
-1.0
 21
0.0
 31
0.0
  0
LINE
  5
88
330
5D
100
AcDbEntity
  8
0
  6
CONTINUOUS
 62
     0
100
AcDbLine
 10
-1.0
 20
0.25
 30
0.0
 11
0.0
 21
0.25
 31
0.0
  0
LINE
  5
89
330
5D
100
AcDbEntity
  8
0
  6
CONTINUOUS
 62
     0
100
AcDbLine
 10
-1.0
 20
0.125
 30
0.0
 11
0.0
 21
0.125
 31
0.0
  0
ENDBLK
  5
5F
330
5D
100
AcDbEntity
  8
0
100
AcDbBlockEnd
  0
BLOCK
  5
61
330
60
100
AcDbEntity
  8
0
100
AcDbBlockBegin
  2
EX_WCIR
 70
     0
 10
0.0
 20
0.0
 30
0.0
  3
EX_WCIR
  1

  0
LINE
  5
8A
330
60
100
AcDbEntity
  8
0
  6
CONTINUOUS
 62
     0
100
AcDbLine
 10
0.0
 20
0.0
 30
0.0
 11
-1.0
 21
0.0
 31
0.0
  0
CIRCLE
  5
8B
330
60
100
AcDbEntity
  8
0
  6
CONTINUOUS
 62
     0
100
AcDbCircle
 10
0.0
 20
0.0
 30
0.0
 40
0.5
  0
ENDBLK
  5
62
330
60
100
AcDbEntity
  8
0
100
AcDbBlockEnd
  0
BLOCK
  5
64
330
63
100
AcDbEntity
  8
0
100
AcDbBlockBegin
  2
EX_WCIR2
 70
     0
 10
0.0
 20
0.0
 30
0.0
  3
EX_WCIR2
  1

  0
LINE
  5
8C
330
63
100
AcDbEntity
  8
0
  6
CONTINUOUS
 62
     0
100
AcDbLine
 10
-0.5
 20
0.0
 30
0.0
 11
-1.0
 21
0.0
 31
0.0
  0
CIRCLE
  5
8D
330
63
100
AcDbEntity
  8
0
  6
CONTINUOUS
 62
     0
100
AcDbCircle
 10
0.0
 20
0.0
 30
0.0
 40
0.5
  0
ENDBLK
  5
65
330
63
100
AcDbEntity
  8
0
100
AcDbBlockEnd
  0
BLOCK
  5
67
330
66
100
AcDbEntity
  8
0
100
AcDbBlockBegin
  2
EX_WNORM
 70
     0
 10
0.0
 20
0.0
 30
0.0
  3
EX_WNORM
  1

  0
LINE
  5
8E
330
66
100
AcDbEntity
  8
0
  6
CONTINUOUS
 62
     0
100
AcDbLine
 10
-1.0
 20
0.0
 30
0.0
 11
-1.0
 21
0.0
 31
0.0
  0
LINE
  5
8F
330
66
100
AcDbEntity
  8
0
  6
CONTINUOUS
 62
     0
100
AcDbLine
 10
0.0
 20
0.0
 30
0.0
 11
-1.0
 21
0.166666667
 31
0.0
  0
LINE
  5
90
330
66
100
AcDbEntity
  8
0
  6
CONTINUOUS
 62
     0
100
AcDbLine
 10
0.0
 20
0.0
 30
0.0
 11
-1.0
 21
-0.166666667
 31
0.0
  0
LINE
  5
91
330
66
100
AcDbEntity
  8
0
  6
CONTINUOUS
 62
     0
100
AcDbLine
 10
-1.0
 20
0.166666667
 30
0.0
 11
-1.0
 21
-0.166666667
 31
0.0
  0
ENDBLK
  5
68
330
66
100
AcDbEntity
  8
0
100
AcDbBlockEnd
  0
BLOCK
  5
6A
330
69
100
AcDbEntity
  8
0
100
AcDbBlockBegin
  2
EX_NNORM
 70
     0
 10
0.0
 20
0.0
 30
0.0
  3
EX_NNORM
  1

  0
LINE
  5
92
330
69
100
AcDbEntity
  8
0
  6
CONTINUOUS
 62
     0
100
AcDbLine
 10
0.0
 20
0.0
 30
0.0
 11
-1.0
 21
0.0
 31
0.0
  0
LINE
  5
93
330
69
100
AcDbEntity
  8
0
  6
CONTINUOUS
 62
     0
100
AcDbLine
 10
0.0
 20
0.0
 30
0.0
 11
-1.0
 21
0.166666667
 31
0.0
  0
LINE
  5
94
330
69
100
AcDbEntity
  8
0
  6
CONTINUOUS
 62
     0
100
AcDbLine
 10
0.0
 20
0.0
 30
0.0
 11
-1.0
 21
-0.166666667
 31
0.0
  0
LINE
  5
95
330
69
100
AcDbEntity
  8
0
  6
CONTINUOUS
 62
     0
100
AcDbLine
 10
-1.0
 20
0.166666667
 30
0.0
 11
-1.0
 21
-0.166666667
 31
0.0
  0
ENDBLK
  5
6B
330
69
100
AcDbEntity
  8
0
100
AcDbBlockEnd
  0
BLOCK
  5
6D
330
6C
100
AcDbEntity
  8
0
100
AcDbBlockBegin
  2
EX_BBOX
 70
     0
 10
0.0
 20
0.0
 30
0.0
  3
EX_BBOX
  1

  0
LINE
  5
96
330
6C
100
AcDbEntity
  8
0
  6
CONTINUOUS
 62
     0
100
AcDbLine
 10
0.0
 20
0.0
 30
0.0
 11
-1.0
 21
0.0
 31
0.0
  0
LINE
  5
97
330
6C
100
AcDbEntity
  8
0
  6
CONTINUOUS
 62
     0
100
AcDbLine
 10
-0.5
 20
0.5
 30
0.0
 11
0.5
 21
0.5
 31
0.0
  0
LINE
  5
98
330
6C
100
AcDbEntity
  8
0
  6
CONTINUOUS
 62
     0
100
AcDbLine
 10
0.5
 20
0.5
 30
0.0
 11
0.5
 21
-0.5
 31
0.0
  0
LINE
  5
99
330
6C
100
AcDbEntity
  8
0
  6
CONTINUOUS
 62
     0
100
AcDbLine
 10
0.5
 20
-0.5
 30
0.0
 11
-0.5
 21
-0.5
 31
0.0
  0
LINE
  5
9A
330
6C
100
AcDbEntity
  8
0
  6
CONTINUOUS
 62
     0
100
AcDbLine
 10
-0.5
 20
-0.5
 30
0.0
 11
-0.5
 21
0.5
 31
0.0
  0
LINE
  5
9B
330
6C
100
AcDbEntity
  8
0
  6
CONTINUOUS
 62
     0
100
AcDbLine
 10
-0.25
 20
0.25
 30
0.0
 11
0.25
 21
0.25
 31
0.0
  0
LINE
  5
9C
330
6C
100
AcDbEntity
  8
0
  6
CONTINUOUS
 62
     0
100
AcDbLine
 10
0.25
 20
0.25
 30
0.0
 11
0.25
 21
-0.25
 31
0.0
  0
LINE
  5
9D
330
6C
100
AcDbEntity
  8
0
  6
CONTINUOUS
 62
     0
100
AcDbLine
 10
0.25
 20
-0.25
 30
0.0
 11
-0.25
 21
-0.25
 31
0.0
  0
LINE
  5
9E
330
6C
100
AcDbEntity
  8
0
  6
CONTINUOUS
 62
     0
100
AcDbLine
 10
-0.25
 20
-0.25
 30
0.0
 11
-0.25
 21
0.25
 31
0.0
  0
ENDBLK
  5
6E
330
6C
100
AcDbEntity
  8
0
100
AcDbBlockEnd
  0
BLOCK
  5
70
330
6F
100
AcDbEntity
  8
0
100
AcDbBlockBegin
  2
EX_WBOX
 70
     0
 10
0.0
 20
0.0
 30
0.0
  3
EX_WBOX
  1

  0
LINE
  5
9F
330
6F
100
AcDbEntity
  8
0
  6
CONTINUOUS
 62
     0
100
AcDbLine
 10
-0.5
 20
0.0
 30
0.0
 11
-1.0
 21
0.0
 31
0.0
  0
LINE
  5
A0
330
6F
100
AcDbEntity
  8
0
  6
CONTINUOUS
 62
     0
100
AcDbLine
 10
-0.5
 20
0.5
 30
0.0
 11
0.5
 21
0.5
 31
0.0
  0
LINE
  5
A1
330
6F
100
AcDbEntity
  8
0
  6
CONTINUOUS
 62
     0
100
AcDbLine
 10
0.5
 20
0.5
 30
0.0
 11
0.5
 21
-0.5
 31
0.0
  0
LINE
  5
A2
330
6F
100
AcDbEntity
  8
0
  6
CONTINUOUS
 62
     0
100
AcDbLine
 10
0.5
 20
-0.5
 30
0.0
 11
-0.5
 21
-0.5
 31
0.0
  0
LINE
  5
A3
330
6F
100
AcDbEntity
  8
0
  6
CONTINUOUS
 62
     0
100
AcDbLine
 10
-0.5
 20
-0.5
 30
0.0
 11
-0.5
 21
0.5
 31
0.0
  0
ENDBLK
  5
71
330
6F
100
AcDbEntity
  8
0
100
AcDbBlockEnd
  0
BLOCK
  5
73
330
72
100
AcDbEntity
  8
0
100
AcDbBlockBegin
  2
EX_INTEGRAL
 70
     0
 10
0.0
 20
0.0
 30
0.0
  3
EX_INTEGRAL
  1

  0
LINE
  5
A4
330
72
100
AcDbEntity
  8
0
  6
CONTINUOUS
 62
     0
100
AcDbLine
 10
0.0
 20
0.0
 30
0.0
 11
-1.0
 21
0.0
 31
0.0
  0
ARC
  5
A5
330
72
100
AcDbEntity
  8
0
  6
CONTINUOUS
 62
     0
100
AcDbCircle
 10
0.542115
 20
0.164992
 30
0.0
 40
0.56667
100
AcDbArc
 50
73.07249033629006
 51
196.9275130221199
  0
ARC
  5
A6
330
72
100
AcDbEntity
  8
0
  6
CONTINUOUS
 62
     0
100
AcDbCircle
 10
-0.542115
 20
-0.164992
 30
0.0
 40
0.56667
100
AcDbArc
 50
253.0724869220464
 51
16.9275130559125
  0
ENDBLK
  5
74
330
72
100
AcDbEntity
  8
0
100
AcDbBlockEnd
  0
BLOCK
  5
2AC
330
2AB
100
AcDbEntity
  8
0
100
AcDbBlockBegin
  2
*D15
 70
     1
 10
0.0
 20
0.0
 30
0.0
  3
*D15
  1

  0
LINE
  5
2AE
330
2AB
100
AcDbEntity
  8
図
  6
CONTINUOUS
 62
     3
100
AcDbLine
 10
155.4999999999999
 20
837.5000000596045
 30
0.0
 11
155.4999999999999
 21
750.9999999999999
 31
0.0
  0
LINE
  5
2AF
330
2AB
100
AcDbEntity
  8
図
  6
CONTINUOUS
 62
     3
100
AcDbLine
 10
605.5
 20
837.5000000596045
 30
0.0
 11
605.5
 21
750.9999999999999
 31
0.0
  0
LINE
  5
2B0
330
2AB
100
AcDbEntity
  8
図
  6
CONTINUOUS
 62
     3
100
AcDbLine
 10
172.9999999999999
 20
760.9999999999999
 30
0.0
 11
588.0
 21
760.9999999999999
 31
0.0
  0
INSERT
  5
2B1
330
2AB
100
AcDbEntity
  8
図
 62
     3
100
AcDbBlockReference
  2
EX_NORM
 10
155.4999999999999
 20
760.9999999999999
 30
0.0
 41
17.5
 42
17.5
 43
17.5
 50
180.0
  0
INSERT
  5
2B2
330
2AB
100
AcDbEntity
  8
図
 62
     3
100
AcDbBlockReference
  2
EX_NORM
 10
605.5
 20
760.9999999999999
 30
0.0
 41
17.5
 42
17.5
 43
17.5
  0
MTEXT
  5
2B3
330
2AB
100
AcDbEntity
  8
図
 62
     2
100
AcDbMText
 10
380.5
 20
772.7499999999999
 30
0.0
 40
20.0
 41
0.0
 71
     5
 72
     1
  1
450
  7
EXCADDIM1
  0
POINT
  5
2B4
330
2AB
100
AcDbEntity
  8
DEFPOINTS
 62
     0
100
AcDbPoint
 10
155.4999999999999
 20
840.9999999999999
 30
0.0
  0
POINT
  5
2B5
330
2AB
100
AcDbEntity
  8
DEFPOINTS
 62
     0
100
AcDbPoint
 10
605.5
 20
840.9999999999999
 30
0.0
  0
POINT
  5
2B6
330
2AB
100
AcDbEntity
  8
DEFPOINTS
 62
     0
100
AcDbPoint
 10
605.5
 20
760.9999999999999
 30
0.0
  0
ENDBLK
  5
2AD
330
2AB
100
AcDbEntity
  8
0
100
AcDbBlockEnd
  0
BLOCK
  5
2B9
330
2B8
100
AcDbEntity
  8
0
100
AcDbBlockBegin
  2
*D16
 70
     1
 10
0.0
 20
0.0
 30
0.0
  3
*D16
  1

  0
LINE
  5
2BB
330
2B8
100
AcDbEntity
  8
図
  6
CONTINUOUS
 62
     3
100
AcDbLine
 10
588.9999999403954
 20
820.9999999999999
 30
0.0
 11
685.5000000000001
 21
820.9999999999999
 31
0.0
  0
LINE
  5
2BC
330
2B8
100
AcDbEntity
  8
図
  6
CONTINUOUS
 62
     3
100
AcDbLine
 10
608.9999999403954
 20
960.9999999999999
 30
0.0
 11
685.5000000000001
 21
960.9999999999999
 31
0.0
  0
LINE
  5
2BD
330
2B8
100
AcDbEntity
  8
図
  6
CONTINUOUS
 62
     3
100
AcDbLine
 10
675.5000000000001
 20
838.4999999999999
 30
0.0
 11
675.5000000000001
 21
943.4999999999999
 31
0.0
  0
INSERT
  5
2BE
330
2B8
100
AcDbEntity
  8
図
 62
     3
100
AcDbBlockReference
  2
EX_NORM
 10
675.5000000000001
 20
820.9999999999999
 30
0.0
 41
17.5
 42
17.5
 43
17.5
 50
270.0
  0
INSERT
  5
2BF
330
2B8
100
AcDbEntity
  8
図
 62
     3
100
AcDbBlockReference
  2
EX_NORM
 10
675.5000000000001
 20
960.9999999999999
 30
0.0
 41
17.5
 42
17.5
 43
17.5
 50
90.0
  0
MTEXT
  5
2C0
330
2B8
100
AcDbEntity
  8
図
 62
     2
100
AcDbMText
 10
663.7500000000001
 20
890.9999999999999
 30
0.0
 40
20.0
 41
0.0
 71
     5
 72
     1
  1
140
  7
EXCADDIM1
 11
0.0
 21
1.0
 31
0.0
  0
POINT
  5
2C1
330
2B8
100
AcDbEntity
  8
DEFPOINTS
 62
     0
100
AcDbPoint
 10
585.5
 20
820.9999999999999
 30
0.0
  0
POINT
  5
2C2
330
2B8
100
AcDbEntity
  8
DEFPOINTS
 62
     0
100
AcDbPoint
 10
605.5
 20
960.9999999999999
 30
0.0
  0
POINT
  5
2C3
330
2B8
100
AcDbEntity
  8
DEFPOINTS
 62
     0
100
AcDbPoint
 10
675.5000000000001
 20
960.9999999999999
 30
0.0
  0
ENDBLK
  5
2BA
330
2B8
100
AcDbEntity
  8
0
100
AcDbBlockEnd
  0
BLOCK
  5
2C6
330
2C5
100
AcDbEntity
  8
0
100
AcDbBlockBegin
  2
*D17
 70
     1
 10
0.0
 20
0.0
 30
0.0
  3
*D17
  1

  0
LINE
  5
2C8
330
2C5
100
AcDbEntity
  8
図
  6
CONTINUOUS
 62
     3
100
AcDbLine
 10
230.4999999999999
 20
509.5000000596045
 30
0.0
 11
230.4999999999999
 21
435.9999999999999
 31
0.0
  0
LINE
  5
2C9
330
2C5
100
AcDbEntity
  8
図
  6
CONTINUOUS
 62
     3
100
AcDbLine
 10
380.4999999999999
 20
479.5000000596045
 30
0.0
 11
380.4999999999999
 21
435.9999999999999
 31
0.0
  0
LINE
  5
2CA
330
2C5
100
AcDbEntity
  8
図
  6
CONTINUOUS
 62
     3
100
AcDbLine
 10
247.9999999999999
 20
445.9999999999999
 30
0.0
 11
362.9999999999999
 21
445.9999999999999
 31
0.0
  0
INSERT
  5
2CB
330
2C5
100
AcDbEntity
  8
図
 62
     3
100
AcDbBlockReference
  2
EX_NORM
 10
230.4999999999999
 20
445.9999999999999
 30
0.0
 41
17.5
 42
17.5
 43
17.5
 50
180.0
  0
INSERT
  5
2CC
330
2C5
100
AcDbEntity
  8
図
 62
     3
100
AcDbBlockReference
  2
EX_NORM
 10
380.4999999999999
 20
445.9999999999999
 30
0.0
 41
17.5
 42
17.5
 43
17.5
  0
MTEXT
  5
2CD
330
2C5
100
AcDbEntity
  8
図
 62
     2
100
AcDbMText
 10
305.5
 20
457.7499999999999
 30
0.0
 40
20.0
 41
0.0
 71
     5
 72
     1
  1
150
  7
EXCADDIM1
  0
POINT
  5
2CE
330
2C5
100
AcDbEntity
  8
DEFPOINTS
 62
     0
100
AcDbPoint
 10
230.4999999999999
 20
512.9999999999998
 30
0.0
  0
POINT
  5
2CF
330
2C5
100
AcDbEntity
  8
DEFPOINTS
 62
     0
100
AcDbPoint
 10
380.4999999999999
 20
482.9999999999998
 30
0.0
  0
POINT
  5
2D0
330
2C5
100
AcDbEntity
  8
DEFPOINTS
 62
     0
100
AcDbPoint
 10
380.4999999999999
 20
445.9999999999999
 30
0.0
  0
ENDBLK
  5
2C7
330
2C5
100
AcDbEntity
  8
0
100
AcDbBlockEnd
  0
BLOCK
  5
2D3
330
2D2
100
AcDbEntity
  8
0
100
AcDbBlockBegin
  2
*D18
 70
     1
 10
0.0
 20
0.0
 30
0.0
  3
*D18
  1

  0
LINE
  5
2D5
330
2D2
100
AcDbEntity
  8
図
  6
CONTINUOUS
 62
     3
100
AcDbLine
 10
530.5
 20
509.5000000596045
 30
0.0
 11
530.5
 21
435.9999999999999
 31
0.0
  0
LINE
  5
2D6
330
2D2
100
AcDbEntity
  8
図
  6
CONTINUOUS
 62
     3
100
AcDbLine
 10
397.9999999999999
 20
445.9999999999999
 30
0.0
 11
513.0
 21
445.9999999999999
 31
0.0
  0
INSERT
  5
2D7
330
2D2
100
AcDbEntity
  8
図
 62
     3
100
AcDbBlockReference
  2
EX_NORM
 10
380.4999999999999
 20
445.9999999999999
 30
0.0
 41
17.5
 42
17.5
 43
17.5
 50
180.0
  0
INSERT
  5
2D8
330
2D2
100
AcDbEntity
  8
図
 62
     3
100
AcDbBlockReference
  2
EX_NORM
 10
530.5
 20
445.9999999999999
 30
0.0
 41
17.5
 42
17.5
 43
17.5
  0
MTEXT
  5
2D9
330
2D2
100
AcDbEntity
  8
図
 62
     2
100
AcDbMText
 10
455.4999999999999
 20
457.7499999999999
 30
0.0
 40
20.0
 41
0.0
 71
     5
 72
     1
  1
150
  7
EXCADDIM1
  0
POINT
  5
2DA
330
2D2
100
AcDbEntity
  8
DEFPOINTS
 62
     0
100
AcDbPoint
 10
380.4999999999999
 20
445.9999999999999
 30
0.0
  0
POINT
  5
2DB
330
2D2
100
AcDbEntity
  8
DEFPOINTS
 62
     0
100
AcDbPoint
 10
530.5
 20
512.9999999999998
 30
0.0
  0
POINT
  5
2DC
330
2D2
100
AcDbEntity
  8
DEFPOINTS
 62
     0
100
AcDbPoint
 10
530.5
 20
445.9999999999999
 30
0.0
  0
ENDBLK
  5
2D4
330
2D2
100
AcDbEntity
  8
0
100
AcDbBlockEnd
  0
BLOCK
  5
2DF
330
2DE
100
AcDbEntity
  8
0
100
AcDbBlockBegin
  2
*D19
 70
     1
 10
0.0
 20
0.0
 30
0.0
  3
*D19
  1

  0
LINE
  5
2E1
330
2DE
100
AcDbEntity
  8
図
  6
CONTINUOUS
 62
     3
100
AcDbLine
 10
596.8843559537754
 20
575.9999999999999
 30
0.0
 11
685.5000000000001
 21
575.9999999999998
 31
0.0
  0
LINE
  5
2E2
330
2DE
100
AcDbEntity
  8
図
  6
CONTINUOUS
 62
     3
100
AcDbLine
 10
383.9999999403953
 20
505.9999999999999
 30
0.0
 11
685.5000000000001
 21
505.9999999999999
 31
0.0
  0
LINE
  5
2E3
330
2DE
100
AcDbEntity
  8
図
  6
CONTINUOUS
 62
     3
100
AcDbLine
 10
675.5000000000001
 20
558.4999999999998
 30
0.0
 11
675.5000000000001
 21
523.4999999999999
 31
0.0
  0
INSERT
  5
2E4
330
2DE
100
AcDbEntity
  8
図
 62
     3
100
AcDbBlockReference
  2
EX_NORM
 10
675.5000000000001
 20
575.9999999999998
 30
0.0
 41
17.5
 42
17.5
 43
17.5
 50
90.0
  0
INSERT
  5
2E5
330
2DE
100
AcDbEntity
  8
図
 62
     3
100
AcDbBlockReference
  2
EX_NORM
 10
675.5000000000001
 20
505.9999999999999
 30
0.0
 41
17.5
 42
17.5
 43
17.5
 50
270.0
  0
MTEXT
  5
2E6
330
2DE
100
AcDbEntity
  8
図
 62
     2
100
AcDbMText
 10
663.7500000000001
 20
540.9999999999999
 30
0.0
 40
20.0
 41
0.0
 71
     5
 72
     1
  1
70
  7
EXCADDIM1
 11
0.0
 21
1.0
 31
0.0
  0
POINT
  5
2E7
330
2DE
100
AcDbEntity
  8
DEFPOINTS
 62
     0
100
AcDbPoint
 10
593.38435601338
 20
575.9999999999999
 30
0.0
  0
POINT
  5
2E8
330
2DE
100
AcDbEntity
  8
DEFPOINTS
 62
     0
100
AcDbPoint
 10
380.4999999999999
 20
505.9999999999999
 30
0.0
  0
POINT
  5
2E9
330
2DE
100
AcDbEntity
  8
DEFPOINTS
 62
     0
100
AcDbPoint
 10
675.5000000000001
 20
505.9999999999999
 30
0.0
  0
ENDBLK
  5
2E0
330
2DE
100
AcDbEntity
  8
0
100
AcDbBlockEnd
  0
BLOCK
  5
2EC
330
2EB
100
AcDbEntity
  8
0
100
AcDbBlockBegin
  2
*D20
 70
     1
 10
0.0
 20
0.0
 30
0.0
  3
*D20
  1

  0
LINE
  5
2EE
330
2EB
100
AcDbEntity
  8
図
  6
CONTINUOUS
 62
     3
100
AcDbLine
 10
857.2999999403953
 20
575.9999999999999
 30
0.0
 11
933.8
 21
575.9999999999999
 31
0.0
  0
LINE
  5
2EF
330
2EB
100
AcDbEntity
  8
図
  6
CONTINUOUS
 62
     3
100
AcDbLine
 10
902.2999999404052
 20
530.9999999999999
 30
0.0
 11
933.8
 21
530.9999999999999
 31
0.0
  0
LINE
  5
2F0
330
2EB
100
AcDbEntity
  8
図
  6
CONTINUOUS
 62
     3
100
AcDbLine
 10
923.8
 20
558.4999999999999
 30
0.0
 11
923.8
 21
548.4999999999999
 31
0.0
  0
INSERT
  5
2F1
330
2EB
100
AcDbEntity
  8
図
 62
     3
100
AcDbBlockReference
  2
EX_NORM
 10
923.8
 20
575.9999999999999
 30
0.0
 41
17.5
 42
17.5
 43
17.5
 50
90.0
  0
INSERT
  5
2F2
330
2EB
100
AcDbEntity
  8
図
 62
     3
100
AcDbBlockReference
  2
EX_NORM
 10
923.8
 20
530.9999999999999
 30
0.0
 41
17.5
 42
17.5
 43
17.5
 50
270.0
  0
MTEXT
  5
2F3
330
2EB
100
AcDbEntity
  8
図
 62
     2
100
AcDbMText
 10
912.05
 20
553.4999999999999
 30
0.0
 40
20.0
 41
0.0
 71
     5
 72
     1
  1
45
  7
EXCADDIM1
 11
0.0
 21
1.0
 31
0.0
  0
POINT
  5
2F4
330
2EB
100
AcDbEntity
  8
DEFPOINTS
 62
     0
100
AcDbPoint
 10
853.8
 20
575.9999999999999
 30
0.0
  0
POINT
  5
2F5
330
2EB
100
AcDbEntity
  8
DEFPOINTS
 62
     0
100
AcDbPoint
 10
898.8000000000098
 20
530.9999999999999
 30
0.0
  0
POINT
  5
2F6
330
2EB
100
AcDbEntity
  8
DEFPOINTS
 62
     0
100
AcDbPoint
 10
923.8
 20
530.9999999999999
 30
0.0
  0
ENDBLK
  5
2ED
330
2EB
100
AcDbEntity
  8
0
100
AcDbBlockEnd
  0
ENDSEC
  0
SECTION
  2
ENTITIES
  0
LINE
  5
A7
330
1F
100
AcDbEntity
  8
LAY-1
  6
CONTINUOUS
 62
     7
100
AcDbLine
 10
89.5
 20
57.5
 30
0.0
 11
999.4999999999999
 21
57.5
 31
0.0
  0
LINE
  5
A8
330
1F
100
AcDbEntity
  8
LAY-1
  6
CONTINUOUS
 62
     7
100
AcDbLine
 10
999.4999999999999
 20
57.5
 30
0.0
 11
999.4999999999999
 21
1457.5
 31
0.0
  0
LINE
  5
A9
330
1F
100
AcDbEntity
  8
LAY-1
  6
CONTINUOUS
 62
     7
100
AcDbLine
 10
89.5
 20
57.5
 30
0.0
 11
89.5
 21
1457.5
 31
0.0
  0
LINE
  5
AA
330
1F
100
AcDbEntity
  8
LAY-1
  6
CONTINUOUS
 62
     7
100
AcDbLine
 10
89.5
 20
1457.5
 30
0.0
 11
999.4999999999999
 21
1457.5
 31
0.0
  0
LINE
  5
AB
330
1F
100
AcDbEntity
  8
LAY-1
  6
CONTINUOUS
 62
     7
100
AcDbLine
 10
89.5
 20
167.5
 30
0.0
 11
999.4999999999999
 21
167.5
 31
0.0
  0
LINE
  5
AC
330
1F
100
AcDbEntity
  8
LAY-1
  6
CONTINUOUS
 62
     6
100
AcDbLine
 10
999.4999999999999
 20
107.5
 30
0.0
 11
374.5
 21
107.5
 31
0.0
  0
LINE
  5
AD
330
1F
100
AcDbEntity
  8
LAY-1
  6
CONTINUOUS
 62
     6
100
AcDbLine
 10
929.4999999999999
 20
167.5
 30
0.0
 11
929.4999999999999
 21
107.5
 31
0.0
  0
LINE
  5
AE
330
1F
100
AcDbEntity
  8
LAY-1
  6
CONTINUOUS
 62
     6
100
AcDbLine
 10
904.4999999999999
 20
167.5
 30
0.0
 11
904.4999999999999
 21
107.5
 31
0.0
  0
LINE
  5
AF
330
1F
100
AcDbEntity
  8
LAY-1
  6
CONTINUOUS
 62
     6
100
AcDbLine
 10
719.4999999999999
 20
167.5
 30
0.0
 11
719.4999999999999
 21
57.5
 31
0.0
  0
LINE
  5
B0
330
1F
100
AcDbEntity
  8
LAY-1
  6
CONTINUOUS
 62
     6
100
AcDbLine
 10
694.5
 20
167.5
 30
0.0
 11
694.5
 21
57.5
 31
0.0
  0
LINE
  5
B1
330
1F
100
AcDbEntity
  8
LAY-1
  6
CONTINUOUS
 62
     6
100
AcDbLine
 10
399.5
 20
167.5
 30
0.0
 11
399.5
 21
107.5
 31
0.0
  0
LINE
  5
B2
330
1F
100
AcDbEntity
  8
LAY-1
  6
CONTINUOUS
 62
     6
100
AcDbLine
 10
374.5
 20
167.5
 30
0.0
 11
374.5
 21
57.5
 31
0.0
  0
LINE
  5
B3
330
1F
100
AcDbEntity
  8
LAY-1
  6
CONTINUOUS
 62
     6
100
AcDbLine
 10
309.5
 20
167.5
 30
0.0
 11
309.5
 21
57.5
 31
0.0
  0
LINE
  5
B4
330
1F
100
AcDbEntity
  8
LAY-1
  6
CONTINUOUS
 62
     6
100
AcDbLine
 10
244.5
 20
167.5
 30
0.0
 11
244.5
 21
57.5
 31
0.0
  0
LINE
  5
B5
330
1F
100
AcDbEntity
  8
LAY-1
  6
CONTINUOUS
 62
     6
100
AcDbLine
 10
167.0
 20
167.5
 30
0.0
 11
167.0
 21
57.5
 31
0.0
  0
LINE
  5
B6
330
1F
100
AcDbEntity
  8
LAY-1
  6
CONTINUOUS
 62
     6
100
AcDbLine
 10
89.5
 20
142.5
 30
0.0
 11
374.5
 21
142.5
 31
0.0
  0
LINE
  5
B7
330
1F
100
AcDbEntity
  8
LAY-1
  6
CONTINUOUS
 62
     6
100
AcDbLine
 10
945.8269042999998
 20
119.00146485
 30
0.0
 11
984.49694825
 21
158.34991455
 31
0.0
  0
LINE
  5
B8
330
1F
100
AcDbEntity
  8
LAY-1
  6
EXLTYPE2
 62
     6
100
AcDbLine
 10
89.5
 20
82.5
 30
0.0
 11
244.5
 21
82.5
 31
0.0
  0
CIRCLE
  5
B9
330
1F
100
AcDbEntity
  8
LAY-1
  6
CONTINUOUS
 62
     6
100
AcDbCircle
 10
114.5
 20
70.0
 30
0.0
 40
0.5000001000000001
  0
CIRCLE
  5
BA
330
1F
100
AcDbEntity
  8
LAY-1
  6
CONTINUOUS
 62
     6
100
AcDbCircle
 10
139.5
 20
70.0
 30
0.0
 40
0.5000001000000001
  0
CIRCLE
  5
BB
330
1F
100
AcDbEntity
  8
LAY-1
  6
CONTINUOUS
 62
     6
100
AcDbCircle
 10
192.0
 20
70.0
 30
0.0
 40
0.5000001000000001
  0
CIRCLE
  5
BC
330
1F
100
AcDbEntity
  8
LAY-1
  6
CONTINUOUS
 62
     6
100
AcDbCircle
 10
217.0
 20
70.0
 30
0.0
 40
0.5000001000000001
  0
TEXT
  5
BD
330
1F
100
AcDbEntity
  8
LAY-1
  6
CONTINUOUS
 62
     2
100
AcDbText
 10
944.7685547000001
 20
141.36138915
 30
0.0
 40
15.0
  1
１
 41
1.101333333333329
  7
EXCADSTD
 72
     5
 11
956.5685547
 21
141.36138915
 31
0.0
100
AcDbText
  0
TEXT
  5
BE
330
1F
100
AcDbEntity
  8
LAY-1
  6
CONTINUOUS
 62
     2
100
AcDbText
 10
100.75
 20
144.375
 30
0.0
 40
21.25
  1
製図
 41
1.509694117647059
  7
EXCADSTD
 72
     5
 11
151.163
 21
144.375
 31
0.0
100
AcDbText
  0
TEXT
  5
BF
330
1F
100
AcDbEntity
  8
LAY-1
  6
CONTINUOUS
 62
     2
100
AcDbText
 10
178.25
 20
144.375
 30
0.0
 40
21.25
  1
写図
 41
1.509694117647059
  7
EXCADSTD
 72
     5
 11
228.663
 21
144.375
 31
0.0
100
AcDbText
  0
TEXT
  5
C0
330
1F
100
AcDbEntity
  8
LAY-1
  6
CONTINUOUS
 62
     2
100
AcDbText
 10
253.25
 20
144.375
 30
0.0
 40
21.25
  1
検図
 41
1.303826737967914
  7
EXCADSTD
 72
     5
 11
296.7885
 21
144.375
 31
0.0
100
AcDbText
  0
TEXT
  5
C1
330
1F
100
AcDbEntity
  8
LAY-1
  6
CONTINUOUS
 62
     2
100
AcDbText
 10
318.25
 20
144.375
 30
0.0
 40
21.25
  1
承認
 41
1.303826737967914
  7
EXCADSTD
 72
     5
 11
361.7885
 21
144.375
 31
0.0
100
AcDbText
  0
TEXT
  5
C2
330
1F
100
AcDbEntity
  8
LAY-1
  6
CONTINUOUS
 62
     2
100
AcDbText
 10
377.375
 20
139.375
 30
0.0
 40
21.25
  1
品
 41
1.12
  7
EXCADSTD
 72
     5
 11
394.375
 21
139.375
 31
0.0
100
AcDbText
  0
TEXT
  5
C3
330
1F
100
AcDbEntity
  8
LAY-1
  6
CONTINUOUS
 62
     2
100
AcDbText
 10
377.375
 20
114.375
 30
0.0
 40
21.25
  1
名
 41
1.12
  7
EXCADSTD
 72
     5
 11
394.375
 21
114.375
 31
0.0
100
AcDbText
  0
TEXT
  5
C4
330
1F
100
AcDbEntity
  8
LAY-1
  6
CONTINUOUS
 62
     2
100
AcDbText
 10
697.375
 20
139.375
 30
0.0
 40
21.25
  1
品
 41
1.12
  7
EXCADSTD
 72
     5
 11
714.375
 21
139.375
 31
0.0
100
AcDbText
  0
TEXT
  5
C5
330
1F
100
AcDbEntity
  8
LAY-1
  6
CONTINUOUS
 62
     2
100
AcDbText
 10
697.375
 20
114.375
 30
0.0
 40
21.25
  1
番
 41
1.12
  7
EXCADSTD
 72
     5
 11
714.375
 21
114.375
 31
0.0
100
AcDbText
  0
TEXT
  5
C6
330
1F
100
AcDbEntity
  8
LAY-1
  6
CONTINUOUS
 62
     2
100
AcDbText
 10
907.875
 20
139.375
 30
0.0
 40
21.25
  1
尺
 41
1.12
  7
EXCADSTD
 72
     5
 11
924.875
 21
139.375
 31
0.0
100
AcDbText
  0
TEXT
  5
C7
330
1F
100
AcDbEntity
  8
LAY-1
  6
CONTINUOUS
 62
     2
100
AcDbText
 10
907.875
 20
114.375
 30
0.0
 40
21.25
  1
度
 41
1.12
  7
EXCADSTD
 72
     5
 11
924.875
 21
114.375
 31
0.0
100
AcDbText
  0
TEXT
  5
C8
330
1F
100
AcDbEntity
  8
LAY-1
  6
CONTINUOUS
 62
     2
100
AcDbText
 10
697.375
 20
82.875
 30
0.0
 40
21.25
  1
図
 41
1.12
  7
EXCADSTD
 72
     5
 11
714.375
 21
82.875
 31
0.0
100
AcDbText
  0
TEXT
  5
C9
330
1F
100
AcDbEntity
  8
LAY-1
  6
CONTINUOUS
 62
     2
100
AcDbText
 10
697.375
 20
61.375
 30
0.0
 40
21.25
  1
番
 41
1.12
  7
EXCADSTD
 72
     5
 11
714.375
 21
61.375
 31
0.0
100
AcDbText
  0
LINE
  5
CA
330
1F
100
AcDbEntity
  8
LAY-1
  6
CONTINUOUS
 62
     3
100
AcDbLine
 10
413.2238769999999
 20
90.1439972
 30
0.0
 11
409.1920471499999
 21
90.1439972
 31
0.0
  0
LINE
  5
CB
330
1F
100
AcDbEntity
  8
LAY-1
  6
CONTINUOUS
 62
     3
100
AcDbLine
 10
413.2238769999999
 20
94.1759796
 30
0.0
 11
413.2238769999999
 21
90.1439972
 31
0.0
  0
LINE
  5
CC
330
1F
100
AcDbEntity
  8
LAY-1
  6
CONTINUOUS
 62
     3
100
AcDbLine
 10
409.1920471499999
 20
94.1759796
 30
0.0
 11
413.2238769999999
 21
94.1759796
 31
0.0
  0
LINE
  5
CD
330
1F
100
AcDbEntity
  8
LAY-1
  6
CONTINUOUS
 62
     3
100
AcDbLine
 10
409.1920471499999
 20
94.1759796
 30
0.0
 11
409.1920471499999
 21
90.1439972
 31
0.0
  0
LINE
  5
CE
330
1F
100
AcDbEntity
  8
LAY-1
  6
CONTINUOUS
 62
     3
100
AcDbLine
 10
407.6795959499999
 20
90.1439972
 30
0.0
 11
403.6477661499999
 21
90.1439972
 31
0.0
  0
LINE
  5
CF
330
1F
100
AcDbEntity
  8
LAY-1
  6
CONTINUOUS
 62
     3
100
AcDbLine
 10
407.6795959499999
 20
94.1759796
 30
0.0
 11
407.6795959499999
 21
90.1439972
 31
0.0
  0
LINE
  5
D0
330
1F
100
AcDbEntity
  8
LAY-1
  6
CONTINUOUS
 62
     3
100
AcDbLine
 10
403.6477661499999
 20
94.1759796
 30
0.0
 11
407.6795959499999
 21
94.1759796
 31
0.0
  0
LINE
  5
D1
330
1F
100
AcDbEntity
  8
LAY-1
  6
CONTINUOUS
 62
     3
100
AcDbLine
 10
403.6477661499999
 20
94.1759796
 30
0.0
 11
403.6477661499999
 21
90.1439972
 31
0.0
  0
LINE
  5
D2
330
1F
100
AcDbEntity
  8
LAY-1
  6
CONTINUOUS
 62
     3
100
AcDbLine
 10
399.4436645499999
 20
72.0
 30
0.0
 11
385.0
 21
72.0
 31
0.0
  0
ARC
  5
D3
330
1F
100
AcDbEntity
  8
LAY-1
  6
CONTINUOUS
 62
     3
100
AcDbCircle
 10
399.4436645499999
 20
81.07203675000001
 30
0.0
 40
9.0719986
100
AcDbArc
 50
270.0000305200008
 51
334.0001373300005
  0
LINE
  5
D4
330
1F
100
AcDbEntity
  8
LAY-1
  6
CONTINUOUS
 62
     3
100
AcDbLine
 10
413.2238769999999
 20
88.6320038
 30
0.0
 11
407.59651185
 21
77.09506225
 31
0.0
  0
LINE
  5
D5
330
1F
100
AcDbEntity
  8
LAY-1
  6
CONTINUOUS
 62
     3
100
AcDbLine
 10
407.05612185
 20
88.6320038
 30
0.0
 11
413.2238769999999
 21
88.6320038
 31
0.0
  0
LINE
  5
D6
330
1F
100
AcDbEntity
  8
LAY-1
  6
CONTINUOUS
 62
     3
100
AcDbLine
 10
402.506485
 20
79.3045349
 30
0.0
 11
407.05612185
 21
88.6320038
 31
0.0
  0
ARC
  5
D7
330
1F
100
AcDbEntity
  8
LAY-1
  6
CONTINUOUS
 62
     3
100
AcDbCircle
 10
398.8827515
 20
81.07203675000001
 30
0.0
 40
4.032000000000001
100
AcDbArc
 50
270.000030520001
 51
333.99855042
  0
LINE
  5
D8
330
1F
100
AcDbEntity
  8
LAY-1
  6
CONTINUOUS
 62
     3
100
AcDbLine
 10
385.0
 20
77.03997805
 30
0.0
 11
398.8827515
 21
77.03997805
 31
0.0
  0
LINE
  5
D9
330
1F
100
AcDbEntity
  8
LAY-1
  6
CONTINUOUS
 62
     3
100
AcDbLine
 10
385.0
 20
77.03997805
 30
0.0
 11
385.0
 21
72.0
 31
0.0
  0
LINE
  5
DA
330
1F
100
AcDbEntity
  8
LAY-1
  6
CONTINUOUS
 62
     3
100
AcDbLine
 10
399.1124725500001
 20
83.59194944999999
 30
0.0
 11
385.0
 21
83.59194944999999
 31
0.0
  0
LINE
  5
DB
330
1F
100
AcDbEntity
  8
LAY-1
  6
CONTINUOUS
 62
     3
100
AcDbLine
 10
399.1124725500001
 20
88.128006
 30
0.0
 11
399.1124725500001
 21
83.59194944999999
 31
0.0
  0
LINE
  5
DC
330
1F
100
AcDbEntity
  8
LAY-1
  6
CONTINUOUS
 62
     3
100
AcDbLine
 10
385.0
 20
88.128006
 30
0.0
 11
399.1124725500001
 21
88.128006
 31
0.0
  0
LINE
  5
DD
330
1F
100
AcDbEntity
  8
LAY-1
  6
CONTINUOUS
 62
     3
100
AcDbLine
 10
385.0
 20
88.128006
 30
0.0
 11
385.0
 21
83.59194944999999
 31
0.0
  0
LINE
  5
DE
330
1F
100
AcDbEntity
  8
LAY-1
  6
CONTINUOUS
 62
     3
100
AcDbLine
 10
399.1124725500001
 20
89.63999940000001
 30
0.0
 11
385.0
 21
89.63999940000001
 31
0.0
  0
LINE
  5
DF
330
1F
100
AcDbEntity
  8
LAY-1
  6
CONTINUOUS
 62
     3
100
AcDbLine
 10
399.1124725500001
 20
94.1759796
 30
0.0
 11
399.1124725500001
 21
89.63999940000001
 31
0.0
  0
LINE
  5
E0
330
1F
100
AcDbEntity
  8
LAY-1
  6
CONTINUOUS
 62
     3
100
AcDbLine
 10
385.0
 20
94.1759796
 30
0.0
 11
399.1124725500001
 21
94.1759796
 31
0.0
  0
LINE
  5
E1
330
1F
100
AcDbEntity
  8
LAY-1
  6
CONTINUOUS
 62
     3
100
AcDbLine
 10
385.0
 20
94.1759796
 30
0.0
 11
385.0
 21
89.63999940000001
 31
0.0
  0
LINE
  5
E2
330
1F
100
AcDbEntity
  8
LAY-1
  6
CONTINUOUS
 62
     3
100
AcDbLine
 10
414.73632815
 20
88.6320038
 30
0.0
 11
414.73632815
 21
85.1039429
 31
0.0
  0
LINE
  5
E3
330
1F
100
AcDbEntity
  8
LAY-1
  6
CONTINUOUS
 62
     3
100
AcDbLine
 10
414.73632815
 20
88.6320038
 30
0.0
 11
419.32701115
 21
88.6320038
 31
0.0
  0
LINE
  5
E4
330
1F
100
AcDbEntity
  8
LAY-1
  6
CONTINUOUS
 62
     3
100
AcDbLine
 10
418.768158
 20
92.1599884
 30
0.0
 11
419.32701115
 21
88.6320038
 31
0.0
  0
LINE
  5
E5
330
1F
100
AcDbEntity
  8
LAY-1
  6
CONTINUOUS
 62
     3
100
AcDbLine
 10
418.768158
 20
92.1599884
 30
0.0
 11
424.3811798500001
 21
92.1599884
 31
0.0
  0
LINE
  5
E6
330
1F
100
AcDbEntity
  8
LAY-1
  6
CONTINUOUS
 62
     3
100
AcDbLine
 10
424.3811798500001
 20
92.1599884
 30
0.0
 11
424.9399567
 21
88.6320038
 31
0.0
  0
LINE
  5
E7
330
1F
100
AcDbEntity
  8
LAY-1
  6
CONTINUOUS
 62
     3
100
AcDbLine
 10
424.9399567
 20
88.6320038
 30
0.0
 11
438.92837525
 21
88.6320038
 31
0.0
  0
LINE
  5
E8
330
1F
100
AcDbEntity
  8
LAY-1
  6
CONTINUOUS
 62
     3
100
AcDbLine
 10
438.92837525
 20
88.6320038
 30
0.0
 11
435.98655705
 21
82.0252533
 31
0.0
  0
ARC
  5
E9
330
1F
100
AcDbEntity
  8
LAY-1
  6
CONTINUOUS
 62
     3
100
AcDbCircle
 10
429.0805054
 20
85.10020449999999
 30
0.0
 40
7.560052850000003
100
AcDbArc
 50
263.4657745199994
 51
335.9987792800001
  0
LINE
  5
EA
330
1F
100
AcDbEntity
  8
LAY-1
  6
CONTINUOUS
 62
     3
100
AcDbLine
 10
428.21922305
 20
77.58929445
 30
0.0
 11
427.66853335
 21
81.07203675000001
 31
0.0
  0
ARC
  5
EB
330
1F
100
AcDbEntity
  8
LAY-1
  6
CONTINUOUS
 62
     3
100
AcDbCircle
 10
427.5290680000001
 20
84.09602355000001
 30
0.0
 40
3.0240029
100
AcDbArc
 50
272.6237487799989
 51
336.0065307699997
  0
LINE
  5
EC
330
1F
100
AcDbEntity
  8
LAY-1
  6
CONTINUOUS
 62
     3
100
AcDbLine
 10
430.292511
 20
82.8660126
 30
0.0
 11
431.2881469999999
 21
85.1039429
 31
0.0
  0
LINE
  5
ED
330
1F
100
AcDbEntity
  8
LAY-1
  6
CONTINUOUS
 62
     3
100
AcDbLine
 10
431.2881469999999
 20
85.1039429
 30
0.0
 11
425.49880985
 21
85.1039429
 31
0.0
  0
LINE
  5
EE
330
1F
100
AcDbEntity
  8
LAY-1
  6
CONTINUOUS
 62
     3
100
AcDbLine
 10
425.49880985
 20
85.1039429
 30
0.0
 11
427.57423405
 21
72.0
 31
0.0
  0
LINE
  5
EF
330
1F
100
AcDbEntity
  8
LAY-1
  6
CONTINUOUS
 62
     3
100
AcDbLine
 10
427.57423405
 20
72.0
 30
0.0
 11
421.9612122
 21
72.0
 31
0.0
  0
LINE
  5
F0
330
1F
100
AcDbEntity
  8
LAY-1
  6
CONTINUOUS
 62
     2
100
AcDbLine
 10
421.9612122
 20
72.0
 30
0.0
 11
419.8858643
 21
85.1039429
 31
0.0
  0
LINE
  5
F1
330
1F
100
AcDbEntity
  8
LAY-1
  6
CONTINUOUS
 62
     2
100
AcDbLine
 10
419.8858643
 20
85.1039429
 30
0.0
 11
414.73632815
 21
85.1039429
 31
0.0
  0
LINE
  5
F2
330
1F
100
AcDbEntity
  8
LAY-1
  6
CONTINUOUS
 62
     3
100
AcDbLine
 10
438.4238434
 20
72.0
 30
0.0
 11
438.4238434
 21
77.03997805
 31
0.0
  0
LINE
  5
F3
330
1F
100
AcDbEntity
  8
LAY-1
  6
CONTINUOUS
 62
     3
100
AcDbLine
 10
438.4238434
 20
77.03997805
 30
0.0
 11
466.64772035
 21
77.03997805
 31
0.0
  0
LINE
  5
F4
330
1F
100
AcDbEntity
  8
LAY-1
  6
CONTINUOUS
 62
     3
100
AcDbLine
 10
466.64772035
 20
77.03997805
 30
0.0
 11
466.64772035
 21
72.0
 31
0.0
  0
LINE
  5
F5
330
1F
100
AcDbEntity
  8
LAY-1
  6
CONTINUOUS
 62
     3
100
AcDbLine
 10
466.64772035
 20
72.0
 30
0.0
 11
438.4238434
 21
72.0
 31
0.0
  0
LINE
  5
F6
330
1F
100
AcDbEntity
  8
LAY-1
  6
CONTINUOUS
 62
     3
100
AcDbLine
 10
440.4397582999999
 20
94.1759796
 30
0.0
 11
440.4397582999999
 21
89.1360016
 31
0.0
  0
LINE
  5
F7
330
1F
100
AcDbEntity
  8
LAY-1
  6
CONTINUOUS
 62
     3
100
AcDbLine
 10
440.4397582999999
 20
94.1759796
 30
0.0
 11
464.63180545
 21
94.1759796
 31
0.0
  0
LINE
  5
F8
330
1F
100
AcDbEntity
  8
LAY-1
  6
CONTINUOUS
 62
     3
100
AcDbLine
 10
464.63180545
 20
94.1759796
 30
0.0
 11
464.63180545
 21
89.1360016
 31
0.0
  0
LINE
  5
F9
330
1F
100
AcDbEntity
  8
LAY-1
  6
CONTINUOUS
 62
     3
100
AcDbLine
 10
464.63180545
 20
89.1360016
 30
0.0
 11
440.4397582999999
 21
89.1360016
 31
0.0
  0
LINE
  5
FA
330
1F
100
AcDbEntity
  8
LAY-1
  6
CONTINUOUS
 62
     3
100
AcDbLine
 10
470.17608645
 20
94.1759796
 30
0.0
 11
470.17608645
 21
89.1360016
 31
0.0
  0
LINE
  5
FB
330
1F
100
AcDbEntity
  8
LAY-1
  6
CONTINUOUS
 62
     3
100
AcDbLine
 10
470.17608645
 20
94.1759796
 30
0.0
 11
496.3840485
 21
94.1759796
 31
0.0
  0
LINE
  5
FC
330
1F
100
AcDbEntity
  8
LAY-1
  6
CONTINUOUS
 62
     3
100
AcDbLine
 10
496.3840485
 20
94.1759796
 30
0.0
 11
488.52546695
 21
83.3594818
 31
0.0
  0
LINE
  5
FD
330
1F
100
AcDbEntity
  8
LAY-1
  6
CONTINUOUS
 62
     3
100
AcDbLine
 10
488.52546695
 20
83.3594818
 30
0.0
 11
498.3999634
 21
72.0
 31
0.0
  0
LINE
  5
FE
330
1F
100
AcDbEntity
  8
LAY-1
  6
CONTINUOUS
 62
     3
100
AcDbLine
 10
498.3999634
 20
72.0
 30
0.0
 11
491.05407715
 21
72.0
 31
0.0
  0
LINE
  5
FF
330
1F
100
AcDbEntity
  8
LAY-1
  6
CONTINUOUS
 62
     3
100
AcDbLine
 10
491.05407715
 20
72.0
 30
0.0
 11
485.1806641000001
 21
78.7563629
 31
0.0
  0
LINE
  5
100
330
1F
100
AcDbEntity
  8
LAY-1
  6
CONTINUOUS
 62
     3
100
AcDbLine
 10
485.1806641000001
 20
78.7563629
 30
0.0
 11
482.9894257
 21
75.73962405
 31
0.0
  0
ARC
  5
101
330
1F
100
AcDbEntity
  8
LAY-1
  6
CONTINUOUS
 62
     3
100
AcDbCircle
 10
475.6496429499999
 20
81.07203675000001
 30
0.0
 40
9.0719986
100
AcDbArc
 50
270.0000305200008
 51
324.00115967
  0
LINE
  5
102
330
1F
100
AcDbEntity
  8
LAY-1
  6
CONTINUOUS
 62
     3
100
AcDbLine
 10
475.6496429499999
 20
72.0
 30
0.0
 11
468.16017155
 21
72.0
 31
0.0
  0
LINE
  5
103
330
1F
100
AcDbEntity
  8
LAY-1
  6
CONTINUOUS
 62
     3
100
AcDbLine
 10
468.16017155
 20
72.0
 30
0.0
 11
468.16017155
 21
77.03997805
 31
0.0
  0
LINE
  5
104
330
1F
100
AcDbEntity
  8
LAY-1
  6
CONTINUOUS
 62
     3
100
AcDbLine
 10
468.16017155
 20
77.03997805
 30
0.0
 11
474.5135498499999
 21
77.03997805
 31
0.0
  0
ARC
  5
105
330
1F
100
AcDbEntity
  8
LAY-1
  6
CONTINUOUS
 62
     3
100
AcDbCircle
 10
474.5135498499999
 20
82.07995605
 30
0.0
 40
5.039997100000001
100
AcDbArc
 50
270.0000305199999
 51
323.9965972900005
  0
LINE
  5
106
330
1F
100
AcDbEntity
  8
LAY-1
  6
CONTINUOUS
 62
     3
100
AcDbLine
 10
478.5904694
 20
79.11753845
 30
0.0
 11
485.8697510000001
 21
89.1360016
 31
0.0
  0
LINE
  5
107
330
1F
100
AcDbEntity
  8
LAY-1
  6
CONTINUOUS
 62
     3
100
AcDbLine
 10
485.8697510000001
 20
89.1360016
 30
0.0
 11
470.17608645
 21
89.1360016
 31
0.0
  0
LINE
  5
108
330
1F
100
AcDbEntity
  8
LAY-1
  6
CONTINUOUS
 62
     3
100
AcDbLine
 10
504.44778445
 20
94.1759796
 30
0.0
 11
504.44778445
 21
90.647995
 31
0.0
  0
LINE
  5
109
330
1F
100
AcDbEntity
  8
LAY-1
  6
CONTINUOUS
 62
     3
100
AcDbLine
 10
504.44778445
 20
94.1759796
 30
0.0
 11
530.6556702
 21
94.1759796
 31
0.0
  0
LINE
  5
10A
330
1F
100
AcDbEntity
  8
LAY-1
  6
CONTINUOUS
 62
     3
100
AcDbLine
 10
530.6556702
 20
94.1759796
 30
0.0
 11
530.6556702
 21
90.647995
 31
0.0
  0
LINE
  5
10B
330
1F
100
AcDbEntity
  8
LAY-1
  6
CONTINUOUS
 62
     3
100
AcDbLine
 10
530.6556702
 20
90.647995
 30
0.0
 11
520.3238678
 21
90.647995
 31
0.0
  0
LINE
  5
10C
330
1F
100
AcDbEntity
  8
LAY-1
  6
CONTINUOUS
 62
     3
100
AcDbLine
 10
520.3238678
 20
90.647995
 30
0.0
 11
520.3238678
 21
76.0320587
 31
0.0
  0
LINE
  5
10D
330
1F
100
AcDbEntity
  8
LAY-1
  6
CONTINUOUS
 62
     3
100
AcDbLine
 10
520.3238678
 20
76.0320587
 30
0.0
 11
531.6636658
 21
76.0320587
 31
0.0
  0
LINE
  5
10E
330
1F
100
AcDbEntity
  8
LAY-1
  6
CONTINUOUS
 62
     3
100
AcDbLine
 10
531.6636658
 20
76.0320587
 30
0.0
 11
531.6636658
 21
72.0
 31
0.0
  0
LINE
  5
10F
330
1F
100
AcDbEntity
  8
LAY-1
  6
CONTINUOUS
 62
     3
100
AcDbLine
 10
531.6636658
 20
72.0
 30
0.0
 11
503.43978885
 21
72.0
 31
0.0
  0
LINE
  5
110
330
1F
100
AcDbEntity
  8
LAY-1
  6
CONTINUOUS
 62
     3
100
AcDbLine
 10
503.43978885
 20
72.0
 30
0.0
 11
503.43978885
 21
76.0320587
 31
0.0
  0
LINE
  5
111
330
1F
100
AcDbEntity
  8
LAY-1
  6
CONTINUOUS
 62
     3
100
AcDbLine
 10
503.43978885
 20
76.0320587
 30
0.0
 11
514.7795868000001
 21
76.0320587
 31
0.0
  0
LINE
  5
112
330
1F
100
AcDbEntity
  8
LAY-1
  6
CONTINUOUS
 62
     3
100
AcDbLine
 10
514.7795868000001
 20
76.0320587
 30
0.0
 11
514.7795868000001
 21
90.647995
 31
0.0
  0
LINE
  5
113
330
1F
100
AcDbEntity
  8
LAY-1
  6
CONTINUOUS
 62
     3
100
AcDbLine
 10
514.7795868000001
 20
90.647995
 30
0.0
 11
504.44778445
 21
90.647995
 31
0.0
  0
LINE
  5
114
330
1F
100
AcDbEntity
  8
LAY-1
  6
CONTINUOUS
 62
     3
100
AcDbLine
 10
532.16812135
 20
91.15199279999999
 30
0.0
 11
532.16812135
 21
88.83357239999998
 31
0.0
  0
LINE
  5
115
330
1F
100
AcDbEntity
  8
LAY-1
  6
CONTINUOUS
 62
     3
100
AcDbLine
 10
532.16812135
 20
91.15199279999999
 30
0.0
 11
536.5465546
 21
91.15199279999999
 31
0.0
  0
LINE
  5
116
330
1F
100
AcDbEntity
  8
LAY-1
  6
CONTINUOUS
 62
     3
100
AcDbLine
 10
536.5465546
 20
91.15199279999999
 30
0.0
 11
534.18411255
 21
94.1759796
 31
0.0
  0
LINE
  5
117
330
1F
100
AcDbEntity
  8
LAY-1
  6
CONTINUOUS
 62
     3
100
AcDbLine
 10
534.18411255
 20
94.1759796
 30
0.0
 11
538.660965
 21
94.1759796
 31
0.0
  0
LINE
  5
118
330
1F
100
AcDbEntity
  8
LAY-1
  6
CONTINUOUS
 62
     3
100
AcDbLine
 10
538.660965
 20
94.1759796
 30
0.0
 11
541.023407
 21
91.15199279999999
 31
0.0
  0
LINE
  5
119
330
1F
100
AcDbEntity
  8
LAY-1
  6
CONTINUOUS
 62
     3
100
AcDbLine
 10
541.023407
 20
91.15199279999999
 30
0.0
 11
541.9965363
 21
91.15199279999999
 31
0.0
  0
LINE
  5
11A
330
1F
100
AcDbEntity
  8
LAY-1
  6
CONTINUOUS
 62
     3
100
AcDbLine
 10
541.9965363
 20
91.15199279999999
 30
0.0
 11
541.9965363
 21
94.1759796
 31
0.0
  0
LINE
  5
11B
330
1F
100
AcDbEntity
  8
LAY-1
  6
CONTINUOUS
 62
     3
100
AcDbLine
 10
541.9965363
 20
94.1759796
 30
0.0
 11
545.52383425
 21
94.1759796
 31
0.0
  0
LINE
  5
11C
330
1F
100
AcDbEntity
  8
LAY-1
  6
CONTINUOUS
 62
     3
100
AcDbLine
 10
545.52383425
 20
94.1759796
 30
0.0
 11
545.52383425
 21
91.15199279999999
 31
0.0
  0
LINE
  5
11D
330
1F
100
AcDbEntity
  8
LAY-1
  6
CONTINUOUS
 62
     3
100
AcDbLine
 10
545.52383425
 20
91.15199279999999
 30
0.0
 11
547.0362854
 21
91.15199279999999
 31
0.0
  0
LINE
  5
11E
330
1F
100
AcDbEntity
  8
LAY-1
  6
CONTINUOUS
 62
     3
100
AcDbLine
 10
547.0362854
 20
91.15199279999999
 30
0.0
 11
547.0362854
 21
94.1759796
 31
0.0
  0
LINE
  5
11F
330
1F
100
AcDbEntity
  8
LAY-1
  6
CONTINUOUS
 62
     3
100
AcDbLine
 10
547.0362854
 20
94.1759796
 30
0.0
 11
550.5636597
 21
94.1759796
 31
0.0
  0
LINE
  5
120
330
1F
100
AcDbEntity
  8
LAY-1
  6
CONTINUOUS
 62
     3
100
AcDbLine
 10
550.5636597
 20
94.1759796
 30
0.0
 11
550.5636597
 21
91.15199279999999
 31
0.0
  0
LINE
  5
121
330
1F
100
AcDbEntity
  8
LAY-1
  6
CONTINUOUS
 62
     3
100
AcDbLine
 10
550.5636597
 20
91.15199279999999
 30
0.0
 11
551.53678895
 21
91.15199279999999
 31
0.0
  0
LINE
  5
122
330
1F
100
AcDbEntity
  8
LAY-1
  6
CONTINUOUS
 62
     3
100
AcDbLine
 10
551.53678895
 20
91.15199279999999
 30
0.0
 11
553.8992310000001
 21
94.1759796
 31
0.0
  0
LINE
  5
123
330
1F
100
AcDbEntity
  8
LAY-1
  6
CONTINUOUS
 62
     3
100
AcDbLine
 10
553.8992310000001
 20
94.1759796
 30
0.0
 11
558.3760834
 21
94.1759796
 31
0.0
  0
LINE
  5
124
330
1F
100
AcDbEntity
  8
LAY-1
  6
CONTINUOUS
 62
     3
100
AcDbLine
 10
558.3760834
 20
94.1759796
 30
0.0
 11
556.0136414
 21
91.15199279999999
 31
0.0
  0
LINE
  5
125
330
1F
100
AcDbEntity
  8
LAY-1
  6
CONTINUOUS
 62
     3
100
AcDbLine
 10
556.0136414
 20
91.15199279999999
 30
0.0
 11
560.3919983000001
 21
91.15199279999999
 31
0.0
  0
LINE
  5
126
330
1F
100
AcDbEntity
  8
LAY-1
  6
CONTINUOUS
 62
     3
100
AcDbLine
 10
560.3919983000001
 20
91.15199279999999
 30
0.0
 11
560.3919983000001
 21
88.83357239999998
 31
0.0
  0
LINE
  5
127
330
1F
100
AcDbEntity
  8
LAY-1
  6
CONTINUOUS
 62
     3
100
AcDbLine
 10
560.3919983000001
 20
88.83357239999998
 30
0.0
 11
555.08049015
 21
88.83357239999998
 31
0.0
  0
LINE
  5
128
330
1F
100
AcDbEntity
  8
LAY-1
  6
CONTINUOUS
 62
     3
100
AcDbLine
 10
555.08049015
 20
88.83357239999998
 30
0.0
 11
554.1638184
 21
86.31365970000002
 31
0.0
  0
LINE
  5
129
330
1F
100
AcDbEntity
  8
LAY-1
  6
CONTINUOUS
 62
     3
100
AcDbLine
 10
554.1638184
 20
86.31365970000002
 30
0.0
 11
560.3919983000001
 21
86.31365970000002
 31
0.0
  0
LINE
  5
12A
330
1F
100
AcDbEntity
  8
LAY-1
  6
CONTINUOUS
 62
     3
100
AcDbLine
 10
560.3919983000001
 20
86.31365970000002
 30
0.0
 11
560.3919983000001
 21
83.99523925
 31
0.0
  0
LINE
  5
12B
330
1F
100
AcDbEntity
  8
LAY-1
  6
CONTINUOUS
 62
     3
100
AcDbLine
 10
560.3919983000001
 20
83.99523925
 30
0.0
 11
548.7999725500001
 21
83.99523925
 31
0.0
  0
LINE
  5
12C
330
1F
100
AcDbEntity
  8
LAY-1
  6
CONTINUOUS
 62
     3
100
AcDbLine
 10
548.7999725500001
 20
83.99523925
 30
0.0
 11
548.7999725500001
 21
82.83602905000001
 31
0.0
  0
LINE
  5
12D
330
1F
100
AcDbEntity
  8
LAY-1
  6
CONTINUOUS
 62
     3
100
AcDbLine
 10
548.7999725500001
 20
82.83602905000001
 30
0.0
 11
560.3919983000001
 21
82.83602905000001
 31
0.0
  0
LINE
  5
12E
330
1F
100
AcDbEntity
  8
LAY-1
  6
CONTINUOUS
 62
     3
100
AcDbLine
 10
560.3919983000001
 20
82.83602905000001
 30
0.0
 11
560.3919983000001
 21
80.51760865
 31
0.0
  0
LINE
  5
12F
330
1F
100
AcDbEntity
  8
LAY-1
  6
CONTINUOUS
 62
     3
100
AcDbLine
 10
560.3919983000001
 20
80.51760865
 30
0.0
 11
548.7999725500001
 21
80.51760865
 31
0.0
  0
LINE
  5
130
330
1F
100
AcDbEntity
  8
LAY-1
  6
CONTINUOUS
 62
     3
100
AcDbLine
 10
548.7999725500001
 20
80.51760865
 30
0.0
 11
548.7999725500001
 21
79.35839845000001
 31
0.0
  0
LINE
  5
131
330
1F
100
AcDbEntity
  8
LAY-1
  6
CONTINUOUS
 62
     3
100
AcDbLine
 10
548.7999725500001
 20
79.35839845000001
 30
0.0
 11
560.3919983000001
 21
79.35839845000001
 31
0.0
  0
LINE
  5
132
330
1F
100
AcDbEntity
  8
LAY-1
  6
CONTINUOUS
 62
     3
100
AcDbLine
 10
560.3919983000001
 20
79.35839845000001
 30
0.0
 11
560.3919983000001
 21
77.03997805
 31
0.0
  0
LINE
  5
133
330
1F
100
AcDbEntity
  8
LAY-1
  6
CONTINUOUS
 62
     3
100
AcDbLine
 10
560.3919983000001
 20
77.03997805
 30
0.0
 11
554.8139191
 21
77.03997805
 31
0.0
  0
LINE
  5
134
330
1F
100
AcDbEntity
  8
LAY-1
  6
CONTINUOUS
 62
     3
100
AcDbLine
 10
554.8139191
 20
77.03997805
 30
0.0
 11
560.3919983000001
 21
72.0
 31
0.0
  0
LINE
  5
135
330
1F
100
AcDbEntity
  8
LAY-1
  6
CONTINUOUS
 62
     3
100
AcDbLine
 10
560.3919983000001
 20
72.0
 30
0.0
 11
554.3781280999999
 21
72.0
 31
0.0
  0
LINE
  5
136
330
1F
100
AcDbEntity
  8
LAY-1
  6
CONTINUOUS
 62
     3
100
AcDbLine
 10
554.3781280999999
 20
72.0
 30
0.0
 11
548.7999725500001
 21
77.03997805
 31
0.0
  0
LINE
  5
137
330
1F
100
AcDbEntity
  8
LAY-1
  6
CONTINUOUS
 62
     3
100
AcDbLine
 10
548.7999725500001
 20
77.03997805
 30
0.0
 11
548.7999725500001
 21
72.0
 31
0.0
  0
LINE
  5
138
330
1F
100
AcDbEntity
  8
LAY-1
  6
CONTINUOUS
 62
     3
100
AcDbLine
 10
548.7999725500001
 20
72.0
 30
0.0
 11
543.7602234000001
 21
72.0
 31
0.0
  0
LINE
  5
139
330
1F
100
AcDbEntity
  8
LAY-1
  6
CONTINUOUS
 62
     3
100
AcDbLine
 10
543.7602234000001
 20
72.0
 30
0.0
 11
543.7602234000001
 21
77.03997805
 31
0.0
  0
LINE
  5
13A
330
1F
100
AcDbEntity
  8
LAY-1
  6
CONTINUOUS
 62
     3
100
AcDbLine
 10
543.7602234000001
 20
77.03997805
 30
0.0
 11
538.1820679
 21
72.0
 31
0.0
  0
LINE
  5
13B
330
1F
100
AcDbEntity
  8
LAY-1
  6
CONTINUOUS
 62
     3
100
AcDbLine
 10
538.1820679
 20
72.0
 30
0.0
 11
532.16812135
 21
72.0
 31
0.0
  0
LINE
  5
13C
330
1F
100
AcDbEntity
  8
LAY-1
  6
CONTINUOUS
 62
     3
100
AcDbLine
 10
532.16812135
 20
72.0
 30
0.0
 11
537.7462769
 21
77.03997805
 31
0.0
  0
LINE
  5
13D
330
1F
100
AcDbEntity
  8
LAY-1
  6
CONTINUOUS
 62
     3
100
AcDbLine
 10
537.7462769
 20
77.03997805
 30
0.0
 11
532.16812135
 21
77.03997805
 31
0.0
  0
LINE
  5
13E
330
1F
100
AcDbEntity
  8
LAY-1
  6
CONTINUOUS
 62
     3
100
AcDbLine
 10
532.16812135
 20
77.03997805
 30
0.0
 11
532.16812135
 21
79.35839845000001
 31
0.0
  0
LINE
  5
13F
330
1F
100
AcDbEntity
  8
LAY-1
  6
CONTINUOUS
 62
     3
100
AcDbLine
 10
532.16812135
 20
79.35839845000001
 30
0.0
 11
543.7602234000001
 21
79.35839845000001
 31
0.0
  0
LINE
  5
140
330
1F
100
AcDbEntity
  8
LAY-1
  6
CONTINUOUS
 62
     3
100
AcDbLine
 10
543.7602234000001
 20
79.35839845000001
 30
0.0
 11
543.7602234000001
 21
80.51760865
 31
0.0
  0
LINE
  5
141
330
1F
100
AcDbEntity
  8
LAY-1
  6
CONTINUOUS
 62
     3
100
AcDbLine
 10
543.7602234000001
 20
80.51760865
 30
0.0
 11
532.16812135
 21
80.51760865
 31
0.0
  0
LINE
  5
142
330
1F
100
AcDbEntity
  8
LAY-1
  6
CONTINUOUS
 62
     3
100
AcDbLine
 10
532.16812135
 20
80.51760865
 30
0.0
 11
532.16812135
 21
82.83602905000001
 31
0.0
  0
LINE
  5
143
330
1F
100
AcDbEntity
  8
LAY-1
  6
CONTINUOUS
 62
     3
100
AcDbLine
 10
532.16812135
 20
82.83602905000001
 30
0.0
 11
543.7602234000001
 21
82.83602905000001
 31
0.0
  0
LINE
  5
144
330
1F
100
AcDbEntity
  8
LAY-1
  6
CONTINUOUS
 62
     3
100
AcDbLine
 10
543.7602234000001
 20
82.83602905000001
 30
0.0
 11
543.7602234000001
 21
83.99523925
 31
0.0
  0
LINE
  5
145
330
1F
100
AcDbEntity
  8
LAY-1
  6
CONTINUOUS
 62
     3
100
AcDbLine
 10
543.7602234000001
 20
83.99523925
 30
0.0
 11
532.16812135
 21
83.99523925
 31
0.0
  0
LINE
  5
146
330
1F
100
AcDbEntity
  8
LAY-1
  6
CONTINUOUS
 62
     3
100
AcDbLine
 10
532.16812135
 20
83.99523925
 30
0.0
 11
532.16812135
 21
86.31365970000002
 31
0.0
  0
LINE
  5
147
330
1F
100
AcDbEntity
  8
LAY-1
  6
CONTINUOUS
 62
     3
100
AcDbLine
 10
532.16812135
 20
86.31365970000002
 30
0.0
 11
538.3963776
 21
86.31365970000002
 31
0.0
  0
LINE
  5
148
330
1F
100
AcDbEntity
  8
LAY-1
  6
CONTINUOUS
 62
     3
100
AcDbLine
 10
538.3963776
 20
86.31365970000002
 30
0.0
 11
537.4797058500001
 21
88.83357239999998
 31
0.0
  0
LINE
  5
149
330
1F
100
AcDbEntity
  8
LAY-1
  6
CONTINUOUS
 62
     3
100
AcDbLine
 10
537.4797058500001
 20
88.83357239999998
 30
0.0
 11
532.16812135
 21
88.83357239999998
 31
0.0
  0
LINE
  5
14A
330
1F
100
AcDbEntity
  8
LAY-1
  6
CONTINUOUS
 62
     3
100
AcDbLine
 10
542.84248355
 20
88.83357239999998
 30
0.0
 11
549.71771245
 21
88.83357239999998
 31
0.0
  0
LINE
  5
14B
330
1F
100
AcDbEntity
  8
LAY-1
  6
CONTINUOUS
 62
     3
100
AcDbLine
 10
549.71771245
 20
88.83357239999998
 30
0.0
 11
548.7999725500001
 21
86.31365970000002
 31
0.0
  0
LINE
  5
14C
330
1F
100
AcDbEntity
  8
LAY-1
  6
CONTINUOUS
 62
     3
100
AcDbLine
 10
548.7999725500001
 20
86.31365970000002
 30
0.0
 11
543.7602234000001
 21
86.31365970000002
 31
0.0
  0
LINE
  5
14D
330
1F
100
AcDbEntity
  8
LAY-1
  6
CONTINUOUS
 62
     3
100
AcDbLine
 10
543.7602234000001
 20
86.31365970000002
 30
0.0
 11
542.84248355
 21
88.83357239999998
 31
0.0
  0
LINE
  5
14E
330
1F
100
AcDbEntity
  8
LAY-1
  6
CONTINUOUS
 62
     3
100
AcDbLine
 10
574.1281891
 20
94.1759796
 30
0.0
 11
572.49473575
 21
87.62400819999999
 31
0.0
  0
LINE
  5
14F
330
1F
100
AcDbEntity
  8
LAY-1
  6
CONTINUOUS
 62
     3
100
AcDbLine
 10
574.1281891
 20
94.1759796
 30
0.0
 11
578.2840729
 21
94.1759796
 31
0.0
  0
LINE
  5
150
330
1F
100
AcDbEntity
  8
LAY-1
  6
CONTINUOUS
 62
     3
100
AcDbLine
 10
578.2840729
 20
94.1759796
 30
0.0
 11
577.6554871000001
 21
91.6559906
 31
0.0
  0
LINE
  5
151
330
1F
100
AcDbEntity
  8
LAY-1
  6
CONTINUOUS
 62
     3
100
AcDbLine
 10
577.6554871000001
 20
91.6559906
 30
0.0
 11
579.2920685
 21
91.6559906
 31
0.0
  0
LINE
  5
152
330
1F
100
AcDbEntity
  8
LAY-1
  6
CONTINUOUS
 62
     3
100
AcDbLine
 10
579.2920685
 20
91.6559906
 30
0.0
 11
579.2920685
 21
94.1759796
 31
0.0
  0
LINE
  5
153
330
1F
100
AcDbEntity
  8
LAY-1
  6
CONTINUOUS
 62
     3
100
AcDbLine
 10
579.2920685
 20
94.1759796
 30
0.0
 11
583.8283538999999
 21
94.1759796
 31
0.0
  0
LINE
  5
154
330
1F
100
AcDbEntity
  8
LAY-1
  6
CONTINUOUS
 62
     3
100
AcDbLine
 10
583.8283538999999
 20
94.1759796
 30
0.0
 11
583.8283538999999
 21
91.6559906
 31
0.0
  0
LINE
  5
155
330
1F
100
AcDbEntity
  8
LAY-1
  6
CONTINUOUS
 62
     3
100
AcDbLine
 10
583.8283538999999
 20
91.6559906
 30
0.0
 11
589.62387085
 21
91.6559906
 31
0.0
  0
LINE
  5
156
330
1F
100
AcDbEntity
  8
LAY-1
  6
CONTINUOUS
 62
     3
100
AcDbLine
 10
589.62387085
 20
91.6559906
 30
0.0
 11
589.62387085
 21
89.1360016
 31
0.0
  0
LINE
  5
157
330
1F
100
AcDbEntity
  8
LAY-1
  6
CONTINUOUS
 62
     3
100
AcDbLine
 10
583.8283538999999
 20
89.1360016
 30
0.0
 11
589.62387085
 21
89.1360016
 31
0.0
  0
LINE
  5
158
330
1F
100
AcDbEntity
  8
LAY-1
  6
CONTINUOUS
 62
     3
100
AcDbLine
 10
583.8283538999999
 20
89.1360016
 30
0.0
 11
583.8283538999999
 21
86.6160126
 31
0.0
  0
LINE
  5
159
330
1F
100
AcDbEntity
  8
LAY-1
  6
CONTINUOUS
 62
     3
100
AcDbLine
 10
583.8283538999999
 20
86.6160126
 30
0.0
 11
590.12832645
 21
86.6160126
 31
0.0
  0
LINE
  5
15A
330
1F
100
AcDbEntity
  8
LAY-1
  6
CONTINUOUS
 62
     3
100
AcDbLine
 10
590.12832645
 20
86.6160126
 30
0.0
 11
590.12832645
 21
84.09602355000001
 31
0.0
  0
LINE
  5
15B
330
1F
100
AcDbEntity
  8
LAY-1
  6
CONTINUOUS
 62
     3
100
AcDbLine
 10
590.12832645
 20
84.09602355000001
 30
0.0
 11
587.92579655
 21
84.09602355000001
 31
0.0
  0
LINE
  5
15C
330
1F
100
AcDbEntity
  8
LAY-1
  6
CONTINUOUS
 62
     3
100
AcDbLine
 10
587.92579655
 20
84.09602355000001
 30
0.0
 11
590.12832645
 21
72.0
 31
0.0
  0
LINE
  5
15D
330
1F
100
AcDbEntity
  8
LAY-1
  6
CONTINUOUS
 62
     3
100
AcDbLine
 10
590.12832645
 20
72.0
 30
0.0
 11
586.029892
 21
72.0
 31
0.0
  0
LINE
  5
15E
330
1F
100
AcDbEntity
  8
LAY-1
  6
CONTINUOUS
 62
     3
100
AcDbLine
 10
586.029892
 20
72.0
 30
0.0
 11
583.8283538999999
 21
84.09587099999999
 31
0.0
  0
LINE
  5
15F
330
1F
100
AcDbEntity
  8
LAY-1
  6
CONTINUOUS
 62
     3
100
AcDbLine
 10
583.8283538999999
 20
84.09587099999999
 30
0.0
 11
583.8283538999999
 21
72.0
 31
0.0
  0
LINE
  5
160
330
1F
100
AcDbEntity
  8
LAY-1
  6
CONTINUOUS
 62
     3
100
AcDbLine
 10
583.8283538999999
 20
72.0
 30
0.0
 11
579.2920685
 21
72.0
 31
0.0
  0
LINE
  5
161
330
1F
100
AcDbEntity
  8
LAY-1
  6
CONTINUOUS
 62
     3
100
AcDbLine
 10
579.2920685
 20
72.0
 30
0.0
 11
579.2920685
 21
84.09602355000001
 31
0.0
  0
LINE
  5
162
330
1F
100
AcDbEntity
  8
LAY-1
  6
CONTINUOUS
 62
     3
100
AcDbLine
 10
579.2920685
 20
84.09602355000001
 30
0.0
 11
577.0905304
 21
72.0
 31
0.0
  0
LINE
  5
163
330
1F
100
AcDbEntity
  8
LAY-1
  6
CONTINUOUS
 62
     3
100
AcDbLine
 10
577.0905304
 20
72.0
 30
0.0
 11
572.9920197
 21
72.0
 31
0.0
  0
LINE
  5
164
330
1F
100
AcDbEntity
  8
LAY-1
  6
CONTINUOUS
 62
     3
100
AcDbLine
 10
572.9920197
 20
72.0
 30
0.0
 11
575.19355775
 21
84.09602355000001
 31
0.0
  0
LINE
  5
165
330
1F
100
AcDbEntity
  8
LAY-1
  6
CONTINUOUS
 62
     3
100
AcDbLine
 10
575.19355775
 20
84.09602355000001
 30
0.0
 11
572.9920197
 21
84.09602355000001
 31
0.0
  0
LINE
  5
166
330
1F
100
AcDbEntity
  8
LAY-1
  6
CONTINUOUS
 62
     3
100
AcDbLine
 10
572.9920197
 20
84.09602355000001
 30
0.0
 11
572.9920197
 21
86.6160126
 31
0.0
  0
LINE
  5
167
330
1F
100
AcDbEntity
  8
LAY-1
  6
CONTINUOUS
 62
     3
100
AcDbLine
 10
572.9920197
 20
86.6160126
 30
0.0
 11
579.2920685
 21
86.6160126
 31
0.0
  0
LINE
  5
168
330
1F
100
AcDbEntity
  8
LAY-1
  6
CONTINUOUS
 62
     3
100
AcDbLine
 10
579.2920685
 20
86.6160126
 30
0.0
 11
579.2920685
 21
89.1360016
 31
0.0
  0
LINE
  5
169
330
1F
100
AcDbEntity
  8
LAY-1
  6
CONTINUOUS
 62
     3
100
AcDbLine
 10
579.2920685
 20
89.1360016
 30
0.0
 11
577.0269775500001
 21
89.1360016
 31
0.0
  0
LINE
  5
16A
330
1F
100
AcDbEntity
  8
LAY-1
  6
CONTINUOUS
 62
     3
100
AcDbLine
 10
577.0269775500001
 20
89.1360016
 30
0.0
 11
576.65061955
 21
87.62400819999999
 31
0.0
  0
LINE
  5
16B
330
1F
100
AcDbEntity
  8
LAY-1
  6
CONTINUOUS
 62
     3
100
AcDbLine
 10
576.65061955
 20
87.62400819999999
 30
0.0
 11
572.49473575
 21
87.62400819999999
 31
0.0
  0
LINE
  5
16C
330
1F
100
AcDbEntity
  8
LAY-1
  6
CONTINUOUS
 62
     3
100
AcDbLine
 10
561.3999939
 20
91.6559906
 30
0.0
 11
561.3999939
 21
89.1360016
 31
0.0
  0
LINE
  5
16D
330
1F
100
AcDbEntity
  8
LAY-1
  6
CONTINUOUS
 62
     3
100
AcDbLine
 10
561.3999939
 20
91.6559906
 30
0.0
 11
566.43981935
 21
91.6559906
 31
0.0
  0
LINE
  5
16E
330
1F
100
AcDbEntity
  8
LAY-1
  6
CONTINUOUS
 62
     3
100
AcDbLine
 10
566.43981935
 20
91.6559906
 30
0.0
 11
566.43981935
 21
94.1759796
 31
0.0
  0
LINE
  5
16F
330
1F
100
AcDbEntity
  8
LAY-1
  6
CONTINUOUS
 62
     3
100
AcDbLine
 10
566.43981935
 20
94.1759796
 30
0.0
 11
570.97610475
 21
94.1759796
 31
0.0
  0
LINE
  5
170
330
1F
100
AcDbEntity
  8
LAY-1
  6
CONTINUOUS
 62
     3
100
AcDbLine
 10
570.97610475
 20
94.1759796
 30
0.0
 11
570.97610475
 21
91.6559906
 31
0.0
  0
LINE
  5
171
330
1F
100
AcDbEntity
  8
LAY-1
  6
CONTINUOUS
 62
     3
100
AcDbLine
 10
570.97610475
 20
91.6559906
 30
0.0
 11
572.4875641
 21
91.6559906
 31
0.0
  0
LINE
  5
172
330
1F
100
AcDbEntity
  8
LAY-1
  6
CONTINUOUS
 62
     3
100
AcDbLine
 10
572.4875641
 20
91.6559906
 30
0.0
 11
572.4875641
 21
89.1360016
 31
0.0
  0
LINE
  5
173
330
1F
100
AcDbEntity
  8
LAY-1
  6
CONTINUOUS
 62
     3
100
AcDbLine
 10
572.4875641
 20
89.1360016
 30
0.0
 11
570.97610475
 21
89.1360016
 31
0.0
  0
LINE
  5
174
330
1F
100
AcDbEntity
  8
LAY-1
  6
CONTINUOUS
 62
     3
100
AcDbLine
 10
570.97610475
 20
89.1360016
 30
0.0
 11
572.4875641
 21
87.05500794999999
 31
0.0
  0
LINE
  5
175
330
1F
100
AcDbEntity
  8
LAY-1
  6
CONTINUOUS
 62
     3
100
AcDbLine
 10
572.4875641
 20
87.05500794999999
 30
0.0
 11
572.4875641
 21
81.9103546
 31
0.0
  0
LINE
  5
176
330
1F
100
AcDbEntity
  8
LAY-1
  6
CONTINUOUS
 62
     3
100
AcDbLine
 10
572.4875641
 20
81.9103546
 30
0.0
 11
570.97610475
 21
83.99142455
 31
0.0
  0
LINE
  5
177
330
1F
100
AcDbEntity
  8
LAY-1
  6
CONTINUOUS
 62
     3
100
AcDbLine
 10
570.97610475
 20
83.99142455
 30
0.0
 11
570.97610475
 21
72.0
 31
0.0
  0
LINE
  5
178
330
1F
100
AcDbEntity
  8
LAY-1
  6
CONTINUOUS
 62
     3
100
AcDbLine
 10
570.97610475
 20
72.0
 30
0.0
 11
566.43981935
 21
72.0
 31
0.0
  0
LINE
  5
179
330
1F
100
AcDbEntity
  8
LAY-1
  6
CONTINUOUS
 62
     3
100
AcDbLine
 10
566.43981935
 20
72.0
 30
0.0
 11
566.43981935
 21
89.1360016
 31
0.0
  0
LINE
  5
17A
330
1F
100
AcDbEntity
  8
LAY-1
  6
CONTINUOUS
 62
     3
100
AcDbLine
 10
566.24191285
 20
89.1360016
 30
0.0
 11
564.4403076499999
 21
72.0
 31
0.0
  0
LINE
  5
17B
330
1F
100
AcDbEntity
  8
LAY-1
  6
CONTINUOUS
 62
     3
100
AcDbLine
 10
564.4403076499999
 20
72.0
 30
0.0
 11
561.3999939
 21
72.0
 31
0.0
  0
LINE
  5
17C
330
1F
100
AcDbEntity
  8
LAY-1
  6
CONTINUOUS
 62
     3
100
AcDbLine
 10
561.3999939
 20
72.0
 30
0.0
 11
563.20159915
 21
89.1360016
 31
0.0
  0
LINE
  5
17D
330
1F
100
AcDbEntity
  8
LAY-1
  6
CONTINUOUS
 62
     3
100
AcDbLine
 10
563.20159915
 20
89.1360016
 30
0.0
 11
561.3999939
 21
89.1360016
 31
0.0
  0
LINE
  5
17E
330
1F
100
AcDbEntity
  8
LAY-1
  6
CONTINUOUS
 62
     3
100
AcDbLine
 10
592.6477814
 20
86.1120148
 30
0.0
 11
592.6477814
 21
83.08802795
 31
0.0
  0
LINE
  5
17F
330
1F
100
AcDbEntity
  8
LAY-1
  6
CONTINUOUS
 62
     3
100
AcDbLine
 10
592.6477814
 20
86.1120148
 30
0.0
 11
607.76817325
 21
86.1120148
 31
0.0
  0
LINE
  5
180
330
1F
100
AcDbEntity
  8
LAY-1
  6
CONTINUOUS
 62
     3
100
AcDbLine
 10
607.76817325
 20
86.1120148
 30
0.0
 11
607.76817325
 21
83.08802795
 31
0.0
  0
LINE
  5
181
330
1F
100
AcDbEntity
  8
LAY-1
  6
CONTINUOUS
 62
     3
100
AcDbLine
 10
607.76817325
 20
83.08802795
 30
0.0
 11
602.97958375
 21
83.08802795
 31
0.0
  0
LINE
  5
182
330
1F
100
AcDbEntity
  8
LAY-1
  6
CONTINUOUS
 62
     3
100
AcDbLine
 10
602.97958375
 20
83.08802795
 30
0.0
 11
602.97958375
 21
78.88705445000001
 31
0.0
  0
LINE
  5
183
330
1F
100
AcDbEntity
  8
LAY-1
  6
CONTINUOUS
 62
     3
100
AcDbLine
 10
602.97958375
 20
78.88705445000001
 30
0.0
 11
608.020401
 21
79.95829775
 31
0.0
  0
LINE
  5
184
330
1F
100
AcDbEntity
  8
LAY-1
  6
CONTINUOUS
 62
     3
100
AcDbLine
 10
608.020401
 20
79.95829775
 30
0.0
 11
608.020401
 21
75.32099915
 31
0.0
  0
LINE
  5
185
330
1F
100
AcDbEntity
  8
LAY-1
  6
CONTINUOUS
 62
     3
100
AcDbLine
 10
608.020401
 20
75.32099915
 30
0.0
 11
592.3954773
 21
72.0
 31
0.0
  0
LINE
  5
186
330
1F
100
AcDbEntity
  8
LAY-1
  6
CONTINUOUS
 62
     3
100
AcDbLine
 10
592.3954773
 20
72.0
 30
0.0
 11
592.3954773
 21
76.63729860000001
 31
0.0
  0
LINE
  5
187
330
1F
100
AcDbEntity
  8
LAY-1
  6
CONTINUOUS
 62
     3
100
AcDbLine
 10
592.3954773
 20
76.63729860000001
 30
0.0
 11
597.4362945999999
 21
77.70861815
 31
0.0
  0
LINE
  5
188
330
1F
100
AcDbEntity
  8
LAY-1
  6
CONTINUOUS
 62
     3
100
AcDbLine
 10
597.4362945999999
 20
77.70861815
 30
0.0
 11
597.4362945999999
 21
83.08802795
 31
0.0
  0
LINE
  5
189
330
1F
100
AcDbEntity
  8
LAY-1
  6
CONTINUOUS
 62
     3
100
AcDbLine
 10
597.4362945999999
 20
83.08802795
 30
0.0
 11
592.6477814
 21
83.08802795
 31
0.0
  0
LINE
  5
18A
330
1F
100
AcDbEntity
  8
LAY-1
  6
CONTINUOUS
 62
     3
100
AcDbLine
 10
591.13632205
 20
92.1599884
 30
0.0
 11
591.13632205
 21
89.1360016
 31
0.0
  0
LINE
  5
18B
330
1F
100
AcDbEntity
  8
LAY-1
  6
CONTINUOUS
 62
     3
100
AcDbLine
 10
591.13632205
 20
92.1599884
 30
0.0
 11
606.12243655
 21
92.1599884
 31
0.0
  0
LINE
  5
18C
330
1F
100
AcDbEntity
  8
LAY-1
  6
CONTINUOUS
 62
     3
100
AcDbLine
 10
606.12243655
 20
92.1599884
 30
0.0
 11
605.3892517500001
 21
94.1759796
 31
0.0
  0
LINE
  5
18D
330
1F
100
AcDbEntity
  8
LAY-1
  6
CONTINUOUS
 62
     3
100
AcDbLine
 10
605.3892517500001
 20
94.1759796
 30
0.0
 11
611.2882996000001
 21
94.1759796
 31
0.0
  0
LINE
  5
18E
330
1F
100
AcDbEntity
  8
LAY-1
  6
CONTINUOUS
 62
     3
100
AcDbLine
 10
611.2882996000001
 20
94.1759796
 30
0.0
 11
612.0224761999999
 21
92.1599884
 31
0.0
  0
LINE
  5
18F
330
1F
100
AcDbEntity
  8
LAY-1
  6
CONTINUOUS
 62
     3
100
AcDbLine
 10
612.0224761999999
 20
92.1599884
 30
0.0
 11
613.3124542500001
 21
92.1599884
 31
0.0
  0
LINE
  5
190
330
1F
100
AcDbEntity
  8
LAY-1
  6
CONTINUOUS
 62
     3
100
AcDbLine
 10
613.3124542500001
 20
92.1599884
 30
0.0
 11
613.3124542500001
 21
94.1759796
 31
0.0
  0
LINE
  5
191
330
1F
100
AcDbEntity
  8
LAY-1
  6
CONTINUOUS
 62
     3
100
AcDbLine
 10
613.3124542500001
 20
94.1759796
 30
0.0
 11
617.8477478499999
 21
94.1759796
 31
0.0
  0
LINE
  5
192
330
1F
100
AcDbEntity
  8
LAY-1
  6
CONTINUOUS
 62
     3
100
AcDbLine
 10
617.8477478499999
 20
94.1759796
 30
0.0
 11
617.8477478499999
 21
92.1599884
 31
0.0
  0
LINE
  5
193
330
1F
100
AcDbEntity
  8
LAY-1
  6
CONTINUOUS
 62
     3
100
AcDbLine
 10
617.8477478499999
 20
92.1599884
 30
0.0
 11
619.3601990000001
 21
92.1599884
 31
0.0
  0
LINE
  5
194
330
1F
100
AcDbEntity
  8
LAY-1
  6
CONTINUOUS
 62
     3
100
AcDbLine
 10
619.3601990000001
 20
92.1599884
 30
0.0
 11
619.3601990000001
 21
89.1360016
 31
0.0
  0
LINE
  5
195
330
1F
100
AcDbEntity
  8
LAY-1
  6
CONTINUOUS
 62
     3
100
AcDbLine
 10
619.3601990000001
 20
89.1360016
 30
0.0
 11
613.1227112
 21
89.1360016
 31
0.0
  0
LINE
  5
196
330
1F
100
AcDbEntity
  8
LAY-1
  6
CONTINUOUS
 62
     3
100
AcDbLine
 10
613.1227112
 20
89.1360016
 30
0.0
 11
619.3601990000001
 21
72.0
 31
0.0
  0
LINE
  5
197
330
1F
100
AcDbEntity
  8
LAY-1
  6
CONTINUOUS
 62
     3
100
AcDbLine
 10
619.3601990000001
 20
72.0
 30
0.0
 11
613.46008305
 21
72.0
 31
0.0
  0
LINE
  5
198
330
1F
100
AcDbEntity
  8
LAY-1
  6
CONTINUOUS
 62
     3
100
AcDbLine
 10
613.46008305
 20
72.0
 30
0.0
 11
607.22366335
 21
89.1360016
 31
0.0
  0
LINE
  5
199
330
1F
100
AcDbEntity
  8
LAY-1
  6
CONTINUOUS
 62
     3
100
AcDbLine
 10
607.22366335
 20
89.1360016
 30
0.0
 11
591.13632205
 21
89.1360016
 31
0.0
  0
LINE
  5
19A
330
1F
100
AcDbEntity
  8
LAY-1
  6
CONTINUOUS
 62
     3
100
AcDbLine
 10
620.3681946
 20
89.87391665000001
 30
0.0
 11
620.3681946
 21
86.6849823
 31
0.0
  0
LINE
  5
19B
330
1F
100
AcDbEntity
  8
LAY-1
  6
CONTINUOUS
 62
     3
100
AcDbLine
 10
620.3681946
 20
89.87391665000001
 30
0.0
 11
634.7318267999999
 21
94.67997740000001
 31
0.0
  0
LINE
  5
19C
330
1F
100
AcDbEntity
  8
LAY-1
  6
CONTINUOUS
 62
     3
100
AcDbLine
 10
634.7318267999999
 20
94.67997740000001
 30
0.0
 11
649.0955352999999
 21
89.87376404999999
 31
0.0
  0
LINE
  5
19D
330
1F
100
AcDbEntity
  8
LAY-1
  6
CONTINUOUS
 62
     3
100
AcDbLine
 10
649.0955352999999
 20
89.87376404999999
 30
0.0
 11
649.0955352999999
 21
86.6849823
 31
0.0
  0
LINE
  5
19E
330
1F
100
AcDbEntity
  8
LAY-1
  6
CONTINUOUS
 62
     3
100
AcDbLine
 10
649.0955352999999
 20
86.6849823
 30
0.0
 11
644.8124695
 21
88.11839295
 31
0.0
  0
LINE
  5
19F
330
1F
100
AcDbEntity
  8
LAY-1
  6
CONTINUOUS
 62
     3
100
AcDbLine
 10
644.8124695
 20
88.11839295
 30
0.0
 11
644.8124695
 21
85.60801699999999
 31
0.0
  0
LINE
  5
1A0
330
1F
100
AcDbEntity
  8
LAY-1
  6
CONTINUOUS
 62
     3
100
AcDbLine
 10
644.8124695
 20
85.60801699999999
 30
0.0
 11
624.6522521999999
 21
85.60801699999999
 31
0.0
  0
LINE
  5
1A1
330
1F
100
AcDbEntity
  8
LAY-1
  6
CONTINUOUS
 62
     3
100
AcDbLine
 10
624.6522521999999
 20
85.60801699999999
 30
0.0
 11
624.6522521999999
 21
88.11839295
 31
0.0
  0
LINE
  5
1A2
330
1F
100
AcDbEntity
  8
LAY-1
  6
CONTINUOUS
 62
     3
100
AcDbLine
 10
624.6522521999999
 20
88.11839295
 30
0.0
 11
620.3681946
 21
86.6849823
 31
0.0
  0
LINE
  5
1A3
330
1F
100
AcDbEntity
  8
LAY-1
  6
CONTINUOUS
 62
     3
100
AcDbLine
 10
626.1872864
 20
88.6320038
 30
0.0
 11
634.7318267999999
 21
91.4911194
 31
0.0
  0
LINE
  5
1A4
330
1F
100
AcDbEntity
  8
LAY-1
  6
CONTINUOUS
 62
     3
100
AcDbLine
 10
634.7318267999999
 20
91.4911194
 30
0.0
 11
643.2774353499999
 21
88.6320038
 31
0.0
  0
LINE
  5
1A5
330
1F
100
AcDbEntity
  8
LAY-1
  6
CONTINUOUS
 62
     3
100
AcDbLine
 10
643.2774353499999
 20
88.6320038
 30
0.0
 11
626.1872864
 21
88.6320038
 31
0.0
  0
LINE
  5
1A6
330
1F
100
AcDbEntity
  8
LAY-1
  6
CONTINUOUS
 62
     3
100
AcDbLine
 10
620.3681946
 20
83.59194944999999
 30
0.0
 11
620.3681946
 21
80.56796265
 31
0.0
  0
LINE
  5
1A7
330
1F
100
AcDbEntity
  8
LAY-1
  6
CONTINUOUS
 62
     3
100
AcDbLine
 10
620.3681946
 20
83.59194944999999
 30
0.0
 11
649.0955352999999
 21
83.59194944999999
 31
0.0
  0
LINE
  5
1A8
330
1F
100
AcDbEntity
  8
LAY-1
  6
CONTINUOUS
 62
     3
100
AcDbLine
 10
649.0955352999999
 20
83.59194944999999
 30
0.0
 11
649.0955352999999
 21
80.56796265
 31
0.0
  0
LINE
  5
1A9
330
1F
100
AcDbEntity
  8
LAY-1
  6
CONTINUOUS
 62
     3
100
AcDbLine
 10
649.0955352999999
 20
80.56796265
 30
0.0
 11
645.10055545
 21
80.56796265
 31
0.0
  0
LINE
  5
1AA
330
1F
100
AcDbEntity
  8
LAY-1
  6
CONTINUOUS
 62
     3
100
AcDbLine
 10
645.10055545
 20
80.56796265
 30
0.0
 11
649.0955352999999
 21
72.0
 31
0.0
  0
LINE
  5
1AB
330
1F
100
AcDbEntity
  8
LAY-1
  6
CONTINUOUS
 62
     3
100
AcDbLine
 10
649.0955352999999
 20
72.0
 30
0.0
 11
620.3681946
 21
72.0
 31
0.0
  0
LINE
  5
1AC
330
1F
100
AcDbEntity
  8
LAY-1
  6
CONTINUOUS
 62
     3
100
AcDbLine
 10
620.3681946
 20
72.0
 30
0.0
 11
624.36309815
 21
80.56796265
 31
0.0
  0
LINE
  5
1AD
330
1F
100
AcDbEntity
  8
LAY-1
  6
CONTINUOUS
 62
     3
100
AcDbLine
 10
624.36309815
 20
80.56796265
 30
0.0
 11
620.3681946
 21
80.56796265
 31
0.0
  0
LINE
  5
1AE
330
1F
100
AcDbEntity
  8
LAY-1
  6
CONTINUOUS
 62
     3
100
AcDbLine
 10
629.92378235
 20
80.56796265
 30
0.0
 11
639.53987125
 21
80.56796265
 31
0.0
  0
LINE
  5
1AF
330
1F
100
AcDbEntity
  8
LAY-1
  6
CONTINUOUS
 62
     3
100
AcDbLine
 10
639.53987125
 20
80.56796265
 30
0.0
 11
642.1248627
 21
75.0239868
 31
0.0
  0
LINE
  5
1B0
330
1F
100
AcDbEntity
  8
LAY-1
  6
CONTINUOUS
 62
     3
100
AcDbLine
 10
642.1248627
 20
75.0239868
 30
0.0
 11
627.3387909
 21
75.0239868
 31
0.0
  0
LINE
  5
1B1
330
1F
100
AcDbEntity
  8
LAY-1
  6
CONTINUOUS
 62
     3
100
AcDbLine
 10
629.92378235
 20
80.56796265
 30
0.0
 11
627.3387909
 21
75.0239868
 31
0.0
  0
LINE
  5
1B2
330
1F
100
AcDbEntity
  8
LAY-1
  6
CONTINUOUS
 62
     3
100
AcDbLine
 10
663.7124633999999
 20
88.6320038
 30
0.0
 11
663.7124633999999
 21
85.60801699999999
 31
0.0
  0
LINE
  5
1B3
330
1F
100
AcDbEntity
  8
LAY-1
  6
CONTINUOUS
 62
     3
100
AcDbLine
 10
663.7124633999999
 20
88.6320038
 30
0.0
 11
668.2477570000001
 21
88.6320038
 31
0.0
  0
LINE
  5
1B4
330
1F
100
AcDbEntity
  8
LAY-1
  6
CONTINUOUS
 62
     3
100
AcDbLine
 10
668.2477570000001
 20
88.6320038
 30
0.0
 11
668.2477570000001
 21
94.1759796
 31
0.0
  0
LINE
  5
1B5
330
1F
100
AcDbEntity
  8
LAY-1
  6
CONTINUOUS
 62
     3
100
AcDbLine
 10
668.2477570000001
 20
94.1759796
 30
0.0
 11
673.28750615
 21
94.1759796
 31
0.0
  0
LINE
  5
1B6
330
1F
100
AcDbEntity
  8
LAY-1
  6
CONTINUOUS
 62
     3
100
AcDbLine
 10
673.28750615
 20
94.1759796
 30
0.0
 11
673.28750615
 21
88.6320038
 31
0.0
  0
LINE
  5
1B7
330
1F
100
AcDbEntity
  8
LAY-1
  6
CONTINUOUS
 62
     3
100
AcDbLine
 10
673.28750615
 20
88.6320038
 30
0.0
 11
677.8238678
 21
88.6320038
 31
0.0
  0
LINE
  5
1B8
330
1F
100
AcDbEntity
  8
LAY-1
  6
CONTINUOUS
 62
     3
100
AcDbLine
 10
677.8238678
 20
88.6320038
 30
0.0
 11
677.8238678
 21
85.60801699999999
 31
0.0
  0
LINE
  5
1B9
330
1F
100
AcDbEntity
  8
LAY-1
  6
CONTINUOUS
 62
     3
100
AcDbLine
 10
677.8238678
 20
85.60801699999999
 30
0.0
 11
673.28750615
 21
85.60801699999999
 31
0.0
  0
LINE
  5
1BA
330
1F
100
AcDbEntity
  8
LAY-1
  6
CONTINUOUS
 62
     3
100
AcDbLine
 10
673.28750615
 20
85.60801699999999
 30
0.0
 11
673.28750615
 21
75.0239868
 31
0.0
  0
LINE
  5
1BB
330
1F
100
AcDbEntity
  8
LAY-1
  6
CONTINUOUS
 62
     3
100
AcDbLine
 10
673.28750615
 20
75.0239868
 30
0.0
 11
678.3283233999999
 21
75.0239868
 31
0.0
  0
LINE
  5
1BC
330
1F
100
AcDbEntity
  8
LAY-1
  6
CONTINUOUS
 62
     3
100
AcDbLine
 10
678.3283233999999
 20
75.0239868
 30
0.0
 11
678.3283233999999
 21
72.0
 31
0.0
  0
LINE
  5
1BD
330
1F
100
AcDbEntity
  8
LAY-1
  6
CONTINUOUS
 62
     3
100
AcDbLine
 10
678.3283233999999
 20
72.0
 30
0.0
 11
661.69548035
 21
72.0
 31
0.0
  0
LINE
  5
1BE
330
1F
100
AcDbEntity
  8
LAY-1
  6
CONTINUOUS
 62
     3
100
AcDbLine
 10
661.69548035
 20
72.0
 30
0.0
 11
661.69548035
 21
75.0239868
 31
0.0
  0
LINE
  5
1BF
330
1F
100
AcDbEntity
  8
LAY-1
  6
CONTINUOUS
 62
     3
100
AcDbLine
 10
661.69548035
 20
75.0239868
 30
0.0
 11
668.2477570000001
 21
75.0239868
 31
0.0
  0
LINE
  5
1C0
330
1F
100
AcDbEntity
  8
LAY-1
  6
CONTINUOUS
 62
     3
100
AcDbLine
 10
668.2477570000001
 20
75.0239868
 30
0.0
 11
668.2477570000001
 21
85.60801699999999
 31
0.0
  0
LINE
  5
1C1
330
1F
100
AcDbEntity
  8
LAY-1
  6
CONTINUOUS
 62
     3
100
AcDbLine
 10
668.2477570000001
 20
85.60801699999999
 30
0.0
 11
663.7124633999999
 21
85.60801699999999
 31
0.0
  0
LINE
  5
1C2
330
1F
100
AcDbEntity
  8
LAY-1
  6
CONTINUOUS
 62
     3
100
AcDbLine
 10
650.1034546
 20
92.1599884
 30
0.0
 11
650.1034546
 21
89.1360016
 31
0.0
  0
LINE
  5
1C3
330
1F
100
AcDbEntity
  8
LAY-1
  6
CONTINUOUS
 62
     3
100
AcDbLine
 10
650.1034546
 20
92.1599884
 30
0.0
 11
654.6398163000001
 21
92.1599884
 31
0.0
  0
LINE
  5
1C4
330
1F
100
AcDbEntity
  8
LAY-1
  6
CONTINUOUS
 62
     3
100
AcDbLine
 10
654.6398163000001
 20
92.1599884
 30
0.0
 11
654.6398163000001
 21
94.1759796
 31
0.0
  0
LINE
  5
1C5
330
1F
100
AcDbEntity
  8
LAY-1
  6
CONTINUOUS
 62
     3
100
AcDbLine
 10
654.6398163000001
 20
94.1759796
 30
0.0
 11
659.67956545
 21
94.1759796
 31
0.0
  0
LINE
  5
1C6
330
1F
100
AcDbEntity
  8
LAY-1
  6
CONTINUOUS
 62
     3
100
AcDbLine
 10
659.67956545
 20
94.1759796
 30
0.0
 11
659.67956545
 21
92.1599884
 31
0.0
  0
LINE
  5
1C7
330
1F
100
AcDbEntity
  8
LAY-1
  6
CONTINUOUS
 62
     3
100
AcDbLine
 10
659.67956545
 20
92.1599884
 30
0.0
 11
664.21592715
 21
92.1599884
 31
0.0
  0
LINE
  5
1C8
330
1F
100
AcDbEntity
  8
LAY-1
  6
CONTINUOUS
 62
     3
100
AcDbLine
 10
664.21592715
 20
92.1599884
 30
0.0
 11
659.01306155
 21
84.72788999999999
 31
0.0
  0
LINE
  5
1C9
330
1F
100
AcDbEntity
  8
LAY-1
  6
CONTINUOUS
 62
     3
100
AcDbLine
 10
659.01306155
 20
84.72788999999999
 30
0.0
 11
663.7124633999999
 21
81.43794249999999
 31
0.0
  0
LINE
  5
1CA
330
1F
100
AcDbEntity
  8
LAY-1
  6
CONTINUOUS
 62
     3
100
AcDbLine
 10
663.7124633999999
 20
81.43794249999999
 30
0.0
 11
663.7124633999999
 21
75.90060425
 31
0.0
  0
LINE
  5
1CB
330
1F
100
AcDbEntity
  8
LAY-1
  6
CONTINUOUS
 62
     3
100
AcDbLine
 10
663.7124633999999
 20
75.90060425
 30
0.0
 11
659.67956545
 21
78.7238617
 31
0.0
  0
LINE
  5
1CC
330
1F
100
AcDbEntity
  8
LAY-1
  6
CONTINUOUS
 62
     3
100
AcDbLine
 10
659.67956545
 20
78.7238617
 30
0.0
 11
659.67956545
 21
72.0
 31
0.0
  0
LINE
  5
1CD
330
1F
100
AcDbEntity
  8
LAY-1
  6
CONTINUOUS
 62
     3
100
AcDbLine
 10
659.67956545
 20
72.0
 30
0.0
 11
654.6398163000001
 21
72.0
 31
0.0
  0
LINE
  5
1CE
330
1F
100
AcDbEntity
  8
LAY-1
  6
CONTINUOUS
 62
     3
100
AcDbLine
 10
654.6398163000001
 20
72.0
 30
0.0
 11
654.6398163000001
 21
78.47994994999999
 31
0.0
  0
LINE
  5
1CF
330
1F
100
AcDbEntity
  8
LAY-1
  6
CONTINUOUS
 62
     3
100
AcDbLine
 10
654.6398163000001
 20
78.47994994999999
 30
0.0
 11
650.1034546
 21
72.0
 31
0.0
  0
LINE
  5
1D0
330
1F
100
AcDbEntity
  8
LAY-1
  6
CONTINUOUS
 62
     3
100
AcDbLine
 10
650.1034546
 20
72.0
 30
0.0
 11
650.1034546
 21
79.9096985
 31
0.0
  0
LINE
  5
1D1
330
1F
100
AcDbEntity
  8
LAY-1
  6
CONTINUOUS
 62
     3
100
AcDbLine
 10
650.1034546
 20
79.9096985
 30
0.0
 11
656.5624237500001
 21
89.1360016
 31
0.0
  0
LINE
  5
1D2
330
1F
100
AcDbEntity
  8
LAY-1
  6
CONTINUOUS
 62
     3
100
AcDbLine
 10
656.5624237500001
 20
89.1360016
 30
0.0
 11
650.1034546
 21
89.1360016
 31
0.0
  0
ARC
  5
1D3
330
1F
100
AcDbEntity
  8
LAY-1
  6
CONTINUOUS
 62
     2
100
AcDbCircle
 10
429.0805054
 20
85.10020449999999
 30
0.0
 40
3.150061050000001
100
AcDbArc
 50
310.7683105900002
 51
335.9987793399994
  0
LINE
  5
1D4
330
1F
100
AcDbEntity
  8
LAY-1
  6
CONTINUOUS
 62
     2
100
AcDbLine
 10
432.70011905
 20
85.48205565
 30
0.0
 11
431.9598388999999
 21
83.81953429999999
 31
0.0
  0
LINE
  5
1D5
330
1F
100
AcDbEntity
  8
LAY-1
  6
CONTINUOUS
 62
     2
100
AcDbLine
 10
423.9925384999999
 20
87.3720093
 30
0.0
 11
435.6092072
 21
87.3720093
 31
0.0
  0
ARC
  5
1D6
330
1F
100
AcDbEntity
  8
LAY-1
  6
CONTINUOUS
 62
     2
100
AcDbCircle
 10
475.6496429499999
 20
81.07203675000001
 30
0.0
 40
7.812004100000003
100
AcDbArc
 50
270.0000305200002
 51
324.0011596700004
  0
ARC
  5
1D7
330
1F
100
AcDbEntity
  8
LAY-1
  6
CONTINUOUS
 62
     2
100
AcDbCircle
 10
475.6496429499999
 20
81.07203675000001
 30
0.0
 40
6.552004800000002
100
AcDbArc
 50
270.0000305200008
 51
324.0011596700003
  0
ARC
  5
1D8
330
1F
100
AcDbEntity
  8
LAY-1
  6
CONTINUOUS
 62
     2
100
AcDbCircle
 10
399.28283695
 20
81.07203675000001
 30
0.0
 40
7.811989800000003
100
AcDbArc
 50
270.0000305199999
 51
333.99855042
  0
ARC
  5
1D9
330
1F
100
AcDbEntity
  8
LAY-1
  6
CONTINUOUS
 62
     2
100
AcDbCircle
 10
398.8827515
 20
81.07203675000001
 30
0.0
 40
5.291996
100
AcDbArc
 50
270.0000305200008
 51
333.99855042
  0
ARC
  5
1DA
330
1F
100
AcDbEntity
  8
LAY-1
  6
CONTINUOUS
 62
     2
100
AcDbCircle
 10
399.0827942
 20
81.07203675000001
 30
0.0
 40
6.551995300000002
100
AcDbArc
 50
270.0000305200002
 51
333.9985504200004
  0
LINE
  5
1DB
330
1F
100
AcDbEntity
  8
LAY-1
  6
CONTINUOUS
 62
     2
100
AcDbLine
 10
385.9204102
 20
93.0160637
 30
0.0
 11
398.1919861
 21
93.0160637
 31
0.0
  0
LINE
  5
1DC
330
1F
100
AcDbEntity
  8
LAY-1
  6
CONTINUOUS
 62
     2
100
AcDbLine
 10
385.9204102
 20
91.85607149999998
 30
0.0
 11
398.1919861
 21
91.85607149999998
 31
0.0
  0
LINE
  5
1DD
330
1F
100
AcDbEntity
  8
LAY-1
  6
CONTINUOUS
 62
     2
100
AcDbLine
 10
385.9204102
 20
90.69615555
 30
0.0
 11
398.1919861
 21
90.69615555
 31
0.0
  0
LINE
  5
1DE
330
1F
100
AcDbEntity
  8
LAY-1
  6
CONTINUOUS
 62
     2
100
AcDbLine
 10
385.9204102
 20
87.06801604999998
 30
0.0
 11
398.1919861
 21
87.06801604999998
 31
0.0
  0
LINE
  5
1DF
330
1F
100
AcDbEntity
  8
LAY-1
  6
CONTINUOUS
 62
     2
100
AcDbLine
 10
385.9204102
 20
85.80794525
 30
0.0
 11
398.1919861
 21
85.80794525
 31
0.0
  0
LINE
  5
1E0
330
1F
100
AcDbEntity
  8
LAY-1
  6
CONTINUOUS
 62
     2
100
AcDbLine
 10
385.9204102
 20
84.64802935
 30
0.0
 11
398.1919861
 21
84.64802935
 31
0.0
  0
LINE
  5
1E1
330
1F
100
AcDbEntity
  8
LAY-1
  6
CONTINUOUS
 62
     2
100
AcDbLine
 10
385.9204102
 20
75.77998355
 30
0.0
 11
398.8827515
 21
75.77998355
 31
0.0
  0
LINE
  5
1E2
330
1F
100
AcDbEntity
  8
LAY-1
  6
CONTINUOUS
 62
     2
100
AcDbLine
 10
385.9204102
 20
74.51998900000001
 30
0.0
 11
398.8827515
 21
74.51998900000001
 31
0.0
  0
LINE
  5
1E3
330
1F
100
AcDbEntity
  8
LAY-1
  6
CONTINUOUS
 62
     2
100
AcDbLine
 10
385.9204102
 20
73.2599945
 30
0.0
 11
398.8827515
 21
73.2599945
 31
0.0
  0
LINE
  5
1E4
330
1F
100
AcDbEntity
  8
LAY-1
  6
CONTINUOUS
 62
     2
100
AcDbLine
 10
403.63853455
 20
78.75201415000001
 30
0.0
 11
408.05412295
 21
87.80518244999999
 31
0.0
  0
LINE
  5
1E5
330
1F
100
AcDbEntity
  8
LAY-1
  6
CONTINUOUS
 62
     2
100
AcDbLine
 10
404.97062685
 20
78.19979860000001
 30
0.0
 11
409.6558380499999
 21
87.80518725
 31
0.0
  0
LINE
  5
1E6
330
1F
100
AcDbEntity
  8
LAY-1
  6
CONTINUOUS
 62
     2
100
AcDbLine
 10
406.30264285
 20
77.64712525
 30
0.0
 11
411.2565612999999
 21
87.80517294999999
 31
0.0
  0
LINE
  5
1E7
330
1F
100
AcDbEntity
  8
LAY-1
  6
CONTINUOUS
 62
     2
100
AcDbLine
 10
404.5681763
 20
92.84798815
 30
0.0
 11
406.7591858
 21
92.84798815
 31
0.0
  0
LINE
  5
1E8
330
1F
100
AcDbEntity
  8
LAY-1
  6
CONTINUOUS
 62
     2
100
AcDbLine
 10
404.5681763
 20
91.41999435
 30
0.0
 11
406.7591858
 21
91.41999435
 31
0.0
  0
LINE
  5
1E9
330
1F
100
AcDbEntity
  8
LAY-1
  6
CONTINUOUS
 62
     2
100
AcDbLine
 10
410.1124573
 20
92.84798815
 30
0.0
 11
412.3034668
 21
92.84798815
 31
0.0
  0
LINE
  5
1EA
330
1F
100
AcDbEntity
  8
LAY-1
  6
CONTINUOUS
 62
     2
100
AcDbLine
 10
410.1124573
 20
91.41999435
 30
0.0
 11
412.3034668
 21
91.41999435
 31
0.0
  0
LINE
  5
1EB
330
1F
100
AcDbEntity
  8
LAY-1
  6
CONTINUOUS
 62
     2
100
AcDbLine
 10
415.6567382999999
 20
86.11209105
 30
0.0
 11
421.64031985
 21
86.11209105
 31
0.0
  0
LINE
  5
1EC
330
1F
100
AcDbEntity
  8
LAY-1
  6
CONTINUOUS
 62
     2
100
AcDbLine
 10
420.18768315
 20
91.25134185
 30
0.0
 11
420.80253605
 21
87.3720093
 31
0.0
  0
LINE
  5
1ED
330
1F
100
AcDbEntity
  8
LAY-1
  6
CONTINUOUS
 62
     2
100
AcDbLine
 10
423.0940247
 20
72.90865135
 30
0.0
 11
421.22451785
 21
84.70952224999999
 31
0.0
  0
ARC
  5
1EE
330
1F
100
AcDbEntity
  8
LAY-1
  6
CONTINUOUS
 62
     2
100
AcDbCircle
 10
428.98048405
 20
85.10020449999999
 30
0.0
 40
4.41006065
100
AcDbArc
 50
272.671386720001
 51
335.9987793000008
  0
ARC
  5
1EF
330
1F
100
AcDbEntity
  8
LAY-1
  6
CONTINUOUS
 62
     2
100
AcDbCircle
 10
428.88046265
 20
85.10020449999999
 30
0.0
 40
5.67005635
100
AcDbArc
 50
267.3674316300005
 51
335.9987792900001
  0
LINE
  5
1F0
330
1F
100
AcDbEntity
  8
LAY-1
  6
CONTINUOUS
 62
     2
100
AcDbLine
 10
436.1758423000001
 20
87.54526330000002
 30
0.0
 11
434.06074525
 21
82.79429624999999
 31
0.0
  0
LINE
  5
1F1
330
1F
100
AcDbEntity
  8
LAY-1
  6
CONTINUOUS
 62
     2
100
AcDbLine
 10
426.0453033499999
 20
72.90865135
 30
0.0
 11
424.11018375
 21
85.12440874999999
 31
0.0
  0
LINE
  5
1F2
330
1F
100
AcDbEntity
  8
LAY-1
  6
CONTINUOUS
 62
     2
100
AcDbLine
 10
424.66964725
 20
72.90865135
 30
0.0
 11
421.7642212
 21
91.25133704999999
 31
0.0
  0
LINE
  5
1F3
330
1F
100
AcDbEntity
  8
LAY-1
  6
CONTINUOUS
 62
     2
100
AcDbLine
 10
423.13987735
 20
91.25133704999999
 30
0.0
 11
423.69781495
 21
87.7297325
 31
0.0
  0
LINE
  5
1F4
330
1F
100
AcDbEntity
  8
LAY-1
  6
CONTINUOUS
 62
     2
100
AcDbLine
 10
415.6567382999999
 20
87.3720093
 30
0.0
 11
419.8025513
 21
87.3720093
 31
0.0
  0
LINE
  5
1F5
330
1F
100
AcDbEntity
  8
LAY-1
  6
CONTINUOUS
 62
     2
100
AcDbLine
 10
434.3349456999999
 20
86.28519725000001
 30
0.0
 11
433.01025395
 21
83.3067627
 31
0.0
  0
LINE
  5
1F6
330
1F
100
AcDbEntity
  8
LAY-1
  6
CONTINUOUS
 62
     2
100
AcDbLine
 10
423.5536956999999
 20
86.11209105
 30
0.0
 11
433.1690979
 21
86.11209105
 31
0.0
  0
ARC
  5
1F7
330
1F
100
AcDbEntity
  8
LAY-1
  6
CONTINUOUS
 62
     2
100
AcDbCircle
 10
428.7804413000001
 20
85.10020449999999
 30
0.0
 40
6.9300556
100
AcDbArc
 50
269.6113281199997
 51
335.9987792900002
  0
LINE
  5
1F8
330
1F
100
AcDbEntity
  8
LAY-1
  6
CONTINUOUS
 62
     2
100
AcDbLine
 10
437.4549102999999
 20
87.5452776
 30
0.0
 11
435.1112366
 21
82.28167724999999
 31
0.0
  0
LINE
  5
1F9
330
1F
100
AcDbEntity
  8
LAY-1
  6
CONTINUOUS
 62
     2
100
AcDbLine
 10
491.1563110500001
 20
91.65606690000001
 30
0.0
 11
480.9403229
 21
77.5913544
 31
0.0
  0
LINE
  5
1FA
330
1F
100
AcDbEntity
  8
LAY-1
  6
CONTINUOUS
 62
     2
100
AcDbLine
 10
488.4340668
 20
90.39614870000001
 30
0.0
 11
479.67102055
 21
78.332016
 31
0.0
  0
ARC
  5
1FB
330
1F
100
AcDbEntity
  8
LAY-1
  6
CONTINUOUS
 62
     2
100
AcDbCircle
 10
475.9996796
 20
80.87203215
 30
0.0
 40
4.66201035
100
AcDbArc
 50
270.0000305199995
 51
324.0011596699997
  0
LINE
  5
1FC
330
1F
100
AcDbEntity
  8
LAY-1
  6
CONTINUOUS
 62
     2
100
AcDbLine
 10
441.43974305
 20
93.00779535000001
 30
0.0
 11
463.6318206999999
 21
93.00779535000001
 31
0.0
  0
LINE
  5
1FD
330
1F
100
AcDbEntity
  8
LAY-1
  6
CONTINUOUS
 62
     2
100
AcDbLine
 10
441.43974305
 20
91.697876
 30
0.0
 11
463.6318206999999
 21
91.697876
 31
0.0
  0
LINE
  5
1FE
330
1F
100
AcDbEntity
  8
LAY-1
  6
CONTINUOUS
 62
     2
100
AcDbLine
 10
441.43974305
 20
90.3379555
 30
0.0
 11
463.6318206999999
 21
90.3379555
 31
0.0
  0
LINE
  5
1FF
330
1F
100
AcDbEntity
  8
LAY-1
  6
CONTINUOUS
 62
     2
100
AcDbLine
 10
439.42382815
 20
75.82202149999999
 30
0.0
 11
465.6477356
 21
75.82202149999999
 31
0.0
  0
LINE
  5
200
330
1F
100
AcDbEntity
  8
LAY-1
  6
CONTINUOUS
 62
     2
100
AcDbLine
 10
439.42382815
 20
74.562027
 30
0.0
 11
465.6477356
 21
74.562027
 31
0.0
  0
LINE
  5
201
330
1F
100
AcDbEntity
  8
LAY-1
  6
CONTINUOUS
 62
     2
100
AcDbLine
 10
439.42382815
 20
73.2019539
 30
0.0
 11
465.6477356
 21
73.2019539
 31
0.0
  0
LINE
  5
202
330
1F
100
AcDbEntity
  8
LAY-1
  6
CONTINUOUS
 62
     2
100
AcDbLine
 10
471.1760712
 20
92.96606255
 30
0.0
 11
492.62840275
 21
92.96606255
 31
0.0
  0
LINE
  5
203
330
1F
100
AcDbEntity
  8
LAY-1
  6
CONTINUOUS
 62
     2
100
AcDbLine
 10
493.92845155
 20
92.91606139999999
 30
0.0
 11
482.2595215
 21
76.8503113
 31
0.0
  0
LINE
  5
204
330
1F
100
AcDbEntity
  8
LAY-1
  6
CONTINUOUS
 62
     2
100
AcDbLine
 10
471.1760712
 20
91.65606690000001
 30
0.0
 11
490.15625
 21
91.65606690000001
 31
0.0
  0
LINE
  5
205
330
1F
100
AcDbEntity
  8
LAY-1
  6
CONTINUOUS
 62
     2
100
AcDbLine
 10
475.6496429499999
 20
75.82998465
 30
0.0
 11
469.16015625
 21
75.82998465
 31
0.0
  0
LINE
  5
206
330
1F
100
AcDbEntity
  8
LAY-1
  6
CONTINUOUS
 62
     2
100
AcDbLine
 10
475.6496429499999
 20
74.51998900000001
 30
0.0
 11
469.16015625
 21
74.51998900000001
 31
0.0
  0
LINE
  5
207
330
1F
100
AcDbEntity
  8
LAY-1
  6
CONTINUOUS
 62
     2
100
AcDbLine
 10
475.6496429499999
 20
73.20999334999999
 30
0.0
 11
469.16015625
 21
73.20999334999999
 31
0.0
  0
LINE
  5
208
330
1F
100
AcDbEntity
  8
LAY-1
  6
CONTINUOUS
 62
     2
100
AcDbLine
 10
485.7159424
 20
79.86857605
 30
0.0
 11
491.68579105
 21
72.99999905
 31
0.0
  0
LINE
  5
209
330
1F
100
AcDbEntity
  8
LAY-1
  6
CONTINUOUS
 62
     2
100
AcDbLine
 10
486.47674565
 20
80.76525405
 30
0.0
 11
493.2258606
 21
72.99999905
 31
0.0
  0
LINE
  5
20A
330
1F
100
AcDbEntity
  8
LAY-1
  6
CONTINUOUS
 62
     2
100
AcDbLine
 10
487.23655705
 20
81.66147425
 30
0.0
 11
494.7647094999999
 21
72.99999905
 31
0.0
  0
LINE
  5
20B
330
1F
100
AcDbEntity
  8
LAY-1
  6
CONTINUOUS
 62
     2
100
AcDbLine
 10
487.99636845
 20
82.5579233
 30
0.0
 11
496.3046265
 21
72.99999905
 31
0.0
  0
LINE
  5
20C
330
1F
100
AcDbEntity
  8
LAY-1
  6
CONTINUOUS
 62
     2
100
AcDbLine
 10
471.1760712
 20
90.2961464
 30
0.0
 11
487.1839905
 21
90.2961464
 31
0.0
  0
LINE
  5
20D
330
1F
100
AcDbEntity
  8
LAY-1
  6
CONTINUOUS
 62
     2
100
AcDbLine
 10
505.4477692
 20
93.0160637
 30
0.0
 11
529.65568545
 21
93.0160637
 31
0.0
  0
LINE
  5
20E
330
1F
100
AcDbEntity
  8
LAY-1
  6
CONTINUOUS
 62
     2
100
AcDbLine
 10
505.4477692
 20
91.7560692
 30
0.0
 11
529.65568545
 21
91.7560692
 31
0.0
  0
LINE
  5
20F
330
1F
100
AcDbEntity
  8
LAY-1
  6
CONTINUOUS
 62
     2
100
AcDbLine
 10
515.83869935
 20
75.7399578
 30
0.0
 11
515.83869935
 21
90.60610965000001
 31
0.0
  0
LINE
  5
210
330
1F
100
AcDbEntity
  8
LAY-1
  6
CONTINUOUS
 62
     2
100
AcDbLine
 10
517.09793095
 20
75.7399578
 30
0.0
 11
517.09793095
 21
90.60610965000001
 31
0.0
  0
LINE
  5
211
330
1F
100
AcDbEntity
  8
LAY-1
  6
CONTINUOUS
 62
     2
100
AcDbLine
 10
518.3570862
 20
75.7399578
 30
0.0
 11
518.3570862
 21
90.60610965000001
 31
0.0
  0
LINE
  5
212
330
1F
100
AcDbEntity
  8
LAY-1
  6
CONTINUOUS
 62
     2
100
AcDbLine
 10
519.5162200999999
 20
75.7399578
 30
0.0
 11
519.5162200999999
 21
90.60610965000001
 31
0.0
  0
LINE
  5
213
330
1F
100
AcDbEntity
  8
LAY-1
  6
CONTINUOUS
 62
     2
100
AcDbLine
 10
504.4397736000001
 20
74.73995875
 30
0.0
 11
530.6636810499999
 21
74.73995875
 31
0.0
  0
LINE
  5
214
330
1F
100
AcDbEntity
  8
LAY-1
  6
CONTINUOUS
 62
     2
100
AcDbLine
 10
504.4397736000001
 20
73.2299633
 30
0.0
 11
530.6636810499999
 21
73.2299633
 31
0.0
  0
LINE
  5
215
330
1F
100
AcDbEntity
  8
LAY-1
  6
CONTINUOUS
 62
     2
100
AcDbLine
 10
536.563797
 20
93.1759806
 30
0.0
 11
538.4354401
 21
90.78075125
 31
0.0
  0
LINE
  5
216
330
1F
100
AcDbEntity
  8
LAY-1
  6
CONTINUOUS
 62
     2
100
AcDbLine
 10
538.1623840499999
 20
93.1759806
 30
0.0
 11
540.0340271
 21
90.78075125
 31
0.0
  0
LINE
  5
217
330
1F
100
AcDbEntity
  8
LAY-1
  6
CONTINUOUS
 62
     2
100
AcDbLine
 10
543.1556702
 20
93.1759806
 30
0.0
 11
543.1556702
 21
90.99278165000001
 31
0.0
  0
LINE
  5
218
330
1F
100
AcDbEntity
  8
LAY-1
  6
CONTINUOUS
 62
     2
100
AcDbLine
 10
544.5149231
 20
93.1759806
 30
0.0
 11
544.5149231
 21
90.99278165000001
 31
0.0
  0
LINE
  5
219
330
1F
100
AcDbEntity
  8
LAY-1
  6
CONTINUOUS
 62
     2
100
AcDbLine
 10
548.19549565
 20
93.1759806
 30
0.0
 11
548.19549565
 21
90.99278165000001
 31
0.0
  0
LINE
  5
21A
330
1F
100
AcDbEntity
  8
LAY-1
  6
CONTINUOUS
 62
     2
100
AcDbLine
 10
549.65469365
 20
93.1759806
 30
0.0
 11
549.65469365
 21
90.99278165000001
 31
0.0
  0
LINE
  5
21B
330
1F
100
AcDbEntity
  8
LAY-1
  6
CONTINUOUS
 62
     2
100
AcDbLine
 10
554.4978333
 20
93.1759806
 30
0.0
 11
552.6261902
 21
90.78075125
 31
0.0
  0
LINE
  5
21C
330
1F
100
AcDbEntity
  8
LAY-1
  6
CONTINUOUS
 62
     2
100
AcDbLine
 10
556.19644165
 20
93.1759806
 30
0.0
 11
554.3247986
 21
90.78075125
 31
0.0
  0
LINE
  5
21D
330
1F
100
AcDbEntity
  8
LAY-1
  6
CONTINUOUS
 62
     2
100
AcDbLine
 10
533.1681061
 20
89.9927826
 30
0.0
 11
559.39201355
 21
89.9927826
 31
0.0
  0
LINE
  5
21E
330
1F
100
AcDbEntity
  8
LAY-1
  6
CONTINUOUS
 62
     2
100
AcDbLine
 10
539.71588135
 20
86.09414290000001
 30
0.0
 11
538.63891605
 21
89.05308914999999
 31
0.0
  0
LINE
  5
21F
330
1F
100
AcDbEntity
  8
LAY-1
  6
CONTINUOUS
 62
     2
100
AcDbLine
 10
541.25610355
 20
86.09414290000001
 30
0.0
 11
540.1791382
 21
89.05308914999999
 31
0.0
  0
LINE
  5
220
330
1F
100
AcDbEntity
  8
LAY-1
  6
CONTINUOUS
 62
     2
100
AcDbLine
 10
542.69630435
 20
86.09425735
 30
0.0
 11
541.6205597
 21
89.05297470000001
 31
0.0
  0
LINE
  5
221
330
1F
100
AcDbEntity
  8
LAY-1
  6
CONTINUOUS
 62
     2
100
AcDbLine
 10
549.9597168
 20
86.09403325
 30
0.0
 11
551.0378265500001
 21
89.0531988
 31
0.0
  0
LINE
  5
222
330
1F
100
AcDbEntity
  8
LAY-1
  6
CONTINUOUS
 62
     2
100
AcDbLine
 10
551.5010071
 20
86.09403325
 30
0.0
 11
552.57911685
 21
89.0531988
 31
0.0
  0
LINE
  5
223
330
1F
100
AcDbEntity
  8
LAY-1
  6
CONTINUOUS
 62
     2
100
AcDbLine
 10
552.9412078999999
 20
86.09403325
 30
0.0
 11
554.01931765
 21
89.0531988
 31
0.0
  0
LINE
  5
224
330
1F
100
AcDbEntity
  8
LAY-1
  6
CONTINUOUS
 62
     2
100
AcDbLine
 10
533.1681061
 20
85.15444944999999
 30
0.0
 11
559.39201355
 21
85.15444944999999
 31
0.0
  0
LINE
  5
225
330
1F
100
AcDbEntity
  8
LAY-1
  6
CONTINUOUS
 62
     2
100
AcDbLine
 10
533.1681061
 20
81.67681885
 30
0.0
 11
543.9193726000001
 21
81.67681885
 31
0.0
  0
LINE
  5
226
330
1F
100
AcDbEntity
  8
LAY-1
  6
CONTINUOUS
 62
     2
100
AcDbLine
 10
533.1681061
 20
78.19918825
 30
0.0
 11
543.9193726000001
 21
78.19918825
 31
0.0
  0
LINE
  5
227
330
1F
100
AcDbEntity
  8
LAY-1
  6
CONTINUOUS
 62
     2
100
AcDbLine
 10
548.737793
 20
78.19918825
 30
0.0
 11
559.39201355
 21
78.19918825
 31
0.0
  0
LINE
  5
228
330
1F
100
AcDbEntity
  8
LAY-1
  6
CONTINUOUS
 62
     2
100
AcDbLine
 10
534.7544098000001
 20
72.99999905
 30
0.0
 11
539.76661685
 21
77.5287695
 31
0.0
  0
LINE
  5
229
330
1F
100
AcDbEntity
  8
LAY-1
  6
CONTINUOUS
 62
     2
100
AcDbLine
 10
536.43386845
 20
72.99999905
 30
0.0
 11
541.44622805
 21
77.52877905
 31
0.0
  0
LINE
  5
22A
330
1F
100
AcDbEntity
  8
LAY-1
  6
CONTINUOUS
 62
     2
100
AcDbLine
 10
538.0143737999999
 20
72.99999905
 30
0.0
 11
543.0267334
 21
77.52877905
 31
0.0
  0
LINE
  5
22B
330
1F
100
AcDbEntity
  8
LAY-1
  6
CONTINUOUS
 62
     2
100
AcDbLine
 10
544.9193573
 20
72.99999905
 30
0.0
 11
544.9193573
 21
84.1544504
 31
0.0
  0
LINE
  5
22C
330
1F
100
AcDbEntity
  8
LAY-1
  6
CONTINUOUS
 62
     2
100
AcDbLine
 10
546.3785553
 20
72.99999905
 30
0.0
 11
546.3785553
 21
84.1544504
 31
0.0
  0
LINE
  5
22D
330
1F
100
AcDbEntity
  8
LAY-1
  6
CONTINUOUS
 62
     2
100
AcDbLine
 10
547.7378082500001
 20
72.99999905
 30
0.0
 11
547.7378082500001
 21
84.1544504
 31
0.0
  0
LINE
  5
22E
330
1F
100
AcDbEntity
  8
LAY-1
  6
CONTINUOUS
 62
     2
100
AcDbLine
 10
554.5858765
 20
72.99999905
 30
0.0
 11
549.57366945
 21
77.5287695
 31
0.0
  0
LINE
  5
22F
330
1F
100
AcDbEntity
  8
LAY-1
  6
CONTINUOUS
 62
     2
100
AcDbLine
 10
556.2654114
 20
72.99999905
 30
0.0
 11
551.2530518
 21
77.52877905
 31
0.0
  0
LINE
  5
230
330
1F
100
AcDbEntity
  8
LAY-1
  6
CONTINUOUS
 62
     2
100
AcDbLine
 10
557.94593815
 20
72.99999905
 30
0.0
 11
552.9335785
 21
77.52877905
 31
0.0
  0
LINE
  5
231
330
1F
100
AcDbEntity
  8
LAY-1
  6
CONTINUOUS
 62
     2
100
AcDbLine
 10
567.4989318999999
 20
93.1759806
 30
0.0
 11
567.4989318999999
 21
91.39599515
 31
0.0
  0
LINE
  5
232
330
1F
100
AcDbEntity
  8
LAY-1
  6
CONTINUOUS
 62
     2
100
AcDbLine
 10
568.7580872
 20
93.1759806
 30
0.0
 11
568.7580872
 21
91.39599515
 31
0.0
  0
LINE
  5
233
330
1F
100
AcDbEntity
  8
LAY-1
  6
CONTINUOUS
 62
     2
100
AcDbLine
 10
570.0173187500001
 20
93.1759806
 30
0.0
 11
570.0173187500001
 21
91.39599515
 31
0.0
  0
LINE
  5
234
330
1F
100
AcDbEntity
  8
LAY-1
  6
CONTINUOUS
 62
     2
100
AcDbLine
 10
562.3999786499999
 20
90.39599609999999
 30
0.0
 11
571.48757935
 21
90.39599609999999
 31
0.0
  0
LINE
  5
235
330
1F
100
AcDbEntity
  8
LAY-1
  6
CONTINUOUS
 62
     2
100
AcDbLine
 10
562.47207645
 20
72.99452495
 30
0.0
 11
564.19601445
 21
89.40147115
 31
0.0
  0
LINE
  5
236
330
1F
100
AcDbEntity
  8
LAY-1
  6
CONTINUOUS
 62
     2
100
AcDbLine
 10
563.6383820000001
 20
72.99452495
 30
0.0
 11
565.36239625
 21
89.40147115
 31
0.0
  0
LINE
  5
237
330
1F
100
AcDbEntity
  8
LAY-1
  6
CONTINUOUS
 62
     2
100
AcDbLine
 10
567.4989318999999
 20
72.99999905
 30
0.0
 11
567.4989318999999
 21
89.39599704999999
 31
0.0
  0
LINE
  5
238
330
1F
100
AcDbEntity
  8
LAY-1
  6
CONTINUOUS
 62
     2
100
AcDbLine
 10
568.7580872
 20
72.99999905
 30
0.0
 11
568.7580872
 21
89.39599704999999
 31
0.0
  0
LINE
  5
239
330
1F
100
AcDbEntity
  8
LAY-1
  6
CONTINUOUS
 62
     2
100
AcDbLine
 10
570.0173187500001
 20
72.99999905
 30
0.0
 11
570.0173187500001
 21
89.39599704999999
 31
0.0
  0
LINE
  5
23A
330
1F
100
AcDbEntity
  8
LAY-1
  6
CONTINUOUS
 62
     2
100
AcDbLine
 10
570.60462955
 20
88.07712269999999
 30
0.0
 11
571.90017705
 21
86.29192065
 31
0.0
  0
LINE
  5
23B
330
1F
100
AcDbEntity
  8
LAY-1
  6
CONTINUOUS
 62
     2
100
AcDbLine
 10
570.60462955
 20
86.132123
 30
0.0
 11
571.90017705
 21
84.34692095
 31
0.0
  0
LINE
  5
23C
330
1F
100
AcDbEntity
  8
LAY-1
  6
CONTINUOUS
 62
     2
100
AcDbLine
 10
573.73458865
 20
88.5943003
 30
0.0
 11
574.8844147
 21
93.20568755
 31
0.0
  0
LINE
  5
23D
330
1F
100
AcDbEntity
  8
LAY-1
  6
CONTINUOUS
 62
     2
100
AcDbLine
 10
574.9337006000001
 20
88.5943432
 30
0.0
 11
576.0826111
 21
93.2056446
 31
0.0
  0
LINE
  5
23E
330
1F
100
AcDbEntity
  8
LAY-1
  6
CONTINUOUS
 62
     2
100
AcDbLine
 10
575.9819031
 20
88.5943003
 30
0.0
 11
577.13172915
 21
93.20568755
 31
0.0
  0
LINE
  5
23F
330
1F
100
AcDbEntity
  8
LAY-1
  6
CONTINUOUS
 62
     2
100
AcDbLine
 10
580.3511810499999
 20
91.39599515
 30
0.0
 11
580.3511810499999
 21
93.1759806
 31
0.0
  0
LINE
  5
240
330
1F
100
AcDbEntity
  8
LAY-1
  6
CONTINUOUS
 62
     2
100
AcDbLine
 10
581.7103577
 20
91.39599515
 30
0.0
 11
581.7103577
 21
93.1759806
 31
0.0
  0
LINE
  5
241
330
1F
100
AcDbEntity
  8
LAY-1
  6
CONTINUOUS
 62
     2
100
AcDbLine
 10
582.96958925
 20
91.39599515
 30
0.0
 11
582.96958925
 21
93.1759806
 31
0.0
  0
LINE
  5
242
330
1F
100
AcDbEntity
  8
LAY-1
  6
CONTINUOUS
 62
     2
100
AcDbLine
 10
577.4311066
 20
90.39599609999999
 30
0.0
 11
588.62388615
 21
90.39599609999999
 31
0.0
  0
LINE
  5
243
330
1F
100
AcDbEntity
  8
LAY-1
  6
CONTINUOUS
 62
     2
100
AcDbLine
 10
580.3511810499999
 20
89.39599704999999
 30
0.0
 11
580.3511810499999
 21
86.3560171
 31
0.0
  0
LINE
  5
244
330
1F
100
AcDbEntity
  8
LAY-1
  6
CONTINUOUS
 62
     2
100
AcDbLine
 10
581.7103577
 20
89.39599704999999
 30
0.0
 11
581.7103577
 21
86.3560171
 31
0.0
  0
LINE
  5
245
330
1F
100
AcDbEntity
  8
LAY-1
  6
CONTINUOUS
 62
     2
100
AcDbLine
 10
582.96958925
 20
89.39599704999999
 30
0.0
 11
582.96958925
 21
86.3560171
 31
0.0
  0
LINE
  5
246
330
1F
100
AcDbEntity
  8
LAY-1
  6
CONTINUOUS
 62
     2
100
AcDbLine
 10
573.9920044
 20
85.35601804999999
 30
0.0
 11
589.1283417
 21
85.35601804999999
 31
0.0
  0
LINE
  5
247
330
1F
100
AcDbEntity
  8
LAY-1
  6
CONTINUOUS
 62
     2
100
AcDbLine
 10
576.2239837999999
 20
84.37219335
 30
0.0
 11
574.15039065
 21
72.98382475
 31
0.0
  0
LINE
  5
248
330
1F
100
AcDbEntity
  8
LAY-1
  6
CONTINUOUS
 62
     2
100
AcDbLine
 10
577.40364075
 20
84.37219335
 30
0.0
 11
575.3301239
 21
72.98382475
 31
0.0
  0
LINE
  5
249
330
1F
100
AcDbEntity
  8
LAY-1
  6
CONTINUOUS
 62
     2
100
AcDbLine
 10
578.44459535
 20
84.37220765
 30
0.0
 11
576.3700104
 21
72.98381045000001
 31
0.0
  0
LINE
  5
24A
330
1F
100
AcDbEntity
  8
LAY-1
  6
CONTINUOUS
 62
     2
100
AcDbLine
 10
580.3511810499999
 20
84.35601905
 30
0.0
 11
580.3511810499999
 21
72.99999905
 31
0.0
  0
LINE
  5
24B
330
1F
100
AcDbEntity
  8
LAY-1
  6
CONTINUOUS
 62
     2
100
AcDbLine
 10
581.6103363499999
 20
84.35601905
 30
0.0
 11
581.6103363499999
 21
72.99999905
 31
0.0
  0
LINE
  5
24C
330
1F
100
AcDbEntity
  8
LAY-1
  6
CONTINUOUS
 62
     3
100
AcDbLine
 10
582.96958925
 20
84.35601905
 30
0.0
 11
582.96958925
 21
72.99999905
 31
0.0
  0
LINE
  5
24D
330
1F
100
AcDbEntity
  8
LAY-1
  6
CONTINUOUS
 62
     2
100
AcDbLine
 10
584.67475895
 20
84.37220765
 30
0.0
 11
586.7493439
 21
72.98381045000001
 31
0.0
  0
LINE
  5
24E
330
1F
100
AcDbEntity
  8
LAY-1
  6
CONTINUOUS
 62
     2
100
AcDbLine
 10
585.75546265
 20
84.37220765
 30
0.0
 11
587.83004765
 21
72.98381045000001
 31
0.0
  0
LINE
  5
24F
330
1F
100
AcDbEntity
  8
LAY-1
  6
CONTINUOUS
 62
     2
100
AcDbLine
 10
587.035141
 20
84.37220765
 30
0.0
 11
589.1097259999999
 21
72.98381045000001
 31
0.0
  0
LINE
  5
250
330
1F
100
AcDbEntity
  8
LAY-1
  6
CONTINUOUS
 62
     2
100
AcDbLine
 10
592.1363067999999
 20
91.20007704999999
 30
0.0
 11
606.41204835
 21
91.20007704999999
 31
0.0
  0
LINE
  5
251
330
1F
100
AcDbEntity
  8
LAY-1
  6
CONTINUOUS
 62
     2
100
AcDbLine
 10
592.1363067999999
 20
89.94008255
 30
0.0
 11
606.87065125
 21
89.94008255
 31
0.0
  0
LINE
  5
252
330
1F
100
AcDbEntity
  8
LAY-1
  6
CONTINUOUS
 62
     2
100
AcDbLine
 10
614.05830385
 20
72.93969345
 30
0.0
 11
606.67099
 21
93.23628615000001
 31
0.0
  0
LINE
  5
253
330
1F
100
AcDbEntity
  8
LAY-1
  6
CONTINUOUS
 62
     2
100
AcDbLine
 10
615.3984833
 20
72.93969824999999
 30
0.0
 11
608.01147465
 21
93.2362814
 31
0.0
  0
LINE
  5
254
330
1F
100
AcDbEntity
  8
LAY-1
  6
CONTINUOUS
 62
     2
100
AcDbLine
 10
616.73866275
 20
72.93969824999999
 30
0.0
 11
609.3516540999999
 21
93.2362814
 31
0.0
  0
LINE
  5
255
330
1F
100
AcDbEntity
  8
LAY-1
  6
CONTINUOUS
 62
     2
100
AcDbLine
 10
618.0788422
 20
72.93967914999999
 30
0.0
 11
610.6906891
 21
93.2362957
 31
0.0
  0
LINE
  5
256
330
1F
100
AcDbEntity
  8
LAY-1
  6
CONTINUOUS
 62
     2
100
AcDbLine
 10
614.27154545
 20
92.20007609999999
 30
0.0
 11
614.27154545
 21
93.1759806
 31
0.0
  0
LINE
  5
257
330
1F
100
AcDbEntity
  8
LAY-1
  6
CONTINUOUS
 62
     2
100
AcDbLine
 10
615.63079835
 20
92.20007609999999
 30
0.0
 11
615.63079835
 21
93.1759806
 31
0.0
  0
LINE
  5
258
330
1F
100
AcDbEntity
  8
LAY-1
  6
CONTINUOUS
 62
     2
100
AcDbLine
 10
616.9899750000001
 20
92.20007609999999
 30
0.0
 11
616.9899750000001
 21
93.1759806
 31
0.0
  0
LINE
  5
259
330
1F
100
AcDbEntity
  8
LAY-1
  6
CONTINUOUS
 62
     2
100
AcDbLine
 10
612.43186955
 20
91.20007704999999
 30
0.0
 11
618.36021425
 21
91.20007704999999
 31
0.0
  0
LINE
  5
25A
330
1F
100
AcDbEntity
  8
LAY-1
  6
CONTINUOUS
 62
     2
100
AcDbLine
 10
612.8905487500001
 20
89.94008255
 30
0.0
 11
618.36021425
 21
89.94008255
 31
0.0
  0
LINE
  5
25B
330
1F
100
AcDbEntity
  8
LAY-1
  6
CONTINUOUS
 62
     2
100
AcDbLine
 10
593.6477661499999
 20
85.18204879999999
 30
0.0
 11
606.7681885000001
 21
85.18204879999999
 31
0.0
  0
LINE
  5
25C
330
1F
100
AcDbEntity
  8
LAY-1
  6
CONTINUOUS
 62
     2
100
AcDbLine
 10
593.6477661499999
 20
83.921978
 30
0.0
 11
606.7681885000001
 21
83.921978
 31
0.0
  0
LINE
  5
25D
330
1F
100
AcDbEntity
  8
LAY-1
  6
CONTINUOUS
 62
     2
100
AcDbLine
 10
598.3954620500001
 20
82.92197895000001
 30
0.0
 11
598.3954620500001
 21
77.8955765
 31
0.0
  0
LINE
  5
25E
330
1F
100
AcDbEntity
  8
LAY-1
  6
CONTINUOUS
 62
     2
100
AcDbLine
 10
599.6546173500001
 20
82.92197895000001
 30
0.0
 11
599.6546173500001
 21
78.16321565
 31
0.0
  0
LINE
  5
25F
330
1F
100
AcDbEntity
  8
LAY-1
  6
CONTINUOUS
 62
     2
100
AcDbLine
 10
600.9137726
 20
82.92197895000001
 30
0.0
 11
600.9137726
 21
78.43085955000001
 31
0.0
  0
LINE
  5
260
330
1F
100
AcDbEntity
  8
LAY-1
  6
CONTINUOUS
 62
     2
100
AcDbLine
 10
602.17300415
 20
82.92197895000001
 30
0.0
 11
602.17300415
 21
78.69851305
 31
0.0
  0
LINE
  5
261
330
1F
100
AcDbEntity
  8
LAY-1
  6
CONTINUOUS
 62
     2
100
AcDbLine
 10
593.373642
 20
75.8281584
 30
0.0
 11
607.04223635
 21
78.7334986
 31
0.0
  0
LINE
  5
262
330
1F
100
AcDbEntity
  8
LAY-1
  6
CONTINUOUS
 62
     2
100
AcDbLine
 10
593.373642
 20
74.4400139
 30
0.0
 11
607.04223635
 21
77.3454256
 31
0.0
  0
LINE
  5
263
330
1F
100
AcDbEntity
  8
LAY-1
  6
CONTINUOUS
 62
     2
100
AcDbLine
 10
593.373642
 20
73.25186445
 30
0.0
 11
607.04223635
 21
76.15720465
 31
0.0
  0
LINE
  5
264
330
1F
100
AcDbEntity
  8
LAY-1
  6
CONTINUOUS
 62
     2
100
AcDbLine
 10
621.31652835
 20
89.1629715
 30
0.0
 11
634.2576599500001
 21
93.4927006
 31
0.0
  0
LINE
  5
265
330
1F
100
AcDbEntity
  8
LAY-1
  6
CONTINUOUS
 62
     2
100
AcDbLine
 10
621.31652835
 20
87.83431245
 30
0.0
 11
634.2576599500001
 21
92.1641178
 31
0.0
  0
LINE
  5
266
330
1F
100
AcDbEntity
  8
LAY-1
  6
CONTINUOUS
 62
     2
100
AcDbLine
 10
635.2059937
 20
93.49269579999999
 30
0.0
 11
648.1472015500001
 21
89.162652
 31
0.0
  0
LINE
  5
267
330
1F
100
AcDbEntity
  8
LAY-1
  6
CONTINUOUS
 62
     2
100
AcDbLine
 10
635.2059937
 20
92.26411535
 30
0.0
 11
648.1472015500001
 21
87.93407155
 31
0.0
  0
LINE
  5
268
330
1F
100
AcDbEntity
  8
LAY-1
  6
CONTINUOUS
 62
     2
100
AcDbLine
 10
643.8124847500001
 20
87.79805374999998
 30
0.0
 11
625.65223695
 21
87.79805374999998
 31
0.0
  0
LINE
  5
269
330
1F
100
AcDbEntity
  8
LAY-1
  6
CONTINUOUS
 62
     2
100
AcDbLine
 10
643.8124847500001
 20
86.43798065
 30
0.0
 11
625.65223695
 21
86.43798065
 31
0.0
  0
LINE
  5
26A
330
1F
100
AcDbEntity
  8
LAY-1
  6
CONTINUOUS
 62
     2
100
AcDbLine
 10
621.36817935
 20
82.53195954999998
 30
0.0
 11
648.0955505500001
 21
82.53195954999998
 31
0.0
  0
LINE
  5
26B
330
1F
100
AcDbEntity
  8
LAY-1
  6
CONTINUOUS
 62
     2
100
AcDbLine
 10
621.36817935
 20
81.3720436
 30
0.0
 11
648.0955505500001
 21
81.3720436
 31
0.0
  0
LINE
  5
26C
330
1F
100
AcDbEntity
  8
LAY-1
  6
CONTINUOUS
 62
     2
100
AcDbLine
 10
625.5066681
 20
80.4657669
 30
0.0
 11
622.95562745
 21
74.99623015
 31
0.0
  0
LINE
  5
26D
330
1F
100
AcDbEntity
  8
LAY-1
  6
CONTINUOUS
 62
     2
100
AcDbLine
 10
627.097168
 20
80.46577169999999
 30
0.0
 11
624.54605105
 21
74.99623015
 31
0.0
  0
LINE
  5
26E
330
1F
100
AcDbEntity
  8
LAY-1
  6
CONTINUOUS
 62
     2
100
AcDbLine
 10
628.68766785
 20
80.46577169999999
 30
0.0
 11
626.13655095
 21
74.99623015
 31
0.0
  0
LINE
  5
26F
330
1F
100
AcDbEntity
  8
LAY-1
  6
CONTINUOUS
 62
     2
100
AcDbLine
 10
640.77705385
 20
80.46583365000001
 30
0.0
 11
643.3291626
 21
74.99616815
 31
0.0
  0
LINE
  5
270
330
1F
100
AcDbEntity
  8
LAY-1
  6
CONTINUOUS
 62
     2
100
AcDbLine
 10
642.3685455500001
 20
80.46570970000002
 30
0.0
 11
644.9185181
 21
74.9962921
 31
0.0
  0
LINE
  5
271
330
1F
100
AcDbEntity
  8
LAY-1
  6
CONTINUOUS
 62
     2
100
AcDbLine
 10
643.95996095
 20
80.46565725
 30
0.0
 11
646.5090942500001
 21
74.99634455
 31
0.0
  0
LINE
  5
272
330
1F
100
AcDbEntity
  8
LAY-1
  6
CONTINUOUS
 62
     2
100
AcDbLine
 10
622.3426818999999
 20
74.0899582
 30
0.0
 11
647.1210480000001
 21
74.0899582
 31
0.0
  0
LINE
  5
273
330
1F
100
AcDbEntity
  8
LAY-1
  6
CONTINUOUS
 62
     2
100
AcDbLine
 10
621.7551422500001
 20
72.82996370000001
 30
0.0
 11
647.70858765
 21
72.82996370000001
 31
0.0
  0
LINE
  5
274
330
1F
100
AcDbEntity
  8
LAY-1
  6
CONTINUOUS
 62
     2
100
AcDbLine
 10
655.69892885
 20
92.20007609999999
 30
0.0
 11
655.69892885
 21
93.1759806
 31
0.0
  0
LINE
  5
275
330
1F
100
AcDbEntity
  8
LAY-1
  6
CONTINUOUS
 62
     2
100
AcDbLine
 10
657.15812685
 20
92.20007609999999
 30
0.0
 11
657.15812685
 21
93.1759806
 31
0.0
  0
LINE
  5
276
330
1F
100
AcDbEntity
  8
LAY-1
  6
CONTINUOUS
 62
     2
100
AcDbLine
 10
658.61740115
 20
92.20007609999999
 30
0.0
 11
658.61740115
 21
93.1759806
 31
0.0
  0
LINE
  5
277
330
1F
100
AcDbEntity
  8
LAY-1
  6
CONTINUOUS
 62
     2
100
AcDbLine
 10
651.10343935
 20
91.20007704999999
 30
0.0
 11
662.5439453500001
 21
91.20007704999999
 31
0.0
  0
LINE
  5
278
330
1F
100
AcDbEntity
  8
LAY-1
  6
CONTINUOUS
 62
     2
100
AcDbLine
 10
651.10343935
 20
89.94008255
 30
0.0
 11
661.66191105
 21
89.94008255
 31
0.0
  0
LINE
  5
279
330
1F
100
AcDbEntity
  8
LAY-1
  6
CONTINUOUS
 62
     2
100
AcDbLine
 10
657.6895905000001
 20
89.12083815
 30
0.0
 11
650.6768798999999
 21
79.10236075
 31
0.0
  0
LINE
  5
27A
330
1F
100
AcDbEntity
  8
LAY-1
  6
CONTINUOUS
 62
     2
100
AcDbLine
 10
659.32830815
 20
89.12090015000001
 30
0.0
 11
650.6769562000001
 21
76.7642565
 31
0.0
  0
LINE
  5
27B
330
1F
100
AcDbEntity
  8
LAY-1
  6
CONTINUOUS
 62
     2
100
AcDbLine
 10
660.8689880500001
 20
89.12088585
 30
0.0
 11
650.6769562000001
 21
74.5628662
 31
0.0
  0
LINE
  5
27C
330
1F
100
AcDbEntity
  8
LAY-1
  6
CONTINUOUS
 62
     2
100
AcDbLine
 10
658.46496585
 20
83.94345475
 30
0.0
 11
662.8933716
 21
80.84232045
 31
0.0
  0
LINE
  5
27D
330
1F
100
AcDbEntity
  8
LAY-1
  6
CONTINUOUS
 62
     2
100
AcDbLine
 10
657.7422333
 20
82.9109974
 30
0.0
 11
662.8932953000001
 21
79.3039961
 31
0.0
  0
LINE
  5
27E
330
1F
100
AcDbEntity
  8
LAY-1
  6
CONTINUOUS
 62
     2
100
AcDbLine
 10
656.9725037000001
 20
81.8115635
 30
0.0
 11
662.8932953000001
 21
77.6657505
 31
0.0
  0
LINE
  5
27F
330
1F
100
AcDbEntity
  8
LAY-1
  6
CONTINUOUS
 62
     2
100
AcDbLine
 10
655.69892885
 20
80.7361145
 30
0.0
 11
655.69892885
 21
72.99999905
 31
0.0
  0
LINE
  5
280
330
1F
100
AcDbEntity
  8
LAY-1
  6
CONTINUOUS
 62
     2
100
AcDbLine
 10
657.15812685
 20
80.68157865
 30
0.0
 11
657.15812685
 21
72.99999905
 31
0.0
  0
LINE
  5
281
330
1F
100
AcDbEntity
  8
LAY-1
  6
CONTINUOUS
 62
     2
100
AcDbLine
 10
658.61740115
 20
79.65978335
 30
0.0
 11
658.61740115
 21
72.99999905
 31
0.0
  0
LINE
  5
282
330
1F
100
AcDbEntity
  8
LAY-1
  6
CONTINUOUS
 62
     2
100
AcDbLine
 10
669.30686955
 20
75.08995725
 30
0.0
 11
669.30686955
 21
93.1759806
 31
0.0
  0
LINE
  5
283
330
1F
100
AcDbEntity
  8
LAY-1
  6
CONTINUOUS
 62
     2
100
AcDbLine
 10
670.76606755
 20
75.08995725
 30
0.0
 11
670.76606755
 21
93.1759806
 31
0.0
  0
LINE
  5
284
330
1F
100
AcDbEntity
  8
LAY-1
  6
CONTINUOUS
 62
     2
100
AcDbLine
 10
672.2253418
 20
75.08995725
 30
0.0
 11
672.2253418
 21
93.1759806
 31
0.0
  0
LINE
  5
285
330
1F
100
AcDbEntity
  8
LAY-1
  6
CONTINUOUS
 62
     2
100
AcDbLine
 10
664.71244815
 20
87.67201615000002
 30
0.0
 11
668.3068848
 21
87.67201615000002
 31
0.0
  0
LINE
  5
286
330
1F
100
AcDbEntity
  8
LAY-1
  6
CONTINUOUS
 62
     2
100
AcDbLine
 10
664.71244815
 20
86.41209795
 30
0.0
 11
668.3068848
 21
86.41209795
 31
0.0
  0
LINE
  5
287
330
1F
100
AcDbEntity
  8
LAY-1
  6
CONTINUOUS
 62
     2
100
AcDbLine
 10
673.2253265500001
 20
87.67201615000002
 30
0.0
 11
676.8238831000001
 21
87.67201615000002
 31
0.0
  0
LINE
  5
288
330
1F
100
AcDbEntity
  8
LAY-1
  6
CONTINUOUS
 62
     2
100
AcDbLine
 10
673.2253265500001
 20
86.31209564999999
 30
0.0
 11
676.8238831000001
 21
86.31209564999999
 31
0.0
  0
LINE
  5
289
330
1F
100
AcDbEntity
  8
LAY-1
  6
CONTINUOUS
 62
     2
100
AcDbLine
 10
662.6954651
 20
74.0899582
 30
0.0
 11
677.32833865
 21
74.0899582
 31
0.0
  0
LINE
  5
28A
330
1F
100
AcDbEntity
  8
LAY-1
  6
CONTINUOUS
 62
     2
100
AcDbLine
 10
662.6954651
 20
72.82996370000001
 30
0.0
 11
677.32833865
 21
72.82996370000001
 31
0.0
  0
LINE
  5
28B
330
1F
100
AcDbEntity
  8
LAY-1
  6
CONTINUOUS
 62
     2
100
AcDbLine
 10
548.737793
 20
81.67681885
 30
0.0
 11
559.39201355
 21
81.67681885
 31
0.0
  0
LINE
  5
28C
330
1F
100
AcDbEntity
  8
LAY-1
  6
CONTINUOUS
 62
     6
100
AcDbLine
 10
624.5001525499999
 20
1252.5
 30
0.0
 11
974.5
 21
1252.5
 31
0.0
  0
LINE
  5
28D
330
1F
100
AcDbEntity
  8
LAY-1
  6
CONTINUOUS
 62
     6
100
AcDbLine
 10
624.5001525499999
 20
1285.0
 30
0.0
 11
974.5
 21
1285.0
 31
0.0
  0
LINE
  5
28E
330
1F
100
AcDbEntity
  8
LAY-1
  6
CONTINUOUS
 62
     6
100
AcDbLine
 10
624.5001525499999
 20
1220.0
 30
0.0
 11
974.5
 21
1220.0
 31
0.0
  0
TEXT
  5
28F
330
1F
100
AcDbEntity
  8
LAY-1
  6
CONTINUOUS
 62
     2
100
AcDbText
 10
633.0260772500001
 20
1323.5021973
 30
0.0
 40
30.0
  1
器　具　明　細
 41
1.294715447154472
  7
EXCADSTD
 72
     5
 11
860.5260772500001
 21
1323.5021973
 31
0.0
100
AcDbText
  0
TEXT
  5
290
330
1F
100
AcDbEntity
  8
LAY-1
  6
CONTINUOUS
 62
     2
100
AcDbText
 10
932.0
 20
1287.5
 30
0.0
 40
26.25
  1
個数
 41
0.9665963636363647
  7
EXCADSTD
 72
     5
 11
971.8721
 21
1287.5
 31
0.0
100
AcDbText
  0
TEXT
  5
291
330
1F
100
AcDbEntity
  8
LAY-1
  6
CONTINUOUS
 62
     2
100
AcDbText
 10
654.7003479
 20
1287.5
 30
0.0
 40
26.25
  1
品　　番
 41
1.217391304347826
  7
EXCADSTD
 72
     5
 11
759.7003479
 21
1287.5
 31
0.0
100
AcDbText
  0
TEXT
  5
292
330
1F
100
AcDbEntity
  8
LAY-1
  6
CONTINUOUS
 62
     2
100
AcDbText
 10
817.0085449
 20
1287.5
 30
0.0
 40
26.25
  1
品　　名
 41
1.017391304347826
  7
EXCADSTD
 72
     5
 11
904.7585449
 21
1287.5
 31
0.0
100
AcDbText
  0
LINE
  5
293
330
1F
100
AcDbEntity
  8
LAY-1
  6
CONTINUOUS
 62
     6
100
AcDbLine
 10
624.5001525499999
 20
1317.5
 30
0.0
 11
974.5
 21
1317.5
 31
0.0
  0
TEXT
  5
294
330
1F
100
AcDbEntity
  8
LAY-1
  6
CONTINUOUS
 62
     2
100
AcDbText
 10
941.375
 20
1256.875
 30
0.0
 40
22.5
  1
１
 41
1.12
  7
EXCADSTD
 72
     5
 11
959.375
 21
1256.875
 31
0.0
100
AcDbText
  0
LINE
  5
295
330
1F
100
AcDbEntity
  8
LAY-1
  6
CONTINUOUS
 62
     6
100
AcDbLine
 10
624.5001525499999
 20
1317.5
 30
0.0
 11
624.5001525499999
 21
1220.0
 31
0.0
  0
LINE
  5
296
330
1F
100
AcDbEntity
  8
LAY-1
  6
CONTINUOUS
 62
     6
100
AcDbLine
 10
789.5
 20
1317.5
 30
0.0
 11
789.5
 21
1220.0
 31
0.0
  0
LINE
  5
297
330
1F
100
AcDbEntity
  8
LAY-1
  6
CONTINUOUS
 62
     6
100
AcDbLine
 10
929.5
 20
1317.5
 30
0.0
 11
929.5
 21
1220.0
 31
0.0
  0
LINE
  5
298
330
1F
100
AcDbEntity
  8
LAY-1
  6
CONTINUOUS
 62
     6
100
AcDbLine
 10
974.5
 20
1317.5
 30
0.0
 11
974.5
 21
1220.0
 31
0.0
  0
TEXT
  5
299
330
1F
100
AcDbEntity
  8
LAY-1
  6
CONTINUOUS
 62
     2
100
AcDbText
 10
625.758316
 20
1256.25
 30
0.0
 40
25.0
  1
Ａ３０
 41
0.9800000000000001
  7
EXCADSTD
 72
     5
 11
685.258316
 21
1256.25
 31
0.0
100
AcDbText
  0
TEXT
  5
29A
330
1F
100
AcDbEntity
  8
LAY-1
  6
CONTINUOUS
 62
     2
100
AcDbText
 10
625.758316
 20
1223.7500763
 30
0.0
 40
25.0
  1
ＮＴ７Ａ
 41
0.9495652173913044
  7
EXCADSTD
 72
     5
 11
703.758316
 21
1223.7500763
 31
0.0
100
AcDbText
  0
TEXT
  5
29B
330
1F
100
AcDbEntity
  8
LAY-1
  6
CONTINUOUS
 62
     2
100
AcDbText
 10
791.5
 20
1256.25
 30
0.0
 40
25.0
  1
化粧棚
 41
0.9800000000000001
  7
EXCADSTD
 72
     5
 11
851.0
 21
1256.25
 31
0.0
100
AcDbText
  0
TEXT
  5
29C
330
1F
100
AcDbEntity
  8
LAY-1
  6
CONTINUOUS
 62
     2
100
AcDbText
 10
791.5
 20
1223.75
 30
0.0
 40
25.0
  1
化粧頭付木ネジ
 41
0.8348780487804879
  7
EXCADSTD
 72
     5
 11
913.75
 21
1223.75
 31
0.0
100
AcDbText
  0
TEXT
  5
29D
330
1F
100
AcDbEntity
  8
LAY-1
  6
CONTINUOUS
 62
     2
100
AcDbText
 10
941.375
 20
1224.375
 30
0.0
 40
22.5
  1
３
 41
1.12
  7
EXCADSTD
 72
     5
 11
959.375
 21
1224.375
 31
0.0
100
AcDbText
  0
TEXT
  5
29E
330
1F
100
AcDbEntity
  8
LAY-1
  6
CONTINUOUS
 62
     2
100
AcDbText
 10
485.0000001192093
 20
121.25
 30
0.0
 40
32.5
  1
化 粧 棚
 41
0.8615384615384615
  7
EXCADSTD
 72
     5
 11
609.0000001192093
 21
121.25
 31
0.0
100
AcDbText
  0
TEXT
  5
29F
330
1F
100
AcDbEntity
  8
LAY-1
  6
CONTINUOUS
 62
     2
100
AcDbText
 10
762.6249999999999
 20
121.25
 30
0.0
 40
32.5
  1
Ａ３０
 41
1.251131221719457
  7
EXCADSTD
 72
     5
 11
861.3749999999999
 21
121.25
 31
0.0
100
AcDbText
  0
TEXT
  5
2A0
330
1F
100
AcDbEntity
  8
LAY-1
  6
CONTINUOUS
 62
     7
100
AcDbText
 10
758.2500005960463
 20
65.75
 30
0.0
 40
35.0
  1
９１７９００
 41
1.157142857142857
  7
EXCADSTD
 72
     5
 11
960.7500005960463
 21
65.75
 31
0.0
100
AcDbText
  0
TEXT
  5
2A1
330
1F
100
AcDbEntity
  8
LAY-1
  6
CONTINUOUS
 62
     6
100
AcDbText
 10
102.7499998807922
 20
100.0
 30
0.0
 40
25.0
  1
風穴
 41
1.18991346010815
  7
EXCADSTD
 72
     5
 11
149.4966000993267
 21
100.0
 31
0.0
100
AcDbText
  0
TEXT
  5
2A2
330
1F
100
AcDbEntity
  8
LAY-1
  6
CONTINUOUS
 62
     6
100
AcDbText
 10
90.5220582490116
 20
63.47503660000001
 30
0.0
 40
12.5
  1
１５
 41
1.052256742147966
  7
EXCADSTD
 72
     5
 11
111.1913871126324
 21
63.47503660000001
 31
0.0
100
AcDbText
  0
TEXT
  5
2A3
330
1F
100
AcDbEntity
  8
LAY-1
  6
CONTINUOUS
 62
     6
100
AcDbText
 10
115.5220582490116
 20
63.47503660000001
 30
0.0
 40
12.5
  1
１０
 41
1.052256742147966
  7
EXCADSTD
 72
     5
 11
136.1913871126324
 21
63.47503660000001
 31
0.0
100
AcDbText
  0
TEXT
  5
2A4
330
1F
100
AcDbEntity
  8
LAY-1
  6
CONTINUOUS
 62
     6
100
AcDbText
 10
142.0220582490116
 20
63.47503660000001
 30
0.0
 40
12.5
  1
２３
 41
1.052256742147966
  7
EXCADSTD
 72
     5
 11
162.6913871126324
 21
63.47503660000001
 31
0.0
100
AcDbText
  0
TEXT
  5
2A5
330
1F
100
AcDbEntity
  8
LAY-1
  6
CONTINUOUS
 62
     6
100
AcDbText
 10
251.2499998807922
 20
100.0
 30
0.0
 40
25.0
  1
平野
 41
1.18991346010815
  7
EXCADSTD
 72
     5
 11
297.9966000993267
 21
100.0
 31
0.0
100
AcDbText
  0
TEXT
  5
2A6
330
1F
100
AcDbEntity
  8
LAY-1
  6
CONTINUOUS
 62
     6
100
AcDbText
 10
316.2499998807922
 20
100.0
 30
0.0
 40
25.0
  1
中村
 41
1.18991346010815
  7
EXCADSTD
 72
     5
 11
362.9966000993267
 21
100.0
 31
0.0
100
AcDbText
  0
TEXT
  5
2A7
330
1F
100
AcDbEntity
  8
LAY-1
  6
CONTINUOUS
 62
     2
100
AcDbText
 10
965.1396484500001
 20
119.1744232
 30
0.0
 40
15.0
  1
５
 41
1.101333333333329
  7
EXCADSTD
 72
     5
 11
976.93964845
 21
119.1744232
 31
0.0
100
AcDbText
  0
DIMENSION
  5
2A9
330
1F
100
AcDbEntity
  8
図
  6
CONTINUOUS
 62
     3
100
AcDbDimension
  2
*D15
 10
605.5
 20
760.9999999999999
 30
0.0
 11
380.5
 21
772.7499999999999
 31
0.0
 70
   160
  3
ISO-25
100
AcDbAlignedDimension
 13
155.4999999999999
 23
840.9999999999999
 33
0.0
 14
605.5
 24
840.9999999999999
 34
0.0
100
AcDbRotatedDimension
1001
ACAD
1000
DSTYLE
1002
{
1070
   270
1070
     2
1070
     6
1000
EX_NORM
1070
     7
1000
EX_NORM
1070
    41
1040
17.5
1070
    42
1040
3.499999940395355
1070
    44
1040
10.0
1070
    73
1070
     0
1070
    74
1070
     0
1070
    75
1070
     0
1070
    76
1070
     0
1070
    77
1070
     1
1070
    78
1070
     0
1070
   140
1040
20.0
1070
   147
1040
0.0
1070
   173
1070
     1
1070
   176
1070
     3
1070
   177
1070
     3
1070
   178
1070
     2
1070
   271
1070
     0
1070
   277
1070
     2
1070
   279
1070
     2
1070
   280
1070
     0
1070
   287
1070
     5
1070
   340
1005
2A8
1002
}
  0
DIMENSION
  5
2B7
330
1F
100
AcDbEntity
  8
図
  6
CONTINUOUS
 62
     3
100
AcDbDimension
  2
*D16
 10
675.5000000000001
 20
960.9999999999999
 30
0.0
 11
663.7500000000001
 21
890.9999999999999
 31
0.0
 70
   160
  3
ISO-25
100
AcDbAlignedDimension
 13
585.5
 23
820.9999999999999
 33
0.0
 14
605.5
 24
960.9999999999999
 34
0.0
 50
90.0
100
AcDbRotatedDimension
1001
ACAD
1000
DSTYLE
1002
{
1070
   270
1070
     2
1070
     6
1000
EX_NORM
1070
     7
1000
EX_NORM
1070
    41
1040
17.5
1070
    42
1040
3.499999940395355
1070
    44
1040
10.0
1070
    73
1070
     0
1070
    74
1070
     0
1070
    75
1070
     0
1070
    76
1070
     0
1070
    77
1070
     1
1070
    78
1070
     0
1070
   140
1040
20.0
1070
   147
1040
0.0
1070
   173
1070
     1
1070
   176
1070
     3
1070
   177
1070
     3
1070
   178
1070
     2
1070
   271
1070
     0
1070
   277
1070
     2
1070
   279
1070
     2
1070
   280
1070
     0
1070
   287
1070
     5
1070
   340
1005
2A8
1002
}
  0
DIMENSION
  5
2C4
330
1F
100
AcDbEntity
  8
図
  6
CONTINUOUS
 62
     3
100
AcDbDimension
  2
*D17
 10
380.4999999999999
 20
445.9999999999999
 30
0.0
 11
305.5
 21
457.7499999999999
 31
0.0
 70
   160
  3
ISO-25
100
AcDbAlignedDimension
 13
230.4999999999999
 23
512.9999999999998
 33
0.0
 14
380.4999999999999
 24
482.9999999999998
 34
0.0
100
AcDbRotatedDimension
1001
ACAD
1000
DSTYLE
1002
{
1070
   270
1070
     2
1070
     6
1000
EX_NORM
1070
     7
1000
EX_NORM
1070
    41
1040
17.5
1070
    42
1040
3.499999940395298
1070
    44
1040
10.0
1070
    73
1070
     0
1070
    74
1070
     0
1070
    75
1070
     0
1070
    76
1070
     0
1070
    77
1070
     1
1070
    78
1070
     0
1070
   140
1040
20.0
1070
   147
1040
0.0
1070
   173
1070
     1
1070
   176
1070
     3
1070
   177
1070
     3
1070
   178
1070
     2
1070
   271
1070
     0
1070
   277
1070
     2
1070
   279
1070
     2
1070
   280
1070
     0
1070
   287
1070
     5
1070
   340
1005
2A8
1002
}
  0
DIMENSION
  5
2D1
330
1F
100
AcDbEntity
  8
図
  6
CONTINUOUS
 62
     3
100
AcDbDimension
  2
*D18
 10
530.5
 20
445.9999999999999
 30
0.0
 11
455.4999999999999
 21
457.7499999999999
 31
0.0
 70
   160
  3
ISO-25
100
AcDbAlignedDimension
 13
380.4999999999999
 23
445.9999999999999
 33
0.0
 14
530.5
 24
512.9999999999998
 34
0.0
100
AcDbRotatedDimension
1001
ACAD
1000
DSTYLE
1002
{
1070
   270
1070
     2
1070
     6
1000
EX_NORM
1070
     7
1000
EX_NORM
1070
    41
1040
17.5
1070
    42
1040
3.499999940395298
1070
    44
1040
10.0
1070
    73
1070
     0
1070
    74
1070
     0
1070
    75
1070
     1
1070
    76
1070
     0
1070
    77
1070
     1
1070
    78
1070
     0
1070
   140
1040
20.0
1070
   147
1040
0.0
1070
   173
1070
     1
1070
   176
1070
     3
1070
   177
1070
     3
1070
   178
1070
     2
1070
   271
1070
     0
1070
   277
1070
     2
1070
   279
1070
     2
1070
   280
1070
     0
1070
   287
1070
     5
1070
   340
1005
2A8
1002
}
  0
DIMENSION
  5
2DD
330
1F
100
AcDbEntity
  8
図
  6
CONTINUOUS
 62
     3
100
AcDbDimension
  2
*D19
 10
675.5000000000001
 20
505.9999999999999
 30
0.0
 11
663.7500000000001
 21
540.9999999999999
 31
0.0
 70
   160
  3
ISO-25
100
AcDbAlignedDimension
 13
593.38435601338
 23
575.9999999999999
 33
0.0
 14
380.4999999999999
 24
505.9999999999999
 34
0.0
 50
90.0
100
AcDbRotatedDimension
1001
ACAD
1000
DSTYLE
1002
{
1070
   270
1070
     2
1070
     6
1000
EX_NORM
1070
     7
1000
EX_NORM
1070
    41
1040
17.5
1070
    42
1040
3.499999940395355
1070
    44
1040
10.0
1070
    73
1070
     0
1070
    74
1070
     0
1070
    75
1070
     0
1070
    76
1070
     0
1070
    77
1070
     1
1070
    78
1070
     0
1070
   140
1040
20.0
1070
   147
1040
0.0
1070
   173
1070
     1
1070
   176
1070
     3
1070
   177
1070
     3
1070
   178
1070
     2
1070
   271
1070
     0
1070
   277
1070
     2
1070
   279
1070
     2
1070
   280
1070
     0
1070
   287
1070
     5
1070
   340
1005
2A8
1002
}
  0
DIMENSION
  5
2EA
330
1F
100
AcDbEntity
  8
図
  6
CONTINUOUS
 62
     3
100
AcDbDimension
  2
*D20
 10
923.8
 20
530.9999999999999
 30
0.0
 11
912.05
 21
553.4999999999999
 31
0.0
 70
   160
  3
ISO-25
100
AcDbAlignedDimension
 13
853.8
 23
575.9999999999999
 33
0.0
 14
898.8000000000098
 24
530.9999999999999
 34
0.0
 50
90.0
100
AcDbRotatedDimension
1001
ACAD
1000
DSTYLE
1002
{
1070
   270
1070
     2
1070
     6
1000
EX_NORM
1070
     7
1000
EX_NORM
1070
    41
1040
17.5
1070
    42
1040
3.499999940395355
1070
    44
1040
10.0
1070
    73
1070
     0
1070
    74
1070
     0
1070
    75
1070
     0
1070
    76
1070
     0
1070
    77
1070
     1
1070
    78
1070
     0
1070
   140
1040
20.0
1070
   147
1040
0.0
1070
   173
1070
     1
1070
   176
1070
     3
1070
   177
1070
     3
1070
   178
1070
     2
1070
   271
1070
     0
1070
   277
1070
     2
1070
   279
1070
     2
1070
   280
1070
     0
1070
   287
1070
     5
1070
   340
1005
2A8
1002
}
  0
LINE
  5
2F7
330
1F
100
AcDbEntity
  8
図
  6
CONTINUOUS
 62
     2
100
AcDbLine
 10
605.5
 20
960.9999999999999
 30
0.0
 11
155.4999999999999
 21
960.9999999999999
 31
0.0
  0
ARC
  5
2F8
330
1F
100
AcDbEntity
  8
図
  6
CONTINUOUS
 62
     6
100
AcDbCircle
 10
353.5742044664299
 20
982.7712516488998
 30
0.0
 40
30.00000000000002
100
AcDbArc
 50
6.178466799999542
 51
26.16503906000011
  0
ARC
  5
2F9
330
1F
100
AcDbEntity
  8
図
  6
CONTINUOUS
 62
     6
100
AcDbCircle
 10
407.42582806643
 20
982.7712516488998
 30
0.0
 40
30.00000000000002
100
AcDbArc
 50
153.8349609400004
 51
173.8215332000005
  0
LINE
  5
2FA
330
1F
100
AcDbEntity
  8
図
  6
CONTINUOUS
 62
     6
100
AcDbLine
 10
377.6000833664299
 20
960.9999999999999
 30
0.0
 11
377.6000833664299
 21
986.0000114488997
 31
0.0
  0
LINE
  5
2FB
330
1F
100
AcDbEntity
  8
図
  6
CONTINUOUS
 62
     6
100
AcDbLine
 10
383.3999491664299
 20
960.9999999999999
 30
0.0
 11
383.3999491664299
 21
986.0000114488997
 31
0.0
  0
ARC
  5
2FC
330
1F
100
AcDbEntity
  8
図
  6
CONTINUOUS
 62
     6
100
AcDbCircle
 10
503.5742044664299
 20
982.7712516488998
 30
0.0
 40
30.00000000000002
100
AcDbArc
 50
6.178466799999486
 51
26.16503906000016
  0
ARC
  5
2FD
330
1F
100
AcDbEntity
  8
図
  6
CONTINUOUS
 62
     6
100
AcDbCircle
 10
557.4258280664299
 20
982.7712516488998
 30
0.0
 40
30.00000000000002
100
AcDbArc
 50
153.8349609400004
 51
173.8215332000005
  0
LINE
  5
2FE
330
1F
100
AcDbEntity
  8
図
  6
CONTINUOUS
 62
     6
100
AcDbLine
 10
527.60008336643
 20
960.9999999999999
 30
0.0
 11
527.60008336643
 21
986.0000114488997
 31
0.0
  0
LINE
  5
2FF
330
1F
100
AcDbEntity
  8
図
  6
CONTINUOUS
 62
     6
100
AcDbLine
 10
533.3999491664298
 20
960.9999999999999
 30
0.0
 11
533.3999491664298
 21
986.0000114488997
 31
0.0
  0
ARC
  5
300
330
1F
100
AcDbEntity
  8
図
  6
CONTINUOUS
 62
     6
100
AcDbCircle
 10
203.5742044664298
 20
982.7712516488998
 30
0.0
 40
30.00000000000002
100
AcDbArc
 50
6.178466799999486
 51
26.16503906000016
  0
ARC
  5
301
330
1F
100
AcDbEntity
  8
図
  6
CONTINUOUS
 62
     6
100
AcDbCircle
 10
257.4258280664299
 20
982.7712516488998
 30
0.0
 40
30.00000000000002
100
AcDbArc
 50
153.8349609399998
 51
173.8215332000005
  0
LINE
  5
302
330
1F
100
AcDbEntity
  8
図
  6
CONTINUOUS
 62
     6
100
AcDbLine
 10
227.6000833664299
 20
960.9999999999999
 30
0.0
 11
227.6000833664299
 21
986.0000114488997
 31
0.0
  0
LINE
  5
303
330
1F
100
AcDbEntity
  8
図
  6
CONTINUOUS
 62
     6
100
AcDbLine
 10
233.3999491664298
 20
960.9999999999999
 30
0.0
 11
233.3999491664298
 21
986.0000114488997
 31
0.0
  0
ARC
  5
304
330
1F
100
AcDbEntity
  8
図
  6
CONTINUOUS
 62
     2
100
AcDbCircle
 10
593.3843560133812
 20
565.9999999999999
 30
0.0
 40
10.0
100
AcDbArc
 50
349.0711100186689
 51
90.00000000000004
  0
LINE
  5
305
330
1F
100
AcDbEntity
  8
図
  6
CONTINUOUS
 62
     2
100
AcDbLine
 10
603.2029884250494
 20
564.1040945264754
 30
0.0
 11
594.4766774333763
 21
518.9117359761025
 31
0.0
  0
LINE
  5
306
330
1F
100
AcDbEntity
  8
図
  6
CONTINUOUS
 62
     2
100
AcDbLine
 10
584.8933304929158
 20
510.8104097954623
 30
0.0
 11
380.4999999999999
 21
505.9999999999999
 31
0.0
  0
ARC
  5
307
330
1F
100
AcDbEntity
  8
図
  6
CONTINUOUS
 62
     2
100
AcDbCircle
 10
584.6580450217083
 20
520.8076414496272
 30
0.0
 40
10.0
100
AcDbArc
 50
271.3482108608538
 51
349.0711100186689
  0
LINE
  5
308
330
1F
100
AcDbEntity
  8
図
  6
CONTINUOUS
 62
     2
100
AcDbLine
 10
178.2603917687454
 20
510.8152287674108
 30
0.0
 11
380.4999999999999
 21
505.9999999999999
 31
0.0
  0
ARC
  5
309
330
1F
100
AcDbEntity
  8
図
  6
CONTINUOUS
 62
     2
100
AcDbCircle
 10
178.4984195482082
 20
520.812395504852
 30
0.0
 40
10.0
100
AcDbArc
 50
192.9946167919159
 51
268.6360724683972
  0
LINE
  5
30A
330
1F
100
AcDbEntity
  8
図
  6
CONTINUOUS
 62
     2
100
AcDbLine
 10
168.0705108185587
 20
575.9999999999999
 30
0.0
 11
593.3843560133812
 21
575.9999999999999
 31
0.0
  0
LINE
  5
30B
330
1F
100
AcDbEntity
  8
図
  6
CONTINUOUS
 62
     2
100
AcDbLine
 10
158.3265988616126
 20
563.7514049330124
 30
0.0
 11
168.7545075912619
 21
518.5638004378645
 31
0.0
  0
ARC
  5
30C
330
1F
100
AcDbEntity
  8
図
  6
CONTINUOUS
 62
     2
100
AcDbCircle
 10
168.0705108185587
 20
565.9999999999999
 30
0.0
 40
10.0
100
AcDbArc
 50
90.00000000000004
 51
192.9946167919159
  0
CIRCLE
  5
30D
330
1F
100
AcDbEntity
  8
図
  6
CONTINUOUS
 62
     2
100
AcDbCircle
 10
230.4999999999999
 20
530.9999999999999
 30
0.0
 40
7.500000000000004
  0
LINE
  5
30E
330
1F
100
AcDbEntity
  8
図
  6
CONTINUOUS
 62
     6
100
AcDbLine
 10
230.4999999999999
 20
548.9999999999998
 30
0.0
 11
230.4999999999999
 21
512.9999999999998
 31
0.0
  0
LINE
  5
30F
330
1F
100
AcDbEntity
  8
図
  6
CONTINUOUS
 62
     6
100
AcDbLine
 10
212.5000000000001
 20
530.9999999999999
 30
0.0
 11
248.5
 21
530.9999999999999
 31
0.0
  0
CIRCLE
  5
310
330
1F
100
AcDbEntity
  8
図
  6
CONTINUOUS
 62
     2
100
AcDbCircle
 10
380.4999999999999
 20
530.9999999999999
 30
0.0
 40
7.500000000000004
  0
LINE
  5
311
330
1F
100
AcDbEntity
  8
図
  6
CONTINUOUS
 62
     6
100
AcDbLine
 10
362.5
 20
530.9999999999999
 30
0.0
 11
398.4999999999999
 21
530.9999999999999
 31
0.0
  0
CIRCLE
  5
312
330
1F
100
AcDbEntity
  8
図
  6
CONTINUOUS
 62
     2
100
AcDbCircle
 10
530.5
 20
530.9999999999999
 30
0.0
 40
7.500000000000004
  0
LINE
  5
313
330
1F
100
AcDbEntity
  8
図
  6
CONTINUOUS
 62
     6
100
AcDbLine
 10
530.5
 20
548.9999999999998
 30
0.0
 11
530.5
 21
512.9999999999998
 31
0.0
  0
LINE
  5
314
330
1F
100
AcDbEntity
  8
図
  6
CONTINUOUS
 62
     6
100
AcDbLine
 10
512.5
 20
530.9999999999999
 30
0.0
 11
548.4999999999999
 21
530.9999999999999
 31
0.0
  0
ARC
  5
315
330
1F
100
AcDbEntity
  8
図
  6
CONTINUOUS
 62
     2
100
AcDbCircle
 10
175.4999999999999
 20
840.9999999999999
 30
0.0
 40
10.0
100
AcDbArc
 50
180.0
 51
270.0000000000002
  0
LINE
  5
316
330
1F
100
AcDbEntity
  8
図
  6
CONTINUOUS
 62
     2
100
AcDbLine
 10
165.4999999999999
 20
940.9999999999999
 30
0.0
 11
165.4999999999999
 21
840.9999999999999
 31
0.0
  0
ARC
  5
317
330
1F
100
AcDbEntity
  8
図
  6
CONTINUOUS
 62
     2
100
AcDbCircle
 10
175.4999999999999
 20
940.9999999999999
 30
0.0
 40
10.0
100
AcDbArc
 50
90.00000000000004
 51
180.0
  0
LINE
  5
318
330
1F
100
AcDbEntity
  8
図
  6
CONTINUOUS
 62
     2
100
AcDbLine
 10
585.5
 20
950.9999999999999
 30
0.0
 11
175.4999999999999
 21
950.9999999999999
 31
0.0
  0
ARC
  5
319
330
1F
100
AcDbEntity
  8
図
  6
CONTINUOUS
 62
     2
100
AcDbCircle
 10
585.5
 20
940.9999999999999
 30
0.0
 40
10.0
100
AcDbArc
 50
0.0
 51
90.00000000000004
  0
LINE
  5
31A
330
1F
100
AcDbEntity
  8
図
  6
CONTINUOUS
 62
     2
100
AcDbLine
 10
595.5
 20
840.9999999999999
 30
0.0
 11
595.5
 21
940.9999999999999
 31
0.0
  0
LINE
  5
31B
330
1F
100
AcDbEntity
  8
図
  6
CONTINUOUS
 62
     2
100
AcDbLine
 10
175.4999999999999
 20
830.9999999999999
 30
0.0
 11
585.5
 21
830.9999999999999
 31
0.0
  0
ARC
  5
31C
330
1F
100
AcDbEntity
  8
図
  6
CONTINUOUS
 62
     2
100
AcDbCircle
 10
585.5
 20
840.9999999999999
 30
0.0
 40
10.0
100
AcDbArc
 50
270.0000000000002
 51
0.0
  0
LINE
  5
31D
330
1F
100
AcDbEntity
  8
図
  6
CONTINUOUS
 62
     2
100
AcDbLine
 10
155.4999999999999
 20
960.9999999999999
 30
0.0
 11
155.4999999999999
 21
840.9999999999999
 31
0.0
  0
ARC
  5
31E
330
1F
100
AcDbEntity
  8
図
  6
CONTINUOUS
 62
     2
100
AcDbCircle
 10
175.4999999999999
 20
840.9999999999999
 30
0.0
 40
20.0
100
AcDbArc
 50
180.0
 51
270.0000000000002
  0
LINE
  5
31F
330
1F
100
AcDbEntity
  8
図
  6
CONTINUOUS
 62
     2
100
AcDbLine
 10
605.5
 20
840.9999999999999
 30
0.0
 11
605.5
 21
960.9999999999999
 31
0.0
  0
LINE
  5
320
330
1F
100
AcDbEntity
  8
図
  6
CONTINUOUS
 62
     2
100
AcDbLine
 10
175.4999999999999
 20
820.9999999999999
 30
0.0
 11
585.5
 21
820.9999999999999
 31
0.0
  0
ARC
  5
321
330
1F
100
AcDbEntity
  8
図
  6
CONTINUOUS
 62
     2
100
AcDbCircle
 10
585.5
 20
840.9999999999999
 30
0.0
 40
20.0
100
AcDbArc
 50
270.0000000000002
 51
0.0
  0
ARC
  5
322
330
1F
100
AcDbEntity
  8
図
  6
CONTINUOUS
 62
     2
100
AcDbCircle
 10
180.1249969970687
 20
535.9999999999999
 30
0.0
 40
5.0
100
AcDbArc
 50
90.00000000000004
 51
192.9946167919162
  0
LINE
  5
323
330
1F
100
AcDbEntity
  8
図
  6
CONTINUOUS
 62
     2
100
AcDbLine
 10
180.1249969970687
 20
540.9999999999999
 30
0.0
 11
582.4992184784708
 21
540.9999999999999
 31
0.0
  0
ARC
  5
324
330
1F
100
AcDbEntity
  8
図
  6
CONTINUOUS
 62
     2
100
AcDbCircle
 10
582.4992184784708
 20
535.9999999999999
 30
0.0
 40
5.0
100
AcDbArc
 50
349.0711100186698
 51
90.00000000000004
  0
LINE
  5
325
330
1F
100
AcDbEntity
  8
図
  6
CONTINUOUS
 62
     2
100
AcDbLine
 10
587.4085346843049
 20
535.0520472632377
 30
0.0
 11
583.6879058197025
 21
515.7834246067193
 31
0.0
  0
LINE
  5
326
330
1F
100
AcDbEntity
  8
図
  6
CONTINUOUS
 62
     2
100
AcDbLine
 10
175.2530410185958
 20
534.8757024665061
 30
0.0
 11
179.6589693569152
 21
515.7833463337886
 31
0.0
  0
LINE
  5
327
330
1F
100
AcDbEntity
  8
図
  6
CONTINUOUS
 62
     2
100
AcDbLine
 10
179.6589693569201
 20
515.7833463337897
 30
0.0
 11
180.1249969970701
 21
540.9999999999999
 31
0.0
  0
LINE
  5
328
330
1F
100
AcDbEntity
  8
図
  6
CONTINUOUS
 62
     2
100
AcDbLine
 10
583.6879058196998
 20
515.7834246067199
 30
0.0
 11
582.4992184784699
 21
540.9999999999999
 31
0.0
  0
LINE
  5
329
330
1F
100
AcDbEntity
  8
図
  6
CONTINUOUS
 62
     2
100
AcDbLine
 10
582.4992184784699
 20
540.9999999999999
 30
0.0
 11
598.7417582417584
 21
540.9999999999999
 31
0.0
  0
LINE
  5
32A
330
1F
100
AcDbEntity
  8
図
  6
EXLTYPE3
 62
     6
100
AcDbLine
 10
380.4999999999999
 20
807.6999999999999
 30
0.0
 11
380.4999999999999
 21
1001.0
 31
0.0
  0
LINE
  5
32B
330
1F
100
AcDbEntity
  8
図
  6
EXLTYPE3
 62
     6
100
AcDbLine
 10
380.4999999999999
 20
493.0999999999997
 30
0.0
 11
380.4999999999999
 21
591.6999999999998
 31
0.0
  0
ARC
  5
32C
330
1F
100
AcDbEntity
  8
図
  6
CONTINUOUS
 62
     6
100
AcDbCircle
 10
885.5712516488998
 20
557.92579553357
 30
0.0
 40
30.00000000000002
100
AcDbArc
 50
276.1784668
 51
296.1650390600008
  0
ARC
  5
32D
330
1F
100
AcDbEntity
  8
図
  6
CONTINUOUS
 62
     6
100
AcDbCircle
 10
885.5712516488998
 20
504.0741719335699
 30
0.0
 40
30.00000000000002
100
AcDbArc
 50
63.83496093999959
 51
83.82153320000003
  0
LINE
  5
32E
330
1F
100
AcDbEntity
  8
図
  6
CONTINUOUS
 62
     6
100
AcDbLine
 10
863.8
 20
533.8999166335699
 30
0.0
 11
888.8000114488997
 21
533.8999166335699
 31
0.0
  0
LINE
  5
32F
330
1F
100
AcDbEntity
  8
図
  6
CONTINUOUS
 62
     6
100
AcDbLine
 10
863.8
 20
528.10005083357
 30
0.0
 11
888.8000114488997
 21
528.10005083357
 31
0.0
  0
LINE
  5
330
330
1F
100
AcDbEntity
  8
図
  6
CONTINUOUS
 62
     2
100
AcDbLine
 10
863.8
 20
505.9999999999999
 30
0.0
 11
853.8
 21
505.9999999999999
 31
0.0
  0
LINE
  5
331
330
1F
100
AcDbEntity
  8
図
  6
CONTINUOUS
 62
     2
100
AcDbLine
 10
863.8
 20
565.9999999999999
 30
0.0
 11
863.8
 21
505.9999999999999
 31
0.0
  0
ARC
  5
332
330
1F
100
AcDbEntity
  8
図
  6
CONTINUOUS
 62
     2
100
AcDbCircle
 10
853.8
 20
565.9999999999999
 30
0.0
 40
10.0
100
AcDbArc
 50
0.0
 51
90.00000000000004
  0
ARC
  5
333
330
1F
100
AcDbEntity
  8
図
  6
CONTINUOUS
 62
     2
100
AcDbCircle
 10
733.8
 20
565.9999999999999
 30
0.0
 40
10.0
100
AcDbArc
 50
90.00000000000004
 51
180.0
  0
LINE
  5
334
330
1F
100
AcDbEntity
  8
図
  6
CONTINUOUS
 62
     2
100
AcDbLine
 10
723.8
 20
565.9999999999999
 30
0.0
 11
723.8
 21
548.2075922005612
 31
0.0
  0
LINE
  5
335
330
1F
100
AcDbEntity
  8
図
  6
CONTINUOUS
 62
     2
100
AcDbLine
 10
853.8
 20
505.9999999999999
 30
0.0
 11
730.6377223398317
 21
538.7207592200559
 31
0.0
  0
ARC
  5
336
330
1F
100
AcDbEntity
  8
図
  6
CONTINUOUS
 62
     2
100
AcDbCircle
 10
733.8
 20
548.2075922005612
 30
0.0
 40
10.0
100
AcDbArc
 50
180.0
 51
251.5650511770791
  0
LINE
  5
337
330
1F
100
AcDbEntity
  8
図
  6
CONTINUOUS
 62
     2
100
AcDbLine
 10
733.8
 20
575.9999999999999
 30
0.0
 11
853.8
 21
575.9999999999999
 31
0.0
  0
ENDSEC
  0
SECTION
  2
OBJECTS
  0
DICTIONARY
  5
C
330
0
100
AcDbDictionary
  3
ACAD_GROUP
350
D
  3
ACAD_LAYOUT
350
1A
  3
ACAD_MATERIAL
350
3B
  3
ACAD_MLEADERSTYLE
350
35A
  3
ACAD_MLINESTYLE
350
17
  3
ACAD_PLOTSETTINGS
350
19
  3
ACAD_VISUALSTYLE
350
2A
  3
ACDBHEADERROUNDTRIPXREC
350
338
  3
ACDBVARIABLEDICTIONARY
350
358
  0
DICTIONARY
  5
D
102
{ACAD_REACTORS
330
C
102
}
330
C
100
AcDbDictionary
  0
DICTIONARY
  5
1A
102
{ACAD_REACTORS
330
C
102
}
330
C
100
AcDbDictionary
  0
DICTIONARY
  5
3B
102
{ACAD_REACTORS
330
C
102
}
330
C
100
AcDbDictionary
  3
BYBLOCK
350
3D
  3
BYLAYER
350
3C
  3
GLOBAL
350
3E
  0
DICTIONARY
  5
35A
102
{ACAD_REACTORS
330
C
102
}
330
C
100
AcDbDictionary
  0
DICTIONARY
  5
17
102
{ACAD_REACTORS
330
C
102
}
330
C
100
AcDbDictionary
  3
STANDARD
350
18
  0
DICTIONARY
  5
19
102
{ACAD_REACTORS
330
C
102
}
330
C
100
AcDbDictionary
  0
DICTIONARY
  5
2A
102
{ACAD_REACTORS
330
C
102
}
330
C
100
AcDbDictionary
  3
2DWIREFRAME
350
2F
  3
3D_HIDDEN
350
31
  3
3DWIREFRAME
350
30
  3
BASIC
350
32
  3
BRIGHTEN
350
36
  3
COLORCHANGE
350
3A
  3
CONCEPTUAL
350
34
  3
DIM
350
35
  3
FACEPATTERN
350
39
  3
FLAT
350
2B
  3
FLATWITHEDGES
350
2C
  3
GOURAUD
350
2D
  3
GOURAUDWITHEDGES
350
2E
  3
LINEPATTERN
350
38
  3
REALISTIC
350
33
  3
THICKEN
350
37
  0
DICTIONARY
  5
338
102
{ACAD_REACTORS
330
C
102
}
330
C
100
AcDbDictionary
  3
CEPSNTYPE
350
341
  3
DIMSTYLEDATA
350
357
  3
FINGERPRINTGUID
350
342
  3
HYPERLINKBASE
350
33B
  3
INSUNITS
350
340
  3
LAYOUTDICT
350
33D
  3
LWETCUNION
350
33F
  3
PLOTSETDICT
350
33E
  3
PSVPSCALE
350
344
  3
PUCSBASE
350
347
  3
PUCSORGBACK
350
34D
  3
PUCSORGBOTTOM
350
349
  3
PUCSORGFRONT
350
34C
  3
PUCSORGLEFT
350
34A
  3
PUCSORGRIGHT
350
34B
  3
PUCSORGTOP
350
348
  3
PUCSORTHOREF
350
345
  3
PUCSORTHOVIEW
350
346
  3
STYLESHEET
350
33C
  3
TSTACKALIGN
350
339
  3
TSTACKSIZE
350
33A
  3
UCSBASE
350
350
  3
UCSORGBACK
350
356
  3
UCSORGBOTTOM
350
352
  3
UCSORGFRONT
350
355
  3
UCSORGLEFT
350
353
  3
UCSORGRIGHT
350
354
  3
UCSORGTOP
350
351
  3
UCSORTHOREF
350
34E
  3
UCSORTHOVIEW
350
34F
  3
VERSIONGUID
350
343
  0
DICTIONARY
  5
358
102
{ACAD_REACTORS
330
C
102
}
330
C
100
AcDbDictionary
  3
DIMASSOC
350
35D
  3
HIDETEXT
350
35E
  3
PSOLHEIGHT
350
35C
  3
PSOLWIDTH
350
35B
  0
MATERIAL
  5
3D
102
{ACAD_REACTORS
330
3B
102
}
102
{ACAD_XDICTIONARY
360
361
102
}
330
3B
100
AcDbMaterial
  1
ByBlock
  0
MATERIAL
  5
3C
102
{ACAD_REACTORS
330
3B
102
}
102
{ACAD_XDICTIONARY
360
35F
102
}
330
3B
100
AcDbMaterial
  1
ByLayer
  0
MATERIAL
  5
3E
102
{ACAD_REACTORS
330
3B
102
}
102
{ACAD_XDICTIONARY
360
363
102
}
330
3B
100
AcDbMaterial
  1
Global
  0
MLINESTYLE
  5
18
102
{ACAD_REACTORS
330
17
102
}
330
17
100
AcDbMlineStyle
  2
Standard
 70
     0
  3

 62
   256
 51
90.0
 52
90.0
 71
     2
 49
0.5
 62
   256
  6
BYLAYER
 49
-0.5
 62
   256
  6
BYLAYER
  0
ACAD_PROXY_OBJECT
  5
2F
102
{ACAD_REACTORS
330
2A
102
}
330
2A
100
AcDbProxyObject
 90
      499
 91
      501
 93
      436
310
42CC9915DA5C99599C985B595049028333333333333E3BF0000000000000FB0107901411070040501600405405064090741402480A0340
1001
ACAD
1000
AcDbSavedByObjectVersion
1070
     0
  0
ACAD_PROXY_OBJECT
  5
31
102
{ACAD_REACTORS
330
2A
102
}
330
2A
100
AcDbProxyObject
 90
      499
 91
      501
 93
      500
310
424CD108121A5919195B90640502408333333333333E3BF0000000000000FB01079024090700405020000000000001110200405405064090740C02480A0340
1001
ACAD
1000
AcDbSavedByObjectVersion
1070
     0
  0
ACAD_PROXY_OBJECT
  5
30
102
{ACAD_REACTORS
330
2A
102
}
330
2A
100
AcDbProxyObject
 90
      499
 91
      501
 93
      436
310
42CCD915DA5C99599C985B595059028333333333333E3BF0000000000000FB0107901411070040501600405405064090741402480A0340
1001
ACAD
1000
AcDbSavedByObjectVersion
1070
     0
  0
ACAD_PROXY_OBJECT
  5
32
102
{ACAD_REACTORS
330
2A
102
}
330
2A
100
AcDbProxyObject
 90
      499
 91
      501
 93
      388
310
4150985CDA58D07406404333333333333E3BF0000000000000FB0107A41107004050150841D405064090741402480A0350
1001
ACAD
1000
AcDbSavedByObjectVersion
1070
     0
  0
ACAD_PROXY_OBJECT
  5
36
102
{ACAD_REACTORS
330
2A
102
}
330
2A
100
AcDbProxyObject
 90
      499
 91
      501
 93
      428
310
42109C9A59DA1D195B90C409028333333333333E3BF0000000000000FB010790141107004050150841D405064090741402480A029950
1001
ACAD
1000
AcDbSavedByObjectVersion
1070
     0
  0
ACAD_PROXY_OBJECT
  5
3A
102
{ACAD_REACTORS
330
2A
102
}
330
2A
100
AcDbProxyObject
 90
      499
 91
      501
 93
      452
310
42D0DBDB1BDC90DA185B99D95104090240C333333333333E3BF0000000000000FB0108901411070040501508421405064090741402480A0350
1001
ACAD
1000
AcDbSavedByObjectVersion
1070
     0
  0
ACAD_PROXY_OBJECT
  5
34
102
{ACAD_REACTORS
330
2A
102
}
330
2A
100
AcDbProxyObject
 90
      499
 91
      501
 93
      500
310
4290DBDB98D95C1D1D585B10940D028333333333333E3BF0000000000000FB0107902409070040501000000000000111010841D405064090740C02480A0340
1001
ACAD
1000
AcDbSavedByObjectVersion
1070
     0
  0
ACAD_PROXY_OBJECT
  5
35
102
{ACAD_REACTORS
330
2A
102
}
330
2A
100
AcDbProxyObject
 90
      499
 91
      501
 93
      412
310
40D11A5B50B409028333333333333E3BF0000000000000FB010790141107004050150841D405064090741402480A02677FFFFFD0
1001
ACAD
1000
AcDbSavedByObjectVersion
1070
     0
  0
ACAD_PROXY_OBJECT
  5
39
102
{ACAD_REACTORS
330
2A
102
}
330
2A
100
AcDbProxyObject
 90
      499
 91
      501
 93
      444
310
42D19858D95C185D1D195C9B90F409028333333333333E3BF0000000000000FB010790141107004050150841D405064090741402480A0350
1001
ACAD
1000
AcDbSavedByObjectVersion
1070
     0
  0
ACAD_PROXY_OBJECT
  5
2B
102
{ACAD_REACTORS
330
2A
102
}
330
2A
100
AcDbProxyObject
 90
      499
 91
      501
 93
      388
310
41119B185D240901404333333333333E3BF0000000000000F9010740A41107004050150841D405064090741402480A1B50
1001
ACAD
1000
AcDbSavedByObjectVersion
1070
     0
  0
ACAD_PROXY_OBJECT
  5
2C
102
{ACAD_REACTORS
330
2A
102
}
330
2A
100
AcDbProxyObject
 90
      499
 91
      501
 93
      476
310
43519B185D15DA5D1A115919D95CD0140901404333333333333E3BF0000000000000F9010740901411070040501600405405064090741402480A1B50
1001
ACAD
1000
AcDbSavedByObjectVersion
1070
     0
  0
ACAD_PROXY_OBJECT
  5
2D
102
{ACAD_REACTORS
330
2A
102
}
330
2A
100
AcDbProxyObject
 90
      499
 91
      501
 93
      412
310
41D1DBDD5C985D5910240902404333333333333E3BF0000000000000F9010740A411070040501641D405064090741402480A1B50
1001
ACAD
1000
AcDbSavedByObjectVersion
1070
     0
  0
ACAD_PROXY_OBJECT
  5
2E
102
{ACAD_REACTORS
330
2A
102
}
330
2A
100
AcDbProxyObject
 90
      499
 91
      501
 93
      500
310
4411DBDD5C985D5915DA5D1A115919D95CD0340902404333333333333E3BF0000000000000F9010740901411070040501600405405064090741402480A1B50
1001
ACAD
1000
AcDbSavedByObjectVersion
1070
     0
  0
ACAD_PROXY_OBJECT
  5
38
102
{ACAD_REACTORS
330
2A
102
}
330
2A
100
AcDbProxyObject
 90
      499
 91
      501
 93
      444
310
42D31A5B995C185D1D195C9B90E409028333333333333E3BF0000000000000FB010790141107004050750841D405064090741402483A0350
1001
ACAD
1000
AcDbSavedByObjectVersion
1070
     0
  0
ACAD_PROXY_OBJECT
  5
33
102
{ACAD_REACTORS
330
2A
102
}
330
2A
100
AcDbProxyObject
 90
      499
 91
      501
 93
      420
310
425499585B1A5CDD1A58D08409028333333333333E3BF0000000000000FB01079019070040501508421405064090741402480A1B40
1001
ACAD
1000
AcDbSavedByObjectVersion
1070
     0
  0
ACAD_PROXY_OBJECT
  5
37
102
{ACAD_REACTORS
330
2A
102
}
330
2A
100
AcDbProxyObject
 90
      499
 91
      501
 93
      412
310
41D51A1A58DAD95B90D409028333333333333E3BF0000000000000FB010790141107004050150C41D405064090741402480A0350
1001
ACAD
1000
AcDbSavedByObjectVersion
1070
     0
  0
XRECORD
  5
341
102
{ACAD_REACTORS
330
338
102
}
330
338
100
AcDbXrecord
 90
        0
  0
XRECORD
  5
357
102
{ACAD_REACTORS
330
338
102
}
330
338
100
AcDbXrecord
1000
DSTYLE
1002
{
1070
   340
340
11
1002
}
  0
XRECORD
  5
342
102
{ACAD_REACTORS
330
338
102
}
330
338
100
AcDbXrecord
  1
{3272C906-45EC-4707-9B1E-1C9CBB8DBE4D}
  0
XRECORD
  5
33B
102
{ACAD_REACTORS
330
338
102
}
330
338
100
AcDbXrecord
  1

  0
XRECORD
  5
340
102
{ACAD_REACTORS
330
338
102
}
330
338
100
AcDbXrecord
 90
        4
  0
XRECORD
  5
33D
102
{ACAD_REACTORS
330
338
102
}
330
338
100
AcDbXrecord
340
1A
  0
XRECORD
  5
33F
102
{ACAD_REACTORS
330
338
102
}
330
338
100
AcDbXrecord
 90
    10781
  0
XRECORD
  5
33E
102
{ACAD_REACTORS
330
338
102
}
330
338
100
AcDbXrecord
340
19
  0
XRECORD
  5
344
102
{ACAD_REACTORS
330
338
102
}
330
338
100
AcDbXrecord
 40
0.0
  0
XRECORD
  5
347
102
{ACAD_REACTORS
330
338
102
}
330
338
100
AcDbXrecord
340
0
  0
XRECORD
  5
34D
102
{ACAD_REACTORS
330
338
102
}
330
338
100
AcDbXrecord
 10
0.0
 20
0.0
 30
0.0
  0
XRECORD
  5
349
102
{ACAD_REACTORS
330
338
102
}
330
338
100
AcDbXrecord
 10
0.0
 20
0.0
 30
0.0
  0
XRECORD
  5
34C
102
{ACAD_REACTORS
330
338
102
}
330
338
100
AcDbXrecord
 10
0.0
 20
0.0
 30
0.0
  0
XRECORD
  5
34A
102
{ACAD_REACTORS
330
338
102
}
330
338
100
AcDbXrecord
 10
0.0
 20
0.0
 30
0.0
  0
XRECORD
  5
34B
102
{ACAD_REACTORS
330
338
102
}
330
338
100
AcDbXrecord
 10
0.0
 20
0.0
 30
0.0
  0
XRECORD
  5
348
102
{ACAD_REACTORS
330
338
102
}
330
338
100
AcDbXrecord
 10
0.0
 20
0.0
 30
0.0
  0
XRECORD
  5
345
102
{ACAD_REACTORS
330
338
102
}
330
338
100
AcDbXrecord
340
0
  0
XRECORD
  5
346
102
{ACAD_REACTORS
330
338
102
}
330
338
100
AcDbXrecord
 70
     0
  0
XRECORD
  5
33C
102
{ACAD_REACTORS
330
338
102
}
330
338
100
AcDbXrecord
  1

  0
XRECORD
  5
339
102
{ACAD_REACTORS
330
338
102
}
330
338
100
AcDbXrecord
 90
        1
  0
XRECORD
  5
33A
102
{ACAD_REACTORS
330
338
102
}
330
338
100
AcDbXrecord
 90
       70
  0
XRECORD
  5
350
102
{ACAD_REACTORS
330
338
102
}
330
338
100
AcDbXrecord
340
0
  0
XRECORD
  5
356
102
{ACAD_REACTORS
330
338
102
}
330
338
100
AcDbXrecord
 10
0.0
 20
0.0
 30
0.0
  0
XRECORD
  5
352
102
{ACAD_REACTORS
330
338
102
}
330
338
100
AcDbXrecord
 10
0.0
 20
0.0
 30
0.0
  0
XRECORD
  5
355
102
{ACAD_REACTORS
330
338
102
}
330
338
100
AcDbXrecord
 10
0.0
 20
0.0
 30
0.0
  0
XRECORD
  5
353
102
{ACAD_REACTORS
330
338
102
}
330
338
100
AcDbXrecord
 10
0.0
 20
0.0
 30
0.0
  0
XRECORD
  5
354
102
{ACAD_REACTORS
330
338
102
}
330
338
100
AcDbXrecord
 10
0.0
 20
0.0
 30
0.0
  0
XRECORD
  5
351
102
{ACAD_REACTORS
330
338
102
}
330
338
100
AcDbXrecord
 10
0.0
 20
0.0
 30
0.0
  0
XRECORD
  5
34E
102
{ACAD_REACTORS
330
338
102
}
330
338
100
AcDbXrecord
340
0
  0
XRECORD
  5
34F
102
{ACAD_REACTORS
330
338
102
}
330
338
100
AcDbXrecord
 70
     0
  0
XRECORD
  5
343
102
{ACAD_REACTORS
330
338
102
}
330
338
100
AcDbXrecord
  1
{FAEB1C32-E019-11D5-929B-00C0DF256EC4}
  0
DICTIONARYVAR
  5
35D
102
{ACAD_REACTORS
330
358
102
}
330
358
100
DictionaryVariables
280
     0
  1
2
  0
DICTIONARYVAR
  5
35E
102
{ACAD_REACTORS
330
358
102
}
330
358
100
DictionaryVariables
280
     0
  1
1
  0
DICTIONARYVAR
  5
35C
102
{ACAD_REACTORS
330
358
102
}
330
358
100
DictionaryVariables
280
     0
  1
80.000000
  0
DICTIONARYVAR
  5
35B
102
{ACAD_REACTORS
330
358
102
}
330
358
100
DictionaryVariables
280
     0
  1
5.000000
  0
DICTIONARY
  5
361
330
3D
100
AcDbDictionary
280
     1
  3
ACAD_XREC_ROUNDTRIP
360
362
  0
DICTIONARY
  5
35F
330
3C
100
AcDbDictionary
280
     1
  3
ACAD_XREC_ROUNDTRIP
360
360
  0
DICTIONARY
  5
363
330
3E
100
AcDbDictionary
280
     1
  3
ACAD_XREC_ROUNDTRIP
360
364
  0
XRECORD
  5
362
102
{ACAD_REACTORS
330
361
102
}
330
361
100
AcDbXrecord
102
MATERIAL
148
0.0
149
0.0
149
0.0
 93
        0
 94
      127
282
     0
 72
     1
 77
     1
171
     1
175
     1
179
     1
273
     0
  0
XRECORD
  5
360
102
{ACAD_REACTORS
330
35F
102
}
330
35F
100
AcDbXrecord
102
MATERIAL
148
0.0
149
0.0
149
0.0
 93
        0
 94
      127
282
     0
 72
     1
 77
     1
171
     1
175
     1
179
     1
273
     0
  0
XRECORD
  5
364
102
{ACAD_REACTORS
330
363
102
}
330
363
100
AcDbXrecord
102
MATERIAL
148
0.0
149
0.0
149
0.0
 93
        0
 94
      127
282
     0
 72
     1
 77
     1
171
     1
175
     1
179
     1
273
     0
  0
ENDSEC
  0
EOF
