  0
SECTION
  2
HEADER
  9
$ACADVER
  1
AC1014
  9
$ACADMAINTVER
 70
     9
  9
$DWGCODEPAGE
  3
ANSI_932
  9
$INSBASE
 10
0.0
 20
0.0
 30
0.0
  9
$EXTMIN
 10
-2.099999999999991
 20
11.6
 30
0.0
  9
$EXTMAX
 10
409.5
 20
292.0
 30
0.0
  9
$LIMMIN
 10
0.0
 20
0.0
  9
$LIMMAX
 10
210.0
 20
297.0
  9
$ORTHOMODE
 70
     0
  9
$REGENMODE
 70
     1
  9
$FILLMODE
 70
     1
  9
$QTEXTMODE
 70
     0
  9
$MIRRTEXT
 70
     1
  9
$DRAGMODE
 70
     2
  9
$LTSCALE
 40
1.0
  9
$OSMODE
 70
    37
  9
$ATTMODE
 70
     1
  9
$TEXTSIZE
 40
2.5
  9
$TRACEWID
 40
1.0
  9
$TEXTSTYLE
  7
STANDARD
  9
$CLAYER
  8
便器
  9
$CELTYPE
  6
BYLAYER
  9
$CECOLOR
 62
   256
  9
$CELTSCALE
 40
1.0
  9
$DELOBJ
 70
     1
  9
$DISPSILH
 70
     0
  9
$DIMSCALE
 40
1.0
  9
$DIMASZ
 40
2.5
  9
$DIMEXO
 40
0.625
  9
$DIMDLI
 40
3.75
  9
$DIMRND
 40
0.0
  9
$DIMDLE
 40
0.0
  9
$DIMEXE
 40
1.25
  9
$DIMTP
 40
0.0
  9
$DIMTM
 40
0.0
  9
$DIMTXT
 40
2.5
  9
$DIMCEN
 40
2.5
  9
$DIMTSZ
 40
0.0
  9
$DIMTOL
 70
     0
  9
$DIMLIM
 70
     0
  9
$DIMTIH
 70
     0
  9
$DIMTOH
 70
     0
  9
$DIMSE1
 70
     0
  9
$DIMSE2
 70
     0
  9
$DIMTAD
 70
     1
  9
$DIMZIN
 70
     8
  9
$DIMBLK
  1

  9
$DIMASO
 70
     1
  9
$DIMSHO
 70
     1
  9
$DIMPOST
  1

  9
$DIMAPOST
  1

  9
$DIMALT
 70
     0
  9
$DIMALTD
 70
     3
  9
$DIMALTF
 40
0.03937007874016
  9
$DIMLFAC
 40
1.0
  9
$DIMTOFL
 70
     1
  9
$DIMTVP
 40
0.0
  9
$DIMTIX
 70
     0
  9
$DIMSOXD
 70
     0
  9
$DIMSAH
 70
     0
  9
$DIMBLK1
  1

  9
$DIMBLK2
  1

  9
$DIMSTYLE
  2
ISO-25
  9
$DIMCLRD
 70
     0
  9
$DIMCLRE
 70
     0
  9
$DIMCLRT
 70
     0
  9
$DIMTFAC
 40
1.0
  9
$DIMGAP
 40
0.625
  9
$DIMJUST
 70
     0
  9
$DIMSD1
 70
     0
  9
$DIMSD2
 70
     0
  9
$DIMTOLJ
 70
     0
  9
$DIMTZIN
 70
     8
  9
$DIMALTZ
 70
     0
  9
$DIMALTTZ
 70
     0
  9
$DIMFIT
 70
     3
  9
$DIMUPT
 70
     0
  9
$DIMUNIT
 70
     2
  9
$DIMDEC
 70
     2
  9
$DIMTDEC
 70
     2
  9
$DIMALTU
 70
     2
  9
$DIMALTTD
 70
     3
  9
$DIMTXSTY
  7
STANDARD
  9
$DIMAUNIT
 70
     0
  9
$LUNITS
 70
     2
  9
$LUPREC
 70
     4
  9
$SKETCHINC
 40
1.0
  9
$FILLETRAD
 40
10.0
  9
$AUNITS
 70
     0
  9
$AUPREC
 70
     0
  9
$MENU
  1
.
  9
$ELEVATION
 40
0.0
  9
$PELEVATION
 40
0.0
  9
$THICKNESS
 40
0.0
  9
$LIMCHECK
 70
     0
  9
$CHAMFERA
 40
10.0
  9
$CHAMFERB
 40
10.0
  9
$CHAMFERC
 40
20.0
  9
$CHAMFERD
 40
0.0
  9
$SKPOLY
 70
     0
  9
$TDCREATE
 40
2460361.600308727
  9
$TDUPDATE
 40
2460361.600308889
  9
$TDINDWG
 40
0.0000000116
  9
$TDUSRTIMER
 40
0.0000000116
  9
$USRTIMER
 70
     1
  9
$ANGBASE
 50
0.0
  9
$ANGDIR
 70
     0
  9
$PDMODE
 70
     0
  9
$PDSIZE
 40
0.0
  9
$PLINEWID
 40
0.0
  9
$COORDS
 70
     1
  9
$SPLFRAME
 70
     0
  9
$SPLINETYPE
 70
     6
  9
$SPLINESEGS
 70
     8
  9
$ATTDIA
 70
     0
  9
$ATTREQ
 70
     1
  9
$HANDLING
 70
     1
  9
$HANDSEED
  5
458
  9
$SURFTAB1
 70
     6
  9
$SURFTAB2
 70
     6
  9
$SURFTYPE
 70
     6
  9
$SURFU
 70
     6
  9
$SURFV
 70
     6
  9
$UCSNAME
  2

  9
$UCSORG
 10
0.0
 20
0.0
 30
0.0
  9
$UCSXDIR
 10
1.0
 20
0.0
 30
0.0
  9
$UCSYDIR
 10
0.0
 20
1.0
 30
0.0
  9
$PUCSNAME
  2

  9
$PUCSORG
 10
0.0
 20
0.0
 30
0.0
  9
$PUCSXDIR
 10
1.0
 20
0.0
 30
0.0
  9
$PUCSYDIR
 10
0.0
 20
1.0
 30
0.0
  9
$USERI1
 70
     0
  9
$USERI2
 70
     0
  9
$USERI3
 70
     0
  9
$USERI4
 70
     0
  9
$USERI5
 70
     0
  9
$USERR1
 40
0.0
  9
$USERR2
 40
0.0
  9
$USERR3
 40
0.0
  9
$USERR4
 40
0.0
  9
$USERR5
 40
0.0
  9
$WORLDVIEW
 70
     1
  9
$SHADEDGE
 70
     3
  9
$SHADEDIF
 70
    70
  9
$TILEMODE
 70
     1
  9
$MAXACTVP
 70
    64
  9
$PINSBASE
 10
0.0
 20
0.0
 30
0.0
  9
$PLIMCHECK
 70
     0
  9
$PEXTMIN
 10
1.000000000000000E+20
 20
1.000000000000000E+20
 30
1.000000000000000E+20
  9
$PEXTMAX
 10
-1.000000000000000E+20
 20
-1.000000000000000E+20
 30
-1.000000000000000E+20
  9
$PLIMMIN
 10
0.0
 20
0.0
  9
$PLIMMAX
 10
420.0
 20
297.0
  9
$UNITMODE
 70
     0
  9
$VISRETAIN
 70
     1
  9
$PLINEGEN
 70
     0
  9
$PSLTSCALE
 70
     1
  9
$TREEDEPTH
 70
  3020
  9
$PICKSTYLE
 70
     1
  9
$CMLSTYLE
  2
STANDARD
  9
$CMLJUST
 70
     0
  9
$CMLSCALE
 40
20.0
  9
$PROXYGRAPHICS
 70
     1
  9
$MEASUREMENT
 70
     1
  0
ENDSEC
  0
SECTION
  2
CLASSES
  0
CLASS
  1
ACDBDICTIONARYWDFLT
  2
AcDbDictionaryWithDefault
  3
ObjectDBX Classes
 90
        0
280
     0
281
     0
  0
CLASS
  1
VISUALSTYLE
  2
AcDbVisualStyle
  3
ObjectDBX Classes
 90
     4095
280
     0
281
     0
  0
CLASS
  1
MATERIAL
  2
AcDbMaterial
  3
ObjectDBX Classes
 90
     1153
280
     0
281
     0
  0
CLASS
  1
SUN
  2
AcDbSun
  3
SCENEOE
 90
     1024
280
     0
281
     0
  0
CLASS
  1
DICTIONARYVAR
  2
AcDbDictionaryVar
  3
ObjectDBX Classes
 90
        0
280
     0
281
     0
  0
CLASS
  1
XRECORD
  2
AcDbXrecord
  3
AutoCAD 2000
 90
        0
280
     0
281
     0
  0
CLASS
  1
LWPOLYLINE
  2
AcDbPolyline
  3
AutoCAD 2000
 90
        0
280
     0
281
     1
  0
CLASS
  1
HATCH
  2
AcDbHatch
  3
AutoCAD 2000
 90
        0
280
     0
281
     1
  0
CLASS
  1
ACDBPLACEHOLDER
  2
AcDbPlaceHolder
  3
ObjectDBX Classes
 90
        0
280
     0
281
     0
  0
CLASS
  1
LAYOUT
  2
AcDbLayout
  3
ObjectDBX Classes
 90
        0
280
     0
281
     0
  0
ENDSEC
  0
SECTION
  2
TABLES
  0
TABLE
  2
VPORT
  5
8
330
0
100
AcDbSymbolTable
 70
     1
  0
VPORT
  5
29
330
8
100
AcDbSymbolTableRecord
100
AcDbViewportTableRecord
  2
*ACTIVE
 70
     0
 10
0.0
 20
0.0
 11
1.0
 21
1.0
 12
2037.0
 22
1518.0
 13
0.0
 23
0.0
 14
10.0
 24
10.0
 15
10.0
 25
10.0
 16
0.0
 26
0.0
 36
1.0
 17
0.0
 27
0.0
 37
0.0
 40
2804.0
 41
1.467902995720399
 42
50.0
 43
0.0
 44
0.0
 50
0.0
 51
0.0
 71
     0
 72
  1000
 73
     1
 74
     3
 75
     0
 76
     0
 77
     0
 78
     0
  0
ENDTAB
  0
TABLE
  2
LTYPE
  5
5
330
0
100
AcDbSymbolTable
 70
     7
  0
LTYPE
  5
14
330
5
100
AcDbSymbolTableRecord
100
AcDbLinetypeTableRecord
  2
BYBLOCK
 70
     0
  3

 72
    65
 73
     0
 40
0.0
  0
LTYPE
  5
15
330
5
100
AcDbSymbolTableRecord
100
AcDbLinetypeTableRecord
  2
BYLAYER
 70
     0
  3

 72
    65
 73
     0
 40
0.0
  0
LTYPE
  5
16
330
5
100
AcDbSymbolTableRecord
100
AcDbLinetypeTableRecord
  2
CONTINUOUS
 70
     0
  3
Solid line
 72
    65
 73
     0
 40
0.0
  0
LTYPE
  5
40
330
5
100
AcDbSymbolTableRecord
100
AcDbLinetypeTableRecord
  2
EXLTYPE1
 70
     0
  3
破線
 72
    65
 73
     2
 40
3.0
 49
2.0
 74
     0
 49
-1.0
 74
     0
  0
LTYPE
  5
41
330
5
100
AcDbSymbolTableRecord
100
AcDbLinetypeTableRecord
  2
EXLTYPE2
 70
     0
  3
点線
 72
    65
 73
     2
 40
2.0
 49
1.0
 74
     0
 49
-1.0
 74
     0
  0
LTYPE
  5
42
330
5
100
AcDbSymbolTableRecord
100
AcDbLinetypeTableRecord
  2
EXLTYPE3
 70
     0
  3
一点鎖線
 72
    65
 73
     4
 40
10.0
 49
7.0
 74
     0
 49
-1.0
 74
     0
 49
1.0
 74
     0
 49
-1.0
 74
     0
  0
LTYPE
  5
43
330
5
100
AcDbSymbolTableRecord
100
AcDbLinetypeTableRecord
  2
EXLTYPE4
 70
     0
  3
二点鎖線
 72
    65
 73
     6
 40
12.0
 49
7.0
 74
     0
 49
-1.0
 74
     0
 49
1.0
 74
     0
 49
-1.0
 74
     0
 49
1.0
 74
     0
 49
-1.0
 74
     0
  0
LTYPE
  5
44
330
5
100
AcDbSymbolTableRecord
100
AcDbLinetypeTableRecord
  2
EXLTYPE5
 70
     0
  3
三点鎖線
 72
    65
 73
     8
 40
37.0
 49
30.0
 74
     0
 49
-1.0
 74
     0
 49
1.0
 74
     0
 49
-1.0
 74
     0
 49
1.0
 74
     0
 49
-1.0
 74
     0
 49
1.0
 74
     0
 49
-1.0
 74
     0
  0
LTYPE
  5
45
330
5
100
AcDbSymbolTableRecord
100
AcDbLinetypeTableRecord
  2
EXLTYPE6
 70
     0
  3
四点鎖線
 72
    65
 73
    10
 40
39.0
 49
30.0
 74
     0
 49
-1.0
 74
     0
 49
1.0
 74
     0
 49
-1.0
 74
     0
 49
1.0
 74
     0
 49
-1.0
 74
     0
 49
1.0
 74
     0
 49
-1.0
 74
     0
 49
1.0
 74
     0
 49
-1.0
 74
     0
  0
ENDTAB
  0
TABLE
  2
LAYER
  5
2
330
0
100
AcDbSymbolTable
 70
     5
  0
LAYER
  5
10
330
2
100
AcDbSymbolTableRecord
100
AcDbLayerTableRecord
  2
0
 70
     0
 62
     7
  6
CONTINUOUS
  0
LAYER
  5
48
330
2
100
AcDbSymbolTableRecord
100
AcDbLayerTableRecord
  2
枠
 70
     0
 62
     7
  6
CONTINUOUS
  0
LAYER
  5
49
330
2
100
AcDbSymbolTableRecord
100
AcDbLayerTableRecord
  2
便器
 70
     0
 62
     7
  6
CONTINUOUS
  0
LAYER
  5
4A
330
2
100
AcDbSymbolTableRecord
100
AcDbLayerTableRecord
  2
寸法
 70
     0
 62
     7
  6
CONTINUOUS
  0
LAYER
  5
331
330
2
100
AcDbSymbolTableRecord
100
AcDbLayerTableRecord
  2
DEFPOINTS
 70
     0
 62
     7
  6
CONTINUOUS
  0
ENDTAB
  0
TABLE
  2
STYLE
  5
3
330
0
100
AcDbSymbolTable
 70
     6
  0
STYLE
  5
11
330
3
100
AcDbSymbolTableRecord
100
AcDbTextStyleTableRecord
  2
STANDARD
 70
     0
 40
0.0
 41
1.0
 50
0.0
 71
     0
 42
2.5
  3
monotxt
  4
extfont
  0
STYLE
  5
46
330
3
100
AcDbSymbolTableRecord
100
AcDbTextStyleTableRecord
  2
EXCADSTD
 70
     0
 40
0.0
 41
1.0
 50
0.0
 71
     0
 42
0.2
  3
monotxt
  4
extfont
  0
STYLE
  5
47
330
3
100
AcDbSymbolTableRecord
100
AcDbTextStyleTableRecord
  2
EXCADVERT
 70
     4
 40
0.0
 41
1.0
 50
0.0
 71
     0
 42
0.286885
  3
monotxt
  4
extfont
  0
STYLE
  5
32F
330
3
100
AcDbSymbolTableRecord
100
AcDbTextStyleTableRecord
  2
EXCADDIM1
 70
     0
 40
0.0
 41
0.95
 50
0.0
 71
     0
 42
0.2
  3
monotxt
  4
extfont
  0
STYLE
  5
3E4
330
3
100
AcDbSymbolTableRecord
100
AcDbTextStyleTableRecord
  2
EXCADDIM2
 70
     0
 40
0.0
 41
0.7
 50
0.0
 71
     0
 42
0.2
  3
monotxt
  4
extfont
  0
STYLE
  5
3FB
330
3
100
AcDbSymbolTableRecord
100
AcDbTextStyleTableRecord
  2
EXCADDIM3
 70
     0
 40
0.0
 41
0.84
 50
0.0
 71
     0
 42
0.2
  3
monotxt
  4
extfont
  0
ENDTAB
  0
TABLE
  2
VIEW
  5
6
330
0
100
AcDbSymbolTable
 70
     0
  0
ENDTAB
  0
TABLE
  2
UCS
  5
7
330
0
100
AcDbSymbolTable
 70
     0
  0
ENDTAB
  0
TABLE
  2
APPID
  5
9
330
0
100
AcDbSymbolTable
 70
     1
  0
APPID
  5
12
330
9
100
AcDbSymbolTableRecord
100
AcDbRegAppTableRecord
  2
ACAD
 70
     0
  0
ENDTAB
  0
TABLE
  2
DIMSTYLE
  5
A
330
0
100
AcDbSymbolTable
 70
     1
  0
DIMSTYLE
105
27
102
{ACAD_REACTORS
330
330
330
33E
330
34B
330
357
330
363
330
371
330
37D
330
388
330
395
330
3A2
330
3AF
330
3BC
330
3C8
330
3D5
330
3E5
330
3F0
330
3FC
330
407
102
}
330
A
100
AcDbSymbolTableRecord
100
AcDbDimStyleTableRecord
  2
ISO-25
 70
     0
  3

  4

  5

  6

  7

 40
1.0
 41
2.5
 42
0.625
 43
3.75
 44
1.25
 45
0.0
 46
0.0
 47
0.0
 48
0.0
140
2.5
141
2.5
142
0.0
143
0.03937007874016
144
1.0
145
0.0
146
1.0
147
0.625
 71
     0
 72
     0
 73
     0
 74
     0
 75
     0
 76
     0
 77
     1
 78
     8
170
     0
171
     3
172
     1
173
     0
174
     0
175
     0
176
     0
177
     0
178
     0
270
     2
271
     2
272
     2
273
     2
274
     3
340
11
275
     0
280
     0
281
     0
282
     0
283
     0
284
     8
285
     0
286
     0
287
     5
288
     0
  0
ENDTAB
  0
TABLE
  2
BLOCK_RECORD
  5
1
330
0
100
AcDbSymbolTable
 70
    33
  0
BLOCK_RECORD
  5
1F
330
1
100
AcDbSymbolTableRecord
100
AcDbBlockTableRecord
  2
*MODEL_SPACE
  0
BLOCK_RECORD
  5
1B
330
1
100
AcDbSymbolTableRecord
100
AcDbBlockTableRecord
  2
*PAPER_SPACE
  0
BLOCK_RECORD
  5
4B
330
1
100
AcDbSymbolTableRecord
100
AcDbBlockTableRecord
  2
EX_NORM
  0
BLOCK_RECORD
  5
4E
330
1
100
AcDbSymbolTableRecord
100
AcDbBlockTableRecord
  2
EX_BNORM
  0
BLOCK_RECORD
  5
51
330
1
100
AcDbSymbolTableRecord
100
AcDbBlockTableRecord
  2
EX_BCIR
  0
BLOCK_RECORD
  5
54
330
1
100
AcDbSymbolTableRecord
100
AcDbBlockTableRecord
  2
EX_RCIVIL
  0
BLOCK_RECORD
  5
57
330
1
100
AcDbSymbolTableRecord
100
AcDbBlockTableRecord
  2
EX_SLANT
  0
BLOCK_RECORD
  5
5A
330
1
100
AcDbSymbolTableRecord
100
AcDbBlockTableRecord
  2
EX_NONE
  0
BLOCK_RECORD
  5
5D
330
1
100
AcDbSymbolTableRecord
100
AcDbBlockTableRecord
  2
EX_CIVIL
  0
BLOCK_RECORD
  5
60
330
1
100
AcDbSymbolTableRecord
100
AcDbBlockTableRecord
  2
EX_WCIR
  0
BLOCK_RECORD
  5
63
330
1
100
AcDbSymbolTableRecord
100
AcDbBlockTableRecord
  2
EX_WCIR2
  0
BLOCK_RECORD
  5
66
330
1
100
AcDbSymbolTableRecord
100
AcDbBlockTableRecord
  2
EX_WNORM
  0
BLOCK_RECORD
  5
69
330
1
100
AcDbSymbolTableRecord
100
AcDbBlockTableRecord
  2
EX_NNORM
  0
BLOCK_RECORD
  5
6C
330
1
100
AcDbSymbolTableRecord
100
AcDbBlockTableRecord
  2
EX_BBOX
  0
BLOCK_RECORD
  5
6F
330
1
100
AcDbSymbolTableRecord
100
AcDbBlockTableRecord
  2
EX_WBOX
  0
BLOCK_RECORD
  5
72
330
1
100
AcDbSymbolTableRecord
100
AcDbBlockTableRecord
  2
EX_INTEGRAL
  0
BLOCK_RECORD
  5
332
330
1
100
AcDbSymbolTableRecord
100
AcDbBlockTableRecord
  2
*D15
  0
BLOCK_RECORD
  5
33F
330
1
100
AcDbSymbolTableRecord
100
AcDbBlockTableRecord
  2
*D16
  0
BLOCK_RECORD
  5
34C
330
1
100
AcDbSymbolTableRecord
100
AcDbBlockTableRecord
  2
*D17
  0
BLOCK_RECORD
  5
358
330
1
100
AcDbSymbolTableRecord
100
AcDbBlockTableRecord
  2
*D18
  0
BLOCK_RECORD
  5
364
330
1
100
AcDbSymbolTableRecord
100
AcDbBlockTableRecord
  2
*D19
  0
BLOCK_RECORD
  5
372
330
1
100
AcDbSymbolTableRecord
100
AcDbBlockTableRecord
  2
*D20
  0
BLOCK_RECORD
  5
37E
330
1
100
AcDbSymbolTableRecord
100
AcDbBlockTableRecord
  2
*D21
  0
BLOCK_RECORD
  5
389
330
1
100
AcDbSymbolTableRecord
100
AcDbBlockTableRecord
  2
*D22
  0
BLOCK_RECORD
  5
396
330
1
100
AcDbSymbolTableRecord
100
AcDbBlockTableRecord
  2
*D23
  0
BLOCK_RECORD
  5
3A3
330
1
100
AcDbSymbolTableRecord
100
AcDbBlockTableRecord
  2
*D24
  0
BLOCK_RECORD
  5
3B0
330
1
100
AcDbSymbolTableRecord
100
AcDbBlockTableRecord
  2
*D25
  0
BLOCK_RECORD
  5
3BD
330
1
100
AcDbSymbolTableRecord
100
AcDbBlockTableRecord
  2
*D26
  0
BLOCK_RECORD
  5
3C9
330
1
100
AcDbSymbolTableRecord
100
AcDbBlockTableRecord
  2
*D27
  0
BLOCK_RECORD
  5
3D6
330
1
100
AcDbSymbolTableRecord
100
AcDbBlockTableRecord
  2
*D28
  0
BLOCK_RECORD
  5
3E6
330
1
100
AcDbSymbolTableRecord
100
AcDbBlockTableRecord
  2
*D29
  0
BLOCK_RECORD
  5
3F1
330
1
100
AcDbSymbolTableRecord
100
AcDbBlockTableRecord
  2
*D30
  0
BLOCK_RECORD
  5
3FD
330
1
100
AcDbSymbolTableRecord
100
AcDbBlockTableRecord
  2
*D31
  0
BLOCK_RECORD
  5
408
330
1
100
AcDbSymbolTableRecord
100
AcDbBlockTableRecord
  2
*D32
  0
ENDTAB
  0
ENDSEC
  0
SECTION
  2
BLOCKS
  0
BLOCK
  5
20
330
1F
100
AcDbEntity
  8
0
100
AcDbBlockBegin
  2
*MODEL_SPACE
 70
     0
 10
0.0
 20
0.0
 30
0.0
  3
*MODEL_SPACE
  1

  0
ENDBLK
  5
21
330
1F
100
AcDbEntity
  8
0
100
AcDbBlockEnd
  0
BLOCK
  5
1C
330
1B
100
AcDbEntity
 67
     1
  8
0
100
AcDbBlockBegin
  2
*PAPER_SPACE
 70
     0
 10
0.0
 20
0.0
 30
0.0
  3
*PAPER_SPACE
  1

  0
ENDBLK
  5
1D
330
1B
100
AcDbEntity
 67
     1
  8
0
100
AcDbBlockEnd
  0
BLOCK
  5
4C
330
4B
100
AcDbEntity
  8
0
100
AcDbBlockBegin
  2
EX_NORM
 70
     0
 10
0.0
 20
0.0
 30
0.0
  3
EX_NORM
  1

  0
LINE
  5
75
330
4B
100
AcDbEntity
  8
0
  6
CONTINUOUS
 62
     0
100
AcDbLine
 10
0.0
 20
0.0
 30
0.0
 11
-1.0
 21
0.0
 31
0.0
  0
LINE
  5
76
330
4B
100
AcDbEntity
  8
0
  6
CONTINUOUS
 62
     0
100
AcDbLine
 10
0.0
 20
0.0
 30
0.0
 11
-1.0
 21
0.166666667
 31
0.0
  0
LINE
  5
77
330
4B
100
AcDbEntity
  8
0
  6
CONTINUOUS
 62
     0
100
AcDbLine
 10
0.0
 20
0.0
 30
0.0
 11
-1.0
 21
-0.166666667
 31
0.0
  0
ENDBLK
  5
4D
330
4B
100
AcDbEntity
  8
0
100
AcDbBlockEnd
  0
BLOCK
  5
4F
330
4E
100
AcDbEntity
  8
0
100
AcDbBlockBegin
  2
EX_BNORM
 70
     0
 10
0.0
 20
0.0
 30
0.0
  3
EX_BNORM
  1

  0
LINE
  5
78
330
4E
100
AcDbEntity
  8
0
  6
CONTINUOUS
 62
     0
100
AcDbLine
 10
0.0
 20
0.0
 30
0.0
 11
-1.0
 21
0.0
 31
0.0
  0
LINE
  5
79
330
4E
100
AcDbEntity
  8
0
  6
CONTINUOUS
 62
     0
100
AcDbLine
 10
0.0
 20
0.0
 30
0.0
 11
-1.0
 21
0.166666667
 31
0.0
  0
LINE
  5
7A
330
4E
100
AcDbEntity
  8
0
  6
CONTINUOUS
 62
     0
100
AcDbLine
 10
0.0
 20
0.0
 30
0.0
 11
-1.0
 21
-0.166666667
 31
0.0
  0
LINE
  5
7B
330
4E
100
AcDbEntity
  8
0
  6
CONTINUOUS
 62
     0
100
AcDbLine
 10
0.0
 20
0.0
 30
0.0
 11
-1.0
 21
0.083333333
 31
0.0
  0
LINE
  5
7C
330
4E
100
AcDbEntity
  8
0
  6
CONTINUOUS
 62
     0
100
AcDbLine
 10
0.0
 20
0.0
 30
0.0
 11
-1.0
 21
-0.083333333
 31
0.0
  0
LINE
  5
7D
330
4E
100
AcDbEntity
  8
0
  6
CONTINUOUS
 62
     0
100
AcDbLine
 10
-1.0
 20
0.166666667
 30
0.0
 11
-1.0
 21
-0.166666667
 31
0.0
  0
ENDBLK
  5
50
330
4E
100
AcDbEntity
  8
0
100
AcDbBlockEnd
  0
BLOCK
  5
52
330
51
100
AcDbEntity
  8
0
100
AcDbBlockBegin
  2
EX_BCIR
 70
     0
 10
0.0
 20
0.0
 30
0.0
  3
EX_BCIR
  1

  0
LINE
  5
7E
330
51
100
AcDbEntity
  8
0
  6
CONTINUOUS
 62
     0
100
AcDbLine
 10
0.0
 20
0.0
 30
0.0
 11
-1.0
 21
0.0
 31
0.0
  0
CIRCLE
  5
7F
330
51
100
AcDbEntity
  8
0
  6
CONTINUOUS
 62
     0
100
AcDbCircle
 10
0.0
 20
0.0
 30
0.0
 40
0.5
  0
CIRCLE
  5
80
330
51
100
AcDbEntity
  8
0
  6
CONTINUOUS
 62
     0
100
AcDbCircle
 10
0.0
 20
0.0
 30
0.0
 40
0.25
  0
ENDBLK
  5
53
330
51
100
AcDbEntity
  8
0
100
AcDbBlockEnd
  0
BLOCK
  5
55
330
54
100
AcDbEntity
  8
0
100
AcDbBlockBegin
  2
EX_RCIVIL
 70
     0
 10
0.0
 20
0.0
 30
0.0
  3
EX_RCIVIL
  1

  0
LINE
  5
81
330
54
100
AcDbEntity
  8
0
  6
CONTINUOUS
 62
     0
100
AcDbLine
 10
0.0
 20
0.0
 30
0.0
 11
-1.0
 21
0.0
 31
0.0
  0
LINE
  5
82
330
54
100
AcDbEntity
  8
0
  6
CONTINUOUS
 62
     0
100
AcDbLine
 10
-1.0
 20
-0.25
 30
0.0
 11
0.0
 21
-0.25
 31
0.0
  0
LINE
  5
83
330
54
100
AcDbEntity
  8
0
  6
CONTINUOUS
 62
     0
100
AcDbLine
 10
-1.0
 20
-0.125
 30
0.0
 11
0.0
 21
-0.125
 31
0.0
  0
ENDBLK
  5
56
330
54
100
AcDbEntity
  8
0
100
AcDbBlockEnd
  0
BLOCK
  5
58
330
57
100
AcDbEntity
  8
0
100
AcDbBlockBegin
  2
EX_SLANT
 70
     0
 10
0.0
 20
0.0
 30
0.0
  3
EX_SLANT
  1

  0
LINE
  5
84
330
57
100
AcDbEntity
  8
0
  6
CONTINUOUS
 62
     0
100
AcDbLine
 10
0.0
 20
0.0
 30
0.0
 11
-1.0
 21
0.0
 31
0.0
  0
LINE
  5
85
330
57
100
AcDbEntity
  8
0
  6
CONTINUOUS
 62
     0
100
AcDbLine
 10
0.707106781
 20
0.707106781
 30
0.0
 11
-0.707106781
 21
-0.707106781
 31
0.0
  0
ENDBLK
  5
59
330
57
100
AcDbEntity
  8
0
100
AcDbBlockEnd
  0
BLOCK
  5
5B
330
5A
100
AcDbEntity
  8
0
100
AcDbBlockBegin
  2
EX_NONE
 70
     0
 10
0.0
 20
0.0
 30
0.0
  3
EX_NONE
  1

  0
LINE
  5
86
330
5A
100
AcDbEntity
  8
0
  6
CONTINUOUS
 62
     0
100
AcDbLine
 10
0.0
 20
0.0
 30
0.0
 11
-1.0
 21
0.0
 31
0.0
  0
ENDBLK
  5
5C
330
5A
100
AcDbEntity
  8
0
100
AcDbBlockEnd
  0
BLOCK
  5
5E
330
5D
100
AcDbEntity
  8
0
100
AcDbBlockBegin
  2
EX_CIVIL
 70
     0
 10
0.0
 20
0.0
 30
0.0
  3
EX_CIVIL
  1

  0
LINE
  5
87
330
5D
100
AcDbEntity
  8
0
  6
CONTINUOUS
 62
     0
100
AcDbLine
 10
0.0
 20
0.0
 30
0.0
 11
-1.0
 21
0.0
 31
0.0
  0
LINE
  5
88
330
5D
100
AcDbEntity
  8
0
  6
CONTINUOUS
 62
     0
100
AcDbLine
 10
-1.0
 20
0.25
 30
0.0
 11
0.0
 21
0.25
 31
0.0
  0
LINE
  5
89
330
5D
100
AcDbEntity
  8
0
  6
CONTINUOUS
 62
     0
100
AcDbLine
 10
-1.0
 20
0.125
 30
0.0
 11
0.0
 21
0.125
 31
0.0
  0
ENDBLK
  5
5F
330
5D
100
AcDbEntity
  8
0
100
AcDbBlockEnd
  0
BLOCK
  5
61
330
60
100
AcDbEntity
  8
0
100
AcDbBlockBegin
  2
EX_WCIR
 70
     0
 10
0.0
 20
0.0
 30
0.0
  3
EX_WCIR
  1

  0
LINE
  5
8A
330
60
100
AcDbEntity
  8
0
  6
CONTINUOUS
 62
     0
100
AcDbLine
 10
0.0
 20
0.0
 30
0.0
 11
-1.0
 21
0.0
 31
0.0
  0
CIRCLE
  5
8B
330
60
100
AcDbEntity
  8
0
  6
CONTINUOUS
 62
     0
100
AcDbCircle
 10
0.0
 20
0.0
 30
0.0
 40
0.5
  0
ENDBLK
  5
62
330
60
100
AcDbEntity
  8
0
100
AcDbBlockEnd
  0
BLOCK
  5
64
330
63
100
AcDbEntity
  8
0
100
AcDbBlockBegin
  2
EX_WCIR2
 70
     0
 10
0.0
 20
0.0
 30
0.0
  3
EX_WCIR2
  1

  0
LINE
  5
8C
330
63
100
AcDbEntity
  8
0
  6
CONTINUOUS
 62
     0
100
AcDbLine
 10
-0.5
 20
0.0
 30
0.0
 11
-1.0
 21
0.0
 31
0.0
  0
CIRCLE
  5
8D
330
63
100
AcDbEntity
  8
0
  6
CONTINUOUS
 62
     0
100
AcDbCircle
 10
0.0
 20
0.0
 30
0.0
 40
0.5
  0
ENDBLK
  5
65
330
63
100
AcDbEntity
  8
0
100
AcDbBlockEnd
  0
BLOCK
  5
67
330
66
100
AcDbEntity
  8
0
100
AcDbBlockBegin
  2
EX_WNORM
 70
     0
 10
0.0
 20
0.0
 30
0.0
  3
EX_WNORM
  1

  0
LINE
  5
8E
330
66
100
AcDbEntity
  8
0
  6
CONTINUOUS
 62
     0
100
AcDbLine
 10
-1.0
 20
0.0
 30
0.0
 11
-1.0
 21
0.0
 31
0.0
  0
LINE
  5
8F
330
66
100
AcDbEntity
  8
0
  6
CONTINUOUS
 62
     0
100
AcDbLine
 10
0.0
 20
0.0
 30
0.0
 11
-1.0
 21
0.166666667
 31
0.0
  0
LINE
  5
90
330
66
100
AcDbEntity
  8
0
  6
CONTINUOUS
 62
     0
100
AcDbLine
 10
0.0
 20
0.0
 30
0.0
 11
-1.0
 21
-0.166666667
 31
0.0
  0
LINE
  5
91
330
66
100
AcDbEntity
  8
0
  6
CONTINUOUS
 62
     0
100
AcDbLine
 10
-1.0
 20
0.166666667
 30
0.0
 11
-1.0
 21
-0.166666667
 31
0.0
  0
ENDBLK
  5
68
330
66
100
AcDbEntity
  8
0
100
AcDbBlockEnd
  0
BLOCK
  5
6A
330
69
100
AcDbEntity
  8
0
100
AcDbBlockBegin
  2
EX_NNORM
 70
     0
 10
0.0
 20
0.0
 30
0.0
  3
EX_NNORM
  1

  0
LINE
  5
92
330
69
100
AcDbEntity
  8
0
  6
CONTINUOUS
 62
     0
100
AcDbLine
 10
0.0
 20
0.0
 30
0.0
 11
-1.0
 21
0.0
 31
0.0
  0
LINE
  5
93
330
69
100
AcDbEntity
  8
0
  6
CONTINUOUS
 62
     0
100
AcDbLine
 10
0.0
 20
0.0
 30
0.0
 11
-1.0
 21
0.166666667
 31
0.0
  0
LINE
  5
94
330
69
100
AcDbEntity
  8
0
  6
CONTINUOUS
 62
     0
100
AcDbLine
 10
0.0
 20
0.0
 30
0.0
 11
-1.0
 21
-0.166666667
 31
0.0
  0
LINE
  5
95
330
69
100
AcDbEntity
  8
0
  6
CONTINUOUS
 62
     0
100
AcDbLine
 10
-1.0
 20
0.166666667
 30
0.0
 11
-1.0
 21
-0.166666667
 31
0.0
  0
ENDBLK
  5
6B
330
69
100
AcDbEntity
  8
0
100
AcDbBlockEnd
  0
BLOCK
  5
6D
330
6C
100
AcDbEntity
  8
0
100
AcDbBlockBegin
  2
EX_BBOX
 70
     0
 10
0.0
 20
0.0
 30
0.0
  3
EX_BBOX
  1

  0
LINE
  5
96
330
6C
100
AcDbEntity
  8
0
  6
CONTINUOUS
 62
     0
100
AcDbLine
 10
0.0
 20
0.0
 30
0.0
 11
-1.0
 21
0.0
 31
0.0
  0
LINE
  5
97
330
6C
100
AcDbEntity
  8
0
  6
CONTINUOUS
 62
     0
100
AcDbLine
 10
-0.5
 20
0.5
 30
0.0
 11
0.5
 21
0.5
 31
0.0
  0
LINE
  5
98
330
6C
100
AcDbEntity
  8
0
  6
CONTINUOUS
 62
     0
100
AcDbLine
 10
0.5
 20
0.5
 30
0.0
 11
0.5
 21
-0.5
 31
0.0
  0
LINE
  5
99
330
6C
100
AcDbEntity
  8
0
  6
CONTINUOUS
 62
     0
100
AcDbLine
 10
0.5
 20
-0.5
 30
0.0
 11
-0.5
 21
-0.5
 31
0.0
  0
LINE
  5
9A
330
6C
100
AcDbEntity
  8
0
  6
CONTINUOUS
 62
     0
100
AcDbLine
 10
-0.5
 20
-0.5
 30
0.0
 11
-0.5
 21
0.5
 31
0.0
  0
LINE
  5
9B
330
6C
100
AcDbEntity
  8
0
  6
CONTINUOUS
 62
     0
100
AcDbLine
 10
-0.25
 20
0.25
 30
0.0
 11
0.25
 21
0.25
 31
0.0
  0
LINE
  5
9C
330
6C
100
AcDbEntity
  8
0
  6
CONTINUOUS
 62
     0
100
AcDbLine
 10
0.25
 20
0.25
 30
0.0
 11
0.25
 21
-0.25
 31
0.0
  0
LINE
  5
9D
330
6C
100
AcDbEntity
  8
0
  6
CONTINUOUS
 62
     0
100
AcDbLine
 10
0.25
 20
-0.25
 30
0.0
 11
-0.25
 21
-0.25
 31
0.0
  0
LINE
  5
9E
330
6C
100
AcDbEntity
  8
0
  6
CONTINUOUS
 62
     0
100
AcDbLine
 10
-0.25
 20
-0.25
 30
0.0
 11
-0.25
 21
0.25
 31
0.0
  0
ENDBLK
  5
6E
330
6C
100
AcDbEntity
  8
0
100
AcDbBlockEnd
  0
BLOCK
  5
70
330
6F
100
AcDbEntity
  8
0
100
AcDbBlockBegin
  2
EX_WBOX
 70
     0
 10
0.0
 20
0.0
 30
0.0
  3
EX_WBOX
  1

  0
LINE
  5
9F
330
6F
100
AcDbEntity
  8
0
  6
CONTINUOUS
 62
     0
100
AcDbLine
 10
-0.5
 20
0.0
 30
0.0
 11
-1.0
 21
0.0
 31
0.0
  0
LINE
  5
A0
330
6F
100
AcDbEntity
  8
0
  6
CONTINUOUS
 62
     0
100
AcDbLine
 10
-0.5
 20
0.5
 30
0.0
 11
0.5
 21
0.5
 31
0.0
  0
LINE
  5
A1
330
6F
100
AcDbEntity
  8
0
  6
CONTINUOUS
 62
     0
100
AcDbLine
 10
0.5
 20
0.5
 30
0.0
 11
0.5
 21
-0.5
 31
0.0
  0
LINE
  5
A2
330
6F
100
AcDbEntity
  8
0
  6
CONTINUOUS
 62
     0
100
AcDbLine
 10
0.5
 20
-0.5
 30
0.0
 11
-0.5
 21
-0.5
 31
0.0
  0
LINE
  5
A3
330
6F
100
AcDbEntity
  8
0
  6
CONTINUOUS
 62
     0
100
AcDbLine
 10
-0.5
 20
-0.5
 30
0.0
 11
-0.5
 21
0.5
 31
0.0
  0
ENDBLK
  5
71
330
6F
100
AcDbEntity
  8
0
100
AcDbBlockEnd
  0
BLOCK
  5
73
330
72
100
AcDbEntity
  8
0
100
AcDbBlockBegin
  2
EX_INTEGRAL
 70
     0
 10
0.0
 20
0.0
 30
0.0
  3
EX_INTEGRAL
  1

  0
LINE
  5
A4
330
72
100
AcDbEntity
  8
0
  6
CONTINUOUS
 62
     0
100
AcDbLine
 10
0.0
 20
0.0
 30
0.0
 11
-1.0
 21
0.0
 31
0.0
  0
ARC
  5
A5
330
72
100
AcDbEntity
  8
0
  6
CONTINUOUS
 62
     0
100
AcDbCircle
 10
0.542115
 20
0.164992
 30
0.0
 40
0.56667
100
AcDbArc
 50
73.07249033629006
 51
196.9275130221199
  0
ARC
  5
A6
330
72
100
AcDbEntity
  8
0
  6
CONTINUOUS
 62
     0
100
AcDbCircle
 10
-0.542115
 20
-0.164992
 30
0.0
 40
0.56667
100
AcDbArc
 50
253.0724869220464
 51
16.9275130559125
  0
ENDBLK
  5
74
330
72
100
AcDbEntity
  8
0
100
AcDbBlockEnd
  0
BLOCK
  5
333
330
332
100
AcDbEntity
  8
0
100
AcDbBlockBegin
  2
*D15
 70
     1
 10
0.0
 20
0.0
 30
0.0
  3
*D15
  1

  0
LINE
  5
335
330
332
100
AcDbEntity
  8
寸法
  6
CONTINUOUS
 62
     3
100
AcDbLine
 10
919.9999980926518
 20
2179.0
 30
0.0
 11
1083.0
 21
2179.0
 31
0.0
  0
LINE
  5
336
330
332
100
AcDbEntity
  8
寸法
  6
CONTINUOUS
 62
     3
100
AcDbLine
 10
919.9999980926518
 20
2439.0
 30
0.0
 11
1083.0
 21
2439.0
 31
0.0
  0
LINE
  5
337
330
332
100
AcDbEntity
  8
寸法
  6
CONTINUOUS
 62
     3
100
AcDbLine
 10
1063.0
 20
2214.0
 30
0.0
 11
1063.0
 21
2404.0
 31
0.0
  0
INSERT
  5
338
330
332
100
AcDbEntity
  8
寸法
 62
     3
100
AcDbBlockReference
  2
EX_NORM
 10
1063.0
 20
2179.0
 30
0.0
 41
35.0
 42
35.0
 43
35.0
 50
270.0
  0
INSERT
  5
339
330
332
100
AcDbEntity
  8
寸法
 62
     3
100
AcDbBlockReference
  2
EX_NORM
 10
1063.0
 20
2439.0
 30
0.0
 41
35.0
 42
35.0
 43
35.0
 50
90.0
  0
MTEXT
  5
33A
330
332
100
AcDbEntity
  8
寸法
 62
     2
100
AcDbMText
 10
1039.500000059605
 20
2309.0
 30
0.0
 40
40.0
 41
0.0
 71
     5
 72
     1
  1
260
  7
EXCADDIM1
 11
0.0
 21
1.0
 31
0.0
  0
POINT
  5
33B
330
332
100
AcDbEntity
  8
DEFPOINTS
 62
     0
100
AcDbPoint
 10
823.0000000000005
 20
2179.0
 30
0.0
  0
POINT
  5
33C
330
332
100
AcDbEntity
  8
DEFPOINTS
 62
     0
100
AcDbPoint
 10
823.0000000000005
 20
2439.0
 30
0.0
  0
POINT
  5
33D
330
332
100
AcDbEntity
  8
DEFPOINTS
 62
     0
100
AcDbPoint
 10
1063.0
 20
2439.0
 30
0.0
  0
ENDBLK
  5
334
330
332
100
AcDbEntity
  8
0
100
AcDbBlockEnd
  0
BLOCK
  5
340
330
33F
100
AcDbEntity
  8
0
100
AcDbBlockBegin
  2
*D16
 70
     1
 10
0.0
 20
0.0
 30
0.0
  3
*D16
  1

  0
LINE
  5
342
330
33F
100
AcDbEntity
  8
寸法
  6
CONTINUOUS
 62
     3
100
AcDbLine
 10
443.0000000000004
 20
2302.000000119209
 30
0.0
 11
443.0000000000004
 21
2039.530863128399
 31
0.0
  0
LINE
  5
343
330
33F
100
AcDbEntity
  8
寸法
  6
CONTINUOUS
 62
     3
100
AcDbLine
 10
823.0000000000005
 20
2160.000000119209
 30
0.0
 11
823.0000000000005
 21
2039.530863128399
 31
0.0
  0
LINE
  5
344
330
33F
100
AcDbEntity
  8
寸法
  6
CONTINUOUS
 62
     3
100
AcDbLine
 10
478.0000000000004
 20
2119.530863128399
 30
0.0
 11
788.0000000000005
 21
2119.530863128399
 31
0.0
  0
INSERT
  5
345
330
33F
100
AcDbEntity
  8
寸法
 62
     3
100
AcDbBlockReference
  2
EX_NORM
 10
443.0000000000004
 20
2119.530863128399
 30
0.0
 41
35.0
 42
35.0
 43
35.0
 50
180.0
  0
INSERT
  5
346
330
33F
100
AcDbEntity
  8
寸法
 62
     3
100
AcDbBlockReference
  2
EX_NORM
 10
823.0000000000005
 20
2119.530863128399
 30
0.0
 41
35.0
 42
35.0
 43
35.0
  0
MTEXT
  5
347
330
33F
100
AcDbEntity
  8
寸法
 62
     2
100
AcDbMText
 10
633.0000000000007
 20
2143.030863068795
 30
0.0
 40
40.0
 41
0.0
 71
     5
 72
     1
  1
380
  7
EXCADDIM1
  0
POINT
  5
348
330
33F
100
AcDbEntity
  8
DEFPOINTS
 62
     0
100
AcDbPoint
 10
443.0000000000004
 20
2309.0
 30
0.0
  0
POINT
  5
349
330
33F
100
AcDbEntity
  8
DEFPOINTS
 62
     0
100
AcDbPoint
 10
823.0000000000005
 20
2167.0
 30
0.0
  0
POINT
  5
34A
330
33F
100
AcDbEntity
  8
DEFPOINTS
 62
     0
100
AcDbPoint
 10
823.0000000000005
 20
2119.530863128399
 30
0.0
  0
ENDBLK
  5
341
330
33F
100
AcDbEntity
  8
0
100
AcDbBlockEnd
  0
BLOCK
  5
34D
330
34C
100
AcDbEntity
  8
0
100
AcDbBlockBegin
  2
*D17
 70
     1
 10
0.0
 20
0.0
 30
0.0
  3
*D17
  1

  0
LINE
  5
34F
330
34C
100
AcDbEntity
  8
寸法
  6
CONTINUOUS
 62
     3
100
AcDbLine
 10
983.0000000000005
 20
2302.000000119209
 30
0.0
 11
983.0000000000005
 21
2039.530863128399
 31
0.0
  0
LINE
  5
350
330
34C
100
AcDbEntity
  8
寸法
  6
CONTINUOUS
 62
     3
100
AcDbLine
 10
478.0000000000005
 20
2059.530863128399
 30
0.0
 11
948.0000000000005
 21
2059.530863128399
 31
0.0
  0
INSERT
  5
351
330
34C
100
AcDbEntity
  8
寸法
 62
     3
100
AcDbBlockReference
  2
EX_NORM
 10
443.0000000000005
 20
2059.530863128399
 30
0.0
 41
35.0
 42
35.0
 43
35.0
 50
180.0
  0
INSERT
  5
352
330
34C
100
AcDbEntity
  8
寸法
 62
     3
100
AcDbBlockReference
  2
EX_NORM
 10
983.0000000000005
 20
2059.530863128399
 30
0.0
 41
35.0
 42
35.0
 43
35.0
  0
MTEXT
  5
353
330
34C
100
AcDbEntity
  8
寸法
 62
     2
100
AcDbMText
 10
713.0000000000005
 20
2083.030863068795
 30
0.0
 40
40.0
 41
0.0
 71
     5
 72
     1
  1
540
  7
EXCADDIM1
  0
POINT
  5
354
330
34C
100
AcDbEntity
  8
DEFPOINTS
 62
     0
100
AcDbPoint
 10
443.0000000000004
 20
2099.530863128399
 30
0.0
  0
POINT
  5
355
330
34C
100
AcDbEntity
  8
DEFPOINTS
 62
     0
100
AcDbPoint
 10
983.0000000000005
 20
2309.0
 30
0.0
  0
POINT
  5
356
330
34C
100
AcDbEntity
  8
DEFPOINTS
 62
     0
100
AcDbPoint
 10
983.0000000000005
 20
2059.530863128399
 30
0.0
  0
ENDBLK
  5
34E
330
34C
100
AcDbEntity
  8
0
100
AcDbBlockEnd
  0
BLOCK
  5
359
330
358
100
AcDbEntity
  8
0
100
AcDbBlockBegin
  2
*D18
 70
     1
 10
0.0
 20
0.0
 30
0.0
  3
*D18
  1

  0
LINE
  5
35B
330
358
100
AcDbEntity
  8
寸法
  6
CONTINUOUS
 62
     3
100
AcDbLine
 10
954.9999998807912
 20
1458.0
 30
0.0
 11
1163.0
 21
1458.0
 31
0.0
  0
LINE
  5
35C
330
358
100
AcDbEntity
  8
寸法
  6
CONTINUOUS
 62
     3
100
AcDbLine
 10
1063.0
 20
1493.0
 30
0.0
 11
1063.0
 21
1603.000000000001
 31
0.0
  0
INSERT
  5
35D
330
358
100
AcDbEntity
  8
寸法
 62
     3
100
AcDbBlockReference
  2
EX_NORM
 10
1063.0
 20
1458.0
 30
0.0
 41
35.0
 42
35.0
 43
35.0
 50
270.0
  0
INSERT
  5
35E
330
358
100
AcDbEntity
  8
寸法
 62
     3
100
AcDbBlockReference
  2
EX_NORM
 10
1063.0
 20
1638.000000000001
 30
0.0
 41
35.0
 42
35.0
 43
35.0
 50
90.0
  0
MTEXT
  5
35F
330
358
100
AcDbEntity
  8
寸法
 62
     2
100
AcDbMText
 10
1039.500000059605
 20
1548.0
 30
0.0
 40
40.0
 41
0.0
 71
     5
 72
     1
  1
180
  7
EXCADDIM1
 11
0.0
 21
1.0
 31
0.0
  0
POINT
  5
360
330
358
100
AcDbEntity
  8
DEFPOINTS
 62
     0
100
AcDbPoint
 10
948.0000000000005
 20
1458.0
 30
0.0
  0
POINT
  5
361
330
358
100
AcDbEntity
  8
DEFPOINTS
 62
     0
100
AcDbPoint
 10
977.5000000000002
 20
1638.000000000001
 30
0.0
  0
POINT
  5
362
330
358
100
AcDbEntity
  8
DEFPOINTS
 62
     0
100
AcDbPoint
 10
1063.0
 20
1638.000000000001
 30
0.0
  0
ENDBLK
  5
35A
330
358
100
AcDbEntity
  8
0
100
AcDbBlockEnd
  0
BLOCK
  5
365
330
364
100
AcDbEntity
  8
0
100
AcDbBlockBegin
  2
*D19
 70
     1
 10
0.0
 20
0.0
 30
0.0
  3
*D19
  1

  0
LINE
  5
367
330
364
100
AcDbEntity
  8
寸法
  6
CONTINUOUS
 62
     3
100
AcDbLine
 10
979.9999998807912
 20
1654.0
 30
0.0
 11
1083.0
 21
1654.0
 31
0.0
  0
LINE
  5
368
330
364
100
AcDbEntity
  8
寸法
  6
CONTINUOUS
 62
     3
100
AcDbLine
 10
1063.0
 20
1638.000000000001
 30
0.0
 11
1063.0
 21
1654.0
 31
0.0
  0
LINE
  5
369
330
364
100
AcDbEntity
  8
寸法
  6
CONTINUOUS
 62
     3
100
AcDbLine
 10
1063.0
 20
1603.000000000001
 30
0.0
 11
1063.0
 21
1568.000000000001
 31
0.0
  0
LINE
  5
36A
330
364
100
AcDbEntity
  8
寸法
  6
CONTINUOUS
 62
     3
100
AcDbLine
 10
1063.0
 20
1689.0
 30
0.0
 11
1063.0
 21
1724.0
 31
0.0
  0
INSERT
  5
36B
330
364
100
AcDbEntity
  8
寸法
 62
     3
100
AcDbBlockReference
  2
EX_NONE
 10
1063.0
 20
1638.000000000001
 30
0.0
 41
35.0
 42
35.0
 43
35.0
 50
90.0
  0
INSERT
  5
36C
330
364
100
AcDbEntity
  8
寸法
 62
     3
100
AcDbBlockReference
  2
EX_NORM
 10
1063.0
 20
1654.0
 30
0.0
 41
35.0
 42
35.0
 43
35.0
 50
270.0
  0
MTEXT
  5
36D
330
364
100
AcDbEntity
  8
寸法
 62
     2
100
AcDbMText
 10
1039.500000000001
 20
1720.0
 30
0.0
 40
40.0
 41
0.0
 71
     5
 72
     1
  1
16
  7
EXCADDIM1
 11
-6.049014748177263E-16
 21
1.0
 31
0.0
  0
POINT
  5
36E
330
364
100
AcDbEntity
  8
DEFPOINTS
 62
     0
100
AcDbPoint
 10
977.5000000000002
 20
1638.000000000001
 30
0.0
  0
POINT
  5
36F
330
364
100
AcDbEntity
  8
DEFPOINTS
 62
     0
100
AcDbPoint
 10
973.0000000000005
 20
1654.0
 30
0.0
  0
POINT
  5
370
330
364
100
AcDbEntity
  8
DEFPOINTS
 62
     0
100
AcDbPoint
 10
1063.0
 20
1654.0
 30
0.0
  0
ENDBLK
  5
366
330
364
100
AcDbEntity
  8
0
100
AcDbBlockEnd
  0
BLOCK
  5
373
330
372
100
AcDbEntity
  8
0
100
AcDbBlockBegin
  2
*D20
 70
     1
 10
0.0
 20
0.0
 30
0.0
  3
*D20
  1

  0
LINE
  5
375
330
372
100
AcDbEntity
  8
寸法
  6
CONTINUOUS
 62
     3
100
AcDbLine
 10
551.499999570847
 20
1778.000000000001
 30
0.0
 11
1163.0
 21
1778.000000000001
 31
0.0
  0
LINE
  5
376
330
372
100
AcDbEntity
  8
寸法
  6
CONTINUOUS
 62
     3
100
AcDbLine
 10
1143.0
 20
1493.0
 30
0.0
 11
1143.0
 21
1743.000000000001
 31
0.0
  0
INSERT
  5
377
330
372
100
AcDbEntity
  8
寸法
 62
     3
100
AcDbBlockReference
  2
EX_NORM
 10
1143.0
 20
1458.0
 30
0.0
 41
35.0
 42
35.0
 43
35.0
 50
270.0
  0
INSERT
  5
378
330
372
100
AcDbEntity
  8
寸法
 62
     3
100
AcDbBlockReference
  2
EX_NORM
 10
1143.0
 20
1778.000000000001
 30
0.0
 41
35.0
 42
35.0
 43
35.0
 50
90.0
  0
MTEXT
  5
379
330
372
100
AcDbEntity
  8
寸法
 62
     2
100
AcDbMText
 10
1119.500000059605
 20
1618.0
 30
0.0
 40
40.0
 41
0.0
 71
     5
 72
     1
  1
320
  7
EXCADDIM1
 11
0.0
 21
1.0
 31
0.0
  0
POINT
  5
37A
330
372
100
AcDbEntity
  8
DEFPOINTS
 62
     0
100
AcDbPoint
 10
1083.0
 20
1458.0
 30
0.0
  0
POINT
  5
37B
330
372
100
AcDbEntity
  8
DEFPOINTS
 62
     0
100
AcDbPoint
 10
532.3000000000004
 20
1778.000000000001
 30
0.0
  0
POINT
  5
37C
330
372
100
AcDbEntity
  8
DEFPOINTS
 62
     0
100
AcDbPoint
 10
1143.0
 20
1778.000000000001
 30
0.0
  0
ENDBLK
  5
374
330
372
100
AcDbEntity
  8
0
100
AcDbBlockEnd
  0
BLOCK
  5
37F
330
37E
100
AcDbEntity
  8
0
100
AcDbBlockBegin
  2
*D21
 70
     1
 10
0.0
 20
0.0
 30
0.0
  3
*D21
  1

  0
LINE
  5
381
330
37E
100
AcDbEntity
  8
寸法
  6
CONTINUOUS
 62
     3
100
AcDbLine
 10
678.0000000000002
 20
1743.000000000001
 30
0.0
 11
678.0000000000002
 21
1689.0
 31
0.0
  0
INSERT
  5
382
330
37E
100
AcDbEntity
  8
寸法
 62
     3
100
AcDbBlockReference
  2
EX_NORM
 10
678.0000000000002
 20
1778.000000000001
 30
0.0
 41
35.0
 42
35.0
 43
35.0
 50
90.0
  0
INSERT
  5
383
330
37E
100
AcDbEntity
  8
寸法
 62
     3
100
AcDbBlockReference
  2
EX_NORM
 10
678.0000000000002
 20
1654.0
 30
0.0
 41
35.0
 42
35.0
 43
35.0
 50
270.0
  0
MTEXT
  5
384
330
37E
100
AcDbEntity
  8
寸法
 62
     2
100
AcDbMText
 10
654.500000059605
 20
1716.000000000001
 30
0.0
 40
40.0
 41
0.0
 71
     5
 72
     1
  1
124
  7
EXCADDIM1
 11
0.0
 21
1.0
 31
0.0
  0
POINT
  5
385
330
37E
100
AcDbEntity
  8
DEFPOINTS
 62
     0
100
AcDbPoint
 10
615.0000000000001
 20
1778.000000000001
 30
0.0
  0
POINT
  5
386
330
37E
100
AcDbEntity
  8
DEFPOINTS
 62
     0
100
AcDbPoint
 10
612.0000000000002
 20
1654.0
 30
0.0
  0
POINT
  5
387
330
37E
100
AcDbEntity
  8
DEFPOINTS
 62
     0
100
AcDbPoint
 10
678.0000000000002
 20
1654.0
 30
0.0
  0
ENDBLK
  5
380
330
37E
100
AcDbEntity
  8
0
100
AcDbBlockEnd
  0
BLOCK
  5
38A
330
389
100
AcDbEntity
  8
0
100
AcDbBlockBegin
  2
*D22
 70
     1
 10
0.0
 20
0.0
 30
0.0
  3
*D22
  1

  0
LINE
  5
38C
330
389
100
AcDbEntity
  8
寸法
  6
CONTINUOUS
 62
     3
100
AcDbLine
 10
948.0000000000005
 20
1451.00000011921
 30
0.0
 11
948.0000000000005
 21
1358.0
 31
0.0
  0
LINE
  5
38D
330
389
100
AcDbEntity
  8
寸法
  6
CONTINUOUS
 62
     3
100
AcDbLine
 10
698.0000000000001
 20
1451.00000011921
 30
0.0
 11
698.0000000000001
 21
1358.0
 31
0.0
  0
LINE
  5
38E
330
389
100
AcDbEntity
  8
寸法
  6
CONTINUOUS
 62
     3
100
AcDbLine
 10
913.0000000000005
 20
1378.0
 30
0.0
 11
733.0000000000001
 21
1378.0
 31
0.0
  0
INSERT
  5
38F
330
389
100
AcDbEntity
  8
寸法
 62
     3
100
AcDbBlockReference
  2
EX_NORM
 10
948.0000000000005
 20
1378.0
 30
0.0
 41
35.0
 42
35.0
 43
35.0
  0
INSERT
  5
390
330
389
100
AcDbEntity
  8
寸法
 62
     3
100
AcDbBlockReference
  2
EX_NORM
 10
698.0000000000001
 20
1378.0
 30
0.0
 41
35.0
 42
35.0
 43
35.0
 50
180.0
  0
MTEXT
  5
391
330
389
100
AcDbEntity
  8
寸法
 62
     2
100
AcDbMText
 10
823.0000000000005
 20
1401.499999940395
 30
0.0
 40
40.0
 41
0.0
 71
     5
 72
     1
  1
250
  7
EXCADDIM1
  0
POINT
  5
392
330
389
100
AcDbEntity
  8
DEFPOINTS
 62
     0
100
AcDbPoint
 10
948.0000000000005
 20
1458.0
 30
0.0
  0
POINT
  5
393
330
389
100
AcDbEntity
  8
DEFPOINTS
 62
     0
100
AcDbPoint
 10
698.0000000000001
 20
1458.0
 30
0.0
  0
POINT
  5
394
330
389
100
AcDbEntity
  8
DEFPOINTS
 62
     0
100
AcDbPoint
 10
698.0000000000001
 20
1378.0
 30
0.0
  0
ENDBLK
  5
38B
330
389
100
AcDbEntity
  8
0
100
AcDbBlockEnd
  0
BLOCK
  5
397
330
396
100
AcDbEntity
  8
0
100
AcDbBlockBegin
  2
*D23
 70
     1
 10
0.0
 20
0.0
 30
0.0
  3
*D23
  1

  0
LINE
  5
399
330
396
100
AcDbEntity
  8
寸法
  6
CONTINUOUS
 62
     3
100
AcDbLine
 10
1428.0
 20
1451.00000011921
 30
0.0
 11
1428.0
 21
1358.0
 31
0.0
  0
LINE
  5
39A
330
396
100
AcDbEntity
  8
寸法
  6
CONTINUOUS
 62
     3
100
AcDbLine
 10
1638.000000000001
 20
1451.00000011921
 30
0.0
 11
1638.000000000001
 21
1358.0
 31
0.0
  0
LINE
  5
39B
330
396
100
AcDbEntity
  8
寸法
  6
CONTINUOUS
 62
     3
100
AcDbLine
 10
1463.0
 20
1378.0
 30
0.0
 11
1603.000000000001
 21
1378.0
 31
0.0
  0
INSERT
  5
39C
330
396
100
AcDbEntity
  8
寸法
 62
     3
100
AcDbBlockReference
  2
EX_NORM
 10
1428.0
 20
1378.0
 30
0.0
 41
35.0
 42
35.0
 43
35.0
 50
180.0
  0
INSERT
  5
39D
330
396
100
AcDbEntity
  8
寸法
 62
     3
100
AcDbBlockReference
  2
EX_NORM
 10
1638.000000000001
 20
1378.0
 30
0.0
 41
35.0
 42
35.0
 43
35.0
  0
MTEXT
  5
39E
330
396
100
AcDbEntity
  8
寸法
 62
     2
100
AcDbMText
 10
1533.000000000001
 20
1401.499999940395
 30
0.0
 40
40.0
 41
0.0
 71
     5
 72
     1
  1
210
  7
EXCADDIM1
  0
POINT
  5
39F
330
396
100
AcDbEntity
  8
DEFPOINTS
 62
     0
100
AcDbPoint
 10
1428.0
 20
1458.0
 30
0.0
  0
POINT
  5
3A0
330
396
100
AcDbEntity
  8
DEFPOINTS
 62
     0
100
AcDbPoint
 10
1638.000000000001
 20
1458.0
 30
0.0
  0
POINT
  5
3A1
330
396
100
AcDbEntity
  8
DEFPOINTS
 62
     0
100
AcDbPoint
 10
1638.000000000001
 20
1378.0
 30
0.0
  0
ENDBLK
  5
398
330
396
100
AcDbEntity
  8
0
100
AcDbBlockEnd
  0
BLOCK
  5
3A4
330
3A3
100
AcDbEntity
  8
0
100
AcDbBlockBegin
  2
*D24
 70
     1
 10
0.0
 20
0.0
 30
0.0
  3
*D24
  1

  0
LINE
  5
3A6
330
3A3
100
AcDbEntity
  8
寸法
  6
CONTINUOUS
 62
     3
100
AcDbLine
 10
1428.0
 20
1015.000000119209
 30
0.0
 11
1428.0
 21
796.9999999999999
 31
0.0
  0
LINE
  5
3A7
330
3A3
100
AcDbEntity
  8
寸法
  6
CONTINUOUS
 62
     3
100
AcDbLine
 10
1638.000000000001
 20
1015.000000119209
 30
0.0
 11
1638.000000000001
 21
796.9999999999999
 31
0.0
  0
LINE
  5
3A8
330
3A3
100
AcDbEntity
  8
寸法
  6
CONTINUOUS
 62
     3
100
AcDbLine
 10
1463.0
 20
816.9999999999999
 30
0.0
 11
1603.000000000001
 21
816.9999999999999
 31
0.0
  0
INSERT
  5
3A9
330
3A3
100
AcDbEntity
  8
寸法
 62
     3
100
AcDbBlockReference
  2
EX_NORM
 10
1428.0
 20
816.9999999999999
 30
0.0
 41
35.0
 42
35.0
 43
35.0
 50
180.0
  0
INSERT
  5
3AA
330
3A3
100
AcDbEntity
  8
寸法
 62
     3
100
AcDbBlockReference
  2
EX_NORM
 10
1638.000000000001
 20
816.9999999999999
 30
0.0
 41
35.0
 42
35.0
 43
35.0
  0
MTEXT
  5
3AB
330
3A3
100
AcDbEntity
  8
寸法
 62
     2
100
AcDbMText
 10
1533.000000000001
 20
840.4999999403952
 30
0.0
 40
40.0
 41
0.0
 71
     5
 72
     1
  1
210
  7
EXCADDIM1
  0
POINT
  5
3AC
330
3A3
100
AcDbEntity
  8
DEFPOINTS
 62
     0
100
AcDbPoint
 10
1428.0
 20
1022.0
 30
0.0
  0
POINT
  5
3AD
330
3A3
100
AcDbEntity
  8
DEFPOINTS
 62
     0
100
AcDbPoint
 10
1638.000000000001
 20
1022.0
 30
0.0
  0
POINT
  5
3AE
330
3A3
100
AcDbEntity
  8
DEFPOINTS
 62
     0
100
AcDbPoint
 10
1638.000000000001
 20
816.9999999999999
 30
0.0
  0
ENDBLK
  5
3A5
330
3A3
100
AcDbEntity
  8
0
100
AcDbBlockEnd
  0
BLOCK
  5
3B1
330
3B0
100
AcDbEntity
  8
0
100
AcDbBlockBegin
  2
*D25
 70
     1
 10
0.0
 20
0.0
 30
0.0
  3
*D25
  1

  0
LINE
  5
3B3
330
3B0
100
AcDbEntity
  8
寸法
  6
CONTINUOUS
 62
     3
100
AcDbLine
 10
1539.99999988069
 20
1147.0
 30
0.0
 11
1738.0
 21
1147.0
 31
0.0
  0
LINE
  5
3B4
330
3B0
100
AcDbEntity
  8
寸法
  6
CONTINUOUS
 62
     3
100
AcDbLine
 10
1539.99999988079
 20
896.9999999999999
 30
0.0
 11
1738.0
 21
896.9999999999999
 31
0.0
  0
LINE
  5
3B5
330
3B0
100
AcDbEntity
  8
寸法
  6
CONTINUOUS
 62
     3
100
AcDbLine
 10
1718.0
 20
1112.0
 30
0.0
 11
1718.0
 21
931.9999999999999
 31
0.0
  0
INSERT
  5
3B6
330
3B0
100
AcDbEntity
  8
寸法
 62
     3
100
AcDbBlockReference
  2
EX_NORM
 10
1718.0
 20
1147.0
 30
0.0
 41
35.0
 42
35.0
 43
35.0
 50
90.0
  0
INSERT
  5
3B7
330
3B0
100
AcDbEntity
  8
寸法
 62
     3
100
AcDbBlockReference
  2
EX_NORM
 10
1718.0
 20
896.9999999999999
 30
0.0
 41
35.0
 42
35.0
 43
35.0
 50
270.0
  0
MTEXT
  5
3B8
330
3B0
100
AcDbEntity
  8
寸法
 62
     2
100
AcDbMText
 10
1694.5
 20
1022.0
 30
0.0
 40
40.0
 41
0.0
 71
     5
 72
     1
  1
250
  7
EXCADDIM1
 11
-6.049014748177263E-16
 21
1.0
 31
0.0
  0
POINT
  5
3B9
330
3B0
100
AcDbEntity
  8
DEFPOINTS
 62
     0
100
AcDbPoint
 10
1532.9999999999
 20
1147.0
 30
0.0
  0
POINT
  5
3BA
330
3B0
100
AcDbEntity
  8
DEFPOINTS
 62
     0
100
AcDbPoint
 10
1533.0
 20
896.9999999999999
 30
0.0
  0
POINT
  5
3BB
330
3B0
100
AcDbEntity
  8
DEFPOINTS
 62
     0
100
AcDbPoint
 10
1718.0
 20
896.9999999999999
 30
0.0
  0
ENDBLK
  5
3B2
330
3B0
100
AcDbEntity
  8
0
100
AcDbBlockEnd
  0
BLOCK
  5
3BE
330
3BD
100
AcDbEntity
  8
0
100
AcDbBlockBegin
  2
*D26
 70
     1
 10
0.0
 20
0.0
 30
0.0
  3
*D26
  1

  0
LINE
  5
3C0
330
3BD
100
AcDbEntity
  8
寸法
  6
CONTINUOUS
 62
     3
100
AcDbLine
 10
1662.0
 20
2177.000000119209
 30
0.0
 11
1662.0
 21
2099.5308631284
 31
0.0
  0
LINE
  5
3C1
330
3BD
100
AcDbEntity
  8
寸法
  6
CONTINUOUS
 62
     3
100
AcDbLine
 10
1332.0
 20
2119.5308631284
 30
0.0
 11
1627.0
 21
2119.5308631284
 31
0.0
  0
INSERT
  5
3C2
330
3BD
100
AcDbEntity
  8
寸法
 62
     3
100
AcDbBlockReference
  2
EX_NORM
 10
1297.0
 20
2119.5308631284
 30
0.0
 41
35.0
 42
35.0
 43
35.0
 50
180.0
  0
INSERT
  5
3C3
330
3BD
100
AcDbEntity
  8
寸法
 62
     3
100
AcDbBlockReference
  2
EX_NORM
 10
1662.0
 20
2119.5308631284
 30
0.0
 41
35.0
 42
35.0
 43
35.0
  0
MTEXT
  5
3C4
330
3BD
100
AcDbEntity
  8
寸法
 62
     2
100
AcDbMText
 10
1479.5
 20
2143.030863068795
 30
0.0
 40
40.0
 41
0.0
 71
     5
 72
     1
  1
365
  7
EXCADDIM1
  0
POINT
  5
3C5
330
3BD
100
AcDbEntity
  8
DEFPOINTS
 62
     0
100
AcDbPoint
 10
1297.0
 20
2309.0
 30
0.0
  0
POINT
  5
3C6
330
3BD
100
AcDbEntity
  8
DEFPOINTS
 62
     0
100
AcDbPoint
 10
1662.0
 20
2184.0
 30
0.0
  0
POINT
  5
3C7
330
3BD
100
AcDbEntity
  8
DEFPOINTS
 62
     0
100
AcDbPoint
 10
1662.0
 20
2119.5308631284
 30
0.0
  0
ENDBLK
  5
3BF
330
3BD
100
AcDbEntity
  8
0
100
AcDbBlockEnd
  0
BLOCK
  5
3CA
330
3C9
100
AcDbEntity
  8
0
100
AcDbBlockBegin
  2
*D27
 70
     1
 10
0.0
 20
0.0
 30
0.0
  3
*D27
  1

  0
LINE
  5
3CC
330
3C9
100
AcDbEntity
  8
寸法
  6
CONTINUOUS
 62
     3
100
AcDbLine
 10
1297.0
 20
2302.000000558591
 30
0.0
 11
1297.0
 21
2039.5308631284
 31
0.0
  0
LINE
  5
3CD
330
3C9
100
AcDbEntity
  8
寸法
  6
CONTINUOUS
 62
     3
100
AcDbLine
 10
1807.0
 20
2302.000000558591
 30
0.0
 11
1807.0
 21
2039.5308631284
 31
0.0
  0
LINE
  5
3CE
330
3C9
100
AcDbEntity
  8
寸法
  6
CONTINUOUS
 62
     3
100
AcDbLine
 10
1332.0
 20
2059.5308631284
 30
0.0
 11
1772.0
 21
2059.5308631284
 31
0.0
  0
INSERT
  5
3CF
330
3C9
100
AcDbEntity
  8
寸法
 62
     3
100
AcDbBlockReference
  2
EX_NORM
 10
1297.0
 20
2059.5308631284
 30
0.0
 41
35.0
 42
35.0
 43
35.0
 50
180.0
  0
INSERT
  5
3D0
330
3C9
100
AcDbEntity
  8
寸法
 62
     3
100
AcDbBlockReference
  2
EX_NORM
 10
1807.0
 20
2059.5308631284
 30
0.0
 41
35.0
 42
35.0
 43
35.0
  0
MTEXT
  5
3D1
330
3C9
100
AcDbEntity
  8
寸法
 62
     2
100
AcDbMText
 10
1552.0
 20
2083.030863068795
 30
0.0
 40
40.0
 41
0.0
 71
     5
 72
     1
  1
510
  7
EXCADDIM1
  0
POINT
  5
3D2
330
3C9
100
AcDbEntity
  8
DEFPOINTS
 62
     0
100
AcDbPoint
 10
1297.0
 20
2321.5308631284
 30
0.0
  0
POINT
  5
3D3
330
3C9
100
AcDbEntity
  8
DEFPOINTS
 62
     0
100
AcDbPoint
 10
1807.0
 20
2321.5308631284
 30
0.0
  0
POINT
  5
3D4
330
3C9
100
AcDbEntity
  8
DEFPOINTS
 62
     0
100
AcDbPoint
 10
1807.0
 20
2059.5308631284
 30
0.0
  0
ENDBLK
  5
3CB
330
3C9
100
AcDbEntity
  8
0
100
AcDbBlockEnd
  0
BLOCK
  5
3D7
330
3D6
100
AcDbEntity
  8
0
100
AcDbBlockBegin
  2
*D28
 70
     1
 10
0.0
 20
0.0
 30
0.0
  3
*D28
  1

  0
LINE
  5
3D9
330
3D6
100
AcDbEntity
  8
寸法
  6
CONTINUOUS
 62
     3
100
AcDbLine
 10
1746.274534487691
 20
2194.0
 30
0.0
 11
1907.0
 21
2194.0
 31
0.0
  0
LINE
  5
3DA
330
3D6
100
AcDbEntity
  8
寸法
  6
CONTINUOUS
 62
     3
100
AcDbLine
 10
1746.274534487691
 20
2424.0
 30
0.0
 11
1907.0
 21
2424.0
 31
0.0
  0
LINE
  5
3DB
330
3D6
100
AcDbEntity
  8
寸法
  6
CONTINUOUS
 62
     3
100
AcDbLine
 10
1887.0
 20
2229.0
 30
0.0
 11
1887.0
 21
2389.0
 31
0.0
  0
INSERT
  5
3DC
330
3D6
100
AcDbEntity
  8
寸法
 62
     3
100
AcDbBlockReference
  2
EX_NORM
 10
1887.0
 20
2194.0
 30
0.0
 41
35.0
 42
35.0
 43
35.0
 50
270.0
  0
INSERT
  5
3DD
330
3D6
100
AcDbEntity
  8
寸法
 62
     3
100
AcDbBlockReference
  2
EX_NORM
 10
1887.0
 20
2424.0
 30
0.0
 41
35.0
 42
35.0
 43
35.0
 50
90.0
  0
MTEXT
  5
3DE
330
3D6
100
AcDbEntity
  8
寸法
 62
     2
100
AcDbMText
 10
1863.500000059605
 20
2309.0
 30
0.0
 40
40.0
 41
0.0
 71
     5
 72
     1
  1
230
  7
EXCADDIM1
 11
0.0
 21
1.0
 31
0.0
  0
POINT
  5
3DF
330
3D6
100
AcDbEntity
  8
DEFPOINTS
 62
     0
100
AcDbPoint
 10
1739.2745346069
 20
2194.0
 30
0.0
  0
POINT
  5
3E0
330
3D6
100
AcDbEntity
  8
DEFPOINTS
 62
     0
100
AcDbPoint
 10
1739.2745346069
 20
2424.0
 30
0.0
  0
POINT
  5
3E1
330
3D6
100
AcDbEntity
  8
DEFPOINTS
 62
     0
100
AcDbPoint
 10
1887.0
 20
2424.0
 30
0.0
  0
ENDBLK
  5
3D8
330
3D6
100
AcDbEntity
  8
0
100
AcDbBlockEnd
  0
BLOCK
  5
3E7
330
3E6
100
AcDbEntity
  8
0
100
AcDbBlockBegin
  2
*D29
 70
     1
 10
0.0
 20
0.0
 30
0.0
  3
*D29
  1

  0
LINE
  5
3E9
330
3E6
100
AcDbEntity
  8
寸法
  6
CONTINUOUS
 62
     3
100
AcDbLine
 10
1613.443212413961
 20
1086.304492696549
 30
0.0
 11
1565.682587029154
 21
1071.508457320405
 31
0.0
  0
MTEXT
  5
3EA
330
3E6
100
AcDbEntity
  8
寸法
 62
     2
100
AcDbMText
 10
1598.072929447307
 20
1100.386819803136
 30
0.0
 40
30.0
 41
0.0
 71
     5
 72
     1
  1
R70
  7
EXCADDIM2
 11
0.9552125076961423
 21
0.2959207075228892
 31
0.0
  0
INSERT
  5
3EB
330
3E6
100
AcDbEntity
  8
寸法
 62
     3
100
AcDbBlockReference
  2
EX_NORM
 10
1632.547462567884
 20
1092.222906847007
 30
0.0
 41
20.0
 42
20.0
 43
20.0
 50
17.21275523077521
  0
POINT
  5
3EC
330
3E6
100
AcDbEntity
  8
DEFPOINTS
 62
     0
100
AcDbPoint
 10
1632.547462567884
 20
1092.222906847007
 30
0.0
  0
POINT
  5
3ED
330
3E6
100
AcDbEntity
  8
DEFPOINTS
 62
     0
100
AcDbPoint
 10
1565.682587029154
 20
1071.508457320405
 30
0.0
  0
ENDBLK
  5
3E8
330
3E6
100
AcDbEntity
  8
0
100
AcDbBlockEnd
  0
BLOCK
  5
3F2
330
3F1
100
AcDbEntity
  8
0
100
AcDbBlockBegin
  2
*D30
 70
     1
 10
0.0
 20
0.0
 30
0.0
  3
*D30
  1

  0
LINE
  5
3F4
330
3F1
100
AcDbEntity
  8
寸法
  6
CONTINUOUS
 62
     3
100
AcDbLine
 10
1606.241753823652
 20
930.3103956179674
 30
0.0
 11
1583.204220772011
 21
949.5268487478921
 31
0.0
  0
MTEXT
  5
3F5
330
3F1
100
AcDbEntity
  8
寸法
 62
     2
100
AcDbMText
 10
1610.766094053166
 20
949.9764869056121
 30
0.0
 40
30.0
 41
0.0
 71
     5
 72
     1
  1
R50
  7
EXCADDIM2
 11
0.7679177683880035
 21
-0.6405484376641543
 31
0.0
  0
INSERT
  5
3F6
330
3F1
100
AcDbEntity
  8
寸法
 62
     3
100
AcDbBlockReference
  2
EX_NORM
 10
1621.600109191412
 20
917.4994268646844
 30
0.0
 41
20.0
 42
20.0
 43
20.0
 50
320.1672727194972
  0
POINT
  5
3F7
330
3F1
100
AcDbEntity
  8
DEFPOINTS
 62
     0
100
AcDbPoint
 10
1621.600109191412
 20
917.4994268646844
 30
0.0
  0
POINT
  5
3F8
330
3F1
100
AcDbEntity
  8
DEFPOINTS
 62
     0
100
AcDbPoint
 10
1583.204220772011
 20
949.5268487478921
 30
0.0
  0
ENDBLK
  5
3F3
330
3F1
100
AcDbEntity
  8
0
100
AcDbBlockEnd
  0
BLOCK
  5
3FE
330
3FD
100
AcDbEntity
  8
0
100
AcDbBlockBegin
  2
*D31
 70
     1
 10
0.0
 20
0.0
 30
0.0
  3
*D31
  1

  0
LINE
  5
400
330
3FD
100
AcDbEntity
  8
寸法
  6
CONTINUOUS
 62
     3
100
AcDbLine
 10
1775.39637493377
 20
2385.836777962408
 30
0.0
 11
1739.274534606948
 21
2359.0
 31
0.0
  0
MTEXT
  5
401
330
3FD
100
AcDbEntity
  8
寸法
 62
     2
100
AcDbMText
 10
1754.627819142485
 20
2392.830853643713
 30
0.0
 40
30.0
 41
0.0
 71
     5
 72
     1
  1
R65
  7
EXCADDIM3
 11
0.8027075628182664
 21
0.5963728436090622
 31
0.0
  0
INSERT
  5
402
330
3FD
100
AcDbEntity
  8
寸法
 62
     3
100
AcDbBlockReference
  2
EX_NORM
 10
1791.450526190135
 20
2397.764234834589
 30
0.0
 41
20.0
 42
20.0
 43
20.0
 50
36.6105610047119
  0
POINT
  5
403
330
3FD
100
AcDbEntity
  8
DEFPOINTS
 62
     0
100
AcDbPoint
 10
1791.450526190135
 20
2397.764234834589
 30
0.0
  0
POINT
  5
404
330
3FD
100
AcDbEntity
  8
DEFPOINTS
 62
     0
100
AcDbPoint
 10
1739.274534606948
 20
2359.0
 30
0.0
  0
ENDBLK
  5
3FF
330
3FD
100
AcDbEntity
  8
0
100
AcDbBlockEnd
  0
BLOCK
  5
409
330
408
100
AcDbEntity
  8
0
100
AcDbBlockBegin
  2
*D32
 70
     1
 10
0.0
 20
0.0
 30
0.0
  3
*D32
  1

  0
LINE
  5
40B
330
408
100
AcDbEntity
  8
寸法
  6
CONTINUOUS
 62
     3
100
AcDbLine
 10
1355.212511476801
 20
2398.758165091184
 30
0.0
 11
1379.738892291072
 21
2344.0
 31
0.0
  0
MTEXT
  5
40C
330
408
100
AcDbEntity
  8
寸法
 62
     2
100
AcDbMText
 10
1379.815421384375
 20
2387.863357687133
 30
0.0
 40
30.0
 41
0.0
 71
     5
 72
     1
  1
R80
  7
EXCADDIM3
 11
0.4087730135711803
 21
-0.9126360848530676
 31
0.0
  0
INSERT
  5
40D
330
408
100
AcDbEntity
  8
寸法
 62
     3
100
AcDbBlockReference
  2
EX_NORM
 10
1347.037051205378
 20
2417.010886788245
 30
0.0
 41
20.0
 42
20.0
 43
20.0
 50
114.127780709459
  0
POINT
  5
40E
330
408
100
AcDbEntity
  8
DEFPOINTS
 62
     0
100
AcDbPoint
 10
1347.037051205378
 20
2417.010886788245
 30
0.0
  0
POINT
  5
40F
330
408
100
AcDbEntity
  8
DEFPOINTS
 62
     0
100
AcDbPoint
 10
1379.738892291072
 20
2344.0
 30
0.0
  0
ENDBLK
  5
40A
330
408
100
AcDbEntity
  8
0
100
AcDbBlockEnd
  0
ENDSEC
  0
SECTION
  2
ENTITIES
  0
LINE
  5
A7
330
1F
100
AcDbEntity
  8
枠
  6
CONTINUOUS
 62
     7
100
AcDbLine
 10
179.0
 20
116.0
 30
0.0
 11
1999.0
 21
116.0
 31
0.0
  0
LINE
  5
A8
330
1F
100
AcDbEntity
  8
枠
  6
CONTINUOUS
 62
     7
100
AcDbLine
 10
1999.0
 20
116.0
 30
0.0
 11
1999.0
 21
2916.0
 31
0.0
  0
LINE
  5
A9
330
1F
100
AcDbEntity
  8
枠
  6
CONTINUOUS
 62
     7
100
AcDbLine
 10
179.0
 20
116.0
 30
0.0
 11
179.0
 21
2916.0
 31
0.0
  0
LINE
  5
AA
330
1F
100
AcDbEntity
  8
枠
  6
CONTINUOUS
 62
     7
100
AcDbLine
 10
179.0
 20
2916.0
 30
0.0
 11
1999.0
 21
2916.0
 31
0.0
  0
LINE
  5
AB
330
1F
100
AcDbEntity
  8
枠
  6
CONTINUOUS
 62
     7
100
AcDbLine
 10
179.0
 20
336.0
 30
0.0
 11
1999.0
 21
336.0
 31
0.0
  0
LINE
  5
AC
330
1F
100
AcDbEntity
  8
枠
  6
CONTINUOUS
 62
     6
100
AcDbLine
 10
1999.0
 20
216.0
 30
0.0
 11
749.0
 21
216.0
 31
0.0
  0
LINE
  5
AD
330
1F
100
AcDbEntity
  8
枠
  6
CONTINUOUS
 62
     6
100
AcDbLine
 10
1859.0
 20
336.0
 30
0.0
 11
1859.0
 21
216.0
 31
0.0
  0
LINE
  5
AE
330
1F
100
AcDbEntity
  8
枠
  6
CONTINUOUS
 62
     6
100
AcDbLine
 10
1809.0
 20
336.0
 30
0.0
 11
1809.0
 21
216.0
 31
0.0
  0
LINE
  5
AF
330
1F
100
AcDbEntity
  8
枠
  6
CONTINUOUS
 62
     6
100
AcDbLine
 10
1439.0
 20
336.0
 30
0.0
 11
1439.0
 21
116.0
 31
0.0
  0
LINE
  5
B0
330
1F
100
AcDbEntity
  8
枠
  6
CONTINUOUS
 62
     6
100
AcDbLine
 10
1389.0
 20
336.0
 30
0.0
 11
1389.0
 21
116.0
 31
0.0
  0
LINE
  5
B1
330
1F
100
AcDbEntity
  8
枠
  6
CONTINUOUS
 62
     6
100
AcDbLine
 10
799.0
 20
336.0
 30
0.0
 11
799.0
 21
216.0
 31
0.0
  0
LINE
  5
B2
330
1F
100
AcDbEntity
  8
枠
  6
CONTINUOUS
 62
     6
100
AcDbLine
 10
749.0
 20
336.0
 30
0.0
 11
749.0
 21
116.0
 31
0.0
  0
LINE
  5
B3
330
1F
100
AcDbEntity
  8
枠
  6
CONTINUOUS
 62
     6
100
AcDbLine
 10
619.0
 20
336.0
 30
0.0
 11
619.0
 21
116.0
 31
0.0
  0
LINE
  5
B4
330
1F
100
AcDbEntity
  8
枠
  6
CONTINUOUS
 62
     6
100
AcDbLine
 10
489.0000000000001
 20
336.0
 30
0.0
 11
489.0000000000001
 21
116.0
 31
0.0
  0
LINE
  5
B5
330
1F
100
AcDbEntity
  8
枠
  6
CONTINUOUS
 62
     6
100
AcDbLine
 10
333.9999999999999
 20
336.0
 30
0.0
 11
333.9999999999999
 21
116.0
 31
0.0
  0
LINE
  5
B6
330
1F
100
AcDbEntity
  8
枠
  6
CONTINUOUS
 62
     6
100
AcDbLine
 10
179.0
 20
286.0
 30
0.0
 11
749.0
 21
286.0
 31
0.0
  0
LINE
  5
B7
330
1F
100
AcDbEntity
  8
枠
  6
CONTINUOUS
 62
     6
100
AcDbLine
 10
1891.6538086
 20
239.0029297
 30
0.0
 11
1968.9938965
 21
317.6998291
 31
0.0
  0
LINE
  5
B8
330
1F
100
AcDbEntity
  8
枠
  6
EXLTYPE2
 62
     6
100
AcDbLine
 10
179.0
 20
166.0
 30
0.0
 11
489.0000000000001
 21
166.0
 31
0.0
  0
CIRCLE
  5
B9
330
1F
100
AcDbEntity
  8
枠
  6
CONTINUOUS
 62
     6
100
AcDbCircle
 10
229.0
 20
141.0
 30
0.0
 40
1.0000002
  0
CIRCLE
  5
BA
330
1F
100
AcDbEntity
  8
枠
  6
CONTINUOUS
 62
     6
100
AcDbCircle
 10
279.0
 20
141.0
 30
0.0
 40
1.0000002
  0
CIRCLE
  5
BB
330
1F
100
AcDbEntity
  8
枠
  6
CONTINUOUS
 62
     6
100
AcDbCircle
 10
384.0000000000001
 20
141.0
 30
0.0
 40
1.0000002
  0
CIRCLE
  5
BC
330
1F
100
AcDbEntity
  8
枠
  6
CONTINUOUS
 62
     6
100
AcDbCircle
 10
434.0000000000001
 20
141.0
 30
0.0
 40
1.0000002
  0
LINE
  5
BD
330
1F
100
AcDbEntity
  8
枠
  6
EXLTYPE2
 62
     6
100
AcDbLine
 10
169.0
 20
1516.0
 30
0.0
 11
-21.0
 21
1516.0
 31
0.0
  0
TEXT
  5
BE
330
1F
100
AcDbEntity
  8
枠
  6
CONTINUOUS
 62
     2
100
AcDbText
 10
1889.5371094
 20
283.7227783
 30
0.0
 40
35.0
  1
１
 41
1.12
  7
EXCADSTD
 72
     5
 11
1917.5371094
 21
283.7227783
 31
0.0
100
AcDbText
  0
TEXT
  5
BF
330
1F
100
AcDbEntity
  8
枠
  6
CONTINUOUS
 62
     2
100
AcDbText
 10
1930.2792969
 20
239.3488464
 30
0.0
 40
35.0
  1
１０
 41
1.083254545454545
  7
EXCADSTD
 72
     5
 11
1989.8582969
 21
239.3488464
 31
0.0
100
AcDbText
  0
TEXT
  5
C0
330
1F
100
AcDbEntity
  8
枠
  6
CONTINUOUS
 62
     2
100
AcDbText
 10
201.5
 20
289.75
 30
0.0
 40
42.5
  1
製図
 41
1.509694117647059
  7
EXCADSTD
 72
     5
 11
302.326
 21
289.75
 31
0.0
100
AcDbText
  0
TEXT
  5
C1
330
1F
100
AcDbEntity
  8
枠
  6
CONTINUOUS
 62
     2
100
AcDbText
 10
752.75
 20
229.75
 30
0.0
 40
42.5
  1
名
 41
1.12
  7
EXCADSTD
 72
     5
 11
786.75
 21
229.75
 31
0.0
100
AcDbText
  0
TEXT
  5
C2
330
1F
100
AcDbEntity
  8
枠
  6
CONTINUOUS
 62
     2
100
AcDbText
 10
1392.75
 20
279.75
 30
0.0
 40
42.5
  1
品
 41
1.12
  7
EXCADSTD
 72
     5
 11
1426.75
 21
279.75
 31
0.0
100
AcDbText
  0
TEXT
  5
C3
330
1F
100
AcDbEntity
  8
枠
  6
CONTINUOUS
 62
     2
100
AcDbText
 10
1392.75
 20
229.75
 30
0.0
 40
42.5
  1
番
 41
1.12
  7
EXCADSTD
 72
     5
 11
1426.75
 21
229.75
 31
0.0
100
AcDbText
  0
TEXT
  5
C4
330
1F
100
AcDbEntity
  8
枠
  6
CONTINUOUS
 62
     2
100
AcDbText
 10
1812.75
 20
279.75
 30
0.0
 40
42.5
  1
尺
 41
1.12
  7
EXCADSTD
 72
     5
 11
1846.75
 21
279.75
 31
0.0
100
AcDbText
  0
TEXT
  5
C5
330
1F
100
AcDbEntity
  8
枠
  6
CONTINUOUS
 62
     2
100
AcDbText
 10
1812.75
 20
229.75
 30
0.0
 40
42.5
  1
度
 41
1.12
  7
EXCADSTD
 72
     5
 11
1846.75
 21
229.75
 31
0.0
100
AcDbText
  0
TEXT
  5
C6
330
1F
100
AcDbEntity
  8
枠
  6
CONTINUOUS
 62
     2
100
AcDbText
 10
1392.75
 20
166.75
 30
0.0
 40
42.5
  1
図
 41
1.12
  7
EXCADSTD
 72
     5
 11
1426.75
 21
166.75
 31
0.0
100
AcDbText
  0
TEXT
  5
C7
330
1F
100
AcDbEntity
  8
枠
  6
CONTINUOUS
 62
     2
100
AcDbText
 10
1392.75
 20
123.75
 30
0.0
 40
42.5
  1
番
 41
1.12
  7
EXCADSTD
 72
     5
 11
1426.75
 21
123.75
 31
0.0
100
AcDbText
  0
LINE
  5
C8
330
1F
100
AcDbEntity
  8
枠
  6
CONTINUOUS
 62
     3
100
AcDbLine
 10
826.4477540000001
 20
181.2879944
 30
0.0
 11
818.3840943000001
 21
181.2879944
 31
0.0
  0
LINE
  5
C9
330
1F
100
AcDbEntity
  8
枠
  6
CONTINUOUS
 62
     3
100
AcDbLine
 10
826.4477540000001
 20
189.3519592
 30
0.0
 11
826.4477540000001
 21
181.2879944
 31
0.0
  0
LINE
  5
CA
330
1F
100
AcDbEntity
  8
枠
  6
CONTINUOUS
 62
     3
100
AcDbLine
 10
818.3840943000001
 20
189.3519592
 30
0.0
 11
826.4477540000001
 21
189.3519592
 31
0.0
  0
LINE
  5
CB
330
1F
100
AcDbEntity
  8
枠
  6
CONTINUOUS
 62
     3
100
AcDbLine
 10
818.3840943000001
 20
189.3519592
 30
0.0
 11
818.3840943000001
 21
181.2879944
 31
0.0
  0
LINE
  5
CC
330
1F
100
AcDbEntity
  8
枠
  6
CONTINUOUS
 62
     3
100
AcDbLine
 10
815.3591919000002
 20
181.2879944
 30
0.0
 11
807.2955322999999
 21
181.2879944
 31
0.0
  0
LINE
  5
CD
330
1F
100
AcDbEntity
  8
枠
  6
CONTINUOUS
 62
     3
100
AcDbLine
 10
815.3591919000002
 20
189.3519592
 30
0.0
 11
815.3591919000002
 21
181.2879944
 31
0.0
  0
LINE
  5
CE
330
1F
100
AcDbEntity
  8
枠
  6
CONTINUOUS
 62
     3
100
AcDbLine
 10
807.2955322999999
 20
189.3519592
 30
0.0
 11
815.3591919000002
 21
189.3519592
 31
0.0
  0
LINE
  5
CF
330
1F
100
AcDbEntity
  8
枠
  6
CONTINUOUS
 62
     3
100
AcDbLine
 10
807.2955322999999
 20
189.3519592
 30
0.0
 11
807.2955322999999
 21
181.2879944
 31
0.0
  0
LINE
  5
D0
330
1F
100
AcDbEntity
  8
枠
  6
CONTINUOUS
 62
     3
100
AcDbLine
 10
798.8873291
 20
145.0
 30
0.0
 11
770.0
 21
145.0
 31
0.0
  0
ARC
  5
D1
330
1F
100
AcDbEntity
  8
枠
  6
CONTINUOUS
 62
     3
100
AcDbCircle
 10
798.8873291
 20
163.1440735
 30
0.0
 40
18.1439972
100
AcDbArc
 50
270.0000305200004
 51
334.0001373300001
  0
LINE
  5
D2
330
1F
100
AcDbEntity
  8
枠
  6
CONTINUOUS
 62
     3
100
AcDbLine
 10
826.4477540000001
 20
178.2640076
 30
0.0
 11
815.1930237
 21
155.1901245
 31
0.0
  0
LINE
  5
D3
330
1F
100
AcDbEntity
  8
枠
  6
CONTINUOUS
 62
     3
100
AcDbLine
 10
814.1122437000001
 20
178.2640076
 30
0.0
 11
826.4477540000001
 21
178.2640076
 31
0.0
  0
LINE
  5
D4
330
1F
100
AcDbEntity
  8
枠
  6
CONTINUOUS
 62
     3
100
AcDbLine
 10
805.01297
 20
159.6090698
 30
0.0
 11
814.1122437000001
 21
178.2640076
 31
0.0
  0
ARC
  5
D5
330
1F
100
AcDbEntity
  8
枠
  6
CONTINUOUS
 62
     3
100
AcDbCircle
 10
797.765503
 20
163.1440735
 30
0.0
 40
8.064000000000002
100
AcDbArc
 50
270.0000305199999
 51
333.99855042
  0
LINE
  5
D6
330
1F
100
AcDbEntity
  8
枠
  6
CONTINUOUS
 62
     3
100
AcDbLine
 10
770.0
 20
155.0799561
 30
0.0
 11
797.765503
 21
155.0799561
 31
0.0
  0
LINE
  5
D7
330
1F
100
AcDbEntity
  8
枠
  6
CONTINUOUS
 62
     3
100
AcDbLine
 10
770.0
 20
155.0799561
 30
0.0
 11
770.0
 21
145.0
 31
0.0
  0
LINE
  5
D8
330
1F
100
AcDbEntity
  8
枠
  6
CONTINUOUS
 62
     3
100
AcDbLine
 10
798.2249451000001
 20
168.1838989
 30
0.0
 11
770.0
 21
168.1838989
 31
0.0
  0
LINE
  5
D9
330
1F
100
AcDbEntity
  8
枠
  6
CONTINUOUS
 62
     3
100
AcDbLine
 10
798.2249451000001
 20
177.256012
 30
0.0
 11
798.2249451000001
 21
168.1838989
 31
0.0
  0
LINE
  5
DA
330
1F
100
AcDbEntity
  8
枠
  6
CONTINUOUS
 62
     3
100
AcDbLine
 10
770.0
 20
177.256012
 30
0.0
 11
798.2249451000001
 21
177.256012
 31
0.0
  0
LINE
  5
DB
330
1F
100
AcDbEntity
  8
枠
  6
CONTINUOUS
 62
     3
100
AcDbLine
 10
770.0
 20
177.256012
 30
0.0
 11
770.0
 21
168.1838989
 31
0.0
  0
LINE
  5
DC
330
1F
100
AcDbEntity
  8
枠
  6
CONTINUOUS
 62
     3
100
AcDbLine
 10
798.2249451000001
 20
180.2799988
 30
0.0
 11
770.0
 21
180.2799988
 31
0.0
  0
LINE
  5
DD
330
1F
100
AcDbEntity
  8
枠
  6
CONTINUOUS
 62
     3
100
AcDbLine
 10
798.2249451000001
 20
189.3519592
 30
0.0
 11
798.2249451000001
 21
180.2799988
 31
0.0
  0
LINE
  5
DE
330
1F
100
AcDbEntity
  8
枠
  6
CONTINUOUS
 62
     3
100
AcDbLine
 10
770.0
 20
189.3519592
 30
0.0
 11
798.2249451000001
 21
189.3519592
 31
0.0
  0
LINE
  5
DF
330
1F
100
AcDbEntity
  8
枠
  6
CONTINUOUS
 62
     3
100
AcDbLine
 10
770.0
 20
189.3519592
 30
0.0
 11
770.0
 21
180.2799988
 31
0.0
  0
LINE
  5
E0
330
1F
100
AcDbEntity
  8
枠
  6
CONTINUOUS
 62
     3
100
AcDbLine
 10
829.4726563
 20
178.2640076
 30
0.0
 11
829.4726563
 21
171.2078858
 31
0.0
  0
LINE
  5
E1
330
1F
100
AcDbEntity
  8
枠
  6
CONTINUOUS
 62
     3
100
AcDbLine
 10
829.4726563
 20
178.2640076
 30
0.0
 11
838.6540223
 21
178.2640076
 31
0.0
  0
LINE
  5
E2
330
1F
100
AcDbEntity
  8
枠
  6
CONTINUOUS
 62
     3
100
AcDbLine
 10
837.536316
 20
185.3199768
 30
0.0
 11
838.6540223
 21
178.2640076
 31
0.0
  0
LINE
  5
E3
330
1F
100
AcDbEntity
  8
枠
  6
CONTINUOUS
 62
     3
100
AcDbLine
 10
837.536316
 20
185.3199768
 30
0.0
 11
848.7623596999999
 21
185.3199768
 31
0.0
  0
LINE
  5
E4
330
1F
100
AcDbEntity
  8
枠
  6
CONTINUOUS
 62
     3
100
AcDbLine
 10
848.7623596999999
 20
185.3199768
 30
0.0
 11
849.8799134000001
 21
178.2640076
 31
0.0
  0
LINE
  5
E5
330
1F
100
AcDbEntity
  8
枠
  6
CONTINUOUS
 62
     3
100
AcDbLine
 10
849.8799134000001
 20
178.2640076
 30
0.0
 11
877.8567505000001
 21
178.2640076
 31
0.0
  0
LINE
  5
E6
330
1F
100
AcDbEntity
  8
枠
  6
CONTINUOUS
 62
     3
100
AcDbLine
 10
877.8567505000001
 20
178.2640076
 30
0.0
 11
871.9731141
 21
165.0505066
 31
0.0
  0
ARC
  5
E7
330
1F
100
AcDbEntity
  8
枠
  6
CONTINUOUS
 62
     3
100
AcDbCircle
 10
858.1610108000001
 20
171.200409
 30
0.0
 40
15.1201057
100
AcDbArc
 50
263.4657745199999
 51
335.9987792800001
  0
LINE
  5
E8
330
1F
100
AcDbEntity
  8
枠
  6
CONTINUOUS
 62
     3
100
AcDbLine
 10
856.4384461
 20
156.1785889
 30
0.0
 11
855.3370667000002
 21
163.1440735
 31
0.0
  0
ARC
  5
E9
330
1F
100
AcDbEntity
  8
枠
  6
CONTINUOUS
 62
     3
100
AcDbCircle
 10
855.0581360000001
 20
169.1920471
 30
0.0
 40
6.0480058
100
AcDbArc
 50
272.6237487800003
 51
336.0065307700002
  0
LINE
  5
EA
330
1F
100
AcDbEntity
  8
枠
  6
CONTINUOUS
 62
     3
100
AcDbLine
 10
860.5850220000002
 20
166.7320252
 30
0.0
 11
862.576294
 21
171.2078858
 31
0.0
  0
LINE
  5
EB
330
1F
100
AcDbEntity
  8
枠
  6
CONTINUOUS
 62
     3
100
AcDbLine
 10
862.576294
 20
171.2078858
 30
0.0
 11
850.9976197000001
 21
171.2078858
 31
0.0
  0
LINE
  5
EC
330
1F
100
AcDbEntity
  8
枠
  6
CONTINUOUS
 62
     3
100
AcDbLine
 10
850.9976197000001
 20
171.2078858
 30
0.0
 11
855.1484681
 21
145.0
 31
0.0
  0
LINE
  5
ED
330
1F
100
AcDbEntity
  8
枠
  6
CONTINUOUS
 62
     3
100
AcDbLine
 10
855.1484681
 20
145.0
 30
0.0
 11
843.9224244000002
 21
145.0
 31
0.0
  0
LINE
  5
EE
330
1F
100
AcDbEntity
  8
枠
  6
CONTINUOUS
 62
     2
100
AcDbLine
 10
843.9224244000002
 20
145.0
 30
0.0
 11
839.7717286
 21
171.2078858
 31
0.0
  0
LINE
  5
EF
330
1F
100
AcDbEntity
  8
枠
  6
CONTINUOUS
 62
     2
100
AcDbLine
 10
839.7717286
 20
171.2078858
 30
0.0
 11
829.4726563
 21
171.2078858
 31
0.0
  0
LINE
  5
F0
330
1F
100
AcDbEntity
  8
枠
  6
CONTINUOUS
 62
     3
100
AcDbLine
 10
876.8476868
 20
145.0
 30
0.0
 11
876.8476868
 21
155.0799561
 31
0.0
  0
LINE
  5
F1
330
1F
100
AcDbEntity
  8
枠
  6
CONTINUOUS
 62
     3
100
AcDbLine
 10
876.8476868
 20
155.0799561
 30
0.0
 11
933.2954407
 21
155.0799561
 31
0.0
  0
LINE
  5
F2
330
1F
100
AcDbEntity
  8
枠
  6
CONTINUOUS
 62
     3
100
AcDbLine
 10
933.2954407
 20
155.0799561
 30
0.0
 11
933.2954407
 21
145.0
 31
0.0
  0
LINE
  5
F3
330
1F
100
AcDbEntity
  8
枠
  6
CONTINUOUS
 62
     3
100
AcDbLine
 10
933.2954407
 20
145.0
 30
0.0
 11
876.8476868
 21
145.0
 31
0.0
  0
LINE
  5
F4
330
1F
100
AcDbEntity
  8
枠
  6
CONTINUOUS
 62
     3
100
AcDbLine
 10
880.8795166
 20
189.3519592
 30
0.0
 11
880.8795166
 21
179.2720032
 31
0.0
  0
LINE
  5
F5
330
1F
100
AcDbEntity
  8
枠
  6
CONTINUOUS
 62
     3
100
AcDbLine
 10
880.8795166
 20
189.3519592
 30
0.0
 11
929.2636109
 21
189.3519592
 31
0.0
  0
LINE
  5
F6
330
1F
100
AcDbEntity
  8
枠
  6
CONTINUOUS
 62
     3
100
AcDbLine
 10
929.2636109
 20
189.3519592
 30
0.0
 11
929.2636109
 21
179.2720032
 31
0.0
  0
LINE
  5
F7
330
1F
100
AcDbEntity
  8
枠
  6
CONTINUOUS
 62
     3
100
AcDbLine
 10
929.2636109
 20
179.2720032
 30
0.0
 11
880.8795166
 21
179.2720032
 31
0.0
  0
LINE
  5
F8
330
1F
100
AcDbEntity
  8
枠
  6
CONTINUOUS
 62
     3
100
AcDbLine
 10
940.3521729
 20
189.3519592
 30
0.0
 11
940.3521729
 21
179.2720032
 31
0.0
  0
LINE
  5
F9
330
1F
100
AcDbEntity
  8
枠
  6
CONTINUOUS
 62
     3
100
AcDbLine
 10
940.3521729
 20
189.3519592
 30
0.0
 11
992.768097
 21
189.3519592
 31
0.0
  0
LINE
  5
FA
330
1F
100
AcDbEntity
  8
枠
  6
CONTINUOUS
 62
     3
100
AcDbLine
 10
992.768097
 20
189.3519592
 30
0.0
 11
977.0509339
 21
167.7189636
 31
0.0
  0
LINE
  5
FB
330
1F
100
AcDbEntity
  8
枠
  6
CONTINUOUS
 62
     3
100
AcDbLine
 10
977.0509339
 20
167.7189636
 30
0.0
 11
996.7999268
 21
145.0
 31
0.0
  0
LINE
  5
FC
330
1F
100
AcDbEntity
  8
枠
  6
CONTINUOUS
 62
     3
100
AcDbLine
 10
996.7999268
 20
145.0
 30
0.0
 11
982.1081543
 21
145.0
 31
0.0
  0
LINE
  5
FD
330
1F
100
AcDbEntity
  8
枠
  6
CONTINUOUS
 62
     3
100
AcDbLine
 10
982.1081543
 20
145.0
 30
0.0
 11
970.3613282000001
 21
158.5127258
 31
0.0
  0
LINE
  5
FE
330
1F
100
AcDbEntity
  8
枠
  6
CONTINUOUS
 62
     3
100
AcDbLine
 10
970.3613282000001
 20
158.5127258
 30
0.0
 11
965.9788514000002
 21
152.4792481
 31
0.0
  0
ARC
  5
FF
330
1F
100
AcDbEntity
  8
枠
  6
CONTINUOUS
 62
     3
100
AcDbCircle
 10
951.2992859000002
 20
163.1440735
 30
0.0
 40
18.1439972
100
AcDbArc
 50
270.0000305200004
 51
324.0011596700001
  0
LINE
  5
100
330
1F
100
AcDbEntity
  8
枠
  6
CONTINUOUS
 62
     3
100
AcDbLine
 10
951.2992859000002
 20
145.0
 30
0.0
 11
936.3203431
 21
145.0
 31
0.0
  0
LINE
  5
101
330
1F
100
AcDbEntity
  8
枠
  6
CONTINUOUS
 62
     3
100
AcDbLine
 10
936.3203431
 20
145.0
 30
0.0
 11
936.3203431
 21
155.0799561
 31
0.0
  0
LINE
  5
102
330
1F
100
AcDbEntity
  8
枠
  6
CONTINUOUS
 62
     3
100
AcDbLine
 10
936.3203431
 20
155.0799561
 30
0.0
 11
949.0270997
 21
155.0799561
 31
0.0
  0
ARC
  5
103
330
1F
100
AcDbEntity
  8
枠
  6
CONTINUOUS
 62
     3
100
AcDbCircle
 10
949.0270997
 20
165.1599121
 30
0.0
 40
10.0799942
100
AcDbArc
 50
270.0000305199999
 51
323.9965972900002
  0
LINE
  5
104
330
1F
100
AcDbEntity
  8
枠
  6
CONTINUOUS
 62
     3
100
AcDbLine
 10
957.1809387999999
 20
159.2350769
 30
0.0
 11
971.7395019999999
 21
179.2720032
 31
0.0
  0
LINE
  5
105
330
1F
100
AcDbEntity
  8
枠
  6
CONTINUOUS
 62
     3
100
AcDbLine
 10
971.7395019999999
 20
179.2720032
 30
0.0
 11
940.3521729
 21
179.2720032
 31
0.0
  0
LINE
  5
106
330
1F
100
AcDbEntity
  8
枠
  6
CONTINUOUS
 62
     3
100
AcDbLine
 10
1008.8955689
 20
189.3519592
 30
0.0
 11
1008.8955689
 21
182.29599
 31
0.0
  0
LINE
  5
107
330
1F
100
AcDbEntity
  8
枠
  6
CONTINUOUS
 62
     3
100
AcDbLine
 10
1008.8955689
 20
189.3519592
 30
0.0
 11
1061.3113404
 21
189.3519592
 31
0.0
  0
LINE
  5
108
330
1F
100
AcDbEntity
  8
枠
  6
CONTINUOUS
 62
     3
100
AcDbLine
 10
1061.3113404
 20
189.3519592
 30
0.0
 11
1061.3113404
 21
182.29599
 31
0.0
  0
LINE
  5
109
330
1F
100
AcDbEntity
  8
枠
  6
CONTINUOUS
 62
     3
100
AcDbLine
 10
1061.3113404
 20
182.29599
 30
0.0
 11
1040.6477356
 21
182.29599
 31
0.0
  0
LINE
  5
10A
330
1F
100
AcDbEntity
  8
枠
  6
CONTINUOUS
 62
     3
100
AcDbLine
 10
1040.6477356
 20
182.29599
 30
0.0
 11
1040.6477356
 21
153.0641174
 31
0.0
  0
LINE
  5
10B
330
1F
100
AcDbEntity
  8
枠
  6
CONTINUOUS
 62
     3
100
AcDbLine
 10
1040.6477356
 20
153.0641174
 30
0.0
 11
1063.3273316
 21
153.0641174
 31
0.0
  0
LINE
  5
10C
330
1F
100
AcDbEntity
  8
枠
  6
CONTINUOUS
 62
     3
100
AcDbLine
 10
1063.3273316
 20
153.0641174
 30
0.0
 11
1063.3273316
 21
145.0
 31
0.0
  0
LINE
  5
10D
330
1F
100
AcDbEntity
  8
枠
  6
CONTINUOUS
 62
     3
100
AcDbLine
 10
1063.3273316
 20
145.0
 30
0.0
 11
1006.8795777
 21
145.0
 31
0.0
  0
LINE
  5
10E
330
1F
100
AcDbEntity
  8
枠
  6
CONTINUOUS
 62
     3
100
AcDbLine
 10
1006.8795777
 20
145.0
 30
0.0
 11
1006.8795777
 21
153.0641174
 31
0.0
  0
LINE
  5
10F
330
1F
100
AcDbEntity
  8
枠
  6
CONTINUOUS
 62
     3
100
AcDbLine
 10
1006.8795777
 20
153.0641174
 30
0.0
 11
1029.5591736
 21
153.0641174
 31
0.0
  0
LINE
  5
110
330
1F
100
AcDbEntity
  8
枠
  6
CONTINUOUS
 62
     3
100
AcDbLine
 10
1029.5591736
 20
153.0641174
 30
0.0
 11
1029.5591736
 21
182.29599
 31
0.0
  0
LINE
  5
111
330
1F
100
AcDbEntity
  8
枠
  6
CONTINUOUS
 62
     3
100
AcDbLine
 10
1029.5591736
 20
182.29599
 30
0.0
 11
1008.8955689
 21
182.29599
 31
0.0
  0
LINE
  5
112
330
1F
100
AcDbEntity
  8
枠
  6
CONTINUOUS
 62
     3
100
AcDbLine
 10
1064.3362427
 20
183.3039856
 30
0.0
 11
1064.3362427
 21
178.6671448
 31
0.0
  0
LINE
  5
113
330
1F
100
AcDbEntity
  8
枠
  6
CONTINUOUS
 62
     3
100
AcDbLine
 10
1064.3362427
 20
183.3039856
 30
0.0
 11
1073.0931092
 21
183.3039856
 31
0.0
  0
LINE
  5
114
330
1F
100
AcDbEntity
  8
枠
  6
CONTINUOUS
 62
     3
100
AcDbLine
 10
1073.0931092
 20
183.3039856
 30
0.0
 11
1068.3682251
 21
189.3519592
 31
0.0
  0
LINE
  5
115
330
1F
100
AcDbEntity
  8
枠
  6
CONTINUOUS
 62
     3
100
AcDbLine
 10
1068.3682251
 20
189.3519592
 30
0.0
 11
1077.32193
 21
189.3519592
 31
0.0
  0
LINE
  5
116
330
1F
100
AcDbEntity
  8
枠
  6
CONTINUOUS
 62
     3
100
AcDbLine
 10
1077.32193
 20
189.3519592
 30
0.0
 11
1082.046814
 21
183.3039856
 31
0.0
  0
LINE
  5
117
330
1F
100
AcDbEntity
  8
枠
  6
CONTINUOUS
 62
     3
100
AcDbLine
 10
1082.046814
 20
183.3039856
 30
0.0
 11
1083.9930726
 21
183.3039856
 31
0.0
  0
LINE
  5
118
330
1F
100
AcDbEntity
  8
枠
  6
CONTINUOUS
 62
     3
100
AcDbLine
 10
1083.9930726
 20
183.3039856
 30
0.0
 11
1083.9930726
 21
189.3519592
 31
0.0
  0
LINE
  5
119
330
1F
100
AcDbEntity
  8
枠
  6
CONTINUOUS
 62
     3
100
AcDbLine
 10
1083.9930726
 20
189.3519592
 30
0.0
 11
1091.0476685
 21
189.3519592
 31
0.0
  0
LINE
  5
11A
330
1F
100
AcDbEntity
  8
枠
  6
CONTINUOUS
 62
     3
100
AcDbLine
 10
1091.0476685
 20
189.3519592
 30
0.0
 11
1091.0476685
 21
183.3039856
 31
0.0
  0
LINE
  5
11B
330
1F
100
AcDbEntity
  8
枠
  6
CONTINUOUS
 62
     3
100
AcDbLine
 10
1091.0476685
 20
183.3039856
 30
0.0
 11
1094.0725708
 21
183.3039856
 31
0.0
  0
LINE
  5
11C
330
1F
100
AcDbEntity
  8
枠
  6
CONTINUOUS
 62
     3
100
AcDbLine
 10
1094.0725708
 20
183.3039856
 30
0.0
 11
1094.0725708
 21
189.3519592
 31
0.0
  0
LINE
  5
11D
330
1F
100
AcDbEntity
  8
枠
  6
CONTINUOUS
 62
     3
100
AcDbLine
 10
1094.0725708
 20
189.3519592
 30
0.0
 11
1101.1273194
 21
189.3519592
 31
0.0
  0
LINE
  5
11E
330
1F
100
AcDbEntity
  8
枠
  6
CONTINUOUS
 62
     3
100
AcDbLine
 10
1101.1273194
 20
189.3519592
 30
0.0
 11
1101.1273194
 21
183.3039856
 31
0.0
  0
LINE
  5
11F
330
1F
100
AcDbEntity
  8
枠
  6
CONTINUOUS
 62
     3
100
AcDbLine
 10
1101.1273194
 20
183.3039856
 30
0.0
 11
1103.0735779
 21
183.3039856
 31
0.0
  0
LINE
  5
120
330
1F
100
AcDbEntity
  8
枠
  6
CONTINUOUS
 62
     3
100
AcDbLine
 10
1103.0735779
 20
183.3039856
 30
0.0
 11
1107.798462
 21
189.3519592
 31
0.0
  0
LINE
  5
121
330
1F
100
AcDbEntity
  8
枠
  6
CONTINUOUS
 62
     3
100
AcDbLine
 10
1107.798462
 20
189.3519592
 30
0.0
 11
1116.7521668
 21
189.3519592
 31
0.0
  0
LINE
  5
122
330
1F
100
AcDbEntity
  8
枠
  6
CONTINUOUS
 62
     3
100
AcDbLine
 10
1116.7521668
 20
189.3519592
 30
0.0
 11
1112.0272828
 21
183.3039856
 31
0.0
  0
LINE
  5
123
330
1F
100
AcDbEntity
  8
枠
  6
CONTINUOUS
 62
     3
100
AcDbLine
 10
1112.0272828
 20
183.3039856
 30
0.0
 11
1120.7839966
 21
183.3039856
 31
0.0
  0
LINE
  5
124
330
1F
100
AcDbEntity
  8
枠
  6
CONTINUOUS
 62
     3
100
AcDbLine
 10
1120.7839966
 20
183.3039856
 30
0.0
 11
1120.7839966
 21
178.6671448
 31
0.0
  0
LINE
  5
125
330
1F
100
AcDbEntity
  8
枠
  6
CONTINUOUS
 62
     3
100
AcDbLine
 10
1120.7839966
 20
178.6671448
 30
0.0
 11
1110.1609803
 21
178.6671448
 31
0.0
  0
LINE
  5
126
330
1F
100
AcDbEntity
  8
枠
  6
CONTINUOUS
 62
     3
100
AcDbLine
 10
1110.1609803
 20
178.6671448
 30
0.0
 11
1108.3276368
 21
173.6273194
 31
0.0
  0
LINE
  5
127
330
1F
100
AcDbEntity
  8
枠
  6
CONTINUOUS
 62
     3
100
AcDbLine
 10
1108.3276368
 20
173.6273194
 30
0.0
 11
1120.7839966
 21
173.6273194
 31
0.0
  0
LINE
  5
128
330
1F
100
AcDbEntity
  8
枠
  6
CONTINUOUS
 62
     3
100
AcDbLine
 10
1120.7839966
 20
173.6273194
 30
0.0
 11
1120.7839966
 21
168.9904785
 31
0.0
  0
LINE
  5
129
330
1F
100
AcDbEntity
  8
枠
  6
CONTINUOUS
 62
     3
100
AcDbLine
 10
1120.7839966
 20
168.9904785
 30
0.0
 11
1097.5999451
 21
168.9904785
 31
0.0
  0
LINE
  5
12A
330
1F
100
AcDbEntity
  8
枠
  6
CONTINUOUS
 62
     3
100
AcDbLine
 10
1097.5999451
 20
168.9904785
 30
0.0
 11
1097.5999451
 21
166.6720581
 31
0.0
  0
LINE
  5
12B
330
1F
100
AcDbEntity
  8
枠
  6
CONTINUOUS
 62
     3
100
AcDbLine
 10
1097.5999451
 20
166.6720581
 30
0.0
 11
1120.7839966
 21
166.6720581
 31
0.0
  0
LINE
  5
12C
330
1F
100
AcDbEntity
  8
枠
  6
CONTINUOUS
 62
     3
100
AcDbLine
 10
1120.7839966
 20
166.6720581
 30
0.0
 11
1120.7839966
 21
162.0352173
 31
0.0
  0
LINE
  5
12D
330
1F
100
AcDbEntity
  8
枠
  6
CONTINUOUS
 62
     3
100
AcDbLine
 10
1120.7839966
 20
162.0352173
 30
0.0
 11
1097.5999451
 21
162.0352173
 31
0.0
  0
LINE
  5
12E
330
1F
100
AcDbEntity
  8
枠
  6
CONTINUOUS
 62
     3
100
AcDbLine
 10
1097.5999451
 20
162.0352173
 30
0.0
 11
1097.5999451
 21
159.7167969
 31
0.0
  0
LINE
  5
12F
330
1F
100
AcDbEntity
  8
枠
  6
CONTINUOUS
 62
     3
100
AcDbLine
 10
1097.5999451
 20
159.7167969
 30
0.0
 11
1120.7839966
 21
159.7167969
 31
0.0
  0
LINE
  5
130
330
1F
100
AcDbEntity
  8
枠
  6
CONTINUOUS
 62
     3
100
AcDbLine
 10
1120.7839966
 20
159.7167969
 30
0.0
 11
1120.7839966
 21
155.0799561
 31
0.0
  0
LINE
  5
131
330
1F
100
AcDbEntity
  8
枠
  6
CONTINUOUS
 62
     3
100
AcDbLine
 10
1120.7839966
 20
155.0799561
 30
0.0
 11
1109.6278382
 21
155.0799561
 31
0.0
  0
LINE
  5
132
330
1F
100
AcDbEntity
  8
枠
  6
CONTINUOUS
 62
     3
100
AcDbLine
 10
1109.6278382
 20
155.0799561
 30
0.0
 11
1120.7839966
 21
145.0
 31
0.0
  0
LINE
  5
133
330
1F
100
AcDbEntity
  8
枠
  6
CONTINUOUS
 62
     3
100
AcDbLine
 10
1120.7839966
 20
145.0
 30
0.0
 11
1108.7562562
 21
145.0
 31
0.0
  0
LINE
  5
134
330
1F
100
AcDbEntity
  8
枠
  6
CONTINUOUS
 62
     3
100
AcDbLine
 10
1108.7562562
 20
145.0
 30
0.0
 11
1097.5999451
 21
155.0799561
 31
0.0
  0
LINE
  5
135
330
1F
100
AcDbEntity
  8
枠
  6
CONTINUOUS
 62
     3
100
AcDbLine
 10
1097.5999451
 20
155.0799561
 30
0.0
 11
1097.5999451
 21
145.0
 31
0.0
  0
LINE
  5
136
330
1F
100
AcDbEntity
  8
枠
  6
CONTINUOUS
 62
     3
100
AcDbLine
 10
1097.5999451
 20
145.0
 30
0.0
 11
1087.5204468
 21
145.0
 31
0.0
  0
LINE
  5
137
330
1F
100
AcDbEntity
  8
枠
  6
CONTINUOUS
 62
     3
100
AcDbLine
 10
1087.5204468
 20
145.0
 30
0.0
 11
1087.5204468
 21
155.0799561
 31
0.0
  0
LINE
  5
138
330
1F
100
AcDbEntity
  8
枠
  6
CONTINUOUS
 62
     3
100
AcDbLine
 10
1087.5204468
 20
155.0799561
 30
0.0
 11
1076.3641358
 21
145.0
 31
0.0
  0
LINE
  5
139
330
1F
100
AcDbEntity
  8
枠
  6
CONTINUOUS
 62
     3
100
AcDbLine
 10
1076.3641358
 20
145.0
 30
0.0
 11
1064.3362427
 21
145.0
 31
0.0
  0
LINE
  5
13A
330
1F
100
AcDbEntity
  8
枠
  6
CONTINUOUS
 62
     3
100
AcDbLine
 10
1064.3362427
 20
145.0
 30
0.0
 11
1075.4925538
 21
155.0799561
 31
0.0
  0
LINE
  5
13B
330
1F
100
AcDbEntity
  8
枠
  6
CONTINUOUS
 62
     3
100
AcDbLine
 10
1075.4925538
 20
155.0799561
 30
0.0
 11
1064.3362427
 21
155.0799561
 31
0.0
  0
LINE
  5
13C
330
1F
100
AcDbEntity
  8
枠
  6
CONTINUOUS
 62
     3
100
AcDbLine
 10
1064.3362427
 20
155.0799561
 30
0.0
 11
1064.3362427
 21
159.7167969
 31
0.0
  0
LINE
  5
13D
330
1F
100
AcDbEntity
  8
枠
  6
CONTINUOUS
 62
     3
100
AcDbLine
 10
1064.3362427
 20
159.7167969
 30
0.0
 11
1087.5204468
 21
159.7167969
 31
0.0
  0
LINE
  5
13E
330
1F
100
AcDbEntity
  8
枠
  6
CONTINUOUS
 62
     3
100
AcDbLine
 10
1087.5204468
 20
159.7167969
 30
0.0
 11
1087.5204468
 21
162.0352173
 31
0.0
  0
LINE
  5
13F
330
1F
100
AcDbEntity
  8
枠
  6
CONTINUOUS
 62
     3
100
AcDbLine
 10
1087.5204468
 20
162.0352173
 30
0.0
 11
1064.3362427
 21
162.0352173
 31
0.0
  0
LINE
  5
140
330
1F
100
AcDbEntity
  8
枠
  6
CONTINUOUS
 62
     3
100
AcDbLine
 10
1064.3362427
 20
162.0352173
 30
0.0
 11
1064.3362427
 21
166.6720581
 31
0.0
  0
LINE
  5
141
330
1F
100
AcDbEntity
  8
枠
  6
CONTINUOUS
 62
     3
100
AcDbLine
 10
1064.3362427
 20
166.6720581
 30
0.0
 11
1087.5204468
 21
166.6720581
 31
0.0
  0
LINE
  5
142
330
1F
100
AcDbEntity
  8
枠
  6
CONTINUOUS
 62
     3
100
AcDbLine
 10
1087.5204468
 20
166.6720581
 30
0.0
 11
1087.5204468
 21
168.9904785
 31
0.0
  0
LINE
  5
143
330
1F
100
AcDbEntity
  8
枠
  6
CONTINUOUS
 62
     3
100
AcDbLine
 10
1087.5204468
 20
168.9904785
 30
0.0
 11
1064.3362427
 21
168.9904785
 31
0.0
  0
LINE
  5
144
330
1F
100
AcDbEntity
  8
枠
  6
CONTINUOUS
 62
     3
100
AcDbLine
 10
1064.3362427
 20
168.9904785
 30
0.0
 11
1064.3362427
 21
173.6273194
 31
0.0
  0
LINE
  5
145
330
1F
100
AcDbEntity
  8
枠
  6
CONTINUOUS
 62
     3
100
AcDbLine
 10
1064.3362427
 20
173.6273194
 30
0.0
 11
1076.7927552
 21
173.6273194
 31
0.0
  0
LINE
  5
146
330
1F
100
AcDbEntity
  8
枠
  6
CONTINUOUS
 62
     3
100
AcDbLine
 10
1076.7927552
 20
173.6273194
 30
0.0
 11
1074.9594117
 21
178.6671448
 31
0.0
  0
LINE
  5
147
330
1F
100
AcDbEntity
  8
枠
  6
CONTINUOUS
 62
     3
100
AcDbLine
 10
1074.9594117
 20
178.6671448
 30
0.0
 11
1064.3362427
 21
178.6671448
 31
0.0
  0
LINE
  5
148
330
1F
100
AcDbEntity
  8
枠
  6
CONTINUOUS
 62
     3
100
AcDbLine
 10
1085.6849671
 20
178.6671448
 30
0.0
 11
1099.4354249
 21
178.6671448
 31
0.0
  0
LINE
  5
149
330
1F
100
AcDbEntity
  8
枠
  6
CONTINUOUS
 62
     3
100
AcDbLine
 10
1099.4354249
 20
178.6671448
 30
0.0
 11
1097.5999451
 21
173.6273194
 31
0.0
  0
LINE
  5
14A
330
1F
100
AcDbEntity
  8
枠
  6
CONTINUOUS
 62
     3
100
AcDbLine
 10
1097.5999451
 20
173.6273194
 30
0.0
 11
1087.5204468
 21
173.6273194
 31
0.0
  0
LINE
  5
14B
330
1F
100
AcDbEntity
  8
枠
  6
CONTINUOUS
 62
     3
100
AcDbLine
 10
1087.5204468
 20
173.6273194
 30
0.0
 11
1085.6849671
 21
178.6671448
 31
0.0
  0
LINE
  5
14C
330
1F
100
AcDbEntity
  8
枠
  6
CONTINUOUS
 62
     3
100
AcDbLine
 10
1148.2563782
 20
189.3519592
 30
0.0
 11
1144.9894715
 21
176.2480164
 31
0.0
  0
LINE
  5
14D
330
1F
100
AcDbEntity
  8
枠
  6
CONTINUOUS
 62
     3
100
AcDbLine
 10
1148.2563782
 20
189.3519592
 30
0.0
 11
1156.5681458
 21
189.3519592
 31
0.0
  0
LINE
  5
14E
330
1F
100
AcDbEntity
  8
枠
  6
CONTINUOUS
 62
     3
100
AcDbLine
 10
1156.5681458
 20
189.3519592
 30
0.0
 11
1155.3109742
 21
184.3119812
 31
0.0
  0
LINE
  5
14F
330
1F
100
AcDbEntity
  8
枠
  6
CONTINUOUS
 62
     3
100
AcDbLine
 10
1155.3109742
 20
184.3119812
 30
0.0
 11
1158.584137
 21
184.3119812
 31
0.0
  0
LINE
  5
150
330
1F
100
AcDbEntity
  8
枠
  6
CONTINUOUS
 62
     3
100
AcDbLine
 10
1158.584137
 20
184.3119812
 30
0.0
 11
1158.584137
 21
189.3519592
 31
0.0
  0
LINE
  5
151
330
1F
100
AcDbEntity
  8
枠
  6
CONTINUOUS
 62
     3
100
AcDbLine
 10
1158.584137
 20
189.3519592
 30
0.0
 11
1167.6567078
 21
189.3519592
 31
0.0
  0
LINE
  5
152
330
1F
100
AcDbEntity
  8
枠
  6
CONTINUOUS
 62
     3
100
AcDbLine
 10
1167.6567078
 20
189.3519592
 30
0.0
 11
1167.6567078
 21
184.3119812
 31
0.0
  0
LINE
  5
153
330
1F
100
AcDbEntity
  8
枠
  6
CONTINUOUS
 62
     3
100
AcDbLine
 10
1167.6567078
 20
184.3119812
 30
0.0
 11
1179.2477417
 21
184.3119812
 31
0.0
  0
LINE
  5
154
330
1F
100
AcDbEntity
  8
枠
  6
CONTINUOUS
 62
     3
100
AcDbLine
 10
1179.2477417
 20
184.3119812
 30
0.0
 11
1179.2477417
 21
179.2720032
 31
0.0
  0
LINE
  5
155
330
1F
100
AcDbEntity
  8
枠
  6
CONTINUOUS
 62
     3
100
AcDbLine
 10
1167.6567078
 20
179.2720032
 30
0.0
 11
1179.2477417
 21
179.2720032
 31
0.0
  0
LINE
  5
156
330
1F
100
AcDbEntity
  8
枠
  6
CONTINUOUS
 62
     3
100
AcDbLine
 10
1167.6567078
 20
179.2720032
 30
0.0
 11
1167.6567078
 21
174.2320252
 31
0.0
  0
LINE
  5
157
330
1F
100
AcDbEntity
  8
枠
  6
CONTINUOUS
 62
     3
100
AcDbLine
 10
1167.6567078
 20
174.2320252
 30
0.0
 11
1180.2566529
 21
174.2320252
 31
0.0
  0
LINE
  5
158
330
1F
100
AcDbEntity
  8
枠
  6
CONTINUOUS
 62
     3
100
AcDbLine
 10
1180.2566529
 20
174.2320252
 30
0.0
 11
1180.2566529
 21
169.1920471
 31
0.0
  0
LINE
  5
159
330
1F
100
AcDbEntity
  8
枠
  6
CONTINUOUS
 62
     3
100
AcDbLine
 10
1180.2566529
 20
169.1920471
 30
0.0
 11
1175.8515931
 21
169.1920471
 31
0.0
  0
LINE
  5
15A
330
1F
100
AcDbEntity
  8
枠
  6
CONTINUOUS
 62
     3
100
AcDbLine
 10
1175.8515931
 20
169.1920471
 30
0.0
 11
1180.2566529
 21
145.0
 31
0.0
  0
LINE
  5
15B
330
1F
100
AcDbEntity
  8
枠
  6
CONTINUOUS
 62
     3
100
AcDbLine
 10
1180.2566529
 20
145.0
 30
0.0
 11
1172.059784
 21
145.0
 31
0.0
  0
LINE
  5
15C
330
1F
100
AcDbEntity
  8
枠
  6
CONTINUOUS
 62
     3
100
AcDbLine
 10
1172.059784
 20
145.0
 30
0.0
 11
1167.6567078
 21
169.191742
 31
0.0
  0
LINE
  5
15D
330
1F
100
AcDbEntity
  8
枠
  6
CONTINUOUS
 62
     3
100
AcDbLine
 10
1167.6567078
 20
169.191742
 30
0.0
 11
1167.6567078
 21
145.0
 31
0.0
  0
LINE
  5
15E
330
1F
100
AcDbEntity
  8
枠
  6
CONTINUOUS
 62
     3
100
AcDbLine
 10
1167.6567078
 20
145.0
 30
0.0
 11
1158.584137
 21
145.0
 31
0.0
  0
LINE
  5
15F
330
1F
100
AcDbEntity
  8
枠
  6
CONTINUOUS
 62
     3
100
AcDbLine
 10
1158.584137
 20
145.0
 30
0.0
 11
1158.584137
 21
169.1920471
 31
0.0
  0
LINE
  5
160
330
1F
100
AcDbEntity
  8
枠
  6
CONTINUOUS
 62
     3
100
AcDbLine
 10
1158.584137
 20
169.1920471
 30
0.0
 11
1154.1810608
 21
145.0
 31
0.0
  0
LINE
  5
161
330
1F
100
AcDbEntity
  8
枠
  6
CONTINUOUS
 62
     3
100
AcDbLine
 10
1154.1810608
 20
145.0
 30
0.0
 11
1145.9840394
 21
145.0
 31
0.0
  0
LINE
  5
162
330
1F
100
AcDbEntity
  8
枠
  6
CONTINUOUS
 62
     3
100
AcDbLine
 10
1145.9840394
 20
145.0
 30
0.0
 11
1150.3871155
 21
169.1920471
 31
0.0
  0
LINE
  5
163
330
1F
100
AcDbEntity
  8
枠
  6
CONTINUOUS
 62
     3
100
AcDbLine
 10
1150.3871155
 20
169.1920471
 30
0.0
 11
1145.9840394
 21
169.1920471
 31
0.0
  0
LINE
  5
164
330
1F
100
AcDbEntity
  8
枠
  6
CONTINUOUS
 62
     3
100
AcDbLine
 10
1145.9840394
 20
169.1920471
 30
0.0
 11
1145.9840394
 21
174.2320252
 31
0.0
  0
LINE
  5
165
330
1F
100
AcDbEntity
  8
枠
  6
CONTINUOUS
 62
     3
100
AcDbLine
 10
1145.9840394
 20
174.2320252
 30
0.0
 11
1158.584137
 21
174.2320252
 31
0.0
  0
LINE
  5
166
330
1F
100
AcDbEntity
  8
枠
  6
CONTINUOUS
 62
     3
100
AcDbLine
 10
1158.584137
 20
174.2320252
 30
0.0
 11
1158.584137
 21
179.2720032
 31
0.0
  0
LINE
  5
167
330
1F
100
AcDbEntity
  8
枠
  6
CONTINUOUS
 62
     3
100
AcDbLine
 10
1158.584137
 20
179.2720032
 30
0.0
 11
1154.0539551
 21
179.2720032
 31
0.0
  0
LINE
  5
168
330
1F
100
AcDbEntity
  8
枠
  6
CONTINUOUS
 62
     3
100
AcDbLine
 10
1154.0539551
 20
179.2720032
 30
0.0
 11
1153.3012391
 21
176.2480164
 31
0.0
  0
LINE
  5
169
330
1F
100
AcDbEntity
  8
枠
  6
CONTINUOUS
 62
     3
100
AcDbLine
 10
1153.3012391
 20
176.2480164
 30
0.0
 11
1144.9894715
 21
176.2480164
 31
0.0
  0
LINE
  5
16A
330
1F
100
AcDbEntity
  8
枠
  6
CONTINUOUS
 62
     3
100
AcDbLine
 10
1122.7999878
 20
184.3119812
 30
0.0
 11
1122.7999878
 21
179.2720032
 31
0.0
  0
LINE
  5
16B
330
1F
100
AcDbEntity
  8
枠
  6
CONTINUOUS
 62
     3
100
AcDbLine
 10
1122.7999878
 20
184.3119812
 30
0.0
 11
1132.8796387
 21
184.3119812
 31
0.0
  0
LINE
  5
16C
330
1F
100
AcDbEntity
  8
枠
  6
CONTINUOUS
 62
     3
100
AcDbLine
 10
1132.8796387
 20
184.3119812
 30
0.0
 11
1132.8796387
 21
189.3519592
 31
0.0
  0
LINE
  5
16D
330
1F
100
AcDbEntity
  8
枠
  6
CONTINUOUS
 62
     3
100
AcDbLine
 10
1132.8796387
 20
189.3519592
 30
0.0
 11
1141.9522095
 21
189.3519592
 31
0.0
  0
LINE
  5
16E
330
1F
100
AcDbEntity
  8
枠
  6
CONTINUOUS
 62
     3
100
AcDbLine
 10
1141.9522095
 20
189.3519592
 30
0.0
 11
1141.9522095
 21
184.3119812
 31
0.0
  0
LINE
  5
16F
330
1F
100
AcDbEntity
  8
枠
  6
CONTINUOUS
 62
     3
100
AcDbLine
 10
1141.9522095
 20
184.3119812
 30
0.0
 11
1144.9751282
 21
184.3119812
 31
0.0
  0
LINE
  5
170
330
1F
100
AcDbEntity
  8
枠
  6
CONTINUOUS
 62
     3
100
AcDbLine
 10
1144.9751282
 20
184.3119812
 30
0.0
 11
1144.9751282
 21
179.2720032
 31
0.0
  0
LINE
  5
171
330
1F
100
AcDbEntity
  8
枠
  6
CONTINUOUS
 62
     3
100
AcDbLine
 10
1144.9751282
 20
179.2720032
 30
0.0
 11
1141.9522095
 21
179.2720032
 31
0.0
  0
LINE
  5
172
330
1F
100
AcDbEntity
  8
枠
  6
CONTINUOUS
 62
     3
100
AcDbLine
 10
1141.9522095
 20
179.2720032
 30
0.0
 11
1144.9751282
 21
175.1100159
 31
0.0
  0
LINE
  5
173
330
1F
100
AcDbEntity
  8
枠
  6
CONTINUOUS
 62
     3
100
AcDbLine
 10
1144.9751282
 20
175.1100159
 30
0.0
 11
1144.9751282
 21
164.8207092
 31
0.0
  0
LINE
  5
174
330
1F
100
AcDbEntity
  8
枠
  6
CONTINUOUS
 62
     3
100
AcDbLine
 10
1144.9751282
 20
164.8207092
 30
0.0
 11
1141.9522095
 21
168.9828491
 31
0.0
  0
LINE
  5
175
330
1F
100
AcDbEntity
  8
枠
  6
CONTINUOUS
 62
     3
100
AcDbLine
 10
1141.9522095
 20
168.9828491
 30
0.0
 11
1141.9522095
 21
145.0
 31
0.0
  0
LINE
  5
176
330
1F
100
AcDbEntity
  8
枠
  6
CONTINUOUS
 62
     3
100
AcDbLine
 10
1141.9522095
 20
145.0
 30
0.0
 11
1132.8796387
 21
145.0
 31
0.0
  0
LINE
  5
177
330
1F
100
AcDbEntity
  8
枠
  6
CONTINUOUS
 62
     3
100
AcDbLine
 10
1132.8796387
 20
145.0
 30
0.0
 11
1132.8796387
 21
179.2720032
 31
0.0
  0
LINE
  5
178
330
1F
100
AcDbEntity
  8
枠
  6
CONTINUOUS
 62
     3
100
AcDbLine
 10
1132.4838257
 20
179.2720032
 30
0.0
 11
1128.8806153
 21
145.0
 31
0.0
  0
LINE
  5
179
330
1F
100
AcDbEntity
  8
枠
  6
CONTINUOUS
 62
     3
100
AcDbLine
 10
1128.8806153
 20
145.0
 30
0.0
 11
1122.7999878
 21
145.0
 31
0.0
  0
LINE
  5
17A
330
1F
100
AcDbEntity
  8
枠
  6
CONTINUOUS
 62
     3
100
AcDbLine
 10
1122.7999878
 20
145.0
 30
0.0
 11
1126.4031983
 21
179.2720032
 31
0.0
  0
LINE
  5
17B
330
1F
100
AcDbEntity
  8
枠
  6
CONTINUOUS
 62
     3
100
AcDbLine
 10
1126.4031983
 20
179.2720032
 30
0.0
 11
1122.7999878
 21
179.2720032
 31
0.0
  0
LINE
  5
17C
330
1F
100
AcDbEntity
  8
枠
  6
CONTINUOUS
 62
     3
100
AcDbLine
 10
1185.2955628
 20
173.2240296
 30
0.0
 11
1185.2955628
 21
167.1760559
 31
0.0
  0
LINE
  5
17D
330
1F
100
AcDbEntity
  8
枠
  6
CONTINUOUS
 62
     3
100
AcDbLine
 10
1185.2955628
 20
173.2240296
 30
0.0
 11
1215.5363465
 21
173.2240296
 31
0.0
  0
LINE
  5
17E
330
1F
100
AcDbEntity
  8
枠
  6
CONTINUOUS
 62
     3
100
AcDbLine
 10
1215.5363465
 20
173.2240296
 30
0.0
 11
1215.5363465
 21
167.1760559
 31
0.0
  0
LINE
  5
17F
330
1F
100
AcDbEntity
  8
枠
  6
CONTINUOUS
 62
     3
100
AcDbLine
 10
1215.5363465
 20
167.1760559
 30
0.0
 11
1205.9591675
 21
167.1760559
 31
0.0
  0
LINE
  5
180
330
1F
100
AcDbEntity
  8
枠
  6
CONTINUOUS
 62
     3
100
AcDbLine
 10
1205.9591675
 20
167.1760559
 30
0.0
 11
1205.9591675
 21
158.7741089
 31
0.0
  0
LINE
  5
181
330
1F
100
AcDbEntity
  8
枠
  6
CONTINUOUS
 62
     3
100
AcDbLine
 10
1205.9591675
 20
158.7741089
 30
0.0
 11
1216.040802
 21
160.9165955
 31
0.0
  0
LINE
  5
182
330
1F
100
AcDbEntity
  8
枠
  6
CONTINUOUS
 62
     3
100
AcDbLine
 10
1216.040802
 20
160.9165955
 30
0.0
 11
1216.040802
 21
151.6419983
 31
0.0
  0
LINE
  5
183
330
1F
100
AcDbEntity
  8
枠
  6
CONTINUOUS
 62
     3
100
AcDbLine
 10
1216.040802
 20
151.6419983
 30
0.0
 11
1184.7909546
 21
145.0
 31
0.0
  0
LINE
  5
184
330
1F
100
AcDbEntity
  8
枠
  6
CONTINUOUS
 62
     3
100
AcDbLine
 10
1184.7909546
 20
145.0
 30
0.0
 11
1184.7909546
 21
154.2745972
 31
0.0
  0
LINE
  5
185
330
1F
100
AcDbEntity
  8
枠
  6
CONTINUOUS
 62
     3
100
AcDbLine
 10
1184.7909546
 20
154.2745972
 30
0.0
 11
1194.8725892
 21
156.4172363
 31
0.0
  0
LINE
  5
186
330
1F
100
AcDbEntity
  8
枠
  6
CONTINUOUS
 62
     3
100
AcDbLine
 10
1194.8725892
 20
156.4172363
 30
0.0
 11
1194.8725892
 21
167.1760559
 31
0.0
  0
LINE
  5
187
330
1F
100
AcDbEntity
  8
枠
  6
CONTINUOUS
 62
     3
100
AcDbLine
 10
1194.8725892
 20
167.1760559
 30
0.0
 11
1185.2955628
 21
167.1760559
 31
0.0
  0
LINE
  5
188
330
1F
100
AcDbEntity
  8
枠
  6
CONTINUOUS
 62
     3
100
AcDbLine
 10
1182.2726441
 20
185.3199768
 30
0.0
 11
1182.2726441
 21
179.2720032
 31
0.0
  0
LINE
  5
189
330
1F
100
AcDbEntity
  8
枠
  6
CONTINUOUS
 62
     3
100
AcDbLine
 10
1182.2726441
 20
185.3199768
 30
0.0
 11
1212.2448731
 21
185.3199768
 31
0.0
  0
LINE
  5
18A
330
1F
100
AcDbEntity
  8
枠
  6
CONTINUOUS
 62
     3
100
AcDbLine
 10
1212.2448731
 20
185.3199768
 30
0.0
 11
1210.7785035
 21
189.3519592
 31
0.0
  0
LINE
  5
18B
330
1F
100
AcDbEntity
  8
枠
  6
CONTINUOUS
 62
     3
100
AcDbLine
 10
1210.7785035
 20
189.3519592
 30
0.0
 11
1222.5765992
 21
189.3519592
 31
0.0
  0
LINE
  5
18C
330
1F
100
AcDbEntity
  8
枠
  6
CONTINUOUS
 62
     3
100
AcDbLine
 10
1222.5765992
 20
189.3519592
 30
0.0
 11
1224.0449524
 21
185.3199768
 31
0.0
  0
LINE
  5
18D
330
1F
100
AcDbEntity
  8
枠
  6
CONTINUOUS
 62
     3
100
AcDbLine
 10
1224.0449524
 20
185.3199768
 30
0.0
 11
1226.6249085
 21
185.3199768
 31
0.0
  0
LINE
  5
18E
330
1F
100
AcDbEntity
  8
枠
  6
CONTINUOUS
 62
     3
100
AcDbLine
 10
1226.6249085
 20
185.3199768
 30
0.0
 11
1226.6249085
 21
189.3519592
 31
0.0
  0
LINE
  5
18F
330
1F
100
AcDbEntity
  8
枠
  6
CONTINUOUS
 62
     3
100
AcDbLine
 10
1226.6249085
 20
189.3519592
 30
0.0
 11
1235.6954957
 21
189.3519592
 31
0.0
  0
LINE
  5
190
330
1F
100
AcDbEntity
  8
枠
  6
CONTINUOUS
 62
     3
100
AcDbLine
 10
1235.6954957
 20
189.3519592
 30
0.0
 11
1235.6954957
 21
185.3199768
 31
0.0
  0
LINE
  5
191
330
1F
100
AcDbEntity
  8
枠
  6
CONTINUOUS
 62
     3
100
AcDbLine
 10
1235.6954957
 20
185.3199768
 30
0.0
 11
1238.720398
 21
185.3199768
 31
0.0
  0
LINE
  5
192
330
1F
100
AcDbEntity
  8
枠
  6
CONTINUOUS
 62
     3
100
AcDbLine
 10
1238.720398
 20
185.3199768
 30
0.0
 11
1238.720398
 21
179.2720032
 31
0.0
  0
LINE
  5
193
330
1F
100
AcDbEntity
  8
枠
  6
CONTINUOUS
 62
     3
100
AcDbLine
 10
1238.720398
 20
179.2720032
 30
0.0
 11
1226.2454224
 21
179.2720032
 31
0.0
  0
LINE
  5
194
330
1F
100
AcDbEntity
  8
枠
  6
CONTINUOUS
 62
     3
100
AcDbLine
 10
1226.2454224
 20
179.2720032
 30
0.0
 11
1238.720398
 21
145.0
 31
0.0
  0
LINE
  5
195
330
1F
100
AcDbEntity
  8
枠
  6
CONTINUOUS
 62
     3
100
AcDbLine
 10
1238.720398
 20
145.0
 30
0.0
 11
1226.9201661
 21
145.0
 31
0.0
  0
LINE
  5
196
330
1F
100
AcDbEntity
  8
枠
  6
CONTINUOUS
 62
     3
100
AcDbLine
 10
1226.9201661
 20
145.0
 30
0.0
 11
1214.4473267
 21
179.2720032
 31
0.0
  0
LINE
  5
197
330
1F
100
AcDbEntity
  8
枠
  6
CONTINUOUS
 62
     3
100
AcDbLine
 10
1214.4473267
 20
179.2720032
 30
0.0
 11
1182.2726441
 21
179.2720032
 31
0.0
  0
LINE
  5
198
330
1F
100
AcDbEntity
  8
枠
  6
CONTINUOUS
 62
     3
100
AcDbLine
 10
1240.7363892
 20
180.7478333
 30
0.0
 11
1240.7363892
 21
174.3699646
 31
0.0
  0
LINE
  5
199
330
1F
100
AcDbEntity
  8
枠
  6
CONTINUOUS
 62
     3
100
AcDbLine
 10
1240.7363892
 20
180.7478333
 30
0.0
 11
1269.4636536
 21
190.3599548
 31
0.0
  0
LINE
  5
19A
330
1F
100
AcDbEntity
  8
枠
  6
CONTINUOUS
 62
     3
100
AcDbLine
 10
1269.4636536
 20
190.3599548
 30
0.0
 11
1298.1910706
 21
180.7475281
 31
0.0
  0
LINE
  5
19B
330
1F
100
AcDbEntity
  8
枠
  6
CONTINUOUS
 62
     3
100
AcDbLine
 10
1298.1910706
 20
180.7475281
 30
0.0
 11
1298.1910706
 21
174.3699646
 31
0.0
  0
LINE
  5
19C
330
1F
100
AcDbEntity
  8
枠
  6
CONTINUOUS
 62
     3
100
AcDbLine
 10
1298.1910706
 20
174.3699646
 30
0.0
 11
1289.624939
 21
177.2367859
 31
0.0
  0
LINE
  5
19D
330
1F
100
AcDbEntity
  8
枠
  6
CONTINUOUS
 62
     3
100
AcDbLine
 10
1289.624939
 20
177.2367859
 30
0.0
 11
1289.624939
 21
172.216034
 31
0.0
  0
LINE
  5
19E
330
1F
100
AcDbEntity
  8
枠
  6
CONTINUOUS
 62
     3
100
AcDbLine
 10
1289.624939
 20
172.216034
 30
0.0
 11
1249.3045044
 21
172.216034
 31
0.0
  0
LINE
  5
19F
330
1F
100
AcDbEntity
  8
枠
  6
CONTINUOUS
 62
     3
100
AcDbLine
 10
1249.3045044
 20
172.216034
 30
0.0
 11
1249.3045044
 21
177.2367859
 31
0.0
  0
LINE
  5
1A0
330
1F
100
AcDbEntity
  8
枠
  6
CONTINUOUS
 62
     3
100
AcDbLine
 10
1249.3045044
 20
177.2367859
 30
0.0
 11
1240.7363892
 21
174.3699646
 31
0.0
  0
LINE
  5
1A1
330
1F
100
AcDbEntity
  8
枠
  6
CONTINUOUS
 62
     3
100
AcDbLine
 10
1252.3745728
 20
178.2640076
 30
0.0
 11
1269.4636536
 21
183.9822388
 31
0.0
  0
LINE
  5
1A2
330
1F
100
AcDbEntity
  8
枠
  6
CONTINUOUS
 62
     3
100
AcDbLine
 10
1269.4636536
 20
183.9822388
 30
0.0
 11
1286.5548707
 21
178.2640076
 31
0.0
  0
LINE
  5
1A3
330
1F
100
AcDbEntity
  8
枠
  6
CONTINUOUS
 62
     3
100
AcDbLine
 10
1286.5548707
 20
178.2640076
 30
0.0
 11
1252.3745728
 21
178.2640076
 31
0.0
  0
LINE
  5
1A4
330
1F
100
AcDbEntity
  8
枠
  6
CONTINUOUS
 62
     3
100
AcDbLine
 10
1240.7363892
 20
168.1838989
 30
0.0
 11
1240.7363892
 21
162.1359253
 31
0.0
  0
LINE
  5
1A5
330
1F
100
AcDbEntity
  8
枠
  6
CONTINUOUS
 62
     3
100
AcDbLine
 10
1240.7363892
 20
168.1838989
 30
0.0
 11
1298.1910706
 21
168.1838989
 31
0.0
  0
LINE
  5
1A6
330
1F
100
AcDbEntity
  8
枠
  6
CONTINUOUS
 62
     3
100
AcDbLine
 10
1298.1910706
 20
168.1838989
 30
0.0
 11
1298.1910706
 21
162.1359253
 31
0.0
  0
LINE
  5
1A7
330
1F
100
AcDbEntity
  8
枠
  6
CONTINUOUS
 62
     3
100
AcDbLine
 10
1298.1910706
 20
162.1359253
 30
0.0
 11
1290.2011109
 21
162.1359253
 31
0.0
  0
LINE
  5
1A8
330
1F
100
AcDbEntity
  8
枠
  6
CONTINUOUS
 62
     3
100
AcDbLine
 10
1290.2011109
 20
162.1359253
 30
0.0
 11
1298.1910706
 21
145.0
 31
0.0
  0
LINE
  5
1A9
330
1F
100
AcDbEntity
  8
枠
  6
CONTINUOUS
 62
     3
100
AcDbLine
 10
1298.1910706
 20
145.0
 30
0.0
 11
1240.7363892
 21
145.0
 31
0.0
  0
LINE
  5
1AA
330
1F
100
AcDbEntity
  8
枠
  6
CONTINUOUS
 62
     3
100
AcDbLine
 10
1240.7363892
 20
145.0
 30
0.0
 11
1248.7261963
 21
162.1359253
 31
0.0
  0
LINE
  5
1AB
330
1F
100
AcDbEntity
  8
枠
  6
CONTINUOUS
 62
     3
100
AcDbLine
 10
1248.7261963
 20
162.1359253
 30
0.0
 11
1240.7363892
 21
162.1359253
 31
0.0
  0
LINE
  5
1AC
330
1F
100
AcDbEntity
  8
枠
  6
CONTINUOUS
 62
     3
100
AcDbLine
 10
1259.8475647
 20
162.1359253
 30
0.0
 11
1279.0797425
 21
162.1359253
 31
0.0
  0
LINE
  5
1AD
330
1F
100
AcDbEntity
  8
枠
  6
CONTINUOUS
 62
     3
100
AcDbLine
 10
1279.0797425
 20
162.1359253
 30
0.0
 11
1284.2497254
 21
151.0479736
 31
0.0
  0
LINE
  5
1AE
330
1F
100
AcDbEntity
  8
枠
  6
CONTINUOUS
 62
     3
100
AcDbLine
 10
1284.2497254
 20
151.0479736
 30
0.0
 11
1254.6775818
 21
151.0479736
 31
0.0
  0
LINE
  5
1AF
330
1F
100
AcDbEntity
  8
枠
  6
CONTINUOUS
 62
     3
100
AcDbLine
 10
1259.8475647
 20
162.1359253
 30
0.0
 11
1254.6775818
 21
151.0479736
 31
0.0
  0
LINE
  5
1B0
330
1F
100
AcDbEntity
  8
枠
  6
CONTINUOUS
 62
     3
100
AcDbLine
 10
1327.4249268
 20
178.2640076
 30
0.0
 11
1327.4249268
 21
172.216034
 31
0.0
  0
LINE
  5
1B1
330
1F
100
AcDbEntity
  8
枠
  6
CONTINUOUS
 62
     3
100
AcDbLine
 10
1327.4249268
 20
178.2640076
 30
0.0
 11
1336.495514
 21
178.2640076
 31
0.0
  0
LINE
  5
1B2
330
1F
100
AcDbEntity
  8
枠
  6
CONTINUOUS
 62
     3
100
AcDbLine
 10
1336.495514
 20
178.2640076
 30
0.0
 11
1336.495514
 21
189.3519592
 31
0.0
  0
LINE
  5
1B3
330
1F
100
AcDbEntity
  8
枠
  6
CONTINUOUS
 62
     3
100
AcDbLine
 10
1336.495514
 20
189.3519592
 30
0.0
 11
1346.5750123
 21
189.3519592
 31
0.0
  0
LINE
  5
1B4
330
1F
100
AcDbEntity
  8
枠
  6
CONTINUOUS
 62
     3
100
AcDbLine
 10
1346.5750123
 20
189.3519592
 30
0.0
 11
1346.5750123
 21
178.2640076
 31
0.0
  0
LINE
  5
1B5
330
1F
100
AcDbEntity
  8
枠
  6
CONTINUOUS
 62
     3
100
AcDbLine
 10
1346.5750123
 20
178.2640076
 30
0.0
 11
1355.6477356
 21
178.2640076
 31
0.0
  0
LINE
  5
1B6
330
1F
100
AcDbEntity
  8
枠
  6
CONTINUOUS
 62
     3
100
AcDbLine
 10
1355.6477356
 20
178.2640076
 30
0.0
 11
1355.6477356
 21
172.216034
 31
0.0
  0
LINE
  5
1B7
330
1F
100
AcDbEntity
  8
枠
  6
CONTINUOUS
 62
     3
100
AcDbLine
 10
1355.6477356
 20
172.216034
 30
0.0
 11
1346.5750123
 21
172.216034
 31
0.0
  0
LINE
  5
1B8
330
1F
100
AcDbEntity
  8
枠
  6
CONTINUOUS
 62
     3
100
AcDbLine
 10
1346.5750123
 20
172.216034
 30
0.0
 11
1346.5750123
 21
151.0479736
 31
0.0
  0
LINE
  5
1B9
330
1F
100
AcDbEntity
  8
枠
  6
CONTINUOUS
 62
     3
100
AcDbLine
 10
1346.5750123
 20
151.0479736
 30
0.0
 11
1356.6566468
 21
151.0479736
 31
0.0
  0
LINE
  5
1BA
330
1F
100
AcDbEntity
  8
枠
  6
CONTINUOUS
 62
     3
100
AcDbLine
 10
1356.6566468
 20
151.0479736
 30
0.0
 11
1356.6566468
 21
145.0
 31
0.0
  0
LINE
  5
1BB
330
1F
100
AcDbEntity
  8
枠
  6
CONTINUOUS
 62
     3
100
AcDbLine
 10
1356.6566468
 20
145.0
 30
0.0
 11
1323.3909607
 21
145.0
 31
0.0
  0
LINE
  5
1BC
330
1F
100
AcDbEntity
  8
枠
  6
CONTINUOUS
 62
     3
100
AcDbLine
 10
1323.3909607
 20
145.0
 30
0.0
 11
1323.3909607
 21
151.0479736
 31
0.0
  0
LINE
  5
1BD
330
1F
100
AcDbEntity
  8
枠
  6
CONTINUOUS
 62
     3
100
AcDbLine
 10
1323.3909607
 20
151.0479736
 30
0.0
 11
1336.495514
 21
151.0479736
 31
0.0
  0
LINE
  5
1BE
330
1F
100
AcDbEntity
  8
枠
  6
CONTINUOUS
 62
     3
100
AcDbLine
 10
1336.495514
 20
151.0479736
 30
0.0
 11
1336.495514
 21
172.216034
 31
0.0
  0
LINE
  5
1BF
330
1F
100
AcDbEntity
  8
枠
  6
CONTINUOUS
 62
     3
100
AcDbLine
 10
1336.495514
 20
172.216034
 30
0.0
 11
1327.4249268
 21
172.216034
 31
0.0
  0
LINE
  5
1C0
330
1F
100
AcDbEntity
  8
枠
  6
CONTINUOUS
 62
     3
100
AcDbLine
 10
1300.2069092
 20
185.3199768
 30
0.0
 11
1300.2069092
 21
179.2720032
 31
0.0
  0
LINE
  5
1C1
330
1F
100
AcDbEntity
  8
枠
  6
CONTINUOUS
 62
     3
100
AcDbLine
 10
1300.2069092
 20
185.3199768
 30
0.0
 11
1309.2796326
 21
185.3199768
 31
0.0
  0
LINE
  5
1C2
330
1F
100
AcDbEntity
  8
枠
  6
CONTINUOUS
 62
     3
100
AcDbLine
 10
1309.2796326
 20
185.3199768
 30
0.0
 11
1309.2796326
 21
189.3519592
 31
0.0
  0
LINE
  5
1C3
330
1F
100
AcDbEntity
  8
枠
  6
CONTINUOUS
 62
     3
100
AcDbLine
 10
1309.2796326
 20
189.3519592
 30
0.0
 11
1319.3591309
 21
189.3519592
 31
0.0
  0
LINE
  5
1C4
330
1F
100
AcDbEntity
  8
枠
  6
CONTINUOUS
 62
     3
100
AcDbLine
 10
1319.3591309
 20
189.3519592
 30
0.0
 11
1319.3591309
 21
185.3199768
 31
0.0
  0
LINE
  5
1C5
330
1F
100
AcDbEntity
  8
枠
  6
CONTINUOUS
 62
     3
100
AcDbLine
 10
1319.3591309
 20
185.3199768
 30
0.0
 11
1328.4318543
 21
185.3199768
 31
0.0
  0
LINE
  5
1C6
330
1F
100
AcDbEntity
  8
枠
  6
CONTINUOUS
 62
     3
100
AcDbLine
 10
1328.4318543
 20
185.3199768
 30
0.0
 11
1318.0261231
 21
170.45578
 31
0.0
  0
LINE
  5
1C7
330
1F
100
AcDbEntity
  8
枠
  6
CONTINUOUS
 62
     3
100
AcDbLine
 10
1318.0261231
 20
170.45578
 30
0.0
 11
1327.4249268
 21
163.875885
 31
0.0
  0
LINE
  5
1C8
330
1F
100
AcDbEntity
  8
枠
  6
CONTINUOUS
 62
     3
100
AcDbLine
 10
1327.4249268
 20
163.875885
 30
0.0
 11
1327.4249268
 21
152.8012085
 31
0.0
  0
LINE
  5
1C9
330
1F
100
AcDbEntity
  8
枠
  6
CONTINUOUS
 62
     3
100
AcDbLine
 10
1327.4249268
 20
152.8012085
 30
0.0
 11
1319.3591309
 21
158.4477234
 31
0.0
  0
LINE
  5
1CA
330
1F
100
AcDbEntity
  8
枠
  6
CONTINUOUS
 62
     3
100
AcDbLine
 10
1319.3591309
 20
158.4477234
 30
0.0
 11
1319.3591309
 21
145.0
 31
0.0
  0
LINE
  5
1CB
330
1F
100
AcDbEntity
  8
枠
  6
CONTINUOUS
 62
     3
100
AcDbLine
 10
1319.3591309
 20
145.0
 30
0.0
 11
1309.2796326
 21
145.0
 31
0.0
  0
LINE
  5
1CC
330
1F
100
AcDbEntity
  8
枠
  6
CONTINUOUS
 62
     3
100
AcDbLine
 10
1309.2796326
 20
145.0
 30
0.0
 11
1309.2796326
 21
157.9598999
 31
0.0
  0
LINE
  5
1CD
330
1F
100
AcDbEntity
  8
枠
  6
CONTINUOUS
 62
     3
100
AcDbLine
 10
1309.2796326
 20
157.9598999
 30
0.0
 11
1300.2069092
 21
145.0
 31
0.0
  0
LINE
  5
1CE
330
1F
100
AcDbEntity
  8
枠
  6
CONTINUOUS
 62
     3
100
AcDbLine
 10
1300.2069092
 20
145.0
 30
0.0
 11
1300.2069092
 21
160.819397
 31
0.0
  0
LINE
  5
1CF
330
1F
100
AcDbEntity
  8
枠
  6
CONTINUOUS
 62
     3
100
AcDbLine
 10
1300.2069092
 20
160.819397
 30
0.0
 11
1313.1248475
 21
179.2720032
 31
0.0
  0
LINE
  5
1D0
330
1F
100
AcDbEntity
  8
枠
  6
CONTINUOUS
 62
     3
100
AcDbLine
 10
1313.1248475
 20
179.2720032
 30
0.0
 11
1300.2069092
 21
179.2720032
 31
0.0
  0
ARC
  5
1D1
330
1F
100
AcDbEntity
  8
枠
  6
CONTINUOUS
 62
     2
100
AcDbCircle
 10
858.1610108000001
 20
171.200409
 30
0.0
 40
6.300122100000003
100
AcDbArc
 50
310.7683105899999
 51
335.9987793399999
  0
LINE
  5
1D2
330
1F
100
AcDbEntity
  8
枠
  6
CONTINUOUS
 62
     2
100
AcDbLine
 10
865.4002380999999
 20
171.9641113
 30
0.0
 11
863.9196778000002
 21
168.6390686
 31
0.0
  0
LINE
  5
1D3
330
1F
100
AcDbEntity
  8
枠
  6
CONTINUOUS
 62
     2
100
AcDbLine
 10
847.9850770000002
 20
175.7440186
 30
0.0
 11
871.2184144
 21
175.7440186
 31
0.0
  0
ARC
  5
1D4
330
1F
100
AcDbEntity
  8
枠
  6
CONTINUOUS
 62
     2
100
AcDbCircle
 10
951.2992859000002
 20
163.1440735
 30
0.0
 40
15.62400820000001
100
AcDbArc
 50
270.0000305200002
 51
324.0011596700003
  0
ARC
  5
1D5
330
1F
100
AcDbEntity
  8
枠
  6
CONTINUOUS
 62
     2
100
AcDbCircle
 10
951.2992859000002
 20
163.1440735
 30
0.0
 40
13.1040096
100
AcDbArc
 50
270.0000305200001
 51
324.0011596700003
  0
ARC
  5
1D6
330
1F
100
AcDbEntity
  8
枠
  6
CONTINUOUS
 62
     2
100
AcDbCircle
 10
798.5656739000001
 20
163.1440735
 30
0.0
 40
15.6239796
100
AcDbArc
 50
270.0000305200004
 51
333.9985504200004
  0
ARC
  5
1D7
330
1F
100
AcDbEntity
  8
枠
  6
CONTINUOUS
 62
     2
100
AcDbCircle
 10
797.765503
 20
163.1440735
 30
0.0
 40
10.583992
100
AcDbArc
 50
270.0000305199999
 51
333.99855042
  0
ARC
  5
1D8
330
1F
100
AcDbEntity
  8
枠
  6
CONTINUOUS
 62
     2
100
AcDbCircle
 10
798.1655883999999
 20
163.1440735
 30
0.0
 40
13.1039906
100
AcDbArc
 50
270.0000305200002
 51
333.9985504200004
  0
LINE
  5
1D9
330
1F
100
AcDbEntity
  8
枠
  6
CONTINUOUS
 62
     2
100
AcDbLine
 10
771.8408204000002
 20
187.0321274
 30
0.0
 11
796.3839722
 21
187.0321274
 31
0.0
  0
LINE
  5
1DA
330
1F
100
AcDbEntity
  8
枠
  6
CONTINUOUS
 62
     2
100
AcDbLine
 10
771.8408204000002
 20
184.712143
 30
0.0
 11
796.3839722
 21
184.712143
 31
0.0
  0
LINE
  5
1DB
330
1F
100
AcDbEntity
  8
枠
  6
CONTINUOUS
 62
     2
100
AcDbLine
 10
771.8408204000002
 20
182.3923111
 30
0.0
 11
796.3839722
 21
182.3923111
 31
0.0
  0
LINE
  5
1DC
330
1F
100
AcDbEntity
  8
枠
  6
CONTINUOUS
 62
     2
100
AcDbLine
 10
771.8408204000002
 20
175.1360321
 30
0.0
 11
796.3839722
 21
175.1360321
 31
0.0
  0
LINE
  5
1DD
330
1F
100
AcDbEntity
  8
枠
  6
CONTINUOUS
 62
     2
100
AcDbLine
 10
771.8408204000002
 20
172.6158905
 30
0.0
 11
796.3839722
 21
172.6158905
 31
0.0
  0
LINE
  5
1DE
330
1F
100
AcDbEntity
  8
枠
  6
CONTINUOUS
 62
     2
100
AcDbLine
 10
771.8408204000002
 20
170.2960587
 30
0.0
 11
796.3839722
 21
170.2960587
 31
0.0
  0
LINE
  5
1DF
330
1F
100
AcDbEntity
  8
枠
  6
CONTINUOUS
 62
     2
100
AcDbLine
 10
771.8408204000002
 20
152.5599671
 30
0.0
 11
797.765503
 21
152.5599671
 31
0.0
  0
LINE
  5
1E0
330
1F
100
AcDbEntity
  8
枠
  6
CONTINUOUS
 62
     2
100
AcDbLine
 10
771.8408204000002
 20
150.039978
 30
0.0
 11
797.765503
 21
150.039978
 31
0.0
  0
LINE
  5
1E1
330
1F
100
AcDbEntity
  8
枠
  6
CONTINUOUS
 62
     2
100
AcDbLine
 10
771.8408204000002
 20
147.519989
 30
0.0
 11
797.765503
 21
147.519989
 31
0.0
  0
LINE
  5
1E2
330
1F
100
AcDbEntity
  8
枠
  6
CONTINUOUS
 62
     2
100
AcDbLine
 10
807.2770691
 20
158.5040283
 30
0.0
 11
816.1082458999999
 21
176.6103649
 31
0.0
  0
LINE
  5
1E3
330
1F
100
AcDbEntity
  8
枠
  6
CONTINUOUS
 62
     2
100
AcDbLine
 10
809.9412537000001
 20
157.3995972
 30
0.0
 11
819.3116761
 21
176.6103745
 31
0.0
  0
LINE
  5
1E4
330
1F
100
AcDbEntity
  8
枠
  6
CONTINUOUS
 62
     2
100
AcDbLine
 10
812.6052857000002
 20
156.2942505
 30
0.0
 11
822.5131226000002
 21
176.6103459
 31
0.0
  0
LINE
  5
1E5
330
1F
100
AcDbEntity
  8
枠
  6
CONTINUOUS
 62
     2
100
AcDbLine
 10
809.1363526
 20
186.6959763
 30
0.0
 11
813.5183716
 21
186.6959763
 31
0.0
  0
LINE
  5
1E6
330
1F
100
AcDbEntity
  8
枠
  6
CONTINUOUS
 62
     2
100
AcDbLine
 10
809.1363526
 20
183.8399887
 30
0.0
 11
813.5183716
 21
183.8399887
 31
0.0
  0
LINE
  5
1E7
330
1F
100
AcDbEntity
  8
枠
  6
CONTINUOUS
 62
     2
100
AcDbLine
 10
820.2249145999999
 20
186.6959763
 30
0.0
 11
824.6069335999999
 21
186.6959763
 31
0.0
  0
LINE
  5
1E8
330
1F
100
AcDbEntity
  8
枠
  6
CONTINUOUS
 62
     2
100
AcDbLine
 10
820.2249145999999
 20
183.8399887
 30
0.0
 11
824.6069335999999
 21
183.8399887
 31
0.0
  0
LINE
  5
1E9
330
1F
100
AcDbEntity
  8
枠
  6
CONTINUOUS
 62
     2
100
AcDbLine
 10
831.3134766000002
 20
173.2241821
 30
0.0
 11
843.2806397000002
 21
173.2241821
 31
0.0
  0
LINE
  5
1EA
330
1F
100
AcDbEntity
  8
枠
  6
CONTINUOUS
 62
     2
100
AcDbLine
 10
840.3753663
 20
183.5026837
 30
0.0
 11
841.6050721
 21
175.7440186
 31
0.0
  0
LINE
  5
1EB
330
1F
100
AcDbEntity
  8
枠
  6
CONTINUOUS
 62
     2
100
AcDbLine
 10
846.1880494000002
 20
146.8173027
 30
0.0
 11
842.4490357000002
 21
170.4190445
 31
0.0
  0
ARC
  5
1EC
330
1F
100
AcDbEntity
  8
枠
  6
CONTINUOUS
 62
     2
100
AcDbCircle
 10
857.9609681
 20
171.200409
 30
0.0
 40
8.8201213
100
AcDbArc
 50
272.67138672
 51
335.9987793000004
  0
ARC
  5
1ED
330
1F
100
AcDbEntity
  8
枠
  6
CONTINUOUS
 62
     2
100
AcDbCircle
 10
857.7609253
 20
171.200409
 30
0.0
 40
11.3401127
100
AcDbArc
 50
267.3674316300005
 51
335.9987792900001
  0
LINE
  5
1EE
330
1F
100
AcDbEntity
  8
枠
  6
CONTINUOUS
 62
     2
100
AcDbLine
 10
872.3516846000001
 20
176.0905266
 30
0.0
 11
868.1214905000002
 21
166.5885925
 31
0.0
  0
LINE
  5
1EF
330
1F
100
AcDbEntity
  8
枠
  6
CONTINUOUS
 62
     2
100
AcDbLine
 10
852.0906067
 20
146.8173027
 30
0.0
 11
848.2203675
 21
171.2488175
 31
0.0
  0
LINE
  5
1F0
330
1F
100
AcDbEntity
  8
枠
  6
CONTINUOUS
 62
     2
100
AcDbLine
 10
849.3392944999999
 20
146.8173027
 30
0.0
 11
843.5284423999999
 21
183.5026741
 31
0.0
  0
LINE
  5
1F1
330
1F
100
AcDbEntity
  8
枠
  6
CONTINUOUS
 62
     2
100
AcDbLine
 10
846.2797547
 20
183.5026741
 30
0.0
 11
847.3956298999999
 21
176.459465
 31
0.0
  0
LINE
  5
1F2
330
1F
100
AcDbEntity
  8
枠
  6
CONTINUOUS
 62
     2
100
AcDbLine
 10
831.3134766000002
 20
175.7440186
 30
0.0
 11
839.6051026
 21
175.7440186
 31
0.0
  0
LINE
  5
1F3
330
1F
100
AcDbEntity
  8
枠
  6
CONTINUOUS
 62
     2
100
AcDbLine
 10
868.6698914
 20
173.5703945
 30
0.0
 11
866.0205079000002
 21
167.6135254
 31
0.0
  0
LINE
  5
1F4
330
1F
100
AcDbEntity
  8
枠
  6
CONTINUOUS
 62
     2
100
AcDbLine
 10
847.1073914
 20
173.2241821
 30
0.0
 11
866.3381958
 21
173.2241821
 31
0.0
  0
ARC
  5
1F5
330
1F
100
AcDbEntity
  8
枠
  6
CONTINUOUS
 62
     2
100
AcDbCircle
 10
857.5608826000001
 20
171.200409
 30
0.0
 40
13.8601112
100
AcDbArc
 50
269.6113281200003
 51
335.9987792900002
  0
LINE
  5
1F6
330
1F
100
AcDbEntity
  8
枠
  6
CONTINUOUS
 62
     2
100
AcDbLine
 10
874.9098205999999
 20
176.0905552
 30
0.0
 11
870.2224732000002
 21
165.5633545
 31
0.0
  0
LINE
  5
1F7
330
1F
100
AcDbEntity
  8
枠
  6
CONTINUOUS
 62
     2
100
AcDbLine
 10
982.3126221000001
 20
184.3121338
 30
0.0
 11
961.8806458
 21
156.1827088
 31
0.0
  0
LINE
  5
1F8
330
1F
100
AcDbEntity
  8
枠
  6
CONTINUOUS
 62
     2
100
AcDbLine
 10
976.8681336
 20
181.7922974
 30
0.0
 11
959.3420411
 21
157.664032
 31
0.0
  0
ARC
  5
1F9
330
1F
100
AcDbEntity
  8
枠
  6
CONTINUOUS
 62
     2
100
AcDbCircle
 10
951.9993592000001
 20
162.7440643
 30
0.0
 40
9.3240207
100
AcDbArc
 50
270.0000305200004
 51
324.00115967
  0
LINE
  5
1FA
330
1F
100
AcDbEntity
  8
枠
  6
CONTINUOUS
 62
     2
100
AcDbLine
 10
882.8794861
 20
187.0155907
 30
0.0
 11
927.2636414
 21
187.0155907
 31
0.0
  0
LINE
  5
1FB
330
1F
100
AcDbEntity
  8
枠
  6
CONTINUOUS
 62
     2
100
AcDbLine
 10
882.8794861
 20
184.395752
 30
0.0
 11
927.2636414
 21
184.395752
 31
0.0
  0
LINE
  5
1FC
330
1F
100
AcDbEntity
  8
枠
  6
CONTINUOUS
 62
     2
100
AcDbLine
 10
882.8794861
 20
181.675911
 30
0.0
 11
927.2636414
 21
181.675911
 31
0.0
  0
LINE
  5
1FD
330
1F
100
AcDbEntity
  8
枠
  6
CONTINUOUS
 62
     2
100
AcDbLine
 10
878.8476563
 20
152.644043
 30
0.0
 11
931.2954712
 21
152.644043
 31
0.0
  0
LINE
  5
1FE
330
1F
100
AcDbEntity
  8
枠
  6
CONTINUOUS
 62
     2
100
AcDbLine
 10
878.8476563
 20
150.124054
 30
0.0
 11
931.2954712
 21
150.124054
 31
0.0
  0
LINE
  5
1FF
330
1F
100
AcDbEntity
  8
枠
  6
CONTINUOUS
 62
     2
100
AcDbLine
 10
878.8476563
 20
147.4039078
 30
0.0
 11
931.2954712
 21
147.4039078
 31
0.0
  0
LINE
  5
200
330
1F
100
AcDbEntity
  8
枠
  6
CONTINUOUS
 62
     2
100
AcDbLine
 10
942.3521424
 20
186.9321251
 30
0.0
 11
985.2568055
 21
186.9321251
 31
0.0
  0
LINE
  5
201
330
1F
100
AcDbEntity
  8
枠
  6
CONTINUOUS
 62
     2
100
AcDbLine
 10
987.8569031000001
 20
186.8321228
 30
0.0
 11
964.519043
 21
154.7006226
 31
0.0
  0
LINE
  5
202
330
1F
100
AcDbEntity
  8
枠
  6
CONTINUOUS
 62
     2
100
AcDbLine
 10
942.3521424
 20
184.3121338
 30
0.0
 11
980.3125
 21
184.3121338
 31
0.0
  0
LINE
  5
203
330
1F
100
AcDbEntity
  8
枠
  6
CONTINUOUS
 62
     2
100
AcDbLine
 10
951.2992859000002
 20
152.6599693
 30
0.0
 11
938.3203125
 21
152.6599693
 31
0.0
  0
LINE
  5
204
330
1F
100
AcDbEntity
  8
枠
  6
CONTINUOUS
 62
     2
100
AcDbLine
 10
951.2992859000002
 20
150.039978
 30
0.0
 11
938.3203125
 21
150.039978
 31
0.0
  0
LINE
  5
205
330
1F
100
AcDbEntity
  8
枠
  6
CONTINUOUS
 62
     2
100
AcDbLine
 10
951.2992859000002
 20
147.4199867
 30
0.0
 11
938.3203125
 21
147.4199867
 31
0.0
  0
LINE
  5
206
330
1F
100
AcDbEntity
  8
枠
  6
CONTINUOUS
 62
     2
100
AcDbLine
 10
971.4318848
 20
160.7371521
 30
0.0
 11
983.3715821
 21
146.9999981
 31
0.0
  0
LINE
  5
207
330
1F
100
AcDbEntity
  8
枠
  6
CONTINUOUS
 62
     2
100
AcDbLine
 10
972.9534913
 20
162.5305081
 30
0.0
 11
986.4517212
 21
146.9999981
 31
0.0
  0
LINE
  5
208
330
1F
100
AcDbEntity
  8
枠
  6
CONTINUOUS
 62
     2
100
AcDbLine
 10
974.4731141
 20
164.3229485
 30
0.0
 11
989.529419
 21
146.9999981
 31
0.0
  0
LINE
  5
209
330
1F
100
AcDbEntity
  8
枠
  6
CONTINUOUS
 62
     2
100
AcDbLine
 10
975.9927369000002
 20
166.1158466
 30
0.0
 11
992.609253
 21
146.9999981
 31
0.0
  0
LINE
  5
20A
330
1F
100
AcDbEntity
  8
枠
  6
CONTINUOUS
 62
     2
100
AcDbLine
 10
942.3521424
 20
181.5922928
 30
0.0
 11
974.3679810000001
 21
181.5922928
 31
0.0
  0
LINE
  5
20B
330
1F
100
AcDbEntity
  8
枠
  6
CONTINUOUS
 62
     2
100
AcDbLine
 10
1010.8955384
 20
187.0321274
 30
0.0
 11
1059.3113709
 21
187.0321274
 31
0.0
  0
LINE
  5
20C
330
1F
100
AcDbEntity
  8
枠
  6
CONTINUOUS
 62
     2
100
AcDbLine
 10
1010.8955384
 20
184.5121384
 30
0.0
 11
1059.3113709
 21
184.5121384
 31
0.0
  0
LINE
  5
20D
330
1F
100
AcDbEntity
  8
枠
  6
CONTINUOUS
 62
     2
100
AcDbLine
 10
1031.6773987
 20
152.4799156
 30
0.0
 11
1031.6773987
 21
182.2122193
 31
0.0
  0
LINE
  5
20E
330
1F
100
AcDbEntity
  8
枠
  6
CONTINUOUS
 62
     2
100
AcDbLine
 10
1034.1958619
 20
152.4799156
 30
0.0
 11
1034.1958619
 21
182.2122193
 31
0.0
  0
LINE
  5
20F
330
1F
100
AcDbEntity
  8
枠
  6
CONTINUOUS
 62
     2
100
AcDbLine
 10
1036.7141724
 20
152.4799156
 30
0.0
 11
1036.7141724
 21
182.2122193
 31
0.0
  0
LINE
  5
210
330
1F
100
AcDbEntity
  8
枠
  6
CONTINUOUS
 62
     2
100
AcDbLine
 10
1039.0324402
 20
152.4799156
 30
0.0
 11
1039.0324402
 21
182.2122193
 31
0.0
  0
LINE
  5
211
330
1F
100
AcDbEntity
  8
枠
  6
CONTINUOUS
 62
     2
100
AcDbLine
 10
1008.8795472
 20
150.4799175
 30
0.0
 11
1061.3273621
 21
150.4799175
 31
0.0
  0
LINE
  5
212
330
1F
100
AcDbEntity
  8
枠
  6
CONTINUOUS
 62
     2
100
AcDbLine
 10
1008.8795472
 20
147.4599266
 30
0.0
 11
1061.3273621
 21
147.4599266
 31
0.0
  0
LINE
  5
213
330
1F
100
AcDbEntity
  8
枠
  6
CONTINUOUS
 62
     2
100
AcDbLine
 10
1073.127594
 20
187.3519612
 30
0.0
 11
1076.8708802
 21
182.5615025
 31
0.0
  0
LINE
  5
214
330
1F
100
AcDbEntity
  8
枠
  6
CONTINUOUS
 62
     2
100
AcDbLine
 10
1076.3247681
 20
187.3519612
 30
0.0
 11
1080.0680542
 21
182.5615025
 31
0.0
  0
LINE
  5
215
330
1F
100
AcDbEntity
  8
枠
  6
CONTINUOUS
 62
     2
100
AcDbLine
 10
1086.3113404
 20
187.3519612
 30
0.0
 11
1086.3113404
 21
182.9855633
 31
0.0
  0
LINE
  5
216
330
1F
100
AcDbEntity
  8
枠
  6
CONTINUOUS
 62
     2
100
AcDbLine
 10
1089.0298462
 20
187.3519612
 30
0.0
 11
1089.0298462
 21
182.9855633
 31
0.0
  0
LINE
  5
217
330
1F
100
AcDbEntity
  8
枠
  6
CONTINUOUS
 62
     2
100
AcDbLine
 10
1096.3909913
 20
187.3519612
 30
0.0
 11
1096.3909913
 21
182.9855633
 31
0.0
  0
LINE
  5
218
330
1F
100
AcDbEntity
  8
枠
  6
CONTINUOUS
 62
     2
100
AcDbLine
 10
1099.3093873
 20
187.3519612
 30
0.0
 11
1099.3093873
 21
182.9855633
 31
0.0
  0
LINE
  5
219
330
1F
100
AcDbEntity
  8
枠
  6
CONTINUOUS
 62
     2
100
AcDbLine
 10
1108.9956666
 20
187.3519612
 30
0.0
 11
1105.2523804
 21
182.5615025
 31
0.0
  0
LINE
  5
21A
330
1F
100
AcDbEntity
  8
枠
  6
CONTINUOUS
 62
     2
100
AcDbLine
 10
1112.3928833
 20
187.3519612
 30
0.0
 11
1108.6495972
 21
182.5615025
 31
0.0
  0
LINE
  5
21B
330
1F
100
AcDbEntity
  8
枠
  6
CONTINUOUS
 62
     2
100
AcDbLine
 10
1066.3362122
 20
180.9855652
 30
0.0
 11
1118.7840271
 21
180.9855652
 31
0.0
  0
LINE
  5
21C
330
1F
100
AcDbEntity
  8
枠
  6
CONTINUOUS
 62
     2
100
AcDbLine
 10
1079.4317627
 20
173.1882858
 30
0.0
 11
1077.2778321
 21
179.1061783
 31
0.0
  0
LINE
  5
21D
330
1F
100
AcDbEntity
  8
枠
  6
CONTINUOUS
 62
     2
100
AcDbLine
 10
1082.5122071
 20
173.1882858
 30
0.0
 11
1080.3582764
 21
179.1061783
 31
0.0
  0
LINE
  5
21E
330
1F
100
AcDbEntity
  8
枠
  6
CONTINUOUS
 62
     2
100
AcDbLine
 10
1085.3926087
 20
173.1885147
 30
0.0
 11
1083.2411194
 21
179.1059494
 31
0.0
  0
LINE
  5
21F
330
1F
100
AcDbEntity
  8
枠
  6
CONTINUOUS
 62
     2
100
AcDbLine
 10
1099.9194336
 20
173.1880665
 30
0.0
 11
1102.0756531
 21
179.1063976
 31
0.0
  0
LINE
  5
220
330
1F
100
AcDbEntity
  8
枠
  6
CONTINUOUS
 62
     2
100
AcDbLine
 10
1103.0020142
 20
173.1880665
 30
0.0
 11
1105.1582337
 21
179.1063976
 31
0.0
  0
LINE
  5
221
330
1F
100
AcDbEntity
  8
枠
  6
CONTINUOUS
 62
     2
100
AcDbLine
 10
1105.8824158
 20
173.1880665
 30
0.0
 11
1108.0386353
 21
179.1063976
 31
0.0
  0
LINE
  5
222
330
1F
100
AcDbEntity
  8
枠
  6
CONTINUOUS
 62
     2
100
AcDbLine
 10
1066.3362122
 20
171.3088989
 30
0.0
 11
1118.7840271
 21
171.3088989
 31
0.0
  0
LINE
  5
223
330
1F
100
AcDbEntity
  8
枠
  6
CONTINUOUS
 62
     2
100
AcDbLine
 10
1066.3362122
 20
164.3536377
 30
0.0
 11
1087.8387452
 21
164.3536377
 31
0.0
  0
LINE
  5
224
330
1F
100
AcDbEntity
  8
枠
  6
CONTINUOUS
 62
     2
100
AcDbLine
 10
1066.3362122
 20
157.3983765
 30
0.0
 11
1087.8387452
 21
157.3983765
 31
0.0
  0
LINE
  5
225
330
1F
100
AcDbEntity
  8
枠
  6
CONTINUOUS
 62
     2
100
AcDbLine
 10
1097.475586
 20
157.3983765
 30
0.0
 11
1118.7840271
 21
157.3983765
 31
0.0
  0
LINE
  5
226
330
1F
100
AcDbEntity
  8
枠
  6
CONTINUOUS
 62
     2
100
AcDbLine
 10
1069.5088196
 20
146.9999981
 30
0.0
 11
1079.5332337
 21
156.057539
 31
0.0
  0
LINE
  5
227
330
1F
100
AcDbEntity
  8
枠
  6
CONTINUOUS
 62
     2
100
AcDbLine
 10
1072.8677369
 20
146.9999981
 30
0.0
 11
1082.8924561
 21
156.0575581
 31
0.0
  0
LINE
  5
228
330
1F
100
AcDbEntity
  8
枠
  6
CONTINUOUS
 62
     2
100
AcDbLine
 10
1076.0287476
 20
146.9999981
 30
0.0
 11
1086.0534668
 21
156.0575581
 31
0.0
  0
LINE
  5
229
330
1F
100
AcDbEntity
  8
枠
  6
CONTINUOUS
 62
     2
100
AcDbLine
 10
1089.8387146
 20
146.9999981
 30
0.0
 11
1089.8387146
 21
169.3089008
 31
0.0
  0
LINE
  5
22A
330
1F
100
AcDbEntity
  8
枠
  6
CONTINUOUS
 62
     2
100
AcDbLine
 10
1092.7571106
 20
146.9999981
 30
0.0
 11
1092.7571106
 21
169.3089008
 31
0.0
  0
LINE
  5
22B
330
1F
100
AcDbEntity
  8
枠
  6
CONTINUOUS
 62
     2
100
AcDbLine
 10
1095.4756165
 20
146.9999981
 30
0.0
 11
1095.4756165
 21
169.3089008
 31
0.0
  0
LINE
  5
22C
330
1F
100
AcDbEntity
  8
枠
  6
CONTINUOUS
 62
     2
100
AcDbLine
 10
1109.171753
 20
146.9999981
 30
0.0
 11
1099.1473389
 21
156.057539
 31
0.0
  0
LINE
  5
22D
330
1F
100
AcDbEntity
  8
枠
  6
CONTINUOUS
 62
     2
100
AcDbLine
 10
1112.5308228
 20
146.9999981
 30
0.0
 11
1102.5061036
 21
156.0575581
 31
0.0
  0
LINE
  5
22E
330
1F
100
AcDbEntity
  8
枠
  6
CONTINUOUS
 62
     2
100
AcDbLine
 10
1115.8918763
 20
146.9999981
 30
0.0
 11
1105.867157
 21
156.0575581
 31
0.0
  0
LINE
  5
22F
330
1F
100
AcDbEntity
  8
枠
  6
CONTINUOUS
 62
     2
100
AcDbLine
 10
1134.9978638
 20
187.3519612
 30
0.0
 11
1134.9978638
 21
183.7919903
 31
0.0
  0
LINE
  5
230
330
1F
100
AcDbEntity
  8
枠
  6
CONTINUOUS
 62
     2
100
AcDbLine
 10
1137.5161744
 20
187.3519612
 30
0.0
 11
1137.5161744
 21
183.7919903
 31
0.0
  0
LINE
  5
231
330
1F
100
AcDbEntity
  8
枠
  6
CONTINUOUS
 62
     2
100
AcDbLine
 10
1140.0346375
 20
187.3519612
 30
0.0
 11
1140.0346375
 21
183.7919903
 31
0.0
  0
LINE
  5
232
330
1F
100
AcDbEntity
  8
枠
  6
CONTINUOUS
 62
     2
100
AcDbLine
 10
1124.7999573
 20
181.7919922
 30
0.0
 11
1142.9751587
 21
181.7919922
 31
0.0
  0
LINE
  5
233
330
1F
100
AcDbEntity
  8
枠
  6
CONTINUOUS
 62
     2
100
AcDbLine
 10
1124.9441529
 20
146.9890499
 30
0.0
 11
1128.3920289
 21
179.8029423
 31
0.0
  0
LINE
  5
234
330
1F
100
AcDbEntity
  8
枠
  6
CONTINUOUS
 62
     2
100
AcDbLine
 10
1127.276764
 20
146.9890499
 30
0.0
 11
1130.7247925
 21
179.8029423
 31
0.0
  0
LINE
  5
235
330
1F
100
AcDbEntity
  8
枠
  6
CONTINUOUS
 62
     2
100
AcDbLine
 10
1134.9978638
 20
146.9999981
 30
0.0
 11
1134.9978638
 21
179.7919941
 31
0.0
  0
LINE
  5
236
330
1F
100
AcDbEntity
  8
枠
  6
CONTINUOUS
 62
     2
100
AcDbLine
 10
1137.5161744
 20
146.9999981
 30
0.0
 11
1137.5161744
 21
179.7919941
 31
0.0
  0
LINE
  5
237
330
1F
100
AcDbEntity
  8
枠
  6
CONTINUOUS
 62
     2
100
AcDbLine
 10
1140.0346375
 20
146.9999981
 30
0.0
 11
1140.0346375
 21
179.7919941
 31
0.0
  0
LINE
  5
238
330
1F
100
AcDbEntity
  8
枠
  6
CONTINUOUS
 62
     2
100
AcDbLine
 10
1141.2092591
 20
177.1542454
 30
0.0
 11
1143.8003541
 21
173.5838413
 31
0.0
  0
LINE
  5
239
330
1F
100
AcDbEntity
  8
枠
  6
CONTINUOUS
 62
     2
100
AcDbLine
 10
1141.2092591
 20
173.264246
 30
0.0
 11
1143.8003541
 21
169.6938419
 31
0.0
  0
LINE
  5
23A
330
1F
100
AcDbEntity
  8
枠
  6
CONTINUOUS
 62
     2
100
AcDbLine
 10
1147.4691773
 20
178.1886006
 30
0.0
 11
1149.7688294
 21
187.4113751
 31
0.0
  0
LINE
  5
23B
330
1F
100
AcDbEntity
  8
枠
  6
CONTINUOUS
 62
     2
100
AcDbLine
 10
1149.8674012
 20
178.1886864
 30
0.0
 11
1152.1652222
 21
187.4112892
 31
0.0
  0
LINE
  5
23C
330
1F
100
AcDbEntity
  8
枠
  6
CONTINUOUS
 62
     2
100
AcDbLine
 10
1151.9638062
 20
178.1886006
 30
0.0
 11
1154.2634583
 21
187.4113751
 31
0.0
  0
LINE
  5
23D
330
1F
100
AcDbEntity
  8
枠
  6
CONTINUOUS
 62
     2
100
AcDbLine
 10
1160.7023621
 20
183.7919903
 30
0.0
 11
1160.7023621
 21
187.3519612
 31
0.0
  0
LINE
  5
23E
330
1F
100
AcDbEntity
  8
枠
  6
CONTINUOUS
 62
     2
100
AcDbLine
 10
1163.4207154
 20
183.7919903
 30
0.0
 11
1163.4207154
 21
187.3519612
 31
0.0
  0
LINE
  5
23F
330
1F
100
AcDbEntity
  8
枠
  6
CONTINUOUS
 62
     2
100
AcDbLine
 10
1165.9391785
 20
183.7919903
 30
0.0
 11
1165.9391785
 21
187.3519612
 31
0.0
  0
LINE
  5
240
330
1F
100
AcDbEntity
  8
枠
  6
CONTINUOUS
 62
     2
100
AcDbLine
 10
1154.8622132
 20
181.7919922
 30
0.0
 11
1177.2477723
 21
181.7919922
 31
0.0
  0
LINE
  5
241
330
1F
100
AcDbEntity
  8
枠
  6
CONTINUOUS
 62
     2
100
AcDbLine
 10
1160.7023621
 20
179.7919941
 30
0.0
 11
1160.7023621
 21
173.7120342
 31
0.0
  0
LINE
  5
242
330
1F
100
AcDbEntity
  8
枠
  6
CONTINUOUS
 62
     2
100
AcDbLine
 10
1163.4207154
 20
179.7919941
 30
0.0
 11
1163.4207154
 21
173.7120342
 31
0.0
  0
LINE
  5
243
330
1F
100
AcDbEntity
  8
枠
  6
CONTINUOUS
 62
     2
100
AcDbLine
 10
1165.9391785
 20
179.7919941
 30
0.0
 11
1165.9391785
 21
173.7120342
 31
0.0
  0
LINE
  5
244
330
1F
100
AcDbEntity
  8
枠
  6
CONTINUOUS
 62
     2
100
AcDbLine
 10
1147.9840088
 20
171.7120361
 30
0.0
 11
1178.2566834
 21
171.7120361
 31
0.0
  0
LINE
  5
245
330
1F
100
AcDbEntity
  8
枠
  6
CONTINUOUS
 62
     2
100
AcDbLine
 10
1152.4479676
 20
169.7443867
 30
0.0
 11
1148.3007813
 21
146.9676495
 31
0.0
  0
LINE
  5
246
330
1F
100
AcDbEntity
  8
枠
  6
CONTINUOUS
 62
     2
100
AcDbLine
 10
1154.8072815
 20
169.7443867
 30
0.0
 11
1150.6602478
 21
146.9676495
 31
0.0
  0
LINE
  5
247
330
1F
100
AcDbEntity
  8
枠
  6
CONTINUOUS
 62
     2
100
AcDbLine
 10
1156.8891907
 20
169.7444153
 30
0.0
 11
1152.7400208
 21
146.9676209
 31
0.0
  0
LINE
  5
248
330
1F
100
AcDbEntity
  8
枠
  6
CONTINUOUS
 62
     2
100
AcDbLine
 10
1160.7023621
 20
169.7120381
 30
0.0
 11
1160.7023621
 21
146.9999981
 31
0.0
  0
LINE
  5
249
330
1F
100
AcDbEntity
  8
枠
  6
CONTINUOUS
 62
     2
100
AcDbLine
 10
1163.2206727
 20
169.7120381
 30
0.0
 11
1163.2206727
 21
146.9999981
 31
0.0
  0
LINE
  5
24A
330
1F
100
AcDbEntity
  8
枠
  6
CONTINUOUS
 62
     3
100
AcDbLine
 10
1165.9391785
 20
169.7120381
 30
0.0
 11
1165.9391785
 21
146.9999981
 31
0.0
  0
LINE
  5
24B
330
1F
100
AcDbEntity
  8
枠
  6
CONTINUOUS
 62
     2
100
AcDbLine
 10
1169.3495179
 20
169.7444153
 30
0.0
 11
1173.4986878
 21
146.9676209
 31
0.0
  0
LINE
  5
24C
330
1F
100
AcDbEntity
  8
枠
  6
CONTINUOUS
 62
     2
100
AcDbLine
 10
1171.5109253
 20
169.7444153
 30
0.0
 11
1175.6600953
 21
146.9676209
 31
0.0
  0
LINE
  5
24D
330
1F
100
AcDbEntity
  8
枠
  6
CONTINUOUS
 62
     2
100
AcDbLine
 10
1174.070282
 20
169.7444153
 30
0.0
 11
1178.219452
 21
146.9676209
 31
0.0
  0
LINE
  5
24E
330
1F
100
AcDbEntity
  8
枠
  6
CONTINUOUS
 62
     2
100
AcDbLine
 10
1184.2726136
 20
183.4001541
 30
0.0
 11
1212.8240967
 21
183.4001541
 31
0.0
  0
LINE
  5
24F
330
1F
100
AcDbEntity
  8
枠
  6
CONTINUOUS
 62
     2
100
AcDbLine
 10
1184.2726136
 20
180.8801651
 30
0.0
 11
1213.7413025
 21
180.8801651
 31
0.0
  0
LINE
  5
250
330
1F
100
AcDbEntity
  8
枠
  6
CONTINUOUS
 62
     2
100
AcDbLine
 10
1228.1166077
 20
146.8793869
 30
0.0
 11
1213.34198
 21
187.4725723
 31
0.0
  0
LINE
  5
251
330
1F
100
AcDbEntity
  8
枠
  6
CONTINUOUS
 62
     2
100
AcDbLine
 10
1230.7969666
 20
146.8793965
 30
0.0
 11
1216.0229493
 21
187.4725628
 31
0.0
  0
LINE
  5
252
330
1F
100
AcDbEntity
  8
枠
  6
CONTINUOUS
 62
     2
100
AcDbLine
 10
1233.4773255
 20
146.8793965
 30
0.0
 11
1218.7033082
 21
187.4725628
 31
0.0
  0
LINE
  5
253
330
1F
100
AcDbEntity
  8
枠
  6
CONTINUOUS
 62
     2
100
AcDbLine
 10
1236.1576844
 20
146.8793583
 30
0.0
 11
1221.3813782
 21
187.4725914
 31
0.0
  0
LINE
  5
254
330
1F
100
AcDbEntity
  8
枠
  6
CONTINUOUS
 62
     2
100
AcDbLine
 10
1228.5430909
 20
185.4001522
 30
0.0
 11
1228.5430909
 21
187.3519612
 31
0.0
  0
LINE
  5
255
330
1F
100
AcDbEntity
  8
枠
  6
CONTINUOUS
 62
     2
100
AcDbLine
 10
1231.2615967
 20
185.4001522
 30
0.0
 11
1231.2615967
 21
187.3519612
 31
0.0
  0
LINE
  5
256
330
1F
100
AcDbEntity
  8
枠
  6
CONTINUOUS
 62
     2
100
AcDbLine
 10
1233.97995
 20
185.4001522
 30
0.0
 11
1233.97995
 21
187.3519612
 31
0.0
  0
LINE
  5
257
330
1F
100
AcDbEntity
  8
枠
  6
CONTINUOUS
 62
     2
100
AcDbLine
 10
1224.8637391
 20
183.4001541
 30
0.0
 11
1236.7204285
 21
183.4001541
 31
0.0
  0
LINE
  5
258
330
1F
100
AcDbEntity
  8
枠
  6
CONTINUOUS
 62
     2
100
AcDbLine
 10
1225.7810975
 20
180.8801651
 30
0.0
 11
1236.7204285
 21
180.8801651
 31
0.0
  0
LINE
  5
259
330
1F
100
AcDbEntity
  8
枠
  6
CONTINUOUS
 62
     2
100
AcDbLine
 10
1187.2955323
 20
171.3640976
 30
0.0
 11
1213.536377
 21
171.3640976
 31
0.0
  0
LINE
  5
25A
330
1F
100
AcDbEntity
  8
枠
  6
CONTINUOUS
 62
     2
100
AcDbLine
 10
1187.2955323
 20
168.843956
 30
0.0
 11
1213.536377
 21
168.843956
 31
0.0
  0
LINE
  5
25B
330
1F
100
AcDbEntity
  8
枠
  6
CONTINUOUS
 62
     2
100
AcDbLine
 10
1196.7909241
 20
166.8439579
 30
0.0
 11
1196.7909241
 21
156.791153
 31
0.0
  0
LINE
  5
25C
330
1F
100
AcDbEntity
  8
枠
  6
CONTINUOUS
 62
     2
100
AcDbLine
 10
1199.3092347
 20
166.8439579
 30
0.0
 11
1199.3092347
 21
157.3264313
 31
0.0
  0
LINE
  5
25D
330
1F
100
AcDbEntity
  8
枠
  6
CONTINUOUS
 62
     2
100
AcDbLine
 10
1201.8275452
 20
166.8439579
 30
0.0
 11
1201.8275452
 21
157.8617191
 31
0.0
  0
LINE
  5
25E
330
1F
100
AcDbEntity
  8
枠
  6
CONTINUOUS
 62
     2
100
AcDbLine
 10
1204.3460083
 20
166.8439579
 30
0.0
 11
1204.3460083
 21
158.3970261
 31
0.0
  0
LINE
  5
25F
330
1F
100
AcDbEntity
  8
枠
  6
CONTINUOUS
 62
     2
100
AcDbLine
 10
1186.747284
 20
152.6563168
 30
0.0
 11
1214.0844727
 21
158.4669972
 31
0.0
  0
LINE
  5
260
330
1F
100
AcDbEntity
  8
枠
  6
CONTINUOUS
 62
     2
100
AcDbLine
 10
1186.747284
 20
149.8800278
 30
0.0
 11
1214.0844727
 21
155.6908512
 31
0.0
  0
LINE
  5
261
330
1F
100
AcDbEntity
  8
枠
  6
CONTINUOUS
 62
     2
100
AcDbLine
 10
1186.747284
 20
147.5037289
 30
0.0
 11
1214.0844727
 21
153.3144093
 31
0.0
  0
LINE
  5
262
330
1F
100
AcDbEntity
  8
枠
  6
CONTINUOUS
 62
     2
100
AcDbLine
 10
1242.6330567
 20
179.325943
 30
0.0
 11
1268.5153199
 21
187.9854012
 31
0.0
  0
LINE
  5
263
330
1F
100
AcDbEntity
  8
枠
  6
CONTINUOUS
 62
     2
100
AcDbLine
 10
1242.6330567
 20
176.6686249
 30
0.0
 11
1268.5153199
 21
185.3282356
 31
0.0
  0
LINE
  5
264
330
1F
100
AcDbEntity
  8
枠
  6
CONTINUOUS
 62
     2
100
AcDbLine
 10
1270.4119874
 20
187.9853916
 30
0.0
 11
1296.2944031
 21
179.325304
 31
0.0
  0
LINE
  5
265
330
1F
100
AcDbEntity
  8
枠
  6
CONTINUOUS
 62
     2
100
AcDbLine
 10
1270.4119874
 20
185.5282307
 30
0.0
 11
1296.2944031
 21
176.8681431
 31
0.0
  0
LINE
  5
266
330
1F
100
AcDbEntity
  8
枠
  6
CONTINUOUS
 62
     2
100
AcDbLine
 10
1287.6249695
 20
176.5961075
 30
0.0
 11
1251.3044739
 21
176.5961075
 31
0.0
  0
LINE
  5
267
330
1F
100
AcDbEntity
  8
枠
  6
CONTINUOUS
 62
     2
100
AcDbLine
 10
1287.6249695
 20
173.8759613
 30
0.0
 11
1251.3044739
 21
173.8759613
 31
0.0
  0
LINE
  5
268
330
1F
100
AcDbEntity
  8
枠
  6
CONTINUOUS
 62
     2
100
AcDbLine
 10
1242.7363587
 20
166.0639191
 30
0.0
 11
1296.1911011
 21
166.0639191
 31
0.0
  0
LINE
  5
269
330
1F
100
AcDbEntity
  8
枠
  6
CONTINUOUS
 62
     2
100
AcDbLine
 10
1242.7363587
 20
163.7440872
 30
0.0
 11
1296.1911011
 21
163.7440872
 31
0.0
  0
LINE
  5
26A
330
1F
100
AcDbEntity
  8
枠
  6
CONTINUOUS
 62
     2
100
AcDbLine
 10
1251.0133362
 20
161.9315338
 30
0.0
 11
1245.9112549
 21
150.9924603
 31
0.0
  0
LINE
  5
26B
330
1F
100
AcDbEntity
  8
枠
  6
CONTINUOUS
 62
     2
100
AcDbLine
 10
1254.194336
 20
161.9315434
 30
0.0
 11
1249.0921021
 21
150.9924603
 31
0.0
  0
LINE
  5
26C
330
1F
100
AcDbEntity
  8
枠
  6
CONTINUOUS
 62
     2
100
AcDbLine
 10
1257.3753357
 20
161.9315434
 30
0.0
 11
1252.2731019
 21
150.9924603
 31
0.0
  0
LINE
  5
26D
330
1F
100
AcDbEntity
  8
枠
  6
CONTINUOUS
 62
     2
100
AcDbLine
 10
1281.5541077
 20
161.9316673
 30
0.0
 11
1286.6583252
 21
150.9923363
 31
0.0
  0
LINE
  5
26E
330
1F
100
AcDbEntity
  8
枠
  6
CONTINUOUS
 62
     2
100
AcDbLine
 10
1284.7370911
 20
161.9314194
 30
0.0
 11
1289.8370362
 21
150.9925842
 31
0.0
  0
LINE
  5
26F
330
1F
100
AcDbEntity
  8
枠
  6
CONTINUOUS
 62
     2
100
AcDbLine
 10
1287.9199219
 20
161.9313145
 30
0.0
 11
1293.0181885
 21
150.9926891
 31
0.0
  0
LINE
  5
270
330
1F
100
AcDbEntity
  8
枠
  6
CONTINUOUS
 62
     2
100
AcDbLine
 10
1244.6853638
 20
149.1799164
 30
0.0
 11
1294.242096
 21
149.1799164
 31
0.0
  0
LINE
  5
271
330
1F
100
AcDbEntity
  8
枠
  6
CONTINUOUS
 62
     2
100
AcDbLine
 10
1243.5102845
 20
146.6599274
 30
0.0
 11
1295.4171753
 21
146.6599274
 31
0.0
  0
LINE
  5
272
330
1F
100
AcDbEntity
  8
枠
  6
CONTINUOUS
 62
     2
100
AcDbLine
 10
1311.3978577
 20
185.4001522
 30
0.0
 11
1311.3978577
 21
187.3519612
 31
0.0
  0
LINE
  5
273
330
1F
100
AcDbEntity
  8
枠
  6
CONTINUOUS
 62
     2
100
AcDbLine
 10
1314.3162537
 20
185.4001522
 30
0.0
 11
1314.3162537
 21
187.3519612
 31
0.0
  0
LINE
  5
274
330
1F
100
AcDbEntity
  8
枠
  6
CONTINUOUS
 62
     2
100
AcDbLine
 10
1317.2348023
 20
185.4001522
 30
0.0
 11
1317.2348023
 21
187.3519612
 31
0.0
  0
LINE
  5
275
330
1F
100
AcDbEntity
  8
枠
  6
CONTINUOUS
 62
     2
100
AcDbLine
 10
1302.2068787
 20
183.4001541
 30
0.0
 11
1325.0878907
 21
183.4001541
 31
0.0
  0
LINE
  5
276
330
1F
100
AcDbEntity
  8
枠
  6
CONTINUOUS
 62
     2
100
AcDbLine
 10
1302.2068787
 20
180.8801651
 30
0.0
 11
1323.3238221
 21
180.8801651
 31
0.0
  0
LINE
  5
277
330
1F
100
AcDbEntity
  8
枠
  6
CONTINUOUS
 62
     2
100
AcDbLine
 10
1315.379181
 20
179.2416763
 30
0.0
 11
1301.3537598
 21
159.2047215
 31
0.0
  0
LINE
  5
278
330
1F
100
AcDbEntity
  8
枠
  6
CONTINUOUS
 62
     2
100
AcDbLine
 10
1318.6566163
 20
179.2418003
 30
0.0
 11
1301.3539124
 21
154.528513
 31
0.0
  0
LINE
  5
279
330
1F
100
AcDbEntity
  8
枠
  6
CONTINUOUS
 62
     2
100
AcDbLine
 10
1321.7379761
 20
179.2417717
 30
0.0
 11
1301.3539124
 21
150.1257324
 31
0.0
  0
LINE
  5
27A
330
1F
100
AcDbEntity
  8
枠
  6
CONTINUOUS
 62
     2
100
AcDbLine
 10
1316.9299317
 20
168.8869095
 30
0.0
 11
1325.7867432
 21
162.6846409
 31
0.0
  0
LINE
  5
27B
330
1F
100
AcDbEntity
  8
枠
  6
CONTINUOUS
 62
     2
100
AcDbLine
 10
1315.4844666
 20
166.8219948
 30
0.0
 11
1325.7865906
 21
159.6079922
 31
0.0
  0
LINE
  5
27C
330
1F
100
AcDbEntity
  8
枠
  6
CONTINUOUS
 62
     2
100
AcDbLine
 10
1313.9450074
 20
164.623127
 30
0.0
 11
1325.7865906
 21
156.331501
 31
0.0
  0
LINE
  5
27D
330
1F
100
AcDbEntity
  8
枠
  6
CONTINUOUS
 62
     2
100
AcDbLine
 10
1311.3978577
 20
162.472229
 30
0.0
 11
1311.3978577
 21
146.9999981
 31
0.0
  0
LINE
  5
27E
330
1F
100
AcDbEntity
  8
枠
  6
CONTINUOUS
 62
     2
100
AcDbLine
 10
1314.3162537
 20
162.3631573
 30
0.0
 11
1314.3162537
 21
146.9999981
 31
0.0
  0
LINE
  5
27F
330
1F
100
AcDbEntity
  8
枠
  6
CONTINUOUS
 62
     2
100
AcDbLine
 10
1317.2348023
 20
160.3195667
 30
0.0
 11
1317.2348023
 21
146.9999981
 31
0.0
  0
LINE
  5
280
330
1F
100
AcDbEntity
  8
枠
  6
CONTINUOUS
 62
     2
100
AcDbLine
 10
1338.6137391
 20
151.1799145
 30
0.0
 11
1338.6137391
 21
187.3519612
 31
0.0
  0
LINE
  5
281
330
1F
100
AcDbEntity
  8
枠
  6
CONTINUOUS
 62
     2
100
AcDbLine
 10
1341.5321351
 20
151.1799145
 30
0.0
 11
1341.5321351
 21
187.3519612
 31
0.0
  0
LINE
  5
282
330
1F
100
AcDbEntity
  8
枠
  6
CONTINUOUS
 62
     2
100
AcDbLine
 10
1344.4506836
 20
151.1799145
 30
0.0
 11
1344.4506836
 21
187.3519612
 31
0.0
  0
LINE
  5
283
330
1F
100
AcDbEntity
  8
枠
  6
CONTINUOUS
 62
     2
100
AcDbLine
 10
1329.4248963
 20
176.3440323
 30
0.0
 11
1336.6137696
 21
176.3440323
 31
0.0
  0
LINE
  5
284
330
1F
100
AcDbEntity
  8
枠
  6
CONTINUOUS
 62
     2
100
AcDbLine
 10
1329.4248963
 20
173.8241959
 30
0.0
 11
1336.6137696
 21
173.8241959
 31
0.0
  0
LINE
  5
285
330
1F
100
AcDbEntity
  8
枠
  6
CONTINUOUS
 62
     2
100
AcDbLine
 10
1346.4506531
 20
176.3440323
 30
0.0
 11
1353.6477662
 21
176.3440323
 31
0.0
  0
LINE
  5
286
330
1F
100
AcDbEntity
  8
枠
  6
CONTINUOUS
 62
     2
100
AcDbLine
 10
1346.4506531
 20
173.6241913
 30
0.0
 11
1353.6477662
 21
173.6241913
 31
0.0
  0
LINE
  5
287
330
1F
100
AcDbEntity
  8
枠
  6
CONTINUOUS
 62
     2
100
AcDbLine
 10
1325.3909302
 20
149.1799164
 30
0.0
 11
1354.6566773
 21
149.1799164
 31
0.0
  0
LINE
  5
288
330
1F
100
AcDbEntity
  8
枠
  6
CONTINUOUS
 62
     2
100
AcDbLine
 10
1325.3909302
 20
146.6599274
 30
0.0
 11
1354.6566773
 21
146.6599274
 31
0.0
  0
LINE
  5
289
330
1F
100
AcDbEntity
  8
枠
  6
CONTINUOUS
 62
     2
100
AcDbLine
 10
1097.475586
 20
164.3536377
 30
0.0
 11
1118.7840271
 21
164.3536377
 31
0.0
  0
CIRCLE
  5
28A
330
1F
100
AcDbEntity
  8
枠
  6
CONTINUOUS
 62
     6
100
AcDbCircle
 10
384.0000000000001
 20
141.0
 30
0.0
 40
1.0000002
  0
CIRCLE
  5
28B
330
1F
100
AcDbEntity
  8
枠
  6
CONTINUOUS
 62
     6
100
AcDbCircle
 10
434.0000000000001
 20
141.0
 30
0.0
 40
1.0000002
  0
TEXT
  5
28C
330
1F
100
AcDbEntity
  8
枠
  6
CONTINUOUS
 62
     2
100
AcDbText
 10
356.5000000000001
 20
289.75
 30
0.0
 40
42.5
  1
写図
 41
1.509694117647058
  7
EXCADSTD
 72
     5
 11
457.326
 21
289.75
 31
0.0
100
AcDbText
  0
TEXT
  5
28D
330
1F
100
AcDbEntity
  8
枠
  6
CONTINUOUS
 62
     2
100
AcDbText
 10
506.5
 20
289.75
 30
0.0
 40
42.5
  1
検図
 41
1.303826737967914
  7
EXCADSTD
 72
     5
 11
593.577
 21
289.75
 31
0.0
100
AcDbText
  0
TEXT
  5
28E
330
1F
100
AcDbEntity
  8
枠
  6
CONTINUOUS
 62
     2
100
AcDbText
 10
636.5
 20
289.75
 30
0.0
 40
42.5
  1
承認
 41
1.303826737967914
  7
EXCADSTD
 72
     5
 11
723.577
 21
289.75
 31
0.0
100
AcDbText
  0
TEXT
  5
28F
330
1F
100
AcDbEntity
  8
枠
  6
CONTINUOUS
 62
     2
100
AcDbText
 10
752.7500000000003
 20
279.7500000000001
 30
0.0
 40
42.5
  1
品
 41
1.12
  7
EXCADSTD
 72
     5
 11
786.7500000000003
 21
279.7500000000001
 31
0.0
100
AcDbText
  0
TEXT
  5
290
330
1F
100
AcDbEntity
  8
枠
  6
CONTINUOUS
 62
     2
100
AcDbText
 10
876.9999923706055
 20
243.5
 30
0.0
 40
65.0
  1
非水洗半底大便器
 41
0.9944353518821604
  7
EXCADSTD
 72
     5
 11
1310.999992370605
 21
243.5
 31
0.0
100
AcDbText
  0
TEXT
  5
291
330
1F
100
AcDbEntity
  8
枠
  6
CONTINUOUS
 62
     6
100
AcDbText
 10
181.0441162
 20
127.9500732
 30
0.0
 40
25.0
  1
１３
 41
1.052256742147966
  7
EXCADSTD
 72
     5
 11
222.3827739272415
 21
127.9500732
 31
0.0
100
AcDbText
  0
TEXT
  5
292
330
1F
100
AcDbEntity
  8
枠
  6
CONTINUOUS
 62
     6
100
AcDbText
 10
284.9441162
 20
127.9500732
 30
0.0
 40
25.0
  1
１３
 41
1.052256742147966
  7
EXCADSTD
 72
     5
 11
326.2827739272415
 21
127.9500732
 31
0.0
100
AcDbText
  0
TEXT
  5
293
330
1F
100
AcDbEntity
  8
枠
  6
CONTINUOUS
 62
     6
100
AcDbText
 10
235.1441162
 20
127.9500732
 30
0.0
 40
25.0
  1
１１
 41
1.052256742147966
  7
EXCADSTD
 72
     5
 11
276.4827739272415
 21
127.9500732
 31
0.0
100
AcDbText
  0
TEXT
  5
294
330
1F
100
AcDbEntity
  8
枠
  6
CONTINUOUS
 62
     7
100
AcDbText
 10
1453.25
 20
131.75
 30
0.0
 40
70.0
  1
Ｃ０１０５２１０
 41
1.127659574468085
  7
EXCADSTD
 72
     5
 11
1983.25
 21
131.75
 31
0.0
100
AcDbText
  0
TEXT
  5
295
330
1F
100
AcDbEntity
  8
枠
  6
CONTINUOUS
 62
     2
100
AcDbText
 10
1462.4388733
 20
244.75
 30
0.0
 40
65.0
  1
Ｃ２Ｍ
 41
1.2289592760181
  7
EXCADSTD
 72
     5
 11
1656.4388733
 21
244.75
 31
0.0
100
AcDbText
  0
TEXT
  5
296
330
1F
100
AcDbEntity
  8
枠
  6
CONTINUOUS
 62
     6
100
AcDbText
 10
219.0000000000031
 20
208.5
 30
0.0
 40
35.0
  1
宮田
 41
1.249909090909091
  7
EXCADSTD
 72
     5
 11
287.7450000000031
 21
208.5
 31
0.0
100
AcDbText
  0
TEXT
  5
297
330
1F
100
AcDbEntity
  8
便器
  6
CONTINUOUS
 62
     2
100
AcDbText
 10
1366.500000476838
 20
2486.34999999404
 30
0.0
 40
40.0
  1
排水穴中心
 41
1.164655172413793
  7
EXCADSTD
 72
     5
 11
1559.500000476838
 21
2486.34999999404
 31
0.0
100
AcDbText
  0
LEADER
  5
298
330
1F
100
AcDbEntity
  8
便器
  6
CONTINUOUS
 62
     6
100
AcDbLeader
  3
ISO-25
 76
     3
 10
1662.0
 20
2309.0
 30
0.0
 10
1559.7022836165
 20
2486.0
 30
0.0
 10
1362.0
 20
2486.0
 30
0.0
1001
ACAD
1000
DSTYLE
1002
{
1070
     5
1000
EX_NORM
1070
    41
1040
35.0
1070
   341
1005
4B
1002
}
  0
TEXT
  5
299
330
1F
100
AcDbEntity
  8
便器
  6
CONTINUOUS
 62
     2
100
AcDbText
 10
1201.797716860337
 20
1140.349999994039
 30
0.0
 40
40.0
  1
排水穴中心
 41
1.164655172413793
  7
EXCADSTD
 72
     5
 11
1394.797716860337
 21
1140.349999994039
 31
0.0
100
AcDbText
  0
LEADER
  5
29A
330
1F
100
AcDbEntity
  8
便器
  6
CONTINUOUS
 62
     6
100
AcDbLeader
  3
ISO-25
 76
     3
 10
1533.0
 20
1022.0
 30
0.0
 10
1394.7977163835
 20
1140.349999994
 30
0.0
 10
1199.9
 20
1140.349999994
 30
0.0
1001
ACAD
1000
DSTYLE
1002
{
1070
     5
1000
EX_NORM
1070
    41
1040
35.0
1070
   341
1005
4B
1002
}
  0
ARC
  5
29B
330
1F
100
AcDbEntity
  8
便器
  6
CONTINUOUS
 62
     7
100
AcDbCircle
 10
900.2745346069478
 20
2259.0
 30
0.0
 40
80.0
100
AcDbArc
 50
270.0000000000002
 51
353.7598689017427
  0
ARC
  5
29C
330
1F
100
AcDbEntity
  8
便器
  6
CONTINUOUS
 62
     7
100
AcDbCircle
 10
900.2745346069478
 20
2359.0
 30
0.0
 40
80.0
100
AcDbArc
 50
6.240131098257721
 51
90.00000000000004
  0
ARC
  5
29D
330
1F
100
AcDbEntity
  8
便器
  6
CONTINUOUS
 62
     7
100
AcDbCircle
 10
443.0000000000004
 20
2309.0
 30
0.0
 40
540.0000000000001
100
AcDbArc
 50
353.7598689017423
 51
6.240131098257605
  0
ARC
  5
29E
330
1F
100
AcDbEntity
  8
便器
  6
CONTINUOUS
 62
     7
100
AcDbCircle
 10
528.2661081138904
 20
2259.0
 30
0.0
 40
80.0
100
AcDbArc
 50
192.024699180566
 51
270.0000000000002
  0
ARC
  5
29F
330
1F
100
AcDbEntity
  8
便器
  6
CONTINUOUS
 62
     7
100
AcDbCircle
 10
528.2661081138904
 20
2359.0
 30
0.0
 40
80.0
100
AcDbArc
 50
90.00000000000004
 51
167.9753008194337
  0
ARC
  5
2A0
330
1F
100
AcDbEntity
  8
便器
  6
CONTINUOUS
 62
     7
100
AcDbCircle
 10
763.0000000000005
 20
2309.0
 30
0.0
 40
320.0
100
AcDbArc
 50
167.9753008194342
 51
192.0246991805658
  0
ARC
  5
2A1
330
1F
100
AcDbEntity
  8
便器
  6
CONTINUOUS
 62
     7
100
AcDbCircle
 10
576.7979589711329
 20
2232.797958971132
 30
0.0
 40
23.79795897113273
100
AcDbArc
 50
180.0
 51
270.0000000000002
  0
ARC
  5
2A2
330
1F
100
AcDbEntity
  8
便器
  6
CONTINUOUS
 62
     7
100
AcDbCircle
 10
443.0000000000004
 20
2309.0
 30
0.0
 40
510.0000000000003
100
AcDbArc
 50
353.7598689017423
 51
6.240131098257375
  0
ARC
  5
2A3
330
1F
100
AcDbEntity
  8
便器
  6
CONTINUOUS
 62
     7
100
AcDbCircle
 10
900.2745346069478
 20
2259.0
 30
0.0
 40
50.00000000000004
100
AcDbArc
 50
270.0000000000002
 51
353.7598689017432
  0
ARC
  5
2A4
330
1F
100
AcDbEntity
  8
便器
  6
CONTINUOUS
 62
     7
100
AcDbCircle
 10
900.2745346069478
 20
2359.0
 30
0.0
 40
50.00000000000004
100
AcDbArc
 50
6.240131098257549
 51
90.00000000000004
  0
LINE
  5
2A5
330
1F
100
AcDbEntity
  8
便器
  6
CONTINUOUS
 62
     7
100
AcDbLine
 10
576.7979589711329
 20
2409.0
 30
0.0
 11
900.2745346069478
 21
2409.0
 31
0.0
  0
LINE
  5
2A6
330
1F
100
AcDbEntity
  8
便器
  6
CONTINUOUS
 62
     7
100
AcDbLine
 10
528.2661081138904
 20
2439.0
 30
0.0
 11
900.2745346069478
 21
2439.0
 31
0.0
  0
LINE
  5
2A7
330
1F
100
AcDbEntity
  8
便器
  6
CONTINUOUS
 62
     7
100
AcDbLine
 10
528.2661081138904
 20
2179.0
 30
0.0
 11
900.2745346069478
 21
2179.0
 31
0.0
  0
LINE
  5
2A8
330
1F
100
AcDbEntity
  8
便器
  6
EXLTYPE3
 62
     6
100
AcDbLine
 10
433.0000000000004
 20
2309.0
 30
0.0
 11
993.0000000000005
 21
2309.0
 31
0.0
  0
ARC
  5
2A9
330
1F
100
AcDbEntity
  8
便器
  6
CONTINUOUS
 62
     7
100
AcDbCircle
 10
773.4915426795963
 20
2341.682587029153
 30
0.0
 40
59.00000000000007
100
AcDbArc
 50
95.35993822571601
 51
160.9237684560589
  0
ARC
  5
2AA
330
1F
100
AcDbEntity
  8
便器
  6
CONTINUOUS
 62
     7
100
AcDbCircle
 10
823.0000000000005
 20
1814.000000000025
 30
0.0
 40
589.0000000000003
100
AcDbArc
 50
82.42815081564096
 51
95.35993822571591
  0
ARC
  5
2AB
330
1F
100
AcDbEntity
  8
便器
  6
CONTINUOUS
 62
     7
100
AcDbCircle
 10
895.4731512521093
 20
2359.204220772011
 30
0.0
 40
39.00000000000005
100
AcDbArc
 50
5.762690834609456
 51
82.42815081564027
  0
ARC
  5
2AC
330
1F
100
AcDbEntity
  8
便器
  6
CONTINUOUS
 62
     7
100
AcDbCircle
 10
867.9999999999959
 20
2309.0
 30
0.0
 40
159.0
100
AcDbArc
 50
160.9237684560594
 51
180.0
  0
ARC
  5
2AD
330
1F
100
AcDbEntity
  8
便器
  6
CONTINUOUS
 62
     7
100
AcDbCircle
 10
398.0000000000288
 20
2309.0
 30
0.0
 40
539.0000000000003
100
AcDbArc
 50
0.0
 51
5.762690834609113
  0
ARC
  5
2AE
330
1F
100
AcDbEntity
  8
便器
  6
CONTINUOUS
 62
     7
100
AcDbCircle
 10
867.9999999999959
 20
2309.0
 30
0.0
 40
159.0
100
AcDbArc
 50
180.0
 51
199.0762315439408
  0
ARC
  5
2AF
330
1F
100
AcDbEntity
  8
便器
  6
CONTINUOUS
 62
     7
100
AcDbCircle
 10
773.4915426795963
 20
2276.317412970847
 30
0.0
 40
59.00000000000007
100
AcDbArc
 50
199.0762315439411
 51
264.640061774284
  0
ARC
  5
2B0
330
1F
100
AcDbEntity
  8
便器
  6
CONTINUOUS
 62
     7
100
AcDbCircle
 10
823.0000000000005
 20
2803.999999999975
 30
0.0
 40
589.0000000000003
100
AcDbArc
 50
264.6400617742841
 51
277.5718491843591
  0
ARC
  5
2B1
330
1F
100
AcDbEntity
  8
便器
  6
CONTINUOUS
 62
     7
100
AcDbCircle
 10
895.4731512521093
 20
2258.795779227989
 30
0.0
 40
39.00000000000005
100
AcDbArc
 50
277.5718491843598
 51
354.2373091653914
  0
ARC
  5
2B2
330
1F
100
AcDbEntity
  8
便器
  6
CONTINUOUS
 62
     7
100
AcDbCircle
 10
398.0000000000288
 20
2309.0
 30
0.0
 40
539.0000000000003
100
AcDbArc
 50
354.237309165391
 51
0.0
  0
LINE
  5
2B3
330
1F
100
AcDbEntity
  8
便器
  6
CONTINUOUS
 62
     7
100
AcDbLine
 10
553.0000000000005
 20
2385.202041028901
 30
0.0
 11
553.0000000000009
 21
2232.797958971099
 31
0.0
  0
ARC
  5
2B4
330
1F
100
AcDbEntity
  8
便器
  6
CONTINUOUS
 62
     7
100
AcDbCircle
 10
576.7979589711329
 20
2385.202041028867
 30
0.0
 40
23.79795897113273
100
AcDbArc
 50
90.00000000000004
 51
180.0
  0
LINE
  5
2B5
330
1F
100
AcDbEntity
  8
便器
  6
CONTINUOUS
 62
     7
100
AcDbLine
 10
576.7979589711329
 20
2209.0
 30
0.0
 11
900.2745346069478
 21
2209.0
 31
0.0
  0
LINE
  5
2B6
330
1F
100
AcDbEntity
  8
便器
  6
EXLTYPE3
 62
     6
100
AcDbLine
 10
823.0000000000005
 20
2449.0
 30
0.0
 11
823.0000000000005
 21
2167.0
 31
0.0
  0
ARC
  5
2B7
330
1F
100
AcDbEntity
  8
便器
  6
CONTINUOUS
 62
     2
100
AcDbCircle
 10
573.0000000000005
 20
2219.0
 30
0.0
 40
20.00000000000003
100
AcDbArc
 50
180.0
 51
270.0000000000002
  0
LINE
  5
2B8
330
1F
100
AcDbEntity
  8
便器
  6
CONTINUOUS
 62
     2
100
AcDbLine
 10
553.0000000000009
 20
2232.797958971099
 30
0.0
 11
553.0000000000005
 21
2219.0
 31
0.0
  0
LINE
  5
2B9
330
1F
100
AcDbEntity
  8
便器
  6
CONTINUOUS
 62
     2
100
AcDbLine
 10
528.0000000000005
 20
2394.0
 30
0.0
 11
528.0000000000005
 21
2224.0
 31
0.0
  0
ARC
  5
2BA
330
1F
100
AcDbEntity
  8
便器
  6
CONTINUOUS
 62
     2
100
AcDbCircle
 10
573.0000000000005
 20
2399.0
 30
0.0
 40
20.00000000000003
100
AcDbArc
 50
90.00000000000004
 51
180.0
  0
LINE
  5
2BB
330
1F
100
AcDbEntity
  8
便器
  6
CONTINUOUS
 62
     2
100
AcDbLine
 10
553.0000000000005
 20
2399.0
 30
0.0
 11
553.0000000000005
 21
2385.202041028901
 31
0.0
  0
LINE
  5
2BC
330
1F
100
AcDbEntity
  8
便器
  6
CONTINUOUS
 62
     7
100
AcDbLine
 10
573.0000000000005
 20
2199.0
 30
0.0
 11
612.0000000000002
 21
2199.0
 31
0.0
  0
ARC
  5
2BD
330
1F
100
AcDbEntity
  8
便器
  6
CONTINUOUS
 62
     7
100
AcDbCircle
 10
534.2589947843917
 20
2260.63427864326
 30
0.0
 40
60.00000000000004
100
AcDbArc
 50
194.7473030356507
 51
265.1688510187811
  0
ARC
  5
2BE
330
1F
100
AcDbEntity
  8
便器
  6
CONTINUOUS
 62
     7
100
AcDbCircle
 10
573.0000000000005
 20
2719.0
 30
0.0
 40
520.0000000000001
100
AcDbArc
 50
265.1688510187802
 51
270.0000000000002
  0
ARC
  5
2BF
330
1F
100
AcDbEntity
  8
便器
  6
CONTINUOUS
 62
     7
100
AcDbCircle
 10
718.0000000000001
 20
2309.0
 30
0.0
 40
250.0000000000002
100
AcDbArc
 50
165.2526969643486
 51
194.7473030356516
  0
ARC
  5
2C0
330
1F
100
AcDbEntity
  8
便器
  6
CONTINUOUS
 62
     7
100
AcDbCircle
 10
534.2589947843917
 20
2357.36572135674
 30
0.0
 40
60.00000000000004
100
AcDbArc
 50
94.83114898121947
 51
165.2526969643493
  0
ARC
  5
2C1
330
1F
100
AcDbEntity
  8
便器
  6
CONTINUOUS
 62
     7
100
AcDbCircle
 10
573.0000000000005
 20
1899.0
 30
0.0
 40
520.0000000000001
100
AcDbArc
 50
90.00000000000004
 51
94.83114898121971
  0
LINE
  5
2C2
330
1F
100
AcDbEntity
  8
便器
  6
CONTINUOUS
 62
     7
100
AcDbLine
 10
573.0000000000005
 20
2419.0
 30
0.0
 11
612.0000000000002
 21
2419.0
 31
0.0
  0
ARC
  5
2C3
330
1F
100
AcDbEntity
  8
便器
  6
CONTINUOUS
 62
     7
100
AcDbCircle
 10
1379.738892291072
 20
2274.0
 30
0.0
 40
80.0
100
AcDbArc
 50
188.9490180653298
 51
270.0000000000002
  0
ARC
  5
2C4
330
1F
100
AcDbEntity
  8
便器
  6
CONTINUOUS
 62
     7
100
AcDbCircle
 10
1602.0
 20
2309.0
 30
0.0
 40
305.0000000000001
100
AcDbArc
 50
171.0509819346711
 51
188.9490180653293
  0
ARC
  5
2C5
330
1F
100
AcDbEntity
  8
便器
  6
CONTINUOUS
 62
     7
100
AcDbCircle
 10
1379.738892291072
 20
2344.0
 30
0.0
 40
80.0
100
AcDbArc
 50
90.00000000000004
 51
171.0509819346708
  0
LINE
  5
2C6
330
1F
100
AcDbEntity
  8
便器
  6
CONTINUOUS
 62
     7
100
AcDbLine
 10
1739.274534606948
 20
2424.0
 30
0.0
 11
1379.738892291072
 21
2424.0
 31
0.0
  0
ARC
  5
2C7
330
1F
100
AcDbEntity
  8
便器
  6
CONTINUOUS
 62
     7
100
AcDbCircle
 10
1739.274534606948
 20
2359.0
 30
0.0
 40
65.00000000000004
100
AcDbArc
 50
6.240131098257433
 51
90.00000000000004
  0
ARC
  5
2C8
330
1F
100
AcDbEntity
  8
便器
  6
CONTINUOUS
 62
     7
100
AcDbCircle
 10
1282.000000000001
 20
2309.0
 30
0.0
 40
525.0000000000001
100
AcDbArc
 50
353.7598689017423
 51
6.240131098257319
  0
ARC
  5
2C9
330
1F
100
AcDbEntity
  8
便器
  6
CONTINUOUS
 62
     7
100
AcDbCircle
 10
1739.274534606948
 20
2259.0
 30
0.0
 40
65.00000000000004
100
AcDbArc
 50
270.0000000000002
 51
353.7598689017418
  0
LINE
  5
2CA
330
1F
100
AcDbEntity
  8
便器
  6
CONTINUOUS
 62
     7
100
AcDbLine
 10
1379.738892291072
 20
2194.0
 30
0.0
 11
1739.274534606948
 21
2194.0
 31
0.0
  0
LINE
  5
2CB
330
1F
100
AcDbEntity
  8
便器
  6
EXLTYPE3
 62
     6
100
AcDbLine
 10
1662.0
 20
2184.0
 30
0.0
 11
1662.0
 21
2440.0
 31
0.0
  0
LINE
  5
2CC
330
1F
100
AcDbEntity
  8
便器
  6
EXLTYPE3
 62
     6
100
AcDbLine
 10
1818.000000000001
 20
2309.0
 30
0.0
 11
1284.0
 21
2309.0
 31
0.0
  0
ARC
  5
2CD
330
1F
100
AcDbEntity
  8
便器
  6
CONTINUOUS
 62
     7
100
AcDbCircle
 10
532.3
 20
1773.000000000001
 30
0.0
 40
5.0
100
AcDbArc
 50
90.00000000000004
 51
151.4956438210377
  0
ARC
  5
2CE
330
1F
100
AcDbEntity
  8
便器
  6
CONTINUOUS
 62
     7
100
AcDbCircle
 10
523.5375563920363
 20
1777.818670150285
 30
0.0
 40
5.0
100
AcDbArc
 50
274.6538279921719
 51
331.1925891382447
  0
ARC
  5
2CF
330
1F
100
AcDbEntity
  8
便器
  6
CONTINUOUS
 62
     7
100
AcDbCircle
 10
528.0000000000005
 20
1723.000000000001
 30
0.0
 40
50.00000000000004
100
AcDbArc
 50
94.65382799218078
 51
169.8601155140366
  0
ARC
  5
2D0
330
1F
100
AcDbEntity
  8
便器
  6
CONTINUOUS
 62
     7
100
AcDbCircle
 10
548.0000000000005
 20
1773.000000000001
 30
0.0
 40
5.0
100
AcDbArc
 50
0.0
 51
90.00000000000004
  0
ARC
  5
2D1
330
1F
100
AcDbEntity
  8
便器
  6
CONTINUOUS
 62
     7
100
AcDbCircle
 10
612.0000000000002
 20
1704.0
 30
0.0
 40
50.00000000000004
100
AcDbArc
 50
187.0855528325139
 51
270.0000000000002
  0
ARC
  5
2D2
330
1F
100
AcDbEntity
  8
便器
  6
CONTINUOUS
 62
     7
100
AcDbCircle
 10
973.0000000000005
 20
1644.0
 30
0.0
 40
10.0
100
AcDbArc
 50
0.0
 51
90.00000000000004
  0
ARC
  5
2D3
330
1F
100
AcDbEntity
  8
便器
  6
CONTINUOUS
 62
     7
100
AcDbCircle
 10
3004.635506294731
 20
5912.327616007016
 30
0.0
 40
5000.000000000002
100
AcDbArc
 50
239.9110934263461
 51
242.3195532201937
  0
ARC
  5
2D4
330
1F
100
AcDbEntity
  8
便器
  6
CONTINUOUS
 62
     7
100
AcDbCircle
 10
668.0000000000001
 20
1458.0
 30
0.0
 40
30.00000000000002
100
AcDbArc
 50
0.0
 51
62.31955322019331
  0
LINE
  5
2D5
330
1F
100
AcDbEntity
  8
便器
  6
CONTINUOUS
 62
     7
100
AcDbLine
 10
948.0000000000005
 20
1458.0
 30
0.0
 11
698.0000000000001
 21
1458.0
 31
0.0
  0
LINE
  5
2D6
330
1F
100
AcDbEntity
  8
便器
  6
CONTINUOUS
 62
     7
100
AcDbLine
 10
532.3
 20
1778.000000000001
 30
0.0
 11
548.0000000000005
 21
1778.000000000001
 31
0.0
  0
LINE
  5
2D7
330
1F
100
AcDbEntity
  8
便器
  6
CONTINUOUS
 62
     7
100
AcDbLine
 10
553.0378930240422
 20
1773.004710122965
 30
0.0
 11
562.3818463734776
 21
1697.83243721598
 31
0.0
  0
LINE
  5
2D8
330
1F
100
AcDbEntity
  8
便器
  6
EXLTYPE3
 62
     6
100
AcDbLine
 10
823.0000000000005
 20
1489.0
 30
0.0
 11
823.0000000000005
 21
1439.0
 31
0.0
  0
ARC
  5
2D9
330
1F
100
AcDbEntity
  8
便器
  6
CONTINUOUS
 62
     7
100
AcDbCircle
 10
1463.161822639859
 20
1555.750589008819
 30
0.0
 40
1000.000000000001
100
AcDbArc
 50
169.860115514036
 51
173.509261443559
  0
LINE
  5
2DA
330
1F
100
AcDbEntity
  8
便器
  6
CONTINUOUS
 62
     7
100
AcDbLine
 10
957.9403161864243
 20
1636.925691355631
 30
0.0
 11
948.0000000000005
 21
1458.0
 31
0.0
  0
ARC
  5
2DB
330
1F
100
AcDbEntity
  8
便器
  6
CONTINUOUS
 62
     7
100
AcDbCircle
 10
454.4726646065553
 20
1642.310756921303
 30
0.0
 40
11.72744271684375
100
AcDbArc
 50
92.97173892473288
 51
162.8461533839572
  0
ARC
  5
2DC
330
1F
100
AcDbEntity
  8
便器
  6
CONTINUOUS
 62
     7
100
AcDbCircle
 10
453.0000000000004
 20
1670.678588872484
 30
0.0
 40
16.67858887248337
100
AcDbArc
 50
272.9717389247351
 51
353.5092614435593
  0
LINE
  5
2DD
330
1F
100
AcDbEntity
  8
便器
  6
CONTINUOUS
 62
     7
100
AcDbLine
 10
983.0000000000005
 20
1644.0
 30
0.0
 11
983.0000000000005
 21
1643.499999999995
 31
0.0
  0
LINE
  5
2DE
330
1F
100
AcDbEntity
  8
便器
  6
CONTINUOUS
 62
     7
100
AcDbLine
 10
453.8646743718002
 20
1654.0
 30
0.0
 11
973.0000000000005
 21
1654.0
 31
0.0
  0
ARC
  5
2DF
330
1F
100
AcDbEntity
  8
便器
  6
CONTINUOUS
 62
     7
100
AcDbCircle
 10
449.0000000000006
 20
1644.0
 30
0.0
 40
6.000000000000012
100
AcDbArc
 50
162.8461533839561
 51
270.0000000000002
  0
ARC
  5
2E0
330
1F
100
AcDbEntity
  8
便器
  6
CONTINUOUS
 62
     7
100
AcDbCircle
 10
528.0000000000005
 20
1638.000000000001
 30
0.0
 40
60.00000000000004
100
AcDbArc
 50
180.0
 51
239.9110934263466
  0
ARC
  5
2E1
330
1F
100
AcDbEntity
  8
便器
  6
CONTINUOUS
 62
     7
100
AcDbCircle
 10
965.9465088959084
 20
1636.480902871771
 30
0.0
 40
8.018538426469641
100
AcDbArc
 50
169.0794204126375
 51
176.8201698801369
  0
ARC
  5
2E2
330
1F
100
AcDbEntity
  8
便器
  6
CONTINUOUS
 62
     7
100
AcDbCircle
 10
977.5000000000002
 20
1643.499999999995
 30
0.0
 40
5.49999999999415
100
AcDbArc
 50
270.0000000000002
 51
0.0
  0
LINE
  5
2E3
330
1F
100
AcDbEntity
  8
便器
  6
CONTINUOUS
 62
     2
100
AcDbLine
 10
528.0000000000005
 20
1775.563321608322
 30
0.0
 11
528.0000000000005
 21
1734.0
 31
0.0
  0
LINE
  5
2E4
330
1F
100
AcDbEntity
  8
便器
  6
CONTINUOUS
 62
     6
100
AcDbLine
 10
676.6656579728999
 20
1638.00045817161
 30
0.0
 11
646.6655053728999
 21
1608.00045817161
 31
0.0
  0
LINE
  5
2E5
330
1F
100
AcDbEntity
  8
便器
  6
CONTINUOUS
 62
     6
100
AcDbLine
 10
644.8457421729
 20
1638.00030557161
 30
0.0
 11
614.8455895729
 21
1608.00030557161
 31
0.0
  0
LINE
  5
2E6
330
1F
100
AcDbEntity
  8
便器
  6
CONTINUOUS
 62
     6
100
AcDbLine
 10
772.1247948705698
 20
1638.00030557161
 30
0.0
 11
742.1247948705698
 21
1608.00015297161
 31
0.0
  0
LINE
  5
2E7
330
1F
100
AcDbEntity
  8
便器
  6
CONTINUOUS
 62
     6
100
AcDbLine
 10
740.3050316705699
 20
1638.00015297161
 30
0.0
 11
710.30487907057
 21
1608.00015297161
 31
0.0
  0
LINE
  5
2E8
330
1F
100
AcDbEntity
  8
便器
  6
CONTINUOUS
 62
     6
100
AcDbLine
 10
708.4851159705698
 20
1638.00015297161
 30
0.0
 11
678.4849633705699
 21
1608.00000037161
 31
0.0
  0
LINE
  5
2E9
330
1F
100
AcDbEntity
  8
便器
  6
CONTINUOUS
 62
     6
100
AcDbLine
 10
549.3866052721298
 20
1638.00045817161
 30
0.0
 11
519.38645267213
 21
1608.00045817161
 31
0.0
  0
LINE
  5
2EA
330
1F
100
AcDbEntity
  8
便器
  6
CONTINUOUS
 62
     6
100
AcDbLine
 10
517.5666894721301
 20
1638.00030557161
 30
0.0
 11
487.56653687213
 21
1608.00030557161
 31
0.0
  0
LINE
  5
2EB
330
1F
100
AcDbEntity
  8
便器
  6
CONTINUOUS
 62
     6
100
AcDbLine
 10
613.0259789697999
 20
1638.00015297161
 30
0.0
 11
583.0258263697999
 21
1608.00015297161
 31
0.0
  0
LINE
  5
2EC
330
1F
100
AcDbEntity
  8
便器
  6
CONTINUOUS
 62
     6
100
AcDbLine
 10
581.2060632697999
 20
1638.00015297161
 30
0.0
 11
551.2059106697998
 21
1608.00000037161
 31
0.0
  0
LINE
  5
2ED
330
1F
100
AcDbEntity
  8
便器
  6
CONTINUOUS
 62
     6
100
AcDbLine
 10
422.1075525713601
 20
1638.00045817161
 30
0.0
 11
392.1073999713602
 21
1608.00045817161
 31
0.0
  0
LINE
  5
2EE
330
1F
100
AcDbEntity
  8
便器
  6
CONTINUOUS
 62
     6
100
AcDbLine
 10
390.2876367713603
 20
1638.00030557161
 30
0.0
 11
360.2874841713603
 21
1608.00030557161
 31
0.0
  0
LINE
  5
2EF
330
1F
100
AcDbEntity
  8
便器
  6
CONTINUOUS
 62
     6
100
AcDbLine
 10
485.7469262690299
 20
1638.00015297161
 30
0.0
 11
455.7467736690299
 21
1608.00015297161
 31
0.0
  0
LINE
  5
2F0
330
1F
100
AcDbEntity
  8
便器
  6
CONTINUOUS
 62
     6
100
AcDbLine
 10
453.9270105690301
 20
1638.00015297161
 30
0.0
 11
423.9268579690301
 21
1608.00000037161
 31
0.0
  0
LINE
  5
2F1
330
1F
100
AcDbEntity
  8
便器
  6
CONTINUOUS
 62
     6
100
AcDbLine
 10
358.4678735682601
 20
1638.00015297161
 30
0.0
 11
328.4677209682602
 21
1608.00015297161
 31
0.0
  0
LINE
  5
2F2
330
1F
100
AcDbEntity
  8
便器
  6
CONTINUOUS
 62
     6
100
AcDbLine
 10
867.58423697522
 20
1638.00045817161
 30
0.0
 11
837.5840843752201
 21
1608.00045817161
 31
0.0
  0
LINE
  5
2F3
330
1F
100
AcDbEntity
  8
便器
  6
CONTINUOUS
 62
     6
100
AcDbLine
 10
835.7643211752202
 20
1638.00030557161
 30
0.0
 11
805.7641685752202
 21
1608.00030557161
 31
0.0
  0
LINE
  5
2F4
330
1F
100
AcDbEntity
  8
便器
  6
CONTINUOUS
 62
     6
100
AcDbLine
 10
963.04337387289
 20
1638.00030557161
 30
0.0
 11
933.04337387289
 21
1608.00015297161
 31
0.0
  0
LINE
  5
2F5
330
1F
100
AcDbEntity
  8
便器
  6
CONTINUOUS
 62
     6
100
AcDbLine
 10
931.2236106728901
 20
1638.00015297161
 30
0.0
 11
901.22345807289
 21
1608.00015297161
 31
0.0
  0
LINE
  5
2F6
330
1F
100
AcDbEntity
  8
便器
  6
CONTINUOUS
 62
     6
100
AcDbLine
 10
899.40369497289
 20
1638.00015297161
 30
0.0
 11
869.40354237289
 21
1608.00000037161
 31
0.0
  0
LINE
  5
2F7
330
1F
100
AcDbEntity
  8
便器
  6
CONTINUOUS
 62
     6
100
AcDbLine
 10
803.94455797212
 20
1638.00015297161
 30
0.0
 11
773.9444053721201
 21
1608.00015297161
 31
0.0
  0
LINE
  5
2F8
330
1F
100
AcDbEntity
  8
便器
  6
CONTINUOUS
 62
     6
100
AcDbLine
 10
1026.68290017754
 20
1638.00030557161
 30
0.0
 11
996.6827475775401
 21
1608.00030557161
 31
0.0
  0
LINE
  5
2F9
330
1F
100
AcDbEntity
  8
便器
  6
CONTINUOUS
 62
     6
100
AcDbLine
 10
994.8631369744398
 20
1638.00015297161
 30
0.0
 11
964.86298437444
 21
1608.00015297161
 31
0.0
  0
LINE
  5
2FA
330
1F
100
AcDbEntity
  8
便器
  6
CONTINUOUS
 62
     7
100
AcDbLine
 10
1425.0
 20
1638.000000000001
 30
0.0
 11
1428.0
 21
1458.0
 31
0.0
  0
LINE
  5
2FB
330
1F
100
AcDbEntity
  8
便器
  6
CONTINUOUS
 62
     7
100
AcDbLine
 10
1641.000000000001
 20
1638.000000000001
 30
0.0
 11
1638.000000000001
 21
1458.0
 31
0.0
  0
ARC
  5
2FC
330
1F
100
AcDbEntity
  8
便器
  6
CONTINUOUS
 62
     7
100
AcDbCircle
 10
1413.0
 20
1644.0
 30
0.0
 40
10.0
100
AcDbArc
 50
90.00000000000004
 51
180.0
  0
ARC
  5
2FD
330
1F
100
AcDbEntity
  8
便器
  6
CONTINUOUS
 62
     7
100
AcDbCircle
 10
1653.000000000001
 20
1644.0
 30
0.0
 40
10.0
100
AcDbArc
 50
0.0
 51
90.00000000000004
  0
LINE
  5
2FE
330
1F
100
AcDbEntity
  8
便器
  6
CONTINUOUS
 62
     7
100
AcDbLine
 10
1413.0
 20
1654.0
 30
0.0
 11
1653.000000000001
 21
1654.0
 31
0.0
  0
LINE
  5
2FF
330
1F
100
AcDbEntity
  8
便器
  6
CONTINUOUS
 62
     7
100
AcDbLine
 10
1403.0
 20
1644.0
 30
0.0
 11
1403.0
 21
1638.000000000001
 31
0.0
  0
LINE
  5
300
330
1F
100
AcDbEntity
  8
便器
  6
CONTINUOUS
 62
     7
100
AcDbLine
 10
1663.000000000001
 20
1644.0
 30
0.0
 11
1663.000000000001
 21
1638.000000000001
 31
0.0
  0
LINE
  5
301
330
1F
100
AcDbEntity
  8
便器
  6
CONTINUOUS
 62
     7
100
AcDbLine
 10
1428.0
 20
1458.0
 30
0.0
 11
1638.000000000001
 21
1458.0
 31
0.0
  0
ARC
  5
302
330
1F
100
AcDbEntity
  8
便器
  6
CONTINUOUS
 62
     7
100
AcDbCircle
 10
1506.577879793154
 20
1695.286572598115
 30
0.0
 40
80.0
100
AcDbArc
 50
101.7269039038099
 51
170.0942834811669
  0
ARC
  5
303
330
1F
100
AcDbEntity
  8
便器
  6
CONTINUOUS
 62
     7
100
AcDbCircle
 10
1559.422120206847
 20
1695.286572598115
 30
0.0
 40
80.0
100
AcDbArc
 50
9.905716518832671
 51
78.27309609619026
  0
ARC
  5
304
330
1F
100
AcDbEntity
  8
便器
  6
CONTINUOUS
 62
     7
100
AcDbCircle
 10
1533.000000000001
 20
1568.000000000001
 30
0.0
 40
210.0000000000002
100
AcDbArc
 50
78.2730960961902
 51
101.72690390381
  0
ARC
  5
305
330
1F
100
AcDbEntity
  8
便器
  6
CONTINUOUS
 62
     7
100
AcDbCircle
 10
1413.151549950588
 20
1664.0
 30
0.0
 40
10.0
100
AcDbArc
 50
270.0000000000002
 51
358.2634984240638
  0
ARC
  5
306
330
1F
100
AcDbEntity
  8
便器
  6
CONTINUOUS
 62
     7
100
AcDbCircle
 10
1743.000000000001
 20
1654.0
 30
0.0
 40
320.0
100
AcDbArc
 50
170.0942834811667
 51
178.263498424062
  0
ARC
  5
307
330
1F
100
AcDbEntity
  8
便器
  6
CONTINUOUS
 62
     7
100
AcDbCircle
 10
1652.848450049414
 20
1664.0
 30
0.0
 40
10.0
100
AcDbArc
 50
181.7365015759363
 51
270.0000000000002
  0
ARC
  5
308
330
1F
100
AcDbEntity
  8
便器
  6
CONTINUOUS
 62
     7
100
AcDbCircle
 10
1323.0
 20
1654.0
 30
0.0
 40
320.0
100
AcDbArc
 50
1.736501575937345
 51
9.905716518832786
  0
ARC
  5
309
330
1F
100
AcDbEntity
  8
便器
  6
CONTINUOUS
 62
     7
100
AcDbCircle
 10
1514.533232270682
 20
1681.085063941803
 30
0.0
 40
80.0
100
AcDbArc
 50
101.8404055623979
 51
173.5201125479289
  0
ARC
  5
30A
330
1F
100
AcDbEntity
  8
便器
  6
CONTINUOUS
 62
     7
100
AcDbCircle
 10
1551.466767729319
 20
1681.085063941803
 30
0.0
 40
80.0
100
AcDbArc
 50
6.479887452071103
 51
78.15959443760254
  0
ARC
  5
30B
330
1F
100
AcDbEntity
  8
便器
  6
CONTINUOUS
 62
     7
100
AcDbCircle
 10
1753.000000000001
 20
1654.0
 30
0.0
 40
320.0
100
AcDbArc
 50
173.5201125479291
 51
180.0
  0
ARC
  5
30C
330
1F
100
AcDbEntity
  8
便器
  6
CONTINUOUS
 62
     7
100
AcDbCircle
 10
1313.0
 20
1654.0
 30
0.0
 40
320.0
100
AcDbArc
 50
0.0
 51
6.479887452070702
  0
ARC
  5
30D
330
1F
100
AcDbEntity
  8
便器
  6
CONTINUOUS
 62
     7
100
AcDbCircle
 10
1533.000000000001
 20
1593.000000000001
 30
0.0
 40
170.0
100
AcDbArc
 50
78.48589405979885
 51
101.840405562398
  0
LINE
  5
30E
330
1F
100
AcDbEntity
  8
便器
  6
EXLTYPE3
 62
     6
100
AcDbLine
 10
1533.000000000001
 20
1783.61677112003
 30
0.0
 11
1533.000000000001
 21
1448.0
 31
0.0
  0
LINE
  5
30F
330
1F
100
AcDbEntity
  8
便器
  6
CONTINUOUS
 62
     6
100
AcDbLine
 10
1564.82022137316
 20
1638.00045817161
 30
0.0
 11
1534.82006877316
 21
1608.00045817161
 31
0.0
  0
LINE
  5
310
330
1F
100
AcDbEntity
  8
便器
  6
CONTINUOUS
 62
     6
100
AcDbLine
 10
1533.00030557316
 20
1638.00030557161
 30
0.0
 11
1503.00015297316
 21
1608.00030557161
 31
0.0
  0
LINE
  5
311
330
1F
100
AcDbEntity
  8
便器
  6
CONTINUOUS
 62
     6
100
AcDbLine
 10
1628.45959507083
 20
1638.00015297161
 30
0.0
 11
1598.45944247083
 21
1608.00015297161
 31
0.0
  0
LINE
  5
312
330
1F
100
AcDbEntity
  8
便器
  6
CONTINUOUS
 62
     6
100
AcDbLine
 10
1596.63967937083
 20
1638.00015297161
 30
0.0
 11
1566.63952677083
 21
1608.00000037161
 31
0.0
  0
LINE
  5
313
330
1F
100
AcDbEntity
  8
便器
  6
CONTINUOUS
 62
     7
100
AcDbLine
 10
1368.6
 20
1638.000000000001
 30
0.0
 11
1700.0
 21
1638.000000000001
 31
0.0
  0
LINE
  5
314
330
1F
100
AcDbEntity
  8
便器
  6
CONTINUOUS
 62
     6
100
AcDbLine
 10
1469.36077927476
 20
1638.00045817161
 30
0.0
 11
1439.36062667476
 21
1608.00045817161
 31
0.0
  0
LINE
  5
315
330
1F
100
AcDbEntity
  8
便器
  6
CONTINUOUS
 62
     6
100
AcDbLine
 10
1437.54086347476
 20
1638.00030557161
 30
0.0
 11
1407.54071087476
 21
1608.00030557161
 31
0.0
  0
LINE
  5
316
330
1F
100
AcDbEntity
  8
便器
  6
CONTINUOUS
 62
     6
100
AcDbLine
 10
1501.18023727243
 20
1638.00015297161
 30
0.0
 11
1471.18008467243
 21
1608.00000037161
 31
0.0
  0
LINE
  5
317
330
1F
100
AcDbEntity
  8
便器
  6
CONTINUOUS
 62
     6
100
AcDbLine
 10
1405.72079517403
 20
1638.00015297161
 30
0.0
 11
1375.72064257403
 21
1608.00000037161
 31
0.0
  0
LINE
  5
318
330
1F
100
AcDbEntity
  8
便器
  6
CONTINUOUS
 62
     6
100
AcDbLine
 10
1660.27951077003
 20
1638.00015297161
 30
0.0
 11
1630.27935817003
 21
1608.00015297161
 31
0.0
  0
LINE
  5
319
330
1F
100
AcDbEntity
  8
便器
  6
CONTINUOUS
 62
     6
100
AcDbLine
 10
1692.09942646923
 20
1638.00015297161
 30
0.0
 11
1662.09927386923
 21
1608.00015297161
 31
0.0
  0
ARC
  5
31A
330
1F
100
AcDbEntity
  8
便器
  6
CONTINUOUS
 62
     7
100
AcDbCircle
 10
1583.204220772011
 20
949.5268487478921
 30
0.0
 40
50.00000000000004
100
AcDbArc
 50
275.7626908346092
 51
352.4281508156408
  0
ARC
  5
31B
330
1F
100
AcDbEntity
  8
便器
  6
CONTINUOUS
 62
     7
100
AcDbCircle
 10
1038.000000000025
 20
1022.0
 30
0.0
 40
600.0000000000002
100
AcDbArc
 50
352.4281508156408
 51
5.359938225715702
  0
ARC
  5
31C
330
1F
100
AcDbEntity
  8
便器
  6
CONTINUOUS
 62
     7
100
AcDbCircle
 10
1565.682587029154
 20
1071.508457320405
 30
0.0
 40
70.00000000000004
100
AcDbArc
 50
5.359938225715588
 51
70.92376845605982
  0
ARC
  5
31D
330
1F
100
AcDbEntity
  8
便器
  6
CONTINUOUS
 62
     7
100
AcDbCircle
 10
1533.0
 20
977.000000000005
 30
0.0
 40
170.0
100
AcDbArc
 50
70.92376845605936
 51
90.00000000000004
  0
ARC
  5
31E
330
1F
100
AcDbEntity
  8
便器
  6
CONTINUOUS
 62
     7
100
AcDbCircle
 10
1533.0
 20
1446.999999999971
 30
0.0
 40
550.0000000000002
100
AcDbArc
 50
270.0000000000002
 51
275.7626908346091
  0
ARC
  5
31F
330
1F
100
AcDbEntity
  8
便器
  6
CONTINUOUS
 62
     7
100
AcDbCircle
 10
1533.000000000058
 20
977.000000000005
 30
0.0
 40
170.0
100
AcDbArc
 50
90.00000000000004
 51
109.0762315439406
  0
ARC
  5
320
330
1F
100
AcDbEntity
  8
便器
  6
CONTINUOUS
 62
     7
100
AcDbCircle
 10
1500.317412970905
 20
1071.508457320405
 30
0.0
 40
70.00000000000004
100
AcDbArc
 50
109.0762315439405
 51
174.6400617742845
  0
ARC
  5
321
330
1F
100
AcDbEntity
  8
便器
  6
CONTINUOUS
 62
     7
100
AcDbCircle
 10
2028.000000000033
 20
1022.0
 30
0.0
 40
600.0000000000002
100
AcDbArc
 50
174.6400617742841
 51
187.5718491843594
  0
ARC
  5
322
330
1F
100
AcDbEntity
  8
便器
  6
CONTINUOUS
 62
     7
100
AcDbCircle
 10
1482.795779228047
 20
949.5268487478921
 30
0.0
 40
50.00000000000004
100
AcDbArc
 50
187.57184918436
 51
264.2373091653922
  0
ARC
  5
323
330
1F
100
AcDbEntity
  8
便器
  6
CONTINUOUS
 62
     7
100
AcDbCircle
 10
1533.000000000058
 20
1446.999999999971
 30
0.0
 40
550.0000000000002
100
AcDbArc
 50
264.2373091653911
 51
270.0000000000002
  0
LINE
  5
324
330
1F
100
AcDbEntity
  8
便器
  6
EXLTYPE3
 62
     6
100
AcDbLine
 10
1533.0
 20
1167.000000000005
 30
0.0
 11
1533.0
 21
876.9999999999715
 31
0.0
  0
LINE
  5
325
330
1F
100
AcDbEntity
  8
便器
  6
EXLTYPE3
 62
     6
100
AcDbLine
 10
1658.000000000001
 20
1022.0
 30
0.0
 11
1408.0
 21
1022.0
 31
0.0
  0
TEXT
  5
326
330
1F
100
AcDbEntity
  8
便器
  6
CONTINUOUS
 62
     2
100
AcDbText
 10
1389.04
 20
696.5000000000003
 30
0.0
 40
40.0
  1
排水穴外周寸法図
 41
1.131914893617021
  7
EXCADSTD
 72
     5
 11
1693.04
 21
696.5000000000003
 31
0.0
100
AcDbText
  0
LINE
  5
327
330
1F
100
AcDbEntity
  8
便器
  6
CONTINUOUS
 62
     6
100
AcDbLine
 10
1386.000000000001
 20
693.0000000000007
 30
0.0
 11
1691.0
 21
693.0000000000007
 31
0.0
  0
TEXT
  5
328
330
1F
100
AcDbEntity
  8
便器
  6
CONTINUOUS
 62
     2
100
AcDbText
 10
266.3273311982005
 20
1641.5
 30
0.0
 40
40.0
  1
Ｆ．Ｌ
 41
1.225
  7
EXCADSTD
 72
     5
 11
385.3273311982005
 21
1641.5
 31
0.0
100
AcDbText
  0
LINE
  5
329
330
1F
100
AcDbEntity
  8
便器
  6
CONTINUOUS
 62
     6
100
AcDbLine
 10
326.6482629659301
 20
1638.00015297161
 30
0.0
 11
296.6481103659301
 21
1608.00015297161
 31
0.0
  0
LINE
  5
32A
330
1F
100
AcDbEntity
  8
便器
  6
CONTINUOUS
 62
     6
100
AcDbLine
 10
294.8286523636001
 20
1638.00015297161
 30
0.0
 11
264.8284997636001
 21
1608.00015297161
 31
0.0
  0
LINE
  5
32B
330
1F
100
AcDbEntity
  8
便器
  6
CONTINUOUS
 62
     6
100
AcDbLine
 10
263.0090417612701
 20
1638.00015297161
 30
0.0
 11
233.0088891612701
 21
1608.00015297161
 31
0.0
  0
LINE
  5
32C
330
1F
100
AcDbEntity
  8
便器
  6
CONTINUOUS
 62
     7
100
AcDbLine
 10
237.0
 20
1638.000000000001
 30
0.0
 11
1083.0
 21
1638.000000000001
 31
0.0
  0
TEXT
  5
32D
330
1F
100
AcDbEntity
  8
便器
  6
CONTINUOUS
 62
     2
100
AcDbText
 10
1504.04
 20
1962.85
 30
0.0
 40
40.0
  1
切込寸法図
 41
1.164655172413793
  7
EXCADSTD
 72
     5
 11
1697.04
 21
1962.85
 31
0.0
100
AcDbText
  0
LINE
  5
32E
330
1F
100
AcDbEntity
  8
便器
  6
CONTINUOUS
 62
     6
100
AcDbLine
 10
1504.04
 20
1959.35
 30
0.0
 11
1695.0
 21
1959.35
 31
0.0
  0
DIMENSION
  5
330
330
1F
100
AcDbEntity
  8
寸法
  6
CONTINUOUS
 62
     3
100
AcDbDimension
  2
*D15
 10
1063.0
 20
2439.0
 30
0.0
 11
1039.500000059605
 21
2309.0
 31
0.0
 70
   160
  3
ISO-25
100
AcDbAlignedDimension
 13
823.0000000000005
 23
2179.0
 33
0.0
 14
823.0000000000005
 24
2439.0
 34
0.0
 50
90.0
100
AcDbRotatedDimension
1001
ACAD
1000
DSTYLE
1002
{
1070
   270
1070
     2
1070
     6
1000
EX_NORM
1070
     7
1000
EX_NORM
1070
    41
1040
35.0
1070
    42
1040
96.99999809265137
1070
    44
1040
20.0
1070
    73
1070
     0
1070
    74
1070
     0
1070
    75
1070
     0
1070
    76
1070
     0
1070
    77
1070
     1
1070
    78
1070
     0
1070
   140
1040
40.0
1070
   147
1040
0.0
1070
   173
1070
     1
1070
   176
1070
     3
1070
   177
1070
     3
1070
   178
1070
     2
1070
   271
1070
     0
1070
   277
1070
     2
1070
   279
1070
     2
1070
   280
1070
     0
1070
   287
1070
     5
1070
   340
1005
32F
1002
}
  0
DIMENSION
  5
33E
330
1F
100
AcDbEntity
  8
寸法
  6
CONTINUOUS
 62
     3
100
AcDbDimension
  2
*D16
 10
823.0000000000005
 20
2119.530863128399
 30
0.0
 11
633.0000000000007
 21
2143.030863068795
 31
0.0
 70
   160
  3
ISO-25
100
AcDbAlignedDimension
 13
443.0000000000004
 23
2309.0
 33
0.0
 14
823.0000000000005
 24
2167.0
 34
0.0
100
AcDbRotatedDimension
1001
ACAD
1000
DSTYLE
1002
{
1070
   270
1070
     2
1070
     6
1000
EX_NORM
1070
     7
1000
EX_NORM
1070
    41
1040
35.0
1070
    42
1040
6.99999988079071
1070
    44
1040
80.0
1070
    73
1070
     0
1070
    74
1070
     0
1070
    75
1070
     0
1070
    76
1070
     0
1070
    77
1070
     1
1070
    78
1070
     0
1070
   140
1040
40.0
1070
   147
1040
0.0
1070
   173
1070
     1
1070
   176
1070
     3
1070
   177
1070
     3
1070
   178
1070
     2
1070
   271
1070
     0
1070
   277
1070
     2
1070
   279
1070
     2
1070
   280
1070
     0
1070
   287
1070
     5
1070
   340
1005
32F
1002
}
  0
DIMENSION
  5
34B
330
1F
100
AcDbEntity
  8
寸法
  6
CONTINUOUS
 62
     3
100
AcDbDimension
  2
*D17
 10
983.0000000000005
 20
2059.530863128399
 30
0.0
 11
713.0000000000005
 21
2083.030863068795
 31
0.0
 70
   160
  3
ISO-25
100
AcDbAlignedDimension
 13
443.0000000000004
 23
2099.530863128399
 33
0.0
 14
983.0000000000005
 24
2309.0
 34
0.0
100
AcDbRotatedDimension
1001
ACAD
1000
DSTYLE
1002
{
1070
   270
1070
     2
1070
     6
1000
EX_NORM
1070
     7
1000
EX_NORM
1070
    41
1040
35.0
1070
    42
1040
6.99999988079071
1070
    44
1040
20.0
1070
    73
1070
     0
1070
    74
1070
     0
1070
    75
1070
     1
1070
    76
1070
     0
1070
    77
1070
     1
1070
    78
1070
     0
1070
   140
1040
40.0
1070
   147
1040
0.0
1070
   173
1070
     1
1070
   176
1070
     3
1070
   177
1070
     3
1070
   178
1070
     2
1070
   271
1070
     0
1070
   277
1070
     2
1070
   279
1070
     2
1070
   280
1070
     0
1070
   287
1070
     5
1070
   340
1005
32F
1002
}
  0
DIMENSION
  5
357
330
1F
100
AcDbEntity
  8
寸法
  6
CONTINUOUS
 62
     3
100
AcDbDimension
  2
*D18
 10
1063.0
 20
1638.000000000001
 30
0.0
 11
1039.500000059605
 21
1548.0
 31
0.0
 70
   160
  3
ISO-25
100
AcDbAlignedDimension
 13
948.0000000000005
 23
1458.0
 33
0.0
 14
977.5000000000002
 24
1638.000000000001
 34
0.0
 50
90.0
100
AcDbRotatedDimension
1001
ACAD
1000
DSTYLE
1002
{
1070
   270
1070
     2
1070
     6
1000
EX_NORM
1070
     7
1000
EX_NORM
1070
    41
1040
35.0
1070
    42
1040
6.99999988079071
1070
    44
1040
100.0
1070
    73
1070
     0
1070
    74
1070
     0
1070
    75
1070
     0
1070
    76
1070
     1
1070
    77
1070
     1
1070
    78
1070
     0
1070
   140
1040
40.0
1070
   147
1040
0.0
1070
   173
1070
     1
1070
   176
1070
     3
1070
   177
1070
     3
1070
   178
1070
     2
1070
   271
1070
     0
1070
   277
1070
     2
1070
   279
1070
     2
1070
   280
1070
     0
1070
   287
1070
     5
1070
   340
1005
32F
1002
}
  0
DIMENSION
  5
363
330
1F
100
AcDbEntity
  8
寸法
  6
CONTINUOUS
 62
     3
100
AcDbDimension
  2
*D19
 10
1063.0
 20
1654.0
 30
0.0
 11
1039.500000000001
 21
1720.0
 31
0.0
 70
   160
 53
90.00000000000004
  3
ISO-25
100
AcDbAlignedDimension
 13
977.5000000000002
 23
1638.000000000001
 33
0.0
 14
973.0000000000005
 24
1654.0
 34
0.0
 50
90.0
100
AcDbRotatedDimension
1001
ACAD
1000
DSTYLE
1002
{
1070
   270
1070
     2
1070
     6
1000
EX_NONE
1070
     7
1000
EX_NORM
1070
    41
1040
35.0
1070
    42
1040
6.99999988079071
1070
    44
1040
20.0
1070
    73
1070
     0
1070
    74
1070
     0
1070
    75
1070
     1
1070
    76
1070
     0
1070
    77
1070
     1
1070
    78
1070
     0
1070
   140
1040
40.0
1070
   147
1040
0.0
1070
   173
1070
     1
1070
   176
1070
     3
1070
   177
1070
     3
1070
   178
1070
     2
1070
   271
1070
     0
1070
   277
1070
     2
1070
   279
1070
     2
1070
   280
1070
     0
1070
   287
1070
     5
1070
   340
1005
32F
1002
}
  0
DIMENSION
  5
371
330
1F
100
AcDbEntity
  8
寸法
  6
CONTINUOUS
 62
     3
100
AcDbDimension
  2
*D20
 10
1143.0
 20
1778.000000000001
 30
0.0
 11
1119.500000059605
 21
1618.0
 31
0.0
 70
   160
  3
ISO-25
100
AcDbAlignedDimension
 13
1083.0
 23
1458.0
 33
0.0
 14
532.3000000000004
 24
1778.000000000001
 34
0.0
 50
90.0
100
AcDbRotatedDimension
1001
ACAD
1000
DSTYLE
1002
{
1070
   270
1070
     2
1070
     6
1000
EX_NORM
1070
     7
1000
EX_NORM
1070
    41
1040
35.0
1070
    42
1040
19.19999957084656
1070
    44
1040
20.0
1070
    73
1070
     0
1070
    74
1070
     0
1070
    75
1070
     1
1070
    76
1070
     0
1070
    77
1070
     1
1070
    78
1070
     0
1070
   140
1040
40.0
1070
   147
1040
0.0
1070
   173
1070
     1
1070
   176
1070
     3
1070
   177
1070
     3
1070
   178
1070
     2
1070
   271
1070
     0
1070
   277
1070
     2
1070
   279
1070
     2
1070
   280
1070
     0
1070
   287
1070
     5
1070
   340
1005
32F
1002
}
  0
DIMENSION
  5
37D
330
1F
100
AcDbEntity
  8
寸法
  6
CONTINUOUS
 62
     3
100
AcDbDimension
  2
*D21
 10
678.0000000000002
 20
1654.0
 30
0.0
 11
654.500000059605
 21
1716.000000000001
 31
0.0
 70
   160
  3
ISO-25
100
AcDbAlignedDimension
 13
615.0000000000001
 23
1778.000000000001
 33
0.0
 14
612.0000000000002
 24
1654.0
 34
0.0
 50
90.0
100
AcDbRotatedDimension
1001
ACAD
1000
DSTYLE
1002
{
1070
   270
1070
     2
1070
     6
1000
EX_NORM
1070
     7
1000
EX_NORM
1070
    41
1040
35.0
1070
    42
1040
0.0
1070
    44
1040
0.0
1070
    73
1070
     0
1070
    74
1070
     0
1070
    75
1070
     1
1070
    76
1070
     1
1070
    77
1070
     1
1070
    78
1070
     0
1070
   140
1040
40.0
1070
   147
1040
0.0
1070
   173
1070
     1
1070
   176
1070
     3
1070
   177
1070
     3
1070
   178
1070
     2
1070
   271
1070
     0
1070
   277
1070
     2
1070
   279
1070
     2
1070
   280
1070
     0
1070
   287
1070
     5
1070
   340
1005
32F
1002
}
  0
DIMENSION
  5
388
330
1F
100
AcDbEntity
  8
寸法
  6
CONTINUOUS
 62
     3
100
AcDbDimension
  2
*D22
 10
698.0000000000001
 20
1378.0
 30
0.0
 11
823.0000000000005
 21
1401.499999940395
 31
0.0
 70
   160
  3
ISO-25
100
AcDbAlignedDimension
 13
948.0000000000005
 23
1458.0
 33
0.0
 14
698.0000000000001
 24
1458.0
 34
0.0
100
AcDbRotatedDimension
1001
ACAD
1000
DSTYLE
1002
{
1070
   270
1070
     2
1070
     6
1000
EX_NORM
1070
     7
1000
EX_NORM
1070
    41
1040
35.0
1070
    42
1040
6.99999988079071
1070
    44
1040
20.0
1070
    73
1070
     0
1070
    74
1070
     0
1070
    75
1070
     0
1070
    76
1070
     0
1070
    77
1070
     1
1070
    78
1070
     0
1070
   140
1040
40.0
1070
   147
1040
0.0
1070
   173
1070
     1
1070
   176
1070
     3
1070
   177
1070
     3
1070
   178
1070
     2
1070
   271
1070
     0
1070
   277
1070
     2
1070
   279
1070
     2
1070
   280
1070
     0
1070
   287
1070
     5
1070
   340
1005
32F
1002
}
  0
DIMENSION
  5
395
330
1F
100
AcDbEntity
  8
寸法
  6
CONTINUOUS
 62
     3
100
AcDbDimension
  2
*D23
 10
1638.000000000001
 20
1378.0
 30
0.0
 11
1533.000000000001
 21
1401.499999940395
 31
0.0
 70
   160
  3
ISO-25
100
AcDbAlignedDimension
 13
1428.0
 23
1458.0
 33
0.0
 14
1638.000000000001
 24
1458.0
 34
0.0
100
AcDbRotatedDimension
1001
ACAD
1000
DSTYLE
1002
{
1070
   270
1070
     2
1070
     6
1000
EX_NORM
1070
     7
1000
EX_NORM
1070
    41
1040
35.0
1070
    42
1040
6.99999988079071
1070
    44
1040
20.0
1070
    73
1070
     0
1070
    74
1070
     0
1070
    75
1070
     0
1070
    76
1070
     0
1070
    77
1070
     1
1070
    78
1070
     0
1070
   140
1040
40.0
1070
   147
1040
0.0
1070
   173
1070
     1
1070
   176
1070
     3
1070
   177
1070
     3
1070
   178
1070
     2
1070
   271
1070
     0
1070
   277
1070
     2
1070
   279
1070
     2
1070
   280
1070
     0
1070
   287
1070
     5
1070
   340
1005
32F
1002
}
  0
DIMENSION
  5
3A2
330
1F
100
AcDbEntity
  8
寸法
  6
CONTINUOUS
 62
     3
100
AcDbDimension
  2
*D24
 10
1638.000000000001
 20
816.9999999999999
 30
0.0
 11
1533.000000000001
 21
840.4999999403952
 31
0.0
 70
   160
  3
ISO-25
100
AcDbAlignedDimension
 13
1428.0
 23
1022.0
 33
0.0
 14
1638.000000000001
 24
1022.0
 34
0.0
100
AcDbRotatedDimension
1001
ACAD
1000
DSTYLE
1002
{
1070
   270
1070
     2
1070
     6
1000
EX_NORM
1070
     7
1000
EX_NORM
1070
    41
1040
35.0
1070
    42
1040
6.99999988079071
1070
    44
1040
20.0
1070
    73
1070
     0
1070
    74
1070
     0
1070
    75
1070
     0
1070
    76
1070
     0
1070
    77
1070
     1
1070
    78
1070
     0
1070
   140
1040
40.0
1070
   147
1040
0.0
1070
   173
1070
     1
1070
   176
1070
     3
1070
   177
1070
     3
1070
   178
1070
     2
1070
   271
1070
     0
1070
   277
1070
     2
1070
   279
1070
     2
1070
   280
1070
     0
1070
   287
1070
     5
1070
   340
1005
32F
1002
}
  0
DIMENSION
  5
3AF
330
1F
100
AcDbEntity
  8
寸法
  6
CONTINUOUS
 62
     3
100
AcDbDimension
  2
*D25
 10
1718.0
 20
896.9999999999999
 30
0.0
 11
1694.5
 21
1022.0
 31
0.0
 70
   160
 53
90.00000000000004
  3
ISO-25
100
AcDbAlignedDimension
 13
1532.9999999999
 23
1147.0
 33
0.0
 14
1533.0
 24
896.9999999999999
 34
0.0
 50
90.0
100
AcDbRotatedDimension
1001
ACAD
1000
DSTYLE
1002
{
1070
   270
1070
     2
1070
     6
1000
EX_NORM
1070
     7
1000
EX_NORM
1070
    41
1040
35.0
1070
    42
1040
6.99999988079071
1070
    44
1040
20.0
1070
    73
1070
     0
1070
    74
1070
     0
1070
    75
1070
     0
1070
    76
1070
     0
1070
    77
1070
     1
1070
    78
1070
     0
1070
   140
1040
40.0
1070
   147
1040
0.0
1070
   173
1070
     1
1070
   176
1070
     3
1070
   177
1070
     3
1070
   178
1070
     2
1070
   271
1070
     0
1070
   277
1070
     2
1070
   279
1070
     2
1070
   280
1070
     0
1070
   287
1070
     5
1070
   340
1005
32F
1002
}
  0
DIMENSION
  5
3BC
330
1F
100
AcDbEntity
  8
寸法
  6
CONTINUOUS
 62
     3
100
AcDbDimension
  2
*D26
 10
1662.0
 20
2119.5308631284
 30
0.0
 11
1479.5
 21
2143.030863068795
 31
0.0
 70
   160
  3
ISO-25
100
AcDbAlignedDimension
 13
1297.0
 23
2309.0
 33
0.0
 14
1662.0
 24
2184.0
 34
0.0
100
AcDbRotatedDimension
1001
ACAD
1000
DSTYLE
1002
{
1070
   270
1070
     2
1070
     6
1000
EX_NORM
1070
     7
1000
EX_NORM
1070
    41
1040
35.0
1070
    42
1040
6.99999988079071
1070
    44
1040
20.0
1070
    73
1070
     0
1070
    74
1070
     0
1070
    75
1070
     1
1070
    76
1070
     0
1070
    77
1070
     1
1070
    78
1070
     0
1070
   140
1040
40.0
1070
   147
1040
0.0
1070
   173
1070
     1
1070
   176
1070
     3
1070
   177
1070
     3
1070
   178
1070
     2
1070
   271
1070
     0
1070
   277
1070
     2
1070
   279
1070
     2
1070
   280
1070
     0
1070
   287
1070
     5
1070
   340
1005
32F
1002
}
  0
DIMENSION
  5
3C8
330
1F
100
AcDbEntity
  8
寸法
  6
CONTINUOUS
 62
     3
100
AcDbDimension
  2
*D27
 10
1807.0
 20
2059.5308631284
 30
0.0
 11
1552.0
 21
2083.030863068795
 31
0.0
 70
   160
  3
ISO-25
100
AcDbAlignedDimension
 13
1297.0
 23
2321.5308631284
 33
0.0
 14
1807.0
 24
2321.5308631284
 34
0.0
100
AcDbRotatedDimension
1001
ACAD
1000
DSTYLE
1002
{
1070
   270
1070
     2
1070
     6
1000
EX_NORM
1070
     7
1000
EX_NORM
1070
    41
1040
35.0
1070
    42
1040
19.53086256980896
1070
    44
1040
20.0
1070
    73
1070
     0
1070
    74
1070
     0
1070
    75
1070
     0
1070
    76
1070
     0
1070
    77
1070
     1
1070
    78
1070
     0
1070
   140
1040
40.0
1070
   147
1040
0.0
1070
   173
1070
     1
1070
   176
1070
     3
1070
   177
1070
     3
1070
   178
1070
     2
1070
   271
1070
     0
1070
   277
1070
     2
1070
   279
1070
     2
1070
   280
1070
     0
1070
   287
1070
     5
1070
   340
1005
32F
1002
}
  0
DIMENSION
  5
3D5
330
1F
100
AcDbEntity
  8
寸法
  6
CONTINUOUS
 62
     3
100
AcDbDimension
  2
*D28
 10
1887.0
 20
2424.0
 30
0.0
 11
1863.500000059605
 21
2309.0
 31
0.0
 70
   160
  3
ISO-25
100
AcDbAlignedDimension
 13
1739.2745346069
 23
2194.0
 33
0.0
 14
1739.2745346069
 24
2424.0
 34
0.0
 50
90.0
100
AcDbRotatedDimension
1001
ACAD
1000
DSTYLE
1002
{
1070
   270
1070
     2
1070
     6
1000
EX_NORM
1070
     7
1000
EX_NORM
1070
    41
1040
35.0
1070
    42
1040
6.99999988079071
1070
    44
1040
20.0
1070
    73
1070
     0
1070
    74
1070
     0
1070
    75
1070
     0
1070
    76
1070
     0
1070
    77
1070
     1
1070
    78
1070
     0
1070
   140
1040
40.0
1070
   147
1040
0.0
1070
   173
1070
     1
1070
   176
1070
     3
1070
   177
1070
     3
1070
   178
1070
     2
1070
   271
1070
     0
1070
   277
1070
     2
1070
   279
1070
     2
1070
   280
1070
     0
1070
   287
1070
     5
1070
   340
1005
32F
1002
}
  0
TEXT
  5
3E2
330
1F
100
AcDbEntity
  8
寸法
  6
CONTINUOUS
 62
     2
100
AcDbText
 10
1550.874240491999
 20
1049.536489215211
 30
0.0
 40
30.0
  1
Ｒ
 50
73.85566121971564
 41
1.12
  7
EXCADSTD
 72
     5
 11
1557.547634328985
 21
1072.59003156116
 31
0.0
100
AcDbText
  0
TEXT
  5
3E3
330
1F
100
AcDbEntity
  8
寸法
  6
CONTINUOUS
 62
     2
100
AcDbText
 10
1557.825692405526
 20
1073.550595825575
 30
0.0
 40
30.0
  1
１７０
 50
73.85566121971577
 41
0.9607843137254908
  7
EXCADSTD
 72
     5
 11
1577.289757763401
 21
1140.790094334594
 31
0.0
100
AcDbText
  0
DIMENSION
  5
3E5
330
1F
100
AcDbEntity
  8
寸法
  6
CONTINUOUS
 62
     3
100
AcDbDimension
  2
*D29
 10
1565.682587029154
 20
1071.508457320405
 30
0.0
 11
1598.072929447307
 21
1100.386819803136
 31
0.0
 70
   164
  1
R70
 53
17.21275523077522
  3
ISO-25
100
AcDbRadialDimension
 15
1632.547462567884
 25
1092.222906847007
 35
0.0
 40
0.0
1001
ACAD
1000
DSTYLE
1002
{
1070
   270
1070
     2
1070
     6
1000
EX_NORM
1070
     7
1000
EX_NORM
1070
    41
1040
20.0
1070
    73
1070
     0
1070
    74
1070
     0
1070
    77
1070
     1
1070
    78
1070
     8
1070
   140
1040
30.0
1070
   147
1040
0.0
1070
   173
1070
     1
1070
   176
1070
     3
1070
   177
1070
     3
1070
   178
1070
     2
1070
   271
1070
     2
1070
   277
1070
     2
1070
   279
1070
     2
1070
   280
1070
     0
1070
   287
1070
     5
1070
   340
1005
3E4
1002
}
  0
TEXT
  5
3EE
330
1F
100
AcDbEntity
  8
寸法
  6
CONTINUOUS
 62
     2
100
AcDbText
 10
1540.629735397732
 20
988.6731487020484
 30
0.0
 40
30.0
  1
Ｒ
 50
355.8653286262632
 41
1.120000000000005
  7
EXCADSTD
 72
     5
 11
1564.567271439877
 21
986.942724409845
 31
0.0
100
AcDbText
  0
TEXT
  5
3EF
330
1F
100
AcDbEntity
  8
寸法
  6
CONTINUOUS
 62
     2
100
AcDbText
 10
1565.564668774966
 20
986.8706233976699
 30
0.0
 40
30.0
  1
６００
 50
355.8653286262634
 41
0.9607843137254886
  7
EXCADSTD
 72
     5
 11
1635.38248223122
 21
981.8235525454103
 31
0.0
100
AcDbText
  0
DIMENSION
  5
3F0
330
1F
100
AcDbEntity
  8
寸法
  6
CONTINUOUS
 62
     3
100
AcDbDimension
  2
*D30
 10
1583.204220772011
 20
949.5268487478921
 30
0.0
 11
1610.766094053166
 21
949.9764869056121
 31
0.0
 70
   164
  1
R50
 53
320.167272719497
  3
ISO-25
100
AcDbRadialDimension
 15
1621.600109191412
 25
917.4994268646844
 35
0.0
 40
0.0
1001
ACAD
1000
DSTYLE
1002
{
1070
   270
1070
     2
1070
     6
1000
EX_NORM
1070
     7
1000
EX_NORM
1070
    41
1040
20.0
1070
    73
1070
     0
1070
    74
1070
     0
1070
    77
1070
     1
1070
    78
1070
     8
1070
   140
1040
30.0
1070
   147
1040
0.0
1070
   173
1070
     1
1070
   176
1070
     3
1070
   177
1070
     3
1070
   178
1070
     2
1070
   271
1070
     2
1070
   277
1070
     2
1070
   279
1070
     2
1070
   280
1070
     0
1070
   287
1070
     5
1070
   340
1005
3E4
1002
}
  0
TEXT
  5
3F9
330
1F
100
AcDbEntity
  8
寸法
  6
CONTINUOUS
 62
     2
100
AcDbText
 10
1555.348308329806
 20
983.1974764980043
 30
0.0
 40
27.0
  1
Ｒ
 50
272.6120474734195
 41
1.244444444444443
  7
EXCADSTD
 72
     5
 11
1556.442061259718
 21
959.2224122743509
 31
0.0
100
AcDbText
  0
TEXT
  5
3FA
330
1F
100
AcDbEntity
  8
寸法
  6
CONTINUOUS
 62
     2
100
AcDbText
 10
1556.487634298464
 20
958.2234512650319
 30
0.0
 40
27.0
  1
５５０
 50
272.6120474734196
 41
1.067538126361655
  7
EXCADSTD
 72
     5
 11
1559.677747010705
 21
888.2961806127092
 31
0.0
100
AcDbText
  0
DIMENSION
  5
3FC
330
1F
100
AcDbEntity
  8
寸法
  6
CONTINUOUS
 62
     3
100
AcDbDimension
  2
*D31
 10
1739.274534606948
 20
2359.0
 30
0.0
 11
1754.627819142485
 21
2392.830853643713
 31
0.0
 70
   164
  1
R65
  3
ISO-25
100
AcDbRadialDimension
 15
1791.450526190135
 25
2397.764234834589
 35
0.0
 40
0.0
1001
ACAD
1000
DSTYLE
1002
{
1070
   270
1070
     2
1070
     6
1000
EX_NORM
1070
     7
1000
EX_NORM
1070
    41
1040
20.0
1070
    73
1070
     0
1070
    74
1070
     0
1070
    77
1070
     1
1070
    78
1070
     8
1070
   140
1040
30.0
1070
   147
1040
0.0
1070
   173
1070
     1
1070
   176
1070
     3
1070
   177
1070
     3
1070
   178
1070
     2
1070
   271
1070
     2
1070
   277
1070
     2
1070
   279
1070
     2
1070
   280
1070
     0
1070
   287
1070
     5
1070
   340
1005
3FB
1002
}
  0
TEXT
  5
405
330
1F
100
AcDbEntity
  8
寸法
  6
CONTINUOUS
 62
     2
100
AcDbText
 10
1711.997046143496
 20
2332.684688517458
 30
0.0
 40
30.0
  1
Ｒ
 50
2.753586903258235
 41
1.120000000000004
  7
EXCADSTD
 72
     5
 11
1735.969335286051
 21
2333.837664347962
 31
0.0
100
AcDbText
  0
TEXT
  5
406
330
1F
100
AcDbEntity
  8
寸法
  6
CONTINUOUS
 62
     2
100
AcDbText
 10
1736.968180666991
 20
2333.885705007566
 30
0.0
 40
30.0
  1
５２５
 50
2.753586903258368
 41
0.9607843137254886
  7
EXCADSTD
 72
     5
 11
1806.887357332777
 21
2337.248551179869
 31
0.0
100
AcDbText
  0
DIMENSION
  5
407
330
1F
100
AcDbEntity
  8
寸法
  6
CONTINUOUS
 62
     3
100
AcDbDimension
  2
*D32
 10
1379.738892291072
 20
2344.0
 30
0.0
 11
1379.815421384375
 21
2387.863357687133
 31
0.0
 70
   164
  1
R80
  3
ISO-25
100
AcDbRadialDimension
 15
1347.037051205378
 25
2417.010886788245
 35
0.0
 40
0.0
1001
ACAD
1000
DSTYLE
1002
{
1070
   270
1070
     2
1070
     6
1000
EX_NORM
1070
     7
1000
EX_NORM
1070
    41
1040
20.0
1070
    73
1070
     0
1070
    74
1070
     0
1070
    77
1070
     1
1070
    78
1070
     8
1070
   140
1040
30.0
1070
   147
1040
0.0
1070
   173
1070
     1
1070
   176
1070
     3
1070
   177
1070
     3
1070
   178
1070
     2
1070
   271
1070
     2
1070
   277
1070
     2
1070
   279
1070
     2
1070
   280
1070
     0
1070
   287
1070
     5
1070
   340
1005
3FB
1002
}
  0
TEXT
  5
410
330
1F
100
AcDbEntity
  8
寸法
  6
CONTINUOUS
 62
     2
100
AcDbText
 10
1298.012100051746
 20
2330.429013679567
 30
0.0
 40
30.0
  1
Ｒ
 50
356.5317707410826
 41
1.120000000000005
  7
EXCADSTD
 72
     5
 11
1321.968143970895
 21
2328.977132229922
 31
0.0
100
AcDbText
  0
TEXT
  5
411
330
1F
100
AcDbEntity
  8
寸法
  6
CONTINUOUS
 62
     2
100
AcDbText
 10
1322.966312467526
 20
2328.91663716952
 30
0.0
 40
30.0
  1
３０５
 50
356.5317707410827
 41
0.9607843137254891
  7
EXCADSTD
 72
     5
 11
1392.838107231709
 21
2324.681982941387
 31
0.0
100
AcDbText
  0
LINE
  5
412
330
1F
100
AcDbEntity
  8
寸法
  6
CONTINUOUS
 62
     3
100
AcDbLine
 10
1533.0
 20
1035.0
 30
0.0
 11
1544.0
 21
1045.0
 31
0.0
  0
LINE
  5
413
330
1F
100
AcDbEntity
  8
寸法
  6
CONTINUOUS
 62
     3
100
AcDbLine
 10
1544.0
 20
1045.0
 30
0.0
 11
1548.927156549501
 21
1032.021086262
 31
0.0
  0
LINE
  5
414
330
1F
100
AcDbEntity
  8
寸法
  6
CONTINUOUS
 62
     3
100
AcDbLine
 10
1478.0
 20
1022.0
 30
0.0
 11
1518.0
 21
1003.0
 31
0.0
  0
LINE
  5
415
330
1F
100
AcDbEntity
  8
寸法
  6
CONTINUOUS
 62
     3
100
AcDbLine
 10
1518.0
 20
1003.0
 30
0.0
 11
1486.9670758123
 21
989.54454873646
 31
0.0
  0
LINE
  5
416
330
1F
100
AcDbEntity
  8
寸法
  6
CONTINUOUS
 62
     3
100
AcDbLine
 10
1533.0
 20
971.0000000000002
 30
0.0
 11
1543.0
 21
956.0000000000002
 31
0.0
  0
LINE
  5
417
330
1F
100
AcDbEntity
  8
寸法
  6
CONTINUOUS
 62
     3
100
AcDbLine
 10
1543.0
 20
956.0000000000002
 30
0.0
 11
1554.4841374543
 21
976.06770700065
 31
0.0
  0
LINE
  5
418
330
1F
100
AcDbEntity
  8
寸法
  6
CONTINUOUS
 62
     3
100
AcDbLine
 10
1558.065171310467
 20
897.5714448745784
 30
0.0
 11
1552.013765117784
 21
916.6339862343023
 31
0.0
  0
LINE
  5
419
330
1F
100
AcDbEntity
  8
寸法
  6
CONTINUOUS
 62
     3
100
AcDbLine
 10
1558.065171310467
 20
897.5714448745784
 30
0.0
 11
1562.355770498848
 21
917.1057930491315
 31
0.0
  0
LINE
  5
41A
330
1F
100
AcDbEntity
  8
寸法
  6
CONTINUOUS
 62
     3
100
AcDbLine
 10
1636.438401053631
 20
978.7393926949178
 30
0.0
 11
1616.796941850495
 21
974.9693687730365
 31
0.0
  0
LINE
  5
41B
330
1F
100
AcDbEntity
  8
寸法
  6
CONTINUOUS
 62
     3
100
AcDbLine
 10
1636.438401053631
 20
978.7393926949178
 30
0.0
 11
1617.543386455378
 21
985.2951858072612
 31
0.0
  0
LINE
  5
41C
330
1F
100
AcDbEntity
  8
寸法
  6
CONTINUOUS
 62
     3
100
AcDbLine
 10
1580.269873011982
 20
1140.29592495048
 30
0.0
 11
1579.870449978705
 21
1120.299913817244
 31
0.0
  0
LINE
  5
41D
330
1F
100
AcDbEntity
  8
寸法
  6
CONTINUOUS
 62
     3
100
AcDbLine
 10
1580.269873011982
 20
1140.29592495048
 30
0.0
 11
1569.925956951689
 21
1123.17858285138
 31
0.0
  0
LINE
  5
41E
330
1F
100
AcDbEntity
  8
寸法
  6
CONTINUOUS
 62
     3
100
AcDbLine
 10
1558.065171310467
 20
897.5714448745784
 30
0.0
 11
1554.484137454347
 21
976.0677070007324
 31
0.0
  0
LINE
  5
41F
330
1F
100
AcDbEntity
  8
寸法
  6
CONTINUOUS
 62
     3
100
AcDbLine
 10
1636.438401053631
 20
978.7393926949178
 30
0.0
 11
1486.9670758123
 21
989.5445487364606
 31
0.0
  0
LINE
  5
420
330
1F
100
AcDbEntity
  8
寸法
  6
CONTINUOUS
 62
     3
100
AcDbLine
 10
1580.269873011982
 20
1140.29592495048
 30
0.0
 11
1548.927156549524
 21
1032.021086261993
 31
0.0
  0
LINE
  5
421
330
1F
100
AcDbEntity
  8
寸法
  6
CONTINUOUS
 62
     3
100
AcDbLine
 10
1385.2
 20
2309.0
 30
0.0
 11
1372.0
 21
2315.4
 31
0.0
  0
LINE
  5
422
330
1F
100
AcDbEntity
  8
寸法
  6
CONTINUOUS
 62
     3
100
AcDbLine
 10
1372.0
 20
2315.4
 30
0.0
 11
1388.2215919488
 21
2321.9562671546
 31
0.0
  0
LINE
  5
423
330
1F
100
AcDbEntity
  8
寸法
  6
CONTINUOUS
 62
     3
100
AcDbLine
 10
1297.558608527487
 20
2327.450993422577
 30
0.0
 11
1317.154888600504
 21
2331.449218941465
 31
0.0
  0
LINE
  5
424
330
1F
100
AcDbEntity
  8
寸法
  6
CONTINUOUS
 62
     3
100
AcDbLine
 10
1297.558608527487
 20
2327.450993422577
 30
0.0
 11
1316.528597649838
 21
2321.115418255485
 31
0.0
  0
LINE
  5
425
330
1F
100
AcDbEntity
  8
寸法
  6
CONTINUOUS
 62
     3
100
AcDbLine
 10
1806.393824993398
 20
2334.221346292268
 30
0.0
 11
1787.34629074791
 21
2328.122867861794
 31
0.0
  0
LINE
  5
426
330
1F
100
AcDbEntity
  8
寸法
  6
CONTINUOUS
 62
     3
100
AcDbLine
 10
1806.393824993398
 20
2334.221346292268
 30
0.0
 11
1786.848937242114
 21
2338.46367616979
 31
0.0
  0
LINE
  5
427
330
1F
100
AcDbEntity
  8
寸法
  6
CONTINUOUS
 62
     3
100
AcDbLine
 10
1700.0
 20
2309.0
 30
0.0
 11
1721.0
 21
2318.0
 31
0.0
  0
LINE
  5
428
330
1F
100
AcDbEntity
  8
寸法
  6
CONTINUOUS
 62
     3
100
AcDbLine
 10
1721.0
 20
2318.0
 30
0.0
 11
1705.885181727476
 21
2329.387263249418
 31
0.0
  0
LINE
  5
429
330
1F
100
AcDbEntity
  8
寸法
  6
CONTINUOUS
 62
     3
100
AcDbLine
 10
1806.393824993398
 20
2334.221346292268
 30
0.0
 11
1705.885181727499
 21
2329.387263249419
 31
0.0
  0
LINE
  5
42A
330
1F
100
AcDbEntity
  8
寸法
  6
CONTINUOUS
 62
     3
100
AcDbLine
 10
1297.558608527487
 20
2327.450993422577
 30
0.0
 11
1388.221591948801
 21
2321.956267154618
 31
0.0
  0
ENDSEC
  0
SECTION
  2
OBJECTS
  0
DICTIONARY
  5
C
330
0
100
AcDbDictionary
  3
ACAD_GROUP
350
D
  3
ACAD_LAYOUT
350
1A
  3
ACAD_MATERIAL
350
3B
  3
ACAD_MLEADERSTYLE
350
44D
  3
ACAD_MLINESTYLE
350
17
  3
ACAD_PLOTSETTINGS
350
19
  3
ACAD_VISUALSTYLE
350
2A
  3
ACDBHEADERROUNDTRIPXREC
350
42B
  3
ACDBVARIABLEDICTIONARY
350
44B
  0
DICTIONARY
  5
D
102
{ACAD_REACTORS
330
C
102
}
330
C
100
AcDbDictionary
  0
DICTIONARY
  5
1A
102
{ACAD_REACTORS
330
C
102
}
330
C
100
AcDbDictionary
  0
DICTIONARY
  5
3B
102
{ACAD_REACTORS
330
C
102
}
330
C
100
AcDbDictionary
  3
BYBLOCK
350
3D
  3
BYLAYER
350
3C
  3
GLOBAL
350
3E
  0
DICTIONARY
  5
44D
102
{ACAD_REACTORS
330
C
102
}
330
C
100
AcDbDictionary
  0
DICTIONARY
  5
17
102
{ACAD_REACTORS
330
C
102
}
330
C
100
AcDbDictionary
  3
STANDARD
350
18
  0
DICTIONARY
  5
19
102
{ACAD_REACTORS
330
C
102
}
330
C
100
AcDbDictionary
  0
DICTIONARY
  5
2A
102
{ACAD_REACTORS
330
C
102
}
330
C
100
AcDbDictionary
  3
2DWIREFRAME
350
2F
  3
3D_HIDDEN
350
31
  3
3DWIREFRAME
350
30
  3
BASIC
350
32
  3
BRIGHTEN
350
36
  3
COLORCHANGE
350
3A
  3
CONCEPTUAL
350
34
  3
DIM
350
35
  3
FACEPATTERN
350
39
  3
FLAT
350
2B
  3
FLATWITHEDGES
350
2C
  3
GOURAUD
350
2D
  3
GOURAUDWITHEDGES
350
2E
  3
LINEPATTERN
350
38
  3
REALISTIC
350
33
  3
THICKEN
350
37
  0
DICTIONARY
  5
42B
102
{ACAD_REACTORS
330
C
102
}
330
C
100
AcDbDictionary
  3
CEPSNTYPE
350
434
  3
DIMSTYLEDATA
350
44A
  3
FINGERPRINTGUID
350
435
  3
HYPERLINKBASE
350
42E
  3
INSUNITS
350
433
  3
LAYOUTDICT
350
430
  3
LWETCUNION
350
432
  3
PLOTSETDICT
350
431
  3
PSVPSCALE
350
437
  3
PUCSBASE
350
43A
  3
PUCSORGBACK
350
440
  3
PUCSORGBOTTOM
350
43C
  3
PUCSORGFRONT
350
43F
  3
PUCSORGLEFT
350
43D
  3
PUCSORGRIGHT
350
43E
  3
PUCSORGTOP
350
43B
  3
PUCSORTHOREF
350
438
  3
PUCSORTHOVIEW
350
439
  3
STYLESHEET
350
42F
  3
TSTACKALIGN
350
42C
  3
TSTACKSIZE
350
42D
  3
UCSBASE
350
443
  3
UCSORGBACK
350
449
  3
UCSORGBOTTOM
350
445
  3
UCSORGFRONT
350
448
  3
UCSORGLEFT
350
446
  3
UCSORGRIGHT
350
447
  3
UCSORGTOP
350
444
  3
UCSORTHOREF
350
441
  3
UCSORTHOVIEW
350
442
  3
VERSIONGUID
350
436
  0
DICTIONARY
  5
44B
102
{ACAD_REACTORS
330
C
102
}
330
C
100
AcDbDictionary
  3
DIMASSOC
350
450
  3
HIDETEXT
350
451
  3
PSOLHEIGHT
350
44F
  3
PSOLWIDTH
350
44E
  0
MATERIAL
  5
3D
102
{ACAD_REACTORS
330
3B
102
}
102
{ACAD_XDICTIONARY
360
454
102
}
330
3B
100
AcDbMaterial
  1
ByBlock
  0
MATERIAL
  5
3C
102
{ACAD_REACTORS
330
3B
102
}
102
{ACAD_XDICTIONARY
360
452
102
}
330
3B
100
AcDbMaterial
  1
ByLayer
  0
MATERIAL
  5
3E
102
{ACAD_REACTORS
330
3B
102
}
102
{ACAD_XDICTIONARY
360
456
102
}
330
3B
100
AcDbMaterial
  1
Global
  0
MLINESTYLE
  5
18
102
{ACAD_REACTORS
330
17
102
}
330
17
100
AcDbMlineStyle
  2
Standard
 70
     0
  3

 62
   256
 51
90.0
 52
90.0
 71
     2
 49
0.5
 62
   256
  6
BYLAYER
 49
-0.5
 62
   256
  6
BYLAYER
  0
ACAD_PROXY_OBJECT
  5
2F
102
{ACAD_REACTORS
330
2A
102
}
330
2A
100
AcDbProxyObject
 90
      499
 91
      501
 93
      436
310
42CC9915DA5C99599C985B595049028333333333333E3BF0000000000000FB0107901411070040501600405405064090741402480A0340
1001
ACAD
1000
AcDbSavedByObjectVersion
1070
     0
  0
ACAD_PROXY_OBJECT
  5
31
102
{ACAD_REACTORS
330
2A
102
}
330
2A
100
AcDbProxyObject
 90
      499
 91
      501
 93
      500
310
424CD108121A5919195B90640502408333333333333E3BF0000000000000FB01079024090700405020000000000001110200405405064090740C02480A0340
1001
ACAD
1000
AcDbSavedByObjectVersion
1070
     0
  0
ACAD_PROXY_OBJECT
  5
30
102
{ACAD_REACTORS
330
2A
102
}
330
2A
100
AcDbProxyObject
 90
      499
 91
      501
 93
      436
310
42CCD915DA5C99599C985B595059028333333333333E3BF0000000000000FB0107901411070040501600405405064090741402480A0340
1001
ACAD
1000
AcDbSavedByObjectVersion
1070
     0
  0
ACAD_PROXY_OBJECT
  5
32
102
{ACAD_REACTORS
330
2A
102
}
330
2A
100
AcDbProxyObject
 90
      499
 91
      501
 93
      388
310
4150985CDA58D07406404333333333333E3BF0000000000000FB0107A41107004050150841D405064090741402480A0350
1001
ACAD
1000
AcDbSavedByObjectVersion
1070
     0
  0
ACAD_PROXY_OBJECT
  5
36
102
{ACAD_REACTORS
330
2A
102
}
330
2A
100
AcDbProxyObject
 90
      499
 91
      501
 93
      428
310
42109C9A59DA1D195B90C409028333333333333E3BF0000000000000FB010790141107004050150841D405064090741402480A029950
1001
ACAD
1000
AcDbSavedByObjectVersion
1070
     0
  0
ACAD_PROXY_OBJECT
  5
3A
102
{ACAD_REACTORS
330
2A
102
}
330
2A
100
AcDbProxyObject
 90
      499
 91
      501
 93
      452
310
42D0DBDB1BDC90DA185B99D95104090240C333333333333E3BF0000000000000FB0108901411070040501508421405064090741402480A0350
1001
ACAD
1000
AcDbSavedByObjectVersion
1070
     0
  0
ACAD_PROXY_OBJECT
  5
34
102
{ACAD_REACTORS
330
2A
102
}
330
2A
100
AcDbProxyObject
 90
      499
 91
      501
 93
      500
310
4290DBDB98D95C1D1D585B10940D028333333333333E3BF0000000000000FB0107902409070040501000000000000111010841D405064090740C02480A0340
1001
ACAD
1000
AcDbSavedByObjectVersion
1070
     0
  0
ACAD_PROXY_OBJECT
  5
35
102
{ACAD_REACTORS
330
2A
102
}
330
2A
100
AcDbProxyObject
 90
      499
 91
      501
 93
      412
310
40D11A5B50B409028333333333333E3BF0000000000000FB010790141107004050150841D405064090741402480A02677FFFFFD0
1001
ACAD
1000
AcDbSavedByObjectVersion
1070
     0
  0
ACAD_PROXY_OBJECT
  5
39
102
{ACAD_REACTORS
330
2A
102
}
330
2A
100
AcDbProxyObject
 90
      499
 91
      501
 93
      444
310
42D19858D95C185D1D195C9B90F409028333333333333E3BF0000000000000FB010790141107004050150841D405064090741402480A0350
1001
ACAD
1000
AcDbSavedByObjectVersion
1070
     0
  0
ACAD_PROXY_OBJECT
  5
2B
102
{ACAD_REACTORS
330
2A
102
}
330
2A
100
AcDbProxyObject
 90
      499
 91
      501
 93
      388
310
41119B185D240901404333333333333E3BF0000000000000F9010740A41107004050150841D405064090741402480A1B50
1001
ACAD
1000
AcDbSavedByObjectVersion
1070
     0
  0
ACAD_PROXY_OBJECT
  5
2C
102
{ACAD_REACTORS
330
2A
102
}
330
2A
100
AcDbProxyObject
 90
      499
 91
      501
 93
      476
310
43519B185D15DA5D1A115919D95CD0140901404333333333333E3BF0000000000000F9010740901411070040501600405405064090741402480A1B50
1001
ACAD
1000
AcDbSavedByObjectVersion
1070
     0
  0
ACAD_PROXY_OBJECT
  5
2D
102
{ACAD_REACTORS
330
2A
102
}
330
2A
100
AcDbProxyObject
 90
      499
 91
      501
 93
      412
310
41D1DBDD5C985D5910240902404333333333333E3BF0000000000000F9010740A411070040501641D405064090741402480A1B50
1001
ACAD
1000
AcDbSavedByObjectVersion
1070
     0
  0
ACAD_PROXY_OBJECT
  5
2E
102
{ACAD_REACTORS
330
2A
102
}
330
2A
100
AcDbProxyObject
 90
      499
 91
      501
 93
      500
310
4411DBDD5C985D5915DA5D1A115919D95CD0340902404333333333333E3BF0000000000000F9010740901411070040501600405405064090741402480A1B50
1001
ACAD
1000
AcDbSavedByObjectVersion
1070
     0
  0
ACAD_PROXY_OBJECT
  5
38
102
{ACAD_REACTORS
330
2A
102
}
330
2A
100
AcDbProxyObject
 90
      499
 91
      501
 93
      444
310
42D31A5B995C185D1D195C9B90E409028333333333333E3BF0000000000000FB010790141107004050750841D405064090741402483A0350
1001
ACAD
1000
AcDbSavedByObjectVersion
1070
     0
  0
ACAD_PROXY_OBJECT
  5
33
102
{ACAD_REACTORS
330
2A
102
}
330
2A
100
AcDbProxyObject
 90
      499
 91
      501
 93
      420
310
425499585B1A5CDD1A58D08409028333333333333E3BF0000000000000FB01079019070040501508421405064090741402480A1B40
1001
ACAD
1000
AcDbSavedByObjectVersion
1070
     0
  0
ACAD_PROXY_OBJECT
  5
37
102
{ACAD_REACTORS
330
2A
102
}
330
2A
100
AcDbProxyObject
 90
      499
 91
      501
 93
      412
310
41D51A1A58DAD95B90D409028333333333333E3BF0000000000000FB010790141107004050150C41D405064090741402480A0350
1001
ACAD
1000
AcDbSavedByObjectVersion
1070
     0
  0
XRECORD
  5
434
102
{ACAD_REACTORS
330
42B
102
}
330
42B
100
AcDbXrecord
 90
        0
  0
XRECORD
  5
44A
102
{ACAD_REACTORS
330
42B
102
}
330
42B
100
AcDbXrecord
1000
DSTYLE
1002
{
1070
   340
340
11
1002
}
  0
XRECORD
  5
435
102
{ACAD_REACTORS
330
42B
102
}
330
42B
100
AcDbXrecord
  1
{60368DA2-779B-4A2E-AD4F-A0E6D6EF46BA}
  0
XRECORD
  5
42E
102
{ACAD_REACTORS
330
42B
102
}
330
42B
100
AcDbXrecord
  1

  0
XRECORD
  5
433
102
{ACAD_REACTORS
330
42B
102
}
330
42B
100
AcDbXrecord
 90
        4
  0
XRECORD
  5
430
102
{ACAD_REACTORS
330
42B
102
}
330
42B
100
AcDbXrecord
340
1A
  0
XRECORD
  5
432
102
{ACAD_REACTORS
330
42B
102
}
330
42B
100
AcDbXrecord
 90
    10781
  0
XRECORD
  5
431
102
{ACAD_REACTORS
330
42B
102
}
330
42B
100
AcDbXrecord
340
19
  0
XRECORD
  5
437
102
{ACAD_REACTORS
330
42B
102
}
330
42B
100
AcDbXrecord
 40
0.0
  0
XRECORD
  5
43A
102
{ACAD_REACTORS
330
42B
102
}
330
42B
100
AcDbXrecord
340
0
  0
XRECORD
  5
440
102
{ACAD_REACTORS
330
42B
102
}
330
42B
100
AcDbXrecord
 10
0.0
 20
0.0
 30
0.0
  0
XRECORD
  5
43C
102
{ACAD_REACTORS
330
42B
102
}
330
42B
100
AcDbXrecord
 10
0.0
 20
0.0
 30
0.0
  0
XRECORD
  5
43F
102
{ACAD_REACTORS
330
42B
102
}
330
42B
100
AcDbXrecord
 10
0.0
 20
0.0
 30
0.0
  0
XRECORD
  5
43D
102
{ACAD_REACTORS
330
42B
102
}
330
42B
100
AcDbXrecord
 10
0.0
 20
0.0
 30
0.0
  0
XRECORD
  5
43E
102
{ACAD_REACTORS
330
42B
102
}
330
42B
100
AcDbXrecord
 10
0.0
 20
0.0
 30
0.0
  0
XRECORD
  5
43B
102
{ACAD_REACTORS
330
42B
102
}
330
42B
100
AcDbXrecord
 10
0.0
 20
0.0
 30
0.0
  0
XRECORD
  5
438
102
{ACAD_REACTORS
330
42B
102
}
330
42B
100
AcDbXrecord
340
0
  0
XRECORD
  5
439
102
{ACAD_REACTORS
330
42B
102
}
330
42B
100
AcDbXrecord
 70
     0
  0
XRECORD
  5
42F
102
{ACAD_REACTORS
330
42B
102
}
330
42B
100
AcDbXrecord
  1

  0
XRECORD
  5
42C
102
{ACAD_REACTORS
330
42B
102
}
330
42B
100
AcDbXrecord
 90
        1
  0
XRECORD
  5
42D
102
{ACAD_REACTORS
330
42B
102
}
330
42B
100
AcDbXrecord
 90
       70
  0
XRECORD
  5
443
102
{ACAD_REACTORS
330
42B
102
}
330
42B
100
AcDbXrecord
340
0
  0
XRECORD
  5
449
102
{ACAD_REACTORS
330
42B
102
}
330
42B
100
AcDbXrecord
 10
0.0
 20
0.0
 30
0.0
  0
XRECORD
  5
445
102
{ACAD_REACTORS
330
42B
102
}
330
42B
100
AcDbXrecord
 10
0.0
 20
0.0
 30
0.0
  0
XRECORD
  5
448
102
{ACAD_REACTORS
330
42B
102
}
330
42B
100
AcDbXrecord
 10
0.0
 20
0.0
 30
0.0
  0
XRECORD
  5
446
102
{ACAD_REACTORS
330
42B
102
}
330
42B
100
AcDbXrecord
 10
0.0
 20
0.0
 30
0.0
  0
XRECORD
  5
447
102
{ACAD_REACTORS
330
42B
102
}
330
42B
100
AcDbXrecord
 10
0.0
 20
0.0
 30
0.0
  0
XRECORD
  5
444
102
{ACAD_REACTORS
330
42B
102
}
330
42B
100
AcDbXrecord
 10
0.0
 20
0.0
 30
0.0
  0
XRECORD
  5
441
102
{ACAD_REACTORS
330
42B
102
}
330
42B
100
AcDbXrecord
340
0
  0
XRECORD
  5
442
102
{ACAD_REACTORS
330
42B
102
}
330
42B
100
AcDbXrecord
 70
     0
  0
XRECORD
  5
436
102
{ACAD_REACTORS
330
42B
102
}
330
42B
100
AcDbXrecord
  1
{FAEB1C32-E019-11D5-929B-00C0DF256EC4}
  0
DICTIONARYVAR
  5
450
102
{ACAD_REACTORS
330
44B
102
}
330
44B
100
DictionaryVariables
280
     0
  1
2
  0
DICTIONARYVAR
  5
451
102
{ACAD_REACTORS
330
44B
102
}
330
44B
100
DictionaryVariables
280
     0
  1
1
  0
DICTIONARYVAR
  5
44F
102
{ACAD_REACTORS
330
44B
102
}
330
44B
100
DictionaryVariables
280
     0
  1
80.000000
  0
DICTIONARYVAR
  5
44E
102
{ACAD_REACTORS
330
44B
102
}
330
44B
100
DictionaryVariables
280
     0
  1
5.000000
  0
DICTIONARY
  5
454
330
3D
100
AcDbDictionary
280
     1
  3
ACAD_XREC_ROUNDTRIP
360
455
  0
DICTIONARY
  5
452
330
3C
100
AcDbDictionary
280
     1
  3
ACAD_XREC_ROUNDTRIP
360
453
  0
DICTIONARY
  5
456
330
3E
100
AcDbDictionary
280
     1
  3
ACAD_XREC_ROUNDTRIP
360
457
  0
XRECORD
  5
455
102
{ACAD_REACTORS
330
454
102
}
330
454
100
AcDbXrecord
102
MATERIAL
148
0.0
149
0.0
149
0.0
 93
        0
 94
      127
282
     0
 72
     1
 77
     1
171
     1
175
     1
179
     1
273
     0
  0
XRECORD
  5
453
102
{ACAD_REACTORS
330
452
102
}
330
452
100
AcDbXrecord
102
MATERIAL
148
0.0
149
0.0
149
0.0
 93
        0
 94
      127
282
     0
 72
     1
 77
     1
171
     1
175
     1
179
     1
273
     0
  0
XRECORD
  5
457
102
{ACAD_REACTORS
330
456
102
}
330
456
100
AcDbXrecord
102
MATERIAL
148
0.0
149
0.0
149
0.0
 93
        0
 94
      127
282
     0
 72
     1
 77
     1
171
     1
175
     1
179
     1
273
     0
  0
ENDSEC
  0
EOF
