  0
SECTION
  2
HEADER
  9
$ACADVER
  1
AC1014
  9
$ACADMAINTVER
 70
     9
  9
$DWGCODEPAGE
  3
ANSI_932
  9
$INSBASE
 10
0.0
 20
0.0
 30
0.0
  9
$EXTMIN
 10
-0.9999999999999908
 20
10.0
 30
0.0
  9
$EXTMAX
 10
201.0
 20
290.0
 30
0.0
  9
$LIMMIN
 10
0.0
 20
0.0
  9
$LIMMAX
 10
210.0
 20
297.0
  9
$ORTHOMODE
 70
     0
  9
$REGENMODE
 70
     1
  9
$FILLMODE
 70
     1
  9
$QTEXTMODE
 70
     0
  9
$MIRRTEXT
 70
     1
  9
$DRAGMODE
 70
     2
  9
$LTSCALE
 40
1.0
  9
$OSMODE
 70
    37
  9
$ATTMODE
 70
     1
  9
$TEXTSIZE
 40
2.5
  9
$TRACEWID
 40
1.0
  9
$TEXTSTYLE
  7
STANDARD
  9
$CLAYER
  8
寸法
  9
$CELTYPE
  6
BYLAYER
  9
$CECOLOR
 62
   256
  9
$CELTSCALE
 40
1.0
  9
$DELOBJ
 70
     1
  9
$DISPSILH
 70
     0
  9
$DIMSCALE
 40
1.0
  9
$DIMASZ
 40
2.5
  9
$DIMEXO
 40
0.625
  9
$DIMDLI
 40
3.75
  9
$DIMRND
 40
0.0
  9
$DIMDLE
 40
0.0
  9
$DIMEXE
 40
1.25
  9
$DIMTP
 40
0.0
  9
$DIMTM
 40
0.0
  9
$DIMTXT
 40
2.5
  9
$DIMCEN
 40
2.5
  9
$DIMTSZ
 40
0.0
  9
$DIMTOL
 70
     0
  9
$DIMLIM
 70
     0
  9
$DIMTIH
 70
     0
  9
$DIMTOH
 70
     0
  9
$DIMSE1
 70
     0
  9
$DIMSE2
 70
     0
  9
$DIMTAD
 70
     1
  9
$DIMZIN
 70
     8
  9
$DIMBLK
  1

  9
$DIMASO
 70
     1
  9
$DIMSHO
 70
     1
  9
$DIMPOST
  1

  9
$DIMAPOST
  1

  9
$DIMALT
 70
     0
  9
$DIMALTD
 70
     3
  9
$DIMALTF
 40
0.03937007874016
  9
$DIMLFAC
 40
1.0
  9
$DIMTOFL
 70
     1
  9
$DIMTVP
 40
0.0
  9
$DIMTIX
 70
     0
  9
$DIMSOXD
 70
     0
  9
$DIMSAH
 70
     0
  9
$DIMBLK1
  1

  9
$DIMBLK2
  1

  9
$DIMSTYLE
  2
ISO-25
  9
$DIMCLRD
 70
     0
  9
$DIMCLRE
 70
     0
  9
$DIMCLRT
 70
     0
  9
$DIMTFAC
 40
1.0
  9
$DIMGAP
 40
0.625
  9
$DIMJUST
 70
     0
  9
$DIMSD1
 70
     0
  9
$DIMSD2
 70
     0
  9
$DIMTOLJ
 70
     0
  9
$DIMTZIN
 70
     8
  9
$DIMALTZ
 70
     0
  9
$DIMALTTZ
 70
     0
  9
$DIMFIT
 70
     3
  9
$DIMUPT
 70
     0
  9
$DIMUNIT
 70
     2
  9
$DIMDEC
 70
     2
  9
$DIMTDEC
 70
     2
  9
$DIMALTU
 70
     2
  9
$DIMALTTD
 70
     3
  9
$DIMTXSTY
  7
STANDARD
  9
$DIMAUNIT
 70
     0
  9
$LUNITS
 70
     2
  9
$LUPREC
 70
     4
  9
$SKETCHINC
 40
1.0
  9
$FILLETRAD
 40
10.0
  9
$AUNITS
 70
     0
  9
$AUPREC
 70
     0
  9
$MENU
  1
.
  9
$ELEVATION
 40
0.0
  9
$PELEVATION
 40
0.0
  9
$THICKNESS
 40
0.0
  9
$LIMCHECK
 70
     0
  9
$CHAMFERA
 40
10.0
  9
$CHAMFERB
 40
10.0
  9
$CHAMFERC
 40
20.0
  9
$CHAMFERD
 40
0.0
  9
$SKPOLY
 70
     0
  9
$TDCREATE
 40
2460361.595121134
  9
$TDUPDATE
 40
2460361.595121366
  9
$TDINDWG
 40
0.0000000116
  9
$TDUSRTIMER
 40
0.0000000116
  9
$USRTIMER
 70
     1
  9
$ANGBASE
 50
0.0
  9
$ANGDIR
 70
     0
  9
$PDMODE
 70
     0
  9
$PDSIZE
 40
0.0
  9
$PLINEWID
 40
0.0
  9
$COORDS
 70
     1
  9
$SPLFRAME
 70
     0
  9
$SPLINETYPE
 70
     6
  9
$SPLINESEGS
 70
     8
  9
$ATTDIA
 70
     0
  9
$ATTREQ
 70
     1
  9
$HANDLING
 70
     1
  9
$HANDSEED
  5
3BE
  9
$SURFTAB1
 70
     6
  9
$SURFTAB2
 70
     6
  9
$SURFTYPE
 70
     6
  9
$SURFU
 70
     6
  9
$SURFV
 70
     6
  9
$UCSNAME
  2

  9
$UCSORG
 10
0.0
 20
0.0
 30
0.0
  9
$UCSXDIR
 10
1.0
 20
0.0
 30
0.0
  9
$UCSYDIR
 10
0.0
 20
1.0
 30
0.0
  9
$PUCSNAME
  2

  9
$PUCSORG
 10
0.0
 20
0.0
 30
0.0
  9
$PUCSXDIR
 10
1.0
 20
0.0
 30
0.0
  9
$PUCSYDIR
 10
0.0
 20
1.0
 30
0.0
  9
$USERI1
 70
     0
  9
$USERI2
 70
     0
  9
$USERI3
 70
     0
  9
$USERI4
 70
     0
  9
$USERI5
 70
     0
  9
$USERR1
 40
0.0
  9
$USERR2
 40
0.0
  9
$USERR3
 40
0.0
  9
$USERR4
 40
0.0
  9
$USERR5
 40
0.0
  9
$WORLDVIEW
 70
     1
  9
$SHADEDGE
 70
     3
  9
$SHADEDIF
 70
    70
  9
$TILEMODE
 70
     1
  9
$MAXACTVP
 70
    64
  9
$PINSBASE
 10
0.0
 20
0.0
 30
0.0
  9
$PLIMCHECK
 70
     0
  9
$PEXTMIN
 10
1.000000000000000E+20
 20
1.000000000000000E+20
 30
1.000000000000000E+20
  9
$PEXTMAX
 10
-1.000000000000000E+20
 20
-1.000000000000000E+20
 30
-1.000000000000000E+20
  9
$PLIMMIN
 10
0.0
 20
0.0
  9
$PLIMMAX
 10
420.0
 20
297.0
  9
$UNITMODE
 70
     0
  9
$VISRETAIN
 70
     1
  9
$PLINEGEN
 70
     0
  9
$PSLTSCALE
 70
     1
  9
$TREEDEPTH
 70
  3020
  9
$PICKSTYLE
 70
     1
  9
$CMLSTYLE
  2
STANDARD
  9
$CMLJUST
 70
     0
  9
$CMLSCALE
 40
20.0
  9
$PROXYGRAPHICS
 70
     1
  9
$MEASUREMENT
 70
     1
  0
ENDSEC
  0
SECTION
  2
CLASSES
  0
CLASS
  1
ACDBDICTIONARYWDFLT
  2
AcDbDictionaryWithDefault
  3
ObjectDBX Classes
 90
        0
280
     0
281
     0
  0
CLASS
  1
VISUALSTYLE
  2
AcDbVisualStyle
  3
ObjectDBX Classes
 90
     4095
280
     0
281
     0
  0
CLASS
  1
MATERIAL
  2
AcDbMaterial
  3
ObjectDBX Classes
 90
     1153
280
     0
281
     0
  0
CLASS
  1
SUN
  2
AcDbSun
  3
SCENEOE
 90
     1024
280
     0
281
     0
  0
CLASS
  1
DICTIONARYVAR
  2
AcDbDictionaryVar
  3
ObjectDBX Classes
 90
        0
280
     0
281
     0
  0
CLASS
  1
XRECORD
  2
AcDbXrecord
  3
AutoCAD 2000
 90
        0
280
     0
281
     0
  0
CLASS
  1
LWPOLYLINE
  2
AcDbPolyline
  3
AutoCAD 2000
 90
        0
280
     0
281
     1
  0
CLASS
  1
HATCH
  2
AcDbHatch
  3
AutoCAD 2000
 90
        0
280
     0
281
     1
  0
CLASS
  1
ACDBPLACEHOLDER
  2
AcDbPlaceHolder
  3
ObjectDBX Classes
 90
        0
280
     0
281
     0
  0
CLASS
  1
LAYOUT
  2
AcDbLayout
  3
ObjectDBX Classes
 90
        0
280
     0
281
     0
  0
ENDSEC
  0
SECTION
  2
TABLES
  0
TABLE
  2
VPORT
  5
8
330
0
100
AcDbSymbolTable
 70
     1
  0
VPORT
  5
29
330
8
100
AcDbSymbolTableRecord
100
AcDbViewportTableRecord
  2
*ACTIVE
 70
     0
 10
0.0
 20
0.0
 11
1.0
 21
1.0
 12
1000.0
 22
1500.0
 13
0.0
 23
0.0
 14
10.0
 24
10.0
 15
10.0
 25
10.0
 16
0.0
 26
0.0
 36
1.0
 17
0.0
 27
0.0
 37
0.0
 40
2800.0
 41
0.7214285714285715
 42
50.0
 43
0.0
 44
0.0
 50
0.0
 51
0.0
 71
     0
 72
  1000
 73
     1
 74
     3
 75
     0
 76
     0
 77
     0
 78
     0
  0
ENDTAB
  0
TABLE
  2
LTYPE
  5
5
330
0
100
AcDbSymbolTable
 70
     7
  0
LTYPE
  5
14
330
5
100
AcDbSymbolTableRecord
100
AcDbLinetypeTableRecord
  2
BYBLOCK
 70
     0
  3

 72
    65
 73
     0
 40
0.0
  0
LTYPE
  5
15
330
5
100
AcDbSymbolTableRecord
100
AcDbLinetypeTableRecord
  2
BYLAYER
 70
     0
  3

 72
    65
 73
     0
 40
0.0
  0
LTYPE
  5
16
330
5
100
AcDbSymbolTableRecord
100
AcDbLinetypeTableRecord
  2
CONTINUOUS
 70
     0
  3
Solid line
 72
    65
 73
     0
 40
0.0
  0
LTYPE
  5
40
330
5
100
AcDbSymbolTableRecord
100
AcDbLinetypeTableRecord
  2
EXLTYPE1
 70
     0
  3
破線
 72
    65
 73
     2
 40
3.0
 49
2.0
 74
     0
 49
-1.0
 74
     0
  0
LTYPE
  5
41
330
5
100
AcDbSymbolTableRecord
100
AcDbLinetypeTableRecord
  2
EXLTYPE2
 70
     0
  3
点線
 72
    65
 73
     2
 40
2.0
 49
1.0
 74
     0
 49
-1.0
 74
     0
  0
LTYPE
  5
42
330
5
100
AcDbSymbolTableRecord
100
AcDbLinetypeTableRecord
  2
EXLTYPE3
 70
     0
  3
一点鎖線
 72
    65
 73
     4
 40
10.0
 49
7.0
 74
     0
 49
-1.0
 74
     0
 49
1.0
 74
     0
 49
-1.0
 74
     0
  0
LTYPE
  5
43
330
5
100
AcDbSymbolTableRecord
100
AcDbLinetypeTableRecord
  2
EXLTYPE4
 70
     0
  3
二点鎖線
 72
    65
 73
     6
 40
12.0
 49
7.0
 74
     0
 49
-1.0
 74
     0
 49
1.0
 74
     0
 49
-1.0
 74
     0
 49
1.0
 74
     0
 49
-1.0
 74
     0
  0
LTYPE
  5
44
330
5
100
AcDbSymbolTableRecord
100
AcDbLinetypeTableRecord
  2
EXLTYPE5
 70
     0
  3
三点鎖線
 72
    65
 73
     8
 40
37.0
 49
30.0
 74
     0
 49
-1.0
 74
     0
 49
1.0
 74
     0
 49
-1.0
 74
     0
 49
1.0
 74
     0
 49
-1.0
 74
     0
 49
1.0
 74
     0
 49
-1.0
 74
     0
  0
LTYPE
  5
45
330
5
100
AcDbSymbolTableRecord
100
AcDbLinetypeTableRecord
  2
EXLTYPE6
 70
     0
  3
四点鎖線
 72
    65
 73
    10
 40
39.0
 49
30.0
 74
     0
 49
-1.0
 74
     0
 49
1.0
 74
     0
 49
-1.0
 74
     0
 49
1.0
 74
     0
 49
-1.0
 74
     0
 49
1.0
 74
     0
 49
-1.0
 74
     0
 49
1.0
 74
     0
 49
-1.0
 74
     0
  0
ENDTAB
  0
TABLE
  2
LAYER
  5
2
330
0
100
AcDbSymbolTable
 70
     7
  0
LAYER
  5
10
330
2
100
AcDbSymbolTableRecord
100
AcDbLayerTableRecord
  2
0
 70
     0
 62
     7
  6
CONTINUOUS
  0
LAYER
  5
48
330
2
100
AcDbSymbolTableRecord
100
AcDbLayerTableRecord
  2
図枠
 70
     0
 62
     7
  6
CONTINUOUS
  0
LAYER
  5
49
330
2
100
AcDbSymbolTableRecord
100
AcDbLayerTableRecord
  2
図
 70
     0
 62
     7
  6
CONTINUOUS
  0
LAYER
  5
4A
330
2
100
AcDbSymbolTableRecord
100
AcDbLayerTableRecord
  2
寸法
 70
     0
 62
     7
  6
CONTINUOUS
  0
LAYER
  5
4B
330
2
100
AcDbSymbolTableRecord
100
AcDbLayerTableRecord
  2
部品
 70
     0
 62
     7
  6
CONTINUOUS
  0
LAYER
  5
4C
330
2
100
AcDbSymbolTableRecord
100
AcDbLayerTableRecord
  2
器具明細
 70
     0
 62
     7
  6
CONTINUOUS
  0
LAYER
  5
112
330
2
100
AcDbSymbolTableRecord
100
AcDbLayerTableRecord
  2
DEFPOINTS
 70
     0
 62
     7
  6
CONTINUOUS
  0
ENDTAB
  0
TABLE
  2
STYLE
  5
3
330
0
100
AcDbSymbolTable
 70
     7
  0
STYLE
  5
11
330
3
100
AcDbSymbolTableRecord
100
AcDbTextStyleTableRecord
  2
STANDARD
 70
     0
 40
0.0
 41
1.0
 50
0.0
 71
     0
 42
2.5
  3
monotxt
  4
extfont
  0
STYLE
  5
46
330
3
100
AcDbSymbolTableRecord
100
AcDbTextStyleTableRecord
  2
EXCADSTD
 70
     0
 40
0.0
 41
1.0
 50
0.0
 71
     0
 42
0.2
  3
monotxt
  4
extfont
  0
STYLE
  5
47
330
3
100
AcDbSymbolTableRecord
100
AcDbTextStyleTableRecord
  2
EXCADVERT
 70
     4
 40
0.0
 41
1.0
 50
0.0
 71
     0
 42
0.286885
  3
monotxt
  4
extfont
  0
STYLE
  5
AE
330
3
100
AcDbSymbolTableRecord
100
AcDbTextStyleTableRecord
  2
EXCADTTF1
 70
     0
 40
0.0
 41
1.0
 50
0.0
 71
     0
 42
0.2
  3
MSGOTHIC.TTC
  4

1001
ACAD
1000
MS Gothic
1071
    32817
  0
STYLE
  5
110
330
3
100
AcDbSymbolTableRecord
100
AcDbTextStyleTableRecord
  2
EXCADDIM1
 70
     0
 40
0.0
 41
0.95
 50
0.0
 71
     0
 42
0.2
  3
monotxt
  4
extfont
  0
STYLE
  5
298
330
3
100
AcDbSymbolTableRecord
100
AcDbTextStyleTableRecord
  2
EXCADDIM2
 70
     0
 40
0.0
 41
0.84
 50
0.0
 71
     0
 42
0.2
  3
monotxt
  4
extfont
  0
STYLE
  5
381
330
3
100
AcDbSymbolTableRecord
100
AcDbTextStyleTableRecord
  2
EXCADDIM3
 70
     0
 40
0.0
 41
0.78
 50
0.0
 71
     0
 42
0.2
  3
monotxt
  4
extfont
  0
ENDTAB
  0
TABLE
  2
VIEW
  5
6
330
0
100
AcDbSymbolTable
 70
     0
  0
ENDTAB
  0
TABLE
  2
UCS
  5
7
330
0
100
AcDbSymbolTable
 70
     0
  0
ENDTAB
  0
TABLE
  2
APPID
  5
9
330
0
100
AcDbSymbolTable
 70
     1
  0
APPID
  5
12
330
9
100
AcDbSymbolTableRecord
100
AcDbRegAppTableRecord
  2
ACAD
 70
     0
  0
ENDTAB
  0
TABLE
  2
DIMSTYLE
  5
A
330
0
100
AcDbSymbolTable
 70
     1
  0
DIMSTYLE
105
27
102
{ACAD_REACTORS
330
111
330
299
330
2A6
330
2B3
330
2C0
330
2CD
330
2DA
330
2E7
330
2F5
330
302
330
311
330
31E
330
32B
330
338
330
345
330
351
330
35E
330
36D
330
377
330
382
102
}
330
A
100
AcDbSymbolTableRecord
100
AcDbDimStyleTableRecord
  2
ISO-25
 70
     0
  3

  4

  5

  6

  7

 40
1.0
 41
2.5
 42
0.625
 43
3.75
 44
1.25
 45
0.0
 46
0.0
 47
0.0
 48
0.0
140
2.5
141
2.5
142
0.0
143
0.03937007874016
144
1.0
145
0.0
146
1.0
147
0.625
 71
     0
 72
     0
 73
     0
 74
     0
 75
     0
 76
     0
 77
     1
 78
     8
170
     0
171
     3
172
     1
173
     0
174
     0
175
     0
176
     0
177
     0
178
     0
270
     2
271
     2
272
     2
273
     2
274
     3
340
11
275
     0
280
     0
281
     0
282
     0
283
     0
284
     8
285
     0
286
     0
287
     5
288
     0
  0
ENDTAB
  0
TABLE
  2
BLOCK_RECORD
  5
1
330
0
100
AcDbSymbolTable
 70
    35
  0
BLOCK_RECORD
  5
1F
330
1
100
AcDbSymbolTableRecord
100
AcDbBlockTableRecord
  2
*MODEL_SPACE
  0
BLOCK_RECORD
  5
1B
330
1
100
AcDbSymbolTableRecord
100
AcDbBlockTableRecord
  2
*PAPER_SPACE
  0
BLOCK_RECORD
  5
4D
330
1
100
AcDbSymbolTableRecord
100
AcDbBlockTableRecord
  2
EX_NORM
  0
BLOCK_RECORD
  5
50
330
1
100
AcDbSymbolTableRecord
100
AcDbBlockTableRecord
  2
EX_BNORM
  0
BLOCK_RECORD
  5
53
330
1
100
AcDbSymbolTableRecord
100
AcDbBlockTableRecord
  2
EX_BCIR
  0
BLOCK_RECORD
  5
56
330
1
100
AcDbSymbolTableRecord
100
AcDbBlockTableRecord
  2
EX_RCIVIL
  0
BLOCK_RECORD
  5
59
330
1
100
AcDbSymbolTableRecord
100
AcDbBlockTableRecord
  2
EX_SLANT
  0
BLOCK_RECORD
  5
5C
330
1
100
AcDbSymbolTableRecord
100
AcDbBlockTableRecord
  2
EX_NONE
  0
BLOCK_RECORD
  5
5F
330
1
100
AcDbSymbolTableRecord
100
AcDbBlockTableRecord
  2
EX_CIVIL
  0
BLOCK_RECORD
  5
62
330
1
100
AcDbSymbolTableRecord
100
AcDbBlockTableRecord
  2
EX_WCIR
  0
BLOCK_RECORD
  5
65
330
1
100
AcDbSymbolTableRecord
100
AcDbBlockTableRecord
  2
EX_WCIR2
  0
BLOCK_RECORD
  5
68
330
1
100
AcDbSymbolTableRecord
100
AcDbBlockTableRecord
  2
EX_WNORM
  0
BLOCK_RECORD
  5
6B
330
1
100
AcDbSymbolTableRecord
100
AcDbBlockTableRecord
  2
EX_NNORM
  0
BLOCK_RECORD
  5
6E
330
1
100
AcDbSymbolTableRecord
100
AcDbBlockTableRecord
  2
EX_BBOX
  0
BLOCK_RECORD
  5
71
330
1
100
AcDbSymbolTableRecord
100
AcDbBlockTableRecord
  2
EX_WBOX
  0
BLOCK_RECORD
  5
74
330
1
100
AcDbSymbolTableRecord
100
AcDbBlockTableRecord
  2
EX_INTEGRAL
  0
BLOCK_RECORD
  5
113
330
1
100
AcDbSymbolTableRecord
100
AcDbBlockTableRecord
  2
*D15
  0
BLOCK_RECORD
  5
29A
330
1
100
AcDbSymbolTableRecord
100
AcDbBlockTableRecord
  2
*D16
  0
BLOCK_RECORD
  5
2A7
330
1
100
AcDbSymbolTableRecord
100
AcDbBlockTableRecord
  2
*D17
  0
BLOCK_RECORD
  5
2B4
330
1
100
AcDbSymbolTableRecord
100
AcDbBlockTableRecord
  2
*D18
  0
BLOCK_RECORD
  5
2C1
330
1
100
AcDbSymbolTableRecord
100
AcDbBlockTableRecord
  2
*D19
  0
BLOCK_RECORD
  5
2CE
330
1
100
AcDbSymbolTableRecord
100
AcDbBlockTableRecord
  2
*D20
  0
BLOCK_RECORD
  5
2DB
330
1
100
AcDbSymbolTableRecord
100
AcDbBlockTableRecord
  2
*D21
  0
BLOCK_RECORD
  5
2E8
330
1
100
AcDbSymbolTableRecord
100
AcDbBlockTableRecord
  2
*D22
  0
BLOCK_RECORD
  5
2F6
330
1
100
AcDbSymbolTableRecord
100
AcDbBlockTableRecord
  2
*D23
  0
BLOCK_RECORD
  5
303
330
1
100
AcDbSymbolTableRecord
100
AcDbBlockTableRecord
  2
*D24
  0
BLOCK_RECORD
  5
312
330
1
100
AcDbSymbolTableRecord
100
AcDbBlockTableRecord
  2
*D25
  0
BLOCK_RECORD
  5
31F
330
1
100
AcDbSymbolTableRecord
100
AcDbBlockTableRecord
  2
*D26
  0
BLOCK_RECORD
  5
32C
330
1
100
AcDbSymbolTableRecord
100
AcDbBlockTableRecord
  2
*D27
  0
BLOCK_RECORD
  5
339
330
1
100
AcDbSymbolTableRecord
100
AcDbBlockTableRecord
  2
*D28
  0
BLOCK_RECORD
  5
346
330
1
100
AcDbSymbolTableRecord
100
AcDbBlockTableRecord
  2
*D29
  0
BLOCK_RECORD
  5
352
330
1
100
AcDbSymbolTableRecord
100
AcDbBlockTableRecord
  2
*D30
  0
BLOCK_RECORD
  5
35F
330
1
100
AcDbSymbolTableRecord
100
AcDbBlockTableRecord
  2
*D31
  0
BLOCK_RECORD
  5
36E
330
1
100
AcDbSymbolTableRecord
100
AcDbBlockTableRecord
  2
*D32
  0
BLOCK_RECORD
  5
378
330
1
100
AcDbSymbolTableRecord
100
AcDbBlockTableRecord
  2
*D33
  0
BLOCK_RECORD
  5
383
330
1
100
AcDbSymbolTableRecord
100
AcDbBlockTableRecord
  2
*D34
  0
ENDTAB
  0
ENDSEC
  0
SECTION
  2
BLOCKS
  0
BLOCK
  5
20
330
1F
100
AcDbEntity
  8
0
100
AcDbBlockBegin
  2
*MODEL_SPACE
 70
     0
 10
0.0
 20
0.0
 30
0.0
  3
*MODEL_SPACE
  1

  0
ENDBLK
  5
21
330
1F
100
AcDbEntity
  8
0
100
AcDbBlockEnd
  0
BLOCK
  5
1C
330
1B
100
AcDbEntity
 67
     1
  8
0
100
AcDbBlockBegin
  2
*PAPER_SPACE
 70
     0
 10
0.0
 20
0.0
 30
0.0
  3
*PAPER_SPACE
  1

  0
ENDBLK
  5
1D
330
1B
100
AcDbEntity
 67
     1
  8
0
100
AcDbBlockEnd
  0
BLOCK
  5
4E
330
4D
100
AcDbEntity
  8
0
100
AcDbBlockBegin
  2
EX_NORM
 70
     0
 10
0.0
 20
0.0
 30
0.0
  3
EX_NORM
  1

  0
LINE
  5
77
330
4D
100
AcDbEntity
  8
0
  6
CONTINUOUS
 62
     0
100
AcDbLine
 10
0.0
 20
0.0
 30
0.0
 11
-1.0
 21
0.0
 31
0.0
  0
LINE
  5
78
330
4D
100
AcDbEntity
  8
0
  6
CONTINUOUS
 62
     0
100
AcDbLine
 10
0.0
 20
0.0
 30
0.0
 11
-1.0
 21
0.166666667
 31
0.0
  0
LINE
  5
79
330
4D
100
AcDbEntity
  8
0
  6
CONTINUOUS
 62
     0
100
AcDbLine
 10
0.0
 20
0.0
 30
0.0
 11
-1.0
 21
-0.166666667
 31
0.0
  0
ENDBLK
  5
4F
330
4D
100
AcDbEntity
  8
0
100
AcDbBlockEnd
  0
BLOCK
  5
51
330
50
100
AcDbEntity
  8
0
100
AcDbBlockBegin
  2
EX_BNORM
 70
     0
 10
0.0
 20
0.0
 30
0.0
  3
EX_BNORM
  1

  0
LINE
  5
7A
330
50
100
AcDbEntity
  8
0
  6
CONTINUOUS
 62
     0
100
AcDbLine
 10
0.0
 20
0.0
 30
0.0
 11
-1.0
 21
0.0
 31
0.0
  0
LINE
  5
7B
330
50
100
AcDbEntity
  8
0
  6
CONTINUOUS
 62
     0
100
AcDbLine
 10
0.0
 20
0.0
 30
0.0
 11
-1.0
 21
0.166666667
 31
0.0
  0
LINE
  5
7C
330
50
100
AcDbEntity
  8
0
  6
CONTINUOUS
 62
     0
100
AcDbLine
 10
0.0
 20
0.0
 30
0.0
 11
-1.0
 21
-0.166666667
 31
0.0
  0
LINE
  5
7D
330
50
100
AcDbEntity
  8
0
  6
CONTINUOUS
 62
     0
100
AcDbLine
 10
0.0
 20
0.0
 30
0.0
 11
-1.0
 21
0.083333333
 31
0.0
  0
LINE
  5
7E
330
50
100
AcDbEntity
  8
0
  6
CONTINUOUS
 62
     0
100
AcDbLine
 10
0.0
 20
0.0
 30
0.0
 11
-1.0
 21
-0.083333333
 31
0.0
  0
LINE
  5
7F
330
50
100
AcDbEntity
  8
0
  6
CONTINUOUS
 62
     0
100
AcDbLine
 10
-1.0
 20
0.166666667
 30
0.0
 11
-1.0
 21
-0.166666667
 31
0.0
  0
ENDBLK
  5
52
330
50
100
AcDbEntity
  8
0
100
AcDbBlockEnd
  0
BLOCK
  5
54
330
53
100
AcDbEntity
  8
0
100
AcDbBlockBegin
  2
EX_BCIR
 70
     0
 10
0.0
 20
0.0
 30
0.0
  3
EX_BCIR
  1

  0
LINE
  5
80
330
53
100
AcDbEntity
  8
0
  6
CONTINUOUS
 62
     0
100
AcDbLine
 10
0.0
 20
0.0
 30
0.0
 11
-1.0
 21
0.0
 31
0.0
  0
CIRCLE
  5
81
330
53
100
AcDbEntity
  8
0
  6
CONTINUOUS
 62
     0
100
AcDbCircle
 10
0.0
 20
0.0
 30
0.0
 40
0.5
  0
CIRCLE
  5
82
330
53
100
AcDbEntity
  8
0
  6
CONTINUOUS
 62
     0
100
AcDbCircle
 10
0.0
 20
0.0
 30
0.0
 40
0.25
  0
ENDBLK
  5
55
330
53
100
AcDbEntity
  8
0
100
AcDbBlockEnd
  0
BLOCK
  5
57
330
56
100
AcDbEntity
  8
0
100
AcDbBlockBegin
  2
EX_RCIVIL
 70
     0
 10
0.0
 20
0.0
 30
0.0
  3
EX_RCIVIL
  1

  0
LINE
  5
83
330
56
100
AcDbEntity
  8
0
  6
CONTINUOUS
 62
     0
100
AcDbLine
 10
0.0
 20
0.0
 30
0.0
 11
-1.0
 21
0.0
 31
0.0
  0
LINE
  5
84
330
56
100
AcDbEntity
  8
0
  6
CONTINUOUS
 62
     0
100
AcDbLine
 10
-1.0
 20
-0.25
 30
0.0
 11
0.0
 21
-0.25
 31
0.0
  0
LINE
  5
85
330
56
100
AcDbEntity
  8
0
  6
CONTINUOUS
 62
     0
100
AcDbLine
 10
-1.0
 20
-0.125
 30
0.0
 11
0.0
 21
-0.125
 31
0.0
  0
ENDBLK
  5
58
330
56
100
AcDbEntity
  8
0
100
AcDbBlockEnd
  0
BLOCK
  5
5A
330
59
100
AcDbEntity
  8
0
100
AcDbBlockBegin
  2
EX_SLANT
 70
     0
 10
0.0
 20
0.0
 30
0.0
  3
EX_SLANT
  1

  0
LINE
  5
86
330
59
100
AcDbEntity
  8
0
  6
CONTINUOUS
 62
     0
100
AcDbLine
 10
0.0
 20
0.0
 30
0.0
 11
-1.0
 21
0.0
 31
0.0
  0
LINE
  5
87
330
59
100
AcDbEntity
  8
0
  6
CONTINUOUS
 62
     0
100
AcDbLine
 10
0.707106781
 20
0.707106781
 30
0.0
 11
-0.707106781
 21
-0.707106781
 31
0.0
  0
ENDBLK
  5
5B
330
59
100
AcDbEntity
  8
0
100
AcDbBlockEnd
  0
BLOCK
  5
5D
330
5C
100
AcDbEntity
  8
0
100
AcDbBlockBegin
  2
EX_NONE
 70
     0
 10
0.0
 20
0.0
 30
0.0
  3
EX_NONE
  1

  0
LINE
  5
88
330
5C
100
AcDbEntity
  8
0
  6
CONTINUOUS
 62
     0
100
AcDbLine
 10
0.0
 20
0.0
 30
0.0
 11
-1.0
 21
0.0
 31
0.0
  0
ENDBLK
  5
5E
330
5C
100
AcDbEntity
  8
0
100
AcDbBlockEnd
  0
BLOCK
  5
60
330
5F
100
AcDbEntity
  8
0
100
AcDbBlockBegin
  2
EX_CIVIL
 70
     0
 10
0.0
 20
0.0
 30
0.0
  3
EX_CIVIL
  1

  0
LINE
  5
89
330
5F
100
AcDbEntity
  8
0
  6
CONTINUOUS
 62
     0
100
AcDbLine
 10
0.0
 20
0.0
 30
0.0
 11
-1.0
 21
0.0
 31
0.0
  0
LINE
  5
8A
330
5F
100
AcDbEntity
  8
0
  6
CONTINUOUS
 62
     0
100
AcDbLine
 10
-1.0
 20
0.25
 30
0.0
 11
0.0
 21
0.25
 31
0.0
  0
LINE
  5
8B
330
5F
100
AcDbEntity
  8
0
  6
CONTINUOUS
 62
     0
100
AcDbLine
 10
-1.0
 20
0.125
 30
0.0
 11
0.0
 21
0.125
 31
0.0
  0
ENDBLK
  5
61
330
5F
100
AcDbEntity
  8
0
100
AcDbBlockEnd
  0
BLOCK
  5
63
330
62
100
AcDbEntity
  8
0
100
AcDbBlockBegin
  2
EX_WCIR
 70
     0
 10
0.0
 20
0.0
 30
0.0
  3
EX_WCIR
  1

  0
LINE
  5
8C
330
62
100
AcDbEntity
  8
0
  6
CONTINUOUS
 62
     0
100
AcDbLine
 10
0.0
 20
0.0
 30
0.0
 11
-1.0
 21
0.0
 31
0.0
  0
CIRCLE
  5
8D
330
62
100
AcDbEntity
  8
0
  6
CONTINUOUS
 62
     0
100
AcDbCircle
 10
0.0
 20
0.0
 30
0.0
 40
0.5
  0
ENDBLK
  5
64
330
62
100
AcDbEntity
  8
0
100
AcDbBlockEnd
  0
BLOCK
  5
66
330
65
100
AcDbEntity
  8
0
100
AcDbBlockBegin
  2
EX_WCIR2
 70
     0
 10
0.0
 20
0.0
 30
0.0
  3
EX_WCIR2
  1

  0
LINE
  5
8E
330
65
100
AcDbEntity
  8
0
  6
CONTINUOUS
 62
     0
100
AcDbLine
 10
-0.5
 20
0.0
 30
0.0
 11
-1.0
 21
0.0
 31
0.0
  0
CIRCLE
  5
8F
330
65
100
AcDbEntity
  8
0
  6
CONTINUOUS
 62
     0
100
AcDbCircle
 10
0.0
 20
0.0
 30
0.0
 40
0.5
  0
ENDBLK
  5
67
330
65
100
AcDbEntity
  8
0
100
AcDbBlockEnd
  0
BLOCK
  5
69
330
68
100
AcDbEntity
  8
0
100
AcDbBlockBegin
  2
EX_WNORM
 70
     0
 10
0.0
 20
0.0
 30
0.0
  3
EX_WNORM
  1

  0
LINE
  5
90
330
68
100
AcDbEntity
  8
0
  6
CONTINUOUS
 62
     0
100
AcDbLine
 10
-1.0
 20
0.0
 30
0.0
 11
-1.0
 21
0.0
 31
0.0
  0
LINE
  5
91
330
68
100
AcDbEntity
  8
0
  6
CONTINUOUS
 62
     0
100
AcDbLine
 10
0.0
 20
0.0
 30
0.0
 11
-1.0
 21
0.166666667
 31
0.0
  0
LINE
  5
92
330
68
100
AcDbEntity
  8
0
  6
CONTINUOUS
 62
     0
100
AcDbLine
 10
0.0
 20
0.0
 30
0.0
 11
-1.0
 21
-0.166666667
 31
0.0
  0
LINE
  5
93
330
68
100
AcDbEntity
  8
0
  6
CONTINUOUS
 62
     0
100
AcDbLine
 10
-1.0
 20
0.166666667
 30
0.0
 11
-1.0
 21
-0.166666667
 31
0.0
  0
ENDBLK
  5
6A
330
68
100
AcDbEntity
  8
0
100
AcDbBlockEnd
  0
BLOCK
  5
6C
330
6B
100
AcDbEntity
  8
0
100
AcDbBlockBegin
  2
EX_NNORM
 70
     0
 10
0.0
 20
0.0
 30
0.0
  3
EX_NNORM
  1

  0
LINE
  5
94
330
6B
100
AcDbEntity
  8
0
  6
CONTINUOUS
 62
     0
100
AcDbLine
 10
0.0
 20
0.0
 30
0.0
 11
-1.0
 21
0.0
 31
0.0
  0
LINE
  5
95
330
6B
100
AcDbEntity
  8
0
  6
CONTINUOUS
 62
     0
100
AcDbLine
 10
0.0
 20
0.0
 30
0.0
 11
-1.0
 21
0.166666667
 31
0.0
  0
LINE
  5
96
330
6B
100
AcDbEntity
  8
0
  6
CONTINUOUS
 62
     0
100
AcDbLine
 10
0.0
 20
0.0
 30
0.0
 11
-1.0
 21
-0.166666667
 31
0.0
  0
LINE
  5
97
330
6B
100
AcDbEntity
  8
0
  6
CONTINUOUS
 62
     0
100
AcDbLine
 10
-1.0
 20
0.166666667
 30
0.0
 11
-1.0
 21
-0.166666667
 31
0.0
  0
ENDBLK
  5
6D
330
6B
100
AcDbEntity
  8
0
100
AcDbBlockEnd
  0
BLOCK
  5
6F
330
6E
100
AcDbEntity
  8
0
100
AcDbBlockBegin
  2
EX_BBOX
 70
     0
 10
0.0
 20
0.0
 30
0.0
  3
EX_BBOX
  1

  0
LINE
  5
98
330
6E
100
AcDbEntity
  8
0
  6
CONTINUOUS
 62
     0
100
AcDbLine
 10
0.0
 20
0.0
 30
0.0
 11
-1.0
 21
0.0
 31
0.0
  0
LINE
  5
99
330
6E
100
AcDbEntity
  8
0
  6
CONTINUOUS
 62
     0
100
AcDbLine
 10
-0.5
 20
0.5
 30
0.0
 11
0.5
 21
0.5
 31
0.0
  0
LINE
  5
9A
330
6E
100
AcDbEntity
  8
0
  6
CONTINUOUS
 62
     0
100
AcDbLine
 10
0.5
 20
0.5
 30
0.0
 11
0.5
 21
-0.5
 31
0.0
  0
LINE
  5
9B
330
6E
100
AcDbEntity
  8
0
  6
CONTINUOUS
 62
     0
100
AcDbLine
 10
0.5
 20
-0.5
 30
0.0
 11
-0.5
 21
-0.5
 31
0.0
  0
LINE
  5
9C
330
6E
100
AcDbEntity
  8
0
  6
CONTINUOUS
 62
     0
100
AcDbLine
 10
-0.5
 20
-0.5
 30
0.0
 11
-0.5
 21
0.5
 31
0.0
  0
LINE
  5
9D
330
6E
100
AcDbEntity
  8
0
  6
CONTINUOUS
 62
     0
100
AcDbLine
 10
-0.25
 20
0.25
 30
0.0
 11
0.25
 21
0.25
 31
0.0
  0
LINE
  5
9E
330
6E
100
AcDbEntity
  8
0
  6
CONTINUOUS
 62
     0
100
AcDbLine
 10
0.25
 20
0.25
 30
0.0
 11
0.25
 21
-0.25
 31
0.0
  0
LINE
  5
9F
330
6E
100
AcDbEntity
  8
0
  6
CONTINUOUS
 62
     0
100
AcDbLine
 10
0.25
 20
-0.25
 30
0.0
 11
-0.25
 21
-0.25
 31
0.0
  0
LINE
  5
A0
330
6E
100
AcDbEntity
  8
0
  6
CONTINUOUS
 62
     0
100
AcDbLine
 10
-0.25
 20
-0.25
 30
0.0
 11
-0.25
 21
0.25
 31
0.0
  0
ENDBLK
  5
70
330
6E
100
AcDbEntity
  8
0
100
AcDbBlockEnd
  0
BLOCK
  5
72
330
71
100
AcDbEntity
  8
0
100
AcDbBlockBegin
  2
EX_WBOX
 70
     0
 10
0.0
 20
0.0
 30
0.0
  3
EX_WBOX
  1

  0
LINE
  5
A1
330
71
100
AcDbEntity
  8
0
  6
CONTINUOUS
 62
     0
100
AcDbLine
 10
-0.5
 20
0.0
 30
0.0
 11
-1.0
 21
0.0
 31
0.0
  0
LINE
  5
A2
330
71
100
AcDbEntity
  8
0
  6
CONTINUOUS
 62
     0
100
AcDbLine
 10
-0.5
 20
0.5
 30
0.0
 11
0.5
 21
0.5
 31
0.0
  0
LINE
  5
A3
330
71
100
AcDbEntity
  8
0
  6
CONTINUOUS
 62
     0
100
AcDbLine
 10
0.5
 20
0.5
 30
0.0
 11
0.5
 21
-0.5
 31
0.0
  0
LINE
  5
A4
330
71
100
AcDbEntity
  8
0
  6
CONTINUOUS
 62
     0
100
AcDbLine
 10
0.5
 20
-0.5
 30
0.0
 11
-0.5
 21
-0.5
 31
0.0
  0
LINE
  5
A5
330
71
100
AcDbEntity
  8
0
  6
CONTINUOUS
 62
     0
100
AcDbLine
 10
-0.5
 20
-0.5
 30
0.0
 11
-0.5
 21
0.5
 31
0.0
  0
ENDBLK
  5
73
330
71
100
AcDbEntity
  8
0
100
AcDbBlockEnd
  0
BLOCK
  5
75
330
74
100
AcDbEntity
  8
0
100
AcDbBlockBegin
  2
EX_INTEGRAL
 70
     0
 10
0.0
 20
0.0
 30
0.0
  3
EX_INTEGRAL
  1

  0
LINE
  5
A6
330
74
100
AcDbEntity
  8
0
  6
CONTINUOUS
 62
     0
100
AcDbLine
 10
0.0
 20
0.0
 30
0.0
 11
-1.0
 21
0.0
 31
0.0
  0
ARC
  5
A7
330
74
100
AcDbEntity
  8
0
  6
CONTINUOUS
 62
     0
100
AcDbCircle
 10
0.542115
 20
0.164992
 30
0.0
 40
0.56667
100
AcDbArc
 50
73.07249033629006
 51
196.9275130221199
  0
ARC
  5
A8
330
74
100
AcDbEntity
  8
0
  6
CONTINUOUS
 62
     0
100
AcDbCircle
 10
-0.542115
 20
-0.164992
 30
0.0
 40
0.56667
100
AcDbArc
 50
253.0724869220464
 51
16.9275130559125
  0
ENDBLK
  5
76
330
74
100
AcDbEntity
  8
0
100
AcDbBlockEnd
  0
BLOCK
  5
114
330
113
100
AcDbEntity
  8
0
100
AcDbBlockBegin
  2
*D15
 70
     1
 10
0.0
 20
0.0
 30
0.0
  3
*D15
  1

  0
LINE
  5
116
330
113
100
AcDbEntity
  8
図枠
  6
CONTINUOUS
 62
     3
100
AcDbLine
 10
446.9999999999999
 20
2121.97006766
 30
0.0
 11
446.9999999999999
 21
1932.0
 31
0.0
  0
LINE
  5
117
330
113
100
AcDbEntity
  8
図枠
  6
CONTINUOUS
 62
     3
100
AcDbLine
 10
391.9999999999999
 20
1932.0
 30
0.0
 11
411.9999999999999
 21
1932.0
 31
0.0
  0
INSERT
  5
118
330
113
100
AcDbEntity
  8
図枠
 62
     3
100
AcDbBlockReference
  2
EX_NORM
 10
356.9999999999999
 20
1932.0
 30
0.0
 41
35.0
 42
35.0
 43
35.0
 50
180.0
  0
INSERT
  5
119
330
113
100
AcDbEntity
  8
図枠
 62
     3
100
AcDbBlockReference
  2
EX_NONE
 10
446.9999999999999
 20
1932.0
 30
0.0
 41
35.0
 42
35.0
 43
35.0
  0
MTEXT
  5
11A
330
113
100
AcDbEntity
  8
図枠
 62
     2
100
AcDbMText
 10
401.9999999999994
 20
1997.5
 30
0.0
 40
40.0
 41
0.0
 71
     5
 72
     1
  1
最小
  7
EXCADDIM1
  0
POINT
  5
11B
330
113
100
AcDbEntity
  8
DEFPOINTS
 62
     0
100
AcDbPoint
 10
356.9999999999999
 20
1865.0
 30
0.0
  0
POINT
  5
11C
330
113
100
AcDbEntity
  8
DEFPOINTS
 62
     0
100
AcDbPoint
 10
446.9999999999999
 20
2121.97006766
 30
0.0
  0
POINT
  5
11D
330
113
100
AcDbEntity
  8
DEFPOINTS
 62
     0
100
AcDbPoint
 10
446.9999999999999
 20
1932.0
 30
0.0
  0
ENDBLK
  5
115
330
113
100
AcDbEntity
  8
0
100
AcDbBlockEnd
  0
BLOCK
  5
29B
330
29A
100
AcDbEntity
  8
0
100
AcDbBlockBegin
  2
*D16
 70
     1
 10
0.0
 20
0.0
 30
0.0
  3
*D16
  1

  0
LINE
  5
29D
330
29A
100
AcDbEntity
  8
寸法
  6
CONTINUOUS
 62
     3
100
AcDbLine
 10
545.9000000000001
 20
2355.0
 30
0.0
 11
590.6000000000003
 21
2355.0
 31
0.0
  0
LINE
  5
29E
330
29A
100
AcDbEntity
  8
寸法
  6
CONTINUOUS
 62
     3
100
AcDbLine
 10
544.5000000000001
 20
2145.0
 30
0.0
 11
590.6000000000003
 21
2145.0
 31
0.0
  0
LINE
  5
29F
330
29A
100
AcDbEntity
  8
寸法
  6
CONTINUOUS
 62
     3
100
AcDbLine
 10
580.6
 20
2325.0
 30
0.0
 11
580.6
 21
2175.0
 31
0.0
  0
INSERT
  5
2A0
330
29A
100
AcDbEntity
  8
寸法
 62
     3
100
AcDbBlockReference
  2
EX_NORM
 10
580.6
 20
2355.0
 30
0.0
 41
30.0
 42
30.0
 43
30.0
 50
90.0
  0
INSERT
  5
2A1
330
29A
100
AcDbEntity
  8
寸法
 62
     3
100
AcDbBlockReference
  2
EX_NORM
 10
580.6
 20
2145.0
 30
0.0
 41
30.0
 42
30.0
 43
30.0
 50
270.0
  0
MTEXT
  5
2A2
330
29A
100
AcDbEntity
  8
寸法
 62
     2
100
AcDbMText
 10
557.5999998807908
 20
2250.0
 30
0.0
 40
40.0
 41
0.0
 71
     5
 72
     1
  1
210
  7
EXCADDIM2
 11
0.0
 21
1.0
 31
0.0
  0
POINT
  5
2A3
330
29A
100
AcDbEntity
  8
DEFPOINTS
 62
     0
100
AcDbPoint
 10
545.9
 20
2355.0
 30
0.0
  0
POINT
  5
2A4
330
29A
100
AcDbEntity
  8
DEFPOINTS
 62
     0
100
AcDbPoint
 10
544.5
 20
2145.0
 30
0.0
  0
POINT
  5
2A5
330
29A
100
AcDbEntity
  8
DEFPOINTS
 62
     0
100
AcDbPoint
 10
580.6
 20
2145.0
 30
0.0
  0
ENDBLK
  5
29C
330
29A
100
AcDbEntity
  8
0
100
AcDbBlockEnd
  0
BLOCK
  5
2A8
330
2A7
100
AcDbEntity
  8
0
100
AcDbBlockBegin
  2
*D17
 70
     1
 10
0.0
 20
0.0
 30
0.0
  3
*D17
  1

  0
LINE
  5
2AA
330
2A7
100
AcDbEntity
  8
寸法
  6
CONTINUOUS
 62
     3
100
AcDbLine
 10
760.3999999999997
 20
2365.0
 30
0.0
 11
730.7000000000003
 21
2365.0
 31
0.0
  0
LINE
  5
2AB
330
2A7
100
AcDbEntity
  8
寸法
  6
CONTINUOUS
 62
     3
100
AcDbLine
 10
759.8999999999996
 20
2135.0
 30
0.0
 11
730.7000000000003
 21
2135.0
 31
0.0
  0
LINE
  5
2AC
330
2A7
100
AcDbEntity
  8
寸法
  6
CONTINUOUS
 62
     3
100
AcDbLine
 10
740.7
 20
2335.0
 30
0.0
 11
740.7
 21
2165.0
 31
0.0
  0
INSERT
  5
2AD
330
2A7
100
AcDbEntity
  8
寸法
 62
     3
100
AcDbBlockReference
  2
EX_NORM
 10
740.7
 20
2365.0
 30
0.0
 41
30.0
 42
30.0
 43
30.0
 50
90.0
  0
INSERT
  5
2AE
330
2A7
100
AcDbEntity
  8
寸法
 62
     3
100
AcDbBlockReference
  2
EX_NORM
 10
740.7
 20
2135.0
 30
0.0
 41
30.0
 42
30.0
 43
30.0
 50
270.0
  0
MTEXT
  5
2AF
330
2A7
100
AcDbEntity
  8
寸法
 62
     2
100
AcDbMText
 10
717.6999998807909
 20
2250.0
 30
0.0
 40
40.0
 41
0.0
 71
     5
 72
     1
  1
230
  7
EXCADDIM2
 11
0.0
 21
1.0
 31
0.0
  0
POINT
  5
2B0
330
2A7
100
AcDbEntity
  8
DEFPOINTS
 62
     0
100
AcDbPoint
 10
760.4
 20
2365.0
 30
0.0
  0
POINT
  5
2B1
330
2A7
100
AcDbEntity
  8
DEFPOINTS
 62
     0
100
AcDbPoint
 10
759.8999999999999
 20
2135.0
 30
0.0
  0
POINT
  5
2B2
330
2A7
100
AcDbEntity
  8
DEFPOINTS
 62
     0
100
AcDbPoint
 10
740.7
 20
2135.0
 30
0.0
  0
ENDBLK
  5
2A9
330
2A7
100
AcDbEntity
  8
0
100
AcDbBlockEnd
  0
BLOCK
  5
2B5
330
2B4
100
AcDbEntity
  8
0
100
AcDbBlockBegin
  2
*D18
 70
     1
 10
0.0
 20
0.0
 30
0.0
  3
*D18
  1

  0
LINE
  5
2B7
330
2B4
100
AcDbEntity
  8
寸法
  6
CONTINUOUS
 62
     3
100
AcDbLine
 10
461.3999999999998
 20
2320.0
 30
0.0
 11
404.0000000000003
 21
2320.0
 31
0.0
  0
LINE
  5
2B8
330
2B4
100
AcDbEntity
  8
寸法
  6
CONTINUOUS
 62
     3
100
AcDbLine
 10
461.3999999999998
 20
2180.0
 30
0.0
 11
404.0000000000003
 21
2180.0
 31
0.0
  0
LINE
  5
2B9
330
2B4
100
AcDbEntity
  8
寸法
  6
CONTINUOUS
 62
     3
100
AcDbLine
 10
414.0000000000001
 20
2290.0
 30
0.0
 11
414.0000000000001
 21
2210.0
 31
0.0
  0
INSERT
  5
2BA
330
2B4
100
AcDbEntity
  8
寸法
 62
     3
100
AcDbBlockReference
  2
EX_NORM
 10
414.0000000000001
 20
2320.0
 30
0.0
 41
30.0
 42
30.0
 43
30.0
 50
90.0
  0
INSERT
  5
2BB
330
2B4
100
AcDbEntity
  8
寸法
 62
     3
100
AcDbBlockReference
  2
EX_NORM
 10
414.0000000000001
 20
2180.0
 30
0.0
 41
30.0
 42
30.0
 43
30.0
 50
270.0
  0
MTEXT
  5
2BC
330
2B4
100
AcDbEntity
  8
寸法
 62
     2
100
AcDbMText
 10
390.9999998807909
 20
2250.0
 30
0.0
 40
40.0
 41
0.0
 71
     5
 72
     1
  1
140
  7
EXCADDIM2
 11
0.0
 21
1.0
 31
0.0
  0
POINT
  5
2BD
330
2B4
100
AcDbEntity
  8
DEFPOINTS
 62
     0
100
AcDbPoint
 10
461.4
 20
2320.0
 30
0.0
  0
POINT
  5
2BE
330
2B4
100
AcDbEntity
  8
DEFPOINTS
 62
     0
100
AcDbPoint
 10
461.4
 20
2180.0
 30
0.0
  0
POINT
  5
2BF
330
2B4
100
AcDbEntity
  8
DEFPOINTS
 62
     0
100
AcDbPoint
 10
414.0000000000001
 20
2180.0
 30
0.0
  0
ENDBLK
  5
2B6
330
2B4
100
AcDbEntity
  8
0
100
AcDbBlockEnd
  0
BLOCK
  5
2C2
330
2C1
100
AcDbEntity
  8
0
100
AcDbBlockBegin
  2
*D19
 70
     1
 10
0.0
 20
0.0
 30
0.0
  3
*D19
  1

  0
LINE
  5
2C4
330
2C1
100
AcDbEntity
  8
寸法
  6
CONTINUOUS
 62
     3
100
AcDbLine
 10
477.0
 20
2158.000000119209
 30
0.0
 11
477.0
 21
1994.0
 31
0.0
  0
LINE
  5
2C5
330
2C1
100
AcDbEntity
  8
寸法
  6
CONTINUOUS
 62
     3
100
AcDbLine
 10
917.0
 20
2243.000000119209
 30
0.0
 11
917.0
 21
1994.0
 31
0.0
  0
LINE
  5
2C6
330
2C1
100
AcDbEntity
  8
寸法
  6
CONTINUOUS
 62
     3
100
AcDbLine
 10
507.0
 20
2004.0
 30
0.0
 11
887.0
 21
2004.0
 31
0.0
  0
INSERT
  5
2C7
330
2C1
100
AcDbEntity
  8
寸法
 62
     3
100
AcDbBlockReference
  2
EX_NORM
 10
477.0
 20
2004.0
 30
0.0
 41
30.0
 42
30.0
 43
30.0
 50
180.0
  0
INSERT
  5
2C8
330
2C1
100
AcDbEntity
  8
寸法
 62
     3
100
AcDbBlockReference
  2
EX_NORM
 10
917.0
 20
2004.0
 30
0.0
 41
30.0
 42
30.0
 43
30.0
  0
MTEXT
  5
2C9
330
2C1
100
AcDbEntity
  8
寸法
 62
     2
100
AcDbMText
 10
697.0000000000001
 20
2027.000000119209
 30
0.0
 40
40.0
 41
0.0
 71
     5
 72
     1
  1
440
  7
EXCADDIM2
  0
POINT
  5
2CA
330
2C1
100
AcDbEntity
  8
DEFPOINTS
 62
     0
100
AcDbPoint
 10
477.0
 20
2165.0
 30
0.0
  0
POINT
  5
2CB
330
2C1
100
AcDbEntity
  8
DEFPOINTS
 62
     0
100
AcDbPoint
 10
917.0
 20
2250.0
 30
0.0
  0
POINT
  5
2CC
330
2C1
100
AcDbEntity
  8
DEFPOINTS
 62
     0
100
AcDbPoint
 10
917.0
 20
2004.0
 30
0.0
  0
ENDBLK
  5
2C3
330
2C1
100
AcDbEntity
  8
0
100
AcDbBlockEnd
  0
BLOCK
  5
2CF
330
2CE
100
AcDbEntity
  8
0
100
AcDbBlockBegin
  2
*D20
 70
     1
 10
0.0
 20
0.0
 30
0.0
  3
*D20
  1

  0
LINE
  5
2D1
330
2CE
100
AcDbEntity
  8
寸法
  6
CONTINUOUS
 62
     3
100
AcDbLine
 10
917.0
 20
2243.000000119209
 30
0.0
 11
917.0
 21
1922.0
 31
0.0
  0
LINE
  5
2D2
330
2CE
100
AcDbEntity
  8
寸法
  6
CONTINUOUS
 62
     3
100
AcDbLine
 10
447.0
 20
2243.000000119209
 30
0.0
 11
447.0
 21
1922.0
 31
0.0
  0
LINE
  5
2D3
330
2CE
100
AcDbEntity
  8
寸法
  6
CONTINUOUS
 62
     3
100
AcDbLine
 10
887.0
 20
1932.0
 30
0.0
 11
477.0
 21
1932.0
 31
0.0
  0
INSERT
  5
2D4
330
2CE
100
AcDbEntity
  8
寸法
 62
     3
100
AcDbBlockReference
  2
EX_NORM
 10
917.0
 20
1932.0
 30
0.0
 41
30.0
 42
30.0
 43
30.0
  0
INSERT
  5
2D5
330
2CE
100
AcDbEntity
  8
寸法
 62
     3
100
AcDbBlockReference
  2
EX_NORM
 10
447.0
 20
1932.0
 30
0.0
 41
30.0
 42
30.0
 43
30.0
 50
180.0
  0
MTEXT
  5
2D6
330
2CE
100
AcDbEntity
  8
寸法
 62
     2
100
AcDbMText
 10
682.0000000000001
 20
1955.000000119209
 30
0.0
 40
40.0
 41
0.0
 71
     5
 72
     1
  1
470
  7
EXCADDIM2
  0
POINT
  5
2D7
330
2CE
100
AcDbEntity
  8
DEFPOINTS
 62
     0
100
AcDbPoint
 10
917.0
 20
2250.0
 30
0.0
  0
POINT
  5
2D8
330
2CE
100
AcDbEntity
  8
DEFPOINTS
 62
     0
100
AcDbPoint
 10
447.0
 20
2250.0
 30
0.0
  0
POINT
  5
2D9
330
2CE
100
AcDbEntity
  8
DEFPOINTS
 62
     0
100
AcDbPoint
 10
447.0
 20
1932.0
 30
0.0
  0
ENDBLK
  5
2D0
330
2CE
100
AcDbEntity
  8
0
100
AcDbBlockEnd
  0
BLOCK
  5
2DC
330
2DB
100
AcDbEntity
  8
0
100
AcDbBlockBegin
  2
*D21
 70
     1
 10
0.0
 20
0.0
 30
0.0
  3
*D21
  1

  0
LINE
  5
2DE
330
2DB
100
AcDbEntity
  8
寸法
  6
CONTINUOUS
 62
     3
100
AcDbLine
 10
708.7372054607908
 20
2425.0
 30
0.0
 11
1020.0
 21
2425.0
 31
0.0
  0
LINE
  5
2DF
330
2DB
100
AcDbEntity
  8
寸法
  6
CONTINUOUS
 62
     3
100
AcDbLine
 10
708.7372054607908
 20
2075.0
 30
0.0
 11
1020.0
 21
2075.0
 31
0.0
  0
LINE
  5
2E0
330
2DB
100
AcDbEntity
  8
寸法
  6
CONTINUOUS
 62
     3
100
AcDbLine
 10
1010.0
 20
2395.0
 30
0.0
 11
1010.0
 21
2105.0
 31
0.0
  0
INSERT
  5
2E1
330
2DB
100
AcDbEntity
  8
寸法
 62
     3
100
AcDbBlockReference
  2
EX_NORM
 10
1010.0
 20
2425.0
 30
0.0
 41
30.0
 42
30.0
 43
30.0
 50
90.0
  0
INSERT
  5
2E2
330
2DB
100
AcDbEntity
  8
寸法
 62
     3
100
AcDbBlockReference
  2
EX_NORM
 10
1010.0
 20
2075.0
 30
0.0
 41
30.0
 42
30.0
 43
30.0
 50
270.0
  0
MTEXT
  5
2E3
330
2DB
100
AcDbEntity
  8
寸法
 62
     2
100
AcDbMText
 10
986.9999998807908
 20
2250.0
 30
0.0
 40
40.0
 41
0.0
 71
     5
 72
     1
  1
350
  7
EXCADDIM2
 11
0.0
 21
1.0
 31
0.0
  0
POINT
  5
2E4
330
2DB
100
AcDbEntity
  8
DEFPOINTS
 62
     0
100
AcDbPoint
 10
701.7372055800001
 20
2425.0
 30
0.0
  0
POINT
  5
2E5
330
2DB
100
AcDbEntity
  8
DEFPOINTS
 62
     0
100
AcDbPoint
 10
701.7372055800001
 20
2075.0
 30
0.0
  0
POINT
  5
2E6
330
2DB
100
AcDbEntity
  8
DEFPOINTS
 62
     0
100
AcDbPoint
 10
1010.0
 20
2075.0
 30
0.0
  0
ENDBLK
  5
2DD
330
2DB
100
AcDbEntity
  8
0
100
AcDbBlockEnd
  0
BLOCK
  5
2E9
330
2E8
100
AcDbEntity
  8
0
100
AcDbBlockBegin
  2
*D22
 70
     1
 10
0.0
 20
0.0
 30
0.0
  3
*D22
  1

  0
LINE
  5
2EB
330
2E8
100
AcDbEntity
  8
寸法
  6
CONTINUOUS
 62
     3
100
AcDbLine
 10
667.0
 20
755.9999998807907
 30
0.0
 11
667.0
 21
794.0
 31
0.0
  0
LINE
  5
2EC
330
2E8
100
AcDbEntity
  8
寸法
  6
CONTINUOUS
 62
     3
100
AcDbLine
 10
447.0
 20
927.0000001192093
 30
0.0
 11
447.0
 21
774.0
 31
0.0
  0
LINE
  5
2ED
330
2E8
100
AcDbEntity
  8
寸法
  6
CONTINUOUS
 62
     3
100
AcDbLine
 10
637.0
 20
784.0
 30
0.0
 11
477.0
 21
784.0
 31
0.0
  0
INSERT
  5
2EE
330
2E8
100
AcDbEntity
  8
寸法
 62
     3
100
AcDbBlockReference
  2
EX_NORM
 10
667.0
 20
784.0
 30
0.0
 41
30.0
 42
30.0
 43
30.0
  0
INSERT
  5
2EF
330
2E8
100
AcDbEntity
  8
寸法
 62
     3
100
AcDbBlockReference
  2
EX_NORM
 10
447.0
 20
784.0
 30
0.0
 41
30.0
 42
30.0
 43
30.0
 50
180.0
  0
MTEXT
  5
2F0
330
2E8
100
AcDbEntity
  8
寸法
 62
     2
100
AcDbMText
 10
557.0000000000001
 20
807.0000001192093
 30
0.0
 40
40.0
 41
0.0
 71
     5
 72
     1
  1
　　220
  7
EXCADDIM2
  0
POINT
  5
2F1
330
2E8
100
AcDbEntity
  8
DEFPOINTS
 62
     0
100
AcDbPoint
 10
667.0
 20
749.0
 30
0.0
  0
POINT
  5
2F2
330
2E8
100
AcDbEntity
  8
DEFPOINTS
 62
     0
100
AcDbPoint
 10
447.0
 20
934.0
 30
0.0
  0
POINT
  5
2F3
330
2E8
100
AcDbEntity
  8
DEFPOINTS
 62
     0
100
AcDbPoint
 10
447.0
 20
784.0
 30
0.0
  0
ENDBLK
  5
2EA
330
2E8
100
AcDbEntity
  8
0
100
AcDbBlockEnd
  0
BLOCK
  5
2F7
330
2F6
100
AcDbEntity
  8
0
100
AcDbBlockBegin
  2
*D23
 70
     1
 10
0.0
 20
0.0
 30
0.0
  3
*D23
  1

  0
LINE
  5
2F9
330
2F6
100
AcDbEntity
  8
寸法
  6
CONTINUOUS
 62
     3
100
AcDbLine
 10
916.9999998807907
 20
954.0
 30
0.0
 11
1089.0
 21
953.9999999999999
 31
0.0
  0
LINE
  5
2FA
330
2F6
100
AcDbEntity
  8
寸法
  6
CONTINUOUS
 62
     3
100
AcDbLine
 10
1076.000000119209
 20
604.0
 30
0.0
 11
1069.0
 21
604.0
 31
0.0
  0
LINE
  5
2FB
330
2F6
100
AcDbEntity
  8
寸法
  6
CONTINUOUS
 62
     3
100
AcDbLine
 10
1079.0
 20
923.9999999999999
 30
0.0
 11
1079.0
 21
634.0
 31
0.0
  0
INSERT
  5
2FC
330
2F6
100
AcDbEntity
  8
寸法
 62
     3
100
AcDbBlockReference
  2
EX_NORM
 10
1079.0
 20
953.9999999999999
 30
0.0
 41
30.0
 42
30.0
 43
30.0
 50
90.0
  0
INSERT
  5
2FD
330
2F6
100
AcDbEntity
  8
寸法
 62
     3
100
AcDbBlockReference
  2
EX_NORM
 10
1079.0
 20
604.0
 30
0.0
 41
30.0
 42
30.0
 43
30.0
 50
270.0
  0
MTEXT
  5
2FE
330
2F6
100
AcDbEntity
  8
寸法
 62
     2
100
AcDbMText
 10
1055.999999880791
 20
779.0
 30
0.0
 40
40.0
 41
0.0
 71
     5
 72
     1
  1
350
  7
EXCADDIM2
 11
0.0
 21
1.0
 31
0.0
  0
POINT
  5
2FF
330
2F6
100
AcDbEntity
  8
DEFPOINTS
 62
     0
100
AcDbPoint
 10
910.0
 20
954.0
 30
0.0
  0
POINT
  5
300
330
2F6
100
AcDbEntity
  8
DEFPOINTS
 62
     0
100
AcDbPoint
 10
1083.0
 20
604.0
 30
0.0
  0
POINT
  5
301
330
2F6
100
AcDbEntity
  8
DEFPOINTS
 62
     0
100
AcDbPoint
 10
1079.0
 20
604.0
 30
0.0
  0
ENDBLK
  5
2F8
330
2F6
100
AcDbEntity
  8
0
100
AcDbBlockEnd
  0
BLOCK
  5
304
330
303
100
AcDbEntity
  8
0
100
AcDbBlockBegin
  2
*D24
 70
     1
 10
0.0
 20
0.0
 30
0.0
  3
*D24
  1

  0
LINE
  5
306
330
303
100
AcDbEntity
  8
寸法
  6
CONTINUOUS
 62
     3
100
AcDbLine
 10
1072.000000119209
 20
604.0
 30
0.0
 11
1068.9
 21
604.0
 31
0.0
  0
LINE
  5
307
330
303
100
AcDbEntity
  8
寸法
  6
CONTINUOUS
 62
     3
100
AcDbLine
 10
806.9999998807907
 20
556.0
 30
0.0
 11
1088.9
 21
555.9999999999999
 31
0.0
  0
LINE
  5
308
330
303
100
AcDbEntity
  8
寸法
  6
CONTINUOUS
 62
     3
100
AcDbLine
 10
1078.9
 20
604.0
 30
0.0
 11
1078.9
 21
555.9999999999999
 31
0.0
  0
LINE
  5
309
330
303
100
AcDbEntity
  8
寸法
  6
CONTINUOUS
 62
     3
100
AcDbLine
 10
1078.9
 20
634.0
 30
0.0
 11
1078.9
 21
664.0
 31
0.0
  0
LINE
  5
30A
330
303
100
AcDbEntity
  8
寸法
  6
CONTINUOUS
 62
     3
100
AcDbLine
 10
1078.9
 20
525.9999999999999
 30
0.0
 11
1078.9
 21
495.9999999999999
 31
0.0
  0
INSERT
  5
30B
330
303
100
AcDbEntity
  8
寸法
 62
     3
100
AcDbBlockReference
  2
EX_NORM
 10
1078.9
 20
604.0
 30
0.0
 41
30.0
 42
30.0
 43
30.0
 50
270.0
  0
INSERT
  5
30C
330
303
100
AcDbEntity
  8
寸法
 62
     3
100
AcDbBlockReference
  2
EX_NORM
 10
1078.9
 20
555.9999999999999
 30
0.0
 41
30.0
 42
30.0
 43
30.0
 50
90.0
  0
MTEXT
  5
30D
330
303
100
AcDbEntity
  8
寸法
 62
     2
100
AcDbMText
 10
1055.899999880791
 20
490.9999999999997
 30
0.0
 40
40.0
 41
0.0
 71
     5
 72
     1
  1
48
  7
EXCADDIM2
 11
0.0
 21
1.0
 31
0.0
  0
POINT
  5
30E
330
303
100
AcDbEntity
  8
DEFPOINTS
 62
     0
100
AcDbPoint
 10
1079.0
 20
604.0
 30
0.0
  0
POINT
  5
30F
330
303
100
AcDbEntity
  8
DEFPOINTS
 62
     0
100
AcDbPoint
 10
800.0
 20
556.0
 30
0.0
  0
POINT
  5
310
330
303
100
AcDbEntity
  8
DEFPOINTS
 62
     0
100
AcDbPoint
 10
1078.9
 20
555.9999999999999
 30
0.0
  0
ENDBLK
  5
305
330
303
100
AcDbEntity
  8
0
100
AcDbBlockEnd
  0
BLOCK
  5
313
330
312
100
AcDbEntity
  8
0
100
AcDbBlockBegin
  2
*D25
 70
     1
 10
0.0
 20
0.0
 30
0.0
  3
*D25
  1

  0
LINE
  5
315
330
312
100
AcDbEntity
  8
寸法
  6
CONTINUOUS
 62
     3
100
AcDbLine
 10
1444.0
 20
551.0000001192093
 30
0.0
 11
1444.0
 21
477.5
 31
0.0
  0
LINE
  5
316
330
312
100
AcDbEntity
  8
寸法
  6
CONTINUOUS
 62
     3
100
AcDbLine
 10
1654.0
 20
551.0000001192093
 30
0.0
 11
1654.0
 21
477.5
 31
0.0
  0
LINE
  5
317
330
312
100
AcDbEntity
  8
寸法
  6
CONTINUOUS
 62
     3
100
AcDbLine
 10
1474.0
 20
487.5
 30
0.0
 11
1624.0
 21
487.5
 31
0.0
  0
INSERT
  5
318
330
312
100
AcDbEntity
  8
寸法
 62
     3
100
AcDbBlockReference
  2
EX_NORM
 10
1444.0
 20
487.5
 30
0.0
 41
30.0
 42
30.0
 43
30.0
 50
180.0
  0
INSERT
  5
319
330
312
100
AcDbEntity
  8
寸法
 62
     3
100
AcDbBlockReference
  2
EX_NORM
 10
1654.0
 20
487.5
 30
0.0
 41
30.0
 42
30.0
 43
30.0
  0
MTEXT
  5
31A
330
312
100
AcDbEntity
  8
寸法
 62
     2
100
AcDbMText
 10
1549.0
 20
510.5000001192093
 30
0.0
 40
40.0
 41
0.0
 71
     5
 72
     1
  1
210
  7
EXCADDIM2
  0
POINT
  5
31B
330
312
100
AcDbEntity
  8
DEFPOINTS
 62
     0
100
AcDbPoint
 10
1444.0
 20
558.0
 30
0.0
  0
POINT
  5
31C
330
312
100
AcDbEntity
  8
DEFPOINTS
 62
     0
100
AcDbPoint
 10
1654.0
 20
558.0
 30
0.0
  0
POINT
  5
31D
330
312
100
AcDbEntity
  8
DEFPOINTS
 62
     0
100
AcDbPoint
 10
1654.0
 20
487.5
 30
0.0
  0
ENDBLK
  5
314
330
312
100
AcDbEntity
  8
0
100
AcDbBlockEnd
  0
BLOCK
  5
320
330
31F
100
AcDbEntity
  8
0
100
AcDbBlockBegin
  2
*D26
 70
     1
 10
0.0
 20
0.0
 30
0.0
  3
*D26
  1

  0
LINE
  5
322
330
31F
100
AcDbEntity
  8
寸法
  6
CONTINUOUS
 62
     3
100
AcDbLine
 10
1438.0
 20
2047.000000119209
 30
0.0
 11
1438.0
 21
1851.0
 31
0.0
  0
LINE
  5
323
330
31F
100
AcDbEntity
  8
寸法
  6
CONTINUOUS
 62
     3
100
AcDbLine
 10
1724.0
 20
2047.000000119209
 30
0.0
 11
1724.0
 21
1851.0
 31
0.0
  0
LINE
  5
324
330
31F
100
AcDbEntity
  8
寸法
  6
CONTINUOUS
 62
     3
100
AcDbLine
 10
1468.0
 20
1861.0
 30
0.0
 11
1694.0
 21
1861.0
 31
0.0
  0
INSERT
  5
325
330
31F
100
AcDbEntity
  8
寸法
 62
     3
100
AcDbBlockReference
  2
EX_NORM
 10
1438.0
 20
1861.0
 30
0.0
 41
30.0
 42
30.0
 43
30.0
 50
180.0
  0
INSERT
  5
326
330
31F
100
AcDbEntity
  8
寸法
 62
     3
100
AcDbBlockReference
  2
EX_NORM
 10
1724.0
 20
1861.0
 30
0.0
 41
30.0
 42
30.0
 43
30.0
  0
MTEXT
  5
327
330
31F
100
AcDbEntity
  8
寸法
 62
     2
100
AcDbMText
 10
1581.0
 20
1884.00000011921
 30
0.0
 40
40.0
 41
0.0
 71
     5
 72
     1
  1
286
  7
EXCADDIM2
  0
POINT
  5
328
330
31F
100
AcDbEntity
  8
DEFPOINTS
 62
     0
100
AcDbPoint
 10
1438.0
 20
2054.0
 30
0.0
  0
POINT
  5
329
330
31F
100
AcDbEntity
  8
DEFPOINTS
 62
     0
100
AcDbPoint
 10
1724.0
 20
2054.0
 30
0.0
  0
POINT
  5
32A
330
31F
100
AcDbEntity
  8
DEFPOINTS
 62
     0
100
AcDbPoint
 10
1724.0
 20
1861.0
 30
0.0
  0
ENDBLK
  5
321
330
31F
100
AcDbEntity
  8
0
100
AcDbBlockEnd
  0
BLOCK
  5
32D
330
32C
100
AcDbEntity
  8
0
100
AcDbBlockBegin
  2
*D27
 70
     1
 10
0.0
 20
0.0
 30
0.0
  3
*D27
  1

  0
LINE
  5
32F
330
32C
100
AcDbEntity
  8
寸法
  6
CONTINUOUS
 62
     3
100
AcDbLine
 10
1724.0
 20
2060.999999880791
 30
0.0
 11
1724.0
 21
2242.0
 31
0.0
  0
LINE
  5
330
330
32C
100
AcDbEntity
  8
寸法
  6
CONTINUOUS
 62
     3
100
AcDbLine
 10
1581.0
 20
2187.999999880791
 30
0.0
 11
1581.0
 21
2242.0
 31
0.0
  0
LINE
  5
331
330
32C
100
AcDbEntity
  8
寸法
  6
CONTINUOUS
 62
     3
100
AcDbLine
 10
1694.0
 20
2232.0
 30
0.0
 11
1611.0
 21
2232.0
 31
0.0
  0
INSERT
  5
332
330
32C
100
AcDbEntity
  8
寸法
 62
     3
100
AcDbBlockReference
  2
EX_NORM
 10
1724.0
 20
2232.0
 30
0.0
 41
30.0
 42
30.0
 43
30.0
  0
INSERT
  5
333
330
32C
100
AcDbEntity
  8
寸法
 62
     3
100
AcDbBlockReference
  2
EX_NORM
 10
1581.0
 20
2232.0
 30
0.0
 41
30.0
 42
30.0
 43
30.0
 50
180.0
  0
MTEXT
  5
334
330
32C
100
AcDbEntity
  8
寸法
 62
     2
100
AcDbMText
 10
1652.5
 20
2255.000000119209
 30
0.0
 40
40.0
 41
0.0
 71
     5
 72
     1
  1
143
  7
EXCADDIM2
  0
POINT
  5
335
330
32C
100
AcDbEntity
  8
DEFPOINTS
 62
     0
100
AcDbPoint
 10
1724.0
 20
2054.0
 30
0.0
  0
POINT
  5
336
330
32C
100
AcDbEntity
  8
DEFPOINTS
 62
     0
100
AcDbPoint
 10
1581.0
 20
2181.0
 30
0.0
  0
POINT
  5
337
330
32C
100
AcDbEntity
  8
DEFPOINTS
 62
     0
100
AcDbPoint
 10
1581.0
 20
2232.0
 30
0.0
  0
ENDBLK
  5
32E
330
32C
100
AcDbEntity
  8
0
100
AcDbBlockEnd
  0
BLOCK
  5
33A
330
339
100
AcDbEntity
  8
0
100
AcDbBlockBegin
  2
*D28
 70
     1
 10
0.0
 20
0.0
 30
0.0
  3
*D28
  1

  0
LINE
  5
33C
330
339
100
AcDbEntity
  8
寸法
  6
CONTINUOUS
 62
     3
100
AcDbLine
 10
1587.999999880791
 20
2167.0
 30
0.0
 11
1830.0
 21
2167.0
 31
0.0
  0
LINE
  5
33D
330
339
100
AcDbEntity
  8
寸法
  6
CONTINUOUS
 62
     3
100
AcDbLine
 10
1587.999999880791
 20
1941.0
 30
0.0
 11
1830.0
 21
1941.0
 31
0.0
  0
LINE
  5
33E
330
339
100
AcDbEntity
  8
寸法
  6
CONTINUOUS
 62
     3
100
AcDbLine
 10
1820.0
 20
2137.0
 30
0.0
 11
1820.0
 21
1971.0
 31
0.0
  0
INSERT
  5
33F
330
339
100
AcDbEntity
  8
寸法
 62
     3
100
AcDbBlockReference
  2
EX_NORM
 10
1820.0
 20
2167.0
 30
0.0
 41
30.0
 42
30.0
 43
30.0
 50
90.0
  0
INSERT
  5
340
330
339
100
AcDbEntity
  8
寸法
 62
     3
100
AcDbBlockReference
  2
EX_NORM
 10
1820.0
 20
1941.0
 30
0.0
 41
30.0
 42
30.0
 43
30.0
 50
270.0
  0
MTEXT
  5
341
330
339
100
AcDbEntity
  8
寸法
 62
     2
100
AcDbMText
 10
1796.999999880791
 20
2054.0
 30
0.0
 40
40.0
 41
0.0
 71
     5
 72
     1
  1
226
  7
EXCADDIM2
 11
0.0
 21
1.0
 31
0.0
  0
POINT
  5
342
330
339
100
AcDbEntity
  8
DEFPOINTS
 62
     0
100
AcDbPoint
 10
1581.0
 20
2167.0
 30
0.0
  0
POINT
  5
343
330
339
100
AcDbEntity
  8
DEFPOINTS
 62
     0
100
AcDbPoint
 10
1581.0
 20
1941.0
 30
0.0
  0
POINT
  5
344
330
339
100
AcDbEntity
  8
DEFPOINTS
 62
     0
100
AcDbPoint
 10
1820.0
 20
1941.0
 30
0.0
  0
ENDBLK
  5
33B
330
339
100
AcDbEntity
  8
0
100
AcDbBlockEnd
  0
BLOCK
  5
347
330
346
100
AcDbEntity
  8
0
100
AcDbBlockBegin
  2
*D29
 70
     1
 10
0.0
 20
0.0
 30
0.0
  3
*D29
  1

  0
LINE
  5
349
330
346
100
AcDbEntity
  8
寸法
  6
CONTINUOUS
 62
     3
100
AcDbLine
 10
917.0
 20
915.0000001192093
 30
0.0
 11
917.0
 21
677.9999999999999
 31
0.0
  0
LINE
  5
34A
330
346
100
AcDbEntity
  8
寸法
  6
CONTINUOUS
 62
     3
100
AcDbLine
 10
887.0
 20
687.9999999999999
 30
0.0
 11
797.0
 21
687.9999999999999
 31
0.0
  0
INSERT
  5
34B
330
346
100
AcDbEntity
  8
寸法
 62
     3
100
AcDbBlockReference
  2
EX_NORM
 10
917.0
 20
687.9999999999999
 30
0.0
 41
30.0
 42
30.0
 43
30.0
  0
INSERT
  5
34C
330
346
100
AcDbEntity
  8
寸法
 62
     3
100
AcDbBlockReference
  2
EX_NORM
 10
767.0
 20
687.9999999999999
 30
0.0
 41
30.0
 42
30.0
 43
30.0
 50
180.0
  0
MTEXT
  5
34D
330
346
100
AcDbEntity
  8
寸法
 62
     2
100
AcDbMText
 10
997.0000000000002
 20
711.000000119209
 30
0.0
 40
40.0
 41
0.0
 71
     5
 72
     1
  1
150
  7
EXCADDIM2
  0
POINT
  5
34E
330
346
100
AcDbEntity
  8
DEFPOINTS
 62
     0
100
AcDbPoint
 10
917.0
 20
922.0
 30
0.0
  0
POINT
  5
34F
330
346
100
AcDbEntity
  8
DEFPOINTS
 62
     0
100
AcDbPoint
 10
767.0
 20
687.9999999999999
 30
0.0
  0
POINT
  5
350
330
346
100
AcDbEntity
  8
DEFPOINTS
 62
     0
100
AcDbPoint
 10
767.0
 20
687.9999999999999
 30
0.0
  0
ENDBLK
  5
348
330
346
100
AcDbEntity
  8
0
100
AcDbBlockEnd
  0
BLOCK
  5
353
330
352
100
AcDbEntity
  8
0
100
AcDbBlockBegin
  2
*D30
 70
     1
 10
0.0
 20
0.0
 30
0.0
  3
*D30
  1

  0
LINE
  5
355
330
352
100
AcDbEntity
  8
寸法
  6
CONTINUOUS
 62
     3
100
AcDbLine
 10
532.0
 20
551.0000001192093
 30
0.0
 11
532.0
 21
398.0
 31
0.0
  0
LINE
  5
356
330
352
100
AcDbEntity
  8
寸法
  6
CONTINUOUS
 62
     3
100
AcDbLine
 10
802.0
 20
551.0000001192093
 30
0.0
 11
802.0
 21
398.0
 31
0.0
  0
LINE
  5
357
330
352
100
AcDbEntity
  8
寸法
  6
CONTINUOUS
 62
     3
100
AcDbLine
 10
562.0
 20
408.0
 30
0.0
 11
772.0
 21
408.0
 31
0.0
  0
INSERT
  5
358
330
352
100
AcDbEntity
  8
寸法
 62
     3
100
AcDbBlockReference
  2
EX_NORM
 10
532.0
 20
408.0
 30
0.0
 41
30.0
 42
30.0
 43
30.0
 50
180.0
  0
INSERT
  5
359
330
352
100
AcDbEntity
  8
寸法
 62
     3
100
AcDbBlockReference
  2
EX_NORM
 10
802.0
 20
408.0
 30
0.0
 41
30.0
 42
30.0
 43
30.0
  0
MTEXT
  5
35A
330
352
100
AcDbEntity
  8
寸法
 62
     2
100
AcDbMText
 10
667.0
 20
431.0000001192093
 30
0.0
 40
40.0
 41
0.0
 71
     5
 72
     1
  1
270
  7
EXCADDIM2
  0
POINT
  5
35B
330
352
100
AcDbEntity
  8
DEFPOINTS
 62
     0
100
AcDbPoint
 10
532.0
 20
558.0
 30
0.0
  0
POINT
  5
35C
330
352
100
AcDbEntity
  8
DEFPOINTS
 62
     0
100
AcDbPoint
 10
802.0
 20
558.0
 30
0.0
  0
POINT
  5
35D
330
352
100
AcDbEntity
  8
DEFPOINTS
 62
     0
100
AcDbPoint
 10
802.0
 20
408.0
 30
0.0
  0
ENDBLK
  5
354
330
352
100
AcDbEntity
  8
0
100
AcDbBlockEnd
  0
BLOCK
  5
360
330
35F
100
AcDbEntity
  8
0
100
AcDbBlockBegin
  2
*D31
 70
     1
 10
0.0
 20
0.0
 30
0.0
  3
*D31
  1

  0
LINE
  5
362
330
35F
100
AcDbEntity
  8
寸法
  6
CONTINUOUS
 62
     3
100
AcDbLine
 10
537.0
 20
566.9999761192092
 30
0.0
 11
537.0
 21
464.0000000000001
 31
0.0
  0
LINE
  5
363
330
35F
100
AcDbEntity
  8
寸法
  6
CONTINUOUS
 62
     3
100
AcDbLine
 10
767.0
 20
566.9999761192092
 30
0.0
 11
767.0
 21
464.0000000000001
 31
0.0
  0
LINE
  5
364
330
35F
100
AcDbEntity
  8
寸法
  6
CONTINUOUS
 62
     3
100
AcDbLine
 10
567.0
 20
474.0000000000001
 30
0.0
 11
737.0
 21
474.0000000000001
 31
0.0
  0
INSERT
  5
365
330
35F
100
AcDbEntity
  8
寸法
 62
     3
100
AcDbBlockReference
  2
EX_NORM
 10
537.0
 20
474.0000000000001
 30
0.0
 41
30.0
 42
30.0
 43
30.0
 50
180.0
  0
INSERT
  5
366
330
35F
100
AcDbEntity
  8
寸法
 62
     3
100
AcDbBlockReference
  2
EX_NORM
 10
767.0
 20
474.0000000000001
 30
0.0
 41
30.0
 42
30.0
 43
30.0
  0
MTEXT
  5
367
330
35F
100
AcDbEntity
  8
寸法
 62
     2
100
AcDbMText
 10
652.0
 20
497.0000001192093
 30
0.0
 40
40.0
 41
0.0
 71
     5
 72
     1
  1
230
  7
EXCADDIM2
  0
POINT
  5
368
330
35F
100
AcDbEntity
  8
DEFPOINTS
 62
     0
100
AcDbPoint
 10
537.0
 20
573.999976
 30
0.0
  0
POINT
  5
369
330
35F
100
AcDbEntity
  8
DEFPOINTS
 62
     0
100
AcDbPoint
 10
767.0
 20
573.999976
 30
0.0
  0
POINT
  5
36A
330
35F
100
AcDbEntity
  8
DEFPOINTS
 62
     0
100
AcDbPoint
 10
767.0
 20
474.0000000000001
 30
0.0
  0
ENDBLK
  5
361
330
35F
100
AcDbEntity
  8
0
100
AcDbBlockEnd
  0
BLOCK
  5
36F
330
36E
100
AcDbEntity
  8
0
100
AcDbBlockBegin
  2
*D32
 70
     1
 10
0.0
 20
0.0
 30
0.0
  3
*D32
  1

  0
LINE
  5
371
330
36E
100
AcDbEntity
  8
寸法
  6
CONTINUOUS
 62
     3
100
AcDbLine
 10
1488.484403846019
 20
2123.257165360836
 30
0.0
 11
1521.673633253917
 21
2085.860975029334
 31
0.0
  0
MTEXT
  5
372
330
36E
100
AcDbEntity
  8
寸法
 62
     2
100
AcDbMText
 10
1450.592530591431
 20
2200.601887007051
 30
0.0
 40
40.0
 41
0.0
 71
     5
 72
     1
  1
R80
  7
EXCADDIM2
 11
0.6637845881579545
 21
-0.7479238066300437
 31
0.0
  0
LINE
  5
373
330
36E
100
AcDbEntity
  8
寸法
  6
CONTINUOUS
 62
     3
100
AcDbLine
 10
1521.673633253917
 20
2085.860975029334
 30
0.0
 11
1468.570866201281
 21
2145.694879559737
 31
0.0
  0
INSERT
  5
374
330
36E
100
AcDbEntity
  8
寸法
 62
     3
100
AcDbBlockReference
  2
EX_NORM
 10
1468.570866201281
 20
2145.694879559737
 30
0.0
 41
30.0
 42
30.0
 43
30.0
 50
131.5891497399488
  0
POINT
  5
375
330
36E
100
AcDbEntity
  8
DEFPOINTS
 62
     0
100
AcDbPoint
 10
1468.570866201281
 20
2145.694879559737
 30
0.0
  0
POINT
  5
376
330
36E
100
AcDbEntity
  8
DEFPOINTS
 62
     0
100
AcDbPoint
 10
1521.673633253917
 20
2085.860975029334
 30
0.0
  0
ENDBLK
  5
370
330
36E
100
AcDbEntity
  8
0
100
AcDbBlockEnd
  0
BLOCK
  5
379
330
378
100
AcDbEntity
  8
0
100
AcDbBlockBegin
  2
*D33
 70
     1
 10
0.0
 20
0.0
 30
0.0
  3
*D33
  1

  0
LINE
  5
37B
330
378
100
AcDbEntity
  8
寸法
  6
CONTINUOUS
 62
     3
100
AcDbLine
 10
1469.479363639269
 20
2077.663678204275
 30
0.0
 11
1657.999999999972
 21
2054.0
 31
0.0
  0
MTEXT
  5
37C
330
378
100
AcDbEntity
  8
寸法
 62
     2
100
AcDbMText
 10
1375.106954248201
 20
2112.690073602219
 30
0.0
 40
40.0
 41
0.0
 71
     5
 72
     1
  1
R220
  7
EXCADDIM2
 11
0.9922138755826486
 21
-0.1245456747593441
 31
0.0
  0
LINE
  5
37D
330
378
100
AcDbEntity
  8
寸法
  6
CONTINUOUS
 62
     3
100
AcDbLine
 10
1657.999999999972
 20
2054.0
 30
0.0
 11
1439.71294737179
 21
2081.400048447055
 31
0.0
  0
INSERT
  5
37E
330
378
100
AcDbEntity
  8
寸法
 62
     3
100
AcDbBlockReference
  2
EX_NORM
 10
1439.71294737179
 20
2081.400048447055
 30
0.0
 41
30.0
 42
30.0
 43
30.0
 50
172.8454801627096
  0
POINT
  5
37F
330
378
100
AcDbEntity
  8
DEFPOINTS
 62
     0
100
AcDbPoint
 10
1439.71294737179
 20
2081.400048447055
 30
0.0
  0
POINT
  5
380
330
378
100
AcDbEntity
  8
DEFPOINTS
 62
     0
100
AcDbPoint
 10
1657.999999999972
 20
2054.0
 30
0.0
  0
ENDBLK
  5
37A
330
378
100
AcDbEntity
  8
0
100
AcDbBlockEnd
  0
BLOCK
  5
384
330
383
100
AcDbEntity
  8
0
100
AcDbBlockBegin
  2
*D34
 70
     1
 10
0.0
 20
0.0
 30
0.0
  3
*D34
  1

  0
LINE
  5
386
330
383
100
AcDbEntity
  8
寸法
  6
CONTINUOUS
 62
     3
100
AcDbLine
 10
1676.530782980461
 20
2104.603757761325
 30
0.0
 11
1611.972458650063
 21
2054.0
 31
0.0
  0
MTEXT
  5
387
330
383
100
AcDbEntity
  8
寸法
 62
     2
100
AcDbMText
 10
1641.868133923306
 20
2106.65729874071
 30
0.0
 40
40.0
 41
0.0
 71
     5
 72
     1
  1
（R112）
  7
EXCADDIM3
 11
0.7870322975424251
 21
0.6169117948500351
 31
0.0
  0
INSERT
  5
388
330
383
100
AcDbEntity
  8
寸法
 62
     3
100
AcDbBlockReference
  2
EX_NORM
 10
1700.141751906733
 20
2123.111111606826
 30
0.0
 41
30.0
 42
30.0
 43
30.0
 50
38.09096642366608
  0
POINT
  5
389
330
383
100
AcDbEntity
  8
DEFPOINTS
 62
     0
100
AcDbPoint
 10
1700.141751906733
 20
2123.111111606826
 30
0.0
  0
POINT
  5
38A
330
383
100
AcDbEntity
  8
DEFPOINTS
 62
     0
100
AcDbPoint
 10
1611.972458650063
 20
2054.0
 30
0.0
  0
ENDBLK
  5
385
330
383
100
AcDbEntity
  8
0
100
AcDbBlockEnd
  0
ENDSEC
  0
SECTION
  2
ENTITIES
  0
HATCH
  5
A9
330
1F
100
AcDbEntity
  8
0
  6
CONTINUOUS
 62
     3
100
AcDbHatch
 10
0.0
 20
0.0
 30
0.0
210
0.0
220
0.0
230
1.0
  2
SOLID
 70
     1
 71
     1
 91
        1
 92
        3
 72
     1
 73
     1
 93
       10
 10
781.7252657332505
 20
131.2169932975407
 42
-0.017362223501556
 10
781.8130157332494
 20
184.1842432975383
 42
-0.0267627618865285
 10
781.8130157332503
 20
184.1842432975414
 42
0.0737939047395297
 10
794.7325157332505
 20
184.2382432975378
 42
0.0183878899657109
 10
794.2127657332502
 20
136.4819932975384
 42
-0.1144749489451909
 10
792.1202657332493
 20
126.4244932975411
 42
-0.1929163439413163
 10
782.1640157332521
 20
118.6079932975406
 42
-0.0603888289562337
 10
776.8855157332507
 20
117.2917432975396
 42
0.0
 10
775.6502657332494
 20
121.0514932975401
 42
0.0860918333465722
 10
779.3425157332516
 20
123.0157432975418
 42
0.1331843103855141
 97
        0
 75
     0
 76
     1
 98
        1
 10
0.0
 20
0.0
  0
HATCH
  5
AA
330
1F
100
AcDbEntity
  8
0
  6
CONTINUOUS
 62
     3
100
AcDbHatch
 10
0.0
 20
0.0
 30
0.0
210
0.0
220
0.0
230
1.0
  2
SOLID
 70
     1
 71
     1
 91
        1
 92
        3
 72
     1
 73
     1
 93
       16
 10
840.8687657332492
 20
130.1032432975412
 42
-0.0386228372648426
 10
840.8080157332496
 20
162.6449932975413
 42
-0.0398707891902887
 10
846.7142657332488
 20
162.671993297541
 42
-0.1256886216044368
 10
846.4442657332511
 20
157.1504932975374
 42
-0.0367815758121429
 10
846.44426573325
 20
157.1504932975372
 42
-0.268021535028829
 10
858.3580157332514
 20
163.3334932975391
 42
-0.2571134422124888
 10
866.5052657332503
 20
159.3037432975406
 42
-0.1522526366014298
 10
868.5775157332498
 20
152.6009932975373
 42
-0.0158825412051521
 10
868.4290157332505
 20
130.0694932975396
 42
-0.0285251271418421
 10
862.725265733252
 20
130.0694932975401
 42
-0.0452212723224612
 10
863.0155157332487
 20
150.8864932975399
 42
-0.0315567291532142
 10
861.2470157332507
 20
157.0357432975421
 42
-0.1476272403790709
 10
849.7315157332514
 20
157.9199932975412
 42
-0.3908144705745794
 10
846.4847657332501
 20
149.8402432975412
 42
-0.2046259928850854
 10
846.4847657332496
 20
149.8402432975411
 42
0.0
 10
846.9910157332506
 20
130.0492432975381
 42
-0.0304995761723369
 97
        0
 75
     0
 76
     1
 98
        1
 10
0.0
 20
0.0
  0
HATCH
  5
AB
330
1F
100
AcDbEntity
  8
0
  6
CONTINUOUS
 62
     3
100
AcDbHatch
 10
0.0
 20
0.0
 30
0.0
210
0.0
220
0.0
230
1.0
  2
SOLID
 70
     1
 71
     1
 91
        2
 92
        1
 93
        1
 72
     2
 10
883.2855140383356
 20
174.58354668737
 40
3.572334466769884
 50
0.0
 51
360.0
 73
     1
 97
        0
 92
        3
 72
     1
 73
     1
 93
        3
 10
880.0930157332489
 20
162.6989932975385
 42
0.1200283885712921
 10
886.3030157332485
 20
130.0627432975387
 42
-0.0401820615762149
 10
880.0997657332483
 20
130.0424932975391
 42
-0.0237521668114666
 97
        0
 75
     0
 76
     1
 98
        1
 10
0.0
 20
0.0
  0
HATCH
  5
AC
330
1F
100
AcDbEntity
  8
0
  6
CONTINUOUS
 62
     3
100
AcDbHatch
 10
0.0
 20
0.0
 30
0.0
210
0.0
220
0.0
230
1.0
  2
SOLID
 70
     1
 71
     1
 91
        1
 92
        3
 72
     1
 73
     1
 93
       30
 10
914.7340157332482
 20
161.3354932975431
 42
-0.0009362235736497
 10
914.73401573325
 20
161.3354932975397
 42
0.0681165430304653
 10
913.0970934867304
 20
156.4282432975403
 42
0.0
 10
906.9310157332501
 20
160.6469932975421
 42
-0.302112590907374
 10
906.9310157332507
 20
160.6469932975415
 42
0.0
 10
900.7142657332485
 20
155.8814932975386
 42
-0.3704245237568778
 10
900.7142657332491
 20
155.8814932975395
 42
0.0
 10
901.03826573325
 20
152.6954932975408
 42
-0.0262822419456939
 10
904.8722657332505
 20
149.6309932975406
 42
-0.180060563604375
 10
910.9877657332511
 20
147.7679932975404
 42
-0.0298130817160724
 10
910.9877657332485
 20
147.7679932975424
 42
-0.3153987453686078
 10
916.6240157332493
 20
141.3217432975387
 42
0.0
 10
916.5902657332509
 20
138.4394932975395
 42
-0.3510306079065168
 10
905.7227657332487
 20
129.326993297542
 42
0.0
 10
902.5502657332486
 20
129.3269932975378
 42
-0.1053356344842436
 10
895.5302657332492
 20
131.3519932975392
 42
0.1188608286962634
 10
896.8127657332514
 20
136.4819932975422
 42
0.0
 10
904.5077657332511
 20
131.7569932975415
 42
-0.2447573632916039
 10
904.5077657332496
 20
131.7569932975402
 42
0.0
 10
911.9327657332489
 20
136.9544932975427
 42
-0.3734162676407277
 10
911.9327657332502
 20
136.9544932975373
 42
0.0
 10
909.2395157332506
 20
142.1452432975382
 42
-0.261219770190848
 10
902.9552657332492
 20
144.4267432975382
 42
-0.0572747914118363
 10
902.9552657332497
 20
144.4267432975381
 42
-0.1189658875692221
 10
897.9602657332501
 20
147.3562432975381
 42
-0.2005226878639636
 10
895.8677657332498
 20
152.0744932975617
 42
0.0
 10
895.8340157332505
 20
153.8632432975411
 42
-0.2622894489606957
 10
901.2002657332508
 20
162.0644932975399
 42
-0.0988461274137808
 10
906.2222657332495
 20
163.27274329754
 42
0.0
 10
908.0852657332512
 20
163.2727432975398
 42
-0.0920156312561188
 97
        0
 75
     0
 76
     1
 98
        1
 10
0.0
 20
0.0
  0
HATCH
  5
AD
330
1F
100
AcDbEntity
  8
0
  6
CONTINUOUS
 62
     3
100
AcDbHatch
 10
0.0
 20
0.0
 30
0.0
210
0.0
220
0.0
230
1.0
  2
SOLID
 70
     1
 71
     1
 91
        2
 92
        3
 72
     1
 73
     1
 93
       27
 10
807.1727657332501
 20
159.3644932975428
 42
-0.1769427732109284
 10
807.1727657332514
 20
159.3644932975394
 42
0.0
 10
807.1727657332514
 20
155.7194932975392
 42
0.0
 10
808.0502657332496
 20
155.71949329754
 42
-0.207533601427307
 10
813.7474227895694
 20
159.9932359129038
 42
-0.1226604740888933
 10
818.782765733249
 20
160.1002432975403
 42
-0.3213715781137954
 10
823.988328022209
 20
153.7106514378465
 42
-0.064704004662446
 10
824.0140157332497
 20
150.3329932975379
 42
-0.257798906330806
 10
822.9542657332514
 20
149.0504932975418
 42
-0.056602577721096
 10
820.6862657332506
 20
148.2607432975411
 42
-0.0166741689362636
 10
812.3702657332503
 20
146.6812432975391
 42
0.1186092302783404
 10
806.882515733251
 20
144.0487432975419
 42
0.1699204224386695
 10
804.49301573325
 20
140.0527432975407
 42
0.1006533494296199
 10
804.2720866795831
 20
136.5853555095723
 42
0.1675695228968024
 10
806.4370157332504
 20
131.9392432975397
 42
0.1376980079804242
 10
810.3722657332494
 20
129.6644932975399
 42
0.0719813663796923
 10
812.1610157332509
 20
129.3674932975421
 42
0.0
 10
814.9015157332502
 20
129.3674932975399
 42
0.1944607457809085
 10
823.9937657332521
 20
134.0452432975402
 42
0.1288538183665954
 10
824.9117657332494
 20
131.7502432975371
 42
0.2098387395261546
 10
827.9087657332508
 20
130.0964932975376
 42
0.0
 10
830.0822657332519
 20
130.0829932975388
 42
0.0945009641609563
 10
833.2210157332509
 20
130.7512432975386
 42
0.0
 10
833.2210157332506
 20
132.3239932975425
 42
-0.2395739894657535
 10
830.4805157332497
 20
132.29699329754
 42
-0.2502312110031057
 10
829.130515733249
 20
134.8349932975393
 42
-0.0104343570771765
 10
829.3127657332493
 20
153.7619932975408
 42
0.4051015674140716
 97
        0
 92
        3
 72
     1
 73
     1
 93
        8
 10
824.1355157332503
 20
147.0254932975378
 42
-0.0339435190873666
 10
824.1355157332509
 20
147.0254932975258
 42
-0.0001110072973599
 10
823.8520157332515
 20
136.68449329754
 42
-0.2253076310552528
 10
816.7645157332498
 20
131.9527432975406
 42
0.0
 10
815.0297657332509
 20
131.9527432975394
 42
-0.3657967558150132
 10
809.87276573325
 20
137.4337432975381
 42
0.0
 10
809.8727657332503
 20
139.3912432975398
 42
-0.2530797830369341
 10
813.3557657332512
 20
144.2107432975396
 42
-0.0724473624720066
 97
        0
 75
     0
 76
     1
 98
        1
 10
0.0
 20
0.0
  0
TEXT
  5
AF
330
1F
100
AcDbEntity
  8
0
  6
CONTINUOUS
 62
     2
100
AcDbText
 10
930.0000000000023
 20
124.499999999997
 30
0.0
 40
33.75
  1
ジャニス工業株式会社
 41
1.025641025641026
  7
EXCADTTF1
 72
     5
 11
1380.000000000002
 21
124.499999999997
 31
0.0
100
AcDbText
  0
ARC
  5
B0
330
1F
100
AcDbEntity
  8
0
  6
CONTINUOUS
 62
     3
100
AcDbCircle
 10
818.2685324125526
 20
145.6167288926906
 30
0.0
 40
17.6668351532706
100
AcDbArc
 50
88.77000393305703
 51
128.9068631829044
  0
ARC
  5
B1
330
1F
100
AcDbEntity
  8
0
  6
CONTINUOUS
 62
     3
100
AcDbCircle
 10
819.0706272602779
 20
153.0191625973316
 30
0.0
 40
10.2690407511459
100
AcDbArc
 50
4.148222840814693
 51
92.36000944257292
  0
ARC
  5
B2
330
1F
100
AcDbEntity
  8
0
  6
CONTINUOUS
 62
     3
100
AcDbCircle
 10
1282.650135838709
 20
139.9323843931711
 30
0.0
 40
453.5482655865662
100
AcDbArc
 50
178.2526643324597
 51
180.6439560401927
  0
ARC
  5
B3
330
1F
100
AcDbEntity
  8
0
  6
CONTINUOUS
 62
     3
100
AcDbCircle
 10
832.1823989446028
 20
134.830292878047
 30
0.0
 40
3.0518868310739
100
AcDbArc
 50
179.9117548191414
 51
236.1065985968857
  0
ARC
  5
B4
330
1F
100
AcDbEntity
  8
0
  6
CONTINUOUS
 62
     3
100
AcDbCircle
 10
831.8242078457968
 20
135.0061188741108
 30
0.0
 40
3.0240485913648
100
AcDbArc
 50
243.6191685566582
 51
297.5097757939563
  0
LINE
  5
B5
330
1F
100
AcDbEntity
  8
0
  6
CONTINUOUS
 62
     3
100
AcDbLine
 10
833.2210157332509
 20
130.7512432975386
 30
0.0
 11
833.2210157332509
 21
132.3239932975412
 31
0.0
  0
LINE
  5
B6
330
1F
100
AcDbEntity
  8
0
  6
CONTINUOUS
 62
     3
100
AcDbLine
 10
827.9087657332508
 20
130.0964932975376
 30
0.0
 11
830.0822657332515
 21
130.0964932975376
 31
0.0
  0
ARC
  5
B7
330
1F
100
AcDbEntity
  8
0
  6
CONTINUOUS
 62
     3
100
AcDbCircle
 10
829.8995891945606
 20
138.6464512823011
 30
0.0
 40
8.5654062002089
100
AcDbArc
 50
271.2220539293239
 51
292.8159509797653
  0
ARC
  5
B8
330
1F
100
AcDbEntity
  8
0
  6
CONTINUOUS
 62
     3
100
AcDbCircle
 10
828.2937735081458
 20
134.3367456528597
 30
0.0
 40
4.257695506204
100
AcDbArc
 50
217.4081478714985
 51
264.8118660441384
  0
ARC
  5
B9
330
1F
100
AcDbEntity
  8
0
  6
CONTINUOUS
 62
     3
100
AcDbCircle
 10
828.8315560558328
 20
134.6492594265726
 30
0.0
 40
4.8753513400972
100
AcDbArc
 50
187.1167640402297
 51
216.4860549324747
  0
ARC
  5
BA
330
1F
100
AcDbEntity
  8
0
  6
CONTINUOUS
 62
     3
100
AcDbCircle
 10
813.6613045867006
 20
142.9534026256817
 30
0.0
 40
13.6423992010393
100
AcDbArc
 50
275.2158792069686
 51
319.2336424873511
  0
LINE
  5
BB
330
1F
100
AcDbEntity
  8
0
  6
CONTINUOUS
 62
     3
100
AcDbLine
 10
812.1610157332509
 20
129.3674932975421
 30
0.0
 11
814.9015157332497
 21
129.3674932975421
 31
0.0
  0
ARC
  5
BC
330
1F
100
AcDbEntity
  8
0
  6
CONTINUOUS
 62
     3
100
AcDbCircle
 10
812.292813073675
 20
135.6963494387401
 30
0.0
 40
6.330228320917899
100
AcDbArc
 50
252.3384873625213
 51
268.8069976857606
  0
ARC
  5
BD
330
1F
100
AcDbEntity
  8
0
  6
CONTINUOUS
 62
     3
100
AcDbCircle
 10
812.4562953036883
 20
137.8111104772586
 30
0.0
 40
8.4089565775637
100
AcDbArc
 50
224.289750990011
 51
255.6505938786759
  0
ARC
  5
BE
330
1F
100
AcDbEntity
  8
0
  6
CONTINUOUS
 62
     3
100
AcDbCircle
 10
812.0915332915513
 20
137.4015021572859
 30
0.0
 40
7.8619234712629
100
AcDbArc
 50
185.9586126338419
 51
224.0091989319859
  0
ARC
  5
BF
330
1F
100
AcDbEntity
  8
0
  6
CONTINUOUS
 62
     3
100
AcDbCircle
 10
812.9075018569989
 20
137.7758712547745
 30
0.0
 40
8.717093725886699
100
AcDbArc
 50
164.8589457925044
 51
187.8495628504518
  0
ARC
  5
C0
330
1F
100
AcDbEntity
  8
0
  6
CONTINUOUS
 62
     3
100
AcDbCircle
 10
811.3972379030156
 20
138.6366332500813
 30
0.0
 40
7.047953705579199
100
AcDbArc
 50
129.8344892359069
 51
168.4089447024628
  0
ARC
  5
C1
330
1F
100
AcDbEntity
  8
0
  6
CONTINUOUS
 62
     3
100
AcDbCircle
 10
815.0970138675785
 20
133.9608481482855
 30
0.0
 40
13.0093661698492
100
AcDbArc
 50
102.0988446293839
 51
129.1556705448828
  0
ARC
  5
C2
330
1F
100
AcDbEntity
  8
0
  6
CONTINUOUS
 62
     3
100
AcDbCircle
 10
792.853009998579
 20
272.1202029775213
 30
0.0
 40
126.9482409370382
100
AcDbArc
 50
278.8438342053764
 51
282.6649181367123
  0
ARC
  5
C3
330
1F
100
AcDbEntity
  8
0
  6
CONTINUOUS
 62
     3
100
AcDbCircle
 10
818.3433050110904
 20
158.640736268876
 30
0.0
 40
10.6411333527278
100
AcDbArc
 50
282.7195832898965
 51
295.6781112778079
  0
ARC
  5
C4
330
1F
100
AcDbEntity
  8
0
  6
CONTINUOUS
 62
     3
100
AcDbCircle
 10
822.3230955673341
 20
150.651133250426
 30
0.0
 40
1.7205882822813
100
AcDbArc
 50
291.5204897073511
 51
349.3445900274031
  0
ARC
  5
C5
330
1F
100
AcDbEntity
  8
0
  6
CONTINUOUS
 62
     3
100
AcDbCircle
 10
811.0053873566568
 20
151.9229870375113
 30
0.0
 40
13.1054375101892
100
AcDbArc
 50
353.0315250986587
 51
7.839947970678348
  0
ARC
  5
C6
330
1F
100
AcDbEntity
  8
0
  6
CONTINUOUS
 62
     3
100
AcDbCircle
 10
816.9283412817674
 20
153.2741886153417
 30
0.0
 40
7.073465386260001
100
AcDbArc
 50
3.537639967999379
 51
74.8013566619203
  0
ARC
  5
C7
330
1F
100
AcDbEntity
  8
0
  6
CONTINUOUS
 62
     3
100
AcDbCircle
 10
816.4799095798298
 20
149.9383830513011
 30
0.0
 40
10.4195273466423
100
AcDbArc
 50
77.23143261361693
 51
105.203415964315
  0
ARC
  5
C8
330
1F
100
AcDbEntity
  8
0
  6
CONTINUOUS
 62
     3
100
AcDbCircle
 10
815.825361770298
 20
151.2890191857878
 30
0.0
 40
8.9488110517672
100
AcDbArc
 50
103.4267945469744
 51
150.3242613737993
  0
LINE
  5
C9
330
1F
100
AcDbEntity
  8
0
  6
CONTINUOUS
 62
     3
100
AcDbLine
 10
807.1727657332514
 20
159.3644932975394
 30
0.0
 11
807.1727657332514
 21
155.7194932975392
 31
0.0
  0
ARC
  5
CA
330
1F
100
AcDbEntity
  8
0
  6
CONTINUOUS
 62
     3
100
AcDbCircle
 10
712.1439565227075
 20
134.7342761922789
 30
0.0
 40
69.670150498006
100
AcDbArc
 50
353.1274757312911
 51
357.106204490141
  0
ARC
  5
CB
330
1F
100
AcDbEntity
  8
0
  6
CONTINUOUS
 62
     3
100
AcDbCircle
 10
287.3385521229307
 20
158.5197335838814
 30
0.0
 40
495.1400430399008
100
AcDbArc
 50
356.8390243485978
 51
2.971133813187157
  0
ARC
  5
CC
330
1F
100
AcDbEntity
  8
0
  6
CONTINUOUS
 62
     3
100
AcDbCircle
 10
774.0927386496037
 20
128.3407518472927
 30
0.0
 40
7.4776918553063
100
AcDbArc
 50
314.592391474832
 51
344.9374073189123
  0
ARC
  5
CD
330
1F
100
AcDbEntity
  8
0
  6
CONTINUOUS
 62
     3
100
AcDbCircle
 10
771.8347289685437
 20
132.6759859445986
 30
0.0
 40
12.2346700039003
100
AcDbArc
 50
288.1715191042997
 51
307.8537826235693
  0
LINE
  5
CE
330
1F
100
AcDbEntity
  8
0
  6
CONTINUOUS
 62
     3
100
AcDbLine
 10
776.8855157332507
 20
117.2917432975396
 30
0.0
 11
775.6502657332487
 21
121.05149329754
 31
0.0
  0
ARC
  5
CF
330
1F
100
AcDbEntity
  8
0
  6
CONTINUOUS
 62
     3
100
AcDbCircle
 10
774.0955749866669
 20
139.7223152915387
 30
0.0
 40
22.6034141082136
100
AcDbArc
 50
277.0901027239701
 51
290.9134154817058
  0
ARC
  5
D0
330
1F
100
AcDbEntity
  8
0
  6
CONTINUOUS
 62
     3
100
AcDbCircle
 10
777.3897327885476
 20
134.9383518626837
 30
0.0
 40
17.0139468819612
100
AcDbArc
 50
286.2966123578915
 51
329.973223283839
  0
ARC
  5
D1
330
1F
100
AcDbEntity
  8
0
  6
CONTINUOUS
 62
     3
100
AcDbCircle
 10
771.4899361790611
 20
135.9631356880072
 30
0.0
 40
22.7287526311431
100
AcDbArc
 50
335.1860595856123
 51
1.308075913059364
  0
ARC
  5
D2
330
1F
100
AcDbEntity
  8
0
  6
CONTINUOUS
 62
     3
100
AcDbCircle
 10
1443.542531413435
 20
153.2960360950824
 30
0.0
 40
649.5474244683604
100
AcDbArc
 50
177.2695926307304
 51
181.4833117237826
  0
ARC
  5
D3
330
1F
100
AcDbEntity
  8
0
  6
CONTINUOUS
 62
     3
100
AcDbCircle
 10
788.0908200122275
 20
227.7417570522232
 30
0.0
 40
44.0075883349047
100
AcDbArc
 50
261.7986203004403
 51
278.6803384946418
  0
ARC
  5
D4
330
1F
100
AcDbEntity
  8
0
  6
CONTINUOUS
 62
     3
100
AcDbCircle
 10
812.605609935373
 20
186.750138116048
 30
0.0
 40
41.3640681469402
100
AcDbArc
 50
278.4088456599976
 51
286.1851416003176
  0
ARC
  5
D5
330
1F
100
AcDbEntity
  8
0
  6
CONTINUOUS
 62
     3
100
AcDbCircle
 10
821.5660651757713
 20
126.8318862667968
 30
0.0
 40
19.2206578615521
100
AcDbArc
 50
98.71271710191789
 51
115.2874718053599
  0
ARC
  5
D6
330
1F
100
AcDbEntity
  8
0
  6
CONTINUOUS
 62
     3
100
AcDbCircle
 10
816.0701866837837
 20
138.5807479047173
 30
0.0
 40
6.2501943345705
100
AcDbArc
 50
115.7403688633493
 51
172.5491744442191
  0
LINE
  5
D7
330
1F
100
AcDbEntity
  8
0
  6
CONTINUOUS
 62
     3
100
AcDbLine
 10
809.87276573325
 20
139.3912432975412
 30
0.0
 11
809.87276573325
 21
137.4337432975381
 31
0.0
  0
ARC
  5
D8
330
1F
100
AcDbEntity
  8
0
  6
CONTINUOUS
 62
     3
100
AcDbCircle
 10
815.6959653488752
 20
137.746138009777
 30
0.0
 40
5.83157304847
100
AcDbArc
 50
183.0707787095794
 51
263.4402016072427
  0
LINE
  5
D9
330
1F
100
AcDbEntity
  8
0
  6
CONTINUOUS
 62
     3
100
AcDbLine
 10
815.0297657332499
 20
131.9527432975406
 30
0.0
 11
816.7645157332498
 21
131.9527432975406
 31
0.0
  0
ARC
  5
DA
330
1F
100
AcDbEntity
  8
0
  6
CONTINUOUS
 62
     3
100
AcDbCircle
 10
815.3244690765928
 20
141.7836489530202
 30
0.0
 40
9.9358160399792
100
AcDbArc
 50
278.3335103000368
 51
329.1221464187299
  0
ARC
  5
DB
330
1F
100
AcDbEntity
  8
0
  6
CONTINUOUS
 62
     3
100
AcDbCircle
 10
-22465.01542217735
 20
780.3265245587795
 30
0.0
 40
23297.76001260591
100
AcDbArc
 50
358.4169008257799
 51
358.4423418242109
  0
ARC
  5
DC
330
1F
100
AcDbEntity
  8
0
  6
CONTINUOUS
 62
     3
100
AcDbCircle
 10
843.5808780069306
 20
90.50692545117158
 30
0.0
 40
39.689090944185
100
AcDbArc
 50
85.07099551674689
 51
93.91830029343228
  0
ARC
  5
DD
330
1F
100
AcDbEntity
  8
0
  6
CONTINUOUS
 62
     3
100
AcDbCircle
 10
920.4088578951041
 20
138.9150147009786
 30
0.0
 40
73.9512099311493
100
AcDbArc
 50
179.8977458165987
 51
186.8855675734268
  0
ARC
  5
DE
330
1F
100
AcDbEntity
  8
0
  6
CONTINUOUS
 62
     3
100
AcDbCircle
 10
857.5661722366402
 20
150.0795225138063
 30
0.0
 40
11.0839895631813
100
AcDbArc
 50
134.9787476233347
 51
181.2369872983282
  0
ARC
  5
DF
330
1F
100
AcDbEntity
  8
0
  6
CONTINUOUS
 62
     3
100
AcDbCircle
 10
855.0100145205545
 20
151.2366273138696
 30
0.0
 40
8.516450570469999
100
AcDbArc
 50
42.91644474042847
 51
128.3015542351336
  0
ARC
  5
E0
330
1F
100
AcDbEntity
  8
0
  6
CONTINUOUS
 62
     3
100
AcDbCircle
 10
851.9447404568535
 20
151.0315138821568
 30
0.0
 40
11.0717250774415
100
AcDbArc
 50
359.2495022237244
 51
32.84055016678327
  0
ARC
  5
E1
330
1F
100
AcDbEntity
  8
0
  6
CONTINUOUS
 62
     3
100
AcDbCircle
 10
698.1173378649726
 20
142.7751337882455
 30
0.0
 40
165.0975566668588
100
AcDbArc
 50
355.5862454873798
 51
2.816115806820253
  0
ARC
  5
E2
330
1F
100
AcDbEntity
  8
0
  6
CONTINUOUS
 62
     3
100
AcDbCircle
 10
865.577140733252
 20
98.60152619227733
 30
0.0
 40
31.5969325212674
100
AcDbArc
 50
84.82155189294139
 51
95.17844810705873
  0
ARC
  5
E3
330
1F
100
AcDbEntity
  8
0
  6
CONTINUOUS
 62
     3
100
AcDbCircle
 10
1031.657633661699
 20
137.9067374739122
 30
0.0
 40
163.4166579853822
100
AcDbArc
 50
176.2131780319488
 51
182.7488833337936
  0
ARC
  5
E4
330
1F
100
AcDbEntity
  8
0
  6
CONTINUOUS
 62
     3
100
AcDbCircle
 10
807.1913601210053
 20
150.3315774812108
 30
0.0
 40
61.42809087866959
100
AcDbArc
 50
358.4775281223095
 51
2.117232414210064
  0
ARC
  5
E5
330
1F
100
AcDbEntity
  8
0
  6
CONTINUOUS
 62
     3
100
AcDbCircle
 10
856.790551534483
 20
152.6285942451523
 30
0.0
 40
11.7869965146059
100
AcDbArc
 50
359.8658335690532
 51
34.49363429411157
  0
ARC
  5
E6
330
1F
100
AcDbEntity
  8
0
  6
CONTINUOUS
 62
     3
100
AcDbCircle
 10
858.7724057413777
 20
153.9204664797978
 30
0.0
 40
9.4221437555554
100
AcDbArc
 50
34.84393737091607
 51
92.5207065423111
  0
ARC
  5
E7
330
1F
100
AcDbEntity
  8
0
  6
CONTINUOUS
 62
     3
100
AcDbCircle
 10
857.7541069002547
 20
149.9275988818567
 30
0.0
 40
13.4194899665726
100
AcDbArc
 50
87.42068310381028
 51
147.4361518966862
  0
ARC
  5
E8
330
1F
100
AcDbEntity
  8
0
  6
CONTINUOUS
 62
     3
100
AcDbCircle
 10
884.0574727396171
 20
158.078568138302
 30
0.0
 40
37.6246550045818
100
AcDbArc
 50
172.9875214416311
 51
181.4134392789641
  0
ARC
  5
E9
330
1F
100
AcDbEntity
  8
0
  6
CONTINUOUS
 62
     3
100
AcDbCircle
 10
843.7082849861224
 20
174.2206879814489
 30
0.0
 40
11.9334935854602
100
AcDbArc
 50
255.9341994177206
 51
284.5896440601899
  0
ARC
  5
EA
330
1F
100
AcDbEntity
  8
0
  6
CONTINUOUS
 62
     3
100
AcDbCircle
 10
637.117698867159
 20
145.9938058671753
 30
0.0
 40
204.3697806131073
100
AcDbArc
 50
355.5405243117485
 51
4.673398698656258
  0
LINE
  5
EB
330
1F
100
AcDbEntity
  8
0
  6
CONTINUOUS
 62
     3
100
AcDbLine
 10
846.4847657332496
 20
149.8402432975411
 30
0.0
 11
846.4847657332496
 21
139.0469932975407
 31
0.0
  0
CIRCLE
  5
EC
330
1F
100
AcDbEntity
  8
0
  6
CONTINUOUS
 62
     3
100
AcDbCircle
 10
883.2855140383356
 20
174.58354668737
 30
0.0
 40
3.5723344667699
  0
ARC
  5
ED
330
1F
100
AcDbEntity
  8
0
  6
CONTINUOUS
 62
     3
100
AcDbCircle
 10
883.1456076027717
 20
175.5332474358056
 30
0.0
 40
13.1922854884021
100
AcDbArc
 50
256.6209501743446
 51
283.9984576255729
  0
ARC
  5
EE
330
1F
100
AcDbEntity
  8
0
  6
CONTINUOUS
 62
     3
100
AcDbCircle
 10
883.4144089371318
 20
64.79804184123168
 30
0.0
 40
65.3285948525109
100
AcDbArc
 50
87.46575055044718
 51
92.90832285102188
  0
ARC
  5
EF
330
1F
100
AcDbEntity
  8
0
  6
CONTINUOUS
 62
     3
100
AcDbCircle
 10
1089.254047179555
 20
146.1881005739372
 30
0.0
 40
203.5906390589001
100
AcDbArc
 50
175.3387608397566
 51
184.5428594926176
  0
ARC
  5
F0
330
1F
100
AcDbEntity
  8
0
  6
CONTINUOUS
 62
     3
100
AcDbCircle
 10
658.6900575363882
 20
146.3249792766248
 30
0.0
 40
222.0076085035812
100
AcDbArc
 50
355.7940354718673
 51
4.229650257234378
  0
ARC
  5
F1
330
1F
100
AcDbEntity
  8
0
  6
CONTINUOUS
 62
     3
100
AcDbCircle
 10
1228.644453232813
 20
973.0297432964221
 30
0.0
 40
870.2800228963156
100
AcDbArc
 50
248.6422112053103
 51
248.8567777804232
  0
ARC
  5
F2
330
1F
100
AcDbEntity
  8
0
  6
CONTINUOUS
 62
     3
100
AcDbCircle
 10
907.8542828460581
 20
153.1663038363945
 30
0.0
 40
10.1090786759216
100
AcDbArc
 50
67.66151957087348
 51
88.69073168448988
  0
ARC
  5
F3
330
1F
100
AcDbEntity
  8
0
  6
CONTINUOUS
 62
     3
100
AcDbCircle
 10
906.7711044283908
 20
150.0979097937602
 30
0.0
 40
13.1997486536753
100
AcDbArc
 50
92.38301574576484
 51
114.9635286746436
  0
ARC
  5
F4
330
1F
100
AcDbEntity
  8
0
  6
CONTINUOUS
 62
     3
100
AcDbCircle
 10
905.7963496799613
 20
153.2009291101872
 30
0.0
 40
9.9843256030919
100
AcDbArc
 50
117.4083995939977
 51
176.1964688215695
  0
ARC
  5
F5
330
1F
100
AcDbEntity
  8
0
  6
CONTINUOUS
 62
     3
100
AcDbCircle
 10
902.5599257926001
 20
152.2192769075502
 30
0.0
 40
6.693726059056099
100
AcDbArc
 50
181.2393899443581
 51
226.5942921332421
  0
ARC
  5
F6
330
1F
100
AcDbEntity
  8
0
  6
CONTINUOUS
 62
     3
100
AcDbCircle
 10
906.526814579949
 20
156.2396411006659
 30
0.0
 40
12.3410095077957
100
AcDbArc
 50
226.0402388947521
 51
253.1776672992999
  0
ARC
  5
F7
330
1F
100
AcDbEntity
  8
0
  6
CONTINUOUS
 62
     3
100
AcDbCircle
 10
896.1714891830422
 20
115.9457141755183
 30
0.0
 40
29.2777841397275
100
AcDbArc
 50
63.49050203733571
 51
76.60259219849584
  0
ARC
  5
F8
330
1F
100
AcDbEntity
  8
0
  6
CONTINUOUS
 62
     3
100
AcDbCircle
 10
907.3080045853669
 20
137.9846225433141
 30
0.0
 40
4.5871015221901
100
AcDbArc
 50
6.53892419415897
 51
65.09756080693691
  0
ARC
  5
F9
330
1F
100
AcDbEntity
  8
0
  6
CONTINUOUS
 62
     3
100
AcDbCircle
 10
906.0357777446495
 20
137.7002363757185
 30
0.0
 40
5.943954918766799
100
AcDbArc
 50
270.8867385422408
 51
352.7925382056677
  0
ARC
  5
FA
330
1F
100
AcDbEntity
  8
0
  6
CONTINUOUS
 62
     3
100
AcDbCircle
 10
905.636104323487
 20
140.665863977739
 30
0.0
 40
8.9800403546253
100
AcDbArc
 50
207.7689879465537
 51
262.7817283832026
  0
ARC
  5
FB
330
1F
100
AcDbEntity
  8
0
  6
CONTINUOUS
 62
     3
100
AcDbCircle
 10
903.7930054592761
 20
146.8156576810998
 30
0.0
 40
17.5327631578002
100
AcDbArc
 50
241.8829576087176
 51
265.9354096935781
  0
ARC
  5
FC
330
1F
100
AcDbEntity
  8
0
  6
CONTINUOUS
 62
     3
100
AcDbCircle
 10
905.4663886467563
 20
140.6692467118035
 30
0.0
 40
11.3451505818065
100
AcDbArc
 50
271.2948770866743
 51
348.6654156292868
  0
ARC
  5
FD
330
1F
100
AcDbEntity
  8
0
  6
CONTINUOUS
 62
     3
100
AcDbCircle
 10
909.2045721291936
 20
140.5217258531593
 30
0.0
 40
7.462450757296099
100
AcDbArc
 50
6.154262763177246
 51
76.17509904255616
  0
ARC
  5
FE
330
1F
100
AcDbEntity
  8
0
  6
CONTINUOUS
 62
     3
100
AcDbCircle
 10
923.5384669692064
 20
199.9359310503507
 30
0.0
 40
53.65644258516679
100
AcDbArc
 50
249.6420733479936
 51
256.4727051201885
  0
ARC
  5
FF
330
1F
100
AcDbEntity
  8
0
  6
CONTINUOUS
 62
     3
100
AcDbCircle
 10
907.0721352387449
 20
156.3138641766614
 30
0.0
 40
7.0356370733718
100
AcDbArc
 50
210.9501336849607
 51
251.7794729821079
  0
ARC
  5
100
330
1F
100
AcDbEntity
  8
0
  6
CONTINUOUS
 62
     3
100
AcDbCircle
 10
914.3031407332626
 20
157.3823182975445
 30
0.0
 40
14.068519372934
100
AcDbArc
 50
193.4375782160214
 51
199.459638038058
  0
ARC
  5
101
330
1F
100
AcDbEntity
  8
0
  6
CONTINUOUS
 62
     3
100
AcDbCircle
 10
906.0350964860515
 20
155.26749947079
 30
0.0
 40
5.356139311039299
100
AcDbArc
 50
92.11404364449162
 51
173.4175047026091
  0
ARC
  5
102
330
1F
100
AcDbEntity
  8
0
  6
CONTINUOUS
 62
     3
100
AcDbCircle
 10
906.4147339127499
 20
154.5429236291682
 30
0.0
 40
6.125864301022499
100
AcDbArc
 50
17.92452211681263
 51
85.16543319077402
  0
LINE
  5
103
330
1F
100
AcDbEntity
  8
0
  6
CONTINUOUS
 62
     3
100
AcDbLine
 10
908.0852657332497
 20
163.27274329754
 30
0.0
 11
906.2222657332495
 21
163.27274329754
 31
0.0
  0
LINE
  5
104
330
1F
100
AcDbEntity
  8
0
  6
CONTINUOUS
 62
     3
100
AcDbLine
 10
904.5077657332496
 20
131.7569932975402
 30
0.0
 11
906.1277657332494
 21
131.7569932975402
 31
0.0
  0
LINE
  5
105
330
1F
100
AcDbEntity
  8
0
  6
CONTINUOUS
 62
     3
100
AcDbLine
 10
897.6902657332499
 20
136.4819932975422
 30
0.0
 11
896.8127657332514
 21
136.4819932975422
 31
0.0
  0
LINE
  5
106
330
1F
100
AcDbEntity
  8
0
  6
CONTINUOUS
 62
     3
100
AcDbLine
 10
902.5502657332493
 20
129.326993297542
 30
0.0
 11
905.7227657332487
 21
129.326993297542
 31
0.0
  0
LINE
  5
107
330
1F
100
AcDbEntity
  8
0
  6
CONTINUOUS
 62
     3
100
AcDbLine
 10
807.1727657332514
 20
155.7194932975392
 30
0.0
 11
808.05026573325
 21
155.7194932975392
 31
0.0
  0
ARC
  5
108
330
1F
100
AcDbEntity
  8
0
  6
CONTINUOUS
 62
     3
100
AcDbCircle
 10
885.534413132093
 20
136.5779759564987
 30
0.0
 40
11.2795374007884
100
AcDbArc
 50
332.3987521421788
 51
359.5124385477116
  0
LINE
  5
109
330
1F
100
AcDbEntity
  8
0
  6
CONTINUOUS
 62
     3
100
AcDbLine
 10
911.8652657332501
 20
138.5069932975398
 30
0.0
 11
911.9327657332502
 21
136.9544932975373
 31
0.0
  0
LINE
  5
10A
330
1F
100
AcDbEntity
  8
0
  6
CONTINUOUS
 62
     3
100
AcDbLine
 10
916.6240157332493
 20
141.3217432975387
 30
0.0
 11
916.5902657332492
 21
138.4394932975397
 31
0.0
  0
LINE
  5
10B
330
1F
100
AcDbEntity
  8
0
  6
CONTINUOUS
 62
     3
100
AcDbLine
 10
900.7142657332491
 20
155.8814932975395
 30
0.0
 11
900.619765733249
 21
154.1129932975423
 31
0.0
  0
LINE
  5
10C
330
1F
100
AcDbEntity
  8
0
  6
CONTINUOUS
 62
     3
100
AcDbLine
 10
895.8340157332498
 20
153.8632432975419
 30
0.0
 11
895.8677657332498
 21
152.0744932975617
 31
0.0
  0
LINE
  5
10D
330
1F
100
AcDbEntity
  8
0
  6
CONTINUOUS
 62
     3
100
AcDbLine
 10
905.8375157332489
 20
160.6199932975414
 30
0.0
 11
906.9310157332507
 21
160.6469932975415
 31
0.0
  0
LINE
  5
10E
330
1F
100
AcDbEntity
  8
0
  6
CONTINUOUS
 62
     3
100
AcDbLine
 10
912.2432657332507
 20
156.4282432975403
 30
0.0
 11
913.0970934867304
 21
156.4282432975403
 31
0.0
  0
ARC
  5
10F
330
1F
100
AcDbEntity
  8
0
  6
CONTINUOUS
 62
     3
100
AcDbCircle
 10
931.8424810688708
 20
152.9019437507486
 30
0.0
 40
19.0741800373783
100
AcDbArc
 50
153.7591918158497
 51
169.3462759801917
  0
DIMENSION
  5
111
330
1F
100
AcDbEntity
  8
図枠
  6
CONTINUOUS
 62
     3
100
AcDbDimension
  2
*D15
 10
446.9999999999999
 20
1932.0
 30
0.0
 11
401.9999999999994
 21
1997.5
 31
0.0
 70
   160
  1
最小
  3
ISO-25
100
AcDbAlignedDimension
 13
356.9999999999999
 23
1865.0
 33
0.0
 14
446.9999999999999
 24
2121.97006766
 34
0.0
100
AcDbRotatedDimension
1001
ACAD
1000
DSTYLE
1002
{
1070
   270
1070
     2
1070
     6
1000
EX_NORM
1070
     7
1000
EX_NONE
1070
    41
1040
35.0
1070
    42
1040
0.0
1070
    44
1040
0.0
1070
    73
1070
     0
1070
    74
1070
     0
1070
    75
1070
     1
1070
    76
1070
     0
1070
    77
1070
     1
1070
    78
1070
     0
1070
   140
1040
40.0
1070
   144
1040
0.1
1070
   147
1040
0.0
1070
   173
1070
     1
1070
   176
1070
     3
1070
   177
1070
     3
1070
   178
1070
     2
1070
   271
1070
     0
1070
   277
1070
     2
1070
   279
1070
     2
1070
   280
1070
     0
1070
   287
1070
     5
1070
   340
1005
110
1002
}
  0
TEXT
  5
11E
330
1F
100
AcDbEntity
  8
図枠
  6
CONTINUOUS
 62
     2
100
AcDbText
 10
367.0
 20
1936.500000000001
 30
0.0
 40
40.0
  1
９０
 41
1.020759090909091
  7
EXCADSTD
 72
     5
 11
431.162
 21
1936.500000000001
 31
0.0
100
AcDbText
  0
LINE
  5
11F
330
1F
100
AcDbEntity
  8
図枠
  6
EXLTYPE2
 62
     6
100
AcDbLine
 10
180.0
 20
1500.0
 30
0.0
 11
-10.0
 21
1500.0
 31
0.0
  0
TEXT
  5
120
330
1F
100
AcDbEntity
  8
図枠
  6
CONTINUOUS
 62
     2
100
AcDbText
 10
1900.5371094
 20
267.7227783000001
 30
0.0
 40
35.0
  1
１
 41
1.12
  7
EXCADSTD
 72
     5
 11
1928.5371094
 21
267.7227783000001
 31
0.0
100
AcDbText
  0
TEXT
  5
121
330
1F
100
AcDbEntity
  8
図枠
  6
CONTINUOUS
 62
     2
100
AcDbText
 10
1941.2792969
 20
223.3488463999998
 30
0.0
 40
35.0
  1
１０
 41
1.083254545454545
  7
EXCADSTD
 72
     5
 11
2000.8582969
 21
223.3488463999998
 31
0.0
100
AcDbText
  0
TEXT
  5
122
330
1F
100
AcDbEntity
  8
図枠
  6
CONTINUOUS
 62
     2
100
AcDbText
 10
212.5
 20
273.75
 30
0.0
 40
42.5
  1
製図
 41
1.509694117647059
  7
EXCADSTD
 72
     5
 11
313.326
 21
273.75
 31
0.0
100
AcDbText
  0
TEXT
  5
123
330
1F
100
AcDbEntity
  8
図枠
  6
CONTINUOUS
 62
     2
100
AcDbText
 10
367.5
 20
273.75
 30
0.0
 40
42.5
  1
写図
 41
1.509694117647059
  7
EXCADSTD
 72
     5
 11
468.326
 21
273.75
 31
0.0
100
AcDbText
  0
TEXT
  5
124
330
1F
100
AcDbEntity
  8
図枠
  6
CONTINUOUS
 62
     2
100
AcDbText
 10
517.5
 20
273.75
 30
0.0
 40
42.5
  1
検図
 41
1.303826737967914
  7
EXCADSTD
 72
     5
 11
604.577
 21
273.75
 31
0.0
100
AcDbText
  0
TEXT
  5
125
330
1F
100
AcDbEntity
  8
図枠
  6
CONTINUOUS
 62
     2
100
AcDbText
 10
763.75
 20
263.75
 30
0.0
 40
42.5
  1
品
 41
1.12
  7
EXCADSTD
 72
     5
 11
797.75
 21
263.75
 31
0.0
100
AcDbText
  0
TEXT
  5
126
330
1F
100
AcDbEntity
  8
図枠
  6
CONTINUOUS
 62
     2
100
AcDbText
 10
763.75
 20
213.75
 30
0.0
 40
42.5
  1
名
 41
1.12
  7
EXCADSTD
 72
     5
 11
797.75
 21
213.75
 31
0.0
100
AcDbText
  0
TEXT
  5
127
330
1F
100
AcDbEntity
  8
図枠
  6
CONTINUOUS
 62
     2
100
AcDbText
 10
1403.75
 20
263.75
 30
0.0
 40
42.5
  1
品
 41
1.12
  7
EXCADSTD
 72
     5
 11
1437.75
 21
263.75
 31
0.0
100
AcDbText
  0
TEXT
  5
128
330
1F
100
AcDbEntity
  8
図枠
  6
CONTINUOUS
 62
     2
100
AcDbText
 10
1403.75
 20
213.75
 30
0.0
 40
42.5
  1
番
 41
1.12
  7
EXCADSTD
 72
     5
 11
1437.75
 21
213.75
 31
0.0
100
AcDbText
  0
TEXT
  5
129
330
1F
100
AcDbEntity
  8
図枠
  6
CONTINUOUS
 62
     2
100
AcDbText
 10
1823.75
 20
263.75
 30
0.0
 40
42.5
  1
尺
 41
1.12
  7
EXCADSTD
 72
     5
 11
1857.75
 21
263.75
 31
0.0
100
AcDbText
  0
TEXT
  5
12A
330
1F
100
AcDbEntity
  8
図枠
  6
CONTINUOUS
 62
     2
100
AcDbText
 10
1823.75
 20
213.75
 30
0.0
 40
42.5
  1
度
 41
1.12
  7
EXCADSTD
 72
     5
 11
1857.75
 21
213.75
 31
0.0
100
AcDbText
  0
TEXT
  5
12B
330
1F
100
AcDbEntity
  8
図枠
  6
CONTINUOUS
 62
     2
100
AcDbText
 10
1403.75
 20
150.7499999999999
 30
0.0
 40
42.5
  1
図
 41
1.12
  7
EXCADSTD
 72
     5
 11
1437.75
 21
150.7499999999999
 31
0.0
100
AcDbText
  0
TEXT
  5
12C
330
1F
100
AcDbEntity
  8
図枠
  6
CONTINUOUS
 62
     2
100
AcDbText
 10
1403.75
 20
107.7499999999998
 30
0.0
 40
42.5
  1
番
 41
1.12
  7
EXCADSTD
 72
     5
 11
1437.75
 21
107.7499999999998
 31
0.0
100
AcDbText
  0
LINE
  5
12D
330
1F
100
AcDbEntity
  8
図枠
  6
CONTINUOUS
 62
     7
100
AcDbLine
 10
499.0000000000001
 20
603.9999999999998
 30
0.0
 11
531.9999999999999
 21
603.9999999999998
 31
0.0
  0
LINE
  5
12E
330
1F
100
AcDbEntity
  8
図枠
  6
CONTINUOUS
 62
     7
100
AcDbLine
 10
801.9999999999999
 20
603.9999999999998
 30
0.0
 11
835.0
 21
603.9999999999998
 31
0.0
  0
ARC
  5
12F
330
1F
100
AcDbEntity
  8
図枠
  6
CONTINUOUS
 62
     7
100
AcDbCircle
 10
534.0
 20
558.0000000000001
 30
0.0
 40
2.0
100
AcDbArc
 50
180.0
 51
270.0000000000002
  0
ARC
  5
130
330
1F
100
AcDbEntity
  8
図枠
  6
CONTINUOUS
 62
     7
100
AcDbCircle
 10
800.0
 20
558.0000000000001
 30
0.0
 40
2.0
100
AcDbArc
 50
270.0000000000002
 51
0.0
  0
LINE
  5
131
330
1F
100
AcDbEntity
  8
図枠
  6
CONTINUOUS
 62
     7
100
AcDbLine
 10
801.9999999999999
 20
558.0000000000001
 30
0.0
 11
801.9999999999999
 21
603.9999999999998
 31
0.0
  0
LINE
  5
132
330
1F
100
AcDbEntity
  8
図枠
  6
CONTINUOUS
 62
     7
100
AcDbLine
 10
800.0
 20
556.0000000000002
 30
0.0
 11
534.0
 21
556.0000000000002
 31
0.0
  0
LINE
  5
133
330
1F
100
AcDbEntity
  8
図枠
  6
CONTINUOUS
 62
     7
100
AcDbLine
 10
531.9999999999995
 20
558.0000000000001
 30
0.0
 11
531.9999999999995
 21
603.9999999999998
 31
0.0
  0
ARC
  5
134
330
1F
100
AcDbEntity
  8
図枠
  6
CONTINUOUS
 62
     7
100
AcDbCircle
 10
2063.0
 20
596.3734040515089
 30
0.0
 40
409.0000000000003
100
AcDbArc
 50
178.9315474646218
 51
180.0
  0
TEXT
  5
135
330
1F
100
AcDbEntity
  8
図枠
  6
CONTINUOUS
 62
     2
100
AcDbText
 10
1277.0521545
 20
2756.0043946
 30
0.0
 40
60.0
  1
器　具　明　細
 41
1.294715447154472
  7
EXCADSTD
 72
     5
 11
1732.0521545
 21
2756.0043946
 31
0.0
100
AcDbText
  0
TEXT
  5
136
330
1F
100
AcDbEntity
  8
図枠
  6
CONTINUOUS
 62
     2
100
AcDbText
 10
1875.0
 20
2684.000000000001
 30
0.0
 40
52.5
  1
個数
 41
0.9665963636363647
  7
EXCADSTD
 72
     5
 11
1954.7442
 21
2684.000000000001
 31
0.0
100
AcDbText
  0
TEXT
  5
137
330
1F
100
AcDbEntity
  8
図枠
  6
CONTINUOUS
 62
     2
100
AcDbText
 10
1320.4006958
 20
2684.000000000001
 30
0.0
 40
52.5
  1
品　　番
 41
1.217391304347826
  7
EXCADSTD
 72
     5
 11
1530.4006958
 21
2684.000000000001
 31
0.0
100
AcDbText
  0
TEXT
  5
138
330
1F
100
AcDbEntity
  8
図枠
  6
CONTINUOUS
 62
     2
100
AcDbText
 10
1645.017089799999
 20
2684.000000000001
 30
0.0
 40
52.5
  1
品　　名
 41
1.017391304347826
  7
EXCADSTD
 72
     5
 11
1820.517089799999
 21
2684.000000000001
 31
0.0
100
AcDbText
  0
TEXT
  5
139
330
1F
100
AcDbEntity
  8
図枠
  6
CONTINUOUS
 62
     2
100
AcDbText
 10
1893.75
 20
2622.75
 30
0.0
 40
45.0
  1
１
 41
1.12
  7
EXCADSTD
 72
     5
 11
1929.75
 21
2622.75
 31
0.0
100
AcDbText
  0
TEXT
  5
13A
330
1F
100
AcDbEntity
  8
図枠
  6
CONTINUOUS
 62
     2
100
AcDbText
 10
1594.0
 20
2621.5
 30
0.0
 40
50.0
  1
便器　　　　
 41
0.92
  7
EXCADSTD
 72
     5
 11
1824.0
 21
2621.5
 31
0.0
100
AcDbText
  0
TEXT
  5
13B
330
1F
100
AcDbEntity
  8
図枠
  6
CONTINUOUS
 62
     2
100
AcDbText
 10
1262.516632
 20
2621.5
 30
0.0
 40
50.0
  1
Ｃ９Ｍ
 41
0.9800000000000001
  7
EXCADSTD
 72
     5
 11
1381.516632
 21
2621.5
 31
0.0
100
AcDbText
  0
TEXT
  5
13C
330
1F
100
AcDbEntity
  8
図枠
  6
CONTINUOUS
 62
     2
100
AcDbText
 10
1893.75
 20
2557.75
 30
0.0
 40
45.0
  1
１
 41
1.12
  7
EXCADSTD
 72
     5
 11
1929.75
 21
2557.75
 31
0.0
100
AcDbText
  0
TEXT
  5
13D
330
1F
100
AcDbEntity
  8
図枠
  6
CONTINUOUS
 62
     2
100
AcDbText
 10
1594.0
 20
2556.5
 30
0.0
 40
50.0
  1
前丸便座
 41
0.9495652173913044
  7
EXCADSTD
 72
     5
 11
1750.0
 21
2556.5
 31
0.0
100
AcDbText
  0
TEXT
  5
13E
330
1F
100
AcDbEntity
  8
図枠
  6
CONTINUOUS
 62
     2
100
AcDbText
 10
1594.0
 20
2491.5
 30
0.0
 40
50.0
  1
化粧頭付木ねじ
 41
0.9117073170731708
  7
EXCADSTD
 72
     5
 11
1861.0
 21
2491.5
 31
0.0
100
AcDbText
  0
TEXT
  5
13F
330
1F
100
AcDbEntity
  8
図枠
  6
CONTINUOUS
 62
     2
100
AcDbText
 10
1262.516632
 20
2556.5001526
 30
0.0
 40
50.0
  1
ＮＣ８０１Ｗ１
 41
0.9117073170731708
  7
EXCADSTD
 72
     5
 11
1529.516632
 21
2556.5001526
 31
0.0
100
AcDbText
  0
TEXT
  5
140
330
1F
100
AcDbEntity
  8
図枠
  6
CONTINUOUS
 62
     2
100
AcDbText
 10
1262.516632
 20
2491.5001526
 30
0.0
 40
50.0
  1
ＮＴ７Ｂカラー
 41
0.9117073170731708
  7
EXCADSTD
 72
     5
 11
1529.516632
 21
2491.5001526
 31
0.0
100
AcDbText
  0
TEXT
  5
141
330
1F
100
AcDbEntity
  8
図枠
  6
CONTINUOUS
 62
     6
100
AcDbText
 10
239.9999999999989
 20
185.0
 30
0.0
 40
50.0
  1
堀
 41
1.232
  7
EXCADSTD
 72
     5
 11
283.9999999999989
 21
185.0
 31
0.0
100
AcDbText
  0
TEXT
  5
142
330
1F
100
AcDbEntity
  8
図枠
  6
CONTINUOUS
 62
     6
100
AcDbText
 10
200.0441161999996
 20
108.9500731999999
 30
0.0
 40
30.0
  1
'17
 41
0.4689784042553192
  7
EXCADSTD
 72
     5
 11
231.5326661999996
 21
108.9500731999999
 31
0.0
100
AcDbText
  0
TEXT
  5
143
330
1F
100
AcDbEntity
  8
図枠
  6
CONTINUOUS
 62
     6
100
AcDbText
 10
643.9999997615805
 20
185.0
 30
0.0
 40
50.0
  1
間瀬
 41
1.18991346010815
  7
EXCADSTD
 72
     5
 11
737.4932001986494
 21
185.0
 31
0.0
100
AcDbText
  0
LINE
  5
144
330
1F
100
AcDbEntity
  8
図枠
  6
CONTINUOUS
 62
     7
100
AcDbLine
 10
190.0
 20
2900.0
 30
0.0
 11
2010.0
 21
2900.0
 31
0.0
  0
LINE
  5
145
330
1F
100
AcDbEntity
  8
図枠
  6
CONTINUOUS
 62
     7
100
AcDbLine
 10
2010.0
 20
100.0
 30
0.0
 11
2010.0
 21
2900.0
 31
0.0
  0
LINE
  5
146
330
1F
100
AcDbEntity
  8
図枠
  6
CONTINUOUS
 62
     7
100
AcDbLine
 10
190.0
 20
320.0
 30
0.0
 11
2010.0
 21
320.0
 31
0.0
  0
LINE
  5
147
330
1F
100
AcDbEntity
  8
図枠
  6
CONTINUOUS
 62
     7
100
AcDbLine
 10
190.0
 20
100.0
 30
0.0
 11
2010.0
 21
100.0
 31
0.0
  0
LINE
  5
148
330
1F
100
AcDbEntity
  8
図枠
  6
EXLTYPE2
 62
     6
100
AcDbLine
 10
190.0
 20
150.0
 30
0.0
 11
500.0
 21
150.0
 31
0.0
  0
LINE
  5
149
330
1F
100
AcDbEntity
  8
図枠
  6
CONTINUOUS
 62
     6
100
AcDbLine
 10
190.0
 20
270.0
 30
0.0
 11
760.0
 21
270.0
 31
0.0
  0
LINE
  5
14A
330
1F
100
AcDbEntity
  8
図枠
  6
CONTINUOUS
 62
     6
100
AcDbLine
 10
345.0
 20
320.0
 30
0.0
 11
345.0
 21
100.0
 31
0.0
  0
LINE
  5
14B
330
1F
100
AcDbEntity
  8
図枠
  6
CONTINUOUS
 62
     6
100
AcDbLine
 10
500.0
 20
320.0
 30
0.0
 11
500.0
 21
100.0
 31
0.0
  0
CIRCLE
  5
14C
330
1F
100
AcDbEntity
  8
図枠
  6
CONTINUOUS
 62
     6
100
AcDbCircle
 10
240.0
 20
125.0
 30
0.0
 40
1.0000002
  0
CIRCLE
  5
14D
330
1F
100
AcDbEntity
  8
図枠
  6
CONTINUOUS
 62
     6
100
AcDbCircle
 10
290.0
 20
125.0
 30
0.0
 40
1.0000002
  0
CIRCLE
  5
14E
330
1F
100
AcDbEntity
  8
図枠
  6
CONTINUOUS
 62
     6
100
AcDbCircle
 10
395.0
 20
125.0
 30
0.0
 40
1.0000002
  0
CIRCLE
  5
14F
330
1F
100
AcDbEntity
  8
図枠
  6
CONTINUOUS
 62
     6
100
AcDbCircle
 10
445.0
 20
125.0
 30
0.0
 40
1.0000002
  0
LINE
  5
150
330
1F
100
AcDbEntity
  8
図枠
  6
CONTINUOUS
 62
     6
100
AcDbLine
 10
630.0
 20
320.0
 30
0.0
 11
630.0
 21
100.0
 31
0.0
  0
LINE
  5
151
330
1F
100
AcDbEntity
  8
図枠
  6
CONTINUOUS
 62
     6
100
AcDbLine
 10
760.0
 20
320.0
 30
0.0
 11
760.0
 21
100.0
 31
0.0
  0
LINE
  5
152
330
1F
100
AcDbEntity
  8
図枠
  6
CONTINUOUS
 62
     6
100
AcDbLine
 10
2010.0
 20
200.0
 30
0.0
 11
760.0
 21
200.0
 31
0.0
  0
LINE
  5
153
330
1F
100
AcDbEntity
  8
図枠
  6
CONTINUOUS
 62
     6
100
AcDbLine
 10
810.0
 20
320.0
 30
0.0
 11
810.0
 21
200.0
 31
0.0
  0
LINE
  5
154
330
1F
100
AcDbEntity
  8
図枠
  6
CONTINUOUS
 62
     6
100
AcDbLine
 10
1400.0
 20
320.0
 30
0.0
 11
1400.0
 21
100.0
 31
0.0
  0
LINE
  5
155
330
1F
100
AcDbEntity
  8
図枠
  6
CONTINUOUS
 62
     6
100
AcDbLine
 10
1450.0
 20
320.0
 30
0.0
 11
1450.0
 21
100.0
 31
0.0
  0
LINE
  5
156
330
1F
100
AcDbEntity
  8
図枠
  6
CONTINUOUS
 62
     6
100
AcDbLine
 10
1820.0
 20
320.0
 30
0.0
 11
1820.0
 21
200.0
 31
0.0
  0
LINE
  5
157
330
1F
100
AcDbEntity
  8
図枠
  6
CONTINUOUS
 62
     6
100
AcDbLine
 10
1870.0
 20
320.0
 30
0.0
 11
1870.0
 21
200.0
 31
0.0
  0
LINE
  5
158
330
1F
100
AcDbEntity
  8
図枠
  6
CONTINUOUS
 62
     6
100
AcDbLine
 10
1902.6538086
 20
223.0029296999999
 30
0.0
 11
1979.9938965
 21
301.6998290999999
 31
0.0
  0
ARC
  5
159
330
1F
100
AcDbEntity
  8
図枠
  6
CONTINUOUS
 62
     6
100
AcDbCircle
 10
1674.1293945
 20
996.4999999999998
 30
0.0
 40
9.000223899999998
100
AcDbArc
 50
202.8852003183
 51
250.8081207300001
  0
ARC
  5
15A
330
1F
100
AcDbEntity
  8
図枠
  6
CONTINUOUS
 62
     6
100
AcDbCircle
 10
1674.1293945
 20
996.4999999999998
 30
0.0
 40
9.00123240000001
100
AcDbArc
 50
289.19181824
 51
337.1175093747989
  0
LINE
  5
15B
330
1F
100
AcDbEntity
  8
図枠
  6
CONTINUOUS
 62
     6
100
AcDbLine
 10
1712.6230468
 20
957.0004883000001
 30
0.0
 11
1712.6230468
 21
967.0004883000001
 31
0.0
  0
LINE
  5
15C
330
1F
100
AcDbEntity
  8
図枠
  6
CONTINUOUS
 62
     6
100
AcDbLine
 10
1696.097167899999
 20
957.0004883000001
 30
0.0
 11
1696.097167899999
 21
967.0004883000001
 31
0.0
  0
LINE
  5
15D
330
1F
100
AcDbEntity
  8
図枠
  6
CONTINUOUS
 62
     6
100
AcDbLine
 10
1648.4873047
 20
959.3393555
 30
0.0
 11
1648.4873047
 21
967.0004883000001
 31
0.0
  0
LINE
  5
15E
330
1F
100
AcDbEntity
  8
図枠
  6
CONTINUOUS
 62
     6
100
AcDbLine
 10
1449.7714843
 20
957.0004883000001
 30
0.0
 11
1449.7714843
 21
967.0004883000001
 31
0.0
  0
LINE
  5
15F
330
1F
100
AcDbEntity
  8
図枠
  6
CONTINUOUS
 62
     6
100
AcDbLine
 10
1402.1665039
 20
958.9999999999998
 30
0.0
 11
1402.1665039
 21
967.0004883000001
 31
0.0
  0
LINE
  5
160
330
1F
100
AcDbEntity
  8
図枠
  6
CONTINUOUS
 62
     6
100
AcDbLine
 10
1385.640625
 20
958.9999999999998
 30
0.0
 11
1385.640625
 21
967.0004883000001
 31
0.0
  0
LINE
  5
161
330
1F
100
AcDbEntity
  8
図枠
  6
CONTINUOUS
 62
     6
100
AcDbLine
 10
1648.4873047
 20
959.3393555
 30
0.0
 11
1648.4873047
 21
957.0004883000001
 31
0.0
  0
LINE
  5
162
330
1F
100
AcDbEntity
  8
図枠
  6
CONTINUOUS
 62
     6
100
AcDbLine
 10
1712.6230468
 20
958.9999999999998
 30
0.0
 11
1648.4873047
 21
958.9999999999998
 31
0.0
  0
LINE
  5
163
330
1F
100
AcDbEntity
  8
図枠
  6
CONTINUOUS
 62
     6
100
AcDbLine
 10
1721.748711313
 20
987.9990235000002
 30
0.0
 11
1376.251288687
 21
987.9990235000002
 31
0.0
  0
LINE
  5
164
330
1F
100
AcDbEntity
  8
図枠
  6
CONTINUOUS
 62
     6
100
AcDbLine
 10
1385.640625
 20
958.9999999999998
 30
0.0
 11
1449.7714843
 21
958.9999999999998
 31
0.0
  0
ARC
  5
165
330
1F
100
AcDbEntity
  8
図枠
  6
CONTINUOUS
 62
     6
100
AcDbCircle
 10
1549.0
 20
-280.0000610000001
 30
0.0
 40
1300.0
100
AcDbArc
 50
85.07015167834997
 51
94.92984832164998
  0
ARC
  5
166
330
1F
100
AcDbEntity
  8
図枠
  6
CONTINUOUS
 62
     6
100
AcDbCircle
 10
1634.9359590888
 20
716.3006019202999
 30
0.0
 40
300.0000000000003
100
AcDbArc
 50
74.73825682853993
 51
85.0701516783499
  0
ARC
  5
167
330
1F
100
AcDbEntity
  8
図枠
  6
CONTINUOUS
 62
     6
100
AcDbCircle
 10
1463.0640409112
 20
716.3006019202999
 30
0.0
 40
300.0000000000003
100
AcDbArc
 50
94.9298483216499
 51
105.2617431714999
  0
ARC
  5
168
330
1F
100
AcDbEntity
  8
図枠
  6
CONTINUOUS
 62
     6
100
AcDbCircle
 10
1401.7296703048
 20
982.8468254634998
 30
0.0
 40
30.00000000000002
100
AcDbArc
 50
138.5991473378
 51
160.2183165763001
  0
ARC
  5
169
330
1F
100
AcDbEntity
  8
図枠
  6
CONTINUOUS
 62
     6
100
AcDbCircle
 10
1696.2703296952
 20
982.8468254634998
 30
0.0
 40
30.00000000000002
100
AcDbArc
 50
19.78168342373985
 51
41.40085266214982
  0
LINE
  5
16A
330
1F
100
AcDbEntity
  8
図枠
  6
CONTINUOUS
 62
     6
100
AcDbLine
 10
1386.5
 20
1004.999939
 30
0.0
 11
1711.5
 21
1004.999939
 31
0.0
  0
ARC
  5
16B
330
1F
100
AcDbEntity
  8
図枠
  6
CONTINUOUS
 62
     6
100
AcDbCircle
 10
1386.7276457435
 20
996.0732860280001
 30
0.0
 40
10.0
100
AcDbArc
 50
105.2617431714995
 51
138.5991473377998
  0
ARC
  5
16C
330
1F
100
AcDbEntity
  8
図枠
  6
CONTINUOUS
 62
     6
100
AcDbCircle
 10
1711.2723542565
 20
996.0732860280001
 30
0.0
 40
10.0
100
AcDbArc
 50
41.40085266214833
 51
74.73825682853914
  0
ARC
  5
16D
330
1F
100
AcDbEntity
  8
図枠
  6
CONTINUOUS
 62
     6
100
AcDbCircle
 10
1549.0
 20
697.999939
 30
0.0
 40
300.0000000000003
100
AcDbArc
 50
80.93127845396997
 51
99.0687215460299
  0
LINE
  5
16E
330
1F
100
AcDbEntity
  8
図枠
  6
CONTINUOUS
 62
     6
100
AcDbLine
 10
1373.5
 20
992.999939
 30
0.0
 11
1485.9523989354
 21
992.999939
 31
0.0
  0
LINE
  5
16F
330
1F
100
AcDbEntity
  8
図枠
  6
CONTINUOUS
 62
     6
100
AcDbLine
 10
1612.0476010646
 20
992.999939
 30
0.0
 11
1724.5
 21
992.999939
 31
0.0
  0
LINE
  5
170
330
1F
100
AcDbEntity
  8
図枠
  6
CONTINUOUS
 62
     6
100
AcDbLine
 10
1518.25
 20
987.9990235000002
 30
0.0
 11
1518.25
 21
996.4198403135998
 31
0.0
  0
LINE
  5
171
330
1F
100
AcDbEntity
  8
図枠
  6
CONTINUOUS
 62
     6
100
AcDbLine
 10
1579.75
 20
987.9990235000002
 30
0.0
 11
1579.75
 21
996.4198403135998
 31
0.0
  0
ARC
  5
172
330
1F
100
AcDbEntity
  8
図枠
  6
CONTINUOUS
 62
     6
100
AcDbCircle
 10
1485.9523989354
 20
1092.999939
 30
0.0
 40
100.0
100
AcDbArc
 50
270.0000000000002
 51
279.0687215459999
  0
ARC
  5
173
330
1F
100
AcDbEntity
  8
図枠
  6
CONTINUOUS
 62
     6
100
AcDbCircle
 10
1612.0476010646
 20
1092.999939
 30
0.0
 40
100.0
100
AcDbArc
 50
260.9312784540002
 51
270.0000000000002
  0
ARC
  5
174
330
1F
100
AcDbEntity
  8
図枠
  6
CONTINUOUS
 62
     6
100
AcDbCircle
 10
1423.8706055
 20
996.4999999999998
 30
0.0
 40
9.000223899999998
100
AcDbArc
 50
289.19187927
 51
337.1147996817008
  0
ARC
  5
175
330
1F
100
AcDbEntity
  8
図枠
  6
CONTINUOUS
 62
     6
100
AcDbCircle
 10
1423.8706055
 20
996.4999999999998
 30
0.0
 40
9.00123240000001
100
AcDbArc
 50
202.8824906252006
 51
250.80818176
  0
ARC
  5
176
330
1F
100
AcDbEntity
  8
図枠
  6
CONTINUOUS
 62
     6
100
AcDbCircle
 10
1400.4999999693
 20
966.9990234591
 30
0.0
 40
35.00000000000002
100
AcDbArc
 50
149.9999999034002
 51
179.9976020229
  0
ARC
  5
177
330
1F
100
AcDbEntity
  8
図枠
  6
CONTINUOUS
 62
     6
100
AcDbCircle
 10
1697.5000000307
 20
966.9990234591
 30
0.0
 40
35.00000000000002
100
AcDbArc
 50
0.0023979771243263
 51
30.00000009656987
  0
LINE
  5
178
330
1F
100
AcDbEntity
  8
図枠
  6
CONTINUOUS
 62
     6
100
AcDbLine
 10
1365.5
 20
967.0004883000001
 30
0.0
 11
1732.5
 21
967.0004883000001
 31
0.0
  0
ARC
  5
179
330
1F
100
AcDbEntity
  8
図枠
  6
CONTINUOUS
 62
     6
100
AcDbCircle
 10
1721.748711313
 20
980.9990234999998
 30
0.0
 40
7.000000000000009
100
AcDbArc
 50
30.00000009656993
 51
90.00000000000001
  0
ARC
  5
17A
330
1F
100
AcDbEntity
  8
図枠
  6
CONTINUOUS
 62
     6
100
AcDbCircle
 10
1376.251288687
 20
980.9990234999998
 30
0.0
 40
7.000000000000009
100
AcDbArc
 50
90.00000000000001
 51
149.9999999033989
  0
ARC
  5
17B
330
1F
100
AcDbEntity
  8
図枠
  6
CONTINUOUS
 62
     6
100
AcDbCircle
 10
1388.6386718
 20
957.0004883000001
 30
0.0
 40
3.0004883
100
AcDbArc
 50
180.0
 51
270.0000000000002
  0
ARC
  5
17C
330
1F
100
AcDbEntity
  8
図枠
  6
CONTINUOUS
 62
     6
100
AcDbCircle
 10
1404.9033203
 20
957.0004883000001
 30
0.0
 40
3.0004883
100
AcDbArc
 50
180.0
 51
269.9999694800021
  0
LINE
  5
17D
330
1F
100
AcDbEntity
  8
図枠
  6
CONTINUOUS
 62
     6
100
AcDbLine
 10
1402.1665039
 20
958.9999999999998
 30
0.0
 11
1402.1665039
 21
957.0004883000001
 31
0.0
  0
LINE
  5
17E
330
1F
100
AcDbEntity
  8
図枠
  6
CONTINUOUS
 62
     6
100
AcDbLine
 10
1385.640625
 20
958.9999999999998
 30
0.0
 11
1385.640625
 21
957.0004883000001
 31
0.0
  0
ARC
  5
17F
330
1F
100
AcDbEntity
  8
図枠
  6
CONTINUOUS
 62
     6
100
AcDbCircle
 10
1446.7734375
 20
957.0004883000001
 30
0.0
 40
3.0004883
100
AcDbArc
 50
270.0000305199981
 51
0.0
  0
ARC
  5
180
330
1F
100
AcDbEntity
  8
図枠
  6
CONTINUOUS
 62
     6
100
AcDbCircle
 10
1549.131835899999
 20
3067.8841248
 30
0.0
 40
2110.8856201
100
AcDbArc
 50
267.3020935100002
 51
272.6978454600001
  0
LINE
  5
181
330
1F
100
AcDbEntity
  8
図枠
  6
CONTINUOUS
 62
     6
100
AcDbLine
 10
1467.1298828
 20
953.9999999999998
 30
0.0
 11
1467.1298828
 21
958.5947266
 31
0.0
  0
LINE
  5
182
330
1F
100
AcDbEntity
  8
図枠
  6
CONTINUOUS
 62
     6
100
AcDbLine
 10
1497.1298828
 20
953.9999999999998
 30
0.0
 11
1497.1298828
 21
957.6401367
 31
0.0
  0
LINE
  5
183
330
1F
100
AcDbEntity
  8
図枠
  6
CONTINUOUS
 62
     6
100
AcDbLine
 10
1631.128906199999
 20
953.9999999999998
 30
0.0
 11
1631.128906199999
 21
958.5947266
 31
0.0
  0
LINE
  5
184
330
1F
100
AcDbEntity
  8
図枠
  6
CONTINUOUS
 62
     6
100
AcDbLine
 10
1601.128906199999
 20
953.9999999999998
 30
0.0
 11
1601.128906199999
 21
957.6401367
 31
0.0
  0
ARC
  5
185
330
1F
100
AcDbEntity
  8
図枠
  6
CONTINUOUS
 62
     6
100
AcDbCircle
 10
1651.4853515
 20
957.0004883000001
 30
0.0
 40
3.0004883
100
AcDbArc
 50
180.0
 51
270.0000000000002
  0
ARC
  5
186
330
1F
100
AcDbEntity
  8
図枠
  6
CONTINUOUS
 62
     6
100
AcDbCircle
 10
1693.0966797
 20
957.0004883000001
 30
0.0
 40
3.0004883
100
AcDbArc
 50
270.0000305200036
 51
0.0
  0
ARC
  5
187
330
1F
100
AcDbEntity
  8
図枠
  6
CONTINUOUS
 62
     6
100
AcDbCircle
 10
1709.6225586
 20
957.0004883000001
 30
0.0
 40
3.0004883
100
AcDbArc
 50
270.0000305199981
 51
0.0
  0
ARC
  5
188
330
1F
100
AcDbEntity
  8
図枠
  6
CONTINUOUS
 62
     6
100
AcDbCircle
 10
1434.0
 20
623.4821166999996
 30
0.0
 40
7.5178593
100
AcDbArc
 50
3.950073240000792
 51
176.0500488299996
  0
LINE
  5
189
330
1F
100
AcDbEntity
  8
図枠
  6
CONTINUOUS
 62
     6
100
AcDbLine
 10
1434.0
 20
573.9999760000001
 30
0.0
 11
1436.558766370541
 21
603.9999999999998
 31
0.0
  0
LINE
  5
18A
330
1F
100
AcDbEntity
  8
図枠
  6
CONTINUOUS
 62
     6
100
AcDbLine
 10
1434.0
 20
573.9999760000001
 30
0.0
 11
1431.441233629459
 21
603.9999999999998
 31
0.0
  0
LINE
  5
18B
330
1F
100
AcDbEntity
  8
図枠
  6
CONTINUOUS
 62
     6
100
AcDbLine
 10
1664.0
 20
573.9999760000001
 30
0.0
 11
1661.441233629459
 21
603.9999999999998
 31
0.0
  0
LINE
  5
18C
330
1F
100
AcDbEntity
  8
図枠
  6
CONTINUOUS
 62
     6
100
AcDbLine
 10
1664.0
 20
573.9999760000001
 30
0.0
 11
1666.558766370541
 21
603.9999999999998
 31
0.0
  0
ARC
  5
18D
330
1F
100
AcDbEntity
  8
図枠
  6
CONTINUOUS
 62
     6
100
AcDbCircle
 10
1664.0
 20
623.4821166999996
 30
0.0
 40
7.5178593
100
AcDbArc
 50
3.949951170000557
 51
176.0499267599993
  0
ARC
  5
18E
330
1F
100
AcDbEntity
  8
図枠
  6
CONTINUOUS
 62
     6
100
AcDbCircle
 10
766.9999999999999
 20
623.4821166999996
 30
0.0
 40
7.5178593
100
AcDbArc
 50
3.950073240000792
 51
176.0500488299996
  0
LINE
  5
18F
330
1F
100
AcDbEntity
  8
図枠
  6
CONTINUOUS
 62
     6
100
AcDbLine
 10
766.9999999999999
 20
573.9999760000001
 30
0.0
 11
764.441233629459
 21
603.9999999999998
 31
0.0
  0
LINE
  5
190
330
1F
100
AcDbEntity
  8
図枠
  6
CONTINUOUS
 62
     6
100
AcDbLine
 10
766.9999999999999
 20
573.9999760000001
 30
0.0
 11
769.5587663705409
 21
603.9999999999998
 31
0.0
  0
ARC
  5
191
330
1F
100
AcDbEntity
  8
図枠
  6
CONTINUOUS
 62
     6
100
AcDbCircle
 10
536.9999999999999
 20
623.4821166999996
 30
0.0
 40
7.5178593
100
AcDbArc
 50
3.950073240000792
 51
176.0500488299996
  0
LINE
  5
192
330
1F
100
AcDbEntity
  8
図枠
  6
CONTINUOUS
 62
     6
100
AcDbLine
 10
536.9999999999999
 20
573.9999760000001
 30
0.0
 11
539.558766370541
 21
603.9999999999998
 31
0.0
  0
LINE
  5
193
330
1F
100
AcDbEntity
  8
図枠
  6
CONTINUOUS
 62
     6
100
AcDbLine
 10
536.9999999999999
 20
573.9999760000001
 30
0.0
 11
534.441233629459
 21
603.9999999999998
 31
0.0
  0
LINE
  5
194
330
1F
100
AcDbEntity
  8
図枠
  6
CONTINUOUS
 62
     6
100
AcDbLine
 10
464.4999999999999
 20
912.7999999999997
 30
0.0
 11
489.4999999999999
 21
912.7999999999997
 31
0.0
  0
LINE
  5
195
330
1F
100
AcDbEntity
  8
図枠
  6
CONTINUOUS
 62
     6
100
AcDbLine
 10
464.4999999999999
 20
912.3000000000002
 30
0.0
 11
489.4999999999999
 21
912.3000000000002
 31
0.0
  0
LINE
  5
196
330
1F
100
AcDbEntity
  8
図枠
  6
CONTINUOUS
 62
     6
100
AcDbLine
 10
464.4999999999999
 20
910.2999999999997
 30
0.0
 11
489.4999999999999
 21
910.2999999999997
 31
0.0
  0
LINE
  5
197
330
1F
100
AcDbEntity
  8
図枠
  6
CONTINUOUS
 62
     6
100
AcDbLine
 10
467.7723880597
 20
902.7999999999997
 30
0.0
 11
468.4999999999999
 21
900.2999999999997
 31
0.0
  0
LINE
  5
198
330
1F
100
AcDbEntity
  8
図枠
  6
CONTINUOUS
 62
     6
100
AcDbLine
 10
486.2276119403001
 20
902.7999999999997
 30
0.0
 11
485.4999999999998
 21
900.2999999999997
 31
0.0
  0
LINE
  5
199
330
1F
100
AcDbEntity
  8
図枠
  6
CONTINUOUS
 62
     6
100
AcDbLine
 10
468.4999999999999
 20
900.2999999999997
 30
0.0
 11
485.4999999999998
 21
900.2999999999997
 31
0.0
  0
ARC
  5
19A
330
1F
100
AcDbEntity
  8
図枠
  6
CONTINUOUS
 62
     6
100
AcDbCircle
 10
476.9999999999999
 20
908.7202355758996
 30
0.0
 40
8.420235575851999
100
AcDbArc
 50
224.6759428468987
 51
315.3240571531013
  0
LINE
  5
19B
330
1F
100
AcDbEntity
  8
図枠
  6
CONTINUOUS
 62
     6
100
AcDbLine
 10
467.7723880597
 20
902.7999999999997
 30
0.0
 11
471.0124146871001
 21
902.7999999999997
 31
0.0
  0
LINE
  5
19C
330
1F
100
AcDbEntity
  8
図枠
  6
CONTINUOUS
 62
     6
100
AcDbLine
 10
482.9875853129002
 20
902.7999999999997
 30
0.0
 11
486.2276119403001
 21
902.7999999999997
 31
0.0
  0
LINE
  5
19D
330
1F
100
AcDbEntity
  8
図枠
  6
CONTINUOUS
 62
     6
100
AcDbLine
 10
467.7723880597
 20
902.7999999999997
 30
0.0
 11
467.7723880597
 21
910.2999999999997
 31
0.0
  0
LINE
  5
19E
330
1F
100
AcDbEntity
  8
図枠
  6
CONTINUOUS
 62
     6
100
AcDbLine
 10
471.0124146871001
 20
902.7999999999997
 30
0.0
 11
471.0124146871001
 21
910.2999999999997
 31
0.0
  0
LINE
  5
19F
330
1F
100
AcDbEntity
  8
図枠
  6
CONTINUOUS
 62
     6
100
AcDbLine
 10
482.9875853129002
 20
902.7999999999997
 30
0.0
 11
482.9875853129002
 21
910.2999999999997
 31
0.0
  0
LINE
  5
1A0
330
1F
100
AcDbEntity
  8
図枠
  6
CONTINUOUS
 62
     6
100
AcDbLine
 10
486.2276119403001
 20
902.7999999999997
 30
0.0
 11
486.2276119403001
 21
910.2999999999997
 31
0.0
  0
LINE
  5
1A1
330
1F
100
AcDbEntity
  8
図枠
  6
CONTINUOUS
 62
     6
100
AcDbLine
 10
464.4999999999999
 20
910.2999999999997
 30
0.0
 11
464.4999999999999
 21
912.7999999999997
 31
0.0
  0
LINE
  5
1A2
330
1F
100
AcDbEntity
  8
図枠
  6
CONTINUOUS
 62
     6
100
AcDbLine
 10
489.4999999999999
 20
910.2999999999997
 30
0.0
 11
489.4999999999999
 21
912.7999999999997
 31
0.0
  0
ARC
  5
1A3
330
1F
100
AcDbEntity
  8
図枠
  6
CONTINUOUS
 62
     6
100
AcDbCircle
 10
476.9999999999999
 20
912.7999999999997
 30
0.0
 40
12.50000000000001
100
AcDbArc
 50
142.2779588441545
 51
180.0
  0
ARC
  5
1A4
330
1F
100
AcDbEntity
  8
図枠
  6
CONTINUOUS
 62
     6
100
AcDbCircle
 10
476.9999999999999
 20
912.7999999999997
 30
0.0
 40
12.50000000000001
100
AcDbArc
 50
0.0
 51
28.68540201411772
  0
LINE
  5
1A5
330
1F
100
AcDbEntity
  8
図枠
  6
CONTINUOUS
 62
     6
100
AcDbLine
 10
470.9999999999999
 20
860.5773502692
 30
0.0
 11
470.9999999999999
 21
900.2999999999997
 31
0.0
  0
LINE
  5
1A6
330
1F
100
AcDbEntity
  8
図枠
  6
CONTINUOUS
 62
     6
100
AcDbLine
 10
482.9999999999998
 20
900.2999999999997
 30
0.0
 11
482.9999999999998
 21
860.5773502692
 31
0.0
  0
LINE
  5
1A7
330
1F
100
AcDbEntity
  8
図枠
  6
CONTINUOUS
 62
     6
100
AcDbLine
 10
453.0000609999996
 20
962.0000305999997
 30
0.0
 11
453.0000609999996
 21
953.9999999999998
 31
0.0
  0
LINE
  5
1A8
330
1F
100
AcDbEntity
  8
図枠
  6
CONTINUOUS
 62
     6
100
AcDbLine
 10
509.1826172
 20
967.999939
 30
0.0
 11
505.9990233999997
 21
953.9999999999998
 31
0.0
  0
ARC
  5
1A9
330
1F
100
AcDbEntity
  8
図枠
  6
CONTINUOUS
 62
     6
100
AcDbCircle
 10
483.4843749999999
 20
971.0024109
 30
0.0
 40
5.9998511
100
AcDbArc
 50
275.8621090800002
 51
347.1925207500014
  0
LINE
  5
1AA
330
1F
100
AcDbEntity
  8
図枠
  6
CONTINUOUS
 62
     6
100
AcDbLine
 10
453.0000609999996
 20
962.0000305999997
 30
0.0
 11
484.0971678999998
 21
965.0339356000001
 31
0.0
  0
LINE
  5
1AB
330
1F
100
AcDbEntity
  8
図枠
  6
CONTINUOUS
 62
     6
100
AcDbLine
 10
643.6601562000001
 20
959.8711243000002
 30
0.0
 11
781.3872069999996
 21
963.4177247000002
 31
0.0
  0
LINE
  5
1AC
330
1F
100
AcDbEntity
  8
図枠
  6
CONTINUOUS
 62
     6
100
AcDbLine
 10
617.4663086
 20
958.9999999999998
 30
0.0
 11
643.6601562000001
 21
958.9999999999998
 31
0.0
  0
LINE
  5
1AD
330
1F
100
AcDbEntity
  8
図枠
  6
CONTINUOUS
 62
     6
100
AcDbLine
 10
570.9990233999997
 20
957.999939
 30
0.0
 11
617.4663086
 21
959.1965332000001
 31
0.0
  0
LINE
  5
1AE
330
1F
100
AcDbEntity
  8
図枠
  6
CONTINUOUS
 62
     6
100
AcDbLine
 10
570.9990233999997
 20
957.999939
 30
0.0
 11
569.6147461
 21
967.0000305999997
 31
0.0
  0
LINE
  5
1AF
330
1F
100
AcDbEntity
  8
図枠
  6
CONTINUOUS
 62
     6
100
AcDbLine
 10
617.4663086
 20
958.9999999999998
 30
0.0
 11
617.4663086
 21
967.0000305999997
 31
0.0
  0
ARC
  5
1B0
330
1F
100
AcDbEntity
  8
図枠
  6
CONTINUOUS
 62
     6
100
AcDbCircle
 10
620.4667969000002
 20
957.0000305999997
 30
0.0
 40
3.0004883
100
AcDbArc
 50
180.0000227599992
 51
270.0000000000002
  0
ARC
  5
1B1
330
1F
100
AcDbEntity
  8
図枠
  6
CONTINUOUS
 62
     6
100
AcDbCircle
 10
640.6596678999997
 20
957.0000305999997
 30
0.0
 40
3.0000305
100
AcDbArc
 50
270.0000000000002
 51
0.0
  0
LINE
  5
1B2
330
1F
100
AcDbEntity
  8
図枠
  6
CONTINUOUS
 62
     6
100
AcDbLine
 10
643.6601562000001
 20
957.0000305999997
 30
0.0
 11
643.6601562000001
 21
967.0000305999997
 31
0.0
  0
LINE
  5
1B3
330
1F
100
AcDbEntity
  8
図枠
  6
CONTINUOUS
 62
     6
100
AcDbLine
 10
781.3872069999996
 20
958.9999999999998
 30
0.0
 11
781.3872069999996
 21
967.0000305999997
 31
0.0
  0
ARC
  5
1B4
330
1F
100
AcDbEntity
  8
図枠
  6
CONTINUOUS
 62
     6
100
AcDbCircle
 10
784.3876952999998
 20
957.0000305999997
 30
0.0
 40
3.0004883
100
AcDbArc
 50
180.0000227599992
 51
270.0000000000002
  0
LINE
  5
1B5
330
1F
100
AcDbEntity
  8
図枠
  6
CONTINUOUS
 62
     6
100
AcDbLine
 10
781.3872069999996
 20
958.9999999999998
 30
0.0
 11
811.3408202999998
 21
958.9999999999998
 31
0.0
  0
LINE
  5
1B6
330
1F
100
AcDbEntity
  8
図枠
  6
CONTINUOUS
 62
     6
100
AcDbLine
 10
811.3408202999998
 20
957.0000305999997
 30
0.0
 11
811.3408202999998
 21
967.0000305999997
 31
0.0
  0
LINE
  5
1B7
330
1F
100
AcDbEntity
  8
図枠
  6
CONTINUOUS
 62
     6
100
AcDbLine
 10
781.3872069999996
 20
958.9999999999998
 30
0.0
 11
781.3872069999996
 21
957.0000305999997
 31
0.0
  0
ARC
  5
1B8
330
1F
100
AcDbEntity
  8
図枠
  6
CONTINUOUS
 62
     6
100
AcDbCircle
 10
808.3403319999996
 20
957.0000305999997
 30
0.0
 40
3.0000305
100
AcDbArc
 50
270.0000000000002
 51
0.0
  0
LINE
  5
1B9
330
1F
100
AcDbEntity
  8
図枠
  6
CONTINUOUS
 62
     6
100
AcDbLine
 10
617.4663086
 20
957.0000305999997
 30
0.0
 11
617.4663086
 21
958.9999999999998
 31
0.0
  0
ARC
  5
1BA
330
1F
100
AcDbEntity
  8
図枠
  6
CONTINUOUS
 62
     6
100
AcDbCircle
 10
502.4516600999999
 20
978.9999999999998
 30
0.0
 40
9.000651999999999
100
AcDbArc
 50
347.1964227900002
 51
90.00000000000001
  0
LINE
  5
1BB
330
1F
100
AcDbEntity
  8
図枠
  6
CONTINUOUS
 62
     6
100
AcDbLine
 10
493.4990233999997
 20
987.999939
 30
0.0
 11
502.4516600999999
 21
987.999939
 31
0.0
  0
LINE
  5
1BC
330
1F
100
AcDbEntity
  8
図枠
  6
CONTINUOUS
 62
     6
100
AcDbLine
 10
489.3339844000002
 20
969.6726075000004
 30
0.0
 11
493.4990233999997
 21
987.999939
 31
0.0
  0
LINE
  5
1BD
330
1F
100
AcDbEntity
  8
図枠
  6
CONTINUOUS
 62
     6
100
AcDbLine
 10
496.1918944999996
 20
1000.732483
 30
0.0
 11
493.6748047
 21
987.999939
 31
0.0
  0
LINE
  5
1BE
330
1F
100
AcDbEntity
  8
図枠
  6
CONTINUOUS
 62
     6
100
AcDbLine
 10
499.3633194512998
 20
1016.7757673019
 30
0.0
 11
496.1918944999996
 21
1000.732483
 31
0.0
  0
ARC
  5
1BF
330
1F
100
AcDbEntity
  8
図枠
  6
CONTINUOUS
 62
     6
100
AcDbCircle
 10
473.0571289
 20
0.9999694999999065
 30
0.0
 40
999.9997406999998
100
AcDbArc
 50
85.81477285
 51
88.67432412999999
  0
LINE
  5
1C0
330
1F
100
AcDbEntity
  8
図枠
  6
CONTINUOUS
 62
     6
100
AcDbLine
 10
511.5800780999999
 20
987.999939
 30
0.0
 11
512.2221605941999
 21
1000.2324658153
 31
0.0
  0
LINE
  5
1C1
330
1F
100
AcDbEntity
  8
図枠
  6
CONTINUOUS
 62
     6
100
AcDbLine
 10
502.4516600999999
 20
987.999939
 30
0.0
 11
522.9008789
 21
987.999939
 31
0.0
  0
ARC
  5
1C2
330
1F
100
AcDbEntity
  8
図枠
  6
CONTINUOUS
 62
     6
100
AcDbCircle
 10
522.9008789
 20
980.9999694999999
 30
0.0
 40
6.999969499999999
100
AcDbArc
 50
90.00000000000001
 51
162.5828265899995
  0
ARC
  5
1C3
330
1F
100
AcDbEntity
  8
図枠
  6
CONTINUOUS
 62
     6
100
AcDbCircle
 10
573.5307616999997
 20
965.3333129999999
 30
0.0
 40
59.99900910000003
100
AcDbArc
 50
162.7800689399999
 51
177.4526875800001
  0
LINE
  5
1C4
330
1F
100
AcDbEntity
  8
図枠
  6
CONTINUOUS
 62
     6
100
AcDbLine
 10
514.4999999999999
 20
967.0000305999997
 30
0.0
 11
920.0615234
 21
967.0000305999997
 31
0.0
  0
LINE
  5
1C5
330
1F
100
AcDbEntity
  8
図枠
  6
CONTINUOUS
 62
     6
100
AcDbLine
 10
911.2487162438
 20
987.999939
 30
0.0
 11
522.9008789
 21
987.999939
 31
0.0
  0
ARC
  5
1C6
330
1F
100
AcDbEntity
  8
図枠
  6
CONTINUOUS
 62
     6
100
AcDbCircle
 10
798.9995116999997
 20
994.5000305999997
 30
0.0
 40
9.000401799999999
100
AcDbArc
 50
189.5942269400001
 51
226.24708847
  0
ARC
  5
1C7
330
1F
100
AcDbEntity
  8
図枠
  6
CONTINUOUS
 62
     6
100
AcDbCircle
 10
691.9999999999999
 20
2993.001464900001
 30
0.0
 40
2000.0002742
100
AcDbArc
 50
265.8146422
 51
270.0000174900002
  0
LINE
  5
1C8
330
1F
100
AcDbEntity
  8
図枠
  6
CONTINUOUS
 62
     6
100
AcDbLine
 10
691.9951172
 20
993.0011596999998
 30
0.0
 11
895.4832929899002
 21
992.9990161001001
 31
0.0
  0
LINE
  5
1C9
330
1F
100
AcDbEntity
  8
図枠
  6
CONTINUOUS
 62
     6
100
AcDbLine
 10
663.3005994977
 20
1020.0000611
 30
0.0
 11
503.2873836567001
 21
1020.0000611
 31
0.0
  0
LINE
  5
1CA
330
1F
100
AcDbEntity
  8
図枠
  6
CONTINUOUS
 62
     6
100
AcDbLine
 10
511.2285155999999
 20
977.0053711000003
 30
0.0
 11
509.1826172
 21
967.999939
 31
0.0
  0
ARC
  5
1CB
330
1F
100
AcDbEntity
  8
図枠
  6
CONTINUOUS
 62
     6
100
AcDbCircle
 10
798.9995116999997
 20
994.5000305999997
 30
0.0
 40
9.00050610000001
100
AcDbArc
 50
313.7642642600005
 51
350.4058152300001
  0
ARC
  5
1CC
330
1F
100
AcDbEntity
  8
図枠
  6
CONTINUOUS
 62
     6
100
AcDbCircle
 10
503.2873836567001
 20
1016.0000611
 30
0.0
 40
4.0
100
AcDbArc
 50
90.00000000000001
 51
168.8179775152019
  0
ARC
  5
1CD
330
1F
100
AcDbEntity
  8
図枠
  6
CONTINUOUS
 62
     6
100
AcDbCircle
 10
887.0000214502996
 20
966.9999103996997
 30
0.0
 40
35.00000000000002
100
AcDbArc
 50
0.0634336655914592
 51
30.00006757790988
  0
ARC
  5
1CE
330
1F
100
AcDbEntity
  8
図枠
  6
CONTINUOUS
 62
     6
100
AcDbCircle
 10
911.2487162438
 20
980.9999390000002
 30
0.0
 40
7.000000000000009
100
AcDbArc
 50
30.00006757790966
 51
90.00000000000001
  0
LINE
  5
1CF
330
1F
100
AcDbEntity
  8
図枠
  6
CONTINUOUS
 62
     6
100
AcDbLine
 10
691.9952436112999
 20
1005.0011596993
 30
0.0
 11
900.5190073995999
 21
1004.9989630531
 31
0.0
  0
ARC
  5
1D0
330
1F
100
AcDbEntity
  8
図枠
  6
CONTINUOUS
 62
     6
100
AcDbCircle
 10
663.3005994977
 20
-1479.9999389
 30
0.0
 40
2500.000000000002
100
AcDbArc
 50
85.90956065984
 51
90.00000000000001
  0
ARC
  5
1D1
330
1F
100
AcDbEntity
  8
図枠
  6
CONTINUOUS
 62
     6
100
AcDbCircle
 10
805.9626102755
 20
514.9054600301997
 30
0.0
 40
500.0000000000003
100
AcDbArc
 50
78.93407307947
 51
85.90956065984
  0
ARC
  5
1D2
330
1F
100
AcDbEntity
  8
図枠
  6
CONTINUOUS
 62
     6
100
AcDbCircle
 10
884.7702845617999
 20
982.8458435274001
 30
0.0
 40
30.00000000000002
100
AcDbArc
 50
30.33801885925982
 51
40.34975711775986
  0
ARC
  5
1D3
330
1F
100
AcDbEntity
  8
図枠
  6
CONTINUOUS
 62
     6
100
AcDbCircle
 10
900.0124116301998
 20
995.7948806511001
 30
0.0
 40
10.0
100
AcDbArc
 50
40.34975711775999
 51
78.93407307947028
  0
ARC
  5
1D4
330
1F
100
AcDbEntity
  8
図枠
  6
CONTINUOUS
 62
     6
100
AcDbCircle
 10
692.0004137026998
 20
2993.001159693001
 30
0.0
 40
1988.0
100
AcDbArc
 50
265.8146296666002
 51
269.9998509938001
  0
ARC
  5
1D5
330
1F
100
AcDbEntity
  8
図枠
  6
CONTINUOUS
 62
     6
100
AcDbCircle
 10
473.0783014398997
 20
0.9996377752997887
 30
0.0
 40
1012.0
100
AcDbArc
 50
85.81624876961995
 51
88.38147417813998
  0
LINE
  5
1D6
330
1F
100
AcDbEntity
  8
図枠
  6
CONTINUOUS
 62
     6
100
AcDbLine
 10
895.4832929899002
 20
992.9990161001001
 30
0.0
 11
910.6621019346002
 21
997.9988562026
 31
0.0
  0
LINE
  5
1D7
330
1F
100
AcDbEntity
  8
図枠
  6
CONTINUOUS
 62
     6
100
AcDbLine
 10
509.1826172
 20
967.999939
 30
0.0
 11
513.5917969000002
 21
967.999939
 31
0.0
  0
ARC
  5
1D8
330
1F
100
AcDbEntity
  8
図枠
  6
CONTINUOUS
 62
     6
100
AcDbCircle
 10
515.1176757999999
 20
968.4999694999999
 30
0.0
 40
1.4993565
100
AcDbArc
 50
199.4749665400001
 51
270.0000000000002
  0
LINE
  5
1D9
330
1F
100
AcDbEntity
  8
図枠
  6
CONTINUOUS
 62
     6
100
AcDbLine
 10
811.3408202999998
 20
964.1889039
 30
0.0
 11
921.9999999999999
 21
967.038659813
 31
0.0
  0
LINE
  5
1DA
330
1F
100
AcDbEntity
  8
図枠
  6
CONTINUOUS
 62
     6
100
AcDbLine
 10
453.0009765
 20
2198.0000305
 30
0.0
 11
491.4995116999998
 21
2198.0000305
 31
0.0
  0
LINE
  5
1DB
330
1F
100
AcDbEntity
  8
図枠
  6
CONTINUOUS
 62
     6
100
AcDbLine
 10
453.0009765
 20
2198.0000305
 30
0.0
 11
453.0009765
 21
2168.0000305
 31
0.0
  0
LINE
  5
1DC
330
1F
100
AcDbEntity
  8
図枠
  6
CONTINUOUS
 62
     6
100
AcDbLine
 10
453.0009765
 20
2168.0000305
 30
0.0
 11
496.4995116999998
 21
2168.0000305
 31
0.0
  0
LINE
  5
1DD
330
1F
100
AcDbEntity
  8
図枠
  6
CONTINUOUS
 62
     6
100
AcDbLine
 10
496.4995116999998
 20
2187.5
 30
0.0
 11
483.0009765
 21
2187.5
 31
0.0
  0
LINE
  5
1DE
330
1F
100
AcDbEntity
  8
図枠
  6
CONTINUOUS
 62
     6
100
AcDbLine
 10
491.5000000000001
 20
2187.5
 30
0.0
 11
491.5000000000001
 21
2312.5
 31
0.0
  0
LINE
  5
1DF
330
1F
100
AcDbEntity
  8
図枠
  6
CONTINUOUS
 62
     6
100
AcDbLine
 10
491.5000000000001
 20
2219.25
 30
0.0
 11
497.8650394745
 21
2219.25
 31
0.0
  0
LINE
  5
1E0
330
1F
100
AcDbEntity
  8
図枠
  6
CONTINUOUS
 62
     6
100
AcDbLine
 10
500.0
 20
2342.124720566199
 30
0.0
 11
500.0
 21
2157.8752794338
 31
0.0
  0
LINE
  5
1E1
330
1F
100
AcDbEntity
  8
図枠
  6
CONTINUOUS
 62
     6
100
AcDbLine
 10
497.8650394745
 20
2152.4305254736
 30
0.0
 11
497.8650394745
 21
2219.25
 31
0.0
  0
ARC
  5
1E2
330
1F
100
AcDbEntity
  8
図枠
  6
CONTINUOUS
 62
     6
100
AcDbCircle
 10
525.0
 20
2157.8752794338
 30
0.0
 40
25.00000000000001
100
AcDbArc
 50
180.0
 51
236.4282962890002
  0
ARC
  5
1E3
330
1F
100
AcDbEntity
  8
図枠
  6
CONTINUOUS
 62
     6
100
AcDbCircle
 10
527.8650394745
 20
2152.4305254736
 30
0.0
 40
30.00000000000002
100
AcDbArc
 50
180.0
 51
237.4423860435
  0
ARC
  5
1E4
330
1F
100
AcDbEntity
  8
図枠
  6
CONTINUOUS
 62
     6
100
AcDbCircle
 10
691.9999999999999
 20
2409.5
 30
0.0
 40
327.0000000000002
100
AcDbArc
 50
236.4282962890002
 51
274.6846263096003
  0
ARC
  5
1E5
330
1F
100
AcDbEntity
  8
図枠
  6
CONTINUOUS
 62
     6
100
AcDbCircle
 10
691.9999999999999
 20
2409.5
 30
0.0
 40
335.0
100
AcDbArc
 50
237.4423860435
 51
274.6846263096003
  0
ARC
  5
1E6
330
1F
100
AcDbEntity
  8
図枠
  6
CONTINUOUS
 62
     6
100
AcDbCircle
 10
540.9785024883998
 20
2128.719689191
 30
0.0
 40
25.00000000000001
100
AcDbArc
 50
190.3705022209001
 51
242.3103867812002
  0
ARC
  5
1E7
330
1F
100
AcDbEntity
  8
図枠
  6
CONTINUOUS
 62
     6
100
AcDbCircle
 10
691.9999999999999
 20
2416.5
 30
0.0
 40
350.0
100
AcDbArc
 50
242.3103867812002
 51
274.7481976089001
  0
ARC
  5
1E8
330
1F
100
AcDbEntity
  8
図枠
  6
CONTINUOUS
 62
     6
100
AcDbCircle
 10
701.5193386529997
 20
2301.894667699899
 30
0.0
 40
235.0000000000002
100
AcDbArc
 50
274.7481976089001
 51
328.7383768379003
  0
ARC
  5
1E9
330
1F
100
AcDbEntity
  8
図枠
  6
CONTINUOUS
 62
     6
100
AcDbCircle
 10
700.9021484206996
 20
2300.8641322882
 30
0.0
 40
218.0
100
AcDbArc
 50
274.6846263096004
 51
329.4266287493003
  0
ARC
  5
1EA
330
1F
100
AcDbEntity
  8
図枠
  6
CONTINUOUS
 62
     6
100
AcDbCircle
 10
700.9021484206996
 20
2300.8641322882
 30
0.0
 40
226.0
100
AcDbArc
 50
274.6846263096003
 51
329.4266287493003
  0
ARC
  5
1EB
330
1F
100
AcDbEntity
  8
図枠
  6
CONTINUOUS
 62
     6
100
AcDbCircle
 10
786.9999999999999
 20
2250.0
 30
0.0
 40
135.0000000000001
100
AcDbArc
 50
328.7383768379004
 51
31.26162316206992
  0
ARC
  5
1EC
330
1F
100
AcDbEntity
  8
図枠
  6
CONTINUOUS
 62
     6
100
AcDbCircle
 10
766.9323208349
 20
2250.0
 30
0.0
 40
143.7297810997
100
AcDbArc
 50
334.003099724
 51
25.99690027596995
  0
ARC
  5
1ED
330
1F
100
AcDbEntity
  8
図枠
  6
CONTINUOUS
 62
     6
100
AcDbCircle
 10
786.9999999999999
 20
2250.0
 30
0.0
 40
118.0
100
AcDbArc
 50
329.4266287493
 51
30.57337125068988
  0
ARC
  5
1EE
330
1F
100
AcDbEntity
  8
図枠
  6
CONTINUOUS
 62
     6
100
AcDbCircle
 10
700.9021484206996
 20
2199.1358677118
 30
0.0
 40
218.0
100
AcDbArc
 50
30.57337125068988
 51
85.31537369045
  0
ARC
  5
1EF
330
1F
100
AcDbEntity
  8
図枠
  6
CONTINUOUS
 62
     6
100
AcDbCircle
 10
700.9021484206996
 20
2199.1358677118
 30
0.0
 40
226.0
100
AcDbArc
 50
30.57337125068993
 51
85.31537369045
  0
ARC
  5
1F0
330
1F
100
AcDbEntity
  8
図枠
  6
CONTINUOUS
 62
     6
100
AcDbCircle
 10
701.5193386529997
 20
2198.1053323001
 30
0.0
 40
235.0000000000002
100
AcDbArc
 50
31.26162316206987
 51
85.25180239114994
  0
ARC
  5
1F1
330
1F
100
AcDbEntity
  8
図枠
  6
CONTINUOUS
 62
     6
100
AcDbCircle
 10
691.9999999999999
 20
2090.5
 30
0.0
 40
327.0000000000002
100
AcDbArc
 50
85.31537369045
 51
123.5717037109999
  0
ARC
  5
1F2
330
1F
100
AcDbEntity
  8
図枠
  6
CONTINUOUS
 62
     6
100
AcDbCircle
 10
691.9999999999999
 20
2090.5
 30
0.0
 40
335.0
100
AcDbArc
 50
85.31537369045
 51
122.5576139565
  0
ARC
  5
1F3
330
1F
100
AcDbEntity
  8
図枠
  6
CONTINUOUS
 62
     6
100
AcDbCircle
 10
691.9999999999999
 20
2083.5
 30
0.0
 40
350.0
100
AcDbArc
 50
85.25180239114994
 51
117.6896132187999
  0
ARC
  5
1F4
330
1F
100
AcDbEntity
  8
図枠
  6
CONTINUOUS
 62
     6
100
AcDbCircle
 10
540.9785024883998
 20
2371.280310809
 30
0.0
 40
25.00000000000001
100
AcDbArc
 50
117.6896132188
 51
169.6294977790999
  0
ARC
  5
1F5
330
1F
100
AcDbEntity
  8
図枠
  6
CONTINUOUS
 62
     6
100
AcDbCircle
 10
527.8650394745
 20
2347.5694745264
 30
0.0
 40
30.00000000000002
100
AcDbArc
 50
122.5576139565
 51
180.0
  0
ARC
  5
1F6
330
1F
100
AcDbEntity
  8
図枠
  6
CONTINUOUS
 62
     6
100
AcDbCircle
 10
525.0
 20
2342.124720566199
 30
0.0
 40
25.00000000000001
100
AcDbArc
 50
123.571703711
 51
180.0
  0
LINE
  5
1F7
330
1F
100
AcDbEntity
  8
図枠
  6
CONTINUOUS
 62
     6
100
AcDbLine
 10
497.8650394745
 20
2280.75
 30
0.0
 11
497.8650394745
 21
2347.5694745264
 31
0.0
  0
LINE
  5
1F8
330
1F
100
AcDbEntity
  8
図枠
  6
CONTINUOUS
 62
     6
100
AcDbLine
 10
496.4995116999998
 20
2331.9999695
 30
0.0
 11
453.0009765
 21
2331.9999695
 31
0.0
  0
LINE
  5
1F9
330
1F
100
AcDbEntity
  8
図枠
  6
CONTINUOUS
 62
     6
100
AcDbLine
 10
453.0009765
 20
2301.9999695
 30
0.0
 11
453.0009765
 21
2331.9999695
 31
0.0
  0
LINE
  5
1FA
330
1F
100
AcDbEntity
  8
図枠
  6
CONTINUOUS
 62
     6
100
AcDbLine
 10
453.0009765
 20
2301.9999695
 30
0.0
 11
491.4995116999998
 21
2301.9999695
 31
0.0
  0
LINE
  5
1FB
330
1F
100
AcDbEntity
  8
図枠
  6
CONTINUOUS
 62
     6
100
AcDbLine
 10
496.4995116999998
 20
2312.5
 30
0.0
 11
483.0009765
 21
2312.5
 31
0.0
  0
LINE
  5
1FC
330
1F
100
AcDbEntity
  8
図枠
  6
CONTINUOUS
 62
     6
100
AcDbLine
 10
491.5000000000001
 20
2280.75
 30
0.0
 11
497.8650394745
 21
2280.75
 31
0.0
  0
LINE
  5
1FD
330
1F
100
AcDbEntity
  8
図枠
  6
CONTINUOUS
 62
     6
100
AcDbLine
 10
1260.0003051
 20
2614.0
 30
0.0
 11
1960.0
 21
2614.0
 31
0.0
  0
LINE
  5
1FE
330
1F
100
AcDbEntity
  8
図枠
  6
CONTINUOUS
 62
     6
100
AcDbLine
 10
1260.0003051
 20
2679.000000000001
 30
0.0
 11
1960.0
 21
2679.000000000001
 31
0.0
  0
LINE
  5
1FF
330
1F
100
AcDbEntity
  8
図枠
  6
CONTINUOUS
 62
     6
100
AcDbLine
 10
1260.0003051
 20
2744.000000000001
 30
0.0
 11
1960.0
 21
2744.000000000001
 31
0.0
  0
LINE
  5
200
330
1F
100
AcDbEntity
  8
図枠
  6
CONTINUOUS
 62
     6
100
AcDbLine
 10
1260.0003051
 20
2549.0
 30
0.0
 11
1960.0
 21
2549.0
 31
0.0
  0
LINE
  5
201
330
1F
100
AcDbEntity
  8
図枠
  6
CONTINUOUS
 62
     6
100
AcDbLine
 10
1260.0003051
 20
2484.0
 30
0.0
 11
1960.0
 21
2484.0
 31
0.0
  0
LINE
  5
202
330
1F
100
AcDbEntity
  8
図枠
  6
CONTINUOUS
 62
     6
100
AcDbLine
 10
1260.0003051
 20
2744.000000000001
 30
0.0
 11
1260.0003051
 21
2484.0
 31
0.0
  0
LINE
  5
203
330
1F
100
AcDbEntity
  8
図枠
  6
CONTINUOUS
 62
     6
100
AcDbLine
 10
1590.0
 20
2744.000000000001
 30
0.0
 11
1590.0
 21
2484.0
 31
0.0
  0
LINE
  5
204
330
1F
100
AcDbEntity
  8
図枠
  6
CONTINUOUS
 62
     6
100
AcDbLine
 10
1870.0
 20
2744.000000000001
 30
0.0
 11
1870.0
 21
2484.0
 31
0.0
  0
LINE
  5
205
330
1F
100
AcDbEntity
  8
図枠
  6
CONTINUOUS
 62
     6
100
AcDbLine
 10
1960.0
 20
2744.000000000001
 30
0.0
 11
1960.0
 21
2484.0
 31
0.0
  0
LINE
  5
206
330
1F
100
AcDbEntity
  8
図枠
  6
CONTINUOUS
 62
     6
100
AcDbLine
 10
1498.0
 20
1795.0
 30
0.0
 11
1681.0
 21
1795.0
 31
0.0
  0
LINE
  5
207
330
1F
100
AcDbEntity
  8
図枠
  6
CONTINUOUS
 62
     6
100
AcDbLine
 10
1498.0
 20
1791.5
 30
0.0
 11
1681.0
 21
1791.5
 31
0.0
  0
LINE
  5
208
330
1F
100
AcDbEntity
  8
図枠
  6
EXLTYPE3
 62
     6
100
AcDbLine
 10
666.9999999999999
 20
543.9394588699997
 30
0.0
 11
666.9999999999999
 21
748.9999999999998
 31
0.0
  0
LINE
  5
209
330
1F
100
AcDbEntity
  8
図枠
  6
EXLTYPE3
 62
     6
100
AcDbLine
 10
1549.0
 20
547.8394588700002
 30
0.0
 11
1549.0
 21
1039.999939
 31
0.0
  0
LINE
  5
20A
330
1F
100
AcDbEntity
  8
図枠
  6
EXLTYPE3
 62
     6
100
AcDbLine
 10
1581.0
 20
1924.0
 30
0.0
 11
1581.0
 21
2181.0
 31
0.0
  0
LINE
  5
20B
330
1F
100
AcDbEntity
  8
図枠
  6
EXLTYPE3
 62
     6
100
AcDbLine
 10
476.9999999999999
 20
2195.2
 30
0.0
 11
476.9999999999999
 21
2165.0
 31
0.0
  0
LINE
  5
20C
330
1F
100
AcDbEntity
  8
図枠
  6
EXLTYPE3
 62
     6
100
AcDbLine
 10
476.9999999999999
 20
2308.0
 30
0.0
 11
476.9999999999999
 21
2336.4
 31
0.0
  0
LINE
  5
20D
330
1F
100
AcDbEntity
  8
図枠
  6
CONTINUOUS
 62
     7
100
AcDbLine
 10
356.9999999999999
 20
1864.0
 30
0.0
 11
356.9999999999999
 21
2650.0
 31
0.0
  0
LINE
  5
20E
330
1F
100
AcDbEntity
  8
図枠
  6
CONTINUOUS
 62
     7
100
AcDbLine
 10
1081.0
 20
2650.0
 30
0.0
 11
356.9999999999999
 21
2650.0
 31
0.0
  0
LINE
  5
20F
330
1F
100
AcDbEntity
  8
図枠
  6
CONTINUOUS
 62
     7
100
AcDbLine
 10
356.9999999999999
 20
603.9999999999998
 30
0.0
 11
356.9999999999999
 21
1554.0
 31
0.0
  0
LINE
  5
210
330
1F
100
AcDbEntity
  8
図枠
  6
CONTINUOUS
 62
     7
100
AcDbLine
 10
356.9999999999999
 20
603.9999999999998
 30
0.0
 11
1203.0
 21
603.9999999999998
 31
0.0
  0
LINE
  5
211
330
1F
100
AcDbEntity
  8
図枠
  6
CONTINUOUS
 62
     7
100
AcDbLine
 10
1949.0
 20
603.9999999999998
 30
0.0
 11
1280.0
 21
603.9999999999998
 31
0.0
  0
LINE
  5
212
330
1F
100
AcDbEntity
  8
図枠
  6
CONTINUOUS
 62
     7
100
AcDbLine
 10
1949.0
 20
603.9999999999998
 30
0.0
 11
1949.0
 21
1554.0
 31
0.0
  0
TEXT
  5
213
330
1F
100
AcDbEntity
  8
図枠
  6
CONTINUOUS
 62
     2
100
AcDbText
 10
647.5
 20
273.75
 30
0.0
 40
42.5
  1
承認
 41
1.303826737967914
  7
EXCADSTD
 72
     5
 11
734.577
 21
273.75
 31
0.0
100
AcDbText
  0
TEXT
  5
214
330
1F
100
AcDbEntity
  8
図枠
  6
CONTINUOUS
 62
     2
100
AcDbText
 10
853.0000004172325
 20
227.5
 30
0.0
 40
65.0
  1
非水洗腰掛大便器
 41
1.154828150572831
  7
EXCADSTD
 72
     5
 11
1357.000000417233
 21
227.5
 31
0.0
100
AcDbText
  0
TEXT
  5
215
330
1F
100
AcDbEntity
  8
図枠
  6
CONTINUOUS
 62
     2
100
AcDbText
 10
1458.4388733
 20
228.75
 30
0.0
 40
65.0
  1
Ｃ９Ｍ
 41
1.108597285067873
  7
EXCADSTD
 72
     5
 11
1633.4388733
 21
228.75
 31
0.0
100
AcDbText
  0
TEXT
  5
216
330
1F
100
AcDbEntity
  8
図枠
  6
CONTINUOUS
 62
     2
100
AcDbText
 10
251.9999999999999
 20
541.4999999999998
 30
0.0
 40
40.0
  1
ＮＴ７Ｂカラー
 41
1.139634146341463
  7
EXCADSTD
 72
     5
 11
518.9999999999999
 21
541.4999999999998
 31
0.0
100
AcDbText
  0
POLYLINE
  5
217
330
1F
100
AcDbEntity
  8
図枠
  6
CONTINUOUS
 62
     6
100
AcDb2dPolyline
 66
     1
 10
0.0
 20
0.0
 30
0.0
 70
   128
  0
VERTEX
  5
218
330
217
100
AcDbEntity
  8
図枠
  6
CONTINUOUS
 62
     6
100
AcDbVertex
100
AcDb2dVertex
 10
535.72061681473
 20
588.9999879999999
 30
0.0
  0
VERTEX
  5
219
330
217
100
AcDbEntity
  8
図枠
  6
CONTINUOUS
 62
     6
100
AcDbVertex
100
AcDb2dVertex
 10
490.9999999999999
 20
538.0000000000001
 30
0.0
  0
SEQEND
  5
21A
330
217
100
AcDbEntity
  8
図枠
  6
CONTINUOUS
 62
     6
  0
LINE
  5
21B
330
1F
100
AcDbEntity
  8
図枠
  6
CONTINUOUS
 62
     6
100
AcDbLine
 10
517.0309746410514
 20
558.8383392851562
 30
0.0
 11
535.72061681473
 21
588.9999879999999
 31
0.0
  0
LINE
  5
21C
330
1F
100
AcDbEntity
  8
図枠
  6
CONTINUOUS
 62
     6
100
AcDbLine
 10
535.72061681473
 20
588.9999879999999
 30
0.0
 11
508.259069229409
 21
566.5302042449895
 31
0.0
  0
LINE
  5
21D
330
1F
100
AcDbEntity
  8
図枠
  6
CONTINUOUS
 62
     6
100
AcDbLine
 10
255.0
 20
538.0000000000001
 30
0.0
 11
490.9999999999999
 21
538.0000000000001
 31
0.0
  0
TEXT
  5
21E
330
1F
100
AcDbEntity
  8
図枠
  6
CONTINUOUS
 62
     2
100
AcDbText
 10
1495.0
 20
1798.5
 30
0.0
 40
40.0
  1
切込穴寸法
 41
1.164655172413793
  7
EXCADSTD
 72
     5
 11
1688.0
 21
1798.5
 31
0.0
100
AcDbText
  0
LINE
  5
21F
330
1F
100
AcDbEntity
  8
図枠
  6
EXLTYPE3
 62
     6
100
AcDbLine
 10
1420.74770105
 20
2054.0
 30
0.0
 11
1742.0
 21
2054.0
 31
0.0
  0
LINE
  5
220
330
1F
100
AcDbEntity
  8
図枠
  6
CONTINUOUS
 62
     2
100
AcDbLine
 10
463.9406531499998
 20
2345.99873265
 30
0.0
 11
497.8650394745
 21
2347.998737717164
 31
0.0
  0
ARC
  5
221
330
1F
100
AcDbEntity
  8
図枠
  6
CONTINUOUS
 62
     2
100
AcDbCircle
 10
465.0
 20
2328.02993235
 30
0.0
 40
18.0
100
AcDbArc
 50
93.37395533999992
 51
180.0
  0
LINE
  5
222
330
1F
100
AcDbEntity
  8
図枠
  6
CONTINUOUS
 62
     2
100
AcDbLine
 10
446.9999999999999
 20
2171.97006766
 30
0.0
 11
446.9999999999999
 21
2328.02993235
 31
0.0
  0
ARC
  5
223
330
1F
100
AcDbEntity
  8
図枠
  6
CONTINUOUS
 62
     2
100
AcDbCircle
 10
465.0
 20
2171.97006766
 30
0.0
 40
18.0
100
AcDbArc
 50
180.0
 51
266.6260446600007
  0
LINE
  5
224
330
1F
100
AcDbEntity
  8
図枠
  6
CONTINUOUS
 62
     2
100
AcDbLine
 10
463.9406531499998
 20
2154.001267359999
 30
0.0
 11
497.8681133401869
 21
2152.001081073731
 31
0.0
  0
LINE
  5
225
330
1F
100
AcDbEntity
  8
図枠
  6
CONTINUOUS
 62
     2
100
AcDbLine
 10
451.9999999999999
 20
953.9999999999998
 30
0.0
 11
910.0
 21
953.9999999999998
 31
0.0
  0
ARC
  5
226
330
1F
100
AcDbEntity
  8
図枠
  6
CONTINUOUS
 62
     2
100
AcDbCircle
 10
451.9999999999999
 20
948.9999999999998
 30
0.0
 40
5.0
100
AcDbArc
 50
90.00000000000001
 51
180.0
  0
LINE
  5
227
330
1F
100
AcDbEntity
  8
図枠
  6
CONTINUOUS
 62
     2
100
AcDbLine
 10
446.9999999999999
 20
928.2356354499996
 30
0.0
 11
446.9999999999999
 21
948.9999999999998
 31
0.0
  0
ARC
  5
228
330
1F
100
AcDbEntity
  8
図枠
  6
CONTINUOUS
 62
     2
100
AcDbCircle
 10
451.9999999999999
 20
928.2356354499996
 30
0.0
 40
5.0
100
AcDbArc
 50
180.0
 51
260.5376777900013
  0
LINE
  5
229
330
1F
100
AcDbEntity
  8
図枠
  6
CONTINUOUS
 62
     2
100
AcDbLine
 10
451.1780050599998
 20
923.30366583
 30
0.0
 11
477.0000000184945
 21
918.9999999999998
 31
0.0
  0
LINE
  5
22A
330
1F
100
AcDbEntity
  8
図枠
  6
CONTINUOUS
 62
     2
100
AcDbLine
 10
914.2050192438509
 20
918.9999999999998
 30
0.0
 11
477.0000000184899
 21
918.9999999999998
 31
0.0
  0
LINE
  5
22B
330
1F
100
AcDbEntity
  8
図枠
  6
CONTINUOUS
 62
     2
100
AcDbLine
 10
516.25940735
 20
872.6816994399996
 30
0.0
 11
487.5207820513123
 21
906.5875674611016
 31
0.0
  0
ARC
  5
22C
330
1F
100
AcDbEntity
  8
図枠
  6
CONTINUOUS
 62
     2
100
AcDbCircle
 10
478.1173122999999
 20
840.3524466700003
 30
0.0
 40
50.00000000000004
100
AcDbArc
 50
0.8184554600000143
 51
40.28462177000007
  0
LINE
  5
22D
330
1F
100
AcDbEntity
  8
図枠
  6
CONTINUOUS
 62
     2
100
AcDbLine
 10
528.1122110399999
 20
841.0666594999998
 30
0.0
 11
531.0682655699998
 21
634.1428425699996
 31
0.0
  0
ARC
  5
22E
330
1F
100
AcDbEntity
  8
図枠
  6
CONTINUOUS
 62
     2
100
AcDbCircle
 10
521.0692858199999
 20
633.9999999999998
 30
0.0
 40
10.0
100
AcDbArc
 50
270.0000000000002
 51
0.8184554599993841
  0
LINE
  5
22F
330
1F
100
AcDbEntity
  8
図枠
  6
CONTINUOUS
 62
     2
100
AcDbLine
 10
826.9999999999999
 20
623.9999999999998
 30
0.0
 11
506.9999999999999
 21
623.9999999999998
 31
0.0
  0
ARC
  5
230
330
1F
100
AcDbEntity
  8
図枠
  6
CONTINUOUS
 62
     2
100
AcDbCircle
 10
506.9999999999999
 20
613.9999999999998
 30
0.0
 40
10.0
100
AcDbArc
 50
90.00000000000001
 51
180.0
  0
LINE
  5
231
330
1F
100
AcDbEntity
  8
図枠
  6
CONTINUOUS
 62
     2
100
AcDbLine
 10
496.9999999999999
 20
606.0000000000002
 30
0.0
 11
496.9999999999999
 21
613.9999999999998
 31
0.0
  0
ARC
  5
232
330
1F
100
AcDbEntity
  8
図枠
  6
CONTINUOUS
 62
     2
100
AcDbCircle
 10
499.0000000000001
 20
606.0000000000002
 30
0.0
 40
2.0
100
AcDbArc
 50
180.0
 51
270.0000000000002
  0
LINE
  5
233
330
1F
100
AcDbEntity
  8
図枠
  6
CONTINUOUS
 62
     2
100
AcDbLine
 10
836.9999999999999
 20
606.0000000000002
 30
0.0
 11
836.9999999999999
 21
613.9999999999998
 31
0.0
  0
ARC
  5
234
330
1F
100
AcDbEntity
  8
図枠
  6
CONTINUOUS
 62
     2
100
AcDbCircle
 10
826.9999999999999
 20
613.9999999999998
 30
0.0
 40
10.0
100
AcDbArc
 50
0.0
 51
90.00000000000001
  0
ARC
  5
235
330
1F
100
AcDbEntity
  8
図枠
  6
CONTINUOUS
 62
     2
100
AcDbCircle
 10
835.0
 20
606.0000000000002
 30
0.0
 40
2.0
100
AcDbArc
 50
270.0000000000002
 51
0.0
  0
ARC
  5
236
330
1F
100
AcDbEntity
  8
図枠
  6
CONTINUOUS
 62
     2
100
AcDbCircle
 10
814.8252176743052
 20
633.9999999999998
 30
0.0
 40
10.0
100
AcDbArc
 50
171.53897132026
 51
270.0000000000002
  0
ARC
  5
237
330
1F
100
AcDbEntity
  8
図枠
  6
CONTINUOUS
 62
     2
100
AcDbCircle
 10
1090.788629456377
 20
592.9488689851416
 30
0.0
 40
289.0000000000001
100
AcDbArc
 50
147.6213560014148
 51
171.53897132026
  0
ARC
  5
238
330
1F
100
AcDbEntity
  8
図枠
  6
CONTINUOUS
 62
     2
100
AcDbCircle
 10
457.3929392600002
 20
994.58290594
 30
0.0
 40
461.0000000000006
100
AcDbArc
 50
327.6213560014148
 51
350.2544978546066
  0
ARC
  5
239
330
1F
100
AcDbEntity
  8
図枠
  6
CONTINUOUS
 62
     2
100
AcDbCircle
 10
913.9999999999999
 20
921.9999999999999
 30
0.0
 40
3.0
100
AcDbArc
 50
276.6720539936867
 51
0.0
  0
ARC
  5
23A
330
1F
100
AcDbEntity
  8
図枠
  6
CONTINUOUS
 62
     2
100
AcDbCircle
 10
914.6971178265784
 20
916.0406353748147
 30
0.0
 40
2.99999999998686
100
AcDbArc
 50
96.67205399354921
 51
170.2544978546063
  0
LINE
  5
23B
330
1F
100
AcDbEntity
  8
図枠
  6
CONTINUOUS
 62
     2
100
AcDbLine
 10
916.9999999999999
 20
921.9999999999999
 30
0.0
 11
916.9999999999999
 21
946.9999999999999
 31
0.0
  0
ARC
  5
23C
330
1F
100
AcDbEntity
  8
図枠
  6
CONTINUOUS
 62
     2
100
AcDbCircle
 10
910.0
 20
946.9999999999999
 30
0.0
 40
7.000000000000009
100
AcDbArc
 50
0.0
 51
90.00000000000001
  0
ARC
  5
23D
330
1F
100
AcDbEntity
  8
図枠
  6
CONTINUOUS
 62
     2
100
AcDbCircle
 10
1418.999999999999
 20
613.9999999999998
 30
0.0
 40
10.0
100
AcDbArc
 50
90.00000000000001
 51
180.0
  0
LINE
  5
23E
330
1F
100
AcDbEntity
  8
図枠
  6
CONTINUOUS
 62
     2
100
AcDbLine
 10
1408.999999999999
 20
606.0000000000002
 30
0.0
 11
1408.999999999999
 21
613.9999999999998
 31
0.0
  0
ARC
  5
23F
330
1F
100
AcDbEntity
  8
図枠
  6
CONTINUOUS
 62
     2
100
AcDbCircle
 10
1410.999999999999
 20
606.0000000000002
 30
0.0
 40
2.0
100
AcDbArc
 50
180.0
 51
270.0000000000002
  0
LINE
  5
240
330
1F
100
AcDbEntity
  8
図枠
  6
CONTINUOUS
 62
     2
100
AcDbLine
 10
1419.0
 20
623.9999999999998
 30
0.0
 11
1679.0
 21
623.9999999999998
 31
0.0
  0
ARC
  5
241
330
1F
100
AcDbEntity
  8
図枠
  6
CONTINUOUS
 62
     2
100
AcDbCircle
 10
1035.0
 20
596.3734040515089
 30
0.0
 40
409.0000000000003
100
AcDbArc
 50
5.411161130514292
 51
22.55473109612259
  0
ARC
  5
242
330
1F
100
AcDbEntity
  8
図枠
  6
CONTINUOUS
 62
     2
100
AcDbCircle
 10
1432.221901809717
 20
633.9999999999998
 30
0.0
 40
10.0
100
AcDbArc
 50
332.1960229649658
 51
5.41116113051349
  0
ARC
  5
243
330
1F
100
AcDbEntity
  8
図枠
  6
CONTINUOUS
 62
     2
100
AcDbCircle
 10
1819.986523759999
 20
922.4043190199995
 30
0.0
 40
441.0000000000006
100
AcDbArc
 50
180.8163181999999
 51
202.5547310961228
  0
ARC
  5
244
330
1F
100
AcDbEntity
  8
図枠
  6
CONTINUOUS
 62
     2
100
AcDbCircle
 10
1382.574950979999
 20
946.9999999999999
 30
0.0
 40
7.000000000000009
100
AcDbArc
 50
90.00000000000001
 51
176.4131640799986
  0
LINE
  5
245
330
1F
100
AcDbEntity
  8
図枠
  6
CONTINUOUS
 62
     2
100
AcDbLine
 10
1374.005876609999
 20
922.1876836499996
 30
0.0
 11
1375.588663079999
 21
947.4379285099997
 31
0.0
  0
ARC
  5
246
330
1F
100
AcDbEntity
  8
図枠
  6
CONTINUOUS
 62
     2
100
AcDbCircle
 10
1376.999999999999
 20
921.9999999999999
 30
0.0
 40
3.0
100
AcDbArc
 50
176.4131640800002
 51
262.7374235800039
  0
ARC
  5
247
330
1F
100
AcDbEntity
  8
図枠
  6
CONTINUOUS
 62
     2
100
AcDbCircle
 10
1376.0315867
 20
916.0786677499999
 30
0.0
 40
3.0
100
AcDbArc
 50
0.8163184300037325
 51
80.7117047500011
  0
LINE
  5
248
330
1F
100
AcDbEntity
  8
図枠
  6
CONTINUOUS
 62
     2
100
AcDbLine
 10
1382.57495098
 20
953.9999999999998
 30
0.0
 11
1715.42504902
 21
953.9999999999998
 31
0.0
  0
LINE
  5
249
330
1F
100
AcDbEntity
  8
図枠
  6
CONTINUOUS
 62
     2
100
AcDbLine
 10
1376.714095223836
 20
918.9999999999998
 30
0.0
 11
1718.035324590001
 21
918.9999999999998
 31
0.0
  0
ARC
  5
24A
330
1F
100
AcDbEntity
  8
図枠
  6
CONTINUOUS
 62
     2
100
AcDbCircle
 10
1715.42504902
 20
946.9999999999999
 30
0.0
 40
7.000000000000009
100
AcDbArc
 50
3.586835920001379
 51
90.00000000000001
  0
LINE
  5
24B
330
1F
100
AcDbEntity
  8
図枠
  6
CONTINUOUS
 62
     2
100
AcDbLine
 10
1723.99412339
 20
922.1876836499996
 30
0.0
 11
1722.41133692
 21
947.4379285099997
 31
0.0
  0
ARC
  5
24C
330
1F
100
AcDbEntity
  8
図枠
  6
CONTINUOUS
 62
     2
100
AcDbCircle
 10
1721.0
 20
921.9999999999999
 30
0.0
 40
3.0
100
AcDbArc
 50
277.2625764199962
 51
3.586835919999718
  0
ARC
  5
24D
330
1F
100
AcDbEntity
  8
図枠
  6
CONTINUOUS
 62
     2
100
AcDbCircle
 10
1721.9684133
 20
916.0786677499999
 30
0.0
 40
3.0
100
AcDbArc
 50
99.28829524999882
 51
179.1836815699963
  0
ARC
  5
24E
330
1F
100
AcDbEntity
  8
図枠
  6
CONTINUOUS
 62
     2
100
AcDbCircle
 10
1278.01347624
 20
922.4043190199995
 30
0.0
 40
441.0000000000006
100
AcDbArc
 50
337.4452689038774
 51
359.1836818000002
  0
ARC
  5
24F
330
1F
100
AcDbEntity
  8
図枠
  6
CONTINUOUS
 62
     2
100
AcDbCircle
 10
2063.0
 20
596.3734040515089
 30
0.0
 40
409.0000000000003
100
AcDbArc
 50
157.4452689038774
 51
174.5888388694856
  0
ARC
  5
250
330
1F
100
AcDbEntity
  8
図枠
  6
CONTINUOUS
 62
     2
100
AcDbCircle
 10
1665.778098190281
 20
633.9999999999998
 30
0.0
 40
10.0
100
AcDbArc
 50
174.5888388694866
 51
206.4361989471912
  0
ARC
  5
251
330
1F
100
AcDbEntity
  8
図枠
  6
CONTINUOUS
 62
     2
100
AcDbCircle
 10
1679.0
 20
613.9999999999998
 30
0.0
 40
10.0
100
AcDbArc
 50
0.0
 51
90.00000000000001
  0
LINE
  5
252
330
1F
100
AcDbEntity
  8
図枠
  6
CONTINUOUS
 62
     2
100
AcDbLine
 10
1689.0
 20
606.0000000000002
 30
0.0
 11
1689.0
 21
613.9999999999998
 31
0.0
  0
ARC
  5
253
330
1F
100
AcDbEntity
  8
図枠
  6
CONTINUOUS
 62
     2
100
AcDbCircle
 10
1687.0
 20
606.0000000000002
 30
0.0
 40
2.0
100
AcDbArc
 50
270.0000000000002
 51
0.0
  0
LINE
  5
254
330
1F
100
AcDbEntity
  8
図枠
  6
CONTINUOUS
 62
     2
100
AcDbLine
 10
1654.0
 20
596.3734040515089
 30
0.0
 11
1654.0
 21
558.0000000000001
 31
0.0
  0
ARC
  5
255
330
1F
100
AcDbEntity
  8
図枠
  6
CONTINUOUS
 62
     2
100
AcDbCircle
 10
1652.0
 20
558.0000000000001
 30
0.0
 40
2.0
100
AcDbArc
 50
270.0000000000002
 51
0.0
  0
LINE
  5
256
330
1F
100
AcDbEntity
  8
図枠
  6
CONTINUOUS
 62
     2
100
AcDbLine
 10
1446.0
 20
556.0000000000002
 30
0.0
 11
1652.0
 21
556.0000000000002
 31
0.0
  0
ARC
  5
257
330
1F
100
AcDbEntity
  8
図枠
  6
CONTINUOUS
 62
     2
100
AcDbCircle
 10
1446.0
 20
558.0000000000001
 30
0.0
 40
2.0
100
AcDbArc
 50
180.0
 51
270.0000000000002
  0
LINE
  5
258
330
1F
100
AcDbEntity
  8
図枠
  6
CONTINUOUS
 62
     2
100
AcDbLine
 10
1444.0
 20
596.3734040515089
 30
0.0
 11
1444.0
 21
558.0000000000001
 31
0.0
  0
ARC
  5
259
330
1F
100
AcDbEntity
  8
図枠
  6
CONTINUOUS
 62
     2
100
AcDbCircle
 10
1035.0
 20
596.3734040515089
 30
0.0
 40
409.0000000000003
100
AcDbArc
 50
0.0
 51
1.068452535378212
  0
ARC
  5
25A
330
1F
100
AcDbEntity
  8
図枠
  6
CONTINUOUS
 62
     2
100
AcDbCircle
 10
2063.0
 20
596.3734040515089
 30
0.0
 40
409.0000000000003
100
AcDbArc
 50
178.9315474646218
 51
180.0
  0
ARC
  5
25B
330
1F
100
AcDbEntity
  8
図枠
  6
CONTINUOUS
 62
     2
100
AcDbCircle
 10
1568.888935057221
 20
2940.926658363511
 30
0.0
 40
1000.000000000001
100
AcDbArc
 50
267.0582321087393
 51
272.7810250037464
  0
ARC
  5
25C
330
1F
100
AcDbEntity
  8
図枠
  6
CONTINUOUS
 62
     2
100
AcDbCircle
 10
1521.673633253917
 20
2022.139024970666
 30
0.0
 40
80.0
100
AcDbArc
 50
193.1545434260025
 51
267.0582321087401
  0
ARC
  5
25D
330
1F
100
AcDbEntity
  8
図枠
  6
CONTINUOUS
 62
     2
100
AcDbCircle
 10
1657.999999999972
 20
2054.0
 30
0.0
 40
220.0000000000002
100
AcDbArc
 50
166.8454565739974
 51
193.1545434260028
  0
ARC
  5
25E
330
1F
100
AcDbEntity
  8
図枠
  6
CONTINUOUS
 62
     2
100
AcDbCircle
 10
1521.673633253917
 20
2085.860975029334
 30
0.0
 40
80.0
100
AcDbArc
 50
92.94176789126068
 51
166.8454565739972
  0
ARC
  5
25F
330
1F
100
AcDbEntity
  8
図枠
  6
CONTINUOUS
 62
     2
100
AcDbCircle
 10
1568.888935057221
 20
1167.073341636489
 30
0.0
 40
1000.000000000001
100
AcDbArc
 50
87.21897499625352
 51
92.94176789126068
  0
ARC
  5
260
330
1F
100
AcDbEntity
  8
図枠
  6
CONTINUOUS
 62
     2
100
AcDbCircle
 10
1611.972458650063
 20
2054.0
 30
0.0
 40
112.0275413499374
100
AcDbArc
 50
272.7810250037464
 51
87.21897499625352
  0
ARC
  5
261
330
1F
100
AcDbEntity
  8
図枠
  6
EXLTYPE1
 62
     2
100
AcDbCircle
 10
497.3844486300004
 20
2428.109310679999
 30
0.0
 40
80.0
100
AcDbArc
 50
273.3739553400002
 51
311.2390748000003
  0
LINE
  5
262
330
1F
100
AcDbEntity
  8
図枠
  6
EXLTYPE1
 62
     2
100
AcDbLine
 10
497.8398200077649
 20
2347.997250908803
 30
0.0
 11
502.0926568300001
 21
2348.24797601
 31
0.0
  0
ARC
  5
263
330
1F
100
AcDbEntity
  8
図枠
  6
EXLTYPE1
 62
     2
100
AcDbCircle
 10
701.7372055800001
 20
2195.0
 30
0.0
 40
230.0000000000002
100
AcDbArc
 50
29.99999999999995
 51
131.23907825
  0
ARC
  5
264
330
1F
100
AcDbEntity
  8
図枠
  6
EXLTYPE1
 62
     2
100
AcDbCircle
 10
796.9999999999999
 20
2250.0
 30
0.0
 40
120.0000000000001
100
AcDbArc
 50
330.0000000000004
 51
30.00000109999991
  0
ARC
  5
265
330
1F
100
AcDbEntity
  8
図枠
  6
EXLTYPE1
 62
     2
100
AcDbCircle
 10
701.7372055800001
 20
2305.0
 30
0.0
 40
230.0000000000002
100
AcDbArc
 50
228.7609217499999
 51
330.0000000000004
  0
ARC
  5
266
330
1F
100
AcDbEntity
  8
図枠
  6
EXLTYPE1
 62
     2
100
AcDbCircle
 10
497.3844486300004
 20
2071.890689319999
 30
0.0
 40
80.0
100
AcDbArc
 50
48.76092520000002
 51
86.62604466
  0
LINE
  5
267
330
1F
100
AcDbEntity
  8
図枠
  6
EXLTYPE1
 62
     2
100
AcDbLine
 10
497.8681133401918
 20
2152.001081073731
 30
0.0
 11
502.0926568300001
 21
2151.752024
 31
0.0
  0
CIRCLE
  5
268
330
1F
100
AcDbEntity
  8
図枠
  6
EXLTYPE1
 62
     2
100
AcDbCircle
 10
476.9999999999999
 20
2180.0
 30
0.0
 40
6.0009766
  0
CIRCLE
  5
269
330
1F
100
AcDbEntity
  8
図枠
  6
EXLTYPE1
 62
     2
100
AcDbCircle
 10
476.9999999999999
 20
2320.0
 30
0.0
 40
6.0009766
  0
ARC
  5
26A
330
1F
100
AcDbEntity
  8
図枠
  6
EXLTYPE1
 62
     6
100
AcDbCircle
 10
587.6312715900002
 20
2299.102535550001
 30
0.0
 40
90.0
100
AcDbArc
 50
96.49814041999996
 51
145.8027032100001
  0
ARC
  5
26B
330
1F
100
AcDbEntity
  8
図枠
  6
EXLTYPE1
 62
     6
100
AcDbCircle
 10
587.6312715900002
 20
2299.102535550001
 30
0.0
 40
90.0
100
AcDbArc
 50
145.8027032100001
 51
178.52687014
  0
ARC
  5
26C
330
1F
100
AcDbEntity
  8
図枠
  6
EXLTYPE1
 62
     6
100
AcDbCircle
 10
587.6312715900002
 20
2299.102535550001
 30
0.0
 40
90.0
100
AcDbArc
 50
91.29569253000005
 51
96.49814041999996
  0
ARC
  5
26D
330
1F
100
AcDbEntity
  8
図枠
  6
EXLTYPE1
 62
     6
100
AcDbCircle
 10
666.9999999999999
 20
-1210.000000000001
 30
0.0
 40
3600.000000000003
100
AcDbArc
 50
88.64389204
 51
91.29569253000001
  0
ARC
  5
26E
330
1F
100
AcDbEntity
  8
図枠
  6
EXLTYPE1
 62
     6
100
AcDbCircle
 10
751.2521675500001
 20
2349.00289018
 30
0.0
 40
40.0
100
AcDbArc
 50
49.60197903999994
 51
88.64389203999988
  0
ARC
  5
26F
330
1F
100
AcDbEntity
  8
図枠
  6
EXLTYPE1
 62
     6
100
AcDbCircle
 10
666.9999999999999
 20
2250.0
 30
0.0
 40
170.0
100
AcDbArc
 50
310.3980196800002
 51
49.60197904000005
  0
ARC
  5
270
330
1F
100
AcDbEntity
  8
図枠
  6
EXLTYPE1
 62
     6
100
AcDbCircle
 10
666.9999999999999
 20
5710.0
 30
0.0
 40
3600.000000000003
100
AcDbArc
 50
268.7043074700001
 51
271.3561079600001
  0
ARC
  5
271
330
1F
100
AcDbEntity
  8
図枠
  6
EXLTYPE1
 62
     6
100
AcDbCircle
 10
751.2521675500001
 20
2150.99710983
 30
0.0
 40
40.0
100
AcDbArc
 50
271.3561079600001
 51
310.3980209600002
  0
ARC
  5
272
330
1F
100
AcDbEntity
  8
図枠
  6
EXLTYPE1
 62
     6
100
AcDbCircle
 10
587.6312715900002
 20
2200.89746446
 30
0.0
 40
90.0
100
AcDbArc
 50
214.1972967900001
 51
263.5018595800001
  0
ARC
  5
273
330
1F
100
AcDbEntity
  8
図枠
  6
EXLTYPE1
 62
     6
100
AcDbCircle
 10
587.6312715900002
 20
2200.89746446
 30
0.0
 40
90.0
100
AcDbArc
 50
263.5018595800001
 51
268.7043074700001
  0
ARC
  5
274
330
1F
100
AcDbEntity
  8
図枠
  6
EXLTYPE1
 62
     6
100
AcDbCircle
 10
587.6312715900002
 20
2200.89746446
 30
0.0
 40
90.0
100
AcDbArc
 50
181.4731298600004
 51
214.1972967900001
  0
CIRCLE
  5
275
330
1F
100
AcDbEntity
  8
図枠
  6
EXLTYPE1
 62
     6
100
AcDbCircle
 10
536.9999999999999
 20
2145.0
 30
0.0
 40
4.0
  0
ARC
  5
276
330
1F
100
AcDbEntity
  8
図枠
  6
EXLTYPE1
 62
     6
100
AcDbCircle
 10
2497.0
 20
2250.0
 30
0.0
 40
2000.000000000001
100
AcDbArc
 50
178.52687014
 51
181.47313002
  0
CIRCLE
  5
277
330
1F
100
AcDbEntity
  8
図枠
  6
EXLTYPE1
 62
     6
100
AcDbCircle
 10
536.9999999999999
 20
2355.0
 30
0.0
 40
4.0
  0
CIRCLE
  5
278
330
1F
100
AcDbEntity
  8
図枠
  6
EXLTYPE1
 62
     6
100
AcDbCircle
 10
766.9999999999999
 20
2365.0
 30
0.0
 40
4.0
  0
CIRCLE
  5
279
330
1F
100
AcDbEntity
  8
図枠
  6
EXLTYPE1
 62
     6
100
AcDbCircle
 10
766.9999999999999
 20
2135.0
 30
0.0
 40
4.0
  0
LINE
  5
27A
330
1F
100
AcDbEntity
  8
図枠
  6
EXLTYPE3
 62
     6
100
AcDbLine
 10
531.0
 20
2250.0
 30
0.0
 11
426.9999999999999
 21
2250.0
 31
0.0
  0
LINE
  5
27B
330
1F
100
AcDbEntity
  8
図枠
  6
EXLTYPE3
 62
     6
100
AcDbLine
 10
936.9999999999999
 20
2250.0
 30
0.0
 11
747.0
 21
2250.0
 31
0.0
  0
LINE
  5
27C
330
1F
100
AcDbEntity
  8
図枠
  6
EXLTYPE3
 62
     6
100
AcDbLine
 10
692.0
 20
2250.0
 30
0.0
 11
589.0
 21
2250.0
 31
0.0
  0
LINE
  5
27D
330
1F
100
AcDbEntity
  8
図枠
  6
CONTINUOUS
 62
     1
100
AcDbLine
 10
471.9999999999999
 20
860.0
 30
0.0
 11
481.9999999999999
 21
860.0
 31
0.0
  0
LINE
  5
27E
330
1F
100
AcDbEntity
  8
図枠
  6
CONTINUOUS
 62
     1
100
AcDbLine
 10
471.9999999999999
 20
860.0
 30
0.0
 11
471.9999999999999
 21
900.2999999999997
 31
0.0
  0
LINE
  5
27F
330
1F
100
AcDbEntity
  8
図枠
  6
CONTINUOUS
 62
     1
100
AcDbLine
 10
481.9999999999999
 20
900.2999999999997
 30
0.0
 11
481.9999999999999
 21
860.0
 31
0.0
  0
LINE
  5
280
330
1F
100
AcDbEntity
  8
図枠
  6
CONTINUOUS
 62
     1
100
AcDbLine
 10
471.9999999999999
 20
860.0
 30
0.0
 11
470.9999999999999
 21
860.5773502692
 31
0.0
  0
LINE
  5
281
330
1F
100
AcDbEntity
  8
図枠
  6
CONTINUOUS
 62
     1
100
AcDbLine
 10
481.9999999999999
 20
860.0
 30
0.0
 11
482.9999999999998
 21
860.5773502692
 31
0.0
  0
LINE
  5
282
330
1F
100
AcDbEntity
  8
図枠
  6
CONTINUOUS
 62
     1
100
AcDbLine
 10
482.9999999999998
 20
860.5773502692
 30
0.0
 11
470.9999999999999
 21
860.5773502692
 31
0.0
  0
TEXT
  5
283
330
1F
100
AcDbEntity
  8
図枠
  6
CONTINUOUS
 62
     2
100
AcDbText
 10
400.4999999999998
 20
2445.0
 30
0.0
 40
40.0
  1
Ｗ.Ｌ.
 50
90.00000000000004
 41
1.120673076923077
  7
EXCADSTD
 72
     5
 11
400.4999999999998
 21
2556.0
 31
0.0
100
AcDbText
  0
TEXT
  5
284
330
1F
100
AcDbEntity
  8
図枠
  6
CONTINUOUS
 62
     2
100
AcDbText
 10
657.1040038999998
 20
2607.0458985
 30
0.0
 40
40.0
  1
Ｗ.Ｌ.
 41
1.120673076923077
  7
EXCADSTD
 72
     5
 11
768.1040038999998
 21
2607.0458985
 31
0.0
100
AcDbText
  0
TEXT
  5
285
330
1F
100
AcDbEntity
  8
図枠
  6
CONTINUOUS
 62
     2
100
AcDbText
 10
1893.75
 20
2492.75
 30
0.0
 40
45.0
  1
４
 41
1.12
  7
EXCADSTD
 72
     5
 11
1929.75
 21
2492.75
 31
0.0
100
AcDbText
  0
TEXT
  5
286
330
1F
100
AcDbEntity
  8
図枠
  6
CONTINUOUS
 62
     7
100
AcDbText
 10
1464.25
 20
115.7499999999999
 30
0.0
 40
70.0
  1
Ｃ０１０５３３１
 41
1.127659574468085
  7
EXCADSTD
 72
     5
 11
1994.25
 21
115.7499999999999
 31
0.0
100
AcDbText
  0
TEXT
  5
287
330
1F
100
AcDbEntity
  8
図枠
  6
CONTINUOUS
 62
     6
100
AcDbText
 10
252.7191161165536
 20
109.4500732
 30
0.0
 40
30.0
  1
10
 41
0.408648648648649
  7
EXCADSTD
 72
     5
 11
274.3191161165536
 21
109.4500732
 31
0.0
100
AcDbText
  0
TEXT
  5
288
330
1F
100
AcDbEntity
  8
図枠
  6
CONTINUOUS
 62
     6
100
AcDbText
 10
309.7441158542927
 20
109.4500732
 30
0.0
 40
30.0
  1
6
 41
0.4683823529411765
  7
EXCADSTD
 72
     5
 11
321.1191158542927
 21
109.4500732
 31
0.0
100
AcDbText
  0
TEXT
  5
289
330
1F
100
AcDbEntity
  8
図枠
  6
CONTINUOUS
 62
     2
100
AcDbText
 10
400.4999999999998
 20
1429.0
 30
0.0
 40
40.0
  1
Ｗ.Ｌ.
 50
90.00000000000004
 41
1.120673076923077
  7
EXCADSTD
 72
     5
 11
400.4999999999998
 21
1540.0
 31
0.0
100
AcDbText
  0
TEXT
  5
28A
330
1F
100
AcDbEntity
  8
図枠
  6
CONTINUOUS
 62
     2
100
AcDbText
 10
917.9999999999999
 20
607.5
 30
0.0
 40
40.0
  1
Ｆ.Ｌ.
 41
1.120673076923078
  7
EXCADSTD
 72
     5
 11
1029.0
 21
607.5
 31
0.0
100
AcDbText
  0
TEXT
  5
28B
330
1F
100
AcDbEntity
  8
図枠
  6
CONTINUOUS
 62
     2
100
AcDbText
 10
1775.0
 20
607.5
 30
0.0
 40
40.0
  1
Ｆ.Ｌ.
 41
1.120673076923077
  7
EXCADSTD
 72
     5
 11
1886.0
 21
607.5
 31
0.0
100
AcDbText
  0
TEXT
  5
28C
330
1F
100
AcDbEntity
  8
図枠
  6
CONTINUOUS
 62
     2
100
AcDbText
 10
1945.0
 20
1428.0
 30
0.0
 40
40.0
  1
Ｗ.Ｌ.
 50
90.0
 41
1.120673076923077
  7
EXCADSTD
 72
     5
 11
1945.0
 21
1539.0
 31
0.0
100
AcDbText
  0
LINE
  5
28D
330
1F
100
AcDbEntity
  8
図枠
  6
CONTINUOUS
 62
     7
100
AcDbLine
 10
190.0
 20
100.0
 30
0.0
 11
190.0
 21
2900.0
 31
0.0
  0
LINE
  5
28E
330
1F
100
AcDbEntity
  8
図
  6
EXLTYPE3
 62
     6
100
AcDbLine
 10
490.4
 20
2180.0
 30
0.0
 11
461.4
 21
2180.0
 31
0.0
  0
LINE
  5
28F
330
1F
100
AcDbEntity
  8
図
  6
EXLTYPE3
 62
     6
100
AcDbLine
 10
490.4
 20
2320.0
 30
0.0
 11
461.4
 21
2320.0
 31
0.0
  0
LINE
  5
290
330
1F
100
AcDbEntity
  8
図
  6
EXLTYPE3
 62
     6
100
AcDbLine
 10
537.0
 20
2363.3
 30
0.0
 11
537.0
 21
2346.3
 31
0.0
  0
LINE
  5
291
330
1F
100
AcDbEntity
  8
図
  6
EXLTYPE3
 62
     6
100
AcDbLine
 10
528.9
 20
2355.0
 30
0.0
 11
545.9
 21
2355.0
 31
0.0
  0
LINE
  5
292
330
1F
100
AcDbEntity
  8
図
  6
EXLTYPE3
 62
     6
100
AcDbLine
 10
530.7
 20
2145.0
 30
0.0
 11
544.5
 21
2145.0
 31
0.0
  0
LINE
  5
293
330
1F
100
AcDbEntity
  8
図
  6
EXLTYPE3
 62
     6
100
AcDbLine
 10
537.0
 20
2153.2
 30
0.0
 11
537.0
 21
2137.8
 31
0.0
  0
LINE
  5
294
330
1F
100
AcDbEntity
  8
図
  6
EXLTYPE3
 62
     6
100
AcDbLine
 10
774.70980317663
 20
2365.0
 30
0.0
 11
760.4
 21
2365.0
 31
0.0
  0
LINE
  5
295
330
1F
100
AcDbEntity
  8
図
  6
EXLTYPE3
 62
     6
100
AcDbLine
 10
767.0
 20
2373.2
 30
0.0
 11
767.0
 21
2357.6
 31
0.0
  0
LINE
  5
296
330
1F
100
AcDbEntity
  8
図
  6
EXLTYPE3
 62
     6
100
AcDbLine
 10
767.0
 20
2143.7
 30
0.0
 11
767.0
 21
2127.7
 31
0.0
  0
LINE
  5
297
330
1F
100
AcDbEntity
  8
図
  6
EXLTYPE3
 62
     6
100
AcDbLine
 10
774.7098031766327
 20
2135.0
 30
0.0
 11
759.8999999999999
 21
2135.0
 31
0.0
  0
DIMENSION
  5
299
330
1F
100
AcDbEntity
  8
寸法
  6
CONTINUOUS
 62
     3
100
AcDbDimension
  2
*D16
 10
580.6
 20
2145.0
 30
0.0
 11
557.5999998807908
 21
2250.0
 31
0.0
 70
   160
  3
ISO-25
100
AcDbAlignedDimension
 13
545.9
 23
2355.0
 33
0.0
 14
544.5
 24
2145.0
 34
0.0
 50
90.0
100
AcDbRotatedDimension
1001
ACAD
1000
DSTYLE
1002
{
1070
   270
1070
     2
1070
     6
1000
EX_NORM
1070
     7
1000
EX_NORM
1070
    41
1040
30.0
1070
    42
1040
0.0000000000001137
1070
    44
1040
10.00000000000023
1070
    73
1070
     0
1070
    74
1070
     0
1070
    75
1070
     0
1070
    76
1070
     0
1070
    77
1070
     1
1070
    78
1070
     8
1070
   140
1040
40.0
1070
   147
1040
0.0
1070
   173
1070
     1
1070
   176
1070
     3
1070
   177
1070
     3
1070
   178
1070
     2
1070
   271
1070
     1
1070
   277
1070
     2
1070
   279
1070
     2
1070
   280
1070
     0
1070
   287
1070
     5
1070
   340
1005
298
1002
}
  0
DIMENSION
  5
2A6
330
1F
100
AcDbEntity
  8
寸法
  6
CONTINUOUS
 62
     3
100
AcDbDimension
  2
*D17
 10
740.7
 20
2135.0
 30
0.0
 11
717.6999998807909
 21
2250.0
 31
0.0
 70
   160
  3
ISO-25
100
AcDbAlignedDimension
 13
760.4
 23
2365.0
 33
0.0
 14
759.8999999999999
 24
2135.0
 34
0.0
 50
90.0
100
AcDbRotatedDimension
1001
ACAD
1000
DSTYLE
1002
{
1070
   270
1070
     2
1070
     6
1000
EX_NORM
1070
     7
1000
EX_NORM
1070
    41
1040
30.0
1070
    42
1040
0.0000000000002274
1070
    44
1040
9.999999999999773
1070
    73
1070
     0
1070
    74
1070
     0
1070
    75
1070
     0
1070
    76
1070
     0
1070
    77
1070
     1
1070
    78
1070
     8
1070
   140
1040
40.0
1070
   147
1040
0.0
1070
   173
1070
     1
1070
   176
1070
     3
1070
   177
1070
     3
1070
   178
1070
     2
1070
   271
1070
     1
1070
   277
1070
     2
1070
   279
1070
     2
1070
   280
1070
     0
1070
   287
1070
     5
1070
   340
1005
298
1002
}
  0
DIMENSION
  5
2B3
330
1F
100
AcDbEntity
  8
寸法
  6
CONTINUOUS
 62
     3
100
AcDbDimension
  2
*D18
 10
414.0000000000001
 20
2180.0
 30
0.0
 11
390.9999998807909
 21
2250.0
 31
0.0
 70
   160
  3
ISO-25
100
AcDbAlignedDimension
 13
461.4
 23
2320.0
 33
0.0
 14
461.4
 24
2180.0
 34
0.0
 50
90.0
100
AcDbRotatedDimension
1001
ACAD
1000
DSTYLE
1002
{
1070
   270
1070
     2
1070
     6
1000
EX_NORM
1070
     7
1000
EX_NORM
1070
    41
1040
30.0
1070
    42
1040
0.0000000000001705
1070
    44
1040
9.999999999999716
1070
    73
1070
     0
1070
    74
1070
     0
1070
    75
1070
     0
1070
    76
1070
     0
1070
    77
1070
     1
1070
    78
1070
     8
1070
   140
1040
40.0
1070
   147
1040
0.0
1070
   173
1070
     1
1070
   176
1070
     3
1070
   177
1070
     3
1070
   178
1070
     2
1070
   271
1070
     1
1070
   277
1070
     2
1070
   279
1070
     2
1070
   280
1070
     0
1070
   287
1070
     5
1070
   340
1005
298
1002
}
  0
DIMENSION
  5
2C0
330
1F
100
AcDbEntity
  8
寸法
  6
CONTINUOUS
 62
     3
100
AcDbDimension
  2
*D19
 10
917.0
 20
2004.0
 30
0.0
 11
697.0000000000001
 21
2027.000000119209
 31
0.0
 70
   160
  3
ISO-25
100
AcDbAlignedDimension
 13
477.0
 23
2165.0
 33
0.0
 14
917.0
 24
2250.0
 34
0.0
100
AcDbRotatedDimension
1001
ACAD
1000
DSTYLE
1002
{
1070
   270
1070
     2
1070
     6
1000
EX_NORM
1070
     7
1000
EX_NORM
1070
    41
1040
30.0
1070
    42
1040
6.99999988079071
1070
    44
1040
10.0
1070
    73
1070
     0
1070
    74
1070
     0
1070
    75
1070
     0
1070
    76
1070
     0
1070
    77
1070
     1
1070
    78
1070
     8
1070
   140
1040
40.0
1070
   147
1040
0.0
1070
   173
1070
     1
1070
   176
1070
     3
1070
   177
1070
     3
1070
   178
1070
     2
1070
   271
1070
     1
1070
   277
1070
     2
1070
   279
1070
     2
1070
   280
1070
     0
1070
   287
1070
     5
1070
   340
1005
298
1002
}
  0
DIMENSION
  5
2CD
330
1F
100
AcDbEntity
  8
寸法
  6
CONTINUOUS
 62
     3
100
AcDbDimension
  2
*D20
 10
447.0
 20
1932.0
 30
0.0
 11
682.0000000000001
 21
1955.000000119209
 31
0.0
 70
   160
  3
ISO-25
100
AcDbAlignedDimension
 13
917.0
 23
2250.0
 33
0.0
 14
447.0
 24
2250.0
 34
0.0
100
AcDbRotatedDimension
1001
ACAD
1000
DSTYLE
1002
{
1070
   270
1070
     2
1070
     6
1000
EX_NORM
1070
     7
1000
EX_NORM
1070
    41
1040
30.0
1070
    42
1040
6.99999988079071
1070
    44
1040
10.0
1070
    73
1070
     0
1070
    74
1070
     0
1070
    75
1070
     0
1070
    76
1070
     0
1070
    77
1070
     1
1070
    78
1070
     8
1070
   140
1040
40.0
1070
   147
1040
0.0
1070
   173
1070
     1
1070
   176
1070
     3
1070
   177
1070
     3
1070
   178
1070
     2
1070
   271
1070
     1
1070
   277
1070
     2
1070
   279
1070
     2
1070
   280
1070
     0
1070
   287
1070
     5
1070
   340
1005
298
1002
}
  0
DIMENSION
  5
2DA
330
1F
100
AcDbEntity
  8
寸法
  6
CONTINUOUS
 62
     3
100
AcDbDimension
  2
*D21
 10
1010.0
 20
2075.0
 30
0.0
 11
986.9999998807908
 21
2250.0
 31
0.0
 70
   160
  3
ISO-25
100
AcDbAlignedDimension
 13
701.7372055800001
 23
2425.0
 33
0.0
 14
701.7372055800001
 24
2075.0
 34
0.0
 50
90.0
100
AcDbRotatedDimension
1001
ACAD
1000
DSTYLE
1002
{
1070
   270
1070
     2
1070
     6
1000
EX_NORM
1070
     7
1000
EX_NORM
1070
    41
1040
30.0
1070
    42
1040
6.99999988079071
1070
    44
1040
10.0
1070
    73
1070
     0
1070
    74
1070
     0
1070
    75
1070
     0
1070
    76
1070
     0
1070
    77
1070
     1
1070
    78
1070
     8
1070
   140
1040
40.0
1070
   147
1040
0.0
1070
   173
1070
     1
1070
   176
1070
     3
1070
   177
1070
     3
1070
   178
1070
     2
1070
   271
1070
     1
1070
   277
1070
     2
1070
   279
1070
     2
1070
   280
1070
     0
1070
   287
1070
     5
1070
   340
1005
298
1002
}
  0
DIMENSION
  5
2E7
330
1F
100
AcDbEntity
  8
寸法
  6
CONTINUOUS
 62
     3
100
AcDbDimension
  2
*D22
 10
447.0
 20
784.0
 30
0.0
 11
557.0000000000001
 21
807.0000001192093
 31
0.0
 70
   160
  1
　　220
  3
ISO-25
100
AcDbAlignedDimension
 13
667.0
 23
749.0
 33
0.0
 14
447.0
 24
934.0
 34
0.0
100
AcDbRotatedDimension
1001
ACAD
1000
DSTYLE
1002
{
1070
   270
1070
     2
1070
     6
1000
EX_NORM
1070
     7
1000
EX_NORM
1070
    41
1040
30.0
1070
    42
1040
6.99999988079071
1070
    44
1040
10.0
1070
    73
1070
     0
1070
    74
1070
     0
1070
    75
1070
     0
1070
    76
1070
     0
1070
    77
1070
     1
1070
    78
1070
     8
1070
   140
1040
40.0
1070
   147
1040
0.0
1070
   173
1070
     1
1070
   176
1070
     3
1070
   177
1070
     3
1070
   178
1070
     2
1070
   271
1070
     1
1070
   277
1070
     2
1070
   279
1070
     2
1070
   280
1070
     0
1070
   287
1070
     5
1070
   340
1005
298
1002
}
  0
LINE
  5
2F4
330
1F
100
AcDbEntity
  8
寸法
  6
CONTINUOUS
 62
     3
100
AcDbLine
 10
767.0
 20
638.5
 30
0.0
 11
767.0
 21
697.9999999999999
 31
0.0
  0
DIMENSION
  5
2F5
330
1F
100
AcDbEntity
  8
寸法
  6
CONTINUOUS
 62
     3
100
AcDbDimension
  2
*D23
 10
1079.0
 20
604.0
 30
0.0
 11
1055.999999880791
 21
779.0
 31
0.0
 70
   160
  3
ISO-25
100
AcDbAlignedDimension
 13
910.0
 23
954.0
 33
0.0
 14
1083.0
 24
604.0
 34
0.0
 50
90.0
100
AcDbRotatedDimension
1001
ACAD
1000
DSTYLE
1002
{
1070
   270
1070
     2
1070
     6
1000
EX_NORM
1070
     7
1000
EX_NORM
1070
    41
1040
30.0
1070
    42
1040
6.99999988079071
1070
    44
1040
10.0
1070
    73
1070
     0
1070
    74
1070
     0
1070
    75
1070
     0
1070
    76
1070
     0
1070
    77
1070
     1
1070
    78
1070
     8
1070
   140
1040
40.0
1070
   147
1040
0.0
1070
   173
1070
     1
1070
   176
1070
     3
1070
   177
1070
     3
1070
   178
1070
     2
1070
   271
1070
     1
1070
   277
1070
     2
1070
   279
1070
     2
1070
   280
1070
     0
1070
   287
1070
     5
1070
   340
1005
298
1002
}
  0
DIMENSION
  5
302
330
1F
100
AcDbEntity
  8
寸法
  6
CONTINUOUS
 62
     3
100
AcDbDimension
  2
*D24
 10
1078.9
 20
555.9999999999999
 30
0.0
 11
1055.899999880791
 21
490.9999999999997
 31
0.0
 70
   160
  1
48
  3
ISO-25
100
AcDbAlignedDimension
 13
1079.0
 23
604.0
 33
0.0
 14
800.0
 24
556.0
 34
0.0
 50
90.0
100
AcDbRotatedDimension
1001
ACAD
1000
DSTYLE
1002
{
1070
   270
1070
     2
1070
     6
1000
EX_NORM
1070
     7
1000
EX_NORM
1070
    41
1040
30.0
1070
    42
1040
6.99999988079071
1070
    44
1040
10.0
1070
    73
1070
     0
1070
    74
1070
     0
1070
    75
1070
     0
1070
    76
1070
     0
1070
    77
1070
     1
1070
    78
1070
     8
1070
   140
1040
40.0
1070
   147
1040
0.0
1070
   173
1070
     1
1070
   176
1070
     3
1070
   177
1070
     3
1070
   178
1070
     2
1070
   271
1070
     1
1070
   277
1070
     2
1070
   279
1070
     2
1070
   280
1070
     2
1070
   287
1070
     5
1070
   340
1005
298
1002
}
  0
DIMENSION
  5
311
330
1F
100
AcDbEntity
  8
寸法
  6
CONTINUOUS
 62
     3
100
AcDbDimension
  2
*D25
 10
1654.0
 20
487.5
 30
0.0
 11
1549.0
 21
510.5000001192093
 31
0.0
 70
   160
  3
ISO-25
100
AcDbAlignedDimension
 13
1444.0
 23
558.0
 33
0.0
 14
1654.0
 24
558.0
 34
0.0
100
AcDbRotatedDimension
1001
ACAD
1000
DSTYLE
1002
{
1070
   270
1070
     2
1070
     6
1000
EX_NORM
1070
     7
1000
EX_NORM
1070
    41
1040
30.0
1070
    42
1040
6.99999988079071
1070
    44
1040
10.0
1070
    73
1070
     0
1070
    74
1070
     0
1070
    75
1070
     0
1070
    76
1070
     0
1070
    77
1070
     1
1070
    78
1070
     8
1070
   140
1040
40.0
1070
   147
1040
0.0
1070
   173
1070
     1
1070
   176
1070
     3
1070
   177
1070
     3
1070
   178
1070
     2
1070
   271
1070
     1
1070
   277
1070
     2
1070
   279
1070
     2
1070
   280
1070
     0
1070
   287
1070
     5
1070
   340
1005
298
1002
}
  0
DIMENSION
  5
31E
330
1F
100
AcDbEntity
  8
寸法
  6
CONTINUOUS
 62
     3
100
AcDbDimension
  2
*D26
 10
1724.0
 20
1861.0
 30
0.0
 11
1581.0
 21
1884.00000011921
 31
0.0
 70
   160
  3
ISO-25
100
AcDbAlignedDimension
 13
1438.0
 23
2054.0
 33
0.0
 14
1724.0
 24
2054.0
 34
0.0
100
AcDbRotatedDimension
1001
ACAD
1000
DSTYLE
1002
{
1070
   270
1070
     2
1070
     6
1000
EX_NORM
1070
     7
1000
EX_NORM
1070
    41
1040
30.0
1070
    42
1040
6.99999988079071
1070
    44
1040
10.0
1070
    73
1070
     0
1070
    74
1070
     0
1070
    75
1070
     0
1070
    76
1070
     0
1070
    77
1070
     1
1070
    78
1070
     8
1070
   140
1040
40.0
1070
   147
1040
0.0
1070
   173
1070
     1
1070
   176
1070
     3
1070
   177
1070
     3
1070
   178
1070
     2
1070
   271
1070
     1
1070
   277
1070
     2
1070
   279
1070
     2
1070
   280
1070
     0
1070
   287
1070
     5
1070
   340
1005
298
1002
}
  0
DIMENSION
  5
32B
330
1F
100
AcDbEntity
  8
寸法
  6
CONTINUOUS
 62
     3
100
AcDbDimension
  2
*D27
 10
1581.0
 20
2232.0
 30
0.0
 11
1652.5
 21
2255.000000119209
 31
0.0
 70
   160
  3
ISO-25
100
AcDbAlignedDimension
 13
1724.0
 23
2054.0
 33
0.0
 14
1581.0
 24
2181.0
 34
0.0
100
AcDbRotatedDimension
1001
ACAD
1000
DSTYLE
1002
{
1070
   270
1070
     2
1070
     6
1000
EX_NORM
1070
     7
1000
EX_NORM
1070
    41
1040
30.0
1070
    42
1040
6.99999988079071
1070
    44
1040
10.0
1070
    73
1070
     0
1070
    74
1070
     0
1070
    75
1070
     0
1070
    76
1070
     0
1070
    77
1070
     1
1070
    78
1070
     8
1070
   140
1040
40.0
1070
   147
1040
0.0
1070
   173
1070
     1
1070
   176
1070
     3
1070
   177
1070
     3
1070
   178
1070
     2
1070
   271
1070
     1
1070
   277
1070
     2
1070
   279
1070
     2
1070
   280
1070
     0
1070
   287
1070
     5
1070
   340
1005
298
1002
}
  0
DIMENSION
  5
338
330
1F
100
AcDbEntity
  8
寸法
  6
CONTINUOUS
 62
     3
100
AcDbDimension
  2
*D28
 10
1820.0
 20
1941.0
 30
0.0
 11
1796.999999880791
 21
2054.0
 31
0.0
 70
   160
  3
ISO-25
100
AcDbAlignedDimension
 13
1581.0
 23
2167.0
 33
0.0
 14
1581.0
 24
1941.0
 34
0.0
 50
90.0
100
AcDbRotatedDimension
1001
ACAD
1000
DSTYLE
1002
{
1070
   270
1070
     2
1070
     6
1000
EX_NORM
1070
     7
1000
EX_NORM
1070
    41
1040
30.0
1070
    42
1040
6.99999988079071
1070
    44
1040
10.0
1070
    73
1070
     0
1070
    74
1070
     0
1070
    75
1070
     0
1070
    76
1070
     0
1070
    77
1070
     1
1070
    78
1070
     8
1070
   140
1040
40.0
1070
   147
1040
0.0
1070
   173
1070
     1
1070
   176
1070
     3
1070
   177
1070
     3
1070
   178
1070
     2
1070
   271
1070
     1
1070
   277
1070
     2
1070
   279
1070
     2
1070
   280
1070
     0
1070
   287
1070
     5
1070
   340
1005
298
1002
}
  0
DIMENSION
  5
345
330
1F
100
AcDbEntity
  8
寸法
  6
CONTINUOUS
 62
     3
100
AcDbDimension
  2
*D29
 10
767.0
 20
687.9999999999999
 30
0.0
 11
997.0000000000002
 21
711.000000119209
 31
0.0
 70
   160
  3
ISO-25
100
AcDbAlignedDimension
 13
917.0
 23
922.0
 33
0.0
 14
767.0
 24
687.9999999999999
 34
0.0
100
AcDbRotatedDimension
1001
ACAD
1000
DSTYLE
1002
{
1070
   270
1070
     2
1070
     6
1000
EX_NORM
1070
     7
1000
EX_NORM
1070
    41
1040
30.0
1070
    42
1040
6.99999988079071
1070
    44
1040
10.0
1070
    73
1070
     0
1070
    74
1070
     0
1070
    75
1070
     0
1070
    76
1070
     1
1070
    77
1070
     1
1070
    78
1070
     8
1070
   140
1040
40.0
1070
   147
1040
0.0
1070
   173
1070
     1
1070
   176
1070
     3
1070
   177
1070
     3
1070
   178
1070
     2
1070
   271
1070
     1
1070
   277
1070
     2
1070
   279
1070
     2
1070
   280
1070
     1
1070
   287
1070
     5
1070
   340
1005
298
1002
}
  0
DIMENSION
  5
351
330
1F
100
AcDbEntity
  8
寸法
  6
CONTINUOUS
 62
     3
100
AcDbDimension
  2
*D30
 10
802.0
 20
408.0
 30
0.0
 11
667.0
 21
431.0000001192093
 31
0.0
 70
   160
  3
ISO-25
100
AcDbAlignedDimension
 13
532.0
 23
558.0
 33
0.0
 14
802.0
 24
558.0
 34
0.0
100
AcDbRotatedDimension
1001
ACAD
1000
DSTYLE
1002
{
1070
   270
1070
     2
1070
     6
1000
EX_NORM
1070
     7
1000
EX_NORM
1070
    41
1040
30.0
1070
    42
1040
6.99999988079071
1070
    44
1040
10.0
1070
    73
1070
     0
1070
    74
1070
     0
1070
    75
1070
     0
1070
    76
1070
     0
1070
    77
1070
     1
1070
    78
1070
     8
1070
   140
1040
40.0
1070
   147
1040
0.0
1070
   173
1070
     1
1070
   176
1070
     3
1070
   177
1070
     3
1070
   178
1070
     2
1070
   271
1070
     1
1070
   277
1070
     2
1070
   279
1070
     2
1070
   280
1070
     0
1070
   287
1070
     5
1070
   340
1005
298
1002
}
  0
DIMENSION
  5
35E
330
1F
100
AcDbEntity
  8
寸法
  6
CONTINUOUS
 62
     3
100
AcDbDimension
  2
*D31
 10
767.0
 20
474.0000000000001
 30
0.0
 11
652.0
 21
497.0000001192093
 31
0.0
 70
   160
  3
ISO-25
100
AcDbAlignedDimension
 13
537.0
 23
573.999976
 33
0.0
 14
767.0
 24
573.999976
 34
0.0
100
AcDbRotatedDimension
1001
ACAD
1000
DSTYLE
1002
{
1070
   270
1070
     2
1070
     6
1000
EX_NORM
1070
     7
1000
EX_NORM
1070
    41
1040
30.0
1070
    42
1040
6.99999988079071
1070
    44
1040
10.0
1070
    73
1070
     0
1070
    74
1070
     0
1070
    75
1070
     0
1070
    76
1070
     0
1070
    77
1070
     1
1070
    78
1070
     8
1070
   140
1040
40.0
1070
   147
1040
0.0
1070
   173
1070
     1
1070
   176
1070
     3
1070
   177
1070
     3
1070
   178
1070
     2
1070
   271
1070
     1
1070
   277
1070
     2
1070
   279
1070
     2
1070
   280
1070
     0
1070
   287
1070
     5
1070
   340
1005
298
1002
}
  0
LINE
  5
36B
330
1F
100
AcDbEntity
  8
寸法
  6
EXLTYPE3
 62
     6
100
AcDbLine
 10
767.0
 20
566.99997611921
 30
0.0
 11
767.0
 21
638.5000000000003
 31
0.0
  0
LINE
  5
36C
330
1F
100
AcDbEntity
  8
寸法
  6
EXLTYPE3
 62
     6
100
AcDbLine
 10
537.0
 20
566.99997611921
 30
0.0
 11
537.0
 21
638.5
 31
0.0
  0
DIMENSION
  5
36D
330
1F
100
AcDbEntity
  8
寸法
  6
CONTINUOUS
 62
     3
100
AcDbDimension
  2
*D32
 10
1521.673633253917
 20
2085.860975029334
 30
0.0
 11
1450.592530591431
 21
2200.601887007051
 31
0.0
 70
   164
  3
ISO-25
100
AcDbRadialDimension
 15
1468.570866201281
 25
2145.694879559737
 35
0.0
 40
0.0
1001
ACAD
1000
DSTYLE
1002
{
1070
   270
1070
     2
1070
     6
1000
EX_NORM
1070
     7
1000
EX_NORM
1070
    41
1040
30.0
1070
    73
1070
     0
1070
    74
1070
     0
1070
    77
1070
     1
1070
    78
1070
     8
1070
   140
1040
40.0
1070
   147
1040
0.0
1070
   173
1070
     1
1070
   176
1070
     3
1070
   177
1070
     3
1070
   178
1070
     2
1070
   271
1070
     1
1070
   277
1070
     2
1070
   279
1070
     2
1070
   280
1070
     1
1070
   287
1070
     5
1070
   340
1005
298
1002
}
  0
DIMENSION
  5
377
330
1F
100
AcDbEntity
  8
寸法
  6
CONTINUOUS
 62
     3
100
AcDbDimension
  2
*D33
 10
1657.999999999972
 20
2054.0
 30
0.0
 11
1375.106954248201
 21
2112.690073602219
 31
0.0
 70
   164
  3
ISO-25
100
AcDbRadialDimension
 15
1439.71294737179
 25
2081.400048447055
 35
0.0
 40
0.0
1001
ACAD
1000
DSTYLE
1002
{
1070
   270
1070
     2
1070
     6
1000
EX_NORM
1070
     7
1000
EX_NORM
1070
    41
1040
30.0
1070
    73
1070
     0
1070
    74
1070
     0
1070
    77
1070
     1
1070
    78
1070
     8
1070
   140
1040
40.0
1070
   147
1040
0.0
1070
   173
1070
     1
1070
   176
1070
     3
1070
   177
1070
     3
1070
   178
1070
     2
1070
   271
1070
     1
1070
   277
1070
     2
1070
   279
1070
     2
1070
   280
1070
     1
1070
   287
1070
     5
1070
   340
1005
298
1002
}
  0
DIMENSION
  5
382
330
1F
100
AcDbEntity
  8
寸法
  6
CONTINUOUS
 62
     3
100
AcDbDimension
  2
*D34
 10
1611.972458650063
 20
2054.0
 30
0.0
 11
1641.868133923306
 21
2106.65729874071
 31
0.0
 70
   164
  1
（R112）
  3
ISO-25
100
AcDbRadialDimension
 15
1700.141751906733
 25
2123.111111606826
 35
0.0
 40
0.0
1001
ACAD
1000
DSTYLE
1002
{
1070
   270
1070
     2
1070
     6
1000
EX_NORM
1070
     7
1000
EX_NORM
1070
    41
1040
30.0
1070
    73
1070
     0
1070
    74
1070
     0
1070
    77
1070
     1
1070
    78
1070
     8
1070
   140
1040
40.0
1070
   147
1040
0.0
1070
   173
1070
     1
1070
   176
1070
     3
1070
   177
1070
     3
1070
   178
1070
     2
1070
   271
1070
     1
1070
   277
1070
     2
1070
   279
1070
     2
1070
   280
1070
     0
1070
   287
1070
     5
1070
   340
1005
381
1002
}
  0
TEXT
  5
38B
330
1F
100
AcDbEntity
  8
寸法
  6
CONTINUOUS
 62
     2
100
AcDbText
 10
1524.428536725075
 20
2329.227063507285
 30
0.0
 40
40.0
  1
Ｒ
 50
272.3386866352961
 41
1.119999999999999
  7
EXCADSTD
 72
     5
 11
1525.734343078474
 21
2297.253717267527
 31
0.0
100
AcDbText
  0
TEXT
  5
38C
330
1F
100
AcDbEntity
  8
寸法
  6
CONTINUOUS
 62
     2
100
AcDbText
 10
1525.856762424106
 20
2294.25621605755
 30
0.0
 40
40.0
  1
１０００
 50
272.3386866352961
 41
0.9891304347826073
  7
EXCADSTD
 72
     5
 11
1531.161600734792
 21
2164.364496958535
 31
0.0
100
AcDbText
  0
LINE
  5
38D
330
1F
100
AcDbEntity
  8
寸法
  6
CONTINUOUS
 62
     3
100
AcDbLine
 10
1530.5941673744
 20
2104.7406022586
 30
0.0
 11
1545.0
 21
2126.9
 31
0.0
  0
LINE
  5
38E
330
1F
100
AcDbEntity
  8
寸法
  6
CONTINUOUS
 62
     3
100
AcDbLine
 10
1545.0
 20
2126.9
 30
0.0
 11
1581.0
 21
2097.9
 31
0.0
  0
LEADER
  5
38F
330
1F
100
AcDbEntity
  8
寸法
  6
CONTINUOUS
 62
     3
100
AcDbLeader
  3
ISO-25
 76
     2
 10
1528.082486513499
 20
2166.240411628915
 30
0.0
 10
1521.490343205826
 20
2327.652461652782
 30
0.0
1001
ACAD
1000
DSTYLE
1002
{
1070
     5
1000
EX_NORM
1070
    41
1040
30.0
1070
   341
1005
4D
1002
}
  0
LINE
  5
390
330
1F
100
AcDbEntity
  8
寸法
  6
CONTINUOUS
 62
     3
100
AcDbLine
 10
1530.5941673744
 20
2104.7406022586
 30
0.0
 11
1528.0824865135
 21
2166.2404116289
 31
0.0
  0
ENDSEC
  0
SECTION
  2
OBJECTS
  0
DICTIONARY
  5
C
330
0
100
AcDbDictionary
  3
ACAD_GROUP
350
D
  3
ACAD_LAYOUT
350
1A
  3
ACAD_MATERIAL
350
3B
  3
ACAD_MLEADERSTYLE
350
3B3
  3
ACAD_MLINESTYLE
350
17
  3
ACAD_PLOTSETTINGS
350
19
  3
ACAD_VISUALSTYLE
350
2A
  3
ACDBHEADERROUNDTRIPXREC
350
391
  3
ACDBVARIABLEDICTIONARY
350
3B1
  0
DICTIONARY
  5
D
102
{ACAD_REACTORS
330
C
102
}
330
C
100
AcDbDictionary
  0
DICTIONARY
  5
1A
102
{ACAD_REACTORS
330
C
102
}
330
C
100
AcDbDictionary
  0
DICTIONARY
  5
3B
102
{ACAD_REACTORS
330
C
102
}
330
C
100
AcDbDictionary
  3
BYBLOCK
350
3D
  3
BYLAYER
350
3C
  3
GLOBAL
350
3E
  0
DICTIONARY
  5
3B3
102
{ACAD_REACTORS
330
C
102
}
330
C
100
AcDbDictionary
  0
DICTIONARY
  5
17
102
{ACAD_REACTORS
330
C
102
}
330
C
100
AcDbDictionary
  3
STANDARD
350
18
  0
DICTIONARY
  5
19
102
{ACAD_REACTORS
330
C
102
}
330
C
100
AcDbDictionary
  0
DICTIONARY
  5
2A
102
{ACAD_REACTORS
330
C
102
}
330
C
100
AcDbDictionary
  3
2DWIREFRAME
350
2F
  3
3D_HIDDEN
350
31
  3
3DWIREFRAME
350
30
  3
BASIC
350
32
  3
BRIGHTEN
350
36
  3
COLORCHANGE
350
3A
  3
CONCEPTUAL
350
34
  3
DIM
350
35
  3
FACEPATTERN
350
39
  3
FLAT
350
2B
  3
FLATWITHEDGES
350
2C
  3
GOURAUD
350
2D
  3
GOURAUDWITHEDGES
350
2E
  3
LINEPATTERN
350
38
  3
REALISTIC
350
33
  3
THICKEN
350
37
  0
DICTIONARY
  5
391
102
{ACAD_REACTORS
330
C
102
}
330
C
100
AcDbDictionary
  3
CEPSNTYPE
350
39A
  3
DIMSTYLEDATA
350
3B0
  3
FINGERPRINTGUID
350
39B
  3
HYPERLINKBASE
350
394
  3
INSUNITS
350
399
  3
LAYOUTDICT
350
396
  3
LWETCUNION
350
398
  3
PLOTSETDICT
350
397
  3
PSVPSCALE
350
39D
  3
PUCSBASE
350
3A0
  3
PUCSORGBACK
350
3A6
  3
PUCSORGBOTTOM
350
3A2
  3
PUCSORGFRONT
350
3A5
  3
PUCSORGLEFT
350
3A3
  3
PUCSORGRIGHT
350
3A4
  3
PUCSORGTOP
350
3A1
  3
PUCSORTHOREF
350
39E
  3
PUCSORTHOVIEW
350
39F
  3
STYLESHEET
350
395
  3
TSTACKALIGN
350
392
  3
TSTACKSIZE
350
393
  3
UCSBASE
350
3A9
  3
UCSORGBACK
350
3AF
  3
UCSORGBOTTOM
350
3AB
  3
UCSORGFRONT
350
3AE
  3
UCSORGLEFT
350
3AC
  3
UCSORGRIGHT
350
3AD
  3
UCSORGTOP
350
3AA
  3
UCSORTHOREF
350
3A7
  3
UCSORTHOVIEW
350
3A8
  3
VERSIONGUID
350
39C
  0
DICTIONARY
  5
3B1
102
{ACAD_REACTORS
330
C
102
}
330
C
100
AcDbDictionary
  3
DIMASSOC
350
3B6
  3
HIDETEXT
350
3B7
  3
PSOLHEIGHT
350
3B5
  3
PSOLWIDTH
350
3B4
  0
MATERIAL
  5
3D
102
{ACAD_REACTORS
330
3B
102
}
102
{ACAD_XDICTIONARY
360
3BA
102
}
330
3B
100
AcDbMaterial
  1
ByBlock
  0
MATERIAL
  5
3C
102
{ACAD_REACTORS
330
3B
102
}
102
{ACAD_XDICTIONARY
360
3B8
102
}
330
3B
100
AcDbMaterial
  1
ByLayer
  0
MATERIAL
  5
3E
102
{ACAD_REACTORS
330
3B
102
}
102
{ACAD_XDICTIONARY
360
3BC
102
}
330
3B
100
AcDbMaterial
  1
Global
  0
MLINESTYLE
  5
18
102
{ACAD_REACTORS
330
17
102
}
330
17
100
AcDbMlineStyle
  2
Standard
 70
     0
  3

 62
   256
 51
90.0
 52
90.0
 71
     2
 49
0.5
 62
   256
  6
BYLAYER
 49
-0.5
 62
   256
  6
BYLAYER
  0
ACAD_PROXY_OBJECT
  5
2F
102
{ACAD_REACTORS
330
2A
102
}
330
2A
100
AcDbProxyObject
 90
      499
 91
      501
 93
      436
310
42CC9915DA5C99599C985B595049028333333333333E3BF0000000000000FB0107901411070040501600405405064090741402480A0340
1001
ACAD
1000
AcDbSavedByObjectVersion
1070
     0
  0
ACAD_PROXY_OBJECT
  5
31
102
{ACAD_REACTORS
330
2A
102
}
330
2A
100
AcDbProxyObject
 90
      499
 91
      501
 93
      500
310
424CD108121A5919195B90640502408333333333333E3BF0000000000000FB01079024090700405020000000000001110200405405064090740C02480A0340
1001
ACAD
1000
AcDbSavedByObjectVersion
1070
     0
  0
ACAD_PROXY_OBJECT
  5
30
102
{ACAD_REACTORS
330
2A
102
}
330
2A
100
AcDbProxyObject
 90
      499
 91
      501
 93
      436
310
42CCD915DA5C99599C985B595059028333333333333E3BF0000000000000FB0107901411070040501600405405064090741402480A0340
1001
ACAD
1000
AcDbSavedByObjectVersion
1070
     0
  0
ACAD_PROXY_OBJECT
  5
32
102
{ACAD_REACTORS
330
2A
102
}
330
2A
100
AcDbProxyObject
 90
      499
 91
      501
 93
      388
310
4150985CDA58D07406404333333333333E3BF0000000000000FB0107A41107004050150841D405064090741402480A0350
1001
ACAD
1000
AcDbSavedByObjectVersion
1070
     0
  0
ACAD_PROXY_OBJECT
  5
36
102
{ACAD_REACTORS
330
2A
102
}
330
2A
100
AcDbProxyObject
 90
      499
 91
      501
 93
      428
310
42109C9A59DA1D195B90C409028333333333333E3BF0000000000000FB010790141107004050150841D405064090741402480A029950
1001
ACAD
1000
AcDbSavedByObjectVersion
1070
     0
  0
ACAD_PROXY_OBJECT
  5
3A
102
{ACAD_REACTORS
330
2A
102
}
330
2A
100
AcDbProxyObject
 90
      499
 91
      501
 93
      452
310
42D0DBDB1BDC90DA185B99D95104090240C333333333333E3BF0000000000000FB0108901411070040501508421405064090741402480A0350
1001
ACAD
1000
AcDbSavedByObjectVersion
1070
     0
  0
ACAD_PROXY_OBJECT
  5
34
102
{ACAD_REACTORS
330
2A
102
}
330
2A
100
AcDbProxyObject
 90
      499
 91
      501
 93
      500
310
4290DBDB98D95C1D1D585B10940D028333333333333E3BF0000000000000FB0107902409070040501000000000000111010841D405064090740C02480A0340
1001
ACAD
1000
AcDbSavedByObjectVersion
1070
     0
  0
ACAD_PROXY_OBJECT
  5
35
102
{ACAD_REACTORS
330
2A
102
}
330
2A
100
AcDbProxyObject
 90
      499
 91
      501
 93
      412
310
40D11A5B50B409028333333333333E3BF0000000000000FB010790141107004050150841D405064090741402480A02677FFFFFD0
1001
ACAD
1000
AcDbSavedByObjectVersion
1070
     0
  0
ACAD_PROXY_OBJECT
  5
39
102
{ACAD_REACTORS
330
2A
102
}
330
2A
100
AcDbProxyObject
 90
      499
 91
      501
 93
      444
310
42D19858D95C185D1D195C9B90F409028333333333333E3BF0000000000000FB010790141107004050150841D405064090741402480A0350
1001
ACAD
1000
AcDbSavedByObjectVersion
1070
     0
  0
ACAD_PROXY_OBJECT
  5
2B
102
{ACAD_REACTORS
330
2A
102
}
330
2A
100
AcDbProxyObject
 90
      499
 91
      501
 93
      388
310
41119B185D240901404333333333333E3BF0000000000000F9010740A41107004050150841D405064090741402480A1B50
1001
ACAD
1000
AcDbSavedByObjectVersion
1070
     0
  0
ACAD_PROXY_OBJECT
  5
2C
102
{ACAD_REACTORS
330
2A
102
}
330
2A
100
AcDbProxyObject
 90
      499
 91
      501
 93
      476
310
43519B185D15DA5D1A115919D95CD0140901404333333333333E3BF0000000000000F9010740901411070040501600405405064090741402480A1B50
1001
ACAD
1000
AcDbSavedByObjectVersion
1070
     0
  0
ACAD_PROXY_OBJECT
  5
2D
102
{ACAD_REACTORS
330
2A
102
}
330
2A
100
AcDbProxyObject
 90
      499
 91
      501
 93
      412
310
41D1DBDD5C985D5910240902404333333333333E3BF0000000000000F9010740A411070040501641D405064090741402480A1B50
1001
ACAD
1000
AcDbSavedByObjectVersion
1070
     0
  0
ACAD_PROXY_OBJECT
  5
2E
102
{ACAD_REACTORS
330
2A
102
}
330
2A
100
AcDbProxyObject
 90
      499
 91
      501
 93
      500
310
4411DBDD5C985D5915DA5D1A115919D95CD0340902404333333333333E3BF0000000000000F9010740901411070040501600405405064090741402480A1B50
1001
ACAD
1000
AcDbSavedByObjectVersion
1070
     0
  0
ACAD_PROXY_OBJECT
  5
38
102
{ACAD_REACTORS
330
2A
102
}
330
2A
100
AcDbProxyObject
 90
      499
 91
      501
 93
      444
310
42D31A5B995C185D1D195C9B90E409028333333333333E3BF0000000000000FB010790141107004050750841D405064090741402483A0350
1001
ACAD
1000
AcDbSavedByObjectVersion
1070
     0
  0
ACAD_PROXY_OBJECT
  5
33
102
{ACAD_REACTORS
330
2A
102
}
330
2A
100
AcDbProxyObject
 90
      499
 91
      501
 93
      420
310
425499585B1A5CDD1A58D08409028333333333333E3BF0000000000000FB01079019070040501508421405064090741402480A1B40
1001
ACAD
1000
AcDbSavedByObjectVersion
1070
     0
  0
ACAD_PROXY_OBJECT
  5
37
102
{ACAD_REACTORS
330
2A
102
}
330
2A
100
AcDbProxyObject
 90
      499
 91
      501
 93
      412
310
41D51A1A58DAD95B90D409028333333333333E3BF0000000000000FB010790141107004050150C41D405064090741402480A0350
1001
ACAD
1000
AcDbSavedByObjectVersion
1070
     0
  0
XRECORD
  5
39A
102
{ACAD_REACTORS
330
391
102
}
330
391
100
AcDbXrecord
 90
        0
  0
XRECORD
  5
3B0
102
{ACAD_REACTORS
330
391
102
}
330
391
100
AcDbXrecord
1000
DSTYLE
1002
{
1070
   340
340
11
1002
}
  0
XRECORD
  5
39B
102
{ACAD_REACTORS
330
391
102
}
330
391
100
AcDbXrecord
  1
{846B70BE-DD2F-49D5-980E-A7E7B5925378}
  0
XRECORD
  5
394
102
{ACAD_REACTORS
330
391
102
}
330
391
100
AcDbXrecord
  1

  0
XRECORD
  5
399
102
{ACAD_REACTORS
330
391
102
}
330
391
100
AcDbXrecord
 90
        4
  0
XRECORD
  5
396
102
{ACAD_REACTORS
330
391
102
}
330
391
100
AcDbXrecord
340
1A
  0
XRECORD
  5
398
102
{ACAD_REACTORS
330
391
102
}
330
391
100
AcDbXrecord
 90
    10781
  0
XRECORD
  5
397
102
{ACAD_REACTORS
330
391
102
}
330
391
100
AcDbXrecord
340
19
  0
XRECORD
  5
39D
102
{ACAD_REACTORS
330
391
102
}
330
391
100
AcDbXrecord
 40
0.0
  0
XRECORD
  5
3A0
102
{ACAD_REACTORS
330
391
102
}
330
391
100
AcDbXrecord
340
0
  0
XRECORD
  5
3A6
102
{ACAD_REACTORS
330
391
102
}
330
391
100
AcDbXrecord
 10
0.0
 20
0.0
 30
0.0
  0
XRECORD
  5
3A2
102
{ACAD_REACTORS
330
391
102
}
330
391
100
AcDbXrecord
 10
0.0
 20
0.0
 30
0.0
  0
XRECORD
  5
3A5
102
{ACAD_REACTORS
330
391
102
}
330
391
100
AcDbXrecord
 10
0.0
 20
0.0
 30
0.0
  0
XRECORD
  5
3A3
102
{ACAD_REACTORS
330
391
102
}
330
391
100
AcDbXrecord
 10
0.0
 20
0.0
 30
0.0
  0
XRECORD
  5
3A4
102
{ACAD_REACTORS
330
391
102
}
330
391
100
AcDbXrecord
 10
0.0
 20
0.0
 30
0.0
  0
XRECORD
  5
3A1
102
{ACAD_REACTORS
330
391
102
}
330
391
100
AcDbXrecord
 10
0.0
 20
0.0
 30
0.0
  0
XRECORD
  5
39E
102
{ACAD_REACTORS
330
391
102
}
330
391
100
AcDbXrecord
340
0
  0
XRECORD
  5
39F
102
{ACAD_REACTORS
330
391
102
}
330
391
100
AcDbXrecord
 70
     0
  0
XRECORD
  5
395
102
{ACAD_REACTORS
330
391
102
}
330
391
100
AcDbXrecord
  1

  0
XRECORD
  5
392
102
{ACAD_REACTORS
330
391
102
}
330
391
100
AcDbXrecord
 90
        1
  0
XRECORD
  5
393
102
{ACAD_REACTORS
330
391
102
}
330
391
100
AcDbXrecord
 90
       70
  0
XRECORD
  5
3A9
102
{ACAD_REACTORS
330
391
102
}
330
391
100
AcDbXrecord
340
0
  0
XRECORD
  5
3AF
102
{ACAD_REACTORS
330
391
102
}
330
391
100
AcDbXrecord
 10
0.0
 20
0.0
 30
0.0
  0
XRECORD
  5
3AB
102
{ACAD_REACTORS
330
391
102
}
330
391
100
AcDbXrecord
 10
0.0
 20
0.0
 30
0.0
  0
XRECORD
  5
3AE
102
{ACAD_REACTORS
330
391
102
}
330
391
100
AcDbXrecord
 10
0.0
 20
0.0
 30
0.0
  0
XRECORD
  5
3AC
102
{ACAD_REACTORS
330
391
102
}
330
391
100
AcDbXrecord
 10
0.0
 20
0.0
 30
0.0
  0
XRECORD
  5
3AD
102
{ACAD_REACTORS
330
391
102
}
330
391
100
AcDbXrecord
 10
0.0
 20
0.0
 30
0.0
  0
XRECORD
  5
3AA
102
{ACAD_REACTORS
330
391
102
}
330
391
100
AcDbXrecord
 10
0.0
 20
0.0
 30
0.0
  0
XRECORD
  5
3A7
102
{ACAD_REACTORS
330
391
102
}
330
391
100
AcDbXrecord
340
0
  0
XRECORD
  5
3A8
102
{ACAD_REACTORS
330
391
102
}
330
391
100
AcDbXrecord
 70
     0
  0
XRECORD
  5
39C
102
{ACAD_REACTORS
330
391
102
}
330
391
100
AcDbXrecord
  1
{FAEB1C32-E019-11D5-929B-00C0DF256EC4}
  0
DICTIONARYVAR
  5
3B6
102
{ACAD_REACTORS
330
3B1
102
}
330
3B1
100
DictionaryVariables
280
     0
  1
2
  0
DICTIONARYVAR
  5
3B7
102
{ACAD_REACTORS
330
3B1
102
}
330
3B1
100
DictionaryVariables
280
     0
  1
1
  0
DICTIONARYVAR
  5
3B5
102
{ACAD_REACTORS
330
3B1
102
}
330
3B1
100
DictionaryVariables
280
     0
  1
80.000000
  0
DICTIONARYVAR
  5
3B4
102
{ACAD_REACTORS
330
3B1
102
}
330
3B1
100
DictionaryVariables
280
     0
  1
5.000000
  0
DICTIONARY
  5
3BA
330
3D
100
AcDbDictionary
280
     1
  3
ACAD_XREC_ROUNDTRIP
360
3BB
  0
DICTIONARY
  5
3B8
330
3C
100
AcDbDictionary
280
     1
  3
ACAD_XREC_ROUNDTRIP
360
3B9
  0
DICTIONARY
  5
3BC
330
3E
100
AcDbDictionary
280
     1
  3
ACAD_XREC_ROUNDTRIP
360
3BD
  0
XRECORD
  5
3BB
102
{ACAD_REACTORS
330
3BA
102
}
330
3BA
100
AcDbXrecord
102
MATERIAL
148
0.0
149
0.0
149
0.0
 93
        0
 94
      127
282
     0
 72
     1
 77
     1
171
     1
175
     1
179
     1
273
     0
  0
XRECORD
  5
3B9
102
{ACAD_REACTORS
330
3B8
102
}
330
3B8
100
AcDbXrecord
102
MATERIAL
148
0.0
149
0.0
149
0.0
 93
        0
 94
      127
282
     0
 72
     1
 77
     1
171
     1
175
     1
179
     1
273
     0
  0
XRECORD
  5
3BD
102
{ACAD_REACTORS
330
3BC
102
}
330
3BC
100
AcDbXrecord
102
MATERIAL
148
0.0
149
0.0
149
0.0
 93
        0
 94
      127
282
     0
 72
     1
 77
     1
171
     1
175
     1
179
     1
273
     0
  0
ENDSEC
  0
EOF
