  0
SECTION
  2
HEADER
  9
$ACADVER
  1
AC1014
  9
$ACADMAINTVER
 70
     9
  9
$DWGCODEPAGE
  3
ANSI_932
  9
$INSBASE
 10
0.0
 20
0.0
 30
0.0
  9
$EXTMIN
 10
-0.6000000000000101
 20
9.299999999999983
 30
0.0
  9
$EXTMAX
 10
199.4000000000001
 20
289.3
 30
0.0
  9
$LIMMIN
 10
0.0
 20
0.0
  9
$LIMMAX
 10
210.0
 20
297.0
  9
$ORTHOMODE
 70
     0
  9
$REGENMODE
 70
     1
  9
$FILLMODE
 70
     1
  9
$QTEXTMODE
 70
     0
  9
$MIRRTEXT
 70
     1
  9
$DRAGMODE
 70
     2
  9
$LTSCALE
 40
1.0
  9
$OSMODE
 70
    37
  9
$ATTMODE
 70
     1
  9
$TEXTSIZE
 40
2.5
  9
$TRACEWID
 40
1.0
  9
$TEXTSTYLE
  7
STANDARD
  9
$CLAYER
  8
エルボ
  9
$CELTYPE
  6
BYLAYER
  9
$CECOLOR
 62
   256
  9
$CELTSCALE
 40
1.0
  9
$DELOBJ
 70
     1
  9
$DISPSILH
 70
     0
  9
$DIMSCALE
 40
1.0
  9
$DIMASZ
 40
2.5
  9
$DIMEXO
 40
0.625
  9
$DIMDLI
 40
3.75
  9
$DIMRND
 40
0.0
  9
$DIMDLE
 40
0.0
  9
$DIMEXE
 40
1.25
  9
$DIMTP
 40
0.0
  9
$DIMTM
 40
0.0
  9
$DIMTXT
 40
2.5
  9
$DIMCEN
 40
2.5
  9
$DIMTSZ
 40
0.0
  9
$DIMTOL
 70
     0
  9
$DIMLIM
 70
     0
  9
$DIMTIH
 70
     0
  9
$DIMTOH
 70
     0
  9
$DIMSE1
 70
     0
  9
$DIMSE2
 70
     0
  9
$DIMTAD
 70
     1
  9
$DIMZIN
 70
     8
  9
$DIMBLK
  1

  9
$DIMASO
 70
     1
  9
$DIMSHO
 70
     1
  9
$DIMPOST
  1

  9
$DIMAPOST
  1

  9
$DIMALT
 70
     0
  9
$DIMALTD
 70
     3
  9
$DIMALTF
 40
0.03937007874016
  9
$DIMLFAC
 40
1.0
  9
$DIMTOFL
 70
     1
  9
$DIMTVP
 40
0.0
  9
$DIMTIX
 70
     0
  9
$DIMSOXD
 70
     0
  9
$DIMSAH
 70
     0
  9
$DIMBLK1
  1

  9
$DIMBLK2
  1

  9
$DIMSTYLE
  2
ISO-25
  9
$DIMCLRD
 70
     0
  9
$DIMCLRE
 70
     0
  9
$DIMCLRT
 70
     0
  9
$DIMTFAC
 40
1.0
  9
$DIMGAP
 40
0.625
  9
$DIMJUST
 70
     0
  9
$DIMSD1
 70
     0
  9
$DIMSD2
 70
     0
  9
$DIMTOLJ
 70
     0
  9
$DIMTZIN
 70
     8
  9
$DIMALTZ
 70
     0
  9
$DIMALTTZ
 70
     0
  9
$DIMFIT
 70
     3
  9
$DIMUPT
 70
     0
  9
$DIMUNIT
 70
     2
  9
$DIMDEC
 70
     2
  9
$DIMTDEC
 70
     2
  9
$DIMALTU
 70
     2
  9
$DIMALTTD
 70
     3
  9
$DIMTXSTY
  7
STANDARD
  9
$DIMAUNIT
 70
     0
  9
$LUNITS
 70
     2
  9
$LUPREC
 70
     4
  9
$SKETCHINC
 40
1.0
  9
$FILLETRAD
 40
10.0
  9
$AUNITS
 70
     0
  9
$AUPREC
 70
     0
  9
$MENU
  1
.
  9
$ELEVATION
 40
0.0
  9
$PELEVATION
 40
0.0
  9
$THICKNESS
 40
0.0
  9
$LIMCHECK
 70
     0
  9
$CHAMFERA
 40
10.0
  9
$CHAMFERB
 40
10.0
  9
$CHAMFERC
 40
20.0
  9
$CHAMFERD
 40
0.0
  9
$SKPOLY
 70
     0
  9
$TDCREATE
 40
2460368.377967245
  9
$TDUPDATE
 40
2460368.37796735
  9
$TDINDWG
 40
0.0000000116
  9
$TDUSRTIMER
 40
0.0000000116
  9
$USRTIMER
 70
     1
  9
$ANGBASE
 50
0.0
  9
$ANGDIR
 70
     0
  9
$PDMODE
 70
     0
  9
$PDSIZE
 40
0.0
  9
$PLINEWID
 40
0.0
  9
$COORDS
 70
     1
  9
$SPLFRAME
 70
     0
  9
$SPLINETYPE
 70
     6
  9
$SPLINESEGS
 70
     8
  9
$ATTDIA
 70
     0
  9
$ATTREQ
 70
     1
  9
$HANDLING
 70
     1
  9
$HANDSEED
  5
356
  9
$SURFTAB1
 70
     6
  9
$SURFTAB2
 70
     6
  9
$SURFTYPE
 70
     6
  9
$SURFU
 70
     6
  9
$SURFV
 70
     6
  9
$UCSNAME
  2

  9
$UCSORG
 10
0.0
 20
0.0
 30
0.0
  9
$UCSXDIR
 10
1.0
 20
0.0
 30
0.0
  9
$UCSYDIR
 10
0.0
 20
1.0
 30
0.0
  9
$PUCSNAME
  2

  9
$PUCSORG
 10
0.0
 20
0.0
 30
0.0
  9
$PUCSXDIR
 10
1.0
 20
0.0
 30
0.0
  9
$PUCSYDIR
 10
0.0
 20
1.0
 30
0.0
  9
$USERI1
 70
     0
  9
$USERI2
 70
     0
  9
$USERI3
 70
     0
  9
$USERI4
 70
     0
  9
$USERI5
 70
     0
  9
$USERR1
 40
0.0
  9
$USERR2
 40
0.0
  9
$USERR3
 40
0.0
  9
$USERR4
 40
0.0
  9
$USERR5
 40
0.0
  9
$WORLDVIEW
 70
     1
  9
$SHADEDGE
 70
     3
  9
$SHADEDIF
 70
    70
  9
$TILEMODE
 70
     1
  9
$MAXACTVP
 70
    64
  9
$PINSBASE
 10
0.0
 20
0.0
 30
0.0
  9
$PLIMCHECK
 70
     0
  9
$PEXTMIN
 10
1.000000000000000E+20
 20
1.000000000000000E+20
 30
1.000000000000000E+20
  9
$PEXTMAX
 10
-1.000000000000000E+20
 20
-1.000000000000000E+20
 30
-1.000000000000000E+20
  9
$PLIMMIN
 10
0.0
 20
0.0
  9
$PLIMMAX
 10
420.0
 20
297.0
  9
$UNITMODE
 70
     0
  9
$VISRETAIN
 70
     1
  9
$PLINEGEN
 70
     0
  9
$PSLTSCALE
 70
     1
  9
$TREEDEPTH
 70
  3020
  9
$PICKSTYLE
 70
     1
  9
$CMLSTYLE
  2
STANDARD
  9
$CMLJUST
 70
     0
  9
$CMLSCALE
 40
20.0
  9
$PROXYGRAPHICS
 70
     1
  9
$MEASUREMENT
 70
     1
  0
ENDSEC
  0
SECTION
  2
CLASSES
  0
CLASS
  1
ACDBDICTIONARYWDFLT
  2
AcDbDictionaryWithDefault
  3
ObjectDBX Classes
 90
        0
280
     0
281
     0
  0
CLASS
  1
VISUALSTYLE
  2
AcDbVisualStyle
  3
ObjectDBX Classes
 90
     4095
280
     0
281
     0
  0
CLASS
  1
MATERIAL
  2
AcDbMaterial
  3
ObjectDBX Classes
 90
     1153
280
     0
281
     0
  0
CLASS
  1
SUN
  2
AcDbSun
  3
SCENEOE
 90
     1024
280
     0
281
     0
  0
CLASS
  1
DICTIONARYVAR
  2
AcDbDictionaryVar
  3
ObjectDBX Classes
 90
        0
280
     0
281
     0
  0
CLASS
  1
XRECORD
  2
AcDbXrecord
  3
AutoCAD 2000
 90
        0
280
     0
281
     0
  0
CLASS
  1
LWPOLYLINE
  2
AcDbPolyline
  3
AutoCAD 2000
 90
        0
280
     0
281
     1
  0
CLASS
  1
HATCH
  2
AcDbHatch
  3
AutoCAD 2000
 90
        0
280
     0
281
     1
  0
CLASS
  1
ACDBPLACEHOLDER
  2
AcDbPlaceHolder
  3
ObjectDBX Classes
 90
        0
280
     0
281
     0
  0
CLASS
  1
LAYOUT
  2
AcDbLayout
  3
ObjectDBX Classes
 90
        0
280
     0
281
     0
  0
ENDSEC
  0
SECTION
  2
TABLES
  0
TABLE
  2
VPORT
  5
8
330
0
100
AcDbSymbolTable
 70
     1
  0
VPORT
  5
29
330
8
100
AcDbSymbolTableRecord
100
AcDbViewportTableRecord
  2
*ACTIVE
 70
     0
 10
0.0
 20
0.0
 11
1.0
 21
1.0
 12
99.40000000000002
 22
149.3
 13
0.0
 23
0.0
 14
10.0
 24
10.0
 15
10.0
 25
10.0
 16
0.0
 26
0.0
 36
1.0
 17
0.0
 27
0.0
 37
0.0
 40
280.0
 41
0.7142857142857146
 42
50.0
 43
0.0
 44
0.0
 50
0.0
 51
0.0
 71
     0
 72
  1000
 73
     1
 74
     3
 75
     0
 76
     0
 77
     0
 78
     0
  0
ENDTAB
  0
TABLE
  2
LTYPE
  5
5
330
0
100
AcDbSymbolTable
 70
     7
  0
LTYPE
  5
14
330
5
100
AcDbSymbolTableRecord
100
AcDbLinetypeTableRecord
  2
BYBLOCK
 70
     0
  3

 72
    65
 73
     0
 40
0.0
  0
LTYPE
  5
15
330
5
100
AcDbSymbolTableRecord
100
AcDbLinetypeTableRecord
  2
BYLAYER
 70
     0
  3

 72
    65
 73
     0
 40
0.0
  0
LTYPE
  5
16
330
5
100
AcDbSymbolTableRecord
100
AcDbLinetypeTableRecord
  2
CONTINUOUS
 70
     0
  3
Solid line
 72
    65
 73
     0
 40
0.0
  0
LTYPE
  5
40
330
5
100
AcDbSymbolTableRecord
100
AcDbLinetypeTableRecord
  2
EXLTYPE1
 70
     0
  3
破線
 72
    65
 73
     2
 40
3.0
 49
2.0
 74
     0
 49
-1.0
 74
     0
  0
LTYPE
  5
41
330
5
100
AcDbSymbolTableRecord
100
AcDbLinetypeTableRecord
  2
EXLTYPE2
 70
     0
  3
点線
 72
    65
 73
     2
 40
2.0
 49
1.0
 74
     0
 49
-1.0
 74
     0
  0
LTYPE
  5
42
330
5
100
AcDbSymbolTableRecord
100
AcDbLinetypeTableRecord
  2
EXLTYPE3
 70
     0
  3
一点鎖線
 72
    65
 73
     4
 40
10.0
 49
7.0
 74
     0
 49
-1.0
 74
     0
 49
1.0
 74
     0
 49
-1.0
 74
     0
  0
LTYPE
  5
43
330
5
100
AcDbSymbolTableRecord
100
AcDbLinetypeTableRecord
  2
EXLTYPE4
 70
     0
  3
二点鎖線
 72
    65
 73
     6
 40
12.0
 49
7.0
 74
     0
 49
-1.0
 74
     0
 49
1.0
 74
     0
 49
-1.0
 74
     0
 49
1.0
 74
     0
 49
-1.0
 74
     0
  0
LTYPE
  5
44
330
5
100
AcDbSymbolTableRecord
100
AcDbLinetypeTableRecord
  2
EXLTYPE5
 70
     0
  3
三点鎖線
 72
    65
 73
     8
 40
37.0
 49
30.0
 74
     0
 49
-1.0
 74
     0
 49
1.0
 74
     0
 49
-1.0
 74
     0
 49
1.0
 74
     0
 49
-1.0
 74
     0
 49
1.0
 74
     0
 49
-1.0
 74
     0
  0
LTYPE
  5
45
330
5
100
AcDbSymbolTableRecord
100
AcDbLinetypeTableRecord
  2
EXLTYPE6
 70
     0
  3
四点鎖線
 72
    65
 73
    10
 40
39.0
 49
30.0
 74
     0
 49
-1.0
 74
     0
 49
1.0
 74
     0
 49
-1.0
 74
     0
 49
1.0
 74
     0
 49
-1.0
 74
     0
 49
1.0
 74
     0
 49
-1.0
 74
     0
 49
1.0
 74
     0
 49
-1.0
 74
     0
  0
ENDTAB
  0
TABLE
  2
LAYER
  5
2
330
0
100
AcDbSymbolTable
 70
     5
  0
LAYER
  5
10
330
2
100
AcDbSymbolTableRecord
100
AcDbLayerTableRecord
  2
0
 70
     0
 62
     7
  6
CONTINUOUS
  0
LAYER
  5
48
330
2
100
AcDbSymbolTableRecord
100
AcDbLayerTableRecord
  2
図枠
 70
     0
 62
     7
  6
CONTINUOUS
  0
LAYER
  5
49
330
2
100
AcDbSymbolTableRecord
100
AcDbLayerTableRecord
  2
寸法
 70
     0
 62
     7
  6
CONTINUOUS
  0
LAYER
  5
4A
330
2
100
AcDbSymbolTableRecord
100
AcDbLayerTableRecord
  2
エルボ
 70
     0
 62
     7
  6
CONTINUOUS
  0
LAYER
  5
1F4
330
2
100
AcDbSymbolTableRecord
100
AcDbLayerTableRecord
  2
DEFPOINTS
 70
     0
 62
     7
  6
CONTINUOUS
  0
ENDTAB
  0
TABLE
  2
STYLE
  5
3
330
0
100
AcDbSymbolTable
 70
     5
  0
STYLE
  5
11
330
3
100
AcDbSymbolTableRecord
100
AcDbTextStyleTableRecord
  2
STANDARD
 70
     0
 40
0.0
 41
1.0
 50
0.0
 71
     0
 42
2.5
  3
monotxt
  4
extfont
  0
STYLE
  5
46
330
3
100
AcDbSymbolTableRecord
100
AcDbTextStyleTableRecord
  2
EXCADSTD
 70
     0
 40
0.0
 41
1.0
 50
0.0
 71
     0
 42
0.2
  3
monotxt
  4
extfont
  0
STYLE
  5
47
330
3
100
AcDbSymbolTableRecord
100
AcDbTextStyleTableRecord
  2
EXCADVERT
 70
     4
 40
0.0
 41
1.0
 50
0.0
 71
     0
 42
0.286885
  3
monotxt
  4
extfont
  0
STYLE
  5
AC
330
3
100
AcDbSymbolTableRecord
100
AcDbTextStyleTableRecord
  2
EXCADTTF1
 70
     0
 40
0.0
 41
1.0
 50
0.0
 71
     0
 42
0.2
  3
MSGOTHIC.TTC
  4

1001
ACAD
1000
MS Gothic
1071
    32817
  0
STYLE
  5
1F2
330
3
100
AcDbSymbolTableRecord
100
AcDbTextStyleTableRecord
  2
EXCADDIM1
 70
     0
 40
0.0
 41
0.84
 50
0.0
 71
     0
 42
0.2
  3
monotxt
  4
extfont
  0
ENDTAB
  0
TABLE
  2
VIEW
  5
6
330
0
100
AcDbSymbolTable
 70
     0
  0
ENDTAB
  0
TABLE
  2
UCS
  5
7
330
0
100
AcDbSymbolTable
 70
     0
  0
ENDTAB
  0
TABLE
  2
APPID
  5
9
330
0
100
AcDbSymbolTable
 70
     1
  0
APPID
  5
12
330
9
100
AcDbSymbolTableRecord
100
AcDbRegAppTableRecord
  2
ACAD
 70
     0
  0
ENDTAB
  0
TABLE
  2
DIMSTYLE
  5
A
330
0
100
AcDbSymbolTable
 70
     1
  0
DIMSTYLE
105
27
102
{ACAD_REACTORS
330
1F3
330
201
330
20E
330
21B
102
}
330
A
100
AcDbSymbolTableRecord
100
AcDbDimStyleTableRecord
  2
ISO-25
 70
     0
  3

  4

  5

  6

  7

 40
1.0
 41
2.5
 42
0.625
 43
3.75
 44
1.25
 45
0.0
 46
0.0
 47
0.0
 48
0.0
140
2.5
141
2.5
142
0.0
143
0.03937007874016
144
1.0
145
0.0
146
1.0
147
0.625
 71
     0
 72
     0
 73
     0
 74
     0
 75
     0
 76
     0
 77
     1
 78
     8
170
     0
171
     3
172
     1
173
     0
174
     0
175
     0
176
     0
177
     0
178
     0
270
     2
271
     2
272
     2
273
     2
274
     3
340
11
275
     0
280
     0
281
     0
282
     0
283
     0
284
     8
285
     0
286
     0
287
     5
288
     0
  0
ENDTAB
  0
TABLE
  2
BLOCK_RECORD
  5
1
330
0
100
AcDbSymbolTable
 70
    19
  0
BLOCK_RECORD
  5
1F
330
1
100
AcDbSymbolTableRecord
100
AcDbBlockTableRecord
  2
*MODEL_SPACE
  0
BLOCK_RECORD
  5
1B
330
1
100
AcDbSymbolTableRecord
100
AcDbBlockTableRecord
  2
*PAPER_SPACE
  0
BLOCK_RECORD
  5
4B
330
1
100
AcDbSymbolTableRecord
100
AcDbBlockTableRecord
  2
EX_NORM
  0
BLOCK_RECORD
  5
4E
330
1
100
AcDbSymbolTableRecord
100
AcDbBlockTableRecord
  2
EX_BNORM
  0
BLOCK_RECORD
  5
51
330
1
100
AcDbSymbolTableRecord
100
AcDbBlockTableRecord
  2
EX_BCIR
  0
BLOCK_RECORD
  5
54
330
1
100
AcDbSymbolTableRecord
100
AcDbBlockTableRecord
  2
EX_RCIVIL
  0
BLOCK_RECORD
  5
57
330
1
100
AcDbSymbolTableRecord
100
AcDbBlockTableRecord
  2
EX_SLANT
  0
BLOCK_RECORD
  5
5A
330
1
100
AcDbSymbolTableRecord
100
AcDbBlockTableRecord
  2
EX_NONE
  0
BLOCK_RECORD
  5
5D
330
1
100
AcDbSymbolTableRecord
100
AcDbBlockTableRecord
  2
EX_CIVIL
  0
BLOCK_RECORD
  5
60
330
1
100
AcDbSymbolTableRecord
100
AcDbBlockTableRecord
  2
EX_WCIR
  0
BLOCK_RECORD
  5
63
330
1
100
AcDbSymbolTableRecord
100
AcDbBlockTableRecord
  2
EX_WCIR2
  0
BLOCK_RECORD
  5
66
330
1
100
AcDbSymbolTableRecord
100
AcDbBlockTableRecord
  2
EX_WNORM
  0
BLOCK_RECORD
  5
69
330
1
100
AcDbSymbolTableRecord
100
AcDbBlockTableRecord
  2
EX_NNORM
  0
BLOCK_RECORD
  5
6C
330
1
100
AcDbSymbolTableRecord
100
AcDbBlockTableRecord
  2
EX_BBOX
  0
BLOCK_RECORD
  5
6F
330
1
100
AcDbSymbolTableRecord
100
AcDbBlockTableRecord
  2
EX_WBOX
  0
BLOCK_RECORD
  5
72
330
1
100
AcDbSymbolTableRecord
100
AcDbBlockTableRecord
  2
EX_INTEGRAL
  0
BLOCK_RECORD
  5
1F5
330
1
100
AcDbSymbolTableRecord
100
AcDbBlockTableRecord
  2
*D15
  0
BLOCK_RECORD
  5
202
330
1
100
AcDbSymbolTableRecord
100
AcDbBlockTableRecord
  2
*D16
  0
BLOCK_RECORD
  5
20F
330
1
100
AcDbSymbolTableRecord
100
AcDbBlockTableRecord
  2
*D17
  0
BLOCK_RECORD
  5
21C
330
1
100
AcDbSymbolTableRecord
100
AcDbBlockTableRecord
  2
*D18
  0
ENDTAB
  0
ENDSEC
  0
SECTION
  2
BLOCKS
  0
BLOCK
  5
20
330
1F
100
AcDbEntity
  8
0
100
AcDbBlockBegin
  2
*MODEL_SPACE
 70
     0
 10
0.0
 20
0.0
 30
0.0
  3
*MODEL_SPACE
  1

  0
ENDBLK
  5
21
330
1F
100
AcDbEntity
  8
0
100
AcDbBlockEnd
  0
BLOCK
  5
1C
330
1B
100
AcDbEntity
 67
     1
  8
0
100
AcDbBlockBegin
  2
*PAPER_SPACE
 70
     0
 10
0.0
 20
0.0
 30
0.0
  3
*PAPER_SPACE
  1

  0
ENDBLK
  5
1D
330
1B
100
AcDbEntity
 67
     1
  8
0
100
AcDbBlockEnd
  0
BLOCK
  5
4C
330
4B
100
AcDbEntity
  8
0
100
AcDbBlockBegin
  2
EX_NORM
 70
     0
 10
0.0
 20
0.0
 30
0.0
  3
EX_NORM
  1

  0
LINE
  5
75
330
4B
100
AcDbEntity
  8
0
  6
CONTINUOUS
 62
     0
100
AcDbLine
 10
0.0
 20
0.0
 30
0.0
 11
-1.0
 21
0.0
 31
0.0
  0
LINE
  5
76
330
4B
100
AcDbEntity
  8
0
  6
CONTINUOUS
 62
     0
100
AcDbLine
 10
0.0
 20
0.0
 30
0.0
 11
-1.0
 21
0.166666667
 31
0.0
  0
LINE
  5
77
330
4B
100
AcDbEntity
  8
0
  6
CONTINUOUS
 62
     0
100
AcDbLine
 10
0.0
 20
0.0
 30
0.0
 11
-1.0
 21
-0.166666667
 31
0.0
  0
ENDBLK
  5
4D
330
4B
100
AcDbEntity
  8
0
100
AcDbBlockEnd
  0
BLOCK
  5
4F
330
4E
100
AcDbEntity
  8
0
100
AcDbBlockBegin
  2
EX_BNORM
 70
     0
 10
0.0
 20
0.0
 30
0.0
  3
EX_BNORM
  1

  0
LINE
  5
78
330
4E
100
AcDbEntity
  8
0
  6
CONTINUOUS
 62
     0
100
AcDbLine
 10
0.0
 20
0.0
 30
0.0
 11
-1.0
 21
0.0
 31
0.0
  0
LINE
  5
79
330
4E
100
AcDbEntity
  8
0
  6
CONTINUOUS
 62
     0
100
AcDbLine
 10
0.0
 20
0.0
 30
0.0
 11
-1.0
 21
0.166666667
 31
0.0
  0
LINE
  5
7A
330
4E
100
AcDbEntity
  8
0
  6
CONTINUOUS
 62
     0
100
AcDbLine
 10
0.0
 20
0.0
 30
0.0
 11
-1.0
 21
-0.166666667
 31
0.0
  0
LINE
  5
7B
330
4E
100
AcDbEntity
  8
0
  6
CONTINUOUS
 62
     0
100
AcDbLine
 10
0.0
 20
0.0
 30
0.0
 11
-1.0
 21
0.083333333
 31
0.0
  0
LINE
  5
7C
330
4E
100
AcDbEntity
  8
0
  6
CONTINUOUS
 62
     0
100
AcDbLine
 10
0.0
 20
0.0
 30
0.0
 11
-1.0
 21
-0.083333333
 31
0.0
  0
LINE
  5
7D
330
4E
100
AcDbEntity
  8
0
  6
CONTINUOUS
 62
     0
100
AcDbLine
 10
-1.0
 20
0.166666667
 30
0.0
 11
-1.0
 21
-0.166666667
 31
0.0
  0
ENDBLK
  5
50
330
4E
100
AcDbEntity
  8
0
100
AcDbBlockEnd
  0
BLOCK
  5
52
330
51
100
AcDbEntity
  8
0
100
AcDbBlockBegin
  2
EX_BCIR
 70
     0
 10
0.0
 20
0.0
 30
0.0
  3
EX_BCIR
  1

  0
LINE
  5
7E
330
51
100
AcDbEntity
  8
0
  6
CONTINUOUS
 62
     0
100
AcDbLine
 10
0.0
 20
0.0
 30
0.0
 11
-1.0
 21
0.0
 31
0.0
  0
CIRCLE
  5
7F
330
51
100
AcDbEntity
  8
0
  6
CONTINUOUS
 62
     0
100
AcDbCircle
 10
0.0
 20
0.0
 30
0.0
 40
0.5
  0
CIRCLE
  5
80
330
51
100
AcDbEntity
  8
0
  6
CONTINUOUS
 62
     0
100
AcDbCircle
 10
0.0
 20
0.0
 30
0.0
 40
0.25
  0
ENDBLK
  5
53
330
51
100
AcDbEntity
  8
0
100
AcDbBlockEnd
  0
BLOCK
  5
55
330
54
100
AcDbEntity
  8
0
100
AcDbBlockBegin
  2
EX_RCIVIL
 70
     0
 10
0.0
 20
0.0
 30
0.0
  3
EX_RCIVIL
  1

  0
LINE
  5
81
330
54
100
AcDbEntity
  8
0
  6
CONTINUOUS
 62
     0
100
AcDbLine
 10
0.0
 20
0.0
 30
0.0
 11
-1.0
 21
0.0
 31
0.0
  0
LINE
  5
82
330
54
100
AcDbEntity
  8
0
  6
CONTINUOUS
 62
     0
100
AcDbLine
 10
-1.0
 20
-0.25
 30
0.0
 11
0.0
 21
-0.25
 31
0.0
  0
LINE
  5
83
330
54
100
AcDbEntity
  8
0
  6
CONTINUOUS
 62
     0
100
AcDbLine
 10
-1.0
 20
-0.125
 30
0.0
 11
0.0
 21
-0.125
 31
0.0
  0
ENDBLK
  5
56
330
54
100
AcDbEntity
  8
0
100
AcDbBlockEnd
  0
BLOCK
  5
58
330
57
100
AcDbEntity
  8
0
100
AcDbBlockBegin
  2
EX_SLANT
 70
     0
 10
0.0
 20
0.0
 30
0.0
  3
EX_SLANT
  1

  0
LINE
  5
84
330
57
100
AcDbEntity
  8
0
  6
CONTINUOUS
 62
     0
100
AcDbLine
 10
0.0
 20
0.0
 30
0.0
 11
-1.0
 21
0.0
 31
0.0
  0
LINE
  5
85
330
57
100
AcDbEntity
  8
0
  6
CONTINUOUS
 62
     0
100
AcDbLine
 10
0.707106781
 20
0.707106781
 30
0.0
 11
-0.707106781
 21
-0.707106781
 31
0.0
  0
ENDBLK
  5
59
330
57
100
AcDbEntity
  8
0
100
AcDbBlockEnd
  0
BLOCK
  5
5B
330
5A
100
AcDbEntity
  8
0
100
AcDbBlockBegin
  2
EX_NONE
 70
     0
 10
0.0
 20
0.0
 30
0.0
  3
EX_NONE
  1

  0
LINE
  5
86
330
5A
100
AcDbEntity
  8
0
  6
CONTINUOUS
 62
     0
100
AcDbLine
 10
0.0
 20
0.0
 30
0.0
 11
-1.0
 21
0.0
 31
0.0
  0
ENDBLK
  5
5C
330
5A
100
AcDbEntity
  8
0
100
AcDbBlockEnd
  0
BLOCK
  5
5E
330
5D
100
AcDbEntity
  8
0
100
AcDbBlockBegin
  2
EX_CIVIL
 70
     0
 10
0.0
 20
0.0
 30
0.0
  3
EX_CIVIL
  1

  0
LINE
  5
87
330
5D
100
AcDbEntity
  8
0
  6
CONTINUOUS
 62
     0
100
AcDbLine
 10
0.0
 20
0.0
 30
0.0
 11
-1.0
 21
0.0
 31
0.0
  0
LINE
  5
88
330
5D
100
AcDbEntity
  8
0
  6
CONTINUOUS
 62
     0
100
AcDbLine
 10
-1.0
 20
0.25
 30
0.0
 11
0.0
 21
0.25
 31
0.0
  0
LINE
  5
89
330
5D
100
AcDbEntity
  8
0
  6
CONTINUOUS
 62
     0
100
AcDbLine
 10
-1.0
 20
0.125
 30
0.0
 11
0.0
 21
0.125
 31
0.0
  0
ENDBLK
  5
5F
330
5D
100
AcDbEntity
  8
0
100
AcDbBlockEnd
  0
BLOCK
  5
61
330
60
100
AcDbEntity
  8
0
100
AcDbBlockBegin
  2
EX_WCIR
 70
     0
 10
0.0
 20
0.0
 30
0.0
  3
EX_WCIR
  1

  0
LINE
  5
8A
330
60
100
AcDbEntity
  8
0
  6
CONTINUOUS
 62
     0
100
AcDbLine
 10
0.0
 20
0.0
 30
0.0
 11
-1.0
 21
0.0
 31
0.0
  0
CIRCLE
  5
8B
330
60
100
AcDbEntity
  8
0
  6
CONTINUOUS
 62
     0
100
AcDbCircle
 10
0.0
 20
0.0
 30
0.0
 40
0.5
  0
ENDBLK
  5
62
330
60
100
AcDbEntity
  8
0
100
AcDbBlockEnd
  0
BLOCK
  5
64
330
63
100
AcDbEntity
  8
0
100
AcDbBlockBegin
  2
EX_WCIR2
 70
     0
 10
0.0
 20
0.0
 30
0.0
  3
EX_WCIR2
  1

  0
LINE
  5
8C
330
63
100
AcDbEntity
  8
0
  6
CONTINUOUS
 62
     0
100
AcDbLine
 10
-0.5
 20
0.0
 30
0.0
 11
-1.0
 21
0.0
 31
0.0
  0
CIRCLE
  5
8D
330
63
100
AcDbEntity
  8
0
  6
CONTINUOUS
 62
     0
100
AcDbCircle
 10
0.0
 20
0.0
 30
0.0
 40
0.5
  0
ENDBLK
  5
65
330
63
100
AcDbEntity
  8
0
100
AcDbBlockEnd
  0
BLOCK
  5
67
330
66
100
AcDbEntity
  8
0
100
AcDbBlockBegin
  2
EX_WNORM
 70
     0
 10
0.0
 20
0.0
 30
0.0
  3
EX_WNORM
  1

  0
LINE
  5
8E
330
66
100
AcDbEntity
  8
0
  6
CONTINUOUS
 62
     0
100
AcDbLine
 10
-1.0
 20
0.0
 30
0.0
 11
-1.0
 21
0.0
 31
0.0
  0
LINE
  5
8F
330
66
100
AcDbEntity
  8
0
  6
CONTINUOUS
 62
     0
100
AcDbLine
 10
0.0
 20
0.0
 30
0.0
 11
-1.0
 21
0.166666667
 31
0.0
  0
LINE
  5
90
330
66
100
AcDbEntity
  8
0
  6
CONTINUOUS
 62
     0
100
AcDbLine
 10
0.0
 20
0.0
 30
0.0
 11
-1.0
 21
-0.166666667
 31
0.0
  0
LINE
  5
91
330
66
100
AcDbEntity
  8
0
  6
CONTINUOUS
 62
     0
100
AcDbLine
 10
-1.0
 20
0.166666667
 30
0.0
 11
-1.0
 21
-0.166666667
 31
0.0
  0
ENDBLK
  5
68
330
66
100
AcDbEntity
  8
0
100
AcDbBlockEnd
  0
BLOCK
  5
6A
330
69
100
AcDbEntity
  8
0
100
AcDbBlockBegin
  2
EX_NNORM
 70
     0
 10
0.0
 20
0.0
 30
0.0
  3
EX_NNORM
  1

  0
LINE
  5
92
330
69
100
AcDbEntity
  8
0
  6
CONTINUOUS
 62
     0
100
AcDbLine
 10
0.0
 20
0.0
 30
0.0
 11
-1.0
 21
0.0
 31
0.0
  0
LINE
  5
93
330
69
100
AcDbEntity
  8
0
  6
CONTINUOUS
 62
     0
100
AcDbLine
 10
0.0
 20
0.0
 30
0.0
 11
-1.0
 21
0.166666667
 31
0.0
  0
LINE
  5
94
330
69
100
AcDbEntity
  8
0
  6
CONTINUOUS
 62
     0
100
AcDbLine
 10
0.0
 20
0.0
 30
0.0
 11
-1.0
 21
-0.166666667
 31
0.0
  0
LINE
  5
95
330
69
100
AcDbEntity
  8
0
  6
CONTINUOUS
 62
     0
100
AcDbLine
 10
-1.0
 20
0.166666667
 30
0.0
 11
-1.0
 21
-0.166666667
 31
0.0
  0
ENDBLK
  5
6B
330
69
100
AcDbEntity
  8
0
100
AcDbBlockEnd
  0
BLOCK
  5
6D
330
6C
100
AcDbEntity
  8
0
100
AcDbBlockBegin
  2
EX_BBOX
 70
     0
 10
0.0
 20
0.0
 30
0.0
  3
EX_BBOX
  1

  0
LINE
  5
96
330
6C
100
AcDbEntity
  8
0
  6
CONTINUOUS
 62
     0
100
AcDbLine
 10
0.0
 20
0.0
 30
0.0
 11
-1.0
 21
0.0
 31
0.0
  0
LINE
  5
97
330
6C
100
AcDbEntity
  8
0
  6
CONTINUOUS
 62
     0
100
AcDbLine
 10
-0.5
 20
0.5
 30
0.0
 11
0.5
 21
0.5
 31
0.0
  0
LINE
  5
98
330
6C
100
AcDbEntity
  8
0
  6
CONTINUOUS
 62
     0
100
AcDbLine
 10
0.5
 20
0.5
 30
0.0
 11
0.5
 21
-0.5
 31
0.0
  0
LINE
  5
99
330
6C
100
AcDbEntity
  8
0
  6
CONTINUOUS
 62
     0
100
AcDbLine
 10
0.5
 20
-0.5
 30
0.0
 11
-0.5
 21
-0.5
 31
0.0
  0
LINE
  5
9A
330
6C
100
AcDbEntity
  8
0
  6
CONTINUOUS
 62
     0
100
AcDbLine
 10
-0.5
 20
-0.5
 30
0.0
 11
-0.5
 21
0.5
 31
0.0
  0
LINE
  5
9B
330
6C
100
AcDbEntity
  8
0
  6
CONTINUOUS
 62
     0
100
AcDbLine
 10
-0.25
 20
0.25
 30
0.0
 11
0.25
 21
0.25
 31
0.0
  0
LINE
  5
9C
330
6C
100
AcDbEntity
  8
0
  6
CONTINUOUS
 62
     0
100
AcDbLine
 10
0.25
 20
0.25
 30
0.0
 11
0.25
 21
-0.25
 31
0.0
  0
LINE
  5
9D
330
6C
100
AcDbEntity
  8
0
  6
CONTINUOUS
 62
     0
100
AcDbLine
 10
0.25
 20
-0.25
 30
0.0
 11
-0.25
 21
-0.25
 31
0.0
  0
LINE
  5
9E
330
6C
100
AcDbEntity
  8
0
  6
CONTINUOUS
 62
     0
100
AcDbLine
 10
-0.25
 20
-0.25
 30
0.0
 11
-0.25
 21
0.25
 31
0.0
  0
ENDBLK
  5
6E
330
6C
100
AcDbEntity
  8
0
100
AcDbBlockEnd
  0
BLOCK
  5
70
330
6F
100
AcDbEntity
  8
0
100
AcDbBlockBegin
  2
EX_WBOX
 70
     0
 10
0.0
 20
0.0
 30
0.0
  3
EX_WBOX
  1

  0
LINE
  5
9F
330
6F
100
AcDbEntity
  8
0
  6
CONTINUOUS
 62
     0
100
AcDbLine
 10
-0.5
 20
0.0
 30
0.0
 11
-1.0
 21
0.0
 31
0.0
  0
LINE
  5
A0
330
6F
100
AcDbEntity
  8
0
  6
CONTINUOUS
 62
     0
100
AcDbLine
 10
-0.5
 20
0.5
 30
0.0
 11
0.5
 21
0.5
 31
0.0
  0
LINE
  5
A1
330
6F
100
AcDbEntity
  8
0
  6
CONTINUOUS
 62
     0
100
AcDbLine
 10
0.5
 20
0.5
 30
0.0
 11
0.5
 21
-0.5
 31
0.0
  0
LINE
  5
A2
330
6F
100
AcDbEntity
  8
0
  6
CONTINUOUS
 62
     0
100
AcDbLine
 10
0.5
 20
-0.5
 30
0.0
 11
-0.5
 21
-0.5
 31
0.0
  0
LINE
  5
A3
330
6F
100
AcDbEntity
  8
0
  6
CONTINUOUS
 62
     0
100
AcDbLine
 10
-0.5
 20
-0.5
 30
0.0
 11
-0.5
 21
0.5
 31
0.0
  0
ENDBLK
  5
71
330
6F
100
AcDbEntity
  8
0
100
AcDbBlockEnd
  0
BLOCK
  5
73
330
72
100
AcDbEntity
  8
0
100
AcDbBlockBegin
  2
EX_INTEGRAL
 70
     0
 10
0.0
 20
0.0
 30
0.0
  3
EX_INTEGRAL
  1

  0
LINE
  5
A4
330
72
100
AcDbEntity
  8
0
  6
CONTINUOUS
 62
     0
100
AcDbLine
 10
0.0
 20
0.0
 30
0.0
 11
-1.0
 21
0.0
 31
0.0
  0
ARC
  5
A5
330
72
100
AcDbEntity
  8
0
  6
CONTINUOUS
 62
     0
100
AcDbCircle
 10
0.542115
 20
0.164992
 30
0.0
 40
0.56667
100
AcDbArc
 50
73.07249033629006
 51
196.9275130221199
  0
ARC
  5
A6
330
72
100
AcDbEntity
  8
0
  6
CONTINUOUS
 62
     0
100
AcDbCircle
 10
-0.542115
 20
-0.164992
 30
0.0
 40
0.56667
100
AcDbArc
 50
253.0724869220464
 51
16.9275130559125
  0
ENDBLK
  5
74
330
72
100
AcDbEntity
  8
0
100
AcDbBlockEnd
  0
BLOCK
  5
1F6
330
1F5
100
AcDbEntity
  8
0
100
AcDbBlockBegin
  2
*D15
 70
     1
 10
0.0
 20
0.0
 30
0.0
  3
*D15
  1

  0
LINE
  5
1F8
330
1F5
100
AcDbEntity
  8
エルボ
  6
CONTINUOUS
 62
     3
100
AcDbLine
 10
108.6
 20
84.30000001192093
 30
0.0
 11
108.6
 21
71.0
 31
0.0
  0
LINE
  5
1F9
330
1F5
100
AcDbEntity
  8
エルボ
  6
CONTINUOUS
 62
     3
100
AcDbLine
 10
66.10000000000001
 20
93.90000001192092
 30
0.0
 11
66.10000000000001
 21
71.0
 31
0.0
  0
LINE
  5
1FA
330
1F5
100
AcDbEntity
  8
エルボ
  6
CONTINUOUS
 62
     3
100
AcDbLine
 10
105.6
 20
72.0
 30
0.0
 11
69.10000000000001
 21
72.0
 31
0.0
  0
INSERT
  5
1FB
330
1F5
100
AcDbEntity
  8
エルボ
 62
     3
100
AcDbBlockReference
  2
EX_NORM
 10
108.6
 20
72.0
 30
0.0
 41
3.0
 42
3.0
 43
3.0
  0
INSERT
  5
1FC
330
1F5
100
AcDbEntity
  8
エルボ
 62
     3
100
AcDbBlockReference
  2
EX_NORM
 10
66.10000000000001
 20
72.0
 30
0.0
 41
3.0
 42
3.0
 43
3.0
 50
180.0
  0
MTEXT
  5
1FD
330
1F5
100
AcDbEntity
  8
エルボ
 62
     2
100
AcDbMText
 10
87.35000000000001
 20
74.30000001192093
 30
0.0
 40
4.0
 41
0.0
 71
     5
 72
     1
  1
43.0
  7
EXCADDIM1
  0
POINT
  5
1FE
330
1F5
100
AcDbEntity
  8
DEFPOINTS
 62
     0
100
AcDbPoint
 10
108.6
 20
85.0
 30
0.0
  0
POINT
  5
1FF
330
1F5
100
AcDbEntity
  8
DEFPOINTS
 62
     0
100
AcDbPoint
 10
66.10000000000001
 20
94.6
 30
0.0
  0
POINT
  5
200
330
1F5
100
AcDbEntity
  8
DEFPOINTS
 62
     0
100
AcDbPoint
 10
66.10000000000001
 20
72.0
 30
0.0
  0
ENDBLK
  5
1F7
330
1F5
100
AcDbEntity
  8
0
100
AcDbBlockEnd
  0
BLOCK
  5
203
330
202
100
AcDbEntity
  8
0
100
AcDbBlockBegin
  2
*D16
 70
     1
 10
0.0
 20
0.0
 30
0.0
  3
*D16
  1

  0
LINE
  5
205
330
202
100
AcDbEntity
  8
エルボ
  6
CONTINUOUS
 62
     3
100
AcDbLine
 10
135.5
 20
95.80000001192093
 30
0.0
 11
135.5
 21
70.6
 31
0.0
  0
LINE
  5
206
330
202
100
AcDbEntity
  8
エルボ
  6
CONTINUOUS
 62
     3
100
AcDbLine
 10
185.3
 20
95.80000001192093
 30
0.0
 11
185.3
 21
70.6
 31
0.0
  0
LINE
  5
207
330
202
100
AcDbEntity
  8
エルボ
  6
CONTINUOUS
 62
     3
100
AcDbLine
 10
138.5
 20
71.6
 30
0.0
 11
182.3
 21
71.6
 31
0.0
  0
INSERT
  5
208
330
202
100
AcDbEntity
  8
エルボ
 62
     3
100
AcDbBlockReference
  2
EX_NORM
 10
135.5
 20
71.6
 30
0.0
 41
3.0
 42
3.0
 43
3.0
 50
180.0
  0
INSERT
  5
209
330
202
100
AcDbEntity
  8
エルボ
 62
     3
100
AcDbBlockReference
  2
EX_NORM
 10
185.3
 20
71.6
 30
0.0
 41
3.0
 42
3.0
 43
3.0
  0
MTEXT
  5
20A
330
202
100
AcDbEntity
  8
エルボ
 62
     2
100
AcDbMText
 10
160.4
 20
73.90000001192092
 30
0.0
 40
4.0
 41
0.0
 71
     5
 72
     1
  1
50.0
  7
EXCADDIM1
  0
POINT
  5
20B
330
202
100
AcDbEntity
  8
DEFPOINTS
 62
     0
100
AcDbPoint
 10
135.5
 20
96.5
 30
0.0
  0
POINT
  5
20C
330
202
100
AcDbEntity
  8
DEFPOINTS
 62
     0
100
AcDbPoint
 10
185.3
 20
96.5
 30
0.0
  0
POINT
  5
20D
330
202
100
AcDbEntity
  8
DEFPOINTS
 62
     0
100
AcDbPoint
 10
185.3
 20
71.6
 30
0.0
  0
ENDBLK
  5
204
330
202
100
AcDbEntity
  8
0
100
AcDbBlockEnd
  0
BLOCK
  5
210
330
20F
100
AcDbEntity
  8
0
100
AcDbBlockBegin
  2
*D17
 70
     1
 10
0.0
 20
0.0
 30
0.0
  3
*D17
  1

  0
LINE
  5
212
330
20F
100
AcDbEntity
  8
エルボ
  6
CONTINUOUS
 62
     3
100
AcDbLine
 10
77.10000000000102
 20
151.0
 30
0.0
 11
118.7000000000001
 21
151.0
 31
0.0
  0
LINE
  5
213
330
20F
100
AcDbEntity
  8
エルボ
  6
CONTINUOUS
 62
     3
100
AcDbLine
 10
120.400000000001
 20
96.5
 30
0.0
 11
118.7000000000001
 21
96.5
 31
0.0
  0
LINE
  5
214
330
20F
100
AcDbEntity
  8
エルボ
  6
CONTINUOUS
 62
     3
100
AcDbLine
 10
117.7
 20
148.0
 30
0.0
 11
117.7
 21
99.5
 31
0.0
  0
INSERT
  5
215
330
20F
100
AcDbEntity
  8
エルボ
 62
     3
100
AcDbBlockReference
  2
EX_NORM
 10
117.7
 20
151.0
 30
0.0
 41
3.0
 42
3.0
 43
3.0
 50
90.0
  0
INSERT
  5
216
330
20F
100
AcDbEntity
  8
エルボ
 62
     3
100
AcDbBlockReference
  2
EX_NORM
 10
117.7
 20
96.5
 30
0.0
 41
3.0
 42
3.0
 43
3.0
 50
270.0
  0
MTEXT
  5
217
330
20F
100
AcDbEntity
  8
エルボ
 62
     2
100
AcDbMText
 10
115.3999999880791
 20
123.75
 30
0.0
 40
4.0
 41
0.0
 71
     5
 72
     1
  1
54.5
  7
EXCADDIM1
 11
0.0
 21
1.0
 31
0.0
  0
POINT
  5
218
330
20F
100
AcDbEntity
  8
DEFPOINTS
 62
     0
100
AcDbPoint
 10
73.60000000000001
 20
151.0
 30
0.0
  0
POINT
  5
219
330
20F
100
AcDbEntity
  8
DEFPOINTS
 62
     0
100
AcDbPoint
 10
116.9
 20
96.5
 30
0.0
  0
POINT
  5
21A
330
20F
100
AcDbEntity
  8
DEFPOINTS
 62
     0
100
AcDbPoint
 10
117.7
 20
96.5
 30
0.0
  0
ENDBLK
  5
211
330
20F
100
AcDbEntity
  8
0
100
AcDbBlockEnd
  0
BLOCK
  5
21D
330
21C
100
AcDbEntity
  8
0
100
AcDbBlockBegin
  2
*D18
 70
     1
 10
0.0
 20
0.0
 30
0.0
  3
*D18
  1

  0
LINE
  5
21F
330
21C
100
AcDbEntity
  8
エルボ
  6
CONTINUOUS
 62
     3
100
AcDbLine
 10
78.69999998807907
 20
118.8
 30
0.0
 11
110.1
 21
118.8
 31
0.0
  0
LINE
  5
220
330
21C
100
AcDbEntity
  8
エルボ
  6
CONTINUOUS
 62
     3
100
AcDbLine
 10
109.1
 20
148.0
 30
0.0
 11
109.1
 21
121.8
 31
0.0
  0
INSERT
  5
221
330
21C
100
AcDbEntity
  8
エルボ
 62
     3
100
AcDbBlockReference
  2
EX_NORM
 10
109.1
 20
151.0
 30
0.0
 41
3.0
 42
3.0
 43
3.0
 50
90.0
  0
INSERT
  5
222
330
21C
100
AcDbEntity
  8
エルボ
 62
     3
100
AcDbBlockReference
  2
EX_NORM
 10
109.1
 20
118.8
 30
0.0
 41
3.0
 42
3.0
 43
3.0
 50
270.0
  0
MTEXT
  5
223
330
21C
100
AcDbEntity
  8
エルボ
 62
     2
100
AcDbMText
 10
106.7999999880791
 20
134.9
 30
0.0
 40
4.0
 41
0.0
 71
     5
 72
     1
  1
32.2
  7
EXCADDIM1
 11
0.0
 21
1.0
 31
0.0
  0
POINT
  5
224
330
21C
100
AcDbEntity
  8
DEFPOINTS
 62
     0
100
AcDbPoint
 10
66.10000000000001
 20
151.0
 30
0.0
  0
POINT
  5
225
330
21C
100
AcDbEntity
  8
DEFPOINTS
 62
     0
100
AcDbPoint
 10
78.0
 20
118.8
 30
0.0
  0
POINT
  5
226
330
21C
100
AcDbEntity
  8
DEFPOINTS
 62
     0
100
AcDbPoint
 10
109.1
 20
118.8
 30
0.0
  0
ENDBLK
  5
21E
330
21C
100
AcDbEntity
  8
0
100
AcDbBlockEnd
  0
ENDSEC
  0
SECTION
  2
ENTITIES
  0
HATCH
  5
A7
330
1F
100
AcDbEntity
  8
0
  6
CONTINUOUS
 62
     3
100
AcDbHatch
 10
0.0
 20
0.0
 30
0.0
210
0.0
220
0.0
230
1.0
  2
SOLID
 70
     1
 71
     1
 91
        1
 92
        3
 72
     1
 73
     1
 93
       10
 10
77.472526573325
 20
12.32169932975406
 42
-0.017362223501556
 10
77.48130157332501
 20
17.61842432975411
 42
-0.0267627618865285
 10
77.48130157332497
 20
17.61842432975408
 42
0.0737939047395297
 10
78.773251573325
 20
17.623824329754
 42
0.0183878899657109
 10
78.72127657332503
 20
12.84819932975405
 42
-0.1144749489451909
 10
78.51202657332495
 20
11.84244932975405
 42
-0.1929163439413163
 10
77.51640157332506
 20
11.06079932975405
 42
-0.0603888289562337
 10
76.98855157332497
 20
10.92917432975406
 42
0.0
 10
76.86502657332494
 20
11.30514932975406
 42
0.0860918333465722
 10
77.234251573325
 20
11.50157432975406
 42
0.1331843103855141
 97
        0
 75
     0
 76
     1
 98
        1
 10
0.0
 20
0.0
  0
HATCH
  5
A8
330
1F
100
AcDbEntity
  8
0
  6
CONTINUOUS
 62
     3
100
AcDbHatch
 10
0.0
 20
0.0
 30
0.0
210
0.0
220
0.0
230
1.0
  2
SOLID
 70
     1
 71
     1
 91
        1
 92
        3
 72
     1
 73
     1
 93
       16
 10
83.38687657332498
 20
12.21032432975406
 42
-0.0386228372648426
 10
83.38080157332497
 20
15.46449932975407
 42
-0.0398707891902887
 10
83.971426573325
 20
15.46719932975408
 42
-0.1256886216044368
 10
83.944426573325
 20
14.91504932975407
 42
-0.0367815758121429
 10
83.944426573325
 20
14.91504932975405
 42
-0.268021535028829
 10
85.13580157332504
 20
15.53334932975407
 42
-0.2571134422124888
 10
85.95052657332494
 20
15.1303743297541
 42
-0.1522526366014298
 10
86.15775157332499
 20
14.46009932975407
 42
-0.0158825412051521
 10
86.14290157332496
 20
12.20694932975407
 42
-0.0285251271418421
 10
85.57252657332504
 20
12.20694932975406
 42
-0.0452212723224612
 10
85.601551573325
 20
14.28864932975409
 42
-0.0315567291532142
 10
85.42470157332497
 20
14.90357432975409
 42
-0.1476272403790709
 10
84.27315157332498
 20
14.99199932975406
 42
-0.3908144705745794
 10
83.94847657332497
 20
14.18402432975405
 42
-0.2046259928850854
 10
83.94847657332497
 20
14.1840243297541
 42
0.0
 10
83.99910157332506
 20
12.20492432975408
 42
-0.0304995761723369
 97
        0
 75
     0
 76
     1
 98
        1
 10
0.0
 20
0.0
  0
HATCH
  5
A9
330
1F
100
AcDbEntity
  8
0
  6
CONTINUOUS
 62
     3
100
AcDbHatch
 10
0.0
 20
0.0
 30
0.0
210
0.0
220
0.0
230
1.0
  2
SOLID
 70
     1
 71
     1
 91
        2
 92
        1
 93
        1
 72
     2
 10
87.62855140383351
 20
16.6583546687371
 40
0.3572334466769884
 50
0.0
 51
360.0
 73
     1
 97
        0
 92
        3
 72
     1
 73
     1
 93
        3
 10
87.30930157332496
 20
15.46989932975407
 42
0.1200283885712921
 10
87.93030157332497
 20
12.20627432975403
 42
-0.0401820615762149
 10
87.30997657332496
 20
12.20424932975407
 42
-0.0237521668114666
 97
        0
 75
     0
 76
     1
 98
        1
 10
0.0
 20
0.0
  0
HATCH
  5
AA
330
1F
100
AcDbEntity
  8
0
  6
CONTINUOUS
 62
     3
100
AcDbHatch
 10
0.0
 20
0.0
 30
0.0
210
0.0
220
0.0
230
1.0
  2
SOLID
 70
     1
 71
     1
 91
        1
 92
        3
 72
     1
 73
     1
 93
       30
 10
90.77340157332493
 20
15.33354932975412
 42
-0.0009362235736497
 10
90.77340157332495
 20
15.33354932975407
 42
0.0681165430304653
 10
90.6097093486731
 20
14.84282432975408
 42
0.0
 10
89.99310157332502
 20
15.26469932975409
 42
-0.302112590907374
 10
89.99310157332502
 20
15.26469932975408
 42
0.0
 10
89.37142657332497
 20
14.78814932975408
 42
-0.3704245237568778
 10
89.37142657332492
 20
14.78814932975405
 42
0.0
 10
89.403826573325
 20
14.46954932975407
 42
-0.0262822419456939
 10
89.787226573325
 20
14.16309932975405
 42
-0.180060563604375
 10
90.39877657332501
 20
13.97679932975409
 42
-0.0298130817160724
 10
90.39877657332498
 20
13.97679932975406
 42
-0.3153987453686078
 10
90.96240157332505
 20
13.33217432975408
 42
0.0
 10
90.95902657332505
 20
13.04394932975405
 42
-0.3510306079065168
 10
89.872276573325
 20
12.13269932975408
 42
0.0
 10
89.55502657332492
 20
12.13269932975405
 42
-0.1053356344842436
 10
88.85302657332498
 20
12.33519932975408
 42
0.1188608286962634
 10
88.98127657332498
 20
12.8481993297541
 42
0.0
 10
89.75077657332501
 20
12.37569932975408
 42
-0.2447573632916039
 10
89.75077657332497
 20
12.37569932975407
 42
0.0
 10
90.493276573325
 20
12.89544932975409
 42
-0.3734162676407277
 10
90.49327657332503
 20
12.89544932975406
 42
0.0
 10
90.22395157332502
 20
13.41452432975409
 42
-0.261219770190848
 10
89.59552657332493
 20
13.64267432975409
 42
-0.0572747914118363
 10
89.59552657332503
 20
13.64267432975408
 42
-0.1189658875692221
 10
89.09602657332496
 20
13.93562432975409
 42
-0.2005226878639636
 10
88.88677657332494
 20
14.40744932975628
 42
0.0
 10
88.883401573325
 20
14.58632432975405
 42
-0.2622894489606957
 10
89.42002657332503
 20
15.40644932975409
 42
-0.0988461274137808
 10
89.92222657332502
 20
15.52727432975405
 42
0.0
 10
90.10852657332495
 20
15.52727432975409
 42
-0.0920156312561188
 97
        0
 75
     0
 76
     1
 98
        1
 10
0.0
 20
0.0
  0
HATCH
  5
AB
330
1F
100
AcDbEntity
  8
0
  6
CONTINUOUS
 62
     3
100
AcDbHatch
 10
0.0
 20
0.0
 30
0.0
210
0.0
220
0.0
230
1.0
  2
SOLID
 70
     1
 71
     1
 91
        2
 92
        3
 72
     1
 73
     1
 93
       27
 10
80.01727657332498
 20
15.13644932975409
 42
-0.1769427732109284
 10
80.01727657332503
 20
15.1364493297541
 42
0.0
 10
80.01727657332503
 20
14.77194932975408
 42
0.0
 10
80.10502657332503
 20
14.77194932975404
 42
-0.207533601427307
 10
80.67474227895701
 20
15.19932359129048
 42
-0.1226604740888933
 10
81.17827657332502
 20
15.21002432975408
 42
-0.3213715781137954
 10
81.69883280222085
 20
14.57106514378476
 42
-0.064704004662446
 10
81.70140157332499
 20
14.23329932975406
 42
-0.257798906330806
 10
81.59542657332504
 20
14.10504932975406
 42
-0.056602577721096
 10
81.36862657332502
 20
14.02607432975409
 42
-0.0166741689362636
 10
80.53702657332498
 20
13.86812432975407
 42
0.1186092302783404
 10
79.988251573325
 20
13.60487432975407
 42
0.1699204224386695
 10
79.74930157332501
 20
13.20527432975406
 42
0.1006533494296199
 10
79.72720866795815
 20
12.85853555095727
 42
0.1675695228968024
 10
79.94370157332506
 20
12.39392432975407
 42
0.1376980079804242
 10
80.33722657332494
 20
12.16644932975409
 42
0.0719813663796923
 10
80.51610157332493
 20
12.13674932975408
 42
0.0
 10
80.79015157332503
 20
12.13674932975409
 42
0.1944607457809085
 10
81.69937657332504
 20
12.60452432975407
 42
0.1288538183665954
 10
81.79117657332495
 20
12.37502432975404
 42
0.2098387395261546
 10
82.09087657332503
 20
12.20964932975409
 42
0.0
 10
82.30822657332503
 20
12.20829932975409
 42
0.0945009641609563
 10
82.62210157332498
 20
12.27512432975408
 42
0.0
 10
82.62210157332497
 20
12.43239932975407
 42
-0.2395739894657535
 10
82.34805157332504
 20
12.42969932975405
 42
-0.2502312110031057
 10
82.21305157332498
 20
12.68349932975415
 42
-0.0104343570771765
 10
82.23127657332506
 20
14.57619932975406
 42
0.4051015674140716
 97
        0
 92
        3
 72
     1
 73
     1
 93
        8
 10
81.71355157332498
 20
13.90254932975406
 42
-0.0339435190873666
 10
81.71355157332528
 20
13.90254932975294
 42
-0.0001110072973599
 10
81.68520157332505
 20
12.86844932975405
 42
-0.2253076310552528
 10
80.976451573325
 20
12.3952743297541
 42
0.0
 10
80.80297657332493
 20
12.3952743297541
 42
-0.3657967558150132
 10
80.28727657332496
 20
12.94337432975408
 42
0.0
 10
80.28727657332504
 20
13.13912432975409
 42
-0.2530797830369341
 10
80.63557657332501
 20
13.62107432975406
 42
-0.0724473624720066
 97
        0
 75
     0
 76
     1
 98
        1
 10
0.0
 20
0.0
  0
TEXT
  5
AD
330
1F
100
AcDbEntity
  8
0
  6
CONTINUOUS
 62
     2
100
AcDbText
 10
92.30000000000024
 20
11.65000000000003
 30
0.0
 40
3.375
  1
ジャニス工業株式会社
 41
1.025641025641026
  7
EXCADTTF1
 72
     5
 11
137.3000000000002
 21
11.65000000000003
 31
0.0
100
AcDbText
  0
ARC
  5
AE
330
1F
100
AcDbEntity
  8
0
  6
CONTINUOUS
 62
     3
100
AcDbCircle
 10
81.12685324125522
 20
13.76167288926888
 30
0.0
 40
1.766683515327064
100
AcDbArc
 50
88.77000393305703
 51
128.9068631829044
  0
ARC
  5
AF
330
1F
100
AcDbEntity
  8
0
  6
CONTINUOUS
 62
     3
100
AcDbCircle
 10
81.20706272602791
 20
14.50191625973315
 30
0.0
 40
1.02690407511459
100
AcDbArc
 50
4.148222840814693
 51
92.36000944257292
  0
ARC
  5
B0
330
1F
100
AcDbEntity
  8
0
  6
CONTINUOUS
 62
     3
100
AcDbCircle
 10
127.565013583871
 20
13.19323843931733
 30
0.0
 40
45.35482655865662
100
AcDbArc
 50
178.2526643324597
 51
180.6439560401927
  0
ARC
  5
B1
330
1F
100
AcDbEntity
  8
0
  6
CONTINUOUS
 62
     3
100
AcDbCircle
 10
82.51823989446035
 20
12.68302928780474
 30
0.0
 40
0.305188683107389
100
AcDbArc
 50
179.9117548191414
 51
236.1065985968857
  0
ARC
  5
B2
330
1F
100
AcDbEntity
  8
0
  6
CONTINUOUS
 62
     3
100
AcDbCircle
 10
82.48242078457957
 20
12.7006118874109
 30
0.0
 40
0.30240485913648
100
AcDbArc
 50
243.6191685566582
 51
297.5097757939563
  0
LINE
  5
B3
330
1F
100
AcDbEntity
  8
0
  6
CONTINUOUS
 62
     3
100
AcDbLine
 10
82.62210157332498
 20
12.27512432975408
 30
0.0
 11
82.62210157332498
 21
12.43239932975405
 31
0.0
  0
LINE
  5
B4
330
1F
100
AcDbEntity
  8
0
  6
CONTINUOUS
 62
     3
100
AcDbLine
 10
82.09087657332503
 20
12.20964932975409
 30
0.0
 11
82.30822657332499
 21
12.20964932975409
 31
0.0
  0
ARC
  5
B5
330
1F
100
AcDbEntity
  8
0
  6
CONTINUOUS
 62
     3
100
AcDbCircle
 10
82.2899589194559
 20
13.06464512823032
 30
0.0
 40
0.856540620020894
100
AcDbArc
 50
271.2220539293239
 51
292.8159509797653
  0
ARC
  5
B6
330
1F
100
AcDbEntity
  8
0
  6
CONTINUOUS
 62
     3
100
AcDbCircle
 10
82.1293773508146
 20
12.6336745652863
 30
0.0
 40
0.425769550620398
100
AcDbArc
 50
217.4081478714985
 51
264.8118660441384
  0
ARC
  5
B7
330
1F
100
AcDbEntity
  8
0
  6
CONTINUOUS
 62
     3
100
AcDbCircle
 10
82.18315560558312
 20
12.66492594265731
 30
0.0
 40
0.487535134009722
100
AcDbArc
 50
187.1167640402297
 51
216.4860549324747
  0
ARC
  5
B8
330
1F
100
AcDbEntity
  8
0
  6
CONTINUOUS
 62
     3
100
AcDbCircle
 10
80.66613045867007
 20
13.49534026256828
 30
0.0
 40
1.364239920103932
100
AcDbArc
 50
275.2158792069686
 51
319.2336424873511
  0
LINE
  5
B9
330
1F
100
AcDbEntity
  8
0
  6
CONTINUOUS
 62
     3
100
AcDbLine
 10
80.51610157332493
 20
12.13674932975408
 30
0.0
 11
80.79015157332503
 21
12.13674932975408
 31
0.0
  0
ARC
  5
BA
330
1F
100
AcDbEntity
  8
0
  6
CONTINUOUS
 62
     3
100
AcDbCircle
 10
80.52928130736751
 20
12.76963494387411
 30
0.0
 40
0.633022832091786
100
AcDbArc
 50
252.3384873625213
 51
268.8069976857606
  0
ARC
  5
BB
330
1F
100
AcDbEntity
  8
0
  6
CONTINUOUS
 62
     3
100
AcDbCircle
 10
80.54562953036884
 20
12.98111104772596
 30
0.0
 40
0.840895657756366
100
AcDbArc
 50
224.289750990011
 51
255.6505938786759
  0
ARC
  5
BC
330
1F
100
AcDbEntity
  8
0
  6
CONTINUOUS
 62
     3
100
AcDbCircle
 10
80.50915332915497
 20
12.94015021572864
 30
0.0
 40
0.78619234712629
100
AcDbArc
 50
185.9586126338419
 51
224.0091989319859
  0
ARC
  5
BD
330
1F
100
AcDbEntity
  8
0
  6
CONTINUOUS
 62
     3
100
AcDbCircle
 10
80.5907501856999
 20
12.97758712547744
 30
0.0
 40
0.871709372588669
100
AcDbArc
 50
164.8589457925044
 51
187.8495628504518
  0
ARC
  5
BE
330
1F
100
AcDbEntity
  8
0
  6
CONTINUOUS
 62
     3
100
AcDbCircle
 10
80.43972379030146
 20
13.06366332500801
 30
0.0
 40
0.704795370557922
100
AcDbArc
 50
129.8344892359069
 51
168.4089447024628
  0
ARC
  5
BF
330
1F
100
AcDbEntity
  8
0
  6
CONTINUOUS
 62
     3
100
AcDbCircle
 10
80.80970138675781
 20
12.59608481482871
 30
0.0
 40
1.30093661698492
100
AcDbArc
 50
102.0988446293839
 51
129.1556705448828
  0
ARC
  5
C0
330
1F
100
AcDbEntity
  8
0
  6
CONTINUOUS
 62
     3
100
AcDbCircle
 10
78.58530099985785
 20
26.41202029775212
 30
0.0
 40
12.69482409370382
100
AcDbArc
 50
278.8438342053764
 51
282.6649181367123
  0
ARC
  5
C1
330
1F
100
AcDbEntity
  8
0
  6
CONTINUOUS
 62
     3
100
AcDbCircle
 10
81.13433050110893
 20
15.06407362688748
 30
0.0
 40
1.064113335272784
100
AcDbArc
 50
282.7195832898965
 51
295.6781112778079
  0
ARC
  5
C2
330
1F
100
AcDbEntity
  8
0
  6
CONTINUOUS
 62
     3
100
AcDbCircle
 10
81.53230955673342
 20
14.26511332504288
 30
0.0
 40
0.172058828228131
100
AcDbArc
 50
291.5204897073511
 51
349.3445900274031
  0
ARC
  5
C3
330
1F
100
AcDbEntity
  8
0
  6
CONTINUOUS
 62
     3
100
AcDbCircle
 10
80.40053873566563
 20
14.39229870375124
 30
0.0
 40
1.310543751018921
100
AcDbArc
 50
353.0315250986587
 51
7.839947970678348
  0
ARC
  5
C4
330
1F
100
AcDbEntity
  8
0
  6
CONTINUOUS
 62
     3
100
AcDbCircle
 10
80.99283412817687
 20
14.52741886153422
 30
0.0
 40
0.707346538626002
100
AcDbArc
 50
3.537639967999379
 51
74.8013566619203
  0
ARC
  5
C5
330
1F
100
AcDbEntity
  8
0
  6
CONTINUOUS
 62
     3
100
AcDbCircle
 10
80.94799095798305
 20
14.19383830513021
 30
0.0
 40
1.04195273466423
100
AcDbArc
 50
77.23143261361693
 51
105.203415964315
  0
ARC
  5
C6
330
1F
100
AcDbEntity
  8
0
  6
CONTINUOUS
 62
     3
100
AcDbCircle
 10
80.88253617702986
 20
14.32890191857882
 30
0.0
 40
0.894881105176719
100
AcDbArc
 50
103.4267945469744
 51
150.3242613737993
  0
LINE
  5
C7
330
1F
100
AcDbEntity
  8
0
  6
CONTINUOUS
 62
     3
100
AcDbLine
 10
80.01727657332503
 20
15.1364493297541
 30
0.0
 11
80.01727657332503
 21
14.77194932975408
 31
0.0
  0
ARC
  5
C8
330
1F
100
AcDbEntity
  8
0
  6
CONTINUOUS
 62
     3
100
AcDbCircle
 10
70.51439565227071
 20
12.67342761922788
 30
0.0
 40
6.967015049800598
100
AcDbArc
 50
353.1274757312911
 51
357.106204490141
  0
ARC
  5
C9
330
1F
100
AcDbEntity
  8
0
  6
CONTINUOUS
 62
     3
100
AcDbCircle
 10
28.03385521229314
 20
15.05197335838841
 30
0.0
 40
49.51400430399008
100
AcDbArc
 50
356.8390243485978
 51
2.971133813187157
  0
ARC
  5
CA
330
1F
100
AcDbEntity
  8
0
  6
CONTINUOUS
 62
     3
100
AcDbCircle
 10
76.70927386496021
 20
12.03407518472915
 30
0.0
 40
0.747769185530633
100
AcDbArc
 50
314.592391474832
 51
344.9374073189123
  0
ARC
  5
CB
330
1F
100
AcDbEntity
  8
0
  6
CONTINUOUS
 62
     3
100
AcDbCircle
 10
76.48347289685438
 20
12.4675985944599
 30
0.0
 40
1.223467000390025
100
AcDbArc
 50
288.1715191042997
 51
307.8537826235693
  0
LINE
  5
CC
330
1F
100
AcDbEntity
  8
0
  6
CONTINUOUS
 62
     3
100
AcDbLine
 10
76.98855157332497
 20
10.92917432975406
 30
0.0
 11
76.865026573325
 21
11.30514932975404
 31
0.0
  0
ARC
  5
CD
330
1F
100
AcDbEntity
  8
0
  6
CONTINUOUS
 62
     3
100
AcDbCircle
 10
76.70955749866653
 20
13.17223152915386
 30
0.0
 40
2.260341410821362
100
AcDbArc
 50
277.0901027239701
 51
290.9134154817058
  0
ARC
  5
CE
330
1F
100
AcDbEntity
  8
0
  6
CONTINUOUS
 62
     3
100
AcDbCircle
 10
77.03897327885477
 20
12.6938351862683
 30
0.0
 40
1.701394688196115
100
AcDbArc
 50
286.2966123578915
 51
329.973223283839
  0
ARC
  5
CF
330
1F
100
AcDbEntity
  8
0
  6
CONTINUOUS
 62
     3
100
AcDbCircle
 10
76.44899361790613
 20
12.79631356880094
 30
0.0
 40
2.272875263114311
100
AcDbArc
 50
335.1860595856123
 51
1.308075913059364
  0
ARC
  5
D0
330
1F
100
AcDbEntity
  8
0
  6
CONTINUOUS
 62
     3
100
AcDbCircle
 10
143.6542531413434
 20
14.52960360950846
 30
0.0
 40
64.95474244683605
100
AcDbArc
 50
177.2695926307304
 51
181.4833117237826
  0
ARC
  5
D1
330
1F
100
AcDbEntity
  8
0
  6
CONTINUOUS
 62
     3
100
AcDbCircle
 10
78.1090820012227
 20
21.97417570522225
 30
0.0
 40
4.400758833490466
100
AcDbArc
 50
261.7986203004403
 51
278.6803384946418
  0
ARC
  5
D2
330
1F
100
AcDbEntity
  8
0
  6
CONTINUOUS
 62
     3
100
AcDbCircle
 10
80.56056099353725
 20
17.87501381160507
 30
0.0
 40
4.136406814694017
100
AcDbArc
 50
278.4088456599976
 51
286.1851416003176
  0
ARC
  5
D3
330
1F
100
AcDbEntity
  8
0
  6
CONTINUOUS
 62
     3
100
AcDbCircle
 10
81.45660651757703
 20
11.88318862667978
 30
0.0
 40
1.922065786155208
100
AcDbArc
 50
98.71271710191789
 51
115.2874718053599
  0
ARC
  5
D4
330
1F
100
AcDbEntity
  8
0
  6
CONTINUOUS
 62
     3
100
AcDbCircle
 10
80.90701866837838
 20
13.05807479047184
 30
0.0
 40
0.625019433457053
100
AcDbArc
 50
115.7403688633493
 51
172.5491744442191
  0
LINE
  5
D5
330
1F
100
AcDbEntity
  8
0
  6
CONTINUOUS
 62
     3
100
AcDbLine
 10
80.28727657332496
 20
13.13912432975405
 30
0.0
 11
80.28727657332496
 21
12.94337432975408
 31
0.0
  0
ARC
  5
D6
330
1F
100
AcDbEntity
  8
0
  6
CONTINUOUS
 62
     3
100
AcDbCircle
 10
80.86959653488736
 20
12.97461380097786
 30
0.0
 40
0.583157304846997
100
AcDbArc
 50
183.0707787095794
 51
263.4402016072427
  0
LINE
  5
D7
330
1F
100
AcDbEntity
  8
0
  6
CONTINUOUS
 62
     3
100
AcDbLine
 10
80.80297657332494
 20
12.3952743297541
 30
0.0
 11
80.976451573325
 21
12.3952743297541
 31
0.0
  0
ARC
  5
D8
330
1F
100
AcDbEntity
  8
0
  6
CONTINUOUS
 62
     3
100
AcDbCircle
 10
80.83244690765918
 20
13.37836489530207
 30
0.0
 40
0.993581603997916
100
AcDbArc
 50
278.3335103000368
 51
329.1221464187299
  0
ARC
  5
D9
330
1F
100
AcDbEntity
  8
0
  6
CONTINUOUS
 62
     3
100
AcDbCircle
 10
-2247.201542217735
 20
77.23265245587831
 30
0.0
 40
2329.776001260591
100
AcDbArc
 50
358.4169008257799
 51
358.4423418242109
  0
ARC
  5
DA
330
1F
100
AcDbEntity
  8
0
  6
CONTINUOUS
 62
     3
100
AcDbCircle
 10
83.65808780069312
 20
8.25069254511709
 30
0.0
 40
3.968909094418497
100
AcDbArc
 50
85.07099551674689
 51
93.91830029343228
  0
ARC
  5
DB
330
1F
100
AcDbEntity
  8
0
  6
CONTINUOUS
 62
     3
100
AcDbCircle
 10
91.34088578951042
 20
13.09150147009814
 30
0.0
 40
7.395120993114926
100
AcDbArc
 50
179.8977458165987
 51
186.8855675734268
  0
ARC
  5
DC
330
1F
100
AcDbEntity
  8
0
  6
CONTINUOUS
 62
     3
100
AcDbCircle
 10
85.05661722366398
 20
14.20795225138056
 30
0.0
 40
1.108398956318131
100
AcDbArc
 50
134.9787476233347
 51
181.2369872983282
  0
ARC
  5
DD
330
1F
100
AcDbEntity
  8
0
  6
CONTINUOUS
 62
     3
100
AcDbCircle
 10
84.80100145205529
 20
14.32366273138689
 30
0.0
 40
0.851645057047003
100
AcDbArc
 50
42.91644474042847
 51
128.3015542351336
  0
ARC
  5
DE
330
1F
100
AcDbEntity
  8
0
  6
CONTINUOUS
 62
     3
100
AcDbCircle
 10
84.49447404568525
 20
14.30315138821555
 30
0.0
 40
1.107172507744154
100
AcDbArc
 50
359.2495022237244
 51
32.84055016678327
  0
ARC
  5
DF
330
1F
100
AcDbEntity
  8
0
  6
CONTINUOUS
 62
     3
100
AcDbCircle
 10
69.11173378649738
 20
13.47751337882465
 30
0.0
 40
16.50975566668588
100
AcDbArc
 50
355.5862454873798
 51
2.816115806820253
  0
ARC
  5
E0
330
1F
100
AcDbEntity
  8
0
  6
CONTINUOUS
 62
     3
100
AcDbCircle
 10
85.85771407332504
 20
9.060152619227779
 30
0.0
 40
3.159693252126744
100
AcDbArc
 50
84.82155189294139
 51
95.17844810705873
  0
ARC
  5
E1
330
1F
100
AcDbEntity
  8
0
  6
CONTINUOUS
 62
     3
100
AcDbCircle
 10
102.4657633661698
 20
12.99067374739133
 30
0.0
 40
16.34166579853822
100
AcDbArc
 50
176.2131780319488
 51
182.7488833337936
  0
ARC
  5
E2
330
1F
100
AcDbEntity
  8
0
  6
CONTINUOUS
 62
     3
100
AcDbCircle
 10
80.01913601210055
 20
14.23315774812141
 30
0.0
 40
6.142809087866958
100
AcDbArc
 50
358.4775281223095
 51
2.117232414210064
  0
ARC
  5
E3
330
1F
100
AcDbEntity
  8
0
  6
CONTINUOUS
 62
     3
100
AcDbCircle
 10
84.9790551534482
 20
14.46285942451527
 30
0.0
 40
1.17869965146059
100
AcDbArc
 50
359.8658335690532
 51
34.49363429411157
  0
ARC
  5
E4
330
1F
100
AcDbEntity
  8
0
  6
CONTINUOUS
 62
     3
100
AcDbCircle
 10
85.17724057413767
 20
14.59204664797994
 30
0.0
 40
0.94221437555554
100
AcDbArc
 50
34.84393737091607
 51
92.5207065423111
  0
ARC
  5
E5
330
1F
100
AcDbEntity
  8
0
  6
CONTINUOUS
 62
     3
100
AcDbCircle
 10
85.07541069002548
 20
14.192759888186
 30
0.0
 40
1.34194899665726
100
AcDbArc
 50
87.42068310381028
 51
147.4361518966862
  0
ARC
  5
E6
330
1F
100
AcDbEntity
  8
0
  6
CONTINUOUS
 62
     3
100
AcDbCircle
 10
87.7057472739616
 20
15.00785681383053
 30
0.0
 40
3.762465500458181
100
AcDbArc
 50
172.9875214416311
 51
181.4134392789641
  0
ARC
  5
E7
330
1F
100
AcDbEntity
  8
0
  6
CONTINUOUS
 62
     3
100
AcDbCircle
 10
83.67082849861237
 20
16.62206879814488
 30
0.0
 40
1.193349358546016
100
AcDbArc
 50
255.9341994177206
 51
284.5896440601899
  0
ARC
  5
E8
330
1F
100
AcDbEntity
  8
0
  6
CONTINUOUS
 62
     3
100
AcDbCircle
 10
63.01176988671591
 20
13.79938058671746
 30
0.0
 40
20.43697806131072
100
AcDbArc
 50
355.5405243117485
 51
4.673398698656258
  0
LINE
  5
E9
330
1F
100
AcDbEntity
  8
0
  6
CONTINUOUS
 62
     3
100
AcDbLine
 10
83.94847657332497
 20
14.1840243297541
 30
0.0
 11
83.94847657332497
 21
13.10469932975406
 31
0.0
  0
CIRCLE
  5
EA
330
1F
100
AcDbEntity
  8
0
  6
CONTINUOUS
 62
     3
100
AcDbCircle
 10
87.62855140383351
 20
16.6583546687371
 30
0.0
 40
0.357233446676989
  0
ARC
  5
EB
330
1F
100
AcDbEntity
  8
0
  6
CONTINUOUS
 62
     3
100
AcDbCircle
 10
87.61456076027724
 20
16.75332474358078
 30
0.0
 40
1.319228548840207
100
AcDbArc
 50
256.6209501743446
 51
283.9984576255729
  0
ARC
  5
EC
330
1F
100
AcDbEntity
  8
0
  6
CONTINUOUS
 62
     3
100
AcDbCircle
 10
87.64144089371331
 20
5.679804184123327
 30
0.0
 40
6.532859485251088
100
AcDbArc
 50
87.46575055044718
 51
92.90832285102188
  0
ARC
  5
ED
330
1F
100
AcDbEntity
  8
0
  6
CONTINUOUS
 62
     3
100
AcDbCircle
 10
108.2254047179557
 20
13.81881005739388
 30
0.0
 40
20.35906390589
100
AcDbArc
 50
175.3387608397566
 51
184.5428594926176
  0
ARC
  5
EE
330
1F
100
AcDbEntity
  8
0
  6
CONTINUOUS
 62
     3
100
AcDbCircle
 10
65.16900575363866
 20
13.83249792766236
 30
0.0
 40
22.20076085035812
100
AcDbArc
 50
355.7940354718673
 51
4.229650257234378
  0
ARC
  5
EF
330
1F
100
AcDbEntity
  8
0
  6
CONTINUOUS
 62
     3
100
AcDbCircle
 10
122.1644453232814
 20
96.50297432964203
 30
0.0
 40
87.02800228963156
100
AcDbArc
 50
248.6422112053103
 51
248.8567777804232
  0
ARC
  5
F0
330
1F
100
AcDbEntity
  8
0
  6
CONTINUOUS
 62
     3
100
AcDbCircle
 10
90.08542828460565
 20
14.51663038363955
 30
0.0
 40
1.010907867592157
100
AcDbArc
 50
67.66151957087348
 51
88.69073168448988
  0
ARC
  5
F1
330
1F
100
AcDbEntity
  8
0
  6
CONTINUOUS
 62
     3
100
AcDbCircle
 10
89.97711044283903
 20
14.20979097937612
 30
0.0
 40
1.319974865367525
100
AcDbArc
 50
92.38301574576484
 51
114.9635286746436
  0
ARC
  5
F2
330
1F
100
AcDbEntity
  8
0
  6
CONTINUOUS
 62
     3
100
AcDbCircle
 10
89.87963496799608
 20
14.52009291101865
 30
0.0
 40
0.99843256030919
100
AcDbArc
 50
117.4083995939977
 51
176.1964688215695
  0
ARC
  5
F3
330
1F
100
AcDbEntity
  8
0
  6
CONTINUOUS
 62
     3
100
AcDbCircle
 10
89.55599257925996
 20
14.4219276907553
 30
0.0
 40
0.669372605905611
100
AcDbArc
 50
181.2393899443581
 51
226.5942921332421
  0
ARC
  5
F4
330
1F
100
AcDbEntity
  8
0
  6
CONTINUOUS
 62
     3
100
AcDbCircle
 10
89.95268145799497
 20
14.82396411006687
 30
0.0
 40
1.234100950779567
100
AcDbArc
 50
226.0402388947521
 51
253.1776672992999
  0
ARC
  5
F5
330
1F
100
AcDbEntity
  8
0
  6
CONTINUOUS
 62
     3
100
AcDbCircle
 10
88.91714891830424
 20
10.79457141755211
 30
0.0
 40
2.927778413972754
100
AcDbArc
 50
63.49050203733571
 51
76.60259219849584
  0
ARC
  5
F6
330
1F
100
AcDbEntity
  8
0
  6
CONTINUOUS
 62
     3
100
AcDbCircle
 10
90.03080045853665
 20
12.99846225433168
 30
0.0
 40
0.458710152219014
100
AcDbArc
 50
6.53892419415897
 51
65.09756080693691
  0
ARC
  5
F7
330
1F
100
AcDbEntity
  8
0
  6
CONTINUOUS
 62
     3
100
AcDbCircle
 10
89.90357777446508
 20
12.97002363757167
 30
0.0
 40
0.594395491876676
100
AcDbArc
 50
270.8867385422408
 51
352.7925382056677
  0
ARC
  5
F8
330
1F
100
AcDbEntity
  8
0
  6
CONTINUOUS
 62
     3
100
AcDbCircle
 10
89.8636104323486
 20
13.26658639777384
 30
0.0
 40
0.898004035462527
100
AcDbArc
 50
207.7689879465537
 51
262.7817283832026
  0
ARC
  5
F9
330
1F
100
AcDbEntity
  8
0
  6
CONTINUOUS
 62
     3
100
AcDbCircle
 10
89.67930054592767
 20
13.88156576811025
 30
0.0
 40
1.75327631578002
100
AcDbArc
 50
241.8829576087176
 51
265.9354096935781
  0
ARC
  5
FA
330
1F
100
AcDbEntity
  8
0
  6
CONTINUOUS
 62
     3
100
AcDbCircle
 10
89.84663886467558
 20
13.26692467118045
 30
0.0
 40
1.134515058180645
100
AcDbArc
 50
271.2948770866743
 51
348.6654156292868
  0
ARC
  5
FB
330
1F
100
AcDbEntity
  8
0
  6
CONTINUOUS
 62
     3
100
AcDbCircle
 10
90.22045721291948
 20
13.25217258531575
 30
0.0
 40
0.746245075729606
100
AcDbArc
 50
6.154262763177246
 51
76.17509904255616
  0
ARC
  5
FC
330
1F
100
AcDbEntity
  8
0
  6
CONTINUOUS
 62
     3
100
AcDbCircle
 10
91.65384669692054
 20
19.19359310503512
 30
0.0
 40
5.36564425851668
100
AcDbArc
 50
249.6420733479936
 51
256.4727051201885
  0
ARC
  5
FD
330
1F
100
AcDbEntity
  8
0
  6
CONTINUOUS
 62
     3
100
AcDbCircle
 10
90.00721352387444
 20
14.83138641766612
 30
0.0
 40
0.703563707337184
100
AcDbArc
 50
210.9501336849607
 51
251.7794729821079
  0
ARC
  5
FE
330
1F
100
AcDbEntity
  8
0
  6
CONTINUOUS
 62
     3
100
AcDbCircle
 10
90.73031407332627
 20
14.93823182975444
 30
0.0
 40
1.4068519372934
100
AcDbArc
 50
193.4375782160214
 51
199.459638038058
  0
ARC
  5
FF
330
1F
100
AcDbEntity
  8
0
  6
CONTINUOUS
 62
     3
100
AcDbCircle
 10
89.90350964860528
 20
14.72674994707921
 30
0.0
 40
0.535613931103931
100
AcDbArc
 50
92.11404364449162
 51
173.4175047026091
  0
ARC
  5
100
330
1F
100
AcDbEntity
  8
0
  6
CONTINUOUS
 62
     3
100
AcDbCircle
 10
89.941473391275
 20
14.65429236291669
 30
0.0
 40
0.612586430102253
100
AcDbArc
 50
17.92452211681263
 51
85.16543319077402
  0
LINE
  5
101
330
1F
100
AcDbEntity
  8
0
  6
CONTINUOUS
 62
     3
100
AcDbLine
 10
90.10852657332504
 20
15.52727432975405
 30
0.0
 11
89.92222657332502
 21
15.52727432975405
 31
0.0
  0
LINE
  5
102
330
1F
100
AcDbEntity
  8
0
  6
CONTINUOUS
 62
     3
100
AcDbLine
 10
89.75077657332497
 20
12.37569932975407
 30
0.0
 11
89.91277657332506
 21
12.37569932975407
 31
0.0
  0
LINE
  5
103
330
1F
100
AcDbEntity
  8
0
  6
CONTINUOUS
 62
     3
100
AcDbLine
 10
89.06902657332506
 20
12.8481993297541
 30
0.0
 11
88.98127657332498
 21
12.8481993297541
 31
0.0
  0
LINE
  5
104
330
1F
100
AcDbEntity
  8
0
  6
CONTINUOUS
 62
     3
100
AcDbLine
 10
89.555026573325
 20
12.13269932975408
 30
0.0
 11
89.872276573325
 21
12.13269932975408
 31
0.0
  0
LINE
  5
105
330
1F
100
AcDbEntity
  8
0
  6
CONTINUOUS
 62
     3
100
AcDbLine
 10
80.01727657332503
 20
14.77194932975408
 30
0.0
 11
80.105026573325
 21
14.77194932975408
 31
0.0
  0
ARC
  5
106
330
1F
100
AcDbEntity
  8
0
  6
CONTINUOUS
 62
     3
100
AcDbCircle
 10
87.85344131320937
 20
12.85779759565003
 30
0.0
 40
1.127953740078838
100
AcDbArc
 50
332.3987521421788
 51
359.5124385477116
  0
LINE
  5
107
330
1F
100
AcDbEntity
  8
0
  6
CONTINUOUS
 62
     3
100
AcDbLine
 10
90.48652657332497
 20
13.05069932975408
 30
0.0
 11
90.49327657332503
 21
12.89544932975406
 31
0.0
  0
LINE
  5
108
330
1F
100
AcDbEntity
  8
0
  6
CONTINUOUS
 62
     3
100
AcDbLine
 10
90.96240157332505
 20
13.33217432975408
 30
0.0
 11
90.95902657332493
 21
13.04394932975407
 31
0.0
  0
LINE
  5
109
330
1F
100
AcDbEntity
  8
0
  6
CONTINUOUS
 62
     3
100
AcDbLine
 10
89.37142657332492
 20
14.78814932975405
 30
0.0
 11
89.36197657332497
 21
14.61129932975405
 31
0.0
  0
LINE
  5
10A
330
1F
100
AcDbEntity
  8
0
  6
CONTINUOUS
 62
     3
100
AcDbLine
 10
88.88340157332499
 20
14.58632432975406
 30
0.0
 11
88.88677657332494
 21
14.40744932975628
 31
0.0
  0
LINE
  5
10B
330
1F
100
AcDbEntity
  8
0
  6
CONTINUOUS
 62
     3
100
AcDbLine
 10
89.88375157332496
 20
15.26199932975408
 30
0.0
 11
89.99310157332502
 21
15.26469932975408
 31
0.0
  0
LINE
  5
10C
330
1F
100
AcDbEntity
  8
0
  6
CONTINUOUS
 62
     3
100
AcDbLine
 10
90.52432657332503
 20
14.84282432975408
 30
0.0
 11
90.6097093486731
 21
14.84282432975408
 31
0.0
  0
ARC
  5
10D
330
1F
100
AcDbEntity
  8
0
  6
CONTINUOUS
 62
     3
100
AcDbCircle
 10
92.48424810688704
 20
14.49019437507496
 30
0.0
 40
1.907418003737831
100
AcDbArc
 50
153.7591918158497
 51
169.3462759801917
  0
ARC
  5
10E
330
1F
100
AcDbEntity
  8
0
  6
EXLTYPE1
 62
     2
100
AcDbCircle
 10
160.4
 20
96.5
 30
0.0
 40
7.5
100
AcDbArc
 50
0.0
 51
180.0
  0
ARC
  5
10F
330
1F
100
AcDbEntity
  8
0
  6
EXLTYPE1
 62
     2
100
AcDbCircle
 10
160.4
 20
96.5
 30
0.0
 40
13.5
100
AcDbArc
 50
0.0
 51
193.0000000000039
  0
LINE
  5
110
330
1F
100
AcDbEntity
  8
0
  6
EXLTYPE1
 62
     2
100
AcDbLine
 10
146.9
 20
96.5
 30
0.0
 11
148.9
 21
96.5
 31
0.0
  0
LINE
  5
111
330
1F
100
AcDbEntity
  8
0
  6
EXLTYPE1
 62
     2
100
AcDbLine
 10
151.4
 20
96.5
 30
0.0
 11
152.9
 21
96.5
 31
0.0
  0
LINE
  5
112
330
1F
100
AcDbEntity
  8
0
  6
EXLTYPE1
 62
     2
100
AcDbLine
 10
167.9
 20
96.5
 30
0.0
 11
169.4
 21
96.5
 31
0.0
  0
LINE
  5
113
330
1F
100
AcDbEntity
  8
0
  6
EXLTYPE1
 62
     2
100
AcDbLine
 10
171.9
 20
96.5
 30
0.0
 11
173.9
 21
96.5
 31
0.0
  0
TEXT
  5
114
330
1F
100
AcDbEntity
  8
0
  6
CONTINUOUS
 62
     2
100
AcDbText
 10
92.50000000000001
 20
156.3499999940395
 30
0.0
 40
4.0
  1
Ｗ２４山１６
 41
0.9999999970197677
  7
EXCADSTD
 72
     5
 11
112.4999999403954
 21
156.3499999940395
 31
0.0
100
AcDbText
  0
LEADER
  5
115
330
1F
100
AcDbEntity
  8
0
  6
CONTINUOUS
 62
     3
100
AcDbLeader
  3
ISO-25
 76
     3
 10
78.00000000000001
 20
143.8
 30
0.0
 10
92.50000000000001
 20
156.0
 30
0.0
 10
111.6
 20
156.0
 30
0.0
1001
ACAD
1000
DSTYLE
1002
{
1070
     5
1000
EX_NORM
1070
    41
1040
3.0
1070
   341
1005
4B
1002
}
  0
LEADER
  5
116
330
1F
100
AcDbEntity
  8
0
  6
CONTINUOUS
 62
     3
100
AcDbLeader
  3
ISO-25
 76
     3
 10
74.30000000000004
 20
120.0
 30
0.0
 10
87.7
 20
113.2
 30
0.0
 10
110.2
 20
113.2
 30
0.0
1001
ACAD
1000
DSTYLE
1002
{
1070
     5
1000
EX_NORM
1070
    41
1040
3.0
1070
   341
1005
4B
1002
}
  0
TEXT
  5
117
330
1F
100
AcDbEntity
  8
0
  6
CONTINUOUS
 62
     2
100
AcDbText
 10
87.7
 20
113.5499999940395
 30
0.0
 40
4.0
  1
Ｍ１８×１.５
 41
0.9678260836912238
  7
EXCADSTD
 72
     5
 11
108.8999999284744
 21
113.5499999940395
 31
0.0
100
AcDbText
  0
LINE
  5
118
330
1F
100
AcDbEntity
  8
0
  6
CONTINUOUS
 62
     2
100
AcDbLine
 10
105.1
 20
204.5
 30
0.0
 11
105.1
 21
202.4
 31
0.0
  0
LINE
  5
119
330
1F
100
AcDbEntity
  8
0
  6
CONTINUOUS
 62
     2
100
AcDbLine
 10
102.58420921205
 20
202.4
 30
0.0
 11
102.58420921205
 21
204.8870447366077
 31
0.0
  0
LINE
  5
11A
330
1F
100
AcDbEntity
  8
0
  6
CONTINUOUS
 62
     2
100
AcDbLine
 10
89.49949892603718
 20
211.315697203108
 30
0.0
 11
105.5973820539709
 21
211.3999862923421
 31
0.0
  0
LINE
  5
11B
330
1F
100
AcDbEntity
  8
0
  6
CONTINUOUS
 62
     2
100
AcDbLine
 10
98.20000000000003
 20
205.5615384615384
 30
0.0
 11
105.1
 21
204.5
 31
0.0
  0
LINE
  5
11C
330
1F
100
AcDbEntity
  8
0
  6
CONTINUOUS
 62
     2
100
AcDbLine
 10
101.2
 20
210.0594594594595
 30
0.0
 11
101.2
 21
205.1
 31
0.0
  0
LINE
  5
11D
330
1F
100
AcDbEntity
  8
0
  6
CONTINUOUS
 62
     2
100
AcDbLine
 10
98.20000000000003
 20
205.5615384615384
 30
0.0
 11
98.20000000000003
 21
210.1
 31
0.0
  0
LINE
  5
11E
330
1F
100
AcDbEntity
  8
0
  6
CONTINUOUS
 62
     2
100
AcDbLine
 10
105.6
 20
213.9
 30
0.0
 11
105.6
 21
211.39998629234
 31
0.0
  0
POLYLINE
  5
11F
330
1F
100
AcDbEntity
  8
0
  6
CONTINUOUS
 62
     2
100
AcDb2dPolyline
 66
     1
 10
0.0
 20
0.0
 30
0.0
 70
   128
  0
VERTEX
  5
120
330
11F
100
AcDbEntity
  8
0
  6
CONTINUOUS
 62
     2
100
AcDbVertex
100
AcDb2dVertex
 10
90.1
 20
213.9
 30
0.0
  0
VERTEX
  5
121
330
11F
100
AcDbEntity
  8
0
  6
CONTINUOUS
 62
     2
100
AcDbVertex
100
AcDb2dVertex
 10
90.08898871090105
 20
213.8661487294322
 30
0.0
  0
VERTEX
  5
122
330
11F
100
AcDbEntity
  8
0
  6
CONTINUOUS
 62
     2
100
AcDbVertex
100
AcDb2dVertex
 10
90.05837423172653
 20
213.769592276214
 30
0.0
  0
VERTEX
  5
123
330
11F
100
AcDbEntity
  8
0
  6
CONTINUOUS
 62
     2
100
AcDbVertex
100
AcDb2dVertex
 10
90.01178564466
 20
213.6178266780736
 30
0.0
  0
VERTEX
  5
124
330
11F
100
AcDbEntity
  8
0
  6
CONTINUOUS
 62
     2
100
AcDbVertex
100
AcDb2dVertex
 10
89.95285203188493
 20
213.4183479727388
 30
0.0
  0
VERTEX
  5
125
330
11F
100
AcDbEntity
  8
0
  6
CONTINUOUS
 62
     2
100
AcDbVertex
100
AcDb2dVertex
 10
89.88520247558488
 20
213.1786521979379
 30
0.0
  0
VERTEX
  5
126
330
11F
100
AcDbEntity
  8
0
  6
CONTINUOUS
 62
     2
100
AcDbVertex
100
AcDb2dVertex
 10
89.81246605794337
 20
212.9062353913987
 30
0.0
  0
VERTEX
  5
127
330
11F
100
AcDbEntity
  8
0
  6
CONTINUOUS
 62
     2
100
AcDbVertex
100
AcDb2dVertex
 10
89.73827186114389
 20
212.6085935908493
 30
0.0
  0
VERTEX
  5
128
330
11F
100
AcDbEntity
  8
0
  6
CONTINUOUS
 62
     2
100
AcDbVertex
100
AcDb2dVertex
 10
89.66624896737
 20
212.2932228340177
 30
0.0
  0
VERTEX
  5
129
330
11F
100
AcDbEntity
  8
0
  6
CONTINUOUS
 62
     2
100
AcDbVertex
100
AcDb2dVertex
 10
89.60002645880519
 20
211.9676191586319
 30
0.0
  0
VERTEX
  5
12A
330
11F
100
AcDbEntity
  8
0
  6
CONTINUOUS
 62
     2
100
AcDbVertex
100
AcDb2dVertex
 10
89.54323341763302
 20
211.63927860242
 30
0.0
  0
VERTEX
  5
12B
330
11F
100
AcDbEntity
  8
0
  6
CONTINUOUS
 62
     2
100
AcDbVertex
100
AcDb2dVertex
 10
89.49949892603702
 20
211.31569720311
 30
0.0
  0
VERTEX
  5
12C
330
11F
100
AcDbEntity
  8
0
  6
CONTINUOUS
 62
     2
100
AcDbVertex
100
AcDb2dVertex
 10
89.46723994768443
 20
210.2948285933675
 30
0.0
  0
VERTEX
  5
12D
330
11F
100
AcDbEntity
  8
0
  6
CONTINUOUS
 62
     2
100
AcDbVertex
100
AcDb2dVertex
 10
89.5897559035624
 20
209.3916151490592
 30
0.0
  0
VERTEX
  5
12E
330
11F
100
AcDbEntity
  8
0
  6
CONTINUOUS
 62
     2
100
AcDbVertex
100
AcDb2dVertex
 10
89.82730575399306
 20
208.5808618605196
 30
0.0
  0
VERTEX
  5
12F
330
11F
100
AcDbEntity
  8
0
  6
CONTINUOUS
 62
     2
100
AcDbVertex
100
AcDb2dVertex
 10
90.14014845929864
 20
207.8373737180829
 30
0.0
  0
VERTEX
  5
130
330
11F
100
AcDbEntity
  8
0
  6
CONTINUOUS
 62
     2
100
AcDbVertex
100
AcDb2dVertex
 10
90.48854297980134
 20
207.1359557120838
 30
0.0
  0
VERTEX
  5
131
330
11F
100
AcDbEntity
  8
0
  6
CONTINUOUS
 62
     2
100
AcDbVertex
100
AcDb2dVertex
 10
90.83274827582335
 20
206.4514128328564
 30
0.0
  0
VERTEX
  5
132
330
11F
100
AcDbEntity
  8
0
  6
CONTINUOUS
 62
     2
100
AcDbVertex
100
AcDb2dVertex
 10
91.13302330768684
 20
205.7585500707352
 30
0.0
  0
VERTEX
  5
133
330
11F
100
AcDbEntity
  8
0
  6
CONTINUOUS
 62
     2
100
AcDbVertex
100
AcDb2dVertex
 10
91.34962703571406
 20
205.0321724160546
 30
0.0
  0
VERTEX
  5
134
330
11F
100
AcDbEntity
  8
0
  6
CONTINUOUS
 62
     2
100
AcDbVertex
100
AcDb2dVertex
 10
91.44281842022718
 20
204.2470848591489
 30
0.0
  0
VERTEX
  5
135
330
11F
100
AcDbEntity
  8
0
  6
CONTINUOUS
 62
     2
100
AcDbVertex
100
AcDb2dVertex
 10
91.37285642154843
 20
203.3780923903526
 30
0.0
  0
VERTEX
  5
136
330
11F
100
AcDbEntity
  8
0
  6
CONTINUOUS
 62
     2
100
AcDbVertex
100
AcDb2dVertex
 10
91.1
 20
202.4
 30
0.0
  0
SEQEND
  5
137
330
11F
100
AcDbEntity
  8
0
  6
CONTINUOUS
 62
     2
  0
LINE
  5
138
330
1F
100
AcDbEntity
  8
0
  6
CONTINUOUS
 62
     2
100
AcDbLine
 10
105.6
 20
210.1
 30
0.0
 11
98.2
 21
210.1
 31
0.0
  0
LINE
  5
139
330
1F
100
AcDbEntity
  8
0
  6
CONTINUOUS
 62
     2
100
AcDbLine
 10
105.6
 20
210.0
 30
0.0
 11
98.2
 21
210.1
 31
0.0
  0
LINE
  5
13A
330
1F
100
AcDbEntity
  8
0
  6
CONTINUOUS
 62
     2
100
AcDbLine
 10
98.27482162486561
 20
91.67921168271997
 30
0.0
 11
101.2000000000003
 21
88.7540333075853
 31
0.0
  0
LINE
  5
13B
330
1F
100
AcDbEntity
  8
0
  6
CONTINUOUS
 62
     2
100
AcDbLine
 10
108.6
 20
215.9
 30
0.0
 11
105.6
 21
215.9
 31
0.0
  0
ARC
  5
13C
330
1F
100
AcDbEntity
  8
0
  6
CONTINUOUS
 62
     2
100
AcDbCircle
 10
59.35261116383332
 20
117.5
 30
0.0
 40
0.5
100
AcDbArc
 50
0.299999999999485
 51
90.00000000000001
  0
ARC
  5
13D
330
1F
100
AcDbEntity
  8
0
  6
CONTINUOUS
 62
     2
100
AcDbCircle
 10
72.84738883616738
 20
117.5
 30
0.0
 40
0.5
100
AcDbArc
 50
90.00000000000001
 51
179.7000000000006
  0
ARC
  5
13E
330
1F
100
AcDbEntity
  8
0
  6
CONTINUOUS
 62
     2
100
AcDbCircle
 10
68.61062516124157
 20
85.99999999999997
 30
0.0
 40
1.0
100
AcDbArc
 50
215.9000000000005
 51
270.0
  0
ARC
  5
13F
330
1F
100
AcDbEntity
  8
0
  6
CONTINUOUS
 62
     2
100
AcDbCircle
 10
54.39999999999999
 20
135.8
 30
0.0
 40
0.5
100
AcDbArc
 50
0.0
 51
90.00000000000001
  0
ARC
  5
140
330
1F
100
AcDbEntity
  8
0
  6
CONTINUOUS
 62
     2
100
AcDbCircle
 10
77.80000000000001
 20
135.8
 30
0.0
 40
0.5
100
AcDbArc
 50
90.00000000000001
 51
180.0
  0
LINE
  5
141
330
1F
100
AcDbEntity
  8
0
  6
CONTINUOUS
 62
     6
100
AcDbLine
 10
77.10000000000001
 20
123.3129999999991
 30
0.0
 11
77.10000000000001
 21
151.0
 31
0.0
  0
LINE
  5
142
330
1F
100
AcDbEntity
  8
0
  6
CONTINUOUS
 62
     6
100
AcDbLine
 10
55.09999999999999
 20
123.3130000000002
 30
0.0
 11
55.1
 21
151.0
 31
0.0
  0
LINE
  5
143
330
1F
100
AcDbEntity
  8
0
  6
CONTINUOUS
 62
     2
100
AcDbLine
 10
78.00000000000011
 20
150.1000000000006
 30
0.0
 11
77.10000000000036
 21
151.0000000000004
 31
0.0
  0
LINE
  5
144
330
1F
100
AcDbEntity
  8
0
  6
CONTINUOUS
 62
     2
100
AcDbLine
 10
57.20000000000001
 20
108.0
 30
0.0
 11
57.20000000000001
 21
118.0
 31
0.0
  0
LINE
  5
145
330
1F
100
AcDbEntity
  8
0
  6
CONTINUOUS
 62
     2
100
AcDbLine
 10
75.00000000000001
 20
118.0
 30
0.0
 11
75.0
 21
108.0
 31
0.0
  0
LINE
  5
146
330
1F
100
AcDbEntity
  8
0
  6
CONTINUOUS
 62
     2
100
AcDbLine
 10
75.1
 20
108.0
 30
0.0
 11
75.0
 21
108.0
 31
0.0
  0
LINE
  5
147
330
1F
100
AcDbEntity
  8
0
  6
CONTINUOUS
 62
     2
100
AcDbLine
 10
57.1
 20
108.0
 30
0.0
 11
57.2
 21
108.0
 31
0.0
  0
LINE
  5
148
330
1F
100
AcDbEntity
  8
0
  6
CONTINUOUS
 62
     2
100
AcDbLine
 10
74.35000000000002
 20
123.54987996019
 30
0.0
 11
74.35000000000002
 21
111.32801246268
 31
0.0
  0
LINE
  5
149
330
1F
100
AcDbEntity
  8
0
  6
CONTINUOUS
 62
     2
100
AcDbLine
 10
57.84999999999999
 20
123.54987996019
 30
0.0
 11
57.84999999999999
 21
111.32801246268
 31
0.0
  0
LINE
  5
14A
330
1F
100
AcDbEntity
  8
0
  6
CONTINUOUS
 62
     2
100
AcDbLine
 10
57.9
 20
132.0
 30
0.0
 11
57.85
 21
123.54987996019
 31
0.0
  0
LINE
  5
14B
330
1F
100
AcDbEntity
  8
0
  6
CONTINUOUS
 62
     2
100
AcDbLine
 10
74.300000000001
 20
132.0
 30
0.0
 11
74.35
 21
123.54987996019
 31
0.0
  0
LINE
  5
14C
330
1F
100
AcDbEntity
  8
0
  6
CONTINUOUS
 62
     6
100
AcDbLine
 10
149.4
 20
124.0
 30
0.0
 11
149.4
 21
128.0
 31
0.0
  0
LINE
  5
14D
330
1F
100
AcDbEntity
  8
0
  6
CONTINUOUS
 62
     6
100
AcDbLine
 10
171.4
 20
136.3
 30
0.0
 11
171.4
 21
145.5
 31
0.0
  0
LINE
  5
14E
330
1F
100
AcDbEntity
  8
0
  6
CONTINUOUS
 62
     6
100
AcDbLine
 10
171.4
 20
128.0
 30
0.0
 11
171.4
 21
124.0
 31
0.0
  0
LINE
  5
14F
330
1F
100
AcDbEntity
  8
0
  6
CONTINUOUS
 62
     6
100
AcDbLine
 10
78.2
 20
128.3
 30
0.0
 11
78.2
 21
136.3
 31
0.0
  0
LINE
  5
150
330
1F
100
AcDbEntity
  8
0
  6
CONTINUOUS
 62
     6
100
AcDbLine
 10
53.99999999999999
 20
128.3
 30
0.0
 11
53.99999999999999
 21
136.3
 31
0.0
  0
LINE
  5
151
330
1F
100
AcDbEntity
  8
0
  6
CONTINUOUS
 62
     2
100
AcDbLine
 10
54.90000000000019
 20
128.81961524227
 30
0.0
 11
54.00000000000034
 21
128.2999999999994
 31
0.0
  0
LINE
  5
152
330
1F
100
AcDbEntity
  8
0
  6
CONTINUOUS
 62
     2
100
AcDbLine
 10
77.29999999999967
 20
128.8196152422709
 30
0.0
 11
78.20000000000003
 21
128.3000000000001
 31
0.0
  0
LINE
  5
153
330
1F
100
AcDbEntity
  8
0
  6
CONTINUOUS
 62
     2
100
AcDbLine
 10
77.30000000000001
 20
128.8196152422707
 30
0.0
 11
77.30000000000001
 21
135.8
 31
0.0
  0
LINE
  5
154
330
1F
100
AcDbEntity
  8
0
  6
CONTINUOUS
 62
     2
100
AcDbLine
 10
54.89999999999999
 20
128.8196152422699
 30
0.0
 11
54.89999999999999
 21
135.8
 31
0.0
  0
LINE
  5
155
330
1F
100
AcDbEntity
  8
0
  6
CONTINUOUS
 62
     2
100
AcDbLine
 10
54.2
 20
150.1000000000004
 30
0.0
 11
55.0999999999998
 21
151.0000000000002
 31
0.0
  0
LINE
  5
156
330
1F
100
AcDbEntity
  8
0
  6
CONTINUOUS
 62
     2
100
AcDbLine
 10
54.19999999999999
 20
115.8
 30
0.0
 11
54.2
 21
150.1000000000004
 31
0.0
  0
ELLIPSE
  5
157
330
1F
100
AcDbEntity
  8
0
  6
CONTINUOUS
 62
     2
100
AcDbEllipse
 10
66.10016952635
 20
105.29317748122
 30
0.0
 11
6.183466624859002
 21
0.03237685140999889
 31
0.0
210
0.0
220
0.0
230
1.0
 40
0.3579909472881282
 41
3.141592653589789
 42
6.283185307650529
  0
LINE
  5
158
330
1F
100
AcDbEntity
  8
0
  6
CONTINUOUS
 62
     6
100
AcDbLine
 10
57.85231731385627
 20
123.9415115653438
 30
0.0
 11
57.09999999999975
 21
123.5498799601905
 31
0.0
  0
LINE
  5
159
330
1F
100
AcDbEntity
  8
0
  6
CONTINUOUS
 62
     6
100
AcDbLine
 10
74.34768268614306
 20
123.9415115653424
 30
0.0
 11
75.09999999999955
 21
123.5498799601892
 31
0.0
  0
LINE
  5
15A
330
1F
100
AcDbEntity
  8
0
  6
CONTINUOUS
 62
     2
100
AcDbLine
 10
105.1
 20
85.0
 30
0.0
 11
105.1
 21
85.19336477991801
 31
0.0
  0
LINE
  5
15B
330
1F
100
AcDbEntity
  8
0
  6
CONTINUOUS
 62
     2
100
AcDbLine
 10
102.58420921205
 20
87.515790787947
 30
0.0
 11
102.58420921205
 21
87.914547187248
 31
0.0
  0
LINE
  5
15C
330
1F
100
AcDbEntity
  8
0
  6
CONTINUOUS
 62
     2
100
AcDbLine
 10
105.1
 20
85.193364779918
 30
0.0
 11
102.58420921205
 21
87.914547187248
 31
0.0
  0
LINE
  5
15D
330
1F
100
AcDbEntity
  8
0
  6
CONTINUOUS
 62
     2
100
AcDbLine
 10
98.274821624866
 20
91.67921168272
 30
0.0
 11
98.274821624866
 21
87.914547187248
 31
0.0
  0
LINE
  5
15E
330
1F
100
AcDbEntity
  8
0
  6
CONTINUOUS
 62
     2
100
AcDbLine
 10
102.58420921205
 20
87.914547187248
 30
0.0
 11
98.274821624866
 21
87.91454718724802
 31
0.0
  0
LINE
  5
15F
330
1F
100
AcDbEntity
  8
0
  6
CONTINUOUS
 62
     6
100
AcDbLine
 10
57.852317313857
 20
123.94151156534
 30
0.0
 11
74.347682686144
 21
123.94151156534
 31
0.0
  0
LINE
  5
160
330
1F
100
AcDbEntity
  8
0
  6
CONTINUOUS
 62
     6
100
AcDbLine
 10
57.1
 20
123.54987996019
 30
0.0
 11
75.1
 21
123.54987996019
 31
0.0
  0
LINE
  5
161
330
1F
100
AcDbEntity
  8
0
  6
CONTINUOUS
 62
     6
100
AcDbLine
 10
55.1
 20
123.313
 30
0.0
 11
54.19999999999999
 21
123.313
 31
0.0
  0
LINE
  5
162
330
1F
100
AcDbEntity
  8
0
  6
CONTINUOUS
 62
     6
100
AcDbLine
 10
77.1
 20
123.313
 30
0.0
 11
78.00000000000003
 21
123.313
 31
0.0
  0
LINE
  5
163
330
1F
100
AcDbEntity
  8
0
  6
CONTINUOUS
 62
     6
100
AcDbLine
 10
53.95
 20
154.3
 30
0.0
 11
54.84999999999999
 21
154.3
 31
0.0
  0
LINE
  5
164
330
1F
100
AcDbEntity
  8
0
  6
CONTINUOUS
 62
     6
100
AcDbLine
 10
78.25
 20
154.3
 30
0.0
 11
77.35000000000001
 21
154.3
 31
0.0
  0
LINE
  5
165
330
1F
100
AcDbEntity
  8
0
  6
CONTINUOUS
 62
     6
100
AcDbLine
 10
78.0
 20
150.1
 30
0.0
 11
77.10000000000001
 21
150.1
 31
0.0
  0
LINE
  5
166
330
1F
100
AcDbEntity
  8
0
  6
CONTINUOUS
 62
     6
100
AcDbLine
 10
54.2
 20
150.1
 30
0.0
 11
55.1
 21
150.1
 31
0.0
  0
LINE
  5
167
330
1F
100
AcDbEntity
  8
0
  6
CONTINUOUS
 62
     6
100
AcDbLine
 10
77.3
 20
128.81961524227
 30
0.0
 11
78.2
 21
128.81961524227
 31
0.0
  0
LINE
  5
168
330
1F
100
AcDbEntity
  8
0
  6
CONTINUOUS
 62
     6
100
AcDbLine
 10
77.3
 20
135.8
 30
0.0
 11
78.2
 21
135.8
 31
0.0
  0
LINE
  5
169
330
1F
100
AcDbEntity
  8
0
  6
CONTINUOUS
 62
     6
100
AcDbLine
 10
54.9
 20
135.8
 30
0.0
 11
53.99999999999999
 21
135.8
 31
0.0
  0
LINE
  5
16A
330
1F
100
AcDbEntity
  8
0
  6
CONTINUOUS
 62
     6
100
AcDbLine
 10
54.9
 20
128.81961524227
 30
0.0
 11
53.99999999999999
 21
128.81961524227
 31
0.0
  0
LINE
  5
16B
330
1F
100
AcDbEntity
  8
0
  6
CONTINUOUS
 62
     6
100
AcDbLine
 10
149.4
 20
136.3
 30
0.0
 11
149.4
 21
145.5
 31
0.0
  0
LINE
  5
16C
330
1F
100
AcDbEntity
  8
0
  6
CONTINUOUS
 62
     6
100
AcDbLine
 10
77.35
 20
147.4
 30
0.0
 11
78.25
 21
147.4
 31
0.0
  0
LINE
  5
16D
330
1F
100
AcDbEntity
  8
0
  6
CONTINUOUS
 62
     6
100
AcDbLine
 10
54.85
 20
147.4
 30
0.0
 11
53.95
 21
147.4
 31
0.0
  0
TEXT
  5
16E
330
1F
100
AcDbEntity
  8
0
  6
CONTINUOUS
 62
     2
100
AcDbText
 10
158.4
 20
275.3
 30
0.0
 40
4.0
  1
ＢＷ１色
 41
1.034782605974571
  7
EXCADSTD
 72
     5
 11
171.9999999642372
 21
275.3
 31
0.0
100
AcDbText
  0
TEXT
  5
16F
330
1F
100
AcDbEntity
  8
0
  6
CONTINUOUS
 62
     2
100
AcDbText
 10
158.4
 20
270.8
 30
0.0
 40
4.0
  1
ＢＷ１色
 41
1.034782605974571
  7
EXCADSTD
 72
     5
 11
171.9999999642372
 21
270.8
 31
0.0
100
AcDbText
  0
LINE
  5
170
330
1F
100
AcDbEntity
  8
0
  6
CONTINUOUS
 62
     6
100
AcDbLine
 10
54.19999999999983
 20
122.7933847577296
 30
0.0
 11
55.09999999999985
 21
123.3130000000003
 31
0.0
  0
LINE
  5
171
330
1F
100
AcDbEntity
  8
0
  6
CONTINUOUS
 62
     6
100
AcDbLine
 10
148.4999999999996
 20
123.48038475773
 30
0.0
 11
149.3999999999996
 21
124.0000000000007
 31
0.0
  0
LINE
  5
172
330
1F
100
AcDbEntity
  8
0
  6
CONTINUOUS
 62
     6
100
AcDbLine
 10
77.9999999999999
 20
122.7933847577291
 30
0.0
 11
77.09999999999987
 21
123.3129999999998
 31
0.0
  0
LINE
  5
173
330
1F
100
AcDbEntity
  8
0
  6
CONTINUOUS
 62
     6
100
AcDbLine
 10
172.2999999999993
 20
123.4803847577281
 30
0.0
 11
171.3999999999993
 21
123.9999999999987
 31
0.0
  0
LINE
  5
174
330
1F
100
AcDbEntity
  8
0
  6
CONTINUOUS
 62
     6
100
AcDbLine
 10
148.5
 20
123.48038475773
 30
0.0
 11
172.3
 21
123.48038475773
 31
0.0
  0
LINE
  5
175
330
1F
100
AcDbEntity
  8
0
  6
CONTINUOUS
 62
     6
100
AcDbLine
 10
120.8
 20
289.3
 30
0.0
 11
120.8
 21
243.8
 31
0.0
  0
LINE
  5
176
330
1F
100
AcDbEntity
  8
0
  6
CONTINUOUS
 62
     6
100
AcDbLine
 10
81.7
 20
289.3
 30
0.0
 11
81.7
 21
243.8
 31
0.0
  0
LINE
  5
177
330
1F
100
AcDbEntity
  8
0
  6
CONTINUOUS
 62
     6
100
AcDbLine
 10
71.2
 20
289.3
 30
0.0
 11
71.2
 21
243.8
 31
0.0
  0
TEXT
  5
178
330
1F
100
AcDbEntity
  8
0
  6
CONTINUOUS
 62
     2
100
AcDbText
 10
90.2
 20
284.3
 30
0.0
 40
4.0
  1
品　　　　名
 41
0.9999999970197677
  7
EXCADSTD
 72
     5
 11
110.1999999403954
 21
284.3
 31
0.0
100
AcDbText
  0
TEXT
  5
179
330
1F
100
AcDbEntity
  8
0
  6
CONTINUOUS
 62
     2
100
AcDbText
 10
72.8
 20
284.3
 30
0.0
 40
4.0
  1
番号
 41
1.049923634625293
  7
EXCADSTD
 72
     5
 11
79.39951998907327
 21
284.3
 31
0.0
100
AcDbText
  0
TEXT
  5
17A
330
1F
100
AcDbEntity
  8
0
  6
CONTINUOUS
 62
     2
100
AcDbText
 10
74.7
 20
252.8
 30
0.0
 40
4.0
  1
７
 41
1.120000000000001
  7
EXCADSTD
 72
     5
 11
77.9
 21
252.8
 31
0.0
100
AcDbText
  0
TEXT
  5
17B
330
1F
100
AcDbEntity
  8
0
  6
CONTINUOUS
 62
     2
100
AcDbText
 10
81.7
 20
279.8
 30
0.0
 40
4.0
  1
ソケット
 41
1.034782605974571
  7
EXCADSTD
 72
     5
 11
95.29999996423722
 21
279.8
 31
0.0
100
AcDbText
  0
TEXT
  5
17C
330
1F
100
AcDbEntity
  8
0
  6
CONTINUOUS
 62
     2
100
AcDbText
 10
81.7
 20
275.3
 30
0.0
 40
4.0
  1
エルボ
 41
1.070588232839809
  7
EXCADSTD
 72
     5
 11
92.09999997615814
 21
275.3
 31
0.0
100
AcDbText
  0
TEXT
  5
17D
330
1F
100
AcDbEntity
  8
0
  6
CONTINUOUS
 62
     2
100
AcDbText
 10
81.7
 20
270.8
 30
0.0
 40
4.0
  1
ふた
 41
1.049923634625293
  7
EXCADSTD
 72
     5
 11
88.29951998907327
 21
270.8
 31
0.0
100
AcDbText
  0
TEXT
  5
17E
330
1F
100
AcDbEntity
  8
0
  6
CONTINUOUS
 62
     2
100
AcDbText
 10
81.7
 20
266.3
 30
0.0
 40
4.0
  1
座付ナット
 41
1.01379310057081
  7
EXCADSTD
 72
     5
 11
98.49999995231629
 21
266.3
 31
0.0
100
AcDbText
  0
TEXT
  5
17F
330
1F
100
AcDbEntity
  8
0
  6
CONTINUOUS
 62
     2
100
AcDbText
 10
81.7
 20
261.8
 30
0.0
 40
4.0
  1
スリップワッシャー
 41
0.9773584874171133
  7
EXCADSTD
 72
     5
 11
111.2999999046326
 21
261.8
 31
0.0
100
AcDbText
  0
TEXT
  5
180
330
1F
100
AcDbEntity
  8
0
  6
CONTINUOUS
 62
     2
100
AcDbText
 10
81.7
 20
257.3
 30
0.0
 40
4.0
  1
平パッキン
 41
1.01379310057081
  7
EXCADSTD
 72
     5
 11
98.49999995231629
 21
257.3
 31
0.0
100
AcDbText
  0
TEXT
  5
181
330
1F
100
AcDbEntity
  8
0
  6
CONTINUOUS
 62
     2
100
AcDbText
 10
81.7
 20
252.8
 30
0.0
 40
4.0
  1
スリーブナット
 41
0.9902438993861036
  7
EXCADSTD
 72
     5
 11
104.8999999284744
 21
252.8
 31
0.0
100
AcDbText
  0
TEXT
  5
182
330
1F
100
AcDbEntity
  8
0
  6
CONTINUOUS
 62
     2
100
AcDbText
 10
81.7
 20
248.3
 30
0.0
 40
4.0
  1
スリップワッシャー
 41
0.9773584874171133
  7
EXCADSTD
 72
     5
 11
111.2999999046326
 21
248.3
 31
0.0
100
AcDbText
  0
TEXT
  5
183
330
1F
100
AcDbEntity
  8
0
  6
CONTINUOUS
 62
     2
100
AcDbText
 10
81.7
 20
243.8
 30
0.0
 40
4.0
  1
スリーブパッキン
 41
0.9829787202972048
  7
EXCADSTD
 72
     5
 11
108.0999999165535
 21
243.8
 31
0.0
100
AcDbText
  0
TEXT
  5
184
330
1F
100
AcDbEntity
  8
0
  6
CONTINUOUS
 62
     2
100
AcDbText
 10
74.6
 20
266.3
 30
0.0
 40
4.0
  1
４
 41
1.120000000000001
  7
EXCADSTD
 72
     5
 11
77.8
 21
266.3
 31
0.0
100
AcDbText
  0
TEXT
  5
185
330
1F
100
AcDbEntity
  8
0
  6
CONTINUOUS
 62
     2
100
AcDbText
 10
74.6
 20
270.8
 30
0.0
 40
4.0
  1
３
 41
1.120000000000001
  7
EXCADSTD
 72
     5
 11
77.8
 21
270.8
 31
0.0
100
AcDbText
  0
TEXT
  5
186
330
1F
100
AcDbEntity
  8
0
  6
CONTINUOUS
 62
     2
100
AcDbText
 10
74.5
 20
275.3
 30
0.0
 40
4.0
  1
２
 41
1.120000000000001
  7
EXCADSTD
 72
     5
 11
77.7
 21
275.3
 31
0.0
100
AcDbText
  0
TEXT
  5
187
330
1F
100
AcDbEntity
  8
0
  6
CONTINUOUS
 62
     2
100
AcDbText
 10
74.7
 20
279.8
 30
0.0
 40
4.0
  1
１
 41
1.120000000000001
  7
EXCADSTD
 72
     5
 11
77.9
 21
279.8
 31
0.0
100
AcDbText
  0
TEXT
  5
188
330
1F
100
AcDbEntity
  8
0
  6
CONTINUOUS
 62
     2
100
AcDbText
 10
74.60000000000001
 20
248.3
 30
0.0
 40
4.0
  1
８
 41
1.120000000000001
  7
EXCADSTD
 72
     5
 11
77.80000000000001
 21
248.3
 31
0.0
100
AcDbText
  0
TEXT
  5
189
330
1F
100
AcDbEntity
  8
0
  6
CONTINUOUS
 62
     2
100
AcDbText
 10
74.80000000000001
 20
243.8
 30
0.0
 40
4.0
  1
９
 41
1.120000000000001
  7
EXCADSTD
 72
     5
 11
78.00000000000001
 21
243.8
 31
0.0
100
AcDbText
  0
TEXT
  5
18A
330
1F
100
AcDbEntity
  8
0
  6
CONTINUOUS
 62
     2
100
AcDbText
 10
74.6
 20
261.8
 30
0.0
 40
4.0
  1
５
 41
1.120000000000001
  7
EXCADSTD
 72
     5
 11
77.8
 21
261.8
 31
0.0
100
AcDbText
  0
TEXT
  5
18B
330
1F
100
AcDbEntity
  8
0
  6
CONTINUOUS
 62
     2
100
AcDbText
 10
74.80000000000001
 20
257.3
 30
0.0
 40
4.0
  1
６
 41
1.120000000000001
  7
EXCADSTD
 72
     5
 11
78.00000000000001
 21
257.3
 31
0.0
100
AcDbText
  0
LINE
  5
18C
330
1F
100
AcDbEntity
  8
図枠
  6
CONTINUOUS
 62
     6
100
AcDbLine
 10
79.39999999999998
 20
31.30000000000001
 30
0.0
 11
79.39999999999998
 21
19.30000000000001
 31
0.0
  0
LINE
  5
18D
330
1F
100
AcDbEntity
  8
図枠
  6
CONTINUOUS
 62
     6
100
AcDbLine
 10
74.39999999999998
 20
31.30000000000001
 30
0.0
 11
74.39999999999998
 21
9.300000000000011
 31
0.0
  0
LINE
  5
18E
330
1F
100
AcDbEntity
  8
図枠
  6
CONTINUOUS
 62
     7
100
AcDbLine
 10
17.39999999999998
 20
9.300000000000011
 30
0.0
 11
199.4
 21
9.300000000000011
 31
0.0
  0
LINE
  5
18F
330
1F
100
AcDbEntity
  8
図枠
  6
CONTINUOUS
 62
     7
100
AcDbLine
 10
17.39999999999998
 20
31.30000000000001
 30
0.0
 11
199.4
 21
31.30000000000001
 31
0.0
  0
LINE
  5
190
330
1F
100
AcDbEntity
  8
図枠
  6
CONTINUOUS
 62
     7
100
AcDbLine
 10
199.4
 20
9.300000000000011
 30
0.0
 11
199.4
 21
289.3
 31
0.0
  0
LINE
  5
191
330
1F
100
AcDbEntity
  8
図枠
  6
CONTINUOUS
 62
     7
100
AcDbLine
 10
17.39999999999998
 20
9.300000000000011
 30
0.0
 11
17.39999999999998
 21
289.3
 31
0.0
  0
LINE
  5
192
330
1F
100
AcDbEntity
  8
図枠
  6
CONTINUOUS
 62
     6
100
AcDbLine
 10
74.40000000000003
 20
31.29999999999998
 30
0.0
 11
74.40000000000003
 21
9.299999999999983
 31
0.0
  0
LINE
  5
193
330
1F
100
AcDbEntity
  8
図枠
  6
CONTINUOUS
 62
     6
100
AcDbLine
 10
48.40000000000003
 20
31.29999999999998
 30
0.0
 11
48.40000000000003
 21
9.299999999999983
 31
0.0
  0
LINE
  5
194
330
1F
100
AcDbEntity
  8
図枠
  6
CONTINUOUS
 62
     6
100
AcDbLine
 10
32.90000000000003
 20
31.29999999999998
 30
0.0
 11
32.90000000000003
 21
9.299999999999983
 31
0.0
  0
CIRCLE
  5
195
330
1F
100
AcDbEntity
  8
図枠
  6
CONTINUOUS
 62
     6
100
AcDbCircle
 10
22.40000000000004
 20
11.79999999999998
 30
0.0
 40
0.10000002
  0
CIRCLE
  5
196
330
1F
100
AcDbEntity
  8
図枠
  6
CONTINUOUS
 62
     6
100
AcDbCircle
 10
27.40000000000004
 20
11.79999999999998
 30
0.0
 40
0.10000002
  0
CIRCLE
  5
197
330
1F
100
AcDbEntity
  8
図枠
  6
CONTINUOUS
 62
     6
100
AcDbCircle
 10
37.90000000000003
 20
11.79999999999998
 30
0.0
 40
0.10000002
  0
CIRCLE
  5
198
330
1F
100
AcDbEntity
  8
図枠
  6
CONTINUOUS
 62
     6
100
AcDbCircle
 10
42.90000000000003
 20
11.79999999999998
 30
0.0
 40
0.10000002
  0
LINE
  5
199
330
1F
100
AcDbEntity
  8
図枠
  6
CONTINUOUS
 62
     6
100
AcDbLine
 10
61.40000000000003
 20
31.29999999999998
 30
0.0
 11
61.40000000000003
 21
9.299999999999983
 31
0.0
  0
LINE
  5
19A
330
1F
100
AcDbEntity
  8
図枠
  6
EXLTYPE2
 62
     6
100
AcDbLine
 10
17.40000000000004
 20
14.29999999999998
 30
0.0
 11
48.40000000000003
 21
14.29999999999998
 31
0.0
  0
LINE
  5
19B
330
1F
100
AcDbEntity
  8
図枠
  6
CONTINUOUS
 62
     6
100
AcDbLine
 10
199.4
 20
19.29999999999998
 30
0.0
 11
74.40000000000003
 21
19.29999999999998
 31
0.0
  0
LINE
  5
19C
330
1F
100
AcDbEntity
  8
図枠
  6
CONTINUOUS
 62
     6
100
AcDbLine
 10
185.4
 20
31.29999999999998
 30
0.0
 11
185.4
 21
19.29999999999998
 31
0.0
  0
LINE
  5
19D
330
1F
100
AcDbEntity
  8
図枠
  6
CONTINUOUS
 62
     6
100
AcDbLine
 10
143.4
 20
31.29999999999998
 30
0.0
 11
143.4
 21
9.299999999999983
 31
0.0
  0
LINE
  5
19E
330
1F
100
AcDbEntity
  8
図枠
  6
CONTINUOUS
 62
     6
100
AcDbLine
 10
138.4
 20
31.29999999999998
 30
0.0
 11
138.4
 21
9.299999999999983
 31
0.0
  0
LINE
  5
19F
330
1F
100
AcDbEntity
  8
図枠
  6
CONTINUOUS
 62
     6
100
AcDbLine
 10
188.66538086
 20
21.60029297
 30
0.0
 11
196.39938965
 21
29.46998291
 31
0.0
  0
LINE
  5
1A0
330
1F
100
AcDbEntity
  8
図枠
  6
CONTINUOUS
 62
     6
100
AcDbLine
 10
180.4
 20
31.29999999999998
 30
0.0
 11
180.4
 21
19.29999999999998
 31
0.0
  0
TEXT
  5
1A1
330
1F
100
AcDbEntity
  8
図枠
  6
CONTINUOUS
 62
     2
100
AcDbText
 10
187.9287109638418
 20
25.57227782999998
 30
0.0
 40
4.0
  1
１
 41
1.119999999999996
  7
EXCADSTD
 72
     5
 11
191.1287109638418
 21
25.57227782999998
 31
0.0
100
AcDbText
  0
TEXT
  5
1A2
330
1F
100
AcDbEntity
  8
図枠
  6
CONTINUOUS
 62
     2
100
AcDbText
 10
141.2250000000001
 20
18.625
 30
0.0
 40
3.436363636363637
  1
図番
  7
EXCADVERT
 72
     3
 11
141.2250000000001
 21
9.625
 31
0.0
100
AcDbText
  0
TEXT
  5
1A3
330
1F
100
AcDbEntity
  8
図枠
  6
CONTINUOUS
 62
     2
100
AcDbText
 10
49.90000000000003
 20
26.54999999999998
 30
0.0
 40
4.5
  1
検図
 41
1.29620202020202
  7
EXCADSTD
 72
     5
 11
59.06600000000003
 21
26.54999999999998
 31
0.0
100
AcDbText
  0
TEXT
  5
1A4
330
1F
100
AcDbEntity
  8
図枠
  6
CONTINUOUS
 62
     2
100
AcDbText
 10
62.90000000000003
 20
26.54999999999998
 30
0.0
 40
4.5
  1
承認
 41
1.29620202020202
  7
EXCADSTD
 72
     5
 11
72.06600000000003
 21
26.54999999999998
 31
0.0
100
AcDbText
  0
TEXT
  5
1A5
330
1F
100
AcDbEntity
  8
図枠
  6
CONTINUOUS
 62
     6
100
AcDbText
 10
62.79999997615843
 20
17.80000000000013
 30
0.0
 40
5.0
  1
間瀬
 41
1.18991346010815
  7
EXCADSTD
 72
     5
 11
72.14932001986533
 21
17.80000000000013
 31
0.0
100
AcDbText
  0
LINE
  5
1A6
330
1F
100
AcDbEntity
  8
図枠
  6
CONTINUOUS
 62
     6
100
AcDbLine
 10
17.40000000000004
 20
26.29999999999998
 30
0.0
 11
74.4
 21
26.3
 31
0.0
  0
TEXT
  5
1A7
330
1F
100
AcDbEntity
  8
図枠
  6
CONTINUOUS
 62
     2
100
AcDbText
 10
149.4000000000001
 20
284.5000000000001
 30
0.0
 40
4.0
  1
個数
 41
1.166581818181817
  7
EXCADSTD
 72
     5
 11
156.7328000000001
 21
284.5000000000001
 31
0.0
100
AcDbText
  0
LINE
  5
1A8
330
1F
100
AcDbEntity
  8
図枠
  6
CONTINUOUS
 62
     7
100
AcDbLine
 10
17.39999999999998
 20
289.3
 30
0.0
 11
199.4
 21
289.3
 31
0.0
  0
TEXT
  5
1A9
330
1F
100
AcDbEntity
  8
図枠
  6
CONTINUOUS
 62
     2
100
AcDbText
 10
77.23999999999995
 20
29.92500000000001
 30
0.0
 40
3.627272727272727
  1
品名
  7
EXCADVERT
 72
     3
 11
77.23999999999995
 21
20.42500000000001
 31
0.0
100
AcDbText
  0
TEXT
  5
1AA
330
1F
100
AcDbEntity
  8
図枠
  6
CONTINUOUS
 62
     2
100
AcDbText
 10
141.2250000000001
 20
29.92499999999998
 30
0.0
 40
3.627272727272727
  1
品番
  7
EXCADVERT
 72
     3
 11
141.2250000000001
 21
20.42499999999998
 31
0.0
100
AcDbText
  0
TEXT
  5
1AB
330
1F
100
AcDbEntity
  8
図枠
  6
CONTINUOUS
 62
     2
100
AcDbText
 10
183.325
 20
29.92499999999998
 30
0.0
 40
3.627272727272727
  1
尺度
  7
EXCADVERT
 72
     3
 11
183.325
 21
20.42499999999998
 31
0.0
100
AcDbText
  0
LINE
  5
1AC
330
1F
100
AcDbEntity
  8
図枠
  6
EXLTYPE2
 62
     6
100
AcDbLine
 10
-0.6000000000000192
 20
149.1
 30
0.0
 11
17.39999999999998
 21
149.1
 31
0.0
  0
TEXT
  5
1AD
330
1F
100
AcDbEntity
  8
図枠
  6
CONTINUOUS
 62
     2
100
AcDbText
 10
152.4000000000001
 20
280.0000000000001
 30
0.0
 40
4.0
  1
1
 41
0.620454545454551
  7
EXCADSTD
 72
     5
 11
153.7000000000001
 21
280.0000000000001
 31
0.0
100
AcDbText
  0
TEXT
  5
1AE
330
1F
100
AcDbEntity
  8
図枠
  6
CONTINUOUS
 62
     2
100
AcDbText
 10
152.4000000000001
 20
275.5000000000001
 30
0.0
 40
4.0
  1
1
 41
0.620454545454551
  7
EXCADSTD
 72
     5
 11
153.7000000000001
 21
275.5000000000001
 31
0.0
100
AcDbText
  0
TEXT
  5
1AF
330
1F
100
AcDbEntity
  8
図枠
  6
CONTINUOUS
 62
     2
100
AcDbText
 10
152.4000000000001
 20
271.0000000000001
 30
0.0
 40
4.0
  1
1
 41
0.620454545454551
  7
EXCADSTD
 72
     5
 11
153.7000000000001
 21
271.0000000000001
 31
0.0
100
AcDbText
  0
TEXT
  5
1B0
330
1F
100
AcDbEntity
  8
図枠
  6
CONTINUOUS
 62
     2
100
AcDbText
 10
193.3529297376837
 20
21.13488464000001
 30
0.0
 40
4.0
  1
１
 41
1.119999999999996
  7
EXCADSTD
 72
     5
 11
196.5529297376837
 21
21.13488464000001
 31
0.0
100
AcDbText
  0
LINE
  5
1B1
330
1F
100
AcDbEntity
  8
図枠
  6
CONTINUOUS
 62
     6
100
AcDbLine
 10
78.40000000000006
 20
261.8
 30
0.0
 11
199.4
 21
261.8
 31
0.0
  0
LINE
  5
1B2
330
1F
100
AcDbEntity
  8
図枠
  6
CONTINUOUS
 62
     6
100
AcDbLine
 10
78.40000000000006
 20
257.3
 30
0.0
 11
199.4
 21
257.3
 31
0.0
  0
LINE
  5
1B3
330
1F
100
AcDbEntity
  8
図枠
  6
CONTINUOUS
 62
     6
100
AcDbLine
 10
78.40000000000006
 20
257.3
 30
0.0
 11
199.4
 21
257.3
 31
0.0
  0
LINE
  5
1B4
330
1F
100
AcDbEntity
  8
図枠
  6
CONTINUOUS
 62
     6
100
AcDbLine
 10
78.40000000000006
 20
252.8
 30
0.0
 11
199.4
 21
252.8
 31
0.0
  0
LINE
  5
1B5
330
1F
100
AcDbEntity
  8
図枠
  6
CONTINUOUS
 62
     6
100
AcDbLine
 10
78.40000000000006
 20
252.8
 30
0.0
 11
199.4
 21
252.8
 31
0.0
  0
LINE
  5
1B6
330
1F
100
AcDbEntity
  8
図枠
  6
CONTINUOUS
 62
     6
100
AcDbLine
 10
78.40000000000006
 20
252.8
 30
0.0
 11
199.4
 21
252.8
 31
0.0
  0
LINE
  5
1B7
330
1F
100
AcDbEntity
  8
図枠
  6
CONTINUOUS
 62
     6
100
AcDbLine
 10
78.40000000000006
 20
248.3
 30
0.0
 11
199.4
 21
248.3
 31
0.0
  0
LINE
  5
1B8
330
1F
100
AcDbEntity
  8
図枠
  6
CONTINUOUS
 62
     6
100
AcDbLine
 10
78.40000000000006
 20
248.3
 30
0.0
 11
199.4
 21
248.3
 31
0.0
  0
LINE
  5
1B9
330
1F
100
AcDbEntity
  8
図枠
  6
CONTINUOUS
 62
     6
100
AcDbLine
 10
78.40000000000006
 20
248.3
 30
0.0
 11
199.4
 21
248.3
 31
0.0
  0
LINE
  5
1BA
330
1F
100
AcDbEntity
  8
図枠
  6
CONTINUOUS
 62
     6
100
AcDbLine
 10
78.40000000000006
 20
243.8
 30
0.0
 11
199.4
 21
243.8
 31
0.0
  0
LINE
  5
1BB
330
1F
100
AcDbEntity
  8
図枠
  6
CONTINUOUS
 62
     6
100
AcDbLine
 10
78.40000000000006
 20
243.8
 30
0.0
 11
199.4
 21
243.8
 31
0.0
  0
LINE
  5
1BC
330
1F
100
AcDbEntity
  8
図枠
  6
CONTINUOUS
 62
     6
100
AcDbLine
 10
78.40000000000006
 20
243.8
 30
0.0
 11
199.4
 21
243.8
 31
0.0
  0
TEXT
  5
1BD
330
1F
100
AcDbEntity
  8
図枠
  6
CONTINUOUS
 62
     2
100
AcDbText
 10
152.4000000000001
 20
266.5000000000001
 30
0.0
 40
4.0
  1
1
 41
0.620454545454551
  7
EXCADSTD
 72
     5
 11
153.7000000000001
 21
266.5000000000001
 31
0.0
100
AcDbText
  0
TEXT
  5
1BE
330
1F
100
AcDbEntity
  8
図枠
  6
CONTINUOUS
 62
     2
100
AcDbText
 10
152.4000000000001
 20
262.0000000000001
 30
0.0
 40
4.0
  1
1
 41
0.620454545454551
  7
EXCADSTD
 72
     5
 11
153.7000000000001
 21
262.0000000000001
 31
0.0
100
AcDbText
  0
TEXT
  5
1BF
330
1F
100
AcDbEntity
  8
図枠
  6
CONTINUOUS
 62
     2
100
AcDbText
 10
152.4000000000001
 20
257.5000000000001
 30
0.0
 40
4.0
  1
1
 41
0.620454545454551
  7
EXCADSTD
 72
     5
 11
153.7000000000001
 21
257.5000000000001
 31
0.0
100
AcDbText
  0
TEXT
  5
1C0
330
1F
100
AcDbEntity
  8
図枠
  6
CONTINUOUS
 62
     2
100
AcDbText
 10
152.4000000000001
 20
253.0000000000001
 30
0.0
 40
4.0
  1
1
 41
0.620454545454551
  7
EXCADSTD
 72
     5
 11
153.7000000000001
 21
253.0000000000001
 31
0.0
100
AcDbText
  0
TEXT
  5
1C1
330
1F
100
AcDbEntity
  8
図枠
  6
CONTINUOUS
 62
     2
100
AcDbText
 10
152.4000000000001
 20
248.5000000000001
 30
0.0
 40
4.0
  1
1
 41
0.620454545454551
  7
EXCADSTD
 72
     5
 11
153.7000000000001
 21
248.5000000000001
 31
0.0
100
AcDbText
  0
TEXT
  5
1C2
330
1F
100
AcDbEntity
  8
図枠
  6
CONTINUOUS
 62
     2
100
AcDbText
 10
152.4000000000001
 20
244.0000000000001
 30
0.0
 40
4.0
  1
1
 41
0.620454545454551
  7
EXCADSTD
 72
     5
 11
153.7000000000001
 21
244.0000000000001
 31
0.0
100
AcDbText
  0
LINE
  5
1C3
330
1F
100
AcDbEntity
  8
図枠
  6
CONTINUOUS
 62
     6
100
AcDbLine
 10
158.4
 20
289.3
 30
0.0
 11
158.4
 21
243.8
 31
0.0
  0
LINE
  5
1C4
330
1F
100
AcDbEntity
  8
図枠
  6
CONTINUOUS
 62
     6
100
AcDbLine
 10
148.4
 20
289.3
 30
0.0
 11
148.4
 21
243.8
 31
0.0
  0
TEXT
  5
1C5
330
1F
100
AcDbEntity
  8
図枠
  6
CONTINUOUS
 62
     2
100
AcDbText
 10
80.26108397999997
 20
22.12713317999999
 30
0.0
 40
5.75
  1
　　　　スプレッダー
 41
0.7386883201191506
  7
EXCADSTD
 72
     5
 11
116.0610857800602
 21
22.12713317999999
 31
0.0
100
AcDbText
  0
TEXT
  5
1C6
330
1F
100
AcDbEntity
  8
図枠
  6
CONTINUOUS
 62
     2
100
AcDbText
 10
150.5795166
 20
22.69315490999999
 30
0.0
 40
5.75
  1
　ＪＵ２
 41
1.058601134215501
  7
EXCADSTD
 72
     5
 11
170.5795166
 21
22.69315490999999
 31
0.0
100
AcDbText
  0
TEXT
  5
1C7
330
1F
100
AcDbEntity
  8
図枠
  6
CONTINUOUS
 62
     2
100
AcDbText
 10
152.2795166
 20
11.49315490999999
 30
0.0
 40
5.75
  1
３４３１００
 41
1.026086956521739
  7
EXCADSTD
 72
     5
 11
181.7795166
 21
11.49315490999999
 31
0.0
100
AcDbText
  0
LINE
  5
1C8
330
1F
100
AcDbEntity
  8
図枠
  6
CONTINUOUS
 62
     6
100
AcDbLine
 10
71.2
 20
284.3
 30
0.0
 11
199.4
 21
284.3
 31
0.0
  0
LINE
  5
1C9
330
1F
100
AcDbEntity
  8
図枠
  6
CONTINUOUS
 62
     6
100
AcDbLine
 10
71.2
 20
279.8
 30
0.0
 11
199.4
 21
279.8
 31
0.0
  0
LINE
  5
1CA
330
1F
100
AcDbEntity
  8
図枠
  6
CONTINUOUS
 62
     6
100
AcDbLine
 10
71.2
 20
275.3
 30
0.0
 11
199.4
 21
275.3
 31
0.0
  0
LINE
  5
1CB
330
1F
100
AcDbEntity
  8
図枠
  6
CONTINUOUS
 62
     6
100
AcDbLine
 10
71.2
 20
270.8
 30
0.0
 11
199.4
 21
270.8
 31
0.0
  0
LINE
  5
1CC
330
1F
100
AcDbEntity
  8
図枠
  6
CONTINUOUS
 62
     6
100
AcDbLine
 10
71.2
 20
266.3
 30
0.0
 11
199.4
 21
266.3
 31
0.0
  0
LINE
  5
1CD
330
1F
100
AcDbEntity
  8
図枠
  6
CONTINUOUS
 62
     6
100
AcDbLine
 10
71.2
 20
261.8
 30
0.0
 11
199.4
 21
261.8
 31
0.0
  0
LINE
  5
1CE
330
1F
100
AcDbEntity
  8
図枠
  6
CONTINUOUS
 62
     6
100
AcDbLine
 10
71.2
 20
257.3
 30
0.0
 11
199.4
 21
257.3
 31
0.0
  0
LINE
  5
1CF
330
1F
100
AcDbEntity
  8
図枠
  6
CONTINUOUS
 62
     6
100
AcDbLine
 10
71.2
 20
252.8
 30
0.0
 11
199.4
 21
252.8
 31
0.0
  0
LINE
  5
1D0
330
1F
100
AcDbEntity
  8
図枠
  6
CONTINUOUS
 62
     6
100
AcDbLine
 10
71.2
 20
248.3
 30
0.0
 11
199.4
 21
248.3
 31
0.0
  0
LINE
  5
1D1
330
1F
100
AcDbEntity
  8
図枠
  6
CONTINUOUS
 62
     6
100
AcDbLine
 10
71.2
 20
243.8
 30
0.0
 11
199.4
 21
243.8
 31
0.0
  0
TEXT
  5
1D2
330
1F
100
AcDbEntity
  8
図枠
  6
CONTINUOUS
 62
     2
100
AcDbText
 10
124.5
 20
284.6000000000001
 30
0.0
 40
4.0
  1
材　質
 41
1.852941176470588
  7
EXCADSTD
 72
     5
 11
142.5
 21
284.6000000000001
 31
0.0
100
AcDbText
  0
TEXT
  5
1D3
330
1F
100
AcDbEntity
  8
図枠
  6
CONTINUOUS
 62
     2
100
AcDbText
 10
170.3
 20
284.7000000000001
 30
0.0
 40
4.0
  1
備　考
 41
1.852941176470588
  7
EXCADSTD
 72
     5
 11
188.3
 21
284.7000000000001
 31
0.0
100
AcDbText
  0
TEXT
  5
1D4
330
1F
100
AcDbEntity
  8
図枠
  6
CONTINUOUS
 62
     2
100
AcDbText
 10
123.6000000000002
 20
279.9000000000001
 30
0.0
 40
4.0
  1
合成樹脂
 41
1.103260869565216
  7
EXCADSTD
 72
     5
 11
138.1000000000001
 21
279.9000000000001
 31
0.0
100
AcDbText
  0
TEXT
  5
1D5
330
1F
100
AcDbEntity
  8
図枠
  6
CONTINUOUS
 62
     2
100
AcDbText
 10
123.5000000000001
 20
275.6
 30
0.0
 40
4.0
  1
合成樹脂
 41
1.103260869565218
  7
EXCADSTD
 72
     5
 11
138.0000000000001
 21
275.6
 31
0.0
100
AcDbText
  0
TEXT
  5
1D6
330
1F
100
AcDbEntity
  8
図枠
  6
CONTINUOUS
 62
     2
100
AcDbText
 10
123.5000000000001
 20
270.6000000000001
 30
0.0
 40
4.0
  1
合成樹脂
 41
1.103260869565216
  7
EXCADSTD
 72
     5
 11
138.0000000000001
 21
270.6000000000001
 31
0.0
100
AcDbText
  0
LINE
  5
1D7
330
1F
100
AcDbEntity
  8
図枠
  6
CONTINUOUS
 62
     6
100
AcDbLine
 10
48.40000000000003
 20
31.29999999999998
 30
0.0
 11
48.40000000000003
 21
9.299999999999983
 31
0.0
  0
CIRCLE
  5
1D8
330
1F
100
AcDbEntity
  8
図枠
  6
CONTINUOUS
 62
     6
100
AcDbCircle
 10
37.90000000000003
 20
11.79999999999998
 30
0.0
 40
0.10000002
  0
CIRCLE
  5
1D9
330
1F
100
AcDbEntity
  8
図枠
  6
CONTINUOUS
 62
     6
100
AcDbCircle
 10
42.90000000000003
 20
11.79999999999998
 30
0.0
 40
0.10000002
  0
TEXT
  5
1DA
330
1F
100
AcDbEntity
  8
図枠
  6
CONTINUOUS
 62
     2
100
AcDbText
 10
34.90000000000003
 20
26.54999999999998
 30
0.0
 40
4.5
  1
製図
 41
1.490632323232323
  7
EXCADSTD
 72
     5
 11
45.44090000000003
 21
26.54999999999998
 31
0.0
100
AcDbText
  0
TEXT
  5
1DB
330
1F
100
AcDbEntity
  8
図枠
  6
CONTINUOUS
 62
     6
100
AcDbText
 10
35.54999997615843
 20
17.80000000000013
 30
0.0
 40
5.0
  1
多澤
 41
1.18991346010815
  7
EXCADSTD
 72
     5
 11
44.89932001986533
 21
17.80000000000013
 31
0.0
100
AcDbText
  0
TEXT
  5
1DC
330
1F
100
AcDbEntity
  8
図枠
  6
CONTINUOUS
 62
     6
100
AcDbText
 10
33.53441156754792
 20
10.24500732000001
 30
0.0
 40
3.0
  1
'20
 41
0.4689784011919453
  7
EXCADSTD
 72
     5
 11
36.68326654697955
 21
10.24500732000001
 31
0.0
100
AcDbText
  0
TEXT
  5
1DD
330
1F
100
AcDbEntity
  8
図枠
  6
CONTINUOUS
 62
     6
100
AcDbText
 10
39.80691160569489
 20
10.24500732000001
 30
0.0
 40
3.0
  1
5
 41
0.4683823529411777
  7
EXCADSTD
 72
     5
 11
40.9444116056949
 21
10.24500732000001
 31
0.0
100
AcDbText
  0
TEXT
  5
1DE
330
1F
100
AcDbEntity
  8
図枠
  6
CONTINUOUS
 62
     6
100
AcDbText
 10
44.96441158542933
 20
10.24500732000001
 30
0.0
 40
3.0
  1
1
 41
0.7238636363636382
  7
EXCADSTD
 72
     5
 11
46.10191158542933
 21
10.24500732000001
 31
0.0
100
AcDbText
  0
TEXT
  5
1DF
330
1F
100
AcDbEntity
  8
図枠
  6
CONTINUOUS
 62
     2
100
AcDbText
 10
19.40000000000004
 20
26.54999999999998
 30
0.0
 40
4.5
  1
設計
 41
1.490632323232323
  7
EXCADSTD
 72
     5
 11
29.94090000000003
 21
26.54999999999998
 31
0.0
100
AcDbText
  0
CIRCLE
  5
1E0
330
1F
100
AcDbEntity
  8
寸法
  6
CONTINUOUS
 62
     3
100
AcDbCircle
 10
38.20000000000002
 20
148.0
 30
0.0
 40
3.5
  0
TEXT
  5
1E1
330
1F
100
AcDbEntity
  8
寸法
  6
CONTINUOUS
 62
     2
100
AcDbText
 10
36.4251262187958
 20
145.5251262187958
 30
0.0
 40
4.949747562408447
  1
4
 41
0.7583333333333337
  7
EXCADSTD
 72
     5
 11
39.64246213436129
 21
145.5251262187958
 31
0.0
100
AcDbText
  0
LEADER
  5
1E2
330
1F
100
AcDbEntity
  8
寸法
  6
CONTINUOUS
 62
     3
100
AcDbLeader
  3
ISO-25
 76
     2
 10
51.85000000000001
 20
135.57831216351
 30
0.0
 10
40.78860088381932
 20
145.6443375742076
 30
0.0
1001
ACAD
1000
DSTYLE
1002
{
1070
     5
1000
EX_NORM
1070
    41
1040
3.0
1070
   341
1005
4B
1002
}
  0
CIRCLE
  5
1E3
330
1F
100
AcDbEntity
  8
寸法
  6
CONTINUOUS
 62
     3
100
AcDbCircle
 10
37.59999999999999
 20
138.1
 30
0.0
 40
3.5
  0
TEXT
  5
1E4
330
1F
100
AcDbEntity
  8
寸法
  6
CONTINUOUS
 62
     2
100
AcDbText
 10
35.82512621879577
 20
135.6251262187958
 30
0.0
 40
4.949747562408447
  1
5
 41
0.8029411764705886
  7
EXCADSTD
 72
     5
 11
39.04246213436127
 21
135.6251262187958
 31
0.0
100
AcDbText
  0
LEADER
  5
1E5
330
1F
100
AcDbEntity
  8
寸法
  6
CONTINUOUS
 62
     3
100
AcDbLeader
  3
ISO-25
 76
     2
 10
47.10000000000002
 20
128.3
 30
0.0
 10
40.03610990896128
 20
135.5869603044399
 30
0.0
1001
ACAD
1000
DSTYLE
1002
{
1070
     5
1000
EX_NORM
1070
    41
1040
3.0
1070
   341
1005
4B
1002
}
  0
CIRCLE
  5
1E6
330
1F
100
AcDbEntity
  8
寸法
  6
CONTINUOUS
 62
     3
100
AcDbCircle
 10
37.20000000000002
 20
127.1
 30
0.0
 40
3.5
  0
TEXT
  5
1E7
330
1F
100
AcDbEntity
  8
寸法
  6
CONTINUOUS
 62
     2
100
AcDbText
 10
35.4251262187958
 20
124.6251262187958
 30
0.0
 40
4.949747562408447
  1
6
 41
0.8029411764705886
  7
EXCADSTD
 72
     5
 11
38.64246213436129
 21
124.6251262187958
 31
0.0
100
AcDbText
  0
LEADER
  5
1E8
330
1F
100
AcDbEntity
  8
寸法
  6
CONTINUOUS
 62
     3
100
AcDbLeader
  3
ISO-25
 76
     2
 10
46.85000000000002
 20
118.8
 30
0.0
 10
39.85351224377003
 20
124.8177044949957
 30
0.0
1001
ACAD
1000
DSTYLE
1002
{
1070
     5
1000
EX_NORM
1070
    41
1040
3.0
1070
   341
1005
4B
1002
}
  0
CIRCLE
  5
1E9
330
1F
100
AcDbEntity
  8
寸法
  6
CONTINUOUS
 62
     3
100
AcDbCircle
 10
38.09999999999999
 20
159.3
 30
0.0
 40
3.5
  0
TEXT
  5
1EA
330
1F
100
AcDbEntity
  8
寸法
  6
CONTINUOUS
 62
     2
100
AcDbText
 10
36.32512621879577
 20
156.8251262187958
 30
0.0
 40
4.949747562408447
  1
9
 41
0.8531250000000004
  7
EXCADSTD
 72
     5
 11
39.54246213436127
 21
156.8251262187958
 31
0.0
100
AcDbText
  0
LEADER
  5
1EB
330
1F
100
AcDbEntity
  8
寸法
  6
CONTINUOUS
 62
     3
100
AcDbLeader
  3
ISO-25
 76
     2
 10
55.60000000000001
 20
152.0
 30
0.0
 10
41.33022285792389
 20
157.9525356078374
 30
0.0
1001
ACAD
1000
DSTYLE
1002
{
1070
     5
1000
EX_NORM
1070
    41
1040
3.0
1070
   341
1005
4B
1002
}
  0
CIRCLE
  5
1EC
330
1F
100
AcDbEntity
  8
寸法
  6
CONTINUOUS
 62
     3
100
AcDbCircle
 10
38.70000000000002
 20
168.8
 30
0.0
 40
3.5
  0
TEXT
  5
1ED
330
1F
100
AcDbEntity
  8
寸法
  6
CONTINUOUS
 62
     2
100
AcDbText
 10
36.9251262187958
 20
166.3251262187958
 30
0.0
 40
4.949747562408447
  1
8
 41
0.8029411764705886
  7
EXCADSTD
 72
     5
 11
40.14246213436129
 21
166.3251262187958
 31
0.0
100
AcDbText
  0
LEADER
  5
1EE
330
1F
100
AcDbEntity
  8
寸法
  6
CONTINUOUS
 62
     3
100
AcDbLeader
  3
ISO-25
 76
     2
 10
55.35000000000001
 20
155.5
 30
0.0
 10
41.43464246778787
 20
166.6155708815868
 30
0.0
1001
ACAD
1000
DSTYLE
1002
{
1070
     5
1000
EX_NORM
1070
    41
1040
3.0
1070
   341
1005
4B
1002
}
  0
CIRCLE
  5
1EF
330
1F
100
AcDbEntity
  8
寸法
  6
CONTINUOUS
 62
     3
100
AcDbCircle
 10
42.09999999999999
 20
177.6
 30
0.0
 40
3.5
  0
TEXT
  5
1F0
330
1F
100
AcDbEntity
  8
寸法
  6
CONTINUOUS
 62
     2
100
AcDbText
 10
40.32512621879577
 20
175.1251262187958
 30
0.0
 40
4.949747562408447
  1
7
 41
0.8029411764705886
  7
EXCADSTD
 72
     5
 11
43.54246213436127
 21
175.1251262187958
 31
0.0
100
AcDbText
  0
LEADER
  5
1F1
330
1F
100
AcDbEntity
  8
寸法
  6
CONTINUOUS
 62
     3
100
AcDbLeader
  3
ISO-25
 76
     2
 10
57.85000000000001
 20
157.5
 30
0.0
 10
44.25874159655599
 20
174.845034533919
 30
0.0
1001
ACAD
1000
DSTYLE
1002
{
1070
     5
1000
EX_NORM
1070
    41
1040
3.0
1070
   341
1005
4B
1002
}
  0
DIMENSION
  5
1F3
330
1F
100
AcDbEntity
  8
エルボ
  6
CONTINUOUS
 62
     3
100
AcDbDimension
  2
*D15
 10
66.10000000000001
 20
72.0
 30
0.0
 11
87.35000000000001
 21
74.30000001192093
 31
0.0
 70
   160
  1
43.0
  3
ISO-25
100
AcDbAlignedDimension
 13
108.6
 23
85.0
 33
0.0
 14
66.10000000000001
 24
94.6
 34
0.0
100
AcDbRotatedDimension
1001
ACAD
1000
DSTYLE
1002
{
1070
   270
1070
     2
1070
     6
1000
EX_NORM
1070
     7
1000
EX_NORM
1070
    41
1040
3.0
1070
    42
1040
0.699999988079071
1070
    44
1040
1.0
1070
    73
1070
     0
1070
    74
1070
     0
1070
    75
1070
     0
1070
    76
1070
     0
1070
    77
1070
     1
1070
    78
1070
     8
1070
   140
1040
4.0
1070
   147
1040
0.0
1070
   173
1070
     1
1070
   176
1070
     3
1070
   177
1070
     3
1070
   178
1070
     2
1070
   271
1070
     1
1070
   277
1070
     2
1070
   279
1070
     2
1070
   280
1070
     0
1070
   287
1070
     5
1070
   340
1005
1F2
1002
}
  0
DIMENSION
  5
201
330
1F
100
AcDbEntity
  8
エルボ
  6
CONTINUOUS
 62
     3
100
AcDbDimension
  2
*D16
 10
185.3
 20
71.6
 30
0.0
 11
160.4
 21
73.90000001192092
 31
0.0
 70
   160
  1
50.0
  3
ISO-25
100
AcDbAlignedDimension
 13
135.5
 23
96.5
 33
0.0
 14
185.3
 24
96.5
 34
0.0
100
AcDbRotatedDimension
1001
ACAD
1000
DSTYLE
1002
{
1070
   270
1070
     2
1070
     6
1000
EX_NORM
1070
     7
1000
EX_NORM
1070
    41
1040
3.0
1070
    42
1040
0.699999988079071
1070
    44
1040
1.0
1070
    73
1070
     0
1070
    74
1070
     0
1070
    75
1070
     0
1070
    76
1070
     0
1070
    77
1070
     1
1070
    78
1070
     8
1070
   140
1040
4.0
1070
   147
1040
0.0
1070
   173
1070
     1
1070
   176
1070
     3
1070
   177
1070
     3
1070
   178
1070
     2
1070
   271
1070
     1
1070
   277
1070
     2
1070
   279
1070
     2
1070
   280
1070
     0
1070
   287
1070
     5
1070
   340
1005
1F2
1002
}
  0
DIMENSION
  5
20E
330
1F
100
AcDbEntity
  8
エルボ
  6
CONTINUOUS
 62
     3
100
AcDbDimension
  2
*D17
 10
117.7
 20
96.5
 30
0.0
 11
115.3999999880791
 21
123.75
 31
0.0
 70
   160
  3
ISO-25
100
AcDbAlignedDimension
 13
73.60000000000001
 23
151.0
 33
0.0
 14
116.9
 24
96.5
 34
0.0
 50
90.0
100
AcDbRotatedDimension
1001
ACAD
1000
DSTYLE
1002
{
1070
   270
1070
     2
1070
     6
1000
EX_NORM
1070
     7
1000
EX_NORM
1070
    41
1040
3.0
1070
    42
1040
3.500000000001009
1070
    44
1040
1.000000000000057
1070
    73
1070
     0
1070
    74
1070
     0
1070
    75
1070
     0
1070
    76
1070
     0
1070
    77
1070
     1
1070
    78
1070
     8
1070
   140
1040
4.0
1070
   147
1040
0.0
1070
   173
1070
     1
1070
   176
1070
     3
1070
   177
1070
     3
1070
   178
1070
     2
1070
   271
1070
     1
1070
   277
1070
     2
1070
   279
1070
     2
1070
   280
1070
     0
1070
   287
1070
     5
1070
   340
1005
1F2
1002
}
  0
DIMENSION
  5
21B
330
1F
100
AcDbEntity
  8
エルボ
  6
CONTINUOUS
 62
     3
100
AcDbDimension
  2
*D18
 10
109.1
 20
118.8
 30
0.0
 11
106.7999999880791
 21
134.9
 31
0.0
 70
   160
  3
ISO-25
100
AcDbAlignedDimension
 13
66.10000000000001
 23
151.0
 33
0.0
 14
78.0
 24
118.8
 34
0.0
 50
90.0
100
AcDbRotatedDimension
1001
ACAD
1000
DSTYLE
1002
{
1070
   270
1070
     2
1070
     6
1000
EX_NORM
1070
     7
1000
EX_NORM
1070
    41
1040
3.0
1070
    42
1040
0.699999988079071
1070
    44
1040
1.0
1070
    73
1070
     0
1070
    74
1070
     0
1070
    75
1070
     1
1070
    76
1070
     0
1070
    77
1070
     1
1070
    78
1070
     8
1070
   140
1040
4.0
1070
   147
1040
0.0
1070
   173
1070
     1
1070
   176
1070
     3
1070
   177
1070
     3
1070
   178
1070
     2
1070
   271
1070
     1
1070
   277
1070
     2
1070
   279
1070
     2
1070
   280
1070
     0
1070
   287
1070
     5
1070
   340
1005
1F2
1002
}
  0
CIRCLE
  5
227
330
1F
100
AcDbEntity
  8
エルボ
  6
CONTINUOUS
 62
     3
100
AcDbCircle
 10
95.5
 20
145.3
 30
0.0
 40
3.5
  0
TEXT
  5
228
330
1F
100
AcDbEntity
  8
エルボ
  6
CONTINUOUS
 62
     2
100
AcDbText
 10
93.72512621879578
 20
142.8251262187958
 30
0.0
 40
4.949747562408447
  1
1
 41
1.240909090909089
  7
EXCADSTD
 72
     5
 11
96.94246213436126
 21
142.8251262187958
 31
0.0
100
AcDbText
  0
LEADER
  5
229
330
1F
100
AcDbEntity
  8
エルボ
  6
CONTINUOUS
 62
     3
100
AcDbLeader
  3
ISO-25
 76
     2
 10
78.0
 20
141.4
 30
0.0
 10
92.08380523486979
 20
144.5386765951995
 30
0.0
1001
ACAD
1000
DSTYLE
1002
{
1070
     5
1000
EX_NORM
1070
    41
1040
3.0
1070
   341
1005
4B
1002
}
  0
CIRCLE
  5
22A
330
1F
100
AcDbEntity
  8
エルボ
  6
CONTINUOUS
 62
     3
100
AcDbCircle
 10
38.59999999999999
 20
93.39999999999999
 30
0.0
 40
3.5
  0
TEXT
  5
22B
330
1F
100
AcDbEntity
  8
エルボ
  6
CONTINUOUS
 62
     2
100
AcDbText
 10
36.82512621879577
 20
90.92512621879577
 30
0.0
 40
4.949747562408447
  1
2
 41
0.8029411764705886
  7
EXCADSTD
 72
     5
 11
40.04246213436127
 21
90.92512621879577
 31
0.0
100
AcDbText
  0
LEADER
  5
22C
330
1F
100
AcDbEntity
  8
エルボ
  6
CONTINUOUS
 62
     3
100
AcDbLeader
  3
ISO-25
 76
     2
 10
56.120434971854
 20
101.54912001863
 30
0.0
 10
41.7735183160856
 20
94.8760696113223
 30
0.0
1001
ACAD
1000
DSTYLE
1002
{
1070
     5
1000
EX_NORM
1070
    41
1040
3.0
1070
   341
1005
4B
1002
}
  0
TEXT
  5
22D
330
1F
100
AcDbEntity
  8
エルボ
  6
CONTINUOUS
 62
     2
100
AcDbText
 10
33.80000002384188
 20
102.5499999940395
 30
0.0
 40
4.0
  1
接着部
 41
1.070588232839809
  7
EXCADSTD
 72
     5
 11
44.20000000000002
 21
102.5499999940395
 31
0.0
100
AcDbText
  0
LEADER
  5
22E
330
1F
100
AcDbEntity
  8
エルボ
  6
CONTINUOUS
 62
     3
100
AcDbLeader
  3
ISO-25
 76
     3
 10
57.10000000000002
 20
113.2
 30
0.0
 10
44.20000000000002
 20
102.2
 30
0.0
 10
33.60000000000002
 20
102.2
 30
0.0
1001
ACAD
1000
DSTYLE
1002
{
1070
     5
1000
EX_NORM
1070
    41
1040
3.0
1070
   341
1005
4B
1002
}
  0
TEXT
  5
22F
330
1F
100
AcDbEntity
  8
エルボ
  6
CONTINUOUS
 62
     2
100
AcDbText
 10
116.7
 20
87.64999999403953
 30
0.0
 40
4.0
  1
接着部
 41
1.070588232839809
  7
EXCADSTD
 72
     5
 11
127.0999999761581
 21
87.64999999403953
 31
0.0
100
AcDbText
  0
LEADER
  5
230
330
1F
100
AcDbEntity
  8
エルボ
  6
CONTINUOUS
 62
     3
100
AcDbLeader
  3
ISO-25
 76
     3
 10
105.6
 20
106.4
 30
0.0
 10
116.7
 20
87.3
 30
0.0
 10
128.2
 20
87.3
 30
0.0
1001
ACAD
1000
DSTYLE
1002
{
1070
     5
1000
EX_NORM
1070
    41
1040
3.0
1070
   341
1005
4B
1002
}
  0
CIRCLE
  5
231
330
1F
100
AcDbEntity
  8
エルボ
  6
CONTINUOUS
 62
     3
100
AcDbCircle
 10
118.6
 20
76.1
 30
0.0
 40
3.5
  0
TEXT
  5
232
330
1F
100
AcDbEntity
  8
エルボ
  6
CONTINUOUS
 62
     2
100
AcDbText
 10
116.8251262187958
 20
73.62512621879577
 30
0.0
 40
4.949747562408447
  1
3
 41
0.8029411764705868
  7
EXCADSTD
 72
     5
 11
120.0424621343613
 21
73.62512621879577
 31
0.0
100
AcDbText
  0
LEADER
  5
233
330
1F
100
AcDbEntity
  8
エルボ
  6
CONTINUOUS
 62
     3
100
AcDbLeader
  3
ISO-25
 76
     2
 10
108.6
 20
93.1
 30
0.0
 10
116.8254295570281
 20
79.11676975305218
 30
0.0
1001
ACAD
1000
DSTYLE
1002
{
1070
     5
1000
EX_NORM
1070
    41
1040
3.0
1070
   341
1005
4B
1002
}
  0
CIRCLE
  5
234
330
1F
100
AcDbEntity
  8
エルボ
  6
CONTINUOUS
 62
     2
100
AcDbCircle
 10
66.10000000000001
 20
202.4
 30
0.0
 40
6.5
  0
LINE
  5
235
330
1F
100
AcDbEntity
  8
エルボ
  6
CONTINUOUS
 62
     2
100
AcDbLine
 10
105.6
 20
177.5
 30
0.0
 11
108.6
 21
177.5
 31
0.0
  0
LINE
  5
236
330
1F
100
AcDbEntity
  8
エルボ
  6
CONTINUOUS
 62
     2
100
AcDbLine
 10
105.6
 20
188.9
 30
0.0
 11
102.6
 21
188.9
 31
0.0
  0
ARC
  5
237
330
1F
100
AcDbEntity
  8
エルボ
  6
CONTINUOUS
 62
     2
100
AcDbCircle
 10
160.4
 20
67.24937499999992
 30
0.0
 40
42.75062500000008
100
AcDbArc
 50
90.00000000000001
 51
125.6228803305561
  0
LINE
  5
238
330
1F
100
AcDbEntity
  8
エルボ
  6
CONTINUOUS
 62
     2
100
AcDbLine
 10
142.9
 20
112.8
 30
0.0
 11
160.4
 21
112.8
 31
0.0
  0
LINE
  5
239
330
1F
100
AcDbEntity
  8
エルボ
  6
CONTINUOUS
 62
     2
100
AcDbLine
 10
142.9
 20
115.8
 30
0.0
 11
160.4
 21
115.8
 31
0.0
  0
LINE
  5
23A
330
1F
100
AcDbEntity
  8
エルボ
  6
CONTINUOUS
 62
     2
100
AcDbLine
 10
148.5
 20
124.0
 30
0.0
 11
160.4
 21
124.0
 31
0.0
  0
ARC
  5
23B
330
1F
100
AcDbEntity
  8
エルボ
  6
CONTINUOUS
 62
     2
100
AcDbCircle
 10
53.40916035175988
 20
107.0
 30
0.0
 40
1.0
100
AcDbArc
 50
90.00000000000001
 51
215.8999999999998
  0
ARC
  5
23C
330
1F
100
AcDbEntity
  8
エルボ
  6
CONTINUOUS
 62
     2
100
AcDbCircle
 10
160.4
 20
96.5
 30
0.0
 40
13.5
100
AcDbArc
 50
180.0
 51
193.0000000000039
  0
LINE
  5
23D
330
1F
100
AcDbEntity
  8
エルボ
  6
CONTINUOUS
 62
     2
100
AcDbLine
 10
135.5
 20
102.0
 30
0.0
 11
135.5
 21
96.5
 31
0.0
  0
LINE
  5
23E
330
1F
100
AcDbEntity
  8
エルボ
  6
CONTINUOUS
 62
     2
100
AcDbLine
 10
142.9
 20
112.8
 30
0.0
 11
142.9
 21
115.8
 31
0.0
  0
LINE
  5
23F
330
1F
100
AcDbEntity
  8
エルボ
  6
CONTINUOUS
 62
     2
100
AcDbLine
 10
149.9
 20
108.6904891004996
 30
0.0
 11
149.9
 21
112.8
 31
0.0
  0
LINE
  5
240
330
1F
100
AcDbEntity
  8
エルボ
  6
CONTINUOUS
 62
     2
100
AcDbLine
 10
149.19474425497
 20
93.91306287504469
 30
0.0
 11
147.2460041253995
 21
93.46316076635694
 31
0.0
  0
LINE
  5
241
330
1F
100
AcDbEntity
  8
エルボ
  6
CONTINUOUS
 62
     2
100
AcDbLine
 10
48.59999999999999
 20
115.8
 30
0.0
 11
48.59999999999999
 21
112.8
 31
0.0
  0
LINE
  5
242
330
1F
100
AcDbEntity
  8
エルボ
  6
CONTINUOUS
 62
     2
100
AcDbLine
 10
83.6
 20
115.8
 30
0.0
 11
83.6
 21
112.8
 31
0.0
  0
LINE
  5
243
330
1F
100
AcDbEntity
  8
エルボ
  6
CONTINUOUS
 62
     2
100
AcDbLine
 10
55.60000000000002
 20
108.0
 30
0.0
 11
55.60000000000002
 21
112.8
 31
0.0
  0
LINE
  5
244
330
1F
100
AcDbEntity
  8
エルボ
  6
CONTINUOUS
 62
     2
100
AcDbLine
 10
76.6
 20
108.0
 30
0.0
 11
76.6
 21
112.8
 31
0.0
  0
LINE
  5
245
330
1F
100
AcDbEntity
  8
エルボ
  6
CONTINUOUS
 62
     2
100
AcDbLine
 10
102.5842092120538
 20
87.51579078794583
 30
0.0
 11
105.0999999999998
 21
84.9999999999998
 31
0.0
  0
LINE
  5
246
330
1F
100
AcDbEntity
  8
エルボ
  6
CONTINUOUS
 62
     2
100
AcDbLine
 10
108.6
 20
84.99999999999997
 30
0.0
 11
106.30337013173
 21
84.99999999999997
 31
0.0
  0
LINE
  5
247
330
1F
100
AcDbEntity
  8
エルボ
  6
CONTINUOUS
 62
     2
100
AcDbLine
 10
106.30337013173
 20
84.99999999999997
 30
0.0
 11
105.5999999999995
 21
96.49999999999997
 31
0.0
  0
LINE
  5
248
330
1F
100
AcDbEntity
  8
エルボ
  6
EXLTYPE3
 62
     6
100
AcDbLine
 10
160.4
 20
96.5
 30
0.0
 11
158.4
 21
96.5
 31
0.0
  0
LINE
  5
249
330
1F
100
AcDbEntity
  8
エルボ
  6
EXLTYPE3
 62
     6
100
AcDbLine
 10
162.0
 20
96.5
 30
0.0
 11
160.4
 21
96.5
 31
0.0
  0
LINE
  5
24A
330
1F
100
AcDbEntity
  8
エルボ
  6
EXLTYPE3
 62
     6
100
AcDbLine
 10
160.4
 20
151.0
 30
0.0
 11
160.4
 21
85.5
 31
0.0
  0
ARC
  5
24B
330
1F
100
AcDbEntity
  8
エルボ
  6
CONTINUOUS
 62
     2
100
AcDbCircle
 10
160.4
 20
67.24937499999992
 30
0.0
 40
42.75062500000008
100
AcDbArc
 50
54.37711966944386
 51
89.99999999999991
  0
LINE
  5
24C
330
1F
100
AcDbEntity
  8
エルボ
  6
CONTINUOUS
 62
     2
100
AcDbLine
 10
177.9
 20
112.8
 30
0.0
 11
160.4
 21
112.8
 31
0.0
  0
LINE
  5
24D
330
1F
100
AcDbEntity
  8
エルボ
  6
CONTINUOUS
 62
     2
100
AcDbLine
 10
177.9
 20
115.8
 30
0.0
 11
160.4
 21
115.8
 31
0.0
  0
LINE
  5
24E
330
1F
100
AcDbEntity
  8
エルボ
  6
CONTINUOUS
 62
     2
100
AcDbLine
 10
172.3
 20
124.0
 30
0.0
 11
160.4
 21
124.0
 31
0.0
  0
LINE
  5
24F
330
1F
100
AcDbEntity
  8
エルボ
  6
CONTINUOUS
 62
     2
100
AcDbLine
 10
185.3
 20
96.5
 30
0.0
 11
173.9
 21
96.5
 31
0.0
  0
ARC
  5
250
330
1F
100
AcDbEntity
  8
エルボ
  6
CONTINUOUS
 62
     2
100
AcDbCircle
 10
160.4
 20
96.5
 30
0.0
 40
13.5
100
AcDbArc
 50
346.9999999999961
 51
0.0
  0
LINE
  5
251
330
1F
100
AcDbEntity
  8
エルボ
  6
CONTINUOUS
 62
     2
100
AcDbLine
 10
185.3
 20
102.0
 30
0.0
 11
185.3
 21
96.5
 31
0.0
  0
LINE
  5
252
330
1F
100
AcDbEntity
  8
エルボ
  6
CONTINUOUS
 62
     2
100
AcDbLine
 10
177.9
 20
112.8
 30
0.0
 11
177.9
 21
115.8
 31
0.0
  0
LINE
  5
253
330
1F
100
AcDbEntity
  8
エルボ
  6
CONTINUOUS
 62
     2
100
AcDbLine
 10
170.9
 20
108.6904891004996
 30
0.0
 11
170.9
 21
112.8
 31
0.0
  0
LINE
  5
254
330
1F
100
AcDbEntity
  8
エルボ
  6
CONTINUOUS
 62
     2
100
AcDbLine
 10
171.60525574503
 20
93.91306287504469
 30
0.0
 11
173.5539958746004
 21
93.46316076635694
 31
0.0
  0
LINE
  5
255
330
1F
100
AcDbEntity
  8
エルボ
  6
EXLTYPE3
 62
     6
100
AcDbLine
 10
160.4
 20
96.5
 30
0.0
 11
162.4
 21
96.5
 31
0.0
  0
LINE
  5
256
330
1F
100
AcDbEntity
  8
エルボ
  6
EXLTYPE3
 62
     6
100
AcDbLine
 10
160.4
 20
156.7
 30
0.0
 11
160.4
 21
152.2
 31
0.0
  0
LINE
  5
257
330
1F
100
AcDbEntity
  8
エルボ
  6
EXLTYPE3
 62
     6
100
AcDbLine
 10
160.4
 20
151.0
 30
0.0
 11
160.4
 21
85.5
 31
0.0
  0
CIRCLE
  5
258
330
1F
100
AcDbEntity
  8
エルボ
  6
EXLTYPE2
 62
     2
100
AcDbCircle
 10
160.4
 20
96.5
 30
0.0
 40
9.0
  0
ARC
  5
259
330
1F
100
AcDbEntity
  8
エルボ
  6
CONTINUOUS
 62
     2
100
AcDbCircle
 10
160.4
 20
96.5
 30
0.0
 40
9.0
100
AcDbArc
 50
285.7913062211352
 51
290.8274969320121
  0
LINE
  5
25A
330
1F
100
AcDbEntity
  8
エルボ
  6
CONTINUOUS
 62
     2
100
AcDbLine
 10
46.84999999999999
 20
115.8
 30
0.0
 11
46.84999999999999
 21
118.8
 31
0.0
  0
LINE
  5
25B
330
1F
100
AcDbEntity
  8
エルボ
  6
CONTINUOUS
 62
     2
100
AcDbLine
 10
85.35000000000001
 20
115.8
 30
0.0
 11
85.35000000000001
 21
118.8
 31
0.0
  0
LINE
  5
25C
330
1F
100
AcDbEntity
  8
エルボ
  6
CONTINUOUS
 62
     2
100
AcDbLine
 10
59.60000000000002
 20
132.9999999999999
 30
0.0
 11
59.60000000000002
 21
132.0
 31
0.0
  0
LINE
  5
25D
330
1F
100
AcDbEntity
  8
エルボ
  6
CONTINUOUS
 62
     2
100
AcDbLine
 10
72.60000000000001
 20
132.0
 30
0.0
 11
72.60000000000001
 21
132.9999999999999
 31
0.0
  0
LINE
  5
25E
330
1F
100
AcDbEntity
  8
エルボ
  6
CONTINUOUS
 62
     2
100
AcDbLine
 10
57.90000000000009
 20
132.9999999999999
 30
0.0
 11
74.30000000000057
 21
132.9999999999999
 31
0.0
  0
LINE
  5
25F
330
1F
100
AcDbEntity
  8
エルボ
  6
CONTINUOUS
 62
     2
100
AcDbLine
 10
74.30000000000075
 20
132.0
 30
0.0
 11
57.89999999999989
 21
132.0
 31
0.0
  0
LINE
  5
260
330
1F
100
AcDbEntity
  8
エルボ
  6
CONTINUOUS
 62
     2
100
AcDbLine
 10
102.6
 20
103.9999999999999
 30
0.0
 11
105.6
 21
103.9999999999999
 31
0.0
  0
LINE
  5
261
330
1F
100
AcDbEntity
  8
エルボ
  6
CONTINUOUS
 62
     2
100
AcDbLine
 10
55.60000000000002
 20
112.8
 30
0.0
 11
48.59999999999999
 21
112.8
 31
0.0
  0
LINE
  5
262
330
1F
100
AcDbEntity
  8
エルボ
  6
CONTINUOUS
 62
     2
100
AcDbLine
 10
83.6
 20
112.8
 30
0.0
 11
76.6
 21
112.8
 31
0.0
  0
LINE
  5
263
330
1F
100
AcDbEntity
  8
エルボ
  6
CONTINUOUS
 62
     2
100
AcDbLine
 10
47.09999999999999
 20
128.0
 30
0.0
 11
47.09999999999999
 21
128.3
 31
0.0
  0
LINE
  5
264
330
1F
100
AcDbEntity
  8
エルボ
  6
CONTINUOUS
 62
     2
100
AcDbLine
 10
85.10000000000001
 20
128.0
 30
0.0
 11
85.10000000000001
 21
128.3
 31
0.0
  0
LINE
  5
265
330
1F
100
AcDbEntity
  8
エルボ
  6
CONTINUOUS
 62
     2
100
AcDbLine
 10
46.09999999999999
 20
128.3
 30
0.0
 11
46.09999999999999
 21
129.3
 31
0.0
  0
ARC
  5
266
330
1F
100
AcDbEntity
  8
エルボ
  6
CONTINUOUS
 62
     2
100
AcDbCircle
 10
46.59999999999999
 20
129.3
 30
0.0
 40
0.5
100
AcDbArc
 50
90.00000000000001
 51
180.0
  0
LINE
  5
267
330
1F
100
AcDbEntity
  8
エルボ
  6
CONTINUOUS
 62
     2
100
AcDbLine
 10
86.10000000000001
 20
128.3
 30
0.0
 11
86.10000000000001
 21
129.3
 31
0.0
  0
ARC
  5
268
330
1F
100
AcDbEntity
  8
エルボ
  6
CONTINUOUS
 62
     2
100
AcDbCircle
 10
85.60000000000001
 20
129.3
 30
0.0
 40
0.5
100
AcDbArc
 50
0.0
 51
90.00000000000001
  0
LINE
  5
269
330
1F
100
AcDbEntity
  8
エルボ
  6
CONTINUOUS
 62
     2
100
AcDbLine
 10
49.84999999999999
 20
129.8
 30
0.0
 11
46.59999999999999
 21
129.8
 31
0.0
  0
ARC
  5
26A
330
1F
100
AcDbEntity
  8
エルボ
  6
CONTINUOUS
 62
     2
100
AcDbCircle
 10
49.84999999999999
 20
131.8
 30
0.0
 40
2.0
100
AcDbArc
 50
270.0
 51
0.0
  0
ARC
  5
26B
330
1F
100
AcDbEntity
  8
エルボ
  6
CONTINUOUS
 62
     2
100
AcDbCircle
 10
82.35000000000001
 20
131.8
 30
0.0
 40
2.0
100
AcDbArc
 50
180.0
 51
270.0
  0
LINE
  5
26C
330
1F
100
AcDbEntity
  8
エルボ
  6
CONTINUOUS
 62
     2
100
AcDbLine
 10
51.85000000000011
 20
135.5783121635128
 30
0.0
 11
53.10000000000012
 21
136.2999999999998
 31
0.0
  0
LINE
  5
26D
330
1F
100
AcDbEntity
  8
エルボ
  6
CONTINUOUS
 62
     2
100
AcDbLine
 10
80.34999999999988
 20
135.5783121635127
 30
0.0
 11
79.09999999999987
 21
136.2999999999998
 31
0.0
  0
LINE
  5
26E
330
1F
100
AcDbEntity
  8
エルボ
  6
CONTINUOUS
 62
     2
100
AcDbLine
 10
80.35000000000001
 20
131.8
 30
0.0
 11
80.35000000000001
 21
135.5783121635126
 31
0.0
  0
LINE
  5
26F
330
1F
100
AcDbEntity
  8
エルボ
  6
CONTINUOUS
 62
     2
100
AcDbLine
 10
51.84999999999999
 20
131.8
 30
0.0
 11
51.84999999999999
 21
135.5783121635127
 31
0.0
  0
LINE
  5
270
330
1F
100
AcDbEntity
  8
エルボ
  6
CONTINUOUS
 62
     2
100
AcDbLine
 10
73.60000000000001
 20
155.0
 30
0.0
 11
73.60000000000001
 21
151.0
 31
0.0
  0
LINE
  5
271
330
1F
100
AcDbEntity
  8
エルボ
  6
CONTINUOUS
 62
     2
100
AcDbLine
 10
58.59999999999999
 20
155.0
 30
0.0
 11
58.59999999999999
 21
151.0000000000001
 31
0.0
  0
LINE
  5
272
330
1F
100
AcDbEntity
  8
エルボ
  6
CONTINUOUS
 62
     2
100
AcDbLine
 10
76.60000000000001
 20
155.0
 30
0.0
 11
76.60000000000001
 21
151.0000000000001
 31
0.0
  0
LINE
  5
273
330
1F
100
AcDbEntity
  8
エルボ
  6
CONTINUOUS
 62
     2
100
AcDbLine
 10
55.59999999999999
 20
155.0
 30
0.0
 11
55.59999999999999
 21
151.0
 31
0.0
  0
LINE
  5
274
330
1F
100
AcDbEntity
  8
エルボ
  6
CONTINUOUS
 62
     2
100
AcDbLine
 10
55.59999999999999
 20
155.0
 30
0.0
 11
76.60000000000001
 21
155.0
 31
0.0
  0
LINE
  5
275
330
1F
100
AcDbEntity
  8
エルボ
  6
CONTINUOUS
 62
     2
100
AcDbLine
 10
74.35000000000002
 20
155.0
 30
0.0
 11
74.35000000000002
 21
155.5
 31
0.0
  0
LINE
  5
276
330
1F
100
AcDbEntity
  8
エルボ
  6
CONTINUOUS
 62
     2
100
AcDbLine
 10
55.34999999999999
 20
155.5
 30
0.0
 11
55.34999999999999
 21
155.0
 31
0.0
  0
LINE
  5
277
330
1F
100
AcDbEntity
  8
エルボ
  6
CONTINUOUS
 62
     2
100
AcDbLine
 10
76.85
 20
155.0
 30
0.0
 11
76.85
 21
155.5
 31
0.0
  0
LINE
  5
278
330
1F
100
AcDbEntity
  8
エルボ
  6
CONTINUOUS
 62
     2
100
AcDbLine
 10
76.85
 20
155.0
 30
0.0
 11
55.34999999999999
 21
155.0
 31
0.0
  0
LINE
  5
279
330
1F
100
AcDbEntity
  8
エルボ
  6
CONTINUOUS
 62
     2
100
AcDbLine
 10
54.84999999999999
 20
155.5
 30
0.0
 11
76.85
 21
155.5
 31
0.0
  0
LINE
  5
27A
330
1F
100
AcDbEntity
  8
エルボ
  6
CONTINUOUS
 62
     2
100
AcDbLine
 10
77.35000000000001
 20
155.5000000000001
 30
0.0
 11
76.85000000000001
 21
155.5000000000001
 31
0.0
  0
ARC
  5
27B
330
1F
100
AcDbEntity
  8
エルボ
  6
CONTINUOUS
 62
     2
100
AcDbCircle
 10
65.85833333333342
 20
151.5
 30
0.0
 40
14.00833333333341
100
AcDbArc
 50
154.6392330163605
 51
205.3607669836395
  0
ARC
  5
27C
330
1F
100
AcDbEntity
  8
エルボ
  6
CONTINUOUS
 62
     2
100
AcDbCircle
 10
66.34166666666661
 20
151.5
 30
0.0
 40
14.00833333333338
100
AcDbArc
 50
334.6392330163605
 51
25.36076698363955
  0
LINE
  5
27D
330
1F
100
AcDbEntity
  8
エルボ
  6
CONTINUOUS
 62
     2
100
AcDbLine
 10
53.2
 20
145.5
 30
0.0
 11
53.95
 21
145.5
 31
0.0
  0
LINE
  5
27E
330
1F
100
AcDbEntity
  8
エルボ
  6
CONTINUOUS
 62
     2
100
AcDbLine
 10
53.95
 20
146.5
 30
0.0
 11
54.85000000000001
 21
147.4
 31
0.0
  0
LINE
  5
27F
330
1F
100
AcDbEntity
  8
エルボ
  6
CONTINUOUS
 62
     2
100
AcDbLine
 10
77.35000000000001
 20
147.4
 30
0.0
 11
78.25
 21
146.5
 31
0.0
  0
LINE
  5
280
330
1F
100
AcDbEntity
  8
エルボ
  6
CONTINUOUS
 62
     2
100
AcDbLine
 10
54.84999999999999
 20
147.3999999999993
 30
0.0
 11
54.84999999999999
 21
155.5
 31
0.0
  0
LINE
  5
281
330
1F
100
AcDbEntity
  8
エルボ
  6
CONTINUOUS
 62
     2
100
AcDbLine
 10
77.35000000000001
 20
147.3999999999993
 30
0.0
 11
77.35000000000001
 21
155.5000000000001
 31
0.0
  0
LINE
  5
282
330
1F
100
AcDbEntity
  8
エルボ
  6
CONTINUOUS
 62
     6
100
AcDbLine
 10
54.85000000000001
 20
155.5
 30
0.0
 11
53.95
 21
154.3
 31
0.0
  0
LINE
  5
283
330
1F
100
AcDbEntity
  8
エルボ
  6
CONTINUOUS
 62
     6
100
AcDbLine
 10
53.95
 20
146.5
 30
0.0
 11
53.95
 21
154.3
 31
0.0
  0
LINE
  5
284
330
1F
100
AcDbEntity
  8
エルボ
  6
CONTINUOUS
 62
     6
100
AcDbLine
 10
77.35000000000001
 20
155.5
 30
0.0
 11
78.25
 21
154.3
 31
0.0
  0
LINE
  5
285
330
1F
100
AcDbEntity
  8
エルボ
  6
CONTINUOUS
 62
     6
100
AcDbLine
 10
78.25
 20
154.3
 30
0.0
 11
78.25
 21
146.5
 31
0.0
  0
LINE
  5
286
330
1F
100
AcDbEntity
  8
エルボ
  6
CONTINUOUS
 62
     2
100
AcDbLine
 10
53.95
 20
146.5
 30
0.0
 11
53.95
 21
145.5
 31
0.0
  0
LINE
  5
287
330
1F
100
AcDbEntity
  8
エルボ
  6
CONTINUOUS
 62
     2
100
AcDbLine
 10
78.25
 20
146.5
 30
0.0
 11
78.25
 21
145.5
 31
0.0
  0
LINE
  5
288
330
1F
100
AcDbEntity
  8
エルボ
  6
CONTINUOUS
 62
     2
100
AcDbLine
 10
47.09999999999999
 20
128.3
 30
0.0
 11
54.10000000000012
 21
128.3
 31
0.0
  0
LINE
  5
289
330
1F
100
AcDbEntity
  8
エルボ
  6
CONTINUOUS
 62
     2
100
AcDbLine
 10
57.74724173600099
 20
150.5043632677493
 30
0.0
 11
57.90000000000009
 21
133.0
 31
0.0
  0
ARC
  5
28A
330
1F
100
AcDbEntity
  8
エルボ
  6
CONTINUOUS
 62
     2
100
AcDbCircle
 10
57.2472607744689
 20
150.5000000000001
 30
0.0
 40
0.5
100
AcDbArc
 50
0.500000000001338
 51
90.00000000000001
  0
LINE
  5
28B
330
1F
100
AcDbEntity
  8
エルボ
  6
CONTINUOUS
 62
     2
100
AcDbLine
 10
74.45275826399967
 20
150.5043632677492
 30
0.0
 11
74.30000000000057
 21
133.0
 31
0.0
  0
ARC
  5
28C
330
1F
100
AcDbEntity
  8
エルボ
  6
CONTINUOUS
 62
     2
100
AcDbCircle
 10
74.95273922553174
 20
150.5
 30
0.0
 40
0.5
100
AcDbArc
 50
90.00000000000001
 51
179.4999999999987
  0
LINE
  5
28D
330
1F
100
AcDbEntity
  8
エルボ
  6
CONTINUOUS
 62
     2
100
AcDbLine
 10
57.247260774469
 20
151.0
 30
0.0
 11
74.952739225532
 21
151.0
 31
0.0
  0
LINE
  5
28E
330
1F
100
AcDbEntity
  8
エルボ
  6
EXLTYPE2
 62
     2
100
AcDbLine
 10
151.9
 20
88.75403330758499
 30
0.0
 11
152.8
 21
91.67921168272
 31
0.0
  0
LINE
  5
28F
330
1F
100
AcDbEntity
  8
エルボ
  6
EXLTYPE2
 62
     2
100
AcDbLine
 10
158.3
 20
85.193364779918
 30
0.0
 11
157.7
 21
87.914547187247
 31
0.0
  0
LINE
  5
290
330
1F
100
AcDbEntity
  8
エルボ
  6
EXLTYPE2
 62
     2
100
AcDbLine
 10
162.5
 20
85.193364779918
 30
0.0
 11
163.1
 21
87.914547187247
 31
0.0
  0
LINE
  5
291
330
1F
100
AcDbEntity
  8
エルボ
  6
EXLTYPE2
 62
     2
100
AcDbLine
 10
168.9
 20
88.75403330758499
 30
0.0
 11
168.0
 21
91.67921168272
 31
0.0
  0
LINE
  5
292
330
1F
100
AcDbEntity
  8
エルボ
  6
CONTINUOUS
 62
     2
100
AcDbLine
 10
163.1
 20
87.91454718724748
 30
0.0
 11
163.1
 21
87.839666327779
 31
0.0
  0
LINE
  5
293
330
1F
100
AcDbEntity
  8
エルボ
  6
CONTINUOUS
 62
     2
100
AcDbLine
 10
106.0737636185059
 20
88.75403330758499
 30
0.0
 11
101.2
 21
88.75403330758498
 31
0.0
  0
LINE
  5
294
330
1F
100
AcDbEntity
  8
エルボ
  6
CONTINUOUS
 62
     2
100
AcDbLine
 10
66.09970643279418
 20
87.70682494355576
 30
0.0
 11
66.14074104963443
 21
87.70661008484092
 31
0.0
  0
ARC
  5
295
330
1F
100
AcDbEntity
  8
エルボ
  6
CONTINUOUS
 62
     2
100
AcDbCircle
 10
58.49601086131074
 20
104.2533481277584
 30
0.0
 40
1.0
100
AcDbArc
 50
90.30000000000027
 51
215.9000000000002
  0
LINE
  5
296
330
1F
100
AcDbEntity
  8
エルボ
  6
CONTINUOUS
 62
     2
100
AcDbLine
 10
57.68596922086493
 20
103.6669757710226
 30
0.0
 11
68.95365271315697
 21
88.10128152354822
 31
0.0
  0
LINE
  5
297
330
1F
100
AcDbEntity
  8
エルボ
  6
CONTINUOUS
 62
     2
100
AcDbLine
 10
69.75845838977135
 20
87.68766758803659
 30
0.0
 11
102.584209212054
 21
87.51579078794713
 31
0.0
  0
ARC
  5
298
330
1F
100
AcDbEntity
  8
エルボ
  6
CONTINUOUS
 62
     2
100
AcDbCircle
 10
69.76369435360277
 20
88.68765388028402
 30
0.0
 40
1.0
100
AcDbArc
 50
215.9
 51
269.6999999999997
  0
LINE
  5
299
330
1F
100
AcDbEntity
  8
エルボ
  6
CONTINUOUS
 62
     2
100
AcDbLine
 10
105.6
 20
96.49999999999
 30
0.0
 11
105.6
 21
103.9999999999999
 31
0.0
  0
LINE
  5
29A
330
1F
100
AcDbEntity
  8
エルボ
  6
CONTINUOUS
 62
     2
100
AcDbLine
 10
105.6
 20
105.4999999999998
 30
0.0
 11
105.6
 21
108.0
 31
0.0
  0
LINE
  5
29B
330
1F
100
AcDbEntity
  8
エルボ
  6
CONTINUOUS
 62
     2
100
AcDbLine
 10
72.28363615120318
 20
105.3255543326349
 30
0.0
 11
105.6
 21
105.4999999999998
 31
0.0
  0
LINE
  5
29C
330
1F
100
AcDbEntity
  8
エルボ
  6
CONTINUOUS
 62
     2
100
AcDbLine
 10
58.4907748974793
 20
105.2533344200058
 30
0.0
 11
59.91670290149111
 21
105.260800629806
 31
0.0
  0
LINE
  5
29D
330
1F
100
AcDbEntity
  8
エルボ
  6
CONTINUOUS
 62
     2
100
AcDbLine
 10
57.10000000000024
 20
108.0
 30
0.0
 11
53.40916035175988
 21
108.0
 31
0.0
  0
LINE
  5
29E
330
1F
100
AcDbEntity
  8
エルボ
  6
CONTINUOUS
 62
     2
100
AcDbLine
 10
105.6
 20
108.0
 30
0.0
 11
75.09999999999977
 21
108.0
 31
0.0
  0
LINE
  5
29F
330
1F
100
AcDbEntity
  8
エルボ
  6
CONTINUOUS
 62
     2
100
AcDbLine
 10
74.35000000000002
 20
155.5
 30
0.0
 11
74.35000000000002
 21
157.5000000000001
 31
0.0
  0
LINE
  5
2A0
330
1F
100
AcDbEntity
  8
エルボ
  6
CONTINUOUS
 62
     2
100
AcDbLine
 10
57.84999999999999
 20
155.0
 30
0.0
 11
57.84999999999999
 21
157.5000000000001
 31
0.0
  0
LINE
  5
2A1
330
1F
100
AcDbEntity
  8
エルボ
  6
CONTINUOUS
 62
     2
100
AcDbLine
 10
53.2
 20
157.5000000000001
 30
0.0
 11
78.99999999999997
 21
157.5000000000001
 31
0.0
  0
LINE
  5
2A2
330
1F
100
AcDbEntity
  8
エルボ
  6
CONTINUOUS
 62
     2
100
AcDbLine
 10
78.25
 20
145.5
 30
0.0
 11
79.0
 21
145.5
 31
0.0
  0
LINE
  5
2A3
330
1F
100
AcDbEntity
  8
エルボ
  6
CONTINUOUS
 62
     2
100
AcDbLine
 10
57.75982413328448
 20
213.9543916547889
 30
0.0
 11
51.92351536832012
 21
203.8456083452111
 31
0.0
  0
LINE
  5
2A4
330
1F
100
AcDbEntity
  8
エルボ
  6
CONTINUOUS
 62
     2
100
AcDbLine
 10
51.92351536832011
 20
200.9543916547889
 30
0.0
 11
57.75982413328445
 21
190.8456083452111
 31
0.0
  0
LINE
  5
2A5
330
1F
100
AcDbEntity
  8
エルボ
  6
CONTINUOUS
 62
     2
100
AcDbLine
 10
60.26369123503565
 20
189.4
 30
0.0
 11
71.93630876496435
 21
189.4
 31
0.0
  0
LINE
  5
2A6
330
1F
100
AcDbEntity
  8
エルボ
  6
CONTINUOUS
 62
     2
100
AcDbLine
 10
74.44017586671556
 20
190.8456083452111
 30
0.0
 11
80.27648463167992
 21
200.9543916547889
 31
0.0
  0
LINE
  5
2A7
330
1F
100
AcDbEntity
  8
エルボ
  6
CONTINUOUS
 62
     2
100
AcDbLine
 10
80.27648463167993
 20
203.8456083452111
 30
0.0
 11
74.44017586671559
 21
213.9543916547889
 31
0.0
  0
LINE
  5
2A8
330
1F
100
AcDbEntity
  8
エルボ
  6
CONTINUOUS
 62
     2
100
AcDbLine
 10
71.9363087649644
 20
215.4
 30
0.0
 11
60.26369123503569
 21
215.4
 31
0.0
  0
ARC
  5
2A9
330
1F
100
AcDbEntity
  8
エルボ
  6
CONTINUOUS
 62
     2
100
AcDbCircle
 10
66.10000000000001
 20
202.4
 30
0.0
 40
14.25
100
AcDbArc
 50
114.177544833635
 51
125.8224551663648
  0
ARC
  5
2AA
330
1F
100
AcDbEntity
  8
エルボ
  6
CONTINUOUS
 62
     2
100
AcDbCircle
 10
66.10000000000001
 20
202.4
 30
0.0
 40
14.25
100
AcDbArc
 50
174.177544833635
 51
185.822455166365
  0
ARC
  5
2AB
330
1F
100
AcDbEntity
  8
エルボ
  6
CONTINUOUS
 62
     2
100
AcDbCircle
 10
66.10000000000001
 20
202.4
 30
0.0
 40
14.25
100
AcDbArc
 50
234.177544833635
 51
245.822455166365
  0
ARC
  5
2AC
330
1F
100
AcDbEntity
  8
エルボ
  6
CONTINUOUS
 62
     2
100
AcDbCircle
 10
66.10000000000001
 20
202.4
 30
0.0
 40
14.25
100
AcDbArc
 50
294.1775448336349
 51
305.822455166365
  0
ARC
  5
2AD
330
1F
100
AcDbEntity
  8
エルボ
  6
CONTINUOUS
 62
     2
100
AcDbCircle
 10
66.10000000000001
 20
202.4
 30
0.0
 40
14.25
100
AcDbArc
 50
354.1775448336348
 51
5.822455166364974
  0
ARC
  5
2AE
330
1F
100
AcDbEntity
  8
エルボ
  6
CONTINUOUS
 62
     2
100
AcDbCircle
 10
66.10000000000001
 20
202.4
 30
0.0
 40
14.25
100
AcDbArc
 50
54.17754483363487
 51
65.82245516636505
  0
CIRCLE
  5
2AF
330
1F
100
AcDbEntity
  8
エルボ
  6
CONTINUOUS
 62
     2
100
AcDbCircle
 10
66.10000000000001
 20
202.4
 30
0.0
 40
12.9
  0
CIRCLE
  5
2B0
330
1F
100
AcDbEntity
  8
エルボ
  6
CONTINUOUS
 62
     2
100
AcDbCircle
 10
66.10000000000001
 20
202.4
 30
0.0
 40
8.25
  0
CIRCLE
  5
2B1
330
1F
100
AcDbEntity
  8
エルボ
  6
CONTINUOUS
 62
     2
100
AcDbCircle
 10
66.10000000000001
 20
202.4
 30
0.0
 40
20.0
  0
LINE
  5
2B2
330
1F
100
AcDbEntity
  8
エルボ
  6
CONTINUOUS
 62
     2
100
AcDbLine
 10
102.6
 20
190.9
 30
0.0
 11
82.46306817195358
 21
190.9
 31
0.0
  0
CIRCLE
  5
2B3
330
1F
100
AcDbEntity
  8
エルボ
  6
CONTINUOUS
 62
     2
100
AcDbCircle
 10
66.10000000000001
 20
202.4
 30
0.0
 40
14.25
  0
LINE
  5
2B4
330
1F
100
AcDbEntity
  8
エルボ
  6
CONTINUOUS
 62
     2
100
AcDbLine
 10
179.4
 20
128.0
 30
0.0
 11
179.4
 21
128.3
 31
0.0
  0
LINE
  5
2B5
330
1F
100
AcDbEntity
  8
エルボ
  6
CONTINUOUS
 62
     2
100
AcDbLine
 10
141.4
 20
128.0
 30
0.0
 11
141.4
 21
128.3
 31
0.0
  0
LINE
  5
2B6
330
1F
100
AcDbEntity
  8
エルボ
  6
CONTINUOUS
 62
     2
100
AcDbLine
 10
179.65
 20
118.8
 30
0.0
 11
179.65
 21
115.8
 31
0.0
  0
LINE
  5
2B7
330
1F
100
AcDbEntity
  8
エルボ
  6
CONTINUOUS
 62
     2
100
AcDbLine
 10
141.15
 20
118.8
 30
0.0
 11
141.15
 21
115.8
 31
0.0
  0
LINE
  5
2B8
330
1F
100
AcDbEntity
  8
エルボ
  6
CONTINUOUS
 62
     2
100
AcDbLine
 10
85.60000000000001
 20
129.8
 30
0.0
 11
82.35000000000001
 21
129.8
 31
0.0
  0
LINE
  5
2B9
330
1F
100
AcDbEntity
  8
エルボ
  6
CONTINUOUS
 62
     2
100
AcDbLine
 10
180.4
 20
128.3
 30
0.0
 11
140.4
 21
128.3
 31
0.0
  0
LINE
  5
2BA
330
1F
100
AcDbEntity
  8
エルボ
  6
CONTINUOUS
 62
     2
100
AcDbLine
 10
86.10000000000001
 20
128.3
 30
0.0
 11
78.10000000000147
 21
128.3
 31
0.0
  0
LINE
  5
2BB
330
1F
100
AcDbEntity
  8
エルボ
  6
CONTINUOUS
 62
     2
100
AcDbLine
 10
179.4
 20
128.0
 30
0.0
 11
141.4
 21
128.0
 31
0.0
  0
LINE
  5
2BC
330
1F
100
AcDbEntity
  8
エルボ
  6
CONTINUOUS
 62
     2
100
AcDbLine
 10
85.10000000000001
 20
128.0
 30
0.0
 11
78.00000000000003
 21
128.0
 31
0.0
  0
LINE
  5
2BD
330
1F
100
AcDbEntity
  8
エルボ
  6
CONTINUOUS
 62
     2
100
AcDbLine
 10
78.00000000000003
 20
118.8
 30
0.0
 11
85.35000000000001
 21
118.8
 31
0.0
  0
LINE
  5
2BE
330
1F
100
AcDbEntity
  8
エルボ
  6
CONTINUOUS
 62
     2
100
AcDbLine
 10
141.15
 20
118.8
 30
0.0
 11
179.65
 21
118.8
 31
0.0
  0
LINE
  5
2BF
330
1F
100
AcDbEntity
  8
エルボ
  6
CONTINUOUS
 62
     2
100
AcDbLine
 10
179.65
 20
115.8
 30
0.0
 11
141.15
 21
115.8
 31
0.0
  0
LINE
  5
2C0
330
1F
100
AcDbEntity
  8
エルボ
  6
CONTINUOUS
 62
     2
100
AcDbLine
 10
85.35000000000001
 20
115.8
 30
0.0
 11
78.00000000000003
 21
115.8
 31
0.0
  0
LINE
  5
2C1
330
1F
100
AcDbEntity
  8
エルボ
  6
CONTINUOUS
 62
     2
100
AcDbLine
 10
172.3
 20
128.0
 30
0.0
 11
172.3
 21
118.8
 31
0.0
  0
LINE
  5
2C2
330
1F
100
AcDbEntity
  8
エルボ
  6
CONTINUOUS
 62
     2
100
AcDbLine
 10
172.3
 20
145.5
 30
0.0
 11
172.3
 21
136.3
 31
0.0
  0
ELLIPSE
  5
2C3
330
1F
100
AcDbEntity
  8
エルボ
  6
CONTINUOUS
 62
     2
100
AcDbEllipse
 10
153.9
 20
135.57831216351
 30
0.0
 11
5.054391654790012
 21
0.0
 31
0.0
210
0.0
220
0.0
230
1.0
 40
0.1427980189293544
 41
0.0
 42
3.141592653589792
  0
ELLIPSE
  5
2C4
330
1F
100
AcDbEntity
  8
エルボ
  6
CONTINUOUS
 62
     2
100
AcDbEllipse
 10
166.9
 20
135.57831216351
 30
0.0
 11
5.054391654790012
 21
0.0
 31
0.0
210
0.0
220
0.0
230
1.0
 40
0.1432769251074722
 41
0.0
 42
3.141592653589792
  0
LINE
  5
2C5
330
1F
100
AcDbEntity
  8
エルボ
  6
CONTINUOUS
 62
     2
100
AcDbLine
 10
148.5
 20
145.5
 30
0.0
 11
148.5
 21
136.3
 31
0.0
  0
ARC
  5
2C6
330
1F
100
AcDbEntity
  8
エルボ
  6
CONTINUOUS
 62
     2
100
AcDbCircle
 10
145.4
 20
131.8
 30
0.0
 40
2.0
100
AcDbArc
 50
270.0
 51
0.0
  0
ARC
  5
2C7
330
1F
100
AcDbEntity
  8
エルボ
  6
CONTINUOUS
 62
     2
100
AcDbCircle
 10
175.4
 20
131.8
 30
0.0
 40
2.0
100
AcDbArc
 50
180.0
 51
270.0
  0
LINE
  5
2C8
330
1F
100
AcDbEntity
  8
エルボ
  6
CONTINUOUS
 62
     2
100
AcDbLine
 10
148.84560834521
 20
135.57831216351
 30
0.0
 11
148.84560834521
 21
131.2999999999999
 31
0.0
  0
ARC
  5
2C9
330
1F
100
AcDbEntity
  8
エルボ
  6
CONTINUOUS
 62
     2
100
AcDbCircle
 10
149.34560834521
 20
131.2999999999999
 30
0.0
 40
0.5
100
AcDbArc
 50
180.0
 51
270.0
  0
LINE
  5
2CA
330
1F
100
AcDbEntity
  8
エルボ
  6
CONTINUOUS
 62
     2
100
AcDbLine
 10
158.95439165479
 20
135.57831216351
 30
0.0
 11
158.95439165479
 21
131.2999999999999
 31
0.0
  0
ARC
  5
2CB
330
1F
100
AcDbEntity
  8
エルボ
  6
CONTINUOUS
 62
     2
100
AcDbCircle
 10
158.45439165479
 20
131.2999999999999
 30
0.0
 40
0.5
100
AcDbArc
 50
270.0
 51
0.0
  0
LINE
  5
2CC
330
1F
100
AcDbEntity
  8
エルボ
  6
CONTINUOUS
 62
     2
100
AcDbLine
 10
171.95439165479
 20
135.57831216351
 30
0.0
 11
171.95439165479
 21
131.2999999999999
 31
0.0
  0
ARC
  5
2CD
330
1F
100
AcDbEntity
  8
エルボ
  6
CONTINUOUS
 62
     2
100
AcDbCircle
 10
171.45439165479
 20
131.2999999999999
 30
0.0
 40
0.5
100
AcDbArc
 50
270.0
 51
0.0
  0
LINE
  5
2CE
330
1F
100
AcDbEntity
  8
エルボ
  6
CONTINUOUS
 62
     2
100
AcDbLine
 10
171.45439165479
 20
130.7999999999999
 30
0.0
 11
162.34560834521
 21
130.7999999999999
 31
0.0
  0
LINE
  5
2CF
330
1F
100
AcDbEntity
  8
エルボ
  6
CONTINUOUS
 62
     2
100
AcDbLine
 10
161.84560834521
 20
135.57831216351
 30
0.0
 11
161.84560834521
 21
131.2999999999999
 31
0.0
  0
ARC
  5
2D0
330
1F
100
AcDbEntity
  8
エルボ
  6
CONTINUOUS
 62
     2
100
AcDbCircle
 10
162.34560834521
 20
131.2999999999999
 30
0.0
 40
0.5
100
AcDbArc
 50
180.0
 51
270.0
  0
LINE
  5
2D1
330
1F
100
AcDbEntity
  8
エルボ
  6
CONTINUOUS
 62
     2
100
AcDbLine
 10
149.34560834521
 20
130.8
 30
0.0
 11
158.45439165479
 21
130.8
 31
0.0
  0
LINE
  5
2D2
330
1F
100
AcDbEntity
  8
エルボ
  6
CONTINUOUS
 62
     2
100
AcDbLine
 10
147.4
 20
131.8
 30
0.0
 11
147.4
 21
135.8
 31
0.0
  0
ARC
  5
2D3
330
1F
100
AcDbEntity
  8
エルボ
  6
CONTINUOUS
 62
     2
100
AcDbCircle
 10
147.9
 20
135.8
 30
0.0
 40
0.5
100
AcDbArc
 50
90.00000000000001
 51
180.0
  0
LINE
  5
2D4
330
1F
100
AcDbEntity
  8
エルボ
  6
CONTINUOUS
 62
     2
100
AcDbLine
 10
172.9
 20
136.3
 30
0.0
 11
147.9
 21
136.3
 31
0.0
  0
LINE
  5
2D5
330
1F
100
AcDbEntity
  8
エルボ
  6
CONTINUOUS
 62
     2
100
AcDbLine
 10
173.4
 20
131.8
 30
0.0
 11
173.4
 21
135.8
 31
0.0
  0
ARC
  5
2D6
330
1F
100
AcDbEntity
  8
エルボ
  6
CONTINUOUS
 62
     2
100
AcDbCircle
 10
172.9
 20
135.8
 30
0.0
 40
0.5
100
AcDbArc
 50
0.0
 51
90.00000000000001
  0
LINE
  5
2D7
330
1F
100
AcDbEntity
  8
エルボ
  6
CONTINUOUS
 62
     2
100
AcDbLine
 10
140.4
 20
129.3
 30
0.0
 11
140.4
 21
128.3
 31
0.0
  0
LINE
  5
2D8
330
1F
100
AcDbEntity
  8
エルボ
  6
CONTINUOUS
 62
     2
100
AcDbLine
 10
176.77
 20
129.8
 30
0.0
 11
140.9
 21
129.8
 31
0.0
  0
ARC
  5
2D9
330
1F
100
AcDbEntity
  8
エルボ
  6
CONTINUOUS
 62
     2
100
AcDbCircle
 10
140.9
 20
129.3
 30
0.0
 40
0.5
100
AcDbArc
 50
90.00000000000001
 51
180.0
  0
LINE
  5
2DA
330
1F
100
AcDbEntity
  8
エルボ
  6
CONTINUOUS
 62
     2
100
AcDbLine
 10
179.9
 20
129.8
 30
0.0
 11
175.4
 21
129.8
 31
0.0
  0
LINE
  5
2DB
330
1F
100
AcDbEntity
  8
エルボ
  6
CONTINUOUS
 62
     2
100
AcDbLine
 10
180.4
 20
129.3
 30
0.0
 11
180.4
 21
128.3
 31
0.0
  0
ARC
  5
2DC
330
1F
100
AcDbEntity
  8
エルボ
  6
CONTINUOUS
 62
     2
100
AcDbCircle
 10
179.9
 20
129.3
 30
0.0
 40
0.5
100
AcDbArc
 50
0.0
 51
90.00000000000001
  0
ARC
  5
2DD
330
1F
100
AcDbEntity
  8
エルボ
  6
CONTINUOUS
 62
     2
100
AcDbCircle
 10
148.0
 20
157.0000000000001
 30
0.0
 40
0.5
100
AcDbArc
 50
90.00000000000001
 51
180.0
  0
ARC
  5
2DE
330
1F
100
AcDbEntity
  8
エルボ
  6
CONTINUOUS
 62
     2
100
AcDbCircle
 10
172.8
 20
157.0000000000001
 30
0.0
 40
0.5
100
AcDbArc
 50
0.0
 51
90.00000000000001
  0
LINE
  5
2DF
330
1F
100
AcDbEntity
  8
エルボ
  6
CONTINUOUS
 62
     2
100
AcDbLine
 10
173.3
 20
146.0
 30
0.0
 11
173.3
 21
157.0000000000001
 31
0.0
  0
ARC
  5
2E0
330
1F
100
AcDbEntity
  8
エルボ
  6
CONTINUOUS
 62
     2
100
AcDbCircle
 10
172.8
 20
146.0
 30
0.0
 40
0.5
100
AcDbArc
 50
270.0
 51
0.0
  0
LINE
  5
2E1
330
1F
100
AcDbEntity
  8
エルボ
  6
CONTINUOUS
 62
     2
100
AcDbLine
 10
172.8
 20
145.5
 30
0.0
 11
148.0
 21
145.5
 31
0.0
  0
LINE
  5
2E2
330
1F
100
AcDbEntity
  8
エルボ
  6
CONTINUOUS
 62
     2
100
AcDbLine
 10
147.5
 20
157.0000000000001
 30
0.0
 11
147.5
 21
146.0
 31
0.0
  0
ARC
  5
2E3
330
1F
100
AcDbEntity
  8
エルボ
  6
CONTINUOUS
 62
     2
100
AcDbCircle
 10
148.0
 20
146.0
 30
0.0
 40
0.5
100
AcDbArc
 50
180.0
 51
270.0
  0
LINE
  5
2E4
330
1F
100
AcDbEntity
  8
エルボ
  6
CONTINUOUS
 62
     2
100
AcDbLine
 10
148.5
 20
128.0
 30
0.0
 11
148.5
 21
118.8
 31
0.0
  0
ELLIPSE
  5
2E5
330
1F
100
AcDbEntity
  8
エルボ
  6
CONTINUOUS
 62
     2
100
AcDbEllipse
 10
153.9
 20
151.5
 30
0.0
 11
3.678529956255163E-16
 21
6.007495318350236
 31
0.0
210
0.0
220
0.0
230
1.0
 40
0.8413475811376969
 41
-0.0499583957216649
 42
0.0499583957216649
  0
ELLIPSE
  5
2E6
330
1F
100
AcDbEntity
  8
エルボ
  6
CONTINUOUS
 62
     2
100
AcDbEllipse
 10
166.9
 20
151.5
 30
0.0
 11
3.674450631511243E-16
 21
6.000833275471
 31
0.0
210
0.0
220
0.0
230
1.0
 40
0.8422816336941631
 41
3.124927529875558
 42
3.158257777304028
  0
ELLIPSE
  5
2E7
330
1F
100
AcDbEntity
  8
エルボ
  6
CONTINUOUS
 62
     2
100
AcDbEllipse
 10
166.9
 20
151.5
 30
0.0
 11
3.674450631511243E-16
 21
6.000833275471
 31
0.0
210
0.0
220
0.0
230
1.0
 40
0.8422816336941631
 41
-0.0166651237131049
 42
0.0166651237131049
  0
ELLIPSE
  5
2E8
330
1F
100
AcDbEntity
  8
エルボ
  6
CONTINUOUS
 62
     2
100
AcDbEllipse
 10
153.9
 20
151.5
 30
0.0
 11
3.394945350039728E-16
 21
5.544366510251644
 31
0.0
210
0.0
220
0.0
230
1.0
 40
0.9116265393790867
 41
0.0
 42
6.283185307179586
  0
ELLIPSE
  5
2E9
330
1F
100
AcDbEntity
  8
エルボ
  6
CONTINUOUS
 62
     2
100
AcDbEllipse
 10
166.9
 20
151.5
 30
0.0
 11
3.381666503781334E-16
 21
5.522680508593632
 31
0.0
210
0.0
220
0.0
230
1.0
 40
0.9152062385149863
 41
0.0
 42
6.283185307179586
  0
LINE
  5
2EA
330
1F
100
AcDbEntity
  8
エルボ
  6
CONTINUOUS
 62
     2
100
AcDbLine
 10
148.0
 20
157.5000000000001
 30
0.0
 11
153.6475957256601
 21
157.5000000000001
 31
0.0
  0
LINE
  5
2EB
330
1F
100
AcDbEntity
  8
エルボ
  6
CONTINUOUS
 62
     2
100
AcDbLine
 10
154.1524042743399
 20
157.5000000000001
 30
0.0
 11
172.8
 21
157.5000000000001
 31
0.0
  0
CIRCLE
  5
2EC
330
1F
100
AcDbEntity
  8
エルボ
  6
CONTINUOUS
 62
     2
100
AcDbCircle
 10
66.10000000000001
 20
202.4
 30
0.0
 40
6.25
  0
LINE
  5
2ED
330
1F
100
AcDbEntity
  8
エルボ
  6
CONTINUOUS
 62
     2
100
AcDbLine
 10
66.1
 20
103.07987332044
 30
0.0
 11
66.06073597400989
 21
103.07987332044
 31
0.0
  0
LINE
  5
2EE
330
1F
100
AcDbEntity
  8
エルボ
  6
CONTINUOUS
 62
     2
100
AcDbLine
 10
102.6
 20
105.48429189318
 30
0.0
 11
102.6
 21
96.49999999999993
 31
0.0
  0
LINE
  5
2EF
330
1F
100
AcDbEntity
  8
エルボ
  6
CONTINUOUS
 62
     2
100
AcDbLine
 10
105.599999999999
 20
96.5
 30
0.0
 11
102.6
 21
96.5
 31
0.0
  0
LINE
  5
2F0
330
1F
100
AcDbEntity
  8
エルボ
  6
CONTINUOUS
 62
     2
100
AcDbLine
 10
102.6
 20
108.0
 30
0.0
 11
102.6
 21
110.0
 31
0.0
  0
LINE
  5
2F1
330
1F
100
AcDbEntity
  8
エルボ
  6
CONTINUOUS
 62
     2
100
AcDbLine
 10
108.6
 20
85.0
 30
0.0
 11
108.6
 21
110.0
 31
0.0
  0
LINE
  5
2F2
330
1F
100
AcDbEntity
  8
エルボ
  6
CONTINUOUS
 62
     2
100
AcDbLine
 10
108.6
 20
110.0
 30
0.0
 11
102.6
 21
110.0
 31
0.0
  0
ARC
  5
2F3
330
1F
100
AcDbEntity
  8
エルボ
  6
CONTINUOUS
 62
     2
100
AcDbCircle
 10
160.4
 20
96.5
 30
0.0
 40
11.5
100
AcDbArc
 50
270.0
 51
346.9999999999956
  0
ARC
  5
2F4
330
1F
100
AcDbEntity
  8
エルボ
  6
CONTINUOUS
 62
     2
100
AcDbCircle
 10
160.4
 20
96.5
 30
0.0
 40
11.5
100
AcDbArc
 50
193.0000000000045
 51
270.0
  0
ARC
  5
2F5
330
1F
100
AcDbEntity
  8
エルボ
  6
EXLTYPE2
 62
     2
100
AcDbCircle
 10
160.4
 20
96.5
 30
0.0
 40
11.5
100
AcDbArc
 50
346.9999999999956
 51
193.0000000000045
  0
LINE
  5
2F6
330
1F
100
AcDbEntity
  8
エルボ
  6
CONTINUOUS
 62
     2
100
AcDbLine
 10
135.5
 20
96.5
 30
0.0
 11
146.9
 21
96.5
 31
0.0
  0
LINE
  5
2F7
330
1F
100
AcDbEntity
  8
エルボ
  6
CONTINUOUS
 62
     2
100
AcDbLine
 10
173.9
 20
96.50000000000001
 30
0.0
 11
175.2
 21
96.50000000000001
 31
0.0
  0
LINE
  5
2F8
330
1F
100
AcDbEntity
  8
エルボ
  6
CONTINUOUS
 62
     2
100
AcDbLine
 10
105.6
 20
213.9
 30
0.0
 11
82.46306817195358
 21
213.9
 31
0.0
  0
LINE
  5
2F9
330
1F
100
AcDbEntity
  8
エルボ
  6
CONTINUOUS
 62
     2
100
AcDbLine
 10
105.6
 20
177.5
 30
0.0
 11
105.6
 21
210.0
 31
0.0
  0
LINE
  5
2FA
330
1F
100
AcDbEntity
  8
エルボ
  6
CONTINUOUS
 62
     2
100
AcDbLine
 10
102.6
 20
188.9
 30
0.0
 11
102.6
 21
202.4
 31
0.0
  0
LINE
  5
2FB
330
1F
100
AcDbEntity
  8
エルボ
  6
CONTINUOUS
 62
     2
100
AcDbLine
 10
105.8948520446751
 20
91.67921168272
 30
0.0
 11
98.27482162486561
 21
91.67921168271997
 31
0.0
  0
LINE
  5
2FC
330
1F
100
AcDbEntity
  8
エルボ
  6
CONTINUOUS
 62
     2
100
AcDbLine
 10
105.6
 20
209.3
 30
0.0
 11
105.6
 21
215.9
 31
0.0
  0
LINE
  5
2FD
330
1F
100
AcDbEntity
  8
エルボ
  6
CONTINUOUS
 62
     2
100
AcDbLine
 10
108.6
 20
177.5
 30
0.0
 11
108.6
 21
215.9
 31
0.0
  0
LINE
  5
2FE
330
1F
100
AcDbEntity
  8
エルボ
  6
CONTINUOUS
 62
     2
100
AcDbLine
 10
59.91670290149111
 20
105.260800629806
 30
0.0
 11
59.85260430995703
 21
117.5026179819157
 31
0.0
  0
LINE
  5
2FF
330
1F
100
AcDbEntity
  8
エルボ
  6
CONTINUOUS
 62
     2
100
AcDbLine
 10
72.28363615120318
 20
105.3255543326349
 30
0.0
 11
72.34739569004367
 21
117.5026179819157
 31
0.0
  0
LINE
  5
300
330
1F
100
AcDbEntity
  8
エルボ
  6
CONTINUOUS
 62
     2
100
AcDbLine
 10
78.00000000000003
 20
128.3
 30
0.0
 11
85.10000000000001
 21
128.3
 31
0.0
  0
LINE
  5
301
330
1F
100
AcDbEntity
  8
エルボ
  6
CONTINUOUS
 62
     2
100
AcDbLine
 10
52.59911871131408
 20
106.4136276432642
 30
0.0
 11
67.80058352079578
 21
85.41362764326418
 31
0.0
  0
LINE
  5
302
330
1F
100
AcDbEntity
  8
エルボ
  6
CONTINUOUS
 62
     2
100
AcDbLine
 10
105.1
 20
84.99999999999997
 30
0.0
 11
68.61062516124157
 21
84.99999999999997
 31
0.0
  0
LINE
  5
303
330
1F
100
AcDbEntity
  8
エルボ
  6
CONTINUOUS
 62
     2
100
AcDbLine
 10
54.39999999999999
 20
136.3
 30
0.0
 11
53.10000000000042
 21
136.3
 31
0.0
  0
LINE
  5
304
330
1F
100
AcDbEntity
  8
エルボ
  6
CONTINUOUS
 62
     2
100
AcDbLine
 10
79.0999999999995
 20
136.3
 30
0.0
 11
77.80000000000001
 21
136.3
 31
0.0
  0
LINE
  5
305
330
1F
100
AcDbEntity
  8
エルボ
  6
CONTINUOUS
 62
     2
100
AcDbLine
 10
57.2472607744689
 20
151.0000000000001
 30
0.0
 11
55.1
 21
151.0000000000001
 31
0.0
  0
LINE
  5
306
330
1F
100
AcDbEntity
  8
エルボ
  6
CONTINUOUS
 62
     2
100
AcDbLine
 10
78.00000000000003
 20
150.1000000000007
 30
0.0
 11
78.00000000000003
 21
115.8
 31
0.0
  0
LINE
  5
307
330
1F
100
AcDbEntity
  8
エルボ
  6
CONTINUOUS
 62
     6
100
AcDbLine
 10
57.10000000000001
 20
108.0
 30
0.0
 11
57.10000000000001
 21
123.54987996019
 31
0.0
  0
LINE
  5
308
330
1F
100
AcDbEntity
  8
エルボ
  6
CONTINUOUS
 62
     2
100
AcDbLine
 10
75.00000000000001
 20
118.0
 30
0.0
 11
57.20000000000001
 21
118.0
 31
0.0
  0
LINE
  5
309
330
1F
100
AcDbEntity
  8
エルボ
  6
CONTINUOUS
 62
     6
100
AcDbLine
 10
75.10000000000001
 20
108.0
 30
0.0
 11
75.10000000000001
 21
123.54987996019
 31
0.0
  0
LINE
  5
30A
330
1F
100
AcDbEntity
  8
エルボ
  6
CONTINUOUS
 62
     6
100
AcDbLine
 10
75.00000000000001
 20
108.0
 30
0.0
 11
74.30000000000001
 21
108.0
 31
0.0
  0
LINE
  5
30B
330
1F
100
AcDbEntity
  8
エルボ
  6
CONTINUOUS
 62
     6
100
AcDbLine
 10
57.90000000000001
 20
108.0
 30
0.0
 11
57.20000000000001
 21
108.0
 31
0.0
  0
LINE
  5
30C
330
1F
100
AcDbEntity
  8
エルボ
  6
CONTINUOUS
 62
     6
100
AcDbLine
 10
57.90000000000001
 20
118.0
 30
0.0
 11
57.90000000000001
 21
108.0
 31
0.0
  0
LINE
  5
30D
330
1F
100
AcDbEntity
  8
エルボ
  6
CONTINUOUS
 62
     2
100
AcDbLine
 10
57.84999999999999
 20
111.32801246268
 30
0.0
 11
57.10000000000022
 21
108.0
 31
0.0
  0
LINE
  5
30E
330
1F
100
AcDbEntity
  8
エルボ
  6
CONTINUOUS
 62
     2
100
AcDbLine
 10
74.35000000000002
 20
111.3280124626799
 30
0.0
 11
75.09999999999978
 21
108.0
 31
0.0
  0
LINE
  5
30F
330
1F
100
AcDbEntity
  8
エルボ
  6
CONTINUOUS
 62
     6
100
AcDbLine
 10
74.30000000000001
 20
108.0
 30
0.0
 11
74.30000000000001
 21
118.0
 31
0.0
  0
LINE
  5
310
330
1F
100
AcDbEntity
  8
エルボ
  6
CONTINUOUS
 62
     3
100
AcDbLine
 10
77.10000000000001
 20
151.0
 30
0.0
 11
110.1
 21
151.0
 31
0.0
  0
LINE
  5
311
330
1F
100
AcDbEntity
  8
エルボ
  6
CONTINUOUS
 62
     2
100
AcDbLine
 10
77.100000000001
 20
151.0
 30
0.0
 11
74.95273922553174
 21
151.0
 31
0.0
  0
LINE
  5
312
330
1F
100
AcDbEntity
  8
エルボ
  6
CONTINUOUS
 62
     2
100
AcDbLine
 10
54.19999999999999
 20
115.8
 30
0.0
 11
46.84999999999999
 21
115.8
 31
0.0
  0
LINE
  5
313
330
1F
100
AcDbEntity
  8
エルボ
  6
CONTINUOUS
 62
     2
100
AcDbLine
 10
46.84999999999999
 20
118.8
 30
0.0
 11
54.19999999999999
 21
118.8
 31
0.0
  0
LINE
  5
314
330
1F
100
AcDbEntity
  8
エルボ
  6
CONTINUOUS
 62
     2
100
AcDbLine
 10
54.19999999999999
 20
128.0
 30
0.0
 11
47.09999999999999
 21
128.0
 31
0.0
  0
LINE
  5
315
330
1F
100
AcDbEntity
  8
エルボ
  6
CONTINUOUS
 62
     2
100
AcDbLine
 10
54.19999999999999
 20
128.3
 30
0.0
 11
46.09999999999999
 21
128.3
 31
0.0
  0
ARC
  5
316
330
1F
100
AcDbEntity
  8
エルボ
  6
CONTINUOUS
 62
     2
100
AcDbCircle
 10
66.0607359740098
 20
112.8243623913531
 30
0.0
 40
9.744568174982506
100
AcDbArc
 50
270.0
 51
270.2308639051994
  0
LINE
  5
317
330
1F
100
AcDbEntity
  8
エルボ
  6
CONTINUOUS
 62
     6
100
AcDbLine
 10
57.84999999999999
 20
123.54987996019
 30
0.0
 11
57.90000000000001
 21
123.54987996019
 31
0.0
  0
LINE
  5
318
330
1F
100
AcDbEntity
  8
エルボ
  6
CONTINUOUS
 62
     6
100
AcDbLine
 10
74.300000000001
 20
123.54987996019
 30
0.0
 11
74.35000000000002
 21
123.54987996019
 31
0.0
  0
LINE
  5
319
330
1F
100
AcDbEntity
  8
エルボ
  6
CONTINUOUS
 62
     2
100
AcDbLine
 10
101.2
 20
87.91454718724799
 30
0.0
 11
101.2
 21
88.7540333075856
 31
0.0
  0
LINE
  5
31A
330
1F
100
AcDbEntity
  8
エルボ
  6
EXLTYPE3
 62
     6
100
AcDbLine
 10
66.1
 20
179.8
 30
0.0
 11
66.1
 21
225.1
 31
0.0
  0
LINE
  5
31B
330
1F
100
AcDbEntity
  8
エルボ
  6
EXLTYPE3
 62
     6
100
AcDbLine
 10
43.3
 20
202.4
 30
0.0
 11
110.7
 21
202.4
 31
0.0
  0
LINE
  5
31C
330
1F
100
AcDbEntity
  8
エルボ
  6
EXLTYPE3
 62
     6
100
AcDbLine
 10
66.1
 20
82.1
 30
0.0
 11
66.1
 21
160.1
 31
0.0
  0
LINE
  5
31D
330
1F
100
AcDbEntity
  8
エルボ
  6
EXLTYPE3
 62
     6
100
AcDbLine
 10
160.4
 20
85.0
 30
0.0
 11
160.4
 21
82.5
 31
0.0
  0
LINE
  5
31E
330
1F
100
AcDbEntity
  8
エルボ
  6
EXLTYPE3
 62
     6
100
AcDbLine
 10
160.4
 20
156.7
 30
0.0
 11
160.4
 21
159.9
 31
0.0
  0
LINE
  5
31F
330
1F
100
AcDbEntity
  8
エルボ
  6
EXLTYPE3
 62
     6
100
AcDbLine
 10
120.2
 20
96.4999999999999
 30
0.0
 11
58.5
 21
96.5
 31
0.0
  0
TEXT
  5
320
330
1F
100
AcDbEntity
  8
エルボ
  6
CONTINUOUS
 62
     2
100
AcDbText
 10
123.4
 20
257.3
 30
0.0
 40
4.0
  1
合成ゴム
 41
1.03478260597457
  7
EXCADSTD
 72
     5
 11
136.9999999642372
 21
257.3
 31
0.0
100
AcDbText
  0
TEXT
  5
321
330
1F
100
AcDbEntity
  8
エルボ
  6
CONTINUOUS
 62
     2
100
AcDbText
 10
123.4
 20
243.8
 30
0.0
 40
4.0
  1
合成ゴム
 41
1.03478260597457
  7
EXCADSTD
 72
     5
 11
136.9999999642372
 21
243.8
 31
0.0
100
AcDbText
  0
TEXT
  5
322
330
1F
100
AcDbEntity
  8
エルボ
  6
CONTINUOUS
 62
     2
100
AcDbText
 10
123.4
 20
261.8
 30
0.0
 40
4.0
  1
合成樹脂
 41
1.03478260597457
  7
EXCADSTD
 72
     5
 11
136.9999999642372
 21
261.8
 31
0.0
100
AcDbText
  0
TEXT
  5
323
330
1F
100
AcDbEntity
  8
エルボ
  6
CONTINUOUS
 62
     2
100
AcDbText
 10
123.4
 20
248.3
 30
0.0
 40
4.0
  1
合成樹脂
 41
1.03478260597457
  7
EXCADSTD
 72
     5
 11
136.9999999642372
 21
248.3
 31
0.0
100
AcDbText
  0
TEXT
  5
324
330
1F
100
AcDbEntity
  8
エルボ
  6
CONTINUOUS
 62
     2
100
AcDbText
 10
158.4
 20
279.8
 30
0.0
 40
4.0
  1
クロムメッキ
 41
0.9999999970197677
  7
EXCADSTD
 72
     5
 11
178.3999999403954
 21
279.8
 31
0.0
100
AcDbText
  0
TEXT
  5
325
330
1F
100
AcDbEntity
  8
エルボ
  6
CONTINUOUS
 62
     2
100
AcDbText
 10
158.4
 20
266.3
 30
0.0
 40
4.0
  1
クロムメッキ
 41
0.9999999970197677
  7
EXCADSTD
 72
     5
 11
178.3999999403954
 21
266.3
 31
0.0
100
AcDbText
  0
TEXT
  5
326
330
1F
100
AcDbEntity
  8
エルボ
  6
CONTINUOUS
 62
     2
100
AcDbText
 10
158.4
 20
252.8
 30
0.0
 40
4.0
  1
クロムメッキ
 41
0.9999999970197677
  7
EXCADSTD
 72
     5
 11
178.3999999403954
 21
252.8
 31
0.0
100
AcDbText
  0
TEXT
  5
327
330
1F
100
AcDbEntity
  8
エルボ
  6
CONTINUOUS
 62
     2
100
AcDbText
 10
123.4
 20
266.3
 30
0.0
 40
4.0
  1
青銅
 41
1.049923634625293
  7
EXCADSTD
 72
     5
 11
129.9995199890733
 21
266.3
 31
0.0
100
AcDbText
  0
TEXT
  5
328
330
1F
100
AcDbEntity
  8
エルボ
  6
CONTINUOUS
 62
     2
100
AcDbText
 10
123.4
 20
252.8
 30
0.0
 40
4.0
  1
青銅
 41
1.049923634625293
  7
EXCADSTD
 72
     5
 11
129.9995199890733
 21
252.8
 31
0.0
100
AcDbText
  0
ENDSEC
  0
SECTION
  2
OBJECTS
  0
DICTIONARY
  5
C
330
0
100
AcDbDictionary
  3
ACAD_GROUP
350
D
  3
ACAD_LAYOUT
350
1A
  3
ACAD_MATERIAL
350
3B
  3
ACAD_MLEADERSTYLE
350
34B
  3
ACAD_MLINESTYLE
350
17
  3
ACAD_PLOTSETTINGS
350
19
  3
ACAD_VISUALSTYLE
350
2A
  3
ACDBHEADERROUNDTRIPXREC
350
329
  3
ACDBVARIABLEDICTIONARY
350
349
  0
DICTIONARY
  5
D
102
{ACAD_REACTORS
330
C
102
}
330
C
100
AcDbDictionary
  0
DICTIONARY
  5
1A
102
{ACAD_REACTORS
330
C
102
}
330
C
100
AcDbDictionary
  0
DICTIONARY
  5
3B
102
{ACAD_REACTORS
330
C
102
}
330
C
100
AcDbDictionary
  3
BYBLOCK
350
3D
  3
BYLAYER
350
3C
  3
GLOBAL
350
3E
  0
DICTIONARY
  5
34B
102
{ACAD_REACTORS
330
C
102
}
330
C
100
AcDbDictionary
  0
DICTIONARY
  5
17
102
{ACAD_REACTORS
330
C
102
}
330
C
100
AcDbDictionary
  3
STANDARD
350
18
  0
DICTIONARY
  5
19
102
{ACAD_REACTORS
330
C
102
}
330
C
100
AcDbDictionary
  0
DICTIONARY
  5
2A
102
{ACAD_REACTORS
330
C
102
}
330
C
100
AcDbDictionary
  3
2DWIREFRAME
350
2F
  3
3D_HIDDEN
350
31
  3
3DWIREFRAME
350
30
  3
BASIC
350
32
  3
BRIGHTEN
350
36
  3
COLORCHANGE
350
3A
  3
CONCEPTUAL
350
34
  3
DIM
350
35
  3
FACEPATTERN
350
39
  3
FLAT
350
2B
  3
FLATWITHEDGES
350
2C
  3
GOURAUD
350
2D
  3
GOURAUDWITHEDGES
350
2E
  3
LINEPATTERN
350
38
  3
REALISTIC
350
33
  3
THICKEN
350
37
  0
DICTIONARY
  5
329
102
{ACAD_REACTORS
330
C
102
}
330
C
100
AcDbDictionary
  3
CEPSNTYPE
350
332
  3
DIMSTYLEDATA
350
348
  3
FINGERPRINTGUID
350
333
  3
HYPERLINKBASE
350
32C
  3
INSUNITS
350
331
  3
LAYOUTDICT
350
32E
  3
LWETCUNION
350
330
  3
PLOTSETDICT
350
32F
  3
PSVPSCALE
350
335
  3
PUCSBASE
350
338
  3
PUCSORGBACK
350
33E
  3
PUCSORGBOTTOM
350
33A
  3
PUCSORGFRONT
350
33D
  3
PUCSORGLEFT
350
33B
  3
PUCSORGRIGHT
350
33C
  3
PUCSORGTOP
350
339
  3
PUCSORTHOREF
350
336
  3
PUCSORTHOVIEW
350
337
  3
STYLESHEET
350
32D
  3
TSTACKALIGN
350
32A
  3
TSTACKSIZE
350
32B
  3
UCSBASE
350
341
  3
UCSORGBACK
350
347
  3
UCSORGBOTTOM
350
343
  3
UCSORGFRONT
350
346
  3
UCSORGLEFT
350
344
  3
UCSORGRIGHT
350
345
  3
UCSORGTOP
350
342
  3
UCSORTHOREF
350
33F
  3
UCSORTHOVIEW
350
340
  3
VERSIONGUID
350
334
  0
DICTIONARY
  5
349
102
{ACAD_REACTORS
330
C
102
}
330
C
100
AcDbDictionary
  3
DIMASSOC
350
34E
  3
HIDETEXT
350
34F
  3
PSOLHEIGHT
350
34D
  3
PSOLWIDTH
350
34C
  0
MATERIAL
  5
3D
102
{ACAD_REACTORS
330
3B
102
}
102
{ACAD_XDICTIONARY
360
352
102
}
330
3B
100
AcDbMaterial
  1
ByBlock
  0
MATERIAL
  5
3C
102
{ACAD_REACTORS
330
3B
102
}
102
{ACAD_XDICTIONARY
360
350
102
}
330
3B
100
AcDbMaterial
  1
ByLayer
  0
MATERIAL
  5
3E
102
{ACAD_REACTORS
330
3B
102
}
102
{ACAD_XDICTIONARY
360
354
102
}
330
3B
100
AcDbMaterial
  1
Global
  0
MLINESTYLE
  5
18
102
{ACAD_REACTORS
330
17
102
}
330
17
100
AcDbMlineStyle
  2
Standard
 70
     0
  3

 62
   256
 51
90.0
 52
90.0
 71
     2
 49
0.5
 62
   256
  6
BYLAYER
 49
-0.5
 62
   256
  6
BYLAYER
  0
ACAD_PROXY_OBJECT
  5
2F
102
{ACAD_REACTORS
330
2A
102
}
330
2A
100
AcDbProxyObject
 90
      499
 91
      501
 93
      436
310
42CC9915DA5C99599C985B595049028333333333333E3BF0000000000000FB0107901411070040501600405405064090741402480A0340
1001
ACAD
1000
AcDbSavedByObjectVersion
1070
     0
  0
ACAD_PROXY_OBJECT
  5
31
102
{ACAD_REACTORS
330
2A
102
}
330
2A
100
AcDbProxyObject
 90
      499
 91
      501
 93
      500
310
424CD108121A5919195B90640502408333333333333E3BF0000000000000FB01079024090700405020000000000001110200405405064090740C02480A0340
1001
ACAD
1000
AcDbSavedByObjectVersion
1070
     0
  0
ACAD_PROXY_OBJECT
  5
30
102
{ACAD_REACTORS
330
2A
102
}
330
2A
100
AcDbProxyObject
 90
      499
 91
      501
 93
      436
310
42CCD915DA5C99599C985B595059028333333333333E3BF0000000000000FB0107901411070040501600405405064090741402480A0340
1001
ACAD
1000
AcDbSavedByObjectVersion
1070
     0
  0
ACAD_PROXY_OBJECT
  5
32
102
{ACAD_REACTORS
330
2A
102
}
330
2A
100
AcDbProxyObject
 90
      499
 91
      501
 93
      388
310
4150985CDA58D07406404333333333333E3BF0000000000000FB0107A41107004050150841D405064090741402480A0350
1001
ACAD
1000
AcDbSavedByObjectVersion
1070
     0
  0
ACAD_PROXY_OBJECT
  5
36
102
{ACAD_REACTORS
330
2A
102
}
330
2A
100
AcDbProxyObject
 90
      499
 91
      501
 93
      428
310
42109C9A59DA1D195B90C409028333333333333E3BF0000000000000FB010790141107004050150841D405064090741402480A029950
1001
ACAD
1000
AcDbSavedByObjectVersion
1070
     0
  0
ACAD_PROXY_OBJECT
  5
3A
102
{ACAD_REACTORS
330
2A
102
}
330
2A
100
AcDbProxyObject
 90
      499
 91
      501
 93
      452
310
42D0DBDB1BDC90DA185B99D95104090240C333333333333E3BF0000000000000FB0108901411070040501508421405064090741402480A0350
1001
ACAD
1000
AcDbSavedByObjectVersion
1070
     0
  0
ACAD_PROXY_OBJECT
  5
34
102
{ACAD_REACTORS
330
2A
102
}
330
2A
100
AcDbProxyObject
 90
      499
 91
      501
 93
      500
310
4290DBDB98D95C1D1D585B10940D028333333333333E3BF0000000000000FB0107902409070040501000000000000111010841D405064090740C02480A0340
1001
ACAD
1000
AcDbSavedByObjectVersion
1070
     0
  0
ACAD_PROXY_OBJECT
  5
35
102
{ACAD_REACTORS
330
2A
102
}
330
2A
100
AcDbProxyObject
 90
      499
 91
      501
 93
      412
310
40D11A5B50B409028333333333333E3BF0000000000000FB010790141107004050150841D405064090741402480A02677FFFFFD0
1001
ACAD
1000
AcDbSavedByObjectVersion
1070
     0
  0
ACAD_PROXY_OBJECT
  5
39
102
{ACAD_REACTORS
330
2A
102
}
330
2A
100
AcDbProxyObject
 90
      499
 91
      501
 93
      444
310
42D19858D95C185D1D195C9B90F409028333333333333E3BF0000000000000FB010790141107004050150841D405064090741402480A0350
1001
ACAD
1000
AcDbSavedByObjectVersion
1070
     0
  0
ACAD_PROXY_OBJECT
  5
2B
102
{ACAD_REACTORS
330
2A
102
}
330
2A
100
AcDbProxyObject
 90
      499
 91
      501
 93
      388
310
41119B185D240901404333333333333E3BF0000000000000F9010740A41107004050150841D405064090741402480A1B50
1001
ACAD
1000
AcDbSavedByObjectVersion
1070
     0
  0
ACAD_PROXY_OBJECT
  5
2C
102
{ACAD_REACTORS
330
2A
102
}
330
2A
100
AcDbProxyObject
 90
      499
 91
      501
 93
      476
310
43519B185D15DA5D1A115919D95CD0140901404333333333333E3BF0000000000000F9010740901411070040501600405405064090741402480A1B50
1001
ACAD
1000
AcDbSavedByObjectVersion
1070
     0
  0
ACAD_PROXY_OBJECT
  5
2D
102
{ACAD_REACTORS
330
2A
102
}
330
2A
100
AcDbProxyObject
 90
      499
 91
      501
 93
      412
310
41D1DBDD5C985D5910240902404333333333333E3BF0000000000000F9010740A411070040501641D405064090741402480A1B50
1001
ACAD
1000
AcDbSavedByObjectVersion
1070
     0
  0
ACAD_PROXY_OBJECT
  5
2E
102
{ACAD_REACTORS
330
2A
102
}
330
2A
100
AcDbProxyObject
 90
      499
 91
      501
 93
      500
310
4411DBDD5C985D5915DA5D1A115919D95CD0340902404333333333333E3BF0000000000000F9010740901411070040501600405405064090741402480A1B50
1001
ACAD
1000
AcDbSavedByObjectVersion
1070
     0
  0
ACAD_PROXY_OBJECT
  5
38
102
{ACAD_REACTORS
330
2A
102
}
330
2A
100
AcDbProxyObject
 90
      499
 91
      501
 93
      444
310
42D31A5B995C185D1D195C9B90E409028333333333333E3BF0000000000000FB010790141107004050750841D405064090741402483A0350
1001
ACAD
1000
AcDbSavedByObjectVersion
1070
     0
  0
ACAD_PROXY_OBJECT
  5
33
102
{ACAD_REACTORS
330
2A
102
}
330
2A
100
AcDbProxyObject
 90
      499
 91
      501
 93
      420
310
425499585B1A5CDD1A58D08409028333333333333E3BF0000000000000FB01079019070040501508421405064090741402480A1B40
1001
ACAD
1000
AcDbSavedByObjectVersion
1070
     0
  0
ACAD_PROXY_OBJECT
  5
37
102
{ACAD_REACTORS
330
2A
102
}
330
2A
100
AcDbProxyObject
 90
      499
 91
      501
 93
      412
310
41D51A1A58DAD95B90D409028333333333333E3BF0000000000000FB010790141107004050150C41D405064090741402480A0350
1001
ACAD
1000
AcDbSavedByObjectVersion
1070
     0
  0
XRECORD
  5
332
102
{ACAD_REACTORS
330
329
102
}
330
329
100
AcDbXrecord
 90
        0
  0
XRECORD
  5
348
102
{ACAD_REACTORS
330
329
102
}
330
329
100
AcDbXrecord
1000
DSTYLE
1002
{
1070
   340
340
11
1002
}
  0
XRECORD
  5
333
102
{ACAD_REACTORS
330
329
102
}
330
329
100
AcDbXrecord
  1
{97193E6B-0F6B-4B22-A759-3DF3E6CFFEB7}
  0
XRECORD
  5
32C
102
{ACAD_REACTORS
330
329
102
}
330
329
100
AcDbXrecord
  1

  0
XRECORD
  5
331
102
{ACAD_REACTORS
330
329
102
}
330
329
100
AcDbXrecord
 90
        4
  0
XRECORD
  5
32E
102
{ACAD_REACTORS
330
329
102
}
330
329
100
AcDbXrecord
340
1A
  0
XRECORD
  5
330
102
{ACAD_REACTORS
330
329
102
}
330
329
100
AcDbXrecord
 90
    10781
  0
XRECORD
  5
32F
102
{ACAD_REACTORS
330
329
102
}
330
329
100
AcDbXrecord
340
19
  0
XRECORD
  5
335
102
{ACAD_REACTORS
330
329
102
}
330
329
100
AcDbXrecord
 40
0.0
  0
XRECORD
  5
338
102
{ACAD_REACTORS
330
329
102
}
330
329
100
AcDbXrecord
340
0
  0
XRECORD
  5
33E
102
{ACAD_REACTORS
330
329
102
}
330
329
100
AcDbXrecord
 10
0.0
 20
0.0
 30
0.0
  0
XRECORD
  5
33A
102
{ACAD_REACTORS
330
329
102
}
330
329
100
AcDbXrecord
 10
0.0
 20
0.0
 30
0.0
  0
XRECORD
  5
33D
102
{ACAD_REACTORS
330
329
102
}
330
329
100
AcDbXrecord
 10
0.0
 20
0.0
 30
0.0
  0
XRECORD
  5
33B
102
{ACAD_REACTORS
330
329
102
}
330
329
100
AcDbXrecord
 10
0.0
 20
0.0
 30
0.0
  0
XRECORD
  5
33C
102
{ACAD_REACTORS
330
329
102
}
330
329
100
AcDbXrecord
 10
0.0
 20
0.0
 30
0.0
  0
XRECORD
  5
339
102
{ACAD_REACTORS
330
329
102
}
330
329
100
AcDbXrecord
 10
0.0
 20
0.0
 30
0.0
  0
XRECORD
  5
336
102
{ACAD_REACTORS
330
329
102
}
330
329
100
AcDbXrecord
340
0
  0
XRECORD
  5
337
102
{ACAD_REACTORS
330
329
102
}
330
329
100
AcDbXrecord
 70
     0
  0
XRECORD
  5
32D
102
{ACAD_REACTORS
330
329
102
}
330
329
100
AcDbXrecord
  1

  0
XRECORD
  5
32A
102
{ACAD_REACTORS
330
329
102
}
330
329
100
AcDbXrecord
 90
        1
  0
XRECORD
  5
32B
102
{ACAD_REACTORS
330
329
102
}
330
329
100
AcDbXrecord
 90
       70
  0
XRECORD
  5
341
102
{ACAD_REACTORS
330
329
102
}
330
329
100
AcDbXrecord
340
0
  0
XRECORD
  5
347
102
{ACAD_REACTORS
330
329
102
}
330
329
100
AcDbXrecord
 10
0.0
 20
0.0
 30
0.0
  0
XRECORD
  5
343
102
{ACAD_REACTORS
330
329
102
}
330
329
100
AcDbXrecord
 10
0.0
 20
0.0
 30
0.0
  0
XRECORD
  5
346
102
{ACAD_REACTORS
330
329
102
}
330
329
100
AcDbXrecord
 10
0.0
 20
0.0
 30
0.0
  0
XRECORD
  5
344
102
{ACAD_REACTORS
330
329
102
}
330
329
100
AcDbXrecord
 10
0.0
 20
0.0
 30
0.0
  0
XRECORD
  5
345
102
{ACAD_REACTORS
330
329
102
}
330
329
100
AcDbXrecord
 10
0.0
 20
0.0
 30
0.0
  0
XRECORD
  5
342
102
{ACAD_REACTORS
330
329
102
}
330
329
100
AcDbXrecord
 10
0.0
 20
0.0
 30
0.0
  0
XRECORD
  5
33F
102
{ACAD_REACTORS
330
329
102
}
330
329
100
AcDbXrecord
340
0
  0
XRECORD
  5
340
102
{ACAD_REACTORS
330
329
102
}
330
329
100
AcDbXrecord
 70
     0
  0
XRECORD
  5
334
102
{ACAD_REACTORS
330
329
102
}
330
329
100
AcDbXrecord
  1
{FAEB1C32-E019-11D5-929B-00C0DF256EC4}
  0
DICTIONARYVAR
  5
34E
102
{ACAD_REACTORS
330
349
102
}
330
349
100
DictionaryVariables
280
     0
  1
2
  0
DICTIONARYVAR
  5
34F
102
{ACAD_REACTORS
330
349
102
}
330
349
100
DictionaryVariables
280
     0
  1
1
  0
DICTIONARYVAR
  5
34D
102
{ACAD_REACTORS
330
349
102
}
330
349
100
DictionaryVariables
280
     0
  1
80.000000
  0
DICTIONARYVAR
  5
34C
102
{ACAD_REACTORS
330
349
102
}
330
349
100
DictionaryVariables
280
     0
  1
5.000000
  0
DICTIONARY
  5
352
330
3D
100
AcDbDictionary
280
     1
  3
ACAD_XREC_ROUNDTRIP
360
353
  0
DICTIONARY
  5
350
330
3C
100
AcDbDictionary
280
     1
  3
ACAD_XREC_ROUNDTRIP
360
351
  0
DICTIONARY
  5
354
330
3E
100
AcDbDictionary
280
     1
  3
ACAD_XREC_ROUNDTRIP
360
355
  0
XRECORD
  5
353
102
{ACAD_REACTORS
330
352
102
}
330
352
100
AcDbXrecord
102
MATERIAL
148
0.0
149
0.0
149
0.0
 93
        0
 94
      127
282
     0
 72
     1
 77
     1
171
     1
175
     1
179
     1
273
     0
  0
XRECORD
  5
351
102
{ACAD_REACTORS
330
350
102
}
330
350
100
AcDbXrecord
102
MATERIAL
148
0.0
149
0.0
149
0.0
 93
        0
 94
      127
282
     0
 72
     1
 77
     1
171
     1
175
     1
179
     1
273
     0
  0
XRECORD
  5
355
102
{ACAD_REACTORS
330
354
102
}
330
354
100
AcDbXrecord
102
MATERIAL
148
0.0
149
0.0
149
0.0
 93
        0
 94
      127
282
     0
 72
     1
 77
     1
171
     1
175
     1
179
     1
273
     0
  0
ENDSEC
  0
EOF
