  0
SECTION
  2
HEADER
  9
$ACADVER
  1
AC1014
  9
$ACADMAINTVER
 70
     9
  9
$DWGCODEPAGE
  3
ANSI_932
  9
$INSBASE
 10
0.0
 20
0.0
 30
0.0
  9
$EXTMIN
 10
0.4000000000000097
 20
9.849999999999994
 30
0.0
  9
$EXTMAX
 10
202.0
 20
289.85
 30
0.0
  9
$LIMMIN
 10
0.0
 20
0.0
  9
$LIMMAX
 10
210.0
 20
297.0
  9
$ORTHOMODE
 70
     0
  9
$REGENMODE
 70
     1
  9
$FILLMODE
 70
     1
  9
$QTEXTMODE
 70
     0
  9
$MIRRTEXT
 70
     1
  9
$DRAGMODE
 70
     2
  9
$LTSCALE
 40
1.0
  9
$OSMODE
 70
    37
  9
$ATTMODE
 70
     1
  9
$TEXTSIZE
 40
2.5
  9
$TRACEWID
 40
1.0
  9
$TEXTSTYLE
  7
STANDARD
  9
$CLAYER
  8
図_寸法
  9
$CELTYPE
  6
BYLAYER
  9
$CECOLOR
 62
   256
  9
$CELTSCALE
 40
1.0
  9
$DELOBJ
 70
     1
  9
$DISPSILH
 70
     0
  9
$DIMSCALE
 40
1.0
  9
$DIMASZ
 40
2.5
  9
$DIMEXO
 40
0.625
  9
$DIMDLI
 40
3.75
  9
$DIMRND
 40
0.0
  9
$DIMDLE
 40
0.0
  9
$DIMEXE
 40
1.25
  9
$DIMTP
 40
0.0
  9
$DIMTM
 40
0.0
  9
$DIMTXT
 40
2.5
  9
$DIMCEN
 40
2.5
  9
$DIMTSZ
 40
0.0
  9
$DIMTOL
 70
     0
  9
$DIMLIM
 70
     0
  9
$DIMTIH
 70
     0
  9
$DIMTOH
 70
     0
  9
$DIMSE1
 70
     0
  9
$DIMSE2
 70
     0
  9
$DIMTAD
 70
     1
  9
$DIMZIN
 70
     8
  9
$DIMBLK
  1

  9
$DIMASO
 70
     1
  9
$DIMSHO
 70
     1
  9
$DIMPOST
  1

  9
$DIMAPOST
  1

  9
$DIMALT
 70
     0
  9
$DIMALTD
 70
     3
  9
$DIMALTF
 40
0.03937007874016
  9
$DIMLFAC
 40
1.0
  9
$DIMTOFL
 70
     1
  9
$DIMTVP
 40
0.0
  9
$DIMTIX
 70
     0
  9
$DIMSOXD
 70
     0
  9
$DIMSAH
 70
     0
  9
$DIMBLK1
  1

  9
$DIMBLK2
  1

  9
$DIMSTYLE
  2
ISO-25
  9
$DIMCLRD
 70
     0
  9
$DIMCLRE
 70
     0
  9
$DIMCLRT
 70
     0
  9
$DIMTFAC
 40
1.0
  9
$DIMGAP
 40
0.625
  9
$DIMJUST
 70
     0
  9
$DIMSD1
 70
     0
  9
$DIMSD2
 70
     0
  9
$DIMTOLJ
 70
     0
  9
$DIMTZIN
 70
     8
  9
$DIMALTZ
 70
     0
  9
$DIMALTTZ
 70
     0
  9
$DIMFIT
 70
     3
  9
$DIMUPT
 70
     0
  9
$DIMUNIT
 70
     2
  9
$DIMDEC
 70
     2
  9
$DIMTDEC
 70
     2
  9
$DIMALTU
 70
     2
  9
$DIMALTTD
 70
     3
  9
$DIMTXSTY
  7
STANDARD
  9
$DIMAUNIT
 70
     0
  9
$LUNITS
 70
     2
  9
$LUPREC
 70
     4
  9
$SKETCHINC
 40
1.0
  9
$FILLETRAD
 40
10.0
  9
$AUNITS
 70
     0
  9
$AUPREC
 70
     0
  9
$MENU
  1
.
  9
$ELEVATION
 40
0.0
  9
$PELEVATION
 40
0.0
  9
$THICKNESS
 40
0.0
  9
$LIMCHECK
 70
     0
  9
$CHAMFERA
 40
10.0
  9
$CHAMFERB
 40
10.0
  9
$CHAMFERC
 40
20.0
  9
$CHAMFERD
 40
0.0
  9
$SKPOLY
 70
     0
  9
$TDCREATE
 40
2460368.448911319
  9
$TDUPDATE
 40
2460368.448911435
  9
$TDINDWG
 40
0.0000000116
  9
$TDUSRTIMER
 40
0.0000000116
  9
$USRTIMER
 70
     1
  9
$ANGBASE
 50
0.0
  9
$ANGDIR
 70
     0
  9
$PDMODE
 70
     0
  9
$PDSIZE
 40
0.0
  9
$PLINEWID
 40
0.0
  9
$COORDS
 70
     1
  9
$SPLFRAME
 70
     0
  9
$SPLINETYPE
 70
     6
  9
$SPLINESEGS
 70
     8
  9
$ATTDIA
 70
     0
  9
$ATTREQ
 70
     1
  9
$HANDLING
 70
     1
  9
$HANDSEED
  5
356
  9
$SURFTAB1
 70
     6
  9
$SURFTAB2
 70
     6
  9
$SURFTYPE
 70
     6
  9
$SURFU
 70
     6
  9
$SURFV
 70
     6
  9
$UCSNAME
  2

  9
$UCSORG
 10
0.0
 20
0.0
 30
0.0
  9
$UCSXDIR
 10
1.0
 20
0.0
 30
0.0
  9
$UCSYDIR
 10
0.0
 20
1.0
 30
0.0
  9
$PUCSNAME
  2

  9
$PUCSORG
 10
0.0
 20
0.0
 30
0.0
  9
$PUCSXDIR
 10
1.0
 20
0.0
 30
0.0
  9
$PUCSYDIR
 10
0.0
 20
1.0
 30
0.0
  9
$USERI1
 70
     0
  9
$USERI2
 70
     0
  9
$USERI3
 70
     0
  9
$USERI4
 70
     0
  9
$USERI5
 70
     0
  9
$USERR1
 40
0.0
  9
$USERR2
 40
0.0
  9
$USERR3
 40
0.0
  9
$USERR4
 40
0.0
  9
$USERR5
 40
0.0
  9
$WORLDVIEW
 70
     1
  9
$SHADEDGE
 70
     3
  9
$SHADEDIF
 70
    70
  9
$TILEMODE
 70
     1
  9
$MAXACTVP
 70
    64
  9
$PINSBASE
 10
0.0
 20
0.0
 30
0.0
  9
$PLIMCHECK
 70
     0
  9
$PEXTMIN
 10
1.000000000000000E+20
 20
1.000000000000000E+20
 30
1.000000000000000E+20
  9
$PEXTMAX
 10
-1.000000000000000E+20
 20
-1.000000000000000E+20
 30
-1.000000000000000E+20
  9
$PLIMMIN
 10
0.0
 20
0.0
  9
$PLIMMAX
 10
420.0
 20
297.0
  9
$UNITMODE
 70
     0
  9
$VISRETAIN
 70
     1
  9
$PLINEGEN
 70
     0
  9
$PSLTSCALE
 70
     1
  9
$TREEDEPTH
 70
  3020
  9
$PICKSTYLE
 70
     1
  9
$CMLSTYLE
  2
STANDARD
  9
$CMLJUST
 70
     0
  9
$CMLSCALE
 40
20.0
  9
$PROXYGRAPHICS
 70
     1
  9
$MEASUREMENT
 70
     1
  0
ENDSEC
  0
SECTION
  2
CLASSES
  0
CLASS
  1
ACDBDICTIONARYWDFLT
  2
AcDbDictionaryWithDefault
  3
ObjectDBX Classes
 90
        0
280
     0
281
     0
  0
CLASS
  1
VISUALSTYLE
  2
AcDbVisualStyle
  3
ObjectDBX Classes
 90
     4095
280
     0
281
     0
  0
CLASS
  1
MATERIAL
  2
AcDbMaterial
  3
ObjectDBX Classes
 90
     1153
280
     0
281
     0
  0
CLASS
  1
SUN
  2
AcDbSun
  3
SCENEOE
 90
     1024
280
     0
281
     0
  0
CLASS
  1
DICTIONARYVAR
  2
AcDbDictionaryVar
  3
ObjectDBX Classes
 90
        0
280
     0
281
     0
  0
CLASS
  1
XRECORD
  2
AcDbXrecord
  3
AutoCAD 2000
 90
        0
280
     0
281
     0
  0
CLASS
  1
LWPOLYLINE
  2
AcDbPolyline
  3
AutoCAD 2000
 90
        0
280
     0
281
     1
  0
CLASS
  1
HATCH
  2
AcDbHatch
  3
AutoCAD 2000
 90
        0
280
     0
281
     1
  0
CLASS
  1
ACDBPLACEHOLDER
  2
AcDbPlaceHolder
  3
ObjectDBX Classes
 90
        0
280
     0
281
     0
  0
CLASS
  1
LAYOUT
  2
AcDbLayout
  3
ObjectDBX Classes
 90
        0
280
     0
281
     0
  0
ENDSEC
  0
SECTION
  2
TABLES
  0
TABLE
  2
VPORT
  5
8
330
0
100
AcDbSymbolTable
 70
     1
  0
VPORT
  5
29
330
8
100
AcDbSymbolTableRecord
100
AcDbViewportTableRecord
  2
*ACTIVE
 70
     0
 10
0.0
 20
0.0
 11
1.0
 21
1.0
 12
202.4
 22
299.7
 13
0.0
 23
0.0
 14
10.0
 24
10.0
 15
10.0
 25
10.0
 16
0.0
 26
0.0
 36
1.0
 17
0.0
 27
0.0
 37
0.0
 40
560.0
 41
0.7200000000000001
 42
50.0
 43
0.0
 44
0.0
 50
0.0
 51
0.0
 71
     0
 72
  1000
 73
     1
 74
     3
 75
     0
 76
     0
 77
     0
 78
     0
  0
ENDTAB
  0
TABLE
  2
LTYPE
  5
5
330
0
100
AcDbSymbolTable
 70
     7
  0
LTYPE
  5
14
330
5
100
AcDbSymbolTableRecord
100
AcDbLinetypeTableRecord
  2
BYBLOCK
 70
     0
  3

 72
    65
 73
     0
 40
0.0
  0
LTYPE
  5
15
330
5
100
AcDbSymbolTableRecord
100
AcDbLinetypeTableRecord
  2
BYLAYER
 70
     0
  3

 72
    65
 73
     0
 40
0.0
  0
LTYPE
  5
16
330
5
100
AcDbSymbolTableRecord
100
AcDbLinetypeTableRecord
  2
CONTINUOUS
 70
     0
  3
Solid line
 72
    65
 73
     0
 40
0.0
  0
LTYPE
  5
40
330
5
100
AcDbSymbolTableRecord
100
AcDbLinetypeTableRecord
  2
EXLTYPE1
 70
     0
  3
破線
 72
    65
 73
     2
 40
3.0
 49
2.0
 74
     0
 49
-1.0
 74
     0
  0
LTYPE
  5
41
330
5
100
AcDbSymbolTableRecord
100
AcDbLinetypeTableRecord
  2
EXLTYPE2
 70
     0
  3
点線
 72
    65
 73
     2
 40
2.0
 49
1.0
 74
     0
 49
-1.0
 74
     0
  0
LTYPE
  5
42
330
5
100
AcDbSymbolTableRecord
100
AcDbLinetypeTableRecord
  2
EXLTYPE3
 70
     0
  3
一点鎖線
 72
    65
 73
     4
 40
10.0
 49
7.0
 74
     0
 49
-1.0
 74
     0
 49
1.0
 74
     0
 49
-1.0
 74
     0
  0
LTYPE
  5
43
330
5
100
AcDbSymbolTableRecord
100
AcDbLinetypeTableRecord
  2
EXLTYPE4
 70
     0
  3
二点鎖線
 72
    65
 73
     6
 40
12.0
 49
7.0
 74
     0
 49
-1.0
 74
     0
 49
1.0
 74
     0
 49
-1.0
 74
     0
 49
1.0
 74
     0
 49
-1.0
 74
     0
  0
LTYPE
  5
44
330
5
100
AcDbSymbolTableRecord
100
AcDbLinetypeTableRecord
  2
EXLTYPE5
 70
     0
  3
三点鎖線
 72
    65
 73
     8
 40
37.0
 49
30.0
 74
     0
 49
-1.0
 74
     0
 49
1.0
 74
     0
 49
-1.0
 74
     0
 49
1.0
 74
     0
 49
-1.0
 74
     0
 49
1.0
 74
     0
 49
-1.0
 74
     0
  0
LTYPE
  5
45
330
5
100
AcDbSymbolTableRecord
100
AcDbLinetypeTableRecord
  2
EXLTYPE6
 70
     0
  3
四点鎖線
 72
    65
 73
    10
 40
39.0
 49
30.0
 74
     0
 49
-1.0
 74
     0
 49
1.0
 74
     0
 49
-1.0
 74
     0
 49
1.0
 74
     0
 49
-1.0
 74
     0
 49
1.0
 74
     0
 49
-1.0
 74
     0
 49
1.0
 74
     0
 49
-1.0
 74
     0
  0
ENDTAB
  0
TABLE
  2
LAYER
  5
2
330
0
100
AcDbSymbolTable
 70
     4
  0
LAYER
  5
10
330
2
100
AcDbSymbolTableRecord
100
AcDbLayerTableRecord
  2
0
 70
     0
 62
     7
  6
CONTINUOUS
  0
LAYER
  5
48
330
2
100
AcDbSymbolTableRecord
100
AcDbLayerTableRecord
  2
枠
 70
     0
 62
     7
  6
CONTINUOUS
  0
LAYER
  5
49
330
2
100
AcDbSymbolTableRecord
100
AcDbLayerTableRecord
  2
図_寸法
 70
     0
 62
     7
  6
CONTINUOUS
  0
LAYER
  5
189
330
2
100
AcDbSymbolTableRecord
100
AcDbLayerTableRecord
  2
DEFPOINTS
 70
     0
 62
     7
  6
CONTINUOUS
  0
ENDTAB
  0
TABLE
  2
STYLE
  5
3
330
0
100
AcDbSymbolTable
 70
     5
  0
STYLE
  5
11
330
3
100
AcDbSymbolTableRecord
100
AcDbTextStyleTableRecord
  2
STANDARD
 70
     0
 40
0.0
 41
1.0
 50
0.0
 71
     0
 42
2.5
  3
monotxt
  4
extfont
  0
STYLE
  5
46
330
3
100
AcDbSymbolTableRecord
100
AcDbTextStyleTableRecord
  2
EXCADSTD
 70
     0
 40
0.0
 41
1.0
 50
0.0
 71
     0
 42
0.2
  3
monotxt
  4
extfont
  0
STYLE
  5
47
330
3
100
AcDbSymbolTableRecord
100
AcDbTextStyleTableRecord
  2
EXCADVERT
 70
     4
 40
0.0
 41
1.0
 50
0.0
 71
     0
 42
0.286885
  3
monotxt
  4
extfont
  0
STYLE
  5
A9
330
3
100
AcDbSymbolTableRecord
100
AcDbTextStyleTableRecord
  2
EXCADTTF1
 70
     0
 40
0.0
 41
1.0
 50
0.0
 71
     0
 42
0.2
  3
MSGOTHIC.TTC
  4

1001
ACAD
1000
MS Gothic
1071
    32817
  0
STYLE
  5
187
330
3
100
AcDbSymbolTableRecord
100
AcDbTextStyleTableRecord
  2
EXCADDIM1
 70
     0
 40
0.0
 41
0.84
 50
0.0
 71
     0
 42
0.2
  3
monotxt
  4
extfont
  0
ENDTAB
  0
TABLE
  2
VIEW
  5
6
330
0
100
AcDbSymbolTable
 70
     0
  0
ENDTAB
  0
TABLE
  2
UCS
  5
7
330
0
100
AcDbSymbolTable
 70
     0
  0
ENDTAB
  0
TABLE
  2
APPID
  5
9
330
0
100
AcDbSymbolTable
 70
     1
  0
APPID
  5
12
330
9
100
AcDbSymbolTableRecord
100
AcDbRegAppTableRecord
  2
ACAD
 70
     0
  0
ENDTAB
  0
TABLE
  2
DIMSTYLE
  5
A
330
0
100
AcDbSymbolTable
 70
     1
  0
DIMSTYLE
105
27
102
{ACAD_REACTORS
330
188
330
196
330
1A1
330
1AD
102
}
330
A
100
AcDbSymbolTableRecord
100
AcDbDimStyleTableRecord
  2
ISO-25
 70
     0
  3

  4

  5

  6

  7

 40
1.0
 41
2.5
 42
0.625
 43
3.75
 44
1.25
 45
0.0
 46
0.0
 47
0.0
 48
0.0
140
2.5
141
2.5
142
0.0
143
0.03937007874016
144
1.0
145
0.0
146
1.0
147
0.625
 71
     0
 72
     0
 73
     0
 74
     0
 75
     0
 76
     0
 77
     1
 78
     8
170
     0
171
     3
172
     1
173
     0
174
     0
175
     0
176
     0
177
     0
178
     0
270
     2
271
     2
272
     2
273
     2
274
     3
340
11
275
     0
280
     0
281
     0
282
     0
283
     0
284
     8
285
     0
286
     0
287
     5
288
     0
  0
ENDTAB
  0
TABLE
  2
BLOCK_RECORD
  5
1
330
0
100
AcDbSymbolTable
 70
    19
  0
BLOCK_RECORD
  5
1F
330
1
100
AcDbSymbolTableRecord
100
AcDbBlockTableRecord
  2
*MODEL_SPACE
  0
BLOCK_RECORD
  5
1B
330
1
100
AcDbSymbolTableRecord
100
AcDbBlockTableRecord
  2
*PAPER_SPACE
  0
BLOCK_RECORD
  5
4A
330
1
100
AcDbSymbolTableRecord
100
AcDbBlockTableRecord
  2
EX_NORM
  0
BLOCK_RECORD
  5
4D
330
1
100
AcDbSymbolTableRecord
100
AcDbBlockTableRecord
  2
EX_BNORM
  0
BLOCK_RECORD
  5
50
330
1
100
AcDbSymbolTableRecord
100
AcDbBlockTableRecord
  2
EX_BCIR
  0
BLOCK_RECORD
  5
53
330
1
100
AcDbSymbolTableRecord
100
AcDbBlockTableRecord
  2
EX_RCIVIL
  0
BLOCK_RECORD
  5
56
330
1
100
AcDbSymbolTableRecord
100
AcDbBlockTableRecord
  2
EX_SLANT
  0
BLOCK_RECORD
  5
59
330
1
100
AcDbSymbolTableRecord
100
AcDbBlockTableRecord
  2
EX_NONE
  0
BLOCK_RECORD
  5
5C
330
1
100
AcDbSymbolTableRecord
100
AcDbBlockTableRecord
  2
EX_CIVIL
  0
BLOCK_RECORD
  5
5F
330
1
100
AcDbSymbolTableRecord
100
AcDbBlockTableRecord
  2
EX_WCIR
  0
BLOCK_RECORD
  5
62
330
1
100
AcDbSymbolTableRecord
100
AcDbBlockTableRecord
  2
EX_WCIR2
  0
BLOCK_RECORD
  5
65
330
1
100
AcDbSymbolTableRecord
100
AcDbBlockTableRecord
  2
EX_WNORM
  0
BLOCK_RECORD
  5
68
330
1
100
AcDbSymbolTableRecord
100
AcDbBlockTableRecord
  2
EX_NNORM
  0
BLOCK_RECORD
  5
6B
330
1
100
AcDbSymbolTableRecord
100
AcDbBlockTableRecord
  2
EX_BBOX
  0
BLOCK_RECORD
  5
6E
330
1
100
AcDbSymbolTableRecord
100
AcDbBlockTableRecord
  2
EX_WBOX
  0
BLOCK_RECORD
  5
71
330
1
100
AcDbSymbolTableRecord
100
AcDbBlockTableRecord
  2
EX_INTEGRAL
  0
BLOCK_RECORD
  5
18A
330
1
100
AcDbSymbolTableRecord
100
AcDbBlockTableRecord
  2
*D15
  0
BLOCK_RECORD
  5
197
330
1
100
AcDbSymbolTableRecord
100
AcDbBlockTableRecord
  2
*D16
  0
BLOCK_RECORD
  5
1A2
330
1
100
AcDbSymbolTableRecord
100
AcDbBlockTableRecord
  2
*D17
  0
BLOCK_RECORD
  5
1AE
330
1
100
AcDbSymbolTableRecord
100
AcDbBlockTableRecord
  2
*D18
  0
ENDTAB
  0
ENDSEC
  0
SECTION
  2
BLOCKS
  0
BLOCK
  5
20
330
1F
100
AcDbEntity
  8
0
100
AcDbBlockBegin
  2
*MODEL_SPACE
 70
     0
 10
0.0
 20
0.0
 30
0.0
  3
*MODEL_SPACE
  1

  0
ENDBLK
  5
21
330
1F
100
AcDbEntity
  8
0
100
AcDbBlockEnd
  0
BLOCK
  5
1C
330
1B
100
AcDbEntity
 67
     1
  8
0
100
AcDbBlockBegin
  2
*PAPER_SPACE
 70
     0
 10
0.0
 20
0.0
 30
0.0
  3
*PAPER_SPACE
  1

  0
ENDBLK
  5
1D
330
1B
100
AcDbEntity
 67
     1
  8
0
100
AcDbBlockEnd
  0
BLOCK
  5
4B
330
4A
100
AcDbEntity
  8
0
100
AcDbBlockBegin
  2
EX_NORM
 70
     0
 10
0.0
 20
0.0
 30
0.0
  3
EX_NORM
  1

  0
LINE
  5
74
330
4A
100
AcDbEntity
  8
0
  6
CONTINUOUS
 62
     0
100
AcDbLine
 10
0.0
 20
0.0
 30
0.0
 11
-1.0
 21
0.0
 31
0.0
  0
LINE
  5
75
330
4A
100
AcDbEntity
  8
0
  6
CONTINUOUS
 62
     0
100
AcDbLine
 10
0.0
 20
0.0
 30
0.0
 11
-1.0
 21
0.166666667
 31
0.0
  0
LINE
  5
76
330
4A
100
AcDbEntity
  8
0
  6
CONTINUOUS
 62
     0
100
AcDbLine
 10
0.0
 20
0.0
 30
0.0
 11
-1.0
 21
-0.166666667
 31
0.0
  0
ENDBLK
  5
4C
330
4A
100
AcDbEntity
  8
0
100
AcDbBlockEnd
  0
BLOCK
  5
4E
330
4D
100
AcDbEntity
  8
0
100
AcDbBlockBegin
  2
EX_BNORM
 70
     0
 10
0.0
 20
0.0
 30
0.0
  3
EX_BNORM
  1

  0
LINE
  5
77
330
4D
100
AcDbEntity
  8
0
  6
CONTINUOUS
 62
     0
100
AcDbLine
 10
0.0
 20
0.0
 30
0.0
 11
-1.0
 21
0.0
 31
0.0
  0
LINE
  5
78
330
4D
100
AcDbEntity
  8
0
  6
CONTINUOUS
 62
     0
100
AcDbLine
 10
0.0
 20
0.0
 30
0.0
 11
-1.0
 21
0.166666667
 31
0.0
  0
LINE
  5
79
330
4D
100
AcDbEntity
  8
0
  6
CONTINUOUS
 62
     0
100
AcDbLine
 10
0.0
 20
0.0
 30
0.0
 11
-1.0
 21
-0.166666667
 31
0.0
  0
LINE
  5
7A
330
4D
100
AcDbEntity
  8
0
  6
CONTINUOUS
 62
     0
100
AcDbLine
 10
0.0
 20
0.0
 30
0.0
 11
-1.0
 21
0.083333333
 31
0.0
  0
LINE
  5
7B
330
4D
100
AcDbEntity
  8
0
  6
CONTINUOUS
 62
     0
100
AcDbLine
 10
0.0
 20
0.0
 30
0.0
 11
-1.0
 21
-0.083333333
 31
0.0
  0
LINE
  5
7C
330
4D
100
AcDbEntity
  8
0
  6
CONTINUOUS
 62
     0
100
AcDbLine
 10
-1.0
 20
0.166666667
 30
0.0
 11
-1.0
 21
-0.166666667
 31
0.0
  0
ENDBLK
  5
4F
330
4D
100
AcDbEntity
  8
0
100
AcDbBlockEnd
  0
BLOCK
  5
51
330
50
100
AcDbEntity
  8
0
100
AcDbBlockBegin
  2
EX_BCIR
 70
     0
 10
0.0
 20
0.0
 30
0.0
  3
EX_BCIR
  1

  0
LINE
  5
7D
330
50
100
AcDbEntity
  8
0
  6
CONTINUOUS
 62
     0
100
AcDbLine
 10
0.0
 20
0.0
 30
0.0
 11
-1.0
 21
0.0
 31
0.0
  0
CIRCLE
  5
7E
330
50
100
AcDbEntity
  8
0
  6
CONTINUOUS
 62
     0
100
AcDbCircle
 10
0.0
 20
0.0
 30
0.0
 40
0.5
  0
CIRCLE
  5
7F
330
50
100
AcDbEntity
  8
0
  6
CONTINUOUS
 62
     0
100
AcDbCircle
 10
0.0
 20
0.0
 30
0.0
 40
0.25
  0
ENDBLK
  5
52
330
50
100
AcDbEntity
  8
0
100
AcDbBlockEnd
  0
BLOCK
  5
54
330
53
100
AcDbEntity
  8
0
100
AcDbBlockBegin
  2
EX_RCIVIL
 70
     0
 10
0.0
 20
0.0
 30
0.0
  3
EX_RCIVIL
  1

  0
LINE
  5
80
330
53
100
AcDbEntity
  8
0
  6
CONTINUOUS
 62
     0
100
AcDbLine
 10
0.0
 20
0.0
 30
0.0
 11
-1.0
 21
0.0
 31
0.0
  0
LINE
  5
81
330
53
100
AcDbEntity
  8
0
  6
CONTINUOUS
 62
     0
100
AcDbLine
 10
-1.0
 20
-0.25
 30
0.0
 11
0.0
 21
-0.25
 31
0.0
  0
LINE
  5
82
330
53
100
AcDbEntity
  8
0
  6
CONTINUOUS
 62
     0
100
AcDbLine
 10
-1.0
 20
-0.125
 30
0.0
 11
0.0
 21
-0.125
 31
0.0
  0
ENDBLK
  5
55
330
53
100
AcDbEntity
  8
0
100
AcDbBlockEnd
  0
BLOCK
  5
57
330
56
100
AcDbEntity
  8
0
100
AcDbBlockBegin
  2
EX_SLANT
 70
     0
 10
0.0
 20
0.0
 30
0.0
  3
EX_SLANT
  1

  0
LINE
  5
83
330
56
100
AcDbEntity
  8
0
  6
CONTINUOUS
 62
     0
100
AcDbLine
 10
0.0
 20
0.0
 30
0.0
 11
-1.0
 21
0.0
 31
0.0
  0
LINE
  5
84
330
56
100
AcDbEntity
  8
0
  6
CONTINUOUS
 62
     0
100
AcDbLine
 10
0.707106781
 20
0.707106781
 30
0.0
 11
-0.707106781
 21
-0.707106781
 31
0.0
  0
ENDBLK
  5
58
330
56
100
AcDbEntity
  8
0
100
AcDbBlockEnd
  0
BLOCK
  5
5A
330
59
100
AcDbEntity
  8
0
100
AcDbBlockBegin
  2
EX_NONE
 70
     0
 10
0.0
 20
0.0
 30
0.0
  3
EX_NONE
  1

  0
LINE
  5
85
330
59
100
AcDbEntity
  8
0
  6
CONTINUOUS
 62
     0
100
AcDbLine
 10
0.0
 20
0.0
 30
0.0
 11
-1.0
 21
0.0
 31
0.0
  0
ENDBLK
  5
5B
330
59
100
AcDbEntity
  8
0
100
AcDbBlockEnd
  0
BLOCK
  5
5D
330
5C
100
AcDbEntity
  8
0
100
AcDbBlockBegin
  2
EX_CIVIL
 70
     0
 10
0.0
 20
0.0
 30
0.0
  3
EX_CIVIL
  1

  0
LINE
  5
86
330
5C
100
AcDbEntity
  8
0
  6
CONTINUOUS
 62
     0
100
AcDbLine
 10
0.0
 20
0.0
 30
0.0
 11
-1.0
 21
0.0
 31
0.0
  0
LINE
  5
87
330
5C
100
AcDbEntity
  8
0
  6
CONTINUOUS
 62
     0
100
AcDbLine
 10
-1.0
 20
0.25
 30
0.0
 11
0.0
 21
0.25
 31
0.0
  0
LINE
  5
88
330
5C
100
AcDbEntity
  8
0
  6
CONTINUOUS
 62
     0
100
AcDbLine
 10
-1.0
 20
0.125
 30
0.0
 11
0.0
 21
0.125
 31
0.0
  0
ENDBLK
  5
5E
330
5C
100
AcDbEntity
  8
0
100
AcDbBlockEnd
  0
BLOCK
  5
60
330
5F
100
AcDbEntity
  8
0
100
AcDbBlockBegin
  2
EX_WCIR
 70
     0
 10
0.0
 20
0.0
 30
0.0
  3
EX_WCIR
  1

  0
LINE
  5
89
330
5F
100
AcDbEntity
  8
0
  6
CONTINUOUS
 62
     0
100
AcDbLine
 10
0.0
 20
0.0
 30
0.0
 11
-1.0
 21
0.0
 31
0.0
  0
CIRCLE
  5
8A
330
5F
100
AcDbEntity
  8
0
  6
CONTINUOUS
 62
     0
100
AcDbCircle
 10
0.0
 20
0.0
 30
0.0
 40
0.5
  0
ENDBLK
  5
61
330
5F
100
AcDbEntity
  8
0
100
AcDbBlockEnd
  0
BLOCK
  5
63
330
62
100
AcDbEntity
  8
0
100
AcDbBlockBegin
  2
EX_WCIR2
 70
     0
 10
0.0
 20
0.0
 30
0.0
  3
EX_WCIR2
  1

  0
LINE
  5
8B
330
62
100
AcDbEntity
  8
0
  6
CONTINUOUS
 62
     0
100
AcDbLine
 10
-0.5
 20
0.0
 30
0.0
 11
-1.0
 21
0.0
 31
0.0
  0
CIRCLE
  5
8C
330
62
100
AcDbEntity
  8
0
  6
CONTINUOUS
 62
     0
100
AcDbCircle
 10
0.0
 20
0.0
 30
0.0
 40
0.5
  0
ENDBLK
  5
64
330
62
100
AcDbEntity
  8
0
100
AcDbBlockEnd
  0
BLOCK
  5
66
330
65
100
AcDbEntity
  8
0
100
AcDbBlockBegin
  2
EX_WNORM
 70
     0
 10
0.0
 20
0.0
 30
0.0
  3
EX_WNORM
  1

  0
LINE
  5
8D
330
65
100
AcDbEntity
  8
0
  6
CONTINUOUS
 62
     0
100
AcDbLine
 10
-1.0
 20
0.0
 30
0.0
 11
-1.0
 21
0.0
 31
0.0
  0
LINE
  5
8E
330
65
100
AcDbEntity
  8
0
  6
CONTINUOUS
 62
     0
100
AcDbLine
 10
0.0
 20
0.0
 30
0.0
 11
-1.0
 21
0.166666667
 31
0.0
  0
LINE
  5
8F
330
65
100
AcDbEntity
  8
0
  6
CONTINUOUS
 62
     0
100
AcDbLine
 10
0.0
 20
0.0
 30
0.0
 11
-1.0
 21
-0.166666667
 31
0.0
  0
LINE
  5
90
330
65
100
AcDbEntity
  8
0
  6
CONTINUOUS
 62
     0
100
AcDbLine
 10
-1.0
 20
0.166666667
 30
0.0
 11
-1.0
 21
-0.166666667
 31
0.0
  0
ENDBLK
  5
67
330
65
100
AcDbEntity
  8
0
100
AcDbBlockEnd
  0
BLOCK
  5
69
330
68
100
AcDbEntity
  8
0
100
AcDbBlockBegin
  2
EX_NNORM
 70
     0
 10
0.0
 20
0.0
 30
0.0
  3
EX_NNORM
  1

  0
LINE
  5
91
330
68
100
AcDbEntity
  8
0
  6
CONTINUOUS
 62
     0
100
AcDbLine
 10
0.0
 20
0.0
 30
0.0
 11
-1.0
 21
0.0
 31
0.0
  0
LINE
  5
92
330
68
100
AcDbEntity
  8
0
  6
CONTINUOUS
 62
     0
100
AcDbLine
 10
0.0
 20
0.0
 30
0.0
 11
-1.0
 21
0.166666667
 31
0.0
  0
LINE
  5
93
330
68
100
AcDbEntity
  8
0
  6
CONTINUOUS
 62
     0
100
AcDbLine
 10
0.0
 20
0.0
 30
0.0
 11
-1.0
 21
-0.166666667
 31
0.0
  0
LINE
  5
94
330
68
100
AcDbEntity
  8
0
  6
CONTINUOUS
 62
     0
100
AcDbLine
 10
-1.0
 20
0.166666667
 30
0.0
 11
-1.0
 21
-0.166666667
 31
0.0
  0
ENDBLK
  5
6A
330
68
100
AcDbEntity
  8
0
100
AcDbBlockEnd
  0
BLOCK
  5
6C
330
6B
100
AcDbEntity
  8
0
100
AcDbBlockBegin
  2
EX_BBOX
 70
     0
 10
0.0
 20
0.0
 30
0.0
  3
EX_BBOX
  1

  0
LINE
  5
95
330
6B
100
AcDbEntity
  8
0
  6
CONTINUOUS
 62
     0
100
AcDbLine
 10
0.0
 20
0.0
 30
0.0
 11
-1.0
 21
0.0
 31
0.0
  0
LINE
  5
96
330
6B
100
AcDbEntity
  8
0
  6
CONTINUOUS
 62
     0
100
AcDbLine
 10
-0.5
 20
0.5
 30
0.0
 11
0.5
 21
0.5
 31
0.0
  0
LINE
  5
97
330
6B
100
AcDbEntity
  8
0
  6
CONTINUOUS
 62
     0
100
AcDbLine
 10
0.5
 20
0.5
 30
0.0
 11
0.5
 21
-0.5
 31
0.0
  0
LINE
  5
98
330
6B
100
AcDbEntity
  8
0
  6
CONTINUOUS
 62
     0
100
AcDbLine
 10
0.5
 20
-0.5
 30
0.0
 11
-0.5
 21
-0.5
 31
0.0
  0
LINE
  5
99
330
6B
100
AcDbEntity
  8
0
  6
CONTINUOUS
 62
     0
100
AcDbLine
 10
-0.5
 20
-0.5
 30
0.0
 11
-0.5
 21
0.5
 31
0.0
  0
LINE
  5
9A
330
6B
100
AcDbEntity
  8
0
  6
CONTINUOUS
 62
     0
100
AcDbLine
 10
-0.25
 20
0.25
 30
0.0
 11
0.25
 21
0.25
 31
0.0
  0
LINE
  5
9B
330
6B
100
AcDbEntity
  8
0
  6
CONTINUOUS
 62
     0
100
AcDbLine
 10
0.25
 20
0.25
 30
0.0
 11
0.25
 21
-0.25
 31
0.0
  0
LINE
  5
9C
330
6B
100
AcDbEntity
  8
0
  6
CONTINUOUS
 62
     0
100
AcDbLine
 10
0.25
 20
-0.25
 30
0.0
 11
-0.25
 21
-0.25
 31
0.0
  0
LINE
  5
9D
330
6B
100
AcDbEntity
  8
0
  6
CONTINUOUS
 62
     0
100
AcDbLine
 10
-0.25
 20
-0.25
 30
0.0
 11
-0.25
 21
0.25
 31
0.0
  0
ENDBLK
  5
6D
330
6B
100
AcDbEntity
  8
0
100
AcDbBlockEnd
  0
BLOCK
  5
6F
330
6E
100
AcDbEntity
  8
0
100
AcDbBlockBegin
  2
EX_WBOX
 70
     0
 10
0.0
 20
0.0
 30
0.0
  3
EX_WBOX
  1

  0
LINE
  5
9E
330
6E
100
AcDbEntity
  8
0
  6
CONTINUOUS
 62
     0
100
AcDbLine
 10
-0.5
 20
0.0
 30
0.0
 11
-1.0
 21
0.0
 31
0.0
  0
LINE
  5
9F
330
6E
100
AcDbEntity
  8
0
  6
CONTINUOUS
 62
     0
100
AcDbLine
 10
-0.5
 20
0.5
 30
0.0
 11
0.5
 21
0.5
 31
0.0
  0
LINE
  5
A0
330
6E
100
AcDbEntity
  8
0
  6
CONTINUOUS
 62
     0
100
AcDbLine
 10
0.5
 20
0.5
 30
0.0
 11
0.5
 21
-0.5
 31
0.0
  0
LINE
  5
A1
330
6E
100
AcDbEntity
  8
0
  6
CONTINUOUS
 62
     0
100
AcDbLine
 10
0.5
 20
-0.5
 30
0.0
 11
-0.5
 21
-0.5
 31
0.0
  0
LINE
  5
A2
330
6E
100
AcDbEntity
  8
0
  6
CONTINUOUS
 62
     0
100
AcDbLine
 10
-0.5
 20
-0.5
 30
0.0
 11
-0.5
 21
0.5
 31
0.0
  0
ENDBLK
  5
70
330
6E
100
AcDbEntity
  8
0
100
AcDbBlockEnd
  0
BLOCK
  5
72
330
71
100
AcDbEntity
  8
0
100
AcDbBlockBegin
  2
EX_INTEGRAL
 70
     0
 10
0.0
 20
0.0
 30
0.0
  3
EX_INTEGRAL
  1

  0
LINE
  5
A3
330
71
100
AcDbEntity
  8
0
  6
CONTINUOUS
 62
     0
100
AcDbLine
 10
0.0
 20
0.0
 30
0.0
 11
-1.0
 21
0.0
 31
0.0
  0
ARC
  5
A4
330
71
100
AcDbEntity
  8
0
  6
CONTINUOUS
 62
     0
100
AcDbCircle
 10
0.542115
 20
0.164992
 30
0.0
 40
0.56667
100
AcDbArc
 50
73.07249033629006
 51
196.9275130221199
  0
ARC
  5
A5
330
71
100
AcDbEntity
  8
0
  6
CONTINUOUS
 62
     0
100
AcDbCircle
 10
-0.542115
 20
-0.164992
 30
0.0
 40
0.56667
100
AcDbArc
 50
253.0724869220464
 51
16.9275130559125
  0
ENDBLK
  5
73
330
71
100
AcDbEntity
  8
0
100
AcDbBlockEnd
  0
BLOCK
  5
18B
330
18A
100
AcDbEntity
  8
0
100
AcDbBlockBegin
  2
*D15
 70
     1
 10
0.0
 20
0.0
 30
0.0
  3
*D15
  1

  0
LINE
  5
18D
330
18A
100
AcDbEntity
  8
図_寸法
  6
CONTINUOUS
 62
     3
100
AcDbLine
 10
243.5
 20
138.0000024227
 30
0.0
 11
243.5
 21
127.0000024227
 31
0.0
  0
LINE
  5
18E
330
18A
100
AcDbEntity
  8
図_寸法
  6
CONTINUOUS
 62
     3
100
AcDbLine
 10
283.5
 20
138.0000024227
 30
0.0
 11
283.5
 21
127.0000024227
 31
0.0
  0
LINE
  5
18F
330
18A
100
AcDbEntity
  8
図_寸法
  6
CONTINUOUS
 62
     3
100
AcDbLine
 10
249.5
 20
129.0000024227
 30
0.0
 11
277.5
 21
129.0000024227
 31
0.0
  0
INSERT
  5
190
330
18A
100
AcDbEntity
  8
図_寸法
 62
     3
100
AcDbBlockReference
  2
EX_NORM
 10
243.5
 20
129.0000024227
 30
0.0
 41
6.0
 42
6.0
 43
6.0
 50
180.0
  0
INSERT
  5
191
330
18A
100
AcDbEntity
  8
図_寸法
 62
     3
100
AcDbBlockReference
  2
EX_NORM
 10
283.5
 20
129.0000024227
 30
0.0
 41
6.0
 42
6.0
 43
6.0
  0
MTEXT
  5
192
330
18A
100
AcDbEntity
  8
図_寸法
 62
     2
100
AcDbMText
 10
263.5
 20
135.0000024227
 30
0.0
 40
8.0
 41
0.0
 71
     5
 72
     1
  1
40
  7
EXCADDIM1
  0
POINT
  5
193
330
18A
100
AcDbEntity
  8
DEFPOINTS
 62
     0
100
AcDbPoint
 10
243.5
 20
139.0000024227
 30
0.0
  0
POINT
  5
194
330
18A
100
AcDbEntity
  8
DEFPOINTS
 62
     0
100
AcDbPoint
 10
283.5
 20
139.0000024227
 30
0.0
  0
POINT
  5
195
330
18A
100
AcDbEntity
  8
DEFPOINTS
 62
     0
100
AcDbPoint
 10
283.5
 20
129.0000024227
 30
0.0
  0
ENDBLK
  5
18C
330
18A
100
AcDbEntity
  8
0
100
AcDbBlockEnd
  0
BLOCK
  5
198
330
197
100
AcDbEntity
  8
0
100
AcDbBlockBegin
  2
*D16
 70
     1
 10
0.0
 20
0.0
 30
0.0
  3
*D16
  1

  0
LINE
  5
19A
330
197
100
AcDbEntity
  8
図_寸法
  6
CONTINUOUS
 62
     3
100
AcDbLine
 10
245.44
 20
198.4
 30
0.0
 11
241.56
 21
198.4
 31
0.0
  0
INSERT
  5
19B
330
197
100
AcDbEntity
  8
図_寸法
 62
     3
100
AcDbBlockReference
  2
EX_NORM
 10
251.44
 20
198.4
 30
0.0
 41
6.0
 42
6.0
 43
6.0
  0
INSERT
  5
19C
330
197
100
AcDbEntity
  8
図_寸法
 62
     3
100
AcDbBlockReference
  2
EX_NORM
 10
235.56
 20
198.4
 30
0.0
 41
6.0
 42
6.0
 43
6.0
 50
180.0
  0
MTEXT
  5
19D
330
197
100
AcDbEntity
  8
図_寸法
 62
     2
100
AcDbMText
 10
212.56
 20
204.4
 30
0.0
 40
8.0
 41
0.0
 71
     5
 72
     1
  1
%%c15.88
  7
EXCADDIM1
  0
POINT
  5
19E
330
197
100
AcDbEntity
  8
DEFPOINTS
 62
     0
100
AcDbPoint
 10
251.44
 20
139.0000024227
 30
0.0
  0
POINT
  5
19F
330
197
100
AcDbEntity
  8
DEFPOINTS
 62
     0
100
AcDbPoint
 10
235.56
 20
139.0000024227
 30
0.0
  0
POINT
  5
1A0
330
197
100
AcDbEntity
  8
DEFPOINTS
 62
     0
100
AcDbPoint
 10
235.56
 20
198.4
 30
0.0
  0
ENDBLK
  5
199
330
197
100
AcDbEntity
  8
0
100
AcDbBlockEnd
  0
BLOCK
  5
1A3
330
1A2
100
AcDbEntity
  8
0
100
AcDbBlockBegin
  2
*D17
 70
     1
 10
0.0
 20
0.0
 30
0.0
  3
*D17
  1

  0
LINE
  5
1A5
330
1A2
100
AcDbEntity
  8
図_寸法
  6
CONTINUOUS
 62
     3
100
AcDbLine
 10
318.50009
 20
316.25
 30
0.0
 11
318.50009
 21
278.7
 31
0.0
  0
LINE
  5
1A6
330
1A2
100
AcDbEntity
  8
図_寸法
  6
CONTINUOUS
 62
     3
100
AcDbLine
 10
249.5
 20
280.7
 30
0.0
 11
312.50009
 21
280.7
 31
0.0
  0
INSERT
  5
1A7
330
1A2
100
AcDbEntity
  8
図_寸法
 62
     3
100
AcDbBlockReference
  2
EX_NORM
 10
243.5
 20
280.7
 30
0.0
 41
6.0
 42
6.0
 43
6.0
 50
180.0
  0
INSERT
  5
1A8
330
1A2
100
AcDbEntity
  8
図_寸法
 62
     3
100
AcDbBlockReference
  2
EX_NORM
 10
318.50009
 20
280.7
 30
0.0
 41
6.0
 42
6.0
 43
6.0
  0
MTEXT
  5
1A9
330
1A2
100
AcDbEntity
  8
図_寸法
 62
     2
100
AcDbMText
 10
281.000045
 20
286.7
 30
0.0
 40
8.0
 41
0.0
 71
     5
 72
     1
  1
75
  7
EXCADDIM1
  0
POINT
  5
1AA
330
1A2
100
AcDbEntity
  8
DEFPOINTS
 62
     0
100
AcDbPoint
 10
243.5
 20
301.5
 30
0.0
  0
POINT
  5
1AB
330
1A2
100
AcDbEntity
  8
DEFPOINTS
 62
     0
100
AcDbPoint
 10
318.50009
 20
317.25
 30
0.0
  0
POINT
  5
1AC
330
1A2
100
AcDbEntity
  8
DEFPOINTS
 62
     0
100
AcDbPoint
 10
318.50009
 20
280.7
 30
0.0
  0
ENDBLK
  5
1A4
330
1A2
100
AcDbEntity
  8
0
100
AcDbBlockEnd
  0
BLOCK
  5
1AF
330
1AE
100
AcDbEntity
  8
0
100
AcDbBlockBegin
  2
*D18
 70
     1
 10
0.0
 20
0.0
 30
0.0
  3
*D18
  1

  0
LINE
  5
1B1
330
1AE
100
AcDbEntity
  8
図_寸法
  6
CONTINUOUS
 62
     3
100
AcDbLine
 10
234.56
 20
139.0000024227
 30
0.0
 11
175.2
 21
139.0000024227
 31
0.0
  0
LINE
  5
1B2
330
1AE
100
AcDbEntity
  8
図_寸法
  6
CONTINUOUS
 62
     3
100
AcDbLine
 10
237.6534047564
 20
289.0000024227
 30
0.0
 11
175.2
 21
289.0000024227
 31
0.0
  0
LINE
  5
1B3
330
1AE
100
AcDbEntity
  8
図_寸法
  6
CONTINUOUS
 62
     3
100
AcDbLine
 10
177.2
 20
145.0000024227
 30
0.0
 11
177.2
 21
283.0000024227
 31
0.0
  0
INSERT
  5
1B4
330
1AE
100
AcDbEntity
  8
図_寸法
 62
     3
100
AcDbBlockReference
  2
EX_NORM
 10
177.2
 20
139.0000024227
 30
0.0
 41
6.0
 42
6.0
 43
6.0
 50
270.0
  0
INSERT
  5
1B5
330
1AE
100
AcDbEntity
  8
図_寸法
 62
     3
100
AcDbBlockReference
  2
EX_NORM
 10
177.2
 20
289.0000024227
 30
0.0
 41
6.0
 42
6.0
 43
6.0
 50
90.0
  0
MTEXT
  5
1B6
330
1AE
100
AcDbEntity
  8
図_寸法
 62
     2
100
AcDbMText
 10
171.2
 20
214.0000024227
 30
0.0
 40
8.0
 41
0.0
 71
     5
 72
     1
  1
150
  7
EXCADDIM1
 11
0.0
 21
1.0
 31
0.0
  0
POINT
  5
1B7
330
1AE
100
AcDbEntity
  8
DEFPOINTS
 62
     0
100
AcDbPoint
 10
235.56
 20
139.0000024227
 30
0.0
  0
POINT
  5
1B8
330
1AE
100
AcDbEntity
  8
DEFPOINTS
 62
     0
100
AcDbPoint
 10
238.6534047564
 20
289.0000024227
 30
0.0
  0
POINT
  5
1B9
330
1AE
100
AcDbEntity
  8
DEFPOINTS
 62
     0
100
AcDbPoint
 10
177.2
 20
289.0000024227
 30
0.0
  0
ENDBLK
  5
1B0
330
1AE
100
AcDbEntity
  8
0
100
AcDbBlockEnd
  0
ENDSEC
  0
SECTION
  2
ENTITIES
  0
LINE
  5
A6
330
1F
100
AcDbEntity
  8
枠
  6
EXLTYPE2
 62
     1
100
AcDbLine
 10
40.0
 20
296.0
 30
0.0
 11
0.8000000000000014
 21
296.0
 31
0.0
  0
LINE
  5
A7
330
1F
100
AcDbEntity
  8
枠
  6
CONTINUOUS
 62
     7
100
AcDbLine
 10
39.99999999999973
 20
19.69999999999999
 30
0.0
 11
39.99999999999973
 21
579.6999999999945
 31
0.0
  0
LINE
  5
A8
330
1F
100
AcDbEntity
  8
枠
  6
CONTINUOUS
 62
     7
100
AcDbLine
 10
47.099999999996
 20
20.0
 30
0.0
 11
403.099999999996
 21
20.0
 31
0.0
  0
TEXT
  5
AA
330
1F
100
AcDbEntity
  8
枠
  6
CONTINUOUS
 62
     2
100
AcDbText
 10
188.3999999999984
 20
24.79999999999995
 30
0.0
 40
6.75
  1
ジャニス工業株式会社
 41
1.025641025641026
  7
EXCADTTF1
 72
     5
 11
278.3999999999984
 21
24.79999999999995
 31
0.0
100
AcDbText
  0
HATCH
  5
AB
330
1F
100
AcDbEntity
  8
枠
  6
CONTINUOUS
 62
     3
100
AcDbHatch
 10
0.0
 20
0.0
 30
0.0
210
0.0
220
0.0
230
1.0
  2
SOLID
 70
     1
 71
     1
 91
        2
 92
        3
 72
     1
 73
     1
 93
       27
 10
163.8345531466485
 20
31.77289865950805
 42
-0.1769427732109284
 10
163.8345531466485
 20
31.77289865950803
 42
0.0
 10
163.8345531466485
 20
31.04389865950799
 42
0.0
 10
164.0100531466487
 20
31.04389865950796
 42
-0.207533601427307
 10
165.1494845579125
 20
31.89864718258082
 42
-0.1226604740888933
 10
166.1565531466486
 20
31.92004865950797
 42
-0.3213715781137954
 10
167.1976656044402
 20
30.64213028756939
 42
-0.064704004662446
 10
167.2028031466483
 20
29.966598659508
 42
-0.257798906330806
 10
166.9908531466485
 20
29.71009865950797
 42
-0.056602577721096
 10
166.5372531466485
 20
29.55214865950804
 42
-0.0166741689362636
 10
164.8740531466485
 20
29.23624865950801
 42
0.1186092302783404
 10
163.7765031466486
 20
28.70974865950801
 42
0.1699204224386695
 10
163.2986031466485
 20
27.91054865950799
 42
0.1006533494296199
 10
163.2544173359148
 20
27.21707110191444
 42
0.1675695228968024
 10
163.6874031466486
 20
26.28784865950804
 42
0.1376980079804242
 10
164.4744531466484
 20
25.83289865950808
 42
0.0719813663796923
 10
164.8322031466483
 20
25.77349865950805
 42
0.0
 10
165.3803031466485
 20
25.77349865950809
 42
0.1944607457809085
 10
167.1987531466485
 20
26.70904865950803
 42
0.1288538183665954
 10
167.3823531466483
 20
26.25004865950797
 42
0.2098387395261546
 10
167.9817531466484
 20
25.91929865950806
 42
0.0
 10
168.4164531466485
 20
25.91659865950809
 42
0.0945009641609563
 10
169.0442031466485
 20
26.05024865950804
 42
0.0
 10
169.0442031466485
 20
26.36479865950803
 42
-0.2395739894657535
 10
168.4961031466486
 20
26.35939865950798
 42
-0.2502312110031057
 10
168.2261031466483
 20
26.86699865950819
 42
-0.0104343570771765
 10
168.2625531466484
 20
30.65239865950796
 42
0.4051015674140716
 97
        0
 92
        3
 72
     1
 73
     1
 93
        8
 10
167.2271031466484
 20
29.30509865950797
 42
-0.0339435190873666
 10
167.2271031466489
 20
29.30509865950575
 42
-0.0001110072973599
 10
167.1704031466486
 20
27.23689865950799
 42
-0.2253076310552528
 10
165.7529031466484
 20
26.29054865950809
 42
0.0
 10
165.4059531466483
 20
26.29054865950809
 42
-0.3657967558150132
 10
164.3745531466485
 20
27.38674865950804
 42
0.0
 10
164.3745531466487
 20
27.77824865950805
 42
-0.2530797830369341
 10
165.0711531466485
 20
28.74214865950797
 42
-0.0724473624720066
 97
        0
 75
     0
 76
     1
 98
        1
 10
0.0
 20
0.0
  0
HATCH
  5
AC
330
1F
100
AcDbEntity
  8
枠
  6
CONTINUOUS
 62
     3
100
AcDbHatch
 10
0.0
 20
0.0
 30
0.0
210
0.0
220
0.0
230
1.0
  2
SOLID
 70
     1
 71
     1
 91
        1
 92
        3
 72
     1
 73
     1
 93
       30
 10
185.3468031466482
 20
32.16709865950804
 42
-0.0009362235736497
 10
185.3468031466483
 20
32.16709865950796
 42
0.0681165430304653
 10
185.0194186973446
 20
31.18564865950799
 42
0.0
 10
183.7862031466484
 20
32.029398659508
 42
-0.302112590907374
 10
183.7862031466483
 20
32.02939865950799
 42
0.0
 10
182.5428531466483
 20
31.07629865950798
 42
-0.3704245237568778
 10
182.5428531466481
 20
31.07629865950793
 42
0.0
 10
182.6076531466482
 20
30.43909865950798
 42
-0.0262822419456939
 10
183.3744531466484
 20
29.82619865950794
 42
-0.180060563604375
 10
184.5975531466484
 20
29.45359865950806
 42
-0.0298130817160724
 10
184.5975531466483
 20
29.45359865950799
 42
-0.3153987453686078
 10
185.7248031466482
 20
28.16434865950805
 42
0.0
 10
185.7180531466483
 20
27.58789865950799
 42
-0.3510306079065168
 10
183.5445531466482
 20
25.76539865950804
 42
0.0
 10
182.9100531466482
 20
25.76539865950803
 42
-0.1053356344842436
 10
181.5060531466482
 20
26.17039865950805
 42
0.1188608286962634
 10
181.7625531466482
 20
27.19639865950808
 42
0.0
 10
183.3015531466484
 20
26.25139865950807
 42
-0.2447573632916039
 10
183.3015531466482
 20
26.25139865950803
 42
0.0
 10
184.7865531466484
 20
27.29089865950806
 42
-0.3734162676407277
 10
184.7865531466483
 20
27.290898659508
 42
0.0
 10
184.2479031466483
 20
28.32904865950806
 42
-0.261219770190848
 10
182.9910531466483
 20
28.78534865950807
 42
-0.0572747914118363
 10
182.9910531466485
 20
28.78534865950801
 42
-0.1189658875692221
 10
181.9920531466482
 20
29.37124865950807
 42
-0.2005226878639636
 10
181.5735531466482
 20
30.31489865951244
 42
0.0
 10
181.5668031466484
 20
30.67264865950792
 42
-0.2622894489606957
 10
182.6400531466484
 20
32.31289865950805
 42
-0.0988461274137808
 10
183.6444531466483
 20
32.55454865950793
 42
0.0
 10
184.0170531466482
 20
32.55454865950799
 42
-0.0920156312561188
 97
        0
 75
     0
 76
     1
 98
        1
 10
0.0
 20
0.0
  0
ARC
  5
AD
330
1F
100
AcDbEntity
  8
枠
  6
CONTINUOUS
 62
     3
100
AcDbCircle
 10
188.7684962137724
 20
30.48038875014976
 30
0.0
 40
3.814836007475624
100
AcDbArc
 50
153.7591918158497
 51
169.3462759801917
  0
LINE
  5
AE
330
1F
100
AcDbEntity
  8
枠
  6
CONTINUOUS
 62
     3
100
AcDbLine
 10
184.8486531466482
 20
31.18564865950799
 30
0.0
 11
185.0194186973446
 21
31.18564865950799
 31
0.0
  0
LINE
  5
AF
330
1F
100
AcDbEntity
  8
枠
  6
CONTINUOUS
 62
     3
100
AcDbLine
 10
183.5675031466482
 20
32.02399865950798
 30
0.0
 11
183.7862031466483
 21
32.02939865950799
 31
0.0
  0
LINE
  5
B0
330
1F
100
AcDbEntity
  8
枠
  6
CONTINUOUS
 62
     3
100
AcDbLine
 10
181.5668031466484
 20
30.67264865950796
 30
0.0
 11
181.5735531466482
 21
30.31489865951244
 31
0.0
  0
LINE
  5
B1
330
1F
100
AcDbEntity
  8
枠
  6
CONTINUOUS
 62
     3
100
AcDbLine
 10
182.5428531466481
 20
31.07629865950793
 30
0.0
 11
182.5239531466483
 21
30.72259865950792
 31
0.0
  0
LINE
  5
B2
330
1F
100
AcDbEntity
  8
枠
  6
CONTINUOUS
 62
     3
100
AcDbLine
 10
185.7248031466482
 20
28.16434865950805
 30
0.0
 11
185.7180531466482
 21
27.58789865950803
 31
0.0
  0
LINE
  5
B3
330
1F
100
AcDbEntity
  8
枠
  6
CONTINUOUS
 62
     3
100
AcDbLine
 10
184.7730531466483
 20
27.60139865950805
 30
0.0
 11
184.7865531466483
 21
27.290898659508
 31
0.0
  0
ARC
  5
B4
330
1F
100
AcDbEntity
  8
枠
  6
CONTINUOUS
 62
     3
100
AcDbCircle
 10
179.5068826264171
 20
27.21559519129994
 30
0.0
 40
2.255907480157654
100
AcDbArc
 50
332.3987521421788
 51
359.5124385477116
  0
LINE
  5
B5
330
1F
100
AcDbEntity
  8
枠
  6
CONTINUOUS
 62
     3
100
AcDbLine
 10
163.8345531466485
 20
31.04389865950799
 30
0.0
 11
164.0100531466486
 21
31.04389865950799
 31
0.0
  0
HATCH
  5
B6
330
1F
100
AcDbEntity
  8
枠
  6
CONTINUOUS
 62
     3
100
AcDbHatch
 10
0.0
 20
0.0
 30
0.0
210
0.0
220
0.0
230
1.0
  2
SOLID
 70
     1
 71
     1
 91
        2
 92
        1
 93
        1
 72
     2
 10
179.0571028076653
 20
34.81670933747398
 40
0.7144668933539696
 50
0.0
 51
360.0
 73
     1
 97
        0
 92
        3
 72
     1
 73
     1
 93
        3
 10
178.4186031466483
 20
32.43979865950793
 42
0.1200283885712921
 10
179.6606031466484
 20
25.91254865950798
 42
-0.0401820615762149
 10
178.4199531466483
 20
25.90849865950801
 42
-0.0237521668114666
 97
        0
 75
     0
 76
     1
 98
        1
 10
0.0
 20
0.0
  0
HATCH
  5
B7
330
1F
100
AcDbEntity
  8
枠
  6
CONTINUOUS
 62
     3
100
AcDbHatch
 10
0.0
 20
0.0
 30
0.0
210
0.0
220
0.0
230
1.0
  2
SOLID
 70
     1
 71
     1
 91
        1
 92
        3
 72
     1
 73
     1
 93
       16
 10
170.5737531466484
 20
25.92064865950803
 42
-0.0386228372648426
 10
170.5616031466484
 20
32.42899865950798
 42
-0.0398707891902887
 10
171.7428531466483
 20
32.43439865950796
 42
-0.1256886216044368
 10
171.6888531466484
 20
31.33009865950798
 42
-0.0367815758121429
 10
171.6888531466484
 20
31.33009865950797
 42
-0.268021535028829
 10
174.0716031466483
 20
32.56669865950795
 42
-0.2571134422124888
 10
175.7010531466483
 20
31.76074865950802
 42
-0.1522526366014298
 10
176.1155031466485
 20
30.42019865950801
 42
-0.0158825412051521
 10
176.0858031466483
 20
25.91389865950803
 42
-0.0285251271418421
 10
174.9450531466484
 20
25.913898659508
 42
-0.0452212723224612
 10
175.0031031466485
 20
30.07729865950806
 42
-0.0315567291532142
 10
174.6494031466483
 20
31.30714865950805
 42
-0.1476272403790709
 10
172.3463031466484
 20
31.48399865950798
 42
-0.3908144705745794
 10
171.6969531466484
 20
29.86804865950798
 42
-0.2046259928850854
 10
171.6969531466484
 20
29.86804865950808
 42
0.0
 10
171.7982031466484
 20
25.90984865950806
 42
-0.0304995761723369
 97
        0
 75
     0
 76
     1
 98
        1
 10
0.0
 20
0.0
  0
HATCH
  5
B8
330
1F
100
AcDbEntity
  8
枠
  6
CONTINUOUS
 62
     3
100
AcDbHatch
 10
0.0
 20
0.0
 30
0.0
210
0.0
220
0.0
230
1.0
  2
SOLID
 70
     1
 71
     1
 91
        1
 92
        3
 72
     1
 73
     1
 93
       10
 10
158.7450531466486
 20
26.14339865950801
 42
-0.017362223501556
 10
158.7626031466485
 20
36.73684865950798
 42
-0.0267627618865285
 10
158.7626031466486
 20
36.73684865950796
 42
0.0737939047395297
 10
161.3465031466486
 20
36.74764865950777
 42
0.0183878899657109
 10
161.2425531466485
 20
27.19639865950799
 42
-0.1144749489451909
 10
160.8240531466484
 20
25.18489865950799
 42
-0.1929163439413163
 10
158.8328031466486
 20
23.62159865950802
 42
-0.0603888289562337
 10
157.7771031466486
 20
23.35834865950801
 42
0.0
 10
157.5300531466485
 20
24.11029865950802
 42
0.0860918333465722
 10
158.2685031466485
 20
24.50314865950802
 42
0.1331843103855141
 97
        0
 75
     0
 76
     1
 98
        1
 10
0.0
 20
0.0
  0
LINE
  5
B9
330
1F
100
AcDbEntity
  8
枠
  6
CONTINUOUS
 62
     3
100
AcDbLine
 10
182.9100531466483
 20
25.76539865950804
 30
0.0
 11
183.5445531466482
 21
25.76539865950804
 31
0.0
  0
LINE
  5
BA
330
1F
100
AcDbEntity
  8
枠
  6
CONTINUOUS
 62
     3
100
AcDbLine
 10
181.9380531466483
 20
27.19639865950808
 30
0.0
 11
181.7625531466482
 21
27.19639865950808
 31
0.0
  0
LINE
  5
BB
330
1F
100
AcDbEntity
  8
枠
  6
CONTINUOUS
 62
     3
100
AcDbLine
 10
183.3015531466482
 20
26.25139865950803
 30
0.0
 11
183.6255531466483
 21
26.25139865950803
 31
0.0
  0
LINE
  5
BC
330
1F
100
AcDbEntity
  8
枠
  6
CONTINUOUS
 62
     3
100
AcDbLine
 10
184.0170531466482
 20
32.55454865950793
 30
0.0
 11
183.6444531466483
 21
32.55454865950793
 31
0.0
  0
ARC
  5
BD
330
1F
100
AcDbEntity
  8
枠
  6
CONTINUOUS
 62
     3
100
AcDbCircle
 10
183.6829467825484
 20
30.80858472583321
 30
0.0
 40
1.225172860204494
100
AcDbArc
 50
17.92452211681263
 51
85.16543319077402
  0
ARC
  5
BE
330
1F
100
AcDbEntity
  8
枠
  6
CONTINUOUS
 62
     3
100
AcDbCircle
 10
183.607019297209
 20
30.95349989415826
 30
0.0
 40
1.071227862207852
100
AcDbArc
 50
92.11404364449162
 51
173.4175047026091
  0
ARC
  5
BF
330
1F
100
AcDbEntity
  8
枠
  6
CONTINUOUS
 62
     3
100
AcDbCircle
 10
185.2606281466507
 20
31.37646365950872
 30
0.0
 40
2.813703874586774
100
AcDbArc
 50
193.4375782160214
 51
199.459638038058
  0
ARC
  5
C0
330
1F
100
AcDbEntity
  8
枠
  6
CONTINUOUS
 62
     3
100
AcDbCircle
 10
183.8144270477473
 20
31.16277283533208
 30
0.0
 40
1.407127414674354
100
AcDbArc
 50
210.9501336849607
 51
251.7794729821079
  0
ARC
  5
C1
330
1F
100
AcDbEntity
  8
枠
  6
CONTINUOUS
 62
     3
100
AcDbCircle
 10
187.1076933938394
 20
39.88718621007001
 30
0.0
 40
10.73128851703325
100
AcDbArc
 50
249.6420733479936
 51
256.4727051201885
  0
ARC
  5
C2
330
1F
100
AcDbEntity
  8
枠
  6
CONTINUOUS
 62
     3
100
AcDbCircle
 10
184.2409144258373
 20
28.00434517063138
 30
0.0
 40
1.492490151459198
100
AcDbArc
 50
6.154262763177246
 51
76.17509904255616
  0
ARC
  5
C3
330
1F
100
AcDbEntity
  8
枠
  6
CONTINUOUS
 62
     3
100
AcDbCircle
 10
183.4932777293494
 20
28.03384934236078
 30
0.0
 40
2.269030116361268
100
AcDbArc
 50
271.2948770866743
 51
348.6654156292868
  0
ARC
  5
C4
330
1F
100
AcDbEntity
  8
枠
  6
CONTINUOUS
 62
     3
100
AcDbCircle
 10
183.1586010918537
 20
29.26313153622038
 30
0.0
 40
3.506552631560006
100
AcDbArc
 50
241.8829576087176
 51
265.9354096935781
  0
ARC
  5
C5
330
1F
100
AcDbEntity
  8
枠
  6
CONTINUOUS
 62
     3
100
AcDbCircle
 10
183.5272208646956
 20
28.03317279554756
 30
0.0
 40
1.796008070925036
100
AcDbArc
 50
207.7689879465537
 51
262.7817283832026
  0
ARC
  5
C6
330
1F
100
AcDbEntity
  8
枠
  6
CONTINUOUS
 62
     3
100
AcDbCircle
 10
183.6071555489285
 20
27.44004727514323
 30
0.0
 40
1.18879098375334
100
AcDbArc
 50
270.8867385422408
 51
352.7925382056677
  0
ARC
  5
C7
330
1F
100
AcDbEntity
  8
枠
  6
CONTINUOUS
 62
     3
100
AcDbCircle
 10
183.8616009170715
 20
27.49692450866326
 30
0.0
 40
0.917420304438018
100
AcDbArc
 50
6.53892419415897
 51
65.09756080693691
  0
ARC
  5
C8
330
1F
100
AcDbEntity
  8
枠
  6
CONTINUOUS
 62
     3
100
AcDbCircle
 10
181.6342978366069
 20
23.08914283510416
 30
0.0
 40
5.85555682794545
100
AcDbArc
 50
63.49050203733571
 51
76.60259219849584
  0
ARC
  5
C9
330
1F
100
AcDbEntity
  8
枠
  6
CONTINUOUS
 62
     3
100
AcDbCircle
 10
183.7053629159883
 20
31.14792822013356
 30
0.0
 40
2.46820190155911
100
AcDbArc
 50
226.0402388947521
 51
253.1776672992999
  0
ARC
  5
CA
330
1F
100
AcDbEntity
  8
枠
  6
CONTINUOUS
 62
     3
100
AcDbCircle
 10
182.9119851585182
 20
30.34385538151048
 30
0.0
 40
1.338745211811208
100
AcDbArc
 50
181.2393899443581
 51
226.5942921332421
  0
ARC
  5
CB
330
1F
100
AcDbEntity
  8
枠
  6
CONTINUOUS
 62
     3
100
AcDbCircle
 10
183.5592699359906
 20
30.54018582203713
 30
0.0
 40
1.99686512061836
100
AcDbArc
 50
117.4083995939977
 51
176.1964688215695
  0
ARC
  5
CC
330
1F
100
AcDbEntity
  8
枠
  6
CONTINUOUS
 62
     3
100
AcDbCircle
 10
183.7542208856763
 20
29.91958195875213
 30
0.0
 40
2.639949730735024
100
AcDbArc
 50
92.38301574576484
 51
114.9635286746436
  0
ARC
  5
CD
330
1F
100
AcDbEntity
  8
枠
  6
CONTINUOUS
 62
     3
100
AcDbCircle
 10
183.9708565692096
 20
30.53326076727893
 30
0.0
 40
2.021815735184294
100
AcDbArc
 50
67.66151957087348
 51
88.69073168448988
  0
ARC
  5
CE
330
1F
100
AcDbEntity
  8
枠
  6
CONTINUOUS
 62
     3
100
AcDbCircle
 10
248.1288906465606
 20
194.5059486592822
 30
0.0
 40
174.0560045792614
100
AcDbArc
 50
248.6422112053103
 51
248.8567777804232
  0
ARC
  5
CF
330
1F
100
AcDbEntity
  8
枠
  6
CONTINUOUS
 62
     3
100
AcDbCircle
 10
134.1380115072761
 20
29.16499585532461
 30
0.0
 40
44.4015217007158
100
AcDbArc
 50
355.7940354718673
 51
4.229650257234378
  0
ARC
  5
D0
330
1F
100
AcDbEntity
  8
枠
  6
CONTINUOUS
 62
     3
100
AcDbCircle
 10
220.2508094359093
 20
29.13762011478764
 30
0.0
 40
40.7181278117796
100
AcDbArc
 50
175.3387608397566
 51
184.5428594926176
  0
ARC
  5
D1
330
1F
100
AcDbEntity
  8
枠
  6
CONTINUOUS
 62
     3
100
AcDbCircle
 10
179.082881787425
 20
12.85960836824665
 30
0.0
 40
13.06571897050205
100
AcDbArc
 50
87.46575055044718
 51
92.90832285102188
  0
ARC
  5
D2
330
1F
100
AcDbEntity
  8
枠
  6
CONTINUOUS
 62
     3
100
AcDbCircle
 10
179.0291215205529
 20
35.00664948716133
 30
0.0
 40
2.638457097680388
100
AcDbArc
 50
256.6209501743446
 51
283.9984576255729
  0
CIRCLE
  5
D3
330
1F
100
AcDbEntity
  8
枠
  6
CONTINUOUS
 62
     3
100
AcDbCircle
 10
179.0571028076653
 20
34.81670933747398
 30
0.0
 40
0.71446689335397
  0
LINE
  5
D4
330
1F
100
AcDbEntity
  8
枠
  6
CONTINUOUS
 62
     3
100
AcDbLine
 10
171.6969531466484
 20
29.86804865950808
 30
0.0
 11
171.6969531466484
 21
27.709398659508
 31
0.0
  0
ARC
  5
D5
330
1F
100
AcDbEntity
  8
枠
  6
CONTINUOUS
 62
     3
100
AcDbCircle
 10
129.8235397734306
 20
29.09876117343481
 30
0.0
 40
40.87395612262103
100
AcDbArc
 50
355.5405243117485
 51
4.673398698656258
  0
ARC
  5
D6
330
1F
100
AcDbEntity
  8
枠
  6
CONTINUOUS
 62
     3
100
AcDbCircle
 10
171.141656997223
 20
34.74413759628953
 30
0.0
 40
2.386698717092008
100
AcDbArc
 50
255.9341994177206
 51
284.5896440601899
  0
ARC
  5
D7
330
1F
100
AcDbEntity
  8
枠
  6
CONTINUOUS
 62
     3
100
AcDbCircle
 10
179.2114945479215
 20
31.51571362766089
 30
0.0
 40
7.524931000916286
100
AcDbArc
 50
172.9875214416311
 51
181.4134392789641
  0
ARC
  5
D8
330
1F
100
AcDbEntity
  8
枠
  6
CONTINUOUS
 62
     3
100
AcDbCircle
 10
173.9508213800493
 20
29.88551977637189
 30
0.0
 40
2.683897993314494
100
AcDbArc
 50
87.42068310381028
 51
147.4361518966862
  0
ARC
  5
D9
330
1F
100
AcDbEntity
  8
枠
  6
CONTINUOUS
 62
     3
100
AcDbCircle
 10
174.1544811482736
 20
30.68409329595971
 30
0.0
 40
1.884428751111062
100
AcDbArc
 50
34.84393737091607
 51
92.5207065423111
  0
ARC
  5
DA
330
1F
100
AcDbEntity
  8
枠
  6
CONTINUOUS
 62
     3
100
AcDbCircle
 10
173.7581103068949
 20
30.42571884903037
 30
0.0
 40
2.357399302921156
100
AcDbArc
 50
359.8658335690532
 51
34.49363429411157
  0
ARC
  5
DB
330
1F
100
AcDbEntity
  8
枠
  6
CONTINUOUS
 62
     3
100
AcDbCircle
 10
163.8382720241997
 20
29.96631549624271
 30
0.0
 40
12.2856181757338
100
AcDbArc
 50
358.4775281223095
 51
2.117232414210064
  0
ARC
  5
DC
330
1F
100
AcDbEntity
  8
枠
  6
CONTINUOUS
 62
     3
100
AcDbCircle
 10
208.7315267323376
 20
27.48134749478254
 30
0.0
 40
32.6833315970761
100
AcDbArc
 50
176.2131780319488
 51
182.7488833337936
  0
ARC
  5
DD
330
1F
100
AcDbEntity
  8
枠
  6
CONTINUOUS
 62
     3
100
AcDbCircle
 10
175.5154281466484
 20
19.6203052384555
 30
0.0
 40
6.319386504253426
100
AcDbArc
 50
84.82155189294139
 51
95.17844810705873
  0
ARC
  5
DE
330
1F
100
AcDbEntity
  8
枠
  6
CONTINUOUS
 62
     3
100
AcDbCircle
 10
142.0234675729936
 20
28.45502675764919
 30
0.0
 40
33.01951133337143
100
AcDbArc
 50
355.5862454873798
 51
2.816115806820253
  0
ARC
  5
DF
330
1F
100
AcDbEntity
  8
枠
  6
CONTINUOUS
 62
     3
100
AcDbCircle
 10
172.7889480913689
 20
30.10630277643099
 30
0.0
 40
2.214345015488286
100
AcDbArc
 50
359.2495022237244
 51
32.84055016678327
  0
ARC
  5
E0
330
1F
100
AcDbEntity
  8
枠
  6
CONTINUOUS
 62
     3
100
AcDbCircle
 10
173.4020029041089
 20
30.14732546277367
 30
0.0
 40
1.70329011409399
100
AcDbArc
 50
42.91644474042847
 51
128.3015542351336
  0
ARC
  5
E1
330
1F
100
AcDbEntity
  8
枠
  6
CONTINUOUS
 62
     3
100
AcDbCircle
 10
173.9132344473264
 20
29.91590450276101
 30
0.0
 40
2.21679791263624
100
AcDbArc
 50
134.9787476233347
 51
181.2369872983282
  0
ARC
  5
E2
330
1F
100
AcDbEntity
  8
枠
  6
CONTINUOUS
 62
     3
100
AcDbCircle
 10
186.481771579019
 20
27.68300294019616
 30
0.0
 40
14.7902419862297
100
AcDbArc
 50
179.8977458165987
 51
186.8855675734268
  0
ARC
  5
E3
330
1F
100
AcDbEntity
  8
枠
  6
CONTINUOUS
 62
     3
100
AcDbCircle
 10
171.1161756013846
 20
18.00138509023418
 30
0.0
 40
7.937818188836916
100
AcDbArc
 50
85.07099551674689
 51
93.91830029343228
  0
ARC
  5
E4
330
1F
100
AcDbEntity
  8
枠
  6
CONTINUOUS
 62
     3
100
AcDbCircle
 10
-4490.603084435425
 20
155.9653049117552
 30
0.0
 40
4659.552002521136
100
AcDbArc
 50
358.4169008257799
 51
358.4423418242109
  0
ARC
  5
E5
330
1F
100
AcDbEntity
  8
枠
  6
CONTINUOUS
 62
     3
100
AcDbCircle
 10
165.4648938153169
 20
28.25672979060403
 30
0.0
 40
1.987163207995812
100
AcDbArc
 50
278.3335103000368
 51
329.1221464187299
  0
LINE
  5
E6
330
1F
100
AcDbEntity
  8
枠
  6
CONTINUOUS
 62
     3
100
AcDbLine
 10
165.4059531466483
 20
26.29054865950809
 30
0.0
 11
165.7529031466484
 21
26.29054865950809
 31
0.0
  0
ARC
  5
E7
330
1F
100
AcDbEntity
  8
枠
  6
CONTINUOUS
 62
     3
100
AcDbCircle
 10
165.5391930697732
 20
27.44922760195561
 30
0.0
 40
1.166314609693982
100
AcDbArc
 50
183.0707787095794
 51
263.4402016072427
  0
LINE
  5
E8
330
1F
100
AcDbEntity
  8
枠
  6
CONTINUOUS
 62
     3
100
AcDbLine
 10
164.3745531466485
 20
27.77824865950799
 30
0.0
 11
164.3745531466485
 21
27.38674865950804
 31
0.0
  0
ARC
  5
E9
330
1F
100
AcDbEntity
  8
枠
  6
CONTINUOUS
 62
     3
100
AcDbCircle
 10
165.6140373367553
 20
27.61614958094356
 30
0.0
 40
1.250038866914094
100
AcDbArc
 50
115.7403688633493
 51
172.5491744442191
  0
ARC
  5
EA
330
1F
100
AcDbEntity
  8
枠
  6
CONTINUOUS
 62
     3
100
AcDbCircle
 10
166.7132130351525
 20
25.26637725335945
 30
0.0
 40
3.844131572310378
100
AcDbArc
 50
98.71271710191789
 51
115.2874718053599
  0
ARC
  5
EB
330
1F
100
AcDbEntity
  8
枠
  6
CONTINUOUS
 62
     3
100
AcDbCircle
 10
164.921121987073
 20
37.25002762320992
 30
0.0
 40
8.272813629387954
100
AcDbArc
 50
278.4088456599976
 51
286.1851416003176
  0
ARC
  5
EC
330
1F
100
AcDbEntity
  8
枠
  6
CONTINUOUS
 62
     3
100
AcDbCircle
 10
160.018164002444
 20
45.44835141044422
 30
0.0
 40
8.801517666980844
100
AcDbArc
 50
261.7986203004403
 51
278.6803384946418
  0
ARC
  5
ED
330
1F
100
AcDbEntity
  8
枠
  6
CONTINUOUS
 62
     3
100
AcDbCircle
 10
291.1085062826841
 20
30.55920721901674
 30
0.0
 40
129.9094848936708
100
AcDbArc
 50
177.2695926307304
 51
181.4833117237826
  0
ARC
  5
EE
330
1F
100
AcDbEntity
  8
枠
  6
CONTINUOUS
 62
     3
100
AcDbCircle
 10
156.6979872358108
 20
27.09262713760177
 30
0.0
 40
4.545750526228578
100
AcDbArc
 50
335.1860595856123
 51
1.308075913059364
  0
ARC
  5
EF
330
1F
100
AcDbEntity
  8
枠
  6
CONTINUOUS
 62
     3
100
AcDbCircle
 10
157.8779465577081
 20
26.88767037253649
 30
0.0
 40
3.402789376392198
100
AcDbArc
 50
286.2966123578915
 51
329.973223283839
  0
ARC
  5
F0
330
1F
100
AcDbEntity
  8
枠
  6
CONTINUOUS
 62
     3
100
AcDbCircle
 10
157.2191149973316
 20
27.84446305830761
 30
0.0
 40
4.52068282164268
100
AcDbArc
 50
277.0901027239701
 51
290.9134154817058
  0
ARC
  5
F1
330
1F
100
AcDbEntity
  8
枠
  6
CONTINUOUS
 62
     3
100
AcDbCircle
 10
156.7669457937074
 20
26.43519718891969
 30
0.0
 40
2.446934000780026
100
AcDbArc
 50
288.1715191042997
 51
307.8537826235693
  0
ARC
  5
F2
330
1F
100
AcDbEntity
  8
枠
  6
CONTINUOUS
 62
     3
100
AcDbCircle
 10
157.218547729919
 20
25.56815036945818
 30
0.0
 40
1.49553837106125
100
AcDbArc
 50
314.592391474832
 51
344.9374073189123
  0
ARC
  5
F3
330
1F
100
AcDbEntity
  8
枠
  6
CONTINUOUS
 62
     3
100
AcDbCircle
 10
59.86771042458575
 20
31.60394671677665
 30
0.0
 40
99.02800860797917
100
AcDbArc
 50
356.8390243485978
 51
2.971133813187157
  0
ARC
  5
F4
330
1F
100
AcDbEntity
  8
枠
  6
CONTINUOUS
 62
     3
100
AcDbCircle
 10
144.8287913045402
 20
26.84685523845565
 30
0.0
 40
13.93403009960106
100
AcDbArc
 50
353.1274757312911
 51
357.106204490141
  0
LINE
  5
F5
330
1F
100
AcDbEntity
  8
枠
  6
CONTINUOUS
 62
     3
100
AcDbLine
 10
163.8345531466485
 20
31.77289865950803
 30
0.0
 11
163.8345531466485
 21
31.04389865950799
 31
0.0
  0
ARC
  5
F6
330
1F
100
AcDbEntity
  8
枠
  6
CONTINUOUS
 62
     3
100
AcDbCircle
 10
165.5650723540583
 20
30.15780383715753
 30
0.0
 40
1.78976221035342
100
AcDbArc
 50
103.4267945469744
 51
150.3242613737993
  0
ARC
  5
F7
330
1F
100
AcDbEntity
  8
枠
  6
CONTINUOUS
 62
     3
100
AcDbCircle
 10
165.6959819159646
 20
29.88767661026031
 30
0.0
 40
2.08390546932844
100
AcDbArc
 50
77.23143261361693
 51
105.203415964315
  0
ARC
  5
F8
330
1F
100
AcDbEntity
  8
枠
  6
CONTINUOUS
 62
     3
100
AcDbCircle
 10
165.7856682563523
 20
30.55483772306826
 30
0.0
 40
1.41469307725199
100
AcDbArc
 50
3.537639967999379
 51
74.8013566619203
  0
ARC
  5
F9
330
1F
100
AcDbEntity
  8
枠
  6
CONTINUOUS
 62
     3
100
AcDbCircle
 10
164.6010774713298
 20
30.28459740750236
 30
0.0
 40
2.621087502037816
100
AcDbArc
 50
353.0315250986587
 51
7.839947970678348
  0
ARC
  5
FA
330
1F
100
AcDbEntity
  8
枠
  6
CONTINUOUS
 62
     3
100
AcDbCircle
 10
166.8646191134652
 20
30.03022665008564
 30
0.0
 40
0.344117656456258
100
AcDbArc
 50
291.5204897073511
 51
349.3445900274031
  0
ARC
  5
FB
330
1F
100
AcDbEntity
  8
枠
  6
CONTINUOUS
 62
     3
100
AcDbCircle
 10
166.0686610022163
 20
31.62814725377478
 30
0.0
 40
2.128226670545546
100
AcDbArc
 50
282.7195832898965
 51
295.6781112778079
  0
ARC
  5
FC
330
1F
100
AcDbEntity
  8
枠
  6
CONTINUOUS
 62
     3
100
AcDbCircle
 10
160.9706019997142
 20
54.32404059550385
 30
0.0
 40
25.38964818740738
100
AcDbArc
 50
278.8438342053764
 51
282.6649181367123
  0
ARC
  5
FD
330
1F
100
AcDbEntity
  8
枠
  6
CONTINUOUS
 62
     3
100
AcDbCircle
 10
165.4194027735142
 20
26.69216962965731
 30
0.0
 40
2.601873233969814
100
AcDbArc
 50
102.0988446293839
 51
129.1556705448828
  0
ARC
  5
FE
330
1F
100
AcDbEntity
  8
枠
  6
CONTINUOUS
 62
     3
100
AcDbCircle
 10
164.6794475806015
 20
27.6273266500159
 30
0.0
 40
1.40959074111583
100
AcDbArc
 50
129.8344892359069
 51
168.4089447024628
  0
ARC
  5
FF
330
1F
100
AcDbEntity
  8
枠
  6
CONTINUOUS
 62
     3
100
AcDbCircle
 10
164.9815003713983
 20
27.45517425095477
 30
0.0
 40
1.74341874517732
100
AcDbArc
 50
164.8589457925044
 51
187.8495628504518
  0
ARC
  5
100
330
1F
100
AcDbEntity
  8
枠
  6
CONTINUOUS
 62
     3
100
AcDbCircle
 10
164.8183066583084
 20
27.38030043145716
 30
0.0
 40
1.572384694252564
100
AcDbArc
 50
185.9586126338419
 51
224.0091989319859
  0
ARC
  5
101
330
1F
100
AcDbEntity
  8
枠
  6
CONTINUOUS
 62
     3
100
AcDbCircle
 10
164.8912590607361
 20
27.46222209545181
 30
0.0
 40
1.681791315512716
100
AcDbArc
 50
224.289750990011
 51
255.6505938786759
  0
ARC
  5
102
330
1F
100
AcDbEntity
  8
枠
  6
CONTINUOUS
 62
     3
100
AcDbCircle
 10
164.8585626147336
 20
27.03926988774811
 30
0.0
 40
1.26604566418356
100
AcDbArc
 50
252.3384873625213
 51
268.8069976857606
  0
LINE
  5
103
330
1F
100
AcDbEntity
  8
枠
  6
CONTINUOUS
 62
     3
100
AcDbLine
 10
164.8322031466483
 20
25.77349865950805
 30
0.0
 11
165.3803031466485
 21
25.77349865950805
 31
0.0
  0
ARC
  5
104
330
1F
100
AcDbEntity
  8
枠
  6
CONTINUOUS
 62
     3
100
AcDbCircle
 10
165.1322609173386
 20
28.49068052513644
 30
0.0
 40
2.728479840207838
100
AcDbArc
 50
275.2158792069686
 51
319.2336424873511
  0
ARC
  5
105
330
1F
100
AcDbEntity
  8
枠
  6
CONTINUOUS
 62
     3
100
AcDbCircle
 10
168.1663112111647
 20
26.8298518853145
 30
0.0
 40
0.975070268019434
100
AcDbArc
 50
187.1167640402297
 51
216.4860549324747
  0
ARC
  5
106
330
1F
100
AcDbEntity
  8
枠
  6
CONTINUOUS
 62
     3
100
AcDbCircle
 10
168.0587547016276
 20
26.76734913057248
 30
0.0
 40
0.851539101240788
100
AcDbArc
 50
217.4081478714985
 51
264.8118660441384
  0
ARC
  5
107
330
1F
100
AcDbEntity
  8
枠
  6
CONTINUOUS
 62
     3
100
AcDbCircle
 10
168.3799178389102
 20
27.62929025646054
 30
0.0
 40
1.71308124004177
100
AcDbArc
 50
271.2220539293239
 51
292.8159509797653
  0
LINE
  5
108
330
1F
100
AcDbEntity
  8
枠
  6
CONTINUOUS
 62
     3
100
AcDbLine
 10
167.9817531466484
 20
25.91929865950806
 30
0.0
 11
168.4164531466484
 21
25.91929865950806
 31
0.0
  0
LINE
  5
109
330
1F
100
AcDbEntity
  8
枠
  6
CONTINUOUS
 62
     3
100
AcDbLine
 10
169.0442031466485
 20
26.05024865950804
 30
0.0
 11
169.0442031466485
 21
26.36479865950798
 31
0.0
  0
ARC
  5
10A
330
1F
100
AcDbEntity
  8
枠
  6
CONTINUOUS
 62
     3
100
AcDbCircle
 10
168.7648415691577
 20
26.90122377482169
 30
0.0
 40
0.604809718272954
100
AcDbArc
 50
243.6191685566582
 51
297.5097757939563
  0
ARC
  5
10B
330
1F
100
AcDbEntity
  8
枠
  6
CONTINUOUS
 62
     3
100
AcDbCircle
 10
168.8364797889192
 20
26.86605857560937
 30
0.0
 40
0.610377366214772
100
AcDbArc
 50
179.9117548191414
 51
236.1065985968857
  0
ARC
  5
10C
330
1F
100
AcDbEntity
  8
枠
  6
CONTINUOUS
 62
     3
100
AcDbCircle
 10
258.9300271677394
 20
27.88647687863454
 30
0.0
 40
90.70965311731234
100
AcDbArc
 50
178.2526643324597
 51
180.6439560401927
  0
ARC
  5
10D
330
1F
100
AcDbEntity
  8
枠
  6
CONTINUOUS
 62
     3
100
AcDbCircle
 10
166.2141254520542
 20
30.50383251946613
 30
0.0
 40
2.05380815022916
100
AcDbArc
 50
4.148222840814693
 51
92.36000944257292
  0
ARC
  5
10E
330
1F
100
AcDbEntity
  8
枠
  6
CONTINUOUS
 62
     3
100
AcDbCircle
 10
166.053706482509
 20
29.02334577853765
 30
0.0
 40
3.533367030654092
100
AcDbArc
 50
88.77000393305703
 51
128.9068631829044
  0
LINE
  5
10F
330
1F
100
AcDbEntity
  8
枠
  6
CONTINUOUS
 62
     7
100
AcDbLine
 10
39.99999999999976
 20
63.69999999999956
 30
0.0
 11
403.9999999999961
 21
63.69999999999956
 31
0.0
  0
LINE
  5
110
330
1F
100
AcDbEntity
  8
枠
  6
CONTINUOUS
 62
     7
100
AcDbLine
 10
39.99999999999976
 20
19.69999999999999
 30
0.0
 11
403.9999999999961
 21
19.69999999999999
 31
0.0
  0
TEXT
  5
111
330
1F
100
AcDbEntity
  8
枠
  6
CONTINUOUS
 62
     2
100
AcDbText
 10
381.05742192768
 20
52.24455565999955
 30
0.0
 40
8.0
  1
１
 41
1.119999999999996
  7
EXCADSTD
 72
     5
 11
387.4574219276799
 21
52.24455565999955
 31
0.0
100
AcDbText
  0
TEXT
  5
112
330
1F
100
AcDbEntity
  8
枠
  6
CONTINUOUS
 62
     2
100
AcDbText
 10
287.6499999999974
 20
38.3499999999998
 30
0.0
 40
6.872727272727273
  1
図番
  7
EXCADVERT
 72
     3
 11
287.6499999999974
 21
20.3499999999998
 31
0.0
100
AcDbText
  0
TEXT
  5
113
330
1F
100
AcDbEntity
  8
枠
  6
CONTINUOUS
 62
     2
100
AcDbText
 10
287.6499999999974
 20
60.94999999999959
 30
0.0
 40
7.254545454545455
  1
品番
  7
EXCADVERT
 72
     3
 11
287.6499999999974
 21
41.94999999999959
 31
0.0
100
AcDbText
  0
TEXT
  5
114
330
1F
100
AcDbEntity
  8
枠
  6
CONTINUOUS
 62
     2
100
AcDbText
 10
371.8499999999964
 20
60.94999999999959
 30
0.0
 40
7.254545454545455
  1
尺度
  7
EXCADVERT
 72
     3
 11
371.8499999999964
 21
41.94999999999959
 31
0.0
100
AcDbText
  0
TEXT
  5
115
330
1F
100
AcDbEntity
  8
枠
  6
CONTINUOUS
 62
     2
100
AcDbText
 10
43.99999999999959
 20
54.19999999999962
 30
0.0
 40
9.0
  1
製図
 41
1.490632323232323
  7
EXCADSTD
 72
     5
 11
65.08179999999959
 21
54.19999999999962
 31
0.0
100
AcDbText
  0
TEXT
  5
116
330
1F
100
AcDbEntity
  8
枠
  6
CONTINUOUS
 62
     2
100
AcDbText
 10
74.99999999999925
 20
54.19999999999962
 30
0.0
 40
9.0
  1
写図
 41
1.490632323232323
  7
EXCADSTD
 72
     5
 11
96.08179999999925
 21
54.19999999999962
 31
0.0
100
AcDbText
  0
TEXT
  5
117
330
1F
100
AcDbEntity
  8
枠
  6
CONTINUOUS
 62
     2
100
AcDbText
 10
104.999999999999
 20
54.19999999999962
 30
0.0
 40
9.0
  1
検図
 41
1.29620202020202
  7
EXCADSTD
 72
     5
 11
123.331999999999
 21
54.19999999999962
 31
0.0
100
AcDbText
  0
TEXT
  5
118
330
1F
100
AcDbEntity
  8
枠
  6
CONTINUOUS
 62
     2
100
AcDbText
 10
130.9999999999987
 20
54.19999999999962
 30
0.0
 40
9.0
  1
承認
 41
1.29620202020202
  7
EXCADSTD
 72
     5
 11
149.3319999999987
 21
54.19999999999962
 31
0.0
100
AcDbText
  0
TEXT
  5
119
330
1F
100
AcDbEntity
  8
枠
  6
CONTINUOUS
 62
     6
100
AcDbText
 10
76.2999999523161
 20
36.70000000000002
 30
0.0
 40
10.0
  1
川野
 41
1.18991346010815
  7
EXCADSTD
 72
     5
 11
94.99864003972988
 21
36.70000000000002
 31
0.0
100
AcDbText
  0
TEXT
  5
11A
330
1F
100
AcDbEntity
  8
枠
  6
CONTINUOUS
 62
     6
100
AcDbText
 10
45.29999995231638
 20
36.70000000000002
 30
0.0
 40
10.0
  1
鈴木
 41
1.18991346010815
  7
EXCADSTD
 72
     5
 11
63.99864003973017
 21
36.70000000000002
 31
0.0
100
AcDbText
  0
TEXT
  5
11B
330
1F
100
AcDbEntity
  8
枠
  6
CONTINUOUS
 62
     6
100
AcDbText
 10
41.26882313509547
 20
21.59001463999994
 30
0.0
 40
6.0
  1
'00
 41
0.4689784011919448
  7
EXCADSTD
 72
     5
 11
47.56653309395873
 21
21.59001463999994
 31
0.0
100
AcDbText
  0
TEXT
  5
11C
330
1F
100
AcDbEntity
  8
枠
  6
CONTINUOUS
 62
     6
100
AcDbText
 10
52.86382322331023
 20
21.59001463999994
 30
0.0
 40
6.0
  1
11
 41
0.4877419333304126
  7
EXCADSTD
 72
     5
 11
57.18382320423675
 21
21.59001463999994
 31
0.0
100
AcDbText
  0
TEXT
  5
11D
330
1F
100
AcDbEntity
  8
枠
  6
CONTINUOUS
 62
     6
100
AcDbText
 10
63.17882318277894
 20
21.59001463999994
 30
0.0
 40
6.0
  1
28
 41
0.4086486468443998
  7
EXCADSTD
 72
     5
 11
67.49882316370545
 21
21.59001463999994
 31
0.0
100
AcDbText
  0
TEXT
  5
11E
330
1F
100
AcDbEntity
  8
枠
  6
CONTINUOUS
 62
     6
100
AcDbText
 10
72.26882313509513
 20
21.59001463999994
 30
0.0
 40
6.0
  1
'23
 41
0.4689784011919443
  7
EXCADSTD
 72
     5
 11
78.56653309395838
 21
21.59001463999994
 31
0.0
100
AcDbText
  0
TEXT
  5
11F
330
1F
100
AcDbEntity
  8
枠
  6
CONTINUOUS
 62
     6
100
AcDbText
 10
84.81382321138896
 20
21.59001463999994
 30
0.0
 40
6.0
  1
2
 41
0.4683823529411777
  7
EXCADSTD
 72
     5
 11
87.08882321138897
 21
21.59001463999994
 31
0.0
100
AcDbText
  0
TEXT
  5
120
330
1F
100
AcDbEntity
  8
枠
  6
CONTINUOUS
 62
     6
100
AcDbText
 10
94.17882318277866
 20
21.59001463999994
 30
0.0
 40
6.0
  1
13
 41
0.4086486468443998
  7
EXCADSTD
 72
     5
 11
98.49882316370517
 21
21.59001463999994
 31
0.0
100
AcDbText
  0
TEXT
  5
121
330
1F
100
AcDbEntity
  8
枠
  6
CONTINUOUS
 62
     2
100
AcDbText
 10
311.6999999999968
 20
51.89999999999964
 30
0.0
 40
10.0
  1
ＪＵ６Ａ
 41
1.126086956521739
  7
EXCADSTD
 72
     5
 11
348.6999999999968
 21
51.89999999999964
 31
0.0
100
AcDbText
  0
TEXT
  5
122
330
1F
100
AcDbEntity
  8
枠
  6
CONTINUOUS
 62
     2
100
AcDbText
 10
311.6999999999968
 20
41.89999999999964
 30
0.0
 40
10.0
  1
ＪＵ６
 41
1.152941176470588
  7
EXCADSTD
 72
     5
 11
339.6999999999968
 21
41.89999999999964
 31
0.0
100
AcDbText
  0
TEXT
  5
123
330
1F
100
AcDbEntity
  8
枠
  6
CONTINUOUS
 62
     2
100
AcDbText
 10
391.9058594753636
 20
43.3697692799997
 30
0.0
 40
8.0
  1
２
 41
1.119999999999996
  7
EXCADSTD
 72
     5
 11
398.3058594753635
 21
43.3697692799997
 31
0.0
100
AcDbText
  0
TEXT
  5
124
330
1F
100
AcDbEntity
  8
枠
  6
CONTINUOUS
 62
     2
100
AcDbText
 10
182.0999999999979
 20
46.29999999999967
 30
0.0
 40
10.0
  1
小便器洗浄弁 １３
 41
0.9981481481481478
  7
EXCADSTD
 72
     5
 11
259.0999999999979
 21
46.29999999999967
 31
0.0
100
AcDbText
  0
LINE
  5
125
330
1F
100
AcDbEntity
  8
枠
  6
CONTINUOUS
 62
     7
100
AcDbLine
 10
403.9999999999961
 20
19.69999999999999
 30
0.0
 11
403.9999999999961
 21
579.6999999999945
 31
0.0
  0
LINE
  5
126
330
1F
100
AcDbEntity
  8
枠
  6
CONTINUOUS
 62
     7
100
AcDbLine
 10
39.99999999999977
 20
579.6999999999945
 30
0.0
 11
403.999999999996
 21
579.6999999999945
 31
0.0
  0
TEXT
  5
127
330
1F
100
AcDbEntity
  8
枠
  6
CONTINUOUS
 62
     2
100
AcDbText
 10
182.0
 20
570.9000000476838
 30
0.0
 40
7.599999904632568
  1
番号
 41
1.381478486234791
  7
EXCADSTD
 72
     5
 11
198.4988
 21
570.9000000476838
 31
0.0
100
AcDbText
  0
TEXT
  5
128
330
1F
100
AcDbEntity
  8
枠
  6
CONTINUOUS
 62
     2
100
AcDbText
 10
274.0
 20
570.9000000476838
 30
0.0
 40
7.599999904632568
  1
材質
 41
2.762956972469582
  7
EXCADSTD
 72
     5
 11
306.9976
 21
570.9000000476838
 31
0.0
100
AcDbText
  0
TEXT
  5
129
330
1F
100
AcDbEntity
  8
枠
  6
CONTINUOUS
 62
     2
100
AcDbText
 10
324.0
 20
570.9000000476838
 30
0.0
 40
7.599999904632568
  1
個数
 41
1.381478486234794
  7
EXCADSTD
 72
     5
 11
340.4988
 21
570.9000000476838
 31
0.0
100
AcDbText
  0
TEXT
  5
12A
330
1F
100
AcDbEntity
  8
枠
  6
CONTINUOUS
 62
     2
100
AcDbText
 10
356.0
 20
570.9000000476838
 30
0.0
 40
7.599999904632568
  1
備考
 41
2.762956972469582
  7
EXCADSTD
 72
     5
 11
388.9976
 21
570.9000000476838
 31
0.0
100
AcDbText
  0
TEXT
  5
12B
330
1F
100
AcDbEntity
  8
枠
  6
CONTINUOUS
 62
     2
100
AcDbText
 10
187.0
 20
560.9000000476838
 30
0.0
 40
7.599999904632568
  1
１
 41
1.178947383214894
  7
EXCADSTD
 72
     5
 11
193.4
 21
560.9000000476838
 31
0.0
100
AcDbText
  0
TEXT
  5
12C
330
1F
100
AcDbEntity
  8
枠
  6
CONTINUOUS
 62
     2
100
AcDbText
 10
204.8
 20
560.9000000476838
 30
0.0
 40
7.599999904632568
  1
本体
 41
1.227980876653149
  7
EXCADSTD
 72
     5
 11
219.4656
 21
560.9000000476838
 31
0.0
100
AcDbText
  0
TEXT
  5
12D
330
1F
100
AcDbEntity
  8
枠
  6
CONTINUOUS
 62
     2
100
AcDbText
 10
264.8
 20
560.9000000476838
 30
0.0
 40
7.599999904632568
  1
青銅鋳物
 41
1.28146454697271
  7
EXCADSTD
 72
     5
 11
296.8
 21
560.9000000476838
 31
0.0
100
AcDbText
  0
TEXT
  5
12E
330
1F
100
AcDbEntity
  8
枠
  6
CONTINUOUS
 62
     2
100
AcDbText
 10
329.0
 20
560.9000000476838
 30
0.0
 40
7.599999904632568
  1
１
 41
1.178947383214888
  7
EXCADSTD
 72
     5
 11
335.4
 21
560.9000000476838
 31
0.0
100
AcDbText
  0
TEXT
  5
12F
330
1F
100
AcDbEntity
  8
枠
  6
CONTINUOUS
 62
     2
100
AcDbText
 10
187.0
 20
550.9000000476838
 30
0.0
 40
7.599999904632568
  1
２
 41
1.178947383214894
  7
EXCADSTD
 72
     5
 11
193.4
 21
550.9000000476838
 31
0.0
100
AcDbText
  0
TEXT
  5
130
330
1F
100
AcDbEntity
  8
枠
  6
CONTINUOUS
 62
     2
100
AcDbText
 10
204.8
 20
550.9000000476838
 30
0.0
 40
7.599999904632568
  1
押ボタン
 41
1.28146454697271
  7
EXCADSTD
 72
     5
 11
236.8
 21
550.9000000476838
 31
0.0
100
AcDbText
  0
TEXT
  5
131
330
1F
100
AcDbEntity
  8
枠
  6
CONTINUOUS
 62
     2
100
AcDbText
 10
329.0
 20
550.9000000476838
 30
0.0
 40
7.599999904632568
  1
１
 41
1.178947383214888
  7
EXCADSTD
 72
     5
 11
335.4
 21
550.9000000476838
 31
0.0
100
AcDbText
  0
TEXT
  5
132
330
1F
100
AcDbEntity
  8
枠
  6
CONTINUOUS
 62
     2
100
AcDbText
 10
346.8
 20
560.9000000476838
 30
0.0
 40
7.599999904632568
  1
クロムメッキ
 41
1.263157910587385
  7
EXCADSTD
 72
     5
 11
394.8
 21
560.9000000476838
 31
0.0
100
AcDbText
  0
TEXT
  5
133
330
1F
100
AcDbEntity
  8
枠
  6
CONTINUOUS
 62
     2
100
AcDbText
 10
264.8
 20
550.9000000476838
 30
0.0
 40
7.599999904632568
  1
黄銅棒
 41
1.300309613839955
  7
EXCADSTD
 72
     5
 11
288.8
 21
550.9000000476838
 31
0.0
100
AcDbText
  0
TEXT
  5
134
330
1F
100
AcDbEntity
  8
枠
  6
CONTINUOUS
 62
     2
100
AcDbText
 10
346.8
 20
550.9000000476838
 30
0.0
 40
7.599999904632568
  1
クロムメッキ
 41
1.263157910587385
  7
EXCADSTD
 72
     5
 11
394.8
 21
550.9000000476838
 31
0.0
100
AcDbText
  0
TEXT
  5
135
330
1F
100
AcDbEntity
  8
枠
  6
CONTINUOUS
 62
     2
100
AcDbText
 10
187.0
 20
540.9000000476838
 30
0.0
 40
7.599999904632568
  1
３
 41
1.178947383214894
  7
EXCADSTD
 72
     5
 11
193.4
 21
540.9000000476838
 31
0.0
100
AcDbText
  0
TEXT
  5
136
330
1F
100
AcDbEntity
  8
枠
  6
CONTINUOUS
 62
     2
100
AcDbText
 10
204.8
 20
540.9000000476838
 30
0.0
 40
7.599999904632568
  1
チャッキスピンドル
 41
0.9731876984085202
  7
EXCADSTD
 72
     5
 11
260.8
 21
540.9000000476838
 31
0.0
100
AcDbText
  0
TEXT
  5
137
330
1F
100
AcDbEntity
  8
枠
  6
CONTINUOUS
 62
     2
100
AcDbText
 10
329.0
 20
540.9000000476838
 30
0.0
 40
7.599999904632568
  1
１
 41
1.178947383214888
  7
EXCADSTD
 72
     5
 11
335.4
 21
540.9000000476838
 31
0.0
100
AcDbText
  0
TEXT
  5
138
330
1F
100
AcDbEntity
  8
枠
  6
CONTINUOUS
 62
     2
100
AcDbText
 10
187.0
 20
530.9000000476838
 30
0.0
 40
7.599999904632568
  1
４
 41
1.178947383214894
  7
EXCADSTD
 72
     5
 11
193.4
 21
530.9000000476838
 31
0.0
100
AcDbText
  0
TEXT
  5
139
330
1F
100
AcDbEntity
  8
枠
  6
CONTINUOUS
 62
     2
100
AcDbText
 10
204.8
 20
530.9000000476838
 30
0.0
 40
7.599999904632568
  1
調節スピンドル
 41
1.258023122332965
  7
EXCADSTD
 72
     5
 11
260.8
 21
530.9000000476838
 31
0.0
100
AcDbText
  0
TEXT
  5
13A
330
1F
100
AcDbEntity
  8
枠
  6
CONTINUOUS
 62
     2
100
AcDbText
 10
329.0
 20
530.9000000476838
 30
0.0
 40
7.599999904632568
  1
１
 41
1.178947383214888
  7
EXCADSTD
 72
     5
 11
335.4
 21
530.9000000476838
 31
0.0
100
AcDbText
  0
TEXT
  5
13B
330
1F
100
AcDbEntity
  8
枠
  6
CONTINUOUS
 62
     2
100
AcDbText
 10
264.8
 20
530.9000000476838
 30
0.0
 40
7.599999904632568
  1
黄銅棒
 41
1.300309613839955
  7
EXCADSTD
 72
     5
 11
288.8
 21
530.9000000476838
 31
0.0
100
AcDbText
  0
TEXT
  5
13C
330
1F
100
AcDbEntity
  8
枠
  6
CONTINUOUS
 62
     2
100
AcDbText
 10
346.8
 20
540.9000000476838
 30
0.0
 40
7.599999904632568
  1
クロムメッキ
 41
1.263157910587385
  7
EXCADSTD
 72
     5
 11
394.8
 21
540.9000000476838
 31
0.0
100
AcDbText
  0
TEXT
  5
13D
330
1F
100
AcDbEntity
  8
枠
  6
CONTINUOUS
 62
     2
100
AcDbText
 10
187.0
 20
520.9000000476838
 30
0.0
 40
7.599999904632568
  1
５
 41
1.178947383214894
  7
EXCADSTD
 72
     5
 11
193.4
 21
520.9000000476838
 31
0.0
100
AcDbText
  0
TEXT
  5
13E
330
1F
100
AcDbEntity
  8
枠
  6
CONTINUOUS
 62
     2
100
AcDbText
 10
264.8
 20
540.9000000476838
 30
0.0
 40
7.599999904632568
  1
黄銅棒
 41
1.300309613839955
  7
EXCADSTD
 72
     5
 11
288.8
 21
540.9000000476838
 31
0.0
100
AcDbText
  0
TEXT
  5
13F
330
1F
100
AcDbEntity
  8
枠
  6
CONTINUOUS
 62
     2
100
AcDbText
 10
346.8
 20
530.9000000476838
 30
0.0
 40
7.599999904632568
  1
クロムメッキ
 41
1.263157910587385
  7
EXCADSTD
 72
     5
 11
394.8
 21
530.9000000476838
 31
0.0
100
AcDbText
  0
TEXT
  5
140
330
1F
100
AcDbEntity
  8
枠
  6
CONTINUOUS
 62
     2
100
AcDbText
 10
187.0
 20
510.9000000476838
 30
0.0
 40
7.599999904632568
  1
６
 41
1.178947383214894
  7
EXCADSTD
 72
     5
 11
193.4
 21
510.9000000476838
 31
0.0
100
AcDbText
  0
TEXT
  5
141
330
1F
100
AcDbEntity
  8
枠
  6
CONTINUOUS
 62
     2
100
AcDbText
 10
204.8
 20
520.9000000476838
 30
0.0
 40
7.599999904632568
  1
ワン座
 41
1.300309613839955
  7
EXCADSTD
 72
     5
 11
228.8
 21
520.9000000476838
 31
0.0
100
AcDbText
  0
TEXT
  5
142
330
1F
100
AcDbEntity
  8
枠
  6
CONTINUOUS
 62
     2
100
AcDbText
 10
264.8
 20
520.9000000476838
 30
0.0
 40
7.599999904632568
  1
ステンレス
 41
1.270417438809152
  7
EXCADSTD
 72
     5
 11
304.8
 21
520.9000000476838
 31
0.0
100
AcDbText
  0
TEXT
  5
143
330
1F
100
AcDbEntity
  8
枠
  6
CONTINUOUS
 62
     2
100
AcDbText
 10
329.0
 20
520.9000000476838
 30
0.0
 40
7.599999904632568
  1
１
 41
1.178947383214888
  7
EXCADSTD
 72
     5
 11
335.4
 21
520.9000000476838
 31
0.0
100
AcDbText
  0
TEXT
  5
144
330
1F
100
AcDbEntity
  8
枠
  6
CONTINUOUS
 62
     2
100
AcDbText
 10
187.0
 20
500.9000000476838
 30
0.0
 40
7.599999904632568
  1
７
 41
1.178947383214894
  7
EXCADSTD
 72
     5
 11
193.4
 21
500.9000000476838
 31
0.0
100
AcDbText
  0
TEXT
  5
145
330
1F
100
AcDbEntity
  8
枠
  6
CONTINUOUS
 62
     2
100
AcDbText
 10
204.8
 20
510.9000000476838
 30
0.0
 40
7.599999904632568
  1
パイプ
 41
1.300309613839955
  7
EXCADSTD
 72
     5
 11
228.8
 21
510.9000000476838
 31
0.0
100
AcDbText
  0
TEXT
  5
146
330
1F
100
AcDbEntity
  8
枠
  6
CONTINUOUS
 62
     2
100
AcDbText
 10
329.0
 20
510.9000000476838
 30
0.0
 40
7.599999904632568
  1
１
 41
1.178947383214888
  7
EXCADSTD
 72
     5
 11
335.4
 21
510.9000000476838
 31
0.0
100
AcDbText
  0
TEXT
  5
147
330
1F
100
AcDbEntity
  8
枠
  6
CONTINUOUS
 62
     2
100
AcDbText
 10
264.8
 20
510.9000000476838
 30
0.0
 40
7.599999904632568
  1
銅管
 41
1.227980876653147
  7
EXCADSTD
 72
     5
 11
279.4656
 21
510.9000000476838
 31
0.0
100
AcDbText
  0
TEXT
  5
148
330
1F
100
AcDbEntity
  8
枠
  6
CONTINUOUS
 62
     2
100
AcDbText
 10
204.8
 20
500.9000000476838
 30
0.0
 40
7.599999904632568
  1
ワン座
 41
1.300309613839955
  7
EXCADSTD
 72
     5
 11
228.8
 21
500.9000000476838
 31
0.0
100
AcDbText
  0
TEXT
  5
149
330
1F
100
AcDbEntity
  8
枠
  6
CONTINUOUS
 62
     2
100
AcDbText
 10
329.0
 20
500.9000000476838
 30
0.0
 40
7.599999904632568
  1
１
 41
1.178947383214888
  7
EXCADSTD
 72
     5
 11
335.4
 21
500.9000000476838
 31
0.0
100
AcDbText
  0
TEXT
  5
14A
330
1F
100
AcDbEntity
  8
枠
  6
CONTINUOUS
 62
     2
100
AcDbText
 10
264.8
 20
500.9000000476838
 30
0.0
 40
7.599999904632568
  1
黄銅板
 41
1.300309613839955
  7
EXCADSTD
 72
     5
 11
288.8
 21
500.9000000476838
 31
0.0
100
AcDbText
  0
TEXT
  5
14B
330
1F
100
AcDbEntity
  8
枠
  6
CONTINUOUS
 62
     2
100
AcDbText
 10
346.8
 20
510.9000000476838
 30
0.0
 40
7.599999904632568
  1
クロムメッキ
 41
1.263157910587385
  7
EXCADSTD
 72
     5
 11
394.8
 21
510.9000000476838
 31
0.0
100
AcDbText
  0
TEXT
  5
14C
330
1F
100
AcDbEntity
  8
枠
  6
CONTINUOUS
 62
     2
100
AcDbText
 10
346.8
 20
500.9000000476838
 30
0.0
 40
7.599999904632568
  1
クロムメッキ
 41
1.263157910587385
  7
EXCADSTD
 72
     5
 11
394.8
 21
500.9000000476838
 31
0.0
100
AcDbText
  0
TEXT
  5
14D
330
1F
100
AcDbEntity
  8
枠
  6
CONTINUOUS
 62
     2
100
AcDbText
 10
214.0
 20
570.9000000476838
 30
0.0
 40
7.599999904632568
  1
品名
 41
2.762956972469585
  7
EXCADSTD
 72
     5
 11
246.9976
 21
570.9000000476838
 31
0.0
100
AcDbText
  0
LINE
  5
14E
330
1F
100
AcDbEntity
  8
枠
  6
CONTINUOUS
 62
     6
100
AcDbLine
 10
157.7771031466486
 20
23.35834865950801
 30
0.0
 11
157.5300531466486
 21
24.11029865950798
 31
0.0
  0
LINE
  5
14F
330
1F
100
AcDbEntity
  8
枠
  6
CONTINUOUS
 62
     6
100
AcDbLine
 10
153.9999999999986
 20
63.69999999999956
 30
0.0
 11
153.9999999999986
 21
19.69999999999999
 31
0.0
  0
LINE
  5
150
330
1F
100
AcDbEntity
  8
枠
  6
CONTINUOUS
 62
     6
100
AcDbLine
 10
101.9999999999991
 20
63.69999999999956
 30
0.0
 11
101.9999999999991
 21
19.69999999999999
 31
0.0
  0
LINE
  5
151
330
1F
100
AcDbEntity
  8
枠
  6
CONTINUOUS
 62
     6
100
AcDbLine
 10
70.99999999999942
 20
63.69999999999956
 30
0.0
 11
70.99999999999942
 21
19.69999999999999
 31
0.0
  0
CIRCLE
  5
152
330
1F
100
AcDbEntity
  8
枠
  6
CONTINUOUS
 62
     6
100
AcDbCircle
 10
49.99999999999964
 20
24.69999999999993
 30
0.0
 40
0.200000039999998
  0
CIRCLE
  5
153
330
1F
100
AcDbEntity
  8
枠
  6
CONTINUOUS
 62
     6
100
AcDbCircle
 10
59.99999999999953
 20
24.69999999999993
 30
0.0
 40
0.200000039999998
  0
CIRCLE
  5
154
330
1F
100
AcDbEntity
  8
枠
  6
CONTINUOUS
 62
     6
100
AcDbCircle
 10
80.9999999999993
 20
24.69999999999993
 30
0.0
 40
0.200000039999998
  0
CIRCLE
  5
155
330
1F
100
AcDbEntity
  8
枠
  6
CONTINUOUS
 62
     6
100
AcDbCircle
 10
90.99999999999919
 20
24.69999999999993
 30
0.0
 40
0.200000039999998
  0
LINE
  5
156
330
1F
100
AcDbEntity
  8
枠
  6
CONTINUOUS
 62
     6
100
AcDbLine
 10
127.9999999999989
 20
63.69999999999956
 30
0.0
 11
127.9999999999989
 21
19.69999999999999
 31
0.0
  0
LINE
  5
157
330
1F
100
AcDbEntity
  8
枠
  6
EXLTYPE2
 62
     6
100
AcDbLine
 10
39.99999999999976
 20
29.69999999999993
 30
0.0
 11
101.9999999999991
 21
29.69999999999993
 31
0.0
  0
LINE
  5
158
330
1F
100
AcDbEntity
  8
枠
  6
CONTINUOUS
 62
     6
100
AcDbLine
 10
403.9999999999961
 20
39.69999999999982
 30
0.0
 11
153.9999999999986
 21
39.69999999999982
 31
0.0
  0
LINE
  5
159
330
1F
100
AcDbEntity
  8
枠
  6
CONTINUOUS
 62
     6
100
AcDbLine
 10
375.9999999999963
 20
63.69999999999956
 30
0.0
 11
375.9999999999963
 21
39.69999999999982
 31
0.0
  0
LINE
  5
15A
330
1F
100
AcDbEntity
  8
枠
  6
CONTINUOUS
 62
     6
100
AcDbLine
 10
291.9999999999972
 20
63.69999999999956
 30
0.0
 11
291.9999999999972
 21
19.69999999999999
 31
0.0
  0
LINE
  5
15B
330
1F
100
AcDbEntity
  8
枠
  6
CONTINUOUS
 62
     6
100
AcDbLine
 10
281.9999999999973
 20
63.69999999999956
 30
0.0
 11
281.9999999999973
 21
19.69999999999999
 31
0.0
  0
LINE
  5
15C
330
1F
100
AcDbEntity
  8
枠
  6
CONTINUOUS
 62
     6
100
AcDbLine
 10
382.5307617199964
 20
44.30058593999973
 30
0.0
 11
397.9987792999961
 21
60.03996581999957
 31
0.0
  0
LINE
  5
15D
330
1F
100
AcDbEntity
  8
枠
  6
CONTINUOUS
 62
     6
100
AcDbLine
 10
365.9999999999964
 20
63.69999999999956
 30
0.0
 11
365.9999999999964
 21
39.69999999999982
 31
0.0
  0
LINE
  5
15E
330
1F
100
AcDbEntity
  8
枠
  6
CONTINUOUS
 62
     6
100
AcDbLine
 10
39.99999999999976
 20
53.69999999999965
 30
0.0
 11
153.9999999999986
 21
53.69999999999965
 31
0.0
  0
LINE
  5
15F
330
1F
100
AcDbEntity
  8
枠
  6
CONTINUOUS
 62
     6
100
AcDbLine
 10
344.0
 20
579.7
 30
0.0
 11
344.0
 21
499.7
 31
0.0
  0
LINE
  5
160
330
1F
100
AcDbEntity
  8
枠
  6
CONTINUOUS
 62
     6
100
AcDbLine
 10
322.0
 20
579.7
 30
0.0
 11
322.0
 21
499.7
 31
0.0
  0
LINE
  5
161
330
1F
100
AcDbEntity
  8
枠
  6
CONTINUOUS
 62
     6
100
AcDbLine
 10
262.0
 20
579.7
 30
0.0
 11
262.0
 21
499.7
 31
0.0
  0
LINE
  5
162
330
1F
100
AcDbEntity
  8
枠
  6
CONTINUOUS
 62
     6
100
AcDbLine
 10
202.0
 20
579.7
 30
0.0
 11
202.0
 21
499.7
 31
0.0
  0
LINE
  5
163
330
1F
100
AcDbEntity
  8
枠
  6
CONTINUOUS
 62
     6
100
AcDbLine
 10
180.0
 20
579.7
 30
0.0
 11
180.0
 21
499.7
 31
0.0
  0
LINE
  5
164
330
1F
100
AcDbEntity
  8
枠
  6
CONTINUOUS
 62
     6
100
AcDbLine
 10
180.0
 20
569.7
 30
0.0
 11
404.0
 21
569.7
 31
0.0
  0
LINE
  5
165
330
1F
100
AcDbEntity
  8
枠
  6
CONTINUOUS
 62
     6
100
AcDbLine
 10
180.0
 20
559.7
 30
0.0
 11
404.0
 21
559.7
 31
0.0
  0
LINE
  5
166
330
1F
100
AcDbEntity
  8
枠
  6
CONTINUOUS
 62
     6
100
AcDbLine
 10
180.0
 20
549.7
 30
0.0
 11
404.0
 21
549.7
 31
0.0
  0
LINE
  5
167
330
1F
100
AcDbEntity
  8
枠
  6
CONTINUOUS
 62
     6
100
AcDbLine
 10
180.0
 20
539.7
 30
0.0
 11
404.0
 21
539.7
 31
0.0
  0
LINE
  5
168
330
1F
100
AcDbEntity
  8
枠
  6
CONTINUOUS
 62
     6
100
AcDbLine
 10
180.0
 20
529.7
 30
0.0
 11
404.0
 21
529.7
 31
0.0
  0
LINE
  5
169
330
1F
100
AcDbEntity
  8
枠
  6
CONTINUOUS
 62
     6
100
AcDbLine
 10
180.0
 20
519.7
 30
0.0
 11
404.0
 21
519.7
 31
0.0
  0
LINE
  5
16A
330
1F
100
AcDbEntity
  8
枠
  6
CONTINUOUS
 62
     6
100
AcDbLine
 10
180.0
 20
509.7
 30
0.0
 11
404.0
 21
509.7
 31
0.0
  0
LINE
  5
16B
330
1F
100
AcDbEntity
  8
枠
  6
CONTINUOUS
 62
     6
100
AcDbLine
 10
180.0
 20
499.7
 30
0.0
 11
404.0
 21
499.7
 31
0.0
  0
TEXT
  5
16C
330
1F
100
AcDbEntity
  8
枠
  6
CONTINUOUS
 62
     7
100
AcDbText
 10
310.8499999999967
 20
22.84999999999991
 30
0.0
 40
14.0
  1
３４３２００
 41
1.057142857142857
  7
EXCADSTD
 72
     5
 11
384.8499999999967
 21
22.84999999999991
 31
0.0
100
AcDbText
  0
TEXT
  5
16D
330
1F
100
AcDbEntity
  8
枠
  6
CONTINUOUS
 62
     6
100
AcDbText
 10
104.7999999523161
 20
36.70000000000002
 30
0.0
 40
10.0
  1
椎葉
 41
1.18991346010815
  7
EXCADSTD
 72
     5
 11
123.4986400397299
 21
36.70000000000002
 31
0.0
100
AcDbText
  0
TEXT
  5
16E
330
1F
100
AcDbEntity
  8
枠
  6
CONTINUOUS
 62
     6
100
AcDbText
 10
130.7999999523161
 20
36.70000000000002
 30
0.0
 40
10.0
  1
椎葉
 41
1.18991346010815
  7
EXCADSTD
 72
     5
 11
149.4986400397299
 21
36.70000000000002
 31
0.0
100
AcDbText
  0
TEXT
  5
16F
330
1F
100
AcDbEntity
  8
枠
  6
CONTINUOUS
 62
     2
100
AcDbText
 10
329.2
 20
489.3000000476837
 30
0.0
 40
7.599999904632568
  1
※本体ＬＩＸＩＬ製
 41
1.25124132652524
  7
EXCADSTD
 72
     5
 11
401.2
 21
489.3000000476837
 31
0.0
100
AcDbText
  0
LINE
  5
170
330
1F
100
AcDbEntity
  8
図_寸法
  6
CONTINUOUS
 62
     2
100
AcDbLine
 10
89.5
 20
362.5
 30
0.0
 11
89.5
 21
368.78531
 31
0.0
  0
ARC
  5
171
330
1F
100
AcDbEntity
  8
図_寸法
  6
CONTINUOUS
 62
     2
100
AcDbCircle
 10
91.0
 20
368.78531
 30
0.0
 40
1.5
100
AcDbArc
 50
102.0003
 51
180.0
  0
ARC
  5
172
330
1F
100
AcDbEntity
  8
図_寸法
  6
CONTINUOUS
 62
     2
100
AcDbCircle
 10
91.0
 20
362.5
 30
0.0
 40
1.5
100
AcDbArc
 50
180.0
 51
270.0000000000002
  0
LEADER
  5
173
330
1F
100
AcDbEntity
  8
図_寸法
  6
CONTINUOUS
 62
     3
100
AcDbLeader
  3
ISO-25
 76
     2
 10
222.0
 20
350.6187275727
 30
0.0
 10
187.2206843361
 20
364.9111132535
 30
0.0
1001
ACAD
1000
DSTYLE
1002
{
1070
     5
1000
EX_NORM
1070
    41
1040
6.0
1070
   341
1005
4A
1002
}
  0
TEXT
  5
174
330
1F
100
AcDbEntity
  8
図_寸法
  6
CONTINUOUS
 62
     2
100
AcDbText
 10
173.8
 20
362.9
 30
0.0
 40
10.0
  1
１
 41
1.343999999999999
  7
EXCADSTD
 72
     5
 11
183.4
 21
362.9
 31
0.0
100
AcDbText
  0
CIRCLE
  5
175
330
1F
100
AcDbEntity
  8
図_寸法
  6
CONTINUOUS
 62
     3
100
AcDbCircle
 10
179.8
 20
367.9
 30
0.0
 40
8.0
  0
LEADER
  5
176
330
1F
100
AcDbEntity
  8
図_寸法
  6
CONTINUOUS
 62
     3
100
AcDbLeader
  3
ISO-25
 76
     2
 10
192.7382322869
 20
330.811136387
 30
0.0
 10
184.6289934871
 20
341.521848081
 30
0.0
1001
ACAD
1000
DSTYLE
1002
{
1070
     5
1000
EX_NORM
1070
    41
1040
6.0
1070
   341
1005
4A
1002
}
  0
CIRCLE
  5
177
330
1F
100
AcDbEntity
  8
図_寸法
  6
CONTINUOUS
 62
     3
100
AcDbCircle
 10
179.8
 20
347.9
 30
0.0
 40
8.0
  0
LEADER
  5
178
330
1F
100
AcDbEntity
  8
図_寸法
  6
CONTINUOUS
 62
     3
100
AcDbLeader
  3
ISO-25
 76
     2
 10
246.950045
 20
387.5
 30
0.0
 10
250.6904993639
 20
401.1831348939
 30
0.0
1001
ACAD
1000
DSTYLE
1002
{
1070
     5
1000
EX_NORM
1070
    41
1040
6.0
1070
   341
1005
4A
1002
}
  0
CIRCLE
  5
179
330
1F
100
AcDbEntity
  8
図_寸法
  6
CONTINUOUS
 62
     3
100
AcDbCircle
 10
252.8
 20
408.9
 30
0.0
 40
8.0
  0
LEADER
  5
17A
330
1F
100
AcDbEntity
  8
図_寸法
  6
CONTINUOUS
 62
     3
100
AcDbLeader
  3
ISO-25
 76
     2
 10
235.56
 20
222.6141402458
 30
0.0
 10
219.036205144
 20
228.4886461464
 30
0.0
1001
ACAD
1000
DSTYLE
1002
{
1070
     5
1000
EX_NORM
1070
    41
1040
6.0
1070
   341
1005
4A
1002
}
  0
CIRCLE
  5
17B
330
1F
100
AcDbEntity
  8
図_寸法
  6
CONTINUOUS
 62
     3
100
AcDbCircle
 10
211.8
 20
231.9
 30
0.0
 40
8.0
  0
LEADER
  5
17C
330
1F
100
AcDbEntity
  8
図_寸法
  6
CONTINUOUS
 62
     3
100
AcDbLeader
  3
ISO-25
 76
     2
 10
289.6384717242
 20
229.7442650164
 30
0.0
 10
314.6512605822
 20
242.3089660631
 30
0.0
1001
ACAD
1000
DSTYLE
1002
{
1070
     5
1000
EX_NORM
1070
    41
1040
6.0
1070
   341
1005
4A
1002
}
  0
TEXT
  5
17D
330
1F
100
AcDbEntity
  8
図_寸法
  6
CONTINUOUS
 62
     2
100
AcDbText
 10
315.8
 20
240.9
 30
0.0
 40
10.0
  1
６
 41
1.344000000000003
  7
EXCADSTD
 72
     5
 11
325.4
 21
240.9
 31
0.0
100
AcDbText
  0
CIRCLE
  5
17E
330
1F
100
AcDbEntity
  8
図_寸法
  6
CONTINUOUS
 62
     3
100
AcDbCircle
 10
321.8
 20
245.9
 30
0.0
 40
8.0
  0
LEADER
  5
17F
330
1F
100
AcDbEntity
  8
図_寸法
  6
CONTINUOUS
 62
     3
100
AcDbLeader
  3
ISO-25
 76
     2
 10
299.7205381133
 20
202.4140869151
 30
0.0
 10
316.3203637229
 20
220.0713135038
 30
0.0
1001
ACAD
1000
DSTYLE
1002
{
1070
     5
1000
EX_NORM
1070
    41
1040
6.0
1070
   341
1005
4A
1002
}
  0
CIRCLE
  5
180
330
1F
100
AcDbEntity
  8
図_寸法
  6
CONTINUOUS
 62
     3
100
AcDbCircle
 10
321.8
 20
225.9
 30
0.0
 40
8.0
  0
LEADER
  5
181
330
1F
100
AcDbEntity
  8
図_寸法
  6
CONTINUOUS
 62
     3
100
AcDbLeader
  3
ISO-25
 76
     2
 10
284.0981979725
 20
375.7072831946
 30
0.0
 10
275.377813843
 20
401.3266998085
 30
0.0
1001
ACAD
1000
DSTYLE
1002
{
1070
     5
1000
EX_NORM
1070
    41
1040
6.0
1070
   341
1005
4A
1002
}
  0
CIRCLE
  5
182
330
1F
100
AcDbEntity
  8
図_寸法
  6
CONTINUOUS
 62
     3
100
AcDbCircle
 10
272.8
 20
408.9
 30
0.0
 40
8.0
  0
LEADER
  5
183
330
1F
100
AcDbEntity
  8
図_寸法
  6
CONTINUOUS
 62
     3
100
AcDbLeader
  3
ISO-25
 76
     2
 10
313.7114974059
 20
364.1881039534
 30
0.0
 10
296.1891974369
 20
401.6533910873
 30
0.0
1001
ACAD
1000
DSTYLE
1002
{
1070
     5
1000
EX_NORM
1070
    41
1040
6.0
1070
   341
1005
4A
1002
}
  0
CIRCLE
  5
184
330
1F
100
AcDbEntity
  8
図_寸法
  6
CONTINUOUS
 62
     3
100
AcDbCircle
 10
292.8
 20
408.9
 30
0.0
 40
8.0
  0
LEADER
  5
185
330
1F
100
AcDbEntity
  8
図_寸法
  6
CONTINUOUS
 62
     3
100
AcDbLeader
  3
ISO-25
 76
     3
 10
324.900065
 20
351.4775
 30
0.0
 10
333.954501117
 20
367.1602433886
 30
0.0
 10
367.6
 20
367.1602433886
 30
0.0
1001
ACAD
1000
DSTYLE
1002
{
1070
     5
1000
EX_NORM
1070
    41
1040
6.0
1070
   341
1005
4A
1002
}
  0
TEXT
  5
186
330
1F
100
AcDbEntity
  8
図_寸法
  6
CONTINUOUS
 62
     2
100
AcDbText
 10
333.6
 20
369.1602433886
 30
0.0
 40
8.0
  1
ＰＪ１／２
 41
0.9655172413793105
  7
EXCADSTD
 72
     5
 11
365.6
 21
369.1602433886
 31
0.0
100
AcDbText
  0
DIMENSION
  5
188
330
1F
100
AcDbEntity
  8
図_寸法
  6
CONTINUOUS
 62
     3
100
AcDbDimension
  2
*D15
 10
283.5
 20
129.0000024227
 30
0.0
 11
263.5
 21
135.0000024227
 31
0.0
 70
   160
  1
40
  3
ISO-25
100
AcDbAlignedDimension
 13
243.5
 23
139.0000024227
 33
0.0
 14
283.5
 24
139.0000024227
 34
0.0
100
AcDbRotatedDimension
1001
ACAD
1000
DSTYLE
1002
{
1070
   270
1070
     2
1070
     6
1000
EX_NORM
1070
     7
1000
EX_NORM
1070
    41
1040
6.0
1070
    42
1040
1.0
1070
    44
1040
2.0
1070
    73
1070
     0
1070
    74
1070
     0
1070
    75
1070
     0
1070
    76
1070
     0
1070
    77
1070
     1
1070
    78
1070
     8
1070
   140
1040
8.0
1070
   147
1040
0.0
1070
   173
1070
     1
1070
   176
1070
     3
1070
   177
1070
     3
1070
   178
1070
     2
1070
   271
1070
     2
1070
   277
1070
     2
1070
   279
1070
     2
1070
   280
1070
     0
1070
   287
1070
     5
1070
   340
1005
187
1002
}
  0
DIMENSION
  5
196
330
1F
100
AcDbEntity
  8
図_寸法
  6
CONTINUOUS
 62
     3
100
AcDbDimension
  2
*D16
 10
235.56
 20
198.4
 30
0.0
 11
212.56
 21
204.4
 31
0.0
 70
   160
  1
%%c15.88
  3
ISO-25
100
AcDbAlignedDimension
 13
251.44
 23
139.0000024227
 33
0.0
 14
235.56
 24
139.0000024227
 34
0.0
100
AcDbRotatedDimension
1001
ACAD
1000
DSTYLE
1002
{
1070
   270
1070
     2
1070
     6
1000
EX_NORM
1070
     7
1000
EX_NORM
1070
    41
1040
6.0
1070
    42
1040
0.0
1070
    44
1040
0.0
1070
    73
1070
     0
1070
    74
1070
     0
1070
    75
1070
     1
1070
    76
1070
     1
1070
    77
1070
     1
1070
    78
1070
     8
1070
   140
1040
8.0
1070
   147
1040
0.0
1070
   173
1070
     1
1070
   176
1070
     3
1070
   177
1070
     3
1070
   178
1070
     2
1070
   271
1070
     2
1070
   277
1070
     2
1070
   279
1070
     2
1070
   280
1070
     0
1070
   287
1070
     5
1070
   340
1005
187
1002
}
  0
DIMENSION
  5
1A1
330
1F
100
AcDbEntity
  8
図_寸法
  6
CONTINUOUS
 62
     3
100
AcDbDimension
  2
*D17
 10
318.50009
 20
280.7
 30
0.0
 11
281.000045
 21
286.7
 31
0.0
 70
   160
  1
75
  3
ISO-25
100
AcDbAlignedDimension
 13
243.5
 23
301.5
 33
0.0
 14
318.50009
 24
317.25
 34
0.0
100
AcDbRotatedDimension
1001
ACAD
1000
DSTYLE
1002
{
1070
   270
1070
     2
1070
     6
1000
EX_NORM
1070
     7
1000
EX_NORM
1070
    41
1040
6.0
1070
    42
1040
1.0
1070
    44
1040
2.0
1070
    73
1070
     0
1070
    74
1070
     0
1070
    75
1070
     1
1070
    76
1070
     0
1070
    77
1070
     1
1070
    78
1070
     8
1070
   140
1040
8.0
1070
   147
1040
0.0
1070
   173
1070
     1
1070
   176
1070
     3
1070
   177
1070
     3
1070
   178
1070
     2
1070
   271
1070
     2
1070
   277
1070
     2
1070
   279
1070
     2
1070
   280
1070
     0
1070
   287
1070
     5
1070
   340
1005
187
1002
}
  0
DIMENSION
  5
1AD
330
1F
100
AcDbEntity
  8
図_寸法
  6
CONTINUOUS
 62
     3
100
AcDbDimension
  2
*D18
 10
177.2
 20
289.0000024227
 30
0.0
 11
171.2
 21
214.0000024227
 31
0.0
 70
   160
  1
150
  3
ISO-25
100
AcDbAlignedDimension
 13
235.56
 23
139.0000024227
 33
0.0
 14
238.6534047564
 24
289.0000024227
 34
0.0
 50
90.0
100
AcDbRotatedDimension
1001
ACAD
1000
DSTYLE
1002
{
1070
   270
1070
     2
1070
     6
1000
EX_NORM
1070
     7
1000
EX_NORM
1070
    41
1040
6.0
1070
    42
1040
1.0
1070
    44
1040
2.0
1070
    73
1070
     0
1070
    74
1070
     0
1070
    75
1070
     0
1070
    76
1070
     0
1070
    77
1070
     1
1070
    78
1070
     8
1070
   140
1040
8.0
1070
   147
1040
0.0
1070
   173
1070
     1
1070
   176
1070
     3
1070
   177
1070
     3
1070
   178
1070
     2
1070
   271
1070
     2
1070
   277
1070
     2
1070
   279
1070
     2
1070
   280
1070
     0
1070
   287
1070
     5
1070
   340
1005
187
1002
}
  0
ARC
  5
1BA
330
1F
100
AcDbEntity
  8
図_寸法
  6
CONTINUOUS
 62
     2
100
AcDbCircle
 10
113.0
 20
341.0
 30
0.0
 40
23.75000000000002
100
AcDbArc
 50
154.8587493536
 51
229.2596932493003
  0
TEXT
  5
1BB
330
1F
100
AcDbEntity
  8
図_寸法
  6
CONTINUOUS
 62
     2
100
AcDbText
 10
173.8
 20
342.9
 30
0.0
 40
10.0
  1
２
 41
1.343999999999999
  7
EXCADSTD
 72
     5
 11
183.4
 21
342.9
 31
0.0
100
AcDbText
  0
TEXT
  5
1BC
330
1F
100
AcDbEntity
  8
図_寸法
  6
CONTINUOUS
 62
     2
100
AcDbText
 10
246.8
 20
403.9
 30
0.0
 40
10.0
  1
４
 41
1.344000000000003
  7
EXCADSTD
 72
     5
 11
256.4
 21
403.9
 31
0.0
100
AcDbText
  0
TEXT
  5
1BD
330
1F
100
AcDbEntity
  8
図_寸法
  6
CONTINUOUS
 62
     2
100
AcDbText
 10
205.8
 20
226.9
 30
0.0
 40
10.0
  1
６
 41
1.343999999999999
  7
EXCADSTD
 72
     5
 11
215.4
 21
226.9
 31
0.0
100
AcDbText
  0
TEXT
  5
1BE
330
1F
100
AcDbEntity
  8
図_寸法
  6
CONTINUOUS
 62
     2
100
AcDbText
 10
315.8
 20
220.9
 30
0.0
 40
10.0
  1
７
 41
1.344000000000003
  7
EXCADSTD
 72
     5
 11
325.4
 21
220.9
 31
0.0
100
AcDbText
  0
TEXT
  5
1BF
330
1F
100
AcDbEntity
  8
図_寸法
  6
CONTINUOUS
 62
     2
100
AcDbText
 10
266.8
 20
403.9
 30
0.0
 40
10.0
  1
３
 41
1.344000000000003
  7
EXCADSTD
 72
     5
 11
276.4
 21
403.9
 31
0.0
100
AcDbText
  0
TEXT
  5
1C0
330
1F
100
AcDbEntity
  8
図_寸法
  6
CONTINUOUS
 62
     2
100
AcDbText
 10
286.8
 20
403.9
 30
0.0
 40
10.0
  1
５
 41
1.344000000000003
  7
EXCADSTD
 72
     5
 11
296.4
 21
403.9
 31
0.0
100
AcDbText
  0
LINE
  5
1C1
330
1F
100
AcDbEntity
  8
図_寸法
  6
EXLTYPE3
 62
     1
100
AcDbLine
 10
243.5
 20
137.0000024227
 30
0.0
 11
243.5
 21
389.5
 31
0.0
  0
LINE
  5
1C2
330
1F
100
AcDbEntity
  8
図_寸法
  6
EXLTYPE3
 62
     1
100
AcDbLine
 10
286.5
 20
358.5
 30
0.0
 11
286.5
 21
377.975469212
 31
0.0
  0
LINE
  5
1C3
330
1F
100
AcDbEntity
  8
図_寸法
  6
EXLTYPE3
 62
     1
100
AcDbLine
 10
113.0
 20
263.0771370307
 30
0.0
 11
113.0
 21
389.5
 31
0.0
  0
LINE
  5
1C4
330
1F
100
AcDbEntity
  8
図_寸法
  6
EXLTYPE3
 62
     1
100
AcDbLine
 10
95.5
 20
321.0
 30
0.0
 11
130.5
 21
321.0
 31
0.0
  0
LINE
  5
1C5
330
1F
100
AcDbEntity
  8
図_寸法
  6
EXLTYPE3
 62
     1
100
AcDbLine
 10
228.5
 20
341.0
 30
0.0
 11
334.5
 21
341.0
 31
0.0
  0
LINE
  5
1C6
330
1F
100
AcDbEntity
  8
図_寸法
  6
EXLTYPE3
 62
     1
100
AcDbLine
 10
220.5
 20
321.0
 30
0.0
 11
190.5
 21
321.0
 31
0.0
  0
LINE
  5
1C7
330
1F
100
AcDbEntity
  8
図_寸法
  6
EXLTYPE3
 62
     1
100
AcDbLine
 10
283.5
 20
137.0000024227
 30
0.0
 11
283.5
 21
219.0000024227
 31
0.0
  0
ARC
  5
1C8
330
1F
100
AcDbEntity
  8
図_寸法
  6
EXLTYPE3
 62
     1
100
AcDbCircle
 10
268.5
 20
279.0000024227
 30
0.0
 40
25.00000000000002
100
AcDbArc
 50
180.0
 51
225.822673838
  0
ARC
  5
1C9
330
1F
100
AcDbEntity
  8
図_寸法
  6
EXLTYPE3
 62
     1
100
AcDbCircle
 10
258.5
 20
219.0000024227
 30
0.0
 40
25.00000000000002
100
AcDbArc
 50
0.0
 51
45.82267383802998
  0
LINE
  5
1CA
330
1F
100
AcDbEntity
  8
図_寸法
  6
EXLTYPE3
 62
     1
100
AcDbLine
 10
251.0779664251
 20
261.0703413519
 30
0.0
 11
275.9220335749
 21
236.9296634936
 31
0.0
  0
LINE
  5
1CB
330
1F
100
AcDbEntity
  8
図_寸法
  6
EXLTYPE3
 62
     1
100
AcDbLine
 10
251.44
 20
289.0000024227
 30
0.0
 11
235.56
 21
289.0000024227
 31
0.0
  0
LINE
  5
1CC
330
1F
100
AcDbEntity
  8
図_寸法
  6
CONTINUOUS
 62
     6
100
AcDbLine
 10
254.82199
 20
298.2
 30
0.0
 11
254.82199
 21
299.99998
 31
0.0
  0
LINE
  5
1CD
330
1F
100
AcDbEntity
  8
図_寸法
  6
CONTINUOUS
 62
     6
100
AcDbLine
 10
254.82199
 20
299.99998
 30
0.0
 11
255.5
 21
301.17432
 31
0.0
  0
LINE
  5
1CE
330
1F
100
AcDbEntity
  8
図_寸法
  6
CONTINUOUS
 62
     6
100
AcDbLine
 10
232.17801
 20
298.2
 30
0.0
 11
232.17801
 21
299.99998
 31
0.0
  0
LINE
  5
1CF
330
1F
100
AcDbEntity
  8
図_寸法
  6
CONTINUOUS
 62
     6
100
AcDbLine
 10
232.17801
 20
299.99998
 30
0.0
 11
231.5
 21
301.17432
 31
0.0
  0
LINE
  5
1D0
330
1F
100
AcDbEntity
  8
図_寸法
  6
CONTINUOUS
 62
     6
100
AcDbLine
 10
112.0
 20
383.5
 30
0.0
 11
112.0
 21
377.73557
 31
0.0
  0
LINE
  5
1D1
330
1F
100
AcDbEntity
  8
図_寸法
  6
CONTINUOUS
 62
     6
100
AcDbLine
 10
114.0
 20
383.5
 30
0.0
 11
114.0
 21
377.73557
 31
0.0
  0
LINE
  5
1D2
330
1F
100
AcDbEntity
  8
図_寸法
  6
CONTINUOUS
 62
     6
100
AcDbLine
 10
104.0
 20
383.5
 30
0.0
 11
104.0
 21
377.73557
 31
0.0
  0
LINE
  5
1D3
330
1F
100
AcDbEntity
  8
図_寸法
  6
CONTINUOUS
 62
     6
100
AcDbLine
 10
122.0
 20
383.5
 30
0.0
 11
122.0
 21
377.73557
 31
0.0
  0
LINE
  5
1D4
330
1F
100
AcDbEntity
  8
図_寸法
  6
CONTINUOUS
 62
     6
100
AcDbLine
 10
112.0
 20
383.5
 30
0.0
 11
114.0
 21
383.5
 31
0.0
  0
LINE
  5
1D5
330
1F
100
AcDbEntity
  8
図_寸法
  6
CONTINUOUS
 62
     6
100
AcDbLine
 10
112.0
 20
377.73556
 30
0.0
 11
114.0
 21
377.73557
 31
0.0
  0
LINE
  5
1D6
330
1F
100
AcDbEntity
  8
図_寸法
  6
CONTINUOUS
 62
     6
100
AcDbLine
 10
134.5225
 20
359.5529
 30
0.0
 11
133.687
 21
361.00002
 31
0.0
  0
LINE
  5
1D7
330
1F
100
AcDbEntity
  8
図_寸法
  6
CONTINUOUS
 62
     6
100
AcDbLine
 10
91.47750000000002
 20
359.5529
 30
0.0
 11
92.31299999999999
 21
361.00002
 31
0.0
  0
LINE
  5
1D8
330
1F
100
AcDbEntity
  8
図_寸法
  6
CONTINUOUS
 62
     6
100
AcDbLine
 10
318.50013
 20
350.3155
 30
0.0
 11
332.46198
 21
350.3155
 31
0.0
  0
LINE
  5
1D9
330
1F
100
AcDbEntity
  8
図_寸法
  6
CONTINUOUS
 62
     6
100
AcDbLine
 10
307.48737
 20
351.4775
 30
0.0
 11
309.0
 21
350.60418
 31
0.0
  0
LINE
  5
1DA
330
1F
100
AcDbEntity
  8
図_寸法
  6
CONTINUOUS
 62
     6
100
AcDbLine
 10
318.50011
 20
331.6845
 30
0.0
 11
332.46198
 21
331.6845
 31
0.0
  0
LINE
  5
1DB
330
1F
100
AcDbEntity
  8
図_寸法
  6
CONTINUOUS
 62
     6
100
AcDbLine
 10
216.79999
 20
309.06766
 30
0.0
 11
216.79999
 21
305.08554
 31
0.0
  0
LINE
  5
1DC
330
1F
100
AcDbEntity
  8
図_寸法
  6
CONTINUOUS
 62
     6
100
AcDbLine
 10
207.20001
 20
309.06766
 30
0.0
 11
207.20001
 21
305.08554
 31
0.0
  0
LINE
  5
1DD
330
1F
100
AcDbEntity
  8
図_寸法
  6
CONTINUOUS
 62
     6
100
AcDbLine
 10
208.20001
 20
304.08554
 30
0.0
 11
215.79999
 21
304.08554
 31
0.0
  0
LINE
  5
1DE
330
1F
100
AcDbEntity
  8
図_寸法
  6
CONTINUOUS
 62
     6
100
AcDbLine
 10
209.20001
 20
311.06766
 30
0.0
 11
214.79999
 21
311.06766
 31
0.0
  0
LINE
  5
1DF
330
1F
100
AcDbEntity
  8
図_寸法
  6
CONTINUOUS
 62
     6
100
AcDbLine
 10
209.30347
 20
314.01788
 30
0.0
 11
214.69653
 21
314.01788
 31
0.0
  0
LINE
  5
1E0
330
1F
100
AcDbEntity
  8
図_寸法
  6
CONTINUOUS
 62
     6
100
AcDbLine
 10
248.65387
 20
377.73557
 30
0.0
 11
248.65387
 21
383.5
 31
0.0
  0
LINE
  5
1E1
330
1F
100
AcDbEntity
  8
図_寸法
  6
CONTINUOUS
 62
     6
100
AcDbLine
 10
249.58331
 20
377.73557
 30
0.0
 11
248.65387
 21
377.73557
 31
0.0
  0
LINE
  5
1E2
330
1F
100
AcDbEntity
  8
図_寸法
  6
CONTINUOUS
 62
     6
100
AcDbLine
 10
249.58331
 20
383.5
 30
0.0
 11
248.65387
 21
383.5
 31
0.0
  0
LINE
  5
1E3
330
1F
100
AcDbEntity
  8
図_寸法
  6
CONTINUOUS
 62
     6
100
AcDbLine
 10
249.58331
 20
383.5
 30
0.0
 11
249.58331
 21
377.73557
 31
0.0
  0
LINE
  5
1E4
330
1F
100
AcDbEntity
  8
図_寸法
  6
CONTINUOUS
 62
     6
100
AcDbLine
 10
219.77997
 20
335.0
 30
0.0
 11
219.77997
 21
335.35037
 31
0.0
  0
LINE
  5
1E5
330
1F
100
AcDbEntity
  8
図_寸法
  6
CONTINUOUS
 62
     6
100
AcDbLine
 10
219.77997
 20
335.0
 30
0.0
 11
218.5
 21
334.261
 31
0.0
  0
LINE
  5
1E6
330
1F
100
AcDbEntity
  8
図_寸法
  6
CONTINUOUS
 62
     6
100
AcDbLine
 10
218.5
 20
334.261
 30
0.0
 11
217.0
 21
334.261
 31
0.0
  0
LINE
  5
1E7
330
1F
100
AcDbEntity
  8
図_寸法
  6
CONTINUOUS
 62
     6
100
AcDbLine
 10
219.77997
 20
307.0
 30
0.0
 11
218.5
 21
307.739
 31
0.0
  0
LINE
  5
1E8
330
1F
100
AcDbEntity
  8
図_寸法
  6
CONTINUOUS
 62
     6
100
AcDbLine
 10
218.5
 20
307.739
 30
0.0
 11
217.0
 21
307.739
 31
0.0
  0
LINE
  5
1E9
330
1F
100
AcDbEntity
  8
図_寸法
  6
CONTINUOUS
 62
     6
100
AcDbLine
 10
222.0
 20
359.59187
 30
0.0
 11
222.81299
 21
361.00002
 31
0.0
  0
LINE
  5
1EA
330
1F
100
AcDbEntity
  8
図_寸法
  6
CONTINUOUS
 62
     6
100
AcDbLine
 10
265.0
 20
359.59187
 30
0.0
 11
264.187012
 21
361.00002
 31
0.0
  0
LINE
  5
1EB
330
1F
100
AcDbEntity
  8
図_寸法
  6
CONTINUOUS
 62
     6
100
AcDbLine
 10
124.322
 20
299.99998
 30
0.0
 11
125.0
 21
301.17432
 31
0.0
  0
LINE
  5
1EC
330
1F
100
AcDbEntity
  8
図_寸法
  6
CONTINUOUS
 62
     6
100
AcDbLine
 10
124.322
 20
298.2
 30
0.0
 11
124.322
 21
299.99998
 31
0.0
  0
LINE
  5
1ED
330
1F
100
AcDbEntity
  8
図_寸法
  6
CONTINUOUS
 62
     6
100
AcDbLine
 10
101.678
 20
298.2
 30
0.0
 11
101.678
 21
299.99998
 31
0.0
  0
LINE
  5
1EE
330
1F
100
AcDbEntity
  8
図_寸法
  6
CONTINUOUS
 62
     6
100
AcDbLine
 10
101.678
 20
299.99998
 30
0.0
 11
101.0
 21
301.17432
 31
0.0
  0
LINE
  5
1EF
330
1F
100
AcDbEntity
  8
図_寸法
  6
CONTINUOUS
 62
     6
100
AcDbLine
 10
209.30347
 20
327.98212
 30
0.0
 11
214.69653
 21
327.98212
 31
0.0
  0
LINE
  5
1F0
330
1F
100
AcDbEntity
  8
図_寸法
  6
CONTINUOUS
 62
     6
100
AcDbLine
 10
209.20001
 20
330.93234
 30
0.0
 11
214.79999
 21
330.93234
 31
0.0
  0
LINE
  5
1F1
330
1F
100
AcDbEntity
  8
図_寸法
  6
CONTINUOUS
 62
     6
100
AcDbLine
 10
207.20001
 20
332.93234
 30
0.0
 11
207.20001
 21
336.91446
 31
0.0
  0
LINE
  5
1F2
330
1F
100
AcDbEntity
  8
図_寸法
  6
CONTINUOUS
 62
     6
100
AcDbLine
 10
208.20001
 20
337.91446
 30
0.0
 11
215.79999
 21
337.91446
 31
0.0
  0
LINE
  5
1F3
330
1F
100
AcDbEntity
  8
図_寸法
  6
CONTINUOUS
 62
     6
100
AcDbLine
 10
216.79999
 20
332.93234
 30
0.0
 11
216.79999
 21
336.91446
 31
0.0
  0
LINE
  5
1F4
330
1F
100
AcDbEntity
  8
図_寸法
  6
CONTINUOUS
 62
     6
100
AcDbLine
 10
237.41669
 20
383.5
 30
0.0
 11
238.34613
 21
383.5
 31
0.0
  0
LINE
  5
1F5
330
1F
100
AcDbEntity
  8
図_寸法
  6
CONTINUOUS
 62
     6
100
AcDbLine
 10
237.41669
 20
377.73557
 30
0.0
 11
238.34613
 21
377.73557
 31
0.0
  0
LINE
  5
1F6
330
1F
100
AcDbEntity
  8
図_寸法
  6
CONTINUOUS
 62
     6
100
AcDbLine
 10
238.34613
 20
377.73557
 30
0.0
 11
238.34613
 21
383.5
 31
0.0
  0
LINE
  5
1F7
330
1F
100
AcDbEntity
  8
図_寸法
  6
CONTINUOUS
 62
     6
100
AcDbLine
 10
237.41669
 20
383.5
 30
0.0
 11
237.41669
 21
377.73557
 31
0.0
  0
LINE
  5
1F8
330
1F
100
AcDbEntity
  8
図_寸法
  6
CONTINUOUS
 62
     6
100
AcDbLine
 10
307.48737
 20
330.5225
 30
0.0
 11
309.0
 21
331.39582
 31
0.0
  0
ARC
  5
1F9
330
1F
100
AcDbEntity
  8
図_寸法
  6
CONTINUOUS
 62
     6
100
AcDbCircle
 10
254.75833
 20
287.874759
 30
0.0
 40
1.459078
100
AcDbArc
 50
217.2828000000001
 51
322.7173000000004
  0
ARC
  5
1FA
330
1F
100
AcDbEntity
  8
図_寸法
  6
CONTINUOUS
 62
     6
100
AcDbCircle
 10
254.75833
 20
296.52524
 30
0.0
 40
1.459078
100
AcDbArc
 50
37.28274999999995
 51
142.7173
  0
ARC
  5
1FB
330
1F
100
AcDbEntity
  8
図_寸法
  6
CONTINUOUS
 62
     6
100
AcDbCircle
 10
249.07709
 20
292.2
 30
0.0
 40
8.59941600000001
100
AcDbArc
 50
322.7173000000004
 51
37.28267999999997
  0
ARC
  5
1FC
330
1F
100
AcDbEntity
  8
図_寸法
  6
CONTINUOUS
 62
     6
100
AcDbCircle
 10
260.43958
 20
292.2
 30
0.0
 40
8.59941600000001
100
AcDbArc
 50
142.7173
 51
217.2827
  0
ARC
  5
1FD
330
1F
100
AcDbEntity
  8
図_寸法
  6
CONTINUOUS
 62
     6
100
AcDbCircle
 10
246.44415
 20
292.2
 30
0.0
 40
2.892159000000002
100
AcDbArc
 50
358.9791000000001
 51
1.020873999999966
  0
ARC
  5
1FE
330
1F
100
AcDbEntity
  8
図_寸法
  6
CONTINUOUS
 62
     6
100
AcDbCircle
 10
243.5
 20
292.14754
 30
0.0
 40
5.836777000000002
100
AcDbArc
 50
1.020873999999966
 51
178.9792
  0
ARC
  5
1FF
330
1F
100
AcDbEntity
  8
図_寸法
  6
CONTINUOUS
 62
     6
100
AcDbCircle
 10
243.5
 20
292.25246
 30
0.0
 40
5.836777000000002
100
AcDbArc
 50
181.0208
 51
358.9791000000001
  0
ARC
  5
200
330
1F
100
AcDbEntity
  8
図_寸法
  6
CONTINUOUS
 62
     6
100
AcDbCircle
 10
108.0
 20
378.9167
 30
0.0
 40
6.083333000000002
100
AcDbArc
 50
48.88808999999996
 51
131.1121
  0
ARC
  5
201
330
1F
100
AcDbEntity
  8
図_寸法
  6
CONTINUOUS
 62
     6
100
AcDbCircle
 10
108.0
 20
385.2356
 30
0.0
 40
8.5
100
AcDbArc
 50
241.9275000000002
 51
298.0724
  0
ARC
  5
202
330
1F
100
AcDbEntity
  8
図_寸法
  6
CONTINUOUS
 62
     6
100
AcDbCircle
 10
118.0
 20
378.9167
 30
0.0
 40
6.083333000000002
100
AcDbArc
 50
48.88793999999996
 51
131.1119
  0
ARC
  5
203
330
1F
100
AcDbEntity
  8
図_寸法
  6
CONTINUOUS
 62
     6
100
AcDbCircle
 10
118.0
 20
385.2356
 30
0.0
 40
8.5
100
AcDbArc
 50
241.9276000000001
 51
298.0725000000002
  0
ARC
  5
204
330
1F
100
AcDbEntity
  8
図_寸法
  6
CONTINUOUS
 62
     6
100
AcDbCircle
 10
126.0
 20
378.9167
 30
0.0
 40
6.083333000000002
100
AcDbArc
 50
119.5478999999999
 51
131.1121
  0
ARC
  5
205
330
1F
100
AcDbEntity
  8
図_寸法
  6
CONTINUOUS
 62
     6
100
AcDbCircle
 10
126.0
 20
385.2356
 30
0.0
 40
8.5
100
AcDbArc
 50
241.9275000000002
 51
249.3327000000002
  0
ARC
  5
206
330
1F
100
AcDbEntity
  8
図_寸法
  6
CONTINUOUS
 62
     6
100
AcDbCircle
 10
100.0
 20
378.9167
 30
0.0
 40
6.083333000000002
100
AcDbArc
 50
48.88793999999996
 51
60.45211999999998
  0
ARC
  5
207
330
1F
100
AcDbEntity
  8
図_寸法
  6
CONTINUOUS
 62
     6
100
AcDbCircle
 10
100.0
 20
385.2356
 30
0.0
 40
8.5
100
AcDbArc
 50
290.6673000000001
 51
298.0725000000002
  0
ARC
  5
208
330
1F
100
AcDbEntity
  8
図_寸法
  6
CONTINUOUS
 62
     6
100
AcDbCircle
 10
283.18457
 20
363.5
 30
0.0
 40
1.375
100
AcDbArc
 50
135.0506
 51
224.9494
  0
ARC
  5
209
330
1F
100
AcDbEntity
  8
図_寸法
  6
CONTINUOUS
 62
     6
100
AcDbCircle
 10
286.5
 20
360.19042
 30
0.0
 40
6.059581000000002
100
AcDbArc
 50
44.94939999999999
 51
135.0505
  0
ARC
  5
20A
330
1F
100
AcDbEntity
  8
図_寸法
  6
CONTINUOUS
 62
     6
100
AcDbCircle
 10
286.5
 20
366.80958
 30
0.0
 40
6.059581000000002
100
AcDbArc
 50
224.9495000000001
 51
315.0506
  0
ARC
  5
20B
330
1F
100
AcDbEntity
  8
図_寸法
  6
CONTINUOUS
 62
     6
100
AcDbCircle
 10
277.406738
 20
361.9226
 30
0.0
 40
1.172602
100
AcDbArc
 50
253.2524
 51
286.7476000000002
  0
ARC
  5
20C
330
1F
100
AcDbEntity
  8
図_寸法
  6
CONTINUOUS
 62
     6
100
AcDbCircle
 10
277.406738
 20
365.0774
 30
0.0
 40
1.172602
100
AcDbArc
 50
73.25246999999997
 51
106.7475
  0
ARC
  5
20D
330
1F
100
AcDbEntity
  8
図_寸法
  6
CONTINUOUS
 62
     6
100
AcDbCircle
 10
277.881409
 20
363.5
 30
0.0
 40
2.819870000000001
100
AcDbArc
 50
106.7474
 51
137.2599
  0
ARC
  5
20E
330
1F
100
AcDbEntity
  8
図_寸法
  6
CONTINUOUS
 62
     6
100
AcDbCircle
 10
276.932068
 20
363.5
 30
0.0
 40
2.819870000000001
100
AcDbArc
 50
286.7474
 51
73.25259
  0
ARC
  5
20F
330
1F
100
AcDbEntity
  8
図_寸法
  6
CONTINUOUS
 62
     6
100
AcDbCircle
 10
277.881409
 20
363.5
 30
0.0
 40
2.819870000000001
100
AcDbArc
 50
174.5721
 51
253.2526000000003
  0
ARC
  5
210
330
1F
100
AcDbEntity
  8
図_寸法
  6
CONTINUOUS
 62
     6
100
AcDbCircle
 10
208.20001
 20
305.08554
 30
0.0
 40
1.0
100
AcDbArc
 50
180.0
 51
270.0000000000002
  0
ARC
  5
211
330
1F
100
AcDbEntity
  8
図_寸法
  6
CONTINUOUS
 62
     6
100
AcDbCircle
 10
215.79999
 20
305.08554
 30
0.0
 40
1.0
100
AcDbArc
 50
270.0000000000002
 51
0.0
  0
ARC
  5
212
330
1F
100
AcDbEntity
  8
図_寸法
  6
CONTINUOUS
 62
     6
100
AcDbCircle
 10
214.79999
 20
309.06766
 30
0.0
 40
2.0
100
AcDbArc
 50
0.0
 51
90.00000000000001
  0
ARC
  5
213
330
1F
100
AcDbEntity
  8
図_寸法
  6
CONTINUOUS
 62
     6
100
AcDbCircle
 10
209.20001
 20
309.06766
 30
0.0
 40
2.0
100
AcDbArc
 50
90.00000000000001
 51
180.0
  0
ARC
  5
214
330
1F
100
AcDbEntity
  8
図_寸法
  6
CONTINUOUS
 62
     6
100
AcDbCircle
 10
214.69653
 20
316.01788
 30
0.0
 40
2.0
100
AcDbArc
 50
270.0000000000002
 51
357.6201000000001
  0
ARC
  5
215
330
1F
100
AcDbEntity
  8
図_寸法
  6
CONTINUOUS
 62
     6
100
AcDbCircle
 10
94.82319999999999
 20
321.0
 30
0.0
 40
121.9769000000001
100
AcDbArc
 50
357.6201000000001
 51
2.379943999999947
  0
ARC
  5
216
330
1F
100
AcDbEntity
  8
図_寸法
  6
CONTINUOUS
 62
     6
100
AcDbCircle
 10
209.30347
 20
316.01788
 30
0.0
 40
2.0
100
AcDbArc
 50
182.3799000000001
 51
270.0000000000002
  0
ARC
  5
217
330
1F
100
AcDbEntity
  8
図_寸法
  6
CONTINUOUS
 62
     6
100
AcDbCircle
 10
329.17685
 20
321.0
 30
0.0
 40
121.9769000000001
100
AcDbArc
 50
177.6201
 51
182.3799000000001
  0
ARC
  5
218
330
1F
100
AcDbEntity
  8
図_寸法
  6
CONTINUOUS
 62
     6
100
AcDbCircle
 10
243.5
 20
377.85925
 30
0.0
 40
7.640748000000008
100
AcDbArc
 50
47.58263999999996
 51
132.4172000000001
  0
ARC
  5
219
330
1F
100
AcDbEntity
  8
図_寸法
  6
CONTINUOUS
 62
     6
100
AcDbCircle
 10
243.5
 20
384.5203
 30
0.0
 40
8.520332
100
AcDbArc
 50
232.7791000000003
 51
307.2211000000003
  0
ARC
  5
21A
330
1F
100
AcDbEntity
  8
図_寸法
  6
CONTINUOUS
 62
     6
100
AcDbCircle
 10
245.79956
 20
375.85069
 30
0.0
 40
11.68415
100
AcDbArc
 50
40.09856999999996
 51
53.14876999999996
  0
ARC
  5
21B
330
1F
100
AcDbEntity
  8
図_寸法
  6
CONTINUOUS
 62
     6
100
AcDbCircle
 10
251.90738
 20
384.0
 30
0.0
 40
1.5
100
AcDbArc
 50
53.14867999999995
 51
83.73278999999997
  0
ARC
  5
21C
330
1F
100
AcDbEntity
  8
図_寸法
  6
CONTINUOUS
 62
     6
100
AcDbCircle
 10
252.41556
 20
382.5109
 30
0.0
 40
3.000000000000002
100
AcDbArc
 50
96.59277
 51
160.7487
  0
ARC
  5
21D
330
1F
100
AcDbEntity
  8
図_寸法
  6
CONTINUOUS
 62
     6
100
AcDbCircle
 10
252.30548
 20
378.9965
 30
0.0
 40
3.000000000000002
100
AcDbArc
 50
204.8529
 51
265.1772000000001
  0
ARC
  5
21E
330
1F
100
AcDbEntity
  8
図_寸法
  6
CONTINUOUS
 62
     6
100
AcDbCircle
 10
251.90738
 20
377.5
 30
0.0
 40
1.5
100
AcDbArc
 50
270.0000000000002
 51
306.8513
  0
ARC
  5
21F
330
1F
100
AcDbEntity
  8
図_寸法
  6
CONTINUOUS
 62
     6
100
AcDbCircle
 10
245.79956
 20
385.6493
 30
0.0
 40
11.68415
100
AcDbArc
 50
306.8512000000001
 51
319.9014000000001
  0
ARC
  5
220
330
1F
100
AcDbEntity
  8
図_寸法
  6
CONTINUOUS
 62
     6
100
AcDbCircle
 10
106.5
 20
295.45711
 30
0.0
 40
2.527199000000002
100
AcDbArc
 50
75.61594000000001
 51
104.3841
  0
ARC
  5
221
330
1F
100
AcDbEntity
  8
図_寸法
  6
CONTINUOUS
 62
     6
100
AcDbCircle
 10
107.3353
 20
292.2
 30
0.0
 40
5.889718000000006
100
AcDbArc
 50
104.3842
 51
255.6158000000002
  0
ARC
  5
222
330
1F
100
AcDbEntity
  8
図_寸法
  6
CONTINUOUS
 62
     6
100
AcDbCircle
 10
105.6647
 20
292.2
 30
0.0
 40
5.889718000000006
100
AcDbArc
 50
284.3842000000001
 51
75.61584
  0
ARC
  5
223
330
1F
100
AcDbEntity
  8
図_寸法
  6
CONTINUOUS
 62
     6
100
AcDbCircle
 10
119.5
 20
288.94289
 30
0.0
 40
2.527195000000001
100
AcDbArc
 50
255.6159
 51
284.3841000000002
  0
ARC
  5
224
330
1F
100
AcDbEntity
  8
図_寸法
  6
CONTINUOUS
 62
     6
100
AcDbCircle
 10
119.5
 20
295.45712
 30
0.0
 40
2.527195000000001
100
AcDbArc
 50
75.61590999999999
 51
104.3841
  0
ARC
  5
225
330
1F
100
AcDbEntity
  8
図_寸法
  6
CONTINUOUS
 62
     6
100
AcDbCircle
 10
120.3353
 20
292.2
 30
0.0
 40
5.889720000000002
100
AcDbArc
 50
104.3842
 51
255.6158000000002
  0
ARC
  5
226
330
1F
100
AcDbEntity
  8
図_寸法
  6
CONTINUOUS
 62
     6
100
AcDbCircle
 10
118.6647
 20
292.2
 30
0.0
 40
5.889720000000002
100
AcDbArc
 50
284.3842000000001
 51
75.61584
  0
ARC
  5
227
330
1F
100
AcDbEntity
  8
図_寸法
  6
CONTINUOUS
 62
     6
100
AcDbCircle
 10
226.56042
 20
292.2
 30
0.0
 40
8.59941600000001
100
AcDbArc
 50
322.7173000000004
 51
37.28264999999995
  0
ARC
  5
228
330
1F
100
AcDbEntity
  8
図_寸法
  6
CONTINUOUS
 62
     6
100
AcDbCircle
 10
232.24167
 20
296.52524
 30
0.0
 40
1.459078
100
AcDbArc
 50
37.28277999999997
 51
142.7172
  0
ARC
  5
229
330
1F
100
AcDbEntity
  8
図_寸法
  6
CONTINUOUS
 62
     6
100
AcDbCircle
 10
237.92291
 20
292.2
 30
0.0
 40
8.59941600000001
100
AcDbArc
 50
142.7173
 51
217.2827
  0
ARC
  5
22A
330
1F
100
AcDbEntity
  8
図_寸法
  6
CONTINUOUS
 62
     6
100
AcDbCircle
 10
232.24167
 20
287.874759
 30
0.0
 40
1.459078
100
AcDbArc
 50
217.2827
 51
322.7172000000001
  0
ARC
  5
22B
330
1F
100
AcDbEntity
  8
図_寸法
  6
CONTINUOUS
 62
     6
100
AcDbCircle
 10
240.55585
 20
292.2
 30
0.0
 40
2.892159000000002
100
AcDbArc
 50
178.9791000000001
 51
181.0209000000001
  0
ARC
  5
22C
330
1F
100
AcDbEntity
  8
図_寸法
  6
CONTINUOUS
 62
     6
100
AcDbCircle
 10
209.30347
 20
325.98212
 30
0.0
 40
2.0
100
AcDbArc
 50
90.00000000000001
 51
177.6200000000001
  0
ARC
  5
22D
330
1F
100
AcDbEntity
  8
図_寸法
  6
CONTINUOUS
 62
     6
100
AcDbCircle
 10
214.69653
 20
325.98212
 30
0.0
 40
2.0
100
AcDbArc
 50
2.379882999999988
 51
90.00000000000001
  0
ARC
  5
22E
330
1F
100
AcDbEntity
  8
図_寸法
  6
CONTINUOUS
 62
     6
100
AcDbCircle
 10
209.20001
 20
332.93234
 30
0.0
 40
2.0
100
AcDbArc
 50
180.0
 51
270.0000000000002
  0
ARC
  5
22F
330
1F
100
AcDbEntity
  8
図_寸法
  6
CONTINUOUS
 62
     6
100
AcDbCircle
 10
208.20001
 20
336.91446
 30
0.0
 40
1.0
100
AcDbArc
 50
90.00000000000001
 51
180.0
  0
ARC
  5
230
330
1F
100
AcDbEntity
  8
図_寸法
  6
CONTINUOUS
 62
     6
100
AcDbCircle
 10
215.79999
 20
336.91446
 30
0.0
 40
1.0
100
AcDbArc
 50
0.0
 51
90.00000000000001
  0
ARC
  5
231
330
1F
100
AcDbEntity
  8
図_寸法
  6
CONTINUOUS
 62
     6
100
AcDbCircle
 10
214.79999
 20
332.93234
 30
0.0
 40
2.0
100
AcDbArc
 50
270.0000000000002
 51
0.0
  0
ARC
  5
232
330
1F
100
AcDbEntity
  8
図_寸法
  6
CONTINUOUS
 62
     6
100
AcDbCircle
 10
234.58444
 20
382.5109
 30
0.0
 40
3.000000000000002
100
AcDbArc
 50
19.25128
 51
83.40723000000001
  0
ARC
  5
233
330
1F
100
AcDbEntity
  8
図_寸法
  6
CONTINUOUS
 62
     6
100
AcDbCircle
 10
234.69452
 20
378.9965
 30
0.0
 40
3.000000000000002
100
AcDbArc
 50
274.8228000000002
 51
335.1471000000002
  0
ARC
  5
234
330
1F
100
AcDbEntity
  8
図_寸法
  6
CONTINUOUS
 62
     6
100
AcDbCircle
 10
235.09262
 20
377.5
 30
0.0
 40
1.5
100
AcDbArc
 50
233.1487000000001
 51
270.0000000000002
  0
ARC
  5
235
330
1F
100
AcDbEntity
  8
図_寸法
  6
CONTINUOUS
 62
     6
100
AcDbCircle
 10
241.20044
 20
385.6493
 30
0.0
 40
11.68415
100
AcDbArc
 50
220.0986000000001
 51
233.1488
  0
ARC
  5
236
330
1F
100
AcDbEntity
  8
図_寸法
  6
CONTINUOUS
 62
     6
100
AcDbCircle
 10
241.20044
 20
375.85069
 30
0.0
 40
11.68415
100
AcDbArc
 50
126.8512
 51
139.9014
  0
ARC
  5
237
330
1F
100
AcDbEntity
  8
図_寸法
  6
CONTINUOUS
 62
     6
100
AcDbCircle
 10
235.09262
 20
384.0
 30
0.0
 40
1.5
100
AcDbArc
 50
96.26726999999997
 51
126.8513
  0
ARC
  5
238
330
1F
100
AcDbEntity
  8
図_寸法
  6
CONTINUOUS
 62
     6
100
AcDbCircle
 10
295.11859
 20
363.5
 30
0.0
 40
2.819870000000001
100
AcDbArc
 50
42.74008
 51
73.25259
  0
ARC
  5
239
330
1F
100
AcDbEntity
  8
図_寸法
  6
CONTINUOUS
 62
     6
100
AcDbCircle
 10
295.11859
 20
363.5
 30
0.0
 40
2.819870000000001
100
AcDbArc
 50
286.7474
 51
5.427886999999974
  0
ARC
  5
23A
330
1F
100
AcDbEntity
  8
図_寸法
  6
CONTINUOUS
 62
     6
100
AcDbCircle
 10
295.59326
 20
361.9226
 30
0.0
 40
1.172602
100
AcDbArc
 50
253.2525
 51
286.7475000000001
  0
ARC
  5
23B
330
1F
100
AcDbEntity
  8
図_寸法
  6
CONTINUOUS
 62
     6
100
AcDbCircle
 10
296.06793
 20
363.5
 30
0.0
 40
2.819870000000001
100
AcDbArc
 50
106.7474
 51
253.2526000000003
  0
ARC
  5
23C
330
1F
100
AcDbEntity
  8
図_寸法
  6
CONTINUOUS
 62
     6
100
AcDbCircle
 10
295.59326
 20
365.0774
 30
0.0
 40
1.172602
100
AcDbArc
 50
73.25246999999997
 51
106.7475
  0
ARC
  5
23D
330
1F
100
AcDbEntity
  8
図_寸法
  6
CONTINUOUS
 62
     6
100
AcDbCircle
 10
289.81543
 20
363.5
 30
0.0
 40
1.375
100
AcDbArc
 50
315.0506
 51
44.94942999999996
  0
LINE
  5
23E
330
1F
100
AcDbEntity
  8
図_寸法
  6
EXLTYPE4
 62
     6
100
AcDbLine
 10
291.44
 20
139.0000024227
 30
0.0
 11
275.56
 21
139.0000024227
 31
0.0
  0
ARC
  5
23F
330
1F
100
AcDbEntity
  8
図_寸法
  6
EXLTYPE4
 62
     6
100
AcDbCircle
 10
258.5
 20
219.0000024227
 30
0.0
 40
32.94
100
AcDbArc
 50
0.0
 51
45.82267383802998
  0
ARC
  5
240
330
1F
100
AcDbEntity
  8
図_寸法
  6
EXLTYPE4
 62
     6
100
AcDbCircle
 10
268.5
 20
279.0000024227
 30
0.0
 40
17.06
100
AcDbArc
 50
180.0
 51
225.822673838
  0
ARC
  5
241
330
1F
100
AcDbEntity
  8
図_寸法
  6
EXLTYPE4
 62
     6
100
AcDbCircle
 10
268.5
 20
279.0000024227
 30
0.0
 40
32.94
100
AcDbArc
 50
180.0
 51
225.822673838
  0
ARC
  5
242
330
1F
100
AcDbEntity
  8
図_寸法
  6
EXLTYPE4
 62
     6
100
AcDbCircle
 10
258.5
 20
219.0000024227
 30
0.0
 40
17.06
100
AcDbArc
 50
0.0
 51
45.82267383802998
  0
LINE
  5
243
330
1F
100
AcDbEntity
  8
図_寸法
  6
EXLTYPE4
 62
     6
100
AcDbLine
 10
281.4552714383
 20
242.6241238497
 30
0.0
 11
256.6112042885
 21
266.764801708
 31
0.0
  0
LINE
  5
244
330
1F
100
AcDbEntity
  8
図_寸法
  6
EXLTYPE4
 62
     6
100
AcDbLine
 10
245.5447285617
 20
255.3758809958
 30
0.0
 11
270.3887957115
 21
231.2352031375
 31
0.0
  0
LINE
  5
245
330
1F
100
AcDbEntity
  8
図_寸法
  6
EXLTYPE4
 62
     6
100
AcDbLine
 10
307.5
 20
171.5000024227
 30
0.0
 11
259.5
 21
171.5000024227
 31
0.0
  0
LINE
  5
246
330
1F
100
AcDbEntity
  8
図_寸法
  6
EXLTYPE4
 62
     6
100
AcDbLine
 10
307.5
 20
171.5000024227
 30
0.0
 11
307.5
 21
172.0000024227
 31
0.0
  0
LINE
  5
247
330
1F
100
AcDbEntity
  8
図_寸法
  6
EXLTYPE4
 62
     6
100
AcDbLine
 10
259.5
 20
171.5000024227
 30
0.0
 11
259.5
 21
172.0000024227
 31
0.0
  0
LINE
  5
248
330
1F
100
AcDbEntity
  8
図_寸法
  6
EXLTYPE4
 62
     6
100
AcDbLine
 10
304.75
 20
176.4651451976
 30
0.0
 11
304.75
 21
197.4099751979
 31
0.0
  0
LINE
  5
249
330
1F
100
AcDbEntity
  8
図_寸法
  6
EXLTYPE4
 62
     6
100
AcDbLine
 10
262.25
 20
176.4651451976
 30
0.0
 11
262.25
 21
197.4099751979
 31
0.0
  0
LINE
  5
24A
330
1F
100
AcDbEntity
  8
図_寸法
  6
EXLTYPE4
 62
     6
100
AcDbLine
 10
272.5554795095
 20
207.5000024227
 30
0.0
 11
294.4445204905
 21
207.5000024227
 31
0.0
  0
LINE
  5
24B
330
1F
100
AcDbEntity
  8
図_寸法
  6
EXLTYPE4
 62
     6
100
AcDbLine
 10
263.25
 20
198.5000024227
 30
0.0
 11
303.75
 21
198.5000024227
 31
0.0
  0
ARC
  5
24C
330
1F
100
AcDbEntity
  8
図_寸法
  6
EXLTYPE4
 62
     6
100
AcDbCircle
 10
309.75
 20
176.4651451976
 30
0.0
 40
5.0
100
AcDbArc
 50
180.0
 51
243.2563160496001
  0
ARC
  5
24D
330
1F
100
AcDbEntity
  8
図_寸法
  6
EXLTYPE4
 62
     6
100
AcDbCircle
 10
257.25
 20
176.4651451976
 30
0.0
 40
5.0
100
AcDbArc
 50
296.7436839504001
 51
0.0
  0
LINE
  5
24E
330
1F
100
AcDbEntity
  8
図_寸法
  6
EXLTYPE4
 62
     6
100
AcDbLine
 10
307.5
 20
172.0000024227
 30
0.0
 11
259.5
 21
172.0000024227
 31
0.0
  0
ARC
  5
24F
330
1F
100
AcDbEntity
  8
図_寸法
  6
EXLTYPE4
 62
     6
100
AcDbCircle
 10
320.5559457923
 20
223.998474487
 30
0.0
 40
30.00000000000002
100
AcDbArc
 50
215.3154201146
 51
236.1903334197001
  0
ARC
  5
250
330
1F
100
AcDbEntity
  8
図_寸法
  6
EXLTYPE4
 62
     6
100
AcDbCircle
 10
246.4440542077
 20
223.998474487
 30
0.0
 40
30.00000000000002
100
AcDbArc
 50
303.8096665803002
 51
324.6845798854002
  0
ARC
  5
251
330
1F
100
AcDbEntity
  8
図_寸法
  6
EXLTYPE4
 62
     6
100
AcDbCircle
 10
302.75
 20
197.4099751979
 30
0.0
 40
2.0
100
AcDbArc
 50
0.0
 51
56.19033341970998
  0
ARC
  5
252
330
1F
100
AcDbEntity
  8
図_寸法
  6
EXLTYPE4
 62
     6
100
AcDbCircle
 10
272.5554795095
 20
205.5000024227
 30
0.0
 40
2.0
100
AcDbArc
 50
90.00000000000001
 51
144.6845798854
  0
ARC
  5
253
330
1F
100
AcDbEntity
  8
図_寸法
  6
EXLTYPE4
 62
     6
100
AcDbCircle
 10
294.4445204905
 20
205.5000024227
 30
0.0
 40
2.0
100
AcDbArc
 50
35.31542011461999
 51
90.00000000000001
  0
ARC
  5
254
330
1F
100
AcDbEntity
  8
図_寸法
  6
EXLTYPE4
 62
     6
100
AcDbCircle
 10
264.25
 20
197.4099751979
 30
0.0
 40
2.0
100
AcDbArc
 50
123.8096665803
 51
180.0
  0
LINE
  5
255
330
1F
100
AcDbEntity
  8
図_寸法
  6
EXLTYPE4
 62
     6
100
AcDbLine
 10
291.44
 20
139.0000024227
 30
0.0
 11
291.44
 21
171.5000024227
 31
0.0
  0
LINE
  5
256
330
1F
100
AcDbEntity
  8
図_寸法
  6
EXLTYPE4
 62
     6
100
AcDbLine
 10
291.44
 20
207.5000024227
 30
0.0
 11
291.44
 21
219.0000024227
 31
0.0
  0
LINE
  5
257
330
1F
100
AcDbEntity
  8
図_寸法
  6
EXLTYPE4
 62
     6
100
AcDbLine
 10
275.56
 20
139.0000024227
 30
0.0
 11
275.56
 21
171.5000024227
 31
0.0
  0
LINE
  5
258
330
1F
100
AcDbEntity
  8
図_寸法
  6
EXLTYPE4
 62
     6
100
AcDbLine
 10
275.56
 20
207.5000024227
 30
0.0
 11
275.56
 21
219.0000024227
 31
0.0
  0
ARC
  5
259
330
1F
100
AcDbEntity
  8
図_寸法
  6
CONTINUOUS
 62
     6
100
AcDbCircle
 10
106.5
 20
288.94289
 30
0.0
 40
2.527195000000001
100
AcDbArc
 50
255.6159
 51
284.3841000000002
  0
POLYLINE
  5
25A
330
1F
100
AcDbEntity
  8
図_寸法
  6
CONTINUOUS
 62
     6
100
AcDb2dPolyline
 66
     1
 10
0.0
 20
0.0
 30
0.0
 70
   128
  0
VERTEX
  5
25B
330
25A
100
AcDbEntity
  8
図_寸法
  6
CONTINUOUS
 62
     6
100
AcDbVertex
100
AcDb2dVertex
 10
105.06
 20
266.9
 30
0.0
  0
VERTEX
  5
25C
330
25A
100
AcDbEntity
  8
図_寸法
  6
CONTINUOUS
 62
     6
100
AcDbVertex
100
AcDb2dVertex
 10
105.1319166319646
 20
266.8195768625112
 30
0.0
  0
VERTEX
  5
25D
330
25A
100
AcDbEntity
  8
図_寸法
  6
CONTINUOUS
 62
     6
100
AcDbVertex
100
AcDb2dVertex
 10
105.3355610320971
 20
266.5985758785943
 30
0.0
  0
VERTEX
  5
25E
330
25A
100
AcDbEntity
  8
図_寸法
  6
CONTINUOUS
 62
     6
100
AcDbVertex
100
AcDb2dVertex
 10
105.6527749567563
 20
266.2673996910728
 30
0.0
  0
VERTEX
  5
25F
330
25A
100
AcDbEntity
  8
図_寸法
  6
CONTINUOUS
 62
     6
100
AcDbVertex
100
AcDb2dVertex
 10
106.0654001623004
 20
265.8564509427707
 30
0.0
  0
VERTEX
  5
260
330
25A
100
AcDbEntity
  8
図_寸法
  6
CONTINUOUS
 62
     6
100
AcDbVertex
100
AcDb2dVertex
 10
106.555278405088
 20
265.3961322765119
 30
0.0
  0
VERTEX
  5
261
330
25A
100
AcDbEntity
  8
図_寸法
  6
CONTINUOUS
 62
     6
100
AcDbVertex
100
AcDb2dVertex
 10
107.1042514414775
 20
264.9168463351201
 30
0.0
  0
VERTEX
  5
262
330
25A
100
AcDbEntity
  8
図_寸法
  6
CONTINUOUS
 62
     6
100
AcDbVertex
100
AcDb2dVertex
 10
107.6941610278274
 20
264.4489957614191
 30
0.0
  0
VERTEX
  5
263
330
25A
100
AcDbEntity
  8
図_寸法
  6
CONTINUOUS
 62
     6
100
AcDbVertex
100
AcDb2dVertex
 10
108.3068489204961
 20
264.0229831982328
 30
0.0
  0
VERTEX
  5
264
330
25A
100
AcDbEntity
  8
図_寸法
  6
CONTINUOUS
 62
     6
100
AcDbVertex
100
AcDb2dVertex
 10
108.9241568758422
 20
263.669211288385
 30
0.0
  0
VERTEX
  5
265
330
25A
100
AcDbEntity
  8
図_寸法
  6
CONTINUOUS
 62
     6
100
AcDbVertex
100
AcDb2dVertex
 10
109.527926650224
 20
263.4180826746994
 30
0.0
  0
VERTEX
  5
266
330
25A
100
AcDbEntity
  8
図_寸法
  6
CONTINUOUS
 62
     6
100
AcDbVertex
100
AcDb2dVertex
 10
110.1
 20
263.3000000000001
 30
0.0
  0
VERTEX
  5
267
330
25A
100
AcDbEntity
  8
図_寸法
  6
CONTINUOUS
 62
     6
100
AcDbVertex
100
AcDb2dVertex
 10
110.6043959287372
 20
263.33081028803
 30
0.0
  0
VERTEX
  5
268
330
25A
100
AcDbEntity
  8
図_寸法
  6
CONTINUOUS
 62
     6
100
AcDbVertex
100
AcDb2dVertex
 10
111.0726296781562
 20
263.4855926540462
 30
0.0
  0
VERTEX
  5
269
330
25A
100
AcDbEntity
  8
図_寸法
  6
CONTINUOUS
 62
     6
100
AcDbVertex
100
AcDb2dVertex
 10
111.5140380036897
 20
263.7391508710333
 30
0.0
  0
VERTEX
  5
26A
330
25A
100
AcDbEntity
  8
図_寸法
  6
CONTINUOUS
 62
     6
100
AcDbVertex
100
AcDb2dVertex
 10
111.9379576607704
 20
264.0662887119755
 30
0.0
  0
VERTEX
  5
26B
330
25A
100
AcDbEntity
  8
図_寸法
  6
CONTINUOUS
 62
     6
100
AcDbVertex
100
AcDb2dVertex
 10
112.353725404831
 20
264.4418099498571
 30
0.0
  0
VERTEX
  5
26C
330
25A
100
AcDbEntity
  8
図_寸法
  6
CONTINUOUS
 62
     6
100
AcDbVertex
100
AcDb2dVertex
 10
112.770677991304
 20
264.8405183576626
 30
0.0
  0
VERTEX
  5
26D
330
25A
100
AcDbEntity
  8
図_寸法
  6
CONTINUOUS
 62
     6
100
AcDbVertex
100
AcDb2dVertex
 10
113.1981521756221
 20
265.2372177083763
 30
0.0
  0
VERTEX
  5
26E
330
25A
100
AcDbEntity
  8
図_寸法
  6
CONTINUOUS
 62
     6
100
AcDbVertex
100
AcDb2dVertex
 10
113.6454847132182
 20
265.6067117749825
 30
0.0
  0
VERTEX
  5
26F
330
25A
100
AcDbEntity
  8
図_寸法
  6
CONTINUOUS
 62
     6
100
AcDbVertex
100
AcDb2dVertex
 10
114.1220123595247
 20
265.9238043304657
 30
0.0
  0
VERTEX
  5
270
330
25A
100
AcDbEntity
  8
図_寸法
  6
CONTINUOUS
 62
     6
100
AcDbVertex
100
AcDb2dVertex
 10
114.6370718699744
 20
266.1632991478101
 30
0.0
  0
VERTEX
  5
271
330
25A
100
AcDbEntity
  8
図_寸法
  6
CONTINUOUS
 62
     6
100
AcDbVertex
100
AcDb2dVertex
 10
115.2
 20
266.3000000000001
 30
0.0
  0
VERTEX
  5
272
330
25A
100
AcDbEntity
  8
図_寸法
  6
CONTINUOUS
 62
     6
100
AcDbVertex
100
AcDb2dVertex
 10
115.8402439609563
 20
266.3147914293796
 30
0.0
  0
VERTEX
  5
273
330
25A
100
AcDbEntity
  8
図_寸法
  6
CONTINUOUS
 62
     6
100
AcDbVertex
100
AcDb2dVertex
 10
116.5208745555921
 20
266.2152348428677
 30
0.0
  0
VERTEX
  5
274
330
25A
100
AcDbEntity
  8
図_寸法
  6
CONTINUOUS
 62
     6
100
AcDbVertex
100
AcDb2dVertex
 10
117.2205345207385
 20
266.0251268171361
 30
0.0
  0
VERTEX
  5
275
330
25A
100
AcDbEntity
  8
図_寸法
  6
CONTINUOUS
 62
     6
100
AcDbVertex
100
AcDb2dVertex
 10
117.9178665932263
 20
265.7682639288568
 30
0.0
  0
VERTEX
  5
276
330
25A
100
AcDbEntity
  8
図_寸法
  6
CONTINUOUS
 62
     6
100
AcDbVertex
100
AcDb2dVertex
 10
118.5915135098866
 20
265.4684427547014
 30
0.0
  0
VERTEX
  5
277
330
25A
100
AcDbEntity
  8
図_寸法
  6
CONTINUOUS
 62
     6
100
AcDbVertex
100
AcDb2dVertex
 10
119.2201180075501
 20
265.1494598713421
 30
0.0
  0
VERTEX
  5
278
330
25A
100
AcDbEntity
  8
図_寸法
  6
CONTINUOUS
 62
     6
100
AcDbVertex
100
AcDb2dVertex
 10
119.7823228230479
 20
264.8351118554506
 30
0.0
  0
VERTEX
  5
279
330
25A
100
AcDbEntity
  8
図_寸法
  6
CONTINUOUS
 62
     6
100
AcDbVertex
100
AcDb2dVertex
 10
120.2567706932108
 20
264.5491952836987
 30
0.0
  0
VERTEX
  5
27A
330
25A
100
AcDbEntity
  8
図_寸法
  6
CONTINUOUS
 62
     6
100
AcDbVertex
100
AcDb2dVertex
 10
120.6221043548699
 20
264.3155067327585
 30
0.0
  0
VERTEX
  5
27B
330
25A
100
AcDbEntity
  8
図_寸法
  6
CONTINUOUS
 62
     6
100
AcDbVertex
100
AcDb2dVertex
 10
120.8569665448559
 20
264.1578427793016
 30
0.0
  0
VERTEX
  5
27C
330
25A
100
AcDbEntity
  8
図_寸法
  6
CONTINUOUS
 62
     6
100
AcDbVertex
100
AcDb2dVertex
 10
120.94
 20
264.1
 30
0.0
  0
SEQEND
  5
27D
330
25A
100
AcDbEntity
  8
図_寸法
  6
CONTINUOUS
 62
     6
  0
LINE
  5
27E
330
1F
100
AcDbEntity
  8
図_寸法
  6
CONTINUOUS
 62
     2
100
AcDbLine
 10
255.5
 20
301.5
 30
0.0
 11
255.5
 21
298.2
 31
0.0
  0
LINE
  5
27F
330
1F
100
AcDbEntity
  8
図_寸法
  6
CONTINUOUS
 62
     2
100
AcDbLine
 10
255.5
 20
300.0
 30
0.0
 11
231.5
 21
300.0
 31
0.0
  0
LINE
  5
280
330
1F
100
AcDbEntity
  8
図_寸法
  6
CONTINUOUS
 62
     2
100
AcDbLine
 10
231.5
 20
301.5
 30
0.0
 11
231.5
 21
298.2
 31
0.0
  0
LINE
  5
281
330
1F
100
AcDbEntity
  8
図_寸法
  6
CONTINUOUS
 62
     2
100
AcDbLine
 10
276.0
 20
358.0
 30
0.0
 11
276.0
 21
360.5
 31
0.0
  0
LINE
  5
282
330
1F
100
AcDbEntity
  8
図_寸法
  6
CONTINUOUS
 62
     2
100
AcDbLine
 10
297.0
 20
360.5
 30
0.0
 11
297.0
 21
357.4775
 31
0.0
  0
LINE
  5
283
330
1F
100
AcDbEntity
  8
図_寸法
  6
CONTINUOUS
 62
     2
100
AcDbLine
 10
280.5
 20
375.0
 30
0.0
 11
292.5
 21
375.0
 31
0.0
  0
LINE
  5
284
330
1F
100
AcDbEntity
  8
図_寸法
  6
CONTINUOUS
 62
     2
100
AcDbLine
 10
294.0
 20
368.65685
 30
0.0
 11
294.0
 21
373.5
 31
0.0
  0
LINE
  5
285
330
1F
100
AcDbEntity
  8
図_寸法
  6
CONTINUOUS
 62
     2
100
AcDbLine
 10
275.877502
 20
360.5
 30
0.0
 11
297.1225
 21
360.5
 31
0.0
  0
LINE
  5
286
330
1F
100
AcDbEntity
  8
図_寸法
  6
CONTINUOUS
 62
     2
100
AcDbLine
 10
279.0
 20
368.65685
 30
0.0
 11
279.0
 21
373.5
 31
0.0
  0
LINE
  5
287
330
1F
100
AcDbEntity
  8
図_寸法
  6
CONTINUOUS
 62
     2
100
AcDbLine
 10
287.20001
 20
375.0
 30
0.0
 11
287.20001
 21
375.97547
 31
0.0
  0
LINE
  5
288
330
1F
100
AcDbEntity
  8
図_寸法
  6
CONTINUOUS
 62
     2
100
AcDbLine
 10
285.79999
 20
375.0
 30
0.0
 11
285.79999
 21
375.97547
 31
0.0
  0
LINE
  5
289
330
1F
100
AcDbEntity
  8
図_寸法
  6
CONTINUOUS
 62
     2
100
AcDbLine
 10
256.39999
 20
286.2
 30
0.0
 11
230.6
 21
286.2
 31
0.0
  0
LINE
  5
28A
330
1F
100
AcDbEntity
  8
図_寸法
  6
CONTINUOUS
 62
     2
100
AcDbLine
 10
256.39999
 20
298.2
 30
0.0
 11
230.6
 21
298.2
 31
0.0
  0
LINE
  5
28B
330
1F
100
AcDbEntity
  8
図_寸法
  6
CONTINUOUS
 62
     2
100
AcDbLine
 10
255.5
 20
301.5
 30
0.0
 11
231.5
 21
301.5
 31
0.0
  0
LINE
  5
28C
330
1F
100
AcDbEntity
  8
図_寸法
  6
CONTINUOUS
 62
     2
100
AcDbLine
 10
104.5
 20
386.0
 30
0.0
 11
103.0
 21
384.6364
 31
0.0
  0
LINE
  5
28D
330
1F
100
AcDbEntity
  8
図_寸法
  6
CONTINUOUS
 62
     2
100
AcDbLine
 10
104.5
 20
386.0
 30
0.0
 11
121.5
 21
386.0
 31
0.0
  0
LINE
  5
28E
330
1F
100
AcDbEntity
  8
図_寸法
  6
CONTINUOUS
 62
     2
100
AcDbLine
 10
121.5
 20
386.0
 30
0.0
 11
123.0
 21
384.6364
 31
0.0
  0
LINE
  5
28F
330
1F
100
AcDbEntity
  8
図_寸法
  6
CONTINUOUS
 62
     2
100
AcDbLine
 10
100.6237
 20
372.36443
 30
0.0
 11
90.68810000000002
 21
370.25253
 31
0.0
  0
LINE
  5
290
330
1F
100
AcDbEntity
  8
図_寸法
  6
CONTINUOUS
 62
     2
100
AcDbLine
 10
91.0
 20
361.0
 30
0.0
 11
135.0
 21
361.0
 31
0.0
  0
LINE
  5
291
330
1F
100
AcDbEntity
  8
図_寸法
  6
CONTINUOUS
 62
     2
100
AcDbLine
 10
136.5
 20
362.5
 30
0.0
 11
136.5
 21
368.78531
 31
0.0
  0
LINE
  5
292
330
1F
100
AcDbEntity
  8
図_寸法
  6
CONTINUOUS
 62
     2
100
AcDbLine
 10
125.3763
 20
372.36443
 30
0.0
 11
135.3119
 21
370.25253
 31
0.0
  0
LINE
  5
293
330
1F
100
AcDbEntity
  8
図_寸法
  6
CONTINUOUS
 62
     2
100
AcDbLine
 10
92.5
 20
370.25253
 30
0.0
 11
133.5
 21
370.25253
 31
0.0
  0
LINE
  5
294
330
1F
100
AcDbEntity
  8
図_寸法
  6
CONTINUOUS
 62
     2
100
AcDbLine
 10
91.5
 20
341.0
 30
0.0
 11
91.5
 21
361.0
 31
0.0
  0
LINE
  5
295
330
1F
100
AcDbEntity
  8
図_寸法
  6
CONTINUOUS
 62
     2
100
AcDbLine
 10
134.5
 20
361.0
 30
0.0
 11
134.5
 21
341.0
 31
0.0
  0
LINE
  5
296
330
1F
100
AcDbEntity
  8
図_寸法
  6
CONTINUOUS
 62
     2
100
AcDbLine
 10
100.1
 20
286.200003
 30
0.0
 11
125.9
 21
286.200003
 31
0.0
  0
LINE
  5
297
330
1F
100
AcDbEntity
  8
図_寸法
  6
CONTINUOUS
 62
     2
100
AcDbLine
 10
100.1
 20
298.2
 30
0.0
 11
125.9
 21
298.2
 31
0.0
  0
LINE
  5
298
330
1F
100
AcDbEntity
  8
図_寸法
  6
CONTINUOUS
 62
     2
100
AcDbLine
 10
101.0
 20
301.5
 30
0.0
 11
101.0
 21
298.2
 31
0.0
  0
LINE
  5
299
330
1F
100
AcDbEntity
  8
図_寸法
  6
CONTINUOUS
 62
     2
100
AcDbLine
 10
98.0
 20
306.69615
 30
0.0
 11
98.0
 21
313.0
 31
0.0
  0
LINE
  5
29A
330
1F
100
AcDbEntity
  8
図_寸法
  6
CONTINUOUS
 62
     2
100
AcDbLine
 10
125.0
 20
301.5
 30
0.0
 11
125.0
 21
298.2
 31
0.0
  0
LINE
  5
29B
330
1F
100
AcDbEntity
  8
図_寸法
  6
CONTINUOUS
 62
     2
100
AcDbLine
 10
128.0
 20
306.69615
 30
0.0
 11
128.0
 21
313.0
 31
0.0
  0
LINE
  5
29C
330
1F
100
AcDbEntity
  8
図_寸法
  6
CONTINUOUS
 62
     2
100
AcDbLine
 10
106.6
 20
387.2
 30
0.0
 11
106.6
 21
386.0
 31
0.0
  0
LINE
  5
29D
330
1F
100
AcDbEntity
  8
図_寸法
  6
CONTINUOUS
 62
     2
100
AcDbLine
 10
106.9
 20
387.5
 30
0.0
 11
106.6
 21
387.2
 31
0.0
  0
LINE
  5
29E
330
1F
100
AcDbEntity
  8
図_寸法
  6
CONTINUOUS
 62
     2
100
AcDbLine
 10
106.9
 20
387.5
 30
0.0
 11
112.2
 21
387.5
 31
0.0
  0
LINE
  5
29F
330
1F
100
AcDbEntity
  8
図_寸法
  6
CONTINUOUS
 62
     2
100
AcDbLine
 10
112.2
 20
387.5
 30
0.0
 11
112.2
 21
386.0
 31
0.0
  0
LINE
  5
2A0
330
1F
100
AcDbEntity
  8
図_寸法
  6
CONTINUOUS
 62
     2
100
AcDbLine
 10
113.8
 20
387.5
 30
0.0
 11
113.8
 21
386.0
 31
0.0
  0
LINE
  5
2A1
330
1F
100
AcDbEntity
  8
図_寸法
  6
CONTINUOUS
 62
     2
100
AcDbLine
 10
119.1
 20
387.5
 30
0.0
 11
113.8
 21
387.5
 31
0.0
  0
LINE
  5
2A2
330
1F
100
AcDbEntity
  8
図_寸法
  6
CONTINUOUS
 62
     2
100
AcDbLine
 10
119.1
 20
387.5
 30
0.0
 11
119.4
 21
387.2
 31
0.0
  0
LINE
  5
2A3
330
1F
100
AcDbEntity
  8
図_寸法
  6
CONTINUOUS
 62
     2
100
AcDbLine
 10
119.4
 20
387.2
 30
0.0
 11
119.4
 21
386.0
 31
0.0
  0
LINE
  5
2A4
330
1F
100
AcDbEntity
  8
図_寸法
  6
CONTINUOUS
 62
     2
100
AcDbLine
 10
103.0
 20
384.6364
 30
0.0
 11
103.0
 21
375.29887
 31
0.0
  0
LINE
  5
2A5
330
1F
100
AcDbEntity
  8
図_寸法
  6
CONTINUOUS
 62
     2
100
AcDbLine
 10
123.0
 20
375.29887
 30
0.0
 11
123.0
 21
384.6364
 31
0.0
  0
LINE
  5
2A6
330
1F
100
AcDbEntity
  8
図_寸法
  6
CONTINUOUS
 62
     2
100
AcDbLine
 10
128.5
 20
327.98212
 30
0.0
 11
128.5
 21
314.01788
 31
0.0
  0
LINE
  5
2A7
330
1F
100
AcDbEntity
  8
図_寸法
  6
CONTINUOUS
 62
     2
100
AcDbLine
 10
97.5
 20
314.01788
 30
0.0
 11
97.5
 21
327.98212
 31
0.0
  0
LINE
  5
2A8
330
1F
100
AcDbEntity
  8
図_寸法
  6
CONTINUOUS
 62
     2
100
AcDbLine
 10
99.20330000000001
 20
311.06767
 30
0.0
 11
111.2967
 21
304.08554
 31
0.0
  0
LINE
  5
2A9
330
1F
100
AcDbEntity
  8
図_寸法
  6
CONTINUOUS
 62
     2
100
AcDbLine
 10
114.7033
 20
304.08554
 30
0.0
 11
126.7967
 21
311.06768
 31
0.0
  0
LINE
  5
2AA
330
1F
100
AcDbEntity
  8
図_寸法
  6
CONTINUOUS
 62
     2
100
AcDbLine
 10
114.7033
 20
337.91446
 30
0.0
 11
126.7967
 21
330.93233
 31
0.0
  0
LINE
  5
2AB
330
1F
100
AcDbEntity
  8
図_寸法
  6
CONTINUOUS
 62
     2
100
AcDbLine
 10
99.20330000000001
 20
330.93234
 30
0.0
 11
111.2967
 21
337.91446
 31
0.0
  0
LINE
  5
2AC
330
1F
100
AcDbEntity
  8
図_寸法
  6
CONTINUOUS
 62
     2
100
AcDbLine
 10
332.5
 20
350.2775
 30
0.0
 11
332.5
 21
331.72252
 31
0.0
  0
LINE
  5
2AD
330
1F
100
AcDbEntity
  8
図_寸法
  6
CONTINUOUS
 62
     2
100
AcDbLine
 10
331.29999
 20
351.4775
 30
0.0
 11
332.5
 21
350.2775
 31
0.0
  0
LINE
  5
2AE
330
1F
100
AcDbEntity
  8
図_寸法
  6
CONTINUOUS
 62
     2
100
AcDbLine
 10
332.5
 20
331.72252
 30
0.0
 11
331.29999
 21
330.52251
 31
0.0
  0
LINE
  5
2AF
330
1F
100
AcDbEntity
  8
図_寸法
  6
CONTINUOUS
 62
     2
100
AcDbLine
 10
331.29999
 20
351.4775
 30
0.0
 11
331.29999
 21
330.52251
 31
0.0
  0
LINE
  5
2B0
330
1F
100
AcDbEntity
  8
図_寸法
  6
CONTINUOUS
 62
     2
100
AcDbLine
 10
306.62332
 20
330.52251
 30
0.0
 11
309.0
 21
330.52251
 31
0.0
  0
LINE
  5
2B1
330
1F
100
AcDbEntity
  8
図_寸法
  6
CONTINUOUS
 62
     2
100
AcDbLine
 10
318.50009
 20
317.25
 30
0.0
 11
318.50015
 21
364.75
 31
0.0
  0
LINE
  5
2B2
330
1F
100
AcDbEntity
  8
図_寸法
  6
CONTINUOUS
 62
     2
100
AcDbLine
 10
315.10141
 20
364.75
 30
0.0
 11
318.50015
 21
364.75
 31
0.0
  0
LINE
  5
2B3
330
1F
100
AcDbEntity
  8
図_寸法
  6
CONTINUOUS
 62
     2
100
AcDbLine
 10
314.0
 20
363.65182
 30
0.0
 11
314.0
 21
318.34817
 31
0.0
  0
LINE
  5
2B4
330
1F
100
AcDbEntity
  8
図_寸法
  6
CONTINUOUS
 62
     2
100
AcDbLine
 10
315.10141
 20
317.25
 30
0.0
 11
318.50012
 21
317.25
 31
0.0
  0
LINE
  5
2B5
330
1F
100
AcDbEntity
  8
図_寸法
  6
CONTINUOUS
 62
     2
100
AcDbLine
 10
309.0
 20
355.51994
 30
0.0
 11
309.0
 21
326.48004
 31
0.0
  0
LINE
  5
2B6
330
1F
100
AcDbEntity
  8
図_寸法
  6
CONTINUOUS
 62
     2
100
AcDbLine
 10
331.29999
 20
351.4775
 30
0.0
 11
318.50014
 21
351.4775
 31
0.0
  0
LINE
  5
2B7
330
1F
100
AcDbEntity
  8
図_寸法
  6
CONTINUOUS
 62
     2
100
AcDbLine
 10
216.32288
 20
304.0
 30
0.0
 11
207.67712
 21
304.0
 31
0.0
  0
LINE
  5
2B8
330
1F
100
AcDbEntity
  8
図_寸法
  6
CONTINUOUS
 62
     2
100
AcDbLine
 10
207.0
 20
336.5
 30
0.0
 11
207.0
 21
305.5
 31
0.0
  0
LINE
  5
2B9
330
1F
100
AcDbEntity
  8
図_寸法
  6
CONTINUOUS
 62
     2
100
AcDbLine
 10
217.0
 20
336.5
 30
0.0
 11
217.0
 21
305.5
 31
0.0
  0
LINE
  5
2BA
330
1F
100
AcDbEntity
  8
図_寸法
  6
CONTINUOUS
 62
     2
100
AcDbLine
 10
200.5
 20
314.5
 30
0.0
 11
200.5
 21
327.5
 31
0.0
  0
LINE
  5
2BB
330
1F
100
AcDbEntity
  8
図_寸法
  6
CONTINUOUS
 62
     2
100
AcDbLine
 10
255.87625
 20
372.36443
 30
0.0
 11
265.81189
 21
370.25253
 31
0.0
  0
LINE
  5
2BC
330
1F
100
AcDbEntity
  8
図_寸法
  6
CONTINUOUS
 62
     2
100
AcDbLine
 10
249.60004
 20
387.5
 30
0.0
 11
237.39996
 21
387.5
 31
0.0
  0
LINE
  5
2BD
330
1F
100
AcDbEntity
  8
図_寸法
  6
CONTINUOUS
 62
     2
100
AcDbLine
 10
222.0
 20
369.99982
 30
0.0
 11
265.0
 21
369.99982
 31
0.0
  0
LINE
  5
2BE
330
1F
100
AcDbEntity
  8
図_寸法
  6
CONTINUOUS
 62
     2
100
AcDbLine
 10
265.5
 20
361.0
 30
0.0
 11
221.5
 21
361.0
 31
0.0
  0
LINE
  5
2BF
330
1F
100
AcDbEntity
  8
図_寸法
  6
CONTINUOUS
 62
     2
100
AcDbLine
 10
216.32288
 20
338.0
 30
0.0
 11
207.67712
 21
338.0
 31
0.0
  0
LINE
  5
2C0
330
1F
100
AcDbEntity
  8
図_寸法
  6
CONTINUOUS
 62
     2
100
AcDbLine
 10
195.5
 20
330.0
 30
0.0
 11
195.5
 21
312.0
 31
0.0
  0
LINE
  5
2C1
330
1F
100
AcDbEntity
  8
図_寸法
  6
CONTINUOUS
 62
     2
100
AcDbLine
 10
195.5
 20
326.5
 30
0.0
 11
200.5
 21
326.5
 31
0.0
  0
LINE
  5
2C2
330
1F
100
AcDbEntity
  8
図_寸法
  6
CONTINUOUS
 62
     2
100
AcDbLine
 10
195.5
 20
315.5
 30
0.0
 11
200.5
 21
315.5
 31
0.0
  0
LINE
  5
2C3
330
1F
100
AcDbEntity
  8
図_寸法
  6
CONTINUOUS
 62
     2
100
AcDbLine
 10
192.5
 20
312.0
 30
0.0
 11
192.5
 21
330.0
 31
0.0
  0
LINE
  5
2C4
330
1F
100
AcDbEntity
  8
図_寸法
  6
CONTINUOUS
 62
     2
100
AcDbLine
 10
202.5
 20
312.5
 30
0.0
 11
207.0
 21
312.5
 31
0.0
  0
LINE
  5
2C5
330
1F
100
AcDbEntity
  8
図_寸法
  6
CONTINUOUS
 62
     2
100
AcDbLine
 10
202.5
 20
329.5
 30
0.0
 11
207.0
 21
329.5
 31
0.0
  0
LINE
  5
2C6
330
1F
100
AcDbEntity
  8
図_寸法
  6
CONTINUOUS
 62
     2
100
AcDbLine
 10
252.0
 20
386.0
 30
0.0
 11
235.0
 21
386.0
 31
0.0
  0
LINE
  5
2C7
330
1F
100
AcDbEntity
  8
図_寸法
  6
CONTINUOUS
 62
     2
100
AcDbLine
 10
252.0
 20
386.0
 30
0.0
 11
254.75
 21
383.5
 31
0.0
  0
LINE
  5
2C8
330
1F
100
AcDbEntity
  8
図_寸法
  6
CONTINUOUS
 62
     2
100
AcDbLine
 10
254.75
 20
377.73557
 30
0.0
 11
254.75
 21
383.5
 31
0.0
  0
LINE
  5
2C9
330
1F
100
AcDbEntity
  8
図_寸法
  6
CONTINUOUS
 62
     2
100
AcDbLine
 10
267.0
 20
362.5
 30
0.0
 11
267.0
 21
368.78531
 31
0.0
  0
LINE
  5
2CA
330
1F
100
AcDbEntity
  8
図_寸法
  6
CONTINUOUS
 62
     2
100
AcDbLine
 10
235.0
 20
386.0
 30
0.0
 11
232.25
 21
383.5
 31
0.0
  0
LINE
  5
2CB
330
1F
100
AcDbEntity
  8
図_寸法
  6
CONTINUOUS
 62
     2
100
AcDbLine
 10
232.25
 20
377.73557
 30
0.0
 11
232.25
 21
383.5
 31
0.0
  0
LINE
  5
2CC
330
1F
100
AcDbEntity
  8
図_寸法
  6
CONTINUOUS
 62
     2
100
AcDbLine
 10
231.12372
 20
372.36443
 30
0.0
 11
221.18811
 21
370.25253
 31
0.0
  0
LINE
  5
2CD
330
1F
100
AcDbEntity
  8
図_寸法
  6
CONTINUOUS
 62
     2
100
AcDbLine
 10
220.0
 20
362.5
 30
0.0
 11
220.0
 21
368.78531
 31
0.0
  0
LINE
  5
2CE
330
1F
100
AcDbEntity
  8
図_寸法
  6
CONTINUOUS
 62
     2
100
AcDbLine
 10
270.068329
 20
329.5
 30
0.0
 11
264.5
 21
329.5
 31
0.0
  0
LINE
  5
2CF
330
1F
100
AcDbEntity
  8
図_寸法
  6
CONTINUOUS
 62
     2
100
AcDbLine
 10
217.0
 20
335.0
 30
0.0
 11
217.94125
 21
335.0
 31
0.0
  0
LINE
  5
2D0
330
1F
100
AcDbEntity
  8
図_寸法
  6
CONTINUOUS
 62
     2
100
AcDbLine
 10
218.5
 20
335.03132
 30
0.0
 11
218.5
 21
307.0
 31
0.0
  0
LINE
  5
2D1
330
1F
100
AcDbEntity
  8
図_寸法
  6
CONTINUOUS
 62
     2
100
AcDbLine
 10
217.0
 20
307.0
 30
0.0
 11
224.55283
 21
307.0
 31
0.0
  0
LINE
  5
2D2
330
1F
100
AcDbEntity
  8
図_寸法
  6
CONTINUOUS
 62
     2
100
AcDbLine
 10
258.5
 20
306.69615
 30
0.0
 11
258.5
 21
323.5
 31
0.0
  0
LINE
  5
2D3
330
1F
100
AcDbEntity
  8
図_寸法
  6
CONTINUOUS
 62
     2
100
AcDbLine
 10
222.0
 20
347.0
 30
0.0
 11
222.0
 21
361.0
 31
0.0
  0
LINE
  5
2D4
330
1F
100
AcDbEntity
  8
図_寸法
  6
CONTINUOUS
 62
     2
100
AcDbLine
 10
265.0
 20
361.0
 30
0.0
 11
265.0
 21
358.0
 31
0.0
  0
LINE
  5
2D5
330
1F
100
AcDbEntity
  8
図_寸法
  6
CONTINUOUS
 62
     2
100
AcDbLine
 10
101.0
 20
300.0
 30
0.0
 11
125.0
 21
300.0
 31
0.0
  0
LINE
  5
2D6
330
1F
100
AcDbEntity
  8
図_寸法
  6
CONTINUOUS
 62
     2
100
AcDbLine
 10
125.0
 20
301.5
 30
0.0
 11
101.0
 21
301.5
 31
0.0
  0
LINE
  5
2D7
330
1F
100
AcDbEntity
  8
図_寸法
  6
CONTINUOUS
 62
     2
100
AcDbLine
 10
126.0
 20
297.98432
 30
0.0
 11
126.0
 21
286.41569
 31
0.0
  0
LINE
  5
2D8
330
1F
100
AcDbEntity
  8
図_寸法
  6
CONTINUOUS
 62
     2
100
AcDbLine
 10
100.0
 20
297.98432
 30
0.0
 11
100.0
 21
286.41569
 31
0.0
  0
LINE
  5
2D9
330
1F
100
AcDbEntity
  8
図_寸法
  6
CONTINUOUS
 62
     2
100
AcDbLine
 10
309.0
 20
351.4775
 30
0.0
 11
303.0
 21
351.4775
 31
0.0
  0
LINE
  5
2DA
330
1F
100
AcDbEntity
  8
図_寸法
  6
CONTINUOUS
 62
     2
100
AcDbLine
 10
318.50011
 20
330.52251
 30
0.0
 11
331.29999
 21
330.52251
 31
0.0
  0
ARC
  5
2DB
330
1F
100
AcDbEntity
  8
図_寸法
  6
CONTINUOUS
 62
     2
100
AcDbCircle
 10
234.5
 20
306.69615
 30
0.0
 40
6.000000000000004
100
AcDbArc
 50
205.2725000000002
 51
240.0000000000001
  0
ARC
  5
2DC
330
1F
100
AcDbEntity
  8
図_寸法
  6
CONTINUOUS
 62
     2
100
AcDbCircle
 10
252.5
 20
306.69615
 30
0.0
 40
6.000000000000004
100
AcDbArc
 50
300.0000000000002
 51
0.0
  0
ARC
  5
2DD
330
1F
100
AcDbEntity
  8
図_寸法
  6
CONTINUOUS
 62
     2
100
AcDbCircle
 10
224.55283
 20
302.0
 30
0.0
 40
5.0
100
AcDbArc
 50
25.27236999999998
 51
90.00000000000001
  0
ARC
  5
2DE
330
1F
100
AcDbEntity
  8
図_寸法
  6
CONTINUOUS
 62
     2
100
AcDbCircle
 10
270.5
 20
358.0
 30
0.0
 40
5.5
100
AcDbArc
 50
180.0
 51
0.0
  0
ARC
  5
2DF
330
1F
100
AcDbEntity
  8
図_寸法
  6
CONTINUOUS
 62
     2
100
AcDbCircle
 10
286.5
 20
368.0
 30
0.0
 40
40.5
100
AcDbArc
 50
256.1206
 51
287.0839
  0
ARC
  5
2E0
330
1F
100
AcDbEntity
  8
図_寸法
  6
CONTINUOUS
 62
     2
100
AcDbCircle
 10
270.068329
 20
301.5
 30
0.0
 40
28.00000000000002
100
AcDbArc
 50
76.12063999999997
 51
90.00000000000001
  0
ARC
  5
2E1
330
1F
100
AcDbEntity
  8
図_寸法
  6
CONTINUOUS
 62
     2
100
AcDbCircle
 10
292.5
 20
373.5
 30
0.0
 40
1.5
100
AcDbArc
 50
0.0
 51
90.00000000000001
  0
ARC
  5
2E2
330
1F
100
AcDbEntity
  8
図_寸法
  6
CONTINUOUS
 62
     2
100
AcDbCircle
 10
294.0
 20
363.0
 30
0.0
 40
4.0
100
AcDbArc
 50
321.3178000000003
 51
70.52874999999996
  0
ARC
  5
2E3
330
1F
100
AcDbEntity
  8
図_寸法
  6
CONTINUOUS
 62
     2
100
AcDbCircle
 10
296.0
 20
368.65685
 30
0.0
 40
2.0
100
AcDbArc
 50
180.0
 51
250.5288000000001
  0
ARC
  5
2E4
330
1F
100
AcDbEntity
  8
図_寸法
  6
CONTINUOUS
 62
     2
100
AcDbCircle
 10
280.5
 20
373.5
 30
0.0
 40
1.5
100
AcDbArc
 50
90.00000000000001
 51
180.0
  0
ARC
  5
2E5
330
1F
100
AcDbEntity
  8
図_寸法
  6
CONTINUOUS
 62
     2
100
AcDbCircle
 10
279.0
 20
363.0
 30
0.0
 40
4.0
100
AcDbArc
 50
109.4713
 51
218.6822
  0
ARC
  5
2E6
330
1F
100
AcDbEntity
  8
図_寸法
  6
CONTINUOUS
 62
     2
100
AcDbCircle
 10
286.5
 20
366.0
 30
0.0
 40
10.0
100
AcDbArc
 50
64.15807999999997
 51
85.98601999999997
  0
ARC
  5
2E7
330
1F
100
AcDbEntity
  8
図_寸法
  6
CONTINUOUS
 62
     2
100
AcDbCircle
 10
286.5
 20
366.0
 30
0.0
 40
10.0
100
AcDbArc
 50
94.01397999999996
 51
115.8418999999999
  0
ARC
  5
2E8
330
1F
100
AcDbEntity
  8
図_寸法
  6
CONTINUOUS
 62
     2
100
AcDbCircle
 10
243.25836
 20
292.2
 30
0.0
 40
14.00836000000001
100
AcDbArc
 50
154.6393000000001
 51
205.3607000000001
  0
ARC
  5
2E9
330
1F
100
AcDbEntity
  8
図_寸法
  6
CONTINUOUS
 62
     2
100
AcDbCircle
 10
243.74164
 20
292.2
 30
0.0
 40
14.00836000000001
100
AcDbArc
 50
334.6393000000002
 51
25.36071999999998
  0
ARC
  5
2EA
330
1F
100
AcDbEntity
  8
図_寸法
  6
CONTINUOUS
 62
     2
100
AcDbCircle
 10
126.0
 20
375.29887
 30
0.0
 40
3.000000000000002
100
AcDbArc
 50
180.0
 51
258.0000000000003
  0
ARC
  5
2EB
330
1F
100
AcDbEntity
  8
図_寸法
  6
CONTINUOUS
 62
     2
100
AcDbCircle
 10
100.0
 20
375.29887
 30
0.0
 40
3.000000000000002
100
AcDbArc
 50
282.0000000000002
 51
0.0
  0
ARC
  5
2EC
330
1F
100
AcDbEntity
  8
図_寸法
  6
CONTINUOUS
 62
     2
100
AcDbCircle
 10
135.0
 20
362.5
 30
0.0
 40
1.5
100
AcDbArc
 50
270.0000000000002
 51
0.0
  0
ARC
  5
2ED
330
1F
100
AcDbEntity
  8
図_寸法
  6
CONTINUOUS
 62
     2
100
AcDbCircle
 10
135.0
 20
368.78531
 30
0.0
 40
1.5
100
AcDbArc
 50
0.0
 51
77.99969
  0
ARC
  5
2EE
330
1F
100
AcDbEntity
  8
図_寸法
  6
CONTINUOUS
 62
     2
100
AcDbCircle
 10
112.7584
 20
292.2
 30
0.0
 40
14.00836000000001
100
AcDbArc
 50
154.6393000000001
 51
155.6117000000001
  0
ARC
  5
2EF
330
1F
100
AcDbEntity
  8
図_寸法
  6
CONTINUOUS
 62
     2
100
AcDbCircle
 10
104.0
 20
306.69615
 30
0.0
 40
6.000000000000004
100
AcDbArc
 50
180.0
 51
240.0000000000001
  0
ARC
  5
2F0
330
1F
100
AcDbEntity
  8
図_寸法
  6
CONTINUOUS
 62
     2
100
AcDbCircle
 10
113.2416
 20
292.2
 30
0.0
 40
14.00836000000001
100
AcDbArc
 50
334.6393000000002
 51
335.6117000000003
  0
ARC
  5
2F1
330
1F
100
AcDbEntity
  8
図_寸法
  6
CONTINUOUS
 62
     2
100
AcDbCircle
 10
122.0
 20
306.69615
 30
0.0
 40
6.000000000000004
100
AcDbArc
 50
300.0000000000002
 51
0.0
  0
ARC
  5
2F2
330
1F
100
AcDbEntity
  8
図_寸法
  6
CONTINUOUS
 62
     2
100
AcDbCircle
 10
146.0
 20
319.29171
 30
0.0
 40
18.0
100
AcDbArc
 50
163.8765
 51
166.4638
  0
ARC
  5
2F3
330
1F
100
AcDbEntity
  8
図_寸法
  6
CONTINUOUS
 62
     2
100
AcDbCircle
 10
113.0
 20
341.0
 30
0.0
 40
21.5
100
AcDbArc
 50
180.0
 51
213.338
  0
ARC
  5
2F4
330
1F
100
AcDbEntity
  8
図_寸法
  6
CONTINUOUS
 62
     2
100
AcDbCircle
 10
80.0
 20
319.29171
 30
0.0
 40
18.0
100
AcDbArc
 50
13.53618999999999
 51
33.33800999999995
  0
CIRCLE
  5
2F5
330
1F
100
AcDbEntity
  8
図_寸法
  6
CONTINUOUS
 62
     2
100
AcDbCircle
 10
113.0
 20
321.0
 30
0.0
 40
10.5
  0
ARC
  5
2F6
330
1F
100
AcDbEntity
  8
図_寸法
  6
CONTINUOUS
 62
     2
100
AcDbCircle
 10
113.0
 20
321.0
 30
0.0
 40
17.0
100
AcDbArc
 50
84.24966
 51
95.75049
  0
ARC
  5
2F7
330
1F
100
AcDbEntity
  8
図_寸法
  6
CONTINUOUS
 62
     2
100
AcDbCircle
 10
113.0
 20
321.0
 30
0.0
 40
17.0
100
AcDbArc
 50
144.2496
 51
155.7505
  0
ARC
  5
2F8
330
1F
100
AcDbEntity
  8
図_寸法
  6
CONTINUOUS
 62
     2
100
AcDbCircle
 10
113.0
 20
321.0
 30
0.0
 40
17.0
100
AcDbArc
 50
204.2496000000001
 51
215.7505
  0
ARC
  5
2F9
330
1F
100
AcDbEntity
  8
図_寸法
  6
CONTINUOUS
 62
     2
100
AcDbCircle
 10
113.0
 20
321.0
 30
0.0
 40
17.0
100
AcDbArc
 50
264.2496000000002
 51
275.7505000000002
  0
ARC
  5
2FA
330
1F
100
AcDbEntity
  8
図_寸法
  6
CONTINUOUS
 62
     2
100
AcDbCircle
 10
113.0
 20
321.0
 30
0.0
 40
17.0
100
AcDbArc
 50
324.2496000000003
 51
335.7505000000002
  0
ARC
  5
2FB
330
1F
100
AcDbEntity
  8
図_寸法
  6
CONTINUOUS
 62
     2
100
AcDbCircle
 10
113.0
 20
321.0
 30
0.0
 40
17.0
100
AcDbArc
 50
24.24962999999997
 51
35.75048999999997
  0
ARC
  5
2FC
330
1F
100
AcDbEntity
  8
図_寸法
  6
CONTINUOUS
 62
     2
100
AcDbCircle
 10
306.62332
 20
302.52251
 30
0.0
 40
28.00000000000002
100
AcDbArc
 50
90.00000000000001
 51
107.0839
  0
ARC
  5
2FD
330
1F
100
AcDbEntity
  8
図_寸法
  6
CONTINUOUS
 62
     2
100
AcDbCircle
 10
398.214
 20
310.82413
 30
0.0
 40
100.0000000000001
100
AcDbArc
 50
148.0043
 51
152.8656
  0
ARC
  5
2FE
330
1F
100
AcDbEntity
  8
図_寸法
  6
CONTINUOUS
 62
     2
100
AcDbCircle
 10
315.10141
 20
362.75
 30
0.0
 40
2.0
100
AcDbArc
 50
90.00000000000001
 51
148.0043
  0
ARC
  5
2FF
330
1F
100
AcDbEntity
  8
図_寸法
  6
CONTINUOUS
 62
     2
100
AcDbCircle
 10
398.214
 20
371.17586
 30
0.0
 40
100.0000000000001
100
AcDbArc
 50
207.1344
 51
211.9957000000002
  0
ARC
  5
300
330
1F
100
AcDbEntity
  8
図_寸法
  6
CONTINUOUS
 62
     2
100
AcDbCircle
 10
315.10141
 20
319.25
 30
0.0
 40
2.0
100
AcDbArc
 50
211.9957000000002
 51
270.0000000000002
  0
ARC
  5
301
330
1F
100
AcDbEntity
  8
図_寸法
  6
CONTINUOUS
 62
     2
100
AcDbCircle
 10
311.0
 20
355.51994
 30
0.0
 40
2.0
100
AcDbArc
 50
152.8656
 51
180.0
  0
ARC
  5
302
330
1F
100
AcDbEntity
  8
図_寸法
  6
CONTINUOUS
 62
     2
100
AcDbCircle
 10
311.0
 20
326.48006
 30
0.0
 40
2.0
100
AcDbArc
 50
180.0007000000001
 51
207.1344
  0
ARC
  5
303
330
1F
100
AcDbEntity
  8
図_寸法
  6
CONTINUOUS
 62
     2
100
AcDbCircle
 10
303.0
 20
357.4775
 30
0.0
 40
6.000000000000004
100
AcDbArc
 50
180.0
 51
270.0000000000002
  0
ARC
  5
304
330
1F
100
AcDbEntity
  8
図_寸法
  6
CONTINUOUS
 62
     2
100
AcDbCircle
 10
277.0
 20
368.65685
 30
0.0
 40
2.0
100
AcDbArc
 50
289.4711000000004
 51
0.0
  0
ARC
  5
305
330
1F
100
AcDbEntity
  8
図_寸法
  6
CONTINUOUS
 62
     2
100
AcDbCircle
 10
209.0
 20
305.5
 30
0.0
 40
2.0
100
AcDbArc
 50
180.0
 51
228.5903
  0
ARC
  5
306
330
1F
100
AcDbEntity
  8
図_寸法
  6
CONTINUOUS
 62
     2
100
AcDbCircle
 10
215.0
 20
305.5
 30
0.0
 40
2.0
100
AcDbArc
 50
311.4097
 51
0.0
  0
ARC
  5
307
330
1F
100
AcDbEntity
  8
図_寸法
  6
CONTINUOUS
 62
     2
100
AcDbCircle
 10
256.5
 20
375.29887
 30
0.0
 40
3.000000000000002
100
AcDbArc
 50
125.6853
 51
258.0000000000003
  0
ARC
  5
308
330
1F
100
AcDbEntity
  8
図_寸法
  6
CONTINUOUS
 62
     2
100
AcDbCircle
 10
215.0
 20
336.5
 30
0.0
 40
2.0
100
AcDbArc
 50
0.0
 51
48.59035999999995
  0
ARC
  5
309
330
1F
100
AcDbEntity
  8
図_寸法
  6
CONTINUOUS
 62
     2
100
AcDbCircle
 10
209.0
 20
336.5
 30
0.0
 40
2.0
100
AcDbArc
 50
131.4096
 51
180.0
  0
ARC
  5
30A
330
1F
100
AcDbEntity
  8
図_寸法
  6
CONTINUOUS
 62
     2
100
AcDbCircle
 10
194.0
 20
312.0
 30
0.0
 40
1.5
100
AcDbArc
 50
180.0
 51
0.0
  0
ARC
  5
30B
330
1F
100
AcDbEntity
  8
図_寸法
  6
CONTINUOUS
 62
     2
100
AcDbCircle
 10
194.0
 20
330.0
 30
0.0
 40
1.5
100
AcDbArc
 50
0.0
 51
180.0
  0
ARC
  5
30C
330
1F
100
AcDbEntity
  8
図_寸法
  6
CONTINUOUS
 62
     2
100
AcDbCircle
 10
202.5
 20
314.5
 30
0.0
 40
2.0
100
AcDbArc
 50
180.0
 51
270.0000000000002
  0
ARC
  5
30D
330
1F
100
AcDbEntity
  8
図_寸法
  6
CONTINUOUS
 62
     2
100
AcDbCircle
 10
265.5
 20
368.78531
 30
0.0
 40
1.5
100
AcDbArc
 50
0.0
 51
77.99972999999996
  0
ARC
  5
30E
330
1F
100
AcDbEntity
  8
図_寸法
  6
CONTINUOUS
 62
     2
100
AcDbCircle
 10
265.5
 20
362.5
 30
0.0
 40
1.5
100
AcDbArc
 50
270.0000000000002
 51
0.0
  0
ARC
  5
30F
330
1F
100
AcDbEntity
  8
図_寸法
  6
CONTINUOUS
 62
     2
100
AcDbCircle
 10
230.5
 20
375.29887
 30
0.0
 40
3.000000000000002
100
AcDbArc
 50
282.0000000000002
 51
54.31466999999998
  0
ARC
  5
310
330
1F
100
AcDbEntity
  8
図_寸法
  6
CONTINUOUS
 62
     2
100
AcDbCircle
 10
221.5
 20
368.78531
 30
0.0
 40
1.5
100
AcDbArc
 50
102.0003
 51
180.0
  0
ARC
  5
311
330
1F
100
AcDbEntity
  8
図_寸法
  6
CONTINUOUS
 62
     2
100
AcDbCircle
 10
264.5
 20
323.5
 30
0.0
 40
6.000000000000004
100
AcDbArc
 50
90.00000000000001
 51
180.0
  0
ARC
  5
312
330
1F
100
AcDbEntity
  8
図_寸法
  6
CONTINUOUS
 62
     2
100
AcDbCircle
 10
217.94125
 20
340.0
 30
0.0
 40
5.0
100
AcDbArc
 50
270.0000000000002
 51
15.31653
  0
ARC
  5
313
330
1F
100
AcDbEntity
  8
図_寸法
  6
CONTINUOUS
 62
     2
100
AcDbCircle
 10
243.5
 20
347.0
 30
0.0
 40
21.5
100
AcDbArc
 50
180.0
 51
195.3165000000001
  0
ARC
  5
314
330
1F
100
AcDbEntity
  8
図_寸法
  6
CONTINUOUS
 62
     2
100
AcDbCircle
 10
113.2416
 20
292.2
 30
0.0
 40
14.00836000000001
100
AcDbArc
 50
24.38830999999998
 51
25.36071999999998
  0
ARC
  5
315
330
1F
100
AcDbEntity
  8
図_寸法
  6
CONTINUOUS
 62
     2
100
AcDbCircle
 10
112.7584
 20
292.2
 30
0.0
 40
14.00836000000001
100
AcDbArc
 50
204.3883000000001
 51
205.3607000000001
  0
ARC
  5
316
330
1F
100
AcDbEntity
  8
図_寸法
  6
CONTINUOUS
 62
     2
100
AcDbCircle
 10
202.5
 20
327.5
 30
0.0
 40
2.0
100
AcDbArc
 50
90.00000000000001
 51
180.0
  0
ARC
  5
317
330
1F
100
AcDbEntity
  8
図_寸法
  6
CONTINUOUS
 62
     2
100
AcDbCircle
 10
221.5
 20
362.5
 30
0.0
 40
1.5
100
AcDbArc
 50
180.0
 51
270.0000000000002
  0
LINE
  5
318
330
1F
100
AcDbEntity
  8
図_寸法
  6
CONTINUOUS
 62
     2
100
AcDbLine
 10
235.56
 20
139.0000024227
 30
0.0
 11
251.44
 21
139.0000024227
 31
0.0
  0
LINE
  5
319
330
1F
100
AcDbEntity
  8
図_寸法
  6
CONTINUOUS
 62
     2
100
AcDbLine
 10
251.44
 20
139.0000024227
 30
0.0
 11
251.44
 21
286.2
 31
0.0
  0
LINE
  5
31A
330
1F
100
AcDbEntity
  8
図_寸法
  6
CONTINUOUS
 62
     2
100
AcDbLine
 10
105.06
 20
266.9
 30
0.0
 11
105.06
 21
286.200003
 31
0.0
  0
LINE
  5
31B
330
1F
100
AcDbEntity
  8
図_寸法
  6
CONTINUOUS
 62
     2
100
AcDbLine
 10
120.94
 20
264.1
 30
0.0
 11
120.94
 21
286.200003
 31
0.0
  0
LINE
  5
31C
330
1F
100
AcDbEntity
  8
図_寸法
  6
CONTINUOUS
 62
     2
100
AcDbLine
 10
235.56
 20
139.0000024227
 30
0.0
 11
235.56
 21
286.2
 31
0.0
  0
ARC
  5
31D
330
1F
100
AcDbEntity
  8
図_寸法
  6
CONTINUOUS
 62
     2
100
AcDbCircle
 10
113.0
 20
341.0
 30
0.0
 40
21.5
100
AcDbArc
 50
326.6620000000002
 51
0.0
  0
ARC
  5
31E
330
1F
100
AcDbEntity
  8
図_寸法
  6
CONTINUOUS
 62
     2
100
AcDbCircle
 10
146.0
 20
319.29171
 30
0.0
 40
18.0
100
AcDbArc
 50
146.66199
 51
166.4638100000001
  0
LINE
  5
31F
330
1F
100
AcDbEntity
  8
図_寸法
  6
CONTINUOUS
 62
     2
100
AcDbLine
 10
237.1501766953
 20
387.2
 30
0.0
 11
237.1501766953
 21
386.0
 31
0.0
  0
LINE
  5
320
330
1F
100
AcDbEntity
  8
図_寸法
  6
CONTINUOUS
 62
     2
100
AcDbLine
 10
237.1501766953
 20
387.2
 30
0.0
 11
237.39996
 21
387.5
 31
0.0
  0
LINE
  5
321
330
1F
100
AcDbEntity
  8
図_寸法
  6
CONTINUOUS
 62
     2
100
AcDbLine
 10
249.8498233047
 20
387.2
 30
0.0
 11
249.8498233047
 21
386.0
 31
0.0
  0
LINE
  5
322
330
1F
100
AcDbEntity
  8
図_寸法
  6
CONTINUOUS
 62
     2
100
AcDbLine
 10
249.8498233047
 20
387.2
 30
0.0
 11
249.60004
 21
387.5
 31
0.0
  0
ARC
  5
323
330
1F
100
AcDbEntity
  8
図_寸法
  6
CONTINUOUS
 62
     2
100
AcDbCircle
 10
113.0
 20
341.0
 30
0.0
 40
23.75000000000002
100
AcDbArc
 50
310.7403067507001
 51
25.14125064635997
  0
TEXT
  5
324
330
1F
100
AcDbEntity
  8
図_寸法
  6
CONTINUOUS
 62
     3
100
AcDbText
 10
101.2
 20
346.75
 30
0.0
 40
6.0
  1
ＩＮＡＸ
 41
1.217391304347826
  7
EXCADSTD
 72
     5
 11
125.2
 21
346.75
 31
0.0
100
AcDbText
  0
LEADER
  5
325
330
1F
100
AcDbEntity
  8
図_寸法
  6
CONTINUOUS
 62
     3
100
AcDbLeader
  3
ISO-25
 76
     3
 10
235.56
 20
174.6
 30
0.0
 10
222.68
 20
161.72
 30
0.0
 10
191.9
 20
161.72
 30
0.0
1001
ACAD
1000
DSTYLE
1002
{
1070
     5
1000
EX_NORM
1070
    41
1040
6.0
1070
   341
1005
4A
1002
}
  0
TEXT
  5
326
330
1F
100
AcDbEntity
  8
図_寸法
  6
CONTINUOUS
 62
     2
100
AcDbText
 10
196.68
 20
162.4199999880791
 30
0.0
 40
8.0
  1
ＪＵ６Ａ
 41
0.9891304347826088
  7
EXCADSTD
 72
     5
 11
222.68
 21
162.4199999880791
 31
0.0
100
AcDbText
  0
LEADER
  5
327
330
1F
100
AcDbEntity
  8
図_寸法
  6
CONTINUOUS
 62
     3
100
AcDbLeader
  3
ISO-25
 76
     3
 10
291.44
 20
155.2500024227
 30
0.0
 10
304.69500121135
 20
141.99500121135
 30
0.0
 10
326.0
 20
141.99500121135
 30
0.0
1001
ACAD
1000
DSTYLE
1002
{
1070
     5
1000
EX_NORM
1070
    41
1040
6.0
1070
   341
1005
4A
1002
}
  0
TEXT
  5
328
330
1F
100
AcDbEntity
  8
図_寸法
  6
CONTINUOUS
 62
     2
100
AcDbText
 10
304.69500121135
 20
142.6950011994291
 30
0.0
 40
8.0
  1
ＪＵ６
 41
1.029411764705882
  7
EXCADSTD
 72
     5
 11
324.69500121135
 21
142.6950011994291
 31
0.0
100
AcDbText
  0
ENDSEC
  0
SECTION
  2
OBJECTS
  0
DICTIONARY
  5
C
330
0
100
AcDbDictionary
  3
ACAD_GROUP
350
D
  3
ACAD_LAYOUT
350
1A
  3
ACAD_MATERIAL
350
3B
  3
ACAD_MLEADERSTYLE
350
34B
  3
ACAD_MLINESTYLE
350
17
  3
ACAD_PLOTSETTINGS
350
19
  3
ACAD_VISUALSTYLE
350
2A
  3
ACDBHEADERROUNDTRIPXREC
350
329
  3
ACDBVARIABLEDICTIONARY
350
349
  0
DICTIONARY
  5
D
102
{ACAD_REACTORS
330
C
102
}
330
C
100
AcDbDictionary
  0
DICTIONARY
  5
1A
102
{ACAD_REACTORS
330
C
102
}
330
C
100
AcDbDictionary
  0
DICTIONARY
  5
3B
102
{ACAD_REACTORS
330
C
102
}
330
C
100
AcDbDictionary
  3
BYBLOCK
350
3D
  3
BYLAYER
350
3C
  3
GLOBAL
350
3E
  0
DICTIONARY
  5
34B
102
{ACAD_REACTORS
330
C
102
}
330
C
100
AcDbDictionary
  0
DICTIONARY
  5
17
102
{ACAD_REACTORS
330
C
102
}
330
C
100
AcDbDictionary
  3
STANDARD
350
18
  0
DICTIONARY
  5
19
102
{ACAD_REACTORS
330
C
102
}
330
C
100
AcDbDictionary
  0
DICTIONARY
  5
2A
102
{ACAD_REACTORS
330
C
102
}
330
C
100
AcDbDictionary
  3
2DWIREFRAME
350
2F
  3
3D_HIDDEN
350
31
  3
3DWIREFRAME
350
30
  3
BASIC
350
32
  3
BRIGHTEN
350
36
  3
COLORCHANGE
350
3A
  3
CONCEPTUAL
350
34
  3
DIM
350
35
  3
FACEPATTERN
350
39
  3
FLAT
350
2B
  3
FLATWITHEDGES
350
2C
  3
GOURAUD
350
2D
  3
GOURAUDWITHEDGES
350
2E
  3
LINEPATTERN
350
38
  3
REALISTIC
350
33
  3
THICKEN
350
37
  0
DICTIONARY
  5
329
102
{ACAD_REACTORS
330
C
102
}
330
C
100
AcDbDictionary
  3
CEPSNTYPE
350
332
  3
DIMSTYLEDATA
350
348
  3
FINGERPRINTGUID
350
333
  3
HYPERLINKBASE
350
32C
  3
INSUNITS
350
331
  3
LAYOUTDICT
350
32E
  3
LWETCUNION
350
330
  3
PLOTSETDICT
350
32F
  3
PSVPSCALE
350
335
  3
PUCSBASE
350
338
  3
PUCSORGBACK
350
33E
  3
PUCSORGBOTTOM
350
33A
  3
PUCSORGFRONT
350
33D
  3
PUCSORGLEFT
350
33B
  3
PUCSORGRIGHT
350
33C
  3
PUCSORGTOP
350
339
  3
PUCSORTHOREF
350
336
  3
PUCSORTHOVIEW
350
337
  3
STYLESHEET
350
32D
  3
TSTACKALIGN
350
32A
  3
TSTACKSIZE
350
32B
  3
UCSBASE
350
341
  3
UCSORGBACK
350
347
  3
UCSORGBOTTOM
350
343
  3
UCSORGFRONT
350
346
  3
UCSORGLEFT
350
344
  3
UCSORGRIGHT
350
345
  3
UCSORGTOP
350
342
  3
UCSORTHOREF
350
33F
  3
UCSORTHOVIEW
350
340
  3
VERSIONGUID
350
334
  0
DICTIONARY
  5
349
102
{ACAD_REACTORS
330
C
102
}
330
C
100
AcDbDictionary
  3
DIMASSOC
350
34E
  3
HIDETEXT
350
34F
  3
PSOLHEIGHT
350
34D
  3
PSOLWIDTH
350
34C
  0
MATERIAL
  5
3D
102
{ACAD_REACTORS
330
3B
102
}
102
{ACAD_XDICTIONARY
360
352
102
}
330
3B
100
AcDbMaterial
  1
ByBlock
  0
MATERIAL
  5
3C
102
{ACAD_REACTORS
330
3B
102
}
102
{ACAD_XDICTIONARY
360
350
102
}
330
3B
100
AcDbMaterial
  1
ByLayer
  0
MATERIAL
  5
3E
102
{ACAD_REACTORS
330
3B
102
}
102
{ACAD_XDICTIONARY
360
354
102
}
330
3B
100
AcDbMaterial
  1
Global
  0
MLINESTYLE
  5
18
102
{ACAD_REACTORS
330
17
102
}
330
17
100
AcDbMlineStyle
  2
Standard
 70
     0
  3

 62
   256
 51
90.0
 52
90.0
 71
     2
 49
0.5
 62
   256
  6
BYLAYER
 49
-0.5
 62
   256
  6
BYLAYER
  0
ACAD_PROXY_OBJECT
  5
2F
102
{ACAD_REACTORS
330
2A
102
}
330
2A
100
AcDbProxyObject
 90
      499
 91
      501
 93
      436
310
42CC9915DA5C99599C985B595049028333333333333E3BF0000000000000FB0107901411070040501600405405064090741402480A0340
1001
ACAD
1000
AcDbSavedByObjectVersion
1070
     0
  0
ACAD_PROXY_OBJECT
  5
31
102
{ACAD_REACTORS
330
2A
102
}
330
2A
100
AcDbProxyObject
 90
      499
 91
      501
 93
      500
310
424CD108121A5919195B90640502408333333333333E3BF0000000000000FB01079024090700405020000000000001110200405405064090740C02480A0340
1001
ACAD
1000
AcDbSavedByObjectVersion
1070
     0
  0
ACAD_PROXY_OBJECT
  5
30
102
{ACAD_REACTORS
330
2A
102
}
330
2A
100
AcDbProxyObject
 90
      499
 91
      501
 93
      436
310
42CCD915DA5C99599C985B595059028333333333333E3BF0000000000000FB0107901411070040501600405405064090741402480A0340
1001
ACAD
1000
AcDbSavedByObjectVersion
1070
     0
  0
ACAD_PROXY_OBJECT
  5
32
102
{ACAD_REACTORS
330
2A
102
}
330
2A
100
AcDbProxyObject
 90
      499
 91
      501
 93
      388
310
4150985CDA58D07406404333333333333E3BF0000000000000FB0107A41107004050150841D405064090741402480A0350
1001
ACAD
1000
AcDbSavedByObjectVersion
1070
     0
  0
ACAD_PROXY_OBJECT
  5
36
102
{ACAD_REACTORS
330
2A
102
}
330
2A
100
AcDbProxyObject
 90
      499
 91
      501
 93
      428
310
42109C9A59DA1D195B90C409028333333333333E3BF0000000000000FB010790141107004050150841D405064090741402480A029950
1001
ACAD
1000
AcDbSavedByObjectVersion
1070
     0
  0
ACAD_PROXY_OBJECT
  5
3A
102
{ACAD_REACTORS
330
2A
102
}
330
2A
100
AcDbProxyObject
 90
      499
 91
      501
 93
      452
310
42D0DBDB1BDC90DA185B99D95104090240C333333333333E3BF0000000000000FB0108901411070040501508421405064090741402480A0350
1001
ACAD
1000
AcDbSavedByObjectVersion
1070
     0
  0
ACAD_PROXY_OBJECT
  5
34
102
{ACAD_REACTORS
330
2A
102
}
330
2A
100
AcDbProxyObject
 90
      499
 91
      501
 93
      500
310
4290DBDB98D95C1D1D585B10940D028333333333333E3BF0000000000000FB0107902409070040501000000000000111010841D405064090740C02480A0340
1001
ACAD
1000
AcDbSavedByObjectVersion
1070
     0
  0
ACAD_PROXY_OBJECT
  5
35
102
{ACAD_REACTORS
330
2A
102
}
330
2A
100
AcDbProxyObject
 90
      499
 91
      501
 93
      412
310
40D11A5B50B409028333333333333E3BF0000000000000FB010790141107004050150841D405064090741402480A02677FFFFFD0
1001
ACAD
1000
AcDbSavedByObjectVersion
1070
     0
  0
ACAD_PROXY_OBJECT
  5
39
102
{ACAD_REACTORS
330
2A
102
}
330
2A
100
AcDbProxyObject
 90
      499
 91
      501
 93
      444
310
42D19858D95C185D1D195C9B90F409028333333333333E3BF0000000000000FB010790141107004050150841D405064090741402480A0350
1001
ACAD
1000
AcDbSavedByObjectVersion
1070
     0
  0
ACAD_PROXY_OBJECT
  5
2B
102
{ACAD_REACTORS
330
2A
102
}
330
2A
100
AcDbProxyObject
 90
      499
 91
      501
 93
      388
310
41119B185D240901404333333333333E3BF0000000000000F9010740A41107004050150841D405064090741402480A1B50
1001
ACAD
1000
AcDbSavedByObjectVersion
1070
     0
  0
ACAD_PROXY_OBJECT
  5
2C
102
{ACAD_REACTORS
330
2A
102
}
330
2A
100
AcDbProxyObject
 90
      499
 91
      501
 93
      476
310
43519B185D15DA5D1A115919D95CD0140901404333333333333E3BF0000000000000F9010740901411070040501600405405064090741402480A1B50
1001
ACAD
1000
AcDbSavedByObjectVersion
1070
     0
  0
ACAD_PROXY_OBJECT
  5
2D
102
{ACAD_REACTORS
330
2A
102
}
330
2A
100
AcDbProxyObject
 90
      499
 91
      501
 93
      412
310
41D1DBDD5C985D5910240902404333333333333E3BF0000000000000F9010740A411070040501641D405064090741402480A1B50
1001
ACAD
1000
AcDbSavedByObjectVersion
1070
     0
  0
ACAD_PROXY_OBJECT
  5
2E
102
{ACAD_REACTORS
330
2A
102
}
330
2A
100
AcDbProxyObject
 90
      499
 91
      501
 93
      500
310
4411DBDD5C985D5915DA5D1A115919D95CD0340902404333333333333E3BF0000000000000F9010740901411070040501600405405064090741402480A1B50
1001
ACAD
1000
AcDbSavedByObjectVersion
1070
     0
  0
ACAD_PROXY_OBJECT
  5
38
102
{ACAD_REACTORS
330
2A
102
}
330
2A
100
AcDbProxyObject
 90
      499
 91
      501
 93
      444
310
42D31A5B995C185D1D195C9B90E409028333333333333E3BF0000000000000FB010790141107004050750841D405064090741402483A0350
1001
ACAD
1000
AcDbSavedByObjectVersion
1070
     0
  0
ACAD_PROXY_OBJECT
  5
33
102
{ACAD_REACTORS
330
2A
102
}
330
2A
100
AcDbProxyObject
 90
      499
 91
      501
 93
      420
310
425499585B1A5CDD1A58D08409028333333333333E3BF0000000000000FB01079019070040501508421405064090741402480A1B40
1001
ACAD
1000
AcDbSavedByObjectVersion
1070
     0
  0
ACAD_PROXY_OBJECT
  5
37
102
{ACAD_REACTORS
330
2A
102
}
330
2A
100
AcDbProxyObject
 90
      499
 91
      501
 93
      412
310
41D51A1A58DAD95B90D409028333333333333E3BF0000000000000FB010790141107004050150C41D405064090741402480A0350
1001
ACAD
1000
AcDbSavedByObjectVersion
1070
     0
  0
XRECORD
  5
332
102
{ACAD_REACTORS
330
329
102
}
330
329
100
AcDbXrecord
 90
        0
  0
XRECORD
  5
348
102
{ACAD_REACTORS
330
329
102
}
330
329
100
AcDbXrecord
1000
DSTYLE
1002
{
1070
   340
340
11
1002
}
  0
XRECORD
  5
333
102
{ACAD_REACTORS
330
329
102
}
330
329
100
AcDbXrecord
  1
{AE169052-243A-4967-B587-12BCFE638C94}
  0
XRECORD
  5
32C
102
{ACAD_REACTORS
330
329
102
}
330
329
100
AcDbXrecord
  1

  0
XRECORD
  5
331
102
{ACAD_REACTORS
330
329
102
}
330
329
100
AcDbXrecord
 90
        4
  0
XRECORD
  5
32E
102
{ACAD_REACTORS
330
329
102
}
330
329
100
AcDbXrecord
340
1A
  0
XRECORD
  5
330
102
{ACAD_REACTORS
330
329
102
}
330
329
100
AcDbXrecord
 90
    10781
  0
XRECORD
  5
32F
102
{ACAD_REACTORS
330
329
102
}
330
329
100
AcDbXrecord
340
19
  0
XRECORD
  5
335
102
{ACAD_REACTORS
330
329
102
}
330
329
100
AcDbXrecord
 40
0.0
  0
XRECORD
  5
338
102
{ACAD_REACTORS
330
329
102
}
330
329
100
AcDbXrecord
340
0
  0
XRECORD
  5
33E
102
{ACAD_REACTORS
330
329
102
}
330
329
100
AcDbXrecord
 10
0.0
 20
0.0
 30
0.0
  0
XRECORD
  5
33A
102
{ACAD_REACTORS
330
329
102
}
330
329
100
AcDbXrecord
 10
0.0
 20
0.0
 30
0.0
  0
XRECORD
  5
33D
102
{ACAD_REACTORS
330
329
102
}
330
329
100
AcDbXrecord
 10
0.0
 20
0.0
 30
0.0
  0
XRECORD
  5
33B
102
{ACAD_REACTORS
330
329
102
}
330
329
100
AcDbXrecord
 10
0.0
 20
0.0
 30
0.0
  0
XRECORD
  5
33C
102
{ACAD_REACTORS
330
329
102
}
330
329
100
AcDbXrecord
 10
0.0
 20
0.0
 30
0.0
  0
XRECORD
  5
339
102
{ACAD_REACTORS
330
329
102
}
330
329
100
AcDbXrecord
 10
0.0
 20
0.0
 30
0.0
  0
XRECORD
  5
336
102
{ACAD_REACTORS
330
329
102
}
330
329
100
AcDbXrecord
340
0
  0
XRECORD
  5
337
102
{ACAD_REACTORS
330
329
102
}
330
329
100
AcDbXrecord
 70
     0
  0
XRECORD
  5
32D
102
{ACAD_REACTORS
330
329
102
}
330
329
100
AcDbXrecord
  1

  0
XRECORD
  5
32A
102
{ACAD_REACTORS
330
329
102
}
330
329
100
AcDbXrecord
 90
        1
  0
XRECORD
  5
32B
102
{ACAD_REACTORS
330
329
102
}
330
329
100
AcDbXrecord
 90
       70
  0
XRECORD
  5
341
102
{ACAD_REACTORS
330
329
102
}
330
329
100
AcDbXrecord
340
0
  0
XRECORD
  5
347
102
{ACAD_REACTORS
330
329
102
}
330
329
100
AcDbXrecord
 10
0.0
 20
0.0
 30
0.0
  0
XRECORD
  5
343
102
{ACAD_REACTORS
330
329
102
}
330
329
100
AcDbXrecord
 10
0.0
 20
0.0
 30
0.0
  0
XRECORD
  5
346
102
{ACAD_REACTORS
330
329
102
}
330
329
100
AcDbXrecord
 10
0.0
 20
0.0
 30
0.0
  0
XRECORD
  5
344
102
{ACAD_REACTORS
330
329
102
}
330
329
100
AcDbXrecord
 10
0.0
 20
0.0
 30
0.0
  0
XRECORD
  5
345
102
{ACAD_REACTORS
330
329
102
}
330
329
100
AcDbXrecord
 10
0.0
 20
0.0
 30
0.0
  0
XRECORD
  5
342
102
{ACAD_REACTORS
330
329
102
}
330
329
100
AcDbXrecord
 10
0.0
 20
0.0
 30
0.0
  0
XRECORD
  5
33F
102
{ACAD_REACTORS
330
329
102
}
330
329
100
AcDbXrecord
340
0
  0
XRECORD
  5
340
102
{ACAD_REACTORS
330
329
102
}
330
329
100
AcDbXrecord
 70
     0
  0
XRECORD
  5
334
102
{ACAD_REACTORS
330
329
102
}
330
329
100
AcDbXrecord
  1
{FAEB1C32-E019-11D5-929B-00C0DF256EC4}
  0
DICTIONARYVAR
  5
34E
102
{ACAD_REACTORS
330
349
102
}
330
349
100
DictionaryVariables
280
     0
  1
2
  0
DICTIONARYVAR
  5
34F
102
{ACAD_REACTORS
330
349
102
}
330
349
100
DictionaryVariables
280
     0
  1
1
  0
DICTIONARYVAR
  5
34D
102
{ACAD_REACTORS
330
349
102
}
330
349
100
DictionaryVariables
280
     0
  1
80.000000
  0
DICTIONARYVAR
  5
34C
102
{ACAD_REACTORS
330
349
102
}
330
349
100
DictionaryVariables
280
     0
  1
5.000000
  0
DICTIONARY
  5
352
330
3D
100
AcDbDictionary
280
     1
  3
ACAD_XREC_ROUNDTRIP
360
353
  0
DICTIONARY
  5
350
330
3C
100
AcDbDictionary
280
     1
  3
ACAD_XREC_ROUNDTRIP
360
351
  0
DICTIONARY
  5
354
330
3E
100
AcDbDictionary
280
     1
  3
ACAD_XREC_ROUNDTRIP
360
355
  0
XRECORD
  5
353
102
{ACAD_REACTORS
330
352
102
}
330
352
100
AcDbXrecord
102
MATERIAL
148
0.0
149
0.0
149
0.0
 93
        0
 94
      127
282
     0
 72
     1
 77
     1
171
     1
175
     1
179
     1
273
     0
  0
XRECORD
  5
351
102
{ACAD_REACTORS
330
350
102
}
330
350
100
AcDbXrecord
102
MATERIAL
148
0.0
149
0.0
149
0.0
 93
        0
 94
      127
282
     0
 72
     1
 77
     1
171
     1
175
     1
179
     1
273
     0
  0
XRECORD
  5
355
102
{ACAD_REACTORS
330
354
102
}
330
354
100
AcDbXrecord
102
MATERIAL
148
0.0
149
0.0
149
0.0
 93
        0
 94
      127
282
     0
 72
     1
 77
     1
171
     1
175
     1
179
     1
273
     0
  0
ENDSEC
  0
EOF
