  0
SECTION
  2
HEADER
  9
$ACADVER
  1
AC1014
  9
$ACADMAINTVER
 70
     9
  9
$DWGCODEPAGE
  3
ANSI_932
  9
$INSBASE
 10
0.0
 20
0.0
 30
0.0
  9
$EXTMIN
 10
16.0
 20
9.999999999999991
 30
0.0
  9
$EXTMAX
 10
198.0000000000001
 20
286.0
 30
0.0
  9
$LIMMIN
 10
0.0
 20
0.0
  9
$LIMMAX
 10
210.0
 20
297.0
  9
$ORTHOMODE
 70
     0
  9
$REGENMODE
 70
     1
  9
$FILLMODE
 70
     1
  9
$QTEXTMODE
 70
     0
  9
$MIRRTEXT
 70
     1
  9
$DRAGMODE
 70
     2
  9
$LTSCALE
 40
1.0
  9
$OSMODE
 70
    37
  9
$ATTMODE
 70
     1
  9
$TEXTSIZE
 40
2.5
  9
$TRACEWID
 40
1.0
  9
$TEXTSTYLE
  7
STANDARD
  9
$CLAYER
  8
寸法
  9
$CELTYPE
  6
BYLAYER
  9
$CECOLOR
 62
   256
  9
$CELTSCALE
 40
1.0
  9
$DELOBJ
 70
     1
  9
$DISPSILH
 70
     0
  9
$DIMSCALE
 40
1.0
  9
$DIMASZ
 40
2.5
  9
$DIMEXO
 40
0.625
  9
$DIMDLI
 40
3.75
  9
$DIMRND
 40
0.0
  9
$DIMDLE
 40
0.0
  9
$DIMEXE
 40
1.25
  9
$DIMTP
 40
0.0
  9
$DIMTM
 40
0.0
  9
$DIMTXT
 40
2.5
  9
$DIMCEN
 40
2.5
  9
$DIMTSZ
 40
0.0
  9
$DIMTOL
 70
     0
  9
$DIMLIM
 70
     0
  9
$DIMTIH
 70
     0
  9
$DIMTOH
 70
     0
  9
$DIMSE1
 70
     0
  9
$DIMSE2
 70
     0
  9
$DIMTAD
 70
     1
  9
$DIMZIN
 70
     8
  9
$DIMBLK
  1

  9
$DIMASO
 70
     1
  9
$DIMSHO
 70
     1
  9
$DIMPOST
  1

  9
$DIMAPOST
  1

  9
$DIMALT
 70
     0
  9
$DIMALTD
 70
     3
  9
$DIMALTF
 40
0.03937007874016
  9
$DIMLFAC
 40
1.0
  9
$DIMTOFL
 70
     1
  9
$DIMTVP
 40
0.0
  9
$DIMTIX
 70
     0
  9
$DIMSOXD
 70
     0
  9
$DIMSAH
 70
     0
  9
$DIMBLK1
  1

  9
$DIMBLK2
  1

  9
$DIMSTYLE
  2
ISO-25
  9
$DIMCLRD
 70
     0
  9
$DIMCLRE
 70
     0
  9
$DIMCLRT
 70
     0
  9
$DIMTFAC
 40
1.0
  9
$DIMGAP
 40
0.625
  9
$DIMJUST
 70
     0
  9
$DIMSD1
 70
     0
  9
$DIMSD2
 70
     0
  9
$DIMTOLJ
 70
     0
  9
$DIMTZIN
 70
     8
  9
$DIMALTZ
 70
     0
  9
$DIMALTTZ
 70
     0
  9
$DIMFIT
 70
     3
  9
$DIMUPT
 70
     0
  9
$DIMUNIT
 70
     2
  9
$DIMDEC
 70
     2
  9
$DIMTDEC
 70
     2
  9
$DIMALTU
 70
     2
  9
$DIMALTTD
 70
     3
  9
$DIMTXSTY
  7
STANDARD
  9
$DIMAUNIT
 70
     0
  9
$LUNITS
 70
     2
  9
$LUPREC
 70
     4
  9
$SKETCHINC
 40
1.0
  9
$FILLETRAD
 40
10.0
  9
$AUNITS
 70
     0
  9
$AUPREC
 70
     0
  9
$MENU
  1
.
  9
$ELEVATION
 40
0.0
  9
$PELEVATION
 40
0.0
  9
$THICKNESS
 40
0.0
  9
$LIMCHECK
 70
     0
  9
$CHAMFERA
 40
10.0
  9
$CHAMFERB
 40
10.0
  9
$CHAMFERC
 40
20.0
  9
$CHAMFERD
 40
0.0
  9
$SKPOLY
 70
     0
  9
$TDCREATE
 40
2460826.455244167
  9
$TDUPDATE
 40
2460826.455244525
  9
$TDINDWG
 40
0.0000000116
  9
$TDUSRTIMER
 40
0.0000000116
  9
$USRTIMER
 70
     1
  9
$ANGBASE
 50
0.0
  9
$ANGDIR
 70
     0
  9
$PDMODE
 70
     0
  9
$PDSIZE
 40
0.0
  9
$PLINEWID
 40
0.0
  9
$COORDS
 70
     1
  9
$SPLFRAME
 70
     0
  9
$SPLINETYPE
 70
     6
  9
$SPLINESEGS
 70
     8
  9
$ATTDIA
 70
     0
  9
$ATTREQ
 70
     1
  9
$HANDLING
 70
     1
  9
$HANDSEED
  5
383
  9
$SURFTAB1
 70
     6
  9
$SURFTAB2
 70
     6
  9
$SURFTYPE
 70
     6
  9
$SURFU
 70
     6
  9
$SURFV
 70
     6
  9
$UCSNAME
  2

  9
$UCSORG
 10
0.0
 20
0.0
 30
0.0
  9
$UCSXDIR
 10
1.0
 20
0.0
 30
0.0
  9
$UCSYDIR
 10
0.0
 20
1.0
 30
0.0
  9
$PUCSNAME
  2

  9
$PUCSORG
 10
0.0
 20
0.0
 30
0.0
  9
$PUCSXDIR
 10
1.0
 20
0.0
 30
0.0
  9
$PUCSYDIR
 10
0.0
 20
1.0
 30
0.0
  9
$USERI1
 70
     0
  9
$USERI2
 70
     0
  9
$USERI3
 70
     0
  9
$USERI4
 70
     0
  9
$USERI5
 70
     0
  9
$USERR1
 40
0.0
  9
$USERR2
 40
0.0
  9
$USERR3
 40
0.0
  9
$USERR4
 40
0.0
  9
$USERR5
 40
0.0
  9
$WORLDVIEW
 70
     1
  9
$SHADEDGE
 70
     3
  9
$SHADEDIF
 70
    70
  9
$TILEMODE
 70
     1
  9
$MAXACTVP
 70
    64
  9
$PINSBASE
 10
0.0
 20
0.0
 30
0.0
  9
$PLIMCHECK
 70
     0
  9
$PEXTMIN
 10
1.000000000000000E+20
 20
1.000000000000000E+20
 30
1.000000000000000E+20
  9
$PEXTMAX
 10
-1.000000000000000E+20
 20
-1.000000000000000E+20
 30
-1.000000000000000E+20
  9
$PLIMMIN
 10
0.0
 20
0.0
  9
$PLIMMAX
 10
420.0
 20
297.0
  9
$UNITMODE
 70
     0
  9
$VISRETAIN
 70
     1
  9
$PLINEGEN
 70
     0
  9
$PSLTSCALE
 70
     1
  9
$TREEDEPTH
 70
  3020
  9
$PICKSTYLE
 70
     1
  9
$CMLSTYLE
  2
STANDARD
  9
$CMLJUST
 70
     0
  9
$CMLSCALE
 40
20.0
  9
$PROXYGRAPHICS
 70
     1
  9
$MEASUREMENT
 70
     1
  0
ENDSEC
  0
SECTION
  2
CLASSES
  0
CLASS
  1
ACDBDICTIONARYWDFLT
  2
AcDbDictionaryWithDefault
  3
ObjectDBX Classes
 90
        0
280
     0
281
     0
  0
CLASS
  1
VISUALSTYLE
  2
AcDbVisualStyle
  3
ObjectDBX Classes
 90
     4095
280
     0
281
     0
  0
CLASS
  1
MATERIAL
  2
AcDbMaterial
  3
ObjectDBX Classes
 90
     1153
280
     0
281
     0
  0
CLASS
  1
SUN
  2
AcDbSun
  3
SCENEOE
 90
     1024
280
     0
281
     0
  0
CLASS
  1
DICTIONARYVAR
  2
AcDbDictionaryVar
  3
ObjectDBX Classes
 90
        0
280
     0
281
     0
  0
CLASS
  1
XRECORD
  2
AcDbXrecord
  3
AutoCAD 2000
 90
        0
280
     0
281
     0
  0
CLASS
  1
LWPOLYLINE
  2
AcDbPolyline
  3
AutoCAD 2000
 90
        0
280
     0
281
     1
  0
CLASS
  1
HATCH
  2
AcDbHatch
  3
AutoCAD 2000
 90
        0
280
     0
281
     1
  0
CLASS
  1
ACDBPLACEHOLDER
  2
AcDbPlaceHolder
  3
ObjectDBX Classes
 90
        0
280
     0
281
     0
  0
CLASS
  1
LAYOUT
  2
AcDbLayout
  3
ObjectDBX Classes
 90
        0
280
     0
281
     0
  0
ENDSEC
  0
SECTION
  2
TABLES
  0
TABLE
  2
VPORT
  5
8
330
0
100
AcDbSymbolTable
 70
     1
  0
VPORT
  5
29
330
8
100
AcDbSymbolTableRecord
100
AcDbViewportTableRecord
  2
*ACTIVE
 70
     0
 10
0.0
 20
0.0
 11
1.0
 21
1.0
 12
214.0000000000001
 22
296.0
 13
0.0
 23
0.0
 14
10.0
 24
10.0
 15
10.0
 25
10.0
 16
0.0
 26
0.0
 36
1.0
 17
0.0
 27
0.0
 37
0.0
 40
552.0
 41
0.6594202898550727
 42
50.0
 43
0.0
 44
0.0
 50
0.0
 51
0.0
 71
     0
 72
  1000
 73
     1
 74
     3
 75
     0
 76
     0
 77
     0
 78
     0
  0
ENDTAB
  0
TABLE
  2
LTYPE
  5
5
330
0
100
AcDbSymbolTable
 70
     9
  0
LTYPE
  5
14
330
5
100
AcDbSymbolTableRecord
100
AcDbLinetypeTableRecord
  2
BYBLOCK
 70
     0
  3

 72
    65
 73
     0
 40
0.0
  0
LTYPE
  5
15
330
5
100
AcDbSymbolTableRecord
100
AcDbLinetypeTableRecord
  2
BYLAYER
 70
     0
  3

 72
    65
 73
     0
 40
0.0
  0
LTYPE
  5
16
330
5
100
AcDbSymbolTableRecord
100
AcDbLinetypeTableRecord
  2
CONTINUOUS
 70
     0
  3
Solid line
 72
    65
 73
     0
 40
0.0
  0
LTYPE
  5
40
330
5
100
AcDbSymbolTableRecord
100
AcDbLinetypeTableRecord
  2
EXLTYPE1
 70
     0
  3
破線
 72
    65
 73
     2
 40
3.0
 49
2.0
 74
     0
 49
-1.0
 74
     0
  0
LTYPE
  5
41
330
5
100
AcDbSymbolTableRecord
100
AcDbLinetypeTableRecord
  2
EXLTYPE2
 70
     0
  3
点線
 72
    65
 73
     2
 40
2.0
 49
1.0
 74
     0
 49
-1.0
 74
     0
  0
LTYPE
  5
42
330
5
100
AcDbSymbolTableRecord
100
AcDbLinetypeTableRecord
  2
EXLTYPE3
 70
     0
  3
一点鎖線
 72
    65
 73
     4
 40
10.0
 49
7.0
 74
     0
 49
-1.0
 74
     0
 49
1.0
 74
     0
 49
-1.0
 74
     0
  0
LTYPE
  5
43
330
5
100
AcDbSymbolTableRecord
100
AcDbLinetypeTableRecord
  2
EXLTYPE4
 70
     0
  3
二点鎖線
 72
    65
 73
     6
 40
12.0
 49
7.0
 74
     0
 49
-1.0
 74
     0
 49
1.0
 74
     0
 49
-1.0
 74
     0
 49
1.0
 74
     0
 49
-1.0
 74
     0
  0
LTYPE
  5
44
330
5
100
AcDbSymbolTableRecord
100
AcDbLinetypeTableRecord
  2
EXLTYPE5
 70
     0
  3
三点鎖線
 72
    65
 73
     8
 40
37.0
 49
30.0
 74
     0
 49
-1.0
 74
     0
 49
1.0
 74
     0
 49
-1.0
 74
     0
 49
1.0
 74
     0
 49
-1.0
 74
     0
 49
1.0
 74
     0
 49
-1.0
 74
     0
  0
LTYPE
  5
45
330
5
100
AcDbSymbolTableRecord
100
AcDbLinetypeTableRecord
  2
EXLTYPE6
 70
     0
  3
四点鎖線
 72
    65
 73
    10
 40
39.0
 49
30.0
 74
     0
 49
-1.0
 74
     0
 49
1.0
 74
     0
 49
-1.0
 74
     0
 49
1.0
 74
     0
 49
-1.0
 74
     0
 49
1.0
 74
     0
 49
-1.0
 74
     0
 49
1.0
 74
     0
 49
-1.0
 74
     0
  0
LTYPE
  5
46
330
5
100
AcDbSymbolTableRecord
100
AcDbLinetypeTableRecord
  2
EXLTYPE7
 70
     0
  3
一点鎖線2
 72
    65
 73
     4
 40
0.5625
 49
0.375
 74
     0
 49
-0.0625
 74
     0
 49
0.0625
 74
     0
 49
-0.0625
 74
     0
  0
LTYPE
  5
47
330
5
100
AcDbSymbolTableRecord
100
AcDbLinetypeTableRecord
  2
EXLTYPE8
 70
     0
  3
破線2
 72
    65
 73
     2
 40
3.15
 49
2.1
 74
     0
 49
-1.05
 74
     0
  0
ENDTAB
  0
TABLE
  2
LAYER
  5
2
330
0
100
AcDbSymbolTable
 70
     5
  0
LAYER
  5
10
330
2
100
AcDbSymbolTableRecord
100
AcDbLayerTableRecord
  2
0
 70
     0
 62
     7
  6
CONTINUOUS
  0
LAYER
  5
4A
330
2
100
AcDbSymbolTableRecord
100
AcDbLayerTableRecord
  2
枠_表
 70
     0
 62
     7
  6
CONTINUOUS
  0
LAYER
  5
4B
330
2
100
AcDbSymbolTableRecord
100
AcDbLayerTableRecord
  2
図
 70
     0
 62
     7
  6
CONTINUOUS
  0
LAYER
  5
4C
330
2
100
AcDbSymbolTableRecord
100
AcDbLayerTableRecord
  2
寸法
 70
     0
 62
     7
  6
CONTINUOUS
  0
LAYER
  5
2AE
330
2
100
AcDbSymbolTableRecord
100
AcDbLayerTableRecord
  2
DEFPOINTS
 70
     0
 62
     7
  6
CONTINUOUS
  0
ENDTAB
  0
TABLE
  2
STYLE
  5
3
330
0
100
AcDbSymbolTable
 70
     5
  0
STYLE
  5
11
330
3
100
AcDbSymbolTableRecord
100
AcDbTextStyleTableRecord
  2
STANDARD
 70
     0
 40
0.0
 41
1.0
 50
0.0
 71
     0
 42
2.5
  3
monotxt
  4
extfont
  0
STYLE
  5
48
330
3
100
AcDbSymbolTableRecord
100
AcDbTextStyleTableRecord
  2
EXCADSTD
 70
     0
 40
0.0
 41
1.0
 50
0.0
 71
     0
 42
0.2
  3
monotxt
  4
extfont
  0
STYLE
  5
49
330
3
100
AcDbSymbolTableRecord
100
AcDbTextStyleTableRecord
  2
EXCADVERT
 70
     4
 40
0.0
 41
1.0
 50
0.0
 71
     0
 42
0.286885
  3
monotxt
  4
extfont
  0
STYLE
  5
113
330
3
100
AcDbSymbolTableRecord
100
AcDbTextStyleTableRecord
  2
EXCADTTF1
 70
     0
 40
0.0
 41
1.0
 50
0.0
 71
     0
 42
0.2
  3
MSGOTHIC.TTC
  4

1001
ACAD
1000
MS Gothic
1071
    32817
  0
STYLE
  5
2AC
330
3
100
AcDbSymbolTableRecord
100
AcDbTextStyleTableRecord
  2
EXCADDIM1
 70
     0
 40
0.0
 41
0.84
 50
0.0
 71
     0
 42
0.2
  3
monotxt
  4
extfont
  0
ENDTAB
  0
TABLE
  2
VIEW
  5
6
330
0
100
AcDbSymbolTable
 70
     0
  0
ENDTAB
  0
TABLE
  2
UCS
  5
7
330
0
100
AcDbSymbolTable
 70
     0
  0
ENDTAB
  0
TABLE
  2
APPID
  5
9
330
0
100
AcDbSymbolTable
 70
     1
  0
APPID
  5
12
330
9
100
AcDbSymbolTableRecord
100
AcDbRegAppTableRecord
  2
ACAD
 70
     0
  0
ENDTAB
  0
TABLE
  2
DIMSTYLE
  5
A
330
0
100
AcDbSymbolTable
 70
     1
  0
DIMSTYLE
105
27
102
{ACAD_REACTORS
330
2AD
330
2BB
330
2C7
330
2D3
330
2E0
330
2ED
330
2FA
330
307
330
314
330
330
330
33D
330
349
102
}
330
A
100
AcDbSymbolTableRecord
100
AcDbDimStyleTableRecord
  2
ISO-25
 70
     0
  3

  4

  5

  6

  7

 40
1.0
 41
2.5
 42
0.625
 43
3.75
 44
1.25
 45
0.0
 46
0.0
 47
0.0
 48
0.0
140
2.5
141
2.5
142
0.0
143
0.03937007874016
144
1.0
145
0.0
146
1.0
147
0.625
 71
     0
 72
     0
 73
     0
 74
     0
 75
     0
 76
     0
 77
     1
 78
     8
170
     0
171
     3
172
     1
173
     0
174
     0
175
     0
176
     0
177
     0
178
     0
270
     2
271
     2
272
     2
273
     2
274
     3
340
11
275
     0
280
     0
281
     0
282
     0
283
     0
284
     8
285
     0
286
     0
287
     5
288
     0
  0
ENDTAB
  0
TABLE
  2
BLOCK_RECORD
  5
1
330
0
100
AcDbSymbolTable
 70
    27
  0
BLOCK_RECORD
  5
1F
330
1
100
AcDbSymbolTableRecord
100
AcDbBlockTableRecord
  2
*MODEL_SPACE
  0
BLOCK_RECORD
  5
1B
330
1
100
AcDbSymbolTableRecord
100
AcDbBlockTableRecord
  2
*PAPER_SPACE
  0
BLOCK_RECORD
  5
4D
330
1
100
AcDbSymbolTableRecord
100
AcDbBlockTableRecord
  2
EX_NORM
  0
BLOCK_RECORD
  5
50
330
1
100
AcDbSymbolTableRecord
100
AcDbBlockTableRecord
  2
EX_BNORM
  0
BLOCK_RECORD
  5
53
330
1
100
AcDbSymbolTableRecord
100
AcDbBlockTableRecord
  2
EX_BCIR
  0
BLOCK_RECORD
  5
56
330
1
100
AcDbSymbolTableRecord
100
AcDbBlockTableRecord
  2
EX_RCIVIL
  0
BLOCK_RECORD
  5
59
330
1
100
AcDbSymbolTableRecord
100
AcDbBlockTableRecord
  2
EX_SLANT
  0
BLOCK_RECORD
  5
5C
330
1
100
AcDbSymbolTableRecord
100
AcDbBlockTableRecord
  2
EX_NONE
  0
BLOCK_RECORD
  5
5F
330
1
100
AcDbSymbolTableRecord
100
AcDbBlockTableRecord
  2
EX_CIVIL
  0
BLOCK_RECORD
  5
62
330
1
100
AcDbSymbolTableRecord
100
AcDbBlockTableRecord
  2
EX_WCIR
  0
BLOCK_RECORD
  5
65
330
1
100
AcDbSymbolTableRecord
100
AcDbBlockTableRecord
  2
EX_WCIR2
  0
BLOCK_RECORD
  5
68
330
1
100
AcDbSymbolTableRecord
100
AcDbBlockTableRecord
  2
EX_WNORM
  0
BLOCK_RECORD
  5
6B
330
1
100
AcDbSymbolTableRecord
100
AcDbBlockTableRecord
  2
EX_NNORM
  0
BLOCK_RECORD
  5
6E
330
1
100
AcDbSymbolTableRecord
100
AcDbBlockTableRecord
  2
EX_BBOX
  0
BLOCK_RECORD
  5
71
330
1
100
AcDbSymbolTableRecord
100
AcDbBlockTableRecord
  2
EX_WBOX
  0
BLOCK_RECORD
  5
74
330
1
100
AcDbSymbolTableRecord
100
AcDbBlockTableRecord
  2
EX_INTEGRAL
  0
BLOCK_RECORD
  5
2AF
330
1
100
AcDbSymbolTableRecord
100
AcDbBlockTableRecord
  2
*D15
  0
BLOCK_RECORD
  5
2BC
330
1
100
AcDbSymbolTableRecord
100
AcDbBlockTableRecord
  2
*D16
  0
BLOCK_RECORD
  5
2C8
330
1
100
AcDbSymbolTableRecord
100
AcDbBlockTableRecord
  2
*D17
  0
BLOCK_RECORD
  5
2D4
330
1
100
AcDbSymbolTableRecord
100
AcDbBlockTableRecord
  2
*D18
  0
BLOCK_RECORD
  5
2E1
330
1
100
AcDbSymbolTableRecord
100
AcDbBlockTableRecord
  2
*D19
  0
BLOCK_RECORD
  5
2EE
330
1
100
AcDbSymbolTableRecord
100
AcDbBlockTableRecord
  2
*D20
  0
BLOCK_RECORD
  5
2FB
330
1
100
AcDbSymbolTableRecord
100
AcDbBlockTableRecord
  2
*D21
  0
BLOCK_RECORD
  5
308
330
1
100
AcDbSymbolTableRecord
100
AcDbBlockTableRecord
  2
*D22
  0
BLOCK_RECORD
  5
315
330
1
100
AcDbSymbolTableRecord
100
AcDbBlockTableRecord
  2
*D23
  0
BLOCK_RECORD
  5
331
330
1
100
AcDbSymbolTableRecord
100
AcDbBlockTableRecord
  2
*D24
  0
BLOCK_RECORD
  5
33E
330
1
100
AcDbSymbolTableRecord
100
AcDbBlockTableRecord
  2
*D25
  0
BLOCK_RECORD
  5
34A
330
1
100
AcDbSymbolTableRecord
100
AcDbBlockTableRecord
  2
*D26
  0
ENDTAB
  0
ENDSEC
  0
SECTION
  2
BLOCKS
  0
BLOCK
  5
20
330
1F
100
AcDbEntity
  8
0
100
AcDbBlockBegin
  2
*MODEL_SPACE
 70
     0
 10
0.0
 20
0.0
 30
0.0
  3
*MODEL_SPACE
  1

  0
ENDBLK
  5
21
330
1F
100
AcDbEntity
  8
0
100
AcDbBlockEnd
  0
BLOCK
  5
1C
330
1B
100
AcDbEntity
 67
     1
  8
0
100
AcDbBlockBegin
  2
*PAPER_SPACE
 70
     0
 10
0.0
 20
0.0
 30
0.0
  3
*PAPER_SPACE
  1

  0
ENDBLK
  5
1D
330
1B
100
AcDbEntity
 67
     1
  8
0
100
AcDbBlockEnd
  0
BLOCK
  5
4E
330
4D
100
AcDbEntity
  8
0
100
AcDbBlockBegin
  2
EX_NORM
 70
     0
 10
0.0
 20
0.0
 30
0.0
  3
EX_NORM
  1

  0
LINE
  5
77
330
4D
100
AcDbEntity
  8
0
  6
CONTINUOUS
 62
     0
100
AcDbLine
 10
0.0
 20
0.0
 30
0.0
 11
-1.0
 21
0.0
 31
0.0
  0
LINE
  5
78
330
4D
100
AcDbEntity
  8
0
  6
CONTINUOUS
 62
     0
100
AcDbLine
 10
0.0
 20
0.0
 30
0.0
 11
-1.0
 21
0.166666667
 31
0.0
  0
LINE
  5
79
330
4D
100
AcDbEntity
  8
0
  6
CONTINUOUS
 62
     0
100
AcDbLine
 10
0.0
 20
0.0
 30
0.0
 11
-1.0
 21
-0.166666667
 31
0.0
  0
ENDBLK
  5
4F
330
4D
100
AcDbEntity
  8
0
100
AcDbBlockEnd
  0
BLOCK
  5
51
330
50
100
AcDbEntity
  8
0
100
AcDbBlockBegin
  2
EX_BNORM
 70
     0
 10
0.0
 20
0.0
 30
0.0
  3
EX_BNORM
  1

  0
LINE
  5
7A
330
50
100
AcDbEntity
  8
0
  6
CONTINUOUS
 62
     0
100
AcDbLine
 10
0.0
 20
0.0
 30
0.0
 11
-1.0
 21
0.0
 31
0.0
  0
LINE
  5
7B
330
50
100
AcDbEntity
  8
0
  6
CONTINUOUS
 62
     0
100
AcDbLine
 10
0.0
 20
0.0
 30
0.0
 11
-1.0
 21
0.166666667
 31
0.0
  0
LINE
  5
7C
330
50
100
AcDbEntity
  8
0
  6
CONTINUOUS
 62
     0
100
AcDbLine
 10
0.0
 20
0.0
 30
0.0
 11
-1.0
 21
-0.166666667
 31
0.0
  0
LINE
  5
7D
330
50
100
AcDbEntity
  8
0
  6
CONTINUOUS
 62
     0
100
AcDbLine
 10
0.0
 20
0.0
 30
0.0
 11
-1.0
 21
0.083333333
 31
0.0
  0
LINE
  5
7E
330
50
100
AcDbEntity
  8
0
  6
CONTINUOUS
 62
     0
100
AcDbLine
 10
0.0
 20
0.0
 30
0.0
 11
-1.0
 21
-0.083333333
 31
0.0
  0
LINE
  5
7F
330
50
100
AcDbEntity
  8
0
  6
CONTINUOUS
 62
     0
100
AcDbLine
 10
-1.0
 20
0.166666667
 30
0.0
 11
-1.0
 21
-0.166666667
 31
0.0
  0
ENDBLK
  5
52
330
50
100
AcDbEntity
  8
0
100
AcDbBlockEnd
  0
BLOCK
  5
54
330
53
100
AcDbEntity
  8
0
100
AcDbBlockBegin
  2
EX_BCIR
 70
     0
 10
0.0
 20
0.0
 30
0.0
  3
EX_BCIR
  1

  0
LINE
  5
80
330
53
100
AcDbEntity
  8
0
  6
CONTINUOUS
 62
     0
100
AcDbLine
 10
0.0
 20
0.0
 30
0.0
 11
-1.0
 21
0.0
 31
0.0
  0
CIRCLE
  5
81
330
53
100
AcDbEntity
  8
0
  6
CONTINUOUS
 62
     0
100
AcDbCircle
 10
0.0
 20
0.0
 30
0.0
 40
0.5
  0
CIRCLE
  5
82
330
53
100
AcDbEntity
  8
0
  6
CONTINUOUS
 62
     0
100
AcDbCircle
 10
0.0
 20
0.0
 30
0.0
 40
0.25
  0
ENDBLK
  5
55
330
53
100
AcDbEntity
  8
0
100
AcDbBlockEnd
  0
BLOCK
  5
57
330
56
100
AcDbEntity
  8
0
100
AcDbBlockBegin
  2
EX_RCIVIL
 70
     0
 10
0.0
 20
0.0
 30
0.0
  3
EX_RCIVIL
  1

  0
LINE
  5
83
330
56
100
AcDbEntity
  8
0
  6
CONTINUOUS
 62
     0
100
AcDbLine
 10
0.0
 20
0.0
 30
0.0
 11
-1.0
 21
0.0
 31
0.0
  0
LINE
  5
84
330
56
100
AcDbEntity
  8
0
  6
CONTINUOUS
 62
     0
100
AcDbLine
 10
-1.0
 20
-0.25
 30
0.0
 11
0.0
 21
-0.25
 31
0.0
  0
LINE
  5
85
330
56
100
AcDbEntity
  8
0
  6
CONTINUOUS
 62
     0
100
AcDbLine
 10
-1.0
 20
-0.125
 30
0.0
 11
0.0
 21
-0.125
 31
0.0
  0
ENDBLK
  5
58
330
56
100
AcDbEntity
  8
0
100
AcDbBlockEnd
  0
BLOCK
  5
5A
330
59
100
AcDbEntity
  8
0
100
AcDbBlockBegin
  2
EX_SLANT
 70
     0
 10
0.0
 20
0.0
 30
0.0
  3
EX_SLANT
  1

  0
LINE
  5
86
330
59
100
AcDbEntity
  8
0
  6
CONTINUOUS
 62
     0
100
AcDbLine
 10
0.0
 20
0.0
 30
0.0
 11
-1.0
 21
0.0
 31
0.0
  0
LINE
  5
87
330
59
100
AcDbEntity
  8
0
  6
CONTINUOUS
 62
     0
100
AcDbLine
 10
0.707106781
 20
0.707106781
 30
0.0
 11
-0.707106781
 21
-0.707106781
 31
0.0
  0
ENDBLK
  5
5B
330
59
100
AcDbEntity
  8
0
100
AcDbBlockEnd
  0
BLOCK
  5
5D
330
5C
100
AcDbEntity
  8
0
100
AcDbBlockBegin
  2
EX_NONE
 70
     0
 10
0.0
 20
0.0
 30
0.0
  3
EX_NONE
  1

  0
LINE
  5
88
330
5C
100
AcDbEntity
  8
0
  6
CONTINUOUS
 62
     0
100
AcDbLine
 10
0.0
 20
0.0
 30
0.0
 11
-1.0
 21
0.0
 31
0.0
  0
ENDBLK
  5
5E
330
5C
100
AcDbEntity
  8
0
100
AcDbBlockEnd
  0
BLOCK
  5
60
330
5F
100
AcDbEntity
  8
0
100
AcDbBlockBegin
  2
EX_CIVIL
 70
     0
 10
0.0
 20
0.0
 30
0.0
  3
EX_CIVIL
  1

  0
LINE
  5
89
330
5F
100
AcDbEntity
  8
0
  6
CONTINUOUS
 62
     0
100
AcDbLine
 10
0.0
 20
0.0
 30
0.0
 11
-1.0
 21
0.0
 31
0.0
  0
LINE
  5
8A
330
5F
100
AcDbEntity
  8
0
  6
CONTINUOUS
 62
     0
100
AcDbLine
 10
-1.0
 20
0.25
 30
0.0
 11
0.0
 21
0.25
 31
0.0
  0
LINE
  5
8B
330
5F
100
AcDbEntity
  8
0
  6
CONTINUOUS
 62
     0
100
AcDbLine
 10
-1.0
 20
0.125
 30
0.0
 11
0.0
 21
0.125
 31
0.0
  0
ENDBLK
  5
61
330
5F
100
AcDbEntity
  8
0
100
AcDbBlockEnd
  0
BLOCK
  5
63
330
62
100
AcDbEntity
  8
0
100
AcDbBlockBegin
  2
EX_WCIR
 70
     0
 10
0.0
 20
0.0
 30
0.0
  3
EX_WCIR
  1

  0
LINE
  5
8C
330
62
100
AcDbEntity
  8
0
  6
CONTINUOUS
 62
     0
100
AcDbLine
 10
0.0
 20
0.0
 30
0.0
 11
-1.0
 21
0.0
 31
0.0
  0
CIRCLE
  5
8D
330
62
100
AcDbEntity
  8
0
  6
CONTINUOUS
 62
     0
100
AcDbCircle
 10
0.0
 20
0.0
 30
0.0
 40
0.5
  0
ENDBLK
  5
64
330
62
100
AcDbEntity
  8
0
100
AcDbBlockEnd
  0
BLOCK
  5
66
330
65
100
AcDbEntity
  8
0
100
AcDbBlockBegin
  2
EX_WCIR2
 70
     0
 10
0.0
 20
0.0
 30
0.0
  3
EX_WCIR2
  1

  0
LINE
  5
8E
330
65
100
AcDbEntity
  8
0
  6
CONTINUOUS
 62
     0
100
AcDbLine
 10
-0.5
 20
0.0
 30
0.0
 11
-1.0
 21
0.0
 31
0.0
  0
CIRCLE
  5
8F
330
65
100
AcDbEntity
  8
0
  6
CONTINUOUS
 62
     0
100
AcDbCircle
 10
0.0
 20
0.0
 30
0.0
 40
0.5
  0
ENDBLK
  5
67
330
65
100
AcDbEntity
  8
0
100
AcDbBlockEnd
  0
BLOCK
  5
69
330
68
100
AcDbEntity
  8
0
100
AcDbBlockBegin
  2
EX_WNORM
 70
     0
 10
0.0
 20
0.0
 30
0.0
  3
EX_WNORM
  1

  0
LINE
  5
90
330
68
100
AcDbEntity
  8
0
  6
CONTINUOUS
 62
     0
100
AcDbLine
 10
-1.0
 20
0.0
 30
0.0
 11
-1.0
 21
0.0
 31
0.0
  0
LINE
  5
91
330
68
100
AcDbEntity
  8
0
  6
CONTINUOUS
 62
     0
100
AcDbLine
 10
0.0
 20
0.0
 30
0.0
 11
-1.0
 21
0.166666667
 31
0.0
  0
LINE
  5
92
330
68
100
AcDbEntity
  8
0
  6
CONTINUOUS
 62
     0
100
AcDbLine
 10
0.0
 20
0.0
 30
0.0
 11
-1.0
 21
-0.166666667
 31
0.0
  0
LINE
  5
93
330
68
100
AcDbEntity
  8
0
  6
CONTINUOUS
 62
     0
100
AcDbLine
 10
-1.0
 20
0.166666667
 30
0.0
 11
-1.0
 21
-0.166666667
 31
0.0
  0
ENDBLK
  5
6A
330
68
100
AcDbEntity
  8
0
100
AcDbBlockEnd
  0
BLOCK
  5
6C
330
6B
100
AcDbEntity
  8
0
100
AcDbBlockBegin
  2
EX_NNORM
 70
     0
 10
0.0
 20
0.0
 30
0.0
  3
EX_NNORM
  1

  0
LINE
  5
94
330
6B
100
AcDbEntity
  8
0
  6
CONTINUOUS
 62
     0
100
AcDbLine
 10
0.0
 20
0.0
 30
0.0
 11
-1.0
 21
0.0
 31
0.0
  0
LINE
  5
95
330
6B
100
AcDbEntity
  8
0
  6
CONTINUOUS
 62
     0
100
AcDbLine
 10
0.0
 20
0.0
 30
0.0
 11
-1.0
 21
0.166666667
 31
0.0
  0
LINE
  5
96
330
6B
100
AcDbEntity
  8
0
  6
CONTINUOUS
 62
     0
100
AcDbLine
 10
0.0
 20
0.0
 30
0.0
 11
-1.0
 21
-0.166666667
 31
0.0
  0
LINE
  5
97
330
6B
100
AcDbEntity
  8
0
  6
CONTINUOUS
 62
     0
100
AcDbLine
 10
-1.0
 20
0.166666667
 30
0.0
 11
-1.0
 21
-0.166666667
 31
0.0
  0
ENDBLK
  5
6D
330
6B
100
AcDbEntity
  8
0
100
AcDbBlockEnd
  0
BLOCK
  5
6F
330
6E
100
AcDbEntity
  8
0
100
AcDbBlockBegin
  2
EX_BBOX
 70
     0
 10
0.0
 20
0.0
 30
0.0
  3
EX_BBOX
  1

  0
LINE
  5
98
330
6E
100
AcDbEntity
  8
0
  6
CONTINUOUS
 62
     0
100
AcDbLine
 10
0.0
 20
0.0
 30
0.0
 11
-1.0
 21
0.0
 31
0.0
  0
LINE
  5
99
330
6E
100
AcDbEntity
  8
0
  6
CONTINUOUS
 62
     0
100
AcDbLine
 10
-0.5
 20
0.5
 30
0.0
 11
0.5
 21
0.5
 31
0.0
  0
LINE
  5
9A
330
6E
100
AcDbEntity
  8
0
  6
CONTINUOUS
 62
     0
100
AcDbLine
 10
0.5
 20
0.5
 30
0.0
 11
0.5
 21
-0.5
 31
0.0
  0
LINE
  5
9B
330
6E
100
AcDbEntity
  8
0
  6
CONTINUOUS
 62
     0
100
AcDbLine
 10
0.5
 20
-0.5
 30
0.0
 11
-0.5
 21
-0.5
 31
0.0
  0
LINE
  5
9C
330
6E
100
AcDbEntity
  8
0
  6
CONTINUOUS
 62
     0
100
AcDbLine
 10
-0.5
 20
-0.5
 30
0.0
 11
-0.5
 21
0.5
 31
0.0
  0
LINE
  5
9D
330
6E
100
AcDbEntity
  8
0
  6
CONTINUOUS
 62
     0
100
AcDbLine
 10
-0.25
 20
0.25
 30
0.0
 11
0.25
 21
0.25
 31
0.0
  0
LINE
  5
9E
330
6E
100
AcDbEntity
  8
0
  6
CONTINUOUS
 62
     0
100
AcDbLine
 10
0.25
 20
0.25
 30
0.0
 11
0.25
 21
-0.25
 31
0.0
  0
LINE
  5
9F
330
6E
100
AcDbEntity
  8
0
  6
CONTINUOUS
 62
     0
100
AcDbLine
 10
0.25
 20
-0.25
 30
0.0
 11
-0.25
 21
-0.25
 31
0.0
  0
LINE
  5
A0
330
6E
100
AcDbEntity
  8
0
  6
CONTINUOUS
 62
     0
100
AcDbLine
 10
-0.25
 20
-0.25
 30
0.0
 11
-0.25
 21
0.25
 31
0.0
  0
ENDBLK
  5
70
330
6E
100
AcDbEntity
  8
0
100
AcDbBlockEnd
  0
BLOCK
  5
72
330
71
100
AcDbEntity
  8
0
100
AcDbBlockBegin
  2
EX_WBOX
 70
     0
 10
0.0
 20
0.0
 30
0.0
  3
EX_WBOX
  1

  0
LINE
  5
A1
330
71
100
AcDbEntity
  8
0
  6
CONTINUOUS
 62
     0
100
AcDbLine
 10
-0.5
 20
0.0
 30
0.0
 11
-1.0
 21
0.0
 31
0.0
  0
LINE
  5
A2
330
71
100
AcDbEntity
  8
0
  6
CONTINUOUS
 62
     0
100
AcDbLine
 10
-0.5
 20
0.5
 30
0.0
 11
0.5
 21
0.5
 31
0.0
  0
LINE
  5
A3
330
71
100
AcDbEntity
  8
0
  6
CONTINUOUS
 62
     0
100
AcDbLine
 10
0.5
 20
0.5
 30
0.0
 11
0.5
 21
-0.5
 31
0.0
  0
LINE
  5
A4
330
71
100
AcDbEntity
  8
0
  6
CONTINUOUS
 62
     0
100
AcDbLine
 10
0.5
 20
-0.5
 30
0.0
 11
-0.5
 21
-0.5
 31
0.0
  0
LINE
  5
A5
330
71
100
AcDbEntity
  8
0
  6
CONTINUOUS
 62
     0
100
AcDbLine
 10
-0.5
 20
-0.5
 30
0.0
 11
-0.5
 21
0.5
 31
0.0
  0
ENDBLK
  5
73
330
71
100
AcDbEntity
  8
0
100
AcDbBlockEnd
  0
BLOCK
  5
75
330
74
100
AcDbEntity
  8
0
100
AcDbBlockBegin
  2
EX_INTEGRAL
 70
     0
 10
0.0
 20
0.0
 30
0.0
  3
EX_INTEGRAL
  1

  0
LINE
  5
A6
330
74
100
AcDbEntity
  8
0
  6
CONTINUOUS
 62
     0
100
AcDbLine
 10
0.0
 20
0.0
 30
0.0
 11
-1.0
 21
0.0
 31
0.0
  0
ARC
  5
A7
330
74
100
AcDbEntity
  8
0
  6
CONTINUOUS
 62
     0
100
AcDbCircle
 10
0.542115
 20
0.164992
 30
0.0
 40
0.56667
100
AcDbArc
 50
73.07249033629006
 51
196.9275130221199
  0
ARC
  5
A8
330
74
100
AcDbEntity
  8
0
  6
CONTINUOUS
 62
     0
100
AcDbCircle
 10
-0.542115
 20
-0.164992
 30
0.0
 40
0.56667
100
AcDbArc
 50
253.0724869220464
 51
16.9275130559125
  0
ENDBLK
  5
76
330
74
100
AcDbEntity
  8
0
100
AcDbBlockEnd
  0
BLOCK
  5
2B0
330
2AF
100
AcDbEntity
  8
0
100
AcDbBlockBegin
  2
*D15
 70
     1
 10
0.0
 20
0.0
 30
0.0
  3
*D15
  1

  0
LINE
  5
2B2
330
2AF
100
AcDbEntity
  8
寸法
  6
CONTINUOUS
 62
     3
100
AcDbLine
 10
201.2263318192299
 20
360.8137018295881
 30
0.0
 11
201.2263318192299
 21
395.48553082416
 31
0.0
  0
LINE
  5
2B3
330
2AF
100
AcDbEntity
  8
寸法
  6
CONTINUOUS
 62
     3
100
AcDbLine
 10
294.2263318192299
 20
370.6330194445181
 30
0.0
 11
294.2263318192299
 21
395.48553082416
 31
0.0
  0
LINE
  5
2B4
330
2AF
100
AcDbEntity
  8
寸法
  6
CONTINUOUS
 62
     3
100
AcDbLine
 10
207.2263318192299
 20
393.48553082416
 30
0.0
 11
288.2263318192299
 21
393.48553082416
 31
0.0
  0
INSERT
  5
2B5
330
2AF
100
AcDbEntity
  8
寸法
 62
     3
100
AcDbBlockReference
  2
EX_NORM
 10
201.2263318192299
 20
393.48553082416
 30
0.0
 41
6.0
 42
6.0
 43
6.0
 50
180.0
  0
INSERT
  5
2B6
330
2AF
100
AcDbEntity
  8
寸法
 62
     3
100
AcDbBlockReference
  2
EX_NORM
 10
294.2263318192299
 20
393.48553082416
 30
0.0
 41
6.0
 42
6.0
 43
6.0
  0
MTEXT
  5
2B7
330
2AF
100
AcDbEntity
  8
寸法
 62
     2
100
AcDbMText
 10
247.72633181923
 20
398.1855308122391
 30
0.0
 40
8.0
 41
0.0
 71
     5
 72
     1
  1
93
  7
EXCADDIM1
  0
POINT
  5
2B8
330
2AF
100
AcDbEntity
  8
DEFPOINTS
 62
     0
100
AcDbPoint
 10
201.2263318192299
 20
359.41370185343
 30
0.0
  0
POINT
  5
2B9
330
2AF
100
AcDbEntity
  8
DEFPOINTS
 62
     0
100
AcDbPoint
 10
294.2263318192299
 20
369.23301946836
 30
0.0
  0
POINT
  5
2BA
330
2AF
100
AcDbEntity
  8
DEFPOINTS
 62
     0
100
AcDbPoint
 10
294.2263318192299
 20
393.48553082416
 30
0.0
  0
ENDBLK
  5
2B1
330
2AF
100
AcDbEntity
  8
0
100
AcDbBlockEnd
  0
BLOCK
  5
2BD
330
2BC
100
AcDbEntity
  8
0
100
AcDbBlockBegin
  2
*D16
 70
     1
 10
0.0
 20
0.0
 30
0.0
  3
*D16
  1

  0
LINE
  5
2BF
330
2BC
100
AcDbEntity
  8
寸法
  6
CONTINUOUS
 62
     3
100
AcDbLine
 10
190.5987157691099
 20
306.9026065563119
 30
0.0
 11
190.5987157691099
 21
219.8
 31
0.0
  0
LINE
  5
2C0
330
2BC
100
AcDbEntity
  8
寸法
  6
CONTINUOUS
 62
     3
100
AcDbLine
 10
196.5987157691099
 20
221.8
 30
0.0
 11
249.5987157690999
 21
221.8
 31
0.0
  0
INSERT
  5
2C1
330
2BC
100
AcDbEntity
  8
寸法
 62
     3
100
AcDbBlockReference
  2
EX_NORM
 10
190.5987157691099
 20
221.8
 30
0.0
 41
6.0
 42
6.0
 43
6.0
 50
180.0
  0
INSERT
  5
2C2
330
2BC
100
AcDbEntity
  8
寸法
 62
     3
100
AcDbBlockReference
  2
EX_NORM
 10
255.5987157690999
 20
221.8
 30
0.0
 41
6.0
 42
6.0
 43
6.0
  0
MTEXT
  5
2C3
330
2BC
100
AcDbEntity
  8
寸法
 62
     2
100
AcDbMText
 10
223.0987157691049
 20
226.4999999880791
 30
0.0
 40
8.0
 41
0.0
 71
     5
 72
     1
  1
65
  7
EXCADDIM1
  0
POINT
  5
2C4
330
2BC
100
AcDbEntity
  8
DEFPOINTS
 62
     0
100
AcDbPoint
 10
190.5987157691099
 20
308.30260653247
 30
0.0
  0
POINT
  5
2C5
330
2BC
100
AcDbEntity
  8
DEFPOINTS
 62
     0
100
AcDbPoint
 10
255.5987157690999
 20
250.30076732242
 30
0.0
  0
POINT
  5
2C6
330
2BC
100
AcDbEntity
  8
DEFPOINTS
 62
     0
100
AcDbPoint
 10
255.5987157690999
 20
221.8
 30
0.0
  0
ENDBLK
  5
2BE
330
2BC
100
AcDbEntity
  8
0
100
AcDbBlockEnd
  0
BLOCK
  5
2C9
330
2C8
100
AcDbEntity
  8
0
100
AcDbBlockBegin
  2
*D17
 70
     1
 10
0.0
 20
0.0
 30
0.0
  3
*D17
  1

  0
LINE
  5
2CB
330
2C8
100
AcDbEntity
  8
寸法
  6
CONTINUOUS
 62
     3
100
AcDbLine
 10
330.5987157690999
 20
268.1161561271318
 30
0.0
 11
330.5987157690999
 21
219.8
 31
0.0
  0
LINE
  5
2CC
330
2C8
100
AcDbEntity
  8
寸法
  6
CONTINUOUS
 62
     3
100
AcDbLine
 10
261.5987157690999
 20
221.8
 30
0.0
 11
324.5987157690999
 21
221.8
 31
0.0
  0
INSERT
  5
2CD
330
2C8
100
AcDbEntity
  8
寸法
 62
     3
100
AcDbBlockReference
  2
EX_NORM
 10
255.5987157690999
 20
221.8
 30
0.0
 41
6.0
 42
6.0
 43
6.0
 50
180.0
  0
INSERT
  5
2CE
330
2C8
100
AcDbEntity
  8
寸法
 62
     3
100
AcDbBlockReference
  2
EX_NORM
 10
330.5987157690999
 20
221.8
 30
0.0
 41
6.0
 42
6.0
 43
6.0
  0
MTEXT
  5
2CF
330
2C8
100
AcDbEntity
  8
寸法
 62
     2
100
AcDbMText
 10
305.9987157690999
 20
226.4999999880791
 30
0.0
 40
8.0
 41
0.0
 71
     5
 72
     1
  1
75
  7
EXCADDIM1
  0
POINT
  5
2D0
330
2C8
100
AcDbEntity
  8
DEFPOINTS
 62
     0
100
AcDbPoint
 10
255.5987157690999
 20
250.30076732242
 30
0.0
  0
POINT
  5
2D1
330
2C8
100
AcDbEntity
  8
DEFPOINTS
 62
     0
100
AcDbPoint
 10
330.5987157690999
 20
269.51615610329
 30
0.0
  0
POINT
  5
2D2
330
2C8
100
AcDbEntity
  8
DEFPOINTS
 62
     0
100
AcDbPoint
 10
330.5987157690999
 20
221.8
 30
0.0
  0
ENDBLK
  5
2CA
330
2C8
100
AcDbEntity
  8
0
100
AcDbBlockEnd
  0
BLOCK
  5
2D5
330
2D4
100
AcDbEntity
  8
0
100
AcDbBlockBegin
  2
*D18
 70
     1
 10
0.0
 20
0.0
 30
0.0
  3
*D18
  1

  0
LINE
  5
2D7
330
2D4
100
AcDbEntity
  8
寸法
  6
CONTINUOUS
 62
     3
100
AcDbLine
 10
330.5979865173399
 20
268.1161561271318
 30
0.0
 11
330.5979865173399
 21
219.8
 31
0.0
  0
LINE
  5
2D8
330
2D4
100
AcDbEntity
  8
寸法
  6
CONTINUOUS
 62
     3
100
AcDbLine
 10
346.5987157690999
 20
283.7655308480018
 30
0.0
 11
346.5987157690999
 21
219.8
 31
0.0
  0
LINE
  5
2D9
330
2D4
100
AcDbEntity
  8
寸法
  6
CONTINUOUS
 62
     3
100
AcDbLine
 10
336.5979865173399
 20
221.8
 30
0.0
 11
340.5987157690999
 21
221.8
 31
0.0
  0
INSERT
  5
2DA
330
2D4
100
AcDbEntity
  8
寸法
 62
     3
100
AcDbBlockReference
  2
EX_NORM
 10
330.5979865173399
 20
221.8
 30
0.0
 41
6.0
 42
6.0
 43
6.0
 50
180.0
  0
INSERT
  5
2DB
330
2D4
100
AcDbEntity
  8
寸法
 62
     3
100
AcDbBlockReference
  2
EX_NORM
 10
346.5987157690999
 20
221.8
 30
0.0
 41
6.0
 42
6.0
 43
6.0
  0
MTEXT
  5
2DC
330
2D4
100
AcDbEntity
  8
寸法
 62
     2
100
AcDbMText
 10
338.5983511432199
 20
226.4999999880791
 30
0.0
 40
8.0
 41
0.0
 71
     5
 72
     1
  1
16
  7
EXCADDIM1
  0
POINT
  5
2DD
330
2D4
100
AcDbEntity
  8
DEFPOINTS
 62
     0
100
AcDbPoint
 10
330.5979865173399
 20
269.51615610329
 30
0.0
  0
POINT
  5
2DE
330
2D4
100
AcDbEntity
  8
DEFPOINTS
 62
     0
100
AcDbPoint
 10
346.5987157690999
 20
285.16553082416
 30
0.0
  0
POINT
  5
2DF
330
2D4
100
AcDbEntity
  8
DEFPOINTS
 62
     0
100
AcDbPoint
 10
346.5987157690999
 20
221.8
 30
0.0
  0
ENDBLK
  5
2D6
330
2D4
100
AcDbEntity
  8
0
100
AcDbBlockEnd
  0
BLOCK
  5
2E2
330
2E1
100
AcDbEntity
  8
0
100
AcDbBlockBegin
  2
*D19
 70
     1
 10
0.0
 20
0.0
 30
0.0
  3
*D19
  1

  0
LINE
  5
2E4
330
2E1
100
AcDbEntity
  8
寸法
  6
CONTINUOUS
 62
     3
100
AcDbLine
 10
305.5987157690999
 20
336.4855308003181
 30
0.0
 11
305.5987157690999
 21
348.48553082416
 31
0.0
  0
LINE
  5
2E5
330
2E1
100
AcDbEntity
  8
寸法
  6
CONTINUOUS
 62
     3
100
AcDbLine
 10
346.5987157690999
 20
304.0140283848182
 30
0.0
 11
346.5987157690999
 21
348.48553082416
 31
0.0
  0
LINE
  5
2E6
330
2E1
100
AcDbEntity
  8
寸法
  6
CONTINUOUS
 62
     3
100
AcDbLine
 10
311.5987157690999
 20
346.48553082416
 30
0.0
 11
340.5987157690999
 21
346.48553082416
 31
0.0
  0
INSERT
  5
2E7
330
2E1
100
AcDbEntity
  8
寸法
 62
     3
100
AcDbBlockReference
  2
EX_NORM
 10
305.5987157690999
 20
346.48553082416
 30
0.0
 41
6.0
 42
6.0
 43
6.0
 50
180.0
  0
INSERT
  5
2E8
330
2E1
100
AcDbEntity
  8
寸法
 62
     3
100
AcDbBlockReference
  2
EX_NORM
 10
346.5987157690999
 20
346.48553082416
 30
0.0
 41
6.0
 42
6.0
 43
6.0
  0
MTEXT
  5
2E9
330
2E1
100
AcDbEntity
  8
寸法
 62
     2
100
AcDbMText
 10
326.0987157690999
 20
351.1855308122391
 30
0.0
 40
8.0
 41
0.0
 71
     5
 72
     1
  1
41
  7
EXCADDIM1
  0
POINT
  5
2EA
330
2E1
100
AcDbEntity
  8
DEFPOINTS
 62
     0
100
AcDbPoint
 10
305.5987157690999
 20
335.0855308241599
 30
0.0
  0
POINT
  5
2EB
330
2E1
100
AcDbEntity
  8
DEFPOINTS
 62
     0
100
AcDbPoint
 10
346.5987157690999
 20
302.61402840866
 30
0.0
  0
POINT
  5
2EC
330
2E1
100
AcDbEntity
  8
DEFPOINTS
 62
     0
100
AcDbPoint
 10
346.5987157690999
 20
346.48553082416
 30
0.0
  0
ENDBLK
  5
2E3
330
2E1
100
AcDbEntity
  8
0
100
AcDbBlockEnd
  0
BLOCK
  5
2EF
330
2EE
100
AcDbEntity
  8
0
100
AcDbBlockBegin
  2
*D20
 70
     1
 10
0.0
 20
0.0
 30
0.0
  3
*D20
  1

  0
LINE
  5
2F1
330
2EE
100
AcDbEntity
  8
寸法
  6
CONTINUOUS
 62
     3
100
AcDbLine
 10
79.74871872377986
 20
369.1093322283781
 30
0.0
 11
79.74871872377986
 21
395.48553082416
 31
0.0
  0
LINE
  5
2F2
330
2EE
100
AcDbEntity
  8
寸法
  6
CONTINUOUS
 62
     3
100
AcDbLine
 10
147.6374491301999
 20
369.1093322283781
 30
0.0
 11
147.6374491301999
 21
395.48553082416
 31
0.0
  0
LINE
  5
2F3
330
2EE
100
AcDbEntity
  8
寸法
  6
CONTINUOUS
 62
     3
100
AcDbLine
 10
85.74871872377986
 20
393.48553082416
 30
0.0
 11
141.6374491301999
 21
393.48553082416
 31
0.0
  0
INSERT
  5
2F4
330
2EE
100
AcDbEntity
  8
寸法
 62
     3
100
AcDbBlockReference
  2
EX_NORM
 10
79.74871872377986
 20
393.48553082416
 30
0.0
 41
6.0
 42
6.0
 43
6.0
 50
180.0
  0
INSERT
  5
2F5
330
2EE
100
AcDbEntity
  8
寸法
 62
     3
100
AcDbBlockReference
  2
EX_NORM
 10
147.6374491301999
 20
393.48553082416
 30
0.0
 41
6.0
 42
6.0
 43
6.0
  0
MTEXT
  5
2F6
330
2EE
100
AcDbEntity
  8
寸法
 62
     2
100
AcDbMText
 10
113.6930839269899
 20
398.1855308122391
 30
0.0
 40
8.0
 41
0.0
 71
     5
 72
     1
  1
68
  7
EXCADDIM1
  0
POINT
  5
2F7
330
2EE
100
AcDbEntity
  8
DEFPOINTS
 62
     0
100
AcDbPoint
 10
79.74871872377986
 20
367.70933225222
 30
0.0
  0
POINT
  5
2F8
330
2EE
100
AcDbEntity
  8
DEFPOINTS
 62
     0
100
AcDbPoint
 10
147.6374491301999
 20
367.70933225222
 30
0.0
  0
POINT
  5
2F9
330
2EE
100
AcDbEntity
  8
DEFPOINTS
 62
     0
100
AcDbPoint
 10
147.6374491301999
 20
393.48553082416
 30
0.0
  0
ENDBLK
  5
2F0
330
2EE
100
AcDbEntity
  8
0
100
AcDbBlockEnd
  0
BLOCK
  5
2FC
330
2FB
100
AcDbEntity
  8
0
100
AcDbBlockBegin
  2
*D21
 70
     1
 10
0.0
 20
0.0
 30
0.0
  3
*D21
  1

  0
LINE
  5
2FE
330
2FB
100
AcDbEntity
  8
寸法
  6
CONTINUOUS
 62
     3
100
AcDbLine
 10
112.2930839508318
 20
372.2803939005599
 30
0.0
 11
49.60000000000003
 21
372.2803939005599
 31
0.0
  0
LINE
  5
2FF
330
2FB
100
AcDbEntity
  8
寸法
  6
CONTINUOUS
 62
     3
100
AcDbLine
 10
112.2930839508318
 20
250.30076732242
 30
0.0
 11
49.60000000000002
 21
250.30076732242
 31
0.0
  0
LINE
  5
300
330
2FB
100
AcDbEntity
  8
寸法
  6
CONTINUOUS
 62
     3
100
AcDbLine
 10
51.60000000000003
 20
366.2803939005599
 30
0.0
 11
51.60000000000002
 21
256.30076732242
 31
0.0
  0
INSERT
  5
301
330
2FB
100
AcDbEntity
  8
寸法
 62
     3
100
AcDbBlockReference
  2
EX_NORM
 10
51.60000000000003
 20
372.2803939005599
 30
0.0
 41
6.0
 42
6.0
 43
6.0
 50
90.0
  0
INSERT
  5
302
330
2FB
100
AcDbEntity
  8
寸法
 62
     3
100
AcDbBlockReference
  2
EX_NORM
 10
51.60000000000002
 20
250.30076732242
 30
0.0
 41
6.0
 42
6.0
 43
6.0
 50
270.0
  0
MTEXT
  5
303
330
2FB
100
AcDbEntity
  8
寸法
 62
     2
100
AcDbMText
 10
46.90000001192106
 20
311.29058061149
 30
0.0
 40
8.0
 41
0.0
 71
     5
 72
     1
  1
122
  7
EXCADDIM1
 11
5.825093547937105E-17
 21
1.0
 31
0.0
  0
POINT
  5
304
330
2FB
100
AcDbEntity
  8
DEFPOINTS
 62
     0
100
AcDbPoint
 10
113.6930839269899
 20
372.2803939005599
 30
0.0
  0
POINT
  5
305
330
2FB
100
AcDbEntity
  8
DEFPOINTS
 62
     0
100
AcDbPoint
 10
113.6930839269899
 20
250.30076732242
 30
0.0
  0
POINT
  5
306
330
2FB
100
AcDbEntity
  8
DEFPOINTS
 62
     0
100
AcDbPoint
 10
51.60000000000002
 20
250.30076732242
 30
0.0
  0
ENDBLK
  5
2FD
330
2FB
100
AcDbEntity
  8
0
100
AcDbBlockEnd
  0
BLOCK
  5
309
330
308
100
AcDbEntity
  8
0
100
AcDbBlockBegin
  2
*D22
 70
     1
 10
0.0
 20
0.0
 30
0.0
  3
*D22
  1

  0
LINE
  5
30B
330
308
100
AcDbEntity
  8
寸法
  6
CONTINUOUS
 62
     3
100
AcDbLine
 10
346.7289763984981
 20
293.30260653247
 30
0.0
 11
369.3999999999999
 21
293.30260653247
 31
0.0
  0
LINE
  5
30C
330
308
100
AcDbEntity
  8
寸法
  6
CONTINUOUS
 62
     3
100
AcDbLine
 10
355.9999999761581
 20
372.30260653247
 30
0.0
 11
369.3999999999999
 21
372.30260653247
 31
0.0
  0
LINE
  5
30D
330
308
100
AcDbEntity
  8
寸法
  6
CONTINUOUS
 62
     3
100
AcDbLine
 10
367.3999999999999
 20
299.30260653247
 30
0.0
 11
367.3999999999999
 21
366.30260653247
 31
0.0
  0
INSERT
  5
30E
330
308
100
AcDbEntity
  8
寸法
 62
     3
100
AcDbBlockReference
  2
EX_NORM
 10
367.3999999999999
 20
293.30260653247
 30
0.0
 41
6.0
 42
6.0
 43
6.0
 50
270.0
  0
INSERT
  5
30F
330
308
100
AcDbEntity
  8
寸法
 62
     3
100
AcDbBlockReference
  2
EX_NORM
 10
367.3999999999999
 20
372.30260653247
 30
0.0
 41
6.0
 42
6.0
 43
6.0
 50
90.0
  0
MTEXT
  5
310
330
308
100
AcDbEntity
  8
寸法
 62
     2
100
AcDbMText
 10
362.7000000119209
 20
332.8026065324699
 30
0.0
 40
8.0
 41
0.0
 71
     5
 72
     1
  1
79
  7
EXCADDIM1
 11
0.0
 21
1.0
 31
0.0
  0
POINT
  5
311
330
308
100
AcDbEntity
  8
DEFPOINTS
 62
     0
100
AcDbPoint
 10
345.32897642234
 20
293.30260653247
 30
0.0
  0
POINT
  5
312
330
308
100
AcDbEntity
  8
DEFPOINTS
 62
     0
100
AcDbPoint
 10
354.6
 20
372.30260653247
 30
0.0
  0
POINT
  5
313
330
308
100
AcDbEntity
  8
DEFPOINTS
 62
     0
100
AcDbPoint
 10
367.3999999999999
 20
372.30260653247
 30
0.0
  0
ENDBLK
  5
30A
330
308
100
AcDbEntity
  8
0
100
AcDbBlockEnd
  0
BLOCK
  5
316
330
315
100
AcDbEntity
  8
0
100
AcDbBlockBegin
  2
*D23
 70
     1
 10
0.0
 20
0.0
 30
0.0
  3
*D23
  1

  0
LINE
  5
318
330
315
100
AcDbEntity
  8
寸法
  6
CONTINUOUS
 62
     3
100
AcDbLine
 10
112.2930839508318
 20
372.28039390054
 30
0.0
 11
63.60000000000002
 21
372.28039390054
 31
0.0
  0
LINE
  5
319
330
315
100
AcDbEntity
  8
寸法
  6
CONTINUOUS
 62
     3
100
AcDbLine
 10
135.6930839508318
 20
308.28553082416
 30
0.0
 11
63.60000000000002
 21
308.28553082416
 31
0.0
  0
LINE
  5
31A
330
315
100
AcDbEntity
  8
寸法
  6
CONTINUOUS
 62
     3
100
AcDbLine
 10
65.60000000000002
 20
366.28039390054
 30
0.0
 11
65.60000000000002
 21
314.28553082416
 31
0.0
  0
INSERT
  5
31B
330
315
100
AcDbEntity
  8
寸法
 62
     3
100
AcDbBlockReference
  2
EX_NORM
 10
65.60000000000002
 20
372.28039390054
 30
0.0
 41
6.0
 42
6.0
 43
6.0
 50
90.0
  0
INSERT
  5
31C
330
315
100
AcDbEntity
  8
寸法
 62
     3
100
AcDbBlockReference
  2
EX_NORM
 10
65.60000000000002
 20
308.28553082416
 30
0.0
 41
6.0
 42
6.0
 43
6.0
 50
270.0
  0
MTEXT
  5
31D
330
315
100
AcDbEntity
  8
寸法
 62
     2
100
AcDbMText
 10
60.90000001192105
 20
340.28296236235
 30
0.0
 40
8.0
 41
0.0
 71
     5
 72
     1
  1
64
  7
EXCADDIM1
 11
0.0
 21
1.0
 31
0.0
  0
POINT
  5
31E
330
315
100
AcDbEntity
  8
DEFPOINTS
 62
     0
100
AcDbPoint
 10
113.69308392699
 20
372.28039390054
 30
0.0
  0
POINT
  5
31F
330
315
100
AcDbEntity
  8
DEFPOINTS
 62
     0
100
AcDbPoint
 10
137.09308392699
 20
308.28553082416
 30
0.0
  0
POINT
  5
320
330
315
100
AcDbEntity
  8
DEFPOINTS
 62
     0
100
AcDbPoint
 10
65.60000000000002
 20
308.28553082416
 30
0.0
  0
ENDBLK
  5
317
330
315
100
AcDbEntity
  8
0
100
AcDbBlockEnd
  0
BLOCK
  5
332
330
331
100
AcDbEntity
  8
0
100
AcDbBlockBegin
  2
*D24
 70
     1
 10
0.0
 20
0.0
 30
0.0
  3
*D24
  1

  0
LINE
  5
334
330
331
100
AcDbEntity
  8
寸法
  6
CONTINUOUS
 62
     3
100
AcDbLine
 10
382.0000000238418
 20
372.30260653247
 30
0.0
 11
380.0
 21
372.30260653247
 31
0.0
  0
LINE
  5
335
330
331
100
AcDbEntity
  8
寸法
  6
CONTINUOUS
 62
     3
100
AcDbLine
 10
265.0887157452581
 20
87.30260895517
 30
0.0
 11
384.0
 21
87.30260895516999
 31
0.0
  0
LINE
  5
336
330
331
100
AcDbEntity
  8
寸法
  6
CONTINUOUS
 62
     3
100
AcDbLine
 10
382.0
 20
366.30260653247
 30
0.0
 11
382.0
 21
93.30260895516999
 31
0.0
  0
INSERT
  5
337
330
331
100
AcDbEntity
  8
寸法
 62
     3
100
AcDbBlockReference
  2
EX_NORM
 10
382.0
 20
372.30260653247
 30
0.0
 41
6.0
 42
6.0
 43
6.0
 50
90.0
  0
INSERT
  5
338
330
331
100
AcDbEntity
  8
寸法
 62
     3
100
AcDbBlockReference
  2
EX_NORM
 10
382.0
 20
87.30260895516999
 30
0.0
 41
6.0
 42
6.0
 43
6.0
 50
270.0
  0
MTEXT
  5
339
330
331
100
AcDbEntity
  8
寸法
 62
     2
100
AcDbMText
 10
377.3000000119209
 20
229.80260774382
 30
0.0
 40
8.0
 41
0.0
 71
     5
 72
     1
  1
（285）
  7
EXCADDIM1
 11
0.0
 21
1.0
 31
0.0
  0
POINT
  5
33A
330
331
100
AcDbEntity
  8
DEFPOINTS
 62
     0
100
AcDbPoint
 10
383.4
 20
372.30260653247
 30
0.0
  0
POINT
  5
33B
330
331
100
AcDbEntity
  8
DEFPOINTS
 62
     0
100
AcDbPoint
 10
263.6887157691
 20
87.30260895517
 30
0.0
  0
POINT
  5
33C
330
331
100
AcDbEntity
  8
DEFPOINTS
 62
     0
100
AcDbPoint
 10
382.0
 20
87.30260895516999
 30
0.0
  0
ENDBLK
  5
333
330
331
100
AcDbEntity
  8
0
100
AcDbBlockEnd
  0
BLOCK
  5
33F
330
33E
100
AcDbEntity
  8
0
100
AcDbBlockBegin
  2
*D25
 70
     1
 10
0.0
 20
0.0
 30
0.0
  3
*D25
  1

  0
LINE
  5
341
330
33E
100
AcDbEntity
  8
寸法
  6
CONTINUOUS
 62
     3
100
AcDbLine
 10
382.6000000238419
 20
87.30260895517
 30
0.0
 11
365.4
 21
87.30260895517003
 31
0.0
  0
LINE
  5
342
330
33E
100
AcDbEntity
  8
寸法
  6
CONTINUOUS
 62
     3
100
AcDbLine
 10
367.4
 20
93.30260895517003
 30
0.0
 11
367.4
 21
287.30260653247
 31
0.0
  0
INSERT
  5
343
330
33E
100
AcDbEntity
  8
寸法
 62
     3
100
AcDbBlockReference
  2
EX_NORM
 10
367.4
 20
87.30260895517003
 30
0.0
 41
6.0
 42
6.0
 43
6.0
 50
270.0
  0
INSERT
  5
344
330
33E
100
AcDbEntity
  8
寸法
 62
     3
100
AcDbBlockReference
  2
EX_NORM
 10
367.4
 20
293.30260653247
 30
0.0
 41
6.0
 42
6.0
 43
6.0
 50
90.0
  0
MTEXT
  5
345
330
33E
100
AcDbEntity
  8
寸法
 62
     2
100
AcDbMText
 10
362.7000000119209
 20
190.30260774382
 30
0.0
 40
8.0
 41
0.0
 71
     5
 72
     1
  1
（206）
  7
EXCADDIM1
 11
0.0
 21
1.0
 31
0.0
  0
POINT
  5
346
330
33E
100
AcDbEntity
  8
DEFPOINTS
 62
     0
100
AcDbPoint
 10
384.0
 20
87.30260895517
 30
0.0
  0
POINT
  5
347
330
33E
100
AcDbEntity
  8
DEFPOINTS
 62
     0
100
AcDbPoint
 10
367.4
 20
293.30260653247
 30
0.0
  0
POINT
  5
348
330
33E
100
AcDbEntity
  8
DEFPOINTS
 62
     0
100
AcDbPoint
 10
367.4
 20
293.30260653247
 30
0.0
  0
ENDBLK
  5
340
330
33E
100
AcDbEntity
  8
0
100
AcDbBlockEnd
  0
BLOCK
  5
34B
330
34A
100
AcDbEntity
  8
0
100
AcDbBlockBegin
  2
*D26
 70
     1
 10
0.0
 20
0.0
 30
0.0
  3
*D26
  1

  0
LINE
  5
34D
330
34A
100
AcDbEntity
  8
寸法
  6
CONTINUOUS
 62
     3
100
AcDbLine
 10
105.75308392699
 20
85.90260897901186
 30
0.0
 11
105.75308392699
 21
74.2
 31
0.0
  0
LINE
  5
34E
330
34A
100
AcDbEntity
  8
寸法
  6
CONTINUOUS
 62
     3
100
AcDbLine
 10
121.63308392699
 20
85.90260897901186
 30
0.0
 11
121.63308392699
 21
74.2
 31
0.0
  0
LINE
  5
34F
330
34A
100
AcDbEntity
  8
寸法
  6
CONTINUOUS
 62
     3
100
AcDbLine
 10
111.75308392699
 20
76.2
 30
0.0
 11
115.63308392699
 21
76.2
 31
0.0
  0
INSERT
  5
350
330
34A
100
AcDbEntity
  8
寸法
 62
     3
100
AcDbBlockReference
  2
EX_NORM
 10
105.75308392699
 20
76.2
 30
0.0
 41
6.0
 42
6.0
 43
6.0
 50
180.0
  0
INSERT
  5
351
330
34A
100
AcDbEntity
  8
寸法
 62
     3
100
AcDbBlockReference
  2
EX_NORM
 10
121.63308392699
 20
76.2
 30
0.0
 41
6.0
 42
6.0
 43
6.0
  0
MTEXT
  5
352
330
34A
100
AcDbEntity
  8
寸法
 62
     2
100
AcDbMText
 10
137.63308392699
 20
80.89999998807907
 30
0.0
 40
8.0
 41
0.0
 71
     5
 72
     1
  1
%%c16
  7
EXCADDIM1
  0
POINT
  5
353
330
34A
100
AcDbEntity
  8
DEFPOINTS
 62
     0
100
AcDbPoint
 10
105.75308392699
 20
87.30260895517
 30
0.0
  0
POINT
  5
354
330
34A
100
AcDbEntity
  8
DEFPOINTS
 62
     0
100
AcDbPoint
 10
121.63308392699
 20
87.30260895517
 30
0.0
  0
POINT
  5
355
330
34A
100
AcDbEntity
  8
DEFPOINTS
 62
     0
100
AcDbPoint
 10
121.63308392699
 20
76.2
 30
0.0
  0
ENDBLK
  5
34C
330
34A
100
AcDbEntity
  8
0
100
AcDbBlockEnd
  0
ENDSEC
  0
SECTION
  2
ENTITIES
  0
TEXT
  5
A9
330
1F
100
AcDbEntity
  8
枠_表
  6
CONTINUOUS
 62
     2
100
AcDbText
 10
369.0
 20
61.59999990463257
 30
0.0
 40
7.330909018083053
  1
尺度
  7
EXCADVERT
 72
     3
 11
369.0
 21
42.40000009536743
 31
0.0
100
AcDbText
  0
TEXT
  5
AA
330
1F
100
AcDbEntity
  8
枠_表
  6
CONTINUOUS
 62
     2
100
AcDbText
 10
375.5385185186
 20
53.98
 30
0.0
 40
8.0
  1
１
 41
1.119999999999996
  7
EXCADSTD
 72
     5
 11
381.9385185185999
 21
53.98
 31
0.0
100
AcDbText
  0
LINE
  5
AB
330
1F
100
AcDbEntity
  8
枠_表
  6
CONTINUOUS
 62
     6
100
AcDbLine
 10
364.0
 20
40.0
 30
0.0
 11
364.0
 21
64.0
 31
0.0
  0
LINE
  5
AC
330
1F
100
AcDbEntity
  8
枠_表
  6
CONTINUOUS
 62
     6
100
AcDbLine
 10
393.8
 20
59.625
 30
0.0
 11
376.2
 21
44.775
 31
0.0
  0
LINE
  5
AD
330
1F
100
AcDbEntity
  8
枠_表
  6
CONTINUOUS
 62
     6
100
AcDbLine
 10
374.0
 20
64.0
 30
0.0
 11
374.0
 21
40.0
 31
0.0
  0
HATCH
  5
AE
330
1F
100
AcDbEntity
  8
枠_表
  6
CONTINUOUS
 62
     3
100
AcDbHatch
 10
0.0
 20
0.0
 30
0.0
210
0.0
220
0.0
230
1.0
  2
SOLID
 70
     1
 71
     1
 91
        1
 92
        3
 72
     1
 73
     1
 93
       10
 10
150.74505314665
 20
26.44339865950816
 42
-0.017362223501556
 10
150.76260314665
 20
37.03684865950828
 42
-0.0267627618865285
 10
150.76260314665
 20
37.03684865950819
 42
0.0737939047395297
 10
153.34650314665
 20
37.04764865950801
 42
0.0183878899657109
 10
153.2425531466501
 20
27.49639865950815
 42
-0.1144749489451909
 10
152.8240531466499
 20
25.48489865950813
 42
-0.1929163439413163
 10
150.8328031466501
 20
23.92159865950813
 42
-0.0603888289562337
 10
149.7771031466499
 20
23.65834865950816
 42
0.0
 10
149.5300531466499
 20
24.41029865950815
 42
0.0860918333465722
 10
150.26850314665
 20
24.80314865950816
 42
0.1331843103855141
 97
        0
 75
     0
 76
     1
 98
        1
 10
0.0
 20
0.0
  0
HATCH
  5
AF
330
1F
100
AcDbEntity
  8
枠_表
  6
CONTINUOUS
 62
     3
100
AcDbHatch
 10
0.0
 20
0.0
 30
0.0
210
0.0
220
0.0
230
1.0
  2
SOLID
 70
     1
 71
     1
 91
        1
 92
        3
 72
     1
 73
     1
 93
       16
 10
162.57375314665
 20
26.22064865950815
 42
-0.0386228372648426
 10
162.56160314665
 20
32.72899865950818
 42
-0.0398707891902887
 10
163.74285314665
 20
32.73439865950821
 42
-0.1256886216044368
 10
163.68885314665
 20
31.63009865950819
 42
-0.0367815758121429
 10
163.68885314665
 20
31.63009865950814
 42
-0.268021535028829
 10
166.0716031466501
 20
32.86669865950818
 42
-0.2571134422124888
 10
167.7010531466499
 20
32.06074865950824
 42
-0.1522526366014298
 10
168.11550314665
 20
30.72019865950817
 42
-0.0158825412051521
 10
168.0858031466499
 20
26.21389865950816
 42
-0.0285251271418421
 10
166.9450531466501
 20
26.21389865950816
 42
-0.0452212723224612
 10
167.00310314665
 20
30.37729865950823
 42
-0.0315567291532142
 10
166.6494031466499
 20
31.60714865950822
 42
-0.1476272403790709
 10
164.34630314665
 20
31.78399865950815
 42
-0.3908144705745794
 10
163.6969531466499
 20
30.16804865950813
 42
-0.2046259928850854
 10
163.6969531466499
 20
30.16804865950823
 42
0.0
 10
163.7982031466501
 20
26.20984865950819
 42
-0.0304995761723369
 97
        0
 75
     0
 76
     1
 98
        1
 10
0.0
 20
0.0
  0
HATCH
  5
B0
330
1F
100
AcDbEntity
  8
枠_表
  6
CONTINUOUS
 62
     3
100
AcDbHatch
 10
0.0
 20
0.0
 30
0.0
210
0.0
220
0.0
230
1.0
  2
SOLID
 70
     1
 71
     1
 91
        2
 92
        1
 93
        1
 72
     2
 10
171.057102807667
 20
35.11670933747425
 40
0.7144668933539768
 50
0.0
 51
360.0
 73
     1
 97
        0
 92
        3
 72
     1
 73
     1
 93
        3
 10
170.4186031466499
 20
32.73979865950817
 42
0.1200283885712921
 10
171.6606031466499
 20
26.21254865950809
 42
-0.0401820615762149
 10
170.4199531466499
 20
26.20849865950818
 42
-0.0237521668114666
 97
        0
 75
     0
 76
     1
 98
        1
 10
0.0
 20
0.0
  0
HATCH
  5
B1
330
1F
100
AcDbEntity
  8
枠_表
  6
CONTINUOUS
 62
     3
100
AcDbHatch
 10
0.0
 20
0.0
 30
0.0
210
0.0
220
0.0
230
1.0
  2
SOLID
 70
     1
 71
     1
 91
        1
 92
        3
 72
     1
 73
     1
 93
       30
 10
177.3468031466499
 20
32.46709865950825
 42
-0.0009362235736497
 10
177.3468031466499
 20
32.46709865950818
 42
0.0681165430304653
 10
177.0194186973462
 20
31.4856486595082
 42
0.0
 10
175.7862031466501
 20
32.32939865950821
 42
-0.302112590907374
 10
175.7862031466501
 20
32.3293986595082
 42
0.0
 10
174.5428531466499
 20
31.37629865950819
 42
-0.3704245237568778
 10
174.5428531466499
 20
31.37629865950813
 42
0.0
 10
174.60765314665
 20
30.73909865950818
 42
-0.0262822419456939
 10
175.37445314665
 20
30.12619865950813
 42
-0.180060563604375
 10
176.59755314665
 20
29.75359865950822
 42
-0.0298130817160724
 10
176.59755314665
 20
29.75359865950815
 42
-0.3153987453686078
 10
177.7248031466501
 20
28.4643486595082
 42
0.0
 10
177.7180531466501
 20
27.88789865950814
 42
-0.3510306079065168
 10
175.54455314665
 20
26.06539865950819
 42
0.0
 10
174.9100531466499
 20
26.06539865950814
 42
-0.1053356344842436
 10
173.50605314665
 20
26.47039865950819
 42
0.1188608286962634
 10
173.76255314665
 20
27.49639865950823
 42
0.0
 10
175.30155314665
 20
26.55139865950821
 42
-0.2447573632916039
 10
175.30155314665
 20
26.55139865950818
 42
0.0
 10
176.78655314665
 20
27.59089865950821
 42
-0.3734162676407277
 10
176.7865531466501
 20
27.59089865950815
 42
0.0
 10
176.2479031466501
 20
28.62904865950821
 42
-0.261219770190848
 10
174.9910531466499
 20
29.08534865950822
 42
-0.0572747914118363
 10
174.9910531466501
 20
29.0853486595082
 42
-0.1189658875692221
 10
173.9920531466499
 20
29.67124865950821
 42
-0.2005226878639636
 10
173.5735531466499
 20
30.61489865951259
 42
0.0
 10
173.56680314665
 20
30.97264865950813
 42
-0.2622894489606957
 10
174.6400531466501
 20
32.61289865950823
 42
-0.0988461274137808
 10
175.6444531466501
 20
32.85454865950814
 42
0.0
 10
176.0170531466499
 20
32.85454865950821
 42
-0.0920156312561188
 97
        0
 75
     0
 76
     1
 98
        1
 10
0.0
 20
0.0
  0
HATCH
  5
B2
330
1F
100
AcDbEntity
  8
枠_表
  6
CONTINUOUS
 62
     3
100
AcDbHatch
 10
0.0
 20
0.0
 30
0.0
210
0.0
220
0.0
230
1.0
  2
SOLID
 70
     1
 71
     1
 91
        2
 92
        3
 72
     1
 73
     1
 93
       27
 10
155.83455314665
 20
32.07289865950823
 42
-0.1769427732109284
 10
155.8345531466501
 20
32.07289865950824
 42
0.0
 10
155.8345531466501
 20
31.3438986595082
 42
0.0
 10
156.0100531466501
 20
31.34389865950813
 42
-0.207533601427307
 10
157.149484557914
 20
32.198647182581
 42
-0.1226604740888933
 10
158.1565531466501
 20
32.22004865950819
 42
-0.3213715781137954
 10
159.1976656044417
 20
30.94213028756955
 42
-0.064704004662446
 10
159.20280314665
 20
30.26659865950815
 42
-0.257798906330806
 10
158.9908531466501
 20
30.01009865950816
 42
-0.056602577721096
 10
158.53725314665
 20
29.85214865950823
 42
-0.0166741689362636
 10
156.87405314665
 20
29.53624865950819
 42
0.1186092302783404
 10
155.77650314665
 20
29.00974865950817
 42
0.1699204224386695
 10
155.29860314665
 20
28.21054865950815
 42
0.1006533494296199
 10
155.2544173359163
 20
27.51707110191459
 42
0.1675695228968024
 10
155.6874031466501
 20
26.58784865950818
 42
0.1376980079804242
 10
156.4744531466499
 20
26.13289865950822
 42
0.0719813663796923
 10
156.8322031466499
 20
26.0734986595082
 42
0.0
 10
157.3803031466501
 20
26.07349865950822
 42
0.1944607457809085
 10
159.1987531466501
 20
27.00904865950818
 42
0.1288538183665954
 10
159.3823531466499
 20
26.55004865950812
 42
0.2098387395261546
 10
159.9817531466501
 20
26.21929865950821
 42
0.0
 10
160.4164531466501
 20
26.21659865950823
 42
0.0945009641609563
 10
161.04420314665
 20
26.3502486595082
 42
0.0
 10
161.0442031466499
 20
26.66479865950818
 42
-0.2395739894657535
 10
160.4961031466501
 20
26.65939865950813
 42
-0.2502312110031057
 10
160.22610314665
 20
27.16699865950831
 42
-0.0104343570771765
 10
160.2625531466501
 20
30.95239865950817
 42
0.4051015674140716
 97
        0
 92
        3
 72
     1
 73
     1
 93
        8
 10
159.22710314665
 20
29.60509865950816
 42
-0.0339435190873666
 10
159.2271031466507
 20
29.60509865950708
 42
-0.0001110072973599
 10
159.1704031466501
 20
27.53689865950813
 42
-0.2253076310552528
 10
157.75290314665
 20
26.59054865950824
 42
0.0
 10
157.4059531466499
 20
26.59054865950823
 42
-0.3657967558150132
 10
156.3745531466499
 20
27.6867486595082
 42
0.0
 10
156.3745531466501
 20
28.07824865950821
 42
-0.2530797830369341
 10
157.07115314665
 20
29.04214865950816
 42
-0.0724473624720066
 97
        0
 75
     0
 76
     1
 98
        1
 10
0.0
 20
0.0
  0
ARC
  5
B3
330
1F
100
AcDbEntity
  8
枠_表
  6
CONTINUOUS
 62
     3
100
AcDbCircle
 10
158.0537064825104
 20
29.3233457785378
 30
0.0
 40
3.533367030654128
100
AcDbArc
 50
88.77000393305714
 51
128.9068631829044
  0
ARC
  5
B4
330
1F
100
AcDbEntity
  8
枠_表
  6
CONTINUOUS
 62
     3
100
AcDbCircle
 10
158.2141254520558
 20
30.80383251946634
 30
0.0
 40
2.05380815022918
100
AcDbArc
 50
4.148222840814635
 51
92.36000944257297
  0
ARC
  5
B5
330
1F
100
AcDbEntity
  8
枠_表
  6
CONTINUOUS
 62
     3
100
AcDbCircle
 10
250.9300271677419
 20
28.18647687863467
 30
0.0
 40
90.70965311731324
100
AcDbArc
 50
178.2526643324597
 51
180.6439560401927
  0
ARC
  5
B6
330
1F
100
AcDbEntity
  8
枠_表
  6
CONTINUOUS
 62
     3
100
AcDbCircle
 10
160.8364797889207
 20
27.16605857560953
 30
0.0
 40
0.610377366214778
100
AcDbArc
 50
179.9117548191415
 51
236.1065985968857
  0
ARC
  5
B7
330
1F
100
AcDbEntity
  8
枠_表
  6
CONTINUOUS
 62
     3
100
AcDbCircle
 10
160.7648415691592
 20
27.20122377482184
 30
0.0
 40
0.60480971827296
100
AcDbArc
 50
243.6191685566582
 51
297.5097757939563
  0
LINE
  5
B8
330
1F
100
AcDbEntity
  8
枠_表
  6
CONTINUOUS
 62
     3
100
AcDbLine
 10
161.04420314665
 20
26.3502486595082
 30
0.0
 11
161.04420314665
 21
26.66479865950814
 31
0.0
  0
LINE
  5
B9
330
1F
100
AcDbEntity
  8
枠_表
  6
CONTINUOUS
 62
     3
100
AcDbLine
 10
159.9817531466501
 20
26.21929865950821
 30
0.0
 11
160.41645314665
 21
26.21929865950821
 31
0.0
  0
ARC
  5
BA
330
1F
100
AcDbEntity
  8
枠_表
  6
CONTINUOUS
 62
     3
100
AcDbCircle
 10
160.3799178389118
 20
27.92929025646069
 30
0.0
 40
1.713081240041788
100
AcDbArc
 50
271.222053929324
 51
292.8159509797653
  0
ARC
  5
BB
330
1F
100
AcDbEntity
  8
枠_表
  6
CONTINUOUS
 62
     3
100
AcDbCircle
 10
160.0587547016292
 20
27.06734913057264
 30
0.0
 40
0.851539101240796
100
AcDbArc
 50
217.4081478714985
 51
264.8118660441384
  0
ARC
  5
BC
330
1F
100
AcDbEntity
  8
枠_表
  6
CONTINUOUS
 62
     3
100
AcDbCircle
 10
160.1663112111663
 20
27.12985188531465
 30
0.0
 40
0.975070268019444
100
AcDbArc
 50
187.1167640402298
 51
216.4860549324748
  0
ARC
  5
BD
330
1F
100
AcDbEntity
  8
枠_表
  6
CONTINUOUS
 62
     3
100
AcDbCircle
 10
157.1322609173401
 20
28.79068052513659
 30
0.0
 40
2.728479840207864
100
AcDbArc
 50
275.2158792069686
 51
319.2336424873512
  0
LINE
  5
BE
330
1F
100
AcDbEntity
  8
枠_表
  6
CONTINUOUS
 62
     3
100
AcDbLine
 10
156.8322031466499
 20
26.0734986595082
 30
0.0
 11
157.3803031466501
 21
26.0734986595082
 31
0.0
  0
ARC
  5
BF
330
1F
100
AcDbEntity
  8
枠_表
  6
CONTINUOUS
 62
     3
100
AcDbCircle
 10
156.858562614735
 20
27.33926988774826
 30
0.0
 40
1.266045664183572
100
AcDbArc
 50
252.3384873625213
 51
268.8069976857606
  0
ARC
  5
C0
330
1F
100
AcDbEntity
  8
枠_表
  6
CONTINUOUS
 62
     3
100
AcDbCircle
 10
156.8912590607377
 20
27.76222209545196
 30
0.0
 40
1.681791315512732
100
AcDbArc
 50
224.289750990011
 51
255.6505938786759
  0
ARC
  5
C1
330
1F
100
AcDbEntity
  8
枠_表
  6
CONTINUOUS
 62
     3
100
AcDbCircle
 10
156.81830665831
 20
27.68030043145731
 30
0.0
 40
1.57238469425258
100
AcDbArc
 50
185.958612633842
 51
224.009198931986
  0
ARC
  5
C2
330
1F
100
AcDbEntity
  8
枠_表
  6
CONTINUOUS
 62
     3
100
AcDbCircle
 10
156.9815003713998
 20
27.75517425095492
 30
0.0
 40
1.743418745177338
100
AcDbArc
 50
164.8589457925045
 51
187.8495628504518
  0
ARC
  5
C3
330
1F
100
AcDbEntity
  8
枠_表
  6
CONTINUOUS
 62
     3
100
AcDbCircle
 10
156.6794475806029
 20
27.92732665001606
 30
0.0
 40
1.409590741115844
100
AcDbArc
 50
129.8344892359069
 51
168.4089447024629
  0
ARC
  5
C4
330
1F
100
AcDbEntity
  8
枠_表
  6
CONTINUOUS
 62
     3
100
AcDbCircle
 10
157.4194027735156
 20
26.99216962965747
 30
0.0
 40
2.60187323396984
100
AcDbArc
 50
102.0988446293839
 51
129.1556705448828
  0
ARC
  5
C5
330
1F
100
AcDbEntity
  8
枠_表
  6
CONTINUOUS
 62
     3
100
AcDbCircle
 10
152.9706019997157
 20
54.62404059550428
 30
0.0
 40
25.38964818740764
100
AcDbArc
 50
278.8438342053764
 51
282.6649181367123
  0
ARC
  5
C6
330
1F
100
AcDbEntity
  8
枠_表
  6
CONTINUOUS
 62
     3
100
AcDbCircle
 10
158.0686610022179
 20
31.92814725377499
 30
0.0
 40
2.128226670545568
100
AcDbArc
 50
282.7195832898965
 51
295.6781112778081
  0
ARC
  5
C7
330
1F
100
AcDbEntity
  8
枠_表
  6
CONTINUOUS
 62
     3
100
AcDbCircle
 10
158.8646191134669
 20
30.33022665008579
 30
0.0
 40
0.344117656456262
100
AcDbArc
 50
291.5204897073511
 51
349.3445900274031
  0
ARC
  5
C8
330
1F
100
AcDbEntity
  8
枠_表
  6
CONTINUOUS
 62
     3
100
AcDbCircle
 10
156.6010774713313
 20
30.58459740750251
 30
0.0
 40
2.621087502037842
100
AcDbArc
 50
353.0315250986587
 51
7.839947970678404
  0
ARC
  5
C9
330
1F
100
AcDbEntity
  8
枠_表
  6
CONTINUOUS
 62
     3
100
AcDbCircle
 10
157.7856682563537
 20
30.85483772306847
 30
0.0
 40
1.414693077252004
100
AcDbArc
 50
3.537639967999436
 51
74.8013566619203
  0
ARC
  5
CA
330
1F
100
AcDbEntity
  8
枠_表
  6
CONTINUOUS
 62
     3
100
AcDbCircle
 10
157.6959819159661
 20
30.18767661026047
 30
0.0
 40
2.08390546932846
100
AcDbArc
 50
77.23143261361705
 51
105.203415964315
  0
ARC
  5
CB
330
1F
100
AcDbEntity
  8
枠_表
  6
CONTINUOUS
 62
     3
100
AcDbCircle
 10
157.5650723540597
 20
30.45780383715768
 30
0.0
 40
1.789762210353438
100
AcDbArc
 50
103.4267945469744
 51
150.3242613737993
  0
LINE
  5
CC
330
1F
100
AcDbEntity
  8
枠_表
  6
CONTINUOUS
 62
     3
100
AcDbLine
 10
155.8345531466501
 20
32.07289865950824
 30
0.0
 11
155.8345531466501
 21
31.3438986595082
 31
0.0
  0
ARC
  5
CD
330
1F
100
AcDbEntity
  8
枠_表
  6
CONTINUOUS
 62
     3
100
AcDbCircle
 10
136.8287913045414
 20
27.14685523845581
 30
0.0
 40
13.9340300996012
100
AcDbArc
 50
353.1274757312912
 51
357.1062044901411
  0
ARC
  5
CE
330
1F
100
AcDbEntity
  8
枠_表
  6
CONTINUOUS
 62
     3
100
AcDbCircle
 10
51.86771042458628
 20
31.90394671677689
 30
0.0
 40
99.02800860798017
100
AcDbArc
 50
356.8390243485978
 51
2.971133813187157
  0
ARC
  5
CF
330
1F
100
AcDbEntity
  8
枠_表
  6
CONTINUOUS
 62
     3
100
AcDbCircle
 10
149.2185477299204
 20
25.86815036945833
 30
0.0
 40
1.495538371061266
100
AcDbArc
 50
314.5923914748321
 51
344.9374073189123
  0
ARC
  5
D0
330
1F
100
AcDbEntity
  8
枠_表
  6
CONTINUOUS
 62
     3
100
AcDbCircle
 10
148.7669457937088
 20
26.73519718891984
 30
0.0
 40
2.44693400078005
100
AcDbArc
 50
288.1715191042997
 51
307.8537826235693
  0
LINE
  5
D1
330
1F
100
AcDbEntity
  8
枠_表
  6
CONTINUOUS
 62
     3
100
AcDbLine
 10
149.7771031466499
 20
23.65834865950816
 30
0.0
 11
149.53005314665
 21
24.41029865950813
 31
0.0
  0
ARC
  5
D2
330
1F
100
AcDbEntity
  8
枠_表
  6
CONTINUOUS
 62
     3
100
AcDbCircle
 10
149.2191149973331
 20
28.14446305830776
 30
0.0
 40
4.520682821642724
100
AcDbArc
 50
277.0901027239701
 51
290.9134154817058
  0
ARC
  5
D3
330
1F
100
AcDbEntity
  8
枠_表
  6
CONTINUOUS
 62
     3
100
AcDbCircle
 10
149.8779465577095
 20
27.18767037253664
 30
0.0
 40
3.40278937639223
100
AcDbArc
 50
286.2966123578915
 51
329.973223283839
  0
ARC
  5
D4
330
1F
100
AcDbEntity
  8
枠_表
  6
CONTINUOUS
 62
     3
100
AcDbCircle
 10
148.6979872358123
 20
27.39262713760192
 30
0.0
 40
4.545750526228622
100
AcDbArc
 50
335.1860595856123
 51
1.308075913059479
  0
ARC
  5
D5
330
1F
100
AcDbEntity
  8
枠_表
  6
CONTINUOUS
 62
     3
100
AcDbCircle
 10
283.1085062826868
 20
30.85920721901692
 30
0.0
 40
129.9094848936721
100
AcDbArc
 50
177.2695926307304
 51
181.4833117237826
  0
ARC
  5
D6
330
1F
100
AcDbEntity
  8
枠_表
  6
CONTINUOUS
 62
     3
100
AcDbCircle
 10
152.0181640024454
 20
45.74835141044454
 30
0.0
 40
8.801517666980931
100
AcDbArc
 50
261.7986203004403
 51
278.6803384946418
  0
ARC
  5
D7
330
1F
100
AcDbEntity
  8
枠_表
  6
CONTINUOUS
 62
     3
100
AcDbCircle
 10
156.9211219870745
 20
37.55002762321018
 30
0.0
 40
8.272813629388034
100
AcDbArc
 50
278.4088456599978
 51
286.1851416003176
  0
ARC
  5
D8
330
1F
100
AcDbEntity
  8
枠_表
  6
CONTINUOUS
 62
     3
100
AcDbCircle
 10
158.7132130351541
 20
25.5663772533596
 30
0.0
 40
3.844131572310416
100
AcDbArc
 50
98.71271710191795
 51
115.2874718053599
  0
ARC
  5
D9
330
1F
100
AcDbEntity
  8
枠_表
  6
CONTINUOUS
 62
     3
100
AcDbCircle
 10
157.6140373367568
 20
27.91614958094371
 30
0.0
 40
1.250038866914106
100
AcDbArc
 50
115.7403688633494
 51
172.5491744442191
  0
LINE
  5
DA
330
1F
100
AcDbEntity
  8
枠_表
  6
CONTINUOUS
 62
     3
100
AcDbLine
 10
156.3745531466499
 20
28.07824865950815
 30
0.0
 11
156.3745531466499
 21
27.6867486595082
 31
0.0
  0
ARC
  5
DB
330
1F
100
AcDbEntity
  8
枠_表
  6
CONTINUOUS
 62
     3
100
AcDbCircle
 10
157.5391930697747
 20
27.74922760195577
 30
0.0
 40
1.166314609693994
100
AcDbArc
 50
183.0707787095794
 51
263.4402016072427
  0
LINE
  5
DC
330
1F
100
AcDbEntity
  8
枠_表
  6
CONTINUOUS
 62
     3
100
AcDbLine
 10
157.4059531466499
 20
26.59054865950824
 30
0.0
 11
157.75290314665
 21
26.59054865950824
 31
0.0
  0
ARC
  5
DD
330
1F
100
AcDbEntity
  8
枠_表
  6
CONTINUOUS
 62
     3
100
AcDbCircle
 10
157.4648938153184
 20
28.55672979060418
 30
0.0
 40
1.987163207995832
100
AcDbArc
 50
278.3335103000368
 51
329.12214641873
  0
ARC
  5
DE
330
1F
100
AcDbEntity
  8
枠_表
  6
CONTINUOUS
 62
     3
100
AcDbCircle
 10
-4498.60308443547
 20
156.2653049117578
 30
0.0
 40
4659.552002521183
100
AcDbArc
 50
358.4169008257799
 51
358.4423418242109
  0
ARC
  5
DF
330
1F
100
AcDbEntity
  8
枠_表
  6
CONTINUOUS
 62
     3
100
AcDbCircle
 10
163.1161756013863
 20
18.30138509023422
 30
0.0
 40
7.937818188836994
100
AcDbArc
 50
85.07099551674689
 51
93.91830029343228
  0
ARC
  5
E0
330
1F
100
AcDbEntity
  8
枠_表
  6
CONTINUOUS
 62
     3
100
AcDbCircle
 10
178.4817715790209
 20
27.98300294019631
 30
0.0
 40
14.79024198622985
100
AcDbArc
 50
179.8977458165987
 51
186.8855675734268
  0
ARC
  5
E1
330
1F
100
AcDbEntity
  8
枠_表
  6
CONTINUOUS
 62
     3
100
AcDbCircle
 10
165.913234447328
 20
30.21590450276116
 30
0.0
 40
2.216797912636262
100
AcDbArc
 50
134.9787476233347
 51
181.2369872983282
  0
ARC
  5
E2
330
1F
100
AcDbEntity
  8
枠_表
  6
CONTINUOUS
 62
     3
100
AcDbCircle
 10
165.4020029041106
 20
30.44732546277382
 30
0.0
 40
1.703290114094006
100
AcDbArc
 50
42.91644474042853
 51
128.3015542351336
  0
ARC
  5
E3
330
1F
100
AcDbEntity
  8
枠_表
  6
CONTINUOUS
 62
     3
100
AcDbCircle
 10
164.7889480913705
 20
30.40630277643115
 30
0.0
 40
2.214345015488308
100
AcDbArc
 50
359.2495022237244
 51
32.84055016678333
  0
ARC
  5
E4
330
1F
100
AcDbEntity
  8
枠_表
  6
CONTINUOUS
 62
     3
100
AcDbCircle
 10
134.0234675729948
 20
28.75502675764935
 30
0.0
 40
33.01951133337176
100
AcDbArc
 50
355.58624548738
 51
2.816115806820253
  0
ARC
  5
E5
330
1F
100
AcDbEntity
  8
枠_表
  6
CONTINUOUS
 62
     3
100
AcDbCircle
 10
167.5154281466501
 20
19.9203052384556
 30
0.0
 40
6.319386504253488
100
AcDbArc
 50
84.82155189294139
 51
95.17844810705877
  0
ARC
  5
E6
330
1F
100
AcDbEntity
  8
枠_表
  6
CONTINUOUS
 62
     3
100
AcDbCircle
 10
200.7315267323395
 20
27.78134749478268
 30
0.0
 40
32.68333159707643
100
AcDbArc
 50
176.2131780319488
 51
182.7488833337936
  0
ARC
  5
E7
330
1F
100
AcDbEntity
  8
枠_表
  6
CONTINUOUS
 62
     3
100
AcDbCircle
 10
155.8382720242011
 20
30.26631549624287
 30
0.0
 40
12.28561817573392
100
AcDbArc
 50
358.4775281223096
 51
2.117232414210064
  0
ARC
  5
E8
330
1F
100
AcDbEntity
  8
枠_表
  6
CONTINUOUS
 62
     3
100
AcDbCircle
 10
165.7581103068964
 20
30.72571884903059
 30
0.0
 40
2.35739930292118
100
AcDbArc
 50
359.8658335690532
 51
34.49363429411157
  0
ARC
  5
E9
330
1F
100
AcDbEntity
  8
枠_表
  6
CONTINUOUS
 62
     3
100
AcDbCircle
 10
166.1544811482754
 20
30.98409329595992
 30
0.0
 40
1.88442875111108
100
AcDbArc
 50
34.84393737091607
 51
92.5207065423111
  0
ARC
  5
EA
330
1F
100
AcDbEntity
  8
枠_表
  6
CONTINUOUS
 62
     3
100
AcDbCircle
 10
165.950821380051
 20
30.18551977637205
 30
0.0
 40
2.68389799331452
100
AcDbArc
 50
87.42068310381032
 51
147.4361518966862
  0
ARC
  5
EB
330
1F
100
AcDbEntity
  8
枠_表
  6
CONTINUOUS
 62
     3
100
AcDbCircle
 10
171.2114945479232
 20
31.8157136276611
 30
0.0
 40
7.524931000916362
100
AcDbArc
 50
172.9875214416311
 51
181.4134392789641
  0
ARC
  5
EC
330
1F
100
AcDbEntity
  8
枠_表
  6
CONTINUOUS
 62
     3
100
AcDbCircle
 10
163.1416569972247
 20
35.0441375962898
 30
0.0
 40
2.386698717092032
100
AcDbArc
 50
255.9341994177205
 51
284.5896440601899
  0
ARC
  5
ED
330
1F
100
AcDbEntity
  8
枠_表
  6
CONTINUOUS
 62
     3
100
AcDbCircle
 10
121.8235397734318
 20
29.39876117343497
 30
0.0
 40
40.87395612262144
100
AcDbArc
 50
355.5405243117485
 51
4.673398698656258
  0
LINE
  5
EE
330
1F
100
AcDbEntity
  8
枠_表
  6
CONTINUOUS
 62
     3
100
AcDbLine
 10
163.6969531466499
 20
30.16804865950823
 30
0.0
 11
163.6969531466499
 21
28.00939865950815
 31
0.0
  0
CIRCLE
  5
EF
330
1F
100
AcDbEntity
  8
枠_表
  6
CONTINUOUS
 62
     3
100
AcDbCircle
 10
171.057102807667
 20
35.11670933747425
 30
0.0
 40
0.714466893353978
  0
ARC
  5
F0
330
1F
100
AcDbEntity
  8
枠_表
  6
CONTINUOUS
 62
     3
100
AcDbCircle
 10
171.0291215205545
 20
35.30664948716159
 30
0.0
 40
2.638457097680414
100
AcDbArc
 50
256.6209501743446
 51
283.9984576255729
  0
ARC
  5
F1
330
1F
100
AcDbEntity
  8
枠_表
  6
CONTINUOUS
 62
     3
100
AcDbCircle
 10
171.0828817874266
 20
13.15960836824669
 30
0.0
 40
13.06571897050218
100
AcDbArc
 50
87.46575055044718
 51
92.90832285102188
  0
ARC
  5
F2
330
1F
100
AcDbEntity
  8
枠_表
  6
CONTINUOUS
 62
     3
100
AcDbCircle
 10
212.2508094359113
 20
29.43762011478778
 30
0.0
 40
40.71812781178001
100
AcDbArc
 50
175.3387608397566
 51
184.5428594926177
  0
ARC
  5
F3
330
1F
100
AcDbEntity
  8
枠_表
  6
CONTINUOUS
 62
     3
100
AcDbCircle
 10
126.1380115072773
 20
29.46499585532477
 30
0.0
 40
44.40152170071624
100
AcDbArc
 50
355.7940354718675
 51
4.229650257234435
  0
ARC
  5
F4
330
1F
100
AcDbEntity
  8
枠_表
  6
CONTINUOUS
 62
     3
100
AcDbCircle
 10
240.1288906465629
 20
194.8059486592841
 30
0.0
 40
174.0560045792631
100
AcDbArc
 50
248.6422112053103
 51
248.8567777804232
  0
ARC
  5
F5
330
1F
100
AcDbEntity
  8
枠_表
  6
CONTINUOUS
 62
     3
100
AcDbCircle
 10
175.9708565692113
 20
30.83326076727914
 30
0.0
 40
2.021815735184314
100
AcDbArc
 50
67.6615195708736
 51
88.69073168448988
  0
ARC
  5
F6
330
1F
100
AcDbEntity
  8
枠_表
  6
CONTINUOUS
 62
     3
100
AcDbCircle
 10
175.7542208856781
 20
30.21958195875228
 30
0.0
 40
2.63994973073505
100
AcDbArc
 50
92.3830157457649
 51
114.9635286746436
  0
ARC
  5
F7
330
1F
100
AcDbEntity
  8
枠_表
  6
CONTINUOUS
 62
     3
100
AcDbCircle
 10
175.5592699359922
 20
30.84018582203734
 30
0.0
 40
1.99686512061838
100
AcDbArc
 50
117.4083995939977
 51
176.1964688215695
  0
ARC
  5
F8
330
1F
100
AcDbEntity
  8
枠_表
  6
CONTINUOUS
 62
     3
100
AcDbCircle
 10
174.9119851585199
 20
30.64385538151063
 30
0.0
 40
1.338745211811222
100
AcDbArc
 50
181.2393899443581
 51
226.5942921332421
  0
ARC
  5
F9
330
1F
100
AcDbEntity
  8
枠_表
  6
CONTINUOUS
 62
     3
100
AcDbCircle
 10
175.70536291599
 20
31.44792822013377
 30
0.0
 40
2.468201901559134
100
AcDbArc
 50
226.0402388947521
 51
253.1776672992999
  0
ARC
  5
FA
330
1F
100
AcDbEntity
  8
枠_表
  6
CONTINUOUS
 62
     3
100
AcDbCircle
 10
173.6342978366085
 20
23.38914283510425
 30
0.0
 40
5.855556827945508
100
AcDbArc
 50
63.49050203733571
 51
76.6025921984959
  0
ARC
  5
FB
330
1F
100
AcDbEntity
  8
枠_表
  6
CONTINUOUS
 62
     3
100
AcDbCircle
 10
175.8616009170733
 20
27.79692450866341
 30
0.0
 40
0.917420304438028
100
AcDbArc
 50
6.538924194159028
 51
65.09756080693691
  0
ARC
  5
FC
330
1F
100
AcDbEntity
  8
枠_表
  6
CONTINUOUS
 62
     3
100
AcDbCircle
 10
175.6071555489302
 20
27.74004727514338
 30
0.0
 40
1.188790983753352
100
AcDbArc
 50
270.8867385422408
 51
352.7925382056679
  0
ARC
  5
FD
330
1F
100
AcDbEntity
  8
枠_表
  6
CONTINUOUS
 62
     3
100
AcDbCircle
 10
175.5272208646972
 20
28.33317279554771
 30
0.0
 40
1.796008070925054
100
AcDbArc
 50
207.7689879465537
 51
262.7817283832026
  0
ARC
  5
FE
330
1F
100
AcDbEntity
  8
枠_表
  6
CONTINUOUS
 62
     3
100
AcDbCircle
 10
175.1586010918554
 20
29.56313153622053
 30
0.0
 40
3.50655263156004
100
AcDbArc
 50
241.8829576087175
 51
265.9354096935781
  0
ARC
  5
FF
330
1F
100
AcDbEntity
  8
枠_表
  6
CONTINUOUS
 62
     3
100
AcDbCircle
 10
175.4932777293512
 20
28.33384934236093
 30
0.0
 40
2.26903011636129
100
AcDbArc
 50
271.2948770866744
 51
348.6654156292868
  0
ARC
  5
100
330
1F
100
AcDbEntity
  8
枠_表
  6
CONTINUOUS
 62
     3
100
AcDbCircle
 10
176.240914425839
 20
28.30434517063153
 30
0.0
 40
1.492490151459212
100
AcDbArc
 50
6.154262763177246
 51
76.1750990425562
  0
ARC
  5
101
330
1F
100
AcDbEntity
  8
枠_表
  6
CONTINUOUS
 62
     3
100
AcDbCircle
 10
179.1076933938411
 20
40.18718621007028
 30
0.0
 40
10.73128851703336
100
AcDbArc
 50
249.6420733479936
 51
256.4727051201885
  0
ARC
  5
102
330
1F
100
AcDbEntity
  8
枠_表
  6
CONTINUOUS
 62
     3
100
AcDbCircle
 10
175.8144270477489
 20
31.46277283533228
 30
0.0
 40
1.407127414674368
100
AcDbArc
 50
210.9501336849607
 51
251.7794729821079
  0
ARC
  5
103
330
1F
100
AcDbEntity
  8
枠_表
  6
CONTINUOUS
 62
     3
100
AcDbCircle
 10
177.2606281466526
 20
31.67646365950892
 30
0.0
 40
2.8137038745868
100
AcDbArc
 50
193.4375782160214
 51
199.459638038058
  0
ARC
  5
104
330
1F
100
AcDbEntity
  8
枠_表
  6
CONTINUOUS
 62
     3
100
AcDbCircle
 10
175.6070192972106
 20
31.25349989415846
 30
0.0
 40
1.071227862207862
100
AcDbArc
 50
92.11404364449162
 51
173.4175047026091
  0
ARC
  5
105
330
1F
100
AcDbEntity
  8
枠_表
  6
CONTINUOUS
 62
     3
100
AcDbCircle
 10
175.68294678255
 20
31.10858472583342
 30
0.0
 40
1.225172860204506
100
AcDbArc
 50
17.92452211681263
 51
85.16543319077402
  0
LINE
  5
106
330
1F
100
AcDbEntity
  8
枠_表
  6
CONTINUOUS
 62
     3
100
AcDbLine
 10
176.0170531466501
 20
32.85454865950814
 30
0.0
 11
175.6444531466501
 21
32.85454865950814
 31
0.0
  0
LINE
  5
107
330
1F
100
AcDbEntity
  8
枠_表
  6
CONTINUOUS
 62
     3
100
AcDbLine
 10
175.30155314665
 20
26.55139865950818
 30
0.0
 11
175.6255531466501
 21
26.55139865950818
 31
0.0
  0
LINE
  5
108
330
1F
100
AcDbEntity
  8
枠_表
  6
CONTINUOUS
 62
     3
100
AcDbLine
 10
173.9380531466501
 20
27.49639865950823
 30
0.0
 11
173.76255314665
 21
27.49639865950823
 31
0.0
  0
LINE
  5
109
330
1F
100
AcDbEntity
  8
枠_表
  6
CONTINUOUS
 62
     3
100
AcDbLine
 10
174.91005314665
 20
26.06539865950819
 30
0.0
 11
175.54455314665
 21
26.06539865950819
 31
0.0
  0
LINE
  5
10A
330
1F
100
AcDbEntity
  8
枠_表
  6
CONTINUOUS
 62
     3
100
AcDbLine
 10
155.8345531466501
 20
31.3438986595082
 30
0.0
 11
156.01005314665
 21
31.3438986595082
 31
0.0
  0
ARC
  5
10B
330
1F
100
AcDbEntity
  8
枠_表
  6
CONTINUOUS
 62
     3
100
AcDbCircle
 10
171.5068826264188
 20
27.51559519130009
 30
0.0
 40
2.255907480157676
100
AcDbArc
 50
332.398752142179
 51
359.5124385477117
  0
LINE
  5
10C
330
1F
100
AcDbEntity
  8
枠_表
  6
CONTINUOUS
 62
     3
100
AcDbLine
 10
176.7730531466499
 20
27.9013986595082
 30
0.0
 11
176.7865531466501
 21
27.59089865950815
 31
0.0
  0
LINE
  5
10D
330
1F
100
AcDbEntity
  8
枠_表
  6
CONTINUOUS
 62
     3
100
AcDbLine
 10
177.7248031466501
 20
28.4643486595082
 30
0.0
 11
177.7180531466499
 21
27.88789865950818
 31
0.0
  0
LINE
  5
10E
330
1F
100
AcDbEntity
  8
枠_表
  6
CONTINUOUS
 62
     3
100
AcDbLine
 10
174.5428531466499
 20
31.37629865950813
 30
0.0
 11
174.5239531466499
 21
31.02259865950813
 31
0.0
  0
LINE
  5
10F
330
1F
100
AcDbEntity
  8
枠_表
  6
CONTINUOUS
 62
     3
100
AcDbLine
 10
173.56680314665
 20
30.97264865950816
 30
0.0
 11
173.5735531466499
 21
30.61489865951259
 31
0.0
  0
LINE
  5
110
330
1F
100
AcDbEntity
  8
枠_表
  6
CONTINUOUS
 62
     3
100
AcDbLine
 10
175.5675031466499
 20
32.32399865950819
 30
0.0
 11
175.7862031466501
 21
32.3293986595082
 31
0.0
  0
LINE
  5
111
330
1F
100
AcDbEntity
  8
枠_表
  6
CONTINUOUS
 62
     3
100
AcDbLine
 10
176.8486531466501
 20
31.4856486595082
 30
0.0
 11
177.0194186973462
 21
31.4856486595082
 31
0.0
  0
ARC
  5
112
330
1F
100
AcDbEntity
  8
枠_表
  6
CONTINUOUS
 62
     3
100
AcDbCircle
 10
180.7684962137741
 20
30.78038875014996
 30
0.0
 40
3.814836007475662
100
AcDbArc
 50
153.7591918158498
 51
169.3462759801917
  0
TEXT
  5
114
330
1F
100
AcDbEntity
  8
枠_表
  6
CONTINUOUS
 62
     2
100
AcDbText
 10
180.4000000000005
 20
25.10000000000009
 30
0.0
 40
6.75
  1
ジャニス工業株式会社
 41
1.025641025641026
  7
EXCADTTF1
 72
     5
 11
270.4000000000005
 21
25.10000000000007
 31
0.0
100
AcDbText
  0
LINE
  5
115
330
1F
100
AcDbEntity
  8
枠_表
  6
EXLTYPE2
 62
     6
100
AcDbLine
 10
32.0
 20
30.0
 30
0.0
 11
94.0
 21
29.99999999999999
 31
0.0
  0
CIRCLE
  5
116
330
1F
100
AcDbEntity
  8
枠_表
  6
CONTINUOUS
 62
     6
100
AcDbCircle
 10
83.0
 20
24.99999999999999
 30
0.0
 40
0.20000004
  0
CIRCLE
  5
117
330
1F
100
AcDbEntity
  8
枠_表
  6
CONTINUOUS
 62
     6
100
AcDbCircle
 10
73.0
 20
24.99999999999999
 30
0.0
 40
0.20000004
  0
CIRCLE
  5
118
330
1F
100
AcDbEntity
  8
枠_表
  6
CONTINUOUS
 62
     6
100
AcDbCircle
 10
52.0
 20
25.0
 30
0.0
 40
0.20000004
  0
CIRCLE
  5
119
330
1F
100
AcDbEntity
  8
枠_表
  6
CONTINUOUS
 62
     6
100
AcDbCircle
 10
42.0
 20
25.0
 30
0.0
 40
0.20000004
  0
LINE
  5
11A
330
1F
100
AcDbEntity
  8
枠_表
  6
CONTINUOUS
 62
     6
100
AcDbLine
 10
32.0
 20
53.99999999999999
 30
0.0
 11
146.0
 21
53.99999999999999
 31
0.0
  0
LINE
  5
11B
330
1F
100
AcDbEntity
  8
枠_表
  6
CONTINUOUS
 62
     6
100
AcDbLine
 10
63.0
 20
63.99999999999999
 30
0.0
 11
63.0
 21
20.0
 31
0.0
  0
LINE
  5
11C
330
1F
100
AcDbEntity
  8
枠_表
  6
CONTINUOUS
 62
     6
100
AcDbLine
 10
94.0
 20
63.99999999999999
 30
0.0
 11
94.0
 21
19.99999999999999
 31
0.0
  0
LINE
  5
11D
330
1F
100
AcDbEntity
  8
枠_表
  6
CONTINUOUS
 62
     6
100
AcDbLine
 10
120.0
 20
63.99999999999999
 30
0.0
 11
120.0
 21
19.99999999999999
 31
0.0
  0
LINE
  5
11E
330
1F
100
AcDbEntity
  8
枠_表
  6
CONTINUOUS
 62
     6
100
AcDbLine
 10
146.0
 20
63.99999999999999
 30
0.0
 11
146.0
 21
19.99999999999999
 31
0.0
  0
LINE
  5
11F
330
1F
100
AcDbEntity
  8
枠_表
  6
CONTINUOUS
 62
     6
100
AcDbLine
 10
156.0
 20
63.99999999999999
 30
0.0
 11
156.0
 21
39.99999999999999
 31
0.0
  0
LINE
  5
120
330
1F
100
AcDbEntity
  8
枠_表
  6
CONTINUOUS
 62
     6
100
AcDbLine
 10
274.0
 20
63.99999999999998
 30
0.0
 11
274.0
 21
19.99999999999998
 31
0.0
  0
LINE
  5
121
330
1F
100
AcDbEntity
  8
枠_表
  6
CONTINUOUS
 62
     6
100
AcDbLine
 10
284.0
 20
63.99999999999998
 30
0.0
 11
284.0
 21
19.99999999999998
 31
0.0
  0
TEXT
  5
122
330
1F
100
AcDbEntity
  8
枠_表
  6
CONTINUOUS
 62
     2
100
AcDbText
 10
36.5
 20
54.74999999999999
 30
0.0
 40
8.5
  1
製図
 41
1.509694117647059
  7
EXCADSTD
 72
     5
 11
56.6652
 21
54.74999999999999
 31
0.0
100
AcDbText
  0
TEXT
  5
123
330
1F
100
AcDbEntity
  8
枠_表
  6
CONTINUOUS
 62
     2
100
AcDbText
 10
67.5
 20
54.74999999999999
 30
0.0
 40
8.5
  1
写図
 41
1.509694117647059
  7
EXCADSTD
 72
     5
 11
87.6652
 21
54.74999999999999
 31
0.0
100
AcDbText
  0
TEXT
  5
124
330
1F
100
AcDbEntity
  8
枠_表
  6
CONTINUOUS
 62
     2
100
AcDbText
 10
97.5
 20
54.74999999999999
 30
0.0
 40
8.5
  1
検図
 41
1.303826737967915
  7
EXCADSTD
 72
     5
 11
114.9154
 21
54.74999999999998
 31
0.0
100
AcDbText
  0
TEXT
  5
125
330
1F
100
AcDbEntity
  8
枠_表
  6
CONTINUOUS
 62
     2
100
AcDbText
 10
123.5
 20
54.74999999999999
 30
0.0
 40
8.5
  1
承認
 41
1.303826737967915
  7
EXCADSTD
 72
     5
 11
140.9154
 21
54.74999999999998
 31
0.0
100
AcDbText
  0
TEXT
  5
126
330
1F
100
AcDbEntity
  8
枠_表
  6
CONTINUOUS
 62
     2
100
AcDbText
 10
147.1500000000001
 20
42.74999999999999
 30
0.0
 40
8.5
  1
名
 41
1.120000000000002
  7
EXCADSTD
 72
     5
 11
153.9500000000001
 21
42.74999999999999
 31
0.0
100
AcDbText
  0
TEXT
  5
127
330
1F
100
AcDbEntity
  8
枠_表
  6
CONTINUOUS
 62
     2
100
AcDbText
 10
147.1500000000001
 20
52.74999999999999
 30
0.0
 40
8.5
  1
品
 41
1.120000000000002
  7
EXCADSTD
 72
     5
 11
153.9500000000001
 21
52.74999999999999
 31
0.0
100
AcDbText
  0
TEXT
  5
128
330
1F
100
AcDbEntity
  8
枠_表
  6
CONTINUOUS
 62
     2
100
AcDbText
 10
275.15
 20
52.74999999999998
 30
0.0
 40
8.5
  1
品
 41
1.120000000000002
  7
EXCADSTD
 72
     5
 11
281.95
 21
52.74999999999998
 31
0.0
100
AcDbText
  0
TEXT
  5
129
330
1F
100
AcDbEntity
  8
枠_表
  6
CONTINUOUS
 62
     2
100
AcDbText
 10
275.15
 20
42.74999999999998
 30
0.0
 40
8.5
  1
番
 41
1.120000000000002
  7
EXCADSTD
 72
     5
 11
281.95
 21
42.74999999999998
 31
0.0
100
AcDbText
  0
TEXT
  5
12A
330
1F
100
AcDbEntity
  8
枠_表
  6
CONTINUOUS
 62
     2
100
AcDbText
 10
275.15
 20
30.14999999999961
 30
0.0
 40
8.5
  1
図
 41
1.120000000000002
  7
EXCADSTD
 72
     5
 11
281.95
 21
30.14999999999961
 31
0.0
100
AcDbText
  0
TEXT
  5
12B
330
1F
100
AcDbEntity
  8
枠_表
  6
CONTINUOUS
 62
     2
100
AcDbText
 10
275.15
 20
21.54999999999971
 30
0.0
 40
8.5
  1
番
 41
1.120000000000002
  7
EXCADSTD
 72
     5
 11
281.95
 21
21.54999999999971
 31
0.0
100
AcDbText
  0
LINE
  5
12C
330
1F
100
AcDbEntity
  8
枠_表
  6
CONTINUOUS
 62
     7
100
AcDbLine
 10
32.00000000000006
 20
20.0
 30
0.0
 11
31.99999999999999
 21
572.0
 31
0.0
  0
LINE
  5
12D
330
1F
100
AcDbEntity
  8
枠_表
  6
CONTINUOUS
 62
     6
100
AcDbLine
 10
146.0
 20
40.0
 30
0.0
 11
396.0
 21
40.0
 31
0.0
  0
LINE
  5
12E
330
1F
100
AcDbEntity
  8
枠_表
  6
CONTINUOUS
 62
     7
100
AcDbLine
 10
396.0
 20
572.0
 30
0.0
 11
32.00000000000009
 21
571.9999999999999
 31
0.0
  0
LINE
  5
12F
330
1F
100
AcDbEntity
  8
枠_表
  6
CONTINUOUS
 62
     7
100
AcDbLine
 10
396.0
 20
572.0
 30
0.0
 11
396.0
 21
20.0
 31
0.0
  0
LINE
  5
130
330
1F
100
AcDbEntity
  8
枠_表
  6
CONTINUOUS
 62
     7
100
AcDbLine
 10
32.0
 20
20.0
 30
0.0
 11
396.0
 21
20.0
 31
0.0
  0
TEXT
  5
131
330
1F
100
AcDbEntity
  8
枠_表
  6
CONTINUOUS
 62
     2
100
AcDbText
 10
384.0385185186
 20
41.74
 30
0.0
 40
8.0
  1
２
 41
1.4
  7
EXCADSTD
 72
     5
 11
392.0385185186
 21
41.74
 31
0.0
100
AcDbText
  0
LINE
  5
132
330
1F
100
AcDbEntity
  8
枠_表
  6
CONTINUOUS
 62
     7
100
AcDbLine
 10
396.0
 20
64.0
 30
0.0
 11
32.00000000000006
 21
63.99999999999994
 31
0.0
  0
TEXT
  5
133
330
1F
100
AcDbEntity
  8
枠_表
  6
CONTINUOUS
 62
     2
100
AcDbText
 10
146.0
 20
553.0
 30
0.0
 40
8.0
  1
１
 41
1.120000000000001
  7
EXCADSTD
 72
     5
 11
152.4
 21
553.0
 31
0.0
100
AcDbText
  0
TEXT
  5
134
330
1F
100
AcDbEntity
  8
枠_表
  6
CONTINUOUS
 62
     2
100
AcDbText
 10
174.0
 20
563.0
 30
0.0
 40
8.0
  1
品名
 41
2.333163636363636
  7
EXCADSTD
 72
     5
 11
203.3312
 21
563.0
 31
0.0
100
AcDbText
  0
TEXT
  5
135
330
1F
100
AcDbEntity
  8
枠_表
  6
CONTINUOUS
 62
     2
100
AcDbText
 10
287.5000000000001
 20
563.0
 30
0.0
 40
8.0
  1
個数
 41
1.239493181818182
  7
EXCADSTD
 72
     5
 11
303.0822000000001
 21
563.0
 31
0.0
100
AcDbText
  0
TEXT
  5
136
330
1F
100
AcDbEntity
  8
枠_表
  6
CONTINUOUS
 62
     2
100
AcDbText
 10
141.5
 20
563.0
 30
0.0
 40
8.0
  1
番号
 41
1.239493181818182
  7
EXCADSTD
 72
     5
 11
157.0822
 21
563.0
 31
0.0
100
AcDbText
  0
TEXT
  5
137
330
1F
100
AcDbEntity
  8
枠_表
  6
CONTINUOUS
 62
     2
100
AcDbText
 10
332.0000000000001
 20
563.0
 30
0.0
 40
8.0
  1
備考
 41
2.770631818181819
  7
EXCADSTD
 72
     5
 11
366.8308000000001
 21
563.0
 31
0.0
100
AcDbText
  0
LINE
  5
138
330
1F
100
AcDbEntity
  8
枠_表
  6
CONTINUOUS
 62
     6
100
AcDbLine
 10
140.0
 20
562.0
 30
0.0
 11
396.0000000000001
 21
562.0
 31
0.0
  0
LINE
  5
139
330
1F
100
AcDbEntity
  8
枠_表
  6
CONTINUOUS
 62
     6
100
AcDbLine
 10
140.0
 20
552.0
 30
0.0
 11
396.0000000000001
 21
552.0
 31
0.0
  0
TEXT
  5
13A
330
1F
100
AcDbEntity
  8
枠_表
  6
CONTINUOUS
 62
     2
100
AcDbText
 10
234.0
 20
563.0
 30
0.0
 40
8.0
  1
材質
 41
2.333163636363636
  7
EXCADSTD
 72
     5
 11
263.3312
 21
563.0
 31
0.0
100
AcDbText
  0
LINE
  5
13B
330
1F
100
AcDbEntity
  8
枠_表
  6
CONTINUOUS
 62
     6
100
AcDbLine
 10
140.0000000000001
 20
542.0
 30
0.0
 11
396.0000000000001
 21
542.0
 31
0.0
  0
LINE
  5
13C
330
1F
100
AcDbEntity
  8
枠_表
  6
CONTINUOUS
 62
     6
100
AcDbLine
 10
140.0000000000001
 20
572.0
 30
0.0
 11
140.0000000000001
 21
542.0
 31
0.0
  0
LINE
  5
13D
330
1F
100
AcDbEntity
  8
枠_表
  6
CONTINUOUS
 62
     6
100
AcDbLine
 10
160.0000000000001
 20
572.0
 30
0.0
 11
160.0000000000001
 21
542.0
 31
0.0
  0
LINE
  5
13E
330
1F
100
AcDbEntity
  8
枠_表
  6
CONTINUOUS
 62
     6
100
AcDbLine
 10
220.0000000000001
 20
572.0
 30
0.0
 11
220.0000000000001
 21
542.0
 31
0.0
  0
LINE
  5
13F
330
1F
100
AcDbEntity
  8
枠_表
  6
CONTINUOUS
 62
     6
100
AcDbLine
 10
286.0000000000001
 20
572.0
 30
0.0
 11
286.0000000000001
 21
542.0
 31
0.0
  0
LINE
  5
140
330
1F
100
AcDbEntity
  8
枠_表
  6
CONTINUOUS
 62
     6
100
AcDbLine
 10
306.0000000000001
 20
572.0
 30
0.0
 11
306.0000000000001
 21
542.0
 31
0.0
  0
TEXT
  5
141
330
1F
100
AcDbEntity
  8
枠_表
  6
CONTINUOUS
 62
     2
100
AcDbText
 10
146.0000000000001
 20
543.0
 30
0.0
 40
8.0
  1
２
 41
1.120000000000001
  7
EXCADSTD
 72
     5
 11
152.4000000000001
 21
543.0
 31
0.0
100
AcDbText
  0
TEXT
  5
142
330
1F
100
AcDbEntity
  8
枠_表
  6
CONTINUOUS
 62
     2
100
AcDbText
 10
33.25000000384193
 20
22.00000000000005
 30
0.0
 40
6.0
  1
'25
 41
0.4689784011919448
  7
EXCADSTD
 72
     5
 11
39.54770996270519
 21
22.00000000000005
 31
0.0
100
AcDbText
  0
TEXT
  5
143
330
1F
100
AcDbEntity
  8
枠_表
  6
CONTINUOUS
 62
     2
100
AcDbText
 10
307.0000000000001
 20
543.0
 30
0.0
 40
8.0
  1
クロムメッキ,つば付洗浄管
 41
0.8357623178060815
  7
EXCADSTD
 72
     5
 11
377.9999988079072
 21
543.0
 31
0.0
100
AcDbText
  0
TEXT
  5
144
330
1F
100
AcDbEntity
  8
枠_表
  6
CONTINUOUS
 62
     2
100
AcDbText
 10
161.0000000000001
 20
543.0
 30
0.0
 40
8.0
  1
洗浄管
 41
1.070588232839809
  7
EXCADSTD
 72
     5
 11
181.7999999523163
 21
543.0
 31
0.0
100
AcDbText
  0
TEXT
  5
145
330
1F
100
AcDbEntity
  8
枠_表
  6
CONTINUOUS
 62
     2
100
AcDbText
 10
161.0
 20
553.0
 30
0.0
 40
8.0
  1
フラッシュバルブ
 41
0.9829787202972048
  7
EXCADSTD
 72
     5
 11
213.799999833107
 21
553.0
 31
0.0
100
AcDbText
  0
TEXT
  5
146
330
1F
100
AcDbEntity
  8
枠_表
  6
CONTINUOUS
 62
     2
100
AcDbText
 10
292.0
 20
553.0
 30
0.0
 40
8.0
  1
１
 41
1.119999999999996
  7
EXCADSTD
 72
     5
 11
298.4
 21
553.0
 31
0.0
100
AcDbText
  0
TEXT
  5
147
330
1F
100
AcDbEntity
  8
枠_表
  6
CONTINUOUS
 62
     2
100
AcDbText
 10
292.0000000000001
 20
543.0
 30
0.0
 40
8.0
  1
１
 41
1.119999999999996
  7
EXCADSTD
 72
     5
 11
298.4
 21
543.0
 31
0.0
100
AcDbText
  0
TEXT
  5
148
330
1F
100
AcDbEntity
  8
枠_表
  6
CONTINUOUS
 62
     2
100
AcDbText
 10
221.0000000000001
 20
543.0
 30
0.0
 40
8.0
  1
銅管
 41
1.195746361898021
  7
EXCADSTD
 72
     5
 11
236.0322399781466
 21
543.0
 31
0.0
100
AcDbText
  0
TEXT
  5
149
330
1F
100
AcDbEntity
  8
枠_表
  6
CONTINUOUS
 62
     2
100
AcDbText
 10
186.4
 20
47.59999999999999
 30
0.0
 40
10.0
  1
小便器洗浄水栓
 41
1.092682926829268
  7
EXCADSTD
 72
     5
 11
250.4
 21
47.59999999999997
 31
0.0
100
AcDbText
  0
TEXT
  5
14A
330
1F
100
AcDbEntity
  8
枠_表
  6
CONTINUOUS
 62
     2
100
AcDbText
 10
37.5
 20
37.00000000000005
 30
0.0
 40
10.0
  1
伊藤
 41
1.166581818181818
  7
EXCADSTD
 72
     5
 11
55.832
 21
37.00000000000004
 31
0.0
100
AcDbText
  0
TEXT
  5
14B
330
1F
100
AcDbEntity
  8
枠_表
  6
CONTINUOUS
 62
     2
100
AcDbText
 10
43.5
 20
22.00000000000005
 30
0.0
 40
6.0
  1
05
 41
0.52972972972973
  7
EXCADSTD
 72
     5
 11
49.1
 21
22.00000000000005
 31
0.0
100
AcDbText
  0
TEXT
  5
14C
330
1F
100
AcDbEntity
  8
枠_表
  6
CONTINUOUS
 62
     2
100
AcDbText
 10
54.60000001999992
 20
22.00000000000005
 30
0.0
 40
6.0
  1
02
 41
0.4540540540540539
  7
EXCADSTD
 72
     5
 11
59.40000001999992
 21
22.00000000000005
 31
0.0
100
AcDbText
  0
TEXT
  5
14D
330
1F
100
AcDbEntity
  8
枠_表
  6
CONTINUOUS
 62
     7
100
AcDbText
 10
300.4
 20
24.4
 30
0.0
 40
12.0
  1
３４４４００
 41
1.233333333333333
  7
EXCADSTD
 72
     5
 11
374.4
 21
24.4
 31
0.0
100
AcDbText
  0
TEXT
  5
14E
330
1F
100
AcDbEntity
  8
枠_表
  6
CONTINUOUS
 62
     7
100
AcDbText
 10
298.0000000000001
 20
52.0
 30
0.0
 40
10.0
  1
ＪＵ６４Ａ１
  7
EXCADSTD
 72
     5
 11
348.0000000000001
 21
52.0
 31
0.0
100
AcDbText
  0
TEXT
  5
14F
330
1F
100
AcDbEntity
  8
枠_表
  6
CONTINUOUS
 62
     7
100
AcDbText
 10
298.0000000000001
 20
42.0
 30
0.0
 40
10.0
  1
ＪＵ６４Ａ１Ｆ
 41
0.9902439024390244
  7
EXCADSTD
 72
     5
 11
356.0000000000001
 21
42.0
 31
0.0
100
AcDbText
  0
TEXT
  5
150
330
1F
100
AcDbEntity
  8
枠_表
  6
CONTINUOUS
 62
     2
100
AcDbText
 10
97.0
 20
37.00000000000005
 30
0.0
 40
10.0
  1
川野
 41
1.166581818181818
  7
EXCADSTD
 72
     5
 11
115.332
 21
37.00000000000004
 31
0.0
100
AcDbText
  0
TEXT
  5
151
330
1F
100
AcDbEntity
  8
枠_表
  6
CONTINUOUS
 62
     2
100
AcDbText
 10
123.0
 20
37.00000000000005
 30
0.0
 40
10.0
  1
椎葉
 41
1.166581818181818
  7
EXCADSTD
 72
     5
 11
141.332
 21
37.00000000000004
 31
0.0
100
AcDbText
  0
LINE
  5
152
330
1F
100
AcDbEntity
  8
図
  6
EXLTYPE3
 62
     6
100
AcDbLine
 10
349.4755073908399
 20
293.30260653247
 30
0.0
 11
283.1530839269899
 21
293.30260653247
 31
0.0
  0
LINE
  5
153
330
1F
100
AcDbEntity
  8
図
  6
EXLTYPE3
 62
     6
100
AcDbLine
 10
218.4930839269899
 20
308.30260653247
 30
0.0
 11
176.6530839269899
 21
308.30260653247
 31
0.0
  0
LINE
  5
154
330
1F
100
AcDbEntity
  8
図
  6
CONTINUOUS
 62
     2
100
AcDbLine
 10
327.2120149260019
 20
317.0044076718673
 30
0.0
 11
330.5979865173447
 21
317.0044076718673
 31
0.0
  0
LINE
  5
155
330
1F
100
AcDbEntity
  8
図
  6
CONTINUOUS
 62
     2
100
AcDbLine
 10
280.739554834824
 20
367.3707350930895
 30
0.0
 11
273.9676116521386
 21
367.0321379339551
 31
0.0
  0
LINE
  5
156
330
1F
100
AcDbEntity
  8
図
  6
CONTINUOUS
 62
     2
100
AcDbLine
 10
273.9676116521386
 20
367.0321379339551
 30
0.0
 11
272.9518201747359
 21
366.9474886441714
 31
0.0
  0
LINE
  5
157
330
1F
100
AcDbEntity
  8
図
  6
CONTINUOUS
 62
     2
100
AcDbLine
 10
272.9518201747359
 20
366.9474886441714
 30
0.0
 11
272.9518201747359
 21
367.0321379339551
 31
0.0
  0
LINE
  5
158
330
1F
100
AcDbEntity
  8
図
  6
CONTINUOUS
 62
     2
100
AcDbLine
 10
330.5979865173447
 20
269.5161561032866
 30
0.0
 11
327.2120149260019
 21
269.5161561032866
 31
0.0
  0
LINE
  5
159
330
1F
100
AcDbEntity
  8
図
  6
CONTINUOUS
 62
     2
100
AcDbLine
 10
272.0206779871166
 20
250.3007673224168
 30
0.0
 11
272.0206779871166
 21
365.9316971667687
 31
0.0
  0
LINE
  5
15A
330
1F
100
AcDbEntity
  8
図
  6
CONTINUOUS
 62
     2
100
AcDbLine
 10
326.1115741588156
 20
316.1579147740316
 30
0.0
 11
326.1115741588156
 21
270.3626490011221
 31
0.0
  0
LINE
  5
15B
330
1F
100
AcDbEntity
  8
図
  6
CONTINUOUS
 62
     2
100
AcDbLine
 10
321.1172660615852
 20
307.7776350854585
 30
0.0
 11
321.1172660615852
 21
278.7429286896951
 31
0.0
  0
LINE
  5
15C
330
1F
100
AcDbEntity
  8
図
  6
CONTINUOUS
 62
     2
100
AcDbLine
 10
204.4705447398305
 20
250.3007673224168
 30
0.0
 11
290.9821188986355
 21
250.3007673224168
 31
0.0
  0
LINE
  5
15D
330
1F
100
AcDbEntity
  8
図
  6
CONTINUOUS
 62
     2
100
AcDbLine
 10
290.9821188986355
 20
372.2803939005362
 30
0.0
 11
279.9777112267719
 21
372.2803939005362
 31
0.0
  0
LINE
  5
15E
330
1F
100
AcDbEntity
  8
図
  6
CONTINUOUS
 62
     2
100
AcDbLine
 10
279.9777112267719
 20
372.2803939005362
 30
0.0
 11
268.9733035549082
 21
371.9417967414018
 31
0.0
  0
LINE
  5
15F
330
1F
100
AcDbEntity
  8
図
  6
CONTINUOUS
 62
     2
100
AcDbLine
 10
268.9733035549082
 20
371.9417967414018
 30
0.0
 11
257.9688958830446
 21
371.2646024231333
 31
0.0
  0
LINE
  5
160
330
1F
100
AcDbEntity
  8
図
  6
CONTINUOUS
 62
     2
100
AcDbLine
 10
257.9688958830446
 20
371.2646024231333
 30
0.0
 11
247.0491375009645
 21
370.1641616559472
 31
0.0
  0
LINE
  5
161
330
1F
100
AcDbEntity
  8
図
  6
CONTINUOUS
 62
     2
100
AcDbLine
 10
247.0491375009645
 20
370.1641616559472
 30
0.0
 11
236.1293791188844
 21
368.7251237296264
 31
0.0
  0
LINE
  5
162
330
1F
100
AcDbEntity
  8
図
  6
CONTINUOUS
 62
     2
100
AcDbLine
 10
236.1293791188844
 20
368.7251237296264
 30
0.0
 11
225.2096207368043
 21
366.9474886441714
 31
0.0
  0
LINE
  5
163
330
1F
100
AcDbEntity
  8
図
  6
CONTINUOUS
 62
     2
100
AcDbLine
 10
325.5190291303305
 20
270.5319475806892
 30
0.0
 11
321.2865646411523
 21
277.8964357918596
 31
0.0
  0
LINE
  5
164
330
1F
100
AcDbEntity
  8
図
  6
CONTINUOUS
 62
     2
100
AcDbLine
 10
321.2865646411523
 20
277.8964357918596
 30
0.0
 11
321.1172660615852
 21
278.7429286896951
 31
0.0
  0
LINE
  5
165
330
1F
100
AcDbEntity
  8
図
  6
CONTINUOUS
 62
     2
100
AcDbLine
 10
327.2120149260019
 20
269.5161561032866
 30
0.0
 11
326.5348206077334
 21
269.6854546828537
 31
0.0
  0
LINE
  5
166
330
1F
100
AcDbEntity
  8
図
  6
CONTINUOUS
 62
     2
100
AcDbLine
 10
326.5348206077334
 20
269.6854546828537
 30
0.0
 11
325.9422755792484
 21
270.0240518419878
 31
0.0
  0
LINE
  5
167
330
1F
100
AcDbEntity
  8
図
  6
CONTINUOUS
 62
     2
100
AcDbLine
 10
325.9422755792484
 20
270.0240518419878
 30
0.0
 11
325.5190291303305
 21
270.5319475806892
 31
0.0
  0
LINE
  5
168
330
1F
100
AcDbEntity
  8
図
  6
CONTINUOUS
 62
     2
100
AcDbLine
 10
290.3895738701506
 20
368.2172279909249
 30
0.0
 11
285.5645643524873
 21
367.5400336726564
 31
0.0
  0
LINE
  5
169
330
1F
100
AcDbEntity
  8
図
  6
CONTINUOUS
 62
     2
100
AcDbLine
 10
285.5645643524873
 20
367.5400336726564
 30
0.0
 11
280.739554834824
 21
367.3707350930895
 31
0.0
  0
LINE
  5
16A
330
1F
100
AcDbEntity
  8
図
  6
CONTINUOUS
 62
     2
100
AcDbLine
 10
272.9518201747359
 20
366.9474886441714
 30
0.0
 11
272.4439244360345
 21
366.7781900646046
 31
0.0
  0
LINE
  5
16B
330
1F
100
AcDbEntity
  8
図
  6
CONTINUOUS
 62
     2
100
AcDbLine
 10
272.4439244360345
 20
366.7781900646046
 30
0.0
 11
272.1053272769001
 21
366.4395929054701
 31
0.0
  0
LINE
  5
16C
330
1F
100
AcDbEntity
  8
図
  6
CONTINUOUS
 62
     2
100
AcDbLine
 10
272.1053272769001
 20
366.4395929054701
 30
0.0
 11
272.0206779871166
 21
365.9316971667687
 31
0.0
  0
LINE
  5
16D
330
1F
100
AcDbEntity
  8
図
  6
CONTINUOUS
 62
     2
100
AcDbLine
 10
325.5190291303305
 20
316.0732654842482
 30
0.0
 11
321.2865646411523
 21
308.7087772730778
 31
0.0
  0
LINE
  5
16E
330
1F
100
AcDbEntity
  8
図
  6
CONTINUOUS
 62
     2
100
AcDbLine
 10
321.2865646411523
 20
308.7087772730778
 30
0.0
 11
321.1172660615852
 21
307.7776350854585
 31
0.0
  0
LINE
  5
16F
330
1F
100
AcDbEntity
  8
図
  6
CONTINUOUS
 62
     2
100
AcDbLine
 10
327.2120149260019
 20
317.0044076718673
 30
0.0
 11
326.5348206077334
 21
316.9197583820838
 31
0.0
  0
LINE
  5
170
330
1F
100
AcDbEntity
  8
図
  6
CONTINUOUS
 62
     2
100
AcDbLine
 10
326.5348206077334
 20
316.9197583820838
 30
0.0
 11
325.9422755792484
 21
316.5811612229496
 31
0.0
  0
LINE
  5
171
330
1F
100
AcDbEntity
  8
図
  6
CONTINUOUS
 62
     2
100
AcDbLine
 10
325.9422755792484
 20
316.5811612229496
 30
0.0
 11
325.5190291303305
 21
316.0732654842482
 31
0.0
  0
LINE
  5
172
330
1F
100
AcDbEntity
  8
図
  6
CONTINUOUS
 62
     2
100
AcDbLine
 10
225.2096207368043
 20
366.9474886441714
 30
0.0
 11
214.4591609342914
 21
364.8312563995823
 31
0.0
  0
LINE
  5
173
330
1F
100
AcDbEntity
  8
図
  6
CONTINUOUS
 62
     2
100
AcDbLine
 10
201.2263318192323
 20
330.4636447474542
 30
0.0
 11
201.2263318192323
 21
359.413701853434
 31
0.0
  0
LINE
  5
174
330
1F
100
AcDbEntity
  8
図
  6
CONTINUOUS
 62
     2
100
AcDbLine
 10
201.2263318192323
 20
253.2634924648418
 30
0.0
 11
201.2263318192323
 21
286.1074169008656
 31
0.0
  0
LINE
  5
175
330
1F
100
AcDbEntity
  8
図
  6
CONTINUOUS
 62
     2
100
AcDbLine
 10
214.2623224459014
 20
364.8312563995823
 30
0.0
 11
203.5118626433884
 21
362.376426995859
 31
0.0
  0
LINE
  5
176
330
1F
100
AcDbEntity
  8
図
  6
CONTINUOUS
 62
     2
100
AcDbLine
 10
204.2737062514405
 20
250.3007673224168
 30
0.0
 11
203.3425640638213
 21
250.4700659019841
 31
0.0
  0
LINE
  5
177
330
1F
100
AcDbEntity
  8
図
  6
CONTINUOUS
 62
     2
100
AcDbLine
 10
203.3425640638213
 20
250.4700659019841
 30
0.0
 11
202.4960711659858
 21
250.8933123509017
 31
0.0
  0
LINE
  5
178
330
1F
100
AcDbEntity
  8
図
  6
CONTINUOUS
 62
     2
100
AcDbLine
 10
202.4960711659858
 20
250.8933123509017
 30
0.0
 11
201.8188768477171
 21
251.5705066691704
 31
0.0
  0
LINE
  5
179
330
1F
100
AcDbEntity
  8
図
  6
CONTINUOUS
 62
     2
100
AcDbLine
 10
201.8188768477171
 20
251.5705066691704
 30
0.0
 11
201.3956303987994
 21
252.4169995670062
 31
0.0
  0
LINE
  5
17A
330
1F
100
AcDbEntity
  8
図
  6
CONTINUOUS
 62
     2
100
AcDbLine
 10
201.3956303987994
 20
252.4169995670062
 30
0.0
 11
201.2263318192323
 21
253.2634924648418
 31
0.0
  0
LINE
  5
17B
330
1F
100
AcDbEntity
  8
図
  6
CONTINUOUS
 62
     2
100
AcDbLine
 10
203.5118626433884
 20
362.376426995859
 30
0.0
 11
202.5807204557693
 21
361.953180546941
 31
0.0
  0
LINE
  5
17C
330
1F
100
AcDbEntity
  8
図
  6
CONTINUOUS
 62
     2
100
AcDbLine
 10
202.5807204557693
 20
361.953180546941
 30
0.0
 11
201.9035261375007
 21
361.2759862286727
 31
0.0
  0
LINE
  5
17D
330
1F
100
AcDbEntity
  8
図
  6
CONTINUOUS
 62
     2
100
AcDbLine
 10
201.9035261375007
 20
361.2759862286727
 30
0.0
 11
201.3956303987994
 21
360.4294933308369
 31
0.0
  0
LINE
  5
17E
330
1F
100
AcDbEntity
  8
図
  6
CONTINUOUS
 62
     2
100
AcDbLine
 10
201.3956303987994
 20
360.4294933308369
 30
0.0
 11
201.2263318192323
 21
359.413701853434
 31
0.0
  0
LINE
  5
17F
330
1F
100
AcDbEntity
  8
図
  6
CONTINUOUS
 62
     2
100
AcDbLine
 10
294.2263318192339
 20
365.2545028485001
 30
0.0
 11
291.9408009950776
 21
365.2545028485001
 31
0.0
  0
LINE
  5
180
330
1F
100
AcDbEntity
  8
図
  6
CONTINUOUS
 62
     2
100
AcDbLine
 10
294.2263318192339
 20
369.2330194683279
 30
0.0
 11
290.5864123585406
 21
368.2172279909249
 31
0.0
  0
LINE
  5
181
330
1F
100
AcDbEntity
  8
図
  6
CONTINUOUS
 62
     2
100
AcDbLine
 10
291.9408009950776
 20
368.640474439843
 30
0.0
 11
291.9408009950776
 21
365.2545028485001
 31
0.0
  0
LINE
  5
182
330
1F
100
AcDbEntity
  8
図
  6
CONTINUOUS
 62
     2
100
AcDbLine
 10
294.2263318192339
 20
365.2545028485001
 30
0.0
 11
294.2263318192339
 21
337.2355879301397
 31
0.0
  0
LINE
  5
183
330
1F
100
AcDbEntity
  8
図
  6
CONTINUOUS
 62
     2
100
AcDbLine
 10
294.2263318192339
 20
369.2330194683279
 30
0.0
 11
294.0570332396668
 21
370.1641616559472
 31
0.0
  0
LINE
  5
184
330
1F
100
AcDbEntity
  8
図
  6
CONTINUOUS
 62
     2
100
AcDbLine
 10
294.0570332396668
 20
370.1641616559472
 30
0.0
 11
293.6337867907489
 21
371.0106545537827
 31
0.0
  0
LINE
  5
185
330
1F
100
AcDbEntity
  8
図
  6
CONTINUOUS
 62
     2
100
AcDbLine
 10
293.6337867907489
 20
371.0106545537827
 30
0.0
 11
292.9565924724804
 21
371.6878488720512
 31
0.0
  0
LINE
  5
186
330
1F
100
AcDbEntity
  8
図
  6
CONTINUOUS
 62
     2
100
AcDbLine
 10
292.9565924724804
 20
371.6878488720512
 30
0.0
 11
292.1100995746448
 21
372.1110953209691
 31
0.0
  0
LINE
  5
187
330
1F
100
AcDbEntity
  8
図
  6
CONTINUOUS
 62
     2
100
AcDbLine
 10
292.1100995746448
 20
372.1110953209691
 30
0.0
 11
291.1789573870255
 21
372.2803939005362
 31
0.0
  0
LINE
  5
188
330
1F
100
AcDbEntity
  8
図
  6
CONTINUOUS
 62
     2
100
AcDbLine
 10
294.2263318192339
 20
282.2981988606051
 30
0.0
 11
294.2263318192339
 21
253.2634924648418
 31
0.0
  0
LINE
  5
189
330
1F
100
AcDbEntity
  8
図
  6
CONTINUOUS
 62
     2
100
AcDbLine
 10
330.5987157691047
 20
303.7991184656311
 30
0.0
 11
345.2430429016617
 21
303.7991184656311
 31
0.0
  0
LINE
  5
18A
330
1F
100
AcDbEntity
  8
図
  6
CONTINUOUS
 62
     2
100
AcDbLine
 10
345.2430429016617
 20
282.8060945993063
 30
0.0
 11
330.5987157691047
 21
282.8060945993063
 31
0.0
  0
LINE
  5
18B
330
1F
100
AcDbEntity
  8
図
  6
CONTINUOUS
 62
     2
100
AcDbLine
 10
330.5987157691047
 20
269.5161561032866
 30
0.0
 11
330.5987157691047
 21
317.0044076718673
 31
0.0
  0
LINE
  5
18C
330
1F
100
AcDbEntity
  8
図
  6
CONTINUOUS
 62
     2
100
AcDbLine
 10
345.3289764223417
 20
303.7991184656311
 30
0.0
 11
346.5987157690951
 21
302.6140284086609
 31
0.0
  0
LINE
  5
18D
330
1F
100
AcDbEntity
  8
図
  6
CONTINUOUS
 62
     2
100
AcDbLine
 10
346.5987157690951
 20
302.6140284086609
 30
0.0
 11
346.5987157690951
 21
283.9911846562765
 31
0.0
  0
LINE
  5
18E
330
1F
100
AcDbEntity
  8
図
  6
CONTINUOUS
 62
     2
100
AcDbLine
 10
346.5987157690951
 20
283.9911846562765
 30
0.0
 11
345.3289764223417
 21
282.8060945993063
 31
0.0
  0
LINE
  5
18F
330
1F
100
AcDbEntity
  8
図
  6
CONTINUOUS
 62
     2
100
AcDbLine
 10
345.3289764223417
 20
303.7991184656311
 30
0.0
 11
345.3289764223417
 21
282.8060945993063
 31
0.0
  0
LINE
  5
190
330
1F
100
AcDbEntity
  8
図
  6
CONTINUOUS
 62
     2
100
AcDbLine
 10
314.5715404861534
 20
331.8180333839915
 30
0.0
 11
314.5715404861534
 21
332.2412798329092
 31
0.0
  0
LINE
  5
191
330
1F
100
AcDbEntity
  8
図
  6
CONTINUOUS
 62
     2
100
AcDbLine
 10
314.5715404861534
 20
332.2412798329092
 30
0.0
 11
314.0636447474519
 21
332.7491755716106
 31
0.0
  0
LINE
  5
192
330
1F
100
AcDbEntity
  8
図
  6
CONTINUOUS
 62
     2
100
AcDbLine
 10
314.0636447474519
 20
332.7491755716106
 30
0.0
 11
297.2184360805223
 21
332.7491755716106
 31
0.0
  0
LINE
  5
193
330
1F
100
AcDbEntity
  8
図
  6
CONTINUOUS
 62
     2
100
AcDbLine
 10
296.7105403418209
 20
332.2412798329092
 30
0.0
 11
314.5715404861534
 21
332.2412798329092
 31
0.0
  0
LINE
  5
194
330
1F
100
AcDbEntity
  8
図
  6
CONTINUOUS
 62
     2
100
AcDbLine
 10
292.9013223015604
 20
330.8022419065886
 30
0.0
 11
293.9171137789632
 21
331.8180333839915
 31
0.0
  0
LINE
  5
195
330
1F
100
AcDbEntity
  8
図
  6
CONTINUOUS
 62
     2
100
AcDbLine
 10
291.2083365058891
 20
322.2526636384483
 30
0.0
 11
292.9013223015604
 21
322.2526636384483
 31
0.0
  0
LINE
  5
196
330
1F
100
AcDbEntity
  8
図
  6
CONTINUOUS
 62
     2
100
AcDbLine
 10
292.9013223015604
 20
322.2526636384483
 30
0.0
 11
292.9013223015604
 21
330.8022419065886
 31
0.0
  0
LINE
  5
197
330
1F
100
AcDbEntity
  8
図
  6
CONTINUOUS
 62
     2
100
AcDbLine
 10
292.9013223015604
 20
294.3183980098714
 30
0.0
 11
291.9701801139412
 21
294.3183980098714
 31
0.0
  0
LINE
  5
198
330
1F
100
AcDbEntity
  8
図
  6
CONTINUOUS
 62
     2
100
AcDbLine
 10
291.5469336650233
 20
295.9267345157592
 30
0.0
 11
290.6157914774041
 21
296.2653316748934
 31
0.0
  0
LINE
  5
199
330
1F
100
AcDbEntity
  8
図
  6
CONTINUOUS
 62
     2
100
AcDbLine
 10
291.2083365058891
 20
284.245132525627
 30
0.0
 11
291.9701801139412
 21
284.245132525627
 31
0.0
  0
LINE
  5
19A
330
1F
100
AcDbEntity
  8
図
  6
CONTINUOUS
 62
     2
100
AcDbLine
 10
291.9701801139412
 20
284.245132525627
 30
0.0
 11
291.9701801139412
 21
295.3341894872743
 31
0.0
  0
LINE
  5
19B
330
1F
100
AcDbEntity
  8
図
  6
CONTINUOUS
 62
     2
100
AcDbLine
 10
292.9013223015604
 20
282.8060945993063
 30
0.0
 11
292.9013223015604
 21
294.3183980098714
 31
0.0
  0
LINE
  5
19C
330
1F
100
AcDbEntity
  8
図
  6
CONTINUOUS
 62
     2
100
AcDbLine
 10
291.2083365058891
 20
284.3297818154108
 30
0.0
 11
291.2083365058891
 21
291.4403221572303
 31
0.0
  0
LINE
  5
19D
330
1F
100
AcDbEntity
  8
図
  6
CONTINUOUS
 62
     2
100
AcDbLine
 10
291.2083365058891
 20
324.707493042172
 30
0.0
 11
291.2083365058891
 21
296.0113838055429
 31
0.0
  0
LINE
  5
19E
330
1F
100
AcDbEntity
  8
図
  6
CONTINUOUS
 62
     2
100
AcDbLine
 10
290.5311421876206
 20
296.8578767033783
 30
0.0
 11
289.8539478693519
 21
301.4289383516912
 31
0.0
  0
LINE
  5
19F
330
1F
100
AcDbEntity
  8
図
  6
CONTINUOUS
 62
     2
100
AcDbLine
 10
289.8539478693519
 20
315.1421232966288
 30
0.0
 11
290.5311421876206
 21
319.7131849449416
 31
0.0
  0
LINE
  5
1A0
330
1F
100
AcDbEntity
  8
図
  6
CONTINUOUS
 62
     2
100
AcDbLine
 10
289.8539478693519
 20
301.4289383516912
 30
0.0
 11
289.6000000000014
 21
306.0000000000038
 31
0.0
  0
LINE
  5
1A1
330
1F
100
AcDbEntity
  8
図
  6
CONTINUOUS
 62
     2
100
AcDbLine
 10
289.6000000000014
 20
306.0000000000038
 30
0.0
 11
289.6000000000014
 21
310.5710616483162
 31
0.0
  0
LINE
  5
1A2
330
1F
100
AcDbEntity
  8
図
  6
CONTINUOUS
 62
     2
100
AcDbLine
 10
289.6000000000014
 20
310.5710616483162
 30
0.0
 11
289.8539478693519
 21
315.1421232966288
 31
0.0
  0
LINE
  5
1A3
330
1F
100
AcDbEntity
  8
図
  6
CONTINUOUS
 62
     2
100
AcDbLine
 10
300.6044076718649
 20
308.28553082416
 30
0.0
 11
300.5197583820813
 21
306.1692985795708
 31
0.0
  0
LINE
  5
1A4
330
1F
100
AcDbEntity
  8
図
  6
CONTINUOUS
 62
     2
100
AcDbLine
 10
300.5197583820813
 20
306.1692985795708
 30
0.0
 11
300.0965119331636
 21
304.0530663349816
 31
0.0
  0
LINE
  5
1A5
330
1F
100
AcDbEntity
  8
図
  6
CONTINUOUS
 62
     2
100
AcDbLine
 10
300.0965119331636
 20
304.0530663349816
 30
0.0
 11
299.419317614895
 21
302.0214833801761
 31
0.0
  0
LINE
  5
1A6
330
1F
100
AcDbEntity
  8
図
  6
CONTINUOUS
 62
     2
100
AcDbLine
 10
299.419317614895
 20
302.0214833801761
 30
0.0
 11
298.4881754272758
 21
300.1591990049376
 31
0.0
  0
LINE
  5
1A7
330
1F
100
AcDbEntity
  8
図
  6
CONTINUOUS
 62
     2
100
AcDbLine
 10
298.4881754272758
 20
300.1591990049376
 30
0.0
 11
297.2184360805223
 21
298.3815639194826
 31
0.0
  0
LINE
  5
1A8
330
1F
100
AcDbEntity
  8
図
  6
CONTINUOUS
 62
     2
100
AcDbLine
 10
297.2184360805223
 20
298.3815639194826
 30
0.0
 11
295.7793981542016
 21
296.8578767033783
 31
0.0
  0
LINE
  5
1A9
330
1F
100
AcDbEntity
  8
図
  6
CONTINUOUS
 62
     2
100
AcDbLine
 10
292.9013223015604
 20
294.3183980098714
 30
0.0
 11
295.7793981542016
 21
296.8578767033783
 31
0.0
  0
LINE
  5
1AA
330
1F
100
AcDbEntity
  8
図
  6
CONTINUOUS
 62
     2
100
AcDbLine
 10
291.7162322445904
 20
282.2981988606051
 30
0.0
 11
291.3776350854563
 21
282.89074388909
 31
0.0
  0
LINE
  5
1AB
330
1F
100
AcDbEntity
  8
図
  6
CONTINUOUS
 62
     2
100
AcDbLine
 10
291.3776350854563
 20
282.89074388909
 30
0.0
 11
291.2083365058891
 21
283.5679382073587
 31
0.0
  0
LINE
  5
1AC
330
1F
100
AcDbEntity
  8
図
  6
CONTINUOUS
 62
     2
100
AcDbLine
 10
291.2083365058891
 20
283.5679382073587
 30
0.0
 11
291.2083365058891
 21
284.3297818154108
 31
0.0
  0
LINE
  5
1AD
330
1F
100
AcDbEntity
  8
図
  6
CONTINUOUS
 62
     2
100
AcDbLine
 10
290.5311421876206
 20
296.8578767033783
 30
0.0
 11
291.1236872161055
 21
292.5407629244166
 31
0.0
  0
LINE
  5
1AE
330
1F
100
AcDbEntity
  8
図
  6
CONTINUOUS
 62
     2
100
AcDbLine
 10
291.1236872161055
 20
292.5407629244166
 30
0.0
 11
291.2083365058891
 21
291.4403221572303
 31
0.0
  0
LINE
  5
1AF
330
1F
100
AcDbEntity
  8
図
  6
CONTINUOUS
 62
     2
100
AcDbLine
 10
291.9701801139412
 20
295.3341894872743
 30
0.0
 11
291.8855308241576
 21
295.6727866464086
 31
0.0
  0
LINE
  5
1B0
330
1F
100
AcDbEntity
  8
図
  6
CONTINUOUS
 62
     2
100
AcDbLine
 10
291.8855308241576
 20
295.6727866464086
 30
0.0
 11
291.5469336650233
 21
295.9267345157592
 31
0.0
  0
LINE
  5
1B1
330
1F
100
AcDbEntity
  8
図
  6
CONTINUOUS
 62
     2
100
AcDbLine
 10
298.4881754272758
 20
317.4276541207851
 30
0.0
 11
292.9013223015604
 21
322.2526636384483
 31
0.0
  0
LINE
  5
1B2
330
1F
100
AcDbEntity
  8
図
  6
CONTINUOUS
 62
     2
100
AcDbLine
 10
302.2973934675362
 20
314.9728247170617
 30
0.0
 11
300.3504598025143
 21
316.0732654842482
 31
0.0
  0
LINE
  5
1B3
330
1F
100
AcDbEntity
  8
図
  6
CONTINUOUS
 62
     2
100
AcDbLine
 10
300.3504598025143
 20
316.0732654842482
 30
0.0
 11
298.4881754272758
 21
317.4276541207851
 31
0.0
  0
LINE
  5
1B4
330
1F
100
AcDbEntity
  8
図
  6
CONTINUOUS
 62
     2
100
AcDbLine
 10
305.683365058879
 20
314.0416825294425
 30
0.0
 11
303.9057299734241
 21
314.2956303987932
 31
0.0
  0
LINE
  5
1B5
330
1F
100
AcDbEntity
  8
図
  6
CONTINUOUS
 62
     2
100
AcDbLine
 10
303.9057299734241
 20
314.2956303987932
 30
0.0
 11
302.2973934675362
 21
314.9728247170617
 31
0.0
  0
LINE
  5
1B6
330
1F
100
AcDbEntity
  8
図
  6
CONTINUOUS
 62
     2
100
AcDbLine
 10
294.1710616483139
 20
337.2355879301397
 30
0.0
 11
292.6473744322096
 21
331.4794362248572
 31
0.0
  0
LINE
  5
1B7
330
1F
100
AcDbEntity
  8
図
  6
CONTINUOUS
 62
     2
100
AcDbLine
 10
292.6473744322096
 20
331.4794362248572
 30
0.0
 11
291.3776350854563
 21
325.6386352297912
 31
0.0
  0
LINE
  5
1B8
330
1F
100
AcDbEntity
  8
図
  6
CONTINUOUS
 62
     2
100
AcDbLine
 10
291.3776350854563
 20
325.6386352297912
 30
0.0
 11
290.5311421876206
 21
319.7131849449416
 31
0.0
  0
LINE
  5
1B9
330
1F
100
AcDbEntity
  8
図
  6
CONTINUOUS
 62
     2
100
AcDbLine
 10
294.3679001367039
 20
282.2981988606051
 30
0.0
 11
291.9130707329804
 21
282.2981988606051
 31
0.0
  0
LINE
  5
1BA
330
1F
100
AcDbEntity
  8
図
  6
CONTINUOUS
 62
     2
100
AcDbLine
 10
318.3807585264139
 20
330.8022419065886
 30
0.0
 11
318.3807585264139
 21
305.7460521306529
 31
0.0
  0
LINE
  5
1BB
330
1F
100
AcDbEntity
  8
図
  6
CONTINUOUS
 62
     2
100
AcDbLine
 10
317.3649670490111
 20
331.8180333839915
 30
0.0
 11
293.9171137789632
 21
331.8180333839915
 31
0.0
  0
LINE
  5
1BC
330
1F
100
AcDbEntity
  8
図
  6
CONTINUOUS
 62
     2
100
AcDbLine
 10
292.9013223015604
 20
330.8022419065886
 30
0.0
 11
318.3807585264139
 21
330.8022419065886
 31
0.0
  0
LINE
  5
1BD
330
1F
100
AcDbEntity
  8
図
  6
CONTINUOUS
 62
     2
100
AcDbLine
 10
317.3649670490111
 20
331.8180333839915
 30
0.0
 11
318.3807585264139
 21
330.8022419065886
 31
0.0
  0
LINE
  5
1BE
330
1F
100
AcDbEntity
  8
図
  6
CONTINUOUS
 62
     2
100
AcDbLine
 10
315.5873319635562
 20
288.5622463045891
 30
0.0
 11
314.9101376452877
 21
290.2552321002602
 31
0.0
  0
LINE
  5
1BF
330
1F
100
AcDbEntity
  8
図
  6
CONTINUOUS
 62
     2
100
AcDbLine
 10
314.9101376452877
 20
290.2552321002602
 30
0.0
 11
314.4868911963698
 21
292.0328671857152
 31
0.0
  0
LINE
  5
1C0
330
1F
100
AcDbEntity
  8
図
  6
CONTINUOUS
 62
     2
100
AcDbLine
 10
314.4868911963698
 20
292.0328671857152
 30
0.0
 11
314.4868911963698
 21
293.8951515609535
 31
0.0
  0
LINE
  5
1C1
330
1F
100
AcDbEntity
  8
図
  6
CONTINUOUS
 62
     2
100
AcDbLine
 10
314.4868911963698
 20
293.8951515609535
 30
0.0
 11
314.7408390657206
 21
295.6727866464086
 31
0.0
  0
LINE
  5
1C2
330
1F
100
AcDbEntity
  8
図
  6
CONTINUOUS
 62
     2
100
AcDbLine
 10
317.1110191796604
 20
286.1074169008656
 30
0.0
 11
315.5873319635562
 21
288.4775970148055
 31
0.0
  0
LINE
  5
1C3
330
1F
100
AcDbEntity
  8
図
  6
CONTINUOUS
 62
     2
100
AcDbLine
 10
318.4654078161975
 20
282.8060945993063
 30
0.0
 11
317.8728627877124
 21
284.4990803949778
 31
0.0
  0
LINE
  5
1C4
330
1F
100
AcDbEntity
  8
図
  6
CONTINUOUS
 62
     2
100
AcDbLine
 10
317.8728627877124
 20
284.4990803949778
 30
0.0
 11
317.1110191796604
 21
286.1074169008656
 31
0.0
  0
LINE
  5
1C5
330
1F
100
AcDbEntity
  8
図
  6
CONTINUOUS
 62
     2
100
AcDbLine
 10
315.2487348044219
 20
297.4504217318633
 30
0.0
 11
316.0952277022576
 21
299.0587582377512
 31
0.0
  0
LINE
  5
1C6
330
1F
100
AcDbEntity
  8
図
  6
CONTINUOUS
 62
     2
100
AcDbLine
 10
314.7408390657206
 20
295.6727866464086
 30
0.0
 11
315.2487348044219
 21
297.4504217318633
 31
0.0
  0
LINE
  5
1C7
330
1F
100
AcDbEntity
  8
図
  6
CONTINUOUS
 62
     2
100
AcDbLine
 10
318.1268106570631
 20
301.5135876414746
 30
0.0
 11
316.0952277022576
 21
299.0587582377512
 31
0.0
  0
LINE
  5
1C8
330
1F
100
AcDbEntity
  8
図
  6
CONTINUOUS
 62
     2
100
AcDbLine
 10
320.3276921914359
 20
303.7991184656311
 30
0.0
 11
318.1268106570631
 21
301.5135876414746
 31
0.0
  0
LINE
  5
1C9
330
1F
100
AcDbEntity
  8
図
  6
CONTINUOUS
 62
     2
100
AcDbLine
 10
319.6504978731674
 20
303.9684170451982
 30
0.0
 11
318.9733035548988
 21
304.391663494116
 31
0.0
  0
LINE
  5
1CA
330
1F
100
AcDbEntity
  8
図
  6
CONTINUOUS
 62
     2
100
AcDbLine
 10
318.9733035548988
 20
304.391663494116
 30
0.0
 11
318.5500571059811
 21
304.9842085226009
 31
0.0
  0
LINE
  5
1CB
330
1F
100
AcDbEntity
  8
図
  6
CONTINUOUS
 62
     2
100
AcDbLine
 10
318.5500571059811
 20
304.9842085226009
 30
0.0
 11
318.3807585264139
 21
305.7460521306529
 31
0.0
  0
LINE
  5
1CC
330
1F
100
AcDbEntity
  8
図
  6
CONTINUOUS
 62
     2
100
AcDbLine
 10
320.4123414812195
 20
303.7991184656311
 30
0.0
 11
321.2588343790551
 21
303.7991184656311
 31
0.0
  0
LINE
  5
1CD
330
1F
100
AcDbEntity
  8
図
  6
CONTINUOUS
 62
     2
100
AcDbLine
 10
320.4123414812195
 20
303.7991184656311
 30
0.0
 11
319.6504978731674
 21
303.9684170451982
 31
0.0
  0
LINE
  5
1CE
330
1F
100
AcDbEntity
  8
図
  6
CONTINUOUS
 62
     2
100
AcDbLine
 10
321.2588343790551
 20
282.8060945993063
 30
0.0
 11
292.9013223015604
 21
282.8060945993063
 31
0.0
  0
LINE
  5
1CF
330
1F
100
AcDbEntity
  8
図
  6
CONTINUOUS
 62
     2
100
AcDbLine
 10
203.2579147740379
 20
325.6557109381013
 30
0.0
 11
201.2263318192323
 21
330.4807204557642
 31
0.0
  0
LINE
  5
1D0
330
1F
100
AcDbEntity
  8
図
  6
CONTINUOUS
 62
     2
100
AcDbLine
 10
204.6123034105748
 20
321.4232464489227
 30
0.0
 11
203.2579147740379
 21
325.6557109381013
 31
0.0
  0
LINE
  5
1D1
330
1F
100
AcDbEntity
  8
図
  6
CONTINUOUS
 62
     2
100
AcDbLine
 10
205.6280948879778
 20
317.1061326699607
 30
0.0
 11
204.6123034105748
 21
321.4232464489227
 31
0.0
  0
LINE
  5
1D2
330
1F
100
AcDbEntity
  8
図
  6
CONTINUOUS
 62
     2
100
AcDbLine
 10
206.2206399164627
 20
312.7043696012156
 30
0.0
 11
205.6280948879778
 21
317.1061326699607
 31
0.0
  0
LINE
  5
1D3
330
1F
100
AcDbEntity
  8
図
  6
CONTINUOUS
 62
     2
100
AcDbLine
 10
206.4745877858133
 20
308.30260653247
 30
0.0
 11
206.2206399164627
 21
312.7043696012156
 31
0.0
  0
LINE
  5
1D4
330
1F
100
AcDbEntity
  8
図
  6
CONTINUOUS
 62
     2
100
AcDbLine
 10
200.0412417622622
 20
328.7877346600932
 30
0.0
 11
199.9565924724787
 21
328.2798389213915
 31
0.0
  0
LINE
  5
1D5
330
1F
100
AcDbEntity
  8
図
  6
CONTINUOUS
 62
     2
100
AcDbLine
 10
200.4644882111802
 20
329.210981109011
 30
0.0
 11
200.0412417622622
 21
328.7877346600932
 31
0.0
  0
LINE
  5
1D6
330
1F
100
AcDbEntity
  8
図
  6
CONTINUOUS
 62
     2
100
AcDbLine
 10
200.887734660098
 20
329.4649289783616
 30
0.0
 11
200.4644882111802
 21
329.210981109011
 31
0.0
  0
LINE
  5
1D7
330
1F
100
AcDbEntity
  8
図
  6
CONTINUOUS
 62
     2
100
AcDbLine
 10
201.1416825294486
 20
329.9728247170631
 30
0.0
 11
200.887734660098
 21
329.4649289783616
 31
0.0
  0
LINE
  5
1D8
330
1F
100
AcDbEntity
  8
図
  6
CONTINUOUS
 62
     2
100
AcDbLine
 10
201.2263318192323
 20
330.4807204557642
 30
0.0
 11
201.1416825294486
 21
329.9728247170631
 31
0.0
  0
LINE
  5
1D9
330
1F
100
AcDbEntity
  8
図
  6
CONTINUOUS
 62
     2
100
AcDbLine
 10
203.2579147740379
 20
290.9495021268388
 30
0.0
 11
201.2263318192323
 21
286.1244926091756
 31
0.0
  0
LINE
  5
1DA
330
1F
100
AcDbEntity
  8
図
  6
CONTINUOUS
 62
     2
100
AcDbLine
 10
200.0412417622622
 20
287.8174784048468
 30
0.0
 11
199.9565924724787
 21
288.3253741435483
 31
0.0
  0
LINE
  5
1DB
330
1F
100
AcDbEntity
  8
図
  6
CONTINUOUS
 62
     2
100
AcDbLine
 10
200.4644882111802
 20
287.4788812457125
 30
0.0
 11
200.0412417622622
 21
287.8174784048468
 31
0.0
  0
LINE
  5
1DC
330
1F
100
AcDbEntity
  8
図
  6
CONTINUOUS
 62
     2
100
AcDbLine
 10
200.887734660098
 20
287.1402840865784
 30
0.0
 11
200.4644882111802
 21
287.4788812457125
 31
0.0
  0
LINE
  5
1DD
330
1F
100
AcDbEntity
  8
図
  6
CONTINUOUS
 62
     2
100
AcDbLine
 10
201.1416825294486
 20
286.6323883478769
 30
0.0
 11
200.887734660098
 21
287.1402840865784
 31
0.0
  0
LINE
  5
1DE
330
1F
100
AcDbEntity
  8
図
  6
CONTINUOUS
 62
     2
100
AcDbLine
 10
201.2263318192323
 20
286.1244926091756
 30
0.0
 11
201.1416825294486
 21
286.6323883478769
 31
0.0
  0
LINE
  5
1DF
330
1F
100
AcDbEntity
  8
図
  6
CONTINUOUS
 62
     2
100
AcDbLine
 10
204.6123034105748
 20
295.1819666160171
 30
0.0
 11
203.2579147740379
 21
290.9495021268388
 31
0.0
  0
LINE
  5
1E0
330
1F
100
AcDbEntity
  8
図
  6
CONTINUOUS
 62
     2
100
AcDbLine
 10
205.6280948879778
 20
299.4990803949793
 30
0.0
 11
204.6123034105748
 21
295.1819666160171
 31
0.0
  0
LINE
  5
1E1
330
1F
100
AcDbEntity
  8
図
  6
CONTINUOUS
 62
     2
100
AcDbLine
 10
206.2206399164627
 20
303.9008434637244
 30
0.0
 11
205.6280948879778
 21
299.4990803949793
 31
0.0
  0
LINE
  5
1E2
330
1F
100
AcDbEntity
  8
図
  6
CONTINUOUS
 62
     2
100
AcDbLine
 10
206.4745877858133
 20
308.30260653247
 30
0.0
 11
206.2206399164627
 21
303.9008434637244
 31
0.0
  0
LINE
  5
1E3
330
1F
100
AcDbEntity
  8
図
  6
CONTINUOUS
 62
     2
100
AcDbLine
 10
199.9565924724787
 20
328.2798389213915
 30
0.0
 11
199.9565924724787
 21
288.3253741435483
 31
0.0
  0
LINE
  5
1E4
330
1F
100
AcDbEntity
  8
図
  6
CONTINUOUS
 62
     2
100
AcDbLine
 10
191.6145072465085
 20
325.2324644891831
 30
0.0
 11
191.4452086669414
 21
324.3859715913477
 31
0.0
  0
LINE
  5
1E5
330
1F
100
AcDbEntity
  8
図
  6
CONTINUOUS
 62
     2
100
AcDbLine
 10
192.12240298521
 20
325.9943080972353
 30
0.0
 11
191.6145072465085
 21
325.2324644891831
 31
0.0
  0
LINE
  5
1E6
330
1F
100
AcDbEntity
  8
図
  6
CONTINUOUS
 62
     2
100
AcDbLine
 10
192.7149480136949
 20
326.5868531257205
 30
0.0
 11
192.12240298521
 21
325.9943080972353
 31
0.0
  0
LINE
  5
1E7
330
1F
100
AcDbEntity
  8
図
  6
CONTINUOUS
 62
     2
100
AcDbLine
 10
193.5614409115306
 20
326.9254502848547
 30
0.0
 11
192.7149480136949
 21
326.5868531257205
 31
0.0
  0
LINE
  5
1E8
330
1F
100
AcDbEntity
  8
図
  6
CONTINUOUS
 62
     2
100
AcDbLine
 10
194.4079338093662
 20
327.0100995746382
 30
0.0
 11
193.5614409115306
 21
326.9254502848547
 31
0.0
  0
LINE
  5
1E9
330
1F
100
AcDbEntity
  8
図
  6
CONTINUOUS
 62
     2
100
AcDbLine
 10
191.6145072465085
 20
291.3727485757569
 30
0.0
 11
191.4452086669414
 21
292.2192414735923
 31
0.0
  0
LINE
  5
1EA
330
1F
100
AcDbEntity
  8
図
  6
CONTINUOUS
 62
     2
100
AcDbLine
 10
192.12240298521
 20
290.6109049677045
 30
0.0
 11
191.6145072465085
 21
291.3727485757569
 31
0.0
  0
LINE
  5
1EB
330
1F
100
AcDbEntity
  8
図
  6
CONTINUOUS
 62
     2
100
AcDbLine
 10
192.7149480136949
 20
290.0183599392195
 30
0.0
 11
192.12240298521
 21
290.6109049677045
 31
0.0
  0
LINE
  5
1EC
330
1F
100
AcDbEntity
  8
図
  6
CONTINUOUS
 62
     2
100
AcDbLine
 10
193.5614409115306
 20
289.6797627800853
 30
0.0
 11
192.7149480136949
 21
290.0183599392195
 31
0.0
  0
LINE
  5
1ED
330
1F
100
AcDbEntity
  8
図
  6
CONTINUOUS
 62
     2
100
AcDbLine
 10
194.4079338093662
 20
289.5951134903019
 30
0.0
 11
193.5614409115306
 21
289.6797627800853
 31
0.0
  0
LINE
  5
1EE
330
1F
100
AcDbEntity
  8
図
  6
CONTINUOUS
 62
     2
100
AcDbLine
 10
190.5987157691057
 20
311.5192795442455
 30
0.0
 11
190.8526636384564
 21
317.9526255677966
 31
0.0
  0
LINE
  5
1EF
330
1F
100
AcDbEntity
  8
図
  6
CONTINUOUS
 62
     2
100
AcDbLine
 10
190.5987157691057
 20
305.0859335206945
 30
0.0
 11
190.5987157691057
 21
311.5192795442455
 31
0.0
  0
LINE
  5
1F0
330
1F
100
AcDbEntity
  8
図
  6
CONTINUOUS
 62
     2
100
AcDbLine
 10
190.8526636384564
 20
298.6525874971434
 30
0.0
 11
190.5987157691057
 21
305.0859335206945
 31
0.0
  0
LINE
  5
1F1
330
1F
100
AcDbEntity
  8
図
  6
CONTINUOUS
 62
     2
100
AcDbLine
 10
190.8526636384564
 20
317.9526255677966
 30
0.0
 11
191.4452086669414
 21
324.3859715913477
 31
0.0
  0
LINE
  5
1F2
330
1F
100
AcDbEntity
  8
図
  6
CONTINUOUS
 62
     2
100
AcDbLine
 10
191.4452086669414
 20
292.2192414735923
 30
0.0
 11
190.8526636384564
 21
298.6525874971434
 31
0.0
  0
LINE
  5
1F3
330
1F
100
AcDbEntity
  8
図
  6
CONTINUOUS
 62
     2
100
AcDbLine
 10
296.6258910520374
 20
331.8180333839915
 30
0.0
 11
296.6258910520374
 21
332.2412798329092
 31
0.0
  0
LINE
  5
1F4
330
1F
100
AcDbEntity
  8
図
  6
CONTINUOUS
 62
     2
100
AcDbLine
 10
296.6258910520374
 20
332.2412798329092
 30
0.0
 11
297.1337867907389
 21
332.7491755716106
 31
0.0
  0
LINE
  5
1F5
330
1F
100
AcDbEntity
  8
図
  6
CONTINUOUS
 62
     2
100
AcDbLine
 10
194.2279806760191
 20
327.0100995746382
 30
0.0
 11
199.9565924724787
 21
327.0100995746382
 31
0.0
  0
LINE
  5
1F6
330
1F
100
AcDbEntity
  8
図
  6
CONTINUOUS
 62
     2
100
AcDbLine
 10
199.9565924724787
 20
289.5951134903019
 30
0.0
 11
194.2279806760191
 21
289.5951134903019
 31
0.0
  0
LINE
  5
1F7
330
1F
100
AcDbEntity
  8
図
  6
CONTINUOUS
 62
     2
100
AcDbLine
 10
294.2263318192339
 20
253.2634924648418
 30
0.0
 11
294.0570332396668
 21
252.4169995670062
 31
0.0
  0
LINE
  5
1F8
330
1F
100
AcDbEntity
  8
図
  6
CONTINUOUS
 62
     2
100
AcDbLine
 10
294.0570332396668
 20
252.4169995670062
 30
0.0
 11
293.6337867907489
 21
251.5705066691704
 31
0.0
  0
LINE
  5
1F9
330
1F
100
AcDbEntity
  8
図
  6
CONTINUOUS
 62
     2
100
AcDbLine
 10
293.6337867907489
 20
251.5705066691704
 30
0.0
 11
292.9565924724804
 21
250.8933123509017
 31
0.0
  0
LINE
  5
1FA
330
1F
100
AcDbEntity
  8
図
  6
CONTINUOUS
 62
     2
100
AcDbLine
 10
292.9565924724804
 20
250.8933123509017
 30
0.0
 11
292.1100995746448
 21
250.4700659019841
 31
0.0
  0
LINE
  5
1FB
330
1F
100
AcDbEntity
  8
図
  6
CONTINUOUS
 62
     2
100
AcDbLine
 10
292.1100995746448
 20
250.4700659019841
 30
0.0
 11
291.1789573870255
 21
250.3007673224168
 31
0.0
  0
LINE
  5
1FC
330
1F
100
AcDbEntity
  8
図
  6
EXLTYPE3
 62
     6
100
AcDbLine
 10
305.5987157690999
 20
289.4
 30
0.0
 11
305.5987157690999
 21
335.0855308241599
 31
0.0
  0
LINE
  5
1FD
330
1F
100
AcDbEntity
  8
図
  6
EXLTYPE3
 62
     6
100
AcDbLine
 10
113.69308392699
 20
377.0855308241599
 30
0.0
 11
113.69308392699
 21
235.68553082416
 31
0.0
  0
LINE
  5
1FE
330
1F
100
AcDbEntity
  8
図
  6
CONTINUOUS
 62
     2
100
AcDbLine
 10
147.6374491302002
 20
253.2634924648418
 30
0.0
 11
147.6374491302002
 21
367.7093322522235
 31
0.0
  0
LINE
  5
1FF
330
1F
100
AcDbEntity
  8
図
  6
CONTINUOUS
 62
     2
100
AcDbLine
 10
79.74871872377986
 20
253.2634924648418
 30
0.0
 11
79.74871872377986
 21
367.7093322522235
 31
0.0
  0
LINE
  5
200
330
1F
100
AcDbEntity
  8
図
  6
CONTINUOUS
 62
     2
100
AcDbLine
 10
82.71144386620477
 20
250.3007673224168
 30
0.0
 11
144.6747239877753
 21
250.3007673224168
 31
0.0
  0
LINE
  5
201
330
1F
100
AcDbEntity
  8
図
  6
CONTINUOUS
 62
     2
100
AcDbLine
 10
82.37284670707044
 20
370.6720573946483
 30
0.0
 11
81.52635380923476
 21
370.4181095252978
 31
0.0
  0
LINE
  5
202
330
1F
100
AcDbEntity
  8
図
  6
CONTINUOUS
 62
     2
100
AcDbLine
 10
81.52635380923476
 20
370.4181095252978
 30
0.0
 11
80.76451020118265
 21
369.9948630763797
 31
0.0
  0
LINE
  5
203
330
1F
100
AcDbEntity
  8
図
  6
CONTINUOUS
 62
     2
100
AcDbLine
 10
80.76451020118265
 20
369.9948630763797
 30
0.0
 11
80.17196517269764
 21
369.3176687581113
 31
0.0
  0
LINE
  5
204
330
1F
100
AcDbEntity
  8
図
  6
CONTINUOUS
 62
     2
100
AcDbLine
 10
80.17196517269764
 20
369.3176687581113
 30
0.0
 11
79.83336801356342
 21
368.5558251500593
 31
0.0
  0
LINE
  5
205
330
1F
100
AcDbEntity
  8
図
  6
CONTINUOUS
 62
     2
100
AcDbLine
 10
79.83336801356342
 20
368.5558251500593
 30
0.0
 11
79.74871872377986
 21
367.7093322522235
 31
0.0
  0
LINE
  5
206
330
1F
100
AcDbEntity
  8
図
  6
CONTINUOUS
 62
     2
100
AcDbLine
 10
113.69308392699
 20
372.2803939005362
 30
0.0
 11
103.2812212836114
 21
372.1110953209691
 31
0.0
  0
LINE
  5
207
330
1F
100
AcDbEntity
  8
図
  6
CONTINUOUS
 62
     2
100
AcDbLine
 10
103.2812212836114
 20
372.1110953209691
 30
0.0
 11
92.78470935044908
 21
371.6031995822676
 31
0.0
  0
LINE
  5
208
330
1F
100
AcDbEntity
  8
図
  6
CONTINUOUS
 62
     2
100
AcDbLine
 10
92.78470935044908
 20
371.6031995822676
 30
0.0
 11
82.37284670707044
 21
370.6720573946483
 31
0.0
  0
LINE
  5
209
330
1F
100
AcDbEntity
  8
図
  6
CONTINUOUS
 62
     2
100
AcDbLine
 10
147.6374491302002
 20
367.7093322522235
 30
0.0
 11
147.5527998404166
 21
368.5558251500593
 31
0.0
  0
LINE
  5
20A
330
1F
100
AcDbEntity
  8
図
  6
CONTINUOUS
 62
     2
100
AcDbLine
 10
147.5527998404166
 20
368.5558251500593
 30
0.0
 11
147.2142026812824
 21
369.3176687581113
 31
0.0
  0
LINE
  5
20B
330
1F
100
AcDbEntity
  8
図
  6
CONTINUOUS
 62
     2
100
AcDbLine
 10
147.2142026812824
 20
369.3176687581113
 30
0.0
 11
146.6216576527974
 21
369.9948630763797
 31
0.0
  0
LINE
  5
20C
330
1F
100
AcDbEntity
  8
図
  6
CONTINUOUS
 62
     2
100
AcDbLine
 10
146.6216576527974
 20
369.9948630763797
 30
0.0
 11
145.8598140447453
 21
370.4181095252978
 31
0.0
  0
LINE
  5
20D
330
1F
100
AcDbEntity
  8
図
  6
CONTINUOUS
 62
     2
100
AcDbLine
 10
145.8598140447453
 20
370.4181095252978
 30
0.0
 11
145.0133211469096
 21
370.6720573946483
 31
0.0
  0
LINE
  5
20E
330
1F
100
AcDbEntity
  8
図
  6
CONTINUOUS
 62
     2
100
AcDbLine
 10
145.0133211469096
 20
370.6720573946483
 30
0.0
 11
134.601458503531
 21
371.6031995822676
 31
0.0
  0
LINE
  5
20F
330
1F
100
AcDbEntity
  8
図
  6
CONTINUOUS
 62
     2
100
AcDbLine
 10
134.601458503531
 20
371.6031995822676
 30
0.0
 11
124.1049465703687
 21
372.1110953209691
 31
0.0
  0
LINE
  5
210
330
1F
100
AcDbEntity
  8
図
  6
CONTINUOUS
 62
     2
100
AcDbLine
 10
124.1049465703687
 20
372.1110953209691
 30
0.0
 11
113.69308392699
 21
372.2803939005362
 31
0.0
  0
LINE
  5
211
330
1F
100
AcDbEntity
  8
図
  6
CONTINUOUS
 62
     2
100
AcDbLine
 10
82.71144386620477
 20
250.3007673224168
 30
0.0
 11
81.78030167858554
 21
250.4700659019841
 31
0.0
  0
LINE
  5
212
330
1F
100
AcDbEntity
  8
図
  6
CONTINUOUS
 62
     2
100
AcDbLine
 10
81.78030167858554
 20
250.4700659019841
 30
0.0
 11
80.93380878074976
 21
250.8933123509017
 31
0.0
  0
LINE
  5
213
330
1F
100
AcDbEntity
  8
図
  6
CONTINUOUS
 62
     2
100
AcDbLine
 10
80.93380878074976
 20
250.8933123509017
 30
0.0
 11
80.2566144624812
 21
251.5705066691704
 31
0.0
  0
LINE
  5
214
330
1F
100
AcDbEntity
  8
図
  6
CONTINUOUS
 62
     2
100
AcDbLine
 10
80.2566144624812
 20
251.5705066691704
 30
0.0
 11
79.83336801356342
 21
252.4169995670062
 31
0.0
  0
LINE
  5
215
330
1F
100
AcDbEntity
  8
図
  6
CONTINUOUS
 62
     2
100
AcDbLine
 10
79.83336801356342
 20
252.4169995670062
 30
0.0
 11
79.74871872377986
 21
253.2634924648418
 31
0.0
  0
LINE
  5
216
330
1F
100
AcDbEntity
  8
図
  6
CONTINUOUS
 62
     2
100
AcDbLine
 10
147.6374491302002
 20
253.2634924648418
 30
0.0
 11
147.5527998404166
 21
252.4169995670062
 31
0.0
  0
LINE
  5
217
330
1F
100
AcDbEntity
  8
図
  6
CONTINUOUS
 62
     2
100
AcDbLine
 10
147.5527998404166
 20
252.4169995670062
 30
0.0
 11
147.1295533914987
 21
251.5705066691704
 31
0.0
  0
LINE
  5
218
330
1F
100
AcDbEntity
  8
図
  6
CONTINUOUS
 62
     2
100
AcDbLine
 10
147.1295533914987
 20
251.5705066691704
 30
0.0
 11
146.4523590732303
 21
250.8933123509017
 31
0.0
  0
LINE
  5
219
330
1F
100
AcDbEntity
  8
図
  6
CONTINUOUS
 62
     2
100
AcDbLine
 10
146.4523590732303
 20
250.8933123509017
 30
0.0
 11
145.6058661753946
 21
250.4700659019841
 31
0.0
  0
LINE
  5
21A
330
1F
100
AcDbEntity
  8
図
  6
CONTINUOUS
 62
     2
100
AcDbLine
 10
145.6058661753946
 20
250.4700659019841
 30
0.0
 11
144.6747239877753
 21
250.3007673224168
 31
0.0
  0
CIRCLE
  5
21B
330
1F
100
AcDbEntity
  8
図
  6
CONTINUOUS
 62
     2
100
AcDbCircle
 10
113.6930839269899
 20
308.28553082416
 30
0.0
 40
18.69638077920103
  0
CIRCLE
  5
21C
330
1F
100
AcDbEntity
  8
図
  6
CONTINUOUS
 62
     2
100
AcDbCircle
 10
113.6930839269899
 20
308.28553082416
 30
0.0
 40
19.17282972798766
  0
LINE
  5
21D
330
1F
100
AcDbEntity
  8
図
  6
EXLTYPE3
 62
     6
100
AcDbLine
 10
137.0930839269899
 20
308.28553082416
 30
0.0
 11
90.13999999999999
 21
308.28553082416
 31
0.0
  0
LINE
  5
21E
330
1F
100
AcDbEntity
  8
図
  6
CONTINUOUS
 62
     2
100
AcDbLine
 10
273.9676116521386
 20
504.5885180631564
 30
0.0
 11
218.0144311052013
 21
504.0806223244552
 31
0.0
  0
LINE
  5
21F
330
1F
100
AcDbEntity
  8
図
  6
CONTINUOUS
 62
     2
100
AcDbLine
 10
273.9676116521386
 20
436.6151383669527
 30
0.0
 11
218.0144311052013
 21
437.1230341056538
 31
0.0
  0
LINE
  5
220
330
1F
100
AcDbEntity
  8
図
  6
CONTINUOUS
 62
     2
100
AcDbLine
 10
326.1115741588156
 20
493.4994611015094
 30
0.0
 11
326.1115741588156
 21
447.7041953285997
 31
0.0
  0
LINE
  5
221
330
1F
100
AcDbEntity
  8
図
  6
CONTINUOUS
 62
     2
100
AcDbLine
 10
353.1993468895569
 20
470.5595035701627
 30
0.0
 11
353.1993468895569
 21
470.6441528599463
 31
0.0
  0
LINE
  5
222
330
1F
100
AcDbEntity
  8
図
  6
CONTINUOUS
 62
     2
100
AcDbLine
 10
321.2865646411523
 20
455.1533328295537
 30
0.0
 11
325.5190291303305
 21
447.7888446183835
 31
0.0
  0
LINE
  5
223
330
1F
100
AcDbEntity
  8
図
  6
CONTINUOUS
 62
     2
100
AcDbLine
 10
202.0728247170643
 20
491.4678781467038
 30
0.0
 11
206.6438863653769
 21
492.145072464972
 31
0.0
  0
LINE
  5
224
330
1F
100
AcDbEntity
  8
図
  6
CONTINUOUS
 62
     2
100
AcDbLine
 10
201.2263318192287
 20
490.4520866693009
 30
0.0
 11
201.2263318192287
 21
450.7515697608081
 31
0.0
  0
LINE
  5
225
330
1F
100
AcDbEntity
  8
図
  6
CONTINUOUS
 62
     2
100
AcDbLine
 10
202.0728247170643
 20
449.820427573189
 30
0.0
 11
206.6438863653769
 21
449.058583965137
 31
0.0
  0
LINE
  5
226
330
1F
100
AcDbEntity
  8
図
  6
CONTINUOUS
 62
     2
100
AcDbLine
 10
206.6438863653769
 20
449.058583965137
 30
0.0
 11
206.6438863653769
 21
449.1432332549206
 31
0.0
  0
LINE
  5
227
330
1F
100
AcDbEntity
  8
図
  6
CONTINUOUS
 62
     2
100
AcDbLine
 10
212.9925830991444
 20
440.0011099582954
 30
0.0
 11
210.6224029852046
 21
443.3870815496379
 31
0.0
  0
LINE
  5
228
330
1F
100
AcDbEntity
  8
図
  6
CONTINUOUS
 62
     2
100
AcDbLine
 10
210.4531044056375
 20
497.6472763009041
 30
0.0
 11
212.8232845195773
 21
500.9485986024632
 31
0.0
  0
LINE
  5
229
330
1F
100
AcDbEntity
  8
図
  6
CONTINUOUS
 62
     2
100
AcDbLine
 10
210.6224029852046
 20
443.3870815496379
 30
0.0
 11
208.5061707406154
 21
446.8577024307641
 31
0.0
  0
LINE
  5
22A
330
1F
100
AcDbEntity
  8
図
  6
CONTINUOUS
 62
     2
100
AcDbLine
 10
208.3368721610483
 20
494.0920061299943
 30
0.0
 11
210.4531044056375
 21
497.6472763009041
 31
0.0
  0
LINE
  5
22B
330
1F
100
AcDbEntity
  8
図
  6
CONTINUOUS
 62
     2
100
AcDbLine
 10
208.5061707406154
 20
446.8577024307641
 30
0.0
 11
206.7285356551606
 21
450.582271181241
 31
0.0
  0
LINE
  5
22C
330
1F
100
AcDbEntity
  8
図
  6
CONTINUOUS
 62
     2
100
AcDbLine
 10
206.5592370755934
 20
490.3674373795174
 30
0.0
 11
208.3368721610483
 21
494.0920061299943
 31
0.0
  0
LINE
  5
22D
330
1F
100
AcDbEntity
  8
図
  6
CONTINUOUS
 62
     2
100
AcDbLine
 10
206.7285356551606
 20
450.582271181241
 30
0.0
 11
205.2048484390563
 21
454.3914892215017
 31
0.0
  0
LINE
  5
22E
330
1F
100
AcDbEntity
  8
図
  6
CONTINUOUS
 62
     2
100
AcDbLine
 10
205.1201991492728
 20
486.5582193392567
 30
0.0
 11
206.5592370755934
 21
490.3674373795174
 31
0.0
  0
LINE
  5
22F
330
1F
100
AcDbEntity
  8
図
  6
CONTINUOUS
 62
     2
100
AcDbLine
 10
205.2048484390563
 20
454.3914892215017
 30
0.0
 11
204.0197583820864
 21
458.2853565515455
 31
0.0
  0
LINE
  5
230
330
1F
100
AcDbEntity
  8
図
  6
CONTINUOUS
 62
     2
100
AcDbLine
 10
204.0197583820864
 20
482.6643520092128
 30
0.0
 11
205.1201991492728
 21
486.5582193392567
 31
0.0
  0
LINE
  5
231
330
1F
100
AcDbEntity
  8
図
  6
CONTINUOUS
 62
     2
100
AcDbLine
 10
204.0197583820864
 20
458.2853565515455
 30
0.0
 11
203.1732654842507
 21
462.3485224611567
 31
0.0
  0
LINE
  5
232
330
1F
100
AcDbEntity
  8
図
  6
CONTINUOUS
 62
     2
100
AcDbLine
 10
203.1732654842507
 20
478.6011860996015
 30
0.0
 11
204.0197583820864
 21
482.6643520092128
 31
0.0
  0
LINE
  5
233
330
1F
100
AcDbEntity
  8
図
  6
CONTINUOUS
 62
     2
100
AcDbLine
 10
203.1732654842507
 20
462.3485224611567
 30
0.0
 11
202.6653697455494
 21
466.4116883707678
 31
0.0
  0
LINE
  5
234
330
1F
100
AcDbEntity
  8
図
  6
CONTINUOUS
 62
     2
100
AcDbLine
 10
202.6653697455494
 20
474.5380201899903
 30
0.0
 11
203.1732654842507
 21
478.6011860996015
 31
0.0
  0
LINE
  5
235
330
1F
100
AcDbEntity
  8
図
  6
CONTINUOUS
 62
     2
100
AcDbLine
 10
202.6653697455494
 20
466.4116883707678
 30
0.0
 11
202.4960711659822
 21
470.4748542803792
 31
0.0
  0
LINE
  5
236
330
1F
100
AcDbEntity
  8
図
  6
CONTINUOUS
 62
     2
100
AcDbLine
 10
202.4960711659822
 20
470.4748542803792
 30
0.0
 11
202.6653697455494
 21
474.5380201899903
 31
0.0
  0
LINE
  5
237
330
1F
100
AcDbEntity
  8
図
  6
CONTINUOUS
 62
     2
100
AcDbLine
 10
207.7443271325633
 20
448.296740357085
 30
0.0
 11
207.3210806836455
 21
448.8046360957863
 31
0.0
  0
LINE
  5
238
330
1F
100
AcDbEntity
  8
図
  6
CONTINUOUS
 62
     2
100
AcDbLine
 10
207.3210806836455
 20
448.8046360957863
 30
0.0
 11
206.6438863653769
 21
449.058583965137
 31
0.0
  0
LINE
  5
239
330
1F
100
AcDbEntity
  8
図
  6
CONTINUOUS
 62
     2
100
AcDbLine
 10
202.0728247170643
 20
449.820427573189
 30
0.0
 11
201.6495782681466
 21
449.9897261527561
 31
0.0
  0
LINE
  5
23A
330
1F
100
AcDbEntity
  8
図
  6
CONTINUOUS
 62
     2
100
AcDbLine
 10
201.6495782681466
 20
449.9897261527561
 30
0.0
 11
201.3109811090122
 21
450.3283233118904
 31
0.0
  0
LINE
  5
23B
330
1F
100
AcDbEntity
  8
図
  6
CONTINUOUS
 62
     2
100
AcDbLine
 10
201.3109811090122
 20
450.3283233118904
 30
0.0
 11
201.2263318192287
 21
450.7515697608081
 31
0.0
  0
LINE
  5
23C
330
1F
100
AcDbEntity
  8
図
  6
CONTINUOUS
 62
     2
100
AcDbLine
 10
207.7443271325633
 20
492.9069160730243
 30
0.0
 11
207.3210806836455
 21
492.3990203343232
 31
0.0
  0
LINE
  5
23D
330
1F
100
AcDbEntity
  8
図
  6
CONTINUOUS
 62
     2
100
AcDbLine
 10
207.3210806836455
 20
492.3990203343232
 30
0.0
 11
206.6438863653769
 21
492.145072464972
 31
0.0
  0
LINE
  5
23E
330
1F
100
AcDbEntity
  8
図
  6
CONTINUOUS
 62
     2
100
AcDbLine
 10
202.0728247170643
 20
491.4678781467038
 30
0.0
 11
201.6495782681466
 21
491.2985795671365
 31
0.0
  0
LINE
  5
23F
330
1F
100
AcDbEntity
  8
図
  6
CONTINUOUS
 62
     2
100
AcDbLine
 10
201.6495782681466
 20
491.2985795671365
 30
0.0
 11
201.3109811090122
 21
490.8753331182189
 31
0.0
  0
LINE
  5
240
330
1F
100
AcDbEntity
  8
図
  6
CONTINUOUS
 62
     2
100
AcDbLine
 10
201.3109811090122
 20
490.8753331182189
 30
0.0
 11
201.2263318192287
 21
490.4520866693009
 31
0.0
  0
LINE
  5
241
330
1F
100
AcDbEntity
  8
図
  6
CONTINUOUS
 62
     2
100
AcDbLine
 10
219.0873319635613
 20
437.1230341056538
 30
0.0
 11
217.6482940372406
 21
437.2923326852214
 31
0.0
  0
LINE
  5
242
330
1F
100
AcDbEntity
  8
図
  6
CONTINUOUS
 62
     2
100
AcDbLine
 10
217.6482940372406
 20
437.2923326852214
 30
0.0
 11
216.20925611092
 21
437.6309298443554
 31
0.0
  0
LINE
  5
243
330
1F
100
AcDbEntity
  8
図
  6
CONTINUOUS
 62
     2
100
AcDbLine
 10
216.20925611092
 20
437.6309298443554
 30
0.0
 11
214.9395167641665
 21
438.308124162624
 31
0.0
  0
LINE
  5
244
330
1F
100
AcDbEntity
  8
図
  6
CONTINUOUS
 62
     2
100
AcDbLine
 10
214.9395167641665
 20
438.308124162624
 30
0.0
 11
213.7544267071966
 21
439.1546170604598
 31
0.0
  0
LINE
  5
245
330
1F
100
AcDbEntity
  8
図
  6
CONTINUOUS
 62
     2
100
AcDbLine
 10
213.7544267071966
 20
439.1546170604598
 30
0.0
 11
212.8232845195773
 21
440.2550578276458
 31
0.0
  0
LINE
  5
246
330
1F
100
AcDbEntity
  8
図
  6
CONTINUOUS
 62
     2
100
AcDbLine
 10
219.0873319635613
 20
504.0806223244552
 30
0.0
 11
217.6482940372406
 21
503.9959730346717
 31
0.0
  0
LINE
  5
247
330
1F
100
AcDbEntity
  8
図
  6
CONTINUOUS
 62
     2
100
AcDbLine
 10
217.6482940372406
 20
503.9959730346717
 30
0.0
 11
216.20925611092
 21
503.5727265857537
 31
0.0
  0
LINE
  5
248
330
1F
100
AcDbEntity
  8
図
  6
CONTINUOUS
 62
     2
100
AcDbLine
 10
216.20925611092
 20
503.5727265857537
 30
0.0
 11
214.9395167641665
 21
502.895532267485
 31
0.0
  0
LINE
  5
249
330
1F
100
AcDbEntity
  8
図
  6
CONTINUOUS
 62
     2
100
AcDbLine
 10
214.9395167641665
 20
502.895532267485
 30
0.0
 11
213.7544267071966
 21
502.0490393696494
 31
0.0
  0
LINE
  5
24A
330
1F
100
AcDbEntity
  8
図
  6
CONTINUOUS
 62
     2
100
AcDbLine
 10
213.7544267071966
 20
502.0490393696494
 30
0.0
 11
212.8232845195773
 21
500.9485986024632
 31
0.0
  0
LINE
  5
24B
330
1F
100
AcDbEntity
  8
図
  6
CONTINUOUS
 62
     2
100
AcDbLine
 10
191.4452086669414
 20
454.5607878010686
 30
0.0
 11
190.8526636384564
 21
460.99413382462
 31
0.0
  0
LINE
  5
24C
330
1F
100
AcDbEntity
  8
図
  6
CONTINUOUS
 62
     2
100
AcDbLine
 10
190.8526636384564
 20
480.2941718952731
 30
0.0
 11
191.4452086669414
 21
486.6428686290404
 31
0.0
  0
LINE
  5
24D
330
1F
100
AcDbEntity
  8
図
  6
CONTINUOUS
 62
     2
100
AcDbLine
 10
190.8526636384564
 20
460.99413382462
 30
0.0
 11
190.5987157691057
 21
467.4274798481709
 31
0.0
  0
LINE
  5
24E
330
1F
100
AcDbEntity
  8
図
  6
CONTINUOUS
 62
     2
100
AcDbLine
 10
190.5987157691057
 20
467.4274798481709
 30
0.0
 11
190.5987157691057
 21
473.8608258717219
 31
0.0
  0
LINE
  5
24F
330
1F
100
AcDbEntity
  8
図
  6
CONTINUOUS
 62
     2
100
AcDbLine
 10
190.5987157691057
 20
473.8608258717219
 30
0.0
 11
190.8526636384564
 21
480.2941718952731
 31
0.0
  0
LINE
  5
250
330
1F
100
AcDbEntity
  8
図
  6
CONTINUOUS
 62
     2
100
AcDbLine
 10
194.4079338093662
 20
451.8520105279946
 30
0.0
 11
193.5614409115306
 21
452.0213091075617
 31
0.0
  0
LINE
  5
251
330
1F
100
AcDbEntity
  8
図
  6
CONTINUOUS
 62
     2
100
AcDbLine
 10
193.5614409115306
 20
452.0213091075617
 30
0.0
 11
192.7149480136949
 21
452.3599062666962
 31
0.0
  0
LINE
  5
252
330
1F
100
AcDbEntity
  8
図
  6
CONTINUOUS
 62
     2
100
AcDbLine
 10
192.7149480136949
 20
452.3599062666962
 30
0.0
 11
192.12240298521
 21
452.952451295181
 31
0.0
  0
LINE
  5
253
330
1F
100
AcDbEntity
  8
図
  6
CONTINUOUS
 62
     2
100
AcDbLine
 10
192.12240298521
 20
452.952451295181
 30
0.0
 11
191.6145072465085
 21
453.7142949032331
 31
0.0
  0
LINE
  5
254
330
1F
100
AcDbEntity
  8
図
  6
CONTINUOUS
 62
     2
100
AcDbLine
 10
191.6145072465085
 20
453.7142949032331
 30
0.0
 11
191.4452086669414
 21
454.5607878010686
 31
0.0
  0
LINE
  5
255
330
1F
100
AcDbEntity
  8
図
  6
CONTINUOUS
 62
     2
100
AcDbLine
 10
194.4079338093662
 20
489.3516459021147
 30
0.0
 11
193.5614409115306
 21
489.2669966123311
 31
0.0
  0
LINE
  5
256
330
1F
100
AcDbEntity
  8
図
  6
CONTINUOUS
 62
     2
100
AcDbLine
 10
193.5614409115306
 20
489.2669966123311
 30
0.0
 11
192.7149480136949
 21
488.8437501634131
 31
0.0
  0
LINE
  5
257
330
1F
100
AcDbEntity
  8
図
  6
CONTINUOUS
 62
     2
100
AcDbLine
 10
192.7149480136949
 20
488.8437501634131
 30
0.0
 11
192.12240298521
 21
488.2512051349282
 31
0.0
  0
LINE
  5
258
330
1F
100
AcDbEntity
  8
図
  6
CONTINUOUS
 62
     2
100
AcDbLine
 10
192.12240298521
 20
488.2512051349282
 30
0.0
 11
191.6145072465085
 21
487.489361526876
 31
0.0
  0
LINE
  5
259
330
1F
100
AcDbEntity
  8
図
  6
CONTINUOUS
 62
     2
100
AcDbLine
 10
191.6145072465085
 20
487.489361526876
 30
0.0
 11
191.4452086669414
 21
486.6428686290404
 31
0.0
  0
LINE
  5
25A
330
1F
100
AcDbEntity
  8
図
  6
CONTINUOUS
 62
     2
100
AcDbLine
 10
315.1071664869519
 20
462.2638731713733
 30
0.0
 11
315.3611143563027
 21
462.517821040724
 31
0.0
  0
LINE
  5
25B
330
1F
100
AcDbEntity
  8
図
  6
CONTINUOUS
 62
     2
100
AcDbLine
 10
314.3453228788998
 20
481.1406647931086
 30
0.0
 11
321.1172660615852
 21
481.1406647931086
 31
0.0
  0
LINE
  5
25C
330
1F
100
AcDbEntity
  8
図
  6
CONTINUOUS
 62
     2
100
AcDbLine
 10
310.9593512875572
 20
457.1849157843593
 30
0.0
 11
315.3611143563027
 21
462.517821040724
 31
0.0
  0
LINE
  5
25D
330
1F
100
AcDbEntity
  8
図
  6
CONTINUOUS
 62
     2
100
AcDbLine
 10
321.1172660615852
 20
460.147640926784
 30
0.0
 11
314.3453228788998
 21
460.147640926784
 31
0.0
  0
LINE
  5
25E
330
1F
100
AcDbEntity
  8
図
  6
CONTINUOUS
 62
     2
100
AcDbLine
 10
280.739554834824
 20
436.6151383669527
 30
0.0
 11
273.9676116521386
 21
436.6151383669527
 31
0.0
  0
LINE
  5
25F
330
1F
100
AcDbEntity
  8
図
  6
CONTINUOUS
 62
     2
100
AcDbLine
 10
321.1172660615852
 20
485.1191814129362
 30
0.0
 11
321.1172660615852
 21
456.0844750171728
 31
0.0
  0
LINE
  5
260
330
1F
100
AcDbEntity
  8
図
  6
CONTINUOUS
 62
     2
100
AcDbLine
 10
315.3611143563027
 20
478.6858353893853
 30
0.0
 11
310.9593512875572
 21
484.1033899355335
 31
0.0
  0
LINE
  5
261
330
1F
100
AcDbEntity
  8
図
  6
CONTINUOUS
 62
     2
100
AcDbLine
 10
321.1172660615852
 20
456.0844750171728
 30
0.0
 11
321.2865646411523
 21
455.1533328295537
 31
0.0
  0
LINE
  5
262
330
1F
100
AcDbEntity
  8
図
  6
CONTINUOUS
 62
     2
100
AcDbLine
 10
314.3453228788998
 20
460.147640926784
 30
0.0
 11
313.4141806912806
 21
459.8936930574333
 31
0.0
  0
LINE
  5
263
330
1F
100
AcDbEntity
  8
図
  6
CONTINUOUS
 62
     2
100
AcDbLine
 10
313.4141806912806
 20
459.8936930574333
 30
0.0
 11
312.736986373012
 21
459.3857973187322
 31
0.0
  0
LINE
  5
264
330
1F
100
AcDbEntity
  8
図
  6
CONTINUOUS
 62
     2
100
AcDbLine
 10
305.541796741409
 20
457.8621101026278
 30
0.0
 11
304.6953038435733
 21
457.3542143639264
 31
0.0
  0
LINE
  5
265
330
1F
100
AcDbEntity
  8
図
  6
CONTINUOUS
 62
     2
100
AcDbLine
 10
304.6953038435733
 20
457.3542143639264
 30
0.0
 11
304.0181095253047
 21
456.677020045658
 31
0.0
  0
LINE
  5
266
330
1F
100
AcDbEntity
  8
図
  6
CONTINUOUS
 62
     2
100
AcDbLine
 10
310.9593512875572
 20
457.1849157843593
 30
0.0
 11
310.4514555488558
 21
456.7616693354413
 31
0.0
  0
LINE
  5
267
330
1F
100
AcDbEntity
  8
図
  6
CONTINUOUS
 62
     2
100
AcDbLine
 10
310.4514555488558
 20
456.7616693354413
 30
0.0
 11
309.7742612305871
 21
456.5923707558744
 31
0.0
  0
LINE
  5
268
330
1F
100
AcDbEntity
  8
図
  6
CONTINUOUS
 62
     2
100
AcDbLine
 10
305.541796741409
 20
483.3415463274813
 30
0.0
 11
304.6953038435733
 21
483.8494420661826
 31
0.0
  0
LINE
  5
269
330
1F
100
AcDbEntity
  8
図
  6
CONTINUOUS
 62
     2
100
AcDbLine
 10
304.6953038435733
 20
483.8494420661826
 30
0.0
 11
304.0181095253047
 21
484.6112856742349
 31
0.0
  0
LINE
  5
26A
330
1F
100
AcDbEntity
  8
図
  6
CONTINUOUS
 62
     2
100
AcDbLine
 10
310.9593512875572
 20
484.1033899355335
 30
0.0
 11
310.4514555488558
 21
484.4419870946678
 31
0.0
  0
LINE
  5
26B
330
1F
100
AcDbEntity
  8
図
  6
CONTINUOUS
 62
     2
100
AcDbLine
 10
310.4514555488558
 20
484.4419870946678
 30
0.0
 11
309.7742612305871
 21
484.6112856742349
 31
0.0
  0
LINE
  5
26C
330
1F
100
AcDbEntity
  8
図
  6
CONTINUOUS
 62
     2
100
AcDbLine
 10
314.3453228788998
 20
481.1406647931086
 30
0.0
 11
313.4141806912806
 21
481.3099633726757
 31
0.0
  0
LINE
  5
26D
330
1F
100
AcDbEntity
  8
図
  6
CONTINUOUS
 62
     2
100
AcDbLine
 10
313.8806361333303
 20
469.6283613825436
 30
0.0
 11
297.3167954048695
 21
469.6283613825436
 31
0.0
  0
LINE
  5
26E
330
1F
100
AcDbEntity
  8
図
  6
CONTINUOUS
 62
     2
100
AcDbLine
 10
297.5330839269899
 20
471.5752950475656
 30
0.0
 11
313.8905799425839
 21
471.5752950475656
 31
0.0
  0
LINE
  5
26F
330
1F
100
AcDbEntity
  8
図
  6
CONTINUOUS
 62
     2
100
AcDbLine
 10
313.4141806912806
 20
481.3099633726757
 30
0.0
 11
312.9401446684932
 21
481.6654903897662
 31
0.0
  0
LINE
  5
270
330
1F
100
AcDbEntity
  8
図
  6
CONTINUOUS
 62
     2
100
AcDbLine
 10
294.2263318192303
 20
466.5463649145353
 30
0.0
 11
293.8030853703126
 21
460.7902132092526
 31
0.0
  0
LINE
  5
271
330
1F
100
AcDbEntity
  8
図
  6
CONTINUOUS
 62
     2
100
AcDbLine
 10
293.7184360805289
 20
481.1906920470921
 30
0.0
 11
292.9565924724768
 21
486.6082465932406
 31
0.0
  0
LINE
  5
272
330
1F
100
AcDbEntity
  8
図
  6
CONTINUOUS
 62
     2
100
AcDbLine
 10
292.9565924724768
 20
486.6082465932406
 30
0.0
 11
291.940800995074
 21
491.941151849605
 31
0.0
  0
LINE
  5
273
330
1F
100
AcDbEntity
  8
図
  6
CONTINUOUS
 62
     2
100
AcDbLine
 10
293.8030853703126
 20
460.7902132092526
 30
0.0
 11
293.0412417622604
 21
455.1187107937538
 31
0.0
  0
LINE
  5
274
330
1F
100
AcDbEntity
  8
図
  6
CONTINUOUS
 62
     2
100
AcDbLine
 10
293.0412417622604
 20
455.1187107937538
 30
0.0
 11
292.0254502848576
 21
449.4472083782549
 31
0.0
  0
LINE
  5
275
330
1F
100
AcDbEntity
  8
図
  6
CONTINUOUS
 62
     2
100
AcDbLine
 10
291.940800995074
 20
491.941151849605
 30
0.0
 11
290.7033488083529
 21
497.1384510338338
 31
0.0
  0
LINE
  5
276
330
1F
100
AcDbEntity
  8
図
  6
CONTINUOUS
 62
     2
100
AcDbLine
 10
280.6279397148575
 20
504.5885180631564
 30
0.0
 11
273.9676116521386
 21
504.5885180631564
 31
0.0
  0
ARC
  5
277
330
1F
100
AcDbEntity
  8
図
  6
CONTINUOUS
 62
     2
100
AcDbCircle
 10
280.2836673332516
 20
493.5849434197386
 30
0.0
 40
11.00895900646393
100
AcDbArc
 50
18.83132808677333
 51
88.20795309475251
  0
LINE
  5
278
330
1F
100
AcDbEntity
  8
図
  6
CONTINUOUS
 62
     2
100
AcDbLine
 10
292.0254502848576
 20
449.4472083782549
 30
0.0
 11
290.634135917529
 21
443.7949937609823
 31
0.0
  0
ARC
  5
279
330
1F
100
AcDbEntity
  8
図
  6
CONTINUOUS
 62
     2
100
AcDbCircle
 10
280.3091964254216
 20
447.6150464949538
 30
0.0
 40
11.00895900646393
100
AcDbArc
 50
272.373330748551
 51
339.6963798827371
  0
LINE
  5
27A
330
1F
100
AcDbEntity
  8
図
  6
CONTINUOUS
 62
     2
100
AcDbLine
 10
293.2374151017119
 20
484.6112856742349
 30
0.0
 11
309.7742612305871
 21
484.6112856742349
 31
0.0
  0
LINE
  5
27B
330
1F
100
AcDbEntity
  8
図
  6
CONTINUOUS
 62
     2
100
AcDbLine
 10
309.7742612305871
 20
456.5923707558744
 30
0.0
 11
293.2391960855304
 21
456.5923707558744
 31
0.0
  0
ARC
  5
27C
330
1F
100
AcDbEntity
  8
図
  6
CONTINUOUS
 62
     2
100
AcDbCircle
 10
305.5987157690999
 20
470.6441528599599
 30
0.0
 40
11.62468296244003
100
AcDbArc
 50
191.958961715266
 51
168.0410382847433
  0
LINE
  5
27D
330
1F
100
AcDbEntity
  8
図
  6
EXLTYPE3
 62
     6
100
AcDbLine
 10
353.1993468895569
 20
470.6441528599463
 30
0.0
 11
185.5937531180953
 21
470.6441528599463
 31
0.0
  0
LINE
  5
27E
330
1F
100
AcDbEntity
  8
図
  6
CONTINUOUS
 62
     2
100
AcDbLine
 10
345.3289764223417
 20
481.1406647931086
 30
0.0
 11
346.5987157690951
 21
479.870925446355
 31
0.0
  0
LINE
  5
27F
330
1F
100
AcDbEntity
  8
図
  6
CONTINUOUS
 62
     2
100
AcDbLine
 10
346.5987157690951
 20
461.332730983754
 30
0.0
 11
345.3289764223417
 21
460.147640926784
 31
0.0
  0
LINE
  5
280
330
1F
100
AcDbEntity
  8
図
  6
CONTINUOUS
 62
     2
100
AcDbLine
 10
345.3289764223417
 20
481.1406647931086
 30
0.0
 11
345.3289764223417
 21
460.147640926784
 31
0.0
  0
LINE
  5
281
330
1F
100
AcDbEntity
  8
図
  6
CONTINUOUS
 62
     2
100
AcDbLine
 10
346.5987157690951
 20
461.332730983754
 30
0.0
 11
346.5987157690951
 21
479.870925446355
 31
0.0
  0
LINE
  5
282
330
1F
100
AcDbEntity
  8
図
  6
CONTINUOUS
 62
     2
100
AcDbLine
 10
330.5979865173447
 20
481.1406647931086
 30
0.0
 11
345.3289764223417
 21
481.1406647931086
 31
0.0
  0
LINE
  5
283
330
1F
100
AcDbEntity
  8
図
  6
CONTINUOUS
 62
     2
100
AcDbLine
 10
345.3289764223417
 20
460.147640926784
 30
0.0
 11
330.5979865173447
 21
460.147640926784
 31
0.0
  0
LINE
  5
284
330
1F
100
AcDbEntity
  8
図
  6
CONTINUOUS
 62
     2
100
AcDbLine
 10
330.5987157691047
 20
446.894152859964
 30
0.0
 11
327.2120149260019
 21
446.894152859964
 31
0.0
  0
LINE
  5
285
330
1F
100
AcDbEntity
  8
図
  6
CONTINUOUS
 62
     2
100
AcDbLine
 10
330.5987157691047
 20
494.3459539993449
 30
0.0
 11
330.5987157691047
 21
446.8941528599463
 31
0.0
  0
LINE
  5
286
330
1F
100
AcDbEntity
  8
図
  6
CONTINUOUS
 62
     2
100
AcDbLine
 10
330.5987157691047
 20
494.3941528599286
 30
0.0
 11
327.2120149260019
 21
494.3941528599286
 31
0.0
  0
LINE
  5
287
330
1F
100
AcDbEntity
  8
図
  6
CONTINUOUS
 62
     2
100
AcDbLine
 10
321.1172660615852
 20
485.1191814129362
 30
0.0
 11
321.3090777501373
 21
486.1741456999729
 31
0.0
  0
LINE
  5
288
330
1F
100
AcDbEntity
  8
図
  6
CONTINUOUS
 62
     2
100
AcDbLine
 10
321.3090777501324
 20
486.1741456999642
 30
0.0
 11
325.5190291303305
 21
493.4994611015092
 31
0.0
  0
LINE
  5
289
330
1F
100
AcDbEntity
  8
図
  6
CONTINUOUS
 62
     2
100
AcDbLine
 10
294.2263318192303
 20
474.6896265917154
 30
0.0
 11
294.2263318192303
 21
466.5463649145353
 31
0.0
  0
LINE
  5
28A
330
1F
100
AcDbEntity
  8
図
  6
CONTINUOUS
 62
     2
100
AcDbLine
 10
294.2263318192303
 20
474.6896265917154
 30
0.0
 11
293.7184360805289
 21
481.1906920470921
 31
0.0
  0
ARC
  5
28B
330
1F
100
AcDbEntity
  8
図
  6
CONTINUOUS
 62
     2
100
AcDbCircle
 10
305.5987157690999
 20
470.6441528599599
 30
0.0
 40
12.64047443984003
100
AcDbArc
 50
204.9284286163111
 51
155.1613651477232
  0
LINE
  5
28C
330
1F
100
AcDbEntity
  8
図
  6
CONTINUOUS
 62
     2
100
AcDbLine
 10
194.4079338093699
 20
489.3516459021147
 30
0.0
 11
201.2263318192287
 21
489.3516459021147
 31
0.0
  0
LINE
  5
28D
330
1F
100
AcDbEntity
  8
図
  6
CONTINUOUS
 62
     2
100
AcDbLine
 10
201.2263318192287
 20
451.8520105279946
 30
0.0
 11
194.4079338093699
 21
451.8520105279946
 31
0.0
  0
LINE
  5
28E
330
1F
100
AcDbEntity
  8
図
  6
CONTINUOUS
 62
     6
100
AcDbLine
 10
346.4274037068699
 20
479.9555747361388
 30
0.0
 11
330.5979865173447
 21
479.9555747361388
 31
0.0
  0
LINE
  5
28F
330
1F
100
AcDbEntity
  8
図
  6
CONTINUOUS
 62
     6
100
AcDbLine
 10
346.4274037068715
 20
461.332730983754
 30
0.0
 11
330.5979865173447
 21
461.332730983754
 31
0.0
  0
CIRCLE
  5
290
330
1F
100
AcDbEntity
  8
図
  6
CONTINUOUS
 62
     6
100
AcDbCircle
 10
305.5987157690999
 20
470.6441528599599
 30
0.0
 40
8.34398209759863
  0
CIRCLE
  5
291
330
1F
100
AcDbEntity
  8
図
  6
CONTINUOUS
 62
     6
100
AcDbCircle
 10
305.5987157690999
 20
470.6441528599599
 30
0.0
 40
8.972824717050004
  0
CIRCLE
  5
292
330
1F
100
AcDbEntity
  8
図
  6
CONTINUOUS
 62
     6
100
AcDbCircle
 10
305.5987157690999
 20
470.6441528599599
 30
0.0
 40
9.423801428070021
  0
LINE
  5
293
330
1F
100
AcDbEntity
  8
図
  6
CONTINUOUS
 62
     6
100
AcDbLine
 10
346.4281329586315
 20
302.6140284086609
 30
0.0
 11
330.5987157691047
 21
302.6140284086609
 31
0.0
  0
LINE
  5
294
330
1F
100
AcDbEntity
  8
図
  6
CONTINUOUS
 62
     6
100
AcDbLine
 10
346.4281329586315
 20
283.9911846562765
 30
0.0
 11
330.5987157691047
 21
283.9911846562765
 31
0.0
  0
LINE
  5
295
330
1F
100
AcDbEntity
  8
図
  6
CONTINUOUS
 62
     2
100
AcDbLine
 10
266.4987157691
 20
267.30260895517
 30
0.0
 11
266.4987157691
 21
266.50260895517
 31
0.0
  0
LINE
  5
296
330
1F
100
AcDbEntity
  8
図
  6
EXLTYPE2
 62
     2
100
AcDbLine
 10
266.4987157691
 20
267.30260895517
 30
0.0
 11
244.9987157691
 21
267.30260895517
 31
0.0
  0
LINE
  5
297
330
1F
100
AcDbEntity
  8
図
  6
EXLTYPE2
 62
     2
100
AcDbLine
 10
247.8087157691
 20
266.50260895517
 30
0.0
 11
266.4987157691
 21
266.50260895517
 31
0.0
  0
LINE
  5
298
330
1F
100
AcDbEntity
  8
図
  6
EXLTYPE2
 62
     2
100
AcDbLine
 10
244.9987157690999
 20
266.50260895517
 30
0.0
 11
247.8087157690999
 21
266.50260895517
 31
0.0
  0
LINE
  5
299
330
1F
100
AcDbEntity
  8
図
  6
EXLTYPE2
 62
     2
100
AcDbLine
 10
244.9987157690999
 20
267.30260895517
 30
0.0
 11
244.9987157690999
 21
266.50260895517
 31
0.0
  0
LINE
  5
29A
330
1F
100
AcDbEntity
  8
図
  6
EXLTYPE2
 62
     2
100
AcDbLine
 10
247.8087157690999
 20
266.50260895517
 30
0.0
 11
247.8087157690999
 21
250.30076732242
 31
0.0
  0
LINE
  5
29B
330
1F
100
AcDbEntity
  8
図
  6
EXLTYPE2
 62
     2
100
AcDbLine
 10
263.6887157690998
 20
266.50260895517
 30
0.0
 11
263.6887157691
 21
250.30076732242
 31
0.0
  0
LINE
  5
29C
330
1F
100
AcDbEntity
  8
図
  6
EXLTYPE2
 62
     6
100
AcDbLine
 10
113.6930839269899
 20
269.3026089551699
 30
0.0
 11
113.6930839269899
 21
257.3026089551699
 31
0.0
  0
LINE
  5
29D
330
1F
100
AcDbEntity
  8
図
  6
EXLTYPE2
 62
     2
100
AcDbLine
 10
124.5930839269898
 20
267.3026089551699
 30
0.0
 11
102.7930839269898
 21
267.3026089551699
 31
0.0
  0
LINE
  5
29E
330
1F
100
AcDbEntity
  8
図
  6
EXLTYPE2
 62
     2
100
AcDbLine
 10
105.7530839269898
 20
266.50260895517
 30
0.0
 11
102.7930839269898
 21
266.50260895517
 31
0.0
  0
LINE
  5
29F
330
1F
100
AcDbEntity
  8
図
  6
EXLTYPE2
 62
     2
100
AcDbLine
 10
124.5930839269898
 20
267.3026089551699
 30
0.0
 11
124.5930839269898
 21
266.50260895517
 31
0.0
  0
LINE
  5
2A0
330
1F
100
AcDbEntity
  8
図
  6
EXLTYPE2
 62
     2
100
AcDbLine
 10
102.7930839269898
 20
267.3026089551699
 30
0.0
 11
102.7930839269898
 21
266.50260895517
 31
0.0
  0
LINE
  5
2A1
330
1F
100
AcDbEntity
  8
図
  6
EXLTYPE2
 62
     2
100
AcDbLine
 10
124.5930839269898
 20
266.50260895517
 30
0.0
 11
102.3930839269898
 21
266.50260895517
 31
0.0
  0
LINE
  5
2A2
330
1F
100
AcDbEntity
  8
図
  6
EXLTYPE2
 62
     2
100
AcDbLine
 10
105.7530839269898
 20
266.50260895517
 30
0.0
 11
105.7530839269898
 21
249.82
 31
0.0
  0
LINE
  5
2A3
330
1F
100
AcDbEntity
  8
図
  6
EXLTYPE2
 62
     2
100
AcDbLine
 10
121.6330839269898
 20
266.50260895517
 30
0.0
 11
121.6330839269898
 21
250.3007673224168
 31
0.0
  0
LINE
  5
2A4
330
1F
100
AcDbEntity
  8
図
  6
EXLTYPE3
 62
     6
100
AcDbLine
 10
255.7487157691
 20
268.2426089551701
 30
0.0
 11
255.7487157691
 21
80.2
 31
0.0
  0
LINE
  5
2A5
330
1F
100
AcDbEntity
  8
図
  6
CONTINUOUS
 62
     2
100
AcDbLine
 10
105.75308392699
 20
87.30260895517
 30
0.0
 11
121.63308392699
 21
87.30260895517
 31
0.0
  0
LINE
  5
2A6
330
1F
100
AcDbEntity
  8
図
  6
CONTINUOUS
 62
     2
100
AcDbLine
 10
105.75308392699
 20
250.30076732242
 30
0.0
 11
105.75308392699
 21
87.30260895517
 31
0.0
  0
LINE
  5
2A7
330
1F
100
AcDbEntity
  8
図
  6
CONTINUOUS
 62
     2
100
AcDbLine
 10
121.63308392699
 20
250.30076732242
 30
0.0
 11
121.63308392699
 21
87.30260895517
 31
0.0
  0
LINE
  5
2A8
330
1F
100
AcDbEntity
  8
図
  6
CONTINUOUS
 62
     2
100
AcDbLine
 10
247.8087157691
 20
87.30260895517
 30
0.0
 11
263.6887157691
 21
87.30260895517
 31
0.0
  0
LINE
  5
2A9
330
1F
100
AcDbEntity
  8
図
  6
CONTINUOUS
 62
     2
100
AcDbLine
 10
247.8087157691
 20
250.30076732242
 30
0.0
 11
247.8087157691
 21
87.30260895517
 31
0.0
  0
LINE
  5
2AA
330
1F
100
AcDbEntity
  8
図
  6
CONTINUOUS
 62
     2
100
AcDbLine
 10
263.6887157691
 20
250.30076732242
 30
0.0
 11
263.6887157690999
 21
87.30260895517
 31
0.0
  0
LINE
  5
2AB
330
1F
100
AcDbEntity
  8
図
  6
EXLTYPE3
 62
     6
100
AcDbLine
 10
113.69308392699
 20
80.2
 30
0.0
 11
113.69308392699
 21
289.1026089551699
 31
0.0
  0
DIMENSION
  5
2AD
330
1F
100
AcDbEntity
  8
寸法
  6
CONTINUOUS
 62
     3
100
AcDbDimension
  2
*D15
 10
294.2263318192299
 20
393.48553082416
 30
0.0
 11
247.72633181923
 21
398.1855308122391
 31
0.0
 70
   160
  3
ISO-25
100
AcDbAlignedDimension
 13
201.2263318192299
 23
359.41370185343
 33
0.0
 14
294.2263318192299
 24
369.23301946836
 34
0.0
100
AcDbRotatedDimension
1001
ACAD
1000
DSTYLE
1002
{
1070
   270
1070
     2
1070
     6
1000
EX_NORM
1070
     7
1000
EX_NORM
1070
    41
1040
6.0
1070
    42
1040
1.399999976158142
1070
    44
1040
2.0
1070
    73
1070
     0
1070
    74
1070
     0
1070
    75
1070
     0
1070
    76
1070
     0
1070
    77
1070
     1
1070
    78
1070
     0
1070
   140
1040
8.0
1070
   147
1040
0.0
1070
   173
1070
     1
1070
   176
1070
     3
1070
   177
1070
     3
1070
   178
1070
     2
1070
   271
1070
     0
1070
   277
1070
     2
1070
   279
1070
     2
1070
   280
1070
     0
1070
   287
1070
     5
1070
   340
1005
2AC
1002
}
  0
DIMENSION
  5
2BB
330
1F
100
AcDbEntity
  8
寸法
  6
CONTINUOUS
 62
     3
100
AcDbDimension
  2
*D16
 10
255.5987157690999
 20
221.8
 30
0.0
 11
223.0987157691049
 21
226.4999999880791
 31
0.0
 70
   160
  3
ISO-25
100
AcDbAlignedDimension
 13
190.5987157691099
 23
308.30260653247
 33
0.0
 14
255.5987157690999
 24
250.30076732242
 34
0.0
100
AcDbRotatedDimension
1001
ACAD
1000
DSTYLE
1002
{
1070
   270
1070
     2
1070
     6
1000
EX_NORM
1070
     7
1000
EX_NORM
1070
    41
1040
6.0
1070
    42
1040
1.399999976158142
1070
    44
1040
2.0
1070
    73
1070
     0
1070
    74
1070
     0
1070
    75
1070
     0
1070
    76
1070
     1
1070
    77
1070
     1
1070
    78
1070
     0
1070
   140
1040
8.0
1070
   147
1040
0.0
1070
   173
1070
     1
1070
   176
1070
     3
1070
   177
1070
     3
1070
   178
1070
     2
1070
   271
1070
     0
1070
   277
1070
     2
1070
   279
1070
     2
1070
   280
1070
     0
1070
   287
1070
     5
1070
   340
1005
2AC
1002
}
  0
DIMENSION
  5
2C7
330
1F
100
AcDbEntity
  8
寸法
  6
CONTINUOUS
 62
     3
100
AcDbDimension
  2
*D17
 10
330.5987157690999
 20
221.8
 30
0.0
 11
305.9987157690999
 21
226.4999999880791
 31
0.0
 70
   160
  3
ISO-25
100
AcDbAlignedDimension
 13
255.5987157690999
 23
250.30076732242
 33
0.0
 14
330.5987157690999
 24
269.51615610329
 34
0.0
100
AcDbRotatedDimension
1001
ACAD
1000
DSTYLE
1002
{
1070
   270
1070
     2
1070
     6
1000
EX_NORM
1070
     7
1000
EX_NORM
1070
    41
1040
6.0
1070
    42
1040
1.399999976158142
1070
    44
1040
2.0
1070
    73
1070
     0
1070
    74
1070
     0
1070
    75
1070
     1
1070
    76
1070
     0
1070
    77
1070
     1
1070
    78
1070
     0
1070
   140
1040
8.0
1070
   147
1040
0.0
1070
   173
1070
     1
1070
   176
1070
     3
1070
   177
1070
     3
1070
   178
1070
     2
1070
   271
1070
     0
1070
   277
1070
     2
1070
   279
1070
     2
1070
   280
1070
     0
1070
   287
1070
     5
1070
   340
1005
2AC
1002
}
  0
DIMENSION
  5
2D3
330
1F
100
AcDbEntity
  8
寸法
  6
CONTINUOUS
 62
     3
100
AcDbDimension
  2
*D18
 10
346.5987157690999
 20
221.8
 30
0.0
 11
338.5983511432199
 21
226.4999999880791
 31
0.0
 70
   160
  3
ISO-25
100
AcDbAlignedDimension
 13
330.5979865173399
 23
269.51615610329
 33
0.0
 14
346.5987157690999
 24
285.16553082416
 34
0.0
100
AcDbRotatedDimension
1001
ACAD
1000
DSTYLE
1002
{
1070
   270
1070
     2
1070
     6
1000
EX_NORM
1070
     7
1000
EX_NORM
1070
    41
1040
6.0
1070
    42
1040
1.399999976158142
1070
    44
1040
2.0
1070
    73
1070
     0
1070
    74
1070
     0
1070
    75
1070
     0
1070
    76
1070
     0
1070
    77
1070
     1
1070
    78
1070
     0
1070
   140
1040
8.0
1070
   147
1040
0.0
1070
   173
1070
     1
1070
   176
1070
     3
1070
   177
1070
     3
1070
   178
1070
     2
1070
   271
1070
     0
1070
   277
1070
     2
1070
   279
1070
     2
1070
   280
1070
     0
1070
   287
1070
     5
1070
   340
1005
2AC
1002
}
  0
DIMENSION
  5
2E0
330
1F
100
AcDbEntity
  8
寸法
  6
CONTINUOUS
 62
     3
100
AcDbDimension
  2
*D19
 10
346.5987157690999
 20
346.48553082416
 30
0.0
 11
326.0987157690999
 21
351.1855308122391
 31
0.0
 70
   160
  3
ISO-25
100
AcDbAlignedDimension
 13
305.5987157690999
 23
335.0855308241599
 33
0.0
 14
346.5987157690999
 24
302.61402840866
 34
0.0
100
AcDbRotatedDimension
1001
ACAD
1000
DSTYLE
1002
{
1070
   270
1070
     2
1070
     6
1000
EX_NORM
1070
     7
1000
EX_NORM
1070
    41
1040
6.0
1070
    42
1040
1.399999976158142
1070
    44
1040
2.0
1070
    73
1070
     0
1070
    74
1070
     0
1070
    75
1070
     0
1070
    76
1070
     0
1070
    77
1070
     1
1070
    78
1070
     0
1070
   140
1040
8.0
1070
   147
1040
0.0
1070
   173
1070
     1
1070
   176
1070
     3
1070
   177
1070
     3
1070
   178
1070
     2
1070
   271
1070
     0
1070
   277
1070
     2
1070
   279
1070
     2
1070
   280
1070
     0
1070
   287
1070
     5
1070
   340
1005
2AC
1002
}
  0
DIMENSION
  5
2ED
330
1F
100
AcDbEntity
  8
寸法
  6
CONTINUOUS
 62
     3
100
AcDbDimension
  2
*D20
 10
147.6374491301999
 20
393.48553082416
 30
0.0
 11
113.6930839269899
 21
398.1855308122391
 31
0.0
 70
   160
  3
ISO-25
100
AcDbAlignedDimension
 13
79.74871872377986
 23
367.70933225222
 33
0.0
 14
147.6374491301999
 24
367.70933225222
 34
0.0
100
AcDbRotatedDimension
1001
ACAD
1000
DSTYLE
1002
{
1070
   270
1070
     2
1070
     6
1000
EX_NORM
1070
     7
1000
EX_NORM
1070
    41
1040
6.0
1070
    42
1040
1.399999976158142
1070
    44
1040
2.0
1070
    73
1070
     0
1070
    74
1070
     0
1070
    75
1070
     0
1070
    76
1070
     0
1070
    77
1070
     1
1070
    78
1070
     0
1070
   140
1040
8.0
1070
   147
1040
0.0
1070
   173
1070
     1
1070
   176
1070
     3
1070
   177
1070
     3
1070
   178
1070
     2
1070
   271
1070
     0
1070
   277
1070
     2
1070
   279
1070
     2
1070
   280
1070
     0
1070
   287
1070
     5
1070
   340
1005
2AC
1002
}
  0
DIMENSION
  5
2FA
330
1F
100
AcDbEntity
  8
寸法
  6
CONTINUOUS
 62
     3
100
AcDbDimension
  2
*D21
 10
51.60000000000002
 20
250.30076732242
 30
0.0
 11
46.90000001192106
 21
311.29058061149
 31
0.0
 70
   160
  3
ISO-25
100
AcDbAlignedDimension
 13
113.6930839269899
 23
372.2803939005599
 33
0.0
 14
113.6930839269899
 24
250.30076732242
 34
0.0
 50
90.0
100
AcDbRotatedDimension
1001
ACAD
1000
DSTYLE
1002
{
1070
   270
1070
     2
1070
     6
1000
EX_NORM
1070
     7
1000
EX_NORM
1070
    41
1040
6.0
1070
    42
1040
1.399999976158142
1070
    44
1040
2.0
1070
    73
1070
     0
1070
    74
1070
     0
1070
    75
1070
     0
1070
    76
1070
     0
1070
    77
1070
     1
1070
    78
1070
     0
1070
   140
1040
8.0
1070
   147
1040
0.0
1070
   173
1070
     1
1070
   176
1070
     3
1070
   177
1070
     3
1070
   178
1070
     2
1070
   271
1070
     0
1070
   277
1070
     2
1070
   279
1070
     2
1070
   280
1070
     0
1070
   287
1070
     5
1070
   340
1005
2AC
1002
}
  0
DIMENSION
  5
307
330
1F
100
AcDbEntity
  8
寸法
  6
CONTINUOUS
 62
     3
100
AcDbDimension
  2
*D22
 10
367.3999999999999
 20
372.30260653247
 30
0.0
 11
362.7000000119209
 21
332.8026065324699
 31
0.0
 70
   160
  3
ISO-25
100
AcDbAlignedDimension
 13
345.32897642234
 23
293.30260653247
 33
0.0
 14
354.6
 24
372.30260653247
 34
0.0
 50
90.0
100
AcDbRotatedDimension
1001
ACAD
1000
DSTYLE
1002
{
1070
   270
1070
     2
1070
     6
1000
EX_NORM
1070
     7
1000
EX_NORM
1070
    41
1040
6.0
1070
    42
1040
1.399999976158142
1070
    44
1040
2.0
1070
    73
1070
     0
1070
    74
1070
     0
1070
    75
1070
     0
1070
    76
1070
     0
1070
    77
1070
     1
1070
    78
1070
     0
1070
   140
1040
8.0
1070
   147
1040
0.0
1070
   173
1070
     1
1070
   176
1070
     3
1070
   177
1070
     3
1070
   178
1070
     2
1070
   271
1070
     0
1070
   277
1070
     2
1070
   279
1070
     2
1070
   280
1070
     0
1070
   287
1070
     5
1070
   340
1005
2AC
1002
}
  0
DIMENSION
  5
314
330
1F
100
AcDbEntity
  8
寸法
  6
CONTINUOUS
 62
     3
100
AcDbDimension
  2
*D23
 10
65.60000000000002
 20
308.28553082416
 30
0.0
 11
60.90000001192105
 21
340.28296236235
 31
0.0
 70
   160
  3
ISO-25
100
AcDbAlignedDimension
 13
113.69308392699
 23
372.28039390054
 33
0.0
 14
137.09308392699
 24
308.28553082416
 34
0.0
 50
90.0
100
AcDbRotatedDimension
1001
ACAD
1000
DSTYLE
1002
{
1070
   270
1070
     2
1070
     6
1000
EX_NORM
1070
     7
1000
EX_NORM
1070
    41
1040
6.0
1070
    42
1040
1.399999976158142
1070
    44
1040
2.0
1070
    73
1070
     0
1070
    74
1070
     0
1070
    75
1070
     0
1070
    76
1070
     0
1070
    77
1070
     1
1070
    78
1070
     0
1070
   140
1040
8.0
1070
   147
1040
0.0
1070
   173
1070
     1
1070
   176
1070
     3
1070
   177
1070
     3
1070
   178
1070
     2
1070
   271
1070
     0
1070
   277
1070
     2
1070
   279
1070
     2
1070
   280
1070
     0
1070
   287
1070
     5
1070
   340
1005
2AC
1002
}
  0
LINE
  5
321
330
1F
100
AcDbEntity
  8
寸法
  6
CONTINUOUS
 62
     3
100
AcDbLine
 10
369.4
 20
372.30260653247
 30
0.0
 11
383.4000000000002
 21
372.30260653247
 31
0.0
  0
ARC
  5
322
330
1F
100
AcDbEntity
  8
寸法
  6
EXLTYPE4
 62
     3
100
AcDbCircle
 10
326.5643733815764
 20
448.3016063727706
 30
0.0
 40
1.164332091973942
100
AcDbArc
 50
206.1288519663452
 51
237.7038298282957
  0
ARC
  5
323
330
1F
100
AcDbEntity
  8
寸法
  6
EXLTYPE4
 62
     3
100
AcDbCircle
 10
327.8892092450025
 20
451.0419680618091
 30
0.0
 40
4.202732812621588
100
AcDbArc
 50
242.4027041318051
 51
260.7273982192564
  0
ARC
  5
324
330
1F
100
AcDbEntity
  8
寸法
  6
EXLTYPE4
 62
     3
100
AcDbCircle
 10
326.5643733815764
 20
492.986699347122
 30
0.0
 40
1.164332091973942
100
AcDbArc
 50
122.2961701717044
 51
153.8711480336549
  0
ARC
  5
325
330
1F
100
AcDbEntity
  8
寸法
  6
EXLTYPE4
 62
     3
100
AcDbCircle
 10
327.8892092450025
 20
490.2463376580835
 30
0.0
 40
4.202732812621588
100
AcDbArc
 50
99.27260178074363
 51
117.5972958681949
  0
LINE
  5
326
330
1F
100
AcDbEntity
  8
寸法
  6
CONTINUOUS
 62
     3
100
AcDbLine
 10
350.8755073669981
 20
293.30260653247
 30
0.0
 11
369.4
 21
293.30260653247
 31
0.0
  0
CIRCLE
  5
327
330
1F
100
AcDbEntity
  8
寸法
  6
CONTINUOUS
 62
     3
100
AcDbCircle
 10
76.2
 20
223.0
 30
0.0
 40
7.0
  0
TEXT
  5
328
330
1F
100
AcDbEntity
  8
寸法
  6
CONTINUOUS
 62
     2
100
AcDbText
 10
71.95025243759156
 20
218.0502524375916
 30
0.0
 40
9.899495124816895
  1
1
 41
1.240909090909091
  7
EXCADSTD
 72
     5
 11
78.38492426872254
 21
218.0502524375916
 31
0.0
100
AcDbText
  0
LEADER
  5
329
330
1F
100
AcDbEntity
  8
寸法
  6
CONTINUOUS
 62
     3
100
AcDbLeader
  3
ISO-25
 76
     2
 10
94.8
 20
250.30076732242
 30
0.0
 10
80.14130930906369
 20
228.7849875479804
 30
0.0
1001
ACAD
1000
DSTYLE
1002
{
1070
     5
1000
EX_NORM
1070
    41
1040
6.0
1070
   341
1005
4D
1002
}
  0
CIRCLE
  5
32A
330
1F
100
AcDbEntity
  8
寸法
  6
CONTINUOUS
 62
     3
100
AcDbCircle
 10
76.8
 20
193.4
 30
0.0
 40
7.0
  0
TEXT
  5
32B
330
1F
100
AcDbEntity
  8
寸法
  6
CONTINUOUS
 62
     2
100
AcDbText
 10
72.55025243759155
 20
188.4502524375916
 30
0.0
 40
9.899495124816895
  1
2
 41
0.8029411764705886
  7
EXCADSTD
 72
     5
 11
78.98492426872254
 21
188.4502524375916
 31
0.0
100
AcDbText
  0
LEADER
  5
32C
330
1F
100
AcDbEntity
  8
寸法
  6
CONTINUOUS
 62
     3
100
AcDbLeader
  3
ISO-25
 76
     2
 10
105.75308392699
 20
217.0
 30
0.0
 10
82.22585575094266
 20
197.8226789811112
 30
0.0
1001
ACAD
1000
DSTYLE
1002
{
1070
     5
1000
EX_NORM
1070
    41
1040
6.0
1070
   341
1005
4D
1002
}
  0
LEADER
  5
32D
330
1F
100
AcDbEntity
  8
寸法
  6
CONTINUOUS
 62
     3
100
AcDbLeader
  3
ISO-25
 76
     3
 10
338.2
 20
481.14066479311
 30
0.0
 10
350.2400586168301
 20
501.99465804357
 30
0.0
 10
385.2
 20
501.99465804357
 30
0.0
1001
ACAD
1000
DSTYLE
1002
{
1070
     5
1000
EX_NORM
1070
    41
1040
6.0
1070
   341
1005
4D
1002
}
  0
TEXT
  5
32E
330
1F
100
AcDbEntity
  8
寸法
  6
CONTINUOUS
 62
     2
100
AcDbText
 10
350.2400586168301
 20
502.6946580316491
 30
0.0
 40
8.0
  1
ＰＪ１／２
 41
0.9655172413793105
  7
EXCADSTD
 72
     5
 11
382.2400586168301
 21
502.6946580316491
 31
0.0
100
AcDbText
  0
LINE
  5
32F
330
1F
100
AcDbEntity
  8
寸法
  6
CONTINUOUS
 62
     3
100
AcDbLine
 10
368.0000000238418
 20
293.30260653247
 30
0.0
 11
365.4
 21
293.30260653247
 31
0.0
  0
DIMENSION
  5
330
330
1F
100
AcDbEntity
  8
寸法
  6
CONTINUOUS
 62
     3
100
AcDbDimension
  2
*D24
 10
382.0
 20
87.30260895516999
 30
0.0
 11
377.3000000119209
 21
229.80260774382
 31
0.0
 70
   160
  1
（285）
  3
ISO-25
100
AcDbAlignedDimension
 13
383.4
 23
372.30260653247
 33
0.0
 14
263.6887157691
 24
87.30260895517
 34
0.0
 50
90.0
100
AcDbRotatedDimension
1001
ACAD
1000
DSTYLE
1002
{
1070
   270
1070
     2
1070
     6
1000
EX_NORM
1070
     7
1000
EX_NORM
1070
    41
1040
6.0
1070
    42
1040
1.399999976158142
1070
    44
1040
2.0
1070
    73
1070
     0
1070
    74
1070
     0
1070
    75
1070
     0
1070
    76
1070
     0
1070
    77
1070
     1
1070
    78
1070
     8
1070
   140
1040
8.0
1070
   147
1040
0.0
1070
   173
1070
     1
1070
   176
1070
     3
1070
   177
1070
     3
1070
   178
1070
     2
1070
   271
1070
     1
1070
   277
1070
     2
1070
   279
1070
     2
1070
   280
1070
     0
1070
   287
1070
     5
1070
   340
1005
2AC
1002
}
  0
DIMENSION
  5
33D
330
1F
100
AcDbEntity
  8
寸法
  6
CONTINUOUS
 62
     3
100
AcDbDimension
  2
*D25
 10
367.4
 20
293.30260653247
 30
0.0
 11
362.7000000119209
 21
190.30260774382
 31
0.0
 70
   160
  1
（206）
  3
ISO-25
100
AcDbAlignedDimension
 13
384.0
 23
87.30260895517
 33
0.0
 14
367.4
 24
293.30260653247
 34
0.0
 50
90.0
100
AcDbRotatedDimension
1001
ACAD
1000
DSTYLE
1002
{
1070
   270
1070
     2
1070
     6
1000
EX_NORM
1070
     7
1000
EX_NORM
1070
    41
1040
6.0
1070
    42
1040
1.399999976158142
1070
    44
1040
2.0
1070
    73
1070
     0
1070
    74
1070
     0
1070
    75
1070
     0
1070
    76
1070
     1
1070
    77
1070
     1
1070
    78
1070
     8
1070
   140
1040
8.0
1070
   147
1040
0.0
1070
   173
1070
     1
1070
   176
1070
     3
1070
   177
1070
     3
1070
   178
1070
     2
1070
   271
1070
     1
1070
   277
1070
     2
1070
   279
1070
     2
1070
   280
1070
     0
1070
   287
1070
     5
1070
   340
1005
2AC
1002
}
  0
DIMENSION
  5
349
330
1F
100
AcDbEntity
  8
寸法
  6
CONTINUOUS
 62
     3
100
AcDbDimension
  2
*D26
 10
121.63308392699
 20
76.2
 30
0.0
 11
137.63308392699
 21
80.89999998807907
 31
0.0
 70
   160
  1
%%c16
  3
ISO-25
100
AcDbAlignedDimension
 13
105.75308392699
 23
87.30260895517
 33
0.0
 14
121.63308392699
 24
87.30260895517
 34
0.0
100
AcDbRotatedDimension
1001
ACAD
1000
DSTYLE
1002
{
1070
   270
1070
     2
1070
     6
1000
EX_NORM
1070
     7
1000
EX_NORM
1070
    41
1040
6.0
1070
    42
1040
1.399999976158142
1070
    44
1040
2.0
1070
    73
1070
     0
1070
    74
1070
     0
1070
    75
1070
     0
1070
    76
1070
     0
1070
    77
1070
     1
1070
    78
1070
     0
1070
   140
1040
8.0
1070
   147
1040
0.0
1070
   173
1070
     1
1070
   176
1070
     3
1070
   177
1070
     3
1070
   178
1070
     2
1070
   271
1070
     0
1070
   277
1070
     2
1070
   279
1070
     2
1070
   280
1070
     2
1070
   287
1070
     5
1070
   340
1005
2AC
1002
}
  0
ENDSEC
  0
SECTION
  2
OBJECTS
  0
DICTIONARY
  5
C
330
0
100
AcDbDictionary
  3
ACAD_GROUP
350
D
  3
ACAD_LAYOUT
350
1A
  3
ACAD_MATERIAL
350
3B
  3
ACAD_MLEADERSTYLE
350
378
  3
ACAD_MLINESTYLE
350
17
  3
ACAD_PLOTSETTINGS
350
19
  3
ACAD_VISUALSTYLE
350
2A
  3
ACDBHEADERROUNDTRIPXREC
350
356
  3
ACDBVARIABLEDICTIONARY
350
376
  0
DICTIONARY
  5
D
102
{ACAD_REACTORS
330
C
102
}
330
C
100
AcDbDictionary
  0
DICTIONARY
  5
1A
102
{ACAD_REACTORS
330
C
102
}
330
C
100
AcDbDictionary
  0
DICTIONARY
  5
3B
102
{ACAD_REACTORS
330
C
102
}
330
C
100
AcDbDictionary
  3
BYBLOCK
350
3D
  3
BYLAYER
350
3C
  3
GLOBAL
350
3E
  0
DICTIONARY
  5
378
102
{ACAD_REACTORS
330
C
102
}
330
C
100
AcDbDictionary
  0
DICTIONARY
  5
17
102
{ACAD_REACTORS
330
C
102
}
330
C
100
AcDbDictionary
  3
STANDARD
350
18
  0
DICTIONARY
  5
19
102
{ACAD_REACTORS
330
C
102
}
330
C
100
AcDbDictionary
  0
DICTIONARY
  5
2A
102
{ACAD_REACTORS
330
C
102
}
330
C
100
AcDbDictionary
  3
2DWIREFRAME
350
2F
  3
3D_HIDDEN
350
31
  3
3DWIREFRAME
350
30
  3
BASIC
350
32
  3
BRIGHTEN
350
36
  3
COLORCHANGE
350
3A
  3
CONCEPTUAL
350
34
  3
DIM
350
35
  3
FACEPATTERN
350
39
  3
FLAT
350
2B
  3
FLATWITHEDGES
350
2C
  3
GOURAUD
350
2D
  3
GOURAUDWITHEDGES
350
2E
  3
LINEPATTERN
350
38
  3
REALISTIC
350
33
  3
THICKEN
350
37
  0
DICTIONARY
  5
356
102
{ACAD_REACTORS
330
C
102
}
330
C
100
AcDbDictionary
  3
CEPSNTYPE
350
35F
  3
DIMSTYLEDATA
350
375
  3
FINGERPRINTGUID
350
360
  3
HYPERLINKBASE
350
359
  3
INSUNITS
350
35E
  3
LAYOUTDICT
350
35B
  3
LWETCUNION
350
35D
  3
PLOTSETDICT
350
35C
  3
PSVPSCALE
350
362
  3
PUCSBASE
350
365
  3
PUCSORGBACK
350
36B
  3
PUCSORGBOTTOM
350
367
  3
PUCSORGFRONT
350
36A
  3
PUCSORGLEFT
350
368
  3
PUCSORGRIGHT
350
369
  3
PUCSORGTOP
350
366
  3
PUCSORTHOREF
350
363
  3
PUCSORTHOVIEW
350
364
  3
STYLESHEET
350
35A
  3
TSTACKALIGN
350
357
  3
TSTACKSIZE
350
358
  3
UCSBASE
350
36E
  3
UCSORGBACK
350
374
  3
UCSORGBOTTOM
350
370
  3
UCSORGFRONT
350
373
  3
UCSORGLEFT
350
371
  3
UCSORGRIGHT
350
372
  3
UCSORGTOP
350
36F
  3
UCSORTHOREF
350
36C
  3
UCSORTHOVIEW
350
36D
  3
VERSIONGUID
350
361
  0
DICTIONARY
  5
376
102
{ACAD_REACTORS
330
C
102
}
330
C
100
AcDbDictionary
  3
DIMASSOC
350
37B
  3
HIDETEXT
350
37C
  3
PSOLHEIGHT
350
37A
  3
PSOLWIDTH
350
379
  0
MATERIAL
  5
3D
102
{ACAD_REACTORS
330
3B
102
}
102
{ACAD_XDICTIONARY
360
37F
102
}
330
3B
100
AcDbMaterial
  1
ByBlock
  0
MATERIAL
  5
3C
102
{ACAD_REACTORS
330
3B
102
}
102
{ACAD_XDICTIONARY
360
37D
102
}
330
3B
100
AcDbMaterial
  1
ByLayer
  0
MATERIAL
  5
3E
102
{ACAD_REACTORS
330
3B
102
}
102
{ACAD_XDICTIONARY
360
381
102
}
330
3B
100
AcDbMaterial
  1
Global
  0
MLINESTYLE
  5
18
102
{ACAD_REACTORS
330
17
102
}
330
17
100
AcDbMlineStyle
  2
Standard
 70
     0
  3

 62
   256
 51
90.0
 52
90.0
 71
     2
 49
0.5
 62
   256
  6
BYLAYER
 49
-0.5
 62
   256
  6
BYLAYER
  0
ACAD_PROXY_OBJECT
  5
2F
102
{ACAD_REACTORS
330
2A
102
}
330
2A
100
AcDbProxyObject
 90
      499
 91
      501
 93
      436
310
42CC9915DA5C99599C985B595049028333333333333E3BF0000000000000FB0107901411070040501600405405064090741402480A0340
1001
ACAD
1000
AcDbSavedByObjectVersion
1070
     0
  0
ACAD_PROXY_OBJECT
  5
31
102
{ACAD_REACTORS
330
2A
102
}
330
2A
100
AcDbProxyObject
 90
      499
 91
      501
 93
      500
310
424CD108121A5919195B90640502408333333333333E3BF0000000000000FB01079024090700405020000000000001110200405405064090740C02480A0340
1001
ACAD
1000
AcDbSavedByObjectVersion
1070
     0
  0
ACAD_PROXY_OBJECT
  5
30
102
{ACAD_REACTORS
330
2A
102
}
330
2A
100
AcDbProxyObject
 90
      499
 91
      501
 93
      436
310
42CCD915DA5C99599C985B595059028333333333333E3BF0000000000000FB0107901411070040501600405405064090741402480A0340
1001
ACAD
1000
AcDbSavedByObjectVersion
1070
     0
  0
ACAD_PROXY_OBJECT
  5
32
102
{ACAD_REACTORS
330
2A
102
}
330
2A
100
AcDbProxyObject
 90
      499
 91
      501
 93
      388
310
4150985CDA58D07406404333333333333E3BF0000000000000FB0107A41107004050150841D405064090741402480A0350
1001
ACAD
1000
AcDbSavedByObjectVersion
1070
     0
  0
ACAD_PROXY_OBJECT
  5
36
102
{ACAD_REACTORS
330
2A
102
}
330
2A
100
AcDbProxyObject
 90
      499
 91
      501
 93
      428
310
42109C9A59DA1D195B90C409028333333333333E3BF0000000000000FB010790141107004050150841D405064090741402480A029950
1001
ACAD
1000
AcDbSavedByObjectVersion
1070
     0
  0
ACAD_PROXY_OBJECT
  5
3A
102
{ACAD_REACTORS
330
2A
102
}
330
2A
100
AcDbProxyObject
 90
      499
 91
      501
 93
      452
310
42D0DBDB1BDC90DA185B99D95104090240C333333333333E3BF0000000000000FB0108901411070040501508421405064090741402480A0350
1001
ACAD
1000
AcDbSavedByObjectVersion
1070
     0
  0
ACAD_PROXY_OBJECT
  5
34
102
{ACAD_REACTORS
330
2A
102
}
330
2A
100
AcDbProxyObject
 90
      499
 91
      501
 93
      500
310
4290DBDB98D95C1D1D585B10940D028333333333333E3BF0000000000000FB0107902409070040501000000000000111010841D405064090740C02480A0340
1001
ACAD
1000
AcDbSavedByObjectVersion
1070
     0
  0
ACAD_PROXY_OBJECT
  5
35
102
{ACAD_REACTORS
330
2A
102
}
330
2A
100
AcDbProxyObject
 90
      499
 91
      501
 93
      412
310
40D11A5B50B409028333333333333E3BF0000000000000FB010790141107004050150841D405064090741402480A02677FFFFFD0
1001
ACAD
1000
AcDbSavedByObjectVersion
1070
     0
  0
ACAD_PROXY_OBJECT
  5
39
102
{ACAD_REACTORS
330
2A
102
}
330
2A
100
AcDbProxyObject
 90
      499
 91
      501
 93
      444
310
42D19858D95C185D1D195C9B90F409028333333333333E3BF0000000000000FB010790141107004050150841D405064090741402480A0350
1001
ACAD
1000
AcDbSavedByObjectVersion
1070
     0
  0
ACAD_PROXY_OBJECT
  5
2B
102
{ACAD_REACTORS
330
2A
102
}
330
2A
100
AcDbProxyObject
 90
      499
 91
      501
 93
      388
310
41119B185D240901404333333333333E3BF0000000000000F9010740A41107004050150841D405064090741402480A1B50
1001
ACAD
1000
AcDbSavedByObjectVersion
1070
     0
  0
ACAD_PROXY_OBJECT
  5
2C
102
{ACAD_REACTORS
330
2A
102
}
330
2A
100
AcDbProxyObject
 90
      499
 91
      501
 93
      476
310
43519B185D15DA5D1A115919D95CD0140901404333333333333E3BF0000000000000F9010740901411070040501600405405064090741402480A1B50
1001
ACAD
1000
AcDbSavedByObjectVersion
1070
     0
  0
ACAD_PROXY_OBJECT
  5
2D
102
{ACAD_REACTORS
330
2A
102
}
330
2A
100
AcDbProxyObject
 90
      499
 91
      501
 93
      412
310
41D1DBDD5C985D5910240902404333333333333E3BF0000000000000F9010740A411070040501641D405064090741402480A1B50
1001
ACAD
1000
AcDbSavedByObjectVersion
1070
     0
  0
ACAD_PROXY_OBJECT
  5
2E
102
{ACAD_REACTORS
330
2A
102
}
330
2A
100
AcDbProxyObject
 90
      499
 91
      501
 93
      500
310
4411DBDD5C985D5915DA5D1A115919D95CD0340902404333333333333E3BF0000000000000F9010740901411070040501600405405064090741402480A1B50
1001
ACAD
1000
AcDbSavedByObjectVersion
1070
     0
  0
ACAD_PROXY_OBJECT
  5
38
102
{ACAD_REACTORS
330
2A
102
}
330
2A
100
AcDbProxyObject
 90
      499
 91
      501
 93
      444
310
42D31A5B995C185D1D195C9B90E409028333333333333E3BF0000000000000FB010790141107004050750841D405064090741402483A0350
1001
ACAD
1000
AcDbSavedByObjectVersion
1070
     0
  0
ACAD_PROXY_OBJECT
  5
33
102
{ACAD_REACTORS
330
2A
102
}
330
2A
100
AcDbProxyObject
 90
      499
 91
      501
 93
      420
310
425499585B1A5CDD1A58D08409028333333333333E3BF0000000000000FB01079019070040501508421405064090741402480A1B40
1001
ACAD
1000
AcDbSavedByObjectVersion
1070
     0
  0
ACAD_PROXY_OBJECT
  5
37
102
{ACAD_REACTORS
330
2A
102
}
330
2A
100
AcDbProxyObject
 90
      499
 91
      501
 93
      412
310
41D51A1A58DAD95B90D409028333333333333E3BF0000000000000FB010790141107004050150C41D405064090741402480A0350
1001
ACAD
1000
AcDbSavedByObjectVersion
1070
     0
  0
XRECORD
  5
35F
102
{ACAD_REACTORS
330
356
102
}
330
356
100
AcDbXrecord
 90
        0
  0
XRECORD
  5
375
102
{ACAD_REACTORS
330
356
102
}
330
356
100
AcDbXrecord
1000
DSTYLE
1002
{
1070
   340
340
11
1002
}
  0
XRECORD
  5
360
102
{ACAD_REACTORS
330
356
102
}
330
356
100
AcDbXrecord
  1
{6767C87C-3F61-4323-B20B-C973B365F553}
  0
XRECORD
  5
359
102
{ACAD_REACTORS
330
356
102
}
330
356
100
AcDbXrecord
  1

  0
XRECORD
  5
35E
102
{ACAD_REACTORS
330
356
102
}
330
356
100
AcDbXrecord
 90
        4
  0
XRECORD
  5
35B
102
{ACAD_REACTORS
330
356
102
}
330
356
100
AcDbXrecord
340
1A
  0
XRECORD
  5
35D
102
{ACAD_REACTORS
330
356
102
}
330
356
100
AcDbXrecord
 90
    10781
  0
XRECORD
  5
35C
102
{ACAD_REACTORS
330
356
102
}
330
356
100
AcDbXrecord
340
19
  0
XRECORD
  5
362
102
{ACAD_REACTORS
330
356
102
}
330
356
100
AcDbXrecord
 40
0.0
  0
XRECORD
  5
365
102
{ACAD_REACTORS
330
356
102
}
330
356
100
AcDbXrecord
340
0
  0
XRECORD
  5
36B
102
{ACAD_REACTORS
330
356
102
}
330
356
100
AcDbXrecord
 10
0.0
 20
0.0
 30
0.0
  0
XRECORD
  5
367
102
{ACAD_REACTORS
330
356
102
}
330
356
100
AcDbXrecord
 10
0.0
 20
0.0
 30
0.0
  0
XRECORD
  5
36A
102
{ACAD_REACTORS
330
356
102
}
330
356
100
AcDbXrecord
 10
0.0
 20
0.0
 30
0.0
  0
XRECORD
  5
368
102
{ACAD_REACTORS
330
356
102
}
330
356
100
AcDbXrecord
 10
0.0
 20
0.0
 30
0.0
  0
XRECORD
  5
369
102
{ACAD_REACTORS
330
356
102
}
330
356
100
AcDbXrecord
 10
0.0
 20
0.0
 30
0.0
  0
XRECORD
  5
366
102
{ACAD_REACTORS
330
356
102
}
330
356
100
AcDbXrecord
 10
0.0
 20
0.0
 30
0.0
  0
XRECORD
  5
363
102
{ACAD_REACTORS
330
356
102
}
330
356
100
AcDbXrecord
340
0
  0
XRECORD
  5
364
102
{ACAD_REACTORS
330
356
102
}
330
356
100
AcDbXrecord
 70
     0
  0
XRECORD
  5
35A
102
{ACAD_REACTORS
330
356
102
}
330
356
100
AcDbXrecord
  1

  0
XRECORD
  5
357
102
{ACAD_REACTORS
330
356
102
}
330
356
100
AcDbXrecord
 90
        1
  0
XRECORD
  5
358
102
{ACAD_REACTORS
330
356
102
}
330
356
100
AcDbXrecord
 90
       70
  0
XRECORD
  5
36E
102
{ACAD_REACTORS
330
356
102
}
330
356
100
AcDbXrecord
340
0
  0
XRECORD
  5
374
102
{ACAD_REACTORS
330
356
102
}
330
356
100
AcDbXrecord
 10
0.0
 20
0.0
 30
0.0
  0
XRECORD
  5
370
102
{ACAD_REACTORS
330
356
102
}
330
356
100
AcDbXrecord
 10
0.0
 20
0.0
 30
0.0
  0
XRECORD
  5
373
102
{ACAD_REACTORS
330
356
102
}
330
356
100
AcDbXrecord
 10
0.0
 20
0.0
 30
0.0
  0
XRECORD
  5
371
102
{ACAD_REACTORS
330
356
102
}
330
356
100
AcDbXrecord
 10
0.0
 20
0.0
 30
0.0
  0
XRECORD
  5
372
102
{ACAD_REACTORS
330
356
102
}
330
356
100
AcDbXrecord
 10
0.0
 20
0.0
 30
0.0
  0
XRECORD
  5
36F
102
{ACAD_REACTORS
330
356
102
}
330
356
100
AcDbXrecord
 10
0.0
 20
0.0
 30
0.0
  0
XRECORD
  5
36C
102
{ACAD_REACTORS
330
356
102
}
330
356
100
AcDbXrecord
340
0
  0
XRECORD
  5
36D
102
{ACAD_REACTORS
330
356
102
}
330
356
100
AcDbXrecord
 70
     0
  0
XRECORD
  5
361
102
{ACAD_REACTORS
330
356
102
}
330
356
100
AcDbXrecord
  1
{FAEB1C32-E019-11D5-929B-00C0DF256EC4}
  0
DICTIONARYVAR
  5
37B
102
{ACAD_REACTORS
330
376
102
}
330
376
100
DictionaryVariables
280
     0
  1
2
  0
DICTIONARYVAR
  5
37C
102
{ACAD_REACTORS
330
376
102
}
330
376
100
DictionaryVariables
280
     0
  1
1
  0
DICTIONARYVAR
  5
37A
102
{ACAD_REACTORS
330
376
102
}
330
376
100
DictionaryVariables
280
     0
  1
80.000000
  0
DICTIONARYVAR
  5
379
102
{ACAD_REACTORS
330
376
102
}
330
376
100
DictionaryVariables
280
     0
  1
5.000000
  0
DICTIONARY
  5
37F
330
3D
100
AcDbDictionary
280
     1
  3
ACAD_XREC_ROUNDTRIP
360
380
  0
DICTIONARY
  5
37D
330
3C
100
AcDbDictionary
280
     1
  3
ACAD_XREC_ROUNDTRIP
360
37E
  0
DICTIONARY
  5
381
330
3E
100
AcDbDictionary
280
     1
  3
ACAD_XREC_ROUNDTRIP
360
382
  0
XRECORD
  5
380
102
{ACAD_REACTORS
330
37F
102
}
330
37F
100
AcDbXrecord
102
MATERIAL
148
0.0
149
0.0
149
0.0
 93
        0
 94
      127
282
     0
 72
     1
 77
     1
171
     1
175
     1
179
     1
273
     0
  0
XRECORD
  5
37E
102
{ACAD_REACTORS
330
37D
102
}
330
37D
100
AcDbXrecord
102
MATERIAL
148
0.0
149
0.0
149
0.0
 93
        0
 94
      127
282
     0
 72
     1
 77
     1
171
     1
175
     1
179
     1
273
     0
  0
XRECORD
  5
382
102
{ACAD_REACTORS
330
381
102
}
330
381
100
AcDbXrecord
102
MATERIAL
148
0.0
149
0.0
149
0.0
 93
        0
 94
      127
282
     0
 72
     1
 77
     1
171
     1
175
     1
179
     1
273
     0
  0
ENDSEC
  0
EOF
