  0
SECTION
  2
HEADER
  9
$ACADVER
  1
AC1014
  9
$ACADMAINTVER
 70
     9
  9
$DWGCODEPAGE
  3
ANSI_932
  9
$INSBASE
 10
0.0
 20
0.0
 30
0.0
  9
$EXTMIN
 10
16.0
 20
9.999999999999991
 30
0.0
  9
$EXTMAX
 10
198.0000000000001
 20
286.0
 30
0.0
  9
$LIMMIN
 10
0.0
 20
0.0
  9
$LIMMAX
 10
210.0
 20
297.0
  9
$ORTHOMODE
 70
     0
  9
$REGENMODE
 70
     1
  9
$FILLMODE
 70
     1
  9
$QTEXTMODE
 70
     0
  9
$MIRRTEXT
 70
     1
  9
$DRAGMODE
 70
     2
  9
$LTSCALE
 40
1.0
  9
$OSMODE
 70
    37
  9
$ATTMODE
 70
     1
  9
$TEXTSIZE
 40
2.5
  9
$TRACEWID
 40
1.0
  9
$TEXTSTYLE
  7
STANDARD
  9
$CLAYER
  8
図
  9
$CELTYPE
  6
BYLAYER
  9
$CECOLOR
 62
   256
  9
$CELTSCALE
 40
1.0
  9
$DELOBJ
 70
     1
  9
$DISPSILH
 70
     0
  9
$DIMSCALE
 40
1.0
  9
$DIMASZ
 40
2.5
  9
$DIMEXO
 40
0.625
  9
$DIMDLI
 40
3.75
  9
$DIMRND
 40
0.0
  9
$DIMDLE
 40
0.0
  9
$DIMEXE
 40
1.25
  9
$DIMTP
 40
0.0
  9
$DIMTM
 40
0.0
  9
$DIMTXT
 40
2.5
  9
$DIMCEN
 40
2.5
  9
$DIMTSZ
 40
0.0
  9
$DIMTOL
 70
     0
  9
$DIMLIM
 70
     0
  9
$DIMTIH
 70
     0
  9
$DIMTOH
 70
     0
  9
$DIMSE1
 70
     0
  9
$DIMSE2
 70
     0
  9
$DIMTAD
 70
     1
  9
$DIMZIN
 70
     8
  9
$DIMBLK
  1

  9
$DIMASO
 70
     1
  9
$DIMSHO
 70
     1
  9
$DIMPOST
  1

  9
$DIMAPOST
  1

  9
$DIMALT
 70
     0
  9
$DIMALTD
 70
     3
  9
$DIMALTF
 40
0.03937007874016
  9
$DIMLFAC
 40
1.0
  9
$DIMTOFL
 70
     1
  9
$DIMTVP
 40
0.0
  9
$DIMTIX
 70
     0
  9
$DIMSOXD
 70
     0
  9
$DIMSAH
 70
     0
  9
$DIMBLK1
  1

  9
$DIMBLK2
  1

  9
$DIMSTYLE
  2
ISO-25
  9
$DIMCLRD
 70
     0
  9
$DIMCLRE
 70
     0
  9
$DIMCLRT
 70
     0
  9
$DIMTFAC
 40
1.0
  9
$DIMGAP
 40
0.625
  9
$DIMJUST
 70
     0
  9
$DIMSD1
 70
     0
  9
$DIMSD2
 70
     0
  9
$DIMTOLJ
 70
     0
  9
$DIMTZIN
 70
     8
  9
$DIMALTZ
 70
     0
  9
$DIMALTTZ
 70
     0
  9
$DIMFIT
 70
     3
  9
$DIMUPT
 70
     0
  9
$DIMUNIT
 70
     2
  9
$DIMDEC
 70
     2
  9
$DIMTDEC
 70
     2
  9
$DIMALTU
 70
     2
  9
$DIMALTTD
 70
     3
  9
$DIMTXSTY
  7
STANDARD
  9
$DIMAUNIT
 70
     0
  9
$LUNITS
 70
     2
  9
$LUPREC
 70
     4
  9
$SKETCHINC
 40
1.0
  9
$FILLETRAD
 40
10.0
  9
$AUNITS
 70
     0
  9
$AUPREC
 70
     0
  9
$MENU
  1
.
  9
$ELEVATION
 40
0.0
  9
$PELEVATION
 40
0.0
  9
$THICKNESS
 40
0.0
  9
$LIMCHECK
 70
     0
  9
$CHAMFERA
 40
10.0
  9
$CHAMFERB
 40
10.0
  9
$CHAMFERC
 40
20.0
  9
$CHAMFERD
 40
0.0
  9
$SKPOLY
 70
     0
  9
$TDCREATE
 40
2460826.460401887
  9
$TDUPDATE
 40
2460826.460402245
  9
$TDINDWG
 40
0.0000000116
  9
$TDUSRTIMER
 40
0.0000000116
  9
$USRTIMER
 70
     1
  9
$ANGBASE
 50
0.0
  9
$ANGDIR
 70
     0
  9
$PDMODE
 70
     0
  9
$PDSIZE
 40
0.0
  9
$PLINEWID
 40
0.0
  9
$COORDS
 70
     1
  9
$SPLFRAME
 70
     0
  9
$SPLINETYPE
 70
     6
  9
$SPLINESEGS
 70
     8
  9
$ATTDIA
 70
     0
  9
$ATTREQ
 70
     1
  9
$HANDLING
 70
     1
  9
$HANDSEED
  5
40E
  9
$SURFTAB1
 70
     6
  9
$SURFTAB2
 70
     6
  9
$SURFTYPE
 70
     6
  9
$SURFU
 70
     6
  9
$SURFV
 70
     6
  9
$UCSNAME
  2

  9
$UCSORG
 10
0.0
 20
0.0
 30
0.0
  9
$UCSXDIR
 10
1.0
 20
0.0
 30
0.0
  9
$UCSYDIR
 10
0.0
 20
1.0
 30
0.0
  9
$PUCSNAME
  2

  9
$PUCSORG
 10
0.0
 20
0.0
 30
0.0
  9
$PUCSXDIR
 10
1.0
 20
0.0
 30
0.0
  9
$PUCSYDIR
 10
0.0
 20
1.0
 30
0.0
  9
$USERI1
 70
     0
  9
$USERI2
 70
     0
  9
$USERI3
 70
     0
  9
$USERI4
 70
     0
  9
$USERI5
 70
     0
  9
$USERR1
 40
0.0
  9
$USERR2
 40
0.0
  9
$USERR3
 40
0.0
  9
$USERR4
 40
0.0
  9
$USERR5
 40
0.0
  9
$WORLDVIEW
 70
     1
  9
$SHADEDGE
 70
     3
  9
$SHADEDIF
 70
    70
  9
$TILEMODE
 70
     1
  9
$MAXACTVP
 70
    64
  9
$PINSBASE
 10
0.0
 20
0.0
 30
0.0
  9
$PLIMCHECK
 70
     0
  9
$PEXTMIN
 10
1.000000000000000E+20
 20
1.000000000000000E+20
 30
1.000000000000000E+20
  9
$PEXTMAX
 10
-1.000000000000000E+20
 20
-1.000000000000000E+20
 30
-1.000000000000000E+20
  9
$PLIMMIN
 10
0.0
 20
0.0
  9
$PLIMMAX
 10
420.0
 20
297.0
  9
$UNITMODE
 70
     0
  9
$VISRETAIN
 70
     1
  9
$PLINEGEN
 70
     0
  9
$PSLTSCALE
 70
     1
  9
$TREEDEPTH
 70
  3020
  9
$PICKSTYLE
 70
     1
  9
$CMLSTYLE
  2
STANDARD
  9
$CMLJUST
 70
     0
  9
$CMLSCALE
 40
20.0
  9
$PROXYGRAPHICS
 70
     1
  9
$MEASUREMENT
 70
     1
  0
ENDSEC
  0
SECTION
  2
CLASSES
  0
CLASS
  1
ACDBDICTIONARYWDFLT
  2
AcDbDictionaryWithDefault
  3
ObjectDBX Classes
 90
        0
280
     0
281
     0
  0
CLASS
  1
VISUALSTYLE
  2
AcDbVisualStyle
  3
ObjectDBX Classes
 90
     4095
280
     0
281
     0
  0
CLASS
  1
MATERIAL
  2
AcDbMaterial
  3
ObjectDBX Classes
 90
     1153
280
     0
281
     0
  0
CLASS
  1
SUN
  2
AcDbSun
  3
SCENEOE
 90
     1024
280
     0
281
     0
  0
CLASS
  1
DICTIONARYVAR
  2
AcDbDictionaryVar
  3
ObjectDBX Classes
 90
        0
280
     0
281
     0
  0
CLASS
  1
XRECORD
  2
AcDbXrecord
  3
AutoCAD 2000
 90
        0
280
     0
281
     0
  0
CLASS
  1
LWPOLYLINE
  2
AcDbPolyline
  3
AutoCAD 2000
 90
        0
280
     0
281
     1
  0
CLASS
  1
HATCH
  2
AcDbHatch
  3
AutoCAD 2000
 90
        0
280
     0
281
     1
  0
CLASS
  1
ACDBPLACEHOLDER
  2
AcDbPlaceHolder
  3
ObjectDBX Classes
 90
        0
280
     0
281
     0
  0
CLASS
  1
LAYOUT
  2
AcDbLayout
  3
ObjectDBX Classes
 90
        0
280
     0
281
     0
  0
ENDSEC
  0
SECTION
  2
TABLES
  0
TABLE
  2
VPORT
  5
8
330
0
100
AcDbSymbolTable
 70
     1
  0
VPORT
  5
29
330
8
100
AcDbSymbolTableRecord
100
AcDbViewportTableRecord
  2
*ACTIVE
 70
     0
 10
0.0
 20
0.0
 11
1.0
 21
1.0
 12
214.0000000000001
 22
296.0
 13
0.0
 23
0.0
 14
10.0
 24
10.0
 15
10.0
 25
10.0
 16
0.0
 26
0.0
 36
1.0
 17
0.0
 27
0.0
 37
0.0
 40
552.0
 41
0.6594202898550727
 42
50.0
 43
0.0
 44
0.0
 50
0.0
 51
0.0
 71
     0
 72
  1000
 73
     1
 74
     3
 75
     0
 76
     0
 77
     0
 78
     0
  0
ENDTAB
  0
TABLE
  2
LTYPE
  5
5
330
0
100
AcDbSymbolTable
 70
     9
  0
LTYPE
  5
14
330
5
100
AcDbSymbolTableRecord
100
AcDbLinetypeTableRecord
  2
BYBLOCK
 70
     0
  3

 72
    65
 73
     0
 40
0.0
  0
LTYPE
  5
15
330
5
100
AcDbSymbolTableRecord
100
AcDbLinetypeTableRecord
  2
BYLAYER
 70
     0
  3

 72
    65
 73
     0
 40
0.0
  0
LTYPE
  5
16
330
5
100
AcDbSymbolTableRecord
100
AcDbLinetypeTableRecord
  2
CONTINUOUS
 70
     0
  3
Solid line
 72
    65
 73
     0
 40
0.0
  0
LTYPE
  5
40
330
5
100
AcDbSymbolTableRecord
100
AcDbLinetypeTableRecord
  2
EXLTYPE1
 70
     0
  3
破線
 72
    65
 73
     2
 40
3.0
 49
2.0
 74
     0
 49
-1.0
 74
     0
  0
LTYPE
  5
41
330
5
100
AcDbSymbolTableRecord
100
AcDbLinetypeTableRecord
  2
EXLTYPE2
 70
     0
  3
点線
 72
    65
 73
     2
 40
2.0
 49
1.0
 74
     0
 49
-1.0
 74
     0
  0
LTYPE
  5
42
330
5
100
AcDbSymbolTableRecord
100
AcDbLinetypeTableRecord
  2
EXLTYPE3
 70
     0
  3
一点鎖線
 72
    65
 73
     4
 40
10.0
 49
7.0
 74
     0
 49
-1.0
 74
     0
 49
1.0
 74
     0
 49
-1.0
 74
     0
  0
LTYPE
  5
43
330
5
100
AcDbSymbolTableRecord
100
AcDbLinetypeTableRecord
  2
EXLTYPE4
 70
     0
  3
二点鎖線
 72
    65
 73
     6
 40
12.0
 49
7.0
 74
     0
 49
-1.0
 74
     0
 49
1.0
 74
     0
 49
-1.0
 74
     0
 49
1.0
 74
     0
 49
-1.0
 74
     0
  0
LTYPE
  5
44
330
5
100
AcDbSymbolTableRecord
100
AcDbLinetypeTableRecord
  2
EXLTYPE5
 70
     0
  3
三点鎖線
 72
    65
 73
     8
 40
37.0
 49
30.0
 74
     0
 49
-1.0
 74
     0
 49
1.0
 74
     0
 49
-1.0
 74
     0
 49
1.0
 74
     0
 49
-1.0
 74
     0
 49
1.0
 74
     0
 49
-1.0
 74
     0
  0
LTYPE
  5
45
330
5
100
AcDbSymbolTableRecord
100
AcDbLinetypeTableRecord
  2
EXLTYPE6
 70
     0
  3
四点鎖線
 72
    65
 73
    10
 40
39.0
 49
30.0
 74
     0
 49
-1.0
 74
     0
 49
1.0
 74
     0
 49
-1.0
 74
     0
 49
1.0
 74
     0
 49
-1.0
 74
     0
 49
1.0
 74
     0
 49
-1.0
 74
     0
 49
1.0
 74
     0
 49
-1.0
 74
     0
  0
LTYPE
  5
46
330
5
100
AcDbSymbolTableRecord
100
AcDbLinetypeTableRecord
  2
EXLTYPE7
 70
     0
  3
一点鎖線2
 72
    65
 73
     4
 40
0.5625
 49
0.375
 74
     0
 49
-0.0625
 74
     0
 49
0.0625
 74
     0
 49
-0.0625
 74
     0
  0
LTYPE
  5
47
330
5
100
AcDbSymbolTableRecord
100
AcDbLinetypeTableRecord
  2
EXLTYPE8
 70
     0
  3
破線2
 72
    65
 73
     2
 40
3.15
 49
2.1
 74
     0
 49
-1.05
 74
     0
  0
ENDTAB
  0
TABLE
  2
LAYER
  5
2
330
0
100
AcDbSymbolTable
 70
     5
  0
LAYER
  5
10
330
2
100
AcDbSymbolTableRecord
100
AcDbLayerTableRecord
  2
0
 70
     0
 62
     7
  6
CONTINUOUS
  0
LAYER
  5
4A
330
2
100
AcDbSymbolTableRecord
100
AcDbLayerTableRecord
  2
枠_表
 70
     0
 62
     7
  6
CONTINUOUS
  0
LAYER
  5
4B
330
2
100
AcDbSymbolTableRecord
100
AcDbLayerTableRecord
  2
図
 70
     0
 62
     7
  6
CONTINUOUS
  0
LAYER
  5
4C
330
2
100
AcDbSymbolTableRecord
100
AcDbLayerTableRecord
  2
寸法
 70
     0
 62
     7
  6
CONTINUOUS
  0
LAYER
  5
1E5
330
2
100
AcDbSymbolTableRecord
100
AcDbLayerTableRecord
  2
DEFPOINTS
 70
     0
 62
     7
  6
CONTINUOUS
  0
ENDTAB
  0
TABLE
  2
STYLE
  5
3
330
0
100
AcDbSymbolTable
 70
     5
  0
STYLE
  5
11
330
3
100
AcDbSymbolTableRecord
100
AcDbTextStyleTableRecord
  2
STANDARD
 70
     0
 40
0.0
 41
1.0
 50
0.0
 71
     0
 42
2.5
  3
monotxt
  4
extfont
  0
STYLE
  5
48
330
3
100
AcDbSymbolTableRecord
100
AcDbTextStyleTableRecord
  2
EXCADSTD
 70
     0
 40
0.0
 41
1.0
 50
0.0
 71
     0
 42
0.2
  3
monotxt
  4
extfont
  0
STYLE
  5
49
330
3
100
AcDbSymbolTableRecord
100
AcDbTextStyleTableRecord
  2
EXCADVERT
 70
     4
 40
0.0
 41
1.0
 50
0.0
 71
     0
 42
0.286885
  3
monotxt
  4
extfont
  0
STYLE
  5
113
330
3
100
AcDbSymbolTableRecord
100
AcDbTextStyleTableRecord
  2
EXCADTTF1
 70
     0
 40
0.0
 41
1.0
 50
0.0
 71
     0
 42
0.2
  3
MSGOTHIC.TTC
  4

1001
ACAD
1000
MS Gothic
1071
    32817
  0
STYLE
  5
1E3
330
3
100
AcDbSymbolTableRecord
100
AcDbTextStyleTableRecord
  2
EXCADDIM1
 70
     0
 40
0.0
 41
0.84
 50
0.0
 71
     0
 42
0.2
  3
monotxt
  4
extfont
  0
ENDTAB
  0
TABLE
  2
VIEW
  5
6
330
0
100
AcDbSymbolTable
 70
     0
  0
ENDTAB
  0
TABLE
  2
UCS
  5
7
330
0
100
AcDbSymbolTable
 70
     0
  0
ENDTAB
  0
TABLE
  2
APPID
  5
9
330
0
100
AcDbSymbolTable
 70
     1
  0
APPID
  5
12
330
9
100
AcDbSymbolTableRecord
100
AcDbRegAppTableRecord
  2
ACAD
 70
     0
  0
ENDTAB
  0
TABLE
  2
DIMSTYLE
  5
A
330
0
100
AcDbSymbolTable
 70
     1
  0
DIMSTYLE
105
27
102
{ACAD_REACTORS
330
1E4
330
240
330
383
330
38E
330
39A
330
3A6
330
3B3
330
3C0
330
3CD
102
}
330
A
100
AcDbSymbolTableRecord
100
AcDbDimStyleTableRecord
  2
ISO-25
 70
     0
  3

  4

  5

  6

  7

 40
1.0
 41
2.5
 42
0.625
 43
3.75
 44
1.25
 45
0.0
 46
0.0
 47
0.0
 48
0.0
140
2.5
141
2.5
142
0.0
143
0.03937007874016
144
1.0
145
0.0
146
1.0
147
0.625
 71
     0
 72
     0
 73
     0
 74
     0
 75
     0
 76
     0
 77
     1
 78
     8
170
     0
171
     3
172
     1
173
     0
174
     0
175
     0
176
     0
177
     0
178
     0
270
     2
271
     2
272
     2
273
     2
274
     3
340
11
275
     0
280
     0
281
     0
282
     0
283
     0
284
     8
285
     0
286
     0
287
     5
288
     0
  0
ENDTAB
  0
TABLE
  2
BLOCK_RECORD
  5
1
330
0
100
AcDbSymbolTable
 70
    24
  0
BLOCK_RECORD
  5
1F
330
1
100
AcDbSymbolTableRecord
100
AcDbBlockTableRecord
  2
*MODEL_SPACE
  0
BLOCK_RECORD
  5
1B
330
1
100
AcDbSymbolTableRecord
100
AcDbBlockTableRecord
  2
*PAPER_SPACE
  0
BLOCK_RECORD
  5
4D
330
1
100
AcDbSymbolTableRecord
100
AcDbBlockTableRecord
  2
EX_NORM
  0
BLOCK_RECORD
  5
50
330
1
100
AcDbSymbolTableRecord
100
AcDbBlockTableRecord
  2
EX_BNORM
  0
BLOCK_RECORD
  5
53
330
1
100
AcDbSymbolTableRecord
100
AcDbBlockTableRecord
  2
EX_BCIR
  0
BLOCK_RECORD
  5
56
330
1
100
AcDbSymbolTableRecord
100
AcDbBlockTableRecord
  2
EX_RCIVIL
  0
BLOCK_RECORD
  5
59
330
1
100
AcDbSymbolTableRecord
100
AcDbBlockTableRecord
  2
EX_SLANT
  0
BLOCK_RECORD
  5
5C
330
1
100
AcDbSymbolTableRecord
100
AcDbBlockTableRecord
  2
EX_NONE
  0
BLOCK_RECORD
  5
5F
330
1
100
AcDbSymbolTableRecord
100
AcDbBlockTableRecord
  2
EX_CIVIL
  0
BLOCK_RECORD
  5
62
330
1
100
AcDbSymbolTableRecord
100
AcDbBlockTableRecord
  2
EX_WCIR
  0
BLOCK_RECORD
  5
65
330
1
100
AcDbSymbolTableRecord
100
AcDbBlockTableRecord
  2
EX_WCIR2
  0
BLOCK_RECORD
  5
68
330
1
100
AcDbSymbolTableRecord
100
AcDbBlockTableRecord
  2
EX_WNORM
  0
BLOCK_RECORD
  5
6B
330
1
100
AcDbSymbolTableRecord
100
AcDbBlockTableRecord
  2
EX_NNORM
  0
BLOCK_RECORD
  5
6E
330
1
100
AcDbSymbolTableRecord
100
AcDbBlockTableRecord
  2
EX_BBOX
  0
BLOCK_RECORD
  5
71
330
1
100
AcDbSymbolTableRecord
100
AcDbBlockTableRecord
  2
EX_WBOX
  0
BLOCK_RECORD
  5
74
330
1
100
AcDbSymbolTableRecord
100
AcDbBlockTableRecord
  2
EX_INTEGRAL
  0
BLOCK_RECORD
  5
1E6
330
1
100
AcDbSymbolTableRecord
100
AcDbBlockTableRecord
  2
*D15
  0
BLOCK_RECORD
  5
241
330
1
100
AcDbSymbolTableRecord
100
AcDbBlockTableRecord
  2
*D16
  0
BLOCK_RECORD
  5
384
330
1
100
AcDbSymbolTableRecord
100
AcDbBlockTableRecord
  2
*D17
  0
BLOCK_RECORD
  5
38F
330
1
100
AcDbSymbolTableRecord
100
AcDbBlockTableRecord
  2
*D18
  0
BLOCK_RECORD
  5
39B
330
1
100
AcDbSymbolTableRecord
100
AcDbBlockTableRecord
  2
*D19
  0
BLOCK_RECORD
  5
3A7
330
1
100
AcDbSymbolTableRecord
100
AcDbBlockTableRecord
  2
*D20
  0
BLOCK_RECORD
  5
3B4
330
1
100
AcDbSymbolTableRecord
100
AcDbBlockTableRecord
  2
*D21
  0
BLOCK_RECORD
  5
3C1
330
1
100
AcDbSymbolTableRecord
100
AcDbBlockTableRecord
  2
*D22
  0
BLOCK_RECORD
  5
3CE
330
1
100
AcDbSymbolTableRecord
100
AcDbBlockTableRecord
  2
*D23
  0
ENDTAB
  0
ENDSEC
  0
SECTION
  2
BLOCKS
  0
BLOCK
  5
20
330
1F
100
AcDbEntity
  8
0
100
AcDbBlockBegin
  2
*MODEL_SPACE
 70
     0
 10
0.0
 20
0.0
 30
0.0
  3
*MODEL_SPACE
  1

  0
ENDBLK
  5
21
330
1F
100
AcDbEntity
  8
0
100
AcDbBlockEnd
  0
BLOCK
  5
1C
330
1B
100
AcDbEntity
 67
     1
  8
0
100
AcDbBlockBegin
  2
*PAPER_SPACE
 70
     0
 10
0.0
 20
0.0
 30
0.0
  3
*PAPER_SPACE
  1

  0
ENDBLK
  5
1D
330
1B
100
AcDbEntity
 67
     1
  8
0
100
AcDbBlockEnd
  0
BLOCK
  5
4E
330
4D
100
AcDbEntity
  8
0
100
AcDbBlockBegin
  2
EX_NORM
 70
     0
 10
0.0
 20
0.0
 30
0.0
  3
EX_NORM
  1

  0
LINE
  5
77
330
4D
100
AcDbEntity
  8
0
  6
CONTINUOUS
 62
     0
100
AcDbLine
 10
0.0
 20
0.0
 30
0.0
 11
-1.0
 21
0.0
 31
0.0
  0
LINE
  5
78
330
4D
100
AcDbEntity
  8
0
  6
CONTINUOUS
 62
     0
100
AcDbLine
 10
0.0
 20
0.0
 30
0.0
 11
-1.0
 21
0.166666667
 31
0.0
  0
LINE
  5
79
330
4D
100
AcDbEntity
  8
0
  6
CONTINUOUS
 62
     0
100
AcDbLine
 10
0.0
 20
0.0
 30
0.0
 11
-1.0
 21
-0.166666667
 31
0.0
  0
ENDBLK
  5
4F
330
4D
100
AcDbEntity
  8
0
100
AcDbBlockEnd
  0
BLOCK
  5
51
330
50
100
AcDbEntity
  8
0
100
AcDbBlockBegin
  2
EX_BNORM
 70
     0
 10
0.0
 20
0.0
 30
0.0
  3
EX_BNORM
  1

  0
LINE
  5
7A
330
50
100
AcDbEntity
  8
0
  6
CONTINUOUS
 62
     0
100
AcDbLine
 10
0.0
 20
0.0
 30
0.0
 11
-1.0
 21
0.0
 31
0.0
  0
LINE
  5
7B
330
50
100
AcDbEntity
  8
0
  6
CONTINUOUS
 62
     0
100
AcDbLine
 10
0.0
 20
0.0
 30
0.0
 11
-1.0
 21
0.166666667
 31
0.0
  0
LINE
  5
7C
330
50
100
AcDbEntity
  8
0
  6
CONTINUOUS
 62
     0
100
AcDbLine
 10
0.0
 20
0.0
 30
0.0
 11
-1.0
 21
-0.166666667
 31
0.0
  0
LINE
  5
7D
330
50
100
AcDbEntity
  8
0
  6
CONTINUOUS
 62
     0
100
AcDbLine
 10
0.0
 20
0.0
 30
0.0
 11
-1.0
 21
0.083333333
 31
0.0
  0
LINE
  5
7E
330
50
100
AcDbEntity
  8
0
  6
CONTINUOUS
 62
     0
100
AcDbLine
 10
0.0
 20
0.0
 30
0.0
 11
-1.0
 21
-0.083333333
 31
0.0
  0
LINE
  5
7F
330
50
100
AcDbEntity
  8
0
  6
CONTINUOUS
 62
     0
100
AcDbLine
 10
-1.0
 20
0.166666667
 30
0.0
 11
-1.0
 21
-0.166666667
 31
0.0
  0
ENDBLK
  5
52
330
50
100
AcDbEntity
  8
0
100
AcDbBlockEnd
  0
BLOCK
  5
54
330
53
100
AcDbEntity
  8
0
100
AcDbBlockBegin
  2
EX_BCIR
 70
     0
 10
0.0
 20
0.0
 30
0.0
  3
EX_BCIR
  1

  0
LINE
  5
80
330
53
100
AcDbEntity
  8
0
  6
CONTINUOUS
 62
     0
100
AcDbLine
 10
0.0
 20
0.0
 30
0.0
 11
-1.0
 21
0.0
 31
0.0
  0
CIRCLE
  5
81
330
53
100
AcDbEntity
  8
0
  6
CONTINUOUS
 62
     0
100
AcDbCircle
 10
0.0
 20
0.0
 30
0.0
 40
0.5
  0
CIRCLE
  5
82
330
53
100
AcDbEntity
  8
0
  6
CONTINUOUS
 62
     0
100
AcDbCircle
 10
0.0
 20
0.0
 30
0.0
 40
0.25
  0
ENDBLK
  5
55
330
53
100
AcDbEntity
  8
0
100
AcDbBlockEnd
  0
BLOCK
  5
57
330
56
100
AcDbEntity
  8
0
100
AcDbBlockBegin
  2
EX_RCIVIL
 70
     0
 10
0.0
 20
0.0
 30
0.0
  3
EX_RCIVIL
  1

  0
LINE
  5
83
330
56
100
AcDbEntity
  8
0
  6
CONTINUOUS
 62
     0
100
AcDbLine
 10
0.0
 20
0.0
 30
0.0
 11
-1.0
 21
0.0
 31
0.0
  0
LINE
  5
84
330
56
100
AcDbEntity
  8
0
  6
CONTINUOUS
 62
     0
100
AcDbLine
 10
-1.0
 20
-0.25
 30
0.0
 11
0.0
 21
-0.25
 31
0.0
  0
LINE
  5
85
330
56
100
AcDbEntity
  8
0
  6
CONTINUOUS
 62
     0
100
AcDbLine
 10
-1.0
 20
-0.125
 30
0.0
 11
0.0
 21
-0.125
 31
0.0
  0
ENDBLK
  5
58
330
56
100
AcDbEntity
  8
0
100
AcDbBlockEnd
  0
BLOCK
  5
5A
330
59
100
AcDbEntity
  8
0
100
AcDbBlockBegin
  2
EX_SLANT
 70
     0
 10
0.0
 20
0.0
 30
0.0
  3
EX_SLANT
  1

  0
LINE
  5
86
330
59
100
AcDbEntity
  8
0
  6
CONTINUOUS
 62
     0
100
AcDbLine
 10
0.0
 20
0.0
 30
0.0
 11
-1.0
 21
0.0
 31
0.0
  0
LINE
  5
87
330
59
100
AcDbEntity
  8
0
  6
CONTINUOUS
 62
     0
100
AcDbLine
 10
0.707106781
 20
0.707106781
 30
0.0
 11
-0.707106781
 21
-0.707106781
 31
0.0
  0
ENDBLK
  5
5B
330
59
100
AcDbEntity
  8
0
100
AcDbBlockEnd
  0
BLOCK
  5
5D
330
5C
100
AcDbEntity
  8
0
100
AcDbBlockBegin
  2
EX_NONE
 70
     0
 10
0.0
 20
0.0
 30
0.0
  3
EX_NONE
  1

  0
LINE
  5
88
330
5C
100
AcDbEntity
  8
0
  6
CONTINUOUS
 62
     0
100
AcDbLine
 10
0.0
 20
0.0
 30
0.0
 11
-1.0
 21
0.0
 31
0.0
  0
ENDBLK
  5
5E
330
5C
100
AcDbEntity
  8
0
100
AcDbBlockEnd
  0
BLOCK
  5
60
330
5F
100
AcDbEntity
  8
0
100
AcDbBlockBegin
  2
EX_CIVIL
 70
     0
 10
0.0
 20
0.0
 30
0.0
  3
EX_CIVIL
  1

  0
LINE
  5
89
330
5F
100
AcDbEntity
  8
0
  6
CONTINUOUS
 62
     0
100
AcDbLine
 10
0.0
 20
0.0
 30
0.0
 11
-1.0
 21
0.0
 31
0.0
  0
LINE
  5
8A
330
5F
100
AcDbEntity
  8
0
  6
CONTINUOUS
 62
     0
100
AcDbLine
 10
-1.0
 20
0.25
 30
0.0
 11
0.0
 21
0.25
 31
0.0
  0
LINE
  5
8B
330
5F
100
AcDbEntity
  8
0
  6
CONTINUOUS
 62
     0
100
AcDbLine
 10
-1.0
 20
0.125
 30
0.0
 11
0.0
 21
0.125
 31
0.0
  0
ENDBLK
  5
61
330
5F
100
AcDbEntity
  8
0
100
AcDbBlockEnd
  0
BLOCK
  5
63
330
62
100
AcDbEntity
  8
0
100
AcDbBlockBegin
  2
EX_WCIR
 70
     0
 10
0.0
 20
0.0
 30
0.0
  3
EX_WCIR
  1

  0
LINE
  5
8C
330
62
100
AcDbEntity
  8
0
  6
CONTINUOUS
 62
     0
100
AcDbLine
 10
0.0
 20
0.0
 30
0.0
 11
-1.0
 21
0.0
 31
0.0
  0
CIRCLE
  5
8D
330
62
100
AcDbEntity
  8
0
  6
CONTINUOUS
 62
     0
100
AcDbCircle
 10
0.0
 20
0.0
 30
0.0
 40
0.5
  0
ENDBLK
  5
64
330
62
100
AcDbEntity
  8
0
100
AcDbBlockEnd
  0
BLOCK
  5
66
330
65
100
AcDbEntity
  8
0
100
AcDbBlockBegin
  2
EX_WCIR2
 70
     0
 10
0.0
 20
0.0
 30
0.0
  3
EX_WCIR2
  1

  0
LINE
  5
8E
330
65
100
AcDbEntity
  8
0
  6
CONTINUOUS
 62
     0
100
AcDbLine
 10
-0.5
 20
0.0
 30
0.0
 11
-1.0
 21
0.0
 31
0.0
  0
CIRCLE
  5
8F
330
65
100
AcDbEntity
  8
0
  6
CONTINUOUS
 62
     0
100
AcDbCircle
 10
0.0
 20
0.0
 30
0.0
 40
0.5
  0
ENDBLK
  5
67
330
65
100
AcDbEntity
  8
0
100
AcDbBlockEnd
  0
BLOCK
  5
69
330
68
100
AcDbEntity
  8
0
100
AcDbBlockBegin
  2
EX_WNORM
 70
     0
 10
0.0
 20
0.0
 30
0.0
  3
EX_WNORM
  1

  0
LINE
  5
90
330
68
100
AcDbEntity
  8
0
  6
CONTINUOUS
 62
     0
100
AcDbLine
 10
-1.0
 20
0.0
 30
0.0
 11
-1.0
 21
0.0
 31
0.0
  0
LINE
  5
91
330
68
100
AcDbEntity
  8
0
  6
CONTINUOUS
 62
     0
100
AcDbLine
 10
0.0
 20
0.0
 30
0.0
 11
-1.0
 21
0.166666667
 31
0.0
  0
LINE
  5
92
330
68
100
AcDbEntity
  8
0
  6
CONTINUOUS
 62
     0
100
AcDbLine
 10
0.0
 20
0.0
 30
0.0
 11
-1.0
 21
-0.166666667
 31
0.0
  0
LINE
  5
93
330
68
100
AcDbEntity
  8
0
  6
CONTINUOUS
 62
     0
100
AcDbLine
 10
-1.0
 20
0.166666667
 30
0.0
 11
-1.0
 21
-0.166666667
 31
0.0
  0
ENDBLK
  5
6A
330
68
100
AcDbEntity
  8
0
100
AcDbBlockEnd
  0
BLOCK
  5
6C
330
6B
100
AcDbEntity
  8
0
100
AcDbBlockBegin
  2
EX_NNORM
 70
     0
 10
0.0
 20
0.0
 30
0.0
  3
EX_NNORM
  1

  0
LINE
  5
94
330
6B
100
AcDbEntity
  8
0
  6
CONTINUOUS
 62
     0
100
AcDbLine
 10
0.0
 20
0.0
 30
0.0
 11
-1.0
 21
0.0
 31
0.0
  0
LINE
  5
95
330
6B
100
AcDbEntity
  8
0
  6
CONTINUOUS
 62
     0
100
AcDbLine
 10
0.0
 20
0.0
 30
0.0
 11
-1.0
 21
0.166666667
 31
0.0
  0
LINE
  5
96
330
6B
100
AcDbEntity
  8
0
  6
CONTINUOUS
 62
     0
100
AcDbLine
 10
0.0
 20
0.0
 30
0.0
 11
-1.0
 21
-0.166666667
 31
0.0
  0
LINE
  5
97
330
6B
100
AcDbEntity
  8
0
  6
CONTINUOUS
 62
     0
100
AcDbLine
 10
-1.0
 20
0.166666667
 30
0.0
 11
-1.0
 21
-0.166666667
 31
0.0
  0
ENDBLK
  5
6D
330
6B
100
AcDbEntity
  8
0
100
AcDbBlockEnd
  0
BLOCK
  5
6F
330
6E
100
AcDbEntity
  8
0
100
AcDbBlockBegin
  2
EX_BBOX
 70
     0
 10
0.0
 20
0.0
 30
0.0
  3
EX_BBOX
  1

  0
LINE
  5
98
330
6E
100
AcDbEntity
  8
0
  6
CONTINUOUS
 62
     0
100
AcDbLine
 10
0.0
 20
0.0
 30
0.0
 11
-1.0
 21
0.0
 31
0.0
  0
LINE
  5
99
330
6E
100
AcDbEntity
  8
0
  6
CONTINUOUS
 62
     0
100
AcDbLine
 10
-0.5
 20
0.5
 30
0.0
 11
0.5
 21
0.5
 31
0.0
  0
LINE
  5
9A
330
6E
100
AcDbEntity
  8
0
  6
CONTINUOUS
 62
     0
100
AcDbLine
 10
0.5
 20
0.5
 30
0.0
 11
0.5
 21
-0.5
 31
0.0
  0
LINE
  5
9B
330
6E
100
AcDbEntity
  8
0
  6
CONTINUOUS
 62
     0
100
AcDbLine
 10
0.5
 20
-0.5
 30
0.0
 11
-0.5
 21
-0.5
 31
0.0
  0
LINE
  5
9C
330
6E
100
AcDbEntity
  8
0
  6
CONTINUOUS
 62
     0
100
AcDbLine
 10
-0.5
 20
-0.5
 30
0.0
 11
-0.5
 21
0.5
 31
0.0
  0
LINE
  5
9D
330
6E
100
AcDbEntity
  8
0
  6
CONTINUOUS
 62
     0
100
AcDbLine
 10
-0.25
 20
0.25
 30
0.0
 11
0.25
 21
0.25
 31
0.0
  0
LINE
  5
9E
330
6E
100
AcDbEntity
  8
0
  6
CONTINUOUS
 62
     0
100
AcDbLine
 10
0.25
 20
0.25
 30
0.0
 11
0.25
 21
-0.25
 31
0.0
  0
LINE
  5
9F
330
6E
100
AcDbEntity
  8
0
  6
CONTINUOUS
 62
     0
100
AcDbLine
 10
0.25
 20
-0.25
 30
0.0
 11
-0.25
 21
-0.25
 31
0.0
  0
LINE
  5
A0
330
6E
100
AcDbEntity
  8
0
  6
CONTINUOUS
 62
     0
100
AcDbLine
 10
-0.25
 20
-0.25
 30
0.0
 11
-0.25
 21
0.25
 31
0.0
  0
ENDBLK
  5
70
330
6E
100
AcDbEntity
  8
0
100
AcDbBlockEnd
  0
BLOCK
  5
72
330
71
100
AcDbEntity
  8
0
100
AcDbBlockBegin
  2
EX_WBOX
 70
     0
 10
0.0
 20
0.0
 30
0.0
  3
EX_WBOX
  1

  0
LINE
  5
A1
330
71
100
AcDbEntity
  8
0
  6
CONTINUOUS
 62
     0
100
AcDbLine
 10
-0.5
 20
0.0
 30
0.0
 11
-1.0
 21
0.0
 31
0.0
  0
LINE
  5
A2
330
71
100
AcDbEntity
  8
0
  6
CONTINUOUS
 62
     0
100
AcDbLine
 10
-0.5
 20
0.5
 30
0.0
 11
0.5
 21
0.5
 31
0.0
  0
LINE
  5
A3
330
71
100
AcDbEntity
  8
0
  6
CONTINUOUS
 62
     0
100
AcDbLine
 10
0.5
 20
0.5
 30
0.0
 11
0.5
 21
-0.5
 31
0.0
  0
LINE
  5
A4
330
71
100
AcDbEntity
  8
0
  6
CONTINUOUS
 62
     0
100
AcDbLine
 10
0.5
 20
-0.5
 30
0.0
 11
-0.5
 21
-0.5
 31
0.0
  0
LINE
  5
A5
330
71
100
AcDbEntity
  8
0
  6
CONTINUOUS
 62
     0
100
AcDbLine
 10
-0.5
 20
-0.5
 30
0.0
 11
-0.5
 21
0.5
 31
0.0
  0
ENDBLK
  5
73
330
71
100
AcDbEntity
  8
0
100
AcDbBlockEnd
  0
BLOCK
  5
75
330
74
100
AcDbEntity
  8
0
100
AcDbBlockBegin
  2
EX_INTEGRAL
 70
     0
 10
0.0
 20
0.0
 30
0.0
  3
EX_INTEGRAL
  1

  0
LINE
  5
A6
330
74
100
AcDbEntity
  8
0
  6
CONTINUOUS
 62
     0
100
AcDbLine
 10
0.0
 20
0.0
 30
0.0
 11
-1.0
 21
0.0
 31
0.0
  0
ARC
  5
A7
330
74
100
AcDbEntity
  8
0
  6
CONTINUOUS
 62
     0
100
AcDbCircle
 10
0.542115
 20
0.164992
 30
0.0
 40
0.56667
100
AcDbArc
 50
73.07249033629006
 51
196.9275130221199
  0
ARC
  5
A8
330
74
100
AcDbEntity
  8
0
  6
CONTINUOUS
 62
     0
100
AcDbCircle
 10
-0.542115
 20
-0.164992
 30
0.0
 40
0.56667
100
AcDbArc
 50
253.0724869220464
 51
16.9275130559125
  0
ENDBLK
  5
76
330
74
100
AcDbEntity
  8
0
100
AcDbBlockEnd
  0
BLOCK
  5
1E7
330
1E6
100
AcDbEntity
  8
0
100
AcDbBlockBegin
  2
*D15
 70
     1
 10
0.0
 20
0.0
 30
0.0
  3
*D15
  1

  0
LINE
  5
1E9
330
1E6
100
AcDbEntity
  8
図
  6
CONTINUOUS
 62
     3
100
AcDbLine
 10
272.8
 20
187.8426710171419
 30
0.0
 11
272.8
 21
66.00000000000044
 31
0.0
  0
LINE
  5
1EA
330
1E6
100
AcDbEntity
  8
図
  6
CONTINUOUS
 62
     3
100
AcDbLine
 10
252.8
 20
139.8426710171419
 30
0.0
 11
252.8
 21
66.00000000000044
 31
0.0
  0
LINE
  5
1EB
330
1E6
100
AcDbEntity
  8
図
  6
CONTINUOUS
 62
     3
100
AcDbLine
 10
266.8
 20
68.00000000000023
 30
0.0
 11
258.8
 21
68.00000000000023
 31
0.0
  0
INSERT
  5
1EC
330
1E6
100
AcDbEntity
  8
図
 62
     3
100
AcDbBlockReference
  2
EX_NORM
 10
272.8
 20
68.00000000000023
 30
0.0
 41
6.0
 42
6.0
 43
6.0
  0
INSERT
  5
1ED
330
1E6
100
AcDbEntity
  8
図
 62
     3
100
AcDbBlockReference
  2
EX_NORM
 10
252.8
 20
68.00000000000023
 30
0.0
 41
6.0
 42
6.0
 43
6.0
 50
180.0
  0
MTEXT
  5
1EE
330
1E6
100
AcDbEntity
  8
図
 62
     2
100
AcDbMText
 10
285.8
 20
72.69999998807924
 30
0.0
 40
8.0
 41
0.0
 71
     5
 72
     1
  1
20
  7
EXCADDIM1
  0
POINT
  5
1EF
330
1E6
100
AcDbEntity
  8
DEFPOINTS
 62
     0
100
AcDbPoint
 10
272.8
 20
189.2426709933
 30
0.0
  0
POINT
  5
1F0
330
1E6
100
AcDbEntity
  8
DEFPOINTS
 62
     0
100
AcDbPoint
 10
252.8
 20
141.2426709933
 30
0.0
  0
POINT
  5
1F1
330
1E6
100
AcDbEntity
  8
DEFPOINTS
 62
     0
100
AcDbPoint
 10
252.8
 20
68.00000000000023
 30
0.0
  0
ENDBLK
  5
1E8
330
1E6
100
AcDbEntity
  8
0
100
AcDbBlockEnd
  0
BLOCK
  5
242
330
241
100
AcDbEntity
  8
0
100
AcDbBlockBegin
  2
*D16
 70
     1
 10
0.0
 20
0.0
 30
0.0
  3
*D16
  1

  0
LINE
  5
244
330
241
100
AcDbEntity
  8
図
  6
CONTINUOUS
 62
     3
100
AcDbLine
 10
262.1399999761582
 20
78.6
 30
0.0
 11
315.0
 21
78.59999999999997
 31
0.0
  0
LINE
  5
245
330
241
100
AcDbEntity
  8
図
  6
CONTINUOUS
 62
     3
100
AcDbLine
 10
274.1999999761582
 20
224.2426709933
 30
0.0
 11
315.0
 21
224.2426709933
 31
0.0
  0
LINE
  5
246
330
241
100
AcDbEntity
  8
図
  6
CONTINUOUS
 62
     3
100
AcDbLine
 10
313.0
 20
84.59999999999997
 30
0.0
 11
313.0
 21
218.2426709933
 31
0.0
  0
INSERT
  5
247
330
241
100
AcDbEntity
  8
図
 62
     3
100
AcDbBlockReference
  2
EX_NORM
 10
313.0
 20
78.59999999999997
 30
0.0
 41
6.0
 42
6.0
 43
6.0
 50
270.0
  0
INSERT
  5
248
330
241
100
AcDbEntity
  8
図
 62
     3
100
AcDbBlockReference
  2
EX_NORM
 10
313.0
 20
224.2426709933
 30
0.0
 41
6.0
 42
6.0
 43
6.0
 50
90.0
  0
MTEXT
  5
249
330
241
100
AcDbEntity
  8
図
 62
     2
100
AcDbMText
 10
308.3000000119209
 20
151.42133549665
 30
0.0
 40
8.0
 41
0.0
 71
     5
 72
     1
  1
200
  7
EXCADDIM1
 11
0.0
 21
1.0
 31
0.0
  0
POINT
  5
24A
330
241
100
AcDbEntity
  8
DEFPOINTS
 62
     0
100
AcDbPoint
 10
260.74
 20
78.6
 30
0.0
  0
POINT
  5
24B
330
241
100
AcDbEntity
  8
DEFPOINTS
 62
     0
100
AcDbPoint
 10
272.8
 20
224.2426709933
 30
0.0
  0
POINT
  5
24C
330
241
100
AcDbEntity
  8
DEFPOINTS
 62
     0
100
AcDbPoint
 10
313.0
 20
224.2426709933
 30
0.0
  0
ENDBLK
  5
243
330
241
100
AcDbEntity
  8
0
100
AcDbBlockEnd
  0
BLOCK
  5
385
330
384
100
AcDbEntity
  8
0
100
AcDbBlockBegin
  2
*D17
 70
     1
 10
0.0
 20
0.0
 30
0.0
  3
*D17
  1

  0
LINE
  5
387
330
384
100
AcDbEntity
  8
図
  6
CONTINUOUS
 62
     3
100
AcDbLine
 10
250.86
 20
119.6
 30
0.0
 11
254.74
 21
119.6
 31
0.0
  0
INSERT
  5
388
330
384
100
AcDbEntity
  8
図
 62
     3
100
AcDbBlockReference
  2
EX_NORM
 10
244.86
 20
119.6
 30
0.0
 41
6.0
 42
6.0
 43
6.0
 50
180.0
  0
INSERT
  5
389
330
384
100
AcDbEntity
  8
図
 62
     3
100
AcDbBlockReference
  2
EX_NORM
 10
260.74
 20
119.6
 30
0.0
 41
6.0
 42
6.0
 43
6.0
  0
MTEXT
  5
38A
330
384
100
AcDbEntity
  8
図
 62
     2
100
AcDbMText
 10
228.86
 20
124.2999999880791
 30
0.0
 40
8.0
 41
0.0
 71
     5
 72
     1
  1
%%c16
  7
EXCADDIM1
  0
POINT
  5
38B
330
384
100
AcDbEntity
  8
DEFPOINTS
 62
     0
100
AcDbPoint
 10
244.86
 20
119.6
 30
0.0
  0
POINT
  5
38C
330
384
100
AcDbEntity
  8
DEFPOINTS
 62
     0
100
AcDbPoint
 10
260.74
 20
119.6
 30
0.0
  0
POINT
  5
38D
330
384
100
AcDbEntity
  8
DEFPOINTS
 62
     0
100
AcDbPoint
 10
260.74
 20
119.6
 30
0.0
  0
ENDBLK
  5
386
330
384
100
AcDbEntity
  8
0
100
AcDbBlockEnd
  0
BLOCK
  5
390
330
38F
100
AcDbEntity
  8
0
100
AcDbBlockBegin
  2
*D18
 70
     1
 10
0.0
 20
0.0
 30
0.0
  3
*D18
  1

  0
LINE
  5
392
330
38F
100
AcDbEntity
  8
寸法
  6
CONTINUOUS
 62
     3
100
AcDbLine
 10
347.8
 20
299.6458892109582
 30
0.0
 11
347.8
 21
443.8
 31
0.0
  0
LINE
  5
393
330
38F
100
AcDbEntity
  8
寸法
  6
CONTINUOUS
 62
     3
100
AcDbLine
 10
278.8
 20
441.8
 30
0.0
 11
341.8
 21
441.8
 31
0.0
  0
INSERT
  5
394
330
38F
100
AcDbEntity
  8
寸法
 62
     3
100
AcDbBlockReference
  2
EX_NORM
 10
272.8
 20
441.8
 30
0.0
 41
6.0
 42
6.0
 43
6.0
 50
180.0
  0
INSERT
  5
395
330
38F
100
AcDbEntity
  8
寸法
 62
     3
100
AcDbBlockReference
  2
EX_NORM
 10
347.8
 20
441.8
 30
0.0
 41
6.0
 42
6.0
 43
6.0
  0
MTEXT
  5
396
330
38F
100
AcDbEntity
  8
寸法
 62
     2
100
AcDbMText
 10
310.3
 20
446.4999999880791
 30
0.0
 40
8.0
 41
0.0
 71
     5
 72
     1
  1
75
  7
EXCADDIM1
  0
POINT
  5
397
330
38F
100
AcDbEntity
  8
DEFPOINTS
 62
     0
100
AcDbPoint
 10
272.8
 20
414.16731782611
 30
0.0
  0
POINT
  5
398
330
38F
100
AcDbEntity
  8
DEFPOINTS
 62
     0
100
AcDbPoint
 10
347.8
 20
298.2458892348
 30
0.0
  0
POINT
  5
399
330
38F
100
AcDbEntity
  8
DEFPOINTS
 62
     0
100
AcDbPoint
 10
347.8
 20
441.8
 30
0.0
  0
ENDBLK
  5
391
330
38F
100
AcDbEntity
  8
0
100
AcDbBlockEnd
  0
BLOCK
  5
39C
330
39B
100
AcDbEntity
  8
0
100
AcDbBlockBegin
  2
*D19
 70
     1
 10
0.0
 20
0.0
 30
0.0
  3
*D19
  1

  0
LINE
  5
39E
330
39B
100
AcDbEntity
  8
寸法
  6
CONTINUOUS
 62
     3
100
AcDbLine
 10
363.3
 20
276.0132521478582
 30
0.0
 11
363.3
 21
455.8
 31
0.0
  0
LINE
  5
39F
330
39B
100
AcDbEntity
  8
寸法
  6
CONTINUOUS
 62
     3
100
AcDbLine
 10
278.8
 20
453.8
 30
0.0
 11
357.3
 21
453.8
 31
0.0
  0
INSERT
  5
3A0
330
39B
100
AcDbEntity
  8
寸法
 62
     3
100
AcDbBlockReference
  2
EX_NORM
 10
272.8
 20
453.8
 30
0.0
 41
6.0
 42
6.0
 43
6.0
 50
180.0
  0
INSERT
  5
3A1
330
39B
100
AcDbEntity
  8
寸法
 62
     3
100
AcDbBlockReference
  2
EX_NORM
 10
363.3
 20
453.8
 30
0.0
 41
6.0
 42
6.0
 43
6.0
  0
MTEXT
  5
3A2
330
39B
100
AcDbEntity
  8
寸法
 62
     2
100
AcDbMText
 10
318.05
 20
458.4999999880791
 30
0.0
 40
8.0
 41
0.0
 71
     5
 72
     1
  1
90.5
  7
EXCADDIM1
  0
POINT
  5
3A3
330
39B
100
AcDbEntity
  8
DEFPOINTS
 62
     0
100
AcDbPoint
 10
272.8
 20
414.16731782611
 30
0.0
  0
POINT
  5
3A4
330
39B
100
AcDbEntity
  8
DEFPOINTS
 62
     0
100
AcDbPoint
 10
363.3
 20
274.6132521717
 30
0.0
  0
POINT
  5
3A5
330
39B
100
AcDbEntity
  8
DEFPOINTS
 62
     0
100
AcDbPoint
 10
363.3
 20
453.8
 30
0.0
  0
ENDBLK
  5
39D
330
39B
100
AcDbEntity
  8
0
100
AcDbBlockEnd
  0
BLOCK
  5
3A8
330
3A7
100
AcDbEntity
  8
0
100
AcDbBlockBegin
  2
*D20
 70
     1
 10
0.0
 20
0.0
 30
0.0
  3
*D20
  1

  0
LINE
  5
3AA
330
3A7
100
AcDbEntity
  8
寸法
  6
CONTINUOUS
 62
     3
100
AcDbLine
 10
238.2991479808
 20
329.4230475187582
 30
0.0
 11
238.2991479808
 21
467.8
 31
0.0
  0
LINE
  5
3AB
330
3A7
100
AcDbEntity
  8
寸法
  6
CONTINUOUS
 62
     3
100
AcDbLine
 10
363.3
 20
285.2440151298582
 30
0.0
 11
363.3
 21
467.8
 31
0.0
  0
LINE
  5
3AC
330
3A7
100
AcDbEntity
  8
寸法
  6
CONTINUOUS
 62
     3
100
AcDbLine
 10
244.2991479808
 20
465.8
 30
0.0
 11
357.3
 21
465.8
 31
0.0
  0
INSERT
  5
3AD
330
3A7
100
AcDbEntity
  8
寸法
 62
     3
100
AcDbBlockReference
  2
EX_NORM
 10
238.2991479808
 20
465.8
 30
0.0
 41
6.0
 42
6.0
 43
6.0
 50
180.0
  0
INSERT
  5
3AE
330
3A7
100
AcDbEntity
  8
寸法
 62
     3
100
AcDbBlockReference
  2
EX_NORM
 10
363.3
 20
465.8
 30
0.0
 41
6.0
 42
6.0
 43
6.0
  0
MTEXT
  5
3AF
330
3A7
100
AcDbEntity
  8
寸法
 62
     2
100
AcDbMText
 10
300.7995739904001
 20
470.4999999880791
 30
0.0
 40
8.0
 41
0.0
 71
     5
 72
     1
  1
125
  7
EXCADDIM1
  0
POINT
  5
3B0
330
3A7
100
AcDbEntity
  8
DEFPOINTS
 62
     0
100
AcDbPoint
 10
238.2991479808
 20
328.0230475426
 30
0.0
  0
POINT
  5
3B1
330
3A7
100
AcDbEntity
  8
DEFPOINTS
 62
     0
100
AcDbPoint
 10
363.3
 20
283.8440151537
 30
0.0
  0
POINT
  5
3B2
330
3A7
100
AcDbEntity
  8
DEFPOINTS
 62
     0
100
AcDbPoint
 10
363.3
 20
465.8
 30
0.0
  0
ENDBLK
  5
3A9
330
3A7
100
AcDbEntity
  8
0
100
AcDbBlockEnd
  0
BLOCK
  5
3B5
330
3B4
100
AcDbEntity
  8
0
100
AcDbBlockBegin
  2
*D21
 70
     1
 10
0.0
 20
0.0
 30
0.0
  3
*D21
  1

  0
LINE
  5
3B7
330
3B4
100
AcDbEntity
  8
寸法
  6
CONTINUOUS
 62
     3
100
AcDbLine
 10
271.4000000238419
 20
414.16731782611
 30
0.0
 11
216.6
 21
414.16731782611
 31
0.0
  0
LINE
  5
3B8
330
3B4
100
AcDbEntity
  8
寸法
  6
CONTINUOUS
 62
     3
100
AcDbLine
 10
271.4000000238419
 20
288.4814730544
 30
0.0
 11
216.6
 21
288.4814730544
 31
0.0
  0
LINE
  5
3B9
330
3B4
100
AcDbEntity
  8
寸法
  6
CONTINUOUS
 62
     3
100
AcDbLine
 10
218.6
 20
408.16731782611
 30
0.0
 11
218.6
 21
294.4814730544
 31
0.0
  0
INSERT
  5
3BA
330
3B4
100
AcDbEntity
  8
寸法
 62
     3
100
AcDbBlockReference
  2
EX_NORM
 10
218.6
 20
414.16731782611
 30
0.0
 41
6.0
 42
6.0
 43
6.0
 50
90.0
  0
INSERT
  5
3BB
330
3B4
100
AcDbEntity
  8
寸法
 62
     3
100
AcDbBlockReference
  2
EX_NORM
 10
218.6
 20
288.4814730544
 30
0.0
 41
6.0
 42
6.0
 43
6.0
 50
270.0
  0
MTEXT
  5
3BC
330
3B4
100
AcDbEntity
  8
寸法
 62
     2
100
AcDbMText
 10
213.900000011921
 20
351.324395440255
 30
0.0
 40
8.0
 41
0.0
 71
     5
 72
     1
  1
126
  7
EXCADDIM1
 11
0.0
 21
1.0
 31
0.0
  0
POINT
  5
3BD
330
3B4
100
AcDbEntity
  8
DEFPOINTS
 62
     0
100
AcDbPoint
 10
272.8
 20
414.16731782611
 30
0.0
  0
POINT
  5
3BE
330
3B4
100
AcDbEntity
  8
DEFPOINTS
 62
     0
100
AcDbPoint
 10
272.8
 20
288.4814730544
 30
0.0
  0
POINT
  5
3BF
330
3B4
100
AcDbEntity
  8
DEFPOINTS
 62
     0
100
AcDbPoint
 10
218.6
 20
288.4814730544
 30
0.0
  0
ENDBLK
  5
3B6
330
3B4
100
AcDbEntity
  8
0
100
AcDbBlockEnd
  0
BLOCK
  5
3C2
330
3C1
100
AcDbEntity
  8
0
100
AcDbBlockBegin
  2
*D22
 70
     1
 10
0.0
 20
0.0
 30
0.0
  3
*D22
  1

  0
LINE
  5
3C4
330
3C1
100
AcDbEntity
  8
寸法
  6
CONTINUOUS
 62
     3
100
AcDbLine
 10
271.4000000238419
 20
414.16731782611
 30
0.0
 11
204.6
 21
414.16731782611
 31
0.0
  0
LINE
  5
3C5
330
3C1
100
AcDbEntity
  8
寸法
  6
CONTINUOUS
 62
     3
100
AcDbLine
 10
271.4000000238419
 20
221.2426709933
 30
0.0
 11
204.6
 21
221.2426709933
 31
0.0
  0
LINE
  5
3C6
330
3C1
100
AcDbEntity
  8
寸法
  6
CONTINUOUS
 62
     3
100
AcDbLine
 10
206.6
 20
408.16731782611
 30
0.0
 11
206.6
 21
227.2426709933
 31
0.0
  0
INSERT
  5
3C7
330
3C1
100
AcDbEntity
  8
寸法
 62
     3
100
AcDbBlockReference
  2
EX_NORM
 10
206.6
 20
414.16731782611
 30
0.0
 41
6.0
 42
6.0
 43
6.0
 50
90.0
  0
INSERT
  5
3C8
330
3C1
100
AcDbEntity
  8
寸法
 62
     3
100
AcDbBlockReference
  2
EX_NORM
 10
206.6
 20
221.2426709933
 30
0.0
 41
6.0
 42
6.0
 43
6.0
 50
270.0
  0
MTEXT
  5
3C9
330
3C1
100
AcDbEntity
  8
寸法
 62
     2
100
AcDbMText
 10
201.900000011921
 20
317.704994409705
 30
0.0
 40
8.0
 41
0.0
 71
     5
 72
     1
  1
193
  7
EXCADDIM1
 11
0.0
 21
1.0
 31
0.0
  0
POINT
  5
3CA
330
3C1
100
AcDbEntity
  8
DEFPOINTS
 62
     0
100
AcDbPoint
 10
272.8
 20
414.16731782611
 30
0.0
  0
POINT
  5
3CB
330
3C1
100
AcDbEntity
  8
DEFPOINTS
 62
     0
100
AcDbPoint
 10
272.8
 20
221.2426709933
 30
0.0
  0
POINT
  5
3CC
330
3C1
100
AcDbEntity
  8
DEFPOINTS
 62
     0
100
AcDbPoint
 10
206.6
 20
221.2426709933
 30
0.0
  0
ENDBLK
  5
3C3
330
3C1
100
AcDbEntity
  8
0
100
AcDbBlockEnd
  0
BLOCK
  5
3CF
330
3CE
100
AcDbEntity
  8
0
100
AcDbBlockBegin
  2
*D23
 70
     1
 10
0.0
 20
0.0
 30
0.0
  3
*D23
  1

  0
LINE
  5
3D1
330
3CE
100
AcDbEntity
  8
寸法
  6
CONTINUOUS
 62
     3
100
AcDbLine
 10
238.2991479808
 20
329.4230475187582
 30
0.0
 11
238.2991479808
 21
430.8
 31
0.0
  0
LINE
  5
3D2
330
3CE
100
AcDbEntity
  8
寸法
  6
CONTINUOUS
 62
     3
100
AcDbLine
 10
306.2206090657
 20
329.4230475187582
 30
0.0
 11
306.2206090657
 21
430.8
 31
0.0
  0
LINE
  5
3D3
330
3CE
100
AcDbEntity
  8
寸法
  6
CONTINUOUS
 62
     3
100
AcDbLine
 10
244.2991479808
 20
428.8
 30
0.0
 11
300.2206090657
 21
428.8
 31
0.0
  0
INSERT
  5
3D4
330
3CE
100
AcDbEntity
  8
寸法
 62
     3
100
AcDbBlockReference
  2
EX_NORM
 10
238.2991479808
 20
428.8
 30
0.0
 41
6.0
 42
6.0
 43
6.0
 50
180.0
  0
INSERT
  5
3D5
330
3CE
100
AcDbEntity
  8
寸法
 62
     3
100
AcDbBlockReference
  2
EX_NORM
 10
306.2206090657
 20
428.8
 30
0.0
 41
6.0
 42
6.0
 43
6.0
  0
MTEXT
  5
3D6
330
3CE
100
AcDbEntity
  8
寸法
 62
     2
100
AcDbMText
 10
272.25987852325
 20
433.4999999880791
 30
0.0
 40
8.0
 41
0.0
 71
     5
 72
     1
  1
%%c68
  7
EXCADDIM1
  0
POINT
  5
3D7
330
3CE
100
AcDbEntity
  8
DEFPOINTS
 62
     0
100
AcDbPoint
 10
238.2991479808
 20
328.0230475426
 30
0.0
  0
POINT
  5
3D8
330
3CE
100
AcDbEntity
  8
DEFPOINTS
 62
     0
100
AcDbPoint
 10
306.2206090657
 20
328.0230475426
 30
0.0
  0
POINT
  5
3D9
330
3CE
100
AcDbEntity
  8
DEFPOINTS
 62
     0
100
AcDbPoint
 10
306.2206090657
 20
428.8
 30
0.0
  0
ENDBLK
  5
3D0
330
3CE
100
AcDbEntity
  8
0
100
AcDbBlockEnd
  0
ENDSEC
  0
SECTION
  2
ENTITIES
  0
TEXT
  5
A9
330
1F
100
AcDbEntity
  8
枠_表
  6
CONTINUOUS
 62
     2
100
AcDbText
 10
369.0
 20
61.59999990463257
 30
0.0
 40
7.330909018083053
  1
尺度
  7
EXCADVERT
 72
     3
 11
369.0
 21
42.40000009536743
 31
0.0
100
AcDbText
  0
TEXT
  5
AA
330
1F
100
AcDbEntity
  8
枠_表
  6
CONTINUOUS
 62
     2
100
AcDbText
 10
375.5385185186
 20
53.98
 30
0.0
 40
8.0
  1
１
 41
1.119999999999996
  7
EXCADSTD
 72
     5
 11
381.9385185185999
 21
53.98
 31
0.0
100
AcDbText
  0
LINE
  5
AB
330
1F
100
AcDbEntity
  8
枠_表
  6
CONTINUOUS
 62
     6
100
AcDbLine
 10
364.0
 20
40.0
 30
0.0
 11
364.0
 21
64.0
 31
0.0
  0
LINE
  5
AC
330
1F
100
AcDbEntity
  8
枠_表
  6
CONTINUOUS
 62
     6
100
AcDbLine
 10
393.8
 20
59.625
 30
0.0
 11
376.2
 21
44.775
 31
0.0
  0
LINE
  5
AD
330
1F
100
AcDbEntity
  8
枠_表
  6
CONTINUOUS
 62
     6
100
AcDbLine
 10
374.0
 20
64.0
 30
0.0
 11
374.0
 21
40.0
 31
0.0
  0
HATCH
  5
AE
330
1F
100
AcDbEntity
  8
枠_表
  6
CONTINUOUS
 62
     3
100
AcDbHatch
 10
0.0
 20
0.0
 30
0.0
210
0.0
220
0.0
230
1.0
  2
SOLID
 70
     1
 71
     1
 91
        1
 92
        3
 72
     1
 73
     1
 93
       10
 10
150.74505314665
 20
26.44339865950816
 42
-0.017362223501556
 10
150.76260314665
 20
37.03684865950828
 42
-0.0267627618865285
 10
150.76260314665
 20
37.03684865950819
 42
0.0737939047395297
 10
153.34650314665
 20
37.04764865950801
 42
0.0183878899657109
 10
153.2425531466501
 20
27.49639865950815
 42
-0.1144749489451909
 10
152.8240531466499
 20
25.48489865950813
 42
-0.1929163439413163
 10
150.8328031466501
 20
23.92159865950813
 42
-0.0603888289562337
 10
149.7771031466499
 20
23.65834865950816
 42
0.0
 10
149.5300531466499
 20
24.41029865950815
 42
0.0860918333465722
 10
150.26850314665
 20
24.80314865950816
 42
0.1331843103855141
 97
        0
 75
     0
 76
     1
 98
        1
 10
0.0
 20
0.0
  0
HATCH
  5
AF
330
1F
100
AcDbEntity
  8
枠_表
  6
CONTINUOUS
 62
     3
100
AcDbHatch
 10
0.0
 20
0.0
 30
0.0
210
0.0
220
0.0
230
1.0
  2
SOLID
 70
     1
 71
     1
 91
        1
 92
        3
 72
     1
 73
     1
 93
       16
 10
162.57375314665
 20
26.22064865950815
 42
-0.0386228372648426
 10
162.56160314665
 20
32.72899865950818
 42
-0.0398707891902887
 10
163.74285314665
 20
32.73439865950821
 42
-0.1256886216044368
 10
163.68885314665
 20
31.63009865950819
 42
-0.0367815758121429
 10
163.68885314665
 20
31.63009865950814
 42
-0.268021535028829
 10
166.0716031466501
 20
32.86669865950818
 42
-0.2571134422124888
 10
167.7010531466499
 20
32.06074865950824
 42
-0.1522526366014298
 10
168.11550314665
 20
30.72019865950817
 42
-0.0158825412051521
 10
168.0858031466499
 20
26.21389865950816
 42
-0.0285251271418421
 10
166.9450531466501
 20
26.21389865950816
 42
-0.0452212723224612
 10
167.00310314665
 20
30.37729865950823
 42
-0.0315567291532142
 10
166.6494031466499
 20
31.60714865950822
 42
-0.1476272403790709
 10
164.34630314665
 20
31.78399865950815
 42
-0.3908144705745794
 10
163.6969531466499
 20
30.16804865950813
 42
-0.2046259928850854
 10
163.6969531466499
 20
30.16804865950823
 42
0.0
 10
163.7982031466501
 20
26.20984865950819
 42
-0.0304995761723369
 97
        0
 75
     0
 76
     1
 98
        1
 10
0.0
 20
0.0
  0
HATCH
  5
B0
330
1F
100
AcDbEntity
  8
枠_表
  6
CONTINUOUS
 62
     3
100
AcDbHatch
 10
0.0
 20
0.0
 30
0.0
210
0.0
220
0.0
230
1.0
  2
SOLID
 70
     1
 71
     1
 91
        2
 92
        1
 93
        1
 72
     2
 10
171.057102807667
 20
35.11670933747425
 40
0.7144668933539768
 50
0.0
 51
360.0
 73
     1
 97
        0
 92
        3
 72
     1
 73
     1
 93
        3
 10
170.4186031466499
 20
32.73979865950817
 42
0.1200283885712921
 10
171.6606031466499
 20
26.21254865950809
 42
-0.0401820615762149
 10
170.4199531466499
 20
26.20849865950818
 42
-0.0237521668114666
 97
        0
 75
     0
 76
     1
 98
        1
 10
0.0
 20
0.0
  0
HATCH
  5
B1
330
1F
100
AcDbEntity
  8
枠_表
  6
CONTINUOUS
 62
     3
100
AcDbHatch
 10
0.0
 20
0.0
 30
0.0
210
0.0
220
0.0
230
1.0
  2
SOLID
 70
     1
 71
     1
 91
        1
 92
        3
 72
     1
 73
     1
 93
       30
 10
177.3468031466499
 20
32.46709865950825
 42
-0.0009362235736497
 10
177.3468031466499
 20
32.46709865950818
 42
0.0681165430304653
 10
177.0194186973462
 20
31.4856486595082
 42
0.0
 10
175.7862031466501
 20
32.32939865950821
 42
-0.302112590907374
 10
175.7862031466501
 20
32.3293986595082
 42
0.0
 10
174.5428531466499
 20
31.37629865950819
 42
-0.3704245237568778
 10
174.5428531466499
 20
31.37629865950813
 42
0.0
 10
174.60765314665
 20
30.73909865950818
 42
-0.0262822419456939
 10
175.37445314665
 20
30.12619865950813
 42
-0.180060563604375
 10
176.59755314665
 20
29.75359865950822
 42
-0.0298130817160724
 10
176.59755314665
 20
29.75359865950815
 42
-0.3153987453686078
 10
177.7248031466501
 20
28.4643486595082
 42
0.0
 10
177.7180531466501
 20
27.88789865950814
 42
-0.3510306079065168
 10
175.54455314665
 20
26.06539865950819
 42
0.0
 10
174.9100531466499
 20
26.06539865950814
 42
-0.1053356344842436
 10
173.50605314665
 20
26.47039865950819
 42
0.1188608286962634
 10
173.76255314665
 20
27.49639865950823
 42
0.0
 10
175.30155314665
 20
26.55139865950821
 42
-0.2447573632916039
 10
175.30155314665
 20
26.55139865950818
 42
0.0
 10
176.78655314665
 20
27.59089865950821
 42
-0.3734162676407277
 10
176.7865531466501
 20
27.59089865950815
 42
0.0
 10
176.2479031466501
 20
28.62904865950821
 42
-0.261219770190848
 10
174.9910531466499
 20
29.08534865950822
 42
-0.0572747914118363
 10
174.9910531466501
 20
29.0853486595082
 42
-0.1189658875692221
 10
173.9920531466499
 20
29.67124865950821
 42
-0.2005226878639636
 10
173.5735531466499
 20
30.61489865951259
 42
0.0
 10
173.56680314665
 20
30.97264865950813
 42
-0.2622894489606957
 10
174.6400531466501
 20
32.61289865950823
 42
-0.0988461274137808
 10
175.6444531466501
 20
32.85454865950814
 42
0.0
 10
176.0170531466499
 20
32.85454865950821
 42
-0.0920156312561188
 97
        0
 75
     0
 76
     1
 98
        1
 10
0.0
 20
0.0
  0
HATCH
  5
B2
330
1F
100
AcDbEntity
  8
枠_表
  6
CONTINUOUS
 62
     3
100
AcDbHatch
 10
0.0
 20
0.0
 30
0.0
210
0.0
220
0.0
230
1.0
  2
SOLID
 70
     1
 71
     1
 91
        2
 92
        3
 72
     1
 73
     1
 93
       27
 10
155.83455314665
 20
32.07289865950823
 42
-0.1769427732109284
 10
155.8345531466501
 20
32.07289865950824
 42
0.0
 10
155.8345531466501
 20
31.3438986595082
 42
0.0
 10
156.0100531466501
 20
31.34389865950813
 42
-0.207533601427307
 10
157.149484557914
 20
32.198647182581
 42
-0.1226604740888933
 10
158.1565531466501
 20
32.22004865950819
 42
-0.3213715781137954
 10
159.1976656044417
 20
30.94213028756955
 42
-0.064704004662446
 10
159.20280314665
 20
30.26659865950815
 42
-0.257798906330806
 10
158.9908531466501
 20
30.01009865950816
 42
-0.056602577721096
 10
158.53725314665
 20
29.85214865950823
 42
-0.0166741689362636
 10
156.87405314665
 20
29.53624865950819
 42
0.1186092302783404
 10
155.77650314665
 20
29.00974865950817
 42
0.1699204224386695
 10
155.29860314665
 20
28.21054865950815
 42
0.1006533494296199
 10
155.2544173359163
 20
27.51707110191459
 42
0.1675695228968024
 10
155.6874031466501
 20
26.58784865950818
 42
0.1376980079804242
 10
156.4744531466499
 20
26.13289865950822
 42
0.0719813663796923
 10
156.8322031466499
 20
26.0734986595082
 42
0.0
 10
157.3803031466501
 20
26.07349865950822
 42
0.1944607457809085
 10
159.1987531466501
 20
27.00904865950818
 42
0.1288538183665954
 10
159.3823531466499
 20
26.55004865950812
 42
0.2098387395261546
 10
159.9817531466501
 20
26.21929865950821
 42
0.0
 10
160.4164531466501
 20
26.21659865950823
 42
0.0945009641609563
 10
161.04420314665
 20
26.3502486595082
 42
0.0
 10
161.0442031466499
 20
26.66479865950818
 42
-0.2395739894657535
 10
160.4961031466501
 20
26.65939865950813
 42
-0.2502312110031057
 10
160.22610314665
 20
27.16699865950831
 42
-0.0104343570771765
 10
160.2625531466501
 20
30.95239865950817
 42
0.4051015674140716
 97
        0
 92
        3
 72
     1
 73
     1
 93
        8
 10
159.22710314665
 20
29.60509865950816
 42
-0.0339435190873666
 10
159.2271031466507
 20
29.60509865950708
 42
-0.0001110072973599
 10
159.1704031466501
 20
27.53689865950813
 42
-0.2253076310552528
 10
157.75290314665
 20
26.59054865950824
 42
0.0
 10
157.4059531466499
 20
26.59054865950823
 42
-0.3657967558150132
 10
156.3745531466499
 20
27.6867486595082
 42
0.0
 10
156.3745531466501
 20
28.07824865950821
 42
-0.2530797830369341
 10
157.07115314665
 20
29.04214865950816
 42
-0.0724473624720066
 97
        0
 75
     0
 76
     1
 98
        1
 10
0.0
 20
0.0
  0
ARC
  5
B3
330
1F
100
AcDbEntity
  8
枠_表
  6
CONTINUOUS
 62
     3
100
AcDbCircle
 10
158.0537064825104
 20
29.3233457785378
 30
0.0
 40
3.533367030654128
100
AcDbArc
 50
88.77000393305714
 51
128.9068631829044
  0
ARC
  5
B4
330
1F
100
AcDbEntity
  8
枠_表
  6
CONTINUOUS
 62
     3
100
AcDbCircle
 10
158.2141254520558
 20
30.80383251946634
 30
0.0
 40
2.05380815022918
100
AcDbArc
 50
4.148222840814635
 51
92.36000944257297
  0
ARC
  5
B5
330
1F
100
AcDbEntity
  8
枠_表
  6
CONTINUOUS
 62
     3
100
AcDbCircle
 10
250.9300271677419
 20
28.18647687863467
 30
0.0
 40
90.70965311731324
100
AcDbArc
 50
178.2526643324597
 51
180.6439560401927
  0
ARC
  5
B6
330
1F
100
AcDbEntity
  8
枠_表
  6
CONTINUOUS
 62
     3
100
AcDbCircle
 10
160.8364797889207
 20
27.16605857560953
 30
0.0
 40
0.610377366214778
100
AcDbArc
 50
179.9117548191415
 51
236.1065985968857
  0
ARC
  5
B7
330
1F
100
AcDbEntity
  8
枠_表
  6
CONTINUOUS
 62
     3
100
AcDbCircle
 10
160.7648415691592
 20
27.20122377482184
 30
0.0
 40
0.60480971827296
100
AcDbArc
 50
243.6191685566582
 51
297.5097757939563
  0
LINE
  5
B8
330
1F
100
AcDbEntity
  8
枠_表
  6
CONTINUOUS
 62
     3
100
AcDbLine
 10
161.04420314665
 20
26.3502486595082
 30
0.0
 11
161.04420314665
 21
26.66479865950814
 31
0.0
  0
LINE
  5
B9
330
1F
100
AcDbEntity
  8
枠_表
  6
CONTINUOUS
 62
     3
100
AcDbLine
 10
159.9817531466501
 20
26.21929865950821
 30
0.0
 11
160.41645314665
 21
26.21929865950821
 31
0.0
  0
ARC
  5
BA
330
1F
100
AcDbEntity
  8
枠_表
  6
CONTINUOUS
 62
     3
100
AcDbCircle
 10
160.3799178389118
 20
27.92929025646069
 30
0.0
 40
1.713081240041788
100
AcDbArc
 50
271.222053929324
 51
292.8159509797653
  0
ARC
  5
BB
330
1F
100
AcDbEntity
  8
枠_表
  6
CONTINUOUS
 62
     3
100
AcDbCircle
 10
160.0587547016292
 20
27.06734913057264
 30
0.0
 40
0.851539101240796
100
AcDbArc
 50
217.4081478714985
 51
264.8118660441384
  0
ARC
  5
BC
330
1F
100
AcDbEntity
  8
枠_表
  6
CONTINUOUS
 62
     3
100
AcDbCircle
 10
160.1663112111663
 20
27.12985188531465
 30
0.0
 40
0.975070268019444
100
AcDbArc
 50
187.1167640402298
 51
216.4860549324748
  0
ARC
  5
BD
330
1F
100
AcDbEntity
  8
枠_表
  6
CONTINUOUS
 62
     3
100
AcDbCircle
 10
157.1322609173401
 20
28.79068052513659
 30
0.0
 40
2.728479840207864
100
AcDbArc
 50
275.2158792069686
 51
319.2336424873512
  0
LINE
  5
BE
330
1F
100
AcDbEntity
  8
枠_表
  6
CONTINUOUS
 62
     3
100
AcDbLine
 10
156.8322031466499
 20
26.0734986595082
 30
0.0
 11
157.3803031466501
 21
26.0734986595082
 31
0.0
  0
ARC
  5
BF
330
1F
100
AcDbEntity
  8
枠_表
  6
CONTINUOUS
 62
     3
100
AcDbCircle
 10
156.858562614735
 20
27.33926988774826
 30
0.0
 40
1.266045664183572
100
AcDbArc
 50
252.3384873625213
 51
268.8069976857606
  0
ARC
  5
C0
330
1F
100
AcDbEntity
  8
枠_表
  6
CONTINUOUS
 62
     3
100
AcDbCircle
 10
156.8912590607377
 20
27.76222209545196
 30
0.0
 40
1.681791315512732
100
AcDbArc
 50
224.289750990011
 51
255.6505938786759
  0
ARC
  5
C1
330
1F
100
AcDbEntity
  8
枠_表
  6
CONTINUOUS
 62
     3
100
AcDbCircle
 10
156.81830665831
 20
27.68030043145731
 30
0.0
 40
1.57238469425258
100
AcDbArc
 50
185.958612633842
 51
224.009198931986
  0
ARC
  5
C2
330
1F
100
AcDbEntity
  8
枠_表
  6
CONTINUOUS
 62
     3
100
AcDbCircle
 10
156.9815003713998
 20
27.75517425095492
 30
0.0
 40
1.743418745177338
100
AcDbArc
 50
164.8589457925045
 51
187.8495628504518
  0
ARC
  5
C3
330
1F
100
AcDbEntity
  8
枠_表
  6
CONTINUOUS
 62
     3
100
AcDbCircle
 10
156.6794475806029
 20
27.92732665001606
 30
0.0
 40
1.409590741115844
100
AcDbArc
 50
129.8344892359069
 51
168.4089447024629
  0
ARC
  5
C4
330
1F
100
AcDbEntity
  8
枠_表
  6
CONTINUOUS
 62
     3
100
AcDbCircle
 10
157.4194027735156
 20
26.99216962965747
 30
0.0
 40
2.60187323396984
100
AcDbArc
 50
102.0988446293839
 51
129.1556705448828
  0
ARC
  5
C5
330
1F
100
AcDbEntity
  8
枠_表
  6
CONTINUOUS
 62
     3
100
AcDbCircle
 10
152.9706019997157
 20
54.62404059550428
 30
0.0
 40
25.38964818740764
100
AcDbArc
 50
278.8438342053764
 51
282.6649181367123
  0
ARC
  5
C6
330
1F
100
AcDbEntity
  8
枠_表
  6
CONTINUOUS
 62
     3
100
AcDbCircle
 10
158.0686610022179
 20
31.92814725377499
 30
0.0
 40
2.128226670545568
100
AcDbArc
 50
282.7195832898965
 51
295.6781112778081
  0
ARC
  5
C7
330
1F
100
AcDbEntity
  8
枠_表
  6
CONTINUOUS
 62
     3
100
AcDbCircle
 10
158.8646191134669
 20
30.33022665008579
 30
0.0
 40
0.344117656456262
100
AcDbArc
 50
291.5204897073511
 51
349.3445900274031
  0
ARC
  5
C8
330
1F
100
AcDbEntity
  8
枠_表
  6
CONTINUOUS
 62
     3
100
AcDbCircle
 10
156.6010774713313
 20
30.58459740750251
 30
0.0
 40
2.621087502037842
100
AcDbArc
 50
353.0315250986587
 51
7.839947970678404
  0
ARC
  5
C9
330
1F
100
AcDbEntity
  8
枠_表
  6
CONTINUOUS
 62
     3
100
AcDbCircle
 10
157.7856682563537
 20
30.85483772306847
 30
0.0
 40
1.414693077252004
100
AcDbArc
 50
3.537639967999436
 51
74.8013566619203
  0
ARC
  5
CA
330
1F
100
AcDbEntity
  8
枠_表
  6
CONTINUOUS
 62
     3
100
AcDbCircle
 10
157.6959819159661
 20
30.18767661026047
 30
0.0
 40
2.08390546932846
100
AcDbArc
 50
77.23143261361705
 51
105.203415964315
  0
ARC
  5
CB
330
1F
100
AcDbEntity
  8
枠_表
  6
CONTINUOUS
 62
     3
100
AcDbCircle
 10
157.5650723540597
 20
30.45780383715768
 30
0.0
 40
1.789762210353438
100
AcDbArc
 50
103.4267945469744
 51
150.3242613737993
  0
LINE
  5
CC
330
1F
100
AcDbEntity
  8
枠_表
  6
CONTINUOUS
 62
     3
100
AcDbLine
 10
155.8345531466501
 20
32.07289865950824
 30
0.0
 11
155.8345531466501
 21
31.3438986595082
 31
0.0
  0
ARC
  5
CD
330
1F
100
AcDbEntity
  8
枠_表
  6
CONTINUOUS
 62
     3
100
AcDbCircle
 10
136.8287913045414
 20
27.14685523845581
 30
0.0
 40
13.9340300996012
100
AcDbArc
 50
353.1274757312912
 51
357.1062044901411
  0
ARC
  5
CE
330
1F
100
AcDbEntity
  8
枠_表
  6
CONTINUOUS
 62
     3
100
AcDbCircle
 10
51.86771042458628
 20
31.90394671677689
 30
0.0
 40
99.02800860798017
100
AcDbArc
 50
356.8390243485978
 51
2.971133813187157
  0
ARC
  5
CF
330
1F
100
AcDbEntity
  8
枠_表
  6
CONTINUOUS
 62
     3
100
AcDbCircle
 10
149.2185477299204
 20
25.86815036945833
 30
0.0
 40
1.495538371061266
100
AcDbArc
 50
314.5923914748321
 51
344.9374073189123
  0
ARC
  5
D0
330
1F
100
AcDbEntity
  8
枠_表
  6
CONTINUOUS
 62
     3
100
AcDbCircle
 10
148.7669457937088
 20
26.73519718891984
 30
0.0
 40
2.44693400078005
100
AcDbArc
 50
288.1715191042997
 51
307.8537826235693
  0
LINE
  5
D1
330
1F
100
AcDbEntity
  8
枠_表
  6
CONTINUOUS
 62
     3
100
AcDbLine
 10
149.7771031466499
 20
23.65834865950816
 30
0.0
 11
149.53005314665
 21
24.41029865950813
 31
0.0
  0
ARC
  5
D2
330
1F
100
AcDbEntity
  8
枠_表
  6
CONTINUOUS
 62
     3
100
AcDbCircle
 10
149.2191149973331
 20
28.14446305830776
 30
0.0
 40
4.520682821642724
100
AcDbArc
 50
277.0901027239701
 51
290.9134154817058
  0
ARC
  5
D3
330
1F
100
AcDbEntity
  8
枠_表
  6
CONTINUOUS
 62
     3
100
AcDbCircle
 10
149.8779465577095
 20
27.18767037253664
 30
0.0
 40
3.40278937639223
100
AcDbArc
 50
286.2966123578915
 51
329.973223283839
  0
ARC
  5
D4
330
1F
100
AcDbEntity
  8
枠_表
  6
CONTINUOUS
 62
     3
100
AcDbCircle
 10
148.6979872358123
 20
27.39262713760192
 30
0.0
 40
4.545750526228622
100
AcDbArc
 50
335.1860595856123
 51
1.308075913059479
  0
ARC
  5
D5
330
1F
100
AcDbEntity
  8
枠_表
  6
CONTINUOUS
 62
     3
100
AcDbCircle
 10
283.1085062826868
 20
30.85920721901692
 30
0.0
 40
129.9094848936721
100
AcDbArc
 50
177.2695926307304
 51
181.4833117237826
  0
ARC
  5
D6
330
1F
100
AcDbEntity
  8
枠_表
  6
CONTINUOUS
 62
     3
100
AcDbCircle
 10
152.0181640024454
 20
45.74835141044454
 30
0.0
 40
8.801517666980931
100
AcDbArc
 50
261.7986203004403
 51
278.6803384946418
  0
ARC
  5
D7
330
1F
100
AcDbEntity
  8
枠_表
  6
CONTINUOUS
 62
     3
100
AcDbCircle
 10
156.9211219870745
 20
37.55002762321018
 30
0.0
 40
8.272813629388034
100
AcDbArc
 50
278.4088456599978
 51
286.1851416003176
  0
ARC
  5
D8
330
1F
100
AcDbEntity
  8
枠_表
  6
CONTINUOUS
 62
     3
100
AcDbCircle
 10
158.7132130351541
 20
25.5663772533596
 30
0.0
 40
3.844131572310416
100
AcDbArc
 50
98.71271710191795
 51
115.2874718053599
  0
ARC
  5
D9
330
1F
100
AcDbEntity
  8
枠_表
  6
CONTINUOUS
 62
     3
100
AcDbCircle
 10
157.6140373367568
 20
27.91614958094371
 30
0.0
 40
1.250038866914106
100
AcDbArc
 50
115.7403688633494
 51
172.5491744442191
  0
LINE
  5
DA
330
1F
100
AcDbEntity
  8
枠_表
  6
CONTINUOUS
 62
     3
100
AcDbLine
 10
156.3745531466499
 20
28.07824865950815
 30
0.0
 11
156.3745531466499
 21
27.6867486595082
 31
0.0
  0
ARC
  5
DB
330
1F
100
AcDbEntity
  8
枠_表
  6
CONTINUOUS
 62
     3
100
AcDbCircle
 10
157.5391930697747
 20
27.74922760195577
 30
0.0
 40
1.166314609693994
100
AcDbArc
 50
183.0707787095794
 51
263.4402016072427
  0
LINE
  5
DC
330
1F
100
AcDbEntity
  8
枠_表
  6
CONTINUOUS
 62
     3
100
AcDbLine
 10
157.4059531466499
 20
26.59054865950824
 30
0.0
 11
157.75290314665
 21
26.59054865950824
 31
0.0
  0
ARC
  5
DD
330
1F
100
AcDbEntity
  8
枠_表
  6
CONTINUOUS
 62
     3
100
AcDbCircle
 10
157.4648938153184
 20
28.55672979060418
 30
0.0
 40
1.987163207995832
100
AcDbArc
 50
278.3335103000368
 51
329.12214641873
  0
ARC
  5
DE
330
1F
100
AcDbEntity
  8
枠_表
  6
CONTINUOUS
 62
     3
100
AcDbCircle
 10
-4498.60308443547
 20
156.2653049117578
 30
0.0
 40
4659.552002521183
100
AcDbArc
 50
358.4169008257799
 51
358.4423418242109
  0
ARC
  5
DF
330
1F
100
AcDbEntity
  8
枠_表
  6
CONTINUOUS
 62
     3
100
AcDbCircle
 10
163.1161756013863
 20
18.30138509023422
 30
0.0
 40
7.937818188836994
100
AcDbArc
 50
85.07099551674689
 51
93.91830029343228
  0
ARC
  5
E0
330
1F
100
AcDbEntity
  8
枠_表
  6
CONTINUOUS
 62
     3
100
AcDbCircle
 10
178.4817715790209
 20
27.98300294019631
 30
0.0
 40
14.79024198622985
100
AcDbArc
 50
179.8977458165987
 51
186.8855675734268
  0
ARC
  5
E1
330
1F
100
AcDbEntity
  8
枠_表
  6
CONTINUOUS
 62
     3
100
AcDbCircle
 10
165.913234447328
 20
30.21590450276116
 30
0.0
 40
2.216797912636262
100
AcDbArc
 50
134.9787476233347
 51
181.2369872983282
  0
ARC
  5
E2
330
1F
100
AcDbEntity
  8
枠_表
  6
CONTINUOUS
 62
     3
100
AcDbCircle
 10
165.4020029041106
 20
30.44732546277382
 30
0.0
 40
1.703290114094006
100
AcDbArc
 50
42.91644474042853
 51
128.3015542351336
  0
ARC
  5
E3
330
1F
100
AcDbEntity
  8
枠_表
  6
CONTINUOUS
 62
     3
100
AcDbCircle
 10
164.7889480913705
 20
30.40630277643115
 30
0.0
 40
2.214345015488308
100
AcDbArc
 50
359.2495022237244
 51
32.84055016678333
  0
ARC
  5
E4
330
1F
100
AcDbEntity
  8
枠_表
  6
CONTINUOUS
 62
     3
100
AcDbCircle
 10
134.0234675729948
 20
28.75502675764935
 30
0.0
 40
33.01951133337176
100
AcDbArc
 50
355.58624548738
 51
2.816115806820253
  0
ARC
  5
E5
330
1F
100
AcDbEntity
  8
枠_表
  6
CONTINUOUS
 62
     3
100
AcDbCircle
 10
167.5154281466501
 20
19.9203052384556
 30
0.0
 40
6.319386504253488
100
AcDbArc
 50
84.82155189294139
 51
95.17844810705877
  0
ARC
  5
E6
330
1F
100
AcDbEntity
  8
枠_表
  6
CONTINUOUS
 62
     3
100
AcDbCircle
 10
200.7315267323395
 20
27.78134749478268
 30
0.0
 40
32.68333159707643
100
AcDbArc
 50
176.2131780319488
 51
182.7488833337936
  0
ARC
  5
E7
330
1F
100
AcDbEntity
  8
枠_表
  6
CONTINUOUS
 62
     3
100
AcDbCircle
 10
155.8382720242011
 20
30.26631549624287
 30
0.0
 40
12.28561817573392
100
AcDbArc
 50
358.4775281223096
 51
2.117232414210064
  0
ARC
  5
E8
330
1F
100
AcDbEntity
  8
枠_表
  6
CONTINUOUS
 62
     3
100
AcDbCircle
 10
165.7581103068964
 20
30.72571884903059
 30
0.0
 40
2.35739930292118
100
AcDbArc
 50
359.8658335690532
 51
34.49363429411157
  0
ARC
  5
E9
330
1F
100
AcDbEntity
  8
枠_表
  6
CONTINUOUS
 62
     3
100
AcDbCircle
 10
166.1544811482754
 20
30.98409329595992
 30
0.0
 40
1.88442875111108
100
AcDbArc
 50
34.84393737091607
 51
92.5207065423111
  0
ARC
  5
EA
330
1F
100
AcDbEntity
  8
枠_表
  6
CONTINUOUS
 62
     3
100
AcDbCircle
 10
165.950821380051
 20
30.18551977637205
 30
0.0
 40
2.68389799331452
100
AcDbArc
 50
87.42068310381032
 51
147.4361518966862
  0
ARC
  5
EB
330
1F
100
AcDbEntity
  8
枠_表
  6
CONTINUOUS
 62
     3
100
AcDbCircle
 10
171.2114945479232
 20
31.8157136276611
 30
0.0
 40
7.524931000916362
100
AcDbArc
 50
172.9875214416311
 51
181.4134392789641
  0
ARC
  5
EC
330
1F
100
AcDbEntity
  8
枠_表
  6
CONTINUOUS
 62
     3
100
AcDbCircle
 10
163.1416569972247
 20
35.0441375962898
 30
0.0
 40
2.386698717092032
100
AcDbArc
 50
255.9341994177205
 51
284.5896440601899
  0
ARC
  5
ED
330
1F
100
AcDbEntity
  8
枠_表
  6
CONTINUOUS
 62
     3
100
AcDbCircle
 10
121.8235397734318
 20
29.39876117343497
 30
0.0
 40
40.87395612262144
100
AcDbArc
 50
355.5405243117485
 51
4.673398698656258
  0
LINE
  5
EE
330
1F
100
AcDbEntity
  8
枠_表
  6
CONTINUOUS
 62
     3
100
AcDbLine
 10
163.6969531466499
 20
30.16804865950823
 30
0.0
 11
163.6969531466499
 21
28.00939865950815
 31
0.0
  0
CIRCLE
  5
EF
330
1F
100
AcDbEntity
  8
枠_表
  6
CONTINUOUS
 62
     3
100
AcDbCircle
 10
171.057102807667
 20
35.11670933747425
 30
0.0
 40
0.714466893353978
  0
ARC
  5
F0
330
1F
100
AcDbEntity
  8
枠_表
  6
CONTINUOUS
 62
     3
100
AcDbCircle
 10
171.0291215205545
 20
35.30664948716159
 30
0.0
 40
2.638457097680414
100
AcDbArc
 50
256.6209501743446
 51
283.9984576255729
  0
ARC
  5
F1
330
1F
100
AcDbEntity
  8
枠_表
  6
CONTINUOUS
 62
     3
100
AcDbCircle
 10
171.0828817874266
 20
13.15960836824669
 30
0.0
 40
13.06571897050218
100
AcDbArc
 50
87.46575055044718
 51
92.90832285102188
  0
ARC
  5
F2
330
1F
100
AcDbEntity
  8
枠_表
  6
CONTINUOUS
 62
     3
100
AcDbCircle
 10
212.2508094359113
 20
29.43762011478778
 30
0.0
 40
40.71812781178001
100
AcDbArc
 50
175.3387608397566
 51
184.5428594926177
  0
ARC
  5
F3
330
1F
100
AcDbEntity
  8
枠_表
  6
CONTINUOUS
 62
     3
100
AcDbCircle
 10
126.1380115072773
 20
29.46499585532477
 30
0.0
 40
44.40152170071624
100
AcDbArc
 50
355.7940354718675
 51
4.229650257234435
  0
ARC
  5
F4
330
1F
100
AcDbEntity
  8
枠_表
  6
CONTINUOUS
 62
     3
100
AcDbCircle
 10
240.1288906465629
 20
194.8059486592841
 30
0.0
 40
174.0560045792631
100
AcDbArc
 50
248.6422112053103
 51
248.8567777804232
  0
ARC
  5
F5
330
1F
100
AcDbEntity
  8
枠_表
  6
CONTINUOUS
 62
     3
100
AcDbCircle
 10
175.9708565692113
 20
30.83326076727914
 30
0.0
 40
2.021815735184314
100
AcDbArc
 50
67.6615195708736
 51
88.69073168448988
  0
ARC
  5
F6
330
1F
100
AcDbEntity
  8
枠_表
  6
CONTINUOUS
 62
     3
100
AcDbCircle
 10
175.7542208856781
 20
30.21958195875228
 30
0.0
 40
2.63994973073505
100
AcDbArc
 50
92.3830157457649
 51
114.9635286746436
  0
ARC
  5
F7
330
1F
100
AcDbEntity
  8
枠_表
  6
CONTINUOUS
 62
     3
100
AcDbCircle
 10
175.5592699359922
 20
30.84018582203734
 30
0.0
 40
1.99686512061838
100
AcDbArc
 50
117.4083995939977
 51
176.1964688215695
  0
ARC
  5
F8
330
1F
100
AcDbEntity
  8
枠_表
  6
CONTINUOUS
 62
     3
100
AcDbCircle
 10
174.9119851585199
 20
30.64385538151063
 30
0.0
 40
1.338745211811222
100
AcDbArc
 50
181.2393899443581
 51
226.5942921332421
  0
ARC
  5
F9
330
1F
100
AcDbEntity
  8
枠_表
  6
CONTINUOUS
 62
     3
100
AcDbCircle
 10
175.70536291599
 20
31.44792822013377
 30
0.0
 40
2.468201901559134
100
AcDbArc
 50
226.0402388947521
 51
253.1776672992999
  0
ARC
  5
FA
330
1F
100
AcDbEntity
  8
枠_表
  6
CONTINUOUS
 62
     3
100
AcDbCircle
 10
173.6342978366085
 20
23.38914283510425
 30
0.0
 40
5.855556827945508
100
AcDbArc
 50
63.49050203733571
 51
76.6025921984959
  0
ARC
  5
FB
330
1F
100
AcDbEntity
  8
枠_表
  6
CONTINUOUS
 62
     3
100
AcDbCircle
 10
175.8616009170733
 20
27.79692450866341
 30
0.0
 40
0.917420304438028
100
AcDbArc
 50
6.538924194159028
 51
65.09756080693691
  0
ARC
  5
FC
330
1F
100
AcDbEntity
  8
枠_表
  6
CONTINUOUS
 62
     3
100
AcDbCircle
 10
175.6071555489302
 20
27.74004727514338
 30
0.0
 40
1.188790983753352
100
AcDbArc
 50
270.8867385422408
 51
352.7925382056679
  0
ARC
  5
FD
330
1F
100
AcDbEntity
  8
枠_表
  6
CONTINUOUS
 62
     3
100
AcDbCircle
 10
175.5272208646972
 20
28.33317279554771
 30
0.0
 40
1.796008070925054
100
AcDbArc
 50
207.7689879465537
 51
262.7817283832026
  0
ARC
  5
FE
330
1F
100
AcDbEntity
  8
枠_表
  6
CONTINUOUS
 62
     3
100
AcDbCircle
 10
175.1586010918554
 20
29.56313153622053
 30
0.0
 40
3.50655263156004
100
AcDbArc
 50
241.8829576087175
 51
265.9354096935781
  0
ARC
  5
FF
330
1F
100
AcDbEntity
  8
枠_表
  6
CONTINUOUS
 62
     3
100
AcDbCircle
 10
175.4932777293512
 20
28.33384934236093
 30
0.0
 40
2.26903011636129
100
AcDbArc
 50
271.2948770866744
 51
348.6654156292868
  0
ARC
  5
100
330
1F
100
AcDbEntity
  8
枠_表
  6
CONTINUOUS
 62
     3
100
AcDbCircle
 10
176.240914425839
 20
28.30434517063153
 30
0.0
 40
1.492490151459212
100
AcDbArc
 50
6.154262763177246
 51
76.1750990425562
  0
ARC
  5
101
330
1F
100
AcDbEntity
  8
枠_表
  6
CONTINUOUS
 62
     3
100
AcDbCircle
 10
179.1076933938411
 20
40.18718621007028
 30
0.0
 40
10.73128851703336
100
AcDbArc
 50
249.6420733479936
 51
256.4727051201885
  0
ARC
  5
102
330
1F
100
AcDbEntity
  8
枠_表
  6
CONTINUOUS
 62
     3
100
AcDbCircle
 10
175.8144270477489
 20
31.46277283533228
 30
0.0
 40
1.407127414674368
100
AcDbArc
 50
210.9501336849607
 51
251.7794729821079
  0
ARC
  5
103
330
1F
100
AcDbEntity
  8
枠_表
  6
CONTINUOUS
 62
     3
100
AcDbCircle
 10
177.2606281466526
 20
31.67646365950892
 30
0.0
 40
2.8137038745868
100
AcDbArc
 50
193.4375782160214
 51
199.459638038058
  0
ARC
  5
104
330
1F
100
AcDbEntity
  8
枠_表
  6
CONTINUOUS
 62
     3
100
AcDbCircle
 10
175.6070192972106
 20
31.25349989415846
 30
0.0
 40
1.071227862207862
100
AcDbArc
 50
92.11404364449162
 51
173.4175047026091
  0
ARC
  5
105
330
1F
100
AcDbEntity
  8
枠_表
  6
CONTINUOUS
 62
     3
100
AcDbCircle
 10
175.68294678255
 20
31.10858472583342
 30
0.0
 40
1.225172860204506
100
AcDbArc
 50
17.92452211681263
 51
85.16543319077402
  0
LINE
  5
106
330
1F
100
AcDbEntity
  8
枠_表
  6
CONTINUOUS
 62
     3
100
AcDbLine
 10
176.0170531466501
 20
32.85454865950814
 30
0.0
 11
175.6444531466501
 21
32.85454865950814
 31
0.0
  0
LINE
  5
107
330
1F
100
AcDbEntity
  8
枠_表
  6
CONTINUOUS
 62
     3
100
AcDbLine
 10
175.30155314665
 20
26.55139865950818
 30
0.0
 11
175.6255531466501
 21
26.55139865950818
 31
0.0
  0
LINE
  5
108
330
1F
100
AcDbEntity
  8
枠_表
  6
CONTINUOUS
 62
     3
100
AcDbLine
 10
173.9380531466501
 20
27.49639865950823
 30
0.0
 11
173.76255314665
 21
27.49639865950823
 31
0.0
  0
LINE
  5
109
330
1F
100
AcDbEntity
  8
枠_表
  6
CONTINUOUS
 62
     3
100
AcDbLine
 10
174.91005314665
 20
26.06539865950819
 30
0.0
 11
175.54455314665
 21
26.06539865950819
 31
0.0
  0
LINE
  5
10A
330
1F
100
AcDbEntity
  8
枠_表
  6
CONTINUOUS
 62
     3
100
AcDbLine
 10
155.8345531466501
 20
31.3438986595082
 30
0.0
 11
156.01005314665
 21
31.3438986595082
 31
0.0
  0
ARC
  5
10B
330
1F
100
AcDbEntity
  8
枠_表
  6
CONTINUOUS
 62
     3
100
AcDbCircle
 10
171.5068826264188
 20
27.51559519130009
 30
0.0
 40
2.255907480157676
100
AcDbArc
 50
332.398752142179
 51
359.5124385477117
  0
LINE
  5
10C
330
1F
100
AcDbEntity
  8
枠_表
  6
CONTINUOUS
 62
     3
100
AcDbLine
 10
176.7730531466499
 20
27.9013986595082
 30
0.0
 11
176.7865531466501
 21
27.59089865950815
 31
0.0
  0
LINE
  5
10D
330
1F
100
AcDbEntity
  8
枠_表
  6
CONTINUOUS
 62
     3
100
AcDbLine
 10
177.7248031466501
 20
28.4643486595082
 30
0.0
 11
177.7180531466499
 21
27.88789865950818
 31
0.0
  0
LINE
  5
10E
330
1F
100
AcDbEntity
  8
枠_表
  6
CONTINUOUS
 62
     3
100
AcDbLine
 10
174.5428531466499
 20
31.37629865950813
 30
0.0
 11
174.5239531466499
 21
31.02259865950813
 31
0.0
  0
LINE
  5
10F
330
1F
100
AcDbEntity
  8
枠_表
  6
CONTINUOUS
 62
     3
100
AcDbLine
 10
173.56680314665
 20
30.97264865950816
 30
0.0
 11
173.5735531466499
 21
30.61489865951259
 31
0.0
  0
LINE
  5
110
330
1F
100
AcDbEntity
  8
枠_表
  6
CONTINUOUS
 62
     3
100
AcDbLine
 10
175.5675031466499
 20
32.32399865950819
 30
0.0
 11
175.7862031466501
 21
32.3293986595082
 31
0.0
  0
LINE
  5
111
330
1F
100
AcDbEntity
  8
枠_表
  6
CONTINUOUS
 62
     3
100
AcDbLine
 10
176.8486531466501
 20
31.4856486595082
 30
0.0
 11
177.0194186973462
 21
31.4856486595082
 31
0.0
  0
ARC
  5
112
330
1F
100
AcDbEntity
  8
枠_表
  6
CONTINUOUS
 62
     3
100
AcDbCircle
 10
180.7684962137741
 20
30.78038875014996
 30
0.0
 40
3.814836007475662
100
AcDbArc
 50
153.7591918158498
 51
169.3462759801917
  0
TEXT
  5
114
330
1F
100
AcDbEntity
  8
枠_表
  6
CONTINUOUS
 62
     2
100
AcDbText
 10
180.4000000000005
 20
25.10000000000009
 30
0.0
 40
6.75
  1
ジャニス工業株式会社
 41
1.025641025641026
  7
EXCADTTF1
 72
     5
 11
270.4000000000005
 21
25.10000000000007
 31
0.0
100
AcDbText
  0
LINE
  5
115
330
1F
100
AcDbEntity
  8
枠_表
  6
EXLTYPE2
 62
     6
100
AcDbLine
 10
32.0
 20
30.0
 30
0.0
 11
94.0
 21
29.99999999999999
 31
0.0
  0
CIRCLE
  5
116
330
1F
100
AcDbEntity
  8
枠_表
  6
CONTINUOUS
 62
     6
100
AcDbCircle
 10
83.0
 20
24.99999999999999
 30
0.0
 40
0.20000004
  0
CIRCLE
  5
117
330
1F
100
AcDbEntity
  8
枠_表
  6
CONTINUOUS
 62
     6
100
AcDbCircle
 10
73.0
 20
24.99999999999999
 30
0.0
 40
0.20000004
  0
CIRCLE
  5
118
330
1F
100
AcDbEntity
  8
枠_表
  6
CONTINUOUS
 62
     6
100
AcDbCircle
 10
52.0
 20
25.0
 30
0.0
 40
0.20000004
  0
CIRCLE
  5
119
330
1F
100
AcDbEntity
  8
枠_表
  6
CONTINUOUS
 62
     6
100
AcDbCircle
 10
42.0
 20
25.0
 30
0.0
 40
0.20000004
  0
LINE
  5
11A
330
1F
100
AcDbEntity
  8
枠_表
  6
CONTINUOUS
 62
     6
100
AcDbLine
 10
32.0
 20
53.99999999999999
 30
0.0
 11
146.0
 21
53.99999999999999
 31
0.0
  0
LINE
  5
11B
330
1F
100
AcDbEntity
  8
枠_表
  6
CONTINUOUS
 62
     6
100
AcDbLine
 10
63.0
 20
63.99999999999999
 30
0.0
 11
63.0
 21
20.0
 31
0.0
  0
LINE
  5
11C
330
1F
100
AcDbEntity
  8
枠_表
  6
CONTINUOUS
 62
     6
100
AcDbLine
 10
94.0
 20
63.99999999999999
 30
0.0
 11
94.0
 21
19.99999999999999
 31
0.0
  0
LINE
  5
11D
330
1F
100
AcDbEntity
  8
枠_表
  6
CONTINUOUS
 62
     6
100
AcDbLine
 10
120.0
 20
63.99999999999999
 30
0.0
 11
120.0
 21
19.99999999999999
 31
0.0
  0
LINE
  5
11E
330
1F
100
AcDbEntity
  8
枠_表
  6
CONTINUOUS
 62
     6
100
AcDbLine
 10
146.0
 20
63.99999999999999
 30
0.0
 11
146.0
 21
19.99999999999999
 31
0.0
  0
LINE
  5
11F
330
1F
100
AcDbEntity
  8
枠_表
  6
CONTINUOUS
 62
     6
100
AcDbLine
 10
156.0
 20
63.99999999999999
 30
0.0
 11
156.0
 21
39.99999999999999
 31
0.0
  0
LINE
  5
120
330
1F
100
AcDbEntity
  8
枠_表
  6
CONTINUOUS
 62
     6
100
AcDbLine
 10
274.0
 20
63.99999999999998
 30
0.0
 11
274.0
 21
19.99999999999998
 31
0.0
  0
LINE
  5
121
330
1F
100
AcDbEntity
  8
枠_表
  6
CONTINUOUS
 62
     6
100
AcDbLine
 10
284.0
 20
63.99999999999998
 30
0.0
 11
284.0
 21
19.99999999999998
 31
0.0
  0
TEXT
  5
122
330
1F
100
AcDbEntity
  8
枠_表
  6
CONTINUOUS
 62
     2
100
AcDbText
 10
36.5
 20
54.74999999999999
 30
0.0
 40
8.5
  1
製図
 41
1.509694117647059
  7
EXCADSTD
 72
     5
 11
56.6652
 21
54.74999999999999
 31
0.0
100
AcDbText
  0
TEXT
  5
123
330
1F
100
AcDbEntity
  8
枠_表
  6
CONTINUOUS
 62
     2
100
AcDbText
 10
67.5
 20
54.74999999999999
 30
0.0
 40
8.5
  1
写図
 41
1.509694117647059
  7
EXCADSTD
 72
     5
 11
87.6652
 21
54.74999999999999
 31
0.0
100
AcDbText
  0
TEXT
  5
124
330
1F
100
AcDbEntity
  8
枠_表
  6
CONTINUOUS
 62
     2
100
AcDbText
 10
97.5
 20
54.74999999999999
 30
0.0
 40
8.5
  1
検図
 41
1.303826737967915
  7
EXCADSTD
 72
     5
 11
114.9154
 21
54.74999999999998
 31
0.0
100
AcDbText
  0
TEXT
  5
125
330
1F
100
AcDbEntity
  8
枠_表
  6
CONTINUOUS
 62
     2
100
AcDbText
 10
123.5
 20
54.74999999999999
 30
0.0
 40
8.5
  1
承認
 41
1.303826737967915
  7
EXCADSTD
 72
     5
 11
140.9154
 21
54.74999999999998
 31
0.0
100
AcDbText
  0
TEXT
  5
126
330
1F
100
AcDbEntity
  8
枠_表
  6
CONTINUOUS
 62
     2
100
AcDbText
 10
147.1500000000001
 20
42.74999999999999
 30
0.0
 40
8.5
  1
名
 41
1.120000000000002
  7
EXCADSTD
 72
     5
 11
153.9500000000001
 21
42.74999999999999
 31
0.0
100
AcDbText
  0
TEXT
  5
127
330
1F
100
AcDbEntity
  8
枠_表
  6
CONTINUOUS
 62
     2
100
AcDbText
 10
147.1500000000001
 20
52.74999999999999
 30
0.0
 40
8.5
  1
品
 41
1.120000000000002
  7
EXCADSTD
 72
     5
 11
153.9500000000001
 21
52.74999999999999
 31
0.0
100
AcDbText
  0
TEXT
  5
128
330
1F
100
AcDbEntity
  8
枠_表
  6
CONTINUOUS
 62
     2
100
AcDbText
 10
275.15
 20
52.74999999999998
 30
0.0
 40
8.5
  1
品
 41
1.120000000000002
  7
EXCADSTD
 72
     5
 11
281.95
 21
52.74999999999998
 31
0.0
100
AcDbText
  0
TEXT
  5
129
330
1F
100
AcDbEntity
  8
枠_表
  6
CONTINUOUS
 62
     2
100
AcDbText
 10
275.15
 20
42.74999999999998
 30
0.0
 40
8.5
  1
番
 41
1.120000000000002
  7
EXCADSTD
 72
     5
 11
281.95
 21
42.74999999999998
 31
0.0
100
AcDbText
  0
TEXT
  5
12A
330
1F
100
AcDbEntity
  8
枠_表
  6
CONTINUOUS
 62
     2
100
AcDbText
 10
275.15
 20
30.14999999999961
 30
0.0
 40
8.5
  1
図
 41
1.120000000000002
  7
EXCADSTD
 72
     5
 11
281.95
 21
30.14999999999961
 31
0.0
100
AcDbText
  0
TEXT
  5
12B
330
1F
100
AcDbEntity
  8
枠_表
  6
CONTINUOUS
 62
     2
100
AcDbText
 10
275.15
 20
21.54999999999971
 30
0.0
 40
8.5
  1
番
 41
1.120000000000002
  7
EXCADSTD
 72
     5
 11
281.95
 21
21.54999999999971
 31
0.0
100
AcDbText
  0
LINE
  5
12C
330
1F
100
AcDbEntity
  8
枠_表
  6
CONTINUOUS
 62
     7
100
AcDbLine
 10
32.00000000000006
 20
20.0
 30
0.0
 11
31.99999999999999
 21
572.0
 31
0.0
  0
LINE
  5
12D
330
1F
100
AcDbEntity
  8
枠_表
  6
CONTINUOUS
 62
     6
100
AcDbLine
 10
146.0
 20
40.0
 30
0.0
 11
396.0
 21
40.0
 31
0.0
  0
LINE
  5
12E
330
1F
100
AcDbEntity
  8
枠_表
  6
CONTINUOUS
 62
     7
100
AcDbLine
 10
396.0
 20
572.0
 30
0.0
 11
32.00000000000009
 21
571.9999999999999
 31
0.0
  0
LINE
  5
12F
330
1F
100
AcDbEntity
  8
枠_表
  6
CONTINUOUS
 62
     7
100
AcDbLine
 10
396.0
 20
572.0
 30
0.0
 11
396.0
 21
20.0
 31
0.0
  0
LINE
  5
130
330
1F
100
AcDbEntity
  8
枠_表
  6
CONTINUOUS
 62
     7
100
AcDbLine
 10
32.0
 20
20.0
 30
0.0
 11
396.0
 21
20.0
 31
0.0
  0
TEXT
  5
131
330
1F
100
AcDbEntity
  8
枠_表
  6
CONTINUOUS
 62
     2
100
AcDbText
 10
384.0385185186
 20
41.74
 30
0.0
 40
8.0
  1
２
 41
1.4
  7
EXCADSTD
 72
     5
 11
392.0385185186
 21
41.74
 31
0.0
100
AcDbText
  0
LINE
  5
132
330
1F
100
AcDbEntity
  8
枠_表
  6
CONTINUOUS
 62
     7
100
AcDbLine
 10
396.0
 20
64.0
 30
0.0
 11
32.00000000000006
 21
63.99999999999994
 31
0.0
  0
TEXT
  5
133
330
1F
100
AcDbEntity
  8
枠_表
  6
CONTINUOUS
 62
     2
100
AcDbText
 10
146.0
 20
553.0
 30
0.0
 40
8.0
  1
１
 41
1.120000000000001
  7
EXCADSTD
 72
     5
 11
152.4
 21
553.0
 31
0.0
100
AcDbText
  0
TEXT
  5
134
330
1F
100
AcDbEntity
  8
枠_表
  6
CONTINUOUS
 62
     2
100
AcDbText
 10
174.0
 20
563.0
 30
0.0
 40
8.0
  1
品名
 41
2.333163636363636
  7
EXCADSTD
 72
     5
 11
203.3312
 21
563.0
 31
0.0
100
AcDbText
  0
TEXT
  5
135
330
1F
100
AcDbEntity
  8
枠_表
  6
CONTINUOUS
 62
     2
100
AcDbText
 10
287.5000000000001
 20
563.0
 30
0.0
 40
8.0
  1
個数
 41
1.239493181818182
  7
EXCADSTD
 72
     5
 11
303.0822000000001
 21
563.0
 31
0.0
100
AcDbText
  0
TEXT
  5
136
330
1F
100
AcDbEntity
  8
枠_表
  6
CONTINUOUS
 62
     2
100
AcDbText
 10
141.5
 20
563.0
 30
0.0
 40
8.0
  1
番号
 41
1.239493181818182
  7
EXCADSTD
 72
     5
 11
157.0822
 21
563.0
 31
0.0
100
AcDbText
  0
TEXT
  5
137
330
1F
100
AcDbEntity
  8
枠_表
  6
CONTINUOUS
 62
     2
100
AcDbText
 10
332.0000000000001
 20
563.0
 30
0.0
 40
8.0
  1
備考
 41
2.770631818181819
  7
EXCADSTD
 72
     5
 11
366.8308000000001
 21
563.0
 31
0.0
100
AcDbText
  0
LINE
  5
138
330
1F
100
AcDbEntity
  8
枠_表
  6
CONTINUOUS
 62
     6
100
AcDbLine
 10
140.0
 20
562.0
 30
0.0
 11
396.0000000000001
 21
562.0
 31
0.0
  0
LINE
  5
139
330
1F
100
AcDbEntity
  8
枠_表
  6
CONTINUOUS
 62
     6
100
AcDbLine
 10
140.0
 20
552.0
 30
0.0
 11
396.0000000000001
 21
552.0
 31
0.0
  0
TEXT
  5
13A
330
1F
100
AcDbEntity
  8
枠_表
  6
CONTINUOUS
 62
     2
100
AcDbText
 10
234.0
 20
563.0
 30
0.0
 40
8.0
  1
材質
 41
2.333163636363636
  7
EXCADSTD
 72
     5
 11
263.3312
 21
563.0
 31
0.0
100
AcDbText
  0
LINE
  5
13B
330
1F
100
AcDbEntity
  8
枠_表
  6
CONTINUOUS
 62
     6
100
AcDbLine
 10
140.0000000000001
 20
542.0
 30
0.0
 11
396.0000000000001
 21
542.0
 31
0.0
  0
LINE
  5
13C
330
1F
100
AcDbEntity
  8
枠_表
  6
CONTINUOUS
 62
     6
100
AcDbLine
 10
140.0000000000001
 20
572.0
 30
0.0
 11
140.0000000000001
 21
542.0
 31
0.0
  0
LINE
  5
13D
330
1F
100
AcDbEntity
  8
枠_表
  6
CONTINUOUS
 62
     6
100
AcDbLine
 10
160.0000000000001
 20
572.0
 30
0.0
 11
160.0000000000001
 21
542.0
 31
0.0
  0
LINE
  5
13E
330
1F
100
AcDbEntity
  8
枠_表
  6
CONTINUOUS
 62
     6
100
AcDbLine
 10
220.0000000000001
 20
572.0
 30
0.0
 11
220.0000000000001
 21
542.0
 31
0.0
  0
LINE
  5
13F
330
1F
100
AcDbEntity
  8
枠_表
  6
CONTINUOUS
 62
     6
100
AcDbLine
 10
286.0000000000001
 20
572.0
 30
0.0
 11
286.0000000000001
 21
542.0
 31
0.0
  0
LINE
  5
140
330
1F
100
AcDbEntity
  8
枠_表
  6
CONTINUOUS
 62
     6
100
AcDbLine
 10
306.0000000000001
 20
572.0
 30
0.0
 11
306.0000000000001
 21
542.0
 31
0.0
  0
TEXT
  5
141
330
1F
100
AcDbEntity
  8
枠_表
  6
CONTINUOUS
 62
     2
100
AcDbText
 10
146.0000000000001
 20
543.0
 30
0.0
 40
8.0
  1
２
 41
1.120000000000001
  7
EXCADSTD
 72
     5
 11
152.4000000000001
 21
543.0
 31
0.0
100
AcDbText
  0
TEXT
  5
142
330
1F
100
AcDbEntity
  8
枠_表
  6
CONTINUOUS
 62
     2
100
AcDbText
 10
161.0
 20
553.0
 30
0.0
 40
8.0
  1
自動洗浄ユニット
 41
1.131914890509971
  7
EXCADSTD
 72
     5
 11
221.799999833107
 21
553.0
 31
0.0
100
AcDbText
  0
TEXT
  5
143
330
1F
100
AcDbEntity
  8
枠_表
  6
CONTINUOUS
 62
     2
100
AcDbText
 10
161.0000000000001
 20
543.0
 30
0.0
 40
8.0
  1
洗浄管
 41
1.224999997545691
  7
EXCADSTD
 72
     5
 11
184.7999999523163
 21
543.0
 31
0.0
100
AcDbText
  0
TEXT
  5
144
330
1F
100
AcDbEntity
  8
枠_表
  6
CONTINUOUS
 62
     2
100
AcDbText
 10
37.5
 20
37.00000000000005
 30
0.0
 40
10.0
  1
川野
 41
1.166581818181818
  7
EXCADSTD
 72
     5
 11
55.832
 21
37.00000000000004
 31
0.0
100
AcDbText
  0
TEXT
  5
145
330
1F
100
AcDbEntity
  8
枠_表
  6
CONTINUOUS
 62
     2
100
AcDbText
 10
33.25000000384193
 20
22.00000000000005
 30
0.0
 40
6.0
  1
'25
 41
0.4689784011919448
  7
EXCADSTD
 72
     5
 11
39.54770996270519
 21
22.00000000000005
 31
0.0
100
AcDbText
  0
TEXT
  5
146
330
1F
100
AcDbEntity
  8
枠_表
  6
CONTINUOUS
 62
     2
100
AcDbText
 10
165.4
 20
47.59999999999999
 30
0.0
 40
10.0
  1
センサー小便器洗浄弁
 41
1.079661016949153
  7
EXCADSTD
 72
     5
 11
256.4
 21
47.59999999999997
 31
0.0
100
AcDbText
  0
TEXT
  5
147
330
1F
100
AcDbEntity
  8
枠_表
  6
CONTINUOUS
 62
     2
100
AcDbText
 10
307.0000000000001
 20
543.0
 30
0.0
 40
8.0
  1
クロムメッキ,つば付洗浄管
 41
0.8357623178060815
  7
EXCADSTD
 72
     5
 11
377.9999988079072
 21
543.0
 31
0.0
100
AcDbText
  0
TEXT
  5
148
330
1F
100
AcDbEntity
  8
枠_表
  6
CONTINUOUS
 62
     7
100
AcDbText
 10
302.0000000000001
 20
47.0
 30
0.0
 40
10.0
  1
ＪＵ６５Ｚ１
  7
EXCADSTD
 72
     5
 11
352.0000000000001
 21
47.0
 31
0.0
100
AcDbText
  0
TEXT
  5
149
330
1F
100
AcDbEntity
  8
枠_表
  6
CONTINUOUS
 62
     2
100
AcDbText
 10
292.0
 20
553.0
 30
0.0
 40
8.0
  1
１
 41
1.119999999999996
  7
EXCADSTD
 72
     5
 11
298.4
 21
553.0
 31
0.0
100
AcDbText
  0
TEXT
  5
14A
330
1F
100
AcDbEntity
  8
枠_表
  6
CONTINUOUS
 62
     2
100
AcDbText
 10
292.0000000000001
 20
543.0
 30
0.0
 40
8.0
  1
１
 41
1.119999999999996
  7
EXCADSTD
 72
     5
 11
298.4
 21
543.0
 31
0.0
100
AcDbText
  0
TEXT
  5
14B
330
1F
100
AcDbEntity
  8
枠_表
  6
CONTINUOUS
 62
     2
100
AcDbText
 10
221.0000000000001
 20
543.0
 30
0.0
 40
8.0
  1
銅管
 41
1.195746361898021
  7
EXCADSTD
 72
     5
 11
236.0322399781466
 21
543.0
 31
0.0
100
AcDbText
  0
TEXT
  5
14C
330
1F
100
AcDbEntity
  8
枠_表
  6
CONTINUOUS
 62
     7
100
AcDbText
 10
300.4
 20
24.4
 30
0.0
 40
12.0
  1
３４３９１０
 41
1.233333333333333
  7
EXCADSTD
 72
     5
 11
374.4
 21
24.4
 31
0.0
100
AcDbText
  0
TEXT
  5
14D
330
1F
100
AcDbEntity
  8
枠_表
  6
CONTINUOUS
 62
     2
100
AcDbText
 10
43.5
 20
22.00000000000005
 30
0.0
 40
6.0
  1
05
 41
0.52972972972973
  7
EXCADSTD
 72
     5
 11
49.1
 21
22.00000000000005
 31
0.0
100
AcDbText
  0
TEXT
  5
14E
330
1F
100
AcDbEntity
  8
枠_表
  6
CONTINUOUS
 62
     2
100
AcDbText
 10
54.60000001999992
 20
22.00000000000005
 30
0.0
 40
6.0
  1
30
 41
0.4540540540540539
  7
EXCADSTD
 72
     5
 11
59.40000001999992
 21
22.00000000000005
 31
0.0
100
AcDbText
  0
LINE
  5
14F
330
1F
100
AcDbEntity
  8
図
  6
CONTINUOUS
 62
     6
100
AcDbLine
 10
362.1037684707016
 20
264.1862576603998
 30
0.0
 11
362.1037684707016
 21
285.040246683
 31
0.0
  0
LINE
  5
150
330
1F
100
AcDbEntity
  8
図
  6
CONTINUOUS
 62
     6
100
AcDbLine
 10
347.8000000000019
 20
283.8440151536997
 30
0.0
 11
363.3000000000015
 21
283.8440151536997
 31
0.0
  0
LINE
  5
151
330
1F
100
AcDbEntity
  8
図
  6
CONTINUOUS
 62
     6
100
AcDbLine
 10
347.8000000000019
 20
265.3824891897002
 30
0.0
 11
363.3000000000015
 21
265.3824891897002
 31
0.0
  0
LINE
  5
152
330
1F
100
AcDbEntity
  8
図
  6
EXLTYPE3
 62
     6
100
AcDbLine
 10
370.8
 20
274.6132521716999
 30
0.0
 11
330.2
 21
274.6132521716999
 31
0.0
  0
LINE
  5
153
330
1F
100
AcDbEntity
  8
図
  6
CONTINUOUS
 62
     6
100
AcDbLine
 10
123.4130337885015
 20
391.9569717939002
 30
0.0
 11
95.56061936220135
 21
391.9569717939002
 31
0.0
  0
LINE
  5
154
330
1F
100
AcDbEntity
  8
図
  6
CONTINUOUS
 62
     6
100
AcDbLine
 10
95.56061936220135
 20
377.8282529439002
 30
0.0
 11
123.4130337885015
 21
377.8282529439002
 31
0.0
  0
LINE
  5
155
330
1F
100
AcDbEntity
  8
図
  6
CONTINUOUS
 62
     6
100
AcDbLine
 10
117.4978101633017
 20
398.3243144223001
 30
0.0
 11
118.5998502336013
 21
398.3243144223001
 31
0.0
  0
LINE
  5
156
330
1F
100
AcDbEntity
  8
図
  6
CONTINUOUS
 62
     6
100
AcDbLine
 10
115.8212021931015
 20
395.9506896555003
 30
0.0
 11
115.8212021931015
 21
398.0040634616998
 31
0.0
  0
LINE
  5
157
330
1F
100
AcDbEntity
  8
図
  6
CONTINUOUS
 62
     6
100
AcDbLine
 10
97.59515487660133
 20
397.2599509356
 30
0.0
 11
98.17914192240164
 21
397.4012381241
 31
0.0
  0
LINE
  5
158
330
1F
100
AcDbEntity
  8
図
  6
CONTINUOUS
 62
     6
100
AcDbLine
 10
98.17914192240164
 20
397.4012381241
 30
0.0
 11
98.61242263380132
 21
397.8439379813998
 31
0.0
  0
LINE
  5
159
330
1F
100
AcDbEntity
  8
図
  6
CONTINUOUS
 62
     6
100
AcDbLine
 10
98.61242263380132
 20
397.8439379813998
 30
0.0
 11
98.78196726000147
 21
398.4561824648999
 31
0.0
  0
LINE
  5
15A
330
1F
100
AcDbEntity
  8
図
  6
CONTINUOUS
 62
     6
100
AcDbLine
 10
98.78196726000147
 20
398.4561824648999
 30
0.0
 11
98.47113544530134
 21
399.3039055959002
 31
0.0
  0
LINE
  5
15B
330
1F
100
AcDbEntity
  8
図
  6
CONTINUOUS
 62
     6
100
AcDbLine
 10
98.47113544530134
 20
399.3039055959002
 30
0.0
 11
97.69876548150137
 21
399.6618331401
 31
0.0
  0
LINE
  5
15C
330
1F
100
AcDbEntity
  8
図
  6
CONTINUOUS
 62
     6
100
AcDbLine
 10
96.33298932600133
 20
399.6618331401
 30
0.0
 11
97.69876548150137
 21
399.6618331401
 31
0.0
  0
LINE
  5
15D
330
1F
100
AcDbEntity
  8
図
  6
CONTINUOUS
 62
     6
100
AcDbLine
 10
94.4679984378015
 20
395.9506896555003
 30
0.0
 11
97.6799271897014
 21
395.9506896555003
 31
0.0
  0
LINE
  5
15E
330
1F
100
AcDbEntity
  8
図
  6
CONTINUOUS
 62
     6
100
AcDbLine
 10
95.08024292130153
 20
401.1688964841
 30
0.0
 11
97.99075900440153
 21
401.1688964841
 31
0.0
  0
LINE
  5
15F
330
1F
100
AcDbEntity
  8
図
  6
CONTINUOUS
 62
     6
100
AcDbLine
 10
108.2858854731014
 20
395.7057918620998
 30
0.0
 11
108.2858854731014
 21
395.1689005458001
 31
0.0
  0
LINE
  5
160
330
1F
100
AcDbEntity
  8
図
  6
CONTINUOUS
 62
     6
100
AcDbLine
 10
105.2340822015015
 20
395.9506896555003
 30
0.0
 11
108.0504068256016
 21
395.9506896555003
 31
0.0
  0
LINE
  5
161
330
1F
100
AcDbEntity
  8
図
  6
CONTINUOUS
 62
     6
100
AcDbLine
 10
103.4538636264017
 20
401.1783156299998
 30
0.0
 11
102.3235661184015
 21
400.9805135660999
 31
0.0
  0
LINE
  5
162
330
1F
100
AcDbEntity
  8
図
  6
CONTINUOUS
 62
     6
100
AcDbLine
 10
102.3235661184015
 20
400.9805135660999
 30
0.0
 11
101.3628132366014
 21
400.4247839580002
 31
0.0
  0
LINE
  5
163
330
1F
100
AcDbEntity
  8
図
  6
CONTINUOUS
 62
     6
100
AcDbLine
 10
101.3628132366014
 20
400.4247839580002
 30
0.0
 11
100.7223113154016
 21
399.5864799729001
 31
0.0
  0
LINE
  5
164
330
1F
100
AcDbEntity
  8
図
  6
CONTINUOUS
 62
     6
100
AcDbLine
 10
100.7223113154016
 20
399.5864799729001
 30
0.0
 11
100.4962518138016
 21
398.5974696534003
 31
0.0
  0
LINE
  5
165
330
1F
100
AcDbEntity
  8
図
  6
CONTINUOUS
 62
     6
100
AcDbLine
 10
100.4962518138016
 20
398.6068887993001
 30
0.0
 11
100.4962518138016
 21
395.9506896555003
 31
0.0
  0
LINE
  5
166
330
1F
100
AcDbEntity
  8
図
  6
CONTINUOUS
 62
     6
100
AcDbLine
 10
106.6563732324014
 20
401.1783156299998
 30
0.0
 11
105.2340822015015
 21
401.1783156299998
 31
0.0
  0
LINE
  5
167
330
1F
100
AcDbEntity
  8
図
  6
CONTINUOUS
 62
     6
100
AcDbLine
 10
106.6563732324014
 20
397.3729806864002
 30
0.0
 11
106.6563732324014
 21
401.1783156299998
 31
0.0
  0
LINE
  5
168
330
1F
100
AcDbEntity
  8
図
  6
CONTINUOUS
 62
     6
100
AcDbLine
 10
108.2858854731014
 20
395.1689005458001
 30
0.0
 11
109.7646913794013
 21
395.1689005458001
 31
0.0
  0
LINE
  5
169
330
1F
100
AcDbEntity
  8
図
  6
CONTINUOUS
 62
     6
100
AcDbLine
 10
105.2340822015015
 20
401.1783156299998
 30
0.0
 11
105.2340822015015
 21
395.9506896555003
 31
0.0
  0
LINE
  5
16A
330
1F
100
AcDbEntity
  8
図
  6
CONTINUOUS
 62
     6
100
AcDbLine
 10
96.08809153260131
 20
397.2599509356
 30
0.0
 11
97.59515487660133
 21
397.2599509356
 31
0.0
  0
LINE
  5
16B
330
1F
100
AcDbEntity
  8
図
  6
CONTINUOUS
 62
     6
100
AcDbLine
 10
95.08024292130153
 20
401.1688964841
 30
0.0
 11
94.4679984378015
 21
395.9506896555003
 31
0.0
  0
LINE
  5
16C
330
1F
100
AcDbEntity
  8
図
  6
CONTINUOUS
 62
     6
100
AcDbLine
 10
100.4962518138016
 20
395.9506896555003
 30
0.0
 11
104.6500951557016
 21
395.9506896555003
 31
0.0
  0
LINE
  5
16D
330
1F
100
AcDbEntity
  8
図
  6
CONTINUOUS
 62
     6
100
AcDbLine
 10
104.6500951557016
 20
399.1343609697
 30
0.0
 11
102.3706618479016
 21
399.1343609697
 31
0.0
  0
LINE
  5
16E
330
1F
100
AcDbEntity
  8
図
  6
CONTINUOUS
 62
     6
100
AcDbLine
 10
104.6500951557016
 20
397.8721954191
 30
0.0
 11
104.6500951557016
 21
399.1343609697
 31
0.0
  0
LINE
  5
16F
330
1F
100
AcDbEntity
  8
図
  6
CONTINUOUS
 62
     6
100
AcDbLine
 10
101.9656385742016
 20
397.8721954191
 30
0.0
 11
104.6500951557016
 21
397.8721954191
 31
0.0
  0
LINE
  5
170
330
1F
100
AcDbEntity
  8
図
  6
CONTINUOUS
 62
     6
100
AcDbLine
 10
104.6500951557016
 20
397.2599509356
 30
0.0
 11
104.6500951557016
 21
395.9412705096001
 31
0.0
  0
LINE
  5
171
330
1F
100
AcDbEntity
  8
図
  6
CONTINUOUS
 62
     6
100
AcDbLine
 10
101.9656385742016
 20
397.2599509356
 30
0.0
 11
104.6500951557016
 21
397.2599509356
 31
0.0
  0
LINE
  5
172
330
1F
100
AcDbEntity
  8
図
  6
CONTINUOUS
 62
     6
100
AcDbLine
 10
101.9656385742016
 20
397.8721954191
 30
0.0
 11
101.9656385742016
 21
397.2599509356
 31
0.0
  0
LINE
  5
173
330
1F
100
AcDbEntity
  8
図
  6
CONTINUOUS
 62
     6
100
AcDbLine
 10
106.6563732324014
 20
397.3729806864002
 30
0.0
 11
108.5778789960016
 21
397.3823998323
 31
0.0
  0
LINE
  5
174
330
1F
100
AcDbEntity
  8
図
  6
CONTINUOUS
 62
     6
100
AcDbLine
 10
96.33298932600133
 20
399.6618331401
 30
0.0
 11
96.08809153260131
 21
397.2693700814997
 31
0.0
  0
LINE
  5
175
330
1F
100
AcDbEntity
  8
図
  6
CONTINUOUS
 62
     6
100
AcDbLine
 10
97.6799271897014
 20
395.9506896555003
 30
0.0
 11
98.93267359440165
 21
396.2803597619999
 31
0.0
  0
LINE
  5
176
330
1F
100
AcDbEntity
  8
図
  6
CONTINUOUS
 62
     6
100
AcDbLine
 10
98.93267359440165
 20
396.2803597619999
 30
0.0
 11
99.8463307467016
 21
397.2034360602001
 31
0.0
  0
LINE
  5
177
330
1F
100
AcDbEntity
  8
図
  6
CONTINUOUS
 62
     6
100
AcDbLine
 10
99.8463307467016
 20
397.2034360602001
 30
0.0
 11
100.1854199991014
 21
398.4561824648999
 31
0.0
  0
LINE
  5
178
330
1F
100
AcDbEntity
  8
図
  6
CONTINUOUS
 62
     6
100
AcDbLine
 10
100.1854199991014
 20
398.4561824648999
 30
0.0
 11
99.91226476800125
 21
399.7277671614001
 31
0.0
  0
LINE
  5
179
330
1F
100
AcDbEntity
  8
図
  6
CONTINUOUS
 62
     6
100
AcDbLine
 10
99.91226476800125
 20
399.7277671614001
 30
0.0
 11
99.12105651240131
 21
400.7073583350002
 31
0.0
  0
LINE
  5
17A
330
1F
100
AcDbEntity
  8
図
  6
CONTINUOUS
 62
     6
100
AcDbLine
 10
99.12105651240131
 20
400.7073583350002
 30
0.0
 11
97.99075900440153
 21
401.1688964841
 31
0.0
  0
LINE
  5
17B
330
1F
100
AcDbEntity
  8
図
  6
CONTINUOUS
 62
     6
100
AcDbLine
 10
116.1037765701014
 20
401.1783156299998
 30
0.0
 11
117.4978101633017
 21
401.1783156299998
 31
0.0
  0
LINE
  5
17C
330
1F
100
AcDbEntity
  8
図
  6
CONTINUOUS
 62
     6
100
AcDbLine
 10
110.0661040482016
 20
401.1783156299998
 30
0.0
 11
111.0739526595014
 21
401.1783156299998
 31
0.0
  0
LINE
  5
17D
330
1F
100
AcDbEntity
  8
図
  6
CONTINUOUS
 62
     6
100
AcDbLine
 10
115.8212021931015
 20
397.9946443158
 30
0.0
 11
115.6139809833014
 21
399.2191332828001
 31
0.0
  0
LINE
  5
17E
330
1F
100
AcDbEntity
  8
図
  6
CONTINUOUS
 62
     6
100
AcDbLine
 10
115.6139809833014
 20
399.2191332828001
 30
0.0
 11
115.0488322293015
 21
400.2458201858998
 31
0.0
  0
LINE
  5
17F
330
1F
100
AcDbEntity
  8
図
  6
CONTINUOUS
 62
     6
100
AcDbLine
 10
115.0488322293015
 20
400.2458201858998
 30
0.0
 11
114.1916899524015
 21
400.9334178365997
 31
0.0
  0
LINE
  5
180
330
1F
100
AcDbEntity
  8
図
  6
CONTINUOUS
 62
     6
100
AcDbLine
 10
114.1916899524015
 20
400.9334178365997
 30
0.0
 11
113.1838413411012
 21
401.1783156299998
 31
0.0
  0
LINE
  5
181
330
1F
100
AcDbEntity
  8
図
  6
CONTINUOUS
 62
     6
100
AcDbLine
 10
112.2325076052014
 20
401.1783156299998
 30
0.0
 11
113.1838413411012
 21
401.1783156299998
 31
0.0
  0
LINE
  5
182
330
1F
100
AcDbEntity
  8
図
  6
CONTINUOUS
 62
     6
100
AcDbLine
 10
118.7317182762015
 20
395.9506896555003
 30
0.0
 11
120.1445901612012
 21
395.9506896555003
 31
0.0
  0
LINE
  5
183
330
1F
100
AcDbEntity
  8
図
  6
CONTINUOUS
 62
     6
100
AcDbLine
 10
120.1445901612012
 20
397.9946443158
 30
0.0
 11
120.1445901612012
 21
395.9506896555003
 31
0.0
  0
LINE
  5
184
330
1F
100
AcDbEntity
  8
図
  6
CONTINUOUS
 62
     6
100
AcDbLine
 10
120.1445901612012
 20
397.9946443158
 30
0.0
 11
119.9467880973014
 21
399.2191332828001
 31
0.0
  0
LINE
  5
185
330
1F
100
AcDbEntity
  8
図
  6
CONTINUOUS
 62
     6
100
AcDbLine
 10
119.9467880973014
 20
399.2191332828001
 30
0.0
 11
119.3722201974012
 21
400.2458201858998
 31
0.0
  0
LINE
  5
186
330
1F
100
AcDbEntity
  8
図
  6
CONTINUOUS
 62
     6
100
AcDbLine
 10
119.3722201974012
 20
400.2458201858998
 30
0.0
 11
118.5150779205012
 21
400.9334178365997
 31
0.0
  0
LINE
  5
187
330
1F
100
AcDbEntity
  8
図
  6
CONTINUOUS
 62
     6
100
AcDbLine
 10
118.5150779205012
 20
400.9334178365997
 30
0.0
 11
117.4978101633017
 21
401.1783156299998
 31
0.0
  0
LINE
  5
188
330
1F
100
AcDbEntity
  8
図
  6
CONTINUOUS
 62
     6
100
AcDbLine
 10
124.5056547129013
 20
397.5519444584997
 30
0.0
 11
124.3078526490015
 21
398.9365589057997
 31
0.0
  0
LINE
  5
189
330
1F
100
AcDbEntity
  8
図
  6
CONTINUOUS
 62
     6
100
AcDbLine
 10
124.3078526490015
 20
398.9365589057997
 30
0.0
 11
123.7332847491014
 21
400.1139521433001
 31
0.0
  0
LINE
  5
18A
330
1F
100
AcDbEntity
  8
図
  6
CONTINUOUS
 62
     6
100
AcDbLine
 10
123.7332847491014
 20
400.1139521433001
 30
0.0
 11
122.8761424722013
 21
400.9051603989
 31
0.0
  0
LINE
  5
18B
330
1F
100
AcDbEntity
  8
図
  6
CONTINUOUS
 62
     6
100
AcDbLine
 10
122.8761424722013
 20
400.9051603989
 30
0.0
 11
121.8588747150013
 21
401.1783156299998
 31
0.0
  0
LINE
  5
18C
330
1F
100
AcDbEntity
  8
図
  6
CONTINUOUS
 62
     6
100
AcDbLine
 10
120.4648411218016
 20
401.1783156299998
 30
0.0
 11
121.8588747150013
 21
401.1783156299998
 31
0.0
  0
LINE
  5
18D
330
1F
100
AcDbEntity
  8
図
  6
CONTINUOUS
 62
     6
100
AcDbLine
 10
124.5056547129013
 20
395.9506896555003
 30
0.0
 11
124.5056547129013
 21
397.5519444584997
 31
0.0
  0
LINE
  5
18E
330
1F
100
AcDbEntity
  8
図
  6
CONTINUOUS
 62
     6
100
AcDbLine
 10
123.1022019738014
 20
397.5519444584997
 30
0.0
 11
122.9326573476017
 21
398.5974696534003
 31
0.0
  0
LINE
  5
18F
330
1F
100
AcDbEntity
  8
図
  6
CONTINUOUS
 62
     6
100
AcDbLine
 10
122.9326573476017
 20
398.5974696534003
 30
0.0
 11
122.4805383444016
 21
399.3698396172003
 31
0.0
  0
LINE
  5
190
330
1F
100
AcDbEntity
  8
図
  6
CONTINUOUS
 62
     6
100
AcDbLine
 10
122.4805383444016
 20
399.3698396172003
 30
0.0
 11
121.8588747150013
 21
399.6524139942002
 31
0.0
  0
LINE
  5
191
330
1F
100
AcDbEntity
  8
図
  6
CONTINUOUS
 62
     6
100
AcDbLine
 10
123.1022019738014
 20
395.9506896555003
 30
0.0
 11
123.1022019738014
 21
397.5519444584997
 31
0.0
  0
LINE
  5
192
330
1F
100
AcDbEntity
  8
図
  6
CONTINUOUS
 62
     6
100
AcDbLine
 10
123.1022019738014
 20
395.9506896555003
 30
0.0
 11
124.5056547129013
 21
395.9506896555003
 31
0.0
  0
LINE
  5
193
330
1F
100
AcDbEntity
  8
図
  6
CONTINUOUS
 62
     6
100
AcDbLine
 10
121.8588747150013
 20
395.9506896555003
 30
0.0
 11
121.8588747150013
 21
399.6524139942002
 31
0.0
  0
LINE
  5
194
330
1F
100
AcDbEntity
  8
図
  6
CONTINUOUS
 62
     6
100
AcDbLine
 10
118.5998502336013
 20
398.3243144223001
 30
0.0
 11
118.4491438992015
 21
398.9836546352998
 31
0.0
  0
LINE
  5
195
330
1F
100
AcDbEntity
  8
図
  6
CONTINUOUS
 62
     6
100
AcDbLine
 10
118.4491438992015
 20
398.9836546352998
 30
0.0
 11
118.0441206255016
 21
399.4734502220999
 31
0.0
  0
LINE
  5
196
330
1F
100
AcDbEntity
  8
図
  6
CONTINUOUS
 62
     6
100
AcDbLine
 10
118.0441206255016
 20
399.4734502220999
 30
0.0
 11
117.4978101633017
 21
399.6524139942002
 31
0.0
  0
LINE
  5
197
330
1F
100
AcDbEntity
  8
図
  6
CONTINUOUS
 62
     6
100
AcDbLine
 10
117.4978101633017
 20
399.6524139942002
 30
0.0
 11
117.4978101633017
 21
398.3243144223001
 31
0.0
  0
LINE
  5
198
330
1F
100
AcDbEntity
  8
図
  6
CONTINUOUS
 62
     6
100
AcDbLine
 10
120.4648411218016
 20
395.9506896555003
 30
0.0
 11
120.4648411218016
 21
401.1783156299998
 31
0.0
  0
LINE
  5
199
330
1F
100
AcDbEntity
  8
図
  6
CONTINUOUS
 62
     6
100
AcDbLine
 10
116.1037765701014
 20
395.9506896555003
 30
0.0
 11
117.4978101633017
 21
395.9506896555003
 31
0.0
  0
LINE
  5
19A
330
1F
100
AcDbEntity
  8
図
  6
CONTINUOUS
 62
     6
100
AcDbLine
 10
120.4648411218016
 20
395.9506896555003
 30
0.0
 11
121.8588747150013
 21
395.9506896555003
 31
0.0
  0
LINE
  5
19B
330
1F
100
AcDbEntity
  8
図
  6
CONTINUOUS
 62
     6
100
AcDbLine
 10
118.7317182762015
 20
396.9585382668001
 30
0.0
 11
118.7317182762015
 21
395.9506896555003
 31
0.0
  0
LINE
  5
19C
330
1F
100
AcDbEntity
  8
図
  6
CONTINUOUS
 62
     6
100
AcDbLine
 10
117.4978101633017
 20
395.9506896555003
 30
0.0
 11
117.4978101633017
 21
396.9585382668001
 31
0.0
  0
LINE
  5
19D
330
1F
100
AcDbEntity
  8
図
  6
CONTINUOUS
 62
     6
100
AcDbLine
 10
116.1037765701014
 20
395.9506896555003
 30
0.0
 11
116.1037765701014
 21
401.1783156299998
 31
0.0
  0
LINE
  5
19E
330
1F
100
AcDbEntity
  8
図
  6
CONTINUOUS
 62
     6
100
AcDbLine
 10
118.7317182762015
 20
396.9585382668001
 30
0.0
 11
117.4978101633017
 21
396.9585382668001
 31
0.0
  0
LINE
  5
19F
330
1F
100
AcDbEntity
  8
図
  6
CONTINUOUS
 62
     6
100
AcDbLine
 10
110.0661040482016
 20
395.9506896555003
 30
0.0
 11
110.0661040482016
 21
401.1783156299998
 31
0.0
  0
LINE
  5
1A0
330
1F
100
AcDbEntity
  8
図
  6
CONTINUOUS
 62
     6
100
AcDbLine
 10
110.0661040482016
 20
395.9506896555003
 30
0.0
 11
111.4883950791016
 21
395.9506896555003
 31
0.0
  0
LINE
  5
1A1
330
1F
100
AcDbEntity
  8
図
  6
CONTINUOUS
 62
     6
100
AcDbLine
 10
114.3800728704016
 20
398.1265123583998
 30
0.0
 11
114.3800728704016
 21
395.9506896555003
 31
0.0
  0
LINE
  5
1A2
330
1F
100
AcDbEntity
  8
図
  6
CONTINUOUS
 62
     6
100
AcDbLine
 10
114.3800728704016
 20
395.9506896555003
 30
0.0
 11
115.8212021931015
 21
395.9506896555003
 31
0.0
  0
LINE
  5
1A3
330
1F
100
AcDbEntity
  8
図
  6
CONTINUOUS
 62
     6
100
AcDbLine
 10
112.2325076052014
 20
398.1265123583998
 30
0.0
 11
112.2325076052014
 21
395.9506896555003
 31
0.0
  0
LINE
  5
1A4
330
1F
100
AcDbEntity
  8
図
  6
CONTINUOUS
 62
     6
100
AcDbLine
 10
112.2325076052014
 20
395.9506896555003
 30
0.0
 11
113.6547986361013
 21
395.9506896555003
 31
0.0
  0
LINE
  5
1A5
330
1F
100
AcDbEntity
  8
図
  6
CONTINUOUS
 62
     6
100
AcDbLine
 10
108.2858854731014
 20
395.7057918620998
 30
0.0
 11
108.2199514518013
 21
395.8753364883
 31
0.0
  0
LINE
  5
1A6
330
1F
100
AcDbEntity
  8
図
  6
CONTINUOUS
 62
     6
100
AcDbLine
 10
108.2199514518013
 20
395.8753364883
 30
0.0
 11
108.0504068256016
 21
395.9506896555003
 31
0.0
  0
LINE
  5
1A7
330
1F
100
AcDbEntity
  8
図
  6
CONTINUOUS
 62
     6
100
AcDbLine
 10
109.7646913794013
 20
395.9506896555003
 30
0.0
 11
109.6045658991013
 21
396.6665447438999
 31
0.0
  0
LINE
  5
1A8
330
1F
100
AcDbEntity
  8
図
  6
CONTINUOUS
 62
     6
100
AcDbLine
 10
109.6045658991013
 20
396.6665447438999
 30
0.0
 11
109.1712851877016
 21
397.1845977684001
 31
0.0
  0
LINE
  5
1A9
330
1F
100
AcDbEntity
  8
図
  6
CONTINUOUS
 62
     6
100
AcDbLine
 10
109.1712851877016
 20
397.1845977684001
 30
0.0
 11
108.5778789960016
 21
397.3823998323
 31
0.0
  0
LINE
  5
1AA
330
1F
100
AcDbEntity
  8
図
  6
CONTINUOUS
 62
     6
100
AcDbLine
 10
109.7646913794013
 20
395.1689005458001
 30
0.0
 11
109.7646913794013
 21
395.9506896555003
 31
0.0
  0
LINE
  5
1AB
330
1F
100
AcDbEntity
  8
図
  6
CONTINUOUS
 62
     6
100
AcDbLine
 10
103.4538636264017
 20
401.1783156299998
 30
0.0
 11
104.6029994262014
 21
401.1783156299998
 31
0.0
  0
LINE
  5
1AC
330
1F
100
AcDbEntity
  8
図
  6
CONTINUOUS
 62
     6
100
AcDbLine
 10
104.6029994262014
 20
399.765443745
 30
0.0
 11
104.3110059033013
 21
399.765443745
 31
0.0
  0
LINE
  5
1AD
330
1F
100
AcDbEntity
  8
図
  6
CONTINUOUS
 62
     6
100
AcDbLine
 10
104.6029994262014
 20
401.1783156299998
 30
0.0
 11
104.6029994262014
 21
399.765443745
 31
0.0
  0
LINE
  5
1AE
330
1F
100
AcDbEntity
  8
図
  6
CONTINUOUS
 62
     6
100
AcDbLine
 10
104.3110059033013
 20
399.765443745
 30
0.0
 11
103.3408338756014
 21
399.6806714319
 31
0.0
  0
LINE
  5
1AF
330
1F
100
AcDbEntity
  8
図
  6
CONTINUOUS
 62
     6
100
AcDbLine
 10
103.3408338756014
 20
399.6806714319
 30
0.0
 11
102.6343979331016
 21
399.4546119302999
 31
0.0
  0
LINE
  5
1B0
330
1F
100
AcDbEntity
  8
図
  6
CONTINUOUS
 62
     6
100
AcDbLine
 10
102.6343979331016
 20
399.4546119302999
 30
0.0
 11
102.3706618479016
 21
399.1343609697
 31
0.0
  0
LINE
  5
1B1
330
1F
100
AcDbEntity
  8
図
  6
CONTINUOUS
 62
     6
100
AcDbLine
 10
109.7270147958013
 20
393.3321670953
 30
0.0
 11
109.0488362910016
 21
394.7827155639001
 31
0.0
  0
LINE
  5
1B2
330
1F
100
AcDbEntity
  8
図
  6
CONTINUOUS
 62
     6
100
AcDbLine
 10
109.0488362910016
 20
394.7827155639001
 30
0.0
 11
108.3612386403013
 21
393.3321670953
 31
0.0
  0
LINE
  5
1B3
330
1F
100
AcDbEntity
  8
図
  6
CONTINUOUS
 62
     6
100
AcDbLine
 10
108.3612386403013
 20
393.3321670953
 30
0.0
 11
108.4177535157016
 21
392.8329523625998
 31
0.0
  0
LINE
  5
1B4
330
1F
100
AcDbEntity
  8
図
  6
CONTINUOUS
 62
     6
100
AcDbLine
 10
108.4177535157016
 20
392.8329523625998
 30
0.0
 11
108.7945193517014
 21
392.4938631101999
 31
0.0
  0
LINE
  5
1B5
330
1F
100
AcDbEntity
  8
図
  6
CONTINUOUS
 62
     6
100
AcDbLine
 10
108.7945193517014
 20
392.4938631101999
 30
0.0
 11
109.2937340844016
 21
392.4938631101999
 31
0.0
  0
LINE
  5
1B6
330
1F
100
AcDbEntity
  8
図
  6
CONTINUOUS
 62
     6
100
AcDbLine
 10
109.2937340844016
 20
392.4938631101999
 30
0.0
 11
109.6704999204014
 21
392.8329523625998
 31
0.0
  0
LINE
  5
1B7
330
1F
100
AcDbEntity
  8
図
  6
CONTINUOUS
 62
     6
100
AcDbLine
 10
109.6704999204014
 20
392.8329523625998
 30
0.0
 11
109.7270147958013
 21
393.3321670953
 31
0.0
  0
LINE
  5
1B8
330
1F
100
AcDbEntity
  8
図
  6
CONTINUOUS
 62
     6
100
AcDbLine
 10
109.7270147958013
 20
393.3321670953
 30
0.0
 11
109.0488362910016
 21
394.7827155639001
 31
0.0
  0
LINE
  5
1B9
330
1F
100
AcDbEntity
  8
図
  6
CONTINUOUS
 62
     6
100
AcDbLine
 10
109.0488362910016
 20
394.7827155639001
 30
0.0
 11
108.3612386403013
 21
393.3321670953
 31
0.0
  0
LINE
  5
1BA
330
1F
100
AcDbEntity
  8
図
  6
CONTINUOUS
 62
     6
100
AcDbLine
 10
108.3612386403013
 20
393.3321670953
 30
0.0
 11
108.4177535157016
 21
392.8329523625998
 31
0.0
  0
LINE
  5
1BB
330
1F
100
AcDbEntity
  8
図
  6
CONTINUOUS
 62
     6
100
AcDbLine
 10
108.4177535157016
 20
392.8329523625998
 30
0.0
 11
108.7945193517014
 21
392.4938631101999
 31
0.0
  0
LINE
  5
1BC
330
1F
100
AcDbEntity
  8
図
  6
CONTINUOUS
 62
     6
100
AcDbLine
 10
108.7945193517014
 20
392.4938631101999
 30
0.0
 11
109.2937340844016
 21
392.4938631101999
 31
0.0
  0
LINE
  5
1BD
330
1F
100
AcDbEntity
  8
図
  6
CONTINUOUS
 62
     6
100
AcDbLine
 10
109.2937340844016
 20
392.4938631101999
 30
0.0
 11
109.6704999204014
 21
392.8329523625998
 31
0.0
  0
LINE
  5
1BE
330
1F
100
AcDbEntity
  8
図
  6
CONTINUOUS
 62
     6
100
AcDbLine
 10
109.6704999204014
 20
392.8329523625998
 30
0.0
 11
109.7270147958013
 21
393.3321670953
 31
0.0
  0
LINE
  5
1BF
330
1F
100
AcDbEntity
  8
図
  6
CONTINUOUS
 62
     6
100
AcDbLine
 10
111.4883950791016
 20
395.9506896555003
 30
0.0
 11
111.4883950791016
 21
399.4169353467
 31
0.0
  0
LINE
  5
1C0
330
1F
100
AcDbEntity
  8
図
  6
CONTINUOUS
 62
     6
100
AcDbLine
 10
112.2325076052014
 20
398.1265123583998
 30
0.0
 11
112.0252863954013
 21
398.9271397598999
 31
0.0
  0
LINE
  5
1C1
330
1F
100
AcDbEntity
  8
図
  6
CONTINUOUS
 62
     6
100
AcDbLine
 10
112.0252863954013
 20
398.9271397598999
 30
0.0
 11
111.4883950791016
 21
399.4169353467
 31
0.0
  0
LINE
  5
1C2
330
1F
100
AcDbEntity
  8
図
  6
CONTINUOUS
 62
     6
100
AcDbLine
 10
114.3800728704016
 20
398.1265123583998
 30
0.0
 11
114.1822708065013
 21
398.9177206140002
 31
0.0
  0
LINE
  5
1C3
330
1F
100
AcDbEntity
  8
図
  6
CONTINUOUS
 62
     6
100
AcDbLine
 10
114.1822708065013
 20
398.9177206140002
 30
0.0
 11
113.6547986361013
 21
399.4075162008002
 31
0.0
  0
LINE
  5
1C4
330
1F
100
AcDbEntity
  8
図
  6
CONTINUOUS
 62
     6
100
AcDbLine
 10
113.6547986361013
 20
399.4075162008002
 30
0.0
 11
113.6453794902015
 21
395.9506896555003
 31
0.0
  0
LINE
  5
1C5
330
1F
100
AcDbEntity
  8
図
  6
CONTINUOUS
 62
     6
100
AcDbLine
 10
112.2325076052014
 20
401.1783156299998
 30
0.0
 11
112.2325076052014
 21
400.6508434595998
 31
0.0
  0
LINE
  5
1C6
330
1F
100
AcDbEntity
  8
図
  6
CONTINUOUS
 62
     6
100
AcDbLine
 10
112.2325076052014
 20
400.6508434595998
 30
0.0
 11
111.6767779971012
 21
401.0464475874
 31
0.0
  0
LINE
  5
1C7
330
1F
100
AcDbEntity
  8
図
  6
CONTINUOUS
 62
     6
100
AcDbLine
 10
111.6767779971012
 20
401.0464475874
 30
0.0
 11
111.0739526595014
 21
401.1783156299998
 31
0.0
  0
LINE
  5
1C8
330
1F
100
AcDbEntity
  8
図
  6
CONTINUOUS
 62
     6
100
AcDbLine
 10
119.4287350728016
 20
385.3258930803003
 30
0.0
 11
119.4287350728016
 21
380.0700096681002
 31
0.0
  0
LINE
  5
1C9
330
1F
100
AcDbEntity
  8
図
  6
CONTINUOUS
 62
     6
100
AcDbLine
 10
99.54491807790123
 20
385.3258930803003
 30
0.0
 11
99.54491807790123
 21
380.0700096681002
 31
0.0
  0
LINE
  5
1CA
330
1F
100
AcDbEntity
  8
図
  6
CONTINUOUS
 62
     6
100
AcDbLine
 10
115.9436510898015
 20
388.7733004797
 30
0.0
 11
103.0300020609013
 21
388.7733004797
 31
0.0
  0
LINE
  5
1CB
330
1F
100
AcDbEntity
  8
図
  6
CONTINUOUS
 62
     6
100
AcDbLine
 10
107.4381623421016
 20
377.9130252570002
 30
0.0
 11
111.5354908086017
 21
377.9130252570002
 31
0.0
  0
ARC
  5
1CC
330
1F
100
AcDbEntity
  8
図
  6
CONTINUOUS
 62
     6
100
AcDbCircle
 10
95.68933463180997
 20
384.8926950393642
 30
0.0
 40
7.06544929111386
100
AcDbArc
 50
91.04384723336692
 51
269.0325471280012
  0
ARC
  5
1CD
330
1F
100
AcDbEntity
  8
図
  6
CONTINUOUS
 62
     6
100
AcDbCircle
 10
123.2843185189911
 20
384.8926950393642
 30
0.0
 40
7.06544929111386
100
AcDbArc
 50
270.9674528719988
 51
88.95615276663307
  0
ARC
  5
1CE
330
1F
100
AcDbEntity
  8
図
  6
CONTINUOUS
 62
     6
100
AcDbCircle
 10
93.25695216474082
 20
382.0811934188613
 30
0.0
 40
9.29199757925102
100
AcDbArc
 50
44.42118335041782
 51
89.61824838624139
  0
ARC
  5
1CF
330
1F
100
AcDbEntity
  8
図
  6
CONTINUOUS
 62
     6
100
AcDbCircle
 10
94.6457912592939
 20
384.1118705002199
 30
0.0
 40
6.351226855578196
100
AcDbArc
 50
278.3675448180263
 51
320.4768036333549
  0
ARC
  5
1D0
330
1F
100
AcDbEntity
  8
図
  6
CONTINUOUS
 62
     6
100
AcDbCircle
 10
103.3838028802759
 20
384.9303431187331
 30
0.0
 40
3.859209284037375
100
AcDbArc
 50
95.26009236381822
 51
174.117133555634
  0
ARC
  5
1D1
330
1F
100
AcDbEntity
  8
図
  6
CONTINUOUS
 62
     6
100
AcDbCircle
 10
109.437608596628
 20
400.7504926066267
 30
0.0
 40
22.92482715899987
100
AcDbArc
 50
244.4354696003383
 51
264.9964476885025
  0
ARC
  5
1D2
330
1F
100
AcDbEntity
  8
図
  6
CONTINUOUS
 62
     6
100
AcDbCircle
 10
125.7167009860602
 20
382.0811934188613
 30
0.0
 40
9.29199757925102
100
AcDbArc
 50
90.38175161375861
 51
135.5788166495822
  0
ARC
  5
1D3
330
1F
100
AcDbEntity
  8
図
  6
CONTINUOUS
 62
     6
100
AcDbCircle
 10
124.3278618915072
 20
384.1118705002199
 30
0.0
 40
6.351226855578196
100
AcDbArc
 50
219.5231963666452
 51
261.6324551819736
  0
ARC
  5
1D4
330
1F
100
AcDbEntity
  8
図
  6
CONTINUOUS
 62
     6
100
AcDbCircle
 10
109.536044554173
 20
400.7504926066267
 30
0.0
 40
22.92482715899987
100
AcDbArc
 50
275.0035523114975
 51
295.5645303996617
  0
ARC
  5
1D5
330
1F
100
AcDbEntity
  8
図
  6
CONTINUOUS
 62
     6
100
AcDbCircle
 10
115.5898502705252
 20
384.9303431187331
 30
0.0
 40
3.859209284037375
100
AcDbArc
 50
5.882866444366715
 51
84.73990763618177
  0
LINE
  5
1D6
330
1F
100
AcDbEntity
  8
図
  6
CONTINUOUS
 62
     6
100
AcDbLine
 10
109.4821170024013
 20
523.3928384764192
 30
0.0
 11
101.5229387169013
 21
518.7962952772193
 31
0.0
  0
LINE
  5
1D7
330
1F
100
AcDbEntity
  8
図
  6
CONTINUOUS
 62
     6
100
AcDbLine
 10
101.5229387169013
 20
518.7962952772193
 30
0.0
 11
101.5229387169013
 21
509.6126280247193
 31
0.0
  0
LINE
  5
1D8
330
1F
100
AcDbEntity
  8
図
  6
CONTINUOUS
 62
     6
100
AcDbLine
 10
109.4821170024013
 20
523.3928384764192
 30
0.0
 11
117.4507144338015
 21
518.7962952772193
 31
0.0
  0
LINE
  5
1D9
330
1F
100
AcDbEntity
  8
図
  6
CONTINUOUS
 62
     6
100
AcDbLine
 10
117.4507144338015
 20
518.7962952772193
 30
0.0
 11
117.4507144338015
 21
509.6126280247193
 31
0.0
  0
CIRCLE
  5
1DA
330
1F
100
AcDbEntity
  8
図
  6
CONTINUOUS
 62
     6
100
AcDbCircle
 10
109.4844717889002
 20
514.2049231417197
 30
0.0
 40
4.97486313599984
  0
CIRCLE
  5
1DB
330
1F
100
AcDbEntity
  8
図
  6
CONTINUOUS
 62
     6
100
AcDbCircle
 10
109.4844717889002
 20
514.2049231417197
 30
0.0
 40
7.961534205336906
  0
LINE
  5
1DC
330
1F
100
AcDbEntity
  8
図
  6
CONTINUOUS
 62
     6
100
AcDbLine
 10
108.6131102545721
 20
505.5179490775197
 30
0.0
 11
101.5229387169013
 21
509.6126280247193
 31
0.0
  0
LINE
  5
1DD
330
1F
100
AcDbEntity
  8
図
  6
CONTINUOUS
 62
     6
100
AcDbLine
 10
110.3525085567141
 20
505.518154658267
 30
0.0
 11
117.4507144338015
 21
509.6126280247193
 31
0.0
  0
LINE
  5
1DE
330
1F
100
AcDbEntity
  8
図
  6
CONTINUOUS
 62
     6
100
AcDbLine
 10
110.1791337990014
 20
519.1310481821185
 30
0.0
 11
110.1791337990014
 21
509.2787981013196
 31
0.0
  0
LINE
  5
1DF
330
1F
100
AcDbEntity
  8
図
  6
CONTINUOUS
 62
     6
100
AcDbLine
 10
108.7945193517014
 20
509.2781362723356
 30
0.0
 11
108.7945193517014
 21
519.131710011103
 31
0.0
  0
LINE
  5
1E0
330
1F
100
AcDbEntity
  8
図
  6
EXLTYPE3
 62
     6
100
AcDbLine
 10
109.4868265754005
 20
72.19999999999999
 30
0.0
 11
109.4868265754005
 21
419.6
 31
0.0
  0
LINE
  5
1E1
330
1F
100
AcDbEntity
  8
図
  6
EXLTYPE3
 62
     6
100
AcDbLine
 10
147.4
 20
274.6132521716999
 30
0.0
 11
72.8
 21
274.6132521716999
 31
0.0
  0
LINE
  5
1E2
330
1F
100
AcDbEntity
  8
図
  6
EXLTYPE3
 62
     6
100
AcDbLine
 10
109.4868265754005
 20
568.7437945428198
 30
0.0
 11
109.4868265754005
 21
430.6
 31
0.0
  0
DIMENSION
  5
1E4
330
1F
100
AcDbEntity
  8
図
  6
CONTINUOUS
 62
     3
100
AcDbDimension
  2
*D15
 10
252.8
 20
68.00000000000023
 30
0.0
 11
285.8
 21
72.69999998807924
 31
0.0
 70
   160
  3
ISO-25
100
AcDbAlignedDimension
 13
272.8
 23
189.2426709933
 33
0.0
 14
252.8
 24
141.2426709933
 34
0.0
100
AcDbRotatedDimension
1001
ACAD
1000
DSTYLE
1002
{
1070
   270
1070
     2
1070
     6
1000
EX_NORM
1070
     7
1000
EX_NORM
1070
    41
1040
6.0
1070
    42
1040
1.399999976158142
1070
    44
1040
1.999999999999787
1070
    73
1070
     0
1070
    74
1070
     0
1070
    75
1070
     0
1070
    76
1070
     0
1070
    77
1070
     1
1070
    78
1070
     8
1070
   140
1040
8.0
1070
   147
1040
0.0
1070
   173
1070
     1
1070
   176
1070
     3
1070
   177
1070
     3
1070
   178
1070
     2
1070
   271
1070
     1
1070
   277
1070
     2
1070
   279
1070
     2
1070
   280
1070
     1
1070
   287
1070
     5
1070
   340
1005
1E3
1002
}
  0
LINE
  5
1F2
330
1F
100
AcDbEntity
  8
図
  6
EXLTYPE3
 62
     6
100
AcDbLine
 10
272.8000000000006
 20
219.0
 30
0.0
 11
272.8000000000005
 21
422.8378707919
 31
0.0
  0
ARC
  5
1F3
330
1F
100
AcDbEntity
  8
図
  6
EXLTYPE3
 62
     6
100
AcDbCircle
 10
277.8
 20
144.2426709933001
 30
0.0
 40
25.0
100
AcDbArc
 50
146.0969387309173
 51
179.9999999999997
  0
ARC
  5
1F4
330
1F
100
AcDbEntity
  8
図
  6
EXLTYPE3
 62
     6
100
AcDbCircle
 10
247.7999999999999
 20
189.2426709933001
 30
0.0
 40
25.0
100
AcDbArc
 50
326.0969387309173
 51
0.0000000000000573
  0
LINE
  5
1F5
330
1F
100
AcDbEntity
  8
図
  6
EXLTYPE3
 62
     6
100
AcDbLine
 10
268.5495621005467
 20
175.2979346158868
 30
0.0
 11
257.0504378994532
 21
158.1874073707132
 31
0.0
  0
POLYLINE
  5
1F6
330
1F
100
AcDbEntity
  8
図
  6
CONTINUOUS
 62
     6
100
AcDb2dPolyline
 66
     1
 10
0.0
 20
0.0
 30
0.0
 70
   128
  0
VERTEX
  5
1F7
330
1F6
100
AcDbEntity
  8
図
  6
CONTINUOUS
 62
     6
100
AcDbVertex
100
AcDb2dVertex
 10
244.8599999999999
 20
107.5626709933001
 30
0.0
  0
VERTEX
  5
1F8
330
1F6
100
AcDbEntity
  8
図
  6
CONTINUOUS
 62
     6
100
AcDbVertex
100
AcDb2dVertex
 10
244.9337920111629
 20
107.6018677464865
 30
0.0
  0
VERTEX
  5
1F9
330
1F6
100
AcDbEntity
  8
図
  6
CONTINUOUS
 62
     6
100
AcDbVertex
100
AcDb2dVertex
 10
245.1426429757236
 20
107.709399139482
 30
0.0
  0
VERTEX
  5
1FA
330
1F6
100
AcDbEntity
  8
図
  6
CONTINUOUS
 62
     6
100
AcDbVertex
100
AcDb2dVertex
 10
245.4677652902903
 20
107.8701768724408
 30
0.0
  0
VERTEX
  5
1FB
330
1F6
100
AcDbEntity
  8
図
  6
CONTINUOUS
 62
     6
100
AcDbVertex
100
AcDb2dVertex
 10
245.890371351471
 20
108.0691126455172
 30
0.0
  0
VERTEX
  5
1FC
330
1F6
100
AcDbEntity
  8
図
  6
CONTINUOUS
 62
     6
100
AcDbVertex
100
AcDb2dVertex
 10
246.3916735558735
 20
108.2911181588653
 30
0.0
  0
VERTEX
  5
1FD
330
1F6
100
AcDbEntity
  8
図
  6
CONTINUOUS
 62
     6
100
AcDbVertex
100
AcDb2dVertex
 10
246.9528843001062
 20
108.5211051126396
 30
0.0
  0
VERTEX
  5
1FE
330
1F6
100
AcDbEntity
  8
図
  6
CONTINUOUS
 62
     6
100
AcDbVertex
100
AcDb2dVertex
 10
247.5552159807768
 20
108.7439852069941
 30
0.0
  0
VERTEX
  5
1FF
330
1F6
100
AcDbEntity
  8
図
  6
CONTINUOUS
 62
     6
100
AcDbVertex
100
AcDb2dVertex
 10
248.1798809944934
 20
108.9446701420831
 30
0.0
  0
VERTEX
  5
200
330
1F6
100
AcDbEntity
  8
図
  6
CONTINUOUS
 62
     6
100
AcDbVertex
100
AcDb2dVertex
 10
248.8080917378642
 20
109.108071618061
 30
0.0
  0
VERTEX
  5
201
330
1F6
100
AcDbEntity
  8
図
  6
CONTINUOUS
 62
     6
100
AcDbVertex
100
AcDb2dVertex
 10
249.421060607497
 20
109.2191013350818
 30
0.0
  0
VERTEX
  5
202
330
1F6
100
AcDbEntity
  8
図
  6
CONTINUOUS
 62
     6
100
AcDbVertex
100
AcDb2dVertex
 10
250.0
 20
109.2626709933
 30
0.0
  0
VERTEX
  5
203
330
1F6
100
AcDbEntity
  8
図
  6
CONTINUOUS
 62
     6
100
AcDbVertex
100
AcDb2dVertex
 10
250.6145690196175
 20
109.2152910207414
 30
0.0
  0
VERTEX
  5
204
330
1F6
100
AcDbEntity
  8
図
  6
CONTINUOUS
 62
     6
100
AcDbVertex
100
AcDb2dVertex
 10
251.1708606837944
 20
109.074655945621
 30
0.0
  0
VERTEX
  5
205
330
1F6
100
AcDbEntity
  8
図
  6
CONTINUOUS
 62
     6
100
AcDbVertex
100
AcDb2dVertex
 10
251.6824810248548
 20
108.8598579518118
 30
0.0
  0
VERTEX
  5
206
330
1F6
100
AcDbEntity
  8
図
  6
CONTINUOUS
 62
     6
100
AcDbVertex
100
AcDb2dVertex
 10
252.1630360751225
 20
108.5899892231869
 30
0.0
  0
VERTEX
  5
207
330
1F6
100
AcDbEntity
  8
図
  6
CONTINUOUS
 62
     6
100
AcDbVertex
100
AcDb2dVertex
 10
252.6261318669212
 20
108.2841419436191
 30
0.0
  0
VERTEX
  5
208
330
1F6
100
AcDbEntity
  8
図
  6
CONTINUOUS
 62
     6
100
AcDbVertex
100
AcDb2dVertex
 10
253.0853744325748
 20
107.9614082969815
 30
0.0
  0
VERTEX
  5
209
330
1F6
100
AcDbEntity
  8
図
  6
CONTINUOUS
 62
     6
100
AcDbVertex
100
AcDb2dVertex
 10
253.554369804407
 20
107.640880467147
 30
0.0
  0
VERTEX
  5
20A
330
1F6
100
AcDbEntity
  8
図
  6
CONTINUOUS
 62
     6
100
AcDbVertex
100
AcDb2dVertex
 10
254.0467240147419
 20
107.3416506379887
 30
0.0
  0
VERTEX
  5
20B
330
1F6
100
AcDbEntity
  8
図
  6
CONTINUOUS
 62
     6
100
AcDbVertex
100
AcDb2dVertex
 10
254.5760430959031
 20
107.0828109933794
 30
0.0
  0
VERTEX
  5
20C
330
1F6
100
AcDbEntity
  8
図
  6
CONTINUOUS
 62
     6
100
AcDbVertex
100
AcDb2dVertex
 10
255.1559330802145
 20
106.8834537171922
 30
0.0
  0
VERTEX
  5
20D
330
1F6
100
AcDbEntity
  8
図
  6
CONTINUOUS
 62
     6
100
AcDbVertex
100
AcDb2dVertex
 10
255.8
 20
106.7626709933
 30
0.0
  0
VERTEX
  5
20E
330
1F6
100
AcDbEntity
  8
図
  6
CONTINUOUS
 62
     6
100
AcDbVertex
100
AcDb2dVertex
 10
256.3607955473469
 20
106.732105040074
 30
0.0
  0
VERTEX
  5
20F
330
1F6
100
AcDbEntity
  8
図
  6
CONTINUOUS
 62
     6
100
AcDbVertex
100
AcDb2dVertex
 10
256.9526309354623
 20
106.7526913391566
 30
0.0
  0
VERTEX
  5
210
330
1F6
100
AcDbEntity
  8
図
  6
CONTINUOUS
 62
     6
100
AcDbVertex
100
AcDb2dVertex
 10
257.557712574873
 20
106.8142653548417
 30
0.0
  0
VERTEX
  5
211
330
1F6
100
AcDbEntity
  8
図
  6
CONTINUOUS
 62
     6
100
AcDbVertex
100
AcDb2dVertex
 10
258.1582468761057
 20
106.9066625514234
 30
0.0
  0
VERTEX
  5
212
330
1F6
100
AcDbEntity
  8
図
  6
CONTINUOUS
 62
     6
100
AcDbVertex
100
AcDb2dVertex
 10
258.7364402496872
 20
107.0197183931957
 30
0.0
  0
VERTEX
  5
213
330
1F6
100
AcDbEntity
  8
図
  6
CONTINUOUS
 62
     6
100
AcDbVertex
100
AcDb2dVertex
 10
259.2744991061443
 20
107.1432683444528
 30
0.0
  0
VERTEX
  5
214
330
1F6
100
AcDbEntity
  8
図
  6
CONTINUOUS
 62
     6
100
AcDbVertex
100
AcDb2dVertex
 10
259.7546298560038
 20
107.2671478694886
 30
0.0
  0
VERTEX
  5
215
330
1F6
100
AcDbEntity
  8
図
  6
CONTINUOUS
 62
     6
100
AcDbVertex
100
AcDb2dVertex
 10
260.1590389097923
 20
107.3811924325972
 30
0.0
  0
VERTEX
  5
216
330
1F6
100
AcDbEntity
  8
図
  6
CONTINUOUS
 62
     6
100
AcDbVertex
100
AcDb2dVertex
 10
260.4699326780366
 20
107.4752374980726
 30
0.0
  0
VERTEX
  5
217
330
1F6
100
AcDbEntity
  8
図
  6
CONTINUOUS
 62
     6
100
AcDbVertex
100
AcDb2dVertex
 10
260.6695175712636
 20
107.5391185302089
 30
0.0
  0
VERTEX
  5
218
330
1F6
100
AcDbEntity
  8
図
  6
CONTINUOUS
 62
     6
100
AcDbVertex
100
AcDb2dVertex
 10
260.74
 20
107.5626709933001
 30
0.0
  0
SEQEND
  5
219
330
1F6
100
AcDbEntity
  8
図
  6
CONTINUOUS
 62
     6
  0
POLYLINE
  5
21A
330
1F
100
AcDbEntity
  8
図
  6
CONTINUOUS
 62
     6
100
AcDb2dPolyline
 66
     1
 10
0.0
 20
0.0
 30
0.0
 70
   128
  0
VERTEX
  5
21B
330
21A
100
AcDbEntity
  8
図
  6
CONTINUOUS
 62
     6
100
AcDbVertex
100
AcDb2dVertex
 10
244.8599999999999
 20
106.5626709933001
 30
0.0
  0
VERTEX
  5
21C
330
21A
100
AcDbEntity
  8
図
  6
CONTINUOUS
 62
     6
100
AcDbVertex
100
AcDb2dVertex
 10
244.9337920111629
 20
106.6018677464865
 30
0.0
  0
VERTEX
  5
21D
330
21A
100
AcDbEntity
  8
図
  6
CONTINUOUS
 62
     6
100
AcDbVertex
100
AcDb2dVertex
 10
245.1426429757236
 20
106.709399139482
 30
0.0
  0
VERTEX
  5
21E
330
21A
100
AcDbEntity
  8
図
  6
CONTINUOUS
 62
     6
100
AcDbVertex
100
AcDb2dVertex
 10
245.4677652902903
 20
106.8701768724408
 30
0.0
  0
VERTEX
  5
21F
330
21A
100
AcDbEntity
  8
図
  6
CONTINUOUS
 62
     6
100
AcDbVertex
100
AcDb2dVertex
 10
245.890371351471
 20
107.0691126455172
 30
0.0
  0
VERTEX
  5
220
330
21A
100
AcDbEntity
  8
図
  6
CONTINUOUS
 62
     6
100
AcDbVertex
100
AcDb2dVertex
 10
246.3916735558735
 20
107.2911181588653
 30
0.0
  0
VERTEX
  5
221
330
21A
100
AcDbEntity
  8
図
  6
CONTINUOUS
 62
     6
100
AcDbVertex
100
AcDb2dVertex
 10
246.9528843001062
 20
107.5211051126396
 30
0.0
  0
VERTEX
  5
222
330
21A
100
AcDbEntity
  8
図
  6
CONTINUOUS
 62
     6
100
AcDbVertex
100
AcDb2dVertex
 10
247.5552159807768
 20
107.7439852069941
 30
0.0
  0
VERTEX
  5
223
330
21A
100
AcDbEntity
  8
図
  6
CONTINUOUS
 62
     6
100
AcDbVertex
100
AcDb2dVertex
 10
248.1798809944934
 20
107.9446701420831
 30
0.0
  0
VERTEX
  5
224
330
21A
100
AcDbEntity
  8
図
  6
CONTINUOUS
 62
     6
100
AcDbVertex
100
AcDb2dVertex
 10
248.8080917378642
 20
108.108071618061
 30
0.0
  0
VERTEX
  5
225
330
21A
100
AcDbEntity
  8
図
  6
CONTINUOUS
 62
     6
100
AcDbVertex
100
AcDb2dVertex
 10
249.421060607497
 20
108.2191013350818
 30
0.0
  0
VERTEX
  5
226
330
21A
100
AcDbEntity
  8
図
  6
CONTINUOUS
 62
     6
100
AcDbVertex
100
AcDb2dVertex
 10
250.0
 20
108.2626709933
 30
0.0
  0
VERTEX
  5
227
330
21A
100
AcDbEntity
  8
図
  6
CONTINUOUS
 62
     6
100
AcDbVertex
100
AcDb2dVertex
 10
250.6145690196175
 20
108.2152910207414
 30
0.0
  0
VERTEX
  5
228
330
21A
100
AcDbEntity
  8
図
  6
CONTINUOUS
 62
     6
100
AcDbVertex
100
AcDb2dVertex
 10
251.1708606837944
 20
108.074655945621
 30
0.0
  0
VERTEX
  5
229
330
21A
100
AcDbEntity
  8
図
  6
CONTINUOUS
 62
     6
100
AcDbVertex
100
AcDb2dVertex
 10
251.6824810248548
 20
107.8598579518118
 30
0.0
  0
VERTEX
  5
22A
330
21A
100
AcDbEntity
  8
図
  6
CONTINUOUS
 62
     6
100
AcDbVertex
100
AcDb2dVertex
 10
252.1630360751225
 20
107.5899892231869
 30
0.0
  0
VERTEX
  5
22B
330
21A
100
AcDbEntity
  8
図
  6
CONTINUOUS
 62
     6
100
AcDbVertex
100
AcDb2dVertex
 10
252.6261318669212
 20
107.2841419436191
 30
0.0
  0
VERTEX
  5
22C
330
21A
100
AcDbEntity
  8
図
  6
CONTINUOUS
 62
     6
100
AcDbVertex
100
AcDb2dVertex
 10
253.0853744325748
 20
106.9614082969815
 30
0.0
  0
VERTEX
  5
22D
330
21A
100
AcDbEntity
  8
図
  6
CONTINUOUS
 62
     6
100
AcDbVertex
100
AcDb2dVertex
 10
253.554369804407
 20
106.640880467147
 30
0.0
  0
VERTEX
  5
22E
330
21A
100
AcDbEntity
  8
図
  6
CONTINUOUS
 62
     6
100
AcDbVertex
100
AcDb2dVertex
 10
254.0467240147419
 20
106.3416506379887
 30
0.0
  0
VERTEX
  5
22F
330
21A
100
AcDbEntity
  8
図
  6
CONTINUOUS
 62
     6
100
AcDbVertex
100
AcDb2dVertex
 10
254.5760430959031
 20
106.0828109933794
 30
0.0
  0
VERTEX
  5
230
330
21A
100
AcDbEntity
  8
図
  6
CONTINUOUS
 62
     6
100
AcDbVertex
100
AcDb2dVertex
 10
255.1559330802145
 20
105.8834537171922
 30
0.0
  0
VERTEX
  5
231
330
21A
100
AcDbEntity
  8
図
  6
CONTINUOUS
 62
     6
100
AcDbVertex
100
AcDb2dVertex
 10
255.8
 20
105.7626709933
 30
0.0
  0
VERTEX
  5
232
330
21A
100
AcDbEntity
  8
図
  6
CONTINUOUS
 62
     6
100
AcDbVertex
100
AcDb2dVertex
 10
256.3607955473469
 20
105.732105040074
 30
0.0
  0
VERTEX
  5
233
330
21A
100
AcDbEntity
  8
図
  6
CONTINUOUS
 62
     6
100
AcDbVertex
100
AcDb2dVertex
 10
256.9526309354623
 20
105.7526913391566
 30
0.0
  0
VERTEX
  5
234
330
21A
100
AcDbEntity
  8
図
  6
CONTINUOUS
 62
     6
100
AcDbVertex
100
AcDb2dVertex
 10
257.557712574873
 20
105.8142653548417
 30
0.0
  0
VERTEX
  5
235
330
21A
100
AcDbEntity
  8
図
  6
CONTINUOUS
 62
     6
100
AcDbVertex
100
AcDb2dVertex
 10
258.1582468761057
 20
105.9066625514234
 30
0.0
  0
VERTEX
  5
236
330
21A
100
AcDbEntity
  8
図
  6
CONTINUOUS
 62
     6
100
AcDbVertex
100
AcDb2dVertex
 10
258.7364402496872
 20
106.0197183931957
 30
0.0
  0
VERTEX
  5
237
330
21A
100
AcDbEntity
  8
図
  6
CONTINUOUS
 62
     6
100
AcDbVertex
100
AcDb2dVertex
 10
259.2744991061443
 20
106.1432683444528
 30
0.0
  0
VERTEX
  5
238
330
21A
100
AcDbEntity
  8
図
  6
CONTINUOUS
 62
     6
100
AcDbVertex
100
AcDb2dVertex
 10
259.7546298560038
 20
106.2671478694886
 30
0.0
  0
VERTEX
  5
239
330
21A
100
AcDbEntity
  8
図
  6
CONTINUOUS
 62
     6
100
AcDbVertex
100
AcDb2dVertex
 10
260.1590389097923
 20
106.3811924325972
 30
0.0
  0
VERTEX
  5
23A
330
21A
100
AcDbEntity
  8
図
  6
CONTINUOUS
 62
     6
100
AcDbVertex
100
AcDb2dVertex
 10
260.4699326780366
 20
106.4752374980726
 30
0.0
  0
VERTEX
  5
23B
330
21A
100
AcDbEntity
  8
図
  6
CONTINUOUS
 62
     6
100
AcDbVertex
100
AcDb2dVertex
 10
260.6695175712636
 20
106.5391185302089
 30
0.0
  0
VERTEX
  5
23C
330
21A
100
AcDbEntity
  8
図
  6
CONTINUOUS
 62
     6
100
AcDbVertex
100
AcDb2dVertex
 10
260.74
 20
106.5626709933001
 30
0.0
  0
SEQEND
  5
23D
330
21A
100
AcDbEntity
  8
図
  6
CONTINUOUS
 62
     6
  0
LINE
  5
23E
330
1F
100
AcDbEntity
  8
図
  6
EXLTYPE3
 62
     6
100
AcDbLine
 10
272.8
 20
219.48
 30
0.0
 11
272.8
 21
189.2426709933001
 31
0.0
  0
LINE
  5
23F
330
1F
100
AcDbEntity
  8
図
  6
EXLTYPE3
 62
     6
100
AcDbLine
 10
252.8
 20
75.0
 30
0.0
 11
252.7999999999998
 21
145.0
 31
0.0
  0
DIMENSION
  5
240
330
1F
100
AcDbEntity
  8
図
  6
CONTINUOUS
 62
     3
100
AcDbDimension
  2
*D16
 10
313.0
 20
224.2426709933
 30
0.0
 11
308.3000000119209
 21
151.42133549665
 31
0.0
 70
   160
  1
200
  3
ISO-25
100
AcDbAlignedDimension
 13
260.74
 23
78.6
 33
0.0
 14
272.8
 24
224.2426709933
 34
0.0
 50
90.0
100
AcDbRotatedDimension
1001
ACAD
1000
DSTYLE
1002
{
1070
   270
1070
     2
1070
     6
1000
EX_NORM
1070
     7
1000
EX_NORM
1070
    41
1040
6.0
1070
    42
1040
1.399999976158142
1070
    44
1040
2.0
1070
    73
1070
     0
1070
    74
1070
     0
1070
    75
1070
     0
1070
    76
1070
     0
1070
    77
1070
     1
1070
    78
1070
     0
1070
   140
1040
8.0
1070
   147
1040
0.0
1070
   173
1070
     1
1070
   176
1070
     3
1070
   177
1070
     3
1070
   178
1070
     2
1070
   271
1070
     0
1070
   277
1070
     2
1070
   279
1070
     2
1070
   280
1070
     0
1070
   287
1070
     5
1070
   340
1005
1E3
1002
}
  0
LINE
  5
24D
330
1F
100
AcDbEntity
  8
図
  6
CONTINUOUS
 62
     2
100
AcDbLine
 10
306.1319791988012
 20
289.9099451133001
 30
0.0
 11
306.1319791988012
 21
293.0182632603
 31
0.0
  0
LINE
  5
24E
330
1F
100
AcDbEntity
  8
図
  6
CONTINUOUS
 62
     2
100
AcDbLine
 10
324.9325944152014
 20
289.9099451133001
 30
0.0
 11
324.9325944152014
 21
293.0182632603
 31
0.0
  0
LINE
  5
24F
330
1F
100
AcDbEntity
  8
図
  6
CONTINUOUS
 62
     2
100
AcDbLine
 10
323.2371481532013
 20
296.5033472433001
 30
0.0
 11
324.7253732054014
 21
297.9915722955001
 31
0.0
  0
LINE
  5
250
330
1F
100
AcDbEntity
  8
図
  6
CONTINUOUS
 62
     2
100
AcDbLine
 10
324.7253732054014
 20
301.9758710112
 30
0.0
 11
324.7253732054014
 21
297.9915722955001
 31
0.0
  0
LINE
  5
251
330
1F
100
AcDbEntity
  8
図
  6
CONTINUOUS
 62
     2
100
AcDbLine
 10
307.8368446067015
 20
296.5033472433001
 30
0.0
 11
323.2371481532013
 21
296.5033472433001
 31
0.0
  0
LINE
  5
252
330
1F
100
AcDbEntity
  8
図
  6
CONTINUOUS
 62
     2
100
AcDbLine
 10
306.3392004086012
 20
297.9915722955001
 30
0.0
 11
307.8368446067015
 21
296.5033472433001
 31
0.0
  0
LINE
  5
253
330
1F
100
AcDbEntity
  8
図
  6
CONTINUOUS
 62
     2
100
AcDbLine
 10
306.3392004086012
 20
301.9758710112
 30
0.0
 11
306.3392004086012
 21
297.9915722955001
 31
0.0
  0
LINE
  5
254
330
1F
100
AcDbEntity
  8
図
  6
CONTINUOUS
 62
     2
100
AcDbLine
 10
323.2371481532013
 20
303.4640960634001
 30
0.0
 11
324.7253732054014
 21
301.9758710112
 31
0.0
  0
LINE
  5
255
330
1F
100
AcDbEntity
  8
図
  6
CONTINUOUS
 62
     2
100
AcDbLine
 10
307.8368446067015
 20
303.4640960634001
 30
0.0
 11
323.2371481532013
 21
303.4640960634001
 31
0.0
  0
LINE
  5
256
330
1F
100
AcDbEntity
  8
図
  6
CONTINUOUS
 62
     2
100
AcDbLine
 10
306.3392004086012
 20
301.9758710112
 30
0.0
 11
307.8368446067015
 21
303.4640960634001
 31
0.0
  0
LINE
  5
257
330
1F
100
AcDbEntity
  8
図
  6
CONTINUOUS
 62
     2
100
AcDbLine
 10
307.0738937888013
 20
294.0166927257
 30
0.0
 11
323.9435840957012
 21
294.0166927257
 31
0.0
  0
LINE
  5
258
330
1F
100
AcDbEntity
  8
図
  6
CONTINUOUS
 62
     2
100
AcDbLine
 10
322.9922503598013
 20
295.0057030451998
 30
0.0
 11
322.9922503598013
 21
296.5033472433001
 31
0.0
  0
LINE
  5
259
330
1F
100
AcDbEntity
  8
図
  6
CONTINUOUS
 62
     2
100
AcDbLine
 10
308.0723232542013
 20
295.0057030451998
 30
0.0
 11
308.0723232542013
 21
296.5033472433001
 31
0.0
  0
LINE
  5
25A
330
1F
100
AcDbEntity
  8
図
  6
CONTINUOUS
 62
     2
100
AcDbLine
 10
307.9404552116015
 20
294.5159074583998
 30
0.0
 11
308.0723232542013
 21
295.0057030451998
 31
0.0
  0
LINE
  5
25B
330
1F
100
AcDbEntity
  8
図
  6
CONTINUOUS
 62
     2
100
AcDbLine
 10
307.5731085215015
 20
294.1485607682998
 30
0.0
 11
307.9404552116015
 21
294.5159074583998
 31
0.0
  0
LINE
  5
25C
330
1F
100
AcDbEntity
  8
図
  6
CONTINUOUS
 62
     2
100
AcDbLine
 10
307.0738937888013
 20
294.0166927257
 30
0.0
 11
307.5731085215015
 21
294.1485607682998
 31
0.0
  0
LINE
  5
25D
330
1F
100
AcDbEntity
  8
図
  6
CONTINUOUS
 62
     2
100
AcDbLine
 10
307.1304086642012
 20
294.0166927257
 30
0.0
 11
307.0738937888013
 21
294.0166927257
 31
0.0
  0
LINE
  5
25E
330
1F
100
AcDbEntity
  8
図
  6
CONTINUOUS
 62
     2
100
AcDbLine
 10
306.4239727217013
 20
293.7246992028003
 30
0.0
 11
306.1319791988012
 21
293.0182632603
 31
0.0
  0
LINE
  5
25F
330
1F
100
AcDbEntity
  8
図
  6
CONTINUOUS
 62
     2
100
AcDbLine
 10
307.1304086642012
 20
294.0166927257
 30
0.0
 11
306.4239727217013
 21
293.7246992028003
 31
0.0
  0
LINE
  5
260
330
1F
100
AcDbEntity
  8
図
  6
CONTINUOUS
 62
     2
100
AcDbLine
 10
323.2842438827014
 20
294.3086862485997
 30
0.0
 11
323.9906798252013
 21
294.0166927257
 31
0.0
  0
LINE
  5
261
330
1F
100
AcDbEntity
  8
図
  6
CONTINUOUS
 62
     2
100
AcDbLine
 10
322.9922503598013
 20
295.0057030451998
 30
0.0
 11
323.2842438827014
 21
294.3086862485997
 31
0.0
  0
LINE
  5
262
330
1F
100
AcDbEntity
  8
図
  6
CONTINUOUS
 62
     2
100
AcDbLine
 10
323.9906798252013
 20
294.0166927257
 30
0.0
 11
323.9435840957012
 21
294.0166927257
 31
0.0
  0
LINE
  5
263
330
1F
100
AcDbEntity
  8
図
  6
CONTINUOUS
 62
     2
100
AcDbLine
 10
324.6500200382015
 20
293.7246992028003
 30
0.0
 11
323.9435840957012
 21
294.0166927257
 31
0.0
  0
LINE
  5
264
330
1F
100
AcDbEntity
  8
図
  6
CONTINUOUS
 62
     2
100
AcDbLine
 10
324.9325944152014
 20
293.0182632603
 30
0.0
 11
324.6500200382015
 21
293.7246992028003
 31
0.0
  0
LINE
  5
265
330
1F
100
AcDbEntity
  8
図
  6
CONTINUOUS
 62
     2
100
AcDbLine
 10
260.9648431766013
 20
233.1861479945
 30
0.0
 11
261.3792855962014
 21
234.7497262139004
 31
0.0
  0
LINE
  5
266
330
1F
100
AcDbEntity
  8
図
  6
CONTINUOUS
 62
     2
100
AcDbLine
 10
284.6351568233012
 20
233.1861479945
 30
0.0
 11
284.2112952578013
 21
234.7497262139004
 31
0.0
  0
LINE
  5
267
330
1F
100
AcDbEntity
  8
図
  6
CONTINUOUS
 62
     2
100
AcDbLine
 10
247.9287452510011
 20
264.6366761546005
 30
0.0
 11
247.9287452510011
 21
288.4970732282999
 31
0.0
  0
ARC
  5
268
330
1F
100
AcDbEntity
  8
図
  6
CONTINUOUS
 62
     2
100
AcDbCircle
 10
313.40871244167
 20
264.0578769681019
 30
0.0
 40
28.50783207197185
100
AcDbArc
 50
49.1254547429261
 51
65.38866548401946
  0
ARC
  5
269
330
1F
100
AcDbEntity
  8
図
  6
CONTINUOUS
 62
     2
100
AcDbCircle
 10
333.6661022848252
 20
287.5571811775594
 30
0.0
 40
2.51829648611698
100
AcDbArc
 50
230.5032443378616
 51
271.8844776183901
  0
ARC
  5
26A
330
1F
100
AcDbEntity
  8
図
  6
CONTINUOUS
 62
     2
100
AcDbCircle
 10
316.7701198385375
 20
266.2186769938402
 30
0.0
 40
26.1746272302378
100
AcDbArc
 50
114.8184414053584
 51
136.858815635189
  0
ARC
  5
26B
330
1F
100
AcDbEntity
  8
図
  6
CONTINUOUS
 62
     2
100
AcDbCircle
 10
315.5322868070011
 20
340.4693514465293
 30
0.0
 40
51.42596775602924
100
AcDbArc
 50
259.0723143735272
 51
280.9276856264729
  0
ARC
  5
26C
330
1F
100
AcDbEntity
  8
図
  6
CONTINUOUS
 62
     2
100
AcDbCircle
 10
315.5278094396467
 20
281.5413840055984
 30
0.0
 40
24.26250939231201
100
AcDbArc
 50
222.6104926071073
 51
270.5508375364627
  0
ARC
  5
26D
330
1F
100
AcDbEntity
  8
図
  6
CONTINUOUS
 62
     2
100
AcDbCircle
 10
315.483942637818
 20
281.8852119049056
 30
0.0
 40
24.60677655486012
100
AcDbArc
 50
270.6452780701516
 51
311.3855986803373
  0
ARC
  5
26E
330
1F
100
AcDbEntity
  8
図
  6
CONTINUOUS
 62
     2
100
AcDbCircle
 10
333.7644849014259
 20
261.1399309907978
 30
0.0
 40
3.046366458661451
100
AcDbArc
 50
90.29283896686154
 51
133.6778249567929
  0
ARC
  5
26F
330
1F
100
AcDbEntity
  8
図
  6
CONTINUOUS
 62
     2
100
AcDbCircle
 10
286.4486724464331
 20
267.8310475502489
 30
0.0
 40
38.65215129529954
100
AcDbArc
 50
184.7405637109401
 51
226.7339583156948
  0
ARC
  5
270
330
1F
100
AcDbEntity
  8
図
  6
CONTINUOUS
 62
     2
100
AcDbCircle
 10
256.0291686065906
 20
235.8807395912303
 30
0.0
 40
5.468358351664382
100
AcDbArc
 50
348.0634303726721
 51
44.08714033709738
  0
ARC
  5
271
330
1F
100
AcDbEntity
  8
図
  6
CONTINUOUS
 62
     2
100
AcDbCircle
 10
259.1513275534693
 20
267.8310475502489
 30
0.0
 40
38.65215129529954
100
AcDbArc
 50
313.2660416843054
 51
355.25943628906
  0
ARC
  5
272
330
1F
100
AcDbEntity
  8
図
  6
CONTINUOUS
 62
     2
100
AcDbCircle
 10
289.5708313933118
 20
235.8807395912303
 30
0.0
 40
5.468358351664382
100
AcDbArc
 50
135.912859662901
 51
191.9365696273279
  0
LINE
  5
273
330
1F
100
AcDbEntity
  8
図
  6
CONTINUOUS
 62
     2
100
AcDbLine
 10
297.6712547489014
 20
264.6366761546005
 30
0.0
 11
297.6712547489014
 21
288.4970732282999
 31
0.0
  0
LINE
  5
274
330
1F
100
AcDbEntity
  8
図
  6
CONTINUOUS
 62
     2
100
AcDbLine
 10
343.3164865516014
 20
252.0732360330002
 30
0.0
 11
343.3164865516014
 21
297.1532683104001
 31
0.0
  0
LINE
  5
275
330
1F
100
AcDbEntity
  8
図
  6
CONTINUOUS
 62
     2
100
AcDbLine
 10
338.3431775164012
 20
260.1642823611
 30
0.0
 11
338.3431775164012
 21
289.0622219822998
 31
0.0
  0
LINE
  5
276
330
1F
100
AcDbEntity
  8
図
  6
CONTINUOUS
 62
     2
100
AcDbLine
 10
347.8000000000015
 20
250.9806151085999
 30
0.0
 11
347.8000000000015
 21
298.2458892347999
 31
0.0
  0
LINE
  5
277
330
1F
100
AcDbEntity
  8
図
  6
CONTINUOUS
 62
     2
100
AcDbLine
 10
338.3431775164012
 20
260.1642823611
 30
0.0
 11
338.5598178721011
 21
259.2600443546998
 31
0.0
  0
LINE
  5
278
330
1F
100
AcDbEntity
  8
図
  6
CONTINUOUS
 62
     2
100
AcDbLine
 10
343.4483545942011
 20
251.2349320478997
 30
0.0
 11
344.4185266219014
 21
250.9806151085999
 31
0.0
  0
LINE
  5
279
330
1F
100
AcDbEntity
  8
図
  6
CONTINUOUS
 62
     2
100
AcDbLine
 10
342.7230803599013
 20
251.9225296986
 30
0.0
 11
343.4483545942011
 21
251.2349320478997
 31
0.0
  0
LINE
  5
27A
330
1F
100
AcDbEntity
  8
図
  6
CONTINUOUS
 62
     2
100
AcDbLine
 10
338.5598178721011
 20
259.2600443546998
 30
0.0
 11
342.7230803599013
 21
251.9225296986
 31
0.0
  0
LINE
  5
27B
330
1F
100
AcDbEntity
  8
図
  6
CONTINUOUS
 62
     2
100
AcDbLine
 10
344.4185266219014
 20
250.9806151085999
 30
0.0
 11
347.8000000000015
 21
250.9806151085999
 31
0.0
  0
LINE
  5
27C
330
1F
100
AcDbEntity
  8
図
  6
CONTINUOUS
 62
     2
100
AcDbLine
 10
338.5598178721011
 20
289.9664599887
 30
0.0
 11
338.3431775164012
 21
289.0622219822998
 31
0.0
  0
LINE
  5
27D
330
1F
100
AcDbEntity
  8
図
  6
CONTINUOUS
 62
     2
100
AcDbLine
 10
343.4483545942011
 20
297.9915722955001
 30
0.0
 11
342.7230803599013
 21
297.3039746448002
 31
0.0
  0
LINE
  5
27E
330
1F
100
AcDbEntity
  8
図
  6
CONTINUOUS
 62
     2
100
AcDbLine
 10
344.4185266219014
 20
298.2458892347999
 30
0.0
 11
343.4483545942011
 21
297.9915722955001
 31
0.0
  0
LINE
  5
27F
330
1F
100
AcDbEntity
  8
図
  6
CONTINUOUS
 62
     2
100
AcDbLine
 10
342.7230803599013
 20
297.3039746448002
 30
0.0
 11
338.5598178721011
 21
289.9664599887
 31
0.0
  0
LINE
  5
280
330
1F
100
AcDbEntity
  8
図
  6
CONTINUOUS
 62
     2
100
AcDbLine
 10
344.4185266219014
 20
298.2458892347999
 30
0.0
 11
347.8000000000015
 21
298.2458892347999
 31
0.0
  0
LINE
  5
281
330
1F
100
AcDbEntity
  8
図
  6
CONTINUOUS
 62
     2
100
AcDbLine
 10
333.7489149776015
 20
285.040246683
 30
0.0
 11
338.3431775164012
 21
285.040246683
 31
0.0
  0
LINE
  5
282
330
1F
100
AcDbEntity
  8
図
  6
CONTINUOUS
 62
     2
100
AcDbLine
 10
333.7489149776015
 20
264.1862576603998
 30
0.0
 11
338.3431775164012
 21
264.1862576603998
 31
0.0
  0
LINE
  5
283
330
1F
100
AcDbEntity
  8
図
  6
CONTINUOUS
 62
     2
100
AcDbLine
 10
362.1037684707016
 20
285.040246683
 30
0.0
 11
363.3000000000015
 21
283.8440151536997
 31
0.0
  0
LINE
  5
284
330
1F
100
AcDbEntity
  8
図
  6
CONTINUOUS
 62
     2
100
AcDbLine
 10
362.1037684707016
 20
264.1862576603998
 30
0.0
 11
363.3000000000015
 21
265.3824891897002
 31
0.0
  0
LINE
  5
285
330
1F
100
AcDbEntity
  8
図
  6
CONTINUOUS
 62
     2
100
AcDbLine
 10
363.3000000000015
 20
265.3824891897002
 30
0.0
 11
363.3000000000015
 21
283.8440151536997
 31
0.0
  0
LINE
  5
286
330
1F
100
AcDbEntity
  8
図
  6
CONTINUOUS
 62
     2
100
AcDbLine
 10
362.1037684707016
 20
264.1862576603998
 30
0.0
 11
362.1037684707016
 21
265.3448126061002
 31
0.0
  0
LINE
  5
287
330
1F
100
AcDbEntity
  8
図
  6
CONTINUOUS
 62
     2
100
AcDbLine
 10
347.8000000000019
 20
285.040246683
 30
0.0
 11
362.1037684707016
 21
285.040246683
 31
0.0
  0
LINE
  5
288
330
1F
100
AcDbEntity
  8
図
  6
CONTINUOUS
 62
     2
100
AcDbLine
 10
347.8000000000019
 20
264.1862576603998
 30
0.0
 11
362.1037684707016
 21
264.1862576603998
 31
0.0
  0
LINE
  5
289
330
1F
100
AcDbEntity
  8
図
  6
CONTINUOUS
 62
     2
100
AcDbLine
 10
304.5910968250013
 20
367.5646220308003
 30
0.0
 11
239.9192410756013
 21
367.5646220308003
 31
0.0
  0
LINE
  5
28A
330
1F
100
AcDbEntity
  8
図
  6
CONTINUOUS
 62
     2
100
AcDbLine
 10
242.1421595080014
 20
403.3291190131003
 30
0.0
 11
239.9192410756013
 21
367.5646220308003
 31
0.0
  0
LINE
  5
28B
330
1F
100
AcDbEntity
  8
図
  6
CONTINUOUS
 62
     2
100
AcDbLine
 10
240.2960069116015
 20
367.5646220308003
 30
0.0
 11
304.2143309890016
 21
367.5646220308003
 31
0.0
  0
LINE
  5
28C
330
1F
100
AcDbEntity
  8
図
  6
CONTINUOUS
 62
     2
100
AcDbLine
 10
304.2143309890016
 20
367.5646220308003
 30
0.0
 11
305.5612688527016
 21
344.8738995577004
 31
0.0
  0
LINE
  5
28D
330
1F
100
AcDbEntity
  8
図
  6
CONTINUOUS
 62
     2
100
AcDbLine
 10
303.5644099219016
 20
302.8739279896003
 30
0.0
 11
304.9396052233014
 21
311.2004529652003
 31
0.0
  0
LINE
  5
28E
330
1F
100
AcDbEntity
  8
図
  6
CONTINUOUS
 62
     2
100
AcDbLine
 10
304.9396052233014
 20
311.2004529652003
 30
0.0
 11
305.8250049379016
 21
319.5929119621005
 31
0.0
  0
LINE
  5
28F
330
1F
100
AcDbEntity
  8
図
  6
CONTINUOUS
 62
     2
100
AcDbLine
 10
305.8250049379016
 20
319.5929119621005
 30
0.0
 11
306.2206090657014
 21
328.0230475426005
 31
0.0
  0
LINE
  5
290
330
1F
100
AcDbEntity
  8
図
  6
CONTINUOUS
 62
     2
100
AcDbLine
 10
306.2206090657014
 20
328.0230475426005
 30
0.0
 11
306.1358367526013
 21
336.4626022690003
 31
0.0
  0
LINE
  5
291
330
1F
100
AcDbEntity
  8
図
  6
CONTINUOUS
 62
     2
100
AcDbLine
 10
306.1358367526013
 20
336.4626022690003
 30
0.0
 11
305.5612688527016
 21
344.8738995577004
 31
0.0
  0
LINE
  5
292
330
1F
100
AcDbEntity
  8
図
  6
CONTINUOUS
 62
     2
100
AcDbLine
 10
240.2960069116015
 20
367.5646220308003
 30
0.0
 11
238.9584881938012
 21
344.8738995577004
 31
0.0
  0
LINE
  5
293
330
1F
100
AcDbEntity
  8
図
  6
CONTINUOUS
 62
     2
100
AcDbLine
 10
238.9584881938012
 20
344.8738995577004
 30
0.0
 11
238.3839202939016
 21
336.4626022690003
 31
0.0
  0
LINE
  5
294
330
1F
100
AcDbEntity
  8
図
  6
CONTINUOUS
 62
     2
100
AcDbLine
 10
238.3839202939016
 20
336.4626022690003
 30
0.0
 11
238.2991479808015
 21
328.0230475426005
 31
0.0
  0
LINE
  5
295
330
1F
100
AcDbEntity
  8
図
  6
CONTINUOUS
 62
     2
100
AcDbLine
 10
238.2991479808015
 20
328.0230475426005
 30
0.0
 11
238.6947521086017
 21
319.5929119621005
 31
0.0
  0
LINE
  5
296
330
1F
100
AcDbEntity
  8
図
  6
CONTINUOUS
 62
     2
100
AcDbLine
 10
238.6947521086017
 20
319.5929119621005
 30
0.0
 11
239.5801518232014
 21
311.2004529652003
 31
0.0
  0
LINE
  5
297
330
1F
100
AcDbEntity
  8
図
  6
CONTINUOUS
 62
     2
100
AcDbLine
 10
239.5801518232014
 20
311.2004529652003
 30
0.0
 11
240.9459279787015
 21
302.8739279896003
 31
0.0
  0
LINE
  5
298
330
1F
100
AcDbEntity
  8
図
  6
CONTINUOUS
 62
     2
100
AcDbLine
 10
303.5644099219016
 20
302.8739279896003
 30
0.0
 11
240.9459279787015
 21
302.8739279896003
 31
0.0
  0
LINE
  5
299
330
1F
100
AcDbEntity
  8
図
  6
CONTINUOUS
 62
     2
100
AcDbLine
 10
297.7245394639016
 20
288.4814730544003
 30
0.0
 11
299.2692793915016
 21
288.7169517019001
 31
0.0
  0
LINE
  5
29A
330
1F
100
AcDbEntity
  8
図
  6
CONTINUOUS
 62
     2
100
AcDbLine
 10
299.2692793915016
 20
288.7169517019001
 30
0.0
 11
300.6538938388016
 21
289.4233876444004
 31
0.0
  0
LINE
  5
29B
330
1F
100
AcDbEntity
  8
図
  6
CONTINUOUS
 62
     2
100
AcDbLine
 10
300.6538938388016
 20
289.4233876444004
 30
0.0
 11
301.7559339091017
 21
290.5254277147005
 31
0.0
  0
LINE
  5
29C
330
1F
100
AcDbEntity
  8
図
  6
CONTINUOUS
 62
     2
100
AcDbLine
 10
301.7559339091017
 20
290.5254277147005
 30
0.0
 11
302.4623698516015
 21
291.9194613079007
 31
0.0
  0
LINE
  5
29D
330
1F
100
AcDbEntity
  8
図
  6
CONTINUOUS
 62
     2
100
AcDbLine
 10
302.4623698516015
 20
291.9194613079007
 30
0.0
 11
302.7072676450015
 21
293.4547820896004
 31
0.0
  0
LINE
  5
29E
330
1F
100
AcDbEntity
  8
図
  6
CONTINUOUS
 62
     2
100
AcDbLine
 10
241.8124894015013
 20
293.4547820896004
 30
0.0
 11
242.0573871949013
 21
291.9194613079007
 31
0.0
  0
LINE
  5
29F
330
1F
100
AcDbEntity
  8
図
  6
CONTINUOUS
 62
     2
100
AcDbLine
 10
242.0573871949013
 20
291.9194613079007
 30
0.0
 11
242.7638231374016
 21
290.5254277147005
 31
0.0
  0
LINE
  5
2A0
330
1F
100
AcDbEntity
  8
図
  6
CONTINUOUS
 62
     2
100
AcDbLine
 10
242.7638231374016
 20
290.5254277147005
 30
0.0
 11
243.8658632077017
 21
289.4233876444004
 31
0.0
  0
LINE
  5
2A1
330
1F
100
AcDbEntity
  8
図
  6
CONTINUOUS
 62
     2
100
AcDbLine
 10
243.8658632077017
 20
289.4233876444004
 30
0.0
 11
245.2504776550017
 21
288.7169517019001
 31
0.0
  0
LINE
  5
2A2
330
1F
100
AcDbEntity
  8
図
  6
CONTINUOUS
 62
     2
100
AcDbLine
 10
245.2504776550017
 20
288.7169517019001
 30
0.0
 11
246.7857984367014
 21
288.4814730544003
 31
0.0
  0
LINE
  5
2A3
330
1F
100
AcDbEntity
  8
図
  6
CONTINUOUS
 62
     2
100
AcDbLine
 10
241.8124894015013
 20
293.4547820896004
 30
0.0
 11
241.8124894015013
 21
302.8739279896003
 31
0.0
  0
LINE
  5
2A4
330
1F
100
AcDbEntity
  8
図
  6
CONTINUOUS
 62
     2
100
AcDbLine
 10
302.7072676450015
 20
293.4547820896004
 30
0.0
 11
302.7072676450015
 21
302.8739279896003
 31
0.0
  0
LINE
  5
2A5
330
1F
100
AcDbEntity
  8
図
  6
CONTINUOUS
 62
     2
100
AcDbLine
 10
297.7245394639016
 20
288.4814730544003
 30
0.0
 11
246.7857984367014
 21
288.4814730544003
 31
0.0
  0
LINE
  5
2A6
330
1F
100
AcDbEntity
  8
図
  6
CONTINUOUS
 62
     2
100
AcDbLine
 10
259.9664137112013
 20
233.1861479945
 30
0.0
 11
272.7952904270014
 21
233.1861479945
 31
0.0
  0
LINE
  5
2A7
330
1F
100
AcDbEntity
  8
図
  6
CONTINUOUS
 62
     2
100
AcDbLine
 10
285.6335862887012
 20
233.1861479945
 30
0.0
 11
272.7952904270014
 21
233.1861479945
 31
0.0
  0
ARC
  5
2A8
330
1F
100
AcDbEntity
  8
図
  6
CONTINUOUS
 62
     2
100
AcDbCircle
 10
272.5309944625041
 20
227.2144094938998
 30
0.0
 40
13.91151861500289
100
AcDbArc
 50
154.5790280522543
 51
205.4209719477449
  0
ARC
  5
2A9
330
1F
100
AcDbEntity
  8
図
  6
CONTINUOUS
 62
     2
100
AcDbCircle
 10
273.0690055374034
 20
227.2144094938998
 30
0.0
 40
13.91151861499745
100
AcDbArc
 50
334.5790280522448
 51
25.42097194775611
  0
ARC
  5
2AA
330
1F
100
AcDbEntity
  8
図
  6
CONTINUOUS
 62
     2
100
AcDbCircle
 10
250.5794598832367
 20
402.5270860238979
 30
0.0
 40
8.475334479400392
100
AcDbArc
 50
119.2062275938109
 51
174.5698934808368
  0
LINE
  5
2AB
330
1F
100
AcDbEntity
  8
図
  6
CONTINUOUS
 62
     2
100
AcDbLine
 10
302.3546564110652
 20
403.6997890593784
 30
0.0
 11
304.5910968250013
 21
367.5646220308003
 31
0.0
  0
ARC
  5
2AC
330
1F
100
AcDbEntity
  8
図
  6
CONTINUOUS
 62
     2
100
AcDbCircle
 10
272.7999999999515
 20
330.1763041636722
 30
0.0
 40
83.99101366243588
100
AcDbArc
 50
72.46725054481412
 51
108.2881978027126
  0
ARC
  5
2AD
330
1F
100
AcDbEntity
  8
図
  6
CONTINUOUS
 62
     2
100
AcDbCircle
 10
293.917582798665
 20
402.8953741189979
 30
0.0
 40
8.475334479400392
100
AcDbArc
 50
5.446282022915286
 51
60.41196055886226
  0
LINE
  5
2AE
330
1F
100
AcDbEntity
  8
図
  6
CONTINUOUS
 62
     2
100
AcDbLine
 10
259.9664137112013
 20
221.2426709933001
 30
0.0
 11
272.7952904270014
 21
221.2426709933001
 31
0.0
  0
ARC
  5
2AF
330
1F
100
AcDbEntity
  8
図
  6
CONTINUOUS
 62
     2
100
AcDbCircle
 10
277.8
 20
144.2426709933001
 30
0.0
 40
32.94
100
AcDbArc
 50
146.0969387309173
 51
179.9999999999997
  0
ARC
  5
2B0
330
1F
100
AcDbEntity
  8
図
  6
CONTINUOUS
 62
     2
100
AcDbCircle
 10
277.8
 20
144.2426709933001
 30
0.0
 40
17.06
100
AcDbArc
 50
146.0969387309173
 51
179.9999999999997
  0
ARC
  5
2B1
330
1F
100
AcDbEntity
  8
図
  6
CONTINUOUS
 62
     2
100
AcDbCircle
 10
247.7999999999999
 20
189.2426709933001
 30
0.0
 40
32.94
100
AcDbArc
 50
326.0969387309173
 51
0.0000000000000573
  0
ARC
  5
2B2
330
1F
100
AcDbEntity
  8
図
  6
CONTINUOUS
 62
     2
100
AcDbCircle
 10
247.7999999999999
 20
189.2426709933001
 30
0.0
 40
17.06
100
AcDbArc
 50
326.0969387309173
 51
0.0000000000001146
  0
LINE
  5
2B3
330
1F
100
AcDbEntity
  8
図
  6
CONTINUOUS
 62
     2
100
AcDbLine
 10
261.9595011774131
 20
179.7267828893532
 30
0.0
 11
250.4603769763195
 21
162.6162556441797
 31
0.0
  0
LINE
  5
2B4
330
1F
100
AcDbEntity
  8
図
  6
CONTINUOUS
 62
     2
100
AcDbLine
 10
275.1396230236804
 20
170.8690863424204
 30
0.0
 11
263.6404988225868
 21
153.7585590972468
 31
0.0
  0
LINE
  5
2B5
330
1F
100
AcDbEntity
  8
図
  6
CONTINUOUS
 62
     2
100
AcDbLine
 10
264.86
 20
221.2426709933001
 30
0.0
 11
264.86
 21
189.2426709933001
 31
0.0
  0
LINE
  5
2B6
330
1F
100
AcDbEntity
  8
図
  6
CONTINUOUS
 62
     2
100
AcDbLine
 10
285.6335862887012
 20
221.2426709933001
 30
0.0
 11
272.7952904270014
 21
221.2426709933001
 31
0.0
  0
LINE
  5
2B7
330
1F
100
AcDbEntity
  8
図
  6
CONTINUOUS
 62
     2
100
AcDbLine
 10
280.74
 20
221.2426709933001
 30
0.0
 11
280.74
 21
189.2426709933001
 31
0.0
  0
LINE
  5
2B8
330
1F
100
AcDbEntity
  8
図
  6
CONTINUOUS
 62
     2
100
AcDbLine
 10
244.8599999999999
 20
78.60000000000001
 30
0.0
 11
260.74
 21
78.60000000000001
 31
0.0
  0
LINE
  5
2B9
330
1F
100
AcDbEntity
  8
図
  6
CONTINUOUS
 62
     2
100
AcDbLine
 10
260.74
 20
144.2426709933001
 30
0.0
 11
260.74
 21
107.5626709933
 31
0.0
  0
LINE
  5
2BA
330
1F
100
AcDbEntity
  8
図
  6
CONTINUOUS
 62
     2
100
AcDbLine
 10
260.74
 20
106.5626709933
 30
0.0
 11
260.74
 21
78.6
 31
0.0
  0
LINE
  5
2BB
330
1F
100
AcDbEntity
  8
図
  6
CONTINUOUS
 62
     2
100
AcDbLine
 10
244.8599999999999
 20
144.2426709933001
 30
0.0
 11
244.8599999999999
 21
107.5626709933001
 31
0.0
  0
LINE
  5
2BC
330
1F
100
AcDbEntity
  8
図
  6
CONTINUOUS
 62
     2
100
AcDbLine
 10
244.8599999999999
 20
106.5626709933001
 30
0.0
 11
244.8599999999999
 21
78.60000000000001
 31
0.0
  0
LINE
  5
2BD
330
1F
100
AcDbEntity
  8
図
  6
CONTINUOUS
 62
     2
100
AcDbLine
 10
99.06454163700138
 20
561.33866315612
 30
0.0
 11
100.2607731663013
 21
562.5348946854199
 31
0.0
  0
LINE
  5
2BE
330
1F
100
AcDbEntity
  8
図
  6
CONTINUOUS
 62
     2
100
AcDbLine
 10
119.9091115137014
 20
561.33866315612
 30
0.0
 11
118.7599757139016
 21
561.33866315612
 31
0.0
  0
LINE
  5
2BF
330
1F
100
AcDbEntity
  8
図
  6
CONTINUOUS
 62
     2
100
AcDbLine
 10
119.9091115137014
 20
561.33866315612
 30
0.0
 11
118.7128799844015
 21
562.5348946854199
 31
0.0
  0
LINE
  5
2C0
330
1F
100
AcDbEntity
  8
図
  6
CONTINUOUS
 62
     2
100
AcDbLine
 10
118.7128799844015
 20
562.5348946854199
 30
0.0
 11
100.2607731663013
 21
562.5348946854199
 31
0.0
  0
LINE
  5
2C1
330
1F
100
AcDbEntity
  8
図
  6
CONTINUOUS
 62
     2
100
AcDbLine
 10
85.8588990852015
 20
547.0348946854194
 30
0.0
 11
109.4915361483015
 21
547.0348946854194
 31
0.0
  0
LINE
  5
2C2
330
1F
100
AcDbEntity
  8
図
  6
CONTINUOUS
 62
     2
100
AcDbLine
 10
85.8588990852015
 20
543.6534213073194
 30
0.0
 11
85.8588990852015
 21
547.0348946854194
 31
0.0
  0
LINE
  5
2C3
330
1F
100
AcDbEntity
  8
図
  6
CONTINUOUS
 62
     2
100
AcDbLine
 10
109.4915361483015
 20
537.5874913477194
 30
0.0
 11
95.04256633770157
 21
537.5874913477194
 31
0.0
  0
LINE
  5
2C4
330
1F
100
AcDbEntity
  8
図
  6
CONTINUOUS
 62
     2
100
AcDbLine
 10
86.79139452930141
 20
541.9673941912195
 30
0.0
 11
94.12890918540162
 21
537.8041317034192
 31
0.0
  0
LINE
  5
2C5
330
1F
100
AcDbEntity
  8
図
  6
CONTINUOUS
 62
     2
100
AcDbLine
 10
85.8588990852015
 20
543.6534213073194
 30
0.0
 11
86.10379687860151
 21
542.6926684255193
 31
0.0
  0
LINE
  5
2C6
330
1F
100
AcDbEntity
  8
図
  6
CONTINUOUS
 62
     2
100
AcDbLine
 10
86.10379687860151
 20
542.6926684255193
 30
0.0
 11
86.79139452930141
 21
541.9673941912195
 31
0.0
  0
LINE
  5
2C7
330
1F
100
AcDbEntity
  8
図
  6
CONTINUOUS
 62
     2
100
AcDbLine
 10
94.12890918540162
 20
537.8041317034192
 30
0.0
 11
95.04256633770157
 21
537.5874913477194
 31
0.0
  0
LINE
  5
2C8
330
1F
100
AcDbEntity
  8
図
  6
CONTINUOUS
 62
     2
100
AcDbLine
 10
133.1147540655013
 20
547.0348946854194
 30
0.0
 11
109.4915361483015
 21
547.0348946854194
 31
0.0
  0
LINE
  5
2C9
330
1F
100
AcDbEntity
  8
図
  6
CONTINUOUS
 62
     2
100
AcDbLine
 10
133.1147540655013
 20
543.6534213073194
 30
0.0
 11
133.1147540655013
 21
547.0348946854194
 31
0.0
  0
LINE
  5
2CA
330
1F
100
AcDbEntity
  8
図
  6
CONTINUOUS
 62
     2
100
AcDbLine
 10
109.4915361483015
 20
537.5874913477194
 30
0.0
 11
123.9310868130012
 21
537.5874913477194
 31
0.0
  0
LINE
  5
2CB
330
1F
100
AcDbEntity
  8
図
  6
CONTINUOUS
 62
     2
100
AcDbLine
 10
124.8447439653016
 20
537.8041317034192
 30
0.0
 11
132.1822586214014
 21
541.9673941912195
 31
0.0
  0
LINE
  5
2CC
330
1F
100
AcDbEntity
  8
図
  6
CONTINUOUS
 62
     2
100
AcDbLine
 10
132.1822586214014
 20
541.9673941912195
 30
0.0
 11
132.8698562721013
 21
542.6926684255193
 31
0.0
  0
LINE
  5
2CD
330
1F
100
AcDbEntity
  8
図
  6
CONTINUOUS
 62
     2
100
AcDbLine
 10
132.8698562721013
 20
542.6926684255193
 30
0.0
 11
133.1147540655013
 21
543.6534213073194
 31
0.0
  0
LINE
  5
2CE
330
1F
100
AcDbEntity
  8
図
  6
CONTINUOUS
 62
     2
100
AcDbLine
 10
123.9310868130012
 20
537.5874913477194
 30
0.0
 11
124.8447439653016
 21
537.8041317034192
 31
0.0
  0
LINE
  5
2CF
330
1F
100
AcDbEntity
  8
図
  6
CONTINUOUS
 62
     2
100
AcDbLine
 10
99.06454163700138
 20
532.4257993945191
 30
0.0
 11
99.06454163700138
 21
537.5874913477194
 31
0.0
  0
LINE
  5
2D0
330
1F
100
AcDbEntity
  8
図
  6
CONTINUOUS
 62
     2
100
AcDbLine
 10
119.9091115137014
 20
532.4257993945191
 30
0.0
 11
119.9091115137014
 21
537.5874913477194
 31
0.0
  0
LINE
  5
2D1
330
1F
100
AcDbEntity
  8
図
  6
CONTINUOUS
 62
     2
100
AcDbLine
 10
109.4915361483015
 20
542.5608003829191
 30
0.0
 11
132.0221331411014
 21
542.5608003829191
 31
0.0
  0
LINE
  5
2D2
330
1F
100
AcDbEntity
  8
図
  6
CONTINUOUS
 62
     2
100
AcDbLine
 10
109.4915361483015
 20
542.5608003829191
 30
0.0
 11
86.95152000960135
 21
542.5608003829191
 31
0.0
  0
ARC
  5
2D3
330
1F
100
AcDbEntity
  8
図
  6
CONTINUOUS
 62
     2
100
AcDbCircle
 10
96.13884641559636
 20
532.409633323645
 30
0.0
 40
2.925739884267572
100
AcDbArc
 50
317.3912242539569
 51
0.3165873872331655
  0
ARC
  5
2D4
330
1F
100
AcDbEntity
  8
図
  6
CONTINUOUS
 62
     2
100
AcDbCircle
 10
122.8348067352046
 20
532.409633323645
 30
0.0
 40
2.925739884267572
100
AcDbArc
 50
179.6834126127669
 51
222.6087757460433
  0
LINE
  5
2D5
330
1F
100
AcDbEntity
  8
図
  6
CONTINUOUS
 62
     2
100
AcDbLine
 10
99.06454163700093
 20
547.0348946854199
 30
0.0
 11
99.06454163700093
 21
561.33866315612
 31
0.0
  0
LINE
  5
2D6
330
1F
100
AcDbEntity
  8
図
  6
CONTINUOUS
 62
     2
100
AcDbLine
 10
119.9091115137014
 20
547.0348946854194
 30
0.0
 11
119.9091115137014
 21
561.33866315612
 31
0.0
  0
ARC
  5
2D7
330
1F
100
AcDbEntity
  8
図
  6
CONTINUOUS
 62
     2
100
AcDbCircle
 10
116.6800472775405
 20
514.2150008548863
 30
0.0
 40
24.51541977775598
100
AcDbArc
 50
138.5950095969662
 51
208.8513437472438
  0
ARC
  5
2D8
330
1F
100
AcDbEntity
  8
図
  6
CONTINUOUS
 62
     2
100
AcDbCircle
 10
102.2936058732605
 20
514.2150008548863
 30
0.0
 40
24.51541977775598
100
AcDbArc
 50
331.1486562527565
 51
41.40499040303381
  0
CIRCLE
  5
2D9
330
1F
100
AcDbEntity
  8
図
  6
CONTINUOUS
 62
     2
100
AcDbCircle
 10
109.486826575401
 20
471.5291771110203
 30
0.0
 40
34.0
  0
LINE
  5
2DA
330
1F
100
AcDbEntity
  8
図
  6
CONTINUOUS
 62
     2
100
AcDbLine
 10
81.09281125980146
 20
289.4389878183001
 30
0.0
 11
82.47742570710147
 21
288.7325518757997
 31
0.0
  0
LINE
  5
2DB
330
1F
100
AcDbEntity
  8
図
  6
CONTINUOUS
 62
     2
100
AcDbLine
 10
82.47742570710147
 20
288.7325518757997
 30
0.0
 11
84.01274648880167
 21
288.4970732282999
 31
0.0
  0
LINE
  5
2DC
330
1F
100
AcDbEntity
  8
図
  6
CONTINUOUS
 62
     2
100
AcDbLine
 10
134.9609066619016
 20
288.4970732282999
 30
0.0
 11
136.4962274436014
 21
288.7325518757997
 31
0.0
  0
LINE
  5
2DD
330
1F
100
AcDbEntity
  8
図
  6
CONTINUOUS
 62
     2
100
AcDbLine
 10
136.4962274436014
 20
288.7325518757997
 30
0.0
 11
137.8808418909014
 21
289.4389878183001
 31
0.0
  0
LINE
  5
2DE
330
1F
100
AcDbEntity
  8
図
  6
CONTINUOUS
 62
     2
100
AcDbLine
 10
84.01274648880167
 20
288.4970732282999
 30
0.0
 11
134.9609066619016
 21
288.4970732282999
 31
0.0
  0
LINE
  5
2DF
330
1F
100
AcDbEntity
  8
図
  6
CONTINUOUS
 62
     2
100
AcDbLine
 10
97.54805914710164
 20
234.7874027975003
 30
0.0
 11
98.02843558800146
 21
236.5864596644
 31
0.0
  0
LINE
  5
2E0
330
1F
100
AcDbEntity
  8
図
  6
CONTINUOUS
 62
     2
100
AcDbLine
 10
120.9452175627014
 20
236.5864596644
 30
0.0
 11
121.4255940036016
 21
234.7874027975003
 31
0.0
  0
LINE
  5
2E1
330
1F
100
AcDbEntity
  8
図
  6
CONTINUOUS
 62
     2
100
AcDbLine
 10
120.8039303742014
 20
238.4420314067001
 30
0.0
 11
120.9452175627014
 21
236.5864596644
 31
0.0
  0
LINE
  5
2E2
330
1F
100
AcDbEntity
  8
図
  6
CONTINUOUS
 62
     2
100
AcDbLine
 10
121.4255940036016
 20
234.7874027975003
 30
0.0
 11
121.4255940036016
 21
233.1861479945
 31
0.0
  0
LINE
  5
2E3
330
1F
100
AcDbEntity
  8
図
  6
CONTINUOUS
 62
     2
100
AcDbLine
 10
97.54805914710164
 20
234.7874027975003
 30
0.0
 11
97.54805914710164
 21
233.1861479945
 31
0.0
  0
LINE
  5
2E4
330
1F
100
AcDbEntity
  8
図
  6
CONTINUOUS
 62
     2
100
AcDbLine
 10
96.6532402866012
 20
221.2426709933001
 30
0.0
 11
122.3204128641016
 21
221.2426709933001
 31
0.0
  0
LINE
  5
2E5
330
1F
100
AcDbEntity
  8
図
  6
CONTINUOUS
 62
     2
100
AcDbLine
 10
96.6532402866012
 20
233.1861479945
 30
0.0
 11
122.3204128641016
 21
233.1861479945
 31
0.0
  0
LINE
  5
2E6
330
1F
100
AcDbEntity
  8
図
  6
CONTINUOUS
 62
     2
100
AcDbLine
 10
122.4240234690017
 20
232.9695076387997
 30
0.0
 11
122.4240234690017
 21
221.459311349
 31
0.0
  0
LINE
  5
2E7
330
1F
100
AcDbEntity
  8
図
  6
CONTINUOUS
 62
     2
100
AcDbLine
 10
96.54962968170162
 20
232.9695076387997
 30
0.0
 11
96.54962968170162
 21
221.459311349
 31
0.0
  0
LINE
  5
2E8
330
1F
100
AcDbEntity
  8
図
  6
CONTINUOUS
 62
     2
100
AcDbLine
 10
96.6532402866012
 20
233.1861479945
 30
0.0
 11
96.54962968170162
 21
232.9695076387997
 31
0.0
  0
LINE
  5
2E9
330
1F
100
AcDbEntity
  8
図
  6
CONTINUOUS
 62
     2
100
AcDbLine
 10
122.3204128641016
 20
221.2426709933001
 30
0.0
 11
122.4240234690017
 21
221.459311349
 31
0.0
  0
LINE
  5
2EA
330
1F
100
AcDbEntity
  8
図
  6
CONTINUOUS
 62
     2
100
AcDbLine
 10
96.54962968170162
 20
221.459311349
 30
0.0
 11
96.6532402866012
 21
221.2426709933001
 31
0.0
  0
LINE
  5
2EB
330
1F
100
AcDbEntity
  8
図
  6
CONTINUOUS
 62
     2
100
AcDbLine
 10
122.4240234690017
 20
232.9695076387997
 30
0.0
 11
122.3204128641016
 21
233.1861479945
 31
0.0
  0
LINE
  5
2EC
330
1F
100
AcDbEntity
  8
図
  6
CONTINUOUS
 62
     2
100
AcDbLine
 10
84.61557182640149
 20
264.6366761546005
 30
0.0
 11
84.61557182640149
 21
288.4970732282999
 31
0.0
  0
LINE
  5
2ED
330
1F
100
AcDbEntity
  8
図
  6
CONTINUOUS
 62
     2
100
AcDbLine
 10
134.3580813243009
 20
264.6366761546005
 30
0.0
 11
134.3580813243009
 21
288.4970732282999
 31
0.0
  0
ARC
  5
2EE
330
1F
100
AcDbEntity
  8
図
  6
CONTINUOUS
 62
     2
100
AcDbCircle
 10
118.7337531979258
 20
267.6811671563273
 30
0.0
 40
34.25374761336132
100
AcDbArc
 50
185.0992076778848
 51
229.4496814907233
  0
ARC
  5
2EF
330
1F
100
AcDbEntity
  8
図
  6
CONTINUOUS
 62
     2
100
AcDbCircle
 10
92.80767500026172
 20
237.7505644368638
 30
0.0
 40
5.348970091126354
100
AcDbArc
 50
347.4300381652941
 51
46.86520159749472
  0
ARC
  5
2F0
330
1F
100
AcDbEntity
  8
図
  6
CONTINUOUS
 62
     2
100
AcDbCircle
 10
100.2398999528752
 20
267.6811671563273
 30
0.0
 40
34.25374761336132
100
AcDbArc
 50
310.5503185092768
 51
354.9007923221152
  0
ARC
  5
2F1
330
1F
100
AcDbEntity
  8
図
  6
CONTINUOUS
 62
     2
100
AcDbCircle
 10
126.1659781505393
 20
237.7505644368638
 30
0.0
 40
5.348970091126354
100
AcDbArc
 50
133.1347984025037
 51
192.5699618347059
  0
LINE
  5
2F2
330
1F
100
AcDbEntity
  8
図
  6
CONTINUOUS
 62
     2
100
AcDbLine
 10
141.4506981870015
 20
367.5802222047
 30
0.0
 11
77.5229549637013
 21
367.5802222047
 31
0.0
  0
LINE
  5
2F3
330
1F
100
AcDbEntity
  8
図
  6
CONTINUOUS
 62
     2
100
AcDbLine
 10
141.4506981870015
 20
367.5802222047
 30
0.0
 11
142.7882169048014
 21
344.8894997316001
 31
0.0
  0
LINE
  5
2F4
330
1F
100
AcDbEntity
  8
図
  6
CONTINUOUS
 62
     2
100
AcDbLine
 10
140.7913579740014
 20
302.8895281635
 30
0.0
 11
142.1665532754016
 21
311.2160531391
 31
0.0
  0
LINE
  5
2F5
330
1F
100
AcDbEntity
  8
図
  6
CONTINUOUS
 62
     2
100
AcDbLine
 10
142.1665532754016
 20
311.2160531391
 30
0.0
 11
143.0519529900014
 21
319.6085121360001
 31
0.0
  0
LINE
  5
2F6
330
1F
100
AcDbEntity
  8
図
  6
CONTINUOUS
 62
     2
100
AcDbLine
 10
143.0519529900014
 20
319.6085121360001
 30
0.0
 11
143.4475571178016
 21
328.0386477165002
 31
0.0
  0
LINE
  5
2F7
330
1F
100
AcDbEntity
  8
図
  6
CONTINUOUS
 62
     2
100
AcDbLine
 10
143.4475571178016
 20
328.0386477165002
 30
0.0
 11
143.3627848047015
 21
336.4782024429
 31
0.0
  0
LINE
  5
2F8
330
1F
100
AcDbEntity
  8
図
  6
CONTINUOUS
 62
     2
100
AcDbLine
 10
143.3627848047015
 20
336.4782024429
 30
0.0
 11
142.7882169048014
 21
344.8894997316001
 31
0.0
  0
LINE
  5
2F9
330
1F
100
AcDbEntity
  8
図
  6
CONTINUOUS
 62
     2
100
AcDbLine
 10
77.14618912770152
 20
367.5802222047
 30
0.0
 11
141.8274640230013
 21
367.5802222047
 31
0.0
  0
LINE
  5
2FA
330
1F
100
AcDbEntity
  8
図
  6
CONTINUOUS
 62
     2
100
AcDbLine
 10
139.6045455906017
 20
403.344719187
 30
0.0
 11
141.8274640230013
 21
367.5802222047
 31
0.0
  0
LINE
  5
2FB
330
1F
100
AcDbEntity
  8
図
  6
CONTINUOUS
 62
     2
100
AcDbLine
 10
78.18229517670147
 20
302.8895281635
 30
0.0
 11
140.7913579740014
 21
302.8895281635
 31
0.0
  0
LINE
  5
2FC
330
1F
100
AcDbEntity
  8
図
  6
CONTINUOUS
 62
     2
100
AcDbLine
 10
77.5229549637013
 20
367.5802222047
 30
0.0
 11
76.18543624590143
 21
344.8894997316001
 31
0.0
  0
LINE
  5
2FD
330
1F
100
AcDbEntity
  8
図
  6
CONTINUOUS
 62
     2
100
AcDbLine
 10
76.18543624590143
 20
344.8894997316001
 30
0.0
 11
75.61086834600133
 21
336.4782024429
 31
0.0
  0
LINE
  5
2FE
330
1F
100
AcDbEntity
  8
図
  6
CONTINUOUS
 62
     2
100
AcDbLine
 10
75.61086834600133
 20
336.4782024429
 30
0.0
 11
75.52609603290125
 21
328.0386477165002
 31
0.0
  0
LINE
  5
2FF
330
1F
100
AcDbEntity
  8
図
  6
CONTINUOUS
 62
     2
100
AcDbLine
 10
75.52609603290125
 20
328.0386477165002
 30
0.0
 11
75.92170016070145
 21
319.6085121360001
 31
0.0
  0
LINE
  5
300
330
1F
100
AcDbEntity
  8
図
  6
CONTINUOUS
 62
     2
100
AcDbLine
 10
75.92170016070145
 20
319.6085121360001
 30
0.0
 11
76.80709987530167
 21
311.2160531391
 31
0.0
  0
LINE
  5
301
330
1F
100
AcDbEntity
  8
図
  6
CONTINUOUS
 62
     2
100
AcDbLine
 10
76.80709987530167
 20
311.2160531391
 30
0.0
 11
78.18229517670147
 21
302.8895281635
 31
0.0
  0
LINE
  5
302
330
1F
100
AcDbEntity
  8
図
  6
CONTINUOUS
 62
     2
100
AcDbLine
 10
79.36910756010161
 20
403.344719187
 30
0.0
 11
77.14618912770152
 21
367.5802222047
 31
0.0
  0
LINE
  5
303
330
1F
100
AcDbEntity
  8
図
  6
CONTINUOUS
 62
     2
100
AcDbLine
 10
79.03943745360152
 20
293.4703822635001
 30
0.0
 11
79.28433524700154
 21
291.9350614818003
 31
0.0
  0
LINE
  5
304
330
1F
100
AcDbEntity
  8
図
  6
CONTINUOUS
 62
     2
100
AcDbLine
 10
79.28433524700154
 20
291.9350614818003
 30
0.0
 11
79.9907711895014
 21
290.5410278886001
 31
0.0
  0
LINE
  5
305
330
1F
100
AcDbEntity
  8
図
  6
CONTINUOUS
 62
     2
100
AcDbLine
 10
79.9907711895014
 20
290.5410278886001
 30
0.0
 11
81.09281125980146
 21
289.4389878183001
 31
0.0
  0
LINE
  5
306
330
1F
100
AcDbEntity
  8
図
  6
CONTINUOUS
 62
     2
100
AcDbLine
 10
137.8808418909014
 20
289.4389878183001
 30
0.0
 11
138.9828819612014
 21
290.5410278886001
 31
0.0
  0
LINE
  5
307
330
1F
100
AcDbEntity
  8
図
  6
CONTINUOUS
 62
     2
100
AcDbLine
 10
138.9828819612014
 20
290.5410278886001
 30
0.0
 11
139.6893179037013
 21
291.9350614818003
 31
0.0
  0
LINE
  5
308
330
1F
100
AcDbEntity
  8
図
  6
CONTINUOUS
 62
     2
100
AcDbLine
 10
139.6893179037013
 20
291.9350614818003
 30
0.0
 11
139.9342156971013
 21
293.4703822635001
 31
0.0
  0
LINE
  5
309
330
1F
100
AcDbEntity
  8
図
  6
CONTINUOUS
 62
     2
100
AcDbLine
 10
139.9342156971013
 20
293.4703822635001
 30
0.0
 11
139.9342156971013
 21
302.8895281635
 31
0.0
  0
LINE
  5
30A
330
1F
100
AcDbEntity
  8
図
  6
CONTINUOUS
 62
     2
100
AcDbLine
 10
79.03943745360152
 20
293.4703822635001
 30
0.0
 11
79.03943745360152
 21
302.8895281635
 31
0.0
  0
ARC
  5
30B
330
1F
100
AcDbEntity
  8
図
  6
CONTINUOUS
 62
     2
100
AcDbCircle
 10
109.4868265753514
 20
330.1763041636722
 30
0.0
 40
83.99101366243588
100
AcDbArc
 50
73.07116557442478
 51
106.9288344255769
  0
LINE
  5
30C
330
1F
100
AcDbEntity
  8
図
  6
CONTINUOUS
 62
     2
100
AcDbLine
 10
101.5468265753999
 20
78.60000000000001
 30
0.0
 11
117.4268265753999
 21
78.60000000000001
 31
0.0
  0
ARC
  5
30D
330
1F
100
AcDbEntity
  8
図
  6
EXLTYPE3
 62
     2
100
AcDbCircle
 10
87.80640793533553
 20
402.5200695182979
 30
0.0
 40
8.475334479400392
100
AcDbArc
 50
109.1222691032685
 51
174.5698934808352
  0
ARC
  5
30E
330
1F
100
AcDbEntity
  8
図
  6
EXLTYPE3
 62
     2
100
AcDbCircle
 10
131.0611447457684
 20
402.4367147702878
 30
0.0
 40
8.589156503445516
100
AcDbArc
 50
5.916675648787928
 51
70.3911617671085
  0
ARC
  5
30F
330
1F
100
AcDbEntity
  8
図
  6
CONTINUOUS
 62
     2
100
AcDbCircle
 10
109.4844717889002
 20
514.2049231417193
 30
0.0
 40
9.39737278079997
100
AcDbArc
 50
290.0404178165536
 51
249.9659051814257
  0
ELLIPSE
  5
310
330
1F
100
AcDbEntity
  8
図
  6
CONTINUOUS
 62
     6
100
AcDbEllipse
 10
261.6006355248009
 20
227.2144094939003
 30
0.0
 11
-1.045082495068603E-15
 21
-5.689164123599994
 31
0.0
210
0.0
220
0.0
230
1.0
 40
0.4975165562826028
 41
0.0
 42
6.283185307179586
  0
CIRCLE
  5
311
330
1F
100
AcDbEntity
  8
図
  6
CONTINUOUS
 62
     6
100
AcDbCircle
 10
272.7952904270009
 20
227.1578946184999
 30
0.0
 40
5.670509266705114
  0
ELLIPSE
  5
312
330
1F
100
AcDbEntity
  8
図
  6
CONTINUOUS
 62
     6
100
AcDbEllipse
 10
283.9993644750011
 20
227.2144094939003
 30
0.0
 11
-1.045082495068603E-15
 21
-5.689164123599994
 31
0.0
210
0.0
220
0.0
230
1.0
 40
0.4975165562826028
 41
0.0
 42
6.283185307179586
  0
ELLIPSE
  5
313
330
1F
100
AcDbEntity
  8
図
  6
CONTINUOUS
 62
     6
100
AcDbEllipse
 10
115.9530702357008
 20
227.2144094939003
 30
0.0
 11
-1.043352226037036E-15
 21
-5.679744977700012
 31
0.0
210
0.0
220
0.0
230
1.0
 40
0.8855721393034085
 41
0.0
 42
6.283185307179586
  0
ELLIPSE
  5
314
330
1F
100
AcDbEntity
  8
図
  6
CONTINUOUS
 62
     6
100
AcDbEllipse
 10
103.0205829151002
 20
227.2144094939003
 30
0.0
 11
-1.043352226037036E-15
 21
-5.679744977700012
 31
0.0
210
0.0
220
0.0
230
1.0
 40
0.8855721393034085
 41
0.0
 42
6.283185307179586
  0
LINE
  5
315
330
1F
100
AcDbEntity
  8
図
  6
CONTINUOUS
 62
     6
100
AcDbLine
 10
312.6594473075015
 20
302.9177856012001
 30
0.0
 11
310.9357436078012
 21
301.9758710112
 31
0.0
  0
LINE
  5
316
330
1F
100
AcDbEntity
  8
図
  6
CONTINUOUS
 62
     6
100
AcDbLine
 10
314.5526956334015
 20
303.4075811880002
 30
0.0
 11
312.6594473075015
 21
302.9177856012001
 31
0.0
  0
LINE
  5
317
330
1F
100
AcDbEntity
  8
図
  6
CONTINUOUS
 62
     6
100
AcDbLine
 10
316.5118779806016
 20
303.4075811880002
 30
0.0
 11
314.5526956334015
 21
303.4075811880002
 31
0.0
  0
LINE
  5
318
330
1F
100
AcDbEntity
  8
図
  6
CONTINUOUS
 62
     6
100
AcDbLine
 10
318.4145454524013
 20
302.9177856012001
 30
0.0
 11
316.5118779806016
 21
303.4075811880002
 31
0.0
  0
LINE
  5
319
330
1F
100
AcDbEntity
  8
図
  6
CONTINUOUS
 62
     6
100
AcDbLine
 10
320.1288300062014
 20
301.9758710112
 30
0.0
 11
318.4145454524013
 21
302.9177856012001
 31
0.0
  0
LINE
  5
31A
330
1F
100
AcDbEntity
  8
図
  6
CONTINUOUS
 62
     6
100
AcDbLine
 10
310.9357436078012
 20
301.9758710112
 30
0.0
 11
310.3894331456012
 21
302.7576601209002
 31
0.0
  0
LINE
  5
31B
330
1F
100
AcDbEntity
  8
図
  6
CONTINUOUS
 62
     6
100
AcDbLine
 10
320.6845596143011
 20
302.7576601209002
 30
0.0
 11
320.1288300062014
 21
301.9758710112
 31
0.0
  0
LINE
  5
31C
330
1F
100
AcDbEntity
  8
図
  6
CONTINUOUS
 62
     6
100
AcDbLine
 10
318.4145454524013
 20
297.0496577055
 30
0.0
 11
320.1288300062014
 21
297.9915722955001
 31
0.0
  0
LINE
  5
31D
330
1F
100
AcDbEntity
  8
図
  6
CONTINUOUS
 62
     6
100
AcDbLine
 10
316.5118779806016
 20
296.5598621187
 30
0.0
 11
318.4145454524013
 21
297.0496577055
 31
0.0
  0
LINE
  5
31E
330
1F
100
AcDbEntity
  8
図
  6
CONTINUOUS
 62
     6
100
AcDbLine
 10
314.5526956334015
 20
296.5598621187
 30
0.0
 11
316.5118779806016
 21
296.5598621187
 31
0.0
  0
LINE
  5
31F
330
1F
100
AcDbEntity
  8
図
  6
CONTINUOUS
 62
     6
100
AcDbLine
 10
312.6594473075015
 20
297.0496577055
 30
0.0
 11
314.5526956334015
 21
296.5598621187
 31
0.0
  0
LINE
  5
320
330
1F
100
AcDbEntity
  8
図
  6
CONTINUOUS
 62
     6
100
AcDbLine
 10
310.9357436078012
 20
297.9915722955001
 30
0.0
 11
312.6594473075015
 21
297.0496577055
 31
0.0
  0
LINE
  5
321
330
1F
100
AcDbEntity
  8
図
  6
CONTINUOUS
 62
     6
100
AcDbLine
 10
310.3894331456012
 20
297.2097831857999
 30
0.0
 11
310.9357436078012
 21
297.9915722955001
 31
0.0
  0
LINE
  5
322
330
1F
100
AcDbEntity
  8
図
  6
CONTINUOUS
 62
     6
100
AcDbLine
 10
320.1288300062014
 20
297.9915722955001
 30
0.0
 11
320.6845596143011
 21
297.2097831857999
 31
0.0
  0
LINE
  5
323
330
1F
100
AcDbEntity
  8
図
  6
CONTINUOUS
 62
     6
100
AcDbLine
 10
310.9357436078012
 20
297.9915722955001
 30
0.0
 11
310.9357436078012
 21
301.9758710112
 31
0.0
  0
LINE
  5
324
330
1F
100
AcDbEntity
  8
図
  6
CONTINUOUS
 62
     6
100
AcDbLine
 10
320.1288300062014
 20
297.9915722955001
 30
0.0
 11
320.1288300062014
 21
301.9758710112
 31
0.0
  0
LINE
  5
325
330
1F
100
AcDbEntity
  8
図
  6
CONTINUOUS
 62
     6
100
AcDbLine
 10
320.6845596143011
 20
297.2097831857999
 30
0.0
 11
321.4851870158013
 21
296.6823110154
 31
0.0
  0
LINE
  5
326
330
1F
100
AcDbEntity
  8
図
  6
CONTINUOUS
 62
     6
100
AcDbLine
 10
321.4851870158013
 20
303.2851322913002
 30
0.0
 11
320.6845596143011
 21
302.7576601209002
 31
0.0
  0
LINE
  5
327
330
1F
100
AcDbEntity
  8
図
  6
CONTINUOUS
 62
     6
100
AcDbLine
 10
322.4271016058014
 20
303.4640960634001
 30
0.0
 11
321.4851870158013
 21
303.2851322913002
 31
0.0
  0
LINE
  5
328
330
1F
100
AcDbEntity
  8
図
  6
CONTINUOUS
 62
     6
100
AcDbLine
 10
321.4851870158013
 20
296.6823110154
 30
0.0
 11
322.4271016058014
 21
296.5033472433001
 31
0.0
  0
LINE
  5
329
330
1F
100
AcDbEntity
  8
図
  6
CONTINUOUS
 62
     6
100
AcDbLine
 10
309.5793865982013
 20
296.6823110154
 30
0.0
 11
310.3894331456012
 21
297.2097831857999
 31
0.0
  0
LINE
  5
32A
330
1F
100
AcDbEntity
  8
図
  6
CONTINUOUS
 62
     6
100
AcDbLine
 10
308.6374720082012
 20
296.5033472433001
 30
0.0
 11
309.5793865982013
 21
296.6823110154
 31
0.0
  0
LINE
  5
32B
330
1F
100
AcDbEntity
  8
図
  6
CONTINUOUS
 62
     6
100
AcDbLine
 10
309.5793865982013
 20
303.2851322913002
 30
0.0
 11
308.6374720082012
 21
303.4640960634001
 31
0.0
  0
LINE
  5
32C
330
1F
100
AcDbEntity
  8
図
  6
CONTINUOUS
 62
     6
100
AcDbLine
 10
310.3894331456012
 20
302.7576601209002
 30
0.0
 11
309.5793865982013
 21
303.2851322913002
 31
0.0
  0
ARC
  5
32D
330
1F
100
AcDbEntity
  8
図
  6
CONTINUOUS
 62
     6
100
AcDbCircle
 10
240.8138524757819
 20
384.7892563647965
 30
0.0
 40
6.981229787525332
100
AcDbArc
 50
267.914032633089
 51
84.9670644398665
  0
LINE
  5
32E
330
1F
100
AcDbEntity
  8
図
  6
CONTINUOUS
 62
     6
100
AcDbLine
 10
100.2607731663008
 20
547.0348946854199
 30
0.0
 11
100.2607731663008
 21
562.5348946854203
 31
0.0
  0
LINE
  5
32F
330
1F
100
AcDbEntity
  8
図
  6
CONTINUOUS
 62
     6
100
AcDbLine
 10
119.9091115137014
 20
561.33866315612
 30
0.0
 11
99.06454163700138
 21
561.33866315612
 31
0.0
  0
LINE
  5
330
330
1F
100
AcDbEntity
  8
図
  6
CONTINUOUS
 62
     6
100
AcDbLine
 10
118.712879984402
 20
547.0348946854194
 30
0.0
 11
118.712879984402
 21
562.5348946854199
 31
0.0
  0
CIRCLE
  5
331
330
1F
100
AcDbEntity
  8
図
  6
CONTINUOUS
 62
     3
100
AcDbCircle
 10
52.6
 20
196.6
 30
0.0
 40
7.0
  0
TEXT
  5
332
330
1F
100
AcDbEntity
  8
図
  6
CONTINUOUS
 62
     2
100
AcDbText
 10
48.35025243759156
 20
191.6502524375915
 30
0.0
 40
9.899495124816895
  1
2
 41
0.8029411764705886
  7
EXCADSTD
 72
     5
 11
54.78492426872254
 21
191.6502524375915
 31
0.0
100
AcDbText
  0
LEADER
  5
333
330
1F
100
AcDbEntity
  8
図
  6
CONTINUOUS
 62
     3
100
AcDbLeader
  3
ISO-25
 76
     2
 10
101.5468265754
 20
169.2
 30
0.0
 10
58.70808588406872
 20
193.1807476207743
 30
0.0
1001
ACAD
1000
DSTYLE
1002
{
1070
     5
1000
EX_NORM
1070
    41
1040
6.0
1070
   341
1005
4D
1002
}
  0
CIRCLE
  5
334
330
1F
100
AcDbEntity
  8
図
  6
CONTINUOUS
 62
     3
100
AcDbCircle
 10
52.6
 20
355.4
 30
0.0
 40
7.0
  0
TEXT
  5
335
330
1F
100
AcDbEntity
  8
図
  6
CONTINUOUS
 62
     2
100
AcDbText
 10
48.35025243759156
 20
350.4502524375915
 30
0.0
 40
9.899495124816895
  1
1
 41
1.240909090909091
  7
EXCADSTD
 72
     5
 11
54.78492426872254
 21
350.4502524375915
 31
0.0
100
AcDbText
  0
LEADER
  5
336
330
1F
100
AcDbEntity
  8
図
  6
CONTINUOUS
 62
     3
100
AcDbLeader
  3
ISO-25
 76
     2
 10
75.571916021064
 20
332.60028209354
 30
0.0
 10
57.56833382407251
 20
350.4689089429846
 30
0.0
1001
ACAD
1000
DSTYLE
1002
{
1070
     5
1000
EX_NORM
1070
    41
1040
6.0
1070
   341
1005
4D
1002
}
  0
POLYLINE
  5
337
330
1F
100
AcDbEntity
  8
図
  6
CONTINUOUS
 62
     6
100
AcDb2dPolyline
 66
     1
 10
0.0
 20
0.0
 30
0.0
 70
   128
  0
VERTEX
  5
338
330
337
100
AcDbEntity
  8
図
  6
CONTINUOUS
 62
     6
100
AcDbVertex
100
AcDb2dVertex
 10
101.5468265753999
 20
107.5626709933001
 30
0.0
  0
VERTEX
  5
339
330
337
100
AcDbEntity
  8
図
  6
CONTINUOUS
 62
     6
100
AcDbVertex
100
AcDb2dVertex
 10
101.6206185865628
 20
107.6018677464865
 30
0.0
  0
VERTEX
  5
33A
330
337
100
AcDbEntity
  8
図
  6
CONTINUOUS
 62
     6
100
AcDbVertex
100
AcDb2dVertex
 10
101.8294695511236
 20
107.709399139482
 30
0.0
  0
VERTEX
  5
33B
330
337
100
AcDbEntity
  8
図
  6
CONTINUOUS
 62
     6
100
AcDbVertex
100
AcDb2dVertex
 10
102.1545918656903
 20
107.8701768724408
 30
0.0
  0
VERTEX
  5
33C
330
337
100
AcDbEntity
  8
図
  6
CONTINUOUS
 62
     6
100
AcDbVertex
100
AcDb2dVertex
 10
102.577197926871
 20
108.0691126455172
 30
0.0
  0
VERTEX
  5
33D
330
337
100
AcDbEntity
  8
図
  6
CONTINUOUS
 62
     6
100
AcDbVertex
100
AcDb2dVertex
 10
103.0785001312736
 20
108.2911181588653
 30
0.0
  0
VERTEX
  5
33E
330
337
100
AcDbEntity
  8
図
  6
CONTINUOUS
 62
     6
100
AcDbVertex
100
AcDb2dVertex
 10
103.6397108755062
 20
108.5211051126396
 30
0.0
  0
VERTEX
  5
33F
330
337
100
AcDbEntity
  8
図
  6
CONTINUOUS
 62
     6
100
AcDbVertex
100
AcDb2dVertex
 10
104.2420425561768
 20
108.7439852069941
 30
0.0
  0
VERTEX
  5
340
330
337
100
AcDbEntity
  8
図
  6
CONTINUOUS
 62
     6
100
AcDbVertex
100
AcDb2dVertex
 10
104.8667075698934
 20
108.9446701420831
 30
0.0
  0
VERTEX
  5
341
330
337
100
AcDbEntity
  8
図
  6
CONTINUOUS
 62
     6
100
AcDbVertex
100
AcDb2dVertex
 10
105.4949183132642
 20
109.108071618061
 30
0.0
  0
VERTEX
  5
342
330
337
100
AcDbEntity
  8
図
  6
CONTINUOUS
 62
     6
100
AcDbVertex
100
AcDb2dVertex
 10
106.107887182897
 20
109.2191013350818
 30
0.0
  0
VERTEX
  5
343
330
337
100
AcDbEntity
  8
図
  6
CONTINUOUS
 62
     6
100
AcDbVertex
100
AcDb2dVertex
 10
106.6868265754
 20
109.2626709933
 30
0.0
  0
VERTEX
  5
344
330
337
100
AcDbEntity
  8
図
  6
CONTINUOUS
 62
     6
100
AcDbVertex
100
AcDb2dVertex
 10
107.3013955950174
 20
109.2152910207414
 30
0.0
  0
VERTEX
  5
345
330
337
100
AcDbEntity
  8
図
  6
CONTINUOUS
 62
     6
100
AcDbVertex
100
AcDb2dVertex
 10
107.8576872591945
 20
109.074655945621
 30
0.0
  0
VERTEX
  5
346
330
337
100
AcDbEntity
  8
図
  6
CONTINUOUS
 62
     6
100
AcDbVertex
100
AcDb2dVertex
 10
108.3693076002549
 20
108.8598579518118
 30
0.0
  0
VERTEX
  5
347
330
337
100
AcDbEntity
  8
図
  6
CONTINUOUS
 62
     6
100
AcDbVertex
100
AcDb2dVertex
 10
108.8498626505225
 20
108.5899892231869
 30
0.0
  0
VERTEX
  5
348
330
337
100
AcDbEntity
  8
図
  6
CONTINUOUS
 62
     6
100
AcDbVertex
100
AcDb2dVertex
 10
109.3129584423212
 20
108.2841419436191
 30
0.0
  0
VERTEX
  5
349
330
337
100
AcDbEntity
  8
図
  6
CONTINUOUS
 62
     6
100
AcDbVertex
100
AcDb2dVertex
 10
109.7722010079747
 20
107.9614082969815
 30
0.0
  0
VERTEX
  5
34A
330
337
100
AcDbEntity
  8
図
  6
CONTINUOUS
 62
     6
100
AcDbVertex
100
AcDb2dVertex
 10
110.241196379807
 20
107.640880467147
 30
0.0
  0
VERTEX
  5
34B
330
337
100
AcDbEntity
  8
図
  6
CONTINUOUS
 62
     6
100
AcDbVertex
100
AcDb2dVertex
 10
110.7335505901418
 20
107.3416506379887
 30
0.0
  0
VERTEX
  5
34C
330
337
100
AcDbEntity
  8
図
  6
CONTINUOUS
 62
     6
100
AcDbVertex
100
AcDb2dVertex
 10
111.2628696713031
 20
107.0828109933794
 30
0.0
  0
VERTEX
  5
34D
330
337
100
AcDbEntity
  8
図
  6
CONTINUOUS
 62
     6
100
AcDbVertex
100
AcDb2dVertex
 10
111.8427596556145
 20
106.8834537171922
 30
0.0
  0
VERTEX
  5
34E
330
337
100
AcDbEntity
  8
図
  6
CONTINUOUS
 62
     6
100
AcDbVertex
100
AcDb2dVertex
 10
112.4868265753999
 20
106.7626709933
 30
0.0
  0
VERTEX
  5
34F
330
337
100
AcDbEntity
  8
図
  6
CONTINUOUS
 62
     6
100
AcDbVertex
100
AcDb2dVertex
 10
113.0476221227468
 20
106.732105040074
 30
0.0
  0
VERTEX
  5
350
330
337
100
AcDbEntity
  8
図
  6
CONTINUOUS
 62
     6
100
AcDbVertex
100
AcDb2dVertex
 10
113.6394575108623
 20
106.7526913391566
 30
0.0
  0
VERTEX
  5
351
330
337
100
AcDbEntity
  8
図
  6
CONTINUOUS
 62
     6
100
AcDbVertex
100
AcDb2dVertex
 10
114.244539150273
 20
106.8142653548417
 30
0.0
  0
VERTEX
  5
352
330
337
100
AcDbEntity
  8
図
  6
CONTINUOUS
 62
     6
100
AcDbVertex
100
AcDb2dVertex
 10
114.8450734515057
 20
106.9066625514234
 30
0.0
  0
VERTEX
  5
353
330
337
100
AcDbEntity
  8
図
  6
CONTINUOUS
 62
     6
100
AcDbVertex
100
AcDb2dVertex
 10
115.4232668250872
 20
107.0197183931957
 30
0.0
  0
VERTEX
  5
354
330
337
100
AcDbEntity
  8
図
  6
CONTINUOUS
 62
     6
100
AcDbVertex
100
AcDb2dVertex
 10
115.9613256815443
 20
107.1432683444528
 30
0.0
  0
VERTEX
  5
355
330
337
100
AcDbEntity
  8
図
  6
CONTINUOUS
 62
     6
100
AcDbVertex
100
AcDb2dVertex
 10
116.4414564314037
 20
107.2671478694886
 30
0.0
  0
VERTEX
  5
356
330
337
100
AcDbEntity
  8
図
  6
CONTINUOUS
 62
     6
100
AcDbVertex
100
AcDb2dVertex
 10
116.8458654851922
 20
107.3811924325972
 30
0.0
  0
VERTEX
  5
357
330
337
100
AcDbEntity
  8
図
  6
CONTINUOUS
 62
     6
100
AcDbVertex
100
AcDb2dVertex
 10
117.1567592534366
 20
107.4752374980726
 30
0.0
  0
VERTEX
  5
358
330
337
100
AcDbEntity
  8
図
  6
CONTINUOUS
 62
     6
100
AcDbVertex
100
AcDb2dVertex
 10
117.3563441466636
 20
107.5391185302089
 30
0.0
  0
VERTEX
  5
359
330
337
100
AcDbEntity
  8
図
  6
CONTINUOUS
 62
     6
100
AcDbVertex
100
AcDb2dVertex
 10
117.4268265754
 20
107.5626709933001
 30
0.0
  0
SEQEND
  5
35A
330
337
100
AcDbEntity
  8
図
  6
CONTINUOUS
 62
     6
  0
POLYLINE
  5
35B
330
1F
100
AcDbEntity
  8
図
  6
CONTINUOUS
 62
     6
100
AcDb2dPolyline
 66
     1
 10
0.0
 20
0.0
 30
0.0
 70
   128
  0
VERTEX
  5
35C
330
35B
100
AcDbEntity
  8
図
  6
CONTINUOUS
 62
     6
100
AcDbVertex
100
AcDb2dVertex
 10
101.5468265753999
 20
106.5626709933001
 30
0.0
  0
VERTEX
  5
35D
330
35B
100
AcDbEntity
  8
図
  6
CONTINUOUS
 62
     6
100
AcDbVertex
100
AcDb2dVertex
 10
101.6206185865628
 20
106.6018677464865
 30
0.0
  0
VERTEX
  5
35E
330
35B
100
AcDbEntity
  8
図
  6
CONTINUOUS
 62
     6
100
AcDbVertex
100
AcDb2dVertex
 10
101.8294695511236
 20
106.709399139482
 30
0.0
  0
VERTEX
  5
35F
330
35B
100
AcDbEntity
  8
図
  6
CONTINUOUS
 62
     6
100
AcDbVertex
100
AcDb2dVertex
 10
102.1545918656903
 20
106.8701768724408
 30
0.0
  0
VERTEX
  5
360
330
35B
100
AcDbEntity
  8
図
  6
CONTINUOUS
 62
     6
100
AcDbVertex
100
AcDb2dVertex
 10
102.577197926871
 20
107.0691126455172
 30
0.0
  0
VERTEX
  5
361
330
35B
100
AcDbEntity
  8
図
  6
CONTINUOUS
 62
     6
100
AcDbVertex
100
AcDb2dVertex
 10
103.0785001312736
 20
107.2911181588653
 30
0.0
  0
VERTEX
  5
362
330
35B
100
AcDbEntity
  8
図
  6
CONTINUOUS
 62
     6
100
AcDbVertex
100
AcDb2dVertex
 10
103.6397108755062
 20
107.5211051126396
 30
0.0
  0
VERTEX
  5
363
330
35B
100
AcDbEntity
  8
図
  6
CONTINUOUS
 62
     6
100
AcDbVertex
100
AcDb2dVertex
 10
104.2420425561768
 20
107.7439852069941
 30
0.0
  0
VERTEX
  5
364
330
35B
100
AcDbEntity
  8
図
  6
CONTINUOUS
 62
     6
100
AcDbVertex
100
AcDb2dVertex
 10
104.8667075698934
 20
107.9446701420831
 30
0.0
  0
VERTEX
  5
365
330
35B
100
AcDbEntity
  8
図
  6
CONTINUOUS
 62
     6
100
AcDbVertex
100
AcDb2dVertex
 10
105.4949183132642
 20
108.108071618061
 30
0.0
  0
VERTEX
  5
366
330
35B
100
AcDbEntity
  8
図
  6
CONTINUOUS
 62
     6
100
AcDbVertex
100
AcDb2dVertex
 10
106.107887182897
 20
108.2191013350818
 30
0.0
  0
VERTEX
  5
367
330
35B
100
AcDbEntity
  8
図
  6
CONTINUOUS
 62
     6
100
AcDbVertex
100
AcDb2dVertex
 10
106.6868265754
 20
108.2626709933
 30
0.0
  0
VERTEX
  5
368
330
35B
100
AcDbEntity
  8
図
  6
CONTINUOUS
 62
     6
100
AcDbVertex
100
AcDb2dVertex
 10
107.3013955950174
 20
108.2152910207414
 30
0.0
  0
VERTEX
  5
369
330
35B
100
AcDbEntity
  8
図
  6
CONTINUOUS
 62
     6
100
AcDbVertex
100
AcDb2dVertex
 10
107.8576872591945
 20
108.074655945621
 30
0.0
  0
VERTEX
  5
36A
330
35B
100
AcDbEntity
  8
図
  6
CONTINUOUS
 62
     6
100
AcDbVertex
100
AcDb2dVertex
 10
108.3693076002549
 20
107.8598579518118
 30
0.0
  0
VERTEX
  5
36B
330
35B
100
AcDbEntity
  8
図
  6
CONTINUOUS
 62
     6
100
AcDbVertex
100
AcDb2dVertex
 10
108.8498626505225
 20
107.5899892231869
 30
0.0
  0
VERTEX
  5
36C
330
35B
100
AcDbEntity
  8
図
  6
CONTINUOUS
 62
     6
100
AcDbVertex
100
AcDb2dVertex
 10
109.3129584423212
 20
107.2841419436191
 30
0.0
  0
VERTEX
  5
36D
330
35B
100
AcDbEntity
  8
図
  6
CONTINUOUS
 62
     6
100
AcDbVertex
100
AcDb2dVertex
 10
109.7722010079747
 20
106.9614082969815
 30
0.0
  0
VERTEX
  5
36E
330
35B
100
AcDbEntity
  8
図
  6
CONTINUOUS
 62
     6
100
AcDbVertex
100
AcDb2dVertex
 10
110.241196379807
 20
106.640880467147
 30
0.0
  0
VERTEX
  5
36F
330
35B
100
AcDbEntity
  8
図
  6
CONTINUOUS
 62
     6
100
AcDbVertex
100
AcDb2dVertex
 10
110.7335505901418
 20
106.3416506379887
 30
0.0
  0
VERTEX
  5
370
330
35B
100
AcDbEntity
  8
図
  6
CONTINUOUS
 62
     6
100
AcDbVertex
100
AcDb2dVertex
 10
111.2628696713031
 20
106.0828109933794
 30
0.0
  0
VERTEX
  5
371
330
35B
100
AcDbEntity
  8
図
  6
CONTINUOUS
 62
     6
100
AcDbVertex
100
AcDb2dVertex
 10
111.8427596556145
 20
105.8834537171922
 30
0.0
  0
VERTEX
  5
372
330
35B
100
AcDbEntity
  8
図
  6
CONTINUOUS
 62
     6
100
AcDbVertex
100
AcDb2dVertex
 10
112.4868265753999
 20
105.7626709933
 30
0.0
  0
VERTEX
  5
373
330
35B
100
AcDbEntity
  8
図
  6
CONTINUOUS
 62
     6
100
AcDbVertex
100
AcDb2dVertex
 10
113.0476221227468
 20
105.732105040074
 30
0.0
  0
VERTEX
  5
374
330
35B
100
AcDbEntity
  8
図
  6
CONTINUOUS
 62
     6
100
AcDbVertex
100
AcDb2dVertex
 10
113.6394575108623
 20
105.7526913391566
 30
0.0
  0
VERTEX
  5
375
330
35B
100
AcDbEntity
  8
図
  6
CONTINUOUS
 62
     6
100
AcDbVertex
100
AcDb2dVertex
 10
114.244539150273
 20
105.8142653548417
 30
0.0
  0
VERTEX
  5
376
330
35B
100
AcDbEntity
  8
図
  6
CONTINUOUS
 62
     6
100
AcDbVertex
100
AcDb2dVertex
 10
114.8450734515057
 20
105.9066625514234
 30
0.0
  0
VERTEX
  5
377
330
35B
100
AcDbEntity
  8
図
  6
CONTINUOUS
 62
     6
100
AcDbVertex
100
AcDb2dVertex
 10
115.4232668250872
 20
106.0197183931957
 30
0.0
  0
VERTEX
  5
378
330
35B
100
AcDbEntity
  8
図
  6
CONTINUOUS
 62
     6
100
AcDbVertex
100
AcDb2dVertex
 10
115.9613256815443
 20
106.1432683444528
 30
0.0
  0
VERTEX
  5
379
330
35B
100
AcDbEntity
  8
図
  6
CONTINUOUS
 62
     6
100
AcDbVertex
100
AcDb2dVertex
 10
116.4414564314037
 20
106.2671478694886
 30
0.0
  0
VERTEX
  5
37A
330
35B
100
AcDbEntity
  8
図
  6
CONTINUOUS
 62
     6
100
AcDbVertex
100
AcDb2dVertex
 10
116.8458654851922
 20
106.3811924325972
 30
0.0
  0
VERTEX
  5
37B
330
35B
100
AcDbEntity
  8
図
  6
CONTINUOUS
 62
     6
100
AcDbVertex
100
AcDb2dVertex
 10
117.1567592534366
 20
106.4752374980726
 30
0.0
  0
VERTEX
  5
37C
330
35B
100
AcDbEntity
  8
図
  6
CONTINUOUS
 62
     6
100
AcDbVertex
100
AcDb2dVertex
 10
117.3563441466636
 20
106.5391185302089
 30
0.0
  0
VERTEX
  5
37D
330
35B
100
AcDbEntity
  8
図
  6
CONTINUOUS
 62
     6
100
AcDbVertex
100
AcDb2dVertex
 10
117.4268265754
 20
106.5626709933001
 30
0.0
  0
SEQEND
  5
37E
330
35B
100
AcDbEntity
  8
図
  6
CONTINUOUS
 62
     6
  0
LINE
  5
37F
330
1F
100
AcDbEntity
  8
図
  6
CONTINUOUS
 62
     2
100
AcDbLine
 10
117.4268265753999
 20
221.459311349
 30
0.0
 11
117.4268265753999
 21
107.5626709933
 31
0.0
  0
LINE
  5
380
330
1F
100
AcDbEntity
  8
図
  6
CONTINUOUS
 62
     2
100
AcDbLine
 10
117.4268265753999
 20
106.5626709933
 30
0.0
 11
117.4268265753999
 21
78.6
 31
0.0
  0
LINE
  5
381
330
1F
100
AcDbEntity
  8
図
  6
CONTINUOUS
 62
     2
100
AcDbLine
 10
101.5468265753999
 20
221.2426709933001
 30
0.0
 11
101.5468265753999
 21
107.5626709933001
 31
0.0
  0
LINE
  5
382
330
1F
100
AcDbEntity
  8
図
  6
CONTINUOUS
 62
     2
100
AcDbLine
 10
101.5468265753999
 20
106.5626709933001
 30
0.0
 11
101.5468265753999
 21
78.60000000000001
 31
0.0
  0
DIMENSION
  5
383
330
1F
100
AcDbEntity
  8
図
  6
CONTINUOUS
 62
     3
100
AcDbDimension
  2
*D17
 10
260.74
 20
119.6
 30
0.0
 11
228.86
 21
124.2999999880791
 31
0.0
 70
   160
  1
%%c16
  3
ISO-25
100
AcDbAlignedDimension
 13
244.86
 23
119.6
 33
0.0
 14
260.74
 24
119.6
 34
0.0
100
AcDbRotatedDimension
1001
ACAD
1000
DSTYLE
1002
{
1070
   270
1070
     2
1070
     6
1000
EX_NORM
1070
     7
1000
EX_NORM
1070
    41
1040
6.0
1070
    42
1040
0.0
1070
    44
1040
0.0
1070
    73
1070
     0
1070
    74
1070
     0
1070
    75
1070
     1
1070
    76
1070
     1
1070
    77
1070
     1
1070
    78
1070
     0
1070
   140
1040
8.0
1070
   147
1040
0.0
1070
   173
1070
     1
1070
   176
1070
     3
1070
   177
1070
     3
1070
   178
1070
     2
1070
   271
1070
     0
1070
   277
1070
     2
1070
   279
1070
     2
1070
   280
1070
     1
1070
   287
1070
     5
1070
   340
1005
1E3
1002
}
  0
DIMENSION
  5
38E
330
1F
100
AcDbEntity
  8
寸法
  6
CONTINUOUS
 62
     3
100
AcDbDimension
  2
*D18
 10
347.8
 20
441.8
 30
0.0
 11
310.3
 21
446.4999999880791
 31
0.0
 70
   160
  3
ISO-25
100
AcDbAlignedDimension
 13
272.8
 23
414.16731782611
 33
0.0
 14
347.8
 24
298.2458892348
 34
0.0
100
AcDbRotatedDimension
1001
ACAD
1000
DSTYLE
1002
{
1070
   270
1070
     2
1070
     6
1000
EX_NORM
1070
     7
1000
EX_NORM
1070
    41
1040
6.0
1070
    42
1040
1.399999976158142
1070
    44
1040
2.0
1070
    73
1070
     0
1070
    74
1070
     0
1070
    75
1070
     1
1070
    76
1070
     0
1070
    77
1070
     1
1070
    78
1070
     0
1070
   140
1040
8.0
1070
   147
1040
0.0
1070
   173
1070
     1
1070
   176
1070
     3
1070
   177
1070
     3
1070
   178
1070
     2
1070
   271
1070
     0
1070
   277
1070
     2
1070
   279
1070
     2
1070
   280
1070
     0
1070
   287
1070
     5
1070
   340
1005
1E3
1002
}
  0
DIMENSION
  5
39A
330
1F
100
AcDbEntity
  8
寸法
  6
CONTINUOUS
 62
     3
100
AcDbDimension
  2
*D19
 10
363.3
 20
453.8
 30
0.0
 11
318.05
 21
458.4999999880791
 31
0.0
 70
   160
  3
ISO-25
100
AcDbAlignedDimension
 13
272.8
 23
414.16731782611
 33
0.0
 14
363.3
 24
274.6132521717
 34
0.0
100
AcDbRotatedDimension
1001
ACAD
1000
DSTYLE
1002
{
1070
   270
1070
     2
1070
     6
1000
EX_NORM
1070
     7
1000
EX_NORM
1070
    41
1040
6.0
1070
    42
1040
1.399999976158142
1070
    44
1040
2.0
1070
    73
1070
     0
1070
    74
1070
     0
1070
    75
1070
     1
1070
    76
1070
     0
1070
    77
1070
     1
1070
    78
1070
     8
1070
   140
1040
8.0
1070
   147
1040
0.0
1070
   173
1070
     1
1070
   176
1070
     3
1070
   177
1070
     3
1070
   178
1070
     2
1070
   271
1070
     1
1070
   277
1070
     2
1070
   279
1070
     2
1070
   280
1070
     0
1070
   287
1070
     5
1070
   340
1005
1E3
1002
}
  0
DIMENSION
  5
3A6
330
1F
100
AcDbEntity
  8
寸法
  6
CONTINUOUS
 62
     3
100
AcDbDimension
  2
*D20
 10
363.3
 20
465.8
 30
0.0
 11
300.7995739904001
 21
470.4999999880791
 31
0.0
 70
   160
  3
ISO-25
100
AcDbAlignedDimension
 13
238.2991479808
 23
328.0230475426
 33
0.0
 14
363.3
 24
283.8440151537
 34
0.0
100
AcDbRotatedDimension
1001
ACAD
1000
DSTYLE
1002
{
1070
   270
1070
     2
1070
     6
1000
EX_NORM
1070
     7
1000
EX_NORM
1070
    41
1040
6.0
1070
    42
1040
1.399999976158142
1070
    44
1040
2.0
1070
    73
1070
     0
1070
    74
1070
     0
1070
    75
1070
     0
1070
    76
1070
     0
1070
    77
1070
     1
1070
    78
1070
     0
1070
   140
1040
8.0
1070
   147
1040
0.0
1070
   173
1070
     1
1070
   176
1070
     3
1070
   177
1070
     3
1070
   178
1070
     2
1070
   271
1070
     0
1070
   277
1070
     2
1070
   279
1070
     2
1070
   280
1070
     0
1070
   287
1070
     5
1070
   340
1005
1E3
1002
}
  0
DIMENSION
  5
3B3
330
1F
100
AcDbEntity
  8
寸法
  6
CONTINUOUS
 62
     3
100
AcDbDimension
  2
*D21
 10
218.6
 20
288.4814730544
 30
0.0
 11
213.900000011921
 21
351.324395440255
 31
0.0
 70
   160
  3
ISO-25
100
AcDbAlignedDimension
 13
272.8
 23
414.16731782611
 33
0.0
 14
272.8
 24
288.4814730544
 34
0.0
 50
90.0
100
AcDbRotatedDimension
1001
ACAD
1000
DSTYLE
1002
{
1070
   270
1070
     2
1070
     6
1000
EX_NORM
1070
     7
1000
EX_NORM
1070
    41
1040
6.0
1070
    42
1040
1.399999976158142
1070
    44
1040
2.0
1070
    73
1070
     0
1070
    74
1070
     0
1070
    75
1070
     0
1070
    76
1070
     0
1070
    77
1070
     1
1070
    78
1070
     0
1070
   140
1040
8.0
1070
   147
1040
0.0
1070
   173
1070
     1
1070
   176
1070
     3
1070
   177
1070
     3
1070
   178
1070
     2
1070
   271
1070
     0
1070
   277
1070
     2
1070
   279
1070
     2
1070
   280
1070
     0
1070
   287
1070
     5
1070
   340
1005
1E3
1002
}
  0
DIMENSION
  5
3C0
330
1F
100
AcDbEntity
  8
寸法
  6
CONTINUOUS
 62
     3
100
AcDbDimension
  2
*D22
 10
206.6
 20
221.2426709933
 30
0.0
 11
201.900000011921
 21
317.704994409705
 31
0.0
 70
   160
  3
ISO-25
100
AcDbAlignedDimension
 13
272.8
 23
414.16731782611
 33
0.0
 14
272.8
 24
221.2426709933
 34
0.0
 50
90.0
100
AcDbRotatedDimension
1001
ACAD
1000
DSTYLE
1002
{
1070
   270
1070
     2
1070
     6
1000
EX_NORM
1070
     7
1000
EX_NORM
1070
    41
1040
6.0
1070
    42
1040
1.399999976158142
1070
    44
1040
2.0
1070
    73
1070
     0
1070
    74
1070
     0
1070
    75
1070
     0
1070
    76
1070
     0
1070
    77
1070
     1
1070
    78
1070
     0
1070
   140
1040
8.0
1070
   147
1040
0.0
1070
   173
1070
     1
1070
   176
1070
     3
1070
   177
1070
     3
1070
   178
1070
     2
1070
   271
1070
     0
1070
   277
1070
     2
1070
   279
1070
     2
1070
   280
1070
     0
1070
   287
1070
     5
1070
   340
1005
1E3
1002
}
  0
DIMENSION
  5
3CD
330
1F
100
AcDbEntity
  8
寸法
  6
CONTINUOUS
 62
     3
100
AcDbDimension
  2
*D23
 10
306.2206090657
 20
428.8
 30
0.0
 11
272.25987852325
 21
433.4999999880791
 31
0.0
 70
   160
  1
%%c68
  3
ISO-25
100
AcDbAlignedDimension
 13
238.2991479808
 23
328.0230475426
 33
0.0
 14
306.2206090657
 24
328.0230475426
 34
0.0
100
AcDbRotatedDimension
1001
ACAD
1000
DSTYLE
1002
{
1070
   270
1070
     2
1070
     6
1000
EX_NORM
1070
     7
1000
EX_NORM
1070
    41
1040
6.0
1070
    42
1040
1.399999976158142
1070
    44
1040
2.0
1070
    73
1070
     0
1070
    74
1070
     0
1070
    75
1070
     0
1070
    76
1070
     0
1070
    77
1070
     1
1070
    78
1070
     0
1070
   140
1040
8.0
1070
   147
1040
0.0
1070
   173
1070
     1
1070
   176
1070
     3
1070
   177
1070
     3
1070
   178
1070
     2
1070
   271
1070
     0
1070
   277
1070
     2
1070
   279
1070
     2
1070
   280
1070
     0
1070
   287
1070
     5
1070
   340
1005
1E3
1002
}
  0
LINE
  5
3DA
330
1F
100
AcDbEntity
  8
寸法
  6
CONTINUOUS
 62
     3
100
AcDbLine
 10
272.8
 20
415.5673178022681
 30
0.0
 11
272.8
 21
427.6
 31
0.0
  0
LINE
  5
3DB
330
1F
100
AcDbEntity
  8
寸法
  6
CONTINUOUS
 62
     3
100
AcDbLine
 10
272.8
 20
438.4
 30
0.0
 11
272.8
 21
455.8
 31
0.0
  0
TEXT
  5
3DC
330
1F
100
AcDbEntity
  8
寸法
  6
CONTINUOUS
 62
     2
100
AcDbText
 10
365.2684430000407
 20
241.1709631000991
 30
0.0
 40
8.0
  1
ＰＪ
 41
1.020759090909092
  7
EXCADSTD
 72
     5
 11
378.1008430000408
 21
241.1709631000991
 31
0.0
100
AcDbText
  0
TEXT
  5
3DD
330
1F
100
AcDbEntity
  8
寸法
  6
CONTINUOUS
 62
     2
100
AcDbText
 10
382.2320002000399
 20
239.6517749001007
 30
0.0
 40
5.0
  1
２
 41
1.321600021362308
  7
EXCADSTD
 72
     5
 11
386.9520002763338
 21
239.6517749001007
 31
0.0
100
AcDbText
  0
TEXT
  5
3DE
330
1F
100
AcDbEntity
  8
寸法
  6
CONTINUOUS
 62
     3
100
AcDbText
 10
378.4344904000396
 20
240.7509631000991
 30
0.0
 40
8.0
  1
／
 41
1.321599941253666
  7
EXCADSTD
 72
     5
 11
385.9864900643463
 21
240.7509631000991
 31
0.0
100
AcDbText
  0
TEXT
  5
3DF
330
1F
100
AcDbEntity
  8
寸法
  6
CONTINUOUS
 62
     2
100
AcDbText
 10
378.2227640953398
 20
245.0058277175998
 30
0.0
 40
5.0
  1
１
 41
1.321600021362308
  7
EXCADSTD
 72
     5
 11
382.9427641716337
 21
245.0058277175998
 31
0.0
100
AcDbText
  0
LEADER
  5
3E0
330
1F
100
AcDbEntity
  8
寸法
  6
CONTINUOUS
 62
     3
100
AcDbLeader
  3
ISO-25
 76
     3
 10
354.62
 20
264.1862576604
 30
0.0
 10
365.40000000004
 20
238.8
 30
0.0
 10
391.2
 20
238.8
 30
0.0
1001
ACAD
1000
DSTYLE
1002
{
1070
     5
1000
EX_NORM
1070
    41
1040
6.0
1070
   341
1005
4D
1002
}
  0
ENDSEC
  0
SECTION
  2
OBJECTS
  0
DICTIONARY
  5
C
330
0
100
AcDbDictionary
  3
ACAD_GROUP
350
D
  3
ACAD_LAYOUT
350
1A
  3
ACAD_MATERIAL
350
3B
  3
ACAD_MLEADERSTYLE
350
403
  3
ACAD_MLINESTYLE
350
17
  3
ACAD_PLOTSETTINGS
350
19
  3
ACAD_VISUALSTYLE
350
2A
  3
ACDBHEADERROUNDTRIPXREC
350
3E1
  3
ACDBVARIABLEDICTIONARY
350
401
  0
DICTIONARY
  5
D
102
{ACAD_REACTORS
330
C
102
}
330
C
100
AcDbDictionary
  0
DICTIONARY
  5
1A
102
{ACAD_REACTORS
330
C
102
}
330
C
100
AcDbDictionary
  0
DICTIONARY
  5
3B
102
{ACAD_REACTORS
330
C
102
}
330
C
100
AcDbDictionary
  3
BYBLOCK
350
3D
  3
BYLAYER
350
3C
  3
GLOBAL
350
3E
  0
DICTIONARY
  5
403
102
{ACAD_REACTORS
330
C
102
}
330
C
100
AcDbDictionary
  0
DICTIONARY
  5
17
102
{ACAD_REACTORS
330
C
102
}
330
C
100
AcDbDictionary
  3
STANDARD
350
18
  0
DICTIONARY
  5
19
102
{ACAD_REACTORS
330
C
102
}
330
C
100
AcDbDictionary
  0
DICTIONARY
  5
2A
102
{ACAD_REACTORS
330
C
102
}
330
C
100
AcDbDictionary
  3
2DWIREFRAME
350
2F
  3
3D_HIDDEN
350
31
  3
3DWIREFRAME
350
30
  3
BASIC
350
32
  3
BRIGHTEN
350
36
  3
COLORCHANGE
350
3A
  3
CONCEPTUAL
350
34
  3
DIM
350
35
  3
FACEPATTERN
350
39
  3
FLAT
350
2B
  3
FLATWITHEDGES
350
2C
  3
GOURAUD
350
2D
  3
GOURAUDWITHEDGES
350
2E
  3
LINEPATTERN
350
38
  3
REALISTIC
350
33
  3
THICKEN
350
37
  0
DICTIONARY
  5
3E1
102
{ACAD_REACTORS
330
C
102
}
330
C
100
AcDbDictionary
  3
CEPSNTYPE
350
3EA
  3
DIMSTYLEDATA
350
400
  3
FINGERPRINTGUID
350
3EB
  3
HYPERLINKBASE
350
3E4
  3
INSUNITS
350
3E9
  3
LAYOUTDICT
350
3E6
  3
LWETCUNION
350
3E8
  3
PLOTSETDICT
350
3E7
  3
PSVPSCALE
350
3ED
  3
PUCSBASE
350
3F0
  3
PUCSORGBACK
350
3F6
  3
PUCSORGBOTTOM
350
3F2
  3
PUCSORGFRONT
350
3F5
  3
PUCSORGLEFT
350
3F3
  3
PUCSORGRIGHT
350
3F4
  3
PUCSORGTOP
350
3F1
  3
PUCSORTHOREF
350
3EE
  3
PUCSORTHOVIEW
350
3EF
  3
STYLESHEET
350
3E5
  3
TSTACKALIGN
350
3E2
  3
TSTACKSIZE
350
3E3
  3
UCSBASE
350
3F9
  3
UCSORGBACK
350
3FF
  3
UCSORGBOTTOM
350
3FB
  3
UCSORGFRONT
350
3FE
  3
UCSORGLEFT
350
3FC
  3
UCSORGRIGHT
350
3FD
  3
UCSORGTOP
350
3FA
  3
UCSORTHOREF
350
3F7
  3
UCSORTHOVIEW
350
3F8
  3
VERSIONGUID
350
3EC
  0
DICTIONARY
  5
401
102
{ACAD_REACTORS
330
C
102
}
330
C
100
AcDbDictionary
  3
DIMASSOC
350
406
  3
HIDETEXT
350
407
  3
PSOLHEIGHT
350
405
  3
PSOLWIDTH
350
404
  0
MATERIAL
  5
3D
102
{ACAD_REACTORS
330
3B
102
}
102
{ACAD_XDICTIONARY
360
40A
102
}
330
3B
100
AcDbMaterial
  1
ByBlock
  0
MATERIAL
  5
3C
102
{ACAD_REACTORS
330
3B
102
}
102
{ACAD_XDICTIONARY
360
408
102
}
330
3B
100
AcDbMaterial
  1
ByLayer
  0
MATERIAL
  5
3E
102
{ACAD_REACTORS
330
3B
102
}
102
{ACAD_XDICTIONARY
360
40C
102
}
330
3B
100
AcDbMaterial
  1
Global
  0
MLINESTYLE
  5
18
102
{ACAD_REACTORS
330
17
102
}
330
17
100
AcDbMlineStyle
  2
Standard
 70
     0
  3

 62
   256
 51
90.0
 52
90.0
 71
     2
 49
0.5
 62
   256
  6
BYLAYER
 49
-0.5
 62
   256
  6
BYLAYER
  0
ACAD_PROXY_OBJECT
  5
2F
102
{ACAD_REACTORS
330
2A
102
}
330
2A
100
AcDbProxyObject
 90
      499
 91
      501
 93
      436
310
42CC9915DA5C99599C985B595049028333333333333E3BF0000000000000FB0107901411070040501600405405064090741402480A0340
1001
ACAD
1000
AcDbSavedByObjectVersion
1070
     0
  0
ACAD_PROXY_OBJECT
  5
31
102
{ACAD_REACTORS
330
2A
102
}
330
2A
100
AcDbProxyObject
 90
      499
 91
      501
 93
      500
310
424CD108121A5919195B90640502408333333333333E3BF0000000000000FB01079024090700405020000000000001110200405405064090740C02480A0340
1001
ACAD
1000
AcDbSavedByObjectVersion
1070
     0
  0
ACAD_PROXY_OBJECT
  5
30
102
{ACAD_REACTORS
330
2A
102
}
330
2A
100
AcDbProxyObject
 90
      499
 91
      501
 93
      436
310
42CCD915DA5C99599C985B595059028333333333333E3BF0000000000000FB0107901411070040501600405405064090741402480A0340
1001
ACAD
1000
AcDbSavedByObjectVersion
1070
     0
  0
ACAD_PROXY_OBJECT
  5
32
102
{ACAD_REACTORS
330
2A
102
}
330
2A
100
AcDbProxyObject
 90
      499
 91
      501
 93
      388
310
4150985CDA58D07406404333333333333E3BF0000000000000FB0107A41107004050150841D405064090741402480A0350
1001
ACAD
1000
AcDbSavedByObjectVersion
1070
     0
  0
ACAD_PROXY_OBJECT
  5
36
102
{ACAD_REACTORS
330
2A
102
}
330
2A
100
AcDbProxyObject
 90
      499
 91
      501
 93
      428
310
42109C9A59DA1D195B90C409028333333333333E3BF0000000000000FB010790141107004050150841D405064090741402480A029950
1001
ACAD
1000
AcDbSavedByObjectVersion
1070
     0
  0
ACAD_PROXY_OBJECT
  5
3A
102
{ACAD_REACTORS
330
2A
102
}
330
2A
100
AcDbProxyObject
 90
      499
 91
      501
 93
      452
310
42D0DBDB1BDC90DA185B99D95104090240C333333333333E3BF0000000000000FB0108901411070040501508421405064090741402480A0350
1001
ACAD
1000
AcDbSavedByObjectVersion
1070
     0
  0
ACAD_PROXY_OBJECT
  5
34
102
{ACAD_REACTORS
330
2A
102
}
330
2A
100
AcDbProxyObject
 90
      499
 91
      501
 93
      500
310
4290DBDB98D95C1D1D585B10940D028333333333333E3BF0000000000000FB0107902409070040501000000000000111010841D405064090740C02480A0340
1001
ACAD
1000
AcDbSavedByObjectVersion
1070
     0
  0
ACAD_PROXY_OBJECT
  5
35
102
{ACAD_REACTORS
330
2A
102
}
330
2A
100
AcDbProxyObject
 90
      499
 91
      501
 93
      412
310
40D11A5B50B409028333333333333E3BF0000000000000FB010790141107004050150841D405064090741402480A02677FFFFFD0
1001
ACAD
1000
AcDbSavedByObjectVersion
1070
     0
  0
ACAD_PROXY_OBJECT
  5
39
102
{ACAD_REACTORS
330
2A
102
}
330
2A
100
AcDbProxyObject
 90
      499
 91
      501
 93
      444
310
42D19858D95C185D1D195C9B90F409028333333333333E3BF0000000000000FB010790141107004050150841D405064090741402480A0350
1001
ACAD
1000
AcDbSavedByObjectVersion
1070
     0
  0
ACAD_PROXY_OBJECT
  5
2B
102
{ACAD_REACTORS
330
2A
102
}
330
2A
100
AcDbProxyObject
 90
      499
 91
      501
 93
      388
310
41119B185D240901404333333333333E3BF0000000000000F9010740A41107004050150841D405064090741402480A1B50
1001
ACAD
1000
AcDbSavedByObjectVersion
1070
     0
  0
ACAD_PROXY_OBJECT
  5
2C
102
{ACAD_REACTORS
330
2A
102
}
330
2A
100
AcDbProxyObject
 90
      499
 91
      501
 93
      476
310
43519B185D15DA5D1A115919D95CD0140901404333333333333E3BF0000000000000F9010740901411070040501600405405064090741402480A1B50
1001
ACAD
1000
AcDbSavedByObjectVersion
1070
     0
  0
ACAD_PROXY_OBJECT
  5
2D
102
{ACAD_REACTORS
330
2A
102
}
330
2A
100
AcDbProxyObject
 90
      499
 91
      501
 93
      412
310
41D1DBDD5C985D5910240902404333333333333E3BF0000000000000F9010740A411070040501641D405064090741402480A1B50
1001
ACAD
1000
AcDbSavedByObjectVersion
1070
     0
  0
ACAD_PROXY_OBJECT
  5
2E
102
{ACAD_REACTORS
330
2A
102
}
330
2A
100
AcDbProxyObject
 90
      499
 91
      501
 93
      500
310
4411DBDD5C985D5915DA5D1A115919D95CD0340902404333333333333E3BF0000000000000F9010740901411070040501600405405064090741402480A1B50
1001
ACAD
1000
AcDbSavedByObjectVersion
1070
     0
  0
ACAD_PROXY_OBJECT
  5
38
102
{ACAD_REACTORS
330
2A
102
}
330
2A
100
AcDbProxyObject
 90
      499
 91
      501
 93
      444
310
42D31A5B995C185D1D195C9B90E409028333333333333E3BF0000000000000FB010790141107004050750841D405064090741402483A0350
1001
ACAD
1000
AcDbSavedByObjectVersion
1070
     0
  0
ACAD_PROXY_OBJECT
  5
33
102
{ACAD_REACTORS
330
2A
102
}
330
2A
100
AcDbProxyObject
 90
      499
 91
      501
 93
      420
310
425499585B1A5CDD1A58D08409028333333333333E3BF0000000000000FB01079019070040501508421405064090741402480A1B40
1001
ACAD
1000
AcDbSavedByObjectVersion
1070
     0
  0
ACAD_PROXY_OBJECT
  5
37
102
{ACAD_REACTORS
330
2A
102
}
330
2A
100
AcDbProxyObject
 90
      499
 91
      501
 93
      412
310
41D51A1A58DAD95B90D409028333333333333E3BF0000000000000FB010790141107004050150C41D405064090741402480A0350
1001
ACAD
1000
AcDbSavedByObjectVersion
1070
     0
  0
XRECORD
  5
3EA
102
{ACAD_REACTORS
330
3E1
102
}
330
3E1
100
AcDbXrecord
 90
        0
  0
XRECORD
  5
400
102
{ACAD_REACTORS
330
3E1
102
}
330
3E1
100
AcDbXrecord
1000
DSTYLE
1002
{
1070
   340
340
11
1002
}
  0
XRECORD
  5
3EB
102
{ACAD_REACTORS
330
3E1
102
}
330
3E1
100
AcDbXrecord
  1
{00BB86BD-FCA6-485F-9679-3EB8B4C689A7}
  0
XRECORD
  5
3E4
102
{ACAD_REACTORS
330
3E1
102
}
330
3E1
100
AcDbXrecord
  1

  0
XRECORD
  5
3E9
102
{ACAD_REACTORS
330
3E1
102
}
330
3E1
100
AcDbXrecord
 90
        4
  0
XRECORD
  5
3E6
102
{ACAD_REACTORS
330
3E1
102
}
330
3E1
100
AcDbXrecord
340
1A
  0
XRECORD
  5
3E8
102
{ACAD_REACTORS
330
3E1
102
}
330
3E1
100
AcDbXrecord
 90
    10781
  0
XRECORD
  5
3E7
102
{ACAD_REACTORS
330
3E1
102
}
330
3E1
100
AcDbXrecord
340
19
  0
XRECORD
  5
3ED
102
{ACAD_REACTORS
330
3E1
102
}
330
3E1
100
AcDbXrecord
 40
0.0
  0
XRECORD
  5
3F0
102
{ACAD_REACTORS
330
3E1
102
}
330
3E1
100
AcDbXrecord
340
0
  0
XRECORD
  5
3F6
102
{ACAD_REACTORS
330
3E1
102
}
330
3E1
100
AcDbXrecord
 10
0.0
 20
0.0
 30
0.0
  0
XRECORD
  5
3F2
102
{ACAD_REACTORS
330
3E1
102
}
330
3E1
100
AcDbXrecord
 10
0.0
 20
0.0
 30
0.0
  0
XRECORD
  5
3F5
102
{ACAD_REACTORS
330
3E1
102
}
330
3E1
100
AcDbXrecord
 10
0.0
 20
0.0
 30
0.0
  0
XRECORD
  5
3F3
102
{ACAD_REACTORS
330
3E1
102
}
330
3E1
100
AcDbXrecord
 10
0.0
 20
0.0
 30
0.0
  0
XRECORD
  5
3F4
102
{ACAD_REACTORS
330
3E1
102
}
330
3E1
100
AcDbXrecord
 10
0.0
 20
0.0
 30
0.0
  0
XRECORD
  5
3F1
102
{ACAD_REACTORS
330
3E1
102
}
330
3E1
100
AcDbXrecord
 10
0.0
 20
0.0
 30
0.0
  0
XRECORD
  5
3EE
102
{ACAD_REACTORS
330
3E1
102
}
330
3E1
100
AcDbXrecord
340
0
  0
XRECORD
  5
3EF
102
{ACAD_REACTORS
330
3E1
102
}
330
3E1
100
AcDbXrecord
 70
     0
  0
XRECORD
  5
3E5
102
{ACAD_REACTORS
330
3E1
102
}
330
3E1
100
AcDbXrecord
  1

  0
XRECORD
  5
3E2
102
{ACAD_REACTORS
330
3E1
102
}
330
3E1
100
AcDbXrecord
 90
        1
  0
XRECORD
  5
3E3
102
{ACAD_REACTORS
330
3E1
102
}
330
3E1
100
AcDbXrecord
 90
       70
  0
XRECORD
  5
3F9
102
{ACAD_REACTORS
330
3E1
102
}
330
3E1
100
AcDbXrecord
340
0
  0
XRECORD
  5
3FF
102
{ACAD_REACTORS
330
3E1
102
}
330
3E1
100
AcDbXrecord
 10
0.0
 20
0.0
 30
0.0
  0
XRECORD
  5
3FB
102
{ACAD_REACTORS
330
3E1
102
}
330
3E1
100
AcDbXrecord
 10
0.0
 20
0.0
 30
0.0
  0
XRECORD
  5
3FE
102
{ACAD_REACTORS
330
3E1
102
}
330
3E1
100
AcDbXrecord
 10
0.0
 20
0.0
 30
0.0
  0
XRECORD
  5
3FC
102
{ACAD_REACTORS
330
3E1
102
}
330
3E1
100
AcDbXrecord
 10
0.0
 20
0.0
 30
0.0
  0
XRECORD
  5
3FD
102
{ACAD_REACTORS
330
3E1
102
}
330
3E1
100
AcDbXrecord
 10
0.0
 20
0.0
 30
0.0
  0
XRECORD
  5
3FA
102
{ACAD_REACTORS
330
3E1
102
}
330
3E1
100
AcDbXrecord
 10
0.0
 20
0.0
 30
0.0
  0
XRECORD
  5
3F7
102
{ACAD_REACTORS
330
3E1
102
}
330
3E1
100
AcDbXrecord
340
0
  0
XRECORD
  5
3F8
102
{ACAD_REACTORS
330
3E1
102
}
330
3E1
100
AcDbXrecord
 70
     0
  0
XRECORD
  5
3EC
102
{ACAD_REACTORS
330
3E1
102
}
330
3E1
100
AcDbXrecord
  1
{FAEB1C32-E019-11D5-929B-00C0DF256EC4}
  0
DICTIONARYVAR
  5
406
102
{ACAD_REACTORS
330
401
102
}
330
401
100
DictionaryVariables
280
     0
  1
2
  0
DICTIONARYVAR
  5
407
102
{ACAD_REACTORS
330
401
102
}
330
401
100
DictionaryVariables
280
     0
  1
1
  0
DICTIONARYVAR
  5
405
102
{ACAD_REACTORS
330
401
102
}
330
401
100
DictionaryVariables
280
     0
  1
80.000000
  0
DICTIONARYVAR
  5
404
102
{ACAD_REACTORS
330
401
102
}
330
401
100
DictionaryVariables
280
     0
  1
5.000000
  0
DICTIONARY
  5
40A
330
3D
100
AcDbDictionary
280
     1
  3
ACAD_XREC_ROUNDTRIP
360
40B
  0
DICTIONARY
  5
408
330
3C
100
AcDbDictionary
280
     1
  3
ACAD_XREC_ROUNDTRIP
360
409
  0
DICTIONARY
  5
40C
330
3E
100
AcDbDictionary
280
     1
  3
ACAD_XREC_ROUNDTRIP
360
40D
  0
XRECORD
  5
40B
102
{ACAD_REACTORS
330
40A
102
}
330
40A
100
AcDbXrecord
102
MATERIAL
148
0.0
149
0.0
149
0.0
 93
        0
 94
      127
282
     0
 72
     1
 77
     1
171
     1
175
     1
179
     1
273
     0
  0
XRECORD
  5
409
102
{ACAD_REACTORS
330
408
102
}
330
408
100
AcDbXrecord
102
MATERIAL
148
0.0
149
0.0
149
0.0
 93
        0
 94
      127
282
     0
 72
     1
 77
     1
171
     1
175
     1
179
     1
273
     0
  0
XRECORD
  5
40D
102
{ACAD_REACTORS
330
40C
102
}
330
40C
100
AcDbXrecord
102
MATERIAL
148
0.0
149
0.0
149
0.0
 93
        0
 94
      127
282
     0
 72
     1
 77
     1
171
     1
175
     1
179
     1
273
     0
  0
ENDSEC
  0
EOF
