  0
SECTION
  2
HEADER
  9
$ACADVER
  1
AC1014
  9
$ACADMAINTVER
 70
     9
  9
$DWGCODEPAGE
  3
ANSI_932
  9
$INSBASE
 10
0.0
 20
0.0
 30
0.0
  9
$EXTMIN
 10
12.10000000000001
 20
10.99999999999991
 30
0.0
  9
$EXTMAX
 10
417.0
 20
288.0
 30
0.0
  9
$LIMMIN
 10
0.0
 20
0.0
  9
$LIMMAX
 10
420.0
 20
297.0
  9
$ORTHOMODE
 70
     0
  9
$REGENMODE
 70
     1
  9
$FILLMODE
 70
     1
  9
$QTEXTMODE
 70
     0
  9
$MIRRTEXT
 70
     1
  9
$DRAGMODE
 70
     2
  9
$LTSCALE
 40
1.0
  9
$OSMODE
 70
    37
  9
$ATTMODE
 70
     1
  9
$TEXTSIZE
 40
2.5
  9
$TRACEWID
 40
1.0
  9
$TEXTSTYLE
  7
STANDARD
  9
$CLAYER
  8
寸法
  9
$CELTYPE
  6
BYLAYER
  9
$CECOLOR
 62
   256
  9
$CELTSCALE
 40
1.0
  9
$DELOBJ
 70
     1
  9
$DISPSILH
 70
     0
  9
$DIMSCALE
 40
1.0
  9
$DIMASZ
 40
2.5
  9
$DIMEXO
 40
0.625
  9
$DIMDLI
 40
3.75
  9
$DIMRND
 40
0.0
  9
$DIMDLE
 40
0.0
  9
$DIMEXE
 40
1.25
  9
$DIMTP
 40
0.0
  9
$DIMTM
 40
0.0
  9
$DIMTXT
 40
2.5
  9
$DIMCEN
 40
2.5
  9
$DIMTSZ
 40
0.0
  9
$DIMTOL
 70
     0
  9
$DIMLIM
 70
     0
  9
$DIMTIH
 70
     0
  9
$DIMTOH
 70
     0
  9
$DIMSE1
 70
     0
  9
$DIMSE2
 70
     0
  9
$DIMTAD
 70
     1
  9
$DIMZIN
 70
     8
  9
$DIMBLK
  1

  9
$DIMASO
 70
     1
  9
$DIMSHO
 70
     1
  9
$DIMPOST
  1

  9
$DIMAPOST
  1

  9
$DIMALT
 70
     0
  9
$DIMALTD
 70
     3
  9
$DIMALTF
 40
0.03937007874016
  9
$DIMLFAC
 40
1.0
  9
$DIMTOFL
 70
     1
  9
$DIMTVP
 40
0.0
  9
$DIMTIX
 70
     0
  9
$DIMSOXD
 70
     0
  9
$DIMSAH
 70
     0
  9
$DIMBLK1
  1

  9
$DIMBLK2
  1

  9
$DIMSTYLE
  2
ISO-25
  9
$DIMCLRD
 70
     0
  9
$DIMCLRE
 70
     0
  9
$DIMCLRT
 70
     0
  9
$DIMTFAC
 40
1.0
  9
$DIMGAP
 40
0.625
  9
$DIMJUST
 70
     0
  9
$DIMSD1
 70
     0
  9
$DIMSD2
 70
     0
  9
$DIMTOLJ
 70
     0
  9
$DIMTZIN
 70
     8
  9
$DIMALTZ
 70
     0
  9
$DIMALTTZ
 70
     0
  9
$DIMFIT
 70
     3
  9
$DIMUPT
 70
     0
  9
$DIMUNIT
 70
     2
  9
$DIMDEC
 70
     2
  9
$DIMTDEC
 70
     2
  9
$DIMALTU
 70
     2
  9
$DIMALTTD
 70
     3
  9
$DIMTXSTY
  7
STANDARD
  9
$DIMAUNIT
 70
     0
  9
$LUNITS
 70
     2
  9
$LUPREC
 70
     4
  9
$SKETCHINC
 40
1.0
  9
$FILLETRAD
 40
10.0
  9
$AUNITS
 70
     0
  9
$AUPREC
 70
     0
  9
$MENU
  1
.
  9
$ELEVATION
 40
0.0
  9
$PELEVATION
 40
0.0
  9
$THICKNESS
 40
0.0
  9
$LIMCHECK
 70
     0
  9
$CHAMFERA
 40
10.0
  9
$CHAMFERB
 40
10.0
  9
$CHAMFERC
 40
20.0
  9
$CHAMFERD
 40
0.0
  9
$SKPOLY
 70
     0
  9
$TDCREATE
 40
2460455.609250498
  9
$TDUPDATE
 40
2460455.609250695
  9
$TDINDWG
 40
0.0000000116
  9
$TDUSRTIMER
 40
0.0000000116
  9
$USRTIMER
 70
     1
  9
$ANGBASE
 50
0.0
  9
$ANGDIR
 70
     0
  9
$PDMODE
 70
     0
  9
$PDSIZE
 40
0.0
  9
$PLINEWID
 40
0.0
  9
$COORDS
 70
     1
  9
$SPLFRAME
 70
     0
  9
$SPLINETYPE
 70
     6
  9
$SPLINESEGS
 70
     8
  9
$ATTDIA
 70
     0
  9
$ATTREQ
 70
     1
  9
$HANDLING
 70
     1
  9
$HANDSEED
  5
556
  9
$SURFTAB1
 70
     6
  9
$SURFTAB2
 70
     6
  9
$SURFTYPE
 70
     6
  9
$SURFU
 70
     6
  9
$SURFV
 70
     6
  9
$UCSNAME
  2

  9
$UCSORG
 10
0.0
 20
0.0
 30
0.0
  9
$UCSXDIR
 10
1.0
 20
0.0
 30
0.0
  9
$UCSYDIR
 10
0.0
 20
1.0
 30
0.0
  9
$PUCSNAME
  2

  9
$PUCSORG
 10
0.0
 20
0.0
 30
0.0
  9
$PUCSXDIR
 10
1.0
 20
0.0
 30
0.0
  9
$PUCSYDIR
 10
0.0
 20
1.0
 30
0.0
  9
$USERI1
 70
     0
  9
$USERI2
 70
     0
  9
$USERI3
 70
     0
  9
$USERI4
 70
     0
  9
$USERI5
 70
     0
  9
$USERR1
 40
0.0
  9
$USERR2
 40
0.0
  9
$USERR3
 40
0.0
  9
$USERR4
 40
0.0
  9
$USERR5
 40
0.0
  9
$WORLDVIEW
 70
     1
  9
$SHADEDGE
 70
     3
  9
$SHADEDIF
 70
    70
  9
$TILEMODE
 70
     1
  9
$MAXACTVP
 70
    64
  9
$PINSBASE
 10
0.0
 20
0.0
 30
0.0
  9
$PLIMCHECK
 70
     0
  9
$PEXTMIN
 10
1.000000000000000E+20
 20
1.000000000000000E+20
 30
1.000000000000000E+20
  9
$PEXTMAX
 10
-1.000000000000000E+20
 20
-1.000000000000000E+20
 30
-1.000000000000000E+20
  9
$PLIMMIN
 10
0.0
 20
0.0
  9
$PLIMMAX
 10
420.0
 20
297.0
  9
$UNITMODE
 70
     0
  9
$VISRETAIN
 70
     1
  9
$PLINEGEN
 70
     0
  9
$PSLTSCALE
 70
     1
  9
$TREEDEPTH
 70
  3020
  9
$PICKSTYLE
 70
     1
  9
$CMLSTYLE
  2
STANDARD
  9
$CMLJUST
 70
     0
  9
$CMLSCALE
 40
20.0
  9
$PROXYGRAPHICS
 70
     1
  9
$MEASUREMENT
 70
     1
  0
ENDSEC
  0
SECTION
  2
CLASSES
  0
CLASS
  1
ACDBDICTIONARYWDFLT
  2
AcDbDictionaryWithDefault
  3
ObjectDBX Classes
 90
        0
280
     0
281
     0
  0
CLASS
  1
VISUALSTYLE
  2
AcDbVisualStyle
  3
ObjectDBX Classes
 90
     4095
280
     0
281
     0
  0
CLASS
  1
MATERIAL
  2
AcDbMaterial
  3
ObjectDBX Classes
 90
     1153
280
     0
281
     0
  0
CLASS
  1
SUN
  2
AcDbSun
  3
SCENEOE
 90
     1024
280
     0
281
     0
  0
CLASS
  1
DICTIONARYVAR
  2
AcDbDictionaryVar
  3
ObjectDBX Classes
 90
        0
280
     0
281
     0
  0
CLASS
  1
XRECORD
  2
AcDbXrecord
  3
AutoCAD 2000
 90
        0
280
     0
281
     0
  0
CLASS
  1
LWPOLYLINE
  2
AcDbPolyline
  3
AutoCAD 2000
 90
        0
280
     0
281
     1
  0
CLASS
  1
HATCH
  2
AcDbHatch
  3
AutoCAD 2000
 90
        0
280
     0
281
     1
  0
CLASS
  1
ACDBPLACEHOLDER
  2
AcDbPlaceHolder
  3
ObjectDBX Classes
 90
        0
280
     0
281
     0
  0
CLASS
  1
LAYOUT
  2
AcDbLayout
  3
ObjectDBX Classes
 90
        0
280
     0
281
     0
  0
ENDSEC
  0
SECTION
  2
TABLES
  0
TABLE
  2
VPORT
  5
8
330
0
100
AcDbSymbolTable
 70
     1
  0
VPORT
  5
29
330
8
100
AcDbSymbolTableRecord
100
AcDbViewportTableRecord
  2
*ACTIVE
 70
     0
 10
0.0
 20
0.0
 11
1.0
 21
1.0
 12
1072.75
 22
747.4999999999997
 13
0.0
 23
0.0
 14
10.0
 24
10.0
 15
10.0
 25
10.0
 16
0.0
 26
0.0
 36
1.0
 17
0.0
 27
0.0
 37
0.0
 40
1385.0
 41
1.461732851985559
 42
50.0
 43
0.0
 44
0.0
 50
0.0
 51
0.0
 71
     0
 72
  1000
 73
     1
 74
     3
 75
     0
 76
     0
 77
     0
 78
     0
  0
ENDTAB
  0
TABLE
  2
LTYPE
  5
5
330
0
100
AcDbSymbolTable
 70
     7
  0
LTYPE
  5
14
330
5
100
AcDbSymbolTableRecord
100
AcDbLinetypeTableRecord
  2
BYBLOCK
 70
     0
  3

 72
    65
 73
     0
 40
0.0
  0
LTYPE
  5
15
330
5
100
AcDbSymbolTableRecord
100
AcDbLinetypeTableRecord
  2
BYLAYER
 70
     0
  3

 72
    65
 73
     0
 40
0.0
  0
LTYPE
  5
16
330
5
100
AcDbSymbolTableRecord
100
AcDbLinetypeTableRecord
  2
CONTINUOUS
 70
     0
  3
Solid line
 72
    65
 73
     0
 40
0.0
  0
LTYPE
  5
40
330
5
100
AcDbSymbolTableRecord
100
AcDbLinetypeTableRecord
  2
EXLTYPE1
 70
     0
  3
破線
 72
    65
 73
     2
 40
3.0
 49
2.0
 74
     0
 49
-1.0
 74
     0
  0
LTYPE
  5
41
330
5
100
AcDbSymbolTableRecord
100
AcDbLinetypeTableRecord
  2
EXLTYPE2
 70
     0
  3
点線
 72
    65
 73
     2
 40
2.0
 49
1.0
 74
     0
 49
-1.0
 74
     0
  0
LTYPE
  5
42
330
5
100
AcDbSymbolTableRecord
100
AcDbLinetypeTableRecord
  2
EXLTYPE3
 70
     0
  3
一点鎖線
 72
    65
 73
     4
 40
10.0
 49
7.0
 74
     0
 49
-1.0
 74
     0
 49
1.0
 74
     0
 49
-1.0
 74
     0
  0
LTYPE
  5
43
330
5
100
AcDbSymbolTableRecord
100
AcDbLinetypeTableRecord
  2
EXLTYPE4
 70
     0
  3
二点鎖線
 72
    65
 73
     6
 40
12.0
 49
7.0
 74
     0
 49
-1.0
 74
     0
 49
1.0
 74
     0
 49
-1.0
 74
     0
 49
1.0
 74
     0
 49
-1.0
 74
     0
  0
LTYPE
  5
44
330
5
100
AcDbSymbolTableRecord
100
AcDbLinetypeTableRecord
  2
EXLTYPE5
 70
     0
  3
三点鎖線
 72
    65
 73
     8
 40
37.0
 49
30.0
 74
     0
 49
-1.0
 74
     0
 49
1.0
 74
     0
 49
-1.0
 74
     0
 49
1.0
 74
     0
 49
-1.0
 74
     0
 49
1.0
 74
     0
 49
-1.0
 74
     0
  0
LTYPE
  5
45
330
5
100
AcDbSymbolTableRecord
100
AcDbLinetypeTableRecord
  2
EXLTYPE6
 70
     0
  3
四点鎖線
 72
    65
 73
    10
 40
39.0
 49
30.0
 74
     0
 49
-1.0
 74
     0
 49
1.0
 74
     0
 49
-1.0
 74
     0
 49
1.0
 74
     0
 49
-1.0
 74
     0
 49
1.0
 74
     0
 49
-1.0
 74
     0
 49
1.0
 74
     0
 49
-1.0
 74
     0
  0
ENDTAB
  0
TABLE
  2
LAYER
  5
2
330
0
100
AcDbSymbolTable
 70
     6
  0
LAYER
  5
10
330
2
100
AcDbSymbolTableRecord
100
AcDbLayerTableRecord
  2
0
 70
     0
 62
     7
  6
CONTINUOUS
  0
LAYER
  5
48
330
2
100
AcDbSymbolTableRecord
100
AcDbLayerTableRecord
  2
図枠
 70
     0
 62
     7
  6
CONTINUOUS
  0
LAYER
  5
49
330
2
100
AcDbSymbolTableRecord
100
AcDbLayerTableRecord
  2
図
 70
     0
 62
     7
  6
CONTINUOUS
  0
LAYER
  5
4A
330
2
100
AcDbSymbolTableRecord
100
AcDbLayerTableRecord
  2
寸法
 70
     0
 62
     7
  6
CONTINUOUS
  0
LAYER
  5
4B
330
2
100
AcDbSymbolTableRecord
100
AcDbLayerTableRecord
  2
詳細図
 70
     0
 62
     7
  6
CONTINUOUS
  0
LAYER
  5
3C1
330
2
100
AcDbSymbolTableRecord
100
AcDbLayerTableRecord
  2
DEFPOINTS
 70
     0
 62
     7
  6
CONTINUOUS
  0
ENDTAB
  0
TABLE
  2
STYLE
  5
3
330
0
100
AcDbSymbolTable
 70
     5
  0
STYLE
  5
11
330
3
100
AcDbSymbolTableRecord
100
AcDbTextStyleTableRecord
  2
STANDARD
 70
     0
 40
0.0
 41
1.0
 50
0.0
 71
     0
 42
2.5
  3
monotxt
  4
extfont
  0
STYLE
  5
46
330
3
100
AcDbSymbolTableRecord
100
AcDbTextStyleTableRecord
  2
EXCADSTD
 70
     0
 40
0.0
 41
1.0
 50
0.0
 71
     0
 42
0.2
  3
monotxt
  4
extfont
  0
STYLE
  5
47
330
3
100
AcDbSymbolTableRecord
100
AcDbTextStyleTableRecord
  2
EXCADVERT
 70
     4
 40
0.0
 41
1.0
 50
0.0
 71
     0
 42
0.286885
  3
monotxt
  4
extfont
  0
STYLE
  5
AE
330
3
100
AcDbSymbolTableRecord
100
AcDbTextStyleTableRecord
  2
EXCADTTF1
 70
     0
 40
0.0
 41
1.0
 50
0.0
 71
     0
 42
0.2
  3
MSGOTHIC.TTC
  4

1001
ACAD
1000
MS Gothic
1071
    32817
  0
STYLE
  5
3BF
330
3
100
AcDbSymbolTableRecord
100
AcDbTextStyleTableRecord
  2
EXCADDIM1
 70
     0
 40
0.0
 41
0.84
 50
0.0
 71
     0
 42
0.2
  3
monotxt
  4
extfont
  0
ENDTAB
  0
TABLE
  2
VIEW
  5
6
330
0
100
AcDbSymbolTable
 70
     0
  0
ENDTAB
  0
TABLE
  2
UCS
  5
7
330
0
100
AcDbSymbolTable
 70
     0
  0
ENDTAB
  0
TABLE
  2
APPID
  5
9
330
0
100
AcDbSymbolTable
 70
     1
  0
APPID
  5
12
330
9
100
AcDbSymbolTableRecord
100
AcDbRegAppTableRecord
  2
ACAD
 70
     0
  0
ENDTAB
  0
TABLE
  2
DIMSTYLE
  5
A
330
0
100
AcDbSymbolTable
 70
     1
  0
DIMSTYLE
105
27
102
{ACAD_REACTORS
330
3C0
330
3CE
330
3DB
330
3E8
330
3F4
330
400
330
40D
330
41A
330
429
330
438
330
445
330
452
330
45F
330
46B
330
47A
330
48F
330
49C
330
4CA
330
4D7
330
4E4
330
4F2
330
4FF
102
}
330
A
100
AcDbSymbolTableRecord
100
AcDbDimStyleTableRecord
  2
ISO-25
 70
     0
  3

  4

  5

  6

  7

 40
1.0
 41
2.5
 42
0.625
 43
3.75
 44
1.25
 45
0.0
 46
0.0
 47
0.0
 48
0.0
140
2.5
141
2.5
142
0.0
143
0.03937007874016
144
1.0
145
0.0
146
1.0
147
0.625
 71
     0
 72
     0
 73
     0
 74
     0
 75
     0
 76
     0
 77
     1
 78
     8
170
     0
171
     3
172
     1
173
     0
174
     0
175
     0
176
     0
177
     0
178
     0
270
     2
271
     2
272
     2
273
     2
274
     3
340
11
275
     0
280
     0
281
     0
282
     0
283
     0
284
     8
285
     0
286
     0
287
     5
288
     0
  0
ENDTAB
  0
TABLE
  2
BLOCK_RECORD
  5
1
330
0
100
AcDbSymbolTable
 70
    37
  0
BLOCK_RECORD
  5
1F
330
1
100
AcDbSymbolTableRecord
100
AcDbBlockTableRecord
  2
*MODEL_SPACE
  0
BLOCK_RECORD
  5
1B
330
1
100
AcDbSymbolTableRecord
100
AcDbBlockTableRecord
  2
*PAPER_SPACE
  0
BLOCK_RECORD
  5
4C
330
1
100
AcDbSymbolTableRecord
100
AcDbBlockTableRecord
  2
EX_NORM
  0
BLOCK_RECORD
  5
4F
330
1
100
AcDbSymbolTableRecord
100
AcDbBlockTableRecord
  2
EX_BNORM
  0
BLOCK_RECORD
  5
52
330
1
100
AcDbSymbolTableRecord
100
AcDbBlockTableRecord
  2
EX_BCIR
  0
BLOCK_RECORD
  5
55
330
1
100
AcDbSymbolTableRecord
100
AcDbBlockTableRecord
  2
EX_RCIVIL
  0
BLOCK_RECORD
  5
58
330
1
100
AcDbSymbolTableRecord
100
AcDbBlockTableRecord
  2
EX_SLANT
  0
BLOCK_RECORD
  5
5B
330
1
100
AcDbSymbolTableRecord
100
AcDbBlockTableRecord
  2
EX_NONE
  0
BLOCK_RECORD
  5
5E
330
1
100
AcDbSymbolTableRecord
100
AcDbBlockTableRecord
  2
EX_CIVIL
  0
BLOCK_RECORD
  5
61
330
1
100
AcDbSymbolTableRecord
100
AcDbBlockTableRecord
  2
EX_WCIR
  0
BLOCK_RECORD
  5
64
330
1
100
AcDbSymbolTableRecord
100
AcDbBlockTableRecord
  2
EX_WCIR2
  0
BLOCK_RECORD
  5
67
330
1
100
AcDbSymbolTableRecord
100
AcDbBlockTableRecord
  2
EX_WNORM
  0
BLOCK_RECORD
  5
6A
330
1
100
AcDbSymbolTableRecord
100
AcDbBlockTableRecord
  2
EX_NNORM
  0
BLOCK_RECORD
  5
6D
330
1
100
AcDbSymbolTableRecord
100
AcDbBlockTableRecord
  2
EX_BBOX
  0
BLOCK_RECORD
  5
70
330
1
100
AcDbSymbolTableRecord
100
AcDbBlockTableRecord
  2
EX_WBOX
  0
BLOCK_RECORD
  5
73
330
1
100
AcDbSymbolTableRecord
100
AcDbBlockTableRecord
  2
EX_INTEGRAL
  0
BLOCK_RECORD
  5
3C2
330
1
100
AcDbSymbolTableRecord
100
AcDbBlockTableRecord
  2
*D15
  0
BLOCK_RECORD
  5
3CF
330
1
100
AcDbSymbolTableRecord
100
AcDbBlockTableRecord
  2
*D16
  0
BLOCK_RECORD
  5
3DC
330
1
100
AcDbSymbolTableRecord
100
AcDbBlockTableRecord
  2
*D17
  0
BLOCK_RECORD
  5
3E9
330
1
100
AcDbSymbolTableRecord
100
AcDbBlockTableRecord
  2
*D18
  0
BLOCK_RECORD
  5
3F5
330
1
100
AcDbSymbolTableRecord
100
AcDbBlockTableRecord
  2
*D19
  0
BLOCK_RECORD
  5
401
330
1
100
AcDbSymbolTableRecord
100
AcDbBlockTableRecord
  2
*D20
  0
BLOCK_RECORD
  5
40E
330
1
100
AcDbSymbolTableRecord
100
AcDbBlockTableRecord
  2
*D21
  0
BLOCK_RECORD
  5
41B
330
1
100
AcDbSymbolTableRecord
100
AcDbBlockTableRecord
  2
*D22
  0
BLOCK_RECORD
  5
42A
330
1
100
AcDbSymbolTableRecord
100
AcDbBlockTableRecord
  2
*D23
  0
BLOCK_RECORD
  5
439
330
1
100
AcDbSymbolTableRecord
100
AcDbBlockTableRecord
  2
*D24
  0
BLOCK_RECORD
  5
446
330
1
100
AcDbSymbolTableRecord
100
AcDbBlockTableRecord
  2
*D25
  0
BLOCK_RECORD
  5
453
330
1
100
AcDbSymbolTableRecord
100
AcDbBlockTableRecord
  2
*D26
  0
BLOCK_RECORD
  5
460
330
1
100
AcDbSymbolTableRecord
100
AcDbBlockTableRecord
  2
*D27
  0
BLOCK_RECORD
  5
46C
330
1
100
AcDbSymbolTableRecord
100
AcDbBlockTableRecord
  2
*D28
  0
BLOCK_RECORD
  5
47B
330
1
100
AcDbSymbolTableRecord
100
AcDbBlockTableRecord
  2
*D29
  0
BLOCK_RECORD
  5
490
330
1
100
AcDbSymbolTableRecord
100
AcDbBlockTableRecord
  2
*D30
  0
BLOCK_RECORD
  5
49D
330
1
100
AcDbSymbolTableRecord
100
AcDbBlockTableRecord
  2
*D31
  0
BLOCK_RECORD
  5
4CB
330
1
100
AcDbSymbolTableRecord
100
AcDbBlockTableRecord
  2
*D32
  0
BLOCK_RECORD
  5
4D8
330
1
100
AcDbSymbolTableRecord
100
AcDbBlockTableRecord
  2
*D33
  0
BLOCK_RECORD
  5
4E5
330
1
100
AcDbSymbolTableRecord
100
AcDbBlockTableRecord
  2
*D34
  0
BLOCK_RECORD
  5
4F3
330
1
100
AcDbSymbolTableRecord
100
AcDbBlockTableRecord
  2
*D35
  0
BLOCK_RECORD
  5
500
330
1
100
AcDbSymbolTableRecord
100
AcDbBlockTableRecord
  2
*D36
  0
ENDTAB
  0
ENDSEC
  0
SECTION
  2
BLOCKS
  0
BLOCK
  5
20
330
1F
100
AcDbEntity
  8
0
100
AcDbBlockBegin
  2
*MODEL_SPACE
 70
     0
 10
0.0
 20
0.0
 30
0.0
  3
*MODEL_SPACE
  1

  0
ENDBLK
  5
21
330
1F
100
AcDbEntity
  8
0
100
AcDbBlockEnd
  0
BLOCK
  5
1C
330
1B
100
AcDbEntity
 67
     1
  8
0
100
AcDbBlockBegin
  2
*PAPER_SPACE
 70
     0
 10
0.0
 20
0.0
 30
0.0
  3
*PAPER_SPACE
  1

  0
ENDBLK
  5
1D
330
1B
100
AcDbEntity
 67
     1
  8
0
100
AcDbBlockEnd
  0
BLOCK
  5
4D
330
4C
100
AcDbEntity
  8
0
100
AcDbBlockBegin
  2
EX_NORM
 70
     0
 10
0.0
 20
0.0
 30
0.0
  3
EX_NORM
  1

  0
LINE
  5
76
330
4C
100
AcDbEntity
  8
0
  6
CONTINUOUS
 62
     0
100
AcDbLine
 10
0.0
 20
0.0
 30
0.0
 11
-1.0
 21
0.0
 31
0.0
  0
LINE
  5
77
330
4C
100
AcDbEntity
  8
0
  6
CONTINUOUS
 62
     0
100
AcDbLine
 10
0.0
 20
0.0
 30
0.0
 11
-1.0
 21
0.166666667
 31
0.0
  0
LINE
  5
78
330
4C
100
AcDbEntity
  8
0
  6
CONTINUOUS
 62
     0
100
AcDbLine
 10
0.0
 20
0.0
 30
0.0
 11
-1.0
 21
-0.166666667
 31
0.0
  0
ENDBLK
  5
4E
330
4C
100
AcDbEntity
  8
0
100
AcDbBlockEnd
  0
BLOCK
  5
50
330
4F
100
AcDbEntity
  8
0
100
AcDbBlockBegin
  2
EX_BNORM
 70
     0
 10
0.0
 20
0.0
 30
0.0
  3
EX_BNORM
  1

  0
LINE
  5
79
330
4F
100
AcDbEntity
  8
0
  6
CONTINUOUS
 62
     0
100
AcDbLine
 10
0.0
 20
0.0
 30
0.0
 11
-1.0
 21
0.0
 31
0.0
  0
LINE
  5
7A
330
4F
100
AcDbEntity
  8
0
  6
CONTINUOUS
 62
     0
100
AcDbLine
 10
0.0
 20
0.0
 30
0.0
 11
-1.0
 21
0.166666667
 31
0.0
  0
LINE
  5
7B
330
4F
100
AcDbEntity
  8
0
  6
CONTINUOUS
 62
     0
100
AcDbLine
 10
0.0
 20
0.0
 30
0.0
 11
-1.0
 21
-0.166666667
 31
0.0
  0
LINE
  5
7C
330
4F
100
AcDbEntity
  8
0
  6
CONTINUOUS
 62
     0
100
AcDbLine
 10
0.0
 20
0.0
 30
0.0
 11
-1.0
 21
0.083333333
 31
0.0
  0
LINE
  5
7D
330
4F
100
AcDbEntity
  8
0
  6
CONTINUOUS
 62
     0
100
AcDbLine
 10
0.0
 20
0.0
 30
0.0
 11
-1.0
 21
-0.083333333
 31
0.0
  0
LINE
  5
7E
330
4F
100
AcDbEntity
  8
0
  6
CONTINUOUS
 62
     0
100
AcDbLine
 10
-1.0
 20
0.166666667
 30
0.0
 11
-1.0
 21
-0.166666667
 31
0.0
  0
ENDBLK
  5
51
330
4F
100
AcDbEntity
  8
0
100
AcDbBlockEnd
  0
BLOCK
  5
53
330
52
100
AcDbEntity
  8
0
100
AcDbBlockBegin
  2
EX_BCIR
 70
     0
 10
0.0
 20
0.0
 30
0.0
  3
EX_BCIR
  1

  0
LINE
  5
7F
330
52
100
AcDbEntity
  8
0
  6
CONTINUOUS
 62
     0
100
AcDbLine
 10
0.0
 20
0.0
 30
0.0
 11
-1.0
 21
0.0
 31
0.0
  0
CIRCLE
  5
80
330
52
100
AcDbEntity
  8
0
  6
CONTINUOUS
 62
     0
100
AcDbCircle
 10
0.0
 20
0.0
 30
0.0
 40
0.5
  0
CIRCLE
  5
81
330
52
100
AcDbEntity
  8
0
  6
CONTINUOUS
 62
     0
100
AcDbCircle
 10
0.0
 20
0.0
 30
0.0
 40
0.25
  0
ENDBLK
  5
54
330
52
100
AcDbEntity
  8
0
100
AcDbBlockEnd
  0
BLOCK
  5
56
330
55
100
AcDbEntity
  8
0
100
AcDbBlockBegin
  2
EX_RCIVIL
 70
     0
 10
0.0
 20
0.0
 30
0.0
  3
EX_RCIVIL
  1

  0
LINE
  5
82
330
55
100
AcDbEntity
  8
0
  6
CONTINUOUS
 62
     0
100
AcDbLine
 10
0.0
 20
0.0
 30
0.0
 11
-1.0
 21
0.0
 31
0.0
  0
LINE
  5
83
330
55
100
AcDbEntity
  8
0
  6
CONTINUOUS
 62
     0
100
AcDbLine
 10
-1.0
 20
-0.25
 30
0.0
 11
0.0
 21
-0.25
 31
0.0
  0
LINE
  5
84
330
55
100
AcDbEntity
  8
0
  6
CONTINUOUS
 62
     0
100
AcDbLine
 10
-1.0
 20
-0.125
 30
0.0
 11
0.0
 21
-0.125
 31
0.0
  0
ENDBLK
  5
57
330
55
100
AcDbEntity
  8
0
100
AcDbBlockEnd
  0
BLOCK
  5
59
330
58
100
AcDbEntity
  8
0
100
AcDbBlockBegin
  2
EX_SLANT
 70
     0
 10
0.0
 20
0.0
 30
0.0
  3
EX_SLANT
  1

  0
LINE
  5
85
330
58
100
AcDbEntity
  8
0
  6
CONTINUOUS
 62
     0
100
AcDbLine
 10
0.0
 20
0.0
 30
0.0
 11
-1.0
 21
0.0
 31
0.0
  0
LINE
  5
86
330
58
100
AcDbEntity
  8
0
  6
CONTINUOUS
 62
     0
100
AcDbLine
 10
0.707106781
 20
0.707106781
 30
0.0
 11
-0.707106781
 21
-0.707106781
 31
0.0
  0
ENDBLK
  5
5A
330
58
100
AcDbEntity
  8
0
100
AcDbBlockEnd
  0
BLOCK
  5
5C
330
5B
100
AcDbEntity
  8
0
100
AcDbBlockBegin
  2
EX_NONE
 70
     0
 10
0.0
 20
0.0
 30
0.0
  3
EX_NONE
  1

  0
LINE
  5
87
330
5B
100
AcDbEntity
  8
0
  6
CONTINUOUS
 62
     0
100
AcDbLine
 10
0.0
 20
0.0
 30
0.0
 11
-1.0
 21
0.0
 31
0.0
  0
ENDBLK
  5
5D
330
5B
100
AcDbEntity
  8
0
100
AcDbBlockEnd
  0
BLOCK
  5
5F
330
5E
100
AcDbEntity
  8
0
100
AcDbBlockBegin
  2
EX_CIVIL
 70
     0
 10
0.0
 20
0.0
 30
0.0
  3
EX_CIVIL
  1

  0
LINE
  5
88
330
5E
100
AcDbEntity
  8
0
  6
CONTINUOUS
 62
     0
100
AcDbLine
 10
0.0
 20
0.0
 30
0.0
 11
-1.0
 21
0.0
 31
0.0
  0
LINE
  5
89
330
5E
100
AcDbEntity
  8
0
  6
CONTINUOUS
 62
     0
100
AcDbLine
 10
-1.0
 20
0.25
 30
0.0
 11
0.0
 21
0.25
 31
0.0
  0
LINE
  5
8A
330
5E
100
AcDbEntity
  8
0
  6
CONTINUOUS
 62
     0
100
AcDbLine
 10
-1.0
 20
0.125
 30
0.0
 11
0.0
 21
0.125
 31
0.0
  0
ENDBLK
  5
60
330
5E
100
AcDbEntity
  8
0
100
AcDbBlockEnd
  0
BLOCK
  5
62
330
61
100
AcDbEntity
  8
0
100
AcDbBlockBegin
  2
EX_WCIR
 70
     0
 10
0.0
 20
0.0
 30
0.0
  3
EX_WCIR
  1

  0
LINE
  5
8B
330
61
100
AcDbEntity
  8
0
  6
CONTINUOUS
 62
     0
100
AcDbLine
 10
0.0
 20
0.0
 30
0.0
 11
-1.0
 21
0.0
 31
0.0
  0
CIRCLE
  5
8C
330
61
100
AcDbEntity
  8
0
  6
CONTINUOUS
 62
     0
100
AcDbCircle
 10
0.0
 20
0.0
 30
0.0
 40
0.5
  0
ENDBLK
  5
63
330
61
100
AcDbEntity
  8
0
100
AcDbBlockEnd
  0
BLOCK
  5
65
330
64
100
AcDbEntity
  8
0
100
AcDbBlockBegin
  2
EX_WCIR2
 70
     0
 10
0.0
 20
0.0
 30
0.0
  3
EX_WCIR2
  1

  0
LINE
  5
8D
330
64
100
AcDbEntity
  8
0
  6
CONTINUOUS
 62
     0
100
AcDbLine
 10
-0.5
 20
0.0
 30
0.0
 11
-1.0
 21
0.0
 31
0.0
  0
CIRCLE
  5
8E
330
64
100
AcDbEntity
  8
0
  6
CONTINUOUS
 62
     0
100
AcDbCircle
 10
0.0
 20
0.0
 30
0.0
 40
0.5
  0
ENDBLK
  5
66
330
64
100
AcDbEntity
  8
0
100
AcDbBlockEnd
  0
BLOCK
  5
68
330
67
100
AcDbEntity
  8
0
100
AcDbBlockBegin
  2
EX_WNORM
 70
     0
 10
0.0
 20
0.0
 30
0.0
  3
EX_WNORM
  1

  0
LINE
  5
8F
330
67
100
AcDbEntity
  8
0
  6
CONTINUOUS
 62
     0
100
AcDbLine
 10
-1.0
 20
0.0
 30
0.0
 11
-1.0
 21
0.0
 31
0.0
  0
LINE
  5
90
330
67
100
AcDbEntity
  8
0
  6
CONTINUOUS
 62
     0
100
AcDbLine
 10
0.0
 20
0.0
 30
0.0
 11
-1.0
 21
0.166666667
 31
0.0
  0
LINE
  5
91
330
67
100
AcDbEntity
  8
0
  6
CONTINUOUS
 62
     0
100
AcDbLine
 10
0.0
 20
0.0
 30
0.0
 11
-1.0
 21
-0.166666667
 31
0.0
  0
LINE
  5
92
330
67
100
AcDbEntity
  8
0
  6
CONTINUOUS
 62
     0
100
AcDbLine
 10
-1.0
 20
0.166666667
 30
0.0
 11
-1.0
 21
-0.166666667
 31
0.0
  0
ENDBLK
  5
69
330
67
100
AcDbEntity
  8
0
100
AcDbBlockEnd
  0
BLOCK
  5
6B
330
6A
100
AcDbEntity
  8
0
100
AcDbBlockBegin
  2
EX_NNORM
 70
     0
 10
0.0
 20
0.0
 30
0.0
  3
EX_NNORM
  1

  0
LINE
  5
93
330
6A
100
AcDbEntity
  8
0
  6
CONTINUOUS
 62
     0
100
AcDbLine
 10
0.0
 20
0.0
 30
0.0
 11
-1.0
 21
0.0
 31
0.0
  0
LINE
  5
94
330
6A
100
AcDbEntity
  8
0
  6
CONTINUOUS
 62
     0
100
AcDbLine
 10
0.0
 20
0.0
 30
0.0
 11
-1.0
 21
0.166666667
 31
0.0
  0
LINE
  5
95
330
6A
100
AcDbEntity
  8
0
  6
CONTINUOUS
 62
     0
100
AcDbLine
 10
0.0
 20
0.0
 30
0.0
 11
-1.0
 21
-0.166666667
 31
0.0
  0
LINE
  5
96
330
6A
100
AcDbEntity
  8
0
  6
CONTINUOUS
 62
     0
100
AcDbLine
 10
-1.0
 20
0.166666667
 30
0.0
 11
-1.0
 21
-0.166666667
 31
0.0
  0
ENDBLK
  5
6C
330
6A
100
AcDbEntity
  8
0
100
AcDbBlockEnd
  0
BLOCK
  5
6E
330
6D
100
AcDbEntity
  8
0
100
AcDbBlockBegin
  2
EX_BBOX
 70
     0
 10
0.0
 20
0.0
 30
0.0
  3
EX_BBOX
  1

  0
LINE
  5
97
330
6D
100
AcDbEntity
  8
0
  6
CONTINUOUS
 62
     0
100
AcDbLine
 10
0.0
 20
0.0
 30
0.0
 11
-1.0
 21
0.0
 31
0.0
  0
LINE
  5
98
330
6D
100
AcDbEntity
  8
0
  6
CONTINUOUS
 62
     0
100
AcDbLine
 10
-0.5
 20
0.5
 30
0.0
 11
0.5
 21
0.5
 31
0.0
  0
LINE
  5
99
330
6D
100
AcDbEntity
  8
0
  6
CONTINUOUS
 62
     0
100
AcDbLine
 10
0.5
 20
0.5
 30
0.0
 11
0.5
 21
-0.5
 31
0.0
  0
LINE
  5
9A
330
6D
100
AcDbEntity
  8
0
  6
CONTINUOUS
 62
     0
100
AcDbLine
 10
0.5
 20
-0.5
 30
0.0
 11
-0.5
 21
-0.5
 31
0.0
  0
LINE
  5
9B
330
6D
100
AcDbEntity
  8
0
  6
CONTINUOUS
 62
     0
100
AcDbLine
 10
-0.5
 20
-0.5
 30
0.0
 11
-0.5
 21
0.5
 31
0.0
  0
LINE
  5
9C
330
6D
100
AcDbEntity
  8
0
  6
CONTINUOUS
 62
     0
100
AcDbLine
 10
-0.25
 20
0.25
 30
0.0
 11
0.25
 21
0.25
 31
0.0
  0
LINE
  5
9D
330
6D
100
AcDbEntity
  8
0
  6
CONTINUOUS
 62
     0
100
AcDbLine
 10
0.25
 20
0.25
 30
0.0
 11
0.25
 21
-0.25
 31
0.0
  0
LINE
  5
9E
330
6D
100
AcDbEntity
  8
0
  6
CONTINUOUS
 62
     0
100
AcDbLine
 10
0.25
 20
-0.25
 30
0.0
 11
-0.25
 21
-0.25
 31
0.0
  0
LINE
  5
9F
330
6D
100
AcDbEntity
  8
0
  6
CONTINUOUS
 62
     0
100
AcDbLine
 10
-0.25
 20
-0.25
 30
0.0
 11
-0.25
 21
0.25
 31
0.0
  0
ENDBLK
  5
6F
330
6D
100
AcDbEntity
  8
0
100
AcDbBlockEnd
  0
BLOCK
  5
71
330
70
100
AcDbEntity
  8
0
100
AcDbBlockBegin
  2
EX_WBOX
 70
     0
 10
0.0
 20
0.0
 30
0.0
  3
EX_WBOX
  1

  0
LINE
  5
A0
330
70
100
AcDbEntity
  8
0
  6
CONTINUOUS
 62
     0
100
AcDbLine
 10
-0.5
 20
0.0
 30
0.0
 11
-1.0
 21
0.0
 31
0.0
  0
LINE
  5
A1
330
70
100
AcDbEntity
  8
0
  6
CONTINUOUS
 62
     0
100
AcDbLine
 10
-0.5
 20
0.5
 30
0.0
 11
0.5
 21
0.5
 31
0.0
  0
LINE
  5
A2
330
70
100
AcDbEntity
  8
0
  6
CONTINUOUS
 62
     0
100
AcDbLine
 10
0.5
 20
0.5
 30
0.0
 11
0.5
 21
-0.5
 31
0.0
  0
LINE
  5
A3
330
70
100
AcDbEntity
  8
0
  6
CONTINUOUS
 62
     0
100
AcDbLine
 10
0.5
 20
-0.5
 30
0.0
 11
-0.5
 21
-0.5
 31
0.0
  0
LINE
  5
A4
330
70
100
AcDbEntity
  8
0
  6
CONTINUOUS
 62
     0
100
AcDbLine
 10
-0.5
 20
-0.5
 30
0.0
 11
-0.5
 21
0.5
 31
0.0
  0
ENDBLK
  5
72
330
70
100
AcDbEntity
  8
0
100
AcDbBlockEnd
  0
BLOCK
  5
74
330
73
100
AcDbEntity
  8
0
100
AcDbBlockBegin
  2
EX_INTEGRAL
 70
     0
 10
0.0
 20
0.0
 30
0.0
  3
EX_INTEGRAL
  1

  0
LINE
  5
A5
330
73
100
AcDbEntity
  8
0
  6
CONTINUOUS
 62
     0
100
AcDbLine
 10
0.0
 20
0.0
 30
0.0
 11
-1.0
 21
0.0
 31
0.0
  0
ARC
  5
A6
330
73
100
AcDbEntity
  8
0
  6
CONTINUOUS
 62
     0
100
AcDbCircle
 10
0.542115
 20
0.164992
 30
0.0
 40
0.56667
100
AcDbArc
 50
73.07249033629006
 51
196.9275130221199
  0
ARC
  5
A7
330
73
100
AcDbEntity
  8
0
  6
CONTINUOUS
 62
     0
100
AcDbCircle
 10
-0.542115
 20
-0.164992
 30
0.0
 40
0.56667
100
AcDbArc
 50
253.0724869220464
 51
16.9275130559125
  0
ENDBLK
  5
75
330
73
100
AcDbEntity
  8
0
100
AcDbBlockEnd
  0
BLOCK
  5
3C3
330
3C2
100
AcDbEntity
  8
0
100
AcDbBlockBegin
  2
*D15
 70
     1
 10
0.0
 20
0.0
 30
0.0
  3
*D15
  1

  0
LINE
  5
3C5
330
3C2
100
AcDbEntity
  8
寸法
  6
CONTINUOUS
 62
     3
100
AcDbLine
 10
271.5000000000008
 20
808.780152
 30
0.0
 11
271.5000000000008
 21
746.280152
 31
0.0
  0
LINE
  5
3C6
330
3C2
100
AcDbEntity
  8
寸法
  6
CONTINUOUS
 62
     3
100
AcDbLine
 10
761.4999280000008
 20
808.780152
 30
0.0
 11
761.4999280000008
 21
746.280152
 31
0.0
  0
LINE
  5
3C7
330
3C2
100
AcDbEntity
  8
寸法
  6
CONTINUOUS
 62
     3
100
AcDbLine
 10
286.5000000000008
 20
751.280152
 30
0.0
 11
746.4999280000008
 21
751.280152
 31
0.0
  0
INSERT
  5
3C8
330
3C2
100
AcDbEntity
  8
寸法
 62
     3
100
AcDbBlockReference
  2
EX_NORM
 10
271.5000000000008
 20
751.280152
 30
0.0
 41
15.0
 42
15.0
 43
15.0
 50
180.0
  0
INSERT
  5
3C9
330
3C2
100
AcDbEntity
  8
寸法
 62
     3
100
AcDbBlockReference
  2
EX_NORM
 10
761.4999280000008
 20
751.280152
 30
0.0
 41
15.0
 42
15.0
 43
15.0
  0
MTEXT
  5
3CA
330
3C2
100
AcDbEntity
  8
寸法
 62
     2
100
AcDbMText
 10
516.4999640000008
 20
762.7801520596047
 30
0.0
 40
20.0
 41
0.0
 71
     5
 72
     1
  1
490
  7
EXCADDIM1
  0
POINT
  5
3CB
330
3C2
100
AcDbEntity
  8
DEFPOINTS
 62
     0
100
AcDbPoint
 10
271.5000000000008
 20
811.280152
 30
0.0
  0
POINT
  5
3CC
330
3C2
100
AcDbEntity
  8
DEFPOINTS
 62
     0
100
AcDbPoint
 10
761.4999280000008
 20
811.280152
 30
0.0
  0
POINT
  5
3CD
330
3C2
100
AcDbEntity
  8
DEFPOINTS
 62
     0
100
AcDbPoint
 10
761.4999280000008
 20
751.280152
 30
0.0
  0
ENDBLK
  5
3C4
330
3C2
100
AcDbEntity
  8
0
100
AcDbBlockEnd
  0
BLOCK
  5
3D0
330
3CF
100
AcDbEntity
  8
0
100
AcDbBlockBegin
  2
*D16
 70
     1
 10
0.0
 20
0.0
 30
0.0
  3
*D16
  1

  0
LINE
  5
3D2
330
3CF
100
AcDbEntity
  8
寸法
  6
CONTINUOUS
 62
     3
100
AcDbLine
 10
818.9999280000008
 20
1261.280152
 30
0.0
 11
866.4999280000008
 21
1261.280152
 31
0.0
  0
LINE
  5
3D3
330
3CF
100
AcDbEntity
  8
寸法
  6
CONTINUOUS
 62
     3
100
AcDbLine
 10
753.9999280000008
 20
801.280152
 30
0.0
 11
866.4999280000008
 21
801.280152
 31
0.0
  0
LINE
  5
3D4
330
3CF
100
AcDbEntity
  8
寸法
  6
CONTINUOUS
 62
     3
100
AcDbLine
 10
861.4999280000008
 20
1246.280152
 30
0.0
 11
861.4999280000008
 21
816.280152
 31
0.0
  0
INSERT
  5
3D5
330
3CF
100
AcDbEntity
  8
寸法
 62
     3
100
AcDbBlockReference
  2
EX_NORM
 10
861.4999280000008
 20
1261.280152
 30
0.0
 41
15.0
 42
15.0
 43
15.0
 50
90.0
  0
INSERT
  5
3D6
330
3CF
100
AcDbEntity
  8
寸法
 62
     3
100
AcDbBlockReference
  2
EX_NORM
 10
861.4999280000008
 20
801.280152
 30
0.0
 41
15.0
 42
15.0
 43
15.0
 50
270.0
  0
MTEXT
  5
3D7
330
3CF
100
AcDbEntity
  8
寸法
 62
     2
100
AcDbMText
 10
849.9999279403961
 20
1031.280152
 30
0.0
 40
20.0
 41
0.0
 71
     5
 72
     1
  1
460
  7
EXCADDIM1
 11
0.0
 21
1.0
 31
0.0
  0
POINT
  5
3D8
330
3CF
100
AcDbEntity
  8
DEFPOINTS
 62
     0
100
AcDbPoint
 10
816.4999280000008
 20
1261.280152
 30
0.0
  0
POINT
  5
3D9
330
3CF
100
AcDbEntity
  8
DEFPOINTS
 62
     0
100
AcDbPoint
 10
751.4999280000008
 20
801.280152
 30
0.0
  0
POINT
  5
3DA
330
3CF
100
AcDbEntity
  8
DEFPOINTS
 62
     0
100
AcDbPoint
 10
861.4999280000008
 20
801.280152
 30
0.0
  0
ENDBLK
  5
3D1
330
3CF
100
AcDbEntity
  8
0
100
AcDbBlockEnd
  0
BLOCK
  5
3DD
330
3DC
100
AcDbEntity
  8
0
100
AcDbBlockBegin
  2
*D17
 70
     1
 10
0.0
 20
0.0
 30
0.0
  3
*D17
  1

  0
LINE
  5
3DF
330
3DC
100
AcDbEntity
  8
寸法
  6
CONTINUOUS
 62
     3
100
AcDbLine
 10
550.7255553147209
 20
477.55358800004
 30
0.0
 11
866.4999280000008
 21
477.5535880000401
 31
0.0
  0
LINE
  5
3E0
330
3DC
100
AcDbEntity
  8
寸法
  6
CONTINUOUS
 62
     3
100
AcDbLine
 10
818.9999280000008
 20
652.5535879999999
 30
0.0
 11
866.4999280000008
 21
652.5535879999999
 31
0.0
  0
LINE
  5
3E1
330
3DC
100
AcDbEntity
  8
寸法
  6
CONTINUOUS
 62
     3
100
AcDbLine
 10
861.4999280000008
 20
492.5535880000401
 30
0.0
 11
861.4999280000008
 21
637.5535879999999
 31
0.0
  0
INSERT
  5
3E2
330
3DC
100
AcDbEntity
  8
寸法
 62
     3
100
AcDbBlockReference
  2
EX_NORM
 10
861.4999280000008
 20
477.5535880000401
 30
0.0
 41
15.0
 42
15.0
 43
15.0
 50
270.0
  0
INSERT
  5
3E3
330
3DC
100
AcDbEntity
  8
寸法
 62
     3
100
AcDbBlockReference
  2
EX_NORM
 10
861.4999280000008
 20
652.5535879999999
 30
0.0
 41
15.0
 42
15.0
 43
15.0
 50
90.0
  0
MTEXT
  5
3E4
330
3DC
100
AcDbEntity
  8
寸法
 62
     2
100
AcDbMText
 10
849.9999279403961
 20
565.05358800002
 30
0.0
 40
20.0
 41
0.0
 71
     5
 72
     1
  1
175
  7
EXCADDIM1
 11
0.0
 21
1.0
 31
0.0
  0
POINT
  5
3E5
330
3DC
100
AcDbEntity
  8
DEFPOINTS
 62
     0
100
AcDbPoint
 10
548.2255553147209
 20
477.55358800004
 30
0.0
  0
POINT
  5
3E6
330
3DC
100
AcDbEntity
  8
DEFPOINTS
 62
     0
100
AcDbPoint
 10
816.4999280000008
 20
652.5535879999999
 30
0.0
  0
POINT
  5
3E7
330
3DC
100
AcDbEntity
  8
DEFPOINTS
 62
     0
100
AcDbPoint
 10
861.4999280000008
 20
652.5535879999999
 30
0.0
  0
ENDBLK
  5
3DE
330
3DC
100
AcDbEntity
  8
0
100
AcDbBlockEnd
  0
BLOCK
  5
3EA
330
3E9
100
AcDbEntity
  8
0
100
AcDbBlockBegin
  2
*D18
 70
     1
 10
0.0
 20
0.0
 30
0.0
  3
*D18
  1

  0
LINE
  5
3EC
330
3E9
100
AcDbEntity
  8
寸法
  6
CONTINUOUS
 62
     3
100
AcDbLine
 10
1349.500000000001
 20
1036.280152
 30
0.0
 11
1584.000002000001
 21
1036.280152
 31
0.0
  0
LINE
  5
3ED
330
3E9
100
AcDbEntity
  8
寸法
  6
CONTINUOUS
 62
     3
100
AcDbLine
 10
1579.000002000001
 20
1021.280152
 30
0.0
 11
1579.000002000001
 21
816.280152
 31
0.0
  0
INSERT
  5
3EE
330
3E9
100
AcDbEntity
  8
寸法
 62
     3
100
AcDbBlockReference
  2
EX_NORM
 10
1579.000002000001
 20
1036.280152
 30
0.0
 41
15.0
 42
15.0
 43
15.0
 50
90.0
  0
INSERT
  5
3EF
330
3E9
100
AcDbEntity
  8
寸法
 62
     3
100
AcDbBlockReference
  2
EX_NORM
 10
1579.000002000001
 20
801.280152
 30
0.0
 41
15.0
 42
15.0
 43
15.0
 50
270.0
  0
MTEXT
  5
3F0
330
3E9
100
AcDbEntity
  8
寸法
 62
     2
100
AcDbMText
 10
1567.500001940396
 20
918.780152
 30
0.0
 40
20.0
 41
0.0
 71
     5
 72
     1
  1
235
  7
EXCADDIM1
 11
0.0
 21
1.0
 31
0.0
  0
POINT
  5
3F1
330
3E9
100
AcDbEntity
  8
DEFPOINTS
 62
     0
100
AcDbPoint
 10
1347.000000000001
 20
1036.280152
 30
0.0
  0
POINT
  5
3F2
330
3E9
100
AcDbEntity
  8
DEFPOINTS
 62
     0
100
AcDbPoint
 10
1525.000002000001
 20
801.280152
 30
0.0
  0
POINT
  5
3F3
330
3E9
100
AcDbEntity
  8
DEFPOINTS
 62
     0
100
AcDbPoint
 10
1579.000002000001
 20
801.280152
 30
0.0
  0
ENDBLK
  5
3EB
330
3E9
100
AcDbEntity
  8
0
100
AcDbBlockEnd
  0
BLOCK
  5
3F6
330
3F5
100
AcDbEntity
  8
0
100
AcDbBlockBegin
  2
*D19
 70
     1
 10
0.0
 20
0.0
 30
0.0
  3
*D19
  1

  0
LINE
  5
3F8
330
3F5
100
AcDbEntity
  8
寸法
  6
CONTINUOUS
 62
     3
100
AcDbLine
 10
544.1266600000008
 20
1176.280152
 30
0.0
 11
816.4999280000008
 21
1176.280152
 31
0.0
  0
LINE
  5
3F9
330
3F5
100
AcDbEntity
  8
寸法
  6
CONTINUOUS
 62
     3
100
AcDbLine
 10
811.4999280000008
 20
1191.280152
 30
0.0
 11
811.4999280000008
 21
1246.280152
 31
0.0
  0
INSERT
  5
3FA
330
3F5
100
AcDbEntity
  8
寸法
 62
     3
100
AcDbBlockReference
  2
EX_NORM
 10
811.4999280000008
 20
1176.280152
 30
0.0
 41
15.0
 42
15.0
 43
15.0
 50
270.0
  0
INSERT
  5
3FB
330
3F5
100
AcDbEntity
  8
寸法
 62
     3
100
AcDbBlockReference
  2
EX_NORM
 10
811.4999280000008
 20
1261.280152
 30
0.0
 41
15.0
 42
15.0
 43
15.0
 50
90.0
  0
MTEXT
  5
3FC
330
3F5
100
AcDbEntity
  8
寸法
 62
     2
100
AcDbMText
 10
799.9999279403962
 20
1218.780152
 30
0.0
 40
20.0
 41
0.0
 71
     5
 72
     1
  1
85
  7
EXCADDIM1
 11
0.0
 21
1.0
 31
0.0
  0
POINT
  5
3FD
330
3F5
100
AcDbEntity
  8
DEFPOINTS
 62
     0
100
AcDbPoint
 10
541.6266600000008
 20
1176.280152
 30
0.0
  0
POINT
  5
3FE
330
3F5
100
AcDbEntity
  8
DEFPOINTS
 62
     0
100
AcDbPoint
 10
757.4999280000006
 20
1261.280152
 30
0.0
  0
POINT
  5
3FF
330
3F5
100
AcDbEntity
  8
DEFPOINTS
 62
     0
100
AcDbPoint
 10
811.4999280000008
 20
1261.280152
 30
0.0
  0
ENDBLK
  5
3F7
330
3F5
100
AcDbEntity
  8
0
100
AcDbBlockEnd
  0
BLOCK
  5
402
330
401
100
AcDbEntity
  8
0
100
AcDbBlockBegin
  2
*D20
 70
     1
 10
0.0
 20
0.0
 30
0.0
  3
*D20
  1

  0
LINE
  5
404
330
401
100
AcDbEntity
  8
寸法
  6
CONTINUOUS
 62
     3
100
AcDbLine
 10
426.9999280000008
 20
1166.280152
 30
0.0
 11
216.5000000000008
 21
1166.280152
 31
0.0
  0
LINE
  5
405
330
401
100
AcDbEntity
  8
寸法
  6
CONTINUOUS
 62
     3
100
AcDbLine
 10
272.9999280000008
 20
1261.280152
 30
0.0
 11
216.5000000000008
 21
1261.280152
 31
0.0
  0
LINE
  5
406
330
401
100
AcDbEntity
  8
寸法
  6
CONTINUOUS
 62
     3
100
AcDbLine
 10
221.5000000000008
 20
1181.280152
 30
0.0
 11
221.5000000000008
 21
1246.280152
 31
0.0
  0
INSERT
  5
407
330
401
100
AcDbEntity
  8
寸法
 62
     3
100
AcDbBlockReference
  2
EX_NORM
 10
221.5000000000008
 20
1166.280152
 30
0.0
 41
15.0
 42
15.0
 43
15.0
 50
270.0
  0
INSERT
  5
408
330
401
100
AcDbEntity
  8
寸法
 62
     3
100
AcDbBlockReference
  2
EX_NORM
 10
221.5000000000008
 20
1261.280152
 30
0.0
 41
15.0
 42
15.0
 43
15.0
 50
90.0
  0
MTEXT
  5
409
330
401
100
AcDbEntity
  8
寸法
 62
     2
100
AcDbMText
 10
209.9999999403962
 20
1213.780152
 30
0.0
 40
20.0
 41
0.0
 71
     5
 72
     1
  1
95
  7
EXCADDIM1
 11
0.0
 21
1.0
 31
0.0
  0
POINT
  5
40A
330
401
100
AcDbEntity
  8
DEFPOINTS
 62
     0
100
AcDbPoint
 10
429.4999280000008
 20
1166.280152
 30
0.0
  0
POINT
  5
40B
330
401
100
AcDbEntity
  8
DEFPOINTS
 62
     0
100
AcDbPoint
 10
275.4999280000008
 20
1261.280152
 30
0.0
  0
POINT
  5
40C
330
401
100
AcDbEntity
  8
DEFPOINTS
 62
     0
100
AcDbPoint
 10
221.5000000000008
 20
1261.280152
 30
0.0
  0
ENDBLK
  5
403
330
401
100
AcDbEntity
  8
0
100
AcDbBlockEnd
  0
BLOCK
  5
40F
330
40E
100
AcDbEntity
  8
0
100
AcDbBlockBegin
  2
*D21
 70
     1
 10
0.0
 20
0.0
 30
0.0
  3
*D21
  1

  0
LINE
  5
411
330
40E
100
AcDbEntity
  8
寸法
  6
CONTINUOUS
 62
     3
100
AcDbLine
 10
446.4999280000008
 20
1183.060304
 30
0.0
 11
446.4999280000008
 21
1316.280152
 31
0.0
  0
LINE
  5
412
330
40E
100
AcDbEntity
  8
寸法
  6
CONTINUOUS
 62
     3
100
AcDbLine
 10
516.4999640000008
 20
1276.0
 30
0.0
 11
516.4999640000008
 21
1316.280152
 31
0.0
  0
LINE
  5
413
330
40E
100
AcDbEntity
  8
寸法
  6
CONTINUOUS
 62
     3
100
AcDbLine
 10
461.4999280000008
 20
1311.280152
 30
0.0
 11
501.4999640000008
 21
1311.280152
 31
0.0
  0
INSERT
  5
414
330
40E
100
AcDbEntity
  8
寸法
 62
     3
100
AcDbBlockReference
  2
EX_NORM
 10
446.4999280000008
 20
1311.280152
 30
0.0
 41
15.0
 42
15.0
 43
15.0
 50
180.0
  0
INSERT
  5
415
330
40E
100
AcDbEntity
  8
寸法
 62
     3
100
AcDbBlockReference
  2
EX_NORM
 10
516.4999640000008
 20
1311.280152
 30
0.0
 41
15.0
 42
15.0
 43
15.0
  0
MTEXT
  5
416
330
40E
100
AcDbEntity
  8
寸法
 62
     2
100
AcDbMText
 10
481.4999460000008
 20
1322.780152059605
 30
0.0
 40
20.0
 41
0.0
 71
     5
 72
     1
  1
70
  7
EXCADDIM1
  0
POINT
  5
417
330
40E
100
AcDbEntity
  8
DEFPOINTS
 62
     0
100
AcDbPoint
 10
446.4999280000008
 20
1180.560304
 30
0.0
  0
POINT
  5
418
330
40E
100
AcDbEntity
  8
DEFPOINTS
 62
     0
100
AcDbPoint
 10
516.4999640000008
 20
1273.5
 30
0.0
  0
POINT
  5
419
330
40E
100
AcDbEntity
  8
DEFPOINTS
 62
     0
100
AcDbPoint
 10
516.4999640000008
 20
1311.280152
 30
0.0
  0
ENDBLK
  5
410
330
40E
100
AcDbEntity
  8
0
100
AcDbBlockEnd
  0
BLOCK
  5
41C
330
41B
100
AcDbEntity
  8
0
100
AcDbBlockBegin
  2
*D22
 70
     1
 10
0.0
 20
0.0
 30
0.0
  3
*D22
  1

  0
LINE
  5
41E
330
41B
100
AcDbEntity
  8
寸法
  6
CONTINUOUS
 62
     3
100
AcDbLine
 10
1109.000004000001
 20
499.0000000000001
 30
0.0
 11
1109.000004000001
 21
422.553588
 31
0.0
  0
LINE
  5
41F
330
41B
100
AcDbEntity
  8
寸法
  6
CONTINUOUS
 62
     3
100
AcDbLine
 10
1459.0
 20
499.0000000000001
 30
0.0
 11
1459.0
 21
422.553588
 31
0.0
  0
LINE
  5
420
330
41B
100
AcDbEntity
  8
寸法
  6
CONTINUOUS
 62
     3
100
AcDbLine
 10
1124.000004000001
 20
427.553588
 30
0.0
 11
1444.0
 21
427.553588
 31
0.0
  0
INSERT
  5
421
330
41B
100
AcDbEntity
  8
寸法
 62
     3
100
AcDbBlockReference
  2
EX_NORM
 10
1109.000004000001
 20
427.553588
 30
0.0
 41
15.0
 42
15.0
 43
15.0
 50
180.0
  0
INSERT
  5
422
330
41B
100
AcDbEntity
  8
寸法
 62
     3
100
AcDbBlockReference
  2
EX_NORM
 10
1459.0
 20
427.553588
 30
0.0
 41
15.0
 42
15.0
 43
15.0
  0
MTEXT
  5
423
330
41B
100
AcDbEntity
  8
寸法
 62
     2
100
AcDbMText
 10
1284.000002000001
 20
439.0535880596046
 30
0.0
 40
20.0
 41
0.0
 71
     5
 72
     1
  1
350
  7
EXCADDIM1
  0
POINT
  5
424
330
41B
100
AcDbEntity
  8
DEFPOINTS
 62
     0
100
AcDbPoint
 10
1109.000004000001
 20
501.5000000000001
 30
0.0
  0
POINT
  5
425
330
41B
100
AcDbEntity
  8
DEFPOINTS
 62
     0
100
AcDbPoint
 10
1459.0
 20
501.5000000000001
 30
0.0
  0
POINT
  5
426
330
41B
100
AcDbEntity
  8
DEFPOINTS
 62
     0
100
AcDbPoint
 10
1459.0
 20
427.553588
 30
0.0
  0
ENDBLK
  5
41D
330
41B
100
AcDbEntity
  8
0
100
AcDbBlockEnd
  0
BLOCK
  5
42B
330
42A
100
AcDbEntity
  8
0
100
AcDbBlockBegin
  2
*D23
 70
     1
 10
0.0
 20
0.0
 30
0.0
  3
*D23
  1

  0
LINE
  5
42D
330
42A
100
AcDbEntity
  8
寸法
  6
CONTINUOUS
 62
     3
100
AcDbLine
 10
1109.000004000001
 20
644.685668
 30
0.0
 11
1109.000004000001
 21
707.5535879999999
 31
0.0
  0
LINE
  5
42E
330
42A
100
AcDbEntity
  8
寸法
  6
CONTINUOUS
 62
     3
100
AcDbLine
 10
1459.0
 20
644.685668
 30
0.0
 11
1459.0
 21
707.5535879999999
 31
0.0
  0
LINE
  5
42F
330
42A
100
AcDbEntity
  8
寸法
  6
CONTINUOUS
 62
     3
100
AcDbLine
 10
1124.000004000001
 20
702.5535879999999
 30
0.0
 11
1444.0
 21
702.5535879999999
 31
0.0
  0
INSERT
  5
430
330
42A
100
AcDbEntity
  8
寸法
 62
     3
100
AcDbBlockReference
  2
EX_NORM
 10
1109.000004000001
 20
702.5535879999999
 30
0.0
 41
15.0
 42
15.0
 43
15.0
 50
180.0
  0
INSERT
  5
431
330
42A
100
AcDbEntity
  8
寸法
 62
     3
100
AcDbBlockReference
  2
EX_NORM
 10
1459.0
 20
702.5535879999999
 30
0.0
 41
15.0
 42
15.0
 43
15.0
  0
MTEXT
  5
432
330
42A
100
AcDbEntity
  8
寸法
 62
     2
100
AcDbMText
 10
1284.000002000001
 20
714.0535880596045
 30
0.0
 40
20.0
 41
0.0
 71
     5
 72
     1
  1
350
  7
EXCADDIM1
  0
POINT
  5
433
330
42A
100
AcDbEntity
  8
DEFPOINTS
 62
     0
100
AcDbPoint
 10
1109.000004000001
 20
642.185668
 30
0.0
  0
POINT
  5
434
330
42A
100
AcDbEntity
  8
DEFPOINTS
 62
     0
100
AcDbPoint
 10
1459.0
 20
642.185668
 30
0.0
  0
POINT
  5
435
330
42A
100
AcDbEntity
  8
DEFPOINTS
 62
     0
100
AcDbPoint
 10
1459.0
 20
702.5535879999999
 30
0.0
  0
ENDBLK
  5
42C
330
42A
100
AcDbEntity
  8
0
100
AcDbBlockEnd
  0
BLOCK
  5
43A
330
439
100
AcDbEntity
  8
0
100
AcDbBlockBegin
  2
*D24
 70
     1
 10
0.0
 20
0.0
 30
0.0
  3
*D24
  1

  0
LINE
  5
43C
330
439
100
AcDbEntity
  8
寸法
  6
CONTINUOUS
 62
     3
100
AcDbLine
 10
1159.000002000001
 20
1075.0
 30
0.0
 11
1159.000002000001
 21
1311.280152
 31
0.0
  0
LINE
  5
43D
330
439
100
AcDbEntity
  8
寸法
  6
CONTINUOUS
 62
     3
100
AcDbLine
 10
1409.000002000001
 20
1075.0
 30
0.0
 11
1409.000002000001
 21
1311.280152
 31
0.0
  0
LINE
  5
43E
330
439
100
AcDbEntity
  8
寸法
  6
CONTINUOUS
 62
     3
100
AcDbLine
 10
1174.000002000001
 20
1311.280152
 30
0.0
 11
1394.000002000001
 21
1311.280152
 31
0.0
  0
INSERT
  5
43F
330
439
100
AcDbEntity
  8
寸法
 62
     3
100
AcDbBlockReference
  2
EX_NORM
 10
1159.000002000001
 20
1311.280152
 30
0.0
 41
15.0
 42
15.0
 43
15.0
 50
180.0
  0
INSERT
  5
440
330
439
100
AcDbEntity
  8
寸法
 62
     3
100
AcDbBlockReference
  2
EX_NORM
 10
1409.000002000001
 20
1311.280152
 30
0.0
 41
15.0
 42
15.0
 43
15.0
  0
MTEXT
  5
441
330
439
100
AcDbEntity
  8
寸法
 62
     2
100
AcDbMText
 10
1284.000002000001
 20
1322.780152059605
 30
0.0
 40
20.0
 41
0.0
 71
     5
 72
     1
  1
250
  7
EXCADDIM1
  0
POINT
  5
442
330
439
100
AcDbEntity
  8
DEFPOINTS
 62
     0
100
AcDbPoint
 10
1159.000002000001
 20
1075.0
 30
0.0
  0
POINT
  5
443
330
439
100
AcDbEntity
  8
DEFPOINTS
 62
     0
100
AcDbPoint
 10
1409.000002000001
 20
1075.0
 30
0.0
  0
POINT
  5
444
330
439
100
AcDbEntity
  8
DEFPOINTS
 62
     0
100
AcDbPoint
 10
1409.000002000001
 20
1311.280152
 30
0.0
  0
ENDBLK
  5
43B
330
439
100
AcDbEntity
  8
0
100
AcDbBlockEnd
  0
BLOCK
  5
447
330
446
100
AcDbEntity
  8
0
100
AcDbBlockBegin
  2
*D25
 70
     1
 10
0.0
 20
0.0
 30
0.0
  3
*D25
  1

  0
LINE
  5
449
330
446
100
AcDbEntity
  8
寸法
  6
CONTINUOUS
 62
     3
100
AcDbLine
 10
1151.000002000001
 20
984.7801520000002
 30
0.0
 11
1151.000002000001
 21
1361.280152
 31
0.0
  0
LINE
  5
44A
330
446
100
AcDbEntity
  8
寸法
  6
CONTINUOUS
 62
     3
100
AcDbLine
 10
1417.000002
 20
984.7801520000002
 30
0.0
 11
1417.000002
 21
1361.280152
 31
0.0
  0
LINE
  5
44B
330
446
100
AcDbEntity
  8
寸法
  6
CONTINUOUS
 62
     3
100
AcDbLine
 10
1166.000002000001
 20
1361.280152
 30
0.0
 11
1402.000002
 21
1361.280152
 31
0.0
  0
INSERT
  5
44C
330
446
100
AcDbEntity
  8
寸法
 62
     3
100
AcDbBlockReference
  2
EX_NORM
 10
1151.000002000001
 20
1361.280152
 30
0.0
 41
15.0
 42
15.0
 43
15.0
 50
180.0
  0
INSERT
  5
44D
330
446
100
AcDbEntity
  8
寸法
 62
     3
100
AcDbBlockReference
  2
EX_NORM
 10
1417.000002
 20
1361.280152
 30
0.0
 41
15.0
 42
15.0
 43
15.0
  0
MTEXT
  5
44E
330
446
100
AcDbEntity
  8
寸法
 62
     2
100
AcDbMText
 10
1284.000002000001
 20
1372.780152059605
 30
0.0
 40
20.0
 41
0.0
 71
     5
 72
     1
  1
266
  7
EXCADDIM1
  0
POINT
  5
44F
330
446
100
AcDbEntity
  8
DEFPOINTS
 62
     0
100
AcDbPoint
 10
1151.000002000001
 20
984.7801520000002
 30
0.0
  0
POINT
  5
450
330
446
100
AcDbEntity
  8
DEFPOINTS
 62
     0
100
AcDbPoint
 10
1417.000002
 20
984.7801520000002
 30
0.0
  0
POINT
  5
451
330
446
100
AcDbEntity
  8
DEFPOINTS
 62
     0
100
AcDbPoint
 10
1417.000002
 20
1361.280152
 30
0.0
  0
ENDBLK
  5
448
330
446
100
AcDbEntity
  8
0
100
AcDbBlockEnd
  0
BLOCK
  5
454
330
453
100
AcDbEntity
  8
0
100
AcDbBlockBegin
  2
*D26
 70
     1
 10
0.0
 20
0.0
 30
0.0
  3
*D26
  1

  0
LINE
  5
456
330
453
100
AcDbEntity
  8
寸法
  6
CONTINUOUS
 62
     3
100
AcDbLine
 10
1518.494589889901
 20
1221.2801520003
 30
0.0
 11
1634.000002000001
 21
1221.2801520003
 31
0.0
  0
LINE
  5
457
330
453
100
AcDbEntity
  8
寸法
  6
CONTINUOUS
 62
     3
100
AcDbLine
 10
1586.500002000001
 20
801.280152
 30
0.0
 11
1634.000002000001
 21
801.280152
 31
0.0
  0
LINE
  5
458
330
453
100
AcDbEntity
  8
寸法
  6
CONTINUOUS
 62
     3
100
AcDbLine
 10
1629.000002000001
 20
1206.2801520003
 30
0.0
 11
1629.000002000001
 21
816.280152
 31
0.0
  0
INSERT
  5
459
330
453
100
AcDbEntity
  8
寸法
 62
     3
100
AcDbBlockReference
  2
EX_NORM
 10
1629.000002000001
 20
1221.2801520003
 30
0.0
 41
15.0
 42
15.0
 43
15.0
 50
90.0
  0
INSERT
  5
45A
330
453
100
AcDbEntity
  8
寸法
 62
     3
100
AcDbBlockReference
  2
EX_NORM
 10
1629.000002000001
 20
801.280152
 30
0.0
 41
15.0
 42
15.0
 43
15.0
 50
270.0
  0
MTEXT
  5
45B
330
453
100
AcDbEntity
  8
寸法
 62
     2
100
AcDbMText
 10
1617.500001940396
 20
1011.28015200015
 30
0.0
 40
20.0
 41
0.0
 71
     5
 72
     1
  1
（420）
  7
EXCADDIM1
 11
0.0
 21
1.0
 31
0.0
  0
POINT
  5
45C
330
453
100
AcDbEntity
  8
DEFPOINTS
 62
     0
100
AcDbPoint
 10
1515.994589889901
 20
1221.2801520003
 30
0.0
  0
POINT
  5
45D
330
453
100
AcDbEntity
  8
DEFPOINTS
 62
     0
100
AcDbPoint
 10
1584.000002000001
 20
801.280152
 30
0.0
  0
POINT
  5
45E
330
453
100
AcDbEntity
  8
DEFPOINTS
 62
     0
100
AcDbPoint
 10
1629.000002000001
 20
801.280152
 30
0.0
  0
ENDBLK
  5
455
330
453
100
AcDbEntity
  8
0
100
AcDbBlockEnd
  0
BLOCK
  5
461
330
460
100
AcDbEntity
  8
0
100
AcDbBlockBegin
  2
*D27
 70
     1
 10
0.0
 20
0.0
 30
0.0
  3
*D27
  1

  0
LINE
  5
463
330
460
100
AcDbEntity
  8
寸法
  6
CONTINUOUS
 62
     3
100
AcDbLine
 10
759.0000000000107
 20
512.55358799999
 30
0.0
 11
816.4999280000008
 21
512.55358799999
 31
0.0
  0
LINE
  5
464
330
460
100
AcDbEntity
  8
寸法
  6
CONTINUOUS
 62
     3
100
AcDbLine
 10
811.4999280000008
 20
637.5535879999999
 30
0.0
 11
811.4999280000008
 21
527.55358799999
 31
0.0
  0
INSERT
  5
465
330
460
100
AcDbEntity
  8
寸法
 62
     3
100
AcDbBlockReference
  2
EX_NORM
 10
811.4999280000008
 20
652.5535879999999
 30
0.0
 41
15.0
 42
15.0
 43
15.0
 50
90.0
  0
INSERT
  5
466
330
460
100
AcDbEntity
  8
寸法
 62
     3
100
AcDbBlockReference
  2
EX_NORM
 10
811.4999280000008
 20
512.55358799999
 30
0.0
 41
15.0
 42
15.0
 43
15.0
 50
270.0
  0
MTEXT
  5
467
330
460
100
AcDbEntity
  8
寸法
 62
     2
100
AcDbMText
 10
799.9999279403961
 20
582.553587999995
 30
0.0
 40
20.0
 41
0.0
 71
     5
 72
     1
  1
140
  7
EXCADDIM1
 11
0.0
 21
1.0
 31
0.0
  0
POINT
  5
468
330
460
100
AcDbEntity
  8
DEFPOINTS
 62
     0
100
AcDbPoint
 10
756.5000000000007
 20
652.5535879999999
 30
0.0
  0
POINT
  5
469
330
460
100
AcDbEntity
  8
DEFPOINTS
 62
     0
100
AcDbPoint
 10
756.5000000000107
 20
512.55358799999
 30
0.0
  0
POINT
  5
46A
330
460
100
AcDbEntity
  8
DEFPOINTS
 62
     0
100
AcDbPoint
 10
811.4999280000008
 20
512.55358799999
 30
0.0
  0
ENDBLK
  5
462
330
460
100
AcDbEntity
  8
0
100
AcDbBlockEnd
  0
BLOCK
  5
46D
330
46C
100
AcDbEntity
  8
0
100
AcDbBlockBegin
  2
*D28
 70
     1
 10
0.0
 20
0.0
 30
0.0
  3
*D28
  1

  0
LINE
  5
46F
330
46C
100
AcDbEntity
  8
寸法
  6
CONTINUOUS
 62
     3
100
AcDbLine
 10
756.5000000000107
 20
510.05358799999
 30
0.0
 11
756.5000000000107
 21
422.553588
 31
0.0
  0
LINE
  5
470
330
46C
100
AcDbEntity
  8
寸法
  6
CONTINUOUS
 62
     3
100
AcDbLine
 10
276.5000000000008
 20
510.053588
 30
0.0
 11
276.5000000000008
 21
422.553588
 31
0.0
  0
LINE
  5
471
330
46C
100
AcDbEntity
  8
寸法
  6
CONTINUOUS
 62
     3
100
AcDbLine
 10
741.5000000000107
 20
427.553588
 30
0.0
 11
291.5000000000008
 21
427.553588
 31
0.0
  0
INSERT
  5
472
330
46C
100
AcDbEntity
  8
寸法
 62
     3
100
AcDbBlockReference
  2
EX_NORM
 10
756.5000000000107
 20
427.553588
 30
0.0
 41
15.0
 42
15.0
 43
15.0
  0
INSERT
  5
473
330
46C
100
AcDbEntity
  8
寸法
 62
     3
100
AcDbBlockReference
  2
EX_NORM
 10
276.5000000000008
 20
427.553588
 30
0.0
 41
15.0
 42
15.0
 43
15.0
 50
180.0
  0
MTEXT
  5
474
330
46C
100
AcDbEntity
  8
寸法
 62
     2
100
AcDbMText
 10
516.5000000000057
 20
439.0535880596046
 30
0.0
 40
20.0
 41
0.0
 71
     5
 72
     1
  1
（480）
  7
EXCADDIM1
  0
POINT
  5
475
330
46C
100
AcDbEntity
  8
DEFPOINTS
 62
     0
100
AcDbPoint
 10
756.5000000000107
 20
512.55358799999
 30
0.0
  0
POINT
  5
476
330
46C
100
AcDbEntity
  8
DEFPOINTS
 62
     0
100
AcDbPoint
 10
276.5000000000008
 20
512.553588
 30
0.0
  0
POINT
  5
477
330
46C
100
AcDbEntity
  8
DEFPOINTS
 62
     0
100
AcDbPoint
 10
276.5000000000008
 20
427.553588
 30
0.0
  0
ENDBLK
  5
46E
330
46C
100
AcDbEntity
  8
0
100
AcDbBlockEnd
  0
BLOCK
  5
47C
330
47B
100
AcDbEntity
  8
0
100
AcDbBlockBegin
  2
*D29
 70
     1
 10
0.0
 20
0.0
 30
0.0
  3
*D29
  1

  0
LINE
  5
47E
330
47B
100
AcDbEntity
  8
寸法
  6
CONTINUOUS
 62
     3
100
AcDbLine
 10
1135.950002000001
 20
953.280152
 30
0.0
 11
1000.000000000001
 21
953.280152
 31
0.0
  0
LINE
  5
47F
330
47B
100
AcDbEntity
  8
寸法
  6
CONTINUOUS
 62
     3
100
AcDbLine
 10
1005.000000000001
 20
938.280152
 30
0.0
 11
1005.000000000001
 21
816.280152
 31
0.0
  0
INSERT
  5
480
330
47B
100
AcDbEntity
  8
寸法
 62
     3
100
AcDbBlockReference
  2
EX_NORM
 10
1005.000000000001
 20
953.280152
 30
0.0
 41
15.0
 42
15.0
 43
15.0
 50
90.0
  0
INSERT
  5
481
330
47B
100
AcDbEntity
  8
寸法
 62
     3
100
AcDbBlockReference
  2
EX_NORM
 10
1005.000000000001
 20
801.280152
 30
0.0
 41
15.0
 42
15.0
 43
15.0
 50
270.0
  0
MTEXT
  5
482
330
47B
100
AcDbEntity
  8
寸法
 62
     2
100
AcDbMText
 10
993.4999999403963
 20
877.2801520000002
 30
0.0
 40
20.0
 41
0.0
 71
     5
 72
     1
  1
152
  7
EXCADDIM1
 11
0.0
 21
1.0
 31
0.0
  0
POINT
  5
483
330
47B
100
AcDbEntity
  8
DEFPOINTS
 62
     0
100
AcDbPoint
 10
1138.450002000001
 20
953.280152
 30
0.0
  0
POINT
  5
484
330
47B
100
AcDbEntity
  8
DEFPOINTS
 62
     0
100
AcDbPoint
 10
1005.000000000001
 20
801.280152
 30
0.0
  0
POINT
  5
485
330
47B
100
AcDbEntity
  8
DEFPOINTS
 62
     0
100
AcDbPoint
 10
1005.000000000001
 20
801.280152
 30
0.0
  0
ENDBLK
  5
47D
330
47B
100
AcDbEntity
  8
0
100
AcDbBlockEnd
  0
BLOCK
  5
491
330
490
100
AcDbEntity
  8
0
100
AcDbBlockBegin
  2
*D30
 70
     1
 10
0.0
 20
0.0
 30
0.0
  3
*D30
  1

  0
LINE
  5
493
330
490
100
AcDbEntity
  8
寸法
  6
CONTINUOUS
 62
     3
100
AcDbLine
 10
514.0000000000008
 20
635.553588
 30
0.0
 11
461.7000000000008
 21
635.553588
 31
0.0
  0
LINE
  5
494
330
490
100
AcDbEntity
  8
寸法
  6
CONTINUOUS
 62
     3
100
AcDbLine
 10
514.0000000000008
 20
591.553588
 30
0.0
 11
461.7000000000008
 21
591.553588
 31
0.0
  0
LINE
  5
495
330
490
100
AcDbEntity
  8
寸法
  6
CONTINUOUS
 62
     3
100
AcDbLine
 10
466.7000000000008
 20
620.553588
 30
0.0
 11
466.7000000000008
 21
606.553588
 31
0.0
  0
INSERT
  5
496
330
490
100
AcDbEntity
  8
寸法
 62
     3
100
AcDbBlockReference
  2
EX_NORM
 10
466.7000000000008
 20
635.553588
 30
0.0
 41
15.0
 42
15.0
 43
15.0
 50
90.0
  0
INSERT
  5
497
330
490
100
AcDbEntity
  8
寸法
 62
     3
100
AcDbBlockReference
  2
EX_NORM
 10
466.7000000000008
 20
591.553588
 30
0.0
 41
15.0
 42
15.0
 43
15.0
 50
270.0
  0
MTEXT
  5
498
330
490
100
AcDbEntity
  8
寸法
 62
     2
100
AcDbMText
 10
455.1999999403963
 20
613.553588
 30
0.0
 40
20.0
 41
0.0
 71
     5
 72
     1
  1
44
  7
EXCADDIM1
 11
0.0
 21
1.0
 31
0.0
  0
POINT
  5
499
330
490
100
AcDbEntity
  8
DEFPOINTS
 62
     0
100
AcDbPoint
 10
516.5000000000008
 20
635.553588
 30
0.0
  0
POINT
  5
49A
330
490
100
AcDbEntity
  8
DEFPOINTS
 62
     0
100
AcDbPoint
 10
516.5000000000008
 20
591.553588
 30
0.0
  0
POINT
  5
49B
330
490
100
AcDbEntity
  8
DEFPOINTS
 62
     0
100
AcDbPoint
 10
466.7000000000008
 20
591.553588
 30
0.0
  0
ENDBLK
  5
492
330
490
100
AcDbEntity
  8
0
100
AcDbBlockEnd
  0
BLOCK
  5
49E
330
49D
100
AcDbEntity
  8
0
100
AcDbBlockBegin
  2
*D31
 70
     1
 10
0.0
 20
0.0
 30
0.0
  3
*D31
  1

  0
LINE
  5
4A0
330
49D
100
AcDbEntity
  8
寸法
  6
CONTINUOUS
 62
     3
100
AcDbLine
 10
1151.500002000001
 20
1051.280152
 30
0.0
 11
939.0000000000009
 21
1051.280152
 31
0.0
  0
LINE
  5
4A1
330
49D
100
AcDbEntity
  8
寸法
  6
CONTINUOUS
 62
     3
100
AcDbLine
 10
1150.500000000001
 20
801.280152
 30
0.0
 11
939.0000000000009
 21
801.280152
 31
0.0
  0
LINE
  5
4A2
330
49D
100
AcDbEntity
  8
寸法
  6
CONTINUOUS
 62
     3
100
AcDbLine
 10
946.5000000000009
 20
1036.280152
 30
0.0
 11
946.5000000000009
 21
816.280152
 31
0.0
  0
INSERT
  5
4A3
330
49D
100
AcDbEntity
  8
寸法
 62
     3
100
AcDbBlockReference
  2
EX_NORM
 10
946.5000000000009
 20
1051.280152
 30
0.0
 41
15.0
 42
15.0
 43
15.0
 50
90.0
  0
INSERT
  5
4A4
330
49D
100
AcDbEntity
  8
寸法
 62
     3
100
AcDbBlockReference
  2
EX_NORM
 10
946.5000000000009
 20
801.280152
 30
0.0
 41
15.0
 42
15.0
 43
15.0
 50
270.0
  0
MTEXT
  5
4A5
330
49D
100
AcDbEntity
  8
寸法
 62
     2
100
AcDbMText
 10
934.0000000000009
 20
926.280152
 30
0.0
 40
20.0
 41
0.0
 71
     5
 72
     1
  1
250
  7
EXCADDIM1
 11
0.0
 21
1.0
 31
0.0
  0
POINT
  5
4A6
330
49D
100
AcDbEntity
  8
DEFPOINTS
 62
     0
100
AcDbPoint
 10
1159.000002000001
 20
1051.280152
 30
0.0
  0
POINT
  5
4A7
330
49D
100
AcDbEntity
  8
DEFPOINTS
 62
     0
100
AcDbPoint
 10
1158.000000000001
 20
801.280152
 30
0.0
  0
POINT
  5
4A8
330
49D
100
AcDbEntity
  8
DEFPOINTS
 62
     0
100
AcDbPoint
 10
946.5000000000009
 20
801.280152
 30
0.0
  0
ENDBLK
  5
49F
330
49D
100
AcDbEntity
  8
0
100
AcDbBlockEnd
  0
BLOCK
  5
4CC
330
4CB
100
AcDbEntity
  8
0
100
AcDbBlockBegin
  2
*D32
 70
     1
 10
0.0
 20
0.0
 30
0.0
  3
*D32
  1

  0
LINE
  5
4CE
330
4CB
100
AcDbEntity
  8
詳細図
  6
CONTINUOUS
 62
     3
100
AcDbLine
 10
1797.250000000002
 20
567.5535879999961
 30
0.0
 11
1797.250000000002
 21
657.5535879999998
 31
0.0
  0
LINE
  5
4CF
330
4CB
100
AcDbEntity
  8
詳細図
  6
CONTINUOUS
 62
     3
100
AcDbLine
 10
1899.750000000002
 20
567.5535879999961
 30
0.0
 11
1899.750000000002
 21
657.5535879999998
 31
0.0
  0
LINE
  5
4D0
330
4CB
100
AcDbEntity
  8
詳細図
  6
CONTINUOUS
 62
     3
100
AcDbLine
 10
1812.250000000002
 20
652.5535879999998
 30
0.0
 11
1884.750000000002
 21
652.5535879999998
 31
0.0
  0
INSERT
  5
4D1
330
4CB
100
AcDbEntity
  8
詳細図
 62
     3
100
AcDbBlockReference
  2
EX_NORM
 10
1797.250000000002
 20
652.5535879999998
 30
0.0
 41
15.0
 42
15.0
 43
15.0
 50
180.0
  0
INSERT
  5
4D2
330
4CB
100
AcDbEntity
  8
詳細図
 62
     3
100
AcDbBlockReference
  2
EX_NORM
 10
1899.750000000002
 20
652.5535879999998
 30
0.0
 41
15.0
 42
15.0
 43
15.0
  0
MTEXT
  5
4D3
330
4CB
100
AcDbEntity
  8
詳細図
 62
     2
100
AcDbMText
 10
1848.500000000002
 20
664.0535880596044
 30
0.0
 40
20.0
 41
0.0
 71
     5
 72
     1
  1
%%c41
  7
EXCADDIM1
  0
POINT
  5
4D4
330
4CB
100
AcDbEntity
  8
DEFPOINTS
 62
     0
100
AcDbPoint
 10
1797.250000000002
 20
565.0535879999961
 30
0.0
  0
POINT
  5
4D5
330
4CB
100
AcDbEntity
  8
DEFPOINTS
 62
     0
100
AcDbPoint
 10
1899.750000000002
 20
565.0535879999961
 30
0.0
  0
POINT
  5
4D6
330
4CB
100
AcDbEntity
  8
DEFPOINTS
 62
     0
100
AcDbPoint
 10
1899.750000000002
 20
652.5535879999998
 30
0.0
  0
ENDBLK
  5
4CD
330
4CB
100
AcDbEntity
  8
0
100
AcDbBlockEnd
  0
BLOCK
  5
4D9
330
4D8
100
AcDbEntity
  8
0
100
AcDbBlockBegin
  2
*D33
 70
     1
 10
0.0
 20
0.0
 30
0.0
  3
*D33
  1

  0
LINE
  5
4DB
330
4D8
100
AcDbEntity
  8
詳細図
  6
CONTINUOUS
 62
     3
100
AcDbLine
 10
1794.750000000001
 20
475.0535879999998
 30
0.0
 11
1794.750000000001
 21
422.5535879999998
 31
0.0
  0
LINE
  5
4DC
330
4D8
100
AcDbEntity
  8
詳細図
  6
CONTINUOUS
 62
     3
100
AcDbLine
 10
1902.250000000001
 20
475.0535879999998
 30
0.0
 11
1902.250000000001
 21
422.5535879999998
 31
0.0
  0
LINE
  5
4DD
330
4D8
100
AcDbEntity
  8
詳細図
  6
CONTINUOUS
 62
     3
100
AcDbLine
 10
1809.750000000001
 20
427.5535879999998
 30
0.0
 11
1887.250000000001
 21
427.5535879999998
 31
0.0
  0
INSERT
  5
4DE
330
4D8
100
AcDbEntity
  8
詳細図
 62
     3
100
AcDbBlockReference
  2
EX_NORM
 10
1794.750000000001
 20
427.5535879999998
 30
0.0
 41
15.0
 42
15.0
 43
15.0
 50
180.0
  0
INSERT
  5
4DF
330
4D8
100
AcDbEntity
  8
詳細図
 62
     3
100
AcDbBlockReference
  2
EX_NORM
 10
1902.250000000001
 20
427.5535879999998
 30
0.0
 41
15.0
 42
15.0
 43
15.0
  0
MTEXT
  5
4E0
330
4D8
100
AcDbEntity
  8
詳細図
 62
     2
100
AcDbMText
 10
1848.500000000001
 20
439.0535880596045
 30
0.0
 40
20.0
 41
0.0
 71
     5
 72
     1
  1
%%c43
  7
EXCADDIM1
  0
POINT
  5
4E1
330
4D8
100
AcDbEntity
  8
DEFPOINTS
 62
     0
100
AcDbPoint
 10
1794.750000000001
 20
477.5535879999998
 30
0.0
  0
POINT
  5
4E2
330
4D8
100
AcDbEntity
  8
DEFPOINTS
 62
     0
100
AcDbPoint
 10
1902.250000000001
 20
477.5535879999998
 30
0.0
  0
POINT
  5
4E3
330
4D8
100
AcDbEntity
  8
DEFPOINTS
 62
     0
100
AcDbPoint
 10
1902.250000000001
 20
427.5535879999998
 30
0.0
  0
ENDBLK
  5
4DA
330
4D8
100
AcDbEntity
  8
0
100
AcDbBlockEnd
  0
BLOCK
  5
4E6
330
4E5
100
AcDbEntity
  8
0
100
AcDbBlockBegin
  2
*D34
 70
     1
 10
0.0
 20
0.0
 30
0.0
  3
*D34
  1

  0
LINE
  5
4E8
330
4E5
100
AcDbEntity
  8
詳細図
  6
CONTINUOUS
 62
     3
100
AcDbLine
 10
1973.216162952964
 20
638.5197509529642
 30
0.0
 11
2016.597228892454
 21
681.9008168924544
 31
0.0
  0
LINE
  5
4E9
330
4E5
100
AcDbEntity
  8
詳細図
  6
CONTINUOUS
 62
     3
100
AcDbLine
 10
1770.482233047035
 20
591.8213549529669
 30
0.0
 11
1680.402771107548
 21
681.9008168924538
 31
0.0
  0
ARC
  5
4EA
330
4E5
100
AcDbEntity
  8
詳細図
  6
CONTINUOUS
 62
     3
100
AcDbCircle
 10
1848.500000000002
 20
513.8035880000007
 30
0.0
 40
232.725380897042
100
AcDbArc
 50
48.69356158271341
 51
131.3064384172868
  0
INSERT
  5
4EB
330
4E5
100
AcDbEntity
  8
詳細図
 62
     3
100
AcDbBlockReference
  2
EX_NORM
 10
2013.061694986522
 20
678.3652829865217
 30
0.0
 41
15.0
 42
15.0
 43
15.0
 50
316.8467807913568
  0
INSERT
  5
4EC
330
4E5
100
AcDbEntity
  8
詳細図
 62
     3
100
AcDbBlockReference
  2
EX_NORM
 10
1683.938305013481
 20
678.3652829865212
 30
0.0
 41
15.0
 42
15.0
 43
15.0
 50
223.1532192086434
  0
MTEXT
  5
4ED
330
4E5
100
AcDbEntity
  8
詳細図
 62
     2
100
AcDbMText
 10
1848.499999999997
 20
758.0289689566473
 30
0.0
 40
20.0
 41
0.0
 71
     5
 72
     1
  1
90°
  7
EXCADDIM1
  0
POINT
  5
4EE
330
4E5
100
AcDbEntity
  8
DEFPOINTS
 62
     0
100
AcDbPoint
 10
1848.500000000002
 20
513.8035880000007
 30
0.0
  0
POINT
  5
4EF
330
4E5
100
AcDbEntity
  8
DEFPOINTS
 62
     0
100
AcDbPoint
 10
1971.448395999998
 20
636.7519839999977
 30
0.0
  0
POINT
  5
4F0
330
4E5
100
AcDbEntity
  8
DEFPOINTS
 62
     0
100
AcDbPoint
 10
1772.250000000002
 20
590.0535880000006
 30
0.0
  0
POINT
  5
4F1
330
4E5
100
AcDbEntity
  8
DEFPOINTS
 62
     0
100
AcDbPoint
 10
1908.733760854894
 20
738.5990438414142
 30
0.0
  0
ENDBLK
  5
4E7
330
4E5
100
AcDbEntity
  8
0
100
AcDbBlockEnd
  0
BLOCK
  5
4F4
330
4F3
100
AcDbEntity
  8
0
100
AcDbBlockBegin
  2
*D35
 70
     1
 10
0.0
 20
0.0
 30
0.0
  3
*D35
  1

  0
LINE
  5
4F6
330
4F3
100
AcDbEntity
  8
詳細図
  6
CONTINUOUS
 62
     3
100
AcDbLine
 10
1772.250000000002
 20
592.5535879999961
 30
0.0
 11
1772.250000000002
 21
707.5535879999998
 31
0.0
  0
LINE
  5
4F7
330
4F3
100
AcDbEntity
  8
詳細図
  6
CONTINUOUS
 62
     3
100
AcDbLine
 10
1924.749999999997
 20
592.5535879999961
 30
0.0
 11
1924.749999999997
 21
707.5535879999998
 31
0.0
  0
LINE
  5
4F8
330
4F3
100
AcDbEntity
  8
詳細図
  6
CONTINUOUS
 62
     3
100
AcDbLine
 10
1787.250000000002
 20
702.5535879999998
 30
0.0
 11
1909.749999999997
 21
702.5535879999998
 31
0.0
  0
INSERT
  5
4F9
330
4F3
100
AcDbEntity
  8
詳細図
 62
     3
100
AcDbBlockReference
  2
EX_NORM
 10
1772.250000000002
 20
702.5535879999998
 30
0.0
 41
15.0
 42
15.0
 43
15.0
 50
180.0
  0
INSERT
  5
4FA
330
4F3
100
AcDbEntity
  8
詳細図
 62
     3
100
AcDbBlockReference
  2
EX_NORM
 10
1924.749999999997
 20
702.5535879999998
 30
0.0
 41
15.0
 42
15.0
 43
15.0
  0
MTEXT
  5
4FB
330
4F3
100
AcDbEntity
  8
詳細図
 62
     2
100
AcDbMText
 10
1848.499999999999
 20
714.0535880596044
 30
0.0
 40
20.0
 41
0.0
 71
     5
 72
     1
  1
%%c61
  7
EXCADDIM1
  0
POINT
  5
4FC
330
4F3
100
AcDbEntity
  8
DEFPOINTS
 62
     0
100
AcDbPoint
 10
1772.250000000002
 20
590.0535879999961
 30
0.0
  0
POINT
  5
4FD
330
4F3
100
AcDbEntity
  8
DEFPOINTS
 62
     0
100
AcDbPoint
 10
1924.749999999997
 20
590.0535879999961
 30
0.0
  0
POINT
  5
4FE
330
4F3
100
AcDbEntity
  8
DEFPOINTS
 62
     0
100
AcDbPoint
 10
1924.749999999997
 20
702.5535879999998
 30
0.0
  0
ENDBLK
  5
4F5
330
4F3
100
AcDbEntity
  8
0
100
AcDbBlockEnd
  0
BLOCK
  5
501
330
500
100
AcDbEntity
  8
0
100
AcDbBlockBegin
  2
*D36
 70
     1
 10
0.0
 20
0.0
 30
0.0
  3
*D36
  1

  0
LINE
  5
503
330
500
100
AcDbEntity
  8
詳細図
  6
CONTINUOUS
 62
     3
100
AcDbLine
 10
1769.750000000001
 20
590.0535879999998
 30
0.0
 11
1695.000002000001
 21
590.0535879999998
 31
0.0
  0
LINE
  5
504
330
500
100
AcDbEntity
  8
詳細図
  6
CONTINUOUS
 62
     3
100
AcDbLine
 10
1766.591427391001
 20
477.5535879999998
 30
0.0
 11
1695.000002000001
 21
477.5535879999998
 31
0.0
  0
LINE
  5
505
330
500
100
AcDbEntity
  8
詳細図
  6
CONTINUOUS
 62
     3
100
AcDbLine
 10
1700.000002000001
 20
575.0535879999998
 30
0.0
 11
1700.000002000001
 21
492.5535879999998
 31
0.0
  0
INSERT
  5
506
330
500
100
AcDbEntity
  8
詳細図
 62
     3
100
AcDbBlockReference
  2
EX_NORM
 10
1700.000002000001
 20
590.0535879999998
 30
0.0
 41
15.0
 42
15.0
 43
15.0
 50
90.0
  0
INSERT
  5
507
330
500
100
AcDbEntity
  8
詳細図
 62
     3
100
AcDbBlockReference
  2
EX_NORM
 10
1700.000002000001
 20
477.5535879999998
 30
0.0
 41
15.0
 42
15.0
 43
15.0
 50
270.0
  0
MTEXT
  5
508
330
500
100
AcDbEntity
  8
詳細図
 62
     2
100
AcDbMText
 10
1688.500001940396
 20
533.8035879999998
 30
0.0
 40
20.0
 41
0.0
 71
     5
 72
     1
  1
45
  7
EXCADDIM1
 11
0.0
 21
1.0
 31
0.0
  0
POINT
  5
509
330
500
100
AcDbEntity
  8
DEFPOINTS
 62
     0
100
AcDbPoint
 10
1772.250000000001
 20
590.0535879999998
 30
0.0
  0
POINT
  5
50A
330
500
100
AcDbEntity
  8
DEFPOINTS
 62
     0
100
AcDbPoint
 10
1769.091427391001
 20
477.5535879999998
 30
0.0
  0
POINT
  5
50B
330
500
100
AcDbEntity
  8
DEFPOINTS
 62
     0
100
AcDbPoint
 10
1700.000002000001
 20
477.5535879999998
 30
0.0
  0
ENDBLK
  5
502
330
500
100
AcDbEntity
  8
0
100
AcDbBlockEnd
  0
ENDSEC
  0
SECTION
  2
ENTITIES
  0
LINE
  5
A8
330
1F
100
AcDbEntity
  8
図枠
  6
CONTINUOUS
 62
     7
100
AcDbLine
 10
60.49999999999999
 20
747.5
 30
0.0
 11
130.0
 21
747.5
 31
0.0
  0
LINE
  5
A9
330
1F
100
AcDbEntity
  8
図枠
  6
CONTINUOUS
 62
     7
100
AcDbLine
 10
130.0
 20
55.0
 30
0.0
 11
2055.0
 21
55.0
 31
0.0
  0
LINE
  5
AA
330
1F
100
AcDbEntity
  8
図枠
  6
CONTINUOUS
 62
     7
100
AcDbLine
 10
2055.0
 20
55.0
 30
0.0
 11
2055.0
 21
1440.0
 31
0.0
  0
LINE
  5
AB
330
1F
100
AcDbEntity
  8
図枠
  6
CONTINUOUS
 62
     7
100
AcDbLine
 10
130.0
 20
55.0
 30
0.0
 11
130.0
 21
1440.0
 31
0.0
  0
LINE
  5
AC
330
1F
100
AcDbEntity
  8
図枠
  6
CONTINUOUS
 62
     7
100
AcDbLine
 10
130.0
 20
1440.0
 30
0.0
 11
2055.0
 21
1440.0
 31
0.0
  0
LINE
  5
AD
330
1F
100
AcDbEntity
  8
図枠
  6
CONTINUOUS
 62
     7
100
AcDbLine
 10
2085.0
 20
747.5
 30
0.0
 11
2055.0
 21
747.5
 31
0.0
  0
TEXT
  5
AF
330
1F
100
AcDbEntity
  8
図枠
  6
CONTINUOUS
 62
     2
100
AcDbText
 10
1497.5
 20
67.25000000001842
 30
0.0
 40
16.875
  1
ジャニス工業株式会社
 41
1.025641025641026
  7
EXCADTTF1
 72
     5
 11
1722.5
 21
67.25000000001842
 31
0.0
100
AcDbText
  0
LINE
  5
B0
330
1F
100
AcDbEntity
  8
図枠
  6
CONTINUOUS
 62
     3
100
AcDbLine
 10
1416.442757866625
 20
62.41450000002033
 30
0.0
 11
1415.825132866625
 21
64.29437500001995
 31
0.0
  0
ARC
  5
B1
330
1F
100
AcDbEntity
  8
図枠
  6
CONTINUOUS
 62
     3
100
AcDbCircle
 10
1434.045766645775
 20
72.46937942989234
 30
0.0
 40
3.93096173563145
100
AcDbArc
 50
185.9586126338423
 51
224.0091989319851
  0
ARC
  5
B2
330
1F
100
AcDbEntity
  8
図枠
  6
CONTINUOUS
 62
     3
100
AcDbCircle
 10
1434.453750928501
 20
72.65656397863722
 30
0.0
 40
4.358546862943345
100
AcDbArc
 50
164.8589457925043
 51
187.8495628504515
  0
ARC
  5
B3
330
1F
100
AcDbEntity
  8
図枠
  6
CONTINUOUS
 62
     3
100
AcDbCircle
 10
1433.698618951509
 20
73.08694497629062
 30
0.0
 40
3.52397685278961
100
AcDbArc
 50
129.8344892359074
 51
168.408944702463
  0
ARC
  5
B4
330
1F
100
AcDbEntity
  8
図枠
  6
CONTINUOUS
 62
     3
100
AcDbCircle
 10
1384.071978261354
 20
71.13576644738941
 30
0.0
 40
34.83507524900299
100
AcDbArc
 50
353.1274757312911
 51
357.106204490141
  0
ARC
  5
B5
330
1F
100
AcDbEntity
  8
図枠
  6
CONTINUOUS
 62
     3
100
AcDbCircle
 10
1415.046369324802
 20
67.93900427489689
 30
0.0
 40
3.738845927653165
100
AcDbArc
 50
314.5923914748343
 51
344.9374073189121
  0
ARC
  5
B6
330
1F
100
AcDbEntity
  8
図枠
  6
CONTINUOUS
 62
     3
100
AcDbCircle
 10
1413.917364484273
 20
70.10662132355037
 30
0.0
 40
6.117335001950124
100
AcDbArc
 50
288.1715191042994
 51
307.8537826235702
  0
ARC
  5
B7
330
1F
100
AcDbEntity
  8
図枠
  6
CONTINUOUS
 62
     3
100
AcDbCircle
 10
1415.047787493333
 20
73.62978599702046
 30
0.0
 40
11.30170705410681
100
AcDbArc
 50
277.0901027239694
 51
290.9134154817052
  0
ARC
  5
B8
330
1F
100
AcDbEntity
  8
図枠
  6
CONTINUOUS
 62
     3
100
AcDbCircle
 10
1416.694866394275
 20
71.23780428259238
 30
0.0
 40
8.506973440980579
100
AcDbArc
 50
286.2966123578924
 51
329.9732232838384
  0
ARC
  5
B9
330
1F
100
AcDbEntity
  8
図枠
  6
CONTINUOUS
 62
     3
100
AcDbCircle
 10
1413.744968089531
 20
71.75019619525528
 30
0.0
 40
11.36437631557155
100
AcDbArc
 50
335.1860595856126
 51
1.308075913059364
  0
ARC
  5
BA
330
1F
100
AcDbEntity
  8
図枠
  6
CONTINUOUS
 62
     3
100
AcDbCircle
 10
1437.134266206276
 20
76.576992797593
 30
0.0
 40
8.83341757663532
100
AcDbArc
 50
88.77000393305748
 51
128.9068631829041
  0
ARC
  5
BB
330
1F
100
AcDbEntity
  8
図枠
  6
CONTINUOUS
 62
     3
100
AcDbCircle
 10
1437.535313630139
 20
80.27820964991633
 30
0.0
 40
5.134520375572949
100
AcDbArc
 50
4.148222840814578
 51
92.36000944257229
  0
ARC
  5
BC
330
1F
100
AcDbEntity
  8
図枠
  6
CONTINUOUS
 62
     3
100
AcDbCircle
 10
1669.325067919355
 20
73.73482054783608
 30
0.0
 40
226.774132793283
100
AcDbArc
 50
178.2526643324597
 51
180.6439560401927
  0
ARC
  5
BD
330
1F
100
AcDbEntity
  8
図枠
  6
CONTINUOUS
 62
     3
100
AcDbCircle
 10
1444.091199472303
 20
71.18377479027231
 30
0.0
 40
1.525943415536945
100
AcDbArc
 50
179.9117548191402
 51
236.1065985968875
  0
ARC
  5
BE
330
1F
100
AcDbEntity
  8
図枠
  6
CONTINUOUS
 62
     3
100
AcDbCircle
 10
1443.912103922898
 20
71.27168778830537
 30
0.0
 40
1.5120242956824
100
AcDbArc
 50
243.6191685566534
 51
297.5097757939604
  0
LINE
  5
BF
330
1F
100
AcDbEntity
  8
図枠
  6
CONTINUOUS
 62
     3
100
AcDbLine
 10
1444.610507866626
 20
69.14425000002097
 30
0.0
 11
1444.610507866626
 21
69.93062500002111
 31
0.0
  0
LINE
  5
C0
330
1F
100
AcDbEntity
  8
図枠
  6
CONTINUOUS
 62
     3
100
AcDbLine
 10
1441.954382866624
 20
68.81687500002045
 30
0.0
 11
1443.041132866627
 21
68.81687500002045
 31
0.0
  0
ARC
  5
C1
330
1F
100
AcDbEntity
  8
図枠
  6
CONTINUOUS
 62
     3
100
AcDbCircle
 10
1442.949794597279
 20
73.09185399240278
 30
0.0
 40
4.28270310010447
100
AcDbArc
 50
271.2220539293247
 51
292.8159509797657
  0
ARC
  5
C2
330
1F
100
AcDbEntity
  8
図枠
  6
CONTINUOUS
 62
     3
100
AcDbCircle
 10
1442.146886754073
 20
70.93700117768208
 30
0.0
 40
2.12884775310199
100
AcDbArc
 50
217.4081478714987
 51
264.8118660441352
  0
ARC
  5
C3
330
1F
100
AcDbEntity
  8
図枠
  6
CONTINUOUS
 62
     3
100
AcDbCircle
 10
1442.415778027916
 20
71.09325806453626
 30
0.0
 40
2.43767567004861
100
AcDbArc
 50
187.1167640402293
 51
216.4860549324759
  0
ARC
  5
C4
330
1F
100
AcDbEntity
  8
図枠
  6
CONTINUOUS
 62
     3
100
AcDbCircle
 10
1434.830652293351
 20
75.24532966409197
 30
0.0
 40
6.821199600519659
100
AcDbArc
 50
275.2158792069687
 51
319.2336424873508
  0
LINE
  5
C5
330
1F
100
AcDbEntity
  8
図枠
  6
CONTINUOUS
 62
     3
100
AcDbLine
 10
1434.080507866626
 20
68.452375000021
 30
0.0
 11
1435.450757866627
 21
68.452375000021
 31
0.0
  0
ARC
  5
C6
330
1F
100
AcDbEntity
  8
図枠
  6
CONTINUOUS
 62
     3
100
AcDbCircle
 10
1434.146406536838
 20
71.6168030706217
 30
0.0
 40
3.16511416045893
100
AcDbArc
 50
252.3384873625195
 51
268.8069976857594
  0
ARC
  5
C7
330
1F
100
AcDbEntity
  8
図枠
  6
CONTINUOUS
 62
     3
100
AcDbCircle
 10
1434.228147651845
 20
72.67418358988039
 30
0.0
 40
4.204478288781829
100
AcDbArc
 50
224.289750990009
 51
255.650593878675
  0
ARC
  5
C8
330
1F
100
AcDbEntity
  8
図枠
  6
CONTINUOUS
 62
     3
100
AcDbCircle
 10
1435.548506933789
 20
70.74905242539216
 30
0.0
 40
6.504683084924599
100
AcDbArc
 50
102.0988446293847
 51
129.1556705448828
  0
ARC
  5
C9
330
1F
100
AcDbEntity
  8
図枠
  6
CONTINUOUS
 62
     3
100
AcDbCircle
 10
1424.42650499929
 20
139.8287298400112
 30
0.0
 40
63.47412046851909
100
AcDbArc
 50
278.8438342053765
 51
282.6649181367123
  0
ARC
  5
CA
330
1F
100
AcDbEntity
  8
図枠
  6
CONTINUOUS
 62
     3
100
AcDbCircle
 10
1437.171652505546
 20
83.0889964856874
 30
0.0
 40
5.32056667636392
100
AcDbArc
 50
282.7195832898978
 51
295.6781112778072
  0
ARC
  5
CB
330
1F
100
AcDbEntity
  8
図枠
  6
CONTINUOUS
 62
     3
100
AcDbCircle
 10
1439.161547783668
 20
79.09419497646468
 30
0.0
 40
0.860294141140655
100
AcDbArc
 50
291.5204897073457
 51
349.3445900274032
  0
ARC
  5
CC
330
1F
100
AcDbEntity
  8
図枠
  6
CONTINUOUS
 62
     3
100
AcDbCircle
 10
1433.502693678328
 20
79.73012187000677
 30
0.0
 40
6.552718755094605
100
AcDbArc
 50
353.031525098659
 51
7.839947970678002
  0
ARC
  5
CD
330
1F
100
AcDbEntity
  8
図枠
  6
CONTINUOUS
 62
     3
100
AcDbCircle
 10
1436.464170640886
 20
80.40572265892138
 30
0.0
 40
3.53673269313001
100
AcDbArc
 50
3.537639967999723
 51
74.8013566619195
  0
ARC
  5
CE
330
1F
100
AcDbEntity
  8
図枠
  6
CONTINUOUS
 62
     3
100
AcDbCircle
 10
1436.239954789916
 20
78.73781987690222
 30
0.0
 40
5.209763673321155
100
AcDbArc
 50
77.23143261361733
 51
105.203415964315
  0
ARC
  5
CF
330
1F
100
AcDbEntity
  8
図枠
  6
CONTINUOUS
 62
     3
100
AcDbCircle
 10
1435.912680885151
 20
79.41313794414441
 30
0.0
 40
4.474405525883595
100
AcDbArc
 50
103.4267945469738
 51
150.3242613738014
  0
LINE
  5
D0
330
1F
100
AcDbEntity
  8
図枠
  6
CONTINUOUS
 62
     3
100
AcDbLine
 10
1431.586382866626
 20
83.45087500002023
 30
0.0
 11
1431.586382866626
 21
81.6283750000207
 31
0.0
  0
ARC
  5
D1
330
1F
100
AcDbEntity
  8
図枠
  6
CONTINUOUS
 62
     3
100
AcDbCircle
 10
1171.669276061466
 20
83.02849514319178
 30
0.0
 40
247.5700215199504
100
AcDbArc
 50
356.8390243485978
 51
2.971133813187157
  0
ARC
  5
D2
330
1F
100
AcDbEntity
  8
図枠
  6
CONTINUOUS
 62
     3
100
AcDbCircle
 10
1749.771265706717
 20
80.41664639879173
 30
0.0
 40
324.7737122341802
100
AcDbArc
 50
177.2695926307304
 51
181.4833117237825
  0
ARC
  5
D3
330
1F
100
AcDbEntity
  8
図枠
  6
CONTINUOUS
 62
     3
100
AcDbCircle
 10
1422.045410006114
 20
117.6395068773604
 30
0.0
 40
22.00379416745233
100
AcDbArc
 50
261.7986203004402
 51
278.6803384946416
  0
ARC
  5
D4
330
1F
100
AcDbEntity
  8
図枠
  6
CONTINUOUS
 62
     3
100
AcDbCircle
 10
1434.302804967687
 20
97.14369740927623
 30
0.0
 40
20.68203407347008
100
AcDbArc
 50
278.4088456599974
 51
286.1851416003179
  0
ARC
  5
D5
330
1F
100
AcDbEntity
  8
図枠
  6
CONTINUOUS
 62
     3
100
AcDbCircle
 10
1438.783032587887
 20
67.1845714846495
 30
0.0
 40
9.610328930776038
100
AcDbArc
 50
98.71271710191795
 51
115.2874718053602
  0
ARC
  5
D6
330
1F
100
AcDbEntity
  8
図枠
  6
CONTINUOUS
 62
     3
100
AcDbCircle
 10
1436.035093341893
 20
73.05900230360976
 30
0.0
 40
3.125097167285265
100
AcDbArc
 50
115.7403688633518
 51
172.5491744442197
  0
LINE
  5
D7
330
1F
100
AcDbEntity
  8
図枠
  6
CONTINUOUS
 62
     3
100
AcDbLine
 10
1432.936382866626
 20
73.46425000002114
 30
0.0
 11
1432.936382866626
 21
72.48550000002069
 31
0.0
  0
ARC
  5
D8
330
1F
100
AcDbEntity
  8
図枠
  6
CONTINUOUS
 62
     3
100
AcDbCircle
 10
1435.847982674438
 20
72.64169735614018
 30
0.0
 40
2.915786524234985
100
AcDbArc
 50
183.0707787095799
 51
263.4402016072436
  0
LINE
  5
D9
330
1F
100
AcDbEntity
  8
図枠
  6
CONTINUOUS
 62
     3
100
AcDbLine
 10
1435.514882866625
 20
69.74500000002081
 30
0.0
 11
1436.382257866625
 21
69.74500000002081
 31
0.0
  0
ARC
  5
DA
330
1F
100
AcDbEntity
  8
図枠
  6
CONTINUOUS
 62
     3
100
AcDbCircle
 10
1435.662234538297
 20
74.66045282775895
 30
0.0
 40
4.967908019989579
100
AcDbArc
 50
278.333510300037
 51
329.1221464187308
  0
ARC
  5
DB
330
1F
100
AcDbEntity
  8
図枠
  6
CONTINUOUS
 62
     3
100
AcDbCircle
 10
-10204.50771108868
 20
393.9318906306403
 30
0.0
 40
11648.88000630296
100
AcDbArc
 50
358.4169008257799
 51
358.4423418242109
  0
ARC
  5
DC
330
1F
100
AcDbEntity
  8
図枠
  6
CONTINUOUS
 62
     3
100
AcDbCircle
 10
1449.790439003466
 20
49.02209107683575
 30
0.0
 40
19.84454547209248
100
AcDbArc
 50
85.07099551674682
 51
93.91830029343257
  0
ARC
  5
DD
330
1F
100
AcDbEntity
  8
図枠
  6
CONTINUOUS
 62
     3
100
AcDbCircle
 10
1488.204428947553
 20
73.22613570174099
 30
0.0
 40
36.97560496557464
100
AcDbArc
 50
179.8977458165988
 51
186.8855675734268
  0
ARC
  5
DE
330
1F
100
AcDbEntity
  8
図枠
  6
CONTINUOUS
 62
     3
100
AcDbCircle
 10
1456.783086118321
 20
78.80838960815367
 30
0.0
 40
5.541994781590654
100
AcDbArc
 50
134.978747623334
 51
181.2369872983278
  0
ARC
  5
DF
330
1F
100
AcDbEntity
  8
図枠
  6
CONTINUOUS
 62
     3
100
AcDbCircle
 10
1455.505007260278
 20
79.38694200818418
 30
0.0
 40
4.258225285235015
100
AcDbArc
 50
42.91644474042973
 51
128.3015542351339
  0
ARC
  5
E0
330
1F
100
AcDbEntity
  8
図枠
  6
CONTINUOUS
 62
     3
100
AcDbCircle
 10
1453.972370228428
 20
79.28438529232835
 30
0.0
 40
5.53586253872077
100
AcDbArc
 50
359.2495022237246
 51
32.84055016678344
  0
ARC
  5
E1
330
1F
100
AcDbEntity
  8
図枠
  6
CONTINUOUS
 62
     3
100
AcDbCircle
 10
1377.058668932488
 20
75.15619524537442
 30
0.0
 40
82.5487783334294
100
AcDbArc
 50
355.5862454873796
 51
2.816115806820253
  0
ARC
  5
E2
330
1F
100
AcDbEntity
  8
図枠
  6
CONTINUOUS
 62
     3
100
AcDbCircle
 10
1460.788570366626
 20
53.06939144738976
 30
0.0
 40
15.79846626063372
100
AcDbArc
 50
84.82155189294122
 51
95.17844810705877
  0
ARC
  5
E3
330
1F
100
AcDbEntity
  8
図枠
  6
CONTINUOUS
 62
     3
100
AcDbCircle
 10
1543.82881683085
 20
72.72199708820722
 30
0.0
 40
81.70832899269105
100
AcDbArc
 50
176.2131780319489
 51
182.7488833337936
  0
ARC
  5
E4
330
1F
100
AcDbEntity
  8
図枠
  6
CONTINUOUS
 62
     3
100
AcDbCircle
 10
1431.595680060504
 20
78.93441709185709
 30
0.0
 40
30.71404543933479
100
AcDbArc
 50
358.4775281223095
 51
2.117232414210007
  0
ARC
  5
E5
330
1F
100
AcDbEntity
  8
図枠
  6
CONTINUOUS
 62
     3
100
AcDbCircle
 10
1456.395275767242
 20
80.08292547382666
 30
0.0
 40
5.893498257302954
100
AcDbArc
 50
359.8658335690532
 51
34.493634294113
  0
ARC
  5
E6
330
1F
100
AcDbEntity
  8
図枠
  6
CONTINUOUS
 62
     3
100
AcDbCircle
 10
1457.386202870689
 20
80.72886159114887
 30
0.0
 40
4.7110718777777
100
AcDbArc
 50
34.84393737091698
 51
92.52070654231275
  0
ARC
  5
E7
330
1F
100
AcDbEntity
  8
図枠
  6
CONTINUOUS
 62
     3
100
AcDbCircle
 10
1456.877053450127
 20
78.73242779218003
 30
0.0
 40
6.709744983286299
100
AcDbArc
 50
87.42068310381003
 51
147.4361518966857
  0
ARC
  5
E8
330
1F
100
AcDbEntity
  8
図枠
  6
CONTINUOUS
 62
     3
100
AcDbCircle
 10
1470.028736369808
 20
82.80791242040323
 30
0.0
 40
18.81232750229091
100
AcDbArc
 50
172.9875214416311
 51
181.4134392789642
  0
ARC
  5
E9
330
1F
100
AcDbEntity
  8
図枠
  6
CONTINUOUS
 62
     3
100
AcDbCircle
 10
1449.854142493063
 20
90.87897234197499
 30
0.0
 40
5.966746792730079
100
AcDbArc
 50
255.934199417721
 51
284.5896440601896
  0
ARC
  5
EA
330
1F
100
AcDbEntity
  8
図枠
  6
CONTINUOUS
 62
     3
100
AcDbCircle
 10
1346.558849433579
 20
76.7655312848376
 30
0.0
 40
102.1848903065536
100
AcDbArc
 50
355.5405243117485
 51
4.673398698656258
  0
LINE
  5
EB
330
1F
100
AcDbEntity
  8
図枠
  6
CONTINUOUS
 62
     3
100
AcDbLine
 10
1451.242382866626
 20
78.68875000002163
 30
0.0
 11
1451.242382866626
 21
73.29212500002086
 31
0.0
  0
CIRCLE
  5
EC
330
1F
100
AcDbEntity
  8
図枠
  6
CONTINUOUS
 62
     3
100
AcDbCircle
 10
1469.642757019169
 20
91.06040169493667
 30
0.0
 40
1.786167233384945
  0
ARC
  5
ED
330
1F
100
AcDbEntity
  8
図枠
  6
CONTINUOUS
 62
     3
100
AcDbCircle
 10
1469.572803801388
 20
91.53525206915447
 30
0.0
 40
6.596142744201035
100
AcDbArc
 50
256.6209501743442
 51
283.998457625572
  0
ARC
  5
EE
330
1F
100
AcDbEntity
  8
図枠
  6
CONTINUOUS
 62
     3
100
AcDbCircle
 10
1469.707204468568
 20
36.1676492718675
 30
0.0
 40
32.66429742625546
100
AcDbArc
 50
87.46575055044701
 51
92.90832285102206
  0
ARC
  5
EF
330
1F
100
AcDbEntity
  8
図枠
  6
CONTINUOUS
 62
     3
100
AcDbCircle
 10
1572.62702358978
 20
76.86267863821968
 30
0.0
 40
101.79531952945
100
AcDbArc
 50
175.3387608397566
 51
184.5428594926176
  0
ARC
  5
F0
330
1F
100
AcDbEntity
  8
図枠
  6
CONTINUOUS
 62
     3
100
AcDbCircle
 10
1357.345028768194
 20
76.93111798956238
 30
0.0
 40
111.0038042517906
100
AcDbArc
 50
355.7940354718673
 51
4.22965025723432
  0
ARC
  5
F1
330
1F
100
AcDbEntity
  8
図枠
  6
CONTINUOUS
 62
     3
100
AcDbCircle
 10
1642.322226616408
 20
490.2834999994604
 30
0.0
 40
435.1400114481578
100
AcDbArc
 50
248.6422112053103
 51
248.8567777804232
  0
ARC
  5
F2
330
1F
100
AcDbEntity
  8
図枠
  6
CONTINUOUS
 62
     3
100
AcDbCircle
 10
1481.927141423029
 20
80.35178026944777
 30
0.0
 40
5.054539337960785
100
AcDbArc
 50
67.6615195708748
 51
88.69073168448863
  0
ARC
  5
F3
330
1F
100
AcDbEntity
  8
図枠
  6
CONTINUOUS
 62
     3
100
AcDbCircle
 10
1481.385552214196
 20
78.81758324813063
 30
0.0
 40
6.59987432683763
100
AcDbArc
 50
92.38301574576569
 51
114.9635286746425
  0
ARC
  5
F4
330
1F
100
AcDbEntity
  8
図枠
  6
CONTINUOUS
 62
     3
100
AcDbCircle
 10
1480.898174839981
 20
80.36909290634185
 30
0.0
 40
4.99216280154595
100
AcDbArc
 50
117.4083995939975
 51
176.1964688215695
  0
ARC
  5
F5
330
1F
100
AcDbEntity
  8
図枠
  6
CONTINUOUS
 62
     3
100
AcDbCircle
 10
1479.2799628963
 20
79.87826680502735
 30
0.0
 40
3.346863029528055
100
AcDbArc
 50
181.2393899443581
 51
226.594292133245
  0
ARC
  5
F6
330
1F
100
AcDbEntity
  8
図枠
  6
CONTINUOUS
 62
     3
100
AcDbCircle
 10
1481.263407289975
 20
81.88844890158407
 30
0.0
 40
6.170504753897835
100
AcDbArc
 50
226.0402388947529
 51
253.1776672993011
  0
ARC
  5
F7
330
1F
100
AcDbEntity
  8
図枠
  6
CONTINUOUS
 62
     3
100
AcDbCircle
 10
1476.085744591521
 20
61.74148543901083
 30
0.0
 40
14.63889206986377
100
AcDbArc
 50
63.4905020373356
 51
76.60259219849556
  0
ARC
  5
F8
330
1F
100
AcDbEntity
  8
図枠
  6
CONTINUOUS
 62
     3
100
AcDbCircle
 10
1481.654002292684
 20
72.76093962290929
 30
0.0
 40
2.29355076109507
100
AcDbArc
 50
6.538924194159544
 51
65.09756080694014
  0
ARC
  5
F9
330
1F
100
AcDbEntity
  8
図枠
  6
CONTINUOUS
 62
     3
100
AcDbCircle
 10
1481.017888872328
 20
72.61874653910809
 30
0.0
 40
2.97197745938338
100
AcDbArc
 50
270.8867385422407
 51
352.792538205668
  0
ARC
  5
FA
330
1F
100
AcDbEntity
  8
図枠
  6
CONTINUOUS
 62
     3
100
AcDbCircle
 10
1480.818052161744
 20
74.10156034011948
 30
0.0
 40
4.490020177312635
100
AcDbArc
 50
207.768987946554
 51
262.7817283832039
  0
ARC
  5
FB
330
1F
100
AcDbEntity
  8
図枠
  6
CONTINUOUS
 62
     3
100
AcDbCircle
 10
1479.896502729639
 20
77.17645719180155
 30
0.0
 40
8.766381578900099
100
AcDbArc
 50
241.882957608718
 51
265.9354096935785
  0
ARC
  5
FC
330
1F
100
AcDbEntity
  8
図枠
  6
CONTINUOUS
 62
     3
100
AcDbCircle
 10
1480.733194323379
 20
74.10325170715282
 30
0.0
 40
5.672575290903224
100
AcDbArc
 50
271.2948770866745
 51
348.6654156292864
  0
ARC
  5
FD
330
1F
100
AcDbEntity
  8
図枠
  6
CONTINUOUS
 62
     3
100
AcDbCircle
 10
1482.602286064598
 20
74.02949127782904
 30
0.0
 40
3.73122537864803
100
AcDbArc
 50
6.15426276317696
 51
76.17509904255466
  0
ARC
  5
FE
330
1F
100
AcDbEntity
  8
図枠
  6
CONTINUOUS
 62
     3
100
AcDbCircle
 10
1489.769233484603
 20
103.7365938764265
 30
0.0
 40
26.82822129258341
100
AcDbArc
 50
249.6420733479933
 51
256.4727051201885
  0
ARC
  5
FF
330
1F
100
AcDbEntity
  8
図枠
  6
CONTINUOUS
 62
     3
100
AcDbCircle
 10
1481.536067619372
 20
81.9255604395812
 30
0.0
 40
3.51781853668592
100
AcDbArc
 50
210.9501336849577
 51
251.77947298211
  0
ARC
  5
100
330
1F
100
AcDbEntity
  8
図枠
  6
CONTINUOUS
 62
     3
100
AcDbCircle
 10
1485.151570366631
 20
82.45978750002223
 30
0.0
 40
7.034259686467
100
AcDbArc
 50
193.4375782160214
 51
199.4596380380589
  0
ARC
  5
101
330
1F
100
AcDbEntity
  8
図枠
  6
CONTINUOUS
 62
     3
100
AcDbCircle
 10
1481.017548243028
 20
81.40237808664665
 30
0.0
 40
2.678069655519655
100
AcDbArc
 50
92.11404364449312
 51
173.417504702609
  0
ARC
  5
102
330
1F
100
AcDbEntity
  8
図枠
  6
CONTINUOUS
 62
     3
100
AcDbCircle
 10
1481.207366956376
 20
81.04009016583404
 30
0.0
 40
3.062932150511265
100
AcDbArc
 50
17.92452211681314
 51
85.16543319077456
  0
LINE
  5
103
330
1F
100
AcDbEntity
  8
図枠
  6
CONTINUOUS
 62
     3
100
AcDbLine
 10
1482.042632866625
 20
85.40500000002112
 30
0.0
 11
1481.111132866626
 21
85.40500000002112
 31
0.0
  0
LINE
  5
104
330
1F
100
AcDbEntity
  8
図枠
  6
CONTINUOUS
 62
     3
100
AcDbLine
 10
1480.253882866626
 20
69.64712500002065
 30
0.0
 11
1481.063882866627
 21
69.64712500002065
 31
0.0
  0
LINE
  5
105
330
1F
100
AcDbEntity
  8
図枠
  6
CONTINUOUS
 62
     3
100
AcDbLine
 10
1476.845132866627
 20
72.00962500002106
 30
0.0
 11
1476.406382866625
 21
72.00962500002106
 31
0.0
  0
LINE
  5
106
330
1F
100
AcDbEntity
  8
図枠
  6
CONTINUOUS
 62
     3
100
AcDbLine
 10
1479.275132866625
 20
68.43212500002096
 30
0.0
 11
1480.861382866626
 21
68.43212500002096
 31
0.0
  0
HATCH
  5
107
330
1F
100
AcDbEntity
  8
図枠
  6
CONTINUOUS
 62
     3
100
AcDbHatch
 10
0.0
 20
0.0
 30
0.0
210
0.0
220
0.0
230
1.0
  2
SOLID
 70
     1
 71
     1
 91
        1
 92
        3
 72
     1
 73
     1
 93
       10
 10
1418.862632866625
 20
69.37712500002029
 42
-0.017362223501556
 10
1418.906507866625
 20
95.86075000002025
 42
-0.0267627618865285
 10
1418.906507866626
 20
95.86075000002069
 42
0.0737939047395297
 10
1425.366257866625
 20
95.88775000002059
 42
0.0183878899657109
 10
1425.106382866626
 20
72.00962500002085
 42
-0.1144749489451909
 10
1424.060132866626
 20
66.9808750000211
 42
-0.1929163439413163
 10
1419.082007866626
 20
63.07262500002139
 42
-0.0603888289562337
 10
1416.442757866625
 20
62.41450000002033
 42
0.0
 10
1415.825132866625
 20
64.29437500002115
 42
0.0860918333465722
 10
1417.671257866626
 20
65.27650000002146
 42
0.1331843103855141
 97
        0
 75
     0
 76
     1
 98
        1
 10
0.0
 20
0.0
  0
HATCH
  5
108
330
1F
100
AcDbEntity
  8
図枠
  6
CONTINUOUS
 62
     3
100
AcDbHatch
 10
0.0
 20
0.0
 30
0.0
210
0.0
220
0.0
230
1.0
  2
SOLID
 70
     1
 71
     1
 91
        1
 92
        3
 72
     1
 73
     1
 93
       16
 10
1448.434382866625
 20
68.82025000002058
 42
-0.0386228372648426
 10
1448.404007866624
 20
85.09112500002063
 42
-0.0398707891902887
 10
1451.357132866626
 20
85.10462500002102
 42
-0.1256886216044368
 10
1451.222132866626
 20
82.34387500002094
 42
-0.0367815758121429
 10
1451.222132866625
 20
82.34387500002026
 42
-0.268021535028829
 10
1457.179007866625
 20
85.43537500002066
 42
-0.2571134422124888
 10
1461.252632866626
 20
83.42050000002081
 42
-0.1522526366014298
 10
1462.288757866626
 20
80.06912500002034
 42
-0.0158825412051521
 10
1462.214507866626
 20
68.8033750000209
 42
-0.0285251271418421
 10
1459.362632866626
 20
68.80337500002118
 42
-0.0452212723224612
 10
1459.507757866626
 20
79.21187500002162
 42
-0.0315567291532142
 10
1458.623507866627
 20
82.28650000002102
 42
-0.1476272403790709
 10
1452.865757866627
 20
82.72862500002
 42
-0.3908144705745794
 10
1451.242382866626
 20
78.6887500000211
 42
-0.2046259928850854
 10
1451.242382866626
 20
78.68875000002163
 42
0.0
 10
1451.495507866627
 20
68.79325000002069
 42
-0.0304995761723369
 97
        0
 75
     0
 76
     1
 98
        1
 10
0.0
 20
0.0
  0
HATCH
  5
109
330
1F
100
AcDbEntity
  8
図枠
  6
CONTINUOUS
 62
     3
100
AcDbHatch
 10
0.0
 20
0.0
 30
0.0
210
0.0
220
0.0
230
1.0
  2
SOLID
 70
     1
 71
     1
 91
        2
 92
        1
 93
        1
 72
     2
 10
1469.642757019169
 20
91.06040169493667
 40
1.786167233384942
 50
0.0
 51
360.0
 73
     1
 97
        0
 92
        3
 72
     1
 73
     1
 93
        3
 10
1468.046507866627
 20
85.11812500002091
 42
0.1200283885712921
 10
1471.151507866626
 20
68.80000000002046
 42
-0.0401820615762149
 10
1468.049882866626
 20
68.78987500002123
 42
-0.0237521668114666
 97
        0
 75
     0
 76
     1
 98
        1
 10
0.0
 20
0.0
  0
LINE
  5
10A
330
1F
100
AcDbEntity
  8
図枠
  6
CONTINUOUS
 62
     3
100
AcDbLine
 10
1431.586382866626
 20
81.6283750000207
 30
0.0
 11
1432.025132866627
 21
81.6283750000207
 31
0.0
  0
ARC
  5
10B
330
1F
100
AcDbEntity
  8
図枠
  6
CONTINUOUS
 62
     3
100
AcDbCircle
 10
1470.767206566047
 20
72.05761632950043
 30
0.0
 40
5.63976870039419
100
AcDbArc
 50
332.3987521421797
 51
359.5124385477118
  0
LINE
  5
10C
330
1F
100
AcDbEntity
  8
図枠
  6
CONTINUOUS
 62
     3
100
AcDbLine
 10
1483.932632866626
 20
73.02212500002156
 30
0.0
 11
1483.966382866627
 21
72.2458750000203
 31
0.0
  0
LINE
  5
10D
330
1F
100
AcDbEntity
  8
図枠
  6
CONTINUOUS
 62
     3
100
AcDbLine
 10
1486.312007866625
 20
74.42950000002043
 30
0.0
 11
1486.295132866625
 21
72.98837500002037
 31
0.0
  0
LINE
  5
10E
330
1F
100
AcDbEntity
  8
図枠
  6
CONTINUOUS
 62
     3
100
AcDbLine
 10
1478.357132866626
 20
81.70937500002083
 30
0.0
 11
1478.309882866626
 21
80.82512500002053
 31
0.0
  0
LINE
  5
10F
330
1F
100
AcDbEntity
  8
図枠
  6
CONTINUOUS
 62
     3
100
AcDbLine
 10
1475.917007866626
 20
80.70025000002033
 30
0.0
 11
1475.933882866625
 21
79.80587500003139
 31
0.0
  0
LINE
  5
110
330
1F
100
AcDbEntity
  8
図枠
  6
CONTINUOUS
 62
     3
100
AcDbLine
 10
1480.918757866625
 20
84.07862500002125
 30
0.0
 11
1481.465507866626
 21
84.09212500002127
 31
0.0
  0
LINE
  5
111
330
1F
100
AcDbEntity
  8
図枠
  6
CONTINUOUS
 62
     3
100
AcDbLine
 10
1484.121632866625
 20
81.98275000002127
 30
0.0
 11
1484.548546743367
 21
81.98275000002127
 31
0.0
  0
ARC
  5
112
330
1F
100
AcDbEntity
  8
図枠
  6
CONTINUOUS
 62
     3
100
AcDbCircle
 10
1493.921240534436
 20
80.21960022662483
 30
0.0
 40
9.537090018689154
100
AcDbArc
 50
153.7591918158489
 51
169.3462759801915
  0
HATCH
  5
113
330
1F
100
AcDbEntity
  8
図枠
  6
CONTINUOUS
 62
     3
100
AcDbHatch
 10
0.0
 20
0.0
 30
0.0
210
0.0
220
0.0
230
1.0
  2
SOLID
 70
     1
 71
     1
 91
        1
 92
        3
 72
     1
 73
     1
 93
       30
 10
1485.367007866626
 20
84.43637500002092
 42
-0.0009362235736497
 10
1485.367007866626
 20
84.43637500002038
 42
0.0681165430304653
 10
1484.548546743367
 20
81.98275000002127
 42
0.0
 10
1481.465507866626
 20
84.09212500002103
 42
-0.302112590907374
 10
1481.465507866626
 20
84.09212500002127
 42
0.0
 10
1478.357132866626
 20
81.70937500002097
 42
-0.3704245237568778
 10
1478.357132866626
 20
81.70937500002083
 42
0.0
 10
1478.519132866625
 20
80.11637500002038
 42
-0.0262822419456939
 10
1480.436132866625
 20
78.58412500002083
 42
-0.180060563604375
 10
1483.493882866625
 20
77.65262500002132
 42
-0.0298130817160724
 10
1483.493882866625
 20
77.65262500002058
 42
-0.3153987453686078
 10
1486.312007866625
 20
74.42950000002043
 42
0.0
 10
1486.295132866626
 20
72.98837500002082
 42
-0.3510306079065168
 10
1480.861382866626
 20
68.43212500002096
 42
0.0
 10
1479.275132866625
 20
68.43212500002056
 42
-0.1053356344842436
 10
1475.765132866625
 20
69.4446250000207
 42
0.1188608286962634
 10
1476.406382866625
 20
72.00962500002106
 42
0.0
 10
1480.253882866626
 20
69.64712500002072
 42
-0.2447573632916039
 10
1480.253882866626
 20
69.64712500002065
 42
0.0
 10
1483.966382866628
 20
72.24587500002016
 42
-0.3734162676407277
 10
1483.966382866627
 20
72.2458750000203
 42
0.0
 10
1482.619757866626
 20
74.84125000002132
 42
-0.261219770190848
 10
1479.477632866624
 20
75.98200000002076
 42
-0.0572747914118363
 10
1479.477632866625
 20
75.98200000002012
 42
-0.1189658875692221
 10
1476.980132866625
 20
77.4467500000213
 42
-0.2005226878639636
 10
1475.933882866625
 20
79.80587500003139
 42
0.0
 10
1475.917007866625
 20
80.70025000001996
 42
-0.2622894489606957
 10
1478.600132866626
 20
84.80087500002048
 42
-0.0988461274137808
 10
1481.111132866626
 20
85.40500000002112
 42
0.0
 10
1482.042632866626
 20
85.40500000002045
 42
-0.0920156312561188
 97
        0
 75
     0
 76
     1
 98
        1
 10
0.0
 20
0.0
  0
HATCH
  5
114
330
1F
100
AcDbEntity
  8
図枠
  6
CONTINUOUS
 62
     3
100
AcDbHatch
 10
0.0
 20
0.0
 30
0.0
210
0.0
220
0.0
230
1.0
  2
SOLID
 70
     1
 71
     1
 91
        2
 92
        3
 72
     1
 73
     1
 93
       27
 10
1431.586382866624
 20
83.4508750000202
 42
-0.1769427732109284
 10
1431.586382866626
 20
83.45087500002023
 42
0.0
 10
1431.586382866626
 20
81.6283750000207
 42
0.0
 10
1432.025132866627
 20
81.62837500002051
 42
-0.207533601427307
 10
1434.873711394786
 20
83.76524630770355
 42
-0.1226604740888933
 10
1437.391382866626
 20
83.81875000002069
 42
-0.3213715781137954
 10
1439.994164011104
 20
80.62395407017436
 42
-0.064704004662446
 10
1440.007007866626
 20
78.93512500002059
 42
-0.257798906330806
 10
1439.477132866627
 20
78.29387500002031
 42
-0.056602577721096
 10
1438.343132866626
 20
77.89900000002103
 42
-0.0166741689362636
 10
1434.185132866625
 20
77.1092500000201
 42
0.1186092302783404
 10
1431.441257866627
 20
75.79300000002091
 42
0.1699204224386695
 10
1430.246507866626
 20
73.7950000000203
 42
0.1006533494296199
 10
1430.136043339791
 20
72.06130610603667
 42
0.1675695228968024
 10
1431.218507866626
 20
69.73825000002093
 42
0.1376980079804242
 10
1433.186132866625
 20
68.6008750000216
 42
0.0719813663796923
 10
1434.080507866626
 20
68.452375000021
 42
0.0
 10
1435.450757866626
 20
68.45237500002104
 42
0.1944607457809085
 10
1439.996882866626
 20
70.79125000002007
 42
0.1288538183665954
 10
1440.455882866625
 20
69.64375000002079
 42
0.2098387395261546
 10
1441.954382866624
 20
68.81687500002045
 42
0.0
 10
1443.041132866625
 20
68.81012500002161
 42
0.0945009641609563
 10
1444.610507866626
 20
69.14425000002097
 42
0.0
 10
1444.610507866625
 20
69.93062500002121
 42
-0.2395739894657535
 10
1443.240257866627
 20
69.91712500001996
 42
-0.2502312110031057
 10
1442.565257866625
 20
71.1861250000213
 42
-0.0104343570771765
 10
1442.656382866625
 20
80.6496250000209
 42
0.4051015674140716
 97
        0
 92
        3
 72
     1
 73
     1
 93
        8
 10
1440.067757866626
 20
77.28137500002116
 42
-0.0339435190873666
 10
1440.067757866625
 20
77.28137500001458
 42
-0.0001110072973599
 10
1439.926007866626
 20
72.11087500001997
 42
-0.2253076310552528
 10
1436.382257866625
 20
69.74500000002081
 42
0.0
 10
1435.514882866626
 20
69.74500000002135
 42
-0.3657967558150132
 10
1432.936382866626
 20
72.48550000002069
 42
0.0
 10
1432.936382866626
 20
73.46425000002101
 42
-0.2530797830369341
 10
1434.677882866627
 20
75.87400000002089
 42
-0.0724473624720066
 97
        0
 75
     0
 76
     1
 98
        1
 10
0.0
 20
0.0
  0
LINE
  5
115
330
1F
100
AcDbEntity
  8
図枠
  6
CONTINUOUS
 62
     7
100
AcDbLine
 10
1374.999999999983
 20
249.9999999999977
 30
0.0
 11
2054.999999999978
 21
249.9999999999977
 31
0.0
  0
LINE
  5
116
330
1F
100
AcDbEntity
  8
図枠
  6
CONTINUOUS
 62
     7
100
AcDbLine
 10
1374.999999999983
 20
249.9999999999977
 30
0.0
 11
1374.999999999983
 21
54.99999999999957
 31
0.0
  0
TEXT
  5
117
330
1F
100
AcDbEntity
  8
図枠
  6
CONTINUOUS
 62
     2
100
AcDbText
 10
1387.499999999983
 20
162.4999999999986
 30
0.0
 40
20.04545454545455
  1
品名
  7
EXCADVERT
 72
     3
 11
1387.499999999983
 21
109.9999999999986
 31
0.0
100
AcDbText
  0
TEXT
  5
118
330
1F
100
AcDbEntity
  8
図枠
  6
CONTINUOUS
 62
     2
100
AcDbText
 10
1387.499999999983
 20
237.4999999999982
 30
0.0
 40
22.90909090909091
  1
設計
  7
EXCADVERT
 72
     3
 11
1387.499999999983
 21
177.4999999999982
 31
0.0
100
AcDbText
  0
TEXT
  5
119
330
1F
100
AcDbEntity
  8
図枠
  6
CONTINUOUS
 62
     2
100
AcDbText
 10
1476.249999999983
 20
237.4999999999982
 30
0.0
 40
22.90909090909091
  1
製図
  7
EXCADVERT
 72
     3
 11
1476.249999999983
 21
177.4999999999982
 31
0.0
100
AcDbText
  0
TEXT
  5
11A
330
1F
100
AcDbEntity
  8
図枠
  6
CONTINUOUS
 62
     2
100
AcDbText
 10
1563.991699199982
 20
237.4999999999982
 30
0.0
 40
22.90909090909091
  1
写図
  7
EXCADVERT
 72
     3
 11
1563.991699199982
 21
177.4999999999982
 31
0.0
100
AcDbText
  0
TEXT
  5
11B
330
1F
100
AcDbEntity
  8
図枠
  6
CONTINUOUS
 62
     2
100
AcDbText
 10
1652.741699199982
 20
237.4999999999982
 30
0.0
 40
22.90909090909091
  1
検図
  7
EXCADVERT
 72
     3
 11
1652.741699199982
 21
177.4999999999982
 31
0.0
100
AcDbText
  0
TEXT
  5
11C
330
1F
100
AcDbEntity
  8
図枠
  6
CONTINUOUS
 62
     2
100
AcDbText
 10
1741.49169919998
 20
237.4999999999982
 30
0.0
 40
22.90909090909091
  1
承認
  7
EXCADVERT
 72
     3
 11
1741.49169919998
 21
177.4999999999982
 31
0.0
100
AcDbText
  0
TEXT
  5
11D
330
1F
100
AcDbEntity
  8
図枠
  6
CONTINUOUS
 62
     2
100
AcDbText
 10
1897.74999999998
 20
199.7499999999982
 30
0.0
 40
17.5
  1
１
 41
1.12
  7
EXCADSTD
 72
     5
 11
1911.74999999998
 21
199.7499999999982
 31
0.0
100
AcDbText
  0
TEXT
  5
11E
330
1F
100
AcDbEntity
  8
図枠
  6
CONTINUOUS
 62
     2
100
AcDbText
 10
1929.249999999978
 20
174.7499999999982
 30
0.0
 40
17.5
  1
５
 41
1.12
  7
EXCADSTD
 72
     5
 11
1943.249999999978
 21
174.7499999999982
 31
0.0
100
AcDbText
  0
TEXT
  5
11F
330
1F
100
AcDbEntity
  8
図枠
  6
CONTINUOUS
 62
     2
100
AcDbText
 10
1955.37499964235
 20
182.4999999999982
 30
0.0
 40
27.5
  1
第３角法
 41
1.08458498815303
  7
EXCADSTD
 72
     5
 11
2053.375000357606
 21
182.4999999999982
 31
0.0
100
AcDbText
  0
TEXT
  5
120
330
1F
100
AcDbEntity
  8
図枠
  6
CONTINUOUS
 62
     2
100
AcDbText
 10
1963.749999999978
 20
226.2499999999977
 30
0.0
 40
22.5
  1
投影法
 41
1.486928104575163
  7
EXCADSTD
 72
     5
 11
2044.999999999978
 21
226.2499999999977
 31
0.0
100
AcDbText
  0
TEXT
  5
121
330
1F
100
AcDbEntity
  8
図枠
  6
CONTINUOUS
 62
     2
100
AcDbText
 10
1895.624999999978
 20
226.2499999999977
 30
0.0
 40
22.5
  1
尺度
 41
1.36101212121212
  7
EXCADSTD
 72
     5
 11
1943.746499999978
 21
226.2499999999977
 31
0.0
100
AcDbText
  0
TEXT
  5
122
330
1F
100
AcDbEntity
  8
図枠
  6
CONTINUOUS
 62
     2
100
AcDbText
 10
1767.49999999998
 20
162.4999999999986
 30
0.0
 40
20.04545454545455
  1
品番
  7
EXCADVERT
 72
     3
 11
1767.49999999998
 21
109.9999999999986
 31
0.0
100
AcDbText
  0
TEXT
  5
123
330
1F
100
AcDbEntity
  8
図枠
  6
CONTINUOUS
 62
     2
100
AcDbText
 10
1767.49999999998
 20
103.7499999999991
 30
0.0
 40
18.13636363636364
  1
図番
  7
EXCADVERT
 72
     3
 11
1767.49999999998
 21
56.24999999999908
 31
0.0
100
AcDbText
  0
TEXT
  5
124
330
1F
100
AcDbEntity
  8
図枠
  6
CONTINUOUS
 62
     2
100
AcDbText
 10
1876.499999880771
 20
64.99999999999865
 30
0.0
 40
30.0
  1
参考図
 41
1.228431372549019
  7
EXCADSTD
 72
     5
 11
1965.999999880771
 21
64.99999999999865
 31
0.0
100
AcDbText
  0
LINE
  5
125
330
1F
100
AcDbEntity
  8
図枠
  6
CONTINUOUS
 62
     6
100
AcDbLine
 10
921.5
 20
99.9999999999999
 30
0.0
 11
1343.5
 21
99.9999999999999
 31
0.0
  0
LINE
  5
126
330
1F
100
AcDbEntity
  8
図枠
  6
CONTINUOUS
 62
     6
100
AcDbLine
 10
921.4999999999999
 20
124.9999999999998
 30
0.0
 11
1340.5
 21
124.9999999999998
 31
0.0
  0
LINE
  5
127
330
1F
100
AcDbEntity
  8
図枠
  6
CONTINUOUS
 62
     6
100
AcDbLine
 10
1399.999999999983
 20
249.9999999999977
 30
0.0
 11
1399.999999999983
 21
104.9999999999991
 31
0.0
  0
LINE
  5
128
330
1F
100
AcDbEntity
  8
図枠
  6
CONTINUOUS
 62
     6
100
AcDbLine
 10
2054.999999999978
 20
167.4999999999982
 30
0.0
 11
1374.999999999983
 21
167.4999999999982
 31
0.0
  0
LINE
  5
129
330
1F
100
AcDbEntity
  8
図枠
  6
CONTINUOUS
 62
     6
100
AcDbLine
 10
1374.999999999983
 20
104.9999999999991
 30
0.0
 11
2054.999999999978
 21
104.9999999999991
 31
0.0
  0
LINE
  5
12A
330
1F
100
AcDbEntity
  8
図枠
  6
CONTINUOUS
 62
     6
100
AcDbLine
 10
1953.749999999978
 20
249.9999999999977
 30
0.0
 11
1953.749999999978
 21
167.4999999999982
 31
0.0
  0
LINE
  5
12B
330
1F
100
AcDbEntity
  8
図枠
  6
CONTINUOUS
 62
     6
100
AcDbLine
 10
1889.99999999998
 20
249.9999999999977
 30
0.0
 11
1889.99999999998
 21
167.4999999999982
 31
0.0
  0
LINE
  5
12C
330
1F
100
AcDbEntity
  8
図枠
  6
CONTINUOUS
 62
     6
100
AcDbLine
 10
2054.999999999978
 20
224.9999999999977
 30
0.0
 11
1889.99999999998
 21
224.9999999999977
 31
0.0
  0
LINE
  5
12D
330
1F
100
AcDbEntity
  8
図枠
  6
CONTINUOUS
 62
     6
100
AcDbLine
 10
1728.99169919998
 20
167.4999999999982
 30
0.0
 11
1728.99169919998
 21
249.9999999999977
 31
0.0
  0
LINE
  5
12E
330
1F
100
AcDbEntity
  8
図枠
  6
CONTINUOUS
 62
     6
100
AcDbLine
 10
1665.241699199982
 20
167.4999999999982
 30
0.0
 11
1665.241699199982
 21
249.9999999999977
 31
0.0
  0
LINE
  5
12F
330
1F
100
AcDbEntity
  8
図枠
  6
CONTINUOUS
 62
     6
100
AcDbLine
 10
1640.241699199982
 20
167.4999999999982
 30
0.0
 11
1640.241699199982
 21
249.9999999999977
 31
0.0
  0
LINE
  5
130
330
1F
100
AcDbEntity
  8
図枠
  6
CONTINUOUS
 62
     6
100
AcDbLine
 10
1576.491699199982
 20
167.4999999999982
 30
0.0
 11
1576.491699199982
 21
249.9999999999977
 31
0.0
  0
LINE
  5
131
330
1F
100
AcDbEntity
  8
図枠
  6
CONTINUOUS
 62
     6
100
AcDbLine
 10
1551.491699199983
 20
167.4999999999982
 30
0.0
 11
1551.491699199983
 21
249.9999999999977
 31
0.0
  0
LINE
  5
132
330
1F
100
AcDbEntity
  8
図枠
  6
CONTINUOUS
 62
     6
100
AcDbLine
 10
1488.749999999983
 20
167.4999999999982
 30
0.0
 11
1488.749999999983
 21
249.9999999999977
 31
0.0
  0
LINE
  5
133
330
1F
100
AcDbEntity
  8
図枠
  6
CONTINUOUS
 62
     6
100
AcDbLine
 10
1463.749999999983
 20
167.4999999999982
 30
0.0
 11
1463.749999999983
 21
249.9999999999977
 31
0.0
  0
LINE
  5
134
330
1F
100
AcDbEntity
  8
図枠
  6
CONTINUOUS
 62
     6
100
AcDbLine
 10
1943.124999999978
 20
217.4999999999977
 30
0.0
 11
1900.62499999998
 21
174.9999999999982
 31
0.0
  0
LINE
  5
135
330
1F
100
AcDbEntity
  8
図枠
  6
CONTINUOUS
 62
     6
100
AcDbLine
 10
1754.99999999998
 20
54.99999999999957
 30
0.0
 11
1754.99999999998
 21
167.4999999999982
 31
0.0
  0
LINE
  5
136
330
1F
100
AcDbEntity
  8
図枠
  6
CONTINUOUS
 62
     6
100
AcDbLine
 10
1753.99169919998
 20
167.4999999999982
 30
0.0
 11
1753.99169919998
 21
249.9999999999977
 31
0.0
  0
LINE
  5
137
330
1F
100
AcDbEntity
  8
図枠
  6
CONTINUOUS
 62
     6
100
AcDbLine
 10
1779.99999999998
 20
54.99999999999957
 30
0.0
 11
1779.99999999998
 21
167.4999999999982
 31
0.0
  0
CIRCLE
  5
138
330
1F
100
AcDbEntity
  8
図枠
  6
CONTINUOUS
 62
     6
100
AcDbCircle
 10
1530.241699199986
 20
179.9999999999982
 30
0.0
 40
0.500000099999995
  0
CIRCLE
  5
139
330
1F
100
AcDbEntity
  8
図枠
  6
CONTINUOUS
 62
     6
100
AcDbCircle
 10
1508.991699199986
 20
179.9999999999982
 30
0.0
 40
0.500000099999995
  0
CIRCLE
  5
13A
330
1F
100
AcDbEntity
  8
図枠
  6
CONTINUOUS
 62
     6
100
AcDbCircle
 10
1618.991699199986
 20
179.9999999999982
 30
0.0
 40
0.500000099999995
  0
CIRCLE
  5
13B
330
1F
100
AcDbEntity
  8
図枠
  6
CONTINUOUS
 62
     6
100
AcDbCircle
 10
1597.741699199986
 20
179.9999999999982
 30
0.0
 40
0.500000099999995
  0
TEXT
  5
13C
330
1F
100
AcDbEntity
  8
図枠
  6
CONTINUOUS
 62
     2
100
AcDbText
 10
1500.5
 20
205.9999999999997
 30
0.0
 40
20.0
  1
川野
 41
1.166581818181818
  7
EXCADSTD
 72
     5
 11
1537.164
 21
205.9999999999997
 31
0.0
100
AcDbText
  0
TEXT
  5
13D
330
1F
100
AcDbEntity
  8
図枠
  6
CONTINUOUS
 62
     2
100
AcDbText
 10
1490.000000009589
 20
169.9999999999982
 30
0.0
 40
20.0
  1
'21
 41
0.4032070426829273
  7
EXCADSTD
 72
     5
 11
1505.74427500959
 21
169.9999999999982
 31
0.0
100
AcDbText
  0
TEXT
  5
13E
330
1F
100
AcDbEntity
  8
図枠
  6
CONTINUOUS
 62
     2
100
AcDbText
 10
1514.374999999985
 20
169.9999999999982
 30
0.0
 40
20.0
  1
7
 41
0.5018382352941176
  7
EXCADSTD
 72
     5
 11
1522.499999999985
 21
169.9999999999982
 31
0.0
100
AcDbText
  0
TEXT
  5
13F
330
1F
100
AcDbEntity
  8
図枠
  6
CONTINUOUS
 62
     2
100
AcDbText
 10
1531.120849530776
 20
169.9999999999982
 30
0.0
 40
20.0
  1
01
 41
0.5690322645248905
  7
EXCADSTD
 72
     5
 11
1547.92084972151
 21
169.9999999999982
 31
0.0
100
AcDbText
  0
TEXT
  5
140
330
1F
100
AcDbEntity
  8
図枠
  6
CONTINUOUS
 62
     2
100
AcDbText
 10
1819.49999999998
 20
121.2499999999986
 30
0.0
 40
30.0
  1
Ｌ５２０ＣＦＰ
 41
1.158130081300813
  7
EXCADSTD
 72
     5
 11
2022.99999999998
 21
121.2499999999986
 31
0.0
100
AcDbText
  0
TEXT
  5
141
330
1F
100
AcDbEntity
  8
図枠
  6
CONTINUOUS
 62
     2
100
AcDbText
 10
1467.749999999982
 20
118.9999999999986
 30
0.0
 40
30.0
  1
オンボード洗面器
 41
1.104609929078014
  7
EXCADSTD
 72
     5
 11
1690.249999999982
 21
118.9999999999986
 31
0.0
100
AcDbText
  0
TEXT
  5
142
330
1F
100
AcDbEntity
  8
図枠
  6
CONTINUOUS
 62
     2
100
AcDbText
 10
923.5000000000003
 20
99.34999999999991
 30
0.0
 40
20.0
  1
注１．外観・寸法・性能及び品質は、別途定める製品規格による。
 41
0.8310055865921785
  7
EXCADSTD
 72
     5
 11
1348.5
 21
99.34999999999991
 31
0.0
100
AcDbText
  0
TEXT
  5
143
330
1F
100
AcDbEntity
  8
図枠
  6
CONTINUOUS
 62
     2
100
AcDbText
 10
923.4500000000004
 20
124.7999999999999
 30
0.0
 40
20.0
  1
注２．(　)内寸法は参考寸法を表わす。
 41
0.8564954682779452
  7
EXCADSTD
 72
     5
 11
1193.45
 21
124.7999999999999
 31
0.0
100
AcDbText
  0
TEXT
  5
144
330
1F
100
AcDbEntity
  8
図枠
  6
CONTINUOUS
 62
     2
100
AcDbText
 10
1589.25
 20
205.9999999999997
 30
0.0
 40
20.0
  1
川野
 41
1.166581818181818
  7
EXCADSTD
 72
     5
 11
1625.914
 21
205.9999999999997
 31
0.0
100
AcDbText
  0
TEXT
  5
145
330
1F
100
AcDbEntity
  8
図枠
  6
CONTINUOUS
 62
     2
100
AcDbText
 10
1578.75000000959
 20
169.9999999999982
 30
0.0
 40
20.0
  1
'23
 41
0.3517338031914897
  7
EXCADSTD
 72
     5
 11
1594.49427500959
 21
169.9999999999982
 31
0.0
100
AcDbText
  0
TEXT
  5
146
330
1F
100
AcDbEntity
  8
図枠
  6
CONTINUOUS
 62
     2
100
AcDbText
 10
1603.124999999985
 20
169.9999999999982
 30
0.0
 40
20.0
  1
4
 41
0.4739583333333334
  7
EXCADSTD
 72
     5
 11
1611.249999999985
 21
169.9999999999982
 31
0.0
100
AcDbText
  0
TEXT
  5
147
330
1F
100
AcDbEntity
  8
図枠
  6
CONTINUOUS
 62
     2
100
AcDbText
 10
1624.120849649985
 20
169.9999999999982
 30
0.0
 40
20.0
  1
6
 41
0.5018382352941176
  7
EXCADSTD
 72
     5
 11
1632.245849649985
 21
169.9999999999982
 31
0.0
100
AcDbText
  0
LINE
  5
148
330
1F
100
AcDbEntity
  8
図
  6
CONTINUOUS
 62
     3
100
AcDbLine
 10
514.0000000000009
 20
591.5535880000019
 30
0.0
 11
461.7000000000007
 21
591.5535880000019
 31
0.0
  0
LINE
  5
149
330
1F
100
AcDbEntity
  8
図
  6
CONTINUOUS
 62
     3
100
AcDbLine
 10
514.0000000000009
 20
635.5535880000019
 30
0.0
 11
461.7000000000007
 21
635.5535880000019
 31
0.0
  0
LINE
  5
14A
330
1F
100
AcDbEntity
  8
図
  6
CONTINUOUS
 62
     3
100
AcDbLine
 10
466.7000000000008
 20
591.5535880000019
 30
0.0
 11
466.7000000000008
 21
635.5535880000019
 31
0.0
  0
LINE
  5
14B
330
1F
100
AcDbEntity
  8
図
  6
CONTINUOUS
 62
     3
100
AcDbLine
 10
464.2000000000007
 20
606.5535880000019
 30
0.0
 11
466.7000000000007
 21
591.5535880000019
 31
0.0
  0
LINE
  5
14C
330
1F
100
AcDbEntity
  8
図
  6
CONTINUOUS
 62
     3
100
AcDbLine
 10
466.7000000000007
 20
591.5535880000019
 30
0.0
 11
469.2000000000007
 21
606.5535880000019
 31
0.0
  0
LINE
  5
14D
330
1F
100
AcDbEntity
  8
図
  6
CONTINUOUS
 62
     3
100
AcDbLine
 10
469.2000000000007
 20
620.5535880000019
 30
0.0
 11
466.7000000000007
 21
635.5535880000019
 31
0.0
  0
LINE
  5
14E
330
1F
100
AcDbEntity
  8
図
  6
CONTINUOUS
 62
     3
100
AcDbLine
 10
466.7000000000007
 20
635.5535880000019
 30
0.0
 11
464.2000000000007
 21
620.5535880000019
 31
0.0
  0
LINE
  5
14F
330
1F
100
AcDbEntity
  8
図
  6
CONTINUOUS
 62
     7
100
AcDbLine
 10
1008.994505999999
 20
805.2801519999975
 30
0.0
 11
1008.997498000001
 21
805.2801519999975
 31
0.0
  0
LINE
  5
150
330
1F
100
AcDbEntity
  8
図
  6
EXLTYPE3
 62
     6
100
AcDbLine
 10
1284.000002
 20
676.0
 30
0.0
 11
1284.000002
 21
468.0
 31
0.0
  0
ARC
  5
151
330
1F
100
AcDbEntity
  8
図
  6
CONTINUOUS
 62
     7
100
AcDbCircle
 10
1297.878774509154
 20
530.1073574695911
 30
0.0
 40
10.0
100
AcDbArc
 50
270.0000000000002
 51
346.4320680938681
  0
ARC
  5
152
330
1F
100
AcDbEntity
  8
図
  6
CONTINUOUS
 62
     7
100
AcDbCircle
 10
1289.123194053136
 20
530.1073574695893
 30
0.0
 40
10.0
100
AcDbArc
 50
270.0000000000002
 51
345.8312291983176
  0
ARC
  5
153
330
1F
100
AcDbEntity
  8
図
  6
CONTINUOUS
 62
     7
100
AcDbCircle
 10
1278.877252293191
 20
530.1073574695893
 30
0.0
 40
10.0
100
AcDbArc
 50
194.1687616580897
 51
270.0000000000002
  0
ARC
  5
154
330
1F
100
AcDbEntity
  8
図
  6
CONTINUOUS
 62
     7
100
AcDbCircle
 10
1270.128455677507
 20
530.1073574695911
 30
0.0
 40
10.0
100
AcDbArc
 50
193.5679003034252
 51
270.0000000000002
  0
ARC
  5
155
330
1F
100
AcDbEntity
  8
図
  6
CONTINUOUS
 62
     7
100
AcDbCircle
 10
-201581.826658
 20
49491.69347999999
 30
0.0
 40
208714.1250000001
100
AcDbArc
 50
346.4320680938681
 51
346.4582060000001
  0
ARC
  5
156
330
1F
100
AcDbEntity
  8
図
  6
CONTINUOUS
 62
     7
100
AcDbCircle
 10
48274.349122
 20
-11331.737184
 30
0.0
 40
48449.41406400001
100
AcDbArc
 50
165.7160580000001
 51
165.8312291983175
  0
ARC
  5
157
330
1F
100
AcDbEntity
  8
図
  6
CONTINUOUS
 62
     7
100
AcDbCircle
 10
-45699.51806599999
 20
-11330.00476
 30
0.0
 40
48442.36718800001
100
AcDbArc
 50
14.16876165808962
 51
14.28394699999997
  0
ARC
  5
158
330
1F
100
AcDbEntity
  8
図
  6
CONTINUOUS
 62
     7
100
AcDbCircle
 10
204273.95459
 20
49521.52942000001
 30
0.0
 40
208841.7812520001
100
AcDbArc
 50
193.5417740000001
 51
193.5679003034252
  0
ARC
  5
159
330
1F
100
AcDbEntity
  8
図
  6
CONTINUOUS
 62
     7
100
AcDbCircle
 10
204393.985842
 20
49521.53332400001
 30
0.0
 40
208841.8125
100
AcDbArc
 50
193.5417740000001
 51
193.5700595135106
  0
ARC
  5
15A
330
1F
100
AcDbEntity
  8
図
  6
CONTINUOUS
 62
     7
100
AcDbCircle
 10
-201701.826658
 20
49491.68957599999
 30
0.0
 40
208714.109376
100
AcDbArc
 50
346.4299066635616
 51
346.4582060000001
  0
ARC
  5
15B
330
1F
100
AcDbEntity
  8
図
  6
CONTINUOUS
 62
     7
100
AcDbCircle
 10
1182.872097795205
 20
510.1073574695893
 30
0.0
 40
10.0
100
AcDbArc
 50
90.00000000000001
 51
141.5148684262038
  0
ARC
  5
15C
330
1F
100
AcDbEntity
  8
図
  6
CONTINUOUS
 62
     7
100
AcDbCircle
 10
1385.128228848109
 20
510.1073574695893
 30
0.0
 40
10.0
100
AcDbArc
 50
38.48513157375456
 51
90.00000000000001
  0
ARC
  5
15D
330
1F
100
AcDbEntity
  8
図
  6
CONTINUOUS
 62
     7
100
AcDbCircle
 10
-1394.379881999999
 20
12678.48242
 30
0.0
 40
12464.101564
100
AcDbArc
 50
282.6468271422837
 51
282.7164363380519
  0
POLYLINE
  5
15E
330
1F
100
AcDbEntity
  8
図
  6
CONTINUOUS
 62
     7
100
AcDb2dPolyline
 66
     1
 10
0.0
 20
0.0
 30
0.0
 70
   128
  0
VERTEX
  5
15F
330
15E
100
AcDbEntity
  8
図
  6
CONTINUOUS
 62
     7
100
AcDbVertex
100
AcDb2dVertex
 10
1328.398802000001
 20
509.3065200000001
 30
0.0
  0
VERTEX
  5
160
330
15E
100
AcDbEntity
  8
図
  6
CONTINUOUS
 62
     7
100
AcDbVertex
100
AcDb2dVertex
 10
1328.558106000001
 20
510.2155160000002
 30
0.0
  0
VERTEX
  5
161
330
15E
100
AcDbEntity
  8
図
  6
CONTINUOUS
 62
     7
100
AcDbVertex
100
AcDb2dVertex
 10
1328.809694000001
 20
511.1033320000006
 30
0.0
  0
VERTEX
  5
162
330
15E
100
AcDbEntity
  8
図
  6
CONTINUOUS
 62
     7
100
AcDbVertex
100
AcDb2dVertex
 10
1329.148314
 20
511.9550479999998
 30
0.0
  0
VERTEX
  5
163
330
15E
100
AcDbEntity
  8
図
  6
CONTINUOUS
 62
     7
100
AcDbVertex
100
AcDb2dVertex
 10
1329.571778000001
 20
512.7678240000005
 30
0.0
  0
VERTEX
  5
164
330
15E
100
AcDbEntity
  8
図
  6
CONTINUOUS
 62
     7
100
AcDbVertex
100
AcDb2dVertex
 10
1330.095214
 20
513.5595080000003
 30
0.0
  0
VERTEX
  5
165
330
15E
100
AcDbEntity
  8
図
  6
CONTINUOUS
 62
     7
100
AcDbVertex
100
AcDb2dVertex
 10
1330.692506000001
 20
514.2843639999992
 30
0.0
  0
VERTEX
  5
166
330
15E
100
AcDbEntity
  8
図
  6
CONTINUOUS
 62
     7
100
AcDbVertex
100
AcDb2dVertex
 10
1331.339478
 20
514.9226080000008
 30
0.0
  0
VERTEX
  5
167
330
15E
100
AcDbEntity
  8
図
  6
CONTINUOUS
 62
     7
100
AcDbVertex
100
AcDb2dVertex
 10
1332.021974
 20
515.4735720000008
 30
0.0
  0
VERTEX
  5
168
330
15E
100
AcDbEntity
  8
図
  6
CONTINUOUS
 62
     7
100
AcDbVertex
100
AcDb2dVertex
 10
1332.899294
 20
516.0383600000005
 30
0.0
  0
VERTEX
  5
169
330
15E
100
AcDbEntity
  8
図
  6
CONTINUOUS
 62
     7
100
AcDbVertex
100
AcDb2dVertex
 10
1333.835938
 20
516.4964
 30
0.0
  0
VERTEX
  5
16A
330
15E
100
AcDbEntity
  8
図
  6
CONTINUOUS
 62
     7
100
AcDbVertex
100
AcDb2dVertex
 10
1334.863402
 20
516.8513480000001
 30
0.0
  0
VERTEX
  5
16B
330
15E
100
AcDbEntity
  8
図
  6
CONTINUOUS
 62
     7
100
AcDbVertex
100
AcDb2dVertex
 10
1334.96167
 20
516.8774400000002
 30
0.0
  0
SEQEND
  5
16C
330
15E
100
AcDbEntity
  8
図
  6
CONTINUOUS
 62
     7
  0
ARC
  5
16D
330
1F
100
AcDbEntity
  8
図
  6
CONTINUOUS
 62
     7
100
AcDbCircle
 10
3961.377806000001
 20
12674.037108
 30
0.0
 40
12459.54492
100
AcDbArc
 50
257.2835545551562
 51
257.3511168241653
  0
LINE
  5
16E
330
1F
100
AcDbEntity
  8
図
  6
CONTINUOUS
 62
     7
100
AcDbLine
 10
1238.274916560258
 20
520.1073574695893
 30
0.0
 11
1239.192546098478
 21
512.6337567694736
 31
0.0
  0
LINE
  5
16F
330
1F
100
AcDbEntity
  8
図
  6
CONTINUOUS
 62
     7
100
AcDbLine
 10
1329.724595439742
 20
520.1073574695893
 30
0.0
 11
1328.806969784627
 21
512.6337883952747
 31
0.0
  0
ARC
  5
170
330
1F
100
AcDbEntity
  8
図
  6
CONTINUOUS
 62
     7
100
AcDbCircle
 10
1469.0
 20
520.6756600000008
 30
0.0
 40
3.000000000000114
100
AcDbArc
 50
270.0000000000002
 51
90.00000000000001
  0
LINE
  5
171
330
1F
100
AcDbEntity
  8
図
  6
CONTINUOUS
 62
     7
100
AcDbLine
 10
1449.0
 20
523.6756600000008
 30
0.0
 11
1469.0
 21
523.6756600000008
 31
0.0
  0
ARC
  5
172
330
1F
100
AcDbEntity
  8
図
  6
CONTINUOUS
 62
     7
100
AcDbCircle
 10
1449.0
 20
520.6756600000008
 30
0.0
 40
2.999999999999972
100
AcDbArc
 50
90.00000000000001
 51
270.0000000000002
  0
ARC
  5
173
330
1F
100
AcDbEntity
  8
図
  6
CONTINUOUS
 62
     7
100
AcDbCircle
 10
1119.000004000002
 20
520.6756600000008
 30
0.0
 40
2.999999999998906
100
AcDbArc
 50
270.0000000000002
 51
90.00000000000001
  0
LINE
  5
174
330
1F
100
AcDbEntity
  8
図
  6
CONTINUOUS
 62
     7
100
AcDbLine
 10
1099.000004
 20
523.6756600000008
 30
0.0
 11
1119.000004000002
 21
523.6756600000008
 31
0.0
  0
ARC
  5
175
330
1F
100
AcDbEntity
  8
図
  6
CONTINUOUS
 62
     7
100
AcDbCircle
 10
1099.000004
 20
520.6756600000008
 30
0.0
 40
2.999999999999972
100
AcDbArc
 50
90.00000000000001
 51
270.0000000000002
  0
ARC
  5
176
330
1F
100
AcDbEntity
  8
図
  6
CONTINUOUS
 62
     7
100
AcDbCircle
 10
1400.783622346321
 20
522.5535880000007
 30
0.0
 40
10.0
100
AcDbArc
 50
194.1595491184757
 51
270.0000000000002
  0
ARC
  5
177
330
1F
100
AcDbEntity
  8
図
  6
CONTINUOUS
 62
     7
100
AcDbCircle
 10
1167.216704297002
 20
522.5535880000134
 30
0.0
 40
10.0
100
AcDbArc
 50
270.0000000000002
 51
345.8404415631898
  0
ARC
  5
178
330
1F
100
AcDbEntity
  8
図
  6
CONTINUOUS
 62
     7
100
AcDbCircle
 10
-45579.51806599999
 20
-11330.00476
 30
0.0
 40
48442.36718800001
100
AcDbArc
 50
14.15954911847635
 51
14.28394699999997
  0
ARC
  5
179
330
1F
100
AcDbEntity
  8
図
  6
CONTINUOUS
 62
     7
100
AcDbCircle
 10
48154.35303
 20
-11331.737184
 30
0.0
 40
48449.417968
100
AcDbArc
 50
165.7160580000001
 51
165.8404415631894
  0
LINE
  5
17A
330
1F
100
AcDbEntity
  8
図
  6
CONTINUOUS
 62
     7
100
AcDbLine
 10
1328.398802000001
 20
509.3065800000004
 30
0.0
 11
1325.039062
 21
481.9442440000003
 31
0.0
  0
ARC
  5
17B
330
1F
100
AcDbEntity
  8
図
  6
CONTINUOUS
 62
     7
100
AcDbCircle
 10
1320.076418
 20
482.5535880000007
 30
0.0
 40
5.0
100
AcDbArc
 50
270.0000000000002
 51
352.9999950000012
  0
LINE
  5
17C
330
1F
100
AcDbEntity
  8
図
  6
CONTINUOUS
 62
     7
100
AcDbLine
 10
1305.213258
 20
477.5535880000007
 30
0.0
 11
1320.076418
 21
477.5535880000007
 31
0.0
  0
LINE
  5
17D
330
1F
100
AcDbEntity
  8
図
  6
CONTINUOUS
 62
     7
100
AcDbLine
 10
1263.801026
 20
477.5535880000007
 30
0.0
 11
1306.49021
 21
477.5535880000007
 31
0.0
  0
LINE
  5
17E
330
1F
100
AcDbEntity
  8
図
  6
CONTINUOUS
 62
     7
100
AcDbLine
 10
1248.09375
 20
477.5535880000007
 30
0.0
 11
1264.49021
 21
477.5535880000007
 31
0.0
  0
ARC
  5
17F
330
1F
100
AcDbEntity
  8
図
  6
CONTINUOUS
 62
     7
100
AcDbCircle
 10
1247.923586
 20
482.5535880000007
 30
0.0
 40
5.0
100
AcDbArc
 50
187.0000060000002
 51
270.0000000000002
  0
LINE
  5
180
330
1F
100
AcDbEntity
  8
図
  6
CONTINUOUS
 62
     7
100
AcDbLine
 10
1239.601198000001
 20
509.3065800000004
 30
0.0
 11
1242.960938
 21
481.9442440000003
 31
0.0
  0
POLYLINE
  5
181
330
1F
100
AcDbEntity
  8
図
  6
CONTINUOUS
 62
     7
100
AcDb2dPolyline
 66
     1
 10
0.0
 20
0.0
 30
0.0
 70
   128
  0
VERTEX
  5
182
330
181
100
AcDbEntity
  8
図
  6
CONTINUOUS
 62
     7
100
AcDbVertex
100
AcDb2dVertex
 10
1233.038210000001
 20
516.877504
 30
0.0
  0
VERTEX
  5
183
330
181
100
AcDbEntity
  8
図
  6
CONTINUOUS
 62
     7
100
AcDbVertex
100
AcDb2dVertex
 10
1233.953002
 20
516.5814520000004
 30
0.0
  0
VERTEX
  5
184
330
181
100
AcDbEntity
  8
図
  6
CONTINUOUS
 62
     7
100
AcDbVertex
100
AcDb2dVertex
 10
1234.722778000001
 20
516.2396840000001
 30
0.0
  0
VERTEX
  5
185
330
181
100
AcDbEntity
  8
図
  6
CONTINUOUS
 62
     7
100
AcDbVertex
100
AcDb2dVertex
 10
1235.540894
 20
515.773072
 30
0.0
  0
VERTEX
  5
186
330
181
100
AcDbEntity
  8
図
  6
CONTINUOUS
 62
     7
100
AcDbVertex
100
AcDb2dVertex
 10
1236.32605
 20
515.2064800000007
 30
0.0
  0
VERTEX
  5
187
330
181
100
AcDbEntity
  8
図
  6
CONTINUOUS
 62
     7
100
AcDbVertex
100
AcDb2dVertex
 10
1236.992066
 20
514.6116959999999
 30
0.0
  0
VERTEX
  5
188
330
181
100
AcDbEntity
  8
図
  6
CONTINUOUS
 62
     7
100
AcDbVertex
100
AcDb2dVertex
 10
1237.615602
 20
513.9297480000005
 30
0.0
  0
VERTEX
  5
189
330
181
100
AcDbEntity
  8
図
  6
CONTINUOUS
 62
     7
100
AcDbVertex
100
AcDb2dVertex
 10
1238.177002000001
 20
513.1705920000004
 30
0.0
  0
VERTEX
  5
18A
330
181
100
AcDbEntity
  8
図
  6
CONTINUOUS
 62
     7
100
AcDbVertex
100
AcDb2dVertex
 10
1238.65027
 20
512.3668519999992
 30
0.0
  0
VERTEX
  5
18B
330
181
100
AcDbEntity
  8
図
  6
CONTINUOUS
 62
     7
100
AcDbVertex
100
AcDb2dVertex
 10
1239.031862
 20
511.5336000000007
 30
0.0
  0
VERTEX
  5
18C
330
181
100
AcDbEntity
  8
図
  6
CONTINUOUS
 62
     7
100
AcDbVertex
100
AcDb2dVertex
 10
1239.327514000001
 20
510.6627520000002
 30
0.0
  0
VERTEX
  5
18D
330
181
100
AcDbEntity
  8
図
  6
CONTINUOUS
 62
     7
100
AcDbVertex
100
AcDb2dVertex
 10
1239.533202000001
 20
509.763124000001
 30
0.0
  0
VERTEX
  5
18E
330
181
100
AcDbEntity
  8
図
  6
CONTINUOUS
 62
     7
100
AcDbVertex
100
AcDb2dVertex
 10
1239.601198000001
 20
509.3065800000004
 30
0.0
  0
SEQEND
  5
18F
330
181
100
AcDbEntity
  8
図
  6
CONTINUOUS
 62
     7
  0
POLYLINE
  5
190
330
1F
100
AcDbEntity
  8
図
  6
CONTINUOUS
 62
     7
100
AcDb2dPolyline
 66
     1
 10
0.0
 20
0.0
 30
0.0
 70
   128
  0
VERTEX
  5
191
330
190
100
AcDbEntity
  8
図
  6
CONTINUOUS
 62
     7
100
AcDbVertex
100
AcDb2dVertex
 10
1329.459881072
 20
512.5535880000007
 30
0.0
  0
VERTEX
  5
192
330
190
100
AcDbEntity
  8
図
  6
CONTINUOUS
 62
     7
100
AcDbVertex
100
AcDb2dVertex
 10
1329.147950000001
 20
511.9550760000002
 30
0.0
  0
VERTEX
  5
193
330
190
100
AcDbEntity
  8
図
  6
CONTINUOUS
 62
     7
100
AcDbVertex
100
AcDb2dVertex
 10
1328.80957
 20
511.1035159999992
 30
0.0
  0
VERTEX
  5
194
330
190
100
AcDbEntity
  8
図
  6
CONTINUOUS
 62
     7
100
AcDbVertex
100
AcDb2dVertex
 10
1328.557862
 20
510.2155760000005
 30
0.0
  0
VERTEX
  5
195
330
190
100
AcDbEntity
  8
図
  6
CONTINUOUS
 62
     7
100
AcDbVertex
100
AcDb2dVertex
 10
1328.398438
 20
509.3065160000006
 30
0.0
  0
SEQEND
  5
196
330
190
100
AcDbEntity
  8
図
  6
CONTINUOUS
 62
     7
  0
POLYLINE
  5
197
330
1F
100
AcDbEntity
  8
図
  6
CONTINUOUS
 62
     7
100
AcDb2dPolyline
 66
     1
 10
0.0
 20
0.0
 30
0.0
 70
   128
  0
VERTEX
  5
198
330
197
100
AcDbEntity
  8
図
  6
CONTINUOUS
 62
     7
100
AcDbVertex
100
AcDb2dVertex
 10
1238.539614445
 20
512.5535880000007
 30
0.0
  0
VERTEX
  5
199
330
197
100
AcDbEntity
  8
図
  6
CONTINUOUS
 62
     7
100
AcDbVertex
100
AcDb2dVertex
 10
1238.851562
 20
511.9549559999996
 30
0.0
  0
VERTEX
  5
19A
330
197
100
AcDbEntity
  8
図
  6
CONTINUOUS
 62
     7
100
AcDbVertex
100
AcDb2dVertex
 10
1239.190186
 20
511.1033920000009
 30
0.0
  0
VERTEX
  5
19B
330
197
100
AcDbEntity
  8
図
  6
CONTINUOUS
 62
     7
100
AcDbVertex
100
AcDb2dVertex
 10
1239.44165
 20
510.2154520000004
 30
0.0
  0
VERTEX
  5
19C
330
197
100
AcDbEntity
  8
図
  6
CONTINUOUS
 62
     7
100
AcDbVertex
100
AcDb2dVertex
 10
1239.601074
 20
509.3065160000006
 30
0.0
  0
SEQEND
  5
19D
330
197
100
AcDbEntity
  8
図
  6
CONTINUOUS
 62
     7
  0
POLYLINE
  5
19E
330
1F
100
AcDbEntity
  8
図
  6
CONTINUOUS
 62
     7
100
AcDb2dPolyline
 66
     1
 10
0.0
 20
0.0
 30
0.0
 70
   128
  0
VERTEX
  5
19F
330
19E
100
AcDbEntity
  8
図
  6
CONTINUOUS
 62
     7
100
AcDbVertex
100
AcDb2dVertex
 10
1161.366214
 20
537.6564920000001
 30
0.0
  0
VERTEX
  5
1A0
330
19E
100
AcDbEntity
  8
図
  6
CONTINUOUS
 62
     7
100
AcDbVertex
100
AcDb2dVertex
 10
1161.407962
 20
535.4057599999996
 30
0.0
  0
VERTEX
  5
1A1
330
19E
100
AcDbEntity
  8
図
  6
CONTINUOUS
 62
     7
100
AcDbVertex
100
AcDb2dVertex
 10
1161.31885
 20
533.1433080000006
 30
0.0
  0
VERTEX
  5
1A2
330
19E
100
AcDbEntity
  8
図
  6
CONTINUOUS
 62
     7
100
AcDbVertex
100
AcDb2dVertex
 10
1161.085938
 20
530.8741439999994
 30
0.0
  0
VERTEX
  5
1A3
330
19E
100
AcDbEntity
  8
図
  6
CONTINUOUS
 62
     7
100
AcDbVertex
100
AcDb2dVertex
 10
1160.805666
 20
529.1700440000004
 30
0.0
  0
VERTEX
  5
1A4
330
19E
100
AcDbEntity
  8
図
  6
CONTINUOUS
 62
     7
100
AcDbVertex
100
AcDb2dVertex
 10
1160.422122
 20
527.4683839999998
 30
0.0
  0
VERTEX
  5
1A5
330
19E
100
AcDbEntity
  8
図
  6
CONTINUOUS
 62
     7
100
AcDbVertex
100
AcDb2dVertex
 10
1159.920654
 20
525.7767320000003
 30
0.0
  0
VERTEX
  5
1A6
330
19E
100
AcDbEntity
  8
図
  6
CONTINUOUS
 62
     7
100
AcDbVertex
100
AcDb2dVertex
 10
1159.509766
 20
524.6573480000006
 30
0.0
  0
VERTEX
  5
1A7
330
19E
100
AcDbEntity
  8
図
  6
CONTINUOUS
 62
     7
100
AcDbVertex
100
AcDb2dVertex
 10
1159.027102
 20
523.5479720000003
 30
0.0
  0
VERTEX
  5
1A8
330
19E
100
AcDbEntity
  8
図
  6
CONTINUOUS
 62
     7
100
AcDbVertex
100
AcDb2dVertex
 10
1158.460694000001
 20
522.4552000000003
 30
0.0
  0
VERTEX
  5
1A9
330
19E
100
AcDbEntity
  8
図
  6
CONTINUOUS
 62
     7
100
AcDbVertex
100
AcDb2dVertex
 10
1157.794922
 20
521.3890360000005
 30
0.0
  0
VERTEX
  5
1AA
330
19E
100
AcDbEntity
  8
図
  6
CONTINUOUS
 62
     7
100
AcDbVertex
100
AcDb2dVertex
 10
1157.00513
 20
520.3614479999997
 30
0.0
  0
VERTEX
  5
1AB
330
19E
100
AcDbEntity
  8
図
  6
CONTINUOUS
 62
     7
100
AcDbVertex
100
AcDb2dVertex
 10
1156.553466000001
 20
519.8693839999996
 30
0.0
  0
VERTEX
  5
1AC
330
19E
100
AcDbEntity
  8
図
  6
CONTINUOUS
 62
     7
100
AcDbVertex
100
AcDb2dVertex
 10
1156.056886000001
 20
519.3979479999998
 30
0.0
  0
VERTEX
  5
1AD
330
19E
100
AcDbEntity
  8
図
  6
CONTINUOUS
 62
     7
100
AcDbVertex
100
AcDb2dVertex
 10
1155.509278000001
 20
518.9544679999999
 30
0.0
  0
VERTEX
  5
1AE
330
19E
100
AcDbEntity
  8
図
  6
CONTINUOUS
 62
     7
100
AcDbVertex
100
AcDb2dVertex
 10
1154.904542
 20
518.5496800000001
 30
0.0
  0
VERTEX
  5
1AF
330
19E
100
AcDbEntity
  8
図
  6
CONTINUOUS
 62
     7
100
AcDbVertex
100
AcDb2dVertex
 10
1154.237062
 20
518.1983639999999
 30
0.0
  0
VERTEX
  5
1B0
330
19E
100
AcDbEntity
  8
図
  6
CONTINUOUS
 62
     7
100
AcDbVertex
100
AcDb2dVertex
 10
1153.50415
 20
517.9199200000003
 30
0.0
  0
VERTEX
  5
1B1
330
19E
100
AcDbEntity
  8
図
  6
CONTINUOUS
 62
     7
100
AcDbVertex
100
AcDb2dVertex
 10
1152.714846
 20
517.7386480000005
 30
0.0
  0
VERTEX
  5
1B2
330
19E
100
AcDbEntity
  8
図
  6
CONTINUOUS
 62
     7
100
AcDbVertex
100
AcDb2dVertex
 10
1151.893310000001
 20
517.6756600000008
 30
0.0
  0
SEQEND
  5
1B3
330
19E
100
AcDbEntity
  8
図
  6
CONTINUOUS
 62
     7
  0
LINE
  5
1B4
330
1F
100
AcDbEntity
  8
図
  6
CONTINUOUS
 62
     7
100
AcDbLine
 10
1151.893310000001
 20
519.2890599999992
 30
0.0
 11
1151.893310000001
 21
517.6756600000008
 31
0.0
  0
LINE
  5
1B5
330
1F
100
AcDbEntity
  8
図
  6
CONTINUOUS
 62
     7
100
AcDbLine
 10
1066.106690000001
 20
517.6756600000008
 30
0.0
 11
1151.893310000001
 21
517.6756600000008
 31
0.0
  0
LINE
  5
1B6
330
1F
100
AcDbEntity
  8
図
  6
CONTINUOUS
 62
     7
100
AcDbLine
 10
1066.106690000001
 20
519.2890599999992
 30
0.0
 11
1066.106690000001
 21
517.6756600000008
 31
0.0
  0
POLYLINE
  5
1B7
330
1F
100
AcDbEntity
  8
図
  6
CONTINUOUS
 62
     7
100
AcDb2dPolyline
 66
     1
 10
0.0
 20
0.0
 30
0.0
 70
   128
  0
VERTEX
  5
1B8
330
1B7
100
AcDbEntity
  8
図
  6
CONTINUOUS
 62
     7
100
AcDbVertex
100
AcDb2dVertex
 10
1066.106690000001
 20
517.6756600000008
 30
0.0
  0
VERTEX
  5
1B9
330
1B7
100
AcDbEntity
  8
図
  6
CONTINUOUS
 62
     7
100
AcDbVertex
100
AcDb2dVertex
 10
1065.285890000001
 20
517.7385240000003
 30
0.0
  0
VERTEX
  5
1BA
330
1B7
100
AcDbEntity
  8
図
  6
CONTINUOUS
 62
     7
100
AcDbVertex
100
AcDb2dVertex
 10
1064.497802000001
 20
517.919312
 30
0.0
  0
VERTEX
  5
1BB
330
1B7
100
AcDbEntity
  8
図
  6
CONTINUOUS
 62
     7
100
AcDbVertex
100
AcDb2dVertex
 10
1063.765382000001
 20
518.1971439999998
 30
0.0
  0
VERTEX
  5
1BC
330
1B7
100
AcDbEntity
  8
図
  6
CONTINUOUS
 62
     7
100
AcDbVertex
100
AcDb2dVertex
 10
1063.096926000001
 20
518.548827999999
 30
0.0
  0
VERTEX
  5
1BD
330
1B7
100
AcDbEntity
  8
図
  6
CONTINUOUS
 62
     7
100
AcDbVertex
100
AcDb2dVertex
 10
1062.490966000001
 20
518.954224000001
 30
0.0
  0
VERTEX
  5
1BE
330
1B7
100
AcDbEntity
  8
図
  6
CONTINUOUS
 62
     7
100
AcDbVertex
100
AcDb2dVertex
 10
1061.943362000001
 20
519.3975840000003
 30
0.0
  0
VERTEX
  5
1BF
330
1B7
100
AcDbEntity
  8
図
  6
CONTINUOUS
 62
     7
100
AcDbVertex
100
AcDb2dVertex
 10
1061.447266000001
 20
519.8686519999992
 30
0.0
  0
VERTEX
  5
1C0
330
1B7
100
AcDbEntity
  8
図
  6
CONTINUOUS
 62
     7
100
AcDbVertex
100
AcDb2dVertex
 10
1060.995850000001
 20
520.3603519999997
 30
0.0
  0
VERTEX
  5
1C1
330
1B7
100
AcDbEntity
  8
図
  6
CONTINUOUS
 62
     7
100
AcDbVertex
100
AcDb2dVertex
 10
1060.206054000001
 20
521.3875719999996
 30
0.0
  0
VERTEX
  5
1C2
330
1B7
100
AcDbEntity
  8
図
  6
CONTINUOUS
 62
     7
100
AcDbVertex
100
AcDb2dVertex
 10
1059.539550000001
 20
522.4550760000002
 30
0.0
  0
VERTEX
  5
1C3
330
1B7
100
AcDbEntity
  8
図
  6
CONTINUOUS
 62
     7
100
AcDbVertex
100
AcDb2dVertex
 10
1058.972902000001
 20
523.5479720000003
 30
0.0
  0
VERTEX
  5
1C4
330
1B7
100
AcDbEntity
  8
図
  6
CONTINUOUS
 62
     7
100
AcDbVertex
100
AcDb2dVertex
 10
1058.490478
 20
524.6564920000001
 30
0.0
  0
VERTEX
  5
1C5
330
1B7
100
AcDbEntity
  8
図
  6
CONTINUOUS
 62
     7
100
AcDbVertex
100
AcDb2dVertex
 10
1057.897706
 20
526.3393560000004
 30
0.0
  0
VERTEX
  5
1C6
330
1B7
100
AcDbEntity
  8
図
  6
CONTINUOUS
 62
     7
100
AcDbVertex
100
AcDb2dVertex
 10
1057.437258000001
 20
528.0365000000002
 30
0.0
  0
VERTEX
  5
1C7
330
1B7
100
AcDbEntity
  8
図
  6
CONTINUOUS
 62
     7
100
AcDbVertex
100
AcDb2dVertex
 10
1057.09009
 20
529.7391360000001
 30
0.0
  0
VERTEX
  5
1C8
330
1B7
100
AcDbEntity
  8
図
  6
CONTINUOUS
 62
     7
100
AcDbVertex
100
AcDb2dVertex
 10
1056.84131
 20
531.4433599999993
 30
0.0
  0
VERTEX
  5
1C9
330
1B7
100
AcDbEntity
  8
図
  6
CONTINUOUS
 62
     7
100
AcDbVertex
100
AcDb2dVertex
 10
1056.645754
 20
533.7125240000005
 30
0.0
  0
VERTEX
  5
1CA
330
1B7
100
AcDbEntity
  8
図
  6
CONTINUOUS
 62
     7
100
AcDbVertex
100
AcDb2dVertex
 10
1056.590578000001
 20
535.9713119999997
 30
0.0
  0
VERTEX
  5
1CB
330
1B7
100
AcDbEntity
  8
図
  6
CONTINUOUS
 62
     7
100
AcDbVertex
100
AcDb2dVertex
 10
1056.633790000001
 20
537.6564920000001
 30
0.0
  0
SEQEND
  5
1CC
330
1B7
100
AcDbEntity
  8
図
  6
CONTINUOUS
 62
     7
  0
ARC
  5
1CD
330
1F
100
AcDbEntity
  8
図
  6
CONTINUOUS
 62
     7
100
AcDbCircle
 10
1778.855226000001
 20
504.1143799999991
 30
0.0
 40
722.9999999999999
100
AcDbArc
 50
171.739533
 51
177.34093
  0
ARC
  5
1CE
330
1F
100
AcDbEntity
  8
図
  6
CONTINUOUS
 62
     7
100
AcDbCircle
 10
1073.252442000001
 20
606.5535880000007
 30
0.0
 40
10.0
100
AcDbArc
 50
90.00000300000161
 51
171.7395329999992
  0
LINE
  5
1CF
330
1F
100
AcDbEntity
  8
図
  6
CONTINUOUS
 62
     7
100
AcDbLine
 10
1073.252442000001
 20
616.5535880000007
 30
0.0
 11
1144.747558
 21
616.5535880000007
 31
0.0
  0
ARC
  5
1D0
330
1F
100
AcDbEntity
  8
図
  6
CONTINUOUS
 62
     7
100
AcDbCircle
 10
1144.747558
 20
606.5535880000007
 30
0.0
 40
10.0
100
AcDbArc
 50
8.260469000000546
 51
89.99999600000089
  0
ARC
  5
1D1
330
1F
100
AcDbEntity
  8
図
  6
CONTINUOUS
 62
     7
100
AcDbCircle
 10
439.1447780000011
 20
504.1143799999991
 30
0.0
 40
722.9999999999999
100
AcDbArc
 50
2.659064999999941
 51
8.260468999999972
  0
POLYLINE
  5
1D2
330
1F
100
AcDbEntity
  8
図
  6
CONTINUOUS
 62
     7
100
AcDb2dPolyline
 66
     1
 10
0.0
 20
0.0
 30
0.0
 70
   128
  0
VERTEX
  5
1D3
330
1D2
100
AcDbEntity
  8
図
  6
CONTINUOUS
 62
     7
100
AcDbVertex
100
AcDb2dVertex
 10
1501.89331
 20
517.6756600000008
 30
0.0
  0
VERTEX
  5
1D4
330
1D2
100
AcDbEntity
  8
図
  6
CONTINUOUS
 62
     7
100
AcDbVertex
100
AcDb2dVertex
 10
1502.714602
 20
517.7386480000005
 30
0.0
  0
VERTEX
  5
1D5
330
1D2
100
AcDbEntity
  8
図
  6
CONTINUOUS
 62
     7
100
AcDbVertex
100
AcDb2dVertex
 10
1503.503418000001
 20
517.9196759999995
 30
0.0
  0
VERTEX
  5
1D6
330
1D2
100
AcDbEntity
  8
図
  6
CONTINUOUS
 62
     7
100
AcDbVertex
100
AcDb2dVertex
 10
1504.236818
 20
518.1982399999997
 30
0.0
  0
VERTEX
  5
1D7
330
1D2
100
AcDbEntity
  8
図
  6
CONTINUOUS
 62
     7
100
AcDbVertex
100
AcDb2dVertex
 10
1504.906982000001
 20
518.5510240000003
 30
0.0
  0
VERTEX
  5
1D8
330
1D2
100
AcDbEntity
  8
図
  6
CONTINUOUS
 62
     7
100
AcDbVertex
100
AcDb2dVertex
 10
1505.51221
 20
518.9564200000004
 30
0.0
  0
VERTEX
  5
1D9
330
1D2
100
AcDbEntity
  8
図
  6
CONTINUOUS
 62
     7
100
AcDbVertex
100
AcDb2dVertex
 10
1506.058594000001
 20
519.3994120000007
 30
0.0
  0
VERTEX
  5
1DA
330
1D2
100
AcDbEntity
  8
図
  6
CONTINUOUS
 62
     7
100
AcDbVertex
100
AcDb2dVertex
 10
1506.554446000001
 20
519.8703600000008
 30
0.0
  0
VERTEX
  5
1DB
330
1D2
100
AcDbEntity
  8
図
  6
CONTINUOUS
 62
     7
100
AcDbVertex
100
AcDb2dVertex
 10
1507.005618
 20
520.3620599999995
 30
0.0
  0
VERTEX
  5
1DC
330
1D2
100
AcDbEntity
  8
図
  6
CONTINUOUS
 62
     7
100
AcDbVertex
100
AcDb2dVertex
 10
1507.795409999999
 20
521.3898919999992
 30
0.0
  0
VERTEX
  5
1DD
330
1D2
100
AcDbEntity
  8
図
  6
CONTINUOUS
 62
     7
100
AcDbVertex
100
AcDb2dVertex
 10
1508.461914
 20
522.4576400000005
 30
0.0
  0
VERTEX
  5
1DE
330
1D2
100
AcDbEntity
  8
図
  6
CONTINUOUS
 62
     7
100
AcDbVertex
100
AcDb2dVertex
 10
1509.027833999999
 20
523.5491920000004
 30
0.0
  0
VERTEX
  5
1DF
330
1D2
100
AcDbEntity
  8
図
  6
CONTINUOUS
 62
     7
100
AcDbVertex
100
AcDb2dVertex
 10
1509.509766
 20
524.6571039999999
 30
0.0
  0
VERTEX
  5
1E0
330
1D2
100
AcDbEntity
  8
図
  6
CONTINUOUS
 62
     7
100
AcDbVertex
100
AcDb2dVertex
 10
1510.102542000001
 20
526.3405760000005
 30
0.0
  0
VERTEX
  5
1E1
330
1D2
100
AcDbEntity
  8
図
  6
CONTINUOUS
 62
     7
100
AcDbVertex
100
AcDb2dVertex
 10
1510.562746
 20
528.0367440000009
 30
0.0
  0
VERTEX
  5
1E2
330
1D2
100
AcDbEntity
  8
図
  6
CONTINUOUS
 62
     7
100
AcDbVertex
100
AcDb2dVertex
 10
1510.909914000001
 20
529.7381600000008
 30
0.0
  0
VERTEX
  5
1E3
330
1D2
100
AcDbEntity
  8
図
  6
CONTINUOUS
 62
     7
100
AcDbVertex
100
AcDb2dVertex
 10
1511.15845
 20
531.4420160000009
 30
0.0
  0
VERTEX
  5
1E4
330
1D2
100
AcDbEntity
  8
図
  6
CONTINUOUS
 62
     7
100
AcDbVertex
100
AcDb2dVertex
 10
1511.354006
 20
533.7109359999995
 30
0.0
  0
VERTEX
  5
1E5
330
1D2
100
AcDbEntity
  8
図
  6
CONTINUOUS
 62
     7
100
AcDbVertex
100
AcDb2dVertex
 10
1511.409426000001
 20
535.9703360000003
 30
0.0
  0
VERTEX
  5
1E6
330
1D2
100
AcDbEntity
  8
図
  6
CONTINUOUS
 62
     7
100
AcDbVertex
100
AcDb2dVertex
 10
1511.366214
 20
537.6564920000001
 30
0.0
  0
SEQEND
  5
1E7
330
1D2
100
AcDbEntity
  8
図
  6
CONTINUOUS
 62
     7
  0
LINE
  5
1E8
330
1F
100
AcDbEntity
  8
図
  6
CONTINUOUS
 62
     7
100
AcDbLine
 10
1501.89331
 20
519.2890599999992
 30
0.0
 11
1501.89331
 21
517.6756600000008
 31
0.0
  0
LINE
  5
1E9
330
1F
100
AcDbEntity
  8
図
  6
CONTINUOUS
 62
     7
100
AcDbLine
 10
1416.106690000001
 20
517.6756600000008
 30
0.0
 11
1501.89331
 21
517.6756600000008
 31
0.0
  0
LINE
  5
1EA
330
1F
100
AcDbEntity
  8
図
  6
CONTINUOUS
 62
     7
100
AcDbLine
 10
1416.106690000001
 20
519.2890599999992
 30
0.0
 11
1416.106690000001
 21
517.6756600000008
 31
0.0
  0
POLYLINE
  5
1EB
330
1F
100
AcDbEntity
  8
図
  6
CONTINUOUS
 62
     7
100
AcDb2dPolyline
 66
     1
 10
0.0
 20
0.0
 30
0.0
 70
   128
  0
VERTEX
  5
1EC
330
1EB
100
AcDbEntity
  8
図
  6
CONTINUOUS
 62
     7
100
AcDbVertex
100
AcDb2dVertex
 10
1406.63379
 20
537.6564920000001
 30
0.0
  0
VERTEX
  5
1ED
330
1EB
100
AcDbEntity
  8
図
  6
CONTINUOUS
 62
     7
100
AcDbVertex
100
AcDb2dVertex
 10
1406.591798000001
 20
535.4079600000005
 30
0.0
  0
VERTEX
  5
1EE
330
1EB
100
AcDbEntity
  8
図
  6
CONTINUOUS
 62
     7
100
AcDbVertex
100
AcDb2dVertex
 10
1406.68091
 20
533.14624
 30
0.0
  0
VERTEX
  5
1EF
330
1EB
100
AcDbEntity
  8
図
  6
CONTINUOUS
 62
     7
100
AcDbVertex
100
AcDb2dVertex
 10
1406.913818
 20
530.8756080000003
 30
0.0
  0
VERTEX
  5
1F0
330
1EB
100
AcDbEntity
  8
図
  6
CONTINUOUS
 62
     7
100
AcDbVertex
100
AcDb2dVertex
 10
1407.194094000001
 20
529.1717520000002
 30
0.0
  0
VERTEX
  5
1F1
330
1EB
100
AcDbEntity
  8
図
  6
CONTINUOUS
 62
     7
100
AcDbVertex
100
AcDb2dVertex
 10
1407.577394
 20
527.4704600000005
 30
0.0
  0
VERTEX
  5
1F2
330
1EB
100
AcDbEntity
  8
図
  6
CONTINUOUS
 62
     7
100
AcDbVertex
100
AcDb2dVertex
 10
1408.079346000001
 20
525.7768560000004
 30
0.0
  0
VERTEX
  5
1F3
330
1EB
100
AcDbEntity
  8
図
  6
CONTINUOUS
 62
     7
100
AcDbVertex
100
AcDb2dVertex
 10
1408.490234
 20
524.6571039999999
 30
0.0
  0
VERTEX
  5
1F4
330
1EB
100
AcDbEntity
  8
図
  6
CONTINUOUS
 62
     7
100
AcDbVertex
100
AcDb2dVertex
 10
1408.972658
 20
523.5487040000007
 30
0.0
  0
VERTEX
  5
1F5
330
1EB
100
AcDbEntity
  8
図
  6
CONTINUOUS
 62
     7
100
AcDbVertex
100
AcDb2dVertex
 10
1409.539062
 20
522.4559320000008
 30
0.0
  0
VERTEX
  5
1F6
330
1EB
100
AcDbEntity
  8
図
  6
CONTINUOUS
 62
     7
100
AcDbVertex
100
AcDb2dVertex
 10
1410.205566000001
 20
521.3883040000001
 30
0.0
  0
VERTEX
  5
1F7
330
1EB
100
AcDbEntity
  8
図
  6
CONTINUOUS
 62
     7
100
AcDbVertex
100
AcDb2dVertex
 10
1410.995118
 20
520.3612040000007
 30
0.0
  0
VERTEX
  5
1F8
330
1EB
100
AcDbEntity
  8
図
  6
CONTINUOUS
 62
     7
100
AcDbVertex
100
AcDb2dVertex
 10
1411.446534
 20
519.8695040000002
 30
0.0
  0
VERTEX
  5
1F9
330
1EB
100
AcDbEntity
  8
図
  6
CONTINUOUS
 62
     7
100
AcDbVertex
100
AcDb2dVertex
 10
1411.942382
 20
519.3984359999995
 30
0.0
  0
VERTEX
  5
1FA
330
1EB
100
AcDbEntity
  8
図
  6
CONTINUOUS
 62
     7
100
AcDbVertex
100
AcDb2dVertex
 10
1412.489746
 20
518.9549559999996
 30
0.0
  0
VERTEX
  5
1FB
330
1EB
100
AcDbEntity
  8
図
  6
CONTINUOUS
 62
     7
100
AcDbVertex
100
AcDb2dVertex
 10
1413.095706
 20
518.5495599999995
 30
0.0
  0
VERTEX
  5
1FC
330
1EB
100
AcDbEntity
  8
図
  6
CONTINUOUS
 62
     7
100
AcDbVertex
100
AcDb2dVertex
 10
1413.763918000001
 20
518.1978760000002
 30
0.0
  0
VERTEX
  5
1FD
330
1EB
100
AcDbEntity
  8
図
  6
CONTINUOUS
 62
     7
100
AcDbVertex
100
AcDb2dVertex
 10
1414.496338
 20
517.9197999999997
 30
0.0
  0
VERTEX
  5
1FE
330
1EB
100
AcDbEntity
  8
図
  6
CONTINUOUS
 62
     7
100
AcDbVertex
100
AcDb2dVertex
 10
1415.285158
 20
517.7386480000005
 30
0.0
  0
VERTEX
  5
1FF
330
1EB
100
AcDbEntity
  8
図
  6
CONTINUOUS
 62
     7
100
AcDbVertex
100
AcDb2dVertex
 10
1416.106690000001
 20
517.6756600000008
 30
0.0
  0
SEQEND
  5
200
330
1EB
100
AcDbEntity
  8
図
  6
CONTINUOUS
 62
     7
  0
ARC
  5
201
330
1F
100
AcDbEntity
  8
図
  6
CONTINUOUS
 62
     7
100
AcDbCircle
 10
2128.855226000001
 20
504.1143799999991
 30
0.0
 40
722.9999999999999
100
AcDbArc
 50
171.739533
 51
177.34093
  0
ARC
  5
202
330
1F
100
AcDbEntity
  8
図
  6
CONTINUOUS
 62
     7
100
AcDbCircle
 10
1423.252442
 20
606.5535880000007
 30
0.0
 40
10.0
100
AcDbArc
 50
90.00000300000161
 51
171.7395329999992
  0
LINE
  5
203
330
1F
100
AcDbEntity
  8
図
  6
CONTINUOUS
 62
     7
100
AcDbLine
 10
1494.747558
 20
616.5535880000007
 30
0.0
 11
1423.252442
 21
616.5535880000007
 31
0.0
  0
ARC
  5
204
330
1F
100
AcDbEntity
  8
図
  6
CONTINUOUS
 62
     7
100
AcDbCircle
 10
1494.747558
 20
606.5535880000007
 30
0.0
 40
10.0
100
AcDbArc
 50
8.260469000000716
 51
89.99999599999958
  0
ARC
  5
205
330
1F
100
AcDbEntity
  8
図
  6
CONTINUOUS
 62
     7
100
AcDbCircle
 10
789.1447780000007
 20
504.1143799999991
 30
0.0
 40
722.9999999999999
100
AcDbArc
 50
2.659065999999854
 51
8.260468999999972
  0
ARC
  5
206
330
1F
100
AcDbEntity
  8
図
  6
CONTINUOUS
 62
     7
100
AcDbCircle
 10
1347.288330000001
 20
617.7189920000001
 30
0.0
 40
11.119112
100
AcDbArc
 50
13.53925299999995
 51
89.99944199999952
  0
LINE
  5
207
330
1F
100
AcDbEntity
  8
図
  6
CONTINUOUS
 62
     7
100
AcDbLine
 10
1347.288330000001
 20
628.8380120000002
 30
0.0
 11
1340.71167
 21
628.8380120000002
 31
0.0
  0
ARC
  5
208
330
1F
100
AcDbEntity
  8
図
  6
CONTINUOUS
 62
     7
100
AcDbCircle
 10
1340.711914
 20
617.7188719999995
 30
0.0
 40
11.119176
100
AcDbArc
 50
90.00091099999895
 51
166.460999
  0
ARC
  5
209
330
1F
100
AcDbEntity
  8
図
  6
CONTINUOUS
 62
     7
100
AcDbCircle
 10
1227.288330000001
 20
617.7189920000001
 30
0.0
 40
11.119112
100
AcDbArc
 50
13.53925299999995
 51
89.99944199999831
  0
LINE
  5
20A
330
1F
100
AcDbEntity
  8
図
  6
CONTINUOUS
 62
     7
100
AcDbLine
 10
1227.288330000001
 20
628.8380120000002
 30
0.0
 11
1220.71167
 21
628.8380120000002
 31
0.0
  0
ARC
  5
20B
330
1F
100
AcDbEntity
  8
図
  6
CONTINUOUS
 62
     7
100
AcDbCircle
 10
1220.711914
 20
617.7188719999995
 30
0.0
 40
11.119176
100
AcDbArc
 50
90.00091100000016
 51
166.460999
  0
ARC
  5
20C
330
1F
100
AcDbEntity
  8
図
  6
CONTINUOUS
 62
     7
100
AcDbCircle
 10
402.6110860000011
 20
499.8906239999997
 30
0.0
 40
749.5330200000003
100
AcDbArc
 50
1.483019999999868
 51
8.954352850929915
  0
ARC
  5
20D
330
1F
100
AcDbEntity
  8
図
  6
CONTINUOUS
 62
     7
100
AcDbCircle
 10
1815.38257
 20
499.8909920000006
 30
0.0
 40
749.5266720000001
100
AcDbArc
 50
171.045599166
 51
178.516993
  0
ARC
  5
20E
330
1F
100
AcDbEntity
  8
図
  6
CONTINUOUS
 62
     7
100
AcDbCircle
 10
752.6174340000006
 20
499.8909920000006
 30
0.0
 40
749.5266720000001
100
AcDbArc
 50
1.483008999999909
 51
8.954400833999989
  0
ARC
  5
20F
330
1F
100
AcDbEntity
  8
図
  6
CONTINUOUS
 62
     7
100
AcDbCircle
 10
2165.388918000001
 20
499.8906239999997
 30
0.0
 40
749.5330200000003
100
AcDbArc
 50
171.0456471491001
 51
178.51698
  0
ARC
  5
210
330
1F
100
AcDbEntity
  8
図
  6
CONTINUOUS
 62
     7
100
AcDbCircle
 10
1347.289550000001
 20
617.4846199999993
 30
0.0
 40
18.53290800000001
100
AcDbArc
 50
14.29157899999979
 51
90.00376599996726
  0
LINE
  5
211
330
1F
100
AcDbEntity
  8
図
  6
CONTINUOUS
 62
     7
100
AcDbLine
 10
1340.71167
 20
636.0177000000003
 30
0.0
 11
1347.288330000001
 21
636.0177000000003
 31
0.0
  0
ARC
  5
212
330
1F
100
AcDbEntity
  8
図
  6
CONTINUOUS
 62
     7
100
AcDbCircle
 10
1340.710450000001
 20
617.4846199999993
 30
0.0
 40
18.53291200000001
100
AcDbArc
 50
89.99623900003363
 51
165.7084080000002
  0
ARC
  5
213
330
1F
100
AcDbEntity
  8
図
  6
CONTINUOUS
 62
     7
100
AcDbCircle
 10
1227.289550000001
 20
617.4846199999993
 30
0.0
 40
18.53290800000001
100
AcDbArc
 50
14.29157899999979
 51
90.00376599996726
  0
LINE
  5
214
330
1F
100
AcDbEntity
  8
図
  6
CONTINUOUS
 62
     7
100
AcDbLine
 10
1220.71167
 20
636.0177000000003
 30
0.0
 11
1227.288330000001
 21
636.0177000000003
 31
0.0
  0
ARC
  5
215
330
1F
100
AcDbEntity
  8
図
  6
CONTINUOUS
 62
     7
100
AcDbCircle
 10
1220.710450000001
 20
617.4846199999993
 30
0.0
 40
18.53291200000001
100
AcDbArc
 50
89.99623900003294
 51
165.7084080000002
  0
ARC
  5
216
330
1F
100
AcDbEntity
  8
図
  6
CONTINUOUS
 62
     7
100
AcDbCircle
 10
1044.000001999999
 20
647.5535880000007
 30
0.0
 40
5.0
100
AcDbArc
 50
90.00000000000001
 51
180.0
  0
ARC
  5
217
330
1F
100
AcDbEntity
  8
図
  6
CONTINUOUS
 62
     7
100
AcDbCircle
 10
1044.000001999999
 20
647.5535880000007
 30
0.0
 40
5.0
100
AcDbArc
 50
90.00000000000001
 51
180.0
  0
ARC
  5
218
330
1F
100
AcDbEntity
  8
図
  6
CONTINUOUS
 62
     7
100
AcDbCircle
 10
1524.000002000003
 20
647.5535880000007
 30
0.0
 40
5.0
100
AcDbArc
 50
0.0
 51
90.00000000000001
  0
LINE
  5
219
330
1F
100
AcDbEntity
  8
図
  6
CONTINUOUS
 62
     7
100
AcDbLine
 10
1524.000002000009
 20
652.5535880000007
 30
0.0
 11
1044.000001999998
 21
652.5535880000007
 31
0.0
  0
LINE
  5
21A
330
1F
100
AcDbEntity
  8
図
  6
EXLTYPE3
 62
     6
100
AcDbLine
 10
1109.000004000001
 20
642.185668
 30
0.0
 11
1109.000004000001
 21
587.0
 31
0.0
  0
LINE
  5
21B
330
1F
100
AcDbEntity
  8
図
  6
EXLTYPE3
 62
     6
100
AcDbLine
 10
1109.000004000003
 20
536.5
 30
0.0
 11
1109.000004
 21
501.5000000000001
 31
0.0
  0
LINE
  5
21C
330
1F
100
AcDbEntity
  8
図
  6
EXLTYPE3
 62
     6
100
AcDbLine
 10
1459.000000000002
 20
642.185668
 30
0.0
 11
1459.000000000002
 21
587.0
 31
0.0
  0
LINE
  5
21D
330
1F
100
AcDbEntity
  8
図
  6
EXLTYPE3
 62
     6
100
AcDbLine
 10
1458.999999999999
 20
536.5
 30
0.0
 11
1459.000000000003
 21
501.5000000000001
 31
0.0
  0
LINE
  5
21E
330
1F
100
AcDbEntity
  8
図
  6
EXLTYPE3
 62
     6
100
AcDbLine
 10
1215.499999999998
 20
1036.280151999999
 30
0.0
 11
1346.999999999998
 21
1036.280151999999
 31
0.0
  0
LINE
  5
21F
330
1F
100
AcDbEntity
  8
図
  6
EXLTYPE3
 62
     6
100
AcDbLine
 10
1284.000002
 20
1273.499999999998
 30
0.0
 11
1284.000002
 21
784.0
 31
0.0
  0
LINE
  5
220
330
1F
100
AcDbEntity
  8
図
  6
EXLTYPE3
 62
     6
100
AcDbLine
 10
1159.000002000002
 20
1038.43015199997
 30
0.0
 11
1159.000002000002
 21
1061.280151999971
 31
0.0
  0
LINE
  5
221
330
1F
100
AcDbEntity
  8
図
  6
EXLTYPE3
 62
     6
100
AcDbLine
 10
1409.000002000002
 20
1038.58015199997
 30
0.0
 11
1409.000002000002
 21
1064.33015199997
 31
0.0
  0
LINE
  5
222
330
1F
100
AcDbEntity
  8
図
  6
EXLTYPE3
 62
     6
100
AcDbLine
 10
1215.500000000001
 20
1036.280151999971
 30
0.0
 11
1347.000000000001
 21
1036.280151999971
 31
0.0
  0
LINE
  5
223
330
1F
100
AcDbEntity
  8
図
  6
EXLTYPE3
 62
     6
100
AcDbLine
 10
1423.500002000001
 20
1051.280151999965
 30
0.0
 11
1394.150002000001
 21
1051.280151999965
 31
0.0
  0
CIRCLE
  5
224
330
1F
100
AcDbEntity
  8
図
  6
CONTINUOUS
 62
     7
100
AcDbCircle
 10
1409.000002000002
 20
1051.280151999971
 30
0.0
 40
7.0
  0
LINE
  5
225
330
1F
100
AcDbEntity
  8
図
  6
EXLTYPE3
 62
     6
100
AcDbLine
 10
1159.000002000002
 20
1038.43015199997
 30
0.0
 11
1159.000002000002
 21
1061.280151999971
 31
0.0
  0
LINE
  5
226
330
1F
100
AcDbEntity
  8
図
  6
EXLTYPE3
 62
     6
100
AcDbLine
 10
1172.800002000001
 20
1051.280151999965
 30
0.0
 11
1146.300002000001
 21
1051.280151999965
 31
0.0
  0
CIRCLE
  5
227
330
1F
100
AcDbEntity
  8
図
  6
CONTINUOUS
 62
     7
100
AcDbCircle
 10
1159.000002000001
 20
1051.280151999971
 30
0.0
 40
7.0
  0
LINE
  5
228
330
1F
100
AcDbEntity
  8
図
  6
EXLTYPE3
 62
     6
100
AcDbLine
 10
462.4999279999996
 20
1166.280151999971
 30
0.0
 11
429.4999279999996
 21
1166.280151999971
 31
0.0
  0
ARC
  5
229
330
1F
100
AcDbEntity
  8
図
  6
CONTINUOUS
 62
     7
100
AcDbCircle
 10
505.2469959999975
 20
1098.110963999971
 30
0.0
 40
1.252952
100
AcDbArc
 50
359.9887060006477
 51
5.19081599999049
  0
LINE
  5
22A
330
1F
100
AcDbEntity
  8
図
  6
CONTINUOUS
 62
     7
100
AcDbLine
 10
516.9999639999972
 20
1156.29773199997
 30
0.0
 11
516.9999639999972
 21
1156.332399999971
 31
0.0
  0
LINE
  5
22B
330
1F
100
AcDbEntity
  8
図
  6
CONTINUOUS
 62
     7
100
AcDbLine
 10
515.9999639999972
 20
1156.29773199997
 30
0.0
 11
515.9999639999972
 21
1156.332399999971
 31
0.0
  0
ARC
  5
22C
330
1F
100
AcDbEntity
  8
図
  6
CONTINUOUS
 62
     7
100
AcDbCircle
 10
527.7528919999971
 20
1098.11120799997
 30
0.0
 40
1.252956
100
AcDbArc
 50
179.9886940004459
 51
185.1905120000069
  0
LINE
  5
22D
330
1F
100
AcDbEntity
  8
図
  6
CONTINUOUS
 62
     7
100
AcDbLine
 10
757.4999279999995
 20
1261.280151999971
 30
0.0
 11
275.4999279999996
 21
1261.280151999971
 31
0.0
  0
ARC
  5
22E
330
1F
100
AcDbEntity
  8
図
  6
CONTINUOUS
 62
     7
100
AcDbCircle
 10
275.4999279999969
 20
1257.280151999971
 30
0.0
 40
4.0
100
AcDbArc
 50
90.00000000000014
 51
180.0000049999989
  0
ARC
  5
22F
330
1F
100
AcDbEntity
  8
図
  6
CONTINUOUS
 62
     7
100
AcDbCircle
 10
730.4999280000033
 20
832.280151999978
 30
0.0
 40
20.0
100
AcDbArc
 50
269.9999999999792
 51
0.0
  0
LINE
  5
230
330
1F
100
AcDbEntity
  8
図
  6
CONTINUOUS
 62
     7
100
AcDbLine
 10
761.4999279999969
 20
811.2801519999707
 30
0.0
 11
761.4999279999969
 21
1257.280151999971
 31
0.0
  0
ARC
  5
231
330
1F
100
AcDbEntity
  8
図
  6
CONTINUOUS
 62
     7
100
AcDbCircle
 10
281.4999999999958
 20
811.2801519999707
 30
0.0
 40
10.0
100
AcDbArc
 50
180.0
 51
270.0
  0
LINE
  5
232
330
1F
100
AcDbEntity
  8
図
  6
CONTINUOUS
 62
     7
100
AcDbLine
 10
281.4999999999958
 20
801.2801519999707
 30
0.0
 11
751.4999279999969
 21
801.2801519999707
 31
0.0
  0
LINE
  5
233
330
1F
100
AcDbEntity
  8
図
  6
EXLTYPE3
 62
     6
100
AcDbLine
 10
561.9999999999985
 20
1026.280151999971
 30
0.0
 11
469.9999999999986
 21
1026.280151999971
 31
0.0
  0
LINE
  5
234
330
1F
100
AcDbEntity
  8
図
  6
CONTINUOUS
 62
     7
100
AcDbLine
 10
750.4999279999914
 20
832.280151999978
 30
0.0
 11
750.4999280000195
 21
1221.280151999969
 31
0.0
  0
LINE
  5
235
330
1F
100
AcDbEntity
  8
図
  6
CONTINUOUS
 62
     7
100
AcDbLine
 10
731.0244464583969
 20
1100.819126022434
 30
0.0
 11
736.4703435615522
 21
1218.819126022434
 31
0.0
  0
LINE
  5
236
330
1F
100
AcDbEntity
  8
図
  6
CONTINUOUS
 62
     7
100
AcDbLine
 10
578.4999639999963
 20
1077.590318742671
 30
0.0
 11
454.4999639999963
 21
1077.590318742671
 31
0.0
  0
LINE
  5
237
330
1F
100
AcDbEntity
  8
図
  6
CONTINUOUS
 62
     7
100
AcDbLine
 10
454.4999639999963
 20
953.1997546266689
 30
0.0
 11
578.4999639999963
 21
953.1997546266689
 31
0.0
  0
CIRCLE
  5
238
330
1F
100
AcDbEntity
  8
図
  6
CONTINUOUS
 62
     7
100
AcDbCircle
 10
446.4999279999996
 20
1166.280151999971
 30
0.0
 40
7.500000000000002
  0
LINE
  5
239
330
1F
100
AcDbEntity
  8
図
  6
EXLTYPE3
 62
     6
100
AcDbLine
 10
500.8266599999992
 20
1099.970867252971
 30
0.0
 11
532.9266599999986
 21
1099.970867252971
 31
0.0
  0
LINE
  5
23A
330
1F
100
AcDbEntity
  8
図
  6
EXLTYPE3
 62
     6
100
AcDbLine
 10
491.4999279999987
 20
1176.280151999971
 30
0.0
 11
541.6266599999984
 21
1176.280151999971
 31
0.0
  0
LINE
  5
23B
330
1F
100
AcDbEntity
  8
図
  6
EXLTYPE3
 62
     6
100
AcDbLine
 10
446.4999280000005
 20
1180.56030399997
 30
0.0
 11
446.4999280000005
 21
1153.56030399997
 31
0.0
  0
ARC
  5
23C
330
1F
100
AcDbEntity
  8
図
  6
CONTINUOUS
 62
     7
100
AcDbCircle
 10
505.2469959999984
 20
1098.110963999971
 30
0.0
 40
1.252952
100
AcDbArc
 50
359.9887060006477
 51
5.19081599999049
  0
CIRCLE
  5
23D
330
1F
100
AcDbEntity
  8
図
  6
CONTINUOUS
 62
     7
100
AcDbCircle
 10
516.4999279999987
 20
1026.280151999971
 30
0.0
 40
20.5
  0
LINE
  5
23E
330
1F
100
AcDbEntity
  8
図
  6
CONTINUOUS
 62
     7
100
AcDbLine
 10
516.9999639999982
 20
1156.29773199997
 30
0.0
 11
516.9999639999982
 21
1156.332399999971
 31
0.0
  0
LINE
  5
23F
330
1F
100
AcDbEntity
  8
図
  6
CONTINUOUS
 62
     7
100
AcDbLine
 10
515.9999639999982
 20
1156.29773199997
 30
0.0
 11
515.9999639999982
 21
1156.332399999971
 31
0.0
  0
ARC
  5
240
330
1F
100
AcDbEntity
  8
図
  6
CONTINUOUS
 62
     7
100
AcDbCircle
 10
527.752891999998
 20
1098.11120799997
 30
0.0
 40
1.252956
100
AcDbArc
 50
179.9886940004459
 51
185.1905120000069
  0
ARC
  5
241
330
1F
100
AcDbEntity
  8
図
  6
CONTINUOUS
 62
     7
100
AcDbCircle
 10
757.4999279999978
 20
1257.280151999971
 30
0.0
 40
4.0
100
AcDbArc
 50
0.0
 51
89.99999599999602
  0
ARC
  5
242
330
1F
100
AcDbEntity
  8
図
  6
CONTINUOUS
 62
     7
100
AcDbCircle
 10
302.4999999999903
 20
832.2801519999798
 30
0.0
 40
20.0
100
AcDbArc
 50
180.0000000000052
 51
270.0000000000209
  0
ARC
  5
243
330
1F
100
AcDbEntity
  8
図
  6
CONTINUOUS
 62
     7
100
AcDbCircle
 10
751.4999279999978
 20
811.2801519999707
 30
0.0
 40
10.0
100
AcDbArc
 50
270.0
 51
0.0
  0
LINE
  5
244
330
1F
100
AcDbEntity
  8
図
  6
CONTINUOUS
 62
     7
100
AcDbLine
 10
271.4999999999967
 20
811.2801519999707
 30
0.0
 11
271.4999999999976
 21
1257.280151999971
 31
0.0
  0
LINE
  5
245
330
1F
100
AcDbEntity
  8
図
  6
CONTINUOUS
 62
     7
100
AcDbLine
 10
302.4999999999831
 20
812.2801520001309
 30
0.0
 11
730.4999280000033
 21
812.2801520001017
 31
0.0
  0
ARC
  5
246
330
1F
100
AcDbEntity
  8
図
  6
CONTINUOUS
 62
     7
100
AcDbCircle
 10
721.0350793589254
 20
1101.280151999971
 30
0.0
 40
10.0
100
AcDbArc
 50
357.3575791044295
 51
90.00000000000001
  0
ARC
  5
247
330
1F
100
AcDbEntity
  8
図
  6
CONTINUOUS
 62
     7
100
AcDbCircle
 10
311.96484864107
 20
1101.280151999971
 30
0.0
 40
10.0
100
AcDbArc
 50
90.00000000000001
 51
182.6424208955728
  0
LINE
  5
248
330
1F
100
AcDbEntity
  8
図
  6
EXLTYPE3
 62
     6
100
AcDbLine
 10
516.4999639999982
 20
1273.49999999997
 30
0.0
 11
516.4999639999982
 21
790.4999999999714
 31
0.0
  0
LINE
  5
249
330
1F
100
AcDbEntity
  8
図
  6
CONTINUOUS
 62
     7
100
AcDbLine
 10
454.4999640000009
 20
953.1997546266707
 30
0.0
 11
294.8017091022697
 21
822.3589445650709
 31
0.0
  0
LINE
  5
24A
330
1F
100
AcDbEntity
  8
図
  6
CONTINUOUS
 62
     7
100
AcDbLine
 10
578.4999639999927
 20
953.1997546266707
 30
0.0
 11
738.1982188977285
 21
822.3589445650674
 31
0.0
  0
LINE
  5
24B
330
1F
100
AcDbEntity
  8
図
  6
CONTINUOUS
 62
     7
100
AcDbLine
 10
454.4999639999963
 20
953.1997546266672
 30
0.0
 11
454.4999639999963
 21
1077.590318742671
 31
0.0
  0
LINE
  5
24C
330
1F
100
AcDbEntity
  8
図
  6
CONTINUOUS
 62
     7
100
AcDbLine
 10
578.4999639999963
 20
953.1997546266689
 30
0.0
 11
578.4999639999963
 21
1077.590318742671
 31
0.0
  0
LINE
  5
24D
330
1F
100
AcDbEntity
  8
図
  6
CONTINUOUS
 62
     7
100
AcDbLine
 10
322.3766123717936
 20
1106.681835132877
 30
0.0
 11
454.4999640000009
 21
1077.590318742671
 31
0.0
  0
LINE
  5
24E
330
1F
100
AcDbEntity
  8
図
  6
CONTINUOUS
 62
     7
100
AcDbLine
 10
710.5846438016728
 20
1106.673320195423
 30
0.0
 11
578.4999640000009
 21
1077.590318742671
 31
0.0
  0
LINE
  5
24F
330
1F
100
AcDbEntity
  8
図
  6
CONTINUOUS
 62
     7
100
AcDbLine
 10
311.96484864107
 20
1111.280151999971
 30
0.0
 11
721.0350793589254
 21
1111.280151999971
 31
0.0
  0
CIRCLE
  5
250
330
1F
100
AcDbEntity
  8
図
  6
CONTINUOUS
 62
     7
100
AcDbCircle
 10
516.4940079999982
 20
1026.27270399997
 30
0.0
 40
30.49061200000001
  0
ELLIPSE
  5
251
330
1F
100
AcDbEntity
  8
図
  6
CONTINUOUS
 62
     7
100
AcDbEllipse
 10
516.4999279999987
 20
1099.970867252971
 30
0.0
 11
-12.00000000000002
 21
1.469576158976826E-15
 31
0.0
210
0.0
220
0.0
230
1.0
 40
0.3534175578283332
 41
0.0
 42
6.283185307179586
  0
LINE
  5
252
330
1F
100
AcDbEntity
  8
図
  6
CONTINUOUS
 62
     7
100
AcDbLine
 10
516.4999639999963
 20
1231.280151999971
 30
0.0
 11
740.499927999996
 21
1231.280151999971
 31
0.0
  0
LINE
  5
253
330
1F
100
AcDbEntity
  8
図
  6
CONTINUOUS
 62
     7
100
AcDbLine
 10
516.4999639999963
 20
1229.280151999971
 30
0.0
 11
726.4809764620808
 21
1229.280151999971
 31
0.0
  0
ARC
  5
254
330
1F
100
AcDbEntity
  8
図
  6
CONTINUOUS
 62
     7
100
AcDbCircle
 10
740.499927999996
 20
1221.280151999971
 30
0.0
 40
10.0
100
AcDbArc
 50
0.0
 51
90.00000000000001
  0
ARC
  5
255
330
1F
100
AcDbEntity
  8
図
  6
CONTINUOUS
 62
     7
100
AcDbCircle
 10
726.4809764620808
 20
1219.280151999971
 30
0.0
 40
10.0
100
AcDbArc
 50
357.3575791044325
 51
90.00000000000001
  0
LINE
  5
256
330
1F
100
AcDbEntity
  8
図
  6
CONTINUOUS
 62
     7
100
AcDbLine
 10
516.4999639999972
 20
1231.280151999971
 30
0.0
 11
292.4999999999976
 21
1231.280151999971
 31
0.0
  0
LINE
  5
257
330
1F
100
AcDbEntity
  8
図
  6
CONTINUOUS
 62
     7
100
AcDbLine
 10
516.4999639999972
 20
1229.280151999971
 30
0.0
 11
306.5189515379128
 21
1229.280151999971
 31
0.0
  0
ARC
  5
258
330
1F
100
AcDbEntity
  8
図
  6
CONTINUOUS
 62
     7
100
AcDbCircle
 10
292.4999999999976
 20
1221.280151999971
 30
0.0
 40
10.0
100
AcDbArc
 50
90.00000000000001
 51
180.0
  0
ARC
  5
259
330
1F
100
AcDbEntity
  8
図
  6
CONTINUOUS
 62
     7
100
AcDbCircle
 10
306.5189515379128
 20
1219.280151999971
 30
0.0
 40
10.0
100
AcDbArc
 50
90.00000000000001
 51
182.6424208955677
  0
LINE
  5
25A
330
1F
100
AcDbEntity
  8
図
  6
CONTINUOUS
 62
     7
100
AcDbLine
 10
282.4999999999994
 20
832.280151999978
 30
0.0
 11
282.4999999999994
 21
1221.280151999971
 31
0.0
  0
LINE
  5
25B
330
1F
100
AcDbEntity
  8
図
  6
CONTINUOUS
 62
     7
100
AcDbLine
 10
301.9754815415967
 20
1100.819126022434
 30
0.0
 11
296.5295844384412
 21
1218.819126022434
 31
0.0
  0
LINE
  5
25C
330
1F
100
AcDbEntity
  8
図
  6
EXLTYPE3
 62
     6
100
AcDbLine
 10
516.5000000000018
 20
676.0000000000011
 30
0.0
 11
516.5000000000018
 21
469.5000000000013
 31
0.0
  0
LINE
  5
25D
330
1F
100
AcDbEntity
  8
図
  6
CONTINUOUS
 62
     1
100
AcDbLine
 10
588.1524680000048
 20
521.7963880000019
 30
0.0
 11
588.138308000005
 21
521.798156000002
 31
0.0
  0
LINE
  5
25E
330
1F
100
AcDbEntity
  8
図
  6
EXLTYPE3
 62
     6
100
AcDbLine
 10
497.7267320000028
 20
603.5535880000019
 30
0.0
 11
534.3267320000032
 21
603.5535880000019
 31
0.0
  0
POLYLINE
  5
25F
330
1F
100
AcDbEntity
  8
図
  6
CONTINUOUS
 62
     7
100
AcDb2dPolyline
 66
     1
 10
0.0
 20
0.0
 30
0.0
 70
   128
  0
VERTEX
  5
260
330
25F
100
AcDbEntity
  8
図
  6
CONTINUOUS
 62
     7
100
AcDbVertex
100
AcDb2dVertex
 10
502.5089280000029
 20
637.8123240000017
 30
0.0
  0
VERTEX
  5
261
330
25F
100
AcDbEntity
  8
図
  6
CONTINUOUS
 62
     7
100
AcDbVertex
100
AcDb2dVertex
 10
502.7405840000029
 20
637.7395840000003
 30
0.0
  0
VERTEX
  5
262
330
25F
100
AcDbEntity
  8
図
  6
CONTINUOUS
 62
     7
100
AcDbVertex
100
AcDb2dVertex
 10
503.2809840000027
 20
637.6688680000019
 30
0.0
  0
VERTEX
  5
263
330
25F
100
AcDbEntity
  8
図
  6
CONTINUOUS
 62
     7
100
AcDbVertex
100
AcDb2dVertex
 10
504.1179960000027
 20
637.6017600000008
 30
0.0
  0
VERTEX
  5
264
330
25F
100
AcDbEntity
  8
図
  6
CONTINUOUS
 62
     7
100
AcDbVertex
100
AcDb2dVertex
 10
505.2328400000025
 20
637.5397720000013
 30
0.0
  0
VERTEX
  5
265
330
25F
100
AcDbEntity
  8
図
  6
CONTINUOUS
 62
     7
100
AcDbVertex
100
AcDb2dVertex
 10
506.6005040000027
 20
637.4842880000009
 30
0.0
  0
VERTEX
  5
266
330
25F
100
AcDbEntity
  8
図
  6
CONTINUOUS
 62
     7
100
AcDbVertex
100
AcDb2dVertex
 10
508.1902960000025
 20
637.4365600000014
 30
0.0
  0
VERTEX
  5
267
330
25F
100
AcDbEntity
  8
図
  6
CONTINUOUS
 62
     7
100
AcDbVertex
100
AcDb2dVertex
 10
509.9665480000021
 20
637.3976520000009
 30
0.0
  0
VERTEX
  5
268
330
25F
100
AcDbEntity
  8
図
  6
CONTINUOUS
 62
     7
100
AcDbVertex
100
AcDb2dVertex
 10
511.8894000000028
 20
637.3684400000014
 30
0.0
  0
VERTEX
  5
269
330
25F
100
AcDbEntity
  8
図
  6
CONTINUOUS
 62
     7
100
AcDbVertex
100
AcDb2dVertex
 10
513.9157040000027
 20
637.3495840000008
 30
0.0
  0
VERTEX
  5
26A
330
25F
100
AcDbEntity
  8
図
  6
CONTINUOUS
 62
     7
100
AcDbVertex
100
AcDb2dVertex
 10
516.5000000000027
 20
637.3395607361011
 30
0.0
  0
SEQEND
  5
26B
330
25F
100
AcDbEntity
  8
図
  6
CONTINUOUS
 62
     7
  0
POLYLINE
  5
26C
330
1F
100
AcDbEntity
  8
図
  6
CONTINUOUS
 62
     7
100
AcDb2dPolyline
 66
     1
 10
0.0
 20
0.0
 30
0.0
 70
   128
  0
VERTEX
  5
26D
330
26C
100
AcDbEntity
  8
図
  6
CONTINUOUS
 62
     7
100
AcDbVertex
100
AcDb2dVertex
 10
516.5000000000027
 20
638.319987263901
 30
0.0
  0
VERTEX
  5
26E
330
26C
100
AcDbEntity
  8
図
  6
CONTINUOUS
 62
     7
100
AcDbVertex
100
AcDb2dVertex
 10
513.9157040000027
 20
638.3099640000013
 30
0.0
  0
VERTEX
  5
26F
330
26C
100
AcDbEntity
  8
図
  6
CONTINUOUS
 62
     7
100
AcDbVertex
100
AcDb2dVertex
 10
511.8894000000028
 20
638.2911040000012
 30
0.0
  0
VERTEX
  5
270
330
26C
100
AcDbEntity
  8
図
  6
CONTINUOUS
 62
     7
100
AcDbVertex
100
AcDb2dVertex
 10
509.9665480000021
 20
638.2618920000017
 30
0.0
  0
VERTEX
  5
271
330
26C
100
AcDbEntity
  8
図
  6
CONTINUOUS
 62
     7
100
AcDbVertex
100
AcDb2dVertex
 10
508.1902960000025
 20
638.2229840000012
 30
0.0
  0
VERTEX
  5
272
330
26C
100
AcDbEntity
  8
図
  6
CONTINUOUS
 62
     7
100
AcDbVertex
100
AcDb2dVertex
 10
506.6005040000027
 20
638.1752560000017
 30
0.0
  0
VERTEX
  5
273
330
26C
100
AcDbEntity
  8
図
  6
CONTINUOUS
 62
     7
100
AcDbVertex
100
AcDb2dVertex
 10
505.2328400000025
 20
638.1197720000013
 30
0.0
  0
VERTEX
  5
274
330
26C
100
AcDbEntity
  8
図
  6
CONTINUOUS
 62
     7
100
AcDbVertex
100
AcDb2dVertex
 10
504.1179960000027
 20
638.0577840000018
 30
0.0
  0
VERTEX
  5
275
330
26C
100
AcDbEntity
  8
図
  6
CONTINUOUS
 62
     7
100
AcDbVertex
100
AcDb2dVertex
 10
503.2809840000027
 20
637.9906760000007
 30
0.0
  0
VERTEX
  5
276
330
26C
100
AcDbEntity
  8
図
  6
CONTINUOUS
 62
     7
100
AcDbVertex
100
AcDb2dVertex
 10
502.7405880000024
 20
637.9199600000005
 30
0.0
  0
VERTEX
  5
277
330
26C
100
AcDbEntity
  8
図
  6
CONTINUOUS
 62
     7
100
AcDbVertex
100
AcDb2dVertex
 10
502.5089280000029
 20
637.8472200000009
 30
0.0
  0
SEQEND
  5
278
330
26C
100
AcDbEntity
  8
図
  6
CONTINUOUS
 62
     7
  0
LINE
  5
279
330
1F
100
AcDbEntity
  8
図
  6
CONTINUOUS
 62
     7
100
AcDbLine
 10
276.5000000000009
 20
652.5535880000019
 30
0.0
 11
756.5000000000009
 21
652.5535880000019
 31
0.0
  0
ARC
  5
27A
330
1F
100
AcDbEntity
  8
図
  6
CONTINUOUS
 62
     7
100
AcDbCircle
 10
276.5000000000009
 20
647.5535880000019
 30
0.0
 40
5.0
100
AcDbArc
 50
90.00000000000001
 51
180.8325593290847
  0
ARC
  5
27B
330
1F
100
AcDbEntity
  8
図
  6
CONTINUOUS
 62
     7
100
AcDbCircle
 10
484.7744446852849
 20
487.5535880000365
 30
0.0
 40
10.0
100
AcDbArc
 50
187.4696922639352
 51
270.0
  0
LINE
  5
27C
330
1F
100
AcDbEntity
  8
図
  6
CONTINUOUS
 62
     7
100
AcDbLine
 10
471.9070543070993
 20
508.7701880757699
 30
0.0
 11
474.8593070145398
 21
486.2535707039345
 31
0.0
  0
CIRCLE
  5
27D
330
1F
100
AcDbEntity
  8
図
  6
CONTINUOUS
 62
     7
100
AcDbCircle
 10
516.5000000000027
 20
603.5535880000019
 30
0.0
 40
12.00000000000001
  0
LINE
  5
27E
330
1F
100
AcDbEntity
  8
図
  6
CONTINUOUS
 62
     7
100
AcDbLine
 10
588.1524680000057
 20
521.7963880000019
 30
0.0
 11
588.138308000006
 21
521.798156000002
 31
0.0
  0
ARC
  5
27F
330
1F
100
AcDbEntity
  8
図
  6
CONTINUOUS
 62
     7
100
AcDbCircle
 10
619.3242910642002
 20
523.5535880000019
 30
0.0
 40
5.0
100
AcDbArc
 50
211.0794202254908
 51
270.0
  0
LINE
  5
280
330
1F
100
AcDbEntity
  8
図
  6
CONTINUOUS
 62
     7
100
AcDbLine
 10
615.7016545752249
 20
520.1073574695905
 30
0.0
 11
581.7944754875844
 21
520.1073574695905
 31
0.0
  0
LINE
  5
281
330
1F
100
AcDbEntity
  8
図
  6
CONTINUOUS
 62
     7
100
AcDbLine
 10
547.0000000000073
 20
522.5535880000019
 30
0.0
 11
537.0000000000073
 21
512.5535880000019
 31
0.0
  0
ARC
  5
282
330
1F
100
AcDbEntity
  8
図
  6
CONTINUOUS
 62
     7
100
AcDbCircle
 10
548.2255553147234
 20
487.5535880000365
 30
0.0
 40
10.0
100
AcDbArc
 50
270.0
 51
352.5303077360626
  0
ARC
  5
283
330
1F
100
AcDbEntity
  8
図
  6
CONTINUOUS
 62
     7
100
AcDbCircle
 10
571.0080833636548
 20
507.4701707796679
 30
0.0
 40
10.0
100
AcDbArc
 50
102.7214334870558
 51
172.5303077360416
  0
LINE
  5
284
330
1F
100
AcDbEntity
  8
図
  6
CONTINUOUS
 62
     7
100
AcDbLine
 10
561.0929456929089
 20
508.7701880757699
 30
0.0
 11
558.1406929854693
 21
486.2535707039345
 31
0.0
  0
LINE
  5
285
330
1F
100
AcDbEntity
  8
図
  6
CONTINUOUS
 62
     7
100
AcDbLine
 10
607.979252938103
 20
526.0681728970625
 30
0.0
 11
568.805972146426
 21
517.2246931250714
 31
0.0
  0
ARC
  5
286
330
1F
100
AcDbEntity
  8
図
  6
CONTINUOUS
 62
     7
100
AcDbCircle
 10
609.0732780236549
 20
521.1893245637451
 30
0.0
 40
5.0
100
AcDbArc
 50
31.07942022549217
 51
102.7214334870459
  0
LINE
  5
287
330
1F
100
AcDbEntity
  8
図
  6
CONTINUOUS
 62
     7
100
AcDbLine
 10
554.1523493233872
 20
509.6802001830414
 30
0.0
 11
551.2000966159476
 21
487.1635828112061
 31
0.0
  0
ARC
  5
288
330
1F
100
AcDbEntity
  8
図
  6
CONTINUOUS
 62
     7
100
AcDbCircle
 10
548.2255553147234
 20
487.5535880000365
 30
0.0
 40
3.0
100
AcDbArc
 50
270.0
 51
352.5303077360553
  0
LINE
  5
289
330
1F
100
AcDbEntity
  8
図
  6
CONTINUOUS
 62
     7
100
AcDbLine
 10
550.5173991612219
 20
516.1714922246041
 30
0.0
 11
539.8994949366206
 21
505.5535880000019
 31
0.0
  0
LINE
  5
28A
330
1F
100
AcDbEntity
  8
図
  6
CONTINUOUS
 62
     7
100
AcDbLine
 10
557.4597949287299
 20
517.7387578530719
 30
0.0
 11
550.5173991612219
 21
516.1714922246041
 31
0.0
  0
ARC
  5
28B
330
1F
100
AcDbEntity
  8
図
  6
CONTINUOUS
 62
     7
100
AcDbCircle
 10
571.0080833636548
 20
507.4701707796679
 30
0.0
 40
17.0
100
AcDbArc
 50
142.8406003854454
 51
172.530307736039
  0
LINE
  5
28C
330
1F
100
AcDbEntity
  8
図
  6
CONTINUOUS
 62
     7
100
AcDbLine
 10
538.0000000000073
 20
477.5535880000019
 30
0.0
 11
538.0000000000073
 21
484.5535880000365
 31
0.0
  0
LINE
  5
28D
330
1F
100
AcDbEntity
  8
図
  6
CONTINUOUS
 62
     7
100
AcDbLine
 10
537.0000000000073
 20
512.5535880000001
 30
0.0
 11
537.0000000000073
 21
505.5535880000019
 31
0.0
  0
LINE
  5
28E
330
1F
100
AcDbEntity
  8
図
  6
CONTINUOUS
 62
     7
100
AcDbLine
 10
537.0000000000073
 20
512.5535880000019
 30
0.0
 11
516.5000000000036
 21
512.5535880000019
 31
0.0
  0
LINE
  5
28F
330
1F
100
AcDbEntity
  8
図
  6
CONTINUOUS
 62
     7
100
AcDbLine
 10
516.5000000000036
 20
522.5535880000019
 30
0.0
 11
547.0000000000073
 21
522.5535880000019
 31
0.0
  0
LINE
  5
290
330
1F
100
AcDbEntity
  8
図
  6
CONTINUOUS
 62
     7
100
AcDbLine
 10
516.5000000000036
 20
505.5535880000019
 30
0.0
 11
539.8994949366206
 21
505.5535880000019
 31
0.0
  0
LINE
  5
291
330
1F
100
AcDbEntity
  8
図
  6
CONTINUOUS
 62
     7
100
AcDbLine
 10
516.5000000000036
 20
484.5535880000365
 30
0.0
 11
548.2255553147234
 21
484.5535880000365
 31
0.0
  0
LINE
  5
292
330
1F
100
AcDbEntity
  8
図
  6
CONTINUOUS
 62
     7
100
AcDbLine
 10
484.7744446852849
 20
477.5535880000365
 30
0.0
 11
548.2255553147234
 21
477.5535880000365
 31
0.0
  0
ARC
  5
293
330
1F
100
AcDbEntity
  8
図
  6
CONTINUOUS
 62
     7
100
AcDbCircle
 10
461.9919166363534
 20
507.4701707796661
 30
0.0
 40
10.0
100
AcDbArc
 50
7.469692263960495
 51
30.55343567722015
  0
ARC
  5
294
330
1F
100
AcDbEntity
  8
図
  6
CONTINUOUS
 62
     7
100
AcDbCircle
 10
632.433270952135
 20
523.5535880000001
 30
0.0
 40
10.0
100
AcDbArc
 50
222.2457211860541
 51
270.0
  0
ARC
  5
295
330
1F
100
AcDbEntity
  8
図
  6
CONTINUOUS
 62
     7
100
AcDbCircle
 10
756.5000000000073
 20
647.5535880000019
 30
0.0
 40
5.0
100
AcDbArc
 50
359.1674406709153
 51
90.00000000000001
  0
ARC
  5
296
330
1F
100
AcDbEntity
  8
図
  6
CONTINUOUS
 62
     7
100
AcDbCircle
 10
752.199581829992
 20
647.5535880000019
 30
0.0
 40
5.0
100
AcDbArc
 50
90.00000000000001
 51
127.531266004784
  0
POLYLINE
  5
297
330
1F
100
AcDbEntity
  8
図
  6
CONTINUOUS
 62
     7
100
AcDb2dPolyline
 66
     1
 10
0.0
 20
0.0
 30
0.0
 70
   128
  0
VERTEX
  5
298
330
297
100
AcDbEntity
  8
図
  6
CONTINUOUS
 62
     7
100
AcDbVertex
100
AcDb2dVertex
 10
530.4910720000025
 20
637.8123240000017
 30
0.0
  0
VERTEX
  5
299
330
297
100
AcDbEntity
  8
図
  6
CONTINUOUS
 62
     7
100
AcDbVertex
100
AcDb2dVertex
 10
530.2594160000026
 20
637.7395840000003
 30
0.0
  0
VERTEX
  5
29A
330
297
100
AcDbEntity
  8
図
  6
CONTINUOUS
 62
     7
100
AcDbVertex
100
AcDb2dVertex
 10
529.7190160000027
 20
637.6688680000019
 30
0.0
  0
VERTEX
  5
29B
330
297
100
AcDbEntity
  8
図
  6
CONTINUOUS
 62
     7
100
AcDbVertex
100
AcDb2dVertex
 10
528.8820040000028
 20
637.6017600000008
 30
0.0
  0
VERTEX
  5
29C
330
297
100
AcDbEntity
  8
図
  6
CONTINUOUS
 62
     7
100
AcDbVertex
100
AcDb2dVertex
 10
527.7671600000031
 20
637.5397720000013
 30
0.0
  0
VERTEX
  5
29D
330
297
100
AcDbEntity
  8
図
  6
CONTINUOUS
 62
     7
100
AcDbVertex
100
AcDb2dVertex
 10
526.3994960000027
 20
637.4842880000009
 30
0.0
  0
VERTEX
  5
29E
330
297
100
AcDbEntity
  8
図
  6
CONTINUOUS
 62
     7
100
AcDbVertex
100
AcDb2dVertex
 10
524.809704000003
 20
637.4365600000014
 30
0.0
  0
VERTEX
  5
29F
330
297
100
AcDbEntity
  8
図
  6
CONTINUOUS
 62
     7
100
AcDbVertex
100
AcDb2dVertex
 10
523.0334520000024
 20
637.3976520000009
 30
0.0
  0
VERTEX
  5
2A0
330
297
100
AcDbEntity
  8
図
  6
CONTINUOUS
 62
     7
100
AcDbVertex
100
AcDb2dVertex
 10
521.1106000000027
 20
637.3684400000014
 30
0.0
  0
VERTEX
  5
2A1
330
297
100
AcDbEntity
  8
図
  6
CONTINUOUS
 62
     7
100
AcDbVertex
100
AcDb2dVertex
 10
519.0842960000027
 20
637.3495840000008
 30
0.0
  0
VERTEX
  5
2A2
330
297
100
AcDbEntity
  8
図
  6
CONTINUOUS
 62
     7
100
AcDbVertex
100
AcDb2dVertex
 10
516.5000000000027
 20
637.3395607361011
 30
0.0
  0
SEQEND
  5
2A3
330
297
100
AcDbEntity
  8
図
  6
CONTINUOUS
 62
     7
  0
POLYLINE
  5
2A4
330
1F
100
AcDbEntity
  8
図
  6
CONTINUOUS
 62
     7
100
AcDb2dPolyline
 66
     1
 10
0.0
 20
0.0
 30
0.0
 70
   128
  0
VERTEX
  5
2A5
330
2A4
100
AcDbEntity
  8
図
  6
CONTINUOUS
 62
     7
100
AcDbVertex
100
AcDb2dVertex
 10
516.5000000000027
 20
638.319987263901
 30
0.0
  0
VERTEX
  5
2A6
330
2A4
100
AcDbEntity
  8
図
  6
CONTINUOUS
 62
     7
100
AcDbVertex
100
AcDb2dVertex
 10
519.0842960000027
 20
638.3099640000013
 30
0.0
  0
VERTEX
  5
2A7
330
2A4
100
AcDbEntity
  8
図
  6
CONTINUOUS
 62
     7
100
AcDbVertex
100
AcDb2dVertex
 10
521.1106000000027
 20
638.2911040000012
 30
0.0
  0
VERTEX
  5
2A8
330
2A4
100
AcDbEntity
  8
図
  6
CONTINUOUS
 62
     7
100
AcDbVertex
100
AcDb2dVertex
 10
523.0334520000024
 20
638.2618920000017
 30
0.0
  0
VERTEX
  5
2A9
330
2A4
100
AcDbEntity
  8
図
  6
CONTINUOUS
 62
     7
100
AcDbVertex
100
AcDb2dVertex
 10
524.809704000003
 20
638.2229840000012
 30
0.0
  0
VERTEX
  5
2AA
330
2A4
100
AcDbEntity
  8
図
  6
CONTINUOUS
 62
     7
100
AcDbVertex
100
AcDb2dVertex
 10
526.3994960000027
 20
638.1752560000017
 30
0.0
  0
VERTEX
  5
2AB
330
2A4
100
AcDbEntity
  8
図
  6
CONTINUOUS
 62
     7
100
AcDbVertex
100
AcDb2dVertex
 10
527.7671600000031
 20
638.1197720000013
 30
0.0
  0
VERTEX
  5
2AC
330
2A4
100
AcDbEntity
  8
図
  6
CONTINUOUS
 62
     7
100
AcDbVertex
100
AcDb2dVertex
 10
528.8820040000028
 20
638.0577840000018
 30
0.0
  0
VERTEX
  5
2AD
330
2A4
100
AcDbEntity
  8
図
  6
CONTINUOUS
 62
     7
100
AcDbVertex
100
AcDb2dVertex
 10
529.7190160000027
 20
637.9906760000007
 30
0.0
  0
VERTEX
  5
2AE
330
2A4
100
AcDbEntity
  8
図
  6
CONTINUOUS
 62
     7
100
AcDbVertex
100
AcDb2dVertex
 10
530.2594120000031
 20
637.9199600000005
 30
0.0
  0
VERTEX
  5
2AF
330
2A4
100
AcDbEntity
  8
図
  6
CONTINUOUS
 62
     7
100
AcDbVertex
100
AcDb2dVertex
 10
530.4910720000025
 20
637.8472200000009
 30
0.0
  0
SEQEND
  5
2B0
330
2A4
100
AcDbEntity
  8
図
  6
CONTINUOUS
 62
     7
  0
LINE
  5
2B1
330
1F
100
AcDbEntity
  8
図
  6
EXLTYPE3
 62
     6
100
AcDbLine
 10
1214.000002000002
 20
881.9999999999715
 30
0.0
 11
1214.000002000002
 21
908.9999999999714
 31
0.0
  0
LINE
  5
2B2
330
1F
100
AcDbEntity
  8
図
  6
EXLTYPE3
 62
     6
100
AcDbLine
 10
1109.000248000002
 20
783.9999999999714
 30
0.0
 11
1109.000248000002
 21
826.4999999999714
 31
0.0
  0
CIRCLE
  5
2B3
330
1F
100
AcDbEntity
  8
図
  6
CONTINUOUS
 62
     7
100
AcDbCircle
 10
1284.000002
 20
1036.280151999971
 30
0.0
 40
45.0
  0
CIRCLE
  5
2B4
330
1F
100
AcDbEntity
  8
図
  6
CONTINUOUS
 62
     7
100
AcDbCircle
 10
1284.000002
 20
1036.280151999971
 30
0.0
 40
41.0
  0
CIRCLE
  5
2B5
330
1F
100
AcDbEntity
  8
図
  6
CONTINUOUS
 62
     7
100
AcDbCircle
 10
1284.000002000002
 20
1036.280151999971
 30
0.0
 40
21.5
  0
ARC
  5
2B6
330
1F
100
AcDbEntity
  8
図
  6
CONTINUOUS
 62
     7
100
AcDbCircle
 10
1389.897034000002
 20
805.0827039999681
 30
0.0
 40
3.802908000000006
100
AcDbArc
 50
231.3388519999854
 51
269.8906939999988
  0
ARC
  5
2B7
330
1F
100
AcDbEntity
  8
図
  6
CONTINUOUS
 62
     7
100
AcDbCircle
 10
1269.897034000002
 20
805.0827039999681
 30
0.0
 40
3.802908000000006
100
AcDbArc
 50
231.3388519999854
 51
269.8906939999988
  0
ARC
  5
2B8
330
1F
100
AcDbEntity
  8
図
  6
CONTINUOUS
 62
     7
100
AcDbCircle
 10
1132.391234000003
 20
821.6247279999703
 30
0.0
 40
1.028488
100
AcDbArc
 50
170.4795960000236
 51
180.003502000022
  0
POLYLINE
  5
2B9
330
1F
100
AcDbEntity
  8
図
  6
CONTINUOUS
 62
     7
100
AcDb2dPolyline
 66
     1
 10
0.0
 20
0.0
 30
0.0
 70
   128
  0
VERTEX
  5
2BA
330
2B9
100
AcDbEntity
  8
図
  6
CONTINUOUS
 62
     7
100
AcDbVertex
100
AcDb2dVertex
 10
1267.521042000002
 20
802.1128919999688
 30
0.0
  0
VERTEX
  5
2BB
330
2B9
100
AcDbEntity
  8
図
  6
CONTINUOUS
 62
     7
100
AcDbVertex
100
AcDb2dVertex
 10
1266.944790000001
 20
802.5360079999706
 30
0.0
  0
VERTEX
  5
2BC
330
2B9
100
AcDbEntity
  8
図
  6
CONTINUOUS
 62
     7
100
AcDbVertex
100
AcDb2dVertex
 10
1266.340238000002
 20
802.9149599999696
 30
0.0
  0
VERTEX
  5
2BD
330
2B9
100
AcDbEntity
  8
図
  6
CONTINUOUS
 62
     7
100
AcDbVertex
100
AcDb2dVertex
 10
1265.710582000003
 20
803.2477439999716
 30
0.0
  0
VERTEX
  5
2BE
330
2B9
100
AcDbEntity
  8
図
  6
CONTINUOUS
 62
     7
100
AcDbVertex
100
AcDb2dVertex
 10
1265.059162000001
 20
803.5325959999687
 30
0.0
  0
VERTEX
  5
2BF
330
2B9
100
AcDbEntity
  8
図
  6
CONTINUOUS
 62
     7
100
AcDbVertex
100
AcDb2dVertex
 10
1264.389418000002
 20
803.7680039999691
 30
0.0
  0
VERTEX
  5
2C0
330
2B9
100
AcDbEntity
  8
図
  6
CONTINUOUS
 62
     7
100
AcDbVertex
100
AcDb2dVertex
 10
1263.704906000002
 20
803.9527279999716
 30
0.0
  0
VERTEX
  5
2C1
330
2B9
100
AcDbEntity
  8
図
  6
CONTINUOUS
 62
     7
100
AcDbVertex
100
AcDb2dVertex
 10
1263.009242000002
 20
804.0857879999717
 30
0.0
  0
VERTEX
  5
2C2
330
2B9
100
AcDbEntity
  8
図
  6
CONTINUOUS
 62
     7
100
AcDbVertex
100
AcDb2dVertex
 10
1262.306114000002
 20
804.1664759999699
 30
0.0
  0
VERTEX
  5
2C3
330
2B9
100
AcDbEntity
  8
図
  6
CONTINUOUS
 62
     7
100
AcDbVertex
100
AcDb2dVertex
 10
1261.599242000001
 20
804.1943719999695
 30
0.0
  0
SEQEND
  5
2C4
330
2B9
100
AcDbEntity
  8
図
  6
CONTINUOUS
 62
     7
  0
POLYLINE
  5
2C5
330
1F
100
AcDbEntity
  8
図
  6
CONTINUOUS
 62
     7
100
AcDb2dPolyline
 66
     1
 10
0.0
 20
0.0
 30
0.0
 70
   128
  0
VERTEX
  5
2C6
330
2C5
100
AcDbEntity
  8
図
  6
CONTINUOUS
 62
     7
100
AcDbVertex
100
AcDb2dVertex
 10
1387.521042000002
 20
802.1128919999688
 30
0.0
  0
VERTEX
  5
2C7
330
2C5
100
AcDbEntity
  8
図
  6
CONTINUOUS
 62
     7
100
AcDbVertex
100
AcDb2dVertex
 10
1386.944790000001
 20
802.5360079999706
 30
0.0
  0
VERTEX
  5
2C8
330
2C5
100
AcDbEntity
  8
図
  6
CONTINUOUS
 62
     7
100
AcDbVertex
100
AcDb2dVertex
 10
1386.340238000002
 20
802.9149599999696
 30
0.0
  0
VERTEX
  5
2C9
330
2C5
100
AcDbEntity
  8
図
  6
CONTINUOUS
 62
     7
100
AcDbVertex
100
AcDb2dVertex
 10
1385.710582000003
 20
803.2477439999716
 30
0.0
  0
VERTEX
  5
2CA
330
2C5
100
AcDbEntity
  8
図
  6
CONTINUOUS
 62
     7
100
AcDbVertex
100
AcDb2dVertex
 10
1385.059162000001
 20
803.5325959999687
 30
0.0
  0
VERTEX
  5
2CB
330
2C5
100
AcDbEntity
  8
図
  6
CONTINUOUS
 62
     7
100
AcDbVertex
100
AcDb2dVertex
 10
1384.389418000002
 20
803.7680039999691
 30
0.0
  0
VERTEX
  5
2CC
330
2C5
100
AcDbEntity
  8
図
  6
CONTINUOUS
 62
     7
100
AcDbVertex
100
AcDb2dVertex
 10
1383.704906000002
 20
803.9527279999716
 30
0.0
  0
VERTEX
  5
2CD
330
2C5
100
AcDbEntity
  8
図
  6
CONTINUOUS
 62
     7
100
AcDbVertex
100
AcDb2dVertex
 10
1383.009242000002
 20
804.0857879999717
 30
0.0
  0
VERTEX
  5
2CE
330
2C5
100
AcDbEntity
  8
図
  6
CONTINUOUS
 62
     7
100
AcDbVertex
100
AcDb2dVertex
 10
1382.306114000002
 20
804.1664759999699
 30
0.0
  0
VERTEX
  5
2CF
330
2C5
100
AcDbEntity
  8
図
  6
CONTINUOUS
 62
     7
100
AcDbVertex
100
AcDb2dVertex
 10
1381.599242000001
 20
804.1943719999695
 30
0.0
  0
SEQEND
  5
2D0
330
2C5
100
AcDbEntity
  8
図
  6
CONTINUOUS
 62
     7
  0
LINE
  5
2D1
330
1F
100
AcDbEntity
  8
図
  6
CONTINUOUS
 62
     7
100
AcDbLine
 10
1324.402590000002
 20
997.3636199999714
 30
0.0
 11
1324.384706000003
 21
997.4760159999682
 31
0.0
  0
POLYLINE
  5
2D2
330
1F
100
AcDbEntity
  8
図
  6
CONTINUOUS
 62
     7
100
AcDb2dPolyline
 66
     1
 10
0.0
 20
0.0
 30
0.0
 70
   128
  0
VERTEX
  5
2D3
330
2D2
100
AcDbEntity
  8
図
  6
CONTINUOUS
 62
     7
100
AcDbVertex
100
AcDb2dVertex
 10
1304.247010000001
 20
804.2388359999718
 30
0.0
  0
VERTEX
  5
2D4
330
2D2
100
AcDbEntity
  8
図
  6
CONTINUOUS
 62
     7
100
AcDbVertex
100
AcDb2dVertex
 10
1303.616994000001
 20
804.209047999972
 30
0.0
  0
VERTEX
  5
2D5
330
2D2
100
AcDbEntity
  8
図
  6
CONTINUOUS
 62
     7
100
AcDbVertex
100
AcDb2dVertex
 10
1302.990346000003
 20
804.1259999999679
 30
0.0
  0
VERTEX
  5
2D6
330
2D2
100
AcDbEntity
  8
図
  6
CONTINUOUS
 62
     7
100
AcDbVertex
100
AcDb2dVertex
 10
1302.370410000002
 20
803.9901319999703
 30
0.0
  0
VERTEX
  5
2D7
330
2D2
100
AcDbEntity
  8
図
  6
CONTINUOUS
 62
     7
100
AcDbVertex
100
AcDb2dVertex
 10
1301.760502000001
 20
803.8021799999701
 30
0.0
  0
VERTEX
  5
2D8
330
2D2
100
AcDbEntity
  8
図
  6
CONTINUOUS
 62
     7
100
AcDbVertex
100
AcDb2dVertex
 10
1301.163874000001
 20
803.5631399999698
 30
0.0
  0
VERTEX
  5
2D9
330
2D2
100
AcDbEntity
  8
図
  6
CONTINUOUS
 62
     7
100
AcDbVertex
100
AcDb2dVertex
 10
1300.583714000001
 20
803.2742879999719
 30
0.0
  0
VERTEX
  5
2DA
330
2D2
100
AcDbEntity
  8
図
  6
CONTINUOUS
 62
     7
100
AcDbVertex
100
AcDb2dVertex
 10
1300.023126000003
 20
802.9371719999695
 30
0.0
  0
VERTEX
  5
2DB
330
2D2
100
AcDbEntity
  8
図
  6
CONTINUOUS
 62
     7
100
AcDbVertex
100
AcDb2dVertex
 10
1299.485102000002
 20
802.5535919999716
 30
0.0
  0
VERTEX
  5
2DC
330
2D2
100
AcDbEntity
  8
図
  6
CONTINUOUS
 62
     7
100
AcDbVertex
100
AcDb2dVertex
 10
1299.017638771314
 20
802.1632708193906
 30
0.0
  0
SEQEND
  5
2DD
330
2D2
100
AcDbEntity
  8
図
  6
CONTINUOUS
 62
     7
  0
ARC
  5
2DE
330
1F
100
AcDbEntity
  8
図
  6
CONTINUOUS
 62
     7
100
AcDbCircle
 10
1296.582109223476
 20
805.08015199997
 30
0.0
 40
3.800000000000001
100
AcDbArc
 50
270.0000000000002
 51
309.8611148099022
  0
LINE
  5
2DF
330
1F
100
AcDbEntity
  8
図
  6
CONTINUOUS
 62
     7
100
AcDbLine
 10
1220.707986564065
 20
1005.775938889569
 30
0.0
 11
1237.087144259952
 21
1005.775938889569
 31
0.0
  0
ARC
  5
2E0
330
1F
100
AcDbEntity
  8
図
  6
CONTINUOUS
 62
     7
100
AcDbCircle
 10
1525.000002000005
 20
805.2801519999707
 30
0.0
 40
4.0
100
AcDbArc
 50
270.0
 51
0.0
  0
ARC
  5
2E1
330
1F
100
AcDbEntity
  8
図
  6
CONTINUOUS
 62
     7
100
AcDbCircle
 10
1522.994589889905
 20
804.2801519999707
 30
0.0
 40
3.0
100
AcDbArc
 50
270.0
 51
0.0
  0
ARC
  5
2E2
330
1F
100
AcDbEntity
  8
図
  6
CONTINUOUS
 62
     7
100
AcDbCircle
 10
1045.005414110099
 20
804.2801519999707
 30
0.0
 40
3.0
100
AcDbArc
 50
180.0
 51
270.0
  0
LINE
  5
2E3
330
1F
100
AcDbEntity
  8
図
  6
CONTINUOUS
 62
     7
100
AcDbLine
 10
1039.000002
 20
805.2801519999707
 30
0.0
 11
1039.000002
 21
1251.280151999971
 31
0.0
  0
ARC
  5
2E4
330
1F
100
AcDbEntity
  8
図
  6
CONTINUOUS
 62
     7
100
AcDbCircle
 10
1519.000002000005
 20
1251.280151999971
 30
0.0
 40
10.0
100
AcDbArc
 50
0.0
 51
90.00000000000001
  0
LINE
  5
2E5
330
1F
100
AcDbEntity
  8
図
  6
CONTINUOUS
 62
     7
100
AcDbLine
 10
1529.000002000005
 20
805.2801519999707
 30
0.0
 11
1529.000002000005
 21
1251.280151999971
 31
0.0
  0
LINE
  5
2E6
330
1F
100
AcDbEntity
  8
図
  6
CONTINUOUS
 62
     7
100
AcDbLine
 10
1241.500002000006
 20
944.1195905365716
 30
0.0
 11
1241.088091756206
 21
977.84004808297
 31
0.0
  0
LINE
  5
2E7
330
1F
100
AcDbEntity
  8
図
  6
CONTINUOUS
 62
     7
100
AcDbLine
 10
1245.176722114706
 20
1006.279853014469
 30
0.0
 11
1241.088091756223
 21
977.8400480829846
 31
0.0
  0
POLYLINE
  5
2E8
330
1F
100
AcDbEntity
  8
図
  6
CONTINUOUS
 62
     7
100
AcDb2dPolyline
 66
     1
 10
0.0
 20
0.0
 30
0.0
 70
   128
  0
VERTEX
  5
2E9
330
2E8
100
AcDbEntity
  8
図
  6
CONTINUOUS
 62
     7
100
AcDbVertex
100
AcDb2dVertex
 10
1284.000002000003
 20
1138.24838399997
 30
0.0
  0
VERTEX
  5
2EA
330
2E8
100
AcDbEntity
  8
図
  6
CONTINUOUS
 62
     7
100
AcDbVertex
100
AcDb2dVertex
 10
1257.549746000003
 20
1138.111479999971
 30
0.0
  0
VERTEX
  5
2EB
330
2E8
100
AcDbEntity
  8
図
  6
CONTINUOUS
 62
     7
100
AcDbVertex
100
AcDb2dVertex
 10
1231.090454000004
 20
1137.821443999969
 30
0.0
  0
VERTEX
  5
2EC
330
2E8
100
AcDbEntity
  8
図
  6
CONTINUOUS
 62
     7
100
AcDbVertex
100
AcDb2dVertex
 10
1219.919870466463
 20
1137.694470292522
 30
0.0
  0
SEQEND
  5
2ED
330
2E8
100
AcDbEntity
  8
図
  6
CONTINUOUS
 62
     7
  0
ARC
  5
2EE
330
1F
100
AcDbEntity
  8
図
  6
CONTINUOUS
 62
     7
100
AcDbCircle
 10
1220.147025654422
 20
1117.695760320421
 30
0.0
 40
20.0
100
AcDbArc
 50
90.65124120206181
 51
180.6434656806164
  0
ARC
  5
2EF
330
1F
100
AcDbEntity
  8
図
  6
CONTINUOUS
 62
     7
100
AcDbCircle
 10
1347.852978345583
 20
1117.695760320421
 30
0.0
 40
20.0
100
AcDbArc
 50
359.3565343193824
 51
89.34875879793789
  0
ARC
  5
2F0
330
1F
100
AcDbEntity
  8
図
  6
CONTINUOUS
 62
     7
100
AcDbCircle
 10
1052.005414110099
 20
1211.280152000269
 30
0.0
 40
10.0
100
AcDbArc
 50
90.00000000000001
 51
180.0
  0
LINE
  5
2F1
330
1F
100
AcDbEntity
  8
図
  6
CONTINUOUS
 62
     7
100
AcDbLine
 10
1515.994589889905
 20
1221.280152000269
 30
0.0
 11
1052.005414110099
 21
1221.280152000269
 31
0.0
  0
LINE
  5
2F2
330
1F
100
AcDbEntity
  8
図
  6
CONTINUOUS
 62
     7
100
AcDbLine
 10
1525.994589889905
 20
804.2801519999707
 30
0.0
 11
1525.994589889905
 21
1211.280152000269
 31
0.0
  0
LINE
  5
2F3
330
1F
100
AcDbEntity
  8
図
  6
CONTINUOUS
 62
     7
100
AcDbLine
 10
1042.005414110099
 20
804.2801519999707
 30
0.0
 11
1042.005414110099
 21
1211.280152000269
 31
0.0
  0
LINE
  5
2F4
330
1F
100
AcDbEntity
  8
図
  6
CONTINUOUS
 62
     7
100
AcDbLine
 10
1175.007807378199
 20
801.2801519999707
 30
0.0
 11
1175.007807378199
 21
831.8192599999716
 31
0.0
  0
ARC
  5
2F5
330
1F
100
AcDbEntity
  8
図
  6
CONTINUOUS
 62
     7
100
AcDbCircle
 10
1184.000001999998
 20
854.6241986494683
 30
0.0
 40
10.0
100
AcDbArc
 50
180.0
 51
270.0
  0
ARC
  5
2F6
330
1F
100
AcDbEntity
  8
図
  6
CONTINUOUS
 62
     7
100
AcDbCircle
 10
1089.005414110105
 20
836.8192599999679
 30
0.0
 40
5.0
100
AcDbArc
 50
90.00000000000001
 51
180.0
  0
ARC
  5
2F7
330
1F
100
AcDbEntity
  8
図
  6
CONTINUOUS
 62
     7
100
AcDbCircle
 10
1122.000248000026
 20
815.6566159999679
 30
0.0
 40
5.0
100
AcDbArc
 50
270.0
 51
0.0
  0
ARC
  5
2F8
330
1F
100
AcDbEntity
  8
図
  6
CONTINUOUS
 62
     7
100
AcDbCircle
 10
1121.000248000013
 20
836.8192599999679
 30
0.0
 40
5.0
100
AcDbArc
 50
0.0
 51
90.00000000000001
  0
LINE
  5
2F9
330
1F
100
AcDbEntity
  8
図
  6
CONTINUOUS
 62
     7
100
AcDbLine
 10
1174.000002
 20
832.8192599999752
 30
0.0
 11
1136.000248000013
 21
832.8192599999752
 31
0.0
  0
LINE
  5
2FA
330
1F
100
AcDbEntity
  8
図
  6
CONTINUOUS
 62
     7
100
AcDbLine
 10
1122.000248000026
 20
810.6566159999679
 30
0.0
 11
1087.005414110101
 21
810.6566159999679
 31
0.0
  0
LINE
  5
2FB
330
1F
100
AcDbEntity
  8
図
  6
CONTINUOUS
 62
     7
100
AcDbLine
 10
1392.992196621806
 20
801.2801519999707
 30
0.0
 11
1392.992196621806
 21
831.8192599999716
 31
0.0
  0
ARC
  5
2FC
330
1F
100
AcDbEntity
  8
図
  6
CONTINUOUS
 62
     7
100
AcDbCircle
 10
1384.000002000007
 20
854.6241986494683
 30
0.0
 40
10.0
100
AcDbArc
 50
270.0
 51
0.0
  0
ARC
  5
2FD
330
1F
100
AcDbEntity
  8
図
  6
CONTINUOUS
 62
     7
100
AcDbCircle
 10
1394.000002000006
 20
842.8192599999752
 30
0.0
 40
10.0
100
AcDbArc
 50
270.0
 51
0.0
  0
ARC
  5
2FE
330
1F
100
AcDbEntity
  8
図
  6
CONTINUOUS
 62
     7
100
AcDbCircle
 10
1446.999755999992
 20
836.8192599999679
 30
0.0
 40
5.0
100
AcDbArc
 50
90.00000000000001
 51
180.0
  0
ARC
  5
2FF
330
1F
100
AcDbEntity
  8
図
  6
CONTINUOUS
 62
     7
100
AcDbCircle
 10
1431.999755999992
 20
822.8192599999752
 30
0.0
 40
10.0
100
AcDbArc
 50
0.0
 51
90.00000000000001
  0
LINE
  5
300
330
1F
100
AcDbEntity
  8
図
  6
CONTINUOUS
 62
     7
100
AcDbLine
 10
1394.000002000006
 20
832.8192599999752
 30
0.0
 11
1431.999755999992
 21
832.8192599999752
 31
0.0
  0
LINE
  5
301
330
1F
100
AcDbEntity
  8
図
  6
CONTINUOUS
 62
     7
100
AcDbLine
 10
1441.999755999992
 20
836.8192599999679
 30
0.0
 11
1441.999755999992
 21
822.8192599999752
 31
0.0
  0
LINE
  5
302
330
1F
100
AcDbEntity
  8
図
  6
CONTINUOUS
 62
     7
100
AcDbLine
 10
1478.9945898899
 20
841.8192599999679
 30
0.0
 11
1446.999755999992
 21
841.8192599999679
 31
0.0
  0
LINE
  5
303
330
1F
100
AcDbEntity
  8
図
  6
CONTINUOUS
 62
     7
100
AcDbLine
 10
1440.999755999979
 20
815.6566159999679
 30
0.0
 11
1440.999755999979
 21
821.8192599999716
 31
0.0
  0
LINE
  5
304
330
1F
100
AcDbEntity
  8
図
  6
CONTINUOUS
 62
     7
100
AcDbLine
 10
1445.999755999979
 20
810.6566159999679
 30
0.0
 11
1480.994589889904
 21
810.6566159999679
 31
0.0
  0
LINE
  5
305
330
1F
100
AcDbEntity
  8
図
  6
CONTINUOUS
 62
     7
100
AcDbLine
 10
1518.994589891505
 20
801.2801519999707
 30
0.0
 11
1518.994589891503
 21
1204.280152000269
 31
0.0
  0
LINE
  5
306
330
1F
100
AcDbEntity
  8
図
  6
CONTINUOUS
 62
     7
100
AcDbLine
 10
1384.000002000003
 20
1150.436763650061
 30
0.0
 11
1384.000002000003
 21
1005.131800071322
 31
0.0
  0
LINE
  5
307
330
1F
100
AcDbEntity
  8
図
  6
CONTINUOUS
 62
     7
100
AcDbLine
 10
1364.000002000005
 20
1170.436763650065
 30
0.0
 11
1204.000001999999
 21
1170.436763650061
 31
0.0
  0
LINE
  5
308
330
1F
100
AcDbEntity
  8
図
  6
CONTINUOUS
 62
     7
100
AcDbLine
 10
1485.994589889904
 20
1156.280152000269
 30
0.0
 11
1485.994589889904
 21
815.6566159999679
 31
0.0
  0
LINE
  5
309
330
1F
100
AcDbEntity
  8
図
  6
EXLTYPE3
 62
     6
100
AcDbLine
 10
1159.000002000002
 20
1038.43015199997
 30
0.0
 11
1159.000002000002
 21
1061.280151999971
 31
0.0
  0
LINE
  5
30A
330
1F
100
AcDbEntity
  8
図
  6
EXLTYPE3
 62
     6
100
AcDbLine
 10
1409.000002000002
 20
1038.58015199997
 30
0.0
 11
1409.000002000002
 21
1064.33015199997
 31
0.0
  0
LINE
  5
30B
330
1F
100
AcDbEntity
  8
図
  6
CONTINUOUS
 62
     7
100
AcDbLine
 10
1184.000001999999
 20
1150.436763650061
 30
0.0
 11
1184.000001999999
 21
1005.15897371881
 31
0.0
  0
LINE
  5
30C
330
1F
100
AcDbEntity
  8
図
  6
CONTINUOUS
 62
     7
100
AcDbLine
 10
1164.000001999997
 20
842.8192599999752
 30
0.0
 11
1164.000001999997
 21
876.2801519999707
 31
0.0
  0
LINE
  5
30D
330
1F
100
AcDbEntity
  8
図
  6
CONTINUOUS
 62
     7
100
AcDbLine
 10
1394.000002000007
 20
854.6241986494683
 30
0.0
 11
1394.000002000007
 21
876.2801519999707
 31
0.0
  0
LINE
  5
30E
330
1F
100
AcDbEntity
  8
図
  6
CONTINUOUS
 62
     7
100
AcDbLine
 10
1404.000002000006
 20
842.8192599999752
 30
0.0
 11
1404.000002000006
 21
876.2801519999707
 31
0.0
  0
LINE
  5
30F
330
1F
100
AcDbEntity
  8
図
  6
EXLTYPE3
 62
     6
100
AcDbLine
 10
1230.000002000003
 20
896.2801519999707
 30
0.0
 11
1197.000002000003
 21
896.2801519999707
 31
0.0
  0
LINE
  5
310
330
1F
100
AcDbEntity
  8
図
  6
EXLTYPE3
 62
     6
100
AcDbLine
 10
1409.000002000002
 20
1044.999999999971
 30
0.0
 11
1409.000002000002
 21
1074.999999999971
 31
0.0
  0
LINE
  5
311
330
1F
100
AcDbEntity
  8
図
  6
EXLTYPE3
 62
     6
100
AcDbLine
 10
1159.000002000002
 20
1044.999999999971
 30
0.0
 11
1159.000002000002
 21
1074.999999999971
 31
0.0
  0
LINE
  5
312
330
1F
100
AcDbEntity
  8
図
  6
EXLTYPE3
 62
     6
100
AcDbLine
 10
1254.000000000002
 20
886.2801519999707
 30
0.0
 11
1311.500000000002
 21
886.2801519999707
 31
0.0
  0
CIRCLE
  5
313
330
1F
100
AcDbEntity
  8
図
  6
CONTINUOUS
 62
     7
100
AcDbCircle
 10
1214.000002000003
 20
896.2801519999707
 30
0.0
 40
7.500000000000002
  0
ARC
  5
314
330
1F
100
AcDbEntity
  8
図
  6
CONTINUOUS
 62
     7
100
AcDbCircle
 10
1178.102966000003
 20
805.08270399997
 30
0.0
 40
3.8029
100
AcDbArc
 50
270.1093079999665
 51
308.6612009999677
  0
ARC
  5
315
330
1F
100
AcDbEntity
  8
図
  6
CONTINUOUS
 62
     7
100
AcDbCircle
 10
1132.391234000003
 20
821.6247279999703
 30
0.0
 40
1.028488
100
AcDbArc
 50
170.4795960000236
 51
180.003502000022
  0
POLYLINE
  5
316
330
1F
100
AcDbEntity
  8
図
  6
CONTINUOUS
 62
     7
100
AcDb2dPolyline
 66
     1
 10
0.0
 20
0.0
 30
0.0
 70
   128
  0
VERTEX
  5
317
330
316
100
AcDbEntity
  8
図
  6
CONTINUOUS
 62
     7
100
AcDbVertex
100
AcDb2dVertex
 10
1186.400758000002
 20
804.1943719999713
 30
0.0
  0
VERTEX
  5
318
330
316
100
AcDbEntity
  8
図
  6
CONTINUOUS
 62
     7
100
AcDbVertex
100
AcDb2dVertex
 10
1185.693886000001
 20
804.1664759999699
 30
0.0
  0
VERTEX
  5
319
330
316
100
AcDbEntity
  8
図
  6
CONTINUOUS
 62
     7
100
AcDbVertex
100
AcDb2dVertex
 10
1184.990758000001
 20
804.0857879999717
 30
0.0
  0
VERTEX
  5
31A
330
316
100
AcDbEntity
  8
図
  6
CONTINUOUS
 62
     7
100
AcDbVertex
100
AcDb2dVertex
 10
1184.295094000001
 20
803.9527279999716
 30
0.0
  0
VERTEX
  5
31B
330
316
100
AcDbEntity
  8
図
  6
CONTINUOUS
 62
     7
100
AcDbVertex
100
AcDb2dVertex
 10
1183.610578000002
 20
803.7680039999709
 30
0.0
  0
VERTEX
  5
31C
330
316
100
AcDbEntity
  8
図
  6
CONTINUOUS
 62
     7
100
AcDbVertex
100
AcDb2dVertex
 10
1182.940834000003
 20
803.5325919999709
 30
0.0
  0
VERTEX
  5
31D
330
316
100
AcDbEntity
  8
図
  6
CONTINUOUS
 62
     7
100
AcDbVertex
100
AcDb2dVertex
 10
1182.289414000001
 20
803.2477439999716
 30
0.0
  0
VERTEX
  5
31E
330
316
100
AcDbEntity
  8
図
  6
CONTINUOUS
 62
     7
100
AcDbVertex
100
AcDb2dVertex
 10
1181.659758000003
 20
802.9149599999696
 30
0.0
  0
VERTEX
  5
31F
330
316
100
AcDbEntity
  8
図
  6
CONTINUOUS
 62
     7
100
AcDbVertex
100
AcDb2dVertex
 10
1181.055202000001
 20
802.536003999971
 30
0.0
  0
VERTEX
  5
320
330
316
100
AcDbEntity
  8
図
  6
CONTINUOUS
 62
     7
100
AcDbVertex
100
AcDb2dVertex
 10
1180.478954000002
 20
802.112887999971
 30
0.0
  0
SEQEND
  5
321
330
316
100
AcDbEntity
  8
図
  6
CONTINUOUS
 62
     7
  0
LINE
  5
322
330
1F
100
AcDbEntity
  8
図
  6
CONTINUOUS
 62
     7
100
AcDbLine
 10
1324.402590000002
 20
997.3636199999714
 30
0.0
 11
1324.384706000003
 21
997.4760159999701
 31
0.0
  0
LINE
  5
323
330
1F
100
AcDbEntity
  8
図
  6
CONTINUOUS
 62
     7
100
AcDbLine
 10
1186.400758000002
 20
804.2388319999704
 30
0.0
 11
1261.599242000002
 21
804.2388319999704
 31
0.0
  0
LINE
  5
324
330
1F
100
AcDbEntity
  8
図
  6
CONTINUOUS
 62
     7
100
AcDbLine
 10
1304.247010000001
 20
804.2388319999704
 30
0.0
 11
1381.599242000002
 21
804.2388319999704
 31
0.0
  0
LINE
  5
325
330
1F
100
AcDbEntity
  8
図
  6
CONTINUOUS
 62
     7
100
AcDbLine
 10
1347.291887227263
 20
1005.775940255072
 30
0.0
 11
1331.500002000002
 21
1005.775940255072
 31
0.0
  0
CIRCLE
  5
326
330
1F
100
AcDbEntity
  8
図
  6
CONTINUOUS
 62
     7
100
AcDbCircle
 10
1284.000002000002
 20
886.2801519999707
 30
0.0
 40
18.75
  0
ARC
  5
327
330
1F
100
AcDbEntity
  8
図
  6
CONTINUOUS
 62
     7
100
AcDbCircle
 10
1525.000002000004
 20
805.2801519999707
 30
0.0
 40
4.0
100
AcDbArc
 50
270.0
 51
0.0
  0
ARC
  5
328
330
1F
100
AcDbEntity
  8
図
  6
CONTINUOUS
 62
     7
100
AcDbCircle
 10
1522.994589889906
 20
804.2801519999707
 30
0.0
 40
3.0
100
AcDbArc
 50
270.0
 51
0.0
  0
ARC
  5
329
330
1F
100
AcDbEntity
  8
図
  6
CONTINUOUS
 62
     7
100
AcDbCircle
 10
1043.000002000001
 20
805.2801519999707
 30
0.0
 40
4.0
100
AcDbArc
 50
180.0
 51
270.0
  0
ARC
  5
32A
330
1F
100
AcDbEntity
  8
図
  6
CONTINUOUS
 62
     7
100
AcDbCircle
 10
1049.000002
 20
1251.280151999971
 30
0.0
 40
10.0
100
AcDbArc
 50
90.00000000000001
 51
180.0
  0
LINE
  5
32B
330
1F
100
AcDbEntity
  8
図
  6
CONTINUOUS
 62
     7
100
AcDbLine
 10
1519.000002000006
 20
1261.280151999971
 30
0.0
 11
1049.000002
 21
1261.280151999971
 31
0.0
  0
LINE
  5
32C
330
1F
100
AcDbEntity
  8
図
  6
CONTINUOUS
 62
     7
100
AcDbLine
 10
1529.000002000004
 20
805.2801519999707
 30
0.0
 11
1529.000002000004
 21
1251.280151999971
 31
0.0
  0
LINE
  5
32D
330
1F
100
AcDbEntity
  8
図
  6
CONTINUOUS
 62
     7
100
AcDbLine
 10
1045.0054141101
 20
801.2801519999707
 30
0.0
 11
1525.000002000004
 21
801.2801519999707
 31
0.0
  0
LINE
  5
32E
330
1F
100
AcDbEntity
  8
図
  6
CONTINUOUS
 62
     7
100
AcDbLine
 10
1322.8232818853
 20
1006.279853014471
 30
0.0
 11
1326.911912243783
 21
977.8400480829864
 31
0.0
  0
LINE
  5
32F
330
1F
100
AcDbEntity
  8
図
  6
CONTINUOUS
 62
     7
100
AcDbLine
 10
1326.500002
 20
944.1195905365716
 30
0.0
 11
1326.9119122438
 21
977.840048082972
 31
0.0
  0
ARC
  5
330
330
1F
100
AcDbEntity
  8
図
  6
CONTINUOUS
 62
     7
100
AcDbCircle
 10
1515.994589889906
 20
1211.280152000271
 30
0.0
 40
10.0
100
AcDbArc
 50
0.0
 51
90.00000000000001
  0
LINE
  5
331
330
1F
100
AcDbEntity
  8
図
  6
CONTINUOUS
 62
     7
100
AcDbLine
 10
1525.994589889906
 20
804.2801519999707
 30
0.0
 11
1525.994589889906
 21
1211.280152000271
 31
0.0
  0
LINE
  5
332
330
1F
100
AcDbEntity
  8
図
  6
CONTINUOUS
 62
     7
100
AcDbLine
 10
1042.0054141101
 20
804.2801519999707
 30
0.0
 11
1042.0054141101
 21
1211.280152000271
 31
0.0
  0
LINE
  5
333
330
1F
100
AcDbEntity
  8
図
  6
CONTINUOUS
 62
     7
100
AcDbLine
 10
1178.1102211093
 20
801.2798109209712
 30
0.0
 11
1178.1102211093
 21
831.8192599999716
 31
0.0
  0
ARC
  5
334
330
1F
100
AcDbEntity
  8
図
  6
CONTINUOUS
 62
     7
100
AcDbCircle
 10
1174.000002
 20
842.8192599999752
 30
0.0
 40
10.0
100
AcDbArc
 50
180.0
 51
270.0
  0
ARC
  5
335
330
1F
100
AcDbEntity
  8
図
  6
CONTINUOUS
 62
     7
100
AcDbCircle
 10
1087.005414110102
 20
815.6566159999699
 30
0.0
 40
5.0
100
AcDbArc
 50
180.0
 51
270.0
  0
ARC
  5
336
330
1F
100
AcDbEntity
  8
図
  6
CONTINUOUS
 62
     7
100
AcDbCircle
 10
1137.000248000027
 20
821.8192599999716
 30
0.0
 40
10.0
100
AcDbArc
 50
90.00000000000001
 51
180.0
  0
ARC
  5
337
330
1F
100
AcDbEntity
  8
図
  6
CONTINUOUS
 62
     7
100
AcDbCircle
 10
1136.000248000014
 20
822.8192599999752
 30
0.0
 40
10.0
100
AcDbArc
 50
90.00000000000001
 51
180.0
  0
LINE
  5
338
330
1F
100
AcDbEntity
  8
図
  6
CONTINUOUS
 62
     7
100
AcDbLine
 10
1126.000248000014
 20
836.8192599999679
 30
0.0
 11
1126.000248000014
 21
822.8192599999752
 31
0.0
  0
LINE
  5
339
330
1F
100
AcDbEntity
  8
図
  6
CONTINUOUS
 62
     7
100
AcDbLine
 10
1089.005414110105
 20
841.8192599999679
 30
0.0
 11
1121.000248000014
 21
841.8192599999679
 31
0.0
  0
LINE
  5
33A
330
1F
100
AcDbEntity
  8
図
  6
CONTINUOUS
 62
     7
100
AcDbLine
 10
1127.000248000027
 20
815.6566159999699
 30
0.0
 11
1127.000248000027
 21
821.8192599999716
 31
0.0
  0
LINE
  5
33B
330
1F
100
AcDbEntity
  8
図
  6
CONTINUOUS
 62
     7
100
AcDbLine
 10
1389.889782890707
 20
801.2798109209712
 30
0.0
 11
1389.889782890707
 21
831.8192599999716
 31
0.0
  0
ARC
  5
33C
330
1F
100
AcDbEntity
  8
図
  6
CONTINUOUS
 62
     7
100
AcDbCircle
 10
1478.9945898899
 20
836.8192599999679
 30
0.0
 40
5.0
100
AcDbArc
 50
0.0
 51
90.00000000000001
  0
ARC
  5
33D
330
1F
100
AcDbEntity
  8
図
  6
CONTINUOUS
 62
     7
100
AcDbCircle
 10
1480.994589889904
 20
815.6566159999699
 30
0.0
 40
5.0
100
AcDbArc
 50
270.0
 51
0.0
  0
ARC
  5
33E
330
1F
100
AcDbEntity
  8
図
  6
CONTINUOUS
 62
     7
100
AcDbCircle
 10
1445.99975599998
 20
815.6566159999699
 30
0.0
 40
5.0
100
AcDbArc
 50
180.0
 51
270.0
  0
ARC
  5
33F
330
1F
100
AcDbEntity
  8
図
  6
CONTINUOUS
 62
     7
100
AcDbCircle
 10
1430.99975599998
 20
821.8192599999716
 30
0.0
 40
10.0
100
AcDbArc
 50
0.0
 51
90.00000000000001
  0
LINE
  5
340
330
1F
100
AcDbEntity
  8
図
  6
CONTINUOUS
 62
     7
100
AcDbLine
 10
1049.0054141085
 20
801.2801519999707
 30
0.0
 11
1049.0054141085
 21
1204.280152000271
 31
0.0
  0
LINE
  5
341
330
1F
100
AcDbEntity
  8
図
  6
CONTINUOUS
 62
     7
100
AcDbLine
 10
1518.994589891505
 20
801.2801519999707
 30
0.0
 11
1518.994589891503
 21
1204.280152000271
 31
0.0
  0
LINE
  5
342
330
1F
100
AcDbEntity
  8
図
  6
CONTINUOUS
 62
     7
100
AcDbLine
 10
1084.005414110105
 20
1156.280152000271
 30
0.0
 11
1084.005414110105
 21
836.8192599999679
 31
0.0
  0
LINE
  5
343
330
1F
100
AcDbEntity
  8
図
  6
CONTINUOUS
 62
     7
100
AcDbLine
 10
1359.000002000005
 20
1161.067320458671
 30
0.0
 11
1209.000002000002
 21
1161.067320458671
 31
0.0
  0
LINE
  5
344
330
1F
100
AcDbEntity
  8
図
  6
CONTINUOUS
 62
     7
100
AcDbLine
 10
1483.9945898899
 20
1156.280152000271
 30
0.0
 11
1483.9945898899
 21
836.8192599999679
 31
0.0
  0
LINE
  5
345
330
1F
100
AcDbEntity
  8
図
  6
EXLTYPE3
 62
     6
100
AcDbLine
 10
1215.500000000001
 20
1036.280151999971
 30
0.0
 11
1347.000000000001
 21
1036.280151999971
 31
0.0
  0
ARC
  5
346
330
1F
100
AcDbEntity
  8
図
  6
CONTINUOUS
 62
     7
100
AcDbCircle
 10
1508.994589891507
 20
1204.280152000271
 30
0.0
 40
10.0
100
AcDbArc
 50
0.0
 51
90.00000000000001
  0
ARC
  5
347
330
1F
100
AcDbEntity
  8
図
  6
CONTINUOUS
 62
     7
100
AcDbCircle
 10
1112.005414110102
 20
1156.280152000271
 30
0.0
 40
30.0
100
AcDbArc
 50
90.00000000000001
 51
180.0
  0
ARC
  5
348
330
1F
100
AcDbEntity
  8
図
  6
CONTINUOUS
 62
     7
100
AcDbCircle
 10
1455.994589889904
 20
1156.280152000271
 30
0.0
 40
28.0
100
AcDbArc
 50
0.0
 51
90.00000000000001
  0
ARC
  5
349
330
1F
100
AcDbEntity
  8
図
  6
CONTINUOUS
 62
     7
100
AcDbCircle
 10
1364.000002000007
 20
1150.436763650063
 30
0.0
 40
20.0
100
AcDbArc
 50
0.0
 51
89.9999999999987
  0
ARC
  5
34A
330
1F
100
AcDbEntity
  8
図
  6
CONTINUOUS
 62
     7
100
AcDbCircle
 10
1359.000002000005
 20
1141.067320458671
 30
0.0
 40
20.0
100
AcDbArc
 50
0.0
 51
90.00000000000001
  0
LINE
  5
34B
330
1F
100
AcDbEntity
  8
図
  6
CONTINUOUS
 62
     7
100
AcDbLine
 10
1112.005414110102
 20
1184.280152000271
 30
0.0
 11
1455.994589889904
 21
1184.280152000271
 31
0.0
  0
ARC
  5
34C
330
1F
100
AcDbEntity
  8
図
  6
CONTINUOUS
 62
     7
100
AcDbCircle
 10
1059.005414108499
 20
1204.280152000269
 30
0.0
 40
10.0
100
AcDbArc
 50
90.00000000000001
 51
180.0
  0
LINE
  5
34D
330
1F
100
AcDbEntity
  8
図
  6
CONTINUOUS
 62
     7
100
AcDbLine
 10
1508.994589891506
 20
1214.280152000269
 30
0.0
 11
1059.005414108499
 21
1214.280152000269
 31
0.0
  0
ARC
  5
34E
330
1F
100
AcDbEntity
  8
図
  6
CONTINUOUS
 62
     7
100
AcDbCircle
 10
1204.000001999999
 20
1150.436763650061
 30
0.0
 40
20.0
100
AcDbArc
 50
90.00000000000134
 51
180.0
  0
ARC
  5
34F
330
1F
100
AcDbEntity
  8
図
  6
CONTINUOUS
 62
     7
100
AcDbCircle
 10
1209.000002000001
 20
1141.067320458671
 30
0.0
 40
20.0
100
AcDbArc
 50
90.00000000000001
 51
180.0
  0
ARC
  5
350
330
1F
100
AcDbEntity
  8
図
  6
CONTINUOUS
 62
     7
100
AcDbCircle
 10
1112.005414110101
 20
1156.280152000269
 30
0.0
 40
28.0
100
AcDbArc
 50
90.00000000000001
 51
180.0
  0
ARC
  5
351
330
1F
100
AcDbEntity
  8
図
  6
CONTINUOUS
 62
     7
100
AcDbCircle
 10
1455.994589889904
 20
1156.280152000269
 30
0.0
 40
30.0
100
AcDbArc
 50
0.0
 51
90.00000000000001
  0
LINE
  5
352
330
1F
100
AcDbEntity
  8
図
  6
CONTINUOUS
 62
     7
100
AcDbLine
 10
1112.005414110101
 20
1186.280152000269
 30
0.0
 11
1455.994589889904
 21
1186.280152000269
 31
0.0
  0
LINE
  5
353
330
1F
100
AcDbEntity
  8
図
  6
EXLTYPE3
 62
     6
100
AcDbLine
 10
1172.800002000001
 20
1051.280151999965
 30
0.0
 11
1146.300002000001
 21
1051.280151999965
 31
0.0
  0
LINE
  5
354
330
1F
100
AcDbEntity
  8
図
  6
EXLTYPE3
 62
     6
100
AcDbLine
 10
1423.500002000001
 20
1051.280151999965
 30
0.0
 11
1394.150002000001
 21
1051.280151999965
 31
0.0
  0
LINE
  5
355
330
1F
100
AcDbEntity
  8
図
  6
CONTINUOUS
 62
     7
100
AcDbLine
 10
1384.000002000002
 20
844.6241986494701
 30
0.0
 11
1184.000001999999
 21
844.6241986494701
 31
0.0
  0
LINE
  5
356
330
1F
100
AcDbEntity
  8
図
  6
CONTINUOUS
 62
     7
100
AcDbLine
 10
1174.000001999999
 20
854.6241986494701
 30
0.0
 11
1174.000001999999
 21
876.2801519999707
 31
0.0
  0
POLYLINE
  5
357
330
1F
100
AcDbEntity
  8
図
  6
CONTINUOUS
 62
     7
100
AcDb2dPolyline
 66
     1
 10
0.0
 20
0.0
 30
0.0
 70
   128
  0
VERTEX
  5
358
330
357
100
AcDbEntity
  8
図
  6
CONTINUOUS
 62
     7
100
AcDbVertex
100
AcDb2dVertex
 10
1284.000002000002
 20
1138.24838399997
 30
0.0
  0
VERTEX
  5
359
330
357
100
AcDbEntity
  8
図
  6
CONTINUOUS
 62
     7
100
AcDbVertex
100
AcDb2dVertex
 10
1310.449770000002
 20
1138.111479999971
 30
0.0
  0
VERTEX
  5
35A
330
357
100
AcDbEntity
  8
図
  6
CONTINUOUS
 62
     7
100
AcDbVertex
100
AcDb2dVertex
 10
1336.912598000001
 20
1137.821443999971
 30
0.0
  0
VERTEX
  5
35B
330
357
100
AcDbEntity
  8
図
  6
CONTINUOUS
 62
     7
100
AcDbVertex
100
AcDb2dVertex
 10
1348.080299409568
 20
1137.694459151162
 30
0.0
  0
SEQEND
  5
35C
330
357
100
AcDbEntity
  8
図
  6
CONTINUOUS
 62
     7
  0
LINE
  5
35D
330
1F
100
AcDbEntity
  8
図
  6
CONTINUOUS
 62
     3
100
AcDbLine
 10
1152.630386836547
 20
1054.183254249203
 30
0.0
 11
1137.94438925442
 21
1058.129325082039
 31
0.0
  0
LINE
  5
35E
330
1F
100
AcDbEntity
  8
図
  6
CONTINUOUS
 62
     3
100
AcDbLine
 10
1152.630386836547
 20
1054.183254249203
 30
0.0
 11
1140.018033718157
 21
1062.679050198793
 31
0.0
  0
LINE
  5
35F
330
1F
100
AcDbEntity
  8
図
  6
CONTINUOUS
 62
     7
100
AcDbLine
 10
1183.757711990223
 20
1002.055283021881
 30
0.0
 11
1164.000002000001
 21
876.2801519999707
 31
0.0
  0
ARC
  5
360
330
1F
100
AcDbEntity
  8
図
  6
CONTINUOUS
 62
     7
100
AcDbCircle
 10
1164.000001999999
 20
1005.15897371881
 30
0.0
 40
20.0
100
AcDbArc
 50
351.0725011779168
 51
0.0
  0
ARC
  5
361
330
1F
100
AcDbEntity
  8
図
  6
CONTINUOUS
 62
     7
100
AcDbCircle
 10
1169.000002000001
 20
1004.435821854641
 30
0.0
 40
20.0
100
AcDbArc
 50
353.2628566156341
 51
0.0
  0
CIRCLE
  5
362
330
1F
100
AcDbEntity
  8
図
  6
CONTINUOUS
 62
     7
100
AcDbCircle
 10
1159.000002000001
 20
1051.280151999971
 30
0.0
 40
7.0
  0
LINE
  5
363
330
1F
100
AcDbEntity
  8
図
  6
CONTINUOUS
 62
     7
100
AcDbLine
 10
1188.861898124051
 20
1002.089530662681
 30
0.0
 11
1174.000002000001
 21
876.2801519999707
 31
0.0
  0
LINE
  5
364
330
1F
100
AcDbEntity
  8
図
  6
CONTINUOUS
 62
     7
100
AcDbLine
 10
1174.000002000001
 20
876.2801519999707
 30
0.0
 11
1164.000002
 21
876.2801519999707
 31
0.0
  0
LINE
  5
365
330
1F
100
AcDbEntity
  8
図
  6
CONTINUOUS
 62
     7
100
AcDbLine
 10
1394.000002000002
 20
876.2801519999707
 30
0.0
 11
1404.000002000003
 21
876.2801519999707
 31
0.0
  0
LINE
  5
366
330
1F
100
AcDbEntity
  8
図
  6
CONTINUOUS
 62
     7
100
AcDbLine
 10
1379.138105875953
 20
1002.089530662681
 30
0.0
 11
1394.000002000002
 21
876.2801519999707
 31
0.0
  0
ARC
  5
367
330
1F
100
AcDbEntity
  8
図
  6
CONTINUOUS
 62
     7
100
AcDbCircle
 10
1404.000002000003
 20
1005.15897371881
 30
0.0
 40
20.0
100
AcDbArc
 50
180.0
 51
188.9274988220839
  0
ARC
  5
368
330
1F
100
AcDbEntity
  8
図
  6
CONTINUOUS
 62
     7
100
AcDbCircle
 10
1399.000002000002
 20
1004.435821854641
 30
0.0
 40
20.0
100
AcDbArc
 50
180.0
 51
186.7371433843657
  0
LINE
  5
369
330
1F
100
AcDbEntity
  8
図
  6
CONTINUOUS
 62
     7
100
AcDbLine
 10
1384.242292009781
 20
1002.055283021881
 30
0.0
 11
1404.000002000002
 21
876.2801519999707
 31
0.0
  0
CIRCLE
  5
36A
330
1F
100
AcDbEntity
  8
図
  6
CONTINUOUS
 62
     7
100
AcDbCircle
 10
1409.000002000002
 20
1051.280151999971
 30
0.0
 40
7.0
  0
CIRCLE
  5
36B
330
1F
100
AcDbEntity
  8
図
  6
CONTINUOUS
 62
     7
100
AcDbCircle
 10
516.4999640000008
 20
1176.280152
 30
0.0
 40
18.25
  0
LINE
  5
36C
330
1F
100
AcDbEntity
  8
図
  6
EXLTYPE3
 62
     6
100
AcDbLine
 10
1458.999755999997
 20
783.9999999999714
 30
0.0
 11
1458.999755999997
 21
826.4999999999714
 31
0.0
  0
CIRCLE
  5
36D
330
1F
100
AcDbEntity
  8
図
  6
CONTINUOUS
 62
     7
100
AcDbCircle
 10
1151.000002000001
 20
953.2801520000007
 30
0.0
 40
7.0
  0
LINE
  5
36E
330
1F
100
AcDbEntity
  8
図
  6
EXLTYPE3
 62
     6
100
AcDbLine
 10
1151.000001999998
 20
940.7801520000007
 30
0.0
 11
1151.000001999998
 21
964.8301520000001
 31
0.0
  0
CIRCLE
  5
36F
330
1F
100
AcDbEntity
  8
図
  6
CONTINUOUS
 62
     7
100
AcDbCircle
 10
1151.000002000001
 20
953.2801520000007
 30
0.0
 40
7.0
  0
CIRCLE
  5
370
330
1F
100
AcDbEntity
  8
図
  6
CONTINUOUS
 62
     7
100
AcDbCircle
 10
1417.000002000002
 20
953.2801520000007
 30
0.0
 40
7.0
  0
CIRCLE
  5
371
330
1F
100
AcDbEntity
  8
図
  6
CONTINUOUS
 62
     7
100
AcDbCircle
 10
1417.000002000002
 20
953.2801520000007
 30
0.0
 40
7.0
  0
LINE
  5
372
330
1F
100
AcDbEntity
  8
図
  6
CONTINUOUS
 62
     7
100
AcDbLine
 10
615.0420282627279
 20
520.9724593129481
 30
0.0
 11
613.3555408251268
 21
523.770453250799
 31
0.0
  0
ARC
  5
373
330
1F
100
AcDbEntity
  8
図
  6
CONTINUOUS
 62
     7
100
AcDbCircle
 10
617.6279042048
 20
510.1073574695906
 30
0.0
 40
10.0
100
AcDbArc
 50
42.24572118604946
 51
57.63157159692639
  0
ARC
  5
374
330
1F
100
AcDbEntity
  8
図
  6
CONTINUOUS
 62
     7
100
AcDbCircle
 10
609.0732780236549
 20
521.1893245637451
 30
0.0
 40
15.0
100
AcDbArc
 50
31.07942022549206
 51
103.1767726979234
  0
LINE
  5
375
330
1F
100
AcDbEntity
  8
図
  6
CONTINUOUS
 62
     7
100
AcDbLine
 10
621.9200664280706
 20
528.9327106249059
 30
0.0
 11
622.1485821283937
 21
528.5535880000037
 31
0.0
  0
ARC
  5
376
330
1F
100
AcDbEntity
  8
図
  6
CONTINUOUS
 62
     7
100
AcDbCircle
 10
711.114835192873
 20
513.5535880000037
 30
0.0
 40
5.0
100
AcDbArc
 50
21.80140948635182
 51
90.00000000000001
  0
LINE
  5
377
330
1F
100
AcDbEntity
  8
図
  6
CONTINUOUS
 62
     7
100
AcDbLine
 10
619.3242910642002
 20
518.5535880000037
 30
0.0
 11
711.1148351928729
 21
518.5535880000037
 31
0.0
  0
LINE
  5
378
330
1F
100
AcDbEntity
  8
図
  6
CONTINUOUS
 62
     7
100
AcDbLine
 10
716.5000000000081
 20
513.5535880000019
 30
0.0
 11
715.757218647299
 21
515.4105413817742
 31
0.0
  0
LINE
  5
379
330
1F
100
AcDbEntity
  8
図
  6
CONTINUOUS
 62
     7
100
AcDbLine
 10
622.1410867168286
 20
528.5535880000037
 30
0.0
 11
711.1148351928729
 21
528.5535880000037
 31
0.0
  0
LINE
  5
37A
330
1F
100
AcDbEntity
  8
図
  6
CONTINUOUS
 62
     7
100
AcDbLine
 10
722.2951750803751
 20
523.5535880000002
 30
0.0
 11
747.1197808154774
 21
523.5535879999995
 31
0.0
  0
ARC
  5
37B
330
1F
100
AcDbEntity
  8
図
  6
CONTINUOUS
 62
     7
100
AcDbCircle
 10
711.1148351928729
 20
513.5535880000037
 30
0.0
 40
15.0
100
AcDbArc
 50
41.81031489576208
 51
90.00000000000001
  0
ARC
  5
37C
330
1F
100
AcDbEntity
  8
図
  6
CONTINUOUS
 62
     7
100
AcDbCircle
 10
752.311912076371
 20
514.5535879999965
 30
0.0
 40
2.0
100
AcDbArc
 50
228.5903778906506
 51
270.0
  0
ARC
  5
37D
330
1F
100
AcDbEntity
  8
図
  6
CONTINUOUS
 62
     7
100
AcDbCircle
 10
753.6721746695515
 20
515.5535879999957
 30
0.0
 40
3.0
100
AcDbArc
 50
270.0
 51
356.6425666033771
  0
LINE
  5
37E
330
1F
100
AcDbEntity
  8
図
  6
CONTINUOUS
 62
     7
100
AcDbLine
 10
749.6661607653023
 20
513.5535880000001
 30
0.0
 11
632.433270952135
 21
513.5535880000001
 31
0.0
  0
ARC
  5
37F
330
1F
100
AcDbEntity
  8
図
  6
CONTINUOUS
 62
     7
100
AcDbCircle
 10
749.6661607653023
 20
511.5535880000002
 30
0.0
 40
2.0
100
AcDbArc
 50
48.5903778906499
 51
90.00000000000001
  0
LINE
  5
380
330
1F
100
AcDbEntity
  8
図
  6
CONTINUOUS
 62
     7
100
AcDbLine
 10
753.6721746695515
 20
512.5535879999965
 30
0.0
 11
752.311912076371
 21
512.5535879999965
 31
0.0
  0
ARC
  5
381
330
1F
100
AcDbEntity
  8
図
  6
CONTINUOUS
 62
     7
100
AcDbCircle
 10
-2238.183812783232
 20
691.0721065185091
 30
0.0
 40
3000.0
100
AcDbArc
 50
356.6425666033771
 51
359.1674406709196
  0
ARC
  5
382
330
1F
100
AcDbEntity
  8
図
  6
CONTINUOUS
 62
     7
100
AcDbCircle
 10
570.5082706230265
 20
548.3639575415991
 30
0.0
 40
20.0
100
AcDbArc
 50
282.7214334870563
 51
303.5960907669989
  0
LINE
  5
383
330
1F
100
AcDbEntity
  8
図
  6
CONTINUOUS
 62
     7
100
AcDbLine
 10
574.9124930574843
 20
528.8549128507944
 30
0.0
 11
547.0000000000073
 21
522.5535880000019
 31
0.0
  0
ARC
  5
384
330
1F
100
AcDbEntity
  8
図
  6
CONTINUOUS
 62
     7
100
AcDbCircle
 10
-1078.42919075351
 20
3030.581765967987
 30
0.0
 40
3000.0
100
AcDbArc
 50
303.5960907669989
 51
307.531266004784
  0
ARC
  5
385
330
1F
100
AcDbEntity
  8
図
  6
CONTINUOUS
 62
     7
100
AcDbCircle
 10
279.3278253304555
 20
515.5535879999965
 30
0.0
 40
3.0
100
AcDbArc
 50
183.357433396623
 51
270.0
  0
ARC
  5
386
330
1F
100
AcDbEntity
  8
図
  6
CONTINUOUS
 62
     7
100
AcDbCircle
 10
3271.183812783238
 20
691.0721065185091
 30
0.0
 40
3000.0
100
AcDbArc
 50
180.8325593290804
 51
183.3574333966229
  0
LINE
  5
387
330
1F
100
AcDbEntity
  8
図
  6
CONTINUOUS
 62
     7
100
AcDbLine
 10
279.3278253304555
 20
512.5535879999965
 30
0.0
 11
516.5000000000036
 21
512.5535879999965
 31
0.0
  0
ARC
  5
388
330
1F
100
AcDbEntity
  8
図
  6
CONTINUOUS
 62
     7
100
AcDbCircle
 10
731.4232540823557
 20
650.553587999996
 30
0.0
 40
10.0
100
AcDbArc
 50
270.0
 51
307.2505638150907
  0
ARC
  5
389
330
1F
100
AcDbEntity
  8
図
  6
CONTINUOUS
 62
     7
100
AcDbCircle
 10
724.8291352493624
 20
645.553587999996
 30
0.0
 40
10.0
100
AcDbArc
 50
269.9999999999993
 51
307.0919864932964
  0
LINE
  5
38A
330
1F
100
AcDbEntity
  8
図
  6
CONTINUOUS
 62
     7
100
AcDbLine
 10
731.4232540823557
 20
640.5535879999965
 30
0.0
 11
516.5000000000027
 21
640.5535879999983
 31
0.0
  0
LINE
  5
38B
330
1F
100
AcDbEntity
  8
図
  6
CONTINUOUS
 62
     7
100
AcDbLine
 10
724.8291352493621
 20
635.5535879999965
 30
0.0
 11
516.5000000000027
 21
635.5535879999983
 31
0.0
  0
ARC
  5
38C
330
1F
100
AcDbEntity
  8
図
  6
CONTINUOUS
 62
     7
100
AcDbCircle
 10
-2238.183812783232
 20
691.0721065185091
 30
0.0
 40
2990.0
100
AcDbArc
 50
356.7882499924723
 51
359.0334001997038
  0
ARC
  5
38D
330
1F
100
AcDbEntity
  8
図
  6
CONTINUOUS
 62
     7
100
AcDbCircle
 10
-1078.42919075351
 20
3030.581765967987
 30
0.0
 40
3010.0
100
AcDbArc
 50
304.020953765871
 51
307.4387941650652
  0
ARC
  5
38E
330
1F
100
AcDbEntity
  8
図
  6
CONTINUOUS
 62
     7
100
AcDbCircle
 10
1044.875408702578
 20
515.5535879999928
 30
0.0
 40
3.0
100
AcDbArc
 50
182.5100689039133
 51
270.0000000000088
  0
ARC
  5
38F
330
1F
100
AcDbEntity
  8
図
  6
CONTINUOUS
 62
     7
100
AcDbCircle
 10
4038.999909118001
 20
646.8070680000001
 30
0.0
 40
3000.000000000002
100
AcDbArc
 50
179.985718715939
 51
182.5100689039133
  0
LINE
  5
390
330
1F
100
AcDbEntity
  8
図
  6
CONTINUOUS
 62
     7
100
AcDbLine
 10
1167.216704297004
 20
512.553588000012
 30
0.0
 11
1044.875408702579
 21
512.553587999992
 31
0.0
  0
LINE
  5
391
330
1F
100
AcDbEntity
  8
図
  6
CONTINUOUS
 62
     7
100
AcDbLine
 10
1182.872097795205
 20
520.1073574695893
 30
0.0
 11
1385.128228848109
 21
520.1073574695893
 31
0.0
  0
ARC
  5
392
330
1F
100
AcDbEntity
  8
図
  6
CONTINUOUS
 62
     7
100
AcDbCircle
 10
1523.124595297426
 20
515.5535880000007
 30
0.0
 40
3.0
100
AcDbArc
 50
270.0
 51
357.4899310960869
  0
LINE
  5
393
330
1F
100
AcDbEntity
  8
図
  6
CONTINUOUS
 62
     7
100
AcDbLine
 10
1400.783622346321
 20
512.5535880000007
 30
0.0
 11
1523.124595297425
 21
512.5535880000007
 31
0.0
  0
ARC
  5
394
330
1F
100
AcDbEntity
  8
図
  6
CONTINUOUS
 62
     7
100
AcDbCircle
 10
-1470.999905117997
 20
646.8070680000019
 30
0.0
 40
3000.000000000002
100
AcDbArc
 50
357.4899310960869
 51
0.0142812840609979
  0
POLYLINE
  5
395
330
1F
100
AcDbEntity
  8
図
  6
CONTINUOUS
 62
     7
100
AcDb2dPolyline
 66
     1
 10
0.0
 20
0.0
 30
0.0
 70
   128
  0
VERTEX
  5
396
330
395
100
AcDbEntity
  8
図
  6
CONTINUOUS
 62
     7
100
AcDbVertex
100
AcDb2dVertex
 10
1367.269490872618
 20
1024.829709527867
 30
0.0
  0
VERTEX
  5
397
330
395
100
AcDbEntity
  8
図
  6
CONTINUOUS
 62
     7
100
AcDbVertex
100
AcDb2dVertex
 10
1367.238954000001
 20
1048.699739999971
 30
0.0
  0
VERTEX
  5
398
330
395
100
AcDbEntity
  8
図
  6
CONTINUOUS
 62
     7
100
AcDbVertex
100
AcDb2dVertex
 10
1367.311950000002
 20
1065.59845199997
 30
0.0
  0
VERTEX
  5
399
330
395
100
AcDbEntity
  8
図
  6
CONTINUOUS
 62
     7
100
AcDbVertex
100
AcDb2dVertex
 10
1367.459290000001
 20
1082.53479199997
 30
0.0
  0
VERTEX
  5
39A
330
395
100
AcDbEntity
  8
図
  6
CONTINUOUS
 62
     7
100
AcDbVertex
100
AcDb2dVertex
 10
1367.840822000002
 20
1116.503203999968
 30
0.0
  0
VERTEX
  5
39B
330
395
100
AcDbEntity
  8
図
  6
CONTINUOUS
 62
     7
100
AcDbVertex
100
AcDb2dVertex
 10
1367.848187913372
 20
1117.176078878216
 30
0.0
  0
SEQEND
  5
39C
330
395
100
AcDbEntity
  8
図
  6
CONTINUOUS
 62
     7
  0
ARC
  5
39D
330
1F
100
AcDbEntity
  8
図
  6
CONTINUOUS
 62
     7
100
AcDbCircle
 10
1347.291887227263
 20
1025.775940255071
 30
0.0
 40
20.0
100
AcDbArc
 50
270.0
 51
357.2882363416777
  0
POLYLINE
  5
39E
330
1F
100
AcDbEntity
  8
図
  6
CONTINUOUS
 62
     7
100
AcDb2dPolyline
 66
     1
 10
0.0
 20
0.0
 30
0.0
 70
   128
  0
VERTEX
  5
39F
330
39E
100
AcDbEntity
  8
図
  6
CONTINUOUS
 62
     7
100
AcDbVertex
100
AcDb2dVertex
 10
1200.730503824074
 20
1024.827158950211
 30
0.0
  0
VERTEX
  5
3A0
330
39E
100
AcDbEntity
  8
図
  6
CONTINUOUS
 62
     7
100
AcDbVertex
100
AcDb2dVertex
 10
1200.761046000004
 20
1048.695679999968
 30
0.0
  0
VERTEX
  5
3A1
330
39E
100
AcDbEntity
  8
図
  6
CONTINUOUS
 62
     7
100
AcDbVertex
100
AcDb2dVertex
 10
1200.688050000005
 20
1065.595063999969
 30
0.0
  0
VERTEX
  5
3A2
330
39E
100
AcDbEntity
  8
図
  6
CONTINUOUS
 62
     7
100
AcDbVertex
100
AcDb2dVertex
 10
1200.540834000005
 20
1082.519255999971
 30
0.0
  0
VERTEX
  5
3A3
330
39E
100
AcDbEntity
  8
図
  6
CONTINUOUS
 62
     7
100
AcDbVertex
100
AcDb2dVertex
 10
1200.159790000004
 20
1116.44693199997
 30
0.0
  0
VERTEX
  5
3A4
330
39E
100
AcDbEntity
  8
図
  6
CONTINUOUS
 62
     7
100
AcDbVertex
100
AcDb2dVertex
 10
1200.151807121452
 20
1117.176203457635
 30
0.0
  0
SEQEND
  5
3A5
330
39E
100
AcDbEntity
  8
図
  6
CONTINUOUS
 62
     7
  0
ARC
  5
3A6
330
1F
100
AcDbEntity
  8
図
  6
CONTINUOUS
 62
     7
100
AcDbCircle
 10
1220.707986564065
 20
1025.775938889569
 30
0.0
 40
20.0
100
AcDbArc
 50
182.719074822459
 51
270.0
  0
LINE
  5
3A7
330
1F
100
AcDbEntity
  8
図
  6
CONTINUOUS
 62
     7
100
AcDbLine
 10
1430.99975599998
 20
831.8192599999716
 30
0.0
 11
1137.000248000027
 21
831.8192599999716
 31
0.0
  0
LINE
  5
3A8
330
1F
100
AcDbEntity
  8
図
  6
EXLTYPE3
 62
     6
100
AcDbLine
 10
1417.000002000005
 20
940.780152000001
 30
0.0
 11
1417.000002000006
 21
966.6000000000003
 31
0.0
  0
LINE
  5
3A9
330
1F
100
AcDbEntity
  8
図
  6
EXLTYPE3
 62
     6
100
AcDbLine
 10
1428.800002000001
 20
953.2801519999989
 30
0.0
 11
1405.700000000001
 21
953.2801519999989
 31
0.0
  0
LINE
  5
3AA
330
1F
100
AcDbEntity
  8
図
  6
EXLTYPE3
 62
     6
100
AcDbLine
 10
1151.000001999998
 20
940.780152000001
 30
0.0
 11
1151.000001999998
 21
965.3
 31
0.0
  0
LINE
  5
3AB
330
1F
100
AcDbEntity
  8
図
  6
EXLTYPE3
 62
     6
100
AcDbLine
 10
1165.200000000001
 20
953.2801519999989
 30
0.0
 11
1138.450002000001
 21
953.2801519999989
 31
0.0
  0
LINE
  5
3AC
330
1F
100
AcDbEntity
  8
図
  6
CONTINUOUS
 62
     7
100
AcDbLine
 10
1189.000002000002
 20
1141.067320458671
 30
0.0
 11
1189.000002000002
 21
1004.435821854641
 31
0.0
  0
LINE
  5
3AD
330
1F
100
AcDbEntity
  8
図
  6
CONTINUOUS
 62
     7
100
AcDbLine
 10
1379.000002000005
 20
1141.067320458671
 30
0.0
 11
1379.000002000004
 21
1003.258611826955
 31
0.0
  0
ARC
  5
3AE
330
1F
100
AcDbEntity
  8
図
  6
CONTINUOUS
 62
     7
100
AcDbCircle
 10
1254.441756116444
 20
932.6138559956712
 30
0.0
 40
10.0
100
AcDbArc
 50
193.0885222908998
 51
270.0
  0
ARC
  5
3AF
330
1F
100
AcDbEntity
  8
図
  6
CONTINUOUS
 62
     7
100
AcDbCircle
 10
1313.558247883562
 20
932.6138559956712
 30
0.0
 40
10.0
100
AcDbArc
 50
270.0
 51
346.9114777090994
  0
ARC
  5
3B0
330
1F
100
AcDbEntity
  8
図
  6
CONTINUOUS
 62
     7
100
AcDbCircle
 10
1330.470879058219
 20
939.1195905365716
 30
0.0
 40
5.0
100
AcDbArc
 50
90.00000000000001
 51
166.911477709097
  0
ARC
  5
3B1
330
1F
100
AcDbEntity
  8
図
  6
CONTINUOUS
 62
     7
100
AcDbCircle
 10
1237.529124941787
 20
939.1195905365716
 30
0.0
 40
5.0
100
AcDbArc
 50
13.08852229090011
 51
90.00000000000001
  0
LINE
  5
3B2
330
1F
100
AcDbEntity
  8
図
  6
CONTINUOUS
 62
     7
100
AcDbLine
 10
1182.01389332799
 20
944.1195905365716
 30
0.0
 11
1237.529124941787
 21
944.1195905365716
 31
0.0
  0
LINE
  5
3B3
330
1F
100
AcDbEntity
  8
図
  6
CONTINUOUS
 62
     7
100
AcDbLine
 10
1242.39923169874
 20
940.2518714981195
 30
0.0
 11
1244.701542602539
 21
930.3492940725756
 31
0.0
  0
LINE
  5
3B4
330
1F
100
AcDbEntity
  8
図
  6
CONTINUOUS
 62
     7
100
AcDbLine
 10
1313.558247883562
 20
922.6138559956712
 30
0.0
 11
1254.441756116444
 21
922.6138559956712
 31
0.0
  0
LINE
  5
3B5
330
1F
100
AcDbEntity
  8
図
  6
CONTINUOUS
 62
     7
100
AcDbLine
 10
1325.600772301266
 20
940.2518714981195
 30
0.0
 11
1323.298461397467
 21
930.3492940725755
 31
0.0
  0
LINE
  5
3B6
330
1F
100
AcDbEntity
  8
図
  6
CONTINUOUS
 62
     7
100
AcDbLine
 10
1385.986110672013
 20
944.1195905365716
 30
0.0
 11
1330.470879058219
 21
944.1195905365716
 31
0.0
  0
LINE
  5
3B7
330
1F
100
AcDbEntity
  8
図
  6
EXLTYPE2
 62
     2
100
AcDbLine
 10
642.5000000000026
 20
528.5535880000037
 30
0.0
 11
642.5000000000026
 21
518.5535880000019
 31
0.0
  0
LINE
  5
3B8
330
1F
100
AcDbEntity
  8
図
  6
EXLTYPE2
 62
     2
100
AcDbLine
 10
656.5000000000027
 20
528.5535880000037
 30
0.0
 11
656.5000000000027
 21
518.5535880000019
 31
0.0
  0
LINE
  5
3B9
330
1F
100
AcDbEntity
  8
図
  6
CONTINUOUS
 62
     7
100
AcDbLine
 10
1082.005414110102
 20
1156.280152000271
 30
0.0
 11
1082.005414110102
 21
815.6566159999699
 31
0.0
  0
LEADER
  5
3BA
330
1F
100
AcDbEntity
  8
寸法
  6
CONTINUOUS
 62
     3
100
AcDbLeader
  3
ISO-25
 76
     3
 10
443.0906570585817
 20
1172.960486695805
 30
0.0
 10
372.4999999999995
 20
1311.280151999999
 30
0.0
 10
319.0000000000001
 20
1311.280151999999
 30
0.0
1001
ACAD
1000
DSTYLE
1002
{
1070
     5
1000
EX_NORM
1070
    41
1040
15.0
1070
   341
1005
4C
1002
}
  0
TEXT
  5
3BB
330
1F
100
AcDbEntity
  8
寸法
  6
CONTINUOUS
 62
     2
100
AcDbText
 10
321.4999999999995
 20
1312.780152059604
 30
0.0
 40
20.0
  1
φ１５
 41
1.029411764705882
  7
EXCADSTD
 72
     5
 11
371.4999999999995
 21
1312.780152059604
 31
0.0
100
AcDbText
  0
TEXT
  5
3BC
330
1F
100
AcDbEntity
  8
寸法
  6
CONTINUOUS
 62
     2
100
AcDbText
 10
953.0000009999995
 20
1117.500000059603
 30
0.0
 40
20.0
  1
φ１４
 41
1.029411764705882
  7
EXCADSTD
 72
     5
 11
1003.000001
 21
1117.500000059603
 31
0.0
100
AcDbText
  0
LEADER
  5
3BD
330
1F
100
AcDbEntity
  8
寸法
  6
CONTINUOUS
 62
     3
100
AcDbLeader
  3
ISO-25
 76
     2
 10
523.5513362794117
 20
613.2633077011378
 30
0.0
 10
589.5465599588568
 20
704.1390081570444
 30
0.0
1001
ACAD
1000
DSTYLE
1002
{
1070
     5
1000
EX_NORM
1070
    41
1040
15.0
1070
   341
1005
4C
1002
}
  0
TEXT
  5
3BE
330
1F
100
AcDbEntity
  8
寸法
  6
CONTINUOUS
 62
     2
100
AcDbText
 10
553.1216692133999
 20
656.5344882098098
 30
0.0
 40
20.0
  1
φ２４
 50
54.01231458737683
 41
1.029411764705884
  7
EXCADSTD
 72
     5
 11
582.5022370442696
 21
696.9916536312239
 31
0.0
100
AcDbText
  0
DIMENSION
  5
3C0
330
1F
100
AcDbEntity
  8
寸法
  6
CONTINUOUS
 62
     3
100
AcDbDimension
  2
*D15
 10
761.4999280000008
 20
751.280152
 30
0.0
 11
516.4999640000008
 21
762.7801520596047
 31
0.0
 70
   160
  1
490
  3
ISO-25
100
AcDbAlignedDimension
 13
271.5000000000008
 23
811.280152
 33
0.0
 14
761.4999280000008
 24
811.280152
 34
0.0
100
AcDbRotatedDimension
1001
ACAD
1000
DSTYLE
1002
{
1070
   270
1070
     2
1070
     6
1000
EX_NORM
1070
     7
1000
EX_NORM
1070
    41
1040
15.0
1070
    42
1040
2.5
1070
    44
1040
5.0
1070
    73
1070
     0
1070
    74
1070
     0
1070
    75
1070
     0
1070
    76
1070
     0
1070
    77
1070
     1
1070
    78
1070
     8
1070
   140
1040
20.0
1070
   147
1040
0.0
1070
   173
1070
     1
1070
   176
1070
     3
1070
   177
1070
     3
1070
   178
1070
     2
1070
   271
1070
     2
1070
   277
1070
     2
1070
   279
1070
     2
1070
   280
1070
     0
1070
   287
1070
     5
1070
   340
1005
3BF
1002
}
  0
DIMENSION
  5
3CE
330
1F
100
AcDbEntity
  8
寸法
  6
CONTINUOUS
 62
     3
100
AcDbDimension
  2
*D16
 10
861.4999280000008
 20
801.280152
 30
0.0
 11
849.9999279403961
 21
1031.280152
 31
0.0
 70
   160
  1
460
  3
ISO-25
100
AcDbAlignedDimension
 13
816.4999280000008
 23
1261.280152
 33
0.0
 14
751.4999280000008
 24
801.280152
 34
0.0
 50
90.0
100
AcDbRotatedDimension
1001
ACAD
1000
DSTYLE
1002
{
1070
   270
1070
     2
1070
     6
1000
EX_NORM
1070
     7
1000
EX_NORM
1070
    41
1040
15.0
1070
    42
1040
2.5
1070
    44
1040
5.0
1070
    73
1070
     0
1070
    74
1070
     0
1070
    75
1070
     0
1070
    76
1070
     0
1070
    77
1070
     1
1070
    78
1070
     8
1070
   140
1040
20.0
1070
   147
1040
0.0
1070
   173
1070
     1
1070
   176
1070
     3
1070
   177
1070
     3
1070
   178
1070
     2
1070
   271
1070
     2
1070
   277
1070
     2
1070
   279
1070
     2
1070
   280
1070
     0
1070
   287
1070
     5
1070
   340
1005
3BF
1002
}
  0
DIMENSION
  5
3DB
330
1F
100
AcDbEntity
  8
寸法
  6
CONTINUOUS
 62
     3
100
AcDbDimension
  2
*D17
 10
861.4999280000008
 20
652.5535879999999
 30
0.0
 11
849.9999279403961
 21
565.05358800002
 31
0.0
 70
   160
  3
ISO-25
100
AcDbAlignedDimension
 13
548.2255553147209
 23
477.55358800004
 33
0.0
 14
816.4999280000008
 24
652.5535879999999
 34
0.0
 50
90.0
100
AcDbRotatedDimension
1001
ACAD
1000
DSTYLE
1002
{
1070
   270
1070
     2
1070
     6
1000
EX_NORM
1070
     7
1000
EX_NORM
1070
    41
1040
15.0
1070
    42
1040
2.5
1070
    44
1040
5.0
1070
    73
1070
     0
1070
    74
1070
     0
1070
    75
1070
     0
1070
    76
1070
     0
1070
    77
1070
     1
1070
    78
1070
     8
1070
   140
1040
20.0
1070
   147
1040
0.0
1070
   173
1070
     1
1070
   176
1070
     3
1070
   177
1070
     3
1070
   178
1070
     2
1070
   271
1070
     2
1070
   277
1070
     2
1070
   279
1070
     2
1070
   280
1070
     0
1070
   287
1070
     5
1070
   340
1005
3BF
1002
}
  0
DIMENSION
  5
3E8
330
1F
100
AcDbEntity
  8
寸法
  6
CONTINUOUS
 62
     3
100
AcDbDimension
  2
*D18
 10
1579.000002000001
 20
801.280152
 30
0.0
 11
1567.500001940396
 21
918.780152
 31
0.0
 70
   160
  1
235
  3
ISO-25
100
AcDbAlignedDimension
 13
1347.000000000001
 23
1036.280152
 33
0.0
 14
1525.000002000001
 24
801.280152
 34
0.0
 50
90.0
100
AcDbRotatedDimension
1001
ACAD
1000
DSTYLE
1002
{
1070
   270
1070
     2
1070
     6
1000
EX_NORM
1070
     7
1000
EX_NORM
1070
    41
1040
15.0
1070
    42
1040
2.5
1070
    44
1040
5.0
1070
    73
1070
     0
1070
    74
1070
     0
1070
    75
1070
     0
1070
    76
1070
     1
1070
    77
1070
     1
1070
    78
1070
     8
1070
   140
1040
20.0
1070
   147
1040
0.0
1070
   173
1070
     1
1070
   176
1070
     3
1070
   177
1070
     3
1070
   178
1070
     2
1070
   271
1070
     2
1070
   277
1070
     2
1070
   279
1070
     2
1070
   280
1070
     0
1070
   287
1070
     5
1070
   340
1005
3BF
1002
}
  0
DIMENSION
  5
3F4
330
1F
100
AcDbEntity
  8
寸法
  6
CONTINUOUS
 62
     3
100
AcDbDimension
  2
*D19
 10
811.4999280000008
 20
1261.280152
 30
0.0
 11
799.9999279403962
 21
1218.780152
 31
0.0
 70
   160
  3
ISO-25
100
AcDbAlignedDimension
 13
541.6266600000008
 23
1176.280152
 33
0.0
 14
757.4999280000006
 24
1261.280152
 34
0.0
 50
90.0
100
AcDbRotatedDimension
1001
ACAD
1000
DSTYLE
1002
{
1070
   270
1070
     2
1070
     6
1000
EX_NORM
1070
     7
1000
EX_NORM
1070
    41
1040
15.0
1070
    42
1040
2.5
1070
    44
1040
5.0
1070
    73
1070
     0
1070
    74
1070
     0
1070
    75
1070
     0
1070
    76
1070
     1
1070
    77
1070
     1
1070
    78
1070
     8
1070
   140
1040
20.0
1070
   147
1040
0.0
1070
   173
1070
     1
1070
   176
1070
     3
1070
   177
1070
     3
1070
   178
1070
     2
1070
   271
1070
     2
1070
   277
1070
     2
1070
   279
1070
     2
1070
   280
1070
     0
1070
   287
1070
     5
1070
   340
1005
3BF
1002
}
  0
DIMENSION
  5
400
330
1F
100
AcDbEntity
  8
寸法
  6
CONTINUOUS
 62
     3
100
AcDbDimension
  2
*D20
 10
221.5000000000008
 20
1261.280152
 30
0.0
 11
209.9999999403962
 21
1213.780152
 31
0.0
 70
   160
  3
ISO-25
100
AcDbAlignedDimension
 13
429.4999280000008
 23
1166.280152
 33
0.0
 14
275.4999280000008
 24
1261.280152
 34
0.0
 50
90.0
100
AcDbRotatedDimension
1001
ACAD
1000
DSTYLE
1002
{
1070
   270
1070
     2
1070
     6
1000
EX_NORM
1070
     7
1000
EX_NORM
1070
    41
1040
15.0
1070
    42
1040
2.5
1070
    44
1040
5.0
1070
    73
1070
     0
1070
    74
1070
     0
1070
    75
1070
     0
1070
    76
1070
     0
1070
    77
1070
     1
1070
    78
1070
     8
1070
   140
1040
20.0
1070
   147
1040
0.0
1070
   173
1070
     1
1070
   176
1070
     3
1070
   177
1070
     3
1070
   178
1070
     2
1070
   271
1070
     2
1070
   277
1070
     2
1070
   279
1070
     2
1070
   280
1070
     0
1070
   287
1070
     5
1070
   340
1005
3BF
1002
}
  0
DIMENSION
  5
40D
330
1F
100
AcDbEntity
  8
寸法
  6
CONTINUOUS
 62
     3
100
AcDbDimension
  2
*D21
 10
516.4999640000008
 20
1311.280152
 30
0.0
 11
481.4999460000008
 21
1322.780152059605
 31
0.0
 70
   160
  3
ISO-25
100
AcDbAlignedDimension
 13
446.4999280000008
 23
1180.560304
 33
0.0
 14
516.4999640000008
 24
1273.5
 34
0.0
100
AcDbRotatedDimension
1001
ACAD
1000
DSTYLE
1002
{
1070
   270
1070
     2
1070
     6
1000
EX_NORM
1070
     7
1000
EX_NORM
1070
    41
1040
15.0
1070
    42
1040
2.5
1070
    44
1040
5.0
1070
    73
1070
     0
1070
    74
1070
     0
1070
    75
1070
     0
1070
    76
1070
     0
1070
    77
1070
     1
1070
    78
1070
     8
1070
   140
1040
20.0
1070
   147
1040
0.0
1070
   173
1070
     1
1070
   176
1070
     3
1070
   177
1070
     3
1070
   178
1070
     2
1070
   271
1070
     2
1070
   277
1070
     2
1070
   279
1070
     2
1070
   280
1070
     0
1070
   287
1070
     5
1070
   340
1005
3BF
1002
}
  0
DIMENSION
  5
41A
330
1F
100
AcDbEntity
  8
寸法
  6
CONTINUOUS
 62
     3
100
AcDbDimension
  2
*D22
 10
1459.0
 20
427.553588
 30
0.0
 11
1284.000002000001
 21
439.0535880596046
 31
0.0
 70
   160
  1
350
  3
ISO-25
100
AcDbAlignedDimension
 13
1109.000004000001
 23
501.5000000000001
 33
0.0
 14
1459.0
 24
501.5000000000001
 34
0.0
100
AcDbRotatedDimension
1001
ACAD
1000
DSTYLE
1002
{
1070
   270
1070
     2
1070
     6
1000
EX_NORM
1070
     7
1000
EX_NORM
1070
    41
1040
15.0
1070
    42
1040
2.5
1070
    44
1040
5.0
1070
    73
1070
     0
1070
    74
1070
     0
1070
    75
1070
     0
1070
    76
1070
     0
1070
    77
1070
     1
1070
    78
1070
     8
1070
   140
1040
20.0
1070
   147
1040
0.0
1070
   173
1070
     1
1070
   176
1070
     3
1070
   177
1070
     3
1070
   178
1070
     2
1070
   271
1070
     2
1070
   277
1070
     2
1070
   279
1070
     2
1070
   280
1070
     0
1070
   287
1070
     5
1070
   340
1005
3BF
1002
}
  0
LEADER
  5
427
330
1F
100
AcDbEntity
  8
寸法
  6
CONTINUOUS
 62
     3
100
AcDbLeader
  3
ISO-25
 76
     3
 10
1097.918256559901
 20
517.87747800524
 30
0.0
 10
1063.000000000001
 20
427.553588
 30
0.0
 10
987.5
 20
427.553588
 30
0.0
1001
ACAD
1000
DSTYLE
1002
{
1070
     5
1000
EX_NORM
1070
    41
1040
15.0
1070
   341
1005
4C
1002
}
  0
TEXT
  5
428
330
1F
100
AcDbEntity
  8
寸法
  6
CONTINUOUS
 62
     2
100
AcDbText
 10
991.7500000000009
 20
430.053588
 30
0.0
 40
20.0
  1
２６×６
 41
0.9891304347826085
  7
EXCADSTD
 72
     5
 11
1056.750000000001
 21
430.053588
 31
0.0
100
AcDbText
  0
DIMENSION
  5
429
330
1F
100
AcDbEntity
  8
寸法
  6
CONTINUOUS
 62
     3
100
AcDbDimension
  2
*D23
 10
1459.0
 20
702.5535879999999
 30
0.0
 11
1284.000002000001
 21
714.0535880596045
 31
0.0
 70
   160
  1
350
  3
ISO-25
100
AcDbAlignedDimension
 13
1109.000004000001
 23
642.185668
 33
0.0
 14
1459.0
 24
642.185668
 34
0.0
100
AcDbRotatedDimension
1001
ACAD
1000
DSTYLE
1002
{
1070
   270
1070
     2
1070
     6
1000
EX_NORM
1070
     7
1000
EX_NORM
1070
    41
1040
15.0
1070
    42
1040
2.5
1070
    44
1040
5.0
1070
    73
1070
     0
1070
    74
1070
     0
1070
    75
1070
     0
1070
    76
1070
     0
1070
    77
1070
     1
1070
    78
1070
     8
1070
   140
1040
20.0
1070
   147
1040
0.0
1070
   173
1070
     1
1070
   176
1070
     3
1070
   177
1070
     3
1070
   178
1070
     2
1070
   271
1070
     2
1070
   277
1070
     2
1070
   279
1070
     2
1070
   280
1070
     0
1070
   287
1070
     5
1070
   340
1005
3BF
1002
}
  0
LINE
  5
436
330
1F
100
AcDbEntity
  8
寸法
  6
CONTINUOUS
 62
     3
100
AcDbLine
 10
981.5000020000008
 20
801.280152
 30
0.0
 11
934.0000020000008
 21
801.280152
 31
0.0
  0
LINE
  5
437
330
1F
100
AcDbEntity
  8
寸法
  6
CONTINUOUS
 62
     3
100
AcDbLine
 10
1042.505414110101
 20
801.280152
 30
0.0
 11
984.0000020000008
 21
801.280152
 31
0.0
  0
DIMENSION
  5
438
330
1F
100
AcDbEntity
  8
寸法
  6
CONTINUOUS
 62
     3
100
AcDbDimension
  2
*D24
 10
1409.000002000001
 20
1311.280152
 30
0.0
 11
1284.000002000001
 21
1322.780152059605
 31
0.0
 70
   160
  1
250
  3
ISO-25
100
AcDbAlignedDimension
 13
1159.000002000001
 23
1075.0
 33
0.0
 14
1409.000002000001
 24
1075.0
 34
0.0
100
AcDbRotatedDimension
1001
ACAD
1000
DSTYLE
1002
{
1070
   270
1070
     2
1070
     6
1000
EX_NORM
1070
     7
1000
EX_NORM
1070
    41
1040
15.0
1070
    42
1040
0.0
1070
    44
1040
0.0
1070
    73
1070
     0
1070
    74
1070
     0
1070
    75
1070
     0
1070
    76
1070
     0
1070
    77
1070
     1
1070
    78
1070
     8
1070
   140
1040
20.0
1070
   147
1040
0.0
1070
   173
1070
     1
1070
   176
1070
     3
1070
   177
1070
     3
1070
   178
1070
     2
1070
   271
1070
     2
1070
   277
1070
     2
1070
   279
1070
     2
1070
   280
1070
     0
1070
   287
1070
     5
1070
   340
1005
3BF
1002
}
  0
DIMENSION
  5
445
330
1F
100
AcDbEntity
  8
寸法
  6
CONTINUOUS
 62
     3
100
AcDbDimension
  2
*D25
 10
1417.000002
 20
1361.280152
 30
0.0
 11
1284.000002000001
 21
1372.780152059605
 31
0.0
 70
   160
  1
266
  3
ISO-25
100
AcDbAlignedDimension
 13
1151.000002000001
 23
984.7801520000002
 33
0.0
 14
1417.000002
 24
984.7801520000002
 34
0.0
100
AcDbRotatedDimension
1001
ACAD
1000
DSTYLE
1002
{
1070
   270
1070
     2
1070
     6
1000
EX_NORM
1070
     7
1000
EX_NORM
1070
    41
1040
15.0
1070
    42
1040
0.0
1070
    44
1040
0.0
1070
    73
1070
     0
1070
    74
1070
     0
1070
    75
1070
     0
1070
    76
1070
     0
1070
    77
1070
     1
1070
    78
1070
     8
1070
   140
1040
20.0
1070
   147
1040
0.0
1070
   173
1070
     1
1070
   176
1070
     3
1070
   177
1070
     3
1070
   178
1070
     2
1070
   271
1070
     2
1070
   277
1070
     2
1070
   279
1070
     2
1070
   280
1070
     0
1070
   287
1070
     5
1070
   340
1005
3BF
1002
}
  0
DIMENSION
  5
452
330
1F
100
AcDbEntity
  8
寸法
  6
CONTINUOUS
 62
     3
100
AcDbDimension
  2
*D26
 10
1629.000002000001
 20
801.280152
 30
0.0
 11
1617.500001940396
 21
1011.28015200015
 31
0.0
 70
   160
  1
（420）
  3
ISO-25
100
AcDbAlignedDimension
 13
1515.994589889901
 23
1221.2801520003
 33
0.0
 14
1584.000002000001
 24
801.280152
 34
0.0
 50
90.0
100
AcDbRotatedDimension
1001
ACAD
1000
DSTYLE
1002
{
1070
   270
1070
     2
1070
     6
1000
EX_NORM
1070
     7
1000
EX_NORM
1070
    41
1040
15.0
1070
    42
1040
2.5
1070
    44
1040
5.0
1070
    73
1070
     0
1070
    74
1070
     0
1070
    75
1070
     0
1070
    76
1070
     0
1070
    77
1070
     1
1070
    78
1070
     8
1070
   140
1040
20.0
1070
   147
1040
0.0
1070
   173
1070
     1
1070
   176
1070
     3
1070
   177
1070
     3
1070
   178
1070
     2
1070
   271
1070
     2
1070
   277
1070
     2
1070
   279
1070
     2
1070
   280
1070
     0
1070
   287
1070
     5
1070
   340
1005
3BF
1002
}
  0
DIMENSION
  5
45F
330
1F
100
AcDbEntity
  8
寸法
  6
CONTINUOUS
 62
     3
100
AcDbDimension
  2
*D27
 10
811.4999280000008
 20
512.55358799999
 30
0.0
 11
799.9999279403961
 21
582.553587999995
 31
0.0
 70
   160
  3
ISO-25
100
AcDbAlignedDimension
 13
756.5000000000007
 23
652.5535879999999
 33
0.0
 14
756.5000000000107
 24
512.55358799999
 34
0.0
 50
90.0
100
AcDbRotatedDimension
1001
ACAD
1000
DSTYLE
1002
{
1070
   270
1070
     2
1070
     6
1000
EX_NORM
1070
     7
1000
EX_NORM
1070
    41
1040
15.0
1070
    42
1040
2.5
1070
    44
1040
5.0
1070
    73
1070
     0
1070
    74
1070
     0
1070
    75
1070
     1
1070
    76
1070
     0
1070
    77
1070
     1
1070
    78
1070
     8
1070
   140
1040
20.0
1070
   147
1040
0.0
1070
   173
1070
     1
1070
   176
1070
     3
1070
   177
1070
     3
1070
   178
1070
     2
1070
   271
1070
     2
1070
   277
1070
     2
1070
   279
1070
     2
1070
   280
1070
     0
1070
   287
1070
     5
1070
   340
1005
3BF
1002
}
  0
DIMENSION
  5
46B
330
1F
100
AcDbEntity
  8
寸法
  6
CONTINUOUS
 62
     3
100
AcDbDimension
  2
*D28
 10
276.5000000000008
 20
427.553588
 30
0.0
 11
516.5000000000057
 21
439.0535880596046
 31
0.0
 70
   160
  1
（480）
  3
ISO-25
100
AcDbAlignedDimension
 13
756.5000000000107
 23
512.55358799999
 33
0.0
 14
276.5000000000008
 24
512.553588
 34
0.0
100
AcDbRotatedDimension
1001
ACAD
1000
DSTYLE
1002
{
1070
   270
1070
     2
1070
     6
1000
EX_NORM
1070
     7
1000
EX_NORM
1070
    41
1040
15.0
1070
    42
1040
2.5
1070
    44
1040
5.0
1070
    73
1070
     0
1070
    74
1070
     0
1070
    75
1070
     0
1070
    76
1070
     0
1070
    77
1070
     1
1070
    78
1070
     8
1070
   140
1040
20.0
1070
   147
1040
0.0
1070
   173
1070
     1
1070
   176
1070
     3
1070
   177
1070
     3
1070
   178
1070
     2
1070
   271
1070
     2
1070
   277
1070
     2
1070
   279
1070
     2
1070
   280
1070
     0
1070
   287
1070
     5
1070
   340
1005
3BF
1002
}
  0
TEXT
  5
478
330
1F
100
AcDbEntity
  8
寸法
  6
CONTINUOUS
 62
     2
100
AcDbText
 10
596.7500000000013
 20
1313.780152
 30
0.0
 40
20.0
  1
φ３６.５
 41
0.930379746835443
  7
EXCADSTD
 72
     5
 11
666.7500000000013
 21
1313.780152
 31
0.0
100
AcDbText
  0
LEADER
  5
479
330
1F
100
AcDbEntity
  8
寸法
  6
CONTINUOUS
 62
     3
100
AcDbLeader
  3
ISO-25
 76
     3
 10
525.5860493880533
 20
1192.107519194863
 30
0.0
 10
594.0000000000009
 20
1311.280152
 30
0.0
 10
667.0000000000001
 20
1311.280152
 30
0.0
1001
ACAD
1000
DSTYLE
1002
{
1070
     5
1000
EX_NORM
1070
    41
1040
15.0
1070
   341
1005
4C
1002
}
  0
DIMENSION
  5
47A
330
1F
100
AcDbEntity
  8
寸法
  6
CONTINUOUS
 62
     3
100
AcDbDimension
  2
*D29
 10
1005.000000000001
 20
801.280152
 30
0.0
 11
993.4999999403963
 21
877.2801520000002
 31
0.0
 70
   160
  1
152
  3
ISO-25
100
AcDbAlignedDimension
 13
1138.450002000001
 23
953.280152
 33
0.0
 14
1005.000000000001
 24
801.280152
 34
0.0
 50
90.0
100
AcDbRotatedDimension
1001
ACAD
1000
DSTYLE
1002
{
1070
   270
1070
     2
1070
     6
1000
EX_NORM
1070
     7
1000
EX_NORM
1070
    41
1040
15.0
1070
    42
1040
2.5
1070
    44
1040
5.0
1070
    73
1070
     0
1070
    74
1070
     0
1070
    75
1070
     0
1070
    76
1070
     1
1070
    77
1070
     1
1070
    78
1070
     8
1070
   140
1040
20.0
1070
   147
1040
0.0
1070
   173
1070
     1
1070
   176
1070
     3
1070
   177
1070
     3
1070
   178
1070
     2
1070
   271
1070
     2
1070
   277
1070
     2
1070
   279
1070
     2
1070
   280
1070
     0
1070
   287
1070
     5
1070
   340
1005
3BF
1002
}
  0
LINE
  5
486
330
1F
100
AcDbEntity
  8
寸法
  6
CONTINUOUS
 62
     3
100
AcDbLine
 10
1159.000002000001
 20
1311.28015199997
 30
0.0
 11
1409.000002000001
 21
1311.28015199997
 31
0.0
  0
LINE
  5
487
330
1F
100
AcDbEntity
  8
寸法
  6
CONTINUOUS
 62
     3
100
AcDbLine
 10
1174.000002000001
 20
1313.78015199997
 30
0.0
 11
1159.000002000001
 21
1311.28015199997
 31
0.0
  0
LINE
  5
488
330
1F
100
AcDbEntity
  8
寸法
  6
CONTINUOUS
 62
     3
100
AcDbLine
 10
1159.000002000001
 20
1311.28015199997
 30
0.0
 11
1174.000002000001
 21
1308.78015199997
 31
0.0
  0
LINE
  5
489
330
1F
100
AcDbEntity
  8
寸法
  6
CONTINUOUS
 62
     3
100
AcDbLine
 10
1394.000002000001
 20
1308.78015199997
 30
0.0
 11
1409.000002000001
 21
1311.28015199997
 31
0.0
  0
LINE
  5
48A
330
1F
100
AcDbEntity
  8
寸法
  6
CONTINUOUS
 62
     3
100
AcDbLine
 10
1409.000002000001
 20
1311.28015199997
 30
0.0
 11
1394.000002000001
 21
1313.78015199997
 31
0.0
  0
LINE
  5
48B
330
1F
100
AcDbEntity
  8
寸法
  6
CONTINUOUS
 62
     3
100
AcDbLine
 10
1017.000000000001
 20
1115.999999999971
 30
0.0
 11
939.0000020000008
 21
1115.999999999971
 31
0.0
  0
LINE
  5
48C
330
1F
100
AcDbEntity
  8
寸法
  6
CONTINUOUS
 62
     3
100
AcDbLine
 10
1165.369617163455
 20
1048.377049750738
 30
0.0
 11
1017.000000000001
 21
1115.999999999971
 31
0.0
  0
LINE
  5
48D
330
1F
100
AcDbEntity
  8
寸法
  6
CONTINUOUS
 62
     3
100
AcDbLine
 10
1152.630386836547
 20
1054.183254249203
 30
0.0
 11
1137.94438925442
 21
1058.129325082039
 31
0.0
  0
LINE
  5
48E
330
1F
100
AcDbEntity
  8
寸法
  6
CONTINUOUS
 62
     3
100
AcDbLine
 10
1152.630386836547
 20
1054.183254249203
 30
0.0
 11
1140.018033718157
 21
1062.679050198793
 31
0.0
  0
DIMENSION
  5
48F
330
1F
100
AcDbEntity
  8
寸法
  6
CONTINUOUS
 62
     3
100
AcDbDimension
  2
*D30
 10
466.7000000000008
 20
591.553588
 30
0.0
 11
455.1999999403963
 21
613.553588
 31
0.0
 70
   160
  3
ISO-25
100
AcDbAlignedDimension
 13
516.5000000000008
 23
635.553588
 33
0.0
 14
516.5000000000008
 24
591.553588
 34
0.0
 50
90.0
100
AcDbRotatedDimension
1001
ACAD
1000
DSTYLE
1002
{
1070
   270
1070
     2
1070
     6
1000
EX_NORM
1070
     7
1000
EX_NORM
1070
    41
1040
15.0
1070
    42
1040
2.5
1070
    44
1040
5.0
1070
    73
1070
     0
1070
    74
1070
     0
1070
    75
1070
     0
1070
    76
1070
     0
1070
    77
1070
     1
1070
    78
1070
     8
1070
   140
1040
20.0
1070
   147
1040
0.0
1070
   173
1070
     1
1070
   176
1070
     3
1070
   177
1070
     3
1070
   178
1070
     2
1070
   271
1070
     2
1070
   277
1070
     2
1070
   279
1070
     2
1070
   280
1070
     0
1070
   287
1070
     5
1070
   340
1005
3BF
1002
}
  0
DIMENSION
  5
49C
330
1F
100
AcDbEntity
  8
寸法
  6
CONTINUOUS
 62
     3
100
AcDbDimension
  2
*D31
 10
946.5000000000009
 20
801.280152
 30
0.0
 11
934.0000000000009
 21
926.280152
 31
0.0
 70
   160
  1
250
  3
ISO-25
100
AcDbAlignedDimension
 13
1159.000002000001
 23
1051.280152
 33
0.0
 14
1158.000000000001
 24
801.280152
 34
0.0
 50
90.0
100
AcDbRotatedDimension
1001
ACAD
1000
DSTYLE
1002
{
1070
   270
1070
     2
1070
     6
1000
EX_NORM
1070
     7
1000
EX_NORM
1070
    41
1040
15.0
1070
    42
1040
7.5
1070
    44
1040
7.5
1070
    73
1070
     0
1070
    74
1070
     0
1070
    75
1070
     0
1070
    76
1070
     0
1070
    77
1070
     1
1070
    78
1070
     8
1070
   140
1040
20.0
1070
   147
1040
0.0
1070
   173
1070
     1
1070
   176
1070
     3
1070
   177
1070
     3
1070
   178
1070
     2
1070
   271
1070
     1
1070
   277
1070
     2
1070
   279
1070
     2
1070
   280
1070
     0
1070
   287
1070
     5
1070
   340
1005
3BF
1002
}
  0
LINE
  5
4A9
330
1F
100
AcDbEntity
  8
寸法
  6
CONTINUOUS
 62
     7
100
AcDbLine
 10
1140.918603883582
 20
982.293783950649
 30
0.0
 11
1165.918603883582
 21
982.293783950649
 31
0.0
  0
ARC
  5
4AA
330
1F
100
AcDbEntity
  8
寸法
  6
CONTINUOUS
 62
     7
100
AcDbCircle
 10
1165.918603883582
 20
1017.293783950568
 30
0.0
 40
5.0
100
AcDbArc
 50
0.0
 51
90.00000000000001
  0
ARC
  5
4AB
330
1F
100
AcDbEntity
  8
寸法
  6
CONTINUOUS
 62
     7
100
AcDbCircle
 10
1165.918603883582
 20
987.293783950649
 30
0.0
 40
5.0
100
AcDbArc
 50
270.0
 51
0.0
  0
ARC
  5
4AC
330
1F
100
AcDbEntity
  8
寸法
  6
CONTINUOUS
 62
     7
100
AcDbCircle
 10
1140.918603883582
 20
987.293783950649
 30
0.0
 40
5.0
100
AcDbArc
 50
180.0
 51
270.0
  0
ARC
  5
4AD
330
1F
100
AcDbEntity
  8
寸法
  6
CONTINUOUS
 62
     7
100
AcDbCircle
 10
1140.918603883582
 20
1017.293783950568
 30
0.0
 40
5.0
100
AcDbArc
 50
90.00000000000001
 51
180.0
  0
LINE
  5
4AE
330
1F
100
AcDbEntity
  8
寸法
  6
CONTINUOUS
 62
     7
100
AcDbLine
 10
1135.918603883582
 20
1017.293783950568
 30
0.0
 11
1135.918603883582
 21
987.293783950649
 31
0.0
  0
LINE
  5
4AF
330
1F
100
AcDbEntity
  8
寸法
  6
CONTINUOUS
 62
     7
100
AcDbLine
 10
1165.918603883582
 20
1022.293783950568
 30
0.0
 11
1140.918603883582
 21
1022.293783950568
 31
0.0
  0
ARC
  5
4B0
330
1F
100
AcDbEntity
  8
寸法
  6
CONTINUOUS
 62
     7
100
AcDbCircle
 10
1145.918603883604
 20
1012.293783950617
 30
0.0
 40
5.0
100
AcDbArc
 50
90.00000000000001
 51
180.0
  0
LINE
  5
4B1
330
1F
100
AcDbEntity
  8
寸法
  6
CONTINUOUS
 62
     7
100
AcDbLine
 10
1160.918603883608
 20
1017.293783950617
 30
0.0
 11
1145.918603883604
 21
1017.293783950617
 31
0.0
  0
ARC
  5
4B2
330
1F
100
AcDbEntity
  8
寸法
  6
CONTINUOUS
 62
     7
100
AcDbCircle
 10
1160.918603883608
 20
1012.293783950617
 30
0.0
 40
5.0
100
AcDbArc
 50
0.0
 51
90.00000000000001
  0
LINE
  5
4B3
330
1F
100
AcDbEntity
  8
寸法
  6
CONTINUOUS
 62
     7
100
AcDbLine
 10
1165.918603883608
 20
1012.293783950617
 30
0.0
 11
1165.918603883608
 21
992.293783950617
 31
0.0
  0
ARC
  5
4B4
330
1F
100
AcDbEntity
  8
寸法
  6
CONTINUOUS
 62
     7
100
AcDbCircle
 10
1160.918603883608
 20
992.293783950617
 30
0.0
 40
5.0
100
AcDbArc
 50
270.0
 51
0.0
  0
LINE
  5
4B5
330
1F
100
AcDbEntity
  8
寸法
  6
CONTINUOUS
 62
     7
100
AcDbLine
 10
1160.918603883608
 20
987.293783950617
 30
0.0
 11
1145.918603883604
 21
987.293783950617
 31
0.0
  0
LINE
  5
4B6
330
1F
100
AcDbEntity
  8
寸法
  6
CONTINUOUS
 62
     7
100
AcDbLine
 10
1140.918603883604
 20
1012.293783950617
 30
0.0
 11
1140.918603883604
 21
992.293783950617
 31
0.0
  0
ARC
  5
4B7
330
1F
100
AcDbEntity
  8
寸法
  6
CONTINUOUS
 62
     7
100
AcDbCircle
 10
1145.918603883604
 20
992.293783950617
 30
0.0
 40
5.0
100
AcDbArc
 50
180.0
 51
270.0
  0
LINE
  5
4B8
330
1F
100
AcDbEntity
  8
寸法
  6
CONTINUOUS
 62
     7
100
AcDbLine
 10
1170.918603883582
 20
1017.293783950568
 30
0.0
 11
1170.918603883582
 21
987.293783950649
 31
0.0
  0
LINE
  5
4B9
330
1F
100
AcDbEntity
  8
寸法
  6
CONTINUOUS
 62
     7
100
AcDbLine
 10
1427.081400116424
 20
982.293783950649
 30
0.0
 11
1402.081400116424
 21
982.293783950649
 31
0.0
  0
LINE
  5
4BA
330
1F
100
AcDbEntity
  8
寸法
  6
CONTINUOUS
 62
     7
100
AcDbLine
 10
1397.081400116424
 20
1017.293783950568
 30
0.0
 11
1397.081400116424
 21
987.293783950649
 31
0.0
  0
ARC
  5
4BB
330
1F
100
AcDbEntity
  8
寸法
  6
CONTINUOUS
 62
     7
100
AcDbCircle
 10
1402.081400116424
 20
1017.293783950568
 30
0.0
 40
5.0
100
AcDbArc
 50
90.00000000000001
 51
180.0
  0
ARC
  5
4BC
330
1F
100
AcDbEntity
  8
寸法
  6
CONTINUOUS
 62
     7
100
AcDbCircle
 10
1402.081400116424
 20
987.293783950649
 30
0.0
 40
5.0
100
AcDbArc
 50
180.0
 51
270.0
  0
ARC
  5
4BD
330
1F
100
AcDbEntity
  8
寸法
  6
CONTINUOUS
 62
     7
100
AcDbCircle
 10
1427.081400116424
 20
987.293783950649
 30
0.0
 40
5.0
100
AcDbArc
 50
270.0
 51
0.0
  0
ARC
  5
4BE
330
1F
100
AcDbEntity
  8
寸法
  6
CONTINUOUS
 62
     7
100
AcDbCircle
 10
1427.081400116424
 20
1017.293783950568
 30
0.0
 40
5.0
100
AcDbArc
 50
0.0
 51
90.00000000000001
  0
LINE
  5
4BF
330
1F
100
AcDbEntity
  8
寸法
  6
CONTINUOUS
 62
     7
100
AcDbLine
 10
1432.081400116424
 20
1017.293783950568
 30
0.0
 11
1432.081400116424
 21
987.293783950649
 31
0.0
  0
LINE
  5
4C0
330
1F
100
AcDbEntity
  8
寸法
  6
CONTINUOUS
 62
     7
100
AcDbLine
 10
1402.081400116424
 20
1022.293783950568
 30
0.0
 11
1427.081400116424
 21
1022.293783950568
 31
0.0
  0
ARC
  5
4C1
330
1F
100
AcDbEntity
  8
寸法
  6
CONTINUOUS
 62
     7
100
AcDbCircle
 10
1422.081400116403
 20
1012.293783950617
 30
0.0
 40
5.0
100
AcDbArc
 50
0.0
 51
90.00000000000001
  0
LINE
  5
4C2
330
1F
100
AcDbEntity
  8
寸法
  6
CONTINUOUS
 62
     7
100
AcDbLine
 10
1407.081400116399
 20
1017.293783950617
 30
0.0
 11
1422.081400116403
 21
1017.293783950617
 31
0.0
  0
ARC
  5
4C3
330
1F
100
AcDbEntity
  8
寸法
  6
CONTINUOUS
 62
     7
100
AcDbCircle
 10
1407.081400116399
 20
1012.293783950617
 30
0.0
 40
5.0
100
AcDbArc
 50
90.00000000000001
 51
180.0
  0
LINE
  5
4C4
330
1F
100
AcDbEntity
  8
寸法
  6
CONTINUOUS
 62
     7
100
AcDbLine
 10
1402.081400116399
 20
1012.293783950617
 30
0.0
 11
1402.081400116399
 21
992.293783950617
 31
0.0
  0
ARC
  5
4C5
330
1F
100
AcDbEntity
  8
寸法
  6
CONTINUOUS
 62
     7
100
AcDbCircle
 10
1407.081400116399
 20
992.293783950617
 30
0.0
 40
5.0
100
AcDbArc
 50
180.0
 51
270.0
  0
LINE
  5
4C6
330
1F
100
AcDbEntity
  8
寸法
  6
CONTINUOUS
 62
     7
100
AcDbLine
 10
1407.081400116399
 20
987.293783950617
 30
0.0
 11
1422.081400116403
 21
987.293783950617
 31
0.0
  0
LINE
  5
4C7
330
1F
100
AcDbEntity
  8
寸法
  6
CONTINUOUS
 62
     7
100
AcDbLine
 10
1427.081400116403
 20
1012.293783950617
 30
0.0
 11
1427.081400116403
 21
992.293783950617
 31
0.0
  0
ARC
  5
4C8
330
1F
100
AcDbEntity
  8
寸法
  6
CONTINUOUS
 62
     7
100
AcDbCircle
 10
1422.081400116403
 20
992.293783950617
 30
0.0
 40
5.0
100
AcDbArc
 50
270.0
 51
0.0
  0
TEXT
  5
4C9
330
1F
100
AcDbEntity
  8
寸法
  6
CONTINUOUS
 62
     2
100
AcDbText
 10
1614.34
 20
195.0599999999999
 30
0.0
 40
12.5
  1
(沙)
 41
0.9165999999999985
  7
EXCADSTD
 72
     5
 11
1637.255
 21
195.0599999999999
 31
0.0
100
AcDbText
  0
DIMENSION
  5
4CA
330
1F
100
AcDbEntity
  8
詳細図
  6
CONTINUOUS
 62
     3
100
AcDbDimension
  2
*D32
 10
1899.750000000002
 20
652.5535879999998
 30
0.0
 11
1848.500000000002
 21
664.0535880596044
 31
0.0
 70
   160
  1
%%c41
  3
ISO-25
100
AcDbAlignedDimension
 13
1797.250000000002
 23
565.0535879999961
 33
0.0
 14
1899.750000000002
 24
565.0535879999961
 34
0.0
100
AcDbRotatedDimension
1001
ACAD
1000
DSTYLE
1002
{
1070
   270
1070
     2
1070
     6
1000
EX_NORM
1070
     7
1000
EX_NORM
1070
    41
1040
15.0
1070
    42
1040
2.5
1070
    44
1040
5.0
1070
    73
1070
     0
1070
    74
1070
     0
1070
    75
1070
     0
1070
    76
1070
     0
1070
    77
1070
     1
1070
    78
1070
     8
1070
   140
1040
20.0
1070
   144
1040
0.4
1070
   147
1040
0.0
1070
   173
1070
     1
1070
   176
1070
     3
1070
   177
1070
     3
1070
   178
1070
     2
1070
   271
1070
     2
1070
   277
1070
     2
1070
   279
1070
     2
1070
   280
1070
     0
1070
   287
1070
     5
1070
   340
1005
3BF
1002
}
  0
DIMENSION
  5
4D7
330
1F
100
AcDbEntity
  8
詳細図
  6
CONTINUOUS
 62
     3
100
AcDbDimension
  2
*D33
 10
1902.250000000001
 20
427.5535879999998
 30
0.0
 11
1848.500000000001
 21
439.0535880596045
 31
0.0
 70
   160
  1
%%c43
  3
ISO-25
100
AcDbAlignedDimension
 13
1794.750000000001
 23
477.5535879999998
 33
0.0
 14
1902.250000000001
 24
477.5535879999998
 34
0.0
100
AcDbRotatedDimension
1001
ACAD
1000
DSTYLE
1002
{
1070
   270
1070
     2
1070
     6
1000
EX_NORM
1070
     7
1000
EX_NORM
1070
    41
1040
15.0
1070
    42
1040
2.5
1070
    44
1040
5.0
1070
    73
1070
     0
1070
    74
1070
     0
1070
    75
1070
     0
1070
    76
1070
     0
1070
    77
1070
     1
1070
    78
1070
     8
1070
   140
1040
20.0
1070
   144
1040
0.4
1070
   147
1040
0.0
1070
   173
1070
     1
1070
   176
1070
     3
1070
   177
1070
     3
1070
   178
1070
     2
1070
   271
1070
     2
1070
   277
1070
     2
1070
   279
1070
     2
1070
   280
1070
     0
1070
   287
1070
     5
1070
   340
1005
3BF
1002
}
  0
DIMENSION
  5
4E4
330
1F
100
AcDbEntity
  8
詳細図
  6
CONTINUOUS
 62
     3
100
AcDbDimension
  2
*D34
 10
1908.733760854894
 20
738.5990438414142
 30
0.0
 11
1848.499999999997
 21
758.0289689566473
 31
0.0
 70
   165
  1
90°
  3
ISO-25
100
AcDb3PointAngularDimension
 13
1971.448395999998
 23
636.7519839999977
 33
0.0
 14
1772.250000000002
 24
590.0535880000006
 34
0.0
 15
1848.500000000002
 25
513.8035880000007
 35
0.0
1001
ACAD
1000
DSTYLE
1002
{
1070
   270
1070
     2
1070
     6
1000
EX_NORM
1070
     7
1000
EX_NORM
1070
    41
1040
15.0
1070
    42
1040
2.50000000000002
1070
    44
1040
4.999999999999879
1070
    73
1070
     0
1070
    74
1070
     0
1070
    75
1070
     0
1070
    76
1070
     0
1070
    77
1070
     1
1070
    78
1070
     8
1070
   140
1040
20.0
1070
   147
1040
0.0
1070
   173
1070
     1
1070
   176
1070
     3
1070
   177
1070
     3
1070
   178
1070
     2
1070
   271
1070
     2
1070
   277
1070
     2
1070
   279
1070
     2
1070
   280
1070
     0
1070
   287
1070
     5
1070
   340
1005
3BF
1002
}
  0
DIMENSION
  5
4F2
330
1F
100
AcDbEntity
  8
詳細図
  6
CONTINUOUS
 62
     3
100
AcDbDimension
  2
*D35
 10
1924.749999999997
 20
702.5535879999998
 30
0.0
 11
1848.499999999999
 21
714.0535880596044
 31
0.0
 70
   160
  1
%%c61
  3
ISO-25
100
AcDbAlignedDimension
 13
1772.250000000002
 23
590.0535879999961
 33
0.0
 14
1924.749999999997
 24
590.0535879999961
 34
0.0
100
AcDbRotatedDimension
1001
ACAD
1000
DSTYLE
1002
{
1070
   270
1070
     2
1070
     6
1000
EX_NORM
1070
     7
1000
EX_NORM
1070
    41
1040
15.0
1070
    42
1040
2.5
1070
    44
1040
5.0
1070
    73
1070
     0
1070
    74
1070
     0
1070
    75
1070
     0
1070
    76
1070
     0
1070
    77
1070
     1
1070
    78
1070
     8
1070
   140
1040
20.0
1070
   144
1040
0.4
1070
   147
1040
0.0
1070
   173
1070
     1
1070
   176
1070
     3
1070
   177
1070
     3
1070
   178
1070
     2
1070
   271
1070
     2
1070
   277
1070
     2
1070
   279
1070
     2
1070
   280
1070
     0
1070
   287
1070
     5
1070
   340
1005
3BF
1002
}
  0
DIMENSION
  5
4FF
330
1F
100
AcDbEntity
  8
詳細図
  6
CONTINUOUS
 62
     3
100
AcDbDimension
  2
*D36
 10
1700.000002000001
 20
477.5535879999998
 30
0.0
 11
1688.500001940396
 21
533.8035879999998
 31
0.0
 70
   160
  3
ISO-25
100
AcDbAlignedDimension
 13
1772.250000000001
 23
590.0535879999998
 33
0.0
 14
1769.091427391001
 24
477.5535879999998
 34
0.0
 50
90.0
100
AcDbRotatedDimension
1001
ACAD
1000
DSTYLE
1002
{
1070
   270
1070
     2
1070
     6
1000
EX_NORM
1070
     7
1000
EX_NORM
1070
    41
1040
15.0
1070
    42
1040
2.5
1070
    44
1040
5.0
1070
    73
1070
     0
1070
    74
1070
     0
1070
    75
1070
     0
1070
    76
1070
     0
1070
    77
1070
     1
1070
    78
1070
     8
1070
   140
1040
20.0
1070
   144
1040
0.4
1070
   147
1040
0.0
1070
   173
1070
     1
1070
   176
1070
     3
1070
   177
1070
     3
1070
   178
1070
     2
1070
   271
1070
     2
1070
   277
1070
     2
1070
   279
1070
     2
1070
   280
1070
     0
1070
   287
1070
     5
1070
   340
1005
3BF
1002
}
  0
LINE
  5
50C
330
1F
100
AcDbEntity
  8
詳細図
  6
CONTINUOUS
 62
     7
100
AcDbLine
 10
1794.750000000002
 20
495.0535880000007
 30
0.0
 11
1794.750000000002
 21
477.5535880000018
 31
0.0
  0
LINE
  5
50D
330
1F
100
AcDbEntity
  8
詳細図
  6
CONTINUOUS
 62
     7
100
AcDbLine
 10
1902.250000000002
 20
495.0535880000007
 30
0.0
 11
1902.250000000002
 21
477.5535880000018
 31
0.0
  0
LINE
  5
50E
330
1F
100
AcDbEntity
  8
詳細図
  6
CONTINUOUS
 62
     7
100
AcDbLine
 10
1772.250000000002
 20
590.0535880000007
 30
0.0
 11
1797.250000000002
 21
565.0535880000007
 31
0.0
  0
LINE
  5
50F
330
1F
100
AcDbEntity
  8
詳細図
  6
CONTINUOUS
 62
     7
100
AcDbLine
 10
1797.250000000002
 20
565.0535879999961
 30
0.0
 11
1899.750000000002
 21
565.0535879999961
 31
0.0
  0
LINE
  5
510
330
1F
100
AcDbEntity
  8
詳細図
  6
CONTINUOUS
 62
     7
100
AcDbLine
 10
1772.250000000002
 20
590.0535879999961
 30
0.0
 11
1924.749999999997
 21
590.0535879999961
 31
0.0
  0
ARC
  5
511
330
1F
100
AcDbEntity
  8
詳細図
  6
CONTINUOUS
 62
     7
100
AcDbCircle
 10
1769.091427390997
 20
502.5535880000007
 30
0.0
 40
25.0
100
AcDbArc
 50
187.7153640856236
 51
270.0
  0
ARC
  5
512
330
1F
100
AcDbEntity
  8
詳細図
  6
CONTINUOUS
 62
     7
100
AcDbCircle
 10
1975.177763568734
 20
486.2556253661933
 30
0.0
 40
25.0
100
AcDbArc
 50
120.7772907042195
 51
160.9762988538485
  0
ARC
  5
513
330
1F
100
AcDbEntity
  8
詳細図
  6
CONTINUOUS
 62
     7
100
AcDbCircle
 10
1712.538300843501
 20
547.5523079140476
 30
0.0
 40
25.0
100
AcDbArc
 50
7.715364085625575
 51
82.42693061772032
  0
LINE
  5
514
330
1F
100
AcDbEntity
  8
詳細図
  6
CONTINUOUS
 62
     7
100
AcDbLine
 10
1764.067365635413
 20
573.4874850230608
 30
0.0
 11
1790.001262658473
 21
547.5535879999961
 31
0.0
  0
LINE
  5
515
330
1F
100
AcDbEntity
  8
詳細図
  6
CONTINUOUS
 62
     7
100
AcDbLine
 10
1790.001262658473
 20
547.5535879999961
 30
0.0
 11
1906.99873734153
 21
547.5535879999961
 31
0.0
  0
ARC
  5
516
330
1F
100
AcDbEntity
  8
詳細図
  6
CONTINUOUS
 62
     7
100
AcDbCircle
 10
1769.091427390997
 20
502.5535880000007
 30
0.0
 40
7.5
100
AcDbArc
 50
187.7153640856236
 51
270.0
  0
ARC
  5
517
330
1F
100
AcDbEntity
  8
詳細図
  6
CONTINUOUS
 62
     7
100
AcDbCircle
 10
1975.177763568734
 20
486.2556253661933
 30
0.0
 40
42.5
100
AcDbArc
 50
120.77729070422
 51
160.9762988538495
  0
ARC
  5
518
330
1F
100
AcDbEntity
  8
詳細図
  6
CONTINUOUS
 62
     7
100
AcDbCircle
 10
1927.90857260901
 20
502.5535880000007
 30
0.0
 40
7.5
100
AcDbArc
 50
270.0
 51
340.9762988538429
  0
LINE
  5
519
330
1F
100
AcDbEntity
  8
詳細図
  6
CONTINUOUS
 62
     7
100
AcDbLine
 10
1769.091427390997
 20
495.0535880000007
 30
0.0
 11
1927.90857260901
 21
495.0535880000007
 31
0.0
  0
LINE
  5
51A
330
1F
100
AcDbEntity
  8
詳細図
  6
CONTINUOUS
 62
     7
100
AcDbLine
 10
1754.653558338253
 20
553.258014369062
 30
0.0
 11
1761.659323127217
 21
501.5466986255888
 31
0.0
  0
LINE
  5
51B
330
1F
100
AcDbEntity
  8
詳細図
  6
CONTINUOUS
 62
     7
100
AcDbLine
 10
1743.968746310186
 20
576.1595989036778
 30
0.0
 11
1764.067365635413
 21
573.4874850230608
 31
0.0
  0
ARC
  5
51C
330
1F
100
AcDbEntity
  8
詳細図
  6
CONTINUOUS
 62
     7
100
AcDbCircle
 10
1712.538300843501
 20
547.5523079140476
 30
0.0
 40
42.5
100
AcDbArc
 50
7.715364085625404
 51
42.30776371938222
  0
LINE
  5
51D
330
1F
100
AcDbEntity
  8
詳細図
  6
CONTINUOUS
 62
     7
100
AcDbLine
 10
1797.250000000002
 20
547.5535879999961
 30
0.0
 11
1797.250000000002
 21
565.0535880000007
 31
0.0
  0
LINE
  5
51E
330
1F
100
AcDbEntity
  8
詳細図
  6
CONTINUOUS
 62
     7
100
AcDbLine
 10
1899.750000000002
 20
547.5535879999961
 30
0.0
 11
1899.750000000002
 21
565.0535880000007
 31
0.0
  0
LINE
  5
51F
330
1F
100
AcDbEntity
  8
詳細図
  6
CONTINUOUS
 62
     7
100
AcDbLine
 10
1744.317746511729
 20
499.1972900852852
 30
0.0
 11
1737.311981722767
 21
550.9086058287585
 31
0.0
  0
LINE
  5
520
330
1F
100
AcDbEntity
  8
詳細図
  6
CONTINUOUS
 62
     7
100
AcDbLine
 10
1927.90857260901
 20
477.5535880000018
 30
0.0
 11
1769.091427390997
 21
477.5535880000018
 31
0.0
  0
ARC
  5
521
330
1F
100
AcDbEntity
  8
詳細図
  6
CONTINUOUS
 62
     7
100
AcDbCircle
 10
1927.90857260901
 20
502.5535880000007
 30
0.0
 40
25.0
100
AcDbArc
 50
270.0
 51
340.9762988538536
  0
LINE
  5
522
330
1F
100
AcDbEntity
  8
詳細図
  6
CONTINUOUS
 62
     7
100
AcDbLine
 10
1712.757620459196
 20
597.9631070863388
 30
0.0
 11
1772.250000000002
 21
590.0535879999961
 31
0.0
  0
LINE
  5
523
330
1F
100
AcDbEntity
  8
詳細図
  6
CONTINUOUS
 62
     7
100
AcDbLine
 10
1703.750851954515
 20
573.9405791821309
 30
0.0
 11
1715.833062759937
 21
572.3342477879532
 31
0.0
  0
ARC
  5
524
330
1F
100
AcDbEntity
  8
詳細図
  6
CONTINUOUS
 62
     7
100
AcDbCircle
 10
1860.044729373269
 20
679.5672505648463
 30
0.0
 40
182.5
100
AcDbArc
 50
300.7772907042191
 51
309.8284655845532
  0
ARC
  5
525
330
1F
100
AcDbEntity
  8
詳細図
  6
CONTINUOUS
 62
     7
100
AcDbCircle
 10
1860.044729373269
 20
679.5672505648463
 30
0.0
 40
200.0
100
AcDbArc
 50
300.7772907042196
 51
313.4649130726651
  0
LINE
  5
526
330
1F
100
AcDbEntity
  8
詳細図
  6
CONTINUOUS
 62
     7
100
AcDbLine
 10
1906.99873734153
 20
547.5535879999961
 30
0.0
 11
1977.572764670765
 21
618.127615329231
 31
0.0
  0
LINE
  5
527
330
1F
100
AcDbEntity
  8
詳細図
  6
CONTINUOUS
 62
     7
100
AcDbLine
 10
1899.750000000002
 20
565.0535880000007
 30
0.0
 11
1971.448395999998
 21
636.7519839999977
 31
0.0
  0
LINE
  5
528
330
1F
100
AcDbEntity
  8
詳細図
  6
EXLTYPE3
 62
     6
100
AcDbLine
 10
1848.500000000001
 20
469.5000000000005
 30
0.0
 11
1848.500000000001
 21
607.1773080000003
 31
0.0
  0
ENDSEC
  0
SECTION
  2
OBJECTS
  0
DICTIONARY
  5
C
330
0
100
AcDbDictionary
  3
ACAD_GROUP
350
D
  3
ACAD_LAYOUT
350
1A
  3
ACAD_MATERIAL
350
3B
  3
ACAD_MLEADERSTYLE
350
54B
  3
ACAD_MLINESTYLE
350
17
  3
ACAD_PLOTSETTINGS
350
19
  3
ACAD_VISUALSTYLE
350
2A
  3
ACDBHEADERROUNDTRIPXREC
350
529
  3
ACDBVARIABLEDICTIONARY
350
549
  0
DICTIONARY
  5
D
102
{ACAD_REACTORS
330
C
102
}
330
C
100
AcDbDictionary
  0
DICTIONARY
  5
1A
102
{ACAD_REACTORS
330
C
102
}
330
C
100
AcDbDictionary
  0
DICTIONARY
  5
3B
102
{ACAD_REACTORS
330
C
102
}
330
C
100
AcDbDictionary
  3
BYBLOCK
350
3D
  3
BYLAYER
350
3C
  3
GLOBAL
350
3E
  0
DICTIONARY
  5
54B
102
{ACAD_REACTORS
330
C
102
}
330
C
100
AcDbDictionary
  0
DICTIONARY
  5
17
102
{ACAD_REACTORS
330
C
102
}
330
C
100
AcDbDictionary
  3
STANDARD
350
18
  0
DICTIONARY
  5
19
102
{ACAD_REACTORS
330
C
102
}
330
C
100
AcDbDictionary
  0
DICTIONARY
  5
2A
102
{ACAD_REACTORS
330
C
102
}
330
C
100
AcDbDictionary
  3
2DWIREFRAME
350
2F
  3
3D_HIDDEN
350
31
  3
3DWIREFRAME
350
30
  3
BASIC
350
32
  3
BRIGHTEN
350
36
  3
COLORCHANGE
350
3A
  3
CONCEPTUAL
350
34
  3
DIM
350
35
  3
FACEPATTERN
350
39
  3
FLAT
350
2B
  3
FLATWITHEDGES
350
2C
  3
GOURAUD
350
2D
  3
GOURAUDWITHEDGES
350
2E
  3
LINEPATTERN
350
38
  3
REALISTIC
350
33
  3
THICKEN
350
37
  0
DICTIONARY
  5
529
102
{ACAD_REACTORS
330
C
102
}
330
C
100
AcDbDictionary
  3
CEPSNTYPE
350
532
  3
DIMSTYLEDATA
350
548
  3
FINGERPRINTGUID
350
533
  3
HYPERLINKBASE
350
52C
  3
INSUNITS
350
531
  3
LAYOUTDICT
350
52E
  3
LWETCUNION
350
530
  3
PLOTSETDICT
350
52F
  3
PSVPSCALE
350
535
  3
PUCSBASE
350
538
  3
PUCSORGBACK
350
53E
  3
PUCSORGBOTTOM
350
53A
  3
PUCSORGFRONT
350
53D
  3
PUCSORGLEFT
350
53B
  3
PUCSORGRIGHT
350
53C
  3
PUCSORGTOP
350
539
  3
PUCSORTHOREF
350
536
  3
PUCSORTHOVIEW
350
537
  3
STYLESHEET
350
52D
  3
TSTACKALIGN
350
52A
  3
TSTACKSIZE
350
52B
  3
UCSBASE
350
541
  3
UCSORGBACK
350
547
  3
UCSORGBOTTOM
350
543
  3
UCSORGFRONT
350
546
  3
UCSORGLEFT
350
544
  3
UCSORGRIGHT
350
545
  3
UCSORGTOP
350
542
  3
UCSORTHOREF
350
53F
  3
UCSORTHOVIEW
350
540
  3
VERSIONGUID
350
534
  0
DICTIONARY
  5
549
102
{ACAD_REACTORS
330
C
102
}
330
C
100
AcDbDictionary
  3
DIMASSOC
350
54E
  3
HIDETEXT
350
54F
  3
PSOLHEIGHT
350
54D
  3
PSOLWIDTH
350
54C
  0
MATERIAL
  5
3D
102
{ACAD_REACTORS
330
3B
102
}
102
{ACAD_XDICTIONARY
360
552
102
}
330
3B
100
AcDbMaterial
  1
ByBlock
  0
MATERIAL
  5
3C
102
{ACAD_REACTORS
330
3B
102
}
102
{ACAD_XDICTIONARY
360
550
102
}
330
3B
100
AcDbMaterial
  1
ByLayer
  0
MATERIAL
  5
3E
102
{ACAD_REACTORS
330
3B
102
}
102
{ACAD_XDICTIONARY
360
554
102
}
330
3B
100
AcDbMaterial
  1
Global
  0
MLINESTYLE
  5
18
102
{ACAD_REACTORS
330
17
102
}
330
17
100
AcDbMlineStyle
  2
Standard
 70
     0
  3

 62
   256
 51
90.0
 52
90.0
 71
     2
 49
0.5
 62
   256
  6
BYLAYER
 49
-0.5
 62
   256
  6
BYLAYER
  0
ACAD_PROXY_OBJECT
  5
2F
102
{ACAD_REACTORS
330
2A
102
}
330
2A
100
AcDbProxyObject
 90
      499
 91
      501
 93
      436
310
42CC9915DA5C99599C985B595049028333333333333E3BF0000000000000FB0107901411070040501600405405064090741402480A0340
1001
ACAD
1000
AcDbSavedByObjectVersion
1070
     0
  0
ACAD_PROXY_OBJECT
  5
31
102
{ACAD_REACTORS
330
2A
102
}
330
2A
100
AcDbProxyObject
 90
      499
 91
      501
 93
      500
310
424CD108121A5919195B90640502408333333333333E3BF0000000000000FB01079024090700405020000000000001110200405405064090740C02480A0340
1001
ACAD
1000
AcDbSavedByObjectVersion
1070
     0
  0
ACAD_PROXY_OBJECT
  5
30
102
{ACAD_REACTORS
330
2A
102
}
330
2A
100
AcDbProxyObject
 90
      499
 91
      501
 93
      436
310
42CCD915DA5C99599C985B595059028333333333333E3BF0000000000000FB0107901411070040501600405405064090741402480A0340
1001
ACAD
1000
AcDbSavedByObjectVersion
1070
     0
  0
ACAD_PROXY_OBJECT
  5
32
102
{ACAD_REACTORS
330
2A
102
}
330
2A
100
AcDbProxyObject
 90
      499
 91
      501
 93
      388
310
4150985CDA58D07406404333333333333E3BF0000000000000FB0107A41107004050150841D405064090741402480A0350
1001
ACAD
1000
AcDbSavedByObjectVersion
1070
     0
  0
ACAD_PROXY_OBJECT
  5
36
102
{ACAD_REACTORS
330
2A
102
}
330
2A
100
AcDbProxyObject
 90
      499
 91
      501
 93
      428
310
42109C9A59DA1D195B90C409028333333333333E3BF0000000000000FB010790141107004050150841D405064090741402480A029950
1001
ACAD
1000
AcDbSavedByObjectVersion
1070
     0
  0
ACAD_PROXY_OBJECT
  5
3A
102
{ACAD_REACTORS
330
2A
102
}
330
2A
100
AcDbProxyObject
 90
      499
 91
      501
 93
      452
310
42D0DBDB1BDC90DA185B99D95104090240C333333333333E3BF0000000000000FB0108901411070040501508421405064090741402480A0350
1001
ACAD
1000
AcDbSavedByObjectVersion
1070
     0
  0
ACAD_PROXY_OBJECT
  5
34
102
{ACAD_REACTORS
330
2A
102
}
330
2A
100
AcDbProxyObject
 90
      499
 91
      501
 93
      500
310
4290DBDB98D95C1D1D585B10940D028333333333333E3BF0000000000000FB0107902409070040501000000000000111010841D405064090740C02480A0340
1001
ACAD
1000
AcDbSavedByObjectVersion
1070
     0
  0
ACAD_PROXY_OBJECT
  5
35
102
{ACAD_REACTORS
330
2A
102
}
330
2A
100
AcDbProxyObject
 90
      499
 91
      501
 93
      412
310
40D11A5B50B409028333333333333E3BF0000000000000FB010790141107004050150841D405064090741402480A02677FFFFFD0
1001
ACAD
1000
AcDbSavedByObjectVersion
1070
     0
  0
ACAD_PROXY_OBJECT
  5
39
102
{ACAD_REACTORS
330
2A
102
}
330
2A
100
AcDbProxyObject
 90
      499
 91
      501
 93
      444
310
42D19858D95C185D1D195C9B90F409028333333333333E3BF0000000000000FB010790141107004050150841D405064090741402480A0350
1001
ACAD
1000
AcDbSavedByObjectVersion
1070
     0
  0
ACAD_PROXY_OBJECT
  5
2B
102
{ACAD_REACTORS
330
2A
102
}
330
2A
100
AcDbProxyObject
 90
      499
 91
      501
 93
      388
310
41119B185D240901404333333333333E3BF0000000000000F9010740A41107004050150841D405064090741402480A1B50
1001
ACAD
1000
AcDbSavedByObjectVersion
1070
     0
  0
ACAD_PROXY_OBJECT
  5
2C
102
{ACAD_REACTORS
330
2A
102
}
330
2A
100
AcDbProxyObject
 90
      499
 91
      501
 93
      476
310
43519B185D15DA5D1A115919D95CD0140901404333333333333E3BF0000000000000F9010740901411070040501600405405064090741402480A1B50
1001
ACAD
1000
AcDbSavedByObjectVersion
1070
     0
  0
ACAD_PROXY_OBJECT
  5
2D
102
{ACAD_REACTORS
330
2A
102
}
330
2A
100
AcDbProxyObject
 90
      499
 91
      501
 93
      412
310
41D1DBDD5C985D5910240902404333333333333E3BF0000000000000F9010740A411070040501641D405064090741402480A1B50
1001
ACAD
1000
AcDbSavedByObjectVersion
1070
     0
  0
ACAD_PROXY_OBJECT
  5
2E
102
{ACAD_REACTORS
330
2A
102
}
330
2A
100
AcDbProxyObject
 90
      499
 91
      501
 93
      500
310
4411DBDD5C985D5915DA5D1A115919D95CD0340902404333333333333E3BF0000000000000F9010740901411070040501600405405064090741402480A1B50
1001
ACAD
1000
AcDbSavedByObjectVersion
1070
     0
  0
ACAD_PROXY_OBJECT
  5
38
102
{ACAD_REACTORS
330
2A
102
}
330
2A
100
AcDbProxyObject
 90
      499
 91
      501
 93
      444
310
42D31A5B995C185D1D195C9B90E409028333333333333E3BF0000000000000FB010790141107004050750841D405064090741402483A0350
1001
ACAD
1000
AcDbSavedByObjectVersion
1070
     0
  0
ACAD_PROXY_OBJECT
  5
33
102
{ACAD_REACTORS
330
2A
102
}
330
2A
100
AcDbProxyObject
 90
      499
 91
      501
 93
      420
310
425499585B1A5CDD1A58D08409028333333333333E3BF0000000000000FB01079019070040501508421405064090741402480A1B40
1001
ACAD
1000
AcDbSavedByObjectVersion
1070
     0
  0
ACAD_PROXY_OBJECT
  5
37
102
{ACAD_REACTORS
330
2A
102
}
330
2A
100
AcDbProxyObject
 90
      499
 91
      501
 93
      412
310
41D51A1A58DAD95B90D409028333333333333E3BF0000000000000FB010790141107004050150C41D405064090741402480A0350
1001
ACAD
1000
AcDbSavedByObjectVersion
1070
     0
  0
XRECORD
  5
532
102
{ACAD_REACTORS
330
529
102
}
330
529
100
AcDbXrecord
 90
        0
  0
XRECORD
  5
548
102
{ACAD_REACTORS
330
529
102
}
330
529
100
AcDbXrecord
1000
DSTYLE
1002
{
1070
   340
340
11
1002
}
  0
XRECORD
  5
533
102
{ACAD_REACTORS
330
529
102
}
330
529
100
AcDbXrecord
  1
{BCB37AE9-6380-479B-8B71-30B20B7B8745}
  0
XRECORD
  5
52C
102
{ACAD_REACTORS
330
529
102
}
330
529
100
AcDbXrecord
  1

  0
XRECORD
  5
531
102
{ACAD_REACTORS
330
529
102
}
330
529
100
AcDbXrecord
 90
        4
  0
XRECORD
  5
52E
102
{ACAD_REACTORS
330
529
102
}
330
529
100
AcDbXrecord
340
1A
  0
XRECORD
  5
530
102
{ACAD_REACTORS
330
529
102
}
330
529
100
AcDbXrecord
 90
    10781
  0
XRECORD
  5
52F
102
{ACAD_REACTORS
330
529
102
}
330
529
100
AcDbXrecord
340
19
  0
XRECORD
  5
535
102
{ACAD_REACTORS
330
529
102
}
330
529
100
AcDbXrecord
 40
0.0
  0
XRECORD
  5
538
102
{ACAD_REACTORS
330
529
102
}
330
529
100
AcDbXrecord
340
0
  0
XRECORD
  5
53E
102
{ACAD_REACTORS
330
529
102
}
330
529
100
AcDbXrecord
 10
0.0
 20
0.0
 30
0.0
  0
XRECORD
  5
53A
102
{ACAD_REACTORS
330
529
102
}
330
529
100
AcDbXrecord
 10
0.0
 20
0.0
 30
0.0
  0
XRECORD
  5
53D
102
{ACAD_REACTORS
330
529
102
}
330
529
100
AcDbXrecord
 10
0.0
 20
0.0
 30
0.0
  0
XRECORD
  5
53B
102
{ACAD_REACTORS
330
529
102
}
330
529
100
AcDbXrecord
 10
0.0
 20
0.0
 30
0.0
  0
XRECORD
  5
53C
102
{ACAD_REACTORS
330
529
102
}
330
529
100
AcDbXrecord
 10
0.0
 20
0.0
 30
0.0
  0
XRECORD
  5
539
102
{ACAD_REACTORS
330
529
102
}
330
529
100
AcDbXrecord
 10
0.0
 20
0.0
 30
0.0
  0
XRECORD
  5
536
102
{ACAD_REACTORS
330
529
102
}
330
529
100
AcDbXrecord
340
0
  0
XRECORD
  5
537
102
{ACAD_REACTORS
330
529
102
}
330
529
100
AcDbXrecord
 70
     0
  0
XRECORD
  5
52D
102
{ACAD_REACTORS
330
529
102
}
330
529
100
AcDbXrecord
  1

  0
XRECORD
  5
52A
102
{ACAD_REACTORS
330
529
102
}
330
529
100
AcDbXrecord
 90
        1
  0
XRECORD
  5
52B
102
{ACAD_REACTORS
330
529
102
}
330
529
100
AcDbXrecord
 90
       70
  0
XRECORD
  5
541
102
{ACAD_REACTORS
330
529
102
}
330
529
100
AcDbXrecord
340
0
  0
XRECORD
  5
547
102
{ACAD_REACTORS
330
529
102
}
330
529
100
AcDbXrecord
 10
0.0
 20
0.0
 30
0.0
  0
XRECORD
  5
543
102
{ACAD_REACTORS
330
529
102
}
330
529
100
AcDbXrecord
 10
0.0
 20
0.0
 30
0.0
  0
XRECORD
  5
546
102
{ACAD_REACTORS
330
529
102
}
330
529
100
AcDbXrecord
 10
0.0
 20
0.0
 30
0.0
  0
XRECORD
  5
544
102
{ACAD_REACTORS
330
529
102
}
330
529
100
AcDbXrecord
 10
0.0
 20
0.0
 30
0.0
  0
XRECORD
  5
545
102
{ACAD_REACTORS
330
529
102
}
330
529
100
AcDbXrecord
 10
0.0
 20
0.0
 30
0.0
  0
XRECORD
  5
542
102
{ACAD_REACTORS
330
529
102
}
330
529
100
AcDbXrecord
 10
0.0
 20
0.0
 30
0.0
  0
XRECORD
  5
53F
102
{ACAD_REACTORS
330
529
102
}
330
529
100
AcDbXrecord
340
0
  0
XRECORD
  5
540
102
{ACAD_REACTORS
330
529
102
}
330
529
100
AcDbXrecord
 70
     0
  0
XRECORD
  5
534
102
{ACAD_REACTORS
330
529
102
}
330
529
100
AcDbXrecord
  1
{FAEB1C32-E019-11D5-929B-00C0DF256EC4}
  0
DICTIONARYVAR
  5
54E
102
{ACAD_REACTORS
330
549
102
}
330
549
100
DictionaryVariables
280
     0
  1
2
  0
DICTIONARYVAR
  5
54F
102
{ACAD_REACTORS
330
549
102
}
330
549
100
DictionaryVariables
280
     0
  1
1
  0
DICTIONARYVAR
  5
54D
102
{ACAD_REACTORS
330
549
102
}
330
549
100
DictionaryVariables
280
     0
  1
80.000000
  0
DICTIONARYVAR
  5
54C
102
{ACAD_REACTORS
330
549
102
}
330
549
100
DictionaryVariables
280
     0
  1
5.000000
  0
DICTIONARY
  5
552
330
3D
100
AcDbDictionary
280
     1
  3
ACAD_XREC_ROUNDTRIP
360
553
  0
DICTIONARY
  5
550
330
3C
100
AcDbDictionary
280
     1
  3
ACAD_XREC_ROUNDTRIP
360
551
  0
DICTIONARY
  5
554
330
3E
100
AcDbDictionary
280
     1
  3
ACAD_XREC_ROUNDTRIP
360
555
  0
XRECORD
  5
553
102
{ACAD_REACTORS
330
552
102
}
330
552
100
AcDbXrecord
102
MATERIAL
148
0.0
149
0.0
149
0.0
 93
        0
 94
      127
282
     0
 72
     1
 77
     1
171
     1
175
     1
179
     1
273
     0
  0
XRECORD
  5
551
102
{ACAD_REACTORS
330
550
102
}
330
550
100
AcDbXrecord
102
MATERIAL
148
0.0
149
0.0
149
0.0
 93
        0
 94
      127
282
     0
 72
     1
 77
     1
171
     1
175
     1
179
     1
273
     0
  0
XRECORD
  5
555
102
{ACAD_REACTORS
330
554
102
}
330
554
100
AcDbXrecord
102
MATERIAL
148
0.0
149
0.0
149
0.0
 93
        0
 94
      127
282
     0
 72
     1
 77
     1
171
     1
175
     1
179
     1
273
     0
  0
ENDSEC
  0
EOF
