  0
SECTION
  2
HEADER
  9
$ACADVER
  1
AC1014
  9
$ACADMAINTVER
 70
     9
  9
$DWGCODEPAGE
  3
ANSI_932
  9
$INSBASE
 10
0.0
 20
0.0
 30
0.0
  9
$EXTMIN
 10
-2.099999999999991
 20
11.5
 30
0.0
  9
$EXTMAX
 10
199.9
 20
291.5
 30
0.0
  9
$LIMMIN
 10
0.0
 20
0.0
  9
$LIMMAX
 10
210.0
 20
297.0
  9
$ORTHOMODE
 70
     0
  9
$REGENMODE
 70
     1
  9
$FILLMODE
 70
     1
  9
$QTEXTMODE
 70
     0
  9
$MIRRTEXT
 70
     1
  9
$DRAGMODE
 70
     2
  9
$LTSCALE
 40
1.0
  9
$OSMODE
 70
    37
  9
$ATTMODE
 70
     1
  9
$TEXTSIZE
 40
2.5
  9
$TRACEWID
 40
1.0
  9
$TEXTSTYLE
  7
STANDARD
  9
$CLAYER
  8
寸法
  9
$CELTYPE
  6
BYLAYER
  9
$CECOLOR
 62
   256
  9
$CELTSCALE
 40
1.0
  9
$DELOBJ
 70
     1
  9
$DISPSILH
 70
     0
  9
$DIMSCALE
 40
1.0
  9
$DIMASZ
 40
2.5
  9
$DIMEXO
 40
0.625
  9
$DIMDLI
 40
3.75
  9
$DIMRND
 40
0.0
  9
$DIMDLE
 40
0.0
  9
$DIMEXE
 40
1.25
  9
$DIMTP
 40
0.0
  9
$DIMTM
 40
0.0
  9
$DIMTXT
 40
2.5
  9
$DIMCEN
 40
2.5
  9
$DIMTSZ
 40
0.0
  9
$DIMTOL
 70
     0
  9
$DIMLIM
 70
     0
  9
$DIMTIH
 70
     0
  9
$DIMTOH
 70
     0
  9
$DIMSE1
 70
     0
  9
$DIMSE2
 70
     0
  9
$DIMTAD
 70
     1
  9
$DIMZIN
 70
     8
  9
$DIMBLK
  1

  9
$DIMASO
 70
     1
  9
$DIMSHO
 70
     1
  9
$DIMPOST
  1

  9
$DIMAPOST
  1

  9
$DIMALT
 70
     0
  9
$DIMALTD
 70
     3
  9
$DIMALTF
 40
0.03937007874016
  9
$DIMLFAC
 40
1.0
  9
$DIMTOFL
 70
     1
  9
$DIMTVP
 40
0.0
  9
$DIMTIX
 70
     0
  9
$DIMSOXD
 70
     0
  9
$DIMSAH
 70
     0
  9
$DIMBLK1
  1

  9
$DIMBLK2
  1

  9
$DIMSTYLE
  2
ISO-25
  9
$DIMCLRD
 70
     0
  9
$DIMCLRE
 70
     0
  9
$DIMCLRT
 70
     0
  9
$DIMTFAC
 40
1.0
  9
$DIMGAP
 40
0.625
  9
$DIMJUST
 70
     0
  9
$DIMSD1
 70
     0
  9
$DIMSD2
 70
     0
  9
$DIMTOLJ
 70
     0
  9
$DIMTZIN
 70
     8
  9
$DIMALTZ
 70
     0
  9
$DIMALTTZ
 70
     0
  9
$DIMFIT
 70
     3
  9
$DIMUPT
 70
     0
  9
$DIMUNIT
 70
     2
  9
$DIMDEC
 70
     2
  9
$DIMTDEC
 70
     2
  9
$DIMALTU
 70
     2
  9
$DIMALTTD
 70
     3
  9
$DIMTXSTY
  7
STANDARD
  9
$DIMAUNIT
 70
     0
  9
$LUNITS
 70
     2
  9
$LUPREC
 70
     4
  9
$SKETCHINC
 40
1.0
  9
$FILLETRAD
 40
10.0
  9
$AUNITS
 70
     0
  9
$AUPREC
 70
     0
  9
$MENU
  1
.
  9
$ELEVATION
 40
0.0
  9
$PELEVATION
 40
0.0
  9
$THICKNESS
 40
0.0
  9
$LIMCHECK
 70
     0
  9
$CHAMFERA
 40
10.0
  9
$CHAMFERB
 40
10.0
  9
$CHAMFERC
 40
20.0
  9
$CHAMFERD
 40
0.0
  9
$SKPOLY
 70
     0
  9
$TDCREATE
 40
2460035.56166993
  9
$TDUPDATE
 40
2460035.561670185
  9
$TDINDWG
 40
0.0000000116
  9
$TDUSRTIMER
 40
0.0000000116
  9
$USRTIMER
 70
     1
  9
$ANGBASE
 50
0.0
  9
$ANGDIR
 70
     0
  9
$PDMODE
 70
     0
  9
$PDSIZE
 40
0.0
  9
$PLINEWID
 40
0.0
  9
$COORDS
 70
     1
  9
$SPLFRAME
 70
     0
  9
$SPLINETYPE
 70
     6
  9
$SPLINESEGS
 70
     8
  9
$ATTDIA
 70
     0
  9
$ATTREQ
 70
     1
  9
$HANDLING
 70
     1
  9
$HANDSEED
  5
523
  9
$SURFTAB1
 70
     6
  9
$SURFTAB2
 70
     6
  9
$SURFTYPE
 70
     6
  9
$SURFU
 70
     6
  9
$SURFV
 70
     6
  9
$UCSNAME
  2

  9
$UCSORG
 10
0.0
 20
0.0
 30
0.0
  9
$UCSXDIR
 10
1.0
 20
0.0
 30
0.0
  9
$UCSYDIR
 10
0.0
 20
1.0
 30
0.0
  9
$PUCSNAME
  2

  9
$PUCSORG
 10
0.0
 20
0.0
 30
0.0
  9
$PUCSXDIR
 10
1.0
 20
0.0
 30
0.0
  9
$PUCSYDIR
 10
0.0
 20
1.0
 30
0.0
  9
$USERI1
 70
     0
  9
$USERI2
 70
     0
  9
$USERI3
 70
     0
  9
$USERI4
 70
     0
  9
$USERI5
 70
     0
  9
$USERR1
 40
0.0
  9
$USERR2
 40
0.0
  9
$USERR3
 40
0.0
  9
$USERR4
 40
0.0
  9
$USERR5
 40
0.0
  9
$WORLDVIEW
 70
     1
  9
$SHADEDGE
 70
     3
  9
$SHADEDIF
 70
    70
  9
$TILEMODE
 70
     1
  9
$MAXACTVP
 70
    64
  9
$PINSBASE
 10
0.0
 20
0.0
 30
0.0
  9
$PLIMCHECK
 70
     0
  9
$PEXTMIN
 10
1.000000000000000E+20
 20
1.000000000000000E+20
 30
1.000000000000000E+20
  9
$PEXTMAX
 10
-1.000000000000000E+20
 20
-1.000000000000000E+20
 30
-1.000000000000000E+20
  9
$PLIMMIN
 10
0.0
 20
0.0
  9
$PLIMMAX
 10
420.0
 20
297.0
  9
$UNITMODE
 70
     0
  9
$VISRETAIN
 70
     1
  9
$PLINEGEN
 70
     0
  9
$PSLTSCALE
 70
     1
  9
$TREEDEPTH
 70
  3020
  9
$PICKSTYLE
 70
     1
  9
$CMLSTYLE
  2
STANDARD
  9
$CMLJUST
 70
     0
  9
$CMLSCALE
 40
20.0
  9
$PROXYGRAPHICS
 70
     1
  9
$MEASUREMENT
 70
     1
  0
ENDSEC
  0
SECTION
  2
CLASSES
  0
CLASS
  1
ACDBDICTIONARYWDFLT
  2
AcDbDictionaryWithDefault
  3
ObjectDBX Classes
 90
        0
280
     0
281
     0
  0
CLASS
  1
VISUALSTYLE
  2
AcDbVisualStyle
  3
ObjectDBX Classes
 90
     4095
280
     0
281
     0
  0
CLASS
  1
MATERIAL
  2
AcDbMaterial
  3
ObjectDBX Classes
 90
     1153
280
     0
281
     0
  0
CLASS
  1
SUN
  2
AcDbSun
  3
SCENEOE
 90
     1024
280
     0
281
     0
  0
CLASS
  1
DICTIONARYVAR
  2
AcDbDictionaryVar
  3
ObjectDBX Classes
 90
        0
280
     0
281
     0
  0
CLASS
  1
XRECORD
  2
AcDbXrecord
  3
AutoCAD 2000
 90
        0
280
     0
281
     0
  0
CLASS
  1
LWPOLYLINE
  2
AcDbPolyline
  3
AutoCAD 2000
 90
        0
280
     0
281
     1
  0
CLASS
  1
HATCH
  2
AcDbHatch
  3
AutoCAD 2000
 90
        0
280
     0
281
     1
  0
CLASS
  1
ACDBPLACEHOLDER
  2
AcDbPlaceHolder
  3
ObjectDBX Classes
 90
        0
280
     0
281
     0
  0
CLASS
  1
LAYOUT
  2
AcDbLayout
  3
ObjectDBX Classes
 90
        0
280
     0
281
     0
  0
ENDSEC
  0
SECTION
  2
TABLES
  0
TABLE
  2
VPORT
  5
8
330
0
100
AcDbSymbolTable
 70
     1
  0
VPORT
  5
29
330
8
100
AcDbSymbolTableRecord
100
AcDbViewportTableRecord
  2
*ACTIVE
 70
     0
 10
0.0
 20
0.0
 11
1.0
 21
1.0
 12
989.0000000000001
 22
1515.0
 13
0.0
 23
0.0
 14
10.0
 24
10.0
 15
10.0
 25
10.0
 16
0.0
 26
0.0
 36
1.0
 17
0.0
 27
0.0
 37
0.0
 40
2800.0
 41
0.7214285714285715
 42
50.0
 43
0.0
 44
0.0
 50
0.0
 51
0.0
 71
     0
 72
  1000
 73
     1
 74
     3
 75
     0
 76
     0
 77
     0
 78
     0
  0
ENDTAB
  0
TABLE
  2
LTYPE
  5
5
330
0
100
AcDbSymbolTable
 70
     7
  0
LTYPE
  5
14
330
5
100
AcDbSymbolTableRecord
100
AcDbLinetypeTableRecord
  2
BYBLOCK
 70
     0
  3

 72
    65
 73
     0
 40
0.0
  0
LTYPE
  5
15
330
5
100
AcDbSymbolTableRecord
100
AcDbLinetypeTableRecord
  2
BYLAYER
 70
     0
  3

 72
    65
 73
     0
 40
0.0
  0
LTYPE
  5
16
330
5
100
AcDbSymbolTableRecord
100
AcDbLinetypeTableRecord
  2
CONTINUOUS
 70
     0
  3
Solid line
 72
    65
 73
     0
 40
0.0
  0
LTYPE
  5
40
330
5
100
AcDbSymbolTableRecord
100
AcDbLinetypeTableRecord
  2
EXLTYPE1
 70
     0
  3
破線
 72
    65
 73
     2
 40
3.0
 49
2.0
 74
     0
 49
-1.0
 74
     0
  0
LTYPE
  5
41
330
5
100
AcDbSymbolTableRecord
100
AcDbLinetypeTableRecord
  2
EXLTYPE2
 70
     0
  3
点線
 72
    65
 73
     2
 40
2.0
 49
1.0
 74
     0
 49
-1.0
 74
     0
  0
LTYPE
  5
42
330
5
100
AcDbSymbolTableRecord
100
AcDbLinetypeTableRecord
  2
EXLTYPE3
 70
     0
  3
一点鎖線
 72
    65
 73
     4
 40
10.0
 49
7.0
 74
     0
 49
-1.0
 74
     0
 49
1.0
 74
     0
 49
-1.0
 74
     0
  0
LTYPE
  5
43
330
5
100
AcDbSymbolTableRecord
100
AcDbLinetypeTableRecord
  2
EXLTYPE4
 70
     0
  3
二点鎖線
 72
    65
 73
     6
 40
12.0
 49
7.0
 74
     0
 49
-1.0
 74
     0
 49
1.0
 74
     0
 49
-1.0
 74
     0
 49
1.0
 74
     0
 49
-1.0
 74
     0
  0
LTYPE
  5
44
330
5
100
AcDbSymbolTableRecord
100
AcDbLinetypeTableRecord
  2
EXLTYPE5
 70
     0
  3
三点鎖線
 72
    65
 73
     8
 40
37.0
 49
30.0
 74
     0
 49
-1.0
 74
     0
 49
1.0
 74
     0
 49
-1.0
 74
     0
 49
1.0
 74
     0
 49
-1.0
 74
     0
 49
1.0
 74
     0
 49
-1.0
 74
     0
  0
LTYPE
  5
45
330
5
100
AcDbSymbolTableRecord
100
AcDbLinetypeTableRecord
  2
EXLTYPE6
 70
     0
  3
四点鎖線
 72
    65
 73
    10
 40
39.0
 49
30.0
 74
     0
 49
-1.0
 74
     0
 49
1.0
 74
     0
 49
-1.0
 74
     0
 49
1.0
 74
     0
 49
-1.0
 74
     0
 49
1.0
 74
     0
 49
-1.0
 74
     0
 49
1.0
 74
     0
 49
-1.0
 74
     0
  0
ENDTAB
  0
TABLE
  2
LAYER
  5
2
330
0
100
AcDbSymbolTable
 70
     9
  0
LAYER
  5
10
330
2
100
AcDbSymbolTableRecord
100
AcDbLayerTableRecord
  2
0
 70
     0
 62
     7
  6
CONTINUOUS
  0
LAYER
  5
48
330
2
100
AcDbSymbolTableRecord
100
AcDbLayerTableRecord
  2
枠_
 70
     0
 62
     7
  6
CONTINUOUS
  0
LAYER
  5
49
330
2
100
AcDbSymbolTableRecord
100
AcDbLayerTableRecord
  2
洗面器
 70
     0
 62
     7
  6
CONTINUOUS
  0
LAYER
  5
4A
330
2
100
AcDbSymbolTableRecord
100
AcDbLayerTableRecord
  2
水栓
 70
     0
 62
     7
  6
CONTINUOUS
  0
LAYER
  5
4B
330
2
100
AcDbSymbolTableRecord
100
AcDbLayerTableRecord
  2
止水栓
 70
     0
 62
     7
  6
CONTINUOUS
  0
LAYER
  5
4C
330
2
100
AcDbSymbolTableRecord
100
AcDbLayerTableRecord
  2
トラップ
 70
     0
 62
     7
  6
CONTINUOUS
  0
LAYER
  5
4D
330
2
100
AcDbSymbolTableRecord
100
AcDbLayerTableRecord
  2
寸法
 70
     0
 62
     7
  6
CONTINUOUS
  0
LAYER
  5
4E
330
2
100
AcDbSymbolTableRecord
100
AcDbLayerTableRecord
  2
器具明細表
 70
     0
 62
     7
  6
CONTINUOUS
  0
LAYER
  5
172
330
2
100
AcDbSymbolTableRecord
100
AcDbLayerTableRecord
  2
DEFPOINTS
 70
     0
 62
     7
  6
CONTINUOUS
  0
ENDTAB
  0
TABLE
  2
STYLE
  5
3
330
0
100
AcDbSymbolTable
 70
     5
  0
STYLE
  5
11
330
3
100
AcDbSymbolTableRecord
100
AcDbTextStyleTableRecord
  2
STANDARD
 70
     0
 40
0.0
 41
1.0
 50
0.0
 71
     0
 42
2.5
  3
monotxt
  4
extfont
  0
STYLE
  5
46
330
3
100
AcDbSymbolTableRecord
100
AcDbTextStyleTableRecord
  2
EXCADSTD
 70
     0
 40
0.0
 41
1.0
 50
0.0
 71
     0
 42
0.2
  3
monotxt
  4
extfont
  0
STYLE
  5
47
330
3
100
AcDbSymbolTableRecord
100
AcDbTextStyleTableRecord
  2
EXCADVERT
 70
     4
 40
0.0
 41
1.0
 50
0.0
 71
     0
 42
0.286885
  3
monotxt
  4
extfont
  0
STYLE
  5
110
330
3
100
AcDbSymbolTableRecord
100
AcDbTextStyleTableRecord
  2
EXCADTTF1
 70
     0
 40
0.0
 41
1.0
 50
0.0
 71
     0
 42
0.2
  3
MSGOTHIC.TTC
  4

1001
ACAD
1000
MS Gothic
1071
    32817
  0
STYLE
  5
170
330
3
100
AcDbSymbolTableRecord
100
AcDbTextStyleTableRecord
  2
EXCADDIM1
 70
     0
 40
0.0
 41
0.84
 50
0.0
 71
     0
 42
0.2
  3
monotxt
  4
extfont
  0
ENDTAB
  0
TABLE
  2
VIEW
  5
6
330
0
100
AcDbSymbolTable
 70
     0
  0
ENDTAB
  0
TABLE
  2
UCS
  5
7
330
0
100
AcDbSymbolTable
 70
     0
  0
ENDTAB
  0
TABLE
  2
APPID
  5
9
330
0
100
AcDbSymbolTable
 70
     1
  0
APPID
  5
12
330
9
100
AcDbSymbolTableRecord
100
AcDbRegAppTableRecord
  2
ACAD
 70
     0
  0
ENDTAB
  0
TABLE
  2
DIMSTYLE
  5
A
330
0
100
AcDbSymbolTable
 70
     1
  0
DIMSTYLE
105
27
102
{ACAD_REACTORS
330
171
330
3D7
330
3E2
330
3EF
330
3FC
330
409
330
416
330
423
330
432
330
43E
330
44D
330
459
330
465
330
472
330
47E
330
48B
330
4A0
330
4C0
102
}
330
A
100
AcDbSymbolTableRecord
100
AcDbDimStyleTableRecord
  2
ISO-25
 70
     0
  3

  4

  5

  6

  7

 40
1.0
 41
2.5
 42
0.625
 43
3.75
 44
1.25
 45
0.0
 46
0.0
 47
0.0
 48
0.0
140
2.5
141
2.5
142
0.0
143
0.03937007874016
144
1.0
145
0.0
146
1.0
147
0.625
 71
     0
 72
     0
 73
     0
 74
     0
 75
     0
 76
     0
 77
     1
 78
     8
170
     0
171
     3
172
     1
173
     0
174
     0
175
     0
176
     0
177
     0
178
     0
270
     2
271
     2
272
     2
273
     2
274
     3
340
11
275
     0
280
     0
281
     0
282
     0
283
     0
284
     8
285
     0
286
     0
287
     5
288
     0
  0
ENDTAB
  0
TABLE
  2
BLOCK_RECORD
  5
1
330
0
100
AcDbSymbolTable
 70
    33
  0
BLOCK_RECORD
  5
1F
330
1
100
AcDbSymbolTableRecord
100
AcDbBlockTableRecord
  2
*MODEL_SPACE
  0
BLOCK_RECORD
  5
1B
330
1
100
AcDbSymbolTableRecord
100
AcDbBlockTableRecord
  2
*PAPER_SPACE
  0
BLOCK_RECORD
  5
4F
330
1
100
AcDbSymbolTableRecord
100
AcDbBlockTableRecord
  2
EX_NORM
  0
BLOCK_RECORD
  5
52
330
1
100
AcDbSymbolTableRecord
100
AcDbBlockTableRecord
  2
EX_BNORM
  0
BLOCK_RECORD
  5
55
330
1
100
AcDbSymbolTableRecord
100
AcDbBlockTableRecord
  2
EX_BCIR
  0
BLOCK_RECORD
  5
58
330
1
100
AcDbSymbolTableRecord
100
AcDbBlockTableRecord
  2
EX_RCIVIL
  0
BLOCK_RECORD
  5
5B
330
1
100
AcDbSymbolTableRecord
100
AcDbBlockTableRecord
  2
EX_SLANT
  0
BLOCK_RECORD
  5
5E
330
1
100
AcDbSymbolTableRecord
100
AcDbBlockTableRecord
  2
EX_NONE
  0
BLOCK_RECORD
  5
61
330
1
100
AcDbSymbolTableRecord
100
AcDbBlockTableRecord
  2
EX_CIVIL
  0
BLOCK_RECORD
  5
64
330
1
100
AcDbSymbolTableRecord
100
AcDbBlockTableRecord
  2
EX_WCIR
  0
BLOCK_RECORD
  5
67
330
1
100
AcDbSymbolTableRecord
100
AcDbBlockTableRecord
  2
EX_WCIR2
  0
BLOCK_RECORD
  5
6A
330
1
100
AcDbSymbolTableRecord
100
AcDbBlockTableRecord
  2
EX_WNORM
  0
BLOCK_RECORD
  5
6D
330
1
100
AcDbSymbolTableRecord
100
AcDbBlockTableRecord
  2
EX_NNORM
  0
BLOCK_RECORD
  5
70
330
1
100
AcDbSymbolTableRecord
100
AcDbBlockTableRecord
  2
EX_BBOX
  0
BLOCK_RECORD
  5
73
330
1
100
AcDbSymbolTableRecord
100
AcDbBlockTableRecord
  2
EX_WBOX
  0
BLOCK_RECORD
  5
76
330
1
100
AcDbSymbolTableRecord
100
AcDbBlockTableRecord
  2
EX_INTEGRAL
  0
BLOCK_RECORD
  5
173
330
1
100
AcDbSymbolTableRecord
100
AcDbBlockTableRecord
  2
*D15
  0
BLOCK_RECORD
  5
3D8
330
1
100
AcDbSymbolTableRecord
100
AcDbBlockTableRecord
  2
*D16
  0
BLOCK_RECORD
  5
3E3
330
1
100
AcDbSymbolTableRecord
100
AcDbBlockTableRecord
  2
*D17
  0
BLOCK_RECORD
  5
3F0
330
1
100
AcDbSymbolTableRecord
100
AcDbBlockTableRecord
  2
*D18
  0
BLOCK_RECORD
  5
3FD
330
1
100
AcDbSymbolTableRecord
100
AcDbBlockTableRecord
  2
*D19
  0
BLOCK_RECORD
  5
40A
330
1
100
AcDbSymbolTableRecord
100
AcDbBlockTableRecord
  2
*D20
  0
BLOCK_RECORD
  5
417
330
1
100
AcDbSymbolTableRecord
100
AcDbBlockTableRecord
  2
*D21
  0
BLOCK_RECORD
  5
424
330
1
100
AcDbSymbolTableRecord
100
AcDbBlockTableRecord
  2
*D22
  0
BLOCK_RECORD
  5
433
330
1
100
AcDbSymbolTableRecord
100
AcDbBlockTableRecord
  2
*D23
  0
BLOCK_RECORD
  5
43F
330
1
100
AcDbSymbolTableRecord
100
AcDbBlockTableRecord
  2
*D24
  0
BLOCK_RECORD
  5
44E
330
1
100
AcDbSymbolTableRecord
100
AcDbBlockTableRecord
  2
*D25
  0
BLOCK_RECORD
  5
45A
330
1
100
AcDbSymbolTableRecord
100
AcDbBlockTableRecord
  2
*D26
  0
BLOCK_RECORD
  5
466
330
1
100
AcDbSymbolTableRecord
100
AcDbBlockTableRecord
  2
*D27
  0
BLOCK_RECORD
  5
473
330
1
100
AcDbSymbolTableRecord
100
AcDbBlockTableRecord
  2
*D28
  0
BLOCK_RECORD
  5
47F
330
1
100
AcDbSymbolTableRecord
100
AcDbBlockTableRecord
  2
*D29
  0
BLOCK_RECORD
  5
48C
330
1
100
AcDbSymbolTableRecord
100
AcDbBlockTableRecord
  2
*D30
  0
BLOCK_RECORD
  5
4A1
330
1
100
AcDbSymbolTableRecord
100
AcDbBlockTableRecord
  2
*D31
  0
BLOCK_RECORD
  5
4C1
330
1
100
AcDbSymbolTableRecord
100
AcDbBlockTableRecord
  2
*D32
  0
ENDTAB
  0
ENDSEC
  0
SECTION
  2
BLOCKS
  0
BLOCK
  5
20
330
1F
100
AcDbEntity
  8
0
100
AcDbBlockBegin
  2
*MODEL_SPACE
 70
     0
 10
0.0
 20
0.0
 30
0.0
  3
*MODEL_SPACE
  1

  0
ENDBLK
  5
21
330
1F
100
AcDbEntity
  8
0
100
AcDbBlockEnd
  0
BLOCK
  5
1C
330
1B
100
AcDbEntity
 67
     1
  8
0
100
AcDbBlockBegin
  2
*PAPER_SPACE
 70
     0
 10
0.0
 20
0.0
 30
0.0
  3
*PAPER_SPACE
  1

  0
ENDBLK
  5
1D
330
1B
100
AcDbEntity
 67
     1
  8
0
100
AcDbBlockEnd
  0
BLOCK
  5
50
330
4F
100
AcDbEntity
  8
0
100
AcDbBlockBegin
  2
EX_NORM
 70
     0
 10
0.0
 20
0.0
 30
0.0
  3
EX_NORM
  1

  0
LINE
  5
79
330
4F
100
AcDbEntity
  8
0
  6
CONTINUOUS
 62
     0
100
AcDbLine
 10
0.0
 20
0.0
 30
0.0
 11
-1.0
 21
0.0
 31
0.0
  0
LINE
  5
7A
330
4F
100
AcDbEntity
  8
0
  6
CONTINUOUS
 62
     0
100
AcDbLine
 10
0.0
 20
0.0
 30
0.0
 11
-1.0
 21
0.166666667
 31
0.0
  0
LINE
  5
7B
330
4F
100
AcDbEntity
  8
0
  6
CONTINUOUS
 62
     0
100
AcDbLine
 10
0.0
 20
0.0
 30
0.0
 11
-1.0
 21
-0.166666667
 31
0.0
  0
ENDBLK
  5
51
330
4F
100
AcDbEntity
  8
0
100
AcDbBlockEnd
  0
BLOCK
  5
53
330
52
100
AcDbEntity
  8
0
100
AcDbBlockBegin
  2
EX_BNORM
 70
     0
 10
0.0
 20
0.0
 30
0.0
  3
EX_BNORM
  1

  0
LINE
  5
7C
330
52
100
AcDbEntity
  8
0
  6
CONTINUOUS
 62
     0
100
AcDbLine
 10
0.0
 20
0.0
 30
0.0
 11
-1.0
 21
0.0
 31
0.0
  0
LINE
  5
7D
330
52
100
AcDbEntity
  8
0
  6
CONTINUOUS
 62
     0
100
AcDbLine
 10
0.0
 20
0.0
 30
0.0
 11
-1.0
 21
0.166666667
 31
0.0
  0
LINE
  5
7E
330
52
100
AcDbEntity
  8
0
  6
CONTINUOUS
 62
     0
100
AcDbLine
 10
0.0
 20
0.0
 30
0.0
 11
-1.0
 21
-0.166666667
 31
0.0
  0
LINE
  5
7F
330
52
100
AcDbEntity
  8
0
  6
CONTINUOUS
 62
     0
100
AcDbLine
 10
0.0
 20
0.0
 30
0.0
 11
-1.0
 21
0.083333333
 31
0.0
  0
LINE
  5
80
330
52
100
AcDbEntity
  8
0
  6
CONTINUOUS
 62
     0
100
AcDbLine
 10
0.0
 20
0.0
 30
0.0
 11
-1.0
 21
-0.083333333
 31
0.0
  0
LINE
  5
81
330
52
100
AcDbEntity
  8
0
  6
CONTINUOUS
 62
     0
100
AcDbLine
 10
-1.0
 20
0.166666667
 30
0.0
 11
-1.0
 21
-0.166666667
 31
0.0
  0
ENDBLK
  5
54
330
52
100
AcDbEntity
  8
0
100
AcDbBlockEnd
  0
BLOCK
  5
56
330
55
100
AcDbEntity
  8
0
100
AcDbBlockBegin
  2
EX_BCIR
 70
     0
 10
0.0
 20
0.0
 30
0.0
  3
EX_BCIR
  1

  0
LINE
  5
82
330
55
100
AcDbEntity
  8
0
  6
CONTINUOUS
 62
     0
100
AcDbLine
 10
0.0
 20
0.0
 30
0.0
 11
-1.0
 21
0.0
 31
0.0
  0
CIRCLE
  5
83
330
55
100
AcDbEntity
  8
0
  6
CONTINUOUS
 62
     0
100
AcDbCircle
 10
0.0
 20
0.0
 30
0.0
 40
0.5
  0
CIRCLE
  5
84
330
55
100
AcDbEntity
  8
0
  6
CONTINUOUS
 62
     0
100
AcDbCircle
 10
0.0
 20
0.0
 30
0.0
 40
0.25
  0
ENDBLK
  5
57
330
55
100
AcDbEntity
  8
0
100
AcDbBlockEnd
  0
BLOCK
  5
59
330
58
100
AcDbEntity
  8
0
100
AcDbBlockBegin
  2
EX_RCIVIL
 70
     0
 10
0.0
 20
0.0
 30
0.0
  3
EX_RCIVIL
  1

  0
LINE
  5
85
330
58
100
AcDbEntity
  8
0
  6
CONTINUOUS
 62
     0
100
AcDbLine
 10
0.0
 20
0.0
 30
0.0
 11
-1.0
 21
0.0
 31
0.0
  0
LINE
  5
86
330
58
100
AcDbEntity
  8
0
  6
CONTINUOUS
 62
     0
100
AcDbLine
 10
-1.0
 20
-0.25
 30
0.0
 11
0.0
 21
-0.25
 31
0.0
  0
LINE
  5
87
330
58
100
AcDbEntity
  8
0
  6
CONTINUOUS
 62
     0
100
AcDbLine
 10
-1.0
 20
-0.125
 30
0.0
 11
0.0
 21
-0.125
 31
0.0
  0
ENDBLK
  5
5A
330
58
100
AcDbEntity
  8
0
100
AcDbBlockEnd
  0
BLOCK
  5
5C
330
5B
100
AcDbEntity
  8
0
100
AcDbBlockBegin
  2
EX_SLANT
 70
     0
 10
0.0
 20
0.0
 30
0.0
  3
EX_SLANT
  1

  0
LINE
  5
88
330
5B
100
AcDbEntity
  8
0
  6
CONTINUOUS
 62
     0
100
AcDbLine
 10
0.0
 20
0.0
 30
0.0
 11
-1.0
 21
0.0
 31
0.0
  0
LINE
  5
89
330
5B
100
AcDbEntity
  8
0
  6
CONTINUOUS
 62
     0
100
AcDbLine
 10
0.707106781
 20
0.707106781
 30
0.0
 11
-0.707106781
 21
-0.707106781
 31
0.0
  0
ENDBLK
  5
5D
330
5B
100
AcDbEntity
  8
0
100
AcDbBlockEnd
  0
BLOCK
  5
5F
330
5E
100
AcDbEntity
  8
0
100
AcDbBlockBegin
  2
EX_NONE
 70
     0
 10
0.0
 20
0.0
 30
0.0
  3
EX_NONE
  1

  0
LINE
  5
8A
330
5E
100
AcDbEntity
  8
0
  6
CONTINUOUS
 62
     0
100
AcDbLine
 10
0.0
 20
0.0
 30
0.0
 11
-1.0
 21
0.0
 31
0.0
  0
ENDBLK
  5
60
330
5E
100
AcDbEntity
  8
0
100
AcDbBlockEnd
  0
BLOCK
  5
62
330
61
100
AcDbEntity
  8
0
100
AcDbBlockBegin
  2
EX_CIVIL
 70
     0
 10
0.0
 20
0.0
 30
0.0
  3
EX_CIVIL
  1

  0
LINE
  5
8B
330
61
100
AcDbEntity
  8
0
  6
CONTINUOUS
 62
     0
100
AcDbLine
 10
0.0
 20
0.0
 30
0.0
 11
-1.0
 21
0.0
 31
0.0
  0
LINE
  5
8C
330
61
100
AcDbEntity
  8
0
  6
CONTINUOUS
 62
     0
100
AcDbLine
 10
-1.0
 20
0.25
 30
0.0
 11
0.0
 21
0.25
 31
0.0
  0
LINE
  5
8D
330
61
100
AcDbEntity
  8
0
  6
CONTINUOUS
 62
     0
100
AcDbLine
 10
-1.0
 20
0.125
 30
0.0
 11
0.0
 21
0.125
 31
0.0
  0
ENDBLK
  5
63
330
61
100
AcDbEntity
  8
0
100
AcDbBlockEnd
  0
BLOCK
  5
65
330
64
100
AcDbEntity
  8
0
100
AcDbBlockBegin
  2
EX_WCIR
 70
     0
 10
0.0
 20
0.0
 30
0.0
  3
EX_WCIR
  1

  0
LINE
  5
8E
330
64
100
AcDbEntity
  8
0
  6
CONTINUOUS
 62
     0
100
AcDbLine
 10
0.0
 20
0.0
 30
0.0
 11
-1.0
 21
0.0
 31
0.0
  0
CIRCLE
  5
8F
330
64
100
AcDbEntity
  8
0
  6
CONTINUOUS
 62
     0
100
AcDbCircle
 10
0.0
 20
0.0
 30
0.0
 40
0.5
  0
ENDBLK
  5
66
330
64
100
AcDbEntity
  8
0
100
AcDbBlockEnd
  0
BLOCK
  5
68
330
67
100
AcDbEntity
  8
0
100
AcDbBlockBegin
  2
EX_WCIR2
 70
     0
 10
0.0
 20
0.0
 30
0.0
  3
EX_WCIR2
  1

  0
LINE
  5
90
330
67
100
AcDbEntity
  8
0
  6
CONTINUOUS
 62
     0
100
AcDbLine
 10
-0.5
 20
0.0
 30
0.0
 11
-1.0
 21
0.0
 31
0.0
  0
CIRCLE
  5
91
330
67
100
AcDbEntity
  8
0
  6
CONTINUOUS
 62
     0
100
AcDbCircle
 10
0.0
 20
0.0
 30
0.0
 40
0.5
  0
ENDBLK
  5
69
330
67
100
AcDbEntity
  8
0
100
AcDbBlockEnd
  0
BLOCK
  5
6B
330
6A
100
AcDbEntity
  8
0
100
AcDbBlockBegin
  2
EX_WNORM
 70
     0
 10
0.0
 20
0.0
 30
0.0
  3
EX_WNORM
  1

  0
LINE
  5
92
330
6A
100
AcDbEntity
  8
0
  6
CONTINUOUS
 62
     0
100
AcDbLine
 10
-1.0
 20
0.0
 30
0.0
 11
-1.0
 21
0.0
 31
0.0
  0
LINE
  5
93
330
6A
100
AcDbEntity
  8
0
  6
CONTINUOUS
 62
     0
100
AcDbLine
 10
0.0
 20
0.0
 30
0.0
 11
-1.0
 21
0.166666667
 31
0.0
  0
LINE
  5
94
330
6A
100
AcDbEntity
  8
0
  6
CONTINUOUS
 62
     0
100
AcDbLine
 10
0.0
 20
0.0
 30
0.0
 11
-1.0
 21
-0.166666667
 31
0.0
  0
LINE
  5
95
330
6A
100
AcDbEntity
  8
0
  6
CONTINUOUS
 62
     0
100
AcDbLine
 10
-1.0
 20
0.166666667
 30
0.0
 11
-1.0
 21
-0.166666667
 31
0.0
  0
ENDBLK
  5
6C
330
6A
100
AcDbEntity
  8
0
100
AcDbBlockEnd
  0
BLOCK
  5
6E
330
6D
100
AcDbEntity
  8
0
100
AcDbBlockBegin
  2
EX_NNORM
 70
     0
 10
0.0
 20
0.0
 30
0.0
  3
EX_NNORM
  1

  0
LINE
  5
96
330
6D
100
AcDbEntity
  8
0
  6
CONTINUOUS
 62
     0
100
AcDbLine
 10
0.0
 20
0.0
 30
0.0
 11
-1.0
 21
0.0
 31
0.0
  0
LINE
  5
97
330
6D
100
AcDbEntity
  8
0
  6
CONTINUOUS
 62
     0
100
AcDbLine
 10
0.0
 20
0.0
 30
0.0
 11
-1.0
 21
0.166666667
 31
0.0
  0
LINE
  5
98
330
6D
100
AcDbEntity
  8
0
  6
CONTINUOUS
 62
     0
100
AcDbLine
 10
0.0
 20
0.0
 30
0.0
 11
-1.0
 21
-0.166666667
 31
0.0
  0
LINE
  5
99
330
6D
100
AcDbEntity
  8
0
  6
CONTINUOUS
 62
     0
100
AcDbLine
 10
-1.0
 20
0.166666667
 30
0.0
 11
-1.0
 21
-0.166666667
 31
0.0
  0
ENDBLK
  5
6F
330
6D
100
AcDbEntity
  8
0
100
AcDbBlockEnd
  0
BLOCK
  5
71
330
70
100
AcDbEntity
  8
0
100
AcDbBlockBegin
  2
EX_BBOX
 70
     0
 10
0.0
 20
0.0
 30
0.0
  3
EX_BBOX
  1

  0
LINE
  5
9A
330
70
100
AcDbEntity
  8
0
  6
CONTINUOUS
 62
     0
100
AcDbLine
 10
0.0
 20
0.0
 30
0.0
 11
-1.0
 21
0.0
 31
0.0
  0
LINE
  5
9B
330
70
100
AcDbEntity
  8
0
  6
CONTINUOUS
 62
     0
100
AcDbLine
 10
-0.5
 20
0.5
 30
0.0
 11
0.5
 21
0.5
 31
0.0
  0
LINE
  5
9C
330
70
100
AcDbEntity
  8
0
  6
CONTINUOUS
 62
     0
100
AcDbLine
 10
0.5
 20
0.5
 30
0.0
 11
0.5
 21
-0.5
 31
0.0
  0
LINE
  5
9D
330
70
100
AcDbEntity
  8
0
  6
CONTINUOUS
 62
     0
100
AcDbLine
 10
0.5
 20
-0.5
 30
0.0
 11
-0.5
 21
-0.5
 31
0.0
  0
LINE
  5
9E
330
70
100
AcDbEntity
  8
0
  6
CONTINUOUS
 62
     0
100
AcDbLine
 10
-0.5
 20
-0.5
 30
0.0
 11
-0.5
 21
0.5
 31
0.0
  0
LINE
  5
9F
330
70
100
AcDbEntity
  8
0
  6
CONTINUOUS
 62
     0
100
AcDbLine
 10
-0.25
 20
0.25
 30
0.0
 11
0.25
 21
0.25
 31
0.0
  0
LINE
  5
A0
330
70
100
AcDbEntity
  8
0
  6
CONTINUOUS
 62
     0
100
AcDbLine
 10
0.25
 20
0.25
 30
0.0
 11
0.25
 21
-0.25
 31
0.0
  0
LINE
  5
A1
330
70
100
AcDbEntity
  8
0
  6
CONTINUOUS
 62
     0
100
AcDbLine
 10
0.25
 20
-0.25
 30
0.0
 11
-0.25
 21
-0.25
 31
0.0
  0
LINE
  5
A2
330
70
100
AcDbEntity
  8
0
  6
CONTINUOUS
 62
     0
100
AcDbLine
 10
-0.25
 20
-0.25
 30
0.0
 11
-0.25
 21
0.25
 31
0.0
  0
ENDBLK
  5
72
330
70
100
AcDbEntity
  8
0
100
AcDbBlockEnd
  0
BLOCK
  5
74
330
73
100
AcDbEntity
  8
0
100
AcDbBlockBegin
  2
EX_WBOX
 70
     0
 10
0.0
 20
0.0
 30
0.0
  3
EX_WBOX
  1

  0
LINE
  5
A3
330
73
100
AcDbEntity
  8
0
  6
CONTINUOUS
 62
     0
100
AcDbLine
 10
-0.5
 20
0.0
 30
0.0
 11
-1.0
 21
0.0
 31
0.0
  0
LINE
  5
A4
330
73
100
AcDbEntity
  8
0
  6
CONTINUOUS
 62
     0
100
AcDbLine
 10
-0.5
 20
0.5
 30
0.0
 11
0.5
 21
0.5
 31
0.0
  0
LINE
  5
A5
330
73
100
AcDbEntity
  8
0
  6
CONTINUOUS
 62
     0
100
AcDbLine
 10
0.5
 20
0.5
 30
0.0
 11
0.5
 21
-0.5
 31
0.0
  0
LINE
  5
A6
330
73
100
AcDbEntity
  8
0
  6
CONTINUOUS
 62
     0
100
AcDbLine
 10
0.5
 20
-0.5
 30
0.0
 11
-0.5
 21
-0.5
 31
0.0
  0
LINE
  5
A7
330
73
100
AcDbEntity
  8
0
  6
CONTINUOUS
 62
     0
100
AcDbLine
 10
-0.5
 20
-0.5
 30
0.0
 11
-0.5
 21
0.5
 31
0.0
  0
ENDBLK
  5
75
330
73
100
AcDbEntity
  8
0
100
AcDbBlockEnd
  0
BLOCK
  5
77
330
76
100
AcDbEntity
  8
0
100
AcDbBlockBegin
  2
EX_INTEGRAL
 70
     0
 10
0.0
 20
0.0
 30
0.0
  3
EX_INTEGRAL
  1

  0
LINE
  5
A8
330
76
100
AcDbEntity
  8
0
  6
CONTINUOUS
 62
     0
100
AcDbLine
 10
0.0
 20
0.0
 30
0.0
 11
-1.0
 21
0.0
 31
0.0
  0
ARC
  5
A9
330
76
100
AcDbEntity
  8
0
  6
CONTINUOUS
 62
     0
100
AcDbCircle
 10
0.542115
 20
0.164992
 30
0.0
 40
0.56667
100
AcDbArc
 50
73.07249033629006
 51
196.9275130221199
  0
ARC
  5
AA
330
76
100
AcDbEntity
  8
0
  6
CONTINUOUS
 62
     0
100
AcDbCircle
 10
-0.542115
 20
-0.164992
 30
0.0
 40
0.56667
100
AcDbArc
 50
253.0724869220464
 51
16.9275130559125
  0
ENDBLK
  5
78
330
76
100
AcDbEntity
  8
0
100
AcDbBlockEnd
  0
BLOCK
  5
174
330
173
100
AcDbEntity
  8
0
100
AcDbBlockBegin
  2
*D15
 70
     1
 10
0.0
 20
0.0
 30
0.0
  3
*D15
  1

  0
LINE
  5
176
330
173
100
AcDbEntity
  8
枠_
  6
CONTINUOUS
 62
     3
100
AcDbLine
 10
1245.6136169
 20
863.9
 30
0.0
 11
1350.6136169
 21
863.9
 31
0.0
  0
INSERT
  5
177
330
173
100
AcDbEntity
  8
枠_
 62
     3
100
AcDbBlockReference
  2
EX_NORM
 10
1215.6136169
 20
863.9
 30
0.0
 41
30.0
 42
30.0
 43
30.0
 50
180.0
  0
INSERT
  5
178
330
173
100
AcDbEntity
  8
枠_
 62
     3
100
AcDbBlockReference
  2
EX_NORM
 10
1380.6136169
 20
863.9
 30
0.0
 41
30.0
 42
30.0
 43
30.0
  0
MTEXT
  5
179
330
173
100
AcDbEntity
  8
枠_
 62
     2
100
AcDbMText
 10
1298.1136169
 20
887.3999999403953
 30
0.0
 40
40.0
 41
0.0
 71
     5
 72
     1
  1
165
  7
EXCADDIM1
  0
POINT
  5
17A
330
173
100
AcDbEntity
  8
DEFPOINTS
 62
     0
100
AcDbPoint
 10
1215.6136169
 20
907.2966309
 30
0.0
  0
POINT
  5
17B
330
173
100
AcDbEntity
  8
DEFPOINTS
 62
     0
100
AcDbPoint
 10
1380.6136169
 20
912.0
 30
0.0
  0
POINT
  5
17C
330
173
100
AcDbEntity
  8
DEFPOINTS
 62
     0
100
AcDbPoint
 10
1380.6136169
 20
863.9
 30
0.0
  0
ENDBLK
  5
175
330
173
100
AcDbEntity
  8
0
100
AcDbBlockEnd
  0
BLOCK
  5
3D9
330
3D8
100
AcDbEntity
  8
0
100
AcDbBlockBegin
  2
*D16
 70
     1
 10
0.0
 20
0.0
 30
0.0
  3
*D16
  1

  0
LINE
  5
3DB
330
3D8
100
AcDbEntity
  8
寸法
  6
CONTINUOUS
 62
     3
100
AcDbLine
 10
1472.114329016
 20
2109.796478300001
 30
0.0
 11
1472.114329016
 21
2053.795444359301
 31
0.0
  0
INSERT
  5
3DC
330
3D8
100
AcDbEntity
  8
寸法
 62
     3
100
AcDbBlockReference
  2
EX_NORM
 10
1472.114329016
 20
2139.796478300001
 30
0.0
 41
30.0
 42
30.0
 43
30.0
 50
90.0
  0
INSERT
  5
3DD
330
3D8
100
AcDbEntity
  8
寸法
 62
     3
100
AcDbBlockReference
  2
EX_NORM
 10
1472.114329016
 20
2023.795444359301
 30
0.0
 41
30.0
 42
30.0
 43
30.0
 50
270.0
  0
MTEXT
  5
3DE
330
3D8
100
AcDbEntity
  8
寸法
 62
     2
100
AcDbMText
 10
1448.614329075605
 20
2081.79596132965
 30
0.0
 40
40.0
 41
0.0
 71
     5
 72
     1
  1
116
  7
EXCADDIM1
 11
0.0
 21
1.0
 31
0.0
  0
POINT
  5
3DF
330
3D8
100
AcDbEntity
  8
DEFPOINTS
 62
     0
100
AcDbPoint
 10
1376.6135276278
 20
2139.796478300001
 30
0.0
  0
POINT
  5
3E0
330
3D8
100
AcDbEntity
  8
DEFPOINTS
 62
     0
100
AcDbPoint
 10
1412.114329016
 20
2023.795444359301
 30
0.0
  0
POINT
  5
3E1
330
3D8
100
AcDbEntity
  8
DEFPOINTS
 62
     0
100
AcDbPoint
 10
1472.114329016
 20
2023.795444359301
 30
0.0
  0
ENDBLK
  5
3DA
330
3D8
100
AcDbEntity
  8
0
100
AcDbBlockEnd
  0
BLOCK
  5
3E4
330
3E3
100
AcDbEntity
  8
0
100
AcDbBlockBegin
  2
*D17
 70
     1
 10
0.0
 20
0.0
 30
0.0
  3
*D17
  1

  0
LINE
  5
3E6
330
3E3
100
AcDbEntity
  8
寸法
  6
CONTINUOUS
 62
     3
100
AcDbLine
 10
1419.114328896791
 20
2023.795444359301
 30
0.0
 11
1482.114329016
 21
2023.795444359301
 31
0.0
  0
LINE
  5
3E7
330
3E3
100
AcDbEntity
  8
寸法
  6
CONTINUOUS
 62
     3
100
AcDbLine
 10
1419.114328896791
 20
1898.795444359301
 30
0.0
 11
1482.114329016
 21
1898.795444359301
 31
0.0
  0
LINE
  5
3E8
330
3E3
100
AcDbEntity
  8
寸法
  6
CONTINUOUS
 62
     3
100
AcDbLine
 10
1472.114329016
 20
1993.795444359301
 30
0.0
 11
1472.114329016
 21
1928.795444359301
 31
0.0
  0
INSERT
  5
3E9
330
3E3
100
AcDbEntity
  8
寸法
 62
     3
100
AcDbBlockReference
  2
EX_NORM
 10
1472.114329016
 20
2023.795444359301
 30
0.0
 41
30.0
 42
30.0
 43
30.0
 50
90.0
  0
INSERT
  5
3EA
330
3E3
100
AcDbEntity
  8
寸法
 62
     3
100
AcDbBlockReference
  2
EX_NORM
 10
1472.114329016
 20
1898.795444359301
 30
0.0
 41
30.0
 42
30.0
 43
30.0
 50
270.0
  0
MTEXT
  5
3EB
330
3E3
100
AcDbEntity
  8
寸法
 62
     2
100
AcDbMText
 10
1448.614329075605
 20
1961.295444359301
 30
0.0
 40
40.0
 41
0.0
 71
     5
 72
     1
  1
125
  7
EXCADDIM1
 11
0.0
 21
1.0
 31
0.0
  0
POINT
  5
3EC
330
3E3
100
AcDbEntity
  8
DEFPOINTS
 62
     0
100
AcDbPoint
 10
1412.114329016
 20
2023.795444359301
 30
0.0
  0
POINT
  5
3ED
330
3E3
100
AcDbEntity
  8
DEFPOINTS
 62
     0
100
AcDbPoint
 10
1412.114329016
 20
1898.795444359301
 30
0.0
  0
POINT
  5
3EE
330
3E3
100
AcDbEntity
  8
DEFPOINTS
 62
     0
100
AcDbPoint
 10
1472.114329016
 20
1898.795444359301
 30
0.0
  0
ENDBLK
  5
3E5
330
3E3
100
AcDbEntity
  8
0
100
AcDbBlockEnd
  0
BLOCK
  5
3F1
330
3F0
100
AcDbEntity
  8
0
100
AcDbBlockBegin
  2
*D18
 70
     1
 10
0.0
 20
0.0
 30
0.0
  3
*D18
  1

  0
LINE
  5
3F3
330
3F0
100
AcDbEntity
  8
寸法
  6
CONTINUOUS
 62
     3
100
AcDbLine
 10
1390.613527389391
 20
2139.796478300001
 30
0.0
 11
1542.114329016
 21
2139.796478300001
 31
0.0
  0
LINE
  5
3F4
330
3F0
100
AcDbEntity
  8
寸法
  6
CONTINUOUS
 62
     3
100
AcDbLine
 10
1282.318969580791
 20
1764.7967357
 30
0.0
 11
1542.114329016
 21
1764.7967357
 31
0.0
  0
LINE
  5
3F5
330
3F0
100
AcDbEntity
  8
寸法
  6
CONTINUOUS
 62
     3
100
AcDbLine
 10
1532.114329016
 20
2109.796478300001
 30
0.0
 11
1532.114329016
 21
1794.7967357
 31
0.0
  0
INSERT
  5
3F6
330
3F0
100
AcDbEntity
  8
寸法
 62
     3
100
AcDbBlockReference
  2
EX_NORM
 10
1532.114329016
 20
2139.796478300001
 30
0.0
 41
30.0
 42
30.0
 43
30.0
 50
90.0
  0
INSERT
  5
3F7
330
3F0
100
AcDbEntity
  8
寸法
 62
     3
100
AcDbBlockReference
  2
EX_NORM
 10
1532.114329016
 20
1764.7967357
 30
0.0
 41
30.0
 42
30.0
 43
30.0
 50
270.0
  0
MTEXT
  5
3F8
330
3F0
100
AcDbEntity
  8
寸法
 62
     2
100
AcDbMText
 10
1508.614329075605
 20
1952.296607000001
 30
0.0
 40
40.0
 41
0.0
 71
     5
 72
     1
  1
375
  7
EXCADDIM1
 11
0.0
 21
1.0
 31
0.0
  0
POINT
  5
3F9
330
3F0
100
AcDbEntity
  8
DEFPOINTS
 62
     0
100
AcDbPoint
 10
1383.6135275086
 20
2139.796478300001
 30
0.0
  0
POINT
  5
3FA
330
3F0
100
AcDbEntity
  8
DEFPOINTS
 62
     0
100
AcDbPoint
 10
1275.3189697
 20
1764.7967357
 30
0.0
  0
POINT
  5
3FB
330
3F0
100
AcDbEntity
  8
DEFPOINTS
 62
     0
100
AcDbPoint
 10
1532.114329016
 20
1764.7967357
 30
0.0
  0
ENDBLK
  5
3F2
330
3F0
100
AcDbEntity
  8
0
100
AcDbBlockEnd
  0
BLOCK
  5
3FE
330
3FD
100
AcDbEntity
  8
0
100
AcDbBlockBegin
  2
*D19
 70
     1
 10
0.0
 20
0.0
 30
0.0
  3
*D19
  1

  0
LINE
  5
400
330
3FD
100
AcDbEntity
  8
寸法
  6
CONTINUOUS
 62
     3
100
AcDbLine
 10
1123.934213849812
 20
1873.216817481788
 30
0.0
 11
1193.850889959366
 21
1803.300141372235
 31
0.0
  0
LINE
  5
401
330
3FD
100
AcDbEntity
  8
寸法
  6
CONTINUOUS
 62
     3
100
AcDbLine
 10
1279.358698184012
 20
2028.641301815988
 30
0.0
 11
1349.275374293565
 21
1958.724625706435
 31
0.0
  0
LINE
  5
402
330
3FD
100
AcDbEntity
  8
寸法
  6
CONTINUOUS
 62
     3
100
AcDbLine
 10
1207.993025583097
 20
1831.584412619697
 30
0.0
 11
1320.991103046103
 21
1944.582490082704
 31
0.0
  0
INSERT
  5
403
330
3FD
100
AcDbEntity
  8
寸法
 62
     3
100
AcDbBlockReference
  2
EX_NORM
 10
1186.7798221475
 20
1810.371209184101
 30
0.0
 41
30.0
 42
30.0
 43
30.0
 50
225.0
  0
INSERT
  5
404
330
3FD
100
AcDbEntity
  8
寸法
 62
     3
100
AcDbBlockReference
  2
EX_NORM
 10
1342.2043064817
 20
1965.7956935183
 30
0.0
 41
30.0
 42
30.0
 43
30.0
 50
45.00000000000004
  0
MTEXT
  5
405
330
3FD
100
AcDbEntity
  8
寸法
 62
     2
100
AcDbMText
 10
1247.875054998863
 20
1904.700460666937
 30
0.0
 40
40.0
 41
0.0
 71
     5
 72
     1
  1
220
  7
EXCADDIM1
 11
0.707106781186547
 21
0.707106781186548
 31
0.0
  0
POINT
  5
406
330
3FD
100
AcDbEntity
  8
DEFPOINTS
 62
     0
100
AcDbPoint
 10
1118.9844664658
 20
1878.1665648658
 30
0.0
  0
POINT
  5
407
330
3FD
100
AcDbEntity
  8
DEFPOINTS
 62
     0
100
AcDbPoint
 10
1274.4089508
 20
2033.5910492
 30
0.0
  0
POINT
  5
408
330
3FD
100
AcDbEntity
  8
DEFPOINTS
 62
     0
100
AcDbPoint
 10
1342.2043064817
 20
1965.7956935183
 30
0.0
  0
ENDBLK
  5
3FF
330
3FD
100
AcDbEntity
  8
0
100
AcDbBlockEnd
  0
BLOCK
  5
40B
330
40A
100
AcDbEntity
  8
0
100
AcDbBlockBegin
  2
*D20
 70
     1
 10
0.0
 20
0.0
 30
0.0
  3
*D20
  1

  0
LINE
  5
40D
330
40A
100
AcDbEntity
  8
寸法
  6
CONTINUOUS
 62
     3
100
AcDbLine
 10
1065.863514650488
 20
2068.998434681488
 30
0.0
 11
915.3614721726345
 21
1918.496392203634
 31
0.0
  0
LINE
  5
40E
330
40A
100
AcDbEntity
  8
寸法
  6
CONTINUOUS
 62
     3
100
AcDbLine
 10
1309.815122299088
 20
1825.046827032888
 30
0.0
 11
1159.313079821234
 21
1674.544784555035
 31
0.0
  0
LINE
  5
40F
330
40A
100
AcDbEntity
  8
寸法
  6
CONTINUOUS
 62
     3
100
AcDbLine
 10
943.6457434200966
 20
1904.354256579903
 30
0.0
 11
1145.170944197504
 21
1702.829055802497
 31
0.0
  0
INSERT
  5
410
330
40A
100
AcDbEntity
  8
寸法
 62
     3
100
AcDbBlockReference
  2
EX_NORM
 10
922.4325399845001
 20
1925.5674600155
 30
0.0
 41
30.0
 42
30.0
 43
30.0
 50
135.0000000000001
  0
INSERT
  5
411
330
40A
100
AcDbEntity
  8
寸法
 62
     3
100
AcDbBlockReference
  2
EX_NORM
 10
1166.3841476331
 20
1681.615852366901
 30
0.0
 41
30.0
 42
30.0
 43
30.0
 50
315.0000000000001
  0
MTEXT
  5
412
330
40A
100
AcDbEntity
  8
寸法
 62
     2
100
AcDbMText
 10
1061.025353124537
 20
1820.208665506937
 30
0.0
 40
40.0
 41
0.0
 71
     5
 72
     1
  1
345
  7
EXCADDIM1
 11
0.7071067811865483
 21
-0.7071067811865467
 31
0.0
  0
POINT
  5
413
330
40A
100
AcDbEntity
  8
DEFPOINTS
 62
     0
100
AcDbPoint
 10
1070.8132620345
 20
2073.9481820655
 30
0.0
  0
POINT
  5
414
330
40A
100
AcDbEntity
  8
DEFPOINTS
 62
     0
100
AcDbPoint
 10
1314.7648696831
 20
1829.996574416901
 30
0.0
  0
POINT
  5
415
330
40A
100
AcDbEntity
  8
DEFPOINTS
 62
     0
100
AcDbPoint
 10
1166.3841476331
 20
1681.615852366901
 30
0.0
  0
ENDBLK
  5
40C
330
40A
100
AcDbEntity
  8
0
100
AcDbBlockEnd
  0
BLOCK
  5
418
330
417
100
AcDbEntity
  8
0
100
AcDbBlockBegin
  2
*D21
 70
     1
 10
0.0
 20
0.0
 30
0.0
  3
*D21
  1

  0
LINE
  5
41A
330
417
100
AcDbEntity
  8
寸法
  6
CONTINUOUS
 62
     3
100
AcDbLine
 10
1032.275960729886
 20
2102.585988753089
 30
0.0
 11
835.7739181696545
 21
1906.083946288226
 31
0.0
  0
LINE
  5
41B
330
417
100
AcDbEntity
  8
寸法
  6
CONTINUOUS
 62
     3
100
AcDbLine
 10
1343.402958883087
 20
1791.458990448889
 30
0.0
 11
1146.900916322855
 21
1594.956947984026
 31
0.0
  0
LINE
  5
41C
330
417
100
AcDbEntity
  8
寸法
  6
CONTINUOUS
 62
     3
100
AcDbLine
 10
864.0581894136848
 20
1891.941810657632
 30
0.0
 11
1132.758780705987
 21
1623.24121923492
 31
0.0
  0
INSERT
  5
41D
330
417
100
AcDbEntity
  8
寸法
 62
     3
100
AcDbBlockReference
  2
EX_NORM
 10
842.844985983236
 20
1913.155014098376
 30
0.0
 41
30.0
 42
30.0
 43
30.0
 50
134.9999999860963
  0
INSERT
  5
41E
330
417
100
AcDbEntity
  8
寸法
 62
     3
100
AcDbBlockReference
  2
EX_NORM
 10
1153.971984136436
 20
1602.028015794176
 30
0.0
 41
30.0
 42
30.0
 43
30.0
 50
314.9999999860962
  0
MTEXT
  5
41F
330
417
100
AcDbEntity
  8
寸法
 62
     2
100
AcDbMText
 10
1015.025494379606
 20
1774.20852425798
 30
0.0
 40
40.0
 41
0.0
 71
     5
 72
     1
  1
440
  7
EXCADDIM1
 11
0.7071067810149566
 21
-0.7071067813581384
 31
0.0
  0
POINT
  5
420
330
417
100
AcDbEntity
  8
DEFPOINTS
 62
     0
100
AcDbPoint
 10
1037.2257081151
 20
2107.5357361359
 30
0.0
  0
POINT
  5
421
330
417
100
AcDbEntity
  8
DEFPOINTS
 62
     0
100
AcDbPoint
 10
1348.3527062683
 20
1796.4087378317
 30
0.0
  0
POINT
  5
422
330
417
100
AcDbEntity
  8
DEFPOINTS
 62
     0
100
AcDbPoint
 10
1153.971984136436
 20
1602.028015794176
 30
0.0
  0
ENDBLK
  5
419
330
417
100
AcDbEntity
  8
0
100
AcDbBlockEnd
  0
BLOCK
  5
425
330
424
100
AcDbEntity
  8
0
100
AcDbBlockBegin
  2
*D22
 70
     1
 10
0.0
 20
0.0
 30
0.0
  3
*D22
  1

  0
LINE
  5
427
330
424
100
AcDbEntity
  8
寸法
  6
CONTINUOUS
 62
     3
100
AcDbLine
 10
1387.61361678079
 20
1312.6184082
 30
0.0
 11
1478.614329075609
 21
1312.6184082
 31
0.0
  0
LINE
  5
428
330
424
100
AcDbEntity
  8
寸法
  6
CONTINUOUS
 62
     3
100
AcDbLine
 10
1419.113483339591
 20
1282.618424466
 30
0.0
 11
1478.614329075609
 21
1282.618424466
 31
0.0
  0
LINE
  5
429
330
424
100
AcDbEntity
  8
寸法
  6
CONTINUOUS
 62
     3
100
AcDbLine
 10
1468.614329075609
 20
1312.6184082
 30
0.0
 11
1468.614329075609
 21
1282.618424466
 31
0.0
  0
LINE
  5
42A
330
424
100
AcDbEntity
  8
寸法
  6
CONTINUOUS
 62
     3
100
AcDbLine
 10
1468.614329075609
 20
1342.6184082
 30
0.0
 11
1468.614329075609
 21
1372.6184082
 31
0.0
  0
LINE
  5
42B
330
424
100
AcDbEntity
  8
寸法
  6
CONTINUOUS
 62
     3
100
AcDbLine
 10
1468.614329075609
 20
1252.618424466
 30
0.0
 11
1468.614329075609
 21
1222.618424466
 31
0.0
  0
INSERT
  5
42C
330
424
100
AcDbEntity
  8
寸法
 62
     3
100
AcDbBlockReference
  2
EX_NORM
 10
1468.614329075609
 20
1312.6184082
 30
0.0
 41
30.0
 42
30.0
 43
30.0
 50
270.0
  0
INSERT
  5
42D
330
424
100
AcDbEntity
  8
寸法
 62
     3
100
AcDbBlockReference
  2
EX_NORM
 10
1468.614329075609
 20
1282.618424466
 30
0.0
 41
30.0
 42
30.0
 43
30.0
 50
90.0
  0
MTEXT
  5
42E
330
424
100
AcDbEntity
  8
寸法
 62
     2
100
AcDbMText
 10
1445.114329135217
 20
1377.6184082
 30
0.0
 40
40.0
 41
0.0
 71
     5
 72
     1
  1
30
  7
EXCADDIM1
 11
0.0
 21
1.0
 31
0.0
  0
POINT
  5
42F
330
424
100
AcDbEntity
  8
DEFPOINTS
 62
     0
100
AcDbPoint
 10
1380.6136169
 20
1312.6184082
 30
0.0
  0
POINT
  5
430
330
424
100
AcDbEntity
  8
DEFPOINTS
 62
     0
100
AcDbPoint
 10
1412.1134834588
 20
1282.618424466
 30
0.0
  0
POINT
  5
431
330
424
100
AcDbEntity
  8
DEFPOINTS
 62
     0
100
AcDbPoint
 10
1468.614329075609
 20
1282.618424466
 30
0.0
  0
ENDBLK
  5
426
330
424
100
AcDbEntity
  8
0
100
AcDbBlockEnd
  0
BLOCK
  5
434
330
433
100
AcDbEntity
  8
0
100
AcDbBlockBegin
  2
*D23
 70
     1
 10
0.0
 20
0.0
 30
0.0
  3
*D23
  1

  0
LINE
  5
436
330
433
100
AcDbEntity
  8
寸法
  6
CONTINUOUS
 62
     3
100
AcDbLine
 10
881.1003722999999
 20
1262.7964783
 30
0.0
 11
842.8449859832398
 21
1262.7964783
 31
0.0
  0
LINE
  5
437
330
433
100
AcDbEntity
  8
寸法
  6
CONTINUOUS
 62
     3
100
AcDbLine
 10
842.8449859832398
 20
1232.7964783
 30
0.0
 11
842.8449859832398
 21
532.7966309000001
 31
0.0
  0
INSERT
  5
438
330
433
100
AcDbEntity
  8
寸法
 62
     3
100
AcDbBlockReference
  2
EX_NORM
 10
842.8449859832398
 20
1262.7964783
 30
0.0
 41
30.0
 42
30.0
 43
30.0
 50
90.0
  0
INSERT
  5
439
330
433
100
AcDbEntity
  8
寸法
 62
     3
100
AcDbBlockReference
  2
EX_NORM
 10
842.8449859832398
 20
502.7966309
 30
0.0
 41
30.0
 42
30.0
 43
30.0
 50
270.0
  0
MTEXT
  5
43A
330
433
100
AcDbEntity
  8
寸法
 62
     2
100
AcDbMText
 10
819.3449860428448
 20
882.7965545999999
 30
0.0
 40
40.0
 41
0.0
 71
     5
 72
     1
  1
760
  7
EXCADDIM1
 11
0.0
 21
1.0
 31
0.0
  0
POINT
  5
43B
330
433
100
AcDbEntity
  8
DEFPOINTS
 62
     0
100
AcDbPoint
 10
881.1003722999999
 20
1262.7964783
 30
0.0
  0
POINT
  5
43C
330
433
100
AcDbEntity
  8
DEFPOINTS
 62
     0
100
AcDbPoint
 10
848.0000000000001
 20
502.7966309
 30
0.0
  0
POINT
  5
43D
330
433
100
AcDbEntity
  8
DEFPOINTS
 62
     0
100
AcDbPoint
 10
842.8449859832398
 20
502.7966309
 30
0.0
  0
ENDBLK
  5
435
330
433
100
AcDbEntity
  8
0
100
AcDbBlockEnd
  0
BLOCK
  5
440
330
43F
100
AcDbEntity
  8
0
100
AcDbBlockBegin
  2
*D24
 70
     1
 10
0.0
 20
0.0
 30
0.0
  3
*D24
  1

  0
LINE
  5
442
330
43F
100
AcDbEntity
  8
寸法
  6
CONTINUOUS
 62
     3
100
AcDbLine
 10
1232.48812881921
 20
1312.6184082
 30
0.0
 11
772.8449859832381
 21
1312.6184082
 31
0.0
  0
LINE
  5
443
330
43F
100
AcDbEntity
  8
寸法
  6
CONTINUOUS
 62
     3
100
AcDbLine
 10
997.6507875192098
 20
1262.7964783
 30
0.0
 11
772.8449859832381
 21
1262.7964783
 31
0.0
  0
LINE
  5
444
330
43F
100
AcDbEntity
  8
寸法
  6
CONTINUOUS
 62
     3
100
AcDbLine
 10
842.844985983241
 20
1312.6184082
 30
0.0
 11
842.844985983241
 21
1262.7964783
 31
0.0
  0
LINE
  5
445
330
43F
100
AcDbEntity
  8
寸法
  6
CONTINUOUS
 62
     3
100
AcDbLine
 10
842.844985983241
 20
1342.6184082
 30
0.0
 11
842.844985983241
 21
1372.6184082
 31
0.0
  0
LINE
  5
446
330
43F
100
AcDbEntity
  8
寸法
  6
CONTINUOUS
 62
     3
100
AcDbLine
 10
842.844985983241
 20
1232.7964783
 30
0.0
 11
842.844985983241
 21
1202.7964783
 31
0.0
  0
INSERT
  5
447
330
43F
100
AcDbEntity
  8
寸法
 62
     3
100
AcDbBlockReference
  2
EX_NORM
 10
842.844985983241
 20
1312.6184082
 30
0.0
 41
30.0
 42
30.0
 43
30.0
 50
270.0
  0
INSERT
  5
448
330
43F
100
AcDbEntity
  8
寸法
 62
     3
100
AcDbBlockReference
  2
EX_NORM
 10
842.844985983241
 20
1262.7964783
 30
0.0
 41
30.0
 42
30.0
 43
30.0
 50
90.0
  0
MTEXT
  5
449
330
43F
100
AcDbEntity
  8
寸法
 62
     2
100
AcDbMText
 10
819.3449860428464
 20
1374.92585145
 30
0.0
 40
40.0
 41
0.0
 71
     5
 72
     1
  1
50
  7
EXCADDIM1
 11
8.720971932033589E-15
 21
1.0
 31
0.0
  0
POINT
  5
44A
330
43F
100
AcDbEntity
  8
DEFPOINTS
 62
     0
100
AcDbPoint
 10
1239.4881287
 20
1312.6184082
 30
0.0
  0
POINT
  5
44B
330
43F
100
AcDbEntity
  8
DEFPOINTS
 62
     0
100
AcDbPoint
 10
1004.6507874
 20
1262.7964783
 30
0.0
  0
POINT
  5
44C
330
43F
100
AcDbEntity
  8
DEFPOINTS
 62
     0
100
AcDbPoint
 10
842.844985983241
 20
1262.7964783
 30
0.0
  0
ENDBLK
  5
441
330
43F
100
AcDbEntity
  8
0
100
AcDbBlockEnd
  0
BLOCK
  5
44F
330
44E
100
AcDbEntity
  8
0
100
AcDbBlockBegin
  2
*D25
 70
     1
 10
0.0
 20
0.0
 30
0.0
  3
*D25
  1

  0
LINE
  5
451
330
44E
100
AcDbEntity
  8
寸法
  6
CONTINUOUS
 62
     3
100
AcDbLine
 10
1300.6136169
 20
992.0000005379211
 30
0.0
 11
1300.6136169
 21
913.9
 31
0.0
  0
LINE
  5
452
330
44E
100
AcDbEntity
  8
寸法
  6
CONTINUOUS
 62
     3
100
AcDbLine
 10
1330.6136169
 20
923.9
 30
0.0
 11
1350.6136169
 21
923.9
 31
0.0
  0
INSERT
  5
453
330
44E
100
AcDbEntity
  8
寸法
 62
     3
100
AcDbBlockReference
  2
EX_NORM
 10
1300.6136169
 20
923.9
 30
0.0
 41
30.0
 42
30.0
 43
30.0
 50
180.0
  0
INSERT
  5
454
330
44E
100
AcDbEntity
  8
寸法
 62
     3
100
AcDbBlockReference
  2
EX_NORM
 10
1380.6136169
 20
923.9
 30
0.0
 41
30.0
 42
30.0
 43
30.0
  0
MTEXT
  5
455
330
44E
100
AcDbEntity
  8
寸法
 62
     2
100
AcDbMText
 10
1340.6136169
 20
947.3999999403953
 30
0.0
 40
40.0
 41
0.0
 71
     5
 72
     1
  1
80
  7
EXCADDIM1
  0
POINT
  5
456
330
44E
100
AcDbEntity
  8
DEFPOINTS
 62
     0
100
AcDbPoint
 10
1300.6136169
 20
1025.2965737
 30
0.0
  0
POINT
  5
457
330
44E
100
AcDbEntity
  8
DEFPOINTS
 62
     0
100
AcDbPoint
 10
1380.6136169
 20
989.0
 30
0.0
  0
POINT
  5
458
330
44E
100
AcDbEntity
  8
DEFPOINTS
 62
     0
100
AcDbPoint
 10
1380.6136169
 20
923.9
 30
0.0
  0
ENDBLK
  5
450
330
44E
100
AcDbEntity
  8
0
100
AcDbBlockEnd
  0
BLOCK
  5
45B
330
45A
100
AcDbEntity
  8
0
100
AcDbBlockBegin
  2
*D26
 70
     1
 10
0.0
 20
0.0
 30
0.0
  3
*D26
  1

  0
LINE
  5
45D
330
45A
100
AcDbEntity
  8
寸法
  6
CONTINUOUS
 62
     3
100
AcDbLine
 10
1307.6135864
 20
1343.499999976158
 30
0.0
 11
1307.6135864
 21
1411.4238252899
 31
0.0
  0
LINE
  5
45E
330
45A
100
AcDbEntity
  8
寸法
  6
CONTINUOUS
 62
     3
100
AcDbLine
 10
1337.6135864
 20
1401.4238252899
 30
0.0
 11
1350.6136169
 21
1401.4238252899
 31
0.0
  0
INSERT
  5
45F
330
45A
100
AcDbEntity
  8
寸法
 62
     3
100
AcDbBlockReference
  2
EX_NORM
 10
1307.6135864
 20
1401.4238252899
 30
0.0
 41
30.0
 42
30.0
 43
30.0
 50
180.0
  0
INSERT
  5
460
330
45A
100
AcDbEntity
  8
寸法
 62
     3
100
AcDbBlockReference
  2
EX_NORM
 10
1380.6136169
 20
1401.4238252899
 30
0.0
 41
30.0
 42
30.0
 43
30.0
  0
MTEXT
  5
461
330
45A
100
AcDbEntity
  8
寸法
 62
     2
100
AcDbMText
 10
1344.11360165
 20
1424.923825230295
 30
0.0
 40
40.0
 41
0.0
 71
     5
 72
     1
  1
73
  7
EXCADDIM1
  0
POINT
  5
462
330
45A
100
AcDbEntity
  8
DEFPOINTS
 62
     0
100
AcDbPoint
 10
1307.6135864
 20
1341.6
 30
0.0
  0
POINT
  5
463
330
45A
100
AcDbEntity
  8
DEFPOINTS
 62
     0
100
AcDbPoint
 10
1380.6136169
 20
1342.0
 30
0.0
  0
POINT
  5
464
330
45A
100
AcDbEntity
  8
DEFPOINTS
 62
     0
100
AcDbPoint
 10
1380.6136169
 20
1401.4238252899
 30
0.0
  0
ENDBLK
  5
45C
330
45A
100
AcDbEntity
  8
0
100
AcDbBlockEnd
  0
BLOCK
  5
467
330
466
100
AcDbEntity
  8
0
100
AcDbBlockBegin
  2
*D27
 70
     1
 10
0.0
 20
0.0
 30
0.0
  3
*D27
  1

  0
LINE
  5
469
330
466
100
AcDbEntity
  8
寸法
  6
CONTINUOUS
 62
     3
100
AcDbLine
 10
1342.113568961591
 20
1027.7966309
 30
0.0
 11
1478.614329075599
 21
1027.7966309
 31
0.0
  0
LINE
  5
46A
330
466
100
AcDbEntity
  8
寸法
  6
CONTINUOUS
 62
     3
100
AcDbLine
 10
1427.99999988079
 20
502.7966309
 30
0.0
 11
1478.614329075599
 21
502.7966309
 31
0.0
  0
LINE
  5
46B
330
466
100
AcDbEntity
  8
寸法
  6
CONTINUOUS
 62
     3
100
AcDbLine
 10
1468.614329075599
 20
997.7966308999999
 30
0.0
 11
1468.614329075599
 21
532.7966309000001
 31
0.0
  0
INSERT
  5
46C
330
466
100
AcDbEntity
  8
寸法
 62
     3
100
AcDbBlockReference
  2
EX_NORM
 10
1468.614329075599
 20
1027.7966309
 30
0.0
 41
30.0
 42
30.0
 43
30.0
 50
90.0
  0
INSERT
  5
46D
330
466
100
AcDbEntity
  8
寸法
 62
     3
100
AcDbBlockReference
  2
EX_NORM
 10
1468.614329075599
 20
502.7966309
 30
0.0
 41
30.0
 42
30.0
 43
30.0
 50
270.0
  0
MTEXT
  5
46E
330
466
100
AcDbEntity
  8
寸法
 62
     2
100
AcDbMText
 10
1445.114329135204
 20
765.2966308999995
 30
0.0
 40
40.0
 41
0.0
 71
     5
 72
     1
  1
525
  7
EXCADDIM1
 11
0.0
 21
1.0
 31
0.0
  0
POINT
  5
46F
330
466
100
AcDbEntity
  8
DEFPOINTS
 62
     0
100
AcDbPoint
 10
1335.1135690808
 20
1027.7966309
 30
0.0
  0
POINT
  5
470
330
466
100
AcDbEntity
  8
DEFPOINTS
 62
     0
100
AcDbPoint
 10
1421.0
 20
502.7966309
 30
0.0
  0
POINT
  5
471
330
466
100
AcDbEntity
  8
DEFPOINTS
 62
     0
100
AcDbPoint
 10
1468.614329075599
 20
502.7966309
 30
0.0
  0
ENDBLK
  5
468
330
466
100
AcDbEntity
  8
0
100
AcDbBlockEnd
  0
BLOCK
  5
474
330
473
100
AcDbEntity
  8
0
100
AcDbBlockBegin
  2
*D28
 70
     1
 10
0.0
 20
0.0
 30
0.0
  3
*D28
  1

  0
LINE
  5
476
330
473
100
AcDbEntity
  8
寸法
  6
CONTINUOUS
 62
     3
100
AcDbLine
 10
1149.600000119209
 20
1002.7966309
 30
0.0
 11
892.8449859832399
 21
1002.7966309
 31
0.0
  0
LINE
  5
477
330
473
100
AcDbEntity
  8
寸法
  6
CONTINUOUS
 62
     3
100
AcDbLine
 10
902.84498598324
 20
972.7966309000001
 30
0.0
 11
902.84498598324
 21
532.7966309000001
 31
0.0
  0
INSERT
  5
478
330
473
100
AcDbEntity
  8
寸法
 62
     3
100
AcDbBlockReference
  2
EX_NORM
 10
902.84498598324
 20
1002.7966309
 30
0.0
 41
30.0
 42
30.0
 43
30.0
 50
90.0
  0
INSERT
  5
479
330
473
100
AcDbEntity
  8
寸法
 62
     3
100
AcDbBlockReference
  2
EX_NORM
 10
902.84498598324
 20
502.7966309
 30
0.0
 41
30.0
 42
30.0
 43
30.0
 50
270.0
  0
MTEXT
  5
47A
330
473
100
AcDbEntity
  8
寸法
 62
     2
100
AcDbMText
 10
879.3449860428447
 20
752.7966309
 30
0.0
 40
40.0
 41
0.0
 71
     5
 72
     1
  1
500
  7
EXCADDIM1
 11
0.0
 21
1.0
 31
0.0
  0
POINT
  5
47B
330
473
100
AcDbEntity
  8
DEFPOINTS
 62
     0
100
AcDbPoint
 10
1156.6
 20
1002.7966309
 30
0.0
  0
POINT
  5
47C
330
473
100
AcDbEntity
  8
DEFPOINTS
 62
     0
100
AcDbPoint
 10
1127.0
 20
502.7966309
 30
0.0
  0
POINT
  5
47D
330
473
100
AcDbEntity
  8
DEFPOINTS
 62
     0
100
AcDbPoint
 10
902.84498598324
 20
502.7966309
 30
0.0
  0
ENDBLK
  5
475
330
473
100
AcDbEntity
  8
0
100
AcDbBlockEnd
  0
BLOCK
  5
480
330
47F
100
AcDbEntity
  8
0
100
AcDbBlockBegin
  2
*D29
 70
     1
 10
0.0
 20
0.0
 30
0.0
  3
*D29
  1

  0
LINE
  5
482
330
47F
100
AcDbEntity
  8
寸法
  6
CONTINUOUS
 62
     3
100
AcDbLine
 10
1215.6136169
 20
475.0000001192093
 30
0.0
 11
1215.6136169
 21
363.9999999999999
 31
0.0
  0
LINE
  5
483
330
47F
100
AcDbEntity
  8
寸法
  6
CONTINUOUS
 62
     3
100
AcDbLine
 10
1380.6136169
 20
495.7966310192093
 30
0.0
 11
1380.6136169
 21
363.9999999999999
 31
0.0
  0
LINE
  5
484
330
47F
100
AcDbEntity
  8
寸法
  6
CONTINUOUS
 62
     3
100
AcDbLine
 10
1245.6136169
 20
373.9999999999999
 30
0.0
 11
1350.6136169
 21
373.9999999999999
 31
0.0
  0
INSERT
  5
485
330
47F
100
AcDbEntity
  8
寸法
 62
     3
100
AcDbBlockReference
  2
EX_NORM
 10
1215.6136169
 20
373.9999999999999
 30
0.0
 41
30.0
 42
30.0
 43
30.0
 50
180.0
  0
INSERT
  5
486
330
47F
100
AcDbEntity
  8
寸法
 62
     3
100
AcDbBlockReference
  2
EX_NORM
 10
1380.6136169
 20
373.9999999999999
 30
0.0
 41
30.0
 42
30.0
 43
30.0
  0
MTEXT
  5
487
330
47F
100
AcDbEntity
  8
寸法
 62
     2
100
AcDbMText
 10
1519.999999999999
 20
397.4999999403953
 30
0.0
 40
40.0
 41
0.0
 71
     5
 72
     1
  1
165（床排水）
  7
EXCADDIM1
  0
POINT
  5
488
330
47F
100
AcDbEntity
  8
DEFPOINTS
 62
     0
100
AcDbPoint
 10
1215.6136169
 20
482.0
 30
0.0
  0
POINT
  5
489
330
47F
100
AcDbEntity
  8
DEFPOINTS
 62
     0
100
AcDbPoint
 10
1380.6136169
 20
502.7966309
 30
0.0
  0
POINT
  5
48A
330
47F
100
AcDbEntity
  8
DEFPOINTS
 62
     0
100
AcDbPoint
 10
1380.6136169
 20
373.9999999999999
 30
0.0
  0
ENDBLK
  5
481
330
47F
100
AcDbEntity
  8
0
100
AcDbBlockEnd
  0
BLOCK
  5
48D
330
48C
100
AcDbEntity
  8
0
100
AcDbBlockBegin
  2
*D30
 70
     1
 10
0.0
 20
0.0
 30
0.0
  3
*D30
  1

  0
LINE
  5
48F
330
48C
100
AcDbEntity
  8
寸法
  6
CONTINUOUS
 62
     3
100
AcDbLine
 10
944.6507873999999
 20
1120.6185913
 30
0.0
 11
782.8449859832398
 21
1120.6185913
 31
0.0
  0
LINE
  5
490
330
48C
100
AcDbEntity
  8
寸法
  6
CONTINUOUS
 62
     3
100
AcDbLine
 10
782.8449859832398
 20
1282.6184082
 30
0.0
 11
782.8449859832398
 21
1150.6185913
 31
0.0
  0
INSERT
  5
491
330
48C
100
AcDbEntity
  8
寸法
 62
     3
100
AcDbBlockReference
  2
EX_NORM
 10
782.8449859832398
 20
1312.6184082
 30
0.0
 41
30.0
 42
30.0
 43
30.0
 50
90.0
  0
INSERT
  5
492
330
48C
100
AcDbEntity
  8
寸法
 62
     3
100
AcDbBlockReference
  2
EX_NORM
 10
782.8449859832398
 20
1120.6185913
 30
0.0
 41
30.0
 42
30.0
 43
30.0
 50
270.0
  0
MTEXT
  5
493
330
48C
100
AcDbEntity
  8
寸法
 62
     2
100
AcDbMText
 10
759.3449860428445
 20
1216.61849975
 30
0.0
 40
40.0
 41
0.0
 71
     5
 72
     1
  1
192
  7
EXCADDIM1
 11
0.0
 21
1.0
 31
0.0
  0
POINT
  5
494
330
48C
100
AcDbEntity
  8
DEFPOINTS
 62
     0
100
AcDbPoint
 10
944.6507873999999
 20
1312.6184082
 30
0.0
  0
POINT
  5
495
330
48C
100
AcDbEntity
  8
DEFPOINTS
 62
     0
100
AcDbPoint
 10
944.6507873999999
 20
1120.6185913
 30
0.0
  0
POINT
  5
496
330
48C
100
AcDbEntity
  8
DEFPOINTS
 62
     0
100
AcDbPoint
 10
782.8449859832398
 20
1120.6185913
 30
0.0
  0
ENDBLK
  5
48E
330
48C
100
AcDbEntity
  8
0
100
AcDbBlockEnd
  0
BLOCK
  5
4A2
330
4A1
100
AcDbEntity
  8
0
100
AcDbBlockBegin
  2
*D31
 70
     1
 10
0.0
 20
0.0
 30
0.0
  3
*D31
  1

  0
LINE
  5
4A4
330
4A1
100
AcDbEntity
  8
寸法
  6
CONTINUOUS
 62
     3
100
AcDbLine
 10
1307.6135864
 20
487.7966310192093
 30
0.0
 11
1307.6135864
 21
427.0
 31
0.0
  0
LINE
  5
4A5
330
4A1
100
AcDbEntity
  8
寸法
  6
CONTINUOUS
 62
     3
100
AcDbLine
 10
1337.6135864
 20
437.0
 30
0.0
 11
1350.6136169
 21
437.0
 31
0.0
  0
INSERT
  5
4A6
330
4A1
100
AcDbEntity
  8
寸法
 62
     3
100
AcDbBlockReference
  2
EX_NORM
 10
1307.6135864
 20
437.0
 30
0.0
 41
30.0
 42
30.0
 43
30.0
 50
180.0
  0
INSERT
  5
4A7
330
4A1
100
AcDbEntity
  8
寸法
 62
     3
100
AcDbBlockReference
  2
EX_NORM
 10
1380.6136169
 20
437.0
 30
0.0
 41
30.0
 42
30.0
 43
30.0
  0
MTEXT
  5
4A8
330
4A1
100
AcDbEntity
  8
寸法
 62
     2
100
AcDbMText
 10
1531.6136169
 20
460.4999999403954
 30
0.0
 40
40.0
 41
0.0
 71
     5
 72
     1
  1
73（床給水）
  7
EXCADDIM1
  0
POINT
  5
4A9
330
4A1
100
AcDbEntity
  8
DEFPOINTS
 62
     0
100
AcDbPoint
 10
1307.6135864
 20
494.7966309
 30
0.0
  0
POINT
  5
4AA
330
4A1
100
AcDbEntity
  8
DEFPOINTS
 62
     0
100
AcDbPoint
 10
1380.6136169
 20
502.7966309
 30
0.0
  0
POINT
  5
4AB
330
4A1
100
AcDbEntity
  8
DEFPOINTS
 62
     0
100
AcDbPoint
 10
1380.6136169
 20
437.0
 30
0.0
  0
ENDBLK
  5
4A3
330
4A1
100
AcDbEntity
  8
0
100
AcDbBlockEnd
  0
BLOCK
  5
4C2
330
4C1
100
AcDbEntity
  8
0
100
AcDbBlockBegin
  2
*D32
 70
     1
 10
0.0
 20
0.0
 30
0.0
  3
*D32
  1

  0
LINE
  5
4C4
330
4C1
100
AcDbEntity
  8
寸法
  6
CONTINUOUS
 62
     3
100
AcDbLine
 10
1181.6
 20
2066.7965679697
 30
0.0
 11
892.8449859832405
 21
2066.7965679697
 31
0.0
  0
LINE
  5
4C5
330
4C1
100
AcDbEntity
  8
寸法
  6
CONTINUOUS
 62
     3
100
AcDbLine
 10
902.8449859832399
 20
2109.7965679697
 30
0.0
 11
902.8449859832399
 21
2096.7965679697
 31
0.0
  0
INSERT
  5
4C6
330
4C1
100
AcDbEntity
  8
寸法
 62
     3
100
AcDbBlockReference
  2
EX_NORM
 10
902.8449859832399
 20
2139.7965679697
 30
0.0
 41
30.0
 42
30.0
 43
30.0
 50
90.0
  0
INSERT
  5
4C7
330
4C1
100
AcDbEntity
  8
寸法
 62
     3
100
AcDbBlockReference
  2
EX_NORM
 10
902.8449859832399
 20
2066.7965679697
 30
0.0
 41
30.0
 42
30.0
 43
30.0
 50
270.0
  0
MTEXT
  5
4C8
330
4C1
100
AcDbEntity
  8
寸法
 62
     2
100
AcDbMText
 10
879.344986042847
 20
2294.796567969699
 30
0.0
 40
40.0
 41
0.0
 71
     5
 72
     1
  1
73（床給排水）
  7
EXCADDIM1
 11
0.0
 21
1.0
 31
0.0
  0
POINT
  5
4C9
330
4C1
100
AcDbEntity
  8
DEFPOINTS
 62
     0
100
AcDbPoint
 10
1215.6135950655
 20
2139.7965679697
 30
0.0
  0
POINT
  5
4CA
330
4C1
100
AcDbEntity
  8
DEFPOINTS
 62
     0
100
AcDbPoint
 10
1215.6135544077
 20
2066.7965679697
 30
0.0
  0
POINT
  5
4CB
330
4C1
100
AcDbEntity
  8
DEFPOINTS
 62
     0
100
AcDbPoint
 10
902.8449859832399
 20
2066.7965679697
 30
0.0
  0
ENDBLK
  5
4C3
330
4C1
100
AcDbEntity
  8
0
100
AcDbBlockEnd
  0
ENDSEC
  0
SECTION
  2
ENTITIES
  0
HATCH
  5
AB
330
1F
100
AcDbEntity
  8
0
  6
CONTINUOUS
 62
     3
100
AcDbHatch
 10
0.0
 20
0.0
 30
0.0
210
0.0
220
0.0
230
1.0
  2
SOLID
 70
     1
 71
     1
 91
        2
 92
        3
 72
     1
 73
     1
 93
       27
 10
798.1727657332503
 20
175.3644932975409
 42
-0.1769427732109284
 10
798.1727657332505
 20
175.364493297541
 42
0.0
 10
798.1727657332505
 20
171.7194932975408
 42
0.0
 10
799.050265733251
 20
171.7194932975404
 42
-0.207533601427307
 10
804.7474227895702
 20
175.9932359129048
 42
-0.1226604740888933
 10
809.7827657332509
 20
176.1002432975407
 42
-0.3213715781137954
 10
814.9883280222092
 20
169.7106514378475
 42
-0.064704004662446
 10
815.0140157332494
 20
166.3329932975406
 42
-0.257798906330806
 10
813.9542657332505
 20
165.0504932975406
 42
-0.056602577721096
 10
811.6862657332503
 20
164.2607432975409
 42
-0.0166741689362636
 10
803.3702657332506
 20
162.6812432975407
 42
0.1186092302783404
 10
797.8825157332507
 20
160.0487432975407
 42
0.1699204224386695
 10
795.4930157332502
 20
156.0527432975406
 42
0.1006533494296199
 10
795.2720866795817
 20
152.5853555095727
 42
0.1675695228968024
 10
797.4370157332506
 20
147.9392432975407
 42
0.1376980079804242
 10
801.3722657332502
 20
145.6644932975409
 42
0.0719813663796923
 10
803.1610157332494
 20
145.3674932975408
 42
0.0
 10
805.9015157332504
 20
145.3674932975409
 42
0.1944607457809085
 10
814.9937657332506
 20
150.0452432975407
 42
0.1288538183665954
 10
815.9117657332496
 20
147.7502432975404
 42
0.2098387395261546
 10
818.9087657332499
 20
146.0964932975409
 42
0.0
 10
821.0822657332504
 20
146.0829932975409
 42
0.0945009641609563
 10
824.2210157332505
 20
146.7512432975408
 42
0.0
 10
824.2210157332503
 20
148.3239932975407
 42
-0.2395739894657535
 10
821.4805157332511
 20
148.2969932975405
 42
-0.2502312110031057
 10
820.1305157332497
 20
150.8349932975414
 42
-0.0104343570771765
 10
820.3127657332501
 20
169.7619932975406
 42
0.4051015674140716
 97
        0
 92
        3
 72
     1
 73
     1
 93
        8
 10
815.1355157332499
 20
163.0254932975405
 42
-0.0339435190873666
 10
815.1355157332546
 20
163.0254932975295
 42
-0.0001110072973599
 10
814.8520157332512
 20
152.6844932975405
 42
-0.2253076310552528
 10
807.76451573325
 20
147.952743297541
 42
0.0
 10
806.0297657332494
 20
147.952743297541
 42
-0.3657967558150132
 10
800.8727657332503
 20
153.4337432975408
 42
0.0
 10
800.8727657332511
 20
155.3912432975409
 42
-0.2530797830369341
 10
804.3557657332503
 20
160.2107432975406
 42
-0.0724473624720066
 97
        0
 75
     0
 76
     1
 98
        1
 10
0.0
 20
0.0
  0
HATCH
  5
AC
330
1F
100
AcDbEntity
  8
0
  6
CONTINUOUS
 62
     3
100
AcDbHatch
 10
0.0
 20
0.0
 30
0.0
210
0.0
220
0.0
230
1.0
  2
SOLID
 70
     1
 71
     1
 91
        1
 92
        3
 72
     1
 73
     1
 93
       30
 10
905.73401573325
 20
177.3354932975412
 42
-0.0009362235736497
 10
905.7340157332502
 20
177.3354932975407
 42
0.0681165430304653
 10
904.0970934867318
 20
172.4282432975408
 42
0.0
 10
897.9310157332509
 20
176.6469932975409
 42
-0.302112590907374
 10
897.9310157332503
 20
176.6469932975408
 42
0.0
 10
891.7142657332504
 20
171.8814932975407
 42
-0.3704245237568778
 10
891.7142657332494
 20
171.8814932975405
 42
0.0
 10
892.0382657332497
 20
168.6954932975407
 42
-0.0262822419456939
 10
895.8722657332507
 20
165.6309932975405
 42
-0.180060563604375
 10
901.9877657332507
 20
163.7679932975409
 42
-0.0298130817160724
 10
901.9877657332504
 20
163.7679932975406
 42
-0.3153987453686078
 10
907.6240157332501
 20
157.3217432975408
 42
0.0
 10
907.5902657332506
 20
154.4394932975405
 42
-0.3510306079065168
 10
896.7227657332495
 20
145.3269932975408
 42
0.0
 10
893.55026573325
 20
145.3269932975405
 42
-0.1053356344842436
 10
886.53026573325
 20
147.3519932975408
 42
0.1188608286962634
 10
887.8127657332499
 20
152.481993297541
 42
0.0
 10
895.5077657332507
 20
147.7569932975408
 42
-0.2447573632916039
 10
895.5077657332498
 20
147.7569932975407
 42
0.0
 10
902.9327657332508
 20
152.9544932975409
 42
-0.3734162676407277
 10
902.9327657332504
 20
152.9544932975406
 42
0.0
 10
900.2395157332503
 20
158.1452432975409
 42
-0.261219770190848
 10
893.95526573325
 20
160.4267432975409
 42
-0.0572747914118363
 10
893.955265733251
 20
160.4267432975408
 42
-0.1189658875692221
 10
888.9602657332498
 20
163.3562432975408
 42
-0.2005226878639636
 10
886.8677657332495
 20
168.0744932975627
 42
0.0
 10
886.8340157332507
 20
169.8632432975404
 42
-0.2622894489606957
 10
892.2002657332505
 20
178.0644932975409
 42
-0.0988461274137808
 10
897.2222657332503
 20
179.2727432975405
 42
0.0
 10
899.0852657332497
 20
179.2727432975408
 42
-0.0920156312561188
 97
        0
 75
     0
 76
     1
 98
        1
 10
0.0
 20
0.0
  0
ARC
  5
AD
330
1F
100
AcDbEntity
  8
0
  6
CONTINUOUS
 62
     3
100
AcDbCircle
 10
922.842481068871
 20
168.9019437507496
 30
0.0
 40
19.07418003737831
100
AcDbArc
 50
153.7591918158497
 51
169.3462759801917
  0
LINE
  5
AE
330
1F
100
AcDbEntity
  8
0
  6
CONTINUOUS
 62
     3
100
AcDbLine
 10
903.2432657332498
 20
172.4282432975408
 30
0.0
 11
904.0970934867318
 21
172.4282432975408
 31
0.0
  0
LINE
  5
AF
330
1F
100
AcDbEntity
  8
0
  6
CONTINUOUS
 62
     3
100
AcDbLine
 10
896.8375157332497
 20
176.6199932975407
 30
0.0
 11
897.9310157332503
 21
176.6469932975408
 31
0.0
  0
LINE
  5
B0
330
1F
100
AcDbEntity
  8
0
  6
CONTINUOUS
 62
     3
100
AcDbLine
 10
886.8340157332506
 20
169.8632432975406
 30
0.0
 11
886.8677657332495
 21
168.0744932975627
 31
0.0
  0
LINE
  5
B1
330
1F
100
AcDbEntity
  8
0
  6
CONTINUOUS
 62
     3
100
AcDbLine
 10
891.7142657332494
 20
171.8814932975405
 30
0.0
 11
891.6197657332503
 21
170.1129932975404
 31
0.0
  0
LINE
  5
B2
330
1F
100
AcDbEntity
  8
0
  6
CONTINUOUS
 62
     3
100
AcDbLine
 10
907.6240157332501
 20
157.3217432975408
 30
0.0
 11
907.59026573325
 21
154.4394932975407
 31
0.0
  0
LINE
  5
B3
330
1F
100
AcDbEntity
  8
0
  6
CONTINUOUS
 62
     3
100
AcDbLine
 10
902.8652657332503
 20
154.5069932975408
 30
0.0
 11
902.9327657332504
 21
152.9544932975406
 31
0.0
  0
ARC
  5
B4
330
1F
100
AcDbEntity
  8
0
  6
CONTINUOUS
 62
     3
100
AcDbCircle
 10
876.5344131320938
 20
152.5779759565003
 30
0.0
 40
11.27953740078838
100
AcDbArc
 50
332.3987521421788
 51
359.5124385477116
  0
LINE
  5
B5
330
1F
100
AcDbEntity
  8
0
  6
CONTINUOUS
 62
     3
100
AcDbLine
 10
798.1727657332505
 20
171.7194932975408
 30
0.0
 11
799.0502657332507
 21
171.7194932975408
 31
0.0
  0
HATCH
  5
B6
330
1F
100
AcDbEntity
  8
0
  6
CONTINUOUS
 62
     3
100
AcDbHatch
 10
0.0
 20
0.0
 30
0.0
210
0.0
220
0.0
230
1.0
  2
SOLID
 70
     1
 71
     1
 91
        2
 92
        1
 93
        1
 72
     2
 10
874.2855140383352
 20
190.583546687371
 40
3.572334466769884
 50
0.0
 51
360.0
 73
     1
 97
        0
 92
        3
 72
     1
 73
     1
 93
        3
 10
871.0930157332502
 20
178.6989932975406
 42
0.1200283885712921
 10
877.3030157332503
 20
146.0627432975403
 42
-0.0401820615762149
 10
871.0997657332503
 20
146.0424932975407
 42
-0.0237521668114666
 97
        0
 75
     0
 76
     1
 98
        1
 10
0.0
 20
0.0
  0
HATCH
  5
B7
330
1F
100
AcDbEntity
  8
0
  6
CONTINUOUS
 62
     3
100
AcDbHatch
 10
0.0
 20
0.0
 30
0.0
210
0.0
220
0.0
230
1.0
  2
SOLID
 70
     1
 71
     1
 91
        1
 92
        3
 72
     1
 73
     1
 93
       16
 10
831.86876573325
 20
146.1032432975406
 42
-0.0386228372648426
 10
831.8080157332499
 20
178.6449932975406
 42
-0.0398707891902887
 10
837.7142657332496
 20
178.6719932975408
 42
-0.1256886216044368
 10
837.4442657332502
 20
173.1504932975407
 42
-0.0367815758121429
 10
837.4442657332502
 20
173.1504932975405
 42
-0.268021535028829
 10
849.3580157332499
 20
179.3334932975407
 42
-0.2571134422124888
 10
857.50526573325
 20
175.303743297541
 42
-0.1522526366014298
 10
859.5775157332506
 20
168.6009932975406
 42
-0.0158825412051521
 10
859.4290157332497
 20
146.0694932975406
 42
-0.0285251271418421
 10
853.7252657332505
 20
146.0694932975406
 42
-0.0452212723224612
 10
854.0155157332506
 20
166.8864932975409
 42
-0.0315567291532142
 10
852.2470157332498
 20
173.0357432975408
 42
-0.1476272403790709
 10
840.7315157332499
 20
173.9199932975405
 42
-0.3908144705745794
 10
837.4847657332504
 20
165.8402432975404
 42
-0.2046259928850854
 10
837.4847657332504
 20
165.8402432975409
 42
0.0
 10
837.9910157332503
 20
146.0492432975408
 42
-0.0304995761723369
 97
        0
 75
     0
 76
     1
 98
        1
 10
0.0
 20
0.0
  0
HATCH
  5
B8
330
1F
100
AcDbEntity
  8
0
  6
CONTINUOUS
 62
     3
100
AcDbHatch
 10
0.0
 20
0.0
 30
0.0
210
0.0
220
0.0
230
1.0
  2
SOLID
 70
     1
 71
     1
 91
        1
 92
        3
 72
     1
 73
     1
 93
       10
 10
772.7252657332507
 20
147.2169932975405
 42
-0.017362223501556
 10
772.8130157332499
 20
200.184243297541
 42
-0.0267627618865285
 10
772.8130157332505
 20
200.1842432975407
 42
0.0737939047395297
 10
785.7325157332507
 20
200.23824329754
 42
0.0183878899657109
 10
785.2127657332504
 20
152.4819932975405
 42
-0.1144749489451909
 10
783.1202657332495
 20
142.4244932975405
 42
-0.1929163439413163
 10
773.1640157332506
 20
134.6079932975405
 42
-0.0603888289562337
 10
767.8855157332504
 20
133.2917432975406
 42
0.0
 10
766.6502657332502
 20
137.0514932975406
 42
0.0860918333465722
 10
770.3425157332501
 20
139.0157432975406
 42
0.1331843103855141
 97
        0
 75
     0
 76
     1
 98
        1
 10
0.0
 20
0.0
  0
LINE
  5
B9
330
1F
100
AcDbEntity
  8
0
  6
CONTINUOUS
 62
     3
100
AcDbLine
 10
893.5502657332501
 20
145.3269932975408
 30
0.0
 11
896.7227657332495
 21
145.3269932975408
 31
0.0
  0
LINE
  5
BA
330
1F
100
AcDbEntity
  8
0
  6
CONTINUOUS
 62
     3
100
AcDbLine
 10
888.6902657332502
 20
152.481993297541
 30
0.0
 11
887.8127657332499
 21
152.481993297541
 31
0.0
  0
LINE
  5
BB
330
1F
100
AcDbEntity
  8
0
  6
CONTINUOUS
 62
     3
100
AcDbLine
 10
895.5077657332498
 20
147.7569932975407
 30
0.0
 11
897.1277657332502
 21
147.7569932975407
 31
0.0
  0
LINE
  5
BC
330
1F
100
AcDbEntity
  8
0
  6
CONTINUOUS
 62
     3
100
AcDbLine
 10
899.0852657332499
 20
179.2727432975405
 30
0.0
 11
897.2222657332503
 21
179.2727432975405
 31
0.0
  0
ARC
  5
BD
330
1F
100
AcDbEntity
  8
0
  6
CONTINUOUS
 62
     3
100
AcDbCircle
 10
897.4147339127506
 20
170.5429236291669
 30
0.0
 40
6.12586430102253
100
AcDbArc
 50
17.92452211681263
 51
85.16543319077402
  0
ARC
  5
BE
330
1F
100
AcDbEntity
  8
0
  6
CONTINUOUS
 62
     3
100
AcDbCircle
 10
897.0350964860535
 20
171.2674994707921
 30
0.0
 40
5.35613931103931
100
AcDbArc
 50
92.11404364449162
 51
173.4175047026091
  0
ARC
  5
BF
330
1F
100
AcDbEntity
  8
0
  6
CONTINUOUS
 62
     3
100
AcDbCircle
 10
905.3031407332622
 20
173.3823182975444
 30
0.0
 40
14.068519372934
100
AcDbArc
 50
193.4375782160214
 51
199.459638038058
  0
ARC
  5
C0
330
1F
100
AcDbEntity
  8
0
  6
CONTINUOUS
 62
     3
100
AcDbCircle
 10
898.0721352387451
 20
172.3138641766612
 30
0.0
 40
7.03563707337184
100
AcDbArc
 50
210.9501336849607
 51
251.7794729821079
  0
ARC
  5
C1
330
1F
100
AcDbEntity
  8
0
  6
CONTINUOUS
 62
     3
100
AcDbCircle
 10
914.5384669692061
 20
215.9359310503512
 30
0.0
 40
53.65644258516679
100
AcDbArc
 50
249.6420733479936
 51
256.4727051201885
  0
ARC
  5
C2
330
1F
100
AcDbEntity
  8
0
  6
CONTINUOUS
 62
     3
100
AcDbCircle
 10
900.2045721291955
 20
156.5217258531575
 30
0.0
 40
7.462450757296059
100
AcDbArc
 50
6.154262763177246
 51
76.17509904255616
  0
ARC
  5
C3
330
1F
100
AcDbEntity
  8
0
  6
CONTINUOUS
 62
     3
100
AcDbCircle
 10
896.466388646756
 20
156.6692467118045
 30
0.0
 40
11.34515058180645
100
AcDbArc
 50
271.2948770866743
 51
348.6654156292868
  0
ARC
  5
C4
330
1F
100
AcDbEntity
  8
0
  6
CONTINUOUS
 62
     3
100
AcDbCircle
 10
894.7930054592774
 20
162.8156576811025
 30
0.0
 40
17.5327631578002
100
AcDbArc
 50
241.8829576087176
 51
265.9354096935781
  0
ARC
  5
C5
330
1F
100
AcDbEntity
  8
0
  6
CONTINUOUS
 62
     3
100
AcDbCircle
 10
896.6361043234866
 20
156.6658639777384
 30
0.0
 40
8.98004035462527
100
AcDbArc
 50
207.7689879465537
 51
262.7817283832026
  0
ARC
  5
C6
330
1F
100
AcDbEntity
  8
0
  6
CONTINUOUS
 62
     3
100
AcDbCircle
 10
897.0357777446515
 20
153.7002363757167
 30
0.0
 40
5.943954918766759
100
AcDbArc
 50
270.8867385422408
 51
352.7925382056677
  0
ARC
  5
C7
330
1F
100
AcDbEntity
  8
0
  6
CONTINUOUS
 62
     3
100
AcDbCircle
 10
898.3080045853666
 20
153.9846225433168
 30
0.0
 40
4.58710152219014
100
AcDbArc
 50
6.53892419415897
 51
65.09756080693691
  0
ARC
  5
C8
330
1F
100
AcDbEntity
  8
0
  6
CONTINUOUS
 62
     3
100
AcDbCircle
 10
887.171489183043
 20
131.9457141755211
 30
0.0
 40
29.27778413972754
100
AcDbArc
 50
63.49050203733571
 51
76.60259219849584
  0
ARC
  5
C9
330
1F
100
AcDbEntity
  8
0
  6
CONTINUOUS
 62
     3
100
AcDbCircle
 10
897.5268145799504
 20
172.2396411006686
 30
0.0
 40
12.34100950779567
100
AcDbArc
 50
226.0402388947521
 51
253.1776672992999
  0
ARC
  5
CA
330
1F
100
AcDbEntity
  8
0
  6
CONTINUOUS
 62
     3
100
AcDbCircle
 10
893.5599257925998
 20
168.2192769075529
 30
0.0
 40
6.693726059056109
100
AcDbArc
 50
181.2393899443581
 51
226.5942921332421
  0
ARC
  5
CB
330
1F
100
AcDbEntity
  8
0
  6
CONTINUOUS
 62
     3
100
AcDbCircle
 10
896.7963496799615
 20
169.2009291101865
 30
0.0
 40
9.9843256030919
100
AcDbArc
 50
117.4083995939977
 51
176.1964688215695
  0
ARC
  5
CC
330
1F
100
AcDbEntity
  8
0
  6
CONTINUOUS
 62
     3
100
AcDbCircle
 10
897.7711044283905
 20
166.0979097937612
 30
0.0
 40
13.19974865367525
100
AcDbArc
 50
92.38301574576484
 51
114.9635286746436
  0
ARC
  5
CD
330
1F
100
AcDbEntity
  8
0
  6
CONTINUOUS
 62
     3
100
AcDbCircle
 10
898.8542828460567
 20
169.1663038363955
 30
0.0
 40
10.10907867592157
100
AcDbArc
 50
67.66151957087348
 51
88.69073168448988
  0
ARC
  5
CE
330
1F
100
AcDbEntity
  8
0
  6
CONTINUOUS
 62
     3
100
AcDbCircle
 10
1219.644453232815
 20
989.0297432964203
 30
0.0
 40
870.2800228963156
100
AcDbArc
 50
248.6422112053103
 51
248.8567777804232
  0
ARC
  5
CF
330
1F
100
AcDbEntity
  8
0
  6
CONTINUOUS
 62
     3
100
AcDbCircle
 10
649.6900575363867
 20
162.3249792766236
 30
0.0
 40
222.0076085035812
100
AcDbArc
 50
355.7940354718673
 51
4.229650257234378
  0
ARC
  5
D0
330
1F
100
AcDbEntity
  8
0
  6
CONTINUOUS
 62
     3
100
AcDbCircle
 10
1080.254047179557
 20
162.1881005739387
 30
0.0
 40
203.5906390589
100
AcDbArc
 50
175.3387608397566
 51
184.5428594926176
  0
ARC
  5
D1
330
1F
100
AcDbEntity
  8
0
  6
CONTINUOUS
 62
     3
100
AcDbCircle
 10
874.4144089371338
 20
80.79804184123327
 30
0.0
 40
65.32859485251088
100
AcDbArc
 50
87.46575055044718
 51
92.90832285102188
  0
ARC
  5
D2
330
1F
100
AcDbEntity
  8
0
  6
CONTINUOUS
 62
     3
100
AcDbCircle
 10
874.1456076027731
 20
191.5332474358077
 30
0.0
 40
13.19228548840207
100
AcDbArc
 50
256.6209501743446
 51
283.9984576255729
  0
CIRCLE
  5
D3
330
1F
100
AcDbEntity
  8
0
  6
CONTINUOUS
 62
     3
100
AcDbCircle
 10
874.2855140383352
 20
190.583546687371
 30
0.0
 40
3.57233446676989
  0
LINE
  5
D4
330
1F
100
AcDbEntity
  8
0
  6
CONTINUOUS
 62
     3
100
AcDbLine
 10
837.4847657332504
 20
165.8402432975409
 30
0.0
 11
837.4847657332504
 21
155.0469932975406
 31
0.0
  0
ARC
  5
D5
330
1F
100
AcDbEntity
  8
0
  6
CONTINUOUS
 62
     3
100
AcDbCircle
 10
628.1176988671592
 20
161.9938058671746
 30
0.0
 40
204.3697806131072
100
AcDbArc
 50
355.5405243117485
 51
4.673398698656258
  0
ARC
  5
D6
330
1F
100
AcDbEntity
  8
0
  6
CONTINUOUS
 62
     3
100
AcDbCircle
 10
834.7082849861232
 20
190.2206879814488
 30
0.0
 40
11.93349358546016
100
AcDbArc
 50
255.9341994177206
 51
284.5896440601899
  0
ARC
  5
D7
330
1F
100
AcDbEntity
  8
0
  6
CONTINUOUS
 62
     3
100
AcDbCircle
 10
875.0574727396162
 20
174.0785681383053
 30
0.0
 40
37.6246550045818
100
AcDbArc
 50
172.9875214416311
 51
181.4134392789641
  0
ARC
  5
D8
330
1F
100
AcDbEntity
  8
0
  6
CONTINUOUS
 62
     3
100
AcDbCircle
 10
848.7541069002549
 20
165.92759888186
 30
0.0
 40
13.4194899665726
100
AcDbArc
 50
87.42068310381028
 51
147.4361518966862
  0
ARC
  5
D9
330
1F
100
AcDbEntity
  8
0
  6
CONTINUOUS
 62
     3
100
AcDbCircle
 10
849.7724057413762
 20
169.9204664797994
 30
0.0
 40
9.4221437555554
100
AcDbArc
 50
34.84393737091607
 51
92.5207065423111
  0
ARC
  5
DA
330
1F
100
AcDbEntity
  8
0
  6
CONTINUOUS
 62
     3
100
AcDbCircle
 10
847.7905515344827
 20
168.6285942451527
 30
0.0
 40
11.7869965146059
100
AcDbArc
 50
359.8658335690532
 51
34.49363429411157
  0
ARC
  5
DB
330
1F
100
AcDbEntity
  8
0
  6
CONTINUOUS
 62
     3
100
AcDbCircle
 10
798.1913601210061
 20
166.3315774812141
 30
0.0
 40
61.42809087866958
100
AcDbArc
 50
358.4775281223095
 51
2.117232414210064
  0
ARC
  5
DC
330
1F
100
AcDbEntity
  8
0
  6
CONTINUOUS
 62
     3
100
AcDbCircle
 10
1022.657633661698
 20
153.9067374739133
 30
0.0
 40
163.4166579853822
100
AcDbArc
 50
176.2131780319488
 51
182.7488833337936
  0
ARC
  5
DD
330
1F
100
AcDbEntity
  8
0
  6
CONTINUOUS
 62
     3
100
AcDbCircle
 10
856.5771407332505
 20
114.6015261922778
 30
0.0
 40
31.59693252126744
100
AcDbArc
 50
84.82155189294139
 51
95.17844810705873
  0
ARC
  5
DE
330
1F
100
AcDbEntity
  8
0
  6
CONTINUOUS
 62
     3
100
AcDbCircle
 10
689.1173378649745
 20
158.7751337882465
 30
0.0
 40
165.0975566668588
100
AcDbArc
 50
355.5862454873798
 51
2.816115806820253
  0
ARC
  5
DF
330
1F
100
AcDbEntity
  8
0
  6
CONTINUOUS
 62
     3
100
AcDbCircle
 10
842.9447404568526
 20
167.0315138821555
 30
0.0
 40
11.07172507744154
100
AcDbArc
 50
359.2495022237244
 51
32.84055016678327
  0
ARC
  5
E0
330
1F
100
AcDbEntity
  8
0
  6
CONTINUOUS
 62
     3
100
AcDbCircle
 10
846.010014520553
 20
167.2366273138689
 30
0.0
 40
8.51645057047003
100
AcDbArc
 50
42.91644474042847
 51
128.3015542351336
  0
ARC
  5
E1
330
1F
100
AcDbEntity
  8
0
  6
CONTINUOUS
 62
     3
100
AcDbCircle
 10
848.5661722366405
 20
166.0795225138056
 30
0.0
 40
11.08398956318131
100
AcDbArc
 50
134.9787476233347
 51
181.2369872983282
  0
ARC
  5
E2
330
1F
100
AcDbEntity
  8
0
  6
CONTINUOUS
 62
     3
100
AcDbCircle
 10
911.4088578951038
 20
154.9150147009814
 30
0.0
 40
73.95120993114925
100
AcDbArc
 50
179.8977458165987
 51
186.8855675734268
  0
ARC
  5
E3
330
1F
100
AcDbEntity
  8
0
  6
CONTINUOUS
 62
     3
100
AcDbCircle
 10
834.5808780069314
 20
106.5069254511709
 30
0.0
 40
39.68909094418497
100
AcDbArc
 50
85.07099551674689
 51
93.91830029343228
  0
ARC
  5
E4
330
1F
100
AcDbEntity
  8
0
  6
CONTINUOUS
 62
     3
100
AcDbCircle
 10
-22474.01542217735
 20
796.3265245587831
 30
0.0
 40
23297.76001260591
100
AcDbArc
 50
358.4169008257799
 51
358.4423418242109
  0
ARC
  5
E5
330
1F
100
AcDbEntity
  8
0
  6
CONTINUOUS
 62
     3
100
AcDbCircle
 10
806.3244690765924
 20
157.7836489530207
 30
0.0
 40
9.935816039979159
100
AcDbArc
 50
278.3335103000368
 51
329.1221464187299
  0
LINE
  5
E6
330
1F
100
AcDbEntity
  8
0
  6
CONTINUOUS
 62
     3
100
AcDbLine
 10
806.0297657332495
 20
147.952743297541
 30
0.0
 11
807.76451573325
 21
147.952743297541
 31
0.0
  0
ARC
  5
E7
330
1F
100
AcDbEntity
  8
0
  6
CONTINUOUS
 62
     3
100
AcDbCircle
 10
806.6959653488738
 20
153.7461380097786
 30
0.0
 40
5.83157304846997
100
AcDbArc
 50
183.0707787095794
 51
263.4402016072427
  0
LINE
  5
E8
330
1F
100
AcDbEntity
  8
0
  6
CONTINUOUS
 62
     3
100
AcDbLine
 10
800.8727657332503
 20
155.3912432975405
 30
0.0
 11
800.8727657332503
 21
153.4337432975408
 31
0.0
  0
ARC
  5
E9
330
1F
100
AcDbEntity
  8
0
  6
CONTINUOUS
 62
     3
100
AcDbCircle
 10
807.0701866837845
 20
154.5807479047184
 30
0.0
 40
6.25019433457053
100
AcDbArc
 50
115.7403688633493
 51
172.5491744442191
  0
ARC
  5
EA
330
1F
100
AcDbEntity
  8
0
  6
CONTINUOUS
 62
     3
100
AcDbCircle
 10
812.5660651757704
 20
142.8318862667978
 30
0.0
 40
19.22065786155208
100
AcDbArc
 50
98.71271710191789
 51
115.2874718053599
  0
ARC
  5
EB
330
1F
100
AcDbEntity
  8
0
  6
CONTINUOUS
 62
     3
100
AcDbCircle
 10
803.6056099353726
 20
202.7501381160507
 30
0.0
 40
41.36406814694017
100
AcDbArc
 50
278.4088456599976
 51
286.1851416003176
  0
ARC
  5
EC
330
1F
100
AcDbEntity
  8
0
  6
CONTINUOUS
 62
     3
100
AcDbCircle
 10
779.0908200122277
 20
243.7417570522225
 30
0.0
 40
44.00758833490465
100
AcDbArc
 50
261.7986203004403
 51
278.6803384946418
  0
ARC
  5
ED
330
1F
100
AcDbEntity
  8
0
  6
CONTINUOUS
 62
     3
100
AcDbCircle
 10
1434.542531413435
 20
169.2960360950845
 30
0.0
 40
649.5474244683604
100
AcDbArc
 50
177.2695926307304
 51
181.4833117237826
  0
ARC
  5
EE
330
1F
100
AcDbEntity
  8
0
  6
CONTINUOUS
 62
     3
100
AcDbCircle
 10
762.4899361790614
 20
151.9631356880094
 30
0.0
 40
22.72875263114311
100
AcDbArc
 50
335.1860595856123
 51
1.308075913059364
  0
ARC
  5
EF
330
1F
100
AcDbEntity
  8
0
  6
CONTINUOUS
 62
     3
100
AcDbCircle
 10
768.3897327885478
 20
150.938351862683
 30
0.0
 40
17.01394688196115
100
AcDbArc
 50
286.2966123578915
 51
329.973223283839
  0
ARC
  5
F0
330
1F
100
AcDbEntity
  8
0
  6
CONTINUOUS
 62
     3
100
AcDbCircle
 10
765.0955749866654
 20
155.7223152915386
 30
0.0
 40
22.60341410821362
100
AcDbArc
 50
277.0901027239701
 51
290.9134154817058
  0
LINE
  5
F1
330
1F
100
AcDbEntity
  8
0
  6
CONTINUOUS
 62
     3
100
AcDbLine
 10
767.8855157332504
 20
133.2917432975406
 30
0.0
 11
766.6502657332506
 21
137.0514932975404
 31
0.0
  0
ARC
  5
F2
330
1F
100
AcDbEntity
  8
0
  6
CONTINUOUS
 62
     3
100
AcDbCircle
 10
762.8347289685445
 20
148.675985944599
 30
0.0
 40
12.23467000390025
100
AcDbArc
 50
288.1715191042997
 51
307.8537826235693
  0
ARC
  5
F3
330
1F
100
AcDbEntity
  8
0
  6
CONTINUOUS
 62
     3
100
AcDbCircle
 10
765.0927386496022
 20
144.3407518472915
 30
0.0
 40
7.47769185530633
100
AcDbArc
 50
314.592391474832
 51
344.9374073189123
  0
ARC
  5
F4
330
1F
100
AcDbEntity
  8
0
  6
CONTINUOUS
 62
     3
100
AcDbCircle
 10
278.3385521229312
 20
174.5197335838841
 30
0.0
 40
495.1400430399008
100
AcDbArc
 50
356.8390243485978
 51
2.971133813187157
  0
ARC
  5
F5
330
1F
100
AcDbEntity
  8
0
  6
CONTINUOUS
 62
     3
100
AcDbCircle
 10
703.1439565227078
 20
150.7342761922788
 30
0.0
 40
69.67015049800598
100
AcDbArc
 50
353.1274757312911
 51
357.106204490141
  0
LINE
  5
F6
330
1F
100
AcDbEntity
  8
0
  6
CONTINUOUS
 62
     3
100
AcDbLine
 10
798.1727657332505
 20
175.364493297541
 30
0.0
 11
798.1727657332505
 21
171.7194932975408
 31
0.0
  0
ARC
  5
F7
330
1F
100
AcDbEntity
  8
0
  6
CONTINUOUS
 62
     3
100
AcDbCircle
 10
806.8253617702993
 20
167.2890191857882
 30
0.0
 40
8.94881105176719
100
AcDbArc
 50
103.4267945469744
 51
150.3242613737993
  0
ARC
  5
F8
330
1F
100
AcDbEntity
  8
0
  6
CONTINUOUS
 62
     3
100
AcDbCircle
 10
807.4799095798306
 20
165.9383830513021
 30
0.0
 40
10.4195273466423
100
AcDbArc
 50
77.23143261361693
 51
105.203415964315
  0
ARC
  5
F9
330
1F
100
AcDbEntity
  8
0
  6
CONTINUOUS
 62
     3
100
AcDbCircle
 10
807.9283412817693
 20
169.2741886153421
 30
0.0
 40
7.07346538626002
100
AcDbArc
 50
3.537639967999379
 51
74.8013566619203
  0
ARC
  5
FA
330
1F
100
AcDbEntity
  8
0
  6
CONTINUOUS
 62
     3
100
AcDbCircle
 10
802.005387356657
 20
167.9229870375123
 30
0.0
 40
13.10543751018921
100
AcDbArc
 50
353.0315250986587
 51
7.839947970678348
  0
ARC
  5
FB
330
1F
100
AcDbEntity
  8
0
  6
CONTINUOUS
 62
     3
100
AcDbCircle
 10
813.3230955673338
 20
166.6511332504287
 30
0.0
 40
1.72058828228131
100
AcDbArc
 50
291.5204897073511
 51
349.3445900274031
  0
ARC
  5
FC
330
1F
100
AcDbEntity
  8
0
  6
CONTINUOUS
 62
     3
100
AcDbCircle
 10
809.3433050110895
 20
174.6407362688747
 30
0.0
 40
10.64113335272784
100
AcDbArc
 50
282.7195832898965
 51
295.6781112778079
  0
ARC
  5
FD
330
1F
100
AcDbEntity
  8
0
  6
CONTINUOUS
 62
     3
100
AcDbCircle
 10
783.8530099985786
 20
288.1202029775212
 30
0.0
 40
126.9482409370382
100
AcDbArc
 50
278.8438342053764
 51
282.6649181367123
  0
ARC
  5
FE
330
1F
100
AcDbEntity
  8
0
  6
CONTINUOUS
 62
     3
100
AcDbCircle
 10
806.0970138675788
 20
149.9608481482871
 30
0.0
 40
13.0093661698492
100
AcDbArc
 50
102.0988446293839
 51
129.1556705448828
  0
ARC
  5
FF
330
1F
100
AcDbEntity
  8
0
  6
CONTINUOUS
 62
     3
100
AcDbCircle
 10
802.3972379030153
 20
154.6366332500801
 30
0.0
 40
7.04795370557922
100
AcDbArc
 50
129.8344892359069
 51
168.4089447024628
  0
ARC
  5
100
330
1F
100
AcDbEntity
  8
0
  6
CONTINUOUS
 62
     3
100
AcDbCircle
 10
803.9075018569991
 20
153.7758712547744
 30
0.0
 40
8.71709372588669
100
AcDbArc
 50
164.8589457925044
 51
187.8495628504518
  0
ARC
  5
101
330
1F
100
AcDbEntity
  8
0
  6
CONTINUOUS
 62
     3
100
AcDbCircle
 10
803.0915332915498
 20
153.4015021572864
 30
0.0
 40
7.8619234712629
100
AcDbArc
 50
185.9586126338419
 51
224.0091989319859
  0
ARC
  5
102
330
1F
100
AcDbEntity
  8
0
  6
CONTINUOUS
 62
     3
100
AcDbCircle
 10
803.4562953036885
 20
153.8111104772596
 30
0.0
 40
8.408956577563659
100
AcDbArc
 50
224.289750990011
 51
255.6505938786759
  0
ARC
  5
103
330
1F
100
AcDbEntity
  8
0
  6
CONTINUOUS
 62
     3
100
AcDbCircle
 10
803.2928130736758
 20
151.6963494387411
 30
0.0
 40
6.330228320917859
100
AcDbArc
 50
252.3384873625213
 51
268.8069976857606
  0
LINE
  5
104
330
1F
100
AcDbEntity
  8
0
  6
CONTINUOUS
 62
     3
100
AcDbLine
 10
803.1610157332494
 20
145.3674932975408
 30
0.0
 11
805.9015157332504
 21
145.3674932975408
 31
0.0
  0
ARC
  5
105
330
1F
100
AcDbEntity
  8
0
  6
CONTINUOUS
 62
     3
100
AcDbCircle
 10
804.6613045867008
 20
158.9534026256828
 30
0.0
 40
13.64239920103932
100
AcDbArc
 50
275.2158792069686
 51
319.2336424873511
  0
ARC
  5
106
330
1F
100
AcDbEntity
  8
0
  6
CONTINUOUS
 62
     3
100
AcDbCircle
 10
819.8315560558314
 20
150.6492594265731
 30
0.0
 40
4.87535134009722
100
AcDbArc
 50
187.1167640402297
 51
216.4860549324747
  0
ARC
  5
107
330
1F
100
AcDbEntity
  8
0
  6
CONTINUOUS
 62
     3
100
AcDbCircle
 10
819.293773508146
 20
150.336745652863
 30
0.0
 40
4.25769550620398
100
AcDbArc
 50
217.4081478714985
 51
264.8118660441384
  0
ARC
  5
108
330
1F
100
AcDbEntity
  8
0
  6
CONTINUOUS
 62
     3
100
AcDbCircle
 10
820.8995891945591
 20
154.6464512823032
 30
0.0
 40
8.56540620020894
100
AcDbArc
 50
271.2220539293239
 51
292.8159509797653
  0
LINE
  5
109
330
1F
100
AcDbEntity
  8
0
  6
CONTINUOUS
 62
     3
100
AcDbLine
 10
818.9087657332499
 20
146.0964932975409
 30
0.0
 11
821.08226573325
 21
146.0964932975409
 31
0.0
  0
LINE
  5
10A
330
1F
100
AcDbEntity
  8
0
  6
CONTINUOUS
 62
     3
100
AcDbLine
 10
824.2210157332505
 20
146.7512432975408
 30
0.0
 11
824.2210157332505
 21
148.3239932975405
 31
0.0
  0
ARC
  5
10B
330
1F
100
AcDbEntity
  8
0
  6
CONTINUOUS
 62
     3
100
AcDbCircle
 10
822.8242078457964
 20
151.006118874109
 30
0.0
 40
3.0240485913648
100
AcDbArc
 50
243.6191685566582
 51
297.5097757939563
  0
ARC
  5
10C
330
1F
100
AcDbEntity
  8
0
  6
CONTINUOUS
 62
     3
100
AcDbCircle
 10
823.1823989446042
 20
150.8302928780474
 30
0.0
 40
3.05188683107389
100
AcDbArc
 50
179.9117548191414
 51
236.1065985968857
  0
ARC
  5
10D
330
1F
100
AcDbEntity
  8
0
  6
CONTINUOUS
 62
     3
100
AcDbCircle
 10
1273.65013583871
 20
155.9323843931733
 30
0.0
 40
453.5482655865662
100
AcDbArc
 50
178.2526643324597
 51
180.6439560401927
  0
ARC
  5
10E
330
1F
100
AcDbEntity
  8
0
  6
CONTINUOUS
 62
     3
100
AcDbCircle
 10
810.0706272602787
 20
169.0191625973315
 30
0.0
 40
10.2690407511459
100
AcDbArc
 50
4.148222840814693
 51
92.36000944257292
  0
ARC
  5
10F
330
1F
100
AcDbEntity
  8
0
  6
CONTINUOUS
 62
     3
100
AcDbCircle
 10
809.2685324125529
 20
161.6167288926888
 30
0.0
 40
17.66683515327064
100
AcDbArc
 50
88.77000393305703
 51
128.9068631829044
  0
TEXT
  5
111
330
1F
100
AcDbEntity
  8
0
  6
CONTINUOUS
 62
     2
100
AcDbText
 10
921.000000000003
 20
140.5000000000003
 30
0.0
 40
33.75
  1
ジャニス工業株式会社
 41
1.025641025641026
  7
EXCADTTF1
 72
     5
 11
1371.000000000003
 21
140.5000000000003
 31
0.0
100
AcDbText
  0
LINE
  5
112
330
1F
100
AcDbEntity
  8
枠_
  6
EXLTYPE2
 62
     6
100
AcDbLine
 10
179.0
 20
1515.0
 30
0.0
 11
-21.0
 21
1515.0
 31
0.0
  0
TEXT
  5
113
330
1F
100
AcDbEntity
  8
枠_
  6
CONTINUOUS
 62
     2
100
AcDbText
 10
1889.5371094
 20
282.7227783
 30
0.0
 40
30.0
  1
１
 41
1.101333333333329
  7
EXCADSTD
 72
     5
 11
1913.1371094
 21
282.7227783
 31
0.0
100
AcDbText
  0
TEXT
  5
114
330
1F
100
AcDbEntity
  8
枠_
  6
CONTINUOUS
 62
     2
100
AcDbText
 10
1930.2792969
 20
238.3488464
 30
0.0
 40
30.0
  1
１０
 41
1.098531212121213
  7
EXCADSTD
 72
     5
 11
1982.0671969
 21
238.3488464
 31
0.0
100
AcDbText
  0
TEXT
  5
115
330
1F
100
AcDbEntity
  8
枠_
  6
CONTINUOUS
 62
     2
100
AcDbText
 10
201.5
 20
288.75
 30
0.0
 40
42.5
  1
製図
 41
1.509694117647059
  7
EXCADSTD
 72
     5
 11
302.326
 21
288.75
 31
0.0
100
AcDbText
  0
TEXT
  5
116
330
1F
100
AcDbEntity
  8
枠_
  6
CONTINUOUS
 62
     2
100
AcDbText
 10
356.5000000000001
 20
288.75
 30
0.0
 40
42.5
  1
写図
 41
1.509694117647058
  7
EXCADSTD
 72
     5
 11
457.326
 21
288.75
 31
0.0
100
AcDbText
  0
TEXT
  5
117
330
1F
100
AcDbEntity
  8
枠_
  6
CONTINUOUS
 62
     2
100
AcDbText
 10
506.5
 20
288.75
 30
0.0
 40
42.5
  1
検図
 41
1.303826737967914
  7
EXCADSTD
 72
     5
 11
593.577
 21
288.75
 31
0.0
100
AcDbText
  0
TEXT
  5
118
330
1F
100
AcDbEntity
  8
枠_
  6
CONTINUOUS
 62
     2
100
AcDbText
 10
636.5
 20
288.75
 30
0.0
 40
42.5
  1
承認
 41
1.303826737967914
  7
EXCADSTD
 72
     5
 11
723.577
 21
288.75
 31
0.0
100
AcDbText
  0
TEXT
  5
119
330
1F
100
AcDbEntity
  8
枠_
  6
CONTINUOUS
 62
     2
100
AcDbText
 10
754.75
 20
278.75
 30
0.0
 40
42.5
  1
品
 41
1.12
  7
EXCADSTD
 72
     5
 11
788.75
 21
278.75
 31
0.0
100
AcDbText
  0
TEXT
  5
11A
330
1F
100
AcDbEntity
  8
枠_
  6
CONTINUOUS
 62
     2
100
AcDbText
 10
754.75
 20
228.75
 30
0.0
 40
42.5
  1
名
 41
1.12
  7
EXCADSTD
 72
     5
 11
788.75
 21
228.75
 31
0.0
100
AcDbText
  0
TEXT
  5
11B
330
1F
100
AcDbEntity
  8
枠_
  6
CONTINUOUS
 62
     2
100
AcDbText
 10
1394.75
 20
278.75
 30
0.0
 40
42.5
  1
品
 41
1.12
  7
EXCADSTD
 72
     5
 11
1428.75
 21
278.75
 31
0.0
100
AcDbText
  0
TEXT
  5
11C
330
1F
100
AcDbEntity
  8
枠_
  6
CONTINUOUS
 62
     2
100
AcDbText
 10
1394.75
 20
228.75
 30
0.0
 40
42.5
  1
番
 41
1.12
  7
EXCADSTD
 72
     5
 11
1428.75
 21
228.75
 31
0.0
100
AcDbText
  0
TEXT
  5
11D
330
1F
100
AcDbEntity
  8
枠_
  6
CONTINUOUS
 62
     2
100
AcDbText
 10
1815.75
 20
278.75
 30
0.0
 40
42.5
  1
尺
 41
1.12
  7
EXCADSTD
 72
     5
 11
1849.75
 21
278.75
 31
0.0
100
AcDbText
  0
TEXT
  5
11E
330
1F
100
AcDbEntity
  8
枠_
  6
CONTINUOUS
 62
     2
100
AcDbText
 10
1815.75
 20
228.75
 30
0.0
 40
42.5
  1
度
 41
1.12
  7
EXCADSTD
 72
     5
 11
1849.75
 21
228.75
 31
0.0
100
AcDbText
  0
TEXT
  5
11F
330
1F
100
AcDbEntity
  8
枠_
  6
CONTINUOUS
 62
     2
100
AcDbText
 10
1394.75
 20
165.75
 30
0.0
 40
42.5
  1
図
 41
1.12
  7
EXCADSTD
 72
     5
 11
1428.75
 21
165.75
 31
0.0
100
AcDbText
  0
TEXT
  5
120
330
1F
100
AcDbEntity
  8
枠_
  6
CONTINUOUS
 62
     2
100
AcDbText
 10
1394.75
 20
122.75
 30
0.0
 40
42.5
  1
番
 41
1.12
  7
EXCADSTD
 72
     5
 11
1428.75
 21
122.75
 31
0.0
100
AcDbText
  0
TEXT
  5
121
330
1F
100
AcDbEntity
  8
枠_
  6
CONTINUOUS
 62
     6
100
AcDbText
 10
211.5000001192125
 20
200.0
 30
0.0
 40
50.0
  1
川野
 41
1.096586909090909
  7
EXCADSTD
 72
     5
 11
297.6604001192125
 21
200.0
 31
0.0
100
AcDbText
  0
LINE
  5
122
330
1F
100
AcDbEntity
  8
枠_
  6
CONTINUOUS
 62
     6
100
AcDbLine
 10
1859.0
 20
335.0
 30
0.0
 11
1859.0
 21
215.0
 31
0.0
  0
LINE
  5
123
330
1F
100
AcDbEntity
  8
枠_
  6
CONTINUOUS
 62
     6
100
AcDbLine
 10
1809.0
 20
335.0
 30
0.0
 11
1809.0
 21
215.0
 31
0.0
  0
LINE
  5
124
330
1F
100
AcDbEntity
  8
枠_
  6
CONTINUOUS
 62
     6
100
AcDbLine
 10
1439.0
 20
335.0
 30
0.0
 11
1439.0
 21
115.0
 31
0.0
  0
LINE
  5
125
330
1F
100
AcDbEntity
  8
枠_
  6
CONTINUOUS
 62
     6
100
AcDbLine
 10
1389.0
 20
335.0
 30
0.0
 11
1389.0
 21
115.0
 31
0.0
  0
LINE
  5
126
330
1F
100
AcDbEntity
  8
枠_
  6
CONTINUOUS
 62
     6
100
AcDbLine
 10
799.0
 20
335.0
 30
0.0
 11
799.0
 21
215.0
 31
0.0
  0
LINE
  5
127
330
1F
100
AcDbEntity
  8
枠_
  6
CONTINUOUS
 62
     6
100
AcDbLine
 10
749.0
 20
335.0
 30
0.0
 11
749.0
 21
115.0
 31
0.0
  0
LINE
  5
128
330
1F
100
AcDbEntity
  8
枠_
  6
CONTINUOUS
 62
     6
100
AcDbLine
 10
619.0
 20
335.0
 30
0.0
 11
619.0
 21
115.0
 31
0.0
  0
LINE
  5
129
330
1F
100
AcDbEntity
  8
枠_
  6
CONTINUOUS
 62
     6
100
AcDbLine
 10
489.0000000000001
 20
335.0
 30
0.0
 11
489.0000000000001
 21
115.0
 31
0.0
  0
LINE
  5
12A
330
1F
100
AcDbEntity
  8
枠_
  6
CONTINUOUS
 62
     6
100
AcDbLine
 10
333.9999999999999
 20
335.0
 30
0.0
 11
333.9999999999999
 21
115.0
 31
0.0
  0
LINE
  5
12B
330
1F
100
AcDbEntity
  8
枠_
  6
CONTINUOUS
 62
     6
100
AcDbLine
 10
179.0
 20
285.0
 30
0.0
 11
749.0
 21
285.0
 31
0.0
  0
LINE
  5
12C
330
1F
100
AcDbEntity
  8
枠_
  6
CONTINUOUS
 62
     6
100
AcDbLine
 10
1891.6538086
 20
238.0029297
 30
0.0
 11
1968.9938965
 21
316.6998291
 31
0.0
  0
CIRCLE
  5
12D
330
1F
100
AcDbEntity
  8
枠_
  6
CONTINUOUS
 62
     6
100
AcDbCircle
 10
229.0
 20
140.0
 30
0.0
 40
1.0000002
  0
CIRCLE
  5
12E
330
1F
100
AcDbEntity
  8
枠_
  6
CONTINUOUS
 62
     6
100
AcDbCircle
 10
279.0
 20
140.0
 30
0.0
 40
1.0000002
  0
CIRCLE
  5
12F
330
1F
100
AcDbEntity
  8
枠_
  6
CONTINUOUS
 62
     6
100
AcDbCircle
 10
384.0000000000001
 20
140.0
 30
0.0
 40
1.0000002
  0
CIRCLE
  5
130
330
1F
100
AcDbEntity
  8
枠_
  6
CONTINUOUS
 62
     6
100
AcDbCircle
 10
434.0000000000001
 20
140.0
 30
0.0
 40
1.0000002
  0
LINE
  5
131
330
1F
100
AcDbEntity
  8
枠_
  6
EXLTYPE2
 62
     6
100
AcDbLine
 10
179.0
 20
165.0000000000001
 30
0.0
 11
489.0000000000001
 21
165.0
 31
0.0
  0
TEXT
  5
132
330
1F
100
AcDbEntity
  8
枠_
  6
CONTINUOUS
 62
     2
100
AcDbText
 10
1490.999999999983
 20
2269.497084686373
 30
0.0
 40
40.0
  1
ストレート形止水栓（共用形）
 41
0.8075301204819278
  7
EXCADSTD
 72
     5
 11
1873.999999999983
 21
2269.497084686373
 31
0.0
100
AcDbText
  0
TEXT
  5
133
330
1F
100
AcDbEntity
  8
枠_
  6
CONTINUOUS
 62
     2
100
AcDbText
 10
1901.799999999983
 20
2269.497084686374
 30
0.0
 40
40.0
  1
１
 41
1.12
  7
EXCADSTD
 72
     5
 11
1933.799999999983
 21
2269.497084686374
 31
0.0
100
AcDbText
  0
LINE
  5
134
330
1F
100
AcDbEntity
  8
枠_
  6
CONTINUOUS
 62
     6
100
AcDbLine
 10
1242.002929699981
 20
2262.996759703
 30
0.0
 11
1968.999999999981
 21
2262.996759703
 31
0.0
  0
LINE
  5
135
330
1F
100
AcDbEntity
  8
枠_
  6
CONTINUOUS
 62
     6
100
AcDbLine
 10
1868.999999999981
 20
2315.9970837327
 30
0.0
 11
1868.999999999981
 21
2262.996759703
 31
0.0
  0
LINE
  5
136
330
1F
100
AcDbEntity
  8
枠_
  6
CONTINUOUS
 62
     6
100
AcDbLine
 10
1483.999999999982
 20
2315.9970837327
 30
0.0
 11
1483.999999999982
 21
2262.996759703
 31
0.0
  0
LINE
  5
137
330
1F
100
AcDbEntity
  8
枠_
  6
CONTINUOUS
 62
     6
100
AcDbLine
 10
1242.00292969998
 20
2315.9970837327
 30
0.0
 11
1242.00292969998
 21
2262.996759703
 31
0.0
  0
LINE
  5
138
330
1F
100
AcDbEntity
  8
枠_
  6
CONTINUOUS
 62
     6
100
AcDbLine
 10
1968.999999999981
 20
2262.996759703
 30
0.0
 11
1968.999999999981
 21
2315.9970837327
 31
0.0
  0
LINE
  5
139
330
1F
100
AcDbEntity
  8
枠_
  6
CONTINUOUS
 62
     6
100
AcDbLine
 10
1242.002929699981
 20
2315.9970837327
 30
0.0
 11
1968.99999999998
 21
2315.9970837327
 31
0.0
  0
TEXT
  5
13A
330
1F
100
AcDbEntity
  8
枠_
  6
CONTINUOUS
 62
     2
100
AcDbText
 10
1490.999999999984
 20
2387.497408716074
 30
0.0
 40
40.0
  1
Ｓトラップ
 41
1.086206896551724
  7
EXCADSTD
 72
     5
 11
1670.999999999984
 21
2387.497408716074
 31
0.0
100
AcDbText
  0
TEXT
  5
13B
330
1F
100
AcDbEntity
  8
枠_
  6
CONTINUOUS
 62
     2
100
AcDbText
 10
1246.002929699983
 20
2387.497408716074
 30
0.0
 40
40.0
  1
ＮＬ３１Ｓ
 41
0.9655172413793103
  7
EXCADSTD
 72
     5
 11
1406.002929699983
 21
2387.497408716074
 31
0.0
100
AcDbText
  0
TEXT
  5
13C
330
1F
100
AcDbEntity
  8
枠_
  6
CONTINUOUS
 62
     2
100
AcDbText
 10
1246.002929699982
 20
2440.497732745774
 30
0.0
 40
40.0
  1
Ｓトラップの場合
 41
1.061170212765957
  7
EXCADSTD
 72
     5
 11
1531.002929699982
 21
2440.497732745774
 31
0.0
100
AcDbText
  0
TEXT
  5
13D
330
1F
100
AcDbEntity
  8
枠_
  6
CONTINUOUS
 62
     2
100
AcDbText
 10
1901.799999999983
 20
2387.497408716074
 30
0.0
 40
40.0
  1
１
 41
1.12
  7
EXCADSTD
 72
     5
 11
1933.799999999983
 21
2387.497408716074
 31
0.0
100
AcDbText
  0
LINE
  5
13E
330
1F
100
AcDbEntity
  8
枠_
  6
CONTINUOUS
 62
     6
100
AcDbLine
 10
1483.999999999982
 20
2433.9974077624
 30
0.0
 11
1483.999999999982
 21
2380.9970837327
 31
0.0
  0
LINE
  5
13F
330
1F
100
AcDbEntity
  8
枠_
  6
CONTINUOUS
 62
     6
100
AcDbLine
 10
1242.002929699981
 20
2380.9970837327
 30
0.0
 11
1968.999999999981
 21
2380.9970837327
 31
0.0
  0
LINE
  5
140
330
1F
100
AcDbEntity
  8
枠_
  6
CONTINUOUS
 62
     6
100
AcDbLine
 10
1968.999999999981
 20
2380.9970837327
 30
0.0
 11
1968.999999999981
 21
2433.9974077624
 31
0.0
  0
LINE
  5
141
330
1F
100
AcDbEntity
  8
枠_
  6
CONTINUOUS
 62
     6
100
AcDbLine
 10
1242.00292969998
 20
2433.9974077624
 30
0.0
 11
1242.00292969998
 21
2380.9970837327
 31
0.0
  0
LINE
  5
142
330
1F
100
AcDbEntity
  8
枠_
  6
CONTINUOUS
 62
     6
100
AcDbLine
 10
1242.002929699981
 20
2433.9974077624
 30
0.0
 11
1968.999999999981
 21
2433.9974077624
 31
0.0
  0
LINE
  5
143
330
1F
100
AcDbEntity
  8
枠_
  6
CONTINUOUS
 62
     6
100
AcDbLine
 10
1868.999999999981
 20
2433.9974077624
 30
0.0
 11
1868.999999999981
 21
2380.9970837327
 31
0.0
  0
LINE
  5
144
330
1F
100
AcDbEntity
  8
枠_
  6
CONTINUOUS
 62
     6
100
AcDbLine
 10
1242.002929699981
 20
2763.9990279109
 30
0.0
 11
1968.999999999982
 21
2763.9990279109
 31
0.0
  0
LINE
  5
145
330
1F
100
AcDbEntity
  8
枠_
  6
CONTINUOUS
 62
     6
100
AcDbLine
 10
1242.002929699981
 20
2710.998703881201
 30
0.0
 11
1968.999999999982
 21
2710.998703881201
 31
0.0
  0
LINE
  5
146
330
1F
100
AcDbEntity
  8
枠_
  6
CONTINUOUS
 62
     6
100
AcDbLine
 10
1242.002929699981
 20
2816.9993519406
 30
0.0
 11
1968.999999999982
 21
2816.9993519406
 31
0.0
  0
TEXT
  5
147
330
1F
100
AcDbEntity
  8
枠_
  6
CONTINUOUS
 62
     2
100
AcDbText
 10
1606.094125707002
 20
2768.706474288304
 30
0.0
 40
40.0
  1
品名
 41
2.18734090909091
  7
EXCADSTD
 72
     5
 11
1743.584125707002
 21
2768.706474288304
 31
0.0
100
AcDbText
  0
TEXT
  5
148
330
1F
100
AcDbEntity
  8
枠_
  6
CONTINUOUS
 62
     2
100
AcDbText
 10
1291.594125707001
 20
2768.706474288304
 30
0.0
 40
40.0
  1
品番
 41
2.18734090909091
  7
EXCADSTD
 72
     5
 11
1429.084125707001
 21
2768.706474288304
 31
0.0
100
AcDbText
  0
TEXT
  5
149
330
1F
100
AcDbEntity
  8
枠_
  6
CONTINUOUS
 62
     2
100
AcDbText
 10
1492.099999761565
 20
2717.499028864574
 30
0.0
 40
40.0
  1
手洗器
 41
1.132352941176471
  7
EXCADSTD
 72
     5
 11
1602.099999761565
 21
2717.499028864574
 31
0.0
100
AcDbText
  0
TEXT
  5
14A
330
1F
100
AcDbEntity
  8
枠_
  6
CONTINUOUS
 62
     2
100
AcDbText
 10
1492.099999761565
 20
2664.498704834874
 30
0.0
 40
40.0
  1
立水栓
 41
1.132352941176471
  7
EXCADSTD
 72
     5
 11
1602.099999761565
 21
2664.498704834874
 31
0.0
100
AcDbText
  0
TEXT
  5
14B
330
1F
100
AcDbEntity
  8
枠_
  6
CONTINUOUS
 62
     2
100
AcDbText
 10
1492.099999761565
 20
2611.498380805175
 30
0.0
 40
40.0
  1
アングル形止水栓（共用形）
 41
0.8386363636363637
  7
EXCADSTD
 72
     5
 11
1861.099999761565
 21
2611.498380805175
 31
0.0
100
AcDbText
  0
TEXT
  5
14C
330
1F
100
AcDbEntity
  8
枠_
  6
CONTINUOUS
 62
     2
100
AcDbText
 10
1492.099999761565
 20
2558.498056775475
 30
0.0
 40
40.0
  1
Ｐトラップ
 41
1.086206896551724
  7
EXCADSTD
 72
     5
 11
1672.099999761565
 21
2558.498056775475
 31
0.0
100
AcDbText
  0
TEXT
  5
14D
330
1F
100
AcDbEntity
  8
枠_
  6
CONTINUOUS
 62
     2
100
AcDbText
 10
1246.002929699983
 20
2558.498056775476
 30
0.0
 40
40.0
  1
ＮＬ３１Ｐ
 41
0.9655172413793103
  7
EXCADSTD
 72
     5
 11
1406.002929699983
 21
2558.498056775476
 31
0.0
100
AcDbText
  0
TEXT
  5
14E
330
1F
100
AcDbEntity
  8
枠_
  6
CONTINUOUS
 62
     2
100
AcDbText
 10
1246.002929699983
 20
2664.498704834875
 30
0.0
 40
40.0
  1
Ｋ５
 41
1.020759090909092
  7
EXCADSTD
 72
     5
 11
1310.164929699983
 21
2664.498704834875
 31
0.0
100
AcDbText
  0
TEXT
  5
14F
330
1F
100
AcDbEntity
  8
枠_
  6
CONTINUOUS
 62
     2
100
AcDbText
 10
1901.799999999984
 20
2558.498056775476
 30
0.0
 40
40.0
  1
１
 41
1.12
  7
EXCADSTD
 72
     5
 11
1933.799999999984
 21
2558.498056775476
 31
0.0
100
AcDbText
  0
TEXT
  5
150
330
1F
100
AcDbEntity
  8
枠_
  6
CONTINUOUS
 62
     2
100
AcDbText
 10
1270.999999999981
 20
2825.999351940601
 30
0.0
 40
50.0
  1
器具明細
 41
2.556521739130435
  7
EXCADSTD
 72
     5
 11
1690.999999999981
 21
2825.999351940601
 31
0.0
100
AcDbText
  0
TEXT
  5
151
330
1F
100
AcDbEntity
  8
枠_
  6
CONTINUOUS
 62
     2
100
AcDbText
 10
1901.799999999984
 20
2664.498704834875
 30
0.0
 40
40.0
  1
１
 41
1.12
  7
EXCADSTD
 72
     5
 11
1933.799999999984
 21
2664.498704834875
 31
0.0
100
AcDbText
  0
TEXT
  5
152
330
1F
100
AcDbEntity
  8
枠_
  6
CONTINUOUS
 62
     2
100
AcDbText
 10
1901.799999999984
 20
2611.498380805175
 30
0.0
 40
40.0
  1
１
 41
1.12
  7
EXCADSTD
 72
     5
 11
1933.799999999984
 21
2611.498380805175
 31
0.0
100
AcDbText
  0
TEXT
  5
153
330
1F
100
AcDbEntity
  8
枠_
  6
CONTINUOUS
 62
     2
100
AcDbText
 10
1881.594125766606
 20
2768.706474288304
 30
0.0
 40
40.0
  1
個数
 41
1.195746363636364
  7
EXCADSTD
 72
     5
 11
1956.755325766606
 21
2768.706474288304
 31
0.0
100
AcDbText
  0
TEXT
  5
154
330
1F
100
AcDbEntity
  8
枠_
  6
CONTINUOUS
 62
     2
100
AcDbText
 10
1901.799999999984
 20
2717.499028864574
 30
0.0
 40
40.0
  1
１
 41
1.12
  7
EXCADSTD
 72
     5
 11
1933.799999999984
 21
2717.499028864574
 31
0.0
100
AcDbText
  0
LINE
  5
155
330
1F
100
AcDbEntity
  8
枠_
  6
CONTINUOUS
 62
     6
100
AcDbLine
 10
1242.002929699981
 20
2604.998055821801
 30
0.0
 11
1968.999999999982
 21
2604.998055821801
 31
0.0
  0
LINE
  5
156
330
1F
100
AcDbEntity
  8
枠_
  6
CONTINUOUS
 62
     6
100
AcDbLine
 10
1242.002929699981
 20
2657.9983798515
 30
0.0
 11
1968.999999999982
 21
2657.9983798515
 31
0.0
  0
TEXT
  5
157
330
1F
100
AcDbEntity
  8
枠_
  6
CONTINUOUS
 62
     2
100
AcDbText
 10
1492.099999761565
 20
2505.497732745774
 30
0.0
 40
40.0
  1
化粧頭付木ねじ
 41
1.067073170731707
  7
EXCADSTD
 72
     5
 11
1742.099999761565
 21
2505.497732745774
 31
0.0
100
AcDbText
  0
LINE
  5
158
330
1F
100
AcDbEntity
  8
枠_
  6
CONTINUOUS
 62
     6
100
AcDbLine
 10
1242.002929699981
 20
2498.997407762401
 30
0.0
 11
1968.999999999982
 21
2498.997407762401
 31
0.0
  0
LINE
  5
159
330
1F
100
AcDbEntity
  8
枠_
  6
CONTINUOUS
 62
     6
100
AcDbLine
 10
1242.002929699981
 20
2551.997731792101
 30
0.0
 11
1968.999999999982
 21
2551.997731792101
 31
0.0
  0
LINE
  5
15A
330
1F
100
AcDbEntity
  8
枠_
  6
CONTINUOUS
 62
     6
100
AcDbLine
 10
1242.002929699981
 20
2816.9993519406
 30
0.0
 11
1242.002929699981
 21
2498.997407762401
 31
0.0
  0
LINE
  5
15B
330
1F
100
AcDbEntity
  8
枠_
  6
CONTINUOUS
 62
     6
100
AcDbLine
 10
1483.999999999982
 20
2816.9993519406
 30
0.0
 11
1483.999999999982
 21
2498.997407762401
 31
0.0
  0
LINE
  5
15C
330
1F
100
AcDbEntity
  8
枠_
  6
CONTINUOUS
 62
     6
100
AcDbLine
 10
1868.999999999982
 20
2816.9993519406
 30
0.0
 11
1868.999999999982
 21
2498.997407762401
 31
0.0
  0
LINE
  5
15D
330
1F
100
AcDbEntity
  8
枠_
  6
CONTINUOUS
 62
     6
100
AcDbLine
 10
1968.999999999982
 20
2498.997407762401
 30
0.0
 11
1968.999999999982
 21
2816.9993519406
 31
0.0
  0
TEXT
  5
15E
330
1F
100
AcDbEntity
  8
枠_
  6
CONTINUOUS
 62
     2
100
AcDbText
 10
1901.799999999984
 20
2505.497732745774
 30
0.0
 40
40.0
  1
４
 41
1.12
  7
EXCADSTD
 72
     5
 11
1933.799999999984
 21
2505.497732745774
 31
0.0
100
AcDbText
  0
TEXT
  5
15F
330
1F
100
AcDbEntity
  8
枠_
  6
CONTINUOUS
 62
     2
100
AcDbText
 10
1246.002929699982
 20
2322.497408716074
 30
0.0
 40
40.0
  1
ストレート形止水栓の場合
 41
1.047535211267606
  7
EXCADSTD
 72
     5
 11
1671.002929699982
 21
2322.497408716074
 31
0.0
100
AcDbText
  0
LINE
  5
160
330
1F
100
AcDbEntity
  8
枠_
  6
CONTINUOUS
 62
     7
100
AcDbLine
 10
179.0
 20
2915.0
 30
0.0
 11
1999.0
 21
2915.0
 31
0.0
  0
LINE
  5
161
330
1F
100
AcDbEntity
  8
枠_
  6
CONTINUOUS
 62
     7
100
AcDbLine
 10
1999.0
 20
115.0
 30
0.0
 11
1999.0
 21
2915.0
 31
0.0
  0
LINE
  5
162
330
1F
100
AcDbEntity
  8
枠_
  6
CONTINUOUS
 62
     7
100
AcDbLine
 10
179.0
 20
335.0
 30
0.0
 11
1999.0
 21
335.0
 31
0.0
  0
LINE
  5
163
330
1F
100
AcDbEntity
  8
枠_
  6
CONTINUOUS
 62
     7
100
AcDbLine
 10
179.0
 20
115.0
 30
0.0
 11
1999.0
 21
115.0
 31
0.0
  0
LINE
  5
164
330
1F
100
AcDbEntity
  8
枠_
  6
CONTINUOUS
 62
     7
100
AcDbLine
 10
179.0
 20
115.0
 30
0.0
 11
179.0
 21
2915.0
 31
0.0
  0
LINE
  5
165
330
1F
100
AcDbEntity
  8
枠_
  6
CONTINUOUS
 62
     6
100
AcDbLine
 10
1999.0
 20
215.0
 30
0.0
 11
749.0
 21
215.0
 31
0.0
  0
TEXT
  5
166
330
1F
100
AcDbEntity
  8
枠_
  6
CONTINUOUS
 62
     2
100
AcDbText
 10
1519.0
 20
245.0
 30
0.0
 40
60.0
  1
Ｌ８１０
 41
1.065217391304348
  7
EXCADSTD
 72
     5
 11
1729.0
 21
245.0
 31
0.0
100
AcDbText
  0
ARC
  5
167
330
1F
100
AcDbEntity
  8
枠_
  6
CONTINUOUS
 62
     2
100
AcDbCircle
 10
1177.254662377
 20
232.7616559414
 30
0.0
 40
8.802341196146006
100
AcDbArc
 50
217.6316802396001
 51
309.0122025121001
  0
ARC
  5
168
330
1F
100
AcDbEntity
  8
枠_
  6
CONTINUOUS
 62
     2
100
AcDbCircle
 10
1166.987898278
 20
245.4345342
 30
0.0
 40
25.11210172220001
100
AcDbArc
 50
309.0122025121001
 51
28.16590414281999
  0
ARC
  5
169
330
1F
100
AcDbEntity
  8
枠_
  6
CONTINUOUS
 62
     2
100
AcDbCircle
 10
1193.945337623
 20
232.7616559414
 30
0.0
 40
8.802341196146006
100
AcDbArc
 50
230.9877974879001
 51
322.3683197604001
  0
ARC
  5
16A
330
1F
100
AcDbEntity
  8
枠_
  6
CONTINUOUS
 62
     2
100
AcDbCircle
 10
1185.6
 20
255.4
 30
0.0
 40
4.0
100
AcDbArc
 50
28.16590414281999
 51
151.8340958572
  0
ARC
  5
16B
330
1F
100
AcDbEntity
  8
枠_
  6
CONTINUOUS
 62
     2
100
AcDbCircle
 10
1204.212101722
 20
245.4345342
 30
0.0
 40
25.11210172220001
100
AcDbArc
 50
151.8340958572
 51
230.9877974879001
  0
TEXT
  5
16C
330
1F
100
AcDbEntity
  8
枠_
  6
CONTINUOUS
 62
     2
100
AcDbText
 10
899.0
 20
268.0
 30
0.0
 40
60.0
  1
隅付大形手洗器
 41
1.109756097560975
  7
EXCADSTD
 72
     5
 11
1289.0
 21
268.0
 31
0.0
100
AcDbText
  0
TEXT
  5
16D
330
1F
100
AcDbEntity
  8
枠_
  6
CONTINUOUS
 62
     2
100
AcDbText
 10
945.25
 20
218.5
 30
0.0
 40
45.0
  1
（容量３.０  ）
 41
0.8842887473460721
  7
EXCADSTD
 72
     5
 11
1242.75
 21
218.5
 31
0.0
100
AcDbText
  0
TEXT
  5
16E
330
1F
100
AcDbEntity
  8
枠_
  6
CONTINUOUS
 62
     2
100
AcDbText
 10
1246.002929699983
 20
2505.497732745774
 30
0.0
 40
40.0
  1
ＮＴ７ＡＢＷ１
 41
0.9390243902439025
  7
EXCADSTD
 72
     5
 11
1466.002929699983
 21
2505.497732745774
 31
0.0
100
AcDbText
  0
TEXT
  5
16F
330
1F
100
AcDbEntity
  8
枠_
  6
CONTINUOUS
 62
     2
100
AcDbText
 10
1246.002929699983
 20
2717.499028864574
 30
0.0
 40
40.0
  1
Ｌ８１０ ＢＷ１
 41
0.8385416666666667
  7
EXCADSTD
 72
     5
 11
1476.002929699983
 21
2717.499028864574
 31
0.0
100
AcDbText
  0
DIMENSION
  5
171
330
1F
100
AcDbEntity
  8
枠_
  6
CONTINUOUS
 62
     3
100
AcDbDimension
  2
*D15
 10
1380.6136169
 20
863.9
 30
0.0
 11
1298.1136169
 21
887.3999999403953
 31
0.0
 70
   160
  3
ISO-25
100
AcDbAlignedDimension
 13
1215.6136169
 23
907.2966309
 33
0.0
 14
1380.6136169
 24
912.0
 34
0.0
100
AcDbRotatedDimension
1001
ACAD
1000
DSTYLE
1002
{
1070
   270
1070
     2
1070
     6
1000
EX_NORM
1070
     7
1000
EX_NORM
1070
    41
1040
30.0
1070
    42
1040
0.0
1070
    44
1040
0.0
1070
    73
1070
     0
1070
    74
1070
     0
1070
    75
1070
     1
1070
    76
1070
     1
1070
    77
1070
     1
1070
    78
1070
     0
1070
   140
1040
40.0
1070
   147
1040
0.0
1070
   173
1070
     1
1070
   176
1070
     3
1070
   177
1070
     3
1070
   178
1070
     2
1070
   271
1070
     0
1070
   277
1070
     2
1070
   279
1070
     2
1070
   280
1070
     0
1070
   287
1070
     5
1070
   340
1005
170
1002
}
  0
TEXT
  5
17D
330
1F
100
AcDbEntity
  8
枠_
  6
CONTINUOUS
 62
     2
100
AcDbText
 10
1246.002929699983
 20
2611.498380805175
 30
0.0
 40
40.0
  1
ＪＬ２ＭＹ
 41
0.9655172413793103
  7
EXCADSTD
 72
     5
 11
1406.002929699983
 21
2611.498380805175
 31
0.0
100
AcDbText
  0
TEXT
  5
17E
330
1F
100
AcDbEntity
  8
枠_
  6
CONTINUOUS
 62
     2
100
AcDbText
 10
1246.002929699983
 20
2269.497084686374
 30
0.0
 40
40.0
  1
ＪＬ２００Ｔ４ＷＭＹ
 41
0.7118644067796611
  7
EXCADSTD
 72
     5
 11
1486.002929699983
 21
2269.497084686374
 31
0.0
100
AcDbText
  0
TEXT
  5
17F
330
1F
100
AcDbEntity
  8
枠_
  6
CONTINUOUS
 62
     6
100
AcDbText
 10
248.069116056949
 20
124.4500732
 30
0.0
 40
30.0
  1
3
 41
0.4683823529411765
  7
EXCADSTD
 72
     5
 11
259.444116056949
 21
124.4500732
 31
0.0
100
AcDbText
  0
TEXT
  5
180
330
1F
100
AcDbEntity
  8
枠_
  6
CONTINUOUS
 62
     6
100
AcDbText
 10
187.1441162000001
 20
124.4500732
 30
0.0
 40
30.0
  1
'23
 41
0.4689784042553192
  7
EXCADSTD
 72
     5
 11
218.6326662000001
 21
124.4500732
 31
0.0
100
AcDbText
  0
TEXT
  5
181
330
1F
100
AcDbEntity
  8
枠_
  6
CONTINUOUS
 62
     6
100
AcDbText
 10
292.8941159138976
 20
123.9500732
 30
0.0
 40
30.0
  1
27
 41
0.408648648648649
  7
EXCADSTD
 72
     5
 11
314.4941159138976
 21
123.9500732
 31
0.0
100
AcDbText
  0
TEXT
  5
182
330
1F
100
AcDbEntity
  8
枠_
  6
CONTINUOUS
 62
     7
100
AcDbText
 10
1464.0
 20
131.5000000000001
 30
0.0
 40
70.0
  1
Ｌ０８１００１５０
 41
0.9622641509433962
  7
EXCADSTD
 72
     5
 11
1974.0
 21
131.5000000000001
 31
0.0
100
AcDbText
  0
CIRCLE
  5
183
330
1F
100
AcDbEntity
  8
洗面器
  6
CONTINUOUS
 62
     6
100
AcDbCircle
 10
1215.6139221
 20
1974.7961731
 30
0.0
 40
17.50000000000001
  0
CIRCLE
  5
184
330
1F
100
AcDbEntity
  8
洗面器
  6
CONTINUOUS
 62
     6
100
AcDbCircle
 10
1215.6139221
 20
1974.7961731
 30
0.0
 40
26.99999810000001
  0
LINE
  5
185
330
1F
100
AcDbEntity
  8
洗面器
  6
CONTINUOUS
 62
     6
100
AcDbLine
 10
1226.9277039
 20
1963.4823914
 30
0.0
 11
1247.4138489
 21
1942.9962463
 31
0.0
  0
LINE
  5
186
330
1F
100
AcDbEntity
  8
洗面器
  6
CONTINUOUS
 62
     6
100
AcDbLine
 10
1185.5068054
 20
2004.9032898
 30
0.0
 11
1204.3001404
 21
1986.1099548
 31
0.0
  0
ARC
  5
187
330
1F
100
AcDbEntity
  8
洗面器
  6
CONTINUOUS
 62
     6
100
AcDbCircle
 10
1139.6134033
 20
2121.2964172
 30
0.0
 40
7.500000000000004
100
AcDbArc
 50
180.0
 51
0.0
  0
ARC
  5
188
330
1F
100
AcDbEntity
  8
洗面器
  6
CONTINUOUS
 62
     6
100
AcDbCircle
 10
1264.6134033
 20
2121.2964172
 30
0.0
 40
7.500000000000004
100
AcDbArc
 50
180.0
 51
0.0
  0
LINE
  5
189
330
1F
100
AcDbEntity
  8
洗面器
  6
CONTINUOUS
 62
     6
100
AcDbLine
 10
1132.1134033
 20
2121.2964172
 30
0.0
 11
1147.1134033
 21
2121.2964172
 31
0.0
  0
LINE
  5
18A
330
1F
100
AcDbEntity
  8
洗面器
  6
CONTINUOUS
 62
     6
100
AcDbLine
 10
1257.1134033
 20
2121.2964172
 30
0.0
 11
1272.1134033
 21
2121.2964172
 31
0.0
  0
ARC
  5
18B
330
1F
100
AcDbEntity
  8
洗面器
  6
CONTINUOUS
 62
     6
100
AcDbCircle
 10
1362.1134033
 20
2023.7964172
 30
0.0
 40
7.500000000000004
100
AcDbArc
 50
90.00000000000001
 51
270.0000000000002
  0
ARC
  5
18C
330
1F
100
AcDbEntity
  8
洗面器
  6
CONTINUOUS
 62
     6
100
AcDbCircle
 10
1362.1134033
 20
1898.7964172
 30
0.0
 40
7.500000000000004
100
AcDbArc
 50
90.00000000000001
 51
270.0000000000002
  0
LINE
  5
18D
330
1F
100
AcDbEntity
  8
洗面器
  6
CONTINUOUS
 62
     6
100
AcDbLine
 10
1362.1134033
 20
1891.2964172
 30
0.0
 11
1362.1134033
 21
1906.2964172
 31
0.0
  0
LINE
  5
18E
330
1F
100
AcDbEntity
  8
洗面器
  6
CONTINUOUS
 62
     6
100
AcDbLine
 10
1362.1134033
 20
2016.2964172
 30
0.0
 11
1362.1134033
 21
2031.2964172
 31
0.0
  0
CIRCLE
  5
18F
330
1F
100
AcDbEntity
  8
洗面器
  6
CONTINUOUS
 62
     6
100
AcDbCircle
 10
1330.6134644
 20
2032.7966614
 30
0.0
 40
6.999999900000002
  0
CIRCLE
  5
190
330
1F
100
AcDbEntity
  8
洗面器
  6
CONTINUOUS
 62
     6
100
AcDbCircle
 10
1330.6134644
 20
2032.7966614
 30
0.0
 40
5.0
  0
CIRCLE
  5
191
330
1F
100
AcDbEntity
  8
洗面器
  6
CONTINUOUS
 62
     6
100
AcDbCircle
 10
1215.6139221
 20
1974.7961731
 30
0.0
 40
3.000000100000001
  0
LINE
  5
192
330
1F
100
AcDbEntity
  8
洗面器
  6
CONTINUOUS
 62
     6
100
AcDbLine
 10
1211.3712158
 20
1979.0388794
 30
0.0
 11
1219.8566284
 21
1970.5534668
 31
0.0
  0
ARC
  5
193
330
1F
100
AcDbEntity
  8
洗面器
  6
CONTINUOUS
 62
     6
100
AcDbCircle
 10
1325.522522
 20
2027.705719
 30
0.0
 40
7.2000003
100
AcDbArc
 50
85.63537597999996
 51
4.364620209999178
  0
ARC
  5
194
330
1F
100
AcDbEntity
  8
洗面器
  6
CONTINUOUS
 62
     6
100
AcDbCircle
 10
1325.522522
 20
2027.705719
 30
0.0
 40
8.3999997
100
AcDbArc
 50
81.36842345999933
 51
8.631582260000444
  0
ARC
  5
195
330
1F
100
AcDbEntity
  8
洗面器
  6
CONTINUOUS
 62
     6
100
AcDbCircle
 10
1220.7050171
 20
1979.8874207
 30
0.0
 40
7.2000003
100
AcDbArc
 50
249.0507202099987
 51
200.951995849999
  0
ARC
  5
196
330
1F
100
AcDbEntity
  8
洗面器
  6
CONTINUOUS
 62
     6
100
AcDbCircle
 10
1220.7050171
 20
1979.8874207
 30
0.0
 40
8.3999997
100
AcDbArc
 50
245.3650817899993
 51
204.6362915000006
  0
CIRCLE
  5
197
330
1F
100
AcDbEntity
  8
洗面器
  6
CONTINUOUS
 62
     6
100
AcDbCircle
 10
1228.2172241
 20
1987.3994751
 30
0.0
 40
1.7500001
  0
CIRCLE
  5
198
330
1F
100
AcDbEntity
  8
洗面器
  6
CONTINUOUS
 62
     6
100
AcDbCircle
 10
1231.3895264
 20
1990.5719299
 30
0.0
 40
1.7500001
  0
CIRCLE
  5
199
330
1F
100
AcDbEntity
  8
洗面器
  6
CONTINUOUS
 62
     6
100
AcDbCircle
 10
1234.9152222
 20
1993.6763306
 30
0.0
 40
1.7500001
  0
CIRCLE
  5
19A
330
1F
100
AcDbEntity
  8
洗面器
  6
CONTINUOUS
 62
     6
100
AcDbCircle
 10
1234.0488281
 20
1998.698761
 30
0.0
 40
1.7500001
  0
CIRCLE
  5
19B
330
1F
100
AcDbEntity
  8
洗面器
  6
CONTINUOUS
 62
     6
100
AcDbCircle
 10
1230.2419128
 20
2001.5993042
 30
0.0
 40
1.7500001
  0
CIRCLE
  5
19C
330
1F
100
AcDbEntity
  8
洗面器
  6
CONTINUOUS
 62
     6
100
AcDbCircle
 10
1226.8883362
 20
2004.9530334
 30
0.0
 40
1.7500001
  0
CIRCLE
  5
19D
330
1F
100
AcDbEntity
  8
洗面器
  6
CONTINUOUS
 62
     6
100
AcDbCircle
 10
1225.8005371
 20
2009.2129822
 30
0.0
 40
1.7500001
  0
CIRCLE
  5
19E
330
1F
100
AcDbEntity
  8
洗面器
  6
CONTINUOUS
 62
     6
100
AcDbCircle
 10
1228.8823547
 20
2013.0198975
 30
0.0
 40
1.7500001
  0
CIRCLE
  5
19F
330
1F
100
AcDbEntity
  8
洗面器
  6
CONTINUOUS
 62
     6
100
AcDbCircle
 10
1232.3267212
 20
2009.8475952
 30
0.0
 40
1.7500001
  0
CIRCLE
  5
1A0
330
1F
100
AcDbEntity
  8
洗面器
  6
CONTINUOUS
 62
     6
100
AcDbCircle
 10
1234.9552002
 20
2006.3125916
 30
0.0
 40
1.7500001
  0
CIRCLE
  5
1A1
330
1F
100
AcDbEntity
  8
洗面器
  6
CONTINUOUS
 62
     6
100
AcDbCircle
 10
1238.0370178
 20
2002.7775879
 30
0.0
 40
1.7500001
  0
CIRCLE
  5
1A2
330
1F
100
AcDbEntity
  8
洗面器
  6
CONTINUOUS
 62
     6
100
AcDbCircle
 10
1240.6654968
 20
1999.2425842
 30
0.0
 40
1.7500001
  0
CIRCLE
  5
1A3
330
1F
100
AcDbEntity
  8
洗面器
  6
CONTINUOUS
 62
     6
100
AcDbCircle
 10
1242.3877563
 20
1994.8919983
 30
0.0
 40
1.7500001
  0
CIRCLE
  5
1A4
330
1F
100
AcDbEntity
  8
洗面器
  6
CONTINUOUS
 62
     6
100
AcDbCircle
 10
1243.7473145
 20
1990.4506226
 30
0.0
 40
1.7500001
  0
CIRCLE
  5
1A5
330
1F
100
AcDbEntity
  8
洗面器
  6
CONTINUOUS
 62
     6
100
AcDbCircle
 10
1245.288147
 20
1985.8279724
 30
0.0
 40
1.7500001
  0
CIRCLE
  5
1A6
330
1F
100
AcDbEntity
  8
洗面器
  6
CONTINUOUS
 62
     6
100
AcDbCircle
 10
1248.3699646
 20
1982.7461548
 30
0.0
 40
1.7500001
  0
CIRCLE
  5
1A7
330
1F
100
AcDbEntity
  8
洗面器
  6
CONTINUOUS
 62
     6
100
AcDbCircle
 10
1252.6300659
 20
1980.661499
 30
0.0
 40
1.7500001
  0
CIRCLE
  5
1A8
330
1F
100
AcDbEntity
  8
洗面器
  6
CONTINUOUS
 62
     6
100
AcDbCircle
 10
1257.3433533
 20
1978.8486023
 30
0.0
 40
1.7500001
  0
CIRCLE
  5
1A9
330
1F
100
AcDbEntity
  8
洗面器
  6
CONTINUOUS
 62
     6
100
AcDbCircle
 10
1261.6034546
 20
1976.9452209
 30
0.0
 40
1.7500001
  0
CIRCLE
  5
1AA
330
1F
100
AcDbEntity
  8
洗面器
  6
CONTINUOUS
 62
     6
100
AcDbCircle
 10
1266.1353149
 20
1975.7669373
 30
0.0
 40
1.7500001
  0
CIRCLE
  5
1AB
330
1F
100
AcDbEntity
  8
洗面器
  6
CONTINUOUS
 62
     6
100
AcDbCircle
 10
1270.6673279
 20
1976.2201233
 30
0.0
 40
1.7500001
  0
CIRCLE
  5
1AC
330
1F
100
AcDbEntity
  8
洗面器
  6
CONTINUOUS
 62
     6
100
AcDbCircle
 10
1275.289978
 20
1977.851593
 30
0.0
 40
1.7500001
  0
CIRCLE
  5
1AD
330
1F
100
AcDbEntity
  8
洗面器
  6
CONTINUOUS
 62
     6
100
AcDbCircle
 10
1278.8329163
 20
1981.0161133
 30
0.0
 40
1.7500001
  0
CIRCLE
  5
1AE
330
1F
100
AcDbEntity
  8
洗面器
  6
CONTINUOUS
 62
     6
100
AcDbCircle
 10
1282.0505371
 20
1984.2338867
 30
0.0
 40
1.7500001
  0
CIRCLE
  5
1AF
330
1F
100
AcDbEntity
  8
洗面器
  6
CONTINUOUS
 62
     6
100
AcDbCircle
 10
1285.1776733
 20
1987.3608704
 30
0.0
 40
1.7500001
  0
CIRCLE
  5
1B0
330
1F
100
AcDbEntity
  8
洗面器
  6
CONTINUOUS
 62
     6
100
AcDbCircle
 10
1288.4407654
 20
1990.6239624
 30
0.0
 40
1.7500001
  0
CIRCLE
  5
1B1
330
1F
100
AcDbEntity
  8
洗面器
  6
CONTINUOUS
 62
     6
100
AcDbCircle
 10
1291.7037048
 20
1993.8870544
 30
0.0
 40
1.7500001
  0
CIRCLE
  5
1B2
330
1F
100
AcDbEntity
  8
洗面器
  6
CONTINUOUS
 62
     6
100
AcDbCircle
 10
1294.7855225
 20
1996.9687195
 30
0.0
 40
1.7500001
  0
CIRCLE
  5
1B3
330
1F
100
AcDbEntity
  8
洗面器
  6
CONTINUOUS
 62
     6
100
AcDbCircle
 10
1297.7767029
 20
1999.9598999
 30
0.0
 40
1.7500001
  0
CIRCLE
  5
1B4
330
1F
100
AcDbEntity
  8
洗面器
  6
CONTINUOUS
 62
     6
100
AcDbCircle
 10
1300.9715881
 20
2003.005249
 30
0.0
 40
1.7500001
  0
CIRCLE
  5
1B5
330
1F
100
AcDbEntity
  8
洗面器
  6
CONTINUOUS
 62
     6
100
AcDbCircle
 10
1304.3027344
 20
2006.4859314
 30
0.0
 40
1.7500001
  0
CIRCLE
  5
1B6
330
1F
100
AcDbEntity
  8
洗面器
  6
CONTINUOUS
 62
     6
100
AcDbCircle
 10
1307.6564636
 20
2009.8396606
 30
0.0
 40
1.7500001
  0
CIRCLE
  5
1B7
330
1F
100
AcDbEntity
  8
洗面器
  6
CONTINUOUS
 62
     6
100
AcDbCircle
 10
1310.8287659
 20
2013.0119629
 30
0.0
 40
1.7500001
  0
CIRCLE
  5
1B8
330
1F
100
AcDbEntity
  8
洗面器
  6
CONTINUOUS
 62
     6
100
AcDbCircle
 10
1313.9559021
 20
2016.1390991
 30
0.0
 40
1.7500001
  0
CIRCLE
  5
1B9
330
1F
100
AcDbEntity
  8
洗面器
  6
CONTINUOUS
 62
     6
100
AcDbCircle
 10
1317.0375671
 20
2019.2209167
 30
0.0
 40
1.7500001
  0
CIRCLE
  5
1BA
330
1F
100
AcDbEntity
  8
洗面器
  6
CONTINUOUS
 62
     6
100
AcDbCircle
 10
1319.8021545
 20
2021.9853516
 30
0.0
 40
1.7500001
  0
LINE
  5
1BB
330
1F
100
AcDbEntity
  8
洗面器
  6
CONTINUOUS
 62
     6
100
AcDbLine
 10
1307.6134338
 20
2127.7
 30
0.0
 11
1307.6134338
 21
2165.796539299999
 31
0.0
  0
LINE
  5
1BC
330
1F
100
AcDbEntity
  8
洗面器
  6
CONTINUOUS
 62
     6
100
AcDbLine
 10
1307.6134338
 20
2107.7
 30
0.0
 11
1307.6134338
 21
2115.7
 31
0.0
  0
ARC
  5
1BD
330
1F
100
AcDbEntity
  8
洗面器
  6
CONTINUOUS
 62
     6
100
AcDbCircle
 10
1166.5391577593
 20
2158.0676459562
 30
0.0
 40
30.00000000000002
100
AcDbArc
 50
153.8349609400004
 51
173.8215332000002
  0
ARC
  5
1BE
330
1F
100
AcDbEntity
  8
洗面器
  6
CONTINUOUS
 62
     6
100
AcDbCircle
 10
1112.6875341593
 20
2158.0676459562
 30
0.0
 40
30.00000000000002
100
AcDbArc
 50
6.178466799999828
 51
26.16503905999964
  0
LINE
  5
1BF
330
1F
100
AcDbEntity
  8
洗面器
  6
CONTINUOUS
 62
     6
100
AcDbLine
 10
1142.5132788593
 20
2139.7965593292
 30
0.0
 11
1142.5132788593
 21
2161.296405756199
 31
0.0
  0
LINE
  5
1C0
330
1F
100
AcDbEntity
  8
洗面器
  6
CONTINUOUS
 62
     6
100
AcDbLine
 10
1136.7134130593
 20
2139.7965625602
 30
0.0
 11
1136.7134130593
 21
2161.296405756199
 31
0.0
  0
ARC
  5
1C1
330
1F
100
AcDbEntity
  8
洗面器
  6
CONTINUOUS
 62
     6
100
AcDbCircle
 10
1291.5391577593
 20
2158.0676459562
 30
0.0
 40
30.00000000000002
100
AcDbArc
 50
153.8349609400004
 51
173.8215332000002
  0
ARC
  5
1C2
330
1F
100
AcDbEntity
  8
洗面器
  6
CONTINUOUS
 62
     6
100
AcDbCircle
 10
1237.6875341593
 20
2158.0676459562
 30
0.0
 40
30.00000000000002
100
AcDbArc
 50
6.178466799999828
 51
26.16503905999964
  0
LINE
  5
1C3
330
1F
100
AcDbEntity
  8
洗面器
  6
CONTINUOUS
 62
     6
100
AcDbLine
 10
1267.5132788593
 20
2139.7964897102
 30
0.0
 11
1267.5132788593
 21
2161.296405756199
 31
0.0
  0
LINE
  5
1C4
330
1F
100
AcDbEntity
  8
洗面器
  6
CONTINUOUS
 62
     6
100
AcDbLine
 10
1261.7134130593
 20
2139.7964929402
 30
0.0
 11
1261.7134130593
 21
2161.296405756199
 31
0.0
  0
ARC
  5
1C5
330
1F
100
AcDbEntity
  8
洗面器
  6
CONTINUOUS
 62
     6
100
AcDbCircle
 10
1398.8855475562
 20
1925.7212561593
 30
0.0
 40
30.00000000000002
100
AcDbArc
 50
276.1784668
 51
296.1650390599999
  0
ARC
  5
1C6
330
1F
100
AcDbEntity
  8
洗面器
  6
CONTINUOUS
 62
     6
100
AcDbCircle
 10
1398.8855475562
 20
1871.8696325593
 30
0.0
 40
30.00000000000002
100
AcDbArc
 50
63.83496094000044
 51
83.82153320000008
  0
ARC
  5
1C7
330
1F
100
AcDbEntity
  8
洗面器
  6
CONTINUOUS
 62
     6
100
AcDbCircle
 10
1398.8855475562
 20
2050.7212561593
 30
0.0
 40
30.00000000000002
100
AcDbArc
 50
276.1784668
 51
296.1650390599996
  0
ARC
  5
1C8
330
1F
100
AcDbEntity
  8
洗面器
  6
CONTINUOUS
 62
     6
100
AcDbCircle
 10
1398.8855475562
 20
1996.8696325593
 30
0.0
 40
30.00000000000002
100
AcDbArc
 50
63.83496094000044
 51
83.82153320000008
  0
LINE
  5
1C9
330
1F
100
AcDbEntity
  8
洗面器
  6
CONTINUOUS
 62
     6
100
AcDbLine
 10
1380.6143913102
 20
2026.6953772593
 30
0.0
 11
1402.1143073562
 21
2026.6953772593
 31
0.0
  0
LINE
  5
1CA
330
1F
100
AcDbEntity
  8
洗面器
  6
CONTINUOUS
 62
     6
100
AcDbLine
 10
1380.6143945402
 20
2020.8955114593
 30
0.0
 11
1402.1143073562
 21
2020.8955114593
 31
0.0
  0
LINE
  5
1CB
330
1F
100
AcDbEntity
  8
洗面器
  6
CONTINUOUS
 62
     6
100
AcDbLine
 10
1380.6144609292
 20
1901.6953772593
 30
0.0
 11
1402.1143073562
 21
1901.6953772593
 31
0.0
  0
LINE
  5
1CC
330
1F
100
AcDbEntity
  8
洗面器
  6
CONTINUOUS
 62
     6
100
AcDbLine
 10
1380.6144641602
 20
1895.8955114593
 30
0.0
 11
1402.1143073562
 21
1895.8955114593
 31
0.0
  0
LINE
  5
1CD
330
1F
100
AcDbEntity
  8
洗面器
  6
EXLTYPE3
 62
     6
100
AcDbLine
 10
1086.9089508
 20
1846.0910492
 30
0.0
 11
1390.4175415
 21
2149.5996399
 31
0.0
  0
ARC
  5
1CE
330
1F
100
AcDbEntity
  8
洗面器
  6
CONTINUOUS
 62
     7
100
AcDbCircle
 10
1300.6134644
 20
1861.8069763
 30
0.0
 40
80.00009540000002
100
AcDbArc
 50
315.0000000000003
 51
0.0
  0
ARC
  5
1CF
330
1F
100
AcDbEntity
  8
洗面器
  6
CONTINUOUS
 62
     7
100
AcDbCircle
 10
1349.8709717
 20
2113.8791199
 30
0.0
 40
360.0
100
AcDbArc
 50
227.1723327600001
 51
253.3371429400003
  0
ARC
  5
1D0
330
1F
100
AcDbEntity
  8
洗面器
  6
CONTINUOUS
 62
     7
100
AcDbCircle
 10
1275.3189697
 20
1864.7967834
 30
0.0
 40
100.0000477
100
AcDbArc
 50
253.3371429400003
 51
314.9999389600001
  0
ARC
  5
1D1
330
1F
100
AcDbEntity
  8
洗面器
  6
CONTINUOUS
 62
     7
100
AcDbCircle
 10
1315.6134644
 20
2074.7964783
 30
0.0
 40
50.00000000000002
100
AcDbArc
 50
0.0
 51
89.99996947999995
  0
ARC
  5
1D2
330
1F
100
AcDbEntity
  8
洗面器
  6
CONTINUOUS
 62
     2
100
AcDbCircle
 10
1315.6134644
 20
2074.7964783
 30
0.0
 40
43.00003049999999
100
AcDbArc
 50
0.0
 51
89.99996947999995
  0
LINE
  5
1D3
330
1F
100
AcDbEntity
  8
洗面器
  6
CONTINUOUS
 62
     7
100
AcDbLine
 10
1097.5231018
 20
2124.7964783
 30
0.0
 11
1315.6134644
 21
2124.7964783
 31
0.0
  0
ARC
  5
1D4
330
1F
100
AcDbEntity
  8
洗面器
  6
CONTINUOUS
 62
     2
100
AcDbCircle
 10
1090.5231323
 20
2037.7966614
 30
0.0
 40
80.0
100
AcDbArc
 50
89.99996948
 51
131.45277405
  0
ARC
  5
1D5
330
1F
100
AcDbEntity
  8
洗面器
  6
CONTINUOUS
 62
     2
100
AcDbCircle
 10
1278.6133423
 20
1849.7064514
 30
0.0
 40
80.00003810000005
100
AcDbArc
 50
318.5472412100003
 51
0.0
  0
ARC
  5
1D6
330
1F
100
AcDbEntity
  8
洗面器
  6
CONTINUOUS
 62
     7
100
AcDbCircle
 10
1285.6133118
 20
1856.7062683
 30
0.0
 40
79.99993320000009
100
AcDbArc
 50
311.4526672399999
 51
0.0
  0
ARC
  5
1D7
330
1F
100
AcDbEntity
  8
洗面器
  6
CONTINUOUS
 62
     7
100
AcDbCircle
 10
1376.6135254
 20
2135.796539299999
 30
0.0
 40
3.999939000000001
100
AcDbArc
 50
0.0
 51
89.99996947999847
  0
LINE
  5
1D8
330
1F
100
AcDbEntity
  8
洗面器
  6
CONTINUOUS
 62
     7
100
AcDbLine
 10
1346.0298767
 20
1794.0858765
 30
0.0
 11
1357.1820679
 21
1805.2382202
 31
0.0
  0
LINE
  5
1D9
330
1F
100
AcDbEntity
  8
洗面器
  6
CONTINUOUS
 62
     7
100
AcDbLine
 10
1046.0550537
 20
2116.3650818
 30
0.0
 11
1034.90271
 21
2105.212738
 31
0.0
  0
LINE
  5
1DA
330
1F
100
AcDbEntity
  8
洗面器
  6
CONTINUOUS
 62
     7
100
AcDbLine
 10
1380.6136169
 20
1861.8069763
 30
0.0
 11
1380.6134644
 21
2135.796539299999
 31
0.0
  0
LINE
  5
1DB
330
1F
100
AcDbEntity
  8
洗面器
  6
CONTINUOUS
 62
     7
100
AcDbLine
 10
1102.6236572
 20
2139.796630899999
 30
0.0
 11
1376.6135254
 21
2139.7964783
 31
0.0
  0
ARC
  5
1DC
330
1F
100
AcDbEntity
  8
洗面器
  6
CONTINUOUS
 62
     7
100
AcDbCircle
 10
1288.6896362
 20
2047.8726501
 30
0.0
 40
270.0000000000002
100
AcDbArc
 50
222.8276214599999
 51
227.17260742
  0
ARC
  5
1DD
330
1F
100
AcDbEntity
  8
洗面器
  6
CONTINUOUS
 62
     7
100
AcDbCircle
 10
1265.267395
 20
1879.4940491
 30
0.0
 40
70.00000000000004
100
AcDbArc
 50
262.0807800300002
 51
350.6192627000003
  0
ARC
  5
1DE
330
1F
100
AcDbEntity
  8
洗面器
  6
CONTINUOUS
 62
     7
100
AcDbCircle
 10
1097.5231018
 20
2044.7964783
 30
0.0
 40
80.0
100
AcDbArc
 50
89.99996948
 51
138.5472717299998
  0
ARC
  5
1DF
330
1F
100
AcDbEntity
  8
洗面器
  6
CONTINUOUS
 62
     7
100
AcDbCircle
 10
1288.6896362
 20
2047.8726501
 30
0.0
 40
240.0000000000002
100
AcDbArc
 50
187.91918945
 51
262.0807800300002
  0
ARC
  5
1E0
330
1F
100
AcDbEntity
  8
洗面器
  6
CONTINUOUS
 62
     7
100
AcDbCircle
 10
1185.3320923
 20
1906.5014954
 30
0.0
 40
150.0000000000001
100
AcDbArc
 50
17.61358642999996
 51
32.05587768999993
  0
ARC
  5
1E1
330
1F
100
AcDbEntity
  8
洗面器
  6
CONTINUOUS
 62
     7
100
AcDbCircle
 10
1156.7386475
 20
1897.423584
 30
0.0
 40
180.0
100
AcDbArc
 50
350.6192073800001
 51
17.61364745999999
  0
ARC
  5
1E2
330
1F
100
AcDbEntity
  8
洗面器
  6
CONTINUOUS
 62
     7
100
AcDbCircle
 10
1105.6134644
 20
2034.5021362
 30
0.0
 40
99.99989510000007
100
AcDbArc
 50
135.0000000000001
 51
196.6628418
  0
ARC
  5
1E3
330
1F
100
AcDbEntity
  8
洗面器
  6
CONTINUOUS
 62
     7
100
AcDbCircle
 10
1102.6236572
 20
2059.7966309
 30
0.0
 40
80.0
100
AcDbArc
 50
89.99996948
 51
135.0000000000001
  0
ARC
  5
1E4
330
1F
100
AcDbEntity
  8
洗面器
  6
CONTINUOUS
 62
     7
100
AcDbCircle
 10
1120.31073
 20
2024.4507141
 30
0.0
 40
69.99999050000001
100
AcDbArc
 50
99.38078307999989
 51
187.9191131599999
  0
ARC
  5
1E5
330
1F
100
AcDbEntity
  8
洗面器
  6
CONTINUOUS
 62
     7
100
AcDbCircle
 10
1354.6958008
 20
2109.0542908
 30
0.0
 40
360.0
100
AcDbArc
 50
196.6628723100001
 51
222.8276214599999
  0
ARC
  5
1E6
330
1F
100
AcDbEntity
  8
洗面器
  6
CONTINUOUS
 62
     7
100
AcDbCircle
 10
1147.3181763
 20
1944.5154114
 30
0.0
 40
150.0000572
100
AcDbArc
 50
57.94409179999991
 51
72.38639831999988
  0
ARC
  5
1E7
330
1F
100
AcDbEntity
  8
洗面器
  6
CONTINUOUS
 62
     7
100
AcDbCircle
 10
1138.2404175
 20
1915.921814
 30
0.0
 40
180.0
100
AcDbArc
 50
72.3863372799999
 51
99.38082885999991
  0
ARC
  5
1E8
330
1F
100
AcDbEntity
  8
洗面器
  6
CONTINUOUS
 62
     7
100
AcDbCircle
 10
1083.6286011
 20
1842.811615
 30
0.0
 40
270.0000000000002
100
AcDbArc
 50
32.05606078999985
 51
42.69578551999993
  0
ARC
  5
1E9
330
1F
100
AcDbEntity
  8
洗面器
  6
CONTINUOUS
 62
     7
100
AcDbCircle
 10
1083.6286011
 20
1842.811615
 30
0.0
 40
270.0000000000002
100
AcDbArc
 50
57.45631408999991
 51
57.94404601999987
  0
LINE
  5
1EA
330
1F
100
AcDbEntity
  8
洗面器
  6
CONTINUOUS
 62
     7
100
AcDbLine
 10
1365.6134644
 20
1856.7064209
 30
0.0
 11
1365.6134644
 21
2074.7964783
 31
0.0
  0
LINE
  5
1EB
330
1F
100
AcDbEntity
  8
洗面器
  6
CONTINUOUS
 62
     2
100
AcDbLine
 10
1090.5231323
 20
2117.7966614
 30
0.0
 11
1131.5938416
 21
2117.7966614
 31
0.0
  0
LINE
  5
1EC
330
1F
100
AcDbEntity
  8
洗面器
  6
CONTINUOUS
 62
     2
100
AcDbLine
 10
1147.6329651
 20
2117.7966614
 30
0.0
 11
1256.5938416
 21
2117.7965088
 31
0.0
  0
LINE
  5
1ED
330
1F
100
AcDbEntity
  8
洗面器
  6
CONTINUOUS
 62
     2
100
AcDbLine
 10
1272.6329651
 20
2117.7965088
 30
0.0
 11
1315.6134644
 21
2117.7965088
 31
0.0
  0
LINE
  5
1EE
330
1F
100
AcDbEntity
  8
洗面器
  6
CONTINUOUS
 62
     2
100
AcDbLine
 10
1358.6136475
 20
1849.7064514
 30
0.0
 11
1358.6136475
 21
1890.7768555
 31
0.0
  0
LINE
  5
1EF
330
1F
100
AcDbEntity
  8
洗面器
  6
CONTINUOUS
 62
     2
100
AcDbLine
 10
1358.6134949
 20
1906.815979
 30
0.0
 11
1358.6133423
 21
2015.7768555
 31
0.0
  0
LINE
  5
1F0
330
1F
100
AcDbEntity
  8
洗面器
  6
CONTINUOUS
 62
     2
100
AcDbLine
 10
1358.6133423
 20
2031.815979
 30
0.0
 11
1358.6133423
 21
2074.7964783
 31
0.0
  0
ARC
  5
1F1
330
1F
100
AcDbEntity
  8
洗面器
  6
CONTINUOUS
 62
     7
100
AcDbCircle
 10
1083.6295166
 20
1842.8106995
 30
0.0
 40
270.0000000000002
100
AcDbArc
 50
47.30421447999993
 51
57.94393920999989
  0
LINE
  5
1F2
330
1F
100
AcDbEntity
  8
洗面器
  6
CONTINUOUS
 62
     7
100
AcDbLine
 10
1380.2567794718
 20
1854.2599485158
 30
0.0
 11
1380.2567794718
 21
1662.0
 31
0.0
  0
CIRCLE
  5
1F3
330
1F
100
AcDbEntity
  8
洗面器
  6
CONTINUOUS
 62
     6
100
AcDbCircle
 10
1139.6135559
 20
1282.6184082
 30
0.0
 40
7.500000000000004
  0
LINE
  5
1F4
330
1F
100
AcDbEntity
  8
洗面器
  6
CONTINUOUS
 62
     6
100
AcDbLine
 10
1139.6135559
 20
1300.1184082
 30
0.0
 11
1139.6135559
 21
1265.6185913
 31
0.0
  0
LINE
  5
1F5
330
1F
100
AcDbEntity
  8
洗面器
  6
CONTINUOUS
 62
     6
100
AcDbLine
 10
1122.1135559
 20
1282.6184082
 30
0.0
 11
1157.1135559
 21
1282.6184082
 31
0.0
  0
ARC
  5
1F6
330
1F
100
AcDbEntity
  8
洗面器
  6
CONTINUOUS
 62
     6
100
AcDbCircle
 10
1398.884701999
 20
1255.692612666
 30
0.0
 40
30.00000000000002
100
AcDbArc
 50
63.83496094000033
 51
83.82153320000064
  0
ARC
  5
1F7
330
1F
100
AcDbEntity
  8
洗面器
  6
CONTINUOUS
 62
     6
100
AcDbCircle
 10
1398.884701999
 20
1309.544236266
 30
0.0
 40
30.00000000000002
100
AcDbArc
 50
276.1784668
 51
296.1650390600004
  0
LINE
  5
1F8
330
1F
100
AcDbEntity
  8
洗面器
  6
CONTINUOUS
 62
     6
100
AcDbLine
 10
1380.613545752
 20
1279.718491566
 30
0.0
 11
1402.113461799
 21
1279.718491566
 31
0.0
  0
LINE
  5
1F9
330
1F
100
AcDbEntity
  8
洗面器
  6
CONTINUOUS
 62
     6
100
AcDbLine
 10
1380.613548983
 20
1285.518357366
 30
0.0
 11
1402.113461799
 21
1285.518357366
 31
0.0
  0
CIRCLE
  5
1FA
330
1F
100
AcDbEntity
  8
洗面器
  6
CONTINUOUS
 62
     6
100
AcDbCircle
 10
1264.6135559
 20
1282.6184082
 30
0.0
 40
7.500000000000004
  0
LINE
  5
1FB
330
1F
100
AcDbEntity
  8
洗面器
  6
CONTINUOUS
 62
     6
100
AcDbLine
 10
1264.6135559
 20
1292.1
 30
0.0
 11
1264.6135559
 21
1272.4
 31
0.0
  0
LINE
  5
1FC
330
1F
100
AcDbEntity
  8
洗面器
  6
CONTINUOUS
 62
     6
100
AcDbLine
 10
1254.4
 20
1282.6184082
 30
0.0
 11
1275.3911438
 21
1282.6184082
 31
0.0
  0
ARC
  5
1FD
330
1F
100
AcDbEntity
  8
洗面器
  6
CONTINUOUS
 62
     7
100
AcDbCircle
 10
1166.8465271
 20
1146.5264893
 30
0.0
 40
9.9999762
100
AcDbArc
 50
8.056658740000014
 51
85.13146972999903
  0
ARC
  5
1FE
330
1F
100
AcDbEntity
  8
洗面器
  6
CONTINUOUS
 62
     7
100
AcDbCircle
 10
1370.7918396
 20
1306.6184998
 30
0.0
 40
6.000061000000003
100
AcDbArc
 50
89.99996947999931
 51
171.6077880900018
  0
ARC
  5
1FF
330
1F
100
AcDbEntity
  8
洗面器
  6
CONTINUOUS
 62
     7
100
AcDbCircle
 10
1323.9900818
 20
1304.5428467
 30
0.0
 40
39.99998090000003
100
AcDbArc
 50
270.9740142800005
 51
351.60791016
  0
ARC
  5
200
330
1F
100
AcDbEntity
  8
洗面器
  6
CONTINUOUS
 62
     7
100
AcDbCircle
 10
1360.6136169
 20
1311.3374329
 30
0.0
 40
19.9999809
100
AcDbArc
 50
325.1475372300006
 51
0.0
  0
ARC
  5
201
330
1F
100
AcDbEntity
  8
洗面器
  6
CONTINUOUS
 62
     7
100
AcDbCircle
 10
1294.9617615
 20
1357.053833
 30
0.0
 40
99.99993320000009
100
AcDbArc
 50
298.9331359900002
 51
325.1482238800002
  0
ARC
  5
202
330
1F
100
AcDbEntity
  8
洗面器
  6
CONTINUOUS
 62
     7
100
AcDbCircle
 10
1012.6131287
 20
1255.891571
 30
0.0
 40
6.999962900000005
100
AcDbArc
 50
89.63027954000162
 51
187.44839478
  0
ARC
  5
203
330
1F
100
AcDbEntity
  8
洗面器
  6
CONTINUOUS
 62
     7
100
AcDbCircle
 10
1018.763031
 20
1208.8540649
 30
0.0
 40
6.999985000000002
100
AcDbArc
 50
187.4484558099998
 51
269.6502685499984
  0
LINE
  5
204
330
1F
100
AcDbEntity
  8
洗面器
  6
CONTINUOUS
 62
     7
100
AcDbLine
 10
1011.822113
 20
1207.9467773
 30
0.0
 11
1005.6722107
 21
1254.9841309
 31
0.0
  0
ARC
  5
205
330
1F
100
AcDbEntity
  8
洗面器
  6
CONTINUOUS
 62
     7
100
AcDbCircle
 10
1097.9183044
 20
14522.4316406
 30
0.0
 40
13320.8105469
100
AcDbArc
 50
269.65943909
 51
271.2161254900001
  0
ARC
  5
206
330
1F
100
AcDbEntity
  8
洗面器
  6
CONTINUOUS
 62
     7
100
AcDbCircle
 10
1064.3953552
 20
765.6185912999998
 30
0.0
 40
500.0000000000003
100
AcDbArc
 50
89.99996948
 51
96.02906798999994
  0
LINE
  5
207
330
1F
100
AcDbEntity
  8
洗面器
  6
CONTINUOUS
 62
     7
100
AcDbLine
 10
1064.3953552
 20
1265.6185913
 30
0.0
 11
1333.203949
 21
1265.6185913
 31
0.0
  0
ARC
  5
208
330
1F
100
AcDbEntity
  8
洗面器
  6
CONTINUOUS
 62
     7
100
AcDbCircle
 10
1097.9183044
 20
14583.4301758
 30
0.0
 40
13320.8105469
100
AcDbArc
 50
269.7053375200002
 51
270.9753723100002
  0
ARC
  5
209
330
1F
100
AcDbEntity
  8
洗面器
  6
CONTINUOUS
 62
     7
100
AcDbCircle
 10
1021.7879334
 20
1313.9657593
 30
0.0
 40
49.99996190000006
100
AcDbArc
 50
274.44297791
 51
308.52668762
  0
ARC
  5
20A
330
1F
100
AcDbEntity
  8
洗面器
  6
CONTINUOUS
 62
     7
100
AcDbCircle
 10
1146.3631287
 20
1157.5016785
 30
0.0
 40
149.9999905000001
100
AcDbArc
 50
96.29014586999996
 51
128.52644348
  0
ARC
  5
20B
330
1F
100
AcDbEntity
  8
洗面器
  6
CONTINUOUS
 62
     7
100
AcDbCircle
 10
1239.4881287
 20
312.6184081999999
 30
0.0
 40
1000.000000000001
100
AcDbArc
 50
89.99996948
 51
96.28997802999999
  0
ARC
  5
20C
330
1F
100
AcDbEntity
  8
洗面器
  6
CONTINUOUS
 62
     7
100
AcDbCircle
 10
1041.978363
 20
1194.736023
 30
0.0
 40
6.999977200000004
100
AcDbArc
 50
55.13381958000027
 51
89.76016234999973
  0
ARC
  5
20D
330
1F
100
AcDbEntity
  8
洗面器
  6
CONTINUOUS
 62
     7
100
AcDbCircle
 10
1188.9143982
 20
1405.5883789
 30
0.0
 40
250.0000000000002
100
AcDbArc
 50
235.1287384
 51
265.1310882600001
  0
ARC
  5
20E
330
1F
100
AcDbEntity
  8
洗面器
  6
CONTINUOUS
 62
     7
100
AcDbCircle
 10
1182.3494568
 20
1122.6184082
 30
0.0
 40
2.000025500000001
100
AcDbArc
 50
188.0565490700002
 51
270.0000305199978
  0
LINE
  5
20F
330
1F
100
AcDbEntity
  8
洗面器
  6
CONTINUOUS
 62
     7
100
AcDbLine
 10
1180.3694763
 20
1122.3382568
 30
0.0
 11
1176.7488709
 21
1147.9281616
 31
0.0
  0
LINE
  5
210
330
1F
100
AcDbEntity
  8
洗面器
  6
CONTINUOUS
 62
     7
100
AcDbLine
 10
1182.3494568
 20
1120.6185913
 30
0.0
 11
1248.8777771
 21
1120.6185913
 31
0.0
  0
ARC
  5
211
330
1F
100
AcDbEntity
  8
洗面器
  6
CONTINUOUS
 62
     7
100
AcDbCircle
 10
1215.6136169
 20
1653.1652832
 30
0.0
 40
500.0000000000003
100
AcDbArc
 50
265.9860534700001
 51
275.6103973400002
  0
ARC
  5
212
330
1F
100
AcDbEntity
  8
洗面器
  6
CONTINUOUS
 62
     7
100
AcDbCircle
 10
1339.8055115
 20
1196.8141174
 30
0.0
 40
6.999922400000004
100
AcDbArc
 50
91.04920958999993
 51
150.1304473900002
  0
ARC
  5
213
330
1F
100
AcDbEntity
  8
洗面器
  6
CONTINUOUS
 62
     7
100
AcDbCircle
 10
1255.6941834
 20
1245.1293945
 30
0.0
 40
90.00006680000003
100
AcDbArc
 50
275.61039734
 51
330.1262207000003
  0
ARC
  5
214
330
1F
100
AcDbEntity
  8
洗面器
  6
CONTINUOUS
 62
     7
100
AcDbCircle
 10
1217.4324646
 20
1219.7012329
 30
0.0
 40
99.99994280000007
100
AcDbArc
 50
288.3770599400003
 51
329.4863433800001
  0
ARC
  5
215
330
1F
100
AcDbEntity
  8
洗面器
  6
CONTINUOUS
 62
     7
100
AcDbCircle
 10
1255.8479919
 20
1121.9812012
 30
0.0
 40
5.000026200000002
100
AcDbArc
 50
111.4669799799999
 51
174.77693176
  0
ARC
  5
216
330
1F
100
AcDbEntity
  8
洗面器
  6
CONTINUOUS
 62
     7
100
AcDbCircle
 10
1248.8777771
 20
1122.6184082
 30
0.0
 40
1.9999695
100
AcDbArc
 50
270.0000305200059
 51
354.7778625499992
  0
LINE
  5
217
330
1F
100
AcDbEntity
  8
洗面器
  6
CONTINUOUS
 62
     7
100
AcDbLine
 10
1364.8592224
 20
1307.4938965
 30
0.0
 11
1363.5603943
 21
1298.7049866
 31
0.0
  0
LINE
  5
218
330
1F
100
AcDbEntity
  8
洗面器
  6
CONTINUOUS
 62
     7
100
AcDbLine
 10
1239.4881287
 20
1312.6184082
 30
0.0
 11
1260.876222882271
 21
1312.6184082
 31
0.0
  0
LINE
  5
219
330
1F
100
AcDbEntity
  8
洗面器
  6
CONTINUOUS
 62
     7
100
AcDbLine
 10
1272.651065733288
 20
1312.6184082
 30
0.0
 11
1294.8631280755
 21
1312.6184082
 31
0.0
  0
LINE
  5
21A
330
1F
100
AcDbEntity
  8
洗面器
  6
CONTINUOUS
 62
     7
100
AcDbLine
 10
1320.3528179852
 20
1312.6184082
 30
0.0
 11
1380.6136169
 21
1312.6184082
 31
0.0
  0
LINE
  5
21B
330
1F
100
AcDbEntity
  8
洗面器
  6
CONTINUOUS
 62
     7
100
AcDbLine
 10
1380.6136169
 20
502.7966309
 30
0.0
 11
1380.613616899999
 21
1598.0
 31
0.0
  0
LINE
  5
21C
330
1F
100
AcDbEntity
  8
洗面器
  6
CONTINUOUS
 62
     7
100
AcDbLine
 10
1110.0000004437
 20
2139.7966267917
 30
0.0
 11
580.613616899999
 21
2139.7966267917
 31
0.0
  0
LINE
  5
21D
330
1F
100
AcDbEntity
  8
洗面器
  6
CONTINUOUS
 62
     7
100
AcDbLine
 10
580.6136168999986
 20
502.7966308999999
 30
0.0
 11
1380.6136169
 21
502.7966309
 31
0.0
  0
TEXT
  5
21E
330
1F
100
AcDbEntity
  8
洗面器
  6
CONTINUOUS
 62
     2
100
AcDbText
 10
578.6633910999997
 20
2095.2051086
 30
0.0
 40
40.0
  1
Ｗ.Ｌ.
 41
1.120673076923077
  7
EXCADSTD
 72
     5
 11
689.6633910999997
 21
2095.2051086
 31
0.0
100
AcDbText
  0
CIRCLE
  5
21F
330
1F
100
AcDbEntity
  8
水栓
  6
CONTINUOUS
 62
     6
100
AcDbCircle
 10
1307.6134338
 20
2066.7955322
 30
0.0
 40
5.5000305
  0
CIRCLE
  5
220
330
1F
100
AcDbEntity
  8
水栓
  6
CONTINUOUS
 62
     6
100
AcDbCircle
 10
1307.6134338
 20
2066.7955322
 30
0.0
 40
6.999969500000002
  0
ARC
  5
221
330
1F
100
AcDbEntity
  8
水栓
  6
CONTINUOUS
 62
     6
100
AcDbCircle
 10
1307.6134338
 20
2066.7955322
 30
0.0
 40
20.0000381
100
AcDbArc
 50
298.3380770414001
 51
9.66231665344969
  0
ARC
  5
222
330
1F
100
AcDbEntity
  8
水栓
  6
CONTINUOUS
 62
     6
100
AcDbCircle
 10
1307.61358639993
 20
2066.795796510881
 30
0.0
 40
19.9999809
100
AcDbArc
 50
58.33695541631968
 51
129.6627023981
  0
ARC
  5
223
330
1F
100
AcDbEntity
  8
水栓
  6
CONTINUOUS
 62
     6
100
AcDbCircle
 10
1099.180871047845
 20
2202.72371336144
 30
0.0
 40
235.0000000000002
100
AcDbArc
 50
315.0000171700003
 51
324.2269471008005
  0
ARC
  5
224
330
1F
100
AcDbEntity
  8
水栓
  6
CONTINUOUS
 62
     6
100
AcDbCircle
 10
1443.542598063726
 20
1858.363647935204
 30
0.0
 40
235.0000000000002
100
AcDbArc
 50
127.1699116934
 51
135.0000457800001
  0
ARC
  5
225
330
1F
100
AcDbEntity
  8
水栓
  6
CONTINUOUS
 62
     6
100
AcDbCircle
 10
1165.507302608214
 20
2128.689667708752
 30
0.0
 40
134.9999237
100
AcDbArc
 50
315.0000343300003
 51
333.5348057256007
  0
ARC
  5
226
330
1F
100
AcDbEntity
  8
水栓
  6
CONTINUOUS
 62
     6
100
AcDbCircle
 10
1369.508426649301
 20
1924.689891549164
 30
0.0
 40
135.0000954
100
AcDbArc
 50
119.5792429201
 51
135.0000457800001
  0
LINE
  5
227
330
1F
100
AcDbEntity
  8
水栓
  6
CONTINUOUS
 62
     6
100
AcDbLine
 10
1315.218334217724
 20
2040.572386671779
 30
0.0
 11
1318.636047412777
 21
2056.171516388515
 31
0.0
  0
ARC
  5
228
330
1F
100
AcDbEntity
  8
水栓
  6
CONTINUOUS
 62
     6
100
AcDbCircle
 10
1338.172592249061
 20
2051.891108005751
 30
0.0
 40
20.0000286
100
AcDbArc
 50
140.3576660199992
 51
167.6419220000003
  0
LINE
  5
229
330
1F
100
AcDbEntity
  8
水栓
  6
CONTINUOUS
 62
     6
100
AcDbLine
 10
1322.771726174484
 20
2064.650980904856
 30
0.0
 11
1332.959602138242
 21
2076.947390743381
 31
0.0
  0
ARC
  5
22A
330
1F
100
AcDbEntity
  8
水栓
  6
CONTINUOUS
 62
     6
100
AcDbCircle
 10
1328.33943367139
 20
2080.775359021362
 30
0.0
 40
5.9999418
100
AcDbArc
 50
320.3570861800038
 51
107.6433105499979
  0
LINE
  5
22B
330
1F
100
AcDbEntity
  8
水栓
  6
CONTINUOUS
 62
     6
100
AcDbLine
 10
1326.520900186576
 20
2086.493121219416
 30
0.0
 11
1311.30324954217
 21
2081.653322565519
 31
0.0
  0
ARC
  5
22C
330
1F
100
AcDbEntity
  8
水栓
  6
CONTINUOUS
 62
     6
100
AcDbCircle
 10
1305.241717947844
 20
2100.712649057426
 30
0.0
 40
19.9999619
100
AcDbArc
 50
260.3560943600014
 51
287.6425323500014
  0
LINE
  5
22D
330
1F
100
AcDbEntity
  8
水栓
  6
CONTINUOUS
 62
     6
100
AcDbLine
 10
1301.891255002744
 20
2080.995324765981
 30
0.0
 11
1286.148729969898
 21
2083.670330010191
 31
0.0
  0
ARC
  5
22E
330
1F
100
AcDbEntity
  8
水栓
  6
CONTINUOUS
 62
     6
100
AcDbCircle
 10
1285.143653023605
 20
2077.755121736519
 30
0.0
 40
5.999989500000001
100
AcDbArc
 50
80.35670471000044
 51
227.6418914799997
  0
LINE
  5
22F
330
1F
100
AcDbEntity
  8
水栓
  6
CONTINUOUS
 62
     6
100
AcDbLine
 10
1281.101045706023
 20
2073.321393165351
 30
0.0
 11
1292.90145038528
 21
2062.561941801776
 31
0.0
  0
ARC
  5
230
330
1F
100
AcDbEntity
  8
水栓
  6
CONTINUOUS
 62
     6
100
AcDbCircle
 10
1279.426132686774
 20
2047.783002402958
 30
0.0
 40
20.0000191
100
AcDbArc
 50
20.35711669999962
 51
47.6416931199992
  0
LINE
  5
231
330
1F
100
AcDbEntity
  8
水栓
  6
CONTINUOUS
 62
     6
100
AcDbLine
 10
1298.177005121385
 20
2054.74042186776
 30
0.0
 11
1303.732100230457
 21
2039.769190947813
 31
0.0
  0
ARC
  5
232
330
1F
100
AcDbEntity
  8
水栓
  6
CONTINUOUS
 62
     6
100
AcDbCircle
 10
1309.357345643603
 20
2041.856430943504
 30
0.0
 40
5.999996700000001
100
AcDbArc
 50
200.3573150599997
 51
347.6427002000013
  0
ARC
  5
233
330
1F
100
AcDbEntity
  8
水栓
  6
CONTINUOUS
 62
     6
100
AcDbCircle
 10
1248.881591683029
 20
2016.902657139137
 30
0.0
 40
2.999995900000002
100
AcDbArc
 50
135.001785279997
 51
203.4273223900022
  0
ARC
  5
234
330
1F
100
AcDbEntity
  8
水栓
  6
CONTINUOUS
 62
     6
100
AcDbCircle
 10
1264.479985315189
 20
2023.661993826437
 30
0.0
 40
20.0000286
100
AcDbArc
 50
203.42857361
 51
246.5714263900012
  0
ARC
  5
235
330
1F
100
AcDbEntity
  8
水栓
  6
CONTINUOUS
 62
     6
100
AcDbCircle
 10
1257.7206963278
 20
2008.063570677141
 30
0.0
 40
3.0000561
100
AcDbArc
 50
246.5712585499993
 51
314.9989471399974
  0
LINE
  5
236
330
1F
100
AcDbEntity
  8
水栓
  6
CONTINUOUS
 62
     6
100
AcDbLine
 10
1246.76028066147
 20
2019.023977044109
 30
0.0
 11
1260.966711801366
 21
2033.230348691907
 31
0.0
  0
LINE
  5
237
330
1F
100
AcDbEntity
  8
水栓
  6
CONTINUOUS
 62
     6
100
AcDbLine
 10
1246.053728074727
 20
2017.256512415404
 30
0.0
 11
1265.35091179434
 21
2036.553681230339
 31
0.0
  0
LINE
  5
238
330
1F
100
AcDbEntity
  8
水栓
  6
CONTINUOUS
 62
     6
100
AcDbLine
 10
1257.908275786478
 20
2005.069384552382
 30
0.0
 11
1277.372557267243
 21
2024.533679979808
 31
0.0
  0
LINE
  5
239
330
1F
100
AcDbEntity
  8
水栓
  6
CONTINUOUS
 62
     6
100
AcDbLine
 10
1259.64502767357
 20
2005.745212600521
 30
0.0
 11
1274.049017542747
 21
2020.149210516028
 31
0.0
  0
LINE
  5
23A
330
1F
100
AcDbEntity
  8
水栓
  6
EXLTYPE3
 62
     6
100
AcDbLine
 10
1307.6134338
 20
2099.4398193
 30
0.0
 11
1307.6134338
 21
2028.9398193
 31
0.0
  0
ARC
  5
23B
330
1F
100
AcDbEntity
  8
水栓
  6
CONTINUOUS
 62
     7
100
AcDbCircle
 10
1201.5390011391
 20
1929.309577586999
 30
0.0
 40
141.0744326609001
100
AcDbArc
 50
59.42445925510408
 51
72.02691636494008
  0
ARC
  5
23C
330
1F
100
AcDbEntity
  8
水栓
  6
CONTINUOUS
 62
     6
100
AcDbCircle
 10
1307.6134338
 20
1329.2356872
 30
0.0
 40
5.532779100000004
100
AcDbArc
 50
7.000166889999958
 51
172.9998321500001
  0
ARC
  5
23D
330
1F
100
AcDbEntity
  8
水栓
  6
CONTINUOUS
 62
     6
100
AcDbCircle
 10
1231.4142042446
 20
1245.0515830428
 30
0.0
 40
62.06800678490004
100
AcDbArc
 50
19.35149296306003
 51
54.12408288019837
  0
ARC
  5
23E
330
1F
100
AcDbEntity
  8
水栓
  6
CONTINUOUS
 62
     6
100
AcDbCircle
 10
1182.241389562094
 20
1122.712029258719
 30
0.0
 40
200.0
100
AcDbArc
 50
45.60492433872655
 51
60.65620125078471
  0
LINE
  5
23F
330
1F
100
AcDbEntity
  8
水栓
  6
CONTINUOUS
 62
     6
100
AcDbLine
 10
1279.9629821
 20
1324.119075632399
 30
0.0
 11
1335.264038
 21
1324.119075632399
 31
0.0
  0
LINE
  5
240
330
1F
100
AcDbEntity
  8
水栓
  6
CONTINUOUS
 62
     6
100
AcDbLine
 10
1279.9629821
 20
1324.119075632399
 30
0.0
 11
1280.5216064
 21
1328.6692465324
 31
0.0
  0
ARC
  5
241
330
1F
100
AcDbEntity
  8
水栓
  6
CONTINUOUS
 62
     6
100
AcDbCircle
 10
1286.4769592
 20
1327.9380453324
 30
0.0
 40
6.000000200000002
100
AcDbArc
 50
98.80786132999947
 51
173.0002288799988
  0
ARC
  5
242
330
1F
100
AcDbEntity
  8
水栓
  6
CONTINUOUS
 62
     6
100
AcDbCircle
 10
1316.1846008
 20
1136.2261618324
 30
0.0
 40
200.0
100
AcDbArc
 50
94.46531677
 51
98.80847168000001
  0
ARC
  5
243
330
1F
100
AcDbEntity
  8
水栓
  6
CONTINUOUS
 62
     6
100
AcDbCircle
 10
1299.042572
 20
1136.2260092324
 30
0.0
 40
200.0
100
AcDbArc
 50
81.19152831999999
 51
85.53477477999998
  0
ARC
  5
244
330
1F
100
AcDbEntity
  8
水栓
  6
CONTINUOUS
 62
     6
100
AcDbCircle
 10
1328.750061
 20
1327.9378927324
 30
0.0
 40
6.000000200000002
100
AcDbArc
 50
6.999770160000155
 51
81.19068908999972
  0
LINE
  5
245
330
1F
100
AcDbEntity
  8
水栓
  6
CONTINUOUS
 62
     6
100
AcDbLine
 10
1335.264038
 20
1324.119075632399
 30
0.0
 11
1334.7054138
 21
1328.6690939324
 31
0.0
  0
LINE
  5
246
330
1F
100
AcDbEntity
  8
水栓
  6
CONTINUOUS
 62
     6
100
AcDbLine
 10
1301.410807860805
 20
1324.119075632399
 30
0.0
 11
1302.1219482
 21
1329.9099731
 31
0.0
  0
LINE
  5
247
330
1F
100
AcDbEntity
  8
水栓
  6
CONTINUOUS
 62
     6
100
AcDbLine
 10
1313.815998958808
 20
1324.119075632399
 30
0.0
 11
1313.105072
 21
1329.9099731
 31
0.0
  0
LINE
  5
248
330
1F
100
AcDbEntity
  8
水栓
  6
CONTINUOUS
 62
     6
100
AcDbLine
 10
1319.357449681876
 20
1304.3183693108
 30
0.0
 11
1327.6134338
 21
1265.6185913
 31
0.0
  0
ARC
  5
249
330
1F
100
AcDbEntity
  8
水栓
  6
CONTINUOUS
 62
     6
100
AcDbCircle
 10
1275.14285955254
 20
1287.9388500283
 30
0.0
 40
10.3981917827
100
AcDbArc
 50
60.57591286987975
 51
127.9958358185412
  0
ARC
  5
24A
330
1F
100
AcDbEntity
  8
水栓
  6
CONTINUOUS
 62
     6
100
AcDbCircle
 10
1262.9577886816
 20
1184.7715104463
 30
0.0
 40
128.213840459
100
AcDbArc
 50
66.4096831144899
 51
89.4553942418053
  0
ARC
  5
24B
330
1F
100
AcDbEntity
  8
水栓
  6
CONTINUOUS
 62
     6
100
AcDbCircle
 10
1264.35858362444
 20
1295.9818910909
 30
0.0
 40
16.9970743912
100
AcDbArc
 50
90.61397320745004
 51
135.0886281856
  0
ARC
  5
24C
330
1F
100
AcDbEntity
  8
水栓
  6
CONTINUOUS
 62
     6
100
AcDbCircle
 10
1275.57488916671
 20
1295.3726599414
 30
0.0
 40
16.9970743912
100
AcDbArc
 50
90.61397320745004
 51
135.0886281856
  0
LINE
  5
24D
330
1F
100
AcDbEntity
  8
水栓
  6
CONTINUOUS
 62
     6
100
AcDbLine
 10
1257.7206963278
 20
1301.6820186329
 30
0.0
 11
1245.88166127596
 21
1301.6820186329
 31
0.0
  0
LINE
  5
24E
330
1F
100
AcDbEntity
  8
水栓
  6
CONTINUOUS
 62
     6
100
AcDbLine
 10
1263.27918914606
 20
1291.6191873309
 30
0.0
 11
1257.7206963278
 21
1301.6820186329
 31
0.0
  0
LINE
  5
24F
330
1F
100
AcDbEntity
  8
水栓
  6
CONTINUOUS
 62
     6
100
AcDbLine
 10
1251.44015409422
 20
1291.6191873309
 30
0.0
 11
1245.88166127596
 21
1301.6820186329
 31
0.0
  0
LINE
  5
250
330
1F
100
AcDbEntity
  8
水栓
  6
CONTINUOUS
 62
     6
100
AcDbLine
 10
1251.44015409422
 20
1291.6191873309
 30
0.0
 11
1263.27918914606
 21
1291.6191873309
 31
0.0
  0
LINE
  5
251
330
1F
100
AcDbEntity
  8
水栓
  6
CONTINUOUS
 62
     6
100
AcDbLine
 10
1245.88166127596
 20
1301.6820186329
 30
0.0
 11
1252.625073294521
 21
1308.279259638588
 31
0.0
  0
LINE
  5
252
330
1F
100
AcDbEntity
  8
水栓
  6
CONTINUOUS
 62
     6
100
AcDbLine
 10
1257.7206963278
 20
1301.6820186329
 30
0.0
 11
1264.464108346362
 21
1308.279259638588
 31
0.0
  0
LINE
  5
253
330
1F
100
AcDbEntity
  8
水栓
  6
CONTINUOUS
 62
     6
100
AcDbLine
 10
1263.27918914606
 20
1291.6191873309
 30
0.0
 11
1268.741688996635
 21
1296.133202221367
 31
0.0
  0
LINE
  5
254
330
1F
100
AcDbEntity
  8
水栓
  6
CONTINUOUS
 62
     6
100
AcDbLine
 10
1302.2841022164
 20
1324.1190146324
 30
0.0
 11
1302.2841022164
 21
1318.679074316
 31
0.0
  0
LINE
  5
255
330
1F
100
AcDbEntity
  8
水栓
  6
CONTINUOUS
 62
     6
100
AcDbLine
 10
1313.0117685648
 20
1324.1190146324
 30
0.0
 11
1313.0117685648
 21
1318.679074316
 31
0.0
  0
ARC
  5
256
330
1F
100
AcDbEntity
  8
水栓
  6
CONTINUOUS
 62
     6
100
AcDbCircle
 10
1312.870904996411
 20
1316.73995131689
 30
0.0
 40
1.973304385260744
100
AcDbArc
 50
48.74071048938145
 51
79.32017033772489
  0
ARC
  5
257
330
1F
100
AcDbEntity
  8
水栓
  6
CONTINUOUS
 62
     6
100
AcDbCircle
 10
1302.355962603589
 20
1316.73995131689
 30
0.0
 40
1.973304385260744
100
AcDbArc
 50
100.6798296622751
 51
131.2592895147447
  0
LINE
  5
258
330
1F
100
AcDbEntity
  8
水栓
  6
CONTINUOUS
 62
     6
100
AcDbLine
 10
1313.236599118883
 20
1318.679074316
 30
0.0
 11
1301.99026848112
 21
1318.679074316
 31
0.0
  0
LINE
  5
259
330
1F
100
AcDbEntity
  8
水栓
  6
CONTINUOUS
 62
     6
100
AcDbLine
 10
1312.4682097632
 20
1305.1548741332
 30
0.0
 11
1311.7934179176
 21
1304.3213326376
 31
0.0
  0
ARC
  5
25A
330
1F
100
AcDbEntity
  8
水栓
  6
CONTINUOUS
 62
     6
100
AcDbCircle
 10
1320.851622414424
 20
1304.830181928058
 30
0.0
 40
0.511814199167523
100
AcDbArc
 50
270.1424532476763
 51
359.8100181117405
  0
LINE
  5
25B
330
1F
100
AcDbEntity
  8
水栓
  6
CONTINUOUS
 62
     6
100
AcDbLine
 10
1316.34647743047
 20
1305.1548741332
 30
0.0
 11
1317.02380927047
 21
1304.3213326376
 31
0.0
  0
ARC
  5
25C
330
1F
100
AcDbEntity
  8
水栓
  6
CONTINUOUS
 62
     6
100
AcDbCircle
 10
1339.849060007682
 20
1340.327105730529
 30
0.0
 40
33.88030950030249
100
AcDbArc
 50
220.7233384557307
 51
236.0135783950876
  0
ARC
  5
25D
330
1F
100
AcDbEntity
  8
水栓
  6
CONTINUOUS
 62
     6
100
AcDbCircle
 10
1275.349842309843
 20
1340.395976481429
 30
0.0
 40
33.94645225944432
100
AcDbArc
 50
303.9440449050104
 51
319.2193593747007
  0
ARC
  5
25E
330
1F
100
AcDbEntity
  8
水栓
  6
CONTINUOUS
 62
     6
100
AcDbCircle
 10
1319.861515643095
 20
1307.755939446484
 30
0.0
 40
5.349731111917274
100
AcDbArc
 50
95.4269467490977
 51
131.1592210426746
  0
LINE
  5
25F
330
1F
100
AcDbEntity
  8
水栓
  6
CONTINUOUS
 62
     6
100
AcDbLine
 10
1316.34056989369
 20
1311.783663866
 30
0.0
 11
1316.34647743047
 21
1305.1548741332
 31
0.0
  0
ARC
  5
260
330
1F
100
AcDbEntity
  8
水栓
  6
CONTINUOUS
 62
     6
100
AcDbCircle
 10
1320.929325228627
 20
1311.750049646561
 30
0.0
 40
0.4277842620041331
100
AcDbArc
 50
359.6826989962678
 51
39.37346933296691
  0
ARC
  5
261
330
1F
100
AcDbEntity
  8
水栓
  6
CONTINUOUS
 62
     6
100
AcDbCircle
 10
1320.694106129818
 20
1311.486164119462
 30
0.0
 40
0.778945030813095
100
AcDbArc
 50
43.40574576777736
 51
73.90234106229548
  0
LINE
  5
262
330
1F
100
AcDbEntity
  8
水栓
  6
CONTINUOUS
 62
     6
100
AcDbLine
 10
1321.35752626322
 20
1311.747680612
 30
0.0
 11
1321.3634338
 21
1304.8284848528
 31
0.0
  0
ARC
  5
263
330
1F
100
AcDbEntity
  8
水栓
  6
CONTINUOUS
 62
     6
100
AcDbCircle
 10
1295.353536883345
 20
1307.755939446484
 30
0.0
 40
5.349731111917274
100
AcDbArc
 50
48.84077895732544
 51
84.57305325090229
  0
ARC
  5
264
330
1F
100
AcDbEntity
  8
水栓
  6
CONTINUOUS
 62
     6
100
AcDbCircle
 10
1294.285727297814
 20
1311.750049646561
 30
0.0
 40
0.4277842620041331
100
AcDbArc
 50
140.6265306670342
 51
180.3173010037323
  0
ARC
  5
265
330
1F
100
AcDbEntity
  8
水栓
  6
CONTINUOUS
 62
     6
100
AcDbCircle
 10
1294.520946396622
 20
1311.486164119462
 30
0.0
 40
0.778945030813095
100
AcDbArc
 50
106.0976589377045
 51
136.5942542322198
  0
ARC
  5
266
330
1F
100
AcDbEntity
  8
水栓
  6
CONTINUOUS
 62
     6
100
AcDbCircle
 10
1307.186987534324
 20
1305.06763880279
 30
0.0
 40
8.047356372835944
100
AcDbArc
 50
87.00447282993213
 51
123.4296483587577
  0
ARC
  5
267
330
1F
100
AcDbEntity
  8
水栓
  6
CONTINUOUS
 62
     6
100
AcDbCircle
 10
1308.028064992116
 20
1305.06763880279
 30
0.0
 40
8.047356372835944
100
AcDbArc
 50
56.57035164124194
 51
92.99552717006748
  0
LINE
  5
268
330
1F
100
AcDbEntity
  8
水栓
  6
CONTINUOUS
 62
     6
100
AcDbLine
 10
1312.46230222642
 20
1311.783663866
 30
0.0
 11
1312.4682097632
 21
1305.1548741332
 31
0.0
  0
LINE
  5
269
330
1F
100
AcDbEntity
  8
水栓
  6
CONTINUOUS
 62
     6
100
AcDbLine
 10
1293.85752626322
 20
1311.747680612
 30
0.0
 11
1293.859696602107
 21
1309.205673649651
 31
0.0
  0
LINE
  5
26A
330
1F
100
AcDbEntity
  8
水栓
  6
CONTINUOUS
 62
     6
100
AcDbLine
 10
1298.87448263275
 20
1311.783663866
 30
0.0
 11
1298.877987516519
 21
1307.850867776868
 31
0.0
  0
LINE
  5
26B
330
1F
100
AcDbEntity
  8
水栓
  6
CONTINUOUS
 62
     6
100
AcDbLine
 10
1302.75317363242
 20
1311.783663866
 30
0.0
 11
1302.757747311093
 21
1306.651583380051
 31
0.0
  0
LINE
  5
26C
330
1F
100
AcDbEntity
  8
水栓
  6
CONTINUOUS
 62
     6
100
AcDbLine
 10
1309.29716093541
 20
1304.3183693108
 30
0.0
 11
1320.8528949256
 21
1304.3183693108
 31
0.0
  0
ARC
  5
26D
330
1F
100
AcDbEntity
  8
水栓
  6
CONTINUOUS
 62
     6
100
AcDbCircle
 10
1307.735361393869
 20
1315.155315030094
 30
0.0
 40
23.46401639458544
100
AcDbArc
 50
73.2096272470707
 51
90.29773112399253
  0
ARC
  5
26E
330
1F
100
AcDbEntity
  8
水栓
  6
CONTINUOUS
 62
     6
100
AcDbCircle
 10
1307.491506206131
 20
1315.155315030094
 30
0.0
 40
23.46401639458544
100
AcDbArc
 50
89.70226887600734
 51
106.7903727529292
  0
LINE
  5
26F
330
1F
100
AcDbEntity
  8
水栓
  6
CONTINUOUS
 62
     6
100
AcDbLine
 10
1300.6715238924
 20
1335.6190146324
 30
0.0
 11
1300.6715238924
 21
1337.606326290298
 31
0.0
  0
LINE
  5
270
330
1F
100
AcDbEntity
  8
水栓
  6
CONTINUOUS
 62
     6
100
AcDbLine
 10
1314.5134338
 20
1335.6190146324
 30
0.0
 11
1314.5134338
 21
1337.6190146324
 31
0.0
  0
LINE
  5
271
330
1F
100
AcDbEntity
  8
水栓
  6
CONTINUOUS
 62
     6
100
AcDbLine
 10
1300.671523892399
 20
1335.6190146324
 30
0.0
 11
1314.513433800003
 21
1335.6190146324
 31
0.0
  0
LINE
  5
272
330
1F
100
AcDbEntity
  8
水栓
  6
CONTINUOUS
 62
     6
100
AcDbLine
 10
1300.7134338
 20
1337.6190146324
 30
0.0
 11
1314.5134338
 21
1337.6190146324
 31
0.0
  0
LINE
  5
273
330
1F
100
AcDbEntity
  8
水栓
  6
CONTINUOUS
 62
     6
100
AcDbLine
 10
1301.4827339832
 20
1337.6190146324
 30
0.0
 11
1301.4827339832
 21
1335.6190146324
 31
0.0
  0
LINE
  5
274
330
1F
100
AcDbEntity
  8
水栓
  6
CONTINUOUS
 62
     6
100
AcDbLine
 10
1302.8179243728
 20
1337.6190146324
 30
0.0
 11
1302.8179243728
 21
1335.6190146324
 31
0.0
  0
LINE
  5
275
330
1F
100
AcDbEntity
  8
水栓
  6
CONTINUOUS
 62
     6
100
AcDbLine
 10
1304.4443674536
 20
1337.6190146324
 30
0.0
 11
1304.4443674536
 21
1335.6190146324
 31
0.0
  0
LINE
  5
276
330
1F
100
AcDbEntity
  8
水栓
  6
CONTINUOUS
 62
     6
100
AcDbLine
 10
1306.4052431304
 20
1337.6190146324
 30
0.0
 11
1306.4052431304
 21
1335.6190146324
 31
0.0
  0
LINE
  5
277
330
1F
100
AcDbEntity
  8
水栓
  6
CONTINUOUS
 62
     6
100
AcDbLine
 10
1308.8258577936
 20
1337.6190146324
 30
0.0
 11
1308.8258577936
 21
1335.6190146324
 31
0.0
  0
LINE
  5
278
330
1F
100
AcDbEntity
  8
水栓
  6
CONTINUOUS
 62
     6
100
AcDbLine
 10
1310.786310138
 20
1337.6190146324
 30
0.0
 11
1310.786310138
 21
1335.6190146324
 31
0.0
  0
LINE
  5
279
330
1F
100
AcDbEntity
  8
水栓
  6
CONTINUOUS
 62
     6
100
AcDbLine
 10
1312.4127532188
 20
1337.6190146324
 30
0.0
 11
1312.4127532188
 21
1335.6190146324
 31
0.0
  0
LINE
  5
27A
330
1F
100
AcDbEntity
  8
水栓
  6
CONTINUOUS
 62
     6
100
AcDbLine
 10
1313.7479436084
 20
1337.6190146324
 30
0.0
 11
1313.7479436084
 21
1335.6190146324
 31
0.0
  0
LINE
  5
27B
330
1F
100
AcDbEntity
  8
水栓
  6
EXLTYPE3
 62
     6
100
AcDbLine
 10
1307.6135864
 20
1254.3
 30
0.0
 11
1307.6135864
 21
1159.7966309
 31
0.0
  0
LINE
  5
27C
330
1F
100
AcDbEntity
  8
止水栓
  6
CONTINUOUS
 62
     6
100
AcDbLine
 10
1318.1134644
 20
2148.296539299999
 30
0.0
 11
1318.1134644
 21
2139.7964783
 31
0.0
  0
LINE
  5
27D
330
1F
100
AcDbEntity
  8
止水栓
  6
CONTINUOUS
 62
     6
100
AcDbLine
 10
1316.9133606
 20
2148.296539299999
 30
0.0
 11
1316.9133606
 21
2139.7964783
 31
0.0
  0
LINE
  5
27E
330
1F
100
AcDbEntity
  8
止水栓
  6
CONTINUOUS
 62
     6
100
AcDbLine
 10
1298.3135071
 20
2148.296539299999
 30
0.0
 11
1298.3135071
 21
2139.7964783
 31
0.0
  0
LINE
  5
27F
330
1F
100
AcDbEntity
  8
止水栓
  6
CONTINUOUS
 62
     6
100
AcDbLine
 10
1297.1134033
 20
2148.296539299999
 30
0.0
 11
1297.1134033
 21
2139.7964783
 31
0.0
  0
LINE
  5
280
330
1F
100
AcDbEntity
  8
止水栓
  6
CONTINUOUS
 62
     6
100
AcDbLine
 10
1297.1134033
 20
2148.296539299999
 30
0.0
 11
1318.1134644
 21
2148.296539299999
 31
0.0
  0
LINE
  5
281
330
1F
100
AcDbEntity
  8
止水栓
  6
EXLTYPE3
 62
     6
100
AcDbLine
 10
1307.6135864
 20
1245.8
 30
0.0
 11
1307.6135864
 21
1341.6
 31
0.0
  0
LINE
  5
282
330
1F
100
AcDbEntity
  8
止水栓
  6
EXLTYPE3
 62
     6
100
AcDbLine
 10
1318.1135864
 20
494.7966309000009
 30
0.0
 11
1297.1135864
 21
494.7966309000009
 31
0.0
  0
LINE
  5
283
330
1F
100
AcDbEntity
  8
止水栓
  6
EXLTYPE4
 62
     6
100
AcDbLine
 10
1297.1135864
 20
494.796630900001
 30
0.0
 11
1297.1135864
 21
631.0
 31
0.0
  0
LINE
  5
284
330
1F
100
AcDbEntity
  8
止水栓
  6
EXLTYPE4
 62
     6
100
AcDbLine
 10
1318.1136474
 20
494.796630900001
 30
0.0
 11
1318.1136474
 21
631.0
 31
0.0
  0
LINE
  5
285
330
1F
100
AcDbEntity
  8
止水栓
  6
EXLTYPE3
 62
     6
100
AcDbLine
 10
1307.6135864
 20
486.0000000000001
 30
0.0
 11
1307.6135864
 21
647.9999999999999
 31
0.0
  0
LINE
  5
286
330
1F
100
AcDbEntity
  8
止水栓
  6
CONTINUOUS
 62
     6
100
AcDbLine
 10
1201.1136169004
 20
1027.7956544
 30
0.0
 11
1230.1136168996
 21
1027.7956544
 31
0.0
  0
LINE
  5
287
330
1F
100
AcDbEntity
  8
止水栓
  6
CONTINUOUS
 62
     6
100
AcDbLine
 10
1201.113616900175
 20
1027.795654400175
 30
0.0
 11
1200.113616900351
 21
1028.7956544
 31
0.0
  0
LINE
  5
288
330
1F
100
AcDbEntity
  8
止水栓
  6
CONTINUOUS
 62
     6
100
AcDbLine
 10
1230.113616899822
 20
1027.795654400175
 30
0.0
 11
1231.113616899648
 21
1028.7956544
 31
0.0
  0
ARC
  5
289
330
1F
100
AcDbEntity
  8
止水栓
  6
CONTINUOUS
 62
     6
100
AcDbCircle
 10
1330.6136169
 20
1092.760144000001
 30
0.0
 40
23.65
100
AcDbArc
 50
170.9823990411053
 51
180.0
  0
ARC
  5
28A
330
1F
100
AcDbEntity
  8
止水栓
  6
CONTINUOUS
 62
     6
100
AcDbCircle
 10
1330.6136169
 20
1092.760144000001
 30
0.0
 40
36.35
100
AcDbArc
 50
173.3137068698948
 51
180.0
  0
ARC
  5
28B
330
1F
100
AcDbEntity
  8
止水栓
  6
CONTINUOUS
 62
     6
100
AcDbCircle
 10
1330.6136169
 20
1092.760144000001
 30
0.0
 40
30.0
100
AcDbArc
 50
171.2951955138998
 51
180.0
  0
LINE
  5
28C
330
1F
100
AcDbEntity
  8
止水栓
  6
CONTINUOUS
 62
     6
100
AcDbLine
 10
1294.537528269245
 20
1096.989361072934
 30
0.0
 11
1301.029987241409
 21
1156.480809488277
 31
0.0
  0
LINE
  5
28D
330
1F
100
AcDbEntity
  8
止水栓
  6
CONTINUOUS
 62
     6
100
AcDbLine
 10
1307.453875149008
 20
1156.812385747638
 30
0.0
 11
1300.959180915202
 21
1097.300455269458
 31
0.0
  0
LINE
  5
28E
330
1F
100
AcDbEntity
  8
止水栓
  6
CONTINUOUS
 62
     6
100
AcDbLine
 10
1313.8386926035
 20
1156.7859531454
 30
0.0
 11
1307.2559252676
 21
1096.4669946317
 31
0.0
  0
LINE
  5
28F
330
1F
100
AcDbEntity
  8
止水栓
  6
CONTINUOUS
 62
     6
100
AcDbLine
 10
1313.963586399999
 20
1159.796630900001
 30
0.0
 11
1313.963586399997
 21
1176.53866117524
 31
0.0
  0
LINE
  5
290
330
1F
100
AcDbEntity
  8
止水栓
  6
CONTINUOUS
 62
     6
100
AcDbLine
 10
1301.263586399998
 20
1159.796630900001
 30
0.0
 11
1301.263586399997
 21
1165.182139201028
 31
0.0
  0
ARC
  5
291
330
1F
100
AcDbEntity
  8
止水栓
  6
CONTINUOUS
 62
     6
100
AcDbCircle
 10
1277.6135864
 20
1159.796630900001
 30
0.0
 40
36.35
100
AcDbArc
 50
355.2490519383793
 51
0.0
  0
ARC
  5
292
330
1F
100
AcDbEntity
  8
止水栓
  6
CONTINUOUS
 62
     6
100
AcDbCircle
 10
1277.6135864
 20
1159.796630900001
 30
0.0
 40
23.65
100
AcDbArc
 50
351.9403567853106
 51
0.0
  0
ARC
  5
293
330
1F
100
AcDbEntity
  8
止水栓
  6
EXLTYPE3
 62
     6
100
AcDbCircle
 10
1277.6135864
 20
1159.796630900001
 30
0.0
 40
30.0
100
AcDbArc
 50
352.1457112255197
 51
0.0
  0
LINE
  5
294
330
1F
100
AcDbEntity
  8
止水栓
  6
CONTINUOUS
 62
     6
100
AcDbLine
 10
1294.2636169
 20
1061.79663090002
 30
0.0
 11
1294.2636169
 21
1092.760144
 31
0.0
  0
LINE
  5
295
330
1F
100
AcDbEntity
  8
止水栓
  6
CONTINUOUS
 62
     6
100
AcDbLine
 10
1306.963616899999
 20
1092.760144
 30
0.0
 11
1306.963616899999
 21
1061.79663090002
 31
0.0
  0
LINE
  5
296
330
1F
100
AcDbEntity
  8
止水栓
  6
EXLTYPE3
 62
     6
100
AcDbLine
 10
1300.6136169
 20
994.9000000000001
 30
0.0
 11
1300.6136169
 21
1092.760144
 31
0.0
  0
LINE
  5
297
330
1F
100
AcDbEntity
  8
止水栓
  6
CONTINUOUS
 62
     6
100
AcDbLine
 10
1258.0000305
 20
1027.7966309
 30
0.0
 11
1335.1135690808
 21
1027.7966309
 31
0.0
  0
ARC
  5
298
330
1F
100
AcDbEntity
  8
止水栓
  6
CONTINUOUS
 62
     6
100
AcDbCircle
 10
1300.6136169
 20
1027.7966309
 30
0.0
 40
27.49995230000001
100
AcDbArc
 50
342.1725285201298
 51
65.58609008999983
  0
ARC
  5
299
330
1F
100
AcDbEntity
  8
止水栓
  6
CONTINUOUS
 62
     6
100
AcDbCircle
 10
1300.6136169
 20
1027.7966309
 30
0.0
 40
27.50005720000002
100
AcDbArc
 50
221.9402491370999
 51
318.0597508629015
  0
ARC
  5
29A
330
1F
100
AcDbEntity
  8
止水栓
  6
CONTINUOUS
 62
     6
100
AcDbCircle
 10
1300.6136169
 20
1027.7966309
 30
0.0
 40
27.49994280000001
100
AcDbArc
 50
115.02644348
 51
198.0596107320467
  0
LINE
  5
29B
330
1F
100
AcDbEntity
  8
トラップ
  6
CONTINUOUS
 62
     6
100
AcDbLine
 10
1228.1136169
 20
2169.79656797
 30
0.0
 11
1228.1136169
 21
2139.796561008
 31
0.0
  0
LINE
  5
29C
330
1F
100
AcDbEntity
  8
トラップ
  6
CONTINUOUS
 62
     6
100
AcDbLine
 10
1203.1136169
 20
2169.79656797
 30
0.0
 11
1203.1136169
 21
2139.796574932
 31
0.0
  0
LINE
  5
29D
330
1F
100
AcDbEntity
  8
トラップ
  6
CONTINUOUS
 62
     6
100
AcDbLine
 10
1203.1136169
 20
2169.796574932
 30
0.0
 11
1228.1136169
 21
2169.796561008
 31
0.0
  0
LINE
  5
29E
330
1F
100
AcDbEntity
  8
トラップ
  6
EXLTYPE4
 62
     6
100
AcDbLine
 10
1202.913574149999
 20
518.7966918999998
 30
0.0
 11
1202.913574149999
 21
631.0
 31
0.0
  0
LINE
  5
29F
330
1F
100
AcDbEntity
  8
トラップ
  6
EXLTYPE4
 62
     6
100
AcDbLine
 10
1228.313659649999
 20
518.7966918999998
 30
0.0
 11
1228.313659649999
 21
631.0
 31
0.0
  0
LINE
  5
2A0
330
1F
100
AcDbEntity
  8
トラップ
  6
CONTINUOUS
 62
     6
100
AcDbLine
 10
1197.6137731815
 20
967.4966309003298
 30
0.0
 11
1197.6137731815
 21
956.49565440033
 31
0.0
  0
LINE
  5
2A1
330
1F
100
AcDbEntity
  8
トラップ
  6
CONTINUOUS
 62
     6
100
AcDbLine
 10
1233.6138341815
 20
967.4966309003298
 30
0.0
 11
1233.6138341815
 21
956.49565440033
 31
0.0
  0
LINE
  5
2A2
330
1F
100
AcDbEntity
  8
トラップ
  6
CONTINUOUS
 62
     6
100
AcDbLine
 10
1197.6137731815
 20
967.4966309003298
 30
0.0
 11
1202.9139135815
 21
967.4966309003298
 31
0.0
  0
LINE
  5
2A3
330
1F
100
AcDbEntity
  8
トラップ
  6
CONTINUOUS
 62
     6
100
AcDbLine
 10
1228.3139989815
 20
967.4966309003298
 30
0.0
 11
1233.6138341815
 21
967.4966309003298
 31
0.0
  0
LINE
  5
2A4
330
1F
100
AcDbEntity
  8
トラップ
  6
CONTINUOUS
 62
     6
100
AcDbLine
 10
1197.6137731815
 20
956.49565440033
 30
0.0
 11
1202.9139135815
 21
956.49565440033
 31
0.0
  0
LINE
  5
2A5
330
1F
100
AcDbEntity
  8
トラップ
  6
CONTINUOUS
 62
     6
100
AcDbLine
 10
1228.3139989815
 20
956.49565440033
 30
0.0
 11
1233.6138341815
 21
956.49565440033
 31
0.0
  0
ARC
  5
2A6
330
1F
100
AcDbEntity
  8
トラップ
  6
CONTINUOUS
 62
     6
100
AcDbCircle
 10
1204.6773376
 20
1034.2961427
 30
0.0
 40
8.56398340000001
100
AcDbArc
 50
140.0378265399995
 51
219.9621429400004
  0
LINE
  5
2A7
330
1F
100
AcDbEntity
  8
トラップ
  6
CONTINUOUS
 62
     6
100
AcDbLine
 10
1198.1133117
 20
1028.7956544
 30
0.0
 11
1233.1133117
 21
1028.7956544
 31
0.0
  0
ARC
  5
2A8
330
1F
100
AcDbEntity
  8
トラップ
  6
CONTINUOUS
 62
     6
100
AcDbCircle
 10
1226.5492859
 20
1034.2961427
 30
0.0
 40
8.56398340000001
100
AcDbArc
 50
320.0378418000006
 51
39.96215819999939
  0
LINE
  5
2A9
330
1F
100
AcDbEntity
  8
トラップ
  6
CONTINUOUS
 62
     6
100
AcDbLine
 10
1198.1133117
 20
1039.7966309
 30
0.0
 11
1233.1133117
 21
1039.7966309
 31
0.0
  0
POLYLINE
  5
2AA
330
1F
100
AcDbEntity
  8
トラップ
  6
CONTINUOUS
 62
     6
100
AcDb2dPolyline
 66
     1
 10
0.0
 20
0.0
 30
0.0
 70
   128
  0
VERTEX
  5
2AB
330
2AA
100
AcDbEntity
  8
トラップ
  6
CONTINUOUS
 62
     6
100
AcDbVertex
100
AcDb2dVertex
 10
1203.776001
 20
1034.2961427
 30
0.0
  0
VERTEX
  5
2AC
330
2AA
100
AcDbEntity
  8
トラップ
  6
CONTINUOUS
 62
     6
100
AcDbVertex
100
AcDb2dVertex
 10
1203.7616577
 20
1034.7185059
 30
0.0
  0
VERTEX
  5
2AD
330
2AA
100
AcDbEntity
  8
トラップ
  6
CONTINUOUS
 62
     6
100
AcDbVertex
100
AcDb2dVertex
 10
1203.7189331
 20
1035.1359864
 30
0.0
  0
VERTEX
  5
2AE
330
2AA
100
AcDbEntity
  8
トラップ
  6
CONTINUOUS
 62
     6
100
AcDbVertex
100
AcDb2dVertex
 10
1203.6484375
 20
1035.5485841
 30
0.0
  0
VERTEX
  5
2AF
330
2AA
100
AcDbEntity
  8
トラップ
  6
CONTINUOUS
 62
     6
100
AcDbVertex
100
AcDb2dVertex
 10
1203.5500183
 20
1035.9514161
 30
0.0
  0
VERTEX
  5
2B0
330
2AA
100
AcDbEntity
  8
トラップ
  6
CONTINUOUS
 62
     6
100
AcDbVertex
100
AcDb2dVertex
 10
1203.4248962
 20
1036.3420411
 30
0.0
  0
VERTEX
  5
2B1
330
2AA
100
AcDbEntity
  8
トラップ
  6
CONTINUOUS
 62
     6
100
AcDbVertex
100
AcDb2dVertex
 10
1203.2736816
 20
1036.7180177
 30
0.0
  0
VERTEX
  5
2B2
330
2AA
100
AcDbEntity
  8
トラップ
  6
CONTINUOUS
 62
     6
100
AcDbVertex
100
AcDb2dVertex
 10
1203.0979004
 20
1037.074463
 30
0.0
  0
VERTEX
  5
2B3
330
2AA
100
AcDbEntity
  8
トラップ
  6
CONTINUOUS
 62
     6
100
AcDbVertex
100
AcDb2dVertex
 10
1202.8987732
 20
1037.4089356
 30
0.0
  0
VERTEX
  5
2B4
330
2AA
100
AcDbEntity
  8
トラップ
  6
CONTINUOUS
 62
     6
100
AcDbVertex
100
AcDb2dVertex
 10
1202.6776733
 20
1037.7189942
 30
0.0
  0
VERTEX
  5
2B5
330
2AA
100
AcDbEntity
  8
トラップ
  6
CONTINUOUS
 62
     6
100
AcDbVertex
100
AcDb2dVertex
 10
1202.4364319
 20
1038.0046388
 30
0.0
  0
VERTEX
  5
2B6
330
2AA
100
AcDbEntity
  8
トラップ
  6
CONTINUOUS
 62
     6
100
AcDbVertex
100
AcDb2dVertex
 10
1202.1768799
 20
1038.2609864
 30
0.0
  0
VERTEX
  5
2B7
330
2AA
100
AcDbEntity
  8
トラップ
  6
CONTINUOUS
 62
     6
100
AcDbVertex
100
AcDb2dVertex
 10
1201.9006958
 20
1038.4880372
 30
0.0
  0
VERTEX
  5
2B8
330
2AA
100
AcDbEntity
  8
トラップ
  6
CONTINUOUS
 62
     6
100
AcDbVertex
100
AcDb2dVertex
 10
1201.6104736
 20
1038.6833497
 30
0.0
  0
VERTEX
  5
2B9
330
2AA
100
AcDbEntity
  8
トラップ
  6
CONTINUOUS
 62
     6
100
AcDbVertex
100
AcDb2dVertex
 10
1201.3080444
 20
1038.8444825
 30
0.0
  0
VERTEX
  5
2BA
330
2AA
100
AcDbEntity
  8
トラップ
  6
CONTINUOUS
 62
     6
100
AcDbVertex
100
AcDb2dVertex
 10
1200.9961548
 20
1038.9714356
 30
0.0
  0
VERTEX
  5
2BB
330
2AA
100
AcDbEntity
  8
トラップ
  6
CONTINUOUS
 62
     6
100
AcDbVertex
100
AcDb2dVertex
 10
1200.6766357
 20
1039.0617677
 30
0.0
  0
VERTEX
  5
2BC
330
2AA
100
AcDbEntity
  8
トラップ
  6
CONTINUOUS
 62
     6
100
AcDbVertex
100
AcDb2dVertex
 10
1200.3522339
 20
1039.11792
 30
0.0
  0
VERTEX
  5
2BD
330
2AA
100
AcDbEntity
  8
トラップ
  6
CONTINUOUS
 62
     6
100
AcDbVertex
100
AcDb2dVertex
 10
1200.0253906
 20
1039.1374513
 30
0.0
  0
VERTEX
  5
2BE
330
2AA
100
AcDbEntity
  8
トラップ
  6
CONTINUOUS
 62
     6
100
AcDbVertex
100
AcDb2dVertex
 10
1199.6983948
 20
1039.11792
 30
0.0
  0
VERTEX
  5
2BF
330
2AA
100
AcDbEntity
  8
トラップ
  6
CONTINUOUS
 62
     6
100
AcDbVertex
100
AcDb2dVertex
 10
1199.3739929
 20
1039.0642091
 30
0.0
  0
VERTEX
  5
2C0
330
2AA
100
AcDbEntity
  8
トラップ
  6
CONTINUOUS
 62
     6
100
AcDbVertex
100
AcDb2dVertex
 10
1199.0546264
 20
1038.9714356
 30
0.0
  0
VERTEX
  5
2C1
330
2AA
100
AcDbEntity
  8
トラップ
  6
CONTINUOUS
 62
     6
100
AcDbVertex
100
AcDb2dVertex
 10
1198.7425842
 20
1038.8444825
 30
0.0
  0
VERTEX
  5
2C2
330
2AA
100
AcDbEntity
  8
トラップ
  6
CONTINUOUS
 62
     6
100
AcDbVertex
100
AcDb2dVertex
 10
1198.440155
 20
1038.6833497
 30
0.0
  0
VERTEX
  5
2C3
330
2AA
100
AcDbEntity
  8
トラップ
  6
CONTINUOUS
 62
     6
100
AcDbVertex
100
AcDb2dVertex
 10
1198.1500854
 20
1038.4880372
 30
0.0
  0
VERTEX
  5
2C4
330
2AA
100
AcDbEntity
  8
トラップ
  6
CONTINUOUS
 62
     6
100
AcDbVertex
100
AcDb2dVertex
 10
1197.8740539
 20
1038.2609864
 30
0.0
  0
VERTEX
  5
2C5
330
2AA
100
AcDbEntity
  8
トラップ
  6
CONTINUOUS
 62
     6
100
AcDbVertex
100
AcDb2dVertex
 10
1197.6143493
 20
1038.0021974
 30
0.0
  0
VERTEX
  5
2C6
330
2AA
100
AcDbEntity
  8
トラップ
  6
CONTINUOUS
 62
     6
100
AcDbVertex
100
AcDb2dVertex
 10
1197.3737182
 20
1037.7189942
 30
0.0
  0
VERTEX
  5
2C7
330
2AA
100
AcDbEntity
  8
トラップ
  6
CONTINUOUS
 62
     6
100
AcDbVertex
100
AcDb2dVertex
 10
1197.152771
 20
1037.4089356
 30
0.0
  0
VERTEX
  5
2C8
330
2AA
100
AcDbEntity
  8
トラップ
  6
CONTINUOUS
 62
     6
100
AcDbVertex
100
AcDb2dVertex
 10
1196.9537964
 20
1037.0720216
 30
0.0
  0
VERTEX
  5
2C9
330
2AA
100
AcDbEntity
  8
トラップ
  6
CONTINUOUS
 62
     6
100
AcDbVertex
100
AcDb2dVertex
 10
1196.7777099
 20
1036.7180177
 30
0.0
  0
VERTEX
  5
2CA
330
2AA
100
AcDbEntity
  8
トラップ
  6
CONTINUOUS
 62
     6
100
AcDbVertex
100
AcDb2dVertex
 10
1196.6266479
 20
1036.3444825
 30
0.0
  0
VERTEX
  5
2CB
330
2AA
100
AcDbEntity
  8
トラップ
  6
CONTINUOUS
 62
     6
100
AcDbVertex
100
AcDb2dVertex
 10
1196.5016784
 20
1035.9538575
 30
0.0
  0
VERTEX
  5
2CC
330
2AA
100
AcDbEntity
  8
トラップ
  6
CONTINUOUS
 62
     6
100
AcDbVertex
100
AcDb2dVertex
 10
1196.4029541
 20
1035.5485841
 30
0.0
  0
VERTEX
  5
2CD
330
2AA
100
AcDbEntity
  8
トラップ
  6
CONTINUOUS
 62
     6
100
AcDbVertex
100
AcDb2dVertex
 10
1196.3321533
 20
1035.1359864
 30
0.0
  0
VERTEX
  5
2CE
330
2AA
100
AcDbEntity
  8
トラップ
  6
CONTINUOUS
 62
     6
100
AcDbVertex
100
AcDb2dVertex
 10
1196.2895813
 20
1034.7160645
 30
0.0
  0
VERTEX
  5
2CF
330
2AA
100
AcDbEntity
  8
トラップ
  6
CONTINUOUS
 62
     6
100
AcDbVertex
100
AcDb2dVertex
 10
1196.2747803
 20
1034.2961427
 30
0.0
  0
VERTEX
  5
2D0
330
2AA
100
AcDbEntity
  8
トラップ
  6
CONTINUOUS
 62
     6
100
AcDbVertex
100
AcDb2dVertex
 10
1196.2889709
 20
1033.8737794
 30
0.0
  0
VERTEX
  5
2D1
330
2AA
100
AcDbEntity
  8
トラップ
  6
CONTINUOUS
 62
     6
100
AcDbVertex
100
AcDb2dVertex
 10
1196.3315429
 20
1033.4562989
 30
0.0
  0
VERTEX
  5
2D2
330
2AA
100
AcDbEntity
  8
トラップ
  6
CONTINUOUS
 62
     6
100
AcDbVertex
100
AcDb2dVertex
 10
1196.4029541
 20
1033.0437013
 30
0.0
  0
VERTEX
  5
2D3
330
2AA
100
AcDbEntity
  8
トラップ
  6
CONTINUOUS
 62
     6
100
AcDbVertex
100
AcDb2dVertex
 10
1196.5013733
 20
1032.6408692
 30
0.0
  0
VERTEX
  5
2D4
330
2AA
100
AcDbEntity
  8
トラップ
  6
CONTINUOUS
 62
     6
100
AcDbVertex
100
AcDb2dVertex
 10
1196.6268005
 20
1032.2502442
 30
0.0
  0
VERTEX
  5
2D5
330
2AA
100
AcDbEntity
  8
トラップ
  6
CONTINUOUS
 62
     6
100
AcDbVertex
100
AcDb2dVertex
 10
1196.7777099
 20
1031.8767091
 30
0.0
  0
VERTEX
  5
2D6
330
2AA
100
AcDbEntity
  8
トラップ
  6
CONTINUOUS
 62
     6
100
AcDbVertex
100
AcDb2dVertex
 10
1196.9536438
 20
1031.5202638
 30
0.0
  0
VERTEX
  5
2D7
330
2AA
100
AcDbEntity
  8
トラップ
  6
CONTINUOUS
 62
     6
100
AcDbVertex
100
AcDb2dVertex
 10
1197.1529236
 20
1031.1857911
 30
0.0
  0
VERTEX
  5
2D8
330
2AA
100
AcDbEntity
  8
トラップ
  6
CONTINUOUS
 62
     6
100
AcDbVertex
100
AcDb2dVertex
 10
1197.3737182
 20
1030.8732911
 30
0.0
  0
VERTEX
  5
2D9
330
2AA
100
AcDbEntity
  8
トラップ
  6
CONTINUOUS
 62
     6
100
AcDbVertex
100
AcDb2dVertex
 10
1197.6149597
 20
1030.5876466
 30
0.0
  0
VERTEX
  5
2DA
330
2AA
100
AcDbEntity
  8
トラップ
  6
CONTINUOUS
 62
     6
100
AcDbVertex
100
AcDb2dVertex
 10
1197.8748169
 20
1030.3312989
 30
0.0
  0
VERTEX
  5
2DB
330
2AA
100
AcDbEntity
  8
トラップ
  6
CONTINUOUS
 62
     6
100
AcDbVertex
100
AcDb2dVertex
 10
1198.1500854
 20
1030.1042481
 30
0.0
  0
VERTEX
  5
2DC
330
2AA
100
AcDbEntity
  8
トラップ
  6
CONTINUOUS
 62
     6
100
AcDbVertex
100
AcDb2dVertex
 10
1198.4403076
 20
1029.9089356
 30
0.0
  0
VERTEX
  5
2DD
330
2AA
100
AcDbEntity
  8
トラップ
  6
CONTINUOUS
 62
     6
100
AcDbVertex
100
AcDb2dVertex
 10
1198.7424316
 20
1029.7478028
 30
0.0
  0
VERTEX
  5
2DE
330
2AA
100
AcDbEntity
  8
トラップ
  6
CONTINUOUS
 62
     6
100
AcDbVertex
100
AcDb2dVertex
 10
1199.0546264
 20
1029.6208497
 30
0.0
  0
VERTEX
  5
2DF
330
2AA
100
AcDbEntity
  8
トラップ
  6
CONTINUOUS
 62
     6
100
AcDbVertex
100
AcDb2dVertex
 10
1199.3739929
 20
1029.5305177
 30
0.0
  0
VERTEX
  5
2E0
330
2AA
100
AcDbEntity
  8
トラップ
  6
CONTINUOUS
 62
     6
100
AcDbVertex
100
AcDb2dVertex
 10
1199.6982422
 20
1029.4743653
 30
0.0
  0
VERTEX
  5
2E1
330
2AA
100
AcDbEntity
  8
トラップ
  6
CONTINUOUS
 62
     6
100
AcDbVertex
100
AcDb2dVertex
 10
1200.0253906
 20
1029.4548341
 30
0.0
  0
VERTEX
  5
2E2
330
2AA
100
AcDbEntity
  8
トラップ
  6
CONTINUOUS
 62
     6
100
AcDbVertex
100
AcDb2dVertex
 10
1200.3522339
 20
1029.4743653
 30
0.0
  0
VERTEX
  5
2E3
330
2AA
100
AcDbEntity
  8
トラップ
  6
CONTINUOUS
 62
     6
100
AcDbVertex
100
AcDb2dVertex
 10
1200.6764831
 20
1029.5280763
 30
0.0
  0
VERTEX
  5
2E4
330
2AA
100
AcDbEntity
  8
トラップ
  6
CONTINUOUS
 62
     6
100
AcDbVertex
100
AcDb2dVertex
 10
1200.9961548
 20
1029.6208497
 30
0.0
  0
VERTEX
  5
2E5
330
2AA
100
AcDbEntity
  8
トラップ
  6
CONTINUOUS
 62
     6
100
AcDbVertex
100
AcDb2dVertex
 10
1201.308197
 20
1029.7478028
 30
0.0
  0
VERTEX
  5
2E6
330
2AA
100
AcDbEntity
  8
トラップ
  6
CONTINUOUS
 62
     6
100
AcDbVertex
100
AcDb2dVertex
 10
1201.610321
 20
1029.9089356
 30
0.0
  0
SEQEND
  5
2E7
330
2AA
100
AcDbEntity
  8
トラップ
  6
CONTINUOUS
 62
     6
  0
POLYLINE
  5
2E8
330
1F
100
AcDbEntity
  8
トラップ
  6
CONTINUOUS
 62
     6
100
AcDb2dPolyline
 66
     1
 10
0.0
 20
0.0
 30
0.0
 70
   128
  0
VERTEX
  5
2E9
330
2E8
100
AcDbEntity
  8
トラップ
  6
CONTINUOUS
 62
     6
100
AcDbVertex
100
AcDb2dVertex
 10
1201.610321
 20
1029.9089356
 30
0.0
  0
VERTEX
  5
2EA
330
2E8
100
AcDbEntity
  8
トラップ
  6
CONTINUOUS
 62
     6
100
AcDbVertex
100
AcDb2dVertex
 10
1201.9006958
 20
1030.1042481
 30
0.0
  0
VERTEX
  5
2EB
330
2E8
100
AcDbEntity
  8
トラップ
  6
CONTINUOUS
 62
     6
100
AcDbVertex
100
AcDb2dVertex
 10
1202.1765747
 20
1030.3312989
 30
0.0
  0
VERTEX
  5
2EC
330
2E8
100
AcDbEntity
  8
トラップ
  6
CONTINUOUS
 62
     6
100
AcDbVertex
100
AcDb2dVertex
 10
1202.4361267
 20
1030.590088
 30
0.0
  0
VERTEX
  5
2ED
330
2E8
100
AcDbEntity
  8
トラップ
  6
CONTINUOUS
 62
     6
100
AcDbVertex
100
AcDb2dVertex
 10
1202.6776733
 20
1030.8732911
 30
0.0
  0
VERTEX
  5
2EE
330
2E8
100
AcDbEntity
  8
トラップ
  6
CONTINUOUS
 62
     6
100
AcDbVertex
100
AcDb2dVertex
 10
1202.8987732
 20
1031.1833497
 30
0.0
  0
VERTEX
  5
2EF
330
2E8
100
AcDbEntity
  8
トラップ
  6
CONTINUOUS
 62
     6
100
AcDbVertex
100
AcDb2dVertex
 10
1203.0979004
 20
1031.5202638
 30
0.0
  0
VERTEX
  5
2F0
330
2E8
100
AcDbEntity
  8
トラップ
  6
CONTINUOUS
 62
     6
100
AcDbVertex
100
AcDb2dVertex
 10
1203.2736816
 20
1031.8767091
 30
0.0
  0
VERTEX
  5
2F1
330
2E8
100
AcDbEntity
  8
トラップ
  6
CONTINUOUS
 62
     6
100
AcDbVertex
100
AcDb2dVertex
 10
1203.4247436
 20
1032.2502442
 30
0.0
  0
VERTEX
  5
2F2
330
2E8
100
AcDbEntity
  8
トラップ
  6
CONTINUOUS
 62
     6
100
AcDbVertex
100
AcDb2dVertex
 10
1203.5500183
 20
1032.6408692
 30
0.0
  0
VERTEX
  5
2F3
330
2E8
100
AcDbEntity
  8
トラップ
  6
CONTINUOUS
 62
     6
100
AcDbVertex
100
AcDb2dVertex
 10
1203.6484375
 20
1033.0437013
 30
0.0
  0
SEQEND
  5
2F4
330
2E8
100
AcDbEntity
  8
トラップ
  6
CONTINUOUS
 62
     6
  0
POLYLINE
  5
2F5
330
1F
100
AcDbEntity
  8
トラップ
  6
CONTINUOUS
 62
     6
100
AcDb2dPolyline
 66
     1
 10
0.0
 20
0.0
 30
0.0
 70
   128
  0
VERTEX
  5
2F6
330
2F5
100
AcDbEntity
  8
トラップ
  6
CONTINUOUS
 62
     6
100
AcDbVertex
100
AcDb2dVertex
 10
1203.6484375
 20
1033.0437013
 30
0.0
  0
VERTEX
  5
2F7
330
2F5
100
AcDbEntity
  8
トラップ
  6
CONTINUOUS
 62
     6
100
AcDbVertex
100
AcDb2dVertex
 10
1203.7192383
 20
1033.4562989
 30
0.0
  0
VERTEX
  5
2F8
330
2F5
100
AcDbEntity
  8
トラップ
  6
CONTINUOUS
 62
     6
100
AcDbVertex
100
AcDb2dVertex
 10
1203.7619629
 20
1033.8762208
 30
0.0
  0
VERTEX
  5
2F9
330
2F5
100
AcDbEntity
  8
トラップ
  6
CONTINUOUS
 62
     6
100
AcDbVertex
100
AcDb2dVertex
 10
1203.7764587
 20
1034.2985841
 30
0.0
  0
SEQEND
  5
2FA
330
2F5
100
AcDbEntity
  8
トラップ
  6
CONTINUOUS
 62
     6
  0
POLYLINE
  5
2FB
330
1F
100
AcDbEntity
  8
トラップ
  6
CONTINUOUS
 62
     6
100
AcDb2dPolyline
 66
     1
 10
0.0
 20
0.0
 30
0.0
 70
   128
  0
VERTEX
  5
2FC
330
2FB
100
AcDbEntity
  8
トラップ
  6
CONTINUOUS
 62
     6
100
AcDbVertex
100
AcDb2dVertex
 10
1223.1123962
 20
1034.2961427
 30
0.0
  0
VERTEX
  5
2FD
330
2FB
100
AcDbEntity
  8
トラップ
  6
CONTINUOUS
 62
     6
100
AcDbVertex
100
AcDb2dVertex
 10
1223.0838623
 20
1034.7185059
 30
0.0
  0
VERTEX
  5
2FE
330
2FB
100
AcDbEntity
  8
トラップ
  6
CONTINUOUS
 62
     6
100
AcDbVertex
100
AcDb2dVertex
 10
1222.9984131
 20
1035.1359864
 30
0.0
  0
VERTEX
  5
2FF
330
2FB
100
AcDbEntity
  8
トラップ
  6
CONTINUOUS
 62
     6
100
AcDbVertex
100
AcDb2dVertex
 10
1222.8566589
 20
1035.5485841
 30
0.0
  0
VERTEX
  5
300
330
2FB
100
AcDbEntity
  8
トラップ
  6
CONTINUOUS
 62
     6
100
AcDbVertex
100
AcDb2dVertex
 10
1222.6598205
 20
1035.9514161
 30
0.0
  0
VERTEX
  5
301
330
2FB
100
AcDbEntity
  8
トラップ
  6
CONTINUOUS
 62
     6
100
AcDbVertex
100
AcDb2dVertex
 10
1222.4092712
 20
1036.3420411
 30
0.0
  0
VERTEX
  5
302
330
2FB
100
AcDbEntity
  8
トラップ
  6
CONTINUOUS
 62
     6
100
AcDbVertex
100
AcDb2dVertex
 10
1222.1077575
 20
1036.7180177
 30
0.0
  0
VERTEX
  5
303
330
2FB
100
AcDbEntity
  8
トラップ
  6
CONTINUOUS
 62
     6
100
AcDbVertex
100
AcDb2dVertex
 10
1221.756195
 20
1037.074463
 30
0.0
  0
VERTEX
  5
304
330
2FB
100
AcDbEntity
  8
トラップ
  6
CONTINUOUS
 62
     6
100
AcDbVertex
100
AcDb2dVertex
 10
1221.3580932
 20
1037.4089356
 30
0.0
  0
VERTEX
  5
305
330
2FB
100
AcDbEntity
  8
トラップ
  6
CONTINUOUS
 62
     6
100
AcDbVertex
100
AcDb2dVertex
 10
1220.9160461
 20
1037.7189942
 30
0.0
  0
VERTEX
  5
306
330
2FB
100
AcDbEntity
  8
トラップ
  6
CONTINUOUS
 62
     6
100
AcDbVertex
100
AcDb2dVertex
 10
1220.4337158
 20
1038.0046388
 30
0.0
  0
VERTEX
  5
307
330
2FB
100
AcDbEntity
  8
トラップ
  6
CONTINUOUS
 62
     6
100
AcDbVertex
100
AcDb2dVertex
 10
1219.9147644
 20
1038.2609864
 30
0.0
  0
VERTEX
  5
308
330
2FB
100
AcDbEntity
  8
トラップ
  6
CONTINUOUS
 62
     6
100
AcDbVertex
100
AcDb2dVertex
 10
1219.362854
 20
1038.4880372
 30
0.0
  0
VERTEX
  5
309
330
2FB
100
AcDbEntity
  8
トラップ
  6
CONTINUOUS
 62
     6
100
AcDbVertex
100
AcDb2dVertex
 10
1218.7825622
 20
1038.6833497
 30
0.0
  0
VERTEX
  5
30A
330
2FB
100
AcDbEntity
  8
トラップ
  6
CONTINUOUS
 62
     6
100
AcDbVertex
100
AcDb2dVertex
 10
1218.1783142
 20
1038.8444825
 30
0.0
  0
VERTEX
  5
30B
330
2FB
100
AcDbEntity
  8
トラップ
  6
CONTINUOUS
 62
     6
100
AcDbVertex
100
AcDb2dVertex
 10
1217.5542297
 20
1038.9714356
 30
0.0
  0
VERTEX
  5
30C
330
2FB
100
AcDbEntity
  8
トラップ
  6
CONTINUOUS
 62
     6
100
AcDbVertex
100
AcDb2dVertex
 10
1216.9154968
 20
1039.0617677
 30
0.0
  0
VERTEX
  5
30D
330
2FB
100
AcDbEntity
  8
トラップ
  6
CONTINUOUS
 62
     6
100
AcDbVertex
100
AcDb2dVertex
 10
1216.2666931
 20
1039.11792
 30
0.0
  0
VERTEX
  5
30E
330
2FB
100
AcDbEntity
  8
トラップ
  6
CONTINUOUS
 62
     6
100
AcDbVertex
100
AcDb2dVertex
 10
1215.6136169
 20
1039.1374513
 30
0.0
  0
VERTEX
  5
30F
330
2FB
100
AcDbEntity
  8
トラップ
  6
CONTINUOUS
 62
     6
100
AcDbVertex
100
AcDb2dVertex
 10
1214.960083
 20
1039.11792
 30
0.0
  0
VERTEX
  5
310
330
2FB
100
AcDbEntity
  8
トラップ
  6
CONTINUOUS
 62
     6
100
AcDbVertex
100
AcDb2dVertex
 10
1214.3114319
 20
1039.0642091
 30
0.0
  0
VERTEX
  5
311
330
2FB
100
AcDbEntity
  8
トラップ
  6
CONTINUOUS
 62
     6
100
AcDbVertex
100
AcDb2dVertex
 10
1213.6728515
 20
1038.9714356
 30
0.0
  0
VERTEX
  5
312
330
2FB
100
AcDbEntity
  8
トラップ
  6
CONTINUOUS
 62
     6
100
AcDbVertex
100
AcDb2dVertex
 10
1213.0490722
 20
1038.8444825
 30
0.0
  0
VERTEX
  5
313
330
2FB
100
AcDbEntity
  8
トラップ
  6
CONTINUOUS
 62
     6
100
AcDbVertex
100
AcDb2dVertex
 10
1212.4448242
 20
1038.6833497
 30
0.0
  0
VERTEX
  5
314
330
2FB
100
AcDbEntity
  8
トラップ
  6
CONTINUOUS
 62
     6
100
AcDbVertex
100
AcDb2dVertex
 10
1211.8642273
 20
1038.4880372
 30
0.0
  0
VERTEX
  5
315
330
2FB
100
AcDbEntity
  8
トラップ
  6
CONTINUOUS
 62
     6
100
AcDbVertex
100
AcDb2dVertex
 10
1211.312622
 20
1038.2609864
 30
0.0
  0
VERTEX
  5
316
330
2FB
100
AcDbEntity
  8
トラップ
  6
CONTINUOUS
 62
     6
100
AcDbVertex
100
AcDb2dVertex
 10
1210.793518
 20
1038.0021974
 30
0.0
  0
VERTEX
  5
317
330
2FB
100
AcDbEntity
  8
トラップ
  6
CONTINUOUS
 62
     6
100
AcDbVertex
100
AcDb2dVertex
 10
1210.3110351
 20
1037.7189942
 30
0.0
  0
VERTEX
  5
318
330
2FB
100
AcDbEntity
  8
トラップ
  6
CONTINUOUS
 62
     6
100
AcDbVertex
100
AcDb2dVertex
 10
1209.8691406
 20
1037.4089356
 30
0.0
  0
VERTEX
  5
319
330
2FB
100
AcDbEntity
  8
トラップ
  6
CONTINUOUS
 62
     6
100
AcDbVertex
100
AcDb2dVertex
 10
1209.4708862
 20
1037.0720216
 30
0.0
  0
VERTEX
  5
31A
330
2FB
100
AcDbEntity
  8
トラップ
  6
CONTINUOUS
 62
     6
100
AcDbVertex
100
AcDb2dVertex
 10
1209.1193237
 20
1036.7180177
 30
0.0
  0
VERTEX
  5
31B
330
2FB
100
AcDbEntity
  8
トラップ
  6
CONTINUOUS
 62
     6
100
AcDbVertex
100
AcDb2dVertex
 10
1208.8173523
 20
1036.3444825
 30
0.0
  0
VERTEX
  5
31C
330
2FB
100
AcDbEntity
  8
トラップ
  6
CONTINUOUS
 62
     6
100
AcDbVertex
100
AcDb2dVertex
 10
1208.566803
 20
1035.9538575
 30
0.0
  0
VERTEX
  5
31D
330
2FB
100
AcDbEntity
  8
トラップ
  6
CONTINUOUS
 62
     6
100
AcDbVertex
100
AcDb2dVertex
 10
1208.3704223
 20
1035.5485841
 30
0.0
  0
VERTEX
  5
31E
330
2FB
100
AcDbEntity
  8
トラップ
  6
CONTINUOUS
 62
     6
100
AcDbVertex
100
AcDb2dVertex
 10
1208.2289734
 20
1035.1359864
 30
0.0
  0
VERTEX
  5
31F
330
2FB
100
AcDbEntity
  8
トラップ
  6
CONTINUOUS
 62
     6
100
AcDbVertex
100
AcDb2dVertex
 10
1208.1436767
 20
1034.7160645
 30
0.0
  0
VERTEX
  5
320
330
2FB
100
AcDbEntity
  8
トラップ
  6
CONTINUOUS
 62
     6
100
AcDbVertex
100
AcDb2dVertex
 10
1208.114685
 20
1034.2961427
 30
0.0
  0
VERTEX
  5
321
330
2FB
100
AcDbEntity
  8
トラップ
  6
CONTINUOUS
 62
     6
100
AcDbVertex
100
AcDb2dVertex
 10
1208.143219
 20
1033.8737794
 30
0.0
  0
VERTEX
  5
322
330
2FB
100
AcDbEntity
  8
トラップ
  6
CONTINUOUS
 62
     6
100
AcDbVertex
100
AcDb2dVertex
 10
1208.2286682
 20
1033.4562989
 30
0.0
  0
VERTEX
  5
323
330
2FB
100
AcDbEntity
  8
トラップ
  6
CONTINUOUS
 62
     6
100
AcDbVertex
100
AcDb2dVertex
 10
1208.3704223
 20
1033.0437013
 30
0.0
  0
VERTEX
  5
324
330
2FB
100
AcDbEntity
  8
トラップ
  6
CONTINUOUS
 62
     6
100
AcDbVertex
100
AcDb2dVertex
 10
1208.5672607
 20
1032.6408692
 30
0.0
  0
VERTEX
  5
325
330
2FB
100
AcDbEntity
  8
トラップ
  6
CONTINUOUS
 62
     6
100
AcDbVertex
100
AcDb2dVertex
 10
1208.81781
 20
1032.2502442
 30
0.0
  0
VERTEX
  5
326
330
2FB
100
AcDbEntity
  8
トラップ
  6
CONTINUOUS
 62
     6
100
AcDbVertex
100
AcDb2dVertex
 10
1209.1193237
 20
1031.8767091
 30
0.0
  0
VERTEX
  5
327
330
2FB
100
AcDbEntity
  8
トラップ
  6
CONTINUOUS
 62
     6
100
AcDbVertex
100
AcDb2dVertex
 10
1209.4708862
 20
1031.5202638
 30
0.0
  0
VERTEX
  5
328
330
2FB
100
AcDbEntity
  8
トラップ
  6
CONTINUOUS
 62
     6
100
AcDbVertex
100
AcDb2dVertex
 10
1209.868988
 20
1031.1857911
 30
0.0
  0
VERTEX
  5
329
330
2FB
100
AcDbEntity
  8
トラップ
  6
CONTINUOUS
 62
     6
100
AcDbVertex
100
AcDb2dVertex
 10
1210.3110351
 20
1030.8732911
 30
0.0
  0
VERTEX
  5
32A
330
2FB
100
AcDbEntity
  8
トラップ
  6
CONTINUOUS
 62
     6
100
AcDbVertex
100
AcDb2dVertex
 10
1210.7933655
 20
1030.5876466
 30
0.0
  0
VERTEX
  5
32B
330
2FB
100
AcDbEntity
  8
トラップ
  6
CONTINUOUS
 62
     6
100
AcDbVertex
100
AcDb2dVertex
 10
1211.3123169
 20
1030.3312989
 30
0.0
  0
VERTEX
  5
32C
330
2FB
100
AcDbEntity
  8
トラップ
  6
CONTINUOUS
 62
     6
100
AcDbVertex
100
AcDb2dVertex
 10
1211.8642273
 20
1030.1042481
 30
0.0
  0
VERTEX
  5
32D
330
2FB
100
AcDbEntity
  8
トラップ
  6
CONTINUOUS
 62
     6
100
AcDbVertex
100
AcDb2dVertex
 10
1212.444519
 20
1029.9089356
 30
0.0
  0
VERTEX
  5
32E
330
2FB
100
AcDbEntity
  8
トラップ
  6
CONTINUOUS
 62
     6
100
AcDbVertex
100
AcDb2dVertex
 10
1213.0487671
 20
1029.7478028
 30
0.0
  0
VERTEX
  5
32F
330
2FB
100
AcDbEntity
  8
トラップ
  6
CONTINUOUS
 62
     6
100
AcDbVertex
100
AcDb2dVertex
 10
1213.6728515
 20
1029.6208497
 30
0.0
  0
VERTEX
  5
330
330
2FB
100
AcDbEntity
  8
トラップ
  6
CONTINUOUS
 62
     6
100
AcDbVertex
100
AcDb2dVertex
 10
1214.3115844
 20
1029.5305177
 30
0.0
  0
VERTEX
  5
331
330
2FB
100
AcDbEntity
  8
トラップ
  6
CONTINUOUS
 62
     6
100
AcDbVertex
100
AcDb2dVertex
 10
1214.9603882
 20
1029.4743653
 30
0.0
  0
VERTEX
  5
332
330
2FB
100
AcDbEntity
  8
トラップ
  6
CONTINUOUS
 62
     6
100
AcDbVertex
100
AcDb2dVertex
 10
1215.6136169
 20
1029.4548341
 30
0.0
  0
VERTEX
  5
333
330
2FB
100
AcDbEntity
  8
トラップ
  6
CONTINUOUS
 62
     6
100
AcDbVertex
100
AcDb2dVertex
 10
1216.2671509
 20
1029.4743653
 30
0.0
  0
VERTEX
  5
334
330
2FB
100
AcDbEntity
  8
トラップ
  6
CONTINUOUS
 62
     6
100
AcDbVertex
100
AcDb2dVertex
 10
1216.915802
 20
1029.5280763
 30
0.0
  0
VERTEX
  5
335
330
2FB
100
AcDbEntity
  8
トラップ
  6
CONTINUOUS
 62
     6
100
AcDbVertex
100
AcDb2dVertex
 10
1217.5542297
 20
1029.6208497
 30
0.0
  0
VERTEX
  5
336
330
2FB
100
AcDbEntity
  8
トラップ
  6
CONTINUOUS
 62
     6
100
AcDbVertex
100
AcDb2dVertex
 10
1218.178009
 20
1029.7478028
 30
0.0
  0
VERTEX
  5
337
330
2FB
100
AcDbEntity
  8
トラップ
  6
CONTINUOUS
 62
     6
100
AcDbVertex
100
AcDb2dVertex
 10
1218.7822571
 20
1029.9089356
 30
0.0
  0
SEQEND
  5
338
330
2FB
100
AcDbEntity
  8
トラップ
  6
CONTINUOUS
 62
     6
  0
POLYLINE
  5
339
330
1F
100
AcDbEntity
  8
トラップ
  6
CONTINUOUS
 62
     6
100
AcDb2dPolyline
 66
     1
 10
0.0
 20
0.0
 30
0.0
 70
   128
  0
VERTEX
  5
33A
330
339
100
AcDbEntity
  8
トラップ
  6
CONTINUOUS
 62
     6
100
AcDbVertex
100
AcDb2dVertex
 10
1218.7822571
 20
1029.9089356
 30
0.0
  0
VERTEX
  5
33B
330
339
100
AcDbEntity
  8
トラップ
  6
CONTINUOUS
 62
     6
100
AcDbVertex
100
AcDb2dVertex
 10
1219.362854
 20
1030.1042481
 30
0.0
  0
VERTEX
  5
33C
330
339
100
AcDbEntity
  8
トラップ
  6
CONTINUOUS
 62
     6
100
AcDbVertex
100
AcDb2dVertex
 10
1219.9144592
 20
1030.3312989
 30
0.0
  0
VERTEX
  5
33D
330
339
100
AcDbEntity
  8
トラップ
  6
CONTINUOUS
 62
     6
100
AcDbVertex
100
AcDb2dVertex
 10
1220.4335632
 20
1030.590088
 30
0.0
  0
VERTEX
  5
33E
330
339
100
AcDbEntity
  8
トラップ
  6
CONTINUOUS
 62
     6
100
AcDbVertex
100
AcDb2dVertex
 10
1220.9160461
 20
1030.8732911
 30
0.0
  0
VERTEX
  5
33F
330
339
100
AcDbEntity
  8
トラップ
  6
CONTINUOUS
 62
     6
100
AcDbVertex
100
AcDb2dVertex
 10
1221.3579407
 20
1031.1833497
 30
0.0
  0
VERTEX
  5
340
330
339
100
AcDbEntity
  8
トラップ
  6
CONTINUOUS
 62
     6
100
AcDbVertex
100
AcDb2dVertex
 10
1221.756195
 20
1031.5202638
 30
0.0
  0
VERTEX
  5
341
330
339
100
AcDbEntity
  8
トラップ
  6
CONTINUOUS
 62
     6
100
AcDbVertex
100
AcDb2dVertex
 10
1222.1077575
 20
1031.8767091
 30
0.0
  0
VERTEX
  5
342
330
339
100
AcDbEntity
  8
トラップ
  6
CONTINUOUS
 62
     6
100
AcDbVertex
100
AcDb2dVertex
 10
1222.409729
 20
1032.2502442
 30
0.0
  0
VERTEX
  5
343
330
339
100
AcDbEntity
  8
トラップ
  6
CONTINUOUS
 62
     6
100
AcDbVertex
100
AcDb2dVertex
 10
1222.6602783
 20
1032.6408692
 30
0.0
  0
VERTEX
  5
344
330
339
100
AcDbEntity
  8
トラップ
  6
CONTINUOUS
 62
     6
100
AcDbVertex
100
AcDb2dVertex
 10
1222.8566589
 20
1033.0437013
 30
0.0
  0
SEQEND
  5
345
330
339
100
AcDbEntity
  8
トラップ
  6
CONTINUOUS
 62
     6
  0
POLYLINE
  5
346
330
1F
100
AcDbEntity
  8
トラップ
  6
CONTINUOUS
 62
     6
100
AcDb2dPolyline
 66
     1
 10
0.0
 20
0.0
 30
0.0
 70
   128
  0
VERTEX
  5
347
330
346
100
AcDbEntity
  8
トラップ
  6
CONTINUOUS
 62
     6
100
AcDbVertex
100
AcDb2dVertex
 10
1222.8566589
 20
1033.0437013
 30
0.0
  0
VERTEX
  5
348
330
346
100
AcDbEntity
  8
トラップ
  6
CONTINUOUS
 62
     6
100
AcDbVertex
100
AcDb2dVertex
 10
1222.9981079
 20
1033.4562989
 30
0.0
  0
VERTEX
  5
349
330
346
100
AcDbEntity
  8
トラップ
  6
CONTINUOUS
 62
     6
100
AcDbVertex
100
AcDb2dVertex
 10
1223.0834045
 20
1033.8762208
 30
0.0
  0
VERTEX
  5
34A
330
346
100
AcDbEntity
  8
トラップ
  6
CONTINUOUS
 62
     6
100
AcDbVertex
100
AcDb2dVertex
 10
1223.1117859
 20
1034.2985841
 30
0.0
  0
SEQEND
  5
34B
330
346
100
AcDbEntity
  8
トラップ
  6
CONTINUOUS
 62
     6
  0
POLYLINE
  5
34C
330
1F
100
AcDbEntity
  8
トラップ
  6
CONTINUOUS
 62
     6
100
AcDb2dPolyline
 66
     1
 10
0.0
 20
0.0
 30
0.0
 70
   128
  0
VERTEX
  5
34D
330
34C
100
AcDbEntity
  8
トラップ
  6
CONTINUOUS
 62
     6
100
AcDbVertex
100
AcDb2dVertex
 10
1234.9518432
 20
1034.2961427
 30
0.0
  0
VERTEX
  5
34E
330
34C
100
AcDbEntity
  8
トラップ
  6
CONTINUOUS
 62
     6
100
AcDbVertex
100
AcDb2dVertex
 10
1234.9375
 20
1034.7185059
 30
0.0
  0
VERTEX
  5
34F
330
34C
100
AcDbEntity
  8
トラップ
  6
CONTINUOUS
 62
     6
100
AcDbVertex
100
AcDb2dVertex
 10
1234.8946228
 20
1035.1359864
 30
0.0
  0
VERTEX
  5
350
330
34C
100
AcDbEntity
  8
トラップ
  6
CONTINUOUS
 62
     6
100
AcDbVertex
100
AcDb2dVertex
 10
1234.8242798
 20
1035.5485841
 30
0.0
  0
VERTEX
  5
351
330
34C
100
AcDbEntity
  8
トラップ
  6
CONTINUOUS
 62
     6
100
AcDbVertex
100
AcDb2dVertex
 10
1234.7258606
 20
1035.9514161
 30
0.0
  0
VERTEX
  5
352
330
34C
100
AcDbEntity
  8
トラップ
  6
CONTINUOUS
 62
     6
100
AcDbVertex
100
AcDb2dVertex
 10
1234.6005859
 20
1036.3420411
 30
0.0
  0
VERTEX
  5
353
330
34C
100
AcDbEntity
  8
トラップ
  6
CONTINUOUS
 62
     6
100
AcDbVertex
100
AcDb2dVertex
 10
1234.4495239
 20
1036.7180177
 30
0.0
  0
VERTEX
  5
354
330
34C
100
AcDbEntity
  8
トラップ
  6
CONTINUOUS
 62
     6
100
AcDbVertex
100
AcDb2dVertex
 10
1234.2735901
 20
1037.074463
 30
0.0
  0
VERTEX
  5
355
330
34C
100
AcDbEntity
  8
トラップ
  6
CONTINUOUS
 62
     6
100
AcDbVertex
100
AcDb2dVertex
 10
1234.0743103
 20
1037.4089356
 30
0.0
  0
VERTEX
  5
356
330
34C
100
AcDbEntity
  8
トラップ
  6
CONTINUOUS
 62
     6
100
AcDbVertex
100
AcDb2dVertex
 10
1233.8535156
 20
1037.7189942
 30
0.0
  0
VERTEX
  5
357
330
34C
100
AcDbEntity
  8
トラップ
  6
CONTINUOUS
 62
     6
100
AcDbVertex
100
AcDb2dVertex
 10
1233.6122741
 20
1038.0046388
 30
0.0
  0
VERTEX
  5
358
330
34C
100
AcDbEntity
  8
トラップ
  6
CONTINUOUS
 62
     6
100
AcDbVertex
100
AcDb2dVertex
 10
1233.352417
 20
1038.2609864
 30
0.0
  0
VERTEX
  5
359
330
34C
100
AcDbEntity
  8
トラップ
  6
CONTINUOUS
 62
     6
100
AcDbVertex
100
AcDb2dVertex
 10
1233.0771484
 20
1038.4880372
 30
0.0
  0
VERTEX
  5
35A
330
34C
100
AcDbEntity
  8
トラップ
  6
CONTINUOUS
 62
     6
100
AcDbVertex
100
AcDb2dVertex
 10
1232.7869262
 20
1038.6833497
 30
0.0
  0
VERTEX
  5
35B
330
34C
100
AcDbEntity
  8
トラップ
  6
CONTINUOUS
 62
     6
100
AcDbVertex
100
AcDb2dVertex
 10
1232.4848022
 20
1038.8444825
 30
0.0
  0
VERTEX
  5
35C
330
34C
100
AcDbEntity
  8
トラップ
  6
CONTINUOUS
 62
     6
100
AcDbVertex
100
AcDb2dVertex
 10
1232.1724548
 20
1038.9714356
 30
0.0
  0
VERTEX
  5
35D
330
34C
100
AcDbEntity
  8
トラップ
  6
CONTINUOUS
 62
     6
100
AcDbVertex
100
AcDb2dVertex
 10
1231.8530884
 20
1039.0617677
 30
0.0
  0
VERTEX
  5
35E
330
34C
100
AcDbEntity
  8
トラップ
  6
CONTINUOUS
 62
     6
100
AcDbVertex
100
AcDb2dVertex
 10
1231.5288391
 20
1039.11792
 30
0.0
  0
VERTEX
  5
35F
330
34C
100
AcDbEntity
  8
トラップ
  6
CONTINUOUS
 62
     6
100
AcDbVertex
100
AcDb2dVertex
 10
1231.2016907
 20
1039.1374513
 30
0.0
  0
VERTEX
  5
360
330
34C
100
AcDbEntity
  8
トラップ
  6
CONTINUOUS
 62
     6
100
AcDbVertex
100
AcDb2dVertex
 10
1230.8748474
 20
1039.11792
 30
0.0
  0
VERTEX
  5
361
330
34C
100
AcDbEntity
  8
トラップ
  6
CONTINUOUS
 62
     6
100
AcDbVertex
100
AcDb2dVertex
 10
1230.5505981
 20
1039.0642091
 30
0.0
  0
VERTEX
  5
362
330
34C
100
AcDbEntity
  8
トラップ
  6
CONTINUOUS
 62
     6
100
AcDbVertex
100
AcDb2dVertex
 10
1230.2310791
 20
1038.9714356
 30
0.0
  0
VERTEX
  5
363
330
34C
100
AcDbEntity
  8
トラップ
  6
CONTINUOUS
 62
     6
100
AcDbVertex
100
AcDb2dVertex
 10
1229.9190368
 20
1038.8444825
 30
0.0
  0
VERTEX
  5
364
330
34C
100
AcDbEntity
  8
トラップ
  6
CONTINUOUS
 62
     6
100
AcDbVertex
100
AcDb2dVertex
 10
1229.6169128
 20
1038.6833497
 30
0.0
  0
VERTEX
  5
365
330
34C
100
AcDbEntity
  8
トラップ
  6
CONTINUOUS
 62
     6
100
AcDbVertex
100
AcDb2dVertex
 10
1229.3265381
 20
1038.4880372
 30
0.0
  0
VERTEX
  5
366
330
34C
100
AcDbEntity
  8
トラップ
  6
CONTINUOUS
 62
     6
100
AcDbVertex
100
AcDb2dVertex
 10
1229.0506592
 20
1038.2609864
 30
0.0
  0
VERTEX
  5
367
330
34C
100
AcDbEntity
  8
トラップ
  6
CONTINUOUS
 62
     6
100
AcDbVertex
100
AcDb2dVertex
 10
1228.7911072
 20
1038.0021974
 30
0.0
  0
VERTEX
  5
368
330
34C
100
AcDbEntity
  8
トラップ
  6
CONTINUOUS
 62
     6
100
AcDbVertex
100
AcDb2dVertex
 10
1228.5497131
 20
1037.7189942
 30
0.0
  0
VERTEX
  5
369
330
34C
100
AcDbEntity
  8
トラップ
  6
CONTINUOUS
 62
     6
100
AcDbVertex
100
AcDb2dVertex
 10
1228.3286133
 20
1037.4089356
 30
0.0
  0
VERTEX
  5
36A
330
34C
100
AcDbEntity
  8
トラップ
  6
CONTINUOUS
 62
     6
100
AcDbVertex
100
AcDb2dVertex
 10
1228.1293335
 20
1037.0720216
 30
0.0
  0
VERTEX
  5
36B
330
34C
100
AcDbEntity
  8
トラップ
  6
CONTINUOUS
 62
     6
100
AcDbVertex
100
AcDb2dVertex
 10
1227.9537048
 20
1036.7180177
 30
0.0
  0
VERTEX
  5
36C
330
34C
100
AcDbEntity
  8
トラップ
  6
CONTINUOUS
 62
     6
100
AcDbVertex
100
AcDb2dVertex
 10
1227.8026428
 20
1036.3444825
 30
0.0
  0
VERTEX
  5
36D
330
34C
100
AcDbEntity
  8
トラップ
  6
CONTINUOUS
 62
     6
100
AcDbVertex
100
AcDb2dVertex
 10
1227.6773681
 20
1035.9538575
 30
0.0
  0
VERTEX
  5
36E
330
34C
100
AcDbEntity
  8
トラップ
  6
CONTINUOUS
 62
     6
100
AcDbVertex
100
AcDb2dVertex
 10
1227.5791015
 20
1035.5485841
 30
0.0
  0
VERTEX
  5
36F
330
34C
100
AcDbEntity
  8
トラップ
  6
CONTINUOUS
 62
     6
100
AcDbVertex
100
AcDb2dVertex
 10
1227.5083008
 20
1035.1359864
 30
0.0
  0
VERTEX
  5
370
330
34C
100
AcDbEntity
  8
トラップ
  6
CONTINUOUS
 62
     6
100
AcDbVertex
100
AcDb2dVertex
 10
1227.4654236
 20
1034.7160645
 30
0.0
  0
VERTEX
  5
371
330
34C
100
AcDbEntity
  8
トラップ
  6
CONTINUOUS
 62
     6
100
AcDbVertex
100
AcDb2dVertex
 10
1227.4513855
 20
1034.2961427
 30
0.0
  0
VERTEX
  5
372
330
34C
100
AcDbEntity
  8
トラップ
  6
CONTINUOUS
 62
     6
100
AcDbVertex
100
AcDb2dVertex
 10
1227.4657287
 20
1033.8737794
 30
0.0
  0
VERTEX
  5
373
330
34C
100
AcDbEntity
  8
トラップ
  6
CONTINUOUS
 62
     6
100
AcDbVertex
100
AcDb2dVertex
 10
1227.5083008
 20
1033.4562989
 30
0.0
  0
VERTEX
  5
374
330
34C
100
AcDbEntity
  8
トラップ
  6
CONTINUOUS
 62
     6
100
AcDbVertex
100
AcDb2dVertex
 10
1227.5791015
 20
1033.0437013
 30
0.0
  0
VERTEX
  5
375
330
34C
100
AcDbEntity
  8
トラップ
  6
CONTINUOUS
 62
     6
100
AcDbVertex
100
AcDb2dVertex
 10
1227.6775207
 20
1032.6408692
 30
0.0
  0
VERTEX
  5
376
330
34C
100
AcDbEntity
  8
トラップ
  6
CONTINUOUS
 62
     6
100
AcDbVertex
100
AcDb2dVertex
 10
1227.8024902
 20
1032.2502442
 30
0.0
  0
VERTEX
  5
377
330
34C
100
AcDbEntity
  8
トラップ
  6
CONTINUOUS
 62
     6
100
AcDbVertex
100
AcDb2dVertex
 10
1227.9537048
 20
1031.8767091
 30
0.0
  0
VERTEX
  5
378
330
34C
100
AcDbEntity
  8
トラップ
  6
CONTINUOUS
 62
     6
100
AcDbVertex
100
AcDb2dVertex
 10
1228.1294861
 20
1031.5202638
 30
0.0
  0
VERTEX
  5
379
330
34C
100
AcDbEntity
  8
トラップ
  6
CONTINUOUS
 62
     6
100
AcDbVertex
100
AcDb2dVertex
 10
1228.3286133
 20
1031.1857911
 30
0.0
  0
VERTEX
  5
37A
330
34C
100
AcDbEntity
  8
トラップ
  6
CONTINUOUS
 62
     6
100
AcDbVertex
100
AcDb2dVertex
 10
1228.5497131
 20
1030.8732911
 30
0.0
  0
VERTEX
  5
37B
330
34C
100
AcDbEntity
  8
トラップ
  6
CONTINUOUS
 62
     6
100
AcDbVertex
100
AcDb2dVertex
 10
1228.7909546
 20
1030.5876466
 30
0.0
  0
VERTEX
  5
37C
330
34C
100
AcDbEntity
  8
トラップ
  6
CONTINUOUS
 62
     6
100
AcDbVertex
100
AcDb2dVertex
 10
1229.050354
 20
1030.3312989
 30
0.0
  0
VERTEX
  5
37D
330
34C
100
AcDbEntity
  8
トラップ
  6
CONTINUOUS
 62
     6
100
AcDbVertex
100
AcDb2dVertex
 10
1229.3265381
 20
1030.1042481
 30
0.0
  0
VERTEX
  5
37E
330
34C
100
AcDbEntity
  8
トラップ
  6
CONTINUOUS
 62
     6
100
AcDbVertex
100
AcDb2dVertex
 10
1229.6167602
 20
1029.9089356
 30
0.0
  0
VERTEX
  5
37F
330
34C
100
AcDbEntity
  8
トラップ
  6
CONTINUOUS
 62
     6
100
AcDbVertex
100
AcDb2dVertex
 10
1229.9190368
 20
1029.7478028
 30
0.0
  0
VERTEX
  5
380
330
34C
100
AcDbEntity
  8
トラップ
  6
CONTINUOUS
 62
     6
100
AcDbVertex
100
AcDb2dVertex
 10
1230.2310791
 20
1029.6208497
 30
0.0
  0
VERTEX
  5
381
330
34C
100
AcDbEntity
  8
トラップ
  6
CONTINUOUS
 62
     6
100
AcDbVertex
100
AcDb2dVertex
 10
1230.5505981
 20
1029.5305177
 30
0.0
  0
VERTEX
  5
382
330
34C
100
AcDbEntity
  8
トラップ
  6
CONTINUOUS
 62
     6
100
AcDbVertex
100
AcDb2dVertex
 10
1230.875
 20
1029.4743653
 30
0.0
  0
VERTEX
  5
383
330
34C
100
AcDbEntity
  8
トラップ
  6
CONTINUOUS
 62
     6
100
AcDbVertex
100
AcDb2dVertex
 10
1231.2018432
 20
1029.4548341
 30
0.0
  0
VERTEX
  5
384
330
34C
100
AcDbEntity
  8
トラップ
  6
CONTINUOUS
 62
     6
100
AcDbVertex
100
AcDb2dVertex
 10
1231.5286865
 20
1029.4743653
 30
0.0
  0
VERTEX
  5
385
330
34C
100
AcDbEntity
  8
トラップ
  6
CONTINUOUS
 62
     6
100
AcDbVertex
100
AcDb2dVertex
 10
1231.8532409
 20
1029.5280763
 30
0.0
  0
VERTEX
  5
386
330
34C
100
AcDbEntity
  8
トラップ
  6
CONTINUOUS
 62
     6
100
AcDbVertex
100
AcDb2dVertex
 10
1232.1724548
 20
1029.6208497
 30
0.0
  0
VERTEX
  5
387
330
34C
100
AcDbEntity
  8
トラップ
  6
CONTINUOUS
 62
     6
100
AcDbVertex
100
AcDb2dVertex
 10
1232.484497
 20
1029.7478028
 30
0.0
  0
VERTEX
  5
388
330
34C
100
AcDbEntity
  8
トラップ
  6
CONTINUOUS
 62
     6
100
AcDbVertex
100
AcDb2dVertex
 10
1232.7869262
 20
1029.9089356
 30
0.0
  0
SEQEND
  5
389
330
34C
100
AcDbEntity
  8
トラップ
  6
CONTINUOUS
 62
     6
  0
POLYLINE
  5
38A
330
1F
100
AcDbEntity
  8
トラップ
  6
CONTINUOUS
 62
     6
100
AcDb2dPolyline
 66
     1
 10
0.0
 20
0.0
 30
0.0
 70
   128
  0
VERTEX
  5
38B
330
38A
100
AcDbEntity
  8
トラップ
  6
CONTINUOUS
 62
     6
100
AcDbVertex
100
AcDb2dVertex
 10
1232.7869262
 20
1029.9089356
 30
0.0
  0
VERTEX
  5
38C
330
38A
100
AcDbEntity
  8
トラップ
  6
CONTINUOUS
 62
     6
100
AcDbVertex
100
AcDb2dVertex
 10
1233.0771484
 20
1030.1042481
 30
0.0
  0
VERTEX
  5
38D
330
38A
100
AcDbEntity
  8
トラップ
  6
CONTINUOUS
 62
     6
100
AcDbVertex
100
AcDb2dVertex
 10
1233.3531799
 20
1030.3312989
 30
0.0
  0
VERTEX
  5
38E
330
38A
100
AcDbEntity
  8
トラップ
  6
CONTINUOUS
 62
     6
100
AcDbVertex
100
AcDb2dVertex
 10
1233.6128845
 20
1030.590088
 30
0.0
  0
VERTEX
  5
38F
330
38A
100
AcDbEntity
  8
トラップ
  6
CONTINUOUS
 62
     6
100
AcDbVertex
100
AcDb2dVertex
 10
1233.8535156
 20
1030.8732911
 30
0.0
  0
VERTEX
  5
390
330
38A
100
AcDbEntity
  8
トラップ
  6
CONTINUOUS
 62
     6
100
AcDbVertex
100
AcDb2dVertex
 10
1234.0744629
 20
1031.1833497
 30
0.0
  0
VERTEX
  5
391
330
38A
100
AcDbEntity
  8
トラップ
  6
CONTINUOUS
 62
     6
100
AcDbVertex
100
AcDb2dVertex
 10
1234.2734375
 20
1031.5202638
 30
0.0
  0
VERTEX
  5
392
330
38A
100
AcDbEntity
  8
トラップ
  6
CONTINUOUS
 62
     6
100
AcDbVertex
100
AcDb2dVertex
 10
1234.4495239
 20
1031.8767091
 30
0.0
  0
VERTEX
  5
393
330
38A
100
AcDbEntity
  8
トラップ
  6
CONTINUOUS
 62
     6
100
AcDbVertex
100
AcDb2dVertex
 10
1234.6004333
 20
1032.2502442
 30
0.0
  0
VERTEX
  5
394
330
38A
100
AcDbEntity
  8
トラップ
  6
CONTINUOUS
 62
     6
100
AcDbVertex
100
AcDb2dVertex
 10
1234.7255554
 20
1032.6408692
 30
0.0
  0
VERTEX
  5
395
330
38A
100
AcDbEntity
  8
トラップ
  6
CONTINUOUS
 62
     6
100
AcDbVertex
100
AcDb2dVertex
 10
1234.8242798
 20
1033.0437013
 30
0.0
  0
SEQEND
  5
396
330
38A
100
AcDbEntity
  8
トラップ
  6
CONTINUOUS
 62
     6
  0
POLYLINE
  5
397
330
1F
100
AcDbEntity
  8
トラップ
  6
CONTINUOUS
 62
     6
100
AcDb2dPolyline
 66
     1
 10
0.0
 20
0.0
 30
0.0
 70
   128
  0
VERTEX
  5
398
330
397
100
AcDbEntity
  8
トラップ
  6
CONTINUOUS
 62
     6
100
AcDbVertex
100
AcDb2dVertex
 10
1234.8242798
 20
1033.0437013
 30
0.0
  0
VERTEX
  5
399
330
397
100
AcDbEntity
  8
トラップ
  6
CONTINUOUS
 62
     6
100
AcDbVertex
100
AcDb2dVertex
 10
1234.8950805
 20
1033.4562989
 30
0.0
  0
VERTEX
  5
39A
330
397
100
AcDbEntity
  8
トラップ
  6
CONTINUOUS
 62
     6
100
AcDbVertex
100
AcDb2dVertex
 10
1234.9376526
 20
1033.8762208
 30
0.0
  0
VERTEX
  5
39B
330
397
100
AcDbEntity
  8
トラップ
  6
CONTINUOUS
 62
     6
100
AcDbVertex
100
AcDb2dVertex
 10
1234.9516907
 20
1034.2985841
 30
0.0
  0
SEQEND
  5
39C
330
397
100
AcDbEntity
  8
トラップ
  6
CONTINUOUS
 62
     6
  0
ARC
  5
39D
330
1F
100
AcDbEntity
  8
トラップ
  6
CONTINUOUS
 62
     6
100
AcDbCircle
 10
1215.6136169
 20
1002.7966309
 30
0.0
 40
29.99992370000001
100
AcDbArc
 50
295.0447387700001
 51
59.32755369854824
  0
ARC
  5
39E
330
1F
100
AcDbEntity
  8
トラップ
  6
CONTINUOUS
 62
     6
100
AcDbCircle
 10
1215.6136169
 20
1002.7966309
 30
0.0
 40
30.00000000000002
100
AcDbArc
 50
120.6724835202315
 51
244.9556274400001
  0
ARC
  5
39F
330
1F
100
AcDbEntity
  8
トラップ
  6
CONTINUOUS
 62
     6
100
AcDbCircle
 10
1215.6136169
 20
919.7966309
 30
0.0
 40
12.5
100
AcDbArc
 50
180.0
 51
0.0
  0
LINE
  5
3A0
330
1F
100
AcDbEntity
  8
トラップ
  6
CONTINUOUS
 62
     6
100
AcDbLine
 10
1201.8636169
 20
1027.7966309
 30
0.0
 11
1201.8636169
 21
984.6090664651953
 31
0.0
  0
LINE
  5
3A1
330
1F
100
AcDbEntity
  8
トラップ
  6
CONTINUOUS
 62
     6
100
AcDbLine
 10
1229.3636169
 20
1027.7966309
 30
0.0
 11
1229.3636169
 21
984.6090664651953
 31
0.0
  0
LINE
  5
3A2
330
1F
100
AcDbEntity
  8
トラップ
  6
CONTINUOUS
 62
     6
100
AcDbLine
 10
1203.1136169
 20
982.4440029557297
 30
0.0
 11
1228.1136169
 21
982.4440029557297
 31
0.0
  0
LINE
  5
3A3
330
1F
100
AcDbEntity
  8
トラップ
  6
CONTINUOUS
 62
     6
100
AcDbLine
 10
1229.3636169
 20
984.6090664651953
 30
0.0
 11
1228.1136169
 21
982.4440029557351
 31
0.0
  0
LINE
  5
3A4
330
1F
100
AcDbEntity
  8
トラップ
  6
CONTINUOUS
 62
     6
100
AcDbLine
 10
1201.8636169
 20
984.6090664651953
 30
0.0
 11
1203.1136169
 21
982.4440029557351
 31
0.0
  0
LINE
  5
3A5
330
1F
100
AcDbEntity
  8
トラップ
  6
CONTINUOUS
 62
     6
100
AcDbLine
 10
1203.1136169
 20
919.7966309
 30
0.0
 11
1203.1136169
 21
982.4440029557354
 31
0.0
  0
LINE
  5
3A6
330
1F
100
AcDbEntity
  8
トラップ
  6
CONTINUOUS
 62
     6
100
AcDbLine
 10
1228.1136169
 20
919.7966309
 30
0.0
 11
1228.1136169
 21
982.4440029557348
 31
0.0
  0
ARC
  5
3A7
330
1F
100
AcDbEntity
  8
トラップ
  6
CONTINUOUS
 62
     6
100
AcDbCircle
 10
1232.192508328999
 20
1115.228696978105
 30
0.0
 40
6.110105678105146
100
AcDbArc
 50
222.2737374192949
 51
317.7262625806995
  0
LINE
  5
3A8
330
1F
100
AcDbEntity
  8
トラップ
  6
CONTINUOUS
 62
     6
100
AcDbLine
 10
1227.671399757999
 20
1111.1185912998
 30
0.0
 11
1227.671399757999
 21
1115.1185913
 31
0.0
  0
LINE
  5
3A9
330
1F
100
AcDbEntity
  8
トラップ
  6
CONTINUOUS
 62
     6
100
AcDbLine
 10
1227.671399757999
 20
1111.1185912998
 30
0.0
 11
1224.580221608599
 21
1111.1185912998
 31
0.0
  0
LINE
  5
3AA
330
1F
100
AcDbEntity
  8
トラップ
  6
CONTINUOUS
 62
     6
100
AcDbLine
 10
1224.580221608599
 20
1111.1185912998
 30
0.0
 11
1224.580221608599
 21
1115.1185913
 31
0.0
  0
ARC
  5
3AB
330
1F
100
AcDbEntity
  8
トラップ
  6
CONTINUOUS
 62
     6
100
AcDbCircle
 10
1215.6136169
 20
1130.218591301982
 30
0.0
 40
21.10000000198211
100
AcDbArc
 50
244.8520222959027
 51
295.1479777040973
  0
LINE
  5
3AC
330
1F
100
AcDbEntity
  8
トラップ
  6
CONTINUOUS
 62
     6
100
AcDbLine
 10
1206.647012191399
 20
1111.1185912998
 30
0.0
 11
1206.647012191399
 21
1115.1185913
 31
0.0
  0
LINE
  5
3AD
330
1F
100
AcDbEntity
  8
トラップ
  6
CONTINUOUS
 62
     6
100
AcDbLine
 10
1206.647012191399
 20
1111.1185912998
 30
0.0
 11
1203.555834041998
 21
1111.1185912998
 31
0.0
  0
LINE
  5
3AE
330
1F
100
AcDbEntity
  8
トラップ
  6
CONTINUOUS
 62
     6
100
AcDbLine
 10
1203.555834041999
 20
1111.1185912998
 30
0.0
 11
1203.555834041999
 21
1115.1185913
 31
0.0
  0
ARC
  5
3AF
330
1F
100
AcDbEntity
  8
トラップ
  6
CONTINUOUS
 62
     6
100
AcDbCircle
 10
1199.034725470998
 20
1115.228696978104
 30
0.0
 40
6.110105678103862
100
AcDbArc
 50
222.2737374192943
 51
317.7262625807115
  0
ELLIPSE
  5
3B0
330
1F
100
AcDbEntity
  8
トラップ
  6
CONTINUOUS
 62
     6
100
AcDbEllipse
 10
1200.025159631898
 20
1094.049962149999
 30
0.0
 11
-1.891281075320144E-15
 21
4.939916778430074
 31
0.0
210
0.0
220
0.0
230
1.0
 40
0.8226741935096998
 41
0.0
 42
6.283185307179586
  0
ELLIPSE
  5
3B1
330
1F
100
AcDbEntity
  8
トラップ
  6
CONTINUOUS
 62
     6
100
AcDbEllipse
 10
1215.613616899998
 20
1094.049962149999
 30
0.0
 11
-8.12788410350004
 21
-2.614126904157020E-15
 31
0.0
210
0.0
220
0.0
230
1.0
 40
0.6077740178778928
 41
0.0
 42
6.283185307179586
  0
ELLIPSE
  5
3B2
330
1F
100
AcDbEntity
  8
トラップ
  6
CONTINUOUS
 62
     6
100
AcDbEllipse
 10
1231.202074168099
 20
1094.049962149999
 30
0.0
 11
-1.891281075320144E-15
 21
4.939916778430074
 31
0.0
210
0.0
220
0.0
230
1.0
 40
0.8226741935096998
 41
0.0
 42
6.283185307179586
  0
LINE
  5
3B3
330
1F
100
AcDbEntity
  8
トラップ
  6
CONTINUOUS
 62
     6
100
AcDbLine
 10
1241.8636169
 20
1119.3185913
 30
0.0
 11
1241.8636169
 21
1118.1185913
 31
0.0
  0
LINE
  5
3B4
330
1F
100
AcDbEntity
  8
トラップ
  6
CONTINUOUS
 62
     6
100
AcDbLine
 10
1189.3636169
 20
1119.3185913
 30
0.0
 11
1189.3636169
 21
1118.1185913
 31
0.0
  0
LINE
  5
3B5
330
1F
100
AcDbEntity
  8
トラップ
  6
CONTINUOUS
 62
     6
100
AcDbLine
 10
1189.3636169
 20
1118.1185913
 30
0.0
 11
1241.8636169
 21
1118.1185913
 31
0.0
  0
LINE
  5
3B6
330
1F
100
AcDbEntity
  8
トラップ
  6
CONTINUOUS
 62
     6
100
AcDbLine
 10
1189.3636169
 20
1119.3185913
 30
0.0
 11
1241.8636169
 21
1119.3185913
 31
0.0
  0
LINE
  5
3B7
330
1F
100
AcDbEntity
  8
トラップ
  6
CONTINUOUS
 62
     6
100
AcDbLine
 10
1190.6136169
 20
1118.118591300009
 30
0.0
 11
1190.6136169
 21
1117.618591300009
 31
0.0
  0
LINE
  5
3B8
330
1F
100
AcDbEntity
  8
トラップ
  6
CONTINUOUS
 62
     6
100
AcDbLine
 10
1233.1136169
 20
1118.118591300009
 30
0.0
 11
1233.1136169
 21
1117.618591300009
 31
0.0
  0
LINE
  5
3B9
330
1F
100
AcDbEntity
  8
トラップ
  6
CONTINUOUS
 62
     6
100
AcDbLine
 10
1240.6136169
 20
1118.118591300009
 30
0.0
 11
1240.6136169
 21
1117.618591300009
 31
0.0
  0
LINE
  5
3BA
330
1F
100
AcDbEntity
  8
トラップ
  6
CONTINUOUS
 62
     6
100
AcDbLine
 10
1190.6136169
 20
1117.618591300009
 30
0.0
 11
1240.6136169
 21
1117.618591300009
 31
0.0
  0
LINE
  5
3BB
330
1F
100
AcDbEntity
  8
トラップ
  6
CONTINUOUS
 62
     6
100
AcDbLine
 10
1190.6136169
 20
1118.118591300009
 30
0.0
 11
1240.6136169
 21
1118.118591300009
 31
0.0
  0
LINE
  5
3BC
330
1F
100
AcDbEntity
  8
トラップ
  6
CONTINUOUS
 62
     6
100
AcDbLine
 10
1240.1136169
 20
1115.1185913
 30
0.0
 11
1240.1136169
 21
1117.6185913
 31
0.0
  0
LINE
  5
3BD
330
1F
100
AcDbEntity
  8
トラップ
  6
CONTINUOUS
 62
     6
100
AcDbLine
 10
1191.1136169
 20
1115.1185913
 30
0.0
 11
1191.1136169
 21
1117.6185913
 31
0.0
  0
LINE
  5
3BE
330
1F
100
AcDbEntity
  8
トラップ
  6
CONTINUOUS
 62
     6
100
AcDbLine
 10
1240.1136169
 20
1115.1185913
 30
0.0
 11
1191.1136169
 21
1115.1185913
 31
0.0
  0
LINE
  5
3BF
330
1F
100
AcDbEntity
  8
トラップ
  6
CONTINUOUS
 62
     6
100
AcDbLine
 10
1240.1136169
 20
1117.6185913
 30
0.0
 11
1191.1136169
 21
1117.6185913
 31
0.0
  0
LINE
  5
3C0
330
1F
100
AcDbEntity
  8
トラップ
  6
CONTINUOUS
 62
     6
100
AcDbLine
 10
1234.713616900111
 20
1109.118591299888
 30
0.0
 11
1236.713616899999
 21
1111.118591299776
 31
0.0
  0
LINE
  5
3C1
330
1F
100
AcDbEntity
  8
トラップ
  6
CONTINUOUS
 62
     6
100
AcDbLine
 10
1196.513616899887
 20
1109.118591299888
 30
0.0
 11
1194.513616899998
 21
1111.118591299776
 31
0.0
  0
LINE
  5
3C2
330
1F
100
AcDbEntity
  8
トラップ
  6
CONTINUOUS
 62
     6
100
AcDbLine
 10
1236.713616899999
 20
1111.1185912998
 30
0.0
 11
1236.713616899999
 21
1115.1185913
 31
0.0
  0
LINE
  5
3C3
330
1F
100
AcDbEntity
  8
トラップ
  6
CONTINUOUS
 62
     6
100
AcDbLine
 10
1194.513616899998
 20
1111.1185912998
 30
0.0
 11
1194.513616899998
 21
1115.1185913
 31
0.0
  0
LINE
  5
3C4
330
1F
100
AcDbEntity
  8
トラップ
  6
CONTINUOUS
 62
     6
100
AcDbLine
 10
1234.713616900199
 20
1109.1185913
 30
0.0
 11
1196.513616899798
 21
1109.1185913
 31
0.0
  0
ARC
  5
3C5
330
1F
100
AcDbEntity
  8
トラップ
  6
CONTINUOUS
 62
     6
100
AcDbCircle
 10
1227.516394677776
 20
1094.049962149999
 30
0.0
 40
7.847222222222516
100
AcDbArc
 50
315.5019526855774
 51
44.49804731442273
  0
ARC
  5
3C6
330
1F
100
AcDbEntity
  8
トラップ
  6
CONTINUOUS
 62
     6
100
AcDbCircle
 10
1203.710839122221
 20
1094.049962149999
 30
0.0
 40
7.847222222222516
100
AcDbArc
 50
135.5019526855774
 51
224.4980473144227
  0
LINE
  5
3C7
330
1F
100
AcDbEntity
  8
トラップ
  6
CONTINUOUS
 62
     6
100
AcDbLine
 10
1233.113616899998
 20
1099.549962149999
 30
0.0
 11
1198.113616899998
 21
1099.549962149999
 31
0.0
  0
LINE
  5
3C8
330
1F
100
AcDbEntity
  8
トラップ
  6
CONTINUOUS
 62
     6
100
AcDbLine
 10
1233.113616899998
 20
1088.549962149999
 30
0.0
 11
1198.113616899998
 21
1088.549962149999
 31
0.0
  0
LINE
  5
3C9
330
1F
100
AcDbEntity
  8
トラップ
  6
CONTINUOUS
 62
     6
100
AcDbLine
 10
1231.6136169
 20
1109.1185913
 30
0.0
 11
1231.6136169
 21
1099.549962149999
 31
0.0
  0
LINE
  5
3CA
330
1F
100
AcDbEntity
  8
トラップ
  6
CONTINUOUS
 62
     6
100
AcDbLine
 10
1199.6136169
 20
1109.1185913
 30
0.0
 11
1199.6136169
 21
1099.549962149999
 31
0.0
  0
LINE
  5
3CB
330
1F
100
AcDbEntity
  8
トラップ
  6
CONTINUOUS
 62
     6
100
AcDbLine
 10
1203.1136169
 20
1039.7966309
 30
0.0
 11
1203.1136169
 21
1088.549962149999
 31
0.0
  0
LINE
  5
3CC
330
1F
100
AcDbEntity
  8
トラップ
  6
CONTINUOUS
 62
     6
100
AcDbLine
 10
1228.1136169
 20
1039.7966309
 30
0.0
 11
1228.1136169
 21
1088.549962149999
 31
0.0
  0
LINE
  5
3CD
330
1F
100
AcDbEntity
  8
トラップ
  6
CONTINUOUS
 62
     6
100
AcDbLine
 10
1189.3636169
 20
1119.318591300001
 30
0.0
 11
1191.478696265078
 21
1120.6185913
 31
0.0
  0
LINE
  5
3CE
330
1F
100
AcDbEntity
  8
トラップ
  6
CONTINUOUS
 62
     6
100
AcDbLine
 10
1241.8636169
 20
1119.318591300001
 30
0.0
 11
1239.748537534922
 21
1120.6185913
 31
0.0
  0
LINE
  5
3CF
330
1F
100
AcDbEntity
  8
トラップ
  6
EXLTYPE2
 62
     6
100
AcDbLine
 10
1202.913574149999
 20
472.7966308999999
 30
0.0
 11
1228.313659649999
 21
472.7966308999999
 31
0.0
  0
LINE
  5
3D0
330
1F
100
AcDbEntity
  8
トラップ
  6
EXLTYPE2
 62
     6
100
AcDbLine
 10
1202.913574149999
 20
472.7966309
 30
0.0
 11
1202.913574149999
 21
502.7966308999999
 31
0.0
  0
LINE
  5
3D1
330
1F
100
AcDbEntity
  8
トラップ
  6
EXLTYPE2
 62
     6
100
AcDbLine
 10
1228.313659649999
 20
472.7966309
 30
0.0
 11
1228.313659649999
 21
502.7966308999999
 31
0.0
  0
LINE
  5
3D2
330
1F
100
AcDbEntity
  8
トラップ
  6
EXLTYPE3
 62
     6
100
AcDbLine
 10
1156.6
 20
1002.7966309
 30
0.0
 11
1265.6135406
 21
1002.7966309
 31
0.0
  0
LINE
  5
3D3
330
1F
100
AcDbEntity
  8
トラップ
  6
EXLTYPE3
 62
     6
100
AcDbLine
 10
1215.6136169
 20
1133.0
 30
0.0
 11
1215.6136169
 21
482.0
 31
0.0
  0
CIRCLE
  5
3D4
330
1F
100
AcDbEntity
  8
トラップ
  6
EXLTYPE2
 62
     3
100
AcDbCircle
 10
1215.6136169
 20
2066.7965544432
 30
0.0
 40
12.5
  0
LINE
  5
3D5
330
1F
100
AcDbEntity
  8
トラップ
  6
EXLTYPE3
 62
     6
100
AcDbLine
 10
1215.6136169
 20
2179.0
 30
0.0
 11
1215.6136169
 21
2039.7
 31
0.0
  0
LINE
  5
3D6
330
1F
100
AcDbEntity
  8
トラップ
  6
EXLTYPE3
 62
     6
100
AcDbLine
 10
1340.900006681508
 20
2066.796498190807
 30
0.0
 11
1187.300005511951
 21
2066.79658373908
 31
0.0
  0
DIMENSION
  5
3D7
330
1F
100
AcDbEntity
  8
寸法
  6
CONTINUOUS
 62
     3
100
AcDbDimension
  2
*D16
 10
1472.114329016
 20
2023.795444359301
 30
0.0
 11
1448.614329075605
 21
2081.79596132965
 31
0.0
 70
   160
  3
ISO-25
100
AcDbAlignedDimension
 13
1376.6135276278
 23
2139.796478300001
 33
0.0
 14
1412.114329016
 24
2023.795444359301
 34
0.0
 50
90.0
100
AcDbRotatedDimension
1001
ACAD
1000
DSTYLE
1002
{
1070
   270
1070
     2
1070
     6
1000
EX_NORM
1070
     7
1000
EX_NORM
1070
    41
1040
30.0
1070
    42
1040
0.0
1070
    44
1040
0.0
1070
    73
1070
     0
1070
    74
1070
     0
1070
    75
1070
     1
1070
    76
1070
     1
1070
    77
1070
     1
1070
    78
1070
     0
1070
   140
1040
40.0
1070
   147
1040
0.0
1070
   173
1070
     1
1070
   176
1070
     3
1070
   177
1070
     3
1070
   178
1070
     2
1070
   271
1070
     0
1070
   277
1070
     2
1070
   279
1070
     2
1070
   280
1070
     0
1070
   287
1070
     5
1070
   340
1005
170
1002
}
  0
DIMENSION
  5
3E2
330
1F
100
AcDbEntity
  8
寸法
  6
CONTINUOUS
 62
     3
100
AcDbDimension
  2
*D17
 10
1472.114329016
 20
1898.795444359301
 30
0.0
 11
1448.614329075605
 21
1961.295444359301
 31
0.0
 70
   160
  3
ISO-25
100
AcDbAlignedDimension
 13
1412.114329016
 23
2023.795444359301
 33
0.0
 14
1412.114329016
 24
1898.795444359301
 34
0.0
 50
90.0
100
AcDbRotatedDimension
1001
ACAD
1000
DSTYLE
1002
{
1070
   270
1070
     2
1070
     6
1000
EX_NORM
1070
     7
1000
EX_NORM
1070
    41
1040
30.0
1070
    42
1040
6.99999988079071
1070
    44
1040
10.0
1070
    73
1070
     0
1070
    74
1070
     0
1070
    75
1070
     0
1070
    76
1070
     0
1070
    77
1070
     1
1070
    78
1070
     0
1070
   140
1040
40.0
1070
   147
1040
0.0
1070
   173
1070
     1
1070
   176
1070
     3
1070
   177
1070
     3
1070
   178
1070
     2
1070
   271
1070
     0
1070
   277
1070
     2
1070
   279
1070
     2
1070
   280
1070
     0
1070
   287
1070
     5
1070
   340
1005
170
1002
}
  0
DIMENSION
  5
3EF
330
1F
100
AcDbEntity
  8
寸法
  6
CONTINUOUS
 62
     3
100
AcDbDimension
  2
*D18
 10
1532.114329016
 20
1764.7967357
 30
0.0
 11
1508.614329075605
 21
1952.296607000001
 31
0.0
 70
   160
  3
ISO-25
100
AcDbAlignedDimension
 13
1383.6135275086
 23
2139.796478300001
 33
0.0
 14
1275.3189697
 24
1764.7967357
 34
0.0
 50
90.0
100
AcDbRotatedDimension
1001
ACAD
1000
DSTYLE
1002
{
1070
   270
1070
     2
1070
     6
1000
EX_NORM
1070
     7
1000
EX_NORM
1070
    41
1040
30.0
1070
    42
1040
6.99999988079071
1070
    44
1040
10.0
1070
    73
1070
     0
1070
    74
1070
     0
1070
    75
1070
     0
1070
    76
1070
     0
1070
    77
1070
     1
1070
    78
1070
     0
1070
   140
1040
40.0
1070
   147
1040
0.0
1070
   173
1070
     1
1070
   176
1070
     3
1070
   177
1070
     3
1070
   178
1070
     2
1070
   271
1070
     0
1070
   277
1070
     2
1070
   279
1070
     2
1070
   280
1070
     0
1070
   287
1070
     5
1070
   340
1005
170
1002
}
  0
DIMENSION
  5
3FC
330
1F
100
AcDbEntity
  8
寸法
  6
CONTINUOUS
 62
     3
100
AcDbDimension
  2
*D19
 10
1342.2043064817
 20
1965.7956935183
 30
0.0
 11
1247.875054998863
 21
1904.700460666937
 31
0.0
 70
   160
  3
ISO-25
100
AcDbAlignedDimension
 13
1118.9844664658
 23
1878.1665648658
 33
0.0
 14
1274.4089508
 24
2033.5910492
 34
0.0
 50
225.0
100
AcDbRotatedDimension
1001
ACAD
1000
DSTYLE
1002
{
1070
   270
1070
     2
1070
     6
1000
EX_NORM
1070
     7
1000
EX_NORM
1070
    41
1040
30.0
1070
    42
1040
6.999999880790639
1070
    44
1040
10.00000000000008
1070
    73
1070
     0
1070
    74
1070
     0
1070
    75
1070
     0
1070
    76
1070
     0
1070
    77
1070
     1
1070
    78
1070
     0
1070
   140
1040
40.0
1070
   147
1040
0.0
1070
   173
1070
     1
1070
   176
1070
     3
1070
   177
1070
     3
1070
   178
1070
     2
1070
   271
1070
     0
1070
   277
1070
     2
1070
   279
1070
     2
1070
   280
1070
     0
1070
   287
1070
     5
1070
   340
1005
170
1002
}
  0
DIMENSION
  5
409
330
1F
100
AcDbEntity
  8
寸法
  6
CONTINUOUS
 62
     3
100
AcDbDimension
  2
*D20
 10
1166.3841476331
 20
1681.615852366901
 30
0.0
 11
1061.025353124537
 21
1820.208665506937
 31
0.0
 70
   160
  3
ISO-25
100
AcDbAlignedDimension
 13
1070.8132620345
 23
2073.9481820655
 33
0.0
 14
1314.7648696831
 24
1829.996574416901
 34
0.0
 50
135.0000000000001
100
AcDbRotatedDimension
1001
ACAD
1000
DSTYLE
1002
{
1070
   270
1070
     2
1070
     6
1000
EX_NORM
1070
     7
1000
EX_NORM
1070
    41
1040
30.0
1070
    42
1040
6.99999988079096
1070
    44
1040
10.00000000000008
1070
    73
1070
     0
1070
    74
1070
     0
1070
    75
1070
     0
1070
    76
1070
     0
1070
    77
1070
     1
1070
    78
1070
     0
1070
   140
1040
40.0
1070
   147
1040
0.0
1070
   173
1070
     1
1070
   176
1070
     3
1070
   177
1070
     3
1070
   178
1070
     2
1070
   271
1070
     0
1070
   277
1070
     2
1070
   279
1070
     2
1070
   280
1070
     0
1070
   287
1070
     5
1070
   340
1005
170
1002
}
  0
DIMENSION
  5
416
330
1F
100
AcDbEntity
  8
寸法
  6
CONTINUOUS
 62
     3
100
AcDbDimension
  2
*D21
 10
1153.971984136436
 20
1602.028015794176
 30
0.0
 11
1015.025494379606
 21
1774.20852425798
 31
0.0
 70
   160
  3
ISO-25
100
AcDbAlignedDimension
 13
1037.2257081151
 23
2107.5357361359
 33
0.0
 14
1348.3527062683
 24
1796.4087378317
 34
0.0
 50
134.9999999860963
100
AcDbRotatedDimension
1001
ACAD
1000
DSTYLE
1002
{
1070
   270
1070
     2
1070
     6
1000
EX_NORM
1070
     7
1000
EX_NORM
1070
    41
1040
30.0
1070
    42
1040
6.99999988079096
1070
    44
1040
10.00000000000016
1070
    73
1070
     0
1070
    74
1070
     0
1070
    75
1070
     0
1070
    76
1070
     0
1070
    77
1070
     1
1070
    78
1070
     0
1070
   140
1040
40.0
1070
   147
1040
0.0
1070
   173
1070
     1
1070
   176
1070
     3
1070
   177
1070
     3
1070
   178
1070
     2
1070
   271
1070
     0
1070
   277
1070
     2
1070
   279
1070
     2
1070
   280
1070
     0
1070
   287
1070
     5
1070
   340
1005
170
1002
}
  0
DIMENSION
  5
423
330
1F
100
AcDbEntity
  8
寸法
  6
CONTINUOUS
 62
     3
100
AcDbDimension
  2
*D22
 10
1468.614329075609
 20
1282.618424466
 30
0.0
 11
1445.114329135217
 21
1377.6184082
 31
0.0
 70
   160
  3
ISO-25
100
AcDbAlignedDimension
 13
1380.6136169
 23
1312.6184082
 33
0.0
 14
1412.1134834588
 24
1282.618424466
 34
0.0
 50
90.0
100
AcDbRotatedDimension
1001
ACAD
1000
DSTYLE
1002
{
1070
   270
1070
     2
1070
     6
1000
EX_NORM
1070
     7
1000
EX_NORM
1070
    41
1040
30.0
1070
    42
1040
6.99999988079071
1070
    44
1040
9.999999999999773
1070
    73
1070
     0
1070
    74
1070
     0
1070
    75
1070
     0
1070
    76
1070
     0
1070
    77
1070
     1
1070
    78
1070
     0
1070
   140
1040
40.0
1070
   147
1040
0.0
1070
   173
1070
     1
1070
   176
1070
     3
1070
   177
1070
     3
1070
   178
1070
     2
1070
   271
1070
     0
1070
   277
1070
     2
1070
   279
1070
     2
1070
   280
1070
     1
1070
   287
1070
     5
1070
   340
1005
170
1002
}
  0
DIMENSION
  5
432
330
1F
100
AcDbEntity
  8
寸法
  6
CONTINUOUS
 62
     3
100
AcDbDimension
  2
*D23
 10
842.8449859832398
 20
502.7966309
 30
0.0
 11
819.3449860428448
 21
882.7965545999999
 31
0.0
 70
   160
  3
ISO-25
100
AcDbAlignedDimension
 13
881.1003722999999
 23
1262.7964783
 33
0.0
 14
848.0000000000001
 24
502.7966309
 34
0.0
 50
90.0
100
AcDbRotatedDimension
1001
ACAD
1000
DSTYLE
1002
{
1070
   270
1070
     2
1070
     6
1000
EX_NORM
1070
     7
1000
EX_NORM
1070
    41
1040
30.0
1070
    42
1040
0.0
1070
    44
1040
0.0
1070
    73
1070
     0
1070
    74
1070
     0
1070
    75
1070
     0
1070
    76
1070
     1
1070
    77
1070
     1
1070
    78
1070
     0
1070
   140
1040
40.0
1070
   147
1040
0.0
1070
   173
1070
     1
1070
   176
1070
     3
1070
   177
1070
     3
1070
   178
1070
     2
1070
   271
1070
     0
1070
   277
1070
     2
1070
   279
1070
     2
1070
   280
1070
     0
1070
   287
1070
     5
1070
   340
1005
170
1002
}
  0
DIMENSION
  5
43E
330
1F
100
AcDbEntity
  8
寸法
  6
CONTINUOUS
 62
     3
100
AcDbDimension
  2
*D24
 10
842.844985983241
 20
1262.7964783
 30
0.0
 11
819.3449860428464
 21
1374.92585145
 31
0.0
 70
   160
 53
89.9999999999995
  3
ISO-25
100
AcDbAlignedDimension
 13
1239.4881287
 23
1312.6184082
 33
0.0
 14
1004.6507874
 24
1262.7964783
 34
0.0
 50
90.0
100
AcDbRotatedDimension
1001
ACAD
1000
DSTYLE
1002
{
1070
   270
1070
     2
1070
     6
1000
EX_NORM
1070
     7
1000
EX_NORM
1070
    41
1040
30.0
1070
    42
1040
6.999999880790256
1070
    44
1040
70.00000000000296
1070
    73
1070
     0
1070
    74
1070
     0
1070
    75
1070
     0
1070
    76
1070
     0
1070
    77
1070
     1
1070
    78
1070
     0
1070
   140
1040
40.0
1070
   147
1040
0.0
1070
   173
1070
     1
1070
   176
1070
     3
1070
   177
1070
     3
1070
   178
1070
     2
1070
   271
1070
     0
1070
   277
1070
     2
1070
   279
1070
     2
1070
   280
1070
     0
1070
   287
1070
     5
1070
   340
1005
170
1002
}
  0
DIMENSION
  5
44D
330
1F
100
AcDbEntity
  8
寸法
  6
CONTINUOUS
 62
     3
100
AcDbDimension
  2
*D25
 10
1380.6136169
 20
923.9
 30
0.0
 11
1340.6136169
 21
947.3999999403953
 31
0.0
 70
   160
  3
ISO-25
100
AcDbAlignedDimension
 13
1300.6136169
 23
1025.2965737
 33
0.0
 14
1380.6136169
 24
989.0
 34
0.0
100
AcDbRotatedDimension
1001
ACAD
1000
DSTYLE
1002
{
1070
   270
1070
     2
1070
     6
1000
EX_NORM
1070
     7
1000
EX_NORM
1070
    41
1040
30.0
1070
    42
1040
33.29657316207886
1070
    44
1040
10.0
1070
    73
1070
     0
1070
    74
1070
     0
1070
    75
1070
     0
1070
    76
1070
     1
1070
    77
1070
     1
1070
    78
1070
     0
1070
   140
1040
40.0
1070
   147
1040
0.0
1070
   173
1070
     1
1070
   176
1070
     3
1070
   177
1070
     3
1070
   178
1070
     2
1070
   271
1070
     0
1070
   277
1070
     2
1070
   279
1070
     2
1070
   280
1070
     0
1070
   287
1070
     5
1070
   340
1005
170
1002
}
  0
DIMENSION
  5
459
330
1F
100
AcDbEntity
  8
寸法
  6
CONTINUOUS
 62
     3
100
AcDbDimension
  2
*D26
 10
1380.6136169
 20
1401.4238252899
 30
0.0
 11
1344.11360165
 21
1424.923825230295
 31
0.0
 70
   160
  3
ISO-25
100
AcDbAlignedDimension
 13
1307.6135864
 23
1341.6
 33
0.0
 14
1380.6136169
 24
1342.0
 34
0.0
100
AcDbRotatedDimension
1001
ACAD
1000
DSTYLE
1002
{
1070
   270
1070
     2
1070
     6
1000
EX_NORM
1070
     7
1000
EX_NORM
1070
    41
1040
30.0
1070
    42
1040
1.899999976158142
1070
    44
1040
10.0
1070
    73
1070
     0
1070
    74
1070
     0
1070
    75
1070
     0
1070
    76
1070
     1
1070
    77
1070
     1
1070
    78
1070
     0
1070
   140
1040
40.0
1070
   147
1040
0.0
1070
   173
1070
     1
1070
   176
1070
     3
1070
   177
1070
     3
1070
   178
1070
     2
1070
   271
1070
     0
1070
   277
1070
     2
1070
   279
1070
     2
1070
   280
1070
     0
1070
   287
1070
     5
1070
   340
1005
170
1002
}
  0
DIMENSION
  5
465
330
1F
100
AcDbEntity
  8
寸法
  6
CONTINUOUS
 62
     3
100
AcDbDimension
  2
*D27
 10
1468.614329075599
 20
502.7966309
 30
0.0
 11
1445.114329135204
 21
765.2966308999995
 31
0.0
 70
   160
  3
ISO-25
100
AcDbAlignedDimension
 13
1335.1135690808
 23
1027.7966309
 33
0.0
 14
1421.0
 24
502.7966309
 34
0.0
 50
90.0
100
AcDbRotatedDimension
1001
ACAD
1000
DSTYLE
1002
{
1070
   270
1070
     2
1070
     6
1000
EX_NORM
1070
     7
1000
EX_NORM
1070
    41
1040
30.0
1070
    42
1040
6.99999988079071
1070
    44
1040
10.0
1070
    73
1070
     0
1070
    74
1070
     0
1070
    75
1070
     0
1070
    76
1070
     0
1070
    77
1070
     1
1070
    78
1070
     0
1070
   140
1040
40.0
1070
   147
1040
0.0
1070
   173
1070
     1
1070
   176
1070
     3
1070
   177
1070
     3
1070
   178
1070
     2
1070
   271
1070
     0
1070
   277
1070
     2
1070
   279
1070
     2
1070
   280
1070
     0
1070
   287
1070
     5
1070
   340
1005
170
1002
}
  0
DIMENSION
  5
472
330
1F
100
AcDbEntity
  8
寸法
  6
CONTINUOUS
 62
     3
100
AcDbDimension
  2
*D28
 10
902.84498598324
 20
502.7966309
 30
0.0
 11
879.3449860428447
 21
752.7966309
 31
0.0
 70
   160
  3
ISO-25
100
AcDbAlignedDimension
 13
1156.6
 23
1002.7966309
 33
0.0
 14
1127.0
 24
502.7966309
 34
0.0
 50
90.0
100
AcDbRotatedDimension
1001
ACAD
1000
DSTYLE
1002
{
1070
   270
1070
     2
1070
     6
1000
EX_NORM
1070
     7
1000
EX_NORM
1070
    41
1040
30.0
1070
    42
1040
6.99999988079071
1070
    44
1040
10.00000000000011
1070
    73
1070
     0
1070
    74
1070
     0
1070
    75
1070
     0
1070
    76
1070
     1
1070
    77
1070
     1
1070
    78
1070
     0
1070
   140
1040
40.0
1070
   147
1040
0.0
1070
   173
1070
     1
1070
   176
1070
     3
1070
   177
1070
     3
1070
   178
1070
     2
1070
   271
1070
     0
1070
   277
1070
     2
1070
   279
1070
     2
1070
   280
1070
     0
1070
   287
1070
     5
1070
   340
1005
170
1002
}
  0
DIMENSION
  5
47E
330
1F
100
AcDbEntity
  8
寸法
  6
CONTINUOUS
 62
     3
100
AcDbDimension
  2
*D29
 10
1380.6136169
 20
373.9999999999999
 30
0.0
 11
1519.999999999999
 21
397.4999999403953
 31
0.0
 70
   160
  1
165（床排水）
  3
ISO-25
100
AcDbAlignedDimension
 13
1215.6136169
 23
482.0
 33
0.0
 14
1380.6136169
 24
502.7966309
 34
0.0
100
AcDbRotatedDimension
1001
ACAD
1000
DSTYLE
1002
{
1070
   270
1070
     2
1070
     6
1000
EX_NORM
1070
     7
1000
EX_NORM
1070
    41
1040
30.0
1070
    42
1040
6.99999988079071
1070
    44
1040
10.0
1070
    73
1070
     0
1070
    74
1070
     0
1070
    75
1070
     0
1070
    76
1070
     0
1070
    77
1070
     1
1070
    78
1070
     0
1070
   140
1040
40.0
1070
   147
1040
0.0
1070
   173
1070
     1
1070
   176
1070
     3
1070
   177
1070
     3
1070
   178
1070
     2
1070
   271
1070
     0
1070
   277
1070
     2
1070
   279
1070
     2
1070
   280
1070
     0
1070
   287
1070
     5
1070
   340
1005
170
1002
}
  0
DIMENSION
  5
48B
330
1F
100
AcDbEntity
  8
寸法
  6
CONTINUOUS
 62
     3
100
AcDbDimension
  2
*D30
 10
782.8449859832398
 20
1120.6185913
 30
0.0
 11
759.3449860428445
 21
1216.61849975
 31
0.0
 70
   160
  3
ISO-25
100
AcDbAlignedDimension
 13
944.6507873999999
 23
1312.6184082
 33
0.0
 14
944.6507873999999
 24
1120.6185913
 34
0.0
 50
90.0
100
AcDbRotatedDimension
1001
ACAD
1000
DSTYLE
1002
{
1070
   270
1070
     2
1070
     6
1000
EX_NORM
1070
     7
1000
EX_NORM
1070
    41
1040
30.0
1070
    42
1040
0.0
1070
    44
1040
0.0
1070
    73
1070
     0
1070
    74
1070
     0
1070
    75
1070
     1
1070
    76
1070
     0
1070
    77
1070
     1
1070
    78
1070
     0
1070
   140
1040
40.0
1070
   147
1040
0.0
1070
   173
1070
     1
1070
   176
1070
     3
1070
   177
1070
     3
1070
   178
1070
     2
1070
   271
1070
     0
1070
   277
1070
     2
1070
   279
1070
     2
1070
   280
1070
     0
1070
   287
1070
     5
1070
   340
1005
170
1002
}
  0
LEADER
  5
497
330
1F
100
AcDbEntity
  8
寸法
  6
CONTINUOUS
 62
     3
100
AcDbLeader
  3
ISO-25
 76
     3
 10
1134.3983720894
 20
1288.0083857344
 30
0.0
 10
1050.107489806
 20
1434.0044764641
 30
0.0
 10
829.7848161894003
 20
1434.0044764641
 30
0.0
1001
ACAD
1000
DSTYLE
1002
{
1070
     5
1000
EX_NORM
1070
    41
1040
30.0
1070
   341
1005
4F
1002
}
  0
TEXT
  5
498
330
1F
100
AcDbEntity
  8
寸法
  6
CONTINUOUS
 62
     2
100
AcDbText
 10
973.1000162578
 20
894.9000628735599
 30
0.0
 40
40.0
  1
ＮＬ３１Ｐ
 41
0.9655172413793103
  7
EXCADSTD
 72
     5
 11
1133.1000162578
 21
894.9000628735599
 31
0.0
100
AcDbText
  0
LEADER
  5
499
330
1F
100
AcDbEntity
  8
寸法
  6
CONTINUOUS
 62
     3
100
AcDbLeader
  3
ISO-25
 76
     3
 10
1202.9139706383
 20
940.39999678753
 30
0.0
 10
1130.0000168578
 20
891.4000018735601
 30
0.0
 10
972.0
 20
891.4000018735601
 30
0.0
1001
ACAD
1000
DSTYLE
1002
{
1070
     5
1000
EX_NORM
1070
    41
1040
30.0
1070
   341
1005
4F
1002
}
  0
TEXT
  5
49A
330
1F
100
AcDbEntity
  8
寸法
  6
CONTINUOUS
 62
     2
100
AcDbText
 10
828.9718159728009
 20
1437.504537464099
 30
0.0
 40
40.0
  1
ＮＴ７ＡＢＷ１
 41
0.9390243902439025
  7
EXCADSTD
 72
     5
 11
1048.971815972801
 21
1437.504537464099
 31
0.0
100
AcDbText
  0
TEXT
  5
49B
330
1F
100
AcDbEntity
  8
寸法
  6
CONTINUOUS
 62
     2
100
AcDbText
 10
972.0884147456
 20
659.85525469231
 30
0.0
 40
40.0
  1
ＮＬ３１Ｓ
 41
0.9655172413793103
  7
EXCADSTD
 72
     5
 11
1132.0884147456
 21
659.85525469231
 31
0.0
100
AcDbText
  0
LEADER
  5
49C
330
1F
100
AcDbEntity
  8
寸法
  6
CONTINUOUS
 62
     3
100
AcDbLeader
  3
ISO-25
 76
     3
 10
1202.913574149999
 20
572.8088542703431
 30
0.0
 10
1127.6913346561
 20
653.1375374633897
 30
0.0
 10
972.0
 20
653.1375374633897
 30
0.0
1001
ACAD
1000
DSTYLE
1002
{
1070
     5
1000
EX_NORM
1070
    41
1040
30.0
1070
   341
1005
4F
1002
}
  0
TEXT
  5
49D
330
1F
100
AcDbEntity
  8
寸法
  6
CONTINUOUS
 62
     2
100
AcDbText
 10
1375.7948914
 20
1484.0497742
 30
0.0
 40
40.0
  1
Ｗ.Ｌ.
 50
90.0
 41
1.120673076923077
  7
EXCADSTD
 72
     5
 11
1375.7948914
 21
1595.0497742
 31
0.0
100
AcDbText
  0
TEXT
  5
49E
330
1F
100
AcDbEntity
  8
寸法
  6
CONTINUOUS
 62
     2
100
AcDbText
 10
1170.2258965
 20
1404.9238862899
 30
0.0
 40
40.0
  1
Ｋ５
 41
1.020759090909092
  7
EXCADSTD
 72
     5
 11
1234.3878965
 21
1404.9238862899
 31
0.0
100
AcDbText
  0
LEADER
  5
49F
330
1F
100
AcDbEntity
  8
寸法
  6
CONTINUOUS
 62
     3
100
AcDbLeader
  3
ISO-25
 76
     3
 10
1290.227322803027
 20
1334.534557315264
 30
0.0
 10
1245.5
 20
1401.4238252899
 30
0.0
 10
1169.6797032113
 20
1401.4238252899
 30
0.0
1001
ACAD
1000
DSTYLE
1002
{
1070
     5
1000
EX_NORM
1070
    41
1040
30.0
1070
   341
1005
4F
1002
}
  0
DIMENSION
  5
4A0
330
1F
100
AcDbEntity
  8
寸法
  6
CONTINUOUS
 62
     3
100
AcDbDimension
  2
*D31
 10
1380.6136169
 20
437.0
 30
0.0
 11
1531.6136169
 21
460.4999999403954
 31
0.0
 70
   160
  1
73（床給水）
  3
ISO-25
100
AcDbAlignedDimension
 13
1307.6135864
 23
494.7966309
 33
0.0
 14
1380.6136169
 24
502.7966309
 34
0.0
100
AcDbRotatedDimension
1001
ACAD
1000
DSTYLE
1002
{
1070
   270
1070
     2
1070
     6
1000
EX_NORM
1070
     7
1000
EX_NORM
1070
    41
1040
30.0
1070
    42
1040
6.99999988079071
1070
    44
1040
10.0
1070
    73
1070
     0
1070
    74
1070
     0
1070
    75
1070
     0
1070
    76
1070
     1
1070
    77
1070
     1
1070
    78
1070
     0
1070
   140
1040
40.0
1070
   147
1040
0.0
1070
   173
1070
     1
1070
   176
1070
     3
1070
   177
1070
     3
1070
   178
1070
     2
1070
   271
1070
     0
1070
   277
1070
     2
1070
   279
1070
     2
1070
   280
1070
     2
1070
   287
1070
     5
1070
   340
1005
170
1002
}
  0
TEXT
  5
4AC
330
1F
100
AcDbEntity
  8
寸法
  6
CONTINUOUS
 62
     2
100
AcDbText
 10
579.8469238
 20
507.7966309
 30
0.0
 40
40.0
  1
Ｆ.Ｌ.
 41
0.9692307692307692
  7
EXCADSTD
 72
     5
 11
675.8469238
 21
507.7966309
 31
0.0
100
AcDbText
  0
TEXT
  5
4AD
330
1F
100
AcDbEntity
  8
寸法
  6
CONTINUOUS
 62
     2
100
AcDbText
 10
1069.5203641222
 20
2224.6481664729
 30
0.0
 40
40.0
  1
φ２５
 41
1.070588235294118
  7
EXCADSTD
 72
     5
 11
1173.5203641222
 21
2224.6481664729
 31
0.0
100
AcDbText
  0
POLYLINE
  5
4AE
330
1F
100
AcDbEntity
  8
寸法
  6
CONTINUOUS
 62
     3
100
AcDb2dPolyline
 66
     1
 10
0.0
 20
0.0
 30
0.0
 70
   128
  0
VERTEX
  5
4AF
330
4AE
100
AcDbEntity
  8
寸法
  6
CONTINUOUS
 62
     3
100
AcDbVertex
100
AcDb2dVertex
 10
1318.113464400046
 20
2148.296539299974
 30
0.0
  0
VERTEX
  5
4B0
330
4AE
100
AcDbEntity
  8
寸法
  6
CONTINUOUS
 62
     3
100
AcDbVertex
100
AcDb2dVertex
 10
1344.433314467299
 20
2193.495460130301
 30
0.0
  0
SEQEND
  5
4B1
330
4AE
100
AcDbEntity
  8
寸法
  6
CONTINUOUS
 62
     3
  0
LINE
  5
4B2
330
1F
100
AcDbEntity
  8
寸法
  6
CONTINUOUS
 62
     3
100
AcDbLine
 10
1330.684934309179
 20
2181.477647209469
 30
0.0
 11
1318.113464400046
 21
2148.296539299974
 31
0.0
  0
LINE
  5
4B3
330
1F
100
AcDbEntity
  8
寸法
  6
CONTINUOUS
 62
     3
100
AcDbLine
 10
1318.113464400046
 20
2148.296539299974
 30
0.0
 11
1340.766835798251
 21
2175.606840324912
 31
0.0
  0
POLYLINE
  5
4B4
330
1F
100
AcDbEntity
  8
寸法
  6
CONTINUOUS
 62
     3
100
AcDb2dPolyline
 66
     1
 10
0.0
 20
0.0
 30
0.0
 70
   128
  0
VERTEX
  5
4B5
330
4B4
100
AcDbEntity
  8
寸法
  6
CONTINUOUS
 62
     3
100
AcDbVertex
100
AcDb2dVertex
 10
1203.113616900013
 20
2169.124499455908
 30
0.0
  0
VERTEX
  5
4B6
330
4B4
100
AcDbEntity
  8
寸法
  6
CONTINUOUS
 62
     3
100
AcDbVertex
100
AcDb2dVertex
 10
1172.8196744222
 20
2221.1481053729
 30
0.0
  0
SEQEND
  5
4B7
330
4B4
100
AcDbEntity
  8
寸法
  6
CONTINUOUS
 62
     3
  0
LINE
  5
4B8
330
1F
100
AcDbEntity
  8
寸法
  6
CONTINUOUS
 62
     3
100
AcDbLine
 10
1180.460245501808
 20
2196.434800480847
 30
0.0
 11
1203.113616900013
 21
2169.124499455908
 31
0.0
  0
LINE
  5
4B9
330
1F
100
AcDbEntity
  8
寸法
  6
CONTINUOUS
 62
     3
100
AcDbLine
 10
1203.113616900013
 20
2169.124499455908
 30
0.0
 11
1190.54214699088
 21
2202.305607365403
 31
0.0
  0
LINE
  5
4BA
330
1F
100
AcDbEntity
  8
寸法
  6
CONTINUOUS
 62
     3
100
AcDbLine
 10
1080.6606473222
 20
2221.1481053729
 30
0.0
 11
1172.8196744222
 21
2221.1481053729
 31
0.0
  0
TEXT
  5
4BB
330
1F
100
AcDbEntity
  8
寸法
  6
CONTINUOUS
 62
     2
100
AcDbText
 10
1339.5866110257
 20
2196.9955212303
 30
0.0
 40
40.0
  1
Ｒ
 41
1.12
  7
EXCADSTD
 72
     5
 11
1371.5866110257
 21
2196.9955212303
 31
0.0
100
AcDbText
  0
TEXT
  5
4BC
330
1F
100
AcDbEntity
  8
寸法
  6
CONTINUOUS
 62
     6
100
AcDbText
 10
1381.4618857257
 20
2196.9955212303
 30
0.0
 40
40.0
  1
／
 41
1.12
  7
EXCADSTD
 72
     5
 11
1413.4618857257
 21
2196.9955212303
 31
0.0
100
AcDbText
  0
TEXT
  5
4BD
330
1F
100
AcDbEntity
  8
寸法
  6
CONTINUOUS
 62
     2
100
AcDbText
 10
1373.0435506257
 20
2212.616706530301
 30
0.0
 40
25.0
  1
１
 41
1.12
  7
EXCADSTD
 72
     5
 11
1393.0435506257
 21
2212.616706530301
 31
0.0
100
AcDbText
  0
TEXT
  5
4BE
330
1F
100
AcDbEntity
  8
寸法
  6
CONTINUOUS
 62
     2
100
AcDbText
 10
1406.9580404257
 20
2195.6670910303
 30
0.0
 40
25.0
  1
２
 41
1.12
  7
EXCADSTD
 72
     5
 11
1426.9580404257
 21
2195.6670910303
 31
0.0
100
AcDbText
  0
LINE
  5
4BF
330
1F
100
AcDbEntity
  8
寸法
  6
CONTINUOUS
 62
     3
100
AcDbLine
 10
1436.5923415673
 20
2193.495460130301
 30
0.0
 11
1344.4333144673
 21
2193.495460130301
 31
0.0
  0
DIMENSION
  5
4C0
330
1F
100
AcDbEntity
  8
寸法
  6
CONTINUOUS
 62
     3
100
AcDbDimension
  2
*D32
 10
902.8449859832399
 20
2066.7965679697
 30
0.0
 11
879.344986042847
 21
2294.796567969699
 31
0.0
 70
   160
  1
73（床給排水）
  3
ISO-25
100
AcDbAlignedDimension
 13
1215.6135950655
 23
2139.7965679697
 33
0.0
 14
1215.6135544077
 24
2066.7965679697
 34
0.0
 50
90.0
100
AcDbRotatedDimension
1001
ACAD
1000
DSTYLE
1002
{
1070
   270
1070
     2
1070
     6
1000
EX_NORM
1070
     7
1000
EX_NORM
1070
    41
1040
30.0
1070
    42
1040
34.01355440769976
1070
    44
1040
9.999999999999432
1070
    73
1070
     0
1070
    74
1070
     0
1070
    75
1070
     1
1070
    76
1070
     0
1070
    77
1070
     1
1070
    78
1070
     0
1070
   140
1040
40.0
1070
   147
1040
0.0
1070
   173
1070
     1
1070
   176
1070
     3
1070
   177
1070
     3
1070
   178
1070
     2
1070
   271
1070
     0
1070
   277
1070
     2
1070
   279
1070
     2
1070
   280
1070
     1
1070
   287
1070
     5
1070
   340
1005
170
1002
}
  0
TEXT
  5
4CC
330
1F
100
AcDbEntity
  8
寸法
  6
CONTINUOUS
 62
     2
100
AcDbText
 10
1394.481781
 20
1165.7550404472
 30
0.0
 40
40.0
  1
ＪＬ２ＭＹ
 41
0.9655172413793103
  7
EXCADSTD
 72
     5
 11
1554.481781
 21
1165.7550404472
 31
0.0
100
AcDbText
  0
LEADER
  5
4CD
330
1F
100
AcDbEntity
  8
寸法
  6
CONTINUOUS
 62
     3
100
AcDbLeader
  3
ISO-25
 76
     3
 10
1306.963562
 20
1078.0
 30
0.0
 10
1394.481781
 20
1165.518219
 30
0.0
 10
1544.0
 20
1165.518219
 30
0.0
1001
ACAD
1000
DSTYLE
1002
{
1070
     5
1000
EX_NORM
1070
    41
1040
30.0
1070
   341
1005
4F
1002
}
  0
ARC
  5
4CE
330
1F
100
AcDbEntity
  8
寸法
  6
CONTINUOUS
 62
     6
100
AcDbCircle
 10
1322.2642519946
 20
1015.2966309
 30
0.0
 40
6.000000000000001
100
AcDbArc
 50
256.3574633978001
 51
43.64253660220001
  0
LINE
  5
4CF
330
1F
100
AcDbEntity
  8
寸法
  6
CONTINUOUS
 62
     6
100
AcDbLine
 10
1274.6210236908
 20
1019.4375727893
 30
0.0
 11
1285.6419468868
 21
1030.9934912689
 31
0.0
  0
ARC
  5
4D0
330
1F
100
AcDbEntity
  8
寸法
  6
CONTINUOUS
 62
     6
100
AcDbCircle
 10
1278.9629818054
 20
1015.2966309
 30
0.0
 40
6.000000000000001
100
AcDbArc
 50
136.3574633978
 51
283.6425366022301
  0
LINE
  5
4D1
330
1F
100
AcDbEntity
  8
寸法
  6
CONTINUOUS
 62
     6
100
AcDbLine
 10
1295.8963441852
 20
1013.232354147
 30
0.0
 11
1280.3781636198
 21
1009.4659139259
 31
0.0
  0
ARC
  5
4D2
330
1F
100
AcDbEntity
  8
寸法
  6
CONTINUOUS
 62
     6
100
AcDbCircle
 10
1300.6136169
 20
993.7966309000001
 30
0.0
 40
20.0
100
AcDbArc
 50
76.35746339779996
 51
103.6425366022
  0
LINE
  5
4D3
330
1F
100
AcDbEntity
  8
寸法
  6
CONTINUOUS
 62
     6
100
AcDbLine
 10
1320.8490701802
 20
1009.4659139259
 30
0.0
 11
1305.3308896148
 21
1013.232354147
 31
0.0
  0
LINE
  5
4D4
330
1F
100
AcDbEntity
  8
寸法
  6
CONTINUOUS
 62
     6
100
AcDbLine
 10
1315.5852869132
 20
1030.9934912689
 30
0.0
 11
1326.6062101092
 21
1019.4375727893
 31
0.0
  0
CIRCLE
  5
4D5
330
1F
100
AcDbEntity
  8
寸法
  6
CONTINUOUS
 62
     6
100
AcDbCircle
 10
1300.6136169
 20
1027.7966309
 30
0.0
 40
6.850000000000001
  0
LINE
  5
4D6
330
1F
100
AcDbEntity
  8
寸法
  6
CONTINUOUS
 62
     6
100
AcDbLine
 10
1313.113616899999
 20
1047.296630900012
 30
0.0
 11
1308.481023897978
 21
1047.296630900012
 31
0.0
  0
LINE
  5
4D7
330
1F
100
AcDbEntity
  8
寸法
  6
CONTINUOUS
 62
     6
100
AcDbLine
 10
1292.746209902022
 20
1047.296630900012
 30
0.0
 11
1288.113616899995
 21
1047.296630900012
 31
0.0
  0
LINE
  5
4D8
330
1F
100
AcDbEntity
  8
寸法
  6
CONTINUOUS
 62
     6
100
AcDbLine
 10
1290.136116899997
 20
1049.309273938402
 30
0.0
 11
1293.336939691931
 21
1049.309273938402
 31
0.0
  0
LINE
  5
4D9
330
1F
100
AcDbEntity
  8
寸法
  6
CONTINUOUS
 62
     6
100
AcDbLine
 10
1307.890294108068
 20
1049.309273938402
 30
0.0
 11
1311.091116899997
 21
1049.309273938402
 31
0.0
  0
LINE
  5
4DA
330
1F
100
AcDbEntity
  8
寸法
  6
CONTINUOUS
 62
     6
100
AcDbLine
 10
1307.747250224947
 20
1049.79663090002
 30
0.0
 11
1312.1136169
 21
1049.79663090002
 31
0.0
  0
LINE
  5
4DB
330
1F
100
AcDbEntity
  8
寸法
  6
CONTINUOUS
 62
     6
100
AcDbLine
 10
1289.1136169
 20
1049.79663090002
 30
0.0
 11
1293.479983575052
 21
1049.79663090002
 31
0.0
  0
ARC
  5
4DC
330
1F
100
AcDbEntity
  8
寸法
  6
CONTINUOUS
 62
     6
100
AcDbCircle
 10
1306.363616900001
 20
1055.204325833352
 30
0.0
 40
4.900000000001684
100
AcDbArc
 50
284.0727880524676
 51
0.0
  0
ARC
  5
4DD
330
1F
100
AcDbEntity
  8
寸法
  6
CONTINUOUS
 62
     6
100
AcDbCircle
 10
1306.363616900001
 20
1056.388935966688
 30
0.0
 40
4.900000000001684
100
AcDbArc
 50
0.0
 51
152.7503041108321
  0
ARC
  5
4DE
330
1F
100
AcDbEntity
  8
寸法
  6
CONTINUOUS
 62
     6
100
AcDbCircle
 10
1294.863616899999
 20
1056.388935966688
 30
0.0
 40
4.900000000001684
100
AcDbArc
 50
27.24969588916494
 51
180.0
  0
ARC
  5
4DF
330
1F
100
AcDbEntity
  8
寸法
  6
CONTINUOUS
 62
     6
100
AcDbCircle
 10
1294.863616899999
 20
1055.204325833352
 30
0.0
 40
4.900000000001684
100
AcDbArc
 50
180.0
 51
255.9272119475393
  0
LINE
  5
4E0
330
1F
100
AcDbEntity
  8
寸法
  6
CONTINUOUS
 62
     6
100
AcDbLine
 10
1314.113616899999
 20
1032.723465587077
 30
0.0
 11
1314.113616899999
 21
1046.296630900012
 31
0.0
  0
LINE
  5
4E1
330
1F
100
AcDbEntity
  8
寸法
  6
CONTINUOUS
 62
     6
100
AcDbLine
 10
1287.113616899995
 20
1032.72346558707
 30
0.0
 11
1287.113616899995
 21
1046.296630900012
 31
0.0
  0
ARC
  5
4E2
330
1F
100
AcDbEntity
  8
寸法
  6
CONTINUOUS
 62
     6
100
AcDbCircle
 10
1271.1687531713
 20
1044.7966309
 30
0.0
 40
20.0
100
AcDbArc
 50
316.35746339777
 51
343.6425366022301
  0
ARC
  5
4E3
330
1F
100
AcDbEntity
  8
寸法
  6
CONTINUOUS
 62
     6
100
AcDbCircle
 10
1330.0584806287
 20
1044.7966309
 30
0.0
 40
20.0
100
AcDbArc
 50
196.3574633978002
 51
223.6425366022001
  0
LINE
  5
4E4
330
1F
100
AcDbEntity
  8
寸法
  6
CONTINUOUS
 62
     6
100
AcDbLine
 10
1306.370756829099
 20
1054.48640598478
 30
0.0
 11
1310.8680141984
 21
1039.1640472841
 31
0.0
  0
LINE
  5
4E5
330
1F
100
AcDbEntity
  8
寸法
  6
CONTINUOUS
 62
     6
100
AcDbLine
 10
1294.8564769709
 20
1054.48640598478
 30
0.0
 11
1290.3592196016
 21
1039.1640472841
 31
0.0
  0
ARC
  5
4E6
330
1F
100
AcDbEntity
  8
寸法
  6
CONTINUOUS
 62
     6
100
AcDbCircle
 10
1300.6136169
 20
1052.7966309
 30
0.0
 40
6.000000000000001
100
AcDbArc
 50
16.3574633978
 51
163.6425366022001
  0
LINE
  5
4E7
330
1F
100
AcDbEntity
  8
寸法
  6
CONTINUOUS
 62
     6
100
AcDbLine
 10
1309.929116899998
 20
1049.79663090002
 30
0.0
 11
1309.929116899998
 21
1049.309273938402
 31
0.0
  0
LINE
  5
4E8
330
1F
100
AcDbEntity
  8
寸法
  6
CONTINUOUS
 62
     6
100
AcDbLine
 10
1311.091116899998
 20
1047.296630900001
 30
0.0
 11
1309.929116899998
 21
1049.309273938402
 31
0.0
  0
LINE
  5
4E9
330
1F
100
AcDbEntity
  8
寸法
  6
CONTINUOUS
 62
     6
100
AcDbLine
 10
1291.298116899997
 20
1049.79663090002
 30
0.0
 11
1291.298116899997
 21
1049.309273938402
 31
0.0
  0
LINE
  5
4EA
330
1F
100
AcDbEntity
  8
寸法
  6
CONTINUOUS
 62
     6
100
AcDbLine
 10
1290.136116899997
 20
1047.296630900001
 30
0.0
 11
1291.298116899997
 21
1049.309273938402
 31
0.0
  0
LINE
  5
4EB
330
1F
100
AcDbEntity
  8
寸法
  6
CONTINUOUS
 62
     6
100
AcDbLine
 10
1311.091116899997
 20
1049.79663090002
 30
0.0
 11
1311.091116899997
 21
1047.296630900012
 31
0.0
  0
LINE
  5
4EC
330
1F
100
AcDbEntity
  8
寸法
  6
CONTINUOUS
 62
     6
100
AcDbLine
 10
1290.136116899998
 20
1049.79663090002
 30
0.0
 11
1290.136116899998
 21
1047.296630900012
 31
0.0
  0
LINE
  5
4ED
330
1F
100
AcDbEntity
  8
寸法
  6
CONTINUOUS
 62
     6
100
AcDbLine
 10
1314.113616899999
 20
1046.296630900012
 30
0.0
 11
1313.113616899999
 21
1047.296630900012
 31
0.0
  0
LINE
  5
4EE
330
1F
100
AcDbEntity
  8
寸法
  6
CONTINUOUS
 62
     6
100
AcDbLine
 10
1287.113616899995
 20
1046.296630900012
 30
0.0
 11
1288.113616899995
 21
1047.296630900012
 31
0.0
  0
LINE
  5
4EF
330
1F
100
AcDbEntity
  8
寸法
  6
CONTINUOUS
 62
     6
100
AcDbLine
 10
1289.1136169
 20
1049.79663090002
 30
0.0
 11
1289.1136169
 21
1061.79663090002
 31
0.0
  0
LINE
  5
4F0
330
1F
100
AcDbEntity
  8
寸法
  6
CONTINUOUS
 62
     6
100
AcDbLine
 10
1312.113616899999
 20
1049.79663090002
 30
0.0
 11
1312.113616899999
 21
1061.79663090002
 31
0.0
  0
LINE
  5
4F1
330
1F
100
AcDbEntity
  8
寸法
  6
CONTINUOUS
 62
     6
100
AcDbLine
 10
1311.263616900001
 20
1055.204325833352
 30
0.0
 11
1311.263616900001
 21
1056.388935966688
 31
0.0
  0
LINE
  5
4F2
330
1F
100
AcDbEntity
  8
寸法
  6
CONTINUOUS
 62
     6
100
AcDbLine
 10
1289.963616899998
 20
1055.204325833352
 30
0.0
 11
1289.963616899998
 21
1056.388935966688
 31
0.0
  0
LINE
  5
4F3
330
1F
100
AcDbEntity
  8
寸法
  6
CONTINUOUS
 62
     6
100
AcDbLine
 10
1289.1136169
 20
1061.79663090002
 30
0.0
 11
1312.113616899999
 21
1061.79663090002
 31
0.0
  0
TEXT
  5
4F4
330
1F
100
AcDbEntity
  8
寸法
  6
CONTINUOUS
 62
     2
100
AcDbText
 10
920.9928728230002
 20
721.29468548033
 30
0.0
 40
40.0
  1
ＪＬ２００Ｔ４ＷＭＹ
 41
0.8601694915254238
  7
EXCADSTD
 72
     5
 11
1210.992872823
 21
721.29468548033
 31
0.0
100
AcDbText
  0
LEADER
  5
4F5
330
1F
100
AcDbEntity
  8
寸法
  6
CONTINUOUS
 62
     3
100
AcDbLeader
  3
ISO-25
 76
     3
 10
1297.1135864
 20
618.7662332083983
 30
0.0
 10
1206.997339435
 20
714.9999999999998
 30
0.0
 10
927.8
 20
714.9999999999998
 30
0.0
1001
ACAD
1000
DSTYLE
1002
{
1070
     5
1000
EX_NORM
1070
    41
1040
30.0
1070
   341
1005
4F
1002
}
  0
ENDSEC
  0
SECTION
  2
OBJECTS
  0
DICTIONARY
  5
C
330
0
100
AcDbDictionary
  3
ACAD_GROUP
350
D
  3
ACAD_LAYOUT
350
1A
  3
ACAD_MATERIAL
350
3B
  3
ACAD_MLEADERSTYLE
350
518
  3
ACAD_MLINESTYLE
350
17
  3
ACAD_PLOTSETTINGS
350
19
  3
ACAD_VISUALSTYLE
350
2A
  3
ACDBHEADERROUNDTRIPXREC
350
4F6
  3
ACDBVARIABLEDICTIONARY
350
516
  0
DICTIONARY
  5
D
102
{ACAD_REACTORS
330
C
102
}
330
C
100
AcDbDictionary
  0
DICTIONARY
  5
1A
102
{ACAD_REACTORS
330
C
102
}
330
C
100
AcDbDictionary
  0
DICTIONARY
  5
3B
102
{ACAD_REACTORS
330
C
102
}
330
C
100
AcDbDictionary
  3
BYBLOCK
350
3D
  3
BYLAYER
350
3C
  3
GLOBAL
350
3E
  0
DICTIONARY
  5
518
102
{ACAD_REACTORS
330
C
102
}
330
C
100
AcDbDictionary
  0
DICTIONARY
  5
17
102
{ACAD_REACTORS
330
C
102
}
330
C
100
AcDbDictionary
  3
STANDARD
350
18
  0
DICTIONARY
  5
19
102
{ACAD_REACTORS
330
C
102
}
330
C
100
AcDbDictionary
  0
DICTIONARY
  5
2A
102
{ACAD_REACTORS
330
C
102
}
330
C
100
AcDbDictionary
  3
2DWIREFRAME
350
2F
  3
3D_HIDDEN
350
31
  3
3DWIREFRAME
350
30
  3
BASIC
350
32
  3
BRIGHTEN
350
36
  3
COLORCHANGE
350
3A
  3
CONCEPTUAL
350
34
  3
DIM
350
35
  3
FACEPATTERN
350
39
  3
FLAT
350
2B
  3
FLATWITHEDGES
350
2C
  3
GOURAUD
350
2D
  3
GOURAUDWITHEDGES
350
2E
  3
LINEPATTERN
350
38
  3
REALISTIC
350
33
  3
THICKEN
350
37
  0
DICTIONARY
  5
4F6
102
{ACAD_REACTORS
330
C
102
}
330
C
100
AcDbDictionary
  3
CEPSNTYPE
350
4FF
  3
DIMSTYLEDATA
350
515
  3
FINGERPRINTGUID
350
500
  3
HYPERLINKBASE
350
4F9
  3
INSUNITS
350
4FE
  3
LAYOUTDICT
350
4FB
  3
LWETCUNION
350
4FD
  3
PLOTSETDICT
350
4FC
  3
PSVPSCALE
350
502
  3
PUCSBASE
350
505
  3
PUCSORGBACK
350
50B
  3
PUCSORGBOTTOM
350
507
  3
PUCSORGFRONT
350
50A
  3
PUCSORGLEFT
350
508
  3
PUCSORGRIGHT
350
509
  3
PUCSORGTOP
350
506
  3
PUCSORTHOREF
350
503
  3
PUCSORTHOVIEW
350
504
  3
STYLESHEET
350
4FA
  3
TSTACKALIGN
350
4F7
  3
TSTACKSIZE
350
4F8
  3
UCSBASE
350
50E
  3
UCSORGBACK
350
514
  3
UCSORGBOTTOM
350
510
  3
UCSORGFRONT
350
513
  3
UCSORGLEFT
350
511
  3
UCSORGRIGHT
350
512
  3
UCSORGTOP
350
50F
  3
UCSORTHOREF
350
50C
  3
UCSORTHOVIEW
350
50D
  3
VERSIONGUID
350
501
  0
DICTIONARY
  5
516
102
{ACAD_REACTORS
330
C
102
}
330
C
100
AcDbDictionary
  3
DIMASSOC
350
51B
  3
HIDETEXT
350
51C
  3
PSOLHEIGHT
350
51A
  3
PSOLWIDTH
350
519
  0
MATERIAL
  5
3D
102
{ACAD_REACTORS
330
3B
102
}
102
{ACAD_XDICTIONARY
360
51F
102
}
330
3B
100
AcDbMaterial
  1
ByBlock
  0
MATERIAL
  5
3C
102
{ACAD_REACTORS
330
3B
102
}
102
{ACAD_XDICTIONARY
360
51D
102
}
330
3B
100
AcDbMaterial
  1
ByLayer
  0
MATERIAL
  5
3E
102
{ACAD_REACTORS
330
3B
102
}
102
{ACAD_XDICTIONARY
360
521
102
}
330
3B
100
AcDbMaterial
  1
Global
  0
MLINESTYLE
  5
18
102
{ACAD_REACTORS
330
17
102
}
330
17
100
AcDbMlineStyle
  2
Standard
 70
     0
  3

 62
   256
 51
90.0
 52
90.0
 71
     2
 49
0.5
 62
   256
  6
BYLAYER
 49
-0.5
 62
   256
  6
BYLAYER
  0
ACAD_PROXY_OBJECT
  5
2F
102
{ACAD_REACTORS
330
2A
102
}
330
2A
100
AcDbProxyObject
 90
      499
 91
      501
 93
      436
310
42CC9915DA5C99599C985B595049028333333333333E3BF0000000000000FB0107901411070040501600405405064090741402480A0340
1001
ACAD
1000
AcDbSavedByObjectVersion
1070
     0
  0
ACAD_PROXY_OBJECT
  5
31
102
{ACAD_REACTORS
330
2A
102
}
330
2A
100
AcDbProxyObject
 90
      499
 91
      501
 93
      500
310
424CD108121A5919195B90640502408333333333333E3BF0000000000000FB01079024090700405020000000000001110200405405064090740C02480A0340
1001
ACAD
1000
AcDbSavedByObjectVersion
1070
     0
  0
ACAD_PROXY_OBJECT
  5
30
102
{ACAD_REACTORS
330
2A
102
}
330
2A
100
AcDbProxyObject
 90
      499
 91
      501
 93
      436
310
42CCD915DA5C99599C985B595059028333333333333E3BF0000000000000FB0107901411070040501600405405064090741402480A0340
1001
ACAD
1000
AcDbSavedByObjectVersion
1070
     0
  0
ACAD_PROXY_OBJECT
  5
32
102
{ACAD_REACTORS
330
2A
102
}
330
2A
100
AcDbProxyObject
 90
      499
 91
      501
 93
      388
310
4150985CDA58D07406404333333333333E3BF0000000000000FB0107A41107004050150841D405064090741402480A0350
1001
ACAD
1000
AcDbSavedByObjectVersion
1070
     0
  0
ACAD_PROXY_OBJECT
  5
36
102
{ACAD_REACTORS
330
2A
102
}
330
2A
100
AcDbProxyObject
 90
      499
 91
      501
 93
      428
310
42109C9A59DA1D195B90C409028333333333333E3BF0000000000000FB010790141107004050150841D405064090741402480A029950
1001
ACAD
1000
AcDbSavedByObjectVersion
1070
     0
  0
ACAD_PROXY_OBJECT
  5
3A
102
{ACAD_REACTORS
330
2A
102
}
330
2A
100
AcDbProxyObject
 90
      499
 91
      501
 93
      452
310
42D0DBDB1BDC90DA185B99D95104090240C333333333333E3BF0000000000000FB0108901411070040501508421405064090741402480A0350
1001
ACAD
1000
AcDbSavedByObjectVersion
1070
     0
  0
ACAD_PROXY_OBJECT
  5
34
102
{ACAD_REACTORS
330
2A
102
}
330
2A
100
AcDbProxyObject
 90
      499
 91
      501
 93
      500
310
4290DBDB98D95C1D1D585B10940D028333333333333E3BF0000000000000FB0107902409070040501000000000000111010841D405064090740C02480A0340
1001
ACAD
1000
AcDbSavedByObjectVersion
1070
     0
  0
ACAD_PROXY_OBJECT
  5
35
102
{ACAD_REACTORS
330
2A
102
}
330
2A
100
AcDbProxyObject
 90
      499
 91
      501
 93
      412
310
40D11A5B50B409028333333333333E3BF0000000000000FB010790141107004050150841D405064090741402480A02677FFFFFD0
1001
ACAD
1000
AcDbSavedByObjectVersion
1070
     0
  0
ACAD_PROXY_OBJECT
  5
39
102
{ACAD_REACTORS
330
2A
102
}
330
2A
100
AcDbProxyObject
 90
      499
 91
      501
 93
      444
310
42D19858D95C185D1D195C9B90F409028333333333333E3BF0000000000000FB010790141107004050150841D405064090741402480A0350
1001
ACAD
1000
AcDbSavedByObjectVersion
1070
     0
  0
ACAD_PROXY_OBJECT
  5
2B
102
{ACAD_REACTORS
330
2A
102
}
330
2A
100
AcDbProxyObject
 90
      499
 91
      501
 93
      388
310
41119B185D240901404333333333333E3BF0000000000000F9010740A41107004050150841D405064090741402480A1B50
1001
ACAD
1000
AcDbSavedByObjectVersion
1070
     0
  0
ACAD_PROXY_OBJECT
  5
2C
102
{ACAD_REACTORS
330
2A
102
}
330
2A
100
AcDbProxyObject
 90
      499
 91
      501
 93
      476
310
43519B185D15DA5D1A115919D95CD0140901404333333333333E3BF0000000000000F9010740901411070040501600405405064090741402480A1B50
1001
ACAD
1000
AcDbSavedByObjectVersion
1070
     0
  0
ACAD_PROXY_OBJECT
  5
2D
102
{ACAD_REACTORS
330
2A
102
}
330
2A
100
AcDbProxyObject
 90
      499
 91
      501
 93
      412
310
41D1DBDD5C985D5910240902404333333333333E3BF0000000000000F9010740A411070040501641D405064090741402480A1B50
1001
ACAD
1000
AcDbSavedByObjectVersion
1070
     0
  0
ACAD_PROXY_OBJECT
  5
2E
102
{ACAD_REACTORS
330
2A
102
}
330
2A
100
AcDbProxyObject
 90
      499
 91
      501
 93
      500
310
4411DBDD5C985D5915DA5D1A115919D95CD0340902404333333333333E3BF0000000000000F9010740901411070040501600405405064090741402480A1B50
1001
ACAD
1000
AcDbSavedByObjectVersion
1070
     0
  0
ACAD_PROXY_OBJECT
  5
38
102
{ACAD_REACTORS
330
2A
102
}
330
2A
100
AcDbProxyObject
 90
      499
 91
      501
 93
      444
310
42D31A5B995C185D1D195C9B90E409028333333333333E3BF0000000000000FB010790141107004050750841D405064090741402483A0350
1001
ACAD
1000
AcDbSavedByObjectVersion
1070
     0
  0
ACAD_PROXY_OBJECT
  5
33
102
{ACAD_REACTORS
330
2A
102
}
330
2A
100
AcDbProxyObject
 90
      499
 91
      501
 93
      420
310
425499585B1A5CDD1A58D08409028333333333333E3BF0000000000000FB01079019070040501508421405064090741402480A1B40
1001
ACAD
1000
AcDbSavedByObjectVersion
1070
     0
  0
ACAD_PROXY_OBJECT
  5
37
102
{ACAD_REACTORS
330
2A
102
}
330
2A
100
AcDbProxyObject
 90
      499
 91
      501
 93
      412
310
41D51A1A58DAD95B90D409028333333333333E3BF0000000000000FB010790141107004050150C41D405064090741402480A0350
1001
ACAD
1000
AcDbSavedByObjectVersion
1070
     0
  0
XRECORD
  5
4FF
102
{ACAD_REACTORS
330
4F6
102
}
330
4F6
100
AcDbXrecord
 90
        0
  0
XRECORD
  5
515
102
{ACAD_REACTORS
330
4F6
102
}
330
4F6
100
AcDbXrecord
1000
DSTYLE
1002
{
1070
   340
340
11
1002
}
  0
XRECORD
  5
500
102
{ACAD_REACTORS
330
4F6
102
}
330
4F6
100
AcDbXrecord
  1
{0EAD225E-C9B6-4448-85CA-CF6459693B80}
  0
XRECORD
  5
4F9
102
{ACAD_REACTORS
330
4F6
102
}
330
4F6
100
AcDbXrecord
  1

  0
XRECORD
  5
4FE
102
{ACAD_REACTORS
330
4F6
102
}
330
4F6
100
AcDbXrecord
 90
        4
  0
XRECORD
  5
4FB
102
{ACAD_REACTORS
330
4F6
102
}
330
4F6
100
AcDbXrecord
340
1A
  0
XRECORD
  5
4FD
102
{ACAD_REACTORS
330
4F6
102
}
330
4F6
100
AcDbXrecord
 90
    10781
  0
XRECORD
  5
4FC
102
{ACAD_REACTORS
330
4F6
102
}
330
4F6
100
AcDbXrecord
340
19
  0
XRECORD
  5
502
102
{ACAD_REACTORS
330
4F6
102
}
330
4F6
100
AcDbXrecord
 40
0.0
  0
XRECORD
  5
505
102
{ACAD_REACTORS
330
4F6
102
}
330
4F6
100
AcDbXrecord
340
0
  0
XRECORD
  5
50B
102
{ACAD_REACTORS
330
4F6
102
}
330
4F6
100
AcDbXrecord
 10
0.0
 20
0.0
 30
0.0
  0
XRECORD
  5
507
102
{ACAD_REACTORS
330
4F6
102
}
330
4F6
100
AcDbXrecord
 10
0.0
 20
0.0
 30
0.0
  0
XRECORD
  5
50A
102
{ACAD_REACTORS
330
4F6
102
}
330
4F6
100
AcDbXrecord
 10
0.0
 20
0.0
 30
0.0
  0
XRECORD
  5
508
102
{ACAD_REACTORS
330
4F6
102
}
330
4F6
100
AcDbXrecord
 10
0.0
 20
0.0
 30
0.0
  0
XRECORD
  5
509
102
{ACAD_REACTORS
330
4F6
102
}
330
4F6
100
AcDbXrecord
 10
0.0
 20
0.0
 30
0.0
  0
XRECORD
  5
506
102
{ACAD_REACTORS
330
4F6
102
}
330
4F6
100
AcDbXrecord
 10
0.0
 20
0.0
 30
0.0
  0
XRECORD
  5
503
102
{ACAD_REACTORS
330
4F6
102
}
330
4F6
100
AcDbXrecord
340
0
  0
XRECORD
  5
504
102
{ACAD_REACTORS
330
4F6
102
}
330
4F6
100
AcDbXrecord
 70
     0
  0
XRECORD
  5
4FA
102
{ACAD_REACTORS
330
4F6
102
}
330
4F6
100
AcDbXrecord
  1

  0
XRECORD
  5
4F7
102
{ACAD_REACTORS
330
4F6
102
}
330
4F6
100
AcDbXrecord
 90
        1
  0
XRECORD
  5
4F8
102
{ACAD_REACTORS
330
4F6
102
}
330
4F6
100
AcDbXrecord
 90
       70
  0
XRECORD
  5
50E
102
{ACAD_REACTORS
330
4F6
102
}
330
4F6
100
AcDbXrecord
340
0
  0
XRECORD
  5
514
102
{ACAD_REACTORS
330
4F6
102
}
330
4F6
100
AcDbXrecord
 10
0.0
 20
0.0
 30
0.0
  0
XRECORD
  5
510
102
{ACAD_REACTORS
330
4F6
102
}
330
4F6
100
AcDbXrecord
 10
0.0
 20
0.0
 30
0.0
  0
XRECORD
  5
513
102
{ACAD_REACTORS
330
4F6
102
}
330
4F6
100
AcDbXrecord
 10
0.0
 20
0.0
 30
0.0
  0
XRECORD
  5
511
102
{ACAD_REACTORS
330
4F6
102
}
330
4F6
100
AcDbXrecord
 10
0.0
 20
0.0
 30
0.0
  0
XRECORD
  5
512
102
{ACAD_REACTORS
330
4F6
102
}
330
4F6
100
AcDbXrecord
 10
0.0
 20
0.0
 30
0.0
  0
XRECORD
  5
50F
102
{ACAD_REACTORS
330
4F6
102
}
330
4F6
100
AcDbXrecord
 10
0.0
 20
0.0
 30
0.0
  0
XRECORD
  5
50C
102
{ACAD_REACTORS
330
4F6
102
}
330
4F6
100
AcDbXrecord
340
0
  0
XRECORD
  5
50D
102
{ACAD_REACTORS
330
4F6
102
}
330
4F6
100
AcDbXrecord
 70
     0
  0
XRECORD
  5
501
102
{ACAD_REACTORS
330
4F6
102
}
330
4F6
100
AcDbXrecord
  1
{FAEB1C32-E019-11D5-929B-00C0DF256EC4}
  0
DICTIONARYVAR
  5
51B
102
{ACAD_REACTORS
330
516
102
}
330
516
100
DictionaryVariables
280
     0
  1
2
  0
DICTIONARYVAR
  5
51C
102
{ACAD_REACTORS
330
516
102
}
330
516
100
DictionaryVariables
280
     0
  1
1
  0
DICTIONARYVAR
  5
51A
102
{ACAD_REACTORS
330
516
102
}
330
516
100
DictionaryVariables
280
     0
  1
80.000000
  0
DICTIONARYVAR
  5
519
102
{ACAD_REACTORS
330
516
102
}
330
516
100
DictionaryVariables
280
     0
  1
5.000000
  0
DICTIONARY
  5
51F
330
3D
100
AcDbDictionary
280
     1
  3
ACAD_XREC_ROUNDTRIP
360
520
  0
DICTIONARY
  5
51D
330
3C
100
AcDbDictionary
280
     1
  3
ACAD_XREC_ROUNDTRIP
360
51E
  0
DICTIONARY
  5
521
330
3E
100
AcDbDictionary
280
     1
  3
ACAD_XREC_ROUNDTRIP
360
522
  0
XRECORD
  5
520
102
{ACAD_REACTORS
330
51F
102
}
330
51F
100
AcDbXrecord
102
MATERIAL
148
0.0
149
0.0
149
0.0
 93
        0
 94
      127
282
     0
 72
     1
 77
     1
171
     1
175
     1
179
     1
273
     0
  0
XRECORD
  5
51E
102
{ACAD_REACTORS
330
51D
102
}
330
51D
100
AcDbXrecord
102
MATERIAL
148
0.0
149
0.0
149
0.0
 93
        0
 94
      127
282
     0
 72
     1
 77
     1
171
     1
175
     1
179
     1
273
     0
  0
XRECORD
  5
522
102
{ACAD_REACTORS
330
521
102
}
330
521
100
AcDbXrecord
102
MATERIAL
148
0.0
149
0.0
149
0.0
 93
        0
 94
      127
282
     0
 72
     1
 77
     1
171
     1
175
     1
179
     1
273
     0
  0
ENDSEC
  0
EOF
