  0
SECTION
  2
HEADER
  9
$ACADVER
  1
AC1014
  9
$ACADMAINTVER
 70
     9
  9
$DWGCODEPAGE
  3
ANSI_932
  9
$INSBASE
 10
0.0
 20
0.0
 30
0.0
  9
$EXTMIN
 10
-2.099999999999999
 20
11.5
 30
0.0
  9
$EXTMAX
 10
199.9
 20
291.5
 30
0.0
  9
$LIMMIN
 10
0.0
 20
0.0
  9
$LIMMAX
 10
210.0
 20
297.0
  9
$ORTHOMODE
 70
     0
  9
$REGENMODE
 70
     1
  9
$FILLMODE
 70
     1
  9
$QTEXTMODE
 70
     0
  9
$MIRRTEXT
 70
     1
  9
$DRAGMODE
 70
     2
  9
$LTSCALE
 40
1.0
  9
$OSMODE
 70
    37
  9
$ATTMODE
 70
     1
  9
$TEXTSIZE
 40
2.5
  9
$TRACEWID
 40
1.0
  9
$TEXTSTYLE
  7
STANDARD
  9
$CLAYER
  8
洗面器
  9
$CELTYPE
  6
BYLAYER
  9
$CECOLOR
 62
   256
  9
$CELTSCALE
 40
1.0
  9
$DELOBJ
 70
     1
  9
$DISPSILH
 70
     0
  9
$DIMSCALE
 40
1.0
  9
$DIMASZ
 40
2.5
  9
$DIMEXO
 40
0.625
  9
$DIMDLI
 40
3.75
  9
$DIMRND
 40
0.0
  9
$DIMDLE
 40
0.0
  9
$DIMEXE
 40
1.25
  9
$DIMTP
 40
0.0
  9
$DIMTM
 40
0.0
  9
$DIMTXT
 40
2.5
  9
$DIMCEN
 40
2.5
  9
$DIMTSZ
 40
0.0
  9
$DIMTOL
 70
     0
  9
$DIMLIM
 70
     0
  9
$DIMTIH
 70
     0
  9
$DIMTOH
 70
     0
  9
$DIMSE1
 70
     0
  9
$DIMSE2
 70
     0
  9
$DIMTAD
 70
     1
  9
$DIMZIN
 70
     8
  9
$DIMBLK
  1

  9
$DIMASO
 70
     1
  9
$DIMSHO
 70
     1
  9
$DIMPOST
  1

  9
$DIMAPOST
  1

  9
$DIMALT
 70
     0
  9
$DIMALTD
 70
     3
  9
$DIMALTF
 40
0.03937007874016
  9
$DIMLFAC
 40
1.0
  9
$DIMTOFL
 70
     1
  9
$DIMTVP
 40
0.0
  9
$DIMTIX
 70
     0
  9
$DIMSOXD
 70
     0
  9
$DIMSAH
 70
     0
  9
$DIMBLK1
  1

  9
$DIMBLK2
  1

  9
$DIMSTYLE
  2
ISO-25
  9
$DIMCLRD
 70
     0
  9
$DIMCLRE
 70
     0
  9
$DIMCLRT
 70
     0
  9
$DIMTFAC
 40
1.0
  9
$DIMGAP
 40
0.625
  9
$DIMJUST
 70
     0
  9
$DIMSD1
 70
     0
  9
$DIMSD2
 70
     0
  9
$DIMTOLJ
 70
     0
  9
$DIMTZIN
 70
     8
  9
$DIMALTZ
 70
     0
  9
$DIMALTTZ
 70
     0
  9
$DIMFIT
 70
     3
  9
$DIMUPT
 70
     0
  9
$DIMUNIT
 70
     2
  9
$DIMDEC
 70
     2
  9
$DIMTDEC
 70
     2
  9
$DIMALTU
 70
     2
  9
$DIMALTTD
 70
     3
  9
$DIMTXSTY
  7
STANDARD
  9
$DIMAUNIT
 70
     0
  9
$LUNITS
 70
     2
  9
$LUPREC
 70
     4
  9
$SKETCHINC
 40
1.0
  9
$FILLETRAD
 40
10.0
  9
$AUNITS
 70
     0
  9
$AUPREC
 70
     0
  9
$MENU
  1
.
  9
$ELEVATION
 40
0.0
  9
$PELEVATION
 40
0.0
  9
$THICKNESS
 40
0.0
  9
$LIMCHECK
 70
     0
  9
$CHAMFERA
 40
10.0
  9
$CHAMFERB
 40
10.0
  9
$CHAMFERC
 40
20.0
  9
$CHAMFERD
 40
0.0
  9
$SKPOLY
 70
     0
  9
$TDCREATE
 40
2460594.414264178
  9
$TDUPDATE
 40
2460594.414264595
  9
$TDINDWG
 40
0.0000000116
  9
$TDUSRTIMER
 40
0.0000000116
  9
$USRTIMER
 70
     1
  9
$ANGBASE
 50
0.0
  9
$ANGDIR
 70
     0
  9
$PDMODE
 70
     0
  9
$PDSIZE
 40
0.0
  9
$PLINEWID
 40
0.0
  9
$COORDS
 70
     1
  9
$SPLFRAME
 70
     0
  9
$SPLINETYPE
 70
     6
  9
$SPLINESEGS
 70
     8
  9
$ATTDIA
 70
     0
  9
$ATTREQ
 70
     1
  9
$HANDLING
 70
     1
  9
$HANDSEED
  5
430
  9
$SURFTAB1
 70
     6
  9
$SURFTAB2
 70
     6
  9
$SURFTYPE
 70
     6
  9
$SURFU
 70
     6
  9
$SURFV
 70
     6
  9
$UCSNAME
  2

  9
$UCSORG
 10
0.0
 20
0.0
 30
0.0
  9
$UCSXDIR
 10
1.0
 20
0.0
 30
0.0
  9
$UCSYDIR
 10
0.0
 20
1.0
 30
0.0
  9
$PUCSNAME
  2

  9
$PUCSORG
 10
0.0
 20
0.0
 30
0.0
  9
$PUCSXDIR
 10
1.0
 20
0.0
 30
0.0
  9
$PUCSYDIR
 10
0.0
 20
1.0
 30
0.0
  9
$USERI1
 70
     0
  9
$USERI2
 70
     0
  9
$USERI3
 70
     0
  9
$USERI4
 70
     0
  9
$USERI5
 70
     0
  9
$USERR1
 40
0.0
  9
$USERR2
 40
0.0
  9
$USERR3
 40
0.0
  9
$USERR4
 40
0.0
  9
$USERR5
 40
0.0
  9
$WORLDVIEW
 70
     1
  9
$SHADEDGE
 70
     3
  9
$SHADEDIF
 70
    70
  9
$TILEMODE
 70
     1
  9
$MAXACTVP
 70
    64
  9
$PINSBASE
 10
0.0
 20
0.0
 30
0.0
  9
$PLIMCHECK
 70
     0
  9
$PEXTMIN
 10
1.000000000000000E+20
 20
1.000000000000000E+20
 30
1.000000000000000E+20
  9
$PEXTMAX
 10
-1.000000000000000E+20
 20
-1.000000000000000E+20
 30
-1.000000000000000E+20
  9
$PLIMMIN
 10
0.0
 20
0.0
  9
$PLIMMAX
 10
420.0
 20
297.0
  9
$UNITMODE
 70
     0
  9
$VISRETAIN
 70
     1
  9
$PLINEGEN
 70
     0
  9
$PSLTSCALE
 70
     1
  9
$TREEDEPTH
 70
  3020
  9
$PICKSTYLE
 70
     1
  9
$CMLSTYLE
  2
STANDARD
  9
$CMLJUST
 70
     0
  9
$CMLSCALE
 40
20.0
  9
$PROXYGRAPHICS
 70
     1
  9
$MEASUREMENT
 70
     1
  0
ENDSEC
  0
SECTION
  2
CLASSES
  0
CLASS
  1
ACDBDICTIONARYWDFLT
  2
AcDbDictionaryWithDefault
  3
ObjectDBX Classes
 90
        0
280
     0
281
     0
  0
CLASS
  1
VISUALSTYLE
  2
AcDbVisualStyle
  3
ObjectDBX Classes
 90
     4095
280
     0
281
     0
  0
CLASS
  1
MATERIAL
  2
AcDbMaterial
  3
ObjectDBX Classes
 90
     1153
280
     0
281
     0
  0
CLASS
  1
SUN
  2
AcDbSun
  3
SCENEOE
 90
     1024
280
     0
281
     0
  0
CLASS
  1
DICTIONARYVAR
  2
AcDbDictionaryVar
  3
ObjectDBX Classes
 90
        0
280
     0
281
     0
  0
CLASS
  1
XRECORD
  2
AcDbXrecord
  3
AutoCAD 2000
 90
        0
280
     0
281
     0
  0
CLASS
  1
LWPOLYLINE
  2
AcDbPolyline
  3
AutoCAD 2000
 90
        0
280
     0
281
     1
  0
CLASS
  1
HATCH
  2
AcDbHatch
  3
AutoCAD 2000
 90
        0
280
     0
281
     1
  0
CLASS
  1
ACDBPLACEHOLDER
  2
AcDbPlaceHolder
  3
ObjectDBX Classes
 90
        0
280
     0
281
     0
  0
CLASS
  1
LAYOUT
  2
AcDbLayout
  3
ObjectDBX Classes
 90
        0
280
     0
281
     0
  0
ENDSEC
  0
SECTION
  2
TABLES
  0
TABLE
  2
VPORT
  5
8
330
0
100
AcDbSymbolTable
 70
     1
  0
VPORT
  5
29
330
8
100
AcDbSymbolTableRecord
100
AcDbViewportTableRecord
  2
*ACTIVE
 70
     0
 10
0.0
 20
0.0
 11
1.0
 21
1.0
 12
989.0000000000001
 22
1515.0
 13
0.0
 23
0.0
 14
10.0
 24
10.0
 15
10.0
 25
10.0
 16
0.0
 26
0.0
 36
1.0
 17
0.0
 27
0.0
 37
0.0
 40
2800.0
 41
0.7214285714285715
 42
50.0
 43
0.0
 44
0.0
 50
0.0
 51
0.0
 71
     0
 72
  1000
 73
     1
 74
     3
 75
     0
 76
     0
 77
     0
 78
     0
  0
ENDTAB
  0
TABLE
  2
LTYPE
  5
5
330
0
100
AcDbSymbolTable
 70
     7
  0
LTYPE
  5
14
330
5
100
AcDbSymbolTableRecord
100
AcDbLinetypeTableRecord
  2
BYBLOCK
 70
     0
  3

 72
    65
 73
     0
 40
0.0
  0
LTYPE
  5
15
330
5
100
AcDbSymbolTableRecord
100
AcDbLinetypeTableRecord
  2
BYLAYER
 70
     0
  3

 72
    65
 73
     0
 40
0.0
  0
LTYPE
  5
16
330
5
100
AcDbSymbolTableRecord
100
AcDbLinetypeTableRecord
  2
CONTINUOUS
 70
     0
  3
Solid line
 72
    65
 73
     0
 40
0.0
  0
LTYPE
  5
40
330
5
100
AcDbSymbolTableRecord
100
AcDbLinetypeTableRecord
  2
EXLTYPE1
 70
     0
  3
破線
 72
    65
 73
     2
 40
3.0
 49
2.0
 74
     0
 49
-1.0
 74
     0
  0
LTYPE
  5
41
330
5
100
AcDbSymbolTableRecord
100
AcDbLinetypeTableRecord
  2
EXLTYPE2
 70
     0
  3
点線
 72
    65
 73
     2
 40
2.0
 49
1.0
 74
     0
 49
-1.0
 74
     0
  0
LTYPE
  5
42
330
5
100
AcDbSymbolTableRecord
100
AcDbLinetypeTableRecord
  2
EXLTYPE3
 70
     0
  3
一点鎖線
 72
    65
 73
     4
 40
10.0
 49
7.0
 74
     0
 49
-1.0
 74
     0
 49
1.0
 74
     0
 49
-1.0
 74
     0
  0
LTYPE
  5
43
330
5
100
AcDbSymbolTableRecord
100
AcDbLinetypeTableRecord
  2
EXLTYPE4
 70
     0
  3
二点鎖線
 72
    65
 73
     6
 40
12.0
 49
7.0
 74
     0
 49
-1.0
 74
     0
 49
1.0
 74
     0
 49
-1.0
 74
     0
 49
1.0
 74
     0
 49
-1.0
 74
     0
  0
LTYPE
  5
44
330
5
100
AcDbSymbolTableRecord
100
AcDbLinetypeTableRecord
  2
EXLTYPE5
 70
     0
  3
三点鎖線
 72
    65
 73
     8
 40
37.0
 49
30.0
 74
     0
 49
-1.0
 74
     0
 49
1.0
 74
     0
 49
-1.0
 74
     0
 49
1.0
 74
     0
 49
-1.0
 74
     0
 49
1.0
 74
     0
 49
-1.0
 74
     0
  0
LTYPE
  5
45
330
5
100
AcDbSymbolTableRecord
100
AcDbLinetypeTableRecord
  2
EXLTYPE6
 70
     0
  3
四点鎖線
 72
    65
 73
    10
 40
39.0
 49
30.0
 74
     0
 49
-1.0
 74
     0
 49
1.0
 74
     0
 49
-1.0
 74
     0
 49
1.0
 74
     0
 49
-1.0
 74
     0
 49
1.0
 74
     0
 49
-1.0
 74
     0
 49
1.0
 74
     0
 49
-1.0
 74
     0
  0
ENDTAB
  0
TABLE
  2
LAYER
  5
2
330
0
100
AcDbSymbolTable
 70
     7
  0
LAYER
  5
10
330
2
100
AcDbSymbolTableRecord
100
AcDbLayerTableRecord
  2
0
 70
     0
 62
     7
  6
CONTINUOUS
  0
LAYER
  5
48
330
2
100
AcDbSymbolTableRecord
100
AcDbLayerTableRecord
  2
枠_表
 70
     0
 62
     7
  6
CONTINUOUS
  0
LAYER
  5
49
330
2
100
AcDbSymbolTableRecord
100
AcDbLayerTableRecord
  2
洗面器
 70
     0
 62
     7
  6
CONTINUOUS
  0
LAYER
  5
4A
330
2
100
AcDbSymbolTableRecord
100
AcDbLayerTableRecord
  2
水栓
 70
     0
 62
     7
  6
CONTINUOUS
  0
LAYER
  5
4B
330
2
100
AcDbSymbolTableRecord
100
AcDbLayerTableRecord
  2
トラップ
 70
     0
 62
     7
  6
CONTINUOUS
  0
LAYER
  5
4C
330
2
100
AcDbSymbolTableRecord
100
AcDbLayerTableRecord
  2
寸法
 70
     0
 62
     7
  6
CONTINUOUS
  0
LAYER
  5
34C
330
2
100
AcDbSymbolTableRecord
100
AcDbLayerTableRecord
  2
DEFPOINTS
 70
     0
 62
     7
  6
CONTINUOUS
  0
ENDTAB
  0
TABLE
  2
STYLE
  5
3
330
0
100
AcDbSymbolTable
 70
     5
  0
STYLE
  5
11
330
3
100
AcDbSymbolTableRecord
100
AcDbTextStyleTableRecord
  2
STANDARD
 70
     0
 40
0.0
 41
1.0
 50
0.0
 71
     0
 42
2.5
  3
monotxt
  4
extfont
  0
STYLE
  5
46
330
3
100
AcDbSymbolTableRecord
100
AcDbTextStyleTableRecord
  2
EXCADSTD
 70
     0
 40
0.0
 41
1.0
 50
0.0
 71
     0
 42
0.2
  3
monotxt
  4
extfont
  0
STYLE
  5
47
330
3
100
AcDbSymbolTableRecord
100
AcDbTextStyleTableRecord
  2
EXCADVERT
 70
     4
 40
0.0
 41
1.0
 50
0.0
 71
     0
 42
0.286885
  3
monotxt
  4
extfont
  0
STYLE
  5
10D
330
3
100
AcDbSymbolTableRecord
100
AcDbTextStyleTableRecord
  2
EXCADTTF1
 70
     0
 40
0.0
 41
1.0
 50
0.0
 71
     0
 42
0.2
  3
MSGOTHIC.TTC
  4

1001
ACAD
1000
MS Gothic
1071
    32817
  0
STYLE
  5
34A
330
3
100
AcDbSymbolTableRecord
100
AcDbTextStyleTableRecord
  2
EXCADDIM1
 70
     0
 40
0.0
 41
0.84
 50
0.0
 71
     0
 42
0.2
  3
monotxt
  4
extfont
  0
ENDTAB
  0
TABLE
  2
VIEW
  5
6
330
0
100
AcDbSymbolTable
 70
     0
  0
ENDTAB
  0
TABLE
  2
UCS
  5
7
330
0
100
AcDbSymbolTable
 70
     0
  0
ENDTAB
  0
TABLE
  2
APPID
  5
9
330
0
100
AcDbSymbolTable
 70
     1
  0
APPID
  5
12
330
9
100
AcDbSymbolTableRecord
100
AcDbRegAppTableRecord
  2
ACAD
 70
     0
  0
ENDTAB
  0
TABLE
  2
DIMSTYLE
  5
A
330
0
100
AcDbSymbolTable
 70
     1
  0
DIMSTYLE
105
27
102
{ACAD_REACTORS
330
34B
330
359
330
366
330
373
330
37F
330
38D
330
399
330
3A5
330
3B1
330
3D5
330
3E1
330
3EE
102
}
330
A
100
AcDbSymbolTableRecord
100
AcDbDimStyleTableRecord
  2
ISO-25
 70
     0
  3

  4

  5

  6

  7

 40
1.0
 41
2.5
 42
0.625
 43
3.75
 44
1.25
 45
0.0
 46
0.0
 47
0.0
 48
0.0
140
2.5
141
2.5
142
0.0
143
0.03937007874016
144
1.0
145
0.0
146
1.0
147
0.625
 71
     0
 72
     0
 73
     0
 74
     0
 75
     0
 76
     0
 77
     1
 78
     8
170
     0
171
     3
172
     1
173
     0
174
     0
175
     0
176
     0
177
     0
178
     0
270
     2
271
     2
272
     2
273
     2
274
     3
340
11
275
     0
280
     0
281
     0
282
     0
283
     0
284
     8
285
     0
286
     0
287
     5
288
     0
  0
ENDTAB
  0
TABLE
  2
BLOCK_RECORD
  5
1
330
0
100
AcDbSymbolTable
 70
    27
  0
BLOCK_RECORD
  5
1F
330
1
100
AcDbSymbolTableRecord
100
AcDbBlockTableRecord
  2
*MODEL_SPACE
  0
BLOCK_RECORD
  5
1B
330
1
100
AcDbSymbolTableRecord
100
AcDbBlockTableRecord
  2
*PAPER_SPACE
  0
BLOCK_RECORD
  5
4D
330
1
100
AcDbSymbolTableRecord
100
AcDbBlockTableRecord
  2
EX_NORM
  0
BLOCK_RECORD
  5
50
330
1
100
AcDbSymbolTableRecord
100
AcDbBlockTableRecord
  2
EX_BNORM
  0
BLOCK_RECORD
  5
53
330
1
100
AcDbSymbolTableRecord
100
AcDbBlockTableRecord
  2
EX_BCIR
  0
BLOCK_RECORD
  5
56
330
1
100
AcDbSymbolTableRecord
100
AcDbBlockTableRecord
  2
EX_RCIVIL
  0
BLOCK_RECORD
  5
59
330
1
100
AcDbSymbolTableRecord
100
AcDbBlockTableRecord
  2
EX_SLANT
  0
BLOCK_RECORD
  5
5C
330
1
100
AcDbSymbolTableRecord
100
AcDbBlockTableRecord
  2
EX_NONE
  0
BLOCK_RECORD
  5
5F
330
1
100
AcDbSymbolTableRecord
100
AcDbBlockTableRecord
  2
EX_CIVIL
  0
BLOCK_RECORD
  5
62
330
1
100
AcDbSymbolTableRecord
100
AcDbBlockTableRecord
  2
EX_WCIR
  0
BLOCK_RECORD
  5
65
330
1
100
AcDbSymbolTableRecord
100
AcDbBlockTableRecord
  2
EX_WCIR2
  0
BLOCK_RECORD
  5
68
330
1
100
AcDbSymbolTableRecord
100
AcDbBlockTableRecord
  2
EX_WNORM
  0
BLOCK_RECORD
  5
6B
330
1
100
AcDbSymbolTableRecord
100
AcDbBlockTableRecord
  2
EX_NNORM
  0
BLOCK_RECORD
  5
6E
330
1
100
AcDbSymbolTableRecord
100
AcDbBlockTableRecord
  2
EX_BBOX
  0
BLOCK_RECORD
  5
71
330
1
100
AcDbSymbolTableRecord
100
AcDbBlockTableRecord
  2
EX_WBOX
  0
BLOCK_RECORD
  5
74
330
1
100
AcDbSymbolTableRecord
100
AcDbBlockTableRecord
  2
EX_INTEGRAL
  0
BLOCK_RECORD
  5
34D
330
1
100
AcDbSymbolTableRecord
100
AcDbBlockTableRecord
  2
*D15
  0
BLOCK_RECORD
  5
35A
330
1
100
AcDbSymbolTableRecord
100
AcDbBlockTableRecord
  2
*D16
  0
BLOCK_RECORD
  5
367
330
1
100
AcDbSymbolTableRecord
100
AcDbBlockTableRecord
  2
*D17
  0
BLOCK_RECORD
  5
374
330
1
100
AcDbSymbolTableRecord
100
AcDbBlockTableRecord
  2
*D18
  0
BLOCK_RECORD
  5
380
330
1
100
AcDbSymbolTableRecord
100
AcDbBlockTableRecord
  2
*D19
  0
BLOCK_RECORD
  5
38E
330
1
100
AcDbSymbolTableRecord
100
AcDbBlockTableRecord
  2
*D20
  0
BLOCK_RECORD
  5
39A
330
1
100
AcDbSymbolTableRecord
100
AcDbBlockTableRecord
  2
*D21
  0
BLOCK_RECORD
  5
3A6
330
1
100
AcDbSymbolTableRecord
100
AcDbBlockTableRecord
  2
*D22
  0
BLOCK_RECORD
  5
3B2
330
1
100
AcDbSymbolTableRecord
100
AcDbBlockTableRecord
  2
*D23
  0
BLOCK_RECORD
  5
3D6
330
1
100
AcDbSymbolTableRecord
100
AcDbBlockTableRecord
  2
*D24
  0
BLOCK_RECORD
  5
3E2
330
1
100
AcDbSymbolTableRecord
100
AcDbBlockTableRecord
  2
*D25
  0
BLOCK_RECORD
  5
3EF
330
1
100
AcDbSymbolTableRecord
100
AcDbBlockTableRecord
  2
*D26
  0
ENDTAB
  0
ENDSEC
  0
SECTION
  2
BLOCKS
  0
BLOCK
  5
20
330
1F
100
AcDbEntity
  8
0
100
AcDbBlockBegin
  2
*MODEL_SPACE
 70
     0
 10
0.0
 20
0.0
 30
0.0
  3
*MODEL_SPACE
  1

  0
ENDBLK
  5
21
330
1F
100
AcDbEntity
  8
0
100
AcDbBlockEnd
  0
BLOCK
  5
1C
330
1B
100
AcDbEntity
 67
     1
  8
0
100
AcDbBlockBegin
  2
*PAPER_SPACE
 70
     0
 10
0.0
 20
0.0
 30
0.0
  3
*PAPER_SPACE
  1

  0
ENDBLK
  5
1D
330
1B
100
AcDbEntity
 67
     1
  8
0
100
AcDbBlockEnd
  0
BLOCK
  5
4E
330
4D
100
AcDbEntity
  8
0
100
AcDbBlockBegin
  2
EX_NORM
 70
     0
 10
0.0
 20
0.0
 30
0.0
  3
EX_NORM
  1

  0
LINE
  5
77
330
4D
100
AcDbEntity
  8
0
  6
CONTINUOUS
 62
     0
100
AcDbLine
 10
0.0
 20
0.0
 30
0.0
 11
-1.0
 21
0.0
 31
0.0
  0
LINE
  5
78
330
4D
100
AcDbEntity
  8
0
  6
CONTINUOUS
 62
     0
100
AcDbLine
 10
0.0
 20
0.0
 30
0.0
 11
-1.0
 21
0.166666667
 31
0.0
  0
LINE
  5
79
330
4D
100
AcDbEntity
  8
0
  6
CONTINUOUS
 62
     0
100
AcDbLine
 10
0.0
 20
0.0
 30
0.0
 11
-1.0
 21
-0.166666667
 31
0.0
  0
ENDBLK
  5
4F
330
4D
100
AcDbEntity
  8
0
100
AcDbBlockEnd
  0
BLOCK
  5
51
330
50
100
AcDbEntity
  8
0
100
AcDbBlockBegin
  2
EX_BNORM
 70
     0
 10
0.0
 20
0.0
 30
0.0
  3
EX_BNORM
  1

  0
LINE
  5
7A
330
50
100
AcDbEntity
  8
0
  6
CONTINUOUS
 62
     0
100
AcDbLine
 10
0.0
 20
0.0
 30
0.0
 11
-1.0
 21
0.0
 31
0.0
  0
LINE
  5
7B
330
50
100
AcDbEntity
  8
0
  6
CONTINUOUS
 62
     0
100
AcDbLine
 10
0.0
 20
0.0
 30
0.0
 11
-1.0
 21
0.166666667
 31
0.0
  0
LINE
  5
7C
330
50
100
AcDbEntity
  8
0
  6
CONTINUOUS
 62
     0
100
AcDbLine
 10
0.0
 20
0.0
 30
0.0
 11
-1.0
 21
-0.166666667
 31
0.0
  0
LINE
  5
7D
330
50
100
AcDbEntity
  8
0
  6
CONTINUOUS
 62
     0
100
AcDbLine
 10
0.0
 20
0.0
 30
0.0
 11
-1.0
 21
0.083333333
 31
0.0
  0
LINE
  5
7E
330
50
100
AcDbEntity
  8
0
  6
CONTINUOUS
 62
     0
100
AcDbLine
 10
0.0
 20
0.0
 30
0.0
 11
-1.0
 21
-0.083333333
 31
0.0
  0
LINE
  5
7F
330
50
100
AcDbEntity
  8
0
  6
CONTINUOUS
 62
     0
100
AcDbLine
 10
-1.0
 20
0.166666667
 30
0.0
 11
-1.0
 21
-0.166666667
 31
0.0
  0
ENDBLK
  5
52
330
50
100
AcDbEntity
  8
0
100
AcDbBlockEnd
  0
BLOCK
  5
54
330
53
100
AcDbEntity
  8
0
100
AcDbBlockBegin
  2
EX_BCIR
 70
     0
 10
0.0
 20
0.0
 30
0.0
  3
EX_BCIR
  1

  0
LINE
  5
80
330
53
100
AcDbEntity
  8
0
  6
CONTINUOUS
 62
     0
100
AcDbLine
 10
0.0
 20
0.0
 30
0.0
 11
-1.0
 21
0.0
 31
0.0
  0
CIRCLE
  5
81
330
53
100
AcDbEntity
  8
0
  6
CONTINUOUS
 62
     0
100
AcDbCircle
 10
0.0
 20
0.0
 30
0.0
 40
0.5
  0
CIRCLE
  5
82
330
53
100
AcDbEntity
  8
0
  6
CONTINUOUS
 62
     0
100
AcDbCircle
 10
0.0
 20
0.0
 30
0.0
 40
0.25
  0
ENDBLK
  5
55
330
53
100
AcDbEntity
  8
0
100
AcDbBlockEnd
  0
BLOCK
  5
57
330
56
100
AcDbEntity
  8
0
100
AcDbBlockBegin
  2
EX_RCIVIL
 70
     0
 10
0.0
 20
0.0
 30
0.0
  3
EX_RCIVIL
  1

  0
LINE
  5
83
330
56
100
AcDbEntity
  8
0
  6
CONTINUOUS
 62
     0
100
AcDbLine
 10
0.0
 20
0.0
 30
0.0
 11
-1.0
 21
0.0
 31
0.0
  0
LINE
  5
84
330
56
100
AcDbEntity
  8
0
  6
CONTINUOUS
 62
     0
100
AcDbLine
 10
-1.0
 20
-0.25
 30
0.0
 11
0.0
 21
-0.25
 31
0.0
  0
LINE
  5
85
330
56
100
AcDbEntity
  8
0
  6
CONTINUOUS
 62
     0
100
AcDbLine
 10
-1.0
 20
-0.125
 30
0.0
 11
0.0
 21
-0.125
 31
0.0
  0
ENDBLK
  5
58
330
56
100
AcDbEntity
  8
0
100
AcDbBlockEnd
  0
BLOCK
  5
5A
330
59
100
AcDbEntity
  8
0
100
AcDbBlockBegin
  2
EX_SLANT
 70
     0
 10
0.0
 20
0.0
 30
0.0
  3
EX_SLANT
  1

  0
LINE
  5
86
330
59
100
AcDbEntity
  8
0
  6
CONTINUOUS
 62
     0
100
AcDbLine
 10
0.0
 20
0.0
 30
0.0
 11
-1.0
 21
0.0
 31
0.0
  0
LINE
  5
87
330
59
100
AcDbEntity
  8
0
  6
CONTINUOUS
 62
     0
100
AcDbLine
 10
0.707106781
 20
0.707106781
 30
0.0
 11
-0.707106781
 21
-0.707106781
 31
0.0
  0
ENDBLK
  5
5B
330
59
100
AcDbEntity
  8
0
100
AcDbBlockEnd
  0
BLOCK
  5
5D
330
5C
100
AcDbEntity
  8
0
100
AcDbBlockBegin
  2
EX_NONE
 70
     0
 10
0.0
 20
0.0
 30
0.0
  3
EX_NONE
  1

  0
LINE
  5
88
330
5C
100
AcDbEntity
  8
0
  6
CONTINUOUS
 62
     0
100
AcDbLine
 10
0.0
 20
0.0
 30
0.0
 11
-1.0
 21
0.0
 31
0.0
  0
ENDBLK
  5
5E
330
5C
100
AcDbEntity
  8
0
100
AcDbBlockEnd
  0
BLOCK
  5
60
330
5F
100
AcDbEntity
  8
0
100
AcDbBlockBegin
  2
EX_CIVIL
 70
     0
 10
0.0
 20
0.0
 30
0.0
  3
EX_CIVIL
  1

  0
LINE
  5
89
330
5F
100
AcDbEntity
  8
0
  6
CONTINUOUS
 62
     0
100
AcDbLine
 10
0.0
 20
0.0
 30
0.0
 11
-1.0
 21
0.0
 31
0.0
  0
LINE
  5
8A
330
5F
100
AcDbEntity
  8
0
  6
CONTINUOUS
 62
     0
100
AcDbLine
 10
-1.0
 20
0.25
 30
0.0
 11
0.0
 21
0.25
 31
0.0
  0
LINE
  5
8B
330
5F
100
AcDbEntity
  8
0
  6
CONTINUOUS
 62
     0
100
AcDbLine
 10
-1.0
 20
0.125
 30
0.0
 11
0.0
 21
0.125
 31
0.0
  0
ENDBLK
  5
61
330
5F
100
AcDbEntity
  8
0
100
AcDbBlockEnd
  0
BLOCK
  5
63
330
62
100
AcDbEntity
  8
0
100
AcDbBlockBegin
  2
EX_WCIR
 70
     0
 10
0.0
 20
0.0
 30
0.0
  3
EX_WCIR
  1

  0
LINE
  5
8C
330
62
100
AcDbEntity
  8
0
  6
CONTINUOUS
 62
     0
100
AcDbLine
 10
0.0
 20
0.0
 30
0.0
 11
-1.0
 21
0.0
 31
0.0
  0
CIRCLE
  5
8D
330
62
100
AcDbEntity
  8
0
  6
CONTINUOUS
 62
     0
100
AcDbCircle
 10
0.0
 20
0.0
 30
0.0
 40
0.5
  0
ENDBLK
  5
64
330
62
100
AcDbEntity
  8
0
100
AcDbBlockEnd
  0
BLOCK
  5
66
330
65
100
AcDbEntity
  8
0
100
AcDbBlockBegin
  2
EX_WCIR2
 70
     0
 10
0.0
 20
0.0
 30
0.0
  3
EX_WCIR2
  1

  0
LINE
  5
8E
330
65
100
AcDbEntity
  8
0
  6
CONTINUOUS
 62
     0
100
AcDbLine
 10
-0.5
 20
0.0
 30
0.0
 11
-1.0
 21
0.0
 31
0.0
  0
CIRCLE
  5
8F
330
65
100
AcDbEntity
  8
0
  6
CONTINUOUS
 62
     0
100
AcDbCircle
 10
0.0
 20
0.0
 30
0.0
 40
0.5
  0
ENDBLK
  5
67
330
65
100
AcDbEntity
  8
0
100
AcDbBlockEnd
  0
BLOCK
  5
69
330
68
100
AcDbEntity
  8
0
100
AcDbBlockBegin
  2
EX_WNORM
 70
     0
 10
0.0
 20
0.0
 30
0.0
  3
EX_WNORM
  1

  0
LINE
  5
90
330
68
100
AcDbEntity
  8
0
  6
CONTINUOUS
 62
     0
100
AcDbLine
 10
-1.0
 20
0.0
 30
0.0
 11
-1.0
 21
0.0
 31
0.0
  0
LINE
  5
91
330
68
100
AcDbEntity
  8
0
  6
CONTINUOUS
 62
     0
100
AcDbLine
 10
0.0
 20
0.0
 30
0.0
 11
-1.0
 21
0.166666667
 31
0.0
  0
LINE
  5
92
330
68
100
AcDbEntity
  8
0
  6
CONTINUOUS
 62
     0
100
AcDbLine
 10
0.0
 20
0.0
 30
0.0
 11
-1.0
 21
-0.166666667
 31
0.0
  0
LINE
  5
93
330
68
100
AcDbEntity
  8
0
  6
CONTINUOUS
 62
     0
100
AcDbLine
 10
-1.0
 20
0.166666667
 30
0.0
 11
-1.0
 21
-0.166666667
 31
0.0
  0
ENDBLK
  5
6A
330
68
100
AcDbEntity
  8
0
100
AcDbBlockEnd
  0
BLOCK
  5
6C
330
6B
100
AcDbEntity
  8
0
100
AcDbBlockBegin
  2
EX_NNORM
 70
     0
 10
0.0
 20
0.0
 30
0.0
  3
EX_NNORM
  1

  0
LINE
  5
94
330
6B
100
AcDbEntity
  8
0
  6
CONTINUOUS
 62
     0
100
AcDbLine
 10
0.0
 20
0.0
 30
0.0
 11
-1.0
 21
0.0
 31
0.0
  0
LINE
  5
95
330
6B
100
AcDbEntity
  8
0
  6
CONTINUOUS
 62
     0
100
AcDbLine
 10
0.0
 20
0.0
 30
0.0
 11
-1.0
 21
0.166666667
 31
0.0
  0
LINE
  5
96
330
6B
100
AcDbEntity
  8
0
  6
CONTINUOUS
 62
     0
100
AcDbLine
 10
0.0
 20
0.0
 30
0.0
 11
-1.0
 21
-0.166666667
 31
0.0
  0
LINE
  5
97
330
6B
100
AcDbEntity
  8
0
  6
CONTINUOUS
 62
     0
100
AcDbLine
 10
-1.0
 20
0.166666667
 30
0.0
 11
-1.0
 21
-0.166666667
 31
0.0
  0
ENDBLK
  5
6D
330
6B
100
AcDbEntity
  8
0
100
AcDbBlockEnd
  0
BLOCK
  5
6F
330
6E
100
AcDbEntity
  8
0
100
AcDbBlockBegin
  2
EX_BBOX
 70
     0
 10
0.0
 20
0.0
 30
0.0
  3
EX_BBOX
  1

  0
LINE
  5
98
330
6E
100
AcDbEntity
  8
0
  6
CONTINUOUS
 62
     0
100
AcDbLine
 10
0.0
 20
0.0
 30
0.0
 11
-1.0
 21
0.0
 31
0.0
  0
LINE
  5
99
330
6E
100
AcDbEntity
  8
0
  6
CONTINUOUS
 62
     0
100
AcDbLine
 10
-0.5
 20
0.5
 30
0.0
 11
0.5
 21
0.5
 31
0.0
  0
LINE
  5
9A
330
6E
100
AcDbEntity
  8
0
  6
CONTINUOUS
 62
     0
100
AcDbLine
 10
0.5
 20
0.5
 30
0.0
 11
0.5
 21
-0.5
 31
0.0
  0
LINE
  5
9B
330
6E
100
AcDbEntity
  8
0
  6
CONTINUOUS
 62
     0
100
AcDbLine
 10
0.5
 20
-0.5
 30
0.0
 11
-0.5
 21
-0.5
 31
0.0
  0
LINE
  5
9C
330
6E
100
AcDbEntity
  8
0
  6
CONTINUOUS
 62
     0
100
AcDbLine
 10
-0.5
 20
-0.5
 30
0.0
 11
-0.5
 21
0.5
 31
0.0
  0
LINE
  5
9D
330
6E
100
AcDbEntity
  8
0
  6
CONTINUOUS
 62
     0
100
AcDbLine
 10
-0.25
 20
0.25
 30
0.0
 11
0.25
 21
0.25
 31
0.0
  0
LINE
  5
9E
330
6E
100
AcDbEntity
  8
0
  6
CONTINUOUS
 62
     0
100
AcDbLine
 10
0.25
 20
0.25
 30
0.0
 11
0.25
 21
-0.25
 31
0.0
  0
LINE
  5
9F
330
6E
100
AcDbEntity
  8
0
  6
CONTINUOUS
 62
     0
100
AcDbLine
 10
0.25
 20
-0.25
 30
0.0
 11
-0.25
 21
-0.25
 31
0.0
  0
LINE
  5
A0
330
6E
100
AcDbEntity
  8
0
  6
CONTINUOUS
 62
     0
100
AcDbLine
 10
-0.25
 20
-0.25
 30
0.0
 11
-0.25
 21
0.25
 31
0.0
  0
ENDBLK
  5
70
330
6E
100
AcDbEntity
  8
0
100
AcDbBlockEnd
  0
BLOCK
  5
72
330
71
100
AcDbEntity
  8
0
100
AcDbBlockBegin
  2
EX_WBOX
 70
     0
 10
0.0
 20
0.0
 30
0.0
  3
EX_WBOX
  1

  0
LINE
  5
A1
330
71
100
AcDbEntity
  8
0
  6
CONTINUOUS
 62
     0
100
AcDbLine
 10
-0.5
 20
0.0
 30
0.0
 11
-1.0
 21
0.0
 31
0.0
  0
LINE
  5
A2
330
71
100
AcDbEntity
  8
0
  6
CONTINUOUS
 62
     0
100
AcDbLine
 10
-0.5
 20
0.5
 30
0.0
 11
0.5
 21
0.5
 31
0.0
  0
LINE
  5
A3
330
71
100
AcDbEntity
  8
0
  6
CONTINUOUS
 62
     0
100
AcDbLine
 10
0.5
 20
0.5
 30
0.0
 11
0.5
 21
-0.5
 31
0.0
  0
LINE
  5
A4
330
71
100
AcDbEntity
  8
0
  6
CONTINUOUS
 62
     0
100
AcDbLine
 10
0.5
 20
-0.5
 30
0.0
 11
-0.5
 21
-0.5
 31
0.0
  0
LINE
  5
A5
330
71
100
AcDbEntity
  8
0
  6
CONTINUOUS
 62
     0
100
AcDbLine
 10
-0.5
 20
-0.5
 30
0.0
 11
-0.5
 21
0.5
 31
0.0
  0
ENDBLK
  5
73
330
71
100
AcDbEntity
  8
0
100
AcDbBlockEnd
  0
BLOCK
  5
75
330
74
100
AcDbEntity
  8
0
100
AcDbBlockBegin
  2
EX_INTEGRAL
 70
     0
 10
0.0
 20
0.0
 30
0.0
  3
EX_INTEGRAL
  1

  0
LINE
  5
A6
330
74
100
AcDbEntity
  8
0
  6
CONTINUOUS
 62
     0
100
AcDbLine
 10
0.0
 20
0.0
 30
0.0
 11
-1.0
 21
0.0
 31
0.0
  0
ARC
  5
A7
330
74
100
AcDbEntity
  8
0
  6
CONTINUOUS
 62
     0
100
AcDbCircle
 10
0.542115
 20
0.164992
 30
0.0
 40
0.56667
100
AcDbArc
 50
73.07249033629006
 51
196.9275130221199
  0
ARC
  5
A8
330
74
100
AcDbEntity
  8
0
  6
CONTINUOUS
 62
     0
100
AcDbCircle
 10
-0.542115
 20
-0.164992
 30
0.0
 40
0.56667
100
AcDbArc
 50
253.0724869220464
 51
16.9275130559125
  0
ENDBLK
  5
76
330
74
100
AcDbEntity
  8
0
100
AcDbBlockEnd
  0
BLOCK
  5
34E
330
34D
100
AcDbEntity
  8
0
100
AcDbBlockBegin
  2
*D15
 70
     1
 10
0.0
 20
0.0
 30
0.0
  3
*D15
  1

  0
LINE
  5
350
330
34D
100
AcDbEntity
  8
寸法
  6
CONTINUOUS
 62
     3
100
AcDbLine
 10
624.00366215
 20
2549.002279953291
 30
0.0
 11
624.00366215
 21
2612.0022800725
 31
0.0
  0
LINE
  5
351
330
34D
100
AcDbEntity
  8
寸法
  6
CONTINUOUS
 62
     3
100
AcDbLine
 10
734.00366215
 20
2548.999228153291
 30
0.0
 11
734.00366215
 21
2612.0022800725
 31
0.0
  0
LINE
  5
352
330
34D
100
AcDbEntity
  8
寸法
  6
CONTINUOUS
 62
     3
100
AcDbLine
 10
654.00366215
 20
2602.0022800725
 30
0.0
 11
704.00366215
 21
2602.0022800725
 31
0.0
  0
INSERT
  5
353
330
34D
100
AcDbEntity
  8
寸法
 62
     3
100
AcDbBlockReference
  2
EX_NORM
 10
624.00366215
 20
2602.0022800725
 30
0.0
 41
30.0
 42
30.0
 43
30.0
 50
180.0
  0
INSERT
  5
354
330
34D
100
AcDbEntity
  8
寸法
 62
     3
100
AcDbBlockReference
  2
EX_NORM
 10
734.00366215
 20
2602.0022800725
 30
0.0
 41
30.0
 42
30.0
 43
30.0
  0
MTEXT
  5
355
330
34D
100
AcDbEntity
  8
寸法
 62
     2
100
AcDbMText
 10
679.0036621500002
 20
2625.002280191709
 30
0.0
 40
40.0
 41
0.0
 71
     5
 72
     1
  1
110
  7
EXCADDIM1
  0
POINT
  5
356
330
34D
100
AcDbEntity
  8
DEFPOINTS
 62
     0
100
AcDbPoint
 10
624.00366215
 20
2542.0022800725
 30
0.0
  0
POINT
  5
357
330
34D
100
AcDbEntity
  8
DEFPOINTS
 62
     0
100
AcDbPoint
 10
734.00366215
 20
2541.9992282725
 30
0.0
  0
POINT
  5
358
330
34D
100
AcDbEntity
  8
DEFPOINTS
 62
     0
100
AcDbPoint
 10
734.00366215
 20
2602.0022800725
 30
0.0
  0
ENDBLK
  5
34F
330
34D
100
AcDbEntity
  8
0
100
AcDbBlockEnd
  0
BLOCK
  5
35B
330
35A
100
AcDbEntity
  8
0
100
AcDbBlockBegin
  2
*D16
 70
     1
 10
0.0
 20
0.0
 30
0.0
  3
*D16
  1

  0
LINE
  5
35D
330
35A
100
AcDbEntity
  8
寸法
  6
CONTINUOUS
 62
     3
100
AcDbLine
 10
589.0036620999999
 20
2377.998779430109
 30
0.0
 11
589.0036620999999
 21
2184.9987698155
 31
0.0
  0
LINE
  5
35E
330
35A
100
AcDbEntity
  8
寸法
  6
CONTINUOUS
 62
     3
100
AcDbLine
 10
769.0036620999999
 20
2377.998779430109
 30
0.0
 11
769.0036620999999
 21
2184.9987698155
 31
0.0
  0
LINE
  5
35F
330
35A
100
AcDbEntity
  8
寸法
  6
CONTINUOUS
 62
     3
100
AcDbLine
 10
619.0036620999999
 20
2194.9987698155
 30
0.0
 11
739.0036620999999
 21
2194.9987698155
 31
0.0
  0
INSERT
  5
360
330
35A
100
AcDbEntity
  8
寸法
 62
     3
100
AcDbBlockReference
  2
EX_NORM
 10
589.0036620999999
 20
2194.9987698155
 30
0.0
 41
30.0
 42
30.0
 43
30.0
 50
180.0
  0
INSERT
  5
361
330
35A
100
AcDbEntity
  8
寸法
 62
     3
100
AcDbBlockReference
  2
EX_NORM
 10
769.0036620999999
 20
2194.9987698155
 30
0.0
 41
30.0
 42
30.0
 43
30.0
  0
MTEXT
  5
362
330
35A
100
AcDbEntity
  8
寸法
 62
     2
100
AcDbMText
 10
679.0036621000002
 20
2217.998769934709
 30
0.0
 40
40.0
 41
0.0
 71
     5
 72
     1
  1
180
  7
EXCADDIM1
  0
POINT
  5
363
330
35A
100
AcDbEntity
  8
DEFPOINTS
 62
     0
100
AcDbPoint
 10
589.0036620999999
 20
2384.9987793109
 30
0.0
  0
POINT
  5
364
330
35A
100
AcDbEntity
  8
DEFPOINTS
 62
     0
100
AcDbPoint
 10
769.0036620999999
 20
2384.9987793109
 30
0.0
  0
POINT
  5
365
330
35A
100
AcDbEntity
  8
DEFPOINTS
 62
     0
100
AcDbPoint
 10
769.0036620999999
 20
2194.9987698155
 30
0.0
  0
ENDBLK
  5
35C
330
35A
100
AcDbEntity
  8
0
100
AcDbBlockEnd
  0
BLOCK
  5
368
330
367
100
AcDbEntity
  8
0
100
AcDbBlockBegin
  2
*D17
 70
     1
 10
0.0
 20
0.0
 30
0.0
  3
*D17
  1

  0
LINE
  5
36A
330
367
100
AcDbEntity
  8
寸法
  6
CONTINUOUS
 62
     3
100
AcDbLine
 10
554.0036525999999
 20
2382.998779430109
 30
0.0
 11
554.0036525999999
 21
2124.9987698155
 31
0.0
  0
LINE
  5
36B
330
367
100
AcDbEntity
  8
寸法
  6
CONTINUOUS
 62
     3
100
AcDbLine
 10
804.0036716
 20
2382.998779430109
 30
0.0
 11
804.0036716
 21
2124.9987698155
 31
0.0
  0
LINE
  5
36C
330
367
100
AcDbEntity
  8
寸法
  6
CONTINUOUS
 62
     3
100
AcDbLine
 10
584.0036525999999
 20
2134.9987698155
 30
0.0
 11
774.0036716
 21
2134.9987698155
 31
0.0
  0
INSERT
  5
36D
330
367
100
AcDbEntity
  8
寸法
 62
     3
100
AcDbBlockReference
  2
EX_NORM
 10
554.0036525999999
 20
2134.9987698155
 30
0.0
 41
30.0
 42
30.0
 43
30.0
 50
180.0
  0
INSERT
  5
36E
330
367
100
AcDbEntity
  8
寸法
 62
     3
100
AcDbBlockReference
  2
EX_NORM
 10
804.0036716
 20
2134.9987698155
 30
0.0
 41
30.0
 42
30.0
 43
30.0
  0
MTEXT
  5
36F
330
367
100
AcDbEntity
  8
寸法
 62
     2
100
AcDbMText
 10
679.0036621000002
 20
2157.998769934709
 30
0.0
 40
40.0
 41
0.0
 71
     5
 72
     1
  1
250
  7
EXCADDIM1
  0
POINT
  5
370
330
367
100
AcDbEntity
  8
DEFPOINTS
 62
     0
100
AcDbPoint
 10
554.0036525999999
 20
2389.9987793109
 30
0.0
  0
POINT
  5
371
330
367
100
AcDbEntity
  8
DEFPOINTS
 62
     0
100
AcDbPoint
 10
804.0036716
 20
2389.9987793109
 30
0.0
  0
POINT
  5
372
330
367
100
AcDbEntity
  8
DEFPOINTS
 62
     0
100
AcDbPoint
 10
804.0036716
 20
2134.9987698155
 30
0.0
  0
ENDBLK
  5
369
330
367
100
AcDbEntity
  8
0
100
AcDbBlockEnd
  0
BLOCK
  5
375
330
374
100
AcDbEntity
  8
0
100
AcDbBlockBegin
  2
*D18
 70
     1
 10
0.0
 20
0.0
 30
0.0
  3
*D18
  1

  0
LINE
  5
377
330
374
100
AcDbEntity
  8
寸法
  6
CONTINUOUS
 62
     3
100
AcDbLine
 10
686.0047300807908
 20
2264.9987698155
 30
0.0
 11
884.0036716000001
 21
2264.9987698155
 31
0.0
  0
LINE
  5
378
330
374
100
AcDbEntity
  8
寸法
  6
CONTINUOUS
 62
     3
100
AcDbLine
 10
874.0036716000001
 20
2484.9987793109
 30
0.0
 11
874.0036716000001
 21
2294.9987698155
 31
0.0
  0
INSERT
  5
379
330
374
100
AcDbEntity
  8
寸法
 62
     3
100
AcDbBlockReference
  2
EX_NORM
 10
874.0036716000001
 20
2514.9987793109
 30
0.0
 41
30.0
 42
30.0
 43
30.0
 50
90.0
  0
INSERT
  5
37A
330
374
100
AcDbEntity
  8
寸法
 62
     3
100
AcDbBlockReference
  2
EX_NORM
 10
874.0036716000001
 20
2264.9987698155
 30
0.0
 41
30.0
 42
30.0
 43
30.0
 50
270.0
  0
MTEXT
  5
37B
330
374
100
AcDbEntity
  8
寸法
 62
     2
100
AcDbMText
 10
851.0036714807912
 20
2389.9987745632
 30
0.0
 40
40.0
 41
0.0
 71
     5
 72
     1
  1
250
  7
EXCADDIM1
 11
0.0
 21
1.0
 31
0.0
  0
POINT
  5
37C
330
374
100
AcDbEntity
  8
DEFPOINTS
 62
     0
100
AcDbPoint
 10
799.0036621000002
 20
2514.9987793109
 30
0.0
  0
POINT
  5
37D
330
374
100
AcDbEntity
  8
DEFPOINTS
 62
     0
100
AcDbPoint
 10
679.0047302
 20
2264.9987698155
 30
0.0
  0
POINT
  5
37E
330
374
100
AcDbEntity
  8
DEFPOINTS
 62
     0
100
AcDbPoint
 10
874.0036716000001
 20
2264.9987698155
 30
0.0
  0
ENDBLK
  5
376
330
374
100
AcDbEntity
  8
0
100
AcDbBlockEnd
  0
BLOCK
  5
381
330
380
100
AcDbEntity
  8
0
100
AcDbBlockBegin
  2
*D19
 70
     1
 10
0.0
 20
0.0
 30
0.0
  3
*D19
  1

  0
LINE
  5
383
330
380
100
AcDbEntity
  8
寸法
  6
CONTINUOUS
 62
     3
100
AcDbLine
 10
802.9982908807907
 20
1385.0
 30
0.0
 11
884.0036716000046
 21
1385.0
 31
0.0
  0
LINE
  5
384
330
380
100
AcDbEntity
  8
寸法
  6
CONTINUOUS
 62
     3
100
AcDbLine
 10
874.0036716000046
 20
1385.0
 30
0.0
 11
874.0036716000046
 21
1345.0
 31
0.0
  0
LINE
  5
385
330
380
100
AcDbEntity
  8
寸法
  6
CONTINUOUS
 62
     3
100
AcDbLine
 10
874.0036716000046
 20
1415.0
 30
0.0
 11
874.0036716000046
 21
1445.0
 31
0.0
  0
LINE
  5
386
330
380
100
AcDbEntity
  8
寸法
  6
CONTINUOUS
 62
     3
100
AcDbLine
 10
874.0036716000046
 20
1315.0
 30
0.0
 11
874.0036716000046
 21
1285.0
 31
0.0
  0
INSERT
  5
387
330
380
100
AcDbEntity
  8
寸法
 62
     3
100
AcDbBlockReference
  2
EX_NORM
 10
874.0036716000046
 20
1385.0
 30
0.0
 41
30.0
 42
30.0
 43
30.0
 50
270.0
  0
INSERT
  5
388
330
380
100
AcDbEntity
  8
寸法
 62
     3
100
AcDbBlockReference
  2
EX_NORM
 10
874.0036716000046
 20
1345.0
 30
0.0
 41
30.0
 42
30.0
 43
30.0
 50
90.0
  0
MTEXT
  5
389
330
380
100
AcDbEntity
  8
寸法
 62
     2
100
AcDbMText
 10
851.0036714808023
 20
1450.0
 30
0.0
 40
40.0
 41
0.0
 71
     5
 72
     1
  1
40
  7
EXCADDIM1
 11
0.0
 21
1.0
 31
0.0
  0
POINT
  5
38A
330
380
100
AcDbEntity
  8
DEFPOINTS
 62
     0
100
AcDbPoint
 10
795.998291
 20
1385.0
 30
0.0
  0
POINT
  5
38B
330
380
100
AcDbEntity
  8
DEFPOINTS
 62
     0
100
AcDbPoint
 10
798.9987793000001
 20
1345.0
 30
0.0
  0
POINT
  5
38C
330
380
100
AcDbEntity
  8
DEFPOINTS
 62
     0
100
AcDbPoint
 10
874.0036716000046
 20
1345.0
 30
0.0
  0
ENDBLK
  5
382
330
380
100
AcDbEntity
  8
0
100
AcDbBlockEnd
  0
BLOCK
  5
38F
330
38E
100
AcDbEntity
  8
0
100
AcDbBlockBegin
  2
*D20
 70
     1
 10
0.0
 20
0.0
 30
0.0
  3
*D20
  1

  0
LINE
  5
391
330
38E
100
AcDbEntity
  8
寸法
  6
CONTINUOUS
 62
     3
100
AcDbLine
 10
725.0999510807904
 20
1085.0
 30
0.0
 11
824.0036716000001
 21
1085.0
 31
0.0
  0
LINE
  5
392
330
38E
100
AcDbEntity
  8
寸法
  6
CONTINUOUS
 62
     3
100
AcDbLine
 10
814.0036716000001
 20
1055.0
 30
0.0
 11
814.0036716000001
 21
615.0000000000001
 31
0.0
  0
INSERT
  5
393
330
38E
100
AcDbEntity
  8
寸法
 62
     3
100
AcDbBlockReference
  2
EX_NORM
 10
814.0036716000001
 20
1085.0
 30
0.0
 41
30.0
 42
30.0
 43
30.0
 50
90.0
  0
INSERT
  5
394
330
38E
100
AcDbEntity
  8
寸法
 62
     3
100
AcDbBlockReference
  2
EX_NORM
 10
814.0036716000001
 20
585.0000000000001
 30
0.0
 41
30.0
 42
30.0
 43
30.0
 50
270.0
  0
MTEXT
  5
395
330
38E
100
AcDbEntity
  8
寸法
 62
     2
100
AcDbMText
 10
791.0036714807914
 20
834.9999999999998
 30
0.0
 40
40.0
 41
0.0
 71
     5
 72
     1
  1
500
  7
EXCADDIM1
 11
0.0
 21
1.0
 31
0.0
  0
POINT
  5
396
330
38E
100
AcDbEntity
  8
DEFPOINTS
 62
     0
100
AcDbPoint
 10
718.0999511999997
 20
1085.0
 30
0.0
  0
POINT
  5
397
330
38E
100
AcDbEntity
  8
DEFPOINTS
 62
     0
100
AcDbPoint
 10
938.8990539756
 20
585.0
 30
0.0
  0
POINT
  5
398
330
38E
100
AcDbEntity
  8
DEFPOINTS
 62
     0
100
AcDbPoint
 10
814.0036716000001
 20
585.0000000000001
 30
0.0
  0
ENDBLK
  5
390
330
38E
100
AcDbEntity
  8
0
100
AcDbBlockEnd
  0
BLOCK
  5
39B
330
39A
100
AcDbEntity
  8
0
100
AcDbBlockBegin
  2
*D21
 70
     1
 10
0.0
 20
0.0
 30
0.0
  3
*D21
  1

  0
LINE
  5
39D
330
39A
100
AcDbEntity
  8
寸法
  6
CONTINUOUS
 62
     3
100
AcDbLine
 10
805.9987791807908
 20
1345.0
 30
0.0
 11
884.0036715999963
 21
1345.0
 31
0.0
  0
LINE
  5
39E
330
39A
100
AcDbEntity
  8
寸法
  6
CONTINUOUS
 62
     3
100
AcDbLine
 10
874.0036715999963
 20
1315.0
 30
0.0
 11
874.0036715999963
 21
615.0000000000001
 31
0.0
  0
INSERT
  5
39F
330
39A
100
AcDbEntity
  8
寸法
 62
     3
100
AcDbBlockReference
  2
EX_NORM
 10
874.0036715999963
 20
1345.0
 30
0.0
 41
30.0
 42
30.0
 43
30.0
 50
90.0
  0
INSERT
  5
3A0
330
39A
100
AcDbEntity
  8
寸法
 62
     3
100
AcDbBlockReference
  2
EX_NORM
 10
874.0036715999963
 20
585.0000000000001
 30
0.0
 41
30.0
 42
30.0
 43
30.0
 50
270.0
  0
MTEXT
  5
3A1
330
39A
100
AcDbEntity
  8
寸法
 62
     2
100
AcDbMText
 10
851.0036714807882
 20
964.9999999999993
 30
0.0
 40
40.0
 41
0.0
 71
     5
 72
     1
  1
760
  7
EXCADDIM1
 11
0.0
 21
1.0
 31
0.0
  0
POINT
  5
3A2
330
39A
100
AcDbEntity
  8
DEFPOINTS
 62
     0
100
AcDbPoint
 10
798.9987793000001
 20
1345.0
 30
0.0
  0
POINT
  5
3A3
330
39A
100
AcDbEntity
  8
DEFPOINTS
 62
     0
100
AcDbPoint
 10
998.8990539756
 20
585.0
 30
0.0
  0
POINT
  5
3A4
330
39A
100
AcDbEntity
  8
DEFPOINTS
 62
     0
100
AcDbPoint
 10
874.0036715999963
 20
585.0000000000001
 30
0.0
  0
ENDBLK
  5
39C
330
39A
100
AcDbEntity
  8
0
100
AcDbBlockEnd
  0
BLOCK
  5
3A7
330
3A6
100
AcDbEntity
  8
0
100
AcDbBlockBegin
  2
*D22
 70
     1
 10
0.0
 20
0.0
 30
0.0
  3
*D22
  1

  0
LINE
  5
3A9
330
3A6
100
AcDbEntity
  8
寸法
  6
CONTINUOUS
 62
     3
100
AcDbLine
 10
1745.5
 20
1495.0
 30
0.0
 11
1869.0
 21
1495.0
 31
0.0
  0
LINE
  5
3AA
330
3A6
100
AcDbEntity
  8
寸法
  6
CONTINUOUS
 62
     3
100
AcDbLine
 10
1859.0
 20
1465.0
 30
0.0
 11
1859.0
 21
615.0
 31
0.0
  0
INSERT
  5
3AB
330
3A6
100
AcDbEntity
  8
寸法
 62
     3
100
AcDbBlockReference
  2
EX_NORM
 10
1859.0
 20
1495.0
 30
0.0
 41
30.0
 42
30.0
 43
30.0
 50
90.0
  0
INSERT
  5
3AC
330
3A6
100
AcDbEntity
  8
寸法
 62
     3
100
AcDbBlockReference
  2
EX_NORM
 10
1859.0
 20
585.0
 30
0.0
 41
30.0
 42
30.0
 43
30.0
 50
270.0
  0
MTEXT
  5
3AD
330
3A6
100
AcDbEntity
  8
寸法
 62
     2
100
AcDbMText
 10
1835.999999880791
 20
1039.999999999999
 30
0.0
 40
40.0
 41
0.0
 71
     5
 72
     1
  1
910
  7
EXCADDIM1
 11
0.0
 21
1.0
 31
0.0
  0
POINT
  5
3AE
330
3A6
100
AcDbEntity
  8
DEFPOINTS
 62
     0
100
AcDbPoint
 10
1733.0
 20
1495.0
 30
0.0
  0
POINT
  5
3AF
330
3A6
100
AcDbEntity
  8
DEFPOINTS
 62
     0
100
AcDbPoint
 10
1719.0
 20
585.0
 30
0.0
  0
POINT
  5
3B0
330
3A6
100
AcDbEntity
  8
DEFPOINTS
 62
     0
100
AcDbPoint
 10
1859.0
 20
585.0
 30
0.0
  0
ENDBLK
  5
3A8
330
3A6
100
AcDbEntity
  8
0
100
AcDbBlockEnd
  0
BLOCK
  5
3B3
330
3B2
100
AcDbEntity
  8
0
100
AcDbBlockBegin
  2
*D23
 70
     1
 10
0.0
 20
0.0
 30
0.0
  3
*D23
  1

  0
LINE
  5
3B5
330
3B2
100
AcDbEntity
  8
寸法
  6
CONTINUOUS
 62
     3
100
AcDbLine
 10
1725.999999880791
 20
1385.0
 30
0.0
 11
1809.0
 21
1385.0
 31
0.0
  0
LINE
  5
3B6
330
3B2
100
AcDbEntity
  8
寸法
  6
CONTINUOUS
 62
     3
100
AcDbLine
 10
1752.998007440591
 20
1365.0
 30
0.0
 11
1809.0
 21
1365.0
 31
0.0
  0
LINE
  5
3B7
330
3B2
100
AcDbEntity
  8
寸法
  6
CONTINUOUS
 62
     3
100
AcDbLine
 10
1799.0
 20
1385.0
 30
0.0
 11
1799.0
 21
1365.0
 31
0.0
  0
LINE
  5
3B8
330
3B2
100
AcDbEntity
  8
寸法
  6
CONTINUOUS
 62
     3
100
AcDbLine
 10
1799.0
 20
1415.0
 30
0.0
 11
1799.0
 21
1445.0
 31
0.0
  0
LINE
  5
3B9
330
3B2
100
AcDbEntity
  8
寸法
  6
CONTINUOUS
 62
     3
100
AcDbLine
 10
1799.0
 20
1335.0
 30
0.0
 11
1799.0
 21
1305.0
 31
0.0
  0
INSERT
  5
3BA
330
3B2
100
AcDbEntity
  8
寸法
 62
     3
100
AcDbBlockReference
  2
EX_NORM
 10
1799.0
 20
1385.0
 30
0.0
 41
30.0
 42
30.0
 43
30.0
 50
270.0
  0
INSERT
  5
3BB
330
3B2
100
AcDbEntity
  8
寸法
 62
     3
100
AcDbBlockReference
  2
EX_NORM
 10
1799.0
 20
1365.0
 30
0.0
 41
30.0
 42
30.0
 43
30.0
 50
90.0
  0
MTEXT
  5
3BC
330
3B2
100
AcDbEntity
  8
寸法
 62
     2
100
AcDbMText
 10
1775.999999880791
 20
1450.0
 30
0.0
 40
40.0
 41
0.0
 71
     5
 72
     1
  1
20
  7
EXCADDIM1
 11
-3.828568698926949E-16
 21
1.0
 31
0.0
  0
POINT
  5
3BD
330
3B2
100
AcDbEntity
  8
DEFPOINTS
 62
     0
100
AcDbPoint
 10
1719.0
 20
1385.0
 30
0.0
  0
POINT
  5
3BE
330
3B2
100
AcDbEntity
  8
DEFPOINTS
 62
     0
100
AcDbPoint
 10
1745.9980075598
 20
1365.0
 30
0.0
  0
POINT
  5
3BF
330
3B2
100
AcDbEntity
  8
DEFPOINTS
 62
     0
100
AcDbPoint
 10
1799.0
 20
1365.0
 30
0.0
  0
ENDBLK
  5
3B4
330
3B2
100
AcDbEntity
  8
0
100
AcDbBlockEnd
  0
BLOCK
  5
3D7
330
3D6
100
AcDbEntity
  8
0
100
AcDbBlockBegin
  2
*D24
 70
     1
 10
0.0
 20
0.0
 30
0.0
  3
*D24
  1

  0
LINE
  5
3D9
330
3D6
100
AcDbEntity
  8
寸法
  6
CONTINUOUS
 62
     3
100
AcDbLine
 10
1588.9975586
 20
988.4963623
 30
0.0
 11
1588.9975586
 21
931.8963623000002
 31
0.0
  0
LINE
  5
3DA
330
3D6
100
AcDbEntity
  8
寸法
  6
CONTINUOUS
 62
     3
100
AcDbLine
 10
1618.9975586
 20
931.8963623000002
 30
0.0
 11
1689.0
 21
931.8963623000002
 31
0.0
  0
INSERT
  5
3DB
330
3D6
100
AcDbEntity
  8
寸法
 62
     3
100
AcDbBlockReference
  2
EX_NORM
 10
1588.9975586
 20
931.8963623000002
 30
0.0
 41
30.0
 42
30.0
 43
30.0
 50
180.0
  0
INSERT
  5
3DC
330
3D6
100
AcDbEntity
  8
寸法
 62
     3
100
AcDbBlockReference
  2
EX_NORM
 10
1719.0
 20
931.8963623000002
 30
0.0
 41
30.0
 42
30.0
 43
30.0
  0
MTEXT
  5
3DD
330
3D6
100
AcDbEntity
  8
寸法
 62
     2
100
AcDbMText
 10
1653.9987793
 20
954.8963624192095
 30
0.0
 40
40.0
 41
0.0
 71
     5
 72
     1
  1
130
  7
EXCADDIM1
  0
POINT
  5
3DE
330
3D6
100
AcDbEntity
  8
DEFPOINTS
 62
     0
100
AcDbPoint
 10
1588.9975586
 20
988.4963623
 30
0.0
  0
POINT
  5
3DF
330
3D6
100
AcDbEntity
  8
DEFPOINTS
 62
     0
100
AcDbPoint
 10
1719.0
 20
931.8963623000002
 30
0.0
  0
POINT
  5
3E0
330
3D6
100
AcDbEntity
  8
DEFPOINTS
 62
     0
100
AcDbPoint
 10
1719.0
 20
931.8963623000002
 30
0.0
  0
ENDBLK
  5
3D8
330
3D6
100
AcDbEntity
  8
0
100
AcDbBlockEnd
  0
BLOCK
  5
3E3
330
3E2
100
AcDbEntity
  8
0
100
AcDbBlockBegin
  2
*D25
 70
     1
 10
0.0
 20
0.0
 30
0.0
  3
*D25
  1

  0
LINE
  5
3E5
330
3E2
100
AcDbEntity
  8
寸法
  6
CONTINUOUS
 62
     3
100
AcDbLine
 10
554.9992677192092
 20
1385.0
 30
0.0
 11
484.0012207000002
 21
1385.0
 31
0.0
  0
LINE
  5
3E6
330
3E2
100
AcDbEntity
  8
寸法
  6
CONTINUOUS
 62
     3
100
AcDbLine
 10
644.2790528192093
 20
1230.0
 30
0.0
 11
484.0012207000002
 21
1230.0
 31
0.0
  0
LINE
  5
3E7
330
3E2
100
AcDbEntity
  8
寸法
  6
CONTINUOUS
 62
     3
100
AcDbLine
 10
494.0012207000002
 20
1355.0
 30
0.0
 11
494.0012207000002
 21
1260.0
 31
0.0
  0
INSERT
  5
3E8
330
3E2
100
AcDbEntity
  8
寸法
 62
     3
100
AcDbBlockReference
  2
EX_NORM
 10
494.0012207000002
 20
1385.0
 30
0.0
 41
30.0
 42
30.0
 43
30.0
 50
90.0
  0
INSERT
  5
3E9
330
3E2
100
AcDbEntity
  8
寸法
 62
     3
100
AcDbBlockReference
  2
EX_NORM
 10
494.0012207000002
 20
1230.0
 30
0.0
 41
30.0
 42
30.0
 43
30.0
 50
270.0
  0
MTEXT
  5
3EA
330
3E2
100
AcDbEntity
  8
寸法
 62
     2
100
AcDbMText
 10
470.5012207596051
 20
1307.5
 30
0.0
 40
40.0
 41
0.0
 71
     5
 72
     1
  1
155
  7
EXCADDIM1
 11
0.0
 21
1.0
 31
0.0
  0
POINT
  5
3EB
330
3E2
100
AcDbEntity
  8
DEFPOINTS
 62
     0
100
AcDbPoint
 10
561.9992675999999
 20
1385.0
 30
0.0
  0
POINT
  5
3EC
330
3E2
100
AcDbEntity
  8
DEFPOINTS
 62
     0
100
AcDbPoint
 10
651.2790527
 20
1230.0
 30
0.0
  0
POINT
  5
3ED
330
3E2
100
AcDbEntity
  8
DEFPOINTS
 62
     0
100
AcDbPoint
 10
494.0012207000002
 20
1230.0
 30
0.0
  0
ENDBLK
  5
3E4
330
3E2
100
AcDbEntity
  8
0
100
AcDbBlockEnd
  0
BLOCK
  5
3F0
330
3EF
100
AcDbEntity
  8
0
100
AcDbBlockBegin
  2
*D26
 70
     1
 10
0.0
 20
0.0
 30
0.0
  3
*D26
  1

  0
LINE
  5
3F2
330
3EF
100
AcDbEntity
  8
寸法
  6
CONTINUOUS
 62
     3
100
AcDbLine
 10
1719.0
 20
578.0000001192093
 30
0.0
 11
1719.0
 21
495.0000000000001
 31
0.0
  0
LINE
  5
3F3
330
3EF
100
AcDbEntity
  8
寸法
  6
CONTINUOUS
 62
     3
100
AcDbLine
 10
1659.0
 20
578.0000001192093
 30
0.0
 11
1659.0
 21
495.0000000000001
 31
0.0
  0
LINE
  5
3F4
330
3EF
100
AcDbEntity
  8
寸法
  6
CONTINUOUS
 62
     3
100
AcDbLine
 10
1689.0
 20
505.0000000000001
 30
0.0
 11
1689.0
 21
505.0000000000001
 31
0.0
  0
INSERT
  5
3F5
330
3EF
100
AcDbEntity
  8
寸法
 62
     3
100
AcDbBlockReference
  2
EX_NORM
 10
1719.0
 20
505.0000000000001
 30
0.0
 41
30.0
 42
30.0
 43
30.0
  0
INSERT
  5
3F6
330
3EF
100
AcDbEntity
  8
寸法
 62
     3
100
AcDbBlockReference
  2
EX_NORM
 10
1659.0
 20
505.0000000000001
 30
0.0
 41
30.0
 42
30.0
 43
30.0
 50
180.0
  0
MTEXT
  5
3F7
330
3EF
100
AcDbEntity
  8
寸法
 62
     2
100
AcDbMText
 10
1859.0
 20
528.4999999403936
 30
0.0
 40
40.0
 41
0.0
 71
     5
 72
     1
  1
60（床排水）
  7
EXCADDIM1
  0
POINT
  5
3F8
330
3EF
100
AcDbEntity
  8
DEFPOINTS
 62
     0
100
AcDbPoint
 10
1719.0
 20
585.0
 30
0.0
  0
POINT
  5
3F9
330
3EF
100
AcDbEntity
  8
DEFPOINTS
 62
     0
100
AcDbPoint
 10
1659.0
 20
585.0
 30
0.0
  0
POINT
  5
3FA
330
3EF
100
AcDbEntity
  8
DEFPOINTS
 62
     0
100
AcDbPoint
 10
1659.0
 20
505.0000000000001
 30
0.0
  0
ENDBLK
  5
3F1
330
3EF
100
AcDbEntity
  8
0
100
AcDbBlockEnd
  0
ENDSEC
  0
SECTION
  2
ENTITIES
  0
ARC
  5
A9
330
1F
100
AcDbEntity
  8
枠_表
  6
CONTINUOUS
 62
     3
100
AcDbCircle
 10
804.2685324125517
 20
154.6167288926873
 30
0.0
 40
17.66683515327064
100
AcDbArc
 50
88.77000393305703
 51
128.9068631829044
  0
ARC
  5
AA
330
1F
100
AcDbEntity
  8
枠_表
  6
CONTINUOUS
 62
     3
100
AcDbCircle
 10
805.0706272602787
 20
162.0191625973303
 30
0.0
 40
10.2690407511459
100
AcDbArc
 50
4.148222840814693
 51
92.36000944257292
  0
ARC
  5
AB
330
1F
100
AcDbEntity
  8
枠_表
  6
CONTINUOUS
 62
     3
100
AcDbCircle
 10
1268.65013583871
 20
148.932384393172
 30
0.0
 40
453.548265586566
100
AcDbArc
 50
178.2526643324597
 51
180.6439560401927
  0
ARC
  5
AC
330
1F
100
AcDbEntity
  8
枠_表
  6
CONTINUOUS
 62
     3
100
AcDbCircle
 10
818.1823989446033
 20
143.8302928780462
 30
0.0
 40
3.05188683107389
100
AcDbArc
 50
179.9117548191414
 51
236.1065985968857
  0
ARC
  5
AD
330
1F
100
AcDbEntity
  8
枠_表
  6
CONTINUOUS
 62
     3
100
AcDbCircle
 10
817.8242078457955
 20
144.0061188741078
 30
0.0
 40
3.0240485913648
100
AcDbArc
 50
243.6191685566582
 51
297.5097757939563
  0
LINE
  5
AE
330
1F
100
AcDbEntity
  8
枠_表
  6
CONTINUOUS
 62
     3
100
AcDbLine
 10
819.2210157332496
 20
139.7512432975395
 30
0.0
 11
819.2210157332496
 21
141.3239932975392
 31
0.0
  0
LINE
  5
AF
330
1F
100
AcDbEntity
  8
枠_表
  6
CONTINUOUS
 62
     3
100
AcDbLine
 10
813.9087657332501
 20
139.0964932975393
 30
0.0
 11
816.08226573325
 21
139.0964932975393
 31
0.0
  0
ARC
  5
B0
330
1F
100
AcDbEntity
  8
枠_表
  6
CONTINUOUS
 62
     3
100
AcDbCircle
 10
815.8995891945591
 20
147.6464512823017
 30
0.0
 40
8.56540620020894
100
AcDbArc
 50
271.2220539293239
 51
292.8159509797653
  0
ARC
  5
B1
330
1F
100
AcDbEntity
  8
枠_表
  6
CONTINUOUS
 62
     3
100
AcDbCircle
 10
814.2937735081463
 20
143.3367456528623
 30
0.0
 40
4.25769550620398
100
AcDbArc
 50
217.4081478714985
 51
264.8118660441384
  0
ARC
  5
B2
330
1F
100
AcDbEntity
  8
枠_表
  6
CONTINUOUS
 62
     3
100
AcDbCircle
 10
814.8315560558316
 20
143.6492594265718
 30
0.0
 40
4.87535134009722
100
AcDbArc
 50
187.1167640402297
 51
216.4860549324747
  0
ARC
  5
B3
330
1F
100
AcDbEntity
  8
枠_表
  6
CONTINUOUS
 62
     3
100
AcDbCircle
 10
799.661304586701
 20
151.9534026256815
 30
0.0
 40
13.64239920103932
100
AcDbArc
 50
275.2158792069686
 51
319.2336424873511
  0
LINE
  5
B4
330
1F
100
AcDbEntity
  8
枠_表
  6
CONTINUOUS
 62
     3
100
AcDbLine
 10
798.1610157332497
 20
138.3674932975396
 30
0.0
 11
800.9015157332504
 21
138.3674932975396
 31
0.0
  0
ARC
  5
B5
330
1F
100
AcDbEntity
  8
枠_表
  6
CONTINUOUS
 62
     3
100
AcDbCircle
 10
798.2928130736753
 20
144.6963494387396
 30
0.0
 40
6.330228320917859
100
AcDbArc
 50
252.3384873625213
 51
268.8069976857606
  0
ARC
  5
B6
330
1F
100
AcDbEntity
  8
枠_表
  6
CONTINUOUS
 62
     3
100
AcDbCircle
 10
798.4562953036888
 20
146.8111104772584
 30
0.0
 40
8.408956577563659
100
AcDbArc
 50
224.289750990011
 51
255.6505938786759
  0
ARC
  5
B7
330
1F
100
AcDbEntity
  8
枠_表
  6
CONTINUOUS
 62
     3
100
AcDbCircle
 10
798.09153329155
 20
146.4015021572851
 30
0.0
 40
7.8619234712629
100
AcDbArc
 50
185.9586126338419
 51
224.0091989319859
  0
ARC
  5
B8
330
1F
100
AcDbEntity
  8
枠_表
  6
CONTINUOUS
 62
     3
100
AcDbCircle
 10
798.9075018569991
 20
146.7758712547734
 30
0.0
 40
8.71709372588669
100
AcDbArc
 50
164.8589457925044
 51
187.8495628504518
  0
ARC
  5
B9
330
1F
100
AcDbEntity
  8
枠_表
  6
CONTINUOUS
 62
     3
100
AcDbCircle
 10
797.3972379030148
 20
147.6366332500788
 30
0.0
 40
7.04795370557922
100
AcDbArc
 50
129.8344892359069
 51
168.4089447024628
  0
ARC
  5
BA
330
1F
100
AcDbEntity
  8
枠_表
  6
CONTINUOUS
 62
     3
100
AcDbCircle
 10
801.0970138675783
 20
142.9608481482859
 30
0.0
 40
13.0093661698492
100
AcDbArc
 50
102.0988446293839
 51
129.1556705448828
  0
ARC
  5
BB
330
1F
100
AcDbEntity
  8
枠_表
  6
CONTINUOUS
 62
     3
100
AcDbCircle
 10
778.8530099985786
 20
281.12020297752
 30
0.0
 40
126.9482409370382
100
AcDbArc
 50
278.8438342053764
 51
282.6649181367123
  0
ARC
  5
BC
330
1F
100
AcDbEntity
  8
枠_表
  6
CONTINUOUS
 62
     3
100
AcDbCircle
 10
804.3433050110897
 20
167.6407362688738
 30
0.0
 40
10.64113335272784
100
AcDbArc
 50
282.7195832898965
 51
295.6781112778079
  0
ARC
  5
BD
330
1F
100
AcDbEntity
  8
枠_表
  6
CONTINUOUS
 62
     3
100
AcDbCircle
 10
808.3230955673338
 20
159.6511332504275
 30
0.0
 40
1.72058828228131
100
AcDbArc
 50
291.5204897073511
 51
349.3445900274031
  0
ARC
  5
BE
330
1F
100
AcDbEntity
  8
枠_表
  6
CONTINUOUS
 62
     3
100
AcDbCircle
 10
797.0053873566566
 20
160.9229870375111
 30
0.0
 40
13.10543751018921
100
AcDbArc
 50
353.0315250986587
 51
7.839947970678348
  0
ARC
  5
BF
330
1F
100
AcDbEntity
  8
枠_表
  6
CONTINUOUS
 62
     3
100
AcDbCircle
 10
802.9283412817684
 20
162.2741886153409
 30
0.0
 40
7.07346538626002
100
AcDbArc
 50
3.537639967999379
 51
74.8013566619203
  0
ARC
  5
C0
330
1F
100
AcDbEntity
  8
枠_表
  6
CONTINUOUS
 62
     3
100
AcDbCircle
 10
802.4799095798306
 20
158.9383830513006
 30
0.0
 40
10.4195273466423
100
AcDbArc
 50
77.23143261361693
 51
105.203415964315
  0
ARC
  5
C1
330
1F
100
AcDbEntity
  8
枠_表
  6
CONTINUOUS
 62
     3
100
AcDbCircle
 10
801.8253617702984
 20
160.2890191857873
 30
0.0
 40
8.94881105176719
100
AcDbArc
 50
103.4267945469744
 51
150.3242613737993
  0
LINE
  5
C2
330
1F
100
AcDbEntity
  8
枠_表
  6
CONTINUOUS
 62
     3
100
AcDbLine
 10
793.1727657332507
 20
168.3644932975395
 30
0.0
 11
793.1727657332507
 21
164.7194932975395
 31
0.0
  0
ARC
  5
C3
330
1F
100
AcDbEntity
  8
枠_表
  6
CONTINUOUS
 62
     3
100
AcDbCircle
 10
698.1439565227074
 20
143.7342761922778
 30
0.0
 40
69.67015049800598
100
AcDbArc
 50
353.1274757312911
 51
357.106204490141
  0
ARC
  5
C4
330
1F
100
AcDbEntity
  8
枠_表
  6
CONTINUOUS
 62
     3
100
AcDbCircle
 10
273.3385521229313
 20
167.5197335838826
 30
0.0
 40
495.1400430399008
100
AcDbArc
 50
356.8390243485978
 51
2.971133813187157
  0
ARC
  5
C5
330
1F
100
AcDbEntity
  8
枠_表
  6
CONTINUOUS
 62
     3
100
AcDbCircle
 10
760.0927386496022
 20
137.3407518472905
 30
0.0
 40
7.47769185530633
100
AcDbArc
 50
314.592391474832
 51
344.9374073189123
  0
ARC
  5
C6
330
1F
100
AcDbEntity
  8
枠_表
  6
CONTINUOUS
 62
     3
100
AcDbCircle
 10
757.834728968544
 20
141.6759859445978
 30
0.0
 40
12.23467000390025
100
AcDbArc
 50
288.1715191042997
 51
307.8537826235693
  0
LINE
  5
C7
330
1F
100
AcDbEntity
  8
枠_表
  6
CONTINUOUS
 62
     3
100
AcDbLine
 10
762.8855157332499
 20
126.2917432975397
 30
0.0
 11
761.6502657332497
 21
130.0514932975392
 31
0.0
  0
ARC
  5
C8
330
1F
100
AcDbEntity
  8
枠_表
  6
CONTINUOUS
 62
     3
100
AcDbCircle
 10
760.0955749866656
 20
148.7223152915377
 30
0.0
 40
22.60341410821362
100
AcDbArc
 50
277.0901027239701
 51
290.9134154817058
  0
ARC
  5
C9
330
1F
100
AcDbEntity
  8
枠_表
  6
CONTINUOUS
 62
     3
100
AcDbCircle
 10
763.3897327885478
 20
143.9383518626818
 30
0.0
 40
17.01394688196115
100
AcDbArc
 50
286.2966123578915
 51
329.973223283839
  0
ARC
  5
CA
330
1F
100
AcDbEntity
  8
枠_表
  6
CONTINUOUS
 62
     3
100
AcDbCircle
 10
757.4899361790616
 20
144.9631356880082
 30
0.0
 40
22.72875263114311
100
AcDbArc
 50
335.1860595856123
 51
1.308075913059364
  0
ARC
  5
CB
330
1F
100
AcDbEntity
  8
枠_表
  6
CONTINUOUS
 62
     3
100
AcDbCircle
 10
1429.542531413434
 20
162.2960360950833
 30
0.0
 40
649.5474244683604
100
AcDbArc
 50
177.2695926307304
 51
181.4833117237826
  0
ARC
  5
CC
330
1F
100
AcDbEntity
  8
枠_表
  6
CONTINUOUS
 62
     3
100
AcDbCircle
 10
798.6056099353726
 20
195.7501381160495
 30
0.0
 40
41.36406814694017
100
AcDbArc
 50
278.4088456599976
 51
286.1851416003176
  0
ARC
  5
CD
330
1F
100
AcDbEntity
  8
枠_表
  6
CONTINUOUS
 62
     3
100
AcDbCircle
 10
807.5660651757706
 20
135.8318862667966
 30
0.0
 40
19.22065786155208
100
AcDbArc
 50
98.71271710191789
 51
115.2874718053599
  0
ARC
  5
CE
330
1F
100
AcDbEntity
  8
枠_表
  6
CONTINUOUS
 62
     3
100
AcDbCircle
 10
802.0701866837834
 20
147.5807479047171
 30
0.0
 40
6.25019433457053
100
AcDbArc
 50
115.7403688633493
 51
172.5491744442191
  0
LINE
  5
CF
330
1F
100
AcDbEntity
  8
枠_表
  6
CONTINUOUS
 62
     3
100
AcDbLine
 10
795.8727657332498
 20
148.3912432975393
 30
0.0
 11
795.8727657332498
 21
146.4337432975395
 31
0.0
  0
ARC
  5
D0
330
1F
100
AcDbEntity
  8
枠_表
  6
CONTINUOUS
 62
     3
100
AcDbCircle
 10
801.6959653488738
 20
146.7461380097771
 30
0.0
 40
5.83157304846997
100
AcDbArc
 50
183.0707787095794
 51
263.4402016072427
  0
LINE
  5
D1
330
1F
100
AcDbEntity
  8
枠_表
  6
CONTINUOUS
 62
     3
100
AcDbLine
 10
801.0297657332497
 20
140.9527432975398
 30
0.0
 11
802.7645157332503
 21
140.9527432975398
 31
0.0
  0
ARC
  5
D2
330
1F
100
AcDbEntity
  8
枠_表
  6
CONTINUOUS
 62
     3
100
AcDbCircle
 10
801.3244690765913
 20
150.7836489530195
 30
0.0
 40
9.935816039979159
100
AcDbArc
 50
278.3335103000368
 51
329.1221464187299
  0
ARC
  5
D3
330
1F
100
AcDbEntity
  8
枠_表
  6
CONTINUOUS
 62
     3
100
AcDbCircle
 10
-22479.01542217735
 20
789.3265245587818
 30
0.0
 40
23297.76001260591
100
AcDbArc
 50
358.4169008257799
 51
358.4423418242109
  0
ARC
  5
D4
330
1F
100
AcDbEntity
  8
枠_表
  6
CONTINUOUS
 62
     3
100
AcDbCircle
 10
829.5808780069314
 20
99.50692545116993
 30
0.0
 40
39.68909094418497
100
AcDbArc
 50
85.07099551674689
 51
93.91830029343228
  0
ARC
  5
D5
330
1F
100
AcDbEntity
  8
枠_表
  6
CONTINUOUS
 62
     3
100
AcDbCircle
 10
906.408857895104
 20
147.9150147009801
 30
0.0
 40
73.95120993114928
100
AcDbArc
 50
179.8977458165987
 51
186.8855675734268
  0
ARC
  5
D6
330
1F
100
AcDbEntity
  8
枠_表
  6
CONTINUOUS
 62
     3
100
AcDbCircle
 10
843.56617223664
 20
159.0795225138044
 30
0.0
 40
11.08398956318131
100
AcDbArc
 50
134.9787476233347
 51
181.2369872983282
  0
ARC
  5
D7
330
1F
100
AcDbEntity
  8
枠_表
  6
CONTINUOUS
 62
     3
100
AcDbCircle
 10
841.0100145205532
 20
160.2366273138676
 30
0.0
 40
8.51645057047003
100
AcDbArc
 50
42.91644474042847
 51
128.3015542351336
  0
ARC
  5
D8
330
1F
100
AcDbEntity
  8
枠_表
  6
CONTINUOUS
 62
     3
100
AcDbCircle
 10
837.9447404568526
 20
160.0315138821537
 30
0.0
 40
11.07172507744154
100
AcDbArc
 50
359.2495022237244
 51
32.84055016678327
  0
ARC
  5
D9
330
1F
100
AcDbEntity
  8
枠_表
  6
CONTINUOUS
 62
     3
100
AcDbCircle
 10
684.1173378649736
 20
151.775133788245
 30
0.0
 40
165.0975566668588
100
AcDbArc
 50
355.5862454873798
 51
2.816115806820253
  0
ARC
  5
DA
330
1F
100
AcDbEntity
  8
枠_表
  6
CONTINUOUS
 62
     3
100
AcDbCircle
 10
851.5771407332508
 20
107.6015261922765
 30
0.0
 40
31.59693252126744
100
AcDbArc
 50
84.82155189294139
 51
95.17844810705873
  0
ARC
  5
DB
330
1F
100
AcDbEntity
  8
枠_表
  6
CONTINUOUS
 62
     3
100
AcDbCircle
 10
1017.657633661698
 20
146.906737473912
 30
0.0
 40
163.4166579853821
100
AcDbArc
 50
176.2131780319488
 51
182.7488833337936
  0
ARC
  5
DC
330
1F
100
AcDbEntity
  8
枠_表
  6
CONTINUOUS
 62
     3
100
AcDbCircle
 10
793.1913601210057
 20
159.3315774812132
 30
0.0
 40
61.42809087866958
100
AcDbArc
 50
358.4775281223095
 51
2.117232414210064
  0
ARC
  5
DD
330
1F
100
AcDbEntity
  8
枠_表
  6
CONTINUOUS
 62
     3
100
AcDbCircle
 10
842.7905515344822
 20
161.6285942451515
 30
0.0
 40
11.7869965146059
100
AcDbArc
 50
359.8658335690532
 51
34.49363429411157
  0
ARC
  5
DE
330
1F
100
AcDbEntity
  8
枠_表
  6
CONTINUOUS
 62
     3
100
AcDbCircle
 10
844.7724057413765
 20
162.9204664797982
 30
0.0
 40
9.4221437555554
100
AcDbArc
 50
34.84393737091607
 51
92.5207065423111
  0
ARC
  5
DF
330
1F
100
AcDbEntity
  8
枠_表
  6
CONTINUOUS
 62
     3
100
AcDbCircle
 10
843.7541069002549
 20
158.9275988818591
 30
0.0
 40
13.4194899665726
100
AcDbArc
 50
87.42068310381028
 51
147.4361518966862
  0
ARC
  5
E0
330
1F
100
AcDbEntity
  8
枠_表
  6
CONTINUOUS
 62
     3
100
AcDbCircle
 10
870.0574727396164
 20
167.078568138304
 30
0.0
 40
37.62465500458182
100
AcDbArc
 50
172.9875214416311
 51
181.4134392789641
  0
ARC
  5
E1
330
1F
100
AcDbEntity
  8
枠_表
  6
CONTINUOUS
 62
     3
100
AcDbCircle
 10
829.7082849861234
 20
183.2206879814476
 30
0.0
 40
11.93349358546016
100
AcDbArc
 50
255.9341994177206
 51
284.5896440601899
  0
ARC
  5
E2
330
1F
100
AcDbEntity
  8
枠_表
  6
CONTINUOUS
 62
     3
100
AcDbCircle
 10
623.1176988671594
 20
154.9938058671736
 30
0.0
 40
204.3697806131073
100
AcDbArc
 50
355.5405243117485
 51
4.673398698656258
  0
LINE
  5
E3
330
1F
100
AcDbEntity
  8
枠_表
  6
CONTINUOUS
 62
     3
100
AcDbLine
 10
832.4847657332499
 20
158.8402432975394
 30
0.0
 11
832.4847657332499
 21
148.0469932975393
 31
0.0
  0
CIRCLE
  5
E4
330
1F
100
AcDbEntity
  8
枠_表
  6
CONTINUOUS
 62
     3
100
AcDbCircle
 10
869.2855140383352
 20
183.5835466873701
 30
0.0
 40
3.57233446676989
  0
ARC
  5
E5
330
1F
100
AcDbEntity
  8
枠_表
  6
CONTINUOUS
 62
     3
100
AcDbCircle
 10
869.1456076027727
 20
184.5332474358065
 30
0.0
 40
13.19228548840207
100
AcDbArc
 50
256.6209501743446
 51
283.9984576255729
  0
ARC
  5
E6
330
1F
100
AcDbEntity
  8
枠_表
  6
CONTINUOUS
 62
     3
100
AcDbCircle
 10
869.4144089371333
 20
73.79804184123202
 30
0.0
 40
65.3285948525109
100
AcDbArc
 50
87.46575055044718
 51
92.90832285102188
  0
ARC
  5
E7
330
1F
100
AcDbEntity
  8
枠_表
  6
CONTINUOUS
 62
     3
100
AcDbCircle
 10
1075.254047179556
 20
155.1881005739378
 30
0.0
 40
203.5906390589
100
AcDbArc
 50
175.3387608397566
 51
184.5428594926176
  0
ARC
  5
E8
330
1F
100
AcDbEntity
  8
枠_表
  6
CONTINUOUS
 62
     3
100
AcDbCircle
 10
644.6900575363869
 20
155.3249792766223
 30
0.0
 40
222.0076085035812
100
AcDbArc
 50
355.7940354718673
 51
4.229650257234378
  0
ARC
  5
E9
330
1F
100
AcDbEntity
  8
枠_表
  6
CONTINUOUS
 62
     3
100
AcDbCircle
 10
1214.644453232814
 20
982.0297432964193
 30
0.0
 40
870.2800228963157
100
AcDbArc
 50
248.6422112053103
 51
248.8567777804232
  0
ARC
  5
EA
330
1F
100
AcDbEntity
  8
枠_表
  6
CONTINUOUS
 62
     3
100
AcDbCircle
 10
893.8542828460567
 20
162.166303836394
 30
0.0
 40
10.10907867592157
100
AcDbArc
 50
67.66151957087348
 51
88.69073168448988
  0
ARC
  5
EB
330
1F
100
AcDbEntity
  8
枠_表
  6
CONTINUOUS
 62
     3
100
AcDbCircle
 10
892.7711044283905
 20
159.0979097937597
 30
0.0
 40
13.19974865367525
100
AcDbArc
 50
92.38301574576484
 51
114.9635286746436
  0
ARC
  5
EC
330
1F
100
AcDbEntity
  8
枠_表
  6
CONTINUOUS
 62
     3
100
AcDbCircle
 10
891.796349679961
 20
162.2009291101853
 30
0.0
 40
9.9843256030919
100
AcDbArc
 50
117.4083995939977
 51
176.1964688215695
  0
ARC
  5
ED
330
1F
100
AcDbEntity
  8
枠_表
  6
CONTINUOUS
 62
     3
100
AcDbCircle
 10
888.5599257926
 20
161.2192769075514
 30
0.0
 40
6.693726059056109
100
AcDbArc
 50
181.2393899443581
 51
226.5942921332421
  0
ARC
  5
EE
330
1F
100
AcDbEntity
  8
枠_表
  6
CONTINUOUS
 62
     3
100
AcDbCircle
 10
892.5268145799499
 20
165.2396411006671
 30
0.0
 40
12.34100950779567
100
AcDbArc
 50
226.0402388947521
 51
253.1776672992999
  0
ARC
  5
EF
330
1F
100
AcDbEntity
  8
枠_表
  6
CONTINUOUS
 62
     3
100
AcDbCircle
 10
882.1714891830426
 20
124.9457141755198
 30
0.0
 40
29.27778413972754
100
AcDbArc
 50
63.49050203733571
 51
76.60259219849584
  0
ARC
  5
F0
330
1F
100
AcDbEntity
  8
枠_表
  6
CONTINUOUS
 62
     3
100
AcDbCircle
 10
893.3080045853666
 20
146.9846225433153
 30
0.0
 40
4.58710152219014
100
AcDbArc
 50
6.53892419415897
 51
65.09756080693691
  0
ARC
  5
F1
330
1F
100
AcDbEntity
  8
枠_表
  6
CONTINUOUS
 62
     3
100
AcDbCircle
 10
892.035777744651
 20
146.7002363757152
 30
0.0
 40
5.943954918766759
100
AcDbArc
 50
270.8867385422408
 51
352.7925382056677
  0
ARC
  5
F2
330
1F
100
AcDbEntity
  8
枠_表
  6
CONTINUOUS
 62
     3
100
AcDbCircle
 10
891.6361043234855
 20
149.6658639777371
 30
0.0
 40
8.98004035462527
100
AcDbArc
 50
207.7689879465537
 51
262.7817283832026
  0
ARC
  5
F3
330
1F
100
AcDbEntity
  8
枠_表
  6
CONTINUOUS
 62
     3
100
AcDbCircle
 10
889.793005459277
 20
155.8156576811015
 30
0.0
 40
17.5327631578002
100
AcDbArc
 50
241.8829576087176
 51
265.9354096935781
  0
ARC
  5
F4
330
1F
100
AcDbEntity
  8
枠_表
  6
CONTINUOUS
 62
     3
100
AcDbCircle
 10
891.466388646756
 20
149.6692467118038
 30
0.0
 40
11.34515058180645
100
AcDbArc
 50
271.2948770866743
 51
348.6654156292868
  0
ARC
  5
F5
330
1F
100
AcDbEntity
  8
枠_表
  6
CONTINUOUS
 62
     3
100
AcDbCircle
 10
895.2045721291951
 20
149.5217258531565
 30
0.0
 40
7.462450757296059
100
AcDbArc
 50
6.154262763177246
 51
76.17509904255616
  0
ARC
  5
F6
330
1F
100
AcDbEntity
  8
枠_表
  6
CONTINUOUS
 62
     3
100
AcDbCircle
 10
909.5384669692056
 20
208.9359310503497
 30
0.0
 40
53.65644258516682
100
AcDbArc
 50
249.6420733479936
 51
256.4727051201885
  0
ARC
  5
F7
330
1F
100
AcDbEntity
  8
枠_表
  6
CONTINUOUS
 62
     3
100
AcDbCircle
 10
893.0721352387446
 20
165.3138641766606
 30
0.0
 40
7.03563707337184
100
AcDbArc
 50
210.9501336849607
 51
251.7794729821079
  0
ARC
  5
F8
330
1F
100
AcDbEntity
  8
枠_表
  6
CONTINUOUS
 62
     3
100
AcDbCircle
 10
900.3031407332622
 20
166.3823182975435
 30
0.0
 40
14.068519372934
100
AcDbArc
 50
193.4375782160214
 51
199.459638038058
  0
ARC
  5
F9
330
1F
100
AcDbEntity
  8
枠_表
  6
CONTINUOUS
 62
     3
100
AcDbCircle
 10
892.035096486053
 20
164.2674994707909
 30
0.0
 40
5.35613931103931
100
AcDbArc
 50
92.11404364449162
 51
173.4175047026091
  0
ARC
  5
FA
330
1F
100
AcDbEntity
  8
枠_表
  6
CONTINUOUS
 62
     3
100
AcDbCircle
 10
892.4147339127502
 20
163.5429236291657
 30
0.0
 40
6.12586430102253
100
AcDbArc
 50
17.92452211681263
 51
85.16543319077402
  0
LINE
  5
FB
330
1F
100
AcDbEntity
  8
枠_表
  6
CONTINUOUS
 62
     3
100
AcDbLine
 10
894.0852657332501
 20
172.2727432975393
 30
0.0
 11
892.2222657332503
 21
172.2727432975393
 31
0.0
  0
LINE
  5
FC
330
1F
100
AcDbEntity
  8
枠_表
  6
CONTINUOUS
 62
     3
100
AcDbLine
 10
890.5077657332498
 20
140.7569932975395
 30
0.0
 11
892.1277657332502
 21
140.7569932975395
 31
0.0
  0
LINE
  5
FD
330
1F
100
AcDbEntity
  8
枠_表
  6
CONTINUOUS
 62
     3
100
AcDbLine
 10
883.6902657332502
 20
145.4819932975391
 30
0.0
 11
882.8127657332501
 21
145.4819932975391
 31
0.0
  0
LINE
  5
FE
330
1F
100
AcDbEntity
  8
枠_表
  6
CONTINUOUS
 62
     3
100
AcDbLine
 10
888.5502657332503
 20
138.3269932975395
 30
0.0
 11
891.7227657332495
 21
138.3269932975395
 31
0.0
  0
HATCH
  5
FF
330
1F
100
AcDbEntity
  8
枠_表
  6
CONTINUOUS
 62
     3
100
AcDbHatch
 10
0.0
 20
0.0
 30
0.0
210
0.0
220
0.0
230
1.0
  2
SOLID
 70
     1
 71
     1
 91
        1
 92
        3
 72
     1
 73
     1
 93
       10
 10
767.7252657332504
 20
140.2169932975396
 42
-0.017362223501556
 10
767.81301573325
 20
193.1842432975395
 42
-0.0267627618865285
 10
767.8130157332494
 20
193.1842432975395
 42
0.0737939047395297
 10
780.7325157332496
 20
193.2382432975388
 42
0.0183878899657109
 10
780.2127657332506
 20
145.4819932975393
 42
-0.1144749489451909
 10
778.1202657332495
 20
135.4244932975392
 42
-0.1929163439413163
 10
768.1640157332508
 20
127.6079932975395
 42
-0.0603888289562337
 10
762.8855157332499
 20
126.2917432975397
 42
0.0
 10
761.6502657332497
 20
130.0514932975393
 42
0.0860918333465722
 10
765.3425157332501
 20
132.0157432975396
 42
0.1331843103855141
 97
        0
 75
     0
 76
     1
 98
        1
 10
0.0
 20
0.0
  0
HATCH
  5
100
330
1F
100
AcDbEntity
  8
枠_表
  6
CONTINUOUS
 62
     3
100
AcDbHatch
 10
0.0
 20
0.0
 30
0.0
210
0.0
220
0.0
230
1.0
  2
SOLID
 70
     1
 71
     1
 91
        1
 92
        3
 72
     1
 73
     1
 93
       16
 10
826.86876573325
 20
139.1032432975396
 42
-0.0386228372648426
 10
826.8080157332502
 20
171.6449932975397
 42
-0.0398707891902887
 10
832.7142657332498
 20
171.6719932975396
 42
-0.1256886216044368
 10
832.4442657332504
 20
166.1504932975395
 42
-0.0367815758121429
 10
832.4442657332502
 20
166.1504932975395
 42
-0.268021535028829
 10
844.3580157332501
 20
172.3334932975395
 42
-0.2571134422124888
 10
852.5052657332495
 20
168.3037432975398
 42
-0.1522526366014298
 10
854.5775157332502
 20
161.6009932975397
 42
-0.0158825412051521
 10
854.4290157332498
 20
139.0694932975394
 42
-0.0285251271418421
 10
848.7252657332507
 20
139.0694932975394
 42
-0.0452212723224612
 10
849.0155157332497
 20
159.8864932975394
 42
-0.0315567291532142
 10
847.2470157332498
 20
166.0357432975391
 42
-0.1476272403790709
 10
835.7315157332501
 20
166.9199932975393
 42
-0.3908144705745794
 10
832.4847657332499
 20
158.8402432975392
 42
-0.2046259928850854
 10
832.4847657332499
 20
158.8402432975394
 42
0.0
 10
832.9910157332505
 20
139.0492432975395
 42
-0.0304995761723369
 97
        0
 75
     0
 76
     1
 98
        1
 10
0.0
 20
0.0
  0
HATCH
  5
101
330
1F
100
AcDbEntity
  8
枠_表
  6
CONTINUOUS
 62
     3
100
AcDbHatch
 10
0.0
 20
0.0
 30
0.0
210
0.0
220
0.0
230
1.0
  2
SOLID
 70
     1
 71
     1
 91
        2
 92
        1
 93
        1
 72
     2
 10
869.2855140383352
 20
183.5835466873701
 40
3.572334466769885
 50
0.0
 51
360.0
 73
     1
 97
        0
 92
        3
 72
     1
 73
     1
 93
        3
 10
866.0930157332498
 20
171.6989932975394
 42
0.1200283885712921
 10
872.3030157332494
 20
139.0627432975394
 42
-0.0401820615762149
 10
866.0997657332498
 20
139.0424932975395
 42
-0.0237521668114666
 97
        0
 75
     0
 76
     1
 98
        1
 10
0.0
 20
0.0
  0
LINE
  5
102
330
1F
100
AcDbEntity
  8
枠_表
  6
CONTINUOUS
 62
     3
100
AcDbLine
 10
793.1727657332507
 20
164.7194932975395
 30
0.0
 11
794.0502657332498
 21
164.7194932975395
 31
0.0
  0
ARC
  5
103
330
1F
100
AcDbEntity
  8
枠_表
  6
CONTINUOUS
 62
     3
100
AcDbCircle
 10
871.5344131320938
 20
145.577975956499
 30
0.0
 40
11.27953740078838
100
AcDbArc
 50
332.3987521421788
 51
359.5124385477116
  0
LINE
  5
104
330
1F
100
AcDbEntity
  8
枠_表
  6
CONTINUOUS
 62
     3
100
AcDbLine
 10
897.8652657332499
 20
147.5069932975393
 30
0.0
 11
897.9327657332504
 21
145.9544932975396
 31
0.0
  0
LINE
  5
105
330
1F
100
AcDbEntity
  8
枠_表
  6
CONTINUOUS
 62
     3
100
AcDbLine
 10
902.6240157332503
 20
150.3217432975393
 30
0.0
 11
902.5902657332496
 21
147.4394932975397
 31
0.0
  0
LINE
  5
106
330
1F
100
AcDbEntity
  8
枠_表
  6
CONTINUOUS
 62
     3
100
AcDbLine
 10
886.7142657332496
 20
164.8814932975398
 30
0.0
 11
886.6197657332499
 21
163.1129932975395
 31
0.0
  0
LINE
  5
107
330
1F
100
AcDbEntity
  8
枠_表
  6
CONTINUOUS
 62
     3
100
AcDbLine
 10
881.8340157332494
 20
162.8632432975397
 30
0.0
 11
881.8677657332495
 21
161.0744932975618
 31
0.0
  0
LINE
  5
108
330
1F
100
AcDbEntity
  8
枠_表
  6
CONTINUOUS
 62
     3
100
AcDbLine
 10
891.8375157332497
 20
169.6199932975395
 30
0.0
 11
892.9310157332505
 21
169.6469932975396
 31
0.0
  0
LINE
  5
109
330
1F
100
AcDbEntity
  8
枠_表
  6
CONTINUOUS
 62
     3
100
AcDbLine
 10
898.24326573325
 20
165.4282432975396
 30
0.0
 11
899.0970934867313
 21
165.4282432975396
 31
0.0
  0
ARC
  5
10A
330
1F
100
AcDbEntity
  8
枠_表
  6
CONTINUOUS
 62
     3
100
AcDbCircle
 10
917.8424810688706
 20
161.9019437507481
 30
0.0
 40
19.07418003737831
100
AcDbArc
 50
153.7591918158497
 51
169.3462759801917
  0
HATCH
  5
10B
330
1F
100
AcDbEntity
  8
枠_表
  6
CONTINUOUS
 62
     3
100
AcDbHatch
 10
0.0
 20
0.0
 30
0.0
210
0.0
220
0.0
230
1.0
  2
SOLID
 70
     1
 71
     1
 91
        1
 92
        3
 72
     1
 73
     1
 93
       30
 10
900.7340157332491
 20
170.3354932975402
 42
-0.0009362235736497
 10
900.7340157332497
 20
170.3354932975392
 42
0.0681165430304653
 10
899.0970934867313
 20
165.4282432975396
 42
0.0
 10
892.9310157332504
 20
169.6469932975396
 42
-0.302112590907374
 10
892.9310157332505
 20
169.6469932975396
 42
0.0
 10
886.7142657332499
 20
164.8814932975395
 42
-0.3704245237568778
 10
886.7142657332496
 20
164.8814932975398
 42
0.0
 10
887.0382657332497
 20
161.6954932975398
 42
-0.0262822419456939
 10
890.8722657332503
 20
158.6309932975398
 42
-0.180060563604375
 10
896.9877657332503
 20
156.7679932975394
 42
-0.0298130817160724
 10
896.98776573325
 20
156.7679932975396
 42
-0.3153987453686078
 10
902.6240157332503
 20
150.3217432975393
 42
0.0
 10
902.5902657332506
 20
147.4394932975398
 42
-0.3510306079065168
 10
891.7227657332495
 20
138.3269932975395
 42
0.0
 10
888.5502657332495
 20
138.3269932975396
 42
-0.1053356344842436
 10
881.53026573325
 20
140.3519932975395
 42
0.1188608286962634
 10
882.8127657332501
 20
145.4819932975391
 42
0.0
 10
890.5077657332496
 20
140.7569932975396
 42
-0.2447573632916039
 10
890.5077657332498
 20
140.7569932975395
 42
0.0
 10
897.9327657332503
 20
145.9544932975393
 42
-0.3734162676407277
 10
897.9327657332504
 20
145.9544932975396
 42
0.0
 10
895.2395157332503
 20
151.1452432975394
 42
-0.261219770190848
 10
888.9552657332496
 20
153.4267432975397
 42
-0.0572747914118363
 10
888.9552657332506
 20
153.4267432975392
 42
-0.1189658875692221
 10
883.96026573325
 20
156.3562432975393
 42
-0.2005226878639636
 10
881.8677657332495
 20
161.0744932975618
 42
0.0
 10
881.8340157332502
 20
162.8632432975392
 42
-0.2622894489606957
 10
887.2002657332505
 20
171.0644932975394
 42
-0.0988461274137808
 10
892.2222657332503
 20
172.2727432975393
 42
0.0
 10
894.0852657332497
 20
172.2727432975393
 42
-0.0920156312561188
 97
        0
 75
     0
 76
     1
 98
        1
 10
0.0
 20
0.0
  0
HATCH
  5
10C
330
1F
100
AcDbEntity
  8
枠_表
  6
CONTINUOUS
 62
     3
100
AcDbHatch
 10
0.0
 20
0.0
 30
0.0
210
0.0
220
0.0
230
1.0
  2
SOLID
 70
     1
 71
     1
 91
        2
 92
        3
 72
     1
 73
     1
 93
       27
 10
793.1727657332492
 20
168.3644932975394
 42
-0.1769427732109284
 10
793.1727657332507
 20
168.3644932975395
 42
0.0
 10
793.1727657332507
 20
164.7194932975395
 42
0.0
 10
794.0502657332501
 20
164.7194932975395
 42
-0.207533601427307
 10
799.7474227895702
 20
168.9932359129033
 42
-0.1226604740888933
 10
804.78276573325
 20
169.1002432975395
 42
-0.3213715781137954
 10
809.9883280222087
 20
162.7106514378463
 42
-0.064704004662446
 10
810.0140157332494
 20
159.3329932975393
 42
-0.257798906330806
 10
808.9542657332507
 20
158.0504932975396
 42
-0.056602577721096
 10
806.6862657332503
 20
157.2607432975396
 42
-0.0166741689362636
 10
798.3702657332501
 20
155.6812432975395
 42
0.1186092302783404
 10
792.8825157332502
 20
153.0487432975394
 42
0.1699204224386695
 10
790.4930157332502
 20
149.0527432975396
 42
0.1006533494296199
 10
790.2720866795819
 20
145.5853555095715
 42
0.1675695228968024
 10
792.4370157332509
 20
140.9392432975394
 42
0.1376980079804242
 10
796.3722657332497
 20
138.6644932975394
 42
0.0719813663796923
 10
798.1610157332497
 20
138.3674932975396
 42
0.0
 10
800.9015157332507
 20
138.3674932975397
 42
0.1944607457809085
 10
809.9937657332508
 20
143.0452432975394
 42
0.1288538183665954
 10
810.9117657332498
 20
140.7502432975397
 42
0.2098387395261546
 10
813.9087657332501
 20
139.0964932975393
 42
0.0
 10
816.0822657332504
 20
139.0829932975394
 42
0.0945009641609563
 10
819.2210157332496
 20
139.7512432975395
 42
0.0
 10
819.2210157332494
 20
141.3239932975394
 42
-0.2395739894657535
 10
816.4805157332502
 20
141.2969932975392
 42
-0.2502312110031057
 10
815.1305157332499
 20
143.8349932975402
 42
-0.0104343570771765
 10
815.3127657332501
 20
162.7619932975394
 42
0.4051015674140716
 97
        0
 92
        3
 72
     1
 73
     1
 93
        8
 10
810.1355157332499
 20
156.0254932975393
 42
-0.0339435190873666
 10
810.1355157332546
 20
156.0254932975281
 42
-0.0001110072973599
 10
809.85201573325
 20
145.6844932975392
 42
-0.2253076310552528
 10
802.7645157332503
 20
140.9527432975398
 42
0.0
 10
801.0297657332494
 20
140.9527432975394
 42
-0.3657967558150132
 10
795.8727657332498
 20
146.4337432975395
 42
0.0
 10
795.8727657332499
 20
148.3912432975396
 42
-0.2530797830369341
 10
799.3557657332506
 20
153.2107432975394
 42
-0.0724473624720066
 97
        0
 75
     0
 76
     1
 98
        1
 10
0.0
 20
0.0
  0
TEXT
  5
10E
330
1F
100
AcDbEntity
  8
枠_表
  6
CONTINUOUS
 62
     2
100
AcDbText
 10
918.0000000000025
 20
132.9999999999991
 30
0.0
 40
34.5
  1
ジャニス工業株式会社
 41
1.025641025641025
  7
EXCADTTF1
 72
     5
 11
1378.000000000003
 21
132.9999999999991
 31
0.0
100
AcDbText
  0
ARC
  5
10F
330
1F
100
AcDbEntity
  8
枠_表
  6
CONTINUOUS
 62
     3
100
AcDbCircle
 10
774.0908200122266
 20
236.7417570522213
 30
0.0
 40
44.00758833490465
100
AcDbArc
 50
261.7986203004403
 51
278.6803384946418
  0
CIRCLE
  5
110
330
1F
100
AcDbEntity
  8
枠_表
  6
CONTINUOUS
 62
     6
100
AcDbCircle
 10
228.9999999999999
 20
140.0
 30
0.0
 40
1.0000002
  0
CIRCLE
  5
111
330
1F
100
AcDbEntity
  8
枠_表
  6
CONTINUOUS
 62
     6
100
AcDbCircle
 10
278.9999999999999
 20
140.0
 30
0.0
 40
1.0000002
  0
LINE
  5
112
330
1F
100
AcDbEntity
  8
枠_表
  6
EXLTYPE2
 62
     6
100
AcDbLine
 10
178.9999999999999
 20
165.0
 30
0.0
 11
488.9999999999999
 21
165.0
 31
0.0
  0
CIRCLE
  5
113
330
1F
100
AcDbEntity
  8
枠_表
  6
CONTINUOUS
 62
     6
100
AcDbCircle
 10
433.9999999999999
 20
140.0
 30
0.0
 40
1.0000002
  0
CIRCLE
  5
114
330
1F
100
AcDbEntity
  8
枠_表
  6
CONTINUOUS
 62
     6
100
AcDbCircle
 10
383.9999999999999
 20
140.0
 30
0.0
 40
1.0000002
  0
TEXT
  5
115
330
1F
100
AcDbEntity
  8
枠_表
  6
CONTINUOUS
 62
     2
100
AcDbText
 10
201.4999999999999
 20
288.75
 30
0.0
 40
42.5
  1
製図
 41
1.509694117647059
  7
EXCADSTD
 72
     5
 11
302.3259999999999
 21
288.75
 31
0.0
100
AcDbText
  0
TEXT
  5
116
330
1F
100
AcDbEntity
  8
枠_表
  6
CONTINUOUS
 62
     2
100
AcDbText
 10
356.4999999999999
 20
288.75
 30
0.0
 40
42.5
  1
写図
 41
1.509694117647059
  7
EXCADSTD
 72
     5
 11
457.3259999999999
 21
288.75
 31
0.0
100
AcDbText
  0
TEXT
  5
117
330
1F
100
AcDbEntity
  8
枠_表
  6
CONTINUOUS
 62
     2
100
AcDbText
 10
506.4999999999999
 20
288.75
 30
0.0
 40
42.5
  1
検図
 41
1.303826737967914
  7
EXCADSTD
 72
     5
 11
593.5769999999999
 21
288.75
 31
0.0
100
AcDbText
  0
TEXT
  5
118
330
1F
100
AcDbEntity
  8
枠_表
  6
CONTINUOUS
 62
     2
100
AcDbText
 10
636.5
 20
288.75
 30
0.0
 40
42.5
  1
承認
 41
1.303826737967914
  7
EXCADSTD
 72
     5
 11
723.577
 21
288.75
 31
0.0
100
AcDbText
  0
TEXT
  5
119
330
1F
100
AcDbEntity
  8
枠_表
  6
CONTINUOUS
 62
     2
100
AcDbText
 10
754.7499999999999
 20
278.75
 30
0.0
 40
42.5
  1
品
 41
1.12
  7
EXCADSTD
 72
     5
 11
788.7499999999999
 21
278.75
 31
0.0
100
AcDbText
  0
TEXT
  5
11A
330
1F
100
AcDbEntity
  8
枠_表
  6
CONTINUOUS
 62
     2
100
AcDbText
 10
754.7499999999999
 20
228.75
 30
0.0
 40
42.5
  1
名
 41
1.12
  7
EXCADSTD
 72
     5
 11
788.7499999999999
 21
228.75
 31
0.0
100
AcDbText
  0
TEXT
  5
11B
330
1F
100
AcDbEntity
  8
枠_表
  6
CONTINUOUS
 62
     2
100
AcDbText
 10
1394.75
 20
278.75
 30
0.0
 40
42.5
  1
品
 41
1.12
  7
EXCADSTD
 72
     5
 11
1428.75
 21
278.75
 31
0.0
100
AcDbText
  0
TEXT
  5
11C
330
1F
100
AcDbEntity
  8
枠_表
  6
CONTINUOUS
 62
     2
100
AcDbText
 10
1815.75
 20
278.75
 30
0.0
 40
42.5
  1
尺
 41
1.12
  7
EXCADSTD
 72
     5
 11
1849.75
 21
278.75
 31
0.0
100
AcDbText
  0
TEXT
  5
11D
330
1F
100
AcDbEntity
  8
枠_表
  6
CONTINUOUS
 62
     2
100
AcDbText
 10
1815.75
 20
228.75
 30
0.0
 40
42.5
  1
度
 41
1.12
  7
EXCADSTD
 72
     5
 11
1849.75
 21
228.75
 31
0.0
100
AcDbText
  0
TEXT
  5
11E
330
1F
100
AcDbEntity
  8
枠_表
  6
CONTINUOUS
 62
     2
100
AcDbText
 10
1394.75
 20
165.7499999999999
 30
0.0
 40
42.5
  1
図
 41
1.12
  7
EXCADSTD
 72
     5
 11
1428.75
 21
165.7499999999999
 31
0.0
100
AcDbText
  0
TEXT
  5
11F
330
1F
100
AcDbEntity
  8
枠_表
  6
CONTINUOUS
 62
     2
100
AcDbText
 10
1394.75
 20
122.7500000000001
 30
0.0
 40
42.5
  1
番
 41
1.12
  7
EXCADSTD
 72
     5
 11
1428.75
 21
122.7500000000001
 31
0.0
100
AcDbText
  0
LINE
  5
120
330
1F
100
AcDbEntity
  8
枠_表
  6
CONTINUOUS
 62
     6
100
AcDbLine
 10
178.9999999999999
 20
285.0
 30
0.0
 11
748.9999999999999
 21
285.0
 31
0.0
  0
LINE
  5
121
330
1F
100
AcDbEntity
  8
枠_表
  6
CONTINUOUS
 62
     6
100
AcDbLine
 10
333.9999999999999
 20
335.0
 30
0.0
 11
333.9999999999999
 21
115.0
 31
0.0
  0
LINE
  5
122
330
1F
100
AcDbEntity
  8
枠_表
  6
CONTINUOUS
 62
     6
100
AcDbLine
 10
618.9999999999999
 20
335.0
 30
0.0
 11
618.9999999999999
 21
115.0
 31
0.0
  0
LINE
  5
123
330
1F
100
AcDbEntity
  8
枠_表
  6
CONTINUOUS
 62
     6
100
AcDbLine
 10
748.9999999999999
 20
335.0
 30
0.0
 11
748.9999999999999
 21
115.0
 31
0.0
  0
LINE
  5
124
330
1F
100
AcDbEntity
  8
枠_表
  6
CONTINUOUS
 62
     6
100
AcDbLine
 10
798.9999999999999
 20
335.0
 30
0.0
 11
798.9999999999999
 21
215.0
 31
0.0
  0
LINE
  5
125
330
1F
100
AcDbEntity
  8
枠_表
  6
CONTINUOUS
 62
     6
100
AcDbLine
 10
1859.0
 20
335.0
 30
0.0
 11
1859.0
 21
215.0
 31
0.0
  0
LINE
  5
126
330
1F
100
AcDbEntity
  8
枠_表
  6
CONTINUOUS
 62
     6
100
AcDbLine
 10
1809.0
 20
335.0
 30
0.0
 11
1809.0
 21
215.0
 31
0.0
  0
LINE
  5
127
330
1F
100
AcDbEntity
  8
枠_表
  6
CONTINUOUS
 62
     6
100
AcDbLine
 10
1439.0
 20
335.0
 30
0.0
 11
1439.0
 21
115.0
 31
0.0
  0
LINE
  5
128
330
1F
100
AcDbEntity
  8
枠_表
  6
CONTINUOUS
 62
     6
100
AcDbLine
 10
1389.0
 20
335.0
 30
0.0
 11
1389.0
 21
115.0
 31
0.0
  0
LINE
  5
129
330
1F
100
AcDbEntity
  8
枠_表
  6
CONTINUOUS
 62
     7
100
AcDbLine
 10
178.9999999999999
 20
335.0
 30
0.0
 11
1999.0
 21
335.0
 31
0.0
  0
LINE
  5
12A
330
1F
100
AcDbEntity
  8
枠_表
  6
CONTINUOUS
 62
     6
100
AcDbLine
 10
488.9999999999999
 20
335.0
 30
0.0
 11
488.9999999999999
 21
115.0
 31
0.0
  0
LINE
  5
12B
330
1F
100
AcDbEntity
  8
枠_表
  6
CONTINUOUS
 62
     7
100
AcDbLine
 10
178.9999999999999
 20
115.0
 30
0.0
 11
1999.0
 21
115.0
 31
0.0
  0
TEXT
  5
12C
330
1F
100
AcDbEntity
  8
枠_表
  6
CONTINUOUS
 62
     2
100
AcDbText
 10
1394.75
 20
228.75
 30
0.0
 40
42.5
  1
番
 41
1.12
  7
EXCADSTD
 72
     5
 11
1428.75
 21
228.75
 31
0.0
100
AcDbText
  0
LINE
  5
12D
330
1F
100
AcDbEntity
  8
枠_表
  6
EXLTYPE2
 62
     6
100
AcDbLine
 10
178.9999999999999
 20
1515.0
 30
0.0
 11
-21.00000000000009
 21
1515.0
 31
0.0
  0
LINE
  5
12E
330
1F
100
AcDbEntity
  8
枠_表
  6
CONTINUOUS
 62
     7
100
AcDbLine
 10
178.9999999999999
 20
2915.0
 30
0.0
 11
1999.0
 21
2915.0
 31
0.0
  0
TEXT
  5
12F
330
1F
100
AcDbEntity
  8
枠_表
  6
CONTINUOUS
 62
     2
100
AcDbText
 10
1881.5371094
 20
282.7227783
 30
0.0
 40
30.0
  1
１
 41
1.101333333333329
  7
EXCADSTD
 72
     5
 11
1905.1371094
 21
282.7227783
 31
0.0
100
AcDbText
  0
TEXT
  5
130
330
1F
100
AcDbEntity
  8
枠_表
  6
CONTINUOUS
 62
     2
100
AcDbText
 10
1922.2792969
 20
238.3488464
 30
0.0
 40
30.0
  1
１０
 41
1.098531212121213
  7
EXCADSTD
 72
     5
 11
1974.0671969
 21
238.3488464
 31
0.0
100
AcDbText
  0
LINE
  5
131
330
1F
100
AcDbEntity
  8
枠_表
  6
CONTINUOUS
 62
     6
100
AcDbLine
 10
1883.6538086
 20
238.0029297
 30
0.0
 11
1960.9938965
 21
316.6998291
 31
0.0
  0
LINE
  5
132
330
1F
100
AcDbEntity
  8
枠_表
  6
CONTINUOUS
 62
     6
100
AcDbLine
 10
1242.002929699981
 20
2433.9974077624
 30
0.0
 11
1968.999999999981
 21
2433.9974077624
 31
0.0
  0
LINE
  5
133
330
1F
100
AcDbEntity
  8
枠_表
  6
CONTINUOUS
 62
     6
100
AcDbLine
 10
1242.002929699981
 20
2763.9990279109
 30
0.0
 11
1968.999999999982
 21
2763.9990279109
 31
0.0
  0
LINE
  5
134
330
1F
100
AcDbEntity
  8
枠_表
  6
CONTINUOUS
 62
     6
100
AcDbLine
 10
1242.002929699981
 20
2710.998703881201
 30
0.0
 11
1968.999999999982
 21
2710.998703881201
 31
0.0
  0
LINE
  5
135
330
1F
100
AcDbEntity
  8
枠_表
  6
CONTINUOUS
 62
     6
100
AcDbLine
 10
1242.002929699981
 20
2816.9993519406
 30
0.0
 11
1968.999999999982
 21
2816.9993519406
 31
0.0
  0
TEXT
  5
136
330
1F
100
AcDbEntity
  8
枠_表
  6
CONTINUOUS
 62
     2
100
AcDbText
 10
1606.094125707003
 20
2768.706474288304
 30
0.0
 40
40.0
  1
品名
 41
2.18734090909091
  7
EXCADSTD
 72
     5
 11
1743.584125707003
 21
2768.706474288304
 31
0.0
100
AcDbText
  0
TEXT
  5
137
330
1F
100
AcDbEntity
  8
枠_表
  6
CONTINUOUS
 62
     2
100
AcDbText
 10
1291.594125707002
 20
2768.706474288304
 30
0.0
 40
40.0
  1
品番
 41
2.18734090909091
  7
EXCADSTD
 72
     5
 11
1429.084125707002
 21
2768.706474288304
 31
0.0
100
AcDbText
  0
TEXT
  5
138
330
1F
100
AcDbEntity
  8
枠_表
  6
CONTINUOUS
 62
     2
100
AcDbText
 10
1492.099999761565
 20
2717.499028864574
 30
0.0
 40
40.0
  1
手洗器
 41
1.132352941176471
  7
EXCADSTD
 72
     5
 11
1602.099999761565
 21
2717.499028864574
 31
0.0
100
AcDbText
  0
TEXT
  5
139
330
1F
100
AcDbEntity
  8
枠_表
  6
CONTINUOUS
 62
     2
100
AcDbText
 10
1270.999999999981
 20
2825.999351940601
 30
0.0
 40
50.0
  1
器具明細
 41
2.556521739130435
  7
EXCADSTD
 72
     5
 11
1690.999999999981
 21
2825.999351940601
 31
0.0
100
AcDbText
  0
TEXT
  5
13A
330
1F
100
AcDbEntity
  8
枠_表
  6
CONTINUOUS
 62
     2
100
AcDbText
 10
1901.799999999984
 20
2664.498704834875
 30
0.0
 40
40.0
  1
１
 41
1.12
  7
EXCADSTD
 72
     5
 11
1933.799999999984
 21
2664.498704834875
 31
0.0
100
AcDbText
  0
TEXT
  5
13B
330
1F
100
AcDbEntity
  8
枠_表
  6
CONTINUOUS
 62
     2
100
AcDbText
 10
1881.594125766606
 20
2768.706474288304
 30
0.0
 40
40.0
  1
個数
 41
1.195746363636364
  7
EXCADSTD
 72
     5
 11
1956.755325766606
 21
2768.706474288304
 31
0.0
100
AcDbText
  0
TEXT
  5
13C
330
1F
100
AcDbEntity
  8
枠_表
  6
CONTINUOUS
 62
     2
100
AcDbText
 10
1901.799999999984
 20
2717.499028864574
 30
0.0
 40
40.0
  1
１
 41
1.12
  7
EXCADSTD
 72
     5
 11
1933.799999999984
 21
2717.499028864574
 31
0.0
100
AcDbText
  0
LINE
  5
13D
330
1F
100
AcDbEntity
  8
枠_表
  6
CONTINUOUS
 62
     6
100
AcDbLine
 10
1242.002929699981
 20
2604.998055821801
 30
0.0
 11
1968.999999999982
 21
2604.998055821801
 31
0.0
  0
LINE
  5
13E
330
1F
100
AcDbEntity
  8
枠_表
  6
CONTINUOUS
 62
     6
100
AcDbLine
 10
1242.002929699981
 20
2657.9983798515
 30
0.0
 11
1968.999999999982
 21
2657.9983798515
 31
0.0
  0
LINE
  5
13F
330
1F
100
AcDbEntity
  8
枠_表
  6
CONTINUOUS
 62
     6
100
AcDbLine
 10
1242.002929699981
 20
2551.997731792101
 30
0.0
 11
1968.999999999982
 21
2551.997731792101
 31
0.0
  0
TEXT
  5
140
330
1F
100
AcDbEntity
  8
枠_表
  6
CONTINUOUS
 62
     2
100
AcDbText
 10
1246.002929699983
 20
2664.498704834875
 30
0.0
 40
40.0
  1
Ｙ４０Ｊ－１３
 41
0.9390243902439025
  7
EXCADSTD
 72
     5
 11
1466.002929699983
 21
2664.498704834875
 31
0.0
100
AcDbText
  0
TEXT
  5
141
330
1F
100
AcDbEntity
  8
枠_表
  6
CONTINUOUS
 62
     2
100
AcDbText
 10
1492.099999761565
 20
2664.498704834874
 30
0.0
 40
40.0
  1
衛生水栓
 41
1.103260869565217
  7
EXCADSTD
 72
     5
 11
1637.099999761565
 21
2664.498704834874
 31
0.0
100
AcDbText
  0
TEXT
  5
142
330
1F
100
AcDbEntity
  8
枠_表
  6
CONTINUOUS
 62
     2
100
AcDbText
 10
1490.999999999984
 20
2440.497732745773
 30
0.0
 40
40.0
  1
Ｓトラップ
 41
1.086206896551724
  7
EXCADSTD
 72
     5
 11
1670.999999999984
 21
2440.497732745773
 31
0.0
100
AcDbText
  0
TEXT
  5
143
330
1F
100
AcDbEntity
  8
枠_表
  6
CONTINUOUS
 62
     2
100
AcDbText
 10
1246.002929699982
 20
2493.498056775473
 30
0.0
 40
40.0
  1
Ｓトラップの場合
 41
1.061170212765957
  7
EXCADSTD
 72
     5
 11
1531.002929699982
 21
2493.498056775473
 31
0.0
100
AcDbText
  0
TEXT
  5
144
330
1F
100
AcDbEntity
  8
枠_表
  6
CONTINUOUS
 62
     2
100
AcDbText
 10
1901.799999999983
 20
2440.497732745774
 30
0.0
 40
40.0
  1
１
 41
1.12
  7
EXCADSTD
 72
     5
 11
1933.799999999983
 21
2440.497732745774
 31
0.0
100
AcDbText
  0
LINE
  5
145
330
1F
100
AcDbEntity
  8
枠_表
  6
CONTINUOUS
 62
     6
100
AcDbLine
 10
1483.999999999982
 20
2486.9977317921
 30
0.0
 11
1483.999999999982
 21
2433.9974077624
 31
0.0
  0
LINE
  5
146
330
1F
100
AcDbEntity
  8
枠_表
  6
CONTINUOUS
 62
     6
100
AcDbLine
 10
1242.00292969998
 20
2486.9977317921
 30
0.0
 11
1242.00292969998
 21
2433.9974077624
 31
0.0
  0
LINE
  5
147
330
1F
100
AcDbEntity
  8
枠_表
  6
CONTINUOUS
 62
     6
100
AcDbLine
 10
1868.999999999981
 20
2486.9977317921
 30
0.0
 11
1868.999999999981
 21
2433.9974077624
 31
0.0
  0
TEXT
  5
148
330
1F
100
AcDbEntity
  8
枠_表
  6
CONTINUOUS
 62
     2
100
AcDbText
 10
1492.099999761565
 20
2611.498380805175
 30
0.0
 40
40.0
  1
Ｐトラップ
 41
1.086206896551724
  7
EXCADSTD
 72
     5
 11
1672.099999761565
 21
2611.498380805175
 31
0.0
100
AcDbText
  0
TEXT
  5
149
330
1F
100
AcDbEntity
  8
枠_表
  6
CONTINUOUS
 62
     2
100
AcDbText
 10
1901.799999999984
 20
2611.498380805176
 30
0.0
 40
40.0
  1
１
 41
1.12
  7
EXCADSTD
 72
     5
 11
1933.799999999984
 21
2611.498380805176
 31
0.0
100
AcDbText
  0
LINE
  5
14A
330
1F
100
AcDbEntity
  8
枠_表
  6
CONTINUOUS
 62
     6
100
AcDbLine
 10
1242.002929699981
 20
2816.9993519406
 30
0.0
 11
1242.002929699981
 21
2551.997731792101
 31
0.0
  0
LINE
  5
14B
330
1F
100
AcDbEntity
  8
枠_表
  6
CONTINUOUS
 62
     6
100
AcDbLine
 10
1483.999999999983
 20
2816.9993519406
 30
0.0
 11
1483.999999999983
 21
2551.997731792101
 31
0.0
  0
LINE
  5
14C
330
1F
100
AcDbEntity
  8
枠_表
  6
CONTINUOUS
 62
     6
100
AcDbLine
 10
1868.999999999982
 20
2816.9993519406
 30
0.0
 11
1868.999999999982
 21
2551.997731792101
 31
0.0
  0
LINE
  5
14D
330
1F
100
AcDbEntity
  8
枠_表
  6
CONTINUOUS
 62
     6
100
AcDbLine
 10
1968.999999999982
 20
2551.9977317921
 30
0.0
 11
1968.999999999982
 21
2816.9993519406
 31
0.0
  0
LINE
  5
14E
330
1F
100
AcDbEntity
  8
枠_表
  6
CONTINUOUS
 62
     6
100
AcDbLine
 10
1242.002929699981
 20
2486.9977317921
 30
0.0
 11
1968.999999999981
 21
2486.9977317921
 31
0.0
  0
LINE
  5
14F
330
1F
100
AcDbEntity
  8
枠_表
  6
CONTINUOUS
 62
     6
100
AcDbLine
 10
1968.999999999981
 20
2433.9974077624
 30
0.0
 11
1968.999999999981
 21
2486.9977317921
 31
0.0
  0
TEXT
  5
150
330
1F
100
AcDbEntity
  8
枠_表
  6
CONTINUOUS
 62
     2
100
AcDbText
 10
1901.799999999984
 20
2558.498056775473
 30
0.0
 40
40.0
  1
２
 41
1.12
  7
EXCADSTD
 72
     5
 11
1933.799999999984
 21
2558.498056775473
 31
0.0
100
AcDbText
  0
TEXT
  5
151
330
1F
100
AcDbEntity
  8
枠_表
  6
CONTINUOUS
 62
     2
100
AcDbText
 10
1246.002929699983
 20
2611.498380805176
 30
0.0
 40
40.0
  1
ＮＬ８１ＤＰ
 41
0.95
  7
EXCADSTD
 72
     5
 11
1436.002929699983
 21
2611.498380805176
 31
0.0
100
AcDbText
  0
LINE
  5
152
330
1F
100
AcDbEntity
  8
枠_表
  6
CONTINUOUS
 62
     7
100
AcDbLine
 10
178.9999999999999
 20
115.0
 30
0.0
 11
178.9999999999999
 21
2915.0
 31
0.0
  0
TEXT
  5
153
330
1F
100
AcDbEntity
  8
枠_表
  6
CONTINUOUS
 62
     6
100
AcDbText
 10
205.4999997615813
 20
200.0
 30
0.0
 40
50.0
  1
川野
 41
1.18991346010815
  7
EXCADSTD
 72
     5
 11
298.9932001986502
 21
200.0
 31
0.0
100
AcDbText
  0
TEXT
  5
154
330
1F
100
AcDbEntity
  8
枠_表
  6
CONTINUOUS
 62
     6
100
AcDbText
 10
185.2500000192089
 20
125.0
 30
0.0
 40
30.0
  1
'22
 41
0.4689784042553192
  7
EXCADSTD
 72
     5
 11
216.7385500192089
 21
125.0
 31
0.0
100
AcDbText
  0
TEXT
  5
155
330
1F
100
AcDbEntity
  8
枠_表
  6
CONTINUOUS
 62
     2
100
AcDbText
 10
1246.002929699983
 20
2440.497732745774
 30
0.0
 40
40.0
  1
ＮＬ８１ＤＳ
 41
0.95
  7
EXCADSTD
 72
     5
 11
1436.002929699983
 21
2440.497732745774
 31
0.0
100
AcDbText
  0
TEXT
  5
156
330
1F
100
AcDbEntity
  8
枠_表
  6
CONTINUOUS
 62
     2
100
AcDbText
 10
1492.099999761565
 20
2558.498056775473
 30
0.0
 40
40.0
  1
化粧頭付木ねじ
 41
1.067073170731707
  7
EXCADSTD
 72
     5
 11
1742.099999761565
 21
2558.498056775473
 31
0.0
100
AcDbText
  0
TEXT
  5
157
330
1F
100
AcDbEntity
  8
枠_表
  6
CONTINUOUS
 62
     2
100
AcDbText
 10
905.5000170469311
 20
241.9999999999999
 30
0.0
 40
60.0
  1
平付小形手洗器
 41
1.109756097560975
  7
EXCADSTD
 72
     5
 11
1295.500017046931
 21
241.9999999999999
 31
0.0
100
AcDbText
  0
TEXT
  5
158
330
1F
100
AcDbEntity
  8
枠_表
  6
CONTINUOUS
 62
     2
100
AcDbText
 10
1519.0
 20
243.0000000000001
 30
0.0
 40
60.0
  1
Ｌ８１Ｄ
 41
1.065217391304348
  7
EXCADSTD
 72
     5
 11
1729.0
 21
243.0000000000001
 31
0.0
100
AcDbText
  0
LINE
  5
159
330
1F
100
AcDbEntity
  8
枠_表
  6
CONTINUOUS
 62
     7
100
AcDbLine
 10
1999.0
 20
115.0
 30
0.0
 11
1999.0
 21
2915.0
 31
0.0
  0
LINE
  5
15A
330
1F
100
AcDbEntity
  8
枠_表
  6
CONTINUOUS
 62
     6
100
AcDbLine
 10
1999.0
 20
215.0
 30
0.0
 11
748.9999999999999
 21
215.0
 31
0.0
  0
TEXT
  5
15B
330
1F
100
AcDbEntity
  8
枠_表
  6
CONTINUOUS
 62
     7
100
AcDbText
 10
1461.000000000004
 20
130.5000000000001
 30
0.0
 40
70.0
  1
Ｌ００８１０１８０
 41
0.9622641509433962
  7
EXCADSTD
 72
     5
 11
1971.000000000004
 21
130.5000000000001
 31
0.0
100
AcDbText
  0
TEXT
  5
15C
330
1F
100
AcDbEntity
  8
枠_表
  6
CONTINUOUS
 62
     6
100
AcDbText
 10
245.2499999999999
 20
125.0
 30
0.0
 40
30.0
  1
5
 41
0.4683823529411753
  7
EXCADSTD
 72
     5
 11
256.6249999999999
 21
125.0
 31
0.0
100
AcDbText
  0
TEXT
  5
15D
330
1F
100
AcDbEntity
  8
枠_表
  6
CONTINUOUS
 62
     2
100
AcDbText
 10
1246.002929699983
 20
2558.498056775473
 30
0.0
 40
40.0
  1
ＮＴ７ＡＢＷ１
 41
0.9390243902439025
  7
EXCADSTD
 72
     5
 11
1466.002929699983
 21
2558.498056775473
 31
0.0
100
AcDbText
  0
TEXT
  5
15E
330
1F
100
AcDbEntity
  8
枠_表
  6
CONTINUOUS
 62
     2
100
AcDbText
 10
1246.002929699983
 20
2717.499028864574
 30
0.0
 40
40.0
  1
Ｌ８１Ｄ ＢＷ１
 41
0.8385416666666667
  7
EXCADSTD
 72
     5
 11
1476.002929699983
 21
2717.499028864574
 31
0.0
100
AcDbText
  0
TEXT
  5
15F
330
1F
100
AcDbEntity
  8
枠_表
  6
CONTINUOUS
 62
     6
100
AcDbText
 10
509.0000001192124
 20
200.0
 30
0.0
 40
50.0
  1
中村
 41
1.096586909090909
  7
EXCADSTD
 72
     5
 11
595.1604001192123
 21
200.0
 31
0.0
100
AcDbText
  0
TEXT
  5
160
330
1F
100
AcDbEntity
  8
枠_表
  6
CONTINUOUS
 62
     6
100
AcDbText
 10
293.5000001596044
 20
125.0
 30
0.0
 40
30.0
  1
18
 41
0.408648648648649
  7
EXCADSTD
 72
     5
 11
315.1000001596045
 21
125.0
 31
0.0
100
AcDbText
  0
ARC
  5
161
330
1F
100
AcDbEntity
  8
洗面器
  6
CONTINUOUS
 62
     6
100
AcDbCircle
 10
1732.7692261
 20
1338.0741882
 30
0.0
 40
30.00000000000002
100
AcDbArc
 50
63.83496093999969
 51
83.82153320000008
  0
ARC
  5
162
330
1F
100
AcDbEntity
  8
洗面器
  6
CONTINUOUS
 62
     6
100
AcDbCircle
 10
1732.7692261
 20
1391.9258118
 30
0.0
 40
30.00000000000002
100
AcDbArc
 50
276.1784668
 51
296.1650390600004
  0
LINE
  5
163
330
1F
100
AcDbEntity
  8
洗面器
  6
CONTINUOUS
 62
     6
100
AcDbLine
 10
1719.0
 20
1367.8999329
 30
0.0
 11
1735.9979859
 21
1367.8999329
 31
0.0
  0
LINE
  5
164
330
1F
100
AcDbEntity
  8
洗面器
  6
CONTINUOUS
 62
     6
100
AcDbLine
 10
1719.0
 20
1362.1000671
 30
0.0
 11
1735.9979859
 21
1362.1000671
 31
0.0
  0
ARC
  5
165
330
1F
100
AcDbEntity
  8
洗面器
  6
CONTINUOUS
 62
     2
100
AcDbCircle
 10
1595.0986329
 20
1376.9995117
 30
0.0
 40
8.000000100000006
100
AcDbArc
 50
90.00000000000001
 51
141.2553710900009
  0
ARC
  5
166
330
1F
100
AcDbEntity
  8
洗面器
  6
CONTINUOUS
 62
     2
100
AcDbCircle
 10
1555.3256836
 20
1352.9980469
 30
0.0
 40
8.000000100000006
100
AcDbArc
 50
270.0000000000002
 51
321.255371090001
  0
LINE
  5
167
330
1F
100
AcDbEntity
  8
洗面器
  6
CONTINUOUS
 62
     2
100
AcDbLine
 10
1588.8730469
 20
1382.0214844
 30
0.0
 11
1561.565918
 21
1347.9931641
 31
0.0
  0
LINE
  5
168
330
1F
100
AcDbEntity
  8
洗面器
  6
CONTINUOUS
 62
     2
100
AcDbLine
 10
1595.0986329
 20
1385.0
 30
0.0
 11
1719.0
 21
1385.0
 31
0.0
  0
ARC
  5
169
330
1F
100
AcDbEntity
  8
洗面器
  6
CONTINUOUS
 62
     2
100
AcDbCircle
 10
1474.0
 20
1340.0
 30
0.0
 40
5.0
100
AcDbArc
 50
90.00000000000001
 51
180.0
  0
ARC
  5
16A
330
1F
100
AcDbEntity
  8
洗面器
  6
CONTINUOUS
 62
     2
100
AcDbCircle
 10
1474.0
 20
1325.0
 30
0.0
 40
5.0
100
AcDbArc
 50
180.0
 51
270.0000000000002
  0
LINE
  5
16B
330
1F
100
AcDbEntity
  8
洗面器
  6
CONTINUOUS
 62
     2
100
AcDbLine
 10
1474.0
 20
1345.0
 30
0.0
 11
1555.3256836
 21
1345.0
 31
0.0
  0
LINE
  5
16C
330
1F
100
AcDbEntity
  8
洗面器
  6
CONTINUOUS
 62
     2
100
AcDbLine
 10
1469.0
 20
1340.0
 30
0.0
 11
1469.0
 21
1325.0
 31
0.0
  0
LINE
  5
16D
330
1F
100
AcDbEntity
  8
洗面器
  6
CONTINUOUS
 62
     2
100
AcDbLine
 10
1474.0
 20
1320.0
 30
0.0
 11
1719.0
 21
1320.0
 31
0.0
  0
ARC
  5
16E
330
1F
100
AcDbEntity
  8
洗面器
  6
CONTINUOUS
 62
     2
100
AcDbCircle
 10
1482.2763672
 20
1315.0001526
 30
0.0
 40
5.0
100
AcDbArc
 50
7.395901679998508
 51
90.00000000000001
  0
ARC
  5
16F
330
1F
100
AcDbEntity
  8
洗面器
  6
CONTINUOUS
 62
     2
100
AcDbCircle
 10
1695.71875
 20
1315.0
 30
0.0
 40
5.0
100
AcDbArc
 50
90.00000000000001
 51
172.6023712199994
  0
ARC
  5
170
330
1F
100
AcDbEntity
  8
洗面器
  6
CONTINUOUS
 62
     2
100
AcDbCircle
 10
1596.5509644
 20
1327.8741455
 30
0.0
 40
95.00000000000001
100
AcDbArc
 50
287.5769043000002
 51
352.60327148
  0
ARC
  5
171
330
1F
100
AcDbEntity
  8
洗面器
  6
CONTINUOUS
 62
     2
100
AcDbCircle
 10
1581.4441529
 20
1327.8741455
 30
0.0
 40
95.00000000000001
100
AcDbArc
 50
187.39674377
 51
252.42320251
  0
ARC
  5
172
330
1F
100
AcDbEntity
  8
洗面器
  6
CONTINUOUS
 62
     2
100
AcDbCircle
 10
1548.2259217
 20
1223.0096436
 30
0.0
 40
15.0
100
AcDbArc
 50
27.77639771000063
 51
72.42341613999986
  0
ARC
  5
173
330
1F
100
AcDbEntity
  8
洗面器
  6
CONTINUOUS
 62
     2
100
AcDbCircle
 10
1629.7691956
 20
1223.0096436
 30
0.0
 40
15.0
100
AcDbArc
 50
107.5765838600001
 51
152.2236022999998
  0
LINE
  5
174
330
1F
100
AcDbEntity
  8
洗面器
  6
CONTINUOUS
 62
     2
100
AcDbLine
 10
1561.4975586
 20
1230.0
 30
0.0
 11
1616.4975586
 21
1230.0
 31
0.0
  0
LINE
  5
175
330
1F
100
AcDbEntity
  8
洗面器
  6
EXLTYPE3
 62
     6
100
AcDbLine
 10
1588.9975586
 20
1245.8963623
 30
0.0
 11
1588.9975586
 21
1033.999999999999
 31
0.0
  0
LINE
  5
176
330
1F
100
AcDbEntity
  8
洗面器
  6
CONTINUOUS
 62
     7
100
AcDbLine
 10
1219.0
 20
585.0
 30
0.0
 11
1719.0
 21
585.0
 31
0.0
  0
ARC
  5
177
330
1F
100
AcDbEntity
  8
洗面器
  6
CONTINUOUS
 62
     6
100
AcDbCircle
 10
679.0036620999999
 20
2385.0000000109
 30
0.0
 40
26.9999981
100
AcDbArc
 50
129.0916754126999
 51
50.90342877749977
  0
ARC
  5
178
330
1F
100
AcDbEntity
  8
洗面器
  6
CONTINUOUS
 62
     6
100
AcDbCircle
 10
679.0036620999999
 20
2385.0000000109
 30
0.0
 40
17.50000000000001
100
AcDbArc
 50
134.4128606644001
 51
45.5822435258796
  0
ARC
  5
179
330
1F
100
AcDbEntity
  8
洗面器
  6
CONTINUOUS
 62
     6
100
AcDbCircle
 10
650.9294738999998
 20
2528.7734985109
 30
0.0
 40
30.00000000000002
100
AcDbArc
 50
153.8349609400002
 51
173.8215332000002
  0
ARC
  5
17A
330
1F
100
AcDbEntity
  8
洗面器
  6
CONTINUOUS
 62
     6
100
AcDbCircle
 10
597.0778504
 20
2528.7734985109
 30
0.0
 40
30.00000000000002
100
AcDbArc
 50
6.178466799999828
 51
26.16503905999971
  0
ARC
  5
17B
330
1F
100
AcDbEntity
  8
洗面器
  6
CONTINUOUS
 62
     6
100
AcDbCircle
 10
624.0036620999999
 20
2492.5201416109
 30
0.0
 40
7.5178593
100
AcDbArc
 50
183.9500732400009
 51
356.0500488299995
  0
ARC
  5
17C
330
1F
100
AcDbEntity
  8
洗面器
  6
CONTINUOUS
 62
     6
100
AcDbCircle
 10
760.9294738999998
 20
2528.7704467109
 30
0.0
 40
30.00000000000002
100
AcDbArc
 50
153.8349609400002
 51
173.8215332000002
  0
ARC
  5
17D
330
1F
100
AcDbEntity
  8
洗面器
  6
CONTINUOUS
 62
     6
100
AcDbCircle
 10
707.0778503999999
 20
2528.7704467109
 30
0.0
 40
30.00000000000002
100
AcDbArc
 50
6.178466799999886
 51
26.16503905999976
  0
ARC
  5
17E
330
1F
100
AcDbEntity
  8
洗面器
  6
CONTINUOUS
 62
     6
100
AcDbCircle
 10
734.0036620999999
 20
2492.5170898109
 30
0.0
 40
7.5178593
100
AcDbArc
 50
183.9500732400009
 51
356.0500488299995
  0
LINE
  5
17F
330
1F
100
AcDbEntity
  8
洗面器
  6
CONTINUOUS
 62
     6
100
AcDbLine
 10
736.9035950000001
 20
2514.9993896109
 30
0.0
 11
736.9035950000001
 21
2531.9992065109
 31
0.0
  0
LINE
  5
180
330
1F
100
AcDbEntity
  8
洗面器
  6
CONTINUOUS
 62
     6
100
AcDbLine
 10
731.1037292999999
 20
2514.9995422109
 30
0.0
 11
731.1037292999999
 21
2531.9992065109
 31
0.0
  0
LINE
  5
181
330
1F
100
AcDbEntity
  8
洗面器
  6
CONTINUOUS
 62
     6
100
AcDbLine
 10
626.903595
 20
2515.0004577109
 30
0.0
 11
626.903595
 21
2532.0022583109
 31
0.0
  0
LINE
  5
182
330
1F
100
AcDbEntity
  8
洗面器
  6
CONTINUOUS
 62
     6
100
AcDbLine
 10
621.1037293
 20
2515.0006103109
 30
0.0
 11
621.1037293
 21
2532.0022583109
 31
0.0
  0
LINE
  5
183
330
1F
100
AcDbEntity
  8
洗面器
  6
CONTINUOUS
 62
     6
100
AcDbLine
 10
677.2536316000001
 20
2367.5877380109
 30
0.0
 11
677.2536316000001
 21
2383.2499694109
 31
0.0
  0
LINE
  5
184
330
1F
100
AcDbEntity
  8
洗面器
  6
CONTINUOUS
 62
     6
100
AcDbLine
 10
680.7536926000001
 20
2367.5877380109
 30
0.0
 11
680.7536926000001
 21
2383.2499694109
 31
0.0
  0
LINE
  5
185
330
1F
100
AcDbEntity
  8
洗面器
  6
CONTINUOUS
 62
     6
100
AcDbLine
 10
661.5914002000001
 20
2383.2499694109
 30
0.0
 11
677.2536316000001
 21
2383.2499694109
 31
0.0
  0
LINE
  5
186
330
1F
100
AcDbEntity
  8
洗面器
  6
CONTINUOUS
 62
     6
100
AcDbLine
 10
661.5914002000001
 20
2386.7500305109
 30
0.0
 11
677.2536316000001
 21
2386.7500305109
 31
0.0
  0
LINE
  5
187
330
1F
100
AcDbEntity
  8
洗面器
  6
CONTINUOUS
 62
     6
100
AcDbLine
 10
677.2536316000001
 20
2386.7500305109
 30
0.0
 11
677.2536316000001
 21
2392.5878302989
 31
0.0
  0
LINE
  5
188
330
1F
100
AcDbEntity
  8
洗面器
  6
CONTINUOUS
 62
     6
100
AcDbLine
 10
680.7536926000001
 20
2383.2499694109
 30
0.0
 11
696.4159241
 21
2383.2499694109
 31
0.0
  0
LINE
  5
189
330
1F
100
AcDbEntity
  8
洗面器
  6
CONTINUOUS
 62
     6
100
AcDbLine
 10
680.7536926000001
 20
2386.7500305109
 30
0.0
 11
680.7536926000001
 21
2392.5876155989
 31
0.0
  0
LINE
  5
18A
330
1F
100
AcDbEntity
  8
洗面器
  6
CONTINUOUS
 62
     6
100
AcDbLine
 10
680.7536926000001
 20
2386.7500305109
 30
0.0
 11
696.4159241
 21
2386.7500305109
 31
0.0
  0
ARC
  5
18B
330
1F
100
AcDbEntity
  8
洗面器
  6
CONTINUOUS
 62
     2
100
AcDbCircle
 10
679.0036620999999
 20
2384.9987793109
 30
0.0
 40
90.0
100
AcDbArc
 50
97.01172662324987
 51
82.98690657842992
  0
LINE
  5
18C
330
1F
100
AcDbEntity
  8
洗面器
  6
CONTINUOUS
 62
     2
100
AcDbLine
 10
559.0036620999999
 20
2515.0012207109
 30
0.0
 11
799.0036620999999
 21
2514.9987793109
 31
0.0
  0
LINE
  5
18D
330
1F
100
AcDbEntity
  8
洗面器
  6
CONTINUOUS
 62
     2
100
AcDbLine
 10
559.0036620999999
 20
2515.0012207109
 30
0.0
 11
554.1062012
 21
2395.1013183109
 31
0.0
  0
ARC
  5
18E
330
1F
100
AcDbEntity
  8
洗面器
  6
CONTINUOUS
 62
     2
100
AcDbCircle
 10
679.0036620999999
 20
2389.9987793109
 30
0.0
 40
125.0000095
100
AcDbArc
 50
177.66136169
 51
2.337870599999923
  0
LINE
  5
18F
330
1F
100
AcDbEntity
  8
洗面器
  6
CONTINUOUS
 62
     2
100
AcDbLine
 10
799.0036620999999
 20
2514.9987793109
 30
0.0
 11
803.8986817000001
 21
2395.0988769109
 31
0.0
  0
ARC
  5
190
330
1F
100
AcDbEntity
  8
洗面器
  6
CONTINUOUS
 62
     2
100
AcDbCircle
 10
588.7644043
 20
2484.0026855109
 30
0.0
 40
8.000000100000006
100
AcDbArc
 50
90.00000000000001
 51
177.6617736800009
  0
LINE
  5
191
330
1F
100
AcDbEntity
  8
洗面器
  6
CONTINUOUS
 62
     2
100
AcDbLine
 10
777.236084
 20
2484.3249511109
 30
0.0
 11
780.9177245999999
 21
2394.1638183109
 31
0.0
  0
ARC
  5
192
330
1F
100
AcDbEntity
  8
洗面器
  6
CONTINUOUS
 62
     2
100
AcDbCircle
 10
769.2429199000001
 20
2484.0002441109
 30
0.0
 40
8.000000100000006
100
AcDbArc
 50
2.33761597
 51
89.99938965000098
  0
LINE
  5
193
330
1F
100
AcDbEntity
  8
洗面器
  6
CONTINUOUS
 62
     2
100
AcDbLine
 10
580.7712402
 20
2484.3249511109
 30
0.0
 11
577.0871582
 21
2394.1638183109
 31
0.0
  0
LINE
  5
194
330
1F
100
AcDbEntity
  8
洗面器
  6
CONTINUOUS
 62
     2
100
AcDbLine
 10
588.7644043
 20
2492.0031738109
 30
0.0
 11
668.0047302
 21
2492.0010299839
 31
0.0
  0
LINE
  5
195
330
1F
100
AcDbEntity
  8
洗面器
  6
CONTINUOUS
 62
     2
100
AcDbLine
 10
690.0047301993
 20
2492.0004347799
 30
0.0
 11
769.2429199000001
 21
2491.9982910109
 31
0.0
  0
LINE
  5
196
330
1F
100
AcDbEntity
  8
洗面器
  6
EXLTYPE3
 62
     6
100
AcDbLine
 10
724.0036620999999
 20
2385.0000000109
 30
0.0
 11
634.0187988
 21
2385.0000000109
 31
0.0
  0
LINE
  5
197
330
1F
100
AcDbEntity
  8
洗面器
  6
EXLTYPE3
 62
     6
100
AcDbLine
 10
679.0047302
 20
2538.2301025109
 30
0.0
 11
679.0047302
 21
2256.2301025109
 31
0.0
  0
LINE
  5
198
330
1F
100
AcDbEntity
  8
洗面器
  6
CONTINUOUS
 62
     7
100
AcDbLine
 10
1079.0
 20
2515.0012207109
 30
0.0
 11
279.0000000000002
 21
2515.0012207109
 31
0.0
  0
TEXT
  5
199
330
1F
100
AcDbEntity
  8
洗面器
  6
CONTINUOUS
 62
     2
100
AcDbText
 10
287.5187988000005
 20
2471.7301025109
 30
0.0
 40
40.0
  1
Ｗ.Ｌ.
 41
0.9692307692307692
  7
EXCADSTD
 72
     5
 11
383.5187988000005
 21
2471.7301025109
 31
0.0
100
AcDbText
  0
CIRCLE
  5
19A
330
1F
100
AcDbEntity
  8
洗面器
  6
CONTINUOUS
 62
     6
100
AcDbCircle
 10
734.0036620999999
 20
1365.0
 30
0.0
 40
7.500000000000004
  0
CIRCLE
  5
19B
330
1F
100
AcDbEntity
  8
洗面器
  6
CONTINUOUS
 62
     6
100
AcDbCircle
 10
624.0036620999999
 20
1365.0
 30
0.0
 40
7.500000000000004
  0
LINE
  5
19C
330
1F
100
AcDbEntity
  8
洗面器
  6
CONTINUOUS
 62
     6
100
AcDbLine
 10
733.9999999999999
 20
1350.000041326
 30
0.0
 11
733.9999999999999
 21
1380.0
 31
0.0
  0
LINE
  5
19D
330
1F
100
AcDbEntity
  8
洗面器
  6
CONTINUOUS
 62
     6
100
AcDbLine
 10
624.0
 20
1350.000111267
 30
0.0
 11
624.0
 21
1380.0
 31
0.0
  0
LINE
  5
19E
330
1F
100
AcDbEntity
  8
洗面器
  6
CONTINUOUS
 62
     6
100
AcDbLine
 10
605.3425293
 20
1365.0
 30
0.0
 11
643.3425293
 21
1365.0
 31
0.0
  0
LINE
  5
19F
330
1F
100
AcDbEntity
  8
洗面器
  6
CONTINUOUS
 62
     6
100
AcDbLine
 10
715.3425292999999
 20
1365.0
 30
0.0
 11
752.3425293
 21
1365.0
 31
0.0
  0
LINE
  5
1A0
330
1F
100
AcDbEntity
  8
洗面器
  6
CONTINUOUS
 62
     2
100
AcDbLine
 10
554.0012207
 20
1325.0
 30
0.0
 11
554.0012207
 21
1376.9995117
 31
0.0
  0
ARC
  5
1A1
330
1F
100
AcDbEntity
  8
洗面器
  6
CONTINUOUS
 62
     2
100
AcDbCircle
 10
558.9987793
 20
1325.0
 30
0.0
 40
5.0
100
AcDbArc
 50
180.0
 51
270.0000000000002
  0
LINE
  5
1A2
330
1F
100
AcDbEntity
  8
洗面器
  6
CONTINUOUS
 62
     2
100
AcDbLine
 10
803.9987793000001
 20
1325.0
 30
0.0
 11
804.0012207000001
 21
1376.9995117
 31
0.0
  0
ARC
  5
1A3
330
1F
100
AcDbEntity
  8
洗面器
  6
CONTINUOUS
 62
     2
100
AcDbCircle
 10
798.9987793000001
 20
1325.0
 30
0.0
 40
5.0
100
AcDbArc
 50
270.0000000000002
 51
0.0
  0
LINE
  5
1A4
330
1F
100
AcDbEntity
  8
洗面器
  6
CONTINUOUS
 62
     2
100
AcDbLine
 10
561.9992675999999
 20
1385.0
 30
0.0
 11
796.0007324000001
 21
1385.0
 31
0.0
  0
ARC
  5
1A5
330
1F
100
AcDbEntity
  8
洗面器
  6
CONTINUOUS
 62
     2
100
AcDbCircle
 10
798.9987793000001
 20
1340.0
 30
0.0
 40
5.0
100
AcDbArc
 50
0.0
 51
90.00000000000001
  0
ARC
  5
1A6
330
1F
100
AcDbEntity
  8
洗面器
  6
CONTINUOUS
 62
     2
100
AcDbCircle
 10
770.6760254000001
 20
1350.0
 30
0.0
 40
5.0
100
AcDbArc
 50
270.0000000000002
 51
351.4443359400001
  0
LINE
  5
1A7
330
1F
100
AcDbEntity
  8
洗面器
  6
CONTINUOUS
 62
     2
100
AcDbLine
 10
779.9753418000001
 20
1378.1884766
 30
0.0
 11
775.6223144999999
 21
1349.2553711
 31
0.0
  0
ARC
  5
1A8
330
1F
100
AcDbEntity
  8
洗面器
  6
CONTINUOUS
 62
     2
100
AcDbCircle
 10
787.8854981000001
 20
1376.9995117
 30
0.0
 40
8.000000100000006
100
AcDbArc
 50
90.00000000000001
 51
171.4453430200001
  0
ARC
  5
1A9
330
1F
100
AcDbEntity
  8
洗面器
  6
CONTINUOUS
 62
     2
100
AcDbCircle
 10
795.9982910000002
 20
1376.9995117
 30
0.0
 40
8.000000100000006
100
AcDbArc
 50
0.0
 51
90.00000000000001
  0
ARC
  5
1AA
330
1F
100
AcDbEntity
  8
洗面器
  6
CONTINUOUS
 62
     2
100
AcDbCircle
 10
587.3190918
 20
1350.0
 30
0.0
 40
5.0
100
AcDbArc
 50
188.5556640599998
 51
270.0000000000002
  0
LINE
  5
1AB
330
1F
100
AcDbEntity
  8
洗面器
  6
CONTINUOUS
 62
     2
100
AcDbLine
 10
578.0246582
 20
1378.1884766
 30
0.0
 11
582.3752442
 21
1349.2553711
 31
0.0
  0
ARC
  5
1AC
330
1F
100
AcDbEntity
  8
洗面器
  6
CONTINUOUS
 62
     2
100
AcDbCircle
 10
570.1120606
 20
1376.9995117
 30
0.0
 40
8.000000100000006
100
AcDbArc
 50
8.554649349999327
 51
90.00000000000001
  0
ARC
  5
1AD
330
1F
100
AcDbEntity
  8
洗面器
  6
CONTINUOUS
 62
     2
100
AcDbCircle
 10
561.9992675999999
 20
1376.9995117
 30
0.0
 40
8.000000100000006
100
AcDbArc
 50
90.00000000000001
 51
180.0
  0
ARC
  5
1AE
330
1F
100
AcDbEntity
  8
洗面器
  6
CONTINUOUS
 62
     2
100
AcDbCircle
 10
558.9987793
 20
1340.0
 30
0.0
 40
5.0
100
AcDbArc
 50
90.00000000000001
 51
180.0
  0
LINE
  5
1AF
330
1F
100
AcDbEntity
  8
洗面器
  6
CONTINUOUS
 62
     2
100
AcDbLine
 10
558.9987793
 20
1345.0
 30
0.0
 11
798.9987793000001
 21
1345.0
 31
0.0
  0
LINE
  5
1B0
330
1F
100
AcDbEntity
  8
洗面器
  6
CONTINUOUS
 62
     2
100
AcDbLine
 10
558.9987793
 20
1320.0
 30
0.0
 11
798.9987793000001
 21
1320.0
 31
0.0
  0
ARC
  5
1B1
330
1F
100
AcDbEntity
  8
洗面器
  6
CONTINUOUS
 62
     2
100
AcDbCircle
 10
572.0578613
 20
1315.0001526
 30
0.0
 40
5.0
100
AcDbArc
 50
7.395901679998736
 51
90.00000000000001
  0
ARC
  5
1B2
330
1F
100
AcDbEntity
  8
洗面器
  6
CONTINUOUS
 62
     2
100
AcDbCircle
 10
785.5002442000001
 20
1315.0
 30
0.0
 40
5.0
100
AcDbArc
 50
90.00000000000001
 51
172.6023712199994
  0
ARC
  5
1B3
330
1F
100
AcDbEntity
  8
洗面器
  6
CONTINUOUS
 62
     2
100
AcDbCircle
 10
719.5506896999999
 20
1223.0096436
 30
0.0
 40
15.0
100
AcDbArc
 50
107.5765838599991
 51
152.2236022999998
  0
ARC
  5
1B4
330
1F
100
AcDbEntity
  8
洗面器
  6
CONTINUOUS
 62
     2
100
AcDbCircle
 10
686.3324584999999
 20
1327.8741455
 30
0.0
 40
95.00000000000001
100
AcDbArc
 50
287.5769043000002
 51
352.60327148
  0
ARC
  5
1B5
330
1F
100
AcDbEntity
  8
洗面器
  6
CONTINUOUS
 62
     2
100
AcDbCircle
 10
638.0074158
 20
1223.0096436
 30
0.0
 40
15.0
100
AcDbArc
 50
27.77639771000051
 51
72.42341614000009
  0
ARC
  5
1B6
330
1F
100
AcDbEntity
  8
洗面器
  6
CONTINUOUS
 62
     2
100
AcDbCircle
 10
671.2256470000001
 20
1327.8741455
 30
0.0
 40
95.00000000000001
100
AcDbArc
 50
187.39674377
 51
252.42320251
  0
LINE
  5
1B7
330
1F
100
AcDbEntity
  8
洗面器
  6
CONTINUOUS
 62
     2
100
AcDbLine
 10
651.2790527
 20
1230.0
 30
0.0
 11
706.2790527
 21
1230.0
 31
0.0
  0
LINE
  5
1B8
330
1F
100
AcDbEntity
  8
洗面器
  6
EXLTYPE3
 62
     6
100
AcDbLine
 10
678.9999999999999
 20
1522.8963623
 30
0.0
 11
678.9999999999999
 21
551.8963623000001
 31
0.0
  0
LINE
  5
1B9
330
1F
100
AcDbEntity
  8
洗面器
  6
CONTINUOUS
 62
     7
100
AcDbLine
 10
279.0
 20
585.0
 30
0.0
 11
1079.0
 21
585.0
 31
0.0
  0
TEXT
  5
1BA
330
1F
100
AcDbEntity
  8
洗面器
  6
CONTINUOUS
 62
     2
100
AcDbText
 10
279.1187988000001
 20
588.5000000000001
 30
0.0
 40
40.0
  1
Ｆ.Ｌ.
 41
0.9692307692307692
  7
EXCADSTD
 72
     5
 11
375.1187988000001
 21
588.5000000000001
 31
0.0
100
AcDbText
  0
LINE
  5
1BB
330
1F
100
AcDbEntity
  8
洗面器
  6
CONTINUOUS
 62
     7
100
AcDbLine
 10
1719.0
 20
1885.0
 30
0.0
 11
1719.0
 21
585.0000000000001
 31
0.0
  0
TEXT
  5
1BC
330
1F
100
AcDbEntity
  8
洗面器
  6
CONTINUOUS
 62
     2
100
AcDbText
 10
1715.500000000001
 20
1783.8963623
 30
0.0
 40
40.0
  1
Ｗ.Ｌ.
 50
90.0
 41
0.9692307692307692
  7
EXCADSTD
 72
     5
 11
1715.500000000001
 21
1879.8963623
 31
0.0
100
AcDbText
  0
LINE
  5
1BD
330
1F
100
AcDbEntity
  8
水栓
  6
EXLTYPE3
 62
     6
100
AcDbLine
 10
1719.000000000001
 20
1505.500000000003
 30
0.0
 11
1720.73205080757
 21
1504.500000000003
 31
0.0
  0
LINE
  5
1BE
330
1F
100
AcDbEntity
  8
水栓
  6
EXLTYPE3
 62
     6
100
AcDbLine
 10
1720.73205080757
 20
1504.500000000003
 30
0.0
 11
1733.000000000001
 21
1504.500000000003
 31
0.0
  0
LINE
  5
1BF
330
1F
100
AcDbEntity
  8
水栓
  6
EXLTYPE3
 62
     6
100
AcDbLine
 10
1720.73205080757
 20
1485.500000000003
 30
0.0
 11
1733.000000000001
 21
1485.500000000003
 31
0.0
  0
LINE
  5
1C0
330
1F
100
AcDbEntity
  8
水栓
  6
EXLTYPE3
 62
     6
100
AcDbLine
 10
1720.73205080757
 20
1485.500000000003
 30
0.0
 11
1719.000000000001
 21
1484.500000000003
 31
0.0
  0
LINE
  5
1C1
330
1F
100
AcDbEntity
  8
水栓
  6
CONTINUOUS
 62
     6
100
AcDbLine
 10
1716.500000000001
 20
1482.068281259683
 30
0.0
 11
1716.500000000001
 21
1517.500000000003
 31
0.0
  0
LINE
  5
1C2
330
1F
100
AcDbEntity
  8
水栓
  6
CONTINUOUS
 62
     6
100
AcDbLine
 10
1719.000000000001
 20
1518.000000000003
 30
0.0
 11
1717.000000000002
 21
1518.000000000003
 31
0.0
  0
LINE
  5
1C3
330
1F
100
AcDbEntity
  8
水栓
  6
CONTINUOUS
 62
     6
100
AcDbLine
 10
1719.000000000001
 20
1518.000000000003
 30
0.0
 11
1719.000000000001
 21
1484.500000000003
 31
0.0
  0
LINE
  5
1C4
330
1F
100
AcDbEntity
  8
水栓
  6
CONTINUOUS
 62
     6
100
AcDbLine
 10
1733.000000000001
 20
1504.500000000003
 30
0.0
 11
1733.000000000001
 21
1485.500000000003
 31
0.0
  0
LINE
  5
1C5
330
1F
100
AcDbEntity
  8
水栓
  6
CONTINUOUS
 62
     6
100
AcDbLine
 10
1733.000000000001
 20
1504.500000000003
 30
0.0
 11
1732.000000000002
 21
1505.500000000003
 31
0.0
  0
LINE
  5
1C6
330
1F
100
AcDbEntity
  8
水栓
  6
CONTINUOUS
 62
     6
100
AcDbLine
 10
1720.73205080757
 20
1485.500000000003
 30
0.0
 11
1720.73205080757
 21
1505.500000000003
 31
0.0
  0
LINE
  5
1C7
330
1F
100
AcDbEntity
  8
水栓
  6
CONTINUOUS
 62
     6
100
AcDbLine
 10
1732.000000000002
 20
1505.500000000003
 30
0.0
 11
1719.000000000001
 21
1505.500000000003
 31
0.0
  0
LINE
  5
1C8
330
1F
100
AcDbEntity
  8
水栓
  6
CONTINUOUS
 62
     6
100
AcDbLine
 10
1732.000000000002
 20
1484.500000000003
 30
0.0
 11
1719.000000000001
 21
1484.500000000003
 31
0.0
  0
LINE
  5
1C9
330
1F
100
AcDbEntity
  8
水栓
  6
CONTINUOUS
 62
     6
100
AcDbLine
 10
1720.73205080757
 20
1484.500000000003
 30
0.0
 11
1720.73205080757
 21
1485.500000000003
 31
0.0
  0
LINE
  5
1CA
330
1F
100
AcDbEntity
  8
水栓
  6
CONTINUOUS
 62
     6
100
AcDbLine
 10
1732.000000000002
 20
1484.500000000003
 30
0.0
 11
1733.000000000001
 21
1485.500000000003
 31
0.0
  0
LINE
  5
1CB
330
1F
100
AcDbEntity
  8
水栓
  6
CONTINUOUS
 62
     6
100
AcDbLine
 10
1719.000000000001
 20
1484.500000000003
 30
0.0
 11
1719.000000000001
 21
1472.000000000003
 31
0.0
  0
LINE
  5
1CC
330
1F
100
AcDbEntity
  8
水栓
  6
CONTINUOUS
 62
     6
100
AcDbLine
 10
1719.000000000001
 20
1472.000000000003
 30
0.0
 11
1717.000000000002
 21
1472.000000000003
 31
0.0
  0
LINE
  5
1CD
330
1F
100
AcDbEntity
  8
水栓
  6
CONTINUOUS
 62
     6
100
AcDbLine
 10
1716.500000000001
 20
1482.068281259683
 30
0.0
 11
1716.500000000001
 21
1472.500000000003
 31
0.0
  0
LINE
  5
1CE
330
1F
100
AcDbEntity
  8
水栓
  6
CONTINUOUS
 62
     6
100
AcDbLine
 10
1712.568863964611
 20
1486.06768843505
 30
0.0
 11
1642.172159911524
 21
1487.279817114109
 31
0.0
  0
LINE
  5
1CF
330
1F
100
AcDbEntity
  8
水栓
  6
CONTINUOUS
 62
     6
100
AcDbLine
 10
1712.568863964611
 20
1503.932311564957
 30
0.0
 11
1625.483520265434
 21
1502.432828825766
 31
0.0
  0
LINE
  5
1D0
330
1F
100
AcDbEntity
  8
水栓
  6
CONTINUOUS
 62
     6
100
AcDbLine
 10
1632.000000000002
 20
1465.000000000003
 30
0.0
 11
1630.000000000001
 21
1465.000000000003
 31
0.0
  0
LINE
  5
1D1
330
1F
100
AcDbEntity
  8
水栓
  6
CONTINUOUS
 62
     6
100
AcDbLine
 10
1632.000000000002
 20
1465.000000000003
 30
0.0
 11
1632.000000000002
 21
1477.281299175692
 31
0.0
  0
LINE
  5
1D2
330
1F
100
AcDbEntity
  8
水栓
  6
CONTINUOUS
 62
     6
100
AcDbLine
 10
1596.000000000001
 20
1465.000000000003
 30
0.0
 11
1596.000000000001
 21
1472.437275010512
 31
0.0
  0
LINE
  5
1D3
330
1F
100
AcDbEntity
  8
水栓
  6
CONTINUOUS
 62
     6
100
AcDbLine
 10
1630.000000000001
 20
1465.000000000003
 30
0.0
 11
1596.000000000001
 21
1465.000000000003
 31
0.0
  0
LINE
  5
1D4
330
1F
100
AcDbEntity
  8
水栓
  6
CONTINUOUS
 62
     6
100
AcDbLine
 10
1732.000000000002
 20
1484.500000000003
 30
0.0
 11
1732.000000000002
 21
1505.500000000003
 31
0.0
  0
ARC
  5
1D5
330
1F
100
AcDbEntity
  8
水栓
  6
CONTINUOUS
 62
     6
100
AcDbCircle
 10
1626.000000000001
 20
1472.437275010512
 30
0.0
 40
30.00000000000001
100
AcDbArc
 50
90.98645236641146
 51
180.0
  0
ARC
  5
1D6
330
1F
100
AcDbEntity
  8
水栓
  6
CONTINUOUS
 62
     6
100
AcDbCircle
 10
1642.000000000002
 20
1477.281299175692
 30
0.0
 40
10.0
100
AcDbArc
 50
89.01354763358883
 51
180.0
  0
ARC
  5
1D7
330
1F
100
AcDbEntity
  8
水栓
  6
CONTINUOUS
 62
     6
100
AcDbCircle
 10
1717.000000000002
 20
1517.500000000003
 30
0.0
 40
0.5
100
AcDbArc
 50
90.00000000000001
 51
180.0
  0
ARC
  5
1D8
330
1F
100
AcDbEntity
  8
水栓
  6
CONTINUOUS
 62
     6
100
AcDbCircle
 10
1717.000000000002
 20
1472.500000000003
 30
0.0
 40
0.5
100
AcDbArc
 50
180.0
 51
270.0
  0
ARC
  5
1D9
330
1F
100
AcDbEntity
  8
水栓
  6
CONTINUOUS
 62
     6
100
AcDbCircle
 10
1712.500000000001
 20
1482.068281259683
 30
0.0
 40
4.0
100
AcDbArc
 50
0.0
 51
89.01354763358825
  0
ARC
  5
1DA
330
1F
100
AcDbEntity
  8
水栓
  6
CONTINUOUS
 62
     6
100
AcDbCircle
 10
1712.500000000001
 20
1507.931718740324
 30
0.0
 40
4.000000000000035
100
AcDbArc
 50
270.9864523664117
 51
0.0
  0
LINE
  5
1DB
330
1F
100
AcDbEntity
  8
水栓
  6
CONTINUOUS
 62
     6
100
AcDbLine
 10
1610.847619946772
 20
1457.500000000003
 30
0.0
 11
1617.152380053231
 21
1457.500000000003
 31
0.0
  0
LINE
  5
1DC
330
1F
100
AcDbEntity
  8
水栓
  6
CONTINUOUS
 62
     6
100
AcDbLine
 10
1607.000000000002
 20
1465.000000000003
 30
0.0
 11
1607.000000000002
 21
1457.500000000003
 31
0.0
  0
LINE
  5
1DD
330
1F
100
AcDbEntity
  8
水栓
  6
CONTINUOUS
 62
     6
100
AcDbLine
 10
1610.847619946772
 20
1464.000000000003
 30
0.0
 11
1610.847619946772
 21
1457.500000000003
 31
0.0
  0
LINE
  5
1DE
330
1F
100
AcDbEntity
  8
水栓
  6
CONTINUOUS
 62
     6
100
AcDbLine
 10
1607.000000000002
 20
1457.500000000003
 30
0.0
 11
1610.847619946772
 21
1457.500000000003
 31
0.0
  0
LINE
  5
1DF
330
1F
100
AcDbEntity
  8
水栓
  6
CONTINUOUS
 62
     6
100
AcDbLine
 10
1617.152380053231
 20
1464.000000000003
 30
0.0
 11
1610.847619946772
 21
1464.000000000003
 31
0.0
  0
LINE
  5
1E0
330
1F
100
AcDbEntity
  8
水栓
  6
CONTINUOUS
 62
     6
100
AcDbLine
 10
1614.000000000001
 20
1460.750000000003
 30
0.0
 11
1610.847619946772
 21
1457.500000000003
 31
0.0
  0
LINE
  5
1E1
330
1F
100
AcDbEntity
  8
水栓
  6
CONTINUOUS
 62
     6
100
AcDbLine
 10
1614.000000000001
 20
1460.750000000003
 30
0.0
 11
1610.847619946772
 21
1464.000000000003
 31
0.0
  0
LINE
  5
1E2
330
1F
100
AcDbEntity
  8
水栓
  6
CONTINUOUS
 62
     6
100
AcDbLine
 10
1621.000000000001
 20
1457.500000000003
 30
0.0
 11
1621.000000000001
 21
1465.000000000003
 31
0.0
  0
LINE
  5
1E3
330
1F
100
AcDbEntity
  8
水栓
  6
CONTINUOUS
 62
     6
100
AcDbLine
 10
1617.152380053231
 20
1457.500000000003
 30
0.0
 11
1617.152380053231
 21
1464.000000000003
 31
0.0
  0
LINE
  5
1E4
330
1F
100
AcDbEntity
  8
水栓
  6
CONTINUOUS
 62
     6
100
AcDbLine
 10
1617.152380053231
 20
1457.500000000003
 30
0.0
 11
1621.000000000001
 21
1457.500000000003
 31
0.0
  0
LINE
  5
1E5
330
1F
100
AcDbEntity
  8
水栓
  6
CONTINUOUS
 62
     6
100
AcDbLine
 10
1617.152380053231
 20
1457.500000000003
 30
0.0
 11
1614.000000000001
 21
1460.750000000003
 31
0.0
  0
LINE
  5
1E6
330
1F
100
AcDbEntity
  8
水栓
  6
CONTINUOUS
 62
     6
100
AcDbLine
 10
1617.152380053231
 20
1464.000000000003
 30
0.0
 11
1614.000000000001
 21
1460.750000000003
 31
0.0
  0
LINE
  5
1E7
330
1F
100
AcDbEntity
  8
水栓
  6
CONTINUOUS
 62
     6
100
AcDbLine
 10
1618.525859268233
 20
1441.500000000003
 30
0.0
 11
1618.525859268233
 21
1441.520550528233
 31
0.0
  0
LINE
  5
1E8
330
1F
100
AcDbEntity
  8
水栓
  6
CONTINUOUS
 62
     6
100
AcDbLine
 10
1618.525859268233
 20
1457.500000000003
 30
0.0
 11
1618.525859268233
 21
1441.520550528233
 31
0.0
  0
LINE
  5
1E9
330
1F
100
AcDbEntity
  8
水栓
  6
CONTINUOUS
 62
     6
100
AcDbLine
 10
1609.525859268233
 20
1441.520550528233
 30
0.0
 11
1609.525859268233
 21
1441.500000000003
 31
0.0
  0
LINE
  5
1EA
330
1F
100
AcDbEntity
  8
水栓
  6
CONTINUOUS
 62
     6
100
AcDbLine
 10
1609.525859268233
 20
1441.520550528233
 30
0.0
 11
1609.525859268233
 21
1457.500000000003
 31
0.0
  0
ARC
  5
1EB
330
1F
100
AcDbEntity
  8
水栓
  6
CONTINUOUS
 62
     6
100
AcDbCircle
 10
1614.025859268233
 20
1443.700000000003
 30
0.0
 40
4.999999999999972
100
AcDbArc
 50
205.8419327631667
 51
334.1580672368333
  0
LINE
  5
1EC
330
1F
100
AcDbEntity
  8
水栓
  6
CONTINUOUS
 62
     6
100
AcDbLine
 10
1609.525859268233
 20
1441.500000000003
 30
0.0
 11
1599.091687604824
 21
1441.500000000003
 31
0.0
  0
LINE
  5
1ED
330
1F
100
AcDbEntity
  8
水栓
  6
CONTINUOUS
 62
     6
100
AcDbLine
 10
1618.525859268233
 20
1446.500000000003
 30
0.0
 11
1628.908312395179
 21
1446.500000000003
 31
0.0
  0
LINE
  5
1EE
330
1F
100
AcDbEntity
  8
水栓
  6
CONTINUOUS
 62
     6
100
AcDbLine
 10
1628.908312395179
 20
1441.500000000003
 30
0.0
 11
1618.525859268233
 21
1441.500000000003
 31
0.0
  0
LINE
  5
1EF
330
1F
100
AcDbEntity
  8
水栓
  6
CONTINUOUS
 62
     6
100
AcDbLine
 10
1599.091687604824
 20
1446.500000000003
 30
0.0
 11
1609.525859268233
 21
1446.500000000003
 31
0.0
  0
LINE
  5
1F0
330
1F
100
AcDbEntity
  8
水栓
  6
CONTINUOUS
 62
     6
100
AcDbLine
 10
1599.091687604824
 20
1444.000000000003
 30
0.0
 11
1599.091687604824
 21
1441.500000000003
 31
0.0
  0
LINE
  5
1F1
330
1F
100
AcDbEntity
  8
水栓
  6
CONTINUOUS
 62
     6
100
AcDbLine
 10
1599.091687604824
 20
1446.500000000003
 30
0.0
 11
1599.091687604824
 21
1444.000000000003
 31
0.0
  0
LINE
  5
1F2
330
1F
100
AcDbEntity
  8
水栓
  6
CONTINUOUS
 62
     6
100
AcDbLine
 10
1628.908312395179
 20
1444.000000000003
 30
0.0
 11
1628.908312395179
 21
1441.500000000003
 31
0.0
  0
LINE
  5
1F3
330
1F
100
AcDbEntity
  8
水栓
  6
CONTINUOUS
 62
     6
100
AcDbLine
 10
1628.908312395179
 20
1446.500000000003
 30
0.0
 11
1628.908312395179
 21
1444.000000000003
 31
0.0
  0
ARC
  5
1F4
330
1F
100
AcDbEntity
  8
水栓
  6
CONTINUOUS
 62
     6
100
AcDbCircle
 10
1600.750000000002
 20
1444.000000000003
 30
0.0
 40
3.0
100
AcDbArc
 50
180.0
 51
236.4426902380776
  0
ARC
  5
1F5
330
1F
100
AcDbEntity
  8
水栓
  6
CONTINUOUS
 62
     6
100
AcDbCircle
 10
1600.750000000002
 20
1444.000000000003
 30
0.0
 40
3.000000000000009
100
AcDbArc
 50
123.557309761921
 51
180.0
  0
ARC
  5
1F6
330
1F
100
AcDbEntity
  8
水栓
  6
CONTINUOUS
 62
     6
100
AcDbCircle
 10
1627.250000000001
 20
1444.000000000003
 30
0.0
 40
3.000000000000056
100
AcDbArc
 50
303.5573097619224
 51
0.0
  0
ARC
  5
1F7
330
1F
100
AcDbEntity
  8
水栓
  6
CONTINUOUS
 62
     6
100
AcDbCircle
 10
1627.250000000001
 20
1444.000000000003
 30
0.0
 40
3.0
100
AcDbArc
 50
0.0
 51
56.44269023807765
  0
LINE
  5
1F8
330
1F
100
AcDbEntity
  8
水栓
  6
EXLTYPE3
 62
     6
100
AcDbLine
 10
668.5047301999994
 20
2514.99999999999
 30
0.0
 11
669.5047301999992
 21
2516.732050807559
 31
0.0
  0
LINE
  5
1F9
330
1F
100
AcDbEntity
  8
水栓
  6
EXLTYPE3
 62
     6
100
AcDbLine
 10
669.5047301999992
 20
2516.732050807559
 30
0.0
 11
669.5047301999992
 21
2527.99999999999
 31
0.0
  0
LINE
  5
1FA
330
1F
100
AcDbEntity
  8
水栓
  6
EXLTYPE3
 62
     6
100
AcDbLine
 10
669.5047301999992
 20
2527.99999999999
 30
0.0
 11
669.5047301999992
 21
2528.99999999999
 31
0.0
  0
LINE
  5
1FB
330
1F
100
AcDbEntity
  8
水栓
  6
EXLTYPE3
 62
     6
100
AcDbLine
 10
688.5047301999994
 20
2528.99999999999
 30
0.0
 11
688.5047301999994
 21
2527.99999999999
 31
0.0
  0
LINE
  5
1FC
330
1F
100
AcDbEntity
  8
水栓
  6
EXLTYPE3
 62
     6
100
AcDbLine
 10
688.5047301999994
 20
2527.99999999999
 30
0.0
 11
688.5047301999994
 21
2516.732050807559
 31
0.0
  0
LINE
  5
1FD
330
1F
100
AcDbEntity
  8
水栓
  6
EXLTYPE3
 62
     6
100
AcDbLine
 10
688.5047301999994
 20
2516.732050807559
 30
0.0
 11
689.5047301999992
 21
2514.99999999999
 31
0.0
  0
LINE
  5
1FE
330
1F
100
AcDbEntity
  8
水栓
  6
CONTINUOUS
 62
     6
100
AcDbLine
 10
656.0047301999994
 20
2514.99999999999
 30
0.0
 11
656.0047301999994
 21
2512.99999999999
 31
0.0
  0
LINE
  5
1FF
330
1F
100
AcDbEntity
  8
水栓
  6
CONTINUOUS
 62
     6
100
AcDbLine
 10
669.5047301999992
 20
2528.99999999999
 30
0.0
 11
668.5047301999994
 21
2527.99999999999
 31
0.0
  0
LINE
  5
200
330
1F
100
AcDbEntity
  8
水栓
  6
CONTINUOUS
 62
     6
100
AcDbLine
 10
668.5047301999994
 20
2527.99999999999
 30
0.0
 11
668.5047301999994
 21
2514.99999999999
 31
0.0
  0
LINE
  5
201
330
1F
100
AcDbEntity
  8
水栓
  6
CONTINUOUS
 62
     6
100
AcDbLine
 10
689.5047301999992
 20
2527.99999999999
 30
0.0
 11
689.5047301999992
 21
2514.99999999999
 31
0.0
  0
LINE
  5
202
330
1F
100
AcDbEntity
  8
水栓
  6
CONTINUOUS
 62
     6
100
AcDbLine
 10
689.5047301999992
 20
2527.99999999999
 30
0.0
 11
688.5047301999994
 21
2528.99999999999
 31
0.0
  0
LINE
  5
203
330
1F
100
AcDbEntity
  8
水栓
  6
CONTINUOUS
 62
     6
100
AcDbLine
 10
702.0047301999992
 20
2514.99999999999
 30
0.0
 11
656.0047301999994
 21
2514.99999999999
 31
0.0
  0
LINE
  5
204
330
1F
100
AcDbEntity
  8
水栓
  6
CONTINUOUS
 62
     6
100
AcDbLine
 10
702.0047301999992
 20
2514.99999999999
 30
0.0
 11
702.0047301999992
 21
2512.99999999999
 31
0.0
  0
LINE
  5
205
330
1F
100
AcDbEntity
  8
水栓
  6
CONTINUOUS
 62
     6
100
AcDbLine
 10
701.5047301999994
 20
2512.49999999999
 30
0.0
 11
656.5047301999994
 21
2512.49999999999
 31
0.0
  0
LINE
  5
206
330
1F
100
AcDbEntity
  8
水栓
  6
CONTINUOUS
 62
     6
100
AcDbLine
 10
688.5047301999994
 20
2528.99999999999
 30
0.0
 11
669.5047301999992
 21
2528.99999999999
 31
0.0
  0
LINE
  5
207
330
1F
100
AcDbEntity
  8
水栓
  6
CONTINUOUS
 62
     6
100
AcDbLine
 10
670.0724186350459
 20
2508.568863964599
 30
0.0
 11
671.3155327451251
 21
2436.372621417686
 31
0.0
  0
LINE
  5
208
330
1F
100
AcDbEntity
  8
水栓
  6
CONTINUOUS
 62
     6
100
AcDbLine
 10
689.5047301999992
 20
2527.99999999999
 30
0.0
 11
668.5047301999994
 21
2527.99999999999
 31
0.0
  0
LINE
  5
209
330
1F
100
AcDbEntity
  8
水栓
  6
CONTINUOUS
 62
     6
100
AcDbLine
 10
668.5047301999994
 20
2516.732050807559
 30
0.0
 11
689.5047301999992
 21
2516.732050807559
 31
0.0
  0
LINE
  5
20A
330
1F
100
AcDbEntity
  8
水栓
  6
CONTINUOUS
 62
     6
100
AcDbLine
 10
686.6939276548735
 20
2436.372621417686
 30
0.0
 11
687.9370417649528
 21
2508.568863964599
 31
0.0
  0
ARC
  5
20B
330
1F
100
AcDbEntity
  8
水栓
  6
CONTINUOUS
 62
     6
100
AcDbCircle
 10
706.6909635317094
 20
2436.028301594642
 30
0.0
 40
19.99999999999997
100
AcDbArc
 50
179.0135476335888
 51
223.2320922517588
  0
ARC
  5
20C
330
1F
100
AcDbEntity
  8
水栓
  6
CONTINUOUS
 62
     6
100
AcDbCircle
 10
651.3184968682893
 20
2436.028301594642
 30
0.0
 40
19.99999999999998
100
AcDbArc
 50
316.7679077482412
 51
0.9864523664112023
  0
ARC
  5
20D
330
1F
100
AcDbEntity
  8
水栓
  6
CONTINUOUS
 62
     6
100
AcDbCircle
 10
679.0047301999994
 20
2409.99999999999
 30
0.0
 40
17.99999999999999
100
AcDbArc
 50
0.0
 51
43.23209225175896
  0
ARC
  5
20E
330
1F
100
AcDbEntity
  8
水栓
  6
CONTINUOUS
 62
     6
100
AcDbCircle
 10
679.0047301999994
 20
2409.99999999999
 30
0.0
 40
18.0
100
AcDbArc
 50
180.0
 51
0.0
  0
ARC
  5
20F
330
1F
100
AcDbEntity
  8
水栓
  6
CONTINUOUS
 62
     6
100
AcDbCircle
 10
679.0047301999994
 20
2409.99999999999
 30
0.0
 40
17.99999999999999
100
AcDbArc
 50
136.7679077482411
 51
180.0
  0
ARC
  5
210
330
1F
100
AcDbEntity
  8
水栓
  6
CONTINUOUS
 62
     6
100
AcDbCircle
 10
656.5047301999994
 20
2512.99999999999
 30
0.0
 40
0.5
100
AcDbArc
 50
180.0
 51
270.0
  0
ARC
  5
211
330
1F
100
AcDbEntity
  8
水栓
  6
CONTINUOUS
 62
     6
100
AcDbCircle
 10
701.5047301999994
 20
2512.99999999999
 30
0.0
 40
0.5
100
AcDbArc
 50
270.0
 51
0.0
  0
ARC
  5
212
330
1F
100
AcDbEntity
  8
水栓
  6
CONTINUOUS
 62
     6
100
AcDbCircle
 10
691.93644894032
 20
2508.49999999999
 30
0.0
 40
4.0
100
AcDbArc
 50
90.00000000000001
 51
179.0135476335887
  0
ARC
  5
213
330
1F
100
AcDbEntity
  8
水栓
  6
CONTINUOUS
 62
     6
100
AcDbCircle
 10
666.0730114596786
 20
2508.49999999999
 30
0.0
 40
4.000000000000035
100
AcDbArc
 50
0.986452366411317
 51
90.00000000000001
  0
LINE
  5
214
330
1F
100
AcDbEntity
  8
水栓
  6
EXLTYPE3
 62
     6
100
AcDbLine
 10
644.5187988
 20
1495.0
 30
0.0
 11
713.6187987999998
 21
1495.0
 31
0.0
  0
LINE
  5
215
330
1F
100
AcDbEntity
  8
水栓
  6
EXLTYPE3
 62
     6
100
AcDbLine
 10
671.4999999999993
 20
1444.000000000003
 30
0.0
 11
686.4999999999993
 21
1444.000000000003
 31
0.0
  0
LINE
  5
216
330
1F
100
AcDbEntity
  8
水栓
  6
CONTINUOUS
 62
     6
100
AcDbLine
 10
660.9999999999993
 20
1465.000000000003
 30
0.0
 11
696.9999999999993
 21
1465.000000000003
 31
0.0
  0
LINE
  5
217
330
1F
100
AcDbEntity
  8
水栓
  6
CONTINUOUS
 62
     6
100
AcDbLine
 10
660.9999999999993
 20
1465.000000000003
 30
0.0
 11
660.9999999999993
 21
1472.437275010512
 31
0.0
  0
LINE
  5
218
330
1F
100
AcDbEntity
  8
水栓
  6
CONTINUOUS
 62
     6
100
AcDbLine
 10
696.9999999999993
 20
1465.000000000003
 30
0.0
 11
696.9999999999993
 21
1472.437275010512
 31
0.0
  0
ARC
  5
219
330
1F
100
AcDbEntity
  8
水栓
  6
CONTINUOUS
 62
     6
100
AcDbCircle
 10
678.9999999999868
 20
1486.597479805216
 30
0.0
 40
17.36167138858021
100
AcDbArc
 50
16.17645901137863
 51
163.8235409886213
  0
ARC
  5
21A
330
1F
100
AcDbEntity
  8
水栓
  6
CONTINUOUS
 62
     6
100
AcDbCircle
 10
678.9999999999993
 20
1495.000000000003
 30
0.0
 40
22.99999999999999
100
AcDbArc
 50
0.0
 51
218.4978950052419
  0
ARC
  5
21B
330
1F
100
AcDbEntity
  8
水栓
  6
CONTINUOUS
 62
     6
100
AcDbCircle
 10
678.9999999999993
 20
1495.000000000003
 30
0.0
 40
22.99999999999996
100
AcDbArc
 50
321.5021049954039
 51
0.0
  0
POLYLINE
  5
21C
330
1F
100
AcDbEntity
  8
水栓
  6
CONTINUOUS
 62
     6
100
AcDb2dPolyline
 66
     1
 10
0.0
 20
0.0
 30
0.0
 70
   128
  0
VERTEX
  5
21D
330
21C
100
AcDbEntity
  8
水栓
  6
CONTINUOUS
 62
     6
100
AcDbVertex
100
AcDb2dVertex
 10
696.9999999999993
 20
1472.437275010512
 30
0.0
  0
VERTEX
  5
21E
330
21C
100
AcDbEntity
  8
水栓
  6
CONTINUOUS
 62
     6
100
AcDbVertex
100
AcDb2dVertex
 10
697.0011659916906
 20
1472.527511064641
 30
0.0
  0
VERTEX
  5
21F
330
21C
100
AcDbEntity
  8
水栓
  6
CONTINUOUS
 62
     6
100
AcDbVertex
100
AcDb2dVertex
 10
697.0043012057779
 20
1472.78373913868
 30
0.0
  0
VERTEX
  5
220
330
21C
100
AcDbEntity
  8
水栓
  6
CONTINUOUS
 62
     6
100
AcDbVertex
100
AcDb2dVertex
 10
697.0088615007808
 20
1473.184239100101
 30
0.0
  0
VERTEX
  5
221
330
21C
100
AcDbEntity
  8
水栓
  6
CONTINUOUS
 62
     6
100
AcDbVertex
100
AcDb2dVertex
 10
697.0143027352191
 20
1473.70729081638
 30
0.0
  0
VERTEX
  5
222
330
21C
100
AcDbEntity
  8
水栓
  6
CONTINUOUS
 62
     6
100
AcDbVertex
100
AcDb2dVertex
 10
697.0200807676124
 20
1474.331174154991
 30
0.0
  0
VERTEX
  5
223
330
21C
100
AcDbEntity
  8
水栓
  6
CONTINUOUS
 62
     6
100
AcDbVertex
100
AcDb2dVertex
 10
697.0256514564804
 20
1475.034168983408
 30
0.0
  0
VERTEX
  5
224
330
21C
100
AcDbEntity
  8
水栓
  6
CONTINUOUS
 62
     6
100
AcDbVertex
100
AcDb2dVertex
 10
697.0304706603431
 20
1475.794555169107
 30
0.0
  0
VERTEX
  5
225
330
21C
100
AcDbEntity
  8
水栓
  6
CONTINUOUS
 62
     6
100
AcDbVertex
100
AcDb2dVertex
 10
697.03399423772
 20
1476.590612579561
 30
0.0
  0
VERTEX
  5
226
330
21C
100
AcDbEntity
  8
水栓
  6
CONTINUOUS
 62
     6
100
AcDbVertex
100
AcDb2dVertex
 10
697.0356780471309
 20
1477.400621082244
 30
0.0
  0
VERTEX
  5
227
330
21C
100
AcDbEntity
  8
水栓
  6
CONTINUOUS
 62
     6
100
AcDbVertex
100
AcDb2dVertex
 10
697.0349779470954
 20
1478.202860544632
 30
0.0
  0
VERTEX
  5
228
330
21C
100
AcDbEntity
  8
水栓
  6
CONTINUOUS
 62
     6
100
AcDbVertex
100
AcDb2dVertex
 10
697.0313497961331
 20
1478.975610834199
 30
0.0
  0
VERTEX
  5
229
330
21C
100
AcDbEntity
  8
水栓
  6
CONTINUOUS
 62
     6
100
AcDbVertex
100
AcDb2dVertex
 10
697.0243210526006
 20
1479.702455902805
 30
0.0
  0
VERTEX
  5
22A
330
21C
100
AcDbEntity
  8
水栓
  6
CONTINUOUS
 62
     6
100
AcDbVertex
100
AcDb2dVertex
 10
697.0137478936902
 20
1480.384200141362
 30
0.0
  0
VERTEX
  5
22B
330
21C
100
AcDbEntity
  8
水栓
  6
CONTINUOUS
 62
     6
100
AcDbVertex
100
AcDb2dVertex
 10
696.9995645532066
 20
1481.027047252324
 30
0.0
  0
VERTEX
  5
22C
330
21C
100
AcDbEntity
  8
水栓
  6
CONTINUOUS
 62
     6
100
AcDbVertex
100
AcDb2dVertex
 10
696.981705264955
 20
1481.637200938147
 30
0.0
  0
VERTEX
  5
22D
330
21C
100
AcDbEntity
  8
水栓
  6
CONTINUOUS
 62
     6
100
AcDbVertex
100
AcDb2dVertex
 10
696.9601042627402
 20
1482.220864901283
 30
0.0
  0
VERTEX
  5
22E
330
21C
100
AcDbEntity
  8
水栓
  6
CONTINUOUS
 62
     6
100
AcDbVertex
100
AcDb2dVertex
 10
696.9346957803671
 20
1482.784242844187
 30
0.0
  0
VERTEX
  5
22F
330
21C
100
AcDbEntity
  8
水栓
  6
CONTINUOUS
 62
     6
100
AcDbVertex
100
AcDb2dVertex
 10
696.9054140516405
 20
1483.333538469314
 30
0.0
  0
VERTEX
  5
230
330
21C
100
AcDbEntity
  8
水栓
  6
CONTINUOUS
 62
     6
100
AcDbVertex
100
AcDb2dVertex
 10
696.8721933103654
 20
1483.874955479118
 30
0.0
  0
VERTEX
  5
231
330
21C
100
AcDbEntity
  8
水栓
  6
CONTINUOUS
 62
     6
100
AcDbVertex
100
AcDb2dVertex
 10
696.8349677903469
 20
1484.414697576053
 30
0.0
  0
VERTEX
  5
232
330
21C
100
AcDbEntity
  8
水栓
  6
CONTINUOUS
 62
     6
100
AcDbVertex
100
AcDb2dVertex
 10
696.7936717253896
 20
1484.958968462574
 30
0.0
  0
VERTEX
  5
233
330
21C
100
AcDbEntity
  8
水栓
  6
CONTINUOUS
 62
     6
100
AcDbVertex
100
AcDb2dVertex
 10
696.7482393492983
 20
1485.513971841134
 30
0.0
  0
VERTEX
  5
234
330
21C
100
AcDbEntity
  8
水栓
  6
CONTINUOUS
 62
     6
100
AcDbVertex
100
AcDb2dVertex
 10
696.7297536619362
 20
1485.729992593626
 30
0.0
  0
VERTEX
  5
235
330
21C
100
AcDbEntity
  8
水栓
  6
CONTINUOUS
 62
     6
100
AcDbVertex
100
AcDb2dVertex
 10
696.7104786456351
 20
1485.948356941464
 30
0.0
  0
VERTEX
  5
236
330
21C
100
AcDbEntity
  8
水栓
  6
CONTINUOUS
 62
     6
100
AcDbVertex
100
AcDb2dVertex
 10
696.690237901753
 20
1486.16893810501
 30
0.0
  0
VERTEX
  5
237
330
21C
100
AcDbEntity
  8
水栓
  6
CONTINUOUS
 62
     6
100
AcDbVertex
100
AcDb2dVertex
 10
696.668855031648
 20
1486.391609304627
 30
0.0
  0
VERTEX
  5
238
330
21C
100
AcDbEntity
  8
水栓
  6
CONTINUOUS
 62
     6
100
AcDbVertex
100
AcDb2dVertex
 10
696.6461536366778
 20
1486.616243760677
 30
0.0
  0
VERTEX
  5
239
330
21C
100
AcDbEntity
  8
水栓
  6
CONTINUOUS
 62
     6
100
AcDbVertex
100
AcDb2dVertex
 10
696.6219573182002
 20
1486.842714693521
 30
0.0
  0
VERTEX
  5
23A
330
21C
100
AcDbEntity
  8
水栓
  6
CONTINUOUS
 62
     6
100
AcDbVertex
100
AcDb2dVertex
 10
696.5960896775732
 20
1487.070895323522
 30
0.0
  0
VERTEX
  5
23B
330
21C
100
AcDbEntity
  8
水栓
  6
CONTINUOUS
 62
     6
100
AcDbVertex
100
AcDb2dVertex
 10
696.5683743161546
 20
1487.300658871041
 30
0.0
  0
VERTEX
  5
23C
330
21C
100
AcDbEntity
  8
水栓
  6
CONTINUOUS
 62
     6
100
AcDbVertex
100
AcDb2dVertex
 10
696.5386348353023
 20
1487.531878556441
 30
0.0
  0
VERTEX
  5
23D
330
21C
100
AcDbEntity
  8
水栓
  6
CONTINUOUS
 62
     6
100
AcDbVertex
100
AcDb2dVertex
 10
696.5066948363743
 20
1487.764427600083
 30
0.0
  0
VERTEX
  5
23E
330
21C
100
AcDbEntity
  8
水栓
  6
CONTINUOUS
 62
     6
100
AcDbVertex
100
AcDb2dVertex
 10
696.4723779207281
 20
1487.99817922233
 30
0.0
  0
VERTEX
  5
23F
330
21C
100
AcDbEntity
  8
水栓
  6
CONTINUOUS
 62
     6
100
AcDbVertex
100
AcDb2dVertex
 10
696.4357098257952
 20
1488.232007168159
 30
0.0
  0
VERTEX
  5
240
330
21C
100
AcDbEntity
  8
水栓
  6
CONTINUOUS
 62
     6
100
AcDbVertex
100
AcDb2dVertex
 10
696.3966933874384
 20
1488.466031375103
 30
0.0
  0
VERTEX
  5
241
330
21C
100
AcDbEntity
  8
水栓
  6
CONTINUOUS
 62
     6
100
AcDbVertex
100
AcDb2dVertex
 10
696.3555146223872
 20
1488.699380291783
 30
0.0
  0
VERTEX
  5
242
330
21C
100
AcDbEntity
  8
水栓
  6
CONTINUOUS
 62
     6
100
AcDbVertex
100
AcDb2dVertex
 10
696.3123595473705
 20
1488.931182366822
 30
0.0
  0
VERTEX
  5
243
330
21C
100
AcDbEntity
  8
水栓
  6
CONTINUOUS
 62
     6
100
AcDbVertex
100
AcDb2dVertex
 10
696.2674141791178
 20
1489.160566048844
 30
0.0
  0
VERTEX
  5
244
330
21C
100
AcDbEntity
  8
水栓
  6
CONTINUOUS
 62
     6
100
AcDbVertex
100
AcDb2dVertex
 10
696.220864534358
 20
1489.386659786472
 30
0.0
  0
VERTEX
  5
245
330
21C
100
AcDbEntity
  8
水栓
  6
CONTINUOUS
 62
     6
100
AcDbVertex
100
AcDb2dVertex
 10
696.1728966298206
 20
1489.60859202833
 30
0.0
  0
VERTEX
  5
246
330
21C
100
AcDbEntity
  8
水栓
  6
CONTINUOUS
 62
     6
100
AcDbVertex
100
AcDb2dVertex
 10
696.1236964822344
 20
1489.82549122304
 30
0.0
  0
VERTEX
  5
247
330
21C
100
AcDbEntity
  8
水栓
  6
CONTINUOUS
 62
     6
100
AcDbVertex
100
AcDb2dVertex
 10
696.0734501083289
 20
1490.036485819224
 30
0.0
  0
VERTEX
  5
248
330
21C
100
AcDbEntity
  8
水栓
  6
CONTINUOUS
 62
     6
100
AcDbVertex
100
AcDb2dVertex
 10
696.0223435248332
 20
1490.240704265507
 30
0.0
  0
VERTEX
  5
249
330
21C
100
AcDbEntity
  8
水栓
  6
CONTINUOUS
 62
     6
100
AcDbVertex
100
AcDb2dVertex
 10
695.9705627484765
 20
1490.437275010512
 30
0.0
  0
VERTEX
  5
24A
330
21C
100
AcDbEntity
  8
水栓
  6
CONTINUOUS
 62
     6
100
AcDbVertex
100
AcDb2dVertex
 10
695.9596656092444
 20
1490.477333113905
 30
0.0
  0
VERTEX
  5
24B
330
21C
100
AcDbEntity
  8
水栓
  6
CONTINUOUS
 62
     6
100
AcDbVertex
100
AcDb2dVertex
 10
695.9486418681523
 20
1490.517380381344
 30
0.0
  0
VERTEX
  5
24C
330
21C
100
AcDbEntity
  8
水栓
  6
CONTINUOUS
 62
     6
100
AcDbVertex
100
AcDb2dVertex
 10
695.9373862053167
 20
1490.557777372601
 30
0.0
  0
VERTEX
  5
24D
330
21C
100
AcDbEntity
  8
水栓
  6
CONTINUOUS
 62
     6
100
AcDbVertex
100
AcDb2dVertex
 10
695.9257933008527
 20
1490.598884647451
 30
0.0
  0
VERTEX
  5
24E
330
21C
100
AcDbEntity
  8
水栓
  6
CONTINUOUS
 62
     6
100
AcDbVertex
100
AcDb2dVertex
 10
695.9137578348768
 20
1490.641062765667
 30
0.0
  0
VERTEX
  5
24F
330
21C
100
AcDbEntity
  8
水栓
  6
CONTINUOUS
 62
     6
100
AcDbVertex
100
AcDb2dVertex
 10
695.9011744875049
 20
1490.684672287022
 30
0.0
  0
VERTEX
  5
250
330
21C
100
AcDbEntity
  8
水栓
  6
CONTINUOUS
 62
     6
100
AcDbVertex
100
AcDb2dVertex
 10
695.8879379388526
 20
1490.730073771288
 30
0.0
  0
VERTEX
  5
251
330
21C
100
AcDbEntity
  8
水栓
  6
CONTINUOUS
 62
     6
100
AcDbVertex
100
AcDb2dVertex
 10
695.8739428690365
 20
1490.777627778239
 30
0.0
  0
VERTEX
  5
252
330
21C
100
AcDbEntity
  8
水栓
  6
CONTINUOUS
 62
     6
100
AcDbVertex
100
AcDb2dVertex
 10
695.8590839581718
 20
1490.827694867649
 30
0.0
  0
VERTEX
  5
253
330
21C
100
AcDbEntity
  8
水栓
  6
CONTINUOUS
 62
     6
100
AcDbVertex
100
AcDb2dVertex
 10
695.8432558863751
 20
1490.880635599291
 30
0.0
  0
VERTEX
  5
254
330
21C
100
AcDbEntity
  8
水栓
  6
CONTINUOUS
 62
     6
100
AcDbVertex
100
AcDb2dVertex
 10
695.8263533337621
 20
1490.936810532937
 30
0.0
  0
VERTEX
  5
255
330
21C
100
AcDbEntity
  8
水栓
  6
CONTINUOUS
 62
     6
100
AcDbVertex
100
AcDb2dVertex
 10
695.8083598456495
 20
1490.996293154088
 30
0.0
  0
VERTEX
  5
256
330
21C
100
AcDbEntity
  8
水栓
  6
CONTINUOUS
 62
     6
100
AcDbVertex
100
AcDb2dVertex
 10
695.7896887926881
 20
1491.057763061162
 30
0.0
  0
VERTEX
  5
257
330
21C
100
AcDbEntity
  8
水栓
  6
CONTINUOUS
 62
     6
100
AcDbVertex
100
AcDb2dVertex
 10
695.770844012718
 20
1491.119607897169
 30
0.0
  0
VERTEX
  5
258
330
21C
100
AcDbEntity
  8
水栓
  6
CONTINUOUS
 62
     6
100
AcDbVertex
100
AcDb2dVertex
 10
695.752329343579
 20
1491.180215305119
 30
0.0
  0
VERTEX
  5
259
330
21C
100
AcDbEntity
  8
水栓
  6
CONTINUOUS
 62
     6
100
AcDbVertex
100
AcDb2dVertex
 10
695.7346486231113
 20
1491.237972928021
 30
0.0
  0
VERTEX
  5
25A
330
21C
100
AcDbEntity
  8
水栓
  6
CONTINUOUS
 62
     6
100
AcDbVertex
100
AcDb2dVertex
 10
695.7183056891545
 20
1491.291268408886
 30
0.0
  0
VERTEX
  5
25B
330
21C
100
AcDbEntity
  8
水栓
  6
CONTINUOUS
 62
     6
100
AcDbVertex
100
AcDb2dVertex
 10
695.7038043795486
 20
1491.338489390723
 30
0.0
  0
VERTEX
  5
25C
330
21C
100
AcDbEntity
  8
水栓
  6
CONTINUOUS
 62
     6
100
AcDbVertex
100
AcDb2dVertex
 10
695.6916485321339
 20
1491.378023516542
 30
0.0
  0
VERTEX
  5
25D
330
21C
100
AcDbEntity
  8
水栓
  6
CONTINUOUS
 62
     6
100
AcDbVertex
100
AcDb2dVertex
 10
695.6823419847499
 20
1491.408258429353
 30
0.0
  0
VERTEX
  5
25E
330
21C
100
AcDbEntity
  8
水栓
  6
CONTINUOUS
 62
     6
100
AcDbVertex
100
AcDb2dVertex
 10
695.676388575237
 20
1491.427581772166
 30
0.0
  0
VERTEX
  5
25F
330
21C
100
AcDbEntity
  8
水栓
  6
CONTINUOUS
 62
     6
100
AcDbVertex
100
AcDb2dVertex
 10
695.6742921414349
 20
1491.43438118799
 30
0.0
  0
SEQEND
  5
260
330
21C
100
AcDbEntity
  8
水栓
  6
CONTINUOUS
 62
     6
  0
POLYLINE
  5
261
330
1F
100
AcDbEntity
  8
水栓
  6
CONTINUOUS
 62
     6
100
AcDb2dPolyline
 66
     1
 10
0.0
 20
0.0
 30
0.0
 70
   128
  0
VERTEX
  5
262
330
261
100
AcDbEntity
  8
水栓
  6
CONTINUOUS
 62
     6
100
AcDbVertex
100
AcDb2dVertex
 10
660.9999999999993
 20
1472.437275010512
 30
0.0
  0
VERTEX
  5
263
330
261
100
AcDbEntity
  8
水栓
  6
CONTINUOUS
 62
     6
100
AcDbVertex
100
AcDb2dVertex
 10
660.9988340083077
 20
1472.527511064641
 30
0.0
  0
VERTEX
  5
264
330
261
100
AcDbEntity
  8
水栓
  6
CONTINUOUS
 62
     6
100
AcDbVertex
100
AcDb2dVertex
 10
660.9956987942194
 20
1472.78373913868
 30
0.0
  0
VERTEX
  5
265
330
261
100
AcDbEntity
  8
水栓
  6
CONTINUOUS
 62
     6
100
AcDbVertex
100
AcDb2dVertex
 10
660.9911384992155
 20
1473.184239100102
 30
0.0
  0
VERTEX
  5
266
330
261
100
AcDbEntity
  8
水栓
  6
CONTINUOUS
 62
     6
100
AcDbVertex
100
AcDb2dVertex
 10
660.9856972647754
 20
1473.707290816381
 30
0.0
  0
VERTEX
  5
267
330
261
100
AcDbEntity
  8
水栓
  6
CONTINUOUS
 62
     6
100
AcDbVertex
100
AcDb2dVertex
 10
660.9799192323802
 20
1474.331174154993
 30
0.0
  0
VERTEX
  5
268
330
261
100
AcDbEntity
  8
水栓
  6
CONTINUOUS
 62
     6
100
AcDbVertex
100
AcDb2dVertex
 10
660.97434854351
 20
1475.03416898341
 30
0.0
  0
VERTEX
  5
269
330
261
100
AcDbEntity
  8
水栓
  6
CONTINUOUS
 62
     6
100
AcDbVertex
100
AcDb2dVertex
 10
660.9695293396454
 20
1475.79455516911
 30
0.0
  0
VERTEX
  5
26A
330
261
100
AcDbEntity
  8
水栓
  6
CONTINUOUS
 62
     6
100
AcDbVertex
100
AcDb2dVertex
 10
660.9660057622665
 20
1476.590612579564
 30
0.0
  0
VERTEX
  5
26B
330
261
100
AcDbEntity
  8
水栓
  6
CONTINUOUS
 62
     6
100
AcDbVertex
100
AcDb2dVertex
 10
660.9643219528537
 20
1477.400621082248
 30
0.0
  0
VERTEX
  5
26C
330
261
100
AcDbEntity
  8
水栓
  6
CONTINUOUS
 62
     6
100
AcDbVertex
100
AcDb2dVertex
 10
660.9650220528874
 20
1478.202860544637
 30
0.0
  0
VERTEX
  5
26D
330
261
100
AcDbEntity
  8
水栓
  6
CONTINUOUS
 62
     6
100
AcDbVertex
100
AcDb2dVertex
 10
660.9686502038485
 20
1478.975610834204
 30
0.0
  0
VERTEX
  5
26E
330
261
100
AcDbEntity
  8
水栓
  6
CONTINUOUS
 62
     6
100
AcDbVertex
100
AcDb2dVertex
 10
660.9756789473801
 20
1479.70245590281
 30
0.0
  0
VERTEX
  5
26F
330
261
100
AcDbEntity
  8
水栓
  6
CONTINUOUS
 62
     6
100
AcDbVertex
100
AcDb2dVertex
 10
660.9862521062903
 20
1480.384200141366
 30
0.0
  0
VERTEX
  5
270
330
261
100
AcDbEntity
  8
水栓
  6
CONTINUOUS
 62
     6
100
AcDbVertex
100
AcDb2dVertex
 10
661.0004354467737
 20
1481.027047252328
 30
0.0
  0
VERTEX
  5
271
330
261
100
AcDbEntity
  8
水栓
  6
CONTINUOUS
 62
     6
100
AcDbVertex
100
AcDb2dVertex
 10
661.0182947350261
 20
1481.63720093815
 30
0.0
  0
VERTEX
  5
272
330
261
100
AcDbEntity
  8
水栓
  6
CONTINUOUS
 62
     6
100
AcDbVertex
100
AcDb2dVertex
 10
661.0398957372417
 20
1482.220864901285
 30
0.0
  0
VERTEX
  5
273
330
261
100
AcDbEntity
  8
水栓
  6
CONTINUOUS
 62
     6
100
AcDbVertex
100
AcDb2dVertex
 10
661.0653042196163
 20
1482.78424284419
 30
0.0
  0
VERTEX
  5
274
330
261
100
AcDbEntity
  8
水栓
  6
CONTINUOUS
 62
     6
100
AcDbVertex
100
AcDb2dVertex
 10
661.0945859483448
 20
1483.333538469316
 30
0.0
  0
VERTEX
  5
275
330
261
100
AcDbEntity
  8
水栓
  6
CONTINUOUS
 62
     6
100
AcDbVertex
100
AcDb2dVertex
 10
661.1278066896225
 20
1483.87495547912
 30
0.0
  0
VERTEX
  5
276
330
261
100
AcDbEntity
  8
水栓
  6
CONTINUOUS
 62
     6
100
AcDbVertex
100
AcDb2dVertex
 10
661.1650322096442
 20
1484.414697576055
 30
0.0
  0
VERTEX
  5
277
330
261
100
AcDbEntity
  8
水栓
  6
CONTINUOUS
 62
     6
100
AcDbVertex
100
AcDb2dVertex
 10
661.2063282746052
 20
1484.958968462575
 30
0.0
  0
VERTEX
  5
278
330
261
100
AcDbEntity
  8
水栓
  6
CONTINUOUS
 62
     6
100
AcDbVertex
100
AcDb2dVertex
 10
661.2517606507005
 20
1485.513971841134
 30
0.0
  0
VERTEX
  5
279
330
261
100
AcDbEntity
  8
水栓
  6
CONTINUOUS
 62
     6
100
AcDbVertex
100
AcDb2dVertex
 10
661.2702463380643
 20
1485.729992593625
 30
0.0
  0
VERTEX
  5
27A
330
261
100
AcDbEntity
  8
水栓
  6
CONTINUOUS
 62
     6
100
AcDbVertex
100
AcDb2dVertex
 10
661.2895213543671
 20
1485.948356941463
 30
0.0
  0
VERTEX
  5
27B
330
261
100
AcDbEntity
  8
水栓
  6
CONTINUOUS
 62
     6
100
AcDbVertex
100
AcDb2dVertex
 10
661.309762098251
 20
1486.168938105009
 30
0.0
  0
VERTEX
  5
27C
330
261
100
AcDbEntity
  8
水栓
  6
CONTINUOUS
 62
     6
100
AcDbVertex
100
AcDb2dVertex
 10
661.3311449683578
 20
1486.391609304625
 30
0.0
  0
VERTEX
  5
27D
330
261
100
AcDbEntity
  8
水栓
  6
CONTINUOUS
 62
     6
100
AcDbVertex
100
AcDb2dVertex
 10
661.3538463633297
 20
1486.616243760675
 30
0.0
  0
VERTEX
  5
27E
330
261
100
AcDbEntity
  8
水栓
  6
CONTINUOUS
 62
     6
100
AcDbVertex
100
AcDb2dVertex
 10
661.3780426818089
 20
1486.842714693519
 30
0.0
  0
VERTEX
  5
27F
330
261
100
AcDbEntity
  8
水栓
  6
CONTINUOUS
 62
     6
100
AcDbVertex
100
AcDb2dVertex
 10
661.4039103224372
 20
1487.070895323518
 30
0.0
  0
VERTEX
  5
280
330
261
100
AcDbEntity
  8
水栓
  6
CONTINUOUS
 62
     6
100
AcDbVertex
100
AcDb2dVertex
 10
661.4316256838572
 20
1487.300658871037
 30
0.0
  0
VERTEX
  5
281
330
261
100
AcDbEntity
  8
水栓
  6
CONTINUOUS
 62
     6
100
AcDbVertex
100
AcDb2dVertex
 10
661.4613651647105
 20
1487.531878556437
 30
0.0
  0
VERTEX
  5
282
330
261
100
AcDbEntity
  8
水栓
  6
CONTINUOUS
 62
     6
100
AcDbVertex
100
AcDb2dVertex
 10
661.4933051636393
 20
1487.764427600079
 30
0.0
  0
VERTEX
  5
283
330
261
100
AcDbEntity
  8
水栓
  6
CONTINUOUS
 62
     6
100
AcDbVertex
100
AcDb2dVertex
 10
661.527622079286
 20
1487.998179222326
 30
0.0
  0
VERTEX
  5
284
330
261
100
AcDbEntity
  8
水栓
  6
CONTINUOUS
 62
     6
100
AcDbVertex
100
AcDb2dVertex
 10
661.5642901742191
 20
1488.232007168155
 30
0.0
  0
VERTEX
  5
285
330
261
100
AcDbEntity
  8
水栓
  6
CONTINUOUS
 62
     6
100
AcDbVertex
100
AcDb2dVertex
 10
661.6033066125758
 20
1488.466031375099
 30
0.0
  0
VERTEX
  5
286
330
261
100
AcDbEntity
  8
水栓
  6
CONTINUOUS
 62
     6
100
AcDbVertex
100
AcDb2dVertex
 10
661.6444853776268
 20
1488.699380291778
 30
0.0
  0
VERTEX
  5
287
330
261
100
AcDbEntity
  8
水栓
  6
CONTINUOUS
 62
     6
100
AcDbVertex
100
AcDb2dVertex
 10
661.6876404526427
 20
1488.931182366818
 30
0.0
  0
VERTEX
  5
288
330
261
100
AcDbEntity
  8
水栓
  6
CONTINUOUS
 62
     6
100
AcDbVertex
100
AcDb2dVertex
 10
661.7325858208942
 20
1489.160566048841
 30
0.0
  0
VERTEX
  5
289
330
261
100
AcDbEntity
  8
水栓
  6
CONTINUOUS
 62
     6
100
AcDbVertex
100
AcDb2dVertex
 10
661.7791354656526
 20
1489.38665978647
 30
0.0
  0
VERTEX
  5
28A
330
261
100
AcDbEntity
  8
水栓
  6
CONTINUOUS
 62
     6
100
AcDbVertex
100
AcDb2dVertex
 10
661.8271033701884
 20
1489.608592028327
 30
0.0
  0
VERTEX
  5
28B
330
261
100
AcDbEntity
  8
水栓
  6
CONTINUOUS
 62
     6
100
AcDbVertex
100
AcDb2dVertex
 10
661.8763035177725
 20
1489.825491223037
 30
0.0
  0
VERTEX
  5
28C
330
261
100
AcDbEntity
  8
水栓
  6
CONTINUOUS
 62
     6
100
AcDbVertex
100
AcDb2dVertex
 10
661.9265498916757
 20
1490.036485819223
 30
0.0
  0
VERTEX
  5
28D
330
261
100
AcDbEntity
  8
水栓
  6
CONTINUOUS
 62
     6
100
AcDbVertex
100
AcDb2dVertex
 10
661.9776564751685
 20
1490.240704265507
 30
0.0
  0
VERTEX
  5
28E
330
261
100
AcDbEntity
  8
水栓
  6
CONTINUOUS
 62
     6
100
AcDbVertex
100
AcDb2dVertex
 10
662.0294372515222
 20
1490.437275010512
 30
0.0
  0
VERTEX
  5
28F
330
261
100
AcDbEntity
  8
水栓
  6
CONTINUOUS
 62
     6
100
AcDbVertex
100
AcDb2dVertex
 10
662.0403343907533
 20
1490.477333113905
 30
0.0
  0
VERTEX
  5
290
330
261
100
AcDbEntity
  8
水栓
  6
CONTINUOUS
 62
     6
100
AcDbVertex
100
AcDb2dVertex
 10
662.0513581318445
 20
1490.517380381343
 30
0.0
  0
VERTEX
  5
291
330
261
100
AcDbEntity
  8
水栓
  6
CONTINUOUS
 62
     6
100
AcDbVertex
100
AcDb2dVertex
 10
662.0626137946794
 20
1490.557777372601
 30
0.0
  0
VERTEX
  5
292
330
261
100
AcDbEntity
  8
水栓
  6
CONTINUOUS
 62
     6
100
AcDbVertex
100
AcDb2dVertex
 10
662.0742066991425
 20
1490.598884647451
 30
0.0
  0
VERTEX
  5
293
330
261
100
AcDbEntity
  8
水栓
  6
CONTINUOUS
 62
     6
100
AcDbVertex
100
AcDb2dVertex
 10
662.0862421651175
 20
1490.641062765667
 30
0.0
  0
VERTEX
  5
294
330
261
100
AcDbEntity
  8
水栓
  6
CONTINUOUS
 62
     6
100
AcDbVertex
100
AcDb2dVertex
 10
662.0988255124885
 20
1490.684672287021
 30
0.0
  0
VERTEX
  5
295
330
261
100
AcDbEntity
  8
水栓
  6
CONTINUOUS
 62
     6
100
AcDbVertex
100
AcDb2dVertex
 10
662.1120620611396
 20
1490.730073771287
 30
0.0
  0
VERTEX
  5
296
330
261
100
AcDbEntity
  8
水栓
  6
CONTINUOUS
 62
     6
100
AcDbVertex
100
AcDb2dVertex
 10
662.1260571309547
 20
1490.777627778239
 30
0.0
  0
VERTEX
  5
297
330
261
100
AcDbEntity
  8
水栓
  6
CONTINUOUS
 62
     6
100
AcDbVertex
100
AcDb2dVertex
 10
662.1409160418178
 20
1490.827694867649
 30
0.0
  0
VERTEX
  5
298
330
261
100
AcDbEntity
  8
水栓
  6
CONTINUOUS
 62
     6
100
AcDbVertex
100
AcDb2dVertex
 10
662.1567441136133
 20
1490.88063559929
 30
0.0
  0
VERTEX
  5
299
330
261
100
AcDbEntity
  8
水栓
  6
CONTINUOUS
 62
     6
100
AcDbVertex
100
AcDb2dVertex
 10
662.1736466662251
 20
1490.936810532937
 30
0.0
  0
VERTEX
  5
29A
330
261
100
AcDbEntity
  8
水栓
  6
CONTINUOUS
 62
     6
100
AcDbVertex
100
AcDb2dVertex
 10
662.1916401543359
 20
1490.996293154087
 30
0.0
  0
VERTEX
  5
29B
330
261
100
AcDbEntity
  8
水栓
  6
CONTINUOUS
 62
     6
100
AcDbVertex
100
AcDb2dVertex
 10
662.2103112072956
 20
1491.057763061161
 30
0.0
  0
VERTEX
  5
29C
330
261
100
AcDbEntity
  8
水栓
  6
CONTINUOUS
 62
     6
100
AcDbVertex
100
AcDb2dVertex
 10
662.2291559872642
 20
1491.119607897169
 30
0.0
  0
VERTEX
  5
29D
330
261
100
AcDbEntity
  8
水栓
  6
CONTINUOUS
 62
     6
100
AcDbVertex
100
AcDb2dVertex
 10
662.2476706564014
 20
1491.180215305119
 30
0.0
  0
VERTEX
  5
29E
330
261
100
AcDbEntity
  8
水栓
  6
CONTINUOUS
 62
     6
100
AcDbVertex
100
AcDb2dVertex
 10
662.2653513768678
 20
1491.237972928021
 30
0.0
  0
VERTEX
  5
29F
330
261
100
AcDbEntity
  8
水栓
  6
CONTINUOUS
 62
     6
100
AcDbVertex
100
AcDb2dVertex
 10
662.2816943108232
 20
1491.291268408886
 30
0.0
  0
VERTEX
  5
2A0
330
261
100
AcDbEntity
  8
水栓
  6
CONTINUOUS
 62
     6
100
AcDbVertex
100
AcDb2dVertex
 10
662.2961956204277
 20
1491.338489390723
 30
0.0
  0
VERTEX
  5
2A1
330
261
100
AcDbEntity
  8
水栓
  6
CONTINUOUS
 62
     6
100
AcDbVertex
100
AcDb2dVertex
 10
662.3083514678415
 20
1491.378023516542
 30
0.0
  0
VERTEX
  5
2A2
330
261
100
AcDbEntity
  8
水栓
  6
CONTINUOUS
 62
     6
100
AcDbVertex
100
AcDb2dVertex
 10
662.3176580152245
 20
1491.408258429353
 30
0.0
  0
VERTEX
  5
2A3
330
261
100
AcDbEntity
  8
水栓
  6
CONTINUOUS
 62
     6
100
AcDbVertex
100
AcDb2dVertex
 10
662.323611424737
 20
1491.427581772166
 30
0.0
  0
VERTEX
  5
2A4
330
261
100
AcDbEntity
  8
水栓
  6
CONTINUOUS
 62
     6
100
AcDbVertex
100
AcDb2dVertex
 10
662.3257078585389
 20
1491.43438118799
 30
0.0
  0
SEQEND
  5
2A5
330
261
100
AcDbEntity
  8
水栓
  6
CONTINUOUS
 62
     6
  0
LINE
  5
2A6
330
1F
100
AcDbEntity
  8
水栓
  6
CONTINUOUS
 62
     6
100
AcDbLine
 10
671.9999999999993
 20
1457.500000000003
 30
0.0
 11
685.9999999999993
 21
1457.500000000003
 31
0.0
  0
LINE
  5
2A7
330
1F
100
AcDbEntity
  8
水栓
  6
CONTINUOUS
 62
     6
100
AcDbLine
 10
685.9999999999993
 20
1465.000000000003
 30
0.0
 11
685.9999999999993
 21
1457.500000000003
 31
0.0
  0
LINE
  5
2A8
330
1F
100
AcDbEntity
  8
水栓
  6
CONTINUOUS
 62
     6
100
AcDbLine
 10
671.9999999999993
 20
1465.000000000003
 30
0.0
 11
671.9999999999993
 21
1457.500000000003
 31
0.0
  0
LINE
  5
2A9
330
1F
100
AcDbEntity
  8
水栓
  6
CONTINUOUS
 62
     6
100
AcDbLine
 10
674.4999999999993
 20
1457.500000000003
 30
0.0
 11
674.4999999999993
 21
1441.500000000003
 31
0.0
  0
LINE
  5
2AA
330
1F
100
AcDbEntity
  8
水栓
  6
CONTINUOUS
 62
     6
100
AcDbLine
 10
683.4999999999993
 20
1457.500000000003
 30
0.0
 11
683.4999999999993
 21
1441.500000000003
 31
0.0
  0
ARC
  5
2AB
330
1F
100
AcDbEntity
  8
水栓
  6
CONTINUOUS
 62
     6
100
AcDbCircle
 10
678.9999999999993
 20
1443.716191226287
 30
0.0
 40
5.016124355660964
100
AcDbArc
 50
206.2196439815614
 51
333.7803560184387
  0
CIRCLE
  5
2AC
330
1F
100
AcDbEntity
  8
水栓
  6
CONTINUOUS
 62
     6
100
AcDbCircle
 10
678.9999999999993
 20
1444.000000000003
 30
0.0
 40
2.5
  0
ARC
  5
2AD
330
1F
100
AcDbEntity
  8
トラップ
  6
CONTINUOUS
 62
     6
100
AcDbCircle
 10
1715.99996945
 20
1101.000061
 30
0.0
 40
13.9999962
100
AcDbArc
 50
90.00000000000001
 51
180.0
  0
ARC
  5
2AE
330
1F
100
AcDbEntity
  8
トラップ
  6
CONTINUOUS
 62
     6
100
AcDbCircle
 10
1715.99996945
 20
1068.999939
 30
0.0
 40
13.9999962
100
AcDbArc
 50
180.0
 51
270.0000000000002
  0
LINE
  5
2AF
330
1F
100
AcDbEntity
  8
トラップ
  6
CONTINUOUS
 62
     6
100
AcDbLine
 10
1715.99996945
 20
1115.0
 30
0.0
 11
1718.99999995
 21
1115.0
 31
0.0
  0
LINE
  5
2B0
330
1F
100
AcDbEntity
  8
トラップ
  6
CONTINUOUS
 62
     6
100
AcDbLine
 10
1715.99996945
 20
1055.0
 30
0.0
 11
1718.99999995
 21
1055.0
 31
0.0
  0
LINE
  5
2B1
330
1F
100
AcDbEntity
  8
トラップ
  6
CONTINUOUS
 62
     6
100
AcDbLine
 10
1702.00003055
 20
1068.999939
 30
0.0
 11
1702.00003055
 21
1101.000061
 31
0.0
  0
LINE
  5
2B2
330
1F
100
AcDbEntity
  8
トラップ
  6
EXLTYPE3
 62
     6
100
AcDbLine
 10
1659.0
 20
568.5300293
 30
0.0
 11
1659.0
 21
734.0000000000001
 31
0.0
  0
LINE
  5
2B3
330
1F
100
AcDbEntity
  8
トラップ
  6
EXLTYPE4
 62
     6
100
AcDbLine
 10
1671.5
 20
560.0000000000002
 30
0.0
 11
1671.5
 21
714.02980586727
 31
0.0
  0
LINE
  5
2B4
330
1F
100
AcDbEntity
  8
トラップ
  6
EXLTYPE4
 62
     6
100
AcDbLine
 10
1646.5
 20
714.02980586727
 30
0.0
 11
1646.5
 21
560.0
 31
0.0
  0
LINE
  5
2B5
330
1F
100
AcDbEntity
  8
トラップ
  6
EXLTYPE4
 62
     6
100
AcDbLine
 10
1671.5
 20
560.0
 30
0.0
 11
1646.5
 21
560.0
 31
0.0
  0
LINE
  5
2B6
330
1F
100
AcDbEntity
  8
トラップ
  6
CONTINUOUS
 62
     6
100
AcDbLine
 10
1615.247558599999
 20
1228.699999999999
 30
0.0
 11
1615.247558599999
 21
1227.499999999999
 31
0.0
  0
LINE
  5
2B7
330
1F
100
AcDbEntity
  8
トラップ
  6
CONTINUOUS
 62
     6
100
AcDbLine
 10
1562.747558599999
 20
1228.699999999999
 30
0.0
 11
1562.747558599999
 21
1227.499999999999
 31
0.0
  0
LINE
  5
2B8
330
1F
100
AcDbEntity
  8
トラップ
  6
CONTINUOUS
 62
     6
100
AcDbLine
 10
1562.747558599999
 20
1227.499999999999
 30
0.0
 11
1615.247558599999
 21
1227.499999999999
 31
0.0
  0
LINE
  5
2B9
330
1F
100
AcDbEntity
  8
トラップ
  6
CONTINUOUS
 62
     6
100
AcDbLine
 10
1562.747558599999
 20
1228.699999999999
 30
0.0
 11
1615.247558599999
 21
1228.699999999999
 31
0.0
  0
LINE
  5
2BA
330
1F
100
AcDbEntity
  8
トラップ
  6
CONTINUOUS
 62
     6
100
AcDbLine
 10
1563.997558599999
 20
1227.500000000008
 30
0.0
 11
1563.997558599999
 21
1227.000000000008
 31
0.0
  0
LINE
  5
2BB
330
1F
100
AcDbEntity
  8
トラップ
  6
CONTINUOUS
 62
     6
100
AcDbLine
 10
1613.997558599999
 20
1227.500000000008
 30
0.0
 11
1613.997558599999
 21
1227.000000000008
 31
0.0
  0
LINE
  5
2BC
330
1F
100
AcDbEntity
  8
トラップ
  6
CONTINUOUS
 62
     6
100
AcDbLine
 10
1563.997558599999
 20
1227.000000000008
 30
0.0
 11
1613.997558599999
 21
1227.000000000008
 31
0.0
  0
LINE
  5
2BD
330
1F
100
AcDbEntity
  8
トラップ
  6
CONTINUOUS
 62
     6
100
AcDbLine
 10
1563.997558599999
 20
1227.500000000008
 30
0.0
 11
1613.997558599999
 21
1227.500000000008
 31
0.0
  0
LINE
  5
2BE
330
1F
100
AcDbEntity
  8
トラップ
  6
CONTINUOUS
 62
     6
100
AcDbLine
 10
1613.497558599999
 20
1224.499999999999
 30
0.0
 11
1613.497558599999
 21
1226.999999999999
 31
0.0
  0
LINE
  5
2BF
330
1F
100
AcDbEntity
  8
トラップ
  6
CONTINUOUS
 62
     6
100
AcDbLine
 10
1564.497558599999
 20
1224.499999999999
 30
0.0
 11
1564.497558599999
 21
1226.999999999999
 31
0.0
  0
LINE
  5
2C0
330
1F
100
AcDbEntity
  8
トラップ
  6
CONTINUOUS
 62
     6
100
AcDbLine
 10
1613.497558599999
 20
1224.499999999999
 30
0.0
 11
1564.497558599999
 21
1224.499999999999
 31
0.0
  0
LINE
  5
2C1
330
1F
100
AcDbEntity
  8
トラップ
  6
CONTINUOUS
 62
     6
100
AcDbLine
 10
1613.497558599999
 20
1226.999999999999
 30
0.0
 11
1564.497558599999
 21
1226.999999999999
 31
0.0
  0
LINE
  5
2C2
330
1F
100
AcDbEntity
  8
トラップ
  6
CONTINUOUS
 62
     6
100
AcDbLine
 10
1608.09755860011
 20
1218.499999999887
 30
0.0
 11
1610.0975586
 21
1220.499999999774
 31
0.0
  0
LINE
  5
2C3
330
1F
100
AcDbEntity
  8
トラップ
  6
CONTINUOUS
 62
     6
100
AcDbLine
 10
1569.897558599888
 20
1218.499999999887
 30
0.0
 11
1567.897558599999
 21
1220.499999999774
 31
0.0
  0
LINE
  5
2C4
330
1F
100
AcDbEntity
  8
トラップ
  6
CONTINUOUS
 62
     6
100
AcDbLine
 10
1610.0975586
 20
1220.499999999799
 30
0.0
 11
1610.0975586
 21
1224.499999999999
 31
0.0
  0
LINE
  5
2C5
330
1F
100
AcDbEntity
  8
トラップ
  6
CONTINUOUS
 62
     6
100
AcDbLine
 10
1567.897558599999
 20
1220.499999999799
 30
0.0
 11
1567.897558599999
 21
1224.499999999999
 31
0.0
  0
LINE
  5
2C6
330
1F
100
AcDbEntity
  8
トラップ
  6
CONTINUOUS
 62
     6
100
AcDbLine
 10
1608.0975586002
 20
1218.499999999999
 30
0.0
 11
1569.897558599799
 21
1218.499999999999
 31
0.0
  0
ARC
  5
2C7
330
1F
100
AcDbEntity
  8
トラップ
  6
CONTINUOUS
 62
     6
100
AcDbCircle
 10
1605.576450029
 20
1224.610105678104
 30
0.0
 40
6.110105678105146
100
AcDbArc
 50
222.2737374192949
 51
317.7262625806995
  0
LINE
  5
2C8
330
1F
100
AcDbEntity
  8
トラップ
  6
CONTINUOUS
 62
     6
100
AcDbLine
 10
1601.055341457998
 20
1220.499999999799
 30
0.0
 11
1601.055341457998
 21
1224.499999999999
 31
0.0
  0
LINE
  5
2C9
330
1F
100
AcDbEntity
  8
トラップ
  6
CONTINUOUS
 62
     6
100
AcDbLine
 10
1601.055341457998
 20
1220.499999999799
 30
0.0
 11
1597.964163308599
 21
1220.499999999799
 31
0.0
  0
LINE
  5
2CA
330
1F
100
AcDbEntity
  8
トラップ
  6
CONTINUOUS
 62
     6
100
AcDbLine
 10
1597.964163308599
 20
1220.499999999799
 30
0.0
 11
1597.964163308599
 21
1224.499999999999
 31
0.0
  0
ARC
  5
2CB
330
1F
100
AcDbEntity
  8
トラップ
  6
CONTINUOUS
 62
     6
100
AcDbCircle
 10
1588.997558599999
 20
1239.600000001981
 30
0.0
 40
21.10000000198211
100
AcDbArc
 50
244.8520222959027
 51
295.1479777040973
  0
LINE
  5
2CC
330
1F
100
AcDbEntity
  8
トラップ
  6
CONTINUOUS
 62
     6
100
AcDbLine
 10
1580.0309538914
 20
1220.499999999799
 30
0.0
 11
1580.0309538914
 21
1224.499999999999
 31
0.0
  0
LINE
  5
2CD
330
1F
100
AcDbEntity
  8
トラップ
  6
CONTINUOUS
 62
     6
100
AcDbLine
 10
1580.0309538914
 20
1220.499999999799
 30
0.0
 11
1576.939775741998
 21
1220.499999999799
 31
0.0
  0
LINE
  5
2CE
330
1F
100
AcDbEntity
  8
トラップ
  6
CONTINUOUS
 62
     6
100
AcDbLine
 10
1576.939775742
 20
1220.499999999799
 30
0.0
 11
1576.939775742
 21
1224.499999999999
 31
0.0
  0
ARC
  5
2CF
330
1F
100
AcDbEntity
  8
トラップ
  6
CONTINUOUS
 62
     6
100
AcDbCircle
 10
1572.418667170999
 20
1224.610105678104
 30
0.0
 40
6.110105678103862
100
AcDbArc
 50
222.2737374192943
 51
317.7262625807115
  0
ARC
  5
2D0
330
1F
100
AcDbEntity
  8
トラップ
  6
CONTINUOUS
 62
     6
100
AcDbCircle
 10
1600.900336377777
 20
1204.431370847899
 30
0.0
 40
7.847222222222516
100
AcDbArc
 50
315.5019526855774
 51
44.49804731442273
  0
ARC
  5
2D1
330
1F
100
AcDbEntity
  8
トラップ
  6
CONTINUOUS
 62
     6
100
AcDbCircle
 10
1577.094780822222
 20
1204.431370847899
 30
0.0
 40
7.847222222222516
100
AcDbArc
 50
135.5019526855774
 51
224.4980473144227
  0
LINE
  5
2D2
330
1F
100
AcDbEntity
  8
トラップ
  6
CONTINUOUS
 62
     6
100
AcDbLine
 10
1606.497558599999
 20
1209.931370847899
 30
0.0
 11
1571.497558599999
 21
1209.931370847899
 31
0.0
  0
LINE
  5
2D3
330
1F
100
AcDbEntity
  8
トラップ
  6
CONTINUOUS
 62
     6
100
AcDbLine
 10
1606.497558599999
 20
1198.931370847899
 30
0.0
 11
1571.497558599999
 21
1198.931370847899
 31
0.0
  0
ELLIPSE
  5
2D4
330
1F
100
AcDbEntity
  8
トラップ
  6
CONTINUOUS
 62
     6
100
AcDbEllipse
 10
1573.409101331898
 20
1204.431370847899
 30
0.0
 11
-1.891281075320144E-15
 21
4.939916778430074
 31
0.0
210
0.0
220
0.0
230
1.0
 40
0.8226741935096998
 41
0.0
 42
6.283185307179586
  0
ELLIPSE
  5
2D5
330
1F
100
AcDbEntity
  8
トラップ
  6
CONTINUOUS
 62
     6
100
AcDbEllipse
 10
1588.997558599999
 20
1204.431370847899
 30
0.0
 11
-8.12788410350004
 21
-2.614126904157020E-15
 31
0.0
210
0.0
220
0.0
230
1.0
 40
0.6077740178778928
 41
0.0
 42
6.283185307179586
  0
ELLIPSE
  5
2D6
330
1F
100
AcDbEntity
  8
トラップ
  6
CONTINUOUS
 62
     6
100
AcDbEllipse
 10
1604.586015868098
 20
1204.431370847899
 30
0.0
 11
-1.891281075320144E-15
 21
4.939916778430074
 31
0.0
210
0.0
220
0.0
230
1.0
 40
0.8226741935096998
 41
0.0
 42
6.283185307179586
  0
LINE
  5
2D7
330
1F
100
AcDbEntity
  8
トラップ
  6
CONTINUOUS
 62
     6
100
AcDbLine
 10
1575.247558599999
 20
1066.812435565195
 30
0.0
 11
1576.497558599999
 21
1064.647372055734
 31
0.0
  0
LINE
  5
2D8
330
1F
100
AcDbEntity
  8
トラップ
  6
CONTINUOUS
 62
     6
100
AcDbLine
 10
1602.747558599999
 20
1066.812435565195
 30
0.0
 11
1601.497558599999
 21
1064.647372055734
 31
0.0
  0
LINE
  5
2D9
330
1F
100
AcDbEntity
  8
トラップ
  6
CONTINUOUS
 62
     6
100
AcDbLine
 10
1576.497558599999
 20
1064.647372055729
 30
0.0
 11
1601.497558599999
 21
1064.647372055729
 31
0.0
  0
LINE
  5
2DA
330
1F
100
AcDbEntity
  8
トラップ
  6
CONTINUOUS
 62
     6
100
AcDbLine
 10
1575.247558599999
 20
1109.999999999999
 30
0.0
 11
1575.247558599999
 21
1066.812435565195
 31
0.0
  0
LINE
  5
2DB
330
1F
100
AcDbEntity
  8
トラップ
  6
CONTINUOUS
 62
     6
100
AcDbLine
 10
1602.747558599999
 20
1109.999999999999
 30
0.0
 11
1602.747558599999
 21
1066.812435565195
 31
0.0
  0
LINE
  5
2DC
330
1F
100
AcDbEntity
  8
トラップ
  6
CONTINUOUS
 62
     6
100
AcDbLine
 10
1574.497558600399
 20
1109.999999999999
 30
0.0
 11
1603.497558599599
 21
1109.999999999999
 31
0.0
  0
ARC
  5
2DD
330
1F
100
AcDbEntity
  8
トラップ
  6
CONTINUOUS
 62
     6
100
AcDbCircle
 10
1577.094780822222
 20
1116.499999999999
 30
0.0
 40
7.847222222222516
100
AcDbArc
 50
135.5019526855774
 51
224.4980473144227
  0
ARC
  5
2DE
330
1F
100
AcDbEntity
  8
トラップ
  6
CONTINUOUS
 62
     6
100
AcDbCircle
 10
1600.900336377777
 20
1116.499999999999
 30
0.0
 40
7.847222222222516
100
AcDbArc
 50
315.5019526855773
 51
44.49804731442267
  0
LINE
  5
2DF
330
1F
100
AcDbEntity
  8
トラップ
  6
CONTINUOUS
 62
     6
100
AcDbLine
 10
1571.497558599999
 20
1110.999999999999
 30
0.0
 11
1606.497558599999
 21
1110.999999999999
 31
0.0
  0
LINE
  5
2E0
330
1F
100
AcDbEntity
  8
トラップ
  6
CONTINUOUS
 62
     6
100
AcDbLine
 10
1571.497558599999
 20
1121.999999999999
 30
0.0
 11
1606.497558599999
 21
1121.999999999999
 31
0.0
  0
ELLIPSE
  5
2E1
330
1F
100
AcDbEntity
  8
トラップ
  6
CONTINUOUS
 62
     6
100
AcDbEllipse
 10
1604.5860158681
 20
1116.499999999999
 30
0.0
 11
-9.074479906138043E-16
 21
-4.939916778430074
 31
0.0
210
0.0
220
0.0
230
1.0
 40
0.8226741935096998
 41
0.0
 42
6.283185307179586
  0
ELLIPSE
  5
2E2
330
1F
100
AcDbEntity
  8
トラップ
  6
CONTINUOUS
 62
     6
100
AcDbEllipse
 10
1588.997558599999
 20
1116.499999999999
 30
0.0
 11
8.12788410350004
 21
-1.990757450238396E-15
 31
0.0
210
0.0
220
0.0
230
1.0
 40
0.6077740178778928
 41
0.0
 42
6.283185307179586
  0
ELLIPSE
  5
2E3
330
1F
100
AcDbEntity
  8
トラップ
  6
CONTINUOUS
 62
     6
100
AcDbEllipse
 10
1573.409101331901
 20
1116.499999999999
 30
0.0
 11
-9.074479906138043E-16
 21
-4.939916778430074
 31
0.0
210
0.0
220
0.0
230
1.0
 40
0.8226741935096998
 41
0.0
 42
6.283185307179586
  0
LINE
  5
2E4
330
1F
100
AcDbEntity
  8
トラップ
  6
CONTINUOUS
 62
     6
100
AcDbLine
 10
1562.747558599999
 20
1228.7
 30
0.0
 11
1564.86263796508
 21
1230.000000000001
 31
0.0
  0
LINE
  5
2E5
330
1F
100
AcDbEntity
  8
トラップ
  6
CONTINUOUS
 62
     6
100
AcDbLine
 10
1615.247558599999
 20
1228.7
 30
0.0
 11
1613.132479234918
 21
1230.000000000001
 31
0.0
  0
LINE
  5
2E6
330
1F
100
AcDbEntity
  8
トラップ
  6
CONTINUOUS
 62
     6
100
AcDbLine
 10
1572.997558599999
 20
1209.931370847899
 30
0.0
 11
1572.997558599999
 21
1218.499999999999
 31
0.0
  0
LINE
  5
2E7
330
1F
100
AcDbEntity
  8
トラップ
  6
CONTINUOUS
 62
     6
100
AcDbLine
 10
1604.997558599999
 20
1209.931370847899
 30
0.0
 11
1604.997558599999
 21
1218.499999999999
 31
0.0
  0
LINE
  5
2E8
330
1F
100
AcDbEntity
  8
トラップ
  6
CONTINUOUS
 62
     6
100
AcDbLine
 10
1576.497558599999
 20
1121.999999999999
 30
0.0
 11
1576.497558599999
 21
1198.931370847899
 31
0.0
  0
LINE
  5
2E9
330
1F
100
AcDbEntity
  8
トラップ
  6
CONTINUOUS
 62
     6
100
AcDbLine
 10
1601.497558599999
 20
1121.999999999999
 30
0.0
 11
1601.497558599999
 21
1198.931370847899
 31
0.0
  0
LINE
  5
2EA
330
1F
100
AcDbEntity
  8
トラップ
  6
CONTINUOUS
 62
     6
100
AcDbLine
 10
1603.497558599823
 20
1110.000000000176
 30
0.0
 11
1604.497558599647
 21
1110.999999999999
 31
0.0
  0
LINE
  5
2EB
330
1F
100
AcDbEntity
  8
トラップ
  6
CONTINUOUS
 62
     6
100
AcDbLine
 10
1574.497558600176
 20
1110.000000000176
 30
0.0
 11
1573.497558600351
 21
1110.999999999999
 31
0.0
  0
ELLIPSE
  5
2EC
330
1F
100
AcDbEntity
  8
トラップ
  6
CONTINUOUS
 62
     6
100
AcDbEllipse
 10
1637.4091013319
 20
1044.2
 30
0.0
 11
-9.074479906138043E-16
 21
-4.939916778430074
 31
0.0
210
0.0
220
0.0
230
1.0
 40
0.8226741935096998
 41
0.0
 42
6.283185307179586
  0
ELLIPSE
  5
2ED
330
1F
100
AcDbEntity
  8
トラップ
  6
CONTINUOUS
 62
     6
100
AcDbEllipse
 10
1652.997558599999
 20
1044.2
 30
0.0
 11
8.12788410350004
 21
-1.990757450238396E-15
 31
0.0
210
0.0
220
0.0
230
1.0
 40
0.6077740178778928
 41
0.0
 42
6.283185307179586
  0
ELLIPSE
  5
2EE
330
1F
100
AcDbEntity
  8
トラップ
  6
CONTINUOUS
 62
     6
100
AcDbEllipse
 10
1668.5860158681
 20
1044.2
 30
0.0
 11
-9.074479906138043E-16
 21
-4.939916778430074
 31
0.0
210
0.0
220
0.0
230
1.0
 40
0.8226741935096998
 41
0.0
 42
6.283185307179586
  0
ARC
  5
2EF
330
1F
100
AcDbEntity
  8
トラップ
  6
CONTINUOUS
 62
     6
100
AcDbCircle
 10
1682.997558599999
 20
1055.0
 30
0.0
 40
17.4999999999991
100
AcDbArc
 50
90.00000000000001
 51
180.0
  0
ARC
  5
2F0
330
1F
100
AcDbEntity
  8
トラップ
  6
CONTINUOUS
 62
     6
100
AcDbCircle
 10
1682.997558599999
 20
1055.0
 30
0.0
 40
42.4999999999991
100
AcDbArc
 50
90.00000000000001
 51
180.0
  0
LINE
  5
2F1
330
1F
100
AcDbEntity
  8
トラップ
  6
CONTINUOUS
 62
     6
100
AcDbLine
 10
1635.497558599999
 20
1049.7
 30
0.0
 11
1670.497558599999
 21
1049.7
 31
0.0
  0
LINE
  5
2F2
330
1F
100
AcDbEntity
  8
トラップ
  6
CONTINUOUS
 62
     6
100
AcDbLine
 10
1635.497558599999
 20
1038.7
 30
0.0
 11
1670.497558599999
 21
1038.7
 31
0.0
  0
ARC
  5
2F3
330
1F
100
AcDbEntity
  8
トラップ
  6
CONTINUOUS
 62
     6
100
AcDbCircle
 10
1664.900336377777
 20
1044.2
 30
0.0
 40
7.847222222222516
100
AcDbArc
 50
315.5019526855773
 51
44.49804731442267
  0
ARC
  5
2F4
330
1F
100
AcDbEntity
  8
トラップ
  6
CONTINUOUS
 62
     6
100
AcDbCircle
 10
1641.094780822222
 20
1044.2
 30
0.0
 40
7.847222222222516
100
AcDbArc
 50
135.5019526855774
 51
224.4980473144227
  0
LINE
  5
2F5
330
1F
100
AcDbEntity
  8
トラップ
  6
CONTINUOUS
 62
     6
100
AcDbLine
 10
1601.497558599999
 20
1064.647372055734
 30
0.0
 11
1601.497558599999
 21
1033.999999999999
 31
0.0
  0
LINE
  5
2F6
330
1F
100
AcDbEntity
  8
トラップ
  6
CONTINUOUS
 62
     6
100
AcDbLine
 10
1576.497558599999
 20
1064.647372055734
 30
0.0
 11
1576.497558599999
 21
1033.999999999999
 31
0.0
  0
ARC
  5
2F7
330
1F
100
AcDbEntity
  8
トラップ
  6
CONTINUOUS
 62
     6
100
AcDbCircle
 10
1620.997558599999
 20
1033.999999999999
 30
0.0
 40
19.5
100
AcDbArc
 50
180.0
 51
0.0
  0
ARC
  5
2F8
330
1F
100
AcDbEntity
  8
トラップ
  6
CONTINUOUS
 62
     6
100
AcDbCircle
 10
1620.997558599999
 20
1033.999999999999
 30
0.0
 40
44.5
100
AcDbArc
 50
180.0
 51
0.0
  0
LINE
  5
2F9
330
1F
100
AcDbEntity
  8
トラップ
  6
CONTINUOUS
 62
     6
100
AcDbLine
 10
1665.497558599999
 20
1033.999999999999
 30
0.0
 11
1665.497558599999
 21
1038.7
 31
0.0
  0
LINE
  5
2FA
330
1F
100
AcDbEntity
  8
トラップ
  6
CONTINUOUS
 62
     6
100
AcDbLine
 10
1665.497558599999
 20
1055.0
 30
0.0
 11
1665.497558599999
 21
1049.7
 31
0.0
  0
LINE
  5
2FB
330
1F
100
AcDbEntity
  8
トラップ
  6
CONTINUOUS
 62
     6
100
AcDbLine
 10
1640.497558599999
 20
1055.0
 30
0.0
 11
1640.497558599999
 21
1049.7
 31
0.0
  0
LINE
  5
2FC
330
1F
100
AcDbEntity
  8
トラップ
  6
CONTINUOUS
 62
     6
100
AcDbLine
 10
1640.497558599999
 20
1033.999999999999
 30
0.0
 11
1640.497558599999
 21
1038.7
 31
0.0
  0
LINE
  5
2FD
330
1F
100
AcDbEntity
  8
トラップ
  6
CONTINUOUS
 62
     6
100
AcDbLine
 10
1748.999999999995
 20
1097.499999999999
 30
0.0
 11
1748.999999999995
 21
1072.499999999999
 31
0.0
  0
LINE
  5
2FE
330
1F
100
AcDbEntity
  8
トラップ
  6
CONTINUOUS
 62
     6
100
AcDbLine
 10
1682.997558599999
 20
1097.499999999999
 30
0.0
 11
1702.00003055
 21
1097.499999999999
 31
0.0
  0
LINE
  5
2FF
330
1F
100
AcDbEntity
  8
トラップ
  6
CONTINUOUS
 62
     6
100
AcDbLine
 10
1719.0
 20
1097.499999999999
 30
0.0
 11
1748.999999999995
 21
1097.499999999999
 31
0.0
  0
LINE
  5
300
330
1F
100
AcDbEntity
  8
トラップ
  6
CONTINUOUS
 62
     6
100
AcDbLine
 10
1682.997558599999
 20
1072.499999999999
 30
0.0
 11
1702.00003055
 21
1072.499999999999
 31
0.0
  0
LINE
  5
301
330
1F
100
AcDbEntity
  8
トラップ
  6
CONTINUOUS
 62
     6
100
AcDbLine
 10
1719.0
 20
1072.499999999999
 30
0.0
 11
1748.999999999995
 21
1072.499999999999
 31
0.0
  0
LINE
  5
302
330
1F
100
AcDbEntity
  8
トラップ
  6
EXLTYPE3
 62
     6
100
AcDbLine
 10
1682.997558599999
 20
1084.999999999999
 30
0.0
 11
1762.7
 21
1084.999999999999
 31
0.0
  0
LINE
  5
303
330
1F
100
AcDbEntity
  8
トラップ
  6
EXLTYPE4
 62
     6
100
AcDbLine
 10
691.5000000000001
 20
560.0000000000002
 30
0.0
 11
691.5000000000001
 21
714.02980586727
 31
0.0
  0
LINE
  5
304
330
1F
100
AcDbEntity
  8
トラップ
  6
EXLTYPE4
 62
     6
100
AcDbLine
 10
666.5
 20
714.02980586727
 30
0.0
 11
666.5
 21
560.0
 31
0.0
  0
LINE
  5
305
330
1F
100
AcDbEntity
  8
トラップ
  6
EXLTYPE4
 62
     6
100
AcDbLine
 10
691.5000000000001
 20
560.0
 30
0.0
 11
666.5
 21
560.0
 31
0.0
  0
LINE
  5
306
330
1F
100
AcDbEntity
  8
トラップ
  6
CONTINUOUS
 62
     6
100
AcDbLine
 10
705.2499999999992
 20
1228.699999999999
 30
0.0
 11
705.2499999999992
 21
1227.499999999999
 31
0.0
  0
LINE
  5
307
330
1F
100
AcDbEntity
  8
トラップ
  6
CONTINUOUS
 62
     6
100
AcDbLine
 10
652.7499999999992
 20
1228.699999999999
 30
0.0
 11
652.7499999999992
 21
1227.499999999999
 31
0.0
  0
LINE
  5
308
330
1F
100
AcDbEntity
  8
トラップ
  6
CONTINUOUS
 62
     6
100
AcDbLine
 10
652.7499999999992
 20
1227.499999999999
 30
0.0
 11
705.2499999999992
 21
1227.499999999999
 31
0.0
  0
LINE
  5
309
330
1F
100
AcDbEntity
  8
トラップ
  6
CONTINUOUS
 62
     6
100
AcDbLine
 10
652.7499999999992
 20
1228.699999999999
 30
0.0
 11
705.2499999999992
 21
1228.699999999999
 31
0.0
  0
LINE
  5
30A
330
1F
100
AcDbEntity
  8
トラップ
  6
CONTINUOUS
 62
     6
100
AcDbLine
 10
653.9999999999992
 20
1227.500000000008
 30
0.0
 11
653.9999999999992
 21
1227.000000000008
 31
0.0
  0
LINE
  5
30B
330
1F
100
AcDbEntity
  8
トラップ
  6
CONTINUOUS
 62
     6
100
AcDbLine
 10
703.9999999999992
 20
1227.500000000008
 30
0.0
 11
703.9999999999992
 21
1227.000000000008
 31
0.0
  0
LINE
  5
30C
330
1F
100
AcDbEntity
  8
トラップ
  6
CONTINUOUS
 62
     6
100
AcDbLine
 10
653.9999999999992
 20
1227.000000000008
 30
0.0
 11
703.9999999999992
 21
1227.000000000008
 31
0.0
  0
LINE
  5
30D
330
1F
100
AcDbEntity
  8
トラップ
  6
CONTINUOUS
 62
     6
100
AcDbLine
 10
653.9999999999992
 20
1227.500000000008
 30
0.0
 11
703.9999999999992
 21
1227.500000000008
 31
0.0
  0
LINE
  5
30E
330
1F
100
AcDbEntity
  8
トラップ
  6
CONTINUOUS
 62
     6
100
AcDbLine
 10
703.4999999999992
 20
1224.499999999999
 30
0.0
 11
703.4999999999992
 21
1226.999999999999
 31
0.0
  0
LINE
  5
30F
330
1F
100
AcDbEntity
  8
トラップ
  6
CONTINUOUS
 62
     6
100
AcDbLine
 10
654.4999999999991
 20
1224.499999999999
 30
0.0
 11
654.4999999999991
 21
1226.999999999999
 31
0.0
  0
LINE
  5
310
330
1F
100
AcDbEntity
  8
トラップ
  6
CONTINUOUS
 62
     6
100
AcDbLine
 10
703.4999999999992
 20
1224.499999999999
 30
0.0
 11
654.4999999999991
 21
1224.499999999999
 31
0.0
  0
LINE
  5
311
330
1F
100
AcDbEntity
  8
トラップ
  6
CONTINUOUS
 62
     6
100
AcDbLine
 10
703.4999999999992
 20
1226.999999999999
 30
0.0
 11
654.4999999999991
 21
1226.999999999999
 31
0.0
  0
LINE
  5
312
330
1F
100
AcDbEntity
  8
トラップ
  6
CONTINUOUS
 62
     6
100
AcDbLine
 10
698.1000000001105
 20
1218.499999999887
 30
0.0
 11
700.0999999999996
 21
1220.499999999774
 31
0.0
  0
LINE
  5
313
330
1F
100
AcDbEntity
  8
トラップ
  6
CONTINUOUS
 62
     6
100
AcDbLine
 10
659.8999999998879
 20
1218.499999999887
 30
0.0
 11
657.8999999999988
 21
1220.499999999774
 31
0.0
  0
LINE
  5
314
330
1F
100
AcDbEntity
  8
トラップ
  6
CONTINUOUS
 62
     6
100
AcDbLine
 10
700.0999999999996
 20
1220.499999999799
 30
0.0
 11
700.0999999999996
 21
1224.499999999999
 31
0.0
  0
LINE
  5
315
330
1F
100
AcDbEntity
  8
トラップ
  6
CONTINUOUS
 62
     6
100
AcDbLine
 10
657.8999999999988
 20
1220.499999999799
 30
0.0
 11
657.8999999999988
 21
1224.499999999999
 31
0.0
  0
LINE
  5
316
330
1F
100
AcDbEntity
  8
トラップ
  6
CONTINUOUS
 62
     6
100
AcDbLine
 10
698.1000000001997
 20
1218.499999999999
 30
0.0
 11
659.8999999997986
 21
1218.499999999999
 31
0.0
  0
ARC
  5
317
330
1F
100
AcDbEntity
  8
トラップ
  6
CONTINUOUS
 62
     6
100
AcDbCircle
 10
695.5788914289998
 20
1224.610105678104
 30
0.0
 40
6.110105678105146
100
AcDbArc
 50
222.2737374192949
 51
317.7262625806995
  0
LINE
  5
318
330
1F
100
AcDbEntity
  8
トラップ
  6
CONTINUOUS
 62
     6
100
AcDbLine
 10
691.0577828579981
 20
1220.499999999799
 30
0.0
 11
691.0577828579981
 21
1224.499999999999
 31
0.0
  0
LINE
  5
319
330
1F
100
AcDbEntity
  8
トラップ
  6
CONTINUOUS
 62
     6
100
AcDbLine
 10
691.0577828579981
 20
1220.499999999799
 30
0.0
 11
687.9666047085985
 21
1220.499999999799
 31
0.0
  0
LINE
  5
31A
330
1F
100
AcDbEntity
  8
トラップ
  6
CONTINUOUS
 62
     6
100
AcDbLine
 10
687.9666047085985
 20
1220.499999999799
 30
0.0
 11
687.9666047085985
 21
1224.499999999999
 31
0.0
  0
ARC
  5
31B
330
1F
100
AcDbEntity
  8
トラップ
  6
CONTINUOUS
 62
     6
100
AcDbCircle
 10
678.9999999999992
 20
1239.600000001981
 30
0.0
 40
21.10000000198211
100
AcDbArc
 50
244.8520222959027
 51
295.1479777040973
  0
LINE
  5
31C
330
1F
100
AcDbEntity
  8
トラップ
  6
CONTINUOUS
 62
     6
100
AcDbLine
 10
670.0333952913999
 20
1220.499999999799
 30
0.0
 11
670.0333952913999
 21
1224.499999999999
 31
0.0
  0
LINE
  5
31D
330
1F
100
AcDbEntity
  8
トラップ
  6
CONTINUOUS
 62
     6
100
AcDbLine
 10
670.0333952913999
 20
1220.499999999799
 30
0.0
 11
666.9422171419984
 21
1220.499999999799
 31
0.0
  0
LINE
  5
31E
330
1F
100
AcDbEntity
  8
トラップ
  6
CONTINUOUS
 62
     6
100
AcDbLine
 10
666.9422171420002
 20
1220.499999999799
 30
0.0
 11
666.9422171420002
 21
1224.499999999999
 31
0.0
  0
ARC
  5
31F
330
1F
100
AcDbEntity
  8
トラップ
  6
CONTINUOUS
 62
     6
100
AcDbCircle
 10
662.4211085709985
 20
1224.610105678104
 30
0.0
 40
6.110105678103862
100
AcDbArc
 50
222.2737374192943
 51
317.7262625807115
  0
ARC
  5
320
330
1F
100
AcDbEntity
  8
トラップ
  6
CONTINUOUS
 62
     6
100
AcDbCircle
 10
690.9027777777766
 20
1204.431370847899
 30
0.0
 40
7.847222222222516
100
AcDbArc
 50
315.5019526855774
 51
44.49804731442273
  0
ARC
  5
321
330
1F
100
AcDbEntity
  8
トラップ
  6
CONTINUOUS
 62
     6
100
AcDbCircle
 10
667.0972222222218
 20
1204.431370847899
 30
0.0
 40
7.847222222222516
100
AcDbArc
 50
135.5019526855774
 51
224.4980473144227
  0
LINE
  5
322
330
1F
100
AcDbEntity
  8
トラップ
  6
CONTINUOUS
 62
     6
100
AcDbLine
 10
696.4999999999992
 20
1209.931370847899
 30
0.0
 11
661.4999999999992
 21
1209.931370847899
 31
0.0
  0
LINE
  5
323
330
1F
100
AcDbEntity
  8
トラップ
  6
CONTINUOUS
 62
     6
100
AcDbLine
 10
696.4999999999992
 20
1198.931370847899
 30
0.0
 11
661.4999999999992
 21
1198.931370847899
 31
0.0
  0
ELLIPSE
  5
324
330
1F
100
AcDbEntity
  8
トラップ
  6
CONTINUOUS
 62
     6
100
AcDbEllipse
 10
663.4115427318985
 20
1204.431370847899
 30
0.0
 11
-1.891281075320144E-15
 21
4.939916778430074
 31
0.0
210
0.0
220
0.0
230
1.0
 40
0.8226741935096998
 41
0.0
 42
6.283185307179586
  0
ELLIPSE
  5
325
330
1F
100
AcDbEntity
  8
トラップ
  6
CONTINUOUS
 62
     6
100
AcDbEllipse
 10
678.9999999999992
 20
1204.431370847899
 30
0.0
 11
-8.12788410350004
 21
-2.614126904157020E-15
 31
0.0
210
0.0
220
0.0
230
1.0
 40
0.6077740178778928
 41
0.0
 42
6.283185307179586
  0
ELLIPSE
  5
326
330
1F
100
AcDbEntity
  8
トラップ
  6
CONTINUOUS
 62
     6
100
AcDbEllipse
 10
694.5884572680981
 20
1204.431370847899
 30
0.0
 11
-1.891281075320144E-15
 21
4.939916778430074
 31
0.0
210
0.0
220
0.0
230
1.0
 40
0.8226741935096998
 41
0.0
 42
6.283185307179586
  0
LINE
  5
327
330
1F
100
AcDbEntity
  8
トラップ
  6
CONTINUOUS
 62
     6
100
AcDbLine
 10
665.2499999999992
 20
1066.812435565195
 30
0.0
 11
666.4999999999992
 21
1064.647372055734
 31
0.0
  0
LINE
  5
328
330
1F
100
AcDbEntity
  8
トラップ
  6
CONTINUOUS
 62
     6
100
AcDbLine
 10
692.7499999999992
 20
1066.812435565195
 30
0.0
 11
691.4999999999992
 21
1064.647372055734
 31
0.0
  0
LINE
  5
329
330
1F
100
AcDbEntity
  8
トラップ
  6
CONTINUOUS
 62
     6
100
AcDbLine
 10
666.4999999999992
 20
1064.647372055729
 30
0.0
 11
691.4999999999992
 21
1064.647372055729
 31
0.0
  0
LINE
  5
32A
330
1F
100
AcDbEntity
  8
トラップ
  6
CONTINUOUS
 62
     6
100
AcDbLine
 10
665.2499999999992
 20
1109.999999999999
 30
0.0
 11
665.2499999999992
 21
1066.812435565195
 31
0.0
  0
LINE
  5
32B
330
1F
100
AcDbEntity
  8
トラップ
  6
CONTINUOUS
 62
     6
100
AcDbLine
 10
692.7499999999992
 20
1109.999999999999
 30
0.0
 11
692.7499999999992
 21
1066.812435565195
 31
0.0
  0
LINE
  5
32C
330
1F
100
AcDbEntity
  8
トラップ
  6
CONTINUOUS
 62
     6
100
AcDbLine
 10
664.5000000003993
 20
1109.999999999999
 30
0.0
 11
693.499999999599
 21
1109.999999999999
 31
0.0
  0
ARC
  5
32D
330
1F
100
AcDbEntity
  8
トラップ
  6
CONTINUOUS
 62
     6
100
AcDbCircle
 10
667.0972222222218
 20
1116.499999999999
 30
0.0
 40
7.847222222222516
100
AcDbArc
 50
135.5019526855774
 51
224.4980473144227
  0
ARC
  5
32E
330
1F
100
AcDbEntity
  8
トラップ
  6
CONTINUOUS
 62
     6
100
AcDbCircle
 10
690.9027777777766
 20
1116.499999999999
 30
0.0
 40
7.847222222222516
100
AcDbArc
 50
315.5019526855773
 51
44.49804731442267
  0
LINE
  5
32F
330
1F
100
AcDbEntity
  8
トラップ
  6
CONTINUOUS
 62
     6
100
AcDbLine
 10
661.4999999999992
 20
1110.999999999999
 30
0.0
 11
696.4999999999992
 21
1110.999999999999
 31
0.0
  0
LINE
  5
330
330
1F
100
AcDbEntity
  8
トラップ
  6
CONTINUOUS
 62
     6
100
AcDbLine
 10
661.4999999999992
 20
1121.999999999999
 30
0.0
 11
696.4999999999992
 21
1121.999999999999
 31
0.0
  0
ELLIPSE
  5
331
330
1F
100
AcDbEntity
  8
トラップ
  6
CONTINUOUS
 62
     6
100
AcDbEllipse
 10
694.5884572680999
 20
1116.499999999999
 30
0.0
 11
-9.074479906138043E-16
 21
-4.939916778430074
 31
0.0
210
0.0
220
0.0
230
1.0
 40
0.8226741935096998
 41
0.0
 42
6.283185307179586
  0
ELLIPSE
  5
332
330
1F
100
AcDbEntity
  8
トラップ
  6
CONTINUOUS
 62
     6
100
AcDbEllipse
 10
678.9999999999992
 20
1116.499999999999
 30
0.0
 11
8.12788410350004
 21
-1.990757450238396E-15
 31
0.0
210
0.0
220
0.0
230
1.0
 40
0.6077740178778928
 41
0.0
 42
6.283185307179586
  0
ELLIPSE
  5
333
330
1F
100
AcDbEntity
  8
トラップ
  6
CONTINUOUS
 62
     6
100
AcDbEllipse
 10
663.4115427319003
 20
1116.499999999999
 30
0.0
 11
-9.074479906138043E-16
 21
-4.939916778430074
 31
0.0
210
0.0
220
0.0
230
1.0
 40
0.8226741935096998
 41
0.0
 42
6.283185307179586
  0
LINE
  5
334
330
1F
100
AcDbEntity
  8
トラップ
  6
CONTINUOUS
 62
     6
100
AcDbLine
 10
652.7499999999992
 20
1228.7
 30
0.0
 11
654.8650793650802
 21
1230.000000000001
 31
0.0
  0
LINE
  5
335
330
1F
100
AcDbEntity
  8
トラップ
  6
CONTINUOUS
 62
     6
100
AcDbLine
 10
705.2499999999992
 20
1228.7
 30
0.0
 11
703.134920634918
 21
1230.000000000001
 31
0.0
  0
LINE
  5
336
330
1F
100
AcDbEntity
  8
トラップ
  6
CONTINUOUS
 62
     6
100
AcDbLine
 10
662.9999999999992
 20
1209.931370847899
 30
0.0
 11
662.9999999999992
 21
1218.499999999999
 31
0.0
  0
LINE
  5
337
330
1F
100
AcDbEntity
  8
トラップ
  6
CONTINUOUS
 62
     6
100
AcDbLine
 10
694.9999999999992
 20
1209.931370847899
 30
0.0
 11
694.9999999999992
 21
1218.499999999999
 31
0.0
  0
LINE
  5
338
330
1F
100
AcDbEntity
  8
トラップ
  6
CONTINUOUS
 62
     6
100
AcDbLine
 10
666.4999999999992
 20
1121.999999999999
 30
0.0
 11
666.4999999999992
 21
1198.931370847899
 31
0.0
  0
LINE
  5
339
330
1F
100
AcDbEntity
  8
トラップ
  6
CONTINUOUS
 62
     6
100
AcDbLine
 10
691.4999999999992
 20
1121.999999999999
 30
0.0
 11
691.4999999999992
 21
1198.931370847899
 31
0.0
  0
LINE
  5
33A
330
1F
100
AcDbEntity
  8
トラップ
  6
CONTINUOUS
 62
     6
100
AcDbLine
 10
693.4999999998226
 20
1110.000000000176
 30
0.0
 11
694.4999999996469
 21
1110.999999999999
 31
0.0
  0
LINE
  5
33B
330
1F
100
AcDbEntity
  8
トラップ
  6
CONTINUOUS
 62
     6
100
AcDbLine
 10
664.5000000001756
 20
1110.000000000176
 30
0.0
 11
663.5000000003515
 21
1110.999999999999
 31
0.0
  0
ARC
  5
33C
330
1F
100
AcDbEntity
  8
トラップ
  6
CONTINUOUS
 62
     6
100
AcDbCircle
 10
678.999999999999
 20
1002.0
 30
0.0
 40
12.50000000000006
100
AcDbArc
 50
180.0
 51
0.0
  0
LINE
  5
33D
330
1F
100
AcDbEntity
  8
トラップ
  6
CONTINUOUS
 62
     6
100
AcDbLine
 10
666.4999999999992
 20
1064.647372055734
 30
0.0
 11
666.4999999999992
 21
1001.1963623
 31
0.0
  0
LINE
  5
33E
330
1F
100
AcDbEntity
  8
トラップ
  6
CONTINUOUS
 62
     6
100
AcDbLine
 10
691.4999999999992
 20
1064.647372055734
 30
0.0
 11
691.4999999999992
 21
1002.0
 31
0.0
  0
ARC
  5
33F
330
1F
100
AcDbEntity
  8
トラップ
  6
CONTINUOUS
 62
     6
100
AcDbCircle
 10
678.9999999999999
 20
1085.0
 30
0.0
 40
30.00000000000002
100
AcDbArc
 50
295.0451660200005
 51
59.32887755564106
  0
ARC
  5
340
330
1F
100
AcDbEntity
  8
トラップ
  6
CONTINUOUS
 62
     6
100
AcDbCircle
 10
678.9999999999999
 20
1085.0
 30
0.0
 40
30.00000000000002
100
AcDbArc
 50
120.6711224443634
 51
244.9548339800004
  0
ARC
  5
341
330
1F
100
AcDbEntity
  8
トラップ
  6
CONTINUOUS
 62
     6
100
AcDbCircle
 10
667.0972222222218
 20
1044.2
 30
0.0
 40
7.847222222222516
100
AcDbArc
 50
135.5019526855774
 51
224.4980473144227
  0
ARC
  5
342
330
1F
100
AcDbEntity
  8
トラップ
  6
CONTINUOUS
 62
     6
100
AcDbCircle
 10
690.9027777777766
 20
1044.2
 30
0.0
 40
7.847222222222516
100
AcDbArc
 50
315.5019526855773
 51
44.49804731442267
  0
ELLIPSE
  5
343
330
1F
100
AcDbEntity
  8
トラップ
  6
CONTINUOUS
 62
     6
100
AcDbEllipse
 10
663.4115427319003
 20
1044.2
 30
0.0
 11
-9.074479906138043E-16
 21
-4.939916778430074
 31
0.0
210
0.0
220
0.0
230
1.0
 40
0.8226741935096998
 41
2.278332046648424
 42
7.146445914120956
  0
ELLIPSE
  5
344
330
1F
100
AcDbEntity
  8
トラップ
  6
CONTINUOUS
 62
     6
100
AcDbEllipse
 10
694.5884572680999
 20
1044.2
 30
0.0
 11
-9.074479906138043E-16
 21
-4.939916778430074
 31
0.0
210
0.0
220
0.0
230
1.0
 40
0.8226741935096998
 41
5.419924700237527
 42
10.28803856771144
  0
LINE
  5
345
330
1F
100
AcDbEntity
  8
トラップ
  6
CONTINUOUS
 62
     6
100
AcDbLine
 10
691.4999999999992
 20
1038.7
 30
0.0
 11
696.4999999999992
 21
1038.7
 31
0.0
  0
LINE
  5
346
330
1F
100
AcDbEntity
  8
トラップ
  6
CONTINUOUS
 62
     6
100
AcDbLine
 10
661.4999999999992
 20
1038.7
 30
0.0
 11
666.4999999999992
 21
1038.7
 31
0.0
  0
LINE
  5
347
330
1F
100
AcDbEntity
  8
トラップ
  6
CONTINUOUS
 62
     6
100
AcDbLine
 10
661.4999999999992
 20
1049.7
 30
0.0
 11
666.4999999999992
 21
1049.7
 31
0.0
  0
LINE
  5
348
330
1F
100
AcDbEntity
  8
トラップ
  6
CONTINUOUS
 62
     6
100
AcDbLine
 10
691.4999999999992
 20
1049.7
 30
0.0
 11
696.4999999999992
 21
1049.7
 31
0.0
  0
LINE
  5
349
330
1F
100
AcDbEntity
  8
トラップ
  6
EXLTYPE3
 62
     6
100
AcDbLine
 10
718.5187987999999
 20
1085.0
 30
0.0
 11
637.2187988000001
 21
1085.0
 31
0.0
  0
DIMENSION
  5
34B
330
1F
100
AcDbEntity
  8
寸法
  6
CONTINUOUS
 62
     3
100
AcDbDimension
  2
*D15
 10
734.00366215
 20
2602.0022800725
 30
0.0
 11
679.0036621500002
 21
2625.002280191709
 31
0.0
 70
   160
  3
ISO-25
100
AcDbAlignedDimension
 13
624.00366215
 23
2542.0022800725
 33
0.0
 14
734.00366215
 24
2541.9992282725
 34
0.0
100
AcDbRotatedDimension
1001
ACAD
1000
DSTYLE
1002
{
1070
   270
1070
     2
1070
     6
1000
EX_NORM
1070
     7
1000
EX_NORM
1070
    41
1040
30.0
1070
    42
1040
6.99999988079071
1070
    44
1040
10.0
1070
    73
1070
     0
1070
    74
1070
     0
1070
    75
1070
     0
1070
    76
1070
     0
1070
    77
1070
     1
1070
    78
1070
     8
1070
   140
1040
40.0
1070
   147
1040
0.0
1070
   173
1070
     1
1070
   176
1070
     3
1070
   177
1070
     3
1070
   178
1070
     2
1070
   271
1070
     1
1070
   277
1070
     2
1070
   279
1070
     2
1070
   280
1070
     0
1070
   287
1070
     5
1070
   340
1005
34A
1002
}
  0
DIMENSION
  5
359
330
1F
100
AcDbEntity
  8
寸法
  6
CONTINUOUS
 62
     3
100
AcDbDimension
  2
*D16
 10
769.0036620999999
 20
2194.9987698155
 30
0.0
 11
679.0036621000002
 21
2217.998769934709
 31
0.0
 70
   160
  3
ISO-25
100
AcDbAlignedDimension
 13
589.0036620999999
 23
2384.9987793109
 33
0.0
 14
769.0036620999999
 24
2384.9987793109
 34
0.0
100
AcDbRotatedDimension
1001
ACAD
1000
DSTYLE
1002
{
1070
   270
1070
     2
1070
     6
1000
EX_NORM
1070
     7
1000
EX_NORM
1070
    41
1040
30.0
1070
    42
1040
6.99999988079071
1070
    44
1040
10.0
1070
    73
1070
     0
1070
    74
1070
     0
1070
    75
1070
     0
1070
    76
1070
     0
1070
    77
1070
     1
1070
    78
1070
     8
1070
   140
1040
40.0
1070
   147
1040
0.0
1070
   173
1070
     1
1070
   176
1070
     3
1070
   177
1070
     3
1070
   178
1070
     2
1070
   271
1070
     1
1070
   277
1070
     2
1070
   279
1070
     2
1070
   280
1070
     0
1070
   287
1070
     5
1070
   340
1005
34A
1002
}
  0
DIMENSION
  5
366
330
1F
100
AcDbEntity
  8
寸法
  6
CONTINUOUS
 62
     3
100
AcDbDimension
  2
*D17
 10
804.0036716
 20
2134.9987698155
 30
0.0
 11
679.0036621000002
 21
2157.998769934709
 31
0.0
 70
   160
  3
ISO-25
100
AcDbAlignedDimension
 13
554.0036525999999
 23
2389.9987793109
 33
0.0
 14
804.0036716
 24
2389.9987793109
 34
0.0
100
AcDbRotatedDimension
1001
ACAD
1000
DSTYLE
1002
{
1070
   270
1070
     2
1070
     6
1000
EX_NORM
1070
     7
1000
EX_NORM
1070
    41
1040
30.0
1070
    42
1040
6.99999988079071
1070
    44
1040
10.0
1070
    73
1070
     0
1070
    74
1070
     0
1070
    75
1070
     0
1070
    76
1070
     0
1070
    77
1070
     1
1070
    78
1070
     8
1070
   140
1040
40.0
1070
   147
1040
0.0
1070
   173
1070
     1
1070
   176
1070
     3
1070
   177
1070
     3
1070
   178
1070
     2
1070
   271
1070
     1
1070
   277
1070
     2
1070
   279
1070
     2
1070
   280
1070
     0
1070
   287
1070
     5
1070
   340
1005
34A
1002
}
  0
DIMENSION
  5
373
330
1F
100
AcDbEntity
  8
寸法
  6
CONTINUOUS
 62
     3
100
AcDbDimension
  2
*D18
 10
874.0036716000001
 20
2264.9987698155
 30
0.0
 11
851.0036714807912
 21
2389.9987745632
 31
0.0
 70
   160
  3
ISO-25
100
AcDbAlignedDimension
 13
799.0036621000002
 23
2514.9987793109
 33
0.0
 14
679.0047302
 24
2264.9987698155
 34
0.0
 50
90.0
100
AcDbRotatedDimension
1001
ACAD
1000
DSTYLE
1002
{
1070
   270
1070
     2
1070
     6
1000
EX_NORM
1070
     7
1000
EX_NORM
1070
    41
1040
30.0
1070
    42
1040
6.99999988079071
1070
    44
1040
10.0
1070
    73
1070
     0
1070
    74
1070
     0
1070
    75
1070
     1
1070
    76
1070
     0
1070
    77
1070
     1
1070
    78
1070
     8
1070
   140
1040
40.0
1070
   147
1040
0.0
1070
   173
1070
     1
1070
   176
1070
     3
1070
   177
1070
     3
1070
   178
1070
     2
1070
   271
1070
     1
1070
   277
1070
     2
1070
   279
1070
     2
1070
   280
1070
     0
1070
   287
1070
     5
1070
   340
1005
34A
1002
}
  0
DIMENSION
  5
37F
330
1F
100
AcDbEntity
  8
寸法
  6
CONTINUOUS
 62
     3
100
AcDbDimension
  2
*D19
 10
874.0036716000046
 20
1345.0
 30
0.0
 11
851.0036714808023
 21
1450.0
 31
0.0
 70
   160
  3
ISO-25
100
AcDbAlignedDimension
 13
795.998291
 23
1385.0
 33
0.0
 14
798.9987793000001
 24
1345.0
 34
0.0
 50
90.0
100
AcDbRotatedDimension
1001
ACAD
1000
DSTYLE
1002
{
1070
   270
1070
     2
1070
     6
1000
EX_NORM
1070
     7
1000
EX_NORM
1070
    41
1040
30.0
1070
    42
1040
6.99999988079071
1070
    44
1040
10.0
1070
    73
1070
     0
1070
    74
1070
     0
1070
    75
1070
     0
1070
    76
1070
     1
1070
    77
1070
     1
1070
    78
1070
     8
1070
   140
1040
40.0
1070
   147
1040
0.0
1070
   173
1070
     1
1070
   176
1070
     3
1070
   177
1070
     3
1070
   178
1070
     2
1070
   271
1070
     1
1070
   277
1070
     2
1070
   279
1070
     2
1070
   280
1070
     1
1070
   287
1070
     5
1070
   340
1005
34A
1002
}
  0
DIMENSION
  5
38D
330
1F
100
AcDbEntity
  8
寸法
  6
CONTINUOUS
 62
     3
100
AcDbDimension
  2
*D20
 10
814.0036716000001
 20
585.0000000000001
 30
0.0
 11
791.0036714807914
 21
834.9999999999998
 31
0.0
 70
   160
  3
ISO-25
100
AcDbAlignedDimension
 13
718.0999511999997
 23
1085.0
 33
0.0
 14
938.8990539756
 24
585.0
 34
0.0
 50
90.0
100
AcDbRotatedDimension
1001
ACAD
1000
DSTYLE
1002
{
1070
   270
1070
     2
1070
     6
1000
EX_NORM
1070
     7
1000
EX_NORM
1070
    41
1040
30.0
1070
    42
1040
6.99999988079071
1070
    44
1040
10.0
1070
    73
1070
     0
1070
    74
1070
     0
1070
    75
1070
     0
1070
    76
1070
     1
1070
    77
1070
     1
1070
    78
1070
     8
1070
   140
1040
40.0
1070
   147
1040
0.0
1070
   173
1070
     1
1070
   176
1070
     3
1070
   177
1070
     3
1070
   178
1070
     2
1070
   271
1070
     1
1070
   277
1070
     2
1070
   279
1070
     2
1070
   280
1070
     0
1070
   287
1070
     5
1070
   340
1005
34A
1002
}
  0
DIMENSION
  5
399
330
1F
100
AcDbEntity
  8
寸法
  6
CONTINUOUS
 62
     3
100
AcDbDimension
  2
*D21
 10
874.0036715999963
 20
585.0000000000001
 30
0.0
 11
851.0036714807882
 21
964.9999999999993
 31
0.0
 70
   160
  3
ISO-25
100
AcDbAlignedDimension
 13
798.9987793000001
 23
1345.0
 33
0.0
 14
998.8990539756
 24
585.0
 34
0.0
 50
90.0
100
AcDbRotatedDimension
1001
ACAD
1000
DSTYLE
1002
{
1070
   270
1070
     2
1070
     6
1000
EX_NORM
1070
     7
1000
EX_NORM
1070
    41
1040
30.0
1070
    42
1040
6.99999988079071
1070
    44
1040
10.0
1070
    73
1070
     0
1070
    74
1070
     0
1070
    75
1070
     0
1070
    76
1070
     1
1070
    77
1070
     1
1070
    78
1070
     8
1070
   140
1040
40.0
1070
   147
1040
0.0
1070
   173
1070
     1
1070
   176
1070
     3
1070
   177
1070
     3
1070
   178
1070
     2
1070
   271
1070
     1
1070
   277
1070
     2
1070
   279
1070
     2
1070
   280
1070
     0
1070
   287
1070
     5
1070
   340
1005
34A
1002
}
  0
DIMENSION
  5
3A5
330
1F
100
AcDbEntity
  8
寸法
  6
CONTINUOUS
 62
     3
100
AcDbDimension
  2
*D22
 10
1859.0
 20
585.0
 30
0.0
 11
1835.999999880791
 21
1039.999999999999
 31
0.0
 70
   160
  3
ISO-25
100
AcDbAlignedDimension
 13
1733.0
 23
1495.0
 33
0.0
 14
1719.0
 24
585.0
 34
0.0
 50
90.0
100
AcDbRotatedDimension
1001
ACAD
1000
DSTYLE
1002
{
1070
   270
1070
     2
1070
     6
1000
EX_NORM
1070
     7
1000
EX_NORM
1070
    41
1040
30.0
1070
    42
1040
12.5
1070
    44
1040
10.0
1070
    73
1070
     0
1070
    74
1070
     0
1070
    75
1070
     0
1070
    76
1070
     1
1070
    77
1070
     1
1070
    78
1070
     8
1070
   140
1040
40.0
1070
   147
1040
0.0
1070
   173
1070
     1
1070
   176
1070
     3
1070
   177
1070
     3
1070
   178
1070
     2
1070
   271
1070
     1
1070
   277
1070
     2
1070
   279
1070
     2
1070
   280
1070
     0
1070
   287
1070
     5
1070
   340
1005
34A
1002
}
  0
DIMENSION
  5
3B1
330
1F
100
AcDbEntity
  8
寸法
  6
CONTINUOUS
 62
     3
100
AcDbDimension
  2
*D23
 10
1799.0
 20
1365.0
 30
0.0
 11
1775.999999880791
 21
1450.0
 31
0.0
 70
   160
 53
90.00000000000001
  3
ISO-25
100
AcDbAlignedDimension
 13
1719.0
 23
1385.0
 33
0.0
 14
1745.9980075598
 24
1365.0
 34
0.0
 50
90.0
100
AcDbRotatedDimension
1001
ACAD
1000
DSTYLE
1002
{
1070
   270
1070
     2
1070
     6
1000
EX_NORM
1070
     7
1000
EX_NORM
1070
    41
1040
30.0
1070
    42
1040
6.99999988079071
1070
    44
1040
10.0
1070
    73
1070
     0
1070
    74
1070
     0
1070
    75
1070
     0
1070
    76
1070
     0
1070
    77
1070
     1
1070
    78
1070
     8
1070
   140
1040
40.0
1070
   147
1040
0.0
1070
   173
1070
     1
1070
   176
1070
     3
1070
   177
1070
     3
1070
   178
1070
     2
1070
   271
1070
     1
1070
   277
1070
     2
1070
   279
1070
     2
1070
   280
1070
     0
1070
   287
1070
     5
1070
   340
1005
34A
1002
}
  0
LEADER
  5
3C0
330
1F
100
AcDbEntity
  8
寸法
  6
CONTINUOUS
 62
     3
100
AcDbLeader
  3
ISO-25
 76
     3
 10
620.2490848100799
 20
1371.4967756834
 30
0.0
 10
531.1821825432297
 20
1525.7651756824
 30
0.0
 10
298.4812012000002
 20
1525.7651756824
 30
0.0
1001
ACAD
1000
DSTYLE
1002
{
1070
     5
1000
EX_NORM
1070
    41
1040
30.0
1070
   341
1005
4D
1002
}
  0
TEXT
  5
3C1
330
1F
100
AcDbEntity
  8
寸法
  6
CONTINUOUS
 62
     2
100
AcDbText
 10
305.4158547703104
 20
1529.265175622796
 30
0.0
 40
40.0
  1
ＮＴ７ＡＢＷ１
 41
0.9902439024390244
  7
EXCADSTD
 72
     5
 11
537.4158547703104
 21
1529.265175622796
 31
0.0
100
AcDbText
  0
POLYLINE
  5
3C2
330
1F
100
AcDbEntity
  8
寸法
  6
CONTINUOUS
 62
     3
100
AcDb2dPolyline
 66
     1
 10
0.0
 20
0.0
 30
0.0
 70
   128
  0
VERTEX
  5
3C3
330
3C2
100
AcDbEntity
  8
寸法
  6
CONTINUOUS
 62
     3
100
AcDbVertex
100
AcDb2dVertex
 10
1726.900000000001
 20
1097.5
 30
0.0
  0
VERTEX
  5
3C4
330
3C2
100
AcDbEntity
  8
寸法
  6
CONTINUOUS
 62
     3
100
AcDbVertex
100
AcDb2dVertex
 10
1756.5023033254
 20
1148.7726933807
 30
0.0
  0
VERTEX
  5
3C5
330
3C2
100
AcDbEntity
  8
寸法
  6
CONTINUOUS
 62
     3
100
AcDbVertex
100
AcDb2dVertex
 10
1848.937565763
 20
1148.7726933807
 30
0.0
  0
SEQEND
  5
3C6
330
3C2
100
AcDbEntity
  8
寸法
  6
CONTINUOUS
 62
     3
  0
LINE
  5
3C7
330
1F
100
AcDbEntity
  8
寸法
  6
CONTINUOUS
 62
     3
100
AcDbLine
 10
1737.569872981068
 20
1125.980762113537
 30
0.0
 11
1726.900000000001
 21
1097.5
 31
0.0
  0
LINE
  5
3C8
330
1F
100
AcDbEntity
  8
寸法
  6
CONTINUOUS
 62
     3
100
AcDbLine
 10
1726.900000000001
 20
1097.5
 30
0.0
 11
1746.230127018914
 21
1120.98076211354
 31
0.0
  0
TEXT
  5
3C9
330
1F
100
AcDbEntity
  8
寸法
  6
CONTINUOUS
 62
     2
100
AcDbText
 10
1756.5023033254
 20
1152.272693321095
 30
0.0
 40
40.0
  1
φ２５
 41
1.029411764705882
  7
EXCADSTD
 72
     5
 11
1856.5023033254
 21
1152.272693321095
 31
0.0
100
AcDbText
  0
TEXT
  5
3CA
330
1F
100
AcDbEntity
  8
寸法
  6
CONTINUOUS
 62
     2
100
AcDbText
 10
1300.298546894046
 20
787.5183367114056
 30
0.0
 40
40.0
  1
ＮＬ８１ＤＳ
  7
EXCADSTD
 72
     5
 11
1500.298546894046
 21
787.5183367114056
 31
0.0
100
AcDbText
  0
LEADER
  5
3CB
330
1F
100
AcDbEntity
  8
寸法
  6
CONTINUOUS
 62
     3
100
AcDbLeader
  3
ISO-25
 76
     3
 10
1575.29760745
 20
1085.188640174
 30
0.0
 10
1497.8721235694
 20
1129.8902641346
 30
0.0
 10
1298.0
 20
1129.8902641346
 30
0.0
1001
ACAD
1000
DSTYLE
1002
{
1070
     5
1000
EX_NORM
1070
    41
1040
30.0
1070
   341
1005
4D
1002
}
  0
TEXT
  5
3CC
330
1F
100
AcDbEntity
  8
寸法
  6
CONTINUOUS
 62
     2
100
AcDbText
 10
1297.872124165446
 20
1133.390264074995
 30
0.0
 40
40.0
  1
ＮＬ８１ＤＰ
  7
EXCADSTD
 72
     5
 11
1497.872124165446
 21
1133.390264074995
 31
0.0
100
AcDbText
  0
TEXT
  5
3CD
330
1F
100
AcDbEntity
  8
寸法
  6
CONTINUOUS
 62
     2
100
AcDbText
 10
1754.107943641
 20
1557.711181342396
 30
0.0
 40
40.0
  1
ＰＪ
 41
1.049923636363638
  7
EXCADSTD
 72
     5
 11
1820.103143641
 21
1557.711181342396
 31
0.0
100
AcDbText
  0
POLYLINE
  5
3CE
330
1F
100
AcDbEntity
  8
寸法
  6
CONTINUOUS
 62
     3
100
AcDb2dPolyline
 66
     1
 10
0.0
 20
0.0
 30
0.0
 70
   128
  0
VERTEX
  5
3CF
330
3CE
100
AcDbEntity
  8
寸法
  6
CONTINUOUS
 62
     3
100
AcDbVertex
100
AcDb2dVertex
 10
1725.971539565001
 20
1505.4775
 30
0.0
  0
VERTEX
  5
3D0
330
3CE
100
AcDbEntity
  8
寸法
  6
CONTINUOUS
 62
     3
100
AcDbVertex
100
AcDb2dVertex
 10
1754.107943641
 20
1554.211181402001
 30
0.0
  0
VERTEX
  5
3D1
330
3CE
100
AcDbEntity
  8
寸法
  6
CONTINUOUS
 62
     3
100
AcDbVertex
100
AcDb2dVertex
 10
1885.0
 20
1554.211181402001
 30
0.0
  0
SEQEND
  5
3D2
330
3CE
100
AcDbEntity
  8
寸法
  6
CONTINUOUS
 62
     3
  0
LINE
  5
3D3
330
1F
100
AcDbEntity
  8
寸法
  6
CONTINUOUS
 62
     3
100
AcDbLine
 10
1736.641412546058
 20
1533.958262113541
 30
0.0
 11
1725.971539565001
 21
1505.4775
 31
0.0
  0
LINE
  5
3D4
330
1F
100
AcDbEntity
  8
寸法
  6
CONTINUOUS
 62
     3
100
AcDbLine
 10
1725.971539565001
 20
1505.4775
 30
0.0
 11
1745.301666583906
 21
1528.958262113547
 31
0.0
  0
DIMENSION
  5
3D5
330
1F
100
AcDbEntity
  8
寸法
  6
CONTINUOUS
 62
     3
100
AcDbDimension
  2
*D24
 10
1719.0
 20
931.8963623000002
 30
0.0
 11
1653.9987793
 21
954.8963624192095
 31
0.0
 70
   160
  3
ISO-25
100
AcDbAlignedDimension
 13
1588.9975586
 23
988.4963623
 33
0.0
 14
1719.0
 24
931.8963623000002
 34
0.0
100
AcDbRotatedDimension
1001
ACAD
1000
DSTYLE
1002
{
1070
   270
1070
     2
1070
     6
1000
EX_NORM
1070
     7
1000
EX_NORM
1070
    41
1040
30.0
1070
    42
1040
0.0
1070
    44
1040
0.0
1070
    73
1070
     0
1070
    74
1070
     0
1070
    75
1070
     0
1070
    76
1070
     1
1070
    77
1070
     1
1070
    78
1070
     8
1070
   140
1040
40.0
1070
   147
1040
0.0
1070
   173
1070
     1
1070
   176
1070
     3
1070
   177
1070
     3
1070
   178
1070
     2
1070
   271
1070
     1
1070
   277
1070
     2
1070
   279
1070
     2
1070
   280
1070
     0
1070
   287
1070
     5
1070
   340
1005
34A
1002
}
  0
DIMENSION
  5
3E1
330
1F
100
AcDbEntity
  8
寸法
  6
CONTINUOUS
 62
     3
100
AcDbDimension
  2
*D25
 10
494.0012207000002
 20
1230.0
 30
0.0
 11
470.5012207596051
 21
1307.5
 31
0.0
 70
   160
  3
ISO-25
100
AcDbAlignedDimension
 13
561.9992675999999
 23
1385.0
 33
0.0
 14
651.2790527
 24
1230.0
 34
0.0
 50
90.0
100
AcDbRotatedDimension
1001
ACAD
1000
DSTYLE
1002
{
1070
   270
1070
     2
1070
     6
1000
EX_NORM
1070
     7
1000
EX_NORM
1070
    41
1040
30.0
1070
    42
1040
6.99999988079071
1070
    44
1040
10.0
1070
    73
1070
     0
1070
    74
1070
     0
1070
    75
1070
     0
1070
    76
1070
     0
1070
    77
1070
     1
1070
    78
1070
     0
1070
   140
1040
40.0
1070
   147
1040
0.0
1070
   173
1070
     1
1070
   176
1070
     3
1070
   177
1070
     3
1070
   178
1070
     2
1070
   271
1070
     0
1070
   277
1070
     2
1070
   279
1070
     2
1070
   280
1070
     0
1070
   287
1070
     5
1070
   340
1005
34A
1002
}
  0
DIMENSION
  5
3EE
330
1F
100
AcDbEntity
  8
寸法
  6
CONTINUOUS
 62
     3
100
AcDbDimension
  2
*D26
 10
1659.0
 20
505.0000000000001
 30
0.0
 11
1859.0
 21
528.4999999403936
 31
0.0
 70
   160
  1
60（床排水）
  3
ISO-25
100
AcDbAlignedDimension
 13
1719.0
 23
585.0
 33
0.0
 14
1659.0
 24
585.0
 34
0.0
100
AcDbRotatedDimension
1001
ACAD
1000
DSTYLE
1002
{
1070
   270
1070
     2
1070
     6
1000
EX_NORM
1070
     7
1000
EX_NORM
1070
    41
1040
30.0
1070
    42
1040
6.99999988079071
1070
    44
1040
10.0
1070
    73
1070
     0
1070
    74
1070
     0
1070
    75
1070
     0
1070
    76
1070
     0
1070
    77
1070
     1
1070
    78
1070
     0
1070
   140
1040
40.0
1070
   147
1040
0.0
1070
   173
1070
     1
1070
   176
1070
     3
1070
   177
1070
     3
1070
   178
1070
     2
1070
   271
1070
     0
1070
   277
1070
     2
1070
   279
1070
     2
1070
   280
1070
     1
1070
   287
1070
     5
1070
   340
1005
34A
1002
}
  0
LINE
  5
3FB
330
1F
100
AcDbEntity
  8
寸法
  6
CONTINUOUS
 62
     3
100
AcDbLine
 10
1729.0
 20
585.0000000000002
 30
0.0
 11
1875.8278503
 21
585.0000000000002
 31
0.0
  0
LINE
  5
3FC
330
1F
100
AcDbEntity
  8
寸法
  6
EXLTYPE3
 62
     6
100
AcDbLine
 10
1673.7
 20
1495.0
 30
0.0
 11
1742.8
 21
1495.0
 31
0.0
  0
LEADER
  5
3FD
330
1F
100
AcDbEntity
  8
寸法
  6
CONTINUOUS
 62
     3
100
AcDbLeader
  3
ISO-25
 76
     3
 10
1596.749953439394
 20
1479.103216519576
 30
0.0
 10
1497.8721235694
 20
1536.1903582119
 30
0.0
 10
1298.0
 20
1536.1903582119
 30
0.0
1001
ACAD
1000
DSTYLE
1002
{
1070
     5
1000
EX_NORM
1070
    41
1040
30.0
1070
   341
1005
4D
1002
}
  0
TEXT
  5
3FE
330
1F
100
AcDbEntity
  8
寸法
  6
CONTINUOUS
 62
     2
100
AcDbText
 10
1293.958413753
 20
1539.690358152296
 30
0.0
 40
40.0
  1
Ｙ４０Ｊ－１３
 41
0.9390243902439025
  7
EXCADSTD
 72
     5
 11
1513.958413753
 21
1539.690358152296
 31
0.0
100
AcDbText
  0
TEXT
  5
3FF
330
1F
100
AcDbEntity
  8
寸法
  6
CONTINUOUS
 62
     2
100
AcDbText
 10
1857.742800841
 20
1559.923004002
 30
0.0
 40
25.0
  1
２
 41
1.321599999999995
  7
EXCADSTD
 72
     5
 11
1881.342800841
 21
1559.923004002
 31
0.0
100
AcDbText
  0
TEXT
  5
400
330
1F
100
AcDbEntity
  8
寸法
  6
CONTINUOUS
 62
     2
100
AcDbText
 10
1822.044406041
 20
1571.822418002
 30
0.0
 40
25.0
  1
１
 41
1.321599999999995
  7
EXCADSTD
 72
     5
 11
1845.644406041
 21
1571.822418002
 31
0.0
100
AcDbText
  0
TEXT
  5
401
330
1F
100
AcDbEntity
  8
寸法
  6
CONTINUOUS
 62
     3
100
AcDbText
 10
1831.545443641
 20
1557.711242502
 30
0.0
 40
40.0
  1
／
 41
1.321599914550783
  7
EXCADSTD
 72
     5
 11
1869.305441199594
 21
1557.711242502
 31
0.0
100
AcDbText
  0
LEADER
  5
402
330
1F
100
AcDbEntity
  8
寸法
  6
CONTINUOUS
 62
     3
100
AcDbLeader
  3
ISO-25
 76
     3
 10
1646.5
 20
698.2079923047238
 30
0.0
 10
1497.8721235694
 20
784.0183367710102
 30
0.0
 10
1298.0
 20
784.0183367710102
 30
0.0
1001
ACAD
1000
DSTYLE
1002
{
1070
     5
1000
EX_NORM
1070
    41
1040
30.0
1070
   341
1005
4D
1002
}
  0
ENDSEC
  0
SECTION
  2
OBJECTS
  0
DICTIONARY
  5
C
330
0
100
AcDbDictionary
  3
ACAD_GROUP
350
D
  3
ACAD_LAYOUT
350
1A
  3
ACAD_MATERIAL
350
3B
  3
ACAD_MLEADERSTYLE
350
425
  3
ACAD_MLINESTYLE
350
17
  3
ACAD_PLOTSETTINGS
350
19
  3
ACAD_VISUALSTYLE
350
2A
  3
ACDBHEADERROUNDTRIPXREC
350
403
  3
ACDBVARIABLEDICTIONARY
350
423
  0
DICTIONARY
  5
D
102
{ACAD_REACTORS
330
C
102
}
330
C
100
AcDbDictionary
  0
DICTIONARY
  5
1A
102
{ACAD_REACTORS
330
C
102
}
330
C
100
AcDbDictionary
  0
DICTIONARY
  5
3B
102
{ACAD_REACTORS
330
C
102
}
330
C
100
AcDbDictionary
  3
BYBLOCK
350
3D
  3
BYLAYER
350
3C
  3
GLOBAL
350
3E
  0
DICTIONARY
  5
425
102
{ACAD_REACTORS
330
C
102
}
330
C
100
AcDbDictionary
  0
DICTIONARY
  5
17
102
{ACAD_REACTORS
330
C
102
}
330
C
100
AcDbDictionary
  3
STANDARD
350
18
  0
DICTIONARY
  5
19
102
{ACAD_REACTORS
330
C
102
}
330
C
100
AcDbDictionary
  0
DICTIONARY
  5
2A
102
{ACAD_REACTORS
330
C
102
}
330
C
100
AcDbDictionary
  3
2DWIREFRAME
350
2F
  3
3D_HIDDEN
350
31
  3
3DWIREFRAME
350
30
  3
BASIC
350
32
  3
BRIGHTEN
350
36
  3
COLORCHANGE
350
3A
  3
CONCEPTUAL
350
34
  3
DIM
350
35
  3
FACEPATTERN
350
39
  3
FLAT
350
2B
  3
FLATWITHEDGES
350
2C
  3
GOURAUD
350
2D
  3
GOURAUDWITHEDGES
350
2E
  3
LINEPATTERN
350
38
  3
REALISTIC
350
33
  3
THICKEN
350
37
  0
DICTIONARY
  5
403
102
{ACAD_REACTORS
330
C
102
}
330
C
100
AcDbDictionary
  3
CEPSNTYPE
350
40C
  3
DIMSTYLEDATA
350
422
  3
FINGERPRINTGUID
350
40D
  3
HYPERLINKBASE
350
406
  3
INSUNITS
350
40B
  3
LAYOUTDICT
350
408
  3
LWETCUNION
350
40A
  3
PLOTSETDICT
350
409
  3
PSVPSCALE
350
40F
  3
PUCSBASE
350
412
  3
PUCSORGBACK
350
418
  3
PUCSORGBOTTOM
350
414
  3
PUCSORGFRONT
350
417
  3
PUCSORGLEFT
350
415
  3
PUCSORGRIGHT
350
416
  3
PUCSORGTOP
350
413
  3
PUCSORTHOREF
350
410
  3
PUCSORTHOVIEW
350
411
  3
STYLESHEET
350
407
  3
TSTACKALIGN
350
404
  3
TSTACKSIZE
350
405
  3
UCSBASE
350
41B
  3
UCSORGBACK
350
421
  3
UCSORGBOTTOM
350
41D
  3
UCSORGFRONT
350
420
  3
UCSORGLEFT
350
41E
  3
UCSORGRIGHT
350
41F
  3
UCSORGTOP
350
41C
  3
UCSORTHOREF
350
419
  3
UCSORTHOVIEW
350
41A
  3
VERSIONGUID
350
40E
  0
DICTIONARY
  5
423
102
{ACAD_REACTORS
330
C
102
}
330
C
100
AcDbDictionary
  3
DIMASSOC
350
428
  3
HIDETEXT
350
429
  3
PSOLHEIGHT
350
427
  3
PSOLWIDTH
350
426
  0
MATERIAL
  5
3D
102
{ACAD_REACTORS
330
3B
102
}
102
{ACAD_XDICTIONARY
360
42C
102
}
330
3B
100
AcDbMaterial
  1
ByBlock
  0
MATERIAL
  5
3C
102
{ACAD_REACTORS
330
3B
102
}
102
{ACAD_XDICTIONARY
360
42A
102
}
330
3B
100
AcDbMaterial
  1
ByLayer
  0
MATERIAL
  5
3E
102
{ACAD_REACTORS
330
3B
102
}
102
{ACAD_XDICTIONARY
360
42E
102
}
330
3B
100
AcDbMaterial
  1
Global
  0
MLINESTYLE
  5
18
102
{ACAD_REACTORS
330
17
102
}
330
17
100
AcDbMlineStyle
  2
Standard
 70
     0
  3

 62
   256
 51
90.0
 52
90.0
 71
     2
 49
0.5
 62
   256
  6
BYLAYER
 49
-0.5
 62
   256
  6
BYLAYER
  0
ACAD_PROXY_OBJECT
  5
2F
102
{ACAD_REACTORS
330
2A
102
}
330
2A
100
AcDbProxyObject
 90
      499
 91
      501
 93
      436
310
42CC9915DA5C99599C985B595049028333333333333E3BF0000000000000FB0107901411070040501600405405064090741402480A0340
1001
ACAD
1000
AcDbSavedByObjectVersion
1070
     0
  0
ACAD_PROXY_OBJECT
  5
31
102
{ACAD_REACTORS
330
2A
102
}
330
2A
100
AcDbProxyObject
 90
      499
 91
      501
 93
      500
310
424CD108121A5919195B90640502408333333333333E3BF0000000000000FB01079024090700405020000000000001110200405405064090740C02480A0340
1001
ACAD
1000
AcDbSavedByObjectVersion
1070
     0
  0
ACAD_PROXY_OBJECT
  5
30
102
{ACAD_REACTORS
330
2A
102
}
330
2A
100
AcDbProxyObject
 90
      499
 91
      501
 93
      436
310
42CCD915DA5C99599C985B595059028333333333333E3BF0000000000000FB0107901411070040501600405405064090741402480A0340
1001
ACAD
1000
AcDbSavedByObjectVersion
1070
     0
  0
ACAD_PROXY_OBJECT
  5
32
102
{ACAD_REACTORS
330
2A
102
}
330
2A
100
AcDbProxyObject
 90
      499
 91
      501
 93
      388
310
4150985CDA58D07406404333333333333E3BF0000000000000FB0107A41107004050150841D405064090741402480A0350
1001
ACAD
1000
AcDbSavedByObjectVersion
1070
     0
  0
ACAD_PROXY_OBJECT
  5
36
102
{ACAD_REACTORS
330
2A
102
}
330
2A
100
AcDbProxyObject
 90
      499
 91
      501
 93
      428
310
42109C9A59DA1D195B90C409028333333333333E3BF0000000000000FB010790141107004050150841D405064090741402480A029950
1001
ACAD
1000
AcDbSavedByObjectVersion
1070
     0
  0
ACAD_PROXY_OBJECT
  5
3A
102
{ACAD_REACTORS
330
2A
102
}
330
2A
100
AcDbProxyObject
 90
      499
 91
      501
 93
      452
310
42D0DBDB1BDC90DA185B99D95104090240C333333333333E3BF0000000000000FB0108901411070040501508421405064090741402480A0350
1001
ACAD
1000
AcDbSavedByObjectVersion
1070
     0
  0
ACAD_PROXY_OBJECT
  5
34
102
{ACAD_REACTORS
330
2A
102
}
330
2A
100
AcDbProxyObject
 90
      499
 91
      501
 93
      500
310
4290DBDB98D95C1D1D585B10940D028333333333333E3BF0000000000000FB0107902409070040501000000000000111010841D405064090740C02480A0340
1001
ACAD
1000
AcDbSavedByObjectVersion
1070
     0
  0
ACAD_PROXY_OBJECT
  5
35
102
{ACAD_REACTORS
330
2A
102
}
330
2A
100
AcDbProxyObject
 90
      499
 91
      501
 93
      412
310
40D11A5B50B409028333333333333E3BF0000000000000FB010790141107004050150841D405064090741402480A02677FFFFFD0
1001
ACAD
1000
AcDbSavedByObjectVersion
1070
     0
  0
ACAD_PROXY_OBJECT
  5
39
102
{ACAD_REACTORS
330
2A
102
}
330
2A
100
AcDbProxyObject
 90
      499
 91
      501
 93
      444
310
42D19858D95C185D1D195C9B90F409028333333333333E3BF0000000000000FB010790141107004050150841D405064090741402480A0350
1001
ACAD
1000
AcDbSavedByObjectVersion
1070
     0
  0
ACAD_PROXY_OBJECT
  5
2B
102
{ACAD_REACTORS
330
2A
102
}
330
2A
100
AcDbProxyObject
 90
      499
 91
      501
 93
      388
310
41119B185D240901404333333333333E3BF0000000000000F9010740A41107004050150841D405064090741402480A1B50
1001
ACAD
1000
AcDbSavedByObjectVersion
1070
     0
  0
ACAD_PROXY_OBJECT
  5
2C
102
{ACAD_REACTORS
330
2A
102
}
330
2A
100
AcDbProxyObject
 90
      499
 91
      501
 93
      476
310
43519B185D15DA5D1A115919D95CD0140901404333333333333E3BF0000000000000F9010740901411070040501600405405064090741402480A1B50
1001
ACAD
1000
AcDbSavedByObjectVersion
1070
     0
  0
ACAD_PROXY_OBJECT
  5
2D
102
{ACAD_REACTORS
330
2A
102
}
330
2A
100
AcDbProxyObject
 90
      499
 91
      501
 93
      412
310
41D1DBDD5C985D5910240902404333333333333E3BF0000000000000F9010740A411070040501641D405064090741402480A1B50
1001
ACAD
1000
AcDbSavedByObjectVersion
1070
     0
  0
ACAD_PROXY_OBJECT
  5
2E
102
{ACAD_REACTORS
330
2A
102
}
330
2A
100
AcDbProxyObject
 90
      499
 91
      501
 93
      500
310
4411DBDD5C985D5915DA5D1A115919D95CD0340902404333333333333E3BF0000000000000F9010740901411070040501600405405064090741402480A1B50
1001
ACAD
1000
AcDbSavedByObjectVersion
1070
     0
  0
ACAD_PROXY_OBJECT
  5
38
102
{ACAD_REACTORS
330
2A
102
}
330
2A
100
AcDbProxyObject
 90
      499
 91
      501
 93
      444
310
42D31A5B995C185D1D195C9B90E409028333333333333E3BF0000000000000FB010790141107004050750841D405064090741402483A0350
1001
ACAD
1000
AcDbSavedByObjectVersion
1070
     0
  0
ACAD_PROXY_OBJECT
  5
33
102
{ACAD_REACTORS
330
2A
102
}
330
2A
100
AcDbProxyObject
 90
      499
 91
      501
 93
      420
310
425499585B1A5CDD1A58D08409028333333333333E3BF0000000000000FB01079019070040501508421405064090741402480A1B40
1001
ACAD
1000
AcDbSavedByObjectVersion
1070
     0
  0
ACAD_PROXY_OBJECT
  5
37
102
{ACAD_REACTORS
330
2A
102
}
330
2A
100
AcDbProxyObject
 90
      499
 91
      501
 93
      412
310
41D51A1A58DAD95B90D409028333333333333E3BF0000000000000FB010790141107004050150C41D405064090741402480A0350
1001
ACAD
1000
AcDbSavedByObjectVersion
1070
     0
  0
XRECORD
  5
40C
102
{ACAD_REACTORS
330
403
102
}
330
403
100
AcDbXrecord
 90
        0
  0
XRECORD
  5
422
102
{ACAD_REACTORS
330
403
102
}
330
403
100
AcDbXrecord
1000
DSTYLE
1002
{
1070
   340
340
11
1002
}
  0
XRECORD
  5
40D
102
{ACAD_REACTORS
330
403
102
}
330
403
100
AcDbXrecord
  1
{CBEA5FE5-7ED4-4549-8480-4674FD7DEA6B}
  0
XRECORD
  5
406
102
{ACAD_REACTORS
330
403
102
}
330
403
100
AcDbXrecord
  1

  0
XRECORD
  5
40B
102
{ACAD_REACTORS
330
403
102
}
330
403
100
AcDbXrecord
 90
        4
  0
XRECORD
  5
408
102
{ACAD_REACTORS
330
403
102
}
330
403
100
AcDbXrecord
340
1A
  0
XRECORD
  5
40A
102
{ACAD_REACTORS
330
403
102
}
330
403
100
AcDbXrecord
 90
    10781
  0
XRECORD
  5
409
102
{ACAD_REACTORS
330
403
102
}
330
403
100
AcDbXrecord
340
19
  0
XRECORD
  5
40F
102
{ACAD_REACTORS
330
403
102
}
330
403
100
AcDbXrecord
 40
0.0
  0
XRECORD
  5
412
102
{ACAD_REACTORS
330
403
102
}
330
403
100
AcDbXrecord
340
0
  0
XRECORD
  5
418
102
{ACAD_REACTORS
330
403
102
}
330
403
100
AcDbXrecord
 10
0.0
 20
0.0
 30
0.0
  0
XRECORD
  5
414
102
{ACAD_REACTORS
330
403
102
}
330
403
100
AcDbXrecord
 10
0.0
 20
0.0
 30
0.0
  0
XRECORD
  5
417
102
{ACAD_REACTORS
330
403
102
}
330
403
100
AcDbXrecord
 10
0.0
 20
0.0
 30
0.0
  0
XRECORD
  5
415
102
{ACAD_REACTORS
330
403
102
}
330
403
100
AcDbXrecord
 10
0.0
 20
0.0
 30
0.0
  0
XRECORD
  5
416
102
{ACAD_REACTORS
330
403
102
}
330
403
100
AcDbXrecord
 10
0.0
 20
0.0
 30
0.0
  0
XRECORD
  5
413
102
{ACAD_REACTORS
330
403
102
}
330
403
100
AcDbXrecord
 10
0.0
 20
0.0
 30
0.0
  0
XRECORD
  5
410
102
{ACAD_REACTORS
330
403
102
}
330
403
100
AcDbXrecord
340
0
  0
XRECORD
  5
411
102
{ACAD_REACTORS
330
403
102
}
330
403
100
AcDbXrecord
 70
     0
  0
XRECORD
  5
407
102
{ACAD_REACTORS
330
403
102
}
330
403
100
AcDbXrecord
  1

  0
XRECORD
  5
404
102
{ACAD_REACTORS
330
403
102
}
330
403
100
AcDbXrecord
 90
        1
  0
XRECORD
  5
405
102
{ACAD_REACTORS
330
403
102
}
330
403
100
AcDbXrecord
 90
       70
  0
XRECORD
  5
41B
102
{ACAD_REACTORS
330
403
102
}
330
403
100
AcDbXrecord
340
0
  0
XRECORD
  5
421
102
{ACAD_REACTORS
330
403
102
}
330
403
100
AcDbXrecord
 10
0.0
 20
0.0
 30
0.0
  0
XRECORD
  5
41D
102
{ACAD_REACTORS
330
403
102
}
330
403
100
AcDbXrecord
 10
0.0
 20
0.0
 30
0.0
  0
XRECORD
  5
420
102
{ACAD_REACTORS
330
403
102
}
330
403
100
AcDbXrecord
 10
0.0
 20
0.0
 30
0.0
  0
XRECORD
  5
41E
102
{ACAD_REACTORS
330
403
102
}
330
403
100
AcDbXrecord
 10
0.0
 20
0.0
 30
0.0
  0
XRECORD
  5
41F
102
{ACAD_REACTORS
330
403
102
}
330
403
100
AcDbXrecord
 10
0.0
 20
0.0
 30
0.0
  0
XRECORD
  5
41C
102
{ACAD_REACTORS
330
403
102
}
330
403
100
AcDbXrecord
 10
0.0
 20
0.0
 30
0.0
  0
XRECORD
  5
419
102
{ACAD_REACTORS
330
403
102
}
330
403
100
AcDbXrecord
340
0
  0
XRECORD
  5
41A
102
{ACAD_REACTORS
330
403
102
}
330
403
100
AcDbXrecord
 70
     0
  0
XRECORD
  5
40E
102
{ACAD_REACTORS
330
403
102
}
330
403
100
AcDbXrecord
  1
{FAEB1C32-E019-11D5-929B-00C0DF256EC4}
  0
DICTIONARYVAR
  5
428
102
{ACAD_REACTORS
330
423
102
}
330
423
100
DictionaryVariables
280
     0
  1
2
  0
DICTIONARYVAR
  5
429
102
{ACAD_REACTORS
330
423
102
}
330
423
100
DictionaryVariables
280
     0
  1
1
  0
DICTIONARYVAR
  5
427
102
{ACAD_REACTORS
330
423
102
}
330
423
100
DictionaryVariables
280
     0
  1
80.000000
  0
DICTIONARYVAR
  5
426
102
{ACAD_REACTORS
330
423
102
}
330
423
100
DictionaryVariables
280
     0
  1
5.000000
  0
DICTIONARY
  5
42C
330
3D
100
AcDbDictionary
280
     1
  3
ACAD_XREC_ROUNDTRIP
360
42D
  0
DICTIONARY
  5
42A
330
3C
100
AcDbDictionary
280
     1
  3
ACAD_XREC_ROUNDTRIP
360
42B
  0
DICTIONARY
  5
42E
330
3E
100
AcDbDictionary
280
     1
  3
ACAD_XREC_ROUNDTRIP
360
42F
  0
XRECORD
  5
42D
102
{ACAD_REACTORS
330
42C
102
}
330
42C
100
AcDbXrecord
102
MATERIAL
148
0.0
149
0.0
149
0.0
 93
        0
 94
      127
282
     0
 72
     1
 77
     1
171
     1
175
     1
179
     1
273
     0
  0
XRECORD
  5
42B
102
{ACAD_REACTORS
330
42A
102
}
330
42A
100
AcDbXrecord
102
MATERIAL
148
0.0
149
0.0
149
0.0
 93
        0
 94
      127
282
     0
 72
     1
 77
     1
171
     1
175
     1
179
     1
273
     0
  0
XRECORD
  5
42F
102
{ACAD_REACTORS
330
42E
102
}
330
42E
100
AcDbXrecord
102
MATERIAL
148
0.0
149
0.0
149
0.0
 93
        0
 94
      127
282
     0
 72
     1
 77
     1
171
     1
175
     1
179
     1
273
     0
  0
ENDSEC
  0
EOF
