  0
SECTION
  2
HEADER
  9
$ACADVER
  1
AC1014
  9
$ACADMAINTVER
 70
     9
  9
$DWGCODEPAGE
  3
ANSI_932
  9
$INSBASE
 10
0.0
 20
0.0
 30
0.0
  9
$EXTMIN
 10
17.39999999999998
 20
9.299999999999955
 30
0.0
  9
$EXTMAX
 10
199.4000000000002
 20
289.3
 30
0.0
  9
$LIMMIN
 10
0.0
 20
0.0
  9
$LIMMAX
 10
210.0
 20
297.0
  9
$ORTHOMODE
 70
     0
  9
$REGENMODE
 70
     1
  9
$FILLMODE
 70
     1
  9
$QTEXTMODE
 70
     0
  9
$MIRRTEXT
 70
     1
  9
$DRAGMODE
 70
     2
  9
$LTSCALE
 40
1.0
  9
$OSMODE
 70
    37
  9
$ATTMODE
 70
     1
  9
$TEXTSIZE
 40
2.5
  9
$TRACEWID
 40
1.0
  9
$TEXTSTYLE
  7
STANDARD
  9
$CLAYER
  8
化粧台
  9
$CELTYPE
  6
BYLAYER
  9
$CECOLOR
 62
   256
  9
$CELTSCALE
 40
1.0
  9
$DELOBJ
 70
     1
  9
$DISPSILH
 70
     0
  9
$DIMSCALE
 40
1.0
  9
$DIMASZ
 40
2.5
  9
$DIMEXO
 40
0.625
  9
$DIMDLI
 40
3.75
  9
$DIMRND
 40
0.0
  9
$DIMDLE
 40
0.0
  9
$DIMEXE
 40
1.25
  9
$DIMTP
 40
0.0
  9
$DIMTM
 40
0.0
  9
$DIMTXT
 40
2.5
  9
$DIMCEN
 40
2.5
  9
$DIMTSZ
 40
0.0
  9
$DIMTOL
 70
     0
  9
$DIMLIM
 70
     0
  9
$DIMTIH
 70
     0
  9
$DIMTOH
 70
     0
  9
$DIMSE1
 70
     0
  9
$DIMSE2
 70
     0
  9
$DIMTAD
 70
     1
  9
$DIMZIN
 70
     8
  9
$DIMBLK
  1

  9
$DIMASO
 70
     1
  9
$DIMSHO
 70
     1
  9
$DIMPOST
  1

  9
$DIMAPOST
  1

  9
$DIMALT
 70
     0
  9
$DIMALTD
 70
     3
  9
$DIMALTF
 40
0.03937007874016
  9
$DIMLFAC
 40
1.0
  9
$DIMTOFL
 70
     1
  9
$DIMTVP
 40
0.0
  9
$DIMTIX
 70
     0
  9
$DIMSOXD
 70
     0
  9
$DIMSAH
 70
     0
  9
$DIMBLK1
  1

  9
$DIMBLK2
  1

  9
$DIMSTYLE
  2
ISO-25
  9
$DIMCLRD
 70
     0
  9
$DIMCLRE
 70
     0
  9
$DIMCLRT
 70
     0
  9
$DIMTFAC
 40
1.0
  9
$DIMGAP
 40
0.625
  9
$DIMJUST
 70
     0
  9
$DIMSD1
 70
     0
  9
$DIMSD2
 70
     0
  9
$DIMTOLJ
 70
     0
  9
$DIMTZIN
 70
     8
  9
$DIMALTZ
 70
     0
  9
$DIMALTTZ
 70
     0
  9
$DIMFIT
 70
     3
  9
$DIMUPT
 70
     0
  9
$DIMUNIT
 70
     2
  9
$DIMDEC
 70
     2
  9
$DIMTDEC
 70
     2
  9
$DIMALTU
 70
     2
  9
$DIMALTTD
 70
     3
  9
$DIMTXSTY
  7
STANDARD
  9
$DIMAUNIT
 70
     0
  9
$LUNITS
 70
     2
  9
$LUPREC
 70
     4
  9
$SKETCHINC
 40
1.0
  9
$FILLETRAD
 40
10.0
  9
$AUNITS
 70
     0
  9
$AUPREC
 70
     0
  9
$MENU
  1
.
  9
$ELEVATION
 40
0.0
  9
$PELEVATION
 40
0.0
  9
$THICKNESS
 40
0.0
  9
$LIMCHECK
 70
     0
  9
$CHAMFERA
 40
10.0
  9
$CHAMFERB
 40
10.0
  9
$CHAMFERC
 40
20.0
  9
$CHAMFERD
 40
0.0
  9
$SKPOLY
 70
     0
  9
$TDCREATE
 40
2460073.423294502
  9
$TDUPDATE
 40
2460073.423294734
  9
$TDINDWG
 40
0.0000000116
  9
$TDUSRTIMER
 40
0.0000000116
  9
$USRTIMER
 70
     1
  9
$ANGBASE
 50
0.0
  9
$ANGDIR
 70
     0
  9
$PDMODE
 70
     0
  9
$PDSIZE
 40
0.0
  9
$PLINEWID
 40
0.0
  9
$COORDS
 70
     1
  9
$SPLFRAME
 70
     0
  9
$SPLINETYPE
 70
     6
  9
$SPLINESEGS
 70
     8
  9
$ATTDIA
 70
     0
  9
$ATTREQ
 70
     1
  9
$HANDLING
 70
     1
  9
$HANDSEED
  5
37E
  9
$SURFTAB1
 70
     6
  9
$SURFTAB2
 70
     6
  9
$SURFTYPE
 70
     6
  9
$SURFU
 70
     6
  9
$SURFV
 70
     6
  9
$UCSNAME
  2

  9
$UCSORG
 10
0.0
 20
0.0
 30
0.0
  9
$UCSXDIR
 10
1.0
 20
0.0
 30
0.0
  9
$UCSYDIR
 10
0.0
 20
1.0
 30
0.0
  9
$PUCSNAME
  2

  9
$PUCSORG
 10
0.0
 20
0.0
 30
0.0
  9
$PUCSXDIR
 10
1.0
 20
0.0
 30
0.0
  9
$PUCSYDIR
 10
0.0
 20
1.0
 30
0.0
  9
$USERI1
 70
     0
  9
$USERI2
 70
     0
  9
$USERI3
 70
     0
  9
$USERI4
 70
     0
  9
$USERI5
 70
     0
  9
$USERR1
 40
0.0
  9
$USERR2
 40
0.0
  9
$USERR3
 40
0.0
  9
$USERR4
 40
0.0
  9
$USERR5
 40
0.0
  9
$WORLDVIEW
 70
     1
  9
$SHADEDGE
 70
     3
  9
$SHADEDIF
 70
    70
  9
$TILEMODE
 70
     1
  9
$MAXACTVP
 70
    64
  9
$PINSBASE
 10
0.0
 20
0.0
 30
0.0
  9
$PLIMCHECK
 70
     0
  9
$PEXTMIN
 10
1.000000000000000E+20
 20
1.000000000000000E+20
 30
1.000000000000000E+20
  9
$PEXTMAX
 10
-1.000000000000000E+20
 20
-1.000000000000000E+20
 30
-1.000000000000000E+20
  9
$PLIMMIN
 10
0.0
 20
0.0
  9
$PLIMMAX
 10
420.0
 20
297.0
  9
$UNITMODE
 70
     0
  9
$VISRETAIN
 70
     1
  9
$PLINEGEN
 70
     0
  9
$PSLTSCALE
 70
     1
  9
$TREEDEPTH
 70
  3020
  9
$PICKSTYLE
 70
     1
  9
$CMLSTYLE
  2
STANDARD
  9
$CMLJUST
 70
     0
  9
$CMLSCALE
 40
20.0
  9
$PROXYGRAPHICS
 70
     1
  9
$MEASUREMENT
 70
     1
  0
ENDSEC
  0
SECTION
  2
CLASSES
  0
CLASS
  1
ACDBDICTIONARYWDFLT
  2
AcDbDictionaryWithDefault
  3
ObjectDBX Classes
 90
        0
280
     0
281
     0
  0
CLASS
  1
VISUALSTYLE
  2
AcDbVisualStyle
  3
ObjectDBX Classes
 90
     4095
280
     0
281
     0
  0
CLASS
  1
MATERIAL
  2
AcDbMaterial
  3
ObjectDBX Classes
 90
     1153
280
     0
281
     0
  0
CLASS
  1
SUN
  2
AcDbSun
  3
SCENEOE
 90
     1024
280
     0
281
     0
  0
CLASS
  1
DICTIONARYVAR
  2
AcDbDictionaryVar
  3
ObjectDBX Classes
 90
        0
280
     0
281
     0
  0
CLASS
  1
XRECORD
  2
AcDbXrecord
  3
AutoCAD 2000
 90
        0
280
     0
281
     0
  0
CLASS
  1
LWPOLYLINE
  2
AcDbPolyline
  3
AutoCAD 2000
 90
        0
280
     0
281
     1
  0
CLASS
  1
HATCH
  2
AcDbHatch
  3
AutoCAD 2000
 90
        0
280
     0
281
     1
  0
CLASS
  1
ACDBPLACEHOLDER
  2
AcDbPlaceHolder
  3
ObjectDBX Classes
 90
        0
280
     0
281
     0
  0
CLASS
  1
LAYOUT
  2
AcDbLayout
  3
ObjectDBX Classes
 90
        0
280
     0
281
     0
  0
ENDSEC
  0
SECTION
  2
TABLES
  0
TABLE
  2
VPORT
  5
8
330
0
100
AcDbSymbolTable
 70
     1
  0
VPORT
  5
29
330
8
100
AcDbSymbolTableRecord
100
AcDbViewportTableRecord
  2
*ACTIVE
 70
     0
 10
0.0
 20
0.0
 11
1.0
 21
1.0
 12
1084.000000000001
 22
1493.0
 13
0.0
 23
0.0
 14
10.0
 24
10.0
 15
10.0
 25
10.0
 16
0.0
 26
0.0
 36
1.0
 17
0.0
 27
0.0
 37
0.0
 40
2800.0
 41
0.6500000000000009
 42
50.0
 43
0.0
 44
0.0
 50
0.0
 51
0.0
 71
     0
 72
  1000
 73
     1
 74
     3
 75
     0
 76
     0
 77
     0
 78
     0
  0
ENDTAB
  0
TABLE
  2
LTYPE
  5
5
330
0
100
AcDbSymbolTable
 70
     7
  0
LTYPE
  5
14
330
5
100
AcDbSymbolTableRecord
100
AcDbLinetypeTableRecord
  2
BYBLOCK
 70
     0
  3

 72
    65
 73
     0
 40
0.0
  0
LTYPE
  5
15
330
5
100
AcDbSymbolTableRecord
100
AcDbLinetypeTableRecord
  2
BYLAYER
 70
     0
  3

 72
    65
 73
     0
 40
0.0
  0
LTYPE
  5
16
330
5
100
AcDbSymbolTableRecord
100
AcDbLinetypeTableRecord
  2
CONTINUOUS
 70
     0
  3
Solid line
 72
    65
 73
     0
 40
0.0
  0
LTYPE
  5
40
330
5
100
AcDbSymbolTableRecord
100
AcDbLinetypeTableRecord
  2
EXLTYPE1
 70
     0
  3
破線
 72
    65
 73
     2
 40
3.0
 49
2.0
 74
     0
 49
-1.0
 74
     0
  0
LTYPE
  5
41
330
5
100
AcDbSymbolTableRecord
100
AcDbLinetypeTableRecord
  2
EXLTYPE2
 70
     0
  3
点線
 72
    65
 73
     2
 40
2.0
 49
1.0
 74
     0
 49
-1.0
 74
     0
  0
LTYPE
  5
42
330
5
100
AcDbSymbolTableRecord
100
AcDbLinetypeTableRecord
  2
EXLTYPE3
 70
     0
  3
一点鎖線
 72
    65
 73
     4
 40
10.0
 49
7.0
 74
     0
 49
-1.0
 74
     0
 49
1.0
 74
     0
 49
-1.0
 74
     0
  0
LTYPE
  5
43
330
5
100
AcDbSymbolTableRecord
100
AcDbLinetypeTableRecord
  2
EXLTYPE4
 70
     0
  3
二点鎖線
 72
    65
 73
     6
 40
12.0
 49
7.0
 74
     0
 49
-1.0
 74
     0
 49
1.0
 74
     0
 49
-1.0
 74
     0
 49
1.0
 74
     0
 49
-1.0
 74
     0
  0
LTYPE
  5
44
330
5
100
AcDbSymbolTableRecord
100
AcDbLinetypeTableRecord
  2
EXLTYPE5
 70
     0
  3
三点鎖線
 72
    65
 73
     8
 40
37.0
 49
30.0
 74
     0
 49
-1.0
 74
     0
 49
1.0
 74
     0
 49
-1.0
 74
     0
 49
1.0
 74
     0
 49
-1.0
 74
     0
 49
1.0
 74
     0
 49
-1.0
 74
     0
  0
LTYPE
  5
45
330
5
100
AcDbSymbolTableRecord
100
AcDbLinetypeTableRecord
  2
EXLTYPE6
 70
     0
  3
四点鎖線
 72
    65
 73
    10
 40
39.0
 49
30.0
 74
     0
 49
-1.0
 74
     0
 49
1.0
 74
     0
 49
-1.0
 74
     0
 49
1.0
 74
     0
 49
-1.0
 74
     0
 49
1.0
 74
     0
 49
-1.0
 74
     0
 49
1.0
 74
     0
 49
-1.0
 74
     0
  0
ENDTAB
  0
TABLE
  2
LAYER
  5
2
330
0
100
AcDbSymbolTable
 70
     7
  0
LAYER
  5
10
330
2
100
AcDbSymbolTableRecord
100
AcDbLayerTableRecord
  2
0
 70
     0
 62
     7
  6
CONTINUOUS
  0
LAYER
  5
48
330
2
100
AcDbSymbolTableRecord
100
AcDbLayerTableRecord
  2
枠_表
 70
     0
 62
     7
  6
CONTINUOUS
  0
LAYER
  5
49
330
2
100
AcDbSymbolTableRecord
100
AcDbLayerTableRecord
  2
化粧台
 70
     0
 62
     7
  6
CONTINUOUS
  0
LAYER
  5
4A
330
2
100
AcDbSymbolTableRecord
100
AcDbLayerTableRecord
  2
鏡台
 70
     0
 62
     7
  6
CONTINUOUS
  0
LAYER
  5
4B
330
2
100
AcDbSymbolTableRecord
100
AcDbLayerTableRecord
  2
付属金具
 70
     0
 62
     7
  6
CONTINUOUS
  0
LAYER
  5
4C
330
2
100
AcDbSymbolTableRecord
100
AcDbLayerTableRecord
  2
寸法
 70
     0
 62
     7
  6
CONTINUOUS
  0
LAYER
  5
27B
330
2
100
AcDbSymbolTableRecord
100
AcDbLayerTableRecord
  2
DEFPOINTS
 70
     0
 62
     7
  6
CONTINUOUS
  0
ENDTAB
  0
TABLE
  2
STYLE
  5
3
330
0
100
AcDbSymbolTable
 70
     5
  0
STYLE
  5
11
330
3
100
AcDbSymbolTableRecord
100
AcDbTextStyleTableRecord
  2
STANDARD
 70
     0
 40
0.0
 41
1.0
 50
0.0
 71
     0
 42
2.5
  3
monotxt
  4
extfont
  0
STYLE
  5
46
330
3
100
AcDbSymbolTableRecord
100
AcDbTextStyleTableRecord
  2
EXCADSTD
 70
     0
 40
0.0
 41
1.0
 50
0.0
 71
     0
 42
0.2
  3
monotxt
  4
extfont
  0
STYLE
  5
47
330
3
100
AcDbSymbolTableRecord
100
AcDbTextStyleTableRecord
  2
EXCADVERT
 70
     4
 40
0.0
 41
1.0
 50
0.0
 71
     0
 42
0.286885
  3
monotxt
  4
extfont
  0
STYLE
  5
AF
330
3
100
AcDbSymbolTableRecord
100
AcDbTextStyleTableRecord
  2
EXCADTTF1
 70
     0
 40
0.0
 41
1.0
 50
0.0
 71
     0
 42
0.2
  3
MSGOTHIC.TTC
  4

1001
ACAD
1000
MS Gothic
1071
    32817
  0
STYLE
  5
279
330
3
100
AcDbSymbolTableRecord
100
AcDbTextStyleTableRecord
  2
EXCADDIM1
 70
     0
 40
0.0
 41
0.84
 50
0.0
 71
     0
 42
0.2
  3
monotxt
  4
extfont
  0
ENDTAB
  0
TABLE
  2
VIEW
  5
6
330
0
100
AcDbSymbolTable
 70
     0
  0
ENDTAB
  0
TABLE
  2
UCS
  5
7
330
0
100
AcDbSymbolTable
 70
     0
  0
ENDTAB
  0
TABLE
  2
APPID
  5
9
330
0
100
AcDbSymbolTable
 70
     1
  0
APPID
  5
12
330
9
100
AcDbSymbolTableRecord
100
AcDbRegAppTableRecord
  2
ACAD
 70
     0
  0
ENDTAB
  0
TABLE
  2
DIMSTYLE
  5
A
330
0
100
AcDbSymbolTable
 70
     1
  0
DIMSTYLE
105
27
102
{ACAD_REACTORS
330
27A
330
288
330
294
330
2A1
330
2AE
330
2BB
330
2CD
330
2DA
330
2EB
330
2F8
330
305
330
312
330
31F
330
32B
330
337
330
344
102
}
330
A
100
AcDbSymbolTableRecord
100
AcDbDimStyleTableRecord
  2
ISO-25
 70
     0
  3

  4

  5

  6

  7

 40
1.0
 41
2.5
 42
0.625
 43
3.75
 44
1.25
 45
0.0
 46
0.0
 47
0.0
 48
0.0
140
2.5
141
2.5
142
0.0
143
0.03937007874016
144
1.0
145
0.0
146
1.0
147
0.625
 71
     0
 72
     0
 73
     0
 74
     0
 75
     0
 76
     0
 77
     1
 78
     8
170
     0
171
     3
172
     1
173
     0
174
     0
175
     0
176
     0
177
     0
178
     0
270
     2
271
     2
272
     2
273
     2
274
     3
340
11
275
     0
280
     0
281
     0
282
     0
283
     0
284
     8
285
     0
286
     0
287
     5
288
     0
  0
ENDTAB
  0
TABLE
  2
BLOCK_RECORD
  5
1
330
0
100
AcDbSymbolTable
 70
    31
  0
BLOCK_RECORD
  5
1F
330
1
100
AcDbSymbolTableRecord
100
AcDbBlockTableRecord
  2
*MODEL_SPACE
  0
BLOCK_RECORD
  5
1B
330
1
100
AcDbSymbolTableRecord
100
AcDbBlockTableRecord
  2
*PAPER_SPACE
  0
BLOCK_RECORD
  5
4D
330
1
100
AcDbSymbolTableRecord
100
AcDbBlockTableRecord
  2
EX_NORM
  0
BLOCK_RECORD
  5
50
330
1
100
AcDbSymbolTableRecord
100
AcDbBlockTableRecord
  2
EX_BNORM
  0
BLOCK_RECORD
  5
53
330
1
100
AcDbSymbolTableRecord
100
AcDbBlockTableRecord
  2
EX_BCIR
  0
BLOCK_RECORD
  5
56
330
1
100
AcDbSymbolTableRecord
100
AcDbBlockTableRecord
  2
EX_RCIVIL
  0
BLOCK_RECORD
  5
59
330
1
100
AcDbSymbolTableRecord
100
AcDbBlockTableRecord
  2
EX_SLANT
  0
BLOCK_RECORD
  5
5C
330
1
100
AcDbSymbolTableRecord
100
AcDbBlockTableRecord
  2
EX_NONE
  0
BLOCK_RECORD
  5
5F
330
1
100
AcDbSymbolTableRecord
100
AcDbBlockTableRecord
  2
EX_CIVIL
  0
BLOCK_RECORD
  5
62
330
1
100
AcDbSymbolTableRecord
100
AcDbBlockTableRecord
  2
EX_WCIR
  0
BLOCK_RECORD
  5
65
330
1
100
AcDbSymbolTableRecord
100
AcDbBlockTableRecord
  2
EX_WCIR2
  0
BLOCK_RECORD
  5
68
330
1
100
AcDbSymbolTableRecord
100
AcDbBlockTableRecord
  2
EX_WNORM
  0
BLOCK_RECORD
  5
6B
330
1
100
AcDbSymbolTableRecord
100
AcDbBlockTableRecord
  2
EX_NNORM
  0
BLOCK_RECORD
  5
6E
330
1
100
AcDbSymbolTableRecord
100
AcDbBlockTableRecord
  2
EX_BBOX
  0
BLOCK_RECORD
  5
71
330
1
100
AcDbSymbolTableRecord
100
AcDbBlockTableRecord
  2
EX_WBOX
  0
BLOCK_RECORD
  5
74
330
1
100
AcDbSymbolTableRecord
100
AcDbBlockTableRecord
  2
EX_INTEGRAL
  0
BLOCK_RECORD
  5
27C
330
1
100
AcDbSymbolTableRecord
100
AcDbBlockTableRecord
  2
*D15
  0
BLOCK_RECORD
  5
289
330
1
100
AcDbSymbolTableRecord
100
AcDbBlockTableRecord
  2
*D16
  0
BLOCK_RECORD
  5
295
330
1
100
AcDbSymbolTableRecord
100
AcDbBlockTableRecord
  2
*D17
  0
BLOCK_RECORD
  5
2A2
330
1
100
AcDbSymbolTableRecord
100
AcDbBlockTableRecord
  2
*D18
  0
BLOCK_RECORD
  5
2AF
330
1
100
AcDbSymbolTableRecord
100
AcDbBlockTableRecord
  2
*D19
  0
BLOCK_RECORD
  5
2BC
330
1
100
AcDbSymbolTableRecord
100
AcDbBlockTableRecord
  2
*D20
  0
BLOCK_RECORD
  5
2CE
330
1
100
AcDbSymbolTableRecord
100
AcDbBlockTableRecord
  2
*D21
  0
BLOCK_RECORD
  5
2DB
330
1
100
AcDbSymbolTableRecord
100
AcDbBlockTableRecord
  2
*D22
  0
BLOCK_RECORD
  5
2EC
330
1
100
AcDbSymbolTableRecord
100
AcDbBlockTableRecord
  2
*D23
  0
BLOCK_RECORD
  5
2F9
330
1
100
AcDbSymbolTableRecord
100
AcDbBlockTableRecord
  2
*D24
  0
BLOCK_RECORD
  5
306
330
1
100
AcDbSymbolTableRecord
100
AcDbBlockTableRecord
  2
*D25
  0
BLOCK_RECORD
  5
313
330
1
100
AcDbSymbolTableRecord
100
AcDbBlockTableRecord
  2
*D26
  0
BLOCK_RECORD
  5
320
330
1
100
AcDbSymbolTableRecord
100
AcDbBlockTableRecord
  2
*D27
  0
BLOCK_RECORD
  5
32C
330
1
100
AcDbSymbolTableRecord
100
AcDbBlockTableRecord
  2
*D28
  0
BLOCK_RECORD
  5
338
330
1
100
AcDbSymbolTableRecord
100
AcDbBlockTableRecord
  2
*D29
  0
BLOCK_RECORD
  5
345
330
1
100
AcDbSymbolTableRecord
100
AcDbBlockTableRecord
  2
*D30
  0
ENDTAB
  0
ENDSEC
  0
SECTION
  2
BLOCKS
  0
BLOCK
  5
20
330
1F
100
AcDbEntity
  8
0
100
AcDbBlockBegin
  2
*MODEL_SPACE
 70
     0
 10
0.0
 20
0.0
 30
0.0
  3
*MODEL_SPACE
  1

  0
ENDBLK
  5
21
330
1F
100
AcDbEntity
  8
0
100
AcDbBlockEnd
  0
BLOCK
  5
1C
330
1B
100
AcDbEntity
 67
     1
  8
0
100
AcDbBlockBegin
  2
*PAPER_SPACE
 70
     0
 10
0.0
 20
0.0
 30
0.0
  3
*PAPER_SPACE
  1

  0
ENDBLK
  5
1D
330
1B
100
AcDbEntity
 67
     1
  8
0
100
AcDbBlockEnd
  0
BLOCK
  5
4E
330
4D
100
AcDbEntity
  8
0
100
AcDbBlockBegin
  2
EX_NORM
 70
     0
 10
0.0
 20
0.0
 30
0.0
  3
EX_NORM
  1

  0
LINE
  5
77
330
4D
100
AcDbEntity
  8
0
  6
CONTINUOUS
 62
     0
100
AcDbLine
 10
0.0
 20
0.0
 30
0.0
 11
-1.0
 21
0.0
 31
0.0
  0
LINE
  5
78
330
4D
100
AcDbEntity
  8
0
  6
CONTINUOUS
 62
     0
100
AcDbLine
 10
0.0
 20
0.0
 30
0.0
 11
-1.0
 21
0.166666667
 31
0.0
  0
LINE
  5
79
330
4D
100
AcDbEntity
  8
0
  6
CONTINUOUS
 62
     0
100
AcDbLine
 10
0.0
 20
0.0
 30
0.0
 11
-1.0
 21
-0.166666667
 31
0.0
  0
ENDBLK
  5
4F
330
4D
100
AcDbEntity
  8
0
100
AcDbBlockEnd
  0
BLOCK
  5
51
330
50
100
AcDbEntity
  8
0
100
AcDbBlockBegin
  2
EX_BNORM
 70
     0
 10
0.0
 20
0.0
 30
0.0
  3
EX_BNORM
  1

  0
LINE
  5
7A
330
50
100
AcDbEntity
  8
0
  6
CONTINUOUS
 62
     0
100
AcDbLine
 10
0.0
 20
0.0
 30
0.0
 11
-1.0
 21
0.0
 31
0.0
  0
LINE
  5
7B
330
50
100
AcDbEntity
  8
0
  6
CONTINUOUS
 62
     0
100
AcDbLine
 10
0.0
 20
0.0
 30
0.0
 11
-1.0
 21
0.166666667
 31
0.0
  0
LINE
  5
7C
330
50
100
AcDbEntity
  8
0
  6
CONTINUOUS
 62
     0
100
AcDbLine
 10
0.0
 20
0.0
 30
0.0
 11
-1.0
 21
-0.166666667
 31
0.0
  0
LINE
  5
7D
330
50
100
AcDbEntity
  8
0
  6
CONTINUOUS
 62
     0
100
AcDbLine
 10
0.0
 20
0.0
 30
0.0
 11
-1.0
 21
0.083333333
 31
0.0
  0
LINE
  5
7E
330
50
100
AcDbEntity
  8
0
  6
CONTINUOUS
 62
     0
100
AcDbLine
 10
0.0
 20
0.0
 30
0.0
 11
-1.0
 21
-0.083333333
 31
0.0
  0
LINE
  5
7F
330
50
100
AcDbEntity
  8
0
  6
CONTINUOUS
 62
     0
100
AcDbLine
 10
-1.0
 20
0.166666667
 30
0.0
 11
-1.0
 21
-0.166666667
 31
0.0
  0
ENDBLK
  5
52
330
50
100
AcDbEntity
  8
0
100
AcDbBlockEnd
  0
BLOCK
  5
54
330
53
100
AcDbEntity
  8
0
100
AcDbBlockBegin
  2
EX_BCIR
 70
     0
 10
0.0
 20
0.0
 30
0.0
  3
EX_BCIR
  1

  0
LINE
  5
80
330
53
100
AcDbEntity
  8
0
  6
CONTINUOUS
 62
     0
100
AcDbLine
 10
0.0
 20
0.0
 30
0.0
 11
-1.0
 21
0.0
 31
0.0
  0
CIRCLE
  5
81
330
53
100
AcDbEntity
  8
0
  6
CONTINUOUS
 62
     0
100
AcDbCircle
 10
0.0
 20
0.0
 30
0.0
 40
0.5
  0
CIRCLE
  5
82
330
53
100
AcDbEntity
  8
0
  6
CONTINUOUS
 62
     0
100
AcDbCircle
 10
0.0
 20
0.0
 30
0.0
 40
0.25
  0
ENDBLK
  5
55
330
53
100
AcDbEntity
  8
0
100
AcDbBlockEnd
  0
BLOCK
  5
57
330
56
100
AcDbEntity
  8
0
100
AcDbBlockBegin
  2
EX_RCIVIL
 70
     0
 10
0.0
 20
0.0
 30
0.0
  3
EX_RCIVIL
  1

  0
LINE
  5
83
330
56
100
AcDbEntity
  8
0
  6
CONTINUOUS
 62
     0
100
AcDbLine
 10
0.0
 20
0.0
 30
0.0
 11
-1.0
 21
0.0
 31
0.0
  0
LINE
  5
84
330
56
100
AcDbEntity
  8
0
  6
CONTINUOUS
 62
     0
100
AcDbLine
 10
-1.0
 20
-0.25
 30
0.0
 11
0.0
 21
-0.25
 31
0.0
  0
LINE
  5
85
330
56
100
AcDbEntity
  8
0
  6
CONTINUOUS
 62
     0
100
AcDbLine
 10
-1.0
 20
-0.125
 30
0.0
 11
0.0
 21
-0.125
 31
0.0
  0
ENDBLK
  5
58
330
56
100
AcDbEntity
  8
0
100
AcDbBlockEnd
  0
BLOCK
  5
5A
330
59
100
AcDbEntity
  8
0
100
AcDbBlockBegin
  2
EX_SLANT
 70
     0
 10
0.0
 20
0.0
 30
0.0
  3
EX_SLANT
  1

  0
LINE
  5
86
330
59
100
AcDbEntity
  8
0
  6
CONTINUOUS
 62
     0
100
AcDbLine
 10
0.0
 20
0.0
 30
0.0
 11
-1.0
 21
0.0
 31
0.0
  0
LINE
  5
87
330
59
100
AcDbEntity
  8
0
  6
CONTINUOUS
 62
     0
100
AcDbLine
 10
0.707106781
 20
0.707106781
 30
0.0
 11
-0.707106781
 21
-0.707106781
 31
0.0
  0
ENDBLK
  5
5B
330
59
100
AcDbEntity
  8
0
100
AcDbBlockEnd
  0
BLOCK
  5
5D
330
5C
100
AcDbEntity
  8
0
100
AcDbBlockBegin
  2
EX_NONE
 70
     0
 10
0.0
 20
0.0
 30
0.0
  3
EX_NONE
  1

  0
LINE
  5
88
330
5C
100
AcDbEntity
  8
0
  6
CONTINUOUS
 62
     0
100
AcDbLine
 10
0.0
 20
0.0
 30
0.0
 11
-1.0
 21
0.0
 31
0.0
  0
ENDBLK
  5
5E
330
5C
100
AcDbEntity
  8
0
100
AcDbBlockEnd
  0
BLOCK
  5
60
330
5F
100
AcDbEntity
  8
0
100
AcDbBlockBegin
  2
EX_CIVIL
 70
     0
 10
0.0
 20
0.0
 30
0.0
  3
EX_CIVIL
  1

  0
LINE
  5
89
330
5F
100
AcDbEntity
  8
0
  6
CONTINUOUS
 62
     0
100
AcDbLine
 10
0.0
 20
0.0
 30
0.0
 11
-1.0
 21
0.0
 31
0.0
  0
LINE
  5
8A
330
5F
100
AcDbEntity
  8
0
  6
CONTINUOUS
 62
     0
100
AcDbLine
 10
-1.0
 20
0.25
 30
0.0
 11
0.0
 21
0.25
 31
0.0
  0
LINE
  5
8B
330
5F
100
AcDbEntity
  8
0
  6
CONTINUOUS
 62
     0
100
AcDbLine
 10
-1.0
 20
0.125
 30
0.0
 11
0.0
 21
0.125
 31
0.0
  0
ENDBLK
  5
61
330
5F
100
AcDbEntity
  8
0
100
AcDbBlockEnd
  0
BLOCK
  5
63
330
62
100
AcDbEntity
  8
0
100
AcDbBlockBegin
  2
EX_WCIR
 70
     0
 10
0.0
 20
0.0
 30
0.0
  3
EX_WCIR
  1

  0
LINE
  5
8C
330
62
100
AcDbEntity
  8
0
  6
CONTINUOUS
 62
     0
100
AcDbLine
 10
0.0
 20
0.0
 30
0.0
 11
-1.0
 21
0.0
 31
0.0
  0
CIRCLE
  5
8D
330
62
100
AcDbEntity
  8
0
  6
CONTINUOUS
 62
     0
100
AcDbCircle
 10
0.0
 20
0.0
 30
0.0
 40
0.5
  0
ENDBLK
  5
64
330
62
100
AcDbEntity
  8
0
100
AcDbBlockEnd
  0
BLOCK
  5
66
330
65
100
AcDbEntity
  8
0
100
AcDbBlockBegin
  2
EX_WCIR2
 70
     0
 10
0.0
 20
0.0
 30
0.0
  3
EX_WCIR2
  1

  0
LINE
  5
8E
330
65
100
AcDbEntity
  8
0
  6
CONTINUOUS
 62
     0
100
AcDbLine
 10
-0.5
 20
0.0
 30
0.0
 11
-1.0
 21
0.0
 31
0.0
  0
CIRCLE
  5
8F
330
65
100
AcDbEntity
  8
0
  6
CONTINUOUS
 62
     0
100
AcDbCircle
 10
0.0
 20
0.0
 30
0.0
 40
0.5
  0
ENDBLK
  5
67
330
65
100
AcDbEntity
  8
0
100
AcDbBlockEnd
  0
BLOCK
  5
69
330
68
100
AcDbEntity
  8
0
100
AcDbBlockBegin
  2
EX_WNORM
 70
     0
 10
0.0
 20
0.0
 30
0.0
  3
EX_WNORM
  1

  0
LINE
  5
90
330
68
100
AcDbEntity
  8
0
  6
CONTINUOUS
 62
     0
100
AcDbLine
 10
-1.0
 20
0.0
 30
0.0
 11
-1.0
 21
0.0
 31
0.0
  0
LINE
  5
91
330
68
100
AcDbEntity
  8
0
  6
CONTINUOUS
 62
     0
100
AcDbLine
 10
0.0
 20
0.0
 30
0.0
 11
-1.0
 21
0.166666667
 31
0.0
  0
LINE
  5
92
330
68
100
AcDbEntity
  8
0
  6
CONTINUOUS
 62
     0
100
AcDbLine
 10
0.0
 20
0.0
 30
0.0
 11
-1.0
 21
-0.166666667
 31
0.0
  0
LINE
  5
93
330
68
100
AcDbEntity
  8
0
  6
CONTINUOUS
 62
     0
100
AcDbLine
 10
-1.0
 20
0.166666667
 30
0.0
 11
-1.0
 21
-0.166666667
 31
0.0
  0
ENDBLK
  5
6A
330
68
100
AcDbEntity
  8
0
100
AcDbBlockEnd
  0
BLOCK
  5
6C
330
6B
100
AcDbEntity
  8
0
100
AcDbBlockBegin
  2
EX_NNORM
 70
     0
 10
0.0
 20
0.0
 30
0.0
  3
EX_NNORM
  1

  0
LINE
  5
94
330
6B
100
AcDbEntity
  8
0
  6
CONTINUOUS
 62
     0
100
AcDbLine
 10
0.0
 20
0.0
 30
0.0
 11
-1.0
 21
0.0
 31
0.0
  0
LINE
  5
95
330
6B
100
AcDbEntity
  8
0
  6
CONTINUOUS
 62
     0
100
AcDbLine
 10
0.0
 20
0.0
 30
0.0
 11
-1.0
 21
0.166666667
 31
0.0
  0
LINE
  5
96
330
6B
100
AcDbEntity
  8
0
  6
CONTINUOUS
 62
     0
100
AcDbLine
 10
0.0
 20
0.0
 30
0.0
 11
-1.0
 21
-0.166666667
 31
0.0
  0
LINE
  5
97
330
6B
100
AcDbEntity
  8
0
  6
CONTINUOUS
 62
     0
100
AcDbLine
 10
-1.0
 20
0.166666667
 30
0.0
 11
-1.0
 21
-0.166666667
 31
0.0
  0
ENDBLK
  5
6D
330
6B
100
AcDbEntity
  8
0
100
AcDbBlockEnd
  0
BLOCK
  5
6F
330
6E
100
AcDbEntity
  8
0
100
AcDbBlockBegin
  2
EX_BBOX
 70
     0
 10
0.0
 20
0.0
 30
0.0
  3
EX_BBOX
  1

  0
LINE
  5
98
330
6E
100
AcDbEntity
  8
0
  6
CONTINUOUS
 62
     0
100
AcDbLine
 10
0.0
 20
0.0
 30
0.0
 11
-1.0
 21
0.0
 31
0.0
  0
LINE
  5
99
330
6E
100
AcDbEntity
  8
0
  6
CONTINUOUS
 62
     0
100
AcDbLine
 10
-0.5
 20
0.5
 30
0.0
 11
0.5
 21
0.5
 31
0.0
  0
LINE
  5
9A
330
6E
100
AcDbEntity
  8
0
  6
CONTINUOUS
 62
     0
100
AcDbLine
 10
0.5
 20
0.5
 30
0.0
 11
0.5
 21
-0.5
 31
0.0
  0
LINE
  5
9B
330
6E
100
AcDbEntity
  8
0
  6
CONTINUOUS
 62
     0
100
AcDbLine
 10
0.5
 20
-0.5
 30
0.0
 11
-0.5
 21
-0.5
 31
0.0
  0
LINE
  5
9C
330
6E
100
AcDbEntity
  8
0
  6
CONTINUOUS
 62
     0
100
AcDbLine
 10
-0.5
 20
-0.5
 30
0.0
 11
-0.5
 21
0.5
 31
0.0
  0
LINE
  5
9D
330
6E
100
AcDbEntity
  8
0
  6
CONTINUOUS
 62
     0
100
AcDbLine
 10
-0.25
 20
0.25
 30
0.0
 11
0.25
 21
0.25
 31
0.0
  0
LINE
  5
9E
330
6E
100
AcDbEntity
  8
0
  6
CONTINUOUS
 62
     0
100
AcDbLine
 10
0.25
 20
0.25
 30
0.0
 11
0.25
 21
-0.25
 31
0.0
  0
LINE
  5
9F
330
6E
100
AcDbEntity
  8
0
  6
CONTINUOUS
 62
     0
100
AcDbLine
 10
0.25
 20
-0.25
 30
0.0
 11
-0.25
 21
-0.25
 31
0.0
  0
LINE
  5
A0
330
6E
100
AcDbEntity
  8
0
  6
CONTINUOUS
 62
     0
100
AcDbLine
 10
-0.25
 20
-0.25
 30
0.0
 11
-0.25
 21
0.25
 31
0.0
  0
ENDBLK
  5
70
330
6E
100
AcDbEntity
  8
0
100
AcDbBlockEnd
  0
BLOCK
  5
72
330
71
100
AcDbEntity
  8
0
100
AcDbBlockBegin
  2
EX_WBOX
 70
     0
 10
0.0
 20
0.0
 30
0.0
  3
EX_WBOX
  1

  0
LINE
  5
A1
330
71
100
AcDbEntity
  8
0
  6
CONTINUOUS
 62
     0
100
AcDbLine
 10
-0.5
 20
0.0
 30
0.0
 11
-1.0
 21
0.0
 31
0.0
  0
LINE
  5
A2
330
71
100
AcDbEntity
  8
0
  6
CONTINUOUS
 62
     0
100
AcDbLine
 10
-0.5
 20
0.5
 30
0.0
 11
0.5
 21
0.5
 31
0.0
  0
LINE
  5
A3
330
71
100
AcDbEntity
  8
0
  6
CONTINUOUS
 62
     0
100
AcDbLine
 10
0.5
 20
0.5
 30
0.0
 11
0.5
 21
-0.5
 31
0.0
  0
LINE
  5
A4
330
71
100
AcDbEntity
  8
0
  6
CONTINUOUS
 62
     0
100
AcDbLine
 10
0.5
 20
-0.5
 30
0.0
 11
-0.5
 21
-0.5
 31
0.0
  0
LINE
  5
A5
330
71
100
AcDbEntity
  8
0
  6
CONTINUOUS
 62
     0
100
AcDbLine
 10
-0.5
 20
-0.5
 30
0.0
 11
-0.5
 21
0.5
 31
0.0
  0
ENDBLK
  5
73
330
71
100
AcDbEntity
  8
0
100
AcDbBlockEnd
  0
BLOCK
  5
75
330
74
100
AcDbEntity
  8
0
100
AcDbBlockBegin
  2
EX_INTEGRAL
 70
     0
 10
0.0
 20
0.0
 30
0.0
  3
EX_INTEGRAL
  1

  0
LINE
  5
A6
330
74
100
AcDbEntity
  8
0
  6
CONTINUOUS
 62
     0
100
AcDbLine
 10
0.0
 20
0.0
 30
0.0
 11
-1.0
 21
0.0
 31
0.0
  0
ARC
  5
A7
330
74
100
AcDbEntity
  8
0
  6
CONTINUOUS
 62
     0
100
AcDbCircle
 10
0.542115
 20
0.164992
 30
0.0
 40
0.56667
100
AcDbArc
 50
73.07249033629006
 51
196.9275130221199
  0
ARC
  5
A8
330
74
100
AcDbEntity
  8
0
  6
CONTINUOUS
 62
     0
100
AcDbCircle
 10
-0.542115
 20
-0.164992
 30
0.0
 40
0.56667
100
AcDbArc
 50
253.0724869220464
 51
16.9275130559125
  0
ENDBLK
  5
76
330
74
100
AcDbEntity
  8
0
100
AcDbBlockEnd
  0
BLOCK
  5
27D
330
27C
100
AcDbEntity
  8
0
100
AcDbBlockBegin
  2
*D15
 70
     1
 10
0.0
 20
0.0
 30
0.0
  3
*D15
  1

  0
LINE
  5
27F
330
27C
100
AcDbEntity
  8
寸法
  6
CONTINUOUS
 62
     3
100
AcDbLine
 10
496.4999999999991
 20
1934.117584206009
 30
0.0
 11
496.4999999999991
 21
1828.0
 31
0.0
  0
LINE
  5
280
330
27C
100
AcDbEntity
  8
寸法
  6
CONTINUOUS
 62
     3
100
AcDbLine
 10
851.4999999999992
 20
1934.117584206009
 30
0.0
 11
851.4999999999992
 21
1828.0
 31
0.0
  0
LINE
  5
281
330
27C
100
AcDbEntity
  8
寸法
  6
CONTINUOUS
 62
     3
100
AcDbLine
 10
526.4999999999991
 20
1838.0
 30
0.0
 11
821.4999999999992
 21
1838.0
 31
0.0
  0
INSERT
  5
282
330
27C
100
AcDbEntity
  8
寸法
 62
     3
100
AcDbBlockReference
  2
EX_NORM
 10
496.4999999999991
 20
1838.0
 30
0.0
 41
30.0
 42
30.0
 43
30.0
 50
180.0
  0
INSERT
  5
283
330
27C
100
AcDbEntity
  8
寸法
 62
     3
100
AcDbBlockReference
  2
EX_NORM
 10
851.4999999999992
 20
1838.0
 30
0.0
 41
30.0
 42
30.0
 43
30.0
  0
MTEXT
  5
284
330
27C
100
AcDbEntity
  8
寸法
 62
     2
100
AcDbMText
 10
673.9999999999993
 20
1861.499999940395
 30
0.0
 40
40.0
 41
0.0
 71
     5
 72
     1
  1
355
  7
EXCADDIM1
  0
POINT
  5
285
330
27C
100
AcDbEntity
  8
DEFPOINTS
 62
     0
100
AcDbPoint
 10
496.4999999999991
 20
1941.1175840868
 30
0.0
  0
POINT
  5
286
330
27C
100
AcDbEntity
  8
DEFPOINTS
 62
     0
100
AcDbPoint
 10
851.4999999999992
 20
1941.1175840868
 30
0.0
  0
POINT
  5
287
330
27C
100
AcDbEntity
  8
DEFPOINTS
 62
     0
100
AcDbPoint
 10
851.4999999999992
 20
1838.0
 30
0.0
  0
ENDBLK
  5
27E
330
27C
100
AcDbEntity
  8
0
100
AcDbBlockEnd
  0
BLOCK
  5
28A
330
289
100
AcDbEntity
  8
0
100
AcDbBlockBegin
  2
*D16
 70
     1
 10
0.0
 20
0.0
 30
0.0
  3
*D16
  1

  0
LINE
  5
28C
330
289
100
AcDbEntity
  8
寸法
  6
CONTINUOUS
 62
     3
100
AcDbLine
 10
680.9999998807897
 20
1918.0
 30
0.0
 11
941.4999999999992
 21
1918.0
 31
0.0
  0
LINE
  5
28D
330
289
100
AcDbEntity
  8
寸法
  6
CONTINUOUS
 62
     3
100
AcDbLine
 10
931.4999999999992
 20
1948.0
 30
0.0
 11
931.4999999999992
 21
2083.0
 31
0.0
  0
INSERT
  5
28E
330
289
100
AcDbEntity
  8
寸法
 62
     3
100
AcDbBlockReference
  2
EX_NORM
 10
931.4999999999992
 20
1918.0
 30
0.0
 41
30.0
 42
30.0
 43
30.0
 50
270.0
  0
INSERT
  5
28F
330
289
100
AcDbEntity
  8
寸法
 62
     3
100
AcDbBlockReference
  2
EX_NORM
 10
931.4999999999992
 20
2113.0
 30
0.0
 41
30.0
 42
30.0
 43
30.0
 50
90.0
  0
MTEXT
  5
290
330
289
100
AcDbEntity
  8
寸法
 62
     2
100
AcDbMText
 10
908.0000000596044
 20
2015.5
 30
0.0
 40
40.0
 41
0.0
 71
     5
 72
     1
  1
195
  7
EXCADDIM1
 11
0.0
 21
1.0
 31
0.0
  0
POINT
  5
291
330
289
100
AcDbEntity
  8
DEFPOINTS
 62
     0
100
AcDbPoint
 10
673.999999999999
 20
1918.0
 30
0.0
  0
POINT
  5
292
330
289
100
AcDbEntity
  8
DEFPOINTS
 62
     0
100
AcDbPoint
 10
851.4999999999992
 20
2113.0
 30
0.0
  0
POINT
  5
293
330
289
100
AcDbEntity
  8
DEFPOINTS
 62
     0
100
AcDbPoint
 10
931.4999999999992
 20
2113.0
 30
0.0
  0
ENDBLK
  5
28B
330
289
100
AcDbEntity
  8
0
100
AcDbBlockEnd
  0
BLOCK
  5
296
330
295
100
AcDbEntity
  8
0
100
AcDbBlockBegin
  2
*D17
 70
     1
 10
0.0
 20
0.0
 30
0.0
  3
*D17
  1

  0
LINE
  5
298
330
295
100
AcDbEntity
  8
寸法
  6
CONTINUOUS
 62
     3
100
AcDbLine
 10
598.9999999999991
 20
2169.999999880791
 30
0.0
 11
598.9999999999991
 21
2203.0
 31
0.0
  0
LINE
  5
299
330
295
100
AcDbEntity
  8
寸法
  6
CONTINUOUS
 62
     3
100
AcDbLine
 10
673.9999999999982
 20
2119.999999880791
 30
0.0
 11
673.9999999999982
 21
2203.0
 31
0.0
  0
LINE
  5
29A
330
295
100
AcDbEntity
  8
寸法
  6
CONTINUOUS
 62
     3
100
AcDbLine
 10
628.9999999999991
 20
2193.0
 30
0.0
 11
643.9999999999982
 21
2193.0
 31
0.0
  0
INSERT
  5
29B
330
295
100
AcDbEntity
  8
寸法
 62
     3
100
AcDbBlockReference
  2
EX_NORM
 10
598.9999999999991
 20
2193.0
 30
0.0
 41
30.0
 42
30.0
 43
30.0
 50
180.0
  0
INSERT
  5
29C
330
295
100
AcDbEntity
  8
寸法
 62
     3
100
AcDbBlockReference
  2
EX_BCIR
 10
673.9999999999982
 20
2193.0
 30
0.0
 41
30.0
 42
30.0
 43
30.0
  0
MTEXT
  5
29D
330
295
100
AcDbEntity
  8
寸法
 62
     2
100
AcDbMText
 10
458.9999999999992
 20
2216.499999940395
 30
0.0
 40
40.0
 41
0.0
 71
     5
 72
     1
  1
75（壁排水）
  7
EXCADDIM1
  0
POINT
  5
29E
330
295
100
AcDbEntity
  8
DEFPOINTS
 62
     0
100
AcDbPoint
 10
598.9999999999991
 20
2163.0
 30
0.0
  0
POINT
  5
29F
330
295
100
AcDbEntity
  8
DEFPOINTS
 62
     0
100
AcDbPoint
 10
673.9999999999982
 20
2113.0
 30
0.0
  0
POINT
  5
2A0
330
295
100
AcDbEntity
  8
DEFPOINTS
 62
     0
100
AcDbPoint
 10
673.9999999999982
 20
2193.0
 30
0.0
  0
ENDBLK
  5
297
330
295
100
AcDbEntity
  8
0
100
AcDbBlockEnd
  0
BLOCK
  5
2A3
330
2A2
100
AcDbEntity
  8
0
100
AcDbBlockBegin
  2
*D18
 70
     1
 10
0.0
 20
0.0
 30
0.0
  3
*D18
  1

  0
LINE
  5
2A5
330
2A2
100
AcDbEntity
  8
寸法
  6
CONTINUOUS
 62
     3
100
AcDbLine
 10
673.9999999999982
 20
2119.999999880791
 30
0.0
 11
673.9999999999982
 21
2203.0
 31
0.0
  0
LINE
  5
2A6
330
2A2
100
AcDbEntity
  8
寸法
  6
CONTINUOUS
 62
     3
100
AcDbLine
 10
769.0
 20
2127.999999880791
 30
0.0
 11
769.0
 21
2203.0
 31
0.0
  0
LINE
  5
2A7
330
2A2
100
AcDbEntity
  8
寸法
  6
CONTINUOUS
 62
     3
100
AcDbLine
 10
680.9999999999982
 20
2193.0
 30
0.0
 11
762.0
 21
2193.0
 31
0.0
  0
INSERT
  5
2A8
330
2A2
100
AcDbEntity
  8
寸法
 62
     3
100
AcDbBlockReference
  2
EX_BCIR
 10
673.9999999999982
 20
2193.0
 30
0.0
 41
7.0
 42
7.0
 43
7.0
 50
180.0
  0
INSERT
  5
2A9
330
2A2
100
AcDbEntity
  8
寸法
 62
     3
100
AcDbBlockReference
  2
EX_NORM
 10
769.0
 20
2193.0
 30
0.0
 41
7.0
 42
7.0
 43
7.0
  0
MTEXT
  5
2AA
330
2A2
100
AcDbEntity
  8
寸法
 62
     2
100
AcDbMText
 10
909.0000000000001
 20
2216.499999940395
 30
0.0
 40
40.0
 41
0.0
 71
     5
 72
     1
  1
95（壁給水）
  7
EXCADDIM1
  0
POINT
  5
2AB
330
2A2
100
AcDbEntity
  8
DEFPOINTS
 62
     0
100
AcDbPoint
 10
673.9999999999982
 20
2113.0
 30
0.0
  0
POINT
  5
2AC
330
2A2
100
AcDbEntity
  8
DEFPOINTS
 62
     0
100
AcDbPoint
 10
769.0
 20
2121.0
 30
0.0
  0
POINT
  5
2AD
330
2A2
100
AcDbEntity
  8
DEFPOINTS
 62
     0
100
AcDbPoint
 10
769.0
 20
2193.0
 30
0.0
  0
ENDBLK
  5
2A4
330
2A2
100
AcDbEntity
  8
0
100
AcDbBlockEnd
  0
BLOCK
  5
2B0
330
2AF
100
AcDbEntity
  8
0
100
AcDbBlockBegin
  2
*D19
 70
     1
 10
0.0
 20
0.0
 30
0.0
  3
*D19
  1

  0
LINE
  5
2B2
330
2AF
100
AcDbEntity
  8
寸法
  6
CONTINUOUS
 62
     3
100
AcDbLine
 10
673.9999999999982
 20
606.0000001192093
 30
0.0
 11
673.9999999999982
 21
443.0
 31
0.0
  0
LINE
  5
2B3
330
2AF
100
AcDbEntity
  8
寸法
  6
CONTINUOUS
 62
     3
100
AcDbLine
 10
769.0
 20
592.0000001192102
 30
0.0
 11
769.0
 21
443.0
 31
0.0
  0
LINE
  5
2B4
330
2AF
100
AcDbEntity
  8
寸法
  6
CONTINUOUS
 62
     3
100
AcDbLine
 10
680.9999999999982
 20
453.0
 30
0.0
 11
762.0
 21
453.0
 31
0.0
  0
INSERT
  5
2B5
330
2AF
100
AcDbEntity
  8
寸法
 62
     3
100
AcDbBlockReference
  2
EX_BCIR
 10
673.9999999999982
 20
453.0
 30
0.0
 41
7.0
 42
7.0
 43
7.0
 50
180.0
  0
INSERT
  5
2B6
330
2AF
100
AcDbEntity
  8
寸法
 62
     3
100
AcDbBlockReference
  2
EX_NORM
 10
769.0
 20
453.0
 30
0.0
 41
7.0
 42
7.0
 43
7.0
  0
MTEXT
  5
2B7
330
2AF
100
AcDbEntity
  8
寸法
 62
     2
100
AcDbMText
 10
909.0
 20
476.4999999403954
 30
0.0
 40
40.0
 41
0.0
 71
     5
 72
     1
  1
95（床給水）
  7
EXCADDIM1
  0
POINT
  5
2B8
330
2AF
100
AcDbEntity
  8
DEFPOINTS
 62
     0
100
AcDbPoint
 10
673.9999999999982
 20
613.0
 30
0.0
  0
POINT
  5
2B9
330
2AF
100
AcDbEntity
  8
DEFPOINTS
 62
     0
100
AcDbPoint
 10
769.0
 20
599.0000000000009
 30
0.0
  0
POINT
  5
2BA
330
2AF
100
AcDbEntity
  8
DEFPOINTS
 62
     0
100
AcDbPoint
 10
769.0
 20
453.0
 30
0.0
  0
ENDBLK
  5
2B1
330
2AF
100
AcDbEntity
  8
0
100
AcDbBlockEnd
  0
BLOCK
  5
2BD
330
2BC
100
AcDbEntity
  8
0
100
AcDbBlockBegin
  2
*D20
 70
     1
 10
0.0
 20
0.0
 30
0.0
  3
*D20
  1

  0
LINE
  5
2BF
330
2BC
100
AcDbEntity
  8
寸法
  6
CONTINUOUS
 62
     3
100
AcDbLine
 10
633.9999999999991
 20
556.0000001190892
 30
0.0
 11
633.9999999999991
 21
443.0
 31
0.0
  0
LINE
  5
2C0
330
2BC
100
AcDbEntity
  8
寸法
  6
CONTINUOUS
 62
     3
100
AcDbLine
 10
673.9999999999982
 20
606.0000001192093
 30
0.0
 11
673.9999999999982
 21
443.0
 31
0.0
  0
LINE
  5
2C1
330
2BC
100
AcDbEntity
  8
寸法
  6
CONTINUOUS
 62
     3
100
AcDbLine
 10
633.9999999999991
 20
453.0
 30
0.0
 11
673.9999999999982
 21
453.0
 31
0.0
  0
LINE
  5
2C2
330
2BC
100
AcDbEntity
  8
寸法
  6
CONTINUOUS
 62
     3
100
AcDbLine
 10
603.9999999999991
 20
453.0
 30
0.0
 11
573.9999999999991
 21
453.0
 31
0.0
  0
LINE
  5
2C3
330
2BC
100
AcDbEntity
  8
寸法
  6
CONTINUOUS
 62
     3
100
AcDbLine
 10
703.9999999999982
 20
453.0
 30
0.0
 11
733.9999999999982
 21
453.0
 31
0.0
  0
INSERT
  5
2C4
330
2BC
100
AcDbEntity
  8
寸法
 62
     3
100
AcDbBlockReference
  2
EX_NORM
 10
633.9999999999991
 20
453.0
 30
0.0
 41
30.0
 42
30.0
 43
30.0
  0
INSERT
  5
2C5
330
2BC
100
AcDbEntity
  8
寸法
 62
     3
100
AcDbBlockReference
  2
EX_BCIR
 10
673.9999999999982
 20
453.0
 30
0.0
 41
30.0
 42
30.0
 43
30.0
 50
180.0
  0
MTEXT
  5
2C6
330
2BC
100
AcDbEntity
  8
寸法
 62
     2
100
AcDbMText
 10
493.999999999999
 20
476.4999999403954
 30
0.0
 40
40.0
 41
0.0
 71
     5
 72
     1
  1
40（床排水）
  7
EXCADDIM1
  0
POINT
  5
2C7
330
2BC
100
AcDbEntity
  8
DEFPOINTS
 62
     0
100
AcDbPoint
 10
633.9999999999991
 20
562.99999999988
 30
0.0
  0
POINT
  5
2C8
330
2BC
100
AcDbEntity
  8
DEFPOINTS
 62
     0
100
AcDbPoint
 10
673.9999999999982
 20
613.0
 30
0.0
  0
POINT
  5
2C9
330
2BC
100
AcDbEntity
  8
DEFPOINTS
 62
     0
100
AcDbPoint
 10
673.9999999999982
 20
453.0
 30
0.0
  0
ENDBLK
  5
2BE
330
2BC
100
AcDbEntity
  8
0
100
AcDbBlockEnd
  0
BLOCK
  5
2CF
330
2CE
100
AcDbEntity
  8
0
100
AcDbBlockBegin
  2
*D21
 70
     1
 10
0.0
 20
0.0
 30
0.0
  3
*D21
  1

  0
LINE
  5
2D1
330
2CE
100
AcDbEntity
  8
寸法
  6
CONTINUOUS
 62
     3
100
AcDbLine
 10
1583.999999999999
 20
556.0000001190892
 30
0.0
 11
1583.999999999999
 21
443.0
 31
0.0
  0
LINE
  5
2D2
330
2CE
100
AcDbEntity
  8
寸法
  6
CONTINUOUS
 62
     3
100
AcDbLine
 10
1643.999999999999
 20
606.0000001192093
 30
0.0
 11
1643.999999999999
 21
443.0
 31
0.0
  0
LINE
  5
2D3
330
2CE
100
AcDbEntity
  8
寸法
  6
CONTINUOUS
 62
     3
100
AcDbLine
 10
1613.999999999999
 20
453.0
 30
0.0
 11
1613.999999999999
 21
453.0
 31
0.0
  0
INSERT
  5
2D4
330
2CE
100
AcDbEntity
  8
寸法
 62
     3
100
AcDbBlockReference
  2
EX_NORM
 10
1583.999999999999
 20
453.0
 30
0.0
 41
30.0
 42
30.0
 43
30.0
 50
180.0
  0
INSERT
  5
2D5
330
2CE
100
AcDbEntity
  8
寸法
 62
     3
100
AcDbBlockReference
  2
EX_NORM
 10
1643.999999999999
 20
453.0
 30
0.0
 41
30.0
 42
30.0
 43
30.0
  0
MTEXT
  5
2D6
330
2CE
100
AcDbEntity
  8
寸法
 62
     2
100
AcDbMText
 10
1783.999999999999
 20
476.4999999403954
 30
0.0
 40
40.0
 41
0.0
 71
     5
 72
     1
  1
60（床給水）
  7
EXCADDIM1
  0
POINT
  5
2D7
330
2CE
100
AcDbEntity
  8
DEFPOINTS
 62
     0
100
AcDbPoint
 10
1583.999999999999
 20
562.99999999988
 30
0.0
  0
POINT
  5
2D8
330
2CE
100
AcDbEntity
  8
DEFPOINTS
 62
     0
100
AcDbPoint
 10
1643.999999999999
 20
613.0
 30
0.0
  0
POINT
  5
2D9
330
2CE
100
AcDbEntity
  8
DEFPOINTS
 62
     0
100
AcDbPoint
 10
1643.999999999999
 20
453.0
 30
0.0
  0
ENDBLK
  5
2D0
330
2CE
100
AcDbEntity
  8
0
100
AcDbBlockEnd
  0
BLOCK
  5
2DC
330
2DB
100
AcDbEntity
  8
0
100
AcDbBlockBegin
  2
*D22
 70
     1
 10
0.0
 20
0.0
 30
0.0
  3
*D22
  1

  0
LINE
  5
2DE
330
2DB
100
AcDbEntity
  8
寸法
  6
CONTINUOUS
 62
     3
100
AcDbLine
 10
1583.999999999999
 20
556.0000001190892
 30
0.0
 11
1583.999999999999
 21
383.0
 31
0.0
  0
LINE
  5
2DF
330
2DB
100
AcDbEntity
  8
寸法
  6
CONTINUOUS
 62
     3
100
AcDbLine
 10
1643.999999999999
 20
606.0000001193093
 30
0.0
 11
1643.999999999999
 21
383.0
 31
0.0
  0
LINE
  5
2E0
330
2DB
100
AcDbEntity
  8
寸法
  6
CONTINUOUS
 62
     3
100
AcDbLine
 10
1613.999999999999
 20
393.0
 30
0.0
 11
1613.999999999999
 21
393.0
 31
0.0
  0
INSERT
  5
2E1
330
2DB
100
AcDbEntity
  8
寸法
 62
     3
100
AcDbBlockReference
  2
EX_NORM
 10
1583.999999999999
 20
393.0
 30
0.0
 41
30.0
 42
30.0
 43
30.0
 50
180.0
  0
INSERT
  5
2E2
330
2DB
100
AcDbEntity
  8
寸法
 62
     3
100
AcDbBlockReference
  2
EX_NORM
 10
1643.999999999999
 20
393.0
 30
0.0
 41
30.0
 42
30.0
 43
30.0
  0
MTEXT
  5
2E3
330
2DB
100
AcDbEntity
  8
寸法
 62
     2
100
AcDbMText
 10
1783.999999999999
 20
416.4999999403954
 30
0.0
 40
40.0
 41
0.0
 71
     5
 72
     1
  1
60（床排水）
  7
EXCADDIM1
  0
POINT
  5
2E4
330
2DB
100
AcDbEntity
  8
DEFPOINTS
 62
     0
100
AcDbPoint
 10
1583.999999999999
 20
562.99999999988
 30
0.0
  0
POINT
  5
2E5
330
2DB
100
AcDbEntity
  8
DEFPOINTS
 62
     0
100
AcDbPoint
 10
1643.999999999999
 20
613.0000000001
 30
0.0
  0
POINT
  5
2E6
330
2DB
100
AcDbEntity
  8
DEFPOINTS
 62
     0
100
AcDbPoint
 10
1643.999999999999
 20
393.0
 30
0.0
  0
ENDBLK
  5
2DD
330
2DB
100
AcDbEntity
  8
0
100
AcDbBlockEnd
  0
BLOCK
  5
2ED
330
2EC
100
AcDbEntity
  8
0
100
AcDbBlockBegin
  2
*D23
 70
     1
 10
0.0
 20
0.0
 30
0.0
  3
*D23
  1

  0
LINE
  5
2EF
330
2EC
100
AcDbEntity
  8
寸法
  6
CONTINUOUS
 62
     3
100
AcDbLine
 10
1650.99999988079
 20
613.0000000001
 30
0.0
 11
1733.999999999999
 21
613.0000000001
 31
0.0
  0
LINE
  5
2F0
330
2EC
100
AcDbEntity
  8
寸法
  6
CONTINUOUS
 62
     3
100
AcDbLine
 10
1658.99999988079
 20
963.0000000000001
 30
0.0
 11
1733.999999999999
 21
963.0000000000001
 31
0.0
  0
LINE
  5
2F1
330
2EC
100
AcDbEntity
  8
寸法
  6
CONTINUOUS
 62
     3
100
AcDbLine
 10
1723.999999999999
 20
643.0000000001
 30
0.0
 11
1723.999999999999
 21
933.0000000000001
 31
0.0
  0
INSERT
  5
2F2
330
2EC
100
AcDbEntity
  8
寸法
 62
     3
100
AcDbBlockReference
  2
EX_NORM
 10
1723.999999999999
 20
613.0000000001
 30
0.0
 41
30.0
 42
30.0
 43
30.0
 50
270.0
  0
INSERT
  5
2F3
330
2EC
100
AcDbEntity
  8
寸法
 62
     3
100
AcDbBlockReference
  2
EX_NORM
 10
1723.999999999999
 20
963.0000000000001
 30
0.0
 41
30.0
 42
30.0
 43
30.0
 50
90.0
  0
MTEXT
  5
2F4
330
2EC
100
AcDbEntity
  8
寸法
 62
     2
100
AcDbMText
 10
1700.500000059604
 20
788.0000000000501
 30
0.0
 40
40.0
 41
0.0
 71
     5
 72
     1
  1
350（壁給水）
  7
EXCADDIM1
 11
0.0
 21
1.0
 31
0.0
  0
POINT
  5
2F5
330
2EC
100
AcDbEntity
  8
DEFPOINTS
 62
     0
100
AcDbPoint
 10
1643.999999999999
 20
613.0000000001
 30
0.0
  0
POINT
  5
2F6
330
2EC
100
AcDbEntity
  8
DEFPOINTS
 62
     0
100
AcDbPoint
 10
1651.999999999999
 20
963.0000000000001
 30
0.0
  0
POINT
  5
2F7
330
2EC
100
AcDbEntity
  8
DEFPOINTS
 62
     0
100
AcDbPoint
 10
1723.999999999999
 20
963.0000000000001
 30
0.0
  0
ENDBLK
  5
2EE
330
2EC
100
AcDbEntity
  8
0
100
AcDbBlockEnd
  0
BLOCK
  5
2FA
330
2F9
100
AcDbEntity
  8
0
100
AcDbBlockBegin
  2
*D24
 70
     1
 10
0.0
 20
0.0
 30
0.0
  3
*D24
  1

  0
LINE
  5
2FC
330
2F9
100
AcDbEntity
  8
寸法
  6
CONTINUOUS
 62
     3
100
AcDbLine
 10
1650.99999988079
 20
613.0000000001
 30
0.0
 11
1793.999999999999
 21
613.0000000001002
 31
0.0
  0
LINE
  5
2FD
330
2F9
100
AcDbEntity
  8
寸法
  6
CONTINUOUS
 62
     3
100
AcDbLine
 10
1700.99999988079
 20
1053.0
 30
0.0
 11
1793.999999999999
 21
1053.0
 31
0.0
  0
LINE
  5
2FE
330
2F9
100
AcDbEntity
  8
寸法
  6
CONTINUOUS
 62
     3
100
AcDbLine
 10
1783.999999999999
 20
643.0000000001002
 30
0.0
 11
1783.999999999999
 21
1023.0
 31
0.0
  0
INSERT
  5
2FF
330
2F9
100
AcDbEntity
  8
寸法
 62
     3
100
AcDbBlockReference
  2
EX_NORM
 10
1783.999999999999
 20
613.0000000001002
 30
0.0
 41
30.0
 42
30.0
 43
30.0
 50
270.0
  0
INSERT
  5
300
330
2F9
100
AcDbEntity
  8
寸法
 62
     3
100
AcDbBlockReference
  2
EX_NORM
 10
1783.999999999999
 20
1053.0
 30
0.0
 41
30.0
 42
30.0
 43
30.0
 50
90.0
  0
MTEXT
  5
301
330
2F9
100
AcDbEntity
  8
寸法
 62
     2
100
AcDbMText
 10
1760.500000059604
 20
833.0000000000501
 30
0.0
 40
40.0
 41
0.0
 71
     5
 72
     1
  1
440（壁排水）
  7
EXCADDIM1
 11
0.0
 21
1.0
 31
0.0
  0
POINT
  5
302
330
2F9
100
AcDbEntity
  8
DEFPOINTS
 62
     0
100
AcDbPoint
 10
1643.999999999999
 20
613.0000000001
 30
0.0
  0
POINT
  5
303
330
2F9
100
AcDbEntity
  8
DEFPOINTS
 62
     0
100
AcDbPoint
 10
1693.999999999999
 20
1053.0
 30
0.0
  0
POINT
  5
304
330
2F9
100
AcDbEntity
  8
DEFPOINTS
 62
     0
100
AcDbPoint
 10
1783.999999999999
 20
1053.0
 30
0.0
  0
ENDBLK
  5
2FB
330
2F9
100
AcDbEntity
  8
0
100
AcDbBlockEnd
  0
BLOCK
  5
307
330
306
100
AcDbEntity
  8
0
100
AcDbBlockBegin
  2
*D25
 70
     1
 10
0.0
 20
0.0
 30
0.0
  3
*D25
  1

  0
LINE
  5
309
330
306
100
AcDbEntity
  8
寸法
  6
CONTINUOUS
 62
     3
100
AcDbLine
 10
1650.99999988079
 20
613.0000000001
 30
0.0
 11
1853.999999999999
 21
613.0000000001002
 31
0.0
  0
LINE
  5
30A
330
306
100
AcDbEntity
  8
寸法
  6
CONTINUOUS
 62
     3
100
AcDbLine
 10
1683.50000560269
 20
1217.5
 30
0.0
 11
1853.999999999999
 21
1217.5
 31
0.0
  0
LINE
  5
30B
330
306
100
AcDbEntity
  8
寸法
  6
CONTINUOUS
 62
     3
100
AcDbLine
 10
1843.999999999999
 20
643.0000000001002
 30
0.0
 11
1843.999999999999
 21
1187.5
 31
0.0
  0
INSERT
  5
30C
330
306
100
AcDbEntity
  8
寸法
 62
     3
100
AcDbBlockReference
  2
EX_NORM
 10
1843.999999999999
 20
613.0000000001002
 30
0.0
 41
30.0
 42
30.0
 43
30.0
 50
270.0
  0
INSERT
  5
30D
330
306
100
AcDbEntity
  8
寸法
 62
     3
100
AcDbBlockReference
  2
EX_NORM
 10
1843.999999999999
 20
1217.5
 30
0.0
 41
30.0
 42
30.0
 43
30.0
 50
90.0
  0
MTEXT
  5
30E
330
306
100
AcDbEntity
  8
寸法
 62
     2
100
AcDbMText
 10
1820.500000059604
 20
915.25000000005
 30
0.0
 40
40.0
 41
0.0
 71
     5
 72
     1
  1
605（壁固定）
  7
EXCADDIM1
 11
0.0
 21
1.0
 31
0.0
  0
POINT
  5
30F
330
306
100
AcDbEntity
  8
DEFPOINTS
 62
     0
100
AcDbPoint
 10
1643.999999999999
 20
613.0000000001
 30
0.0
  0
POINT
  5
310
330
306
100
AcDbEntity
  8
DEFPOINTS
 62
     0
100
AcDbPoint
 10
1676.500005721899
 20
1217.5
 30
0.0
  0
POINT
  5
311
330
306
100
AcDbEntity
  8
DEFPOINTS
 62
     0
100
AcDbPoint
 10
1843.999999999999
 20
1217.5
 30
0.0
  0
ENDBLK
  5
308
330
306
100
AcDbEntity
  8
0
100
AcDbBlockEnd
  0
BLOCK
  5
314
330
313
100
AcDbEntity
  8
0
100
AcDbBlockBegin
  2
*D26
 70
     1
 10
0.0
 20
0.0
 30
0.0
  3
*D26
  1

  0
LINE
  5
316
330
313
100
AcDbEntity
  8
寸法
  6
CONTINUOUS
 62
     3
100
AcDbLine
 10
1650.99999988079
 20
613.0000000001
 30
0.0
 11
1913.999999999999
 21
613.0000000000999
 31
0.0
  0
LINE
  5
317
330
313
100
AcDbEntity
  8
寸法
  6
CONTINUOUS
 62
     3
100
AcDbLine
 10
1683.50000560269
 20
1468.0
 30
0.0
 11
1913.999999999999
 21
1468.0
 31
0.0
  0
LINE
  5
318
330
313
100
AcDbEntity
  8
寸法
  6
CONTINUOUS
 62
     3
100
AcDbLine
 10
1903.999999999999
 20
643.0000000000999
 30
0.0
 11
1903.999999999999
 21
1438.0
 31
0.0
  0
INSERT
  5
319
330
313
100
AcDbEntity
  8
寸法
 62
     3
100
AcDbBlockReference
  2
EX_NORM
 10
1903.999999999999
 20
613.0000000000999
 30
0.0
 41
30.0
 42
30.0
 43
30.0
 50
270.0
  0
INSERT
  5
31A
330
313
100
AcDbEntity
  8
寸法
 62
     3
100
AcDbBlockReference
  2
EX_NORM
 10
1903.999999999999
 20
1468.0
 30
0.0
 41
30.0
 42
30.0
 43
30.0
 50
90.0
  0
MTEXT
  5
31B
330
313
100
AcDbEntity
  8
寸法
 62
     2
100
AcDbMText
 10
1880.500000059604
 20
1040.50000000005
 30
0.0
 40
40.0
 41
0.0
 71
     5
 72
     1
  1
855（壁固定）
  7
EXCADDIM1
 11
0.0
 21
1.0
 31
0.0
  0
POINT
  5
31C
330
313
100
AcDbEntity
  8
DEFPOINTS
 62
     0
100
AcDbPoint
 10
1643.999999999999
 20
613.0000000001
 30
0.0
  0
POINT
  5
31D
330
313
100
AcDbEntity
  8
DEFPOINTS
 62
     0
100
AcDbPoint
 10
1676.500005721899
 20
1468.0
 30
0.0
  0
POINT
  5
31E
330
313
100
AcDbEntity
  8
DEFPOINTS
 62
     0
100
AcDbPoint
 10
1903.999999999999
 20
1468.0
 30
0.0
  0
ENDBLK
  5
315
330
313
100
AcDbEntity
  8
0
100
AcDbBlockEnd
  0
BLOCK
  5
321
330
320
100
AcDbEntity
  8
0
100
AcDbBlockBegin
  2
*D27
 70
     1
 10
0.0
 20
0.0
 30
0.0
  3
*D27
  1

  0
LINE
  5
323
330
320
100
AcDbEntity
  8
寸法
  6
CONTINUOUS
 62
     3
100
AcDbLine
 10
854.4999998807898
 20
1433.0
 30
0.0
 11
941.4999999999992
 21
1433.0
 31
0.0
  0
LINE
  5
324
330
320
100
AcDbEntity
  8
寸法
  6
CONTINUOUS
 62
     3
100
AcDbLine
 10
931.4999999999992
 20
643.0
 30
0.0
 11
931.4999999999992
 21
1403.0
 31
0.0
  0
INSERT
  5
325
330
320
100
AcDbEntity
  8
寸法
 62
     3
100
AcDbBlockReference
  2
EX_NORM
 10
931.4999999999992
 20
613.0
 30
0.0
 41
30.0
 42
30.0
 43
30.0
 50
270.0
  0
INSERT
  5
326
330
320
100
AcDbEntity
  8
寸法
 62
     3
100
AcDbBlockReference
  2
EX_NORM
 10
931.4999999999992
 20
1433.0
 30
0.0
 41
30.0
 42
30.0
 43
30.0
 50
90.0
  0
MTEXT
  5
327
330
320
100
AcDbEntity
  8
寸法
 62
     2
100
AcDbMText
 10
908.0000000596042
 20
1023.0
 30
0.0
 40
40.0
 41
0.0
 71
     5
 72
     1
  1
820
  7
EXCADDIM1
 11
0.0
 21
1.0
 31
0.0
  0
POINT
  5
328
330
320
100
AcDbEntity
  8
DEFPOINTS
 62
     0
100
AcDbPoint
 10
838.9999999999992
 20
613.0
 30
0.0
  0
POINT
  5
329
330
320
100
AcDbEntity
  8
DEFPOINTS
 62
     0
100
AcDbPoint
 10
847.4999999999991
 20
1433.0
 30
0.0
  0
POINT
  5
32A
330
320
100
AcDbEntity
  8
DEFPOINTS
 62
     0
100
AcDbPoint
 10
931.4999999999992
 20
1433.0
 30
0.0
  0
ENDBLK
  5
322
330
320
100
AcDbEntity
  8
0
100
AcDbBlockEnd
  0
BLOCK
  5
32D
330
32C
100
AcDbEntity
  8
0
100
AcDbBlockBegin
  2
*D28
 70
     1
 10
0.0
 20
0.0
 30
0.0
  3
*D28
  1

  0
LINE
  5
32F
330
32C
100
AcDbEntity
  8
寸法
  6
CONTINUOUS
 62
     3
100
AcDbLine
 10
853.0927185430501
 20
1493.0
 30
0.0
 11
1001.499999999999
 21
1493.0
 31
0.0
  0
LINE
  5
330
330
32C
100
AcDbEntity
  8
寸法
  6
CONTINUOUS
 62
     3
100
AcDbLine
 10
991.4999999999992
 20
643.0
 30
0.0
 11
991.4999999999992
 21
1463.0
 31
0.0
  0
INSERT
  5
331
330
32C
100
AcDbEntity
  8
寸法
 62
     3
100
AcDbBlockReference
  2
EX_NORM
 10
991.4999999999992
 20
613.0
 30
0.0
 41
30.0
 42
30.0
 43
30.0
 50
270.0
  0
INSERT
  5
332
330
32C
100
AcDbEntity
  8
寸法
 62
     3
100
AcDbBlockReference
  2
EX_NORM
 10
991.4999999999992
 20
1493.0
 30
0.0
 41
30.0
 42
30.0
 43
30.0
 50
90.0
  0
MTEXT
  5
333
330
32C
100
AcDbEntity
  8
寸法
 62
     2
100
AcDbMText
 10
968.0000000596042
 20
1053.0
 30
0.0
 40
40.0
 41
0.0
 71
     5
 72
     1
  1
880
  7
EXCADDIM1
 11
0.0
 21
1.0
 31
0.0
  0
POINT
  5
334
330
32C
100
AcDbEntity
  8
DEFPOINTS
 62
     0
100
AcDbPoint
 10
838.9999999999992
 20
613.0
 30
0.0
  0
POINT
  5
335
330
32C
100
AcDbEntity
  8
DEFPOINTS
 62
     0
100
AcDbPoint
 10
846.0927186622594
 20
1493.0
 30
0.0
  0
POINT
  5
336
330
32C
100
AcDbEntity
  8
DEFPOINTS
 62
     0
100
AcDbPoint
 10
991.4999999999992
 20
1493.0
 30
0.0
  0
ENDBLK
  5
32E
330
32C
100
AcDbEntity
  8
0
100
AcDbBlockEnd
  0
BLOCK
  5
339
330
338
100
AcDbEntity
  8
0
100
AcDbBlockBegin
  2
*D29
 70
     1
 10
0.0
 20
0.0
 30
0.0
  3
*D29
  1

  0
LINE
  5
33B
330
338
100
AcDbEntity
  8
寸法
  6
CONTINUOUS
 62
     3
100
AcDbLine
 10
568.9999999999791
 20
1206.700000119208
 30
0.0
 11
568.9999999999791
 21
1076.0
 31
0.0
  0
LINE
  5
33C
330
338
100
AcDbEntity
  8
寸法
  6
CONTINUOUS
 62
     3
100
AcDbLine
 10
778.9999999999791
 20
1206.700000119208
 30
0.0
 11
778.9999999999791
 21
1076.0
 31
0.0
  0
LINE
  5
33D
330
338
100
AcDbEntity
  8
寸法
  6
CONTINUOUS
 62
     3
100
AcDbLine
 10
598.9999999999791
 20
1086.0
 30
0.0
 11
748.9999999999791
 21
1086.0
 31
0.0
  0
INSERT
  5
33E
330
338
100
AcDbEntity
  8
寸法
 62
     3
100
AcDbBlockReference
  2
EX_NORM
 10
568.9999999999791
 20
1086.0
 30
0.0
 41
30.0
 42
30.0
 43
30.0
 50
180.0
  0
INSERT
  5
33F
330
338
100
AcDbEntity
  8
寸法
 62
     3
100
AcDbBlockReference
  2
EX_NORM
 10
778.9999999999791
 20
1086.0
 30
0.0
 41
30.0
 42
30.0
 43
30.0
  0
MTEXT
  5
340
330
338
100
AcDbEntity
  8
寸法
 62
     2
100
AcDbMText
 10
682.9999999999809
 20
1054.499999940395
 30
0.0
 40
40.0
 41
0.0
 71
     5
 72
     1
  1
210（壁固定）
  7
EXCADDIM1
  0
POINT
  5
341
330
338
100
AcDbEntity
  8
DEFPOINTS
 62
     0
100
AcDbPoint
 10
568.9999999999791
 20
1213.699999999999
 30
0.0
  0
POINT
  5
342
330
338
100
AcDbEntity
  8
DEFPOINTS
 62
     0
100
AcDbPoint
 10
778.9999999999791
 20
1213.699999999999
 30
0.0
  0
POINT
  5
343
330
338
100
AcDbEntity
  8
DEFPOINTS
 62
     0
100
AcDbPoint
 10
778.9999999999791
 20
1086.0
 30
0.0
  0
ENDBLK
  5
33A
330
338
100
AcDbEntity
  8
0
100
AcDbBlockEnd
  0
BLOCK
  5
346
330
345
100
AcDbEntity
  8
0
100
AcDbBlockBegin
  2
*D30
 70
     1
 10
0.0
 20
0.0
 30
0.0
  3
*D30
  1

  0
LINE
  5
348
330
345
100
AcDbEntity
  8
寸法
  6
CONTINUOUS
 62
     3
100
AcDbLine
 10
523.9999999999991
 20
1474.999999880791
 30
0.0
 11
523.9999999999991
 21
1583.0
 31
0.0
  0
LINE
  5
349
330
345
100
AcDbEntity
  8
寸法
  6
CONTINUOUS
 62
     3
100
AcDbLine
 10
823.9999999999992
 20
1474.999999880791
 30
0.0
 11
823.9999999999992
 21
1583.0
 31
0.0
  0
LINE
  5
34A
330
345
100
AcDbEntity
  8
寸法
  6
CONTINUOUS
 62
     3
100
AcDbLine
 10
553.9999999999991
 20
1573.0
 30
0.0
 11
793.9999999999992
 21
1573.0
 31
0.0
  0
INSERT
  5
34B
330
345
100
AcDbEntity
  8
寸法
 62
     3
100
AcDbBlockReference
  2
EX_NORM
 10
523.9999999999991
 20
1573.0
 30
0.0
 41
30.0
 42
30.0
 43
30.0
 50
180.0
  0
INSERT
  5
34C
330
345
100
AcDbEntity
  8
寸法
 62
     3
100
AcDbBlockReference
  2
EX_NORM
 10
823.9999999999992
 20
1573.0
 30
0.0
 41
30.0
 42
30.0
 43
30.0
  0
MTEXT
  5
34D
330
345
100
AcDbEntity
  8
寸法
 62
     2
100
AcDbMText
 10
673.9999999999993
 20
1596.499999940395
 30
0.0
 40
40.0
 41
0.0
 71
     5
 72
     1
  1
300（壁固定）
  7
EXCADDIM1
  0
POINT
  5
34E
330
345
100
AcDbEntity
  8
DEFPOINTS
 62
     0
100
AcDbPoint
 10
523.9999999999991
 20
1468.0
 30
0.0
  0
POINT
  5
34F
330
345
100
AcDbEntity
  8
DEFPOINTS
 62
     0
100
AcDbPoint
 10
823.9999999999992
 20
1468.0
 30
0.0
  0
POINT
  5
350
330
345
100
AcDbEntity
  8
DEFPOINTS
 62
     0
100
AcDbPoint
 10
823.9999999999992
 20
1573.0
 30
0.0
  0
ENDBLK
  5
347
330
345
100
AcDbEntity
  8
0
100
AcDbBlockEnd
  0
ENDSEC
  0
SECTION
  2
ENTITIES
  0
LINE
  5
A9
330
1F
100
AcDbEntity
  8
枠_表
  6
CONTINUOUS
 62
     7
100
AcDbLine
 10
173.9999999999998
 20
92.99999999999955
 30
0.0
 11
1994.0
 21
92.99999999999955
 31
0.0
  0
HATCH
  5
AA
330
1F
100
AcDbEntity
  8
枠_表
  6
CONTINUOUS
 62
     3
100
AcDbHatch
 10
0.0
 20
0.0
 30
0.0
210
0.0
220
0.0
230
1.0
  2
SOLID
 70
     1
 71
     1
 91
        1
 92
        3
 72
     1
 73
     1
 93
       10
 10
774.7252657332529
 20
123.21699329754
 42
-0.017362223501556
 10
774.8130157332523
 20
176.184243297541
 42
-0.0267627618865285
 10
774.8130157332515
 20
176.1842432975408
 42
0.0737939047395297
 10
787.732515733253
 20
176.2382432975406
 42
0.0183878899657109
 10
787.2127657332514
 20
128.4819932975411
 42
-0.1144749489451909
 10
785.1202657332517
 20
118.4244932975405
 42
-0.1929163439413163
 10
775.1640157332516
 20
110.6079932975399
 42
-0.0603888289562337
 10
769.8855157332525
 20
109.2917432975401
 42
0.0
 10
768.6502657332512
 20
113.0514932975406
 42
0.0860918333465722
 10
772.3425157332523
 20
115.01574329754
 42
0.1331843103855141
 97
        0
 75
     0
 76
     1
 98
        1
 10
0.0
 20
0.0
  0
HATCH
  5
AB
330
1F
100
AcDbEntity
  8
枠_表
  6
CONTINUOUS
 62
     3
100
AcDbHatch
 10
0.0
 20
0.0
 30
0.0
210
0.0
220
0.0
230
1.0
  2
SOLID
 70
     1
 71
     1
 91
        1
 92
        3
 72
     1
 73
     1
 93
       16
 10
833.8687657332522
 20
122.1032432975406
 42
-0.0386228372648426
 10
833.8080157332508
 20
154.6449932975407
 42
-0.0398707891902887
 10
839.7142657332529
 20
154.6719932975414
 42
-0.1256886216044368
 10
839.4442657332512
 20
149.1504932975413
 42
-0.0367815758121429
 10
839.4442657332523
 20
149.1504932975399
 42
-0.268021535028829
 10
851.3580157332532
 20
155.3334932975407
 42
-0.2571134422124888
 10
859.5052657332521
 20
151.303743297541
 42
-0.1522526366014298
 10
861.5775157332528
 20
144.6009932975401
 42
-0.0158825412051521
 10
861.4290157332507
 20
122.0694932975412
 42
-0.0285251271418421
 10
855.7252657332515
 20
122.0694932975406
 42
-0.0452212723224612
 10
856.0155157332528
 20
142.8864932975404
 42
-0.0315567291532142
 10
854.2470157332519
 20
149.0357432975414
 42
-0.1476272403790709
 10
842.731515733251
 20
149.9199932975405
 42
-0.3908144705745794
 10
839.4847657332514
 20
141.8402432975405
 42
-0.2046259928850854
 10
839.4847657332514
 20
141.8402432975404
 42
0.0
 10
839.9910157332536
 20
122.0492432975408
 42
-0.0304995761723369
 97
        0
 75
     0
 76
     1
 98
        1
 10
0.0
 20
0.0
  0
HATCH
  5
AC
330
1F
100
AcDbEntity
  8
枠_表
  6
CONTINUOUS
 62
     3
100
AcDbHatch
 10
0.0
 20
0.0
 30
0.0
210
0.0
220
0.0
230
1.0
  2
SOLID
 70
     1
 71
     1
 91
        2
 92
        1
 93
        1
 72
     2
 10
876.2855140383374
 20
166.5835466873705
 40
3.572334466769884
 50
0.0
 51
360.0
 73
     1
 97
        0
 92
        3
 72
     1
 73
     1
 93
        3
 10
873.0930157332513
 20
154.6989932975412
 42
0.1200283885712921
 10
879.3030157332526
 20
122.0627432975403
 42
-0.0401820615762149
 10
873.0997657332524
 20
122.0424932975407
 42
-0.0237521668114666
 97
        0
 75
     0
 76
     1
 98
        1
 10
0.0
 20
0.0
  0
HATCH
  5
AD
330
1F
100
AcDbEntity
  8
枠_表
  6
CONTINUOUS
 62
     3
100
AcDbHatch
 10
0.0
 20
0.0
 30
0.0
210
0.0
220
0.0
230
1.0
  2
SOLID
 70
     1
 71
     1
 91
        1
 92
        3
 72
     1
 73
     1
 93
       30
 10
907.7340157332527
 20
153.3354932975412
 42
-0.0009362235736497
 10
907.7340157332524
 20
153.3354932975402
 42
0.0681165430304653
 10
906.0970934867339
 20
148.4282432975408
 42
0.0
 10
899.931015733253
 20
152.6469932975415
 42
-0.302112590907374
 10
899.9310157332513
 20
152.6469932975408
 42
0.0
 10
893.7142657332525
 20
147.8814932975413
 42
-0.3704245237568778
 10
893.7142657332504
 20
147.8814932975411
 42
0.0
 10
894.0382657332518
 20
144.6954932975402
 42
-0.0262822419456939
 10
897.8722657332518
 20
141.6309932975411
 42
-0.180060563604375
 10
903.9877657332529
 20
139.7679932975409
 42
-0.0298130817160724
 10
903.9877657332526
 20
139.7679932975406
 42
-0.3153987453686078
 10
909.6240157332534
 20
133.3217432975403
 42
0.0
 10
909.5902657332527
 20
130.439493297541
 42
-0.3510306079065168
 10
898.7227657332517
 20
121.3269932975413
 42
0.0
 10
895.5502657332521
 20
121.3269932975405
 42
-0.1053356344842436
 10
888.5302657332521
 20
123.3519932975408
 42
0.1188608286962634
 10
889.8127657332509
 20
128.4819932975415
 42
0.0
 10
897.5077657332517
 20
123.7569932975408
 42
-0.2447573632916039
 10
897.507765733252
 20
123.7569932975407
 42
0.0
 10
904.932765733253
 20
128.9544932975409
 42
-0.3734162676407277
 10
904.9327657332526
 20
128.95449329754
 42
0.0
 10
902.2395157332525
 20
134.1452432975409
 42
-0.261219770190848
 10
895.955265733251
 20
136.4267432975409
 42
-0.0572747914118363
 10
895.9552657332532
 20
136.4267432975408
 42
-0.1189658875692221
 10
890.9602657332508
 20
139.3562432975409
 42
-0.2005226878639636
 10
888.8677657332516
 20
144.0744932975622
 42
0.0
 10
888.8340157332528
 20
145.8632432975405
 42
-0.2622894489606957
 10
894.2002657332526
 20
154.0644932975404
 42
-0.0988461274137808
 10
899.2222657332525
 20
155.2727432975405
 42
0.0
 10
901.0852657332518
 20
155.2727432975403
 42
-0.0920156312561188
 97
        0
 75
     0
 76
     1
 98
        1
 10
0.0
 20
0.0
  0
HATCH
  5
AE
330
1F
100
AcDbEntity
  8
枠_表
  6
CONTINUOUS
 62
     3
100
AcDbHatch
 10
0.0
 20
0.0
 30
0.0
210
0.0
220
0.0
230
1.0
  2
SOLID
 70
     1
 71
     1
 91
        2
 92
        3
 72
     1
 73
     1
 93
       27
 10
800.1727657332514
 20
151.3644932975409
 42
-0.1769427732109284
 10
800.1727657332515
 20
151.364493297541
 42
0.0
 10
800.1727657332515
 20
147.7194932975408
 42
0.0
 10
801.0502657332531
 20
147.7194932975404
 42
-0.207533601427307
 10
806.7474227895724
 20
151.9932359129042
 42
-0.1226604740888933
 10
811.7827657332531
 20
152.1002432975408
 42
-0.3213715781137954
 10
816.9883280222114
 20
145.7106514378481
 42
-0.064704004662446
 10
817.0140157332515
 20
142.3329932975406
 42
-0.257798906330806
 10
815.9542657332515
 20
141.05049329754
 42
-0.056602577721096
 10
813.6862657332524
 20
140.2607432975415
 42
-0.0166741689362636
 10
805.3702657332527
 20
138.6812432975407
 42
0.1186092302783404
 10
799.8825157332517
 20
136.0487432975412
 42
0.1699204224386695
 10
797.4930157332524
 20
132.05274329754
 42
0.1006533494296199
 10
797.2720866795827
 20
128.5853555095727
 42
0.1675695228968024
 10
799.4370157332517
 20
123.9392432975413
 42
0.1376980079804242
 10
803.3722657332523
 20
121.6644932975403
 42
0.0719813663796923
 10
805.1610157332505
 20
121.3674932975414
 42
0.0
 10
807.9015157332515
 20
121.3674932975415
 42
0.1944607457809085
 10
816.9937657332516
 20
126.0452432975407
 42
0.1288538183665954
 10
817.9117657332506
 20
123.750243297541
 42
0.2098387395261546
 10
820.9087657332532
 20
122.0964932975403
 42
0.0
 10
823.0822657332526
 20
122.0829932975404
 42
0.0945009641609563
 10
826.2210157332527
 20
122.7512432975414
 42
0.0
 10
826.2210157332524
 20
124.3239932975407
 42
-0.2395739894657535
 10
823.4805157332532
 20
124.2969932975405
 42
-0.2502312110031057
 10
822.1305157332513
 20
126.834993297542
 42
-0.0104343570771765
 10
822.3127657332523
 20
145.7619932975412
 42
0.4051015674140716
 97
        0
 92
        3
 72
     1
 73
     1
 93
        8
 10
817.1355157332521
 20
139.0254932975406
 42
-0.0339435190873666
 10
817.1355157332546
 20
139.0254932975297
 42
-0.0001110072973599
 10
816.8520157332522
 20
128.6844932975405
 42
-0.2253076310552528
 10
809.7645157332511
 20
123.952743297541
 42
0.0
 10
808.0297657332516
 20
123.952743297541
 42
-0.3657967558150132
 10
802.8727657332513
 20
129.4337432975408
 42
0.0
 10
802.8727657332521
 20
131.3912432975414
 42
-0.2530797830369341
 10
806.3557657332514
 20
136.2107432975412
 42
-0.0724473624720066
 97
        0
 75
     0
 76
     1
 98
        1
 10
0.0
 20
0.0
  0
TEXT
  5
B0
330
1F
100
AcDbEntity
  8
枠_表
  6
CONTINUOUS
 62
     2
100
AcDbText
 10
923.0000000000052
 20
116.5000000000009
 30
0.0
 40
33.75
  1
ジャニス工業株式会社
 41
1.025641025641026
  7
EXCADTTF1
 72
     5
 11
1373.000000000005
 21
116.5000000000009
 31
0.0
100
AcDbText
  0
ARC
  5
B1
330
1F
100
AcDbEntity
  8
枠_表
  6
CONTINUOUS
 62
     3
100
AcDbCircle
 10
811.2685324125539
 20
137.6167288926888
 30
0.0
 40
17.66683515327064
100
AcDbArc
 50
88.77000393305703
 51
128.9068631829044
  0
ARC
  5
B2
330
1F
100
AcDbEntity
  8
枠_表
  6
CONTINUOUS
 62
     3
100
AcDbCircle
 10
812.0706272602808
 20
145.0191625973321
 30
0.0
 40
10.2690407511459
100
AcDbArc
 50
4.148222840814693
 51
92.36000944257292
  0
ARC
  5
B3
330
1F
100
AcDbEntity
  8
枠_表
  6
CONTINUOUS
 62
     3
100
AcDbCircle
 10
1275.650135838711
 20
131.9323843931738
 30
0.0
 40
453.5482655865662
100
AcDbArc
 50
178.2526643324597
 51
180.6439560401927
  0
ARC
  5
B4
330
1F
100
AcDbEntity
  8
枠_表
  6
CONTINUOUS
 62
     3
100
AcDbCircle
 10
825.1823989446063
 20
126.8302928780474
 30
0.0
 40
3.05188683107389
100
AcDbArc
 50
179.9117548191414
 51
236.1065985968857
  0
ARC
  5
B5
330
1F
100
AcDbEntity
  8
枠_表
  6
CONTINUOUS
 62
     3
100
AcDbCircle
 10
824.8242078457986
 20
127.006118874109
 30
0.0
 40
3.0240485913648
100
AcDbArc
 50
243.6191685566582
 51
297.5097757939563
  0
LINE
  5
B6
330
1F
100
AcDbEntity
  8
枠_表
  6
CONTINUOUS
 62
     3
100
AcDbLine
 10
826.2210157332527
 20
122.7512432975414
 30
0.0
 11
826.2210157332527
 21
124.3239932975405
 31
0.0
  0
LINE
  5
B7
330
1F
100
AcDbEntity
  8
枠_表
  6
CONTINUOUS
 62
     3
100
AcDbLine
 10
820.9087657332532
 20
122.0964932975403
 30
0.0
 11
823.0822657332521
 21
122.0964932975403
 31
0.0
  0
ARC
  5
B8
330
1F
100
AcDbEntity
  8
枠_表
  6
CONTINUOUS
 62
     3
100
AcDbCircle
 10
822.8995891945613
 20
130.6464512823027
 30
0.0
 40
8.56540620020894
100
AcDbArc
 50
271.2220539293239
 51
292.8159509797653
  0
ARC
  5
B9
330
1F
100
AcDbEntity
  8
枠_表
  6
CONTINUOUS
 62
     3
100
AcDbCircle
 10
821.2937735081471
 20
126.3367456528636
 30
0.0
 40
4.25769550620398
100
AcDbArc
 50
217.4081478714985
 51
264.8118660441384
  0
ARC
  5
BA
330
1F
100
AcDbEntity
  8
枠_表
  6
CONTINUOUS
 62
     3
100
AcDbCircle
 10
821.8315560558324
 20
126.6492594265731
 30
0.0
 40
4.87535134009722
100
AcDbArc
 50
187.1167640402297
 51
216.4860549324747
  0
ARC
  5
BB
330
1F
100
AcDbEntity
  8
枠_表
  6
CONTINUOUS
 62
     3
100
AcDbCircle
 10
806.6613045867018
 20
134.9534026256833
 30
0.0
 40
13.64239920103932
100
AcDbArc
 50
275.2158792069686
 51
319.2336424873511
  0
LINE
  5
BC
330
1F
100
AcDbEntity
  8
枠_表
  6
CONTINUOUS
 62
     3
100
AcDbLine
 10
805.1610157332505
 20
121.3674932975414
 30
0.0
 11
807.9015157332526
 21
121.3674932975414
 31
0.0
  0
ARC
  5
BD
330
1F
100
AcDbEntity
  8
枠_表
  6
CONTINUOUS
 62
     3
100
AcDbCircle
 10
805.292813073678
 20
127.6963494387405
 30
0.0
 40
6.330228320917859
100
AcDbArc
 50
252.3384873625213
 51
268.8069976857606
  0
ARC
  5
BE
330
1F
100
AcDbEntity
  8
枠_表
  6
CONTINUOUS
 62
     3
100
AcDbCircle
 10
805.4562953036896
 20
129.8111104772602
 30
0.0
 40
8.408956577563659
100
AcDbArc
 50
224.289750990011
 51
255.6505938786759
  0
ARC
  5
BF
330
1F
100
AcDbEntity
  8
枠_表
  6
CONTINUOUS
 62
     3
100
AcDbCircle
 10
805.0915332915508
 20
129.4015021572864
 30
0.0
 40
7.8619234712629
100
AcDbArc
 50
185.9586126338419
 51
224.0091989319859
  0
ARC
  5
C0
330
1F
100
AcDbEntity
  8
枠_表
  6
CONTINUOUS
 62
     3
100
AcDbCircle
 10
805.9075018570013
 20
129.7758712547738
 30
0.0
 40
8.71709372588669
100
AcDbArc
 50
164.8589457925044
 51
187.8495628504518
  0
ARC
  5
C1
330
1F
100
AcDbEntity
  8
枠_表
  6
CONTINUOUS
 62
     3
100
AcDbCircle
 10
804.3972379030163
 20
130.6366332500806
 30
0.0
 40
7.04795370557922
100
AcDbArc
 50
129.8344892359069
 51
168.4089447024628
  0
ARC
  5
C2
330
1F
100
AcDbEntity
  8
枠_表
  6
CONTINUOUS
 62
     3
100
AcDbCircle
 10
808.0970138675809
 20
125.9608481482871
 30
0.0
 40
13.0093661698492
100
AcDbArc
 50
102.0988446293839
 51
129.1556705448828
  0
ARC
  5
C3
330
1F
100
AcDbEntity
  8
枠_表
  6
CONTINUOUS
 62
     3
100
AcDbCircle
 10
785.8530099985808
 20
264.1202029775218
 30
0.0
 40
126.9482409370382
100
AcDbArc
 50
278.8438342053764
 51
282.6649181367123
  0
ARC
  5
C4
330
1F
100
AcDbEntity
  8
枠_表
  6
CONTINUOUS
 62
     3
100
AcDbCircle
 10
811.3433050110905
 20
150.6407362688742
 30
0.0
 40
10.64113335272784
100
AcDbArc
 50
282.7195832898965
 51
295.6781112778079
  0
ARC
  5
C5
330
1F
100
AcDbEntity
  8
枠_表
  6
CONTINUOUS
 62
     3
100
AcDbCircle
 10
815.3230955673359
 20
142.6511332504288
 30
0.0
 40
1.72058828228131
100
AcDbArc
 50
291.5204897073511
 51
349.3445900274031
  0
ARC
  5
C6
330
1F
100
AcDbEntity
  8
枠_表
  6
CONTINUOUS
 62
     3
100
AcDbCircle
 10
804.0053873566592
 20
143.9229870375129
 30
0.0
 40
13.10543751018921
100
AcDbArc
 50
353.0315250986587
 51
7.839947970678348
  0
ARC
  5
C7
330
1F
100
AcDbEntity
  8
枠_表
  6
CONTINUOUS
 62
     3
100
AcDbCircle
 10
809.9283412817715
 20
145.2741886153422
 30
0.0
 40
7.07346538626002
100
AcDbArc
 50
3.537639967999379
 51
74.8013566619203
  0
ARC
  5
C8
330
1F
100
AcDbEntity
  8
枠_表
  6
CONTINUOUS
 62
     3
100
AcDbCircle
 10
809.4799095798328
 20
141.9383830513016
 30
0.0
 40
10.4195273466423
100
AcDbArc
 50
77.23143261361693
 51
105.203415964315
  0
ARC
  5
C9
330
1F
100
AcDbEntity
  8
枠_表
  6
CONTINUOUS
 62
     3
100
AcDbCircle
 10
808.8253617703015
 20
143.2890191857882
 30
0.0
 40
8.94881105176719
100
AcDbArc
 50
103.4267945469744
 51
150.3242613737993
  0
LINE
  5
CA
330
1F
100
AcDbEntity
  8
枠_表
  6
CONTINUOUS
 62
     3
100
AcDbLine
 10
800.1727657332515
 20
151.364493297541
 30
0.0
 11
800.1727657332515
 21
147.7194932975408
 31
0.0
  0
ARC
  5
CB
330
1F
100
AcDbEntity
  8
枠_表
  6
CONTINUOUS
 62
     3
100
AcDbCircle
 10
705.1439565227099
 20
126.7342761922782
 30
0.0
 40
69.67015049800598
100
AcDbArc
 50
353.1274757312911
 51
357.106204490141
  0
ARC
  5
CC
330
1F
100
AcDbEntity
  8
枠_表
  6
CONTINUOUS
 62
     3
100
AcDbCircle
 10
280.3385521229336
 20
150.5197335838841
 30
0.0
 40
495.1400430399008
100
AcDbArc
 50
356.8390243485978
 51
2.971133813187157
  0
ARC
  5
CD
330
1F
100
AcDbEntity
  8
枠_表
  6
CONTINUOUS
 62
     3
100
AcDbCircle
 10
767.0927386496044
 20
120.3407518472909
 30
0.0
 40
7.47769185530633
100
AcDbArc
 50
314.592391474832
 51
344.9374073189123
  0
ARC
  5
CE
330
1F
100
AcDbEntity
  8
枠_表
  6
CONTINUOUS
 62
     3
100
AcDbCircle
 10
764.8347289685455
 20
124.675985944599
 30
0.0
 40
12.23467000390025
100
AcDbArc
 50
288.1715191042997
 51
307.8537826235693
  0
LINE
  5
CF
330
1F
100
AcDbEntity
  8
枠_表
  6
CONTINUOUS
 62
     3
100
AcDbLine
 10
769.8855157332525
 20
109.2917432975401
 30
0.0
 11
768.6502657332528
 21
113.0514932975404
 31
0.0
  0
ARC
  5
D0
330
1F
100
AcDbEntity
  8
枠_表
  6
CONTINUOUS
 62
     3
100
AcDbCircle
 10
767.0955749866664
 20
131.7223152915381
 30
0.0
 40
22.60341410821362
100
AcDbArc
 50
277.0901027239701
 51
290.9134154817058
  0
ARC
  5
D1
330
1F
100
AcDbEntity
  8
枠_表
  6
CONTINUOUS
 62
     3
100
AcDbCircle
 10
770.38973278855
 20
126.938351862683
 30
0.0
 40
17.01394688196115
100
AcDbArc
 50
286.2966123578915
 51
329.973223283839
  0
ARC
  5
D2
330
1F
100
AcDbEntity
  8
枠_表
  6
CONTINUOUS
 62
     3
100
AcDbCircle
 10
764.4899361790624
 20
127.96313568801
 30
0.0
 40
22.72875263114311
100
AcDbArc
 50
335.1860595856123
 51
1.308075913059364
  0
ARC
  5
D3
330
1F
100
AcDbEntity
  8
枠_表
  6
CONTINUOUS
 62
     3
100
AcDbCircle
 10
1436.542531413437
 20
145.2960360950851
 30
0.0
 40
649.5474244683604
100
AcDbArc
 50
177.2695926307304
 51
181.4833117237826
  0
ARC
  5
D4
330
1F
100
AcDbEntity
  8
枠_表
  6
CONTINUOUS
 62
     3
100
AcDbCircle
 10
781.0908200122287
 20
219.7417570522225
 30
0.0
 40
44.00758833490465
100
AcDbArc
 50
261.7986203004403
 51
278.6803384946418
  0
ARC
  5
D5
330
1F
100
AcDbEntity
  8
枠_表
  6
CONTINUOUS
 62
     3
100
AcDbCircle
 10
805.6056099353748
 20
178.7501381160507
 30
0.0
 40
41.36406814694017
100
AcDbArc
 50
278.4088456599976
 51
286.1851416003176
  0
ARC
  5
D6
330
1F
100
AcDbEntity
  8
枠_表
  6
CONTINUOUS
 62
     3
100
AcDbCircle
 10
814.5660651757714
 20
118.8318862667984
 30
0.0
 40
19.22065786155208
100
AcDbArc
 50
98.71271710191789
 51
115.2874718053599
  0
ARC
  5
D7
330
1F
100
AcDbEntity
  8
枠_表
  6
CONTINUOUS
 62
     3
100
AcDbCircle
 10
809.0701866837856
 20
130.5807479047189
 30
0.0
 40
6.25019433457053
100
AcDbArc
 50
115.7403688633493
 51
172.5491744442191
  0
LINE
  5
D8
330
1F
100
AcDbEntity
  8
枠_表
  6
CONTINUOUS
 62
     3
100
AcDbLine
 10
802.8727657332513
 20
131.3912432975405
 30
0.0
 11
802.8727657332513
 21
129.4337432975408
 31
0.0
  0
ARC
  5
D9
330
1F
100
AcDbEntity
  8
枠_表
  6
CONTINUOUS
 62
     3
100
AcDbCircle
 10
808.6959653488759
 20
129.7461380097786
 30
0.0
 40
5.83157304846997
100
AcDbArc
 50
183.0707787095794
 51
263.4402016072427
  0
LINE
  5
DA
330
1F
100
AcDbEntity
  8
枠_表
  6
CONTINUOUS
 62
     3
100
AcDbLine
 10
808.0297657332505
 20
123.952743297541
 30
0.0
 11
809.7645157332511
 21
123.952743297541
 31
0.0
  0
ARC
  5
DB
330
1F
100
AcDbEntity
  8
枠_表
  6
CONTINUOUS
 62
     3
100
AcDbCircle
 10
808.3244690765935
 20
133.7836489530207
 30
0.0
 40
9.935816039979159
100
AcDbArc
 50
278.3335103000368
 51
329.1221464187299
  0
ARC
  5
DC
330
1F
100
AcDbEntity
  8
枠_表
  6
CONTINUOUS
 62
     3
100
AcDbCircle
 10
-22472.01542217735
 20
772.3265245587834
 30
0.0
 40
23297.76001260591
100
AcDbArc
 50
358.4169008257799
 51
358.4423418242109
  0
ARC
  5
DD
330
1F
100
AcDbEntity
  8
枠_表
  6
CONTINUOUS
 62
     3
100
AcDbCircle
 10
836.5808780069335
 20
82.5069254511709
 30
0.0
 40
39.68909094418497
100
AcDbArc
 50
85.07099551674689
 51
93.91830029343228
  0
ARC
  5
DE
330
1F
100
AcDbEntity
  8
枠_表
  6
CONTINUOUS
 62
     3
100
AcDbCircle
 10
913.4088578951071
 20
130.9150147009814
 30
0.0
 40
73.95120993114925
100
AcDbArc
 50
179.8977458165987
 51
186.8855675734268
  0
ARC
  5
DF
330
1F
100
AcDbEntity
  8
枠_表
  6
CONTINUOUS
 62
     3
100
AcDbCircle
 10
850.5661722366415
 20
142.0795225138056
 30
0.0
 40
11.08398956318131
100
AcDbArc
 50
134.9787476233347
 51
181.2369872983282
  0
ARC
  5
E0
330
1F
100
AcDbEntity
  8
枠_表
  6
CONTINUOUS
 62
     3
100
AcDbCircle
 10
848.010014520554
 20
143.2366273138689
 30
0.0
 40
8.51645057047003
100
AcDbArc
 50
42.91644474042847
 51
128.3015542351336
  0
ARC
  5
E1
330
1F
100
AcDbEntity
  8
枠_表
  6
CONTINUOUS
 62
     3
100
AcDbCircle
 10
844.9447404568548
 20
143.0315138821561
 30
0.0
 40
11.07172507744154
100
AcDbArc
 50
359.2495022237244
 51
32.84055016678327
  0
ARC
  5
E2
330
1F
100
AcDbEntity
  8
枠_表
  6
CONTINUOUS
 62
     3
100
AcDbCircle
 10
691.1173378649767
 20
134.775133788246
 30
0.0
 40
165.0975566668588
100
AcDbArc
 50
355.5862454873798
 51
2.816115806820253
  0
ARC
  5
E3
330
1F
100
AcDbEntity
  8
枠_表
  6
CONTINUOUS
 62
     3
100
AcDbCircle
 10
858.5771407332516
 20
90.60152619227779
 30
0.0
 40
31.59693252126744
100
AcDbArc
 50
84.82155189294139
 51
95.17844810705873
  0
ARC
  5
E4
330
1F
100
AcDbEntity
  8
枠_表
  6
CONTINUOUS
 62
     3
100
AcDbCircle
 10
1024.657633661699
 20
129.9067374739138
 30
0.0
 40
163.4166579853822
100
AcDbArc
 50
176.2131780319488
 51
182.7488833337936
  0
ARC
  5
E5
330
1F
100
AcDbEntity
  8
枠_表
  6
CONTINUOUS
 62
     3
100
AcDbCircle
 10
800.1913601210083
 20
142.3315774812136
 30
0.0
 40
61.42809087866958
100
AcDbArc
 50
358.4775281223095
 51
2.117232414210064
  0
ARC
  5
E6
330
1F
100
AcDbEntity
  8
枠_表
  6
CONTINUOUS
 62
     3
100
AcDbCircle
 10
849.7905515344848
 20
144.6285942451527
 30
0.0
 40
11.7869965146059
100
AcDbArc
 50
359.8658335690532
 51
34.49363429411157
  0
ARC
  5
E7
330
1F
100
AcDbEntity
  8
枠_表
  6
CONTINUOUS
 62
     3
100
AcDbCircle
 10
851.7724057413795
 20
145.9204664797994
 30
0.0
 40
9.4221437555554
100
AcDbArc
 50
34.84393737091607
 51
92.5207065423111
  0
ARC
  5
E8
330
1F
100
AcDbEntity
  8
枠_表
  6
CONTINUOUS
 62
     3
100
AcDbCircle
 10
850.754106900257
 20
141.9275988818595
 30
0.0
 40
13.4194899665726
100
AcDbArc
 50
87.42068310381028
 51
147.4361518966862
  0
ARC
  5
E9
330
1F
100
AcDbEntity
  8
枠_表
  6
CONTINUOUS
 62
     3
100
AcDbCircle
 10
877.0574727396172
 20
150.0785681383059
 30
0.0
 40
37.6246550045818
100
AcDbArc
 50
172.9875214416311
 51
181.4134392789641
  0
ARC
  5
EA
330
1F
100
AcDbEntity
  8
枠_表
  6
CONTINUOUS
 62
     3
100
AcDbCircle
 10
836.7082849861265
 20
166.2206879814494
 30
0.0
 40
11.93349358546016
100
AcDbArc
 50
255.9341994177206
 51
284.5896440601899
  0
ARC
  5
EB
330
1F
100
AcDbEntity
  8
枠_表
  6
CONTINUOUS
 62
     3
100
AcDbCircle
 10
630.1176988671602
 20
137.9938058671746
 30
0.0
 40
204.3697806131072
100
AcDbArc
 50
355.5405243117485
 51
4.673398698656258
  0
LINE
  5
EC
330
1F
100
AcDbEntity
  8
枠_表
  6
CONTINUOUS
 62
     3
100
AcDbLine
 10
839.4847657332514
 20
141.8402432975404
 30
0.0
 11
839.4847657332514
 21
131.0469932975411
 31
0.0
  0
CIRCLE
  5
ED
330
1F
100
AcDbEntity
  8
枠_表
  6
CONTINUOUS
 62
     3
100
AcDbCircle
 10
876.2855140383374
 20
166.5835466873705
 30
0.0
 40
3.57233446676989
  0
ARC
  5
EE
330
1F
100
AcDbEntity
  8
枠_表
  6
CONTINUOUS
 62
     3
100
AcDbCircle
 10
876.1456076027741
 20
167.5332474358083
 30
0.0
 40
13.19228548840207
100
AcDbArc
 50
256.6209501743446
 51
283.9984576255729
  0
ARC
  5
EF
330
1F
100
AcDbEntity
  8
枠_表
  6
CONTINUOUS
 62
     3
100
AcDbCircle
 10
876.4144089371359
 20
56.79804184123327
 30
0.0
 40
65.32859485251088
100
AcDbArc
 50
87.46575055044718
 51
92.90832285102188
  0
ARC
  5
F0
330
1F
100
AcDbEntity
  8
枠_表
  6
CONTINUOUS
 62
     3
100
AcDbCircle
 10
1082.254047179559
 20
138.1881005739388
 30
0.0
 40
203.5906390589
100
AcDbArc
 50
175.3387608397566
 51
184.5428594926176
  0
ARC
  5
F1
330
1F
100
AcDbEntity
  8
枠_表
  6
CONTINUOUS
 62
     3
100
AcDbCircle
 10
651.6900575363877
 20
138.3249792766242
 30
0.0
 40
222.0076085035812
100
AcDbArc
 50
355.7940354718673
 51
4.229650257234378
  0
ARC
  5
F2
330
1F
100
AcDbEntity
  8
枠_表
  6
CONTINUOUS
 62
     3
100
AcDbCircle
 10
1221.644453232818
 20
965.0297432964203
 30
0.0
 40
870.2800228963156
100
AcDbArc
 50
248.6422112053103
 51
248.8567777804232
  0
ARC
  5
F3
330
1F
100
AcDbEntity
  8
枠_表
  6
CONTINUOUS
 62
     3
100
AcDbCircle
 10
900.8542828460588
 20
145.1663038363949
 30
0.0
 40
10.10907867592157
100
AcDbArc
 50
67.66151957087348
 51
88.69073168448988
  0
ARC
  5
F4
330
1F
100
AcDbEntity
  8
枠_表
  6
CONTINUOUS
 62
     3
100
AcDbCircle
 10
899.7711044283926
 20
142.0979097937607
 30
0.0
 40
13.19974865367525
100
AcDbArc
 50
92.38301574576484
 51
114.9635286746436
  0
ARC
  5
F5
330
1F
100
AcDbEntity
  8
枠_表
  6
CONTINUOUS
 62
     3
100
AcDbCircle
 10
898.7963496799637
 20
145.2009291101865
 30
0.0
 40
9.9843256030919
100
AcDbArc
 50
117.4083995939977
 51
176.1964688215695
  0
ARC
  5
F6
330
1F
100
AcDbEntity
  8
枠_表
  6
CONTINUOUS
 62
     3
100
AcDbCircle
 10
895.5599257926008
 20
144.219276907553
 30
0.0
 40
6.693726059056109
100
AcDbArc
 50
181.2393899443581
 51
226.5942921332421
  0
ARC
  5
F7
330
1F
100
AcDbEntity
  8
枠_表
  6
CONTINUOUS
 62
     3
100
AcDbCircle
 10
899.5268145799525
 20
148.2396411006687
 30
0.0
 40
12.34100950779567
100
AcDbArc
 50
226.0402388947521
 51
253.1776672992999
  0
ARC
  5
F8
330
1F
100
AcDbEntity
  8
枠_表
  6
CONTINUOUS
 62
     3
100
AcDbCircle
 10
889.1714891830441
 20
107.9457141755211
 30
0.0
 40
29.27778413972754
100
AcDbArc
 50
63.49050203733571
 51
76.60259219849584
  0
ARC
  5
F9
330
1F
100
AcDbEntity
  8
枠_表
  6
CONTINUOUS
 62
     3
100
AcDbCircle
 10
900.3080045853687
 20
129.9846225433168
 30
0.0
 40
4.58710152219014
100
AcDbArc
 50
6.53892419415897
 51
65.09756080693691
  0
ARC
  5
FA
330
1F
100
AcDbEntity
  8
枠_表
  6
CONTINUOUS
 62
     3
100
AcDbCircle
 10
899.0357777446536
 20
129.7002363757167
 30
0.0
 40
5.943954918766759
100
AcDbArc
 50
270.8867385422408
 51
352.7925382056677
  0
ARC
  5
FB
330
1F
100
AcDbEntity
  8
枠_表
  6
CONTINUOUS
 62
     3
100
AcDbCircle
 10
898.6361043234876
 20
132.6658639777384
 30
0.0
 40
8.98004035462527
100
AcDbArc
 50
207.7689879465537
 51
262.7817283832026
  0
ARC
  5
FC
330
1F
100
AcDbEntity
  8
枠_表
  6
CONTINUOUS
 62
     3
100
AcDbCircle
 10
896.7930054592796
 20
138.8156576811025
 30
0.0
 40
17.5327631578002
100
AcDbArc
 50
241.8829576087176
 51
265.9354096935781
  0
ARC
  5
FD
330
1F
100
AcDbEntity
  8
枠_表
  6
CONTINUOUS
 62
     3
100
AcDbCircle
 10
898.4663886467581
 20
132.669246711805
 30
0.0
 40
11.34515058180645
100
AcDbArc
 50
271.2948770866743
 51
348.6654156292868
  0
ARC
  5
FE
330
1F
100
AcDbEntity
  8
枠_表
  6
CONTINUOUS
 62
     3
100
AcDbCircle
 10
902.2045721291977
 20
132.5217258531575
 30
0.0
 40
7.462450757296059
100
AcDbArc
 50
6.154262763177246
 51
76.17509904255616
  0
ARC
  5
FF
330
1F
100
AcDbEntity
  8
枠_表
  6
CONTINUOUS
 62
     3
100
AcDbCircle
 10
916.5384669692082
 20
191.9359310503512
 30
0.0
 40
53.65644258516679
100
AcDbArc
 50
249.6420733479936
 51
256.4727051201885
  0
ARC
  5
100
330
1F
100
AcDbEntity
  8
枠_表
  6
CONTINUOUS
 62
     3
100
AcDbCircle
 10
900.0721352387461
 20
148.3138641766618
 30
0.0
 40
7.03563707337184
100
AcDbArc
 50
210.9501336849607
 51
251.7794729821079
  0
ARC
  5
101
330
1F
100
AcDbEntity
  8
枠_表
  6
CONTINUOUS
 62
     3
100
AcDbCircle
 10
907.3031407332644
 20
149.3823182975439
 30
0.0
 40
14.068519372934
100
AcDbArc
 50
193.4375782160214
 51
199.459638038058
  0
ARC
  5
102
330
1F
100
AcDbEntity
  8
枠_表
  6
CONTINUOUS
 62
     3
100
AcDbCircle
 10
899.0350964860556
 20
147.2674994707927
 30
0.0
 40
5.35613931103931
100
AcDbArc
 50
92.11404364449162
 51
173.4175047026091
  0
ARC
  5
103
330
1F
100
AcDbEntity
  8
枠_表
  6
CONTINUOUS
 62
     3
100
AcDbCircle
 10
899.4147339127528
 20
146.5429236291675
 30
0.0
 40
6.12586430102253
100
AcDbArc
 50
17.92452211681263
 51
85.16543319077402
  0
LINE
  5
104
330
1F
100
AcDbEntity
  8
枠_表
  6
CONTINUOUS
 62
     3
100
AcDbLine
 10
901.0852657332532
 20
155.2727432975405
 30
0.0
 11
899.2222657332525
 21
155.2727432975405
 31
0.0
  0
LINE
  5
105
330
1F
100
AcDbEntity
  8
枠_表
  6
CONTINUOUS
 62
     3
100
AcDbLine
 10
897.507765733252
 20
123.7569932975407
 30
0.0
 11
899.1277657332523
 21
123.7569932975407
 31
0.0
  0
LINE
  5
106
330
1F
100
AcDbEntity
  8
枠_表
  6
CONTINUOUS
 62
     3
100
AcDbLine
 10
890.6902657332523
 20
128.4819932975415
 30
0.0
 11
889.8127657332509
 21
128.4819932975415
 31
0.0
  0
LINE
  5
107
330
1F
100
AcDbEntity
  8
枠_表
  6
CONTINUOUS
 62
     3
100
AcDbLine
 10
895.5502657332511
 20
121.3269932975413
 30
0.0
 11
898.7227657332517
 21
121.3269932975413
 31
0.0
  0
LINE
  5
108
330
1F
100
AcDbEntity
  8
枠_表
  6
CONTINUOUS
 62
     3
100
AcDbLine
 10
800.1727657332515
 20
147.7194932975408
 30
0.0
 11
801.0502657332529
 21
147.7194932975408
 31
0.0
  0
ARC
  5
109
330
1F
100
AcDbEntity
  8
枠_表
  6
CONTINUOUS
 62
     3
100
AcDbCircle
 10
878.534413132096
 20
128.5779759565003
 30
0.0
 40
11.27953740078838
100
AcDbArc
 50
332.3987521421788
 51
359.5124385477116
  0
LINE
  5
10A
330
1F
100
AcDbEntity
  8
枠_表
  6
CONTINUOUS
 62
     3
100
AcDbLine
 10
904.8652657332525
 20
130.5069932975402
 30
0.0
 11
904.9327657332526
 21
128.95449329754
 31
0.0
  0
LINE
  5
10B
330
1F
100
AcDbEntity
  8
枠_表
  6
CONTINUOUS
 62
     3
100
AcDbLine
 10
909.6240157332534
 20
133.3217432975403
 30
0.0
 11
909.590265733251
 21
130.4394932975401
 31
0.0
  0
LINE
  5
10C
330
1F
100
AcDbEntity
  8
枠_表
  6
CONTINUOUS
 62
     3
100
AcDbLine
 10
893.7142657332504
 20
147.8814932975411
 30
0.0
 11
893.6197657332525
 21
146.1129932975405
 31
0.0
  0
LINE
  5
10D
330
1F
100
AcDbEntity
  8
枠_表
  6
CONTINUOUS
 62
     3
100
AcDbLine
 10
888.8340157332516
 20
145.8632432975401
 30
0.0
 11
888.8677657332516
 21
144.0744932975622
 31
0.0
  0
LINE
  5
10E
330
1F
100
AcDbEntity
  8
枠_表
  6
CONTINUOUS
 62
     3
100
AcDbLine
 10
898.8375157332518
 20
152.6199932975408
 30
0.0
 11
899.9310157332513
 21
152.6469932975408
 31
0.0
  0
LINE
  5
10F
330
1F
100
AcDbEntity
  8
枠_表
  6
CONTINUOUS
 62
     3
100
AcDbLine
 10
905.2432657332531
 20
148.4282432975408
 30
0.0
 11
906.0970934867339
 21
148.4282432975408
 31
0.0
  0
ARC
  5
110
330
1F
100
AcDbEntity
  8
枠_表
  6
CONTINUOUS
 62
     3
100
AcDbCircle
 10
924.8424810688732
 20
144.9019437507491
 30
0.0
 40
19.07418003737831
100
AcDbArc
 50
153.7591918158497
 51
169.3462759801917
  0
TEXT
  5
111
330
1F
100
AcDbEntity
  8
枠_表
  6
CONTINUOUS
 62
     2
100
AcDbText
 10
1884.537109400003
 20
260.7227783000008
 30
0.0
 40
30.0
  1
１
 41
1.101333333333329
  7
EXCADSTD
 72
     5
 11
1908.137109400003
 21
260.7227783000008
 31
0.0
100
AcDbText
  0
TEXT
  5
112
330
1F
100
AcDbEntity
  8
枠_表
  6
CONTINUOUS
 62
     2
100
AcDbText
 10
196.500000000002
 20
266.7499999999995
 30
0.0
 40
42.5
  1
製図
 41
1.509694117647059
  7
EXCADSTD
 72
     5
 11
297.3260000000021
 21
266.7499999999995
 31
0.0
100
AcDbText
  0
TEXT
  5
113
330
1F
100
AcDbEntity
  8
枠_表
  6
CONTINUOUS
 62
     2
100
AcDbText
 10
351.500000000002
 20
266.7499999999995
 30
0.0
 40
42.5
  1
写図
 41
1.509694117647059
  7
EXCADSTD
 72
     5
 11
452.3260000000021
 21
266.7499999999995
 31
0.0
100
AcDbText
  0
TEXT
  5
114
330
1F
100
AcDbEntity
  8
枠_表
  6
CONTINUOUS
 62
     2
100
AcDbText
 10
501.500000000002
 20
266.7499999999995
 30
0.0
 40
42.5
  1
検図
 41
1.303826737967914
  7
EXCADSTD
 72
     5
 11
588.577000000002
 21
266.7499999999995
 31
0.0
100
AcDbText
  0
TEXT
  5
115
330
1F
100
AcDbEntity
  8
枠_表
  6
CONTINUOUS
 62
     2
100
AcDbText
 10
631.500000000002
 20
266.7499999999995
 30
0.0
 40
42.5
  1
承認
 41
1.303826737967914
  7
EXCADSTD
 72
     5
 11
718.577000000002
 21
266.7499999999995
 31
0.0
100
AcDbText
  0
TEXT
  5
116
330
1F
100
AcDbEntity
  8
枠_表
  6
CONTINUOUS
 62
     2
100
AcDbText
 10
749.7500000000025
 20
256.7499999999995
 30
0.0
 40
42.5
  1
品
 41
1.12
  7
EXCADSTD
 72
     5
 11
783.7500000000025
 21
256.7499999999995
 31
0.0
100
AcDbText
  0
TEXT
  5
117
330
1F
100
AcDbEntity
  8
枠_表
  6
CONTINUOUS
 62
     2
100
AcDbText
 10
749.7500000000025
 20
206.7499999999995
 30
0.0
 40
42.5
  1
名
 41
1.12
  7
EXCADSTD
 72
     5
 11
783.7500000000025
 21
206.7499999999995
 31
0.0
100
AcDbText
  0
TEXT
  5
118
330
1F
100
AcDbEntity
  8
枠_表
  6
CONTINUOUS
 62
     2
100
AcDbText
 10
1389.750000000003
 20
256.7499999999995
 30
0.0
 40
42.5
  1
品
 41
1.12
  7
EXCADSTD
 72
     5
 11
1423.750000000003
 21
256.7499999999995
 31
0.0
100
AcDbText
  0
TEXT
  5
119
330
1F
100
AcDbEntity
  8
枠_表
  6
CONTINUOUS
 62
     2
100
AcDbText
 10
1389.750000000003
 20
206.7499999999995
 30
0.0
 40
42.5
  1
番
 41
1.12
  7
EXCADSTD
 72
     5
 11
1423.750000000003
 21
206.7499999999995
 31
0.0
100
AcDbText
  0
TEXT
  5
11A
330
1F
100
AcDbEntity
  8
枠_表
  6
CONTINUOUS
 62
     2
100
AcDbText
 10
1810.750000000003
 20
256.7499999999995
 30
0.0
 40
42.5
  1
尺
 41
1.12
  7
EXCADSTD
 72
     5
 11
1844.750000000003
 21
256.7499999999995
 31
0.0
100
AcDbText
  0
TEXT
  5
11B
330
1F
100
AcDbEntity
  8
枠_表
  6
CONTINUOUS
 62
     2
100
AcDbText
 10
1810.750000000003
 20
206.7499999999995
 30
0.0
 40
42.5
  1
度
 41
1.12
  7
EXCADSTD
 72
     5
 11
1844.750000000003
 21
206.7499999999995
 31
0.0
100
AcDbText
  0
TEXT
  5
11C
330
1F
100
AcDbEntity
  8
枠_表
  6
CONTINUOUS
 62
     2
100
AcDbText
 10
1389.750000000003
 20
143.75
 30
0.0
 40
42.5
  1
図
 41
1.12
  7
EXCADSTD
 72
     5
 11
1423.750000000003
 21
143.75
 31
0.0
100
AcDbText
  0
TEXT
  5
11D
330
1F
100
AcDbEntity
  8
枠_表
  6
CONTINUOUS
 62
     2
100
AcDbText
 10
1389.750000000003
 20
100.7500000000005
 30
0.0
 40
42.5
  1
番
 41
1.12
  7
EXCADSTD
 72
     5
 11
1423.750000000003
 21
100.7500000000005
 31
0.0
100
AcDbText
  0
TEXT
  5
11E
330
1F
100
AcDbEntity
  8
枠_表
  6
CONTINUOUS
 62
     2
100
AcDbText
 10
1925.279296900003
 20
216.3488464
 30
0.0
 40
30.0
  1
１０
 41
1.098531212121213
  7
EXCADSTD
 72
     5
 11
1977.067196900003
 21
216.3488464
 31
0.0
100
AcDbText
  0
LINE
  5
11F
330
1F
100
AcDbEntity
  8
枠_表
  6
CONTINUOUS
 62
     7
100
AcDbLine
 10
174.000000000002
 20
312.9999999999995
 30
0.0
 11
1994.000000000002
 21
312.9999999999995
 31
0.0
  0
LINE
  5
120
330
1F
100
AcDbEntity
  8
枠_表
  6
CONTINUOUS
 62
     7
100
AcDbLine
 10
1994.000000000002
 20
92.99999999999955
 30
0.0
 11
1994.000000000002
 21
2893.0
 31
0.0
  0
LINE
  5
121
330
1F
100
AcDbEntity
  8
枠_表
  6
CONTINUOUS
 62
     7
100
AcDbLine
 10
174.000000000002
 20
2893.0
 30
0.0
 11
1994.000000000002
 21
2893.0
 31
0.0
  0
LINE
  5
122
330
1F
100
AcDbEntity
  8
枠_表
  6
CONTINUOUS
 62
     6
100
AcDbLine
 10
1994.000000000002
 20
192.9999999999995
 30
0.0
 11
744.000000000002
 21
192.9999999999995
 31
0.0
  0
LINE
  5
123
330
1F
100
AcDbEntity
  8
枠_表
  6
CONTINUOUS
 62
     6
100
AcDbLine
 10
1854.000000000002
 20
312.9999999999995
 30
0.0
 11
1854.000000000002
 21
192.9999999999995
 31
0.0
  0
LINE
  5
124
330
1F
100
AcDbEntity
  8
枠_表
  6
CONTINUOUS
 62
     6
100
AcDbLine
 10
1804.000000000002
 20
312.9999999999995
 30
0.0
 11
1804.000000000002
 21
192.9999999999995
 31
0.0
  0
LINE
  5
125
330
1F
100
AcDbEntity
  8
枠_表
  6
CONTINUOUS
 62
     6
100
AcDbLine
 10
1434.000000000002
 20
312.9999999999995
 30
0.0
 11
1434.000000000002
 21
92.99999999999955
 31
0.0
  0
LINE
  5
126
330
1F
100
AcDbEntity
  8
枠_表
  6
CONTINUOUS
 62
     6
100
AcDbLine
 10
1384.000000000002
 20
312.9999999999995
 30
0.0
 11
1384.000000000002
 21
92.99999999999955
 31
0.0
  0
LINE
  5
127
330
1F
100
AcDbEntity
  8
枠_表
  6
CONTINUOUS
 62
     6
100
AcDbLine
 10
794.000000000002
 20
312.9999999999995
 30
0.0
 11
794.000000000002
 21
192.9999999999995
 31
0.0
  0
LINE
  5
128
330
1F
100
AcDbEntity
  8
枠_表
  6
CONTINUOUS
 62
     6
100
AcDbLine
 10
744.000000000002
 20
312.9999999999995
 30
0.0
 11
744.000000000002
 21
92.99999999999955
 31
0.0
  0
LINE
  5
129
330
1F
100
AcDbEntity
  8
枠_表
  6
CONTINUOUS
 62
     6
100
AcDbLine
 10
614.000000000002
 20
312.9999999999995
 30
0.0
 11
614.000000000002
 21
92.99999999999955
 31
0.0
  0
LINE
  5
12A
330
1F
100
AcDbEntity
  8
枠_表
  6
CONTINUOUS
 62
     6
100
AcDbLine
 10
484.000000000002
 20
312.9999999999995
 30
0.0
 11
484.000000000002
 21
92.99999999999955
 31
0.0
  0
LINE
  5
12B
330
1F
100
AcDbEntity
  8
枠_表
  6
CONTINUOUS
 62
     6
100
AcDbLine
 10
329.000000000002
 20
312.9999999999995
 30
0.0
 11
329.000000000002
 21
92.99999999999955
 31
0.0
  0
LINE
  5
12C
330
1F
100
AcDbEntity
  8
枠_表
  6
CONTINUOUS
 62
     6
100
AcDbLine
 10
174.000000000002
 20
262.9999999999995
 30
0.0
 11
744.000000000002
 21
262.9999999999995
 31
0.0
  0
LINE
  5
12D
330
1F
100
AcDbEntity
  8
枠_表
  6
CONTINUOUS
 62
     6
100
AcDbLine
 10
1886.653808600003
 20
216.0029297000005
 30
0.0
 11
1963.993896500002
 21
294.6998291
 31
0.0
  0
CIRCLE
  5
12E
330
1F
100
AcDbEntity
  8
枠_表
  6
CONTINUOUS
 62
     6
100
AcDbCircle
 10
224.000000000002
 20
117.9999999999995
 30
0.0
 40
1.0000002
  0
CIRCLE
  5
12F
330
1F
100
AcDbEntity
  8
枠_表
  6
CONTINUOUS
 62
     6
100
AcDbCircle
 10
274.000000000002
 20
117.9999999999995
 30
0.0
 40
1.0000002
  0
CIRCLE
  5
130
330
1F
100
AcDbEntity
  8
枠_表
  6
CONTINUOUS
 62
     6
100
AcDbCircle
 10
379.000000000002
 20
117.9999999999995
 30
0.0
 40
1.0000002
  0
CIRCLE
  5
131
330
1F
100
AcDbEntity
  8
枠_表
  6
CONTINUOUS
 62
     6
100
AcDbCircle
 10
429.000000000002
 20
117.9999999999995
 30
0.0
 40
1.0000002
  0
LINE
  5
132
330
1F
100
AcDbEntity
  8
枠_表
  6
EXLTYPE2
 62
     6
100
AcDbLine
 10
174.000000000002
 20
142.9999999999995
 30
0.0
 11
484.000000000002
 21
142.9999999999995
 31
0.0
  0
CIRCLE
  5
133
330
1F
100
AcDbEntity
  8
枠_表
  6
CONTINUOUS
 62
     6
100
AcDbCircle
 10
224.000000000002
 20
117.9999999999995
 30
0.0
 40
1.0000002
  0
CIRCLE
  5
134
330
1F
100
AcDbEntity
  8
枠_表
  6
CONTINUOUS
 62
     6
100
AcDbCircle
 10
274.000000000002
 20
117.9999999999995
 30
0.0
 40
1.0000002
  0
LINE
  5
135
330
1F
100
AcDbEntity
  8
枠_表
  6
CONTINUOUS
 62
     7
100
AcDbLine
 10
174.000000000002
 20
92.99999999999955
 30
0.0
 11
174.000000000002
 21
2893.0
 31
0.0
  0
TEXT
  5
136
330
1F
100
AcDbEntity
  8
枠_表
  6
CONTINUOUS
 62
     2
100
AcDbText
 10
1894.000000000037
 20
2768.749999999998
 30
0.0
 40
40.0
  1
１
 41
1.12
  7
EXCADSTD
 72
     5
 11
1926.000000000037
 21
2768.749999999998
 31
0.0
100
AcDbText
  0
TEXT
  5
137
330
1F
100
AcDbEntity
  8
枠_表
  6
CONTINUOUS
 62
     2
100
AcDbText
 10
1160.999999999066
 20
2654.500000000005
 30
0.0
 40
40.0
  1
※止水栓（別途手配）
 41
1.052966101694915
  7
EXCADSTD
 72
     5
 11
1515.999999999066
 21
2654.500000000005
 31
0.0
100
AcDbText
  0
TEXT
  5
138
330
1F
100
AcDbEntity
  8
枠_表
  6
CONTINUOUS
 62
     2
100
AcDbText
 10
1894.000000000036
 20
2430.749999999998
 30
0.0
 40
40.0
  1
１
 41
1.12
  7
EXCADSTD
 72
     5
 11
1926.000000000036
 21
2430.749999999998
 31
0.0
100
AcDbText
  0
TEXT
  5
139
330
1F
100
AcDbEntity
  8
枠_表
  6
CONTINUOUS
 62
     2
100
AcDbText
 10
1894.000000000036
 20
2355.5
 30
0.0
 40
40.0
  1
１
 41
1.12
  7
EXCADSTD
 72
     5
 11
1926.000000000036
 21
2355.5
 31
0.0
100
AcDbText
  0
TEXT
  5
13A
330
1F
100
AcDbEntity
  8
枠_表
  6
CONTINUOUS
 62
     2
100
AcDbText
 10
1522.9999999999
 20
2382.149999999999
 30
0.0
 40
40.0
  1
配管アダプター
 41
0.9902439024390244
  7
EXCADSTD
 72
     5
 11
1754.9999999999
 21
2382.149999999999
 31
0.0
100
AcDbText
  0
TEXT
  5
13B
330
1F
100
AcDbEntity
  8
枠_表
  6
CONTINUOUS
 62
     2
100
AcDbText
 10
1522.9999999999
 20
2332.649999999999
 30
0.0
 40
40.0
  1
（ＶＰ５０・ＶＵ５０用）
 41
0.8183098591549297
  7
EXCADSTD
 72
     5
 11
1854.9999999999
 21
2332.649999999999
 31
0.0
100
AcDbText
  0
TEXT
  5
13C
330
1F
100
AcDbEntity
  8
枠_表
  6
CONTINUOUS
 62
     2
100
AcDbText
 10
1164.000000000032
 20
2481.249999999998
 30
0.0
 40
40.0
  1
※壁排水用部材（別途手配）
 41
1.045454545454546
  7
EXCADSTD
 72
     5
 11
1624.000000000032
 21
2481.249999999998
 31
0.0
100
AcDbText
  0
LINE
  5
13D
330
1F
100
AcDbEntity
  8
枠_表
  6
CONTINUOUS
 62
     6
100
AcDbLine
 10
1164.000000000036
 20
2813.499999999997
 30
0.0
 11
1964.000000000037
 21
2813.499999999997
 31
0.0
  0
LINE
  5
13E
330
1F
100
AcDbEntity
  8
枠_表
  6
CONTINUOUS
 62
     6
100
AcDbLine
 10
1164.000000000036
 20
2862.999999999997
 30
0.0
 11
1964.000000000037
 21
2862.999999999997
 31
0.0
  0
LINE
  5
13F
330
1F
100
AcDbEntity
  8
枠_表
  6
CONTINUOUS
 62
     6
100
AcDbLine
 10
1164.000000000036
 20
2644.499999999998
 30
0.0
 11
1964.000000000037
 21
2644.499999999998
 31
0.0
  0
LINE
  5
140
330
1F
100
AcDbEntity
  8
枠_表
  6
CONTINUOUS
 62
     6
100
AcDbLine
 10
1164.000000000036
 20
2545.499999999997
 30
0.0
 11
1964.000000000037
 21
2545.499999999997
 31
0.0
  0
LINE
  5
141
330
1F
100
AcDbEntity
  8
枠_表
  6
CONTINUOUS
 62
     6
100
AcDbLine
 10
1164.000000000036
 20
2594.999999999998
 30
0.0
 11
1964.000000000037
 21
2594.999999999998
 31
0.0
  0
LINE
  5
142
330
1F
100
AcDbEntity
  8
枠_表
  6
CONTINUOUS
 62
     6
100
AcDbLine
 10
1164.000000000036
 20
2545.500000000002
 30
0.0
 11
1164.000000000036
 21
2644.499999999998
 31
0.0
  0
LINE
  5
143
330
1F
100
AcDbEntity
  8
枠_表
  6
CONTINUOUS
 62
     6
100
AcDbLine
 10
1514.000000000037
 20
2545.499999999997
 30
0.0
 11
1514.000000000037
 21
2644.499999999998
 31
0.0
  0
LINE
  5
144
330
1F
100
AcDbEntity
  8
枠_表
  6
CONTINUOUS
 62
     6
100
AcDbLine
 10
1864.000000000037
 20
2545.499999999997
 30
0.0
 11
1864.000000000037
 21
2644.499999999998
 31
0.0
  0
LINE
  5
145
330
1F
100
AcDbEntity
  8
枠_表
  6
CONTINUOUS
 62
     6
100
AcDbLine
 10
1964.000000000037
 20
2545.500000000002
 30
0.0
 11
1964.000000000037
 21
2644.499999999998
 31
0.0
  0
LINE
  5
146
330
1F
100
AcDbEntity
  8
枠_表
  6
CONTINUOUS
 62
     6
100
AcDbLine
 10
1164.000000000036
 20
2425.999999999999
 30
0.0
 11
1964.000000000037
 21
2425.999999999999
 31
0.0
  0
LINE
  5
147
330
1F
100
AcDbEntity
  8
枠_表
  6
CONTINUOUS
 62
     6
100
AcDbLine
 10
1164.000000000036
 20
2475.499999999997
 30
0.0
 11
1964.000000000037
 21
2475.499999999997
 31
0.0
  0
LINE
  5
148
330
1F
100
AcDbEntity
  8
枠_表
  6
CONTINUOUS
 62
     6
100
AcDbLine
 10
1164.000000000036
 20
2326.999999999998
 30
0.0
 11
1164.000000000036
 21
2475.499999999997
 31
0.0
  0
LINE
  5
149
330
1F
100
AcDbEntity
  8
枠_表
  6
CONTINUOUS
 62
     6
100
AcDbLine
 10
1514.000000000037
 20
2326.999999999998
 30
0.0
 11
1514.000000000037
 21
2475.499999999997
 31
0.0
  0
LINE
  5
14A
330
1F
100
AcDbEntity
  8
枠_表
  6
CONTINUOUS
 62
     6
100
AcDbLine
 10
1864.000000000037
 20
2326.999999999998
 30
0.0
 11
1864.000000000037
 21
2475.499999999997
 31
0.0
  0
LINE
  5
14B
330
1F
100
AcDbEntity
  8
枠_表
  6
CONTINUOUS
 62
     6
100
AcDbLine
 10
1964.000000000037
 20
2326.999999999998
 30
0.0
 11
1964.000000000037
 21
2475.499999999997
 31
0.0
  0
LINE
  5
14C
330
1F
100
AcDbEntity
  8
枠_表
  6
CONTINUOUS
 62
     6
100
AcDbLine
 10
1164.000000000036
 20
2763.999999999996
 30
0.0
 11
1964.000000000037
 21
2763.999999999996
 31
0.0
  0
TEXT
  5
14D
330
1F
100
AcDbEntity
  8
枠_表
  6
CONTINUOUS
 62
     2
100
AcDbText
 10
1522.9999999999
 20
2429.749999999999
 30
0.0
 40
40.0
  1
Ｌ管
 41
1.049923636363638
  7
EXCADSTD
 72
     5
 11
1588.9951999999
 21
2429.749999999999
 31
0.0
100
AcDbText
  0
TEXT
  5
14E
330
1F
100
AcDbEntity
  8
枠_表
  6
CONTINUOUS
 62
     2
100
AcDbText
 10
1878.000000059641
 20
2818.25
 30
0.0
 40
40.0
  1
個数
 41
1.049923636363638
  7
EXCADSTD
 72
     5
 11
1943.995200059641
 21
2818.25
 31
0.0
100
AcDbText
  0
TEXT
  5
14F
330
1F
100
AcDbEntity
  8
枠_表
  6
CONTINUOUS
 62
     2
100
AcDbText
 10
1249.000000000032
 20
2818.25
 30
0.0
 40
40.0
  1
品番
 41
1.895695454545453
  7
EXCADSTD
 72
     5
 11
1368.158000000032
 21
2818.25
 31
0.0
100
AcDbText
  0
TEXT
  5
150
330
1F
100
AcDbEntity
  8
枠_表
  6
CONTINUOUS
 62
     2
100
AcDbText
 10
1599.000000000032
 20
2818.25
 30
0.0
 40
40.0
  1
品名
 41
1.895695454545453
  7
EXCADSTD
 72
     5
 11
1718.158000000032
 21
2818.25
 31
0.0
100
AcDbText
  0
TEXT
  5
151
330
1F
100
AcDbEntity
  8
枠_表
  6
CONTINUOUS
 62
     2
100
AcDbText
 10
1522.9999999999
 20
2600.749999999998
 30
0.0
 40
40.0
  1
床給水用止水栓
 41
0.9902439024390244
  7
EXCADSTD
 72
     5
 11
1754.9999999999
 21
2600.749999999998
 31
0.0
100
AcDbText
  0
TEXT
  5
152
330
1F
100
AcDbEntity
  8
枠_表
  6
CONTINUOUS
 62
     2
100
AcDbText
 10
1520.999999999899
 20
2551.249999999998
 30
0.0
 40
40.0
  1
壁給水用止水栓
 41
0.9902439024390244
  7
EXCADSTD
 72
     5
 11
1752.999999999899
 21
2551.249999999998
 31
0.0
100
AcDbText
  0
LINE
  5
153
330
1F
100
AcDbEntity
  8
枠_表
  6
CONTINUOUS
 62
     6
100
AcDbLine
 10
1164.000000000036
 20
2764.000000000001
 30
0.0
 11
1164.000000000036
 21
2863.0
 31
0.0
  0
LINE
  5
154
330
1F
100
AcDbEntity
  8
枠_表
  6
CONTINUOUS
 62
     6
100
AcDbLine
 10
1464.000000000037
 20
2862.999999999997
 30
0.0
 11
1464.000000000037
 21
2764.000000000001
 31
0.0
  0
LINE
  5
155
330
1F
100
AcDbEntity
  8
枠_表
  6
CONTINUOUS
 62
     6
100
AcDbLine
 10
1864.000000000037
 20
2764.000000000001
 30
0.0
 11
1864.000000000037
 21
2862.999999999997
 31
0.0
  0
LINE
  5
156
330
1F
100
AcDbEntity
  8
枠_表
  6
CONTINUOUS
 62
     6
100
AcDbLine
 10
1964.000000000037
 20
2764.000000000001
 30
0.0
 11
1964.000000000037
 21
2863.0
 31
0.0
  0
TEXT
  5
157
330
1F
100
AcDbEntity
  8
枠_表
  6
CONTINUOUS
 62
     2
100
AcDbText
 10
1894.000000000036
 20
2600.249999999999
 30
0.0
 40
40.0
  1
１
 41
1.12
  7
EXCADSTD
 72
     5
 11
1926.000000000036
 21
2600.249999999999
 31
0.0
100
AcDbText
  0
TEXT
  5
158
330
1F
100
AcDbEntity
  8
枠_表
  6
CONTINUOUS
 62
     2
100
AcDbText
 10
1894.000000000036
 20
2551.249999999998
 30
0.0
 40
40.0
  1
１
 41
1.12
  7
EXCADSTD
 72
     5
 11
1926.000000000036
 21
2551.249999999998
 31
0.0
100
AcDbText
  0
LINE
  5
159
330
1F
100
AcDbEntity
  8
枠_表
  6
CONTINUOUS
 62
     6
100
AcDbLine
 10
1164.000000000036
 20
2326.999999999998
 30
0.0
 11
1964.000000000037
 21
2326.999999999998
 31
0.0
  0
TEXT
  5
15A
330
1F
100
AcDbEntity
  8
枠_表
  6
CONTINUOUS
 62
     2
100
AcDbText
 10
1894.000000000036
 20
2212.249999999999
 30
0.0
 40
40.0
  1
１
 41
1.12
  7
EXCADSTD
 72
     5
 11
1926.000000000036
 21
2212.249999999999
 31
0.0
100
AcDbText
  0
TEXT
  5
15B
330
1F
100
AcDbEntity
  8
枠_表
  6
CONTINUOUS
 62
     2
100
AcDbText
 10
1894.000000000036
 20
2136.999999999998
 30
0.0
 40
40.0
  1
１
 41
1.12
  7
EXCADSTD
 72
     5
 11
1926.000000000036
 21
2136.999999999998
 31
0.0
100
AcDbText
  0
TEXT
  5
15C
330
1F
100
AcDbEntity
  8
枠_表
  6
CONTINUOUS
 62
     2
100
AcDbText
 10
1522.9999999999
 20
2163.649999999998
 30
0.0
 40
40.0
  1
配管アダプター
 41
0.9902439024390244
  7
EXCADSTD
 72
     5
 11
1754.9999999999
 21
2163.649999999998
 31
0.0
100
AcDbText
  0
LINE
  5
15D
330
1F
100
AcDbEntity
  8
枠_表
  6
CONTINUOUS
 62
     6
100
AcDbLine
 10
1164.000000000036
 20
2207.499999999998
 30
0.0
 11
1964.000000000037
 21
2207.499999999998
 31
0.0
  0
LINE
  5
15E
330
1F
100
AcDbEntity
  8
枠_表
  6
CONTINUOUS
 62
     6
100
AcDbLine
 10
1164.000000000036
 20
2256.999999999998
 30
0.0
 11
1964.000000000037
 21
2256.999999999998
 31
0.0
  0
LINE
  5
15F
330
1F
100
AcDbEntity
  8
枠_表
  6
CONTINUOUS
 62
     6
100
AcDbLine
 10
1164.000000000036
 20
2108.499999999999
 30
0.0
 11
1164.000000000036
 21
2256.999999999998
 31
0.0
  0
LINE
  5
160
330
1F
100
AcDbEntity
  8
枠_表
  6
CONTINUOUS
 62
     6
100
AcDbLine
 10
1514.000000000037
 20
2108.499999999999
 30
0.0
 11
1514.000000000037
 21
2256.999999999998
 31
0.0
  0
LINE
  5
161
330
1F
100
AcDbEntity
  8
枠_表
  6
CONTINUOUS
 62
     6
100
AcDbLine
 10
1864.000000000037
 20
2108.499999999999
 30
0.0
 11
1864.000000000037
 21
2256.999999999998
 31
0.0
  0
LINE
  5
162
330
1F
100
AcDbEntity
  8
枠_表
  6
CONTINUOUS
 62
     6
100
AcDbLine
 10
1964.000000000037
 20
2108.499999999999
 30
0.0
 11
1964.000000000037
 21
2256.999999999998
 31
0.0
  0
LINE
  5
163
330
1F
100
AcDbEntity
  8
枠_表
  6
CONTINUOUS
 62
     6
100
AcDbLine
 10
1164.000000000036
 20
2108.499999999999
 30
0.0
 11
1964.000000000037
 21
2108.499999999999
 31
0.0
  0
TEXT
  5
164
330
1F
100
AcDbEntity
  8
枠_表
  6
CONTINUOUS
 62
     2
100
AcDbText
 10
1164.000000000032
 20
2262.749999999999
 30
0.0
 40
40.0
  1
※床排水用部材〔硬管〕（別途手配）
 41
1.03960396039604
  7
EXCADSTD
 72
     5
 11
1764.000000000032
 21
2262.749999999999
 31
0.0
100
AcDbText
  0
TEXT
  5
165
330
1F
100
AcDbEntity
  8
枠_表
  6
CONTINUOUS
 62
     2
100
AcDbText
 10
1522.9999999999
 20
2211.249999999998
 30
0.0
 40
40.0
  1
リターンベンド管
 41
0.9829787234042554
  7
EXCADSTD
 72
     5
 11
1786.9999999999
 21
2211.249999999998
 31
0.0
100
AcDbText
  0
TEXT
  5
166
330
1F
100
AcDbEntity
  8
枠_表
  6
CONTINUOUS
 62
     2
100
AcDbText
 10
1522.9999999999
 20
2114.15
 30
0.0
 40
40.0
  1
（ＶＰ４０/５０・ＶＵ４０/５０用）
 41
0.5425531914893617
  7
EXCADSTD
 72
     5
 11
1862.9999999999
 21
2114.15
 31
0.0
100
AcDbText
  0
TEXT
  5
167
330
1F
100
AcDbEntity
  8
枠_表
  6
CONTINUOUS
 62
     2
100
AcDbText
 10
1171.00000000003
 20
2768.749999999998
 30
0.0
 40
40.0
  1
ＬＴＣＫ３５１Ａ１Ｃ
 41
0.7118644067796611
  7
EXCADSTD
 72
     5
 11
1411.00000000003
 21
2768.749999999998
 31
0.0
100
AcDbText
  0
TEXT
  5
168
330
1F
100
AcDbEntity
  8
枠_表
  6
CONTINUOUS
 62
     2
100
AcDbText
 10
955.0000014305022
 20
222.9999999999995
 30
0.0
 40
60.0
  1
手洗キャビ
 41
1.078160904193747
  7
EXCADSTD
 72
     5
 11
1222.999997615805
 21
222.9999999999995
 31
0.0
100
AcDbText
  0
TEXT
  5
169
330
1F
100
AcDbEntity
  8
枠_表
  6
CONTINUOUS
 62
     2
100
AcDbText
 10
1446.999998331103
 20
227.9999999999995
 30
0.0
 40
50.0
  1
ＬＴＣＫ３５１型
 41
1.024680861006392
  7
EXCADSTD
 72
     5
 11
1791.000001668963
 21
227.9999999999995
 31
0.0
100
AcDbText
  0
TEXT
  5
16A
330
1F
100
AcDbEntity
  8
枠_表
  6
CONTINUOUS
 62
     2
100
AcDbText
 10
1472.9999999999
 20
2767.749999999996
 30
0.0
 40
40.0
  1
手洗キャビ（共用形）
 41
0.9728813559322035
  7
EXCADSTD
 72
     5
 11
1800.9999999999
 21
2767.749999999996
 31
0.0
100
AcDbText
  0
TEXT
  5
16B
330
1F
100
AcDbEntity
  8
枠_表
  6
CONTINUOUS
 62
     2
100
AcDbText
 10
1160.999999999066
 20
2048.500000000006
 30
0.0
 40
40.0
  1
※手洗キャビには、床排水用トラップを付属
 41
1.036764705882353
  7
EXCADSTD
 72
     5
 11
1865.999999999066
 21
2048.500000000006
 31
0.0
100
AcDbText
  0
TEXT
  5
16C
330
1F
100
AcDbEntity
  8
枠_表
  6
CONTINUOUS
 62
     2
100
AcDbText
 10
1160.999999999066
 20
2008.500000000006
 30
0.0
 40
40.0
  1
　（ジャバラ管トラップ、防臭キャップ）
 41
1.037610619469026
  7
EXCADSTD
 72
     5
 11
1830.999999999066
 21
2008.500000000006
 31
0.0
100
AcDbText
  0
TEXT
  5
16D
330
1F
100
AcDbEntity
  8
枠_表
  6
CONTINUOUS
 62
     2
100
AcDbText
 10
1160.999999999066
 20
1968.500000000006
 30
0.0
 40
40.0
  1
※オプション部材のトラップ管径は、φ３２
 41
1.036764705882353
  7
EXCADSTD
 72
     5
 11
1865.999999999066
 21
1968.500000000006
 31
0.0
100
AcDbText
  0
TEXT
  5
16E
330
1F
100
AcDbEntity
  8
枠_表
  6
CONTINUOUS
 62
     2
100
AcDbText
 10
1160.999999999066
 20
1928.500000000006
 30
0.0
 40
40.0
  1
※手洗キャビには、止水栓は含まれない
 41
1.038551401869159
  7
EXCADSTD
 72
     5
 11
1795.999999999066
 21
1928.500000000006
 31
0.0
100
AcDbText
  0
TEXT
  5
16F
330
1F
100
AcDbEntity
  8
枠_表
  6
CONTINUOUS
 62
     2
100
AcDbText
 10
1160.999999999066
 20
1888.500000000006
 30
0.0
 40
40.0
  1
※単水栓は、ハンドル式
 41
1.05
  7
EXCADSTD
 72
     5
 11
1550.999999999066
 21
1888.500000000006
 31
0.0
100
AcDbText
  0
TEXT
  5
170
330
1F
100
AcDbEntity
  8
枠_表
  6
CONTINUOUS
 62
     2
100
AcDbText
 10
1169.000000000071
 20
2356.25
 30
0.0
 40
40.0
  1
ＬＵＭＥＨ７０－２００－３２Ｂ
 41
0.6685393258426967
  7
EXCADSTD
 72
     5
 11
1509.000000000071
 21
2356.25
 31
0.0
100
AcDbText
  0
TEXT
  5
171
330
1F
100
AcDbEntity
  8
枠_表
  6
CONTINUOUS
 62
     2
100
AcDbText
 10
1169.00000000007
 20
2137.750000000001
 30
0.0
 40
40.0
  1
ＭＥＰ６９１２４
 41
0.7223404255319149
  7
EXCADSTD
 72
     5
 11
1363.00000000007
 21
2137.750000000001
 31
0.0
100
AcDbText
  0
TEXT
  5
172
330
1F
100
AcDbEntity
  8
枠_表
  6
CONTINUOUS
 62
     6
100
AcDbText
 10
201.5000000000055
 20
178.0000000000018
 30
0.0
 40
50.0
  1
岩田
 41
1.166581818181818
  7
EXCADSTD
 72
     5
 11
293.1600000000054
 21
178.0000000000018
 31
0.0
100
AcDbText
  0
TEXT
  5
173
330
1F
100
AcDbEntity
  8
枠_表
  6
CONTINUOUS
 62
     6
100
AcDbText
 10
180.344115675482
 20
102.4500732000001
 30
0.0
 40
30.0
  1
'21
 41
0.5376093902439024
  7
EXCADSTD
 72
     5
 11
211.832665675482
 21
102.4500732000001
 31
0.0
100
AcDbText
  0
TEXT
  5
174
330
1F
100
AcDbEntity
  8
枠_表
  6
CONTINUOUS
 62
     6
100
AcDbText
 10
243.0691160569518
 20
102.4500732000001
 30
0.0
 40
30.0
  1
7
 41
0.4683823529411765
  7
EXCADSTD
 72
     5
 11
254.4441160569518
 21
102.4500732000001
 31
0.0
100
AcDbText
  0
TEXT
  5
175
330
1F
100
AcDbEntity
  8
枠_表
  6
CONTINUOUS
 62
     6
100
AcDbText
 10
289.8941159139008
 20
102.4500732000001
 30
0.0
 40
30.0
  1
29
 41
0.4200000000000004
  7
EXCADSTD
 72
     5
 11
311.4941159139008
 21
102.4500732000001
 31
0.0
100
AcDbText
  0
TEXT
  5
176
330
1F
100
AcDbEntity
  8
枠_表
  6
CONTINUOUS
 62
     6
100
AcDbText
 10
356.5000000000055
 20
178.0000000000018
 30
0.0
 40
50.0
  1
川野
 41
1.166581818181818
  7
EXCADSTD
 72
     5
 11
448.1600000000054
 21
178.0000000000018
 31
0.0
100
AcDbText
  0
TEXT
  5
177
330
1F
100
AcDbEntity
  8
枠_表
  6
CONTINUOUS
 62
     6
100
AcDbText
 10
335.344115675482
 20
102.4500732000001
 30
0.0
 40
30.0
  1
'23
 41
0.4689784042553188
  7
EXCADSTD
 72
     5
 11
366.832665675482
 21
102.4500732000001
 31
0.0
100
AcDbText
  0
TEXT
  5
178
330
1F
100
AcDbEntity
  8
枠_表
  6
CONTINUOUS
 62
     6
100
AcDbText
 10
398.0691160569518
 20
102.4500732000001
 30
0.0
 40
30.0
  1
4
 41
0.4423611111111111
  7
EXCADSTD
 72
     5
 11
409.4441160569518
 21
102.4500732000001
 31
0.0
100
AcDbText
  0
TEXT
  5
179
330
1F
100
AcDbEntity
  8
枠_表
  6
CONTINUOUS
 62
     6
100
AcDbText
 10
444.8941159139008
 20
102.4500732000001
 30
0.0
 40
30.0
  1
21
 41
0.4877419354838714
  7
EXCADSTD
 72
     5
 11
466.4941159139008
 21
102.4500732000001
 31
0.0
100
AcDbText
  0
TEXT
  5
17A
330
1F
100
AcDbEntity
  8
枠_表
  6
CONTINUOUS
 62
     7
100
AcDbText
 10
1508.999999999969
 20
114.5000000000005
 30
0.0
 40
60.0
  1
ＬＵ７１７７６３
 41
1.017730496453901
  7
EXCADSTD
 72
     5
 11
1918.999999999969
 21
114.5000000000005
 31
0.0
100
AcDbText
  0
TEXT
  5
17B
330
1F
100
AcDbEntity
  8
枠_表
  6
CONTINUOUS
 62
     2
100
AcDbText
 10
1169.00000000007
 20
2599.5
 30
0.0
 40
40.0
  1
ＪＬ２１１Ｆ３３０ＷＭＹ４０
 41
0.7000000000000001
  7
EXCADSTD
 72
     5
 11
1501.00000000007
 21
2599.5
 31
0.0
100
AcDbText
  0
TEXT
  5
17C
330
1F
100
AcDbEntity
  8
枠_表
  6
CONTINUOUS
 62
     2
100
AcDbText
 10
1171.00000000003
 20
2550.249999999999
 30
0.0
 40
40.0
  1
ＪＬ２２１Ｆ６０ＷＭＹ４０
 41
0.7022727272727274
  7
EXCADSTD
 72
     5
 11
1480.00000000003
 21
2550.249999999999
 31
0.0
100
AcDbText
  0
TEXT
  5
17D
330
1F
100
AcDbEntity
  8
枠_表
  6
CONTINUOUS
 62
     2
100
AcDbText
 10
1171.00000000003
 20
2430.749999999998
 30
0.0
 40
40.0
  1
ＭＥ４４１３１
 41
0.7298780487804878
  7
EXCADSTD
 72
     5
 11
1342.00000000003
 21
2430.749999999998
 31
0.0
100
AcDbText
  0
TEXT
  5
17E
330
1F
100
AcDbEntity
  8
枠_表
  6
CONTINUOUS
 62
     2
100
AcDbText
 10
1171.00000000003
 20
2212.249999999999
 30
0.0
 40
40.0
  1
ＭＥ４４７０５
 41
0.7298780487804878
  7
EXCADSTD
 72
     5
 11
1342.00000000003
 21
2212.249999999999
 31
0.0
100
AcDbText
  0
LINE
  5
17F
330
1F
100
AcDbEntity
  8
化粧台
  6
CONTINUOUS
 62
     6
100
AcDbLine
 10
698.9999999999982
 20
2082.631824714099
 30
0.0
 11
730.0719146713254
 21
2087.959420873665
 31
0.0
  0
LINE
  5
180
330
1F
100
AcDbEntity
  8
化粧台
  6
CONTINUOUS
 62
     6
100
AcDbLine
 10
698.9999999999982
 20
1978.0
 30
0.0
 11
738.9707669569342
 21
1933.364329738639
 31
0.0
  0
LINE
  5
181
330
1F
100
AcDbEntity
  8
化粧台
  6
CONTINUOUS
 62
     6
100
AcDbLine
 10
568.9999999999982
 20
1978.0
 30
0.0
 11
512.2429697890093
 21
1935.410317847324
 31
0.0
  0
ARC
  5
182
330
1F
100
AcDbEntity
  8
化粧台
  6
CONTINUOUS
 62
     6
100
AcDbCircle
 10
578.9999999999982
 20
1988.000000000008
 30
0.0
 40
10.0
100
AcDbArc
 50
180.0
 51
270.0000000000002
  0
LINE
  5
183
330
1F
100
AcDbEntity
  8
化粧台
  6
CONTINUOUS
 62
     6
100
AcDbLine
 10
688.9999999999982
 20
1978.000000000008
 30
0.0
 11
578.9999999999982
 21
1978.000000000008
 31
0.0
  0
ARC
  5
184
330
1F
100
AcDbEntity
  8
化粧台
  6
CONTINUOUS
 62
     6
100
AcDbCircle
 10
688.9999999999982
 20
1988.000000000008
 30
0.0
 40
10.0
100
AcDbArc
 50
270.0000000000002
 51
0.0
  0
ARC
  5
185
330
1F
100
AcDbEntity
  8
化粧台
  6
CONTINUOUS
 62
     6
100
AcDbCircle
 10
688.9999999999982
 20
2072.631824714106
 30
0.0
 40
10.0
100
AcDbArc
 50
0.0
 51
90.00000000000001
  0
LINE
  5
186
330
1F
100
AcDbEntity
  8
化粧台
  6
CONTINUOUS
 62
     6
100
AcDbLine
 10
688.9999999999982
 20
2082.631824714106
 30
0.0
 11
578.9999999999982
 21
2082.631824714106
 31
0.0
  0
ARC
  5
187
330
1F
100
AcDbEntity
  8
化粧台
  6
CONTINUOUS
 62
     6
100
AcDbCircle
 10
578.9999999999982
 20
2072.631824714106
 30
0.0
 40
10.0
100
AcDbArc
 50
90.00000000000001
 51
180.0
  0
LINE
  5
188
330
1F
100
AcDbEntity
  8
化粧台
  6
CONTINUOUS
 62
     6
100
AcDbLine
 10
568.9999999999982
 20
2072.631824714106
 30
0.0
 11
568.9999999999982
 21
1988.000000000008
 31
0.0
  0
LINE
  5
189
330
1F
100
AcDbEntity
  8
化粧台
  6
CONTINUOUS
 62
     6
100
AcDbLine
 10
504.4999999999982
 20
2078.804391283407
 30
0.0
 11
504.4999999999982
 21
1941.11758408676
 31
0.0
  0
ARC
  5
18A
330
1F
100
AcDbEntity
  8
化粧台
  6
CONTINUOUS
 62
     6
100
AcDbCircle
 10
516.4999999999982
 20
1941.11758408676
 30
0.0
 40
12.00000000000001
100
AcDbArc
 50
180.0
 51
267.7320496888569
  0
ARC
  5
18B
330
1F
100
AcDbEntity
  8
化粧台
  6
CONTINUOUS
 62
     6
100
AcDbCircle
 10
673.9999999999982
 20
5918.000000000011
 30
0.0
 40
3992.000000000003
100
AcDbArc
 50
267.7320496888586
 51
272.2679503111416
  0
ARC
  5
18C
330
1F
100
AcDbEntity
  8
化粧台
  6
CONTINUOUS
 62
     6
100
AcDbCircle
 10
831.4999999999982
 20
1941.11758408676
 30
0.0
 40
12.00000000000001
100
AcDbArc
 50
272.2679503111399
 51
0.0
  0
LINE
  5
18D
330
1F
100
AcDbEntity
  8
化粧台
  6
CONTINUOUS
 62
     6
100
AcDbLine
 10
843.4999999999982
 20
2078.804391283407
 30
0.0
 11
843.4999999999982
 21
1941.11758408676
 31
0.0
  0
CIRCLE
  5
18E
330
1F
100
AcDbEntity
  8
化粧台
  6
CONTINUOUS
 62
     6
100
AcDbCircle
 10
648.9999999999982
 20
2038.0
 30
0.0
 40
17.0
  0
LINE
  5
18F
330
1F
100
AcDbEntity
  8
化粧台
  6
CONTINUOUS
 62
     6
100
AcDbLine
 10
568.9999999999982
 20
2082.631824714099
 30
0.0
 11
535.5000000000018
 21
2086.425971137429
 31
0.0
  0
ARC
  5
190
330
1F
100
AcDbEntity
  8
化粧台
  6
CONTINUOUS
 62
     6
100
AcDbCircle
 10
514.4999999999982
 20
2078.804391283407
 30
0.0
 40
10.0
100
AcDbArc
 50
101.5369590328618
 51
180.0
  0
ARC
  5
191
330
1F
100
AcDbEntity
  8
化粧台
  6
CONTINUOUS
 62
     6
100
AcDbCircle
 10
833.4999999999982
 20
2078.804391283407
 30
0.0
 40
10.0
100
AcDbArc
 50
0.0
 51
78.46304096713943
  0
ARC
  5
192
330
1F
100
AcDbEntity
  8
化粧台
  6
CONTINUOUS
 62
     2
100
AcDbCircle
 10
500.4999999999982
 20
2097.000000000007
 30
0.0
 40
4.0
100
AcDbArc
 50
180.0
 51
270.0000000000002
  0
LINE
  5
193
330
1F
100
AcDbEntity
  8
化粧台
  6
CONTINUOUS
 62
     2
100
AcDbLine
 10
496.4999999999982
 20
2113.000000000007
 30
0.0
 11
851.4999999999982
 21
2113.000000000007
 31
0.0
  0
ARC
  5
194
330
1F
100
AcDbEntity
  8
化粧台
  6
CONTINUOUS
 62
     2
100
AcDbCircle
 10
847.4999999999983
 20
2097.000000000007
 30
0.0
 40
4.0
100
AcDbArc
 50
270.0000000000002
 51
0.0
  0
LINE
  5
195
330
1F
100
AcDbEntity
  8
化粧台
  6
CONTINUOUS
 62
     2
100
AcDbLine
 10
496.4999999999982
 20
2113.000000000007
 30
0.0
 11
496.4999999999982
 21
1941.11758408676
 31
0.0
  0
LINE
  5
196
330
1F
100
AcDbEntity
  8
化粧台
  6
CONTINUOUS
 62
     2
100
AcDbLine
 10
851.4999999999982
 20
2113.000000000007
 30
0.0
 11
851.4999999999982
 21
1941.11758408676
 31
0.0
  0
ARC
  5
197
330
1F
100
AcDbEntity
  8
化粧台
  6
CONTINUOUS
 62
     2
100
AcDbCircle
 10
516.4999999999982
 20
1941.11758408676
 30
0.0
 40
20.0
100
AcDbArc
 50
180.0
 51
267.7320496888586
  0
ARC
  5
198
330
1F
100
AcDbEntity
  8
化粧台
  6
CONTINUOUS
 62
     2
100
AcDbCircle
 10
673.9999999999982
 20
5918.000000000011
 30
0.0
 40
4000.000000000002
100
AcDbArc
 50
267.7320496888586
 51
272.2679503111416
  0
ARC
  5
199
330
1F
100
AcDbEntity
  8
化粧台
  6
CONTINUOUS
 62
     2
100
AcDbCircle
 10
831.4999999999982
 20
1941.11758408676
 30
0.0
 40
20.0
100
AcDbArc
 50
272.2679503111411
 51
0.0
  0
ARC
  5
19A
330
1F
100
AcDbEntity
  8
化粧台
  6
CONTINUOUS
 62
     2
100
AcDbCircle
 10
734.9999999999981
 20
1936.467254938127
 30
0.0
 40
10.0
100
AcDbArc
 50
270.8777446663837
 51
0.0
  0
ARC
  5
19B
330
1F
100
AcDbEntity
  8
化粧台
  6
CONTINUOUS
 62
     2
100
AcDbCircle
 10
734.9999999999981
 20
2078.804391283407
 30
0.0
 40
10.0
100
AcDbArc
 50
0.0
 51
90.00000000000001
  0
LINE
  5
19C
330
1F
100
AcDbEntity
  8
化粧台
  6
CONTINUOUS
 62
     2
100
AcDbLine
 10
500.4999999999982
 20
2093.000000000007
 30
0.0
 11
847.4999999999983
 21
2093.000000000007
 31
0.0
  0
CIRCLE
  5
19D
330
1F
100
AcDbEntity
  8
化粧台
  6
CONTINUOUS
 62
     2
100
AcDbCircle
 10
648.9999999999982
 20
2038.0
 30
0.0
 40
27.85
  0
LINE
  5
19E
330
1F
100
AcDbEntity
  8
化粧台
  6
CONTINUOUS
 62
     2
100
AcDbLine
 10
512.4999999999982
 20
2085.000000000007
 30
0.0
 11
512.4999999999982
 21
2093.000000000007
 31
0.0
  0
LINE
  5
19F
330
1F
100
AcDbEntity
  8
化粧台
  6
CONTINUOUS
 62
     2
100
AcDbLine
 10
535.4999999999982
 20
2085.000000000007
 30
0.0
 11
535.4999999999982
 21
2093.000000000007
 31
0.0
  0
LINE
  5
1A0
330
1F
100
AcDbEntity
  8
化粧台
  6
CONTINUOUS
 62
     2
100
AcDbLine
 10
812.4999999999983
 20
2085.000000000007
 30
0.0
 11
812.4999999999983
 21
2093.000000000007
 31
0.0
  0
LINE
  5
1A1
330
1F
100
AcDbEntity
  8
化粧台
  6
CONTINUOUS
 62
     2
100
AcDbLine
 10
835.4999999999982
 20
2085.000000000007
 30
0.0
 11
835.4999999999982
 21
2093.000000000007
 31
0.0
  0
LINE
  5
1A2
330
1F
100
AcDbEntity
  8
化粧台
  6
CONTINUOUS
 62
     2
100
AcDbLine
 10
812.4999999999983
 20
2085.000000000007
 30
0.0
 11
835.4999999999982
 21
2085.000000000007
 31
0.0
  0
LINE
  5
1A3
330
1F
100
AcDbEntity
  8
化粧台
  6
CONTINUOUS
 62
     2
100
AcDbLine
 10
512.4999999999982
 20
2085.000000000007
 30
0.0
 11
535.4999999999982
 21
2085.000000000007
 31
0.0
  0
LINE
  5
1A4
330
1F
100
AcDbEntity
  8
化粧台
  6
CONTINUOUS
 62
     6
100
AcDbLine
 10
698.9999999999982
 20
1988.000000000008
 30
0.0
 11
698.9999999999982
 21
2072.631824714106
 31
0.0
  0
LINE
  5
1A5
330
1F
100
AcDbEntity
  8
化粧台
  6
CONTINUOUS
 62
     2
100
AcDbLine
 10
744.9999999999981
 20
2053.99449119756
 30
0.0
 11
744.9999999999981
 21
2078.804391283407
 31
0.0
  0
LINE
  5
1A6
330
1F
100
AcDbEntity
  8
化粧台
  6
CONTINUOUS
 62
     2
100
AcDbLine
 10
744.9999999999981
 20
1936.467254938127
 30
0.0
 11
744.9999999999981
 21
2022.005508802438
 31
0.0
  0
CIRCLE
  5
1A7
330
1F
100
AcDbEntity
  8
化粧台
  6
CONTINUOUS
 62
     2
100
AcDbCircle
 10
648.9999999999982
 20
2038.0
 30
0.0
 40
14.50000000000001
  0
LINE
  5
1A8
330
1F
100
AcDbEntity
  8
化粧台
  6
CONTINUOUS
 62
     2
100
AcDbLine
 10
636.4426316453009
 20
2030.749999999695
 30
0.0
 11
648.9999999999982
 21
2037.999999999591
 31
0.0
  0
LINE
  5
1A9
330
1F
100
AcDbEntity
  8
化粧台
  6
CONTINUOUS
 62
     2
100
AcDbLine
 10
661.5573683546953
 20
2030.749999999695
 30
0.0
 11
648.9999999999982
 21
2037.999999999591
 31
0.0
  0
LINE
  5
1AA
330
1F
100
AcDbEntity
  8
化粧台
  6
CONTINUOUS
 62
     2
100
AcDbLine
 10
648.9999999999982
 20
2037.9999999996
 30
0.0
 11
648.9999999999982
 21
2052.5
 31
0.0
  0
LINE
  5
1AB
330
1F
100
AcDbEntity
  8
化粧台
  6
CONTINUOUS
 62
     6
100
AcDbLine
 10
824.0000000000401
 20
2145.500005721904
 30
0.0
 11
826.0000000000383
 21
2113.000005721904
 31
0.0
  0
LINE
  5
1AC
330
1F
100
AcDbEntity
  8
化粧台
  6
CONTINUOUS
 62
     6
100
AcDbLine
 10
822.0000000000382
 20
2113.000005721904
 30
0.0
 11
824.0000000000401
 21
2145.500005721904
 31
0.0
  0
LINE
  5
1AD
330
1F
100
AcDbEntity
  8
化粧台
  6
CONTINUOUS
 62
     6
100
AcDbLine
 10
824.0000000000455
 20
2107.9999999999
 30
0.0
 11
824.0000000000455
 21
2150.5000057218
 31
0.0
  0
LINE
  5
1AE
330
1F
100
AcDbEntity
  8
化粧台
  6
CONTINUOUS
 62
     6
100
AcDbLine
 10
524.00000000004
 20
2145.500005721904
 30
0.0
 11
526.0000000000382
 21
2113.000005721904
 31
0.0
  0
LINE
  5
1AF
330
1F
100
AcDbEntity
  8
化粧台
  6
CONTINUOUS
 62
     6
100
AcDbLine
 10
522.0000000000382
 20
2113.000005721904
 30
0.0
 11
524.00000000004
 21
2145.500005721904
 31
0.0
  0
LINE
  5
1B0
330
1F
100
AcDbEntity
  8
化粧台
  6
CONTINUOUS
 62
     6
100
AcDbLine
 10
524.0000000000455
 20
2107.9999999999
 30
0.0
 11
524.0000000000455
 21
2150.5000057218
 31
0.0
  0
LINE
  5
1B1
330
1F
100
AcDbEntity
  8
化粧台
  6
CONTINUOUS
 62
     6
100
AcDbLine
 10
569.00000000004
 20
2145.500005721904
 30
0.0
 11
571.0000000000382
 21
2113.000005721904
 31
0.0
  0
LINE
  5
1B2
330
1F
100
AcDbEntity
  8
化粧台
  6
CONTINUOUS
 62
     6
100
AcDbLine
 10
567.0000000000382
 20
2113.000005721904
 30
0.0
 11
569.00000000004
 21
2145.500005721904
 31
0.0
  0
LINE
  5
1B3
330
1F
100
AcDbEntity
  8
化粧台
  6
CONTINUOUS
 62
     6
100
AcDbLine
 10
569.0000000000455
 20
2107.9999999999
 30
0.0
 11
569.0000000000455
 21
2150.5000057218
 31
0.0
  0
LINE
  5
1B4
330
1F
100
AcDbEntity
  8
化粧台
  6
CONTINUOUS
 62
     6
100
AcDbLine
 10
778.9999999999583
 20
2145.500005721904
 30
0.0
 11
776.9999999999601
 21
2113.000005721904
 31
0.0
  0
LINE
  5
1B5
330
1F
100
AcDbEntity
  8
化粧台
  6
CONTINUOUS
 62
     6
100
AcDbLine
 10
780.99999999996
 20
2113.000005721904
 30
0.0
 11
778.9999999999583
 21
2145.500005721904
 31
0.0
  0
LINE
  5
1B6
330
1F
100
AcDbEntity
  8
化粧台
  6
CONTINUOUS
 62
     6
100
AcDbLine
 10
778.9999999999527
 20
2107.9999999999
 30
0.0
 11
778.9999999999527
 21
2150.5000057218
 31
0.0
  0
LINE
  5
1B7
330
1F
100
AcDbEntity
  8
化粧台
  6
EXLTYPE3
 62
     6
100
AcDbLine
 10
673.9999999999982
 20
1897.9999999999
 30
0.0
 11
673.9999999999982
 21
2133.000000000007
 31
0.0
  0
LINE
  5
1B8
330
1F
100
AcDbEntity
  8
化粧台
  6
CONTINUOUS
 62
     6
100
AcDbLine
 10
717.7258149053359
 20
2052.985019585047
 30
0.0
 11
785.3527335267773
 21
2055.488025792314
 31
0.0
  0
LINE
  5
1B9
330
1F
100
AcDbEntity
  8
化粧台
  6
CONTINUOUS
 62
     6
100
AcDbLine
 10
717.7258149053359
 20
2023.014980414952
 30
0.0
 11
785.3527335267773
 21
2020.511974207686
 31
0.0
  0
ELLIPSE
  5
1BA
330
1F
100
AcDbEntity
  8
化粧台
  6
CONTINUOUS
 62
     6
100
AcDbEllipse
 10
718.5357095703966
 20
2038.0
 30
0.0
 11
18.12615574069923
 21
-4.439627721738746E-15
 31
0.0
210
0.0
220
0.0
230
1.0
 40
0.827533439223411
 41
1.615492201463848
 42
4.667693105715715
  0
ARC
  5
1BB
330
1F
100
AcDbEntity
  8
化粧台
  6
CONTINUOUS
 62
     6
100
AcDbCircle
 10
785.9999999999982
 20
2038.0
 30
0.0
 40
17.5
100
AcDbArc
 50
267.8803372600434
 51
92.11966273995668
  0
ARC
  5
1BC
330
1F
100
AcDbEntity
  8
化粧台
  6
CONTINUOUS
 62
     6
100
AcDbCircle
 10
785.9999999999982
 20
2038.0
 30
0.0
 40
22.5
100
AcDbArc
 50
321.0575587310829
 51
131.0621040089384
  0
LINE
  5
1BD
330
1F
100
AcDbEntity
  8
化粧台
  6
CONTINUOUS
 62
     6
100
AcDbLine
 10
768.4999999999982
 20
2010.499999999998
 30
0.0
 11
803.4999999999982
 21
2010.499999999998
 31
0.0
  0
LINE
  5
1BE
330
1F
100
AcDbEntity
  8
化粧台
  6
CONTINUOUS
 62
     6
100
AcDbLine
 10
768.4999999999982
 20
2021.135727255833
 30
0.0
 11
768.4999999999982
 21
2010.499999999998
 31
0.0
  0
LINE
  5
1BF
330
1F
100
AcDbEntity
  8
化粧台
  6
CONTINUOUS
 62
     6
100
AcDbLine
 10
803.4999999999982
 20
2038.0
 30
0.0
 11
803.4999999999982
 21
2010.499999999998
 31
0.0
  0
LINE
  5
1C0
330
1F
100
AcDbEntity
  8
化粧台
  6
CONTINUOUS
 62
     6
100
AcDbLine
 10
803.4999999993471
 20
2010.500000000022
 30
0.0
 11
802.7738205710904
 21
1989.704941963562
 31
0.0
  0
ARC
  5
1C1
330
1F
100
AcDbEntity
  8
化粧台
  6
CONTINUOUS
 62
     6
100
AcDbCircle
 10
742.8103709499428
 20
1991.798911765711
 30
0.0
 40
60.0
100
AcDbArc
 50
328.5571033085469
 51
358.0000000000025
  0
ARC
  5
1C2
330
1F
100
AcDbEntity
  8
化粧台
  6
CONTINUOUS
 62
     6
100
AcDbCircle
 10
829.1896290500536
 20
1991.798911765711
 30
0.0
 40
60.0
100
AcDbArc
 50
181.9999999999977
 51
211.4428966914532
  0
LINE
  5
1C3
330
1F
100
AcDbEntity
  8
化粧台
  6
CONTINUOUS
 62
     6
100
AcDbLine
 10
768.5000000006494
 20
2010.500000000022
 30
0.0
 11
769.2261794289097
 21
1989.704941963562
 31
0.0
  0
LINE
  5
1C4
330
1F
100
AcDbEntity
  8
化粧台
  6
CONTINUOUS
 62
     6
100
AcDbLine
 10
793.9999999999982
 20
1960.5
 30
0.0
 11
777.9999999999982
 21
1960.5
 31
0.0
  0
ELLIPSE
  5
1C5
330
1F
100
AcDbEntity
  8
化粧台
  6
CONTINUOUS
 62
     6
100
AcDbEllipse
 10
777.4126697759002
 20
1982.07245016737
 30
0.0
 11
-1.525225498083993
 21
17.43340721660556
 31
0.0
210
0.0
220
0.0
230
1.0
 40
0.2794104048720002
 41
0.0
 42
6.283185307179586
  0
LINE
  5
1C6
330
1F
100
AcDbEntity
  8
化粧台
  6
CONTINUOUS
 62
     6
100
AcDbLine
 10
763.9999999999982
 20
2037.999999999856
 30
0.0
 11
807.9999999999982
 21
2037.999999999856
 31
0.0
  0
LINE
  5
1C7
330
1F
100
AcDbEntity
  8
化粧台
  6
CONTINUOUS
 62
     6
100
AcDbLine
 10
785.9999999999982
 20
2015.999999999856
 30
0.0
 11
785.9999999999982
 21
2059.999999999856
 31
0.0
  0
LINE
  5
1C8
330
1F
100
AcDbEntity
  8
化粧台
  6
EXLTYPE3
 62
     6
100
AcDbLine
 10
836.9999999999982
 20
1011.0
 30
0.0
 11
510.9999999999982
 21
732.9999999999999
 31
0.0
  0
LINE
  5
1C9
330
1F
100
AcDbEntity
  8
化粧台
  6
CONTINUOUS
 62
     2
100
AcDbLine
 10
508.9999999999982
 20
1293.0
 30
0.0
 11
838.9999999999982
 21
1293.0
 31
0.0
  0
LINE
  5
1CA
330
1F
100
AcDbEntity
  8
化粧台
  6
CONTINUOUS
 62
     2
100
AcDbLine
 10
510.9999999999945
 20
1289.0
 30
0.0
 11
836.9999999999982
 21
1289.0
 31
0.0
  0
LINE
  5
1CB
330
1F
100
AcDbEntity
  8
化粧台
  6
CONTINUOUS
 62
     2
100
AcDbLine
 10
804.9999999999983
 20
1255.0
 30
0.0
 11
804.9999999999983
 21
1243.0
 31
0.0
  0
LINE
  5
1CC
330
1F
100
AcDbEntity
  8
化粧台
  6
CONTINUOUS
 62
     2
100
AcDbLine
 10
814.9999999999983
 20
1255.0
 30
0.0
 11
814.9999999999983
 21
1243.0
 31
0.0
  0
LINE
  5
1CD
330
1F
100
AcDbEntity
  8
化粧台
  6
CONTINUOUS
 62
     2
100
AcDbLine
 10
542.9999999999982
 20
1255.0
 30
0.0
 11
542.9999999999982
 21
1243.0
 31
0.0
  0
LINE
  5
1CE
330
1F
100
AcDbEntity
  8
化粧台
  6
CONTINUOUS
 62
     2
100
AcDbLine
 10
533.0000000000018
 20
1255.0
 30
0.0
 11
533.0000000000018
 21
1243.0
 31
0.0
  0
LINE
  5
1CF
330
1F
100
AcDbEntity
  8
化粧台
  6
CONTINUOUS
 62
     2
100
AcDbLine
 10
532.9999999999982
 20
1255.0
 30
0.0
 11
814.9999999999983
 21
1255.0
 31
0.0
  0
LINE
  5
1D0
330
1F
100
AcDbEntity
  8
化粧台
  6
CONTINUOUS
 62
     2
100
AcDbLine
 10
532.9999999999982
 20
1243.0
 30
0.0
 11
814.9999999999983
 21
1243.0
 31
0.0
  0
LINE
  5
1D1
330
1F
100
AcDbEntity
  8
化粧台
  6
CONTINUOUS
 62
     2
100
AcDbLine
 10
510.9999999999945
 20
1289.0
 30
0.0
 11
510.9999999999945
 21
732.9999999999999
 31
0.0
  0
LINE
  5
1D2
330
1F
100
AcDbEntity
  8
化粧台
  6
CONTINUOUS
 62
     2
100
AcDbLine
 10
508.9999999999982
 20
613.0
 30
0.0
 11
508.9999999999982
 21
1293.0
 31
0.0
  0
LINE
  5
1D3
330
1F
100
AcDbEntity
  8
化粧台
  6
CONTINUOUS
 62
     2
100
AcDbLine
 10
836.9999999999982
 20
732.9999999999999
 30
0.0
 11
836.9999999999982
 21
1289.0
 31
0.0
  0
LINE
  5
1D4
330
1F
100
AcDbEntity
  8
化粧台
  6
CONTINUOUS
 62
     2
100
AcDbLine
 10
838.9999999999982
 20
613.0
 30
0.0
 11
838.9999999999982
 21
1293.0
 31
0.0
  0
LINE
  5
1D5
330
1F
100
AcDbEntity
  8
化粧台
  6
CONTINUOUS
 62
     2
100
AcDbLine
 10
510.9999999999982
 20
732.9999999999999
 30
0.0
 11
836.9999999999982
 21
732.9999999999999
 31
0.0
  0
LINE
  5
1D6
330
1F
100
AcDbEntity
  8
化粧台
  6
CONTINUOUS
 62
     2
100
AcDbLine
 10
508.9999999999982
 20
613.0
 30
0.0
 11
838.9999999999982
 21
613.0
 31
0.0
  0
LINE
  5
1D7
330
1F
100
AcDbEntity
  8
化粧台
  6
CONTINUOUS
 62
     6
100
AcDbLine
 10
558.9999999999764
 20
1217.49999999994
 30
0.0
 11
578.9999999999764
 21
1217.49999999994
 31
0.0
  0
LINE
  5
1D8
330
1F
100
AcDbEntity
  8
化粧台
  6
CONTINUOUS
 62
     6
100
AcDbLine
 10
568.9999999999764
 20
1207.4999999999
 30
0.0
 11
568.9999999999764
 21
1227.49999999994
 31
0.0
  0
CIRCLE
  5
1D9
330
1F
100
AcDbEntity
  8
化粧台
  6
CONTINUOUS
 62
     6
100
AcDbCircle
 10
568.999999997397
 20
1217.5
 30
0.0
 40
3.800000000000001
  0
LINE
  5
1DA
330
1F
100
AcDbEntity
  8
化粧台
  6
CONTINUOUS
 62
     6
100
AcDbLine
 10
768.9999999999765
 20
1217.49999999994
 30
0.0
 11
788.9999999999765
 21
1217.49999999994
 31
0.0
  0
LINE
  5
1DB
330
1F
100
AcDbEntity
  8
化粧台
  6
CONTINUOUS
 62
     6
100
AcDbLine
 10
778.9999999999765
 20
1207.4999999999
 30
0.0
 11
778.9999999999765
 21
1227.49999999994
 31
0.0
  0
CIRCLE
  5
1DC
330
1F
100
AcDbEntity
  8
化粧台
  6
CONTINUOUS
 62
     6
100
AcDbCircle
 10
778.999999997397
 20
1217.5
 30
0.0
 40
3.800000000000001
  0
LINE
  5
1DD
330
1F
100
AcDbEntity
  8
化粧台
  6
CONTINUOUS
 62
     2
100
AcDbLine
 10
649.9999999999964
 20
562.99999999988
 30
0.0
 11
617.9999999999964
 21
562.99999999988
 31
0.0
  0
LINE
  5
1DE
330
1F
100
AcDbEntity
  8
化粧台
  6
CONTINUOUS
 62
     2
100
AcDbLine
 10
617.9999999999964
 20
612.9999999999
 30
0.0
 11
617.9999999999964
 21
562.99999999988
 31
0.0
  0
LINE
  5
1DF
330
1F
100
AcDbEntity
  8
化粧台
  6
CONTINUOUS
 62
     2
100
AcDbLine
 10
649.9999999999964
 20
612.9999999999
 30
0.0
 11
649.9999999999964
 21
562.99999999988
 31
0.0
  0
LINE
  5
1E0
330
1F
100
AcDbEntity
  8
化粧台
  6
EXLTYPE2
 62
     6
100
AcDbLine
 10
617.9999999999982
 20
612.9999999999
 30
0.0
 11
617.9999999999982
 21
759.4999999999
 31
0.0
  0
LINE
  5
1E1
330
1F
100
AcDbEntity
  8
化粧台
  6
EXLTYPE2
 62
     6
100
AcDbLine
 10
649.9999999999981
 20
612.9999999999
 30
0.0
 11
649.9999999999981
 21
759.4999999999
 31
0.0
  0
LINE
  5
1E2
330
1F
100
AcDbEntity
  8
化粧台
  6
CONTINUOUS
 62
     6
100
AcDbLine
 10
758.4999999999982
 20
604.9999999999
 30
0.0
 11
779.4999999999874
 21
604.9999999999
 31
0.0
  0
LINE
  5
1E3
330
1F
100
AcDbEntity
  8
化粧台
  6
CONTINUOUS
 62
     6
100
AcDbLine
 10
779.4999999999874
 20
612.9999999999
 30
0.0
 11
779.4999999999874
 21
604.9999999999
 31
0.0
  0
LINE
  5
1E4
330
1F
100
AcDbEntity
  8
化粧台
  6
CONTINUOUS
 62
     6
100
AcDbLine
 10
758.49999999998
 20
612.9999999999
 30
0.0
 11
758.49999999998
 21
604.9999999999
 31
0.0
  0
LINE
  5
1E5
330
1F
100
AcDbEntity
  8
化粧台
  6
EXLTYPE3
 62
     6
100
AcDbLine
 10
633.9999999999982
 20
778.0000000000001
 30
0.0
 11
633.9999999999982
 21
542.9999999999
 31
0.0
  0
LINE
  5
1E6
330
1F
100
AcDbEntity
  8
化粧台
  6
EXLTYPE4
 62
     6
100
AcDbLine
 10
758.4999999999982
 20
612.9999999999
 30
0.0
 11
758.4999999999982
 21
759.4999999999
 31
0.0
  0
LINE
  5
1E7
330
1F
100
AcDbEntity
  8
化粧台
  6
EXLTYPE4
 62
     6
100
AcDbLine
 10
779.4999999999982
 20
612.9999999999
 30
0.0
 11
779.4999999999982
 21
759.4999999999
 31
0.0
  0
LINE
  5
1E8
330
1F
100
AcDbEntity
  8
化粧台
  6
EXLTYPE3
 62
     6
100
AcDbLine
 10
768.9999999999982
 20
778.0000000000001
 30
0.0
 11
768.9999999999982
 21
584.9999999999
 31
0.0
  0
ARC
  5
1E9
330
1F
100
AcDbEntity
  8
化粧台
  6
EXLTYPE2
 62
     6
100
AcDbCircle
 10
603.4999999999918
 20
636.9999999999018
 30
0.0
 40
3.000000000000003
100
AcDbArc
 50
90.00000000000001
 51
180.0
  0
LINE
  5
1EA
330
1F
100
AcDbEntity
  8
化粧台
  6
EXLTYPE2
 62
     6
100
AcDbLine
 10
603.4999999999918
 20
639.9999999999018
 30
0.0
 11
664.4999999999927
 21
639.9999999999018
 31
0.0
  0
LINE
  5
1EB
330
1F
100
AcDbEntity
  8
化粧台
  6
EXLTYPE2
 62
     6
100
AcDbLine
 10
600.4999999999909
 20
636.9999999999018
 30
0.0
 11
600.4999999999909
 21
616.9999999999018
 31
0.0
  0
ARC
  5
1EC
330
1F
100
AcDbEntity
  8
化粧台
  6
EXLTYPE2
 62
     6
100
AcDbCircle
 10
609.9999999999927
 20
651.9999999999018
 30
0.0
 40
3.000000000000003
100
AcDbArc
 50
90.00000000000001
 51
180.0
  0
LINE
  5
1ED
330
1F
100
AcDbEntity
  8
化粧台
  6
EXLTYPE2
 62
     6
100
AcDbLine
 10
609.9999999999927
 20
654.9999999999018
 30
0.0
 11
657.9999999999927
 21
654.9999999999018
 31
0.0
  0
LINE
  5
1EE
330
1F
100
AcDbEntity
  8
化粧台
  6
EXLTYPE2
 62
     6
100
AcDbLine
 10
606.9999999999927
 20
651.9999999999018
 30
0.0
 11
606.9999999999927
 21
639.9999999999018
 31
0.0
  0
ARC
  5
1EF
330
1F
100
AcDbEntity
  8
化粧台
  6
EXLTYPE2
 62
     6
100
AcDbCircle
 10
657.9999999999927
 20
651.9999999999018
 30
0.0
 40
3.000000000000003
100
AcDbArc
 50
0.0
 51
90.00000000000001
  0
LINE
  5
1F0
330
1F
100
AcDbEntity
  8
化粧台
  6
EXLTYPE2
 62
     6
100
AcDbLine
 10
660.9999999999918
 20
651.9999999999018
 30
0.0
 11
660.9999999999918
 21
639.9999999999018
 31
0.0
  0
ARC
  5
1F1
330
1F
100
AcDbEntity
  8
化粧台
  6
EXLTYPE2
 62
     6
100
AcDbCircle
 10
664.4999999999927
 20
636.9999999999018
 30
0.0
 40
3.000000000000003
100
AcDbArc
 50
0.0
 51
90.00000000000001
  0
LINE
  5
1F2
330
1F
100
AcDbEntity
  8
化粧台
  6
EXLTYPE2
 62
     6
100
AcDbLine
 10
667.4999999999927
 20
636.9999999999018
 30
0.0
 11
667.4999999999927
 21
616.9999999999018
 31
0.0
  0
LINE
  5
1F3
330
1F
100
AcDbEntity
  8
化粧台
  6
EXLTYPE2
 62
     6
100
AcDbLine
 10
600.4999999999909
 20
616.9999999999018
 30
0.0
 11
667.4999999999927
 21
616.9999999999018
 31
0.0
  0
LINE
  5
1F4
330
1F
100
AcDbEntity
  8
化粧台
  6
CONTINUOUS
 62
     2
100
AcDbLine
 10
1508.999999999995
 20
1293.0000000001
 30
0.0
 11
1643.999999999995
 21
1293.0000000001
 31
0.0
  0
LINE
  5
1F5
330
1F
100
AcDbEntity
  8
化粧台
  6
CONTINUOUS
 62
     2
100
AcDbLine
 10
1508.999999999995
 20
1289.0000000001
 30
0.0
 11
1489.999999999995
 21
1289.0000000001
 31
0.0
  0
LINE
  5
1F6
330
1F
100
AcDbEntity
  8
化粧台
  6
CONTINUOUS
 62
     2
100
AcDbLine
 10
1463.999999999995
 20
1255.0000000001
 30
0.0
 11
1489.999999999995
 21
1255.0000000001
 31
0.0
  0
LINE
  5
1F7
330
1F
100
AcDbEntity
  8
化粧台
  6
CONTINUOUS
 62
     2
100
AcDbLine
 10
1463.999999999995
 20
1243.0000000001
 30
0.0
 11
1489.999999999995
 21
1243.0000000001
 31
0.0
  0
ARC
  5
1F8
330
1F
100
AcDbEntity
  8
化粧台
  6
CONTINUOUS
 62
     2
100
AcDbCircle
 10
1463.999999999995
 20
1249.0000000001
 30
0.0
 40
6.000000000000512
100
AcDbArc
 50
90.00000000000001
 51
270.0000000000002
  0
LINE
  5
1F9
330
1F
100
AcDbEntity
  8
化粧台
  6
CONTINUOUS
 62
     2
100
AcDbLine
 10
1508.999999999995
 20
733.0000000000999
 30
0.0
 11
1508.999999999995
 21
1289.0000000001
 31
0.0
  0
LINE
  5
1FA
330
1F
100
AcDbEntity
  8
化粧台
  6
CONTINUOUS
 62
     2
100
AcDbLine
 10
1510.999999999995
 20
1293.0000000001
 30
0.0
 11
1510.999999999995
 21
743.0000000000999
 31
0.0
  0
LINE
  5
1FB
330
1F
100
AcDbEntity
  8
化粧台
  6
CONTINUOUS
 62
     2
100
AcDbLine
 10
1510.999999999995
 20
743.0000000000999
 30
0.0
 11
1530.999999999995
 21
743.0000000000999
 31
0.0
  0
LINE
  5
1FC
330
1F
100
AcDbEntity
  8
化粧台
  6
CONTINUOUS
 62
     2
100
AcDbLine
 10
1515.999999999995
 20
743.0000000000999
 30
0.0
 11
1515.999999999995
 21
613.0000000001
 31
0.0
  0
LINE
  5
1FD
330
1F
100
AcDbEntity
  8
化粧台
  6
CONTINUOUS
 62
     2
100
AcDbLine
 10
1530.999999999995
 20
743.0000000000999
 30
0.0
 11
1530.999999999995
 21
613.0000000001
 31
0.0
  0
LINE
  5
1FE
330
1F
100
AcDbEntity
  8
化粧台
  6
CONTINUOUS
 62
     2
100
AcDbLine
 10
1508.999999999995
 20
733.0000000000999
 30
0.0
 11
1489.999999999995
 21
733.0000000000999
 31
0.0
  0
LINE
  5
1FF
330
1F
100
AcDbEntity
  8
化粧台
  6
CONTINUOUS
 62
     2
100
AcDbLine
 10
1489.999999999995
 20
733.0000000000999
 30
0.0
 11
1489.999999999995
 21
1289.0000000001
 31
0.0
  0
LINE
  5
200
330
1F
100
AcDbEntity
  8
化粧台
  6
CONTINUOUS
 62
     2
100
AcDbLine
 10
1515.999999999995
 20
613.0000000001
 30
0.0
 11
1643.999999999995
 21
613.0000000001
 31
0.0
  0
LINE
  5
201
330
1F
100
AcDbEntity
  8
化粧台
  6
CONTINUOUS
 62
     6
100
AcDbLine
 10
1676.500005722002
 20
1217.499999999958
 30
0.0
 11
1644.000005722002
 21
1215.49999999996
 31
0.0
  0
LINE
  5
202
330
1F
100
AcDbEntity
  8
化粧台
  6
CONTINUOUS
 62
     6
100
AcDbLine
 10
1644.000005722002
 20
1219.49999999996
 30
0.0
 11
1676.500005722002
 21
1217.499999999958
 31
0.0
  0
LINE
  5
203
330
1F
100
AcDbEntity
  8
化粧台
  6
CONTINUOUS
 62
     6
100
AcDbLine
 10
1638.999999999999
 20
1217.499999999953
 30
0.0
 11
1681.500005721899
 21
1217.499999999953
 31
0.0
  0
LINE
  5
204
330
1F
100
AcDbEntity
  8
化粧台
  6
CONTINUOUS
 62
     2
100
AcDbLine
 10
1599.999999999997
 20
562.99999999988
 30
0.0
 11
1567.999999999997
 21
562.99999999988
 31
0.0
  0
LINE
  5
205
330
1F
100
AcDbEntity
  8
化粧台
  6
CONTINUOUS
 62
     2
100
AcDbLine
 10
1567.999999999997
 20
612.9999999999
 30
0.0
 11
1567.999999999997
 21
562.99999999988
 31
0.0
  0
LINE
  5
206
330
1F
100
AcDbEntity
  8
化粧台
  6
CONTINUOUS
 62
     2
100
AcDbLine
 10
1599.999999999997
 20
612.9999999999
 30
0.0
 11
1599.999999999997
 21
562.99999999988
 31
0.0
  0
LINE
  5
207
330
1F
100
AcDbEntity
  8
化粧台
  6
EXLTYPE2
 62
     6
100
AcDbLine
 10
1567.999999999999
 20
612.9999999999
 30
0.0
 11
1567.999999999999
 21
759.4999999999
 31
0.0
  0
LINE
  5
208
330
1F
100
AcDbEntity
  8
化粧台
  6
EXLTYPE2
 62
     6
100
AcDbLine
 10
1599.999999999999
 20
612.9999999999
 30
0.0
 11
1599.999999999999
 21
759.4999999999
 31
0.0
  0
LINE
  5
209
330
1F
100
AcDbEntity
  8
化粧台
  6
EXLTYPE3
 62
     6
100
AcDbLine
 10
1583.999999999999
 20
778.0000000000001
 30
0.0
 11
1583.999999999999
 21
542.9999999999
 31
0.0
  0
LINE
  5
20A
330
1F
100
AcDbEntity
  8
化粧台
  6
CONTINUOUS
 62
     6
100
AcDbLine
 10
1573.499999999999
 20
604.9999999999
 30
0.0
 11
1594.499999999988
 21
604.9999999999
 31
0.0
  0
LINE
  5
20B
330
1F
100
AcDbEntity
  8
化粧台
  6
CONTINUOUS
 62
     6
100
AcDbLine
 10
1594.499999999988
 20
612.9999999999
 30
0.0
 11
1594.499999999988
 21
604.9999999999
 31
0.0
  0
LINE
  5
20C
330
1F
100
AcDbEntity
  8
化粧台
  6
CONTINUOUS
 62
     6
100
AcDbLine
 10
1573.499999999981
 20
612.9999999999
 30
0.0
 11
1573.499999999981
 21
604.9999999999
 31
0.0
  0
LINE
  5
20D
330
1F
100
AcDbEntity
  8
化粧台
  6
EXLTYPE4
 62
     6
100
AcDbLine
 10
1573.499999999999
 20
612.9999999999
 30
0.0
 11
1573.499999999999
 21
759.4999999999
 31
0.0
  0
LINE
  5
20E
330
1F
100
AcDbEntity
  8
化粧台
  6
EXLTYPE4
 62
     6
100
AcDbLine
 10
1594.499999999999
 20
612.9999999999
 30
0.0
 11
1594.499999999999
 21
759.4999999999
 31
0.0
  0
LINE
  5
20F
330
1F
100
AcDbEntity
  8
化粧台
  6
CONTINUOUS
 62
     6
100
AcDbLine
 10
1643.99999999999
 20
952.4999999999782
 30
0.0
 11
1651.99999999999
 21
952.4999999999782
 31
0.0
  0
LINE
  5
210
330
1F
100
AcDbEntity
  8
化粧台
  6
CONTINUOUS
 62
     6
100
AcDbLine
 10
1643.99999999999
 20
973.4999999999854
 30
0.0
 11
1651.99999999999
 21
973.4999999999854
 31
0.0
  0
LINE
  5
211
330
1F
100
AcDbEntity
  8
化粧台
  6
CONTINUOUS
 62
     6
100
AcDbLine
 10
1651.99999999999
 20
952.4999999999945
 30
0.0
 11
1651.99999999999
 21
973.4999999999854
 31
0.0
  0
LINE
  5
212
330
1F
100
AcDbEntity
  8
化粧台
  6
EXLTYPE3
 62
     6
100
AcDbLine
 10
1613.99999999999
 20
962.9999999999982
 30
0.0
 11
1667.000000000001
 21
962.9999999999982
 31
0.0
  0
LINE
  5
213
330
1F
100
AcDbEntity
  8
化粧台
  6
EXLTYPE3
 62
     6
100
AcDbLine
 10
1613.99999999999
 20
1052.999999999998
 30
0.0
 11
1708.99999999999
 21
1052.999999999998
 31
0.0
  0
LINE
  5
214
330
1F
100
AcDbEntity
  8
化粧台
  6
CONTINUOUS
 62
     6
100
AcDbLine
 10
1693.99999999999
 20
1068.999999999998
 30
0.0
 11
1693.99999999999
 21
1036.999999999998
 31
0.0
  0
LINE
  5
215
330
1F
100
AcDbEntity
  8
化粧台
  6
CONTINUOUS
 62
     6
100
AcDbLine
 10
1643.99999999999
 20
1068.999999999998
 30
0.0
 11
1693.99999999999
 21
1068.999999999998
 31
0.0
  0
LINE
  5
216
330
1F
100
AcDbEntity
  8
化粧台
  6
CONTINUOUS
 62
     6
100
AcDbLine
 10
1643.99999999999
 20
1036.999999999998
 30
0.0
 11
1693.99999999999
 21
1036.999999999998
 31
0.0
  0
LINE
  5
217
330
1F
100
AcDbEntity
  8
化粧台
  6
CONTINUOUS
 62
     6
100
AcDbLine
 10
779.5000000000209
 20
2112.999999999991
 30
0.0
 11
779.5000000000209
 21
2120.999999999991
 31
0.0
  0
LINE
  5
218
330
1F
100
AcDbEntity
  8
化粧台
  6
CONTINUOUS
 62
     6
100
AcDbLine
 10
758.5000000000136
 20
2112.999999999991
 30
0.0
 11
758.5000000000136
 21
2120.999999999991
 31
0.0
  0
LINE
  5
219
330
1F
100
AcDbEntity
  8
化粧台
  6
CONTINUOUS
 62
     6
100
AcDbLine
 10
779.5000000000045
 20
2120.999999999991
 30
0.0
 11
758.5000000000136
 21
2120.999999999991
 31
0.0
  0
LINE
  5
21A
330
1F
100
AcDbEntity
  8
化粧台
  6
EXLTYPE3
 62
     6
100
AcDbLine
 10
769.0000000000018
 20
2082.999999999991
 30
0.0
 11
769.0000000000018
 21
2136.000000000002
 31
0.0
  0
LINE
  5
21B
330
1F
100
AcDbEntity
  8
化粧台
  6
EXLTYPE3
 62
     6
100
AcDbLine
 10
599.0000000000018
 20
2082.999999999991
 30
0.0
 11
599.0000000000018
 21
2177.999999999991
 31
0.0
  0
LINE
  5
21C
330
1F
100
AcDbEntity
  8
化粧台
  6
CONTINUOUS
 62
     6
100
AcDbLine
 10
583.0000000000018
 20
2162.999999999991
 30
0.0
 11
615.0000000000018
 21
2162.999999999991
 31
0.0
  0
LINE
  5
21D
330
1F
100
AcDbEntity
  8
化粧台
  6
CONTINUOUS
 62
     6
100
AcDbLine
 10
583.0000000000018
 20
2112.999999999991
 30
0.0
 11
583.0000000000018
 21
2162.999999999991
 31
0.0
  0
LINE
  5
21E
330
1F
100
AcDbEntity
  8
化粧台
  6
CONTINUOUS
 62
     6
100
AcDbLine
 10
615.0000000000018
 20
2112.999999999991
 30
0.0
 11
615.0000000000018
 21
2162.999999999991
 31
0.0
  0
ARC
  5
21F
330
1F
100
AcDbEntity
  8
化粧台
  6
EXLTYPE2
 62
     6
100
AcDbCircle
 10
1553.499999999992
 20
637.0000000000018
 30
0.0
 40
3.000000000000003
100
AcDbArc
 50
90.00000000000001
 51
180.0
  0
LINE
  5
220
330
1F
100
AcDbEntity
  8
化粧台
  6
EXLTYPE2
 62
     6
100
AcDbLine
 10
1553.499999999992
 20
640.0000000000018
 30
0.0
 11
1614.499999999993
 21
640.0000000000018
 31
0.0
  0
LINE
  5
221
330
1F
100
AcDbEntity
  8
化粧台
  6
EXLTYPE2
 62
     6
100
AcDbLine
 10
1550.499999999991
 20
637.0000000000018
 30
0.0
 11
1550.499999999991
 21
617.0000000000018
 31
0.0
  0
ARC
  5
222
330
1F
100
AcDbEntity
  8
化粧台
  6
EXLTYPE2
 62
     6
100
AcDbCircle
 10
1559.999999999993
 20
652.0000000000018
 30
0.0
 40
3.000000000000003
100
AcDbArc
 50
90.00000000000001
 51
180.0
  0
LINE
  5
223
330
1F
100
AcDbEntity
  8
化粧台
  6
EXLTYPE2
 62
     6
100
AcDbLine
 10
1559.999999999993
 20
655.0000000000018
 30
0.0
 11
1607.999999999993
 21
655.0000000000018
 31
0.0
  0
LINE
  5
224
330
1F
100
AcDbEntity
  8
化粧台
  6
EXLTYPE2
 62
     6
100
AcDbLine
 10
1556.999999999993
 20
652.0000000000018
 30
0.0
 11
1556.999999999993
 21
640.0000000000018
 31
0.0
  0
ARC
  5
225
330
1F
100
AcDbEntity
  8
化粧台
  6
EXLTYPE2
 62
     6
100
AcDbCircle
 10
1607.999999999993
 20
652.0000000000018
 30
0.0
 40
3.000000000000003
100
AcDbArc
 50
0.0
 51
90.00000000000001
  0
LINE
  5
226
330
1F
100
AcDbEntity
  8
化粧台
  6
EXLTYPE2
 62
     6
100
AcDbLine
 10
1610.999999999992
 20
652.0000000000018
 30
0.0
 11
1610.999999999992
 21
640.0000000000018
 31
0.0
  0
ARC
  5
227
330
1F
100
AcDbEntity
  8
化粧台
  6
EXLTYPE2
 62
     6
100
AcDbCircle
 10
1614.499999999993
 20
637.0000000000018
 30
0.0
 40
3.000000000000003
100
AcDbArc
 50
0.0
 51
90.00000000000001
  0
LINE
  5
228
330
1F
100
AcDbEntity
  8
化粧台
  6
EXLTYPE2
 62
     6
100
AcDbLine
 10
1617.499999999993
 20
637.0000000000018
 30
0.0
 11
1617.499999999993
 21
617.0000000000018
 31
0.0
  0
LINE
  5
229
330
1F
100
AcDbEntity
  8
化粧台
  6
EXLTYPE2
 62
     6
100
AcDbLine
 10
1550.499999999991
 20
617.0000000000018
 30
0.0
 11
1617.499999999993
 21
617.0000000000018
 31
0.0
  0
LINE
  5
22A
330
1F
100
AcDbEntity
  8
化粧台
  6
CONTINUOUS
 62
     6
100
AcDbLine
 10
523.9999999999982
 20
1484.5
 30
0.0
 11
523.9999999999982
 21
1451.5
 31
0.0
  0
LINE
  5
22B
330
1F
100
AcDbEntity
  8
化粧台
  6
CONTINUOUS
 62
     6
100
AcDbLine
 10
507.4999999999982
 20
1468.0
 30
0.0
 11
540.4999999999982
 21
1468.0
 31
0.0
  0
LINE
  5
22C
330
1F
100
AcDbEntity
  8
化粧台
  6
CONTINUOUS
 62
     6
100
AcDbLine
 10
840.4999999999982
 20
1468.0
 30
0.0
 11
807.4999999999983
 21
1468.0
 31
0.0
  0
LINE
  5
22D
330
1F
100
AcDbEntity
  8
化粧台
  6
CONTINUOUS
 62
     6
100
AcDbLine
 10
823.9999999999982
 20
1484.5
 30
0.0
 11
823.9999999999982
 21
1451.5
 31
0.0
  0
LINE
  5
22E
330
1F
100
AcDbEntity
  8
化粧台
  6
CONTINUOUS
 62
     2
100
AcDbLine
 10
497.9083811288675
 20
1489.093792960597
 30
0.0
 11
496.5010997911213
 21
1429.093792960597
 31
0.0
  0
ARC
  5
22F
330
1F
100
AcDbEntity
  8
化粧台
  6
CONTINUOUS
 62
     2
100
AcDbCircle
 10
501.9072813377406
 20
1489.000000000007
 30
0.0
 40
4.0
100
AcDbArc
 50
90.00000000000001
 51
178.656391659558
  0
LINE
  5
230
330
1F
100
AcDbEntity
  8
化粧台
  6
CONTINUOUS
 62
     2
100
AcDbLine
 10
850.091618871129
 20
1489.093792960597
 30
0.0
 11
851.498900208875
 21
1429.093792960597
 31
0.0
  0
ARC
  5
231
330
1F
100
AcDbEntity
  8
化粧台
  6
CONTINUOUS
 62
     2
100
AcDbCircle
 10
846.0927186622558
 20
1489.000000000007
 30
0.0
 40
4.0
100
AcDbArc
 50
1.343608340442127
 51
90.00000000000001
  0
ARC
  5
232
330
1F
100
AcDbEntity
  8
化粧台
  6
CONTINUOUS
 62
     2
100
AcDbCircle
 10
500.4999999999982
 20
1429.000000000009
 30
0.0
 40
4.0
100
AcDbArc
 50
90.00000000000001
 51
183.7034366942579
  0
LINE
  5
233
330
1F
100
AcDbEntity
  8
化粧台
  6
CONTINUOUS
 62
     2
100
AcDbLine
 10
496.5083530171015
 20
1428.741631341043
 30
0.0
 11
503.9999999999982
 21
1313.000000000007
 31
0.0
  0
LINE
  5
234
330
1F
100
AcDbEntity
  8
化粧台
  6
CONTINUOUS
 62
     2
100
AcDbLine
 10
500.4999999999982
 20
1433.000000000007
 30
0.0
 11
847.4999999999983
 21
1433.000000000007
 31
0.0
  0
ARC
  5
235
330
1F
100
AcDbEntity
  8
化粧台
  6
CONTINUOUS
 62
     2
100
AcDbCircle
 10
847.4999999999983
 20
1429.000000000009
 30
0.0
 40
4.0
100
AcDbArc
 50
356.2965633057419
 51
90.00000000000001
  0
LINE
  5
236
330
1F
100
AcDbEntity
  8
化粧台
  6
CONTINUOUS
 62
     2
100
AcDbLine
 10
851.491646982895
 20
1428.741631341043
 30
0.0
 11
843.9999999999982
 21
1313.000000000007
 31
0.0
  0
LINE
  5
237
330
1F
100
AcDbEntity
  8
化粧台
  6
CONTINUOUS
 62
     2
100
AcDbLine
 10
503.9999999999982
 20
1313.000000000007
 30
0.0
 11
843.9999999999982
 21
1313.000000000007
 31
0.0
  0
CIRCLE
  5
238
330
1F
100
AcDbEntity
  8
化粧台
  6
CONTINUOUS
 62
     2
100
AcDbCircle
 10
523.9999999999982
 20
1468.0
 30
0.0
 40
11.50000000000001
  0
CIRCLE
  5
239
330
1F
100
AcDbEntity
  8
化粧台
  6
CONTINUOUS
 62
     2
100
AcDbCircle
 10
823.9999999999982
 20
1468.0
 30
0.0
 40
11.50000000000001
  0
LINE
  5
23A
330
1F
100
AcDbEntity
  8
化粧台
  6
CONTINUOUS
 62
     2
100
AcDbLine
 10
518.9999999999982
 20
1313.0
 30
0.0
 11
518.9999999999982
 21
1293.0
 31
0.0
  0
LINE
  5
23B
330
1F
100
AcDbEntity
  8
化粧台
  6
CONTINUOUS
 62
     2
100
AcDbLine
 10
828.9999999999982
 20
1313.0
 30
0.0
 11
828.9999999999982
 21
1293.0
 31
0.0
  0
LINE
  5
23C
330
1F
100
AcDbEntity
  8
化粧台
  6
CONTINUOUS
 62
     2
100
AcDbLine
 10
501.9072813377406
 20
1493.000000000007
 30
0.0
 11
763.3044558803502
 21
1493.000000000007
 31
0.0
  0
LINE
  5
23D
330
1F
100
AcDbEntity
  8
化粧台
  6
CONTINUOUS
 62
     2
100
AcDbLine
 10
801.9831465286097
 20
1493.000000000007
 30
0.0
 11
846.0927186622558
 21
1493.000000000007
 31
0.0
  0
LINE
  5
23E
330
1F
100
AcDbEntity
  8
化粧台
  6
EXLTYPE3
 62
     6
100
AcDbLine
 10
785.9999999999991
 20
1541.0
 30
0.0
 11
785.9999999999991
 21
1413.0
 31
0.0
  0
ARC
  5
23F
330
1F
100
AcDbEntity
  8
化粧台
  6
CONTINUOUS
 62
     6
100
AcDbCircle
 10
749.8546874628864
 20
1451.0
 30
0.0
 40
80.0
100
AcDbArc
 50
83.02071889580641
 51
128.174907340917
  0
LINE
  5
240
330
1F
100
AcDbEntity
  8
化粧台
  6
CONTINUOUS
 62
     6
100
AcDbLine
 10
700.4095538297097
 20
1513.890211957025
 30
0.0
 11
731.2240185890059
 21
1499.521191057818
 31
0.0
  0
LINE
  5
241
330
1F
100
AcDbEntity
  8
化粧台
  6
CONTINUOUS
 62
     6
100
AcDbLine
 10
768.4999999999982
 20
1477.742754924853
 30
0.0
 11
768.4999999999982
 21
1433.0
 31
0.0
  0
ARC
  5
242
330
1F
100
AcDbEntity
  8
化粧台
  6
CONTINUOUS
 62
     6
100
AcDbCircle
 10
743.4999999999982
 20
1477.742754924853
 30
0.0
 40
25.00000000000002
100
AcDbArc
 50
0.0
 51
119.4089117965544
  0
ARC
  5
243
330
1F
100
AcDbEntity
  8
化粧台
  6
CONTINUOUS
 62
     6
100
AcDbCircle
 10
753.4999999999982
 20
1480.777704688353
 30
0.0
 40
50.00000000000004
100
AcDbArc
 50
0.0
 51
83.02071889580698
  0
LINE
  5
244
330
1F
100
AcDbEntity
  8
化粧台
  6
CONTINUOUS
 62
     6
100
AcDbLine
 10
803.4999999999982
 20
1480.777704688353
 30
0.0
 11
803.4999999999982
 21
1433.0
 31
0.0
  0
CIRCLE
  5
245
330
1F
100
AcDbEntity
  8
化粧台
  6
CONTINUOUS
 62
     6
100
AcDbCircle
 10
785.9999999999982
 20
1478.0
 30
0.0
 40
17.5
  0
ELLIPSE
  5
246
330
1F
100
AcDbEntity
  8
化粧台
  6
CONTINUOUS
 62
     6
100
AcDbEllipse
 10
776.3280927727448
 20
1487.671907227252
 30
0.0
 11
4.242640687119287
 21
4.242640687119284
 31
0.0
210
0.0
220
0.0
230
1.0
 40
0.572954860024178
 41
0.0
 42
6.283185307179586
  0
CIRCLE
  5
247
330
1F
100
AcDbEntity
  8
化粧台
  6
CONTINUOUS
 62
     6
100
AcDbCircle
 10
785.9999999999982
 20
1478.0
 30
0.0
 40
8.0
  0
LINE
  5
248
330
1F
100
AcDbEntity
  8
化粧台
  6
CONTINUOUS
 62
     6
100
AcDbLine
 10
704.6579988973845
 20
1504.071419140877
 30
0.0
 11
726.409385786208
 21
1493.928580859127
 31
0.0
  0
LINE
  5
249
330
1F
100
AcDbEntity
  8
化粧台
  6
CONTINUOUS
 62
     6
100
AcDbLine
 10
704.6579988973954
 20
1504.071419140872
 30
0.0
 11
707.6600161259976
 21
1510.5092658631
 31
0.0
  0
LINE
  5
24A
330
1F
100
AcDbEntity
  8
化粧台
  6
CONTINUOUS
 62
     6
100
AcDbLine
 10
726.4093857862772
 20
1493.928580859096
 30
0.0
 11
729.4114030148794
 21
1500.366427581324
 31
0.0
  0
LINE
  5
24B
330
1F
100
AcDbEntity
  8
化粧台
  6
CONTINUOUS
 62
     2
100
AcDbLine
 10
1643.999999999999
 20
1493.000000000107
 30
0.0
 11
1643.999999999999
 21
1313.000000000107
 31
0.0
  0
LINE
  5
24C
330
1F
100
AcDbEntity
  8
化粧台
  6
CONTINUOUS
 62
     2
100
AcDbLine
 10
1627.730060344543
 20
1493.000000000107
 30
0.0
 11
1643.999999999999
 21
1493.000000000107
 31
0.0
  0
ARC
  5
24D
330
1F
100
AcDbEntity
  8
化粧台
  6
CONTINUOUS
 62
     2
100
AcDbCircle
 10
1627.730060344543
 20
1489.000000000107
 30
0.0
 40
4.0
100
AcDbArc
 50
90.00000000000001
 51
176.0000000000035
  0
ARC
  5
24E
330
1F
100
AcDbEntity
  8
化粧台
  6
CONTINUOUS
 62
     2
100
AcDbCircle
 10
1616.07433093883
 20
1437.000000000107
 30
0.0
 40
4.0
100
AcDbArc
 50
270.0000000000002
 51
355.9999999999971
  0
LINE
  5
24F
330
1F
100
AcDbEntity
  8
化粧台
  6
CONTINUOUS
 62
     2
100
AcDbLine
 10
1623.739804143504
 20
1489.279025895083
 30
0.0
 11
1620.064587139869
 21
1436.72097410513
 31
0.0
  0
LINE
  5
250
330
1F
100
AcDbEntity
  8
化粧台
  6
CONTINUOUS
 62
     2
100
AcDbLine
 10
1452.999999999995
 20
1433.000000000107
 30
0.0
 11
1616.074330938797
 21
1433.000000000107
 31
0.0
  0
ARC
  5
251
330
1F
100
AcDbEntity
  8
化粧台
  6
CONTINUOUS
 62
     2
100
AcDbCircle
 10
1477.956306401607
 20
1318.000000000107
 30
0.0
 40
5.0
100
AcDbArc
 50
193.2557641055684
 51
270.0000000000002
  0
ARC
  5
252
330
1F
100
AcDbEntity
  8
化粧台
  6
CONTINUOUS
 62
     2
100
AcDbCircle
 10
1452.999999999995
 20
1429.000000000107
 30
0.0
 40
4.0
100
AcDbArc
 50
90.00000000000001
 51
191.0795890467557
  0
ARC
  5
253
330
1F
100
AcDbEntity
  8
化粧台
  6
CONTINUOUS
 62
     2
100
AcDbCircle
 10
4393.158111549061
 20
2004.748451228814
 30
0.0
 40
3000.000000000002
100
AcDbArc
 50
191.0795890467543
 51
193.2557641055712
  0
LINE
  5
254
330
1F
100
AcDbEntity
  8
化粧台
  6
CONTINUOUS
 62
     2
100
AcDbLine
 10
1477.956306401595
 20
1313.000000000107
 30
0.0
 11
1643.999999999999
 21
1313.000000000107
 31
0.0
  0
LINE
  5
255
330
1F
100
AcDbEntity
  8
化粧台
  6
CONTINUOUS
 62
     2
100
AcDbLine
 10
1615.073516747379
 20
1480.030038368002
 30
0.0
 11
1613.469117851268
 21
1457.086065212103
 31
0.0
  0
LINE
  5
256
330
1F
100
AcDbEntity
  8
化粧台
  6
CONTINUOUS
 62
     2
100
AcDbLine
 10
1613.469117851265
 20
1457.08606521207
 30
0.0
 11
1621.449630253343
 21
1456.528013422117
 31
0.0
  0
LINE
  5
257
330
1F
100
AcDbEntity
  8
化粧台
  6
CONTINUOUS
 62
     2
100
AcDbLine
 10
1615.073516747382
 20
1480.030038368033
 30
0.0
 11
1623.054029149461
 21
1479.471986578081
 31
0.0
  0
LINE
  5
258
330
1F
100
AcDbEntity
  8
化粧台
  6
CONTINUOUS
 62
     2
100
AcDbLine
 10
1508.999999999998
 20
1293.0000000001
 30
0.0
 11
1508.999999999998
 21
1313.0000000001
 31
0.0
  0
LINE
  5
259
330
1F
100
AcDbEntity
  8
化粧台
  6
CONTINUOUS
 62
     2
100
AcDbLine
 10
1643.999999999995
 20
1313.0000000001
 30
0.0
 11
1643.999999999995
 21
613.0000000001
 31
0.0
  0
LINE
  5
25A
330
1F
100
AcDbEntity
  8
化粧台
  6
CONTINUOUS
 62
     6
100
AcDbLine
 10
1676.500005722002
 20
1467.999999999958
 30
0.0
 11
1644.000005722002
 21
1465.99999999996
 31
0.0
  0
LINE
  5
25B
330
1F
100
AcDbEntity
  8
化粧台
  6
CONTINUOUS
 62
     6
100
AcDbLine
 10
1644.000005722002
 20
1469.99999999996
 30
0.0
 11
1676.500005722002
 21
1467.999999999958
 31
0.0
  0
LINE
  5
25C
330
1F
100
AcDbEntity
  8
化粧台
  6
CONTINUOUS
 62
     6
100
AcDbLine
 10
1638.999999999999
 20
1467.999999999952
 30
0.0
 11
1681.500005721899
 21
1467.999999999952
 31
0.0
  0
LINE
  5
25D
330
1F
100
AcDbEntity
  8
化粧台
  6
EXLTYPE3
 62
     6
100
AcDbLine
 10
1569.0
 20
1413.000000000106
 30
0.0
 11
1569.0
 21
1541.0000000001
 31
0.0
  0
LINE
  5
25E
330
1F
100
AcDbEntity
  8
化粧台
  6
CONTINUOUS
 62
     6
100
AcDbLine
 10
1586.499999999999
 20
1495.3688735304
 30
0.0
 11
1586.499999999999
 21
1433.0000000001
 31
0.0
  0
LINE
  5
25F
330
1F
100
AcDbEntity
  8
化粧台
  6
CONTINUOUS
 62
     6
100
AcDbLine
 10
1551.499999999999
 20
1452.5000000001
 30
0.0
 11
1551.499999999999
 21
1433.0000000001
 31
0.0
  0
LINE
  5
260
330
1F
100
AcDbEntity
  8
化粧台
  6
CONTINUOUS
 62
     6
100
AcDbLine
 10
1541.499999999999
 20
1460.5000000001
 30
0.0
 11
1541.499999999999
 21
1495.5000000001
 31
0.0
  0
ARC
  5
261
330
1F
100
AcDbEntity
  8
化粧台
  6
CONTINUOUS
 62
     6
100
AcDbCircle
 10
1386.499999999998
 20
1495.3688735304
 30
0.0
 40
200.0000000000001
100
AcDbArc
 50
0.0
 51
5.984350480638444
  0
ARC
  5
262
330
1F
100
AcDbEntity
  8
化粧台
  6
CONTINUOUS
 62
     6
100
AcDbCircle
 10
1568.999999999999
 20
1514.5000000001
 30
0.0
 40
16.5
100
AcDbArc
 50
5.984350480638958
 51
174.015649519361
  0
ARC
  5
263
330
1F
100
AcDbEntity
  8
化粧台
  6
CONTINUOUS
 62
     6
100
AcDbCircle
 10
1543.658991576892
 20
1503.5000000001
 30
0.0
 40
8.0
100
AcDbArc
 50
270.0000000000002
 51
357.7596251488985
  0
ARC
  5
264
330
1F
100
AcDbEntity
  8
化粧台
  6
CONTINUOUS
 62
     6
100
AcDbCircle
 10
1543.499999999999
 20
1452.5000000001
 30
0.0
 40
8.0
100
AcDbArc
 50
0.0
 51
90.00000000000001
  0
ARC
  5
265
330
1F
100
AcDbEntity
  8
化粧台
  6
CONTINUOUS
 62
     6
100
AcDbCircle
 10
1751.499999999999
 20
1495.3688735304
 30
0.0
 40
200.0000000000001
100
AcDbArc
 50
174.0156495193615
 51
177.7596251488979
  0
LINE
  5
266
330
1F
100
AcDbEntity
  8
化粧台
  6
CONTINUOUS
 62
     6
100
AcDbLine
 10
1543.658991576892
 20
1495.5000000001
 30
0.0
 11
1541.499999999999
 21
1495.5000000001
 31
0.0
  0
LINE
  5
267
330
1F
100
AcDbEntity
  8
化粧台
  6
CONTINUOUS
 62
     6
100
AcDbLine
 10
1543.499999999999
 20
1460.5000000001
 30
0.0
 11
1541.499999999999
 21
1460.5000000001
 31
0.0
  0
LINE
  5
268
330
1F
100
AcDbEntity
  8
化粧台
  6
CONTINUOUS
 62
     6
100
AcDbLine
 10
1541.500000000021
 20
1460.500000000751
 30
0.0
 11
1520.70494196356
 21
1461.226179429008
 31
0.0
  0
ARC
  5
269
330
1F
100
AcDbEntity
  8
化粧台
  6
CONTINUOUS
 62
     6
100
AcDbCircle
 10
1522.798911765708
 20
1521.189629050155
 30
0.0
 40
60.0
100
AcDbArc
 50
238.5571033085468
 51
268.0000000000025
  0
ARC
  5
26A
330
1F
100
AcDbEntity
  8
化粧台
  6
CONTINUOUS
 62
     6
100
AcDbCircle
 10
1522.798911765708
 20
1434.810370950045
 30
0.0
 40
60.0
100
AcDbArc
 50
91.9999999999976
 51
121.4428966914532
  0
LINE
  5
26B
330
1F
100
AcDbEntity
  8
化粧台
  6
CONTINUOUS
 62
     6
100
AcDbLine
 10
1541.500000000021
 20
1495.499999999449
 30
0.0
 11
1520.70494196356
 21
1494.77382057119
 31
0.0
  0
LINE
  5
26C
330
1F
100
AcDbEntity
  8
化粧台
  6
CONTINUOUS
 62
     6
100
AcDbLine
 10
1491.499999999998
 20
1470.0000000001
 30
0.0
 11
1491.499999999998
 21
1486.0000000001
 31
0.0
  0
LINE
  5
26D
330
1F
100
AcDbEntity
  8
化粧台
  6
EXLTYPE3
 62
     6
100
AcDbLine
 10
805.0393549792916
 20
1038.254783177157
 30
0.0
 11
836.9999999999982
 21
1011.0
 31
0.0
  0
LINE
  5
26E
330
1F
100
AcDbEntity
  8
化粧台
  6
EXLTYPE3
 62
     6
100
AcDbLine
 10
510.9999999999982
 20
1289.0
 30
0.0
 11
727.8407932011323
 21
1104.086685552407
 31
0.0
  0
LINE
  5
26F
330
1F
100
AcDbEntity
  8
化粧台
  6
EXLTYPE3
 62
     6
100
AcDbLine
 10
673.9999999999982
 20
1512.9999999999
 30
0.0
 11
673.9999999999982
 21
1104.0
 31
0.0
  0
LINE
  5
270
330
1F
100
AcDbEntity
  8
化粧台
  6
EXLTYPE3
 62
     6
100
AcDbLine
 10
673.9999999999982
 20
1017.0
 30
0.0
 11
673.9999999999982
 21
592.9999999999
 31
0.0
  0
LINE
  5
271
330
1F
100
AcDbEntity
  8
化粧台
  6
CONTINUOUS
 62
     7
100
AcDbLine
 10
1049.999999999999
 20
2113.0
 30
0.0
 11
399.9999999999991
 21
2113.0
 31
0.0
  0
LINE
  5
272
330
1F
100
AcDbEntity
  8
化粧台
  6
CONTINUOUS
 62
     7
100
AcDbLine
 10
1049.999999999999
 20
613.0
 30
0.0
 11
399.9999999999991
 21
613.0
 31
0.0
  0
LINE
  5
273
330
1F
100
AcDbEntity
  8
化粧台
  6
CONTINUOUS
 62
     7
100
AcDbLine
 10
1643.999999999995
 20
613.0
 30
0.0
 11
1335.999999999999
 21
613.0
 31
0.0
  0
LINE
  5
274
330
1F
100
AcDbEntity
  8
化粧台
  6
CONTINUOUS
 62
     7
100
AcDbLine
 10
1643.999999999999
 20
613.0
 30
0.0
 11
1643.999999999999
 21
1720.0
 31
0.0
  0
TEXT
  5
275
330
1F
100
AcDbEntity
  8
化粧台
  6
CONTINUOUS
 62
     2
100
AcDbText
 10
398.2000000002732
 20
2064.99999999995
 30
0.0
 40
40.0
  1
Ｗ.Ｌ.
 41
0.9086538461538461
  7
EXCADSTD
 72
     5
 11
488.2000000002732
 21
2064.99999999995
 31
0.0
100
AcDbText
  0
TEXT
  5
276
330
1F
100
AcDbEntity
  8
化粧台
  6
CONTINUOUS
 62
     2
100
AcDbText
 10
400.8999999999736
 20
620.7
 30
0.0
 40
40.0
  1
Ｆ.Ｌ.
 41
0.9086538461538461
  7
EXCADSTD
 72
     5
 11
490.8999999999736
 21
620.7
 31
0.0
100
AcDbText
  0
TEXT
  5
277
330
1F
100
AcDbEntity
  8
化粧台
  6
CONTINUOUS
 62
     2
100
AcDbText
 10
1337.899999999973
 20
620.7
 30
0.0
 40
40.0
  1
Ｆ.Ｌ.
 41
0.9086538461538461
  7
EXCADSTD
 72
     5
 11
1427.899999999973
 21
620.7
 31
0.0
100
AcDbText
  0
TEXT
  5
278
330
1F
100
AcDbEntity
  8
化粧台
  6
CONTINUOUS
 62
     2
100
AcDbText
 10
1634.499999999895
 20
1633.65
 30
0.0
 40
40.0
  1
Ｗ.Ｌ.
 50
90.0
 41
0.9086538461538461
  7
EXCADSTD
 72
     5
 11
1634.499999999895
 21
1723.65
 31
0.0
100
AcDbText
  0
DIMENSION
  5
27A
330
1F
100
AcDbEntity
  8
寸法
  6
CONTINUOUS
 62
     3
100
AcDbDimension
  2
*D15
 10
851.4999999999992
 20
1838.0
 30
0.0
 11
673.9999999999993
 21
1861.499999940395
 31
0.0
 70
   160
  3
ISO-25
100
AcDbAlignedDimension
 13
496.4999999999991
 23
1941.1175840868
 33
0.0
 14
851.4999999999992
 24
1941.1175840868
 34
0.0
100
AcDbRotatedDimension
1001
ACAD
1000
DSTYLE
1002
{
1070
   270
1070
     2
1070
     6
1000
EX_NORM
1070
     7
1000
EX_NORM
1070
    41
1040
30.0
1070
    42
1040
6.99999988079071
1070
    44
1040
10.0
1070
    73
1070
     0
1070
    74
1070
     0
1070
    75
1070
     0
1070
    76
1070
     0
1070
    77
1070
     1
1070
    78
1070
     0
1070
   140
1040
40.0
1070
   147
1040
0.0
1070
   173
1070
     1
1070
   176
1070
     3
1070
   177
1070
     3
1070
   178
1070
     2
1070
   271
1070
     0
1070
   277
1070
     2
1070
   279
1070
     2
1070
   280
1070
     0
1070
   287
1070
     5
1070
   340
1005
279
1002
}
  0
DIMENSION
  5
288
330
1F
100
AcDbEntity
  8
寸法
  6
CONTINUOUS
 62
     3
100
AcDbDimension
  2
*D16
 10
931.4999999999992
 20
2113.0
 30
0.0
 11
908.0000000596044
 21
2015.5
 31
0.0
 70
   160
  3
ISO-25
100
AcDbAlignedDimension
 13
673.999999999999
 23
1918.0
 33
0.0
 14
851.4999999999992
 24
2113.0
 34
0.0
 50
90.0
100
AcDbRotatedDimension
1001
ACAD
1000
DSTYLE
1002
{
1070
   270
1070
     2
1070
     6
1000
EX_NORM
1070
     7
1000
EX_NORM
1070
    41
1040
30.0
1070
    42
1040
6.99999988079071
1070
    44
1040
10.0
1070
    73
1070
     0
1070
    74
1070
     0
1070
    75
1070
     0
1070
    76
1070
     1
1070
    77
1070
     1
1070
    78
1070
     0
1070
   140
1040
40.0
1070
   147
1040
0.0
1070
   173
1070
     1
1070
   176
1070
     3
1070
   177
1070
     3
1070
   178
1070
     2
1070
   271
1070
     0
1070
   277
1070
     2
1070
   279
1070
     2
1070
   280
1070
     0
1070
   287
1070
     5
1070
   340
1005
279
1002
}
  0
DIMENSION
  5
294
330
1F
100
AcDbEntity
  8
寸法
  6
CONTINUOUS
 62
     3
100
AcDbDimension
  2
*D17
 10
673.9999999999982
 20
2193.0
 30
0.0
 11
458.9999999999992
 21
2216.499999940395
 31
0.0
 70
   160
  1
75（壁排水）
  3
ISO-25
100
AcDbAlignedDimension
 13
598.9999999999991
 23
2163.0
 33
0.0
 14
673.9999999999982
 24
2113.0
 34
0.0
100
AcDbRotatedDimension
1001
ACAD
1000
DSTYLE
1002
{
1070
   270
1070
     2
1070
     6
1000
EX_NORM
1070
     7
1000
EX_BCIR
1070
    41
1040
30.0
1070
    42
1040
6.99999988079071
1070
    44
1040
10.0
1070
    73
1070
     0
1070
    74
1070
     0
1070
    75
1070
     0
1070
    76
1070
     0
1070
    77
1070
     1
1070
    78
1070
     0
1070
   140
1040
40.0
1070
   147
1040
0.0
1070
   173
1070
     1
1070
   176
1070
     3
1070
   177
1070
     3
1070
   178
1070
     2
1070
   271
1070
     0
1070
   277
1070
     2
1070
   279
1070
     2
1070
   280
1070
     1
1070
   287
1070
     5
1070
   340
1005
279
1002
}
  0
DIMENSION
  5
2A1
330
1F
100
AcDbEntity
  8
寸法
  6
CONTINUOUS
 62
     3
100
AcDbDimension
  2
*D18
 10
769.0
 20
2193.0
 30
0.0
 11
909.0000000000001
 21
2216.499999940395
 31
0.0
 70
   160
  1
95（壁給水）
  3
ISO-25
100
AcDbAlignedDimension
 13
673.9999999999982
 23
2113.0
 33
0.0
 14
769.0
 24
2121.0
 34
0.0
100
AcDbRotatedDimension
1001
ACAD
1000
DSTYLE
1002
{
1070
   270
1070
     2
1070
     6
1000
EX_BCIR
1070
     7
1000
EX_NORM
1070
    41
1040
7.0
1070
    42
1040
6.99999988079071
1070
    44
1040
10.0
1070
    73
1070
     0
1070
    74
1070
     0
1070
    75
1070
     0
1070
    76
1070
     0
1070
    77
1070
     1
1070
    78
1070
     0
1070
   140
1040
40.0
1070
   147
1040
0.0
1070
   173
1070
     1
1070
   176
1070
     3
1070
   177
1070
     3
1070
   178
1070
     2
1070
   271
1070
     0
1070
   277
1070
     2
1070
   279
1070
     2
1070
   280
1070
     2
1070
   287
1070
     5
1070
   340
1005
279
1002
}
  0
DIMENSION
  5
2AE
330
1F
100
AcDbEntity
  8
寸法
  6
CONTINUOUS
 62
     3
100
AcDbDimension
  2
*D19
 10
769.0
 20
453.0
 30
0.0
 11
909.0
 21
476.4999999403954
 31
0.0
 70
   160
  1
95（床給水）
  3
ISO-25
100
AcDbAlignedDimension
 13
673.9999999999982
 23
613.0
 33
0.0
 14
769.0
 24
599.0000000000009
 34
0.0
100
AcDbRotatedDimension
1001
ACAD
1000
DSTYLE
1002
{
1070
   270
1070
     2
1070
     6
1000
EX_BCIR
1070
     7
1000
EX_NORM
1070
    41
1040
7.0
1070
    42
1040
6.99999988079071
1070
    44
1040
10.0
1070
    73
1070
     0
1070
    74
1070
     0
1070
    75
1070
     0
1070
    76
1070
     0
1070
    77
1070
     1
1070
    78
1070
     0
1070
   140
1040
40.0
1070
   147
1040
0.0
1070
   173
1070
     1
1070
   176
1070
     3
1070
   177
1070
     3
1070
   178
1070
     2
1070
   271
1070
     0
1070
   277
1070
     2
1070
   279
1070
     2
1070
   280
1070
     2
1070
   287
1070
     5
1070
   340
1005
279
1002
}
  0
DIMENSION
  5
2BB
330
1F
100
AcDbEntity
  8
寸法
  6
CONTINUOUS
 62
     3
100
AcDbDimension
  2
*D20
 10
673.9999999999982
 20
453.0
 30
0.0
 11
493.999999999999
 21
476.4999999403954
 31
0.0
 70
   160
  1
40（床排水）
  3
ISO-25
100
AcDbAlignedDimension
 13
633.9999999999991
 23
562.99999999988
 33
0.0
 14
673.9999999999982
 24
613.0
 34
0.0
100
AcDbRotatedDimension
1001
ACAD
1000
DSTYLE
1002
{
1070
   270
1070
     2
1070
     6
1000
EX_NORM
1070
     7
1000
EX_BCIR
1070
    41
1040
30.0
1070
    42
1040
6.99999988079071
1070
    44
1040
10.0
1070
    73
1070
     0
1070
    74
1070
     0
1070
    75
1070
     0
1070
    76
1070
     0
1070
    77
1070
     1
1070
    78
1070
     0
1070
   140
1040
40.0
1070
   147
1040
0.0
1070
   173
1070
     1
1070
   176
1070
     3
1070
   177
1070
     3
1070
   178
1070
     2
1070
   271
1070
     0
1070
   277
1070
     2
1070
   279
1070
     2
1070
   280
1070
     1
1070
   287
1070
     5
1070
   340
1005
279
1002
}
  0
LEADER
  5
2CA
330
1F
100
AcDbEntity
  8
寸法
  6
CONTINUOUS
 62
     3
100
AcDbLeader
  3
ISO-25
 76
     3
 10
617.9999999999991
 20
584.0
 30
0.0
 10
563.9999999999991
 20
513.0
 30
0.0
 10
267.9999999999982
 20
513.0
 30
0.0
1001
ACAD
1000
DSTYLE
1002
{
1070
     5
1000
EX_NORM
1070
    41
1040
30.0
1070
   341
1005
4D
1002
}
  0
TEXT
  5
2CB
330
1F
100
AcDbEntity
  8
寸法
  6
CONTINUOUS
 62
     2
100
AcDbText
 10
268.0000009536734
 20
556.4999999403954
 30
0.0
 40
40.0
  1
ＶＰ･ＶＵ４０･５０
 41
0.8542372881355933
  7
EXCADSTD
 72
     5
 11
556.0000009536734
 21
556.4999999403954
 31
0.0
100
AcDbText
  0
TEXT
  5
2CC
330
1F
100
AcDbEntity
  8
寸法
  6
CONTINUOUS
 62
     2
100
AcDbText
 10
268.0000009536734
 20
516.4999999403954
 30
0.0
 40
40.0
  1
４０～５０㎜立上げ
 41
0.9773584905660379
  7
EXCADSTD
 72
     5
 11
564.0000009536734
 21
516.4999999403954
 31
0.0
100
AcDbText
  0
DIMENSION
  5
2CD
330
1F
100
AcDbEntity
  8
寸法
  6
CONTINUOUS
 62
     3
100
AcDbDimension
  2
*D21
 10
1643.999999999999
 20
453.0
 30
0.0
 11
1783.999999999999
 21
476.4999999403954
 31
0.0
 70
   160
  1
60（床給水）
  3
ISO-25
100
AcDbAlignedDimension
 13
1583.999999999999
 23
562.99999999988
 33
0.0
 14
1643.999999999999
 24
613.0
 34
0.0
100
AcDbRotatedDimension
1001
ACAD
1000
DSTYLE
1002
{
1070
   270
1070
     2
1070
     6
1000
EX_NORM
1070
     7
1000
EX_NORM
1070
    41
1040
30.0
1070
    42
1040
6.99999988079071
1070
    44
1040
10.0
1070
    73
1070
     0
1070
    74
1070
     0
1070
    75
1070
     0
1070
    76
1070
     0
1070
    77
1070
     1
1070
    78
1070
     0
1070
   140
1040
40.0
1070
   147
1040
0.0
1070
   173
1070
     1
1070
   176
1070
     3
1070
   177
1070
     3
1070
   178
1070
     2
1070
   271
1070
     0
1070
   277
1070
     2
1070
   279
1070
     2
1070
   280
1070
     2
1070
   287
1070
     5
1070
   340
1005
279
1002
}
  0
DIMENSION
  5
2DA
330
1F
100
AcDbEntity
  8
寸法
  6
CONTINUOUS
 62
     3
100
AcDbDimension
  2
*D22
 10
1643.999999999999
 20
393.0
 30
0.0
 11
1783.999999999999
 21
416.4999999403954
 31
0.0
 70
   160
  1
60（床排水）
  3
ISO-25
100
AcDbAlignedDimension
 13
1583.999999999999
 23
562.99999999988
 33
0.0
 14
1643.999999999999
 24
613.0000000001
 34
0.0
100
AcDbRotatedDimension
1001
ACAD
1000
DSTYLE
1002
{
1070
   270
1070
     2
1070
     6
1000
EX_NORM
1070
     7
1000
EX_NORM
1070
    41
1040
30.0
1070
    42
1040
6.99999988079071
1070
    44
1040
10.0
1070
    73
1070
     0
1070
    74
1070
     0
1070
    75
1070
     0
1070
    76
1070
     0
1070
    77
1070
     1
1070
    78
1070
     0
1070
   140
1040
40.0
1070
   147
1040
0.0
1070
   173
1070
     1
1070
   176
1070
     3
1070
   177
1070
     3
1070
   178
1070
     2
1070
   271
1070
     0
1070
   277
1070
     2
1070
   279
1070
     2
1070
   280
1070
     2
1070
   287
1070
     5
1070
   340
1005
279
1002
}
  0
TEXT
  5
2E7
330
1F
100
AcDbEntity
  8
寸法
  6
CONTINUOUS
 62
     2
100
AcDbText
 10
1683.799999999999
 20
516.4999999403954
 30
0.0
 40
40.0
  1
Ｒ１/２
 41
0.8342465753424658
  7
EXCADSTD
 72
     5
 11
1799.799999999999
 21
516.4999999403954
 31
0.0
100
AcDbText
  0
LEADER
  5
2E8
330
1F
100
AcDbEntity
  8
寸法
  6
CONTINUOUS
 62
     3
100
AcDbLeader
  3
ISO-25
 76
     3
 10
1594.499999999999
 20
604.9999999999
 30
0.0
 10
1683.799999999999
 20
513.0
 30
0.0
 10
1790.699999999999
 20
513.0
 30
0.0
1001
ACAD
1000
DSTYLE
1002
{
1070
     5
1000
EX_NORM
1070
    41
1040
30.0
1070
   341
1005
4D
1002
}
  0
TEXT
  5
2E9
330
1F
100
AcDbEntity
  8
寸法
  6
CONTINUOUS
 62
     2
100
AcDbText
 10
1198.000001072885
 20
516.4999999403954
 30
0.0
 40
40.0
  1
φ３５（ジャバラ管）
 41
0.9728813559322035
  7
EXCADSTD
 72
     5
 11
1526.000001072885
 21
516.4999999403954
 31
0.0
100
AcDbText
  0
LEADER
  5
2EA
330
1F
100
AcDbEntity
  8
寸法
  6
CONTINUOUS
 62
     3
100
AcDbLeader
  3
ISO-25
 76
     3
 10
1567.999999999999
 20
575.7999999999993
 30
0.0
 10
1525.999999999999
 20
513.0
 30
0.0
 10
1196.999999999999
 20
513.0
 30
0.0
1001
ACAD
1000
DSTYLE
1002
{
1070
     5
1000
EX_NORM
1070
    41
1040
30.0
1070
   341
1005
4D
1002
}
  0
DIMENSION
  5
2EB
330
1F
100
AcDbEntity
  8
寸法
  6
CONTINUOUS
 62
     3
100
AcDbDimension
  2
*D23
 10
1723.999999999999
 20
963.0000000000001
 30
0.0
 11
1700.500000059604
 21
788.0000000000501
 31
0.0
 70
   160
  1
350（壁給水）
  3
ISO-25
100
AcDbAlignedDimension
 13
1643.999999999999
 23
613.0000000001
 33
0.0
 14
1651.999999999999
 24
963.0000000000001
 34
0.0
 50
90.0
100
AcDbRotatedDimension
1001
ACAD
1000
DSTYLE
1002
{
1070
   270
1070
     2
1070
     6
1000
EX_NORM
1070
     7
1000
EX_NORM
1070
    41
1040
30.0
1070
    42
1040
6.99999988079071
1070
    44
1040
10.0
1070
    73
1070
     0
1070
    74
1070
     0
1070
    75
1070
     0
1070
    76
1070
     0
1070
    77
1070
     1
1070
    78
1070
     0
1070
   140
1040
40.0
1070
   147
1040
0.0
1070
   173
1070
     1
1070
   176
1070
     3
1070
   177
1070
     3
1070
   178
1070
     2
1070
   271
1070
     0
1070
   277
1070
     2
1070
   279
1070
     2
1070
   280
1070
     0
1070
   287
1070
     5
1070
   340
1005
279
1002
}
  0
DIMENSION
  5
2F8
330
1F
100
AcDbEntity
  8
寸法
  6
CONTINUOUS
 62
     3
100
AcDbDimension
  2
*D24
 10
1783.999999999999
 20
1053.0
 30
0.0
 11
1760.500000059604
 21
833.0000000000501
 31
0.0
 70
   160
  1
440（壁排水）
  3
ISO-25
100
AcDbAlignedDimension
 13
1643.999999999999
 23
613.0000000001
 33
0.0
 14
1693.999999999999
 24
1053.0
 34
0.0
 50
90.0
100
AcDbRotatedDimension
1001
ACAD
1000
DSTYLE
1002
{
1070
   270
1070
     2
1070
     6
1000
EX_NORM
1070
     7
1000
EX_NORM
1070
    41
1040
30.0
1070
    42
1040
6.99999988079071
1070
    44
1040
10.0
1070
    73
1070
     0
1070
    74
1070
     0
1070
    75
1070
     0
1070
    76
1070
     0
1070
    77
1070
     1
1070
    78
1070
     0
1070
   140
1040
40.0
1070
   147
1040
0.0
1070
   173
1070
     1
1070
   176
1070
     3
1070
   177
1070
     3
1070
   178
1070
     2
1070
   271
1070
     0
1070
   277
1070
     2
1070
   279
1070
     2
1070
   280
1070
     0
1070
   287
1070
     5
1070
   340
1005
279
1002
}
  0
DIMENSION
  5
305
330
1F
100
AcDbEntity
  8
寸法
  6
CONTINUOUS
 62
     3
100
AcDbDimension
  2
*D25
 10
1843.999999999999
 20
1217.5
 30
0.0
 11
1820.500000059604
 21
915.25000000005
 31
0.0
 70
   160
  1
605（壁固定）
  3
ISO-25
100
AcDbAlignedDimension
 13
1643.999999999999
 23
613.0000000001
 33
0.0
 14
1676.500005721899
 24
1217.5
 34
0.0
 50
90.0
100
AcDbRotatedDimension
1001
ACAD
1000
DSTYLE
1002
{
1070
   270
1070
     2
1070
     6
1000
EX_NORM
1070
     7
1000
EX_NORM
1070
    41
1040
30.0
1070
    42
1040
6.99999988079071
1070
    44
1040
10.0
1070
    73
1070
     0
1070
    74
1070
     0
1070
    75
1070
     0
1070
    76
1070
     0
1070
    77
1070
     1
1070
    78
1070
     0
1070
   140
1040
40.0
1070
   147
1040
0.0
1070
   173
1070
     1
1070
   176
1070
     3
1070
   177
1070
     3
1070
   178
1070
     2
1070
   271
1070
     0
1070
   277
1070
     2
1070
   279
1070
     2
1070
   280
1070
     0
1070
   287
1070
     5
1070
   340
1005
279
1002
}
  0
DIMENSION
  5
312
330
1F
100
AcDbEntity
  8
寸法
  6
CONTINUOUS
 62
     3
100
AcDbDimension
  2
*D26
 10
1903.999999999999
 20
1468.0
 30
0.0
 11
1880.500000059604
 21
1040.50000000005
 31
0.0
 70
   160
  1
<>（壁固定）
  3
ISO-25
100
AcDbAlignedDimension
 13
1643.999999999999
 23
613.0000000001
 33
0.0
 14
1676.500005721899
 24
1468.0
 34
0.0
 50
90.0
100
AcDbRotatedDimension
1001
ACAD
1000
DSTYLE
1002
{
1070
   270
1070
     2
1070
     6
1000
EX_NORM
1070
     7
1000
EX_NORM
1070
    41
1040
30.0
1070
    42
1040
6.99999988079071
1070
    44
1040
10.0
1070
    73
1070
     0
1070
    74
1070
     0
1070
    75
1070
     0
1070
    76
1070
     0
1070
    77
1070
     1
1070
    78
1070
     0
1070
   140
1040
40.0
1070
   147
1040
0.0
1070
   173
1070
     1
1070
   176
1070
     3
1070
   177
1070
     3
1070
   178
1070
     2
1070
   271
1070
     0
1070
   277
1070
     2
1070
   279
1070
     2
1070
   280
1070
     0
1070
   287
1070
     5
1070
   340
1005
279
1002
}
  0
DIMENSION
  5
31F
330
1F
100
AcDbEntity
  8
寸法
  6
CONTINUOUS
 62
     3
100
AcDbDimension
  2
*D27
 10
931.4999999999992
 20
1433.0
 30
0.0
 11
908.0000000596042
 21
1023.0
 31
0.0
 70
   160
  3
ISO-25
100
AcDbAlignedDimension
 13
838.9999999999992
 23
613.0
 33
0.0
 14
847.4999999999991
 24
1433.0
 34
0.0
 50
90.0
100
AcDbRotatedDimension
1001
ACAD
1000
DSTYLE
1002
{
1070
   270
1070
     2
1070
     6
1000
EX_NORM
1070
     7
1000
EX_NORM
1070
    41
1040
30.0
1070
    42
1040
6.99999988079071
1070
    44
1040
10.0
1070
    73
1070
     0
1070
    74
1070
     0
1070
    75
1070
     1
1070
    76
1070
     0
1070
    77
1070
     1
1070
    78
1070
     0
1070
   140
1040
40.0
1070
   147
1040
0.0
1070
   173
1070
     1
1070
   176
1070
     3
1070
   177
1070
     3
1070
   178
1070
     2
1070
   271
1070
     0
1070
   277
1070
     2
1070
   279
1070
     2
1070
   280
1070
     0
1070
   287
1070
     5
1070
   340
1005
279
1002
}
  0
DIMENSION
  5
32B
330
1F
100
AcDbEntity
  8
寸法
  6
CONTINUOUS
 62
     3
100
AcDbDimension
  2
*D28
 10
991.4999999999992
 20
1493.0
 30
0.0
 11
968.0000000596042
 21
1053.0
 31
0.0
 70
   160
  3
ISO-25
100
AcDbAlignedDimension
 13
838.9999999999992
 23
613.0
 33
0.0
 14
846.0927186622594
 24
1493.0
 34
0.0
 50
90.0
100
AcDbRotatedDimension
1001
ACAD
1000
DSTYLE
1002
{
1070
   270
1070
     2
1070
     6
1000
EX_NORM
1070
     7
1000
EX_NORM
1070
    41
1040
30.0
1070
    42
1040
6.99999988079071
1070
    44
1040
10.0
1070
    73
1070
     0
1070
    74
1070
     0
1070
    75
1070
     1
1070
    76
1070
     0
1070
    77
1070
     1
1070
    78
1070
     0
1070
   140
1040
40.0
1070
   147
1040
0.0
1070
   173
1070
     1
1070
   176
1070
     3
1070
   177
1070
     3
1070
   178
1070
     2
1070
   271
1070
     0
1070
   277
1070
     2
1070
   279
1070
     2
1070
   280
1070
     0
1070
   287
1070
     5
1070
   340
1005
279
1002
}
  0
DIMENSION
  5
337
330
1F
100
AcDbEntity
  8
寸法
  6
CONTINUOUS
 62
     3
100
AcDbDimension
  2
*D29
 10
778.9999999999791
 20
1086.0
 30
0.0
 11
682.9999999999809
 21
1054.499999940395
 31
0.0
 70
   160
  1
210（壁固定）
  3
ISO-25
100
AcDbAlignedDimension
 13
568.9999999999791
 23
1213.699999999999
 33
0.0
 14
778.9999999999791
 24
1213.699999999999
 34
0.0
100
AcDbRotatedDimension
1001
ACAD
1000
DSTYLE
1002
{
1070
   270
1070
     2
1070
     6
1000
EX_NORM
1070
     7
1000
EX_NORM
1070
    41
1040
30.0
1070
    42
1040
6.99999988079071
1070
    44
1040
10.0
1070
    73
1070
     0
1070
    74
1070
     0
1070
    75
1070
     0
1070
    76
1070
     0
1070
    77
1070
     1
1070
    78
1070
     0
1070
   140
1040
40.0
1070
   147
1040
0.0
1070
   173
1070
     1
1070
   176
1070
     3
1070
   177
1070
     3
1070
   178
1070
     2
1070
   271
1070
     0
1070
   277
1070
     2
1070
   279
1070
     2
1070
   280
1070
     0
1070
   287
1070
     5
1070
   340
1005
279
1002
}
  0
DIMENSION
  5
344
330
1F
100
AcDbEntity
  8
寸法
  6
CONTINUOUS
 62
     3
100
AcDbDimension
  2
*D30
 10
823.9999999999992
 20
1573.0
 30
0.0
 11
673.9999999999993
 21
1596.499999940395
 31
0.0
 70
   160
  1
300（壁固定）
  3
ISO-25
100
AcDbAlignedDimension
 13
523.9999999999991
 23
1468.0
 33
0.0
 14
823.9999999999992
 24
1468.0
 34
0.0
100
AcDbRotatedDimension
1001
ACAD
1000
DSTYLE
1002
{
1070
   270
1070
     2
1070
     6
1000
EX_NORM
1070
     7
1000
EX_NORM
1070
    41
1040
30.0
1070
    42
1040
6.99999988079071
1070
    44
1040
10.0
1070
    73
1070
     0
1070
    74
1070
     0
1070
    75
1070
     0
1070
    76
1070
     0
1070
    77
1070
     1
1070
    78
1070
     0
1070
   140
1040
40.0
1070
   147
1040
0.0
1070
   173
1070
     1
1070
   176
1070
     3
1070
   177
1070
     3
1070
   178
1070
     2
1070
   271
1070
     0
1070
   277
1070
     2
1070
   279
1070
     2
1070
   280
1070
     0
1070
   287
1070
     5
1070
   340
1005
279
1002
}
  0
ENDSEC
  0
SECTION
  2
OBJECTS
  0
DICTIONARY
  5
C
330
0
100
AcDbDictionary
  3
ACAD_GROUP
350
D
  3
ACAD_LAYOUT
350
1A
  3
ACAD_MATERIAL
350
3B
  3
ACAD_MLEADERSTYLE
350
373
  3
ACAD_MLINESTYLE
350
17
  3
ACAD_PLOTSETTINGS
350
19
  3
ACAD_VISUALSTYLE
350
2A
  3
ACDBHEADERROUNDTRIPXREC
350
351
  3
ACDBVARIABLEDICTIONARY
350
371
  0
DICTIONARY
  5
D
102
{ACAD_REACTORS
330
C
102
}
330
C
100
AcDbDictionary
  0
DICTIONARY
  5
1A
102
{ACAD_REACTORS
330
C
102
}
330
C
100
AcDbDictionary
  0
DICTIONARY
  5
3B
102
{ACAD_REACTORS
330
C
102
}
330
C
100
AcDbDictionary
  3
BYBLOCK
350
3D
  3
BYLAYER
350
3C
  3
GLOBAL
350
3E
  0
DICTIONARY
  5
373
102
{ACAD_REACTORS
330
C
102
}
330
C
100
AcDbDictionary
  0
DICTIONARY
  5
17
102
{ACAD_REACTORS
330
C
102
}
330
C
100
AcDbDictionary
  3
STANDARD
350
18
  0
DICTIONARY
  5
19
102
{ACAD_REACTORS
330
C
102
}
330
C
100
AcDbDictionary
  0
DICTIONARY
  5
2A
102
{ACAD_REACTORS
330
C
102
}
330
C
100
AcDbDictionary
  3
2DWIREFRAME
350
2F
  3
3D_HIDDEN
350
31
  3
3DWIREFRAME
350
30
  3
BASIC
350
32
  3
BRIGHTEN
350
36
  3
COLORCHANGE
350
3A
  3
CONCEPTUAL
350
34
  3
DIM
350
35
  3
FACEPATTERN
350
39
  3
FLAT
350
2B
  3
FLATWITHEDGES
350
2C
  3
GOURAUD
350
2D
  3
GOURAUDWITHEDGES
350
2E
  3
LINEPATTERN
350
38
  3
REALISTIC
350
33
  3
THICKEN
350
37
  0
DICTIONARY
  5
351
102
{ACAD_REACTORS
330
C
102
}
330
C
100
AcDbDictionary
  3
CEPSNTYPE
350
35A
  3
DIMSTYLEDATA
350
370
  3
FINGERPRINTGUID
350
35B
  3
HYPERLINKBASE
350
354
  3
INSUNITS
350
359
  3
LAYOUTDICT
350
356
  3
LWETCUNION
350
358
  3
PLOTSETDICT
350
357
  3
PSVPSCALE
350
35D
  3
PUCSBASE
350
360
  3
PUCSORGBACK
350
366
  3
PUCSORGBOTTOM
350
362
  3
PUCSORGFRONT
350
365
  3
PUCSORGLEFT
350
363
  3
PUCSORGRIGHT
350
364
  3
PUCSORGTOP
350
361
  3
PUCSORTHOREF
350
35E
  3
PUCSORTHOVIEW
350
35F
  3
STYLESHEET
350
355
  3
TSTACKALIGN
350
352
  3
TSTACKSIZE
350
353
  3
UCSBASE
350
369
  3
UCSORGBACK
350
36F
  3
UCSORGBOTTOM
350
36B
  3
UCSORGFRONT
350
36E
  3
UCSORGLEFT
350
36C
  3
UCSORGRIGHT
350
36D
  3
UCSORGTOP
350
36A
  3
UCSORTHOREF
350
367
  3
UCSORTHOVIEW
350
368
  3
VERSIONGUID
350
35C
  0
DICTIONARY
  5
371
102
{ACAD_REACTORS
330
C
102
}
330
C
100
AcDbDictionary
  3
DIMASSOC
350
376
  3
HIDETEXT
350
377
  3
PSOLHEIGHT
350
375
  3
PSOLWIDTH
350
374
  0
MATERIAL
  5
3D
102
{ACAD_REACTORS
330
3B
102
}
102
{ACAD_XDICTIONARY
360
37A
102
}
330
3B
100
AcDbMaterial
  1
ByBlock
  0
MATERIAL
  5
3C
102
{ACAD_REACTORS
330
3B
102
}
102
{ACAD_XDICTIONARY
360
378
102
}
330
3B
100
AcDbMaterial
  1
ByLayer
  0
MATERIAL
  5
3E
102
{ACAD_REACTORS
330
3B
102
}
102
{ACAD_XDICTIONARY
360
37C
102
}
330
3B
100
AcDbMaterial
  1
Global
  0
MLINESTYLE
  5
18
102
{ACAD_REACTORS
330
17
102
}
330
17
100
AcDbMlineStyle
  2
Standard
 70
     0
  3

 62
   256
 51
90.0
 52
90.0
 71
     2
 49
0.5
 62
   256
  6
BYLAYER
 49
-0.5
 62
   256
  6
BYLAYER
  0
ACAD_PROXY_OBJECT
  5
2F
102
{ACAD_REACTORS
330
2A
102
}
330
2A
100
AcDbProxyObject
 90
      499
 91
      501
 93
      436
310
42CC9915DA5C99599C985B595049028333333333333E3BF0000000000000FB0107901411070040501600405405064090741402480A0340
1001
ACAD
1000
AcDbSavedByObjectVersion
1070
     0
  0
ACAD_PROXY_OBJECT
  5
31
102
{ACAD_REACTORS
330
2A
102
}
330
2A
100
AcDbProxyObject
 90
      499
 91
      501
 93
      500
310
424CD108121A5919195B90640502408333333333333E3BF0000000000000FB01079024090700405020000000000001110200405405064090740C02480A0340
1001
ACAD
1000
AcDbSavedByObjectVersion
1070
     0
  0
ACAD_PROXY_OBJECT
  5
30
102
{ACAD_REACTORS
330
2A
102
}
330
2A
100
AcDbProxyObject
 90
      499
 91
      501
 93
      436
310
42CCD915DA5C99599C985B595059028333333333333E3BF0000000000000FB0107901411070040501600405405064090741402480A0340
1001
ACAD
1000
AcDbSavedByObjectVersion
1070
     0
  0
ACAD_PROXY_OBJECT
  5
32
102
{ACAD_REACTORS
330
2A
102
}
330
2A
100
AcDbProxyObject
 90
      499
 91
      501
 93
      388
310
4150985CDA58D07406404333333333333E3BF0000000000000FB0107A41107004050150841D405064090741402480A0350
1001
ACAD
1000
AcDbSavedByObjectVersion
1070
     0
  0
ACAD_PROXY_OBJECT
  5
36
102
{ACAD_REACTORS
330
2A
102
}
330
2A
100
AcDbProxyObject
 90
      499
 91
      501
 93
      428
310
42109C9A59DA1D195B90C409028333333333333E3BF0000000000000FB010790141107004050150841D405064090741402480A029950
1001
ACAD
1000
AcDbSavedByObjectVersion
1070
     0
  0
ACAD_PROXY_OBJECT
  5
3A
102
{ACAD_REACTORS
330
2A
102
}
330
2A
100
AcDbProxyObject
 90
      499
 91
      501
 93
      452
310
42D0DBDB1BDC90DA185B99D95104090240C333333333333E3BF0000000000000FB0108901411070040501508421405064090741402480A0350
1001
ACAD
1000
AcDbSavedByObjectVersion
1070
     0
  0
ACAD_PROXY_OBJECT
  5
34
102
{ACAD_REACTORS
330
2A
102
}
330
2A
100
AcDbProxyObject
 90
      499
 91
      501
 93
      500
310
4290DBDB98D95C1D1D585B10940D028333333333333E3BF0000000000000FB0107902409070040501000000000000111010841D405064090740C02480A0340
1001
ACAD
1000
AcDbSavedByObjectVersion
1070
     0
  0
ACAD_PROXY_OBJECT
  5
35
102
{ACAD_REACTORS
330
2A
102
}
330
2A
100
AcDbProxyObject
 90
      499
 91
      501
 93
      412
310
40D11A5B50B409028333333333333E3BF0000000000000FB010790141107004050150841D405064090741402480A02677FFFFFD0
1001
ACAD
1000
AcDbSavedByObjectVersion
1070
     0
  0
ACAD_PROXY_OBJECT
  5
39
102
{ACAD_REACTORS
330
2A
102
}
330
2A
100
AcDbProxyObject
 90
      499
 91
      501
 93
      444
310
42D19858D95C185D1D195C9B90F409028333333333333E3BF0000000000000FB010790141107004050150841D405064090741402480A0350
1001
ACAD
1000
AcDbSavedByObjectVersion
1070
     0
  0
ACAD_PROXY_OBJECT
  5
2B
102
{ACAD_REACTORS
330
2A
102
}
330
2A
100
AcDbProxyObject
 90
      499
 91
      501
 93
      388
310
41119B185D240901404333333333333E3BF0000000000000F9010740A41107004050150841D405064090741402480A1B50
1001
ACAD
1000
AcDbSavedByObjectVersion
1070
     0
  0
ACAD_PROXY_OBJECT
  5
2C
102
{ACAD_REACTORS
330
2A
102
}
330
2A
100
AcDbProxyObject
 90
      499
 91
      501
 93
      476
310
43519B185D15DA5D1A115919D95CD0140901404333333333333E3BF0000000000000F9010740901411070040501600405405064090741402480A1B50
1001
ACAD
1000
AcDbSavedByObjectVersion
1070
     0
  0
ACAD_PROXY_OBJECT
  5
2D
102
{ACAD_REACTORS
330
2A
102
}
330
2A
100
AcDbProxyObject
 90
      499
 91
      501
 93
      412
310
41D1DBDD5C985D5910240902404333333333333E3BF0000000000000F9010740A411070040501641D405064090741402480A1B50
1001
ACAD
1000
AcDbSavedByObjectVersion
1070
     0
  0
ACAD_PROXY_OBJECT
  5
2E
102
{ACAD_REACTORS
330
2A
102
}
330
2A
100
AcDbProxyObject
 90
      499
 91
      501
 93
      500
310
4411DBDD5C985D5915DA5D1A115919D95CD0340902404333333333333E3BF0000000000000F9010740901411070040501600405405064090741402480A1B50
1001
ACAD
1000
AcDbSavedByObjectVersion
1070
     0
  0
ACAD_PROXY_OBJECT
  5
38
102
{ACAD_REACTORS
330
2A
102
}
330
2A
100
AcDbProxyObject
 90
      499
 91
      501
 93
      444
310
42D31A5B995C185D1D195C9B90E409028333333333333E3BF0000000000000FB010790141107004050750841D405064090741402483A0350
1001
ACAD
1000
AcDbSavedByObjectVersion
1070
     0
  0
ACAD_PROXY_OBJECT
  5
33
102
{ACAD_REACTORS
330
2A
102
}
330
2A
100
AcDbProxyObject
 90
      499
 91
      501
 93
      420
310
425499585B1A5CDD1A58D08409028333333333333E3BF0000000000000FB01079019070040501508421405064090741402480A1B40
1001
ACAD
1000
AcDbSavedByObjectVersion
1070
     0
  0
ACAD_PROXY_OBJECT
  5
37
102
{ACAD_REACTORS
330
2A
102
}
330
2A
100
AcDbProxyObject
 90
      499
 91
      501
 93
      412
310
41D51A1A58DAD95B90D409028333333333333E3BF0000000000000FB010790141107004050150C41D405064090741402480A0350
1001
ACAD
1000
AcDbSavedByObjectVersion
1070
     0
  0
XRECORD
  5
35A
102
{ACAD_REACTORS
330
351
102
}
330
351
100
AcDbXrecord
 90
        0
  0
XRECORD
  5
370
102
{ACAD_REACTORS
330
351
102
}
330
351
100
AcDbXrecord
1000
DSTYLE
1002
{
1070
   340
340
11
1002
}
  0
XRECORD
  5
35B
102
{ACAD_REACTORS
330
351
102
}
330
351
100
AcDbXrecord
  1
{C4FE49BD-A82A-4943-9FB2-35C535F7A226}
  0
XRECORD
  5
354
102
{ACAD_REACTORS
330
351
102
}
330
351
100
AcDbXrecord
  1

  0
XRECORD
  5
359
102
{ACAD_REACTORS
330
351
102
}
330
351
100
AcDbXrecord
 90
        4
  0
XRECORD
  5
356
102
{ACAD_REACTORS
330
351
102
}
330
351
100
AcDbXrecord
340
1A
  0
XRECORD
  5
358
102
{ACAD_REACTORS
330
351
102
}
330
351
100
AcDbXrecord
 90
    10781
  0
XRECORD
  5
357
102
{ACAD_REACTORS
330
351
102
}
330
351
100
AcDbXrecord
340
19
  0
XRECORD
  5
35D
102
{ACAD_REACTORS
330
351
102
}
330
351
100
AcDbXrecord
 40
0.0
  0
XRECORD
  5
360
102
{ACAD_REACTORS
330
351
102
}
330
351
100
AcDbXrecord
340
0
  0
XRECORD
  5
366
102
{ACAD_REACTORS
330
351
102
}
330
351
100
AcDbXrecord
 10
0.0
 20
0.0
 30
0.0
  0
XRECORD
  5
362
102
{ACAD_REACTORS
330
351
102
}
330
351
100
AcDbXrecord
 10
0.0
 20
0.0
 30
0.0
  0
XRECORD
  5
365
102
{ACAD_REACTORS
330
351
102
}
330
351
100
AcDbXrecord
 10
0.0
 20
0.0
 30
0.0
  0
XRECORD
  5
363
102
{ACAD_REACTORS
330
351
102
}
330
351
100
AcDbXrecord
 10
0.0
 20
0.0
 30
0.0
  0
XRECORD
  5
364
102
{ACAD_REACTORS
330
351
102
}
330
351
100
AcDbXrecord
 10
0.0
 20
0.0
 30
0.0
  0
XRECORD
  5
361
102
{ACAD_REACTORS
330
351
102
}
330
351
100
AcDbXrecord
 10
0.0
 20
0.0
 30
0.0
  0
XRECORD
  5
35E
102
{ACAD_REACTORS
330
351
102
}
330
351
100
AcDbXrecord
340
0
  0
XRECORD
  5
35F
102
{ACAD_REACTORS
330
351
102
}
330
351
100
AcDbXrecord
 70
     0
  0
XRECORD
  5
355
102
{ACAD_REACTORS
330
351
102
}
330
351
100
AcDbXrecord
  1

  0
XRECORD
  5
352
102
{ACAD_REACTORS
330
351
102
}
330
351
100
AcDbXrecord
 90
        1
  0
XRECORD
  5
353
102
{ACAD_REACTORS
330
351
102
}
330
351
100
AcDbXrecord
 90
       70
  0
XRECORD
  5
369
102
{ACAD_REACTORS
330
351
102
}
330
351
100
AcDbXrecord
340
0
  0
XRECORD
  5
36F
102
{ACAD_REACTORS
330
351
102
}
330
351
100
AcDbXrecord
 10
0.0
 20
0.0
 30
0.0
  0
XRECORD
  5
36B
102
{ACAD_REACTORS
330
351
102
}
330
351
100
AcDbXrecord
 10
0.0
 20
0.0
 30
0.0
  0
XRECORD
  5
36E
102
{ACAD_REACTORS
330
351
102
}
330
351
100
AcDbXrecord
 10
0.0
 20
0.0
 30
0.0
  0
XRECORD
  5
36C
102
{ACAD_REACTORS
330
351
102
}
330
351
100
AcDbXrecord
 10
0.0
 20
0.0
 30
0.0
  0
XRECORD
  5
36D
102
{ACAD_REACTORS
330
351
102
}
330
351
100
AcDbXrecord
 10
0.0
 20
0.0
 30
0.0
  0
XRECORD
  5
36A
102
{ACAD_REACTORS
330
351
102
}
330
351
100
AcDbXrecord
 10
0.0
 20
0.0
 30
0.0
  0
XRECORD
  5
367
102
{ACAD_REACTORS
330
351
102
}
330
351
100
AcDbXrecord
340
0
  0
XRECORD
  5
368
102
{ACAD_REACTORS
330
351
102
}
330
351
100
AcDbXrecord
 70
     0
  0
XRECORD
  5
35C
102
{ACAD_REACTORS
330
351
102
}
330
351
100
AcDbXrecord
  1
{FAEB1C32-E019-11D5-929B-00C0DF256EC4}
  0
DICTIONARYVAR
  5
376
102
{ACAD_REACTORS
330
371
102
}
330
371
100
DictionaryVariables
280
     0
  1
2
  0
DICTIONARYVAR
  5
377
102
{ACAD_REACTORS
330
371
102
}
330
371
100
DictionaryVariables
280
     0
  1
1
  0
DICTIONARYVAR
  5
375
102
{ACAD_REACTORS
330
371
102
}
330
371
100
DictionaryVariables
280
     0
  1
80.000000
  0
DICTIONARYVAR
  5
374
102
{ACAD_REACTORS
330
371
102
}
330
371
100
DictionaryVariables
280
     0
  1
5.000000
  0
DICTIONARY
  5
37A
330
3D
100
AcDbDictionary
280
     1
  3
ACAD_XREC_ROUNDTRIP
360
37B
  0
DICTIONARY
  5
378
330
3C
100
AcDbDictionary
280
     1
  3
ACAD_XREC_ROUNDTRIP
360
379
  0
DICTIONARY
  5
37C
330
3E
100
AcDbDictionary
280
     1
  3
ACAD_XREC_ROUNDTRIP
360
37D
  0
XRECORD
  5
37B
102
{ACAD_REACTORS
330
37A
102
}
330
37A
100
AcDbXrecord
102
MATERIAL
148
0.0
149
0.0
149
0.0
 93
        0
 94
      127
282
     0
 72
     1
 77
     1
171
     1
175
     1
179
     1
273
     0
  0
XRECORD
  5
379
102
{ACAD_REACTORS
330
378
102
}
330
378
100
AcDbXrecord
102
MATERIAL
148
0.0
149
0.0
149
0.0
 93
        0
 94
      127
282
     0
 72
     1
 77
     1
171
     1
175
     1
179
     1
273
     0
  0
XRECORD
  5
37D
102
{ACAD_REACTORS
330
37C
102
}
330
37C
100
AcDbXrecord
102
MATERIAL
148
0.0
149
0.0
149
0.0
 93
        0
 94
      127
282
     0
 72
     1
 77
     1
171
     1
175
     1
179
     1
273
     0
  0
ENDSEC
  0
EOF
