  0
SECTION
  2
HEADER
  9
$ACADVER
  1
AC1014
  9
$ACADMAINTVER
 70
     9
  9
$DWGCODEPAGE
  3
ANSI_932
  9
$INSBASE
 10
0.0
 20
0.0
 30
0.0
  9
$EXTMIN
 10
9.0
 20
8.372070309999998
 30
0.0
  9
$EXTMAX
 10
289.0
 20
190.5
 30
0.0
  9
$LIMMIN
 10
0.0
 20
0.0
  9
$LIMMAX
 10
297.0
 20
210.0
  9
$ORTHOMODE
 70
     0
  9
$REGENMODE
 70
     1
  9
$FILLMODE
 70
     1
  9
$QTEXTMODE
 70
     0
  9
$MIRRTEXT
 70
     1
  9
$DRAGMODE
 70
     2
  9
$LTSCALE
 40
1.0
  9
$OSMODE
 70
    37
  9
$ATTMODE
 70
     1
  9
$TEXTSIZE
 40
2.5
  9
$TRACEWID
 40
1.0
  9
$TEXTSTYLE
  7
STANDARD
  9
$CLAYER
  8
ｶｳﾝﾀｰ_ｷｬﾋﾞﾈｯﾄ
  9
$CELTYPE
  6
BYLAYER
  9
$CECOLOR
 62
   256
  9
$CELTSCALE
 40
1.0
  9
$DELOBJ
 70
     1
  9
$DISPSILH
 70
     0
  9
$DIMSCALE
 40
1.0
  9
$DIMASZ
 40
2.5
  9
$DIMEXO
 40
0.625
  9
$DIMDLI
 40
3.75
  9
$DIMRND
 40
0.0
  9
$DIMDLE
 40
0.0
  9
$DIMEXE
 40
1.25
  9
$DIMTP
 40
0.0
  9
$DIMTM
 40
0.0
  9
$DIMTXT
 40
2.5
  9
$DIMCEN
 40
2.5
  9
$DIMTSZ
 40
0.0
  9
$DIMTOL
 70
     0
  9
$DIMLIM
 70
     0
  9
$DIMTIH
 70
     0
  9
$DIMTOH
 70
     0
  9
$DIMSE1
 70
     0
  9
$DIMSE2
 70
     0
  9
$DIMTAD
 70
     1
  9
$DIMZIN
 70
     8
  9
$DIMBLK
  1

  9
$DIMASO
 70
     1
  9
$DIMSHO
 70
     1
  9
$DIMPOST
  1

  9
$DIMAPOST
  1

  9
$DIMALT
 70
     0
  9
$DIMALTD
 70
     3
  9
$DIMALTF
 40
0.03937007874016
  9
$DIMLFAC
 40
1.0
  9
$DIMTOFL
 70
     1
  9
$DIMTVP
 40
0.0
  9
$DIMTIX
 70
     0
  9
$DIMSOXD
 70
     0
  9
$DIMSAH
 70
     0
  9
$DIMBLK1
  1

  9
$DIMBLK2
  1

  9
$DIMSTYLE
  2
ISO-25
  9
$DIMCLRD
 70
     0
  9
$DIMCLRE
 70
     0
  9
$DIMCLRT
 70
     0
  9
$DIMTFAC
 40
1.0
  9
$DIMGAP
 40
0.625
  9
$DIMJUST
 70
     0
  9
$DIMSD1
 70
     0
  9
$DIMSD2
 70
     0
  9
$DIMTOLJ
 70
     0
  9
$DIMTZIN
 70
     8
  9
$DIMALTZ
 70
     0
  9
$DIMALTTZ
 70
     0
  9
$DIMFIT
 70
     3
  9
$DIMUPT
 70
     0
  9
$DIMUNIT
 70
     2
  9
$DIMDEC
 70
     2
  9
$DIMTDEC
 70
     2
  9
$DIMALTU
 70
     2
  9
$DIMALTTD
 70
     3
  9
$DIMTXSTY
  7
STANDARD
  9
$DIMAUNIT
 70
     0
  9
$LUNITS
 70
     2
  9
$LUPREC
 70
     4
  9
$SKETCHINC
 40
1.0
  9
$FILLETRAD
 40
10.0
  9
$AUNITS
 70
     0
  9
$AUPREC
 70
     0
  9
$MENU
  1
.
  9
$ELEVATION
 40
0.0
  9
$PELEVATION
 40
0.0
  9
$THICKNESS
 40
0.0
  9
$LIMCHECK
 70
     0
  9
$CHAMFERA
 40
10.0
  9
$CHAMFERB
 40
10.0
  9
$CHAMFERC
 40
20.0
  9
$CHAMFERD
 40
0.0
  9
$SKPOLY
 70
     0
  9
$TDCREATE
 40
2460361.602692049
  9
$TDUPDATE
 40
2460361.602692292
  9
$TDINDWG
 40
0.0000000116
  9
$TDUSRTIMER
 40
0.0000000116
  9
$USRTIMER
 70
     1
  9
$ANGBASE
 50
0.0
  9
$ANGDIR
 70
     0
  9
$PDMODE
 70
     0
  9
$PDSIZE
 40
0.0
  9
$PLINEWID
 40
0.0
  9
$COORDS
 70
     1
  9
$SPLFRAME
 70
     0
  9
$SPLINETYPE
 70
     6
  9
$SPLINESEGS
 70
     8
  9
$ATTDIA
 70
     0
  9
$ATTREQ
 70
     1
  9
$HANDLING
 70
     1
  9
$HANDSEED
  5
5C5
  9
$SURFTAB1
 70
     6
  9
$SURFTAB2
 70
     6
  9
$SURFTYPE
 70
     6
  9
$SURFU
 70
     6
  9
$SURFV
 70
     6
  9
$UCSNAME
  2

  9
$UCSORG
 10
0.0
 20
0.0
 30
0.0
  9
$UCSXDIR
 10
1.0
 20
0.0
 30
0.0
  9
$UCSYDIR
 10
0.0
 20
1.0
 30
0.0
  9
$PUCSNAME
  2

  9
$PUCSORG
 10
0.0
 20
0.0
 30
0.0
  9
$PUCSXDIR
 10
1.0
 20
0.0
 30
0.0
  9
$PUCSYDIR
 10
0.0
 20
1.0
 30
0.0
  9
$USERI1
 70
     0
  9
$USERI2
 70
     0
  9
$USERI3
 70
     0
  9
$USERI4
 70
     0
  9
$USERI5
 70
     0
  9
$USERR1
 40
0.0
  9
$USERR2
 40
0.0
  9
$USERR3
 40
0.0
  9
$USERR4
 40
0.0
  9
$USERR5
 40
0.0
  9
$WORLDVIEW
 70
     1
  9
$SHADEDGE
 70
     3
  9
$SHADEDIF
 70
    70
  9
$TILEMODE
 70
     1
  9
$MAXACTVP
 70
    64
  9
$PINSBASE
 10
0.0
 20
0.0
 30
0.0
  9
$PLIMCHECK
 70
     0
  9
$PEXTMIN
 10
1.000000000000000E+20
 20
1.000000000000000E+20
 30
1.000000000000000E+20
  9
$PEXTMAX
 10
-1.000000000000000E+20
 20
-1.000000000000000E+20
 30
-1.000000000000000E+20
  9
$PLIMMIN
 10
0.0
 20
0.0
  9
$PLIMMAX
 10
420.0
 20
297.0
  9
$UNITMODE
 70
     0
  9
$VISRETAIN
 70
     1
  9
$PLINEGEN
 70
     0
  9
$PSLTSCALE
 70
     1
  9
$TREEDEPTH
 70
  3020
  9
$PICKSTYLE
 70
     1
  9
$CMLSTYLE
  2
STANDARD
  9
$CMLJUST
 70
     0
  9
$CMLSCALE
 40
20.0
  9
$PROXYGRAPHICS
 70
     1
  9
$MEASUREMENT
 70
     1
  0
ENDSEC
  0
SECTION
  2
CLASSES
  0
CLASS
  1
ACDBDICTIONARYWDFLT
  2
AcDbDictionaryWithDefault
  3
ObjectDBX Classes
 90
        0
280
     0
281
     0
  0
CLASS
  1
VISUALSTYLE
  2
AcDbVisualStyle
  3
ObjectDBX Classes
 90
     4095
280
     0
281
     0
  0
CLASS
  1
MATERIAL
  2
AcDbMaterial
  3
ObjectDBX Classes
 90
     1153
280
     0
281
     0
  0
CLASS
  1
SUN
  2
AcDbSun
  3
SCENEOE
 90
     1024
280
     0
281
     0
  0
CLASS
  1
DICTIONARYVAR
  2
AcDbDictionaryVar
  3
ObjectDBX Classes
 90
        0
280
     0
281
     0
  0
CLASS
  1
XRECORD
  2
AcDbXrecord
  3
AutoCAD 2000
 90
        0
280
     0
281
     0
  0
CLASS
  1
LWPOLYLINE
  2
AcDbPolyline
  3
AutoCAD 2000
 90
        0
280
     0
281
     1
  0
CLASS
  1
HATCH
  2
AcDbHatch
  3
AutoCAD 2000
 90
        0
280
     0
281
     1
  0
CLASS
  1
ACDBPLACEHOLDER
  2
AcDbPlaceHolder
  3
ObjectDBX Classes
 90
        0
280
     0
281
     0
  0
CLASS
  1
LAYOUT
  2
AcDbLayout
  3
ObjectDBX Classes
 90
        0
280
     0
281
     0
  0
ENDSEC
  0
SECTION
  2
TABLES
  0
TABLE
  2
VPORT
  5
8
330
0
100
AcDbSymbolTable
 70
     1
  0
VPORT
  5
29
330
8
100
AcDbSymbolTableRecord
100
AcDbViewportTableRecord
  2
*ACTIVE
 70
     0
 10
0.0
 20
0.0
 11
1.0
 21
1.0
 12
2235.0
 22
1491.540527325
 13
0.0
 23
0.0
 14
10.0
 24
10.0
 15
10.0
 25
10.0
 16
0.0
 26
0.0
 36
1.0
 17
0.0
 27
0.0
 37
0.0
 40
2731.91894535
 41
1.537380897463602
 42
50.0
 43
0.0
 44
0.0
 50
0.0
 51
0.0
 71
     0
 72
  1000
 73
     1
 74
     3
 75
     0
 76
     0
 77
     0
 78
     0
  0
ENDTAB
  0
TABLE
  2
LTYPE
  5
5
330
0
100
AcDbSymbolTable
 70
     7
  0
LTYPE
  5
14
330
5
100
AcDbSymbolTableRecord
100
AcDbLinetypeTableRecord
  2
BYBLOCK
 70
     0
  3

 72
    65
 73
     0
 40
0.0
  0
LTYPE
  5
15
330
5
100
AcDbSymbolTableRecord
100
AcDbLinetypeTableRecord
  2
BYLAYER
 70
     0
  3

 72
    65
 73
     0
 40
0.0
  0
LTYPE
  5
16
330
5
100
AcDbSymbolTableRecord
100
AcDbLinetypeTableRecord
  2
CONTINUOUS
 70
     0
  3
Solid line
 72
    65
 73
     0
 40
0.0
  0
LTYPE
  5
40
330
5
100
AcDbSymbolTableRecord
100
AcDbLinetypeTableRecord
  2
EXLTYPE1
 70
     0
  3
破線
 72
    65
 73
     2
 40
3.0
 49
2.0
 74
     0
 49
-1.0
 74
     0
  0
LTYPE
  5
41
330
5
100
AcDbSymbolTableRecord
100
AcDbLinetypeTableRecord
  2
EXLTYPE2
 70
     0
  3
点線
 72
    65
 73
     2
 40
2.0
 49
1.0
 74
     0
 49
-1.0
 74
     0
  0
LTYPE
  5
42
330
5
100
AcDbSymbolTableRecord
100
AcDbLinetypeTableRecord
  2
EXLTYPE3
 70
     0
  3
一点鎖線
 72
    65
 73
     4
 40
10.0
 49
7.000000000000001
 74
     0
 49
-1.0
 74
     0
 49
1.0
 74
     0
 49
-1.0
 74
     0
  0
LTYPE
  5
43
330
5
100
AcDbSymbolTableRecord
100
AcDbLinetypeTableRecord
  2
EXLTYPE4
 70
     0
  3
二点鎖線
 72
    65
 73
     6
 40
12.0
 49
7.000000000000001
 74
     0
 49
-1.0
 74
     0
 49
1.0
 74
     0
 49
-1.0
 74
     0
 49
1.0
 74
     0
 49
-1.0
 74
     0
  0
LTYPE
  5
44
330
5
100
AcDbSymbolTableRecord
100
AcDbLinetypeTableRecord
  2
EXLTYPE5
 70
     0
  3
三点鎖線
 72
    65
 73
     8
 40
37.0
 49
30.0
 74
     0
 49
-1.0
 74
     0
 49
1.0
 74
     0
 49
-1.0
 74
     0
 49
1.0
 74
     0
 49
-1.0
 74
     0
 49
1.0
 74
     0
 49
-1.0
 74
     0
  0
LTYPE
  5
45
330
5
100
AcDbSymbolTableRecord
100
AcDbLinetypeTableRecord
  2
EXLTYPE6
 70
     0
  3
四点鎖線
 72
    65
 73
    10
 40
39.0
 49
30.0
 74
     0
 49
-1.0
 74
     0
 49
1.0
 74
     0
 49
-1.0
 74
     0
 49
1.0
 74
     0
 49
-1.0
 74
     0
 49
1.0
 74
     0
 49
-1.0
 74
     0
 49
1.0
 74
     0
 49
-1.0
 74
     0
  0
ENDTAB
  0
TABLE
  2
LAYER
  5
2
330
0
100
AcDbSymbolTable
 70
     8
  0
LAYER
  5
10
330
2
100
AcDbSymbolTableRecord
100
AcDbLayerTableRecord
  2
0
 70
     0
 62
     7
  6
CONTINUOUS
  0
LAYER
  5
48
330
2
100
AcDbSymbolTableRecord
100
AcDbLayerTableRecord
  2
枠_表
 70
     0
 62
     7
  6
CONTINUOUS
  0
LAYER
  5
49
330
2
100
AcDbSymbolTableRecord
100
AcDbLayerTableRecord
  2
ｶｳﾝﾀｰ_ｷｬﾋﾞﾈｯﾄ
 70
     0
 62
     7
  6
CONTINUOUS
  0
LAYER
  5
4A
330
2
100
AcDbSymbolTableRecord
100
AcDbLayerTableRecord
  2
給水栓
 70
     0
 62
     7
  6
CONTINUOUS
  0
LAYER
  5
4B
330
2
100
AcDbSymbolTableRecord
100
AcDbLayerTableRecord
  2
止水栓
 70
     0
 62
     7
  6
CONTINUOUS
  0
LAYER
  5
4C
330
2
100
AcDbSymbolTableRecord
100
AcDbLayerTableRecord
  2
排水器具
 70
     0
 62
     7
  6
CONTINUOUS
  0
LAYER
  5
4D
330
2
100
AcDbSymbolTableRecord
100
AcDbLayerTableRecord
  2
寸法
 70
     0
 62
     7
  6
CONTINUOUS
  0
LAYER
  5
444
330
2
100
AcDbSymbolTableRecord
100
AcDbLayerTableRecord
  2
DEFPOINTS
 70
     0
 62
     7
  6
CONTINUOUS
  0
ENDTAB
  0
TABLE
  2
STYLE
  5
3
330
0
100
AcDbSymbolTable
 70
     5
  0
STYLE
  5
11
330
3
100
AcDbSymbolTableRecord
100
AcDbTextStyleTableRecord
  2
STANDARD
 70
     0
 40
0.0
 41
1.0
 50
0.0
 71
     0
 42
2.5
  3
monotxt
  4
extfont
  0
STYLE
  5
46
330
3
100
AcDbSymbolTableRecord
100
AcDbTextStyleTableRecord
  2
EXCADSTD
 70
     0
 40
0.0
 41
1.0
 50
0.0
 71
     0
 42
0.2
  3
monotxt
  4
extfont
  0
STYLE
  5
47
330
3
100
AcDbSymbolTableRecord
100
AcDbTextStyleTableRecord
  2
EXCADVERT
 70
     4
 40
0.0
 41
1.0
 50
0.0
 71
     0
 42
0.286885
  3
monotxt
  4
extfont
  0
STYLE
  5
C6
330
3
100
AcDbSymbolTableRecord
100
AcDbTextStyleTableRecord
  2
EXCADTTF1
 70
     0
 40
0.0
 41
1.0
 50
0.0
 71
     0
 42
0.2
  3
MSGOTHIC.TTC
  4

1001
ACAD
1000
MS Gothic
1071
    32817
  0
STYLE
  5
442
330
3
100
AcDbSymbolTableRecord
100
AcDbTextStyleTableRecord
  2
EXCADDIM1
 70
     0
 40
0.0
 41
0.84
 50
0.0
 71
     0
 42
0.2
  3
monotxt
  4
extfont
  0
ENDTAB
  0
TABLE
  2
VIEW
  5
6
330
0
100
AcDbSymbolTable
 70
     0
  0
ENDTAB
  0
TABLE
  2
UCS
  5
7
330
0
100
AcDbSymbolTable
 70
     0
  0
ENDTAB
  0
TABLE
  2
APPID
  5
9
330
0
100
AcDbSymbolTable
 70
     1
  0
APPID
  5
12
330
9
100
AcDbSymbolTableRecord
100
AcDbRegAppTableRecord
  2
ACAD
 70
     0
  0
ENDTAB
  0
TABLE
  2
DIMSTYLE
  5
A
330
0
100
AcDbSymbolTable
 70
     1
  0
DIMSTYLE
105
27
102
{ACAD_REACTORS
330
443
330
45D
330
46B
330
477
330
484
330
491
330
49E
330
4AD
330
4BA
330
4C6
330
4D5
330
4E1
330
4EE
330
4FB
330
508
330
51B
330
527
330
533
330
540
330
54D
330
55C
330
569
330
58C
102
}
330
A
100
AcDbSymbolTableRecord
100
AcDbDimStyleTableRecord
  2
ISO-25
 70
     0
  3

  4

  5

  6

  7

 40
1.0
 41
2.5
 42
0.625
 43
3.75
 44
1.25
 45
0.0
 46
0.0
 47
0.0
 48
0.0
140
2.5
141
2.5
142
0.0
143
0.03937007874016
144
1.0
145
0.0
146
1.0
147
0.625
 71
     0
 72
     0
 73
     0
 74
     0
 75
     0
 76
     0
 77
     1
 78
     8
170
     0
171
     3
172
     1
173
     0
174
     0
175
     0
176
     0
177
     0
178
     0
270
     2
271
     2
272
     2
273
     2
274
     3
340
11
275
     0
280
     0
281
     0
282
     0
283
     0
284
     8
285
     0
286
     0
287
     5
288
     0
  0
ENDTAB
  0
TABLE
  2
BLOCK_RECORD
  5
1
330
0
100
AcDbSymbolTable
 70
    38
  0
BLOCK_RECORD
  5
1F
330
1
100
AcDbSymbolTableRecord
100
AcDbBlockTableRecord
  2
*MODEL_SPACE
  0
BLOCK_RECORD
  5
1B
330
1
100
AcDbSymbolTableRecord
100
AcDbBlockTableRecord
  2
*PAPER_SPACE
  0
BLOCK_RECORD
  5
4E
330
1
100
AcDbSymbolTableRecord
100
AcDbBlockTableRecord
  2
EX_NORM
  0
BLOCK_RECORD
  5
51
330
1
100
AcDbSymbolTableRecord
100
AcDbBlockTableRecord
  2
EX_BNORM
  0
BLOCK_RECORD
  5
54
330
1
100
AcDbSymbolTableRecord
100
AcDbBlockTableRecord
  2
EX_BCIR
  0
BLOCK_RECORD
  5
57
330
1
100
AcDbSymbolTableRecord
100
AcDbBlockTableRecord
  2
EX_RCIVIL
  0
BLOCK_RECORD
  5
5A
330
1
100
AcDbSymbolTableRecord
100
AcDbBlockTableRecord
  2
EX_SLANT
  0
BLOCK_RECORD
  5
5D
330
1
100
AcDbSymbolTableRecord
100
AcDbBlockTableRecord
  2
EX_NONE
  0
BLOCK_RECORD
  5
60
330
1
100
AcDbSymbolTableRecord
100
AcDbBlockTableRecord
  2
EX_CIVIL
  0
BLOCK_RECORD
  5
63
330
1
100
AcDbSymbolTableRecord
100
AcDbBlockTableRecord
  2
EX_WCIR
  0
BLOCK_RECORD
  5
66
330
1
100
AcDbSymbolTableRecord
100
AcDbBlockTableRecord
  2
EX_WCIR2
  0
BLOCK_RECORD
  5
69
330
1
100
AcDbSymbolTableRecord
100
AcDbBlockTableRecord
  2
EX_WNORM
  0
BLOCK_RECORD
  5
6C
330
1
100
AcDbSymbolTableRecord
100
AcDbBlockTableRecord
  2
EX_NNORM
  0
BLOCK_RECORD
  5
6F
330
1
100
AcDbSymbolTableRecord
100
AcDbBlockTableRecord
  2
EX_BBOX
  0
BLOCK_RECORD
  5
72
330
1
100
AcDbSymbolTableRecord
100
AcDbBlockTableRecord
  2
EX_WBOX
  0
BLOCK_RECORD
  5
75
330
1
100
AcDbSymbolTableRecord
100
AcDbBlockTableRecord
  2
EX_INTEGRAL
  0
BLOCK_RECORD
  5
445
330
1
100
AcDbSymbolTableRecord
100
AcDbBlockTableRecord
  2
*D15
  0
BLOCK_RECORD
  5
45E
330
1
100
AcDbSymbolTableRecord
100
AcDbBlockTableRecord
  2
*D16
  0
BLOCK_RECORD
  5
46C
330
1
100
AcDbSymbolTableRecord
100
AcDbBlockTableRecord
  2
*D17
  0
BLOCK_RECORD
  5
478
330
1
100
AcDbSymbolTableRecord
100
AcDbBlockTableRecord
  2
*D18
  0
BLOCK_RECORD
  5
485
330
1
100
AcDbSymbolTableRecord
100
AcDbBlockTableRecord
  2
*D19
  0
BLOCK_RECORD
  5
492
330
1
100
AcDbSymbolTableRecord
100
AcDbBlockTableRecord
  2
*D20
  0
BLOCK_RECORD
  5
49F
330
1
100
AcDbSymbolTableRecord
100
AcDbBlockTableRecord
  2
*D21
  0
BLOCK_RECORD
  5
4AE
330
1
100
AcDbSymbolTableRecord
100
AcDbBlockTableRecord
  2
*D22
  0
BLOCK_RECORD
  5
4BB
330
1
100
AcDbSymbolTableRecord
100
AcDbBlockTableRecord
  2
*D23
  0
BLOCK_RECORD
  5
4C7
330
1
100
AcDbSymbolTableRecord
100
AcDbBlockTableRecord
  2
*D24
  0
BLOCK_RECORD
  5
4D6
330
1
100
AcDbSymbolTableRecord
100
AcDbBlockTableRecord
  2
*D25
  0
BLOCK_RECORD
  5
4E2
330
1
100
AcDbSymbolTableRecord
100
AcDbBlockTableRecord
  2
*D26
  0
BLOCK_RECORD
  5
4EF
330
1
100
AcDbSymbolTableRecord
100
AcDbBlockTableRecord
  2
*D27
  0
BLOCK_RECORD
  5
4FC
330
1
100
AcDbSymbolTableRecord
100
AcDbBlockTableRecord
  2
*D28
  0
BLOCK_RECORD
  5
509
330
1
100
AcDbSymbolTableRecord
100
AcDbBlockTableRecord
  2
*D29
  0
BLOCK_RECORD
  5
51C
330
1
100
AcDbSymbolTableRecord
100
AcDbBlockTableRecord
  2
*D30
  0
BLOCK_RECORD
  5
528
330
1
100
AcDbSymbolTableRecord
100
AcDbBlockTableRecord
  2
*D31
  0
BLOCK_RECORD
  5
534
330
1
100
AcDbSymbolTableRecord
100
AcDbBlockTableRecord
  2
*D32
  0
BLOCK_RECORD
  5
541
330
1
100
AcDbSymbolTableRecord
100
AcDbBlockTableRecord
  2
*D33
  0
BLOCK_RECORD
  5
54E
330
1
100
AcDbSymbolTableRecord
100
AcDbBlockTableRecord
  2
*D34
  0
BLOCK_RECORD
  5
55D
330
1
100
AcDbSymbolTableRecord
100
AcDbBlockTableRecord
  2
*D35
  0
BLOCK_RECORD
  5
56A
330
1
100
AcDbSymbolTableRecord
100
AcDbBlockTableRecord
  2
*D36
  0
BLOCK_RECORD
  5
58D
330
1
100
AcDbSymbolTableRecord
100
AcDbBlockTableRecord
  2
*D37
  0
ENDTAB
  0
ENDSEC
  0
SECTION
  2
BLOCKS
  0
BLOCK
  5
20
330
1F
100
AcDbEntity
  8
0
100
AcDbBlockBegin
  2
*MODEL_SPACE
 70
     0
 10
0.0
 20
0.0
 30
0.0
  3
*MODEL_SPACE
  1

  0
ENDBLK
  5
21
330
1F
100
AcDbEntity
  8
0
100
AcDbBlockEnd
  0
BLOCK
  5
1C
330
1B
100
AcDbEntity
 67
     1
  8
0
100
AcDbBlockBegin
  2
*PAPER_SPACE
 70
     0
 10
0.0
 20
0.0
 30
0.0
  3
*PAPER_SPACE
  1

  0
ENDBLK
  5
1D
330
1B
100
AcDbEntity
 67
     1
  8
0
100
AcDbBlockEnd
  0
BLOCK
  5
4F
330
4E
100
AcDbEntity
  8
0
100
AcDbBlockBegin
  2
EX_NORM
 70
     0
 10
0.0
 20
0.0
 30
0.0
  3
EX_NORM
  1

  0
LINE
  5
78
330
4E
100
AcDbEntity
  8
0
  6
CONTINUOUS
 62
     0
100
AcDbLine
 10
0.0
 20
0.0
 30
0.0
 11
-1.0
 21
0.0
 31
0.0
  0
LINE
  5
79
330
4E
100
AcDbEntity
  8
0
  6
CONTINUOUS
 62
     0
100
AcDbLine
 10
0.0
 20
0.0
 30
0.0
 11
-1.0
 21
0.166666667
 31
0.0
  0
LINE
  5
7A
330
4E
100
AcDbEntity
  8
0
  6
CONTINUOUS
 62
     0
100
AcDbLine
 10
0.0
 20
0.0
 30
0.0
 11
-1.0
 21
-0.166666667
 31
0.0
  0
ENDBLK
  5
50
330
4E
100
AcDbEntity
  8
0
100
AcDbBlockEnd
  0
BLOCK
  5
52
330
51
100
AcDbEntity
  8
0
100
AcDbBlockBegin
  2
EX_BNORM
 70
     0
 10
0.0
 20
0.0
 30
0.0
  3
EX_BNORM
  1

  0
LINE
  5
7B
330
51
100
AcDbEntity
  8
0
  6
CONTINUOUS
 62
     0
100
AcDbLine
 10
0.0
 20
0.0
 30
0.0
 11
-1.0
 21
0.0
 31
0.0
  0
LINE
  5
7C
330
51
100
AcDbEntity
  8
0
  6
CONTINUOUS
 62
     0
100
AcDbLine
 10
0.0
 20
0.0
 30
0.0
 11
-1.0
 21
0.166666667
 31
0.0
  0
LINE
  5
7D
330
51
100
AcDbEntity
  8
0
  6
CONTINUOUS
 62
     0
100
AcDbLine
 10
0.0
 20
0.0
 30
0.0
 11
-1.0
 21
-0.166666667
 31
0.0
  0
LINE
  5
7E
330
51
100
AcDbEntity
  8
0
  6
CONTINUOUS
 62
     0
100
AcDbLine
 10
0.0
 20
0.0
 30
0.0
 11
-1.0
 21
0.083333333
 31
0.0
  0
LINE
  5
7F
330
51
100
AcDbEntity
  8
0
  6
CONTINUOUS
 62
     0
100
AcDbLine
 10
0.0
 20
0.0
 30
0.0
 11
-1.0
 21
-0.083333333
 31
0.0
  0
LINE
  5
80
330
51
100
AcDbEntity
  8
0
  6
CONTINUOUS
 62
     0
100
AcDbLine
 10
-1.0
 20
0.166666667
 30
0.0
 11
-1.0
 21
-0.166666667
 31
0.0
  0
ENDBLK
  5
53
330
51
100
AcDbEntity
  8
0
100
AcDbBlockEnd
  0
BLOCK
  5
55
330
54
100
AcDbEntity
  8
0
100
AcDbBlockBegin
  2
EX_BCIR
 70
     0
 10
0.0
 20
0.0
 30
0.0
  3
EX_BCIR
  1

  0
LINE
  5
81
330
54
100
AcDbEntity
  8
0
  6
CONTINUOUS
 62
     0
100
AcDbLine
 10
0.0
 20
0.0
 30
0.0
 11
-1.0
 21
0.0
 31
0.0
  0
CIRCLE
  5
82
330
54
100
AcDbEntity
  8
0
  6
CONTINUOUS
 62
     0
100
AcDbCircle
 10
0.0
 20
0.0
 30
0.0
 40
0.5
  0
CIRCLE
  5
83
330
54
100
AcDbEntity
  8
0
  6
CONTINUOUS
 62
     0
100
AcDbCircle
 10
0.0
 20
0.0
 30
0.0
 40
0.25
  0
ENDBLK
  5
56
330
54
100
AcDbEntity
  8
0
100
AcDbBlockEnd
  0
BLOCK
  5
58
330
57
100
AcDbEntity
  8
0
100
AcDbBlockBegin
  2
EX_RCIVIL
 70
     0
 10
0.0
 20
0.0
 30
0.0
  3
EX_RCIVIL
  1

  0
LINE
  5
84
330
57
100
AcDbEntity
  8
0
  6
CONTINUOUS
 62
     0
100
AcDbLine
 10
0.0
 20
0.0
 30
0.0
 11
-1.0
 21
0.0
 31
0.0
  0
LINE
  5
85
330
57
100
AcDbEntity
  8
0
  6
CONTINUOUS
 62
     0
100
AcDbLine
 10
-1.0
 20
-0.25
 30
0.0
 11
0.0
 21
-0.25
 31
0.0
  0
LINE
  5
86
330
57
100
AcDbEntity
  8
0
  6
CONTINUOUS
 62
     0
100
AcDbLine
 10
-1.0
 20
-0.125
 30
0.0
 11
0.0
 21
-0.125
 31
0.0
  0
ENDBLK
  5
59
330
57
100
AcDbEntity
  8
0
100
AcDbBlockEnd
  0
BLOCK
  5
5B
330
5A
100
AcDbEntity
  8
0
100
AcDbBlockBegin
  2
EX_SLANT
 70
     0
 10
0.0
 20
0.0
 30
0.0
  3
EX_SLANT
  1

  0
LINE
  5
87
330
5A
100
AcDbEntity
  8
0
  6
CONTINUOUS
 62
     0
100
AcDbLine
 10
0.0
 20
0.0
 30
0.0
 11
-1.0
 21
0.0
 31
0.0
  0
LINE
  5
88
330
5A
100
AcDbEntity
  8
0
  6
CONTINUOUS
 62
     0
100
AcDbLine
 10
0.707106781
 20
0.707106781
 30
0.0
 11
-0.707106781
 21
-0.707106781
 31
0.0
  0
ENDBLK
  5
5C
330
5A
100
AcDbEntity
  8
0
100
AcDbBlockEnd
  0
BLOCK
  5
5E
330
5D
100
AcDbEntity
  8
0
100
AcDbBlockBegin
  2
EX_NONE
 70
     0
 10
0.0
 20
0.0
 30
0.0
  3
EX_NONE
  1

  0
LINE
  5
89
330
5D
100
AcDbEntity
  8
0
  6
CONTINUOUS
 62
     0
100
AcDbLine
 10
0.0
 20
0.0
 30
0.0
 11
-1.0
 21
0.0
 31
0.0
  0
ENDBLK
  5
5F
330
5D
100
AcDbEntity
  8
0
100
AcDbBlockEnd
  0
BLOCK
  5
61
330
60
100
AcDbEntity
  8
0
100
AcDbBlockBegin
  2
EX_CIVIL
 70
     0
 10
0.0
 20
0.0
 30
0.0
  3
EX_CIVIL
  1

  0
LINE
  5
8A
330
60
100
AcDbEntity
  8
0
  6
CONTINUOUS
 62
     0
100
AcDbLine
 10
0.0
 20
0.0
 30
0.0
 11
-1.0
 21
0.0
 31
0.0
  0
LINE
  5
8B
330
60
100
AcDbEntity
  8
0
  6
CONTINUOUS
 62
     0
100
AcDbLine
 10
-1.0
 20
0.25
 30
0.0
 11
0.0
 21
0.25
 31
0.0
  0
LINE
  5
8C
330
60
100
AcDbEntity
  8
0
  6
CONTINUOUS
 62
     0
100
AcDbLine
 10
-1.0
 20
0.125
 30
0.0
 11
0.0
 21
0.125
 31
0.0
  0
ENDBLK
  5
62
330
60
100
AcDbEntity
  8
0
100
AcDbBlockEnd
  0
BLOCK
  5
64
330
63
100
AcDbEntity
  8
0
100
AcDbBlockBegin
  2
EX_WCIR
 70
     0
 10
0.0
 20
0.0
 30
0.0
  3
EX_WCIR
  1

  0
LINE
  5
8D
330
63
100
AcDbEntity
  8
0
  6
CONTINUOUS
 62
     0
100
AcDbLine
 10
0.0
 20
0.0
 30
0.0
 11
-1.0
 21
0.0
 31
0.0
  0
CIRCLE
  5
8E
330
63
100
AcDbEntity
  8
0
  6
CONTINUOUS
 62
     0
100
AcDbCircle
 10
0.0
 20
0.0
 30
0.0
 40
0.5
  0
ENDBLK
  5
65
330
63
100
AcDbEntity
  8
0
100
AcDbBlockEnd
  0
BLOCK
  5
67
330
66
100
AcDbEntity
  8
0
100
AcDbBlockBegin
  2
EX_WCIR2
 70
     0
 10
0.0
 20
0.0
 30
0.0
  3
EX_WCIR2
  1

  0
LINE
  5
8F
330
66
100
AcDbEntity
  8
0
  6
CONTINUOUS
 62
     0
100
AcDbLine
 10
-0.5
 20
0.0
 30
0.0
 11
-1.0
 21
0.0
 31
0.0
  0
CIRCLE
  5
90
330
66
100
AcDbEntity
  8
0
  6
CONTINUOUS
 62
     0
100
AcDbCircle
 10
0.0
 20
0.0
 30
0.0
 40
0.5
  0
ENDBLK
  5
68
330
66
100
AcDbEntity
  8
0
100
AcDbBlockEnd
  0
BLOCK
  5
6A
330
69
100
AcDbEntity
  8
0
100
AcDbBlockBegin
  2
EX_WNORM
 70
     0
 10
0.0
 20
0.0
 30
0.0
  3
EX_WNORM
  1

  0
LINE
  5
91
330
69
100
AcDbEntity
  8
0
  6
CONTINUOUS
 62
     0
100
AcDbLine
 10
-1.0
 20
0.0
 30
0.0
 11
-1.0
 21
0.0
 31
0.0
  0
LINE
  5
92
330
69
100
AcDbEntity
  8
0
  6
CONTINUOUS
 62
     0
100
AcDbLine
 10
0.0
 20
0.0
 30
0.0
 11
-1.0
 21
0.166666667
 31
0.0
  0
LINE
  5
93
330
69
100
AcDbEntity
  8
0
  6
CONTINUOUS
 62
     0
100
AcDbLine
 10
0.0
 20
0.0
 30
0.0
 11
-1.0
 21
-0.166666667
 31
0.0
  0
LINE
  5
94
330
69
100
AcDbEntity
  8
0
  6
CONTINUOUS
 62
     0
100
AcDbLine
 10
-1.0
 20
0.166666667
 30
0.0
 11
-1.0
 21
-0.166666667
 31
0.0
  0
ENDBLK
  5
6B
330
69
100
AcDbEntity
  8
0
100
AcDbBlockEnd
  0
BLOCK
  5
6D
330
6C
100
AcDbEntity
  8
0
100
AcDbBlockBegin
  2
EX_NNORM
 70
     0
 10
0.0
 20
0.0
 30
0.0
  3
EX_NNORM
  1

  0
LINE
  5
95
330
6C
100
AcDbEntity
  8
0
  6
CONTINUOUS
 62
     0
100
AcDbLine
 10
0.0
 20
0.0
 30
0.0
 11
-1.0
 21
0.0
 31
0.0
  0
LINE
  5
96
330
6C
100
AcDbEntity
  8
0
  6
CONTINUOUS
 62
     0
100
AcDbLine
 10
0.0
 20
0.0
 30
0.0
 11
-1.0
 21
0.166666667
 31
0.0
  0
LINE
  5
97
330
6C
100
AcDbEntity
  8
0
  6
CONTINUOUS
 62
     0
100
AcDbLine
 10
0.0
 20
0.0
 30
0.0
 11
-1.0
 21
-0.166666667
 31
0.0
  0
LINE
  5
98
330
6C
100
AcDbEntity
  8
0
  6
CONTINUOUS
 62
     0
100
AcDbLine
 10
-1.0
 20
0.166666667
 30
0.0
 11
-1.0
 21
-0.166666667
 31
0.0
  0
ENDBLK
  5
6E
330
6C
100
AcDbEntity
  8
0
100
AcDbBlockEnd
  0
BLOCK
  5
70
330
6F
100
AcDbEntity
  8
0
100
AcDbBlockBegin
  2
EX_BBOX
 70
     0
 10
0.0
 20
0.0
 30
0.0
  3
EX_BBOX
  1

  0
LINE
  5
99
330
6F
100
AcDbEntity
  8
0
  6
CONTINUOUS
 62
     0
100
AcDbLine
 10
0.0
 20
0.0
 30
0.0
 11
-1.0
 21
0.0
 31
0.0
  0
LINE
  5
9A
330
6F
100
AcDbEntity
  8
0
  6
CONTINUOUS
 62
     0
100
AcDbLine
 10
-0.5
 20
0.5
 30
0.0
 11
0.5
 21
0.5
 31
0.0
  0
LINE
  5
9B
330
6F
100
AcDbEntity
  8
0
  6
CONTINUOUS
 62
     0
100
AcDbLine
 10
0.5
 20
0.5
 30
0.0
 11
0.5
 21
-0.5
 31
0.0
  0
LINE
  5
9C
330
6F
100
AcDbEntity
  8
0
  6
CONTINUOUS
 62
     0
100
AcDbLine
 10
0.5
 20
-0.5
 30
0.0
 11
-0.5
 21
-0.5
 31
0.0
  0
LINE
  5
9D
330
6F
100
AcDbEntity
  8
0
  6
CONTINUOUS
 62
     0
100
AcDbLine
 10
-0.5
 20
-0.5
 30
0.0
 11
-0.5
 21
0.5
 31
0.0
  0
LINE
  5
9E
330
6F
100
AcDbEntity
  8
0
  6
CONTINUOUS
 62
     0
100
AcDbLine
 10
-0.25
 20
0.25
 30
0.0
 11
0.25
 21
0.25
 31
0.0
  0
LINE
  5
9F
330
6F
100
AcDbEntity
  8
0
  6
CONTINUOUS
 62
     0
100
AcDbLine
 10
0.25
 20
0.25
 30
0.0
 11
0.25
 21
-0.25
 31
0.0
  0
LINE
  5
A0
330
6F
100
AcDbEntity
  8
0
  6
CONTINUOUS
 62
     0
100
AcDbLine
 10
0.25
 20
-0.25
 30
0.0
 11
-0.25
 21
-0.25
 31
0.0
  0
LINE
  5
A1
330
6F
100
AcDbEntity
  8
0
  6
CONTINUOUS
 62
     0
100
AcDbLine
 10
-0.25
 20
-0.25
 30
0.0
 11
-0.25
 21
0.25
 31
0.0
  0
ENDBLK
  5
71
330
6F
100
AcDbEntity
  8
0
100
AcDbBlockEnd
  0
BLOCK
  5
73
330
72
100
AcDbEntity
  8
0
100
AcDbBlockBegin
  2
EX_WBOX
 70
     0
 10
0.0
 20
0.0
 30
0.0
  3
EX_WBOX
  1

  0
LINE
  5
A2
330
72
100
AcDbEntity
  8
0
  6
CONTINUOUS
 62
     0
100
AcDbLine
 10
-0.5
 20
0.0
 30
0.0
 11
-1.0
 21
0.0
 31
0.0
  0
LINE
  5
A3
330
72
100
AcDbEntity
  8
0
  6
CONTINUOUS
 62
     0
100
AcDbLine
 10
-0.5
 20
0.5
 30
0.0
 11
0.5
 21
0.5
 31
0.0
  0
LINE
  5
A4
330
72
100
AcDbEntity
  8
0
  6
CONTINUOUS
 62
     0
100
AcDbLine
 10
0.5
 20
0.5
 30
0.0
 11
0.5
 21
-0.5
 31
0.0
  0
LINE
  5
A5
330
72
100
AcDbEntity
  8
0
  6
CONTINUOUS
 62
     0
100
AcDbLine
 10
0.5
 20
-0.5
 30
0.0
 11
-0.5
 21
-0.5
 31
0.0
  0
LINE
  5
A6
330
72
100
AcDbEntity
  8
0
  6
CONTINUOUS
 62
     0
100
AcDbLine
 10
-0.5
 20
-0.5
 30
0.0
 11
-0.5
 21
0.5
 31
0.0
  0
ENDBLK
  5
74
330
72
100
AcDbEntity
  8
0
100
AcDbBlockEnd
  0
BLOCK
  5
76
330
75
100
AcDbEntity
  8
0
100
AcDbBlockBegin
  2
EX_INTEGRAL
 70
     0
 10
0.0
 20
0.0
 30
0.0
  3
EX_INTEGRAL
  1

  0
LINE
  5
A7
330
75
100
AcDbEntity
  8
0
  6
CONTINUOUS
 62
     0
100
AcDbLine
 10
0.0
 20
0.0
 30
0.0
 11
-1.0
 21
0.0
 31
0.0
  0
ARC
  5
A8
330
75
100
AcDbEntity
  8
0
  6
CONTINUOUS
 62
     0
100
AcDbCircle
 10
0.542115
 20
0.164992
 30
0.0
 40
0.56667
100
AcDbArc
 50
73.07249033629006
 51
196.9275130221199
  0
ARC
  5
A9
330
75
100
AcDbEntity
  8
0
  6
CONTINUOUS
 62
     0
100
AcDbCircle
 10
-0.542115
 20
-0.164992
 30
0.0
 40
0.56667
100
AcDbArc
 50
253.0724869220464
 51
16.9275130559125
  0
ENDBLK
  5
77
330
75
100
AcDbEntity
  8
0
100
AcDbBlockEnd
  0
BLOCK
  5
446
330
445
100
AcDbEntity
  8
0
100
AcDbBlockBegin
  2
*D15
 70
     1
 10
0.0
 20
0.0
 30
0.0
  3
*D15
  1

  0
LINE
  5
448
330
445
100
AcDbEntity
  8
ｶｳﾝﾀｰ_ｷｬﾋﾞﾈｯﾄ
  6
CONTINUOUS
 62
     3
100
AcDbLine
 10
717.0000000000005
 20
2116.000000178814
 30
0.0
 11
717.0000000000005
 21
1947.000000000001
 31
0.0
  0
LINE
  5
449
330
445
100
AcDbEntity
  8
ｶｳﾝﾀｰ_ｷｬﾋﾞﾈｯﾄ
  6
CONTINUOUS
 62
     3
100
AcDbLine
 10
672.0000038146977
 20
1962.000000000001
 30
0.0
 11
596.9999961853033
 21
1962.000000000001
 31
0.0
  0
INSERT
  5
44A
330
445
100
AcDbEntity
  8
ｶｳﾝﾀｰ_ｷｬﾋﾞﾈｯﾄ
 62
     3
100
AcDbBlockReference
  2
EX_NORM
 10
717.0000000000005
 20
1962.000000000001
 30
0.0
 41
44.99999618530273
 42
44.99999618530273
 43
44.99999618530273
  0
INSERT
  5
44B
330
445
100
AcDbEntity
  8
ｶｳﾝﾀｰ_ｷｬﾋﾞﾈｯﾄ
 62
     3
100
AcDbBlockReference
  2
EX_NORM
 10
552.0000000000006
 20
1962.000000000001
 30
0.0
 41
44.99999618530273
 42
44.99999618530273
 43
44.99999618530273
 50
180.0
  0
MTEXT
  5
44C
330
445
100
AcDbEntity
  8
ｶｳﾝﾀｰ_ｷｬﾋﾞﾈｯﾄ
 62
     2
100
AcDbMText
 10
882.0000000000011
 20
1997.249999910594
 30
0.0
 40
59.99999618530273
 41
0.0
 71
     5
 72
     1
  1
排水管出代
  7
EXCADDIM1
  0
POINT
  5
44D
330
445
100
AcDbEntity
  8
DEFPOINTS
 62
     0
100
AcDbPoint
 10
717.0000000000005
 20
2126.5
 30
0.0
  0
POINT
  5
44E
330
445
100
AcDbEntity
  8
DEFPOINTS
 62
     0
100
AcDbPoint
 10
552.0000000000006
 20
2138.0
 30
0.0
  0
POINT
  5
44F
330
445
100
AcDbEntity
  8
DEFPOINTS
 62
     0
100
AcDbPoint
 10
552.0000000000006
 20
1962.000000000001
 30
0.0
  0
ENDBLK
  5
447
330
445
100
AcDbEntity
  8
0
100
AcDbBlockEnd
  0
BLOCK
  5
45F
330
45E
100
AcDbEntity
  8
0
100
AcDbBlockBegin
  2
*D16
 70
     1
 10
0.0
 20
0.0
 30
0.0
  3
*D16
  1

  0
LINE
  5
461
330
45E
100
AcDbEntity
  8
寸法
  6
CONTINUOUS
 62
     3
100
AcDbLine
 10
1190.0
 20
2172.000000178814
 30
0.0
 11
1190.0
 21
2066.0
 31
0.0
  0
LINE
  5
462
330
45E
100
AcDbEntity
  8
寸法
  6
CONTINUOUS
 62
     3
100
AcDbLine
 10
1140.0
 20
2081.0
 30
0.0
 11
1190.0
 21
2081.0
 31
0.0
  0
LINE
  5
463
330
45E
100
AcDbEntity
  8
寸法
  6
CONTINUOUS
 62
     3
100
AcDbLine
 10
1095.000003814697
 20
2081.0
 30
0.0
 11
1050.000007629395
 21
2081.0
 31
0.0
  0
LINE
  5
464
330
45E
100
AcDbEntity
  8
寸法
  6
CONTINUOUS
 62
     3
100
AcDbLine
 10
1234.999996185303
 20
2081.0
 30
0.0
 11
1279.999992370605
 21
2081.0
 31
0.0
  0
INSERT
  5
465
330
45E
100
AcDbEntity
  8
寸法
 62
     3
100
AcDbBlockReference
  2
EX_NORM
 10
1140.0
 20
2081.0
 30
0.0
 41
44.99999618530273
 42
44.99999618530273
 43
44.99999618530273
  0
INSERT
  5
466
330
45E
100
AcDbEntity
  8
寸法
 62
     3
100
AcDbBlockReference
  2
EX_NORM
 10
1190.0
 20
2081.0
 30
0.0
 41
44.99999618530273
 42
44.99999618530273
 43
44.99999618530273
 50
180.0
  0
MTEXT
  5
467
330
45E
100
AcDbEntity
  8
寸法
 62
     2
100
AcDbMText
 10
1042.5
 20
2116.249999910593
 30
0.0
 40
59.99999618530273
 41
0.0
 71
     5
 72
     1
  1
50
  7
EXCADDIM1
  0
POINT
  5
468
330
45E
100
AcDbEntity
  8
DEFPOINTS
 62
     0
100
AcDbPoint
 10
1140.0
 20
2379.5
 30
0.0
  0
POINT
  5
469
330
45E
100
AcDbEntity
  8
DEFPOINTS
 62
     0
100
AcDbPoint
 10
1190.0
 20
2182.5
 30
0.0
  0
POINT
  5
46A
330
45E
100
AcDbEntity
  8
DEFPOINTS
 62
     0
100
AcDbPoint
 10
1190.0
 20
2081.0
 30
0.0
  0
ENDBLK
  5
460
330
45E
100
AcDbEntity
  8
0
100
AcDbBlockEnd
  0
BLOCK
  5
46D
330
46C
100
AcDbEntity
  8
0
100
AcDbBlockBegin
  2
*D17
 70
     1
 10
0.0
 20
0.0
 30
0.0
  3
*D17
  1

  0
LINE
  5
46F
330
46C
100
AcDbEntity
  8
寸法
  6
CONTINUOUS
 62
     3
100
AcDbLine
 10
1235.0
 20
1989.000000178814
 30
0.0
 11
1235.0
 21
1766.0
 31
0.0
  0
LINE
  5
470
330
46C
100
AcDbEntity
  8
寸法
  6
CONTINUOUS
 62
     3
100
AcDbLine
 10
1184.999996185303
 20
1781.0
 30
0.0
 11
1190.000003814697
 21
1781.0
 31
0.0
  0
INSERT
  5
471
330
46C
100
AcDbEntity
  8
寸法
 62
     3
100
AcDbBlockReference
  2
EX_NORM
 10
1140.0
 20
1781.0
 30
0.0
 41
44.99999618530273
 42
44.99999618530273
 43
44.99999618530273
 50
180.0
  0
INSERT
  5
472
330
46C
100
AcDbEntity
  8
寸法
 62
     3
100
AcDbBlockReference
  2
EX_NORM
 10
1235.0
 20
1781.0
 30
0.0
 41
44.99999618530273
 42
44.99999618530273
 43
44.99999618530273
  0
MTEXT
  5
473
330
46C
100
AcDbEntity
  8
寸法
 62
     2
100
AcDbMText
 10
1467.5
 20
1816.249999910593
 30
0.0
 40
59.99999618530273
 41
0.0
 71
     5
 72
     1
  1
（85～190）
  7
EXCADDIM1
  0
POINT
  5
474
330
46C
100
AcDbEntity
  8
DEFPOINTS
 62
     0
100
AcDbPoint
 10
1140.0
 20
2081.0
 30
0.0
  0
POINT
  5
475
330
46C
100
AcDbEntity
  8
DEFPOINTS
 62
     0
100
AcDbPoint
 10
1235.0
 20
1999.5
 30
0.0
  0
POINT
  5
476
330
46C
100
AcDbEntity
  8
DEFPOINTS
 62
     0
100
AcDbPoint
 10
1235.0
 20
1781.0
 30
0.0
  0
ENDBLK
  5
46E
330
46C
100
AcDbEntity
  8
0
100
AcDbBlockEnd
  0
BLOCK
  5
479
330
478
100
AcDbEntity
  8
0
100
AcDbBlockBegin
  2
*D18
 70
     1
 10
0.0
 20
0.0
 30
0.0
  3
*D18
  1

  0
LINE
  5
47B
330
478
100
AcDbEntity
  8
寸法
  6
CONTINUOUS
 62
     3
100
AcDbLine
 10
1235.0
 20
1989.000000178814
 30
0.0
 11
1235.0
 21
1676.0
 31
0.0
  0
LINE
  5
47C
330
478
100
AcDbEntity
  8
寸法
  6
CONTINUOUS
 62
     3
100
AcDbLine
 10
1864.9999999999
 20
2172.000000178814
 30
0.0
 11
1864.9999999999
 21
1676.0
 31
0.0
  0
LINE
  5
47D
330
478
100
AcDbEntity
  8
寸法
  6
CONTINUOUS
 62
     3
100
AcDbLine
 10
1279.999996185303
 20
1691.0
 30
0.0
 11
1820.000003814597
 21
1691.0
 31
0.0
  0
INSERT
  5
47E
330
478
100
AcDbEntity
  8
寸法
 62
     3
100
AcDbBlockReference
  2
EX_NORM
 10
1235.0
 20
1691.0
 30
0.0
 41
44.99999618530273
 42
44.99999618530273
 43
44.99999618530273
 50
180.0
  0
INSERT
  5
47F
330
478
100
AcDbEntity
  8
寸法
 62
     3
100
AcDbBlockReference
  2
EX_NORM
 10
1864.9999999999
 20
1691.0
 30
0.0
 41
44.99999618530273
 42
44.99999618530273
 43
44.99999618530273
  0
MTEXT
  5
480
330
478
100
AcDbEntity
  8
寸法
 62
     2
100
AcDbMText
 10
1549.99999999995
 20
1726.249999910593
 30
0.0
 40
59.99999618530273
 41
0.0
 71
     5
 72
     1
  1
（630）
  7
EXCADDIM1
  0
POINT
  5
481
330
478
100
AcDbEntity
  8
DEFPOINTS
 62
     0
100
AcDbPoint
 10
1235.0
 20
1999.5
 30
0.0
  0
POINT
  5
482
330
478
100
AcDbEntity
  8
DEFPOINTS
 62
     0
100
AcDbPoint
 10
1864.9999999999
 20
2182.5
 30
0.0
  0
POINT
  5
483
330
478
100
AcDbEntity
  8
DEFPOINTS
 62
     0
100
AcDbPoint
 10
1864.9999999999
 20
1691.0
 30
0.0
  0
ENDBLK
  5
47A
330
478
100
AcDbEntity
  8
0
100
AcDbBlockEnd
  0
BLOCK
  5
486
330
485
100
AcDbEntity
  8
0
100
AcDbBlockBegin
  2
*D19
 70
     1
 10
0.0
 20
0.0
 30
0.0
  3
*D19
  1

  0
LINE
  5
488
330
485
100
AcDbEntity
  8
寸法
  6
CONTINUOUS
 62
     3
100
AcDbLine
 10
2477.5
 20
2390.117584265614
 30
0.0
 11
2477.5
 21
2244.5
 31
0.0
  0
LINE
  5
489
330
485
100
AcDbEntity
  8
寸法
  6
CONTINUOUS
 62
     3
100
AcDbLine
 10
2832.5
 20
2390.117584265614
 30
0.0
 11
2832.5
 21
2244.5
 31
0.0
  0
LINE
  5
48A
330
485
100
AcDbEntity
  8
寸法
  6
CONTINUOUS
 62
     3
100
AcDbLine
 10
2522.499996185303
 20
2259.5
 30
0.0
 11
2787.500003814697
 21
2259.5
 31
0.0
  0
INSERT
  5
48B
330
485
100
AcDbEntity
  8
寸法
 62
     3
100
AcDbBlockReference
  2
EX_NORM
 10
2477.5
 20
2259.5
 30
0.0
 41
44.99999618530273
 42
44.99999618530273
 43
44.99999618530273
 50
180.0
  0
INSERT
  5
48C
330
485
100
AcDbEntity
  8
寸法
 62
     3
100
AcDbBlockReference
  2
EX_NORM
 10
2832.5
 20
2259.5
 30
0.0
 41
44.99999618530273
 42
44.99999618530273
 43
44.99999618530273
  0
MTEXT
  5
48D
330
485
100
AcDbEntity
  8
寸法
 62
     2
100
AcDbMText
 10
2655.0
 20
2294.749999910593
 30
0.0
 40
59.99999618530273
 41
0.0
 71
     5
 72
     1
  1
355
  7
EXCADDIM1
  0
POINT
  5
48E
330
485
100
AcDbEntity
  8
DEFPOINTS
 62
     0
100
AcDbPoint
 10
2477.5
 20
2400.6175840868
 30
0.0
  0
POINT
  5
48F
330
485
100
AcDbEntity
  8
DEFPOINTS
 62
     0
100
AcDbPoint
 10
2832.5
 20
2400.6175840868
 30
0.0
  0
POINT
  5
490
330
485
100
AcDbEntity
  8
DEFPOINTS
 62
     0
100
AcDbPoint
 10
2832.5
 20
2259.5
 30
0.0
  0
ENDBLK
  5
487
330
485
100
AcDbEntity
  8
0
100
AcDbBlockEnd
  0
BLOCK
  5
493
330
492
100
AcDbEntity
  8
0
100
AcDbBlockBegin
  2
*D20
 70
     1
 10
0.0
 20
0.0
 30
0.0
  3
*D20
  1

  0
LINE
  5
495
330
492
100
AcDbEntity
  8
寸法
  6
CONTINUOUS
 62
     3
100
AcDbLine
 10
1140.0
 20
2582.999999821186
 30
0.0
 11
1140.0
 21
2708.0
 31
0.0
  0
LINE
  5
496
330
492
100
AcDbEntity
  8
寸法
  6
CONTINUOUS
 62
     3
100
AcDbLine
 10
2832.5
 20
2582.999999821186
 30
0.0
 11
2832.5
 21
2708.0
 31
0.0
  0
LINE
  5
497
330
492
100
AcDbEntity
  8
寸法
  6
CONTINUOUS
 62
     3
100
AcDbLine
 10
1184.999996185303
 20
2693.0
 30
0.0
 11
2787.500003814697
 21
2693.0
 31
0.0
  0
INSERT
  5
498
330
492
100
AcDbEntity
  8
寸法
 62
     3
100
AcDbBlockReference
  2
EX_NORM
 10
1140.0
 20
2693.0
 30
0.0
 41
44.99999618530273
 42
44.99999618530273
 43
44.99999618530273
 50
180.0
  0
INSERT
  5
499
330
492
100
AcDbEntity
  8
寸法
 62
     3
100
AcDbBlockReference
  2
EX_NORM
 10
2832.5
 20
2693.0
 30
0.0
 41
44.99999618530273
 42
44.99999618530273
 43
44.99999618530273
  0
MTEXT
  5
49A
330
492
100
AcDbEntity
  8
寸法
 62
     2
100
AcDbMText
 10
1986.25
 20
2728.249999910593
 30
0.0
 40
59.99999618530273
 41
0.0
 71
     5
 72
     1
  1
最長1690
  7
EXCADDIM1
  0
POINT
  5
49B
330
492
100
AcDbEntity
  8
DEFPOINTS
 62
     0
100
AcDbPoint
 10
1140.0
 20
2572.5
 30
0.0
  0
POINT
  5
49C
330
492
100
AcDbEntity
  8
DEFPOINTS
 62
     0
100
AcDbPoint
 10
2832.5
 20
2572.5
 30
0.0
  0
POINT
  5
49D
330
492
100
AcDbEntity
  8
DEFPOINTS
 62
     0
100
AcDbPoint
 10
2832.5
 20
2693.0
 30
0.0
  0
ENDBLK
  5
494
330
492
100
AcDbEntity
  8
0
100
AcDbBlockEnd
  0
BLOCK
  5
4A0
330
49F
100
AcDbEntity
  8
0
100
AcDbBlockBegin
  2
*D21
 70
     1
 10
0.0
 20
0.0
 30
0.0
  3
*D21
  1

  0
LINE
  5
4A2
330
49F
100
AcDbEntity
  8
寸法
  6
CONTINUOUS
 62
     3
100
AcDbLine
 10
1129.500000178814
 20
2504.5
 30
0.0
 11
1024.499999999999
 21
2504.5
 31
0.0
  0
LINE
  5
4A3
330
49F
100
AcDbEntity
  8
寸法
  6
CONTINUOUS
 62
     3
100
AcDbLine
 10
1129.500000178814
 20
2572.5
 30
0.0
 11
1024.499999999999
 21
2572.5
 31
0.0
  0
LINE
  5
4A4
330
49F
100
AcDbEntity
  8
寸法
  6
CONTINUOUS
 62
     3
100
AcDbLine
 10
1039.499999999999
 20
2504.5
 30
0.0
 11
1039.499999999999
 21
2572.5
 31
0.0
  0
LINE
  5
4A5
330
49F
100
AcDbEntity
  8
寸法
  6
CONTINUOUS
 62
     3
100
AcDbLine
 10
1039.499999999999
 20
2459.500003814697
 30
0.0
 11
1039.499999999999
 21
2414.500007629395
 31
0.0
  0
LINE
  5
4A6
330
49F
100
AcDbEntity
  8
寸法
  6
CONTINUOUS
 62
     3
100
AcDbLine
 10
1039.499999999999
 20
2617.499996185303
 30
0.0
 11
1039.499999999999
 21
2662.499992370605
 31
0.0
  0
INSERT
  5
4A7
330
49F
100
AcDbEntity
  8
寸法
 62
     3
100
AcDbBlockReference
  2
EX_NORM
 10
1039.499999999999
 20
2504.5
 30
0.0
 41
44.99999618530273
 42
44.99999618530273
 43
44.99999618530273
 50
90.0
  0
INSERT
  5
4A8
330
49F
100
AcDbEntity
  8
寸法
 62
     3
100
AcDbBlockReference
  2
EX_NORM
 10
1039.499999999999
 20
2572.5
 30
0.0
 41
44.99999618530273
 42
44.99999618530273
 43
44.99999618530273
 50
270.0
  0
MTEXT
  5
4A9
330
49F
100
AcDbEntity
  8
寸法
 62
     2
100
AcDbMText
 10
1004.250000089405
 20
2670.0
 30
0.0
 40
59.99999618530273
 41
0.0
 71
     5
 72
     1
  1
68
  7
EXCADDIM1
 11
0.0
 21
1.0
 31
0.0
  0
POINT
  5
4AA
330
49F
100
AcDbEntity
  8
DEFPOINTS
 62
     0
100
AcDbPoint
 10
1140.0
 20
2504.5
 30
0.0
  0
POINT
  5
4AB
330
49F
100
AcDbEntity
  8
DEFPOINTS
 62
     0
100
AcDbPoint
 10
1140.0
 20
2572.5
 30
0.0
  0
POINT
  5
4AC
330
49F
100
AcDbEntity
  8
DEFPOINTS
 62
     0
100
AcDbPoint
 10
1039.499999999999
 20
2572.5
 30
0.0
  0
ENDBLK
  5
4A1
330
49F
100
AcDbEntity
  8
0
100
AcDbBlockEnd
  0
BLOCK
  5
4AF
330
4AE
100
AcDbEntity
  8
0
100
AcDbBlockBegin
  2
*D22
 70
     1
 10
0.0
 20
0.0
 30
0.0
  3
*D22
  1

  0
LINE
  5
4B1
330
4AE
100
AcDbEntity
  8
寸法
  6
CONTINUOUS
 62
     3
100
AcDbLine
 10
1179.500000178814
 20
2182.5
 30
0.0
 11
934.4999999999997
 21
2182.5
 31
0.0
  0
LINE
  5
4B2
330
4AE
100
AcDbEntity
  8
寸法
  6
CONTINUOUS
 62
     3
100
AcDbLine
 10
1129.500000178814
 20
2572.5
 30
0.0
 11
934.4999999999997
 21
2572.5
 31
0.0
  0
LINE
  5
4B3
330
4AE
100
AcDbEntity
  8
寸法
  6
CONTINUOUS
 62
     3
100
AcDbLine
 10
949.5000000000001
 20
2227.499996185303
 30
0.0
 11
949.5000000000001
 21
2527.500003814697
 31
0.0
  0
INSERT
  5
4B4
330
4AE
100
AcDbEntity
  8
寸法
 62
     3
100
AcDbBlockReference
  2
EX_NORM
 10
949.5000000000001
 20
2182.5
 30
0.0
 41
44.99999618530273
 42
44.99999618530273
 43
44.99999618530273
 50
270.0
  0
INSERT
  5
4B5
330
4AE
100
AcDbEntity
  8
寸法
 62
     3
100
AcDbBlockReference
  2
EX_NORM
 10
949.5000000000001
 20
2572.5
 30
0.0
 41
44.99999618530273
 42
44.99999618530273
 43
44.99999618530273
 50
90.0
  0
MTEXT
  5
4B6
330
4AE
100
AcDbEntity
  8
寸法
 62
     2
100
AcDbMText
 10
914.2500000894072
 20
2377.499999999999
 30
0.0
 40
59.99999618530273
 41
0.0
 71
     5
 72
     1
  1
375～530
  7
EXCADDIM1
 11
0.0
 21
1.0
 31
0.0
  0
POINT
  5
4B7
330
4AE
100
AcDbEntity
  8
DEFPOINTS
 62
     0
100
AcDbPoint
 10
1190.0
 20
2182.5
 30
0.0
  0
POINT
  5
4B8
330
4AE
100
AcDbEntity
  8
DEFPOINTS
 62
     0
100
AcDbPoint
 10
1140.0
 20
2572.5
 30
0.0
  0
POINT
  5
4B9
330
4AE
100
AcDbEntity
  8
DEFPOINTS
 62
     0
100
AcDbPoint
 10
949.5000000000001
 20
2572.5
 30
0.0
  0
ENDBLK
  5
4B0
330
4AE
100
AcDbEntity
  8
0
100
AcDbBlockEnd
  0
BLOCK
  5
4BC
330
4BB
100
AcDbEntity
  8
0
100
AcDbBlockBegin
  2
*D23
 70
     1
 10
0.0
 20
0.0
 30
0.0
  3
*D23
  1

  0
LINE
  5
4BE
330
4BB
100
AcDbEntity
  8
寸法
  6
CONTINUOUS
 62
     3
100
AcDbLine
 10
2665.499999821186
 20
2377.5
 30
0.0
 11
2965.5
 21
2377.5
 31
0.0
  0
LINE
  5
4BF
330
4BB
100
AcDbEntity
  8
寸法
  6
CONTINUOUS
 62
     3
100
AcDbLine
 10
2950.5
 20
2422.499996185303
 30
0.0
 11
2950.5
 21
2527.500003814697
 31
0.0
  0
INSERT
  5
4C0
330
4BB
100
AcDbEntity
  8
寸法
 62
     3
100
AcDbBlockReference
  2
EX_NORM
 10
2950.5
 20
2377.5
 30
0.0
 41
44.99999618530273
 42
44.99999618530273
 43
44.99999618530273
 50
270.0
  0
INSERT
  5
4C1
330
4BB
100
AcDbEntity
  8
寸法
 62
     3
100
AcDbBlockReference
  2
EX_NORM
 10
2950.5
 20
2572.5
 30
0.0
 41
44.99999618530273
 42
44.99999618530273
 43
44.99999618530273
 50
90.0
  0
MTEXT
  5
4C2
330
4BB
100
AcDbEntity
  8
寸法
 62
     2
100
AcDbMText
 10
2915.250000089407
 20
2474.999999999999
 30
0.0
 40
59.99999618530273
 41
0.0
 71
     5
 72
     1
  1
195
  7
EXCADDIM1
 11
0.0
 21
1.0
 31
0.0
  0
POINT
  5
4C3
330
4BB
100
AcDbEntity
  8
DEFPOINTS
 62
     0
100
AcDbPoint
 10
2655.0
 20
2377.5
 30
0.0
  0
POINT
  5
4C4
330
4BB
100
AcDbEntity
  8
DEFPOINTS
 62
     0
100
AcDbPoint
 10
2832.5
 20
2572.5
 30
0.0
  0
POINT
  5
4C5
330
4BB
100
AcDbEntity
  8
DEFPOINTS
 62
     0
100
AcDbPoint
 10
2950.5
 20
2572.5
 30
0.0
  0
ENDBLK
  5
4BD
330
4BB
100
AcDbEntity
  8
0
100
AcDbBlockEnd
  0
BLOCK
  5
4C8
330
4C7
100
AcDbEntity
  8
0
100
AcDbBlockBegin
  2
*D24
 70
     1
 10
0.0
 20
0.0
 30
0.0
  3
*D24
  1

  0
LINE
  5
4CA
330
4C7
100
AcDbEntity
  8
寸法
  6
CONTINUOUS
 62
     3
100
AcDbLine
 10
1324.499999821186
 20
859.5
 30
0.0
 11
1401.0
 21
859.5
 31
0.0
  0
LINE
  5
4CB
330
4C7
100
AcDbEntity
  8
寸法
  6
CONTINUOUS
 62
     3
100
AcDbLine
 10
1324.499999821186
 20
891.5
 30
0.0
 11
1401.0
 21
891.5
 31
0.0
  0
LINE
  5
4CC
330
4C7
100
AcDbEntity
  8
寸法
  6
CONTINUOUS
 62
     3
100
AcDbLine
 10
1386.0
 20
859.5
 30
0.0
 11
1386.0
 21
891.5
 31
0.0
  0
LINE
  5
4CD
330
4C7
100
AcDbEntity
  8
寸法
  6
CONTINUOUS
 62
     3
100
AcDbLine
 10
1386.0
 20
814.5000038146973
 30
0.0
 11
1386.0
 21
769.5000076293945
 31
0.0
  0
LINE
  5
4CE
330
4C7
100
AcDbEntity
  8
寸法
  6
CONTINUOUS
 62
     3
100
AcDbLine
 10
1386.0
 20
936.4999961853027
 30
0.0
 11
1386.0
 21
981.4999923706055
 31
0.0
  0
INSERT
  5
4CF
330
4C7
100
AcDbEntity
  8
寸法
 62
     3
100
AcDbBlockReference
  2
EX_NORM
 10
1386.0
 20
859.5
 30
0.0
 41
44.99999618530273
 42
44.99999618530273
 43
44.99999618530273
 50
90.0
  0
INSERT
  5
4D0
330
4C7
100
AcDbEntity
  8
寸法
 62
     3
100
AcDbBlockReference
  2
EX_NORM
 10
1386.0
 20
891.5
 30
0.0
 41
44.99999618530273
 42
44.99999618530273
 43
44.99999618530273
 50
270.0
  0
MTEXT
  5
4D1
330
4C7
100
AcDbEntity
  8
寸法
 62
     2
100
AcDbMText
 10
1350.750000089407
 20
739.4999999999956
 30
0.0
 40
59.99999618530273
 41
0.0
 71
     5
 72
     1
  1
%%c32
  7
EXCADDIM1
 11
0.0
 21
1.0
 31
0.0
  0
POINT
  5
4D2
330
4C7
100
AcDbEntity
  8
DEFPOINTS
 62
     0
100
AcDbPoint
 10
1314.0
 20
859.5
 30
0.0
  0
POINT
  5
4D3
330
4C7
100
AcDbEntity
  8
DEFPOINTS
 62
     0
100
AcDbPoint
 10
1314.0
 20
891.5
 30
0.0
  0
POINT
  5
4D4
330
4C7
100
AcDbEntity
  8
DEFPOINTS
 62
     0
100
AcDbPoint
 10
1386.0
 20
891.5
 30
0.0
  0
ENDBLK
  5
4C9
330
4C7
100
AcDbEntity
  8
0
100
AcDbBlockEnd
  0
BLOCK
  5
4D7
330
4D6
100
AcDbEntity
  8
0
100
AcDbBlockBegin
  2
*D25
 70
     1
 10
0.0
 20
0.0
 30
0.0
  3
*D25
  1

  0
LINE
  5
4D9
330
4D6
100
AcDbEntity
  8
寸法
  6
CONTINUOUS
 62
     3
100
AcDbLine
 10
1324.499999821186
 20
875.5
 30
0.0
 11
1491.0
 21
875.5
 31
0.0
  0
LINE
  5
4DA
330
4D6
100
AcDbEntity
  8
寸法
  6
CONTINUOUS
 62
     3
100
AcDbLine
 10
1476.0
 20
617.4999961853027
 30
0.0
 11
1476.0
 21
830.5000038146973
 31
0.0
  0
INSERT
  5
4DB
330
4D6
100
AcDbEntity
  8
寸法
 62
     3
100
AcDbBlockReference
  2
EX_NORM
 10
1476.0
 20
572.5
 30
0.0
 41
44.99999618530273
 42
44.99999618530273
 43
44.99999618530273
 50
270.0
  0
INSERT
  5
4DC
330
4D6
100
AcDbEntity
  8
寸法
 62
     3
100
AcDbBlockReference
  2
EX_NORM
 10
1476.0
 20
875.5
 30
0.0
 41
44.99999618530273
 42
44.99999618530273
 43
44.99999618530273
 50
90.0
  0
MTEXT
  5
4DD
330
4D6
100
AcDbEntity
  8
寸法
 62
     2
100
AcDbMText
 10
1440.750000089407
 20
723.999999999998
 30
0.0
 40
59.99999618530273
 41
0.0
 71
     5
 72
     1
  1
303
  7
EXCADDIM1
 11
0.0
 21
1.0
 31
0.0
  0
POINT
  5
4DE
330
4D6
100
AcDbEntity
  8
DEFPOINTS
 62
     0
100
AcDbPoint
 10
1140.0
 20
572.5
 30
0.0
  0
POINT
  5
4DF
330
4D6
100
AcDbEntity
  8
DEFPOINTS
 62
     0
100
AcDbPoint
 10
1314.0
 20
875.5
 30
0.0
  0
POINT
  5
4E0
330
4D6
100
AcDbEntity
  8
DEFPOINTS
 62
     0
100
AcDbPoint
 10
1476.0
 20
875.5
 30
0.0
  0
ENDBLK
  5
4D8
330
4D6
100
AcDbEntity
  8
0
100
AcDbBlockEnd
  0
BLOCK
  5
4E3
330
4E2
100
AcDbEntity
  8
0
100
AcDbBlockBegin
  2
*D26
 70
     1
 10
0.0
 20
0.0
 30
0.0
  3
*D26
  1

  0
LINE
  5
4E5
330
4E2
100
AcDbEntity
  8
寸法
  6
CONTINUOUS
 62
     3
100
AcDbLine
 10
1129.500000178814
 20
957.5
 30
0.0
 11
973.5000000000001
 21
957.5000000000001
 31
0.0
  0
LINE
  5
4E6
330
4E2
100
AcDbEntity
  8
寸法
  6
CONTINUOUS
 62
     3
100
AcDbLine
 10
1129.500000178814
 20
1067.5
 30
0.0
 11
973.5000000000001
 21
1067.5
 31
0.0
  0
LINE
  5
4E7
330
4E2
100
AcDbEntity
  8
寸法
  6
CONTINUOUS
 62
     3
100
AcDbLine
 10
988.5000000000001
 20
1002.499996185303
 30
0.0
 11
988.5000000000001
 21
1022.500003814697
 31
0.0
  0
INSERT
  5
4E8
330
4E2
100
AcDbEntity
  8
寸法
 62
     3
100
AcDbBlockReference
  2
EX_NORM
 10
988.5000000000001
 20
957.5000000000001
 30
0.0
 41
44.99999618530273
 42
44.99999618530273
 43
44.99999618530273
 50
270.0
  0
INSERT
  5
4E9
330
4E2
100
AcDbEntity
  8
寸法
 62
     3
100
AcDbBlockReference
  2
EX_NORM
 10
988.5000000000001
 20
1067.5
 30
0.0
 41
44.99999618530273
 42
44.99999618530273
 43
44.99999618530273
 50
90.0
  0
MTEXT
  5
4EA
330
4E2
100
AcDbEntity
  8
寸法
 62
     2
100
AcDbMText
 10
953.2500000894073
 20
837.4999999999983
 30
0.0
 40
59.99999618530273
 41
0.0
 71
     5
 72
     1
  1
110
  7
EXCADDIM1
 11
0.0
 21
1.0
 31
0.0
  0
POINT
  5
4EB
330
4E2
100
AcDbEntity
  8
DEFPOINTS
 62
     0
100
AcDbPoint
 10
1140.0
 20
957.5
 30
0.0
  0
POINT
  5
4EC
330
4E2
100
AcDbEntity
  8
DEFPOINTS
 62
     0
100
AcDbPoint
 10
1140.0
 20
1067.5
 30
0.0
  0
POINT
  5
4ED
330
4E2
100
AcDbEntity
  8
DEFPOINTS
 62
     0
100
AcDbPoint
 10
988.5000000000001
 20
1067.5
 30
0.0
  0
ENDBLK
  5
4E4
330
4E2
100
AcDbEntity
  8
0
100
AcDbBlockEnd
  0
BLOCK
  5
4F0
330
4EF
100
AcDbEntity
  8
0
100
AcDbBlockBegin
  2
*D27
 70
     1
 10
0.0
 20
0.0
 30
0.0
  3
*D27
  1

  0
LINE
  5
4F2
330
4EF
100
AcDbEntity
  8
寸法
  6
CONTINUOUS
 62
     3
100
AcDbLine
 10
1129.500000178814
 20
572.5
 30
0.0
 11
883.5
 21
572.5000000000001
 31
0.0
  0
LINE
  5
4F3
330
4EF
100
AcDbEntity
  8
寸法
  6
CONTINUOUS
 62
     3
100
AcDbLine
 10
1129.500000178814
 20
1067.5
 30
0.0
 11
883.5
 21
1067.5
 31
0.0
  0
LINE
  5
4F4
330
4EF
100
AcDbEntity
  8
寸法
  6
CONTINUOUS
 62
     3
100
AcDbLine
 10
898.5
 20
617.4999961853028
 30
0.0
 11
898.5
 21
1022.500003814697
 31
0.0
  0
INSERT
  5
4F5
330
4EF
100
AcDbEntity
  8
寸法
 62
     3
100
AcDbBlockReference
  2
EX_NORM
 10
898.5
 20
572.5000000000001
 30
0.0
 41
44.99999618530273
 42
44.99999618530273
 43
44.99999618530273
 50
270.0
  0
INSERT
  5
4F6
330
4EF
100
AcDbEntity
  8
寸法
 62
     3
100
AcDbBlockReference
  2
EX_NORM
 10
898.5
 20
1067.5
 30
0.0
 41
44.99999618530273
 42
44.99999618530273
 43
44.99999618530273
 50
90.0
  0
MTEXT
  5
4F7
330
4EF
100
AcDbEntity
  8
寸法
 62
     2
100
AcDbMText
 10
863.250000089407
 20
819.9999999999993
 30
0.0
 40
59.99999618530273
 41
0.0
 71
     5
 72
     1
  1
495
  7
EXCADDIM1
 11
0.0
 21
1.0
 31
0.0
  0
POINT
  5
4F8
330
4EF
100
AcDbEntity
  8
DEFPOINTS
 62
     0
100
AcDbPoint
 10
1140.0
 20
572.5
 30
0.0
  0
POINT
  5
4F9
330
4EF
100
AcDbEntity
  8
DEFPOINTS
 62
     0
100
AcDbPoint
 10
1140.0
 20
1067.5
 30
0.0
  0
POINT
  5
4FA
330
4EF
100
AcDbEntity
  8
DEFPOINTS
 62
     0
100
AcDbPoint
 10
898.5
 20
1067.5
 30
0.0
  0
ENDBLK
  5
4F1
330
4EF
100
AcDbEntity
  8
0
100
AcDbBlockEnd
  0
BLOCK
  5
4FD
330
4FC
100
AcDbEntity
  8
0
100
AcDbBlockBegin
  2
*D28
 70
     1
 10
0.0
 20
0.0
 30
0.0
  3
*D28
  1

  0
LINE
  5
4FF
330
4FC
100
AcDbEntity
  8
寸法
  6
CONTINUOUS
 62
     3
100
AcDbLine
 10
1140.0
 20
562.0000001788139
 30
0.0
 11
1140.0
 21
339.0
 31
0.0
  0
LINE
  5
500
330
4FC
100
AcDbEntity
  8
寸法
  6
CONTINUOUS
 62
     3
100
AcDbLine
 10
2490.0
 20
562.0000001788139
 30
0.0
 11
2490.0
 21
339.0
 31
0.0
  0
LINE
  5
501
330
4FC
100
AcDbEntity
  8
寸法
  6
CONTINUOUS
 62
     3
100
AcDbLine
 10
1184.999996185303
 20
354.0
 30
0.0
 11
2445.000003814697
 21
354.0
 31
0.0
  0
INSERT
  5
502
330
4FC
100
AcDbEntity
  8
寸法
 62
     3
100
AcDbBlockReference
  2
EX_NORM
 10
1140.0
 20
354.0
 30
0.0
 41
44.99999618530273
 42
44.99999618530273
 43
44.99999618530273
 50
180.0
  0
INSERT
  5
503
330
4FC
100
AcDbEntity
  8
寸法
 62
     3
100
AcDbBlockReference
  2
EX_NORM
 10
2490.0
 20
354.0
 30
0.0
 41
44.99999618530273
 42
44.99999618530273
 43
44.99999618530273
  0
MTEXT
  5
504
330
4FC
100
AcDbEntity
  8
寸法
 62
     2
100
AcDbMText
 10
1815.0
 20
389.249999910593
 30
0.0
 40
59.99999618530273
 41
0.0
 71
     5
 72
     1
  1
最長1350
  7
EXCADDIM1
  0
POINT
  5
505
330
4FC
100
AcDbEntity
  8
DEFPOINTS
 62
     0
100
AcDbPoint
 10
1140.0
 20
572.5
 30
0.0
  0
POINT
  5
506
330
4FC
100
AcDbEntity
  8
DEFPOINTS
 62
     0
100
AcDbPoint
 10
2490.0
 20
572.5
 30
0.0
  0
POINT
  5
507
330
4FC
100
AcDbEntity
  8
DEFPOINTS
 62
     0
100
AcDbPoint
 10
2490.0
 20
354.0
 30
0.0
  0
ENDBLK
  5
4FE
330
4FC
100
AcDbEntity
  8
0
100
AcDbBlockEnd
  0
BLOCK
  5
50A
330
509
100
AcDbEntity
  8
0
100
AcDbBlockBegin
  2
*D29
 70
     1
 10
0.0
 20
0.0
 30
0.0
  3
*D29
  1

  0
LINE
  5
50C
330
509
100
AcDbEntity
  8
寸法
  6
CONTINUOUS
 62
     3
100
AcDbLine
 10
2490.0
 20
562.0000001788139
 30
0.0
 11
2490.0
 21
339.0
 31
0.0
  0
LINE
  5
50D
330
509
100
AcDbEntity
  8
寸法
  6
CONTINUOUS
 62
     3
100
AcDbLine
 10
2820.0
 20
562.0000001788139
 30
0.0
 11
2820.0
 21
339.0
 31
0.0
  0
LINE
  5
50E
330
509
100
AcDbEntity
  8
寸法
  6
CONTINUOUS
 62
     3
100
AcDbLine
 10
2534.999996185303
 20
354.0
 30
0.0
 11
2775.000003814697
 21
354.0
 31
0.0
  0
INSERT
  5
50F
330
509
100
AcDbEntity
  8
寸法
 62
     3
100
AcDbBlockReference
  2
EX_NORM
 10
2490.0
 20
354.0
 30
0.0
 41
44.99999618530273
 42
44.99999618530273
 43
44.99999618530273
 50
180.0
  0
INSERT
  5
510
330
509
100
AcDbEntity
  8
寸法
 62
     3
100
AcDbBlockReference
  2
EX_NORM
 10
2820.0
 20
354.0
 30
0.0
 41
44.99999618530273
 42
44.99999618530273
 43
44.99999618530273
  0
MTEXT
  5
511
330
509
100
AcDbEntity
  8
寸法
 62
     2
100
AcDbMText
 10
2655.0
 20
389.249999910593
 30
0.0
 40
59.99999618530273
 41
0.0
 71
     5
 72
     1
  1
330
  7
EXCADDIM1
  0
POINT
  5
512
330
509
100
AcDbEntity
  8
DEFPOINTS
 62
     0
100
AcDbPoint
 10
2490.0
 20
572.5
 30
0.0
  0
POINT
  5
513
330
509
100
AcDbEntity
  8
DEFPOINTS
 62
     0
100
AcDbPoint
 10
2820.0
 20
572.5
 30
0.0
  0
POINT
  5
514
330
509
100
AcDbEntity
  8
DEFPOINTS
 62
     0
100
AcDbPoint
 10
2820.0
 20
354.0
 30
0.0
  0
ENDBLK
  5
50B
330
509
100
AcDbEntity
  8
0
100
AcDbBlockEnd
  0
BLOCK
  5
51D
330
51C
100
AcDbEntity
  8
0
100
AcDbBlockBegin
  2
*D30
 70
     1
 10
0.0
 20
0.0
 30
0.0
  3
*D30
  1

  0
LINE
  5
51F
330
51C
100
AcDbEntity
  8
寸法
  6
CONTINUOUS
 62
     3
100
AcDbLine
 10
2838.999999821186
 20
1392.5
 30
0.0
 11
2965.5
 21
1392.5
 31
0.0
  0
LINE
  5
520
330
51C
100
AcDbEntity
  8
寸法
  6
CONTINUOUS
 62
     3
100
AcDbLine
 10
2950.5
 20
617.4999961853027
 30
0.0
 11
2950.5
 21
1347.500003814697
 31
0.0
  0
INSERT
  5
521
330
51C
100
AcDbEntity
  8
寸法
 62
     3
100
AcDbBlockReference
  2
EX_NORM
 10
2950.5
 20
572.5
 30
0.0
 41
44.99999618530273
 42
44.99999618530273
 43
44.99999618530273
 50
270.0
  0
INSERT
  5
522
330
51C
100
AcDbEntity
  8
寸法
 62
     3
100
AcDbBlockReference
  2
EX_NORM
 10
2950.5
 20
1392.5
 30
0.0
 41
44.99999618530273
 42
44.99999618530273
 43
44.99999618530273
 50
90.0
  0
MTEXT
  5
523
330
51C
100
AcDbEntity
  8
寸法
 62
     2
100
AcDbMText
 10
2915.250000089407
 20
982.4999999999991
 30
0.0
 40
59.99999618530273
 41
0.0
 71
     5
 72
     1
  1
820
  7
EXCADDIM1
 11
0.0
 21
1.0
 31
0.0
  0
POINT
  5
524
330
51C
100
AcDbEntity
  8
DEFPOINTS
 62
     0
100
AcDbPoint
 10
2820.0
 20
572.5
 30
0.0
  0
POINT
  5
525
330
51C
100
AcDbEntity
  8
DEFPOINTS
 62
     0
100
AcDbPoint
 10
2828.5
 20
1392.5
 30
0.0
  0
POINT
  5
526
330
51C
100
AcDbEntity
  8
DEFPOINTS
 62
     0
100
AcDbPoint
 10
2950.5
 20
1392.5
 30
0.0
  0
ENDBLK
  5
51E
330
51C
100
AcDbEntity
  8
0
100
AcDbBlockEnd
  0
BLOCK
  5
529
330
528
100
AcDbEntity
  8
0
100
AcDbBlockBegin
  2
*D31
 70
     1
 10
0.0
 20
0.0
 30
0.0
  3
*D31
  1

  0
LINE
  5
52B
330
528
100
AcDbEntity
  8
寸法
  6
CONTINUOUS
 62
     3
100
AcDbLine
 10
2837.592718483486
 20
1452.5
 30
0.0
 11
3055.5
 21
1452.5
 31
0.0
  0
LINE
  5
52C
330
528
100
AcDbEntity
  8
寸法
  6
CONTINUOUS
 62
     3
100
AcDbLine
 10
3040.5
 20
617.4999961853027
 30
0.0
 11
3040.5
 21
1407.500003814697
 31
0.0
  0
INSERT
  5
52D
330
528
100
AcDbEntity
  8
寸法
 62
     3
100
AcDbBlockReference
  2
EX_NORM
 10
3040.5
 20
572.5
 30
0.0
 41
44.99999618530273
 42
44.99999618530273
 43
44.99999618530273
 50
270.0
  0
INSERT
  5
52E
330
528
100
AcDbEntity
  8
寸法
 62
     3
100
AcDbBlockReference
  2
EX_NORM
 10
3040.5
 20
1452.5
 30
0.0
 41
44.99999618530273
 42
44.99999618530273
 43
44.99999618530273
 50
90.0
  0
MTEXT
  5
52F
330
528
100
AcDbEntity
  8
寸法
 62
     2
100
AcDbMText
 10
3005.250000089407
 20
1012.499999999999
 30
0.0
 40
59.99999618530273
 41
0.0
 71
     5
 72
     1
  1
880
  7
EXCADDIM1
 11
0.0
 21
1.0
 31
0.0
  0
POINT
  5
530
330
528
100
AcDbEntity
  8
DEFPOINTS
 62
     0
100
AcDbPoint
 10
2820.0
 20
572.5
 30
0.0
  0
POINT
  5
531
330
528
100
AcDbEntity
  8
DEFPOINTS
 62
     0
100
AcDbPoint
 10
2827.0927186623
 20
1452.5
 30
0.0
  0
POINT
  5
532
330
528
100
AcDbEntity
  8
DEFPOINTS
 62
     0
100
AcDbPoint
 10
3040.5
 20
1452.5
 30
0.0
  0
ENDBLK
  5
52A
330
528
100
AcDbEntity
  8
0
100
AcDbBlockEnd
  0
BLOCK
  5
535
330
534
100
AcDbEntity
  8
0
100
AcDbBlockBegin
  2
*D32
 70
     1
 10
0.0
 20
0.0
 30
0.0
  3
*D32
  1

  0
LINE
  5
537
330
534
100
AcDbEntity
  8
寸法
  6
CONTINUOUS
 62
     3
100
AcDbLine
 10
3626.0
 20
682.0000001788139
 30
0.0
 11
3626.0
 21
339.0
 31
0.0
  0
LINE
  5
538
330
534
100
AcDbEntity
  8
寸法
  6
CONTINUOUS
 62
     3
100
AcDbLine
 10
3780.0
 20
562.0000001788139
 30
0.0
 11
3780.0
 21
339.0
 31
0.0
  0
LINE
  5
539
330
534
100
AcDbEntity
  8
寸法
  6
CONTINUOUS
 62
     3
100
AcDbLine
 10
3670.999996185303
 20
354.0
 30
0.0
 11
3735.000003814697
 21
354.0
 31
0.0
  0
INSERT
  5
53A
330
534
100
AcDbEntity
  8
寸法
 62
     3
100
AcDbBlockReference
  2
EX_NORM
 10
3626.0
 20
354.0
 30
0.0
 41
44.99999618530273
 42
44.99999618530273
 43
44.99999618530273
 50
180.0
  0
INSERT
  5
53B
330
534
100
AcDbEntity
  8
寸法
 62
     3
100
AcDbBlockReference
  2
EX_NORM
 10
3780.0
 20
354.0
 30
0.0
 41
44.99999618530273
 42
44.99999618530273
 43
44.99999618530273
  0
MTEXT
  5
53C
330
534
100
AcDbEntity
  8
寸法
 62
     2
100
AcDbMText
 10
3461.0
 20
389.249999910593
 30
0.0
 40
59.99999618530273
 41
0.0
 71
     5
 72
     1
  1
（154）
  7
EXCADDIM1
  0
POINT
  5
53D
330
534
100
AcDbEntity
  8
DEFPOINTS
 62
     0
100
AcDbPoint
 10
3626.0
 20
692.5
 30
0.0
  0
POINT
  5
53E
330
534
100
AcDbEntity
  8
DEFPOINTS
 62
     0
100
AcDbPoint
 10
3780.0
 20
572.5
 30
0.0
  0
POINT
  5
53F
330
534
100
AcDbEntity
  8
DEFPOINTS
 62
     0
100
AcDbPoint
 10
3780.0
 20
354.0
 30
0.0
  0
ENDBLK
  5
536
330
534
100
AcDbEntity
  8
0
100
AcDbBlockEnd
  0
BLOCK
  5
542
330
541
100
AcDbEntity
  8
0
100
AcDbBlockBegin
  2
*D33
 70
     1
 10
0.0
 20
0.0
 30
0.0
  3
*D33
  1

  0
LINE
  5
544
330
541
100
AcDbEntity
  8
寸法
  6
CONTINUOUS
 62
     3
100
AcDbLine
 10
3790.499999821186
 20
572.5
 30
0.0
 11
4003.5
 21
572.5
 31
0.0
  0
LINE
  5
545
330
541
100
AcDbEntity
  8
寸法
  6
CONTINUOUS
 62
     3
100
AcDbLine
 10
3823.999999821086
 20
1047.5
 30
0.0
 11
4003.5
 21
1047.5
 31
0.0
  0
LINE
  5
546
330
541
100
AcDbEntity
  8
寸法
  6
CONTINUOUS
 62
     3
100
AcDbLine
 10
3988.5
 20
617.4999961853027
 30
0.0
 11
3988.5
 21
1002.500003814697
 31
0.0
  0
INSERT
  5
547
330
541
100
AcDbEntity
  8
寸法
 62
     3
100
AcDbBlockReference
  2
EX_NORM
 10
3988.5
 20
572.5
 30
0.0
 41
44.99999618530273
 42
44.99999618530273
 43
44.99999618530273
 50
270.0
  0
INSERT
  5
548
330
541
100
AcDbEntity
  8
寸法
 62
     3
100
AcDbBlockReference
  2
EX_NORM
 10
3988.5
 20
1047.5
 30
0.0
 41
44.99999618530273
 42
44.99999618530273
 43
44.99999618530273
 50
90.0
  0
MTEXT
  5
549
330
541
100
AcDbEntity
  8
寸法
 62
     2
100
AcDbMText
 10
3953.250000089407
 20
809.9999999999987
 30
0.0
 40
59.99999618530273
 41
0.0
 71
     5
 72
     1
  1
475(カバー壁固定)
  7
EXCADDIM1
 11
0.0
 21
1.0
 31
0.0
  0
POINT
  5
54A
330
541
100
AcDbEntity
  8
DEFPOINTS
 62
     0
100
AcDbPoint
 10
3780.0
 20
572.5
 30
0.0
  0
POINT
  5
54B
330
541
100
AcDbEntity
  8
DEFPOINTS
 62
     0
100
AcDbPoint
 10
3813.4999999999
 20
1047.5
 30
0.0
  0
POINT
  5
54C
330
541
100
AcDbEntity
  8
DEFPOINTS
 62
     0
100
AcDbPoint
 10
3988.5
 20
1047.5
 30
0.0
  0
ENDBLK
  5
543
330
541
100
AcDbEntity
  8
0
100
AcDbBlockEnd
  0
BLOCK
  5
54F
330
54E
100
AcDbEntity
  8
0
100
AcDbBlockBegin
  2
*D34
 70
     1
 10
0.0
 20
0.0
 30
0.0
  3
*D34
  1

  0
LINE
  5
551
330
54E
100
AcDbEntity
  8
寸法
  6
CONTINUOUS
 62
     3
100
AcDbLine
 10
3823.999999821086
 20
977.5000000000001
 30
0.0
 11
3913.5
 21
977.5000000000001
 31
0.0
  0
LINE
  5
552
330
54E
100
AcDbEntity
  8
寸法
  6
CONTINUOUS
 62
     3
100
AcDbLine
 10
3823.999999821086
 20
1047.5
 30
0.0
 11
3913.5
 21
1047.5
 31
0.0
  0
LINE
  5
553
330
54E
100
AcDbEntity
  8
寸法
  6
CONTINUOUS
 62
     3
100
AcDbLine
 10
3898.5
 20
977.5000000000001
 30
0.0
 11
3898.5
 21
1047.5
 31
0.0
  0
LINE
  5
554
330
54E
100
AcDbEntity
  8
寸法
  6
CONTINUOUS
 62
     3
100
AcDbLine
 10
3898.5
 20
932.5000038146974
 30
0.0
 11
3898.5
 21
887.5000076293946
 31
0.0
  0
LINE
  5
555
330
54E
100
AcDbEntity
  8
寸法
  6
CONTINUOUS
 62
     3
100
AcDbLine
 10
3898.5
 20
1092.499996185303
 30
0.0
 11
3898.5
 21
1137.499992370605
 31
0.0
  0
INSERT
  5
556
330
54E
100
AcDbEntity
  8
寸法
 62
     3
100
AcDbBlockReference
  2
EX_NORM
 10
3898.5
 20
977.5000000000001
 30
0.0
 41
44.99999618530273
 42
44.99999618530273
 43
44.99999618530273
 50
90.0
  0
INSERT
  5
557
330
54E
100
AcDbEntity
  8
寸法
 62
     3
100
AcDbBlockReference
  2
EX_NORM
 10
3898.5
 20
1047.5
 30
0.0
 41
44.99999618530273
 42
44.99999618530273
 43
44.99999618530273
 50
270.0
  0
MTEXT
  5
558
330
54E
100
AcDbEntity
  8
寸法
 62
     2
100
AcDbMText
 10
3863.250000089407
 20
879.999999999997
 30
0.0
 40
59.99999618530273
 41
0.0
 71
     5
 72
     1
  1
70
  7
EXCADDIM1
 11
0.0
 21
1.0
 31
0.0
  0
POINT
  5
559
330
54E
100
AcDbEntity
  8
DEFPOINTS
 62
     0
100
AcDbPoint
 10
3813.4999999999
 20
977.5000000000001
 30
0.0
  0
POINT
  5
55A
330
54E
100
AcDbEntity
  8
DEFPOINTS
 62
     0
100
AcDbPoint
 10
3813.4999999999
 20
1047.5
 30
0.0
  0
POINT
  5
55B
330
54E
100
AcDbEntity
  8
DEFPOINTS
 62
     0
100
AcDbPoint
 10
3898.5
 20
1047.5
 30
0.0
  0
ENDBLK
  5
550
330
54E
100
AcDbEntity
  8
0
100
AcDbBlockEnd
  0
BLOCK
  5
55E
330
55D
100
AcDbEntity
  8
0
100
AcDbBlockBegin
  2
*D35
 70
     1
 10
0.0
 20
0.0
 30
0.0
  3
*D35
  1

  0
LINE
  5
560
330
55D
100
AcDbEntity
  8
寸法
  6
CONTINUOUS
 62
     3
100
AcDbLine
 10
3790.499999821186
 20
572.5
 30
0.0
 11
4093.5
 21
572.5
 31
0.0
  0
LINE
  5
561
330
55D
100
AcDbEntity
  8
寸法
  6
CONTINUOUS
 62
     3
100
AcDbLine
 10
3823.999999821086
 20
1177.5
 30
0.0
 11
4093.5
 21
1177.5
 31
0.0
  0
LINE
  5
562
330
55D
100
AcDbEntity
  8
寸法
  6
CONTINUOUS
 62
     3
100
AcDbLine
 10
4078.5
 20
617.4999961853027
 30
0.0
 11
4078.5
 21
1132.500003814697
 31
0.0
  0
INSERT
  5
563
330
55D
100
AcDbEntity
  8
寸法
 62
     3
100
AcDbBlockReference
  2
EX_NORM
 10
4078.5
 20
572.5
 30
0.0
 41
44.99999618530273
 42
44.99999618530273
 43
44.99999618530273
 50
270.0
  0
INSERT
  5
564
330
55D
100
AcDbEntity
  8
寸法
 62
     3
100
AcDbBlockReference
  2
EX_NORM
 10
4078.5
 20
1177.5
 30
0.0
 41
44.99999618530273
 42
44.99999618530273
 43
44.99999618530273
 50
90.0
  0
MTEXT
  5
565
330
55D
100
AcDbEntity
  8
寸法
 62
     2
100
AcDbMText
 10
4043.250000089407
 20
874.9999999999989
 30
0.0
 40
59.99999618530273
 41
0.0
 71
     5
 72
     1
  1
605(キャビネット壁固定)
  7
EXCADDIM1
 11
0.0
 21
1.0
 31
0.0
  0
POINT
  5
566
330
55D
100
AcDbEntity
  8
DEFPOINTS
 62
     0
100
AcDbPoint
 10
3780.0
 20
572.5
 30
0.0
  0
POINT
  5
567
330
55D
100
AcDbEntity
  8
DEFPOINTS
 62
     0
100
AcDbPoint
 10
3813.4999999999
 20
1177.5
 30
0.0
  0
POINT
  5
568
330
55D
100
AcDbEntity
  8
DEFPOINTS
 62
     0
100
AcDbPoint
 10
4078.5
 20
1177.5
 30
0.0
  0
ENDBLK
  5
55F
330
55D
100
AcDbEntity
  8
0
100
AcDbBlockEnd
  0
BLOCK
  5
56B
330
56A
100
AcDbEntity
  8
0
100
AcDbBlockBegin
  2
*D36
 70
     1
 10
0.0
 20
0.0
 30
0.0
  3
*D36
  1

  0
LINE
  5
56D
330
56A
100
AcDbEntity
  8
寸法
  6
CONTINUOUS
 62
     3
100
AcDbLine
 10
3790.499999821186
 20
572.5
 30
0.0
 11
4183.5
 21
572.5
 31
0.0
  0
LINE
  5
56E
330
56A
100
AcDbEntity
  8
寸法
  6
CONTINUOUS
 62
     3
100
AcDbLine
 10
3823.999999821086
 20
1427.5
 30
0.0
 11
4183.5
 21
1427.5
 31
0.0
  0
LINE
  5
56F
330
56A
100
AcDbEntity
  8
寸法
  6
CONTINUOUS
 62
     3
100
AcDbLine
 10
4168.5
 20
617.4999961853027
 30
0.0
 11
4168.5
 21
1382.500003814697
 31
0.0
  0
INSERT
  5
570
330
56A
100
AcDbEntity
  8
寸法
 62
     3
100
AcDbBlockReference
  2
EX_NORM
 10
4168.5
 20
572.5
 30
0.0
 41
44.99999618530273
 42
44.99999618530273
 43
44.99999618530273
 50
270.0
  0
INSERT
  5
571
330
56A
100
AcDbEntity
  8
寸法
 62
     3
100
AcDbBlockReference
  2
EX_NORM
 10
4168.5
 20
1427.5
 30
0.0
 41
44.99999618530273
 42
44.99999618530273
 43
44.99999618530273
 50
90.0
  0
MTEXT
  5
572
330
56A
100
AcDbEntity
  8
寸法
 62
     2
100
AcDbMText
 10
4133.250000089407
 20
999.9999999999991
 30
0.0
 40
59.99999618530273
 41
0.0
 71
     5
 72
     1
  1
855（手洗器壁固定）
  7
EXCADDIM1
 11
0.0
 21
1.0
 31
0.0
  0
POINT
  5
573
330
56A
100
AcDbEntity
  8
DEFPOINTS
 62
     0
100
AcDbPoint
 10
3780.0
 20
572.5
 30
0.0
  0
POINT
  5
574
330
56A
100
AcDbEntity
  8
DEFPOINTS
 62
     0
100
AcDbPoint
 10
3813.4999999999
 20
1427.5
 30
0.0
  0
POINT
  5
575
330
56A
100
AcDbEntity
  8
DEFPOINTS
 62
     0
100
AcDbPoint
 10
4168.5
 20
1427.5
 30
0.0
  0
ENDBLK
  5
56C
330
56A
100
AcDbEntity
  8
0
100
AcDbBlockEnd
  0
BLOCK
  5
58E
330
58D
100
AcDbEntity
  8
0
100
AcDbBlockBegin
  2
*D37
 70
     1
 10
0.0
 20
0.0
 30
0.0
  3
*D37
  1

  0
LINE
  5
590
330
58D
100
AcDbEntity
  8
寸法
  6
CONTINUOUS
 62
     3
100
AcDbLine
 10
1340.0
 20
2127.500000178814
 30
0.0
 11
1340.0
 21
1856.0
 31
0.0
  0
LINE
  5
591
330
58D
100
AcDbEntity
  8
寸法
  6
CONTINUOUS
 62
     3
100
AcDbLine
 10
1184.999996185303
 20
1871.0
 30
0.0
 11
1295.000003814697
 21
1871.0
 31
0.0
  0
INSERT
  5
592
330
58D
100
AcDbEntity
  8
寸法
 62
     3
100
AcDbBlockReference
  2
EX_NORM
 10
1140.0
 20
1871.0
 30
0.0
 41
44.99999618530273
 42
44.99999618530273
 43
44.99999618530273
 50
180.0
  0
INSERT
  5
593
330
58D
100
AcDbEntity
  8
寸法
 62
     3
100
AcDbBlockReference
  2
EX_NORM
 10
1340.0
 20
1871.0
 30
0.0
 41
44.99999618530273
 42
44.99999618530273
 43
44.99999618530273
  0
MTEXT
  5
594
330
58D
100
AcDbEntity
  8
寸法
 62
     2
100
AcDbMText
 10
1460.0
 20
1906.249999910593
 30
0.0
 40
59.99999618530273
 41
0.0
 71
     5
 72
     1
  1
排水心
  7
EXCADDIM1
  0
POINT
  5
595
330
58D
100
AcDbEntity
  8
DEFPOINTS
 62
     0
100
AcDbPoint
 10
1140.0
 20
2182.5
 30
0.0
  0
POINT
  5
596
330
58D
100
AcDbEntity
  8
DEFPOINTS
 62
     0
100
AcDbPoint
 10
1340.0
 20
2138.0
 30
0.0
  0
POINT
  5
597
330
58D
100
AcDbEntity
  8
DEFPOINTS
 62
     0
100
AcDbPoint
 10
1340.0
 20
1871.0
 30
0.0
  0
ENDBLK
  5
58F
330
58D
100
AcDbEntity
  8
0
100
AcDbBlockEnd
  0
ENDSEC
  0
SECTION
  2
ENTITIES
  0
LINE
  5
AA
330
1F
100
AcDbEntity
  8
枠_表
  6
CONTINUOUS
 62
     7
100
AcDbLine
 10
135.0
 20
2857.5
 30
0.0
 11
135.0
 21
127.5
 31
0.0
  0
LINE
  5
AB
330
1F
100
AcDbEntity
  8
枠_表
  6
CONTINUOUS
 62
     7
100
AcDbLine
 10
135.0
 20
127.5
 30
0.0
 11
4335.0
 21
127.5
 31
0.0
  0
LINE
  5
AC
330
1F
100
AcDbEntity
  8
枠_表
  6
CONTINUOUS
 62
     7
100
AcDbLine
 10
135.0
 20
2857.5
 30
0.0
 11
4335.0
 21
2857.5
 31
0.0
  0
LINE
  5
AD
330
1F
100
AcDbEntity
  8
枠_表
  6
CONTINUOUS
 62
     7
100
AcDbLine
 10
4335.0
 20
2857.5
 30
0.0
 11
4335.0
 21
127.5
 31
0.0
  0
LINE
  5
AE
330
1F
100
AcDbEntity
  8
枠_表
  6
CONTINUOUS
 62
     7
100
AcDbLine
 10
465.0
 20
2857.5
 30
0.0
 11
465.0
 21
127.5
 31
0.0
  0
LINE
  5
AF
330
1F
100
AcDbEntity
  8
枠_表
  6
CONTINUOUS
 62
     6
100
AcDbLine
 10
285.0
 20
127.5
 30
0.0
 11
285.0
 21
2002.5
 31
0.0
  0
LINE
  5
B0
330
1F
100
AcDbEntity
  8
枠_表
  6
CONTINUOUS
 62
     6
100
AcDbLine
 10
465.0
 20
337.5
 30
0.0
 11
285.0
 21
337.5
 31
0.0
  0
LINE
  5
B1
330
1F
100
AcDbEntity
  8
枠_表
  6
CONTINUOUS
 62
     6
100
AcDbLine
 10
465.0
 20
412.5
 30
0.0
 11
285.0
 21
412.5
 31
0.0
  0
LINE
  5
B2
330
1F
100
AcDbEntity
  8
枠_表
  6
CONTINUOUS
 62
     6
100
AcDbLine
 10
465.0
 20
967.5
 30
0.0
 11
135.0
 21
967.5
 31
0.0
  0
LINE
  5
B3
330
1F
100
AcDbEntity
  8
枠_表
  6
CONTINUOUS
 62
     6
100
AcDbLine
 10
465.0
 20
1042.5
 30
0.0
 11
135.0
 21
1042.5
 31
0.0
  0
LINE
  5
B4
330
1F
100
AcDbEntity
  8
枠_表
  6
CONTINUOUS
 62
     6
100
AcDbLine
 10
465.0
 20
1927.5
 30
0.0
 11
285.0
 21
1927.5
 31
0.0
  0
LINE
  5
B5
330
1F
100
AcDbEntity
  8
枠_表
  6
CONTINUOUS
 62
     6
100
AcDbLine
 10
465.0
 20
2002.5
 30
0.0
 11
135.0
 21
2002.5
 31
0.0
  0
LINE
  5
B6
330
1F
100
AcDbEntity
  8
枠_表
  6
CONTINUOUS
 62
     6
100
AcDbLine
 10
465.0
 20
2197.5
 30
0.0
 11
135.0
 21
2197.5
 31
0.0
  0
LINE
  5
B7
330
1F
100
AcDbEntity
  8
枠_表
  6
CONTINUOUS
 62
     6
100
AcDbLine
 10
465.0
 20
2392.5
 30
0.0
 11
135.0
 21
2392.5
 31
0.0
  0
LINE
  5
B8
330
1F
100
AcDbEntity
  8
枠_表
  6
CONTINUOUS
 62
     6
100
AcDbLine
 10
465.0
 20
2625.0
 30
0.0
 11
135.0
 21
2625.0
 31
0.0
  0
LINE
  5
B9
330
1F
100
AcDbEntity
  8
枠_表
  6
CONTINUOUS
 62
     6
100
AcDbLine
 10
390.0
 20
2857.5
 30
0.0
 11
390.0
 21
2002.5
 31
0.0
  0
LINE
  5
BA
330
1F
100
AcDbEntity
  8
枠_表
  6
CONTINUOUS
 62
     6
100
AcDbLine
 10
319.5043945499998
 20
288.5192871000001
 30
0.0
 11
437.5497436499998
 21
172.5091552499998
 31
0.0
  0
CIRCLE
  5
BB
330
1F
100
AcDbEntity
  8
枠_表
  6
CONTINUOUS
 62
     6
100
AcDbCircle
 10
172.5
 20
2782.5
 30
0.0
 40
1.5000003
  0
CIRCLE
  5
BC
330
1F
100
AcDbEntity
  8
枠_表
  6
CONTINUOUS
 62
     6
100
AcDbCircle
 10
172.5
 20
2707.5
 30
0.0
 40
1.5000003
  0
CIRCLE
  5
BD
330
1F
100
AcDbEntity
  8
枠_表
  6
CONTINUOUS
 62
     6
100
AcDbCircle
 10
172.5
 20
2550.0
 30
0.0
 40
1.5000003
  0
CIRCLE
  5
BE
330
1F
100
AcDbEntity
  8
枠_表
  6
CONTINUOUS
 62
     6
100
AcDbCircle
 10
172.5
 20
2475.0
 30
0.0
 40
1.5000003
  0
LINE
  5
BF
330
1F
100
AcDbEntity
  8
枠_表
  6
EXLTYPE2
 62
     6
100
AcDbLine
 10
210.0
 20
2857.5
 30
0.0
 11
210.0
 21
2392.5
 31
0.0
  0
TEXT
  5
C0
330
1F
100
AcDbEntity
  8
枠_表
  6
CONTINUOUS
 62
     2
100
AcDbText
 10
337.5000038146973
 20
949.4999957084673
 30
0.0
 40
74.99999237060547
  1
ＬＴＣＫ３５２ＳＲＡ１Ｃ
 50
270.0
 41
0.682253544143894
  7
EXCADSTD
 72
     5
 11
337.5000038146972
 21
430.500030994417
 31
0.0
100
AcDbText
  0
HATCH
  5
C1
330
1F
100
AcDbEntity
  8
枠_表
  6
CONTINUOUS
 62
     3
100
AcDbHatch
 10
0.0
 20
0.0
 30
0.0
210
0.0
220
0.0
230
1.0
  2
SOLID
 70
     1
 71
     1
 91
        1
 92
        3
 72
     1
 73
     1
 93
       10
 10
180.3254899463113
 20
1956.412101400075
 42
-0.0173622235015558
 10
259.7763649463122
 20
1956.280476400075
 42
-0.0267627618865285
 10
259.7763649463116
 20
1956.280476400076
 42
0.0737939047395297
 10
259.857364946311
 20
1936.901226400075
 42
0.0183878899657111
 10
188.2229899463113
 20
1937.680851400075
 42
-0.1144749489451909
 10
173.1367399463112
 20
1940.819601400076
 42
-0.1929163439413158
 10
161.4119899463112
 20
1955.753976400074
 42
-0.0603888289562339
 10
159.4376149463114
 20
1963.671726400076
 42
0.0
 10
165.0772399463114
 20
1965.524601400076
 42
0.0860918333465722
 10
168.0236149463114
 20
1959.986226400075
 42
0.1331843103855139
 97
        0
 75
     0
 76
     1
 98
        1
 10
0.0
 20
0.0
  0
HATCH
  5
C2
330
1F
100
AcDbEntity
  8
枠_表
  6
CONTINUOUS
 62
     3
100
AcDbHatch
 10
0.0
 20
0.0
 30
0.0
210
0.0
220
0.0
230
1.0
  2
SOLID
 70
     1
 71
     1
 91
        1
 92
        3
 72
     1
 73
     1
 93
       16
 10
178.6548649463113
 20
1867.696851400076
 42
-0.0386228372648425
 10
227.4674899463116
 20
1867.787976400076
 42
-0.0398707891902887
 10
227.5079899463118
 20
1858.928601400075
 42
-0.1256886216044368
 10
219.2257399463116
 20
1859.333601400075
 42
-0.0367815758121429
 10
219.2257399463113
 20
1859.333601400075
 42
-0.268021535028829
 10
228.5002399463115
 20
1841.462976400074
 42
-0.2571134422124887
 10
222.455614946312
 20
1829.242101400076
 42
-0.15225263660143
 10
212.4014899463114
 20
1826.133726400075
 42
-0.0158825412051521
 10
178.6042399463115
 20
1826.356476400076
 42
-0.028525127141842
 10
178.6042399463114
 20
1834.912101400075
 42
-0.0452212723224612
 10
209.8297399463119
 20
1834.476726400075
 42
-0.0315567291532139
 10
219.0536149463118
 20
1837.129476400076
 42
-0.1476272403790711
 10
220.3799899463113
 20
1854.402726400075
 42
-0.3908144705745795
 10
208.2603649463112
 20
1859.272851400076
 42
-0.2046259928850854
 10
208.2603649463119
 20
1859.272851400076
 42
0.0
 10
178.5738649463117
 20
1858.513476400074
 42
-0.0304995761723369
 97
        0
 75
     0
 76
     1
 98
        1
 10
0.0
 20
0.0
  0
HATCH
  5
C3
330
1F
100
AcDbEntity
  8
枠_表
  6
CONTINUOUS
 62
     3
100
AcDbHatch
 10
0.0
 20
0.0
 30
0.0
210
0.0
220
0.0
230
1.0
  2
SOLID
 70
     1
 71
     1
 91
        2
 92
        1
 93
        1
 72
     2
 10
245.375320031057
 20
1804.071728942448
 40
5.358501700154826
 50
0.0
 51
360.0
 73
     1
 97
        0
 92
        3
 72
     1
 73
     1
 93
        3
 10
227.5484899463115
 20
1808.860476400076
 42
0.1200283885712921
 10
178.5941149463108
 20
1799.545476400076
 42
-0.040182061576215
 10
178.5637399463116
 20
1808.850351400076
 42
-0.0237521668114666
 97
        0
 75
     0
 76
     1
 98
        1
 10
0.0
 20
0.0
  0
HATCH
  5
C4
330
1F
100
AcDbEntity
  8
枠_表
  6
CONTINUOUS
 62
     3
100
AcDbHatch
 10
0.0
 20
0.0
 30
0.0
210
0.0
220
0.0
230
1.0
  2
SOLID
 70
     1
 71
     1
 91
        1
 92
        3
 72
     1
 73
     1
 93
       30
 10
225.5032399463125
 20
1756.898976400076
 42
-0.0009362235736497
 10
225.5032399463116
 20
1756.898976400076
 42
0.0681165430304651
 10
218.1423649463117
 20
1759.354359769854
 42
0.0
 10
224.4704899463118
 20
1768.603476400075
 42
-0.3021125909073739
 10
224.4704899463117
 20
1768.603476400075
 42
0.0
 10
217.3222399463116
 20
1777.928601400076
 42
-0.3704245237568778
 10
217.3222399463112
 20
1777.928601400076
 42
0.0
 10
212.5432399463116
 20
1777.442601400075
 42
-0.0262822419456938
 10
207.9464899463112
 20
1771.691601400075
 42
-0.180060563604375
 10
205.1519899463118
 20
1762.518351400075
 42
-0.0298130817160724
 10
205.1519899463113
 20
1762.518351400076
 42
-0.3153987453686079
 10
195.4826149463117
 20
1754.063976400074
 42
0.0
 10
191.1592399463112
 20
1754.114601400075
 42
-0.3510306079065163
 10
177.4904899463116
 20
1770.415851400075
 42
0.0
 10
177.4904899463113
 20
1775.174601400076
 42
-0.1053356344842436
 10
180.5279899463116
 20
1785.704601400076
 42
0.1188608286962634
 10
188.2229899463119
 20
1783.780851400076
 42
0.0
 10
181.1354899463117
 20
1772.238351400075
 42
-0.2447573632916038
 10
181.1354899463115
 20
1772.238351400076
 42
0.0
 10
188.9317399463118
 20
1761.100851400075
 42
-0.3734162676407275
 10
188.9317399463113
 20
1761.100851400075
 42
0.0
 10
196.7178649463118
 20
1765.140726400075
 42
-0.2612197701908478
 10
200.1401149463119
 20
1774.567101400076
 42
-0.0572747914118362
 10
200.1401149463117
 20
1774.567101400075
 42
-0.118965887569222
 10
204.5343649463118
 20
1782.059601400076
 42
-0.2005226878639635
 10
211.6117399463446
 20
1785.198351400076
 42
0.0
 10
214.2948649463112
 20
1785.248976400075
 42
-0.2622894489606957
 10
226.5967399463119
 20
1777.199601400075
 42
-0.0988461274137807
 10
228.4091149463112
 20
1769.666601400075
 42
0.0
 10
228.4091149463118
 20
1766.872101400076
 42
-0.0920156312561188
 97
        0
 75
     0
 76
     1
 98
        1
 10
0.0
 20
0.0
  0
HATCH
  5
C5
330
1F
100
AcDbEntity
  8
枠_表
  6
CONTINUOUS
 62
     3
100
AcDbHatch
 10
0.0
 20
0.0
 30
0.0
210
0.0
220
0.0
230
1.0
  2
SOLID
 70
     1
 71
     1
 91
        2
 92
        3
 72
     1
 73
     1
 93
       27
 10
222.5467399463119
 20
1918.240851400076
 42
-0.1769427732109283
 10
222.546739946312
 20
1918.240851400075
 42
0.0
 10
217.0792399463117
 20
1918.240851400075
 42
0.0
 10
217.0792399463111
 20
1916.924601400075
 42
-0.2075336014273071
 10
223.4898538693577
 20
1908.378865815595
 42
-0.1226604740888932
 10
223.6503649463116
 20
1900.825851400075
 42
-0.3213715781137954
 10
214.0659771567718
 20
1893.017507966637
 42
-0.064704004662446
 10
208.9994899463113
 20
1892.978976400075
 42
-0.2577989063308058
 10
207.0757399463114
 20
1894.568601400075
 42
-0.0566025777210964
 10
205.8911149463118
 20
1897.970601400075
 42
-0.0166741689362634
 10
203.5218649463116
 20
1910.444601400075
 42
0.1186092302783404
 10
199.5731149463115
 20
1918.676226400075
 42
0.1699204224386696
 10
193.5791149463113
 20
1922.260476400075
 42
0.1006533494296197
 10
188.3780332643596
 20
1922.591869980578
 42
0.1675695228968026
 10
181.4088649463115
 20
1919.344476400074
 42
0.1376980079804241
 10
177.9967399463118
 20
1913.441601400076
 42
0.0719813663796925
 10
177.5512399463117
 20
1910.758476400076
 42
0.0
 10
177.5512399463118
 20
1906.647726400075
 42
0.1944607457809085
 10
184.5678649463115
 20
1893.009351400075
 42
0.1288538183665954
 10
181.1253649463111
 20
1891.632351400076
 42
0.2098387395261543
 10
178.6447399463118
 20
1887.136851400075
 42
0.0
 10
178.6244899463119
 20
1883.876601400075
 42
0.0945009641609561
 10
179.6268649463117
 20
1879.168476400075
 42
0.0
 10
181.9859899463115
 20
1879.168476400076
 42
-0.2395739894657533
 10
181.9454899463112
 20
1883.279226400075
 42
-0.2502312110031056
 10
185.7524899463127
 20
1885.304226400076
 42
-0.0104343570771767
 10
214.1429899463115
 20
1885.030851400074
 42
0.4051015674140718
 97
        0
 92
        3
 72
     1
 73
     1
 93
        8
 10
204.0382399463113
 20
1892.796726400076
 42
-0.0339435190873663
 10
204.0382399462637
 20
1892.796726400076
 42
-0.0001110072973599
 10
188.5267399463112
 20
1893.221976400074
 42
-0.2253076310552526
 10
181.429114946312
 20
1903.853226400075
 42
0.0
 10
181.429114946312
 20
1906.455351400076
 42
-0.3657967558150132
 10
189.6506149463117
 20
1914.190851400076
 42
0.0
 10
192.5868649463118
 20
1914.190851400075
 42
-0.253079783036934
 10
199.8161149463114
 20
1908.966351400075
 42
-0.0724473624720067
 97
        0
 75
     0
 76
     1
 98
        1
 10
0.0
 20
0.0
  0
TEXT
  5
C7
330
1F
100
AcDbEntity
  8
枠_表
  6
CONTINUOUS
 62
     2
100
AcDbText
 10
170.2500000000009
 20
1733.999999999947
 30
0.0
 40
50.625
  1
ジャニス工業株式会社
 50
270.0
 41
1.025641025641026
  7
EXCADTTF1
 72
     5
 11
170.2500000000008
 21
1058.999999999947
 31
0.0
100
AcDbText
  0
ARC
  5
C8
330
1F
100
AcDbEntity
  8
枠_表
  6
CONTINUOUS
 62
     3
100
AcDbCircle
 10
201.9250933390337
 20
1901.597201381122
 30
0.0
 40
26.50025272990596
100
AcDbArc
 50
358.7700039330571
 51
38.90686318290443
  0
ARC
  5
C9
330
1F
100
AcDbEntity
  8
枠_表
  6
CONTINUOUS
 62
     3
100
AcDbCircle
 10
213.0287438959977
 20
1900.394059109532
 30
0.0
 40
15.40356112671885
100
AcDbArc
 50
274.1482228408146
 51
2.360009442572949
  0
ARC
  5
CA
330
1F
100
AcDbEntity
  8
枠_表
  6
CONTINUOUS
 62
     3
100
AcDbCircle
 10
193.3985765897603
 20
1205.024796241886
 30
0.0
 40
680.3223983798493
100
AcDbArc
 50
88.25266433245969
 51
90.6439560401927
  0
ARC
  5
CB
330
1F
100
AcDbEntity
  8
枠_表
  6
CONTINUOUS
 62
     3
100
AcDbCircle
 10
185.7454393170716
 20
1880.726401583045
 30
0.0
 40
4.577830246610835
100
AcDbArc
 50
89.91175481914145
 51
146.1065985968857
  0
ARC
  5
CC
330
1F
100
AcDbEntity
  8
枠_表
  6
CONTINUOUS
 62
     3
100
AcDbCircle
 10
186.009178311164
 20
1881.263688231257
 30
0.0
 40
4.5360728870472
100
AcDbArc
 50
153.6191685566582
 51
207.5097757939563
  0
LINE
  5
CD
330
1F
100
AcDbEntity
  8
枠_表
  6
CONTINUOUS
 62
     3
100
AcDbLine
 10
179.6268649463117
 20
1879.168476400075
 30
0.0
 11
181.9859899463112
 21
1879.168476400075
 31
0.0
  0
LINE
  5
CE
330
1F
100
AcDbEntity
  8
枠_表
  6
CONTINUOUS
 62
     3
100
AcDbLine
 10
178.6447399463118
 20
1887.136851400075
 30
0.0
 11
178.6447399463118
 21
1883.876601400076
 31
0.0
  0
ARC
  5
CF
330
1F
100
AcDbEntity
  8
枠_表
  6
CONTINUOUS
 62
     3
100
AcDbCircle
 10
191.4696769234554
 20
1884.150616208112
 30
0.0
 40
12.84810930031341
100
AcDbArc
 50
181.222053929324
 51
202.8159509797653
  0
ARC
  5
D0
330
1F
100
AcDbEntity
  8
枠_表
  6
CONTINUOUS
 62
     3
100
AcDbCircle
 10
185.005118479295
 20
1886.559339737731
 30
0.0
 40
6.38654325930597
100
AcDbArc
 50
127.4081478714984
 51
174.8118660441383
  0
ARC
  5
D1
330
1F
100
AcDbEntity
  8
枠_表
  6
CONTINUOUS
 62
     3
100
AcDbCircle
 10
185.4738891398601
 20
1885.752665916203
 30
0.0
 40
7.31302701014583
100
AcDbArc
 50
97.11676404022975
 51
126.4860549324748
  0
ARC
  5
D2
330
1F
100
AcDbEntity
  8
枠_表
  6
CONTINUOUS
 62
     3
100
AcDbCircle
 10
197.9301039385246
 20
1908.508043119899
 30
0.0
 40
20.46359880155898
100
AcDbArc
 50
185.2158792069685
 51
229.2336424873511
  0
LINE
  5
D3
330
1F
100
AcDbEntity
  8
枠_表
  6
CONTINUOUS
 62
     3
100
AcDbLine
 10
177.5512399463117
 20
1910.758476400076
 30
0.0
 11
177.5512399463117
 21
1906.647726400075
 31
0.0
  0
ARC
  5
D4
330
1F
100
AcDbEntity
  8
枠_表
  6
CONTINUOUS
 62
     3
100
AcDbCircle
 10
187.0445241581121
 20
1910.560780389437
 30
0.0
 40
9.49534248137679
100
AcDbArc
 50
162.3384873625213
 51
178.8069976857606
  0
ARC
  5
D5
330
1F
100
AcDbEntity
  8
枠_表
  6
CONTINUOUS
 62
     3
100
AcDbCircle
 10
190.2166657158899
 20
1910.315557044418
 30
0.0
 40
12.61343486634549
100
AcDbArc
 50
134.289750990011
 51
165.6505938786759
  0
ARC
  5
D6
330
1F
100
AcDbEntity
  8
枠_表
  6
CONTINUOUS
 62
     3
100
AcDbCircle
 10
189.60225323593
 20
1910.862700062626
 30
0.0
 40
11.79288520689435
100
AcDbArc
 50
95.95861263384197
 51
134.009198931986
  0
ARC
  5
D7
330
1F
100
AcDbEntity
  8
枠_表
  6
CONTINUOUS
 62
     3
100
AcDbCircle
 10
190.1638068821621
 20
1909.638747214452
 30
0.0
 40
13.07564058883004
100
AcDbArc
 50
74.85894579250447
 51
97.8495628504518
  0
ARC
  5
D8
330
1F
100
AcDbEntity
  8
枠_表
  6
CONTINUOUS
 62
     3
100
AcDbCircle
 10
191.4549498751206
 20
1911.904143145428
 30
0.0
 40
10.57193055836883
100
AcDbArc
 50
39.83448923590693
 51
78.40894470246283
  0
ARC
  5
D9
330
1F
100
AcDbEntity
  8
枠_表
  6
CONTINUOUS
 62
     3
100
AcDbCircle
 10
184.4412722224312
 20
1906.354479198583
 30
0.0
 40
19.5140492547738
100
AcDbArc
 50
12.09884462938389
 51
39.1556705448828
  0
ARC
  5
DA
330
1F
100
AcDbEntity
  8
枠_表
  6
CONTINUOUS
 62
     3
100
AcDbCircle
 10
391.6803044662823
 20
1939.720485002083
 30
0.0
 40
190.4223614055573
100
AcDbArc
 50
188.8438342053764
 51
192.6649181367123
  0
ARC
  5
DB
330
1F
100
AcDbEntity
  8
枠_表
  6
CONTINUOUS
 62
     3
100
AcDbCircle
 10
221.4611044033126
 20
1901.485042483316
 30
0.0
 40
15.96170002909176
100
AcDbArc
 50
192.7195832898965
 51
205.678111277808
  0
ARC
  5
DC
330
1F
100
AcDbEntity
  8
枠_表
  6
CONTINUOUS
 62
     3
100
AcDbCircle
 10
209.4766998756436
 20
1895.515356648949
 30
0.0
 40
2.580882423421965
100
AcDbArc
 50
201.5204897073512
 51
259.3445900274031
  0
ARC
  5
DD
330
1F
100
AcDbEntity
  8
枠_表
  6
CONTINUOUS
 62
     3
100
AcDbCircle
 10
211.384480556269
 20
1912.491918964966
 30
0.0
 40
19.65815626528382
100
AcDbArc
 50
263.0315250986587
 51
277.8399479706784
  0
ARC
  5
DE
330
1F
100
AcDbEntity
  8
枠_表
  6
CONTINUOUS
 62
     3
100
AcDbCircle
 10
213.4112829230137
 20
1903.607488077297
 30
0.0
 40
10.61019807939003
100
AcDbArc
 50
273.5376399679994
 51
344.8013566619203
  0
ARC
  5
DF
330
1F
100
AcDbEntity
  8
枠_表
  6
CONTINUOUS
 62
     3
100
AcDbCircle
 10
208.4075745769537
 20
1904.280135630205
 30
0.0
 40
15.62929101996345
100
AcDbArc
 50
347.231432613617
 51
15.20341596431492
  0
ARC
  5
E0
330
1F
100
AcDbEntity
  8
枠_表
  6
CONTINUOUS
 62
     3
100
AcDbCircle
 10
210.4335287786828
 20
1905.261957344502
 30
0.0
 40
13.42321657765079
100
AcDbArc
 50
13.42679454697442
 51
60.32426137379932
  0
LINE
  5
E1
330
1F
100
AcDbEntity
  8
枠_表
  6
CONTINUOUS
 62
     3
100
AcDbLine
 10
222.546739946312
 20
1918.240851400075
 30
0.0
 11
217.0792399463117
 21
1918.240851400075
 31
0.0
  0
ARC
  5
E2
330
1F
100
AcDbEntity
  8
枠_表
  6
CONTINUOUS
 62
     3
100
AcDbCircle
 10
185.6014142884187
 20
2060.78406521589
 30
0.0
 40
104.505225747009
100
AcDbArc
 50
263.1274757312912
 51
267.106204490141
  0
ARC
  5
E3
330
1F
100
AcDbEntity
  8
枠_表
  6
CONTINUOUS
 62
     3
100
AcDbCircle
 10
221.2796003758268
 20
2697.992171815553
 30
0.0
 40
742.7100645598513
100
AcDbArc
 50
266.8390243485978
 51
272.9711338131872
  0
ARC
  5
E4
330
1F
100
AcDbEntity
  8
枠_表
  6
CONTINUOUS
 62
     3
100
AcDbCircle
 10
176.0111277709377
 20
1967.860892025547
 30
0.0
 40
11.2165377829595
100
AcDbArc
 50
224.592391474832
 51
254.9374073189123
  0
ARC
  5
E5
330
1F
100
AcDbEntity
  8
枠_表
  6
CONTINUOUS
 62
     3
100
AcDbCircle
 10
182.513978916899
 20
1971.247906547135
 30
0.0
 40
18.35200500585038
100
AcDbArc
 50
198.1715191042997
 51
217.8537826235693
  0
LINE
  5
E6
330
1F
100
AcDbEntity
  8
枠_表
  6
CONTINUOUS
 62
     3
100
AcDbLine
 10
159.4376149463114
 20
1963.671726400076
 30
0.0
 11
165.0772399463112
 21
1965.524601400075
 31
0.0
  0
ARC
  5
E7
330
1F
100
AcDbEntity
  8
枠_表
  6
CONTINUOUS
 62
     3
100
AcDbCircle
 10
193.0834729373084
 20
1967.856637519952
 30
0.0
 40
33.90512116232043
100
AcDbArc
 50
187.09010272397
 51
200.9134154817058
  0
ARC
  5
E8
330
1F
100
AcDbEntity
  8
枠_表
  6
CONTINUOUS
 62
     3
100
AcDbCircle
 10
185.907527794025
 20
1962.915400817129
 30
0.0
 40
25.52092032294173
100
AcDbArc
 50
196.2966123578915
 51
239.973223283839
  0
ARC
  5
E9
330
1F
100
AcDbEntity
  8
枠_表
  6
CONTINUOUS
 62
     3
100
AcDbCircle
 10
187.4447035320146
 20
1971.765095731358
 30
0.0
 40
34.09312894671467
100
AcDbArc
 50
245.1860595856124
 51
271.3080759130594
  0
ARC
  5
EA
330
1F
100
AcDbEntity
  8
枠_表
  6
CONTINUOUS
 62
     3
100
AcDbCircle
 10
213.4440541426272
 20
963.686202879799
 30
0.0
 40
974.3211367025408
100
AcDbArc
 50
87.26959263073037
 51
91.4833117237826
  0
ARC
  5
EB
330
1F
100
AcDbEntity
  8
枠_表
  6
CONTINUOUS
 62
     3
100
AcDbCircle
 10
325.1126355783342
 20
1946.86376998161
 30
0.0
 40
66.01138250235698
100
AcDbArc
 50
171.7986203004403
 51
188.6803384946418
  0
ARC
  5
EC
330
1F
100
AcDbEntity
  8
枠_表
  6
CONTINUOUS
 62
     3
100
AcDbCircle
 10
263.6252071740765
 20
1910.091585096892
 30
0.0
 40
62.04610222041025
100
AcDbArc
 50
188.4088456599977
 51
196.1851416003176
  0
ARC
  5
ED
330
1F
100
AcDbEntity
  8
枠_表
  6
CONTINUOUS
 62
     3
100
AcDbCircle
 10
173.7478294001972
 20
1896.650902236295
 30
0.0
 40
28.83098679232812
100
AcDbArc
 50
8.712717101917915
 51
25.2874718053599
  0
ARC
  5
EE
330
1F
100
AcDbEntity
  8
枠_表
  6
CONTINUOUS
 62
     3
100
AcDbCircle
 10
191.371121857078
 20
1904.894719974274
 30
0.0
 40
9.375291501855795
100
AcDbArc
 50
25.74036886334938
 51
82.54917444421913
  0
LINE
  5
EF
330
1F
100
AcDbEntity
  8
枠_表
  6
CONTINUOUS
 62
     3
100
AcDbLine
 10
192.5868649463113
 20
1914.190851400076
 30
0.0
 11
189.6506149463117
 21
1914.190851400076
 31
0.0
  0
ARC
  5
F0
330
1F
100
AcDbEntity
  8
枠_表
  6
CONTINUOUS
 62
     3
100
AcDbCircle
 10
190.1192070146684
 20
1905.45605197664
 30
0.0
 40
8.747359572704955
100
AcDbArc
 50
93.07077870957934
 51
173.4402016072426
  0
LINE
  5
F1
330
1F
100
AcDbEntity
  8
枠_表
  6
CONTINUOUS
 62
     3
100
AcDbLine
 10
181.429114946312
 20
1906.455351400076
 30
0.0
 11
181.429114946312
 21
1903.853226400075
 31
0.0
  0
ARC
  5
F2
330
1F
100
AcDbEntity
  8
枠_表
  6
CONTINUOUS
 62
     3
100
AcDbCircle
 10
196.1754734295315
 20
1906.013296385063
 30
0.0
 40
14.90372405996874
100
AcDbArc
 50
188.3335103000368
 51
239.12214641873
  0
ARC
  5
F3
330
1F
100
AcDbEntity
  8
枠_表
  6
CONTINUOUS
 62
     3
100
AcDbCircle
 10
1153.989786838182
 20
36826.52313326598
 30
0.0
 40
34946.64001890887
100
AcDbArc
 50
268.4169008257798
 51
268.4423418242108
  0
ARC
  5
F4
330
1F
100
AcDbEntity
  8
枠_表
  6
CONTINUOUS
 62
     3
100
AcDbCircle
 10
119.2603881767568
 20
1863.628682989553
 30
0.0
 40
59.53363641627745
100
AcDbArc
 50
355.0709955167469
 51
3.918300293432266
  0
ARC
  5
F5
330
1F
100
AcDbEntity
  8
枠_表
  6
CONTINUOUS
 62
     3
100
AcDbCircle
 10
191.8725220514725
 20
1748.386713157294
 30
0.0
 40
110.9268148967239
100
AcDbArc
 50
89.89774581659873
 51
96.88556757342675
  0
ARC
  5
F6
330
1F
100
AcDbEntity
  8
枠_表
  6
CONTINUOUS
 62
     3
100
AcDbCircle
 10
208.6192837707089
 20
1842.650741644991
 30
0.0
 40
16.62598434477196
100
AcDbArc
 50
44.97874762333472
 51
91.23698729832816
  0
ARC
  5
F7
330
1F
100
AcDbEntity
  8
枠_表
  6
CONTINUOUS
 62
     3
100
AcDbCircle
 10
210.3549409708038
 20
1846.484978219121
 30
0.0
 40
12.77467585570504
100
AcDbArc
 50
312.9164447404285
 51
38.30155423513362
  0
ARC
  5
F8
330
1F
100
AcDbEntity
  8
枠_表
  6
CONTINUOUS
 62
     3
100
AcDbCircle
 10
210.0472708232338
 20
1851.082889314672
 30
0.0
 40
16.60758761616231
100
AcDbArc
 50
269.2495022237244
 51
302.8405501667833
  0
ARC
  5
F9
330
1F
100
AcDbEntity
  8
枠_表
  6
CONTINUOUS
 62
     3
100
AcDbCircle
 10
197.6627006823703
 20
2081.823993202489
 30
0.0
 40
247.6463350002882
100
AcDbArc
 50
265.58624548738
 51
272.8161158068203
  0
ARC
  5
FA
330
1F
100
AcDbEntity
  8
枠_表
  6
CONTINUOUS
 62
     3
100
AcDbCircle
 10
131.4022892884172
 20
1830.634288900075
 30
0.0
 40
47.39539878190116
100
AcDbArc
 50
354.8215518929414
 51
5.178448107058751
  0
ARC
  5
FB
330
1F
100
AcDbEntity
  8
枠_表
  6
CONTINUOUS
 62
     3
100
AcDbCircle
 10
190.3601062108703
 20
1581.513549507404
 30
0.0
 40
245.1249869780733
100
AcDbArc
 50
86.21317803194883
 51
92.74888333379353
  0
ARC
  5
FC
330
1F
100
AcDbEntity
  8
枠_表
  6
CONTINUOUS
 62
     3
100
AcDbCircle
 10
208.9973662218217
 20
1918.212959818442
 30
0.0
 40
92.14213631800438
100
AcDbArc
 50
268.4775281223095
 51
272.1172324142101
  0
ARC
  5
FD
330
1F
100
AcDbEntity
  8
枠_表
  6
CONTINUOUS
 62
     3
100
AcDbCircle
 10
212.4428913677296
 20
1843.814172698227
 30
0.0
 40
17.68049477190885
100
AcDbArc
 50
269.8658335690531
 51
304.4936342941115
  0
ARC
  5
FE
330
1F
100
AcDbEntity
  8
枠_表
  6
CONTINUOUS
 62
     3
100
AcDbCircle
 10
214.3806997196996
 20
1840.841391387885
 30
0.0
 40
14.1332156333331
100
AcDbArc
 50
304.8439373709161
 51
2.520706542311074
  0
ARC
  5
FF
330
1F
100
AcDbEntity
  8
枠_表
  6
CONTINUOUS
 62
     3
100
AcDbCircle
 10
208.3913983227905
 20
1842.368839649568
 30
0.0
 40
20.1292349498589
100
AcDbArc
 50
357.4206831038103
 51
57.43615189668618
  0
ARC
  5
100
330
1F
100
AcDbEntity
  8
枠_表
  6
CONTINUOUS
 62
     3
100
AcDbCircle
 10
220.6178522074584
 20
1802.913790890526
 30
0.0
 40
56.43698250687272
100
AcDbArc
 50
82.98752144163112
 51
91.4134392789641
  0
ARC
  5
101
330
1F
100
AcDbEntity
  8
枠_表
  6
CONTINUOUS
 62
     3
100
AcDbCircle
 10
244.8310319721737
 20
1863.437572520765
 30
0.0
 40
17.90024037819024
100
AcDbArc
 50
165.9341994177206
 51
194.5896440601899
  0
ARC
  5
102
330
1F
100
AcDbEntity
  8
枠_表
  6
CONTINUOUS
 62
     3
100
AcDbCircle
 10
202.4907088007624
 20
2173.323451699212
 30
0.0
 40
306.5546709196609
100
AcDbArc
 50
265.5405243117486
 51
274.6733986986563
  0
LINE
  5
103
330
1F
100
AcDbEntity
  8
枠_表
  6
CONTINUOUS
 62
     3
100
AcDbLine
 10
208.2603649463119
 20
1859.272851400076
 30
0.0
 11
192.0704899463113
 21
1859.272851400076
 31
0.0
  0
CIRCLE
  5
104
330
1F
100
AcDbEntity
  8
枠_表
  6
CONTINUOUS
 62
     3
100
AcDbCircle
 10
245.375320031057
 20
1804.071728942448
 30
0.0
 40
5.358501700154835
  0
ARC
  5
105
330
1F
100
AcDbEntity
  8
枠_表
  6
CONTINUOUS
 62
     3
100
AcDbCircle
 10
246.7998711537121
 20
1804.281588595792
 30
0.0
 40
19.7884282326031
100
AcDbArc
 50
166.6209501743447
 51
193.9984576255729
  0
ARC
  5
106
330
1F
100
AcDbEntity
  8
枠_表
  6
CONTINUOUS
 62
     3
100
AcDbCircle
 10
80.69706276185039
 20
1803.878386594251
 30
0.0
 40
97.99289227876633
100
AcDbArc
 50
357.4657505504472
 51
2.908322851021861
  0
ARC
  5
107
330
1F
100
AcDbEntity
  8
枠_表
  6
CONTINUOUS
 62
     3
100
AcDbCircle
 10
202.7821508609086
 20
1495.118929230615
 30
0.0
 40
305.38595858835
100
AcDbArc
 50
85.33876083975656
 51
94.54285949261762
  0
ARC
  5
108
330
1F
100
AcDbEntity
  8
枠_表
  6
CONTINUOUS
 62
     3
100
AcDbCircle
 10
202.9874689149359
 20
2140.96491369537
 30
0.0
 40
333.0114127553719
100
AcDbArc
 50
265.7940354718674
 51
274.2296502572344
  0
ARC
  5
109
330
1F
100
AcDbEntity
  8
枠_表
  6
CONTINUOUS
 62
     3
100
AcDbCircle
 10
1443.044614944631
 20
1286.033320150729
 30
0.0
 40
1305.420034344473
100
AcDbArc
 50
158.6422112053103
 51
158.8567777804232
  0
ARC
  5
10A
330
1F
100
AcDbEntity
  8
枠_表
  6
CONTINUOUS
 62
     3
100
AcDbCircle
 10
213.2494557545938
 20
1767.218575730865
 30
0.0
 40
15.16361801388235
100
AcDbArc
 50
337.6615195708736
 51
358.6907316844898
  0
ARC
  5
10B
330
1F
100
AcDbEntity
  8
枠_表
  6
CONTINUOUS
 62
     3
100
AcDbCircle
 10
208.6468646906423
 20
1768.843343357365
 30
0.0
 40
19.79962298051288
100
AcDbArc
 50
2.383015745764864
 51
24.9635286746436
  0
ARC
  5
10C
330
1F
100
AcDbEntity
  8
枠_表
  6
CONTINUOUS
 62
     3
100
AcDbCircle
 10
213.3013936652802
 20
1770.305475480009
 30
0.0
 40
14.97648840463785
100
AcDbArc
 50
27.40839959399765
 51
86.19646882156954
  0
ARC
  5
10D
330
1F
100
AcDbEntity
  8
枠_表
  6
CONTINUOUS
 62
     3
100
AcDbCircle
 10
211.8289153613299
 20
1775.160111311051
 30
0.0
 40
10.04058908858416
100
AcDbArc
 50
91.23938994435812
 51
136.5942921332421
  0
ARC
  5
10E
330
1F
100
AcDbEntity
  8
枠_表
  6
CONTINUOUS
 62
     3
100
AcDbCircle
 10
217.8594616510035
 20
1769.209778130026
 30
0.0
 40
18.51151426169351
100
AcDbArc
 50
136.0402388947521
 51
163.1776672992999
  0
ARC
  5
10F
330
1F
100
AcDbEntity
  8
枠_表
  6
CONTINUOUS
 62
     3
100
AcDbCircle
 10
157.4185712632821
 20
1784.742766225387
 30
0.0
 40
43.91667620959131
100
AcDbArc
 50
333.4905020373357
 51
346.6025921984959
  0
ARC
  5
110
330
1F
100
AcDbEntity
  8
枠_表
  6
CONTINUOUS
 62
     3
100
AcDbCircle
 10
190.4769338149757
 20
1768.037993121901
 30
0.0
 40
6.88065228328521
100
AcDbArc
 50
276.5389241941591
 51
335.0975608069369
  0
ARC
  5
111
330
1F
100
AcDbEntity
  8
枠_表
  6
CONTINUOUS
 62
     3
100
AcDbCircle
 10
190.0503545635755
 20
1769.946333382974
 30
0.0
 40
8.91593237815014
100
AcDbArc
 50
180.8867385422408
 51
262.7925382056678
  0
ARC
  5
112
330
1F
100
AcDbEntity
  8
枠_表
  6
CONTINUOUS
 62
     3
100
AcDbCircle
 10
194.498795966608
 20
1770.545843514721
 30
0.0
 40
13.47006053193791
100
AcDbArc
 50
117.7689879465537
 51
172.7817283832025
  0
ARC
  5
113
330
1F
100
AcDbEntity
  8
枠_表
  6
CONTINUOUS
 62
     3
100
AcDbCircle
 10
203.7234865216542
 20
1773.310491811035
 30
0.0
 40
26.2991447367003
100
AcDbArc
 50
151.8829576087176
 51
175.9354096935781
  0
ARC
  5
114
330
1F
100
AcDbEntity
  8
枠_表
  6
CONTINUOUS
 62
     3
100
AcDbCircle
 10
194.5038700677072
 20
1770.800417029817
 30
0.0
 40
17.01772587270968
100
AcDbArc
 50
181.2948770866743
 51
258.6654156292868
  0
ARC
  5
115
330
1F
100
AcDbEntity
  8
枠_表
  6
CONTINUOUS
 62
     3
100
AcDbCircle
 10
194.2825887797367
 20
1765.193141806158
 30
0.0
 40
11.19367613594409
100
AcDbArc
 50
276.1542627631773
 51
346.1750990425562
  0
ARC
  5
116
330
1F
100
AcDbEntity
  8
枠_表
  6
CONTINUOUS
 62
     3
100
AcDbCircle
 10
283.4038965755273
 20
1743.692299546142
 30
0.0
 40
80.4846638777502
100
AcDbArc
 50
159.6420733479936
 51
166.4727051201885
  0
ARC
  5
117
330
1F
100
AcDbEntity
  8
枠_表
  6
CONTINUOUS
 62
     3
100
AcDbCircle
 10
217.9707962649923
 20
1768.391797141834
 30
0.0
 40
10.55345561005776
100
AcDbArc
 50
120.9501336849606
 51
161.779472982108
  0
ARC
  5
118
330
1F
100
AcDbEntity
  8
枠_表
  6
CONTINUOUS
 62
     3
100
AcDbCircle
 10
219.5734774463171
 20
1757.545288900056
 30
0.0
 40
21.102779059401
100
AcDbArc
 50
103.4375782160213
 51
109.459638038058
  0
ARC
  5
119
330
1F
100
AcDbEntity
  8
枠_表
  6
CONTINUOUS
 62
     3
100
AcDbCircle
 10
216.4012492061887
 20
1769.947355270871
 30
0.0
 40
8.034208966558964
100
AcDbArc
 50
2.114043644491606
 51
83.41750470260911
  0
ARC
  5
11A
330
1F
100
AcDbEntity
  8
枠_表
  6
CONTINUOUS
 62
     3
100
AcDbCircle
 10
215.3143854437509
 20
1769.377899130825
 30
0.0
 40
9.188796451533795
100
AcDbArc
 50
287.9245221168126
 51
355.165433190774
  0
LINE
  5
11B
330
1F
100
AcDbEntity
  8
枠_表
  6
CONTINUOUS
 62
     3
100
AcDbLine
 10
228.4091149463112
 20
1766.872101400075
 30
0.0
 11
228.4091149463112
 21
1769.666601400075
 31
0.0
  0
LINE
  5
11C
330
1F
100
AcDbEntity
  8
枠_表
  6
CONTINUOUS
 62
     3
100
AcDbLine
 10
181.1354899463115
 20
1772.238351400076
 30
0.0
 11
181.1354899463115
 21
1769.808351400074
 31
0.0
  0
LINE
  5
11D
330
1F
100
AcDbEntity
  8
枠_表
  6
CONTINUOUS
 62
     3
100
AcDbLine
 10
188.2229899463119
 20
1782.464601400074
 30
0.0
 11
188.2229899463119
 21
1783.780851400076
 31
0.0
  0
LINE
  5
11E
330
1F
100
AcDbEntity
  8
枠_表
  6
CONTINUOUS
 62
     3
100
AcDbLine
 10
177.4904899463116
 20
1775.174601400075
 30
0.0
 11
177.4904899463116
 21
1770.415851400075
 31
0.0
  0
LINE
  5
11F
330
1F
100
AcDbEntity
  8
枠_表
  6
CONTINUOUS
 62
     3
100
AcDbLine
 10
217.0792399463117
 20
1918.240851400075
 30
0.0
 11
217.0792399463117
 21
1916.924601400075
 31
0.0
  0
ARC
  5
120
330
1F
100
AcDbEntity
  8
枠_表
  6
CONTINUOUS
 62
     3
100
AcDbCircle
 10
188.3669639347509
 20
1800.69838030181
 30
0.0
 40
16.91930610118257
100
AcDbArc
 50
242.3987521421789
 51
269.5124385477116
  0
LINE
  5
121
330
1F
100
AcDbEntity
  8
枠_表
  6
CONTINUOUS
 62
     3
100
AcDbLine
 10
191.2604899463117
 20
1761.202101400076
 30
0.0
 11
188.9317399463113
 21
1761.100851400075
 31
0.0
  0
LINE
  5
122
330
1F
100
AcDbEntity
  8
枠_表
  6
CONTINUOUS
 62
     3
100
AcDbLine
 10
195.4826149463117
 20
1754.063976400074
 30
0.0
 11
191.1592399463115
 21
1754.114601400076
 31
0.0
  0
LINE
  5
123
330
1F
100
AcDbEntity
  8
枠_表
  6
CONTINUOUS
 62
     3
100
AcDbLine
 10
217.3222399463112
 20
1777.928601400076
 30
0.0
 11
214.6694899463112
 21
1778.070351400076
 31
0.0
  0
LINE
  5
124
330
1F
100
AcDbEntity
  8
枠_表
  6
CONTINUOUS
 62
     3
100
AcDbLine
 10
214.2948649463114
 20
1785.248976400075
 30
0.0
 11
211.6117399463446
 21
1785.198351400076
 31
0.0
  0
LINE
  5
125
330
1F
100
AcDbEntity
  8
枠_表
  6
CONTINUOUS
 62
     3
100
AcDbLine
 10
224.4299899463116
 20
1770.243726400076
 30
0.0
 11
224.4704899463117
 21
1768.603476400075
 31
0.0
  0
LINE
  5
126
330
1F
100
AcDbEntity
  8
枠_表
  6
CONTINUOUS
 62
     3
100
AcDbLine
 10
218.1423649463117
 20
1760.635101400075
 30
0.0
 11
218.1423649463117
 21
1759.354359769854
 31
0.0
  0
ARC
  5
127
330
1F
100
AcDbEntity
  8
枠_表
  6
CONTINUOUS
 62
     3
100
AcDbCircle
 10
212.8529156261249
 20
1731.236278396645
 30
0.0
 40
28.61127005606746
100
AcDbArc
 50
63.75919181584974
 51
79.34627598019162
  0
TEXT
  5
128
330
1F
100
AcDbEntity
  8
枠_表
  6
CONTINUOUS
 62
     7
100
AcDbText
 10
167.250003814697
 20
855.0
 30
0.0
 40
89.99999237060547
  1
ＬＵ７１８１５０
 50
270.0
 41
1.01773049277147
  7
EXCADSTD
 72
     5
 11
167.2500038146969
 21
240.000054359436
 31
0.0
100
AcDbText
  0
TEXT
  5
129
330
1F
100
AcDbEntity
  8
枠_表
  6
CONTINUOUS
 62
     2
100
AcDbText
 10
395.6250019073486
 20
2823.75
 30
0.0
 40
63.74999618530273
  1
製図
 50
270.0
 41
1.509694103275159
  7
EXCADSTD
 72
     5
 11
395.6250019073486
 21
2672.511010489654
 31
0.0
100
AcDbText
  0
TEXT
  5
12A
330
1F
100
AcDbEntity
  8
枠_表
  6
CONTINUOUS
 62
     2
100
AcDbText
 10
395.6250019073486
 20
2591.25
 30
0.0
 40
63.74999618530273
  1
写図
 50
270.0
 41
1.509694103275159
  7
EXCADSTD
 72
     5
 11
395.6250019073486
 21
2440.011010489654
 31
0.0
100
AcDbText
  0
TEXT
  5
12B
330
1F
100
AcDbEntity
  8
枠_表
  6
CONTINUOUS
 62
     2
100
AcDbText
 10
395.6250019073486
 20
2366.25
 30
0.0
 40
63.74999618530273
  1
検図
 50
270.0
 41
1.303826737454634
  7
EXCADSTD
 72
     5
 11
395.6250019073486
 21
2235.634507867241
 31
0.0
100
AcDbText
  0
TEXT
  5
12C
330
1F
100
AcDbEntity
  8
枠_表
  6
CONTINUOUS
 62
     2
100
AcDbText
 10
395.6250019073486
 20
2171.25
 30
0.0
 40
63.74999618530273
  1
承認
 50
270.0
 41
1.303826737454632
  7
EXCADSTD
 72
     5
 11
395.6250019073486
 21
2040.634507867241
 31
0.0
100
AcDbText
  0
TEXT
  5
12D
330
1F
100
AcDbEntity
  8
枠_表
  6
CONTINUOUS
 62
     2
100
AcDbText
 10
380.6250019073486
 20
1993.875
 30
0.0
 40
63.74999618530273
  1
品
 50
270.0
 41
1.119999999999999
  7
EXCADSTD
 72
     5
 11
380.6250019073486
 21
1942.875003051758
 31
0.0
100
AcDbText
  0
TEXT
  5
12E
330
1F
100
AcDbEntity
  8
枠_表
  6
CONTINUOUS
 62
     2
100
AcDbText
 10
305.6250019073486
 20
1993.875
 30
0.0
 40
63.74999618530273
  1
名
 50
270.0
 41
1.119999999999999
  7
EXCADSTD
 72
     5
 11
305.6250019073486
 21
1942.875003051758
 31
0.0
100
AcDbText
  0
TEXT
  5
12F
330
1F
100
AcDbEntity
  8
枠_表
  6
CONTINUOUS
 62
     2
100
AcDbText
 10
380.6250019073486
 20
1033.875
 30
0.0
 40
63.74999618530273
  1
品
 50
270.0
 41
1.119999999999999
  7
EXCADSTD
 72
     5
 11
380.6250019073486
 21
982.8750030517579
 31
0.0
100
AcDbText
  0
TEXT
  5
130
330
1F
100
AcDbEntity
  8
枠_表
  6
CONTINUOUS
 62
     2
100
AcDbText
 10
305.6250019073486
 20
1033.875
 30
0.0
 40
63.74999618530273
  1
番
 50
270.0
 41
1.119999999999999
  7
EXCADSTD
 72
     5
 11
305.6250019073486
 21
982.8750030517579
 31
0.0
100
AcDbText
  0
TEXT
  5
131
330
1F
100
AcDbEntity
  8
枠_表
  6
CONTINUOUS
 62
     2
100
AcDbText
 10
211.1250019073485
 20
1033.875
 30
0.0
 40
63.74999618530273
  1
図
 50
270.0
 41
1.119999999999999
  7
EXCADSTD
 72
     5
 11
211.1250019073485
 21
982.8750030517579
 31
0.0
100
AcDbText
  0
TEXT
  5
132
330
1F
100
AcDbEntity
  8
枠_表
  6
CONTINUOUS
 62
     2
100
AcDbText
 10
146.6250019073483
 20
1033.875
 30
0.0
 40
63.74999618530273
  1
番
 50
270.0
 41
1.119999999999999
  7
EXCADSTD
 72
     5
 11
146.6250019073483
 21
982.8750030517579
 31
0.0
100
AcDbText
  0
TEXT
  5
133
330
1F
100
AcDbEntity
  8
枠_表
  6
CONTINUOUS
 62
     2
100
AcDbText
 10
380.6250019073486
 20
402.3749999999998
 30
0.0
 40
63.74999618530273
  1
尺
 50
270.0
 41
1.12
  7
EXCADSTD
 72
     5
 11
380.6250019073486
 21
351.3750030517576
 31
0.0
100
AcDbText
  0
TEXT
  5
134
330
1F
100
AcDbEntity
  8
枠_表
  6
CONTINUOUS
 62
     2
100
AcDbText
 10
305.6250019073486
 20
402.3749999999998
 30
0.0
 40
63.74999618530273
  1
度
 50
270.0
 41
1.12
  7
EXCADSTD
 72
     5
 11
305.6250019073486
 21
351.3750030517576
 31
0.0
100
AcDbText
  0
TEXT
  5
135
330
1F
100
AcDbEntity
  8
枠_表
  6
CONTINUOUS
 62
     2
100
AcDbText
 10
320.0232695999998
 20
230.58105465
 30
0.0
 40
59.99999618530273
  1
１５
 50
270.0
 41
1.020759090909091
  7
EXCADSTD
 72
     5
 11
320.0232695999998
 21
134.3380607689651
 31
0.0
100
AcDbText
  0
TEXT
  5
136
330
1F
100
AcDbEntity
  8
枠_表
  6
CONTINUOUS
 62
     2
100
AcDbText
 10
386.5841674500001
 20
291.6943359
 30
0.0
 40
59.99999618530273
  1
１
 50
270.0
 41
1.12
  7
EXCADSTD
 72
     5
 11
386.5841674500001
 21
243.6943389517578
 31
0.0
100
AcDbText
  0
LINE
  5
137
330
1F
100
AcDbEntity
  8
枠_表
  6
CONTINUOUS
 62
     6
100
AcDbLine
 10
3181.5
 20
2224.5
 30
0.0
 11
4261.500000000001
 21
2224.5
 31
0.0
  0
LINE
  5
138
330
1F
100
AcDbEntity
  8
枠_表
  6
CONTINUOUS
 62
     6
100
AcDbLine
 10
3181.5
 20
2449.5
 30
0.0
 11
4261.500000000001
 21
2449.5
 31
0.0
  0
LINE
  5
139
330
1F
100
AcDbEntity
  8
枠_表
  6
CONTINUOUS
 62
     6
100
AcDbLine
 10
3181.5
 20
2524.5
 30
0.0
 11
4261.500000000001
 21
2524.5
 31
0.0
  0
TEXT
  5
13A
330
1F
100
AcDbEntity
  8
枠_表
  6
CONTINUOUS
 62
     2
100
AcDbText
 10
3189.00000044703
 20
2457.000001907349
 30
0.0
 40
59.99999618530273
  1
配管スペース
 41
0.9999999872843416
  7
EXCADSTD
 72
     5
 11
3488.999977558847
 21
2457.000001907349
 31
0.0
100
AcDbText
  0
TEXT
  5
13B
330
1F
100
AcDbEntity
  8
枠_表
  6
CONTINUOUS
 62
     2
100
AcDbText
 10
3591.000000178815
 20
2457.000001907349
 30
0.0
 40
59.99999618530273
  1
排水心
 41
1.070588224822399
  7
EXCADSTD
 72
     5
 11
3746.999988734724
 21
2457.000001907349
 31
0.0
100
AcDbText
  0
TEXT
  5
13C
330
1F
100
AcDbEntity
  8
枠_表
  6
CONTINUOUS
 62
     2
100
AcDbText
 10
3901.500000447036
 20
2457.000001907349
 30
0.0
 40
59.99999618530273
  1
排水接続部材
 41
0.9999999872843431
  7
EXCADSTD
 72
     5
 11
4201.499977558853
 21
2457.000001907349
 31
0.0
100
AcDbText
  0
TEXT
  5
13D
330
1F
100
AcDbEntity
  8
枠_表
  6
CONTINUOUS
 62
     2
100
AcDbText
 10
3591.000000178815
 20
2382.000001907349
 30
0.0
 40
59.99999618530273
  1
２００
 41
1.070588224822399
  7
EXCADSTD
 72
     5
 11
3746.999988734724
 21
2382.000001907349
 31
0.0
100
AcDbText
  0
TEXT
  5
13E
330
1F
100
AcDbEntity
  8
枠_表
  6
CONTINUOUS
 62
     2
100
AcDbText
 10
3591.000000178815
 20
2307.000001907349
 30
0.0
 40
59.99999618530273
  1
２８０
 41
1.070588224822399
  7
EXCADSTD
 72
     5
 11
3746.999988734724
 21
2307.000001907349
 31
0.0
100
AcDbText
  0
TEXT
  5
13F
330
1F
100
AcDbEntity
  8
枠_表
  6
CONTINUOUS
 62
     2
100
AcDbText
 10
3495.000000536443
 20
2232.000001907349
 30
0.0
 40
59.99999618530273
  1
３８５～４６０
 41
0.990243889413228
  7
EXCADSTD
 72
     5
 11
3842.999973833562
 21
2232.000001907349
 31
0.0
100
AcDbText
  0
TEXT
  5
140
330
1F
100
AcDbEntity
  8
枠_表
  6
CONTINUOUS
 62
     2
100
AcDbText
 10
3877.500000536443
 20
2232.000001907349
 30
0.0
 40
59.99999618530273
  1
排水アジャスタ
 41
0.9902438894132294
  7
EXCADSTD
 72
     5
 11
4225.499973833563
 21
2232.000001907349
 31
0.0
100
AcDbText
  0
LINE
  5
141
330
1F
100
AcDbEntity
  8
枠_表
  6
CONTINUOUS
 62
     6
100
AcDbLine
 10
3181.5
 20
2524.5
 30
0.0
 11
3181.5
 21
2224.5
 31
0.0
  0
LINE
  5
142
330
1F
100
AcDbEntity
  8
枠_表
  6
CONTINUOUS
 62
     6
100
AcDbLine
 10
3496.5
 20
2524.5
 30
0.0
 11
3496.5
 21
2224.5
 31
0.0
  0
LINE
  5
143
330
1F
100
AcDbEntity
  8
枠_表
  6
CONTINUOUS
 62
     6
100
AcDbLine
 10
3841.5
 20
2524.5
 30
0.0
 11
3841.5
 21
2224.5
 31
0.0
  0
LINE
  5
144
330
1F
100
AcDbEntity
  8
枠_表
  6
CONTINUOUS
 62
     6
100
AcDbLine
 10
4261.500000000001
 20
2524.5
 30
0.0
 11
4261.500000000001
 21
2224.5
 31
0.0
  0
LINE
  5
145
330
1F
100
AcDbEntity
  8
枠_表
  6
CONTINUOUS
 62
     6
100
AcDbLine
 10
3496.5
 20
2299.5
 30
0.0
 11
4261.500000000001
 21
2299.5
 31
0.0
  0
TEXT
  5
146
330
1F
100
AcDbEntity
  8
枠_表
  6
CONTINUOUS
 62
     2
100
AcDbText
 10
3901.500000447036
 20
2344.500001907349
 30
0.0
 40
59.99999618530273
  1
排水ソケット
 41
0.9999999872843431
  7
EXCADSTD
 72
     5
 11
4201.499977558853
 21
2344.500001907349
 31
0.0
100
AcDbText
  0
LINE
  5
147
330
1F
100
AcDbEntity
  8
枠_表
  6
CONTINUOUS
 62
     6
100
AcDbLine
 10
3496.5
 20
2374.5
 30
0.0
 11
3841.5
 21
2374.5
 31
0.0
  0
LINE
  5
148
330
1F
100
AcDbEntity
  8
枠_表
  6
CONTINUOUS
 62
     6
100
AcDbLine
 10
3181.5
 20
2029.5
 30
0.0
 11
4261.500000000001
 21
2029.5
 31
0.0
  0
LINE
  5
149
330
1F
100
AcDbEntity
  8
枠_表
  6
CONTINUOUS
 62
     6
100
AcDbLine
 10
3181.5
 20
2104.5
 30
0.0
 11
4261.500000000001
 21
2104.5
 31
0.0
  0
TEXT
  5
14A
330
1F
100
AcDbEntity
  8
枠_表
  6
CONTINUOUS
 62
     2
100
AcDbText
 10
3189.00000044703
 20
2037.000001907349
 30
0.0
 40
59.99999618530273
  1
配管スペース
 41
0.9999999872843416
  7
EXCADSTD
 72
     5
 11
3488.999977558847
 21
2037.000001907349
 31
0.0
100
AcDbText
  0
TEXT
  5
14B
330
1F
100
AcDbEntity
  8
枠_表
  6
CONTINUOUS
 62
     2
100
AcDbText
 10
3213.000000357629
 20
2307.000001907349
 30
0.0
 40
59.99999618530273
  1
９５の場合
 41
1.013793091171089
  7
EXCADSTD
 72
     5
 11
3464.999981284143
 21
2307.000001907349
 31
0.0
100
AcDbText
  0
LINE
  5
14C
330
1F
100
AcDbEntity
  8
枠_表
  6
CONTINUOUS
 62
     6
100
AcDbLine
 10
3181.5
 20
1954.5
 30
0.0
 11
4261.500000000001
 21
1954.5
 31
0.0
  0
TEXT
  5
14D
330
1F
100
AcDbEntity
  8
枠_表
  6
CONTINUOUS
 62
     2
100
AcDbText
 10
3204.000000447036
 20
1962.000001907348
 30
0.0
 40
59.99999618530273
  1
 ９５の場合
 41
0.8749999876375546
  7
EXCADSTD
 72
     5
 11
3473.999979466201
 21
1962.000001907348
 31
0.0
100
AcDbText
  0
LINE
  5
14E
330
1F
100
AcDbEntity
  8
枠_表
  6
CONTINUOUS
 62
     6
100
AcDbLine
 10
3181.5
 20
2104.5
 30
0.0
 11
3181.5
 21
1954.5
 31
0.0
  0
LINE
  5
14F
330
1F
100
AcDbEntity
  8
枠_表
  6
CONTINUOUS
 62
     6
100
AcDbLine
 10
3496.5
 20
2104.5
 30
0.0
 11
3496.5
 21
1954.5
 31
0.0
  0
LINE
  5
150
330
1F
100
AcDbEntity
  8
枠_表
  6
CONTINUOUS
 62
     6
100
AcDbLine
 10
4261.500000000001
 20
2104.5
 30
0.0
 11
4261.500000000001
 21
1954.5
 31
0.0
  0
TEXT
  5
151
330
1F
100
AcDbEntity
  8
枠_表
  6
CONTINUOUS
 62
     2
100
AcDbText
 10
3148.5
 20
2740.499992370606
 30
0.0
 40
59.99999618530273
  1
※注意事項（便器設置）
 41
0.9692307555369835
  7
EXCADSTD
 72
     5
 11
3688.49995803833
 21
2740.499992370606
 31
0.0
100
AcDbText
  0
TEXT
  5
152
330
1F
100
AcDbEntity
  8
枠_表
  6
CONTINUOUS
 62
     2
100
AcDbText
 10
3148.5
 20
2680.499996185303
 30
0.0
 40
59.99999618530273
  1
　本手洗キャビを設置するには、便器と後壁の間に
 41
0.9503649492101358
  7
EXCADSTD
 72
     5
 11
4264.499912261963
 21
2680.499996185303
 31
0.0
100
AcDbText
  0
TEXT
  5
153
330
1F
100
AcDbEntity
  8
枠_表
  6
CONTINUOUS
 62
     2
100
AcDbText
 10
3148.5
 20
2620.5
 30
0.0
 40
59.99999618530273
  1
　８５ミリ以上の配管スペースが必要です
 41
0.9539822867064343
  7
EXCADSTD
 72
     5
 11
4072.499927520752
 21
2620.5
 31
0.0
100
AcDbText
  0
LINE
  5
154
330
1F
100
AcDbEntity
  8
枠_表
  6
CONTINUOUS
 62
     6
100
AcDbLine
 10
3879.0
 20
2104.5
 30
0.0
 11
3879.0
 21
1954.5
 31
0.0
  0
TEXT
  5
155
330
1F
100
AcDbEntity
  8
枠_表
  6
CONTINUOUS
 62
     2
100
AcDbText
 10
3561.750000357629
 20
2037.000001907349
 30
0.0
 40
59.99999618530273
  1
排水管出代
 41
1.013793091171089
  7
EXCADSTD
 72
     5
 11
3813.749981284142
 21
2037.000001907349
 31
0.0
100
AcDbText
  0
TEXT
  5
156
330
1F
100
AcDbEntity
  8
枠_表
  6
CONTINUOUS
 62
     2
100
AcDbText
 10
3609.750000178815
 20
1962.000001907348
 30
0.0
 40
59.99999618530273
  1
１６５
 41
1.070588224822399
  7
EXCADSTD
 72
     5
 11
3765.749988734723
 21
1962.000001907348
 31
0.0
100
AcDbText
  0
TEXT
  5
157
330
1F
100
AcDbEntity
  8
枠_表
  6
CONTINUOUS
 62
     2
100
AcDbText
 10
3944.25000035763
 20
2037.000001907349
 30
0.0
 40
59.99999618530273
  1
排水管高さ
 41
1.013793091171087
  7
EXCADSTD
 72
     5
 11
4196.249981284143
 21
2037.000001907349
 31
0.0
100
AcDbText
  0
TEXT
  5
158
330
1F
100
AcDbEntity
  8
枠_表
  6
CONTINUOUS
 62
     2
100
AcDbText
 10
3992.250000178816
 20
1962.000001907348
 30
0.0
 40
59.99999618530273
  1
１２０
 41
1.070588224822396
  7
EXCADSTD
 72
     5
 11
4148.249988734724
 21
1962.000001907348
 31
0.0
100
AcDbText
  0
TEXT
  5
159
330
1F
100
AcDbEntity
  8
枠_表
  6
CONTINUOUS
 62
     2
100
AcDbText
 10
3181.5
 20
2532.0
 30
0.0
 40
59.99999618530273
  1
◇床排水便器の場合
 41
0.9773584771306252
  7
EXCADSTD
 72
     5
 11
3625.499965667725
 21
2532.0
 31
0.0
100
AcDbText
  0
TEXT
  5
15A
330
1F
100
AcDbEntity
  8
枠_表
  6
CONTINUOUS
 62
     2
100
AcDbText
 10
3181.5
 20
2112.0
 30
0.0
 40
59.99999618530273
  1
◇壁排水便器（後抜き）の場合
 41
0.9614457691912663
  7
EXCADSTD
 72
     5
 11
3865.499946594239
 21
2112.0
 31
0.0
100
AcDbText
  0
TEXT
  5
15B
330
1F
100
AcDbEntity
  8
枠_表
  6
CONTINUOUS
 62
     2
100
AcDbText
 10
262.5000038146973
 20
2823.75
 30
0.0
 40
74.99999237060547
  1
中村
 50
270.0
 41
1.283240004450157
  7
EXCADSTD
 72
     5
 11
262.5000038146973
 21
2672.511014860344
 31
0.0
100
AcDbText
  0
TEXT
  5
15C
330
1F
100
AcDbEntity
  8
枠_表
  6
CONTINUOUS
 62
     2
100
AcDbText
 10
146.2500019073486
 20
2758.125
 30
0.0
 40
52.49999618530273
  1
4
 50
270.0
 41
0.3791666666666626
  7
EXCADSTD
 72
     5
 11
146.2500019073486
 21
2741.062501239777
 31
0.0
100
AcDbText
  0
TEXT
  5
15D
330
1F
100
AcDbEntity
  8
枠_表
  6
CONTINUOUS
 62
     2
100
AcDbText
 10
146.2500019073486
 20
2678.62499985
 30
0.0
 40
52.49999618530273
  1
1
 50
270.0
 41
0.6204545454545388
  7
EXCADSTD
 72
     5
 11
146.2500019073486
 21
2661.562501089777
 31
0.0
100
AcDbText
  0
TEXT
  5
15E
330
1F
100
AcDbEntity
  8
枠_表
  6
CONTINUOUS
 62
     2
100
AcDbText
 10
146.2500019073486
 20
2848.124999971186
 30
0.0
 40
52.49999618530273
  1
'20
 50
270.0
 41
0.4019814765580477
  7
EXCADSTD
 72
     5
 11
146.2500019073486
 21
2800.892179907595
 31
0.0
100
AcDbText
  0
TEXT
  5
15F
330
1F
100
AcDbEntity
  8
枠_表
  6
CONTINUOUS
 62
     2
100
AcDbText
 10
381.0000000000001
 20
1920.0
 30
0.0
 40
67.5
  1
手洗キャビ（集合配管仕様/右勝手）
 50
270.0
 41
0.8816503239678937
  7
EXCADSTD
 72
     5
 11
380.9999999999999
 21
1050.00005531311
 31
0.0
100
AcDbText
  0
TEXT
  5
160
330
1F
100
AcDbEntity
  8
枠_表
  6
CONTINUOUS
 62
     2
100
AcDbText
 10
301.5000000000001
 20
1920.0
 30
0.0
 40
67.5
  1
　　（ＳＭＡ８２０型専用）
 50
270.0
 41
0.9292928702100758
  7
EXCADSTD
 72
     5
 11
301.4999999999999
 21
1230.000043869019
 31
0.0
100
AcDbText
  0
LINE
  5
161
330
1F
100
AcDbEntity
  8
ｶｳﾝﾀｰ_ｷｬﾋﾞﾈｯﾄ
  6
CONTINUOUS
 62
     2
100
AcDbLine
 10
3645.0
 20
1252.5
 30
0.0
 11
3780.0
 21
1252.5
 31
0.0
  0
LINE
  5
162
330
1F
100
AcDbEntity
  8
ｶｳﾝﾀｰ_ｷｬﾋﾞﾈｯﾄ
  6
CONTINUOUS
 62
     2
100
AcDbLine
 10
3645.0
 20
1248.5
 30
0.0
 11
3626.0
 21
1248.5
 31
0.0
  0
LINE
  5
163
330
1F
100
AcDbEntity
  8
ｶｳﾝﾀｰ_ｷｬﾋﾞﾈｯﾄ
  6
CONTINUOUS
 62
     2
100
AcDbLine
 10
3646.999999999998
 20
702.4999999999995
 30
0.0
 11
3667.0
 21
702.4999999999995
 31
0.0
  0
LINE
  5
164
330
1F
100
AcDbEntity
  8
ｶｳﾝﾀｰ_ｷｬﾋﾞﾈｯﾄ
  6
CONTINUOUS
 62
     2
100
AcDbLine
 10
3652.0
 20
702.4999999999995
 30
0.0
 11
3652.0
 21
572.4999999999995
 31
0.0
  0
LINE
  5
165
330
1F
100
AcDbEntity
  8
ｶｳﾝﾀｰ_ｷｬﾋﾞﾈｯﾄ
  6
CONTINUOUS
 62
     2
100
AcDbLine
 10
3667.0
 20
702.4999999999995
 30
0.0
 11
3667.0
 21
572.4999999999995
 31
0.0
  0
LINE
  5
166
330
1F
100
AcDbEntity
  8
ｶｳﾝﾀｰ_ｷｬﾋﾞﾈｯﾄ
  6
CONTINUOUS
 62
     2
100
AcDbLine
 10
3645.0
 20
692.4999999999995
 30
0.0
 11
3626.0
 21
692.4999999999995
 31
0.0
  0
LINE
  5
167
330
1F
100
AcDbEntity
  8
ｶｳﾝﾀｰ_ｷｬﾋﾞﾈｯﾄ
  6
CONTINUOUS
 62
     2
100
AcDbLine
 10
3625.999999999998
 20
692.4999999999995
 30
0.0
 11
3625.999999999998
 21
1248.499999999999
 31
0.0
  0
LINE
  5
168
330
1F
100
AcDbEntity
  8
ｶｳﾝﾀｰ_ｷｬﾋﾞﾈｯﾄ
  6
CONTINUOUS
 62
     2
100
AcDbLine
 10
3652.0
 20
572.4999999999995
 30
0.0
 11
3780.0
 21
572.4999999999995
 31
0.0
  0
LINE
  5
169
330
1F
100
AcDbEntity
  8
ｶｳﾝﾀｰ_ｷｬﾋﾞﾈｯﾄ
  6
CONTINUOUS
 62
     2
100
AcDbLine
 10
3780.0
 20
1452.500000000006
 30
0.0
 11
3780.0
 21
1272.500000000006
 31
0.0
  0
LINE
  5
16A
330
1F
100
AcDbEntity
  8
ｶｳﾝﾀｰ_ｷｬﾋﾞﾈｯﾄ
  6
CONTINUOUS
 62
     2
100
AcDbLine
 10
3763.730060344544
 20
1452.500000000006
 30
0.0
 11
3780.0
 21
1452.500000000006
 31
0.0
  0
ARC
  5
16B
330
1F
100
AcDbEntity
  8
ｶｳﾝﾀｰ_ｷｬﾋﾞﾈｯﾄ
  6
CONTINUOUS
 62
     2
100
AcDbCircle
 10
3763.730060344544
 20
1448.500000000006
 30
0.0
 40
4.0
100
AcDbArc
 50
90.00000000000001
 51
176.0000000000035
  0
ARC
  5
16C
330
1F
100
AcDbEntity
  8
ｶｳﾝﾀｰ_ｷｬﾋﾞﾈｯﾄ
  6
CONTINUOUS
 62
     2
100
AcDbCircle
 10
3752.074330938831
 20
1396.500000000008
 30
0.0
 40
4.0
100
AcDbArc
 50
270.0000000000002
 51
355.9999999999971
  0
LINE
  5
16D
330
1F
100
AcDbEntity
  8
ｶｳﾝﾀｰ_ｷｬﾋﾞﾈｯﾄ
  6
CONTINUOUS
 62
     2
100
AcDbLine
 10
3759.739804143504
 20
1448.779025894983
 30
0.0
 11
3756.06458713987
 21
1396.220974105031
 31
0.0
  0
LINE
  5
16E
330
1F
100
AcDbEntity
  8
ｶｳﾝﾀｰ_ｷｬﾋﾞﾈｯﾄ
  6
CONTINUOUS
 62
     2
100
AcDbLine
 10
3589.0
 20
1392.500000000006
 30
0.0
 11
3752.0743309388
 21
1392.500000000006
 31
0.0
  0
ARC
  5
16F
330
1F
100
AcDbEntity
  8
ｶｳﾝﾀｰ_ｷｬﾋﾞﾈｯﾄ
  6
CONTINUOUS
 62
     2
100
AcDbCircle
 10
3613.956306401607
 20
1277.500000000007
 30
0.0
 40
5.0
100
AcDbArc
 50
193.2557641055684
 51
270.0000000000002
  0
ARC
  5
170
330
1F
100
AcDbEntity
  8
ｶｳﾝﾀｰ_ｷｬﾋﾞﾈｯﾄ
  6
CONTINUOUS
 62
     2
100
AcDbCircle
 10
3589.0
 20
1388.500000000006
 30
0.0
 40
4.0
100
AcDbArc
 50
90.00000000000001
 51
191.0795890467557
  0
ARC
  5
171
330
1F
100
AcDbEntity
  8
ｶｳﾝﾀｰ_ｷｬﾋﾞﾈｯﾄ
  6
CONTINUOUS
 62
     2
100
AcDbCircle
 10
6529.158111549063
 20
1964.248451228714
 30
0.0
 40
3000.000000000002
100
AcDbArc
 50
191.0795890467543
 51
193.2557641055712
  0
LINE
  5
172
330
1F
100
AcDbEntity
  8
ｶｳﾝﾀｰ_ｷｬﾋﾞﾈｯﾄ
  6
CONTINUOUS
 62
     2
100
AcDbLine
 10
3613.9563064016
 20
1272.500000000006
 30
0.0
 11
3780.0
 21
1272.500000000006
 31
0.0
  0
LINE
  5
173
330
1F
100
AcDbEntity
  8
ｶｳﾝﾀｰ_ｷｬﾋﾞﾈｯﾄ
  6
CONTINUOUS
 62
     2
100
AcDbLine
 10
3751.073516747381
 20
1439.530038367901
 30
0.0
 11
3749.469117851271
 21
1416.586065212002
 31
0.0
  0
LINE
  5
174
330
1F
100
AcDbEntity
  8
ｶｳﾝﾀｰ_ｷｬﾋﾞﾈｯﾄ
  6
CONTINUOUS
 62
     2
100
AcDbLine
 10
3749.469117851268
 20
1416.586065211971
 30
0.0
 11
3757.449630253348
 21
1416.028013422018
 31
0.0
  0
LINE
  5
175
330
1F
100
AcDbEntity
  8
ｶｳﾝﾀｰ_ｷｬﾋﾞﾈｯﾄ
  6
CONTINUOUS
 62
     2
100
AcDbLine
 10
3751.073516747383
 20
1439.530038367934
 30
0.0
 11
3759.054029149462
 21
1438.971986577981
 31
0.0
  0
LINE
  5
176
330
1F
100
AcDbEntity
  8
ｶｳﾝﾀｰ_ｷｬﾋﾞﾈｯﾄ
  6
CONTINUOUS
 62
     2
100
AcDbLine
 10
3645.0
 20
1252.5
 30
0.0
 11
3645.0
 21
1272.5
 31
0.0
  0
LINE
  5
177
330
1F
100
AcDbEntity
  8
ｶｳﾝﾀｰ_ｷｬﾋﾞﾈｯﾄ
  6
CONTINUOUS
 62
     2
100
AcDbLine
 10
3780.0
 20
1272.5
 30
0.0
 11
3780.0
 21
572.4999999999995
 31
0.0
  0
LINE
  5
178
330
1F
100
AcDbEntity
  8
ｶｳﾝﾀｰ_ｷｬﾋﾞﾈｯﾄ
  6
CONTINUOUS
 62
     6
100
AcDbLine
 10
3677.5
 20
1420.068014634701
 30
0.0
 11
3677.5
 21
1455.068014634701
 31
0.0
  0
ARC
  5
179
330
1F
100
AcDbEntity
  8
ｶｳﾝﾀｰ_ｷｬﾋﾞﾈｯﾄ
  6
CONTINUOUS
 62
     6
100
AcDbCircle
 10
3522.5
 20
1454.936888165001
 30
0.0
 40
200.0000000000001
100
AcDbArc
 50
0.0
 51
5.984350480638444
  0
ARC
  5
17A
330
1F
100
AcDbEntity
  8
ｶｳﾝﾀｰ_ｷｬﾋﾞﾈｯﾄ
  6
CONTINUOUS
 62
     6
100
AcDbCircle
 10
3705.0
 20
1474.068014634701
 30
0.0
 40
16.5
100
AcDbArc
 50
5.984350480638958
 51
174.015649519361
  0
ARC
  5
17B
330
1F
100
AcDbEntity
  8
ｶｳﾝﾀｰ_ｷｬﾋﾞﾈｯﾄ
  6
CONTINUOUS
 62
     6
100
AcDbCircle
 10
3679.658991576896
 20
1463.068014634701
 30
0.0
 40
8.0
100
AcDbArc
 50
270.0000000000002
 51
357.7596251488985
  0
ARC
  5
17C
330
1F
100
AcDbEntity
  8
ｶｳﾝﾀｰ_ｷｬﾋﾞﾈｯﾄ
  6
CONTINUOUS
 62
     6
100
AcDbCircle
 10
3679.5
 20
1412.068014634701
 30
0.0
 40
8.0
100
AcDbArc
 50
0.0
 51
90.00000000000001
  0
ARC
  5
17D
330
1F
100
AcDbEntity
  8
ｶｳﾝﾀｰ_ｷｬﾋﾞﾈｯﾄ
  6
CONTINUOUS
 62
     6
100
AcDbCircle
 10
3887.500000000002
 20
1454.936888165001
 30
0.0
 40
200.0000000000001
100
AcDbArc
 50
174.0156495193615
 51
177.7596251488979
  0
LINE
  5
17E
330
1F
100
AcDbEntity
  8
ｶｳﾝﾀｰ_ｷｬﾋﾞﾈｯﾄ
  6
CONTINUOUS
 62
     6
100
AcDbLine
 10
3679.658991576896
 20
1455.068014634701
 30
0.0
 11
3677.5
 21
1455.068014634701
 31
0.0
  0
LINE
  5
17F
330
1F
100
AcDbEntity
  8
ｶｳﾝﾀｰ_ｷｬﾋﾞﾈｯﾄ
  6
CONTINUOUS
 62
     6
100
AcDbLine
 10
3679.5
 20
1420.068014634701
 30
0.0
 11
3677.5
 21
1420.068014634701
 31
0.0
  0
LINE
  5
180
330
1F
100
AcDbEntity
  8
ｶｳﾝﾀｰ_ｷｬﾋﾞﾈｯﾄ
  6
CONTINUOUS
 62
     6
100
AcDbLine
 10
3677.500000000024
 20
1420.068014635352
 30
0.0
 11
3656.704941963564
 21
1420.794194063611
 31
0.0
  0
ARC
  5
181
330
1F
100
AcDbEntity
  8
ｶｳﾝﾀｰ_ｷｬﾋﾞﾈｯﾄ
  6
CONTINUOUS
 62
     6
100
AcDbCircle
 10
3658.798911765711
 20
1480.757643684756
 30
0.0
 40
60.0
100
AcDbArc
 50
238.5571033085468
 51
268.0000000000025
  0
ARC
  5
182
330
1F
100
AcDbEntity
  8
ｶｳﾝﾀｰ_ｷｬﾋﾞﾈｯﾄ
  6
CONTINUOUS
 62
     6
100
AcDbCircle
 10
3658.798911765711
 20
1394.378385584645
 30
0.0
 40
60.0
100
AcDbArc
 50
91.9999999999976
 51
121.4428966914532
  0
LINE
  5
183
330
1F
100
AcDbEntity
  8
ｶｳﾝﾀｰ_ｷｬﾋﾞﾈｯﾄ
  6
CONTINUOUS
 62
     6
100
AcDbLine
 10
3677.500000000024
 20
1455.06801463405
 30
0.0
 11
3656.704941963564
 21
1454.341835205791
 31
0.0
  0
LINE
  5
184
330
1F
100
AcDbEntity
  8
ｶｳﾝﾀｰ_ｷｬﾋﾞﾈｯﾄ
  6
CONTINUOUS
 62
     6
100
AcDbLine
 10
3627.5
 20
1429.568014634701
 30
0.0
 11
3627.5
 21
1445.568014634701
 31
0.0
  0
LINE
  5
185
330
1F
100
AcDbEntity
  8
ｶｳﾝﾀｰ_ｷｬﾋﾞﾈｯﾄ
  6
CONTINUOUS
 62
     6
100
AcDbLine
 10
3687.5
 20
1412.068014634701
 30
0.0
 11
3687.5
 21
1392.500000000006
 31
0.0
  0
LINE
  5
186
330
1F
100
AcDbEntity
  8
ｶｳﾝﾀｰ_ｷｬﾋﾞﾈｯﾄ
  6
CONTINUOUS
 62
     6
100
AcDbLine
 10
3722.5
 20
1454.936888165003
 30
0.0
 11
3722.5
 21
1392.500000000006
 31
0.0
  0
LINE
  5
187
330
1F
100
AcDbEntity
  8
ｶｳﾝﾀｰ_ｷｬﾋﾞﾈｯﾄ
  6
CONTINUOUS
 62
     6
100
AcDbLine
 10
3769.999999999998
 20
1427.499999999997
 30
0.0
 11
3818.5
 21
1427.499999999997
 31
0.0
  0
LINE
  5
188
330
1F
100
AcDbEntity
  8
ｶｳﾝﾀｰ_ｷｬﾋﾞﾈｯﾄ
  6
CONTINUOUS
 62
     6
100
AcDbLine
 10
3780.0
 20
1429.0
 30
0.0
 11
3813.5
 21
1427.5
 31
0.0
  0
LINE
  5
189
330
1F
100
AcDbEntity
  8
ｶｳﾝﾀｰ_ｷｬﾋﾞﾈｯﾄ
  6
CONTINUOUS
 62
     6
100
AcDbLine
 10
3780.0
 20
1426.0
 30
0.0
 11
3813.5
 21
1427.5
 31
0.0
  0
LINE
  5
18A
330
1F
100
AcDbEntity
  8
ｶｳﾝﾀｰ_ｷｬﾋﾞﾈｯﾄ
  6
CONTINUOUS
 62
     6
100
AcDbLine
 10
3769.999999999998
 20
1177.499999999997
 30
0.0
 11
3818.5
 21
1177.499999999997
 31
0.0
  0
LINE
  5
18B
330
1F
100
AcDbEntity
  8
ｶｳﾝﾀｰ_ｷｬﾋﾞﾈｯﾄ
  6
CONTINUOUS
 62
     6
100
AcDbLine
 10
3780.0
 20
1179.0
 30
0.0
 11
3813.5
 21
1177.5
 31
0.0
  0
LINE
  5
18C
330
1F
100
AcDbEntity
  8
ｶｳﾝﾀｰ_ｷｬﾋﾞﾈｯﾄ
  6
CONTINUOUS
 62
     6
100
AcDbLine
 10
3780.0
 20
1176.0
 30
0.0
 11
3813.5
 21
1177.5
 31
0.0
  0
LINE
  5
18D
330
1F
100
AcDbEntity
  8
ｶｳﾝﾀｰ_ｷｬﾋﾞﾈｯﾄ
  6
EXLTYPE3
 62
     6
100
AcDbLine
 10
3705.0
 20
1500.568014634701
 30
0.0
 11
3705.0
 21
1372.5
 31
0.0
  0
POLYLINE
  5
18E
330
1F
100
AcDbEntity
  8
ｶｳﾝﾀｰ_ｷｬﾋﾞﾈｯﾄ
  6
CONTINUOUS
 62
     6
100
AcDb2dPolyline
 66
     1
 10
0.0
 20
0.0
 30
0.0
 70
   128
  0
VERTEX
  5
18F
330
18E
100
AcDbEntity
  8
ｶｳﾝﾀｰ_ｷｬﾋﾞﾈｯﾄ
  6
CONTINUOUS
 62
     6
100
AcDbVertex
100
AcDb2dVertex
 10
3611.546008321211
 20
1203.5
 30
0.0
  0
VERTEX
  5
190
330
18E
100
AcDbEntity
  8
ｶｳﾝﾀｰ_ｷｬﾋﾞﾈｯﾄ
  6
CONTINUOUS
 62
     6
100
AcDbVertex
100
AcDb2dVertex
 10
3625.999999999982
 20
1203.5
 30
0.0
  0
VERTEX
  5
191
330
18E
100
AcDbEntity
  8
ｶｳﾝﾀｰ_ｷｬﾋﾞﾈｯﾄ
  6
CONTINUOUS
 62
     6
100
AcDbVertex
100
AcDb2dVertex
 10
3625.999999999982
 20
1213.5
 30
0.0
  0
VERTEX
  5
192
330
18E
100
AcDbEntity
  8
ｶｳﾝﾀｰ_ｷｬﾋﾞﾈｯﾄ
  6
CONTINUOUS
 62
     6
100
AcDbVertex
100
AcDb2dVertex
 10
3611.546008321211
 20
1213.5
 30
0.0
  0
SEQEND
  5
193
330
18E
100
AcDbEntity
  8
ｶｳﾝﾀｰ_ｷｬﾋﾞﾈｯﾄ
  6
CONTINUOUS
 62
     6
  0
ARC
  5
194
330
1F
100
AcDbEntity
  8
ｶｳﾝﾀｰ_ｷｬﾋﾞﾈｯﾄ
  6
CONTINUOUS
 62
     6
100
AcDbCircle
 10
3611.546008321211
 20
1178.5
 30
0.0
 40
25.0
100
AcDbArc
 50
90.00000000000036
 51
113.921462620877
  0
ARC
  5
195
330
1F
100
AcDbEntity
  8
ｶｳﾝﾀｰ_ｷｬﾋﾞﾈｯﾄ
  6
CONTINUOUS
 62
     6
100
AcDbCircle
 10
3611.546008321211
 20
1238.5
 30
0.0
 40
25.0
100
AcDbArc
 50
246.07853737912
 51
270.0
  0
ARC
  5
196
330
1F
100
AcDbEntity
  8
ｶｳﾝﾀｰ_ｷｬﾋﾞﾈｯﾄ
  6
CONTINUOUS
 62
     6
100
AcDbCircle
 10
3601.071796769702
 20
1215.25
 30
0.0
 40
0.5
100
AcDbArc
 50
66.53216157099014
 51
138.285625463034
  0
ARC
  5
197
330
1F
100
AcDbEntity
  8
ｶｳﾝﾀｰ_ｷｬﾋﾞﾈｯﾄ
  6
CONTINUOUS
 62
     6
100
AcDbCircle
 10
3608.644005008282
 20
1208.5
 30
0.0
 40
10.644005008294
100
AcDbArc
 50
138.285625463044
 51
221.71437453696
  0
LINE
  5
198
330
1F
100
AcDbEntity
  8
ｶｳﾝﾀｰ_ｷｬﾋﾞﾈｯﾄ
  6
CONTINUOUS
 62
     6
100
AcDbLine
 10
3601.408907525081
 20
1215.647446806774
 30
0.0
 11
3601.274538785632
 21
1215.707051063865
 31
0.0
  0
ARC
  5
199
330
1F
100
AcDbEntity
  8
ｶｳﾝﾀｰ_ｷｬﾋﾞﾈｯﾄ
  6
CONTINUOUS
 62
     6
100
AcDbCircle
 10
3601.071796769702
 20
1201.75
 30
0.0
 40
0.5
100
AcDbArc
 50
221.71437453696
 51
293.4678384290201
  0
LINE
  5
19A
330
1F
100
AcDbEntity
  8
ｶｳﾝﾀｰ_ｷｬﾋﾞﾈｯﾄ
  6
CONTINUOUS
 62
     6
100
AcDbLine
 10
3601.408907525081
 20
1201.352553193225
 30
0.0
 11
3601.274538785632
 21
1201.292948936135
 31
0.0
  0
LINE
  5
19B
330
1F
100
AcDbEntity
  8
ｶｳﾝﾀｰ_ｷｬﾋﾞﾈｯﾄ
  6
CONTINUOUS
 62
     6
100
AcDbLine
 10
3644.999999999998
 20
692.4999999999995
 30
0.0
 11
3644.999999999998
 21
1248.499999999999
 31
0.0
  0
LINE
  5
19C
330
1F
100
AcDbEntity
  8
ｶｳﾝﾀｰ_ｷｬﾋﾞﾈｯﾄ
  6
CONTINUOUS
 62
     6
100
AcDbLine
 10
3646.999999999998
 20
1252.5
 30
0.0
 11
3646.999999999998
 21
702.4999999999995
 31
0.0
  0
LINE
  5
19D
330
1F
100
AcDbEntity
  8
ｶｳﾝﾀｰ_ｷｬﾋﾞﾈｯﾄ
  6
CONTINUOUS
 62
     6
100
AcDbLine
 10
3770.0
 20
1047.500000000004
 30
0.0
 11
3818.500000000002
 21
1047.500000000004
 31
0.0
  0
LINE
  5
19E
330
1F
100
AcDbEntity
  8
ｶｳﾝﾀｰ_ｷｬﾋﾞﾈｯﾄ
  6
CONTINUOUS
 62
     6
100
AcDbLine
 10
3780.000000000002
 20
1046.0
 30
0.0
 11
3813.500000000002
 21
1047.5
 31
0.0
  0
LINE
  5
19F
330
1F
100
AcDbEntity
  8
ｶｳﾝﾀｰ_ｷｬﾋﾞﾈｯﾄ
  6
CONTINUOUS
 62
     6
100
AcDbLine
 10
3780.000000000002
 20
1049.0
 30
0.0
 11
3813.500000000002
 21
1047.5
 31
0.0
  0
LINE
  5
1A0
330
1F
100
AcDbEntity
  8
ｶｳﾝﾀｰ_ｷｬﾋﾞﾈｯﾄ
  6
CONTINUOUS
 62
     6
100
AcDbLine
 10
3770.0
 20
977.5000000000041
 30
0.0
 11
3818.500000000002
 21
977.5000000000041
 31
0.0
  0
LINE
  5
1A1
330
1F
100
AcDbEntity
  8
ｶｳﾝﾀｰ_ｷｬﾋﾞﾈｯﾄ
  6
CONTINUOUS
 62
     6
100
AcDbLine
 10
3780.000000000002
 20
976.0000000000003
 30
0.0
 11
3813.500000000002
 21
977.5000000000005
 31
0.0
  0
LINE
  5
1A2
330
1F
100
AcDbEntity
  8
ｶｳﾝﾀｰ_ｷｬﾋﾞﾈｯﾄ
  6
CONTINUOUS
 62
     6
100
AcDbLine
 10
3780.000000000002
 20
979.0000000000005
 30
0.0
 11
3813.500000000002
 21
977.5000000000005
 31
0.0
  0
LINE
  5
1A3
330
1F
100
AcDbEntity
  8
ｶｳﾝﾀｰ_ｷｬﾋﾞﾈｯﾄ
  6
CONTINUOUS
 62
     6
100
AcDbLine
 10
3770.0
 20
1026.799999999704
 30
0.0
 11
3818.500000000002
 21
1026.799999999704
 31
0.0
  0
LINE
  5
1A4
330
1F
100
AcDbEntity
  8
ｶｳﾝﾀｰ_ｷｬﾋﾞﾈｯﾄ
  6
CONTINUOUS
 62
     6
100
AcDbLine
 10
3780.000000000002
 20
1025.299999999701
 30
0.0
 11
3813.500000000002
 21
1026.799999999701
 31
0.0
  0
LINE
  5
1A5
330
1F
100
AcDbEntity
  8
ｶｳﾝﾀｰ_ｷｬﾋﾞﾈｯﾄ
  6
CONTINUOUS
 62
     6
100
AcDbLine
 10
3780.000000000002
 20
1028.299999999701
 30
0.0
 11
3813.500000000002
 21
1026.799999999701
 31
0.0
  0
LINE
  5
1A6
330
1F
100
AcDbEntity
  8
ｶｳﾝﾀｰ_ｷｬﾋﾞﾈｯﾄ
  6
CONTINUOUS
 62
     6
100
AcDbLine
 10
3770.0
 20
1014.200371133104
 30
0.0
 11
3818.500000000002
 21
1014.200371133104
 31
0.0
  0
LINE
  5
1A7
330
1F
100
AcDbEntity
  8
ｶｳﾝﾀｰ_ｷｬﾋﾞﾈｯﾄ
  6
CONTINUOUS
 62
     6
100
AcDbLine
 10
3780.000000000002
 20
1012.7003711331
 30
0.0
 11
3813.500000000002
 21
1014.2003711331
 31
0.0
  0
LINE
  5
1A8
330
1F
100
AcDbEntity
  8
ｶｳﾝﾀｰ_ｷｬﾋﾞﾈｯﾄ
  6
CONTINUOUS
 62
     6
100
AcDbLine
 10
3780.000000000002
 20
1015.7003711331
 30
0.0
 11
3813.500000000002
 21
1014.2003711331
 31
0.0
  0
LINE
  5
1A9
330
1F
100
AcDbEntity
  8
ｶｳﾝﾀｰ_ｷｬﾋﾞﾈｯﾄ
  6
EXLTYPE2
 62
     6
100
AcDbLine
 10
3780.000000000002
 20
1067.5
 30
0.0
 11
3772.842207094702
 21
1067.5
 31
0.0
  0
ARC
  5
1AA
330
1F
100
AcDbEntity
  8
ｶｳﾝﾀｰ_ｷｬﾋﾞﾈｯﾄ
  6
EXLTYPE2
 62
     6
100
AcDbCircle
 10
3772.842207094705
 20
1064.5
 30
0.0
 40
3.000000000000001
100
AcDbArc
 50
90.00000000006946
 51
127.7826208409748
  0
ARC
  5
1AB
330
1F
100
AcDbEntity
  8
ｶｳﾝﾀｰ_ｷｬﾋﾞﾈｯﾄ
  6
EXLTYPE2
 62
     6
100
AcDbCircle
 10
3713.829705854079
 20
1056.0
 30
0.0
 40
1.5
100
AcDbArc
 50
90.00000000000001
 51
191.3099324740066
  0
LINE
  5
1AC
330
1F
100
AcDbEntity
  8
ｶｳﾝﾀｰ_ｷｬﾋﾞﾈｯﾄ
  6
EXLTYPE2
 62
     6
100
AcDbLine
 10
3715.000000000002
 20
1042.5
 30
0.0
 11
3715.000000000002
 21
959.0000000000005
 31
0.0
  0
ARC
  5
1AD
330
1F
100
AcDbEntity
  8
ｶｳﾝﾀｰ_ｷｬﾋﾞﾈｯﾄ
  6
EXLTYPE2
 62
     6
100
AcDbCircle
 10
3716.500000000002
 20
959.0000000000005
 30
0.0
 40
1.5
100
AcDbArc
 50
180.0
 51
270.0
  0
LINE
  5
1AE
330
1F
100
AcDbEntity
  8
ｶｳﾝﾀｰ_ｷｬﾋﾞﾈｯﾄ
  6
EXLTYPE2
 62
     6
100
AcDbLine
 10
3780.000000000002
 20
957.5000000000005
 30
0.0
 11
3716.500000000002
 21
957.5000000000005
 31
0.0
  0
LINE
  5
1AF
330
1F
100
AcDbEntity
  8
ｶｳﾝﾀｰ_ｷｬﾋﾞﾈｯﾄ
  6
EXLTYPE2
 62
     6
100
AcDbLine
 10
3760.64176487767
 20
1058.838123307809
 30
0.0
 11
3768.419243200555
 21
1064.867176271287
 31
0.0
  0
LINE
  5
1B0
330
1F
100
AcDbEntity
  8
ｶｳﾝﾀｰ_ｷｬﾋﾞﾈｯﾄ
  6
EXLTYPE2
 62
     6
100
AcDbLine
 10
3756.200000000001
 20
1057.5
 30
0.0
 11
3713.829705854079
 21
1057.5
 31
0.0
  0
LINE
  5
1B1
330
1F
100
AcDbEntity
  8
ｶｳﾝﾀｰ_ｷｬﾋﾞﾈｯﾄ
  6
EXLTYPE2
 62
     6
100
AcDbLine
 10
3715.000000000002
 20
1042.5
 30
0.0
 11
3713.059615384617
 21
1052.201923076923
 31
0.0
  0
LINE
  5
1B2
330
1F
100
AcDbEntity
  8
ｶｳﾝﾀｰ_ｷｬﾋﾞﾈｯﾄ
  6
EXLTYPE4
 62
     6
100
AcDbLine
 10
3652.0
 20
572.5
 30
0.0
 11
3152.0
 21
572.5
 31
0.0
  0
LINE
  5
1B3
330
1F
100
AcDbEntity
  8
ｶｳﾝﾀｰ_ｷｬﾋﾞﾈｯﾄ
  6
CONTINUOUS
 62
     6
100
AcDbLine
 10
3608.000000000003
 20
864.1649914156001
 30
0.0
 11
3608.000000000003
 21
904.1649914156001
 31
0.0
  0
LINE
  5
1B4
330
1F
100
AcDbEntity
  8
ｶｳﾝﾀｰ_ｷｬﾋﾞﾈｯﾄ
  6
CONTINUOUS
 62
     6
100
AcDbLine
 10
3592.000000000003
 20
864.1649914156001
 30
0.0
 11
3592.000000000003
 21
904.1649914156001
 31
0.0
  0
LINE
  5
1B5
330
1F
100
AcDbEntity
  8
ｶｳﾝﾀｰ_ｷｬﾋﾞﾈｯﾄ
  6
CONTINUOUS
 62
     6
100
AcDbLine
 10
3592.000000000003
 20
864.1649914156001
 30
0.0
 11
3608.000000000003
 21
864.1649914156001
 31
0.0
  0
LINE
  5
1B6
330
1F
100
AcDbEntity
  8
ｶｳﾝﾀｰ_ｷｬﾋﾞﾈｯﾄ
  6
CONTINUOUS
 62
     6
100
AcDbLine
 10
3592.000000000003
 20
904.1649914156001
 30
0.0
 11
3608.000000000003
 21
904.1649914156001
 31
0.0
  0
LINE
  5
1B7
330
1F
100
AcDbEntity
  8
ｶｳﾝﾀｰ_ｷｬﾋﾞﾈｯﾄ
  6
CONTINUOUS
 62
     6
100
AcDbLine
 10
3608.000000000003
 20
865.4649914156003
 30
0.0
 11
3613.000000000003
 21
865.4649914156003
 31
0.0
  0
LINE
  5
1B8
330
1F
100
AcDbEntity
  8
ｶｳﾝﾀｰ_ｷｬﾋﾞﾈｯﾄ
  6
CONTINUOUS
 62
     6
100
AcDbLine
 10
3587.000000000003
 20
865.4649914156003
 30
0.0
 11
3592.000000000003
 21
865.4649914156003
 31
0.0
  0
LINE
  5
1B9
330
1F
100
AcDbEntity
  8
ｶｳﾝﾀｰ_ｷｬﾋﾞﾈｯﾄ
  6
CONTINUOUS
 62
     6
100
AcDbLine
 10
3608.000000000003
 20
902.8649914155999
 30
0.0
 11
3613.000000000003
 21
902.8649914155999
 31
0.0
  0
LINE
  5
1BA
330
1F
100
AcDbEntity
  8
ｶｳﾝﾀｰ_ｷｬﾋﾞﾈｯﾄ
  6
CONTINUOUS
 62
     6
100
AcDbLine
 10
3587.000000000003
 20
902.8649914155999
 30
0.0
 11
3592.000000000003
 21
902.8649914155999
 31
0.0
  0
ARC
  5
1BB
330
1F
100
AcDbEntity
  8
ｶｳﾝﾀｰ_ｷｬﾋﾞﾈｯﾄ
  6
CONTINUOUS
 62
     6
100
AcDbCircle
 10
3608.000000000003
 20
858.6649914156001
 30
0.0
 40
5.0
100
AcDbArc
 50
270.0
 51
0.0
  0
ARC
  5
1BC
330
1F
100
AcDbEntity
  8
ｶｳﾝﾀｰ_ｷｬﾋﾞﾈｯﾄ
  6
CONTINUOUS
 62
     6
100
AcDbCircle
 10
3608.000000000003
 20
909.6649914156001
 30
0.0
 40
5.0
100
AcDbArc
 50
0.0
 51
90.00000000000001
  0
ARC
  5
1BD
330
1F
100
AcDbEntity
  8
ｶｳﾝﾀｰ_ｷｬﾋﾞﾈｯﾄ
  6
CONTINUOUS
 62
     6
100
AcDbCircle
 10
3592.000000000003
 20
909.6649914156001
 30
0.0
 40
5.0
100
AcDbArc
 50
90.00000000000001
 51
180.0
  0
ARC
  5
1BE
330
1F
100
AcDbEntity
  8
ｶｳﾝﾀｰ_ｷｬﾋﾞﾈｯﾄ
  6
CONTINUOUS
 62
     6
100
AcDbCircle
 10
3592.000000000003
 20
858.6649914156001
 30
0.0
 40
5.0
100
AcDbArc
 50
180.0
 51
270.0
  0
LINE
  5
1BF
330
1F
100
AcDbEntity
  8
ｶｳﾝﾀｰ_ｷｬﾋﾞﾈｯﾄ
  6
CONTINUOUS
 62
     6
100
AcDbLine
 10
3592.000000000003
 20
853.6649914156001
 30
0.0
 11
3608.000000000003
 21
853.6649914156001
 31
0.0
  0
LINE
  5
1C0
330
1F
100
AcDbEntity
  8
ｶｳﾝﾀｰ_ｷｬﾋﾞﾈｯﾄ
  6
CONTINUOUS
 62
     6
100
AcDbLine
 10
3587.000000000003
 20
858.6649914156001
 30
0.0
 11
3587.000000000003
 21
909.6649914156001
 31
0.0
  0
LINE
  5
1C1
330
1F
100
AcDbEntity
  8
ｶｳﾝﾀｰ_ｷｬﾋﾞﾈｯﾄ
  6
CONTINUOUS
 62
     6
100
AcDbLine
 10
3592.000000000003
 20
914.6649914156001
 30
0.0
 11
3608.000000000003
 21
914.6649914156001
 31
0.0
  0
LINE
  5
1C2
330
1F
100
AcDbEntity
  8
ｶｳﾝﾀｰ_ｷｬﾋﾞﾈｯﾄ
  6
CONTINUOUS
 62
     6
100
AcDbLine
 10
3613.000000000003
 20
858.6649914156001
 30
0.0
 11
3613.000000000003
 21
909.6649914156001
 31
0.0
  0
LINE
  5
1C3
330
1F
100
AcDbEntity
  8
ｶｳﾝﾀｰ_ｷｬﾋﾞﾈｯﾄ
  6
CONTINUOUS
 62
     6
100
AcDbLine
 10
3600.000000000005
 20
915.864991415599
 30
0.0
 11
3600.000000000005
 21
896.4649914155993
 31
0.0
  0
LINE
  5
1C4
330
1F
100
AcDbEntity
  8
ｶｳﾝﾀｰ_ｷｬﾋﾞﾈｯﾄ
  6
CONTINUOUS
 62
     6
100
AcDbLine
 10
3609.700000000003
 20
906.1649914156001
 30
0.0
 11
3590.300000000004
 21
906.1649914156001
 31
0.0
  0
LINE
  5
1C5
330
1F
100
AcDbEntity
  8
ｶｳﾝﾀｰ_ｷｬﾋﾞﾈｯﾄ
  6
CONTINUOUS
 62
     6
100
AcDbLine
 10
3600.000000000005
 20
871.864991415599
 30
0.0
 11
3600.000000000005
 21
852.4649914155993
 31
0.0
  0
LINE
  5
1C6
330
1F
100
AcDbEntity
  8
ｶｳﾝﾀｰ_ｷｬﾋﾞﾈｯﾄ
  6
CONTINUOUS
 62
     6
100
AcDbLine
 10
3609.700000000003
 20
862.1649914156001
 30
0.0
 11
3590.300000000004
 21
862.1649914156001
 31
0.0
  0
ARC
  5
1C7
330
1F
100
AcDbEntity
  8
ｶｳﾝﾀｰ_ｷｬﾋﾞﾈｯﾄ
  6
CONTINUOUS
 62
     6
100
AcDbCircle
 10
3600.000000000003
 20
906.1649914155992
 30
0.0
 40
4.7
100
AcDbArc
 50
334.8156634660377
 51
205.1843365339623
  0
ARC
  5
1C8
330
1F
100
AcDbEntity
  8
ｶｳﾝﾀｰ_ｷｬﾋﾞﾈｯﾄ
  6
CONTINUOUS
 62
     6
100
AcDbCircle
 10
3600.000000000003
 20
862.1649914155992
 30
0.0
 40
4.7
100
AcDbArc
 50
154.8156634660176
 51
25.18433653399182
  0
LINE
  5
1C9
330
1F
100
AcDbEntity
  8
ｶｳﾝﾀｰ_ｷｬﾋﾞﾈｯﾄ
  6
CONTINUOUS
 62
     2
100
AcDbLine
 10
3626.000000000003
 20
901.2514144155734
 30
0.0
 11
3613.000000000003
 21
900.7150101850834
 31
0.0
  0
LINE
  5
1CA
330
1F
100
AcDbEntity
  8
ｶｳﾝﾀｰ_ｷｬﾋﾞﾈｯﾄ
  6
CONTINUOUS
 62
     2
100
AcDbLine
 10
3626.000000000001
 20
869.224185337725
 30
0.0
 11
3613.000000000003
 21
868.687781107235
 31
0.0
  0
LINE
  5
1CB
330
1F
100
AcDbEntity
  8
ｶｳﾝﾀｰ_ｷｬﾋﾞﾈｯﾄ
  6
CONTINUOUS
 62
     2
100
AcDbLine
 10
3587.000000000003
 20
899.6422017241016
 30
0.0
 11
3443.794036365231
 21
893.7332567452445
 31
0.0
  0
LINE
  5
1CC
330
1F
100
AcDbEntity
  8
ｶｳﾝﾀｰ_ｷｬﾋﾞﾈｯﾄ
  6
CONTINUOUS
 62
     2
100
AcDbLine
 10
3587.000000000003
 20
867.614972646254
 30
0.0
 11
3445.113293442214
 21
861.7604626733341
 31
0.0
  0
LINE
  5
1CD
330
1F
100
AcDbEntity
  8
ｶｳﾝﾀｰ_ｷｬﾋﾞﾈｯﾄ
  6
EXLTYPE4
 62
     6
100
AcDbLine
 10
3780.0
 20
1452.5
 30
0.0
 11
3780.0
 21
1602.5
 31
0.0
  0
LINE
  5
1CE
330
1F
100
AcDbEntity
  8
ｶｳﾝﾀｰ_ｷｬﾋﾞﾈｯﾄ
  6
CONTINUOUS
 62
     6
100
AcDbLine
 10
3425.728827533875
 20
899.7936387364257
 30
0.0
 11
3427.608768868574
 21
854.2324071839525
 31
0.0
  0
LINE
  5
1CF
330
1F
100
AcDbEntity
  8
ｶｳﾝﾀｰ_ｷｬﾋﾞﾈｯﾄ
  6
CONTINUOUS
 62
     6
100
AcDbLine
 10
3443.513694236374
 20
900.5274754854968
 30
0.0
 11
3445.393635571075
 21
854.9662439330245
 31
0.0
  0
LINE
  5
1D0
330
1F
100
AcDbEntity
  8
ｶｳﾝﾀｰ_ｷｬﾋﾞﾈｯﾄ
  6
CONTINUOUS
 62
     6
100
AcDbLine
 10
3445.393635571075
 20
854.9662439330245
 30
0.0
 11
3427.608768868574
 21
854.2324071839525
 31
0.0
  0
LINE
  5
1D1
330
1F
100
AcDbEntity
  8
ｶｳﾝﾀｰ_ｷｬﾋﾞﾈｯﾄ
  6
CONTINUOUS
 62
     6
100
AcDbLine
 10
3443.513694236374
 20
900.5274754854968
 30
0.0
 11
3425.728827533875
 21
899.7936387364257
 31
0.0
  0
CIRCLE
  5
1D2
330
1F
100
AcDbEntity
  8
ｶｳﾝﾀｰ_ｷｬﾋﾞﾈｯﾄ
  6
CONTINUOUS
 62
     6
100
AcDbCircle
 10
3390.000000000003
 20
875.5000000000005
 30
0.0
 40
14.0
  0
ARC
  5
1D3
330
1F
100
AcDbEntity
  8
ｶｳﾝﾀｰ_ｷｬﾋﾞﾈｯﾄ
  6
CONTINUOUS
 62
     6
100
AcDbCircle
 10
3435.175084930445
 20
893.4997611956519
 30
0.0
 40
8.621249999889734
100
AcDbArc
 50
312.3564944725094
 51
2.362790347498627
  0
ARC
  5
1D4
330
1F
100
AcDbEntity
  8
ｶｳﾝﾀｰ_ｷｬﾋﾞﾈｯﾄ
  6
CONTINUOUS
 62
     6
100
AcDbCircle
 10
3436.504404196446
 20
861.2831054056946
 30
0.0
 40
8.621249999888418
100
AcDbArc
 50
2.362790347499142
 51
52.36908622250408
  0
ARC
  5
1D5
330
1F
100
AcDbEntity
  8
ｶｳﾝﾀｰ_ｷｬﾋﾞﾈｯﾄ
  6
CONTINUOUS
 62
     6
100
AcDbCircle
 10
3428.224974037753
 20
877.0772336757359
 30
0.0
 40
16.24249999994036
100
AcDbArc
 50
326.4932151927603
 51
38.23236550223109
  0
LINE
  5
1D6
330
1F
100
AcDbEntity
  8
ｶｳﾝﾀｰ_ｷｬﾋﾞﾈｯﾄ
  6
CONTINUOUS
 62
     6
100
AcDbLine
 10
3441.768302816602
 20
868.1107933655999
 30
0.0
 11
3427.061160306183
 21
867.5039492532146
 31
0.0
  0
LINE
  5
1D7
330
1F
100
AcDbEntity
  8
ｶｳﾝﾀｰ_ｷｬﾋﾞﾈｯﾄ
  6
CONTINUOUS
 62
     6
100
AcDbLine
 10
3440.983578606702
 20
887.1289407795998
 30
0.0
 11
3426.276436096264
 21
886.5220966672136
 31
0.0
  0
LINE
  5
1D8
330
1F
100
AcDbEntity
  8
ｶｳﾝﾀｰ_ｷｬﾋﾞﾈｯﾄ
  6
CONTINUOUS
 62
     6
100
AcDbLine
 10
3425.885489311765
 20
895.9968694403856
 30
0.0
 11
3404.272473180742
 21
895.1050761106676
 31
0.0
  0
LINE
  5
1D9
330
1F
100
AcDbEntity
  8
ｶｳﾝﾀｰ_ｷｬﾋﾞﾈｯﾄ
  6
CONTINUOUS
 62
     6
100
AcDbLine
 10
3427.452107090682
 20
858.0291764799927
 30
0.0
 11
3405.839090959721
 21
857.1373831502774
 31
0.0
  0
CIRCLE
  5
1DA
330
1F
100
AcDbEntity
  8
ｶｳﾝﾀｰ_ｷｬﾋﾞﾈｯﾄ
  6
CONTINUOUS
 62
     6
100
AcDbCircle
 10
3390.000000000003
 20
875.5000000000005
 30
0.0
 40
24.25
  0
CIRCLE
  5
1DB
330
1F
100
AcDbEntity
  8
ｶｳﾝﾀｰ_ｷｬﾋﾞﾈｯﾄ
  6
CONTINUOUS
 62
     6
100
AcDbCircle
 10
3390.000000000003
 20
875.5000000000005
 30
0.0
 40
21.0
  0
CIRCLE
  5
1DC
330
1F
100
AcDbEntity
  8
ｶｳﾝﾀｰ_ｷｬﾋﾞﾈｯﾄ
  6
CONTINUOUS
 62
     6
100
AcDbCircle
 10
3390.000000000003
 20
875.5000000000005
 30
0.0
 40
19.5
  0
CIRCLE
  5
1DD
330
1F
100
AcDbEntity
  8
ｶｳﾝﾀｰ_ｷｬﾋﾞﾈｯﾄ
  6
CONTINUOUS
 62
     6
100
AcDbCircle
 10
3390.000000000001
 20
875.5000000000241
 30
0.0
 40
16.0
  0
LINE
  5
1DE
330
1F
100
AcDbEntity
  8
ｶｳﾝﾀｰ_ｷｬﾋﾞﾈｯﾄ
  6
CONTINUOUS
 62
     6
100
AcDbLine
 10
3424.250000000003
 20
875.5000000000005
 30
0.0
 11
3355.750000000003
 21
875.5000000000005
 31
0.0
  0
LINE
  5
1DF
330
1F
100
AcDbEntity
  8
ｶｳﾝﾀｰ_ｷｬﾋﾞﾈｯﾄ
  6
CONTINUOUS
 62
     6
100
AcDbLine
 10
3390.000000000003
 20
841.2500000000005
 30
0.0
 11
3390.000000000003
 21
909.7500000000005
 31
0.0
  0
LINE
  5
1E0
330
1F
100
AcDbEntity
  8
ｶｳﾝﾀｰ_ｷｬﾋﾞﾈｯﾄ
  6
CONTINUOUS
 62
     2
100
AcDbLine
 10
2489.999999999999
 20
1252.5
 30
0.0
 11
2819.999999999999
 21
1252.5
 31
0.0
  0
LINE
  5
1E1
330
1F
100
AcDbEntity
  8
ｶｳﾝﾀｰ_ｷｬﾋﾞﾈｯﾄ
  6
CONTINUOUS
 62
     2
100
AcDbLine
 10
2491.999999999999
 20
1248.5
 30
0.0
 11
2818.000000000001
 21
1248.5
 31
0.0
  0
LINE
  5
1E2
330
1F
100
AcDbEntity
  8
ｶｳﾝﾀｰ_ｷｬﾋﾞﾈｯﾄ
  6
CONTINUOUS
 62
     2
100
AcDbLine
 10
2491.999999999999
 20
1248.5
 30
0.0
 11
2491.999999999999
 21
692.5
 31
0.0
  0
LINE
  5
1E3
330
1F
100
AcDbEntity
  8
ｶｳﾝﾀｰ_ｷｬﾋﾞﾈｯﾄ
  6
CONTINUOUS
 62
     2
100
AcDbLine
 10
2489.999999999999
 20
572.5
 30
0.0
 11
2489.999999999999
 21
1252.5
 31
0.0
  0
LINE
  5
1E4
330
1F
100
AcDbEntity
  8
ｶｳﾝﾀｰ_ｷｬﾋﾞﾈｯﾄ
  6
CONTINUOUS
 62
     2
100
AcDbLine
 10
2817.999999999999
 20
692.5
 30
0.0
 11
2817.999999999999
 21
1248.5
 31
0.0
  0
LINE
  5
1E5
330
1F
100
AcDbEntity
  8
ｶｳﾝﾀｰ_ｷｬﾋﾞﾈｯﾄ
  6
CONTINUOUS
 62
     2
100
AcDbLine
 10
2819.999999999999
 20
572.5
 30
0.0
 11
2819.999999999999
 21
1252.5
 31
0.0
  0
LINE
  5
1E6
330
1F
100
AcDbEntity
  8
ｶｳﾝﾀｰ_ｷｬﾋﾞﾈｯﾄ
  6
CONTINUOUS
 62
     2
100
AcDbLine
 10
2492.000000000001
 20
692.5
 30
0.0
 11
2817.999999999999
 21
692.5
 31
0.0
  0
LINE
  5
1E7
330
1F
100
AcDbEntity
  8
ｶｳﾝﾀｰ_ｷｬﾋﾞﾈｯﾄ
  6
CONTINUOUS
 62
     2
100
AcDbLine
 10
2490.000000000001
 20
572.5
 30
0.0
 11
2819.999999999999
 21
572.5
 31
0.0
  0
LINE
  5
1E8
330
1F
100
AcDbEntity
  8
ｶｳﾝﾀｰ_ｷｬﾋﾞﾈｯﾄ
  6
EXLTYPE3
 62
     6
100
AcDbLine
 10
2818.000000000001
 20
970.4999999999997
 30
0.0
 11
2492.000000000001
 21
692.5
 31
0.0
  0
LINE
  5
1E9
330
1F
100
AcDbEntity
  8
ｶｳﾝﾀｰ_ｷｬﾋﾞﾈｯﾄ
  6
EXLTYPE3
 62
     6
100
AcDbLine
 10
2492.000000000001
 20
1248.5
 30
0.0
 11
2818.000000000001
 21
970.4999999999997
 31
0.0
  0
LINE
  5
1EA
330
1F
100
AcDbEntity
  8
ｶｳﾝﾀｰ_ｷｬﾋﾞﾈｯﾄ
  6
CONTINUOUS
 62
     2
100
AcDbLine
 10
2478.908381128868
 20
1448.593792960598
 30
0.0
 11
2477.501099791124
 21
1388.593792960598
 31
0.0
  0
ARC
  5
1EB
330
1F
100
AcDbEntity
  8
ｶｳﾝﾀｰ_ｷｬﾋﾞﾈｯﾄ
  6
CONTINUOUS
 62
     2
100
AcDbCircle
 10
2482.907281337743
 20
1448.500000000006
 30
0.0
 40
4.0
100
AcDbArc
 50
90.00000000000001
 51
178.656391659558
  0
LINE
  5
1EC
330
1F
100
AcDbEntity
  8
ｶｳﾝﾀｰ_ｷｬﾋﾞﾈｯﾄ
  6
CONTINUOUS
 62
     2
100
AcDbLine
 10
2831.091618871132
 20
1448.593792960598
 30
0.0
 11
2832.498900208876
 21
1388.593792960598
 31
0.0
  0
ARC
  5
1ED
330
1F
100
AcDbEntity
  8
ｶｳﾝﾀｰ_ｷｬﾋﾞﾈｯﾄ
  6
CONTINUOUS
 62
     2
100
AcDbCircle
 10
2827.092718662257
 20
1448.500000000006
 30
0.0
 40
4.0
100
AcDbArc
 50
1.343608340442127
 51
90.00000000000001
  0
ARC
  5
1EE
330
1F
100
AcDbEntity
  8
ｶｳﾝﾀｰ_ｷｬﾋﾞﾈｯﾄ
  6
CONTINUOUS
 62
     2
100
AcDbCircle
 10
2481.500000000001
 20
1388.50000000001
 30
0.0
 40
4.0
100
AcDbArc
 50
90.00000000000001
 51
183.7034366942579
  0
LINE
  5
1EF
330
1F
100
AcDbEntity
  8
ｶｳﾝﾀｰ_ｷｬﾋﾞﾈｯﾄ
  6
CONTINUOUS
 62
     2
100
AcDbLine
 10
2477.508353017104
 20
1388.241631341044
 30
0.0
 11
2485.000000000001
 21
1272.500000000006
 31
0.0
  0
LINE
  5
1F0
330
1F
100
AcDbEntity
  8
ｶｳﾝﾀｰ_ｷｬﾋﾞﾈｯﾄ
  6
CONTINUOUS
 62
     2
100
AcDbLine
 10
2481.500000000001
 20
1392.500000000006
 30
0.0
 11
2828.500000000001
 21
1392.500000000006
 31
0.0
  0
ARC
  5
1F1
330
1F
100
AcDbEntity
  8
ｶｳﾝﾀｰ_ｷｬﾋﾞﾈｯﾄ
  6
CONTINUOUS
 62
     2
100
AcDbCircle
 10
2828.500000000001
 20
1388.50000000001
 30
0.0
 40
4.0
100
AcDbArc
 50
356.2965633057419
 51
90.00000000000001
  0
LINE
  5
1F2
330
1F
100
AcDbEntity
  8
ｶｳﾝﾀｰ_ｷｬﾋﾞﾈｯﾄ
  6
CONTINUOUS
 62
     2
100
AcDbLine
 10
2832.491646982896
 20
1388.241631341044
 30
0.0
 11
2825.000000000001
 21
1272.500000000006
 31
0.0
  0
LINE
  5
1F3
330
1F
100
AcDbEntity
  8
ｶｳﾝﾀｰ_ｷｬﾋﾞﾈｯﾄ
  6
CONTINUOUS
 62
     2
100
AcDbLine
 10
2485.000000000001
 20
1272.500000000006
 30
0.0
 11
2825.000000000001
 21
1272.500000000006
 31
0.0
  0
CIRCLE
  5
1F4
330
1F
100
AcDbEntity
  8
ｶｳﾝﾀｰ_ｷｬﾋﾞﾈｯﾄ
  6
CONTINUOUS
 62
     2
100
AcDbCircle
 10
2505.000000000001
 20
1427.5
 30
0.0
 40
11.50000000000001
  0
CIRCLE
  5
1F5
330
1F
100
AcDbEntity
  8
ｶｳﾝﾀｰ_ｷｬﾋﾞﾈｯﾄ
  6
CONTINUOUS
 62
     2
100
AcDbCircle
 10
2805.000000000001
 20
1427.5
 30
0.0
 40
11.50000000000001
  0
LINE
  5
1F6
330
1F
100
AcDbEntity
  8
ｶｳﾝﾀｰ_ｷｬﾋﾞﾈｯﾄ
  6
CONTINUOUS
 62
     2
100
AcDbLine
 10
2500.000000000001
 20
1272.5
 30
0.0
 11
2500.000000000001
 21
1252.5
 31
0.0
  0
LINE
  5
1F7
330
1F
100
AcDbEntity
  8
ｶｳﾝﾀｰ_ｷｬﾋﾞﾈｯﾄ
  6
CONTINUOUS
 62
     2
100
AcDbLine
 10
2810.000000000001
 20
1272.5
 30
0.0
 11
2810.000000000001
 21
1252.5
 31
0.0
  0
LINE
  5
1F8
330
1F
100
AcDbEntity
  8
ｶｳﾝﾀｰ_ｷｬﾋﾞﾈｯﾄ
  6
EXLTYPE3
 62
     6
100
AcDbLine
 10
2505.000000000001
 20
1444.0
 30
0.0
 11
2505.000000000001
 21
1411.0
 31
0.0
  0
LINE
  5
1F9
330
1F
100
AcDbEntity
  8
ｶｳﾝﾀｰ_ｷｬﾋﾞﾈｯﾄ
  6
EXLTYPE3
 62
     6
100
AcDbLine
 10
2488.500000000001
 20
1427.5
 30
0.0
 11
2521.500000000001
 21
1427.5
 31
0.0
  0
LINE
  5
1FA
330
1F
100
AcDbEntity
  8
ｶｳﾝﾀｰ_ｷｬﾋﾞﾈｯﾄ
  6
EXLTYPE3
 62
     6
100
AcDbLine
 10
2821.500000000001
 20
1427.5
 30
0.0
 11
2788.500000000001
 21
1427.5
 31
0.0
  0
LINE
  5
1FB
330
1F
100
AcDbEntity
  8
ｶｳﾝﾀｰ_ｷｬﾋﾞﾈｯﾄ
  6
EXLTYPE3
 62
     6
100
AcDbLine
 10
2805.000000000001
 20
1444.0
 30
0.0
 11
2805.000000000001
 21
1411.0
 31
0.0
  0
LINE
  5
1FC
330
1F
100
AcDbEntity
  8
ｶｳﾝﾀｰ_ｷｬﾋﾞﾈｯﾄ
  6
EXLTYPE3
 62
     6
100
AcDbLine
 10
2654.999999999999
 20
1462.500000000006
 30
0.0
 11
2654.999999999999
 21
562.4999999999995
 31
0.0
  0
LINE
  5
1FD
330
1F
100
AcDbEntity
  8
ｶｳﾝﾀｰ_ｷｬﾋﾞﾈｯﾄ
  6
CONTINUOUS
 62
     2
100
AcDbLine
 10
2482.907281337743
 20
1452.500000000006
 30
0.0
 11
2702.498604002071
 21
1452.500000000006
 31
0.0
  0
LINE
  5
1FE
330
1F
100
AcDbEntity
  8
ｶｳﾝﾀｰ_ｷｬﾋﾞﾈｯﾄ
  6
CONTINUOUS
 62
     2
100
AcDbLine
 10
2780.870827109201
 20
1452.500000000006
 30
0.0
 11
2827.0927186623
 21
1452.500000000006
 31
0.0
  0
ARC
  5
1FF
330
1F
100
AcDbEntity
  8
ｶｳﾝﾀｰ_ｷｬﾋﾞﾈｯﾄ
  6
CONTINUOUS
 62
     6
100
AcDbCircle
 10
2730.074017786476
 20
1409.292550440376
 30
0.0
 40
80.0
100
AcDbArc
 50
85.02071889590641
 51
130.174907341017
  0
LINE
  5
200
330
1F
100
AcDbEntity
  8
ｶｳﾝﾀｰ_ｷｬﾋﾞﾈｯﾄ
  6
CONTINUOUS
 62
     6
100
AcDbLine
 10
2678.464168047828
 20
1470.418841101237
 30
0.0
 11
2709.761333065285
 21
1457.133982732636
 31
0.0
  0
ARC
  5
201
330
1F
100
AcDbEntity
  8
ｶｳﾝﾀｰ_ｷｬﾋﾞﾈｯﾄ
  6
CONTINUOUS
 62
     6
100
AcDbCircle
 10
2722.789892740132
 20
1435.797239007327
 30
0.0
 40
25.00000000000002
100
AcDbArc
 50
2.000000000100005
 51
121.4089117966544
  0
ARC
  5
202
330
1F
100
AcDbEntity
  8
ｶｳﾝﾀｰ_ｷｬﾋﾞﾈｯﾄ
  6
CONTINUOUS
 62
     6
100
AcDbCircle
 10
2732.677882791054
 20
1439.179334928473
 30
0.0
 40
50.00000000000004
100
AcDbArc
 50
2.000000000100005
 51
85.02071889590698
  0
CIRCLE
  5
203
330
1F
100
AcDbEntity
  8
ｶｳﾝﾀｰ_ｷｬﾋﾞﾈｯﾄ
  6
CONTINUOUS
 62
     6
100
AcDbCircle
 10
2765.255025164789
 20
1437.537555985652
 30
0.0
 40
17.5
  0
ELLIPSE
  5
204
330
1F
100
AcDbEntity
  8
ｶｳﾝﾀｰ_ｷｬﾋﾞﾈｯﾄ
  6
CONTINUOUS
 62
     6
100
AcDbEllipse
 10
2755.251465107692
 20
1446.866026653947
 30
0.0
 11
4.091990160367331
 21
4.388122209722161
 31
0.0
210
0.0
220
0.0
230
1.0
 40
0.5729548600241787
 41
0.0
 42
6.283185307179586
  0
CIRCLE
  5
205
330
1F
100
AcDbEntity
  8
ｶｳﾝﾀｰ_ｷｬﾋﾞﾈｯﾄ
  6
CONTINUOUS
 62
     6
100
AcDbCircle
 10
2765.255025164789
 20
1437.537555985652
 30
0.0
 40
8.0
  0
LINE
  5
206
330
1F
100
AcDbEntity
  8
ｶｳﾝﾀｰ_ｷｬﾋﾞﾈｯﾄ
  6
CONTINUOUS
 62
     6
100
AcDbLine
 10
2683.05269600508
 20
1460.754298223017
 30
0.0
 11
2705.144812487898
 21
1451.376751139338
 31
0.0
  0
LINE
  5
207
330
1F
100
AcDbEntity
  8
ｶｳﾝﾀｰ_ｷｬﾋﾞﾈｯﾄ
  6
CONTINUOUS
 62
     6
100
AcDbLine
 10
2683.052696005095
 20
1460.754298223012
 30
0.0
 11
2685.828206875448
 21
1467.292992073335
 31
0.0
  0
LINE
  5
208
330
1F
100
AcDbEntity
  8
ｶｳﾝﾀｰ_ｷｬﾋﾞﾈｯﾄ
  6
CONTINUOUS
 62
     6
100
AcDbLine
 10
2705.144812487969
 20
1451.376751139308
 30
0.0
 11
2707.920323358322
 21
1457.915444989633
 31
0.0
  0
LINE
  5
209
330
1F
100
AcDbEntity
  8
ｶｳﾝﾀｰ_ｷｬﾋﾞﾈｯﾄ
  6
CONTINUOUS
 62
     6
100
AcDbLine
 10
2747.774663415607
 20
1436.669726424933
 30
0.0
 11
2749.317104250683
 21
1392.500000000006
 31
0.0
  0
LINE
  5
20A
330
1F
100
AcDbEntity
  8
ｶｳﾝﾀｰ_ｷｬﾋﾞﾈｯﾄ
  6
CONTINUOUS
 62
     6
100
AcDbLine
 10
2782.647424142005
 20
1440.924309763685
 30
0.0
 11
2784.338438301144
 21
1392.500000000006
 31
0.0
  0
LINE
  5
20B
330
1F
100
AcDbEntity
  8
ｶｳﾝﾀｰ_ｷｬﾋﾞﾈｯﾄ
  6
CONTINUOUS
 62
     2
100
AcDbLine
 10
2705.621603341669
 20
1452.500000000006
 30
0.0
 11
2741.391445772645
 21
1452.500000000006
 31
0.0
  0
LINE
  5
20C
330
1F
100
AcDbEntity
  8
ｶｳﾝﾀｰ_ｷｬﾋﾞﾈｯﾄ
  6
CONTINUOUS
 62
     6
100
AcDbLine
 10
2549.999999999999
 20
1187.199999999999
 30
0.0
 11
2549.999999999999
 21
1167.8
 31
0.0
  0
LINE
  5
20D
330
1F
100
AcDbEntity
  8
ｶｳﾝﾀｰ_ｷｬﾋﾞﾈｯﾄ
  6
CONTINUOUS
 62
     6
100
AcDbLine
 10
2540.3
 20
1177.5
 30
0.0
 11
2559.7
 21
1177.5
 31
0.0
  0
LINE
  5
20E
330
1F
100
AcDbEntity
  8
ｶｳﾝﾀｰ_ｷｬﾋﾞﾈｯﾄ
  6
CONTINUOUS
 62
     6
100
AcDbLine
 10
2759.999999999999
 20
1187.199999999999
 30
0.0
 11
2759.999999999999
 21
1167.8
 31
0.0
  0
LINE
  5
20F
330
1F
100
AcDbEntity
  8
ｶｳﾝﾀｰ_ｷｬﾋﾞﾈｯﾄ
  6
CONTINUOUS
 62
     6
100
AcDbLine
 10
2750.3
 20
1177.5
 30
0.0
 11
2769.700000000002
 21
1177.5
 31
0.0
  0
CIRCLE
  5
210
330
1F
100
AcDbEntity
  8
ｶｳﾝﾀｰ_ｷｬﾋﾞﾈｯﾄ
  6
EXLTYPE2
 62
     6
100
AcDbCircle
 10
2550.000000000001
 20
1177.5
 30
0.0
 40
4.7
  0
CIRCLE
  5
211
330
1F
100
AcDbEntity
  8
ｶｳﾝﾀｰ_ｷｬﾋﾞﾈｯﾄ
  6
EXLTYPE2
 62
     6
100
AcDbCircle
 10
2760.000000000001
 20
1177.5
 30
0.0
 40
4.7
  0
LINE
  5
212
330
1F
100
AcDbEntity
  8
ｶｳﾝﾀｰ_ｷｬﾋﾞﾈｯﾄ
  6
EXLTYPE3
 62
     6
100
AcDbLine
 10
2767.000000000001
 20
1372.5
 30
0.0
 11
2767.000000000001
 21
1500.5680146347
 31
0.0
  0
POLYLINE
  5
213
330
1F
100
AcDbEntity
  8
ｶｳﾝﾀｰ_ｷｬﾋﾞﾈｯﾄ
  6
CONTINUOUS
 62
     6
100
AcDb2dPolyline
 66
     1
 10
0.0
 20
0.0
 30
0.0
 70
   128
  0
VERTEX
  5
214
330
213
100
AcDbEntity
  8
ｶｳﾝﾀｰ_ｷｬﾋﾞﾈｯﾄ
  6
CONTINUOUS
 62
     6
100
AcDbVertex
100
AcDb2dVertex
 10
2802.000000000001
 20
1215.749999999999
 30
0.0
  0
VERTEX
  5
215
330
213
100
AcDbEntity
  8
ｶｳﾝﾀｰ_ｷｬﾋﾞﾈｯﾄ
  6
CONTINUOUS
 62
     6
100
AcDbVertex
100
AcDb2dVertex
 10
2774.500000000001
 20
1215.749999999999
 30
0.0
  0
VERTEX
  5
216
330
213
100
AcDbEntity
  8
ｶｳﾝﾀｰ_ｷｬﾋﾞﾈｯﾄ
  6
CONTINUOUS
 62
     6
100
AcDbVertex
100
AcDb2dVertex
 10
2774.500000000001
 20
1201.249999999999
 30
0.0
  0
VERTEX
  5
217
330
213
100
AcDbEntity
  8
ｶｳﾝﾀｰ_ｷｬﾋﾞﾈｯﾄ
  6
CONTINUOUS
 62
     6
100
AcDbVertex
100
AcDb2dVertex
 10
2802.000000000001
 20
1201.249999999999
 30
0.0
  0
SEQEND
  5
218
330
213
100
AcDbEntity
  8
ｶｳﾝﾀｰ_ｷｬﾋﾞﾈｯﾄ
  6
CONTINUOUS
 62
     6
  0
ARC
  5
219
330
1F
100
AcDbEntity
  8
ｶｳﾝﾀｰ_ｷｬﾋﾞﾈｯﾄ
  6
CONTINUOUS
 62
     6
100
AcDbCircle
 10
2802.000000000001
 20
1201.749999999999
 30
0.0
 40
0.5
100
AcDbArc
 50
270.0
 51
0.0
  0
LINE
  5
21A
330
1F
100
AcDbEntity
  8
ｶｳﾝﾀｰ_ｷｬﾋﾞﾈｯﾄ
  6
CONTINUOUS
 62
     6
100
AcDbLine
 10
2802.500000000001
 20
1201.749999999999
 30
0.0
 11
2802.500000000001
 21
1215.249999999999
 31
0.0
  0
ARC
  5
21B
330
1F
100
AcDbEntity
  8
ｶｳﾝﾀｰ_ｷｬﾋﾞﾈｯﾄ
  6
CONTINUOUS
 62
     6
100
AcDbCircle
 10
2802.000000000001
 20
1215.249999999999
 30
0.0
 40
0.5
100
AcDbArc
 50
0.0
 51
90.00000000000001
  0
ARC
  5
21C
330
1F
100
AcDbEntity
  8
ｶｳﾝﾀｰ_ｷｬﾋﾞﾈｯﾄ
  6
CONTINUOUS
 62
     6
100
AcDbCircle
 10
2507.999999999994
 20
1201.749999999999
 30
0.0
 40
0.5
100
AcDbArc
 50
180.0
 51
270.0
  0
LINE
  5
21D
330
1F
100
AcDbEntity
  8
ｶｳﾝﾀｰ_ｷｬﾋﾞﾈｯﾄ
  6
CONTINUOUS
 62
     6
100
AcDbLine
 10
2507.499999999994
 20
1201.749999999999
 30
0.0
 11
2507.499999999994
 21
1215.249999999999
 31
0.0
  0
POLYLINE
  5
21E
330
1F
100
AcDbEntity
  8
ｶｳﾝﾀｰ_ｷｬﾋﾞﾈｯﾄ
  6
CONTINUOUS
 62
     6
100
AcDb2dPolyline
 66
     1
 10
0.0
 20
0.0
 30
0.0
 70
   128
  0
VERTEX
  5
21F
330
21E
100
AcDbEntity
  8
ｶｳﾝﾀｰ_ｷｬﾋﾞﾈｯﾄ
  6
CONTINUOUS
 62
     6
100
AcDbVertex
100
AcDb2dVertex
 10
2507.999999999994
 20
1215.749999999999
 30
0.0
  0
VERTEX
  5
220
330
21E
100
AcDbEntity
  8
ｶｳﾝﾀｰ_ｷｬﾋﾞﾈｯﾄ
  6
CONTINUOUS
 62
     6
100
AcDbVertex
100
AcDb2dVertex
 10
2535.499999999994
 20
1215.749999999999
 30
0.0
  0
VERTEX
  5
221
330
21E
100
AcDbEntity
  8
ｶｳﾝﾀｰ_ｷｬﾋﾞﾈｯﾄ
  6
CONTINUOUS
 62
     6
100
AcDbVertex
100
AcDb2dVertex
 10
2535.499999999994
 20
1201.249999999999
 30
0.0
  0
VERTEX
  5
222
330
21E
100
AcDbEntity
  8
ｶｳﾝﾀｰ_ｷｬﾋﾞﾈｯﾄ
  6
CONTINUOUS
 62
     6
100
AcDbVertex
100
AcDb2dVertex
 10
2507.999999999994
 20
1201.249999999999
 30
0.0
  0
SEQEND
  5
223
330
21E
100
AcDbEntity
  8
ｶｳﾝﾀｰ_ｷｬﾋﾞﾈｯﾄ
  6
CONTINUOUS
 62
     6
  0
ARC
  5
224
330
1F
100
AcDbEntity
  8
ｶｳﾝﾀｰ_ｷｬﾋﾞﾈｯﾄ
  6
CONTINUOUS
 62
     6
100
AcDbCircle
 10
2507.999999999994
 20
1215.249999999999
 30
0.0
 40
0.5
100
AcDbArc
 50
90.00000000000001
 51
180.0
  0
LINE
  5
225
330
1F
100
AcDbEntity
  8
ｶｳﾝﾀｰ_ｷｬﾋﾞﾈｯﾄ
  6
CONTINUOUS
 62
     6
100
AcDbLine
 10
2774.500000000001
 20
1201.499999999999
 30
0.0
 11
2535.499999999994
 21
1201.499999999999
 31
0.0
  0
LINE
  5
226
330
1F
100
AcDbEntity
  8
ｶｳﾝﾀｰ_ｷｬﾋﾞﾈｯﾄ
  6
CONTINUOUS
 62
     6
100
AcDbLine
 10
2774.500000000001
 20
1215.499999999999
 30
0.0
 11
2535.49999999999
 21
1215.499999999999
 31
0.0
  0
LINE
  5
227
330
1F
100
AcDbEntity
  8
ｶｳﾝﾀｰ_ｷｬﾋﾞﾈｯﾄ
  6
CONTINUOUS
 62
     2
100
AcDbLine
 10
1140.000000000002
 20
1067.5
 30
0.0
 11
1140.000000000002
 21
957.5000000000005
 31
0.0
  0
LINE
  5
228
330
1F
100
AcDbEntity
  8
ｶｳﾝﾀｰ_ｷｬﾋﾞﾈｯﾄ
  6
CONTINUOUS
 62
     6
100
AcDbLine
 10
2412.000000000002
 20
1057.199999999999
 30
0.0
 11
2412.000000000002
 21
1037.8
 31
0.0
  0
LINE
  5
229
330
1F
100
AcDbEntity
  8
ｶｳﾝﾀｰ_ｷｬﾋﾞﾈｯﾄ
  6
CONTINUOUS
 62
     6
100
AcDbLine
 10
2421.700000000001
 20
1047.5
 30
0.0
 11
2402.300000000001
 21
1047.5
 31
0.0
  0
CIRCLE
  5
22A
330
1F
100
AcDbEntity
  8
ｶｳﾝﾀｰ_ｷｬﾋﾞﾈｯﾄ
  6
EXLTYPE2
 62
     6
100
AcDbCircle
 10
2412.0
 20
1047.5
 30
0.0
 40
4.7
  0
LINE
  5
22B
330
1F
100
AcDbEntity
  8
ｶｳﾝﾀｰ_ｷｬﾋﾞﾈｯﾄ
  6
CONTINUOUS
 62
     6
100
AcDbLine
 10
2412.000000000002
 20
987.1999999999994
 30
0.0
 11
2412.000000000002
 21
967.7999999999997
 31
0.0
  0
LINE
  5
22C
330
1F
100
AcDbEntity
  8
ｶｳﾝﾀｰ_ｷｬﾋﾞﾈｯﾄ
  6
CONTINUOUS
 62
     6
100
AcDbLine
 10
2421.700000000001
 20
977.5000000000005
 30
0.0
 11
2402.300000000001
 21
977.5000000000005
 31
0.0
  0
CIRCLE
  5
22D
330
1F
100
AcDbEntity
  8
ｶｳﾝﾀｰ_ｷｬﾋﾞﾈｯﾄ
  6
EXLTYPE2
 62
     6
100
AcDbCircle
 10
2412.0
 20
977.4999999999994
 30
0.0
 40
4.7
  0
LINE
  5
22E
330
1F
100
AcDbEntity
  8
ｶｳﾝﾀｰ_ｷｬﾋﾞﾈｯﾄ
  6
CONTINUOUS
 62
     6
100
AcDbLine
 10
2162.000000000002
 20
1057.199999999999
 30
0.0
 11
2162.000000000002
 21
1037.8
 31
0.0
  0
LINE
  5
22F
330
1F
100
AcDbEntity
  8
ｶｳﾝﾀｰ_ｷｬﾋﾞﾈｯﾄ
  6
CONTINUOUS
 62
     6
100
AcDbLine
 10
2171.700000000001
 20
1047.5
 30
0.0
 11
2152.300000000001
 21
1047.5
 31
0.0
  0
CIRCLE
  5
230
330
1F
100
AcDbEntity
  8
ｶｳﾝﾀｰ_ｷｬﾋﾞﾈｯﾄ
  6
EXLTYPE2
 62
     6
100
AcDbCircle
 10
2162.0
 20
1047.5
 30
0.0
 40
4.7
  0
LINE
  5
231
330
1F
100
AcDbEntity
  8
ｶｳﾝﾀｰ_ｷｬﾋﾞﾈｯﾄ
  6
CONTINUOUS
 62
     6
100
AcDbLine
 10
2162.000000000002
 20
987.1999999999994
 30
0.0
 11
2162.000000000002
 21
967.7999999999997
 31
0.0
  0
LINE
  5
232
330
1F
100
AcDbEntity
  8
ｶｳﾝﾀｰ_ｷｬﾋﾞﾈｯﾄ
  6
CONTINUOUS
 62
     6
100
AcDbLine
 10
2171.700000000001
 20
977.5000000000005
 30
0.0
 11
2152.300000000001
 21
977.5000000000005
 31
0.0
  0
CIRCLE
  5
233
330
1F
100
AcDbEntity
  8
ｶｳﾝﾀｰ_ｷｬﾋﾞﾈｯﾄ
  6
EXLTYPE2
 62
     6
100
AcDbCircle
 10
2162.0
 20
977.4999999999994
 30
0.0
 40
4.7
  0
LINE
  5
234
330
1F
100
AcDbEntity
  8
ｶｳﾝﾀｰ_ｷｬﾋﾞﾈｯﾄ
  6
CONTINUOUS
 62
     6
100
AcDbLine
 10
1775.000000000002
 20
1057.199999999999
 30
0.0
 11
1775.000000000002
 21
1037.8
 31
0.0
  0
LINE
  5
235
330
1F
100
AcDbEntity
  8
ｶｳﾝﾀｰ_ｷｬﾋﾞﾈｯﾄ
  6
CONTINUOUS
 62
     6
100
AcDbLine
 10
1784.700000000001
 20
1047.5
 30
0.0
 11
1765.300000000001
 21
1047.5
 31
0.0
  0
CIRCLE
  5
236
330
1F
100
AcDbEntity
  8
ｶｳﾝﾀｰ_ｷｬﾋﾞﾈｯﾄ
  6
EXLTYPE2
 62
     6
100
AcDbCircle
 10
1775.0
 20
1047.5
 30
0.0
 40
4.7
  0
LINE
  5
237
330
1F
100
AcDbEntity
  8
ｶｳﾝﾀｰ_ｷｬﾋﾞﾈｯﾄ
  6
CONTINUOUS
 62
     6
100
AcDbLine
 10
1775.000000000002
 20
987.1999999999994
 30
0.0
 11
1775.000000000002
 21
967.7999999999997
 31
0.0
  0
LINE
  5
238
330
1F
100
AcDbEntity
  8
ｶｳﾝﾀｰ_ｷｬﾋﾞﾈｯﾄ
  6
CONTINUOUS
 62
     6
100
AcDbLine
 10
1784.700000000001
 20
977.5000000000005
 30
0.0
 11
1765.300000000001
 21
977.5000000000005
 31
0.0
  0
CIRCLE
  5
239
330
1F
100
AcDbEntity
  8
ｶｳﾝﾀｰ_ｷｬﾋﾞﾈｯﾄ
  6
EXLTYPE2
 62
     6
100
AcDbCircle
 10
1775.0
 20
977.4999999999994
 30
0.0
 40
4.7
  0
LINE
  5
23A
330
1F
100
AcDbEntity
  8
ｶｳﾝﾀｰ_ｷｬﾋﾞﾈｯﾄ
  6
CONTINUOUS
 62
     6
100
AcDbLine
 10
1510.000000000002
 20
1057.199999999999
 30
0.0
 11
1510.000000000002
 21
1037.8
 31
0.0
  0
LINE
  5
23B
330
1F
100
AcDbEntity
  8
ｶｳﾝﾀｰ_ｷｬﾋﾞﾈｯﾄ
  6
CONTINUOUS
 62
     6
100
AcDbLine
 10
1519.700000000001
 20
1047.5
 30
0.0
 11
1500.300000000001
 21
1047.5
 31
0.0
  0
CIRCLE
  5
23C
330
1F
100
AcDbEntity
  8
ｶｳﾝﾀｰ_ｷｬﾋﾞﾈｯﾄ
  6
EXLTYPE2
 62
     6
100
AcDbCircle
 10
1510.0
 20
1047.5
 30
0.0
 40
4.7
  0
LINE
  5
23D
330
1F
100
AcDbEntity
  8
ｶｳﾝﾀｰ_ｷｬﾋﾞﾈｯﾄ
  6
CONTINUOUS
 62
     6
100
AcDbLine
 10
1510.000000000002
 20
987.1999999999994
 30
0.0
 11
1510.000000000002
 21
967.7999999999997
 31
0.0
  0
LINE
  5
23E
330
1F
100
AcDbEntity
  8
ｶｳﾝﾀｰ_ｷｬﾋﾞﾈｯﾄ
  6
CONTINUOUS
 62
     6
100
AcDbLine
 10
1519.700000000001
 20
977.5000000000005
 30
0.0
 11
1500.300000000001
 21
977.5000000000005
 31
0.0
  0
CIRCLE
  5
23F
330
1F
100
AcDbEntity
  8
ｶｳﾝﾀｰ_ｷｬﾋﾞﾈｯﾄ
  6
EXLTYPE2
 62
     6
100
AcDbCircle
 10
1510.0
 20
977.4999999999994
 30
0.0
 40
4.7
  0
LINE
  5
240
330
1F
100
AcDbEntity
  8
ｶｳﾝﾀｰ_ｷｬﾋﾞﾈｯﾄ
  6
CONTINUOUS
 62
     6
100
AcDbLine
 10
1215.000000000002
 20
1057.199999999999
 30
0.0
 11
1215.000000000002
 21
1037.8
 31
0.0
  0
LINE
  5
241
330
1F
100
AcDbEntity
  8
ｶｳﾝﾀｰ_ｷｬﾋﾞﾈｯﾄ
  6
CONTINUOUS
 62
     6
100
AcDbLine
 10
1224.700000000001
 20
1047.5
 30
0.0
 11
1205.300000000001
 21
1047.5
 31
0.0
  0
CIRCLE
  5
242
330
1F
100
AcDbEntity
  8
ｶｳﾝﾀｰ_ｷｬﾋﾞﾈｯﾄ
  6
EXLTYPE2
 62
     6
100
AcDbCircle
 10
1215.0
 20
1047.5
 30
0.0
 40
4.7
  0
LINE
  5
243
330
1F
100
AcDbEntity
  8
ｶｳﾝﾀｰ_ｷｬﾋﾞﾈｯﾄ
  6
CONTINUOUS
 62
     6
100
AcDbLine
 10
1215.000000000002
 20
987.1999999999994
 30
0.0
 11
1215.000000000002
 21
967.7999999999997
 31
0.0
  0
LINE
  5
244
330
1F
100
AcDbEntity
  8
ｶｳﾝﾀｰ_ｷｬﾋﾞﾈｯﾄ
  6
CONTINUOUS
 62
     6
100
AcDbLine
 10
1224.700000000001
 20
977.5000000000005
 30
0.0
 11
1205.300000000001
 21
977.5000000000005
 31
0.0
  0
CIRCLE
  5
245
330
1F
100
AcDbEntity
  8
ｶｳﾝﾀｰ_ｷｬﾋﾞﾈｯﾄ
  6
EXLTYPE2
 62
     6
100
AcDbCircle
 10
1215.0
 20
977.4999999999994
 30
0.0
 40
4.7
  0
LINE
  5
246
330
1F
100
AcDbEntity
  8
ｶｳﾝﾀｰ_ｷｬﾋﾞﾈｯﾄ
  6
CONTINUOUS
 62
     2
100
AcDbLine
 10
2490.0
 20
957.5000000000005
 30
0.0
 11
1140.000000000002
 21
957.5000000000005
 31
0.0
  0
LINE
  5
247
330
1F
100
AcDbEntity
  8
ｶｳﾝﾀｰ_ｷｬﾋﾞﾈｯﾄ
  6
CONTINUOUS
 62
     2
100
AcDbLine
 10
2490.0
 20
1057.5
 30
0.0
 11
1140.000000000002
 21
1057.5
 31
0.0
  0
LINE
  5
248
330
1F
100
AcDbEntity
  8
ｶｳﾝﾀｰ_ｷｬﾋﾞﾈｯﾄ
  6
CONTINUOUS
 62
     2
100
AcDbLine
 10
2490.0
 20
1067.5
 30
0.0
 11
1140.000000000002
 21
1067.5
 31
0.0
  0
LINE
  5
249
330
1F
100
AcDbEntity
  8
ｶｳﾝﾀｰ_ｷｬﾋﾞﾈｯﾄ
  6
CONTINUOUS
 62
     6
100
AcDbLine
 10
2081.000000000002
 20
1036.499999999699
 30
0.0
 11
2081.000000000002
 21
1017.0999999997
 31
0.0
  0
LINE
  5
24A
330
1F
100
AcDbEntity
  8
ｶｳﾝﾀｰ_ｷｬﾋﾞﾈｯﾄ
  6
CONTINUOUS
 62
     6
100
AcDbLine
 10
2090.700000000001
 20
1026.799999999701
 30
0.0
 11
2071.300000000001
 21
1026.799999999701
 31
0.0
  0
CIRCLE
  5
24B
330
1F
100
AcDbEntity
  8
ｶｳﾝﾀｰ_ｷｬﾋﾞﾈｯﾄ
  6
EXLTYPE2
 62
     6
100
AcDbCircle
 10
2081.0
 20
1026.7999999997
 30
0.0
 40
4.7
  0
LINE
  5
24C
330
1F
100
AcDbEntity
  8
ｶｳﾝﾀｰ_ｷｬﾋﾞﾈｯﾄ
  6
CONTINUOUS
 62
     6
100
AcDbLine
 10
1479.500000000002
 20
1023.900371133099
 30
0.0
 11
1479.500000000002
 21
1004.5003711331
 31
0.0
  0
LINE
  5
24D
330
1F
100
AcDbEntity
  8
ｶｳﾝﾀｰ_ｷｬﾋﾞﾈｯﾄ
  6
CONTINUOUS
 62
     6
100
AcDbLine
 10
1489.200000000001
 20
1014.2003711331
 30
0.0
 11
1469.800000000001
 21
1014.2003711331
 31
0.0
  0
CIRCLE
  5
24E
330
1F
100
AcDbEntity
  8
ｶｳﾝﾀｰ_ｷｬﾋﾞﾈｯﾄ
  6
EXLTYPE2
 62
     6
100
AcDbCircle
 10
1479.5
 20
1014.200371133099
 30
0.0
 40
4.7
  0
LINE
  5
24F
330
1F
100
AcDbEntity
  8
ｶｳﾝﾀｰ_ｷｬﾋﾞﾈｯﾄ
  6
CONTINUOUS
 62
     6
100
AcDbLine
 10
2490.0
 20
1042.5
 30
0.0
 11
1140.000000000002
 21
1042.5
 31
0.0
  0
LINE
  5
250
330
1F
100
AcDbEntity
  8
ｶｳﾝﾀｰ_ｷｬﾋﾞﾈｯﾄ
  6
CONTINUOUS
 62
     2
100
AcDbLine
 10
1313.999999999999
 20
891.5000000000014
 30
0.0
 11
1313.999999999999
 21
859.5000000000014
 31
0.0
  0
LINE
  5
251
330
1F
100
AcDbEntity
  8
ｶｳﾝﾀｰ_ｷｬﾋﾞﾈｯﾄ
  6
CONTINUOUS
 62
     2
100
AcDbLine
 10
1285.4118652713
 20
891.5000000000014
 30
0.0
 11
1244.499999999999
 21
891.5000000000014
 31
0.0
  0
LINE
  5
252
330
1F
100
AcDbEntity
  8
ｶｳﾝﾀｰ_ｷｬﾋﾞﾈｯﾄ
  6
CONTINUOUS
 62
     2
100
AcDbLine
 10
1313.999999999999
 20
891.5000000000014
 30
0.0
 11
1303.211865271299
 21
891.5000000000014
 31
0.0
  0
LINE
  5
253
330
1F
100
AcDbEntity
  8
ｶｳﾝﾀｰ_ｷｬﾋﾞﾈｯﾄ
  6
CONTINUOUS
 62
     2
100
AcDbLine
 10
1285.4118652713
 20
859.5000000000014
 30
0.0
 11
1244.499999999999
 21
859.5000000000014
 31
0.0
  0
LINE
  5
254
330
1F
100
AcDbEntity
  8
ｶｳﾝﾀｰ_ｷｬﾋﾞﾈｯﾄ
  6
CONTINUOUS
 62
     2
100
AcDbLine
 10
1313.999999999999
 20
859.5000000000014
 30
0.0
 11
1303.211865271299
 21
859.5000000000014
 31
0.0
  0
LINE
  5
255
330
1F
100
AcDbEntity
  8
ｶｳﾝﾀｰ_ｷｬﾋﾞﾈｯﾄ
  6
EXLTYPE3
 62
     6
100
AcDbLine
 10
1323.999999999999
 20
875.5000000000005
 30
0.0
 11
1157.199999999999
 21
875.5000000000005
 31
0.0
  0
LINE
  5
256
330
1F
100
AcDbEntity
  8
ｶｳﾝﾀｰ_ｷｬﾋﾞﾈｯﾄ
  6
CONTINUOUS
 62
     2
100
AcDbLine
 10
1205.650627872958
 20
892.3464088835467
 30
0.0
 11
1204.285854693578
 21
957.5000000000005
 31
0.0
  0
LINE
  5
257
330
1F
100
AcDbEntity
  8
ｶｳﾝﾀｰ_ｷｬﾋﾞﾈｯﾄ
  6
CONTINUOUS
 62
     2
100
AcDbLine
 10
1173.663278727078
 20
891.4073479491849
 30
0.0
 11
1172.278835025243
 21
957.5000000000005
 31
0.0
  0
LINE
  5
258
330
1F
100
AcDbEntity
  8
ｶｳﾝﾀｰ_ｷｬﾋﾞﾈｯﾄ
  6
CONTINUOUS
 62
     6
100
AcDbLine
 10
1145.000000000002
 20
853.6649914156001
 30
0.0
 11
1140.000000000002
 21
853.6649914156001
 31
0.0
  0
LINE
  5
259
330
1F
100
AcDbEntity
  8
ｶｳﾝﾀｰ_ｷｬﾋﾞﾈｯﾄ
  6
CONTINUOUS
 62
     6
100
AcDbLine
 10
1147.900000000001
 20
874.1649914156001
 30
0.0
 11
1145.000000000002
 21
853.6649914156001
 31
0.0
  0
LINE
  5
25A
330
1F
100
AcDbEntity
  8
ｶｳﾝﾀｰ_ｷｬﾋﾞﾈｯﾄ
  6
CONTINUOUS
 62
     6
100
AcDbLine
 10
1145.000000000002
 20
914.6649914156001
 30
0.0
 11
1140.000000000002
 21
914.6649914156001
 31
0.0
  0
LINE
  5
25B
330
1F
100
AcDbEntity
  8
ｶｳﾝﾀｰ_ｷｬﾋﾞﾈｯﾄ
  6
CONTINUOUS
 62
     6
100
AcDbLine
 10
1147.900000000001
 20
894.1649914156001
 30
0.0
 11
1145.000000000002
 21
914.6649914156001
 31
0.0
  0
LINE
  5
25C
330
1F
100
AcDbEntity
  8
ｶｳﾝﾀｰ_ｷｬﾋﾞﾈｯﾄ
  6
CONTINUOUS
 62
     6
100
AcDbLine
 10
1140.000000000002
 20
914.6649914156001
 30
0.0
 11
1140.000000000002
 21
853.6649914156001
 31
0.0
  0
LINE
  5
25D
330
1F
100
AcDbEntity
  8
ｶｳﾝﾀｰ_ｷｬﾋﾞﾈｯﾄ
  6
CONTINUOUS
 62
     6
100
AcDbLine
 10
1147.900000000001
 20
894.1649914156001
 30
0.0
 11
1147.900000000001
 21
874.1649914156001
 31
0.0
  0
LINE
  5
25E
330
1F
100
AcDbEntity
  8
ｶｳﾝﾀｰ_ｷｬﾋﾞﾈｯﾄ
  6
CONTINUOUS
 62
     6
100
AcDbLine
 10
1148.000000000002
 20
881.1649914156001
 30
0.0
 11
1148.000000000002
 21
874.1649914156001
 31
0.0
  0
LINE
  5
25F
330
1F
100
AcDbEntity
  8
ｶｳﾝﾀｰ_ｷｬﾋﾞﾈｯﾄ
  6
CONTINUOUS
 62
     6
100
AcDbLine
 10
1148.000000000002
 20
894.1649914156001
 30
0.0
 11
1148.000000000002
 21
887.1649914156001
 31
0.0
  0
LINE
  5
260
330
1F
100
AcDbEntity
  8
ｶｳﾝﾀｰ_ｷｬﾋﾞﾈｯﾄ
  6
CONTINUOUS
 62
     6
100
AcDbLine
 10
1167.646253110498
 20
892.1649914156001
 30
0.0
 11
1148.000000000002
 21
892.1649914156001
 31
0.0
  0
LINE
  5
261
330
1F
100
AcDbEntity
  8
ｶｳﾝﾀｰ_ｷｬﾋﾞﾈｯﾄ
  6
CONTINUOUS
 62
     6
100
AcDbLine
 10
1172.679491924313
 20
894.1649914156001
 30
0.0
 11
1148.000000000002
 21
894.1649914156001
 31
0.0
  0
LINE
  5
262
330
1F
100
AcDbEntity
  8
ｶｳﾝﾀｰ_ｷｬﾋﾞﾈｯﾄ
  6
CONTINUOUS
 62
     6
100
AcDbLine
 10
1153.226497308102
 20
894.1649914156001
 30
0.0
 11
1164.773502691902
 21
894.1649914156001
 31
0.0
  0
LINE
  5
263
330
1F
100
AcDbEntity
  8
ｶｳﾝﾀｰ_ｷｬﾋﾞﾈｯﾄ
  6
CONTINUOUS
 62
     6
100
AcDbLine
 10
1154.1
 20
898.1649914156028
 30
0.0
 11
1153.226497308102
 21
897.6606744012975
 31
0.0
  0
LINE
  5
264
330
1F
100
AcDbEntity
  8
ｶｳﾝﾀｰ_ｷｬﾋﾞﾈｯﾄ
  6
CONTINUOUS
 62
     6
100
AcDbLine
 10
1163.900000000003
 20
898.1649914156028
 30
0.0
 11
1164.773502691902
 21
897.6606744012975
 31
0.0
  0
LINE
  5
265
330
1F
100
AcDbEntity
  8
ｶｳﾝﾀｰ_ｷｬﾋﾞﾈｯﾄ
  6
CONTINUOUS
 62
     6
100
AcDbLine
 10
1163.900000000009
 20
898.1649914156001
 30
0.0
 11
1154.099999999995
 21
898.1649914156001
 31
0.0
  0
LINE
  5
266
330
1F
100
AcDbEntity
  8
ｶｳﾝﾀｰ_ｷｬﾋﾞﾈｯﾄ
  6
CONTINUOUS
 62
     6
100
AcDbLine
 10
1153.226497308102
 20
897.6606744012975
 30
0.0
 11
1153.226497308102
 21
894.1649914156001
 31
0.0
  0
LINE
  5
267
330
1F
100
AcDbEntity
  8
ｶｳﾝﾀｰ_ｷｬﾋﾞﾈｯﾄ
  6
CONTINUOUS
 62
     6
100
AcDbLine
 10
1164.773502691902
 20
897.6606744013002
 30
0.0
 11
1164.773502691902
 21
894.1649914156001
 31
0.0
  0
LINE
  5
268
330
1F
100
AcDbEntity
  8
ｶｳﾝﾀｰ_ｷｬﾋﾞﾈｯﾄ
  6
CONTINUOUS
 62
     6
100
AcDbLine
 10
1156.113248654052
 20
897.6606744013002
 30
0.0
 11
1156.113248654052
 21
894.1649914156001
 31
0.0
  0
LINE
  5
269
330
1F
100
AcDbEntity
  8
ｶｳﾝﾀｰ_ｷｬﾋﾞﾈｯﾄ
  6
CONTINUOUS
 62
     6
100
AcDbLine
 10
1161.886751345952
 20
897.6606744013002
 30
0.0
 11
1161.886751345952
 21
894.1649914156001
 31
0.0
  0
LINE
  5
26A
330
1F
100
AcDbEntity
  8
ｶｳﾝﾀｰ_ｷｬﾋﾞﾈｯﾄ
  6
CONTINUOUS
 62
     6
100
AcDbLine
 10
1153.226497308102
 20
874.1649914156001
 30
0.0
 11
1164.773502691902
 21
874.1649914156001
 31
0.0
  0
LINE
  5
26B
330
1F
100
AcDbEntity
  8
ｶｳﾝﾀｰ_ｷｬﾋﾞﾈｯﾄ
  6
CONTINUOUS
 62
     6
100
AcDbLine
 10
1163.900000000003
 20
869.1649914155973
 30
0.0
 11
1164.773502691902
 21
869.6693084299027
 31
0.0
  0
LINE
  5
26C
330
1F
100
AcDbEntity
  8
ｶｳﾝﾀｰ_ｷｬﾋﾞﾈｯﾄ
  6
CONTINUOUS
 62
     6
100
AcDbLine
 10
1154.1
 20
869.1649914155973
 30
0.0
 11
1153.226497308102
 21
869.6693084299027
 31
0.0
  0
LINE
  5
26D
330
1F
100
AcDbEntity
  8
ｶｳﾝﾀｰ_ｷｬﾋﾞﾈｯﾄ
  6
CONTINUOUS
 62
     6
100
AcDbLine
 10
1164.773502691902
 20
874.1649914156001
 30
0.0
 11
1164.773502691902
 21
869.6693084299027
 31
0.0
  0
LINE
  5
26E
330
1F
100
AcDbEntity
  8
ｶｳﾝﾀｰ_ｷｬﾋﾞﾈｯﾄ
  6
CONTINUOUS
 62
     6
100
AcDbLine
 10
1153.226497308102
 20
874.1649914156001
 30
0.0
 11
1153.226497308102
 21
869.6693084299027
 31
0.0
  0
LINE
  5
26F
330
1F
100
AcDbEntity
  8
ｶｳﾝﾀｰ_ｷｬﾋﾞﾈｯﾄ
  6
CONTINUOUS
 62
     6
100
AcDbLine
 10
1156.113248654052
 20
874.1649914156001
 30
0.0
 11
1156.113248654052
 21
869.6693084299
 31
0.0
  0
LINE
  5
270
330
1F
100
AcDbEntity
  8
ｶｳﾝﾀｰ_ｷｬﾋﾞﾈｯﾄ
  6
CONTINUOUS
 62
     6
100
AcDbLine
 10
1161.886751345952
 20
874.1649914156001
 30
0.0
 11
1161.886751345952
 21
869.6693084299
 31
0.0
  0
LINE
  5
271
330
1F
100
AcDbEntity
  8
ｶｳﾝﾀｰ_ｷｬﾋﾞﾈｯﾄ
  6
CONTINUOUS
 62
     6
100
AcDbLine
 10
1154.099999999995
 20
869.1649914156001
 30
0.0
 11
1163.900000000009
 21
869.1649914156001
 31
0.0
  0
LINE
  5
272
330
1F
100
AcDbEntity
  8
ｶｳﾝﾀｰ_ｷｬﾋﾞﾈｯﾄ
  6
CONTINUOUS
 62
     6
100
AcDbLine
 10
1166.451106156603
 20
876.1649914156001
 30
0.0
 11
1148.000000000002
 21
876.1649914156001
 31
0.0
  0
LINE
  5
273
330
1F
100
AcDbEntity
  8
ｶｳﾝﾀｰ_ｷｬﾋﾞﾈｯﾄ
  6
CONTINUOUS
 62
     6
100
AcDbLine
 10
1166.451106156603
 20
874.1649914156001
 30
0.0
 11
1148.000000000002
 21
874.1649914156001
 31
0.0
  0
LINE
  5
274
330
1F
100
AcDbEntity
  8
ｶｳﾝﾀｰ_ｷｬﾋﾞﾈｯﾄ
  6
CONTINUOUS
 62
     6
100
AcDbLine
 10
1148.702439024402
 20
906.1649914156001
 30
0.0
 11
1147.845117614429
 21
904.6800671751103
 31
0.0
  0
LINE
  5
275
330
1F
100
AcDbEntity
  8
ｶｳﾝﾀｰ_ｷｬﾋﾞﾈｯﾄ
  6
CONTINUOUS
 62
     6
100
AcDbLine
 10
1148.702439024402
 20
906.1649914156001
 30
0.0
 11
1147.845117614429
 21
907.6499156560908
 31
0.0
  0
ARC
  5
276
330
1F
100
AcDbEntity
  8
ｶｳﾝﾀｰ_ｷｬﾋﾞﾈｯﾄ
  6
CONTINUOUS
 62
     6
100
AcDbCircle
 10
1143.034439024402
 20
906.1649914156001
 30
0.0
 40
5.66799999999985
100
AcDbArc
 50
303.9816465839706
 51
56.01835341602947
  0
LINE
  5
277
330
1F
100
AcDbEntity
  8
ｶｳﾝﾀｰ_ｷｬﾋﾞﾈｯﾄ
  6
CONTINUOUS
 62
     6
100
AcDbLine
 10
1146.202439024401
 20
901.4649914156003
 30
0.0
 11
1146.202439024401
 21
910.8649914156008
 31
0.0
  0
LINE
  5
278
330
1F
100
AcDbEntity
  8
ｶｳﾝﾀｰ_ｷｬﾋﾞﾈｯﾄ
  6
CONTINUOUS
 62
     6
100
AcDbLine
 10
1140.000000000002
 20
907.6649914156001
 30
0.0
 11
1116.202439024402
 21
906.1649914156001
 31
0.0
  0
LINE
  5
279
330
1F
100
AcDbEntity
  8
ｶｳﾝﾀｰ_ｷｬﾋﾞﾈｯﾄ
  6
CONTINUOUS
 62
     6
100
AcDbLine
 10
1140.000000000002
 20
904.6649914156001
 30
0.0
 11
1116.202439024402
 21
906.1649914156001
 31
0.0
  0
LINE
  5
27A
330
1F
100
AcDbEntity
  8
ｶｳﾝﾀｰ_ｷｬﾋﾞﾈｯﾄ
  6
CONTINUOUS
 62
     6
100
AcDbLine
 10
1148.702439024402
 20
862.1649914156001
 30
0.0
 11
1147.845117614429
 21
860.6800671751103
 31
0.0
  0
LINE
  5
27B
330
1F
100
AcDbEntity
  8
ｶｳﾝﾀｰ_ｷｬﾋﾞﾈｯﾄ
  6
CONTINUOUS
 62
     6
100
AcDbLine
 10
1148.702439024402
 20
862.1649914156001
 30
0.0
 11
1147.845117614429
 21
863.6499156560908
 31
0.0
  0
ARC
  5
27C
330
1F
100
AcDbEntity
  8
ｶｳﾝﾀｰ_ｷｬﾋﾞﾈｯﾄ
  6
CONTINUOUS
 62
     6
100
AcDbCircle
 10
1143.034439024402
 20
862.1649914156001
 30
0.0
 40
5.66799999999985
100
AcDbArc
 50
303.9816465839706
 51
56.01835341602947
  0
LINE
  5
27D
330
1F
100
AcDbEntity
  8
ｶｳﾝﾀｰ_ｷｬﾋﾞﾈｯﾄ
  6
CONTINUOUS
 62
     6
100
AcDbLine
 10
1146.202439024401
 20
857.4649914156003
 30
0.0
 11
1146.202439024401
 21
866.8649914156008
 31
0.0
  0
LINE
  5
27E
330
1F
100
AcDbEntity
  8
ｶｳﾝﾀｰ_ｷｬﾋﾞﾈｯﾄ
  6
CONTINUOUS
 62
     6
100
AcDbLine
 10
1140.000000000002
 20
863.6649914156001
 30
0.0
 11
1116.202439024402
 21
862.1649914156001
 31
0.0
  0
LINE
  5
27F
330
1F
100
AcDbEntity
  8
ｶｳﾝﾀｰ_ｷｬﾋﾞﾈｯﾄ
  6
CONTINUOUS
 62
     6
100
AcDbLine
 10
1140.000000000002
 20
860.6649914156001
 30
0.0
 11
1116.202439024402
 21
862.1649914156001
 31
0.0
  0
LINE
  5
280
330
1F
100
AcDbEntity
  8
ｶｳﾝﾀｰ_ｷｬﾋﾞﾈｯﾄ
  6
CONTINUOUS
 62
     6
100
AcDbLine
 10
1153.702439024401
 20
862.1649914156001
 30
0.0
 11
1111.202439024402
 21
862.1649914156001
 31
0.0
  0
LINE
  5
281
330
1F
100
AcDbEntity
  8
ｶｳﾝﾀｰ_ｷｬﾋﾞﾈｯﾄ
  6
CONTINUOUS
 62
     6
100
AcDbLine
 10
1153.202439024392
 20
906.1649914156001
 30
0.0
 11
1111.202439024402
 21
906.1649914156001
 31
0.0
  0
LINE
  5
282
330
1F
100
AcDbEntity
  8
ｶｳﾝﾀｰ_ｷｬﾋﾞﾈｯﾄ
  6
EXLTYPE4
 62
     6
100
AcDbLine
 10
2820.0
 20
572.5000000000005
 30
0.0
 11
3069.999999999999
 21
572.5000000000005
 31
0.0
  0
LINE
  5
283
330
1F
100
AcDbEntity
  8
ｶｳﾝﾀｰ_ｷｬﾋﾞﾈｯﾄ
  6
EXLTYPE4
 62
     6
100
AcDbLine
 10
1140.0
 20
572.5
 30
0.0
 11
2490.0
 21
572.5000000000005
 31
0.0
  0
LINE
  5
284
330
1F
100
AcDbEntity
  8
ｶｳﾝﾀｰ_ｷｬﾋﾞﾈｯﾄ
  6
CONTINUOUS
 62
     6
100
AcDbLine
 10
1194.188938117102
 20
663.5000000000059
 30
0.0
 11
1194.188938117102
 21
687.4999999999932
 31
0.0
  0
LINE
  5
285
330
1F
100
AcDbEntity
  8
ｶｳﾝﾀｰ_ｷｬﾋﾞﾈｯﾄ
  6
CONTINUOUS
 62
     6
100
AcDbLine
 10
1170.188938117102
 20
663.4999999999932
 30
0.0
 11
1194.188938117102
 21
663.4999999999932
 31
0.0
  0
LINE
  5
286
330
1F
100
AcDbEntity
  8
ｶｳﾝﾀｰ_ｷｬﾋﾞﾈｯﾄ
  6
CONTINUOUS
 62
     6
100
AcDbLine
 10
1170.188938117102
 20
687.4999999999932
 30
0.0
 11
1194.188938117102
 21
687.4999999999932
 31
0.0
  0
LINE
  5
287
330
1F
100
AcDbEntity
  8
ｶｳﾝﾀｰ_ｷｬﾋﾞﾈｯﾄ
  6
CONTINUOUS
 62
     6
100
AcDbLine
 10
1170.188938117102
 20
663.4999999999932
 30
0.0
 11
1170.188938117102
 21
687.4999999999932
 31
0.0
  0
LINE
  5
288
330
1F
100
AcDbEntity
  8
ｶｳﾝﾀｰ_ｷｬﾋﾞﾈｯﾄ
  6
CONTINUOUS
 62
     6
100
AcDbLine
 10
1190.188938117102
 20
691.5000000000014
 30
0.0
 11
1190.188938117102
 21
687.4999999999932
 31
0.0
  0
LINE
  5
289
330
1F
100
AcDbEntity
  8
ｶｳﾝﾀｰ_ｷｬﾋﾞﾈｯﾄ
  6
CONTINUOUS
 62
     6
100
AcDbLine
 10
1174.188938117102
 20
691.5000000000014
 30
0.0
 11
1174.188938117102
 21
687.4999999999932
 31
0.0
  0
LINE
  5
28A
330
1F
100
AcDbEntity
  8
ｶｳﾝﾀｰ_ｷｬﾋﾞﾈｯﾄ
  6
CONTINUOUS
 62
     6
100
AcDbLine
 10
1193.688938117102
 20
703.5000000000059
 30
0.0
 11
1194.938938117102
 21
702.5000000000059
 31
0.0
  0
LINE
  5
28B
330
1F
100
AcDbEntity
  8
ｶｳﾝﾀｰ_ｷｬﾋﾞﾈｯﾄ
  6
CONTINUOUS
 62
     6
100
AcDbLine
 10
1170.688938117102
 20
703.5000000000059
 30
0.0
 11
1169.438938117102
 21
702.5000000000059
 31
0.0
  0
LINE
  5
28C
330
1F
100
AcDbEntity
  8
ｶｳﾝﾀｰ_ｷｬﾋﾞﾈｯﾄ
  6
CONTINUOUS
 62
     6
100
AcDbLine
 10
1193.688938117106
 20
703.5000000000023
 30
0.0
 11
1170.688938117097
 21
703.5000000000023
 31
0.0
  0
LINE
  5
28D
330
1F
100
AcDbEntity
  8
ｶｳﾝﾀｰ_ｷｬﾋﾞﾈｯﾄ
  6
CONTINUOUS
 62
     6
100
AcDbLine
 10
1193.688938117102
 20
691.5000000000041
 30
0.0
 11
1194.938938117102
 21
692.5000000000041
 31
0.0
  0
LINE
  5
28E
330
1F
100
AcDbEntity
  8
ｶｳﾝﾀｰ_ｷｬﾋﾞﾈｯﾄ
  6
CONTINUOUS
 62
     6
100
AcDbLine
 10
1170.688938117102
 20
691.5000000000041
 30
0.0
 11
1169.438938117102
 21
692.5000000000041
 31
0.0
  0
LINE
  5
28F
330
1F
100
AcDbEntity
  8
ｶｳﾝﾀｰ_ｷｬﾋﾞﾈｯﾄ
  6
CONTINUOUS
 62
     6
100
AcDbLine
 10
1193.688938117106
 20
691.5000000000077
 30
0.0
 11
1170.688938117097
 21
691.5000000000077
 31
0.0
  0
LINE
  5
290
330
1F
100
AcDbEntity
  8
ｶｳﾝﾀｰ_ｷｬﾋﾞﾈｯﾄ
  6
CONTINUOUS
 62
     6
100
AcDbLine
 10
1194.938938117102
 20
702.500000000005
 30
0.0
 11
1194.938938117102
 21
692.500000000005
 31
0.0
  0
LINE
  5
291
330
1F
100
AcDbEntity
  8
ｶｳﾝﾀｰ_ｷｬﾋﾞﾈｯﾄ
  6
CONTINUOUS
 62
     6
100
AcDbLine
 10
1169.476806530392
 20
702.5302947306368
 30
0.0
 11
1169.476806530392
 21
692.469705269405
 31
0.0
  0
LINE
  5
292
330
1F
100
AcDbEntity
  8
ｶｳﾝﾀｰ_ｷｬﾋﾞﾈｯﾄ
  6
CONTINUOUS
 62
     6
100
AcDbLine
 10
1202.188938117077
 20
687.00000000001
 30
0.0
 11
1203.188938117077
 21
688.25000000001
 31
0.0
  0
LINE
  5
293
330
1F
100
AcDbEntity
  8
ｶｳﾝﾀｰ_ｷｬﾋﾞﾈｯﾄ
  6
CONTINUOUS
 62
     6
100
AcDbLine
 10
1202.188938117077
 20
664.00000000001
 30
0.0
 11
1203.188938117077
 21
662.75000000001
 31
0.0
  0
LINE
  5
294
330
1F
100
AcDbEntity
  8
ｶｳﾝﾀｰ_ｷｬﾋﾞﾈｯﾄ
  6
CONTINUOUS
 62
     6
100
AcDbLine
 10
1202.18893811708
 20
687.0000000000146
 30
0.0
 11
1202.18893811708
 21
664.0000000000055
 31
0.0
  0
LINE
  5
295
330
1F
100
AcDbEntity
  8
ｶｳﾝﾀｰ_ｷｬﾋﾞﾈｯﾄ
  6
CONTINUOUS
 62
     6
100
AcDbLine
 10
1214.188938117079
 20
687.00000000001
 30
0.0
 11
1213.188938117079
 21
688.25000000001
 31
0.0
  0
LINE
  5
296
330
1F
100
AcDbEntity
  8
ｶｳﾝﾀｰ_ｷｬﾋﾞﾈｯﾄ
  6
CONTINUOUS
 62
     6
100
AcDbLine
 10
1214.188938117079
 20
664.00000000001
 30
0.0
 11
1213.188938117079
 21
662.75000000001
 31
0.0
  0
LINE
  5
297
330
1F
100
AcDbEntity
  8
ｶｳﾝﾀｰ_ｷｬﾋﾞﾈｯﾄ
  6
CONTINUOUS
 62
     6
100
AcDbLine
 10
1214.188938117075
 20
687.0000000000146
 30
0.0
 11
1214.188938117075
 21
664.0000000000055
 31
0.0
  0
LINE
  5
298
330
1F
100
AcDbEntity
  8
ｶｳﾝﾀｰ_ｷｬﾋﾞﾈｯﾄ
  6
CONTINUOUS
 62
     6
100
AcDbLine
 10
1203.188938117078
 20
688.25000000001
 30
0.0
 11
1213.188938117078
 21
688.25000000001
 31
0.0
  0
LINE
  5
299
330
1F
100
AcDbEntity
  8
ｶｳﾝﾀｰ_ｷｬﾋﾞﾈｯﾄ
  6
CONTINUOUS
 62
     6
100
AcDbLine
 10
1203.158643386446
 20
662.7878684133002
 30
0.0
 11
1213.219232847678
 21
662.7878684133002
 31
0.0
  0
LINE
  5
29A
330
1F
100
AcDbEntity
  8
ｶｳﾝﾀｰ_ｷｬﾋﾞﾈｯﾄ
  6
CONTINUOUS
 62
     6
100
AcDbLine
 10
1216.438938117263
 20
694.0000000001974
 30
0.0
 11
1214.938938117076
 21
695.5000000003847
 31
0.0
  0
LINE
  5
29B
330
1F
100
AcDbEntity
  8
ｶｳﾝﾀｰ_ｷｬﾋﾞﾈｯﾄ
  6
CONTINUOUS
 62
     6
100
AcDbLine
 10
1234.438938116889
 20
694.0000000001974
 30
0.0
 11
1235.938938117077
 21
695.5000000003847
 31
0.0
  0
LINE
  5
29C
330
1F
100
AcDbEntity
  8
ｶｳﾝﾀｰ_ｷｬﾋﾞﾈｯﾄ
  6
CONTINUOUS
 62
     6
100
AcDbLine
 10
1216.438938117076
 20
694.00000000001
 30
0.0
 11
1234.438938117076
 21
694.00000000001
 31
0.0
  0
LINE
  5
29D
330
1F
100
AcDbEntity
  8
ｶｳﾝﾀｰ_ｷｬﾋﾞﾈｯﾄ
  6
CONTINUOUS
 62
     6
100
AcDbLine
 10
1214.938938117076
 20
695.5000000004102
 30
0.0
 11
1235.938938117077
 21
695.5000000004102
 31
0.0
  0
LINE
  5
29E
330
1F
100
AcDbEntity
  8
ｶｳﾝﾀｰ_ｷｬﾋﾞﾈｯﾄ
  6
CONTINUOUS
 62
     6
100
AcDbLine
 10
1216.688938117089
 20
694.00000000001
 30
0.0
 11
1216.688938117089
 21
666.5000000000082
 31
0.0
  0
LINE
  5
29F
330
1F
100
AcDbEntity
  8
ｶｳﾝﾀｰ_ｷｬﾋﾞﾈｯﾄ
  6
CONTINUOUS
 62
     6
100
AcDbLine
 10
1214.188938117076
 20
683.50000000001
 30
0.0
 11
1216.688938117089
 21
683.50000000001
 31
0.0
  0
LINE
  5
2A0
330
1F
100
AcDbEntity
  8
ｶｳﾝﾀｰ_ｷｬﾋﾞﾈｯﾄ
  6
CONTINUOUS
 62
     6
100
AcDbLine
 10
1214.188938117076
 20
667.50000000001
 30
0.0
 11
1216.688938117089
 21
667.50000000001
 31
0.0
  0
LINE
  5
2A1
330
1F
100
AcDbEntity
  8
ｶｳﾝﾀｰ_ｷｬﾋﾞﾈｯﾄ
  6
CONTINUOUS
 62
     6
100
AcDbLine
 10
1220.68893811709
 20
681.6000000000099
 30
0.0
 11
1216.688938117089
 21
681.6000000000099
 31
0.0
  0
LINE
  5
2A2
330
1F
100
AcDbEntity
  8
ｶｳﾝﾀｰ_ｷｬﾋﾞﾈｯﾄ
  6
CONTINUOUS
 62
     6
100
AcDbLine
 10
1220.68893811709
 20
669.4000000000101
 30
0.0
 11
1220.68893811709
 21
681.6000000000099
 31
0.0
  0
LINE
  5
2A3
330
1F
100
AcDbEntity
  8
ｶｳﾝﾀｰ_ｷｬﾋﾞﾈｯﾄ
  6
CONTINUOUS
 62
     6
100
AcDbLine
 10
1220.68893811709
 20
669.4000000000101
 30
0.0
 11
1216.688938117089
 21
669.4000000000101
 31
0.0
  0
LINE
  5
2A4
330
1F
100
AcDbEntity
  8
ｶｳﾝﾀｰ_ｷｬﾋﾞﾈｯﾄ
  6
CONTINUOUS
 62
     6
100
AcDbLine
 10
1234.188938117089
 20
694.00000000001
 30
0.0
 11
1234.188938117089
 21
668.0000000000082
 31
0.0
  0
LINE
  5
2A5
330
1F
100
AcDbEntity
  8
ｶｳﾝﾀｰ_ｷｬﾋﾞﾈｯﾄ
  6
CONTINUOUS
 62
     6
100
AcDbLine
 10
1216.688938117089
 20
666.5000000000082
 30
0.0
 11
1232.688938117089
 21
666.5000000000082
 31
0.0
  0
ARC
  5
2A6
330
1F
100
AcDbEntity
  8
ｶｳﾝﾀｰ_ｷｬﾋﾞﾈｯﾄ
  6
CONTINUOUS
 62
     6
100
AcDbCircle
 10
1232.688938117089
 20
668.0000000000082
 30
0.0
 40
1.5
100
AcDbArc
 50
270.0
 51
0.0
  0
LINE
  5
2A7
330
1F
100
AcDbEntity
  8
ｶｳﾝﾀｰ_ｷｬﾋﾞﾈｯﾄ
  6
CONTINUOUS
 62
     6
100
AcDbLine
 10
1194.188938117102
 20
686.0000000000059
 30
0.0
 11
1202.18893811708
 21
686.0000000000059
 31
0.0
  0
LINE
  5
2A8
330
1F
100
AcDbEntity
  8
ｶｳﾝﾀｰ_ｷｬﾋﾞﾈｯﾄ
  6
CONTINUOUS
 62
     6
100
AcDbLine
 10
1194.188938117102
 20
665.000000000005
 30
0.0
 11
1202.18893811708
 21
665.000000000005
 31
0.0
  0
LINE
  5
2A9
330
1F
100
AcDbEntity
  8
ｶｳﾝﾀｰ_ｷｬﾋﾞﾈｯﾄ
  6
CONTINUOUS
 62
     6
100
AcDbLine
 10
1193.688938117102
 20
658.000000000025
 30
0.0
 11
1194.938938117102
 21
657.000000000025
 31
0.0
  0
LINE
  5
2AA
330
1F
100
AcDbEntity
  8
ｶｳﾝﾀｰ_ｷｬﾋﾞﾈｯﾄ
  6
CONTINUOUS
 62
     6
100
AcDbLine
 10
1170.688938117102
 20
658.000000000025
 30
0.0
 11
1169.438938117102
 21
657.000000000025
 31
0.0
  0
LINE
  5
2AB
330
1F
100
AcDbEntity
  8
ｶｳﾝﾀｰ_ｷｬﾋﾞﾈｯﾄ
  6
CONTINUOUS
 62
     6
100
AcDbLine
 10
1193.688938117106
 20
658.0000000000214
 30
0.0
 11
1170.688938117097
 21
658.0000000000214
 31
0.0
  0
LINE
  5
2AC
330
1F
100
AcDbEntity
  8
ｶｳﾝﾀｰ_ｷｬﾋﾞﾈｯﾄ
  6
CONTINUOUS
 62
     6
100
AcDbLine
 10
1193.688938117102
 20
646.0000000000232
 30
0.0
 11
1194.938938117102
 21
647.0000000000232
 31
0.0
  0
LINE
  5
2AD
330
1F
100
AcDbEntity
  8
ｶｳﾝﾀｰ_ｷｬﾋﾞﾈｯﾄ
  6
CONTINUOUS
 62
     6
100
AcDbLine
 10
1170.688938117102
 20
646.0000000000232
 30
0.0
 11
1169.438938117102
 21
647.0000000000232
 31
0.0
  0
LINE
  5
2AE
330
1F
100
AcDbEntity
  8
ｶｳﾝﾀｰ_ｷｬﾋﾞﾈｯﾄ
  6
CONTINUOUS
 62
     6
100
AcDbLine
 10
1193.688938117106
 20
646.0000000000268
 30
0.0
 11
1170.688938117097
 21
646.0000000000268
 31
0.0
  0
LINE
  5
2AF
330
1F
100
AcDbEntity
  8
ｶｳﾝﾀｰ_ｷｬﾋﾞﾈｯﾄ
  6
CONTINUOUS
 62
     6
100
AcDbLine
 10
1194.938938117102
 20
657.0000000000241
 30
0.0
 11
1194.938938117102
 21
647.0000000000241
 31
0.0
  0
LINE
  5
2B0
330
1F
100
AcDbEntity
  8
ｶｳﾝﾀｰ_ｷｬﾋﾞﾈｯﾄ
  6
CONTINUOUS
 62
     6
100
AcDbLine
 10
1169.476806530392
 20
657.0302947306559
 30
0.0
 11
1169.476806530392
 21
646.9697052694241
 31
0.0
  0
LINE
  5
2B1
330
1F
100
AcDbEntity
  8
ｶｳﾝﾀｰ_ｷｬﾋﾞﾈｯﾄ
  6
CONTINUOUS
 62
     6
100
AcDbLine
 10
1215.188938117068
 20
643.7499999999923
 30
0.0
 11
1213.688938117033
 21
645.2500000000259
 31
0.0
  0
LINE
  5
2B2
330
1F
100
AcDbEntity
  8
ｶｳﾝﾀｰ_ｷｬﾋﾞﾈｯﾄ
  6
CONTINUOUS
 62
     6
100
AcDbLine
 10
1215.188938117068
 20
625.7500000000596
 30
0.0
 11
1213.688938117033
 21
624.2500000000259
 31
0.0
  0
LINE
  5
2B3
330
1F
100
AcDbEntity
  8
ｶｳﾝﾀｰ_ｷｬﾋﾞﾈｯﾄ
  6
CONTINUOUS
 62
     6
100
AcDbLine
 10
1215.188938117102
 20
643.7500000000259
 30
0.0
 11
1215.188938117102
 21
625.7500000000941
 31
0.0
  0
LINE
  5
2B4
330
1F
100
AcDbEntity
  8
ｶｳﾝﾀｰ_ｷｬﾋﾞﾈｯﾄ
  6
CONTINUOUS
 62
     6
100
AcDbLine
 10
1213.688938117002
 20
645.2500000000259
 30
0.0
 11
1213.688938117002
 21
624.2500000000259
 31
0.0
  0
LINE
  5
2B5
330
1F
100
AcDbEntity
  8
ｶｳﾝﾀｰ_ｷｬﾋﾞﾈｯﾄ
  6
CONTINUOUS
 62
     6
100
AcDbLine
 10
1200.68893811729
 20
643.7499999998386
 30
0.0
 11
1202.188938117477
 21
645.2500000000259
 31
0.0
  0
LINE
  5
2B6
330
1F
100
AcDbEntity
  8
ｶｳﾝﾀｰ_ｷｬﾋﾞﾈｯﾄ
  6
CONTINUOUS
 62
     6
100
AcDbLine
 10
1202.188938117477
 20
645.2500000000259
 30
0.0
 11
1213.688938117002
 21
645.2500000000259
 31
0.0
  0
LINE
  5
2B7
330
1F
100
AcDbEntity
  8
ｶｳﾝﾀｰ_ｷｬﾋﾞﾈｯﾄ
  6
CONTINUOUS
 62
     6
100
AcDbLine
 10
1200.68893811729
 20
625.7500000002124
 30
0.0
 11
1202.188938117477
 21
624.250000000025
 31
0.0
  0
LINE
  5
2B8
330
1F
100
AcDbEntity
  8
ｶｳﾝﾀｰ_ｷｬﾋﾞﾈｯﾄ
  6
CONTINUOUS
 62
     6
100
AcDbLine
 10
1202.188938117477
 20
624.250000000025
 30
0.0
 11
1213.688938117002
 21
624.250000000025
 31
0.0
  0
LINE
  5
2B9
330
1F
100
AcDbEntity
  8
ｶｳﾝﾀｰ_ｷｬﾋﾞﾈｯﾄ
  6
CONTINUOUS
 62
     6
100
AcDbLine
 10
1200.688938117102
 20
643.7500000000259
 30
0.0
 11
1200.688938117102
 21
625.7500000000259
 31
0.0
  0
LINE
  5
2BA
330
1F
100
AcDbEntity
  8
ｶｳﾝﾀｰ_ｷｬﾋﾞﾈｯﾄ
  6
CONTINUOUS
 62
     6
100
AcDbLine
 10
1200.988938117476
 20
625.4500000000257
 30
0.0
 11
1214.888938117034
 21
625.4500000000257
 31
0.0
  0
LINE
  5
2BB
330
1F
100
AcDbEntity
  8
ｶｳﾝﾀｰ_ｷｬﾋﾞﾈｯﾄ
  6
CONTINUOUS
 62
     6
100
AcDbLine
 10
1200.988938117476
 20
644.0500000000252
 30
0.0
 11
1214.888938117034
 21
644.0500000000252
 31
0.0
  0
LINE
  5
2BC
330
1F
100
AcDbEntity
  8
ｶｳﾝﾀｰ_ｷｬﾋﾞﾈｯﾄ
  6
CONTINUOUS
 62
     6
100
AcDbLine
 10
1202.188938117502
 20
645.2500000000259
 30
0.0
 11
1202.188938117502
 21
624.250000000025
 31
0.0
  0
LINE
  5
2BD
330
1F
100
AcDbEntity
  8
ｶｳﾝﾀｰ_ｷｬﾋﾞﾈｯﾄ
  6
CONTINUOUS
 62
     6
100
AcDbLine
 10
1200.688938117102
 20
643.5000000000132
 30
0.0
 11
1173.1889381171
 21
643.5000000000132
 31
0.0
  0
LINE
  5
2BE
330
1F
100
AcDbEntity
  8
ｶｳﾝﾀｰ_ｷｬﾋﾞﾈｯﾄ
  6
CONTINUOUS
 62
     6
100
AcDbLine
 10
1190.188938117102
 20
646.0000000000259
 30
0.0
 11
1190.188938117102
 21
643.5000000000132
 31
0.0
  0
LINE
  5
2BF
330
1F
100
AcDbEntity
  8
ｶｳﾝﾀｰ_ｷｬﾋﾞﾈｯﾄ
  6
CONTINUOUS
 62
     6
100
AcDbLine
 10
1174.188938117102
 20
646.0000000000259
 30
0.0
 11
1174.188938117102
 21
643.5000000000132
 31
0.0
  0
LINE
  5
2C0
330
1F
100
AcDbEntity
  8
ｶｳﾝﾀｰ_ｷｬﾋﾞﾈｯﾄ
  6
CONTINUOUS
 62
     6
100
AcDbLine
 10
1188.288938117102
 20
639.5000000000114
 30
0.0
 11
1188.288938117102
 21
643.5000000000132
 31
0.0
  0
LINE
  5
2C1
330
1F
100
AcDbEntity
  8
ｶｳﾝﾀｰ_ｷｬﾋﾞﾈｯﾄ
  6
CONTINUOUS
 62
     6
100
AcDbLine
 10
1176.088938117102
 20
639.5000000000114
 30
0.0
 11
1188.288938117102
 21
639.5000000000114
 31
0.0
  0
LINE
  5
2C2
330
1F
100
AcDbEntity
  8
ｶｳﾝﾀｰ_ｷｬﾋﾞﾈｯﾄ
  6
CONTINUOUS
 62
     6
100
AcDbLine
 10
1176.088938117102
 20
639.5000000000114
 30
0.0
 11
1176.088938117102
 21
643.5000000000132
 31
0.0
  0
LINE
  5
2C3
330
1F
100
AcDbEntity
  8
ｶｳﾝﾀｰ_ｷｬﾋﾞﾈｯﾄ
  6
CONTINUOUS
 62
     6
100
AcDbLine
 10
1200.688938117102
 20
626.0000000000132
 30
0.0
 11
1174.6889381171
 21
626.0000000000132
 31
0.0
  0
LINE
  5
2C4
330
1F
100
AcDbEntity
  8
ｶｳﾝﾀｰ_ｷｬﾋﾞﾈｯﾄ
  6
CONTINUOUS
 62
     6
100
AcDbLine
 10
1173.1889381171
 20
643.5000000000132
 30
0.0
 11
1173.1889381171
 21
627.5000000000132
 31
0.0
  0
ARC
  5
2C5
330
1F
100
AcDbEntity
  8
ｶｳﾝﾀｰ_ｷｬﾋﾞﾈｯﾄ
  6
CONTINUOUS
 62
     6
100
AcDbCircle
 10
1174.6889381171
 20
627.5000000000132
 30
0.0
 40
1.5
100
AcDbArc
 50
180.0
 51
270.0
  0
LINE
  5
2C6
330
1F
100
AcDbEntity
  8
ｶｳﾝﾀｰ_ｷｬﾋﾞﾈｯﾄ
  6
CONTINUOUS
 62
     6
100
AcDbLine
 10
1192.688938117101
 20
663.4999999999932
 30
0.0
 11
1192.688938117101
 21
658.0000000000214
 31
0.0
  0
LINE
  5
2C7
330
1F
100
AcDbEntity
  8
ｶｳﾝﾀｰ_ｷｬﾋﾞﾈｯﾄ
  6
CONTINUOUS
 62
     6
100
AcDbLine
 10
1171.688938117102
 20
663.4999999999932
 30
0.0
 11
1171.688938117102
 21
658.0000000000214
 31
0.0
  0
LINE
  5
2C8
330
1F
100
AcDbEntity
  8
ｶｳﾝﾀｰ_ｷｬﾋﾞﾈｯﾄ
  6
CONTINUOUS
 62
     6
100
AcDbLine
 10
1232.438938117102
 20
714.5000000000105
 30
0.0
 11
1232.438938117102
 21
736.5000000000105
 31
0.0
  0
LINE
  5
2C9
330
1F
100
AcDbEntity
  8
ｶｳﾝﾀｰ_ｷｬﾋﾞﾈｯﾄ
  6
CONTINUOUS
 62
     6
100
AcDbLine
 10
1218.438938117101
 20
714.5000000000105
 30
0.0
 11
1218.438938117101
 21
736.5000000000105
 31
0.0
  0
ELLIPSE
  5
2CA
330
1F
100
AcDbEntity
  8
ｶｳﾝﾀｰ_ｷｬﾋﾞﾈｯﾄ
  6
CONTINUOUS
 62
     6
100
AcDbEllipse
 10
1225.438938117102
 20
708.2500000000105
 30
0.0
 11
-1.030996966999055E-15
 21
-5.612486080160012
 31
0.0
210
0.0
220
0.0
230
1.0
 40
0.8728715609447605
 41
0.0
 42
6.283185307179586
  0
ELLIPSE
  5
2CB
330
1F
100
AcDbEntity
  8
ｶｳﾝﾀｰ_ｷｬﾋﾞﾈｯﾄ
  6
CONTINUOUS
 62
     6
100
AcDbEllipse
 10
1235.443839317473
 20
708.2500000000105
 30
0.0
 11
-1.031031008746985E-15
 21
-5.612671394804496
 31
0.0
210
0.0
220
0.0
230
1.0
 40
0.444547457729246
 41
0.0
 42
6.283185307179586
  0
ARC
  5
2CC
330
1F
100
AcDbEntity
  8
ｶｳﾝﾀｰ_ｷｬﾋﾞﾈｯﾄ
  6
CONTINUOUS
 62
     6
100
AcDbCircle
 10
1221.688938117104
 20
708.2500000000105
 30
0.0
 40
16.25000000000002
100
AcDbArc
 50
337.3801350519595
 51
22.61986494804045
  0
LINE
  5
2CD
330
1F
100
AcDbEntity
  8
ｶｳﾝﾀｰ_ｷｬﾋﾞﾈｯﾄ
  6
CONTINUOUS
 62
     6
100
AcDbLine
 10
1218.438938117101
 20
736.5000000000095
 30
0.0
 11
1232.438938117101
 21
736.5000000000095
 31
0.0
  0
ELLIPSE
  5
2CE
330
1F
100
AcDbEntity
  8
ｶｳﾝﾀｰ_ｷｬﾋﾞﾈｯﾄ
  6
CONTINUOUS
 62
     6
100
AcDbEllipse
 10
1215.434036916731
 20
708.2500000000105
 30
0.0
 11
-1.031031008746985E-15
 21
-5.612671394804496
 31
0.0
210
0.0
220
0.0
230
1.0
 40
0.444547457729246
 41
0.0
 42
6.283185307179586
  0
LINE
  5
2CF
330
1F
100
AcDbEntity
  8
ｶｳﾝﾀｰ_ｷｬﾋﾞﾈｯﾄ
  6
CONTINUOUS
 62
     6
100
AcDbLine
 10
1214.188938117101
 20
702.0000000000105
 30
0.0
 11
1236.688938117102
 21
702.0000000000105
 31
0.0
  0
LINE
  5
2D0
330
1F
100
AcDbEntity
  8
ｶｳﾝﾀｰ_ｷｬﾋﾞﾈｯﾄ
  6
CONTINUOUS
 62
     6
100
AcDbLine
 10
1214.188938117101
 20
714.5000000000105
 30
0.0
 11
1236.688938117102
 21
714.5000000000105
 31
0.0
  0
ARC
  5
2D1
330
1F
100
AcDbEntity
  8
ｶｳﾝﾀｰ_ｷｬﾋﾞﾈｯﾄ
  6
CONTINUOUS
 62
     6
100
AcDbCircle
 10
1229.188938117102
 20
708.2500000000105
 30
0.0
 40
16.25000000000002
100
AcDbArc
 50
157.3801350519596
 51
202.6198649480405
  0
LINE
  5
2D2
330
1F
100
AcDbEntity
  8
ｶｳﾝﾀｰ_ｷｬﾋﾞﾈｯﾄ
  6
CONTINUOUS
 62
     6
100
AcDbLine
 10
1235.938938117077
 20
695.5000000003852
 30
0.0
 11
1235.938938117077
 21
702.0000000000105
 31
0.0
  0
LINE
  5
2D3
330
1F
100
AcDbEntity
  8
ｶｳﾝﾀｰ_ｷｬﾋﾞﾈｯﾄ
  6
CONTINUOUS
 62
     6
100
AcDbLine
 10
1214.938938117076
 20
695.5000000003852
 30
0.0
 11
1214.938938117076
 21
702.0000000000105
 31
0.0
  0
LINE
  5
2D4
330
1F
100
AcDbEntity
  8
ｶｳﾝﾀｰ_ｷｬﾋﾞﾈｯﾄ
  6
EXLTYPE3
 62
     6
100
AcDbLine
 10
1182.188938117102
 20
663.49999999999
 30
0.0
 11
1182.188938117102
 21
708.5
 31
0.0
  0
LINE
  5
2D5
330
1F
100
AcDbEntity
  8
ｶｳﾝﾀｰ_ｷｬﾋﾞﾈｯﾄ
  6
EXLTYPE3
 62
     6
100
AcDbLine
 10
1220.188938117101
 20
634.75000000006
 30
0.0
 11
1182.188938117102
 21
634.75000000006
 31
0.0
  0
ARC
  5
2D6
330
1F
100
AcDbEntity
  8
ｶｳﾝﾀｰ_ｷｬﾋﾞﾈｯﾄ
  6
CONTINUOUS
 62
     6
100
AcDbCircle
 10
1209.899875617101
 20
685.4592921435351
 30
0.0
 40
4.289062499977329
100
AcDbArc
 50
310.4812449974944
 51
0.0
  0
ARC
  5
2D7
330
1F
100
AcDbEntity
  8
ｶｳﾝﾀｰ_ｷｬﾋﾞﾈｯﾄ
  6
CONTINUOUS
 62
     6
100
AcDbCircle
 10
1206.478000617054
 20
685.4592921435351
 30
0.0
 40
4.289062499977329
100
AcDbArc
 50
180.0
 51
229.5187550025057
  0
ARC
  5
2D8
330
1F
100
AcDbEntity
  8
ｶｳﾝﾀｰ_ｷｬﾋﾞﾈｯﾄ
  6
CONTINUOUS
 62
     6
100
AcDbCircle
 10
1217.845188117043
 20
675.50000000001
 30
0.0
 40
15.65624999996628
100
AcDbArc
 50
154.6751829725619
 51
205.3248170274374
  0
ARC
  5
2D9
330
1F
100
AcDbEntity
  8
ｶｳﾝﾀｰ_ｷｬﾋﾞﾈｯﾄ
  6
CONTINUOUS
 62
     6
100
AcDbCircle
 10
1206.478000617054
 20
665.5407078564854
 30
0.0
 40
4.289062499977329
100
AcDbArc
 50
130.4812449974943
 51
180.0
  0
ARC
  5
2DA
330
1F
100
AcDbEntity
  8
ｶｳﾝﾀｰ_ｷｬﾋﾞﾈｯﾄ
  6
CONTINUOUS
 62
     6
100
AcDbCircle
 10
1198.532688117112
 20
675.50000000001
 30
0.0
 40
15.65624999996628
100
AcDbArc
 50
334.6751829725627
 51
25.3248170274381
  0
ARC
  5
2DB
330
1F
100
AcDbEntity
  8
ｶｳﾝﾀｰ_ｷｬﾋﾞﾈｯﾄ
  6
CONTINUOUS
 62
     6
100
AcDbCircle
 10
1209.899875617101
 20
665.5407078564854
 30
0.0
 40
4.289062499977329
100
AcDbArc
 50
0.0
 51
49.51875500250568
  0
LINE
  5
2DC
330
1F
100
AcDbEntity
  8
ｶｳﾝﾀｰ_ｷｬﾋﾞﾈｯﾄ
  6
CONTINUOUS
 62
     6
100
AcDbLine
 10
1212.684331152902
 20
682.1969518029
 30
0.0
 11
1203.693545081302
 21
682.1969518029
 31
0.0
  0
LINE
  5
2DD
330
1F
100
AcDbEntity
  8
ｶｳﾝﾀｰ_ｷｬﾋﾞﾈｯﾄ
  6
CONTINUOUS
 62
     6
100
AcDbLine
 10
1212.684331152902
 20
668.80304819712
 30
0.0
 11
1203.693545081302
 21
668.80304819712
 31
0.0
  0
ARC
  5
2DE
330
1F
100
AcDbEntity
  8
ｶｳﾝﾀｰ_ｷｬﾋﾞﾈｯﾄ
  6
CONTINUOUS
 62
     6
100
AcDbCircle
 10
1192.148230260627
 20
699.2109375000286
 30
0.0
 40
4.289062499977329
100
AcDbArc
 50
90.00000000000001
 51
139.5187550025057
  0
ARC
  5
2DF
330
1F
100
AcDbEntity
  8
ｶｳﾝﾀｰ_ｷｬﾋﾞﾈｯﾄ
  6
CONTINUOUS
 62
     6
100
AcDbCircle
 10
1182.188938117102
 20
687.8437500000396
 30
0.0
 40
15.65624999996628
100
AcDbArc
 50
64.67518297256187
 51
115.3248170274374
  0
ARC
  5
2E0
330
1F
100
AcDbEntity
  8
ｶｳﾝﾀｰ_ｷｬﾋﾞﾈｯﾄ
  6
CONTINUOUS
 62
     6
100
AcDbCircle
 10
1172.229645973577
 20
699.2109375000286
 30
0.0
 40
4.289062499977329
100
AcDbArc
 50
40.48124499749435
 51
90.00000000000001
  0
ARC
  5
2E1
330
1F
100
AcDbEntity
  8
ｶｳﾝﾀｰ_ｷｬﾋﾞﾈｯﾄ
  6
CONTINUOUS
 62
     6
100
AcDbCircle
 10
1172.229645973577
 20
695.7890624999814
 30
0.0
 40
4.289062499977329
100
AcDbArc
 50
270.0
 51
319.5187550025058
  0
ARC
  5
2E2
330
1F
100
AcDbEntity
  8
ｶｳﾝﾀｰ_ｷｬﾋﾞﾈｯﾄ
  6
CONTINUOUS
 62
     6
100
AcDbCircle
 10
1182.188938117102
 20
707.1562499999704
 30
0.0
 40
15.65624999996628
100
AcDbArc
 50
244.6751829725626
 51
295.3248170274381
  0
ARC
  5
2E3
330
1F
100
AcDbEntity
  8
ｶｳﾝﾀｰ_ｷｬﾋﾞﾈｯﾄ
  6
CONTINUOUS
 62
     6
100
AcDbCircle
 10
1192.148230260627
 20
695.7890624999814
 30
0.0
 40
4.289062499977329
100
AcDbArc
 50
220.4812449974943
 51
270.0
  0
LINE
  5
2E4
330
1F
100
AcDbEntity
  8
ｶｳﾝﾀｰ_ｷｬﾋﾞﾈｯﾄ
  6
CONTINUOUS
 62
     6
100
AcDbLine
 10
1188.885889920002
 20
693.0046069642299
 30
0.0
 11
1188.885889920002
 21
701.9953930357901
 31
0.0
  0
LINE
  5
2E5
330
1F
100
AcDbEntity
  8
ｶｳﾝﾀｰ_ｷｬﾋﾞﾈｯﾄ
  6
CONTINUOUS
 62
     6
100
AcDbLine
 10
1175.491986314202
 20
693.0046069642299
 30
0.0
 11
1175.491986314202
 21
701.9953930357901
 31
0.0
  0
ARC
  5
2E6
330
1F
100
AcDbEntity
  8
ｶｳﾝﾀｰ_ｷｬﾋﾞﾈｯﾄ
  6
CONTINUOUS
 62
     6
100
AcDbCircle
 10
1192.148230260627
 20
653.7109375000477
 30
0.0
 40
4.289062499977329
100
AcDbArc
 50
90.00000000000001
 51
139.5187550025057
  0
ARC
  5
2E7
330
1F
100
AcDbEntity
  8
ｶｳﾝﾀｰ_ｷｬﾋﾞﾈｯﾄ
  6
CONTINUOUS
 62
     6
100
AcDbCircle
 10
1192.148230260627
 20
650.2890625000005
 30
0.0
 40
4.289062499977329
100
AcDbArc
 50
220.4812449974943
 51
270.0
  0
ARC
  5
2E8
330
1F
100
AcDbEntity
  8
ｶｳﾝﾀｰ_ｷｬﾋﾞﾈｯﾄ
  6
CONTINUOUS
 62
     6
100
AcDbCircle
 10
1182.188938117102
 20
661.6562499999895
 30
0.0
 40
15.65624999996628
100
AcDbArc
 50
244.6751829725619
 51
295.3248170274381
  0
ARC
  5
2E9
330
1F
100
AcDbEntity
  8
ｶｳﾝﾀｰ_ｷｬﾋﾞﾈｯﾄ
  6
CONTINUOUS
 62
     6
100
AcDbCircle
 10
1172.229645973577
 20
650.2890625000005
 30
0.0
 40
4.289062499977329
100
AcDbArc
 50
270.0
 51
319.5187550025058
  0
ARC
  5
2EA
330
1F
100
AcDbEntity
  8
ｶｳﾝﾀｰ_ｷｬﾋﾞﾈｯﾄ
  6
CONTINUOUS
 62
     6
100
AcDbCircle
 10
1172.229645973577
 20
653.7109375000477
 30
0.0
 40
4.289062499977329
100
AcDbArc
 50
40.48124499749435
 51
90.00000000000001
  0
ARC
  5
2EB
330
1F
100
AcDbEntity
  8
ｶｳﾝﾀｰ_ｷｬﾋﾞﾈｯﾄ
  6
CONTINUOUS
 62
     6
100
AcDbCircle
 10
1182.188938117102
 20
642.3437500000587
 30
0.0
 40
15.65624999996628
100
AcDbArc
 50
64.67518297256187
 51
115.3248170274381
  0
LINE
  5
2EC
330
1F
100
AcDbEntity
  8
ｶｳﾝﾀｰ_ｷｬﾋﾞﾈｯﾄ
  6
CONTINUOUS
 62
     6
100
AcDbLine
 10
1188.885889920002
 20
647.5046069642399
 30
0.0
 11
1188.885889920002
 21
656.4953930358001
 31
0.0
  0
LINE
  5
2ED
330
1F
100
AcDbEntity
  8
ｶｳﾝﾀｰ_ｷｬﾋﾞﾈｯﾄ
  6
CONTINUOUS
 62
     6
100
AcDbLine
 10
1175.491986314202
 20
647.5046069642399
 30
0.0
 11
1175.491986314202
 21
656.4953930358001
 31
0.0
  0
LINE
  5
2EE
330
1F
100
AcDbEntity
  8
ｶｳﾝﾀｰ_ｷｬﾋﾞﾈｯﾄ
  6
CONTINUOUS
 62
     6
100
AcDbLine
 10
1218.738938117101
 20
736.5000000000105
 30
0.0
 11
1218.738938117101
 21
856.5000000000005
 31
0.0
  0
LINE
  5
2EF
330
1F
100
AcDbEntity
  8
ｶｳﾝﾀｰ_ｷｬﾋﾞﾈｯﾄ
  6
CONTINUOUS
 62
     6
100
AcDbLine
 10
1232.138938117101
 20
736.5000000000105
 30
0.0
 11
1232.138938117101
 21
852.7000000000003
 31
0.0
  0
LINE
  5
2F0
330
1F
100
AcDbEntity
  8
ｶｳﾝﾀｰ_ｷｬﾋﾞﾈｯﾄ
  6
CONTINUOUS
 62
     6
100
AcDbLine
 10
1218.738938117101
 20
894.5000000000014
 30
0.0
 11
1218.738938117101
 21
957.5000000000005
 31
0.0
  0
LINE
  5
2F1
330
1F
100
AcDbEntity
  8
ｶｳﾝﾀｰ_ｷｬﾋﾞﾈｯﾄ
  6
CONTINUOUS
 62
     6
100
AcDbLine
 10
1232.138938117101
 20
898.2999999999988
 30
0.0
 11
1232.138938117101
 21
957.5000000000005
 31
0.0
  0
LINE
  5
2F2
330
1F
100
AcDbEntity
  8
ｶｳﾝﾀｰ_ｷｬﾋﾞﾈｯﾄ
  6
EXLTYPE4
 62
     6
100
AcDbLine
 10
1140.0
 20
572.5
 30
0.0
 11
1140.0
 21
1602.5
 31
0.0
  0
LINE
  5
2F3
330
1F
100
AcDbEntity
  8
ｶｳﾝﾀｰ_ｷｬﾋﾞﾈｯﾄ
  6
CONTINUOUS
 62
     6
100
AcDbLine
 10
1207.999999999999
 20
856.4999999999995
 30
0.0
 11
1226.699999999999
 21
856.4999999999995
 31
0.0
  0
LINE
  5
2F4
330
1F
100
AcDbEntity
  8
ｶｳﾝﾀｰ_ｷｬﾋﾞﾈｯﾄ
  6
CONTINUOUS
 62
     6
100
AcDbLine
 10
1189.999999999999
 20
859.2499999999977
 30
0.0
 11
1204.999999999999
 21
859.2499999999977
 31
0.0
  0
LINE
  5
2F5
330
1F
100
AcDbEntity
  8
ｶｳﾝﾀｰ_ｷｬﾋﾞﾈｯﾄ
  6
CONTINUOUS
 62
     6
100
AcDbLine
 10
1207.999999999999
 20
856.4999999999995
 30
0.0
 11
1204.999999999999
 21
859.2499999999995
 31
0.0
  0
LINE
  5
2F6
330
1F
100
AcDbEntity
  8
ｶｳﾝﾀｰ_ｷｬﾋﾞﾈｯﾄ
  6
CONTINUOUS
 62
     6
100
AcDbLine
 10
1244.499999999999
 20
852.7000000000003
 30
0.0
 11
1226.699999999999
 21
852.7000000000003
 31
0.0
  0
LINE
  5
2F7
330
1F
100
AcDbEntity
  8
ｶｳﾝﾀｰ_ｷｬﾋﾞﾈｯﾄ
  6
CONTINUOUS
 62
     6
100
AcDbLine
 10
1244.499999999999
 20
898.2999999999988
 30
0.0
 11
1226.699999999999
 21
898.2999999999988
 31
0.0
  0
LINE
  5
2F8
330
1F
100
AcDbEntity
  8
ｶｳﾝﾀｰ_ｷｬﾋﾞﾈｯﾄ
  6
CONTINUOUS
 62
     6
100
AcDbLine
 10
1244.499999999999
 20
852.7000000000003
 30
0.0
 11
1244.499999999999
 21
898.2999999999988
 31
0.0
  0
LINE
  5
2F9
330
1F
100
AcDbEntity
  8
ｶｳﾝﾀｰ_ｷｬﾋﾞﾈｯﾄ
  6
CONTINUOUS
 62
     6
100
AcDbLine
 10
1226.699999999999
 20
852.7000000000003
 30
0.0
 11
1226.699999999999
 21
898.2999999999988
 31
0.0
  0
LINE
  5
2FA
330
1F
100
AcDbEntity
  8
ｶｳﾝﾀｰ_ｷｬﾋﾞﾈｯﾄ
  6
CONTINUOUS
 62
     6
100
AcDbLine
 10
1207.999999999999
 20
894.5000000000014
 30
0.0
 11
1226.699999999999
 21
894.5000000000014
 31
0.0
  0
LINE
  5
2FB
330
1F
100
AcDbEntity
  8
ｶｳﾝﾀｰ_ｷｬﾋﾞﾈｯﾄ
  6
CONTINUOUS
 62
     6
100
AcDbLine
 10
1207.999999999999
 20
894.5000000000014
 30
0.0
 11
1204.999999999999
 21
891.7500000000014
 31
0.0
  0
ARC
  5
2FC
330
1F
100
AcDbEntity
  8
ｶｳﾝﾀｰ_ｷｬﾋﾞﾈｯﾄ
  6
CONTINUOUS
 62
     6
100
AcDbCircle
 10
1189.999999999999
 20
875.4999999999977
 30
0.0
 40
16.25
100
AcDbArc
 50
90.00000000000001
 51
270.0
  0
LINE
  5
2FD
330
1F
100
AcDbEntity
  8
ｶｳﾝﾀｰ_ｷｬﾋﾞﾈｯﾄ
  6
CONTINUOUS
 62
     6
100
AcDbLine
 10
1189.999999999999
 20
891.7500000000032
 30
0.0
 11
1204.999999999999
 21
891.7500000000032
 31
0.0
  0
LINE
  5
2FE
330
1F
100
AcDbEntity
  8
ｶｳﾝﾀｰ_ｷｬﾋﾞﾈｯﾄ
  6
CONTINUOUS
 62
     6
100
AcDbLine
 10
1182.506002401922
 20
852.6999999999994
 30
0.0
 11
1197.493997598076
 21
852.6999999999994
 31
0.0
  0
LINE
  5
2FF
330
1F
100
AcDbEntity
  8
ｶｳﾝﾀｰ_ｷｬﾋﾞﾈｯﾄ
  6
CONTINUOUS
 62
     6
100
AcDbLine
 10
1168.578908869149
 20
864.6770219087434
 30
0.0
 11
1179.177021908741
 21
854.0789088691513
 31
0.0
  0
LINE
  5
300
330
1F
100
AcDbEntity
  8
ｶｳﾝﾀｰ_ｷｬﾋﾞﾈｯﾄ
  6
CONTINUOUS
 62
     6
100
AcDbLine
 10
1167.199999999999
 20
882.9939975980774
 30
0.0
 11
1167.199999999999
 21
868.0060024019226
 31
0.0
  0
LINE
  5
301
330
1F
100
AcDbEntity
  8
ｶｳﾝﾀｰ_ｷｬﾋﾞﾈｯﾄ
  6
CONTINUOUS
 62
     6
100
AcDbLine
 10
1179.177021908742
 20
896.9210911308496
 30
0.0
 11
1168.57890886915
 21
886.3229780912575
 31
0.0
  0
LINE
  5
302
330
1F
100
AcDbEntity
  8
ｶｳﾝﾀｰ_ｷｬﾋﾞﾈｯﾄ
  6
CONTINUOUS
 62
     6
100
AcDbLine
 10
1197.493997598076
 20
898.2999999999997
 30
0.0
 11
1182.506002401922
 21
898.2999999999997
 31
0.0
  0
ARC
  5
303
330
1F
100
AcDbEntity
  8
ｶｳﾝﾀｰ_ｷｬﾋﾞﾈｯﾄ
  6
CONTINUOUS
 62
     6
100
AcDbCircle
 10
1189.999999999999
 20
875.4999999999995
 30
0.0
 40
24.0
100
AcDbArc
 50
63.19487233876107
 51
71.8051276612387
  0
ARC
  5
304
330
1F
100
AcDbEntity
  8
ｶｳﾝﾀｰ_ｷｬﾋﾞﾈｯﾄ
  6
CONTINUOUS
 62
     6
100
AcDbCircle
 10
1189.999999999999
 20
875.4999999999995
 30
0.0
 40
24.0
100
AcDbArc
 50
108.1948723387613
 51
116.805127661239
  0
ARC
  5
305
330
1F
100
AcDbEntity
  8
ｶｳﾝﾀｰ_ｷｬﾋﾞﾈｯﾄ
  6
CONTINUOUS
 62
     6
100
AcDbCircle
 10
1189.999999999999
 20
875.4999999999995
 30
0.0
 40
24.0
100
AcDbArc
 50
153.1948723387611
 51
161.8051276612408
  0
ARC
  5
306
330
1F
100
AcDbEntity
  8
ｶｳﾝﾀｰ_ｷｬﾋﾞﾈｯﾄ
  6
CONTINUOUS
 62
     6
100
AcDbCircle
 10
1189.999999999999
 20
875.4999999999995
 30
0.0
 40
24.0
100
AcDbArc
 50
243.194872338761
 51
251.8051276612291
  0
ARC
  5
307
330
1F
100
AcDbEntity
  8
ｶｳﾝﾀｰ_ｷｬﾋﾞﾈｯﾄ
  6
CONTINUOUS
 62
     6
100
AcDbCircle
 10
1189.999999999999
 20
875.4999999999995
 30
0.0
 40
24.0
100
AcDbArc
 50
288.194872338771
 51
296.8051276612293
  0
LINE
  5
308
330
1F
100
AcDbEntity
  8
ｶｳﾝﾀｰ_ｷｬﾋﾞﾈｯﾄ
  6
CONTINUOUS
 62
     6
100
AcDbLine
 10
1200.822978091255
 20
854.0789088691504
 30
0.0
 11
1205.518644811502
 21
858.7745755893961
 31
0.0
  0
LINE
  5
309
330
1F
100
AcDbEntity
  8
ｶｳﾝﾀｰ_ｷｬﾋﾞﾈｯﾄ
  6
CONTINUOUS
 62
     6
100
AcDbLine
 10
1205.518644811503
 20
892.225424410603
 30
0.0
 11
1200.822978091257
 21
896.9210911308496
 31
0.0
  0
LINE
  5
30A
330
1F
100
AcDbEntity
  8
ｶｳﾝﾀｰ_ｷｬﾋﾞﾈｯﾄ
  6
CONTINUOUS
 62
     6
100
AcDbLine
 10
1189.999999999999
 20
908.3000000000006
 30
0.0
 11
1189.999999999999
 21
842.7000000000003
 31
0.0
  0
ARC
  5
30B
330
1F
100
AcDbEntity
  8
ｶｳﾝﾀｰ_ｷｬﾋﾞﾈｯﾄ
  6
CONTINUOUS
 62
     6
100
AcDbCircle
 10
1235.878750000109
 20
859.3779653889501
 30
0.0
 40
8.621249999889734
100
AcDbArc
 50
0.0
 51
50.00629587499056
  0
ARC
  5
30C
330
1F
100
AcDbEntity
  8
ｶｳﾝﾀｰ_ｷｬﾋﾞﾈｯﾄ
  6
CONTINUOUS
 62
     6
100
AcDbCircle
 10
1228.257500000059
 20
875.4999999999995
 30
0.0
 40
16.24249999994036
100
AcDbArc
 50
324.1304248452667
 51
35.86957515473327
  0
ARC
  5
30D
330
1F
100
AcDbEntity
  8
ｶｳﾝﾀｰ_ｷｬﾋﾞﾈｯﾄ
  6
CONTINUOUS
 62
     6
100
AcDbCircle
 10
1235.878750000111
 20
891.622034611049
 30
0.0
 40
8.621249999888418
100
AcDbArc
 50
309.9937041250001
 51
0.0
  0
LINE
  5
30E
330
1F
100
AcDbEntity
  8
ｶｳﾝﾀｰ_ｷｬﾋﾞﾈｯﾄ
  6
CONTINUOUS
 62
     6
100
AcDbLine
 10
1241.419656945699
 20
885.0171650604002
 30
0.0
 11
1226.699999999999
 21
885.0171650604002
 31
0.0
  0
LINE
  5
30F
330
1F
100
AcDbEntity
  8
ｶｳﾝﾀｰ_ｷｬﾋﾞﾈｯﾄ
  6
CONTINUOUS
 62
     6
100
AcDbLine
 10
1241.419656945699
 20
865.9828349396007
 30
0.0
 11
1226.699999999999
 21
865.9828349396007
 31
0.0
  0
LINE
  5
310
330
1F
100
AcDbEntity
  8
ｶｳﾝﾀｰ_ｷｬﾋﾞﾈｯﾄ
  6
CONTINUOUS
 62
     6
100
AcDbLine
 10
1204.999999999999
 20
859.2500000000005
 30
0.0
 11
1204.999999999999
 21
891.7500000000014
 31
0.0
  0
ARC
  5
311
330
1F
100
AcDbEntity
  8
ｶｳﾝﾀｰ_ｷｬﾋﾞﾈｯﾄ
  6
CONTINUOUS
 62
     6
100
AcDbCircle
 10
1189.999999999999
 20
875.5000000000014
 30
0.0
 40
24.0
100
AcDbArc
 50
198.1948723387592
 51
206.8051276612395
  0
ARC
  5
312
330
1F
100
AcDbEntity
  8
ｶｳﾝﾀｰ_ｷｬﾋﾞﾈｯﾄ
  6
CONTINUOUS
 62
     6
100
AcDbCircle
 10
1288.4118652713
 20
854.2499999999995
 30
0.0
 40
3.000000000000003
100
AcDbArc
 50
180.0
 51
270.0
  0
ARC
  5
313
330
1F
100
AcDbEntity
  8
ｶｳﾝﾀｰ_ｷｬﾋﾞﾈｯﾄ
  6
CONTINUOUS
 62
     6
100
AcDbCircle
 10
1288.4118652713
 20
896.7499999999995
 30
0.0
 40
3.000000000000003
100
AcDbArc
 50
90.00000000000001
 51
180.0
  0
LINE
  5
314
330
1F
100
AcDbEntity
  8
ｶｳﾝﾀｰ_ｷｬﾋﾞﾈｯﾄ
  6
CONTINUOUS
 62
     6
100
AcDbLine
 10
1288.4118652713
 20
851.2499999999995
 30
0.0
 11
1303.211865271299
 21
851.2499999999995
 31
0.0
  0
LINE
  5
315
330
1F
100
AcDbEntity
  8
ｶｳﾝﾀｰ_ｷｬﾋﾞﾈｯﾄ
  6
CONTINUOUS
 62
     6
100
AcDbLine
 10
1285.4118652713
 20
896.7499999999995
 30
0.0
 11
1285.4118652713
 21
854.2499999999995
 31
0.0
  0
LINE
  5
316
330
1F
100
AcDbEntity
  8
ｶｳﾝﾀｰ_ｷｬﾋﾞﾈｯﾄ
  6
CONTINUOUS
 62
     6
100
AcDbLine
 10
1288.4118652713
 20
899.7499999999995
 30
0.0
 11
1303.211865271299
 21
899.7499999999995
 31
0.0
  0
LINE
  5
317
330
1F
100
AcDbEntity
  8
ｶｳﾝﾀｰ_ｷｬﾋﾞﾈｯﾄ
  6
CONTINUOUS
 62
     6
100
AcDbLine
 10
1303.211865271299
 20
899.7499999999995
 30
0.0
 11
1303.211865271299
 21
851.2499999999995
 31
0.0
  0
LINE
  5
318
330
1F
100
AcDbEntity
  8
ｶｳﾝﾀｰ_ｷｬﾋﾞﾈｯﾄ
  6
CONTINUOUS
 62
     6
100
AcDbLine
 10
1288.4118652713
 20
853.3465226522007
 30
0.0
 11
1303.211865271299
 21
853.3465226522007
 31
0.0
  0
LINE
  5
319
330
1F
100
AcDbEntity
  8
ｶｳﾝﾀｰ_ｷｬﾋﾞﾈｯﾄ
  6
CONTINUOUS
 62
     6
100
AcDbLine
 10
1288.4118652713
 20
855.8813378864011
 30
0.0
 11
1303.211865271299
 21
855.8813378864011
 31
0.0
  0
LINE
  5
31A
330
1F
100
AcDbEntity
  8
ｶｳﾝﾀｰ_ｷｬﾋﾞﾈｯﾄ
  6
CONTINUOUS
 62
     6
100
AcDbLine
 10
1288.4118652713
 20
859.2735827957999
 30
0.0
 11
1303.211865271299
 21
859.2735827957999
 31
0.0
  0
LINE
  5
31B
330
1F
100
AcDbEntity
  8
ｶｳﾝﾀｰ_ｷｬﾋﾞﾈｯﾄ
  6
CONTINUOUS
 62
     6
100
AcDbLine
 10
1288.4118652713
 20
863.3750000000005
 30
0.0
 11
1303.211865271299
 21
863.3750000000005
 31
0.0
  0
LINE
  5
31C
330
1F
100
AcDbEntity
  8
ｶｳﾝﾀｰ_ｷｬﾋﾞﾈｯﾄ
  6
CONTINUOUS
 62
     6
100
AcDbLine
 10
1288.4118652713
 20
868.0063378864011
 30
0.0
 11
1303.211865271299
 21
868.0063378864011
 31
0.0
  0
LINE
  5
31D
330
1F
100
AcDbEntity
  8
ｶｳﾝﾀｰ_ｷｬﾋﾞﾈｯﾄ
  6
CONTINUOUS
 62
     6
100
AcDbLine
 10
1288.4118652713
 20
872.9651847658001
 30
0.0
 11
1303.211865271299
 21
872.9651847658001
 31
0.0
  0
LINE
  5
31E
330
1F
100
AcDbEntity
  8
ｶｳﾝﾀｰ_ｷｬﾋﾞﾈｯﾄ
  6
CONTINUOUS
 62
     6
100
AcDbLine
 10
1288.4118652713
 20
878.0348152342008
 30
0.0
 11
1303.211865271299
 21
878.0348152342008
 31
0.0
  0
LINE
  5
31F
330
1F
100
AcDbEntity
  8
ｶｳﾝﾀｰ_ｷｬﾋﾞﾈｯﾄ
  6
CONTINUOUS
 62
     6
100
AcDbLine
 10
1288.4118652713
 20
882.9936621136007
 30
0.0
 11
1303.211865271299
 21
882.9936621136007
 31
0.0
  0
LINE
  5
320
330
1F
100
AcDbEntity
  8
ｶｳﾝﾀｰ_ｷｬﾋﾞﾈｯﾄ
  6
CONTINUOUS
 62
     6
100
AcDbLine
 10
1288.4118652713
 20
887.6250000000005
 30
0.0
 11
1303.211865271299
 21
887.6250000000005
 31
0.0
  0
LINE
  5
321
330
1F
100
AcDbEntity
  8
ｶｳﾝﾀｰ_ｷｬﾋﾞﾈｯﾄ
  6
CONTINUOUS
 62
     6
100
AcDbLine
 10
1288.4118652713
 20
891.726417204201
 30
0.0
 11
1303.211865271299
 21
891.726417204201
 31
0.0
  0
LINE
  5
322
330
1F
100
AcDbEntity
  8
ｶｳﾝﾀｰ_ｷｬﾋﾞﾈｯﾄ
  6
CONTINUOUS
 62
     6
100
AcDbLine
 10
1288.4118652713
 20
895.1186621136007
 30
0.0
 11
1303.211865271299
 21
895.1186621136007
 31
0.0
  0
LINE
  5
323
330
1F
100
AcDbEntity
  8
ｶｳﾝﾀｰ_ｷｬﾋﾞﾈｯﾄ
  6
CONTINUOUS
 62
     6
100
AcDbLine
 10
1288.4118652713
 20
897.6534773478011
 30
0.0
 11
1303.211865271299
 21
897.6534773478011
 31
0.0
  0
LINE
  5
324
330
1F
100
AcDbEntity
  8
ｶｳﾝﾀｰ_ｷｬﾋﾞﾈｯﾄ
  6
EXLTYPE2
 62
     6
100
AcDbLine
 10
2648.250000000001
 20
1162.788136415102
 30
0.0
 11
2648.250000000001
 21
1121.700000086402
 31
0.0
  0
LINE
  5
325
330
1F
100
AcDbEntity
  8
ｶｳﾝﾀｰ_ｷｬﾋﾞﾈｯﾄ
  6
EXLTYPE2
 62
     6
100
AcDbLine
 10
2611.750000000001
 20
1121.700000086402
 30
0.0
 11
2648.250000000001
 21
1121.700000086402
 31
0.0
  0
LINE
  5
326
330
1F
100
AcDbEntity
  8
ｶｳﾝﾀｰ_ｷｬﾋﾞﾈｯﾄ
  6
EXLTYPE2
 62
     6
100
AcDbLine
 10
2611.750000000001
 20
1162.788136415102
 30
0.0
 11
2611.750000000001
 21
1121.700000086402
 31
0.0
  0
LINE
  5
327
330
1F
100
AcDbEntity
  8
ｶｳﾝﾀｰ_ｷｬﾋﾞﾈｯﾄ
  6
EXLTYPE2
 62
     6
100
AcDbLine
 10
2645.959820696864
 20
1180.588136415101
 30
0.0
 11
2646.199999999998
 21
1232.200000000001
 31
0.0
  0
LINE
  5
328
330
1F
100
AcDbEntity
  8
ｶｳﾝﾀｰ_ｷｬﾋﾞﾈｯﾄ
  6
EXLTYPE2
 62
     6
100
AcDbLine
 10
2614.040179303134
 20
1180.588136415101
 30
0.0
 11
2613.799999999998
 21
1232.200000000001
 31
0.0
  0
LINE
  5
329
330
1F
100
AcDbEntity
  8
ｶｳﾝﾀｰ_ｷｬﾋﾞﾈｯﾄ
  6
EXLTYPE2
 62
     6
100
AcDbLine
 10
2707.166779189599
 20
1080.0
 30
0.0
 11
2707.166779189599
 21
1168.729751891109
 31
0.0
  0
LINE
  5
32A
330
1F
100
AcDbEntity
  8
ｶｳﾝﾀｰ_ｷｬﾋﾞﾈｯﾄ
  6
EXLTYPE2
 62
     6
100
AcDbLine
 10
2680.916326606125
 20
1062.2
 30
0.0
 11
2713.966779189599
 21
1062.2
 31
0.0
  0
LINE
  5
32B
330
1F
100
AcDbEntity
  8
ｶｳﾝﾀｰ_ｷｬﾋﾞﾈｯﾄ
  6
EXLTYPE2
 62
     6
100
AcDbLine
 10
2687.453781365312
 20
1080.0
 30
0.0
 11
2713.966779189599
 21
1080.0
 31
0.0
  0
LINE
  5
32C
330
1F
100
AcDbEntity
  8
ｶｳﾝﾀｰ_ｷｬﾋﾞﾈｯﾄ
  6
EXLTYPE2
 62
     6
100
AcDbLine
 10
2713.966779189599
 20
1080.0
 30
0.0
 11
2713.966779189599
 21
1062.2
 31
0.0
  0
LINE
  5
32D
330
1F
100
AcDbEntity
  8
ｶｳﾝﾀｰ_ｷｬﾋﾞﾈｯﾄ
  6
EXLTYPE2
 62
     6
100
AcDbLine
 10
2688.626282971898
 20
1162.0
 30
0.0
 11
2688.626282971898
 21
1127.899448691101
 31
0.0
  0
LINE
  5
32E
330
1F
100
AcDbEntity
  8
ｶｳﾝﾀｰ_ｷｬﾋﾞﾈｯﾄ
  6
EXLTYPE2
 62
     6
100
AcDbLine
 10
2656.626282971898
 20
1168.729751891109
 30
0.0
 11
2656.626282971898
 21
1127.899448691101
 31
0.0
  0
ARC
  5
32F
330
1F
100
AcDbEntity
  8
ｶｳﾝﾀｰ_ｷｬﾋﾞﾈｯﾄ
  6
EXLTYPE2
 62
     6
100
AcDbCircle
 10
2681.896531080748
 20
1168.729751891109
 30
0.0
 40
25.27024810889134
100
AcDbArc
 50
0.0
 51
180.0
  0
LINE
  5
330
330
1F
100
AcDbEntity
  8
ｶｳﾝﾀｰ_ｷｬﾋﾞﾈｯﾄ
  6
EXLTYPE2
 62
     6
100
AcDbLine
 10
2690.876282971901
 20
1110.099448691102
 30
0.0
 11
2690.876282971901
 21
1080.999998784102
 31
0.0
  0
LINE
  5
331
330
1F
100
AcDbEntity
  8
ｶｳﾝﾀｰ_ｷｬﾋﾞﾈｯﾄ
  6
EXLTYPE2
 62
     6
100
AcDbLine
 10
2654.376282971901
 20
1080.999998784102
 30
0.0
 11
2690.876282971901
 21
1080.999998784102
 31
0.0
  0
ARC
  5
332
330
1F
100
AcDbEntity
  8
ｶｳﾝﾀｰ_ｷｬﾋﾞﾈｯﾄ
  6
EXLTYPE2
 62
     6
100
AcDbCircle
 10
2655.35213900546
 20
1081.689543666233
 30
0.0
 40
32.146072855016
100
AcDbArc
 50
289.9362785335313
 51
358.7708905513497
  0
ARC
  5
333
330
1F
100
AcDbEntity
  8
ｶｳﾝﾀｰ_ｷｬﾋﾞﾈｯﾄ
  6
EXLTYPE2
 62
     6
100
AcDbCircle
 10
2653.539271083727
 20
1088.167222679043
 30
0.0
 40
40.539271083728
100
AcDbArc
 50
180.0
 51
244.8541152376212
  0
LINE
  5
334
330
1F
100
AcDbEntity
  8
ｶｳﾝﾀｰ_ｷｬﾋﾞﾈｯﾄ
  6
EXLTYPE2
 62
     6
100
AcDbLine
 10
2654.376282971901
 20
1110.099448691102
 30
0.0
 11
2654.376282971901
 21
1080.999998784102
 31
0.0
  0
ARC
  5
335
330
1F
100
AcDbEntity
  8
ｶｳﾝﾀｰ_ｷｬﾋﾞﾈｯﾄ
  6
EXLTYPE2
 62
     6
100
AcDbCircle
 10
2651.741676655201
 20
1088.074998758841
 30
0.0
 40
7.874999999984541
100
AcDbArc
 50
269.9999999999868
 51
296.0497988060272
  0
ARC
  5
336
330
1F
100
AcDbEntity
  8
ｶｳﾝﾀｰ_ｷｬﾋﾞﾈｯﾄ
  6
EXLTYPE2
 62
     6
100
AcDbCircle
 10
2654.875000000001
 20
1088.074998758841
 30
0.0
 40
7.874999999984541
100
AcDbArc
 50
180.0
 51
258.5249519358246
  0
LINE
  5
337
330
1F
100
AcDbEntity
  8
ｶｳﾝﾀｰ_ｷｬﾋﾞﾈｯﾄ
  6
EXLTYPE2
 62
     6
100
AcDbLine
 10
2612.999999999999
 20
1121.700000086402
 30
0.0
 11
2612.999999999999
 21
1088.167222679043
 31
0.0
  0
LINE
  5
338
330
1F
100
AcDbEntity
  8
ｶｳﾝﾀｰ_ｷｬﾋﾞﾈｯﾄ
  6
EXLTYPE2
 62
     6
100
AcDbLine
 10
2647.000000000001
 20
1096.700001686401
 30
0.0
 11
2654.376282971901
 21
1096.700001686401
 31
0.0
  0
LINE
  5
339
330
1F
100
AcDbEntity
  8
ｶｳﾝﾀｰ_ｷｬﾋﾞﾈｯﾄ
  6
EXLTYPE2
 62
     6
100
AcDbLine
 10
2648.376282971901
 20
1110.099448691102
 30
0.0
 11
2696.876282971901
 21
1110.099448691102
 31
0.0
  0
LINE
  5
33A
330
1F
100
AcDbEntity
  8
ｶｳﾝﾀｰ_ｷｬﾋﾞﾈｯﾄ
  6
EXLTYPE2
 62
     6
100
AcDbLine
 10
2648.376282971901
 20
1124.899448691101
 30
0.0
 11
2648.376282971901
 21
1110.099448691102
 31
0.0
  0
LINE
  5
33B
330
1F
100
AcDbEntity
  8
ｶｳﾝﾀｰ_ｷｬﾋﾞﾈｯﾄ
  6
EXLTYPE2
 62
     6
100
AcDbLine
 10
2651.376282971901
 20
1127.899448691101
 30
0.0
 11
2693.876282971901
 21
1127.899448691101
 31
0.0
  0
LINE
  5
33C
330
1F
100
AcDbEntity
  8
ｶｳﾝﾀｰ_ｷｬﾋﾞﾈｯﾄ
  6
EXLTYPE2
 62
     6
100
AcDbLine
 10
2696.876282971901
 20
1124.899448691101
 30
0.0
 11
2696.876282971901
 21
1110.099448691102
 31
0.0
  0
ARC
  5
33D
330
1F
100
AcDbEntity
  8
ｶｳﾝﾀｰ_ｷｬﾋﾞﾈｯﾄ
  6
EXLTYPE2
 62
     6
100
AcDbCircle
 10
2651.376282971901
 20
1124.899448691101
 30
0.0
 40
3.000000000000002
100
AcDbArc
 50
90.00000000000001
 51
180.0
  0
ARC
  5
33E
330
1F
100
AcDbEntity
  8
ｶｳﾝﾀｰ_ｷｬﾋﾞﾈｯﾄ
  6
EXLTYPE2
 62
     6
100
AcDbCircle
 10
2693.876282971901
 20
1124.899448691101
 30
0.0
 40
3.000000000000002
100
AcDbArc
 50
0.0
 51
90.00000000000001
  0
LINE
  5
33F
330
1F
100
AcDbEntity
  8
ｶｳﾝﾀｰ_ｷｬﾋﾞﾈｯﾄ
  6
EXLTYPE2
 62
     6
100
AcDbLine
 10
2636.313141485999
 20
1051.469907258401
 30
0.0
 11
2666.313141485999
 21
1051.469907258401
 31
0.0
  0
LINE
  5
340
330
1F
100
AcDbEntity
  8
ｶｳﾝﾀｰ_ｷｬﾋﾞﾈｯﾄ
  6
EXLTYPE2
 62
     6
100
AcDbLine
 10
2636.313141486003
 20
1051.469907258366
 30
0.0
 11
2636.313141486003
 21
1036.200001686401
 31
0.0
  0
LINE
  5
341
330
1F
100
AcDbEntity
  8
ｶｳﾝﾀｰ_ｷｬﾋﾞﾈｯﾄ
  6
EXLTYPE2
 62
     6
100
AcDbLine
 10
2637.813141486003
 20
1034.700001686401
 30
0.0
 11
2664.813141486004
 21
1034.700001686401
 31
0.0
  0
LINE
  5
342
330
1F
100
AcDbEntity
  8
ｶｳﾝﾀｰ_ｷｬﾋﾞﾈｯﾄ
  6
EXLTYPE2
 62
     6
100
AcDbLine
 10
2666.313141486004
 20
1051.46990725837
 30
0.0
 11
2666.313141486004
 21
1036.200001686401
 31
0.0
  0
ARC
  5
343
330
1F
100
AcDbEntity
  8
ｶｳﾝﾀｰ_ｷｬﾋﾞﾈｯﾄ
  6
EXLTYPE2
 62
     6
100
AcDbCircle
 10
2637.813141486003
 20
1036.200001686401
 30
0.0
 40
1.5
100
AcDbArc
 50
180.0
 51
270.0000000000002
  0
ARC
  5
344
330
1F
100
AcDbEntity
  8
ｶｳﾝﾀｰ_ｷｬﾋﾞﾈｯﾄ
  6
EXLTYPE2
 62
     6
100
AcDbCircle
 10
2664.813141486004
 20
1036.200001686401
 30
0.0
 40
1.5
100
AcDbArc
 50
270.0000000000002
 51
0.0
  0
LINE
  5
345
330
1F
100
AcDbEntity
  8
ｶｳﾝﾀｰ_ｷｬﾋﾞﾈｯﾄ
  6
EXLTYPE2
 62
     6
100
AcDbLine
 10
2605.750000000001
 20
1162.788136415102
 30
0.0
 11
2654.250000000001
 21
1162.788136415102
 31
0.0
  0
LINE
  5
346
330
1F
100
AcDbEntity
  8
ｶｳﾝﾀｰ_ｷｬﾋﾞﾈｯﾄ
  6
EXLTYPE2
 62
     6
100
AcDbLine
 10
2605.750000000001
 20
1177.588136415101
 30
0.0
 11
2605.750000000001
 21
1162.788136415102
 31
0.0
  0
LINE
  5
347
330
1F
100
AcDbEntity
  8
ｶｳﾝﾀｰ_ｷｬﾋﾞﾈｯﾄ
  6
EXLTYPE2
 62
     6
100
AcDbLine
 10
2608.750000000001
 20
1180.588136415101
 30
0.0
 11
2651.250000000001
 21
1180.588136415101
 31
0.0
  0
LINE
  5
348
330
1F
100
AcDbEntity
  8
ｶｳﾝﾀｰ_ｷｬﾋﾞﾈｯﾄ
  6
EXLTYPE2
 62
     6
100
AcDbLine
 10
2654.250000000001
 20
1177.588136415101
 30
0.0
 11
2654.250000000001
 21
1162.788136415102
 31
0.0
  0
ARC
  5
349
330
1F
100
AcDbEntity
  8
ｶｳﾝﾀｰ_ｷｬﾋﾞﾈｯﾄ
  6
EXLTYPE2
 62
     6
100
AcDbCircle
 10
2608.750000000001
 20
1177.588136415101
 30
0.0
 40
3.000000000000002
100
AcDbArc
 50
90.00000000000001
 51
180.0
  0
ARC
  5
34A
330
1F
100
AcDbEntity
  8
ｶｳﾝﾀｰ_ｷｬﾋﾞﾈｯﾄ
  6
EXLTYPE2
 62
     6
100
AcDbCircle
 10
2651.250000000001
 20
1177.588136415101
 30
0.0
 40
3.000000000000002
100
AcDbArc
 50
0.0
 51
90.00000000000001
  0
LINE
  5
34B
330
1F
100
AcDbEntity
  8
ｶｳﾝﾀｰ_ｷｬﾋﾞﾈｯﾄ
  6
EXLTYPE2
 62
     6
100
AcDbLine
 10
2647.000000000001
 20
1121.700000086402
 30
0.0
 11
2647.000000000001
 21
1088.074998758841
 31
0.0
  0
LINE
  5
34C
330
1F
100
AcDbEntity
  8
ｶｳﾝﾀｰ_ｷｬﾋﾞﾈｯﾄ
  6
EXLTYPE2
 62
     6
100
AcDbLine
 10
2636.666779189601
 20
1002.7
 30
0.0
 11
2654.466779189602
 21
1002.7
 31
0.0
  0
LINE
  5
34D
330
1F
100
AcDbEntity
  8
ｶｳﾝﾀｰ_ｷｬﾋﾞﾈｯﾄ
  6
EXLTYPE2
 62
     6
100
AcDbLine
 10
2710.166779189601
 20
1043.5
 30
0.0
 11
2707.416779189601
 21
1040.5
 31
0.0
  0
LINE
  5
34E
330
1F
100
AcDbEntity
  8
ｶｳﾝﾀｰ_ｷｬﾋﾞﾈｯﾄ
  6
EXLTYPE2
 62
     6
100
AcDbLine
 10
2673.166779189601
 20
1006.5
 30
0.0
 11
2676.166779189601
 21
1009.25
 31
0.0
  0
ARC
  5
34F
330
1F
100
AcDbEntity
  8
ｶｳﾝﾀｰ_ｷｬﾋﾞﾈｯﾄ
  6
EXLTYPE2
 62
     6
100
AcDbCircle
 10
2691.166779189602
 20
1025.5
 30
0.0
 40
16.25
100
AcDbArc
 50
270.0
 51
0.0
  0
LINE
  5
350
330
1F
100
AcDbEntity
  8
ｶｳﾝﾀｰ_ｷｬﾋﾞﾈｯﾄ
  6
EXLTYPE2
 62
     6
100
AcDbLine
 10
2691.166779189602
 20
1009.25
 30
0.0
 11
2676.166779189601
 21
1009.25
 31
0.0
  0
LINE
  5
351
330
1F
100
AcDbEntity
  8
ｶｳﾝﾀｰ_ｷｬﾋﾞﾈｯﾄ
  6
EXLTYPE2
 62
     6
100
AcDbLine
 10
2707.416779189602
 20
1025.5
 30
0.0
 11
2707.416779189602
 21
1040.5
 31
0.0
  0
LINE
  5
352
330
1F
100
AcDbEntity
  8
ｶｳﾝﾀｰ_ｷｬﾋﾞﾈｯﾄ
  6
EXLTYPE2
 62
     6
100
AcDbLine
 10
2654.466779189602
 20
1006.5
 30
0.0
 11
2673.166779189601
 21
1006.5
 31
0.0
  0
LINE
  5
353
330
1F
100
AcDbEntity
  8
ｶｳﾝﾀｰ_ｷｬﾋﾞﾈｯﾄ
  6
EXLTYPE2
 62
     6
100
AcDbLine
 10
2672.166779189601
 20
1044.5
 30
0.0
 11
2672.166779189601
 21
1006.5
 31
0.0
  0
LINE
  5
354
330
1F
100
AcDbEntity
  8
ｶｳﾝﾀｰ_ｷｬﾋﾞﾈｯﾄ
  6
EXLTYPE2
 62
     6
100
AcDbLine
 10
2672.166779189601
 20
1044.5
 30
0.0
 11
2710.166779189601
 21
1044.5
 31
0.0
  0
LINE
  5
355
330
1F
100
AcDbEntity
  8
ｶｳﾝﾀｰ_ｷｬﾋﾞﾈｯﾄ
  6
EXLTYPE2
 62
     6
100
AcDbLine
 10
2710.166779189601
 20
1043.5
 30
0.0
 11
2710.166779189601
 21
1062.2
 31
0.0
  0
LINE
  5
356
330
1F
100
AcDbEntity
  8
ｶｳﾝﾀｰ_ｷｬﾋﾞﾈｯﾄ
  6
EXLTYPE2
 62
     6
100
AcDbLine
 10
2672.166779189601
 20
1044.5
 30
0.0
 11
2672.166779189601
 21
1054.291772306542
 31
0.0
  0
LINE
  5
357
330
1F
100
AcDbEntity
  8
ｶｳﾝﾀｰ_ｷｬﾋﾞﾈｯﾄ
  6
EXLTYPE2
 62
     6
100
AcDbLine
 10
2636.666779189601
 20
1034.700001686401
 30
0.0
 11
2636.666779189601
 21
1002.7
 31
0.0
  0
LINE
  5
358
330
1F
100
AcDbEntity
  8
ｶｳﾝﾀｰ_ｷｬﾋﾞﾈｯﾄ
  6
EXLTYPE2
 62
     6
100
AcDbLine
 10
2654.466779189601
 20
1034.700001686401
 30
0.0
 11
2654.466779189601
 21
1002.7
 31
0.0
  0
LINE
  5
359
330
1F
100
AcDbEntity
  8
ｶｳﾝﾀｰ_ｷｬﾋﾞﾈｯﾄ
  6
EXLTYPE2
 62
     6
100
AcDbLine
 10
2666.313141486004
 20
1044.5
 30
0.0
 11
2672.166779189601
 21
1044.5
 31
0.0
  0
LINE
  5
35A
330
1F
100
AcDbEntity
  8
ｶｳﾝﾀｰ_ｷｬﾋﾞﾈｯﾄ
  6
EXLTYPE2
 62
     6
100
AcDbLine
 10
2636.313141486003
 20
1041.499999999994
 30
0.0
 11
2389.999999999998
 21
1041.499999999994
 31
0.0
  0
LINE
  5
35B
330
1F
100
AcDbEntity
  8
ｶｳﾝﾀｰ_ｷｬﾋﾞﾈｯﾄ
  6
EXLTYPE2
 62
     6
100
AcDbLine
 10
2636.666779189601
 20
1009.500000000006
 30
0.0
 11
2389.999999999998
 21
1009.500000000006
 31
0.0
  0
ARC
  5
35C
330
1F
100
AcDbEntity
  8
ｶｳﾝﾀｰ_ｷｬﾋﾞﾈｯﾄ
  6
CONTINUOUS
 62
     2
100
AcDbCircle
 10
2481.500000000001
 20
2556.500000000008
 30
0.0
 40
4.0
100
AcDbArc
 50
180.0
 51
270.0000000000002
  0
LINE
  5
35D
330
1F
100
AcDbEntity
  8
ｶｳﾝﾀｰ_ｷｬﾋﾞﾈｯﾄ
  6
CONTINUOUS
 62
     2
100
AcDbLine
 10
2477.500000000001
 20
2572.500000000006
 30
0.0
 11
2832.500000000001
 21
2572.500000000006
 31
0.0
  0
ARC
  5
35E
330
1F
100
AcDbEntity
  8
ｶｳﾝﾀｰ_ｷｬﾋﾞﾈｯﾄ
  6
CONTINUOUS
 62
     2
100
AcDbCircle
 10
2828.500000000001
 20
2556.500000000008
 30
0.0
 40
4.0
100
AcDbArc
 50
270.0000000000002
 51
0.0
  0
LINE
  5
35F
330
1F
100
AcDbEntity
  8
ｶｳﾝﾀｰ_ｷｬﾋﾞﾈｯﾄ
  6
CONTINUOUS
 62
     2
100
AcDbLine
 10
2477.500000000001
 20
2572.500000000006
 30
0.0
 11
2477.500000000001
 21
2400.61758408676
 31
0.0
  0
LINE
  5
360
330
1F
100
AcDbEntity
  8
ｶｳﾝﾀｰ_ｷｬﾋﾞﾈｯﾄ
  6
CONTINUOUS
 62
     2
100
AcDbLine
 10
2832.500000000001
 20
2572.500000000006
 30
0.0
 11
2832.500000000001
 21
2400.61758408676
 31
0.0
  0
ARC
  5
361
330
1F
100
AcDbEntity
  8
ｶｳﾝﾀｰ_ｷｬﾋﾞﾈｯﾄ
  6
CONTINUOUS
 62
     2
100
AcDbCircle
 10
2497.499999999999
 20
2400.61758408676
 30
0.0
 40
20.0
100
AcDbArc
 50
180.0
 51
267.7320496888586
  0
ARC
  5
362
330
1F
100
AcDbEntity
  8
ｶｳﾝﾀｰ_ｷｬﾋﾞﾈｯﾄ
  6
CONTINUOUS
 62
     2
100
AcDbCircle
 10
2654.999999999999
 20
6377.500000000011
 30
0.0
 40
4000.000000000002
100
AcDbArc
 50
267.7320496888586
 51
272.2679503111416
  0
ARC
  5
363
330
1F
100
AcDbEntity
  8
ｶｳﾝﾀｰ_ｷｬﾋﾞﾈｯﾄ
  6
CONTINUOUS
 62
     2
100
AcDbCircle
 10
2812.499999999999
 20
2400.61758408676
 30
0.0
 40
20.0
100
AcDbArc
 50
272.2679503111411
 51
0.0
  0
ARC
  5
364
330
1F
100
AcDbEntity
  8
ｶｳﾝﾀｰ_ｷｬﾋﾞﾈｯﾄ
  6
CONTINUOUS
 62
     2
100
AcDbCircle
 10
2715.999999999999
 20
2395.967254938127
 30
0.0
 40
10.0
100
AcDbArc
 50
270.8777446663837
 51
0.0
  0
ARC
  5
365
330
1F
100
AcDbEntity
  8
ｶｳﾝﾀｰ_ｷｬﾋﾞﾈｯﾄ
  6
CONTINUOUS
 62
     2
100
AcDbCircle
 10
2716.000000000001
 20
2538.304391283406
 30
0.0
 40
10.0
100
AcDbArc
 50
0.0
 51
90.00000000000001
  0
LINE
  5
366
330
1F
100
AcDbEntity
  8
ｶｳﾝﾀｰ_ｷｬﾋﾞﾈｯﾄ
  6
CONTINUOUS
 62
     2
100
AcDbLine
 10
2481.500000000001
 20
2552.500000000006
 30
0.0
 11
2828.500000000001
 21
2552.500000000006
 31
0.0
  0
LINE
  5
367
330
1F
100
AcDbEntity
  8
ｶｳﾝﾀｰ_ｷｬﾋﾞﾈｯﾄ
  6
CONTINUOUS
 62
     2
100
AcDbLine
 10
2493.500000000001
 20
2544.500000000006
 30
0.0
 11
2493.500000000001
 21
2552.500000000006
 31
0.0
  0
LINE
  5
368
330
1F
100
AcDbEntity
  8
ｶｳﾝﾀｰ_ｷｬﾋﾞﾈｯﾄ
  6
CONTINUOUS
 62
     2
100
AcDbLine
 10
2516.500000000001
 20
2544.500000000006
 30
0.0
 11
2516.500000000001
 21
2552.500000000006
 31
0.0
  0
LINE
  5
369
330
1F
100
AcDbEntity
  8
ｶｳﾝﾀｰ_ｷｬﾋﾞﾈｯﾄ
  6
CONTINUOUS
 62
     2
100
AcDbLine
 10
2793.500000000001
 20
2544.500000000006
 30
0.0
 11
2793.500000000001
 21
2552.500000000006
 31
0.0
  0
LINE
  5
36A
330
1F
100
AcDbEntity
  8
ｶｳﾝﾀｰ_ｷｬﾋﾞﾈｯﾄ
  6
CONTINUOUS
 62
     2
100
AcDbLine
 10
2816.500000000001
 20
2544.500000000006
 30
0.0
 11
2816.500000000001
 21
2552.500000000006
 31
0.0
  0
LINE
  5
36B
330
1F
100
AcDbEntity
  8
ｶｳﾝﾀｰ_ｷｬﾋﾞﾈｯﾄ
  6
CONTINUOUS
 62
     2
100
AcDbLine
 10
2793.500000000001
 20
2544.500000000006
 30
0.0
 11
2816.500000000001
 21
2544.500000000006
 31
0.0
  0
LINE
  5
36C
330
1F
100
AcDbEntity
  8
ｶｳﾝﾀｰ_ｷｬﾋﾞﾈｯﾄ
  6
CONTINUOUS
 62
     2
100
AcDbLine
 10
2493.500000000001
 20
2544.500000000006
 30
0.0
 11
2516.500000000001
 21
2544.500000000006
 31
0.0
  0
LINE
  5
36D
330
1F
100
AcDbEntity
  8
ｶｳﾝﾀｰ_ｷｬﾋﾞﾈｯﾄ
  6
CONTINUOUS
 62
     6
100
AcDbLine
 10
2680.000000000001
 20
2542.131824714099
 30
0.0
 11
2711.071914671328
 21
2547.459420873666
 31
0.0
  0
LINE
  5
36E
330
1F
100
AcDbEntity
  8
ｶｳﾝﾀｰ_ｷｬﾋﾞﾈｯﾄ
  6
CONTINUOUS
 62
     6
100
AcDbLine
 10
2680.000000000001
 20
2437.5
 30
0.0
 11
2719.970766956937
 21
2392.864329738639
 31
0.0
  0
LINE
  5
36F
330
1F
100
AcDbEntity
  8
ｶｳﾝﾀｰ_ｷｬﾋﾞﾈｯﾄ
  6
CONTINUOUS
 62
     6
100
AcDbLine
 10
2550.000000000001
 20
2437.5
 30
0.0
 11
2493.242969789012
 21
2394.910317847322
 31
0.0
  0
ARC
  5
370
330
1F
100
AcDbEntity
  8
ｶｳﾝﾀｰ_ｷｬﾋﾞﾈｯﾄ
  6
CONTINUOUS
 62
     6
100
AcDbCircle
 10
2560.000000000001
 20
2447.500000000006
 30
0.0
 40
10.0
100
AcDbArc
 50
180.0
 51
270.0000000000002
  0
LINE
  5
371
330
1F
100
AcDbEntity
  8
ｶｳﾝﾀｰ_ｷｬﾋﾞﾈｯﾄ
  6
CONTINUOUS
 62
     6
100
AcDbLine
 10
2669.999999999999
 20
2437.500000000006
 30
0.0
 11
2560.000000000001
 21
2437.500000000006
 31
0.0
  0
ARC
  5
372
330
1F
100
AcDbEntity
  8
ｶｳﾝﾀｰ_ｷｬﾋﾞﾈｯﾄ
  6
CONTINUOUS
 62
     6
100
AcDbCircle
 10
2669.999999999999
 20
2447.500000000006
 30
0.0
 40
10.0
100
AcDbArc
 50
270.0000000000002
 51
0.0
  0
ARC
  5
373
330
1F
100
AcDbEntity
  8
ｶｳﾝﾀｰ_ｷｬﾋﾞﾈｯﾄ
  6
CONTINUOUS
 62
     6
100
AcDbCircle
 10
2669.999999999999
 20
2532.131824714107
 30
0.0
 40
10.0
100
AcDbArc
 50
0.0
 51
90.00000000000001
  0
LINE
  5
374
330
1F
100
AcDbEntity
  8
ｶｳﾝﾀｰ_ｷｬﾋﾞﾈｯﾄ
  6
CONTINUOUS
 62
     6
100
AcDbLine
 10
2669.999999999999
 20
2542.131824714107
 30
0.0
 11
2560.000000000001
 21
2542.131824714107
 31
0.0
  0
ARC
  5
375
330
1F
100
AcDbEntity
  8
ｶｳﾝﾀｰ_ｷｬﾋﾞﾈｯﾄ
  6
CONTINUOUS
 62
     6
100
AcDbCircle
 10
2560.000000000001
 20
2532.131824714107
 30
0.0
 40
10.0
100
AcDbArc
 50
90.00000000000001
 51
180.0
  0
LINE
  5
376
330
1F
100
AcDbEntity
  8
ｶｳﾝﾀｰ_ｷｬﾋﾞﾈｯﾄ
  6
CONTINUOUS
 62
     6
100
AcDbLine
 10
2550.000000000001
 20
2532.131824714107
 30
0.0
 11
2550.000000000001
 21
2447.500000000006
 31
0.0
  0
LINE
  5
377
330
1F
100
AcDbEntity
  8
ｶｳﾝﾀｰ_ｷｬﾋﾞﾈｯﾄ
  6
CONTINUOUS
 62
     6
100
AcDbLine
 10
2485.500000000001
 20
2538.304391283406
 30
0.0
 11
2485.500000000001
 21
2400.61758408676
 31
0.0
  0
ARC
  5
378
330
1F
100
AcDbEntity
  8
ｶｳﾝﾀｰ_ｷｬﾋﾞﾈｯﾄ
  6
CONTINUOUS
 62
     6
100
AcDbCircle
 10
2497.499999999999
 20
2400.61758408676
 30
0.0
 40
12.00000000000001
100
AcDbArc
 50
180.0
 51
267.7320496888569
  0
ARC
  5
379
330
1F
100
AcDbEntity
  8
ｶｳﾝﾀｰ_ｷｬﾋﾞﾈｯﾄ
  6
CONTINUOUS
 62
     6
100
AcDbCircle
 10
2654.999999999999
 20
6377.500000000011
 30
0.0
 40
3992.000000000002
100
AcDbArc
 50
267.7320496888586
 51
272.2679503111416
  0
ARC
  5
37A
330
1F
100
AcDbEntity
  8
ｶｳﾝﾀｰ_ｷｬﾋﾞﾈｯﾄ
  6
CONTINUOUS
 62
     6
100
AcDbCircle
 10
2812.499999999999
 20
2400.61758408676
 30
0.0
 40
12.00000000000001
100
AcDbArc
 50
272.2679503111399
 51
0.0
  0
LINE
  5
37B
330
1F
100
AcDbEntity
  8
ｶｳﾝﾀｰ_ｷｬﾋﾞﾈｯﾄ
  6
CONTINUOUS
 62
     6
100
AcDbLine
 10
2824.500000000001
 20
2538.304391283406
 30
0.0
 11
2824.500000000001
 21
2400.61758408676
 31
0.0
  0
LINE
  5
37C
330
1F
100
AcDbEntity
  8
ｶｳﾝﾀｰ_ｷｬﾋﾞﾈｯﾄ
  6
CONTINUOUS
 62
     6
100
AcDbLine
 10
2629.999999999999
 20
2530.349999999999
 30
0.0
 11
2629.999999999999
 21
2464.649999999998
 31
0.0
  0
LINE
  5
37D
330
1F
100
AcDbEntity
  8
ｶｳﾝﾀｰ_ｷｬﾋﾞﾈｯﾄ
  6
CONTINUOUS
 62
     6
100
AcDbLine
 10
2550.000000000001
 20
2542.131824714099
 30
0.0
 11
2516.500000000003
 21
2545.925971137429
 31
0.0
  0
ARC
  5
37E
330
1F
100
AcDbEntity
  8
ｶｳﾝﾀｰ_ｷｬﾋﾞﾈｯﾄ
  6
CONTINUOUS
 62
     6
100
AcDbCircle
 10
2495.500000000001
 20
2538.304391283406
 30
0.0
 40
10.0
100
AcDbArc
 50
101.5369590328618
 51
180.0
  0
ARC
  5
37F
330
1F
100
AcDbEntity
  8
ｶｳﾝﾀｰ_ｷｬﾋﾞﾈｯﾄ
  6
CONTINUOUS
 62
     6
100
AcDbCircle
 10
2814.500000000001
 20
2538.304391283406
 30
0.0
 40
10.0
100
AcDbArc
 50
0.0
 51
78.46304096713943
  0
LINE
  5
380
330
1F
100
AcDbEntity
  8
ｶｳﾝﾀｰ_ｷｬﾋﾞﾈｯﾄ
  6
CONTINUOUS
 62
     6
100
AcDbLine
 10
2679.999999999999
 20
2510.542101552876
 30
0.0
 11
2679.999999999999
 21
2532.131824714107
 31
0.0
  0
LINE
  5
381
330
1F
100
AcDbEntity
  8
ｶｳﾝﾀｰ_ｷｬﾋﾞﾈｯﾄ
  6
EXLTYPE3
 62
     6
100
AcDbLine
 10
2654.999999999999
 20
2367.499999999999
 30
0.0
 11
2654.999999999999
 21
2582.499999999999
 31
0.0
  0
LINE
  5
382
330
1F
100
AcDbEntity
  8
ｶｳﾝﾀｰ_ｷｬﾋﾞﾈｯﾄ
  6
CONTINUOUS
 62
     6
100
AcDbLine
 10
2550.000000000005
 20
2562.499999999999
 30
0.0
 11
2550.000000000005
 21
2611.0
 31
0.0
  0
LINE
  5
383
330
1F
100
AcDbEntity
  8
ｶｳﾝﾀｰ_ｷｬﾋﾞﾈｯﾄ
  6
CONTINUOUS
 62
     6
100
AcDbLine
 10
2767.000000000001
 20
2471.5
 30
0.0
 11
2767.000000000001
 21
2523.5
 31
0.0
  0
LINE
  5
384
330
1F
100
AcDbEntity
  8
ｶｳﾝﾀｰ_ｷｬﾋﾞﾈｯﾄ
  6
EXLTYPE3
 62
     6
100
AcDbLine
 10
2597.149999999999
 20
2497.499999999999
 30
0.0
 11
2793.000000000001
 21
2497.499999999999
 31
0.0
  0
LINE
  5
385
330
1F
100
AcDbEntity
  8
ｶｳﾝﾀｰ_ｷｬﾋﾞﾈｯﾄ
  6
CONTINUOUS
 62
     2
100
AcDbLine
 10
2726.000000000001
 20
2513.49449119756
 30
0.0
 11
2726.000000000001
 21
2538.304391283406
 31
0.0
  0
LINE
  5
386
330
1F
100
AcDbEntity
  8
ｶｳﾝﾀｰ_ｷｬﾋﾞﾈｯﾄ
  6
CONTINUOUS
 62
     2
100
AcDbLine
 10
2726.000000000001
 20
2395.967254938127
 30
0.0
 11
2726.000000000001
 21
2481.505508802439
 31
0.0
  0
LINE
  5
387
330
1F
100
AcDbEntity
  8
ｶｳﾝﾀｰ_ｷｬﾋﾞﾈｯﾄ
  6
CONTINUOUS
 62
     6
100
AcDbLine
 10
2503.500000000001
 20
2572.5
 30
0.0
 11
2505.000000000001
 21
2606.0
 31
0.0
  0
LINE
  5
388
330
1F
100
AcDbEntity
  8
ｶｳﾝﾀｰ_ｷｬﾋﾞﾈｯﾄ
  6
CONTINUOUS
 62
     6
100
AcDbLine
 10
2506.500000000001
 20
2572.5
 30
0.0
 11
2505.000000000001
 21
2606.0
 31
0.0
  0
LINE
  5
389
330
1F
100
AcDbEntity
  8
ｶｳﾝﾀｰ_ｷｬﾋﾞﾈｯﾄ
  6
CONTINUOUS
 62
     6
100
AcDbLine
 10
2548.500000000001
 20
2572.5
 30
0.0
 11
2550.000000000001
 21
2606.0
 31
0.0
  0
LINE
  5
38A
330
1F
100
AcDbEntity
  8
ｶｳﾝﾀｰ_ｷｬﾋﾞﾈｯﾄ
  6
CONTINUOUS
 62
     6
100
AcDbLine
 10
2551.500000000001
 20
2572.5
 30
0.0
 11
2550.000000000001
 21
2606.0
 31
0.0
  0
LINE
  5
38B
330
1F
100
AcDbEntity
  8
ｶｳﾝﾀｰ_ｷｬﾋﾞﾈｯﾄ
  6
CONTINUOUS
 62
     6
100
AcDbLine
 10
2505.000000000005
 20
2562.5
 30
0.0
 11
2505.000000000005
 21
2611.0
 31
0.0
  0
LINE
  5
38C
330
1F
100
AcDbEntity
  8
ｶｳﾝﾀｰ_ｷｬﾋﾞﾈｯﾄ
  6
CONTINUOUS
 62
     6
100
AcDbLine
 10
2759.999999999995
 20
2562.499999999999
 30
0.0
 11
2759.999999999995
 21
2611.0
 31
0.0
  0
LINE
  5
38D
330
1F
100
AcDbEntity
  8
ｶｳﾝﾀｰ_ｷｬﾋﾞﾈｯﾄ
  6
CONTINUOUS
 62
     6
100
AcDbLine
 10
2806.499999999999
 20
2572.5
 30
0.0
 11
2804.999999999999
 21
2606.0
 31
0.0
  0
LINE
  5
38E
330
1F
100
AcDbEntity
  8
ｶｳﾝﾀｰ_ｷｬﾋﾞﾈｯﾄ
  6
CONTINUOUS
 62
     6
100
AcDbLine
 10
2803.499999999999
 20
2572.5
 30
0.0
 11
2804.999999999999
 21
2606.0
 31
0.0
  0
LINE
  5
38F
330
1F
100
AcDbEntity
  8
ｶｳﾝﾀｰ_ｷｬﾋﾞﾈｯﾄ
  6
CONTINUOUS
 62
     6
100
AcDbLine
 10
2761.499999999999
 20
2572.5
 30
0.0
 11
2759.999999999999
 21
2606.0
 31
0.0
  0
LINE
  5
390
330
1F
100
AcDbEntity
  8
ｶｳﾝﾀｰ_ｷｬﾋﾞﾈｯﾄ
  6
CONTINUOUS
 62
     6
100
AcDbLine
 10
2758.499999999999
 20
2572.5
 30
0.0
 11
2759.999999999999
 21
2606.0
 31
0.0
  0
LINE
  5
391
330
1F
100
AcDbEntity
  8
ｶｳﾝﾀｰ_ｷｬﾋﾞﾈｯﾄ
  6
CONTINUOUS
 62
     6
100
AcDbLine
 10
2804.999999999995
 20
2562.5
 30
0.0
 11
2804.999999999995
 21
2611.0
 31
0.0
  0
CIRCLE
  5
392
330
1F
100
AcDbEntity
  8
ｶｳﾝﾀｰ_ｷｬﾋﾞﾈｯﾄ
  6
CONTINUOUS
 62
     6
100
AcDbCircle
 10
2630.000000000001
 20
2497.5
 30
0.0
 40
27.85
  0
CIRCLE
  5
393
330
1F
100
AcDbEntity
  8
ｶｳﾝﾀｰ_ｷｬﾋﾞﾈｯﾄ
  6
CONTINUOUS
 62
     6
100
AcDbCircle
 10
2630.000000000001
 20
2497.5
 30
0.0
 40
14.50000000000001
  0
CIRCLE
  5
394
330
1F
100
AcDbEntity
  8
ｶｳﾝﾀｰ_ｷｬﾋﾞﾈｯﾄ
  6
CONTINUOUS
 62
     6
100
AcDbCircle
 10
2630.000000000001
 20
2497.5
 30
0.0
 40
17.0
  0
LINE
  5
395
330
1F
100
AcDbEntity
  8
ｶｳﾝﾀｰ_ｷｬﾋﾞﾈｯﾄ
  6
CONTINUOUS
 62
     6
100
AcDbLine
 10
2632.000000000006
 20
2498.65470053836
 30
0.0
 11
2643.437342963837
 21
2492.051347499406
 31
0.0
  0
LINE
  5
396
330
1F
100
AcDbEntity
  8
ｶｳﾝﾀｰ_ｷｬﾋﾞﾈｯﾄ
  6
CONTINUOUS
 62
     6
100
AcDbLine
 10
2630.000000000001
 20
2495.190598923213
 30
0.0
 11
2641.437342963834
 21
2488.587245884259
 31
0.0
  0
LINE
  5
397
330
1F
100
AcDbEntity
  8
ｶｳﾝﾀｰ_ｷｬﾋﾞﾈｯﾄ
  6
CONTINUOUS
 62
     6
100
AcDbLine
 10
2629.999999999999
 20
2495.190598923213
 30
0.0
 11
2618.562657036166
 21
2488.587245884259
 31
0.0
  0
LINE
  5
398
330
1F
100
AcDbEntity
  8
ｶｳﾝﾀｰ_ｷｬﾋﾞﾈｯﾄ
  6
CONTINUOUS
 62
     6
100
AcDbLine
 10
2627.999999999994
 20
2498.65470053836
 30
0.0
 11
2616.562657036163
 21
2492.051347499406
 31
0.0
  0
LINE
  5
399
330
1F
100
AcDbEntity
  8
ｶｳﾝﾀｰ_ｷｬﾋﾞﾈｯﾄ
  6
CONTINUOUS
 62
     6
100
AcDbLine
 10
2627.999999999999
 20
2511.861406616345
 30
0.0
 11
2627.999999999999
 21
2498.6547005384
 31
0.0
  0
LINE
  5
39A
330
1F
100
AcDbEntity
  8
ｶｳﾝﾀｰ_ｷｬﾋﾞﾈｯﾄ
  6
CONTINUOUS
 62
     6
100
AcDbLine
 10
2632.000000000001
 20
2511.861406616345
 30
0.0
 11
2632.000000000001
 21
2498.6547005384
 31
0.0
  0
LINE
  5
39B
330
1F
100
AcDbEntity
  8
ｶｳﾝﾀｰ_ｷｬﾋﾞﾈｯﾄ
  6
CONTINUOUS
 62
     6
100
AcDbLine
 10
2679.999999999999
 20
2447.500000000006
 30
0.0
 11
2679.999999999999
 21
2484.457898447125
 31
0.0
  0
LINE
  5
39C
330
1F
100
AcDbEntity
  8
ｶｳﾝﾀｰ_ｷｬﾋﾞﾈｯﾄ
  6
CONTINUOUS
 62
     6
100
AcDbLine
 10
2698.725814905337
 20
2512.485019585047
 30
0.0
 11
2766.352733526778
 21
2514.988025792315
 31
0.0
  0
LINE
  5
39D
330
1F
100
AcDbEntity
  8
ｶｳﾝﾀｰ_ｷｬﾋﾞﾈｯﾄ
  6
CONTINUOUS
 62
     6
100
AcDbLine
 10
2698.725814905337
 20
2482.514980414952
 30
0.0
 11
2766.352733526778
 21
2480.011974207686
 31
0.0
  0
ELLIPSE
  5
39E
330
1F
100
AcDbEntity
  8
ｶｳﾝﾀｰ_ｷｬﾋﾞﾈｯﾄ
  6
CONTINUOUS
 62
     6
100
AcDbEllipse
 10
2699.535709570399
 20
2497.5
 30
0.0
 11
18.12615574069923
 21
-4.439627721738746E-15
 31
0.0
210
0.0
220
0.0
230
1.0
 40
0.8275334392234112
 41
1.615492201463848
 42
4.667693105715715
  0
ARC
  5
39F
330
1F
100
AcDbEntity
  8
ｶｳﾝﾀｰ_ｷｬﾋﾞﾈｯﾄ
  6
CONTINUOUS
 62
     6
100
AcDbCircle
 10
2767.000000000001
 20
2497.5
 30
0.0
 40
17.5
100
AcDbArc
 50
267.8803372600434
 51
92.11966273995668
  0
LINE
  5
3A0
330
1F
100
AcDbEntity
  8
ｶｳﾝﾀｰ_ｷｬﾋﾞﾈｯﾄ
  6
CONTINUOUS
 62
     6
100
AcDbLine
 10
2749.500000000001
 20
2469.999999999999
 30
0.0
 11
2784.500000000001
 21
2469.999999999999
 31
0.0
  0
LINE
  5
3A1
330
1F
100
AcDbEntity
  8
ｶｳﾝﾀｰ_ｷｬﾋﾞﾈｯﾄ
  6
CONTINUOUS
 62
     6
100
AcDbLine
 10
2749.500000000001
 20
2480.635727255833
 30
0.0
 11
2749.500000000001
 21
2469.999999999999
 31
0.0
  0
LINE
  5
3A2
330
1F
100
AcDbEntity
  8
ｶｳﾝﾀｰ_ｷｬﾋﾞﾈｯﾄ
  6
CONTINUOUS
 62
     6
100
AcDbLine
 10
2784.500000000001
 20
2497.5
 30
0.0
 11
2784.500000000001
 21
2469.999999999999
 31
0.0
  0
LINE
  5
3A3
330
1F
100
AcDbEntity
  8
ｶｳﾝﾀｰ_ｷｬﾋﾞﾈｯﾄ
  6
CONTINUOUS
 62
     6
100
AcDbLine
 10
2784.49999999935
 20
2470.000000000022
 30
0.0
 11
2783.773820571091
 21
2449.204941963563
 31
0.0
  0
ARC
  5
3A4
330
1F
100
AcDbEntity
  8
ｶｳﾝﾀｰ_ｷｬﾋﾞﾈｯﾄ
  6
CONTINUOUS
 62
     6
100
AcDbCircle
 10
2723.810370949946
 20
2451.298911765711
 30
0.0
 40
60.0
100
AcDbArc
 50
328.5571033085469
 51
358.0000000000025
  0
ARC
  5
3A5
330
1F
100
AcDbEntity
  8
ｶｳﾝﾀｰ_ｷｬﾋﾞﾈｯﾄ
  6
CONTINUOUS
 62
     6
100
AcDbCircle
 10
2810.189629050056
 20
2451.298911765711
 30
0.0
 40
60.0
100
AcDbArc
 50
181.9999999999977
 51
211.4428966914532
  0
LINE
  5
3A6
330
1F
100
AcDbEntity
  8
ｶｳﾝﾀｰ_ｷｬﾋﾞﾈｯﾄ
  6
CONTINUOUS
 62
     6
100
AcDbLine
 10
2749.500000000652
 20
2470.000000000022
 30
0.0
 11
2750.226179428911
 21
2449.204941963563
 31
0.0
  0
LINE
  5
3A7
330
1F
100
AcDbEntity
  8
ｶｳﾝﾀｰ_ｷｬﾋﾞﾈｯﾄ
  6
CONTINUOUS
 62
     6
100
AcDbLine
 10
2775.000000000001
 20
2420.0
 30
0.0
 11
2759.000000000001
 21
2420.0
 31
0.0
  0
ELLIPSE
  5
3A8
330
1F
100
AcDbEntity
  8
ｶｳﾝﾀｰ_ｷｬﾋﾞﾈｯﾄ
  6
CONTINUOUS
 62
     6
100
AcDbEllipse
 10
2758.412669775903
 20
2441.572450167371
 30
0.0
 11
-1.525225498083993
 21
17.43340721660556
 31
0.0
210
0.0
220
0.0
230
1.0
 40
0.2794104048720002
 41
0.0
 42
6.283185307179586
  0
ARC
  5
3A9
330
1F
100
AcDbEntity
  8
ｶｳﾝﾀｰ_ｷｬﾋﾞﾈｯﾄ
  6
CONTINUOUS
 62
     6
100
AcDbCircle
 10
2767.000000000001
 20
2497.5
 30
0.0
 40
21.0
100
AcDbArc
 50
326.4426902380793
 51
125.6769725018797
  0
LINE
  5
3AA
330
1F
100
AcDbEntity
  8
ｶｳﾝﾀｰ_ｷｬﾋﾞﾈｯﾄ
  6
CONTINUOUS
 62
     2
100
AcDbLine
 10
1140.0
 20
2504.5
 30
0.0
 11
1140.0
 21
2572.500000000001
 31
0.0
  0
LINE
  5
3AB
330
1F
100
AcDbEntity
  8
ｶｳﾝﾀｰ_ｷｬﾋﾞﾈｯﾄ
  6
CONTINUOUS
 62
     6
100
AcDbLine
 10
2412.000000000005
 20
2562.499999999998
 30
0.0
 11
2412.000000000005
 21
2611.0
 31
0.0
  0
LINE
  5
3AC
330
1F
100
AcDbEntity
  8
ｶｳﾝﾀｰ_ｷｬﾋﾞﾈｯﾄ
  6
CONTINUOUS
 62
     6
100
AcDbLine
 10
2410.500000000002
 20
2572.5
 30
0.0
 11
2412.000000000002
 21
2606.0
 31
0.0
  0
LINE
  5
3AD
330
1F
100
AcDbEntity
  8
ｶｳﾝﾀｰ_ｷｬﾋﾞﾈｯﾄ
  6
CONTINUOUS
 62
     6
100
AcDbLine
 10
2413.500000000002
 20
2572.5
 30
0.0
 11
2412.000000000002
 21
2606.0
 31
0.0
  0
LINE
  5
3AE
330
1F
100
AcDbEntity
  8
ｶｳﾝﾀｰ_ｷｬﾋﾞﾈｯﾄ
  6
CONTINUOUS
 62
     6
100
AcDbLine
 10
2162.000000000005
 20
2562.499999999998
 30
0.0
 11
2162.000000000005
 21
2611.0
 31
0.0
  0
LINE
  5
3AF
330
1F
100
AcDbEntity
  8
ｶｳﾝﾀｰ_ｷｬﾋﾞﾈｯﾄ
  6
CONTINUOUS
 62
     6
100
AcDbLine
 10
2160.500000000002
 20
2572.5
 30
0.0
 11
2162.000000000002
 21
2606.0
 31
0.0
  0
LINE
  5
3B0
330
1F
100
AcDbEntity
  8
ｶｳﾝﾀｰ_ｷｬﾋﾞﾈｯﾄ
  6
CONTINUOUS
 62
     6
100
AcDbLine
 10
2163.500000000002
 20
2572.5
 30
0.0
 11
2162.000000000002
 21
2606.0
 31
0.0
  0
LINE
  5
3B1
330
1F
100
AcDbEntity
  8
ｶｳﾝﾀｰ_ｷｬﾋﾞﾈｯﾄ
  6
CONTINUOUS
 62
     6
100
AcDbLine
 10
1775.000000000005
 20
2562.499999999998
 30
0.0
 11
1775.000000000005
 21
2611.0
 31
0.0
  0
LINE
  5
3B2
330
1F
100
AcDbEntity
  8
ｶｳﾝﾀｰ_ｷｬﾋﾞﾈｯﾄ
  6
CONTINUOUS
 62
     6
100
AcDbLine
 10
1773.500000000002
 20
2572.5
 30
0.0
 11
1775.000000000002
 21
2606.0
 31
0.0
  0
LINE
  5
3B3
330
1F
100
AcDbEntity
  8
ｶｳﾝﾀｰ_ｷｬﾋﾞﾈｯﾄ
  6
CONTINUOUS
 62
     6
100
AcDbLine
 10
1776.500000000002
 20
2572.5
 30
0.0
 11
1775.000000000002
 21
2606.0
 31
0.0
  0
LINE
  5
3B4
330
1F
100
AcDbEntity
  8
ｶｳﾝﾀｰ_ｷｬﾋﾞﾈｯﾄ
  6
CONTINUOUS
 62
     6
100
AcDbLine
 10
1510.000000000005
 20
2562.499999999998
 30
0.0
 11
1510.000000000005
 21
2611.0
 31
0.0
  0
LINE
  5
3B5
330
1F
100
AcDbEntity
  8
ｶｳﾝﾀｰ_ｷｬﾋﾞﾈｯﾄ
  6
CONTINUOUS
 62
     6
100
AcDbLine
 10
1508.500000000002
 20
2572.5
 30
0.0
 11
1510.000000000002
 21
2606.0
 31
0.0
  0
LINE
  5
3B6
330
1F
100
AcDbEntity
  8
ｶｳﾝﾀｰ_ｷｬﾋﾞﾈｯﾄ
  6
CONTINUOUS
 62
     6
100
AcDbLine
 10
1511.500000000002
 20
2572.5
 30
0.0
 11
1510.000000000002
 21
2606.0
 31
0.0
  0
LINE
  5
3B7
330
1F
100
AcDbEntity
  8
ｶｳﾝﾀｰ_ｷｬﾋﾞﾈｯﾄ
  6
CONTINUOUS
 62
     6
100
AcDbLine
 10
1215.000000000005
 20
2562.499999999998
 30
0.0
 11
1215.000000000005
 21
2611.0
 31
0.0
  0
LINE
  5
3B8
330
1F
100
AcDbEntity
  8
ｶｳﾝﾀｰ_ｷｬﾋﾞﾈｯﾄ
  6
CONTINUOUS
 62
     6
100
AcDbLine
 10
1213.500000000002
 20
2572.5
 30
0.0
 11
1215.000000000002
 21
2606.0
 31
0.0
  0
LINE
  5
3B9
330
1F
100
AcDbEntity
  8
ｶｳﾝﾀｰ_ｷｬﾋﾞﾈｯﾄ
  6
CONTINUOUS
 62
     6
100
AcDbLine
 10
1216.500000000002
 20
2572.5
 30
0.0
 11
1215.000000000002
 21
2606.0
 31
0.0
  0
LINE
  5
3BA
330
1F
100
AcDbEntity
  8
ｶｳﾝﾀｰ_ｷｬﾋﾞﾈｯﾄ
  6
CONTINUOUS
 62
     6
100
AcDbLine
 10
2081.000000000005
 20
2562.499999999998
 30
0.0
 11
2081.000000000005
 21
2611.0
 31
0.0
  0
LINE
  5
3BB
330
1F
100
AcDbEntity
  8
ｶｳﾝﾀｰ_ｷｬﾋﾞﾈｯﾄ
  6
CONTINUOUS
 62
     6
100
AcDbLine
 10
2079.500000000002
 20
2572.5
 30
0.0
 11
2081.000000000002
 21
2606.0
 31
0.0
  0
LINE
  5
3BC
330
1F
100
AcDbEntity
  8
ｶｳﾝﾀｰ_ｷｬﾋﾞﾈｯﾄ
  6
CONTINUOUS
 62
     6
100
AcDbLine
 10
2082.500000000002
 20
2572.5
 30
0.0
 11
2081.000000000002
 21
2606.0
 31
0.0
  0
LINE
  5
3BD
330
1F
100
AcDbEntity
  8
ｶｳﾝﾀｰ_ｷｬﾋﾞﾈｯﾄ
  6
CONTINUOUS
 62
     6
100
AcDbLine
 10
1479.500000000005
 20
2562.499999999998
 30
0.0
 11
1479.500000000005
 21
2611.0
 31
0.0
  0
LINE
  5
3BE
330
1F
100
AcDbEntity
  8
ｶｳﾝﾀｰ_ｷｬﾋﾞﾈｯﾄ
  6
CONTINUOUS
 62
     6
100
AcDbLine
 10
1478.000000000002
 20
2572.5
 30
0.0
 11
1479.500000000002
 21
2606.0
 31
0.0
  0
LINE
  5
3BF
330
1F
100
AcDbEntity
  8
ｶｳﾝﾀｰ_ｷｬﾋﾞﾈｯﾄ
  6
CONTINUOUS
 62
     6
100
AcDbLine
 10
1481.000000000002
 20
2572.5
 30
0.0
 11
1479.500000000002
 21
2606.0
 31
0.0
  0
LINE
  5
3C0
330
1F
100
AcDbEntity
  8
ｶｳﾝﾀｰ_ｷｬﾋﾞﾈｯﾄ
  6
CONTINUOUS
 62
     2
100
AcDbLine
 10
2477.5
 20
2572.500000000001
 30
0.0
 11
1140.0
 21
2572.500000000001
 31
0.0
  0
LINE
  5
3C1
330
1F
100
AcDbEntity
  8
ｶｳﾝﾀｰ_ｷｬﾋﾞﾈｯﾄ
  6
CONTINUOUS
 62
     6
100
AcDbLine
 10
2477.5
 20
2564.315585810601
 30
0.0
 11
1140.0
 21
2564.315585810601
 31
0.0
  0
LINE
  5
3C2
330
1F
100
AcDbEntity
  8
ｶｳﾝﾀｰ_ｷｬﾋﾞﾈｯﾄ
  6
CONTINUOUS
 62
     6
100
AcDbLine
 10
2477.5
 20
2551.415585810602
 30
0.0
 11
1140.0
 21
2551.415585810602
 31
0.0
  0
LINE
  5
3C3
330
1F
100
AcDbEntity
  8
ｶｳﾝﾀｰ_ｷｬﾋﾞﾈｯﾄ
  6
CONTINUOUS
 62
     2
100
AcDbLine
 10
2477.5
 20
2504.5
 30
0.0
 11
1140.0
 21
2504.5
 31
0.0
  0
LINE
  5
3C4
330
1F
100
AcDbEntity
  8
ｶｳﾝﾀｰ_ｷｬﾋﾞﾈｯﾄ
  6
CONTINUOUS
 62
     2
100
AcDbLine
 10
1313.999999999999
 20
2198.5
 30
0.0
 11
1313.999999999999
 21
2166.5
 31
0.0
  0
LINE
  5
3C5
330
1F
100
AcDbEntity
  8
ｶｳﾝﾀｰ_ｷｬﾋﾞﾈｯﾄ
  6
CONTINUOUS
 62
     2
100
AcDbLine
 10
1285.4118652713
 20
2198.5
 30
0.0
 11
1244.499999999999
 21
2198.5
 31
0.0
  0
LINE
  5
3C6
330
1F
100
AcDbEntity
  8
ｶｳﾝﾀｰ_ｷｬﾋﾞﾈｯﾄ
  6
CONTINUOUS
 62
     2
100
AcDbLine
 10
1313.999999999999
 20
2198.5
 30
0.0
 11
1303.211865271298
 21
2198.5
 31
0.0
  0
LINE
  5
3C7
330
1F
100
AcDbEntity
  8
ｶｳﾝﾀｰ_ｷｬﾋﾞﾈｯﾄ
  6
CONTINUOUS
 62
     2
100
AcDbLine
 10
1285.4118652713
 20
2166.5
 30
0.0
 11
1244.499999999999
 21
2166.5
 31
0.0
  0
LINE
  5
3C8
330
1F
100
AcDbEntity
  8
ｶｳﾝﾀｰ_ｷｬﾋﾞﾈｯﾄ
  6
CONTINUOUS
 62
     2
100
AcDbLine
 10
1313.999999999999
 20
2166.5
 30
0.0
 11
1303.211865271298
 21
2166.5
 31
0.0
  0
LINE
  5
3C9
330
1F
100
AcDbEntity
  8
ｶｳﾝﾀｰ_ｷｬﾋﾞﾈｯﾄ
  6
EXLTYPE3
 62
     6
100
AcDbLine
 10
1874.999999999899
 20
2182.5
 30
0.0
 11
1189.999999999999
 21
2182.5
 31
0.0
  0
ARC
  5
3CA
330
1F
100
AcDbEntity
  8
ｶｳﾝﾀｰ_ｷｬﾋﾞﾈｯﾄ
  6
EXLTYPE4
 62
     5
100
AcDbCircle
 10
1734.999999999918
 20
2182.500000000044
 30
0.0
 40
130.0
100
AcDbArc
 50
324.3146652873475
 51
35.68533471265143
  0
ARC
  5
3CB
330
1F
100
AcDbEntity
  8
ｶｳﾝﾀｰ_ｷｬﾋﾞﾈｯﾄ
  6
EXLTYPE4
 62
     5
100
AcDbCircle
 10
1637.532056551829
 20
2112.50000000004
 30
0.0
 40
250.0000000000001
100
AcDbArc
 50
35.68533471265143
 51
89.9999999999998
  0
ARC
  5
3CC
330
1F
100
AcDbEntity
  8
ｶｳﾝﾀｰ_ｷｬﾋﾞﾈｯﾄ
  6
EXLTYPE4
 62
     5
100
AcDbCircle
 10
1637.532056551829
 20
2252.500000000044
 30
0.0
 40
250.0000000000001
100
AcDbArc
 50
269.9999999999998
 51
324.3146652873475
  0
LINE
  5
3CD
330
1F
100
AcDbEntity
  8
ｶｳﾝﾀｰ_ｷｬﾋﾞﾈｯﾄ
  6
EXLTYPE4
 62
     5
100
AcDbLine
 10
1348.499999999998
 20
2002.500000000042
 30
0.0
 11
1637.532056551829
 21
2002.500000000042
 31
0.0
  0
LINE
  5
3CE
330
1F
100
AcDbEntity
  8
ｶｳﾝﾀｰ_ｷｬﾋﾞﾈｯﾄ
  6
EXLTYPE4
 62
     5
100
AcDbLine
 10
1348.499999999998
 20
2362.50000000004
 30
0.0
 11
1638.153415615576
 21
2362.50000000004
 31
0.0
  0
ARC
  5
3CF
330
1F
100
AcDbEntity
  8
ｶｳﾝﾀｰ_ｷｬﾋﾞﾈｯﾄ
  6
EXLTYPE4
 62
     5
100
AcDbCircle
 10
1343.499999999998
 20
2368.5
 30
0.0
 40
5.0
100
AcDbArc
 50
0.0
 51
90.00000000000001
  0
LINE
  5
3D0
330
1F
100
AcDbEntity
  8
ｶｳﾝﾀｰ_ｷｬﾋﾞﾈｯﾄ
  6
EXLTYPE4
 62
     5
100
AcDbLine
 10
1348.499999999998
 20
2368.5
 30
0.0
 11
1348.499999999998
 21
1996.500000000002
 31
0.0
  0
ARC
  5
3D1
330
1F
100
AcDbEntity
  8
ｶｳﾝﾀｰ_ｷｬﾋﾞﾈｯﾄ
  6
EXLTYPE4
 62
     5
100
AcDbCircle
 10
1343.499999999998
 20
1996.500000000002
 30
0.0
 40
5.0
100
AcDbArc
 50
270.0
 51
0.0
  0
ARC
  5
3D2
330
1F
100
AcDbEntity
  8
ｶｳﾝﾀｰ_ｷｬﾋﾞﾈｯﾄ
  6
EXLTYPE4
 62
     5
100
AcDbCircle
 10
1558.541917670957
 20
2157.500000000057
 30
0.0
 40
110.0000000000001
100
AcDbArc
 50
196.1276202131357
 51
269.9999999999995
  0
LINE
  5
3D3
330
1F
100
AcDbEntity
  8
ｶｳﾝﾀｰ_ｷｬﾋﾞﾈｯﾄ
  6
EXLTYPE4
 62
     5
100
AcDbLine
 10
1558.541917670957
 20
2047.500000000057
 30
0.0
 11
1637.019737696321
 21
2047.500000000057
 31
0.0
  0
ARC
  5
3D4
330
1F
100
AcDbEntity
  8
ｶｳﾝﾀｰ_ｷｬﾋﾞﾈｯﾄ
  6
EXLTYPE4
 62
     5
100
AcDbCircle
 10
1637.019737696321
 20
2347.500000000056
 30
0.0
 40
300.0
100
AcDbArc
 50
269.9999999999997
 51
308.6469010437114
  0
ARC
  5
3D5
330
1F
100
AcDbEntity
  8
ｶｳﾝﾀｰ_ｷｬﾋﾞﾈｯﾄ
  6
EXLTYPE4
 62
     5
100
AcDbCircle
 10
1774.413944711656
 20
2175.677906314095
 30
0.0
 40
80.0
100
AcDbArc
 50
308.6469010437111
 51
350.1800650606938
  0
ARC
  5
3D6
330
1F
100
AcDbEntity
  8
ｶｳﾝﾀｰ_ｷｬﾋﾞﾈｯﾄ
  6
EXLTYPE4
 62
     5
100
AcDbCircle
 10
1734.99999999992
 20
2182.50000000006
 30
0.0
 40
120.0000000000001
100
AcDbArc
 50
350.1800650606939
 51
9.819934939305584
  0
ARC
  5
3D7
330
1F
100
AcDbEntity
  8
ｶｳﾝﾀｰ_ｷｬﾋﾞﾈｯﾄ
  6
EXLTYPE4
 62
     5
100
AcDbCircle
 10
1774.413944711656
 20
2189.322093686026
 30
0.0
 40
80.0
100
AcDbArc
 50
9.819934939305584
 51
51.35309895628799
  0
ARC
  5
3D8
330
1F
100
AcDbEntity
  8
ｶｳﾝﾀｰ_ｷｬﾋﾞﾈｯﾄ
  6
EXLTYPE4
 62
     5
100
AcDbCircle
 10
1637.019737696321
 20
2017.500000000066
 30
0.0
 40
300.0
100
AcDbArc
 50
51.35309895628804
 51
89.99999999999969
  0
LINE
  5
3D9
330
1F
100
AcDbEntity
  8
ｶｳﾝﾀｰ_ｷｬﾋﾞﾈｯﾄ
  6
EXLTYPE4
 62
     5
100
AcDbLine
 10
1637.019737696321
 20
2317.500000000066
 30
0.0
 11
1544.687637856126
 21
2317.500000000066
 31
0.0
  0
LINE
  5
3DA
330
1F
100
AcDbEntity
  8
ｶｳﾝﾀｰ_ｷｬﾋﾞﾈｯﾄ
  6
EXLTYPE4
 62
     5
100
AcDbLine
 10
1452.253053261667
 20
2325.463097489727
 30
0.0
 11
1544.687637856126
 21
2317.500000000066
 31
0.0
  0
ARC
  5
3DB
330
1F
100
AcDbEntity
  8
ｶｳﾝﾀｰ_ｷｬﾋﾞﾈｯﾄ
  6
EXLTYPE4
 62
     5
100
AcDbCircle
 10
1451.394747715565
 20
2315.500000000066
 30
0.0
 40
10.0
100
AcDbArc
 50
85.07621330654631
 51
183.9115718126161
  0
LINE
  5
3DC
330
1F
100
AcDbEntity
  8
ｶｳﾝﾀｰ_ｷｬﾋﾞﾈｯﾄ
  6
EXLTYPE4
 62
     5
100
AcDbLine
 10
1444.99999999992
 20
2262.431703666406
 30
0.0
 11
1441.418042498606
 21
2314.817832121921
 31
0.0
  0
LINE
  5
3DD
330
1F
100
AcDbEntity
  8
ｶｳﾝﾀｰ_ｷｬﾋﾞﾈｯﾄ
  6
EXLTYPE4
 62
     5
100
AcDbLine
 10
1444.99999999992
 20
2182.50000000002
 30
0.0
 11
1444.99999999992
 21
2262.431703666406
 31
0.0
  0
ARC
  5
3DE
330
1F
100
AcDbEntity
  8
ｶｳﾝﾀｰ_ｷｬﾋﾞﾈｯﾄ
  6
EXLTYPE4
 62
     5
100
AcDbCircle
 10
1644.99999999992
 20
2182.50000000002
 30
0.0
 40
200.0000000000001
100
AcDbArc
 50
179.9999999999886
 51
196.1276202131355
  0
LINE
  5
3DF
330
1F
100
AcDbEntity
  8
ｶｳﾝﾀｰ_ｷｬﾋﾞﾈｯﾄ
  6
EXLTYPE4
 62
     5
100
AcDbLine
 10
1509.999999999918
 20
2170.000000000057
 30
0.0
 11
1509.999999999918
 21
2213.000000000066
 31
0.0
  0
ARC
  5
3E0
330
1F
100
AcDbEntity
  8
ｶｳﾝﾀｰ_ｷｬﾋﾞﾈｯﾄ
  6
EXLTYPE4
 62
     5
100
AcDbCircle
 10
1571.999999999918
 20
2213.000000000066
 30
0.0
 40
62.00000000000004
100
AcDbArc
 50
90.00000000000001
 51
180.0
  0
LINE
  5
3E1
330
1F
100
AcDbEntity
  8
ｶｳﾝﾀｰ_ｷｬﾋﾞﾈｯﾄ
  6
EXLTYPE4
 62
     5
100
AcDbLine
 10
1571.999999999918
 20
2275.000000000066
 30
0.0
 11
1645.559152325988
 21
2275.000000000066
 31
0.0
  0
ARC
  5
3E2
330
1F
100
AcDbEntity
  8
ｶｳﾝﾀｰ_ｷｬﾋﾞﾈｯﾄ
  6
EXLTYPE4
 62
     5
100
AcDbCircle
 10
1645.559152325988
 20
1975.000000000066
 30
0.0
 40
300.0
100
AcDbArc
 50
56.09873800311501
 51
90.84661429000333
  0
ARC
  5
3E3
330
1F
100
AcDbEntity
  8
ｶｳﾝﾀｰ_ｷｬﾋﾞﾈｯﾄ
  6
EXLTYPE4
 62
     5
100
AcDbCircle
 10
1784.9999999999
 20
2182.50000000002
 30
0.0
 40
50.00000000000004
100
AcDbArc
 50
303.9012619968846
 51
56.09873800311541
  0
ARC
  5
3E4
330
1F
100
AcDbEntity
  8
ｶｳﾝﾀｰ_ｷｬﾋﾞﾈｯﾄ
  6
EXLTYPE4
 62
     5
100
AcDbCircle
 10
1645.559152325988
 20
2389.999999999975
 30
0.0
 40
300.0
100
AcDbArc
 50
269.1533857099965
 51
303.9012619968848
  0
LINE
  5
3E5
330
1F
100
AcDbEntity
  8
ｶｳﾝﾀｰ_ｷｬﾋﾞﾈｯﾄ
  6
EXLTYPE4
 62
     5
100
AcDbLine
 10
1645.559152325988
 20
2090.000000000057
 30
0.0
 11
1589.999999999918
 21
2090.000000000057
 31
0.0
  0
ARC
  5
3E6
330
1F
100
AcDbEntity
  8
ｶｳﾝﾀｰ_ｷｬﾋﾞﾈｯﾄ
  6
EXLTYPE4
 62
     5
100
AcDbCircle
 10
1589.999999999918
 20
2170.000000000057
 30
0.0
 40
80.0
100
AcDbArc
 50
180.0
 51
270.0
  0
LINE
  5
3E7
330
1F
100
AcDbEntity
  8
ｶｳﾝﾀｰ_ｷｬﾋﾞﾈｯﾄ
  6
EXLTYPE4
 62
     5
100
AcDbLine
 10
1234.999999999999
 20
2365.5
 30
0.0
 11
1234.999999999999
 21
1999.500000000002
 31
0.0
  0
LINE
  5
3E8
330
1F
100
AcDbEntity
  8
ｶｳﾝﾀｰ_ｷｬﾋﾞﾈｯﾄ
  6
EXLTYPE4
 62
     5
100
AcDbLine
 10
1243.0
 20
1991.500000000002
 30
0.0
 11
1343.499999999998
 21
1991.500000000002
 31
0.0
  0
ARC
  5
3E9
330
1F
100
AcDbEntity
  8
ｶｳﾝﾀｰ_ｷｬﾋﾞﾈｯﾄ
  6
EXLTYPE4
 62
     5
100
AcDbCircle
 10
1243.0
 20
2365.5
 30
0.0
 40
8.0
100
AcDbArc
 50
90.00000000000001
 51
180.0
  0
ARC
  5
3EA
330
1F
100
AcDbEntity
  8
ｶｳﾝﾀｰ_ｷｬﾋﾞﾈｯﾄ
  6
EXLTYPE4
 62
     5
100
AcDbCircle
 10
1243.0
 20
1999.500000000002
 30
0.0
 40
8.0
100
AcDbArc
 50
180.0
 51
270.0
  0
LINE
  5
3EB
330
1F
100
AcDbEntity
  8
ｶｳﾝﾀｰ_ｷｬﾋﾞﾈｯﾄ
  6
EXLTYPE4
 62
     5
100
AcDbLine
 10
1243.0
 20
2373.5
 30
0.0
 11
1343.499999999998
 21
2373.5
 31
0.0
  0
CIRCLE
  5
3EC
330
1F
100
AcDbEntity
  8
ｶｳﾝﾀｰ_ｷｬﾋﾞﾈｯﾄ
  6
EXLTYPE2
 62
     5
100
AcDbCircle
 10
1399.999999999898
 20
2252.5
 30
0.0
 40
8.0
  0
CIRCLE
  5
3ED
330
1F
100
AcDbEntity
  8
ｶｳﾝﾀｰ_ｷｬﾋﾞﾈｯﾄ
  6
EXLTYPE2
 62
     5
100
AcDbCircle
 10
1399.999999999898
 20
2112.5
 30
0.0
 40
8.0
  0
LINE
  5
3EE
330
1F
100
AcDbEntity
  8
ｶｳﾝﾀｰ_ｷｬﾋﾞﾈｯﾄ
  6
CONTINUOUS
 62
     6
100
AcDbLine
 10
1144.999999999999
 20
2379.5
 30
0.0
 11
1144.999999999999
 21
2405.5
 31
0.0
  0
LINE
  5
3EF
330
1F
100
AcDbEntity
  8
ｶｳﾝﾀｰ_ｷｬﾋﾞﾈｯﾄ
  6
CONTINUOUS
 62
     6
100
AcDbLine
 10
1140.0
 20
2379.5
 30
0.0
 11
1140.0
 21
2405.5
 31
0.0
  0
LINE
  5
3F0
330
1F
100
AcDbEntity
  8
ｶｳﾝﾀｰ_ｷｬﾋﾞﾈｯﾄ
  6
CONTINUOUS
 62
     6
100
AcDbLine
 10
1209.999999999998
 20
2384.5
 30
0.0
 11
1172.679491924309
 21
2384.5
 31
0.0
  0
LINE
  5
3F1
330
1F
100
AcDbEntity
  8
ｶｳﾝﾀｰ_ｷｬﾋﾞﾈｯﾄ
  6
CONTINUOUS
 62
     6
100
AcDbLine
 10
1209.999999999998
 20
2400.5
 30
0.0
 11
1172.679491924309
 21
2400.5
 31
0.0
  0
LINE
  5
3F2
330
1F
100
AcDbEntity
  8
ｶｳﾝﾀｰ_ｷｬﾋﾞﾈｯﾄ
  6
CONTINUOUS
 62
     6
100
AcDbLine
 10
1208.699999999999
 20
2379.5
 30
0.0
 11
1140.0
 21
2379.5
 31
0.0
  0
LINE
  5
3F3
330
1F
100
AcDbEntity
  8
ｶｳﾝﾀｰ_ｷｬﾋﾞﾈｯﾄ
  6
CONTINUOUS
 62
     6
100
AcDbLine
 10
1209.999999999998
 20
2384.5
 30
0.0
 11
1209.999999999998
 21
2400.5
 31
0.0
  0
LINE
  5
3F4
330
1F
100
AcDbEntity
  8
ｶｳﾝﾀｰ_ｷｬﾋﾞﾈｯﾄ
  6
CONTINUOUS
 62
     6
100
AcDbLine
 10
1208.699999999999
 20
2405.5
 30
0.0
 11
1140.0
 21
2405.5
 31
0.0
  0
LINE
  5
3F5
330
1F
100
AcDbEntity
  8
ｶｳﾝﾀｰ_ｷｬﾋﾞﾈｯﾄ
  6
CONTINUOUS
 62
     6
100
AcDbLine
 10
1208.699999999999
 20
2379.5
 30
0.0
 11
1208.699999999999
 21
2384.5
 31
0.0
  0
LINE
  5
3F6
330
1F
100
AcDbEntity
  8
ｶｳﾝﾀｰ_ｷｬﾋﾞﾈｯﾄ
  6
CONTINUOUS
 62
     6
100
AcDbLine
 10
1208.699999999999
 20
2400.5
 30
0.0
 11
1208.699999999999
 21
2405.5
 31
0.0
  0
LINE
  5
3F7
330
1F
100
AcDbEntity
  8
ｶｳﾝﾀｰ_ｷｬﾋﾞﾈｯﾄ
  6
CONTINUOUS
 62
     6
100
AcDbLine
 10
1171.139999999999
 20
2383.0
 30
0.0
 11
1147.9
 21
2383.0
 31
0.0
  0
LINE
  5
3F8
330
1F
100
AcDbEntity
  8
ｶｳﾝﾀｰ_ｷｬﾋﾞﾈｯﾄ
  6
CONTINUOUS
 62
     6
100
AcDbLine
 10
1171.139999999999
 20
2402.0
 30
0.0
 11
1147.9
 21
2402.0
 31
0.0
  0
ARC
  5
3F9
330
1F
100
AcDbEntity
  8
ｶｳﾝﾀｰ_ｷｬﾋﾞﾈｯﾄ
  6
CONTINUOUS
 62
     6
100
AcDbCircle
 10
1171.139999999999
 20
2388.0
 30
0.0
 40
5.0
100
AcDbArc
 50
270.0
 51
315.5729959991909
  0
ARC
  5
3FA
330
1F
100
AcDbEntity
  8
ｶｳﾝﾀｰ_ｷｬﾋﾞﾈｯﾄ
  6
CONTINUOUS
 62
     6
100
AcDbCircle
 10
1171.139999999999
 20
2397.0
 30
0.0
 40
5.0
100
AcDbArc
 50
44.4270040008092
 51
90.00000000000001
  0
LINE
  5
3FB
330
1F
100
AcDbEntity
  8
ｶｳﾝﾀｰ_ｷｬﾋﾞﾈｯﾄ
  6
CONTINUOUS
 62
     6
100
AcDbLine
 10
1158.999999999997
 20
2386.726497308103
 30
0.0
 11
1163.999999999998
 21
2389.613248654051
 31
0.0
  0
LINE
  5
3FC
330
1F
100
AcDbEntity
  8
ｶｳﾝﾀｰ_ｷｬﾋﾞﾈｯﾄ
  6
CONTINUOUS
 62
     6
100
AcDbLine
 10
1154.0
 20
2389.613248654051
 30
0.0
 11
1159.0
 21
2386.726497308103
 31
0.0
  0
LINE
  5
3FD
330
1F
100
AcDbEntity
  8
ｶｳﾝﾀｰ_ｷｬﾋﾞﾈｯﾄ
  6
CONTINUOUS
 62
     6
100
AcDbLine
 10
1154.0
 20
2395.38675134595
 30
0.0
 11
1154.0
 21
2389.61324865405
 31
0.0
  0
LINE
  5
3FE
330
1F
100
AcDbEntity
  8
ｶｳﾝﾀｰ_ｷｬﾋﾞﾈｯﾄ
  6
CONTINUOUS
 62
     6
100
AcDbLine
 10
1159.0
 20
2398.273502691898
 30
0.0
 11
1154.0
 21
2395.38675134595
 31
0.0
  0
LINE
  5
3FF
330
1F
100
AcDbEntity
  8
ｶｳﾝﾀｰ_ｷｬﾋﾞﾈｯﾄ
  6
CONTINUOUS
 62
     6
100
AcDbLine
 10
1163.999999999998
 20
2389.61324865405
 30
0.0
 11
1163.999999999998
 21
2395.38675134595
 31
0.0
  0
LINE
  5
400
330
1F
100
AcDbEntity
  8
ｶｳﾝﾀｰ_ｷｬﾋﾞﾈｯﾄ
  6
CONTINUOUS
 62
     6
100
AcDbLine
 10
1163.999999999998
 20
2395.38675134595
 30
0.0
 11
1158.999999999997
 21
2398.273502691898
 31
0.0
  0
LINE
  5
401
330
1F
100
AcDbEntity
  8
ｶｳﾝﾀｰ_ｷｬﾋﾞﾈｯﾄ
  6
CONTINUOUS
 62
     6
100
AcDbLine
 10
1148.7024390244
 20
2392.5
 30
0.0
 11
1147.845117614426
 21
2391.015075759511
 31
0.0
  0
LINE
  5
402
330
1F
100
AcDbEntity
  8
ｶｳﾝﾀｰ_ｷｬﾋﾞﾈｯﾄ
  6
CONTINUOUS
 62
     6
100
AcDbLine
 10
1148.7024390244
 20
2392.5
 30
0.0
 11
1147.845117614426
 21
2393.984924240491
 31
0.0
  0
ARC
  5
403
330
1F
100
AcDbEntity
  8
ｶｳﾝﾀｰ_ｷｬﾋﾞﾈｯﾄ
  6
CONTINUOUS
 62
     6
100
AcDbCircle
 10
1143.034439024399
 20
2392.5
 30
0.0
 40
5.66799999999985
100
AcDbArc
 50
303.9816465839706
 51
56.01835341602947
  0
LINE
  5
404
330
1F
100
AcDbEntity
  8
ｶｳﾝﾀｰ_ｷｬﾋﾞﾈｯﾄ
  6
CONTINUOUS
 62
     6
100
AcDbLine
 10
1146.202439024399
 20
2387.800000000001
 30
0.0
 11
1146.202439024399
 21
2397.200000000001
 31
0.0
  0
LINE
  5
405
330
1F
100
AcDbEntity
  8
ｶｳﾝﾀｰ_ｷｬﾋﾞﾈｯﾄ
  6
EXLTYPE3
 62
     6
100
AcDbLine
 10
1219.999999999999
 20
2392.499999999999
 30
0.0
 11
1114.202439024399
 21
2392.499999999999
 31
0.0
  0
LINE
  5
406
330
1F
100
AcDbEntity
  8
ｶｳﾝﾀｰ_ｷｬﾋﾞﾈｯﾄ
  6
CONTINUOUS
 62
     2
100
AcDbLine
 10
1205.999999999999
 20
2237.0
 30
0.0
 11
1205.999999999999
 21
2379.5
 31
0.0
  0
LINE
  5
407
330
1F
100
AcDbEntity
  8
ｶｳﾝﾀｰ_ｷｬﾋﾞﾈｯﾄ
  6
CONTINUOUS
 62
     2
100
AcDbLine
 10
1173.999999999998
 20
2237.0
 30
0.0
 11
1173.999999999999
 21
2379.5
 31
0.0
  0
LINE
  5
408
330
1F
100
AcDbEntity
  8
ｶｳﾝﾀｰ_ｷｬﾋﾞﾈｯﾄ
  6
CONTINUOUS
 62
     2
100
AcDbLine
 10
1205.999999999999
 20
2405.5
 30
0.0
 11
1205.999999999999
 21
2504.5
 31
0.0
  0
LINE
  5
409
330
1F
100
AcDbEntity
  8
ｶｳﾝﾀｰ_ｷｬﾋﾞﾈｯﾄ
  6
CONTINUOUS
 62
     2
100
AcDbLine
 10
1173.999999999999
 20
2405.5
 30
0.0
 11
1173.999999999999
 21
2504.5
 31
0.0
  0
LINE
  5
40A
330
1F
100
AcDbEntity
  8
ｶｳﾝﾀｰ_ｷｬﾋﾞﾈｯﾄ
  6
EXLTYPE3
 62
     6
100
AcDbLine
 10
1189.999999999999
 20
2514.5
 30
0.0
 11
1189.999999999999
 21
2182.5
 31
0.0
  0
LINE
  5
40B
330
1F
100
AcDbEntity
  8
ｶｳﾝﾀｰ_ｷｬﾋﾞﾈｯﾄ
  6
CONTINUOUS
 62
     6
100
AcDbLine
 10
1140.0
 20
2394.0
 30
0.0
 11
1116.202439024401
 21
2392.5
 31
0.0
  0
LINE
  5
40C
330
1F
100
AcDbEntity
  8
ｶｳﾝﾀｰ_ｷｬﾋﾞﾈｯﾄ
  6
CONTINUOUS
 62
     6
100
AcDbLine
 10
1140.0
 20
2391.0
 30
0.0
 11
1116.202439024401
 21
2392.5
 31
0.0
  0
LINE
  5
40D
330
1F
100
AcDbEntity
  8
ｶｳﾝﾀｰ_ｷｬﾋﾞﾈｯﾄ
  6
EXLTYPE4
 62
     6
100
AcDbLine
 10
2832.500000000003
 20
2572.5
 30
0.0
 11
3070.000000000002
 21
2572.5
 31
0.0
  0
ARC
  5
40E
330
1F
100
AcDbEntity
  8
ｶｳﾝﾀｰ_ｷｬﾋﾞﾈｯﾄ
  6
CONTINUOUS
 62
     6
100
AcDbCircle
 10
1288.4118652713
 20
2161.25
 30
0.0
 40
3.000000000000003
100
AcDbArc
 50
180.0
 51
270.0
  0
ARC
  5
40F
330
1F
100
AcDbEntity
  8
ｶｳﾝﾀｰ_ｷｬﾋﾞﾈｯﾄ
  6
CONTINUOUS
 62
     6
100
AcDbCircle
 10
1288.4118652713
 20
2203.75
 30
0.0
 40
3.000000000000003
100
AcDbArc
 50
90.00000000000001
 51
180.0
  0
LINE
  5
410
330
1F
100
AcDbEntity
  8
ｶｳﾝﾀｰ_ｷｬﾋﾞﾈｯﾄ
  6
CONTINUOUS
 62
     6
100
AcDbLine
 10
1288.4118652713
 20
2158.25
 30
0.0
 11
1303.211865271299
 21
2158.25
 31
0.0
  0
LINE
  5
411
330
1F
100
AcDbEntity
  8
ｶｳﾝﾀｰ_ｷｬﾋﾞﾈｯﾄ
  6
CONTINUOUS
 62
     6
100
AcDbLine
 10
1285.4118652713
 20
2203.75
 30
0.0
 11
1285.4118652713
 21
2161.25
 31
0.0
  0
LINE
  5
412
330
1F
100
AcDbEntity
  8
ｶｳﾝﾀｰ_ｷｬﾋﾞﾈｯﾄ
  6
CONTINUOUS
 62
     6
100
AcDbLine
 10
1288.4118652713
 20
2206.75
 30
0.0
 11
1303.211865271299
 21
2206.75
 31
0.0
  0
LINE
  5
413
330
1F
100
AcDbEntity
  8
ｶｳﾝﾀｰ_ｷｬﾋﾞﾈｯﾄ
  6
CONTINUOUS
 62
     6
100
AcDbLine
 10
1303.211865271299
 20
2206.75
 30
0.0
 11
1303.211865271299
 21
2158.25
 31
0.0
  0
LINE
  5
414
330
1F
100
AcDbEntity
  8
ｶｳﾝﾀｰ_ｷｬﾋﾞﾈｯﾄ
  6
CONTINUOUS
 62
     6
100
AcDbLine
 10
1288.4118652713
 20
2160.346522652201
 30
0.0
 11
1303.211865271299
 21
2160.346522652201
 31
0.0
  0
LINE
  5
415
330
1F
100
AcDbEntity
  8
ｶｳﾝﾀｰ_ｷｬﾋﾞﾈｯﾄ
  6
CONTINUOUS
 62
     6
100
AcDbLine
 10
1288.4118652713
 20
2162.881337886401
 30
0.0
 11
1303.211865271299
 21
2162.881337886401
 31
0.0
  0
LINE
  5
416
330
1F
100
AcDbEntity
  8
ｶｳﾝﾀｰ_ｷｬﾋﾞﾈｯﾄ
  6
CONTINUOUS
 62
     6
100
AcDbLine
 10
1288.4118652713
 20
2166.2735827958
 30
0.0
 11
1303.211865271299
 21
2166.2735827958
 31
0.0
  0
LINE
  5
417
330
1F
100
AcDbEntity
  8
ｶｳﾝﾀｰ_ｷｬﾋﾞﾈｯﾄ
  6
CONTINUOUS
 62
     6
100
AcDbLine
 10
1288.4118652713
 20
2170.375
 30
0.0
 11
1303.211865271299
 21
2170.375
 31
0.0
  0
LINE
  5
418
330
1F
100
AcDbEntity
  8
ｶｳﾝﾀｰ_ｷｬﾋﾞﾈｯﾄ
  6
CONTINUOUS
 62
     6
100
AcDbLine
 10
1288.4118652713
 20
2175.006337886401
 30
0.0
 11
1303.211865271299
 21
2175.006337886401
 31
0.0
  0
LINE
  5
419
330
1F
100
AcDbEntity
  8
ｶｳﾝﾀｰ_ｷｬﾋﾞﾈｯﾄ
  6
CONTINUOUS
 62
     6
100
AcDbLine
 10
1288.4118652713
 20
2179.9651847658
 30
0.0
 11
1303.211865271299
 21
2179.9651847658
 31
0.0
  0
LINE
  5
41A
330
1F
100
AcDbEntity
  8
ｶｳﾝﾀｰ_ｷｬﾋﾞﾈｯﾄ
  6
CONTINUOUS
 62
     6
100
AcDbLine
 10
1288.4118652713
 20
2185.034815234201
 30
0.0
 11
1303.211865271299
 21
2185.034815234201
 31
0.0
  0
LINE
  5
41B
330
1F
100
AcDbEntity
  8
ｶｳﾝﾀｰ_ｷｬﾋﾞﾈｯﾄ
  6
CONTINUOUS
 62
     6
100
AcDbLine
 10
1288.4118652713
 20
2189.993662113601
 30
0.0
 11
1303.211865271299
 21
2189.993662113601
 31
0.0
  0
LINE
  5
41C
330
1F
100
AcDbEntity
  8
ｶｳﾝﾀｰ_ｷｬﾋﾞﾈｯﾄ
  6
CONTINUOUS
 62
     6
100
AcDbLine
 10
1288.4118652713
 20
2194.625
 30
0.0
 11
1303.211865271299
 21
2194.625
 31
0.0
  0
LINE
  5
41D
330
1F
100
AcDbEntity
  8
ｶｳﾝﾀｰ_ｷｬﾋﾞﾈｯﾄ
  6
CONTINUOUS
 62
     6
100
AcDbLine
 10
1288.4118652713
 20
2198.726417204201
 30
0.0
 11
1303.211865271299
 21
2198.726417204201
 31
0.0
  0
LINE
  5
41E
330
1F
100
AcDbEntity
  8
ｶｳﾝﾀｰ_ｷｬﾋﾞﾈｯﾄ
  6
CONTINUOUS
 62
     6
100
AcDbLine
 10
1288.4118652713
 20
2202.118662113601
 30
0.0
 11
1303.211865271299
 21
2202.118662113601
 31
0.0
  0
LINE
  5
41F
330
1F
100
AcDbEntity
  8
ｶｳﾝﾀｰ_ｷｬﾋﾞﾈｯﾄ
  6
CONTINUOUS
 62
     6
100
AcDbLine
 10
1288.4118652713
 20
2204.653477347801
 30
0.0
 11
1303.211865271299
 21
2204.653477347801
 31
0.0
  0
ARC
  5
420
330
1F
100
AcDbEntity
  8
ｶｳﾝﾀｰ_ｷｬﾋﾞﾈｯﾄ
  6
CONTINUOUS
 62
     6
100
AcDbCircle
 10
1224.0
 20
2216.5
 30
0.0
 40
15.00000000000001
100
AcDbArc
 50
180.0
 51
270.0
  0
LINE
  5
421
330
1F
100
AcDbEntity
  8
ｶｳﾝﾀｰ_ｷｬﾋﾞﾈｯﾄ
  6
CONTINUOUS
 62
     6
100
AcDbLine
 10
1171.0
 20
2219.199999999999
 30
0.0
 11
1171.0
 21
2200.5
 31
0.0
  0
LINE
  5
422
330
1F
100
AcDbEntity
  8
ｶｳﾝﾀｰ_ｷｬﾋﾞﾈｯﾄ
  6
CONTINUOUS
 62
     6
100
AcDbLine
 10
1208.0
 20
2163.5
 30
0.0
 11
1226.7
 21
2163.5
 31
0.0
  0
LINE
  5
423
330
1F
100
AcDbEntity
  8
ｶｳﾝﾀｰ_ｷｬﾋﾞﾈｯﾄ
  6
CONTINUOUS
 62
     6
100
AcDbLine
 10
1190.0
 20
2166.249999999999
 30
0.0
 11
1205.0
 21
2166.249999999999
 31
0.0
  0
LINE
  5
424
330
1F
100
AcDbEntity
  8
ｶｳﾝﾀｰ_ｷｬﾋﾞﾈｯﾄ
  6
CONTINUOUS
 62
     6
100
AcDbLine
 10
1173.75
 20
2182.499999999999
 30
0.0
 11
1173.75
 21
2197.5
 31
0.0
  0
ARC
  5
425
330
1F
100
AcDbEntity
  8
ｶｳﾝﾀｰ_ｷｬﾋﾞﾈｯﾄ
  6
CONTINUOUS
 62
     6
100
AcDbCircle
 10
1190.0
 20
2182.499999999999
 30
0.0
 40
16.25
100
AcDbArc
 50
180.0
 51
270.0
  0
LINE
  5
426
330
1F
100
AcDbEntity
  8
ｶｳﾝﾀｰ_ｷｬﾋﾞﾈｯﾄ
  6
CONTINUOUS
 62
     6
100
AcDbLine
 10
1171.0
 20
2200.5
 30
0.0
 11
1173.75
 21
2197.5
 31
0.0
  0
LINE
  5
427
330
1F
100
AcDbEntity
  8
ｶｳﾝﾀｰ_ｷｬﾋﾞﾈｯﾄ
  6
CONTINUOUS
 62
     6
100
AcDbLine
 10
1208.0
 20
2163.5
 30
0.0
 11
1205.0
 21
2166.25
 31
0.0
  0
LINE
  5
428
330
1F
100
AcDbEntity
  8
ｶｳﾝﾀｰ_ｷｬﾋﾞﾈｯﾄ
  6
CONTINUOUS
 62
     6
100
AcDbLine
 10
1209.0
 20
2219.199999999999
 30
0.0
 11
1209.0
 21
2201.5
 31
0.0
  0
LINE
  5
429
330
1F
100
AcDbEntity
  8
ｶｳﾝﾀｰ_ｷｬﾋﾞﾈｯﾄ
  6
CONTINUOUS
 62
     6
100
AcDbLine
 10
1209.0
 20
2201.5
 30
0.0
 11
1226.7
 21
2201.5
 31
0.0
  0
LINE
  5
42A
330
1F
100
AcDbEntity
  8
ｶｳﾝﾀｰ_ｷｬﾋﾞﾈｯﾄ
  6
CONTINUOUS
 62
     6
100
AcDbLine
 10
1212.799999999999
 20
2237.0
 30
0.0
 11
1212.799999999999
 21
2219.199999999999
 31
0.0
  0
LINE
  5
42B
330
1F
100
AcDbEntity
  8
ｶｳﾝﾀｰ_ｷｬﾋﾞﾈｯﾄ
  6
CONTINUOUS
 62
     6
100
AcDbLine
 10
1167.200000000001
 20
2237.0
 30
0.0
 11
1167.200000000001
 21
2219.199999999999
 31
0.0
  0
LINE
  5
42C
330
1F
100
AcDbEntity
  8
ｶｳﾝﾀｰ_ｷｬﾋﾞﾈｯﾄ
  6
CONTINUOUS
 62
     6
100
AcDbLine
 10
1212.799999999999
 20
2237.0
 30
0.0
 11
1167.200000000001
 21
2237.0
 31
0.0
  0
LINE
  5
42D
330
1F
100
AcDbEntity
  8
ｶｳﾝﾀｰ_ｷｬﾋﾞﾈｯﾄ
  6
CONTINUOUS
 62
     6
100
AcDbLine
 10
1212.799999999999
 20
2219.199999999999
 30
0.0
 11
1167.200000000001
 21
2219.199999999999
 31
0.0
  0
LINE
  5
42E
330
1F
100
AcDbEntity
  8
ｶｳﾝﾀｰ_ｷｬﾋﾞﾈｯﾄ
  6
CONTINUOUS
 62
     6
100
AcDbLine
 10
1244.5
 20
2159.700000000001
 30
0.0
 11
1226.7
 21
2159.700000000001
 31
0.0
  0
LINE
  5
42F
330
1F
100
AcDbEntity
  8
ｶｳﾝﾀｰ_ｷｬﾋﾞﾈｯﾄ
  6
CONTINUOUS
 62
     6
100
AcDbLine
 10
1244.5
 20
2205.3
 30
0.0
 11
1226.7
 21
2205.3
 31
0.0
  0
LINE
  5
430
330
1F
100
AcDbEntity
  8
ｶｳﾝﾀｰ_ｷｬﾋﾞﾈｯﾄ
  6
CONTINUOUS
 62
     6
100
AcDbLine
 10
1244.5
 20
2159.700000000001
 30
0.0
 11
1244.5
 21
2205.3
 31
0.0
  0
LINE
  5
431
330
1F
100
AcDbEntity
  8
ｶｳﾝﾀｰ_ｷｬﾋﾞﾈｯﾄ
  6
CONTINUOUS
 62
     6
100
AcDbLine
 10
1226.7
 20
2159.700000000001
 30
0.0
 11
1226.7
 21
2205.3
 31
0.0
  0
ARC
  5
432
330
1F
100
AcDbEntity
  8
ｶｳﾝﾀｰ_ｷｬﾋﾞﾈｯﾄ
  6
CONTINUOUS
 62
     6
100
AcDbCircle
 10
1173.877965388949
 20
2228.378750000111
 30
0.0
 40
8.621249999888418
100
AcDbArc
 50
39.99370412500019
 51
90.00000000000001
  0
ARC
  5
433
330
1F
100
AcDbEntity
  8
ｶｳﾝﾀｰ_ｷｬﾋﾞﾈｯﾄ
  6
CONTINUOUS
 62
     6
100
AcDbCircle
 10
1190.0
 20
2220.75750000006
 30
0.0
 40
16.24249999994036
100
AcDbArc
 50
54.13042484526676
 51
125.8695751547403
  0
ARC
  5
434
330
1F
100
AcDbEntity
  8
ｶｳﾝﾀｰ_ｷｬﾋﾞﾈｯﾄ
  6
CONTINUOUS
 62
     6
100
AcDbCircle
 10
1206.122034611048
 20
2228.378750000109
 30
0.0
 40
8.621249999889734
100
AcDbArc
 50
90.00000000000001
 51
140.0062958749859
  0
LINE
  5
435
330
1F
100
AcDbEntity
  8
ｶｳﾝﾀｰ_ｷｬﾋﾞﾈｯﾄ
  6
CONTINUOUS
 62
     6
100
AcDbLine
 10
1199.517165060399
 20
2233.9196569457
 30
0.0
 11
1199.517165060399
 21
2219.199999999999
 31
0.0
  0
LINE
  5
436
330
1F
100
AcDbEntity
  8
ｶｳﾝﾀｰ_ｷｬﾋﾞﾈｯﾄ
  6
CONTINUOUS
 62
     6
100
AcDbLine
 10
1180.482834939598
 20
2233.9196569457
 30
0.0
 11
1180.482834939598
 21
2219.199999999999
 31
0.0
  0
ARC
  5
437
330
1F
100
AcDbEntity
  8
ｶｳﾝﾀｰ_ｷｬﾋﾞﾈｯﾄ
  6
CONTINUOUS
 62
     6
100
AcDbCircle
 10
1235.878750000112
 20
2198.62203461105
 30
0.0
 40
8.621249999888418
100
AcDbArc
 50
309.9937041250001
 51
0.0
  0
ARC
  5
438
330
1F
100
AcDbEntity
  8
ｶｳﾝﾀｰ_ｷｬﾋﾞﾈｯﾄ
  6
CONTINUOUS
 62
     6
100
AcDbCircle
 10
1228.25750000006
 20
2182.5
 30
0.0
 40
16.24249999994036
100
AcDbArc
 50
324.1304248452667
 51
35.86957515473327
  0
ARC
  5
439
330
1F
100
AcDbEntity
  8
ｶｳﾝﾀｰ_ｷｬﾋﾞﾈｯﾄ
  6
CONTINUOUS
 62
     6
100
AcDbCircle
 10
1235.87875000011
 20
2166.377965388951
 30
0.0
 40
8.621249999889734
100
AcDbArc
 50
0.0
 51
50.00629587499056
  0
LINE
  5
43A
330
1F
100
AcDbEntity
  8
ｶｳﾝﾀｰ_ｷｬﾋﾞﾈｯﾄ
  6
CONTINUOUS
 62
     6
100
AcDbLine
 10
1241.419656945699
 20
2192.017165060401
 30
0.0
 11
1226.7
 21
2192.017165060401
 31
0.0
  0
LINE
  5
43B
330
1F
100
AcDbEntity
  8
ｶｳﾝﾀｰ_ｷｬﾋﾞﾈｯﾄ
  6
CONTINUOUS
 62
     6
100
AcDbLine
 10
1241.419656945699
 20
2172.9828349396
 30
0.0
 11
1226.7
 21
2172.9828349396
 31
0.0
  0
LINE
  5
43C
330
1F
100
AcDbEntity
  8
ｶｳﾝﾀｰ_ｷｬﾋﾞﾈｯﾄ
  6
CONTINUOUS
 62
     6
100
AcDbLine
 10
1208.0
 20
2163.5
 30
0.0
 11
1208.0
 21
2200.5
 31
0.0
  0
LINE
  5
43D
330
1F
100
AcDbEntity
  8
ｶｳﾝﾀｰ_ｷｬﾋﾞﾈｯﾄ
  6
CONTINUOUS
 62
     6
100
AcDbLine
 10
1205.0
 20
2166.25
 30
0.0
 11
1205.0
 21
2197.5
 31
0.0
  0
LINE
  5
43E
330
1F
100
AcDbEntity
  8
ｶｳﾝﾀｰ_ｷｬﾋﾞﾈｯﾄ
  6
CONTINUOUS
 62
     6
100
AcDbLine
 10
1173.75
 20
2197.5
 30
0.0
 11
1205.0
 21
2197.5
 31
0.0
  0
LINE
  5
43F
330
1F
100
AcDbEntity
  8
ｶｳﾝﾀｰ_ｷｬﾋﾞﾈｯﾄ
  6
CONTINUOUS
 62
     6
100
AcDbLine
 10
1171.0
 20
2200.5
 30
0.0
 11
1208.0
 21
2200.5
 31
0.0
  0
LINE
  5
440
330
1F
100
AcDbEntity
  8
ｶｳﾝﾀｰ_ｷｬﾋﾞﾈｯﾄ
  6
EXLTYPE4
 62
     6
100
AcDbLine
 10
1140.0
 20
2504.5
 30
0.0
 11
1140.0
 21
1686.5
 31
0.0
  0
LINE
  5
441
330
1F
100
AcDbEntity
  8
ｶｳﾝﾀｰ_ｷｬﾋﾞﾈｯﾄ
  6
EXLTYPE3
 62
     6
100
AcDbLine
 10
1340.0
 20
2237.0
 30
0.0
 11
1340.0
 21
2128.0
 31
0.0
  0
DIMENSION
  5
443
330
1F
100
AcDbEntity
  8
ｶｳﾝﾀｰ_ｷｬﾋﾞﾈｯﾄ
  6
CONTINUOUS
 62
     3
100
AcDbDimension
  2
*D15
 10
552.0000000000006
 20
1962.000000000001
 30
0.0
 11
882.0000000000011
 21
1997.249999910594
 31
0.0
 70
   160
  1
排水管出代
  3
ISO-25
100
AcDbAlignedDimension
 13
717.0000000000005
 23
2126.5
 33
0.0
 14
552.0000000000006
 24
2138.0
 34
0.0
100
AcDbRotatedDimension
1001
ACAD
1000
DSTYLE
1002
{
1070
   270
1070
     2
1070
     6
1000
EX_NORM
1070
     7
1000
EX_NORM
1070
    41
1040
44.99999618530273
1070
    42
1040
10.49999982118607
1070
    44
1040
15.0
1070
    73
1070
     0
1070
    74
1070
     0
1070
    75
1070
     0
1070
    76
1070
     1
1070
    77
1070
     1
1070
    78
1070
     8
1070
   140
1040
59.99999618530273
1070
   147
1040
0.0
1070
   173
1070
     1
1070
   176
1070
     3
1070
   177
1070
     3
1070
   178
1070
     2
1070
   271
1070
     1
1070
   277
1070
     2
1070
   279
1070
     2
1070
   280
1070
     1
1070
   287
1070
     5
1070
   340
1005
442
1002
}
  0
LINE
  5
450
330
1F
100
AcDbEntity
  8
ｶｳﾝﾀｰ_ｷｬﾋﾞﾈｯﾄ
  6
EXLTYPE4
 62
     6
100
AcDbLine
 10
552.0000000000007
 20
2572.5
 30
0.0
 11
552.0000000000005
 21
1686.5
 31
0.0
  0
LINE
  5
451
330
1F
100
AcDbEntity
  8
ｶｳﾝﾀｰ_ｷｬﾋﾞﾈｯﾄ
  6
EXLTYPE4
 62
     6
100
AcDbLine
 10
717.000000000046
 20
2238.5
 30
0.0
 11
717.000000000046
 21
2126.500000000005
 31
0.0
  0
LINE
  5
452
330
1F
100
AcDbEntity
  8
ｶｳﾝﾀｰ_ｷｬﾋﾞﾈｯﾄ
  6
EXLTYPE4
 62
     6
100
AcDbLine
 10
717.000000000046
 20
2126.500000000005
 30
0.0
 11
677.0000000000479
 21
2126.500000000005
 31
0.0
  0
LINE
  5
453
330
1F
100
AcDbEntity
  8
ｶｳﾝﾀｰ_ｷｬﾋﾞﾈｯﾄ
  6
EXLTYPE4
 62
     6
100
AcDbLine
 10
717.000000000046
 20
2238.5
 30
0.0
 11
677.0000000000479
 21
2238.5
 31
0.0
  0
LINE
  5
454
330
1F
100
AcDbEntity
  8
ｶｳﾝﾀｰ_ｷｬﾋﾞﾈｯﾄ
  6
EXLTYPE4
 62
     6
100
AcDbLine
 10
677.0000000000424
 20
2238.5
 30
0.0
 11
677.0000000000424
 21
2126.500000000005
 31
0.0
  0
LINE
  5
455
330
1F
100
AcDbEntity
  8
ｶｳﾝﾀｰ_ｷｬﾋﾞﾈｯﾄ
  6
EXLTYPE4
 62
     6
100
AcDbLine
 10
527.0000000000479
 20
2138.0
 30
0.0
 11
677.0000000000006
 21
2138.0
 31
0.0
  0
LINE
  5
456
330
1F
100
AcDbEntity
  8
ｶｳﾝﾀｰ_ｷｬﾋﾞﾈｯﾄ
  6
EXLTYPE4
 62
     6
100
AcDbLine
 10
527.0000000000479
 20
2227.000000000009
 30
0.0
 11
677.0000000000424
 21
2227.000000000061
 31
0.0
  0
LINE
  5
457
330
1F
100
AcDbEntity
  8
ｶｳﾝﾀｰ_ｷｬﾋﾞﾈｯﾄ
  6
EXLTYPE3
 62
     6
100
AcDbLine
 10
737.0000000000001
 20
2182.5
 30
0.0
 11
497.0000000000005
 21
2182.5
 31
0.0
  0
LINE
  5
458
330
1F
100
AcDbEntity
  8
ｶｳﾝﾀｰ_ｷｬﾋﾞﾈｯﾄ
  6
EXLTYPE4
 62
     6
100
AcDbLine
 10
796.5000000000007
 20
2572.5
 30
0.0
 11
552.0000000000007
 21
2572.5
 31
0.0
  0
TEXT
  5
459
330
1F
100
AcDbEntity
  8
ｶｳﾝﾀｰ_ｷｬﾋﾞﾈｯﾄ
  6
CONTINUOUS
 62
     2
100
AcDbText
 10
717.9000000000008
 20
1891.2
 30
0.0
 40
59.99999618530273
  1
（高さ１２０）
 41
0.9390243902439025
  7
EXCADSTD
 72
     5
 11
1047.899979019166
 21
1891.2
 31
0.0
100
AcDbText
  0
ARC
  5
45A
330
1F
100
AcDbEntity
  8
ｶｳﾝﾀｰ_ｷｬﾋﾞﾈｯﾄ
  6
CONTINUOUS
 62
     6
100
AcDbCircle
 10
1340.0
 20
2182.5
 30
0.0
 40
44.5
100
AcDbArc
 50
48.25350442874983
 51
312.3083953118912
  0
ARC
  5
45B
330
1F
100
AcDbEntity
  8
ｶｳﾝﾀｰ_ｷｬﾋﾞﾈｯﾄ
  6
CONTINUOUS
 62
     6
100
AcDbCircle
 10
1340.0
 20
2182.5
 30
0.0
 40
44.5
100
AcDbArc
 50
9.694624585825123
 51
29.85660037109468
  0
ARC
  5
45C
330
1F
100
AcDbEntity
  8
ｶｳﾝﾀｰ_ｷｬﾋﾞﾈｯﾄ
  6
CONTINUOUS
 62
     6
100
AcDbCircle
 10
1340.0
 20
2182.5
 30
0.0
 40
44.5
100
AcDbArc
 50
330.1433996289054
 51
350.3053754141749
  0
DIMENSION
  5
45D
330
1F
100
AcDbEntity
  8
寸法
  6
CONTINUOUS
 62
     3
100
AcDbDimension
  2
*D16
 10
1190.0
 20
2081.0
 30
0.0
 11
1042.5
 21
2116.249999910593
 31
0.0
 70
   160
  3
ISO-25
100
AcDbAlignedDimension
 13
1140.0
 23
2379.5
 33
0.0
 14
1190.0
 24
2182.5
 34
0.0
100
AcDbRotatedDimension
1001
ACAD
1000
DSTYLE
1002
{
1070
   270
1070
     2
1070
     6
1000
EX_NORM
1070
     7
1000
EX_NORM
1070
    41
1040
44.99999618530273
1070
    42
1040
10.49999982118607
1070
    44
1040
15.0
1070
    73
1070
     0
1070
    74
1070
     0
1070
    75
1070
     1
1070
    76
1070
     0
1070
    77
1070
     1
1070
    78
1070
     8
1070
   140
1040
59.99999618530273
1070
   147
1040
0.0
1070
   173
1070
     1
1070
   176
1070
     3
1070
   177
1070
     3
1070
   178
1070
     2
1070
   271
1070
     1
1070
   277
1070
     2
1070
   279
1070
     2
1070
   280
1070
     1
1070
   287
1070
     5
1070
   340
1005
442
1002
}
  0
DIMENSION
  5
46B
330
1F
100
AcDbEntity
  8
寸法
  6
CONTINUOUS
 62
     3
100
AcDbDimension
  2
*D17
 10
1235.0
 20
1781.0
 30
0.0
 11
1467.5
 21
1816.249999910593
 31
0.0
 70
   160
  1
（85～190）
  3
ISO-25
100
AcDbAlignedDimension
 13
1140.0
 23
2081.0
 33
0.0
 14
1235.0
 24
1999.5
 34
0.0
100
AcDbRotatedDimension
1001
ACAD
1000
DSTYLE
1002
{
1070
   270
1070
     2
1070
     6
1000
EX_NORM
1070
     7
1000
EX_NORM
1070
    41
1040
44.99999618530273
1070
    42
1040
10.49999982118607
1070
    44
1040
15.0
1070
    73
1070
     0
1070
    74
1070
     0
1070
    75
1070
     1
1070
    76
1070
     0
1070
    77
1070
     1
1070
    78
1070
     8
1070
   140
1040
59.99999618530273
1070
   147
1040
0.0
1070
   173
1070
     1
1070
   176
1070
     3
1070
   177
1070
     3
1070
   178
1070
     2
1070
   271
1070
     1
1070
   277
1070
     2
1070
   279
1070
     2
1070
   280
1070
     2
1070
   287
1070
     5
1070
   340
1005
442
1002
}
  0
DIMENSION
  5
477
330
1F
100
AcDbEntity
  8
寸法
  6
CONTINUOUS
 62
     3
100
AcDbDimension
  2
*D18
 10
1864.9999999999
 20
1691.0
 30
0.0
 11
1549.99999999995
 21
1726.249999910593
 31
0.0
 70
   160
  1
（630）
  3
ISO-25
100
AcDbAlignedDimension
 13
1235.0
 23
1999.5
 33
0.0
 14
1864.9999999999
 24
2182.5
 34
0.0
100
AcDbRotatedDimension
1001
ACAD
1000
DSTYLE
1002
{
1070
   270
1070
     2
1070
     6
1000
EX_NORM
1070
     7
1000
EX_NORM
1070
    41
1040
44.99999618530273
1070
    42
1040
10.49999982118607
1070
    44
1040
15.0
1070
    73
1070
     0
1070
    74
1070
     0
1070
    75
1070
     0
1070
    76
1070
     0
1070
    77
1070
     1
1070
    78
1070
     8
1070
   140
1040
59.99999618530273
1070
   147
1040
0.0
1070
   173
1070
     1
1070
   176
1070
     3
1070
   177
1070
     3
1070
   178
1070
     2
1070
   271
1070
     1
1070
   277
1070
     2
1070
   279
1070
     2
1070
   280
1070
     0
1070
   287
1070
     5
1070
   340
1005
442
1002
}
  0
DIMENSION
  5
484
330
1F
100
AcDbEntity
  8
寸法
  6
CONTINUOUS
 62
     3
100
AcDbDimension
  2
*D19
 10
2832.5
 20
2259.5
 30
0.0
 11
2655.0
 21
2294.749999910593
 31
0.0
 70
   160
  3
ISO-25
100
AcDbAlignedDimension
 13
2477.5
 23
2400.6175840868
 33
0.0
 14
2832.5
 24
2400.6175840868
 34
0.0
100
AcDbRotatedDimension
1001
ACAD
1000
DSTYLE
1002
{
1070
   270
1070
     2
1070
     6
1000
EX_NORM
1070
     7
1000
EX_NORM
1070
    41
1040
44.99999618530273
1070
    42
1040
10.49999982118607
1070
    44
1040
15.0
1070
    73
1070
     0
1070
    74
1070
     0
1070
    75
1070
     0
1070
    76
1070
     0
1070
    77
1070
     1
1070
    78
1070
     8
1070
   140
1040
59.99999618530273
1070
   147
1040
0.0
1070
   173
1070
     1
1070
   176
1070
     3
1070
   177
1070
     3
1070
   178
1070
     2
1070
   271
1070
     1
1070
   277
1070
     2
1070
   279
1070
     2
1070
   280
1070
     0
1070
   287
1070
     5
1070
   340
1005
442
1002
}
  0
DIMENSION
  5
491
330
1F
100
AcDbEntity
  8
寸法
  6
CONTINUOUS
 62
     3
100
AcDbDimension
  2
*D20
 10
2832.5
 20
2693.0
 30
0.0
 11
1986.25
 21
2728.249999910593
 31
0.0
 70
   160
  1
最長1690
  3
ISO-25
100
AcDbAlignedDimension
 13
1140.0
 23
2572.5
 33
0.0
 14
2832.5
 24
2572.5
 34
0.0
100
AcDbRotatedDimension
1001
ACAD
1000
DSTYLE
1002
{
1070
   270
1070
     2
1070
     6
1000
EX_NORM
1070
     7
1000
EX_NORM
1070
    41
1040
44.99999618530273
1070
    42
1040
10.49999982118607
1070
    44
1040
15.0
1070
    73
1070
     0
1070
    74
1070
     0
1070
    75
1070
     0
1070
    76
1070
     0
1070
    77
1070
     1
1070
    78
1070
     8
1070
   140
1040
59.99999618530273
1070
   147
1040
0.0
1070
   173
1070
     1
1070
   176
1070
     3
1070
   177
1070
     3
1070
   178
1070
     2
1070
   271
1070
     1
1070
   277
1070
     2
1070
   279
1070
     2
1070
   280
1070
     0
1070
   287
1070
     5
1070
   340
1005
442
1002
}
  0
DIMENSION
  5
49E
330
1F
100
AcDbEntity
  8
寸法
  6
CONTINUOUS
 62
     3
100
AcDbDimension
  2
*D21
 10
1039.499999999999
 20
2572.5
 30
0.0
 11
1004.250000089405
 21
2670.0
 31
0.0
 70
   160
  3
ISO-25
100
AcDbAlignedDimension
 13
1140.0
 23
2504.5
 33
0.0
 14
1140.0
 24
2572.5
 34
0.0
 50
90.0
100
AcDbRotatedDimension
1001
ACAD
1000
DSTYLE
1002
{
1070
   270
1070
     2
1070
     6
1000
EX_NORM
1070
     7
1000
EX_NORM
1070
    41
1040
44.99999618530273
1070
    42
1040
10.49999982118607
1070
    44
1040
15.00000000000045
1070
    73
1070
     0
1070
    74
1070
     0
1070
    75
1070
     0
1070
    76
1070
     0
1070
    77
1070
     1
1070
    78
1070
     8
1070
   140
1040
59.99999618530273
1070
   147
1040
0.0
1070
   173
1070
     1
1070
   176
1070
     3
1070
   177
1070
     3
1070
   178
1070
     2
1070
   271
1070
     1
1070
   277
1070
     2
1070
   279
1070
     2
1070
   280
1070
     2
1070
   287
1070
     5
1070
   340
1005
442
1002
}
  0
DIMENSION
  5
4AD
330
1F
100
AcDbEntity
  8
寸法
  6
CONTINUOUS
 62
     3
100
AcDbDimension
  2
*D22
 10
949.5000000000001
 20
2572.5
 30
0.0
 11
914.2500000894072
 21
2377.499999999999
 31
0.0
 70
   160
  1
375～530
  3
ISO-25
100
AcDbAlignedDimension
 13
1190.0
 23
2182.5
 33
0.0
 14
1140.0
 24
2572.5
 34
0.0
 50
90.0
100
AcDbRotatedDimension
1001
ACAD
1000
DSTYLE
1002
{
1070
   270
1070
     2
1070
     6
1000
EX_NORM
1070
     7
1000
EX_NORM
1070
    41
1040
44.99999618530273
1070
    42
1040
10.49999982118607
1070
    44
1040
15.00000000000045
1070
    73
1070
     0
1070
    74
1070
     0
1070
    75
1070
     0
1070
    76
1070
     0
1070
    77
1070
     1
1070
    78
1070
     8
1070
   140
1040
59.99999618530273
1070
   147
1040
0.0
1070
   173
1070
     1
1070
   176
1070
     3
1070
   177
1070
     3
1070
   178
1070
     2
1070
   271
1070
     1
1070
   277
1070
     2
1070
   279
1070
     2
1070
   280
1070
     0
1070
   287
1070
     5
1070
   340
1005
442
1002
}
  0
DIMENSION
  5
4BA
330
1F
100
AcDbEntity
  8
寸法
  6
CONTINUOUS
 62
     3
100
AcDbDimension
  2
*D23
 10
2950.5
 20
2572.5
 30
0.0
 11
2915.250000089407
 21
2474.999999999999
 31
0.0
 70
   160
  3
ISO-25
100
AcDbAlignedDimension
 13
2655.0
 23
2377.5
 33
0.0
 14
2832.5
 24
2572.5
 34
0.0
 50
90.0
100
AcDbRotatedDimension
1001
ACAD
1000
DSTYLE
1002
{
1070
   270
1070
     2
1070
     6
1000
EX_NORM
1070
     7
1000
EX_NORM
1070
    41
1040
44.99999618530273
1070
    42
1040
10.49999982118607
1070
    44
1040
15.0
1070
    73
1070
     0
1070
    74
1070
     0
1070
    75
1070
     0
1070
    76
1070
     1
1070
    77
1070
     1
1070
    78
1070
     8
1070
   140
1040
59.99999618530273
1070
   147
1040
0.0
1070
   173
1070
     1
1070
   176
1070
     3
1070
   177
1070
     3
1070
   178
1070
     2
1070
   271
1070
     1
1070
   277
1070
     2
1070
   279
1070
     2
1070
   280
1070
     0
1070
   287
1070
     5
1070
   340
1005
442
1002
}
  0
DIMENSION
  5
4C6
330
1F
100
AcDbEntity
  8
寸法
  6
CONTINUOUS
 62
     3
100
AcDbDimension
  2
*D24
 10
1386.0
 20
891.5
 30
0.0
 11
1350.750000089407
 21
739.4999999999956
 31
0.0
 70
   160
  1
%%c32
  3
ISO-25
100
AcDbAlignedDimension
 13
1314.0
 23
859.5
 33
0.0
 14
1314.0
 24
891.5
 34
0.0
 50
90.0
100
AcDbRotatedDimension
1001
ACAD
1000
DSTYLE
1002
{
1070
   270
1070
     2
1070
     6
1000
EX_NORM
1070
     7
1000
EX_NORM
1070
    41
1040
44.99999618530273
1070
    42
1040
10.49999982118607
1070
    44
1040
15.0
1070
    73
1070
     0
1070
    74
1070
     0
1070
    75
1070
     0
1070
    76
1070
     0
1070
    77
1070
     1
1070
    78
1070
     8
1070
   140
1040
59.99999618530273
1070
   147
1040
0.0
1070
   173
1070
     1
1070
   176
1070
     3
1070
   177
1070
     3
1070
   178
1070
     2
1070
   271
1070
     1
1070
   277
1070
     2
1070
   279
1070
     2
1070
   280
1070
     1
1070
   287
1070
     5
1070
   340
1005
442
1002
}
  0
DIMENSION
  5
4D5
330
1F
100
AcDbEntity
  8
寸法
  6
CONTINUOUS
 62
     3
100
AcDbDimension
  2
*D25
 10
1476.0
 20
875.5
 30
0.0
 11
1440.750000089407
 21
723.999999999998
 31
0.0
 70
   160
  3
ISO-25
100
AcDbAlignedDimension
 13
1140.0
 23
572.5
 33
0.0
 14
1314.0
 24
875.5
 34
0.0
 50
90.0
100
AcDbRotatedDimension
1001
ACAD
1000
DSTYLE
1002
{
1070
   270
1070
     2
1070
     6
1000
EX_NORM
1070
     7
1000
EX_NORM
1070
    41
1040
44.99999618530273
1070
    42
1040
10.49999982118607
1070
    44
1040
15.0
1070
    73
1070
     0
1070
    74
1070
     0
1070
    75
1070
     1
1070
    76
1070
     0
1070
    77
1070
     1
1070
    78
1070
     8
1070
   140
1040
59.99999618530273
1070
   147
1040
0.0
1070
   173
1070
     1
1070
   176
1070
     3
1070
   177
1070
     3
1070
   178
1070
     2
1070
   271
1070
     1
1070
   277
1070
     2
1070
   279
1070
     2
1070
   280
1070
     0
1070
   287
1070
     5
1070
   340
1005
442
1002
}
  0
DIMENSION
  5
4E1
330
1F
100
AcDbEntity
  8
寸法
  6
CONTINUOUS
 62
     3
100
AcDbDimension
  2
*D26
 10
988.5000000000001
 20
1067.5
 30
0.0
 11
953.2500000894073
 21
837.4999999999983
 31
0.0
 70
   160
  3
ISO-25
100
AcDbAlignedDimension
 13
1140.0
 23
957.5
 33
0.0
 14
1140.0
 24
1067.5
 34
0.0
 50
90.0
100
AcDbRotatedDimension
1001
ACAD
1000
DSTYLE
1002
{
1070
   270
1070
     2
1070
     6
1000
EX_NORM
1070
     7
1000
EX_NORM
1070
    41
1040
44.99999618530273
1070
    42
1040
10.49999982118607
1070
    44
1040
15.0
1070
    73
1070
     0
1070
    74
1070
     0
1070
    75
1070
     0
1070
    76
1070
     0
1070
    77
1070
     1
1070
    78
1070
     8
1070
   140
1040
59.99999618530273
1070
   147
1040
0.0
1070
   173
1070
     1
1070
   176
1070
     3
1070
   177
1070
     3
1070
   178
1070
     2
1070
   271
1070
     1
1070
   277
1070
     2
1070
   279
1070
     2
1070
   280
1070
     1
1070
   287
1070
     5
1070
   340
1005
442
1002
}
  0
DIMENSION
  5
4EE
330
1F
100
AcDbEntity
  8
寸法
  6
CONTINUOUS
 62
     3
100
AcDbDimension
  2
*D27
 10
898.5
 20
1067.5
 30
0.0
 11
863.250000089407
 21
819.9999999999993
 31
0.0
 70
   160
  3
ISO-25
100
AcDbAlignedDimension
 13
1140.0
 23
572.5
 33
0.0
 14
1140.0
 24
1067.5
 34
0.0
 50
90.0
100
AcDbRotatedDimension
1001
ACAD
1000
DSTYLE
1002
{
1070
   270
1070
     2
1070
     6
1000
EX_NORM
1070
     7
1000
EX_NORM
1070
    41
1040
44.99999618530273
1070
    42
1040
10.49999982118607
1070
    44
1040
15.0
1070
    73
1070
     0
1070
    74
1070
     0
1070
    75
1070
     0
1070
    76
1070
     0
1070
    77
1070
     1
1070
    78
1070
     8
1070
   140
1040
59.99999618530273
1070
   147
1040
0.0
1070
   173
1070
     1
1070
   176
1070
     3
1070
   177
1070
     3
1070
   178
1070
     2
1070
   271
1070
     1
1070
   277
1070
     2
1070
   279
1070
     2
1070
   280
1070
     0
1070
   287
1070
     5
1070
   340
1005
442
1002
}
  0
DIMENSION
  5
4FB
330
1F
100
AcDbEntity
  8
寸法
  6
CONTINUOUS
 62
     3
100
AcDbDimension
  2
*D28
 10
2490.0
 20
354.0
 30
0.0
 11
1815.0
 21
389.249999910593
 31
0.0
 70
   160
  1
最長1350
  3
ISO-25
100
AcDbAlignedDimension
 13
1140.0
 23
572.5
 33
0.0
 14
2490.0
 24
572.5
 34
0.0
100
AcDbRotatedDimension
1001
ACAD
1000
DSTYLE
1002
{
1070
   270
1070
     2
1070
     6
1000
EX_NORM
1070
     7
1000
EX_NORM
1070
    41
1040
44.99999618530273
1070
    42
1040
10.49999982118607
1070
    44
1040
15.0
1070
    73
1070
     0
1070
    74
1070
     0
1070
    75
1070
     0
1070
    76
1070
     0
1070
    77
1070
     1
1070
    78
1070
     8
1070
   140
1040
59.99999618530273
1070
   147
1040
0.0
1070
   173
1070
     1
1070
   176
1070
     3
1070
   177
1070
     3
1070
   178
1070
     2
1070
   271
1070
     1
1070
   277
1070
     2
1070
   279
1070
     2
1070
   280
1070
     0
1070
   287
1070
     5
1070
   340
1005
442
1002
}
  0
DIMENSION
  5
508
330
1F
100
AcDbEntity
  8
寸法
  6
CONTINUOUS
 62
     3
100
AcDbDimension
  2
*D29
 10
2820.0
 20
354.0
 30
0.0
 11
2655.0
 21
389.249999910593
 31
0.0
 70
   160
  3
ISO-25
100
AcDbAlignedDimension
 13
2490.0
 23
572.5
 33
0.0
 14
2820.0
 24
572.5
 34
0.0
100
AcDbRotatedDimension
1001
ACAD
1000
DSTYLE
1002
{
1070
   270
1070
     2
1070
     6
1000
EX_NORM
1070
     7
1000
EX_NORM
1070
    41
1040
44.99999618530273
1070
    42
1040
10.49999982118607
1070
    44
1040
15.0
1070
    73
1070
     0
1070
    74
1070
     0
1070
    75
1070
     0
1070
    76
1070
     0
1070
    77
1070
     1
1070
    78
1070
     8
1070
   140
1040
59.99999618530273
1070
   147
1040
0.0
1070
   173
1070
     1
1070
   176
1070
     3
1070
   177
1070
     3
1070
   178
1070
     2
1070
   271
1070
     1
1070
   277
1070
     2
1070
   279
1070
     2
1070
   280
1070
     0
1070
   287
1070
     5
1070
   340
1005
442
1002
}
  0
TEXT
  5
515
330
1F
100
AcDbEntity
  8
寸法
  6
CONTINUOUS
 62
     2
100
AcDbText
 10
933.4500005364416
 20
632.5499999105932
 30
0.0
 40
59.99999618530273
  1
Ｇ１/２
 41
0.8342465643686785
  7
EXCADSTD
 72
     5
 11
1107.449987185001
 21
632.5499999105932
 31
0.0
100
AcDbText
  0
LEADER
  5
516
330
1F
100
AcDbEntity
  8
寸法
  6
CONTINUOUS
 62
     3
100
AcDbLeader
  3
ISO-25
 76
     3
 10
1169.4768065304
 20
697.50000000002
 30
0.0
 10
1107.45
 20
627.3000000000002
 30
0.0
 10
933.4499999999998
 20
627.3000000000002
 30
0.0
1001
ACAD
1000
DSTYLE
1002
{
1070
     5
1000
EX_NORM
1070
    41
1040
45.0
1070
   341
1005
4E
1002
}
  0
TEXT
  5
517
330
1F
100
AcDbEntity
  8
寸法
  6
CONTINUOUS
 62
     2
100
AcDbText
 10
1290.3
 20
393.749999910593
 30
0.0
 40
59.99999618530273
  1
Ｇ１/２
 41
0.8342465643686785
  7
EXCADSTD
 72
     5
 11
1464.29998664856
 21
393.749999910593
 31
0.0
100
AcDbText
  0
LEADER
  5
518
330
1F
100
AcDbEntity
  8
寸法
  6
CONTINUOUS
 62
     3
100
AcDbLeader
  3
ISO-25
 76
     3
 10
1207.9389381172
 20
624.25000000003
 30
0.0
 10
1290.3
 20
388.5
 30
0.0
 10
1446.15
 20
388.5
 30
0.0
1001
ACAD
1000
DSTYLE
1002
{
1070
     5
1000
EX_NORM
1070
    41
1040
45.0
1070
   341
1005
4E
1002
}
  0
TEXT
  5
519
330
1F
100
AcDbEntity
  8
寸法
  6
CONTINUOUS
 62
     2
100
AcDbText
 10
1316.85
 20
485.9999998211829
 30
0.0
 40
59.99999618530273
  1
Ｇ１/２
 41
0.8342465643686785
  7
EXCADSTD
 72
     5
 11
1490.84998664856
 21
485.9999998211829
 31
0.0
100
AcDbText
  0
LEADER
  5
51A
330
1F
100
AcDbEntity
  8
寸法
  6
CONTINUOUS
 62
     3
100
AcDbLeader
  3
ISO-25
 76
     3
 10
1235.9389381171
 20
695.5000000004102
 30
0.0
 10
1316.85
 20
480.7499999105899
 30
0.0
 10
1472.25
 20
480.7499999105903
 30
0.0
1001
ACAD
1000
DSTYLE
1002
{
1070
     5
1000
EX_NORM
1070
    41
1040
45.0
1070
   341
1005
4E
1002
}
  0
DIMENSION
  5
51B
330
1F
100
AcDbEntity
  8
寸法
  6
CONTINUOUS
 62
     3
100
AcDbDimension
  2
*D30
 10
2950.5
 20
1392.5
 30
0.0
 11
2915.250000089407
 21
982.4999999999991
 31
0.0
 70
   160
  3
ISO-25
100
AcDbAlignedDimension
 13
2820.0
 23
572.5
 33
0.0
 14
2828.5
 24
1392.5
 34
0.0
 50
90.0
100
AcDbRotatedDimension
1001
ACAD
1000
DSTYLE
1002
{
1070
   270
1070
     2
1070
     6
1000
EX_NORM
1070
     7
1000
EX_NORM
1070
    41
1040
44.99999618530273
1070
    42
1040
10.49999982118607
1070
    44
1040
15.0
1070
    73
1070
     0
1070
    74
1070
     0
1070
    75
1070
     1
1070
    76
1070
     0
1070
    77
1070
     1
1070
    78
1070
     8
1070
   140
1040
59.99999618530273
1070
   147
1040
0.0
1070
   173
1070
     1
1070
   176
1070
     3
1070
   177
1070
     3
1070
   178
1070
     2
1070
   271
1070
     1
1070
   277
1070
     2
1070
   279
1070
     2
1070
   280
1070
     0
1070
   287
1070
     5
1070
   340
1005
442
1002
}
  0
DIMENSION
  5
527
330
1F
100
AcDbEntity
  8
寸法
  6
CONTINUOUS
 62
     3
100
AcDbDimension
  2
*D31
 10
3040.5
 20
1452.5
 30
0.0
 11
3005.250000089407
 21
1012.499999999999
 31
0.0
 70
   160
  3
ISO-25
100
AcDbAlignedDimension
 13
2820.0
 23
572.5
 33
0.0
 14
2827.0927186623
 24
1452.5
 34
0.0
 50
90.0
100
AcDbRotatedDimension
1001
ACAD
1000
DSTYLE
1002
{
1070
   270
1070
     2
1070
     6
1000
EX_NORM
1070
     7
1000
EX_NORM
1070
    41
1040
44.99999618530273
1070
    42
1040
10.49999982118607
1070
    44
1040
15.0
1070
    73
1070
     0
1070
    74
1070
     0
1070
    75
1070
     1
1070
    76
1070
     0
1070
    77
1070
     1
1070
    78
1070
     8
1070
   140
1040
59.99999618530273
1070
   147
1040
0.0
1070
   173
1070
     1
1070
   176
1070
     3
1070
   177
1070
     3
1070
   178
1070
     2
1070
   271
1070
     1
1070
   277
1070
     2
1070
   279
1070
     2
1070
   280
1070
     0
1070
   287
1070
     5
1070
   340
1005
442
1002
}
  0
DIMENSION
  5
533
330
1F
100
AcDbEntity
  8
寸法
  6
CONTINUOUS
 62
     3
100
AcDbDimension
  2
*D32
 10
3780.0
 20
354.0
 30
0.0
 11
3461.0
 21
389.249999910593
 31
0.0
 70
   160
  1
（154）
  3
ISO-25
100
AcDbAlignedDimension
 13
3626.0
 23
692.5
 33
0.0
 14
3780.0
 24
572.5
 34
0.0
100
AcDbRotatedDimension
1001
ACAD
1000
DSTYLE
1002
{
1070
   270
1070
     2
1070
     6
1000
EX_NORM
1070
     7
1000
EX_NORM
1070
    41
1040
44.99999618530273
1070
    42
1040
10.49999982118607
1070
    44
1040
15.0
1070
    73
1070
     0
1070
    74
1070
     0
1070
    75
1070
     0
1070
    76
1070
     0
1070
    77
1070
     1
1070
    78
1070
     8
1070
   140
1040
59.99999618530273
1070
   147
1040
0.0
1070
   173
1070
     1
1070
   176
1070
     3
1070
   177
1070
     3
1070
   178
1070
     2
1070
   271
1070
     1
1070
   277
1070
     2
1070
   279
1070
     2
1070
   280
1070
     1
1070
   287
1070
     5
1070
   340
1005
442
1002
}
  0
DIMENSION
  5
540
330
1F
100
AcDbEntity
  8
寸法
  6
CONTINUOUS
 62
     3
100
AcDbDimension
  2
*D33
 10
3988.5
 20
1047.5
 30
0.0
 11
3953.250000089407
 21
809.9999999999987
 31
0.0
 70
   160
  1
475(カバー壁固定)
  3
ISO-25
100
AcDbAlignedDimension
 13
3780.0
 23
572.5
 33
0.0
 14
3813.4999999999
 24
1047.5
 34
0.0
 50
90.0
100
AcDbRotatedDimension
1001
ACAD
1000
DSTYLE
1002
{
1070
   270
1070
     2
1070
     6
1000
EX_NORM
1070
     7
1000
EX_NORM
1070
    41
1040
44.99999618530273
1070
    42
1040
10.49999982118607
1070
    44
1040
15.0
1070
    73
1070
     0
1070
    74
1070
     0
1070
    75
1070
     0
1070
    76
1070
     0
1070
    77
1070
     1
1070
    78
1070
     8
1070
   140
1040
59.99999618530273
1070
   147
1040
0.0
1070
   173
1070
     1
1070
   176
1070
     3
1070
   177
1070
     3
1070
   178
1070
     2
1070
   271
1070
     1
1070
   277
1070
     2
1070
   279
1070
     2
1070
   280
1070
     0
1070
   287
1070
     5
1070
   340
1005
442
1002
}
  0
DIMENSION
  5
54D
330
1F
100
AcDbEntity
  8
寸法
  6
CONTINUOUS
 62
     3
100
AcDbDimension
  2
*D34
 10
3898.5
 20
1047.5
 30
0.0
 11
3863.250000089407
 21
879.999999999997
 31
0.0
 70
   160
  3
ISO-25
100
AcDbAlignedDimension
 13
3813.4999999999
 23
977.5000000000001
 33
0.0
 14
3813.4999999999
 24
1047.5
 34
0.0
 50
90.0
100
AcDbRotatedDimension
1001
ACAD
1000
DSTYLE
1002
{
1070
   270
1070
     2
1070
     6
1000
EX_NORM
1070
     7
1000
EX_NORM
1070
    41
1040
44.99999618530273
1070
    42
1040
10.49999982118607
1070
    44
1040
15.0
1070
    73
1070
     0
1070
    74
1070
     0
1070
    75
1070
     0
1070
    76
1070
     0
1070
    77
1070
     1
1070
    78
1070
     8
1070
   140
1040
59.99999618530273
1070
   147
1040
0.0
1070
   173
1070
     1
1070
   176
1070
     3
1070
   177
1070
     3
1070
   178
1070
     2
1070
   271
1070
     1
1070
   277
1070
     2
1070
   279
1070
     2
1070
   280
1070
     1
1070
   287
1070
     5
1070
   340
1005
442
1002
}
  0
DIMENSION
  5
55C
330
1F
100
AcDbEntity
  8
寸法
  6
CONTINUOUS
 62
     3
100
AcDbDimension
  2
*D35
 10
4078.5
 20
1177.5
 30
0.0
 11
4043.250000089407
 21
874.9999999999989
 31
0.0
 70
   160
  1
605(キャビネット壁固定)
  3
ISO-25
100
AcDbAlignedDimension
 13
3780.0
 23
572.5
 33
0.0
 14
3813.4999999999
 24
1177.5
 34
0.0
 50
90.0
100
AcDbRotatedDimension
1001
ACAD
1000
DSTYLE
1002
{
1070
   270
1070
     2
1070
     6
1000
EX_NORM
1070
     7
1000
EX_NORM
1070
    41
1040
44.99999618530273
1070
    42
1040
10.49999982118607
1070
    44
1040
15.0
1070
    73
1070
     0
1070
    74
1070
     0
1070
    75
1070
     0
1070
    76
1070
     0
1070
    77
1070
     1
1070
    78
1070
     8
1070
   140
1040
59.99999618530273
1070
   147
1040
0.0
1070
   173
1070
     1
1070
   176
1070
     3
1070
   177
1070
     3
1070
   178
1070
     2
1070
   271
1070
     1
1070
   277
1070
     2
1070
   279
1070
     2
1070
   280
1070
     0
1070
   287
1070
     5
1070
   340
1005
442
1002
}
  0
DIMENSION
  5
569
330
1F
100
AcDbEntity
  8
寸法
  6
CONTINUOUS
 62
     3
100
AcDbDimension
  2
*D36
 10
4168.5
 20
1427.5
 30
0.0
 11
4133.250000089407
 21
999.9999999999991
 31
0.0
 70
   160
  1
855（手洗器壁固定）
  3
ISO-25
100
AcDbAlignedDimension
 13
3780.0
 23
572.5
 33
0.0
 14
3813.4999999999
 24
1427.5
 34
0.0
 50
90.0
100
AcDbRotatedDimension
1001
ACAD
1000
DSTYLE
1002
{
1070
   270
1070
     2
1070
     6
1000
EX_NORM
1070
     7
1000
EX_NORM
1070
    41
1040
44.99999618530273
1070
    42
1040
10.49999982118607
1070
    44
1040
15.0
1070
    73
1070
     0
1070
    74
1070
     0
1070
    75
1070
     0
1070
    76
1070
     0
1070
    77
1070
     1
1070
    78
1070
     8
1070
   140
1040
59.99999618530273
1070
   147
1040
0.0
1070
   173
1070
     1
1070
   176
1070
     3
1070
   177
1070
     3
1070
   178
1070
     2
1070
   271
1070
     1
1070
   277
1070
     2
1070
   279
1070
     2
1070
   280
1070
     0
1070
   287
1070
     5
1070
   340
1005
442
1002
}
  0
TEXT
  5
576
330
1F
100
AcDbEntity
  8
寸法
  6
CONTINUOUS
 62
     2
100
AcDbText
 10
825.4500005364416
 20
480.7499999105931
 30
0.0
 40
59.99999618530273
  1
給水分岐
 41
1.034782597085703
  7
EXCADSTD
 72
     5
 11
1029.449985277653
 21
480.7499999105931
 31
0.0
100
AcDbText
  0
LEADER
  5
577
330
1F
100
AcDbEntity
  8
寸法
  6
CONTINUOUS
 62
     3
100
AcDbLeader
  3
ISO-25
 76
     3
 10
1170.1889381171
 20
663.49999999999
 30
0.0
 10
1029.45
 20
475.5
 30
0.0
 10
819.0
 20
475.5
 30
0.0
1001
ACAD
1000
DSTYLE
1002
{
1070
     5
1000
EX_NORM
1070
    41
1040
45.0
1070
   341
1005
4E
1002
}
  0
TEXT
  5
578
330
1F
100
AcDbEntity
  8
寸法
  6
CONTINUOUS
 62
     2
100
AcDbText
 10
1351.29577278105
 20
1158.749999910593
 30
0.0
 40
59.99999618530273
  1
手洗排水管
 41
1.013793091171089
  7
EXCADSTD
 72
     5
 11
1603.295753707564
 21
1158.749999910593
 31
0.0
100
AcDbText
  0
LEADER
  5
579
330
1F
100
AcDbEntity
  8
寸法
  6
CONTINUOUS
 62
     3
100
AcDbLeader
  3
ISO-25
 76
     3
 10
1264.9559326356
 20
891.5
 30
0.0
 10
1351.29577278105
 20
1153.5
 30
0.0
 10
1601.79577278105
 20
1153.5
 30
0.0
1001
ACAD
1000
DSTYLE
1002
{
1070
     5
1000
EX_NORM
1070
    41
1040
45.0
1070
   341
1005
4E
1002
}
  0
TEXT
  5
57A
330
1F
100
AcDbEntity
  8
寸法
  6
CONTINUOUS
 62
     2
100
AcDbText
 10
1715.231707317001
 20
1158.749999910593
 30
0.0
 40
59.99999618530273
  1
配管カバー
 41
1.013793091171089
  7
EXCADSTD
 72
     5
 11
1967.231688243514
 21
1158.749999910593
 31
0.0
100
AcDbText
  0
POLYLINE
  5
57B
330
1F
100
AcDbEntity
  8
寸法
  6
CONTINUOUS
 62
     3
100
AcDb2dPolyline
 66
     1
 10
0.0
 20
0.0
 30
0.0
 70
   128
  0
VERTEX
  5
57C
330
57B
100
AcDbEntity
  8
寸法
  6
CONTINUOUS
 62
     3
100
AcDbVertex
100
AcDb2dVertex
 10
1699.5
 20
1067.5
 30
0.0
  0
VERTEX
  5
57D
330
57B
100
AcDbEntity
  8
寸法
  6
CONTINUOUS
 62
     3
100
AcDbVertex
100
AcDb2dVertex
 10
1715.231707317001
 20
1153.5
 30
0.0
  0
VERTEX
  5
57E
330
57B
100
AcDbEntity
  8
寸法
  6
CONTINUOUS
 62
     3
100
AcDbVertex
100
AcDb2dVertex
 10
1961.231707317
 20
1153.5
 30
0.0
  0
SEQEND
  5
57F
330
57B
100
AcDbEntity
  8
寸法
  6
CONTINUOUS
 62
     3
  0
LINE
  5
580
330
1F
100
AcDbEntity
  8
寸法
  6
CONTINUOUS
 62
     3
100
AcDbLine
 10
1700.21976395609
 20
1113.115040719564
 30
0.0
 11
1699.5
 21
1067.5
 31
0.0
  0
LINE
  5
581
330
1F
100
AcDbEntity
  8
寸法
  6
CONTINUOUS
 62
     3
100
AcDbLine
 10
1699.5
 20
1067.5
 30
0.0
 11
1714.974925056701
 21
1110.415925884099
 31
0.0
  0
TEXT
  5
582
330
1F
100
AcDbEntity
  8
寸法
  6
CONTINUOUS
 62
     2
100
AcDbText
 10
2100.00000089407
 20
1236.749999910593
 30
0.0
 40
59.99999618530273
  1
キャビネット
 41
0.9999999872843416
  7
EXCADSTD
 72
     5
 11
2399.999978005886
 21
1236.749999910593
 31
0.0
100
AcDbText
  0
LEADER
  5
583
330
1F
100
AcDbEntity
  8
寸法
  6
CONTINUOUS
 62
     3
100
AcDbLeader
  3
ISO-25
 76
     3
 10
2490.0
 20
1140.0
 30
0.0
 10
2400.0
 20
1231.5
 30
0.0
 10
2101.5
 20
1231.5
 30
0.0
1001
ACAD
1000
DSTYLE
1002
{
1070
     5
1000
EX_NORM
1070
    41
1040
45.0
1070
   341
1005
4E
1002
}
  0
TEXT
  5
584
330
1F
100
AcDbEntity
  8
寸法
  6
CONTINUOUS
 62
     2
100
AcDbText
 10
2260.500000357628
 20
1488.749999910593
 30
0.0
 40
59.99999618530273
  1
手洗器
 41
1.070588224822399
  7
EXCADSTD
 72
     5
 11
2416.499988913536
 21
1488.749999910593
 31
0.0
100
AcDbText
  0
LEADER
  5
585
330
1F
100
AcDbEntity
  8
寸法
  6
CONTINUOUS
 62
     3
100
AcDbLeader
  3
ISO-25
 76
     3
 10
2478.0710251625
 20
1412.8927880266
 30
0.0
 10
2416.5
 20
1483.5
 30
0.0
 10
2245.5
 20
1483.5
 30
0.0
1001
ACAD
1000
DSTYLE
1002
{
1070
     5
1000
EX_NORM
1070
    41
1040
45.0
1070
   341
1005
4E
1002
}
  0
TEXT
  5
586
330
1F
100
AcDbEntity
  8
寸法
  6
CONTINUOUS
 62
     2
100
AcDbText
 10
2479.500000357628
 20
1587.749999910593
 30
0.0
 40
59.99999618530273
  1
立水栓
 41
1.070588224822399
  7
EXCADSTD
 72
     5
 11
2635.499988913536
 21
1587.749999910593
 31
0.0
100
AcDbText
  0
LEADER
  5
587
330
1F
100
AcDbEntity
  8
寸法
  6
CONTINUOUS
 62
     3
100
AcDbLeader
  3
ISO-25
 76
     3
 10
2706.6747388588
 20
1485.7940128164
 30
0.0
 10
2635.5
 20
1582.5
 30
0.0
 10
2479.5
 20
1582.5
 30
0.0
1001
ACAD
1000
DSTYLE
1002
{
1070
     5
1000
EX_NORM
1070
    41
1040
45.0
1070
   341
1005
4E
1002
}
  0
TEXT
  5
588
330
1F
100
AcDbEntity
  8
寸法
  6
CONTINUOUS
 62
     2
100
AcDbText
 10
783.0000008940697
 20
1661.749999910593
 30
0.0
 40
59.99999618530273
  1
配管スペース
 41
0.9999999872843416
  7
EXCADSTD
 72
     5
 11
1082.999978005886
 21
1661.749999910593
 31
0.0
100
AcDbText
  0
LEADER
  5
589
330
1F
100
AcDbEntity
  8
寸法
  6
CONTINUOUS
 62
     3
100
AcDbLeader
  3
ISO-25
 76
     3
 10
1187.5
 20
1781.0
 30
0.0
 10
1083.0
 20
1656.5
 30
0.0
 10
772.5
 20
1656.5
 30
0.0
1001
ACAD
1000
DSTYLE
1002
{
1070
     5
1000
EX_NORM
1070
    41
1040
45.0
1070
   341
1005
4E
1002
}
  0
TEXT
  5
58A
330
1F
100
AcDbEntity
  8
寸法
  6
CONTINUOUS
 62
     2
100
AcDbText
 10
1353.0000016093
 20
279.0000038146973
 30
0.0
 40
59.99999618530273
  1
１０１０（ＡＵ１０２０Ｗを併設の場合）
 41
0.9539822867064343
  7
EXCADSTD
 72
     5
 11
2276.999929130052
 21
279.0000038146973
 31
0.0
100
AcDbText
  0
TEXT
  5
58B
330
1F
100
AcDbEntity
  8
寸法
  6
CONTINUOUS
 62
     2
100
AcDbText
 10
1353.0000016093
 20
219.0000076293945
 30
0.0
 40
59.99999618530273
  1
１１６０（ＡＵ１１７０Ｗを併設の場合）
 41
0.9539822867064343
  7
EXCADSTD
 72
     5
 11
2276.999929130052
 21
219.0000076293945
 31
0.0
100
AcDbText
  0
DIMENSION
  5
58C
330
1F
100
AcDbEntity
  8
寸法
  6
CONTINUOUS
 62
     3
100
AcDbDimension
  2
*D37
 10
1340.0
 20
1871.0
 30
0.0
 11
1460.0
 21
1906.249999910593
 31
0.0
 70
   160
  1
排水心
  3
ISO-25
100
AcDbAlignedDimension
 13
1140.0
 23
2182.5
 33
0.0
 14
1340.0
 24
2138.0
 34
0.0
100
AcDbRotatedDimension
1001
ACAD
1000
DSTYLE
1002
{
1070
   270
1070
     2
1070
     6
1000
EX_NORM
1070
     7
1000
EX_NORM
1070
    41
1040
44.99999618530273
1070
    42
1040
10.49999982118607
1070
    44
1040
15.0
1070
    73
1070
     0
1070
    74
1070
     0
1070
    75
1070
     1
1070
    76
1070
     0
1070
    77
1070
     1
1070
    78
1070
     8
1070
   140
1040
59.99999618530273
1070
   147
1040
0.0
1070
   173
1070
     1
1070
   176
1070
     3
1070
   177
1070
     3
1070
   178
1070
     2
1070
   271
1070
     1
1070
   277
1070
     2
1070
   279
1070
     2
1070
   280
1070
     2
1070
   287
1070
     5
1070
   340
1005
442
1002
}
  0
ENDSEC
  0
SECTION
  2
OBJECTS
  0
DICTIONARY
  5
C
330
0
100
AcDbDictionary
  3
ACAD_GROUP
350
D
  3
ACAD_LAYOUT
350
1A
  3
ACAD_MATERIAL
350
3B
  3
ACAD_MLEADERSTYLE
350
5BA
  3
ACAD_MLINESTYLE
350
17
  3
ACAD_PLOTSETTINGS
350
19
  3
ACAD_VISUALSTYLE
350
2A
  3
ACDBHEADERROUNDTRIPXREC
350
598
  3
ACDBVARIABLEDICTIONARY
350
5B8
  0
DICTIONARY
  5
D
102
{ACAD_REACTORS
330
C
102
}
330
C
100
AcDbDictionary
  0
DICTIONARY
  5
1A
102
{ACAD_REACTORS
330
C
102
}
330
C
100
AcDbDictionary
  0
DICTIONARY
  5
3B
102
{ACAD_REACTORS
330
C
102
}
330
C
100
AcDbDictionary
  3
BYBLOCK
350
3D
  3
BYLAYER
350
3C
  3
GLOBAL
350
3E
  0
DICTIONARY
  5
5BA
102
{ACAD_REACTORS
330
C
102
}
330
C
100
AcDbDictionary
  0
DICTIONARY
  5
17
102
{ACAD_REACTORS
330
C
102
}
330
C
100
AcDbDictionary
  3
STANDARD
350
18
  0
DICTIONARY
  5
19
102
{ACAD_REACTORS
330
C
102
}
330
C
100
AcDbDictionary
  0
DICTIONARY
  5
2A
102
{ACAD_REACTORS
330
C
102
}
330
C
100
AcDbDictionary
  3
2DWIREFRAME
350
2F
  3
3D_HIDDEN
350
31
  3
3DWIREFRAME
350
30
  3
BASIC
350
32
  3
BRIGHTEN
350
36
  3
COLORCHANGE
350
3A
  3
CONCEPTUAL
350
34
  3
DIM
350
35
  3
FACEPATTERN
350
39
  3
FLAT
350
2B
  3
FLATWITHEDGES
350
2C
  3
GOURAUD
350
2D
  3
GOURAUDWITHEDGES
350
2E
  3
LINEPATTERN
350
38
  3
REALISTIC
350
33
  3
THICKEN
350
37
  0
DICTIONARY
  5
598
102
{ACAD_REACTORS
330
C
102
}
330
C
100
AcDbDictionary
  3
CEPSNTYPE
350
5A1
  3
DIMSTYLEDATA
350
5B7
  3
FINGERPRINTGUID
350
5A2
  3
HYPERLINKBASE
350
59B
  3
INSUNITS
350
5A0
  3
LAYOUTDICT
350
59D
  3
LWETCUNION
350
59F
  3
PLOTSETDICT
350
59E
  3
PSVPSCALE
350
5A4
  3
PUCSBASE
350
5A7
  3
PUCSORGBACK
350
5AD
  3
PUCSORGBOTTOM
350
5A9
  3
PUCSORGFRONT
350
5AC
  3
PUCSORGLEFT
350
5AA
  3
PUCSORGRIGHT
350
5AB
  3
PUCSORGTOP
350
5A8
  3
PUCSORTHOREF
350
5A5
  3
PUCSORTHOVIEW
350
5A6
  3
STYLESHEET
350
59C
  3
TSTACKALIGN
350
599
  3
TSTACKSIZE
350
59A
  3
UCSBASE
350
5B0
  3
UCSORGBACK
350
5B6
  3
UCSORGBOTTOM
350
5B2
  3
UCSORGFRONT
350
5B5
  3
UCSORGLEFT
350
5B3
  3
UCSORGRIGHT
350
5B4
  3
UCSORGTOP
350
5B1
  3
UCSORTHOREF
350
5AE
  3
UCSORTHOVIEW
350
5AF
  3
VERSIONGUID
350
5A3
  0
DICTIONARY
  5
5B8
102
{ACAD_REACTORS
330
C
102
}
330
C
100
AcDbDictionary
  3
DIMASSOC
350
5BD
  3
HIDETEXT
350
5BE
  3
PSOLHEIGHT
350
5BC
  3
PSOLWIDTH
350
5BB
  0
MATERIAL
  5
3D
102
{ACAD_REACTORS
330
3B
102
}
102
{ACAD_XDICTIONARY
360
5C1
102
}
330
3B
100
AcDbMaterial
  1
ByBlock
  0
MATERIAL
  5
3C
102
{ACAD_REACTORS
330
3B
102
}
102
{ACAD_XDICTIONARY
360
5BF
102
}
330
3B
100
AcDbMaterial
  1
ByLayer
  0
MATERIAL
  5
3E
102
{ACAD_REACTORS
330
3B
102
}
102
{ACAD_XDICTIONARY
360
5C3
102
}
330
3B
100
AcDbMaterial
  1
Global
  0
MLINESTYLE
  5
18
102
{ACAD_REACTORS
330
17
102
}
330
17
100
AcDbMlineStyle
  2
Standard
 70
     0
  3

 62
   256
 51
90.0
 52
90.0
 71
     2
 49
0.5
 62
   256
  6
BYLAYER
 49
-0.5
 62
   256
  6
BYLAYER
  0
ACAD_PROXY_OBJECT
  5
2F
102
{ACAD_REACTORS
330
2A
102
}
330
2A
100
AcDbProxyObject
 90
      499
 91
      501
 93
      436
310
42CC9915DA5C99599C985B595049028333333333333E3BF0000000000000FB0107901411070040501600405405064090741402480A0340
1001
ACAD
1000
AcDbSavedByObjectVersion
1070
     0
  0
ACAD_PROXY_OBJECT
  5
31
102
{ACAD_REACTORS
330
2A
102
}
330
2A
100
AcDbProxyObject
 90
      499
 91
      501
 93
      500
310
424CD108121A5919195B90640502408333333333333E3BF0000000000000FB01079024090700405020000000000001110200405405064090740C02480A0340
1001
ACAD
1000
AcDbSavedByObjectVersion
1070
     0
  0
ACAD_PROXY_OBJECT
  5
30
102
{ACAD_REACTORS
330
2A
102
}
330
2A
100
AcDbProxyObject
 90
      499
 91
      501
 93
      436
310
42CCD915DA5C99599C985B595059028333333333333E3BF0000000000000FB0107901411070040501600405405064090741402480A0340
1001
ACAD
1000
AcDbSavedByObjectVersion
1070
     0
  0
ACAD_PROXY_OBJECT
  5
32
102
{ACAD_REACTORS
330
2A
102
}
330
2A
100
AcDbProxyObject
 90
      499
 91
      501
 93
      388
310
4150985CDA58D07406404333333333333E3BF0000000000000FB0107A41107004050150841D405064090741402480A0350
1001
ACAD
1000
AcDbSavedByObjectVersion
1070
     0
  0
ACAD_PROXY_OBJECT
  5
36
102
{ACAD_REACTORS
330
2A
102
}
330
2A
100
AcDbProxyObject
 90
      499
 91
      501
 93
      428
310
42109C9A59DA1D195B90C409028333333333333E3BF0000000000000FB010790141107004050150841D405064090741402480A029950
1001
ACAD
1000
AcDbSavedByObjectVersion
1070
     0
  0
ACAD_PROXY_OBJECT
  5
3A
102
{ACAD_REACTORS
330
2A
102
}
330
2A
100
AcDbProxyObject
 90
      499
 91
      501
 93
      452
310
42D0DBDB1BDC90DA185B99D95104090240C333333333333E3BF0000000000000FB0108901411070040501508421405064090741402480A0350
1001
ACAD
1000
AcDbSavedByObjectVersion
1070
     0
  0
ACAD_PROXY_OBJECT
  5
34
102
{ACAD_REACTORS
330
2A
102
}
330
2A
100
AcDbProxyObject
 90
      499
 91
      501
 93
      500
310
4290DBDB98D95C1D1D585B10940D028333333333333E3BF0000000000000FB0107902409070040501000000000000111010841D405064090740C02480A0340
1001
ACAD
1000
AcDbSavedByObjectVersion
1070
     0
  0
ACAD_PROXY_OBJECT
  5
35
102
{ACAD_REACTORS
330
2A
102
}
330
2A
100
AcDbProxyObject
 90
      499
 91
      501
 93
      412
310
40D11A5B50B409028333333333333E3BF0000000000000FB010790141107004050150841D405064090741402480A02677FFFFFD0
1001
ACAD
1000
AcDbSavedByObjectVersion
1070
     0
  0
ACAD_PROXY_OBJECT
  5
39
102
{ACAD_REACTORS
330
2A
102
}
330
2A
100
AcDbProxyObject
 90
      499
 91
      501
 93
      444
310
42D19858D95C185D1D195C9B90F409028333333333333E3BF0000000000000FB010790141107004050150841D405064090741402480A0350
1001
ACAD
1000
AcDbSavedByObjectVersion
1070
     0
  0
ACAD_PROXY_OBJECT
  5
2B
102
{ACAD_REACTORS
330
2A
102
}
330
2A
100
AcDbProxyObject
 90
      499
 91
      501
 93
      388
310
41119B185D240901404333333333333E3BF0000000000000F9010740A41107004050150841D405064090741402480A1B50
1001
ACAD
1000
AcDbSavedByObjectVersion
1070
     0
  0
ACAD_PROXY_OBJECT
  5
2C
102
{ACAD_REACTORS
330
2A
102
}
330
2A
100
AcDbProxyObject
 90
      499
 91
      501
 93
      476
310
43519B185D15DA5D1A115919D95CD0140901404333333333333E3BF0000000000000F9010740901411070040501600405405064090741402480A1B50
1001
ACAD
1000
AcDbSavedByObjectVersion
1070
     0
  0
ACAD_PROXY_OBJECT
  5
2D
102
{ACAD_REACTORS
330
2A
102
}
330
2A
100
AcDbProxyObject
 90
      499
 91
      501
 93
      412
310
41D1DBDD5C985D5910240902404333333333333E3BF0000000000000F9010740A411070040501641D405064090741402480A1B50
1001
ACAD
1000
AcDbSavedByObjectVersion
1070
     0
  0
ACAD_PROXY_OBJECT
  5
2E
102
{ACAD_REACTORS
330
2A
102
}
330
2A
100
AcDbProxyObject
 90
      499
 91
      501
 93
      500
310
4411DBDD5C985D5915DA5D1A115919D95CD0340902404333333333333E3BF0000000000000F9010740901411070040501600405405064090741402480A1B50
1001
ACAD
1000
AcDbSavedByObjectVersion
1070
     0
  0
ACAD_PROXY_OBJECT
  5
38
102
{ACAD_REACTORS
330
2A
102
}
330
2A
100
AcDbProxyObject
 90
      499
 91
      501
 93
      444
310
42D31A5B995C185D1D195C9B90E409028333333333333E3BF0000000000000FB010790141107004050750841D405064090741402483A0350
1001
ACAD
1000
AcDbSavedByObjectVersion
1070
     0
  0
ACAD_PROXY_OBJECT
  5
33
102
{ACAD_REACTORS
330
2A
102
}
330
2A
100
AcDbProxyObject
 90
      499
 91
      501
 93
      420
310
425499585B1A5CDD1A58D08409028333333333333E3BF0000000000000FB01079019070040501508421405064090741402480A1B40
1001
ACAD
1000
AcDbSavedByObjectVersion
1070
     0
  0
ACAD_PROXY_OBJECT
  5
37
102
{ACAD_REACTORS
330
2A
102
}
330
2A
100
AcDbProxyObject
 90
      499
 91
      501
 93
      412
310
41D51A1A58DAD95B90D409028333333333333E3BF0000000000000FB010790141107004050150C41D405064090741402480A0350
1001
ACAD
1000
AcDbSavedByObjectVersion
1070
     0
  0
XRECORD
  5
5A1
102
{ACAD_REACTORS
330
598
102
}
330
598
100
AcDbXrecord
 90
        0
  0
XRECORD
  5
5B7
102
{ACAD_REACTORS
330
598
102
}
330
598
100
AcDbXrecord
1000
DSTYLE
1002
{
1070
   340
340
11
1002
}
  0
XRECORD
  5
5A2
102
{ACAD_REACTORS
330
598
102
}
330
598
100
AcDbXrecord
  1
{FC5D1B8C-7099-45FF-95A0-FD5AA377B9A8}
  0
XRECORD
  5
59B
102
{ACAD_REACTORS
330
598
102
}
330
598
100
AcDbXrecord
  1

  0
XRECORD
  5
5A0
102
{ACAD_REACTORS
330
598
102
}
330
598
100
AcDbXrecord
 90
        4
  0
XRECORD
  5
59D
102
{ACAD_REACTORS
330
598
102
}
330
598
100
AcDbXrecord
340
1A
  0
XRECORD
  5
59F
102
{ACAD_REACTORS
330
598
102
}
330
598
100
AcDbXrecord
 90
    10781
  0
XRECORD
  5
59E
102
{ACAD_REACTORS
330
598
102
}
330
598
100
AcDbXrecord
340
19
  0
XRECORD
  5
5A4
102
{ACAD_REACTORS
330
598
102
}
330
598
100
AcDbXrecord
 40
0.0
  0
XRECORD
  5
5A7
102
{ACAD_REACTORS
330
598
102
}
330
598
100
AcDbXrecord
340
0
  0
XRECORD
  5
5AD
102
{ACAD_REACTORS
330
598
102
}
330
598
100
AcDbXrecord
 10
0.0
 20
0.0
 30
0.0
  0
XRECORD
  5
5A9
102
{ACAD_REACTORS
330
598
102
}
330
598
100
AcDbXrecord
 10
0.0
 20
0.0
 30
0.0
  0
XRECORD
  5
5AC
102
{ACAD_REACTORS
330
598
102
}
330
598
100
AcDbXrecord
 10
0.0
 20
0.0
 30
0.0
  0
XRECORD
  5
5AA
102
{ACAD_REACTORS
330
598
102
}
330
598
100
AcDbXrecord
 10
0.0
 20
0.0
 30
0.0
  0
XRECORD
  5
5AB
102
{ACAD_REACTORS
330
598
102
}
330
598
100
AcDbXrecord
 10
0.0
 20
0.0
 30
0.0
  0
XRECORD
  5
5A8
102
{ACAD_REACTORS
330
598
102
}
330
598
100
AcDbXrecord
 10
0.0
 20
0.0
 30
0.0
  0
XRECORD
  5
5A5
102
{ACAD_REACTORS
330
598
102
}
330
598
100
AcDbXrecord
340
0
  0
XRECORD
  5
5A6
102
{ACAD_REACTORS
330
598
102
}
330
598
100
AcDbXrecord
 70
     0
  0
XRECORD
  5
59C
102
{ACAD_REACTORS
330
598
102
}
330
598
100
AcDbXrecord
  1

  0
XRECORD
  5
599
102
{ACAD_REACTORS
330
598
102
}
330
598
100
AcDbXrecord
 90
        1
  0
XRECORD
  5
59A
102
{ACAD_REACTORS
330
598
102
}
330
598
100
AcDbXrecord
 90
       70
  0
XRECORD
  5
5B0
102
{ACAD_REACTORS
330
598
102
}
330
598
100
AcDbXrecord
340
0
  0
XRECORD
  5
5B6
102
{ACAD_REACTORS
330
598
102
}
330
598
100
AcDbXrecord
 10
0.0
 20
0.0
 30
0.0
  0
XRECORD
  5
5B2
102
{ACAD_REACTORS
330
598
102
}
330
598
100
AcDbXrecord
 10
0.0
 20
0.0
 30
0.0
  0
XRECORD
  5
5B5
102
{ACAD_REACTORS
330
598
102
}
330
598
100
AcDbXrecord
 10
0.0
 20
0.0
 30
0.0
  0
XRECORD
  5
5B3
102
{ACAD_REACTORS
330
598
102
}
330
598
100
AcDbXrecord
 10
0.0
 20
0.0
 30
0.0
  0
XRECORD
  5
5B4
102
{ACAD_REACTORS
330
598
102
}
330
598
100
AcDbXrecord
 10
0.0
 20
0.0
 30
0.0
  0
XRECORD
  5
5B1
102
{ACAD_REACTORS
330
598
102
}
330
598
100
AcDbXrecord
 10
0.0
 20
0.0
 30
0.0
  0
XRECORD
  5
5AE
102
{ACAD_REACTORS
330
598
102
}
330
598
100
AcDbXrecord
340
0
  0
XRECORD
  5
5AF
102
{ACAD_REACTORS
330
598
102
}
330
598
100
AcDbXrecord
 70
     0
  0
XRECORD
  5
5A3
102
{ACAD_REACTORS
330
598
102
}
330
598
100
AcDbXrecord
  1
{FAEB1C32-E019-11D5-929B-00C0DF256EC4}
  0
DICTIONARYVAR
  5
5BD
102
{ACAD_REACTORS
330
5B8
102
}
330
5B8
100
DictionaryVariables
280
     0
  1
2
  0
DICTIONARYVAR
  5
5BE
102
{ACAD_REACTORS
330
5B8
102
}
330
5B8
100
DictionaryVariables
280
     0
  1
1
  0
DICTIONARYVAR
  5
5BC
102
{ACAD_REACTORS
330
5B8
102
}
330
5B8
100
DictionaryVariables
280
     0
  1
80.000000
  0
DICTIONARYVAR
  5
5BB
102
{ACAD_REACTORS
330
5B8
102
}
330
5B8
100
DictionaryVariables
280
     0
  1
5.000000
  0
DICTIONARY
  5
5C1
330
3D
100
AcDbDictionary
280
     1
  3
ACAD_XREC_ROUNDTRIP
360
5C2
  0
DICTIONARY
  5
5BF
330
3C
100
AcDbDictionary
280
     1
  3
ACAD_XREC_ROUNDTRIP
360
5C0
  0
DICTIONARY
  5
5C3
330
3E
100
AcDbDictionary
280
     1
  3
ACAD_XREC_ROUNDTRIP
360
5C4
  0
XRECORD
  5
5C2
102
{ACAD_REACTORS
330
5C1
102
}
330
5C1
100
AcDbXrecord
102
MATERIAL
148
0.0
149
0.0
149
0.0
 93
        0
 94
      127
282
     0
 72
     1
 77
     1
171
     1
175
     1
179
     1
273
     0
  0
XRECORD
  5
5C0
102
{ACAD_REACTORS
330
5BF
102
}
330
5BF
100
AcDbXrecord
102
MATERIAL
148
0.0
149
0.0
149
0.0
 93
        0
 94
      127
282
     0
 72
     1
 77
     1
171
     1
175
     1
179
     1
273
     0
  0
XRECORD
  5
5C4
102
{ACAD_REACTORS
330
5C3
102
}
330
5C3
100
AcDbXrecord
102
MATERIAL
148
0.0
149
0.0
149
0.0
 93
        0
 94
      127
282
     0
 72
     1
 77
     1
171
     1
175
     1
179
     1
273
     0
  0
ENDSEC
  0
EOF
