  0
SECTION
  2
HEADER
  9
$ACADVER
  1
AC1014
  9
$ACADMAINTVER
 70
     9
  9
$DWGCODEPAGE
  3
ANSI_932
  9
$INSBASE
 10
0.0
 20
0.0
 30
0.0
  9
$EXTMIN
 10
17.40000000000195
 20
9.299999999999955
 30
0.0
  9
$EXTMAX
 10
199.4000000000022
 20
289.3
 30
0.0
  9
$LIMMIN
 10
0.0
 20
0.0
  9
$LIMMAX
 10
210.0
 20
297.0
  9
$ORTHOMODE
 70
     0
  9
$REGENMODE
 70
     1
  9
$FILLMODE
 70
     1
  9
$QTEXTMODE
 70
     0
  9
$MIRRTEXT
 70
     1
  9
$DRAGMODE
 70
     2
  9
$LTSCALE
 40
1.0
  9
$OSMODE
 70
    37
  9
$ATTMODE
 70
     1
  9
$TEXTSIZE
 40
2.5
  9
$TRACEWID
 40
1.0
  9
$TEXTSTYLE
  7
STANDARD
  9
$CLAYER
  8
化粧台
  9
$CELTYPE
  6
BYLAYER
  9
$CECOLOR
 62
   256
  9
$CELTSCALE
 40
1.0
  9
$DELOBJ
 70
     1
  9
$DISPSILH
 70
     0
  9
$DIMSCALE
 40
1.0
  9
$DIMASZ
 40
2.5
  9
$DIMEXO
 40
0.625
  9
$DIMDLI
 40
3.75
  9
$DIMRND
 40
0.0
  9
$DIMDLE
 40
0.0
  9
$DIMEXE
 40
1.25
  9
$DIMTP
 40
0.0
  9
$DIMTM
 40
0.0
  9
$DIMTXT
 40
2.5
  9
$DIMCEN
 40
2.5
  9
$DIMTSZ
 40
0.0
  9
$DIMTOL
 70
     0
  9
$DIMLIM
 70
     0
  9
$DIMTIH
 70
     0
  9
$DIMTOH
 70
     0
  9
$DIMSE1
 70
     0
  9
$DIMSE2
 70
     0
  9
$DIMTAD
 70
     1
  9
$DIMZIN
 70
     8
  9
$DIMBLK
  1

  9
$DIMASO
 70
     1
  9
$DIMSHO
 70
     1
  9
$DIMPOST
  1

  9
$DIMAPOST
  1

  9
$DIMALT
 70
     0
  9
$DIMALTD
 70
     3
  9
$DIMALTF
 40
0.03937007874016
  9
$DIMLFAC
 40
1.0
  9
$DIMTOFL
 70
     1
  9
$DIMTVP
 40
0.0
  9
$DIMTIX
 70
     0
  9
$DIMSOXD
 70
     0
  9
$DIMSAH
 70
     0
  9
$DIMBLK1
  1

  9
$DIMBLK2
  1

  9
$DIMSTYLE
  2
ISO-25
  9
$DIMCLRD
 70
     0
  9
$DIMCLRE
 70
     0
  9
$DIMCLRT
 70
     0
  9
$DIMTFAC
 40
1.0
  9
$DIMGAP
 40
0.625
  9
$DIMJUST
 70
     0
  9
$DIMSD1
 70
     0
  9
$DIMSD2
 70
     0
  9
$DIMTOLJ
 70
     0
  9
$DIMTZIN
 70
     8
  9
$DIMALTZ
 70
     0
  9
$DIMALTTZ
 70
     0
  9
$DIMFIT
 70
     3
  9
$DIMUPT
 70
     0
  9
$DIMUNIT
 70
     2
  9
$DIMDEC
 70
     2
  9
$DIMTDEC
 70
     2
  9
$DIMALTU
 70
     2
  9
$DIMALTTD
 70
     3
  9
$DIMTXSTY
  7
STANDARD
  9
$DIMAUNIT
 70
     0
  9
$LUNITS
 70
     2
  9
$LUPREC
 70
     4
  9
$SKETCHINC
 40
1.0
  9
$FILLETRAD
 40
10.0
  9
$AUNITS
 70
     0
  9
$AUPREC
 70
     0
  9
$MENU
  1
.
  9
$ELEVATION
 40
0.0
  9
$PELEVATION
 40
0.0
  9
$THICKNESS
 40
0.0
  9
$LIMCHECK
 70
     0
  9
$CHAMFERA
 40
10.0
  9
$CHAMFERB
 40
10.0
  9
$CHAMFERC
 40
20.0
  9
$CHAMFERD
 40
0.0
  9
$SKPOLY
 70
     0
  9
$TDCREATE
 40
2460095.490669051
  9
$TDUPDATE
 40
2460095.49066934
  9
$TDINDWG
 40
0.0000000116
  9
$TDUSRTIMER
 40
0.0000000116
  9
$USRTIMER
 70
     1
  9
$ANGBASE
 50
0.0
  9
$ANGDIR
 70
     0
  9
$PDMODE
 70
     0
  9
$PDSIZE
 40
0.0
  9
$PLINEWID
 40
0.0
  9
$COORDS
 70
     1
  9
$SPLFRAME
 70
     0
  9
$SPLINETYPE
 70
     6
  9
$SPLINESEGS
 70
     8
  9
$ATTDIA
 70
     0
  9
$ATTREQ
 70
     1
  9
$HANDLING
 70
     1
  9
$HANDSEED
  5
62D
  9
$SURFTAB1
 70
     6
  9
$SURFTAB2
 70
     6
  9
$SURFTYPE
 70
     6
  9
$SURFU
 70
     6
  9
$SURFV
 70
     6
  9
$UCSNAME
  2

  9
$UCSORG
 10
0.0
 20
0.0
 30
0.0
  9
$UCSXDIR
 10
1.0
 20
0.0
 30
0.0
  9
$UCSYDIR
 10
0.0
 20
1.0
 30
0.0
  9
$PUCSNAME
  2

  9
$PUCSORG
 10
0.0
 20
0.0
 30
0.0
  9
$PUCSXDIR
 10
1.0
 20
0.0
 30
0.0
  9
$PUCSYDIR
 10
0.0
 20
1.0
 30
0.0
  9
$USERI1
 70
     0
  9
$USERI2
 70
     0
  9
$USERI3
 70
     0
  9
$USERI4
 70
     0
  9
$USERI5
 70
     0
  9
$USERR1
 40
0.0
  9
$USERR2
 40
0.0
  9
$USERR3
 40
0.0
  9
$USERR4
 40
0.0
  9
$USERR5
 40
0.0
  9
$WORLDVIEW
 70
     1
  9
$SHADEDGE
 70
     3
  9
$SHADEDIF
 70
    70
  9
$TILEMODE
 70
     1
  9
$MAXACTVP
 70
    64
  9
$PINSBASE
 10
0.0
 20
0.0
 30
0.0
  9
$PLIMCHECK
 70
     0
  9
$PEXTMIN
 10
1.000000000000000E+20
 20
1.000000000000000E+20
 30
1.000000000000000E+20
  9
$PEXTMAX
 10
-1.000000000000000E+20
 20
-1.000000000000000E+20
 30
-1.000000000000000E+20
  9
$PLIMMIN
 10
0.0
 20
0.0
  9
$PLIMMAX
 10
420.0
 20
297.0
  9
$UNITMODE
 70
     0
  9
$VISRETAIN
 70
     1
  9
$PLINEGEN
 70
     0
  9
$PSLTSCALE
 70
     1
  9
$TREEDEPTH
 70
  3020
  9
$PICKSTYLE
 70
     1
  9
$CMLSTYLE
  2
STANDARD
  9
$CMLJUST
 70
     0
  9
$CMLSCALE
 40
20.0
  9
$PROXYGRAPHICS
 70
     1
  9
$MEASUREMENT
 70
     1
  0
ENDSEC
  0
SECTION
  2
CLASSES
  0
CLASS
  1
ACDBDICTIONARYWDFLT
  2
AcDbDictionaryWithDefault
  3
ObjectDBX Classes
 90
        0
280
     0
281
     0
  0
CLASS
  1
VISUALSTYLE
  2
AcDbVisualStyle
  3
ObjectDBX Classes
 90
     4095
280
     0
281
     0
  0
CLASS
  1
MATERIAL
  2
AcDbMaterial
  3
ObjectDBX Classes
 90
     1153
280
     0
281
     0
  0
CLASS
  1
SUN
  2
AcDbSun
  3
SCENEOE
 90
     1024
280
     0
281
     0
  0
CLASS
  1
DICTIONARYVAR
  2
AcDbDictionaryVar
  3
ObjectDBX Classes
 90
        0
280
     0
281
     0
  0
CLASS
  1
XRECORD
  2
AcDbXrecord
  3
AutoCAD 2000
 90
        0
280
     0
281
     0
  0
CLASS
  1
LWPOLYLINE
  2
AcDbPolyline
  3
AutoCAD 2000
 90
        0
280
     0
281
     1
  0
CLASS
  1
HATCH
  2
AcDbHatch
  3
AutoCAD 2000
 90
        0
280
     0
281
     1
  0
CLASS
  1
ACDBPLACEHOLDER
  2
AcDbPlaceHolder
  3
ObjectDBX Classes
 90
        0
280
     0
281
     0
  0
CLASS
  1
LAYOUT
  2
AcDbLayout
  3
ObjectDBX Classes
 90
        0
280
     0
281
     0
  0
ENDSEC
  0
SECTION
  2
TABLES
  0
TABLE
  2
VPORT
  5
8
330
0
100
AcDbSymbolTable
 70
     1
  0
VPORT
  5
29
330
8
100
AcDbSymbolTableRecord
100
AcDbViewportTableRecord
  2
*ACTIVE
 70
     0
 10
0.0
 20
0.0
 11
1.0
 21
1.0
 12
1626.000000000031
 22
2239.5
 13
0.0
 23
0.0
 14
10.0
 24
10.0
 15
10.0
 25
10.0
 16
0.0
 26
0.0
 36
1.0
 17
0.0
 27
0.0
 37
0.0
 40
4200.000000000001
 41
0.6500000000000008
 42
50.0
 43
0.0
 44
0.0
 50
0.0
 51
0.0
 71
     0
 72
  1000
 73
     1
 74
     3
 75
     0
 76
     0
 77
     0
 78
     0
  0
ENDTAB
  0
TABLE
  2
LTYPE
  5
5
330
0
100
AcDbSymbolTable
 70
     7
  0
LTYPE
  5
14
330
5
100
AcDbSymbolTableRecord
100
AcDbLinetypeTableRecord
  2
BYBLOCK
 70
     0
  3

 72
    65
 73
     0
 40
0.0
  0
LTYPE
  5
15
330
5
100
AcDbSymbolTableRecord
100
AcDbLinetypeTableRecord
  2
BYLAYER
 70
     0
  3

 72
    65
 73
     0
 40
0.0
  0
LTYPE
  5
16
330
5
100
AcDbSymbolTableRecord
100
AcDbLinetypeTableRecord
  2
CONTINUOUS
 70
     0
  3
Solid line
 72
    65
 73
     0
 40
0.0
  0
LTYPE
  5
40
330
5
100
AcDbSymbolTableRecord
100
AcDbLinetypeTableRecord
  2
EXLTYPE1
 70
     0
  3
破線
 72
    65
 73
     2
 40
3.0
 49
2.0
 74
     0
 49
-1.0
 74
     0
  0
LTYPE
  5
41
330
5
100
AcDbSymbolTableRecord
100
AcDbLinetypeTableRecord
  2
EXLTYPE2
 70
     0
  3
点線
 72
    65
 73
     2
 40
2.0
 49
1.0
 74
     0
 49
-1.0
 74
     0
  0
LTYPE
  5
42
330
5
100
AcDbSymbolTableRecord
100
AcDbLinetypeTableRecord
  2
EXLTYPE3
 70
     0
  3
一点鎖線
 72
    65
 73
     4
 40
10.0
 49
7.0
 74
     0
 49
-1.0
 74
     0
 49
1.0
 74
     0
 49
-1.0
 74
     0
  0
LTYPE
  5
43
330
5
100
AcDbSymbolTableRecord
100
AcDbLinetypeTableRecord
  2
EXLTYPE4
 70
     0
  3
二点鎖線
 72
    65
 73
     6
 40
12.0
 49
7.0
 74
     0
 49
-1.0
 74
     0
 49
1.0
 74
     0
 49
-1.0
 74
     0
 49
1.0
 74
     0
 49
-1.0
 74
     0
  0
LTYPE
  5
44
330
5
100
AcDbSymbolTableRecord
100
AcDbLinetypeTableRecord
  2
EXLTYPE5
 70
     0
  3
三点鎖線
 72
    65
 73
     8
 40
37.0
 49
30.0
 74
     0
 49
-1.0
 74
     0
 49
1.0
 74
     0
 49
-1.0
 74
     0
 49
1.0
 74
     0
 49
-1.0
 74
     0
 49
1.0
 74
     0
 49
-1.0
 74
     0
  0
LTYPE
  5
45
330
5
100
AcDbSymbolTableRecord
100
AcDbLinetypeTableRecord
  2
EXLTYPE6
 70
     0
  3
四点鎖線
 72
    65
 73
    10
 40
39.0
 49
30.0
 74
     0
 49
-1.0
 74
     0
 49
1.0
 74
     0
 49
-1.0
 74
     0
 49
1.0
 74
     0
 49
-1.0
 74
     0
 49
1.0
 74
     0
 49
-1.0
 74
     0
 49
1.0
 74
     0
 49
-1.0
 74
     0
  0
ENDTAB
  0
TABLE
  2
LAYER
  5
2
330
0
100
AcDbSymbolTable
 70
     7
  0
LAYER
  5
10
330
2
100
AcDbSymbolTableRecord
100
AcDbLayerTableRecord
  2
0
 70
     0
 62
     7
  6
CONTINUOUS
  0
LAYER
  5
48
330
2
100
AcDbSymbolTableRecord
100
AcDbLayerTableRecord
  2
枠_表
 70
     0
 62
     7
  6
CONTINUOUS
  0
LAYER
  5
49
330
2
100
AcDbSymbolTableRecord
100
AcDbLayerTableRecord
  2
化粧台
 70
     0
 62
     7
  6
CONTINUOUS
  0
LAYER
  5
4A
330
2
100
AcDbSymbolTableRecord
100
AcDbLayerTableRecord
  2
鏡台
 70
     0
 62
     7
  6
CONTINUOUS
  0
LAYER
  5
4B
330
2
100
AcDbSymbolTableRecord
100
AcDbLayerTableRecord
  2
付属金具
 70
     0
 62
     7
  6
CONTINUOUS
  0
LAYER
  5
4C
330
2
100
AcDbSymbolTableRecord
100
AcDbLayerTableRecord
  2
寸法
 70
     0
 62
     7
  6
CONTINUOUS
  0
LAYER
  5
4E1
330
2
100
AcDbSymbolTableRecord
100
AcDbLayerTableRecord
  2
DEFPOINTS
 70
     0
 62
     7
  6
CONTINUOUS
  0
ENDTAB
  0
TABLE
  2
STYLE
  5
3
330
0
100
AcDbSymbolTable
 70
     5
  0
STYLE
  5
11
330
3
100
AcDbSymbolTableRecord
100
AcDbTextStyleTableRecord
  2
STANDARD
 70
     0
 40
0.0
 41
1.0
 50
0.0
 71
     0
 42
2.5
  3
monotxt
  4
extfont
  0
STYLE
  5
46
330
3
100
AcDbSymbolTableRecord
100
AcDbTextStyleTableRecord
  2
EXCADSTD
 70
     0
 40
0.0
 41
1.0
 50
0.0
 71
     0
 42
0.2
  3
monotxt
  4
extfont
  0
STYLE
  5
47
330
3
100
AcDbSymbolTableRecord
100
AcDbTextStyleTableRecord
  2
EXCADVERT
 70
     4
 40
0.0
 41
1.0
 50
0.0
 71
     0
 42
0.286885
  3
monotxt
  4
extfont
  0
STYLE
  5
AF
330
3
100
AcDbSymbolTableRecord
100
AcDbTextStyleTableRecord
  2
EXCADTTF1
 70
     0
 40
0.0
 41
1.0
 50
0.0
 71
     0
 42
0.2
  3
MSGOTHIC.TTC
  4

1001
ACAD
1000
MS Gothic
1071
    32817
  0
STYLE
  5
4DF
330
3
100
AcDbSymbolTableRecord
100
AcDbTextStyleTableRecord
  2
EXCADDIM1
 70
     0
 40
0.0
 41
0.84
 50
0.0
 71
     0
 42
0.2
  3
monotxt
  4
extfont
  0
ENDTAB
  0
TABLE
  2
VIEW
  5
6
330
0
100
AcDbSymbolTable
 70
     0
  0
ENDTAB
  0
TABLE
  2
UCS
  5
7
330
0
100
AcDbSymbolTable
 70
     0
  0
ENDTAB
  0
TABLE
  2
APPID
  5
9
330
0
100
AcDbSymbolTable
 70
     1
  0
APPID
  5
12
330
9
100
AcDbSymbolTableRecord
100
AcDbRegAppTableRecord
  2
ACAD
 70
     0
  0
ENDTAB
  0
TABLE
  2
DIMSTYLE
  5
A
330
0
100
AcDbSymbolTable
 70
     1
  0
DIMSTYLE
105
27
102
{ACAD_REACTORS
330
4E0
330
4EE
330
4FA
330
509
330
518
330
529
330
535
330
541
330
54E
330
55C
330
569
330
575
330
581
330
58E
330
59B
330
5A7
330
5B3
330
5BF
330
5CD
330
5D9
330
5E6
330
5F3
102
}
330
A
100
AcDbSymbolTableRecord
100
AcDbDimStyleTableRecord
  2
ISO-25
 70
     0
  3

  4

  5

  6

  7

 40
1.0
 41
2.5
 42
0.625
 43
3.75
 44
1.25
 45
0.0
 46
0.0
 47
0.0
 48
0.0
140
2.5
141
2.5
142
0.0
143
0.03937007874016
144
1.0
145
0.0
146
1.0
147
0.625
 71
     0
 72
     0
 73
     0
 74
     0
 75
     0
 76
     0
 77
     1
 78
     8
170
     0
171
     3
172
     1
173
     0
174
     0
175
     0
176
     0
177
     0
178
     0
270
     2
271
     2
272
     2
273
     2
274
     3
340
11
275
     0
280
     0
281
     0
282
     0
283
     0
284
     8
285
     0
286
     0
287
     5
288
     0
  0
ENDTAB
  0
TABLE
  2
BLOCK_RECORD
  5
1
330
0
100
AcDbSymbolTable
 70
    37
  0
BLOCK_RECORD
  5
1F
330
1
100
AcDbSymbolTableRecord
100
AcDbBlockTableRecord
  2
*MODEL_SPACE
  0
BLOCK_RECORD
  5
1B
330
1
100
AcDbSymbolTableRecord
100
AcDbBlockTableRecord
  2
*PAPER_SPACE
  0
BLOCK_RECORD
  5
4D
330
1
100
AcDbSymbolTableRecord
100
AcDbBlockTableRecord
  2
EX_NORM
  0
BLOCK_RECORD
  5
50
330
1
100
AcDbSymbolTableRecord
100
AcDbBlockTableRecord
  2
EX_BNORM
  0
BLOCK_RECORD
  5
53
330
1
100
AcDbSymbolTableRecord
100
AcDbBlockTableRecord
  2
EX_BCIR
  0
BLOCK_RECORD
  5
56
330
1
100
AcDbSymbolTableRecord
100
AcDbBlockTableRecord
  2
EX_RCIVIL
  0
BLOCK_RECORD
  5
59
330
1
100
AcDbSymbolTableRecord
100
AcDbBlockTableRecord
  2
EX_SLANT
  0
BLOCK_RECORD
  5
5C
330
1
100
AcDbSymbolTableRecord
100
AcDbBlockTableRecord
  2
EX_NONE
  0
BLOCK_RECORD
  5
5F
330
1
100
AcDbSymbolTableRecord
100
AcDbBlockTableRecord
  2
EX_CIVIL
  0
BLOCK_RECORD
  5
62
330
1
100
AcDbSymbolTableRecord
100
AcDbBlockTableRecord
  2
EX_WCIR
  0
BLOCK_RECORD
  5
65
330
1
100
AcDbSymbolTableRecord
100
AcDbBlockTableRecord
  2
EX_WCIR2
  0
BLOCK_RECORD
  5
68
330
1
100
AcDbSymbolTableRecord
100
AcDbBlockTableRecord
  2
EX_WNORM
  0
BLOCK_RECORD
  5
6B
330
1
100
AcDbSymbolTableRecord
100
AcDbBlockTableRecord
  2
EX_NNORM
  0
BLOCK_RECORD
  5
6E
330
1
100
AcDbSymbolTableRecord
100
AcDbBlockTableRecord
  2
EX_BBOX
  0
BLOCK_RECORD
  5
71
330
1
100
AcDbSymbolTableRecord
100
AcDbBlockTableRecord
  2
EX_WBOX
  0
BLOCK_RECORD
  5
74
330
1
100
AcDbSymbolTableRecord
100
AcDbBlockTableRecord
  2
EX_INTEGRAL
  0
BLOCK_RECORD
  5
4E2
330
1
100
AcDbSymbolTableRecord
100
AcDbBlockTableRecord
  2
*D15
  0
BLOCK_RECORD
  5
4EF
330
1
100
AcDbSymbolTableRecord
100
AcDbBlockTableRecord
  2
*D16
  0
BLOCK_RECORD
  5
4FB
330
1
100
AcDbSymbolTableRecord
100
AcDbBlockTableRecord
  2
*D17
  0
BLOCK_RECORD
  5
50A
330
1
100
AcDbSymbolTableRecord
100
AcDbBlockTableRecord
  2
*D18
  0
BLOCK_RECORD
  5
519
330
1
100
AcDbSymbolTableRecord
100
AcDbBlockTableRecord
  2
*D19
  0
BLOCK_RECORD
  5
52A
330
1
100
AcDbSymbolTableRecord
100
AcDbBlockTableRecord
  2
*D20
  0
BLOCK_RECORD
  5
536
330
1
100
AcDbSymbolTableRecord
100
AcDbBlockTableRecord
  2
*D21
  0
BLOCK_RECORD
  5
542
330
1
100
AcDbSymbolTableRecord
100
AcDbBlockTableRecord
  2
*D22
  0
BLOCK_RECORD
  5
54F
330
1
100
AcDbSymbolTableRecord
100
AcDbBlockTableRecord
  2
*D23
  0
BLOCK_RECORD
  5
55D
330
1
100
AcDbSymbolTableRecord
100
AcDbBlockTableRecord
  2
*D24
  0
BLOCK_RECORD
  5
56A
330
1
100
AcDbSymbolTableRecord
100
AcDbBlockTableRecord
  2
*D25
  0
BLOCK_RECORD
  5
576
330
1
100
AcDbSymbolTableRecord
100
AcDbBlockTableRecord
  2
*D26
  0
BLOCK_RECORD
  5
582
330
1
100
AcDbSymbolTableRecord
100
AcDbBlockTableRecord
  2
*D27
  0
BLOCK_RECORD
  5
58F
330
1
100
AcDbSymbolTableRecord
100
AcDbBlockTableRecord
  2
*D28
  0
BLOCK_RECORD
  5
59C
330
1
100
AcDbSymbolTableRecord
100
AcDbBlockTableRecord
  2
*D29
  0
BLOCK_RECORD
  5
5A8
330
1
100
AcDbSymbolTableRecord
100
AcDbBlockTableRecord
  2
*D30
  0
BLOCK_RECORD
  5
5B4
330
1
100
AcDbSymbolTableRecord
100
AcDbBlockTableRecord
  2
*D31
  0
BLOCK_RECORD
  5
5C0
330
1
100
AcDbSymbolTableRecord
100
AcDbBlockTableRecord
  2
*D32
  0
BLOCK_RECORD
  5
5CE
330
1
100
AcDbSymbolTableRecord
100
AcDbBlockTableRecord
  2
*D33
  0
BLOCK_RECORD
  5
5DA
330
1
100
AcDbSymbolTableRecord
100
AcDbBlockTableRecord
  2
*D34
  0
BLOCK_RECORD
  5
5E7
330
1
100
AcDbSymbolTableRecord
100
AcDbBlockTableRecord
  2
*D35
  0
BLOCK_RECORD
  5
5F4
330
1
100
AcDbSymbolTableRecord
100
AcDbBlockTableRecord
  2
*D36
  0
ENDTAB
  0
ENDSEC
  0
SECTION
  2
BLOCKS
  0
BLOCK
  5
20
330
1F
100
AcDbEntity
  8
0
100
AcDbBlockBegin
  2
*MODEL_SPACE
 70
     0
 10
0.0
 20
0.0
 30
0.0
  3
*MODEL_SPACE
  1

  0
ENDBLK
  5
21
330
1F
100
AcDbEntity
  8
0
100
AcDbBlockEnd
  0
BLOCK
  5
1C
330
1B
100
AcDbEntity
 67
     1
  8
0
100
AcDbBlockBegin
  2
*PAPER_SPACE
 70
     0
 10
0.0
 20
0.0
 30
0.0
  3
*PAPER_SPACE
  1

  0
ENDBLK
  5
1D
330
1B
100
AcDbEntity
 67
     1
  8
0
100
AcDbBlockEnd
  0
BLOCK
  5
4E
330
4D
100
AcDbEntity
  8
0
100
AcDbBlockBegin
  2
EX_NORM
 70
     0
 10
0.0
 20
0.0
 30
0.0
  3
EX_NORM
  1

  0
LINE
  5
77
330
4D
100
AcDbEntity
  8
0
  6
CONTINUOUS
 62
     0
100
AcDbLine
 10
0.0
 20
0.0
 30
0.0
 11
-1.0
 21
0.0
 31
0.0
  0
LINE
  5
78
330
4D
100
AcDbEntity
  8
0
  6
CONTINUOUS
 62
     0
100
AcDbLine
 10
0.0
 20
0.0
 30
0.0
 11
-1.0
 21
0.166666667
 31
0.0
  0
LINE
  5
79
330
4D
100
AcDbEntity
  8
0
  6
CONTINUOUS
 62
     0
100
AcDbLine
 10
0.0
 20
0.0
 30
0.0
 11
-1.0
 21
-0.166666667
 31
0.0
  0
ENDBLK
  5
4F
330
4D
100
AcDbEntity
  8
0
100
AcDbBlockEnd
  0
BLOCK
  5
51
330
50
100
AcDbEntity
  8
0
100
AcDbBlockBegin
  2
EX_BNORM
 70
     0
 10
0.0
 20
0.0
 30
0.0
  3
EX_BNORM
  1

  0
LINE
  5
7A
330
50
100
AcDbEntity
  8
0
  6
CONTINUOUS
 62
     0
100
AcDbLine
 10
0.0
 20
0.0
 30
0.0
 11
-1.0
 21
0.0
 31
0.0
  0
LINE
  5
7B
330
50
100
AcDbEntity
  8
0
  6
CONTINUOUS
 62
     0
100
AcDbLine
 10
0.0
 20
0.0
 30
0.0
 11
-1.0
 21
0.166666667
 31
0.0
  0
LINE
  5
7C
330
50
100
AcDbEntity
  8
0
  6
CONTINUOUS
 62
     0
100
AcDbLine
 10
0.0
 20
0.0
 30
0.0
 11
-1.0
 21
-0.166666667
 31
0.0
  0
LINE
  5
7D
330
50
100
AcDbEntity
  8
0
  6
CONTINUOUS
 62
     0
100
AcDbLine
 10
0.0
 20
0.0
 30
0.0
 11
-1.0
 21
0.083333333
 31
0.0
  0
LINE
  5
7E
330
50
100
AcDbEntity
  8
0
  6
CONTINUOUS
 62
     0
100
AcDbLine
 10
0.0
 20
0.0
 30
0.0
 11
-1.0
 21
-0.083333333
 31
0.0
  0
LINE
  5
7F
330
50
100
AcDbEntity
  8
0
  6
CONTINUOUS
 62
     0
100
AcDbLine
 10
-1.0
 20
0.166666667
 30
0.0
 11
-1.0
 21
-0.166666667
 31
0.0
  0
ENDBLK
  5
52
330
50
100
AcDbEntity
  8
0
100
AcDbBlockEnd
  0
BLOCK
  5
54
330
53
100
AcDbEntity
  8
0
100
AcDbBlockBegin
  2
EX_BCIR
 70
     0
 10
0.0
 20
0.0
 30
0.0
  3
EX_BCIR
  1

  0
LINE
  5
80
330
53
100
AcDbEntity
  8
0
  6
CONTINUOUS
 62
     0
100
AcDbLine
 10
0.0
 20
0.0
 30
0.0
 11
-1.0
 21
0.0
 31
0.0
  0
CIRCLE
  5
81
330
53
100
AcDbEntity
  8
0
  6
CONTINUOUS
 62
     0
100
AcDbCircle
 10
0.0
 20
0.0
 30
0.0
 40
0.5
  0
CIRCLE
  5
82
330
53
100
AcDbEntity
  8
0
  6
CONTINUOUS
 62
     0
100
AcDbCircle
 10
0.0
 20
0.0
 30
0.0
 40
0.25
  0
ENDBLK
  5
55
330
53
100
AcDbEntity
  8
0
100
AcDbBlockEnd
  0
BLOCK
  5
57
330
56
100
AcDbEntity
  8
0
100
AcDbBlockBegin
  2
EX_RCIVIL
 70
     0
 10
0.0
 20
0.0
 30
0.0
  3
EX_RCIVIL
  1

  0
LINE
  5
83
330
56
100
AcDbEntity
  8
0
  6
CONTINUOUS
 62
     0
100
AcDbLine
 10
0.0
 20
0.0
 30
0.0
 11
-1.0
 21
0.0
 31
0.0
  0
LINE
  5
84
330
56
100
AcDbEntity
  8
0
  6
CONTINUOUS
 62
     0
100
AcDbLine
 10
-1.0
 20
-0.25
 30
0.0
 11
0.0
 21
-0.25
 31
0.0
  0
LINE
  5
85
330
56
100
AcDbEntity
  8
0
  6
CONTINUOUS
 62
     0
100
AcDbLine
 10
-1.0
 20
-0.125
 30
0.0
 11
0.0
 21
-0.125
 31
0.0
  0
ENDBLK
  5
58
330
56
100
AcDbEntity
  8
0
100
AcDbBlockEnd
  0
BLOCK
  5
5A
330
59
100
AcDbEntity
  8
0
100
AcDbBlockBegin
  2
EX_SLANT
 70
     0
 10
0.0
 20
0.0
 30
0.0
  3
EX_SLANT
  1

  0
LINE
  5
86
330
59
100
AcDbEntity
  8
0
  6
CONTINUOUS
 62
     0
100
AcDbLine
 10
0.0
 20
0.0
 30
0.0
 11
-1.0
 21
0.0
 31
0.0
  0
LINE
  5
87
330
59
100
AcDbEntity
  8
0
  6
CONTINUOUS
 62
     0
100
AcDbLine
 10
0.707106781
 20
0.707106781
 30
0.0
 11
-0.707106781
 21
-0.707106781
 31
0.0
  0
ENDBLK
  5
5B
330
59
100
AcDbEntity
  8
0
100
AcDbBlockEnd
  0
BLOCK
  5
5D
330
5C
100
AcDbEntity
  8
0
100
AcDbBlockBegin
  2
EX_NONE
 70
     0
 10
0.0
 20
0.0
 30
0.0
  3
EX_NONE
  1

  0
LINE
  5
88
330
5C
100
AcDbEntity
  8
0
  6
CONTINUOUS
 62
     0
100
AcDbLine
 10
0.0
 20
0.0
 30
0.0
 11
-1.0
 21
0.0
 31
0.0
  0
ENDBLK
  5
5E
330
5C
100
AcDbEntity
  8
0
100
AcDbBlockEnd
  0
BLOCK
  5
60
330
5F
100
AcDbEntity
  8
0
100
AcDbBlockBegin
  2
EX_CIVIL
 70
     0
 10
0.0
 20
0.0
 30
0.0
  3
EX_CIVIL
  1

  0
LINE
  5
89
330
5F
100
AcDbEntity
  8
0
  6
CONTINUOUS
 62
     0
100
AcDbLine
 10
0.0
 20
0.0
 30
0.0
 11
-1.0
 21
0.0
 31
0.0
  0
LINE
  5
8A
330
5F
100
AcDbEntity
  8
0
  6
CONTINUOUS
 62
     0
100
AcDbLine
 10
-1.0
 20
0.25
 30
0.0
 11
0.0
 21
0.25
 31
0.0
  0
LINE
  5
8B
330
5F
100
AcDbEntity
  8
0
  6
CONTINUOUS
 62
     0
100
AcDbLine
 10
-1.0
 20
0.125
 30
0.0
 11
0.0
 21
0.125
 31
0.0
  0
ENDBLK
  5
61
330
5F
100
AcDbEntity
  8
0
100
AcDbBlockEnd
  0
BLOCK
  5
63
330
62
100
AcDbEntity
  8
0
100
AcDbBlockBegin
  2
EX_WCIR
 70
     0
 10
0.0
 20
0.0
 30
0.0
  3
EX_WCIR
  1

  0
LINE
  5
8C
330
62
100
AcDbEntity
  8
0
  6
CONTINUOUS
 62
     0
100
AcDbLine
 10
0.0
 20
0.0
 30
0.0
 11
-1.0
 21
0.0
 31
0.0
  0
CIRCLE
  5
8D
330
62
100
AcDbEntity
  8
0
  6
CONTINUOUS
 62
     0
100
AcDbCircle
 10
0.0
 20
0.0
 30
0.0
 40
0.5
  0
ENDBLK
  5
64
330
62
100
AcDbEntity
  8
0
100
AcDbBlockEnd
  0
BLOCK
  5
66
330
65
100
AcDbEntity
  8
0
100
AcDbBlockBegin
  2
EX_WCIR2
 70
     0
 10
0.0
 20
0.0
 30
0.0
  3
EX_WCIR2
  1

  0
LINE
  5
8E
330
65
100
AcDbEntity
  8
0
  6
CONTINUOUS
 62
     0
100
AcDbLine
 10
-0.5
 20
0.0
 30
0.0
 11
-1.0
 21
0.0
 31
0.0
  0
CIRCLE
  5
8F
330
65
100
AcDbEntity
  8
0
  6
CONTINUOUS
 62
     0
100
AcDbCircle
 10
0.0
 20
0.0
 30
0.0
 40
0.5
  0
ENDBLK
  5
67
330
65
100
AcDbEntity
  8
0
100
AcDbBlockEnd
  0
BLOCK
  5
69
330
68
100
AcDbEntity
  8
0
100
AcDbBlockBegin
  2
EX_WNORM
 70
     0
 10
0.0
 20
0.0
 30
0.0
  3
EX_WNORM
  1

  0
LINE
  5
90
330
68
100
AcDbEntity
  8
0
  6
CONTINUOUS
 62
     0
100
AcDbLine
 10
-1.0
 20
0.0
 30
0.0
 11
-1.0
 21
0.0
 31
0.0
  0
LINE
  5
91
330
68
100
AcDbEntity
  8
0
  6
CONTINUOUS
 62
     0
100
AcDbLine
 10
0.0
 20
0.0
 30
0.0
 11
-1.0
 21
0.166666667
 31
0.0
  0
LINE
  5
92
330
68
100
AcDbEntity
  8
0
  6
CONTINUOUS
 62
     0
100
AcDbLine
 10
0.0
 20
0.0
 30
0.0
 11
-1.0
 21
-0.166666667
 31
0.0
  0
LINE
  5
93
330
68
100
AcDbEntity
  8
0
  6
CONTINUOUS
 62
     0
100
AcDbLine
 10
-1.0
 20
0.166666667
 30
0.0
 11
-1.0
 21
-0.166666667
 31
0.0
  0
ENDBLK
  5
6A
330
68
100
AcDbEntity
  8
0
100
AcDbBlockEnd
  0
BLOCK
  5
6C
330
6B
100
AcDbEntity
  8
0
100
AcDbBlockBegin
  2
EX_NNORM
 70
     0
 10
0.0
 20
0.0
 30
0.0
  3
EX_NNORM
  1

  0
LINE
  5
94
330
6B
100
AcDbEntity
  8
0
  6
CONTINUOUS
 62
     0
100
AcDbLine
 10
0.0
 20
0.0
 30
0.0
 11
-1.0
 21
0.0
 31
0.0
  0
LINE
  5
95
330
6B
100
AcDbEntity
  8
0
  6
CONTINUOUS
 62
     0
100
AcDbLine
 10
0.0
 20
0.0
 30
0.0
 11
-1.0
 21
0.166666667
 31
0.0
  0
LINE
  5
96
330
6B
100
AcDbEntity
  8
0
  6
CONTINUOUS
 62
     0
100
AcDbLine
 10
0.0
 20
0.0
 30
0.0
 11
-1.0
 21
-0.166666667
 31
0.0
  0
LINE
  5
97
330
6B
100
AcDbEntity
  8
0
  6
CONTINUOUS
 62
     0
100
AcDbLine
 10
-1.0
 20
0.166666667
 30
0.0
 11
-1.0
 21
-0.166666667
 31
0.0
  0
ENDBLK
  5
6D
330
6B
100
AcDbEntity
  8
0
100
AcDbBlockEnd
  0
BLOCK
  5
6F
330
6E
100
AcDbEntity
  8
0
100
AcDbBlockBegin
  2
EX_BBOX
 70
     0
 10
0.0
 20
0.0
 30
0.0
  3
EX_BBOX
  1

  0
LINE
  5
98
330
6E
100
AcDbEntity
  8
0
  6
CONTINUOUS
 62
     0
100
AcDbLine
 10
0.0
 20
0.0
 30
0.0
 11
-1.0
 21
0.0
 31
0.0
  0
LINE
  5
99
330
6E
100
AcDbEntity
  8
0
  6
CONTINUOUS
 62
     0
100
AcDbLine
 10
-0.5
 20
0.5
 30
0.0
 11
0.5
 21
0.5
 31
0.0
  0
LINE
  5
9A
330
6E
100
AcDbEntity
  8
0
  6
CONTINUOUS
 62
     0
100
AcDbLine
 10
0.5
 20
0.5
 30
0.0
 11
0.5
 21
-0.5
 31
0.0
  0
LINE
  5
9B
330
6E
100
AcDbEntity
  8
0
  6
CONTINUOUS
 62
     0
100
AcDbLine
 10
0.5
 20
-0.5
 30
0.0
 11
-0.5
 21
-0.5
 31
0.0
  0
LINE
  5
9C
330
6E
100
AcDbEntity
  8
0
  6
CONTINUOUS
 62
     0
100
AcDbLine
 10
-0.5
 20
-0.5
 30
0.0
 11
-0.5
 21
0.5
 31
0.0
  0
LINE
  5
9D
330
6E
100
AcDbEntity
  8
0
  6
CONTINUOUS
 62
     0
100
AcDbLine
 10
-0.25
 20
0.25
 30
0.0
 11
0.25
 21
0.25
 31
0.0
  0
LINE
  5
9E
330
6E
100
AcDbEntity
  8
0
  6
CONTINUOUS
 62
     0
100
AcDbLine
 10
0.25
 20
0.25
 30
0.0
 11
0.25
 21
-0.25
 31
0.0
  0
LINE
  5
9F
330
6E
100
AcDbEntity
  8
0
  6
CONTINUOUS
 62
     0
100
AcDbLine
 10
0.25
 20
-0.25
 30
0.0
 11
-0.25
 21
-0.25
 31
0.0
  0
LINE
  5
A0
330
6E
100
AcDbEntity
  8
0
  6
CONTINUOUS
 62
     0
100
AcDbLine
 10
-0.25
 20
-0.25
 30
0.0
 11
-0.25
 21
0.25
 31
0.0
  0
ENDBLK
  5
70
330
6E
100
AcDbEntity
  8
0
100
AcDbBlockEnd
  0
BLOCK
  5
72
330
71
100
AcDbEntity
  8
0
100
AcDbBlockBegin
  2
EX_WBOX
 70
     0
 10
0.0
 20
0.0
 30
0.0
  3
EX_WBOX
  1

  0
LINE
  5
A1
330
71
100
AcDbEntity
  8
0
  6
CONTINUOUS
 62
     0
100
AcDbLine
 10
-0.5
 20
0.0
 30
0.0
 11
-1.0
 21
0.0
 31
0.0
  0
LINE
  5
A2
330
71
100
AcDbEntity
  8
0
  6
CONTINUOUS
 62
     0
100
AcDbLine
 10
-0.5
 20
0.5
 30
0.0
 11
0.5
 21
0.5
 31
0.0
  0
LINE
  5
A3
330
71
100
AcDbEntity
  8
0
  6
CONTINUOUS
 62
     0
100
AcDbLine
 10
0.5
 20
0.5
 30
0.0
 11
0.5
 21
-0.5
 31
0.0
  0
LINE
  5
A4
330
71
100
AcDbEntity
  8
0
  6
CONTINUOUS
 62
     0
100
AcDbLine
 10
0.5
 20
-0.5
 30
0.0
 11
-0.5
 21
-0.5
 31
0.0
  0
LINE
  5
A5
330
71
100
AcDbEntity
  8
0
  6
CONTINUOUS
 62
     0
100
AcDbLine
 10
-0.5
 20
-0.5
 30
0.0
 11
-0.5
 21
0.5
 31
0.0
  0
ENDBLK
  5
73
330
71
100
AcDbEntity
  8
0
100
AcDbBlockEnd
  0
BLOCK
  5
75
330
74
100
AcDbEntity
  8
0
100
AcDbBlockBegin
  2
EX_INTEGRAL
 70
     0
 10
0.0
 20
0.0
 30
0.0
  3
EX_INTEGRAL
  1

  0
LINE
  5
A6
330
74
100
AcDbEntity
  8
0
  6
CONTINUOUS
 62
     0
100
AcDbLine
 10
0.0
 20
0.0
 30
0.0
 11
-1.0
 21
0.0
 31
0.0
  0
ARC
  5
A7
330
74
100
AcDbEntity
  8
0
  6
CONTINUOUS
 62
     0
100
AcDbCircle
 10
0.542115
 20
0.164992
 30
0.0
 40
0.56667
100
AcDbArc
 50
73.07249033629006
 51
196.9275130221199
  0
ARC
  5
A8
330
74
100
AcDbEntity
  8
0
  6
CONTINUOUS
 62
     0
100
AcDbCircle
 10
-0.542115
 20
-0.164992
 30
0.0
 40
0.56667
100
AcDbArc
 50
253.0724869220464
 51
16.9275130559125
  0
ENDBLK
  5
76
330
74
100
AcDbEntity
  8
0
100
AcDbBlockEnd
  0
BLOCK
  5
4E3
330
4E2
100
AcDbEntity
  8
0
100
AcDbBlockBegin
  2
*D15
 70
     1
 10
0.0
 20
0.0
 30
0.0
  3
*D15
  1

  0
LINE
  5
4E5
330
4E2
100
AcDbEntity
  8
寸法
  6
CONTINUOUS
 62
     3
100
AcDbLine
 10
766.0000000030279
 20
1435.200000178913
 30
0.0
 11
766.0000000030279
 21
1233.0
 31
0.0
  0
LINE
  5
4E6
330
4E2
100
AcDbEntity
  8
寸法
  6
CONTINUOUS
 62
     3
100
AcDbLine
 10
1156.00000000003
 20
1435.200000178913
 30
0.0
 11
1156.00000000003
 21
1233.0
 31
0.0
  0
LINE
  5
4E7
330
4E2
100
AcDbEntity
  8
寸法
  6
CONTINUOUS
 62
     3
100
AcDbLine
 10
810.9999961883307
 20
1248.0
 30
0.0
 11
1111.000003814728
 21
1248.0
 31
0.0
  0
INSERT
  5
4E8
330
4E2
100
AcDbEntity
  8
寸法
 62
     3
100
AcDbBlockReference
  2
EX_NORM
 10
766.0000000030279
 20
1248.0
 30
0.0
 41
44.99999618530273
 42
44.99999618530273
 43
44.99999618530273
 50
180.0
  0
INSERT
  5
4E9
330
4E2
100
AcDbEntity
  8
寸法
 62
     3
100
AcDbBlockReference
  2
EX_NORM
 10
1156.00000000003
 20
1248.0
 30
0.0
 41
44.99999618530273
 42
44.99999618530273
 43
44.99999618530273
  0
MTEXT
  5
4EA
330
4E2
100
AcDbEntity
  8
寸法
 62
     2
100
AcDbMText
 10
961.0000000015291
 20
1283.249999910593
 30
0.0
 40
59.99999618530273
 41
0.0
 71
     5
 72
     1
  1
390（壁固定）
  7
EXCADDIM1
  0
POINT
  5
4EB
330
4E2
100
AcDbEntity
  8
DEFPOINTS
 62
     0
100
AcDbPoint
 10
766.0000000030279
 20
1445.700000000099
 30
0.0
  0
POINT
  5
4EC
330
4E2
100
AcDbEntity
  8
DEFPOINTS
 62
     0
100
AcDbPoint
 10
1156.00000000003
 20
1445.700000000099
 30
0.0
  0
POINT
  5
4ED
330
4E2
100
AcDbEntity
  8
DEFPOINTS
 62
     0
100
AcDbPoint
 10
1156.00000000003
 20
1248.0
 30
0.0
  0
ENDBLK
  5
4E4
330
4E2
100
AcDbEntity
  8
0
100
AcDbBlockEnd
  0
BLOCK
  5
4F0
330
4EF
100
AcDbEntity
  8
0
100
AcDbBlockBegin
  2
*D16
 70
     1
 10
0.0
 20
0.0
 30
0.0
  3
*D16
  1

  0
LINE
  5
4F2
330
4EF
100
AcDbEntity
  8
寸法
  6
CONTINUOUS
 62
     3
100
AcDbLine
 10
971.4999998212163
 20
1669.5
 30
0.0
 11
1396.000000000028
 21
1669.5
 31
0.0
  0
LINE
  5
4F3
330
4EF
100
AcDbEntity
  8
寸法
  6
CONTINUOUS
 62
     3
100
AcDbLine
 10
1381.000000000028
 20
964.4999961853028
 30
0.0
 11
1381.000000000028
 21
1624.500003814697
 31
0.0
  0
INSERT
  5
4F4
330
4EF
100
AcDbEntity
  8
寸法
 62
     3
100
AcDbBlockReference
  2
EX_NORM
 10
1381.000000000028
 20
919.5000000000001
 30
0.0
 41
44.99999618530273
 42
44.99999618530273
 43
44.99999618530273
 50
270.0
  0
INSERT
  5
4F5
330
4EF
100
AcDbEntity
  8
寸法
 62
     3
100
AcDbBlockReference
  2
EX_NORM
 10
1381.000000000028
 20
1669.5
 30
0.0
 41
44.99999618530273
 42
44.99999618530273
 43
44.99999618530273
 50
90.0
  0
MTEXT
  5
4F6
330
4EF
100
AcDbEntity
  8
寸法
 62
     2
100
AcDbMText
 10
1345.750000089435
 20
1294.499999999998
 30
0.0
 40
59.99999618530273
 41
0.0
 71
     5
 72
     1
  1
750
  7
EXCADDIM1
 11
0.0
 21
1.0
 31
0.0
  0
POINT
  5
4F7
330
4EF
100
AcDbEntity
  8
DEFPOINTS
 62
     0
100
AcDbPoint
 10
1244.500000000028
 20
919.5
 30
0.0
  0
POINT
  5
4F8
330
4EF
100
AcDbEntity
  8
DEFPOINTS
 62
     0
100
AcDbPoint
 10
961.0000000000302
 20
1669.5
 30
0.0
  0
POINT
  5
4F9
330
4EF
100
AcDbEntity
  8
DEFPOINTS
 62
     0
100
AcDbPoint
 10
1381.000000000028
 20
1669.5
 30
0.0
  0
ENDBLK
  5
4F1
330
4EF
100
AcDbEntity
  8
0
100
AcDbBlockEnd
  0
BLOCK
  5
4FC
330
4FB
100
AcDbEntity
  8
0
100
AcDbBlockBegin
  2
*D17
 70
     1
 10
0.0
 20
0.0
 30
0.0
  3
*D17
  1

  0
LINE
  5
4FE
330
4FB
100
AcDbEntity
  8
寸法
  6
CONTINUOUS
 62
     3
100
AcDbLine
 10
1266.314876946214
 20
1704.5
 30
0.0
 11
1486.000000000028
 21
1704.5
 31
0.0
  0
LINE
  5
4FF
330
4FB
100
AcDbEntity
  8
寸法
  6
CONTINUOUS
 62
     3
100
AcDbLine
 10
1471.000000000028
 20
964.4999961853028
 30
0.0
 11
1471.000000000028
 21
1659.500003814697
 31
0.0
  0
INSERT
  5
500
330
4FB
100
AcDbEntity
  8
寸法
 62
     3
100
AcDbBlockReference
  2
EX_NORM
 10
1471.000000000028
 20
919.5000000000001
 30
0.0
 41
44.99999618530273
 42
44.99999618530273
 43
44.99999618530273
 50
270.0
  0
INSERT
  5
501
330
4FB
100
AcDbEntity
  8
寸法
 62
     3
100
AcDbBlockReference
  2
EX_NORM
 10
1471.000000000028
 20
1704.5
 30
0.0
 41
44.99999618530273
 42
44.99999618530273
 43
44.99999618530273
 50
90.0
  0
MTEXT
  5
502
330
4FB
100
AcDbEntity
  8
寸法
 62
     2
100
AcDbMText
 10
1435.750000089435
 20
1311.999999999998
 30
0.0
 40
59.99999618530273
 41
0.0
 71
     5
 72
     1
  1
785
  7
EXCADDIM1
 11
0.0
 21
1.0
 31
0.0
  0
POINT
  5
503
330
4FB
100
AcDbEntity
  8
DEFPOINTS
 62
     0
100
AcDbPoint
 10
1244.500000000028
 20
919.5
 30
0.0
  0
POINT
  5
504
330
4FB
100
AcDbEntity
  8
DEFPOINTS
 62
     0
100
AcDbPoint
 10
1255.814877125028
 20
1704.5
 30
0.0
  0
POINT
  5
505
330
4FB
100
AcDbEntity
  8
DEFPOINTS
 62
     0
100
AcDbPoint
 10
1471.000000000028
 20
1704.5
 30
0.0
  0
ENDBLK
  5
4FD
330
4FB
100
AcDbEntity
  8
0
100
AcDbBlockEnd
  0
BLOCK
  5
50B
330
50A
100
AcDbEntity
  8
0
100
AcDbBlockBegin
  2
*D18
 70
     1
 10
0.0
 20
0.0
 30
0.0
  3
*D18
  1

  0
LINE
  5
50D
330
50A
100
AcDbEntity
  8
寸法
  6
CONTINUOUS
 62
     3
100
AcDbLine
 10
2406.00000000003
 20
859.0000001788139
 30
0.0
 11
2406.00000000003
 21
604.5
 31
0.0
  0
LINE
  5
50E
330
50A
100
AcDbEntity
  8
寸法
  6
CONTINUOUS
 62
     3
100
AcDbLine
 10
2491.00000000003
 20
909.000000178813
 30
0.0
 11
2491.00000000003
 21
604.5
 31
0.0
  0
LINE
  5
50F
330
50A
100
AcDbEntity
  8
寸法
  6
CONTINUOUS
 62
     3
100
AcDbLine
 10
2406.00000000003
 20
619.5
 30
0.0
 11
2491.00000000003
 21
619.5
 31
0.0
  0
LINE
  5
510
330
50A
100
AcDbEntity
  8
寸法
  6
CONTINUOUS
 62
     3
100
AcDbLine
 10
2361.000003814727
 20
619.5
 30
0.0
 11
2316.000007629425
 21
619.5
 31
0.0
  0
LINE
  5
511
330
50A
100
AcDbEntity
  8
寸法
  6
CONTINUOUS
 62
     3
100
AcDbLine
 10
2535.999996185333
 20
619.5
 30
0.0
 11
2580.999992370635
 21
619.5
 31
0.0
  0
INSERT
  5
512
330
50A
100
AcDbEntity
  8
寸法
 62
     3
100
AcDbBlockReference
  2
EX_NORM
 10
2406.00000000003
 20
619.5
 30
0.0
 41
44.99999618530273
 42
44.99999618530273
 43
44.99999618530273
  0
INSERT
  5
513
330
50A
100
AcDbEntity
  8
寸法
 62
     3
100
AcDbBlockReference
  2
EX_NORM
 10
2491.00000000003
 20
619.5
 30
0.0
 41
44.99999618530273
 42
44.99999618530273
 43
44.99999618530273
 50
180.0
  0
MTEXT
  5
514
330
50A
100
AcDbEntity
  8
寸法
 62
     2
100
AcDbMText
 10
2701.00000000003
 20
654.749999910593
 30
0.0
 40
59.99999618530273
 41
0.0
 71
     5
 72
     1
  1
85（床排水）
  7
EXCADDIM1
  0
POINT
  5
515
330
50A
100
AcDbEntity
  8
DEFPOINTS
 62
     0
100
AcDbPoint
 10
2406.00000000003
 20
869.5
 30
0.0
  0
POINT
  5
516
330
50A
100
AcDbEntity
  8
DEFPOINTS
 62
     0
100
AcDbPoint
 10
2491.00000000003
 20
919.4999999999991
 30
0.0
  0
POINT
  5
517
330
50A
100
AcDbEntity
  8
DEFPOINTS
 62
     0
100
AcDbPoint
 10
2491.00000000003
 20
619.5
 30
0.0
  0
ENDBLK
  5
50C
330
50A
100
AcDbEntity
  8
0
100
AcDbBlockEnd
  0
BLOCK
  5
51A
330
519
100
AcDbEntity
  8
0
100
AcDbBlockBegin
  2
*D19
 70
     1
 10
0.0
 20
0.0
 30
0.0
  3
*D19
  1

  0
LINE
  5
51C
330
519
100
AcDbEntity
  8
寸法
  6
CONTINUOUS
 62
     3
100
AcDbLine
 10
2406.00000000003
 20
709.5
 30
0.0
 11
2491.00000000003
 21
709.5
 31
0.0
  0
LINE
  5
51D
330
519
100
AcDbEntity
  8
寸法
  6
CONTINUOUS
 62
     3
100
AcDbLine
 10
2361.000003814727
 20
709.5
 30
0.0
 11
2316.000007629425
 21
709.5
 31
0.0
  0
LINE
  5
51E
330
519
100
AcDbEntity
  8
寸法
  6
CONTINUOUS
 62
     3
100
AcDbLine
 10
2535.999996185333
 20
709.5
 30
0.0
 11
2580.999992370635
 21
709.5
 31
0.0
  0
INSERT
  5
51F
330
519
100
AcDbEntity
  8
寸法
 62
     3
100
AcDbBlockReference
  2
EX_NORM
 10
2406.00000000003
 20
709.5
 30
0.0
 41
44.99999618530273
 42
44.99999618530273
 43
44.99999618530273
  0
INSERT
  5
520
330
519
100
AcDbEntity
  8
寸法
 62
     3
100
AcDbBlockReference
  2
EX_NORM
 10
2491.00000000003
 20
709.5
 30
0.0
 41
44.99999618530273
 42
44.99999618530273
 43
44.99999618530273
 50
180.0
  0
MTEXT
  5
521
330
519
100
AcDbEntity
  8
寸法
 62
     2
100
AcDbMText
 10
2701.00000000003
 20
744.749999910593
 30
0.0
 40
59.99999618530273
 41
0.0
 71
     5
 72
     1
  1
85（床給水）
  7
EXCADDIM1
  0
POINT
  5
522
330
519
100
AcDbEntity
  8
DEFPOINTS
 62
     0
100
AcDbPoint
 10
2406.00000000003
 20
869.5
 30
0.0
  0
POINT
  5
523
330
519
100
AcDbEntity
  8
DEFPOINTS
 62
     0
100
AcDbPoint
 10
2491.00000000003
 20
919.4999999999991
 30
0.0
  0
POINT
  5
524
330
519
100
AcDbEntity
  8
DEFPOINTS
 62
     0
100
AcDbPoint
 10
2491.00000000003
 20
709.5
 30
0.0
  0
ENDBLK
  5
51B
330
519
100
AcDbEntity
  8
0
100
AcDbBlockEnd
  0
BLOCK
  5
52B
330
52A
100
AcDbEntity
  8
0
100
AcDbBlockBegin
  2
*D20
 70
     1
 10
0.0
 20
0.0
 30
0.0
  3
*D20
  1

  0
LINE
  5
52D
330
52A
100
AcDbEntity
  8
寸法
  6
CONTINUOUS
 62
     3
100
AcDbLine
 10
2509.499999821216
 20
1269.5
 30
0.0
 11
2626.00000000003
 21
1269.5
 31
0.0
  0
LINE
  5
52E
330
52A
100
AcDbEntity
  8
寸法
  6
CONTINUOUS
 62
     3
100
AcDbLine
 10
2611.00000000003
 20
964.4999961853026
 30
0.0
 11
2611.00000000003
 21
1224.500003814697
 31
0.0
  0
INSERT
  5
52F
330
52A
100
AcDbEntity
  8
寸法
 62
     3
100
AcDbBlockReference
  2
EX_NORM
 10
2611.00000000003
 20
919.4999999999999
 30
0.0
 41
44.99999618530273
 42
44.99999618530273
 43
44.99999618530273
 50
270.0
  0
INSERT
  5
530
330
52A
100
AcDbEntity
  8
寸法
 62
     3
100
AcDbBlockReference
  2
EX_NORM
 10
2611.00000000003
 20
1269.5
 30
0.0
 41
44.99999618530273
 42
44.99999618530273
 43
44.99999618530273
 50
90.0
  0
MTEXT
  5
531
330
52A
100
AcDbEntity
  8
寸法
 62
     2
100
AcDbMText
 10
2575.750000089437
 20
1106.499999999998
 30
0.0
 40
59.99999618530273
 41
0.0
 71
     5
 72
     1
  1
350（壁給水）
  7
EXCADDIM1
 11
4.724169043383025E-15
 21
1.0
 31
0.0
  0
POINT
  5
532
330
52A
100
AcDbEntity
  8
DEFPOINTS
 62
     0
100
AcDbPoint
 10
2491.00000000003
 20
919.5
 30
0.0
  0
POINT
  5
533
330
52A
100
AcDbEntity
  8
DEFPOINTS
 62
     0
100
AcDbPoint
 10
2499.00000000003
 20
1269.5
 30
0.0
  0
POINT
  5
534
330
52A
100
AcDbEntity
  8
DEFPOINTS
 62
     0
100
AcDbPoint
 10
2611.00000000003
 20
1269.5
 30
0.0
  0
ENDBLK
  5
52C
330
52A
100
AcDbEntity
  8
0
100
AcDbBlockEnd
  0
BLOCK
  5
537
330
536
100
AcDbEntity
  8
0
100
AcDbBlockBegin
  2
*D21
 70
     1
 10
0.0
 20
0.0
 30
0.0
  3
*D21
  1

  0
LINE
  5
539
330
536
100
AcDbEntity
  8
寸法
  6
CONTINUOUS
 62
     3
100
AcDbLine
 10
2551.499999821216
 20
1389.5
 30
0.0
 11
2716.00000000003
 21
1389.5
 31
0.0
  0
LINE
  5
53A
330
536
100
AcDbEntity
  8
寸法
  6
CONTINUOUS
 62
     3
100
AcDbLine
 10
2701.00000000003
 20
964.4999961853026
 30
0.0
 11
2701.00000000003
 21
1344.500003814697
 31
0.0
  0
INSERT
  5
53B
330
536
100
AcDbEntity
  8
寸法
 62
     3
100
AcDbBlockReference
  2
EX_NORM
 10
2701.00000000003
 20
919.4999999999999
 30
0.0
 41
44.99999618530273
 42
44.99999618530273
 43
44.99999618530273
 50
270.0
  0
INSERT
  5
53C
330
536
100
AcDbEntity
  8
寸法
 62
     3
100
AcDbBlockReference
  2
EX_NORM
 10
2701.00000000003
 20
1389.5
 30
0.0
 41
44.99999618530273
 42
44.99999618530273
 43
44.99999618530273
 50
90.0
  0
MTEXT
  5
53D
330
536
100
AcDbEntity
  8
寸法
 62
     2
100
AcDbMText
 10
2665.750000089436
 20
1154.499999999998
 30
0.0
 40
59.99999618530273
 41
0.0
 71
     5
 72
     1
  1
470（壁排水）
  7
EXCADDIM1
 11
0.0
 21
1.0
 31
0.0
  0
POINT
  5
53E
330
536
100
AcDbEntity
  8
DEFPOINTS
 62
     0
100
AcDbPoint
 10
2491.00000000003
 20
919.5
 30
0.0
  0
POINT
  5
53F
330
536
100
AcDbEntity
  8
DEFPOINTS
 62
     0
100
AcDbPoint
 10
2541.00000000003
 20
1389.5
 30
0.0
  0
POINT
  5
540
330
536
100
AcDbEntity
  8
DEFPOINTS
 62
     0
100
AcDbPoint
 10
2701.00000000003
 20
1389.5
 30
0.0
  0
ENDBLK
  5
538
330
536
100
AcDbEntity
  8
0
100
AcDbBlockEnd
  0
BLOCK
  5
543
330
542
100
AcDbEntity
  8
0
100
AcDbBlockBegin
  2
*D22
 70
     1
 10
0.0
 20
0.0
 30
0.0
  3
*D22
  1

  0
LINE
  5
545
330
542
100
AcDbEntity
  8
寸法
  6
CONTINUOUS
 62
     3
100
AcDbLine
 10
2501.499999821216
 20
919.5
 30
0.0
 11
2806.00000000003
 21
919.4999999999999
 31
0.0
  0
LINE
  5
546
330
542
100
AcDbEntity
  8
寸法
  6
CONTINUOUS
 62
     3
100
AcDbLine
 10
2534.000005543217
 20
1449.5
 30
0.0
 11
2806.00000000003
 21
1449.5
 31
0.0
  0
LINE
  5
547
330
542
100
AcDbEntity
  8
寸法
  6
CONTINUOUS
 62
     3
100
AcDbLine
 10
2791.00000000003
 20
964.4999961853026
 30
0.0
 11
2791.00000000003
 21
1404.500003814697
 31
0.0
  0
INSERT
  5
548
330
542
100
AcDbEntity
  8
寸法
 62
     3
100
AcDbBlockReference
  2
EX_NORM
 10
2791.00000000003
 20
919.4999999999999
 30
0.0
 41
44.99999618530273
 42
44.99999618530273
 43
44.99999618530273
 50
270.0
  0
INSERT
  5
549
330
542
100
AcDbEntity
  8
寸法
 62
     3
100
AcDbBlockReference
  2
EX_NORM
 10
2791.00000000003
 20
1449.5
 30
0.0
 41
44.99999618530273
 42
44.99999618530273
 43
44.99999618530273
 50
90.0
  0
MTEXT
  5
54A
330
542
100
AcDbEntity
  8
寸法
 62
     2
100
AcDbMText
 10
2755.750000089436
 20
1184.499999999998
 30
0.0
 40
59.99999618530273
 41
0.0
 71
     5
 72
     1
  1
530（壁固定）
  7
EXCADDIM1
 11
0.0
 21
1.0
 31
0.0
  0
POINT
  5
54B
330
542
100
AcDbEntity
  8
DEFPOINTS
 62
     0
100
AcDbPoint
 10
2491.00000000003
 20
919.5
 30
0.0
  0
POINT
  5
54C
330
542
100
AcDbEntity
  8
DEFPOINTS
 62
     0
100
AcDbPoint
 10
2523.50000572203
 20
1449.5
 30
0.0
  0
POINT
  5
54D
330
542
100
AcDbEntity
  8
DEFPOINTS
 62
     0
100
AcDbPoint
 10
2791.00000000003
 20
1449.5
 30
0.0
  0
ENDBLK
  5
544
330
542
100
AcDbEntity
  8
0
100
AcDbBlockEnd
  0
BLOCK
  5
550
330
54F
100
AcDbEntity
  8
0
100
AcDbBlockBegin
  2
*D23
 70
     1
 10
0.0
 20
0.0
 30
0.0
  3
*D23
  1

  0
LINE
  5
552
330
54F
100
AcDbEntity
  8
寸法
  6
CONTINUOUS
 62
     3
100
AcDbLine
 10
996.0000000001303
 20
3885.499999821186
 30
0.0
 11
996.0000000001303
 21
3930.0
 31
0.0
  0
LINE
  5
553
330
54F
100
AcDbEntity
  8
寸法
  6
CONTINUOUS
 62
     3
100
AcDbLine
 10
961.0000000001302
 20
3915.0
 30
0.0
 11
996.0000000001303
 21
3915.0
 31
0.0
  0
LINE
  5
554
330
54F
100
AcDbEntity
  8
寸法
  6
CONTINUOUS
 62
     3
100
AcDbLine
 10
916.0000038148274
 20
3915.0
 30
0.0
 11
871.0000076295247
 21
3915.0
 31
0.0
  0
LINE
  5
555
330
54F
100
AcDbEntity
  8
寸法
  6
CONTINUOUS
 62
     3
100
AcDbLine
 10
1040.999996185433
 20
3915.0
 30
0.0
 11
1085.999992370736
 21
3915.0
 31
0.0
  0
INSERT
  5
556
330
54F
100
AcDbEntity
  8
寸法
 62
     3
100
AcDbBlockReference
  2
EX_NORM
 10
961.0000000001302
 20
3915.0
 30
0.0
 41
44.99999618530273
 42
44.99999618530273
 43
44.99999618530273
  0
INSERT
  5
557
330
54F
100
AcDbEntity
  8
寸法
 62
     3
100
AcDbBlockReference
  2
EX_NORM
 10
996.0000000001303
 20
3915.0
 30
0.0
 41
44.99999618530273
 42
44.99999618530273
 43
44.99999618530273
 50
180.0
  0
MTEXT
  5
558
330
54F
100
AcDbEntity
  8
寸法
 62
     2
100
AcDbMText
 10
751.0000000001304
 20
3950.249999910593
 30
0.0
 40
59.99999618530273
 41
0.0
 71
     5
 72
     1
  1
35（壁排水）
  7
EXCADDIM1
  0
POINT
  5
559
330
54F
100
AcDbEntity
  8
DEFPOINTS
 62
     0
100
AcDbPoint
 10
961.0000000001302
 20
3825.0
 30
0.0
  0
POINT
  5
55A
330
54F
100
AcDbEntity
  8
DEFPOINTS
 62
     0
100
AcDbPoint
 10
996.0000000001303
 20
3875.0
 30
0.0
  0
POINT
  5
55B
330
54F
100
AcDbEntity
  8
DEFPOINTS
 62
     0
100
AcDbPoint
 10
996.0000000001303
 20
3915.0
 30
0.0
  0
ENDBLK
  5
551
330
54F
100
AcDbEntity
  8
0
100
AcDbBlockEnd
  0
BLOCK
  5
55E
330
55D
100
AcDbEntity
  8
0
100
AcDbBlockBegin
  2
*D24
 70
     1
 10
0.0
 20
0.0
 30
0.0
  3
*D24
  1

  0
LINE
  5
560
330
55D
100
AcDbEntity
  8
寸法
  6
CONTINUOUS
 62
     3
100
AcDbLine
 10
661.0000000001303
 20
3519.500000178814
 30
0.0
 11
661.0000000001303
 21
3319.999999999949
 31
0.0
  0
LINE
  5
561
330
55D
100
AcDbEntity
  8
寸法
  6
CONTINUOUS
 62
     3
100
AcDbLine
 10
1261.000000000128
 20
3519.500000178814
 30
0.0
 11
1261.000000000128
 21
3319.999999999949
 31
0.0
  0
LINE
  5
562
330
55D
100
AcDbEntity
  8
寸法
  6
CONTINUOUS
 62
     3
100
AcDbLine
 10
705.999996185433
 20
3334.999999999949
 30
0.0
 11
1216.000003814826
 21
3334.999999999949
 31
0.0
  0
INSERT
  5
563
330
55D
100
AcDbEntity
  8
寸法
 62
     3
100
AcDbBlockReference
  2
EX_NORM
 10
661.0000000001303
 20
3334.999999999949
 30
0.0
 41
44.99999618530273
 42
44.99999618530273
 43
44.99999618530273
 50
180.0
  0
INSERT
  5
564
330
55D
100
AcDbEntity
  8
寸法
 62
     3
100
AcDbBlockReference
  2
EX_NORM
 10
1261.000000000128
 20
3334.999999999949
 30
0.0
 41
44.99999618530273
 42
44.99999618530273
 43
44.99999618530273
  0
MTEXT
  5
565
330
55D
100
AcDbEntity
  8
寸法
 62
     2
100
AcDbMText
 10
961.0000000001296
 20
3370.249999910542
 30
0.0
 40
59.99999618530273
 41
0.0
 71
     5
 72
     1
  1
600
  7
EXCADDIM1
  0
POINT
  5
566
330
55D
100
AcDbEntity
  8
DEFPOINTS
 62
     0
100
AcDbPoint
 10
661.0000000001303
 20
3530.0
 30
0.0
  0
POINT
  5
567
330
55D
100
AcDbEntity
  8
DEFPOINTS
 62
     0
100
AcDbPoint
 10
1261.000000000128
 20
3530.0
 30
0.0
  0
POINT
  5
568
330
55D
100
AcDbEntity
  8
DEFPOINTS
 62
     0
100
AcDbPoint
 10
1261.000000000128
 20
3334.999999999949
 30
0.0
  0
ENDBLK
  5
55F
330
55D
100
AcDbEntity
  8
0
100
AcDbBlockEnd
  0
BLOCK
  5
56B
330
56A
100
AcDbEntity
  8
0
100
AcDbBlockBegin
  2
*D25
 70
     1
 10
0.0
 20
0.0
 30
0.0
  3
*D25
  1

  0
LINE
  5
56D
330
56A
100
AcDbEntity
  8
寸法
  6
CONTINUOUS
 62
     3
100
AcDbLine
 10
1266.499999821315
 20
3525.0
 30
0.0
 11
1396.000000000179
 21
3525.0
 31
0.0
  0
LINE
  5
56E
330
56A
100
AcDbEntity
  8
寸法
  6
CONTINUOUS
 62
     3
100
AcDbLine
 10
1381.000000000179
 20
3569.999996185303
 30
0.0
 11
1381.000000000179
 21
3780.000003814697
 31
0.0
  0
INSERT
  5
56F
330
56A
100
AcDbEntity
  8
寸法
 62
     3
100
AcDbBlockReference
  2
EX_NORM
 10
1381.000000000179
 20
3525.0
 30
0.0
 41
44.99999618530273
 42
44.99999618530273
 43
44.99999618530273
 50
270.0
  0
INSERT
  5
570
330
56A
100
AcDbEntity
  8
寸法
 62
     3
100
AcDbBlockReference
  2
EX_NORM
 10
1381.000000000179
 20
3825.0
 30
0.0
 41
44.99999618530273
 42
44.99999618530273
 43
44.99999618530273
 50
90.0
  0
MTEXT
  5
571
330
56A
100
AcDbEntity
  8
寸法
 62
     2
100
AcDbMText
 10
1345.750000089586
 20
3674.999999999998
 30
0.0
 40
59.99999618530273
 41
0.0
 71
     5
 72
     1
  1
300
  7
EXCADDIM1
 11
0.0
 21
1.0
 31
0.0
  0
POINT
  5
572
330
56A
100
AcDbEntity
  8
DEFPOINTS
 62
     0
100
AcDbPoint
 10
1256.000000000128
 20
3525.0
 30
0.0
  0
POINT
  5
573
330
56A
100
AcDbEntity
  8
DEFPOINTS
 62
     0
100
AcDbPoint
 10
1261.000000000128
 20
3825.0
 30
0.0
  0
POINT
  5
574
330
56A
100
AcDbEntity
  8
DEFPOINTS
 62
     0
100
AcDbPoint
 10
1381.000000000179
 20
3825.0
 30
0.0
  0
ENDBLK
  5
56C
330
56A
100
AcDbEntity
  8
0
100
AcDbBlockEnd
  0
BLOCK
  5
577
330
576
100
AcDbEntity
  8
0
100
AcDbBlockBegin
  2
*D26
 70
     1
 10
0.0
 20
0.0
 30
0.0
  3
*D26
  1

  0
LINE
  5
579
330
576
100
AcDbEntity
  8
寸法
  6
CONTINUOUS
 62
     3
100
AcDbLine
 10
971.4999998213162
 20
3455.0
 30
0.0
 11
1486.000000000179
 21
3455.0
 31
0.0
  0
LINE
  5
57A
330
576
100
AcDbEntity
  8
寸法
  6
CONTINUOUS
 62
     3
100
AcDbLine
 10
1471.000000000179
 20
3499.999996185303
 30
0.0
 11
1471.000000000179
 21
3780.000003814697
 31
0.0
  0
INSERT
  5
57B
330
576
100
AcDbEntity
  8
寸法
 62
     3
100
AcDbBlockReference
  2
EX_NORM
 10
1471.000000000179
 20
3455.0
 30
0.0
 41
44.99999618530273
 42
44.99999618530273
 43
44.99999618530273
 50
270.0
  0
INSERT
  5
57C
330
576
100
AcDbEntity
  8
寸法
 62
     3
100
AcDbBlockReference
  2
EX_NORM
 10
1471.000000000179
 20
3825.0
 30
0.0
 41
44.99999618530273
 42
44.99999618530273
 43
44.99999618530273
 50
90.0
  0
MTEXT
  5
57D
330
576
100
AcDbEntity
  8
寸法
 62
     2
100
AcDbMText
 10
1435.750000089586
 20
3639.999999999998
 30
0.0
 40
59.99999618530273
 41
0.0
 71
     5
 72
     1
  1
370
  7
EXCADDIM1
 11
0.0
 21
1.0
 31
0.0
  0
POINT
  5
57E
330
576
100
AcDbEntity
  8
DEFPOINTS
 62
     0
100
AcDbPoint
 10
961.0000000001302
 20
3455.0
 30
0.0
  0
POINT
  5
57F
330
576
100
AcDbEntity
  8
DEFPOINTS
 62
     0
100
AcDbPoint
 10
1261.000000000128
 20
3825.0
 30
0.0
  0
POINT
  5
580
330
576
100
AcDbEntity
  8
DEFPOINTS
 62
     0
100
AcDbPoint
 10
1471.000000000179
 20
3825.0
 30
0.0
  0
ENDBLK
  5
578
330
576
100
AcDbEntity
  8
0
100
AcDbBlockEnd
  0
BLOCK
  5
583
330
582
100
AcDbEntity
  8
0
100
AcDbBlockBegin
  2
*D27
 70
     1
 10
0.0
 20
0.0
 30
0.0
  3
*D27
  1

  0
LINE
  5
585
330
582
100
AcDbEntity
  8
寸法
  6
CONTINUOUS
 62
     3
100
AcDbLine
 10
735.9999999999702
 20
2678.799999821185
 30
0.0
 11
735.9999999999702
 21
2863.499999999999
 31
0.0
  0
LINE
  5
586
330
582
100
AcDbEntity
  8
寸法
  6
CONTINUOUS
 62
     3
100
AcDbLine
 10
1185.99999999997
 20
2678.799999821185
 30
0.0
 11
1185.99999999997
 21
2863.499999999999
 31
0.0
  0
LINE
  5
587
330
582
100
AcDbEntity
  8
寸法
  6
CONTINUOUS
 62
     3
100
AcDbLine
 10
780.999996185273
 20
2848.499999999999
 30
0.0
 11
1141.000003814667
 21
2848.499999999999
 31
0.0
  0
INSERT
  5
588
330
582
100
AcDbEntity
  8
寸法
 62
     3
100
AcDbBlockReference
  2
EX_NORM
 10
735.9999999999702
 20
2848.499999999999
 30
0.0
 41
44.99999618530273
 42
44.99999618530273
 43
44.99999618530273
 50
180.0
  0
INSERT
  5
589
330
582
100
AcDbEntity
  8
寸法
 62
     3
100
AcDbBlockReference
  2
EX_NORM
 10
1185.99999999997
 20
2848.499999999999
 30
0.0
 41
44.99999618530273
 42
44.99999618530273
 43
44.99999618530273
  0
MTEXT
  5
58A
330
582
100
AcDbEntity
  8
寸法
 62
     2
100
AcDbMText
 10
960.9999999999704
 20
2883.749999910592
 30
0.0
 40
59.99999618530273
 41
0.0
 71
     5
 72
     1
  1
450
  7
EXCADDIM1
  0
POINT
  5
58B
330
582
100
AcDbEntity
  8
DEFPOINTS
 62
     0
100
AcDbPoint
 10
735.9999999999702
 20
2668.299999999999
 30
0.0
  0
POINT
  5
58C
330
582
100
AcDbEntity
  8
DEFPOINTS
 62
     0
100
AcDbPoint
 10
1185.99999999997
 20
2668.299999999999
 30
0.0
  0
POINT
  5
58D
330
582
100
AcDbEntity
  8
DEFPOINTS
 62
     0
100
AcDbPoint
 10
1185.99999999997
 20
2848.499999999999
 30
0.0
  0
ENDBLK
  5
584
330
582
100
AcDbEntity
  8
0
100
AcDbBlockEnd
  0
BLOCK
  5
590
330
58F
100
AcDbEntity
  8
0
100
AcDbBlockBegin
  2
*D28
 70
     1
 10
0.0
 20
0.0
 30
0.0
  3
*D28
  1

  0
LINE
  5
592
330
58F
100
AcDbEntity
  8
寸法
  6
CONTINUOUS
 62
     3
100
AcDbLine
 10
810.9999999999702
 20
2631.799999821185
 30
0.0
 11
810.9999999999702
 21
2747.499999999999
 31
0.0
  0
LINE
  5
593
330
58F
100
AcDbEntity
  8
寸法
  6
CONTINUOUS
 62
     3
100
AcDbLine
 10
1110.99999999997
 20
2631.799999821185
 30
0.0
 11
1110.99999999997
 21
2747.499999999999
 31
0.0
  0
LINE
  5
594
330
58F
100
AcDbEntity
  8
寸法
  6
CONTINUOUS
 62
     3
100
AcDbLine
 10
855.999996185273
 20
2732.499999999999
 30
0.0
 11
1066.000003814667
 21
2732.499999999999
 31
0.0
  0
INSERT
  5
595
330
58F
100
AcDbEntity
  8
寸法
 62
     3
100
AcDbBlockReference
  2
EX_NORM
 10
810.9999999999702
 20
2732.499999999999
 30
0.0
 41
44.99999618530273
 42
44.99999618530273
 43
44.99999618530273
 50
180.0
  0
INSERT
  5
596
330
58F
100
AcDbEntity
  8
寸法
 62
     3
100
AcDbBlockReference
  2
EX_NORM
 10
1110.99999999997
 20
2732.499999999999
 30
0.0
 41
44.99999618530273
 42
44.99999618530273
 43
44.99999618530273
  0
MTEXT
  5
597
330
58F
100
AcDbEntity
  8
寸法
 62
     2
100
AcDbMText
 10
960.9999999999704
 20
2767.749999910592
 30
0.0
 40
59.99999618530273
 41
0.0
 71
     5
 72
     1
  1
300（壁固定）
  7
EXCADDIM1
  0
POINT
  5
598
330
58F
100
AcDbEntity
  8
DEFPOINTS
 62
     0
100
AcDbPoint
 10
810.9999999999702
 20
2621.299999999999
 30
0.0
  0
POINT
  5
599
330
58F
100
AcDbEntity
  8
DEFPOINTS
 62
     0
100
AcDbPoint
 10
1110.99999999997
 20
2621.299999999999
 30
0.0
  0
POINT
  5
59A
330
58F
100
AcDbEntity
  8
DEFPOINTS
 62
     0
100
AcDbPoint
 10
1110.99999999997
 20
2732.499999999999
 30
0.0
  0
ENDBLK
  5
591
330
58F
100
AcDbEntity
  8
0
100
AcDbBlockEnd
  0
BLOCK
  5
59D
330
59C
100
AcDbEntity
  8
0
100
AcDbBlockBegin
  2
*D29
 70
     1
 10
0.0
 20
0.0
 30
0.0
  3
*D29
  1

  0
LINE
  5
59F
330
59C
100
AcDbEntity
  8
寸法
  6
CONTINUOUS
 62
     3
100
AcDbLine
 10
1194.999999821156
 20
2167.099999999999
 30
0.0
 11
1486.000000000068
 21
2167.099999999999
 31
0.0
  0
LINE
  5
5A0
330
59C
100
AcDbEntity
  8
寸法
  6
CONTINUOUS
 62
     3
100
AcDbLine
 10
1471.000000000068
 20
2212.099996185301
 30
0.0
 11
1471.000000000068
 21
2624.500003814697
 31
0.0
  0
INSERT
  5
5A1
330
59C
100
AcDbEntity
  8
寸法
 62
     3
100
AcDbBlockReference
  2
EX_NORM
 10
1471.000000000068
 20
2167.099999999999
 30
0.0
 41
44.99999618530273
 42
44.99999618530273
 43
44.99999618530273
 50
270.0
  0
INSERT
  5
5A2
330
59C
100
AcDbEntity
  8
寸法
 62
     3
100
AcDbBlockReference
  2
EX_NORM
 10
1471.000000000068
 20
2669.5
 30
0.0
 41
44.99999618530273
 42
44.99999618530273
 43
44.99999618530273
 50
90.0
  0
MTEXT
  5
5A3
330
59C
100
AcDbEntity
  8
寸法
 62
     2
100
AcDbMText
 10
1435.750000089476
 20
2418.299999999998
 30
0.0
 40
59.99999618530273
 41
0.0
 71
     5
 72
     1
  1
503
  7
EXCADDIM1
 11
0.0
 21
1.0
 31
0.0
  0
POINT
  5
5A4
330
59C
100
AcDbEntity
  8
DEFPOINTS
 62
     0
100
AcDbPoint
 10
1184.49999999997
 20
2167.099999999999
 30
0.0
  0
POINT
  5
5A5
330
59C
100
AcDbEntity
  8
DEFPOINTS
 62
     0
100
AcDbPoint
 10
1184.49999999997
 20
2669.5
 30
0.0
  0
POINT
  5
5A6
330
59C
100
AcDbEntity
  8
DEFPOINTS
 62
     0
100
AcDbPoint
 10
1471.000000000068
 20
2669.5
 30
0.0
  0
ENDBLK
  5
59E
330
59C
100
AcDbEntity
  8
0
100
AcDbBlockEnd
  0
BLOCK
  5
5A9
330
5A8
100
AcDbEntity
  8
0
100
AcDbBlockBegin
  2
*D30
 70
     1
 10
0.0
 20
0.0
 30
0.0
  3
*D30
  1

  0
LINE
  5
5AB
330
5A8
100
AcDbEntity
  8
寸法
  6
CONTINUOUS
 62
     3
100
AcDbLine
 10
1260.999999999976
 20
2669.5
 30
0.0
 11
1565.99999999997
 21
2669.5
 31
0.0
  0
LINE
  5
5AC
330
5A8
100
AcDbEntity
  8
寸法
  6
CONTINUOUS
 62
     3
100
AcDbLine
 10
1565.99999999997
 20
964.4999961853018
 30
0.0
 11
1565.99999999997
 21
2624.500003814697
 31
0.0
  0
INSERT
  5
5AD
330
5A8
100
AcDbEntity
  8
寸法
 62
     3
100
AcDbBlockReference
  2
EX_NORM
 10
1565.99999999997
 20
919.4999999999991
 30
0.0
 41
44.99999618530273
 42
44.99999618530273
 43
44.99999618530273
 50
270.0
  0
INSERT
  5
5AE
330
5A8
100
AcDbEntity
  8
寸法
 62
     3
100
AcDbBlockReference
  2
EX_NORM
 10
1565.99999999997
 20
2669.5
 30
0.0
 41
44.99999618530273
 42
44.99999618530273
 43
44.99999618530273
 50
90.0
  0
MTEXT
  5
5AF
330
5A8
100
AcDbEntity
  8
寸法
 62
     2
100
AcDbMText
 10
1528.49999999997
 20
1794.499999999999
 30
0.0
 40
59.99999618530273
 41
0.0
 71
     5
 72
     1
  1
（1750）
  7
EXCADDIM1
 11
0.0
 21
1.0
 31
0.0
  0
POINT
  5
5B0
330
5A8
100
AcDbEntity
  8
DEFPOINTS
 62
     0
100
AcDbPoint
 10
1243.000000000076
 20
919.4999999999991
 30
0.0
  0
POINT
  5
5B1
330
5A8
100
AcDbEntity
  8
DEFPOINTS
 62
     0
100
AcDbPoint
 10
1260.999999999976
 20
2669.5
 30
0.0
  0
POINT
  5
5B2
330
5A8
100
AcDbEntity
  8
DEFPOINTS
 62
     0
100
AcDbPoint
 10
1565.99999999997
 20
2669.5
 30
0.0
  0
ENDBLK
  5
5AA
330
5A8
100
AcDbEntity
  8
0
100
AcDbBlockEnd
  0
BLOCK
  5
5B5
330
5B4
100
AcDbEntity
  8
0
100
AcDbBlockBegin
  2
*D31
 70
     1
 10
0.0
 20
0.0
 30
0.0
  3
*D31
  1

  0
LINE
  5
5B7
330
5B4
100
AcDbEntity
  8
寸法
  6
CONTINUOUS
 62
     3
100
AcDbLine
 10
2369.800000000038
 20
2679.999999821186
 30
0.0
 11
2369.800000000038
 21
2749.499999999999
 31
0.0
  0
LINE
  5
5B8
330
5B4
100
AcDbEntity
  8
寸法
  6
CONTINUOUS
 62
     3
100
AcDbLine
 10
2414.799996185341
 20
2734.499999999999
 30
0.0
 11
2446.000003814736
 21
2734.499999999999
 31
0.0
  0
INSERT
  5
5B9
330
5B4
100
AcDbEntity
  8
寸法
 62
     3
100
AcDbBlockReference
  2
EX_NORM
 10
2369.800000000038
 20
2734.499999999999
 30
0.0
 41
44.99999618530273
 42
44.99999618530273
 43
44.99999618530273
 50
180.0
  0
INSERT
  5
5BA
330
5B4
100
AcDbEntity
  8
寸法
 62
     3
100
AcDbBlockReference
  2
EX_NORM
 10
2491.000000000039
 20
2734.499999999999
 30
0.0
 41
44.99999618530273
 42
44.99999618530273
 43
44.99999618530273
  0
MTEXT
  5
5BB
330
5B4
100
AcDbEntity
  8
寸法
 62
     2
100
AcDbMText
 10
2604.550000000038
 20
2769.749999910592
 30
0.0
 40
59.99999618530273
 41
0.0
 71
     5
 72
     1
  1
122
  7
EXCADDIM1
  0
POINT
  5
5BC
330
5B4
100
AcDbEntity
  8
DEFPOINTS
 62
     0
100
AcDbPoint
 10
2369.800000000038
 20
2669.5
 30
0.0
  0
POINT
  5
5BD
330
5B4
100
AcDbEntity
  8
DEFPOINTS
 62
     0
100
AcDbPoint
 10
2491.000000000039
 20
2663.299999999999
 30
0.0
  0
POINT
  5
5BE
330
5B4
100
AcDbEntity
  8
DEFPOINTS
 62
     0
100
AcDbPoint
 10
2491.000000000039
 20
2734.499999999999
 30
0.0
  0
ENDBLK
  5
5B6
330
5B4
100
AcDbEntity
  8
0
100
AcDbBlockEnd
  0
BLOCK
  5
5C1
330
5C0
100
AcDbEntity
  8
0
100
AcDbBlockBegin
  2
*D32
 70
     1
 10
0.0
 20
0.0
 30
0.0
  3
*D32
  1

  0
LINE
  5
5C3
330
5C0
100
AcDbEntity
  8
寸法
  6
CONTINUOUS
 62
     3
100
AcDbLine
 10
2400.299999821224
 20
2669.499999999999
 30
0.0
 11
2911.00000000001
 21
2669.499999999999
 31
0.0
  0
LINE
  5
5C4
330
5C0
100
AcDbEntity
  8
寸法
  6
CONTINUOUS
 62
     3
100
AcDbLine
 10
2896.00000000001
 20
2613.299999999999
 30
0.0
 11
2896.00000000001
 21
2669.499999999999
 31
0.0
  0
LINE
  5
5C5
330
5C0
100
AcDbEntity
  8
寸法
  6
CONTINUOUS
 62
     3
100
AcDbLine
 10
2896.00000000001
 20
2568.300003814697
 30
0.0
 11
2896.00000000001
 21
2523.300007629394
 31
0.0
  0
LINE
  5
5C6
330
5C0
100
AcDbEntity
  8
寸法
  6
CONTINUOUS
 62
     3
100
AcDbLine
 10
2896.00000000001
 20
2714.499996185302
 30
0.0
 11
2896.00000000001
 21
2759.499992370605
 31
0.0
  0
INSERT
  5
5C7
330
5C0
100
AcDbEntity
  8
寸法
 62
     3
100
AcDbBlockReference
  2
EX_NONE
 10
2896.00000000001
 20
2613.299999999999
 30
0.0
 41
44.99999618530273
 42
44.99999618530273
 43
44.99999618530273
 50
90.0
  0
INSERT
  5
5C8
330
5C0
100
AcDbEntity
  8
寸法
 62
     3
100
AcDbBlockReference
  2
EX_NORM
 10
2896.00000000001
 20
2669.499999999999
 30
0.0
 41
44.99999618530273
 42
44.99999618530273
 43
44.99999618530273
 50
270.0
  0
MTEXT
  5
5C9
330
5C0
100
AcDbEntity
  8
寸法
 62
     2
100
AcDbMText
 10
2860.750000089417
 20
2764.699999999998
 30
0.0
 40
59.99999618530273
 41
0.0
 71
     5
 72
     1
  1
56
  7
EXCADDIM1
 11
-3.035887853477192E-14
 21
1.0
 31
0.0
  0
POINT
  5
5CA
330
5C0
100
AcDbEntity
  8
DEFPOINTS
 62
     0
100
AcDbPoint
 10
2524.20000000004
 20
2613.299999999999
 30
0.0
  0
POINT
  5
5CB
330
5C0
100
AcDbEntity
  8
DEFPOINTS
 62
     0
100
AcDbPoint
 10
2389.800000000038
 20
2669.499999999999
 30
0.0
  0
POINT
  5
5CC
330
5C0
100
AcDbEntity
  8
DEFPOINTS
 62
     0
100
AcDbPoint
 10
2896.00000000001
 20
2669.499999999999
 30
0.0
  0
ENDBLK
  5
5C2
330
5C0
100
AcDbEntity
  8
0
100
AcDbBlockEnd
  0
BLOCK
  5
5CF
330
5CE
100
AcDbEntity
  8
0
100
AcDbBlockBegin
  2
*D33
 70
     1
 10
0.0
 20
0.0
 30
0.0
  3
*D33
  1

  0
LINE
  5
5D1
330
5CE
100
AcDbEntity
  8
寸法
  6
CONTINUOUS
 62
     3
100
AcDbLine
 10
2534.699999821226
 20
2613.299999999999
 30
0.0
 11
2911.00000000001
 21
2613.299999999999
 31
0.0
  0
LINE
  5
5D2
330
5CE
100
AcDbEntity
  8
寸法
  6
CONTINUOUS
 62
     3
100
AcDbLine
 10
2896.00000000001
 20
2278.299996185302
 30
0.0
 11
2896.00000000001
 21
2568.300003814697
 31
0.0
  0
INSERT
  5
5D3
330
5CE
100
AcDbEntity
  8
寸法
 62
     3
100
AcDbBlockReference
  2
EX_NORM
 10
2896.00000000001
 20
2233.299999999999
 30
0.0
 41
44.99999618530273
 42
44.99999618530273
 43
44.99999618530273
 50
270.0
  0
INSERT
  5
5D4
330
5CE
100
AcDbEntity
  8
寸法
 62
     3
100
AcDbBlockReference
  2
EX_NORM
 10
2896.00000000001
 20
2613.299999999999
 30
0.0
 41
44.99999618530273
 42
44.99999618530273
 43
44.99999618530273
 50
90.0
  0
MTEXT
  5
5D5
330
5CE
100
AcDbEntity
  8
寸法
 62
     2
100
AcDbMText
 10
2860.750000089417
 20
2423.299999999999
 30
0.0
 40
59.99999618530273
 41
0.0
 71
     5
 72
     1
  1
380（壁固定）
  7
EXCADDIM1
 11
0.0
 21
1.0
 31
0.0
  0
POINT
  5
5D6
330
5CE
100
AcDbEntity
  8
DEFPOINTS
 62
     0
100
AcDbPoint
 10
2524.20000000004
 20
2233.299999999999
 30
0.0
  0
POINT
  5
5D7
330
5CE
100
AcDbEntity
  8
DEFPOINTS
 62
     0
100
AcDbPoint
 10
2524.20000000004
 20
2613.299999999999
 30
0.0
  0
POINT
  5
5D8
330
5CE
100
AcDbEntity
  8
DEFPOINTS
 62
     0
100
AcDbPoint
 10
2896.00000000001
 20
2613.299999999999
 30
0.0
  0
ENDBLK
  5
5D0
330
5CE
100
AcDbEntity
  8
0
100
AcDbBlockEnd
  0
BLOCK
  5
5DB
330
5DA
100
AcDbEntity
  8
0
100
AcDbBlockBegin
  2
*D34
 70
     1
 10
0.0
 20
0.0
 30
0.0
  3
*D34
  1

  0
LINE
  5
5DD
330
5DA
100
AcDbEntity
  8
寸法
  6
CONTINUOUS
 62
     3
100
AcDbLine
 10
2511.999999642295
 20
919.4999999999991
 30
0.0
 11
2911.499999999908
 21
919.4999999999991
 31
0.0
  0
LINE
  5
5DE
330
5DA
100
AcDbEntity
  8
寸法
  6
CONTINUOUS
 62
     3
100
AcDbLine
 10
2545.199999642397
 20
2233.299999999999
 30
0.0
 11
2911.499999999908
 21
2233.299999999999
 31
0.0
  0
LINE
  5
5DF
330
5DA
100
AcDbEntity
  8
寸法
  6
CONTINUOUS
 62
     3
100
AcDbLine
 10
2896.499999999908
 20
964.4999961853018
 30
0.0
 11
2896.499999999908
 21
2188.300003814697
 31
0.0
  0
INSERT
  5
5E0
330
5DA
100
AcDbEntity
  8
寸法
 62
     3
100
AcDbBlockReference
  2
EX_NORM
 10
2896.499999999908
 20
919.4999999999991
 30
0.0
 41
44.99999618530273
 42
44.99999618530273
 43
44.99999618530273
 50
270.0
  0
INSERT
  5
5E1
330
5DA
100
AcDbEntity
  8
寸法
 62
     3
100
AcDbBlockReference
  2
EX_NORM
 10
2896.499999999908
 20
2233.299999999999
 30
0.0
 41
44.99999618530273
 42
44.99999618530273
 43
44.99999618530273
 50
90.0
  0
MTEXT
  5
5E2
330
5DA
100
AcDbEntity
  8
寸法
 62
     2
100
AcDbMText
 10
2861.250000089315
 20
1576.399999999999
 30
0.0
 40
59.99999618530273
 41
0.0
 71
     5
 72
     1
  1
（1314）
  7
EXCADDIM1
 11
0.0
 21
1.0
 31
0.0
  0
POINT
  5
5E3
330
5DA
100
AcDbEntity
  8
DEFPOINTS
 62
     0
100
AcDbPoint
 10
2501.499999821109
 20
919.4999999999991
 30
0.0
  0
POINT
  5
5E4
330
5DA
100
AcDbEntity
  8
DEFPOINTS
 62
     0
100
AcDbPoint
 10
2534.699999821211
 20
2233.299999999999
 30
0.0
  0
POINT
  5
5E5
330
5DA
100
AcDbEntity
  8
DEFPOINTS
 62
     0
100
AcDbPoint
 10
2896.499999999908
 20
2233.299999999999
 30
0.0
  0
ENDBLK
  5
5DC
330
5DA
100
AcDbEntity
  8
0
100
AcDbBlockEnd
  0
BLOCK
  5
5E8
330
5E7
100
AcDbEntity
  8
0
100
AcDbBlockBegin
  2
*D35
 70
     1
 10
0.0
 20
0.0
 30
0.0
  3
*D35
  1

  0
LINE
  5
5EA
330
5E7
100
AcDbEntity
  8
寸法
  6
CONTINUOUS
 62
     3
100
AcDbLine
 10
961.00000000013
 20
3845.999999642386
 30
0.0
 11
961.00000000013
 21
4020.0
 31
0.0
  0
LINE
  5
5EB
330
5E7
100
AcDbEntity
  8
寸法
  6
CONTINUOUS
 62
     3
100
AcDbLine
 10
1171.00000000017
 20
3853.999999642386
 30
0.0
 11
1171.00000000017
 21
4020.0
 31
0.0
  0
LINE
  5
5EC
330
5E7
100
AcDbEntity
  8
寸法
  6
CONTINUOUS
 62
     3
100
AcDbLine
 10
1005.999996185433
 20
4005.0
 30
0.0
 11
1126.000003814867
 21
4005.0
 31
0.0
  0
INSERT
  5
5ED
330
5E7
100
AcDbEntity
  8
寸法
 62
     3
100
AcDbBlockReference
  2
EX_NORM
 10
961.00000000013
 20
4005.0
 30
0.0
 41
44.99999618530273
 42
44.99999618530273
 43
44.99999618530273
 50
180.0
  0
INSERT
  5
5EE
330
5E7
100
AcDbEntity
  8
寸法
 62
     3
100
AcDbBlockReference
  2
EX_NORM
 10
1171.00000000017
 20
4005.0
 30
0.0
 41
44.99999618530273
 42
44.99999618530273
 43
44.99999618530273
  0
MTEXT
  5
5EF
330
5E7
100
AcDbEntity
  8
寸法
 62
     2
100
AcDbMText
 10
1384.000000000191
 20
4040.249999910593
 30
0.0
 40
59.99999618530273
 41
0.0
 71
     5
 72
     1
  1
210（壁給水）
  7
EXCADDIM1
  0
POINT
  5
5F0
330
5E7
100
AcDbEntity
  8
DEFPOINTS
 62
     0
100
AcDbPoint
 10
961.00000000013
 20
3835.4999998212
 30
0.0
  0
POINT
  5
5F1
330
5E7
100
AcDbEntity
  8
DEFPOINTS
 62
     0
100
AcDbPoint
 10
1171.00000000017
 20
3843.4999998212
 30
0.0
  0
POINT
  5
5F2
330
5E7
100
AcDbEntity
  8
DEFPOINTS
 62
     0
100
AcDbPoint
 10
1171.00000000017
 20
4005.0
 30
0.0
  0
ENDBLK
  5
5E9
330
5E7
100
AcDbEntity
  8
0
100
AcDbBlockEnd
  0
BLOCK
  5
5F5
330
5F4
100
AcDbEntity
  8
0
100
AcDbBlockBegin
  2
*D36
 70
     1
 10
0.0
 20
0.0
 30
0.0
  3
*D36
  1

  0
LINE
  5
5F7
330
5F4
100
AcDbEntity
  8
寸法
  6
CONTINUOUS
 62
     3
100
AcDbLine
 10
961.00000000003
 20
859.0000001787939
 30
0.0
 11
961.00000000003
 21
694.5
 31
0.0
  0
LINE
  5
5F8
330
5F4
100
AcDbEntity
  8
寸法
  6
CONTINUOUS
 62
     3
100
AcDbLine
 10
1171.00000000007
 20
890.5000003576239
 30
0.0
 11
1171.00000000007
 21
694.5
 31
0.0
  0
LINE
  5
5F9
330
5F4
100
AcDbEntity
  8
寸法
  6
CONTINUOUS
 62
     3
100
AcDbLine
 10
1005.999996185333
 20
709.5
 30
0.0
 11
1126.000003814767
 21
709.5
 31
0.0
  0
INSERT
  5
5FA
330
5F4
100
AcDbEntity
  8
寸法
 62
     3
100
AcDbBlockReference
  2
EX_NORM
 10
961.00000000003
 20
709.5
 30
0.0
 41
44.99999618530273
 42
44.99999618530273
 43
44.99999618530273
 50
180.0
  0
INSERT
  5
5FB
330
5F4
100
AcDbEntity
  8
寸法
 62
     3
100
AcDbBlockReference
  2
EX_NORM
 10
1171.00000000007
 20
709.5
 30
0.0
 41
44.99999618530273
 42
44.99999618530273
 43
44.99999618530273
  0
MTEXT
  5
5FC
330
5F4
100
AcDbEntity
  8
寸法
 62
     2
100
AcDbMText
 10
1388.50000000009
 20
744.749999910593
 30
0.0
 40
59.99999618530273
 41
0.0
 71
     5
 72
     1
  1
210（床給水）
  7
EXCADDIM1
  0
POINT
  5
5FD
330
5F4
100
AcDbEntity
  8
DEFPOINTS
 62
     0
100
AcDbPoint
 10
961.00000000003
 20
869.49999999998
 30
0.0
  0
POINT
  5
5FE
330
5F4
100
AcDbEntity
  8
DEFPOINTS
 62
     0
100
AcDbPoint
 10
1171.00000000007
 20
901.00000017881
 30
0.0
  0
POINT
  5
5FF
330
5F4
100
AcDbEntity
  8
DEFPOINTS
 62
     0
100
AcDbPoint
 10
1171.00000000007
 20
709.5
 30
0.0
  0
ENDBLK
  5
5F6
330
5F4
100
AcDbEntity
  8
0
100
AcDbBlockEnd
  0
ENDSEC
  0
SECTION
  2
ENTITIES
  0
LINE
  5
A9
330
1F
100
AcDbEntity
  8
枠_表
  6
CONTINUOUS
 62
     7
100
AcDbLine
 10
261.0000000000293
 20
139.4999999999993
 30
0.0
 11
2991.00000000003
 21
139.4999999999993
 31
0.0
  0
HATCH
  5
AA
330
1F
100
AcDbEntity
  8
枠_表
  6
CONTINUOUS
 62
     3
100
AcDbHatch
 10
0.0
 20
0.0
 30
0.0
210
0.0
220
0.0
230
1.0
  2
SOLID
 70
     1
 71
     1
 91
        1
 92
        3
 72
     1
 73
     1
 93
       10
 10
1162.087898599909
 20
184.82548994631
 42
-0.017362223501556
 10
1162.219523599908
 20
264.2763649463099
 42
-0.0267627618865285
 10
1162.219523599908
 20
264.2763649463111
 42
0.0737939047395297
 10
1181.598773599909
 20
264.3573649463108
 42
0.0183878899657109
 10
1180.819148599908
 20
192.7229899463116
 42
-0.1144749489451909
 10
1177.680398599907
 20
177.636739946309
 42
-0.1929163439413163
 10
1162.746023599909
 20
165.9119899463099
 42
-0.0603888289562337
 10
1154.828273599908
 20
163.9376149463101
 42
0.0
 10
1152.975398599908
 20
169.5772399463091
 42
0.0860918333465722
 10
1158.513773599908
 20
172.52361494631
 42
0.1331843103855141
 97
        0
 75
     0
 76
     1
 98
        1
 10
0.0
 20
0.0
  0
HATCH
  5
AB
330
1F
100
AcDbEntity
  8
枠_表
  6
CONTINUOUS
 62
     3
100
AcDbHatch
 10
0.0
 20
0.0
 30
0.0
210
0.0
220
0.0
230
1.0
  2
SOLID
 70
     1
 71
     1
 91
        1
 92
        3
 72
     1
 73
     1
 93
       16
 10
1250.803148599908
 20
183.1548649463109
 42
-0.0386228372648426
 10
1250.712023599908
 20
231.967489946311
 42
-0.0398707891902887
 10
1259.571398599909
 20
232.0079899463121
 42
-0.1256886216044368
 10
1259.166398599908
 20
223.725739946312
 42
-0.0367815758121429
 10
1259.166398599908
 20
223.7257399463099
 42
-0.268021535028829
 10
1277.03702359991
 20
233.0002399463111
 42
-0.2571134422124888
 10
1289.257898599908
 20
226.9556149463115
 42
-0.1522526366014298
 10
1292.366273599909
 20
216.9014899463101
 42
-0.0158825412051521
 10
1292.143523599906
 20
183.1042399463118
 42
-0.0285251271418421
 10
1283.587898599909
 20
183.1042399463092
 42
-0.0452212723224612
 10
1284.023273599909
 20
214.3297399463106
 42
-0.0315567291532142
 10
1281.370523599908
 20
223.5536149463122
 42
-0.1476272403790709
 10
1264.097273599908
 20
224.8799899463091
 42
-0.3908144705745794
 10
1259.227148599908
 20
212.760364946309
 42
-0.2046259928850854
 10
1259.227148599908
 20
212.7603649463106
 42
0.0
 10
1259.98652359991
 20
183.0738649463112
 42
-0.0304995761723369
 97
        0
 75
     0
 76
     1
 98
        1
 10
0.0
 20
0.0
  0
HATCH
  5
AC
330
1F
100
AcDbEntity
  8
枠_表
  6
CONTINUOUS
 62
     3
100
AcDbHatch
 10
0.0
 20
0.0
 30
0.0
210
0.0
220
0.0
230
1.0
  2
SOLID
 70
     1
 71
     1
 91
        2
 92
        1
 93
        1
 72
     2
 10
1314.428271057536
 20
249.8753200310557
 40
5.358501700154826
 50
0.0
 51
360.0
 73
     1
 97
        0
 92
        3
 72
     1
 73
     1
 93
        3
 10
1309.639523599908
 20
232.0484899463118
 42
0.1200283885712921
 10
1318.954523599907
 20
183.0941149463105
 42
-0.0401820615762149
 10
1309.649648599908
 20
183.0637399463094
 42
-0.0237521668114666
 97
        0
 75
     0
 76
     1
 98
        1
 10
0.0
 20
0.0
  0
HATCH
  5
AD
330
1F
100
AcDbEntity
  8
枠_表
  6
CONTINUOUS
 62
     3
100
AcDbHatch
 10
0.0
 20
0.0
 30
0.0
210
0.0
220
0.0
230
1.0
  2
SOLID
 70
     1
 71
     1
 91
        1
 92
        3
 72
     1
 73
     1
 93
       30
 10
1361.601023599908
 20
230.0032399463128
 42
-0.0009362235736497
 10
1361.601023599906
 20
230.0032399463103
 42
0.0681165430304653
 10
1359.145640230131
 20
222.6423649463095
 42
0.0
 10
1349.896523599909
 20
228.9704899463122
 42
-0.302112590907374
 10
1349.896523599908
 20
228.9704899463095
 42
0.0
 10
1340.571398599908
 20
221.822239946312
 42
-0.3704245237568778
 10
1340.571398599907
 20
221.8222399463116
 42
0.0
 10
1341.057398599909
 20
217.0432399463103
 42
-0.0262822419456939
 10
1346.808398599909
 20
212.4464899463116
 42
-0.180060563604375
 10
1355.981648599909
 20
209.6519899463096
 42
-0.0298130817160724
 10
1355.981648599909
 20
209.6519899463108
 42
-0.3153987453686078
 10
1364.43602359991
 20
199.9826149463104
 42
0.0
 10
1364.385398599909
 20
195.6592399463116
 42
-0.3510306079065168
 10
1348.084148599909
 20
181.990489946312
 42
0.0
 10
1343.325398599908
 20
181.9904899463108
 42
-0.1053356344842436
 10
1332.795398599908
 20
185.0279899463112
 42
0.1188608286962634
 10
1334.719148599908
 20
192.7229899463123
 42
0.0
 10
1346.261648599909
 20
185.6354899463113
 42
-0.2447573632916039
 10
1346.261648599908
 20
185.6354899463111
 42
0.0
 10
1357.399148599909
 20
193.4317399463096
 42
-0.3734162676407277
 10
1357.399148599909
 20
193.43173994631
 42
0.0
 10
1353.359273599908
 20
201.2178649463096
 42
-0.261219770190848
 10
1343.932898599908
 20
204.6401149463114
 42
-0.0572747914118363
 10
1343.93289859991
 20
204.6401149463095
 42
-0.1189658875692221
 10
1336.440398599907
 20
209.0343649463096
 42
-0.2005226878639636
 10
1333.301648599907
 20
216.1117399463433
 42
0.0
 10
1333.251023599909
 20
218.794864946309
 42
-0.2622894489606957
 10
1341.300398599909
 20
231.0967399463106
 42
-0.0988461274137808
 10
1348.833398599908
 20
232.909114946309
 42
0.0
 10
1351.627898599907
 20
232.9091149463105
 42
-0.0920156312561188
 97
        0
 75
     0
 76
     1
 98
        1
 10
0.0
 20
0.0
  0
HATCH
  5
AE
330
1F
100
AcDbEntity
  8
枠_表
  6
CONTINUOUS
 62
     3
100
AcDbHatch
 10
0.0
 20
0.0
 30
0.0
210
0.0
220
0.0
230
1.0
  2
SOLID
 70
     1
 71
     1
 91
        2
 92
        3
 72
     1
 73
     1
 93
       27
 10
1200.259148599908
 20
227.0467399463097
 42
-0.1769427732109284
 10
1200.259148599908
 20
227.0467399463098
 42
0.0
 10
1200.259148599908
 20
221.5792399463112
 42
0.0
 10
1201.575398599909
 20
221.5792399463107
 42
-0.207533601427307
 10
1210.121134184388
 20
227.9898538693564
 42
-0.1226604740888933
 10
1217.674148599909
 20
228.1503649463112
 42
-0.3213715781137954
 10
1225.482492033347
 20
218.5659771567722
 42
-0.064704004662446
 10
1225.521023599909
 20
213.4994899463109
 42
-0.257798906330806
 10
1223.931398599909
 20
211.57573994631
 42
-0.056602577721096
 10
1220.529398599908
 20
210.3911149463123
 42
-0.0166741689362636
 10
1208.055398599909
 20
208.0218649463094
 42
0.1186092302783404
 10
1199.823773599909
 20
204.0731149463118
 42
0.1699204224386695
 10
1196.239523599908
 20
198.07911494631
 42
0.1006533494296199
 10
1195.908130019405
 20
192.8780332643591
 42
0.1675695228968024
 10
1199.155523599909
 20
185.9088649463119
 42
0.1376980079804242
 10
1205.058398599908
 20
182.4967399463105
 42
0.0719813663796923
 10
1207.741523599907
 20
182.0512399463121
 42
0.0
 10
1211.852273599908
 20
182.0512399463122
 42
0.1944607457809085
 10
1225.490648599909
 20
189.0678649463093
 42
0.1288538183665954
 10
1226.867648599907
 20
185.6253649463115
 42
0.2098387395261546
 10
1231.363148599909
 20
183.1447399463104
 42
0.0
 10
1234.623398599909
 20
183.1244899463105
 42
0.0945009641609563
 10
1239.331523599909
 20
184.126864946312
 42
0.0
 10
1239.331523599908
 20
186.4859899463093
 42
-0.2395739894657535
 10
1235.22077359991
 20
186.445489946309
 42
-0.2502312110031057
 10
1233.195773599906
 20
190.252489946313
 42
-0.0104343570771765
 10
1233.46914859991
 20
218.6429899463118
 42
0.4051015674140716
 97
        0
 92
        3
 72
     1
 73
     1
 93
        8
 10
1225.703273599908
 20
208.5382399463092
 42
-0.0339435190873666
 10
1225.703273599916
 20
208.5382399462927
 42
-0.0001110072973599
 10
1225.27802359991
 20
193.026739946309
 42
-0.2253076310552528
 10
1214.646773599908
 20
185.9291149463115
 42
0.0
 10
1212.044648599907
 20
185.9291149463098
 42
-0.3657967558150132
 10
1204.309148599908
 20
194.1506149463112
 42
0.0
 10
1204.309148599909
 20
197.0868649463121
 42
-0.2530797830369341
 10
1209.533648599908
 20
204.3161149463117
 42
-0.0724473624720066
 97
        0
 75
     0
 76
     1
 98
        1
 10
0.0
 20
0.0
  0
TEXT
  5
B0
330
1F
100
AcDbEntity
  8
枠_表
  6
CONTINUOUS
 62
     2
100
AcDbText
 10
1384.500000000038
 20
174.7500000000014
 30
0.0
 40
50.625
  1
ジャニス工業株式会社
 41
1.025641025641025
  7
EXCADTTF1
 72
     5
 11
2059.500000000037
 21
174.7500000000014
 31
0.0
100
AcDbText
  0
ARC
  5
B1
330
1F
100
AcDbEntity
  8
枠_表
  6
CONTINUOUS
 62
     3
100
AcDbCircle
 10
1216.902798618862
 20
206.4250933390315
 30
0.0
 40
26.50025272990596
100
AcDbArc
 50
88.77000393305703
 51
128.9068631829044
  0
ARC
  5
B2
330
1F
100
AcDbEntity
  8
枠_表
  6
CONTINUOUS
 62
     3
100
AcDbCircle
 10
1218.105940890453
 20
217.5287438959981
 30
0.0
 40
15.40356112671885
100
AcDbArc
 50
4.148222840814693
 51
92.36000944257292
  0
ARC
  5
B3
330
1F
100
AcDbEntity
  8
枠_表
  6
CONTINUOUS
 62
     3
100
AcDbCircle
 10
1913.475203758096
 20
197.8985765897608
 30
0.0
 40
680.3223983798493
100
AcDbArc
 50
178.2526643324597
 51
180.6439560401927
  0
ARC
  5
B4
330
1F
100
AcDbEntity
  8
枠_表
  6
CONTINUOUS
 62
     3
100
AcDbCircle
 10
1237.773598416939
 20
190.2454393170694
 30
0.0
 40
4.577830246610835
100
AcDbArc
 50
179.9117548191414
 51
236.1065985968857
  0
ARC
  5
B5
330
1F
100
AcDbEntity
  8
枠_表
  6
CONTINUOUS
 62
     3
100
AcDbCircle
 10
1237.236311768728
 20
190.5091783111618
 30
0.0
 40
4.5360728870472
100
AcDbArc
 50
243.6191685566582
 51
297.5097757939563
  0
LINE
  5
B6
330
1F
100
AcDbEntity
  8
枠_表
  6
CONTINUOUS
 62
     3
100
AcDbLine
 10
1239.331523599909
 20
184.126864946312
 30
0.0
 11
1239.331523599909
 21
186.485989946309
 31
0.0
  0
LINE
  5
B7
330
1F
100
AcDbEntity
  8
枠_表
  6
CONTINUOUS
 62
     3
100
AcDbLine
 10
1231.363148599909
 20
183.1447399463104
 30
0.0
 11
1234.623398599908
 21
183.1447399463104
 31
0.0
  0
ARC
  5
B8
330
1F
100
AcDbEntity
  8
枠_表
  6
CONTINUOUS
 62
     3
100
AcDbCircle
 10
1234.349383791872
 20
195.969676923454
 30
0.0
 40
12.84810930031341
100
AcDbArc
 50
271.2220539293239
 51
292.8159509797653
  0
ARC
  5
B9
330
1F
100
AcDbEntity
  8
枠_表
  6
CONTINUOUS
 62
     3
100
AcDbCircle
 10
1231.940660262252
 20
189.5051184792953
 30
0.0
 40
6.38654325930597
100
AcDbArc
 50
217.4081478714985
 51
264.8118660441384
  0
ARC
  5
BA
330
1F
100
AcDbEntity
  8
枠_表
  6
CONTINUOUS
 62
     3
100
AcDbCircle
 10
1232.74733408378
 20
189.9738891398579
 30
0.0
 40
7.31302701014583
100
AcDbArc
 50
187.1167640402297
 51
216.4860549324747
  0
ARC
  5
BB
330
1F
100
AcDbEntity
  8
枠_表
  6
CONTINUOUS
 62
     3
100
AcDbCircle
 10
1209.991956880084
 20
202.430103938525
 30
0.0
 40
20.46359880155898
100
AcDbArc
 50
275.2158792069686
 51
319.2336424873511
  0
LINE
  5
BC
330
1F
100
AcDbEntity
  8
枠_表
  6
CONTINUOUS
 62
     3
100
AcDbLine
 10
1207.741523599907
 20
182.0512399463121
 30
0.0
 11
1211.852273599909
 21
182.0512399463121
 31
0.0
  0
ARC
  5
BD
330
1F
100
AcDbEntity
  8
枠_表
  6
CONTINUOUS
 62
     3
100
AcDbCircle
 10
1207.939219610547
 20
191.5445241581108
 30
0.0
 40
9.49534248137679
100
AcDbArc
 50
252.3384873625213
 51
268.8069976857606
  0
ARC
  5
BE
330
1F
100
AcDbEntity
  8
枠_表
  6
CONTINUOUS
 62
     3
100
AcDbCircle
 10
1208.184442955566
 20
194.7166657158903
 30
0.0
 40
12.61343486634549
100
AcDbArc
 50
224.289750990011
 51
255.6505938786759
  0
ARC
  5
BF
330
1F
100
AcDbEntity
  8
枠_表
  6
CONTINUOUS
 62
     3
100
AcDbCircle
 10
1207.637299937358
 20
194.1022532359295
 30
0.0
 40
11.79288520689435
100
AcDbArc
 50
185.9586126338419
 51
224.0091989319859
  0
ARC
  5
C0
330
1F
100
AcDbEntity
  8
枠_表
  6
CONTINUOUS
 62
     3
100
AcDbCircle
 10
1208.861252785532
 20
194.6638068821608
 30
0.0
 40
13.07564058883004
100
AcDbArc
 50
164.8589457925044
 51
187.8495628504518
  0
ARC
  5
C1
330
1F
100
AcDbEntity
  8
枠_表
  6
CONTINUOUS
 62
     3
100
AcDbCircle
 10
1206.595856854556
 20
195.954949875121
 30
0.0
 40
10.57193055836883
100
AcDbArc
 50
129.8344892359069
 51
168.4089447024628
  0
ARC
  5
C2
330
1F
100
AcDbEntity
  8
枠_表
  6
CONTINUOUS
 62
     3
100
AcDbCircle
 10
1212.145520801401
 20
188.941272222429
 30
0.0
 40
19.5140492547738
100
AcDbArc
 50
102.0988446293839
 51
129.1556705448828
  0
ARC
  5
C3
330
1F
100
AcDbEntity
  8
枠_表
  6
CONTINUOUS
 62
     3
100
AcDbCircle
 10
1178.779514997901
 20
396.1803044662827
 30
0.0
 40
190.4223614055573
100
AcDbArc
 50
278.8438342053764
 51
282.6649181367123
  0
ARC
  5
C4
330
1F
100
AcDbEntity
  8
枠_表
  6
CONTINUOUS
 62
     3
100
AcDbCircle
 10
1217.014957516667
 20
225.9611044033113
 30
0.0
 40
15.96170002909176
100
AcDbArc
 50
282.7195832898965
 51
295.6781112778079
  0
ARC
  5
C5
330
1F
100
AcDbEntity
  8
枠_表
  6
CONTINUOUS
 62
     3
100
AcDbCircle
 10
1222.984643351035
 20
213.9766998756431
 30
0.0
 40
2.580882423421965
100
AcDbArc
 50
291.5204897073511
 51
349.3445900274031
  0
ARC
  5
C6
330
1F
100
AcDbEntity
  8
枠_表
  6
CONTINUOUS
 62
     3
100
AcDbCircle
 10
1206.008081035018
 20
215.8844805562694
 30
0.0
 40
19.65815626528382
100
AcDbArc
 50
353.0315250986587
 51
7.839947970678348
  0
ARC
  5
C7
330
1F
100
AcDbEntity
  8
枠_表
  6
CONTINUOUS
 62
     3
100
AcDbCircle
 10
1214.892511922687
 20
217.9112829230132
 30
0.0
 40
10.61019807939003
100
AcDbArc
 50
3.537639967999379
 51
74.8013566619203
  0
ARC
  5
C8
330
1F
100
AcDbEntity
  8
枠_表
  6
CONTINUOUS
 62
     3
100
AcDbCircle
 10
1214.219864369779
 20
212.9075745769524
 30
0.0
 40
15.62929101996345
100
AcDbArc
 50
77.23143261361693
 51
105.203415964315
  0
ARC
  5
C9
330
1F
100
AcDbEntity
  8
枠_表
  6
CONTINUOUS
 62
     3
100
AcDbCircle
 10
1213.238042655482
 20
214.9335287786823
 30
0.0
 40
13.42321657765079
100
AcDbArc
 50
103.4267945469744
 51
150.3242613737993
  0
LINE
  5
CA
330
1F
100
AcDbEntity
  8
枠_表
  6
CONTINUOUS
 62
     3
100
AcDbLine
 10
1200.259148599908
 20
227.0467399463098
 30
0.0
 11
1200.259148599908
 21
221.5792399463112
 31
0.0
  0
ARC
  5
CB
330
1F
100
AcDbEntity
  8
枠_表
  6
CONTINUOUS
 62
     3
100
AcDbCircle
 10
1057.715934784095
 20
190.1014142884173
 30
0.0
 40
104.505225747009
100
AcDbArc
 50
353.1274757312911
 51
357.106204490141
  0
ARC
  5
CC
330
1F
100
AcDbEntity
  8
枠_表
  6
CONTINUOUS
 62
     3
100
AcDbCircle
 10
420.50782818443
 20
225.7796003758244
 30
0.0
 40
742.7100645598513
100
AcDbArc
 50
356.8390243485978
 51
2.971133813187157
  0
ARC
  5
CD
330
1F
100
AcDbEntity
  8
枠_表
  6
CONTINUOUS
 62
     3
100
AcDbCircle
 10
1150.639107974436
 20
180.5111277709364
 30
0.0
 40
11.2165377829595
100
AcDbArc
 50
314.592391474832
 51
344.9374073189123
  0
ARC
  5
CE
330
1F
100
AcDbEntity
  8
枠_表
  6
CONTINUOUS
 62
     3
100
AcDbCircle
 10
1147.25209345285
 20
187.0139789168968
 30
0.0
 40
18.35200500585038
100
AcDbArc
 50
288.1715191042997
 51
307.8537826235693
  0
LINE
  5
CF
330
1F
100
AcDbEntity
  8
枠_表
  6
CONTINUOUS
 62
     3
100
AcDbLine
 10
1154.828273599908
 20
163.9376149463101
 30
0.0
 11
1152.975398599909
 21
169.577239946309
 31
0.0
  0
ARC
  5
D0
330
1F
100
AcDbEntity
  8
枠_表
  6
CONTINUOUS
 62
     3
100
AcDbCircle
 10
1150.643362480031
 20
197.5834729373071
 30
0.0
 40
33.90512116232043
100
AcDbArc
 50
277.0901027239701
 51
290.9134154817058
  0
ARC
  5
D1
330
1F
100
AcDbEntity
  8
枠_表
  6
CONTINUOUS
 62
     3
100
AcDbCircle
 10
1155.584599182855
 20
190.4075277940228
 30
0.0
 40
25.52092032294173
100
AcDbArc
 50
286.2966123578915
 51
329.973223283839
  0
ARC
  5
D2
330
1F
100
AcDbEntity
  8
枠_表
  6
CONTINUOUS
 62
     3
100
AcDbCircle
 10
1146.734904268625
 20
191.944703532015
 30
0.0
 40
34.09312894671467
100
AcDbArc
 50
335.1860595856123
 51
1.308075913059364
  0
ARC
  5
D3
330
1F
100
AcDbEntity
  8
枠_表
  6
CONTINUOUS
 62
     3
100
AcDbCircle
 10
2154.813797120185
 20
217.9440541426277
 30
0.0
 40
974.3211367025408
100
AcDbArc
 50
177.2695926307304
 51
181.4833117237826
  0
ARC
  5
D4
330
1F
100
AcDbEntity
  8
枠_表
  6
CONTINUOUS
 62
     3
100
AcDbCircle
 10
1171.636230018374
 20
329.6126355783338
 30
0.0
 40
66.01138250235698
100
AcDbArc
 50
261.7986203004403
 51
278.6803384946418
  0
ARC
  5
D5
330
1F
100
AcDbEntity
  8
枠_表
  6
CONTINUOUS
 62
     3
100
AcDbCircle
 10
1208.408414903092
 20
268.1252071740744
 30
0.0
 40
62.04610222041025
100
AcDbArc
 50
278.4088456599976
 51
286.1851416003176
  0
ARC
  5
D6
330
1F
100
AcDbEntity
  8
枠_表
  6
CONTINUOUS
 62
     3
100
AcDbCircle
 10
1221.849097763688
 20
178.2478294001976
 30
0.0
 40
28.83098679232812
100
AcDbArc
 50
98.71271710191789
 51
115.2874718053599
  0
ARC
  5
D7
330
1F
100
AcDbEntity
  8
枠_表
  6
CONTINUOUS
 62
     3
100
AcDbCircle
 10
1213.60528002571
 20
195.8711218570784
 30
0.0
 40
9.375291501855795
100
AcDbArc
 50
115.7403688633493
 51
172.5491744442191
  0
LINE
  5
D8
330
1F
100
AcDbEntity
  8
枠_表
  6
CONTINUOUS
 62
     3
100
AcDbLine
 10
1204.309148599908
 20
197.0868649463091
 30
0.0
 11
1204.309148599908
 21
194.1506149463112
 31
0.0
  0
ARC
  5
D9
330
1F
100
AcDbEntity
  8
枠_表
  6
CONTINUOUS
 62
     3
100
AcDbCircle
 10
1213.043948023344
 20
194.6192070146662
 30
0.0
 40
8.747359572704955
100
AcDbArc
 50
183.0707787095794
 51
263.4402016072427
  0
LINE
  5
DA
330
1F
100
AcDbEntity
  8
枠_表
  6
CONTINUOUS
 62
     3
100
AcDbLine
 10
1212.044648599907
 20
185.9291149463115
 30
0.0
 11
1214.646773599908
 21
185.9291149463115
 31
0.0
  0
ARC
  5
DB
330
1F
100
AcDbEntity
  8
枠_表
  6
CONTINUOUS
 62
     3
100
AcDbCircle
 10
1212.486703614921
 20
200.6754734295293
 30
0.0
 40
14.90372405996874
100
AcDbArc
 50
278.3335103000368
 51
329.1221464187299
  0
ARC
  5
DC
330
1F
100
AcDbEntity
  8
枠_表
  6
CONTINUOUS
 62
     3
100
AcDbCircle
 10
-33708.02313326599
 20
1158.489786838173
 30
0.0
 40
34946.64001890887
100
AcDbArc
 50
358.4169008257799
 51
358.4423418242109
  0
ARC
  5
DD
330
1F
100
AcDbEntity
  8
枠_表
  6
CONTINUOUS
 62
     3
100
AcDbCircle
 10
1254.87131701043
 20
123.7603881767564
 30
0.0
 40
59.53363641627745
100
AcDbArc
 50
85.07099551674689
 51
93.91830029343228
  0
ARC
  5
DE
330
1F
100
AcDbEntity
  8
枠_表
  6
CONTINUOUS
 62
     3
100
AcDbCircle
 10
1370.11328684269
 20
196.3725220514721
 30
0.0
 40
110.9268148967239
100
AcDbArc
 50
179.8977458165987
 51
186.8855675734268
  0
ARC
  5
DF
330
1F
100
AcDbEntity
  8
枠_表
  6
CONTINUOUS
 62
     3
100
AcDbCircle
 10
1275.849258354993
 20
213.1192837707067
 30
0.0
 40
16.62598434477196
100
AcDbArc
 50
134.9787476233347
 51
181.2369872983282
  0
ARC
  5
E0
330
1F
100
AcDbEntity
  8
枠_表
  6
CONTINUOUS
 62
     3
100
AcDbCircle
 10
1272.015021780862
 20
214.8549409708016
 30
0.0
 40
12.77467585570504
100
AcDbArc
 50
42.91644474042847
 51
128.3015542351336
  0
ARC
  5
E1
330
1F
100
AcDbEntity
  8
枠_表
  6
CONTINUOUS
 62
     3
100
AcDbCircle
 10
1267.417110685312
 20
214.5472708232342
 30
0.0
 40
16.60758761616231
100
AcDbArc
 50
359.2495022237244
 51
32.84055016678327
  0
ARC
  5
E2
330
1F
100
AcDbEntity
  8
枠_表
  6
CONTINUOUS
 62
     3
100
AcDbCircle
 10
1036.676006797495
 20
202.1627006823689
 30
0.0
 40
247.6463350002882
100
AcDbArc
 50
355.5862454873798
 51
2.816115806820253
  0
ARC
  5
E3
330
1F
100
AcDbEntity
  8
枠_表
  6
CONTINUOUS
 62
     3
100
AcDbCircle
 10
1287.865711099909
 20
135.902289288415
 30
0.0
 40
47.39539878190116
100
AcDbArc
 50
84.82155189294139
 51
95.17844810705873
  0
ARC
  5
E4
330
1F
100
AcDbEntity
  8
枠_表
  6
CONTINUOUS
 62
     3
100
AcDbCircle
 10
1536.986450492578
 20
194.8601062108708
 30
0.0
 40
245.1249869780733
100
AcDbArc
 50
176.2131780319488
 51
182.7488833337936
  0
ARC
  5
E5
330
1F
100
AcDbEntity
  8
枠_表
  6
CONTINUOUS
 62
     3
100
AcDbCircle
 10
1200.287040181542
 20
213.4973662218204
 30
0.0
 40
92.14213631800438
100
AcDbArc
 50
358.4775281223095
 51
2.117232414210064
  0
ARC
  5
E6
330
1F
100
AcDbEntity
  8
枠_表
  6
CONTINUOUS
 62
     3
100
AcDbCircle
 10
1274.685827301757
 20
216.9428913677291
 30
0.0
 40
17.68049477190885
100
AcDbArc
 50
359.8658335690532
 51
34.49363429411157
  0
ARC
  5
E7
330
1F
100
AcDbEntity
  8
枠_表
  6
CONTINUOUS
 62
     3
100
AcDbCircle
 10
1277.658608612099
 20
218.8806997196991
 30
0.0
 40
14.1332156333331
100
AcDbArc
 50
34.84393737091607
 51
92.5207065423111
  0
ARC
  5
E8
330
1F
100
AcDbEntity
  8
枠_表
  6
CONTINUOUS
 62
     3
100
AcDbCircle
 10
1276.131160350415
 20
212.8913983227892
 30
0.0
 40
20.1292349498589
100
AcDbArc
 50
87.42068310381028
 51
147.4361518966862
  0
ARC
  5
E9
330
1F
100
AcDbEntity
  8
枠_表
  6
CONTINUOUS
 62
     3
100
AcDbCircle
 10
1315.586209109457
 20
225.1178522074588
 30
0.0
 40
56.43698250687272
100
AcDbArc
 50
172.9875214416311
 51
181.4134392789641
  0
ARC
  5
EA
330
1F
100
AcDbEntity
  8
枠_表
  6
CONTINUOUS
 62
     3
100
AcDbCircle
 10
1255.062427479219
 20
249.3310319721741
 30
0.0
 40
17.90024037819024
100
AcDbArc
 50
255.9341994177206
 51
284.5896440601899
  0
ARC
  5
EB
330
1F
100
AcDbEntity
  8
枠_表
  6
CONTINUOUS
 62
     3
100
AcDbCircle
 10
945.1765483007717
 20
206.9907088007619
 30
0.0
 40
306.5546709196609
100
AcDbArc
 50
355.5405243117485
 51
4.673398698656258
  0
LINE
  5
EC
330
1F
100
AcDbEntity
  8
枠_表
  6
CONTINUOUS
 62
     3
100
AcDbLine
 10
1259.227148599908
 20
212.7603649463106
 30
0.0
 11
1259.227148599908
 21
196.5704899463117
 31
0.0
  0
CIRCLE
  5
ED
330
1F
100
AcDbEntity
  8
枠_表
  6
CONTINUOUS
 62
     3
100
AcDbCircle
 10
1314.428271057536
 20
249.8753200310557
 30
0.0
 40
5.358501700154835
  0
ARC
  5
EE
330
1F
100
AcDbEntity
  8
枠_表
  6
CONTINUOUS
 62
     3
100
AcDbCircle
 10
1314.218411404192
 20
251.2998711537125
 30
0.0
 40
19.7884282326031
100
AcDbArc
 50
256.6209501743446
 51
283.9984576255729
  0
ARC
  5
EF
330
1F
100
AcDbEntity
  8
枠_表
  6
CONTINUOUS
 62
     3
100
AcDbCircle
 10
1314.621613405734
 20
85.1970627618482
 30
0.0
 40
97.99289227876633
100
AcDbArc
 50
87.46575055044718
 51
92.90832285102188
  0
ARC
  5
F0
330
1F
100
AcDbEntity
  8
枠_表
  6
CONTINUOUS
 62
     3
100
AcDbCircle
 10
1623.381070769367
 20
207.2821508609081
 30
0.0
 40
305.38595858835
100
AcDbArc
 50
175.3387608397566
 51
184.5428594926176
  0
ARC
  5
F1
330
1F
100
AcDbEntity
  8
枠_表
  6
CONTINUOUS
 62
     3
100
AcDbCircle
 10
977.535086304613
 20
207.4874689149362
 30
0.0
 40
333.0114127553719
100
AcDbArc
 50
355.7940354718673
 51
4.229650257234378
  0
ARC
  5
F2
330
1F
100
AcDbEntity
  8
枠_表
  6
CONTINUOUS
 62
     3
100
AcDbCircle
 10
1832.466679849255
 20
1447.544614944631
 30
0.0
 40
1305.420034344473
100
AcDbArc
 50
248.6422112053103
 51
248.8567777804232
  0
ARC
  5
F3
330
1F
100
AcDbEntity
  8
枠_表
  6
CONTINUOUS
 62
     3
100
AcDbCircle
 10
1351.281424269118
 20
217.7494557545924
 30
0.0
 40
15.16361801388235
100
AcDbArc
 50
67.66151957087348
 51
88.69073168448988
  0
ARC
  5
F4
330
1F
100
AcDbEntity
  8
枠_表
  6
CONTINUOUS
 62
     3
100
AcDbCircle
 10
1349.656656642619
 20
213.146864690641
 30
0.0
 40
19.79962298051288
100
AcDbArc
 50
92.38301574576484
 51
114.9635286746436
  0
ARC
  5
F5
330
1F
100
AcDbEntity
  8
枠_表
  6
CONTINUOUS
 62
     3
100
AcDbCircle
 10
1348.194524519975
 20
217.8013936652781
 30
0.0
 40
14.97648840463785
100
AcDbArc
 50
117.4083995939977
 51
176.1964688215695
  0
ARC
  5
F6
330
1F
100
AcDbEntity
  8
枠_表
  6
CONTINUOUS
 62
     3
100
AcDbCircle
 10
1343.339888688932
 20
216.3289153613277
 30
0.0
 40
10.04058908858416
100
AcDbArc
 50
181.2393899443581
 51
226.5942921332421
  0
ARC
  5
F7
330
1F
100
AcDbEntity
  8
枠_表
  6
CONTINUOUS
 62
     3
100
AcDbCircle
 10
1349.290221869958
 20
222.3594616510013
 30
0.0
 40
18.51151426169351
100
AcDbArc
 50
226.0402388947521
 51
253.1776672992999
  0
ARC
  5
F8
330
1F
100
AcDbEntity
  8
枠_表
  6
CONTINUOUS
 62
     3
100
AcDbCircle
 10
1333.757233774597
 20
161.9185712632816
 30
0.0
 40
43.91667620959131
100
AcDbArc
 50
63.49050203733571
 51
76.60259219849584
  0
ARC
  5
F9
330
1F
100
AcDbEntity
  8
枠_表
  6
CONTINUOUS
 62
     3
100
AcDbCircle
 10
1350.462006878083
 20
194.9769338149736
 30
0.0
 40
6.88065228328521
100
AcDbArc
 50
6.53892419415897
 51
65.09756080693691
  0
ARC
  5
FA
330
1F
100
AcDbEntity
  8
枠_表
  6
CONTINUOUS
 62
     3
100
AcDbCircle
 10
1348.55366661701
 20
194.5503545635734
 30
0.0
 40
8.91593237815014
100
AcDbArc
 50
270.8867385422408
 51
352.7925382056677
  0
ARC
  5
FB
330
1F
100
AcDbEntity
  8
枠_表
  6
CONTINUOUS
 62
     3
100
AcDbCircle
 10
1347.954156485263
 20
198.9987959666075
 30
0.0
 40
13.47006053193791
100
AcDbArc
 50
207.7689879465537
 51
262.7817283832026
  0
ARC
  5
FC
330
1F
100
AcDbEntity
  8
枠_表
  6
CONTINUOUS
 62
     3
100
AcDbCircle
 10
1345.189508188949
 20
208.2234865216537
 30
0.0
 40
26.2991447367003
100
AcDbArc
 50
241.8829576087176
 51
265.9354096935781
  0
ARC
  5
FD
330
1F
100
AcDbEntity
  8
枠_表
  6
CONTINUOUS
 62
     3
100
AcDbCircle
 10
1347.699582970167
 20
199.0038700677076
 30
0.0
 40
17.01772587270968
100
AcDbArc
 50
271.2948770866743
 51
348.6654156292868
  0
ARC
  5
FE
330
1F
100
AcDbEntity
  8
枠_表
  6
CONTINUOUS
 62
     3
100
AcDbCircle
 10
1353.306858193826
 20
198.7825887797362
 30
0.0
 40
11.19367613594409
100
AcDbArc
 50
6.154262763177246
 51
76.17509904255616
  0
ARC
  5
FF
330
1F
100
AcDbEntity
  8
枠_表
  6
CONTINUOUS
 62
     3
100
AcDbCircle
 10
1374.807700453842
 20
287.9038965755251
 30
0.0
 40
80.4846638777502
100
AcDbArc
 50
249.6420733479936
 51
256.4727051201885
  0
ARC
  5
100
330
1F
100
AcDbEntity
  8
枠_表
  6
CONTINUOUS
 62
     3
100
AcDbCircle
 10
1350.10820285815
 20
222.4707962649927
 30
0.0
 40
10.55345561005776
100
AcDbArc
 50
210.9501336849607
 51
251.7794729821079
  0
ARC
  5
101
330
1F
100
AcDbEntity
  8
枠_表
  6
CONTINUOUS
 62
     3
100
AcDbCircle
 10
1360.954711099928
 20
224.0734774463158
 30
0.0
 40
21.102779059401
100
AcDbArc
 50
193.4375782160214
 51
199.459638038058
  0
ARC
  5
102
330
1F
100
AcDbEntity
  8
枠_表
  6
CONTINUOUS
 62
     3
100
AcDbCircle
 10
1348.552644729113
 20
220.901249206189
 30
0.0
 40
8.034208966558964
100
AcDbArc
 50
92.11404364449162
 51
173.4175047026091
  0
ARC
  5
103
330
1F
100
AcDbEntity
  8
枠_表
  6
CONTINUOUS
 62
     3
100
AcDbCircle
 10
1349.122100869159
 20
219.8143854437512
 30
0.0
 40
9.188796451533795
100
AcDbArc
 50
17.92452211681263
 51
85.16543319077402
  0
LINE
  5
104
330
1F
100
AcDbEntity
  8
枠_表
  6
CONTINUOUS
 62
     3
100
AcDbLine
 10
1351.627898599909
 20
232.909114946309
 30
0.0
 11
1348.833398599908
 21
232.909114946309
 31
0.0
  0
LINE
  5
105
330
1F
100
AcDbEntity
  8
枠_表
  6
CONTINUOUS
 62
     3
100
AcDbLine
 10
1346.261648599908
 20
185.6354899463111
 30
0.0
 11
1348.69164859991
 21
185.6354899463111
 31
0.0
  0
LINE
  5
106
330
1F
100
AcDbEntity
  8
枠_表
  6
CONTINUOUS
 62
     3
100
AcDbLine
 10
1336.03539859991
 20
192.7229899463123
 30
0.0
 11
1334.719148599908
 21
192.7229899463123
 31
0.0
  0
LINE
  5
107
330
1F
100
AcDbEntity
  8
枠_表
  6
CONTINUOUS
 62
     3
100
AcDbLine
 10
1343.325398599908
 20
181.990489946312
 30
0.0
 11
1348.084148599909
 21
181.990489946312
 31
0.0
  0
LINE
  5
108
330
1F
100
AcDbEntity
  8
枠_表
  6
CONTINUOUS
 62
     3
100
AcDbLine
 10
1200.259148599908
 20
221.5792399463112
 30
0.0
 11
1201.575398599909
 21
221.5792399463112
 31
0.0
  0
ARC
  5
109
330
1F
100
AcDbEntity
  8
枠_表
  6
CONTINUOUS
 62
     3
100
AcDbCircle
 10
1317.801619698174
 20
192.8669639347504
 30
0.0
 40
16.91930610118257
100
AcDbArc
 50
332.3987521421788
 51
359.5124385477116
  0
LINE
  5
10A
330
1F
100
AcDbEntity
  8
枠_表
  6
CONTINUOUS
 62
     3
100
AcDbLine
 10
1357.297898599908
 20
195.7604899463104
 30
0.0
 11
1357.399148599909
 21
193.43173994631
 31
0.0
  0
LINE
  5
10B
330
1F
100
AcDbEntity
  8
枠_表
  6
CONTINUOUS
 62
     3
100
AcDbLine
 10
1364.43602359991
 20
199.9826149463104
 30
0.0
 11
1364.385398599908
 21
195.6592399463102
 31
0.0
  0
LINE
  5
10C
330
1F
100
AcDbEntity
  8
枠_表
  6
CONTINUOUS
 62
     3
100
AcDbLine
 10
1340.571398599907
 20
221.8222399463116
 30
0.0
 11
1340.429648599908
 21
219.1694899463107
 31
0.0
  0
LINE
  5
10D
330
1F
100
AcDbEntity
  8
枠_表
  6
CONTINUOUS
 62
     3
100
AcDbLine
 10
1333.251023599909
 20
218.7948649463101
 30
0.0
 11
1333.301648599907
 21
216.1117399463433
 31
0.0
  0
LINE
  5
10E
330
1F
100
AcDbEntity
  8
枠_表
  6
CONTINUOUS
 62
     3
100
AcDbLine
 10
1348.256273599907
 20
228.9299899463094
 30
0.0
 11
1349.896523599908
 21
228.9704899463095
 31
0.0
  0
LINE
  5
10F
330
1F
100
AcDbEntity
  8
枠_表
  6
CONTINUOUS
 62
     3
100
AcDbLine
 10
1357.864898599909
 20
222.6423649463095
 30
0.0
 11
1359.145640230131
 21
222.6423649463095
 31
0.0
  0
ARC
  5
110
330
1F
100
AcDbEntity
  8
枠_表
  6
CONTINUOUS
 62
     3
100
AcDbCircle
 10
1387.263721603338
 20
217.3529156261236
 30
0.0
 40
28.61127005606746
100
AcDbArc
 50
153.7591918158497
 51
169.3462759801917
  0
TEXT
  5
111
330
1F
100
AcDbEntity
  8
枠_表
  6
CONTINUOUS
 62
     2
100
AcDbText
 10
2826.805664100033
 20
391.0841674500011
 30
0.0
 40
44.99999618530273
  1
１
 41
1.101333426694527
  7
EXCADSTD
 72
     5
 11
2862.205664100033
 21
391.0841674500011
 31
0.0
100
AcDbText
  0
TEXT
  5
112
330
1F
100
AcDbEntity
  8
枠_表
  6
CONTINUOUS
 62
     2
100
AcDbText
 10
294.7500000000327
 20
400.125001907348
 30
0.0
 40
63.74999618530273
  1
製図
 41
1.509694103275157
  7
EXCADSTD
 72
     5
 11
445.9889895103781
 21
400.125001907348
 31
0.0
100
AcDbText
  0
TEXT
  5
113
330
1F
100
AcDbEntity
  8
枠_表
  6
CONTINUOUS
 62
     2
100
AcDbText
 10
527.2500000000327
 20
400.125001907348
 30
0.0
 40
63.74999618530273
  1
写図
 41
1.509694103275156
  7
EXCADSTD
 72
     5
 11
678.4889895103781
 21
400.125001907348
 31
0.0
100
AcDbText
  0
TEXT
  5
114
330
1F
100
AcDbEntity
  8
枠_表
  6
CONTINUOUS
 62
     2
100
AcDbText
 10
752.2500000000344
 20
400.125001907348
 30
0.0
 40
63.74999618530273
  1
検図
 41
1.303826737454632
  7
EXCADSTD
 72
     5
 11
882.8654921327935
 21
400.125001907348
 31
0.0
100
AcDbText
  0
TEXT
  5
115
330
1F
100
AcDbEntity
  8
枠_表
  6
CONTINUOUS
 62
     2
100
AcDbText
 10
947.2500000000327
 20
400.125001907348
 30
0.0
 40
63.74999618530273
  1
承認
 41
1.303826737454632
  7
EXCADSTD
 72
     5
 11
1077.865492132792
 21
400.125001907348
 31
0.0
100
AcDbText
  0
TEXT
  5
116
330
1F
100
AcDbEntity
  8
枠_表
  6
CONTINUOUS
 62
     2
100
AcDbText
 10
1124.625000000033
 20
385.125001907348
 30
0.0
 40
63.74999618530273
  1
品
 41
1.119999999999999
  7
EXCADSTD
 72
     5
 11
1175.624996948276
 21
385.125001907348
 31
0.0
100
AcDbText
  0
TEXT
  5
117
330
1F
100
AcDbEntity
  8
枠_表
  6
CONTINUOUS
 62
     2
100
AcDbText
 10
1124.625000000033
 20
310.125001907348
 30
0.0
 40
63.74999618530273
  1
名
 41
1.119999999999999
  7
EXCADSTD
 72
     5
 11
1175.624996948276
 21
310.125001907348
 31
0.0
100
AcDbText
  0
TEXT
  5
118
330
1F
100
AcDbEntity
  8
枠_表
  6
CONTINUOUS
 62
     2
100
AcDbText
 10
2084.625000000034
 20
385.125001907348
 30
0.0
 40
63.74999618530273
  1
品
 41
1.120000000000004
  7
EXCADSTD
 72
     5
 11
2135.624996948276
 21
385.125001907348
 31
0.0
100
AcDbText
  0
TEXT
  5
119
330
1F
100
AcDbEntity
  8
枠_表
  6
CONTINUOUS
 62
     2
100
AcDbText
 10
2084.625000000034
 20
310.125001907348
 30
0.0
 40
63.74999618530273
  1
番
 41
1.120000000000004
  7
EXCADSTD
 72
     5
 11
2135.624996948276
 21
310.125001907348
 31
0.0
100
AcDbText
  0
TEXT
  5
11A
330
1F
100
AcDbEntity
  8
枠_表
  6
CONTINUOUS
 62
     2
100
AcDbText
 10
2716.125000000032
 20
385.125001907348
 30
0.0
 40
63.74999618530273
  1
尺
 41
1.120000000000004
  7
EXCADSTD
 72
     5
 11
2767.124996948275
 21
385.125001907348
 31
0.0
100
AcDbText
  0
TEXT
  5
11B
330
1F
100
AcDbEntity
  8
枠_表
  6
CONTINUOUS
 62
     2
100
AcDbText
 10
2716.125000000032
 20
310.125001907348
 30
0.0
 40
63.74999618530273
  1
度
 41
1.120000000000004
  7
EXCADSTD
 72
     5
 11
2767.124996948275
 21
310.125001907348
 31
0.0
100
AcDbText
  0
TEXT
  5
11C
330
1F
100
AcDbEntity
  8
枠_表
  6
CONTINUOUS
 62
     2
100
AcDbText
 10
2084.625000000034
 20
215.6250019073486
 30
0.0
 40
63.74999618530273
  1
図
 41
1.120000000000004
  7
EXCADSTD
 72
     5
 11
2135.624996948276
 21
215.6250019073486
 31
0.0
100
AcDbText
  0
TEXT
  5
11D
330
1F
100
AcDbEntity
  8
枠_表
  6
CONTINUOUS
 62
     2
100
AcDbText
 10
2084.625000000034
 20
151.1250019073493
 30
0.0
 40
63.74999618530273
  1
番
 41
1.120000000000004
  7
EXCADSTD
 72
     5
 11
2135.624996948276
 21
151.1250019073493
 31
0.0
100
AcDbText
  0
LINE
  5
11E
330
1F
100
AcDbEntity
  8
枠_表
  6
CONTINUOUS
 62
     7
100
AcDbLine
 10
261.0000000000327
 20
469.4999999999993
 30
0.0
 11
2991.000000000033
 21
469.4999999999993
 31
0.0
  0
LINE
  5
11F
330
1F
100
AcDbEntity
  8
枠_表
  6
CONTINUOUS
 62
     6
100
AcDbLine
 10
2991.000000000033
 20
289.4999999999993
 30
0.0
 11
1116.000000000033
 21
289.4999999999993
 31
0.0
  0
LINE
  5
120
330
1F
100
AcDbEntity
  8
枠_表
  6
CONTINUOUS
 62
     6
100
AcDbLine
 10
2781.000000000033
 20
469.4999999999993
 30
0.0
 11
2781.000000000033
 21
289.4999999999993
 31
0.0
  0
LINE
  5
121
330
1F
100
AcDbEntity
  8
枠_表
  6
CONTINUOUS
 62
     6
100
AcDbLine
 10
2706.000000000033
 20
469.4999999999993
 30
0.0
 11
2706.000000000033
 21
289.4999999999993
 31
0.0
  0
LINE
  5
122
330
1F
100
AcDbEntity
  8
枠_表
  6
CONTINUOUS
 62
     6
100
AcDbLine
 10
2151.000000000033
 20
469.4999999999993
 30
0.0
 11
2151.000000000033
 21
139.4999999999993
 31
0.0
  0
LINE
  5
123
330
1F
100
AcDbEntity
  8
枠_表
  6
CONTINUOUS
 62
     6
100
AcDbLine
 10
2076.000000000033
 20
469.4999999999993
 30
0.0
 11
2076.000000000033
 21
139.4999999999993
 31
0.0
  0
LINE
  5
124
330
1F
100
AcDbEntity
  8
枠_表
  6
CONTINUOUS
 62
     6
100
AcDbLine
 10
1191.000000000033
 20
469.4999999999993
 30
0.0
 11
1191.000000000033
 21
289.4999999999993
 31
0.0
  0
LINE
  5
125
330
1F
100
AcDbEntity
  8
枠_表
  6
CONTINUOUS
 62
     6
100
AcDbLine
 10
1116.000000000033
 20
469.4999999999993
 30
0.0
 11
1116.000000000033
 21
139.4999999999993
 31
0.0
  0
LINE
  5
126
330
1F
100
AcDbEntity
  8
枠_表
  6
CONTINUOUS
 62
     6
100
AcDbLine
 10
921.0000000000344
 20
469.4999999999993
 30
0.0
 11
921.0000000000344
 21
139.4999999999993
 31
0.0
  0
LINE
  5
127
330
1F
100
AcDbEntity
  8
枠_表
  6
CONTINUOUS
 62
     6
100
AcDbLine
 10
726.0000000000344
 20
469.4999999999993
 30
0.0
 11
726.0000000000344
 21
139.4999999999993
 31
0.0
  0
LINE
  5
128
330
1F
100
AcDbEntity
  8
枠_表
  6
CONTINUOUS
 62
     6
100
AcDbLine
 10
493.5000000000327
 20
469.4999999999993
 30
0.0
 11
493.5000000000327
 21
139.4999999999993
 31
0.0
  0
LINE
  5
129
330
1F
100
AcDbEntity
  8
枠_表
  6
CONTINUOUS
 62
     6
100
AcDbLine
 10
261.0000000000327
 20
394.4999999999993
 30
0.0
 11
1116.000000000033
 21
394.4999999999993
 31
0.0
  0
LINE
  5
12A
330
1F
100
AcDbEntity
  8
枠_表
  6
CONTINUOUS
 62
     6
100
AcDbLine
 10
2829.980712900034
 20
324.0043945500008
 30
0.0
 11
2945.990844750033
 21
442.04974365
 31
0.0
  0
CIRCLE
  5
12B
330
1F
100
AcDbEntity
  8
枠_表
  6
CONTINUOUS
 62
     6
100
AcDbCircle
 10
568.5000000000327
 20
176.9999999999993
 30
0.0
 40
1.5000003
  0
CIRCLE
  5
12C
330
1F
100
AcDbEntity
  8
枠_表
  6
CONTINUOUS
 62
     6
100
AcDbCircle
 10
643.5000000000327
 20
176.9999999999993
 30
0.0
 40
1.5000003
  0
LINE
  5
12D
330
1F
100
AcDbEntity
  8
枠_表
  6
EXLTYPE2
 62
     6
100
AcDbLine
 10
261.0000000000327
 20
214.4999999999993
 30
0.0
 11
726.0000000000344
 21
214.4999999999993
 31
0.0
  0
CIRCLE
  5
12E
330
1F
100
AcDbEntity
  8
枠_表
  6
CONTINUOUS
 62
     6
100
AcDbCircle
 10
336.0000000000344
 20
176.9999999999993
 30
0.0
 40
1.5000003
  0
CIRCLE
  5
12F
330
1F
100
AcDbEntity
  8
枠_表
  6
CONTINUOUS
 62
     6
100
AcDbCircle
 10
411.0000000000344
 20
176.9999999999993
 30
0.0
 40
1.5000003
  0
TEXT
  5
130
330
1F
100
AcDbEntity
  8
枠_表
  6
CONTINUOUS
 62
     2
100
AcDbText
 10
2887.918945350033
 20
324.5232695999982
 30
0.0
 40
44.99999618530273
  1
１５
 41
1.098531308335255
  7
EXCADSTD
 72
     5
 11
2965.600795568567
 21
324.5232695999982
 31
0.0
100
AcDbText
  0
TEXT
  5
131
330
1F
100
AcDbEntity
  8
枠_表
  6
CONTINUOUS
 62
     2
100
AcDbText
 10
1469.999998569569
 20
304.5000038146966
 30
0.0
 40
74.99999237060547
  1
洗面化粧台
 41
1.052413789665836
  7
EXCADSTD
 72
     5
 11
1796.999964237294
 21
304.5000038146966
 31
0.0
100
AcDbText
  0
TEXT
  5
132
330
1F
100
AcDbEntity
  8
枠_表
  6
CONTINUOUS
 62
     2
100
AcDbText
 10
1206.000000000031
 20
402.000001907348
 30
0.0
 40
59.99999618530273
  1
６００ｍｍ幅
 41
0.9999999872843416
  7
EXCADSTD
 72
     5
 11
1505.999977111847
 21
402.000001907348
 31
0.0
100
AcDbText
  0
LINE
  5
133
330
1F
100
AcDbEntity
  8
枠_表
  6
CONTINUOUS
 62
     7
100
AcDbLine
 10
261.0000000000327
 20
4339.5
 30
0.0
 11
2991.000000000033
 21
4339.5
 31
0.0
  0
LINE
  5
134
330
1F
100
AcDbEntity
  8
枠_表
  6
CONTINUOUS
 62
     7
100
AcDbLine
 10
2991.000000000033
 20
139.4999999999993
 30
0.0
 11
2991.000000000033
 21
4339.5
 31
0.0
  0
LINE
  5
135
330
1F
100
AcDbEntity
  8
枠_表
  6
CONTINUOUS
 62
     7
100
AcDbLine
 10
261.0000000000327
 20
139.4999999999993
 30
0.0
 11
261.0000000000327
 21
4339.5
 31
0.0
  0
TEXT
  5
136
330
1F
100
AcDbEntity
  8
枠_表
  6
CONTINUOUS
 62
     2
100
AcDbText
 10
2841.000000000084
 20
4153.125001907346
 30
0.0
 40
59.99999618530273
  1
１
 41
1.120000000000004
  7
EXCADSTD
 72
     5
 11
2888.999996948326
 21
4153.125001907346
 31
0.0
100
AcDbText
  0
TEXT
  5
137
330
1F
100
AcDbEntity
  8
枠_表
  6
CONTINUOUS
 62
     2
100
AcDbText
 10
1741.499999998628
 20
3981.750003814705
 30
0.0
 40
59.99999618530273
  1
※止水栓（別途手配）
 41
1.052966101694916
  7
EXCADSTD
 72
     5
 11
2273.99996614319
 21
3981.750003814705
 31
0.0
100
AcDbText
  0
TEXT
  5
138
330
1F
100
AcDbEntity
  8
枠_表
  6
CONTINUOUS
 62
     2
100
AcDbText
 10
2841.000000000084
 20
3646.125001907347
 30
0.0
 40
59.99999618530273
  1
１
 41
1.120000000000004
  7
EXCADSTD
 72
     5
 11
2888.999996948326
 21
3646.125001907347
 31
0.0
100
AcDbText
  0
TEXT
  5
139
330
1F
100
AcDbEntity
  8
枠_表
  6
CONTINUOUS
 62
     2
100
AcDbText
 10
2841.000000000084
 20
3533.250001907349
 30
0.0
 40
59.99999618530273
  1
１
 41
1.120000000000004
  7
EXCADSTD
 72
     5
 11
2888.999996948326
 21
3533.250001907349
 31
0.0
100
AcDbText
  0
TEXT
  5
13A
330
1F
100
AcDbEntity
  8
枠_表
  6
CONTINUOUS
 62
     2
100
AcDbText
 10
2284.499999999877
 20
3573.225001907348
 30
0.0
 40
59.99999618530273
  1
配管アダプター
 41
0.990243889413228
  7
EXCADSTD
 72
     5
 11
2632.499973296996
 21
3573.225001907348
 31
0.0
100
AcDbText
  0
TEXT
  5
13B
330
1F
100
AcDbEntity
  8
枠_表
  6
CONTINUOUS
 62
     2
100
AcDbText
 10
2284.499999999877
 20
3498.975001907348
 30
0.0
 40
59.99999618530273
  1
（ＶＰ５０・ＶＵ５０用）
 41
0.8183098359622852
  7
EXCADSTD
 72
     5
 11
2782.49995422351
 21
3498.975001907348
 31
0.0
100
AcDbText
  0
TEXT
  5
13C
330
1F
100
AcDbEntity
  8
枠_表
  6
CONTINUOUS
 62
     2
100
AcDbText
 10
1746.000000000077
 20
3721.875001907346
 30
0.0
 40
59.99999618530273
  1
※壁排水用部材（別途手配）
 41
1.045454545454546
  7
EXCADSTD
 72
     5
 11
2435.999956131059
 21
3721.875001907346
 31
0.0
100
AcDbText
  0
LINE
  5
13D
330
1F
100
AcDbEntity
  8
枠_表
  6
CONTINUOUS
 62
     6
100
AcDbLine
 10
1746.000000000084
 20
4220.249999999996
 30
0.0
 11
2946.000000000084
 21
4220.249999999996
 31
0.0
  0
LINE
  5
13E
330
1F
100
AcDbEntity
  8
枠_表
  6
CONTINUOUS
 62
     6
100
AcDbLine
 10
1746.000000000084
 20
4294.499999999997
 30
0.0
 11
2946.000000000084
 21
4294.499999999997
 31
0.0
  0
LINE
  5
13F
330
1F
100
AcDbEntity
  8
枠_表
  6
CONTINUOUS
 62
     6
100
AcDbLine
 10
1746.000000000084
 20
3966.749999999998
 30
0.0
 11
2946.000000000084
 21
3966.749999999998
 31
0.0
  0
LINE
  5
140
330
1F
100
AcDbEntity
  8
枠_表
  6
CONTINUOUS
 62
     6
100
AcDbLine
 10
1746.000000000084
 20
3818.249999999997
 30
0.0
 11
2946.000000000084
 21
3818.249999999997
 31
0.0
  0
LINE
  5
141
330
1F
100
AcDbEntity
  8
枠_表
  6
CONTINUOUS
 62
     6
100
AcDbLine
 10
1746.000000000084
 20
3892.499999999997
 30
0.0
 11
2946.000000000084
 21
3892.499999999997
 31
0.0
  0
LINE
  5
142
330
1F
100
AcDbEntity
  8
枠_表
  6
CONTINUOUS
 62
     6
100
AcDbLine
 10
1746.000000000084
 20
3818.25
 30
0.0
 11
1746.000000000084
 21
3966.749999999998
 31
0.0
  0
LINE
  5
143
330
1F
100
AcDbEntity
  8
枠_表
  6
CONTINUOUS
 62
     6
100
AcDbLine
 10
2271.000000000084
 20
3818.249999999997
 30
0.0
 11
2271.000000000084
 21
3966.749999999998
 31
0.0
  0
LINE
  5
144
330
1F
100
AcDbEntity
  8
枠_表
  6
CONTINUOUS
 62
     6
100
AcDbLine
 10
2796.000000000084
 20
3818.249999999997
 30
0.0
 11
2796.000000000084
 21
3966.749999999998
 31
0.0
  0
LINE
  5
145
330
1F
100
AcDbEntity
  8
枠_表
  6
CONTINUOUS
 62
     6
100
AcDbLine
 10
2946.000000000084
 20
3818.25
 30
0.0
 11
2946.000000000084
 21
3966.749999999998
 31
0.0
  0
LINE
  5
146
330
1F
100
AcDbEntity
  8
枠_表
  6
CONTINUOUS
 62
     6
100
AcDbLine
 10
1746.000000000084
 20
3490.499999999998
 30
0.0
 11
2946.000000000084
 21
3490.499999999998
 31
0.0
  0
LINE
  5
147
330
1F
100
AcDbEntity
  8
枠_表
  6
CONTINUOUS
 62
     6
100
AcDbLine
 10
1746.000000000084
 20
3639.0
 30
0.0
 11
2946.000000000084
 21
3639.0
 31
0.0
  0
LINE
  5
148
330
1F
100
AcDbEntity
  8
枠_表
  6
CONTINUOUS
 62
     6
100
AcDbLine
 10
1746.000000000084
 20
3713.249999999997
 30
0.0
 11
2946.000000000084
 21
3713.249999999997
 31
0.0
  0
LINE
  5
149
330
1F
100
AcDbEntity
  8
枠_表
  6
CONTINUOUS
 62
     6
100
AcDbLine
 10
1746.000000000084
 20
3490.499999999998
 30
0.0
 11
1746.000000000084
 21
3713.249999999997
 31
0.0
  0
LINE
  5
14A
330
1F
100
AcDbEntity
  8
枠_表
  6
CONTINUOUS
 62
     6
100
AcDbLine
 10
2271.000000000084
 20
3490.499999999998
 30
0.0
 11
2271.000000000084
 21
3713.249999999997
 31
0.0
  0
LINE
  5
14B
330
1F
100
AcDbEntity
  8
枠_表
  6
CONTINUOUS
 62
     6
100
AcDbLine
 10
2796.000000000084
 20
3490.499999999998
 30
0.0
 11
2796.000000000084
 21
3713.249999999997
 31
0.0
  0
LINE
  5
14C
330
1F
100
AcDbEntity
  8
枠_表
  6
CONTINUOUS
 62
     6
100
AcDbLine
 10
2946.000000000084
 20
3490.499999999998
 30
0.0
 11
2946.000000000084
 21
3713.249999999997
 31
0.0
  0
LINE
  5
14D
330
1F
100
AcDbEntity
  8
枠_表
  6
CONTINUOUS
 62
     6
100
AcDbLine
 10
1746.000000000084
 20
4145.999999999995
 30
0.0
 11
2946.000000000084
 21
4145.999999999995
 31
0.0
  0
TEXT
  5
14E
330
1F
100
AcDbEntity
  8
枠_表
  6
CONTINUOUS
 62
     2
100
AcDbText
 10
2284.499999999877
 20
3644.625001907345
 30
0.0
 40
59.99999618530273
  1
Ｌ管
 41
1.049923628946709
  7
EXCADSTD
 72
     5
 11
2383.492793006774
 21
3644.625001907345
 31
0.0
100
AcDbText
  0
TEXT
  5
14F
330
1F
100
AcDbEntity
  8
枠_表
  6
CONTINUOUS
 62
     2
100
AcDbText
 10
2817.000000089491
 20
4227.37500190735
 30
0.0
 40
59.99999618530273
  1
個数
 41
1.049923628946709
  7
EXCADSTD
 72
     5
 11
2915.992793096388
 21
4227.37500190735
 31
0.0
100
AcDbText
  0
TEXT
  5
150
330
1F
100
AcDbEntity
  8
枠_表
  6
CONTINUOUS
 62
     2
100
AcDbText
 10
1873.500000000077
 20
4227.37500190735
 30
0.0
 40
59.99999618530273
  1
品番
 41
1.895695426731973
  7
EXCADSTD
 72
     5
 11
2052.236986013871
 21
4227.37500190735
 31
0.0
100
AcDbText
  0
TEXT
  5
151
330
1F
100
AcDbEntity
  8
枠_表
  6
CONTINUOUS
 62
     2
100
AcDbText
 10
2398.500000000074
 20
4227.37500190735
 30
0.0
 40
59.99999618530273
  1
品名
 41
1.895695426731973
  7
EXCADSTD
 72
     5
 11
2577.236986013867
 21
4227.37500190735
 31
0.0
100
AcDbText
  0
TEXT
  5
152
330
1F
100
AcDbEntity
  8
枠_表
  6
CONTINUOUS
 62
     2
100
AcDbText
 10
2284.499999999877
 20
3901.125001907347
 30
0.0
 40
59.99999618530273
  1
床給水用止水栓
 41
0.990243889413228
  7
EXCADSTD
 72
     5
 11
2632.499973296996
 21
3901.125001907347
 31
0.0
100
AcDbText
  0
TEXT
  5
153
330
1F
100
AcDbEntity
  8
枠_表
  6
CONTINUOUS
 62
     2
100
AcDbText
 10
2281.499999999877
 20
3826.875001907346
 30
0.0
 40
59.99999618530273
  1
壁給水用止水栓
 41
0.990243889413228
  7
EXCADSTD
 72
     5
 11
2629.499973296996
 21
3826.875001907346
 31
0.0
100
AcDbText
  0
TEXT
  5
154
330
1F
100
AcDbEntity
  8
枠_表
  6
CONTINUOUS
 62
     2
100
AcDbText
 10
2841.000000000123
 20
4076.550001907348
 30
0.0
 40
59.99999618530273
  1
１
 41
1.120000000000004
  7
EXCADSTD
 72
     5
 11
2888.999996948366
 21
4076.550001907348
 31
0.0
100
AcDbText
  0
LINE
  5
155
330
1F
100
AcDbEntity
  8
枠_表
  6
CONTINUOUS
 62
     6
100
AcDbLine
 10
2946.00000000012
 20
4070.999999999994
 30
0.0
 11
1746.00000000012
 21
4070.999999999994
 31
0.0
  0
LINE
  5
156
330
1F
100
AcDbEntity
  8
枠_表
  6
CONTINUOUS
 62
     6
100
AcDbLine
 10
1746.000000000084
 20
4071.0
 30
0.0
 11
1746.000000000084
 21
4294.5
 31
0.0
  0
LINE
  5
157
330
1F
100
AcDbEntity
  8
枠_表
  6
CONTINUOUS
 62
     6
100
AcDbLine
 10
2196.000000000084
 20
4294.499999999997
 30
0.0
 11
2196.000000000084
 21
4070.999999999994
 31
0.0
  0
LINE
  5
158
330
1F
100
AcDbEntity
  8
枠_表
  6
CONTINUOUS
 62
     6
100
AcDbLine
 10
2796.000000000084
 20
4070.999999999994
 30
0.0
 11
2796.000000000084
 21
4294.499999999997
 31
0.0
  0
LINE
  5
159
330
1F
100
AcDbEntity
  8
枠_表
  6
CONTINUOUS
 62
     6
100
AcDbLine
 10
2946.000000000084
 20
4071.0
 30
0.0
 11
2946.000000000084
 21
4294.5
 31
0.0
  0
TEXT
  5
15A
330
1F
100
AcDbEntity
  8
枠_表
  6
CONTINUOUS
 62
     2
100
AcDbText
 10
2209.050000000117
 20
4078.125001907348
 30
0.0
 40
59.99999618530273
  1
化粧鏡
 41
1.070588224822399
  7
EXCADSTD
 72
     5
 11
2365.049988556025
 21
4078.125001907348
 31
0.0
100
AcDbText
  0
TEXT
  5
15B
330
1F
100
AcDbEntity
  8
枠_表
  6
CONTINUOUS
 62
     2
100
AcDbText
 10
1753.500000000135
 20
3534.37500190735
 30
0.0
 40
59.99999618530273
  1
ＬＵＭＥＨ７０－２００－３２Ｂ
 41
0.6685393858491744
  7
EXCADSTD
 72
     5
 11
2263.500013351575
 21
3534.37500190735
 31
0.0
100
AcDbText
  0
TEXT
  5
15C
330
1F
100
AcDbEntity
  8
枠_表
  6
CONTINUOUS
 62
     2
100
AcDbText
 10
1756.500000000155
 20
3825.375001907347
 30
0.0
 40
59.99999618530273
  1
ＪＬ２２１－７５ＷＭＳＹ
 41
0.7640844976398306
  7
EXCADSTD
 72
     5
 11
2221.499964714206
 21
3825.375001907347
 31
0.0
100
AcDbText
  0
TEXT
  5
15D
330
1F
100
AcDbEntity
  8
枠_表
  6
CONTINUOUS
 62
     2
100
AcDbText
 10
1741.499999998709
 20
3400.500003814705
 30
0.0
 40
59.99999618530273
  1
※洗面化粧台には、床排水用トラップを付属
 41
1.036764705882353
  7
EXCADSTD
 72
     5
 11
2798.99993276467
 21
3400.500003814705
 31
0.0
100
AcDbText
  0
TEXT
  5
15E
330
1F
100
AcDbEntity
  8
枠_表
  6
CONTINUOUS
 62
     2
100
AcDbText
 10
1741.499999998709
 20
3340.500007629403
 30
0.0
 40
59.99999618530273
  1
※洗面化粧台には、止水栓は含まれない
 41
1.038551401869159
  7
EXCADSTD
 72
     5
 11
2693.99993944039
 21
3340.500007629403
 31
0.0
100
AcDbText
  0
TEXT
  5
15F
330
1F
100
AcDbEntity
  8
枠_表
  6
CONTINUOUS
 62
     2
100
AcDbText
 10
1741.499999998709
 20
3280.5000114441
 30
0.0
 40
59.99999618530273
  1
※単水栓は、自動水栓（電池式）
 41
1.042134831460675
  7
EXCADSTD
 72
     5
 11
2536.499949453971
 21
3280.5000114441
 31
0.0
100
AcDbText
  0
TEXT
  5
160
330
1F
100
AcDbEntity
  8
枠_表
  6
CONTINUOUS
 62
     2
100
AcDbText
 10
1756.500000000115
 20
4078.125001907348
 30
0.0
 40
59.99999618530273
  1
ＬＵＭ４５１ＣＳ
 41
0.7819148841479147
  7
EXCADSTD
 72
     5
 11
2071.499976158258
 21
4078.125001907348
 31
0.0
100
AcDbText
  0
TEXT
  5
161
330
1F
100
AcDbEntity
  8
枠_表
  6
CONTINUOUS
 62
     2
100
AcDbText
 10
1756.500000000155
 20
4153.125001907346
 30
0.0
 40
59.99999618530273
  1
ＬＵ０６０１ＡＳＳ１Ｅ
 41
0.767307682893215
  7
EXCADSTD
 72
     5
 11
2183.999967575229
 21
4153.125001907346
 31
0.0
100
AcDbText
  0
TEXT
  5
162
330
1F
100
AcDbEntity
  8
枠_表
  6
CONTINUOUS
 62
     2
100
AcDbText
 10
1753.500000000216
 20
3899.25000190735
 30
0.0
 40
59.99999618530273
  1
ＪＬ２１１－３３０ＷＭＹ
 41
0.7640844976398302
  7
EXCADSTD
 72
     5
 11
2218.499964714266
 21
3899.25000190735
 31
0.0
100
AcDbText
  0
TEXT
  5
163
330
1F
100
AcDbEntity
  8
枠_表
  6
CONTINUOUS
 62
     2
100
AcDbText
 10
2340.000000000026
 20
339.0000038146985
 30
0.0
 40
89.99999237060547
  1
別記
 41
1.166581818181818
  7
EXCADSTD
 72
     5
 11
2504.98798601382
 21
339.0000038146985
 31
0.0
100
AcDbText
  0
TEXT
  5
164
330
1F
100
AcDbEntity
  8
枠_表
  6
CONTINUOUS
 62
     6
100
AcDbText
 10
270.5161735132536
 20
153.6751117073488
 30
0.0
 40
44.99999618530273
  1
'23
 41
0.4689783949971204
  7
EXCADSTD
 72
     5
 11
317.7489935768447
 21
153.6751117073488
 31
0.0
100
AcDbText
  0
TEXT
  5
165
330
1F
100
AcDbEntity
  8
枠_表
  6
CONTINUOUS
 62
     2
100
AcDbText
 10
302.2500000000388
 20
267.0000038147
 30
0.0
 40
74.99999237060547
  1
川野
 41
1.166581818181818
  7
EXCADSTD
 72
     5
 11
439.7399860138327
 21
267.0000038147
 31
0.0
100
AcDbText
  0
TEXT
  5
166
330
1F
100
AcDbEntity
  8
枠_表
  6
CONTINUOUS
 62
     2
100
AcDbText
 10
2209.499999999877
 20
4151.625001907344
 30
0.0
 40
59.99999618530273
  1
洗面化粧台（一般地形）
 41
0.9692307555369835
  7
EXCADSTD
 72
     5
 11
2749.499958038207
 21
4151.625001907344
 31
0.0
100
AcDbText
  0
TEXT
  5
167
330
1F
100
AcDbEntity
  8
枠_表
  6
CONTINUOUS
 62
     2
100
AcDbText
 10
1756.500000000074
 20
3646.125001907347
 30
0.0
 40
59.99999618530273
  1
ＭＥ４４１３１
 41
0.7896341368434869
  7
EXCADSTD
 72
     5
 11
2033.999979019239
 21
3646.125001907347
 31
0.0
100
AcDbText
  0
TEXT
  5
168
330
1F
100
AcDbEntity
  8
枠_表
  6
CONTINUOUS
 62
     2
100
AcDbText
 10
2841.000000000084
 20
3900.375001907347
 30
0.0
 40
59.99999618530273
  1
１
 41
1.120000000000004
  7
EXCADSTD
 72
     5
 11
2888.999996948326
 21
3900.375001907347
 31
0.0
100
AcDbText
  0
TEXT
  5
169
330
1F
100
AcDbEntity
  8
枠_表
  6
CONTINUOUS
 62
     2
100
AcDbText
 10
2841.000000000084
 20
3826.875001907346
 30
0.0
 40
59.99999618530273
  1
１
 41
1.120000000000004
  7
EXCADSTD
 72
     5
 11
2888.999996948326
 21
3826.875001907346
 31
0.0
100
AcDbText
  0
TEXT
  5
16A
330
1F
100
AcDbEntity
  8
枠_表
  6
CONTINUOUS
 62
     7
100
AcDbText
 10
2263.499999999982
 20
171.7500038146979
 30
0.0
 40
89.99999237060547
  1
ＬＵ２１８７７１
 41
1.01773049277147
  7
EXCADSTD
 72
     5
 11
2878.499945640546
 21
171.7500038146979
 31
0.0
100
AcDbText
  0
TEXT
  5
16B
330
1F
100
AcDbEntity
  8
枠_表
  6
CONTINUOUS
 62
     6
100
AcDbText
 10
364.6036740854582
 20
153.6751117073488
 30
0.0
 40
44.99999618530273
  1
5
 41
0.4683823586133572
  7
EXCADSTD
 72
     5
 11
381.6661728456816
 21
153.6751117073488
 31
0.0
100
AcDbText
  0
TEXT
  5
16C
330
1F
100
AcDbEntity
  8
枠_表
  6
CONTINUOUS
 62
     6
100
AcDbText
 10
434.8411738708818
 20
153.6751117073488
 30
0.0
 40
44.99999618530273
  1
30
 41
0.4086486447995843
  7
EXCADSTD
 72
     5
 11
467.241170819124
 21
153.6751117073488
 31
0.0
100
AcDbText
  0
LINE
  5
16D
330
1F
100
AcDbEntity
  8
化粧台
  6
CONTINUOUS
 62
     2
100
AcDbLine
 10
791.0000000000302
 20
1669.499999999956
 30
0.0
 11
1131.000000000067
 21
1669.499999999956
 31
0.0
  0
ARC
  5
16E
330
1F
100
AcDbEntity
  8
化粧台
  6
CONTINUOUS
 62
     2
100
AcDbCircle
 10
961.0000000000302
 20
1749.382636432929
 30
0.0
 40
214.8826364329721
100
AcDbArc
 50
202.703373117341
 51
337.2966268826543
  0
ARC
  5
16F
330
1F
100
AcDbEntity
  8
化粧台
  6
CONTINUOUS
 62
     2
100
AcDbCircle
 10
1254.905786216135
 20
1674.499999999956
 30
0.0
 40
5.0
100
AcDbArc
 50
357.9174347202663
 51
127.8553251654789
  0
LINE
  5
170
330
1F
100
AcDbEntity
  8
化粧台
  6
CONTINUOUS
 62
     2
100
AcDbLine
 10
1131.00000000007
 20
1669.499999999956
 30
0.0
 11
1240.432787040311
 21
1674.257947262577
 31
0.0
  0
ARC
  5
171
330
1F
100
AcDbEntity
  8
化粧台
  6
CONTINUOUS
 62
     2
100
AcDbCircle
 10
1239.564042554786
 20
1694.239070429678
 30
0.0
 40
20.0
100
AcDbArc
 50
272.4895529219986
 51
307.8553251654777
  0
ARC
  5
172
330
1F
100
AcDbEntity
  8
化粧台
  6
CONTINUOUS
 62
     2
100
AcDbCircle
 10
1255.814877125225
 20
1699.499999999956
 30
0.0
 40
5.0
100
AcDbArc
 50
357.9174347202663
 51
90.00000000000001
  0
ARC
  5
173
330
1F
100
AcDbEntity
  8
化粧台
  6
CONTINUOUS
 62
     2
100
AcDbCircle
 10
1154.003506835886
 20
1624.499999999956
 30
0.0
 40
15.00000000000001
100
AcDbArc
 50
90.00000000000001
 51
147.0951725792534
  0
LINE
  5
174
330
1F
100
AcDbEntity
  8
化粧台
  6
CONTINUOUS
 62
     2
100
AcDbLine
 10
1258.741490223546
 20
1642.390981145636
 30
0.0
 11
1260.811574614957
 21
1699.318301909421
 31
0.0
  0
ARC
  5
175
330
1F
100
AcDbEntity
  8
化粧台
  6
CONTINUOUS
 62
     2
100
AcDbCircle
 10
1255.743471729709
 20
1642.499999999956
 30
0.0
 40
3.000000000000002
100
AcDbArc
 50
270.0
 51
357.9174347202733
  0
ARC
  5
176
330
1F
100
AcDbEntity
  8
化粧台
  6
CONTINUOUS
 62
     2
100
AcDbCircle
 10
1156.464988490419
 20
1667.604339212608
 30
0.0
 40
3.000000000000002
100
AcDbArc
 50
337.2966268826544
 51
92.48955292199311
  0
LINE
  5
177
330
1F
100
AcDbEntity
  8
化粧台
  6
CONTINUOUS
 62
     2
100
AcDbLine
 10
1154.003506835886
 20
1639.499999999956
 30
0.0
 11
1255.743471729709
 21
1639.499999999956
 31
0.0
  0
ARC
  5
178
330
1F
100
AcDbEntity
  8
化粧台
  6
CONTINUOUS
 62
     2
100
AcDbCircle
 10
667.094213783964
 20
1674.499999999956
 30
0.0
 40
5.0
100
AcDbArc
 50
52.14467483452227
 51
182.0825652797287
  0
LINE
  5
179
330
1F
100
AcDbEntity
  8
化粧台
  6
CONTINUOUS
 62
     2
100
AcDbLine
 10
791.0000000000302
 20
1669.499999999956
 30
0.0
 11
681.5672129597854
 21
1674.257947262577
 31
0.0
  0
ARC
  5
17A
330
1F
100
AcDbEntity
  8
化粧台
  6
CONTINUOUS
 62
     2
100
AcDbCircle
 10
682.4359574453131
 20
1694.239070429678
 30
0.0
 40
20.0
100
AcDbArc
 50
232.1446748345211
 51
267.5104470780012
  0
ARC
  5
17B
330
1F
100
AcDbEntity
  8
化粧台
  6
CONTINUOUS
 62
     2
100
AcDbCircle
 10
666.1851228748721
 20
1699.499999999956
 30
0.0
 40
5.0
100
AcDbArc
 50
90.00000000000001
 51
182.0825652797287
  0
ARC
  5
17C
330
1F
100
AcDbEntity
  8
化粧台
  6
CONTINUOUS
 62
     2
100
AcDbCircle
 10
767.996493164211
 20
1624.499999999956
 30
0.0
 40
15.00000000000001
100
AcDbArc
 50
32.90482742074656
 51
90.00000000000001
  0
LINE
  5
17D
330
1F
100
AcDbEntity
  8
化粧台
  6
CONTINUOUS
 62
     2
100
AcDbLine
 10
663.2585097765525
 20
1642.390981145636
 30
0.0
 11
661.1884253851397
 21
1699.318301909421
 31
0.0
  0
ARC
  5
17E
330
1F
100
AcDbEntity
  8
化粧台
  6
CONTINUOUS
 62
     2
100
AcDbCircle
 10
666.2565282703883
 20
1642.499999999956
 30
0.0
 40
3.000000000000002
100
AcDbArc
 50
182.082565279727
 51
270.0000000000002
  0
ARC
  5
17F
330
1F
100
AcDbEntity
  8
化粧台
  6
CONTINUOUS
 62
     2
100
AcDbCircle
 10
765.5350115096819
 20
1667.604339212608
 30
0.0
 40
3.000000000000002
100
AcDbArc
 50
87.51044707800041
 51
202.7033731173424
  0
LINE
  5
180
330
1F
100
AcDbEntity
  8
化粧台
  6
CONTINUOUS
 62
     2
100
AcDbLine
 10
767.996493164211
 20
1639.499999999956
 30
0.0
 11
666.2565282703883
 21
1639.499999999956
 31
0.0
  0
ARC
  5
181
330
1F
100
AcDbEntity
  8
化粧台
  6
CONTINUOUS
 62
     2
100
AcDbCircle
 10
1088.629733490537
 20
1458.5
 30
0.0
 40
2.0
100
AcDbArc
 50
16.84927962281586
 51
90.00000000000001
  0
ARC
  5
182
330
1F
100
AcDbEntity
  8
化粧台
  6
CONTINUOUS
 62
     2
100
AcDbCircle
 10
1088.629733490537
 20
1453.5
 30
0.0
 40
2.0
100
AcDbArc
 50
270.0000000000002
 51
343.1507203771823
  0
ARC
  5
183
330
1F
100
AcDbEntity
  8
化粧台
  6
CONTINUOUS
 62
     2
100
AcDbCircle
 10
1080.37499999999
 20
1456.0
 30
0.0
 40
10.625
100
AcDbArc
 50
343.15072037717
 51
16.84927962283012
  0
ARC
  5
184
330
1F
100
AcDbEntity
  8
化粧台
  6
CONTINUOUS
 62
     2
100
AcDbCircle
 10
1031.49999999999
 20
2540.685482900404
 30
0.0
 40
1090.685482900405
100
AcDbArc
 50
266.9919716782235
 51
273.0080283217767
  0
ARC
  5
185
330
1F
100
AcDbEntity
  8
化粧台
  6
CONTINUOUS
 62
     2
100
AcDbCircle
 10
1031.49999999999
 20
371.3145170995958
 30
0.0
 40
1090.685482900405
100
AcDbArc
 50
86.99197167822338
 51
93.00802832177656
  0
ARC
  5
186
330
1F
100
AcDbEntity
  8
化粧台
  6
CONTINUOUS
 62
     2
100
AcDbCircle
 10
982.6249999999903
 20
1456.0
 30
0.0
 40
10.625
100
AcDbArc
 50
163.1507203771698
 51
196.8492796228301
  0
ARC
  5
187
330
1F
100
AcDbEntity
  8
化粧台
  6
CONTINUOUS
 62
     2
100
AcDbCircle
 10
974.37026650944
 20
1453.5
 30
0.0
 40
2.0
100
AcDbArc
 50
196.8492796228176
 51
270.0000000000002
  0
ARC
  5
188
330
1F
100
AcDbEntity
  8
化粧台
  6
CONTINUOUS
 62
     2
100
AcDbCircle
 10
974.37026650944
 20
1458.5
 30
0.0
 40
2.0
100
AcDbArc
 50
90.00000000000001
 51
163.1507203771841
  0
ARC
  5
189
330
1F
100
AcDbEntity
  8
化粧台
  6
CONTINUOUS
 62
     2
100
AcDbCircle
 10
833.3702665094436
 20
1458.5
 30
0.0
 40
2.0
100
AcDbArc
 50
90.00000000000001
 51
163.1507203771844
  0
ARC
  5
18A
330
1F
100
AcDbEntity
  8
化粧台
  6
CONTINUOUS
 62
     2
100
AcDbCircle
 10
833.3702665094436
 20
1453.5
 30
0.0
 40
2.0
100
AcDbArc
 50
196.8492796228166
 51
270.0
  0
ARC
  5
18B
330
1F
100
AcDbEntity
  8
化粧台
  6
CONTINUOUS
 62
     2
100
AcDbCircle
 10
841.6249999999902
 20
1456.0
 30
0.0
 40
10.625
100
AcDbArc
 50
163.1507203771702
 51
196.8492796228299
  0
ARC
  5
18C
330
1F
100
AcDbEntity
  8
化粧台
  6
CONTINUOUS
 62
     2
100
AcDbCircle
 10
890.4999999999902
 20
2540.685482900404
 30
0.0
 40
1090.685482900405
100
AcDbArc
 50
266.9919716782234
 51
273.0080283217766
  0
ARC
  5
18D
330
1F
100
AcDbEntity
  8
化粧台
  6
CONTINUOUS
 62
     2
100
AcDbCircle
 10
890.4999999999902
 20
371.3145170995958
 30
0.0
 40
1090.685482900405
100
AcDbArc
 50
86.99197167822344
 51
93.00802832177662
  0
ARC
  5
18E
330
1F
100
AcDbEntity
  8
化粧台
  6
CONTINUOUS
 62
     2
100
AcDbCircle
 10
939.3749999999902
 20
1456.0
 30
0.0
 40
10.625
100
AcDbArc
 50
343.1507203771704
 51
16.8492796228307
  0
ARC
  5
18F
330
1F
100
AcDbEntity
  8
化粧台
  6
CONTINUOUS
 62
     2
100
AcDbCircle
 10
947.6297334905405
 20
1453.5
 30
0.0
 40
2.0
100
AcDbArc
 50
270.0
 51
343.1507203771844
  0
ARC
  5
190
330
1F
100
AcDbEntity
  8
化粧台
  6
CONTINUOUS
 62
     2
100
AcDbCircle
 10
947.6297334905405
 20
1458.5
 30
0.0
 40
2.0
100
AcDbArc
 50
16.84927962281563
 51
90.00000000000001
  0
LINE
  5
191
330
1F
100
AcDbEntity
  8
化粧台
  6
CONTINUOUS
 62
     2
100
AcDbLine
 10
1240.999999999988
 20
1501.0
 30
0.0
 11
1240.999999999988
 21
1011.0
 31
0.0
  0
LINE
  5
192
330
1F
100
AcDbEntity
  8
化粧台
  6
CONTINUOUS
 62
     2
100
AcDbLine
 10
961.9999999999903
 20
1011.00000000004
 30
0.0
 11
1241.000000000028
 21
1011.00000000004
 31
0.0
  0
LINE
  5
193
330
1F
100
AcDbEntity
  8
化粧台
  6
CONTINUOUS
 62
     2
100
AcDbLine
 10
680.9999999999902
 20
1501.0
 30
0.0
 11
680.9999999999902
 21
1011.0
 31
0.0
  0
LINE
  5
194
330
1F
100
AcDbEntity
  8
化粧台
  6
CONTINUOUS
 62
     2
100
AcDbLine
 10
680.9999999999902
 20
1011.00000000004
 30
0.0
 11
959.9999999999902
 21
1011.00000000004
 31
0.0
  0
LINE
  5
195
330
1F
100
AcDbEntity
  8
化粧台
  6
CONTINUOUS
 62
     2
100
AcDbLine
 10
959.9999999999902
 20
1501.00000000004
 30
0.0
 11
680.9999999999902
 21
1501.00000000004
 31
0.0
  0
LINE
  5
196
330
1F
100
AcDbEntity
  8
化粧台
  6
CONTINUOUS
 62
     2
100
AcDbLine
 10
1243.000000000061
 20
1508.0
 30
0.0
 11
679.000000000063
 21
1508.0
 31
0.0
  0
LINE
  5
197
330
1F
100
AcDbEntity
  8
化粧台
  6
CONTINUOUS
 62
     2
100
AcDbLine
 10
1241.000000000028
 20
1501.00000000004
 30
0.0
 11
961.9999999999903
 21
1501.00000000004
 31
0.0
  0
LINE
  5
198
330
1F
100
AcDbEntity
  8
化粧台
  6
CONTINUOUS
 62
     2
100
AcDbLine
 10
1229.50000000003
 20
1010.0
 30
0.0
 11
1229.50000000003
 21
919.5
 31
0.0
  0
LINE
  5
199
330
1F
100
AcDbEntity
  8
化粧台
  6
CONTINUOUS
 62
     2
100
AcDbLine
 10
692.5000000000302
 20
1010.0
 30
0.0
 11
692.5000000000302
 21
919.5
 31
0.0
  0
LINE
  5
19A
330
1F
100
AcDbEntity
  8
化粧台
  6
EXLTYPE3
 62
     6
100
AcDbLine
 10
959.9999999999902
 20
1501.0
 30
0.0
 11
680.9999999999393
 21
1256.0
 31
0.0
  0
LINE
  5
19B
330
1F
100
AcDbEntity
  8
化粧台
  6
EXLTYPE3
 62
     6
100
AcDbLine
 10
680.9999999999902
 20
1256.0
 30
0.0
 11
959.9999999999902
 21
1011.0
 31
0.0
  0
LINE
  5
19C
330
1F
100
AcDbEntity
  8
化粧台
  6
EXLTYPE3
 62
     6
100
AcDbLine
 10
1241.000000000028
 20
1256.00000000008
 30
0.0
 11
961.9999999999903
 21
1011.00000000008
 31
0.0
  0
LINE
  5
19D
330
1F
100
AcDbEntity
  8
化粧台
  6
EXLTYPE3
 62
     6
100
AcDbLine
 10
1241.000000000028
 20
1256.0
 30
0.0
 11
961.9999999999903
 21
1501.0
 31
0.0
  0
LINE
  5
19E
330
1F
100
AcDbEntity
  8
化粧台
  6
CONTINUOUS
 62
     2
100
AcDbLine
 10
679.000000000063
 20
1639.499999999956
 30
0.0
 11
679.000000000063
 21
1508.0
 31
0.0
  0
LINE
  5
19F
330
1F
100
AcDbEntity
  8
化粧台
  6
CONTINUOUS
 62
     2
100
AcDbLine
 10
677.5000000000302
 20
1639.499999999956
 30
0.0
 11
677.5000000000302
 21
919.5
 31
0.0
  0
LINE
  5
1A0
330
1F
100
AcDbEntity
  8
化粧台
  6
CONTINUOUS
 62
     2
100
AcDbLine
 10
1242.999999999997
 20
1639.499999999956
 30
0.0
 11
1242.999999999997
 21
1508.0
 31
0.0
  0
LINE
  5
1A1
330
1F
100
AcDbEntity
  8
化粧台
  6
CONTINUOUS
 62
     2
100
AcDbLine
 10
1244.500000000032
 20
1639.5
 30
0.0
 11
1244.500000000032
 21
919.5
 31
0.0
  0
LINE
  5
1A2
330
1F
100
AcDbEntity
  8
化粧台
  6
CONTINUOUS
 62
     6
100
AcDbLine
 10
1160.500000000012
 20
911.5
 30
0.0
 11
1181.50000000003
 21
911.5
 31
0.0
  0
LINE
  5
1A3
330
1F
100
AcDbEntity
  8
化粧台
  6
CONTINUOUS
 62
     6
100
AcDbLine
 10
1160.500000000012
 20
919.5
 30
0.0
 11
1160.500000000012
 21
911.5
 31
0.0
  0
LINE
  5
1A4
330
1F
100
AcDbEntity
  8
化粧台
  6
CONTINUOUS
 62
     6
100
AcDbLine
 10
1181.500000000019
 20
919.5
 30
0.0
 11
1181.500000000019
 21
911.5
 31
0.0
  0
LINE
  5
1A5
330
1F
100
AcDbEntity
  8
化粧台
  6
CONTINUOUS
 62
     2
100
AcDbLine
 10
977.0000000000265
 20
869.4999999999782
 30
0.0
 11
945.0000000000266
 21
869.4999999999782
 31
0.0
  0
LINE
  5
1A6
330
1F
100
AcDbEntity
  8
化粧台
  6
CONTINUOUS
 62
     2
100
AcDbLine
 10
945.0000000000266
 20
919.5
 30
0.0
 11
945.0000000000266
 21
869.4999999999782
 31
0.0
  0
LINE
  5
1A7
330
1F
100
AcDbEntity
  8
化粧台
  6
CONTINUOUS
 62
     2
100
AcDbLine
 10
977.0000000000265
 20
919.5
 30
0.0
 11
977.0000000000265
 21
869.4999999999782
 31
0.0
  0
LINE
  5
1A8
330
1F
100
AcDbEntity
  8
化粧台
  6
CONTINUOUS
 62
     6
100
AcDbLine
 10
756.0000000026096
 20
1449.50000000004
 30
0.0
 11
776.0000000026096
 21
1449.50000000004
 31
0.0
  0
LINE
  5
1A9
330
1F
100
AcDbEntity
  8
化粧台
  6
CONTINUOUS
 62
     6
100
AcDbLine
 10
766.0000000026096
 20
1439.5
 30
0.0
 11
766.0000000026096
 21
1459.50000000004
 31
0.0
  0
CIRCLE
  5
1AA
330
1F
100
AcDbEntity
  8
化粧台
  6
CONTINUOUS
 62
     6
100
AcDbCircle
 10
766.0000000000302
 20
1449.500000000098
 30
0.0
 40
3.800000000000001
  0
LINE
  5
1AB
330
1F
100
AcDbEntity
  8
化粧台
  6
CONTINUOUS
 62
     6
100
AcDbLine
 10
1146.000000000008
 20
1449.50000000004
 30
0.0
 11
1166.000000000008
 21
1449.50000000004
 31
0.0
  0
LINE
  5
1AC
330
1F
100
AcDbEntity
  8
化粧台
  6
CONTINUOUS
 62
     6
100
AcDbLine
 10
1156.000000000008
 20
1439.5
 30
0.0
 11
1156.000000000008
 21
1459.50000000004
 31
0.0
  0
CIRCLE
  5
1AD
330
1F
100
AcDbEntity
  8
化粧台
  6
CONTINUOUS
 62
     6
100
AcDbCircle
 10
1155.999999997429
 20
1449.500000000098
 30
0.0
 40
3.800000000000001
  0
ARC
  5
1AE
330
1F
100
AcDbEntity
  8
化粧台
  6
CONTINUOUS
 62
     6
100
AcDbCircle
 10
1185.835000000179
 20
1574.891304348086
 30
0.0
 40
100.0
100
AcDbArc
 50
83.99726479958528
 51
95.78779095102057
  0
LINE
  5
1AF
330
1F
100
AcDbEntity
  8
化粧台
  6
CONTINUOUS
 62
     6
100
AcDbLine
 10
1177.614828860676
 20
1696.815716896646
 30
0.0
 11
1181.250000000052
 21
1688.067551638451
 31
0.0
  0
ARC
  5
1B0
330
1F
100
AcDbEntity
  8
化粧台
  6
CONTINUOUS
 62
     6
100
AcDbCircle
 10
1179.000000000041
 20
1697.39130434845
 30
0.0
 40
1.5
100
AcDbArc
 50
89.99999999997263
 51
202.5646074934729
  0
LINE
  5
1B1
330
1F
100
AcDbEntity
  8
化粧台
  6
CONTINUOUS
 62
     6
100
AcDbLine
 10
1194.385171139407
 20
1696.815716896657
 30
0.0
 11
1190.750000000045
 21
1688.067551638458
 31
0.0
  0
ARC
  5
1B2
330
1F
100
AcDbEntity
  8
化粧台
  6
CONTINUOUS
 62
     6
100
AcDbCircle
 10
1193.000000000041
 20
1697.391304348457
 30
0.0
 40
1.5
100
AcDbArc
 50
337.4353925066304
 51
90.00000000011136
  0
LINE
  5
1B3
330
1F
100
AcDbEntity
  8
化粧台
  6
CONTINUOUS
 62
     6
100
AcDbLine
 10
1179.000000000041
 20
1698.89130434845
 30
0.0
 11
1193.000000000041
 21
1698.891304348457
 31
0.0
  0
ARC
  5
1B4
330
1F
100
AcDbEntity
  8
化粧台
  6
CONTINUOUS
 62
     6
100
AcDbCircle
 10
1182.750000000048
 20
1685.39130434845
 30
0.0
 40
1.5
100
AcDbArc
 50
180.0000000000381
 51
270.0000000001
  0
ARC
  5
1B5
330
1F
100
AcDbEntity
  8
化粧台
  6
CONTINUOUS
 62
     6
100
AcDbCircle
 10
1189.250000000048
 20
1685.391304348457
 30
0.0
 40
1.5
100
AcDbArc
 50
269.9999999999722
 51
0.0000000000343202
  0
LINE
  5
1B6
330
1F
100
AcDbEntity
  8
化粧台
  6
CONTINUOUS
 62
     6
100
AcDbLine
 10
1181.250000000048
 20
1685.39130434845
 30
0.0
 11
1181.250000000045
 21
1688.067551638458
 31
0.0
  0
LINE
  5
1B7
330
1F
100
AcDbEntity
  8
化粧台
  6
CONTINUOUS
 62
     6
100
AcDbLine
 10
1190.750000000048
 20
1685.391304348457
 30
0.0
 11
1190.750000000048
 21
1688.067551638465
 31
0.0
  0
LINE
  5
1B8
330
1F
100
AcDbEntity
  8
化粧台
  6
CONTINUOUS
 62
     6
100
AcDbLine
 10
1189.250000000023
 20
1683.891304348454
 30
0.0
 11
1182.750000000081
 21
1683.891304348454
 31
0.0
  0
LINE
  5
1B9
330
1F
100
AcDbEntity
  8
化粧台
  6
CONTINUOUS
 62
     6
100
AcDbLine
 10
1188.500000000059
 20
1674.616086766844
 30
0.0
 11
1188.500000000056
 21
1683.891304348454
 31
0.0
  0
LINE
  5
1BA
330
1F
100
AcDbEntity
  8
化粧台
  6
CONTINUOUS
 62
     6
100
AcDbLine
 10
1183.500000000063
 20
1674.77188559973
 30
0.0
 11
1183.500000000056
 21
1683.891304348454
 31
0.0
  0
ARC
  5
1BB
330
1F
100
AcDbEntity
  8
化粧台
  6
CONTINUOUS
 62
     6
100
AcDbCircle
 10
1176.002981663326
 20
1671.891304347973
 30
0.0
 40
2.502981663321009
100
AcDbArc
 50
95.78779095101787
 51
192.4803605327015
  0
ARC
  5
1BC
330
1F
100
AcDbEntity
  8
化粧台
  6
CONTINUOUS
 62
     6
100
AcDbCircle
 10
1196.034792608866
 20
1671.891304348046
 30
0.0
 40
2.465207391219374
100
AcDbArc
 50
12.67380037052594
 51
83.99726479958545
  0
LINE
  5
1BD
330
1F
100
AcDbEntity
  8
化粧台
  6
EXLTYPE3
 62
     6
100
AcDbLine
 10
1166.000000000038
 20
1825.269009300398
 30
0.0
 11
1166.000000000038
 21
1641.021739130503
 31
0.0
  0
LINE
  5
1BE
330
1F
100
AcDbEntity
  8
化粧台
  6
CONTINUOUS
 62
     2
100
AcDbLine
 10
2205.680501423655
 20
1642.151532742202
 30
0.0
 11
2201.207948429571
 21
1539.282813878577
 31
0.0
  0
ARC
  5
1BF
330
1F
100
AcDbEntity
  8
化粧台
  6
CONTINUOUS
 62
     2
100
AcDbCircle
 10
2208.608897757113
 20
1641.499999999975
 30
0.0
 40
3.000000000000002
100
AcDbArc
 50
90.00000000000001
 51
170.4059317731352
  0
ARC
  5
1C0
330
1F
100
AcDbEntity
  8
化粧台
  6
CONTINUOUS
 62
     2
100
AcDbCircle
 10
2202.692817974014
 20
1642.499999999978
 30
0.0
 40
3.000000000000003
100
AcDbArc
 50
270.0
 51
350.4059317731353
  0
LINE
  5
1C1
330
1F
100
AcDbEntity
  8
化粧台
  6
CONTINUOUS
 62
     2
100
AcDbLine
 10
2208.608897757113
 20
1644.499999999978
 30
0.0
 11
2491.000000000072
 21
1644.499999999978
 31
0.0
  0
LINE
  5
1C2
330
1F
100
AcDbEntity
  8
化粧台
  6
CONTINUOUS
 62
     2
100
AcDbLine
 10
2191.000000000072
 20
1669.499999999978
 30
0.0
 11
2191.000000000072
 21
1674.499999999978
 31
0.0
  0
LINE
  5
1C3
330
1F
100
AcDbEntity
  8
化粧台
  6
CONTINUOUS
 62
     2
100
AcDbLine
 10
2449.7058357382
 20
1679.499999999978
 30
0.0
 11
2196.000000000072
 21
1679.499999999978
 31
0.0
  0
ARC
  5
1C4
330
1F
100
AcDbEntity
  8
化粧台
  6
CONTINUOUS
 62
     2
100
AcDbCircle
 10
2449.7058357382
 20
1684.499999999978
 30
0.0
 40
5.0
100
AcDbArc
 50
270.0
 51
343.1195105726896
  0
LINE
  5
1C5
330
1F
100
AcDbEntity
  8
化粧台
  6
CONTINUOUS
 62
     2
100
AcDbLine
 10
2459.923318877579
 20
1700.951881795063
 30
0.0
 11
2454.490398336086
 21
1683.04811820489
 31
0.0
  0
ARC
  5
1C6
330
1F
100
AcDbEntity
  8
化粧台
  6
CONTINUOUS
 62
     2
100
AcDbCircle
 10
2196.212667637802
 20
1539.499999999978
 30
0.0
 40
5.0
100
AcDbArc
 50
235.0734784673723
 51
357.5104470780591
  0
ARC
  5
1C7
330
1F
100
AcDbEntity
  8
化粧台
  6
CONTINUOUS
 62
     2
100
AcDbCircle
 10
2290.67936699553
 20
1674.781346505904
 30
0.0
 40
170.0
100
AcDbArc
 50
183.5724826096917
 51
235.0734784673746
  0
ARC
  5
1C8
330
1F
100
AcDbEntity
  8
化粧台
  6
CONTINUOUS
 62
     2
100
AcDbCircle
 10
2196.000000000072
 20
1674.499999999978
 30
0.0
 40
5.0
100
AcDbArc
 50
90.00000000000001
 51
180.0000000000002
  0
ARC
  5
1C9
330
1F
100
AcDbEntity
  8
化粧台
  6
CONTINUOUS
 62
     2
100
AcDbCircle
 10
2126.000000000072
 20
2156.999999999975
 30
0.0
 40
487.4999999999997
100
AcDbArc
 50
270.0
 51
277.6622556607652
  0
ARC
  5
1CA
330
1F
100
AcDbEntity
  8
化粧台
  6
CONTINUOUS
 62
     2
100
AcDbCircle
 10
2126.000000000072
 20
1664.499999999978
 30
0.0
 40
5.0
100
AcDbArc
 50
90.00000000000001
 51
183.5724826096912
  0
LINE
  5
1CB
330
1F
100
AcDbEntity
  8
化粧台
  6
CONTINUOUS
 62
     2
100
AcDbLine
 10
2191.069933514155
 20
1668.666666666642
 30
0.0
 11
2195.577422872709
 21
1641.999999999978
 31
0.0
  0
ARC
  5
1CC
330
1F
100
AcDbEntity
  8
化粧台
  6
CONTINUOUS
 62
     2
100
AcDbCircle
 10
2196.000000000072
 20
1669.499999999978
 30
0.0
 40
5.0
100
AcDbArc
 50
180.0000000000002
 51
189.5940682268592
  0
ARC
  5
1CD
330
1F
100
AcDbEntity
  8
化粧台
  6
CONTINUOUS
 62
     2
100
AcDbCircle
 10
2198.535462764258
 20
1642.499999999978
 30
0.0
 40
3.000000000000002
100
AcDbArc
 50
189.5940682268655
 51
270.0
  0
LINE
  5
1CE
330
1F
100
AcDbEntity
  8
化粧台
  6
CONTINUOUS
 62
     2
100
AcDbLine
 10
2198.535462764258
 20
1639.499999999978
 30
0.0
 11
2202.692817974014
 21
1639.499999999978
 31
0.0
  0
LINE
  5
1CF
330
1F
100
AcDbEntity
  8
化粧台
  6
CONTINUOUS
 62
     2
100
AcDbLine
 10
2229.00000000007
 20
1011.0
 30
0.0
 11
2229.00000000007
 21
1501.0
 31
0.0
  0
LINE
  5
1D0
330
1F
100
AcDbEntity
  8
化粧台
  6
CONTINUOUS
 62
     2
100
AcDbLine
 10
2214.000000000081
 20
1501.0
 30
0.0
 11
2214.000000000081
 21
1011.0
 31
0.0
  0
LINE
  5
1D1
330
1F
100
AcDbEntity
  8
化粧台
  6
CONTINUOUS
 62
     2
100
AcDbLine
 10
2214.000000000081
 20
1501.0
 30
0.0
 11
2229.000000000077
 21
1501.0
 31
0.0
  0
LINE
  5
1D2
330
1F
100
AcDbEntity
  8
化粧台
  6
CONTINUOUS
 62
     2
100
AcDbLine
 10
2214.000000000081
 20
1011.0
 30
0.0
 11
2229.000000000077
 21
1011.0
 31
0.0
  0
ARC
  5
1D3
330
1F
100
AcDbEntity
  8
化粧台
  6
CONTINUOUS
 62
     2
100
AcDbCircle
 10
2204.50000000013
 20
1456.0
 30
0.0
 40
18.5
100
AcDbArc
 50
163.3984504009939
 51
196.6015495990061
  0
LINE
  5
1D4
330
1F
100
AcDbEntity
  8
化粧台
  6
CONTINUOUS
 62
     2
100
AcDbLine
 10
2214.00000000013
 20
1451.5
 30
0.0
 11
2187.78655739668
 21
1450.001629662143
 31
0.0
  0
ARC
  5
1D5
330
1F
100
AcDbEntity
  8
化粧台
  6
CONTINUOUS
 62
     2
100
AcDbCircle
 10
2187.729490168881
 20
1451.0
 30
0.0
 40
1.0
100
AcDbArc
 50
196.6015495990198
 51
273.2714886349227
  0
LINE
  5
1D6
330
1F
100
AcDbEntity
  8
化粧台
  6
CONTINUOUS
 62
     2
100
AcDbLine
 10
2214.00000000013
 20
1460.5
 30
0.0
 11
2187.78655739668
 21
1461.998370337857
 31
0.0
  0
ARC
  5
1D7
330
1F
100
AcDbEntity
  8
化粧台
  6
CONTINUOUS
 62
     2
100
AcDbCircle
 10
2187.729490168881
 20
1461.0
 30
0.0
 40
1.0
100
AcDbArc
 50
86.72851136507767
 51
163.3984504009802
  0
LINE
  5
1D8
330
1F
100
AcDbEntity
  8
化粧台
  6
CONTINUOUS
 62
     2
100
AcDbLine
 10
2210.50000000007
 20
1508.0
 30
0.0
 11
2231.00000000007
 21
1508.0
 31
0.0
  0
LINE
  5
1D9
330
1F
100
AcDbEntity
  8
化粧台
  6
CONTINUOUS
 62
     2
100
AcDbLine
 10
2210.50000000007
 20
1508.0
 30
0.0
 11
2210.50000000007
 21
1644.499999999978
 31
0.0
  0
LINE
  5
1DA
330
1F
100
AcDbEntity
  8
化粧台
  6
CONTINUOUS
 62
     2
100
AcDbLine
 10
2231.00000000007
 20
919.5
 30
0.0
 11
2231.00000000007
 21
1644.499999999978
 31
0.0
  0
LINE
  5
1DB
330
1F
100
AcDbEntity
  8
化粧台
  6
CONTINUOUS
 62
     6
100
AcDbLine
 10
2317.614828860676
 20
1696.815716896646
 30
0.0
 11
2321.250000000052
 21
1688.067551638451
 31
0.0
  0
ARC
  5
1DC
330
1F
100
AcDbEntity
  8
化粧台
  6
CONTINUOUS
 62
     6
100
AcDbCircle
 10
2319.000000000041
 20
1697.39130434845
 30
0.0
 40
1.5
100
AcDbArc
 50
89.99999999997263
 51
202.5646074934729
  0
LINE
  5
1DD
330
1F
100
AcDbEntity
  8
化粧台
  6
CONTINUOUS
 62
     6
100
AcDbLine
 10
2334.385171139406
 20
1696.815716896657
 30
0.0
 11
2330.750000000045
 21
1688.067551638458
 31
0.0
  0
ARC
  5
1DE
330
1F
100
AcDbEntity
  8
化粧台
  6
CONTINUOUS
 62
     6
100
AcDbCircle
 10
2333.000000000041
 20
1697.391304348457
 30
0.0
 40
1.5
100
AcDbArc
 50
337.4353925066304
 51
90.00000000011136
  0
LINE
  5
1DF
330
1F
100
AcDbEntity
  8
化粧台
  6
CONTINUOUS
 62
     6
100
AcDbLine
 10
2319.000000000041
 20
1698.89130434845
 30
0.0
 11
2333.000000000041
 21
1698.891304348457
 31
0.0
  0
ARC
  5
1E0
330
1F
100
AcDbEntity
  8
化粧台
  6
CONTINUOUS
 62
     6
100
AcDbCircle
 10
2322.750000000048
 20
1685.39130434845
 30
0.0
 40
1.5
100
AcDbArc
 50
180.0000000000381
 51
270.0000000001
  0
ARC
  5
1E1
330
1F
100
AcDbEntity
  8
化粧台
  6
CONTINUOUS
 62
     6
100
AcDbCircle
 10
2329.250000000048
 20
1685.391304348457
 30
0.0
 40
1.5
100
AcDbArc
 50
269.9999999999722
 51
0.0000000000343202
  0
LINE
  5
1E2
330
1F
100
AcDbEntity
  8
化粧台
  6
CONTINUOUS
 62
     6
100
AcDbLine
 10
2321.250000000048
 20
1685.39130434845
 30
0.0
 11
2321.250000000045
 21
1688.067551638458
 31
0.0
  0
LINE
  5
1E3
330
1F
100
AcDbEntity
  8
化粧台
  6
CONTINUOUS
 62
     6
100
AcDbLine
 10
2330.750000000048
 20
1685.391304348457
 30
0.0
 11
2330.750000000048
 21
1688.067551638465
 31
0.0
  0
LINE
  5
1E4
330
1F
100
AcDbEntity
  8
化粧台
  6
CONTINUOUS
 62
     6
100
AcDbLine
 10
2329.250000000025
 20
1683.891304348454
 30
0.0
 11
2322.750000000083
 21
1683.891304348454
 31
0.0
  0
LINE
  5
1E5
330
1F
100
AcDbEntity
  8
化粧台
  6
CONTINUOUS
 62
     6
100
AcDbLine
 10
2323.500000000063
 20
1679.500000000018
 30
0.0
 11
2323.500000000057
 21
1683.891304348454
 31
0.0
  0
LINE
  5
1E6
330
1F
100
AcDbEntity
  8
化粧台
  6
CONTINUOUS
 62
     6
100
AcDbLine
 10
2328.500000000059
 20
1679.500000000018
 30
0.0
 11
2328.500000000055
 21
1683.891304348454
 31
0.0
  0
LINE
  5
1E7
330
1F
100
AcDbEntity
  8
化粧台
  6
CONTINUOUS
 62
     2
100
AcDbLine
 10
2422.000000000028
 20
869.4999999999782
 30
0.0
 11
2390.000000000028
 21
869.4999999999782
 31
0.0
  0
LINE
  5
1E8
330
1F
100
AcDbEntity
  8
化粧台
  6
CONTINUOUS
 62
     2
100
AcDbLine
 10
2390.000000000028
 20
919.5
 30
0.0
 11
2390.000000000028
 21
869.4999999999782
 31
0.0
  0
LINE
  5
1E9
330
1F
100
AcDbEntity
  8
化粧台
  6
CONTINUOUS
 62
     2
100
AcDbLine
 10
2422.000000000028
 20
919.5
 30
0.0
 11
2422.000000000028
 21
869.4999999999782
 31
0.0
  0
LINE
  5
1EA
330
1F
100
AcDbEntity
  8
化粧台
  6
EXLTYPE2
 62
     6
100
AcDbLine
 10
2390.00000000003
 20
919.5
 30
0.0
 11
2390.00000000003
 21
1041.0
 31
0.0
  0
LINE
  5
1EB
330
1F
100
AcDbEntity
  8
化粧台
  6
EXLTYPE2
 62
     6
100
AcDbLine
 10
2422.00000000003
 20
919.5
 30
0.0
 11
2422.00000000003
 21
1041.0
 31
0.0
  0
LINE
  5
1EC
330
1F
100
AcDbEntity
  8
化粧台
  6
CONTINUOUS
 62
     6
100
AcDbLine
 10
2395.50000000003
 20
911.5
 30
0.0
 11
2416.500000000019
 21
911.5
 31
0.0
  0
LINE
  5
1ED
330
1F
100
AcDbEntity
  8
化粧台
  6
CONTINUOUS
 62
     6
100
AcDbLine
 10
2416.500000000019
 20
919.5
 30
0.0
 11
2416.500000000019
 21
911.5
 31
0.0
  0
LINE
  5
1EE
330
1F
100
AcDbEntity
  8
化粧台
  6
CONTINUOUS
 62
     6
100
AcDbLine
 10
2395.500000000012
 20
919.5
 30
0.0
 11
2395.500000000012
 21
911.5
 31
0.0
  0
LINE
  5
1EF
330
1F
100
AcDbEntity
  8
化粧台
  6
EXLTYPE2
 62
     6
100
AcDbLine
 10
2395.50000000003
 20
919.5
 30
0.0
 11
2395.50000000003
 21
1041.0
 31
0.0
  0
LINE
  5
1F0
330
1F
100
AcDbEntity
  8
化粧台
  6
EXLTYPE2
 62
     6
100
AcDbLine
 10
2416.50000000003
 20
919.5
 30
0.0
 11
2416.50000000003
 21
1041.0
 31
0.0
  0
LINE
  5
1F1
330
1F
100
AcDbEntity
  8
化粧台
  6
EXLTYPE3
 62
     6
100
AcDbLine
 10
2406.000000000028
 20
1091.0
 30
0.0
 11
2406.000000000028
 21
849.4999999999782
 31
0.0
  0
LINE
  5
1F2
330
1F
100
AcDbEntity
  8
化粧台
  6
CONTINUOUS
 62
     6
100
AcDbLine
 10
2523.500005722034
 20
1449.499999999956
 30
0.0
 11
2491.000005722034
 21
1447.49999999996
 31
0.0
  0
LINE
  5
1F3
330
1F
100
AcDbEntity
  8
化粧台
  6
CONTINUOUS
 62
     6
100
AcDbLine
 10
2491.000005722034
 20
1451.49999999996
 30
0.0
 11
2523.500005722034
 21
1449.499999999956
 31
0.0
  0
LINE
  5
1F4
330
1F
100
AcDbEntity
  8
化粧台
  6
CONTINUOUS
 62
     6
100
AcDbLine
 10
2486.00000000003
 20
1449.499999999953
 30
0.0
 11
2528.50000572193
 21
1449.499999999953
 31
0.0
  0
ARC
  5
1F5
330
1F
100
AcDbEntity
  8
化粧台
  6
CONTINUOUS
 62
     2
100
AcDbCircle
 10
2464.707881475463
 20
1699.499999999978
 30
0.0
 40
5.0
100
AcDbArc
 50
90.00000000000001
 51
163.119510572688
  0
LINE
  5
1F6
330
1F
100
AcDbEntity
  8
化粧台
  6
CONTINUOUS
 62
     2
100
AcDbLine
 10
2491.000000000072
 20
1704.499999999978
 30
0.0
 11
2464.707881475463
 21
1704.499999999978
 31
0.0
  0
LINE
  5
1F7
330
1F
100
AcDbEntity
  8
化粧台
  6
EXLTYPE3
 62
     6
100
AcDbLine
 10
2391.000000000037
 20
1825.269009300398
 30
0.0
 11
2391.000000000037
 21
1649.500000000102
 31
0.0
  0
LINE
  5
1F8
330
1F
100
AcDbEntity
  8
化粧台
  6
CONTINUOUS
 62
     6
100
AcDbLine
 10
983.8000000000222
 20
981.5000000000001
 30
0.0
 11
983.8000000000222
 21
963.7000000000007
 31
0.0
  0
LINE
  5
1F9
330
1F
100
AcDbEntity
  8
化粧台
  6
CONTINUOUS
 62
     6
100
AcDbLine
 10
938.2000000000237
 20
981.5000000000001
 30
0.0
 11
938.2000000000237
 21
963.7000000000007
 31
0.0
  0
ARC
  5
1FA
330
1F
100
AcDbEntity
  8
化粧台
  6
EXLTYPE2
 62
     6
100
AcDbCircle
 10
930.500000000023
 20
943.5
 30
0.0
 40
3.000000000000003
100
AcDbArc
 50
90.00000000000001
 51
180.0
  0
LINE
  5
1FB
330
1F
100
AcDbEntity
  8
化粧台
  6
EXLTYPE2
 62
     6
100
AcDbLine
 10
930.500000000023
 20
946.5
 30
0.0
 11
991.500000000023
 21
946.5
 31
0.0
  0
LINE
  5
1FC
330
1F
100
AcDbEntity
  8
化粧台
  6
EXLTYPE2
 62
     6
100
AcDbLine
 10
927.500000000023
 20
943.5
 30
0.0
 11
927.500000000023
 21
923.5
 31
0.0
  0
ARC
  5
1FD
330
1F
100
AcDbEntity
  8
化粧台
  6
EXLTYPE2
 62
     6
100
AcDbCircle
 10
937.000000000023
 20
958.5
 30
0.0
 40
3.000000000000003
100
AcDbArc
 50
90.00000000000001
 51
180.0
  0
LINE
  5
1FE
330
1F
100
AcDbEntity
  8
化粧台
  6
EXLTYPE2
 62
     6
100
AcDbLine
 10
937.000000000023
 20
961.4999999999999
 30
0.0
 11
985.0000000000229
 21
961.4999999999999
 31
0.0
  0
LINE
  5
1FF
330
1F
100
AcDbEntity
  8
化粧台
  6
EXLTYPE2
 62
     6
100
AcDbLine
 10
934.000000000023
 20
958.5
 30
0.0
 11
934.000000000023
 21
946.5
 31
0.0
  0
ARC
  5
200
330
1F
100
AcDbEntity
  8
化粧台
  6
EXLTYPE2
 62
     6
100
AcDbCircle
 10
985.0000000000229
 20
958.5
 30
0.0
 40
3.000000000000003
100
AcDbArc
 50
0.0
 51
90.00000000000001
  0
LINE
  5
201
330
1F
100
AcDbEntity
  8
化粧台
  6
EXLTYPE2
 62
     6
100
AcDbLine
 10
988.000000000023
 20
958.5
 30
0.0
 11
988.000000000023
 21
946.5
 31
0.0
  0
ARC
  5
202
330
1F
100
AcDbEntity
  8
化粧台
  6
EXLTYPE2
 62
     6
100
AcDbCircle
 10
991.500000000023
 20
943.5
 30
0.0
 40
3.000000000000003
100
AcDbArc
 50
0.0
 51
90.00000000000001
  0
LINE
  5
203
330
1F
100
AcDbEntity
  8
化粧台
  6
EXLTYPE2
 62
     6
100
AcDbLine
 10
994.500000000023
 20
943.5
 30
0.0
 11
994.500000000023
 21
923.5
 31
0.0
  0
LINE
  5
204
330
1F
100
AcDbEntity
  8
化粧台
  6
EXLTYPE2
 62
     6
100
AcDbLine
 10
927.500000000023
 20
923.5
 30
0.0
 11
994.500000000023
 21
923.5
 31
0.0
  0
LINE
  5
205
330
1F
100
AcDbEntity
  8
化粧台
  6
EXLTYPE2
 62
     6
100
AcDbLine
 10
938.2000000000237
 20
981.5000000000001
 30
0.0
 11
983.8000000000222
 21
981.5000000000001
 31
0.0
  0
LINE
  5
206
330
1F
100
AcDbEntity
  8
化粧台
  6
EXLTYPE2
 62
     6
100
AcDbLine
 10
938.2000000000237
 20
963.7000000000007
 30
0.0
 11
983.8000000000222
 21
963.7000000000007
 31
0.0
  0
LINE
  5
207
330
1F
100
AcDbEntity
  8
化粧台
  6
CONTINUOUS
 62
     6
100
AcDbLine
 10
2428.800000000022
 20
981.5000000000001
 30
0.0
 11
2428.800000000022
 21
963.7000000000007
 31
0.0
  0
LINE
  5
208
330
1F
100
AcDbEntity
  8
化粧台
  6
CONTINUOUS
 62
     6
100
AcDbLine
 10
2383.200000000023
 20
981.5000000000001
 30
0.0
 11
2383.200000000023
 21
963.7000000000007
 31
0.0
  0
ARC
  5
209
330
1F
100
AcDbEntity
  8
化粧台
  6
EXLTYPE2
 62
     6
100
AcDbCircle
 10
2375.500000000023
 20
943.5
 30
0.0
 40
3.000000000000003
100
AcDbArc
 50
90.00000000000001
 51
180.0
  0
LINE
  5
20A
330
1F
100
AcDbEntity
  8
化粧台
  6
EXLTYPE2
 62
     6
100
AcDbLine
 10
2375.500000000023
 20
946.5
 30
0.0
 11
2436.500000000023
 21
946.5
 31
0.0
  0
LINE
  5
20B
330
1F
100
AcDbEntity
  8
化粧台
  6
EXLTYPE2
 62
     6
100
AcDbLine
 10
2372.500000000023
 20
943.5
 30
0.0
 11
2372.500000000023
 21
923.5
 31
0.0
  0
ARC
  5
20C
330
1F
100
AcDbEntity
  8
化粧台
  6
EXLTYPE2
 62
     6
100
AcDbCircle
 10
2382.000000000023
 20
958.5
 30
0.0
 40
3.000000000000003
100
AcDbArc
 50
90.00000000000001
 51
180.0
  0
LINE
  5
20D
330
1F
100
AcDbEntity
  8
化粧台
  6
EXLTYPE2
 62
     6
100
AcDbLine
 10
2382.000000000023
 20
961.4999999999999
 30
0.0
 11
2430.000000000023
 21
961.4999999999999
 31
0.0
  0
LINE
  5
20E
330
1F
100
AcDbEntity
  8
化粧台
  6
EXLTYPE2
 62
     6
100
AcDbLine
 10
2379.000000000023
 20
958.5
 30
0.0
 11
2379.000000000023
 21
946.5
 31
0.0
  0
ARC
  5
20F
330
1F
100
AcDbEntity
  8
化粧台
  6
EXLTYPE2
 62
     6
100
AcDbCircle
 10
2430.000000000023
 20
958.5
 30
0.0
 40
3.000000000000003
100
AcDbArc
 50
0.0
 51
90.00000000000001
  0
LINE
  5
210
330
1F
100
AcDbEntity
  8
化粧台
  6
EXLTYPE2
 62
     6
100
AcDbLine
 10
2433.000000000023
 20
958.5
 30
0.0
 11
2433.000000000023
 21
946.5
 31
0.0
  0
ARC
  5
211
330
1F
100
AcDbEntity
  8
化粧台
  6
EXLTYPE2
 62
     6
100
AcDbCircle
 10
2436.500000000023
 20
943.5
 30
0.0
 40
3.000000000000003
100
AcDbArc
 50
0.0
 51
90.00000000000001
  0
LINE
  5
212
330
1F
100
AcDbEntity
  8
化粧台
  6
EXLTYPE2
 62
     6
100
AcDbLine
 10
2439.500000000023
 20
943.5
 30
0.0
 11
2439.500000000023
 21
923.5
 31
0.0
  0
LINE
  5
213
330
1F
100
AcDbEntity
  8
化粧台
  6
EXLTYPE2
 62
     6
100
AcDbLine
 10
2372.500000000023
 20
923.5
 30
0.0
 11
2439.500000000023
 21
923.5
 31
0.0
  0
LINE
  5
214
330
1F
100
AcDbEntity
  8
化粧台
  6
EXLTYPE2
 62
     6
100
AcDbLine
 10
2383.200000000023
 20
981.5000000000001
 30
0.0
 11
2428.800000000022
 21
981.5000000000001
 31
0.0
  0
LINE
  5
215
330
1F
100
AcDbEntity
  8
化粧台
  6
EXLTYPE2
 62
     6
100
AcDbLine
 10
2383.200000000023
 20
963.7000000000007
 30
0.0
 11
2428.800000000022
 21
963.7000000000007
 31
0.0
  0
LINE
  5
216
330
1F
100
AcDbEntity
  8
化粧台
  6
EXLTYPE2
 62
     6
100
AcDbLine
 10
945.0000000000302
 20
919.5
 30
0.0
 11
945.0000000000302
 21
1089.5
 31
0.0
  0
LINE
  5
217
330
1F
100
AcDbEntity
  8
化粧台
  6
EXLTYPE2
 62
     6
100
AcDbLine
 10
977.0000000000301
 20
919.5
 30
0.0
 11
977.0000000000301
 21
1089.5
 31
0.0
  0
LINE
  5
218
330
1F
100
AcDbEntity
  8
化粧台
  6
EXLTYPE4
 62
     6
100
AcDbLine
 10
1160.50000000003
 20
919.5
 30
0.0
 11
1160.50000000003
 21
1069.5
 31
0.0
  0
LINE
  5
219
330
1F
100
AcDbEntity
  8
化粧台
  6
EXLTYPE4
 62
     6
100
AcDbLine
 10
1181.50000000003
 20
919.5
 30
0.0
 11
1181.50000000003
 21
1069.5
 31
0.0
  0
LINE
  5
21A
330
1F
100
AcDbEntity
  8
化粧台
  6
EXLTYPE3
 62
     6
100
AcDbLine
 10
1171.00000000003
 20
1079.5
 30
0.0
 11
1171.00000000003
 21
891.5
 31
0.0
  0
LINE
  5
21B
330
1F
100
AcDbEntity
  8
化粧台
  6
EXLTYPE3
 62
     6
100
AcDbLine
 10
2461.00000000003
 20
1389.499999999998
 30
0.0
 11
2556.00000000003
 21
1389.499999999998
 31
0.0
  0
LINE
  5
21C
330
1F
100
AcDbEntity
  8
化粧台
  6
CONTINUOUS
 62
     6
100
AcDbLine
 10
2541.00000000003
 20
1405.499999999998
 30
0.0
 11
2541.00000000003
 21
1373.499999999998
 31
0.0
  0
LINE
  5
21D
330
1F
100
AcDbEntity
  8
化粧台
  6
CONTINUOUS
 62
     6
100
AcDbLine
 10
2491.00000000003
 20
1405.499999999998
 30
0.0
 11
2541.00000000003
 21
1405.499999999998
 31
0.0
  0
LINE
  5
21E
330
1F
100
AcDbEntity
  8
化粧台
  6
CONTINUOUS
 62
     6
100
AcDbLine
 10
2491.00000000003
 20
1373.499999999998
 30
0.0
 11
2541.00000000003
 21
1373.499999999998
 31
0.0
  0
LINE
  5
21F
330
1F
100
AcDbEntity
  8
化粧台
  6
CONTINUOUS
 62
     6
100
AcDbLine
 10
2491.00000000003
 20
1258.999999999978
 30
0.0
 11
2499.00000000003
 21
1258.999999999978
 31
0.0
  0
LINE
  5
220
330
1F
100
AcDbEntity
  8
化粧台
  6
CONTINUOUS
 62
     6
100
AcDbLine
 10
2491.00000000003
 20
1279.999999999985
 30
0.0
 11
2499.00000000003
 21
1279.999999999985
 31
0.0
  0
LINE
  5
221
330
1F
100
AcDbEntity
  8
化粧台
  6
CONTINUOUS
 62
     6
100
AcDbLine
 10
2499.00000000003
 20
1258.999999999996
 30
0.0
 11
2499.00000000003
 21
1279.999999999985
 31
0.0
  0
LINE
  5
222
330
1F
100
AcDbEntity
  8
化粧台
  6
EXLTYPE3
 62
     6
100
AcDbLine
 10
2471.00000000003
 20
1269.499999999998
 30
0.0
 11
2519.00000000003
 21
1269.499999999998
 31
0.0
  0
LINE
  5
223
330
1F
100
AcDbEntity
  8
化粧台
  6
CONTINUOUS
 62
     2
100
AcDbLine
 10
959.9999999999902
 20
1501.0
 30
0.0
 11
959.9999999999902
 21
1339.5
 31
0.0
  0
LINE
  5
224
330
1F
100
AcDbEntity
  8
化粧台
  6
CONTINUOUS
 62
     2
100
AcDbLine
 10
959.9999999999902
 20
1231.5
 30
0.0
 11
959.9999999999902
 21
1011.00000000004
 31
0.0
  0
LINE
  5
225
330
1F
100
AcDbEntity
  8
化粧台
  6
CONTINUOUS
 62
     2
100
AcDbLine
 10
961.9999999999903
 20
1501.0
 30
0.0
 11
961.9999999999903
 21
1339.5
 31
0.0
  0
LINE
  5
226
330
1F
100
AcDbEntity
  8
化粧台
  6
CONTINUOUS
 62
     2
100
AcDbLine
 10
961.9999999999903
 20
1231.5
 30
0.0
 11
961.9999999999903
 21
1011.00000000004
 31
0.0
  0
LINE
  5
227
330
1F
100
AcDbEntity
  8
化粧台
  6
EXLTYPE3
 62
     6
100
AcDbLine
 10
961.0000000000302
 20
1724.499999999956
 30
0.0
 11
961.0000000000302
 21
1339.5
 31
0.0
  0
LINE
  5
228
330
1F
100
AcDbEntity
  8
化粧台
  6
EXLTYPE3
 62
     6
100
AcDbLine
 10
961.0000000000302
 20
1231.5
 30
0.0
 11
961.0000000000302
 21
849.5
 31
0.0
  0
TEXT
  5
229
330
1F
100
AcDbEntity
  8
化粧台
  6
CONTINUOUS
 62
     2
100
AcDbText
 10
504.9999999999829
 20
926.6999999999989
 30
0.0
 40
59.99999618530273
  1
Ｆ.Ｌ.
 41
0.9086538461538465
  7
EXCADSTD
 72
     5
 11
639.9999914169141
 21
926.6999999999989
 31
0.0
100
AcDbText
  0
LINE
  5
22A
330
1F
100
AcDbEntity
  8
化粧台
  6
CONTINUOUS
 62
     7
100
AcDbLine
 10
2014.50000000003
 20
919.4999999999991
 30
0.0
 11
2491.00000000003
 21
919.4999999999991
 31
0.0
  0
TEXT
  5
22B
330
1F
100
AcDbEntity
  8
化粧台
  6
CONTINUOUS
 62
     2
100
AcDbText
 10
2023.999999999883
 20
926.6999999999998
 30
0.0
 40
59.99999618530273
  1
Ｆ.Ｌ.
 41
0.9086538461538446
  7
EXCADSTD
 72
     5
 11
2158.999991416814
 21
926.6999999999998
 31
0.0
100
AcDbText
  0
LINE
  5
22C
330
1F
100
AcDbEntity
  8
化粧台
  6
CONTINUOUS
 62
     1
100
AcDbLine
 10
676.0000000001703
 20
3785.896460656128
 30
0.0
 11
665.4968154077244
 21
3786.958862369156
 31
0.0
  0
LINE
  5
22D
330
1F
100
AcDbEntity
  8
化粧台
  6
CONTINUOUS
 62
     1
100
AcDbLine
 10
1246.000000000088
 20
3785.896460656128
 30
0.0
 11
1256.503184592538
 21
3786.958862369156
 31
0.0
  0
LINE
  5
22E
330
1F
100
AcDbEntity
  8
化粧台
  6
CONTINUOUS
 62
     1
100
AcDbLine
 10
676.0000000001303
 20
3785.896460656131
 30
0.0
 11
676.0000000001303
 21
3524.999999999956
 31
0.0
  0
ARC
  5
22F
330
1F
100
AcDbEntity
  8
化粧台
  6
CONTINUOUS
 62
     1
100
AcDbCircle
 10
666.0000000001303
 20
3791.933478461477
 30
0.0
 40
5.0
100
AcDbArc
 50
180.0
 51
264.2241517557764
  0
LINE
  5
230
330
1F
100
AcDbEntity
  8
化粧台
  6
CONTINUOUS
 62
     1
100
AcDbLine
 10
879.8467290692126
 20
3784.379204098828
 30
0.0
 11
676.0000000001703
 21
3785.896460656128
 31
0.0
  0
LINE
  5
231
330
1F
100
AcDbEntity
  8
化粧台
  6
CONTINUOUS
 62
     1
100
AcDbLine
 10
666.0000000001303
 20
3794.999999999956
 30
0.0
 11
661.0000000001303
 21
3794.999999999956
 31
0.0
  0
ARC
  5
232
330
1F
100
AcDbEntity
  8
化粧台
  6
CONTINUOUS
 62
     2
100
AcDbCircle
 10
666.0000000001303
 20
3799.999999999956
 30
0.0
 40
5.0
100
AcDbArc
 50
180.0
 51
270.0000000000002
  0
ARC
  5
233
330
1F
100
AcDbEntity
  8
化粧台
  6
CONTINUOUS
 62
     2
100
AcDbCircle
 10
759.2575899818105
 20
3519.999999999956
 30
0.0
 40
5.0
100
AcDbArc
 50
51.72879195205692
 51
90.00000000000001
  0
ARC
  5
234
330
1F
100
AcDbEntity
  8
化粧台
  6
CONTINUOUS
 62
     2
100
AcDbCircle
 10
666.0000000001303
 20
3529.999999999956
 30
0.0
 40
5.0
100
AcDbArc
 50
180.0
 51
270.0000000000002
  0
ARC
  5
235
330
1F
100
AcDbEntity
  8
化粧台
  6
CONTINUOUS
 62
     1
100
AcDbCircle
 10
961.0000000001302
 20
3775.714285714243
 30
0.0
 40
320.7142857142863
100
AcDbArc
 50
231.4199075616226
 51
231.7287919520556
  0
LINE
  5
236
330
1F
100
AcDbEntity
  8
化粧台
  6
CONTINUOUS
 62
     1
100
AcDbLine
 10
761.0000000001303
 20
3524.999999999956
 30
0.0
 11
759.2575899818105
 21
3524.999999999956
 31
0.0
  0
LINE
  5
237
330
1F
100
AcDbEntity
  8
化粧台
  6
CONTINUOUS
 62
     2
100
AcDbLine
 10
661.0000000001303
 20
3824.999999999956
 30
0.0
 11
661.0000000001303
 21
3529.999999999956
 31
0.0
  0
LINE
  5
238
330
1F
100
AcDbEntity
  8
化粧台
  6
CONTINUOUS
 62
     2
100
AcDbLine
 10
759.2575899818105
 20
3524.999999999956
 30
0.0
 11
666.0000000001303
 21
3524.999999999956
 31
0.0
  0
ELLIPSE
  5
239
330
1F
100
AcDbEntity
  8
化粧台
  6
CONTINUOUS
 62
     2
100
AcDbEllipse
 10
961.0000000001302
 20
3771.173898276829
 30
0.0
 11
12.00000000000001
 21
0.0
 31
0.0
210
0.0
220
0.0
230
1.0
 40
0.2903763590166665
 41
0.0
 42
6.283185307179586
  0
ARC
  5
23A
330
1F
100
AcDbEntity
  8
化粧台
  6
CONTINUOUS
 62
     2
100
AcDbCircle
 10
961.0000000001302
 20
3862.972118768519
 30
0.0
 40
112.9721187685906
100
AcDbArc
 50
224.0817618104601
 51
315.9182381895401
  0
LINE
  5
23B
330
1F
100
AcDbEntity
  8
化粧台
  6
CONTINUOUS
 62
     1
100
AcDbLine
 10
1246.000000000128
 20
3785.896460656131
 30
0.0
 11
1246.000000000128
 21
3524.999999999956
 31
0.0
  0
ARC
  5
23C
330
1F
100
AcDbEntity
  8
化粧台
  6
CONTINUOUS
 62
     1
100
AcDbCircle
 10
1256.000000000128
 20
3791.933478461477
 30
0.0
 40
5.0
100
AcDbArc
 50
275.7758482442237
 51
0.0
  0
LINE
  5
23D
330
1F
100
AcDbEntity
  8
化粧台
  6
CONTINUOUS
 62
     1
100
AcDbLine
 10
1042.153270931052
 20
3784.379204098828
 30
0.0
 11
1246.000000000088
 21
3785.896460656128
 31
0.0
  0
LINE
  5
23E
330
1F
100
AcDbEntity
  8
化粧台
  6
CONTINUOUS
 62
     1
100
AcDbLine
 10
1256.000000000128
 20
3794.999999999956
 30
0.0
 11
1261.000000000128
 21
3794.999999999956
 31
0.0
  0
ARC
  5
23F
330
1F
100
AcDbEntity
  8
化粧台
  6
CONTINUOUS
 62
     2
100
AcDbCircle
 10
1256.000000000128
 20
3799.999999999956
 30
0.0
 40
5.0
100
AcDbArc
 50
270.0000000000002
 51
0.0
  0
LINE
  5
240
330
1F
100
AcDbEntity
  8
化粧台
  6
CONTINUOUS
 62
     2
100
AcDbLine
 10
666.0000000001303
 20
3794.999999999956
 30
0.0
 11
1256.000000000128
 21
3794.999999999956
 31
0.0
  0
CIRCLE
  5
241
330
1F
100
AcDbEntity
  8
化粧台
  6
CONTINUOUS
 62
     2
100
AcDbCircle
 10
961.0000000001302
 20
3699.999999999956
 30
0.0
 40
20.5
  0
CIRCLE
  5
242
330
1F
100
AcDbEntity
  8
化粧台
  6
CONTINUOUS
 62
     2
100
AcDbCircle
 10
961.0000000001302
 20
3699.999999999956
 30
0.0
 40
30.50000000000002
  0
ARC
  5
243
330
1F
100
AcDbEntity
  8
化粧台
  6
CONTINUOUS
 62
     2
100
AcDbCircle
 10
1162.74241001845
 20
3519.999999999956
 30
0.0
 40
5.0
100
AcDbArc
 50
90.00000000000001
 51
128.2712080479443
  0
ARC
  5
244
330
1F
100
AcDbEntity
  8
化粧台
  6
CONTINUOUS
 62
     2
100
AcDbCircle
 10
1256.000000000128
 20
3529.999999999956
 30
0.0
 40
5.0
100
AcDbArc
 50
270.0000000000002
 51
0.0
  0
ARC
  5
245
330
1F
100
AcDbEntity
  8
化粧台
  6
CONTINUOUS
 62
     2
100
AcDbCircle
 10
961.0000000001302
 20
3775.714285714243
 30
0.0
 40
320.7142857142863
100
AcDbArc
 50
231.7287919520556
 51
308.2712080479444
  0
ARC
  5
246
330
1F
100
AcDbEntity
  8
化粧台
  6
CONTINUOUS
 62
     1
100
AcDbCircle
 10
961.0000000001302
 20
3775.714285714243
 30
0.0
 40
320.7142857142863
100
AcDbArc
 50
308.2712080479444
 51
308.5800924383774
  0
LINE
  5
247
330
1F
100
AcDbEntity
  8
化粧台
  6
CONTINUOUS
 62
     1
100
AcDbLine
 10
1161.00000000013
 20
3524.999999999956
 30
0.0
 11
1162.74241001845
 21
3524.999999999956
 31
0.0
  0
LINE
  5
248
330
1F
100
AcDbEntity
  8
化粧台
  6
CONTINUOUS
 62
     2
100
AcDbLine
 10
1261.000000000128
 20
3824.999999999956
 30
0.0
 11
1261.000000000128
 21
3529.999999999956
 31
0.0
  0
LINE
  5
249
330
1F
100
AcDbEntity
  8
化粧台
  6
CONTINUOUS
 62
     2
100
AcDbLine
 10
1162.74241001845
 20
3524.999999999956
 30
0.0
 11
1256.000000000128
 21
3524.999999999956
 31
0.0
  0
LINE
  5
24A
330
1F
100
AcDbEntity
  8
化粧台
  6
EXLTYPE3
 62
     6
100
AcDbLine
 10
914.9000000001281
 20
3699.999999999956
 30
0.0
 11
1006.50000000013
 21
3699.999999999956
 31
0.0
  0
LINE
  5
24B
330
1F
100
AcDbEntity
  8
化粧台
  6
CONTINUOUS
 62
     6
100
AcDbLine
 10
1154.00000000013
 20
3825.0
 30
0.0
 11
1156.00000000013
 21
3857.5
 31
0.0
  0
LINE
  5
24C
330
1F
100
AcDbEntity
  8
化粧台
  6
CONTINUOUS
 62
     6
100
AcDbLine
 10
1156.00000000013
 20
3857.5
 30
0.0
 11
1158.00000000013
 21
3825.0
 31
0.0
  0
LINE
  5
24D
330
1F
100
AcDbEntity
  8
化粧台
  6
CONTINUOUS
 62
     6
100
AcDbLine
 10
1156.00000000013
 20
3820.0
 30
0.0
 11
1156.00000000013
 21
3862.500005721901
 31
0.0
  0
LINE
  5
24E
330
1F
100
AcDbEntity
  8
化粧台
  6
CONTINUOUS
 62
     6
100
AcDbLine
 10
764.0000000001303
 20
3825.0
 30
0.0
 11
766.0000000001303
 21
3857.5
 31
0.0
  0
LINE
  5
24F
330
1F
100
AcDbEntity
  8
化粧台
  6
CONTINUOUS
 62
     6
100
AcDbLine
 10
766.0000000001303
 20
3857.5
 30
0.0
 11
768.0000000001303
 21
3825.0
 31
0.0
  0
LINE
  5
250
330
1F
100
AcDbEntity
  8
化粧台
  6
CONTINUOUS
 62
     6
100
AcDbLine
 10
766.0000000001303
 20
3820.0
 30
0.0
 11
766.0000000001303
 21
3862.500005721901
 31
0.0
  0
LINE
  5
251
330
1F
100
AcDbEntity
  8
化粧台
  6
EXLTYPE3
 62
     6
100
AcDbLine
 10
961.0000000001265
 20
3434.999999999956
 30
0.0
 11
961.0000000001302
 21
3845.0
 31
0.0
  0
LINE
  5
252
330
1F
100
AcDbEntity
  8
化粧台
  6
CONTINUOUS
 62
     6
100
AcDbLine
 10
1144.00000000013
 20
3724.999999999956
 30
0.0
 11
1188.00000000013
 21
3724.999999999956
 31
0.0
  0
LINE
  5
253
330
1F
100
AcDbEntity
  8
化粧台
  6
CONTINUOUS
 62
     6
100
AcDbLine
 10
1166.00000000013
 20
3702.999999999956
 30
0.0
 11
1166.00000000013
 21
3746.999999999956
 31
0.0
  0
CIRCLE
  5
254
330
1F
100
AcDbEntity
  8
化粧台
  6
CONTINUOUS
 62
     6
100
AcDbCircle
 10
1186.00000000013
 20
3660.0
 30
0.0
 40
8.50000000060004
  0
CIRCLE
  5
255
330
1F
100
AcDbEntity
  8
化粧台
  6
CONTINUOUS
 62
     6
100
AcDbCircle
 10
1186.00000000013
 20
3660.0
 30
0.0
 40
12.5
  0
LINE
  5
256
330
1F
100
AcDbEntity
  8
化粧台
  6
EXLTYPE3
 62
     6
100
AcDbLine
 10
996.0000000001303
 20
3795.0
 30
0.0
 11
996.0000000001303
 21
3890.0
 31
0.0
  0
LINE
  5
257
330
1F
100
AcDbEntity
  8
化粧台
  6
CONTINUOUS
 62
     6
100
AcDbLine
 10
980.0000000001302
 20
3875.0
 30
0.0
 11
1012.00000000013
 21
3875.0
 31
0.0
  0
LINE
  5
258
330
1F
100
AcDbEntity
  8
化粧台
  6
CONTINUOUS
 62
     6
100
AcDbLine
 10
980.0000000001302
 20
3825.0
 30
0.0
 11
980.0000000001302
 21
3875.0
 31
0.0
  0
LINE
  5
259
330
1F
100
AcDbEntity
  8
化粧台
  6
CONTINUOUS
 62
     6
100
AcDbLine
 10
1012.00000000013
 20
3825.0
 30
0.0
 11
1012.00000000013
 21
3875.0
 31
0.0
  0
LINE
  5
25A
330
1F
100
AcDbEntity
  8
化粧台
  6
CONTINUOUS
 62
     6
100
AcDbLine
 10
1181.500000000152
 20
3825.0
 30
0.0
 11
1181.500000000152
 21
3833.0
 31
0.0
  0
LINE
  5
25B
330
1F
100
AcDbEntity
  8
化粧台
  6
CONTINUOUS
 62
     6
100
AcDbLine
 10
1160.500000000145
 20
3825.0
 30
0.0
 11
1160.500000000145
 21
3833.0
 31
0.0
  0
LINE
  5
25C
330
1F
100
AcDbEntity
  8
化粧台
  6
CONTINUOUS
 62
     6
100
AcDbLine
 10
1181.500000000134
 20
3833.0
 30
0.0
 11
1160.500000000145
 21
3833.0
 31
0.0
  0
LINE
  5
25D
330
1F
100
AcDbEntity
  8
化粧台
  6
EXLTYPE3
 62
     6
100
AcDbLine
 10
1171.00000000013
 20
3805.0
 30
0.0
 11
1171.00000000013
 21
3853.0
 31
0.0
  0
LINE
  5
25E
330
1F
100
AcDbEntity
  8
化粧台
  6
CONTINUOUS
 62
     7
100
AcDbLine
 10
511.0000000001302
 20
3825.0
 30
0.0
 11
1516.000000000128
 21
3825.0
 31
0.0
  0
TEXT
  5
25F
330
1F
100
AcDbEntity
  8
化粧台
  6
CONTINUOUS
 62
     2
100
AcDbText
 10
510.5500000004442
 20
3758.000003814646
 30
0.0
 40
59.99999618530273
  1
Ｗ.Ｌ.
 41
0.9086538461538461
  7
EXCADSTD
 72
     5
 11
645.5499914173754
 21
3758.000003814646
 31
0.0
100
AcDbText
  0
LINE
  5
260
330
1F
100
AcDbEntity
  8
化粧台
  6
CONTINUOUS
 62
     7
100
AcDbLine
 10
2491.00000000003
 20
919.4999999999991
 30
0.0
 11
2491.00000000003
 21
2926.35
 31
0.0
  0
TEXT
  5
261
330
1F
100
AcDbEntity
  8
化粧台
  6
CONTINUOUS
 62
     2
100
AcDbText
 10
2481.499999999864
 20
2795.0
 30
0.0
 40
59.99999618530273
  1
Ｗ.Ｌ.
 50
90.0
 41
0.9086538461538461
  7
EXCADSTD
 72
     5
 11
2481.499999999864
 21
2929.999991416931
 31
0.0
100
AcDbText
  0
LINE
  5
262
330
1F
100
AcDbEntity
  8
化粧台
  6
CONTINUOUS
 62
     7
100
AcDbLine
 10
511.0000000000302
 20
919.4999999999991
 30
0.0
 11
1589.99999999997
 21
919.4999999999991
 31
0.0
  0
ARC
  5
263
330
1F
100
AcDbEntity
  8
化粧台
  6
CONTINUOUS
 62
     2
100
AcDbCircle
 10
961.0000000001302
 20
3634.999999999956
 30
0.0
 40
170.0
100
AcDbArc
 50
32.0669073622997
 51
61.48608474031997
  0
ARC
  5
264
330
1F
100
AcDbEntity
  8
化粧台
  6
CONTINUOUS
 62
     2
100
AcDbCircle
 10
961.0000000001302
 20
3634.999999999956
 30
0.0
 40
170.0
100
AcDbArc
 50
118.5139152596804
 51
17.11440851745224
  0
LINE
  5
265
330
1F
100
AcDbEntity
  8
化粧台
  6
CONTINUOUS
 62
     2
100
AcDbLine
 10
666.1851228748721
 20
1704.499999999956
 30
0.0
 11
1142.391245702681
 21
1704.499999999956
 31
0.0
  0
LINE
  5
266
330
1F
100
AcDbEntity
  8
化粧台
  6
CONTINUOUS
 62
     2
100
AcDbLine
 10
1187.298584942866
 20
1704.499999999956
 30
0.0
 11
1255.814877125225
 21
1704.499999999956
 31
0.0
  0
LINE
  5
267
330
1F
100
AcDbEntity
  8
鏡台
  6
CONTINUOUS
 62
     2
100
AcDbLine
 10
735.9999999999411
 20
2668.299999999999
 30
0.0
 11
735.9999999999411
 21
2168.299999999999
 31
0.0
  0
LINE
  5
268
330
1F
100
AcDbEntity
  8
鏡台
  6
CONTINUOUS
 62
     2
100
AcDbLine
 10
735.9999999999411
 20
2668.299999999999
 30
0.0
 11
737.4999999999411
 21
2668.299999999999
 31
0.0
  0
LINE
  5
269
330
1F
100
AcDbEntity
  8
鏡台
  6
CONTINUOUS
 62
     2
100
AcDbLine
 10
735.9999999999411
 20
2168.299999999999
 30
0.0
 11
737.4999999999411
 21
2168.299999999999
 31
0.0
  0
LINE
  5
26A
330
1F
100
AcDbEntity
  8
鏡台
  6
CONTINUOUS
 62
     4
100
AcDbLine
 10
737.4999999999411
 20
2177.099999999999
 30
0.0
 11
737.4999999999411
 21
2167.099999999999
 31
0.0
  0
LINE
  5
26B
330
1F
100
AcDbEntity
  8
鏡台
  6
CONTINUOUS
 62
     4
100
AcDbLine
 10
737.4999999999411
 20
2659.499999999999
 30
0.0
 11
737.4999999999411
 21
2669.499999999999
 31
0.0
  0
LINE
  5
26C
330
1F
100
AcDbEntity
  8
鏡台
  6
CONTINUOUS
 62
     2
100
AcDbLine
 10
1184.499999999941
 20
2668.299999999999
 30
0.0
 11
1185.999999999941
 21
2668.299999999999
 31
0.0
  0
LINE
  5
26D
330
1F
100
AcDbEntity
  8
鏡台
  6
CONTINUOUS
 62
     4
100
AcDbLine
 10
1184.499999999941
 20
2659.499999999999
 30
0.0
 11
1184.499999999941
 21
2669.499999999999
 31
0.0
  0
LINE
  5
26E
330
1F
100
AcDbEntity
  8
鏡台
  6
CONTINUOUS
 62
     4
100
AcDbLine
 10
1184.499999999941
 20
2669.499999999999
 30
0.0
 11
737.4999999999411
 21
2669.499999999999
 31
0.0
  0
LINE
  5
26F
330
1F
100
AcDbEntity
  8
鏡台
  6
CONTINUOUS
 62
     4
100
AcDbLine
 10
1184.499999999941
 20
2659.499999999999
 30
0.0
 11
737.4999999999411
 21
2659.499999999999
 31
0.0
  0
LINE
  5
270
330
1F
100
AcDbEntity
  8
鏡台
  6
EXLTYPE3
 62
     6
100
AcDbLine
 10
1185.999999999941
 20
2668.299999999999
 30
0.0
 11
735.9999999999411
 21
2418.299999999999
 31
0.0
  0
LINE
  5
271
330
1F
100
AcDbEntity
  8
鏡台
  6
CONTINUOUS
 62
     6
100
AcDbLine
 10
792.9999999999411
 20
2233.299999999998
 30
0.0
 11
828.9999999999411
 21
2233.299999999998
 31
0.0
  0
LINE
  5
272
330
1F
100
AcDbEntity
  8
鏡台
  6
CONTINUOUS
 62
     6
100
AcDbLine
 10
810.9999999999411
 20
2215.299999999999
 30
0.0
 11
810.9999999999411
 21
2251.299999999999
 31
0.0
  0
CIRCLE
  5
273
330
1F
100
AcDbEntity
  8
鏡台
  6
EXLTYPE2
 62
     6
100
AcDbCircle
 10
810.9999999999411
 20
2233.299999999999
 30
0.0
 40
2.5
  0
CIRCLE
  5
274
330
1F
100
AcDbEntity
  8
鏡台
  6
EXLTYPE2
 62
     6
100
AcDbCircle
 10
810.9999999999411
 20
2233.299999999999
 30
0.0
 40
8.0
  0
LINE
  5
275
330
1F
100
AcDbEntity
  8
鏡台
  6
CONTINUOUS
 62
     6
100
AcDbLine
 10
1092.999999999941
 20
2233.299999999998
 30
0.0
 11
1128.999999999941
 21
2233.299999999998
 31
0.0
  0
LINE
  5
276
330
1F
100
AcDbEntity
  8
鏡台
  6
CONTINUOUS
 62
     6
100
AcDbLine
 10
1110.999999999941
 20
2215.299999999999
 30
0.0
 11
1110.999999999941
 21
2251.299999999999
 31
0.0
  0
CIRCLE
  5
277
330
1F
100
AcDbEntity
  8
鏡台
  6
EXLTYPE2
 62
     6
100
AcDbCircle
 10
1110.999999999941
 20
2233.299999999999
 30
0.0
 40
2.5
  0
CIRCLE
  5
278
330
1F
100
AcDbEntity
  8
鏡台
  6
EXLTYPE2
 62
     6
100
AcDbCircle
 10
1110.999999999941
 20
2233.299999999999
 30
0.0
 40
8.0
  0
LINE
  5
279
330
1F
100
AcDbEntity
  8
鏡台
  6
CONTINUOUS
 62
     6
100
AcDbLine
 10
1092.999999999941
 20
2613.299999999998
 30
0.0
 11
1128.999999999941
 21
2613.299999999998
 31
0.0
  0
LINE
  5
27A
330
1F
100
AcDbEntity
  8
鏡台
  6
CONTINUOUS
 62
     6
100
AcDbLine
 10
1110.999999999941
 20
2595.299999999999
 30
0.0
 11
1110.999999999941
 21
2631.299999999999
 31
0.0
  0
CIRCLE
  5
27B
330
1F
100
AcDbEntity
  8
鏡台
  6
EXLTYPE2
 62
     6
100
AcDbCircle
 10
1110.999999999941
 20
2613.299999999999
 30
0.0
 40
2.5
  0
CIRCLE
  5
27C
330
1F
100
AcDbEntity
  8
鏡台
  6
EXLTYPE2
 62
     6
100
AcDbCircle
 10
1110.999999999941
 20
2613.299999999999
 30
0.0
 40
8.0
  0
LINE
  5
27D
330
1F
100
AcDbEntity
  8
鏡台
  6
CONTINUOUS
 62
     6
100
AcDbLine
 10
792.9999999999411
 20
2613.299999999998
 30
0.0
 11
828.9999999999411
 21
2613.299999999998
 31
0.0
  0
LINE
  5
27E
330
1F
100
AcDbEntity
  8
鏡台
  6
CONTINUOUS
 62
     6
100
AcDbLine
 10
810.9999999999411
 20
2595.299999999999
 30
0.0
 11
810.9999999999411
 21
2631.299999999999
 31
0.0
  0
CIRCLE
  5
27F
330
1F
100
AcDbEntity
  8
鏡台
  6
EXLTYPE2
 62
     6
100
AcDbCircle
 10
810.9999999999411
 20
2613.299999999999
 30
0.0
 40
2.5
  0
CIRCLE
  5
280
330
1F
100
AcDbEntity
  8
鏡台
  6
EXLTYPE2
 62
     6
100
AcDbCircle
 10
810.9999999999411
 20
2613.299999999999
 30
0.0
 40
8.0
  0
LINE
  5
281
330
1F
100
AcDbEntity
  8
鏡台
  6
CONTINUOUS
 62
     2
100
AcDbLine
 10
1185.999999999941
 20
2168.299999999999
 30
0.0
 11
1184.499999999941
 21
2168.299999999999
 31
0.0
  0
LINE
  5
282
330
1F
100
AcDbEntity
  8
鏡台
  6
CONTINUOUS
 62
     4
100
AcDbLine
 10
1184.499999999941
 20
2177.099999999999
 30
0.0
 11
1184.499999999941
 21
2167.099999999999
 31
0.0
  0
LINE
  5
283
330
1F
100
AcDbEntity
  8
鏡台
  6
CONTINUOUS
 62
     2
100
AcDbLine
 10
1185.999999999941
 20
2668.299999999999
 30
0.0
 11
1185.999999999941
 21
2168.299999999999
 31
0.0
  0
LINE
  5
284
330
1F
100
AcDbEntity
  8
鏡台
  6
CONTINUOUS
 62
     4
100
AcDbLine
 10
1184.499999999941
 20
2177.099999999999
 30
0.0
 11
737.4999999999411
 21
2177.099999999999
 31
0.0
  0
LINE
  5
285
330
1F
100
AcDbEntity
  8
鏡台
  6
CONTINUOUS
 62
     4
100
AcDbLine
 10
1184.499999999941
 20
2167.099999999999
 30
0.0
 11
737.4999999999411
 21
2167.099999999999
 31
0.0
  0
LINE
  5
286
330
1F
100
AcDbEntity
  8
鏡台
  6
EXLTYPE3
 62
     6
100
AcDbLine
 10
1185.999999999941
 20
2168.299999999999
 30
0.0
 11
735.9999999999411
 21
2418.299999999999
 31
0.0
  0
LINE
  5
287
330
1F
100
AcDbEntity
  8
鏡台
  6
EXLTYPE2
 62
     6
100
AcDbLine
 10
1185.999999999941
 20
2662.299999999999
 30
0.0
 11
735.9999999999411
 21
2662.299999999999
 31
0.0
  0
LINE
  5
288
330
1F
100
AcDbEntity
  8
鏡台
  6
EXLTYPE2
 62
     6
100
AcDbLine
 10
1185.999999999941
 20
2183.299999999999
 30
0.0
 11
735.9999999999411
 21
2183.299999999999
 31
0.0
  0
LINE
  5
289
330
1F
100
AcDbEntity
  8
鏡台
  6
CONTINUOUS
 62
     6
100
AcDbLine
 10
878.2144660940096
 20
2294.585533905901
 30
0.0
 11
865.4644660940096
 21
2281.835533905904
 31
0.0
  0
LINE
  5
28A
330
1F
100
AcDbEntity
  8
鏡台
  6
CONTINUOUS
 62
     6
100
AcDbLine
 10
857.4999999999411
 20
2266.799999999973
 30
0.0
 11
889.9999999999447
 21
2299.29999999997
 31
0.0
  0
LINE
  5
28B
330
1F
100
AcDbEntity
  8
鏡台
  6
CONTINUOUS
 62
     6
100
AcDbLine
 10
868.0355339058726
 20
2270.264466094036
 30
0.0
 11
883.0355339058763
 21
2285.264466094034
 31
0.0
  0
LINE
  5
28C
330
1F
100
AcDbEntity
  8
鏡台
  6
CONTINUOUS
 62
     6
100
AcDbLine
 10
1052.21446609401
 20
2397.585533905901
 30
0.0
 11
1039.46446609401
 21
2384.835533905904
 31
0.0
  0
LINE
  5
28D
330
1F
100
AcDbEntity
  8
鏡台
  6
CONTINUOUS
 62
     6
100
AcDbLine
 10
1031.499999999937
 20
2369.799999999973
 30
0.0
 11
1063.999999999941
 21
2402.29999999997
 31
0.0
  0
LINE
  5
28E
330
1F
100
AcDbEntity
  8
鏡台
  6
CONTINUOUS
 62
     6
100
AcDbLine
 10
1042.035533905873
 20
2373.264466094036
 30
0.0
 11
1057.035533905876
 21
2388.264466094034
 31
0.0
  0
LINE
  5
28F
330
1F
100
AcDbEntity
  8
鏡台
  6
CONTINUOUS
 62
     6
100
AcDbLine
 10
896.1106925091001
 20
2562.972326358701
 30
0.0
 11
883.3606925091001
 21
2550.222326358705
 31
0.0
  0
LINE
  5
290
330
1F
100
AcDbEntity
  8
鏡台
  6
CONTINUOUS
 62
     6
100
AcDbLine
 10
875.396226415028
 20
2535.186792452773
 30
0.0
 11
907.8962264150316
 21
2567.686792452771
 31
0.0
  0
LINE
  5
291
330
1F
100
AcDbEntity
  8
鏡台
  6
CONTINUOUS
 62
     6
100
AcDbLine
 10
885.9317603209631
 20
2538.651258546836
 30
0.0
 11
900.9317603209668
 21
2553.651258546834
 31
0.0
  0
LINE
  5
292
330
1F
100
AcDbEntity
  8
鏡台
  6
EXLTYPE2
 62
     6
100
AcDbLine
 10
751.9999999999411
 20
2480.299999999999
 30
0.0
 11
751.9999999999411
 21
2440.299999999999
 31
0.0
  0
LINE
  5
293
330
1F
100
AcDbEntity
  8
鏡台
  6
EXLTYPE2
 62
     6
100
AcDbLine
 10
1169.999999999941
 20
2480.299999999999
 30
0.0
 11
1169.999999999941
 21
2440.299999999999
 31
0.0
  0
LINE
  5
294
330
1F
100
AcDbEntity
  8
鏡台
  6
EXLTYPE2
 62
     6
100
AcDbLine
 10
1169.999999999941
 20
2480.299999999999
 30
0.0
 11
751.9999999999411
 21
2480.299999999999
 31
0.0
  0
LINE
  5
295
330
1F
100
AcDbEntity
  8
鏡台
  6
EXLTYPE2
 62
     6
100
AcDbLine
 10
1169.999999999941
 20
2440.299999999999
 30
0.0
 11
751.9999999999411
 21
2440.299999999999
 31
0.0
  0
LINE
  5
296
330
1F
100
AcDbEntity
  8
鏡台
  6
EXLTYPE2
 62
     6
100
AcDbLine
 10
751.9999999999411
 20
2240.299999999999
 30
0.0
 11
751.9999999999411
 21
2200.299999999999
 31
0.0
  0
LINE
  5
297
330
1F
100
AcDbEntity
  8
鏡台
  6
EXLTYPE2
 62
     6
100
AcDbLine
 10
1169.999999999941
 20
2240.299999999999
 30
0.0
 11
1169.999999999941
 21
2200.299999999999
 31
0.0
  0
LINE
  5
298
330
1F
100
AcDbEntity
  8
鏡台
  6
EXLTYPE2
 62
     6
100
AcDbLine
 10
1169.999999999941
 20
2240.299999999999
 30
0.0
 11
751.9999999999411
 21
2240.299999999999
 31
0.0
  0
LINE
  5
299
330
1F
100
AcDbEntity
  8
鏡台
  6
EXLTYPE2
 62
     6
100
AcDbLine
 10
1169.999999999941
 20
2200.299999999999
 30
0.0
 11
751.9999999999411
 21
2200.299999999999
 31
0.0
  0
LINE
  5
29A
330
1F
100
AcDbEntity
  8
鏡台
  6
EXLTYPE3
 62
     6
100
AcDbLine
 10
960.9999999999411
 20
2146.499999999999
 30
0.0
 11
960.9999999999411
 21
2695.499999999999
 31
0.0
  0
LINE
  5
29B
330
1F
100
AcDbEntity
  8
鏡台
  6
EXLTYPE2
 62
     6
100
AcDbLine
 10
2457.500000000008
 20
2202.799999999998
 30
0.0
 11
2466.75000000001
 21
2202.799999999997
 31
0.0
  0
LINE
  5
29C
330
1F
100
AcDbEntity
  8
鏡台
  6
EXLTYPE2
 62
     6
100
AcDbLine
 10
2457.50000000001
 20
2215.299999999998
 30
0.0
 11
2457.500000000008
 21
2202.799999999998
 31
0.0
  0
LINE
  5
29D
330
1F
100
AcDbEntity
  8
鏡台
  6
EXLTYPE2
 62
     6
100
AcDbLine
 10
2460.00000000001
 20
2205.299999999997
 30
0.0
 11
2466.75000000001
 21
2205.299999999998
 31
0.0
  0
LINE
  5
29E
330
1F
100
AcDbEntity
  8
鏡台
  6
EXLTYPE2
 62
     6
100
AcDbLine
 10
2460.00000000001
 20
2215.299999999997
 30
0.0
 11
2460.00000000001
 21
2205.299999999997
 31
0.0
  0
LINE
  5
29F
330
1F
100
AcDbEntity
  8
鏡台
  6
EXLTYPE2
 62
     6
100
AcDbLine
 10
2460.00000000001
 20
2215.299999999997
 30
0.0
 11
2473.00000000001
 21
2215.299999999997
 31
0.0
  0
LINE
  5
2A0
330
1F
100
AcDbEntity
  8
鏡台
  6
EXLTYPE2
 62
     6
100
AcDbLine
 10
2473.00000000001
 20
2217.799999999999
 30
0.0
 11
2473.00000000001
 21
2215.299999999997
 31
0.0
  0
LINE
  5
2A1
330
1F
100
AcDbEntity
  8
鏡台
  6
EXLTYPE2
 62
     6
100
AcDbLine
 10
2397.50000000001
 20
2217.799999999998
 30
0.0
 11
2473.00000000001
 21
2217.799999999998
 31
0.0
  0
LINE
  5
2A2
330
1F
100
AcDbEntity
  8
鏡台
  6
EXLTYPE2
 62
     6
100
AcDbLine
 10
2412.00000000001
 20
2215.299999999998
 30
0.0
 11
2457.50000000001
 21
2215.299999999998
 31
0.0
  0
LINE
  5
2A3
330
1F
100
AcDbEntity
  8
鏡台
  6
EXLTYPE2
 62
     6
100
AcDbLine
 10
2412.00000000001
 20
2215.299999999998
 30
0.0
 11
2412.00000000001
 21
2208.549999999999
 31
0.0
  0
LINE
  5
2A4
330
1F
100
AcDbEntity
  8
鏡台
  6
EXLTYPE2
 62
     6
100
AcDbLine
 10
2409.50000000001
 20
2215.299999999998
 30
0.0
 11
2409.50000000001
 21
2208.549999999999
 31
0.0
  0
LINE
  5
2A5
330
1F
100
AcDbEntity
  8
鏡台
  6
EXLTYPE2
 62
     6
100
AcDbLine
 10
2397.50000000001
 20
2215.299999999998
 30
0.0
 11
2409.50000000001
 21
2215.299999999998
 31
0.0
  0
LINE
  5
2A6
330
1F
100
AcDbEntity
  8
鏡台
  6
EXLTYPE2
 62
     6
100
AcDbLine
 10
2397.50000000001
 20
2215.299999999998
 30
0.0
 11
2397.50000000001
 21
2200.299999999998
 31
0.0
  0
LINE
  5
2A7
330
1F
100
AcDbEntity
  8
鏡台
  6
EXLTYPE2
 62
     6
100
AcDbLine
 10
2395.00000000001
 20
2200.299999999998
 30
0.0
 11
2397.50000000001
 21
2200.299999999998
 31
0.0
  0
LINE
  5
2A8
330
1F
100
AcDbEntity
  8
鏡台
  6
EXLTYPE2
 62
     6
100
AcDbLine
 10
2395.00000000001
 20
2240.299999999998
 30
0.0
 11
2395.00000000001
 21
2200.299999999999
 31
0.0
  0
LINE
  5
2A9
330
1F
100
AcDbEntity
  8
鏡台
  6
EXLTYPE2
 62
     6
100
AcDbLine
 10
2395.00000000001
 20
2240.299999999998
 30
0.0
 11
2397.50000000001
 21
2240.299999999998
 31
0.0
  0
LINE
  5
2AA
330
1F
100
AcDbEntity
  8
鏡台
  6
EXLTYPE2
 62
     6
100
AcDbLine
 10
2397.50000000001
 20
2240.299999999998
 30
0.0
 11
2397.50000000001
 21
2217.799999999998
 31
0.0
  0
ARC
  5
2AB
330
1F
100
AcDbEntity
  8
鏡台
  6
EXLTYPE2
 62
     6
100
AcDbCircle
 10
2466.75000000001
 20
2204.049999999998
 30
0.0
 40
1.249999999999631
100
AcDbArc
 50
270.0000000000002
 51
90.00000000000001
  0
ARC
  5
2AC
330
1F
100
AcDbEntity
  8
鏡台
  6
EXLTYPE2
 62
     6
100
AcDbCircle
 10
2410.75000000001
 20
2208.549999999998
 30
0.0
 40
1.250000000000569
100
AcDbArc
 50
180.0
 51
0.0
  0
LINE
  5
2AD
330
1F
100
AcDbEntity
  8
鏡台
  6
EXLTYPE2
 62
     6
100
AcDbLine
 10
2457.500000000008
 20
2442.799999999998
 30
0.0
 11
2466.75000000001
 21
2442.799999999997
 31
0.0
  0
LINE
  5
2AE
330
1F
100
AcDbEntity
  8
鏡台
  6
EXLTYPE2
 62
     6
100
AcDbLine
 10
2457.50000000001
 20
2455.299999999998
 30
0.0
 11
2457.500000000008
 21
2442.799999999998
 31
0.0
  0
LINE
  5
2AF
330
1F
100
AcDbEntity
  8
鏡台
  6
EXLTYPE2
 62
     6
100
AcDbLine
 10
2460.00000000001
 20
2445.299999999997
 30
0.0
 11
2466.75000000001
 21
2445.299999999998
 31
0.0
  0
LINE
  5
2B0
330
1F
100
AcDbEntity
  8
鏡台
  6
EXLTYPE2
 62
     6
100
AcDbLine
 10
2460.00000000001
 20
2455.299999999997
 30
0.0
 11
2460.00000000001
 21
2445.299999999997
 31
0.0
  0
LINE
  5
2B1
330
1F
100
AcDbEntity
  8
鏡台
  6
EXLTYPE2
 62
     6
100
AcDbLine
 10
2460.00000000001
 20
2455.299999999997
 30
0.0
 11
2473.00000000001
 21
2455.299999999997
 31
0.0
  0
LINE
  5
2B2
330
1F
100
AcDbEntity
  8
鏡台
  6
EXLTYPE2
 62
     6
100
AcDbLine
 10
2473.00000000001
 20
2457.799999999999
 30
0.0
 11
2473.00000000001
 21
2455.299999999997
 31
0.0
  0
LINE
  5
2B3
330
1F
100
AcDbEntity
  8
鏡台
  6
EXLTYPE2
 62
     6
100
AcDbLine
 10
2397.50000000001
 20
2457.799999999998
 30
0.0
 11
2473.00000000001
 21
2457.799999999998
 31
0.0
  0
LINE
  5
2B4
330
1F
100
AcDbEntity
  8
鏡台
  6
EXLTYPE2
 62
     6
100
AcDbLine
 10
2412.00000000001
 20
2455.299999999998
 30
0.0
 11
2457.50000000001
 21
2455.299999999998
 31
0.0
  0
LINE
  5
2B5
330
1F
100
AcDbEntity
  8
鏡台
  6
EXLTYPE2
 62
     6
100
AcDbLine
 10
2412.00000000001
 20
2455.299999999998
 30
0.0
 11
2412.00000000001
 21
2448.549999999999
 31
0.0
  0
LINE
  5
2B6
330
1F
100
AcDbEntity
  8
鏡台
  6
EXLTYPE2
 62
     6
100
AcDbLine
 10
2409.50000000001
 20
2455.299999999998
 30
0.0
 11
2409.50000000001
 21
2448.549999999999
 31
0.0
  0
LINE
  5
2B7
330
1F
100
AcDbEntity
  8
鏡台
  6
EXLTYPE2
 62
     6
100
AcDbLine
 10
2397.50000000001
 20
2455.299999999998
 30
0.0
 11
2409.50000000001
 21
2455.299999999998
 31
0.0
  0
LINE
  5
2B8
330
1F
100
AcDbEntity
  8
鏡台
  6
EXLTYPE2
 62
     6
100
AcDbLine
 10
2397.50000000001
 20
2455.299999999998
 30
0.0
 11
2397.50000000001
 21
2440.299999999998
 31
0.0
  0
LINE
  5
2B9
330
1F
100
AcDbEntity
  8
鏡台
  6
EXLTYPE2
 62
     6
100
AcDbLine
 10
2395.00000000001
 20
2440.299999999998
 30
0.0
 11
2397.50000000001
 21
2440.299999999998
 31
0.0
  0
LINE
  5
2BA
330
1F
100
AcDbEntity
  8
鏡台
  6
EXLTYPE2
 62
     6
100
AcDbLine
 10
2395.00000000001
 20
2480.299999999998
 30
0.0
 11
2395.00000000001
 21
2440.299999999999
 31
0.0
  0
LINE
  5
2BB
330
1F
100
AcDbEntity
  8
鏡台
  6
EXLTYPE2
 62
     6
100
AcDbLine
 10
2395.00000000001
 20
2480.299999999998
 30
0.0
 11
2397.50000000001
 21
2480.299999999998
 31
0.0
  0
LINE
  5
2BC
330
1F
100
AcDbEntity
  8
鏡台
  6
EXLTYPE2
 62
     6
100
AcDbLine
 10
2397.50000000001
 20
2480.299999999998
 30
0.0
 11
2397.50000000001
 21
2457.799999999998
 31
0.0
  0
ARC
  5
2BD
330
1F
100
AcDbEntity
  8
鏡台
  6
EXLTYPE2
 62
     6
100
AcDbCircle
 10
2466.75000000001
 20
2444.049999999998
 30
0.0
 40
1.249999999999631
100
AcDbArc
 50
270.0000000000002
 51
90.00000000000001
  0
ARC
  5
2BE
330
1F
100
AcDbEntity
  8
鏡台
  6
EXLTYPE2
 62
     6
100
AcDbCircle
 10
2410.75000000001
 20
2448.549999999998
 30
0.0
 40
1.250000000000569
100
AcDbArc
 50
180.0
 51
0.0
  0
LINE
  5
2BF
330
1F
100
AcDbEntity
  8
鏡台
  6
CONTINUOUS
 62
     6
100
AcDbLine
 10
2491.000000000006
 20
2234.799999999999
 30
0.0
 11
2517.661651584708
 21
2234.799999999999
 31
0.0
  0
LINE
  5
2C0
330
1F
100
AcDbEntity
  8
鏡台
  6
CONTINUOUS
 62
     6
100
AcDbLine
 10
2491.000000000006
 20
2231.799999999999
 30
0.0
 11
2517.661651584737
 21
2231.799999999999
 31
0.0
  0
ARC
  5
2C1
330
1F
100
AcDbEntity
  8
鏡台
  6
CONTINUOUS
 62
     6
100
AcDbCircle
 10
2517.661651584737
 20
2246.799999999999
 30
0.0
 40
15.00000000000001
100
AcDbArc
 50
270.0000000000002
 51
295.8419327630793
  0
ARC
  5
2C2
330
1F
100
AcDbEntity
  8
鏡台
  6
CONTINUOUS
 62
     6
100
AcDbCircle
 10
2517.661651584708
 20
2219.799999999999
 30
0.0
 40
15.00000000000001
100
AcDbArc
 50
64.15806723683205
 51
90.00000000000001
  0
LINE
  5
2C3
330
1F
100
AcDbEntity
  8
鏡台
  6
EXLTYPE3
 62
     6
100
AcDbLine
 10
2531.799999999849
 20
2233.299999999999
 30
0.0
 11
2489.049999999849
 21
2233.299999999999
 31
0.0
  0
LINE
  5
2C4
330
1F
100
AcDbEntity
  8
鏡台
  6
CONTINUOUS
 62
     6
100
AcDbLine
 10
2491.000000000006
 20
2614.799999999999
 30
0.0
 11
2517.661651584708
 21
2614.799999999999
 31
0.0
  0
LINE
  5
2C5
330
1F
100
AcDbEntity
  8
鏡台
  6
CONTINUOUS
 62
     6
100
AcDbLine
 10
2491.000000000006
 20
2611.799999999999
 30
0.0
 11
2517.661651584737
 21
2611.799999999999
 31
0.0
  0
ARC
  5
2C6
330
1F
100
AcDbEntity
  8
鏡台
  6
CONTINUOUS
 62
     6
100
AcDbCircle
 10
2517.661651584737
 20
2626.799999999999
 30
0.0
 40
15.00000000000001
100
AcDbArc
 50
270.0000000000002
 51
295.8419327630793
  0
ARC
  5
2C7
330
1F
100
AcDbEntity
  8
鏡台
  6
CONTINUOUS
 62
     6
100
AcDbCircle
 10
2517.661651584708
 20
2599.799999999999
 30
0.0
 40
15.00000000000001
100
AcDbArc
 50
64.15806723683205
 51
90.00000000000001
  0
LINE
  5
2C8
330
1F
100
AcDbEntity
  8
鏡台
  6
EXLTYPE3
 62
     6
100
AcDbLine
 10
2531.799999999849
 20
2613.299999999999
 30
0.0
 11
2489.049999999849
 21
2613.299999999999
 31
0.0
  0
LINE
  5
2C9
330
1F
100
AcDbEntity
  8
鏡台
  6
CONTINUOUS
 62
     2
100
AcDbLine
 10
2389.00000000001
 20
2668.299999999999
 30
0.0
 11
2389.00000000001
 21
2168.299999999999
 31
0.0
  0
LINE
  5
2CA
330
1F
100
AcDbEntity
  8
鏡台
  6
CONTINUOUS
 62
     2
100
AcDbLine
 10
2391.00000000001
 20
2183.299999999999
 30
0.0
 11
2491.00000000001
 21
2183.299999999999
 31
0.0
  0
LINE
  5
2CB
330
1F
100
AcDbEntity
  8
鏡台
  6
CONTINUOUS
 62
     2
100
AcDbLine
 10
2391.00000000001
 20
2663.299999999999
 30
0.0
 11
2491.00000000001
 21
2663.299999999999
 31
0.0
  0
LINE
  5
2CC
330
1F
100
AcDbEntity
  8
鏡台
  6
CONTINUOUS
 62
     2
100
AcDbLine
 10
2391.00000000001
 20
2663.299999999999
 30
0.0
 11
2391.00000000001
 21
2183.299999999999
 31
0.0
  0
LINE
  5
2CD
330
1F
100
AcDbEntity
  8
鏡台
  6
CONTINUOUS
 62
     4
100
AcDbLine
 10
2371.00000000001
 20
2168.299999999999
 30
0.0
 11
2389.800000000009
 21
2168.299999999999
 31
0.0
  0
LINE
  5
2CE
330
1F
100
AcDbEntity
  8
鏡台
  6
CONTINUOUS
 62
     4
100
AcDbLine
 10
2369.800000000013
 20
2167.099999999999
 30
0.0
 11
2389.800000000009
 21
2167.099999999999
 31
0.0
  0
LINE
  5
2CF
330
1F
100
AcDbEntity
  8
鏡台
  6
CONTINUOUS
 62
     4
100
AcDbLine
 10
2389.800000000009
 20
2167.099999999999
 30
0.0
 11
2389.800000000009
 21
2168.299999999999
 31
0.0
  0
LINE
  5
2D0
330
1F
100
AcDbEntity
  8
鏡台
  6
CONTINUOUS
 62
     4
100
AcDbLine
 10
2369.800000000013
 20
2669.499999999999
 30
0.0
 11
2389.800000000009
 21
2669.499999999999
 31
0.0
  0
LINE
  5
2D1
330
1F
100
AcDbEntity
  8
鏡台
  6
CONTINUOUS
 62
     4
100
AcDbLine
 10
2371.00000000001
 20
2668.299999999999
 30
0.0
 11
2389.800000000009
 21
2668.299999999999
 31
0.0
  0
LINE
  5
2D2
330
1F
100
AcDbEntity
  8
鏡台
  6
CONTINUOUS
 62
     4
100
AcDbLine
 10
2389.800000000009
 20
2669.499999999999
 30
0.0
 11
2389.800000000009
 21
2668.299999999999
 31
0.0
  0
LINE
  5
2D3
330
1F
100
AcDbEntity
  8
鏡台
  6
CONTINUOUS
 62
     4
100
AcDbLine
 10
2371.00000000001
 20
2177.099999999999
 30
0.0
 11
2371.00000000001
 21
2168.299999999999
 31
0.0
  0
LINE
  5
2D4
330
1F
100
AcDbEntity
  8
鏡台
  6
CONTINUOUS
 62
     4
100
AcDbLine
 10
2369.800000000013
 20
2167.099999999999
 30
0.0
 11
2369.800000000013
 21
2177.099999999999
 31
0.0
  0
LINE
  5
2D5
330
1F
100
AcDbEntity
  8
鏡台
  6
CONTINUOUS
 62
     4
100
AcDbLine
 10
2369.800000000009
 20
2177.099999999999
 30
0.0
 11
2371.00000000001
 21
2177.099999999999
 31
0.0
  0
LINE
  5
2D6
330
1F
100
AcDbEntity
  8
鏡台
  6
CONTINUOUS
 62
     4
100
AcDbLine
 10
2371.00000000001
 20
2659.499999999999
 30
0.0
 11
2371.00000000001
 21
2668.299999999999
 31
0.0
  0
LINE
  5
2D7
330
1F
100
AcDbEntity
  8
鏡台
  6
CONTINUOUS
 62
     4
100
AcDbLine
 10
2369.800000000009
 20
2659.499999999999
 30
0.0
 11
2371.00000000001
 21
2659.499999999999
 31
0.0
  0
LINE
  5
2D8
330
1F
100
AcDbEntity
  8
鏡台
  6
CONTINUOUS
 62
     4
100
AcDbLine
 10
2369.800000000013
 20
2669.499999999999
 30
0.0
 11
2369.800000000013
 21
2659.499999999999
 31
0.0
  0
LINE
  5
2D9
330
1F
100
AcDbEntity
  8
鏡台
  6
CONTINUOUS
 62
     2
100
AcDbLine
 10
2374.00000000001
 20
2668.299999999999
 30
0.0
 11
2374.00000000001
 21
2168.299999999999
 31
0.0
  0
LINE
  5
2DA
330
1F
100
AcDbEntity
  8
鏡台
  6
CONTINUOUS
 62
     2
100
AcDbLine
 10
2371.00000000001
 20
2168.799999999999
 30
0.0
 11
2374.00000000001
 21
2168.799999999999
 31
0.0
  0
LINE
  5
2DB
330
1F
100
AcDbEntity
  8
鏡台
  6
CONTINUOUS
 62
     2
100
AcDbLine
 10
2371.00000000001
 20
2667.799999999999
 30
0.0
 11
2374.00000000001
 21
2667.799999999999
 31
0.0
  0
LINE
  5
2DC
330
1F
100
AcDbEntity
  8
鏡台
  6
CONTINUOUS
 62
     2
100
AcDbLine
 10
2371.00000000001
 20
2667.799999999999
 30
0.0
 11
2371.00000000001
 21
2168.799999999999
 31
0.0
  0
ARC
  5
2DD
330
1F
100
AcDbEntity
  8
付属金具
  6
CONTINUOUS
 62
     6
100
AcDbCircle
 10
1166.040440087961
 20
3725.033627205622
 30
0.0
 40
22.5239338808
100
AcDbArc
 50
43.50818700000016
 51
54.78416000000001
  0
ARC
  5
2DE
330
1F
100
AcDbEntity
  8
付属金具
  6
CONTINUOUS
 62
     6
100
AcDbCircle
 10
1166.018415304874
 20
3725.048792200134
 30
0.0
 40
22.5242991184
100
AcDbArc
 50
54.71626800000008
 51
65.99204899999945
  0
ARC
  5
2DF
330
1F
100
AcDbEntity
  8
付属金具
  6
CONTINUOUS
 62
     6
100
AcDbCircle
 10
1166.024355642942
 20
3725.046476693548
 30
0.0
 40
22.5239940848
100
AcDbArc
 50
66.00820999999988
 51
77.28414200000014
  0
ARC
  5
2E0
330
1F
100
AcDbEntity
  8
付属金具
  6
CONTINUOUS
 62
     6
100
AcDbCircle
 10
1165.998289097716
 20
3725.052347436207
 30
0.0
 40
22.5240542888
100
AcDbArc
 50
77.21624900000018
 51
88.49216799999986
  0
ARC
  5
2E1
330
1F
100
AcDbEntity
  8
付属金具
  6
CONTINUOUS
 62
     6
100
AcDbCircle
 10
1166.004617393097
 20
3725.051496391629
 30
0.0
 40
22.5246924512
100
AcDbArc
 50
88.50824599999994
 51
99.78377499999984
  0
ARC
  5
2E2
330
1F
100
AcDbEntity
  8
付属金具
  6
CONTINUOUS
 62
     6
100
AcDbCircle
 10
1165.978086856604
 20
3725.048921763997
 30
0.0
 40
22.52281810000001
100
AcDbArc
 50
99.71616999999982
 51
110.9929420000001
  0
ARC
  5
2E3
330
1F
100
AcDbEntity
  8
付属金具
  6
CONTINUOUS
 62
     6
100
AcDbCircle
 10
1165.992249669696
 20
3725.032712150681
 30
0.0
 40
22.5430707256
100
AcDbArc
 50
111.011786
 51
122.8865830000002
  0
LINE
  5
2E4
330
1F
100
AcDbEntity
  8
付属金具
  6
CONTINUOUS
 62
     6
100
AcDbLine
 10
1157.26431480207
 20
3745.294880864627
 30
0.0
 11
1068.160441107041
 21
3711.088748138764
 31
0.0
  0
LINE
  5
2E5
330
1F
100
AcDbEntity
  8
付属金具
  6
CONTINUOUS
 62
     6
100
AcDbLine
 10
1068.160704324286
 20
3711.088062434397
 30
0.0
 11
1157.264490280234
 21
3745.294423728383
 31
0.0
  0
LINE
  5
2E6
330
1F
100
AcDbEntity
  8
付属金具
  6
CONTINUOUS
 62
     6
100
AcDbLine
 10
1157.26454648551
 20
3745.294445303567
 30
0.0
 11
1158.088238552262
 21
3745.610631063937
 31
0.0
  0
ARC
  5
2E7
330
1F
100
AcDbEntity
  8
付属金具
  6
CONTINUOUS
 62
     6
100
AcDbCircle
 10
1076.064510473419
 20
3690.477000097403
 30
0.0
 40
22.074980612
100
AcDbArc
 50
110.9805179999999
 51
291.0194619999999
  0
ARC
  5
2E8
330
1F
100
AcDbEntity
  8
付属金具
  6
CONTINUOUS
 62
     6
100
AcDbCircle
 10
1166.015271810375
 20
3724.973588598083
 30
0.0
 40
22.5466267752
100
AcDbArc
 50
279.1146609999999
 51
290.9876739999999
  0
ARC
  5
2E9
330
1F
100
AcDbEntity
  8
付属金具
  6
CONTINUOUS
 62
     6
100
AcDbCircle
 10
1166.012245322594
 20
3724.956945607957
 30
0.0
 40
22.5322219648
100
AcDbArc
 50
291.0100219999999
 51
302.2818220000001
  0
ARC
  5
2EA
330
1F
100
AcDbEntity
  8
付属金具
  6
CONTINUOUS
 62
     6
100
AcDbCircle
 10
1166.038152420815
 20
3724.964134657638
 30
0.0
 40
22.5244877576
100
AcDbArc
 50
302.2163139999998
 51
313.4920000000001
  0
ARC
  5
2EB
330
1F
100
AcDbEntity
  8
付属金具
  6
CONTINUOUS
 62
     6
100
AcDbCircle
 10
1166.034019040823
 20
3724.959267752138
 30
0.0
 40
22.5238134728
100
AcDbArc
 50
313.5081599999998
 51
324.7841739999999
  0
ARC
  5
2EC
330
1F
100
AcDbEntity
  8
付属金具
  6
CONTINUOUS
 62
     6
100
AcDbCircle
 10
1165.86095799736
 20
3724.943742047785
 30
0.0
 40
22.0751973464
100
AcDbArc
 50
291.3032080000001
 51
291.3890839999999
  0
LINE
  5
2ED
330
1F
100
AcDbEntity
  8
付属金具
  6
CONTINUOUS
 62
     6
100
AcDbLine
 10
1083.982739190629
 20
3669.870162825584
 30
0.0
 11
1173.088278370553
 21
3704.072214407193
 31
0.0
  0
LINE
  5
2EE
330
1F
100
AcDbEntity
  8
付属金具
  6
CONTINUOUS
 62
     6
100
AcDbLine
 10
1173.088278370553
 20
3704.072214407193
 30
0.0
 11
1083.982696040261
 21
3669.870275236136
 31
0.0
  0
LINE
  5
2EF
330
1F
100
AcDbEntity
  8
付属金具
  6
CONTINUOUS
 62
     6
100
AcDbLine
 10
1173.911751808773
 20
3704.38896971436
 30
0.0
 11
1173.088059742021
 21
3704.07278395399
 31
0.0
  0
ARC
  5
2F0
330
1F
100
AcDbEntity
  8
付属金具
  6
CONTINUOUS
 62
     6
100
AcDbCircle
 10
1166.000005139139
 20
3724.999606451118
 30
0.0
 40
22.0770315616
100
AcDbArc
 50
291.0001660000001
 51
21.00021400000055
  0
ARC
  5
2F1
330
1F
100
AcDbEntity
  8
付属金具
  6
CONTINUOUS
 62
     6
100
AcDbCircle
 10
1166.046842299621
 20
3724.975342128738
 30
0.0
 40
22.5238977584
100
AcDbArc
 50
336.0081829999997
 51
347.2841830000002
  0
ARC
  5
2F2
330
1F
100
AcDbEntity
  8
付属金具
  6
CONTINUOUS
 62
     6
100
AcDbCircle
 10
1166.048973176067
 20
3724.981405055576
 30
0.0
 40
22.524363336
100
AcDbArc
 50
324.7162819999996
 51
335.992023
  0
ARC
  5
2F3
330
1F
100
AcDbEntity
  8
付属金具
  6
CONTINUOUS
 62
     6
100
AcDbCircle
 10
1165.999635741976
 20
3724.999202404832
 30
0.0
 40
22.0775252344
100
AcDbArc
 50
21.0011289999997
 51
110.9985290000003
  0
ARC
  5
2F4
330
1F
100
AcDbEntity
  8
付属金具
  6
CONTINUOUS
 62
     6
100
AcDbCircle
 10
1166.042586763495
 20
3725.011885011682
 30
0.0
 40
22.5324788352
100
AcDbArc
 50
21.01010400000024
 51
32.28177399999977
  0
ARC
  5
2F5
330
1F
100
AcDbEntity
  8
付属金具
  6
CONTINUOUS
 62
     6
100
AcDbCircle
 10
1166.035745655105
 20
3725.037994458412
 30
0.0
 40
22.5243352408
100
AcDbArc
 50
32.21625800000055
 51
43.49202600000044
  0
ARC
  5
2F6
330
1F
100
AcDbEntity
  8
付属金具
  6
CONTINUOUS
 62
     6
100
AcDbCircle
 10
1166.05265160186
 20
3724.995151325254
 30
0.0
 40
22.5238335408
100
AcDbArc
 50
358.5081779999999
 51
9.784192000000056
  0
ARC
  5
2F7
330
1F
100
AcDbEntity
  8
付属金具
  6
CONTINUOUS
 62
     6
100
AcDbCircle
 10
1166.044756830286
 20
3725.020589761435
 30
0.0
 40
22.5273213592
100
AcDbArc
 50
9.717078999999938
 51
20.99134400000031
  0
ARC
  5
2F8
330
1F
100
AcDbEntity
  8
付属金具
  6
CONTINUOUS
 62
     6
100
AcDbCircle
 10
1166.052229026175
 20
3725.001549612802
 30
0.0
 40
22.5244074856
100
AcDbArc
 50
347.216277
 51
358.4920179999999
  0
LINE
  5
2F9
330
1F
100
AcDbEntity
  8
付属金具
  6
CONTINUOUS
 62
     6
100
AcDbLine
 10
1162.423252758153
 20
3723.571255427726
 30
0.0
 11
1162.301932895451
 21
3723.954625645231
 31
0.0
  0
LINE
  5
2FA
330
1F
100
AcDbEntity
  8
付属金具
  6
CONTINUOUS
 62
     6
100
AcDbLine
 10
1162.592607413072
 20
3723.21209779454
 30
0.0
 11
1162.423252758153
 21
3723.571255427726
 31
0.0
  0
LINE
  5
2FB
330
1F
100
AcDbEntity
  8
付属金具
  6
CONTINUOUS
 62
     6
100
AcDbLine
 10
1162.786109268781
 20
3722.902221569497
 30
0.0
 11
1162.592607413072
 21
3723.21209779454
 31
0.0
  0
LINE
  5
2FC
330
1F
100
AcDbEntity
  8
付属金具
  6
CONTINUOUS
 62
     6
100
AcDbLine
 10
1162.998366111795
 20
3722.625524458182
 30
0.0
 11
1162.786109268781
 21
3722.902221569497
 31
0.0
  0
LINE
  5
2FD
330
1F
100
AcDbEntity
  8
付属金具
  6
CONTINUOUS
 62
     6
100
AcDbLine
 10
1163.217378182656
 20
3722.36847945335
 30
0.0
 11
1162.998366111795
 21
3722.625524458182
 31
0.0
  0
LINE
  5
2FE
330
1F
100
AcDbEntity
  8
付属金具
  6
CONTINUOUS
 62
     6
100
AcDbLine
 10
1163.440458807674
 20
3722.11587664899
 30
0.0
 11
1163.217378182656
 21
3722.36847945335
 31
0.0
  0
LINE
  5
2FF
330
1F
100
AcDbEntity
  8
付属金具
  6
CONTINUOUS
 62
     6
100
AcDbLine
 10
1163.660262145745
 20
3721.842076365718
 30
0.0
 11
1163.440458807674
 21
3722.11587664899
 31
0.0
  0
LINE
  5
300
330
1F
100
AcDbEntity
  8
付属金具
  6
CONTINUOUS
 62
     6
100
AcDbLine
 10
1163.867751783643
 20
3721.540458574339
 30
0.0
 11
1163.660262145745
 21
3721.842076365718
 31
0.0
  0
LINE
  5
301
330
1F
100
AcDbEntity
  8
付属金具
  6
CONTINUOUS
 62
     6
100
AcDbLine
 10
1164.053113538664
 20
3721.184556464034
 30
0.0
 11
1163.867751783643
 21
3721.540458574339
 31
0.0
  0
LINE
  5
302
330
1F
100
AcDbEntity
  8
付属金具
  6
CONTINUOUS
 62
     6
100
AcDbLine
 10
1164.119263052913
 20
3721.012231087828
 30
0.0
 11
1164.053113538664
 21
3721.184556464034
 31
0.0
  0
LINE
  5
303
330
1F
100
AcDbEntity
  8
付属金具
  6
CONTINUOUS
 62
     6
100
AcDbLine
 10
1164.167887762107
 20
3720.83317856924
 30
0.0
 11
1164.119263052913
 21
3721.012231087828
 31
0.0
  0
LINE
  5
304
330
1F
100
AcDbEntity
  8
付属金具
  6
CONTINUOUS
 62
     6
100
AcDbLine
 10
1164.218437853049
 20
3720.499919558737
 30
0.0
 11
1164.167887762107
 21
3720.83317856924
 31
0.0
  0
LINE
  5
305
330
1F
100
AcDbEntity
  8
付属金具
  6
CONTINUOUS
 62
     6
100
AcDbLine
 10
1164.233872263021
 20
3720.250793046286
 30
0.0
 11
1164.218437853049
 21
3720.499919558737
 31
0.0
  0
LINE
  5
306
330
1F
100
AcDbEntity
  8
付属金具
  6
CONTINUOUS
 62
     6
100
AcDbLine
 10
1164.231497091736
 20
3720.152398132836
 30
0.0
 11
1164.233872263021
 21
3720.250793046286
 31
0.0
  0
LINE
  5
307
330
1F
100
AcDbEntity
  8
付属金具
  6
CONTINUOUS
 62
     6
100
AcDbLine
 10
1164.52144043391
 20
3719.919825338443
 30
0.0
 11
1164.231497091736
 21
3720.152398132836
 31
0.0
  0
LINE
  5
308
330
1F
100
AcDbEntity
  8
付属金具
  6
CONTINUOUS
 62
     6
100
AcDbLine
 10
1164.480975882664
 20
3720.40573642405
 30
0.0
 11
1164.52144043391
 21
3719.919825338443
 31
0.0
  0
LINE
  5
309
330
1F
100
AcDbEntity
  8
付属金具
  6
CONTINUOUS
 62
     6
100
AcDbLine
 10
1164.409630193241
 20
3720.845550641143
 30
0.0
 11
1164.480975882664
 21
3720.40573642405
 31
0.0
  0
LINE
  5
30A
330
1F
100
AcDbEntity
  8
付属金具
  6
CONTINUOUS
 62
     6
100
AcDbLine
 10
1164.355617077649
 20
3721.068453939252
 30
0.0
 11
1164.409630193241
 21
3720.845550641143
 31
0.0
  0
LINE
  5
30B
330
1F
100
AcDbEntity
  8
付属金具
  6
CONTINUOUS
 62
     6
100
AcDbLine
 10
1164.282955647306
 20
3721.272784583279
 30
0.0
 11
1164.355617077649
 21
3721.068453939252
 31
0.0
  0
LINE
  5
30C
330
1F
100
AcDbEntity
  8
付属金具
  6
CONTINUOUS
 62
     6
100
AcDbLine
 10
1164.107545973156
 20
3721.632506939503
 30
0.0
 11
1164.282955647306
 21
3721.272784583279
 31
0.0
  0
LINE
  5
30D
330
1F
100
AcDbEntity
  8
付属金具
  6
CONTINUOUS
 62
     6
100
AcDbLine
 10
1163.90659466936
 20
3721.939390315771
 30
0.0
 11
1164.107545973156
 21
3721.632506939503
 31
0.0
  0
LINE
  5
30E
330
1F
100
AcDbEntity
  8
付属金具
  6
CONTINUOUS
 62
     6
100
AcDbLine
 10
1163.690257536314
 20
3722.211765396913
 30
0.0
 11
1163.90659466936
 21
3721.939390315771
 31
0.0
  0
LINE
  5
30F
330
1F
100
AcDbEntity
  8
付属金具
  6
CONTINUOUS
 62
     6
100
AcDbLine
 10
1163.24216602648
 20
3722.721999504325
 30
0.0
 11
1163.690257536314
 21
3722.211765396913
 31
0.0
  0
LINE
  5
310
330
1F
100
AcDbEntity
  8
付属金具
  6
CONTINUOUS
 62
     6
100
AcDbLine
 10
1163.028447683788
 20
3722.995246571326
 30
0.0
 11
1163.24216602648
 21
3722.721999504325
 31
0.0
  0
LINE
  5
311
330
1F
100
AcDbEntity
  8
付属金具
  6
CONTINUOUS
 62
     6
100
AcDbLine
 10
1162.927698959962
 20
3723.14576534575
 30
0.0
 11
1163.028447683788
 21
3722.995246571326
 31
0.0
  0
LINE
  5
312
330
1F
100
AcDbEntity
  8
付属金具
  6
CONTINUOUS
 62
     6
100
AcDbLine
 10
1162.83494208106
 20
3723.305121358022
 30
0.0
 11
1162.927698959962
 21
3723.14576534575
 31
0.0
  0
LINE
  5
313
330
1F
100
AcDbEntity
  8
付属金具
  6
CONTINUOUS
 62
     6
100
AcDbLine
 10
1162.745942865789
 20
3723.477334038954
 30
0.0
 11
1162.83494208106
 21
3723.305121358022
 31
0.0
  0
LINE
  5
314
330
1F
100
AcDbEntity
  8
付属金具
  6
CONTINUOUS
 62
     6
100
AcDbLine
 10
1162.665587426141
 20
3723.664278991209
 30
0.0
 11
1162.745942865789
 21
3723.477334038954
 31
0.0
  0
LINE
  5
315
330
1F
100
AcDbEntity
  8
付属金具
  6
CONTINUOUS
 62
     6
100
AcDbLine
 10
1162.549187398598
 20
3724.04953775649
 30
0.0
 11
1162.665587426141
 21
3723.664278991209
 31
0.0
  0
LINE
  5
316
330
1F
100
AcDbEntity
  8
付属金具
  6
CONTINUOUS
 62
     6
100
AcDbLine
 10
1162.490690240326
 20
3724.411104155865
 30
0.0
 11
1162.549187398598
 21
3724.04953775649
 31
0.0
  0
LINE
  5
317
330
1F
100
AcDbEntity
  8
付属金具
  6
CONTINUOUS
 62
     6
100
AcDbLine
 10
1162.470697033931
 20
3724.761737636098
 30
0.0
 11
1162.490690240326
 21
3724.411104155865
 31
0.0
  0
LINE
  5
318
330
1F
100
AcDbEntity
  8
付属金具
  6
CONTINUOUS
 62
     6
100
AcDbLine
 10
1162.468097920271
 20
3725.104744819066
 30
0.0
 11
1162.470697033931
 21
3724.761737636098
 31
0.0
  0
LINE
  5
319
330
1F
100
AcDbEntity
  8
付属金具
  6
CONTINUOUS
 62
     6
100
AcDbLine
 10
1162.465440411974
 20
3725.447467338432
 30
0.0
 11
1162.468097920271
 21
3725.104744819066
 31
0.0
  0
LINE
  5
31A
330
1F
100
AcDbEntity
  8
付属金具
  6
CONTINUOUS
 62
     6
100
AcDbLine
 10
1162.440532555785
 20
3725.796209962216
 30
0.0
 11
1162.465440411974
 21
3725.447467338432
 31
0.0
  0
LINE
  5
31B
330
1F
100
AcDbEntity
  8
付属金具
  6
CONTINUOUS
 62
     6
100
AcDbLine
 10
1162.374488902456
 20
3726.154879533548
 30
0.0
 11
1162.440532555785
 21
3725.796209962216
 31
0.0
  0
LINE
  5
31C
330
1F
100
AcDbEntity
  8
付属金具
  6
CONTINUOUS
 62
     6
100
AcDbLine
 10
1162.24910567096
 20
3726.533805241909
 30
0.0
 11
1162.374488902456
 21
3726.154879533548
 31
0.0
  0
LINE
  5
31D
330
1F
100
AcDbEntity
  8
付属金具
  6
CONTINUOUS
 62
     6
100
AcDbLine
 10
1162.165944523361
 20
3726.705503193476
 30
0.0
 11
1162.24910567096
 21
3726.533805241909
 31
0.0
  0
LINE
  5
31E
330
1F
100
AcDbEntity
  8
付属金具
  6
CONTINUOUS
 62
     6
100
AcDbLine
 10
1162.060630194152
 20
3726.882867325675
 30
0.0
 11
1162.165944523361
 21
3726.705503193476
 31
0.0
  0
LINE
  5
31F
330
1F
100
AcDbEntity
  8
付属金具
  6
CONTINUOUS
 62
     6
100
AcDbLine
 10
1161.822787699423
 20
3727.218623967474
 30
0.0
 11
1162.060630194152
 21
3726.882867325675
 31
0.0
  0
LINE
  5
320
330
1F
100
AcDbEntity
  8
付属金具
  6
CONTINUOUS
 62
     6
100
AcDbLine
 10
1161.53660296303
 20
3727.575969201112
 30
0.0
 11
1161.822787699423
 21
3727.218623967474
 31
0.0
  0
LINE
  5
321
330
1F
100
AcDbEntity
  8
付属金具
  6
CONTINUOUS
 62
     6
100
AcDbLine
 10
1161.473006842696
 20
3727.256226997044
 30
0.0
 11
1161.53660296303
 21
3727.575969201112
 31
0.0
  0
LINE
  5
322
330
1F
100
AcDbEntity
  8
付属金具
  6
CONTINUOUS
 62
     6
100
AcDbLine
 10
1161.656129827887
 20
3727.025679877189
 30
0.0
 11
1161.473006842696
 21
3727.256226997044
 31
0.0
  0
LINE
  5
323
330
1F
100
AcDbEntity
  8
付属金具
  6
CONTINUOUS
 62
     6
100
AcDbLine
 10
1161.824484815854
 20
3726.766373132858
 30
0.0
 11
1161.656129827887
 21
3727.025679877189
 31
0.0
  0
LINE
  5
324
330
1F
100
AcDbEntity
  8
付属金具
  6
CONTINUOUS
 62
     6
100
AcDbLine
 10
1161.991730471115
 20
3726.435008159178
 30
0.0
 11
1161.824484815854
 21
3726.766373132858
 31
0.0
  0
LINE
  5
325
330
1F
100
AcDbEntity
  8
付属金具
  6
CONTINUOUS
 62
     6
100
AcDbLine
 10
1162.117199884034
 20
3726.056115532767
 30
0.0
 11
1161.991730471115
 21
3726.435008159178
 31
0.0
  0
LINE
  5
326
330
1F
100
AcDbEntity
  8
付属金具
  6
CONTINUOUS
 62
     6
100
AcDbLine
 10
1162.184126232858
 20
3725.694900068485
 30
0.0
 11
1162.117199884034
 21
3726.056115532767
 31
0.0
  0
LINE
  5
327
330
1F
100
AcDbEntity
  8
付属金具
  6
CONTINUOUS
 62
     6
100
AcDbLine
 10
1162.209077120102
 20
3725.346302937203
 30
0.0
 11
1162.184126232858
 21
3725.694900068485
 31
0.0
  0
LINE
  5
328
330
1F
100
AcDbEntity
  8
付属金具
  6
CONTINUOUS
 62
     6
100
AcDbLine
 10
1162.213266945919
 20
3725.006924372999
 30
0.0
 11
1162.209077120102
 21
3725.346302937203
 31
0.0
  0
LINE
  5
329
330
1F
100
AcDbEntity
  8
付属金具
  6
CONTINUOUS
 62
     6
100
AcDbLine
 10
1162.21844026122
 20
3724.66490533346
 30
0.0
 11
1162.213266945919
 21
3725.006924372999
 31
0.0
  0
LINE
  5
32A
330
1F
100
AcDbEntity
  8
付属金具
  6
CONTINUOUS
 62
     6
100
AcDbLine
 10
1162.240891511685
 20
3724.315215407943
 30
0.0
 11
1162.21844026122
 21
3724.66490533346
 31
0.0
  0
LINE
  5
32B
330
1F
100
AcDbEntity
  8
付属金具
  6
CONTINUOUS
 62
     6
100
AcDbLine
 10
1162.301932895451
 20
3723.954625645231
 30
0.0
 11
1162.240891511685
 21
3724.315215407943
 31
0.0
  0
LINE
  5
32C
330
1F
100
AcDbEntity
  8
付属金具
  6
CONTINUOUS
 62
     6
100
AcDbLine
 10
1163.184127415036
 20
3724.075344604075
 30
0.0
 11
1163.139495256793
 21
3724.258947720959
 31
0.0
  0
LINE
  5
32D
330
1F
100
AcDbEntity
  8
付属金具
  6
CONTINUOUS
 62
     6
100
AcDbLine
 10
1163.139495256793
 20
3724.258947720959
 30
0.0
 11
1163.086308381921
 21
3724.614027337563
 31
0.0
  0
LINE
  5
32E
330
1F
100
AcDbEntity
  8
付属金具
  6
CONTINUOUS
 62
     6
100
AcDbLine
 10
1163.086308381921
 20
3724.614027337563
 30
0.0
 11
1163.069855945412
 21
3724.963130964859
 31
0.0
  0
LINE
  5
32F
330
1F
100
AcDbEntity
  8
付属金具
  6
CONTINUOUS
 62
     6
100
AcDbLine
 10
1163.069855945412
 20
3724.963130964859
 30
0.0
 11
1163.071220964214
 21
3725.310415589287
 31
0.0
  0
LINE
  5
330
330
1F
100
AcDbEntity
  8
付属金具
  6
CONTINUOUS
 62
     6
100
AcDbLine
 10
1163.071220964214
 20
3725.310415589287
 30
0.0
 11
1163.068240829515
 21
3725.66167274714
 31
0.0
  0
LINE
  5
331
330
1F
100
AcDbEntity
  8
付属金具
  6
CONTINUOUS
 62
     6
100
AcDbLine
 10
1163.068240829515
 20
3725.66167274714
 30
0.0
 11
1163.043859319252
 21
3726.016391171349
 31
0.0
  0
LINE
  5
332
330
1F
100
AcDbEntity
  8
付属金具
  6
CONTINUOUS
 62
     6
100
AcDbLine
 10
1163.043859319252
 20
3726.016391171349
 30
0.0
 11
1162.974918837879
 21
3726.382607237739
 31
0.0
  0
LINE
  5
333
330
1F
100
AcDbEntity
  8
付属金具
  6
CONTINUOUS
 62
     6
100
AcDbLine
 10
1162.974918837879
 20
3726.382607237739
 30
0.0
 11
1162.843581381142
 21
3726.76200308675
 31
0.0
  0
LINE
  5
334
330
1F
100
AcDbEntity
  8
付属金具
  6
CONTINUOUS
 62
     6
100
AcDbLine
 10
1162.843581381142
 20
3726.76200308675
 30
0.0
 11
1162.695631293916
 21
3727.057873741667
 31
0.0
  0
LINE
  5
335
330
1F
100
AcDbEntity
  8
付属金具
  6
CONTINUOUS
 62
     6
100
AcDbLine
 10
1162.695631293916
 20
3727.057873741667
 30
0.0
 11
1162.511960233957
 21
3727.35709141732
 31
0.0
  0
LINE
  5
336
330
1F
100
AcDbEntity
  8
付属金具
  6
CONTINUOUS
 62
     6
100
AcDbLine
 10
1162.511960233957
 20
3727.35709141732
 30
0.0
 11
1162.103961634373
 21
3727.91984318925
 31
0.0
  0
LINE
  5
337
330
1F
100
AcDbEntity
  8
付属金具
  6
CONTINUOUS
 62
     6
100
AcDbLine
 10
1162.103961634373
 20
3727.91984318925
 30
0.0
 11
1161.759042166501
 21
3728.340577932172
 31
0.0
  0
LINE
  5
338
330
1F
100
AcDbEntity
  8
付属金具
  6
CONTINUOUS
 62
     6
100
AcDbLine
 10
1161.759042166501
 20
3728.340577932172
 30
0.0
 11
1161.615198847935
 21
3728.506036899055
 31
0.0
  0
LINE
  5
339
330
1F
100
AcDbEntity
  8
付属金具
  6
CONTINUOUS
 62
     6
100
AcDbLine
 10
1161.615198847935
 20
3728.506036899055
 30
0.0
 11
1161.704722356985
 21
3728.7583255436
 31
0.0
  0
LINE
  5
33A
330
1F
100
AcDbEntity
  8
付属金具
  6
CONTINUOUS
 62
     6
100
AcDbLine
 10
1161.704722356985
 20
3728.7583255436
 30
0.0
 11
1161.868598052059
 21
3728.577594538549
 31
0.0
  0
LINE
  5
33B
330
1F
100
AcDbEntity
  8
付属金具
  6
CONTINUOUS
 62
     6
100
AcDbLine
 10
1161.868598052059
 20
3728.577594538549
 30
0.0
 11
1162.251803197534
 21
3728.117107586639
 31
0.0
  0
LINE
  5
33C
330
1F
100
AcDbEntity
  8
付属金具
  6
CONTINUOUS
 62
     6
100
AcDbLine
 10
1162.251803197534
 20
3728.117107586639
 30
0.0
 11
1162.479245708411
 21
3727.823148985592
 31
0.0
  0
LINE
  5
33D
330
1F
100
AcDbEntity
  8
付属金具
  6
CONTINUOUS
 62
     6
100
AcDbLine
 10
1162.479245708411
 20
3727.823148985592
 30
0.0
 11
1162.705344068829
 21
3727.502956912904
 31
0.0
  0
LINE
  5
33E
330
1F
100
AcDbEntity
  8
付属金具
  6
CONTINUOUS
 62
     6
100
AcDbLine
 10
1162.705344068829
 20
3727.502956912904
 30
0.0
 11
1162.911518094071
 21
3727.175120903667
 31
0.0
  0
LINE
  5
33F
330
1F
100
AcDbEntity
  8
付属金具
  6
CONTINUOUS
 62
     6
100
AcDbLine
 10
1162.911518094071
 20
3727.175120903667
 30
0.0
 11
1163.073453465933
 21
3726.85024271276
 31
0.0
  0
LINE
  5
340
330
1F
100
AcDbEntity
  8
付属金具
  6
CONTINUOUS
 62
     6
100
AcDbLine
 10
1163.073453465933
 20
3726.85024271276
 30
0.0
 11
1163.203838966991
 21
3726.473237195778
 31
0.0
  0
LINE
  5
341
330
1F
100
AcDbEntity
  8
付属金具
  6
CONTINUOUS
 62
     6
100
AcDbLine
 10
1163.203838966991
 20
3726.473237195778
 30
0.0
 11
1163.27330579429
 21
3726.112996929815
 31
0.0
  0
LINE
  5
342
330
1F
100
AcDbEntity
  8
付属金具
  6
CONTINUOUS
 62
     6
100
AcDbLine
 10
1163.27330579429
 20
3726.112996929815
 30
0.0
 11
1163.300744701752
 21
3725.765354860012
 31
0.0
  0
LINE
  5
343
330
1F
100
AcDbEntity
  8
付属金具
  6
CONTINUOUS
 62
     6
100
AcDbLine
 10
1163.300744701752
 20
3725.765354860012
 30
0.0
 11
1163.30490829844
 21
3725.425966227389
 31
0.0
  0
LINE
  5
344
330
1F
100
AcDbEntity
  8
付属金具
  6
CONTINUOUS
 62
     6
100
AcDbLine
 10
1163.30490829844
 20
3725.425966227389
 30
0.0
 11
1163.307537388248
 21
3725.082970551186
 31
0.0
  0
LINE
  5
345
330
1F
100
AcDbEntity
  8
付属金具
  6
CONTINUOUS
 62
     6
100
AcDbLine
 10
1163.307537388248
 20
3725.082970551186
 30
0.0
 11
1163.327530594642
 21
3724.732337070954
 31
0.0
  0
LINE
  5
346
330
1F
100
AcDbEntity
  8
付属金具
  6
CONTINUOUS
 62
     6
100
AcDbLine
 10
1163.327530594642
 20
3724.732337070954
 30
0.0
 11
1163.386113934338
 21
3724.370803753528
 31
0.0
  0
LINE
  5
347
330
1F
100
AcDbEntity
  8
付属金具
  6
CONTINUOUS
 62
     6
100
AcDbLine
 10
1163.386113934338
 20
3724.370803753528
 30
0.0
 11
1163.504885824528
 21
3723.986455461013
 31
0.0
  0
LINE
  5
348
330
1F
100
AcDbEntity
  8
付属金具
  6
CONTINUOUS
 62
     6
100
AcDbLine
 10
1163.504885824528
 20
3723.986455461013
 30
0.0
 11
1163.67432666087
 21
3723.627330909775
 31
0.0
  0
LINE
  5
349
330
1F
100
AcDbEntity
  8
付属金具
  6
CONTINUOUS
 62
     6
100
AcDbLine
 10
1163.67432666087
 20
3723.627330909775
 30
0.0
 11
1163.869323739424
 21
3723.320917674158
 31
0.0
  0
LINE
  5
34A
330
1F
100
AcDbEntity
  8
付属金具
  6
CONTINUOUS
 62
     6
100
AcDbLine
 10
1163.869323739424
 20
3723.320917674158
 30
0.0
 11
1164.081272568601
 21
3723.052627536993
 31
0.0
  0
LINE
  5
34B
330
1F
100
AcDbEntity
  8
付属金具
  6
CONTINUOUS
 62
     6
100
AcDbLine
 10
1164.081272568601
 20
3723.052627536993
 30
0.0
 11
1164.304351755274
 21
3722.800028479651
 31
0.0
  0
LINE
  5
34C
330
1F
100
AcDbEntity
  8
付属金具
  6
CONTINUOUS
 62
     6
100
AcDbLine
 10
1164.304351755274
 20
3722.800028479651
 30
0.0
 11
1164.527400965799
 21
3722.547417915545
 31
0.0
  0
LINE
  5
34D
330
1F
100
AcDbEntity
  8
付属金具
  6
CONTINUOUS
 62
     6
100
AcDbLine
 10
1164.527400965799
 20
3722.547417915545
 30
0.0
 11
1164.743739537191
 21
3722.275039087385
 31
0.0
  0
LINE
  5
34E
330
1F
100
AcDbEntity
  8
付属金具
  6
CONTINUOUS
 62
     6
100
AcDbLine
 10
1164.743739537191
 20
3722.275039087385
 30
0.0
 11
1164.943081769245
 21
3721.964653318342
 31
0.0
  0
LINE
  5
34F
330
1F
100
AcDbEntity
  8
付属金具
  6
CONTINUOUS
 62
     6
100
AcDbLine
 10
1164.943081769245
 20
3721.964653318342
 30
0.0
 11
1165.122227816565
 21
3721.594950984664
 31
0.0
  0
LINE
  5
350
330
1F
100
AcDbEntity
  8
付属金具
  6
CONTINUOUS
 62
     6
100
AcDbLine
 10
1165.122227816565
 20
3721.594950984664
 30
0.0
 11
1165.223756305841
 21
3721.278504994268
 31
0.0
  0
LINE
  5
351
330
1F
100
AcDbEntity
  8
付属金具
  6
CONTINUOUS
 62
     6
100
AcDbLine
 10
1165.223756305841
 20
3721.278504994268
 30
0.0
 11
1165.296446334604
 21
3720.902185033106
 31
0.0
  0
LINE
  5
352
330
1F
100
AcDbEntity
  8
付属金具
  6
CONTINUOUS
 62
     6
100
AcDbLine
 10
1165.296446334604
 20
3720.902185033106
 30
0.0
 11
1165.352459030796
 21
3720.502404226307
 31
0.0
  0
LINE
  5
353
330
1F
100
AcDbEntity
  8
付属金具
  6
CONTINUOUS
 62
     6
100
AcDbLine
 10
1165.352459030796
 20
3720.502404226307
 30
0.0
 11
1165.38720112156
 21
3720.106001610243
 31
0.0
  0
LINE
  5
354
330
1F
100
AcDbEntity
  8
付属金具
  6
CONTINUOUS
 62
     6
100
AcDbLine
 10
1165.38720112156
 20
3720.106001610243
 30
0.0
 11
1165.423307525016
 21
3719.451924501408
 31
0.0
  0
LINE
  5
355
330
1F
100
AcDbEntity
  8
付属金具
  6
CONTINUOUS
 62
     6
100
AcDbLine
 10
1165.423307525016
 20
3719.451924501408
 30
0.0
 11
1165.426881454227
 21
3719.181057185064
 31
0.0
  0
LINE
  5
356
330
1F
100
AcDbEntity
  8
付属金具
  6
CONTINUOUS
 62
     6
100
AcDbLine
 10
1165.426881454227
 20
3719.181057185064
 30
0.0
 11
1165.174417532118
 21
3719.316239144666
 31
0.0
  0
LINE
  5
357
330
1F
100
AcDbEntity
  8
付属金具
  6
CONTINUOUS
 62
     6
100
AcDbLine
 10
1165.174417532118
 20
3719.316239144666
 30
0.0
 11
1165.160765937264
 21
3719.583366982039
 31
0.0
  0
LINE
  5
358
330
1F
100
AcDbEntity
  8
付属金具
  6
CONTINUOUS
 62
     6
100
AcDbLine
 10
1165.160765937264
 20
3719.583366982039
 30
0.0
 11
1165.114759288993
 21
3720.210686295053
 31
0.0
  0
LINE
  5
359
330
1F
100
AcDbEntity
  8
付属金具
  6
CONTINUOUS
 62
     6
100
AcDbLine
 10
1165.114759288993
 20
3720.210686295053
 30
0.0
 11
1165.023128922817
 21
3720.934896918977
 31
0.0
  0
LINE
  5
35A
330
1F
100
AcDbEntity
  8
付属金具
  6
CONTINUOUS
 62
     6
100
AcDbLine
 10
1165.023128922817
 20
3720.934896918977
 30
0.0
 11
1164.956985724962
 21
3721.256396541388
 31
0.0
  0
LINE
  5
35B
330
1F
100
AcDbEntity
  8
付属金具
  6
CONTINUOUS
 62
     6
100
AcDbLine
 10
1164.956985724962
 20
3721.256396541388
 30
0.0
 11
1164.877431357488
 21
3721.50098242812
 31
0.0
  0
LINE
  5
35C
330
1F
100
AcDbEntity
  8
付属金具
  6
CONTINUOUS
 62
     6
100
AcDbLine
 10
1164.877431357488
 20
3721.50098242812
 30
0.0
 11
1164.692712105964
 21
3721.862904927564
 31
0.0
  0
LINE
  5
35D
330
1F
100
AcDbEntity
  8
付属金具
  6
CONTINUOUS
 62
     6
100
AcDbLine
 10
1164.692712105964
 20
3721.862904927564
 30
0.0
 11
1164.483339105655
 21
3722.169440245429
 31
0.0
  0
LINE
  5
35E
330
1F
100
AcDbEntity
  8
付属金具
  6
CONTINUOUS
 62
     6
100
AcDbLine
 10
1164.483339105655
 20
3722.169440245429
 30
0.0
 11
1164.264457747115
 21
3722.440838689907
 31
0.0
  0
LINE
  5
35F
330
1F
100
AcDbEntity
  8
付属金具
  6
CONTINUOUS
 62
     6
100
AcDbLine
 10
1164.264457747115
 20
3722.440838689907
 30
0.0
 11
1164.041377122096
 21
3722.693441494267
 31
0.0
  0
LINE
  5
360
330
1F
100
AcDbEntity
  8
付属金具
  6
CONTINUOUS
 62
     6
100
AcDbLine
 10
1164.041377122096
 20
3722.693441494267
 30
0.0
 11
1163.819946410515
 21
3722.949429095487
 31
0.0
  0
LINE
  5
361
330
1F
100
AcDbEntity
  8
付属金具
  6
CONTINUOUS
 62
     6
100
AcDbLine
 10
1163.819946410515
 20
3722.949429095487
 30
0.0
 11
1163.607032451438
 21
3723.220233481997
 31
0.0
  0
LINE
  5
362
330
1F
100
AcDbEntity
  8
付属金具
  6
CONTINUOUS
 62
     6
100
AcDbLine
 10
1163.607032451438
 20
3723.220233481997
 30
0.0
 11
1163.414467187827
 21
3723.52758020391
 31
0.0
  0
LINE
  5
363
330
1F
100
AcDbEntity
  8
付属金具
  6
CONTINUOUS
 62
     6
100
AcDbLine
 10
1163.414467187827
 20
3723.52758020391
 30
0.0
 11
1163.327926016625
 21
3723.700736439556
 31
0.0
  0
LINE
  5
364
330
1F
100
AcDbEntity
  8
付属金具
  6
CONTINUOUS
 62
     6
100
AcDbLine
 10
1163.327926016625
 20
3723.700736439556
 30
0.0
 11
1163.247600553125
 21
3723.887692898577
 31
0.0
  0
LINE
  5
365
330
1F
100
AcDbEntity
  8
付属金具
  6
CONTINUOUS
 62
     6
100
AcDbLine
 10
1163.247600553125
 20
3723.887692898577
 30
0.0
 11
1163.184127415036
 21
3724.075344604075
 31
0.0
  0
LINE
  5
366
330
1F
100
AcDbEntity
  8
付属金具
  6
CONTINUOUS
 62
     6
100
AcDbLine
 10
1164.139264379558
 20
3725.746245519344
 30
0.0
 11
1164.141893469366
 21
3725.403249843141
 31
0.0
  0
LINE
  5
367
330
1F
100
AcDbEntity
  8
付属金具
  6
CONTINUOUS
 62
     6
100
AcDbLine
 10
1164.141893469366
 20
3725.403249843141
 30
0.0
 11
1164.164344719831
 21
3725.053559917623
 31
0.0
  0
LINE
  5
368
330
1F
100
AcDbEntity
  8
付属金具
  6
CONTINUOUS
 62
     6
100
AcDbLine
 10
1164.164344719831
 20
3725.053559917623
 30
0.0
 11
1164.225386103596
 21
3724.692970154912
 31
0.0
  0
LINE
  5
369
330
1F
100
AcDbEntity
  8
付属金具
  6
CONTINUOUS
 62
     6
100
AcDbLine
 10
1164.225386103596
 20
3724.692970154912
 30
0.0
 11
1164.344274151357
 21
3724.308666451111
 31
0.0
  0
LINE
  5
36A
330
1F
100
AcDbEntity
  8
付属金具
  6
CONTINUOUS
 62
     6
100
AcDbLine
 10
1164.344274151357
 20
3724.308666451111
 30
0.0
 11
1164.427143840351
 21
3724.122686628754
 31
0.0
  0
LINE
  5
36B
330
1F
100
AcDbEntity
  8
付属金具
  6
CONTINUOUS
 62
     6
100
AcDbLine
 10
1164.427143840351
 20
3724.122686628754
 30
0.0
 11
1164.518031603398
 21
3723.945554112664
 31
0.0
  0
LINE
  5
36C
330
1F
100
AcDbEntity
  8
付属金具
  6
CONTINUOUS
 62
     6
100
AcDbLine
 10
1164.518031603398
 20
3723.945554112664
 30
0.0
 11
1164.72288945385
 21
3723.628493834423
 31
0.0
  0
LINE
  5
36D
330
1F
100
AcDbEntity
  8
付属金具
  6
CONTINUOUS
 62
     6
100
AcDbLine
 10
1164.72288945385
 20
3723.628493834423
 30
0.0
 11
1164.949012793932
 21
3723.345576361462
 31
0.0
  0
LINE
  5
36E
330
1F
100
AcDbEntity
  8
付属金具
  6
CONTINUOUS
 62
     6
100
AcDbLine
 10
1164.949012793932
 20
3723.345576361462
 30
0.0
 11
1165.182874732034
 21
3723.079928422702
 31
0.0
  0
LINE
  5
36F
330
1F
100
AcDbEntity
  8
付属金具
  6
CONTINUOUS
 62
     6
100
AcDbLine
 10
1165.182874732034
 20
3723.079928422702
 30
0.0
 11
1165.413809865945
 21
3722.821815472234
 31
0.0
  0
LINE
  5
370
330
1F
100
AcDbEntity
  8
付属金具
  6
CONTINUOUS
 62
     6
100
AcDbLine
 10
1165.413809865945
 20
3722.821815472234
 30
0.0
 11
1165.630146998991
 21
3722.549440391093
 31
0.0
  0
LINE
  5
371
330
1F
100
AcDbEntity
  8
付属金具
  6
CONTINUOUS
 62
     6
100
AcDbLine
 10
1165.630146998991
 20
3722.549440391093
 30
0.0
 11
1165.820311804339
 21
3722.255604457898
 31
0.0
  0
LINE
  5
372
330
1F
100
AcDbEntity
  8
付属金具
  6
CONTINUOUS
 62
     6
100
AcDbLine
 10
1165.820311804339
 20
3722.255604457898
 30
0.0
 11
1165.97410495572
 21
3721.921955980654
 31
0.0
  0
LINE
  5
373
330
1F
100
AcDbEntity
  8
付属金具
  6
CONTINUOUS
 62
     6
100
AcDbLine
 10
1165.97410495572
 20
3721.921955980654
 30
0.0
 11
1166.092392092693
 21
3721.531781127233
 31
0.0
  0
LINE
  5
374
330
1F
100
AcDbEntity
  8
付属金具
  6
CONTINUOUS
 62
     6
100
AcDbLine
 10
1166.092392092693
 20
3721.531781127233
 30
0.0
 11
1166.155934670897
 21
3721.172022508686
 31
0.0
  0
LINE
  5
375
330
1F
100
AcDbEntity
  8
付属金具
  6
CONTINUOUS
 62
     6
100
AcDbLine
 10
1166.155934670897
 20
3721.172022508686
 30
0.0
 11
1166.186488738493
 21
3720.831216718402
 31
0.0
  0
LINE
  5
376
330
1F
100
AcDbEntity
  8
付属金具
  6
CONTINUOUS
 62
     6
100
AcDbLine
 10
1166.186488738493
 20
3720.831216718402
 30
0.0
 11
1166.192832341563
 21
3720.50119012141
 31
0.0
  0
LINE
  5
377
330
1F
100
AcDbEntity
  8
付属金具
  6
CONTINUOUS
 62
     6
100
AcDbLine
 10
1166.192832341563
 20
3720.50119012141
 30
0.0
 11
1166.196161520673
 21
3720.17866917778
 31
0.0
  0
LINE
  5
378
330
1F
100
AcDbEntity
  8
付属金具
  6
CONTINUOUS
 62
     6
100
AcDbLine
 10
1166.196161520673
 20
3720.17866917778
 30
0.0
 11
1166.210930567276
 21
3719.848992077536
 31
0.0
  0
LINE
  5
379
330
1F
100
AcDbEntity
  8
付属金具
  6
CONTINUOUS
 62
     6
100
AcDbLine
 10
1166.210930567276
 20
3719.848992077536
 30
0.0
 11
1166.253464022511
 21
3719.506882013748
 31
0.0
  0
LINE
  5
37A
330
1F
100
AcDbEntity
  8
付属金具
  6
CONTINUOUS
 62
     6
100
AcDbLine
 10
1166.253464022511
 20
3719.506882013748
 30
0.0
 11
1166.340738877918
 21
3719.144948100577
 31
0.0
  0
LINE
  5
37B
330
1F
100
AcDbEntity
  8
付属金具
  6
CONTINUOUS
 62
     6
100
AcDbLine
 10
1166.340738877918
 20
3719.144948100577
 30
0.0
 11
1166.404034714493
 21
3718.980056808877
 31
0.0
  0
LINE
  5
37C
330
1F
100
AcDbEntity
  8
付属金具
  6
CONTINUOUS
 62
     6
100
AcDbLine
 10
1166.404034714493
 20
3718.980056808877
 30
0.0
 11
1166.478331634587
 21
3718.816499410334
 31
0.0
  0
LINE
  5
37D
330
1F
100
AcDbEntity
  8
付属金具
  6
CONTINUOUS
 62
     6
100
AcDbLine
 10
1166.478331634587
 20
3718.816499410334
 30
0.0
 11
1166.565839374033
 21
3718.640825178323
 31
0.0
  0
LINE
  5
37E
330
1F
100
AcDbEntity
  8
付属金具
  6
CONTINUOUS
 62
     6
100
AcDbLine
 10
1166.565839374033
 20
3718.640825178323
 30
0.0
 11
1166.230860426576
 21
3718.74446156177
 31
0.0
  0
LINE
  5
37F
330
1F
100
AcDbEntity
  8
付属金具
  6
CONTINUOUS
 62
     6
100
AcDbLine
 10
1166.230860426576
 20
3718.74446156177
 30
0.0
 11
1166.110982950699
 21
3719.056753063282
 31
0.0
  0
LINE
  5
380
330
1F
100
AcDbEntity
  8
付属金具
  6
CONTINUOUS
 62
     6
100
AcDbLine
 10
1166.110982950699
 20
3719.056753063282
 30
0.0
 11
1166.005335698437
 21
3719.428951440379
 31
0.0
  0
LINE
  5
381
330
1F
100
AcDbEntity
  8
付属金具
  6
CONTINUOUS
 62
     6
100
AcDbLine
 10
1166.005335698437
 20
3719.428951440379
 30
0.0
 11
1165.950614316684
 21
3719.780424013402
 31
0.0
  0
LINE
  5
382
330
1F
100
AcDbEntity
  8
付属金具
  6
CONTINUOUS
 62
     6
100
AcDbLine
 10
1165.950614316684
 20
3719.780424013402
 30
0.0
 11
1165.927946172474
 21
3720.115727417324
 31
0.0
  0
LINE
  5
383
330
1F
100
AcDbEntity
  8
付属金具
  6
CONTINUOUS
 62
     6
100
AcDbLine
 10
1165.927946172474
 20
3720.115727417324
 30
0.0
 11
1165.922681548201
 21
3720.443279168319
 31
0.0
  0
LINE
  5
384
330
1F
100
AcDbEntity
  8
付属金具
  6
CONTINUOUS
 62
     6
100
AcDbLine
 10
1165.922681548201
 20
3720.443279168319
 30
0.0
 11
1165.916343130496
 21
3720.773303456638
 31
0.0
  0
LINE
  5
385
330
1F
100
AcDbEntity
  8
付属金具
  6
CONTINUOUS
 62
     6
100
AcDbLine
 10
1165.916343130496
 20
3720.773303456638
 30
0.0
 11
1165.891211756852
 21
3721.107665614518
 31
0.0
  0
LINE
  5
386
330
1F
100
AcDbEntity
  8
付属金具
  6
CONTINUOUS
 62
     6
100
AcDbLine
 10
1165.891211756852
 20
3721.107665614518
 30
0.0
 11
1165.828986911096
 21
3721.456386851999
 31
0.0
  0
LINE
  5
387
330
1F
100
AcDbEntity
  8
付属金具
  6
CONTINUOUS
 62
     6
100
AcDbLine
 10
1165.828986911096
 20
3721.456386851999
 30
0.0
 11
1165.716815937299
 21
3721.823191979873
 31
0.0
  0
LINE
  5
388
330
1F
100
AcDbEntity
  8
付属金具
  6
CONTINUOUS
 62
     6
100
AcDbLine
 10
1165.716815937299
 20
3721.823191979873
 30
0.0
 11
1165.551440778422
 21
3722.18676622562
 31
0.0
  0
LINE
  5
389
330
1F
100
AcDbEntity
  8
付属金具
  6
CONTINUOUS
 62
     6
100
AcDbLine
 10
1165.551440778422
 20
3722.18676622562
 30
0.0
 11
1165.353037447139
 21
3722.494627676896
 31
0.0
  0
LINE
  5
38A
330
1F
100
AcDbEntity
  8
付属金具
  6
CONTINUOUS
 62
     6
100
AcDbLine
 10
1165.353037447139
 20
3722.494627676896
 30
0.0
 11
1165.136700314093
 21
3722.767002758039
 31
0.0
  0
LINE
  5
38B
330
1F
100
AcDbEntity
  8
付属金具
  6
CONTINUOUS
 62
     6
100
AcDbLine
 10
1165.136700314093
 20
3722.767002758039
 30
0.0
 11
1164.910110333682
 21
3723.021143175081
 31
0.0
  0
LINE
  5
38C
330
1F
100
AcDbEntity
  8
付属金具
  6
CONTINUOUS
 62
     6
100
AcDbLine
 10
1164.910110333682
 20
3723.021143175081
 30
0.0
 11
1164.683632763823
 21
3723.275326742491
 31
0.0
  0
LINE
  5
38D
330
1F
100
AcDbEntity
  8
付属金具
  6
CONTINUOUS
 62
     6
100
AcDbLine
 10
1164.683632763823
 20
3723.275326742491
 30
0.0
 11
1164.467340219491
 21
3723.547585666063
 31
0.0
  0
LINE
  5
38E
330
1F
100
AcDbEntity
  8
付属金具
  6
CONTINUOUS
 62
     6
100
AcDbLine
 10
1164.467340219491
 20
3723.547585666063
 30
0.0
 11
1164.268892299494
 21
3723.85556327491
 31
0.0
  0
LINE
  5
38F
330
1F
100
AcDbEntity
  8
付属金具
  6
CONTINUOUS
 62
     6
100
AcDbLine
 10
1164.268892299494
 20
3723.85556327491
 30
0.0
 11
1164.09947769228
 21
3724.214697894568
 31
0.0
  0
LINE
  5
390
330
1F
100
AcDbEntity
  8
付属金具
  6
CONTINUOUS
 62
     6
100
AcDbLine
 10
1164.09947769228
 20
3724.214697894568
 30
0.0
 11
1163.980593391538
 21
3724.599003036714
 31
0.0
  0
LINE
  5
391
330
1F
100
AcDbEntity
  8
付属金具
  6
CONTINUOUS
 62
     6
100
AcDbLine
 10
1163.980593391538
 20
3724.599003036714
 30
0.0
 11
1163.922122462395
 21
3724.960579504509
 31
0.0
  0
LINE
  5
392
330
1F
100
AcDbEntity
  8
付属金具
  6
CONTINUOUS
 62
     6
100
AcDbLine
 10
1163.922122462395
 20
3724.960579504509
 30
0.0
 11
1163.89967121193
 21
3725.310269430026
 31
0.0
  0
LINE
  5
393
330
1F
100
AcDbEntity
  8
付属金具
  6
CONTINUOUS
 62
     6
100
AcDbLine
 10
1163.89967121193
 20
3725.310269430026
 30
0.0
 11
1163.894467920482
 21
3725.6522769628
 31
0.0
  0
LINE
  5
394
330
1F
100
AcDbEntity
  8
付属金具
  6
CONTINUOUS
 62
     6
100
AcDbLine
 10
1163.894467920482
 20
3725.6522769628
 30
0.0
 11
1163.892762367864
 21
3725.992609150138
 31
0.0
  0
LINE
  5
395
330
1F
100
AcDbEntity
  8
付属金具
  6
CONTINUOUS
 62
     6
100
AcDbLine
 10
1163.892762367864
 20
3725.992609150138
 30
0.0
 11
1163.867897662042
 21
3726.341239363369
 31
0.0
  0
LINE
  5
396
330
1F
100
AcDbEntity
  8
付属金具
  6
CONTINUOUS
 62
     6
100
AcDbLine
 10
1163.867897662042
 20
3726.341239363369
 30
0.0
 11
1163.805891148378
 21
3726.704343375427
 31
0.0
  0
LINE
  5
397
330
1F
100
AcDbEntity
  8
付属金具
  6
CONTINUOUS
 62
     6
100
AcDbLine
 10
1163.805891148378
 20
3726.704343375427
 30
0.0
 11
1163.682965960953
 21
3727.084212638502
 31
0.0
  0
LINE
  5
398
330
1F
100
AcDbEntity
  8
付属金具
  6
CONTINUOUS
 62
     6
100
AcDbLine
 10
1163.682965960953
 20
3727.084212638502
 30
0.0
 11
1163.605494175127
 21
3727.263735013018
 31
0.0
  0
LINE
  5
399
330
1F
100
AcDbEntity
  8
付属金具
  6
CONTINUOUS
 62
     6
100
AcDbLine
 10
1163.605494175127
 20
3727.263735013018
 30
0.0
 11
1163.517738127443
 21
3727.425014963687
 31
0.0
  0
LINE
  5
39A
330
1F
100
AcDbEntity
  8
付属金具
  6
CONTINUOUS
 62
     6
100
AcDbLine
 10
1163.517738127443
 20
3727.425014963687
 30
0.0
 11
1163.323533873758
 21
3727.714411270792
 31
0.0
  0
LINE
  5
39B
330
1F
100
AcDbEntity
  8
付属金具
  6
CONTINUOUS
 62
     6
100
AcDbLine
 10
1163.323533873758
 20
3727.714411270792
 30
0.0
 11
1163.111454332259
 21
3727.968347968311
 31
0.0
  0
LINE
  5
39C
330
1F
100
AcDbEntity
  8
付属金具
  6
CONTINUOUS
 62
     6
100
AcDbLine
 10
1163.111454332259
 20
3727.968347968311
 30
0.0
 11
1162.891579987465
 21
3728.204993556445
 31
0.0
  0
LINE
  5
39D
330
1F
100
AcDbEntity
  8
付属金具
  6
CONTINUOUS
 62
     6
100
AcDbLine
 10
1162.891579987465
 20
3728.204993556445
 30
0.0
 11
1162.673284738265
 21
3728.445130030589
 31
0.0
  0
LINE
  5
39E
330
1F
100
AcDbEntity
  8
付属金具
  6
CONTINUOUS
 62
     6
100
AcDbLine
 10
1162.673284738265
 20
3728.445130030589
 30
0.0
 11
1162.466252055044
 21
3728.700870761916
 31
0.0
  0
LINE
  5
39F
330
1F
100
AcDbEntity
  8
付属金具
  6
CONTINUOUS
 62
     6
100
AcDbLine
 10
1162.466252055044
 20
3728.700870761916
 30
0.0
 11
1162.276038913964
 21
3728.994821414334
 31
0.0
  0
LINE
  5
3A0
330
1F
100
AcDbEntity
  8
付属金具
  6
CONTINUOUS
 62
     6
100
AcDbLine
 10
1162.276038913964
 20
3728.994821414334
 30
0.0
 11
1162.118345958949
 21
3729.338382834808
 31
0.0
  0
LINE
  5
3A1
330
1F
100
AcDbEntity
  8
付属金具
  6
CONTINUOUS
 62
     6
100
AcDbLine
 10
1162.118345958949
 20
3729.338382834808
 30
0.0
 11
1162.006177104943
 21
3729.667932363756
 31
0.0
  0
LINE
  5
3A2
330
1F
100
AcDbEntity
  8
付属金具
  6
CONTINUOUS
 62
     6
100
AcDbLine
 10
1162.006177104943
 20
3729.667932363756
 30
0.0
 11
1162.196321503068
 21
3729.941524483326
 31
0.0
  0
LINE
  5
3A3
330
1F
100
AcDbEntity
  8
付属金具
  6
CONTINUOUS
 62
     6
100
AcDbLine
 10
1162.196321503068
 20
3729.941524483326
 30
0.0
 11
1162.272234364483
 21
3729.684126516647
 31
0.0
  0
LINE
  5
3A4
330
1F
100
AcDbEntity
  8
付属金具
  6
CONTINUOUS
 62
     6
100
AcDbLine
 10
1162.272234364483
 20
3729.684126516647
 30
0.0
 11
1162.363142418026
 21
3729.432351391352
 31
0.0
  0
LINE
  5
3A5
330
1F
100
AcDbEntity
  8
付属金具
  6
CONTINUOUS
 62
     6
100
AcDbLine
 10
1162.363142418026
 20
3729.432351391352
 30
0.0
 11
1162.52083537304
 21
3729.088789970878
 31
0.0
  0
LINE
  5
3A6
330
1F
100
AcDbEntity
  8
付属金具
  6
CONTINUOUS
 62
     6
100
AcDbLine
 10
1162.52083537304
 20
3729.088789970878
 30
0.0
 11
1162.708504288627
 21
3728.793862681795
 31
0.0
  0
LINE
  5
3A7
330
1F
100
AcDbEntity
  8
付属金具
  6
CONTINUOUS
 62
     6
100
AcDbLine
 10
1162.708504288627
 20
3728.793862681795
 30
0.0
 11
1162.918081197342
 21
3728.539098587132
 31
0.0
  0
LINE
  5
3A8
330
1F
100
AcDbEntity
  8
付属金具
  6
CONTINUOUS
 62
     6
100
AcDbLine
 10
1162.918081197342
 20
3728.539098587132
 30
0.0
 11
1163.136458880947
 21
3728.298993756591
 31
0.0
  0
LINE
  5
3A9
330
1F
100
AcDbEntity
  8
付属金具
  6
CONTINUOUS
 62
     6
100
AcDbLine
 10
1163.136458880947
 20
3728.298993756591
 30
0.0
 11
1163.356250791335
 21
3728.062316524854
 31
0.0
  0
LINE
  5
3AA
330
1F
100
AcDbEntity
  8
付属金具
  6
CONTINUOUS
 62
     6
100
AcDbLine
 10
1163.356250791335
 20
3728.062316524854
 30
0.0
 11
1163.565872288764
 21
3727.807436272621
 31
0.0
  0
LINE
  5
3AB
330
1F
100
AcDbEntity
  8
付属金具
  6
CONTINUOUS
 62
     6
100
AcDbLine
 10
1163.565872288764
 20
3727.807436272621
 30
0.0
 11
1163.760072795431
 21
3727.51803852717
 31
0.0
  0
LINE
  5
3AC
330
1F
100
AcDbEntity
  8
付属金具
  6
CONTINUOUS
 62
     6
100
AcDbLine
 10
1163.760072795431
 20
3727.51803852717
 30
0.0
 11
1163.847828843115
 21
3727.356758576501
 31
0.0
  0
LINE
  5
3AD
330
1F
100
AcDbEntity
  8
付属金具
  6
CONTINUOUS
 62
     6
100
AcDbLine
 10
1163.847828843115
 20
3727.356758576501
 30
0.0
 11
1163.925304375959
 21
3727.177237640331
 31
0.0
  0
LINE
  5
3AE
330
1F
100
AcDbEntity
  8
付属金具
  6
CONTINUOUS
 62
     6
100
AcDbLine
 10
1163.925304375959
 20
3727.177237640331
 30
0.0
 11
1164.048143381961
 21
3726.797335295306
 31
0.0
  0
LINE
  5
3AF
330
1F
100
AcDbEntity
  8
付属金具
  6
CONTINUOUS
 62
     6
100
AcDbLine
 10
1164.048143381961
 20
3726.797335295306
 30
0.0
 11
1164.112694121119
 21
3726.435207919913
 31
0.0
  0
LINE
  5
3B0
330
1F
100
AcDbEntity
  8
付属金具
  6
CONTINUOUS
 62
     6
100
AcDbLine
 10
1164.112694121119
 20
3726.435207919913
 30
0.0
 11
1164.13755882694
 21
3726.086577706682
 31
0.0
  0
LINE
  5
3B1
330
1F
100
AcDbEntity
  8
付属金具
  6
CONTINUOUS
 62
     6
100
AcDbLine
 10
1164.13755882694
 20
3726.086577706682
 30
0.0
 11
1164.139264379558
 21
3725.746245519344
 31
0.0
  0
LINE
  5
3B2
330
1F
100
AcDbEntity
  8
付属金具
  6
CONTINUOUS
 62
     6
100
AcDbLine
 10
1165.778444718954
 20
3725.455364340681
 30
0.0
 11
1165.72695851865
 21
3725.320933776724
 31
0.0
  0
LINE
  5
3B3
330
1F
100
AcDbEntity
  8
付属金具
  6
CONTINUOUS
 62
     6
100
AcDbLine
 10
1165.72695851865
 20
3725.320933776724
 30
0.0
 11
1165.704444748437
 21
3725.177676642072
 31
0.0
  0
LINE
  5
3B4
330
1F
100
AcDbEntity
  8
付属金具
  6
CONTINUOUS
 62
     6
100
AcDbLine
 10
1165.704444748437
 20
3725.177676642072
 30
0.0
 11
1165.708401006846
 21
3725.033041487399
 31
0.0
  0
LINE
  5
3B5
330
1F
100
AcDbEntity
  8
付属金具
  6
CONTINUOUS
 62
     6
100
AcDbLine
 10
1165.708401006846
 20
3725.033041487399
 30
0.0
 11
1165.743141225394
 21
3724.882901922414
 31
0.0
  0
LINE
  5
3B6
330
1F
100
AcDbEntity
  8
付属金具
  6
CONTINUOUS
 62
     6
100
AcDbLine
 10
1165.743141225394
 20
3724.882901922414
 30
0.0
 11
1165.808704630304
 21
3724.741838516542
 31
0.0
  0
LINE
  5
3B7
330
1F
100
AcDbEntity
  8
付属金具
  6
CONTINUOUS
 62
     6
100
AcDbLine
 10
1165.808704630304
 20
3724.741838516542
 30
0.0
 11
1165.902383677618
 21
3724.617341449766
 31
0.0
  0
LINE
  5
3B8
330
1F
100
AcDbEntity
  8
付属金具
  6
CONTINUOUS
 62
     6
100
AcDbLine
 10
1165.902383677618
 20
3724.617341449766
 30
0.0
 11
1166.016786505056
 21
3724.520872216744
 31
0.0
  0
LINE
  5
3B9
330
1F
100
AcDbEntity
  8
付属金具
  6
CONTINUOUS
 62
     6
100
AcDbLine
 10
1166.016786505056
 20
3724.520872216744
 30
0.0
 11
1166.148977928681
 21
3724.445405675493
 31
0.0
  0
LINE
  5
3BA
330
1F
100
AcDbEntity
  8
付属金具
  6
CONTINUOUS
 62
     6
100
AcDbLine
 10
1166.148977928681
 20
3724.445405675493
 30
0.0
 11
1166.293398309402
 21
3724.39771981338
 31
0.0
  0
LINE
  5
3BB
330
1F
100
AcDbEntity
  8
付属金具
  6
CONTINUOUS
 62
     6
100
AcDbLine
 10
1166.293398309402
 20
3724.39771981338
 30
0.0
 11
1166.444140319361
 21
3724.378173798851
 31
0.0
  0
LINE
  5
3BC
330
1F
100
AcDbEntity
  8
付属金具
  6
CONTINUOUS
 62
     6
100
AcDbLine
 10
1166.444140319361
 20
3724.378173798851
 30
0.0
 11
1166.597873397211
 21
3724.388511449912
 31
0.0
  0
LINE
  5
3BD
330
1F
100
AcDbEntity
  8
付属金具
  6
CONTINUOUS
 62
     6
100
AcDbLine
 10
1166.597873397211
 20
3724.388511449912
 30
0.0
 11
1166.751998669842
 21
3724.427472904644
 31
0.0
  0
LINE
  5
3BE
330
1F
100
AcDbEntity
  8
付属金具
  6
CONTINUOUS
 62
     6
100
AcDbLine
 10
1166.751998669842
 20
3724.427472904644
 30
0.0
 11
1166.896164061626
 21
3724.49999650639
 31
0.0
  0
LINE
  5
3BF
330
1F
100
AcDbEntity
  8
付属金具
  6
CONTINUOUS
 62
     6
100
AcDbLine
 10
1166.896164061626
 20
3724.49999650639
 30
0.0
 11
1167.019740697015
 21
3724.596241354381
 31
0.0
  0
LINE
  5
3C0
330
1F
100
AcDbEntity
  8
付属金具
  6
CONTINUOUS
 62
     6
100
AcDbLine
 10
1167.019740697015
 20
3724.596241354381
 30
0.0
 11
1167.12130004848
 21
3724.712503513977
 31
0.0
  0
LINE
  5
3C1
330
1F
100
AcDbEntity
  8
付属金具
  6
CONTINUOUS
 62
     6
100
AcDbLine
 10
1167.12130004848
 20
3724.712503513977
 30
0.0
 11
1167.199135877996
 21
3724.84563451619
 31
0.0
  0
LINE
  5
3C2
330
1F
100
AcDbEntity
  8
付属金具
  6
CONTINUOUS
 62
     6
100
AcDbLine
 10
1167.199135877996
 20
3724.84563451619
 30
0.0
 11
1167.249346057874
 21
3724.99099379768
 31
0.0
  0
LINE
  5
3C3
330
1F
100
AcDbEntity
  8
付属金具
  6
CONTINUOUS
 62
     6
100
AcDbLine
 10
1167.249346057874
 20
3724.99099379768
 30
0.0
 11
1167.268805130451
 21
3725.141861502209
 31
0.0
  0
LINE
  5
3C4
330
1F
100
AcDbEntity
  8
付属金具
  6
CONTINUOUS
 62
     6
100
AcDbLine
 10
1167.268805130451
 20
3725.141861502209
 30
0.0
 11
1167.258570582052
 21
3725.295505183038
 31
0.0
  0
LINE
  5
3C5
330
1F
100
AcDbEntity
  8
付属金具
  6
CONTINUOUS
 62
     6
100
AcDbLine
 10
1167.258570582052
 20
3725.295505183038
 30
0.0
 11
1167.212024896369
 21
3725.446753535353
 31
0.0
  0
LINE
  5
3C6
330
1F
100
AcDbEntity
  8
付属金具
  6
CONTINUOUS
 62
     6
100
AcDbLine
 10
1167.212024896369
 20
3725.446753535353
 30
0.0
 11
1167.138914996402
 21
3725.584920113181
 31
0.0
  0
LINE
  5
3C7
330
1F
100
AcDbEntity
  8
付属金具
  6
CONTINUOUS
 62
     6
100
AcDbLine
 10
1167.138914996402
 20
3725.584920113181
 30
0.0
 11
1167.041564466881
 21
3725.696593593248
 31
0.0
  0
LINE
  5
3C8
330
1F
100
AcDbEntity
  8
付属金具
  6
CONTINUOUS
 62
     6
100
AcDbLine
 10
1167.041564466881
 20
3725.696593593248
 30
0.0
 11
1166.92658839613
 21
3725.78719799805
 31
0.0
  0
LINE
  5
3C9
330
1F
100
AcDbEntity
  8
付属金具
  6
CONTINUOUS
 62
     6
100
AcDbLine
 10
1166.92658839613
 20
3725.78719799805
 30
0.0
 11
1166.795799448031
 21
3725.851663987201
 31
0.0
  0
LINE
  5
3CA
330
1F
100
AcDbEntity
  8
付属金具
  6
CONTINUOUS
 62
     6
100
AcDbLine
 10
1166.795799448031
 20
3725.851663987201
 30
0.0
 11
1166.655199313231
 21
3725.889397768444
 31
0.0
  0
LINE
  5
3CB
330
1F
100
AcDbEntity
  8
付属金具
  6
CONTINUOUS
 62
     6
100
AcDbLine
 10
1166.655199313231
 20
3725.889397768444
 30
0.0
 11
1166.507241720762
 21
3725.901354137548
 31
0.0
  0
LINE
  5
3CC
330
1F
100
AcDbEntity
  8
付属金具
  6
CONTINUOUS
 62
     6
100
AcDbLine
 10
1166.507241720762
 20
3725.901354137548
 30
0.0
 11
1166.357004824084
 21
3725.889602791122
 31
0.0
  0
LINE
  5
3CD
330
1F
100
AcDbEntity
  8
付属金具
  6
CONTINUOUS
 62
     6
100
AcDbLine
 10
1166.357004824084
 20
3725.889602791122
 30
0.0
 11
1166.208273826917
 21
3725.84392454715
 31
0.0
  0
LINE
  5
3CE
330
1F
100
AcDbEntity
  8
付属金具
  6
CONTINUOUS
 62
     6
100
AcDbLine
 10
1166.208273826917
 20
3725.84392454715
 30
0.0
 11
1166.070694985654
 21
3725.77680971412
 31
0.0
  0
LINE
  5
3CF
330
1F
100
AcDbEntity
  8
付属金具
  6
CONTINUOUS
 62
     6
100
AcDbLine
 10
1166.070694985654
 20
3725.77680971412
 30
0.0
 11
1165.953597483088
 21
3725.686074272924
 31
0.0
  0
LINE
  5
3D0
330
1F
100
AcDbEntity
  8
付属金具
  6
CONTINUOUS
 62
     6
100
AcDbLine
 10
1165.953597483088
 20
3725.686074272924
 30
0.0
 11
1165.854257541354
 21
3725.57906030006
 31
0.0
  0
LINE
  5
3D1
330
1F
100
AcDbEntity
  8
付属金具
  6
CONTINUOUS
 62
     6
100
AcDbLine
 10
1165.854257541354
 20
3725.57906030006
 30
0.0
 11
1165.778444718954
 21
3725.455364340681
 31
0.0
  0
LINE
  5
3D2
330
1F
100
AcDbEntity
  8
付属金具
  6
CONTINUOUS
 62
     6
100
AcDbLine
 10
1165.25757058935
 20
3724.98304700274
 30
0.0
 11
1165.231424996805
 21
3725.245383142893
 31
0.0
  0
LINE
  5
3D3
330
1F
100
AcDbEntity
  8
付属金具
  6
CONTINUOUS
 62
     6
100
AcDbLine
 10
1165.325906979559
 20
3724.722740701253
 30
0.0
 11
1165.25757058935
 21
3724.98304700274
 31
0.0
  0
LINE
  5
3D4
330
1F
100
AcDbEntity
  8
付属金具
  6
CONTINUOUS
 62
     6
100
AcDbLine
 10
1165.44216580925
 20
3724.472167318449
 30
0.0
 11
1165.325906979559
 21
3724.722740701253
 31
0.0
  0
LINE
  5
3D5
330
1F
100
AcDbEntity
  8
付属金具
  6
CONTINUOUS
 62
     6
100
AcDbLine
 10
1165.594586893198
 20
3724.24702283479
 30
0.0
 11
1165.44216580925
 21
3724.472167318449
 31
0.0
  0
LINE
  5
3D6
330
1F
100
AcDbEntity
  8
付属金具
  6
CONTINUOUS
 62
     6
100
AcDbLine
 10
1165.780284388224
 20
3724.0544667396
 30
0.0
 11
1165.594586893198
 21
3724.24702283479
 31
0.0
  0
LINE
  5
3D7
330
1F
100
AcDbEntity
  8
付属金具
  6
CONTINUOUS
 62
     6
100
AcDbLine
 10
1165.992196313861
 20
3723.897944571849
 30
0.0
 11
1165.780284388224
 21
3724.0544667396
 31
0.0
  0
LINE
  5
3D8
330
1F
100
AcDbEntity
  8
付属金具
  6
CONTINUOUS
 62
     6
100
AcDbLine
 10
1166.225781345305
 20
3723.789891668881
 30
0.0
 11
1165.992196313861
 21
3723.897944571849
 31
0.0
  0
LINE
  5
3D9
330
1F
100
AcDbEntity
  8
付属金具
  6
CONTINUOUS
 62
     6
100
AcDbLine
 10
1166.474891850703
 20
3723.730699630358
 30
0.0
 11
1166.225781345305
 21
3723.789891668881
 31
0.0
  0
LINE
  5
3DA
330
1F
100
AcDbEntity
  8
付属金具
  6
CONTINUOUS
 62
     6
100
AcDbLine
 10
1166.602995868021
 20
3723.725429750821
 30
0.0
 11
1166.474891850703
 21
3723.730699630358
 31
0.0
  0
LINE
  5
3DB
330
1F
100
AcDbEntity
  8
付属金具
  6
CONTINUOUS
 62
     6
100
AcDbLine
 10
1166.734888963463
 20
3723.73302429969
 30
0.0
 11
1166.602995868021
 21
3723.725429750821
 31
0.0
  0
LINE
  5
3DC
330
1F
100
AcDbEntity
  8
付属金具
  6
CONTINUOUS
 62
     6
100
AcDbLine
 10
1166.863330289318
 20
3723.756610804676
 30
0.0
 11
1166.734888963463
 21
3723.73302429969
 31
0.0
  0
LINE
  5
3DD
330
1F
100
AcDbEntity
  8
付属金具
  6
CONTINUOUS
 62
     6
100
AcDbLine
 10
1166.993596142314
 20
3723.79808997105
 30
0.0
 11
1166.863330289318
 21
3723.756610804676
 31
0.0
  0
LINE
  5
3DE
330
1F
100
AcDbEntity
  8
付属金具
  6
CONTINUOUS
 62
     6
100
AcDbLine
 10
1167.120619307739
 20
3723.855374805457
 30
0.0
 11
1166.993596142314
 21
3723.79808997105
 31
0.0
  0
LINE
  5
3DF
330
1F
100
AcDbEntity
  8
付属金具
  6
CONTINUOUS
 62
     6
100
AcDbLine
 10
1167.231938448232
 20
3723.923823720526
 30
0.0
 11
1167.120619307739
 21
3723.855374805457
 31
0.0
  0
LINE
  5
3E0
330
1F
100
AcDbEntity
  8
付属金具
  6
CONTINUOUS
 62
     6
100
AcDbLine
 10
1167.334919707144
 20
3724.006388989046
 30
0.0
 11
1167.231938448232
 21
3723.923823720526
 31
0.0
  0
LINE
  5
3E1
330
1F
100
AcDbEntity
  8
付属金具
  6
CONTINUOUS
 62
     6
100
AcDbLine
 10
1167.426623283195
 20
3724.096035098304
 30
0.0
 11
1167.334919707144
 21
3724.006388989046
 31
0.0
  0
LINE
  5
3E2
330
1F
100
AcDbEntity
  8
付属金具
  6
CONTINUOUS
 62
     6
100
AcDbLine
 10
1167.50862395694
 20
3724.196264175366
 30
0.0
 11
1167.426623283195
 21
3724.096035098304
 31
0.0
  0
LINE
  5
3E3
330
1F
100
AcDbEntity
  8
付属金具
  6
CONTINUOUS
 62
     6
100
AcDbLine
 10
1167.575676846147
 20
3724.305183274707
 30
0.0
 11
1167.50862395694
 21
3724.196264175366
 31
0.0
  0
LINE
  5
3E4
330
1F
100
AcDbEntity
  8
付属金具
  6
CONTINUOUS
 62
     6
100
AcDbLine
 10
1167.633964863491
 20
3724.422152091704
 30
0.0
 11
1167.575676846147
 21
3724.305183274707
 31
0.0
  0
LINE
  5
3E5
330
1F
100
AcDbEntity
  8
付属金具
  6
CONTINUOUS
 62
     6
100
AcDbLine
 10
1167.679394664033
 20
3724.542714610448
 30
0.0
 11
1167.633964863491
 21
3724.422152091704
 31
0.0
  0
LINE
  5
3E6
330
1F
100
AcDbEntity
  8
付属金具
  6
CONTINUOUS
 62
     6
100
AcDbLine
 10
1167.713498445981
 20
3724.670472689155
 30
0.0
 11
1167.679394664033
 21
3724.542714610448
 31
0.0
  0
LINE
  5
3E7
330
1F
100
AcDbEntity
  8
付属金具
  6
CONTINUOUS
 62
     6
100
AcDbLine
 10
1167.734687805849
 20
3724.801802894426
 30
0.0
 11
1167.713498445981
 21
3724.670472689155
 31
0.0
  0
LINE
  5
3E8
330
1F
100
AcDbEntity
  8
付属金具
  6
CONTINUOUS
 62
     6
100
AcDbLine
 10
1167.746470541374
 20
3724.935429263649
 30
0.0
 11
1167.734687805849
 21
3724.801802894426
 31
0.0
  0
LINE
  5
3E9
330
1F
100
AcDbEntity
  8
付属金具
  6
CONTINUOUS
 62
     6
100
AcDbLine
 10
1167.743884473672
 20
3725.069047174093
 30
0.0
 11
1167.746470541374
 21
3724.935429263649
 31
0.0
  0
LINE
  5
3EA
330
1F
100
AcDbEntity
  8
付属金具
  6
CONTINUOUS
 62
     6
100
AcDbLine
 10
1167.707954112436
 20
3725.341921959046
 30
0.0
 11
1167.743884473672
 21
3725.069047174093
 31
0.0
  0
LINE
  5
3EB
330
1F
100
AcDbEntity
  8
付属金具
  6
CONTINUOUS
 62
     6
100
AcDbLine
 10
1167.670582106441
 20
3725.476619037168
 30
0.0
 11
1167.707954112436
 21
3725.341921959046
 31
0.0
  0
LINE
  5
3EC
330
1F
100
AcDbEntity
  8
付属金具
  6
CONTINUOUS
 62
     6
100
AcDbLine
 10
1167.624226896493
 20
3725.60498305837
 30
0.0
 11
1167.670582106441
 21
3725.476619037168
 31
0.0
  0
LINE
  5
3ED
330
1F
100
AcDbEntity
  8
付属金具
  6
CONTINUOUS
 62
     6
100
AcDbLine
 10
1167.502280143375
 20
3725.847728271207
 30
0.0
 11
1167.624226896493
 21
3725.60498305837
 31
0.0
  0
LINE
  5
3EE
330
1F
100
AcDbEntity
  8
付属金具
  6
CONTINUOUS
 62
     6
100
AcDbLine
 10
1167.343759509295
 20
3726.059117120205
 30
0.0
 11
1167.502280143375
 21
3725.847728271207
 31
0.0
  0
LINE
  5
3EF
330
1F
100
AcDbEntity
  8
付属金具
  6
CONTINUOUS
 62
     6
100
AcDbLine
 10
1167.254733687133
 20
3726.156798164138
 30
0.0
 11
1167.343759509295
 21
3726.059117120205
 31
0.0
  0
LINE
  5
3F0
330
1F
100
AcDbEntity
  8
付属金具
  6
CONTINUOUS
 62
     6
100
AcDbLine
 10
1167.159509078509
 20
3726.240556505725
 30
0.0
 11
1167.254733687133
 21
3726.156798164138
 31
0.0
  0
LINE
  5
3F1
330
1F
100
AcDbEntity
  8
付属金具
  6
CONTINUOUS
 62
     6
100
AcDbLine
 10
1166.947294077705
 20
3726.382659069932
 30
0.0
 11
1167.159509078509
 21
3726.240556505725
 31
0.0
  0
LINE
  5
3F2
330
1F
100
AcDbEntity
  8
付属金具
  6
CONTINUOUS
 62
     6
100
AcDbLine
 10
1166.72006833231
 20
3726.481738837367
 30
0.0
 11
1166.947294077705
 21
3726.382659069932
 31
0.0
  0
LINE
  5
3F3
330
1F
100
AcDbEntity
  8
付属金具
  6
CONTINUOUS
 62
     6
100
AcDbLine
 10
1166.600810371794
 20
3726.516255174158
 30
0.0
 11
1166.72006833231
 21
3726.481738837367
 31
0.0
  0
LINE
  5
3F4
330
1F
100
AcDbEntity
  8
付属金具
  6
CONTINUOUS
 62
     6
100
AcDbLine
 10
1166.477238425574
 20
3726.5319275351
 30
0.0
 11
1166.600810371794
 21
3726.516255174158
 31
0.0
  0
LINE
  5
3F5
330
1F
100
AcDbEntity
  8
付属金具
  6
CONTINUOUS
 62
     6
100
AcDbLine
 10
1166.226749482163
 20
3726.527478954864
 30
0.0
 11
1166.477238425574
 21
3726.5319275351
 31
0.0
  0
LINE
  5
3F6
330
1F
100
AcDbEntity
  8
付属金具
  6
CONTINUOUS
 62
     6
100
AcDbLine
 10
1166.099269539189
 20
3726.501376762187
 30
0.0
 11
1166.226749482163
 21
3726.527478954864
 31
0.0
  0
LINE
  5
3F7
330
1F
100
AcDbEntity
  8
付属金具
  6
CONTINUOUS
 62
     6
100
AcDbLine
 10
1165.972383709795
 20
3726.458439311734
 30
0.0
 11
1166.099269539189
 21
3726.501376762187
 31
0.0
  0
LINE
  5
3F8
330
1F
100
AcDbEntity
  8
付属金具
  6
CONTINUOUS
 62
     6
100
AcDbLine
 10
1165.740583484998
 20
3726.337972585491
 30
0.0
 11
1165.972383709795
 21
3726.458439311734
 31
0.0
  0
LINE
  5
3F9
330
1F
100
AcDbEntity
  8
付属金具
  6
CONTINUOUS
 62
     6
100
AcDbLine
 10
1165.55142870387
 20
3726.1736534525
 30
0.0
 11
1165.740583484998
 21
3726.337972585491
 31
0.0
  0
LINE
  5
3FA
330
1F
100
AcDbEntity
  8
付属金具
  6
CONTINUOUS
 62
     6
100
AcDbLine
 10
1165.40712647225
 20
3725.974862949193
 30
0.0
 11
1165.55142870387
 21
3726.1736534525
 31
0.0
  0
LINE
  5
3FB
330
1F
100
AcDbEntity
  8
付属金具
  6
CONTINUOUS
 62
     6
100
AcDbLine
 10
1165.304592116353
 20
3725.749200138683
 30
0.0
 11
1165.40712647225
 21
3725.974862949193
 31
0.0
  0
LINE
  5
3FC
330
1F
100
AcDbEntity
  8
付属金具
  6
CONTINUOUS
 62
     6
100
AcDbLine
 10
1165.246943104986
 20
3725.503506485853
 30
0.0
 11
1165.304592116353
 21
3725.749200138683
 31
0.0
  0
LINE
  5
3FD
330
1F
100
AcDbEntity
  8
付属金具
  6
CONTINUOUS
 62
     6
100
AcDbLine
 10
1165.231424996805
 20
3725.245383142893
 30
0.0
 11
1165.246943104986
 21
3725.503506485853
 31
0.0
  0
LINE
  5
3FE
330
1F
100
AcDbEntity
  8
付属金具
  6
CONTINUOUS
 62
     6
100
AcDbLine
 10
1166.896235009737
 20
3727.239999446604
 30
0.0
 11
1164.757864067235
 21
3726.419155748213
 31
0.0
  0
LINE
  5
3FF
330
1F
100
AcDbEntity
  8
付属金具
  6
CONTINUOUS
 62
     6
100
AcDbLine
 10
1164.757864067235
 20
3726.419155748213
 30
0.0
 11
1164.546906232783
 21
3726.968719695855
 31
0.0
  0
LINE
  5
400
330
1F
100
AcDbEntity
  8
付属金具
  6
CONTINUOUS
 62
     6
100
AcDbLine
 10
1164.546906232783
 20
3726.968719695855
 30
0.0
 11
1165.463764165027
 21
3727.32066848128
 31
0.0
  0
LINE
  5
401
330
1F
100
AcDbEntity
  8
付属金具
  6
CONTINUOUS
 62
     6
100
AcDbLine
 10
1165.463764165027
 20
3727.32066848128
 30
0.0
 11
1165.077270633272
 21
3728.327518554432
 31
0.0
  0
LINE
  5
402
330
1F
100
AcDbEntity
  8
付属金具
  6
CONTINUOUS
 62
     6
100
AcDbLine
 10
1165.077270633272
 20
3728.327518554432
 30
0.0
 11
1164.160412701027
 21
3727.975569769007
 31
0.0
  0
LINE
  5
403
330
1F
100
AcDbEntity
  8
付属金具
  6
CONTINUOUS
 62
     6
100
AcDbLine
 10
1164.160412701027
 20
3727.975569769007
 30
0.0
 11
1163.94945342823
 21
3728.525137463667
 31
0.0
  0
LINE
  5
404
330
1F
100
AcDbEntity
  8
付属金具
  6
CONTINUOUS
 62
     6
100
AcDbLine
 10
1163.94945342823
 20
3728.525137463667
 30
0.0
 11
1166.087824370732
 21
3729.345981162058
 31
0.0
  0
LINE
  5
405
330
1F
100
AcDbEntity
  8
付属金具
  6
CONTINUOUS
 62
     6
100
AcDbLine
 10
1166.087824370732
 20
3729.345981162058
 30
0.0
 11
1166.298783643529
 21
3728.796413467398
 31
0.0
  0
LINE
  5
406
330
1F
100
AcDbEntity
  8
付属金具
  6
CONTINUOUS
 62
     6
100
AcDbLine
 10
1166.298783643529
 20
3728.796413467398
 30
0.0
 11
1165.529378379353
 21
3728.501066458114
 31
0.0
  0
LINE
  5
407
330
1F
100
AcDbEntity
  8
付属金具
  6
CONTINUOUS
 62
     6
100
AcDbLine
 10
1165.529378379353
 20
3728.501066458114
 30
0.0
 11
1165.915871911109
 21
3727.494216384962
 31
0.0
  0
LINE
  5
408
330
1F
100
AcDbEntity
  8
付属金具
  6
CONTINUOUS
 62
     6
100
AcDbLine
 10
1165.915871911109
 20
3727.494216384962
 30
0.0
 11
1166.685277175285
 21
3727.789563394246
 31
0.0
  0
LINE
  5
409
330
1F
100
AcDbEntity
  8
付属金具
  6
CONTINUOUS
 62
     6
100
AcDbLine
 10
1166.685277175285
 20
3727.789563394246
 30
0.0
 11
1166.896235009737
 21
3727.239999446604
 31
0.0
  0
LINE
  5
40A
330
1F
100
AcDbEntity
  8
付属金具
  6
CONTINUOUS
 62
     6
100
AcDbLine
 10
1165.85965960784
 20
3729.940370690817
 30
0.0
 11
1163.721288665338
 21
3729.119526992426
 31
0.0
  0
LINE
  5
40B
330
1F
100
AcDbEntity
  8
付属金具
  6
CONTINUOUS
 62
     6
100
AcDbLine
 10
1163.721288665338
 20
3729.119526992426
 30
0.0
 11
1163.105619213731
 21
3730.723400748271
 31
0.0
  0
LINE
  5
40C
330
1F
100
AcDbEntity
  8
付属金具
  6
CONTINUOUS
 62
     6
100
AcDbLine
 10
1163.105619213731
 20
3730.723400748271
 30
0.0
 11
1163.55775693596
 21
3730.896960158718
 31
0.0
  0
LINE
  5
40D
330
1F
100
AcDbEntity
  8
付属金具
  6
CONTINUOUS
 62
     6
100
AcDbLine
 10
1163.55775693596
 20
3730.896960158718
 30
0.0
 11
1163.961458834502
 21
3729.84528075743
 31
0.0
  0
LINE
  5
40E
330
1F
100
AcDbEntity
  8
付属金具
  6
CONTINUOUS
 62
     6
100
AcDbLine
 10
1163.961458834502
 20
3729.84528075743
 30
0.0
 11
1164.426179044518
 21
3730.02367013241
 31
0.0
  0
LINE
  5
40F
330
1F
100
AcDbEntity
  8
付属金具
  6
CONTINUOUS
 62
     6
100
AcDbLine
 10
1164.426179044518
 20
3730.02367013241
 30
0.0
 11
1164.123172844901
 21
3730.813028269564
 31
0.0
  0
LINE
  5
410
330
1F
100
AcDbEntity
  8
付属金具
  6
CONTINUOUS
 62
     6
100
AcDbLine
 10
1164.123172844901
 20
3730.813028269564
 30
0.0
 11
1164.575280590983
 21
3730.986576173246
 31
0.0
  0
LINE
  5
411
330
1F
100
AcDbEntity
  8
付属金具
  6
CONTINUOUS
 62
     6
100
AcDbLine
 10
1164.575280590983
 20
3730.986576173246
 30
0.0
 11
1164.878286790599
 21
3730.197218036091
 31
0.0
  0
LINE
  5
412
330
1F
100
AcDbEntity
  8
付属金具
  6
CONTINUOUS
 62
     6
100
AcDbLine
 10
1164.878286790599
 20
3730.197218036091
 30
0.0
 11
1165.230543990363
 21
3730.332436906163
 31
0.0
  0
LINE
  5
413
330
1F
100
AcDbEntity
  8
付属金具
  6
CONTINUOUS
 62
     6
100
AcDbLine
 10
1165.230543990363
 20
3730.332436906163
 30
0.0
 11
1164.873809829119
 21
3731.261761168624
 31
0.0
  0
LINE
  5
414
330
1F
100
AcDbEntity
  8
付属金具
  6
CONTINUOUS
 62
     6
100
AcDbLine
 10
1164.873809829119
 20
3731.261761168624
 30
0.0
 11
1165.290957893531
 21
3731.421889307836
 31
0.0
  0
LINE
  5
415
330
1F
100
AcDbEntity
  8
付属金具
  6
CONTINUOUS
 62
     6
100
AcDbLine
 10
1165.290957893531
 20
3731.421889307836
 30
0.0
 11
1165.85965960784
 21
3729.940370690817
 31
0.0
  0
LINE
  5
416
330
1F
100
AcDbEntity
  8
付属金具
  6
CONTINUOUS
 62
     6
100
AcDbLine
 10
1167.573798868058
 20
3722.286610194906
 30
0.0
 11
1166.197176237775
 21
3722.669619352059
 31
0.0
  0
LINE
  5
417
330
1F
100
AcDbEntity
  8
付属金具
  6
CONTINUOUS
 62
     6
100
AcDbLine
 10
1166.197176237775
 20
3722.669619352059
 30
0.0
 11
1165.918137190929
 21
3723.396540921618
 31
0.0
  0
LINE
  5
418
330
1F
100
AcDbEntity
  8
付属金具
  6
CONTINUOUS
 62
     6
100
AcDbLine
 10
1165.918137190929
 20
3723.396540921618
 30
0.0
 11
1167.055239108483
 21
3723.010413064659
 31
0.0
  0
LINE
  5
419
330
1F
100
AcDbEntity
  8
付属金具
  6
CONTINUOUS
 62
     6
100
AcDbLine
 10
1167.055239108483
 20
3723.010413064659
 30
0.0
 11
1167.087437799178
 21
3723.217735026076
 31
0.0
  0
LINE
  5
41A
330
1F
100
AcDbEntity
  8
付属金具
  6
CONTINUOUS
 62
     6
100
AcDbLine
 10
1167.087437799178
 20
3723.217735026076
 30
0.0
 11
1167.167883675547
 21
3723.388999668764
 31
0.0
  0
LINE
  5
41B
330
1F
100
AcDbEntity
  8
付属金具
  6
CONTINUOUS
 62
     6
100
AcDbLine
 10
1167.167883675547
 20
3723.388999668764
 30
0.0
 11
1167.300443703768
 21
3723.528838357965
 31
0.0
  0
LINE
  5
41C
330
1F
100
AcDbEntity
  8
付属金具
  6
CONTINUOUS
 62
     6
100
AcDbLine
 10
1167.300443703768
 20
3723.528838357965
 30
0.0
 11
1167.477797767548
 21
3723.634178916303
 31
0.0
  0
LINE
  5
41D
330
1F
100
AcDbEntity
  8
付属金具
  6
CONTINUOUS
 62
     6
100
AcDbLine
 10
1167.477797767548
 20
3723.634178916303
 30
0.0
 11
1167.623174970243
 21
3723.681325512773
 31
0.0
  0
LINE
  5
41E
330
1F
100
AcDbEntity
  8
付属金具
  6
CONTINUOUS
 62
     6
100
AcDbLine
 10
1167.623174970243
 20
3723.681325512773
 30
0.0
 11
1167.769947851257
 21
3723.694765149746
 31
0.0
  0
LINE
  5
41F
330
1F
100
AcDbEntity
  8
付属金具
  6
CONTINUOUS
 62
     6
100
AcDbLine
 10
1167.769947851257
 20
3723.694765149746
 30
0.0
 11
1167.914761865103
 21
3723.675699344286
 31
0.0
  0
LINE
  5
420
330
1F
100
AcDbEntity
  8
付属金具
  6
CONTINUOUS
 62
     6
100
AcDbLine
 10
1167.914761865103
 20
3723.675699344286
 30
0.0
 11
1168.053183431868
 21
3723.628599780395
 31
0.0
  0
LINE
  5
421
330
1F
100
AcDbEntity
  8
付属金具
  6
CONTINUOUS
 62
     6
100
AcDbLine
 10
1168.053183431868
 20
3723.628599780395
 30
0.0
 11
1168.180943401256
 21
3723.557330593673
 31
0.0
  0
LINE
  5
422
330
1F
100
AcDbEntity
  8
付属金具
  6
CONTINUOUS
 62
     6
100
AcDbLine
 10
1168.180943401256
 20
3723.557330593673
 30
0.0
 11
1168.291883770689
 21
3723.462288001127
 31
0.0
  0
LINE
  5
423
330
1F
100
AcDbEntity
  8
付属金具
  6
CONTINUOUS
 62
     6
100
AcDbLine
 10
1168.291883770689
 20
3723.462288001127
 30
0.0
 11
1168.38174026341
 21
3723.347737829856
 31
0.0
  0
LINE
  5
424
330
1F
100
AcDbEntity
  8
付属金具
  6
CONTINUOUS
 62
     6
100
AcDbLine
 10
1168.38174026341
 20
3723.347737829856
 30
0.0
 11
1168.443879056005
 21
3723.208248865633
 31
0.0
  0
LINE
  5
425
330
1F
100
AcDbEntity
  8
付属金具
  6
CONTINUOUS
 62
     6
100
AcDbLine
 10
1168.443879056005
 20
3723.208248865633
 30
0.0
 11
1168.881159132632
 21
3722.069095319803
 31
0.0
  0
LINE
  5
426
330
1F
100
AcDbEntity
  8
付属金具
  6
CONTINUOUS
 62
     6
100
AcDbLine
 10
1168.881159132632
 20
3722.069095319803
 30
0.0
 11
1166.74278819013
 21
3721.248251621412
 31
0.0
  0
LINE
  5
427
330
1F
100
AcDbEntity
  8
付属金具
  6
CONTINUOUS
 62
     6
100
AcDbLine
 10
1166.74278819013
 20
3721.248251621412
 30
0.0
 11
1166.529898657534
 21
3721.802847814764
 31
0.0
  0
LINE
  5
428
330
1F
100
AcDbEntity
  8
付属金具
  6
CONTINUOUS
 62
     6
100
AcDbLine
 10
1166.529898657534
 20
3721.802847814764
 30
0.0
 11
1168.251121535625
 21
3722.463563373943
 31
0.0
  0
LINE
  5
429
330
1F
100
AcDbEntity
  8
付属金具
  6
CONTINUOUS
 62
     6
100
AcDbLine
 10
1168.251121535625
 20
3722.463563373943
 30
0.0
 11
1168.101527839603
 21
3722.853268275595
 31
0.0
  0
LINE
  5
42A
330
1F
100
AcDbEntity
  8
付属金具
  6
CONTINUOUS
 62
     6
100
AcDbLine
 10
1168.101527839603
 20
3722.853268275595
 30
0.0
 11
1168.02106335866
 21
3722.965649947249
 31
0.0
  0
LINE
  5
42B
330
1F
100
AcDbEntity
  8
付属金具
  6
CONTINUOUS
 62
     6
100
AcDbLine
 10
1168.02106335866
 20
3722.965649947249
 30
0.0
 11
1167.911310009355
 21
3723.035301719082
 31
0.0
  0
LINE
  5
42C
330
1F
100
AcDbEntity
  8
付属金具
  6
CONTINUOUS
 62
     6
100
AcDbLine
 10
1167.911310009355
 20
3723.035301719082
 30
0.0
 11
1167.783919255561
 21
3723.060922413874
 31
0.0
  0
LINE
  5
42D
330
1F
100
AcDbEntity
  8
付属金具
  6
CONTINUOUS
 62
     6
100
AcDbLine
 10
1167.783919255561
 20
3723.060922413874
 30
0.0
 11
1167.648849667161
 21
3723.032035803707
 31
0.0
  0
LINE
  5
42E
330
1F
100
AcDbEntity
  8
付属金具
  6
CONTINUOUS
 62
     6
100
AcDbLine
 10
1167.648849667161
 20
3723.032035803707
 30
0.0
 11
1167.541580840554
 21
3722.967897412046
 31
0.0
  0
LINE
  5
42F
330
1F
100
AcDbEntity
  8
付属金具
  6
CONTINUOUS
 62
     6
100
AcDbLine
 10
1167.541580840554
 20
3722.967897412046
 30
0.0
 11
1167.467158946686
 21
3722.870581855155
 31
0.0
  0
LINE
  5
430
330
1F
100
AcDbEntity
  8
付属金具
  6
CONTINUOUS
 62
     6
100
AcDbLine
 10
1167.467158946686
 20
3722.870581855155
 30
0.0
 11
1167.434266294203
 21
3722.754698623079
 31
0.0
  0
LINE
  5
431
330
1F
100
AcDbEntity
  8
付属金具
  6
CONTINUOUS
 62
     6
100
AcDbLine
 10
1167.434266294203
 20
3722.754698623079
 30
0.0
 11
1167.442377230377
 21
3722.628975266095
 31
0.0
  0
LINE
  5
432
330
1F
100
AcDbEntity
  8
付属金具
  6
CONTINUOUS
 62
     6
100
AcDbLine
 10
1167.442377230377
 20
3722.628975266095
 30
0.0
 11
1167.573798868058
 21
3722.286610194906
 31
0.0
  0
LINE
  5
433
330
1F
100
AcDbEntity
  8
付属金具
  6
CONTINUOUS
 62
     6
100
AcDbLine
 10
1167.572406394202
 20
3720.274130511446
 30
0.0
 11
1167.591384391012
 21
3720.381654406072
 31
0.0
  0
LINE
  5
434
330
1F
100
AcDbEntity
  8
付属金具
  6
CONTINUOUS
 62
     6
100
AcDbLine
 10
1167.591384391012
 20
3720.381654406072
 30
0.0
 11
1168.213389445377
 21
3720.620419776053
 31
0.0
  0
LINE
  5
435
330
1F
100
AcDbEntity
  8
付属金具
  6
CONTINUOUS
 62
     6
100
AcDbLine
 10
1168.213389445377
 20
3720.620419776053
 30
0.0
 11
1167.998568214637
 21
3721.180048215117
 31
0.0
  0
LINE
  5
436
330
1F
100
AcDbEntity
  8
付属金具
  6
CONTINUOUS
 62
     6
100
AcDbLine
 10
1167.998568214637
 20
3721.180048215117
 30
0.0
 11
1167.166760106031
 21
3720.860746998172
 31
0.0
  0
LINE
  5
437
330
1F
100
AcDbEntity
  8
付属金具
  6
CONTINUOUS
 62
     6
100
AcDbLine
 10
1167.166760106031
 20
3720.860746998172
 30
0.0
 11
1167.121403492622
 21
3720.568079004724
 31
0.0
  0
LINE
  5
438
330
1F
100
AcDbEntity
  8
付属金具
  6
CONTINUOUS
 62
     6
100
AcDbLine
 10
1167.121403492622
 20
3720.568079004724
 30
0.0
 11
1167.136372700612
 21
3720.290171689336
 31
0.0
  0
LINE
  5
439
330
1F
100
AcDbEntity
  8
付属金具
  6
CONTINUOUS
 62
     6
100
AcDbLine
 10
1167.136372700612
 20
3720.290171689336
 30
0.0
 11
1167.188423953031
 21
3720.035028345882
 31
0.0
  0
LINE
  5
43A
330
1F
100
AcDbEntity
  8
付属金具
  6
CONTINUOUS
 62
     6
100
AcDbLine
 10
1167.188423953031
 20
3720.035028345882
 30
0.0
 11
1167.255426055562
 21
3719.808448270404
 31
0.0
  0
LINE
  5
43B
330
1F
100
AcDbEntity
  8
付属金具
  6
CONTINUOUS
 62
     6
100
AcDbLine
 10
1167.255426055562
 20
3719.808448270404
 30
0.0
 11
1167.366477457819
 21
3719.541448004327
 31
0.0
  0
LINE
  5
43C
330
1F
100
AcDbEntity
  8
付属金具
  6
CONTINUOUS
 62
     6
100
AcDbLine
 10
1167.366477457819
 20
3719.541448004327
 30
0.0
 11
1167.512814984735
 21
3719.316852989922
 31
0.0
  0
LINE
  5
43D
330
1F
100
AcDbEntity
  8
付属金具
  6
CONTINUOUS
 62
     6
100
AcDbLine
 10
1167.512814984735
 20
3719.316852989922
 30
0.0
 11
1167.691227347849
 21
3719.135928333767
 31
0.0
  0
LINE
  5
43E
330
1F
100
AcDbEntity
  8
付属金具
  6
CONTINUOUS
 62
     6
100
AcDbLine
 10
1167.691227347849
 20
3719.135928333767
 30
0.0
 11
1167.895571788848
 21
3718.99946732702
 31
0.0
  0
LINE
  5
43F
330
1F
100
AcDbEntity
  8
付属金具
  6
CONTINUOUS
 62
     6
100
AcDbLine
 10
1167.895571788848
 20
3718.99946732702
 30
0.0
 11
1168.120441664693
 21
3718.913782190734
 31
0.0
  0
LINE
  5
440
330
1F
100
AcDbEntity
  8
付属金具
  6
CONTINUOUS
 62
     6
100
AcDbLine
 10
1168.120441664693
 20
3718.913782190734
 30
0.0
 11
1168.239376998807
 21
3718.887800492429
 31
0.0
  0
LINE
  5
441
330
1F
100
AcDbEntity
  8
付属金具
  6
CONTINUOUS
 62
     6
100
AcDbLine
 10
1168.239376998807
 20
3718.887800492429
 30
0.0
 11
1168.358443045242
 21
3718.876172233769
 31
0.0
  0
LINE
  5
442
330
1F
100
AcDbEntity
  8
付属金具
  6
CONTINUOUS
 62
     6
100
AcDbLine
 10
1168.358443045242
 20
3718.876172233769
 30
0.0
 11
1168.481266755308
 21
3718.877400643769
 31
0.0
  0
LINE
  5
443
330
1F
100
AcDbEntity
  8
付属金具
  6
CONTINUOUS
 62
     6
100
AcDbLine
 10
1168.481266755308
 20
3718.877400643769
 30
0.0
 11
1168.602656575354
 21
3718.889621846123
 31
0.0
  0
LINE
  5
444
330
1F
100
AcDbEntity
  8
付属金具
  6
CONTINUOUS
 62
     6
100
AcDbLine
 10
1168.602656575354
 20
3718.889621846123
 30
0.0
 11
1168.852014892796
 21
3718.956743606547
 31
0.0
  0
LINE
  5
445
330
1F
100
AcDbEntity
  8
付属金具
  6
CONTINUOUS
 62
     6
100
AcDbLine
 10
1168.852014892796
 20
3718.956743606547
 30
0.0
 11
1168.97154776844
 21
3719.011153188095
 31
0.0
  0
LINE
  5
446
330
1F
100
AcDbEntity
  8
付属金具
  6
CONTINUOUS
 62
     6
100
AcDbLine
 10
1168.97154776844
 20
3719.011153188095
 30
0.0
 11
1169.078816595047
 21
3719.075291579756
 31
0.0
  0
LINE
  5
447
330
1F
100
AcDbEntity
  8
付属金具
  6
CONTINUOUS
 62
     6
100
AcDbLine
 10
1169.078816595047
 20
3719.075291579756
 30
0.0
 11
1169.176239262323
 21
3719.149949349705
 31
0.0
  0
LINE
  5
448
330
1F
100
AcDbEntity
  8
付属金具
  6
CONTINUOUS
 62
     6
100
AcDbLine
 10
1169.176239262323
 20
3719.149949349705
 30
0.0
 11
1169.263905698708
 21
3719.235161018238
 31
0.0
  0
LINE
  5
449
330
1F
100
AcDbEntity
  8
付属金具
  6
CONTINUOUS
 62
     6
100
AcDbLine
 10
1169.263905698708
 20
3719.235161018238
 30
0.0
 11
1169.342762674519
 21
3719.328538561998
 31
0.0
  0
LINE
  5
44A
330
1F
100
AcDbEntity
  8
付属金具
  6
CONTINUOUS
 62
     6
100
AcDbLine
 10
1169.342762674519
 20
3719.328538561998
 30
0.0
 11
1169.407796303627
 21
3719.428024056851
 31
0.0
  0
LINE
  5
44B
330
1F
100
AcDbEntity
  8
付属金具
  6
CONTINUOUS
 62
     6
100
AcDbLine
 10
1169.407796303627
 20
3719.428024056851
 30
0.0
 11
1169.463892698028
 21
3719.535493105463
 31
0.0
  0
LINE
  5
44C
330
1F
100
AcDbEntity
  8
付属金具
  6
CONTINUOUS
 62
     6
100
AcDbLine
 10
1169.463892698028
 20
3719.535493105463
 30
0.0
 11
1169.509714385156
 21
3719.647676546641
 31
0.0
  0
LINE
  5
44D
330
1F
100
AcDbEntity
  8
付属金具
  6
CONTINUOUS
 62
     6
100
AcDbLine
 10
1169.509714385156
 20
3719.647676546641
 30
0.0
 11
1169.569224276824
 21
3719.888444042911
 31
0.0
  0
LINE
  5
44E
330
1F
100
AcDbEntity
  8
付属金具
  6
CONTINUOUS
 62
     6
100
AcDbLine
 10
1169.569224276824
 20
3719.888444042911
 30
0.0
 11
1169.582563816969
 21
3720.137201603222
 31
0.0
  0
LINE
  5
44F
330
1F
100
AcDbEntity
  8
付属金具
  6
CONTINUOUS
 62
     6
100
AcDbLine
 10
1169.582563816969
 20
3720.137201603222
 30
0.0
 11
1169.573469391311
 21
3720.265565435543
 31
0.0
  0
LINE
  5
450
330
1F
100
AcDbEntity
  8
付属金具
  6
CONTINUOUS
 62
     6
100
AcDbLine
 10
1169.573469391311
 20
3720.265565435543
 30
0.0
 11
1169.5533884947
 21
3720.39246771037
 31
0.0
  0
LINE
  5
451
330
1F
100
AcDbEntity
  8
付属金具
  6
CONTINUOUS
 62
     6
100
AcDbLine
 10
1169.5533884947
 20
3720.39246771037
 30
0.0
 11
1169.518913316748
 21
3720.519618293435
 31
0.0
  0
LINE
  5
452
330
1F
100
AcDbEntity
  8
付属金具
  6
CONTINUOUS
 62
     6
100
AcDbLine
 10
1169.518913316748
 20
3720.519618293435
 30
0.0
 11
1169.474448963249
 21
3720.643067664842
 31
0.0
  0
LINE
  5
453
330
1F
100
AcDbEntity
  8
付属金具
  6
CONTINUOUS
 62
     6
100
AcDbLine
 10
1169.474448963249
 20
3720.643067664842
 30
0.0
 11
1169.36857494271
 21
3720.888964620084
 31
0.0
  0
LINE
  5
454
330
1F
100
AcDbEntity
  8
付属金具
  6
CONTINUOUS
 62
     6
100
AcDbLine
 10
1169.36857494271
 20
3720.888964620084
 30
0.0
 11
1169.254178242786
 21
3721.09734731502
 31
0.0
  0
LINE
  5
455
330
1F
100
AcDbEntity
  8
付属金具
  6
CONTINUOUS
 62
     6
100
AcDbLine
 10
1169.254178242786
 20
3721.09734731502
 30
0.0
 11
1169.188941022416
 21
3721.192616736462
 31
0.0
  0
LINE
  5
456
330
1F
100
AcDbEntity
  8
付属金具
  6
CONTINUOUS
 62
     6
100
AcDbLine
 10
1169.188941022416
 20
3721.192616736462
 30
0.0
 11
1169.111194321461
 21
3721.283213192637
 31
0.0
  0
LINE
  5
457
330
1F
100
AcDbEntity
  8
付属金具
  6
CONTINUOUS
 62
     6
100
AcDbLine
 10
1169.111194321461
 20
3721.283213192637
 30
0.0
 11
1169.02003682865
 21
3721.371417481714
 31
0.0
  0
LINE
  5
458
330
1F
100
AcDbEntity
  8
付属金具
  6
CONTINUOUS
 62
     6
100
AcDbLine
 10
1169.02003682865
 20
3721.371417481714
 30
0.0
 11
1168.912873674082
 21
3721.45636250089
 31
0.0
  0
LINE
  5
459
330
1F
100
AcDbEntity
  8
付属金具
  6
CONTINUOUS
 62
     6
100
AcDbLine
 10
1168.912873674082
 20
3721.45636250089
 30
0.0
 11
1168.500641697811
 21
3721.298121471108
 31
0.0
  0
LINE
  5
45A
330
1F
100
AcDbEntity
  8
付属金具
  6
CONTINUOUS
 62
     6
100
AcDbLine
 10
1168.500641697811
 20
3721.298121471108
 30
0.0
 11
1168.562171271694
 21
3721.250108065194
 31
0.0
  0
LINE
  5
45B
330
1F
100
AcDbEntity
  8
付属金具
  6
CONTINUOUS
 62
     6
100
AcDbLine
 10
1168.562171271694
 20
3721.250108065194
 30
0.0
 11
1168.709745096619
 21
3721.111923281437
 31
0.0
  0
LINE
  5
45C
330
1F
100
AcDbEntity
  8
付属金具
  6
CONTINUOUS
 62
     6
100
AcDbLine
 10
1168.709745096619
 20
3721.111923281437
 30
0.0
 11
1168.798887076352
 21
3721.014286826218
 31
0.0
  0
LINE
  5
45D
330
1F
100
AcDbEntity
  8
付属金具
  6
CONTINUOUS
 62
     6
100
AcDbLine
 10
1168.798887076352
 20
3721.014286826218
 30
0.0
 11
1168.88558681623
 21
3720.892751135909
 31
0.0
  0
LINE
  5
45E
330
1F
100
AcDbEntity
  8
付属金具
  6
CONTINUOUS
 62
     6
100
AcDbLine
 10
1168.88558681623
 20
3720.892751135909
 30
0.0
 11
1168.966159338504
 21
3720.757453489538
 31
0.0
  0
LINE
  5
45F
330
1F
100
AcDbEntity
  8
付属金具
  6
CONTINUOUS
 62
     6
100
AcDbLine
 10
1168.966159338504
 20
3720.757453489538
 30
0.0
 11
1169.034132509567
 21
3720.603011842337
 31
0.0
  0
LINE
  5
460
330
1F
100
AcDbEntity
  8
付属金具
  6
CONTINUOUS
 62
     6
100
AcDbLine
 10
1169.034132509567
 20
3720.603011842337
 30
0.0
 11
1169.076641055585
 21
3720.447329049297
 31
0.0
  0
LINE
  5
461
330
1F
100
AcDbEntity
  8
付属金具
  6
CONTINUOUS
 62
     6
100
AcDbLine
 10
1169.076641055585
 20
3720.447329049297
 30
0.0
 11
1169.091385250787
 21
3720.289642704532
 31
0.0
  0
LINE
  5
462
330
1F
100
AcDbEntity
  8
付属金具
  6
CONTINUOUS
 62
     6
100
AcDbLine
 10
1169.091385250787
 20
3720.289642704532
 30
0.0
 11
1169.078700837979
 21
3720.135730767509
 31
0.0
  0
LINE
  5
463
330
1F
100
AcDbEntity
  8
付属金具
  6
CONTINUOUS
 62
     6
100
AcDbLine
 10
1169.078700837979
 20
3720.135730767509
 30
0.0
 11
1169.036384570344
 21
3719.984747491013
 31
0.0
  0
LINE
  5
464
330
1F
100
AcDbEntity
  8
付属金具
  6
CONTINUOUS
 62
     6
100
AcDbLine
 10
1169.036384570344
 20
3719.984747491013
 30
0.0
 11
1168.970389369474
 21
3719.850516899563
 31
0.0
  0
LINE
  5
465
330
1F
100
AcDbEntity
  8
付属金具
  6
CONTINUOUS
 62
     6
100
AcDbLine
 10
1168.970389369474
 20
3719.850516899563
 30
0.0
 11
1168.879187159686
 21
3719.729571991003
 31
0.0
  0
LINE
  5
466
330
1F
100
AcDbEntity
  8
付属金具
  6
CONTINUOUS
 62
     6
100
AcDbLine
 10
1168.879187159686
 20
3719.729571991003
 30
0.0
 11
1168.762573029806
 21
3719.630230342463
 31
0.0
  0
LINE
  5
467
330
1F
100
AcDbEntity
  8
付属金具
  6
CONTINUOUS
 62
     6
100
AcDbLine
 10
1168.762573029806
 20
3719.630230342463
 30
0.0
 11
1168.622840411291
 21
3719.553763542222
 31
0.0
  0
LINE
  5
468
330
1F
100
AcDbEntity
  8
付属金具
  6
CONTINUOUS
 62
     6
100
AcDbLine
 10
1168.622840411291
 20
3719.553763542222
 30
0.0
 11
1168.479072280337
 21
3719.510119338527
 31
0.0
  0
LINE
  5
469
330
1F
100
AcDbEntity
  8
付属金具
  6
CONTINUOUS
 62
     6
100
AcDbLine
 10
1168.479072280337
 20
3719.510119338527
 30
0.0
 11
1168.333707060213
 21
3719.48567684078
 31
0.0
  0
LINE
  5
46A
330
1F
100
AcDbEntity
  8
付属金具
  6
CONTINUOUS
 62
     6
100
AcDbLine
 10
1168.333707060213
 20
3719.48567684078
 30
0.0
 11
1168.190604103748
 21
3719.485322440588
 31
0.0
  0
LINE
  5
46B
330
1F
100
AcDbEntity
  8
付属金具
  6
CONTINUOUS
 62
     6
100
AcDbLine
 10
1168.190604103748
 20
3719.485322440588
 30
0.0
 11
1168.052256855149
 21
3719.509493084652
 31
0.0
  0
LINE
  5
46C
330
1F
100
AcDbEntity
  8
付属金具
  6
CONTINUOUS
 62
     6
100
AcDbLine
 10
1168.052256855149
 20
3719.509493084652
 30
0.0
 11
1167.926809604942
 21
3719.567480050779
 31
0.0
  0
LINE
  5
46D
330
1F
100
AcDbEntity
  8
付属金具
  6
CONTINUOUS
 62
     6
100
AcDbLine
 10
1167.926809604942
 20
3719.567480050779
 30
0.0
 11
1167.814730362234
 21
3719.650537960524
 31
0.0
  0
LINE
  5
46E
330
1F
100
AcDbEntity
  8
付属金具
  6
CONTINUOUS
 62
     6
100
AcDbLine
 10
1167.814730362234
 20
3719.650537960524
 30
0.0
 11
1167.720497301519
 21
3719.769052905473
 31
0.0
  0
LINE
  5
46F
330
1F
100
AcDbEntity
  8
付属金具
  6
CONTINUOUS
 62
     6
100
AcDbLine
 10
1167.720497301519
 20
3719.769052905473
 30
0.0
 11
1167.647562583275
 21
3719.921714668432
 31
0.0
  0
LINE
  5
470
330
1F
100
AcDbEntity
  8
付属金具
  6
CONTINUOUS
 62
     6
100
AcDbLine
 10
1167.647562583275
 20
3719.921714668432
 30
0.0
 11
1167.570360527214
 21
3720.19016526996
 31
0.0
  0
LINE
  5
471
330
1F
100
AcDbEntity
  8
付属金具
  6
CONTINUOUS
 62
     6
100
AcDbLine
 10
1167.570360527214
 20
3720.19016526996
 30
0.0
 11
1167.572406394202
 21
3720.274130511446
 31
0.0
  0
LINE
  5
472
330
1F
100
AcDbEntity
  8
付属金具
  6
CONTINUOUS
 62
     2
100
AcDbLine
 10
1141.787773422976
 20
1676.680191585164
 30
0.0
 11
1141.944821158137
 21
1672.182932863578
 31
0.0
  0
ARC
  5
473
330
1F
100
AcDbEntity
  8
付属金具
  6
CONTINUOUS
 62
     6
100
AcDbCircle
 10
1072.460564348307
 20
1745.703153681397
 30
0.0
 40
21.1632472224
100
AcDbArc
 50
51.57827500000038
 51
79.46529600000001
  0
POLYLINE
  5
474
330
1F
100
AcDbEntity
  8
付属金具
  6
CONTINUOUS
 62
     6
100
AcDb2dPolyline
 66
     1
 10
0.0
 20
0.0
 30
0.0
 70
   128
  0
VERTEX
  5
475
330
474
100
AcDbEntity
  8
付属金具
  6
CONTINUOUS
 62
     6
100
AcDbVertex
100
AcDb2dVertex
 10
1076.329863993186
 20
1766.509670993368
 30
0.0
  0
VERTEX
  5
476
330
474
100
AcDbEntity
  8
付属金具
  6
CONTINUOUS
 62
     6
100
AcDbVertex
100
AcDb2dVertex
 10
1071.007732148002
 20
1767.257050867813
 30
0.0
  0
VERTEX
  5
477
330
474
100
AcDbEntity
  8
付属金具
  6
CONTINUOUS
 62
     6
100
AcDbVertex
100
AcDb2dVertex
 10
1061.809584652842
 20
1768.473668992526
 30
0.0
  0
VERTEX
  5
478
330
474
100
AcDbEntity
  8
付属金具
  6
CONTINUOUS
 62
     6
100
AcDbVertex
100
AcDb2dVertex
 10
1061.777226906223
 20
1768.479892416196
 30
0.0
  0
SEQEND
  5
479
330
474
100
AcDbEntity
  8
付属金具
  6
CONTINUOUS
 62
     6
  0
ARC
  5
47A
330
1F
100
AcDbEntity
  8
付属金具
  6
CONTINUOUS
 62
     6
100
AcDbCircle
 10
1054.244929213497
 20
1780.21891405251
 30
0.0
 40
0.4822460808
100
AcDbArc
 50
92.02718200000541
 51
183.6100750000146
  0
ARC
  5
47B
330
1F
100
AcDbEntity
  8
付属金具
  6
CONTINUOUS
 62
     6
100
AcDbCircle
 10
1075.443423441612
 20
1786.432097298481
 30
0.0
 40
22.5620670944
100
AcDbArc
 50
196.0806189999998
 51
232.7195640000002
  0
LINE
  5
47C
330
1F
100
AcDbEntity
  8
付属金具
  6
CONTINUOUS
 62
     6
100
AcDbLine
 10
1062.499627822635
 20
1766.644348338339
 30
0.0
 11
1061.736177506445
 21
1766.892409740451
 31
0.0
  0
LINE
  5
47D
330
1F
100
AcDbEntity
  8
付属金具
  6
CONTINUOUS
 62
     6
100
AcDbLine
 10
1061.736177506445
 20
1766.892409740451
 30
0.0
 11
1062.227450482409
 21
1768.404430234887
 31
0.0
  0
LINE
  5
47E
330
1F
100
AcDbEntity
  8
付属金具
  6
CONTINUOUS
 62
     6
100
AcDbLine
 10
1061.936385892223
 20
1764.910984276693
 30
0.0
 11
1062.499627822635
 21
1766.644348338339
 31
0.0
  0
LINE
  5
47F
330
1F
100
AcDbEntity
  8
付属金具
  6
CONTINUOUS
 62
     6
100
AcDbLine
 10
1083.493987399934
 20
1759.822890472556
 30
0.0
 11
1082.930779659851
 21
1758.089467364166
 31
0.0
  0
LINE
  5
480
330
1F
100
AcDbEntity
  8
付属金具
  6
CONTINUOUS
 62
     6
100
AcDbLine
 10
1083.493987399934
 20
1759.822890472556
 30
0.0
 11
1084.257433564896
 21
1759.574832941527
 31
0.0
  0
LINE
  5
481
330
1F
100
AcDbEntity
  8
付属金具
  6
CONTINUOUS
 62
     6
100
AcDbLine
 10
1085.233651470326
 20
1762.579287574083
 30
0.0
 11
1084.257433564896
 21
1759.574832941527
 31
0.0
  0
LINE
  5
482
330
1F
100
AcDbEntity
  8
付属金具
  6
CONTINUOUS
 62
     6
100
AcDbLine
 10
1061.667885015
 20
1764.084563445973
 30
0.0
 11
1061.936385892223
 21
1764.910984276693
 31
0.0
  0
LINE
  5
483
330
1F
100
AcDbEntity
  8
付属金具
  6
CONTINUOUS
 62
     6
100
AcDbLine
 10
1082.325207740417
 20
1757.037529712165
 30
0.0
 11
1061.807993158245
 21
1763.704004022338
 31
0.0
  0
LINE
  5
484
330
1F
100
AcDbEntity
  8
付属金具
  6
CONTINUOUS
 62
     6
100
AcDbLine
 10
1061.667885015
 20
1764.084563445973
 30
0.0
 11
1061.614155997444
 21
1763.919254176362
 31
0.0
  0
LINE
  5
485
330
1F
100
AcDbEntity
  8
付属金具
  6
CONTINUOUS
 62
     6
100
AcDbLine
 10
1061.807993158245
 20
1763.704004022338
 30
0.0
 11
1061.614155997444
 21
1763.919254176362
 31
0.0
  0
LINE
  5
486
330
1F
100
AcDbEntity
  8
付属金具
  6
CONTINUOUS
 62
     6
100
AcDbLine
 10
1082.662246833461
 20
1757.26304140171
 30
0.0
 11
1082.608549905145
 21
1757.097733252679
 31
0.0
  0
LINE
  5
487
330
1F
100
AcDbEntity
  8
付属金具
  6
CONTINUOUS
 62
     6
100
AcDbLine
 10
1082.608549905145
 20
1757.097733252679
 30
0.0
 11
1082.325207740417
 21
1757.037529712165
 31
0.0
  0
LINE
  5
488
330
1F
100
AcDbEntity
  8
付属金具
  6
CONTINUOUS
 62
     6
100
AcDbLine
 10
1082.930779659851
 20
1758.089467364166
 30
0.0
 11
1082.662246833461
 21
1757.26304140171
 31
0.0
  0
LINE
  5
489
330
1F
100
AcDbEntity
  8
付属金具
  6
CONTINUOUS
 62
     6
100
AcDbLine
 10
1080.893798541009
 20
1757.502662001554
 30
0.0
 11
1080.8317667161
 21
1757.311753666685
 31
0.0
  0
ARC
  5
48A
330
1F
100
AcDbEntity
  8
付属金具
  6
CONTINUOUS
 62
     6
100
AcDbCircle
 10
1080.640922699785
 20
1757.373783721601
 30
0.0
 40
0.2006759864
100
AcDbArc
 50
252.000149999999
 51
341.9997630000425
  0
LINE
  5
48B
330
1F
100
AcDbEntity
  8
付属金具
  6
CONTINUOUS
 62
     6
100
AcDbLine
 10
1063.306254733919
 20
1762.795148004328
 30
0.0
 11
1080.578892784942
 21
1757.182935694131
 31
0.0
  0
LINE
  5
48C
330
1F
100
AcDbEntity
  8
付属金具
  6
CONTINUOUS
 62
     6
100
AcDbLine
 10
1063.177404532051
 20
1763.04802482606
 30
0.0
 11
1063.239438458049
 21
1763.238872993603
 31
0.0
  0
ARC
  5
48D
330
1F
100
AcDbEntity
  8
付属金具
  6
CONTINUOUS
 62
     6
100
AcDbCircle
 10
1063.368252559522
 20
1762.985994911217
 30
0.0
 40
0.2006759864
100
AcDbArc
 50
161.9997599999671
 51
251.9997609999571
  0
LINE
  5
48E
330
1F
100
AcDbEntity
  8
付属金具
  6
CONTINUOUS
 62
     6
100
AcDbLine
 10
1082.930779659851
 20
1758.089467364166
 30
0.0
 11
1061.936385892223
 21
1764.910984276693
 31
0.0
  0
LINE
  5
48F
330
1F
100
AcDbEntity
  8
付属金具
  6
CONTINUOUS
 62
     6
100
AcDbLine
 10
1162.0261785981
 20
1784.8161752584
 30
0.0
 11
1054.246052722541
 21
1780.7008463063
 31
0.0
  0
LINE
  5
490
330
1F
100
AcDbEntity
  8
付属金具
  6
CONTINUOUS
 62
     6
100
AcDbLine
 10
1085.6123562084
 20
1762.2836664559
 30
0.0
 11
1136.069706613269
 21
1757.208096792294
 31
0.0
  0
ARC
  5
491
330
1F
100
AcDbEntity
  8
付属金具
  6
CONTINUOUS
 62
     6
100
AcDbCircle
 10
1135.423479104078
 20
1751.729893218906
 30
0.0
 40
5.516187486400002
100
AcDbArc
 50
1.7087659999982
 51
85.23129400000019
  0
LINE
  5
492
330
1F
100
AcDbEntity
  8
付属金具
  6
CONTINUOUS
 62
     6
100
AcDbLine
 10
1162.026178598092
 20
1784.816175258432
 30
0.0
 11
1183.608246334946
 21
1785.569837671026
 31
0.0
  0
ARC
  5
493
330
1F
100
AcDbEntity
  8
付属金具
  6
CONTINUOUS
 62
     6
100
AcDbCircle
 10
1183.624823599443
 20
1785.087651632107
 30
0.0
 40
0.4824387336
100
AcDbArc
 50
359.7118640000007
 51
91.96853800000575
  0
POLYLINE
  5
494
330
1F
100
AcDbEntity
  8
付属金具
  6
CONTINUOUS
 62
     6
100
AcDb2dPolyline
 66
     1
 10
0.0
 20
0.0
 30
0.0
 70
   128
  0
VERTEX
  5
495
330
494
100
AcDbEntity
  8
付属金具
  6
CONTINUOUS
 62
     6
100
AcDbVertex
100
AcDb2dVertex
 10
1140.753830895324
 20
1754.530543711877
 30
0.0
  0
VERTEX
  5
496
330
494
100
AcDbEntity
  8
付属金具
  6
CONTINUOUS
 62
     6
100
AcDbVertex
100
AcDb2dVertex
 10
1140.79016851597
 20
1754.574463063031
 30
0.0
  0
VERTEX
  5
497
330
494
100
AcDbEntity
  8
付属金具
  6
CONTINUOUS
 62
     6
100
AcDbVertex
100
AcDb2dVertex
 10
1145.22255697223
 20
1760.116920407807
 30
0.0
  0
VERTEX
  5
498
330
494
100
AcDbEntity
  8
付属金具
  6
CONTINUOUS
 62
     6
100
AcDbVertex
100
AcDb2dVertex
 10
1149.762065503592
 20
1766.40080997937
 30
0.0
  0
VERTEX
  5
499
330
494
100
AcDbEntity
  8
付属金具
  6
CONTINUOUS
 62
     6
100
AcDbVertex
100
AcDb2dVertex
 10
1155.529079519313
 20
1775.327248250205
 30
0.0
  0
VERTEX
  5
49A
330
494
100
AcDbEntity
  8
付属金具
  6
CONTINUOUS
 62
     6
100
AcDbVertex
100
AcDb2dVertex
 10
1157.829988585824
 20
1779.081697955903
 30
0.0
  0
VERTEX
  5
49B
330
494
100
AcDbEntity
  8
付属金具
  6
CONTINUOUS
 62
     6
100
AcDbVertex
100
AcDb2dVertex
 10
1159.85941505183
 20
1782.170670186183
 30
0.0
  0
VERTEX
  5
49C
330
494
100
AcDbEntity
  8
付属金具
  6
CONTINUOUS
 62
     6
100
AcDbVertex
100
AcDb2dVertex
 10
1160.76668976198
 20
1783.354480343701
 30
0.0
  0
VERTEX
  5
49D
330
494
100
AcDbEntity
  8
付属金具
  6
CONTINUOUS
 62
     6
100
AcDbVertex
100
AcDb2dVertex
 10
1161.769996203795
 20
1784.204661560184
 30
0.0
  0
SEQEND
  5
49E
330
494
100
AcDbEntity
  8
付属金具
  6
CONTINUOUS
 62
     6
  0
LINE
  5
49F
330
1F
100
AcDbEntity
  8
付属金具
  6
CONTINUOUS
 62
     6
100
AcDbLine
 10
1142.339846557014
 20
1705.515656007781
 30
0.0
 11
1140.936987807911
 21
1751.902083894041
 31
0.0
  0
LINE
  5
4A0
330
1F
100
AcDbEntity
  8
付属金具
  6
CONTINUOUS
 62
     6
100
AcDbLine
 10
1142.983815722029
 20
1687.53101483806
 30
0.0
 11
1142.36080296411
 21
1705.371765972319
 31
0.0
  0
LINE
  5
4A1
330
1F
100
AcDbEntity
  8
付属金具
  6
CONTINUOUS
 62
     6
100
AcDbLine
 10
1143.356747984818
 20
1691.985307402615
 30
0.0
 11
1143.059093667392
 21
1700.509011827178
 31
0.0
  0
ARC
  5
4A2
330
1F
100
AcDbEntity
  8
付属金具
  6
CONTINUOUS
 62
     6
100
AcDbCircle
 10
1120.778224119436
 20
1699.862697138014
 30
0.0
 40
22.2902460344
100
AcDbArc
 50
1.661636999999598
 51
14.21368499999953
  0
ARC
  5
4A3
330
1F
100
AcDbEntity
  8
付属金具
  6
CONTINUOUS
 62
     6
100
AcDbCircle
 10
1120.778224119436
 20
1699.862697138014
 30
0.0
 40
22.290250048
100
AcDbArc
 50
14.21368499999959
 51
14.6909919999999
  0
ARC
  5
4A4
330
1F
100
AcDbEntity
  8
付属金具
  6
CONTINUOUS
 62
     6
100
AcDbCircle
 10
1120.880476995991
 20
1691.598922983207
 30
0.0
 40
22.4801455048
100
AcDbArc
 50
348.3543660000003
 51
0.9874700000003205
  0
ARC
  5
4A5
330
1F
100
AcDbEntity
  8
付属金具
  6
CONTINUOUS
 62
     6
100
AcDbCircle
 10
1143.09780943618
 20
1687.067367135658
 30
0.0
 40
0.2001221096
100
AcDbArc
 50
156.7881740000505
 51
181.795458999946
  0
LINE
  5
4A6
330
1F
100
AcDbEntity
  8
付属金具
  6
CONTINUOUS
 62
     6
100
AcDbLine
 10
1143.210406265204
 20
1676.729871017796
 30
0.0
 11
1142.897948059629
 21
1687.0611227591
 31
0.0
  0
LINE
  5
4A7
330
1F
100
AcDbEntity
  8
付属金具
  6
CONTINUOUS
 62
     6
100
AcDbLine
 10
1142.444516571647
 20
1672.20038261193
 30
0.0
 11
1142.521323250662
 21
1670.000927097811
 31
0.0
  0
LINE
  5
4A8
330
1F
100
AcDbEntity
  8
付属金具
  6
CONTINUOUS
 62
     6
100
AcDbLine
 10
1184.106512598506
 20
1785.107536826064
 30
0.0
 11
1187.520690256859
 21
1698.891304348498
 31
0.0
  0
LINE
  5
4A9
330
1F
100
AcDbEntity
  8
付属金具
  6
CONTINUOUS
 62
     2
100
AcDbLine
 10
1183.499999999991
 20
1678.136814634448
 30
0.0
 11
1141.787773422976
 21
1676.680191585164
 31
0.0
  0
LINE
  5
4AA
330
1F
100
AcDbEntity
  8
付属金具
  6
CONTINUOUS
 62
     2
100
AcDbLine
 10
1173.93406104419
 20
1673.300021735855
 30
0.0
 11
1141.944821158137
 21
1672.182932863578
 31
0.0
  0
LINE
  5
4AB
330
1F
100
AcDbEntity
  8
付属金具
  6
CONTINUOUS
 62
     2
100
AcDbLine
 10
1189.758533119892
 20
1678.355367426884
 30
0.0
 11
1188.499999999988
 21
1678.311418481906
 31
0.0
  0
LINE
  5
4AC
330
1F
100
AcDbEntity
  8
付属金具
  6
CONTINUOUS
 62
     2
100
AcDbLine
 10
1189.758533119892
 20
1678.355367426884
 30
0.0
 11
1189.882362250748
 21
1674.809365071922
 31
0.0
  0
LINE
  5
4AD
330
1F
100
AcDbEntity
  8
付属金具
  6
CONTINUOUS
 62
     6
100
AcDbLine
 10
2412.594841671199
 20
1785.5698285663
 30
0.0
 11
2410.9166712256
 21
1785.5698285663
 31
0.0
  0
LINE
  5
4AE
330
1F
100
AcDbEntity
  8
付属金具
  6
CONTINUOUS
 62
     6
100
AcDbLine
 10
2410.9166712256
 20
1785.5698285663
 30
0.0
 11
2408.901173754399
 21
1785.5698285663
 31
0.0
  0
LINE
  5
4AF
330
1F
100
AcDbEntity
  8
付属金具
  6
CONTINUOUS
 62
     6
100
AcDbLine
 10
2408.901173754399
 20
1785.5698285663
 30
0.0
 11
2406.212069781599
 21
1785.5698285663
 31
0.0
  0
LINE
  5
4B0
330
1F
100
AcDbEntity
  8
付属金具
  6
CONTINUOUS
 62
     6
100
AcDbLine
 10
2406.212069781599
 20
1785.5698285663
 30
0.0
 11
2402.942386528
 21
1785.5698285663
 31
0.0
  0
LINE
  5
4B1
330
1F
100
AcDbEntity
  8
付属金具
  6
CONTINUOUS
 62
     6
100
AcDbLine
 10
2402.942386528
 20
1785.5698285663
 30
0.0
 11
2399.221771300799
 21
1785.5698285663
 31
0.0
  0
LINE
  5
4B2
330
1F
100
AcDbEntity
  8
付属金具
  6
CONTINUOUS
 62
     6
100
AcDbLine
 10
2399.221771300799
 20
1785.5698285663
 30
0.0
 11
2395.1894277888
 21
1785.5698285663
 31
0.0
  0
LINE
  5
4B3
330
1F
100
AcDbEntity
  8
付属金具
  6
CONTINUOUS
 62
     6
100
AcDbLine
 10
2395.1894277888
 20
1785.5698285663
 30
0.0
 11
2391.0
 21
1785.5698285663
 31
0.0
  0
LINE
  5
4B4
330
1F
100
AcDbEntity
  8
付属金具
  6
CONTINUOUS
 62
     6
100
AcDbLine
 10
2391.0
 20
1785.5698285663
 30
0.0
 11
2386.8113709176
 21
1785.5698285663
 31
0.0
  0
LINE
  5
4B5
330
1F
100
AcDbEntity
  8
付属金具
  6
CONTINUOUS
 62
     6
100
AcDbLine
 10
2386.8113709176
 20
1785.5698285663
 30
0.0
 11
2382.7807452264
 21
1785.5698285663
 31
0.0
  0
LINE
  5
4B6
330
1F
100
AcDbEntity
  8
付属金具
  6
CONTINUOUS
 62
     6
100
AcDbLine
 10
2382.7807452264
 20
1785.5698285663
 30
0.0
 11
2379.061723398399
 21
1785.5698285663
 31
0.0
  0
ARC
  5
4B7
330
1F
100
AcDbEntity
  8
付属金具
  6
CONTINUOUS
 62
     6
100
AcDbCircle
 10
2412.5951507184
 20
1785.0884614639
 30
0.0
 40
0.4813430208
100
AcDbArc
 50
359.9656079999983
 51
90.03440100003822
  0
LINE
  5
4B8
330
1F
100
AcDbEntity
  8
付属金具
  6
CONTINUOUS
 62
     6
100
AcDbLine
 10
2413.079395572
 20
1785.0687386335
 30
0.0
 11
2413.0771921056
 21
1785.0882166343
 31
0.0
  0
LINE
  5
4B9
330
1F
100
AcDbEntity
  8
付属金具
  6
CONTINUOUS
 62
     6
100
AcDbLine
 10
2413.080864549599
 20
1785.0683091783
 30
0.0
 11
2413.0789661168
 21
1785.0100076247
 31
0.0
  0
ARC
  5
4BA
330
1F
100
AcDbEntity
  8
付属金具
  6
CONTINUOUS
 62
     6
100
AcDbCircle
 10
2380.280697868
 20
1156.8076570447
 30
0.0
 40
628.3742410272
100
AcDbArc
 50
91.03271500000001
 51
91.03552199999999
  0
LINE
  5
4BB
330
1F
100
AcDbEntity
  8
付属金具
  6
CONTINUOUS
 62
     6
100
AcDbLine
 10
2379.061723398399
 20
1785.5698285663
 30
0.0
 11
2375.793324496799
 21
1785.5698285663
 31
0.0
  0
LINE
  5
4BC
330
1F
100
AcDbEntity
  8
付属金具
  6
CONTINUOUS
 62
     6
100
AcDbLine
 10
2375.793324496799
 20
1785.5698285663
 30
0.0
 11
2373.1035462392
 21
1785.5698285663
 31
0.0
  0
LINE
  5
4BD
330
1F
100
AcDbEntity
  8
付属金具
  6
CONTINUOUS
 62
     6
100
AcDbLine
 10
2373.1035462392
 20
1785.5698285663
 30
0.0
 11
2371.090376656
 21
1785.5698285663
 31
0.0
  0
LINE
  5
4BE
330
1F
100
AcDbEntity
  8
付属金具
  6
CONTINUOUS
 62
     6
100
AcDbLine
 10
2371.090376656
 20
1785.5698285663
 30
0.0
 11
2369.838269918399
 21
1785.5698285663
 31
0.0
  0
LINE
  5
4BF
330
1F
100
AcDbEntity
  8
付属金具
  6
CONTINUOUS
 62
     6
100
AcDbLine
 10
2369.838269918399
 20
1785.5698285663
 30
0.0
 11
2369.408529752799
 21
1785.5696439407
 31
0.0
  0
ARC
  5
4C0
330
1F
100
AcDbEntity
  8
付属金具
  6
CONTINUOUS
 62
     6
100
AcDbCircle
 10
2369.4047930912
 20
1785.0893163607
 30
0.0
 40
0.4803034984
100
AcDbArc
 50
89.82380599999439
 51
169.1774940000228
  0
LINE
  5
4C1
330
1F
100
AcDbEntity
  8
付属金具
  6
CONTINUOUS
 62
     6
100
AcDbLine
 10
2368.926917820799
 20
1785.0882166343
 30
0.0
 11
2368.924465511199
 21
1785.0687386335
 31
0.0
  0
ARC
  5
4C2
330
1F
100
AcDbEntity
  8
付属金具
  6
CONTINUOUS
 62
     6
100
AcDbCircle
 10
2369.090311476799
 20
1785.1506200871
 30
0.0
 40
0.1596569944
100
AcDbArc
 50
169.627647000052
 51
188.5674440000288
  0
LINE
  5
4C3
330
1F
100
AcDbEntity
  8
付属金具
  6
CONTINUOUS
 62
     6
100
AcDbLine
 10
2368.924345103199
 20
1785.0116612279
 30
0.0
 11
2368.922446670399
 21
1785.0683091783
 31
0.0
  0
ARC
  5
4C4
330
1F
100
AcDbEntity
  8
付属金具
  6
CONTINUOUS
 62
     6
100
AcDbCircle
 10
2334.898741425198
 20
1780.21891405251
 30
0.0
 40
0.4822460808
100
AcDbArc
 50
92.02718200000541
 51
183.6100750000146
  0
ARC
  5
4C5
330
1F
100
AcDbEntity
  8
付属金具
  6
CONTINUOUS
 62
     6
100
AcDbCircle
 10
2356.097235653313
 20
1786.432097298481
 30
0.0
 40
22.5620670944
100
AcDbArc
 50
196.0806189999998
 51
232.7195640000002
  0
LINE
  5
4C6
330
1F
100
AcDbEntity
  8
付属金具
  6
CONTINUOUS
 62
     6
100
AcDbLine
 10
2343.993539261435
 20
1766.644348338339
 30
0.0
 11
2343.230088945245
 21
1766.892409740451
 31
0.0
  0
LINE
  5
4C7
330
1F
100
AcDbEntity
  8
付属金具
  6
CONTINUOUS
 62
     6
100
AcDbLine
 10
2343.230088945245
 20
1766.892409740451
 30
0.0
 11
2343.721361921209
 21
1768.404430234887
 31
0.0
  0
LINE
  5
4C8
330
1F
100
AcDbEntity
  8
付属金具
  6
CONTINUOUS
 62
     6
100
AcDbLine
 10
2343.430297331023
 20
1764.910984276693
 30
0.0
 11
2343.993539261435
 21
1766.644348338339
 31
0.0
  0
LINE
  5
4C9
330
1F
100
AcDbEntity
  8
付属金具
  6
CONTINUOUS
 62
     6
100
AcDbLine
 10
2364.987898838735
 20
1759.822890472556
 30
0.0
 11
2364.424691098652
 21
1758.089467364166
 31
0.0
  0
LINE
  5
4CA
330
1F
100
AcDbEntity
  8
付属金具
  6
CONTINUOUS
 62
     6
100
AcDbLine
 10
2364.987898838735
 20
1759.822890472556
 30
0.0
 11
2365.751345003697
 21
1759.574832941527
 31
0.0
  0
LINE
  5
4CB
330
1F
100
AcDbEntity
  8
付属金具
  6
CONTINUOUS
 62
     6
100
AcDbLine
 10
2366.727562909126
 20
1762.579287574083
 30
0.0
 11
2365.751345003697
 21
1759.574832941527
 31
0.0
  0
LINE
  5
4CC
330
1F
100
AcDbEntity
  8
付属金具
  6
CONTINUOUS
 62
     6
100
AcDbLine
 10
2343.1617964538
 20
1764.084563445973
 30
0.0
 11
2343.430297331023
 21
1764.910984276693
 31
0.0
  0
LINE
  5
4CD
330
1F
100
AcDbEntity
  8
付属金具
  6
CONTINUOUS
 62
     6
100
AcDbLine
 10
2363.819119179218
 20
1757.037529712165
 30
0.0
 11
2343.301904597046
 21
1763.704004022338
 31
0.0
  0
LINE
  5
4CE
330
1F
100
AcDbEntity
  8
付属金具
  6
CONTINUOUS
 62
     6
100
AcDbLine
 10
2343.1617964538
 20
1764.084563445973
 30
0.0
 11
2343.108067436244
 21
1763.919254176362
 31
0.0
  0
LINE
  5
4CF
330
1F
100
AcDbEntity
  8
付属金具
  6
CONTINUOUS
 62
     6
100
AcDbLine
 10
2343.301904597046
 20
1763.704004022338
 30
0.0
 11
2343.108067436244
 21
1763.919254176362
 31
0.0
  0
LINE
  5
4D0
330
1F
100
AcDbEntity
  8
付属金具
  6
CONTINUOUS
 62
     6
100
AcDbLine
 10
2364.156158272262
 20
1757.26304140171
 30
0.0
 11
2364.102461343945
 21
1757.097733252679
 31
0.0
  0
LINE
  5
4D1
330
1F
100
AcDbEntity
  8
付属金具
  6
CONTINUOUS
 62
     6
100
AcDbLine
 10
2364.102461343945
 20
1757.097733252679
 30
0.0
 11
2363.819119179218
 21
1757.037529712165
 31
0.0
  0
LINE
  5
4D2
330
1F
100
AcDbEntity
  8
付属金具
  6
CONTINUOUS
 62
     6
100
AcDbLine
 10
2364.424691098652
 20
1758.089467364166
 30
0.0
 11
2364.156158272262
 21
1757.26304140171
 31
0.0
  0
LINE
  5
4D3
330
1F
100
AcDbEntity
  8
付属金具
  6
CONTINUOUS
 62
     6
100
AcDbLine
 10
2362.387709979809
 20
1757.502662001554
 30
0.0
 11
2362.325678154901
 21
1757.311753666685
 31
0.0
  0
ARC
  5
4D4
330
1F
100
AcDbEntity
  8
付属金具
  6
CONTINUOUS
 62
     6
100
AcDbCircle
 10
2362.134834138586
 20
1757.373783721601
 30
0.0
 40
0.2006759864
100
AcDbArc
 50
252.000149999999
 51
341.9997630000425
  0
LINE
  5
4D5
330
1F
100
AcDbEntity
  8
付属金具
  6
CONTINUOUS
 62
     6
100
AcDbLine
 10
2344.800166172719
 20
1762.795148004328
 30
0.0
 11
2362.072804223742
 21
1757.182935694131
 31
0.0
  0
LINE
  5
4D6
330
1F
100
AcDbEntity
  8
付属金具
  6
CONTINUOUS
 62
     6
100
AcDbLine
 10
2344.671315970852
 20
1763.04802482606
 30
0.0
 11
2344.73334989685
 21
1763.238872993603
 31
0.0
  0
ARC
  5
4D7
330
1F
100
AcDbEntity
  8
付属金具
  6
CONTINUOUS
 62
     6
100
AcDbCircle
 10
2344.862163998322
 20
1762.985994911217
 30
0.0
 40
0.2006759864
100
AcDbArc
 50
161.9997599999671
 51
251.9997609999571
  0
LINE
  5
4D8
330
1F
100
AcDbEntity
  8
付属金具
  6
CONTINUOUS
 62
     6
100
AcDbLine
 10
2364.424691098652
 20
1758.089467364166
 30
0.0
 11
2343.430297331023
 21
1764.910984276693
 31
0.0
  0
LINE
  5
4D9
330
1F
100
AcDbEntity
  8
付属金具
  6
CONTINUOUS
 62
     6
100
AcDbLine
 10
2369.4047930912
 20
1785.5698285663
 30
0.0
 11
2334.8998649342
 21
1780.7008463063
 31
0.0
  0
ARC
  5
4DA
330
1F
100
AcDbEntity
  8
付属金具
  6
CONTINUOUS
 62
     6
100
AcDbCircle
 10
2342.802358702533
 20
1752.466547271989
 30
0.0
 40
25.97346992771782
100
AcDbArc
 50
358.7377372410678
 51
22.90985252450768
  0
ARC
  5
4DB
330
1F
100
AcDbEntity
  8
付属金具
  6
CONTINUOUS
 62
     6
100
AcDbCircle
 10
2353.954475787108
 20
1745.703153681397
 30
0.0
 40
21.1632472224
100
AcDbArc
 50
52.87730075197252
 51
79.46529600000001
  0
ARC
  5
4DC
330
1F
100
AcDbEntity
  8
付属金具
  6
CONTINUOUS
 62
     6
100
AcDbCircle
 10
2514.256590574214
 20
3049.791430815891
 30
0.0
 40
1292.781217568201
100
AcDbArc
 50
262.3621273235812
 51
263.0499002980532
  0
LINE
  5
4DD
330
1F
100
AcDbEntity
  8
付属金具
  6
CONTINUOUS
 62
     6
100
AcDbLine
 10
2368.431263887136
 20
1679.499999999978
 30
0.0
 11
2368.924529728799
 21
1785.0681285663
 31
0.0
  0
LINE
  5
4DE
330
1F
100
AcDbEntity
  8
付属金具
  6
CONTINUOUS
 62
     6
100
AcDbLine
 10
2413.0787212872
 20
1785.0904201007
 30
0.0
 11
2413.572170780288
 21
1679.499999999978
 31
0.0
  0
DIMENSION
  5
4E0
330
1F
100
AcDbEntity
  8
寸法
  6
CONTINUOUS
 62
     3
100
AcDbDimension
  2
*D15
 10
1156.00000000003
 20
1248.0
 30
0.0
 11
961.0000000015291
 21
1283.249999910593
 31
0.0
 70
   160
  1
390（壁固定）
  3
ISO-25
100
AcDbAlignedDimension
 13
766.0000000030279
 23
1445.700000000099
 33
0.0
 14
1156.00000000003
 24
1445.700000000099
 34
0.0
100
AcDbRotatedDimension
1001
ACAD
1000
DSTYLE
1002
{
1070
   270
1070
     2
1070
     6
1000
EX_NORM
1070
     7
1000
EX_NORM
1070
    41
1040
44.99999618530273
1070
    42
1040
10.49999982118607
1070
    44
1040
15.0
1070
    73
1070
     0
1070
    74
1070
     0
1070
    75
1070
     0
1070
    76
1070
     0
1070
    77
1070
     1
1070
    78
1070
     0
1070
   140
1040
59.99999618530273
1070
   147
1040
0.0
1070
   173
1070
     1
1070
   176
1070
     3
1070
   177
1070
     3
1070
   178
1070
     2
1070
   271
1070
     0
1070
   277
1070
     2
1070
   279
1070
     2
1070
   280
1070
     0
1070
   287
1070
     5
1070
   340
1005
4DF
1002
}
  0
DIMENSION
  5
4EE
330
1F
100
AcDbEntity
  8
寸法
  6
CONTINUOUS
 62
     3
100
AcDbDimension
  2
*D16
 10
1381.000000000028
 20
1669.5
 30
0.0
 11
1345.750000089435
 21
1294.499999999998
 31
0.0
 70
   160
  3
ISO-25
100
AcDbAlignedDimension
 13
1244.500000000028
 23
919.5
 33
0.0
 14
961.0000000000302
 24
1669.5
 34
0.0
 50
90.0
100
AcDbRotatedDimension
1001
ACAD
1000
DSTYLE
1002
{
1070
   270
1070
     2
1070
     6
1000
EX_NORM
1070
     7
1000
EX_NORM
1070
    41
1040
44.99999618530273
1070
    42
1040
10.49999982118607
1070
    44
1040
15.0
1070
    73
1070
     0
1070
    74
1070
     0
1070
    75
1070
     1
1070
    76
1070
     0
1070
    77
1070
     1
1070
    78
1070
     0
1070
   140
1040
59.99999618530273
1070
   147
1040
0.0
1070
   173
1070
     1
1070
   176
1070
     3
1070
   177
1070
     3
1070
   178
1070
     2
1070
   271
1070
     0
1070
   277
1070
     2
1070
   279
1070
     2
1070
   280
1070
     0
1070
   287
1070
     5
1070
   340
1005
4DF
1002
}
  0
DIMENSION
  5
4FA
330
1F
100
AcDbEntity
  8
寸法
  6
CONTINUOUS
 62
     3
100
AcDbDimension
  2
*D17
 10
1471.000000000028
 20
1704.5
 30
0.0
 11
1435.750000089435
 21
1311.999999999998
 31
0.0
 70
   160
  3
ISO-25
100
AcDbAlignedDimension
 13
1244.500000000028
 23
919.5
 33
0.0
 14
1255.814877125028
 24
1704.5
 34
0.0
 50
90.0
100
AcDbRotatedDimension
1001
ACAD
1000
DSTYLE
1002
{
1070
   270
1070
     2
1070
     6
1000
EX_NORM
1070
     7
1000
EX_NORM
1070
    41
1040
44.99999618530273
1070
    42
1040
10.49999982118607
1070
    44
1040
15.0
1070
    73
1070
     0
1070
    74
1070
     0
1070
    75
1070
     1
1070
    76
1070
     0
1070
    77
1070
     1
1070
    78
1070
     0
1070
   140
1040
59.99999618530273
1070
   147
1040
0.0
1070
   173
1070
     1
1070
   176
1070
     3
1070
   177
1070
     3
1070
   178
1070
     2
1070
   271
1070
     0
1070
   277
1070
     2
1070
   279
1070
     2
1070
   280
1070
     0
1070
   287
1070
     5
1070
   340
1005
4DF
1002
}
  0
TEXT
  5
506
330
1F
100
AcDbEntity
  8
寸法
  6
CONTINUOUS
 62
     2
100
AcDbText
 10
336.0000014305417
 20
813.7499960958958
 30
0.0
 40
59.99999618530273
  1
ＶＰ･ＶＵ４０･５０
 41
0.8542372745578565
  7
EXCADSTD
 72
     5
 11
767.9999670982663
 21
813.7499960958958
 31
0.0
100
AcDbText
  0
TEXT
  5
507
330
1F
100
AcDbEntity
  8
寸法
  6
CONTINUOUS
 62
     2
100
AcDbText
 10
336.0000014305417
 20
753.749999910593
 30
0.0
 40
59.99999618530273
  1
４０～５０㎜立上げ
 41
0.9773584771306252
  7
EXCADSTD
 72
     5
 11
779.9999670982663
 21
753.749999910593
 31
0.0
100
AcDbText
  0
LEADER
  5
508
330
1F
100
AcDbEntity
  8
寸法
  6
CONTINUOUS
 62
     3
100
AcDbLeader
  3
ISO-25
 76
     3
 10
927.5000000000193
 20
932.0999999999985
 30
0.0
 10
780.0000000000302
 20
748.5
 30
0.0
 10
342.0000000000302
 20
748.5
 30
0.0
1001
ACAD
1000
DSTYLE
1002
{
1070
     5
1000
EX_NORM
1070
    41
1040
45.0
1070
   341
1005
4D
1002
}
  0
DIMENSION
  5
509
330
1F
100
AcDbEntity
  8
寸法
  6
CONTINUOUS
 62
     3
100
AcDbDimension
  2
*D18
 10
2491.00000000003
 20
619.5
 30
0.0
 11
2701.00000000003
 21
654.749999910593
 31
0.0
 70
   160
  1
85（床排水）
  3
ISO-25
100
AcDbAlignedDimension
 13
2406.00000000003
 23
869.5
 33
0.0
 14
2491.00000000003
 24
919.4999999999991
 34
0.0
100
AcDbRotatedDimension
1001
ACAD
1000
DSTYLE
1002
{
1070
   270
1070
     2
1070
     6
1000
EX_NORM
1070
     7
1000
EX_NORM
1070
    41
1040
44.99999618530273
1070
    42
1040
10.49999982118607
1070
    44
1040
15.0
1070
    73
1070
     0
1070
    74
1070
     0
1070
    75
1070
     0
1070
    76
1070
     0
1070
    77
1070
     1
1070
    78
1070
     0
1070
   140
1040
59.99999618530273
1070
   147
1040
0.0
1070
   173
1070
     1
1070
   176
1070
     3
1070
   177
1070
     3
1070
   178
1070
     2
1070
   271
1070
     0
1070
   277
1070
     2
1070
   279
1070
     2
1070
   280
1070
     2
1070
   287
1070
     5
1070
   340
1005
4DF
1002
}
  0
DIMENSION
  5
518
330
1F
100
AcDbEntity
  8
寸法
  6
CONTINUOUS
 62
     3
100
AcDbDimension
  2
*D19
 10
2491.00000000003
 20
709.5
 30
0.0
 11
2701.00000000003
 21
744.749999910593
 31
0.0
 70
   160
  1
85（床給水）
  3
ISO-25
100
AcDbAlignedDimension
 13
2406.00000000003
 23
869.5
 33
0.0
 14
2491.00000000003
 24
919.4999999999991
 34
0.0
100
AcDbRotatedDimension
1001
ACAD
1000
DSTYLE
1002
{
1070
   270
1070
     2
1070
     6
1000
EX_NORM
1070
     7
1000
EX_NORM
1070
    41
1040
44.99999618530273
1070
    42
1040
0.0
1070
    44
1040
0.0
1070
    73
1070
     0
1070
    74
1070
     0
1070
    75
1070
     1
1070
    76
1070
     1
1070
    77
1070
     1
1070
    78
1070
     0
1070
   140
1040
59.99999618530273
1070
   147
1040
0.0
1070
   173
1070
     1
1070
   176
1070
     3
1070
   177
1070
     3
1070
   178
1070
     2
1070
   271
1070
     0
1070
   277
1070
     2
1070
   279
1070
     2
1070
   280
1070
     2
1070
   287
1070
     5
1070
   340
1005
4DF
1002
}
  0
TEXT
  5
525
330
1F
100
AcDbEntity
  8
寸法
  6
CONTINUOUS
 62
     2
100
AcDbText
 10
2529.00000000003
 20
804.749999910593
 30
0.0
 40
59.99999618530273
  1
Ｒ１/２
 41
0.8342465643686785
  7
EXCADSTD
 72
     5
 11
2702.99998664859
 21
804.749999910593
 31
0.0
100
AcDbText
  0
LEADER
  5
526
330
1F
100
AcDbEntity
  8
寸法
  6
CONTINUOUS
 62
     3
100
AcDbLeader
  3
ISO-25
 76
     3
 10
2416.50000000003
 20
911.5
 30
0.0
 10
2529.00000000003
 20
799.5
 30
0.0
 10
2688.300000000029
 20
799.5
 30
0.0
1001
ACAD
1000
DSTYLE
1002
{
1070
     5
1000
EX_NORM
1070
    41
1040
45.0
1070
   341
1005
4D
1002
}
  0
TEXT
  5
527
330
1F
100
AcDbEntity
  8
寸法
  6
CONTINUOUS
 62
     2
100
AcDbText
 10
2150.100000357658
 20
804.749999910593
 30
0.0
 40
59.99999618530273
  1
φ３２
 41
1.070588224822399
  7
EXCADSTD
 72
     5
 11
2306.099988913566
 21
804.749999910593
 31
0.0
100
AcDbText
  0
LEADER
  5
528
330
1F
100
AcDbEntity
  8
寸法
  6
CONTINUOUS
 62
     3
100
AcDbLeader
  3
ISO-25
 76
     3
 10
2390.00000000003
 20
880.5
 30
0.0
 10
2306.10000000003
 20
799.5
 30
0.0
 10
2144.25000000003
 20
799.5
 30
0.0
1001
ACAD
1000
DSTYLE
1002
{
1070
     5
1000
EX_NORM
1070
    41
1040
45.0
1070
   341
1005
4D
1002
}
  0
DIMENSION
  5
529
330
1F
100
AcDbEntity
  8
寸法
  6
CONTINUOUS
 62
     3
100
AcDbDimension
  2
*D20
 10
2611.00000000003
 20
1269.5
 30
0.0
 11
2575.750000089437
 21
1106.499999999998
 31
0.0
 70
   160
  1
350（壁給水）
 53
89.99999999999973
  3
ISO-25
100
AcDbAlignedDimension
 13
2491.00000000003
 23
919.5
 33
0.0
 14
2499.00000000003
 24
1269.5
 34
0.0
 50
90.0
100
AcDbRotatedDimension
1001
ACAD
1000
DSTYLE
1002
{
1070
   270
1070
     2
1070
     6
1000
EX_NORM
1070
     7
1000
EX_NORM
1070
    41
1040
44.99999618530273
1070
    42
1040
10.49999982118607
1070
    44
1040
15.0
1070
    73
1070
     0
1070
    74
1070
     0
1070
    75
1070
     1
1070
    76
1070
     0
1070
    77
1070
     1
1070
    78
1070
     0
1070
   140
1040
59.99999618530273
1070
   147
1040
0.0
1070
   173
1070
     1
1070
   176
1070
     3
1070
   177
1070
     3
1070
   178
1070
     2
1070
   271
1070
     0
1070
   277
1070
     2
1070
   279
1070
     2
1070
   280
1070
     0
1070
   287
1070
     5
1070
   340
1005
4DF
1002
}
  0
DIMENSION
  5
535
330
1F
100
AcDbEntity
  8
寸法
  6
CONTINUOUS
 62
     3
100
AcDbDimension
  2
*D21
 10
2701.00000000003
 20
1389.5
 30
0.0
 11
2665.750000089436
 21
1154.499999999998
 31
0.0
 70
   160
  1
470（壁排水）
  3
ISO-25
100
AcDbAlignedDimension
 13
2491.00000000003
 23
919.5
 33
0.0
 14
2541.00000000003
 24
1389.5
 34
0.0
 50
90.0
100
AcDbRotatedDimension
1001
ACAD
1000
DSTYLE
1002
{
1070
   270
1070
     2
1070
     6
1000
EX_NORM
1070
     7
1000
EX_NORM
1070
    41
1040
44.99999618530273
1070
    42
1040
10.49999982118607
1070
    44
1040
15.0
1070
    73
1070
     0
1070
    74
1070
     0
1070
    75
1070
     1
1070
    76
1070
     0
1070
    77
1070
     1
1070
    78
1070
     0
1070
   140
1040
59.99999618530273
1070
   147
1040
0.0
1070
   173
1070
     1
1070
   176
1070
     3
1070
   177
1070
     3
1070
   178
1070
     2
1070
   271
1070
     0
1070
   277
1070
     2
1070
   279
1070
     2
1070
   280
1070
     0
1070
   287
1070
     5
1070
   340
1005
4DF
1002
}
  0
DIMENSION
  5
541
330
1F
100
AcDbEntity
  8
寸法
  6
CONTINUOUS
 62
     3
100
AcDbDimension
  2
*D22
 10
2791.00000000003
 20
1449.5
 30
0.0
 11
2755.750000089436
 21
1184.499999999998
 31
0.0
 70
   160
  1
530（壁固定）
  3
ISO-25
100
AcDbAlignedDimension
 13
2491.00000000003
 23
919.5
 33
0.0
 14
2523.50000572203
 24
1449.5
 34
0.0
 50
90.0
100
AcDbRotatedDimension
1001
ACAD
1000
DSTYLE
1002
{
1070
   270
1070
     2
1070
     6
1000
EX_NORM
1070
     7
1000
EX_NORM
1070
    41
1040
44.99999618530273
1070
    42
1040
10.49999982118607
1070
    44
1040
15.0
1070
    73
1070
     0
1070
    74
1070
     0
1070
    75
1070
     0
1070
    76
1070
     0
1070
    77
1070
     1
1070
    78
1070
     0
1070
   140
1040
59.99999618530273
1070
   147
1040
0.0
1070
   173
1070
     1
1070
   176
1070
     3
1070
   177
1070
     3
1070
   178
1070
     2
1070
   271
1070
     0
1070
   277
1070
     2
1070
   279
1070
     2
1070
   280
1070
     0
1070
   287
1070
     5
1070
   340
1005
4DF
1002
}
  0
DIMENSION
  5
54E
330
1F
100
AcDbEntity
  8
寸法
  6
CONTINUOUS
 62
     3
100
AcDbDimension
  2
*D23
 10
996.0000000001303
 20
3915.0
 30
0.0
 11
751.0000000001304
 21
3950.249999910593
 31
0.0
 70
   160
  1
35（壁排水）
  3
ISO-25
100
AcDbAlignedDimension
 13
961.0000000001302
 23
3825.0
 33
0.0
 14
996.0000000001303
 24
3875.0
 34
0.0
100
AcDbRotatedDimension
1001
ACAD
1000
DSTYLE
1002
{
1070
   270
1070
     2
1070
     6
1000
EX_NORM
1070
     7
1000
EX_NORM
1070
    41
1040
44.99999618530273
1070
    42
1040
10.49999982118607
1070
    44
1040
15.0
1070
    73
1070
     0
1070
    74
1070
     0
1070
    75
1070
     1
1070
    76
1070
     0
1070
    77
1070
     1
1070
    78
1070
     0
1070
   140
1040
59.99999618530273
1070
   147
1040
0.0
1070
   173
1070
     1
1070
   176
1070
     3
1070
   177
1070
     3
1070
   178
1070
     2
1070
   271
1070
     0
1070
   277
1070
     2
1070
   279
1070
     2
1070
   280
1070
     1
1070
   287
1070
     5
1070
   340
1005
4DF
1002
}
  0
DIMENSION
  5
55C
330
1F
100
AcDbEntity
  8
寸法
  6
CONTINUOUS
 62
     3
100
AcDbDimension
  2
*D24
 10
1261.000000000128
 20
3334.999999999949
 30
0.0
 11
961.0000000001296
 21
3370.249999910542
 31
0.0
 70
   160
  3
ISO-25
100
AcDbAlignedDimension
 13
661.0000000001303
 23
3530.0
 33
0.0
 14
1261.000000000128
 24
3530.0
 34
0.0
100
AcDbRotatedDimension
1001
ACAD
1000
DSTYLE
1002
{
1070
   270
1070
     2
1070
     6
1000
EX_NORM
1070
     7
1000
EX_NORM
1070
    41
1040
44.99999618530273
1070
    42
1040
10.49999982118607
1070
    44
1040
15.0
1070
    73
1070
     0
1070
    74
1070
     0
1070
    75
1070
     0
1070
    76
1070
     0
1070
    77
1070
     1
1070
    78
1070
     0
1070
   140
1040
59.99999618530273
1070
   147
1040
0.0
1070
   173
1070
     1
1070
   176
1070
     3
1070
   177
1070
     3
1070
   178
1070
     2
1070
   271
1070
     0
1070
   277
1070
     2
1070
   279
1070
     2
1070
   280
1070
     0
1070
   287
1070
     5
1070
   340
1005
4DF
1002
}
  0
DIMENSION
  5
569
330
1F
100
AcDbEntity
  8
寸法
  6
CONTINUOUS
 62
     3
100
AcDbDimension
  2
*D25
 10
1381.000000000179
 20
3825.0
 30
0.0
 11
1345.750000089586
 21
3674.999999999998
 31
0.0
 70
   160
  3
ISO-25
100
AcDbAlignedDimension
 13
1256.000000000128
 23
3525.0
 33
0.0
 14
1261.000000000128
 24
3825.0
 34
0.0
 50
90.0
100
AcDbRotatedDimension
1001
ACAD
1000
DSTYLE
1002
{
1070
   270
1070
     2
1070
     6
1000
EX_NORM
1070
     7
1000
EX_NORM
1070
    41
1040
44.99999618530273
1070
    42
1040
10.49999982118607
1070
    44
1040
15.0
1070
    73
1070
     0
1070
    74
1070
     0
1070
    75
1070
     0
1070
    76
1070
     1
1070
    77
1070
     1
1070
    78
1070
     0
1070
   140
1040
59.99999618530273
1070
   147
1040
0.0
1070
   173
1070
     1
1070
   176
1070
     3
1070
   177
1070
     3
1070
   178
1070
     2
1070
   271
1070
     0
1070
   277
1070
     2
1070
   279
1070
     2
1070
   280
1070
     0
1070
   287
1070
     5
1070
   340
1005
4DF
1002
}
  0
DIMENSION
  5
575
330
1F
100
AcDbEntity
  8
寸法
  6
CONTINUOUS
 62
     3
100
AcDbDimension
  2
*D26
 10
1471.000000000179
 20
3825.0
 30
0.0
 11
1435.750000089586
 21
3639.999999999998
 31
0.0
 70
   160
  3
ISO-25
100
AcDbAlignedDimension
 13
961.0000000001302
 23
3455.0
 33
0.0
 14
1261.000000000128
 24
3825.0
 34
0.0
 50
90.0
100
AcDbRotatedDimension
1001
ACAD
1000
DSTYLE
1002
{
1070
   270
1070
     2
1070
     6
1000
EX_NORM
1070
     7
1000
EX_NORM
1070
    41
1040
44.99999618530273
1070
    42
1040
10.49999982118607
1070
    44
1040
15.0
1070
    73
1070
     0
1070
    74
1070
     0
1070
    75
1070
     0
1070
    76
1070
     1
1070
    77
1070
     1
1070
    78
1070
     0
1070
   140
1040
59.99999618530273
1070
   147
1040
0.0
1070
   173
1070
     1
1070
   176
1070
     3
1070
   177
1070
     3
1070
   178
1070
     2
1070
   271
1070
     0
1070
   277
1070
     2
1070
   279
1070
     2
1070
   280
1070
     0
1070
   287
1070
     5
1070
   340
1005
4DF
1002
}
  0
DIMENSION
  5
581
330
1F
100
AcDbEntity
  8
寸法
  6
CONTINUOUS
 62
     3
100
AcDbDimension
  2
*D27
 10
1185.99999999997
 20
2848.499999999999
 30
0.0
 11
960.9999999999704
 21
2883.749999910592
 31
0.0
 70
   160
  3
ISO-25
100
AcDbAlignedDimension
 13
735.9999999999702
 23
2668.299999999999
 33
0.0
 14
1185.99999999997
 24
2668.299999999999
 34
0.0
100
AcDbRotatedDimension
1001
ACAD
1000
DSTYLE
1002
{
1070
   270
1070
     2
1070
     6
1000
EX_NORM
1070
     7
1000
EX_NORM
1070
    41
1040
44.99999618530273
1070
    42
1040
10.49999982118607
1070
    44
1040
15.0
1070
    73
1070
     0
1070
    74
1070
     0
1070
    75
1070
     0
1070
    76
1070
     0
1070
    77
1070
     1
1070
    78
1070
     8
1070
   140
1040
59.99999618530273
1070
   147
1040
0.0
1070
   173
1070
     1
1070
   176
1070
     3
1070
   177
1070
     3
1070
   178
1070
     2
1070
   271
1070
     2
1070
   277
1070
     2
1070
   279
1070
     2
1070
   280
1070
     0
1070
   287
1070
     5
1070
   340
1005
4DF
1002
}
  0
DIMENSION
  5
58E
330
1F
100
AcDbEntity
  8
寸法
  6
CONTINUOUS
 62
     3
100
AcDbDimension
  2
*D28
 10
1110.99999999997
 20
2732.499999999999
 30
0.0
 11
960.9999999999704
 21
2767.749999910592
 31
0.0
 70
   160
  1
<>（壁固定）
  3
ISO-25
100
AcDbAlignedDimension
 13
810.9999999999702
 23
2621.299999999999
 33
0.0
 14
1110.99999999997
 24
2621.299999999999
 34
0.0
100
AcDbRotatedDimension
1001
ACAD
1000
DSTYLE
1002
{
1070
   270
1070
     2
1070
     6
1000
EX_NORM
1070
     7
1000
EX_NORM
1070
    41
1040
44.99999618530273
1070
    42
1040
10.49999982118607
1070
    44
1040
15.0
1070
    73
1070
     0
1070
    74
1070
     0
1070
    75
1070
     0
1070
    76
1070
     0
1070
    77
1070
     1
1070
    78
1070
     8
1070
   140
1040
59.99999618530273
1070
   147
1040
0.0
1070
   173
1070
     1
1070
   176
1070
     3
1070
   177
1070
     3
1070
   178
1070
     2
1070
   271
1070
     2
1070
   277
1070
     2
1070
   279
1070
     2
1070
   280
1070
     0
1070
   287
1070
     5
1070
   340
1005
4DF
1002
}
  0
DIMENSION
  5
59B
330
1F
100
AcDbEntity
  8
寸法
  6
CONTINUOUS
 62
     3
100
AcDbDimension
  2
*D29
 10
1471.000000000068
 20
2669.5
 30
0.0
 11
1435.750000089476
 21
2418.299999999998
 31
0.0
 70
   160
  1
503
  3
ISO-25
100
AcDbAlignedDimension
 13
1184.49999999997
 23
2167.099999999999
 33
0.0
 14
1184.49999999997
 24
2669.5
 34
0.0
 50
90.0
100
AcDbRotatedDimension
1001
ACAD
1000
DSTYLE
1002
{
1070
   270
1070
     2
1070
     6
1000
EX_NORM
1070
     7
1000
EX_NORM
1070
    41
1040
44.99999618530273
1070
    42
1040
10.49999982118607
1070
    44
1040
15.0
1070
    73
1070
     0
1070
    74
1070
     0
1070
    75
1070
     0
1070
    76
1070
     1
1070
    77
1070
     1
1070
    78
1070
     8
1070
   140
1040
59.99999618530273
1070
   147
1040
0.0
1070
   173
1070
     1
1070
   176
1070
     3
1070
   177
1070
     3
1070
   178
1070
     2
1070
   271
1070
     2
1070
   277
1070
     2
1070
   279
1070
     2
1070
   280
1070
     0
1070
   287
1070
     5
1070
   340
1005
4DF
1002
}
  0
DIMENSION
  5
5A7
330
1F
100
AcDbEntity
  8
寸法
  6
CONTINUOUS
 62
     3
100
AcDbDimension
  2
*D30
 10
1565.99999999997
 20
2669.5
 30
0.0
 11
1528.49999999997
 21
1794.499999999999
 31
0.0
 70
   160
  1
（1750）
  3
ISO-25
100
AcDbAlignedDimension
 13
1243.000000000076
 23
919.4999999999991
 33
0.0
 14
1260.999999999976
 24
2669.5
 34
0.0
 50
90.0
100
AcDbRotatedDimension
1001
ACAD
1000
DSTYLE
1002
{
1070
   270
1070
     2
1070
     6
1000
EX_NORM
1070
     7
1000
EX_NORM
1070
    41
1040
44.99999618530273
1070
    42
1040
0.0
1070
    44
1040
0.0
1070
    73
1070
     0
1070
    74
1070
     0
1070
    75
1070
     1
1070
    76
1070
     0
1070
    77
1070
     1
1070
    78
1070
     0
1070
   140
1040
59.99999618530273
1070
   147
1040
0.0
1070
   173
1070
     1
1070
   176
1070
     3
1070
   177
1070
     3
1070
   178
1070
     2
1070
   271
1070
     0
1070
   277
1070
     2
1070
   279
1070
     2
1070
   280
1070
     0
1070
   287
1070
     5
1070
   340
1005
4DF
1002
}
  0
DIMENSION
  5
5B3
330
1F
100
AcDbEntity
  8
寸法
  6
CONTINUOUS
 62
     3
100
AcDbDimension
  2
*D31
 10
2491.000000000039
 20
2734.499999999999
 30
0.0
 11
2604.550000000038
 21
2769.749999910592
 31
0.0
 70
   160
  1
122
  3
ISO-25
100
AcDbAlignedDimension
 13
2369.800000000038
 23
2669.5
 33
0.0
 14
2491.000000000039
 24
2663.299999999999
 34
0.0
100
AcDbRotatedDimension
1001
ACAD
1000
DSTYLE
1002
{
1070
   270
1070
     2
1070
     6
1000
EX_NORM
1070
     7
1000
EX_NORM
1070
    41
1040
44.99999618530273
1070
    42
1040
10.49999982118607
1070
    44
1040
15.0
1070
    73
1070
     0
1070
    74
1070
     0
1070
    75
1070
     0
1070
    76
1070
     1
1070
    77
1070
     1
1070
    78
1070
     8
1070
   140
1040
59.99999618530273
1070
   147
1040
0.0
1070
   173
1070
     1
1070
   176
1070
     3
1070
   177
1070
     3
1070
   178
1070
     2
1070
   271
1070
     2
1070
   277
1070
     2
1070
   279
1070
     2
1070
   280
1070
     0
1070
   287
1070
     5
1070
   340
1005
4DF
1002
}
  0
DIMENSION
  5
5BF
330
1F
100
AcDbEntity
  8
寸法
  6
CONTINUOUS
 62
     3
100
AcDbDimension
  2
*D32
 10
2896.00000000001
 20
2669.499999999999
 30
0.0
 11
2860.750000089417
 21
2764.699999999998
 31
0.0
 70
   160
  1
56
 53
90.00000000000173
  3
ISO-25
100
AcDbAlignedDimension
 13
2524.20000000004
 23
2613.299999999999
 33
0.0
 14
2389.800000000038
 24
2669.499999999999
 34
0.0
 50
90.0
100
AcDbRotatedDimension
1001
ACAD
1000
DSTYLE
1002
{
1070
   270
1070
     2
1070
     6
1000
EX_NONE
1070
     7
1000
EX_NORM
1070
    41
1040
44.99999618530273
1070
    42
1040
10.49999982118607
1070
    44
1040
15.0
1070
    73
1070
     0
1070
    74
1070
     0
1070
    75
1070
     1
1070
    76
1070
     0
1070
    77
1070
     1
1070
    78
1070
     8
1070
   140
1040
59.99999618530273
1070
   147
1040
0.0
1070
   173
1070
     1
1070
   176
1070
     3
1070
   177
1070
     3
1070
   178
1070
     2
1070
   271
1070
     2
1070
   277
1070
     2
1070
   279
1070
     2
1070
   280
1070
     0
1070
   287
1070
     5
1070
   340
1005
4DF
1002
}
  0
DIMENSION
  5
5CD
330
1F
100
AcDbEntity
  8
寸法
  6
CONTINUOUS
 62
     3
100
AcDbDimension
  2
*D33
 10
2896.00000000001
 20
2613.299999999999
 30
0.0
 11
2860.750000089417
 21
2423.299999999999
 31
0.0
 70
   160
  1
<>（壁固定）
  3
ISO-25
100
AcDbAlignedDimension
 13
2524.20000000004
 23
2233.299999999999
 33
0.0
 14
2524.20000000004
 24
2613.299999999999
 34
0.0
 50
90.0
100
AcDbRotatedDimension
1001
ACAD
1000
DSTYLE
1002
{
1070
   270
1070
     2
1070
     6
1000
EX_NORM
1070
     7
1000
EX_NORM
1070
    41
1040
44.99999618530273
1070
    42
1040
10.49999982118607
1070
    44
1040
15.0
1070
    73
1070
     0
1070
    74
1070
     0
1070
    75
1070
     1
1070
    76
1070
     0
1070
    77
1070
     1
1070
    78
1070
     8
1070
   140
1040
59.99999618530273
1070
   147
1040
0.0
1070
   173
1070
     1
1070
   176
1070
     3
1070
   177
1070
     3
1070
   178
1070
     2
1070
   271
1070
     2
1070
   277
1070
     2
1070
   279
1070
     2
1070
   280
1070
     0
1070
   287
1070
     5
1070
   340
1005
4DF
1002
}
  0
DIMENSION
  5
5D9
330
1F
100
AcDbEntity
  8
寸法
  6
CONTINUOUS
 62
     3
100
AcDbDimension
  2
*D34
 10
2896.499999999908
 20
2233.299999999999
 30
0.0
 11
2861.250000089315
 21
1576.399999999999
 31
0.0
 70
   160
  1
（1314）
  3
ISO-25
100
AcDbAlignedDimension
 13
2501.499999821109
 23
919.4999999999991
 33
0.0
 14
2534.699999821211
 24
2233.299999999999
 34
0.0
 50
90.0
100
AcDbRotatedDimension
1001
ACAD
1000
DSTYLE
1002
{
1070
   270
1070
     2
1070
     6
1000
EX_NORM
1070
     7
1000
EX_NORM
1070
    41
1040
44.99999618530273
1070
    42
1040
10.49999982118607
1070
    44
1040
15.0
1070
    73
1070
     0
1070
    74
1070
     0
1070
    75
1070
     0
1070
    76
1070
     0
1070
    77
1070
     1
1070
    78
1070
     0
1070
   140
1040
59.99999618530273
1070
   147
1040
0.0
1070
   173
1070
     1
1070
   176
1070
     3
1070
   177
1070
     3
1070
   178
1070
     2
1070
   271
1070
     0
1070
   277
1070
     2
1070
   279
1070
     2
1070
   280
1070
     0
1070
   287
1070
     5
1070
   340
1005
4DF
1002
}
  0
DIMENSION
  5
5E6
330
1F
100
AcDbEntity
  8
寸法
  6
CONTINUOUS
 62
     3
100
AcDbDimension
  2
*D35
 10
1171.00000000017
 20
4005.0
 30
0.0
 11
1384.000000000191
 21
4040.249999910593
 31
0.0
 70
   160
  1
210（壁給水）
  3
ISO-25
100
AcDbAlignedDimension
 13
961.00000000013
 23
3835.4999998212
 33
0.0
 14
1171.00000000017
 24
3843.4999998212
 34
0.0
100
AcDbRotatedDimension
1001
ACAD
1000
DSTYLE
1002
{
1070
   270
1070
     2
1070
     6
1000
EX_NORM
1070
     7
1000
EX_NORM
1070
    41
1040
44.99999618530273
1070
    42
1040
10.49999982118561
1070
    44
1040
15.0
1070
    73
1070
     0
1070
    74
1070
     0
1070
    75
1070
     0
1070
    76
1070
     0
1070
    77
1070
     1
1070
    78
1070
     0
1070
   140
1040
59.99999618530273
1070
   147
1040
0.0
1070
   173
1070
     1
1070
   176
1070
     3
1070
   177
1070
     3
1070
   178
1070
     2
1070
   271
1070
     0
1070
   277
1070
     2
1070
   279
1070
     2
1070
   280
1070
     0
1070
   287
1070
     5
1070
   340
1005
4DF
1002
}
  0
DIMENSION
  5
5F3
330
1F
100
AcDbEntity
  8
寸法
  6
CONTINUOUS
 62
     3
100
AcDbDimension
  2
*D36
 10
1171.00000000007
 20
709.5
 30
0.0
 11
1388.50000000009
 21
744.749999910593
 31
0.0
 70
   160
  1
210（床給水）
  3
ISO-25
100
AcDbAlignedDimension
 13
961.00000000003
 23
869.49999999998
 33
0.0
 14
1171.00000000007
 24
901.00000017881
 34
0.0
100
AcDbRotatedDimension
1001
ACAD
1000
DSTYLE
1002
{
1070
   270
1070
     2
1070
     6
1000
EX_NORM
1070
     7
1000
EX_NORM
1070
    41
1040
44.99999618530273
1070
    42
1040
10.49999982118607
1070
    44
1040
15.0
1070
    73
1070
     0
1070
    74
1070
     0
1070
    75
1070
     0
1070
    76
1070
     0
1070
    77
1070
     1
1070
    78
1070
     0
1070
   140
1040
59.99999618530273
1070
   147
1040
0.0
1070
   173
1070
     1
1070
   176
1070
     3
1070
   177
1070
     3
1070
   178
1070
     2
1070
   271
1070
     0
1070
   277
1070
     2
1070
   279
1070
     2
1070
   280
1070
     0
1070
   287
1070
     5
1070
   340
1005
4DF
1002
}
  0
ENDSEC
  0
SECTION
  2
OBJECTS
  0
DICTIONARY
  5
C
330
0
100
AcDbDictionary
  3
ACAD_GROUP
350
D
  3
ACAD_LAYOUT
350
1A
  3
ACAD_MATERIAL
350
3B
  3
ACAD_MLEADERSTYLE
350
622
  3
ACAD_MLINESTYLE
350
17
  3
ACAD_PLOTSETTINGS
350
19
  3
ACAD_VISUALSTYLE
350
2A
  3
ACDBHEADERROUNDTRIPXREC
350
600
  3
ACDBVARIABLEDICTIONARY
350
620
  0
DICTIONARY
  5
D
102
{ACAD_REACTORS
330
C
102
}
330
C
100
AcDbDictionary
  0
DICTIONARY
  5
1A
102
{ACAD_REACTORS
330
C
102
}
330
C
100
AcDbDictionary
  0
DICTIONARY
  5
3B
102
{ACAD_REACTORS
330
C
102
}
330
C
100
AcDbDictionary
  3
BYBLOCK
350
3D
  3
BYLAYER
350
3C
  3
GLOBAL
350
3E
  0
DICTIONARY
  5
622
102
{ACAD_REACTORS
330
C
102
}
330
C
100
AcDbDictionary
  0
DICTIONARY
  5
17
102
{ACAD_REACTORS
330
C
102
}
330
C
100
AcDbDictionary
  3
STANDARD
350
18
  0
DICTIONARY
  5
19
102
{ACAD_REACTORS
330
C
102
}
330
C
100
AcDbDictionary
  0
DICTIONARY
  5
2A
102
{ACAD_REACTORS
330
C
102
}
330
C
100
AcDbDictionary
  3
2DWIREFRAME
350
2F
  3
3D_HIDDEN
350
31
  3
3DWIREFRAME
350
30
  3
BASIC
350
32
  3
BRIGHTEN
350
36
  3
COLORCHANGE
350
3A
  3
CONCEPTUAL
350
34
  3
DIM
350
35
  3
FACEPATTERN
350
39
  3
FLAT
350
2B
  3
FLATWITHEDGES
350
2C
  3
GOURAUD
350
2D
  3
GOURAUDWITHEDGES
350
2E
  3
LINEPATTERN
350
38
  3
REALISTIC
350
33
  3
THICKEN
350
37
  0
DICTIONARY
  5
600
102
{ACAD_REACTORS
330
C
102
}
330
C
100
AcDbDictionary
  3
CEPSNTYPE
350
609
  3
DIMSTYLEDATA
350
61F
  3
FINGERPRINTGUID
350
60A
  3
HYPERLINKBASE
350
603
  3
INSUNITS
350
608
  3
LAYOUTDICT
350
605
  3
LWETCUNION
350
607
  3
PLOTSETDICT
350
606
  3
PSVPSCALE
350
60C
  3
PUCSBASE
350
60F
  3
PUCSORGBACK
350
615
  3
PUCSORGBOTTOM
350
611
  3
PUCSORGFRONT
350
614
  3
PUCSORGLEFT
350
612
  3
PUCSORGRIGHT
350
613
  3
PUCSORGTOP
350
610
  3
PUCSORTHOREF
350
60D
  3
PUCSORTHOVIEW
350
60E
  3
STYLESHEET
350
604
  3
TSTACKALIGN
350
601
  3
TSTACKSIZE
350
602
  3
UCSBASE
350
618
  3
UCSORGBACK
350
61E
  3
UCSORGBOTTOM
350
61A
  3
UCSORGFRONT
350
61D
  3
UCSORGLEFT
350
61B
  3
UCSORGRIGHT
350
61C
  3
UCSORGTOP
350
619
  3
UCSORTHOREF
350
616
  3
UCSORTHOVIEW
350
617
  3
VERSIONGUID
350
60B
  0
DICTIONARY
  5
620
102
{ACAD_REACTORS
330
C
102
}
330
C
100
AcDbDictionary
  3
DIMASSOC
350
625
  3
HIDETEXT
350
626
  3
PSOLHEIGHT
350
624
  3
PSOLWIDTH
350
623
  0
MATERIAL
  5
3D
102
{ACAD_REACTORS
330
3B
102
}
102
{ACAD_XDICTIONARY
360
629
102
}
330
3B
100
AcDbMaterial
  1
ByBlock
  0
MATERIAL
  5
3C
102
{ACAD_REACTORS
330
3B
102
}
102
{ACAD_XDICTIONARY
360
627
102
}
330
3B
100
AcDbMaterial
  1
ByLayer
  0
MATERIAL
  5
3E
102
{ACAD_REACTORS
330
3B
102
}
102
{ACAD_XDICTIONARY
360
62B
102
}
330
3B
100
AcDbMaterial
  1
Global
  0
MLINESTYLE
  5
18
102
{ACAD_REACTORS
330
17
102
}
330
17
100
AcDbMlineStyle
  2
Standard
 70
     0
  3

 62
   256
 51
90.0
 52
90.0
 71
     2
 49
0.5
 62
   256
  6
BYLAYER
 49
-0.5
 62
   256
  6
BYLAYER
  0
ACAD_PROXY_OBJECT
  5
2F
102
{ACAD_REACTORS
330
2A
102
}
330
2A
100
AcDbProxyObject
 90
      499
 91
      501
 93
      436
310
42CC9915DA5C99599C985B595049028333333333333E3BF0000000000000FB0107901411070040501600405405064090741402480A0340
1001
ACAD
1000
AcDbSavedByObjectVersion
1070
     0
  0
ACAD_PROXY_OBJECT
  5
31
102
{ACAD_REACTORS
330
2A
102
}
330
2A
100
AcDbProxyObject
 90
      499
 91
      501
 93
      500
310
424CD108121A5919195B90640502408333333333333E3BF0000000000000FB01079024090700405020000000000001110200405405064090740C02480A0340
1001
ACAD
1000
AcDbSavedByObjectVersion
1070
     0
  0
ACAD_PROXY_OBJECT
  5
30
102
{ACAD_REACTORS
330
2A
102
}
330
2A
100
AcDbProxyObject
 90
      499
 91
      501
 93
      436
310
42CCD915DA5C99599C985B595059028333333333333E3BF0000000000000FB0107901411070040501600405405064090741402480A0340
1001
ACAD
1000
AcDbSavedByObjectVersion
1070
     0
  0
ACAD_PROXY_OBJECT
  5
32
102
{ACAD_REACTORS
330
2A
102
}
330
2A
100
AcDbProxyObject
 90
      499
 91
      501
 93
      388
310
4150985CDA58D07406404333333333333E3BF0000000000000FB0107A41107004050150841D405064090741402480A0350
1001
ACAD
1000
AcDbSavedByObjectVersion
1070
     0
  0
ACAD_PROXY_OBJECT
  5
36
102
{ACAD_REACTORS
330
2A
102
}
330
2A
100
AcDbProxyObject
 90
      499
 91
      501
 93
      428
310
42109C9A59DA1D195B90C409028333333333333E3BF0000000000000FB010790141107004050150841D405064090741402480A029950
1001
ACAD
1000
AcDbSavedByObjectVersion
1070
     0
  0
ACAD_PROXY_OBJECT
  5
3A
102
{ACAD_REACTORS
330
2A
102
}
330
2A
100
AcDbProxyObject
 90
      499
 91
      501
 93
      452
310
42D0DBDB1BDC90DA185B99D95104090240C333333333333E3BF0000000000000FB0108901411070040501508421405064090741402480A0350
1001
ACAD
1000
AcDbSavedByObjectVersion
1070
     0
  0
ACAD_PROXY_OBJECT
  5
34
102
{ACAD_REACTORS
330
2A
102
}
330
2A
100
AcDbProxyObject
 90
      499
 91
      501
 93
      500
310
4290DBDB98D95C1D1D585B10940D028333333333333E3BF0000000000000FB0107902409070040501000000000000111010841D405064090740C02480A0340
1001
ACAD
1000
AcDbSavedByObjectVersion
1070
     0
  0
ACAD_PROXY_OBJECT
  5
35
102
{ACAD_REACTORS
330
2A
102
}
330
2A
100
AcDbProxyObject
 90
      499
 91
      501
 93
      412
310
40D11A5B50B409028333333333333E3BF0000000000000FB010790141107004050150841D405064090741402480A02677FFFFFD0
1001
ACAD
1000
AcDbSavedByObjectVersion
1070
     0
  0
ACAD_PROXY_OBJECT
  5
39
102
{ACAD_REACTORS
330
2A
102
}
330
2A
100
AcDbProxyObject
 90
      499
 91
      501
 93
      444
310
42D19858D95C185D1D195C9B90F409028333333333333E3BF0000000000000FB010790141107004050150841D405064090741402480A0350
1001
ACAD
1000
AcDbSavedByObjectVersion
1070
     0
  0
ACAD_PROXY_OBJECT
  5
2B
102
{ACAD_REACTORS
330
2A
102
}
330
2A
100
AcDbProxyObject
 90
      499
 91
      501
 93
      388
310
41119B185D240901404333333333333E3BF0000000000000F9010740A41107004050150841D405064090741402480A1B50
1001
ACAD
1000
AcDbSavedByObjectVersion
1070
     0
  0
ACAD_PROXY_OBJECT
  5
2C
102
{ACAD_REACTORS
330
2A
102
}
330
2A
100
AcDbProxyObject
 90
      499
 91
      501
 93
      476
310
43519B185D15DA5D1A115919D95CD0140901404333333333333E3BF0000000000000F9010740901411070040501600405405064090741402480A1B50
1001
ACAD
1000
AcDbSavedByObjectVersion
1070
     0
  0
ACAD_PROXY_OBJECT
  5
2D
102
{ACAD_REACTORS
330
2A
102
}
330
2A
100
AcDbProxyObject
 90
      499
 91
      501
 93
      412
310
41D1DBDD5C985D5910240902404333333333333E3BF0000000000000F9010740A411070040501641D405064090741402480A1B50
1001
ACAD
1000
AcDbSavedByObjectVersion
1070
     0
  0
ACAD_PROXY_OBJECT
  5
2E
102
{ACAD_REACTORS
330
2A
102
}
330
2A
100
AcDbProxyObject
 90
      499
 91
      501
 93
      500
310
4411DBDD5C985D5915DA5D1A115919D95CD0340902404333333333333E3BF0000000000000F9010740901411070040501600405405064090741402480A1B50
1001
ACAD
1000
AcDbSavedByObjectVersion
1070
     0
  0
ACAD_PROXY_OBJECT
  5
38
102
{ACAD_REACTORS
330
2A
102
}
330
2A
100
AcDbProxyObject
 90
      499
 91
      501
 93
      444
310
42D31A5B995C185D1D195C9B90E409028333333333333E3BF0000000000000FB010790141107004050750841D405064090741402483A0350
1001
ACAD
1000
AcDbSavedByObjectVersion
1070
     0
  0
ACAD_PROXY_OBJECT
  5
33
102
{ACAD_REACTORS
330
2A
102
}
330
2A
100
AcDbProxyObject
 90
      499
 91
      501
 93
      420
310
425499585B1A5CDD1A58D08409028333333333333E3BF0000000000000FB01079019070040501508421405064090741402480A1B40
1001
ACAD
1000
AcDbSavedByObjectVersion
1070
     0
  0
ACAD_PROXY_OBJECT
  5
37
102
{ACAD_REACTORS
330
2A
102
}
330
2A
100
AcDbProxyObject
 90
      499
 91
      501
 93
      412
310
41D51A1A58DAD95B90D409028333333333333E3BF0000000000000FB010790141107004050150C41D405064090741402480A0350
1001
ACAD
1000
AcDbSavedByObjectVersion
1070
     0
  0
XRECORD
  5
609
102
{ACAD_REACTORS
330
600
102
}
330
600
100
AcDbXrecord
 90
        0
  0
XRECORD
  5
61F
102
{ACAD_REACTORS
330
600
102
}
330
600
100
AcDbXrecord
1000
DSTYLE
1002
{
1070
   340
340
11
1002
}
  0
XRECORD
  5
60A
102
{ACAD_REACTORS
330
600
102
}
330
600
100
AcDbXrecord
  1
{3334AF6E-0126-4E0F-827C-9BC79C1F780B}
  0
XRECORD
  5
603
102
{ACAD_REACTORS
330
600
102
}
330
600
100
AcDbXrecord
  1

  0
XRECORD
  5
608
102
{ACAD_REACTORS
330
600
102
}
330
600
100
AcDbXrecord
 90
        4
  0
XRECORD
  5
605
102
{ACAD_REACTORS
330
600
102
}
330
600
100
AcDbXrecord
340
1A
  0
XRECORD
  5
607
102
{ACAD_REACTORS
330
600
102
}
330
600
100
AcDbXrecord
 90
    10781
  0
XRECORD
  5
606
102
{ACAD_REACTORS
330
600
102
}
330
600
100
AcDbXrecord
340
19
  0
XRECORD
  5
60C
102
{ACAD_REACTORS
330
600
102
}
330
600
100
AcDbXrecord
 40
0.0
  0
XRECORD
  5
60F
102
{ACAD_REACTORS
330
600
102
}
330
600
100
AcDbXrecord
340
0
  0
XRECORD
  5
615
102
{ACAD_REACTORS
330
600
102
}
330
600
100
AcDbXrecord
 10
0.0
 20
0.0
 30
0.0
  0
XRECORD
  5
611
102
{ACAD_REACTORS
330
600
102
}
330
600
100
AcDbXrecord
 10
0.0
 20
0.0
 30
0.0
  0
XRECORD
  5
614
102
{ACAD_REACTORS
330
600
102
}
330
600
100
AcDbXrecord
 10
0.0
 20
0.0
 30
0.0
  0
XRECORD
  5
612
102
{ACAD_REACTORS
330
600
102
}
330
600
100
AcDbXrecord
 10
0.0
 20
0.0
 30
0.0
  0
XRECORD
  5
613
102
{ACAD_REACTORS
330
600
102
}
330
600
100
AcDbXrecord
 10
0.0
 20
0.0
 30
0.0
  0
XRECORD
  5
610
102
{ACAD_REACTORS
330
600
102
}
330
600
100
AcDbXrecord
 10
0.0
 20
0.0
 30
0.0
  0
XRECORD
  5
60D
102
{ACAD_REACTORS
330
600
102
}
330
600
100
AcDbXrecord
340
0
  0
XRECORD
  5
60E
102
{ACAD_REACTORS
330
600
102
}
330
600
100
AcDbXrecord
 70
     0
  0
XRECORD
  5
604
102
{ACAD_REACTORS
330
600
102
}
330
600
100
AcDbXrecord
  1

  0
XRECORD
  5
601
102
{ACAD_REACTORS
330
600
102
}
330
600
100
AcDbXrecord
 90
        1
  0
XRECORD
  5
602
102
{ACAD_REACTORS
330
600
102
}
330
600
100
AcDbXrecord
 90
       70
  0
XRECORD
  5
618
102
{ACAD_REACTORS
330
600
102
}
330
600
100
AcDbXrecord
340
0
  0
XRECORD
  5
61E
102
{ACAD_REACTORS
330
600
102
}
330
600
100
AcDbXrecord
 10
0.0
 20
0.0
 30
0.0
  0
XRECORD
  5
61A
102
{ACAD_REACTORS
330
600
102
}
330
600
100
AcDbXrecord
 10
0.0
 20
0.0
 30
0.0
  0
XRECORD
  5
61D
102
{ACAD_REACTORS
330
600
102
}
330
600
100
AcDbXrecord
 10
0.0
 20
0.0
 30
0.0
  0
XRECORD
  5
61B
102
{ACAD_REACTORS
330
600
102
}
330
600
100
AcDbXrecord
 10
0.0
 20
0.0
 30
0.0
  0
XRECORD
  5
61C
102
{ACAD_REACTORS
330
600
102
}
330
600
100
AcDbXrecord
 10
0.0
 20
0.0
 30
0.0
  0
XRECORD
  5
619
102
{ACAD_REACTORS
330
600
102
}
330
600
100
AcDbXrecord
 10
0.0
 20
0.0
 30
0.0
  0
XRECORD
  5
616
102
{ACAD_REACTORS
330
600
102
}
330
600
100
AcDbXrecord
340
0
  0
XRECORD
  5
617
102
{ACAD_REACTORS
330
600
102
}
330
600
100
AcDbXrecord
 70
     0
  0
XRECORD
  5
60B
102
{ACAD_REACTORS
330
600
102
}
330
600
100
AcDbXrecord
  1
{FAEB1C32-E019-11D5-929B-00C0DF256EC4}
  0
DICTIONARYVAR
  5
625
102
{ACAD_REACTORS
330
620
102
}
330
620
100
DictionaryVariables
280
     0
  1
2
  0
DICTIONARYVAR
  5
626
102
{ACAD_REACTORS
330
620
102
}
330
620
100
DictionaryVariables
280
     0
  1
1
  0
DICTIONARYVAR
  5
624
102
{ACAD_REACTORS
330
620
102
}
330
620
100
DictionaryVariables
280
     0
  1
80.000000
  0
DICTIONARYVAR
  5
623
102
{ACAD_REACTORS
330
620
102
}
330
620
100
DictionaryVariables
280
     0
  1
5.000000
  0
DICTIONARY
  5
629
330
3D
100
AcDbDictionary
280
     1
  3
ACAD_XREC_ROUNDTRIP
360
62A
  0
DICTIONARY
  5
627
330
3C
100
AcDbDictionary
280
     1
  3
ACAD_XREC_ROUNDTRIP
360
628
  0
DICTIONARY
  5
62B
330
3E
100
AcDbDictionary
280
     1
  3
ACAD_XREC_ROUNDTRIP
360
62C
  0
XRECORD
  5
62A
102
{ACAD_REACTORS
330
629
102
}
330
629
100
AcDbXrecord
102
MATERIAL
148
0.0
149
0.0
149
0.0
 93
        0
 94
      127
282
     0
 72
     1
 77
     1
171
     1
175
     1
179
     1
273
     0
  0
XRECORD
  5
628
102
{ACAD_REACTORS
330
627
102
}
330
627
100
AcDbXrecord
102
MATERIAL
148
0.0
149
0.0
149
0.0
 93
        0
 94
      127
282
     0
 72
     1
 77
     1
171
     1
175
     1
179
     1
273
     0
  0
XRECORD
  5
62C
102
{ACAD_REACTORS
330
62B
102
}
330
62B
100
AcDbXrecord
102
MATERIAL
148
0.0
149
0.0
149
0.0
 93
        0
 94
      127
282
     0
 72
     1
 77
     1
171
     1
175
     1
179
     1
273
     0
  0
ENDSEC
  0
EOF
