  0
SECTION
  2
HEADER
  9
$ACADVER
  1
AC1014
  9
$ACADMAINTVER
 70
     9
  9
$DWGCODEPAGE
  3
ANSI_932
  9
$INSBASE
 10
0.0
 20
0.0
 30
0.0
  9
$EXTMIN
 10
17.40000000000401
 20
9.299999999999955
 30
0.0
  9
$EXTMAX
 10
199.4000000000043
 20
289.3
 30
0.0
  9
$LIMMIN
 10
0.0
 20
0.0
  9
$LIMMAX
 10
210.0
 20
297.0
  9
$ORTHOMODE
 70
     0
  9
$REGENMODE
 70
     1
  9
$FILLMODE
 70
     1
  9
$QTEXTMODE
 70
     0
  9
$MIRRTEXT
 70
     1
  9
$DRAGMODE
 70
     2
  9
$LTSCALE
 40
1.0
  9
$OSMODE
 70
    37
  9
$ATTMODE
 70
     1
  9
$TEXTSIZE
 40
2.5
  9
$TRACEWID
 40
1.0
  9
$TEXTSTYLE
  7
STANDARD
  9
$CLAYER
  8
化粧台
  9
$CELTYPE
  6
BYLAYER
  9
$CECOLOR
 62
   256
  9
$CELTSCALE
 40
1.0
  9
$DELOBJ
 70
     1
  9
$DISPSILH
 70
     0
  9
$DIMSCALE
 40
1.0
  9
$DIMASZ
 40
2.5
  9
$DIMEXO
 40
0.625
  9
$DIMDLI
 40
3.75
  9
$DIMRND
 40
0.0
  9
$DIMDLE
 40
0.0
  9
$DIMEXE
 40
1.25
  9
$DIMTP
 40
0.0
  9
$DIMTM
 40
0.0
  9
$DIMTXT
 40
2.5
  9
$DIMCEN
 40
2.5
  9
$DIMTSZ
 40
0.0
  9
$DIMTOL
 70
     0
  9
$DIMLIM
 70
     0
  9
$DIMTIH
 70
     0
  9
$DIMTOH
 70
     0
  9
$DIMSE1
 70
     0
  9
$DIMSE2
 70
     0
  9
$DIMTAD
 70
     1
  9
$DIMZIN
 70
     8
  9
$DIMBLK
  1

  9
$DIMASO
 70
     1
  9
$DIMSHO
 70
     1
  9
$DIMPOST
  1

  9
$DIMAPOST
  1

  9
$DIMALT
 70
     0
  9
$DIMALTD
 70
     3
  9
$DIMALTF
 40
0.03937007874016
  9
$DIMLFAC
 40
1.0
  9
$DIMTOFL
 70
     1
  9
$DIMTVP
 40
0.0
  9
$DIMTIX
 70
     0
  9
$DIMSOXD
 70
     0
  9
$DIMSAH
 70
     0
  9
$DIMBLK1
  1

  9
$DIMBLK2
  1

  9
$DIMSTYLE
  2
ISO-25
  9
$DIMCLRD
 70
     0
  9
$DIMCLRE
 70
     0
  9
$DIMCLRT
 70
     0
  9
$DIMTFAC
 40
1.0
  9
$DIMGAP
 40
0.625
  9
$DIMJUST
 70
     0
  9
$DIMSD1
 70
     0
  9
$DIMSD2
 70
     0
  9
$DIMTOLJ
 70
     0
  9
$DIMTZIN
 70
     8
  9
$DIMALTZ
 70
     0
  9
$DIMALTTZ
 70
     0
  9
$DIMFIT
 70
     3
  9
$DIMUPT
 70
     0
  9
$DIMUNIT
 70
     2
  9
$DIMDEC
 70
     2
  9
$DIMTDEC
 70
     2
  9
$DIMALTU
 70
     2
  9
$DIMALTTD
 70
     3
  9
$DIMTXSTY
  7
STANDARD
  9
$DIMAUNIT
 70
     0
  9
$LUNITS
 70
     2
  9
$LUPREC
 70
     4
  9
$SKETCHINC
 40
1.0
  9
$FILLETRAD
 40
10.0
  9
$AUNITS
 70
     0
  9
$AUPREC
 70
     0
  9
$MENU
  1
.
  9
$ELEVATION
 40
0.0
  9
$PELEVATION
 40
0.0
  9
$THICKNESS
 40
0.0
  9
$LIMCHECK
 70
     0
  9
$CHAMFERA
 40
10.0
  9
$CHAMFERB
 40
10.0
  9
$CHAMFERC
 40
20.0
  9
$CHAMFERD
 40
0.0
  9
$SKPOLY
 70
     0
  9
$TDCREATE
 40
2460095.491202477
  9
$TDUPDATE
 40
2460095.491202766
  9
$TDINDWG
 40
0.0000000116
  9
$TDUSRTIMER
 40
0.0000000116
  9
$USRTIMER
 70
     1
  9
$ANGBASE
 50
0.0
  9
$ANGDIR
 70
     0
  9
$PDMODE
 70
     0
  9
$PDSIZE
 40
0.0
  9
$PLINEWID
 40
0.0
  9
$COORDS
 70
     1
  9
$SPLFRAME
 70
     0
  9
$SPLINETYPE
 70
     6
  9
$SPLINESEGS
 70
     8
  9
$ATTDIA
 70
     0
  9
$ATTREQ
 70
     1
  9
$HANDLING
 70
     1
  9
$HANDSEED
  5
605
  9
$SURFTAB1
 70
     6
  9
$SURFTAB2
 70
     6
  9
$SURFTYPE
 70
     6
  9
$SURFU
 70
     6
  9
$SURFV
 70
     6
  9
$UCSNAME
  2

  9
$UCSORG
 10
0.0
 20
0.0
 30
0.0
  9
$UCSXDIR
 10
1.0
 20
0.0
 30
0.0
  9
$UCSYDIR
 10
0.0
 20
1.0
 30
0.0
  9
$PUCSNAME
  2

  9
$PUCSORG
 10
0.0
 20
0.0
 30
0.0
  9
$PUCSXDIR
 10
1.0
 20
0.0
 30
0.0
  9
$PUCSYDIR
 10
0.0
 20
1.0
 30
0.0
  9
$USERI1
 70
     0
  9
$USERI2
 70
     0
  9
$USERI3
 70
     0
  9
$USERI4
 70
     0
  9
$USERI5
 70
     0
  9
$USERR1
 40
0.0
  9
$USERR2
 40
0.0
  9
$USERR3
 40
0.0
  9
$USERR4
 40
0.0
  9
$USERR5
 40
0.0
  9
$WORLDVIEW
 70
     1
  9
$SHADEDGE
 70
     3
  9
$SHADEDIF
 70
    70
  9
$TILEMODE
 70
     1
  9
$MAXACTVP
 70
    64
  9
$PINSBASE
 10
0.0
 20
0.0
 30
0.0
  9
$PLIMCHECK
 70
     0
  9
$PEXTMIN
 10
1.000000000000000E+20
 20
1.000000000000000E+20
 30
1.000000000000000E+20
  9
$PEXTMAX
 10
-1.000000000000000E+20
 20
-1.000000000000000E+20
 30
-1.000000000000000E+20
  9
$PLIMMIN
 10
0.0
 20
0.0
  9
$PLIMMAX
 10
420.0
 20
297.0
  9
$UNITMODE
 70
     0
  9
$VISRETAIN
 70
     1
  9
$PLINEGEN
 70
     0
  9
$PSLTSCALE
 70
     1
  9
$TREEDEPTH
 70
  3020
  9
$PICKSTYLE
 70
     1
  9
$CMLSTYLE
  2
STANDARD
  9
$CMLJUST
 70
     0
  9
$CMLSCALE
 40
20.0
  9
$PROXYGRAPHICS
 70
     1
  9
$MEASUREMENT
 70
     1
  0
ENDSEC
  0
SECTION
  2
CLASSES
  0
CLASS
  1
ACDBDICTIONARYWDFLT
  2
AcDbDictionaryWithDefault
  3
ObjectDBX Classes
 90
        0
280
     0
281
     0
  0
CLASS
  1
VISUALSTYLE
  2
AcDbVisualStyle
  3
ObjectDBX Classes
 90
     4095
280
     0
281
     0
  0
CLASS
  1
MATERIAL
  2
AcDbMaterial
  3
ObjectDBX Classes
 90
     1153
280
     0
281
     0
  0
CLASS
  1
SUN
  2
AcDbSun
  3
SCENEOE
 90
     1024
280
     0
281
     0
  0
CLASS
  1
DICTIONARYVAR
  2
AcDbDictionaryVar
  3
ObjectDBX Classes
 90
        0
280
     0
281
     0
  0
CLASS
  1
XRECORD
  2
AcDbXrecord
  3
AutoCAD 2000
 90
        0
280
     0
281
     0
  0
CLASS
  1
LWPOLYLINE
  2
AcDbPolyline
  3
AutoCAD 2000
 90
        0
280
     0
281
     1
  0
CLASS
  1
HATCH
  2
AcDbHatch
  3
AutoCAD 2000
 90
        0
280
     0
281
     1
  0
CLASS
  1
ACDBPLACEHOLDER
  2
AcDbPlaceHolder
  3
ObjectDBX Classes
 90
        0
280
     0
281
     0
  0
CLASS
  1
LAYOUT
  2
AcDbLayout
  3
ObjectDBX Classes
 90
        0
280
     0
281
     0
  0
ENDSEC
  0
SECTION
  2
TABLES
  0
TABLE
  2
VPORT
  5
8
330
0
100
AcDbSymbolTable
 70
     1
  0
VPORT
  5
29
330
8
100
AcDbSymbolTableRecord
100
AcDbViewportTableRecord
  2
*ACTIVE
 70
     0
 10
0.0
 20
0.0
 11
1.0
 21
1.0
 12
1626.000000000062
 22
2239.5
 13
0.0
 23
0.0
 14
10.0
 24
10.0
 15
10.0
 25
10.0
 16
0.0
 26
0.0
 36
1.0
 17
0.0
 27
0.0
 37
0.0
 40
4200.000000000001
 41
0.6500000000000008
 42
50.0
 43
0.0
 44
0.0
 50
0.0
 51
0.0
 71
     0
 72
  1000
 73
     1
 74
     3
 75
     0
 76
     0
 77
     0
 78
     0
  0
ENDTAB
  0
TABLE
  2
LTYPE
  5
5
330
0
100
AcDbSymbolTable
 70
     7
  0
LTYPE
  5
14
330
5
100
AcDbSymbolTableRecord
100
AcDbLinetypeTableRecord
  2
BYBLOCK
 70
     0
  3

 72
    65
 73
     0
 40
0.0
  0
LTYPE
  5
15
330
5
100
AcDbSymbolTableRecord
100
AcDbLinetypeTableRecord
  2
BYLAYER
 70
     0
  3

 72
    65
 73
     0
 40
0.0
  0
LTYPE
  5
16
330
5
100
AcDbSymbolTableRecord
100
AcDbLinetypeTableRecord
  2
CONTINUOUS
 70
     0
  3
Solid line
 72
    65
 73
     0
 40
0.0
  0
LTYPE
  5
40
330
5
100
AcDbSymbolTableRecord
100
AcDbLinetypeTableRecord
  2
EXLTYPE1
 70
     0
  3
破線
 72
    65
 73
     2
 40
3.0
 49
2.0
 74
     0
 49
-1.0
 74
     0
  0
LTYPE
  5
41
330
5
100
AcDbSymbolTableRecord
100
AcDbLinetypeTableRecord
  2
EXLTYPE2
 70
     0
  3
点線
 72
    65
 73
     2
 40
2.0
 49
1.0
 74
     0
 49
-1.0
 74
     0
  0
LTYPE
  5
42
330
5
100
AcDbSymbolTableRecord
100
AcDbLinetypeTableRecord
  2
EXLTYPE3
 70
     0
  3
一点鎖線
 72
    65
 73
     4
 40
10.0
 49
7.0
 74
     0
 49
-1.0
 74
     0
 49
1.0
 74
     0
 49
-1.0
 74
     0
  0
LTYPE
  5
43
330
5
100
AcDbSymbolTableRecord
100
AcDbLinetypeTableRecord
  2
EXLTYPE4
 70
     0
  3
二点鎖線
 72
    65
 73
     6
 40
12.0
 49
7.0
 74
     0
 49
-1.0
 74
     0
 49
1.0
 74
     0
 49
-1.0
 74
     0
 49
1.0
 74
     0
 49
-1.0
 74
     0
  0
LTYPE
  5
44
330
5
100
AcDbSymbolTableRecord
100
AcDbLinetypeTableRecord
  2
EXLTYPE5
 70
     0
  3
三点鎖線
 72
    65
 73
     8
 40
37.0
 49
30.0
 74
     0
 49
-1.0
 74
     0
 49
1.0
 74
     0
 49
-1.0
 74
     0
 49
1.0
 74
     0
 49
-1.0
 74
     0
 49
1.0
 74
     0
 49
-1.0
 74
     0
  0
LTYPE
  5
45
330
5
100
AcDbSymbolTableRecord
100
AcDbLinetypeTableRecord
  2
EXLTYPE6
 70
     0
  3
四点鎖線
 72
    65
 73
    10
 40
39.0
 49
30.0
 74
     0
 49
-1.0
 74
     0
 49
1.0
 74
     0
 49
-1.0
 74
     0
 49
1.0
 74
     0
 49
-1.0
 74
     0
 49
1.0
 74
     0
 49
-1.0
 74
     0
 49
1.0
 74
     0
 49
-1.0
 74
     0
  0
ENDTAB
  0
TABLE
  2
LAYER
  5
2
330
0
100
AcDbSymbolTable
 70
     7
  0
LAYER
  5
10
330
2
100
AcDbSymbolTableRecord
100
AcDbLayerTableRecord
  2
0
 70
     0
 62
     7
  6
CONTINUOUS
  0
LAYER
  5
48
330
2
100
AcDbSymbolTableRecord
100
AcDbLayerTableRecord
  2
枠_表
 70
     0
 62
     7
  6
CONTINUOUS
  0
LAYER
  5
49
330
2
100
AcDbSymbolTableRecord
100
AcDbLayerTableRecord
  2
化粧台
 70
     0
 62
     7
  6
CONTINUOUS
  0
LAYER
  5
4A
330
2
100
AcDbSymbolTableRecord
100
AcDbLayerTableRecord
  2
鏡台
 70
     0
 62
     7
  6
CONTINUOUS
  0
LAYER
  5
4B
330
2
100
AcDbSymbolTableRecord
100
AcDbLayerTableRecord
  2
付属金具
 70
     0
 62
     7
  6
CONTINUOUS
  0
LAYER
  5
4C
330
2
100
AcDbSymbolTableRecord
100
AcDbLayerTableRecord
  2
寸法
 70
     0
 62
     7
  6
CONTINUOUS
  0
LAYER
  5
4C8
330
2
100
AcDbSymbolTableRecord
100
AcDbLayerTableRecord
  2
DEFPOINTS
 70
     0
 62
     7
  6
CONTINUOUS
  0
ENDTAB
  0
TABLE
  2
STYLE
  5
3
330
0
100
AcDbSymbolTable
 70
     5
  0
STYLE
  5
11
330
3
100
AcDbSymbolTableRecord
100
AcDbTextStyleTableRecord
  2
STANDARD
 70
     0
 40
0.0
 41
1.0
 50
0.0
 71
     0
 42
2.5
  3
monotxt
  4
extfont
  0
STYLE
  5
46
330
3
100
AcDbSymbolTableRecord
100
AcDbTextStyleTableRecord
  2
EXCADSTD
 70
     0
 40
0.0
 41
1.0
 50
0.0
 71
     0
 42
0.2
  3
monotxt
  4
extfont
  0
STYLE
  5
47
330
3
100
AcDbSymbolTableRecord
100
AcDbTextStyleTableRecord
  2
EXCADVERT
 70
     4
 40
0.0
 41
1.0
 50
0.0
 71
     0
 42
0.286885
  3
monotxt
  4
extfont
  0
STYLE
  5
AF
330
3
100
AcDbSymbolTableRecord
100
AcDbTextStyleTableRecord
  2
EXCADTTF1
 70
     0
 40
0.0
 41
1.0
 50
0.0
 71
     0
 42
0.2
  3
MSGOTHIC.TTC
  4

1001
ACAD
1000
MS Gothic
1071
    32817
  0
STYLE
  5
4C6
330
3
100
AcDbSymbolTableRecord
100
AcDbTextStyleTableRecord
  2
EXCADDIM1
 70
     0
 40
0.0
 41
0.84
 50
0.0
 71
     0
 42
0.2
  3
monotxt
  4
extfont
  0
ENDTAB
  0
TABLE
  2
VIEW
  5
6
330
0
100
AcDbSymbolTable
 70
     0
  0
ENDTAB
  0
TABLE
  2
UCS
  5
7
330
0
100
AcDbSymbolTable
 70
     0
  0
ENDTAB
  0
TABLE
  2
APPID
  5
9
330
0
100
AcDbSymbolTable
 70
     1
  0
APPID
  5
12
330
9
100
AcDbSymbolTableRecord
100
AcDbRegAppTableRecord
  2
ACAD
 70
     0
  0
ENDTAB
  0
TABLE
  2
DIMSTYLE
  5
A
330
0
100
AcDbSymbolTable
 70
     1
  0
DIMSTYLE
105
27
102
{ACAD_REACTORS
330
4C7
330
4D4
330
4E0
330
4ED
330
4FB
330
507
330
513
330
522
330
531
330
53E
330
54B
330
55F
330
56C
330
582
330
58F
330
59B
330
5B2
330
5BE
330
5CB
102
}
330
A
100
AcDbSymbolTableRecord
100
AcDbDimStyleTableRecord
  2
ISO-25
 70
     0
  3

  4

  5

  6

  7

 40
1.0
 41
2.5
 42
0.625
 43
3.75
 44
1.25
 45
0.0
 46
0.0
 47
0.0
 48
0.0
140
2.5
141
2.5
142
0.0
143
0.03937007874016
144
1.0
145
0.0
146
1.0
147
0.625
 71
     0
 72
     0
 73
     0
 74
     0
 75
     0
 76
     0
 77
     1
 78
     8
170
     0
171
     3
172
     1
173
     0
174
     0
175
     0
176
     0
177
     0
178
     0
270
     2
271
     2
272
     2
273
     2
274
     3
340
11
275
     0
280
     0
281
     0
282
     0
283
     0
284
     8
285
     0
286
     0
287
     5
288
     0
  0
ENDTAB
  0
TABLE
  2
BLOCK_RECORD
  5
1
330
0
100
AcDbSymbolTable
 70
    34
  0
BLOCK_RECORD
  5
1F
330
1
100
AcDbSymbolTableRecord
100
AcDbBlockTableRecord
  2
*MODEL_SPACE
  0
BLOCK_RECORD
  5
1B
330
1
100
AcDbSymbolTableRecord
100
AcDbBlockTableRecord
  2
*PAPER_SPACE
  0
BLOCK_RECORD
  5
4D
330
1
100
AcDbSymbolTableRecord
100
AcDbBlockTableRecord
  2
EX_NORM
  0
BLOCK_RECORD
  5
50
330
1
100
AcDbSymbolTableRecord
100
AcDbBlockTableRecord
  2
EX_BNORM
  0
BLOCK_RECORD
  5
53
330
1
100
AcDbSymbolTableRecord
100
AcDbBlockTableRecord
  2
EX_BCIR
  0
BLOCK_RECORD
  5
56
330
1
100
AcDbSymbolTableRecord
100
AcDbBlockTableRecord
  2
EX_RCIVIL
  0
BLOCK_RECORD
  5
59
330
1
100
AcDbSymbolTableRecord
100
AcDbBlockTableRecord
  2
EX_SLANT
  0
BLOCK_RECORD
  5
5C
330
1
100
AcDbSymbolTableRecord
100
AcDbBlockTableRecord
  2
EX_NONE
  0
BLOCK_RECORD
  5
5F
330
1
100
AcDbSymbolTableRecord
100
AcDbBlockTableRecord
  2
EX_CIVIL
  0
BLOCK_RECORD
  5
62
330
1
100
AcDbSymbolTableRecord
100
AcDbBlockTableRecord
  2
EX_WCIR
  0
BLOCK_RECORD
  5
65
330
1
100
AcDbSymbolTableRecord
100
AcDbBlockTableRecord
  2
EX_WCIR2
  0
BLOCK_RECORD
  5
68
330
1
100
AcDbSymbolTableRecord
100
AcDbBlockTableRecord
  2
EX_WNORM
  0
BLOCK_RECORD
  5
6B
330
1
100
AcDbSymbolTableRecord
100
AcDbBlockTableRecord
  2
EX_NNORM
  0
BLOCK_RECORD
  5
6E
330
1
100
AcDbSymbolTableRecord
100
AcDbBlockTableRecord
  2
EX_BBOX
  0
BLOCK_RECORD
  5
71
330
1
100
AcDbSymbolTableRecord
100
AcDbBlockTableRecord
  2
EX_WBOX
  0
BLOCK_RECORD
  5
74
330
1
100
AcDbSymbolTableRecord
100
AcDbBlockTableRecord
  2
EX_INTEGRAL
  0
BLOCK_RECORD
  5
4C9
330
1
100
AcDbSymbolTableRecord
100
AcDbBlockTableRecord
  2
*D15
  0
BLOCK_RECORD
  5
4D5
330
1
100
AcDbSymbolTableRecord
100
AcDbBlockTableRecord
  2
*D16
  0
BLOCK_RECORD
  5
4E1
330
1
100
AcDbSymbolTableRecord
100
AcDbBlockTableRecord
  2
*D17
  0
BLOCK_RECORD
  5
4EE
330
1
100
AcDbSymbolTableRecord
100
AcDbBlockTableRecord
  2
*D18
  0
BLOCK_RECORD
  5
4FC
330
1
100
AcDbSymbolTableRecord
100
AcDbBlockTableRecord
  2
*D19
  0
BLOCK_RECORD
  5
508
330
1
100
AcDbSymbolTableRecord
100
AcDbBlockTableRecord
  2
*D20
  0
BLOCK_RECORD
  5
514
330
1
100
AcDbSymbolTableRecord
100
AcDbBlockTableRecord
  2
*D21
  0
BLOCK_RECORD
  5
523
330
1
100
AcDbSymbolTableRecord
100
AcDbBlockTableRecord
  2
*D22
  0
BLOCK_RECORD
  5
532
330
1
100
AcDbSymbolTableRecord
100
AcDbBlockTableRecord
  2
*D23
  0
BLOCK_RECORD
  5
53F
330
1
100
AcDbSymbolTableRecord
100
AcDbBlockTableRecord
  2
*D24
  0
BLOCK_RECORD
  5
54C
330
1
100
AcDbSymbolTableRecord
100
AcDbBlockTableRecord
  2
*D25
  0
BLOCK_RECORD
  5
560
330
1
100
AcDbSymbolTableRecord
100
AcDbBlockTableRecord
  2
*D26
  0
BLOCK_RECORD
  5
56D
330
1
100
AcDbSymbolTableRecord
100
AcDbBlockTableRecord
  2
*D27
  0
BLOCK_RECORD
  5
583
330
1
100
AcDbSymbolTableRecord
100
AcDbBlockTableRecord
  2
*D28
  0
BLOCK_RECORD
  5
590
330
1
100
AcDbSymbolTableRecord
100
AcDbBlockTableRecord
  2
*D29
  0
BLOCK_RECORD
  5
59C
330
1
100
AcDbSymbolTableRecord
100
AcDbBlockTableRecord
  2
*D30
  0
BLOCK_RECORD
  5
5B3
330
1
100
AcDbSymbolTableRecord
100
AcDbBlockTableRecord
  2
*D31
  0
BLOCK_RECORD
  5
5BF
330
1
100
AcDbSymbolTableRecord
100
AcDbBlockTableRecord
  2
*D32
  0
BLOCK_RECORD
  5
5CC
330
1
100
AcDbSymbolTableRecord
100
AcDbBlockTableRecord
  2
*D33
  0
ENDTAB
  0
ENDSEC
  0
SECTION
  2
BLOCKS
  0
BLOCK
  5
20
330
1F
100
AcDbEntity
  8
0
100
AcDbBlockBegin
  2
*MODEL_SPACE
 70
     0
 10
0.0
 20
0.0
 30
0.0
  3
*MODEL_SPACE
  1

  0
ENDBLK
  5
21
330
1F
100
AcDbEntity
  8
0
100
AcDbBlockEnd
  0
BLOCK
  5
1C
330
1B
100
AcDbEntity
 67
     1
  8
0
100
AcDbBlockBegin
  2
*PAPER_SPACE
 70
     0
 10
0.0
 20
0.0
 30
0.0
  3
*PAPER_SPACE
  1

  0
ENDBLK
  5
1D
330
1B
100
AcDbEntity
 67
     1
  8
0
100
AcDbBlockEnd
  0
BLOCK
  5
4E
330
4D
100
AcDbEntity
  8
0
100
AcDbBlockBegin
  2
EX_NORM
 70
     0
 10
0.0
 20
0.0
 30
0.0
  3
EX_NORM
  1

  0
LINE
  5
77
330
4D
100
AcDbEntity
  8
0
  6
CONTINUOUS
 62
     0
100
AcDbLine
 10
0.0
 20
0.0
 30
0.0
 11
-1.0
 21
0.0
 31
0.0
  0
LINE
  5
78
330
4D
100
AcDbEntity
  8
0
  6
CONTINUOUS
 62
     0
100
AcDbLine
 10
0.0
 20
0.0
 30
0.0
 11
-1.0
 21
0.166666667
 31
0.0
  0
LINE
  5
79
330
4D
100
AcDbEntity
  8
0
  6
CONTINUOUS
 62
     0
100
AcDbLine
 10
0.0
 20
0.0
 30
0.0
 11
-1.0
 21
-0.166666667
 31
0.0
  0
ENDBLK
  5
4F
330
4D
100
AcDbEntity
  8
0
100
AcDbBlockEnd
  0
BLOCK
  5
51
330
50
100
AcDbEntity
  8
0
100
AcDbBlockBegin
  2
EX_BNORM
 70
     0
 10
0.0
 20
0.0
 30
0.0
  3
EX_BNORM
  1

  0
LINE
  5
7A
330
50
100
AcDbEntity
  8
0
  6
CONTINUOUS
 62
     0
100
AcDbLine
 10
0.0
 20
0.0
 30
0.0
 11
-1.0
 21
0.0
 31
0.0
  0
LINE
  5
7B
330
50
100
AcDbEntity
  8
0
  6
CONTINUOUS
 62
     0
100
AcDbLine
 10
0.0
 20
0.0
 30
0.0
 11
-1.0
 21
0.166666667
 31
0.0
  0
LINE
  5
7C
330
50
100
AcDbEntity
  8
0
  6
CONTINUOUS
 62
     0
100
AcDbLine
 10
0.0
 20
0.0
 30
0.0
 11
-1.0
 21
-0.166666667
 31
0.0
  0
LINE
  5
7D
330
50
100
AcDbEntity
  8
0
  6
CONTINUOUS
 62
     0
100
AcDbLine
 10
0.0
 20
0.0
 30
0.0
 11
-1.0
 21
0.083333333
 31
0.0
  0
LINE
  5
7E
330
50
100
AcDbEntity
  8
0
  6
CONTINUOUS
 62
     0
100
AcDbLine
 10
0.0
 20
0.0
 30
0.0
 11
-1.0
 21
-0.083333333
 31
0.0
  0
LINE
  5
7F
330
50
100
AcDbEntity
  8
0
  6
CONTINUOUS
 62
     0
100
AcDbLine
 10
-1.0
 20
0.166666667
 30
0.0
 11
-1.0
 21
-0.166666667
 31
0.0
  0
ENDBLK
  5
52
330
50
100
AcDbEntity
  8
0
100
AcDbBlockEnd
  0
BLOCK
  5
54
330
53
100
AcDbEntity
  8
0
100
AcDbBlockBegin
  2
EX_BCIR
 70
     0
 10
0.0
 20
0.0
 30
0.0
  3
EX_BCIR
  1

  0
LINE
  5
80
330
53
100
AcDbEntity
  8
0
  6
CONTINUOUS
 62
     0
100
AcDbLine
 10
0.0
 20
0.0
 30
0.0
 11
-1.0
 21
0.0
 31
0.0
  0
CIRCLE
  5
81
330
53
100
AcDbEntity
  8
0
  6
CONTINUOUS
 62
     0
100
AcDbCircle
 10
0.0
 20
0.0
 30
0.0
 40
0.5
  0
CIRCLE
  5
82
330
53
100
AcDbEntity
  8
0
  6
CONTINUOUS
 62
     0
100
AcDbCircle
 10
0.0
 20
0.0
 30
0.0
 40
0.25
  0
ENDBLK
  5
55
330
53
100
AcDbEntity
  8
0
100
AcDbBlockEnd
  0
BLOCK
  5
57
330
56
100
AcDbEntity
  8
0
100
AcDbBlockBegin
  2
EX_RCIVIL
 70
     0
 10
0.0
 20
0.0
 30
0.0
  3
EX_RCIVIL
  1

  0
LINE
  5
83
330
56
100
AcDbEntity
  8
0
  6
CONTINUOUS
 62
     0
100
AcDbLine
 10
0.0
 20
0.0
 30
0.0
 11
-1.0
 21
0.0
 31
0.0
  0
LINE
  5
84
330
56
100
AcDbEntity
  8
0
  6
CONTINUOUS
 62
     0
100
AcDbLine
 10
-1.0
 20
-0.25
 30
0.0
 11
0.0
 21
-0.25
 31
0.0
  0
LINE
  5
85
330
56
100
AcDbEntity
  8
0
  6
CONTINUOUS
 62
     0
100
AcDbLine
 10
-1.0
 20
-0.125
 30
0.0
 11
0.0
 21
-0.125
 31
0.0
  0
ENDBLK
  5
58
330
56
100
AcDbEntity
  8
0
100
AcDbBlockEnd
  0
BLOCK
  5
5A
330
59
100
AcDbEntity
  8
0
100
AcDbBlockBegin
  2
EX_SLANT
 70
     0
 10
0.0
 20
0.0
 30
0.0
  3
EX_SLANT
  1

  0
LINE
  5
86
330
59
100
AcDbEntity
  8
0
  6
CONTINUOUS
 62
     0
100
AcDbLine
 10
0.0
 20
0.0
 30
0.0
 11
-1.0
 21
0.0
 31
0.0
  0
LINE
  5
87
330
59
100
AcDbEntity
  8
0
  6
CONTINUOUS
 62
     0
100
AcDbLine
 10
0.707106781
 20
0.707106781
 30
0.0
 11
-0.707106781
 21
-0.707106781
 31
0.0
  0
ENDBLK
  5
5B
330
59
100
AcDbEntity
  8
0
100
AcDbBlockEnd
  0
BLOCK
  5
5D
330
5C
100
AcDbEntity
  8
0
100
AcDbBlockBegin
  2
EX_NONE
 70
     0
 10
0.0
 20
0.0
 30
0.0
  3
EX_NONE
  1

  0
LINE
  5
88
330
5C
100
AcDbEntity
  8
0
  6
CONTINUOUS
 62
     0
100
AcDbLine
 10
0.0
 20
0.0
 30
0.0
 11
-1.0
 21
0.0
 31
0.0
  0
ENDBLK
  5
5E
330
5C
100
AcDbEntity
  8
0
100
AcDbBlockEnd
  0
BLOCK
  5
60
330
5F
100
AcDbEntity
  8
0
100
AcDbBlockBegin
  2
EX_CIVIL
 70
     0
 10
0.0
 20
0.0
 30
0.0
  3
EX_CIVIL
  1

  0
LINE
  5
89
330
5F
100
AcDbEntity
  8
0
  6
CONTINUOUS
 62
     0
100
AcDbLine
 10
0.0
 20
0.0
 30
0.0
 11
-1.0
 21
0.0
 31
0.0
  0
LINE
  5
8A
330
5F
100
AcDbEntity
  8
0
  6
CONTINUOUS
 62
     0
100
AcDbLine
 10
-1.0
 20
0.25
 30
0.0
 11
0.0
 21
0.25
 31
0.0
  0
LINE
  5
8B
330
5F
100
AcDbEntity
  8
0
  6
CONTINUOUS
 62
     0
100
AcDbLine
 10
-1.0
 20
0.125
 30
0.0
 11
0.0
 21
0.125
 31
0.0
  0
ENDBLK
  5
61
330
5F
100
AcDbEntity
  8
0
100
AcDbBlockEnd
  0
BLOCK
  5
63
330
62
100
AcDbEntity
  8
0
100
AcDbBlockBegin
  2
EX_WCIR
 70
     0
 10
0.0
 20
0.0
 30
0.0
  3
EX_WCIR
  1

  0
LINE
  5
8C
330
62
100
AcDbEntity
  8
0
  6
CONTINUOUS
 62
     0
100
AcDbLine
 10
0.0
 20
0.0
 30
0.0
 11
-1.0
 21
0.0
 31
0.0
  0
CIRCLE
  5
8D
330
62
100
AcDbEntity
  8
0
  6
CONTINUOUS
 62
     0
100
AcDbCircle
 10
0.0
 20
0.0
 30
0.0
 40
0.5
  0
ENDBLK
  5
64
330
62
100
AcDbEntity
  8
0
100
AcDbBlockEnd
  0
BLOCK
  5
66
330
65
100
AcDbEntity
  8
0
100
AcDbBlockBegin
  2
EX_WCIR2
 70
     0
 10
0.0
 20
0.0
 30
0.0
  3
EX_WCIR2
  1

  0
LINE
  5
8E
330
65
100
AcDbEntity
  8
0
  6
CONTINUOUS
 62
     0
100
AcDbLine
 10
-0.5
 20
0.0
 30
0.0
 11
-1.0
 21
0.0
 31
0.0
  0
CIRCLE
  5
8F
330
65
100
AcDbEntity
  8
0
  6
CONTINUOUS
 62
     0
100
AcDbCircle
 10
0.0
 20
0.0
 30
0.0
 40
0.5
  0
ENDBLK
  5
67
330
65
100
AcDbEntity
  8
0
100
AcDbBlockEnd
  0
BLOCK
  5
69
330
68
100
AcDbEntity
  8
0
100
AcDbBlockBegin
  2
EX_WNORM
 70
     0
 10
0.0
 20
0.0
 30
0.0
  3
EX_WNORM
  1

  0
LINE
  5
90
330
68
100
AcDbEntity
  8
0
  6
CONTINUOUS
 62
     0
100
AcDbLine
 10
-1.0
 20
0.0
 30
0.0
 11
-1.0
 21
0.0
 31
0.0
  0
LINE
  5
91
330
68
100
AcDbEntity
  8
0
  6
CONTINUOUS
 62
     0
100
AcDbLine
 10
0.0
 20
0.0
 30
0.0
 11
-1.0
 21
0.166666667
 31
0.0
  0
LINE
  5
92
330
68
100
AcDbEntity
  8
0
  6
CONTINUOUS
 62
     0
100
AcDbLine
 10
0.0
 20
0.0
 30
0.0
 11
-1.0
 21
-0.166666667
 31
0.0
  0
LINE
  5
93
330
68
100
AcDbEntity
  8
0
  6
CONTINUOUS
 62
     0
100
AcDbLine
 10
-1.0
 20
0.166666667
 30
0.0
 11
-1.0
 21
-0.166666667
 31
0.0
  0
ENDBLK
  5
6A
330
68
100
AcDbEntity
  8
0
100
AcDbBlockEnd
  0
BLOCK
  5
6C
330
6B
100
AcDbEntity
  8
0
100
AcDbBlockBegin
  2
EX_NNORM
 70
     0
 10
0.0
 20
0.0
 30
0.0
  3
EX_NNORM
  1

  0
LINE
  5
94
330
6B
100
AcDbEntity
  8
0
  6
CONTINUOUS
 62
     0
100
AcDbLine
 10
0.0
 20
0.0
 30
0.0
 11
-1.0
 21
0.0
 31
0.0
  0
LINE
  5
95
330
6B
100
AcDbEntity
  8
0
  6
CONTINUOUS
 62
     0
100
AcDbLine
 10
0.0
 20
0.0
 30
0.0
 11
-1.0
 21
0.166666667
 31
0.0
  0
LINE
  5
96
330
6B
100
AcDbEntity
  8
0
  6
CONTINUOUS
 62
     0
100
AcDbLine
 10
0.0
 20
0.0
 30
0.0
 11
-1.0
 21
-0.166666667
 31
0.0
  0
LINE
  5
97
330
6B
100
AcDbEntity
  8
0
  6
CONTINUOUS
 62
     0
100
AcDbLine
 10
-1.0
 20
0.166666667
 30
0.0
 11
-1.0
 21
-0.166666667
 31
0.0
  0
ENDBLK
  5
6D
330
6B
100
AcDbEntity
  8
0
100
AcDbBlockEnd
  0
BLOCK
  5
6F
330
6E
100
AcDbEntity
  8
0
100
AcDbBlockBegin
  2
EX_BBOX
 70
     0
 10
0.0
 20
0.0
 30
0.0
  3
EX_BBOX
  1

  0
LINE
  5
98
330
6E
100
AcDbEntity
  8
0
  6
CONTINUOUS
 62
     0
100
AcDbLine
 10
0.0
 20
0.0
 30
0.0
 11
-1.0
 21
0.0
 31
0.0
  0
LINE
  5
99
330
6E
100
AcDbEntity
  8
0
  6
CONTINUOUS
 62
     0
100
AcDbLine
 10
-0.5
 20
0.5
 30
0.0
 11
0.5
 21
0.5
 31
0.0
  0
LINE
  5
9A
330
6E
100
AcDbEntity
  8
0
  6
CONTINUOUS
 62
     0
100
AcDbLine
 10
0.5
 20
0.5
 30
0.0
 11
0.5
 21
-0.5
 31
0.0
  0
LINE
  5
9B
330
6E
100
AcDbEntity
  8
0
  6
CONTINUOUS
 62
     0
100
AcDbLine
 10
0.5
 20
-0.5
 30
0.0
 11
-0.5
 21
-0.5
 31
0.0
  0
LINE
  5
9C
330
6E
100
AcDbEntity
  8
0
  6
CONTINUOUS
 62
     0
100
AcDbLine
 10
-0.5
 20
-0.5
 30
0.0
 11
-0.5
 21
0.5
 31
0.0
  0
LINE
  5
9D
330
6E
100
AcDbEntity
  8
0
  6
CONTINUOUS
 62
     0
100
AcDbLine
 10
-0.25
 20
0.25
 30
0.0
 11
0.25
 21
0.25
 31
0.0
  0
LINE
  5
9E
330
6E
100
AcDbEntity
  8
0
  6
CONTINUOUS
 62
     0
100
AcDbLine
 10
0.25
 20
0.25
 30
0.0
 11
0.25
 21
-0.25
 31
0.0
  0
LINE
  5
9F
330
6E
100
AcDbEntity
  8
0
  6
CONTINUOUS
 62
     0
100
AcDbLine
 10
0.25
 20
-0.25
 30
0.0
 11
-0.25
 21
-0.25
 31
0.0
  0
LINE
  5
A0
330
6E
100
AcDbEntity
  8
0
  6
CONTINUOUS
 62
     0
100
AcDbLine
 10
-0.25
 20
-0.25
 30
0.0
 11
-0.25
 21
0.25
 31
0.0
  0
ENDBLK
  5
70
330
6E
100
AcDbEntity
  8
0
100
AcDbBlockEnd
  0
BLOCK
  5
72
330
71
100
AcDbEntity
  8
0
100
AcDbBlockBegin
  2
EX_WBOX
 70
     0
 10
0.0
 20
0.0
 30
0.0
  3
EX_WBOX
  1

  0
LINE
  5
A1
330
71
100
AcDbEntity
  8
0
  6
CONTINUOUS
 62
     0
100
AcDbLine
 10
-0.5
 20
0.0
 30
0.0
 11
-1.0
 21
0.0
 31
0.0
  0
LINE
  5
A2
330
71
100
AcDbEntity
  8
0
  6
CONTINUOUS
 62
     0
100
AcDbLine
 10
-0.5
 20
0.5
 30
0.0
 11
0.5
 21
0.5
 31
0.0
  0
LINE
  5
A3
330
71
100
AcDbEntity
  8
0
  6
CONTINUOUS
 62
     0
100
AcDbLine
 10
0.5
 20
0.5
 30
0.0
 11
0.5
 21
-0.5
 31
0.0
  0
LINE
  5
A4
330
71
100
AcDbEntity
  8
0
  6
CONTINUOUS
 62
     0
100
AcDbLine
 10
0.5
 20
-0.5
 30
0.0
 11
-0.5
 21
-0.5
 31
0.0
  0
LINE
  5
A5
330
71
100
AcDbEntity
  8
0
  6
CONTINUOUS
 62
     0
100
AcDbLine
 10
-0.5
 20
-0.5
 30
0.0
 11
-0.5
 21
0.5
 31
0.0
  0
ENDBLK
  5
73
330
71
100
AcDbEntity
  8
0
100
AcDbBlockEnd
  0
BLOCK
  5
75
330
74
100
AcDbEntity
  8
0
100
AcDbBlockBegin
  2
EX_INTEGRAL
 70
     0
 10
0.0
 20
0.0
 30
0.0
  3
EX_INTEGRAL
  1

  0
LINE
  5
A6
330
74
100
AcDbEntity
  8
0
  6
CONTINUOUS
 62
     0
100
AcDbLine
 10
0.0
 20
0.0
 30
0.0
 11
-1.0
 21
0.0
 31
0.0
  0
ARC
  5
A7
330
74
100
AcDbEntity
  8
0
  6
CONTINUOUS
 62
     0
100
AcDbCircle
 10
0.542115
 20
0.164992
 30
0.0
 40
0.56667
100
AcDbArc
 50
73.07249033629006
 51
196.9275130221199
  0
ARC
  5
A8
330
74
100
AcDbEntity
  8
0
  6
CONTINUOUS
 62
     0
100
AcDbCircle
 10
-0.542115
 20
-0.164992
 30
0.0
 40
0.56667
100
AcDbArc
 50
253.0724869220464
 51
16.9275130559125
  0
ENDBLK
  5
76
330
74
100
AcDbEntity
  8
0
100
AcDbBlockEnd
  0
BLOCK
  5
4CA
330
4C9
100
AcDbEntity
  8
0
100
AcDbBlockBegin
  2
*D15
 70
     1
 10
0.0
 20
0.0
 30
0.0
  3
*D15
  1

  0
LINE
  5
4CC
330
4C9
100
AcDbEntity
  8
寸法
  6
CONTINUOUS
 62
     3
100
AcDbLine
 10
1266.499999821245
 20
3525.0
 30
0.0
 11
1396.00000000011
 21
3525.0
 31
0.0
  0
LINE
  5
4CD
330
4C9
100
AcDbEntity
  8
寸法
  6
CONTINUOUS
 62
     3
100
AcDbLine
 10
1381.00000000011
 20
3569.999996185303
 30
0.0
 11
1381.00000000011
 21
3780.000003814697
 31
0.0
  0
INSERT
  5
4CE
330
4C9
100
AcDbEntity
  8
寸法
 62
     3
100
AcDbBlockReference
  2
EX_NORM
 10
1381.00000000011
 20
3525.0
 30
0.0
 41
44.99999618530273
 42
44.99999618530273
 43
44.99999618530273
 50
270.0
  0
INSERT
  5
4CF
330
4C9
100
AcDbEntity
  8
寸法
 62
     3
100
AcDbBlockReference
  2
EX_NORM
 10
1381.00000000011
 20
3825.0
 30
0.0
 41
44.99999618530273
 42
44.99999618530273
 43
44.99999618530273
 50
90.0
  0
MTEXT
  5
4D0
330
4C9
100
AcDbEntity
  8
寸法
 62
     2
100
AcDbMText
 10
1345.750000089516
 20
3674.999999999998
 30
0.0
 40
59.99999618530273
 41
0.0
 71
     5
 72
     1
  1
300
  7
EXCADDIM1
 11
0.0
 21
1.0
 31
0.0
  0
POINT
  5
4D1
330
4C9
100
AcDbEntity
  8
DEFPOINTS
 62
     0
100
AcDbPoint
 10
1256.000000000059
 20
3525.0
 30
0.0
  0
POINT
  5
4D2
330
4C9
100
AcDbEntity
  8
DEFPOINTS
 62
     0
100
AcDbPoint
 10
1261.000000000059
 20
3825.0
 30
0.0
  0
POINT
  5
4D3
330
4C9
100
AcDbEntity
  8
DEFPOINTS
 62
     0
100
AcDbPoint
 10
1381.00000000011
 20
3825.0
 30
0.0
  0
ENDBLK
  5
4CB
330
4C9
100
AcDbEntity
  8
0
100
AcDbBlockEnd
  0
BLOCK
  5
4D6
330
4D5
100
AcDbEntity
  8
0
100
AcDbBlockBegin
  2
*D16
 70
     1
 10
0.0
 20
0.0
 30
0.0
  3
*D16
  1

  0
LINE
  5
4D8
330
4D5
100
AcDbEntity
  8
寸法
  6
CONTINUOUS
 62
     3
100
AcDbLine
 10
971.4999998212465
 20
3455.0
 30
0.0
 11
1486.00000000011
 21
3455.0
 31
0.0
  0
LINE
  5
4D9
330
4D5
100
AcDbEntity
  8
寸法
  6
CONTINUOUS
 62
     3
100
AcDbLine
 10
1471.00000000011
 20
3499.999996185303
 30
0.0
 11
1471.00000000011
 21
3780.000003814697
 31
0.0
  0
INSERT
  5
4DA
330
4D5
100
AcDbEntity
  8
寸法
 62
     3
100
AcDbBlockReference
  2
EX_NORM
 10
1471.00000000011
 20
3455.0
 30
0.0
 41
44.99999618530273
 42
44.99999618530273
 43
44.99999618530273
 50
270.0
  0
INSERT
  5
4DB
330
4D5
100
AcDbEntity
  8
寸法
 62
     3
100
AcDbBlockReference
  2
EX_NORM
 10
1471.00000000011
 20
3825.0
 30
0.0
 41
44.99999618530273
 42
44.99999618530273
 43
44.99999618530273
 50
90.0
  0
MTEXT
  5
4DC
330
4D5
100
AcDbEntity
  8
寸法
 62
     2
100
AcDbMText
 10
1435.750000089516
 20
3639.999999999998
 30
0.0
 40
59.99999618530273
 41
0.0
 71
     5
 72
     1
  1
370
  7
EXCADDIM1
 11
0.0
 21
1.0
 31
0.0
  0
POINT
  5
4DD
330
4D5
100
AcDbEntity
  8
DEFPOINTS
 62
     0
100
AcDbPoint
 10
961.0000000000605
 20
3455.0
 30
0.0
  0
POINT
  5
4DE
330
4D5
100
AcDbEntity
  8
DEFPOINTS
 62
     0
100
AcDbPoint
 10
1261.000000000059
 20
3825.0
 30
0.0
  0
POINT
  5
4DF
330
4D5
100
AcDbEntity
  8
DEFPOINTS
 62
     0
100
AcDbPoint
 10
1471.00000000011
 20
3825.0
 30
0.0
  0
ENDBLK
  5
4D7
330
4D5
100
AcDbEntity
  8
0
100
AcDbBlockEnd
  0
BLOCK
  5
4E2
330
4E1
100
AcDbEntity
  8
0
100
AcDbBlockBegin
  2
*D17
 70
     1
 10
0.0
 20
0.0
 30
0.0
  3
*D17
  1

  0
LINE
  5
4E4
330
4E1
100
AcDbEntity
  8
寸法
  6
CONTINUOUS
 62
     3
100
AcDbLine
 10
661.0000000000605
 20
3519.500000178814
 30
0.0
 11
661.0000000000605
 21
3319.999999999949
 31
0.0
  0
LINE
  5
4E5
330
4E1
100
AcDbEntity
  8
寸法
  6
CONTINUOUS
 62
     3
100
AcDbLine
 10
1261.000000000059
 20
3519.500000178814
 30
0.0
 11
1261.000000000059
 21
3319.999999999949
 31
0.0
  0
LINE
  5
4E6
330
4E1
100
AcDbEntity
  8
寸法
  6
CONTINUOUS
 62
     3
100
AcDbLine
 10
705.9999961853632
 20
3334.999999999949
 30
0.0
 11
1216.000003814756
 21
3334.999999999949
 31
0.0
  0
INSERT
  5
4E7
330
4E1
100
AcDbEntity
  8
寸法
 62
     3
100
AcDbBlockReference
  2
EX_NORM
 10
661.0000000000605
 20
3334.999999999949
 30
0.0
 41
44.99999618530273
 42
44.99999618530273
 43
44.99999618530273
 50
180.0
  0
INSERT
  5
4E8
330
4E1
100
AcDbEntity
  8
寸法
 62
     3
100
AcDbBlockReference
  2
EX_NORM
 10
1261.000000000059
 20
3334.999999999949
 30
0.0
 41
44.99999618530273
 42
44.99999618530273
 43
44.99999618530273
  0
MTEXT
  5
4E9
330
4E1
100
AcDbEntity
  8
寸法
 62
     2
100
AcDbMText
 10
961.0000000000598
 20
3370.249999910542
 30
0.0
 40
59.99999618530273
 41
0.0
 71
     5
 72
     1
  1
600
  7
EXCADDIM1
  0
POINT
  5
4EA
330
4E1
100
AcDbEntity
  8
DEFPOINTS
 62
     0
100
AcDbPoint
 10
661.0000000000605
 20
3530.0
 30
0.0
  0
POINT
  5
4EB
330
4E1
100
AcDbEntity
  8
DEFPOINTS
 62
     0
100
AcDbPoint
 10
1261.000000000059
 20
3530.0
 30
0.0
  0
POINT
  5
4EC
330
4E1
100
AcDbEntity
  8
DEFPOINTS
 62
     0
100
AcDbPoint
 10
1261.000000000059
 20
3334.999999999949
 30
0.0
  0
ENDBLK
  5
4E3
330
4E1
100
AcDbEntity
  8
0
100
AcDbBlockEnd
  0
BLOCK
  5
4EF
330
4EE
100
AcDbEntity
  8
0
100
AcDbBlockBegin
  2
*D18
 70
     1
 10
0.0
 20
0.0
 30
0.0
  3
*D18
  1

  0
LINE
  5
4F1
330
4EE
100
AcDbEntity
  8
寸法
  6
CONTINUOUS
 62
     3
100
AcDbLine
 10
996.0000000000604
 20
3885.499999821186
 30
0.0
 11
996.0000000000604
 21
3930.0
 31
0.0
  0
LINE
  5
4F2
330
4EE
100
AcDbEntity
  8
寸法
  6
CONTINUOUS
 62
     3
100
AcDbLine
 10
961.0000000000605
 20
3915.0
 30
0.0
 11
996.0000000000604
 21
3915.0
 31
0.0
  0
LINE
  5
4F3
330
4EE
100
AcDbEntity
  8
寸法
  6
CONTINUOUS
 62
     3
100
AcDbLine
 10
916.0000038147577
 20
3915.0
 30
0.0
 11
871.000007629455
 21
3915.0
 31
0.0
  0
LINE
  5
4F4
330
4EE
100
AcDbEntity
  8
寸法
  6
CONTINUOUS
 62
     3
100
AcDbLine
 10
1040.999996185363
 20
3915.0
 30
0.0
 11
1085.999992370666
 21
3915.0
 31
0.0
  0
INSERT
  5
4F5
330
4EE
100
AcDbEntity
  8
寸法
 62
     3
100
AcDbBlockReference
  2
EX_NORM
 10
961.0000000000605
 20
3915.0
 30
0.0
 41
44.99999618530273
 42
44.99999618530273
 43
44.99999618530273
  0
INSERT
  5
4F6
330
4EE
100
AcDbEntity
  8
寸法
 62
     3
100
AcDbBlockReference
  2
EX_NORM
 10
996.0000000000604
 20
3915.0
 30
0.0
 41
44.99999618530273
 42
44.99999618530273
 43
44.99999618530273
 50
180.0
  0
MTEXT
  5
4F7
330
4EE
100
AcDbEntity
  8
寸法
 62
     2
100
AcDbMText
 10
751.0000000000606
 20
3950.249999910593
 30
0.0
 40
59.99999618530273
 41
0.0
 71
     5
 72
     1
  1
35（壁排水）
  7
EXCADDIM1
  0
POINT
  5
4F8
330
4EE
100
AcDbEntity
  8
DEFPOINTS
 62
     0
100
AcDbPoint
 10
961.0000000000605
 20
3825.0
 30
0.0
  0
POINT
  5
4F9
330
4EE
100
AcDbEntity
  8
DEFPOINTS
 62
     0
100
AcDbPoint
 10
996.0000000000604
 20
3875.0
 30
0.0
  0
POINT
  5
4FA
330
4EE
100
AcDbEntity
  8
DEFPOINTS
 62
     0
100
AcDbPoint
 10
996.0000000000604
 20
3915.0
 30
0.0
  0
ENDBLK
  5
4F0
330
4EE
100
AcDbEntity
  8
0
100
AcDbBlockEnd
  0
BLOCK
  5
4FD
330
4FC
100
AcDbEntity
  8
0
100
AcDbBlockBegin
  2
*D19
 70
     1
 10
0.0
 20
0.0
 30
0.0
  3
*D19
  1

  0
LINE
  5
4FF
330
4FC
100
AcDbEntity
  8
寸法
  6
CONTINUOUS
 62
     3
100
AcDbLine
 10
971.4999998212465
 20
1669.5
 30
0.0
 11
1396.000000000059
 21
1669.5
 31
0.0
  0
LINE
  5
500
330
4FC
100
AcDbEntity
  8
寸法
  6
CONTINUOUS
 62
     3
100
AcDbLine
 10
1381.000000000059
 20
964.4999961853028
 30
0.0
 11
1381.000000000059
 21
1624.500003814697
 31
0.0
  0
INSERT
  5
501
330
4FC
100
AcDbEntity
  8
寸法
 62
     3
100
AcDbBlockReference
  2
EX_NORM
 10
1381.000000000059
 20
919.5000000000001
 30
0.0
 41
44.99999618530273
 42
44.99999618530273
 43
44.99999618530273
 50
270.0
  0
INSERT
  5
502
330
4FC
100
AcDbEntity
  8
寸法
 62
     3
100
AcDbBlockReference
  2
EX_NORM
 10
1381.000000000059
 20
1669.5
 30
0.0
 41
44.99999618530273
 42
44.99999618530273
 43
44.99999618530273
 50
90.0
  0
MTEXT
  5
503
330
4FC
100
AcDbEntity
  8
寸法
 62
     2
100
AcDbMText
 10
1345.750000089465
 20
1294.499999999998
 30
0.0
 40
59.99999618530273
 41
0.0
 71
     5
 72
     1
  1
750
  7
EXCADDIM1
 11
0.0
 21
1.0
 31
0.0
  0
POINT
  5
504
330
4FC
100
AcDbEntity
  8
DEFPOINTS
 62
     0
100
AcDbPoint
 10
1244.500000000059
 20
919.5
 30
0.0
  0
POINT
  5
505
330
4FC
100
AcDbEntity
  8
DEFPOINTS
 62
     0
100
AcDbPoint
 10
961.0000000000605
 20
1669.5
 30
0.0
  0
POINT
  5
506
330
4FC
100
AcDbEntity
  8
DEFPOINTS
 62
     0
100
AcDbPoint
 10
1381.000000000059
 20
1669.5
 30
0.0
  0
ENDBLK
  5
4FE
330
4FC
100
AcDbEntity
  8
0
100
AcDbBlockEnd
  0
BLOCK
  5
509
330
508
100
AcDbEntity
  8
0
100
AcDbBlockBegin
  2
*D20
 70
     1
 10
0.0
 20
0.0
 30
0.0
  3
*D20
  1

  0
LINE
  5
50B
330
508
100
AcDbEntity
  8
寸法
  6
CONTINUOUS
 62
     3
100
AcDbLine
 10
1266.314876946245
 20
1704.5
 30
0.0
 11
1486.000000000059
 21
1704.5
 31
0.0
  0
LINE
  5
50C
330
508
100
AcDbEntity
  8
寸法
  6
CONTINUOUS
 62
     3
100
AcDbLine
 10
1471.000000000059
 20
964.4999961853028
 30
0.0
 11
1471.000000000059
 21
1659.500003814697
 31
0.0
  0
INSERT
  5
50D
330
508
100
AcDbEntity
  8
寸法
 62
     3
100
AcDbBlockReference
  2
EX_NORM
 10
1471.000000000059
 20
919.5000000000001
 30
0.0
 41
44.99999618530273
 42
44.99999618530273
 43
44.99999618530273
 50
270.0
  0
INSERT
  5
50E
330
508
100
AcDbEntity
  8
寸法
 62
     3
100
AcDbBlockReference
  2
EX_NORM
 10
1471.000000000059
 20
1704.5
 30
0.0
 41
44.99999618530273
 42
44.99999618530273
 43
44.99999618530273
 50
90.0
  0
MTEXT
  5
50F
330
508
100
AcDbEntity
  8
寸法
 62
     2
100
AcDbMText
 10
1435.750000089465
 20
1311.999999999998
 30
0.0
 40
59.99999618530273
 41
0.0
 71
     5
 72
     1
  1
785
  7
EXCADDIM1
 11
0.0
 21
1.0
 31
0.0
  0
POINT
  5
510
330
508
100
AcDbEntity
  8
DEFPOINTS
 62
     0
100
AcDbPoint
 10
1244.500000000059
 20
919.5
 30
0.0
  0
POINT
  5
511
330
508
100
AcDbEntity
  8
DEFPOINTS
 62
     0
100
AcDbPoint
 10
1255.814877125059
 20
1704.5
 30
0.0
  0
POINT
  5
512
330
508
100
AcDbEntity
  8
DEFPOINTS
 62
     0
100
AcDbPoint
 10
1471.000000000059
 20
1704.5
 30
0.0
  0
ENDBLK
  5
50A
330
508
100
AcDbEntity
  8
0
100
AcDbBlockEnd
  0
BLOCK
  5
515
330
514
100
AcDbEntity
  8
0
100
AcDbBlockBegin
  2
*D21
 70
     1
 10
0.0
 20
0.0
 30
0.0
  3
*D21
  1

  0
LINE
  5
517
330
514
100
AcDbEntity
  8
寸法
  6
CONTINUOUS
 62
     3
100
AcDbLine
 10
2406.00000000006
 20
859.0000001788139
 30
0.0
 11
2406.00000000006
 21
694.5
 31
0.0
  0
LINE
  5
518
330
514
100
AcDbEntity
  8
寸法
  6
CONTINUOUS
 62
     3
100
AcDbLine
 10
2491.00000000006
 20
909.000000178813
 30
0.0
 11
2491.00000000006
 21
694.5
 31
0.0
  0
LINE
  5
519
330
514
100
AcDbEntity
  8
寸法
  6
CONTINUOUS
 62
     3
100
AcDbLine
 10
2406.00000000006
 20
709.5
 30
0.0
 11
2491.00000000006
 21
709.5
 31
0.0
  0
LINE
  5
51A
330
514
100
AcDbEntity
  8
寸法
  6
CONTINUOUS
 62
     3
100
AcDbLine
 10
2361.000003814758
 20
709.5
 30
0.0
 11
2316.000007629455
 21
709.5
 31
0.0
  0
LINE
  5
51B
330
514
100
AcDbEntity
  8
寸法
  6
CONTINUOUS
 62
     3
100
AcDbLine
 10
2535.999996185363
 20
709.5
 30
0.0
 11
2580.999992370666
 21
709.5
 31
0.0
  0
INSERT
  5
51C
330
514
100
AcDbEntity
  8
寸法
 62
     3
100
AcDbBlockReference
  2
EX_NORM
 10
2406.00000000006
 20
709.5
 30
0.0
 41
44.99999618530273
 42
44.99999618530273
 43
44.99999618530273
  0
INSERT
  5
51D
330
514
100
AcDbEntity
  8
寸法
 62
     3
100
AcDbBlockReference
  2
EX_NORM
 10
2491.00000000006
 20
709.5
 30
0.0
 41
44.99999618530273
 42
44.99999618530273
 43
44.99999618530273
 50
180.0
  0
MTEXT
  5
51E
330
514
100
AcDbEntity
  8
寸法
 62
     2
100
AcDbMText
 10
2701.00000000006
 20
744.749999910593
 30
0.0
 40
59.99999618530273
 41
0.0
 71
     5
 72
     1
  1
85（床給水）
  7
EXCADDIM1
  0
POINT
  5
51F
330
514
100
AcDbEntity
  8
DEFPOINTS
 62
     0
100
AcDbPoint
 10
2406.00000000006
 20
869.5
 30
0.0
  0
POINT
  5
520
330
514
100
AcDbEntity
  8
DEFPOINTS
 62
     0
100
AcDbPoint
 10
2491.00000000006
 20
919.4999999999991
 30
0.0
  0
POINT
  5
521
330
514
100
AcDbEntity
  8
DEFPOINTS
 62
     0
100
AcDbPoint
 10
2491.00000000006
 20
709.5
 30
0.0
  0
ENDBLK
  5
516
330
514
100
AcDbEntity
  8
0
100
AcDbBlockEnd
  0
BLOCK
  5
524
330
523
100
AcDbEntity
  8
0
100
AcDbBlockBegin
  2
*D22
 70
     1
 10
0.0
 20
0.0
 30
0.0
  3
*D22
  1

  0
LINE
  5
526
330
523
100
AcDbEntity
  8
寸法
  6
CONTINUOUS
 62
     3
100
AcDbLine
 10
2406.00000000006
 20
859.0000001788139
 30
0.0
 11
2406.00000000006
 21
604.5
 31
0.0
  0
LINE
  5
527
330
523
100
AcDbEntity
  8
寸法
  6
CONTINUOUS
 62
     3
100
AcDbLine
 10
2491.00000000006
 20
909.000000178813
 30
0.0
 11
2491.00000000006
 21
604.5
 31
0.0
  0
LINE
  5
528
330
523
100
AcDbEntity
  8
寸法
  6
CONTINUOUS
 62
     3
100
AcDbLine
 10
2406.00000000006
 20
619.5
 30
0.0
 11
2491.00000000006
 21
619.5
 31
0.0
  0
LINE
  5
529
330
523
100
AcDbEntity
  8
寸法
  6
CONTINUOUS
 62
     3
100
AcDbLine
 10
2361.000003814758
 20
619.5
 30
0.0
 11
2316.000007629455
 21
619.5
 31
0.0
  0
LINE
  5
52A
330
523
100
AcDbEntity
  8
寸法
  6
CONTINUOUS
 62
     3
100
AcDbLine
 10
2535.999996185363
 20
619.5
 30
0.0
 11
2580.999992370666
 21
619.5
 31
0.0
  0
INSERT
  5
52B
330
523
100
AcDbEntity
  8
寸法
 62
     3
100
AcDbBlockReference
  2
EX_NORM
 10
2406.00000000006
 20
619.5
 30
0.0
 41
44.99999618530273
 42
44.99999618530273
 43
44.99999618530273
  0
INSERT
  5
52C
330
523
100
AcDbEntity
  8
寸法
 62
     3
100
AcDbBlockReference
  2
EX_NORM
 10
2491.00000000006
 20
619.5
 30
0.0
 41
44.99999618530273
 42
44.99999618530273
 43
44.99999618530273
 50
180.0
  0
MTEXT
  5
52D
330
523
100
AcDbEntity
  8
寸法
 62
     2
100
AcDbMText
 10
2701.00000000006
 20
654.749999910593
 30
0.0
 40
59.99999618530273
 41
0.0
 71
     5
 72
     1
  1
85（床排水）
  7
EXCADDIM1
  0
POINT
  5
52E
330
523
100
AcDbEntity
  8
DEFPOINTS
 62
     0
100
AcDbPoint
 10
2406.00000000006
 20
869.5
 30
0.0
  0
POINT
  5
52F
330
523
100
AcDbEntity
  8
DEFPOINTS
 62
     0
100
AcDbPoint
 10
2491.00000000006
 20
919.4999999999991
 30
0.0
  0
POINT
  5
530
330
523
100
AcDbEntity
  8
DEFPOINTS
 62
     0
100
AcDbPoint
 10
2491.00000000006
 20
619.5
 30
0.0
  0
ENDBLK
  5
525
330
523
100
AcDbEntity
  8
0
100
AcDbBlockEnd
  0
BLOCK
  5
533
330
532
100
AcDbEntity
  8
0
100
AcDbBlockBegin
  2
*D23
 70
     1
 10
0.0
 20
0.0
 30
0.0
  3
*D23
  1

  0
LINE
  5
535
330
532
100
AcDbEntity
  8
寸法
  6
CONTINUOUS
 62
     3
100
AcDbLine
 10
2501.499999821247
 20
919.5
 30
0.0
 11
2626.00000000006
 21
919.4999999999999
 31
0.0
  0
LINE
  5
536
330
532
100
AcDbEntity
  8
寸法
  6
CONTINUOUS
 62
     3
100
AcDbLine
 10
2509.499999821247
 20
1269.5
 30
0.0
 11
2626.00000000006
 21
1269.5
 31
0.0
  0
LINE
  5
537
330
532
100
AcDbEntity
  8
寸法
  6
CONTINUOUS
 62
     3
100
AcDbLine
 10
2611.00000000006
 20
964.4999961853026
 30
0.0
 11
2611.00000000006
 21
1224.500003814697
 31
0.0
  0
INSERT
  5
538
330
532
100
AcDbEntity
  8
寸法
 62
     3
100
AcDbBlockReference
  2
EX_NORM
 10
2611.00000000006
 20
919.4999999999999
 30
0.0
 41
44.99999618530273
 42
44.99999618530273
 43
44.99999618530273
 50
270.0
  0
INSERT
  5
539
330
532
100
AcDbEntity
  8
寸法
 62
     3
100
AcDbBlockReference
  2
EX_NORM
 10
2611.00000000006
 20
1269.5
 30
0.0
 41
44.99999618530273
 42
44.99999618530273
 43
44.99999618530273
 50
90.0
  0
MTEXT
  5
53A
330
532
100
AcDbEntity
  8
寸法
 62
     2
100
AcDbMText
 10
2575.750000089467
 20
1106.499999999998
 30
0.0
 40
59.99999618530273
 41
0.0
 71
     5
 72
     1
  1
350（壁給水）
  7
EXCADDIM1
 11
4.724169043383025E-15
 21
1.0
 31
0.0
  0
POINT
  5
53B
330
532
100
AcDbEntity
  8
DEFPOINTS
 62
     0
100
AcDbPoint
 10
2491.00000000006
 20
919.5
 30
0.0
  0
POINT
  5
53C
330
532
100
AcDbEntity
  8
DEFPOINTS
 62
     0
100
AcDbPoint
 10
2499.00000000006
 20
1269.5
 30
0.0
  0
POINT
  5
53D
330
532
100
AcDbEntity
  8
DEFPOINTS
 62
     0
100
AcDbPoint
 10
2611.00000000006
 20
1269.5
 30
0.0
  0
ENDBLK
  5
534
330
532
100
AcDbEntity
  8
0
100
AcDbBlockEnd
  0
BLOCK
  5
540
330
53F
100
AcDbEntity
  8
0
100
AcDbBlockBegin
  2
*D24
 70
     1
 10
0.0
 20
0.0
 30
0.0
  3
*D24
  1

  0
LINE
  5
542
330
53F
100
AcDbEntity
  8
寸法
  6
CONTINUOUS
 62
     3
100
AcDbLine
 10
2501.499999821247
 20
919.5
 30
0.0
 11
2716.00000000006
 21
919.4999999999999
 31
0.0
  0
LINE
  5
543
330
53F
100
AcDbEntity
  8
寸法
  6
CONTINUOUS
 62
     3
100
AcDbLine
 10
2551.499999821247
 20
1389.5
 30
0.0
 11
2716.00000000006
 21
1389.5
 31
0.0
  0
LINE
  5
544
330
53F
100
AcDbEntity
  8
寸法
  6
CONTINUOUS
 62
     3
100
AcDbLine
 10
2701.00000000006
 20
964.4999961853026
 30
0.0
 11
2701.00000000006
 21
1344.500003814697
 31
0.0
  0
INSERT
  5
545
330
53F
100
AcDbEntity
  8
寸法
 62
     3
100
AcDbBlockReference
  2
EX_NORM
 10
2701.00000000006
 20
919.4999999999999
 30
0.0
 41
44.99999618530273
 42
44.99999618530273
 43
44.99999618530273
 50
270.0
  0
INSERT
  5
546
330
53F
100
AcDbEntity
  8
寸法
 62
     3
100
AcDbBlockReference
  2
EX_NORM
 10
2701.00000000006
 20
1389.5
 30
0.0
 41
44.99999618530273
 42
44.99999618530273
 43
44.99999618530273
 50
90.0
  0
MTEXT
  5
547
330
53F
100
AcDbEntity
  8
寸法
 62
     2
100
AcDbMText
 10
2665.750000089467
 20
1154.499999999998
 30
0.0
 40
59.99999618530273
 41
0.0
 71
     5
 72
     1
  1
470（壁排水）
  7
EXCADDIM1
 11
0.0
 21
1.0
 31
0.0
  0
POINT
  5
548
330
53F
100
AcDbEntity
  8
DEFPOINTS
 62
     0
100
AcDbPoint
 10
2491.00000000006
 20
919.5
 30
0.0
  0
POINT
  5
549
330
53F
100
AcDbEntity
  8
DEFPOINTS
 62
     0
100
AcDbPoint
 10
2541.00000000006
 20
1389.5
 30
0.0
  0
POINT
  5
54A
330
53F
100
AcDbEntity
  8
DEFPOINTS
 62
     0
100
AcDbPoint
 10
2701.00000000006
 20
1389.5
 30
0.0
  0
ENDBLK
  5
541
330
53F
100
AcDbEntity
  8
0
100
AcDbBlockEnd
  0
BLOCK
  5
54D
330
54C
100
AcDbEntity
  8
0
100
AcDbBlockBegin
  2
*D25
 70
     1
 10
0.0
 20
0.0
 30
0.0
  3
*D25
  1

  0
LINE
  5
54F
330
54C
100
AcDbEntity
  8
寸法
  6
CONTINUOUS
 62
     3
100
AcDbLine
 10
2501.499999821247
 20
919.5
 30
0.0
 11
2806.00000000006
 21
919.4999999999999
 31
0.0
  0
LINE
  5
550
330
54C
100
AcDbEntity
  8
寸法
  6
CONTINUOUS
 62
     3
100
AcDbLine
 10
2534.000005543247
 20
1449.5
 30
0.0
 11
2806.00000000006
 21
1449.5
 31
0.0
  0
LINE
  5
551
330
54C
100
AcDbEntity
  8
寸法
  6
CONTINUOUS
 62
     3
100
AcDbLine
 10
2791.00000000006
 20
964.4999961853026
 30
0.0
 11
2791.00000000006
 21
1404.500003814697
 31
0.0
  0
INSERT
  5
552
330
54C
100
AcDbEntity
  8
寸法
 62
     3
100
AcDbBlockReference
  2
EX_NORM
 10
2791.00000000006
 20
919.4999999999999
 30
0.0
 41
44.99999618530273
 42
44.99999618530273
 43
44.99999618530273
 50
270.0
  0
INSERT
  5
553
330
54C
100
AcDbEntity
  8
寸法
 62
     3
100
AcDbBlockReference
  2
EX_NORM
 10
2791.00000000006
 20
1449.5
 30
0.0
 41
44.99999618530273
 42
44.99999618530273
 43
44.99999618530273
 50
90.0
  0
MTEXT
  5
554
330
54C
100
AcDbEntity
  8
寸法
 62
     2
100
AcDbMText
 10
2755.750000089467
 20
1184.499999999998
 30
0.0
 40
59.99999618530273
 41
0.0
 71
     5
 72
     1
  1
530（壁固定）
  7
EXCADDIM1
 11
0.0
 21
1.0
 31
0.0
  0
POINT
  5
555
330
54C
100
AcDbEntity
  8
DEFPOINTS
 62
     0
100
AcDbPoint
 10
2491.00000000006
 20
919.5
 30
0.0
  0
POINT
  5
556
330
54C
100
AcDbEntity
  8
DEFPOINTS
 62
     0
100
AcDbPoint
 10
2523.500005722061
 20
1449.5
 30
0.0
  0
POINT
  5
557
330
54C
100
AcDbEntity
  8
DEFPOINTS
 62
     0
100
AcDbPoint
 10
2791.00000000006
 20
1449.5
 30
0.0
  0
ENDBLK
  5
54E
330
54C
100
AcDbEntity
  8
0
100
AcDbBlockEnd
  0
BLOCK
  5
561
330
560
100
AcDbEntity
  8
0
100
AcDbBlockBegin
  2
*D26
 70
     1
 10
0.0
 20
0.0
 30
0.0
  3
*D26
  1

  0
LINE
  5
563
330
560
100
AcDbEntity
  8
寸法
  6
CONTINUOUS
 62
     3
100
AcDbLine
 10
766.0000000030582
 20
1435.200000178913
 30
0.0
 11
766.0000000030582
 21
1233.0
 31
0.0
  0
LINE
  5
564
330
560
100
AcDbEntity
  8
寸法
  6
CONTINUOUS
 62
     3
100
AcDbLine
 10
1156.00000000006
 20
1435.200000178913
 30
0.0
 11
1156.00000000006
 21
1233.0
 31
0.0
  0
LINE
  5
565
330
560
100
AcDbEntity
  8
寸法
  6
CONTINUOUS
 62
     3
100
AcDbLine
 10
810.9999961883609
 20
1248.0
 30
0.0
 11
1111.000003814758
 21
1248.0
 31
0.0
  0
INSERT
  5
566
330
560
100
AcDbEntity
  8
寸法
 62
     3
100
AcDbBlockReference
  2
EX_NORM
 10
766.0000000030582
 20
1248.0
 30
0.0
 41
44.99999618530273
 42
44.99999618530273
 43
44.99999618530273
 50
180.0
  0
INSERT
  5
567
330
560
100
AcDbEntity
  8
寸法
 62
     3
100
AcDbBlockReference
  2
EX_NORM
 10
1156.00000000006
 20
1248.0
 30
0.0
 41
44.99999618530273
 42
44.99999618530273
 43
44.99999618530273
  0
MTEXT
  5
568
330
560
100
AcDbEntity
  8
寸法
 62
     2
100
AcDbMText
 10
961.0000000015596
 20
1283.249999910593
 30
0.0
 40
59.99999618530273
 41
0.0
 71
     5
 72
     1
  1
390（壁固定）
  7
EXCADDIM1
  0
POINT
  5
569
330
560
100
AcDbEntity
  8
DEFPOINTS
 62
     0
100
AcDbPoint
 10
766.0000000030582
 20
1445.700000000099
 30
0.0
  0
POINT
  5
56A
330
560
100
AcDbEntity
  8
DEFPOINTS
 62
     0
100
AcDbPoint
 10
1156.00000000006
 20
1445.700000000099
 30
0.0
  0
POINT
  5
56B
330
560
100
AcDbEntity
  8
DEFPOINTS
 62
     0
100
AcDbPoint
 10
1156.00000000006
 20
1248.0
 30
0.0
  0
ENDBLK
  5
562
330
560
100
AcDbEntity
  8
0
100
AcDbBlockEnd
  0
BLOCK
  5
56E
330
56D
100
AcDbEntity
  8
0
100
AcDbBlockBegin
  2
*D27
 70
     1
 10
0.0
 20
0.0
 30
0.0
  3
*D27
  1

  0
LINE
  5
570
330
56D
100
AcDbEntity
  8
寸法
  6
CONTINUOUS
 62
     3
100
AcDbLine
 10
661.0000000000041
 20
2679.999999821226
 30
0.0
 11
661.0000000000041
 21
2863.0
 31
0.0
  0
LINE
  5
571
330
56D
100
AcDbEntity
  8
寸法
  6
CONTINUOUS
 62
     3
100
AcDbLine
 10
1261.000000000002
 20
2679.999999821226
 30
0.0
 11
1261.000000000002
 21
2863.0
 31
0.0
  0
LINE
  5
572
330
56D
100
AcDbEntity
  8
寸法
  6
CONTINUOUS
 62
     3
100
AcDbLine
 10
705.9999961853068
 20
2848.0
 30
0.0
 11
1216.0000038147
 21
2848.0
 31
0.0
  0
INSERT
  5
573
330
56D
100
AcDbEntity
  8
寸法
 62
     3
100
AcDbBlockReference
  2
EX_NORM
 10
661.0000000000041
 20
2848.0
 30
0.0
 41
44.99999618530273
 42
44.99999618530273
 43
44.99999618530273
 50
180.0
  0
INSERT
  5
574
330
56D
100
AcDbEntity
  8
寸法
 62
     3
100
AcDbBlockReference
  2
EX_NORM
 10
1261.000000000002
 20
2848.0
 30
0.0
 41
44.99999618530273
 42
44.99999618530273
 43
44.99999618530273
  0
MTEXT
  5
575
330
56D
100
AcDbEntity
  8
寸法
 62
     2
100
AcDbMText
 10
961.0000000000034
 20
2883.249999910593
 30
0.0
 40
59.99999618530273
 41
0.0
 71
     5
 72
     1
  1
600
  7
EXCADDIM1
  0
POINT
  5
576
330
56D
100
AcDbEntity
  8
DEFPOINTS
 62
     0
100
AcDbPoint
 10
661.0000000000041
 20
2669.50000000004
 30
0.0
  0
POINT
  5
577
330
56D
100
AcDbEntity
  8
DEFPOINTS
 62
     0
100
AcDbPoint
 10
1261.000000000002
 20
2669.50000000004
 30
0.0
  0
POINT
  5
578
330
56D
100
AcDbEntity
  8
DEFPOINTS
 62
     0
100
AcDbPoint
 10
1261.000000000002
 20
2848.0
 30
0.0
  0
ENDBLK
  5
56F
330
56D
100
AcDbEntity
  8
0
100
AcDbBlockEnd
  0
BLOCK
  5
584
330
583
100
AcDbEntity
  8
0
100
AcDbBlockBegin
  2
*D28
 70
     1
 10
0.0
 20
0.0
 30
0.0
  3
*D28
  1

  0
LINE
  5
586
330
583
100
AcDbEntity
  8
寸法
  6
CONTINUOUS
 62
     3
100
AcDbLine
 10
1271.499999821192
 20
2669.5
 30
0.0
 11
1396.0
 21
2669.5
 31
0.0
  0
LINE
  5
587
330
583
100
AcDbEntity
  8
寸法
  6
CONTINUOUS
 62
     3
100
AcDbLine
 10
1271.499999821192
 20
2069.5
 30
0.0
 11
1396.0
 21
2069.5
 31
0.0
  0
LINE
  5
588
330
583
100
AcDbEntity
  8
寸法
  6
CONTINUOUS
 62
     3
100
AcDbLine
 10
1381.0
 20
2624.500003814697
 30
0.0
 11
1381.0
 21
2114.499996185303
 31
0.0
  0
INSERT
  5
589
330
583
100
AcDbEntity
  8
寸法
 62
     3
100
AcDbBlockReference
  2
EX_NORM
 10
1381.0
 20
2669.5
 30
0.0
 41
44.99999618530273
 42
44.99999618530273
 43
44.99999618530273
 50
90.0
  0
INSERT
  5
58A
330
583
100
AcDbEntity
  8
寸法
 62
     3
100
AcDbBlockReference
  2
EX_NORM
 10
1381.0
 20
2069.5
 30
0.0
 41
44.99999618530273
 42
44.99999618530273
 43
44.99999618530273
 50
270.0
  0
MTEXT
  5
58B
330
583
100
AcDbEntity
  8
寸法
 62
     2
100
AcDbMText
 10
1345.750000089407
 20
2369.499999999999
 30
0.0
 40
59.99999618530273
 41
0.0
 71
     5
 72
     1
  1
600
  7
EXCADDIM1
 11
0.0
 21
1.0
 31
0.0
  0
POINT
  5
58C
330
583
100
AcDbEntity
  8
DEFPOINTS
 62
     0
100
AcDbPoint
 10
1261.000000000006
 20
2669.5
 30
0.0
  0
POINT
  5
58D
330
583
100
AcDbEntity
  8
DEFPOINTS
 62
     0
100
AcDbPoint
 10
1261.000000000006
 20
2069.5
 30
0.0
  0
POINT
  5
58E
330
583
100
AcDbEntity
  8
DEFPOINTS
 62
     0
100
AcDbPoint
 10
1381.0
 20
2069.5
 30
0.0
  0
ENDBLK
  5
585
330
583
100
AcDbEntity
  8
0
100
AcDbBlockEnd
  0
BLOCK
  5
591
330
590
100
AcDbEntity
  8
0
100
AcDbBlockBegin
  2
*D29
 70
     1
 10
0.0
 20
0.0
 30
0.0
  3
*D29
  1

  0
LINE
  5
593
330
590
100
AcDbEntity
  8
寸法
  6
CONTINUOUS
 62
     3
100
AcDbLine
 10
1283.500000000006
 20
2669.5
 30
0.0
 11
1579.500000000002
 21
2669.5
 31
0.0
  0
LINE
  5
594
330
590
100
AcDbEntity
  8
寸法
  6
CONTINUOUS
 62
     3
100
AcDbLine
 10
1557.000000000002
 20
964.4999961853018
 30
0.0
 11
1557.000000000002
 21
2624.500003814697
 31
0.0
  0
INSERT
  5
595
330
590
100
AcDbEntity
  8
寸法
 62
     3
100
AcDbBlockReference
  2
EX_NORM
 10
1557.000000000002
 20
919.4999999999991
 30
0.0
 41
44.99999618530273
 42
44.99999618530273
 43
44.99999618530273
 50
270.0
  0
INSERT
  5
596
330
590
100
AcDbEntity
  8
寸法
 62
     3
100
AcDbBlockReference
  2
EX_NORM
 10
1557.000000000002
 20
2669.5
 30
0.0
 41
44.99999618530273
 42
44.99999618530273
 43
44.99999618530273
 50
90.0
  0
MTEXT
  5
597
330
590
100
AcDbEntity
  8
寸法
 62
     2
100
AcDbMText
 10
1519.500000000001
 20
1794.499999999998
 30
0.0
 40
59.99999618530273
 41
0.0
 71
     5
 72
     1
  1
（1750）
  7
EXCADDIM1
 11
0.0
 21
1.0
 31
0.0
  0
POINT
  5
598
330
590
100
AcDbEntity
  8
DEFPOINTS
 62
     0
100
AcDbPoint
 10
1243.000000000106
 20
919.4999999999991
 30
0.0
  0
POINT
  5
599
330
590
100
AcDbEntity
  8
DEFPOINTS
 62
     0
100
AcDbPoint
 10
1261.000000000006
 20
2669.5
 30
0.0
  0
POINT
  5
59A
330
590
100
AcDbEntity
  8
DEFPOINTS
 62
     0
100
AcDbPoint
 10
1557.000000000002
 20
2669.5
 30
0.0
  0
ENDBLK
  5
592
330
590
100
AcDbEntity
  8
0
100
AcDbBlockEnd
  0
BLOCK
  5
59D
330
59C
100
AcDbEntity
  8
0
100
AcDbBlockBegin
  2
*D30
 70
     1
 10
0.0
 20
0.0
 30
0.0
  3
*D30
  1

  0
LINE
  5
59F
330
59C
100
AcDbEntity
  8
寸法
  6
CONTINUOUS
 62
     3
100
AcDbLine
 10
2448.599999999955
 20
2641.19999982119
 30
0.0
 11
2448.599999999955
 21
2747.499999999999
 31
0.0
  0
LINE
  5
5A0
330
59C
100
AcDbEntity
  8
寸法
  6
CONTINUOUS
 62
     3
100
AcDbLine
 10
2448.599999999955
 20
2732.499999999999
 30
0.0
 11
2490.999999999955
 21
2732.499999999999
 31
0.0
  0
LINE
  5
5A1
330
59C
100
AcDbEntity
  8
寸法
  6
CONTINUOUS
 62
     3
100
AcDbLine
 10
2403.600003814653
 20
2732.499999999999
 30
0.0
 11
2358.60000762935
 21
2732.499999999999
 31
0.0
  0
LINE
  5
5A2
330
59C
100
AcDbEntity
  8
寸法
  6
CONTINUOUS
 62
     3
100
AcDbLine
 10
2535.999996185258
 20
2732.499999999999
 30
0.0
 11
2580.99999237056
 21
2732.499999999999
 31
0.0
  0
INSERT
  5
5A3
330
59C
100
AcDbEntity
  8
寸法
 62
     3
100
AcDbBlockReference
  2
EX_NORM
 10
2448.599999999955
 20
2732.499999999999
 30
0.0
 41
44.99999618530273
 42
44.99999618530273
 43
44.99999618530273
  0
INSERT
  5
5A4
330
59C
100
AcDbEntity
  8
寸法
 62
     3
100
AcDbBlockReference
  2
EX_NORM
 10
2490.999999999955
 20
2732.499999999999
 30
0.0
 41
44.99999618530273
 42
44.99999618530273
 43
44.99999618530273
 50
180.0
  0
MTEXT
  5
5A5
330
59C
100
AcDbEntity
  8
寸法
 62
     2
100
AcDbMText
 10
2588.499999999955
 20
2767.749999910592
 30
0.0
 40
59.99999618530273
 41
0.0
 71
     5
 72
     1
  1
43
  7
EXCADDIM1
  0
POINT
  5
5A6
330
59C
100
AcDbEntity
  8
DEFPOINTS
 62
     0
100
AcDbPoint
 10
2448.599999999955
 20
2630.700000000004
 30
0.0
  0
POINT
  5
5A7
330
59C
100
AcDbEntity
  8
DEFPOINTS
 62
     0
100
AcDbPoint
 10
2490.999999999955
 20
2633.519237886404
 30
0.0
  0
POINT
  5
5A8
330
59C
100
AcDbEntity
  8
DEFPOINTS
 62
     0
100
AcDbPoint
 10
2490.999999999955
 20
2732.499999999999
 30
0.0
  0
ENDBLK
  5
59E
330
59C
100
AcDbEntity
  8
0
100
AcDbBlockEnd
  0
BLOCK
  5
5B4
330
5B3
100
AcDbEntity
  8
0
100
AcDbBlockBegin
  2
*D31
 70
     1
 10
0.0
 20
0.0
 30
0.0
  3
*D31
  1

  0
LINE
  5
5B6
330
5B3
100
AcDbEntity
  8
寸法
  6
CONTINUOUS
 62
     3
100
AcDbLine
 10
2501.499999821141
 20
919.5000000000036
 30
0.0
 11
2910.999999999955
 21
919.5000000000036
 31
0.0
  0
LINE
  5
5B7
330
5B3
100
AcDbEntity
  8
寸法
  6
CONTINUOUS
 62
     3
100
AcDbLine
 10
2895.999999999955
 20
964.4999961853064
 30
0.0
 11
2895.999999999955
 21
2044.500003814701
 31
0.0
  0
INSERT
  5
5B8
330
5B3
100
AcDbEntity
  8
寸法
 62
     3
100
AcDbBlockReference
  2
EX_NORM
 10
2895.999999999955
 20
919.5000000000036
 30
0.0
 41
44.99999618530273
 42
44.99999618530273
 43
44.99999618530273
 50
270.0
  0
INSERT
  5
5B9
330
5B3
100
AcDbEntity
  8
寸法
 62
     3
100
AcDbBlockReference
  2
EX_NORM
 10
2895.999999999955
 20
2089.500000000004
 30
0.0
 41
44.99999618530273
 42
44.99999618530273
 43
44.99999618530273
 50
90.0
  0
MTEXT
  5
5BA
330
5B3
100
AcDbEntity
  8
寸法
 62
     2
100
AcDbMText
 10
2860.750000089362
 20
1504.500000000004
 30
0.0
 40
59.99999618530273
 41
0.0
 71
     5
 72
     1
  1
（1170）
  7
EXCADDIM1
 11
0.0
 21
1.0
 31
0.0
  0
POINT
  5
5BB
330
5B3
100
AcDbEntity
  8
DEFPOINTS
 62
     0
100
AcDbPoint
 10
2490.999999999955
 20
919.5000000000036
 30
0.0
  0
POINT
  5
5BC
330
5B3
100
AcDbEntity
  8
DEFPOINTS
 62
     0
100
AcDbPoint
 10
2531.799999999756
 20
2089.500000000004
 30
0.0
  0
POINT
  5
5BD
330
5B3
100
AcDbEntity
  8
DEFPOINTS
 62
     0
100
AcDbPoint
 10
2895.999999999955
 20
2089.500000000004
 30
0.0
  0
ENDBLK
  5
5B5
330
5B3
100
AcDbEntity
  8
0
100
AcDbBlockEnd
  0
BLOCK
  5
5C0
330
5BF
100
AcDbEntity
  8
0
100
AcDbBlockBegin
  2
*D32
 70
     1
 10
0.0
 20
0.0
 30
0.0
  3
*D32
  1

  0
LINE
  5
5C2
330
5BF
100
AcDbEntity
  8
寸法
  6
CONTINUOUS
 62
     3
100
AcDbLine
 10
961.0000000000649
 20
3845.999999642386
 30
0.0
 11
961.0000000000649
 21
4020.0
 31
0.0
  0
LINE
  5
5C3
330
5BF
100
AcDbEntity
  8
寸法
  6
CONTINUOUS
 62
     3
100
AcDbLine
 10
1171.000000000105
 20
3853.999999642386
 30
0.0
 11
1171.000000000105
 21
4020.0
 31
0.0
  0
LINE
  5
5C4
330
5BF
100
AcDbEntity
  8
寸法
  6
CONTINUOUS
 62
     3
100
AcDbLine
 10
1005.999996185368
 20
4005.0
 30
0.0
 11
1126.000003814802
 21
4005.0
 31
0.0
  0
INSERT
  5
5C5
330
5BF
100
AcDbEntity
  8
寸法
 62
     3
100
AcDbBlockReference
  2
EX_NORM
 10
961.0000000000649
 20
4005.0
 30
0.0
 41
44.99999618530273
 42
44.99999618530273
 43
44.99999618530273
 50
180.0
  0
INSERT
  5
5C6
330
5BF
100
AcDbEntity
  8
寸法
 62
     3
100
AcDbBlockReference
  2
EX_NORM
 10
1171.000000000105
 20
4005.0
 30
0.0
 41
44.99999618530273
 42
44.99999618530273
 43
44.99999618530273
  0
MTEXT
  5
5C7
330
5BF
100
AcDbEntity
  8
寸法
 62
     2
100
AcDbMText
 10
1384.000000000126
 20
4040.249999910593
 30
0.0
 40
59.99999618530273
 41
0.0
 71
     5
 72
     1
  1
210（壁給水）
  7
EXCADDIM1
  0
POINT
  5
5C8
330
5BF
100
AcDbEntity
  8
DEFPOINTS
 62
     0
100
AcDbPoint
 10
961.0000000000649
 20
3835.4999998212
 30
0.0
  0
POINT
  5
5C9
330
5BF
100
AcDbEntity
  8
DEFPOINTS
 62
     0
100
AcDbPoint
 10
1171.000000000105
 20
3843.4999998212
 30
0.0
  0
POINT
  5
5CA
330
5BF
100
AcDbEntity
  8
DEFPOINTS
 62
     0
100
AcDbPoint
 10
1171.000000000105
 20
4005.0
 30
0.0
  0
ENDBLK
  5
5C1
330
5BF
100
AcDbEntity
  8
0
100
AcDbBlockEnd
  0
BLOCK
  5
5CD
330
5CC
100
AcDbEntity
  8
0
100
AcDbBlockBegin
  2
*D33
 70
     1
 10
0.0
 20
0.0
 30
0.0
  3
*D33
  1

  0
LINE
  5
5CF
330
5CC
100
AcDbEntity
  8
寸法
  6
CONTINUOUS
 62
     3
100
AcDbLine
 10
961.0000000000551
 20
859.0000001787939
 30
0.0
 11
961.0000000000551
 21
694.5
 31
0.0
  0
LINE
  5
5D0
330
5CC
100
AcDbEntity
  8
寸法
  6
CONTINUOUS
 62
     3
100
AcDbLine
 10
1171.000000000095
 20
890.5000003576239
 30
0.0
 11
1171.000000000095
 21
694.5
 31
0.0
  0
LINE
  5
5D1
330
5CC
100
AcDbEntity
  8
寸法
  6
CONTINUOUS
 62
     3
100
AcDbLine
 10
1005.999996185358
 20
709.5
 30
0.0
 11
1126.000003814792
 21
709.5
 31
0.0
  0
INSERT
  5
5D2
330
5CC
100
AcDbEntity
  8
寸法
 62
     3
100
AcDbBlockReference
  2
EX_NORM
 10
961.0000000000551
 20
709.5
 30
0.0
 41
44.99999618530273
 42
44.99999618530273
 43
44.99999618530273
 50
180.0
  0
INSERT
  5
5D3
330
5CC
100
AcDbEntity
  8
寸法
 62
     3
100
AcDbBlockReference
  2
EX_NORM
 10
1171.000000000095
 20
709.5
 30
0.0
 41
44.99999618530273
 42
44.99999618530273
 43
44.99999618530273
  0
MTEXT
  5
5D4
330
5CC
100
AcDbEntity
  8
寸法
 62
     2
100
AcDbMText
 10
1388.500000000116
 20
744.749999910593
 30
0.0
 40
59.99999618530273
 41
0.0
 71
     5
 72
     1
  1
210（床給水）
  7
EXCADDIM1
  0
POINT
  5
5D5
330
5CC
100
AcDbEntity
  8
DEFPOINTS
 62
     0
100
AcDbPoint
 10
961.0000000000551
 20
869.49999999998
 30
0.0
  0
POINT
  5
5D6
330
5CC
100
AcDbEntity
  8
DEFPOINTS
 62
     0
100
AcDbPoint
 10
1171.000000000095
 20
901.00000017881
 30
0.0
  0
POINT
  5
5D7
330
5CC
100
AcDbEntity
  8
DEFPOINTS
 62
     0
100
AcDbPoint
 10
1171.000000000095
 20
709.5
 30
0.0
  0
ENDBLK
  5
5CE
330
5CC
100
AcDbEntity
  8
0
100
AcDbBlockEnd
  0
ENDSEC
  0
SECTION
  2
ENTITIES
  0
LINE
  5
A9
330
1F
100
AcDbEntity
  8
枠_表
  6
CONTINUOUS
 62
     7
100
AcDbLine
 10
261.0000000000602
 20
139.4999999999993
 30
0.0
 11
2991.00000000006
 21
139.4999999999993
 31
0.0
  0
HATCH
  5
AA
330
1F
100
AcDbEntity
  8
枠_表
  6
CONTINUOUS
 62
     3
100
AcDbHatch
 10
0.0
 20
0.0
 30
0.0
210
0.0
220
0.0
230
1.0
  2
SOLID
 70
     1
 71
     1
 91
        1
 92
        3
 72
     1
 73
     1
 93
       10
 10
1162.08789859994
 20
184.82548994631
 42
-0.017362223501556
 10
1162.219523599939
 20
264.2763649463099
 42
-0.0267627618865285
 10
1162.219523599939
 20
264.2763649463111
 42
0.0737939047395297
 10
1181.59877359994
 20
264.3573649463108
 42
0.0183878899657109
 10
1180.819148599939
 20
192.7229899463116
 42
-0.1144749489451909
 10
1177.680398599938
 20
177.636739946309
 42
-0.1929163439413163
 10
1162.74602359994
 20
165.9119899463099
 42
-0.0603888289562337
 10
1154.828273599939
 20
163.9376149463101
 42
0.0
 10
1152.975398599939
 20
169.5772399463091
 42
0.0860918333465722
 10
1158.513773599939
 20
172.52361494631
 42
0.1331843103855141
 97
        0
 75
     0
 76
     1
 98
        1
 10
0.0
 20
0.0
  0
HATCH
  5
AB
330
1F
100
AcDbEntity
  8
枠_表
  6
CONTINUOUS
 62
     3
100
AcDbHatch
 10
0.0
 20
0.0
 30
0.0
210
0.0
220
0.0
230
1.0
  2
SOLID
 70
     1
 71
     1
 91
        1
 92
        3
 72
     1
 73
     1
 93
       16
 10
1250.803148599939
 20
183.1548649463109
 42
-0.0386228372648426
 10
1250.712023599939
 20
231.967489946311
 42
-0.0398707891902887
 10
1259.57139859994
 20
232.0079899463121
 42
-0.1256886216044368
 10
1259.166398599939
 20
223.725739946312
 42
-0.0367815758121429
 10
1259.166398599939
 20
223.7257399463099
 42
-0.268021535028829
 10
1277.037023599941
 20
233.0002399463111
 42
-0.2571134422124888
 10
1289.257898599939
 20
226.9556149463115
 42
-0.1522526366014298
 10
1292.36627359994
 20
216.9014899463101
 42
-0.0158825412051521
 10
1292.143523599937
 20
183.1042399463118
 42
-0.0285251271418421
 10
1283.58789859994
 20
183.1042399463092
 42
-0.0452212723224612
 10
1284.02327359994
 20
214.3297399463106
 42
-0.0315567291532142
 10
1281.370523599938
 20
223.5536149463122
 42
-0.1476272403790709
 10
1264.097273599939
 20
224.8799899463091
 42
-0.3908144705745794
 10
1259.227148599939
 20
212.760364946309
 42
-0.2046259928850854
 10
1259.227148599939
 20
212.7603649463106
 42
0.0
 10
1259.986523599941
 20
183.0738649463112
 42
-0.0304995761723369
 97
        0
 75
     0
 76
     1
 98
        1
 10
0.0
 20
0.0
  0
HATCH
  5
AC
330
1F
100
AcDbEntity
  8
枠_表
  6
CONTINUOUS
 62
     3
100
AcDbHatch
 10
0.0
 20
0.0
 30
0.0
210
0.0
220
0.0
230
1.0
  2
SOLID
 70
     1
 71
     1
 91
        2
 92
        1
 93
        1
 72
     2
 10
1314.428271057567
 20
249.8753200310557
 40
5.358501700154826
 50
0.0
 51
360.0
 73
     1
 97
        0
 92
        3
 72
     1
 73
     1
 93
        3
 10
1309.639523599939
 20
232.0484899463118
 42
0.1200283885712921
 10
1318.954523599938
 20
183.0941149463105
 42
-0.0401820615762149
 10
1309.649648599939
 20
183.0637399463094
 42
-0.0237521668114666
 97
        0
 75
     0
 76
     1
 98
        1
 10
0.0
 20
0.0
  0
HATCH
  5
AD
330
1F
100
AcDbEntity
  8
枠_表
  6
CONTINUOUS
 62
     3
100
AcDbHatch
 10
0.0
 20
0.0
 30
0.0
210
0.0
220
0.0
230
1.0
  2
SOLID
 70
     1
 71
     1
 91
        1
 92
        3
 72
     1
 73
     1
 93
       30
 10
1361.601023599939
 20
230.0032399463128
 42
-0.0009362235736497
 10
1361.601023599937
 20
230.0032399463103
 42
0.0681165430304653
 10
1359.145640230161
 20
222.6423649463095
 42
0.0
 10
1349.89652359994
 20
228.9704899463122
 42
-0.302112590907374
 10
1349.896523599939
 20
228.9704899463095
 42
0.0
 10
1340.571398599939
 20
221.822239946312
 42
-0.3704245237568778
 10
1340.571398599938
 20
221.8222399463116
 42
0.0
 10
1341.05739859994
 20
217.0432399463103
 42
-0.0262822419456939
 10
1346.80839859994
 20
212.4464899463116
 42
-0.180060563604375
 10
1355.98164859994
 20
209.6519899463096
 42
-0.0298130817160724
 10
1355.981648599939
 20
209.6519899463108
 42
-0.3153987453686078
 10
1364.436023599941
 20
199.9826149463104
 42
0.0
 10
1364.38539859994
 20
195.6592399463116
 42
-0.3510306079065168
 10
1348.08414859994
 20
181.990489946312
 42
0.0
 10
1343.325398599939
 20
181.9904899463108
 42
-0.1053356344842436
 10
1332.795398599939
 20
185.0279899463112
 42
0.1188608286962634
 10
1334.719148599939
 20
192.7229899463123
 42
0.0
 10
1346.26164859994
 20
185.6354899463113
 42
-0.2447573632916039
 10
1346.261648599939
 20
185.6354899463111
 42
0.0
 10
1357.39914859994
 20
193.4317399463096
 42
-0.3734162676407277
 10
1357.39914859994
 20
193.43173994631
 42
0.0
 10
1353.359273599939
 20
201.2178649463096
 42
-0.261219770190848
 10
1343.932898599939
 20
204.6401149463114
 42
-0.0572747914118363
 10
1343.93289859994
 20
204.6401149463095
 42
-0.1189658875692221
 10
1336.440398599938
 20
209.0343649463096
 42
-0.2005226878639636
 10
1333.301648599938
 20
216.1117399463433
 42
0.0
 10
1333.25102359994
 20
218.794864946309
 42
-0.2622894489606957
 10
1341.30039859994
 20
231.0967399463106
 42
-0.0988461274137808
 10
1348.833398599939
 20
232.909114946309
 42
0.0
 10
1351.627898599938
 20
232.9091149463105
 42
-0.0920156312561188
 97
        0
 75
     0
 76
     1
 98
        1
 10
0.0
 20
0.0
  0
HATCH
  5
AE
330
1F
100
AcDbEntity
  8
枠_表
  6
CONTINUOUS
 62
     3
100
AcDbHatch
 10
0.0
 20
0.0
 30
0.0
210
0.0
220
0.0
230
1.0
  2
SOLID
 70
     1
 71
     1
 91
        2
 92
        3
 72
     1
 73
     1
 93
       27
 10
1200.259148599939
 20
227.0467399463097
 42
-0.1769427732109284
 10
1200.259148599939
 20
227.0467399463098
 42
0.0
 10
1200.259148599939
 20
221.5792399463112
 42
0.0
 10
1201.57539859994
 20
221.5792399463107
 42
-0.207533601427307
 10
1210.121134184419
 20
227.9898538693564
 42
-0.1226604740888933
 10
1217.67414859994
 20
228.1503649463112
 42
-0.3213715781137954
 10
1225.482492033378
 20
218.5659771567722
 42
-0.064704004662446
 10
1225.52102359994
 20
213.4994899463109
 42
-0.257798906330806
 10
1223.931398599939
 20
211.57573994631
 42
-0.056602577721096
 10
1220.529398599939
 20
210.3911149463123
 42
-0.0166741689362636
 10
1208.05539859994
 20
208.0218649463094
 42
0.1186092302783404
 10
1199.82377359994
 20
204.0731149463118
 42
0.1699204224386695
 10
1196.239523599939
 20
198.07911494631
 42
0.1006533494296199
 10
1195.908130019436
 20
192.8780332643591
 42
0.1675695228968024
 10
1199.15552359994
 20
185.9088649463119
 42
0.1376980079804242
 10
1205.058398599939
 20
182.4967399463105
 42
0.0719813663796923
 10
1207.741523599938
 20
182.0512399463121
 42
0.0
 10
1211.852273599939
 20
182.0512399463122
 42
0.1944607457809085
 10
1225.49064859994
 20
189.0678649463093
 42
0.1288538183665954
 10
1226.867648599938
 20
185.6253649463115
 42
0.2098387395261546
 10
1231.36314859994
 20
183.1447399463104
 42
0.0
 10
1234.623398599939
 20
183.1244899463105
 42
0.0945009641609563
 10
1239.33152359994
 20
184.126864946312
 42
0.0
 10
1239.331523599939
 20
186.4859899463093
 42
-0.2395739894657535
 10
1235.22077359994
 20
186.445489946309
 42
-0.2502312110031057
 10
1233.195773599937
 20
190.252489946313
 42
-0.0104343570771765
 10
1233.469148599941
 20
218.6429899463118
 42
0.4051015674140716
 97
        0
 92
        3
 72
     1
 73
     1
 93
        8
 10
1225.703273599939
 20
208.5382399463092
 42
-0.0339435190873666
 10
1225.703273599946
 20
208.5382399462927
 42
-0.0001110072973599
 10
1225.278023599941
 20
193.026739946309
 42
-0.2253076310552528
 10
1214.646773599939
 20
185.9291149463115
 42
0.0
 10
1212.044648599938
 20
185.9291149463098
 42
-0.3657967558150132
 10
1204.309148599939
 20
194.1506149463112
 42
0.0
 10
1204.30914859994
 20
197.0868649463121
 42
-0.2530797830369341
 10
1209.533648599939
 20
204.3161149463117
 42
-0.0724473624720066
 97
        0
 75
     0
 76
     1
 98
        1
 10
0.0
 20
0.0
  0
TEXT
  5
B0
330
1F
100
AcDbEntity
  8
枠_表
  6
CONTINUOUS
 62
     2
100
AcDbText
 10
1384.500000000068
 20
174.7500000000014
 30
0.0
 40
50.625
  1
ジャニス工業株式会社
 41
1.025641025641025
  7
EXCADTTF1
 72
     5
 11
2059.500000000068
 21
174.7500000000014
 31
0.0
100
AcDbText
  0
ARC
  5
B1
330
1F
100
AcDbEntity
  8
枠_表
  6
CONTINUOUS
 62
     3
100
AcDbCircle
 10
1216.902798618893
 20
206.4250933390315
 30
0.0
 40
26.50025272990596
100
AcDbArc
 50
88.77000393305703
 51
128.9068631829044
  0
ARC
  5
B2
330
1F
100
AcDbEntity
  8
枠_表
  6
CONTINUOUS
 62
     3
100
AcDbCircle
 10
1218.105940890483
 20
217.5287438959981
 30
0.0
 40
15.40356112671885
100
AcDbArc
 50
4.148222840814693
 51
92.36000944257292
  0
ARC
  5
B3
330
1F
100
AcDbEntity
  8
枠_表
  6
CONTINUOUS
 62
     3
100
AcDbCircle
 10
1913.475203758127
 20
197.8985765897608
 30
0.0
 40
680.3223983798493
100
AcDbArc
 50
178.2526643324597
 51
180.6439560401927
  0
ARC
  5
B4
330
1F
100
AcDbEntity
  8
枠_表
  6
CONTINUOUS
 62
     3
100
AcDbCircle
 10
1237.77359841697
 20
190.2454393170694
 30
0.0
 40
4.577830246610835
100
AcDbArc
 50
179.9117548191414
 51
236.1065985968857
  0
ARC
  5
B5
330
1F
100
AcDbEntity
  8
枠_表
  6
CONTINUOUS
 62
     3
100
AcDbCircle
 10
1237.236311768758
 20
190.5091783111618
 30
0.0
 40
4.5360728870472
100
AcDbArc
 50
243.6191685566582
 51
297.5097757939563
  0
LINE
  5
B6
330
1F
100
AcDbEntity
  8
枠_表
  6
CONTINUOUS
 62
     3
100
AcDbLine
 10
1239.33152359994
 20
184.126864946312
 30
0.0
 11
1239.33152359994
 21
186.485989946309
 31
0.0
  0
LINE
  5
B7
330
1F
100
AcDbEntity
  8
枠_表
  6
CONTINUOUS
 62
     3
100
AcDbLine
 10
1231.36314859994
 20
183.1447399463104
 30
0.0
 11
1234.623398599939
 21
183.1447399463104
 31
0.0
  0
ARC
  5
B8
330
1F
100
AcDbEntity
  8
枠_表
  6
CONTINUOUS
 62
     3
100
AcDbCircle
 10
1234.349383791902
 20
195.969676923454
 30
0.0
 40
12.84810930031341
100
AcDbArc
 50
271.2220539293239
 51
292.8159509797653
  0
ARC
  5
B9
330
1F
100
AcDbEntity
  8
枠_表
  6
CONTINUOUS
 62
     3
100
AcDbCircle
 10
1231.940660262283
 20
189.5051184792953
 30
0.0
 40
6.38654325930597
100
AcDbArc
 50
217.4081478714985
 51
264.8118660441384
  0
ARC
  5
BA
330
1F
100
AcDbEntity
  8
枠_表
  6
CONTINUOUS
 62
     3
100
AcDbCircle
 10
1232.747334083811
 20
189.9738891398579
 30
0.0
 40
7.31302701014583
100
AcDbArc
 50
187.1167640402297
 51
216.4860549324747
  0
ARC
  5
BB
330
1F
100
AcDbEntity
  8
枠_表
  6
CONTINUOUS
 62
     3
100
AcDbCircle
 10
1209.991956880115
 20
202.430103938525
 30
0.0
 40
20.46359880155898
100
AcDbArc
 50
275.2158792069686
 51
319.2336424873511
  0
LINE
  5
BC
330
1F
100
AcDbEntity
  8
枠_表
  6
CONTINUOUS
 62
     3
100
AcDbLine
 10
1207.741523599938
 20
182.0512399463121
 30
0.0
 11
1211.85227359994
 21
182.0512399463121
 31
0.0
  0
ARC
  5
BD
330
1F
100
AcDbEntity
  8
枠_表
  6
CONTINUOUS
 62
     3
100
AcDbCircle
 10
1207.939219610578
 20
191.5445241581108
 30
0.0
 40
9.49534248137679
100
AcDbArc
 50
252.3384873625213
 51
268.8069976857606
  0
ARC
  5
BE
330
1F
100
AcDbEntity
  8
枠_表
  6
CONTINUOUS
 62
     3
100
AcDbCircle
 10
1208.184442955597
 20
194.7166657158903
 30
0.0
 40
12.61343486634549
100
AcDbArc
 50
224.289750990011
 51
255.6505938786759
  0
ARC
  5
BF
330
1F
100
AcDbEntity
  8
枠_表
  6
CONTINUOUS
 62
     3
100
AcDbCircle
 10
1207.637299937388
 20
194.1022532359295
 30
0.0
 40
11.79288520689435
100
AcDbArc
 50
185.9586126338419
 51
224.0091989319859
  0
ARC
  5
C0
330
1F
100
AcDbEntity
  8
枠_表
  6
CONTINUOUS
 62
     3
100
AcDbCircle
 10
1208.861252785563
 20
194.6638068821608
 30
0.0
 40
13.07564058883004
100
AcDbArc
 50
164.8589457925044
 51
187.8495628504518
  0
ARC
  5
C1
330
1F
100
AcDbEntity
  8
枠_表
  6
CONTINUOUS
 62
     3
100
AcDbCircle
 10
1206.595856854587
 20
195.954949875121
 30
0.0
 40
10.57193055836883
100
AcDbArc
 50
129.8344892359069
 51
168.4089447024628
  0
ARC
  5
C2
330
1F
100
AcDbEntity
  8
枠_表
  6
CONTINUOUS
 62
     3
100
AcDbCircle
 10
1212.145520801432
 20
188.941272222429
 30
0.0
 40
19.5140492547738
100
AcDbArc
 50
102.0988446293839
 51
129.1556705448828
  0
ARC
  5
C3
330
1F
100
AcDbEntity
  8
枠_表
  6
CONTINUOUS
 62
     3
100
AcDbCircle
 10
1178.779514997932
 20
396.1803044662827
 30
0.0
 40
190.4223614055573
100
AcDbArc
 50
278.8438342053764
 51
282.6649181367123
  0
ARC
  5
C4
330
1F
100
AcDbEntity
  8
枠_表
  6
CONTINUOUS
 62
     3
100
AcDbCircle
 10
1217.014957516698
 20
225.9611044033113
 30
0.0
 40
15.96170002909176
100
AcDbArc
 50
282.7195832898965
 51
295.6781112778079
  0
ARC
  5
C5
330
1F
100
AcDbEntity
  8
枠_表
  6
CONTINUOUS
 62
     3
100
AcDbCircle
 10
1222.984643351066
 20
213.9766998756431
 30
0.0
 40
2.580882423421965
100
AcDbArc
 50
291.5204897073511
 51
349.3445900274031
  0
ARC
  5
C6
330
1F
100
AcDbEntity
  8
枠_表
  6
CONTINUOUS
 62
     3
100
AcDbCircle
 10
1206.008081035049
 20
215.8844805562694
 30
0.0
 40
19.65815626528382
100
AcDbArc
 50
353.0315250986587
 51
7.839947970678348
  0
ARC
  5
C7
330
1F
100
AcDbEntity
  8
枠_表
  6
CONTINUOUS
 62
     3
100
AcDbCircle
 10
1214.892511922718
 20
217.9112829230132
 30
0.0
 40
10.61019807939003
100
AcDbArc
 50
3.537639967999379
 51
74.8013566619203
  0
ARC
  5
C8
330
1F
100
AcDbEntity
  8
枠_表
  6
CONTINUOUS
 62
     3
100
AcDbCircle
 10
1214.21986436981
 20
212.9075745769524
 30
0.0
 40
15.62929101996345
100
AcDbArc
 50
77.23143261361693
 51
105.203415964315
  0
ARC
  5
C9
330
1F
100
AcDbEntity
  8
枠_表
  6
CONTINUOUS
 62
     3
100
AcDbCircle
 10
1213.238042655513
 20
214.9335287786823
 30
0.0
 40
13.42321657765079
100
AcDbArc
 50
103.4267945469744
 51
150.3242613737993
  0
LINE
  5
CA
330
1F
100
AcDbEntity
  8
枠_表
  6
CONTINUOUS
 62
     3
100
AcDbLine
 10
1200.259148599939
 20
227.0467399463098
 30
0.0
 11
1200.259148599939
 21
221.5792399463112
 31
0.0
  0
ARC
  5
CB
330
1F
100
AcDbEntity
  8
枠_表
  6
CONTINUOUS
 62
     3
100
AcDbCircle
 10
1057.715934784125
 20
190.1014142884173
 30
0.0
 40
104.505225747009
100
AcDbArc
 50
353.1274757312911
 51
357.106204490141
  0
ARC
  5
CC
330
1F
100
AcDbEntity
  8
枠_表
  6
CONTINUOUS
 62
     3
100
AcDbCircle
 10
420.5078281844609
 20
225.7796003758244
 30
0.0
 40
742.7100645598513
100
AcDbArc
 50
356.8390243485978
 51
2.971133813187157
  0
ARC
  5
CD
330
1F
100
AcDbEntity
  8
枠_表
  6
CONTINUOUS
 62
     3
100
AcDbCircle
 10
1150.639107974467
 20
180.5111277709364
 30
0.0
 40
11.2165377829595
100
AcDbArc
 50
314.592391474832
 51
344.9374073189123
  0
ARC
  5
CE
330
1F
100
AcDbEntity
  8
枠_表
  6
CONTINUOUS
 62
     3
100
AcDbCircle
 10
1147.25209345288
 20
187.0139789168968
 30
0.0
 40
18.35200500585038
100
AcDbArc
 50
288.1715191042997
 51
307.8537826235693
  0
LINE
  5
CF
330
1F
100
AcDbEntity
  8
枠_表
  6
CONTINUOUS
 62
     3
100
AcDbLine
 10
1154.828273599939
 20
163.9376149463101
 30
0.0
 11
1152.97539859994
 21
169.577239946309
 31
0.0
  0
ARC
  5
D0
330
1F
100
AcDbEntity
  8
枠_表
  6
CONTINUOUS
 62
     3
100
AcDbCircle
 10
1150.643362480062
 20
197.5834729373071
 30
0.0
 40
33.90512116232043
100
AcDbArc
 50
277.0901027239701
 51
290.9134154817058
  0
ARC
  5
D1
330
1F
100
AcDbEntity
  8
枠_表
  6
CONTINUOUS
 62
     3
100
AcDbCircle
 10
1155.584599182886
 20
190.4075277940228
 30
0.0
 40
25.52092032294173
100
AcDbArc
 50
286.2966123578915
 51
329.973223283839
  0
ARC
  5
D2
330
1F
100
AcDbEntity
  8
枠_表
  6
CONTINUOUS
 62
     3
100
AcDbCircle
 10
1146.734904268656
 20
191.944703532015
 30
0.0
 40
34.09312894671467
100
AcDbArc
 50
335.1860595856123
 51
1.308075913059364
  0
ARC
  5
D3
330
1F
100
AcDbEntity
  8
枠_表
  6
CONTINUOUS
 62
     3
100
AcDbCircle
 10
2154.813797120216
 20
217.9440541426277
 30
0.0
 40
974.3211367025408
100
AcDbArc
 50
177.2695926307304
 51
181.4833117237826
  0
ARC
  5
D4
330
1F
100
AcDbEntity
  8
枠_表
  6
CONTINUOUS
 62
     3
100
AcDbCircle
 10
1171.636230018405
 20
329.6126355783338
 30
0.0
 40
66.01138250235698
100
AcDbArc
 50
261.7986203004403
 51
278.6803384946418
  0
ARC
  5
D5
330
1F
100
AcDbEntity
  8
枠_表
  6
CONTINUOUS
 62
     3
100
AcDbCircle
 10
1208.408414903123
 20
268.1252071740744
 30
0.0
 40
62.04610222041025
100
AcDbArc
 50
278.4088456599976
 51
286.1851416003176
  0
ARC
  5
D6
330
1F
100
AcDbEntity
  8
枠_表
  6
CONTINUOUS
 62
     3
100
AcDbCircle
 10
1221.849097763719
 20
178.2478294001976
 30
0.0
 40
28.83098679232812
100
AcDbArc
 50
98.71271710191789
 51
115.2874718053599
  0
ARC
  5
D7
330
1F
100
AcDbEntity
  8
枠_表
  6
CONTINUOUS
 62
     3
100
AcDbCircle
 10
1213.605280025741
 20
195.8711218570784
 30
0.0
 40
9.375291501855795
100
AcDbArc
 50
115.7403688633493
 51
172.5491744442191
  0
LINE
  5
D8
330
1F
100
AcDbEntity
  8
枠_表
  6
CONTINUOUS
 62
     3
100
AcDbLine
 10
1204.309148599939
 20
197.0868649463091
 30
0.0
 11
1204.309148599939
 21
194.1506149463112
 31
0.0
  0
ARC
  5
D9
330
1F
100
AcDbEntity
  8
枠_表
  6
CONTINUOUS
 62
     3
100
AcDbCircle
 10
1213.043948023374
 20
194.6192070146662
 30
0.0
 40
8.747359572704955
100
AcDbArc
 50
183.0707787095794
 51
263.4402016072427
  0
LINE
  5
DA
330
1F
100
AcDbEntity
  8
枠_表
  6
CONTINUOUS
 62
     3
100
AcDbLine
 10
1212.044648599938
 20
185.9291149463115
 30
0.0
 11
1214.646773599939
 21
185.9291149463115
 31
0.0
  0
ARC
  5
DB
330
1F
100
AcDbEntity
  8
枠_表
  6
CONTINUOUS
 62
     3
100
AcDbCircle
 10
1212.486703614952
 20
200.6754734295293
 30
0.0
 40
14.90372405996874
100
AcDbArc
 50
278.3335103000368
 51
329.1221464187299
  0
ARC
  5
DC
330
1F
100
AcDbEntity
  8
枠_表
  6
CONTINUOUS
 62
     3
100
AcDbCircle
 10
-33708.02313326596
 20
1158.489786838173
 30
0.0
 40
34946.64001890887
100
AcDbArc
 50
358.4169008257799
 51
358.4423418242109
  0
ARC
  5
DD
330
1F
100
AcDbEntity
  8
枠_表
  6
CONTINUOUS
 62
     3
100
AcDbCircle
 10
1254.871317010461
 20
123.7603881767564
 30
0.0
 40
59.53363641627745
100
AcDbArc
 50
85.07099551674689
 51
93.91830029343228
  0
ARC
  5
DE
330
1F
100
AcDbEntity
  8
枠_表
  6
CONTINUOUS
 62
     3
100
AcDbCircle
 10
1370.113286842721
 20
196.3725220514721
 30
0.0
 40
110.9268148967239
100
AcDbArc
 50
179.8977458165987
 51
186.8855675734268
  0
ARC
  5
DF
330
1F
100
AcDbEntity
  8
枠_表
  6
CONTINUOUS
 62
     3
100
AcDbCircle
 10
1275.849258355024
 20
213.1192837707067
 30
0.0
 40
16.62598434477196
100
AcDbArc
 50
134.9787476233347
 51
181.2369872983282
  0
ARC
  5
E0
330
1F
100
AcDbEntity
  8
枠_表
  6
CONTINUOUS
 62
     3
100
AcDbCircle
 10
1272.015021780893
 20
214.8549409708016
 30
0.0
 40
12.77467585570504
100
AcDbArc
 50
42.91644474042847
 51
128.3015542351336
  0
ARC
  5
E1
330
1F
100
AcDbEntity
  8
枠_表
  6
CONTINUOUS
 62
     3
100
AcDbCircle
 10
1267.417110685343
 20
214.5472708232342
 30
0.0
 40
16.60758761616231
100
AcDbArc
 50
359.2495022237244
 51
32.84055016678327
  0
ARC
  5
E2
330
1F
100
AcDbEntity
  8
枠_表
  6
CONTINUOUS
 62
     3
100
AcDbCircle
 10
1036.676006797526
 20
202.1627006823689
 30
0.0
 40
247.6463350002882
100
AcDbArc
 50
355.5862454873798
 51
2.816115806820253
  0
ARC
  5
E3
330
1F
100
AcDbEntity
  8
枠_表
  6
CONTINUOUS
 62
     3
100
AcDbCircle
 10
1287.86571109994
 20
135.902289288415
 30
0.0
 40
47.39539878190116
100
AcDbArc
 50
84.82155189294139
 51
95.17844810705873
  0
ARC
  5
E4
330
1F
100
AcDbEntity
  8
枠_表
  6
CONTINUOUS
 62
     3
100
AcDbCircle
 10
1536.986450492609
 20
194.8601062108708
 30
0.0
 40
245.1249869780733
100
AcDbArc
 50
176.2131780319488
 51
182.7488833337936
  0
ARC
  5
E5
330
1F
100
AcDbEntity
  8
枠_表
  6
CONTINUOUS
 62
     3
100
AcDbCircle
 10
1200.287040181573
 20
213.4973662218204
 30
0.0
 40
92.14213631800438
100
AcDbArc
 50
358.4775281223095
 51
2.117232414210064
  0
ARC
  5
E6
330
1F
100
AcDbEntity
  8
枠_表
  6
CONTINUOUS
 62
     3
100
AcDbCircle
 10
1274.685827301788
 20
216.9428913677291
 30
0.0
 40
17.68049477190885
100
AcDbArc
 50
359.8658335690532
 51
34.49363429411157
  0
ARC
  5
E7
330
1F
100
AcDbEntity
  8
枠_表
  6
CONTINUOUS
 62
     3
100
AcDbCircle
 10
1277.65860861213
 20
218.8806997196991
 30
0.0
 40
14.1332156333331
100
AcDbArc
 50
34.84393737091607
 51
92.5207065423111
  0
ARC
  5
E8
330
1F
100
AcDbEntity
  8
枠_表
  6
CONTINUOUS
 62
     3
100
AcDbCircle
 10
1276.131160350446
 20
212.8913983227892
 30
0.0
 40
20.1292349498589
100
AcDbArc
 50
87.42068310381028
 51
147.4361518966862
  0
ARC
  5
E9
330
1F
100
AcDbEntity
  8
枠_表
  6
CONTINUOUS
 62
     3
100
AcDbCircle
 10
1315.586209109488
 20
225.1178522074588
 30
0.0
 40
56.43698250687272
100
AcDbArc
 50
172.9875214416311
 51
181.4134392789641
  0
ARC
  5
EA
330
1F
100
AcDbEntity
  8
枠_表
  6
CONTINUOUS
 62
     3
100
AcDbCircle
 10
1255.06242747925
 20
249.3310319721741
 30
0.0
 40
17.90024037819024
100
AcDbArc
 50
255.9341994177206
 51
284.5896440601899
  0
ARC
  5
EB
330
1F
100
AcDbEntity
  8
枠_表
  6
CONTINUOUS
 62
     3
100
AcDbCircle
 10
945.1765483008027
 20
206.9907088007619
 30
0.0
 40
306.5546709196609
100
AcDbArc
 50
355.5405243117485
 51
4.673398698656258
  0
LINE
  5
EC
330
1F
100
AcDbEntity
  8
枠_表
  6
CONTINUOUS
 62
     3
100
AcDbLine
 10
1259.227148599939
 20
212.7603649463106
 30
0.0
 11
1259.227148599939
 21
196.5704899463117
 31
0.0
  0
CIRCLE
  5
ED
330
1F
100
AcDbEntity
  8
枠_表
  6
CONTINUOUS
 62
     3
100
AcDbCircle
 10
1314.428271057567
 20
249.8753200310557
 30
0.0
 40
5.358501700154835
  0
ARC
  5
EE
330
1F
100
AcDbEntity
  8
枠_表
  6
CONTINUOUS
 62
     3
100
AcDbCircle
 10
1314.218411404223
 20
251.2998711537125
 30
0.0
 40
19.7884282326031
100
AcDbArc
 50
256.6209501743446
 51
283.9984576255729
  0
ARC
  5
EF
330
1F
100
AcDbEntity
  8
枠_表
  6
CONTINUOUS
 62
     3
100
AcDbCircle
 10
1314.621613405764
 20
85.1970627618482
 30
0.0
 40
97.99289227876633
100
AcDbArc
 50
87.46575055044718
 51
92.90832285102188
  0
ARC
  5
F0
330
1F
100
AcDbEntity
  8
枠_表
  6
CONTINUOUS
 62
     3
100
AcDbCircle
 10
1623.381070769398
 20
207.2821508609081
 30
0.0
 40
305.38595858835
100
AcDbArc
 50
175.3387608397566
 51
184.5428594926176
  0
ARC
  5
F1
330
1F
100
AcDbEntity
  8
枠_表
  6
CONTINUOUS
 62
     3
100
AcDbCircle
 10
977.5350863046439
 20
207.4874689149362
 30
0.0
 40
333.0114127553719
100
AcDbArc
 50
355.7940354718673
 51
4.229650257234378
  0
ARC
  5
F2
330
1F
100
AcDbEntity
  8
枠_表
  6
CONTINUOUS
 62
     3
100
AcDbCircle
 10
1832.466679849286
 20
1447.544614944631
 30
0.0
 40
1305.420034344473
100
AcDbArc
 50
248.6422112053103
 51
248.8567777804232
  0
ARC
  5
F3
330
1F
100
AcDbEntity
  8
枠_表
  6
CONTINUOUS
 62
     3
100
AcDbCircle
 10
1351.281424269149
 20
217.7494557545924
 30
0.0
 40
15.16361801388235
100
AcDbArc
 50
67.66151957087348
 51
88.69073168448988
  0
ARC
  5
F4
330
1F
100
AcDbEntity
  8
枠_表
  6
CONTINUOUS
 62
     3
100
AcDbCircle
 10
1349.65665664265
 20
213.146864690641
 30
0.0
 40
19.79962298051288
100
AcDbArc
 50
92.38301574576484
 51
114.9635286746436
  0
ARC
  5
F5
330
1F
100
AcDbEntity
  8
枠_表
  6
CONTINUOUS
 62
     3
100
AcDbCircle
 10
1348.194524520006
 20
217.8013936652781
 30
0.0
 40
14.97648840463785
100
AcDbArc
 50
117.4083995939977
 51
176.1964688215695
  0
ARC
  5
F6
330
1F
100
AcDbEntity
  8
枠_表
  6
CONTINUOUS
 62
     3
100
AcDbCircle
 10
1343.339888688963
 20
216.3289153613277
 30
0.0
 40
10.04058908858416
100
AcDbArc
 50
181.2393899443581
 51
226.5942921332421
  0
ARC
  5
F7
330
1F
100
AcDbEntity
  8
枠_表
  6
CONTINUOUS
 62
     3
100
AcDbCircle
 10
1349.290221869989
 20
222.3594616510013
 30
0.0
 40
18.51151426169351
100
AcDbArc
 50
226.0402388947521
 51
253.1776672992999
  0
ARC
  5
F8
330
1F
100
AcDbEntity
  8
枠_表
  6
CONTINUOUS
 62
     3
100
AcDbCircle
 10
1333.757233774628
 20
161.9185712632816
 30
0.0
 40
43.91667620959131
100
AcDbArc
 50
63.49050203733571
 51
76.60259219849584
  0
ARC
  5
F9
330
1F
100
AcDbEntity
  8
枠_表
  6
CONTINUOUS
 62
     3
100
AcDbCircle
 10
1350.462006878114
 20
194.9769338149736
 30
0.0
 40
6.88065228328521
100
AcDbArc
 50
6.53892419415897
 51
65.09756080693691
  0
ARC
  5
FA
330
1F
100
AcDbEntity
  8
枠_表
  6
CONTINUOUS
 62
     3
100
AcDbCircle
 10
1348.553666617041
 20
194.5503545635734
 30
0.0
 40
8.91593237815014
100
AcDbArc
 50
270.8867385422408
 51
352.7925382056677
  0
ARC
  5
FB
330
1F
100
AcDbEntity
  8
枠_表
  6
CONTINUOUS
 62
     3
100
AcDbCircle
 10
1347.954156485294
 20
198.9987959666075
 30
0.0
 40
13.47006053193791
100
AcDbArc
 50
207.7689879465537
 51
262.7817283832026
  0
ARC
  5
FC
330
1F
100
AcDbEntity
  8
枠_表
  6
CONTINUOUS
 62
     3
100
AcDbCircle
 10
1345.18950818898
 20
208.2234865216537
 30
0.0
 40
26.2991447367003
100
AcDbArc
 50
241.8829576087176
 51
265.9354096935781
  0
ARC
  5
FD
330
1F
100
AcDbEntity
  8
枠_表
  6
CONTINUOUS
 62
     3
100
AcDbCircle
 10
1347.699582970198
 20
199.0038700677076
 30
0.0
 40
17.01772587270968
100
AcDbArc
 50
271.2948770866743
 51
348.6654156292868
  0
ARC
  5
FE
330
1F
100
AcDbEntity
  8
枠_表
  6
CONTINUOUS
 62
     3
100
AcDbCircle
 10
1353.306858193857
 20
198.7825887797362
 30
0.0
 40
11.19367613594409
100
AcDbArc
 50
6.154262763177246
 51
76.17509904255616
  0
ARC
  5
FF
330
1F
100
AcDbEntity
  8
枠_表
  6
CONTINUOUS
 62
     3
100
AcDbCircle
 10
1374.807700453873
 20
287.9038965755251
 30
0.0
 40
80.4846638777502
100
AcDbArc
 50
249.6420733479936
 51
256.4727051201885
  0
ARC
  5
100
330
1F
100
AcDbEntity
  8
枠_表
  6
CONTINUOUS
 62
     3
100
AcDbCircle
 10
1350.108202858181
 20
222.4707962649927
 30
0.0
 40
10.55345561005776
100
AcDbArc
 50
210.9501336849607
 51
251.7794729821079
  0
ARC
  5
101
330
1F
100
AcDbEntity
  8
枠_表
  6
CONTINUOUS
 62
     3
100
AcDbCircle
 10
1360.954711099959
 20
224.0734774463158
 30
0.0
 40
21.102779059401
100
AcDbArc
 50
193.4375782160214
 51
199.459638038058
  0
ARC
  5
102
330
1F
100
AcDbEntity
  8
枠_表
  6
CONTINUOUS
 62
     3
100
AcDbCircle
 10
1348.552644729144
 20
220.901249206189
 30
0.0
 40
8.034208966558964
100
AcDbArc
 50
92.11404364449162
 51
173.4175047026091
  0
ARC
  5
103
330
1F
100
AcDbEntity
  8
枠_表
  6
CONTINUOUS
 62
     3
100
AcDbCircle
 10
1349.12210086919
 20
219.8143854437512
 30
0.0
 40
9.188796451533795
100
AcDbArc
 50
17.92452211681263
 51
85.16543319077402
  0
LINE
  5
104
330
1F
100
AcDbEntity
  8
枠_表
  6
CONTINUOUS
 62
     3
100
AcDbLine
 10
1351.62789859994
 20
232.909114946309
 30
0.0
 11
1348.833398599939
 21
232.909114946309
 31
0.0
  0
LINE
  5
105
330
1F
100
AcDbEntity
  8
枠_表
  6
CONTINUOUS
 62
     3
100
AcDbLine
 10
1346.261648599939
 20
185.6354899463111
 30
0.0
 11
1348.691648599941
 21
185.6354899463111
 31
0.0
  0
LINE
  5
106
330
1F
100
AcDbEntity
  8
枠_表
  6
CONTINUOUS
 62
     3
100
AcDbLine
 10
1336.035398599941
 20
192.7229899463123
 30
0.0
 11
1334.719148599939
 21
192.7229899463123
 31
0.0
  0
LINE
  5
107
330
1F
100
AcDbEntity
  8
枠_表
  6
CONTINUOUS
 62
     3
100
AcDbLine
 10
1343.325398599939
 20
181.990489946312
 30
0.0
 11
1348.08414859994
 21
181.990489946312
 31
0.0
  0
LINE
  5
108
330
1F
100
AcDbEntity
  8
枠_表
  6
CONTINUOUS
 62
     3
100
AcDbLine
 10
1200.259148599939
 20
221.5792399463112
 30
0.0
 11
1201.57539859994
 21
221.5792399463112
 31
0.0
  0
ARC
  5
109
330
1F
100
AcDbEntity
  8
枠_表
  6
CONTINUOUS
 62
     3
100
AcDbCircle
 10
1317.801619698205
 20
192.8669639347504
 30
0.0
 40
16.91930610118257
100
AcDbArc
 50
332.3987521421788
 51
359.5124385477116
  0
LINE
  5
10A
330
1F
100
AcDbEntity
  8
枠_表
  6
CONTINUOUS
 62
     3
100
AcDbLine
 10
1357.297898599939
 20
195.7604899463104
 30
0.0
 11
1357.39914859994
 21
193.43173994631
 31
0.0
  0
LINE
  5
10B
330
1F
100
AcDbEntity
  8
枠_表
  6
CONTINUOUS
 62
     3
100
AcDbLine
 10
1364.436023599941
 20
199.9826149463104
 30
0.0
 11
1364.385398599939
 21
195.6592399463102
 31
0.0
  0
LINE
  5
10C
330
1F
100
AcDbEntity
  8
枠_表
  6
CONTINUOUS
 62
     3
100
AcDbLine
 10
1340.571398599938
 20
221.8222399463116
 30
0.0
 11
1340.429648599939
 21
219.1694899463107
 31
0.0
  0
LINE
  5
10D
330
1F
100
AcDbEntity
  8
枠_表
  6
CONTINUOUS
 62
     3
100
AcDbLine
 10
1333.25102359994
 20
218.7948649463101
 30
0.0
 11
1333.301648599938
 21
216.1117399463433
 31
0.0
  0
LINE
  5
10E
330
1F
100
AcDbEntity
  8
枠_表
  6
CONTINUOUS
 62
     3
100
AcDbLine
 10
1348.256273599938
 20
228.9299899463094
 30
0.0
 11
1349.896523599939
 21
228.9704899463095
 31
0.0
  0
LINE
  5
10F
330
1F
100
AcDbEntity
  8
枠_表
  6
CONTINUOUS
 62
     3
100
AcDbLine
 10
1357.86489859994
 20
222.6423649463095
 30
0.0
 11
1359.145640230161
 21
222.6423649463095
 31
0.0
  0
ARC
  5
110
330
1F
100
AcDbEntity
  8
枠_表
  6
CONTINUOUS
 62
     3
100
AcDbCircle
 10
1387.263721603369
 20
217.3529156261236
 30
0.0
 40
28.61127005606746
100
AcDbArc
 50
153.7591918158497
 51
169.3462759801917
  0
TEXT
  5
111
330
1F
100
AcDbEntity
  8
枠_表
  6
CONTINUOUS
 62
     2
100
AcDbText
 10
2826.805664100063
 20
391.0841674500011
 30
0.0
 40
44.99999618530273
  1
１
 41
1.101333426694527
  7
EXCADSTD
 72
     5
 11
2862.205664100063
 21
391.0841674500011
 31
0.0
100
AcDbText
  0
TEXT
  5
112
330
1F
100
AcDbEntity
  8
枠_表
  6
CONTINUOUS
 62
     2
100
AcDbText
 10
294.7500000000636
 20
400.125001907348
 30
0.0
 40
63.74999618530273
  1
製図
 41
1.509694103275157
  7
EXCADSTD
 72
     5
 11
445.9889895104091
 21
400.125001907348
 31
0.0
100
AcDbText
  0
TEXT
  5
113
330
1F
100
AcDbEntity
  8
枠_表
  6
CONTINUOUS
 62
     2
100
AcDbText
 10
527.2500000000637
 20
400.125001907348
 30
0.0
 40
63.74999618530273
  1
写図
 41
1.509694103275156
  7
EXCADSTD
 72
     5
 11
678.488989510409
 21
400.125001907348
 31
0.0
100
AcDbText
  0
TEXT
  5
114
330
1F
100
AcDbEntity
  8
枠_表
  6
CONTINUOUS
 62
     2
100
AcDbText
 10
752.2500000000654
 20
400.125001907348
 30
0.0
 40
63.74999618530273
  1
検図
 41
1.303826737454632
  7
EXCADSTD
 72
     5
 11
882.8654921328244
 21
400.125001907348
 31
0.0
100
AcDbText
  0
TEXT
  5
115
330
1F
100
AcDbEntity
  8
枠_表
  6
CONTINUOUS
 62
     2
100
AcDbText
 10
947.2500000000637
 20
400.125001907348
 30
0.0
 40
63.74999618530273
  1
承認
 41
1.303826737454632
  7
EXCADSTD
 72
     5
 11
1077.865492132823
 21
400.125001907348
 31
0.0
100
AcDbText
  0
TEXT
  5
116
330
1F
100
AcDbEntity
  8
枠_表
  6
CONTINUOUS
 62
     2
100
AcDbText
 10
1124.625000000064
 20
385.125001907348
 30
0.0
 40
63.74999618530273
  1
品
 41
1.119999999999999
  7
EXCADSTD
 72
     5
 11
1175.624996948306
 21
385.125001907348
 31
0.0
100
AcDbText
  0
TEXT
  5
117
330
1F
100
AcDbEntity
  8
枠_表
  6
CONTINUOUS
 62
     2
100
AcDbText
 10
1124.625000000064
 20
310.125001907348
 30
0.0
 40
63.74999618530273
  1
名
 41
1.119999999999999
  7
EXCADSTD
 72
     5
 11
1175.624996948306
 21
310.125001907348
 31
0.0
100
AcDbText
  0
TEXT
  5
118
330
1F
100
AcDbEntity
  8
枠_表
  6
CONTINUOUS
 62
     2
100
AcDbText
 10
2084.625000000064
 20
385.125001907348
 30
0.0
 40
63.74999618530273
  1
品
 41
1.120000000000004
  7
EXCADSTD
 72
     5
 11
2135.624996948306
 21
385.125001907348
 31
0.0
100
AcDbText
  0
TEXT
  5
119
330
1F
100
AcDbEntity
  8
枠_表
  6
CONTINUOUS
 62
     2
100
AcDbText
 10
2084.625000000064
 20
310.125001907348
 30
0.0
 40
63.74999618530273
  1
番
 41
1.120000000000004
  7
EXCADSTD
 72
     5
 11
2135.624996948306
 21
310.125001907348
 31
0.0
100
AcDbText
  0
TEXT
  5
11A
330
1F
100
AcDbEntity
  8
枠_表
  6
CONTINUOUS
 62
     2
100
AcDbText
 10
2716.125000000063
 20
385.125001907348
 30
0.0
 40
63.74999618530273
  1
尺
 41
1.120000000000004
  7
EXCADSTD
 72
     5
 11
2767.124996948305
 21
385.125001907348
 31
0.0
100
AcDbText
  0
TEXT
  5
11B
330
1F
100
AcDbEntity
  8
枠_表
  6
CONTINUOUS
 62
     2
100
AcDbText
 10
2716.125000000063
 20
310.125001907348
 30
0.0
 40
63.74999618530273
  1
度
 41
1.120000000000004
  7
EXCADSTD
 72
     5
 11
2767.124996948305
 21
310.125001907348
 31
0.0
100
AcDbText
  0
TEXT
  5
11C
330
1F
100
AcDbEntity
  8
枠_表
  6
CONTINUOUS
 62
     2
100
AcDbText
 10
2084.625000000064
 20
215.6250019073486
 30
0.0
 40
63.74999618530273
  1
図
 41
1.120000000000004
  7
EXCADSTD
 72
     5
 11
2135.624996948306
 21
215.6250019073486
 31
0.0
100
AcDbText
  0
TEXT
  5
11D
330
1F
100
AcDbEntity
  8
枠_表
  6
CONTINUOUS
 62
     2
100
AcDbText
 10
2084.625000000064
 20
151.1250019073493
 30
0.0
 40
63.74999618530273
  1
番
 41
1.120000000000004
  7
EXCADSTD
 72
     5
 11
2135.624996948306
 21
151.1250019073493
 31
0.0
100
AcDbText
  0
LINE
  5
11E
330
1F
100
AcDbEntity
  8
枠_表
  6
CONTINUOUS
 62
     7
100
AcDbLine
 10
261.0000000000636
 20
469.4999999999993
 30
0.0
 11
2991.000000000064
 21
469.4999999999993
 31
0.0
  0
LINE
  5
11F
330
1F
100
AcDbEntity
  8
枠_表
  6
CONTINUOUS
 62
     7
100
AcDbLine
 10
2991.000000000064
 20
139.4999999999993
 30
0.0
 11
2991.000000000064
 21
4339.5
 31
0.0
  0
LINE
  5
120
330
1F
100
AcDbEntity
  8
枠_表
  6
CONTINUOUS
 62
     7
100
AcDbLine
 10
261.0000000000636
 20
4339.5
 30
0.0
 11
2991.000000000064
 21
4339.5
 31
0.0
  0
LINE
  5
121
330
1F
100
AcDbEntity
  8
枠_表
  6
CONTINUOUS
 62
     6
100
AcDbLine
 10
2991.000000000064
 20
289.4999999999993
 30
0.0
 11
1116.000000000064
 21
289.4999999999993
 31
0.0
  0
LINE
  5
122
330
1F
100
AcDbEntity
  8
枠_表
  6
CONTINUOUS
 62
     6
100
AcDbLine
 10
2781.000000000064
 20
469.4999999999993
 30
0.0
 11
2781.000000000064
 21
289.4999999999993
 31
0.0
  0
LINE
  5
123
330
1F
100
AcDbEntity
  8
枠_表
  6
CONTINUOUS
 62
     6
100
AcDbLine
 10
2706.000000000064
 20
469.4999999999993
 30
0.0
 11
2706.000000000064
 21
289.4999999999993
 31
0.0
  0
LINE
  5
124
330
1F
100
AcDbEntity
  8
枠_表
  6
CONTINUOUS
 62
     6
100
AcDbLine
 10
2151.000000000064
 20
469.4999999999993
 30
0.0
 11
2151.000000000064
 21
139.4999999999993
 31
0.0
  0
LINE
  5
125
330
1F
100
AcDbEntity
  8
枠_表
  6
CONTINUOUS
 62
     6
100
AcDbLine
 10
2076.000000000064
 20
469.4999999999993
 30
0.0
 11
2076.000000000064
 21
139.4999999999993
 31
0.0
  0
LINE
  5
126
330
1F
100
AcDbEntity
  8
枠_表
  6
CONTINUOUS
 62
     6
100
AcDbLine
 10
1191.000000000064
 20
469.4999999999993
 30
0.0
 11
1191.000000000064
 21
289.4999999999993
 31
0.0
  0
LINE
  5
127
330
1F
100
AcDbEntity
  8
枠_表
  6
CONTINUOUS
 62
     6
100
AcDbLine
 10
1116.000000000064
 20
469.4999999999993
 30
0.0
 11
1116.000000000064
 21
139.4999999999993
 31
0.0
  0
LINE
  5
128
330
1F
100
AcDbEntity
  8
枠_表
  6
CONTINUOUS
 62
     6
100
AcDbLine
 10
921.0000000000654
 20
469.4999999999993
 30
0.0
 11
921.0000000000654
 21
139.4999999999993
 31
0.0
  0
LINE
  5
129
330
1F
100
AcDbEntity
  8
枠_表
  6
CONTINUOUS
 62
     6
100
AcDbLine
 10
726.0000000000654
 20
469.4999999999993
 30
0.0
 11
726.0000000000654
 21
139.4999999999993
 31
0.0
  0
LINE
  5
12A
330
1F
100
AcDbEntity
  8
枠_表
  6
CONTINUOUS
 62
     6
100
AcDbLine
 10
493.5000000000636
 20
469.4999999999993
 30
0.0
 11
493.5000000000636
 21
139.4999999999993
 31
0.0
  0
LINE
  5
12B
330
1F
100
AcDbEntity
  8
枠_表
  6
CONTINUOUS
 62
     6
100
AcDbLine
 10
261.0000000000636
 20
394.4999999999993
 30
0.0
 11
1116.000000000064
 21
394.4999999999993
 31
0.0
  0
LINE
  5
12C
330
1F
100
AcDbEntity
  8
枠_表
  6
CONTINUOUS
 62
     6
100
AcDbLine
 10
2829.980712900064
 20
324.0043945500008
 30
0.0
 11
2945.990844750064
 21
442.04974365
 31
0.0
  0
CIRCLE
  5
12D
330
1F
100
AcDbEntity
  8
枠_表
  6
CONTINUOUS
 62
     6
100
AcDbCircle
 10
568.5000000000637
 20
176.9999999999993
 30
0.0
 40
1.5000003
  0
CIRCLE
  5
12E
330
1F
100
AcDbEntity
  8
枠_表
  6
CONTINUOUS
 62
     6
100
AcDbCircle
 10
643.5000000000637
 20
176.9999999999993
 30
0.0
 40
1.5000003
  0
LINE
  5
12F
330
1F
100
AcDbEntity
  8
枠_表
  6
EXLTYPE2
 62
     6
100
AcDbLine
 10
261.0000000000636
 20
214.4999999999993
 30
0.0
 11
726.0000000000654
 21
214.4999999999993
 31
0.0
  0
LINE
  5
130
330
1F
100
AcDbEntity
  8
枠_表
  6
CONTINUOUS
 62
     7
100
AcDbLine
 10
261.0000000000636
 20
139.4999999999993
 30
0.0
 11
261.0000000000636
 21
4339.5
 31
0.0
  0
TEXT
  5
131
330
1F
100
AcDbEntity
  8
枠_表
  6
CONTINUOUS
 62
     2
100
AcDbText
 10
2887.918945350063
 20
324.5232695999982
 30
0.0
 40
44.99999618530273
  1
１５
 41
1.098531308335248
  7
EXCADSTD
 72
     5
 11
2965.600795568597
 21
324.5232695999982
 31
0.0
100
AcDbText
  0
TEXT
  5
132
330
1F
100
AcDbEntity
  8
枠_表
  6
CONTINUOUS
 62
     2
100
AcDbText
 10
2841.000000000115
 20
4153.125001907346
 30
0.0
 40
59.99999618530273
  1
１
 41
1.120000000000004
  7
EXCADSTD
 72
     5
 11
2888.999996948357
 21
4153.125001907346
 31
0.0
100
AcDbText
  0
TEXT
  5
133
330
1F
100
AcDbEntity
  8
枠_表
  6
CONTINUOUS
 62
     2
100
AcDbText
 10
1741.499999998659
 20
3981.750003814705
 30
0.0
 40
59.99999618530273
  1
※止水栓（別途手配）
 41
1.052966101694916
  7
EXCADSTD
 72
     5
 11
2273.999966143221
 21
3981.750003814705
 31
0.0
100
AcDbText
  0
TEXT
  5
134
330
1F
100
AcDbEntity
  8
枠_表
  6
CONTINUOUS
 62
     2
100
AcDbText
 10
2841.000000000115
 20
3646.125001907347
 30
0.0
 40
59.99999618530273
  1
１
 41
1.120000000000004
  7
EXCADSTD
 72
     5
 11
2888.999996948357
 21
3646.125001907347
 31
0.0
100
AcDbText
  0
TEXT
  5
135
330
1F
100
AcDbEntity
  8
枠_表
  6
CONTINUOUS
 62
     2
100
AcDbText
 10
2841.000000000115
 20
3533.250001907349
 30
0.0
 40
59.99999618530273
  1
１
 41
1.120000000000004
  7
EXCADSTD
 72
     5
 11
2888.999996948357
 21
3533.250001907349
 31
0.0
100
AcDbText
  0
TEXT
  5
136
330
1F
100
AcDbEntity
  8
枠_表
  6
CONTINUOUS
 62
     2
100
AcDbText
 10
2284.499999999908
 20
3573.225001907348
 30
0.0
 40
59.99999618530273
  1
配管アダプター
 41
0.990243889413228
  7
EXCADSTD
 72
     5
 11
2632.499973297027
 21
3573.225001907348
 31
0.0
100
AcDbText
  0
TEXT
  5
137
330
1F
100
AcDbEntity
  8
枠_表
  6
CONTINUOUS
 62
     2
100
AcDbText
 10
2284.499999999908
 20
3498.975001907348
 30
0.0
 40
59.99999618530273
  1
（ＶＰ５０・ＶＵ５０用）
 41
0.8183098359622852
  7
EXCADSTD
 72
     5
 11
2782.499954223541
 21
3498.975001907348
 31
0.0
100
AcDbText
  0
TEXT
  5
138
330
1F
100
AcDbEntity
  8
枠_表
  6
CONTINUOUS
 62
     2
100
AcDbText
 10
1746.000000000108
 20
3721.875001907346
 30
0.0
 40
59.99999618530273
  1
※壁排水用部材（別途手配）
 41
1.045454545454546
  7
EXCADSTD
 72
     5
 11
2435.99995613109
 21
3721.875001907346
 31
0.0
100
AcDbText
  0
LINE
  5
139
330
1F
100
AcDbEntity
  8
枠_表
  6
CONTINUOUS
 62
     6
100
AcDbLine
 10
1746.000000000115
 20
4220.249999999996
 30
0.0
 11
2946.000000000115
 21
4220.249999999996
 31
0.0
  0
LINE
  5
13A
330
1F
100
AcDbEntity
  8
枠_表
  6
CONTINUOUS
 62
     6
100
AcDbLine
 10
1746.000000000115
 20
4294.499999999997
 30
0.0
 11
2946.000000000115
 21
4294.499999999997
 31
0.0
  0
LINE
  5
13B
330
1F
100
AcDbEntity
  8
枠_表
  6
CONTINUOUS
 62
     6
100
AcDbLine
 10
1746.000000000115
 20
3966.749999999998
 30
0.0
 11
2946.000000000115
 21
3966.749999999998
 31
0.0
  0
LINE
  5
13C
330
1F
100
AcDbEntity
  8
枠_表
  6
CONTINUOUS
 62
     6
100
AcDbLine
 10
1746.000000000115
 20
3818.249999999997
 30
0.0
 11
2946.000000000115
 21
3818.249999999997
 31
0.0
  0
LINE
  5
13D
330
1F
100
AcDbEntity
  8
枠_表
  6
CONTINUOUS
 62
     6
100
AcDbLine
 10
1746.000000000115
 20
3892.499999999997
 30
0.0
 11
2946.000000000115
 21
3892.499999999997
 31
0.0
  0
LINE
  5
13E
330
1F
100
AcDbEntity
  8
枠_表
  6
CONTINUOUS
 62
     6
100
AcDbLine
 10
1746.000000000115
 20
3818.25
 30
0.0
 11
1746.000000000115
 21
3966.749999999998
 31
0.0
  0
LINE
  5
13F
330
1F
100
AcDbEntity
  8
枠_表
  6
CONTINUOUS
 62
     6
100
AcDbLine
 10
2271.000000000115
 20
3818.249999999997
 30
0.0
 11
2271.000000000115
 21
3966.749999999998
 31
0.0
  0
LINE
  5
140
330
1F
100
AcDbEntity
  8
枠_表
  6
CONTINUOUS
 62
     6
100
AcDbLine
 10
2796.000000000115
 20
3818.249999999997
 30
0.0
 11
2796.000000000115
 21
3966.749999999998
 31
0.0
  0
LINE
  5
141
330
1F
100
AcDbEntity
  8
枠_表
  6
CONTINUOUS
 62
     6
100
AcDbLine
 10
2946.000000000115
 20
3818.25
 30
0.0
 11
2946.000000000115
 21
3966.749999999998
 31
0.0
  0
LINE
  5
142
330
1F
100
AcDbEntity
  8
枠_表
  6
CONTINUOUS
 62
     6
100
AcDbLine
 10
1746.000000000115
 20
3490.499999999998
 30
0.0
 11
2946.000000000115
 21
3490.499999999998
 31
0.0
  0
LINE
  5
143
330
1F
100
AcDbEntity
  8
枠_表
  6
CONTINUOUS
 62
     6
100
AcDbLine
 10
1746.000000000115
 20
3639.0
 30
0.0
 11
2946.000000000115
 21
3639.0
 31
0.0
  0
LINE
  5
144
330
1F
100
AcDbEntity
  8
枠_表
  6
CONTINUOUS
 62
     6
100
AcDbLine
 10
1746.000000000115
 20
3713.249999999997
 30
0.0
 11
2946.000000000115
 21
3713.249999999997
 31
0.0
  0
LINE
  5
145
330
1F
100
AcDbEntity
  8
枠_表
  6
CONTINUOUS
 62
     6
100
AcDbLine
 10
1746.000000000115
 20
3490.499999999998
 30
0.0
 11
1746.000000000115
 21
3713.249999999997
 31
0.0
  0
LINE
  5
146
330
1F
100
AcDbEntity
  8
枠_表
  6
CONTINUOUS
 62
     6
100
AcDbLine
 10
2271.000000000115
 20
3490.499999999998
 30
0.0
 11
2271.000000000115
 21
3713.249999999997
 31
0.0
  0
LINE
  5
147
330
1F
100
AcDbEntity
  8
枠_表
  6
CONTINUOUS
 62
     6
100
AcDbLine
 10
2796.000000000115
 20
3490.499999999998
 30
0.0
 11
2796.000000000115
 21
3713.249999999997
 31
0.0
  0
LINE
  5
148
330
1F
100
AcDbEntity
  8
枠_表
  6
CONTINUOUS
 62
     6
100
AcDbLine
 10
2946.000000000115
 20
3490.499999999998
 30
0.0
 11
2946.000000000115
 21
3713.249999999997
 31
0.0
  0
LINE
  5
149
330
1F
100
AcDbEntity
  8
枠_表
  6
CONTINUOUS
 62
     6
100
AcDbLine
 10
1746.000000000115
 20
4145.999999999995
 30
0.0
 11
2946.000000000115
 21
4145.999999999995
 31
0.0
  0
TEXT
  5
14A
330
1F
100
AcDbEntity
  8
枠_表
  6
CONTINUOUS
 62
     2
100
AcDbText
 10
2284.499999999908
 20
3644.625001907345
 30
0.0
 40
59.99999618530273
  1
Ｌ管
 41
1.049923628946709
  7
EXCADSTD
 72
     5
 11
2383.492793006805
 21
3644.625001907345
 31
0.0
100
AcDbText
  0
TEXT
  5
14B
330
1F
100
AcDbEntity
  8
枠_表
  6
CONTINUOUS
 62
     2
100
AcDbText
 10
2817.000000089522
 20
4227.37500190735
 30
0.0
 40
59.99999618530273
  1
個数
 41
1.049923628946709
  7
EXCADSTD
 72
     5
 11
2915.992793096419
 21
4227.37500190735
 31
0.0
100
AcDbText
  0
TEXT
  5
14C
330
1F
100
AcDbEntity
  8
枠_表
  6
CONTINUOUS
 62
     2
100
AcDbText
 10
1873.500000000108
 20
4227.37500190735
 30
0.0
 40
59.99999618530273
  1
品番
 41
1.895695426731975
  7
EXCADSTD
 72
     5
 11
2052.236986013902
 21
4227.37500190735
 31
0.0
100
AcDbText
  0
TEXT
  5
14D
330
1F
100
AcDbEntity
  8
枠_表
  6
CONTINUOUS
 62
     2
100
AcDbText
 10
2398.500000000105
 20
4227.37500190735
 30
0.0
 40
59.99999618530273
  1
品名
 41
1.895695426731973
  7
EXCADSTD
 72
     5
 11
2577.236986013898
 21
4227.37500190735
 31
0.0
100
AcDbText
  0
TEXT
  5
14E
330
1F
100
AcDbEntity
  8
枠_表
  6
CONTINUOUS
 62
     2
100
AcDbText
 10
1469.9999985696
 20
304.5000038146966
 30
0.0
 40
74.99999237060547
  1
洗面化粧台
 41
1.052413789665836
  7
EXCADSTD
 72
     5
 11
1796.999964237325
 21
304.5000038146966
 31
0.0
100
AcDbText
  0
TEXT
  5
14F
330
1F
100
AcDbEntity
  8
枠_表
  6
CONTINUOUS
 62
     2
100
AcDbText
 10
2284.499999999908
 20
3901.125001907347
 30
0.0
 40
59.99999618530273
  1
床給水用止水栓
 41
0.990243889413228
  7
EXCADSTD
 72
     5
 11
2632.499973297027
 21
3901.125001907347
 31
0.0
100
AcDbText
  0
TEXT
  5
150
330
1F
100
AcDbEntity
  8
枠_表
  6
CONTINUOUS
 62
     2
100
AcDbText
 10
2281.499999999907
 20
3826.875001907346
 30
0.0
 40
59.99999618530273
  1
壁給水用止水栓
 41
0.990243889413228
  7
EXCADSTD
 72
     5
 11
2629.499973297026
 21
3826.875001907346
 31
0.0
100
AcDbText
  0
TEXT
  5
151
330
1F
100
AcDbEntity
  8
枠_表
  6
CONTINUOUS
 62
     2
100
AcDbText
 10
1206.000000000062
 20
402.000001907348
 30
0.0
 40
59.99999618530273
  1
６００ｍｍ幅
 41
0.9999999872843416
  7
EXCADSTD
 72
     5
 11
1505.999977111878
 21
402.000001907348
 31
0.0
100
AcDbText
  0
TEXT
  5
152
330
1F
100
AcDbEntity
  8
枠_表
  6
CONTINUOUS
 62
     2
100
AcDbText
 10
2841.000000000154
 20
4076.550001907348
 30
0.0
 40
59.99999618530273
  1
１
 41
1.120000000000004
  7
EXCADSTD
 72
     5
 11
2888.999996948397
 21
4076.550001907348
 31
0.0
100
AcDbText
  0
LINE
  5
153
330
1F
100
AcDbEntity
  8
枠_表
  6
CONTINUOUS
 62
     6
100
AcDbLine
 10
2946.000000000151
 20
4070.999999999994
 30
0.0
 11
1746.000000000151
 21
4070.999999999994
 31
0.0
  0
LINE
  5
154
330
1F
100
AcDbEntity
  8
枠_表
  6
CONTINUOUS
 62
     6
100
AcDbLine
 10
1746.000000000115
 20
4071.0
 30
0.0
 11
1746.000000000115
 21
4294.5
 31
0.0
  0
LINE
  5
155
330
1F
100
AcDbEntity
  8
枠_表
  6
CONTINUOUS
 62
     6
100
AcDbLine
 10
2196.000000000115
 20
4294.499999999997
 30
0.0
 11
2196.000000000115
 21
4070.999999999994
 31
0.0
  0
LINE
  5
156
330
1F
100
AcDbEntity
  8
枠_表
  6
CONTINUOUS
 62
     6
100
AcDbLine
 10
2796.000000000115
 20
4070.999999999994
 30
0.0
 11
2796.000000000115
 21
4294.499999999997
 31
0.0
  0
LINE
  5
157
330
1F
100
AcDbEntity
  8
枠_表
  6
CONTINUOUS
 62
     6
100
AcDbLine
 10
2946.000000000115
 20
4071.0
 30
0.0
 11
2946.000000000115
 21
4294.5
 31
0.0
  0
CIRCLE
  5
158
330
1F
100
AcDbEntity
  8
枠_表
  6
CONTINUOUS
 62
     6
100
AcDbCircle
 10
336.0000000000073
 20
176.9999999999993
 30
0.0
 40
1.5000003
  0
CIRCLE
  5
159
330
1F
100
AcDbEntity
  8
枠_表
  6
CONTINUOUS
 62
     6
100
AcDbCircle
 10
411.0000000000073
 20
176.9999999999993
 30
0.0
 40
1.5000003
  0
CIRCLE
  5
15A
330
1F
100
AcDbEntity
  8
枠_表
  6
CONTINUOUS
 62
     6
100
AcDbCircle
 10
336.0000000000073
 20
176.9999999999993
 30
0.0
 40
1.5000003
  0
CIRCLE
  5
15B
330
1F
100
AcDbEntity
  8
枠_表
  6
CONTINUOUS
 62
     6
100
AcDbCircle
 10
411.0000000000073
 20
176.9999999999993
 30
0.0
 40
1.5000003
  0
TEXT
  5
15C
330
1F
100
AcDbEntity
  8
枠_表
  6
CONTINUOUS
 62
     2
100
AcDbText
 10
2209.050000000147
 20
4078.125001907348
 30
0.0
 40
59.99999618530273
  1
化粧鏡
 41
1.070588224822399
  7
EXCADSTD
 72
     5
 11
2365.049988556055
 21
4078.125001907348
 31
0.0
100
AcDbText
  0
TEXT
  5
15D
330
1F
100
AcDbEntity
  8
枠_表
  6
CONTINUOUS
 62
     2
100
AcDbText
 10
1753.500000000166
 20
3534.37500190735
 30
0.0
 40
59.99999618530273
  1
ＬＵＭＥＨ７０－２００－３２Ｂ
 41
0.6685393858491744
  7
EXCADSTD
 72
     5
 11
2263.500013351606
 21
3534.37500190735
 31
0.0
100
AcDbText
  0
TEXT
  5
15E
330
1F
100
AcDbEntity
  8
枠_表
  6
CONTINUOUS
 62
     2
100
AcDbText
 10
1753.500000000216
 20
3899.25000190735
 30
0.0
 40
59.99999618530273
  1
ＪＬ２１１－３３０ＷＭＹ
 41
0.7640844976398302
  7
EXCADSTD
 72
     5
 11
2218.499964714266
 21
3899.25000190735
 31
0.0
100
AcDbText
  0
TEXT
  5
15F
330
1F
100
AcDbEntity
  8
枠_表
  6
CONTINUOUS
 62
     2
100
AcDbText
 10
1756.500000000155
 20
3825.375001907347
 30
0.0
 40
59.99999618530273
  1
ＪＬ２２１－７５ＷＭＳＹ
 41
0.7640844976398306
  7
EXCADSTD
 72
     5
 11
2221.499964714206
 21
3825.375001907347
 31
0.0
100
AcDbText
  0
TEXT
  5
160
330
1F
100
AcDbEntity
  8
枠_表
  6
CONTINUOUS
 62
     2
100
AcDbText
 10
1741.499999998709
 20
3400.500003814705
 30
0.0
 40
59.99999618530273
  1
※洗面化粧台には、床排水用トラップを付属
 41
1.036764705882353
  7
EXCADSTD
 72
     5
 11
2798.99993276467
 21
3400.500003814705
 31
0.0
100
AcDbText
  0
TEXT
  5
161
330
1F
100
AcDbEntity
  8
枠_表
  6
CONTINUOUS
 62
     2
100
AcDbText
 10
1741.499999998709
 20
3340.500007629403
 30
0.0
 40
59.99999618530273
  1
※洗面化粧台には、止水栓は含まれない
 41
1.038551401869159
  7
EXCADSTD
 72
     5
 11
2693.99993944039
 21
3340.500007629403
 31
0.0
100
AcDbText
  0
TEXT
  5
162
330
1F
100
AcDbEntity
  8
枠_表
  6
CONTINUOUS
 62
     2
100
AcDbText
 10
1741.499999998709
 20
3280.5000114441
 30
0.0
 40
59.99999618530273
  1
※単水栓は、自動水栓（電池式）
 41
1.042134831460675
  7
EXCADSTD
 72
     5
 11
2536.499949453971
 21
3280.5000114441
 31
0.0
100
AcDbText
  0
TEXT
  5
163
330
1F
100
AcDbEntity
  8
枠_表
  6
CONTINUOUS
 62
     6
100
AcDbText
 10
270.5161735132836
 20
153.6751117073488
 30
0.0
 40
44.99999618530273
  1
'23
 41
0.4689783949971204
  7
EXCADSTD
 72
     5
 11
317.7489935768746
 21
153.6751117073488
 31
0.0
100
AcDbText
  0
TEXT
  5
164
330
1F
100
AcDbEntity
  8
枠_表
  6
CONTINUOUS
 62
     2
100
AcDbText
 10
302.2500000000687
 20
267.0000038146999
 30
0.0
 40
74.99999237060547
  1
川野
 41
1.166581818181818
  7
EXCADSTD
 72
     5
 11
439.7399860138627
 21
267.0000038146999
 31
0.0
100
AcDbText
  0
TEXT
  5
165
330
1F
100
AcDbEntity
  8
枠_表
  6
CONTINUOUS
 62
     2
100
AcDbText
 10
1756.500000000146
 20
4078.125001907348
 30
0.0
 40
59.99999618530273
  1
ＬＵＭ６０１ＣＳ
 41
0.7819148841479147
  7
EXCADSTD
 72
     5
 11
2071.499976158289
 21
4078.125001907348
 31
0.0
100
AcDbText
  0
TEXT
  5
166
330
1F
100
AcDbEntity
  8
枠_表
  6
CONTINUOUS
 62
     2
100
AcDbText
 10
1756.500000000155
 20
4153.125001907346
 30
0.0
 40
59.99999618530273
  1
ＬＵ０６０１ＡＳＳ１Ｅ
 41
0.767307682893215
  7
EXCADSTD
 72
     5
 11
2183.999967575229
 21
4153.125001907346
 31
0.0
100
AcDbText
  0
TEXT
  5
167
330
1F
100
AcDbEntity
  8
枠_表
  6
CONTINUOUS
 62
     2
100
AcDbText
 10
2209.499999999908
 20
4151.625001907344
 30
0.0
 40
59.99999618530273
  1
洗面化粧台（一般地形）
 41
0.9692307555369835
  7
EXCADSTD
 72
     5
 11
2749.499958038238
 21
4151.625001907344
 31
0.0
100
AcDbText
  0
TEXT
  5
168
330
1F
100
AcDbEntity
  8
枠_表
  6
CONTINUOUS
 62
     2
100
AcDbText
 10
2340.000000000026
 20
339.0000038146985
 30
0.0
 40
89.99999237060547
  1
別記
 41
1.166581818181818
  7
EXCADSTD
 72
     5
 11
2504.98798601382
 21
339.0000038146985
 31
0.0
100
AcDbText
  0
TEXT
  5
169
330
1F
100
AcDbEntity
  8
枠_表
  6
CONTINUOUS
 62
     2
100
AcDbText
 10
1756.500000000105
 20
3646.125001907347
 30
0.0
 40
59.99999618530273
  1
ＭＥ４４１３１
 41
0.7298780354833208
  7
EXCADSTD
 72
     5
 11
2012.99997901927
 21
3646.125001907347
 31
0.0
100
AcDbText
  0
TEXT
  5
16A
330
1F
100
AcDbEntity
  8
枠_表
  6
CONTINUOUS
 62
     2
100
AcDbText
 10
2841.000000000115
 20
3900.375001907347
 30
0.0
 40
59.99999618530273
  1
１
 41
1.120000000000004
  7
EXCADSTD
 72
     5
 11
2888.999996948357
 21
3900.375001907347
 31
0.0
100
AcDbText
  0
TEXT
  5
16B
330
1F
100
AcDbEntity
  8
枠_表
  6
CONTINUOUS
 62
     2
100
AcDbText
 10
2841.000000000115
 20
3826.875001907346
 30
0.0
 40
59.99999618530273
  1
１
 41
1.120000000000004
  7
EXCADSTD
 72
     5
 11
2888.999996948357
 21
3826.875001907346
 31
0.0
100
AcDbText
  0
TEXT
  5
16C
330
1F
100
AcDbEntity
  8
枠_表
  6
CONTINUOUS
 62
     7
100
AcDbText
 10
2263.500000000012
 20
171.7500038146979
 30
0.0
 40
89.99999237060547
  1
ＬＵ２１８７８１
 41
1.01773049277147
  7
EXCADSTD
 72
     5
 11
2878.499945640576
 21
171.7500038146979
 31
0.0
100
AcDbText
  0
TEXT
  5
16D
330
1F
100
AcDbEntity
  8
枠_表
  6
CONTINUOUS
 62
     6
100
AcDbText
 10
364.6036740854882
 20
153.6751117073488
 30
0.0
 40
44.99999618530273
  1
5
 41
0.4683823586133572
  7
EXCADSTD
 72
     5
 11
381.6661728457116
 21
153.6751117073488
 31
0.0
100
AcDbText
  0
TEXT
  5
16E
330
1F
100
AcDbEntity
  8
枠_表
  6
CONTINUOUS
 62
     6
100
AcDbText
 10
434.8411738709117
 20
153.6751117073488
 30
0.0
 40
44.99999618530273
  1
30
 41
0.4086486447995843
  7
EXCADSTD
 72
     5
 11
467.2411708191539
 21
153.6751117073488
 31
0.0
100
AcDbText
  0
LINE
  5
16F
330
1F
100
AcDbEntity
  8
化粧台
  6
CONTINUOUS
 62
     2
100
AcDbLine
 10
791.0000000000605
 20
1669.499999999956
 30
0.0
 11
1131.000000000097
 21
1669.499999999956
 31
0.0
  0
ARC
  5
170
330
1F
100
AcDbEntity
  8
化粧台
  6
CONTINUOUS
 62
     2
100
AcDbCircle
 10
961.0000000000605
 20
1749.382636432929
 30
0.0
 40
214.8826364329721
100
AcDbArc
 50
202.703373117341
 51
337.2966268826543
  0
ARC
  5
171
330
1F
100
AcDbEntity
  8
化粧台
  6
CONTINUOUS
 62
     2
100
AcDbCircle
 10
1254.905786216165
 20
1674.499999999956
 30
0.0
 40
5.0
100
AcDbArc
 50
357.9174347202663
 51
127.8553251654789
  0
LINE
  5
172
330
1F
100
AcDbEntity
  8
化粧台
  6
CONTINUOUS
 62
     2
100
AcDbLine
 10
1131.0000000001
 20
1669.499999999956
 30
0.0
 11
1240.432787040342
 21
1674.257947262577
 31
0.0
  0
ARC
  5
173
330
1F
100
AcDbEntity
  8
化粧台
  6
CONTINUOUS
 62
     2
100
AcDbCircle
 10
1239.564042554816
 20
1694.239070429678
 30
0.0
 40
20.0
100
AcDbArc
 50
272.4895529219986
 51
307.8553251654777
  0
ARC
  5
174
330
1F
100
AcDbEntity
  8
化粧台
  6
CONTINUOUS
 62
     2
100
AcDbCircle
 10
1255.814877125255
 20
1699.499999999956
 30
0.0
 40
5.0
100
AcDbArc
 50
357.9174347202663
 51
90.00000000000001
  0
ARC
  5
175
330
1F
100
AcDbEntity
  8
化粧台
  6
CONTINUOUS
 62
     2
100
AcDbCircle
 10
1154.003506835916
 20
1624.499999999956
 30
0.0
 40
15.00000000000001
100
AcDbArc
 50
90.00000000000001
 51
147.0951725792534
  0
LINE
  5
176
330
1F
100
AcDbEntity
  8
化粧台
  6
CONTINUOUS
 62
     2
100
AcDbLine
 10
1258.741490223576
 20
1642.390981145636
 30
0.0
 11
1260.811574614987
 21
1699.318301909421
 31
0.0
  0
ARC
  5
177
330
1F
100
AcDbEntity
  8
化粧台
  6
CONTINUOUS
 62
     2
100
AcDbCircle
 10
1255.743471729739
 20
1642.499999999956
 30
0.0
 40
3.000000000000002
100
AcDbArc
 50
270.0
 51
357.9174347202733
  0
ARC
  5
178
330
1F
100
AcDbEntity
  8
化粧台
  6
CONTINUOUS
 62
     2
100
AcDbCircle
 10
1156.464988490449
 20
1667.604339212608
 30
0.0
 40
3.000000000000002
100
AcDbArc
 50
337.2966268826544
 51
92.48955292199311
  0
LINE
  5
179
330
1F
100
AcDbEntity
  8
化粧台
  6
CONTINUOUS
 62
     2
100
AcDbLine
 10
1154.003506835916
 20
1639.499999999956
 30
0.0
 11
1255.743471729739
 21
1639.499999999956
 31
0.0
  0
ARC
  5
17A
330
1F
100
AcDbEntity
  8
化粧台
  6
CONTINUOUS
 62
     2
100
AcDbCircle
 10
667.0942137839943
 20
1674.499999999956
 30
0.0
 40
5.0
100
AcDbArc
 50
52.14467483452227
 51
182.0825652797287
  0
LINE
  5
17B
330
1F
100
AcDbEntity
  8
化粧台
  6
CONTINUOUS
 62
     2
100
AcDbLine
 10
791.0000000000605
 20
1669.499999999956
 30
0.0
 11
681.5672129598156
 21
1674.257947262577
 31
0.0
  0
ARC
  5
17C
330
1F
100
AcDbEntity
  8
化粧台
  6
CONTINUOUS
 62
     2
100
AcDbCircle
 10
682.4359574453433
 20
1694.239070429678
 30
0.0
 40
20.0
100
AcDbArc
 50
232.1446748345211
 51
267.5104470780012
  0
ARC
  5
17D
330
1F
100
AcDbEntity
  8
化粧台
  6
CONTINUOUS
 62
     2
100
AcDbCircle
 10
666.1851228749024
 20
1699.499999999956
 30
0.0
 40
5.0
100
AcDbArc
 50
90.00000000000001
 51
182.0825652797287
  0
ARC
  5
17E
330
1F
100
AcDbEntity
  8
化粧台
  6
CONTINUOUS
 62
     2
100
AcDbCircle
 10
767.9964931642412
 20
1624.499999999956
 30
0.0
 40
15.00000000000001
100
AcDbArc
 50
32.90482742074656
 51
90.00000000000001
  0
LINE
  5
17F
330
1F
100
AcDbEntity
  8
化粧台
  6
CONTINUOUS
 62
     2
100
AcDbLine
 10
663.2585097765827
 20
1642.390981145636
 30
0.0
 11
661.1884253851699
 21
1699.318301909421
 31
0.0
  0
ARC
  5
180
330
1F
100
AcDbEntity
  8
化粧台
  6
CONTINUOUS
 62
     2
100
AcDbCircle
 10
666.2565282704186
 20
1642.499999999956
 30
0.0
 40
3.000000000000002
100
AcDbArc
 50
182.082565279727
 51
270.0000000000002
  0
ARC
  5
181
330
1F
100
AcDbEntity
  8
化粧台
  6
CONTINUOUS
 62
     2
100
AcDbCircle
 10
765.5350115097121
 20
1667.604339212608
 30
0.0
 40
3.000000000000002
100
AcDbArc
 50
87.51044707800041
 51
202.7033731173424
  0
LINE
  5
182
330
1F
100
AcDbEntity
  8
化粧台
  6
CONTINUOUS
 62
     2
100
AcDbLine
 10
767.9964931642412
 20
1639.499999999956
 30
0.0
 11
666.2565282704186
 21
1639.499999999956
 31
0.0
  0
ARC
  5
183
330
1F
100
AcDbEntity
  8
化粧台
  6
CONTINUOUS
 62
     2
100
AcDbCircle
 10
1088.629733490567
 20
1458.5
 30
0.0
 40
2.0
100
AcDbArc
 50
16.84927962281586
 51
90.00000000000001
  0
ARC
  5
184
330
1F
100
AcDbEntity
  8
化粧台
  6
CONTINUOUS
 62
     2
100
AcDbCircle
 10
1088.629733490567
 20
1453.5
 30
0.0
 40
2.0
100
AcDbArc
 50
270.0000000000002
 51
343.1507203771823
  0
ARC
  5
185
330
1F
100
AcDbEntity
  8
化粧台
  6
CONTINUOUS
 62
     2
100
AcDbCircle
 10
1080.37500000002
 20
1456.0
 30
0.0
 40
10.625
100
AcDbArc
 50
343.15072037717
 51
16.84927962283012
  0
ARC
  5
186
330
1F
100
AcDbEntity
  8
化粧台
  6
CONTINUOUS
 62
     2
100
AcDbCircle
 10
1031.50000000002
 20
2540.685482900404
 30
0.0
 40
1090.685482900405
100
AcDbArc
 50
266.9919716782235
 51
273.0080283217767
  0
ARC
  5
187
330
1F
100
AcDbEntity
  8
化粧台
  6
CONTINUOUS
 62
     2
100
AcDbCircle
 10
1031.50000000002
 20
371.3145170995958
 30
0.0
 40
1090.685482900405
100
AcDbArc
 50
86.99197167822338
 51
93.00802832177656
  0
ARC
  5
188
330
1F
100
AcDbEntity
  8
化粧台
  6
CONTINUOUS
 62
     2
100
AcDbCircle
 10
982.6250000000203
 20
1456.0
 30
0.0
 40
10.625
100
AcDbArc
 50
163.1507203771698
 51
196.8492796228301
  0
ARC
  5
189
330
1F
100
AcDbEntity
  8
化粧台
  6
CONTINUOUS
 62
     2
100
AcDbCircle
 10
974.3702665094703
 20
1453.5
 30
0.0
 40
2.0
100
AcDbArc
 50
196.8492796228176
 51
270.0000000000002
  0
ARC
  5
18A
330
1F
100
AcDbEntity
  8
化粧台
  6
CONTINUOUS
 62
     2
100
AcDbCircle
 10
974.3702665094703
 20
1458.5
 30
0.0
 40
2.0
100
AcDbArc
 50
90.00000000000001
 51
163.1507203771841
  0
ARC
  5
18B
330
1F
100
AcDbEntity
  8
化粧台
  6
CONTINUOUS
 62
     2
100
AcDbCircle
 10
833.3702665094738
 20
1458.5
 30
0.0
 40
2.0
100
AcDbArc
 50
90.00000000000001
 51
163.1507203771844
  0
ARC
  5
18C
330
1F
100
AcDbEntity
  8
化粧台
  6
CONTINUOUS
 62
     2
100
AcDbCircle
 10
833.3702665094738
 20
1453.5
 30
0.0
 40
2.0
100
AcDbArc
 50
196.8492796228166
 51
270.0
  0
ARC
  5
18D
330
1F
100
AcDbEntity
  8
化粧台
  6
CONTINUOUS
 62
     2
100
AcDbCircle
 10
841.6250000000205
 20
1456.0
 30
0.0
 40
10.625
100
AcDbArc
 50
163.1507203771702
 51
196.8492796228299
  0
ARC
  5
18E
330
1F
100
AcDbEntity
  8
化粧台
  6
CONTINUOUS
 62
     2
100
AcDbCircle
 10
890.5000000000205
 20
2540.685482900404
 30
0.0
 40
1090.685482900405
100
AcDbArc
 50
266.9919716782234
 51
273.0080283217766
  0
ARC
  5
18F
330
1F
100
AcDbEntity
  8
化粧台
  6
CONTINUOUS
 62
     2
100
AcDbCircle
 10
890.5000000000205
 20
371.3145170995958
 30
0.0
 40
1090.685482900405
100
AcDbArc
 50
86.99197167822344
 51
93.00802832177662
  0
ARC
  5
190
330
1F
100
AcDbEntity
  8
化粧台
  6
CONTINUOUS
 62
     2
100
AcDbCircle
 10
939.3750000000205
 20
1456.0
 30
0.0
 40
10.625
100
AcDbArc
 50
343.1507203771704
 51
16.8492796228307
  0
ARC
  5
191
330
1F
100
AcDbEntity
  8
化粧台
  6
CONTINUOUS
 62
     2
100
AcDbCircle
 10
947.6297334905707
 20
1453.5
 30
0.0
 40
2.0
100
AcDbArc
 50
270.0
 51
343.1507203771844
  0
ARC
  5
192
330
1F
100
AcDbEntity
  8
化粧台
  6
CONTINUOUS
 62
     2
100
AcDbCircle
 10
947.6297334905707
 20
1458.5
 30
0.0
 40
2.0
100
AcDbArc
 50
16.84927962281563
 51
90.00000000000001
  0
LINE
  5
193
330
1F
100
AcDbEntity
  8
化粧台
  6
CONTINUOUS
 62
     2
100
AcDbLine
 10
1241.000000000019
 20
1501.0
 30
0.0
 11
1241.000000000019
 21
1011.0
 31
0.0
  0
LINE
  5
194
330
1F
100
AcDbEntity
  8
化粧台
  6
CONTINUOUS
 62
     2
100
AcDbLine
 10
962.0000000000203
 20
1011.00000000004
 30
0.0
 11
1241.000000000059
 21
1011.00000000004
 31
0.0
  0
LINE
  5
195
330
1F
100
AcDbEntity
  8
化粧台
  6
CONTINUOUS
 62
     2
100
AcDbLine
 10
681.0000000000205
 20
1501.0
 30
0.0
 11
681.0000000000205
 21
1011.0
 31
0.0
  0
LINE
  5
196
330
1F
100
AcDbEntity
  8
化粧台
  6
CONTINUOUS
 62
     2
100
AcDbLine
 10
681.0000000000205
 20
1011.00000000004
 30
0.0
 11
960.0000000000205
 21
1011.00000000004
 31
0.0
  0
LINE
  5
197
330
1F
100
AcDbEntity
  8
化粧台
  6
CONTINUOUS
 62
     2
100
AcDbLine
 10
960.0000000000205
 20
1501.00000000004
 30
0.0
 11
681.0000000000205
 21
1501.00000000004
 31
0.0
  0
LINE
  5
198
330
1F
100
AcDbEntity
  8
化粧台
  6
CONTINUOUS
 62
     2
100
AcDbLine
 10
1243.000000000091
 20
1508.0
 30
0.0
 11
679.0000000000932
 21
1508.0
 31
0.0
  0
LINE
  5
199
330
1F
100
AcDbEntity
  8
化粧台
  6
CONTINUOUS
 62
     2
100
AcDbLine
 10
1241.000000000059
 20
1501.00000000004
 30
0.0
 11
962.0000000000203
 21
1501.00000000004
 31
0.0
  0
LINE
  5
19A
330
1F
100
AcDbEntity
  8
化粧台
  6
CONTINUOUS
 62
     2
100
AcDbLine
 10
677.5000000000605
 20
919.5
 30
0.0
 11
1244.500000000062
 21
919.5
 31
0.0
  0
LINE
  5
19B
330
1F
100
AcDbEntity
  8
化粧台
  6
CONTINUOUS
 62
     2
100
AcDbLine
 10
1229.50000000006
 20
1010.0
 30
0.0
 11
1229.50000000006
 21
919.5
 31
0.0
  0
LINE
  5
19C
330
1F
100
AcDbEntity
  8
化粧台
  6
CONTINUOUS
 62
     2
100
AcDbLine
 10
692.5000000000605
 20
1010.0
 30
0.0
 11
692.5000000000605
 21
919.5
 31
0.0
  0
LINE
  5
19D
330
1F
100
AcDbEntity
  8
化粧台
  6
EXLTYPE3
 62
     6
100
AcDbLine
 10
960.0000000000205
 20
1501.0
 30
0.0
 11
680.9999999999695
 21
1256.0
 31
0.0
  0
LINE
  5
19E
330
1F
100
AcDbEntity
  8
化粧台
  6
EXLTYPE3
 62
     6
100
AcDbLine
 10
681.0000000000205
 20
1256.0
 30
0.0
 11
960.0000000000205
 21
1011.0
 31
0.0
  0
LINE
  5
19F
330
1F
100
AcDbEntity
  8
化粧台
  6
EXLTYPE3
 62
     6
100
AcDbLine
 10
1241.000000000059
 20
1256.00000000008
 30
0.0
 11
962.0000000000203
 21
1011.00000000008
 31
0.0
  0
LINE
  5
1A0
330
1F
100
AcDbEntity
  8
化粧台
  6
EXLTYPE3
 62
     6
100
AcDbLine
 10
1241.000000000059
 20
1256.0
 30
0.0
 11
962.0000000000203
 21
1501.0
 31
0.0
  0
LINE
  5
1A1
330
1F
100
AcDbEntity
  8
化粧台
  6
CONTINUOUS
 62
     2
100
AcDbLine
 10
679.0000000000932
 20
1639.499999999956
 30
0.0
 11
679.0000000000932
 21
1508.0
 31
0.0
  0
LINE
  5
1A2
330
1F
100
AcDbEntity
  8
化粧台
  6
CONTINUOUS
 62
     2
100
AcDbLine
 10
677.5000000000605
 20
1639.499999999956
 30
0.0
 11
677.5000000000605
 21
919.5
 31
0.0
  0
LINE
  5
1A3
330
1F
100
AcDbEntity
  8
化粧台
  6
CONTINUOUS
 62
     2
100
AcDbLine
 10
1243.000000000028
 20
1639.499999999956
 30
0.0
 11
1243.000000000028
 21
1508.0
 31
0.0
  0
LINE
  5
1A4
330
1F
100
AcDbEntity
  8
化粧台
  6
CONTINUOUS
 62
     2
100
AcDbLine
 10
1244.500000000062
 20
1639.5
 30
0.0
 11
1244.500000000062
 21
919.5
 31
0.0
  0
LINE
  5
1A5
330
1F
100
AcDbEntity
  8
化粧台
  6
CONTINUOUS
 62
     6
100
AcDbLine
 10
1160.500000000042
 20
911.5
 30
0.0
 11
1181.50000000006
 21
911.5
 31
0.0
  0
LINE
  5
1A6
330
1F
100
AcDbEntity
  8
化粧台
  6
CONTINUOUS
 62
     6
100
AcDbLine
 10
1160.500000000042
 20
919.5
 30
0.0
 11
1160.500000000042
 21
911.5
 31
0.0
  0
LINE
  5
1A7
330
1F
100
AcDbEntity
  8
化粧台
  6
CONTINUOUS
 62
     6
100
AcDbLine
 10
1181.50000000005
 20
919.5
 30
0.0
 11
1181.50000000005
 21
911.5
 31
0.0
  0
LINE
  5
1A8
330
1F
100
AcDbEntity
  8
化粧台
  6
CONTINUOUS
 62
     2
100
AcDbLine
 10
977.0000000000568
 20
869.4999999999782
 30
0.0
 11
945.0000000000568
 21
869.4999999999782
 31
0.0
  0
LINE
  5
1A9
330
1F
100
AcDbEntity
  8
化粧台
  6
CONTINUOUS
 62
     2
100
AcDbLine
 10
945.0000000000568
 20
919.5
 30
0.0
 11
945.0000000000568
 21
869.4999999999782
 31
0.0
  0
LINE
  5
1AA
330
1F
100
AcDbEntity
  8
化粧台
  6
CONTINUOUS
 62
     2
100
AcDbLine
 10
977.0000000000568
 20
919.5
 30
0.0
 11
977.0000000000568
 21
869.4999999999782
 31
0.0
  0
LINE
  5
1AB
330
1F
100
AcDbEntity
  8
化粧台
  6
CONTINUOUS
 62
     6
100
AcDbLine
 10
756.0000000026398
 20
1449.50000000004
 30
0.0
 11
776.0000000026398
 21
1449.50000000004
 31
0.0
  0
LINE
  5
1AC
330
1F
100
AcDbEntity
  8
化粧台
  6
CONTINUOUS
 62
     6
100
AcDbLine
 10
766.0000000026398
 20
1439.5
 30
0.0
 11
766.0000000026398
 21
1459.50000000004
 31
0.0
  0
CIRCLE
  5
1AD
330
1F
100
AcDbEntity
  8
化粧台
  6
CONTINUOUS
 62
     6
100
AcDbCircle
 10
766.0000000000605
 20
1449.500000000098
 30
0.0
 40
3.800000000000001
  0
LINE
  5
1AE
330
1F
100
AcDbEntity
  8
化粧台
  6
CONTINUOUS
 62
     6
100
AcDbLine
 10
1146.000000000039
 20
1449.50000000004
 30
0.0
 11
1166.000000000039
 21
1449.50000000004
 31
0.0
  0
LINE
  5
1AF
330
1F
100
AcDbEntity
  8
化粧台
  6
CONTINUOUS
 62
     6
100
AcDbLine
 10
1156.000000000039
 20
1439.5
 30
0.0
 11
1156.000000000039
 21
1459.50000000004
 31
0.0
  0
CIRCLE
  5
1B0
330
1F
100
AcDbEntity
  8
化粧台
  6
CONTINUOUS
 62
     6
100
AcDbCircle
 10
1155.999999997459
 20
1449.500000000098
 30
0.0
 40
3.800000000000001
  0
ARC
  5
1B1
330
1F
100
AcDbEntity
  8
化粧台
  6
CONTINUOUS
 62
     6
100
AcDbCircle
 10
1185.835000000209
 20
1574.891304348086
 30
0.0
 40
100.0
100
AcDbArc
 50
83.99726479958528
 51
95.78779095102057
  0
LINE
  5
1B2
330
1F
100
AcDbEntity
  8
化粧台
  6
CONTINUOUS
 62
     6
100
AcDbLine
 10
1177.614828860706
 20
1696.815716896646
 30
0.0
 11
1181.250000000082
 21
1688.067551638451
 31
0.0
  0
ARC
  5
1B3
330
1F
100
AcDbEntity
  8
化粧台
  6
CONTINUOUS
 62
     6
100
AcDbCircle
 10
1179.000000000071
 20
1697.39130434845
 30
0.0
 40
1.5
100
AcDbArc
 50
89.99999999997263
 51
202.5646074934729
  0
LINE
  5
1B4
330
1F
100
AcDbEntity
  8
化粧台
  6
CONTINUOUS
 62
     6
100
AcDbLine
 10
1194.385171139437
 20
1696.815716896657
 30
0.0
 11
1190.750000000075
 21
1688.067551638458
 31
0.0
  0
ARC
  5
1B5
330
1F
100
AcDbEntity
  8
化粧台
  6
CONTINUOUS
 62
     6
100
AcDbCircle
 10
1193.000000000071
 20
1697.391304348457
 30
0.0
 40
1.5
100
AcDbArc
 50
337.4353925066304
 51
90.00000000011136
  0
LINE
  5
1B6
330
1F
100
AcDbEntity
  8
化粧台
  6
CONTINUOUS
 62
     6
100
AcDbLine
 10
1179.000000000071
 20
1698.89130434845
 30
0.0
 11
1193.000000000071
 21
1698.891304348457
 31
0.0
  0
ARC
  5
1B7
330
1F
100
AcDbEntity
  8
化粧台
  6
CONTINUOUS
 62
     6
100
AcDbCircle
 10
1182.750000000079
 20
1685.39130434845
 30
0.0
 40
1.5
100
AcDbArc
 50
180.0000000000381
 51
270.0000000001
  0
ARC
  5
1B8
330
1F
100
AcDbEntity
  8
化粧台
  6
CONTINUOUS
 62
     6
100
AcDbCircle
 10
1189.250000000079
 20
1685.391304348457
 30
0.0
 40
1.5
100
AcDbArc
 50
269.9999999999722
 51
0.0000000000343202
  0
LINE
  5
1B9
330
1F
100
AcDbEntity
  8
化粧台
  6
CONTINUOUS
 62
     6
100
AcDbLine
 10
1181.250000000079
 20
1685.39130434845
 30
0.0
 11
1181.250000000075
 21
1688.067551638458
 31
0.0
  0
LINE
  5
1BA
330
1F
100
AcDbEntity
  8
化粧台
  6
CONTINUOUS
 62
     6
100
AcDbLine
 10
1190.750000000079
 20
1685.391304348457
 30
0.0
 11
1190.750000000079
 21
1688.067551638465
 31
0.0
  0
LINE
  5
1BB
330
1F
100
AcDbEntity
  8
化粧台
  6
CONTINUOUS
 62
     6
100
AcDbLine
 10
1189.250000000053
 20
1683.891304348454
 30
0.0
 11
1182.750000000111
 21
1683.891304348454
 31
0.0
  0
LINE
  5
1BC
330
1F
100
AcDbEntity
  8
化粧台
  6
CONTINUOUS
 62
     6
100
AcDbLine
 10
1188.50000000009
 20
1674.616086766844
 30
0.0
 11
1188.500000000086
 21
1683.891304348454
 31
0.0
  0
LINE
  5
1BD
330
1F
100
AcDbEntity
  8
化粧台
  6
CONTINUOUS
 62
     6
100
AcDbLine
 10
1183.500000000093
 20
1674.77188559973
 30
0.0
 11
1183.500000000086
 21
1683.891304348454
 31
0.0
  0
ARC
  5
1BE
330
1F
100
AcDbEntity
  8
化粧台
  6
CONTINUOUS
 62
     6
100
AcDbCircle
 10
1176.002981663356
 20
1671.891304347973
 30
0.0
 40
2.502981663321009
100
AcDbArc
 50
95.78779095101787
 51
192.4803605327015
  0
ARC
  5
1BF
330
1F
100
AcDbEntity
  8
化粧台
  6
CONTINUOUS
 62
     6
100
AcDbCircle
 10
1196.034792608897
 20
1671.891304348046
 30
0.0
 40
2.465207391219374
100
AcDbArc
 50
12.67380037052594
 51
83.99726479958545
  0
LINE
  5
1C0
330
1F
100
AcDbEntity
  8
化粧台
  6
EXLTYPE3
 62
     6
100
AcDbLine
 10
1166.000000000068
 20
1825.269009300398
 30
0.0
 11
1166.000000000068
 21
1641.021739130503
 31
0.0
  0
LINE
  5
1C1
330
1F
100
AcDbEntity
  8
化粧台
  6
CONTINUOUS
 62
     2
100
AcDbLine
 10
2205.680501423686
 20
1642.151532742202
 30
0.0
 11
2201.207948429601
 21
1539.282813878577
 31
0.0
  0
ARC
  5
1C2
330
1F
100
AcDbEntity
  8
化粧台
  6
CONTINUOUS
 62
     2
100
AcDbCircle
 10
2208.608897757144
 20
1641.499999999975
 30
0.0
 40
3.000000000000002
100
AcDbArc
 50
90.00000000000001
 51
170.4059317731352
  0
ARC
  5
1C3
330
1F
100
AcDbEntity
  8
化粧台
  6
CONTINUOUS
 62
     2
100
AcDbCircle
 10
2202.692817974045
 20
1642.499999999978
 30
0.0
 40
3.000000000000003
100
AcDbArc
 50
270.0
 51
350.4059317731353
  0
LINE
  5
1C4
330
1F
100
AcDbEntity
  8
化粧台
  6
CONTINUOUS
 62
     2
100
AcDbLine
 10
2208.608897757144
 20
1644.499999999978
 30
0.0
 11
2491.000000000102
 21
1644.499999999978
 31
0.0
  0
LINE
  5
1C5
330
1F
100
AcDbEntity
  8
化粧台
  6
CONTINUOUS
 62
     2
100
AcDbLine
 10
2191.000000000102
 20
1669.499999999978
 30
0.0
 11
2191.000000000102
 21
1674.499999999978
 31
0.0
  0
LINE
  5
1C6
330
1F
100
AcDbEntity
  8
化粧台
  6
CONTINUOUS
 62
     2
100
AcDbLine
 10
2449.705835738231
 20
1679.499999999978
 30
0.0
 11
2196.000000000102
 21
1679.499999999978
 31
0.0
  0
ARC
  5
1C7
330
1F
100
AcDbEntity
  8
化粧台
  6
CONTINUOUS
 62
     2
100
AcDbCircle
 10
2449.705835738231
 20
1684.499999999978
 30
0.0
 40
5.0
100
AcDbArc
 50
270.0
 51
343.1195105726896
  0
LINE
  5
1C8
330
1F
100
AcDbEntity
  8
化粧台
  6
CONTINUOUS
 62
     2
100
AcDbLine
 10
2459.923318877609
 20
1700.951881795063
 30
0.0
 11
2454.490398336117
 21
1683.04811820489
 31
0.0
  0
ARC
  5
1C9
330
1F
100
AcDbEntity
  8
化粧台
  6
CONTINUOUS
 62
     2
100
AcDbCircle
 10
2196.212667637833
 20
1539.499999999978
 30
0.0
 40
5.0
100
AcDbArc
 50
235.0734784673723
 51
357.5104470780591
  0
ARC
  5
1CA
330
1F
100
AcDbEntity
  8
化粧台
  6
CONTINUOUS
 62
     2
100
AcDbCircle
 10
2290.679366995561
 20
1674.781346505904
 30
0.0
 40
170.0
100
AcDbArc
 50
183.5724826096917
 51
235.0734784673746
  0
ARC
  5
1CB
330
1F
100
AcDbEntity
  8
化粧台
  6
CONTINUOUS
 62
     2
100
AcDbCircle
 10
2196.000000000102
 20
1674.499999999978
 30
0.0
 40
5.0
100
AcDbArc
 50
90.00000000000001
 51
180.0000000000002
  0
ARC
  5
1CC
330
1F
100
AcDbEntity
  8
化粧台
  6
CONTINUOUS
 62
     2
100
AcDbCircle
 10
2126.000000000102
 20
2156.999999999975
 30
0.0
 40
487.4999999999997
100
AcDbArc
 50
270.0
 51
277.6622556607652
  0
ARC
  5
1CD
330
1F
100
AcDbEntity
  8
化粧台
  6
CONTINUOUS
 62
     2
100
AcDbCircle
 10
2126.000000000102
 20
1664.499999999978
 30
0.0
 40
5.0
100
AcDbArc
 50
90.00000000000001
 51
183.5724826096912
  0
LINE
  5
1CE
330
1F
100
AcDbEntity
  8
化粧台
  6
CONTINUOUS
 62
     2
100
AcDbLine
 10
2191.069933514186
 20
1668.666666666642
 30
0.0
 11
2195.577422872739
 21
1641.999999999978
 31
0.0
  0
ARC
  5
1CF
330
1F
100
AcDbEntity
  8
化粧台
  6
CONTINUOUS
 62
     2
100
AcDbCircle
 10
2196.000000000102
 20
1669.499999999978
 30
0.0
 40
5.0
100
AcDbArc
 50
180.0000000000002
 51
189.5940682268592
  0
ARC
  5
1D0
330
1F
100
AcDbEntity
  8
化粧台
  6
CONTINUOUS
 62
     2
100
AcDbCircle
 10
2198.535462764289
 20
1642.499999999978
 30
0.0
 40
3.000000000000002
100
AcDbArc
 50
189.5940682268655
 51
270.0
  0
LINE
  5
1D1
330
1F
100
AcDbEntity
  8
化粧台
  6
CONTINUOUS
 62
     2
100
AcDbLine
 10
2198.535462764289
 20
1639.499999999978
 30
0.0
 11
2202.692817974045
 21
1639.499999999978
 31
0.0
  0
LINE
  5
1D2
330
1F
100
AcDbEntity
  8
化粧台
  6
CONTINUOUS
 62
     2
100
AcDbLine
 10
2229.0000000001
 20
1011.0
 30
0.0
 11
2229.0000000001
 21
1501.0
 31
0.0
  0
LINE
  5
1D3
330
1F
100
AcDbEntity
  8
化粧台
  6
CONTINUOUS
 62
     2
100
AcDbLine
 10
2491.000000000113
 20
1648.0
 30
0.0
 11
2491.000000000113
 21
1529.499999999949
 31
0.0
  0
LINE
  5
1D4
330
1F
100
AcDbEntity
  8
化粧台
  6
CONTINUOUS
 62
     2
100
AcDbLine
 10
2214.000000000111
 20
1501.0
 30
0.0
 11
2214.000000000111
 21
1011.0
 31
0.0
  0
LINE
  5
1D5
330
1F
100
AcDbEntity
  8
化粧台
  6
CONTINUOUS
 62
     2
100
AcDbLine
 10
2214.000000000111
 20
1501.0
 30
0.0
 11
2229.000000000108
 21
1501.0
 31
0.0
  0
LINE
  5
1D6
330
1F
100
AcDbEntity
  8
化粧台
  6
CONTINUOUS
 62
     2
100
AcDbLine
 10
2214.000000000111
 20
1011.0
 30
0.0
 11
2229.000000000108
 21
1011.0
 31
0.0
  0
ARC
  5
1D7
330
1F
100
AcDbEntity
  8
化粧台
  6
CONTINUOUS
 62
     2
100
AcDbCircle
 10
2204.500000000161
 20
1456.0
 30
0.0
 40
18.5
100
AcDbArc
 50
163.3984504009939
 51
196.6015495990061
  0
LINE
  5
1D8
330
1F
100
AcDbEntity
  8
化粧台
  6
CONTINUOUS
 62
     2
100
AcDbLine
 10
2214.000000000161
 20
1451.5
 30
0.0
 11
2187.786557396711
 21
1450.001629662143
 31
0.0
  0
ARC
  5
1D9
330
1F
100
AcDbEntity
  8
化粧台
  6
CONTINUOUS
 62
     2
100
AcDbCircle
 10
2187.729490168912
 20
1451.0
 30
0.0
 40
1.0
100
AcDbArc
 50
196.6015495990198
 51
273.2714886349227
  0
LINE
  5
1DA
330
1F
100
AcDbEntity
  8
化粧台
  6
CONTINUOUS
 62
     2
100
AcDbLine
 10
2214.000000000161
 20
1460.5
 30
0.0
 11
2187.786557396711
 21
1461.998370337857
 31
0.0
  0
LINE
  5
1DB
330
1F
100
AcDbEntity
  8
化粧台
  6
CONTINUOUS
 62
     2
100
AcDbLine
 10
2214.000000000161
 20
1451.5
 30
0.0
 11
2214.000000000161
 21
1460.5
 31
0.0
  0
ARC
  5
1DC
330
1F
100
AcDbEntity
  8
化粧台
  6
CONTINUOUS
 62
     2
100
AcDbCircle
 10
2187.729490168912
 20
1461.0
 30
0.0
 40
1.0
100
AcDbArc
 50
86.72851136507767
 51
163.3984504009802
  0
LINE
  5
1DD
330
1F
100
AcDbEntity
  8
化粧台
  6
CONTINUOUS
 62
     2
100
AcDbLine
 10
2491.0000000001
 20
1529.499999999971
 30
0.0
 11
2491.0000000001
 21
919.5
 31
0.0
  0
LINE
  5
1DE
330
1F
100
AcDbEntity
  8
化粧台
  6
CONTINUOUS
 62
     2
100
AcDbLine
 10
2210.5000000001
 20
1508.0
 30
0.0
 11
2231.0000000001
 21
1508.0
 31
0.0
  0
LINE
  5
1DF
330
1F
100
AcDbEntity
  8
化粧台
  6
CONTINUOUS
 62
     2
100
AcDbLine
 10
2231.0000000001
 20
919.5
 30
0.0
 11
2491.0000000001
 21
919.5
 31
0.0
  0
LINE
  5
1E0
330
1F
100
AcDbEntity
  8
化粧台
  6
CONTINUOUS
 62
     2
100
AcDbLine
 10
2210.5000000001
 20
1508.0
 30
0.0
 11
2210.5000000001
 21
1644.499999999978
 31
0.0
  0
LINE
  5
1E1
330
1F
100
AcDbEntity
  8
化粧台
  6
CONTINUOUS
 62
     2
100
AcDbLine
 10
2231.0000000001
 20
919.5
 30
0.0
 11
2231.0000000001
 21
1644.499999999978
 31
0.0
  0
LINE
  5
1E2
330
1F
100
AcDbEntity
  8
化粧台
  6
CONTINUOUS
 62
     6
100
AcDbLine
 10
2317.614828860706
 20
1696.815716896646
 30
0.0
 11
2321.250000000082
 21
1688.067551638451
 31
0.0
  0
ARC
  5
1E3
330
1F
100
AcDbEntity
  8
化粧台
  6
CONTINUOUS
 62
     6
100
AcDbCircle
 10
2319.000000000071
 20
1697.39130434845
 30
0.0
 40
1.5
100
AcDbArc
 50
89.99999999997263
 51
202.5646074934729
  0
LINE
  5
1E4
330
1F
100
AcDbEntity
  8
化粧台
  6
CONTINUOUS
 62
     6
100
AcDbLine
 10
2334.385171139437
 20
1696.815716896657
 30
0.0
 11
2330.750000000075
 21
1688.067551638458
 31
0.0
  0
ARC
  5
1E5
330
1F
100
AcDbEntity
  8
化粧台
  6
CONTINUOUS
 62
     6
100
AcDbCircle
 10
2333.000000000071
 20
1697.391304348457
 30
0.0
 40
1.5
100
AcDbArc
 50
337.4353925066304
 51
90.00000000011136
  0
LINE
  5
1E6
330
1F
100
AcDbEntity
  8
化粧台
  6
CONTINUOUS
 62
     6
100
AcDbLine
 10
2319.000000000071
 20
1698.89130434845
 30
0.0
 11
2333.000000000071
 21
1698.891304348457
 31
0.0
  0
ARC
  5
1E7
330
1F
100
AcDbEntity
  8
化粧台
  6
CONTINUOUS
 62
     6
100
AcDbCircle
 10
2322.750000000079
 20
1685.39130434845
 30
0.0
 40
1.5
100
AcDbArc
 50
180.0000000000381
 51
270.0000000001
  0
ARC
  5
1E8
330
1F
100
AcDbEntity
  8
化粧台
  6
CONTINUOUS
 62
     6
100
AcDbCircle
 10
2329.250000000079
 20
1685.391304348457
 30
0.0
 40
1.5
100
AcDbArc
 50
269.9999999999722
 51
0.0000000000343202
  0
LINE
  5
1E9
330
1F
100
AcDbEntity
  8
化粧台
  6
CONTINUOUS
 62
     6
100
AcDbLine
 10
2321.250000000079
 20
1685.39130434845
 30
0.0
 11
2321.250000000075
 21
1688.067551638458
 31
0.0
  0
LINE
  5
1EA
330
1F
100
AcDbEntity
  8
化粧台
  6
CONTINUOUS
 62
     6
100
AcDbLine
 10
2330.750000000079
 20
1685.391304348457
 30
0.0
 11
2330.750000000079
 21
1688.067551638465
 31
0.0
  0
LINE
  5
1EB
330
1F
100
AcDbEntity
  8
化粧台
  6
CONTINUOUS
 62
     6
100
AcDbLine
 10
2329.250000000055
 20
1683.891304348454
 30
0.0
 11
2322.750000000113
 21
1683.891304348454
 31
0.0
  0
LINE
  5
1EC
330
1F
100
AcDbEntity
  8
化粧台
  6
CONTINUOUS
 62
     6
100
AcDbLine
 10
2323.500000000093
 20
1679.500000000018
 30
0.0
 11
2323.500000000088
 21
1683.891304348454
 31
0.0
  0
LINE
  5
1ED
330
1F
100
AcDbEntity
  8
化粧台
  6
CONTINUOUS
 62
     6
100
AcDbLine
 10
2328.50000000009
 20
1679.500000000018
 30
0.0
 11
2328.500000000086
 21
1683.891304348454
 31
0.0
  0
LINE
  5
1EE
330
1F
100
AcDbEntity
  8
化粧台
  6
CONTINUOUS
 62
     2
100
AcDbLine
 10
2422.000000000059
 20
869.4999999999782
 30
0.0
 11
2390.000000000059
 21
869.4999999999782
 31
0.0
  0
LINE
  5
1EF
330
1F
100
AcDbEntity
  8
化粧台
  6
CONTINUOUS
 62
     2
100
AcDbLine
 10
2390.000000000059
 20
919.5
 30
0.0
 11
2390.000000000059
 21
869.4999999999782
 31
0.0
  0
LINE
  5
1F0
330
1F
100
AcDbEntity
  8
化粧台
  6
CONTINUOUS
 62
     2
100
AcDbLine
 10
2422.000000000059
 20
919.5
 30
0.0
 11
2422.000000000059
 21
869.4999999999782
 31
0.0
  0
LINE
  5
1F1
330
1F
100
AcDbEntity
  8
化粧台
  6
EXLTYPE2
 62
     6
100
AcDbLine
 10
2390.00000000006
 20
919.5
 30
0.0
 11
2390.00000000006
 21
1041.0
 31
0.0
  0
LINE
  5
1F2
330
1F
100
AcDbEntity
  8
化粧台
  6
EXLTYPE2
 62
     6
100
AcDbLine
 10
2422.00000000006
 20
919.5
 30
0.0
 11
2422.00000000006
 21
1041.0
 31
0.0
  0
LINE
  5
1F3
330
1F
100
AcDbEntity
  8
化粧台
  6
CONTINUOUS
 62
     6
100
AcDbLine
 10
2395.50000000006
 20
911.5
 30
0.0
 11
2416.50000000005
 21
911.5
 31
0.0
  0
LINE
  5
1F4
330
1F
100
AcDbEntity
  8
化粧台
  6
CONTINUOUS
 62
     6
100
AcDbLine
 10
2416.50000000005
 20
919.5
 30
0.0
 11
2416.50000000005
 21
911.5
 31
0.0
  0
LINE
  5
1F5
330
1F
100
AcDbEntity
  8
化粧台
  6
CONTINUOUS
 62
     6
100
AcDbLine
 10
2395.500000000042
 20
919.5
 30
0.0
 11
2395.500000000042
 21
911.5
 31
0.0
  0
LINE
  5
1F6
330
1F
100
AcDbEntity
  8
化粧台
  6
EXLTYPE2
 62
     6
100
AcDbLine
 10
2395.50000000006
 20
919.5
 30
0.0
 11
2395.50000000006
 21
1041.0
 31
0.0
  0
LINE
  5
1F7
330
1F
100
AcDbEntity
  8
化粧台
  6
EXLTYPE2
 62
     6
100
AcDbLine
 10
2416.50000000006
 20
919.5
 30
0.0
 11
2416.50000000006
 21
1041.0
 31
0.0
  0
LINE
  5
1F8
330
1F
100
AcDbEntity
  8
化粧台
  6
EXLTYPE3
 62
     6
100
AcDbLine
 10
2406.000000000059
 20
1091.0
 30
0.0
 11
2406.000000000059
 21
849.4999999999782
 31
0.0
  0
LINE
  5
1F9
330
1F
100
AcDbEntity
  8
化粧台
  6
CONTINUOUS
 62
     6
100
AcDbLine
 10
2523.500005722065
 20
1449.499999999956
 30
0.0
 11
2491.000005722065
 21
1447.49999999996
 31
0.0
  0
LINE
  5
1FA
330
1F
100
AcDbEntity
  8
化粧台
  6
CONTINUOUS
 62
     6
100
AcDbLine
 10
2491.000005722065
 20
1451.49999999996
 30
0.0
 11
2523.500005722065
 21
1449.499999999956
 31
0.0
  0
LINE
  5
1FB
330
1F
100
AcDbEntity
  8
化粧台
  6
CONTINUOUS
 62
     6
100
AcDbLine
 10
2486.00000000006
 20
1449.499999999953
 30
0.0
 11
2528.500005721961
 21
1449.499999999953
 31
0.0
  0
ARC
  5
1FC
330
1F
100
AcDbEntity
  8
化粧台
  6
CONTINUOUS
 62
     2
100
AcDbCircle
 10
2464.707881475494
 20
1699.499999999978
 30
0.0
 40
5.0
100
AcDbArc
 50
90.00000000000001
 51
163.119510572688
  0
LINE
  5
1FD
330
1F
100
AcDbEntity
  8
化粧台
  6
CONTINUOUS
 62
     2
100
AcDbLine
 10
2491.000000000102
 20
1704.499999999978
 30
0.0
 11
2491.000000000102
 21
1644.499999999978
 31
0.0
  0
LINE
  5
1FE
330
1F
100
AcDbEntity
  8
化粧台
  6
CONTINUOUS
 62
     2
100
AcDbLine
 10
2491.000000000102
 20
1704.499999999978
 30
0.0
 11
2464.707881475494
 21
1704.499999999978
 31
0.0
  0
LINE
  5
1FF
330
1F
100
AcDbEntity
  8
化粧台
  6
EXLTYPE3
 62
     6
100
AcDbLine
 10
2391.000000000068
 20
1825.269009300398
 30
0.0
 11
2391.000000000068
 21
1649.500000000102
 31
0.0
  0
LINE
  5
200
330
1F
100
AcDbEntity
  8
化粧台
  6
CONTINUOUS
 62
     6
100
AcDbLine
 10
983.8000000000526
 20
981.5000000000001
 30
0.0
 11
983.8000000000526
 21
963.7000000000007
 31
0.0
  0
LINE
  5
201
330
1F
100
AcDbEntity
  8
化粧台
  6
CONTINUOUS
 62
     6
100
AcDbLine
 10
938.2000000000539
 20
981.5000000000001
 30
0.0
 11
938.2000000000539
 21
963.7000000000007
 31
0.0
  0
ARC
  5
202
330
1F
100
AcDbEntity
  8
化粧台
  6
EXLTYPE2
 62
     6
100
AcDbCircle
 10
930.5000000000532
 20
943.5
 30
0.0
 40
3.000000000000003
100
AcDbArc
 50
90.00000000000001
 51
180.0
  0
LINE
  5
203
330
1F
100
AcDbEntity
  8
化粧台
  6
EXLTYPE2
 62
     6
100
AcDbLine
 10
930.5000000000532
 20
946.5
 30
0.0
 11
991.5000000000532
 21
946.5
 31
0.0
  0
LINE
  5
204
330
1F
100
AcDbEntity
  8
化粧台
  6
EXLTYPE2
 62
     6
100
AcDbLine
 10
927.5000000000532
 20
943.5
 30
0.0
 11
927.5000000000532
 21
923.5
 31
0.0
  0
ARC
  5
205
330
1F
100
AcDbEntity
  8
化粧台
  6
EXLTYPE2
 62
     6
100
AcDbCircle
 10
937.0000000000532
 20
958.5
 30
0.0
 40
3.000000000000003
100
AcDbArc
 50
90.00000000000001
 51
180.0
  0
LINE
  5
206
330
1F
100
AcDbEntity
  8
化粧台
  6
EXLTYPE2
 62
     6
100
AcDbLine
 10
937.0000000000532
 20
961.4999999999999
 30
0.0
 11
985.0000000000532
 21
961.4999999999999
 31
0.0
  0
LINE
  5
207
330
1F
100
AcDbEntity
  8
化粧台
  6
EXLTYPE2
 62
     6
100
AcDbLine
 10
934.0000000000532
 20
958.5
 30
0.0
 11
934.0000000000532
 21
946.5
 31
0.0
  0
ARC
  5
208
330
1F
100
AcDbEntity
  8
化粧台
  6
EXLTYPE2
 62
     6
100
AcDbCircle
 10
985.0000000000532
 20
958.5
 30
0.0
 40
3.000000000000003
100
AcDbArc
 50
0.0
 51
90.00000000000001
  0
LINE
  5
209
330
1F
100
AcDbEntity
  8
化粧台
  6
EXLTYPE2
 62
     6
100
AcDbLine
 10
988.0000000000532
 20
958.5
 30
0.0
 11
988.0000000000532
 21
946.5
 31
0.0
  0
ARC
  5
20A
330
1F
100
AcDbEntity
  8
化粧台
  6
EXLTYPE2
 62
     6
100
AcDbCircle
 10
991.5000000000532
 20
943.5
 30
0.0
 40
3.000000000000003
100
AcDbArc
 50
0.0
 51
90.00000000000001
  0
LINE
  5
20B
330
1F
100
AcDbEntity
  8
化粧台
  6
EXLTYPE2
 62
     6
100
AcDbLine
 10
994.5000000000532
 20
943.5
 30
0.0
 11
994.5000000000532
 21
923.5
 31
0.0
  0
LINE
  5
20C
330
1F
100
AcDbEntity
  8
化粧台
  6
EXLTYPE2
 62
     6
100
AcDbLine
 10
927.5000000000532
 20
923.5
 30
0.0
 11
994.5000000000532
 21
923.5
 31
0.0
  0
LINE
  5
20D
330
1F
100
AcDbEntity
  8
化粧台
  6
EXLTYPE2
 62
     6
100
AcDbLine
 10
938.2000000000539
 20
981.5000000000001
 30
0.0
 11
983.8000000000526
 21
981.5000000000001
 31
0.0
  0
LINE
  5
20E
330
1F
100
AcDbEntity
  8
化粧台
  6
EXLTYPE2
 62
     6
100
AcDbLine
 10
938.2000000000539
 20
963.7000000000007
 30
0.0
 11
983.8000000000526
 21
963.7000000000007
 31
0.0
  0
LINE
  5
20F
330
1F
100
AcDbEntity
  8
化粧台
  6
CONTINUOUS
 62
     6
100
AcDbLine
 10
2428.800000000052
 20
981.5000000000001
 30
0.0
 11
2428.800000000052
 21
963.7000000000007
 31
0.0
  0
LINE
  5
210
330
1F
100
AcDbEntity
  8
化粧台
  6
CONTINUOUS
 62
     6
100
AcDbLine
 10
2383.200000000054
 20
981.5000000000001
 30
0.0
 11
2383.200000000054
 21
963.7000000000007
 31
0.0
  0
ARC
  5
211
330
1F
100
AcDbEntity
  8
化粧台
  6
EXLTYPE2
 62
     6
100
AcDbCircle
 10
2375.500000000053
 20
943.5
 30
0.0
 40
3.000000000000003
100
AcDbArc
 50
90.00000000000001
 51
180.0
  0
LINE
  5
212
330
1F
100
AcDbEntity
  8
化粧台
  6
EXLTYPE2
 62
     6
100
AcDbLine
 10
2375.500000000053
 20
946.5
 30
0.0
 11
2436.500000000053
 21
946.5
 31
0.0
  0
LINE
  5
213
330
1F
100
AcDbEntity
  8
化粧台
  6
EXLTYPE2
 62
     6
100
AcDbLine
 10
2372.500000000053
 20
943.5
 30
0.0
 11
2372.500000000053
 21
923.5
 31
0.0
  0
ARC
  5
214
330
1F
100
AcDbEntity
  8
化粧台
  6
EXLTYPE2
 62
     6
100
AcDbCircle
 10
2382.000000000053
 20
958.5
 30
0.0
 40
3.000000000000003
100
AcDbArc
 50
90.00000000000001
 51
180.0
  0
LINE
  5
215
330
1F
100
AcDbEntity
  8
化粧台
  6
EXLTYPE2
 62
     6
100
AcDbLine
 10
2382.000000000053
 20
961.4999999999999
 30
0.0
 11
2430.000000000053
 21
961.4999999999999
 31
0.0
  0
LINE
  5
216
330
1F
100
AcDbEntity
  8
化粧台
  6
EXLTYPE2
 62
     6
100
AcDbLine
 10
2379.000000000053
 20
958.5
 30
0.0
 11
2379.000000000053
 21
946.5
 31
0.0
  0
ARC
  5
217
330
1F
100
AcDbEntity
  8
化粧台
  6
EXLTYPE2
 62
     6
100
AcDbCircle
 10
2430.000000000053
 20
958.5
 30
0.0
 40
3.000000000000003
100
AcDbArc
 50
0.0
 51
90.00000000000001
  0
LINE
  5
218
330
1F
100
AcDbEntity
  8
化粧台
  6
EXLTYPE2
 62
     6
100
AcDbLine
 10
2433.000000000053
 20
958.5
 30
0.0
 11
2433.000000000053
 21
946.5
 31
0.0
  0
ARC
  5
219
330
1F
100
AcDbEntity
  8
化粧台
  6
EXLTYPE2
 62
     6
100
AcDbCircle
 10
2436.500000000053
 20
943.5
 30
0.0
 40
3.000000000000003
100
AcDbArc
 50
0.0
 51
90.00000000000001
  0
LINE
  5
21A
330
1F
100
AcDbEntity
  8
化粧台
  6
EXLTYPE2
 62
     6
100
AcDbLine
 10
2439.500000000053
 20
943.5
 30
0.0
 11
2439.500000000053
 21
923.5
 31
0.0
  0
LINE
  5
21B
330
1F
100
AcDbEntity
  8
化粧台
  6
EXLTYPE2
 62
     6
100
AcDbLine
 10
2372.500000000053
 20
923.5
 30
0.0
 11
2439.500000000053
 21
923.5
 31
0.0
  0
LINE
  5
21C
330
1F
100
AcDbEntity
  8
化粧台
  6
EXLTYPE2
 62
     6
100
AcDbLine
 10
2383.200000000054
 20
981.5000000000001
 30
0.0
 11
2428.800000000052
 21
981.5000000000001
 31
0.0
  0
LINE
  5
21D
330
1F
100
AcDbEntity
  8
化粧台
  6
EXLTYPE2
 62
     6
100
AcDbLine
 10
2383.200000000054
 20
963.7000000000007
 30
0.0
 11
2428.800000000052
 21
963.7000000000007
 31
0.0
  0
LINE
  5
21E
330
1F
100
AcDbEntity
  8
化粧台
  6
EXLTYPE2
 62
     6
100
AcDbLine
 10
945.0000000000605
 20
919.5
 30
0.0
 11
945.0000000000605
 21
1089.5
 31
0.0
  0
LINE
  5
21F
330
1F
100
AcDbEntity
  8
化粧台
  6
EXLTYPE2
 62
     6
100
AcDbLine
 10
977.0000000000605
 20
919.5
 30
0.0
 11
977.0000000000605
 21
1089.5
 31
0.0
  0
LINE
  5
220
330
1F
100
AcDbEntity
  8
化粧台
  6
EXLTYPE4
 62
     6
100
AcDbLine
 10
1160.50000000006
 20
919.5
 30
0.0
 11
1160.50000000006
 21
1069.5
 31
0.0
  0
LINE
  5
221
330
1F
100
AcDbEntity
  8
化粧台
  6
EXLTYPE4
 62
     6
100
AcDbLine
 10
1181.50000000006
 20
919.5
 30
0.0
 11
1181.50000000006
 21
1069.5
 31
0.0
  0
LINE
  5
222
330
1F
100
AcDbEntity
  8
化粧台
  6
EXLTYPE3
 62
     6
100
AcDbLine
 10
1171.00000000006
 20
1079.5
 30
0.0
 11
1171.00000000006
 21
891.5
 31
0.0
  0
LINE
  5
223
330
1F
100
AcDbEntity
  8
化粧台
  6
EXLTYPE3
 62
     6
100
AcDbLine
 10
2461.00000000006
 20
1389.499999999998
 30
0.0
 11
2556.00000000006
 21
1389.499999999998
 31
0.0
  0
LINE
  5
224
330
1F
100
AcDbEntity
  8
化粧台
  6
CONTINUOUS
 62
     6
100
AcDbLine
 10
2541.00000000006
 20
1405.499999999998
 30
0.0
 11
2541.00000000006
 21
1373.499999999998
 31
0.0
  0
LINE
  5
225
330
1F
100
AcDbEntity
  8
化粧台
  6
CONTINUOUS
 62
     6
100
AcDbLine
 10
2491.00000000006
 20
1405.499999999998
 30
0.0
 11
2541.00000000006
 21
1405.499999999998
 31
0.0
  0
LINE
  5
226
330
1F
100
AcDbEntity
  8
化粧台
  6
CONTINUOUS
 62
     6
100
AcDbLine
 10
2491.00000000006
 20
1373.499999999998
 30
0.0
 11
2541.00000000006
 21
1373.499999999998
 31
0.0
  0
LINE
  5
227
330
1F
100
AcDbEntity
  8
化粧台
  6
CONTINUOUS
 62
     6
100
AcDbLine
 10
2491.00000000006
 20
1258.999999999978
 30
0.0
 11
2499.00000000006
 21
1258.999999999978
 31
0.0
  0
LINE
  5
228
330
1F
100
AcDbEntity
  8
化粧台
  6
CONTINUOUS
 62
     6
100
AcDbLine
 10
2491.00000000006
 20
1279.999999999985
 30
0.0
 11
2499.00000000006
 21
1279.999999999985
 31
0.0
  0
LINE
  5
229
330
1F
100
AcDbEntity
  8
化粧台
  6
CONTINUOUS
 62
     6
100
AcDbLine
 10
2499.00000000006
 20
1258.999999999996
 30
0.0
 11
2499.00000000006
 21
1279.999999999985
 31
0.0
  0
LINE
  5
22A
330
1F
100
AcDbEntity
  8
化粧台
  6
EXLTYPE3
 62
     6
100
AcDbLine
 10
2471.00000000006
 20
1269.499999999998
 30
0.0
 11
2519.00000000006
 21
1269.499999999998
 31
0.0
  0
LINE
  5
22B
330
1F
100
AcDbEntity
  8
化粧台
  6
CONTINUOUS
 62
     2
100
AcDbLine
 10
960.0000000000205
 20
1501.0
 30
0.0
 11
960.0000000000205
 21
1339.5
 31
0.0
  0
LINE
  5
22C
330
1F
100
AcDbEntity
  8
化粧台
  6
CONTINUOUS
 62
     2
100
AcDbLine
 10
960.0000000000205
 20
1231.5
 30
0.0
 11
960.0000000000205
 21
1011.00000000004
 31
0.0
  0
LINE
  5
22D
330
1F
100
AcDbEntity
  8
化粧台
  6
CONTINUOUS
 62
     2
100
AcDbLine
 10
962.0000000000203
 20
1501.0
 30
0.0
 11
962.0000000000203
 21
1339.5
 31
0.0
  0
LINE
  5
22E
330
1F
100
AcDbEntity
  8
化粧台
  6
CONTINUOUS
 62
     2
100
AcDbLine
 10
962.0000000000203
 20
1231.5
 30
0.0
 11
962.0000000000203
 21
1011.00000000004
 31
0.0
  0
LINE
  5
22F
330
1F
100
AcDbEntity
  8
化粧台
  6
EXLTYPE3
 62
     6
100
AcDbLine
 10
961.0000000000605
 20
1724.499999999956
 30
0.0
 11
961.0000000000605
 21
1339.5
 31
0.0
  0
LINE
  5
230
330
1F
100
AcDbEntity
  8
化粧台
  6
EXLTYPE3
 62
     6
100
AcDbLine
 10
961.0000000000605
 20
1231.5
 30
0.0
 11
961.0000000000605
 21
849.5
 31
0.0
  0
TEXT
  5
231
330
1F
100
AcDbEntity
  8
化粧台
  6
CONTINUOUS
 62
     2
100
AcDbText
 10
505.0000000000132
 20
926.6999999999989
 30
0.0
 40
59.99999618530273
  1
Ｆ.Ｌ.
 41
0.9086538461538461
  7
EXCADSTD
 72
     5
 11
639.9999914169443
 21
926.6999999999989
 31
0.0
100
AcDbText
  0
LINE
  5
232
330
1F
100
AcDbEntity
  8
化粧台
  6
CONTINUOUS
 62
     7
100
AcDbLine
 10
2014.50000000006
 20
919.4999999999991
 30
0.0
 11
2491.00000000006
 21
919.4999999999991
 31
0.0
  0
TEXT
  5
233
330
1F
100
AcDbEntity
  8
化粧台
  6
CONTINUOUS
 62
     2
100
AcDbText
 10
2023.999999999913
 20
926.6999999999998
 30
0.0
 40
59.99999618530273
  1
Ｆ.Ｌ.
 41
0.9086538461538461
  7
EXCADSTD
 72
     5
 11
2158.999991416844
 21
926.6999999999998
 31
0.0
100
AcDbText
  0
LINE
  5
234
330
1F
100
AcDbEntity
  8
化粧台
  6
CONTINUOUS
 62
     1
100
AcDbLine
 10
676.0000000001005
 20
3785.896460656128
 30
0.0
 11
665.4968154076546
 21
3786.958862369156
 31
0.0
  0
LINE
  5
235
330
1F
100
AcDbEntity
  8
化粧台
  6
CONTINUOUS
 62
     1
100
AcDbLine
 10
1246.000000000019
 20
3785.896460656128
 30
0.0
 11
1256.503184592468
 21
3786.958862369156
 31
0.0
  0
LINE
  5
236
330
1F
100
AcDbEntity
  8
化粧台
  6
CONTINUOUS
 62
     1
100
AcDbLine
 10
676.0000000000605
 20
3785.896460656131
 30
0.0
 11
676.0000000000605
 21
3524.999999999956
 31
0.0
  0
ARC
  5
237
330
1F
100
AcDbEntity
  8
化粧台
  6
CONTINUOUS
 62
     1
100
AcDbCircle
 10
666.0000000000605
 20
3791.933478461477
 30
0.0
 40
5.0
100
AcDbArc
 50
180.0
 51
264.2241517557764
  0
LINE
  5
238
330
1F
100
AcDbEntity
  8
化粧台
  6
CONTINUOUS
 62
     1
100
AcDbLine
 10
879.8467290691428
 20
3784.379204098828
 30
0.0
 11
676.0000000001005
 21
3785.896460656128
 31
0.0
  0
LINE
  5
239
330
1F
100
AcDbEntity
  8
化粧台
  6
CONTINUOUS
 62
     1
100
AcDbLine
 10
666.0000000000605
 20
3794.999999999956
 30
0.0
 11
661.0000000000605
 21
3794.999999999956
 31
0.0
  0
ARC
  5
23A
330
1F
100
AcDbEntity
  8
化粧台
  6
CONTINUOUS
 62
     2
100
AcDbCircle
 10
666.0000000000605
 20
3799.999999999956
 30
0.0
 40
5.0
100
AcDbArc
 50
180.0
 51
270.0000000000002
  0
ARC
  5
23B
330
1F
100
AcDbEntity
  8
化粧台
  6
CONTINUOUS
 62
     2
100
AcDbCircle
 10
759.2575899817407
 20
3519.999999999956
 30
0.0
 40
5.0
100
AcDbArc
 50
51.72879195205692
 51
90.00000000000001
  0
ARC
  5
23C
330
1F
100
AcDbEntity
  8
化粧台
  6
CONTINUOUS
 62
     2
100
AcDbCircle
 10
666.0000000000605
 20
3529.999999999956
 30
0.0
 40
5.0
100
AcDbArc
 50
180.0
 51
270.0000000000002
  0
ARC
  5
23D
330
1F
100
AcDbEntity
  8
化粧台
  6
CONTINUOUS
 62
     1
100
AcDbCircle
 10
961.0000000000605
 20
3775.714285714243
 30
0.0
 40
320.7142857142863
100
AcDbArc
 50
231.4199075616226
 51
231.7287919520556
  0
LINE
  5
23E
330
1F
100
AcDbEntity
  8
化粧台
  6
CONTINUOUS
 62
     1
100
AcDbLine
 10
761.0000000000605
 20
3524.999999999956
 30
0.0
 11
759.2575899817407
 21
3524.999999999956
 31
0.0
  0
LINE
  5
23F
330
1F
100
AcDbEntity
  8
化粧台
  6
CONTINUOUS
 62
     2
100
AcDbLine
 10
661.0000000000605
 20
3824.999999999956
 30
0.0
 11
661.0000000000605
 21
3529.999999999956
 31
0.0
  0
LINE
  5
240
330
1F
100
AcDbEntity
  8
化粧台
  6
CONTINUOUS
 62
     2
100
AcDbLine
 10
759.2575899817407
 20
3524.999999999956
 30
0.0
 11
666.0000000000605
 21
3524.999999999956
 31
0.0
  0
ELLIPSE
  5
241
330
1F
100
AcDbEntity
  8
化粧台
  6
CONTINUOUS
 62
     2
100
AcDbEllipse
 10
961.0000000000605
 20
3771.173898276829
 30
0.0
 11
12.00000000000001
 21
0.0
 31
0.0
210
0.0
220
0.0
230
1.0
 40
0.2903763590166665
 41
0.0
 42
6.283185307179586
  0
ARC
  5
242
330
1F
100
AcDbEntity
  8
化粧台
  6
CONTINUOUS
 62
     2
100
AcDbCircle
 10
961.0000000000605
 20
3862.972118768519
 30
0.0
 40
112.9721187685906
100
AcDbArc
 50
224.0817618104601
 51
315.9182381895401
  0
LINE
  5
243
330
1F
100
AcDbEntity
  8
化粧台
  6
CONTINUOUS
 62
     1
100
AcDbLine
 10
1246.000000000059
 20
3785.896460656131
 30
0.0
 11
1246.000000000059
 21
3524.999999999956
 31
0.0
  0
ARC
  5
244
330
1F
100
AcDbEntity
  8
化粧台
  6
CONTINUOUS
 62
     1
100
AcDbCircle
 10
1256.000000000059
 20
3791.933478461477
 30
0.0
 40
5.0
100
AcDbArc
 50
275.7758482442237
 51
0.0
  0
LINE
  5
245
330
1F
100
AcDbEntity
  8
化粧台
  6
CONTINUOUS
 62
     1
100
AcDbLine
 10
1042.153270930982
 20
3784.379204098828
 30
0.0
 11
1246.000000000019
 21
3785.896460656128
 31
0.0
  0
LINE
  5
246
330
1F
100
AcDbEntity
  8
化粧台
  6
CONTINUOUS
 62
     1
100
AcDbLine
 10
1256.000000000059
 20
3794.999999999956
 30
0.0
 11
1261.000000000059
 21
3794.999999999956
 31
0.0
  0
ARC
  5
247
330
1F
100
AcDbEntity
  8
化粧台
  6
CONTINUOUS
 62
     2
100
AcDbCircle
 10
1256.000000000059
 20
3799.999999999956
 30
0.0
 40
5.0
100
AcDbArc
 50
270.0000000000002
 51
0.0
  0
LINE
  5
248
330
1F
100
AcDbEntity
  8
化粧台
  6
CONTINUOUS
 62
     2
100
AcDbLine
 10
666.0000000000605
 20
3794.999999999956
 30
0.0
 11
1256.000000000059
 21
3794.999999999956
 31
0.0
  0
LINE
  5
249
330
1F
100
AcDbEntity
  8
化粧台
  6
CONTINUOUS
 62
     2
100
AcDbLine
 10
661.0000000000605
 20
3824.999999999956
 30
0.0
 11
1261.000000000059
 21
3824.999999999956
 31
0.0
  0
CIRCLE
  5
24A
330
1F
100
AcDbEntity
  8
化粧台
  6
CONTINUOUS
 62
     2
100
AcDbCircle
 10
961.0000000000605
 20
3699.999999999956
 30
0.0
 40
20.5
  0
CIRCLE
  5
24B
330
1F
100
AcDbEntity
  8
化粧台
  6
CONTINUOUS
 62
     2
100
AcDbCircle
 10
961.0000000000605
 20
3699.999999999956
 30
0.0
 40
30.50000000000002
  0
ARC
  5
24C
330
1F
100
AcDbEntity
  8
化粧台
  6
CONTINUOUS
 62
     2
100
AcDbCircle
 10
1162.74241001838
 20
3519.999999999956
 30
0.0
 40
5.0
100
AcDbArc
 50
90.00000000000001
 51
128.2712080479443
  0
ARC
  5
24D
330
1F
100
AcDbEntity
  8
化粧台
  6
CONTINUOUS
 62
     2
100
AcDbCircle
 10
1256.000000000059
 20
3529.999999999956
 30
0.0
 40
5.0
100
AcDbArc
 50
270.0000000000002
 51
0.0
  0
ARC
  5
24E
330
1F
100
AcDbEntity
  8
化粧台
  6
CONTINUOUS
 62
     2
100
AcDbCircle
 10
961.0000000000605
 20
3775.714285714243
 30
0.0
 40
320.7142857142863
100
AcDbArc
 50
231.7287919520556
 51
308.2712080479444
  0
ARC
  5
24F
330
1F
100
AcDbEntity
  8
化粧台
  6
CONTINUOUS
 62
     1
100
AcDbCircle
 10
961.0000000000605
 20
3775.714285714243
 30
0.0
 40
320.7142857142863
100
AcDbArc
 50
308.2712080479444
 51
308.5800924383774
  0
LINE
  5
250
330
1F
100
AcDbEntity
  8
化粧台
  6
CONTINUOUS
 62
     1
100
AcDbLine
 10
1161.00000000006
 20
3524.999999999956
 30
0.0
 11
1162.74241001838
 21
3524.999999999956
 31
0.0
  0
LINE
  5
251
330
1F
100
AcDbEntity
  8
化粧台
  6
CONTINUOUS
 62
     2
100
AcDbLine
 10
1261.000000000059
 20
3824.999999999956
 30
0.0
 11
1261.000000000059
 21
3529.999999999956
 31
0.0
  0
LINE
  5
252
330
1F
100
AcDbEntity
  8
化粧台
  6
CONTINUOUS
 62
     2
100
AcDbLine
 10
1162.74241001838
 20
3524.999999999956
 30
0.0
 11
1256.000000000059
 21
3524.999999999956
 31
0.0
  0
LINE
  5
253
330
1F
100
AcDbEntity
  8
化粧台
  6
EXLTYPE3
 62
     6
100
AcDbLine
 10
914.9000000000583
 20
3699.999999999956
 30
0.0
 11
1006.50000000006
 21
3699.999999999956
 31
0.0
  0
LINE
  5
254
330
1F
100
AcDbEntity
  8
化粧台
  6
CONTINUOUS
 62
     6
100
AcDbLine
 10
1154.00000000006
 20
3825.0
 30
0.0
 11
1156.00000000006
 21
3857.5
 31
0.0
  0
LINE
  5
255
330
1F
100
AcDbEntity
  8
化粧台
  6
CONTINUOUS
 62
     6
100
AcDbLine
 10
1156.00000000006
 20
3857.5
 30
0.0
 11
1158.00000000006
 21
3825.0
 31
0.0
  0
LINE
  5
256
330
1F
100
AcDbEntity
  8
化粧台
  6
CONTINUOUS
 62
     6
100
AcDbLine
 10
1156.00000000006
 20
3820.0
 30
0.0
 11
1156.00000000006
 21
3862.500005721901
 31
0.0
  0
LINE
  5
257
330
1F
100
AcDbEntity
  8
化粧台
  6
CONTINUOUS
 62
     6
100
AcDbLine
 10
764.0000000000605
 20
3825.0
 30
0.0
 11
766.0000000000605
 21
3857.5
 31
0.0
  0
LINE
  5
258
330
1F
100
AcDbEntity
  8
化粧台
  6
CONTINUOUS
 62
     6
100
AcDbLine
 10
766.0000000000605
 20
3857.5
 30
0.0
 11
768.0000000000605
 21
3825.0
 31
0.0
  0
LINE
  5
259
330
1F
100
AcDbEntity
  8
化粧台
  6
CONTINUOUS
 62
     6
100
AcDbLine
 10
766.0000000000605
 20
3820.0
 30
0.0
 11
766.0000000000605
 21
3862.500005721901
 31
0.0
  0
LINE
  5
25A
330
1F
100
AcDbEntity
  8
化粧台
  6
EXLTYPE3
 62
     6
100
AcDbLine
 10
961.0000000000568
 20
3434.999999999956
 30
0.0
 11
961.0000000000605
 21
3845.0
 31
0.0
  0
LINE
  5
25B
330
1F
100
AcDbEntity
  8
化粧台
  6
CONTINUOUS
 62
     6
100
AcDbLine
 10
1144.00000000006
 20
3724.999999999956
 30
0.0
 11
1188.00000000006
 21
3724.999999999956
 31
0.0
  0
LINE
  5
25C
330
1F
100
AcDbEntity
  8
化粧台
  6
CONTINUOUS
 62
     6
100
AcDbLine
 10
1166.00000000006
 20
3702.999999999956
 30
0.0
 11
1166.00000000006
 21
3746.999999999956
 31
0.0
  0
CIRCLE
  5
25D
330
1F
100
AcDbEntity
  8
化粧台
  6
CONTINUOUS
 62
     6
100
AcDbCircle
 10
1186.00000000006
 20
3660.0
 30
0.0
 40
8.50000000060004
  0
CIRCLE
  5
25E
330
1F
100
AcDbEntity
  8
化粧台
  6
CONTINUOUS
 62
     6
100
AcDbCircle
 10
1186.00000000006
 20
3660.0
 30
0.0
 40
12.5
  0
LINE
  5
25F
330
1F
100
AcDbEntity
  8
化粧台
  6
EXLTYPE3
 62
     6
100
AcDbLine
 10
996.0000000000604
 20
3795.0
 30
0.0
 11
996.0000000000604
 21
3890.0
 31
0.0
  0
LINE
  5
260
330
1F
100
AcDbEntity
  8
化粧台
  6
CONTINUOUS
 62
     6
100
AcDbLine
 10
980.0000000000605
 20
3875.0
 30
0.0
 11
1012.000000000061
 21
3875.0
 31
0.0
  0
LINE
  5
261
330
1F
100
AcDbEntity
  8
化粧台
  6
CONTINUOUS
 62
     6
100
AcDbLine
 10
980.0000000000605
 20
3825.0
 30
0.0
 11
980.0000000000605
 21
3875.0
 31
0.0
  0
LINE
  5
262
330
1F
100
AcDbEntity
  8
化粧台
  6
CONTINUOUS
 62
     6
100
AcDbLine
 10
1012.000000000061
 20
3825.0
 30
0.0
 11
1012.000000000061
 21
3875.0
 31
0.0
  0
LINE
  5
263
330
1F
100
AcDbEntity
  8
化粧台
  6
CONTINUOUS
 62
     6
100
AcDbLine
 10
1181.500000000082
 20
3825.0
 30
0.0
 11
1181.500000000082
 21
3833.0
 31
0.0
  0
LINE
  5
264
330
1F
100
AcDbEntity
  8
化粧台
  6
CONTINUOUS
 62
     6
100
AcDbLine
 10
1160.500000000075
 20
3825.0
 30
0.0
 11
1160.500000000075
 21
3833.0
 31
0.0
  0
LINE
  5
265
330
1F
100
AcDbEntity
  8
化粧台
  6
CONTINUOUS
 62
     6
100
AcDbLine
 10
1181.500000000064
 20
3833.0
 30
0.0
 11
1160.500000000075
 21
3833.0
 31
0.0
  0
LINE
  5
266
330
1F
100
AcDbEntity
  8
化粧台
  6
EXLTYPE3
 62
     6
100
AcDbLine
 10
1171.00000000006
 20
3805.0
 30
0.0
 11
1171.00000000006
 21
3853.0
 31
0.0
  0
LINE
  5
267
330
1F
100
AcDbEntity
  8
化粧台
  6
CONTINUOUS
 62
     7
100
AcDbLine
 10
511.0000000000605
 20
3825.0
 30
0.0
 11
1516.000000000059
 21
3825.0
 31
0.0
  0
TEXT
  5
268
330
1F
100
AcDbEntity
  8
化粧台
  6
CONTINUOUS
 62
     2
100
AcDbText
 10
510.5500000003744
 20
3758.000003814646
 30
0.0
 40
59.99999618530273
  1
Ｗ.Ｌ.
 41
0.9086538461538461
  7
EXCADSTD
 72
     5
 11
645.5499914173056
 21
3758.000003814646
 31
0.0
100
AcDbText
  0
LINE
  5
269
330
1F
100
AcDbEntity
  8
化粧台
  6
CONTINUOUS
 62
     7
100
AcDbLine
 10
2491.00000000006
 20
919.4999999999991
 30
0.0
 11
2491.000000000059
 21
2926.35
 31
0.0
  0
TEXT
  5
26A
330
1F
100
AcDbEntity
  8
化粧台
  6
CONTINUOUS
 62
     2
100
AcDbText
 10
2481.499999999895
 20
2792.0
 30
0.0
 40
59.99999618530273
  1
Ｗ.Ｌ.
 50
90.0
 41
0.9086538461538461
  7
EXCADSTD
 72
     5
 11
2481.499999999895
 21
2926.999991416931
 31
0.0
100
AcDbText
  0
LINE
  5
26B
330
1F
100
AcDbEntity
  8
化粧台
  6
CONTINUOUS
 62
     7
100
AcDbLine
 10
511.0000000000605
 20
919.4999999999991
 30
0.0
 11
1593.0
 21
919.4999999999991
 31
0.0
  0
ARC
  5
26C
330
1F
100
AcDbEntity
  8
化粧台
  6
CONTINUOUS
 62
     2
100
AcDbCircle
 10
961.0000000000605
 20
3634.999999999956
 30
0.0
 40
170.0
100
AcDbArc
 50
118.5139152596803
 51
17.11440851745527
  0
ARC
  5
26D
330
1F
100
AcDbEntity
  8
化粧台
  6
CONTINUOUS
 62
     2
100
AcDbCircle
 10
961.0000000000605
 20
3634.999999999956
 30
0.0
 40
170.0
100
AcDbArc
 50
32.06712477844566
 51
61.48608474031997
  0
LINE
  5
26E
330
1F
100
AcDbEntity
  8
化粧台
  6
CONTINUOUS
 62
     2
100
AcDbLine
 10
666.1851228749024
 20
1704.499999999956
 30
0.0
 11
1142.370562910576
 21
1704.499999999956
 31
0.0
  0
LINE
  5
26F
330
1F
100
AcDbEntity
  8
化粧台
  6
CONTINUOUS
 62
     2
100
AcDbLine
 10
1187.298584942926
 20
1704.499999999956
 30
0.0
 11
1255.814877125255
 21
1704.499999999956
 31
0.0
  0
LINE
  5
270
330
1F
100
AcDbEntity
  8
鏡台
  6
EXLTYPE3
 62
     6
100
AcDbLine
 10
961.0000000000023
 20
2690.500000000004
 30
0.0
 11
961.0000000000023
 21
2041.000000000004
 31
0.0
  0
LINE
  5
271
330
1F
100
AcDbEntity
  8
鏡台
  6
EXLTYPE3
 62
     6
100
AcDbLine
 10
797.6000000000063
 20
2574.500000000004
 30
0.0
 11
825.9500000000048
 21
2574.500000000004
 31
0.0
  0
LINE
  5
272
330
1F
100
AcDbEntity
  8
鏡台
  6
EXLTYPE3
 62
     6
100
AcDbLine
 10
811.0000000000059
 20
2587.900000000003
 30
0.0
 11
811.0000000000059
 21
2559.550000000005
 31
0.0
  0
LINE
  5
273
330
1F
100
AcDbEntity
  8
鏡台
  6
EXLTYPE3
 62
     6
100
AcDbLine
 10
1124.400000000006
 20
2574.500000000004
 30
0.0
 11
1096.050000000007
 21
2574.500000000004
 31
0.0
  0
LINE
  5
274
330
1F
100
AcDbEntity
  8
鏡台
  6
EXLTYPE3
 62
     6
100
AcDbLine
 10
1111.000000000006
 20
2587.900000000003
 30
0.0
 11
1111.000000000006
 21
2559.550000000005
 31
0.0
  0
LINE
  5
275
330
1F
100
AcDbEntity
  8
鏡台
  6
EXLTYPE3
 62
     6
100
AcDbLine
 10
1124.400000000006
 20
2089.500000000004
 30
0.0
 11
1096.050000000005
 21
2089.500000000004
 31
0.0
  0
LINE
  5
276
330
1F
100
AcDbEntity
  8
鏡台
  6
EXLTYPE3
 62
     6
100
AcDbLine
 10
1111.000000000006
 20
2102.900000000003
 30
0.0
 11
1111.000000000006
 21
2074.550000000005
 31
0.0
  0
LINE
  5
277
330
1F
100
AcDbEntity
  8
鏡台
  6
CONTINUOUS
 62
     4
100
AcDbLine
 10
1221.000000000006
 20
2629.500000000004
 30
0.0
 11
1220.000000000008
 21
2629.500000000004
 31
0.0
  0
LINE
  5
278
330
1F
100
AcDbEntity
  8
鏡台
  6
CONTINUOUS
 62
     4
100
AcDbLine
 10
701.0000000000041
 20
2629.500000000004
 30
0.0
 11
702.0000000000041
 21
2629.500000000004
 31
0.0
  0
LINE
  5
279
330
1F
100
AcDbEntity
  8
鏡台
  6
CONTINUOUS
 62
     4
100
AcDbLine
 10
701.0000000000041
 20
2629.500000000004
 30
0.0
 11
701.0000000000041
 21
2109.500000000004
 31
0.0
  0
LINE
  5
27A
330
1F
100
AcDbEntity
  8
鏡台
  6
CONTINUOUS
 62
     4
100
AcDbLine
 10
701.0000000000041
 20
2109.500000000004
 30
0.0
 11
702.0000000000041
 21
2109.500000000004
 31
0.0
  0
LINE
  5
27B
330
1F
100
AcDbEntity
  8
鏡台
  6
CONTINUOUS
 62
     4
100
AcDbLine
 10
1221.000000000002
 20
2629.500000000004
 30
0.0
 11
1221.000000000002
 21
2109.500000000004
 31
0.0
  0
LINE
  5
27C
330
1F
100
AcDbEntity
  8
鏡台
  6
CONTINUOUS
 62
     4
100
AcDbLine
 10
1221.000000000004
 20
2109.500000000004
 30
0.0
 11
1220.000000000002
 21
2109.500000000004
 31
0.0
  0
LINE
  5
27D
330
1F
100
AcDbEntity
  8
鏡台
  6
CONTINUOUS
 62
     6
100
AcDbLine
 10
797.6000000000063
 20
2089.500000000004
 30
0.0
 11
825.9500000000048
 21
2089.500000000004
 31
0.0
  0
LINE
  5
27E
330
1F
100
AcDbEntity
  8
鏡台
  6
CONTINUOUS
 62
     6
100
AcDbLine
 10
811.0000000000059
 20
2102.900000000003
 30
0.0
 11
811.0000000000059
 21
2074.550000000005
 31
0.0
  0
LINE
  5
27F
330
1F
100
AcDbEntity
  8
鏡台
  6
CONTINUOUS
 62
     6
100
AcDbLine
 10
1045.035533905939
 20
2180.964466094041
 30
0.0
 11
1060.035533905939
 21
2195.964466094039
 31
0.0
  0
LINE
  5
280
330
1F
100
AcDbEntity
  8
鏡台
  6
CONTINUOUS
 62
     6
100
AcDbLine
 10
1034.500000000004
 20
2177.499999999978
 30
0.0
 11
1067.000000000008
 21
2209.999999999975
 31
0.0
  0
LINE
  5
281
330
1F
100
AcDbEntity
  8
鏡台
  6
CONTINUOUS
 62
     6
100
AcDbLine
 10
1055.214466094073
 20
2205.285533905906
 30
0.0
 11
1042.464466094074
 21
2192.53553390591
 31
0.0
  0
LINE
  5
282
330
1F
100
AcDbEntity
  8
鏡台
  6
CONTINUOUS
 62
     6
100
AcDbLine
 10
1043.500000000002
 20
2494.499999999978
 30
0.0
 11
1076.000000000006
 21
2526.999999999975
 31
0.0
  0
LINE
  5
283
330
1F
100
AcDbEntity
  8
鏡台
  6
CONTINUOUS
 62
     6
100
AcDbLine
 10
1054.035533905937
 20
2497.964466094041
 30
0.0
 11
1069.035533905937
 21
2512.964466094039
 31
0.0
  0
LINE
  5
284
330
1F
100
AcDbEntity
  8
鏡台
  6
CONTINUOUS
 62
     6
100
AcDbLine
 10
1064.214466094071
 20
2522.285533905906
 30
0.0
 11
1051.464466094073
 21
2509.53553390591
 31
0.0
  0
LINE
  5
285
330
1F
100
AcDbEntity
  8
鏡台
  6
CONTINUOUS
 62
     6
100
AcDbLine
 10
827.0355339059374
 20
2335.964466094041
 30
0.0
 11
842.0355339059392
 21
2350.964466094039
 31
0.0
  0
LINE
  5
286
330
1F
100
AcDbEntity
  8
鏡台
  6
CONTINUOUS
 62
     6
100
AcDbLine
 10
816.5000000000041
 20
2332.499999999978
 30
0.0
 11
849.0000000000077
 21
2364.999999999975
 31
0.0
  0
LINE
  5
287
330
1F
100
AcDbEntity
  8
鏡台
  6
CONTINUOUS
 62
     6
100
AcDbLine
 10
837.2144660940726
 20
2360.285533905906
 30
0.0
 11
824.4644660940726
 21
2347.53553390591
 31
0.0
  0
LINE
  5
288
330
1F
100
AcDbEntity
  8
鏡台
  6
CONTINUOUS
 62
     6
100
AcDbLine
 10
702.0000000000041
 20
2116.300000000003
 30
0.0
 11
1220.000000000002
 21
2116.300000000003
 31
0.0
  0
LINE
  5
289
330
1F
100
AcDbEntity
  8
鏡台
  6
CONTINUOUS
 62
     6
100
AcDbLine
 10
702.0000000000041
 20
2108.300000000003
 30
0.0
 11
1220.000000000002
 21
2108.300000000003
 31
0.0
  0
LINE
  5
28A
330
1F
100
AcDbEntity
  8
鏡台
  6
CONTINUOUS
 62
     6
100
AcDbLine
 10
702.0000000000041
 20
2108.300000000003
 30
0.0
 11
702.0000000000041
 21
2116.300000000005
 31
0.0
  0
LINE
  5
28B
330
1F
100
AcDbEntity
  8
鏡台
  6
CONTINUOUS
 62
     6
100
AcDbLine
 10
1220.000000000002
 20
2108.300000000003
 30
0.0
 11
1220.000000000002
 21
2116.300000000005
 31
0.0
  0
LINE
  5
28C
330
1F
100
AcDbEntity
  8
鏡台
  6
CONTINUOUS
 62
     6
100
AcDbLine
 10
1220.000000000002
 20
2630.700000000004
 30
0.0
 11
702.0000000000041
 21
2630.700000000004
 31
0.0
  0
LINE
  5
28D
330
1F
100
AcDbEntity
  8
鏡台
  6
CONTINUOUS
 62
     6
100
AcDbLine
 10
1220.000000000002
 20
2622.700000000004
 30
0.0
 11
702.0000000000041
 21
2622.700000000004
 31
0.0
  0
LINE
  5
28E
330
1F
100
AcDbEntity
  8
鏡台
  6
CONTINUOUS
 62
     6
100
AcDbLine
 10
702.0000000000041
 20
2630.700000000004
 30
0.0
 11
702.0000000000041
 21
2622.700000000004
 31
0.0
  0
LINE
  5
28F
330
1F
100
AcDbEntity
  8
鏡台
  6
CONTINUOUS
 62
     6
100
AcDbLine
 10
1220.000000000002
 20
2630.700000000004
 30
0.0
 11
1220.000000000002
 21
2622.700000000004
 31
0.0
  0
LINE
  5
290
330
1F
100
AcDbEntity
  8
鏡台
  6
CONTINUOUS
 62
     2
100
AcDbLine
 10
1261.000000000004
 20
2669.500000000004
 30
0.0
 11
1261.000000000004
 21
2069.500000000004
 31
0.0
  0
LINE
  5
291
330
1F
100
AcDbEntity
  8
鏡台
  6
CONTINUOUS
 62
     2
100
AcDbLine
 10
661.0000000000041
 20
2069.500000000004
 30
0.0
 11
1261.000000000004
 21
2069.500000000004
 31
0.0
  0
LINE
  5
292
330
1F
100
AcDbEntity
  8
鏡台
  6
CONTINUOUS
 62
     2
100
AcDbLine
 10
661.0000000000041
 20
2669.500000000004
 30
0.0
 11
661.0000000000041
 21
2069.500000000004
 31
0.0
  0
LINE
  5
293
330
1F
100
AcDbEntity
  8
鏡台
  6
CONTINUOUS
 62
     2
100
AcDbLine
 10
661.0000000000041
 20
2669.500000000004
 30
0.0
 11
1261.000000000004
 21
2669.500000000004
 31
0.0
  0
LINE
  5
294
330
1F
100
AcDbEntity
  8
鏡台
  6
CONTINUOUS
 62
     4
100
AcDbLine
 10
2449.799999999954
 20
2629.500000000004
 30
0.0
 11
2449.799999999954
 21
2109.500000000004
 31
0.0
  0
LINE
  5
295
330
1F
100
AcDbEntity
  8
鏡台
  6
CONTINUOUS
 62
     4
100
AcDbLine
 10
2454.799999999954
 20
2629.500000000004
 30
0.0
 11
2454.799999999954
 21
2109.500000000004
 31
0.0
  0
LINE
  5
296
330
1F
100
AcDbEntity
  8
鏡台
  6
CONTINUOUS
 62
     6
100
AcDbLine
 10
2483.499999999966
 20
2071.999999999985
 30
0.0
 11
2485.232050807536
 21
2072.999999999984
 31
0.0
  0
LINE
  5
297
330
1F
100
AcDbEntity
  8
鏡台
  6
CONTINUOUS
 62
     6
100
AcDbLine
 10
2483.499999999942
 20
2071.999999999985
 30
0.0
 11
2481.767949192374
 21
2072.999999999984
 31
0.0
  0
LINE
  5
298
330
1F
100
AcDbEntity
  8
鏡台
  6
CONTINUOUS
 62
     6
100
AcDbLine
 10
2478.799999999954
 20
2074.211555580965
 30
0.0
 11
2488.199999999954
 21
2074.211555580965
 31
0.0
  0
LINE
  5
299
330
1F
100
AcDbEntity
  8
鏡台
  6
EXLTYPE3
 62
     6
100
AcDbLine
 10
2531.799999999794
 20
2089.500000000004
 30
0.0
 11
2489.049999999794
 21
2089.500000000004
 31
0.0
  0
ARC
  5
29A
330
1F
100
AcDbEntity
  8
鏡台
  6
CONTINUOUS
 62
     6
100
AcDbCircle
 10
2517.661651584673
 20
2561.000000000004
 30
0.0
 40
15.00000000000001
100
AcDbArc
 50
64.15806723692057
 51
90.00000000000001
  0
ARC
  5
29B
330
1F
100
AcDbEntity
  8
鏡台
  6
CONTINUOUS
 62
     6
100
AcDbCircle
 10
2517.661651584642
 20
2588.000000000004
 30
0.0
 40
15.00000000000001
100
AcDbArc
 50
270.0000000000002
 51
295.8419327631677
  0
LINE
  5
29C
330
1F
100
AcDbEntity
  8
鏡台
  6
CONTINUOUS
 62
     6
100
AcDbLine
 10
2490.999999999953
 20
2573.000000000004
 30
0.0
 11
2517.661651584642
 21
2573.000000000004
 31
0.0
  0
LINE
  5
29D
330
1F
100
AcDbEntity
  8
鏡台
  6
CONTINUOUS
 62
     6
100
AcDbLine
 10
2490.999999999953
 20
2576.000000000004
 30
0.0
 11
2517.661651584673
 21
2576.000000000004
 31
0.0
  0
LINE
  5
29E
330
1F
100
AcDbEntity
  8
鏡台
  6
EXLTYPE3
 62
     6
100
AcDbLine
 10
2531.799999999756
 20
2574.500000000004
 30
0.0
 11
2489.049999999756
 21
2574.500000000004
 31
0.0
  0
ARC
  5
29F
330
1F
100
AcDbEntity
  8
鏡台
  6
CONTINUOUS
 62
     6
100
AcDbCircle
 10
2517.661651584651
 20
2103.000000000004
 30
0.0
 40
15.00000000000001
100
AcDbArc
 50
270.0000000000002
 51
295.8419327631677
  0
ARC
  5
2A0
330
1F
100
AcDbEntity
  8
鏡台
  6
CONTINUOUS
 62
     6
100
AcDbCircle
 10
2517.661651584684
 20
2076.000000000004
 30
0.0
 40
15.00000000000001
100
AcDbArc
 50
64.15806723692057
 51
90.00000000000001
  0
LINE
  5
2A1
330
1F
100
AcDbEntity
  8
鏡台
  6
CONTINUOUS
 62
     6
100
AcDbLine
 10
2490.999999999953
 20
2091.000000000004
 30
0.0
 11
2517.661651584684
 21
2091.000000000004
 31
0.0
  0
LINE
  5
2A2
330
1F
100
AcDbEntity
  8
鏡台
  6
CONTINUOUS
 62
     6
100
AcDbLine
 10
2490.999999999953
 20
2088.000000000004
 30
0.0
 11
2517.661651584651
 21
2088.000000000004
 31
0.0
  0
LINE
  5
2A3
330
1F
100
AcDbEntity
  8
鏡台
  6
CONTINUOUS
 62
     6
100
AcDbLine
 10
2448.599999999954
 20
2108.300000000005
 30
0.0
 11
2458.999999999953
 21
2108.300000000005
 31
0.0
  0
LINE
  5
2A4
330
1F
100
AcDbEntity
  8
鏡台
  6
CONTINUOUS
 62
     6
100
AcDbLine
 10
2448.599999999954
 20
2108.300000000005
 30
0.0
 11
2448.599999999954
 21
2116.300000000005
 31
0.0
  0
LINE
  5
2A5
330
1F
100
AcDbEntity
  8
鏡台
  6
CONTINUOUS
 62
     6
100
AcDbLine
 10
2457.799999999952
 20
2109.500000000004
 30
0.0
 11
2449.799999999952
 21
2109.500000000004
 31
0.0
  0
LINE
  5
2A6
330
1F
100
AcDbEntity
  8
鏡台
  6
CONTINUOUS
 62
     6
100
AcDbLine
 10
2457.799999999952
 20
2133.300000000005
 30
0.0
 11
2457.799999999952
 21
2109.500000000004
 31
0.0
  0
LINE
  5
2A7
330
1F
100
AcDbEntity
  8
鏡台
  6
CONTINUOUS
 62
     6
100
AcDbLine
 10
2448.599999999954
 20
2116.300000000005
 30
0.0
 11
2449.799999999952
 21
2116.300000000005
 31
0.0
  0
LINE
  5
2A8
330
1F
100
AcDbEntity
  8
鏡台
  6
CONTINUOUS
 62
     6
100
AcDbLine
 10
2457.799999999952
 20
2133.300000000005
 30
0.0
 11
2458.999999999953
 21
2133.300000000005
 31
0.0
  0
LINE
  5
2A9
330
1F
100
AcDbEntity
  8
鏡台
  6
CONTINUOUS
 62
     6
100
AcDbLine
 10
2457.799999999952
 20
2605.700000000004
 30
0.0
 11
2458.999999999953
 21
2605.700000000004
 31
0.0
  0
LINE
  5
2AA
330
1F
100
AcDbEntity
  8
鏡台
  6
CONTINUOUS
 62
     6
100
AcDbLine
 10
2448.599999999954
 20
2622.700000000004
 30
0.0
 11
2449.799999999952
 21
2622.700000000004
 31
0.0
  0
LINE
  5
2AB
330
1F
100
AcDbEntity
  8
鏡台
  6
CONTINUOUS
 62
     6
100
AcDbLine
 10
2457.799999999952
 20
2605.700000000004
 30
0.0
 11
2457.799999999952
 21
2629.500000000004
 31
0.0
  0
LINE
  5
2AC
330
1F
100
AcDbEntity
  8
鏡台
  6
CONTINUOUS
 62
     6
100
AcDbLine
 10
2457.799999999952
 20
2629.500000000004
 30
0.0
 11
2449.799999999952
 21
2629.500000000004
 31
0.0
  0
LINE
  5
2AD
330
1F
100
AcDbEntity
  8
鏡台
  6
CONTINUOUS
 62
     6
100
AcDbLine
 10
2448.599999999954
 20
2630.700000000004
 30
0.0
 11
2448.599999999954
 21
2622.700000000004
 31
0.0
  0
LINE
  5
2AE
330
1F
100
AcDbEntity
  8
鏡台
  6
CONTINUOUS
 62
     6
100
AcDbLine
 10
2448.599999999954
 20
2630.700000000004
 30
0.0
 11
2458.999999999953
 21
2630.700000000004
 31
0.0
  0
LINE
  5
2AF
330
1F
100
AcDbEntity
  8
鏡台
  6
CONTINUOUS
 62
     2
100
AcDbLine
 10
2458.999999999953
 20
2069.500000000004
 30
0.0
 11
2475.999999999953
 21
2069.500000000004
 31
0.0
  0
LINE
  5
2B0
330
1F
100
AcDbEntity
  8
鏡台
  6
CONTINUOUS
 62
     2
100
AcDbLine
 10
2475.999999999953
 20
2134.500000000002
 30
0.0
 11
2490.999999999953
 21
2134.500000000002
 31
0.0
  0
LINE
  5
2B1
330
1F
100
AcDbEntity
  8
鏡台
  6
CONTINUOUS
 62
     2
100
AcDbLine
 10
2475.999999999953
 20
2669.500000000004
 30
0.0
 11
2475.999999999953
 21
2069.500000000004
 31
0.0
  0
LINE
  5
2B2
330
1F
100
AcDbEntity
  8
鏡台
  6
CONTINUOUS
 62
     2
100
AcDbLine
 10
2458.999999999953
 20
2669.500000000004
 30
0.0
 11
2458.999999999953
 21
2069.500000000004
 31
0.0
  0
LINE
  5
2B3
330
1F
100
AcDbEntity
  8
鏡台
  6
CONTINUOUS
 62
     2
100
AcDbLine
 10
2490.999999999953
 20
2633.519237886403
 30
0.0
 11
2490.999999999953
 21
2583.519237886472
 31
0.0
  0
LINE
  5
2B4
330
1F
100
AcDbEntity
  8
鏡台
  6
CONTINUOUS
 62
     2
100
AcDbLine
 10
2490.999999999984
 20
2583.519237886421
 30
0.0
 11
2475.999999999953
 21
2609.500000000009
 31
0.0
  0
LINE
  5
2B5
330
1F
100
AcDbEntity
  8
鏡台
  6
CONTINUOUS
 62
     2
100
AcDbLine
 10
2475.999999999953
 20
2633.519237886403
 30
0.0
 11
2490.999999999953
 21
2633.519237886403
 31
0.0
  0
LINE
  5
2B6
330
1F
100
AcDbEntity
  8
鏡台
  6
CONTINUOUS
 62
     2
100
AcDbLine
 10
2458.999999999953
 20
2669.500000000004
 30
0.0
 11
2475.999999999953
 21
2669.500000000004
 31
0.0
  0
LINE
  5
2B7
330
1F
100
AcDbEntity
  8
鏡台
  6
CONTINUOUS
 62
     2
100
AcDbLine
 10
2475.999999999953
 20
2609.500000000009
 30
0.0
 11
2475.999999999953
 21
2559.499999999987
 31
0.0
  0
LINE
  5
2B8
330
1F
100
AcDbEntity
  8
鏡台
  6
CONTINUOUS
 62
     2
100
AcDbLine
 10
2490.999999999953
 20
2633.519237886403
 30
0.0
 11
2490.999999999953
 21
2559.499999999987
 31
0.0
  0
LINE
  5
2B9
330
1F
100
AcDbEntity
  8
鏡台
  6
CONTINUOUS
 62
     2
100
AcDbLine
 10
2475.999999999953
 20
2559.499999999987
 30
0.0
 11
2490.999999999953
 21
2559.499999999987
 31
0.0
  0
LINE
  5
2BA
330
1F
100
AcDbEntity
  8
鏡台
  6
CONTINUOUS
 62
     2
100
AcDbLine
 10
2490.999999999984
 20
2583.519237886421
 30
0.0
 11
2475.999999999953
 21
2609.500000000009
 31
0.0
  0
LINE
  5
2BB
330
1F
100
AcDbEntity
  8
鏡台
  6
CONTINUOUS
 62
     2
100
AcDbLine
 10
2490.999999999955
 20
2074.500000000005
 30
0.0
 11
2475.999999999957
 21
2074.500000000005
 31
0.0
  0
LINE
  5
2BC
330
1F
100
AcDbEntity
  8
鏡台
  6
CONTINUOUS
 62
     2
100
AcDbLine
 10
2475.999999999957
 20
2074.500000000005
 30
0.0
 11
2475.999999999957
 21
2104.500000000005
 31
0.0
  0
ARC
  5
2BD
330
1F
100
AcDbEntity
  8
鏡台
  6
CONTINUOUS
 62
     2
100
AcDbCircle
 10
2483.499999999955
 20
2078.100000000004
 30
0.0
 40
6.100000000000004
100
AcDbArc
 50
219.60192708105
 51
320.3980729189502
  0
LINE
  5
2BE
330
1F
100
AcDbEntity
  8
鏡台
  6
CONTINUOUS
 62
     2
100
AcDbLine
 10
2488.199999999954
 20
2074.500000000004
 30
0.0
 11
2488.199999999954
 21
2074.211555580965
 31
0.0
  0
LINE
  5
2BF
330
1F
100
AcDbEntity
  8
鏡台
  6
CONTINUOUS
 62
     2
100
AcDbLine
 10
2478.799999999954
 20
2074.500000000004
 30
0.0
 11
2488.199999999954
 21
2074.500000000004
 31
0.0
  0
LINE
  5
2C0
330
1F
100
AcDbEntity
  8
鏡台
  6
CONTINUOUS
 62
     2
100
AcDbLine
 10
2478.799999999956
 20
2074.500000000004
 30
0.0
 11
2478.799999999956
 21
2074.211555580965
 31
0.0
  0
LINE
  5
2C1
330
1F
100
AcDbEntity
  8
鏡台
  6
CONTINUOUS
 62
     2
100
AcDbLine
 10
2475.999999999953
 20
2104.500000000002
 30
0.0
 11
2490.999999999955
 21
2104.500000000002
 31
0.0
  0
LINE
  5
2C2
330
1F
100
AcDbEntity
  8
鏡台
  6
CONTINUOUS
 62
     2
100
AcDbLine
 10
2490.999999999953
 20
2134.500000000002
 30
0.0
 11
2490.999999999953
 21
2074.500000000004
 31
0.0
  0
LINE
  5
2C3
330
1F
100
AcDbEntity
  8
鏡台
  6
CONTINUOUS
 62
     2
100
AcDbLine
 10
2490.999999999955
 20
2104.500000000005
 30
0.0
 11
2475.999999999957
 21
2104.500000000005
 31
0.0
  0
ARC
  5
2C4
330
1F
100
AcDbEntity
  8
付属金具
  6
CONTINUOUS
 62
     6
100
AcDbCircle
 10
1166.040440087931
 20
3725.033627205672
 30
0.0
 40
22.5239338808
100
AcDbArc
 50
43.50818700000016
 51
54.78416000000001
  0
ARC
  5
2C5
330
1F
100
AcDbEntity
  8
付属金具
  6
CONTINUOUS
 62
     6
100
AcDbCircle
 10
1166.018415304844
 20
3725.048792200184
 30
0.0
 40
22.5242991184
100
AcDbArc
 50
54.71626800000008
 51
65.99204899999945
  0
ARC
  5
2C6
330
1F
100
AcDbEntity
  8
付属金具
  6
CONTINUOUS
 62
     6
100
AcDbCircle
 10
1166.024355642912
 20
3725.046476693598
 30
0.0
 40
22.5239940848
100
AcDbArc
 50
66.00820999999988
 51
77.28414200000014
  0
ARC
  5
2C7
330
1F
100
AcDbEntity
  8
付属金具
  6
CONTINUOUS
 62
     6
100
AcDbCircle
 10
1165.998289097686
 20
3725.052347436257
 30
0.0
 40
22.5240542888
100
AcDbArc
 50
77.21624900000018
 51
88.49216799999986
  0
ARC
  5
2C8
330
1F
100
AcDbEntity
  8
付属金具
  6
CONTINUOUS
 62
     6
100
AcDbCircle
 10
1166.004617393067
 20
3725.051496391679
 30
0.0
 40
22.5246924512
100
AcDbArc
 50
88.50824599999994
 51
99.78377499999984
  0
ARC
  5
2C9
330
1F
100
AcDbEntity
  8
付属金具
  6
CONTINUOUS
 62
     6
100
AcDbCircle
 10
1165.978086856574
 20
3725.048921764047
 30
0.0
 40
22.52281810000001
100
AcDbArc
 50
99.71616999999982
 51
110.9929420000001
  0
ARC
  5
2CA
330
1F
100
AcDbEntity
  8
付属金具
  6
CONTINUOUS
 62
     6
100
AcDbCircle
 10
1165.992249669666
 20
3725.032712150731
 30
0.0
 40
22.5430707256
100
AcDbArc
 50
111.011786
 51
122.8865830000002
  0
LINE
  5
2CB
330
1F
100
AcDbEntity
  8
付属金具
  6
CONTINUOUS
 62
     6
100
AcDbLine
 10
1157.26431480204
 20
3745.294880864677
 30
0.0
 11
1068.160441107011
 21
3711.088748138814
 31
0.0
  0
LINE
  5
2CC
330
1F
100
AcDbEntity
  8
付属金具
  6
CONTINUOUS
 62
     6
100
AcDbLine
 10
1068.160704324256
 20
3711.088062434447
 30
0.0
 11
1157.264490280204
 21
3745.294423728433
 31
0.0
  0
LINE
  5
2CD
330
1F
100
AcDbEntity
  8
付属金具
  6
CONTINUOUS
 62
     6
100
AcDbLine
 10
1157.26454648548
 20
3745.294445303617
 30
0.0
 11
1158.088238552232
 21
3745.610631063987
 31
0.0
  0
ARC
  5
2CE
330
1F
100
AcDbEntity
  8
付属金具
  6
CONTINUOUS
 62
     6
100
AcDbCircle
 10
1076.064510473389
 20
3690.477000097453
 30
0.0
 40
22.074980612
100
AcDbArc
 50
110.9805179999999
 51
291.0194619999999
  0
ARC
  5
2CF
330
1F
100
AcDbEntity
  8
付属金具
  6
CONTINUOUS
 62
     6
100
AcDbCircle
 10
1166.015271810345
 20
3724.973588598133
 30
0.0
 40
22.5466267752
100
AcDbArc
 50
279.1146609999999
 51
290.9876739999999
  0
ARC
  5
2D0
330
1F
100
AcDbEntity
  8
付属金具
  6
CONTINUOUS
 62
     6
100
AcDbCircle
 10
1166.012245322564
 20
3724.956945608007
 30
0.0
 40
22.5322219648
100
AcDbArc
 50
291.0100219999999
 51
302.2818220000001
  0
ARC
  5
2D1
330
1F
100
AcDbEntity
  8
付属金具
  6
CONTINUOUS
 62
     6
100
AcDbCircle
 10
1166.038152420785
 20
3724.964134657688
 30
0.0
 40
22.5244877576
100
AcDbArc
 50
302.2163139999998
 51
313.4920000000001
  0
ARC
  5
2D2
330
1F
100
AcDbEntity
  8
付属金具
  6
CONTINUOUS
 62
     6
100
AcDbCircle
 10
1166.034019040793
 20
3724.959267752188
 30
0.0
 40
22.5238134728
100
AcDbArc
 50
313.5081599999998
 51
324.7841739999999
  0
ARC
  5
2D3
330
1F
100
AcDbEntity
  8
付属金具
  6
CONTINUOUS
 62
     6
100
AcDbCircle
 10
1165.86095799733
 20
3724.943742047835
 30
0.0
 40
22.0751973464
100
AcDbArc
 50
291.3032080000001
 51
291.3890839999999
  0
LINE
  5
2D4
330
1F
100
AcDbEntity
  8
付属金具
  6
CONTINUOUS
 62
     6
100
AcDbLine
 10
1083.982739190599
 20
3669.870162825634
 30
0.0
 11
1173.088278370523
 21
3704.072214407243
 31
0.0
  0
LINE
  5
2D5
330
1F
100
AcDbEntity
  8
付属金具
  6
CONTINUOUS
 62
     6
100
AcDbLine
 10
1173.088278370523
 20
3704.072214407243
 30
0.0
 11
1083.982696040231
 21
3669.870275236186
 31
0.0
  0
LINE
  5
2D6
330
1F
100
AcDbEntity
  8
付属金具
  6
CONTINUOUS
 62
     6
100
AcDbLine
 10
1173.911751808743
 20
3704.38896971441
 30
0.0
 11
1173.088059741991
 21
3704.07278395404
 31
0.0
  0
ARC
  5
2D7
330
1F
100
AcDbEntity
  8
付属金具
  6
CONTINUOUS
 62
     6
100
AcDbCircle
 10
1166.000005139109
 20
3724.999606451168
 30
0.0
 40
22.0770315616
100
AcDbArc
 50
291.0001660000001
 51
21.00021400000055
  0
ARC
  5
2D8
330
1F
100
AcDbEntity
  8
付属金具
  6
CONTINUOUS
 62
     6
100
AcDbCircle
 10
1166.046842299591
 20
3724.975342128788
 30
0.0
 40
22.5238977584
100
AcDbArc
 50
336.0081829999997
 51
347.2841830000002
  0
ARC
  5
2D9
330
1F
100
AcDbEntity
  8
付属金具
  6
CONTINUOUS
 62
     6
100
AcDbCircle
 10
1166.048973176036
 20
3724.981405055626
 30
0.0
 40
22.524363336
100
AcDbArc
 50
324.7162819999996
 51
335.992023
  0
ARC
  5
2DA
330
1F
100
AcDbEntity
  8
付属金具
  6
CONTINUOUS
 62
     6
100
AcDbCircle
 10
1165.999635741946
 20
3724.999202404882
 30
0.0
 40
22.0775252344
100
AcDbArc
 50
21.0011289999997
 51
110.9985290000003
  0
ARC
  5
2DB
330
1F
100
AcDbEntity
  8
付属金具
  6
CONTINUOUS
 62
     6
100
AcDbCircle
 10
1166.042586763465
 20
3725.011885011732
 30
0.0
 40
22.5324788352
100
AcDbArc
 50
21.01010400000024
 51
32.28177399999977
  0
ARC
  5
2DC
330
1F
100
AcDbEntity
  8
付属金具
  6
CONTINUOUS
 62
     6
100
AcDbCircle
 10
1166.035745655075
 20
3725.037994458462
 30
0.0
 40
22.5243352408
100
AcDbArc
 50
32.21625800000055
 51
43.49202600000044
  0
ARC
  5
2DD
330
1F
100
AcDbEntity
  8
付属金具
  6
CONTINUOUS
 62
     6
100
AcDbCircle
 10
1166.05265160183
 20
3724.995151325304
 30
0.0
 40
22.5238335408
100
AcDbArc
 50
358.5081779999999
 51
9.784192000000056
  0
ARC
  5
2DE
330
1F
100
AcDbEntity
  8
付属金具
  6
CONTINUOUS
 62
     6
100
AcDbCircle
 10
1166.044756830256
 20
3725.020589761485
 30
0.0
 40
22.5273213592
100
AcDbArc
 50
9.717078999999938
 51
20.99134400000031
  0
ARC
  5
2DF
330
1F
100
AcDbEntity
  8
付属金具
  6
CONTINUOUS
 62
     6
100
AcDbCircle
 10
1166.052229026145
 20
3725.001549612852
 30
0.0
 40
22.5244074856
100
AcDbArc
 50
347.216277
 51
358.4920179999999
  0
LINE
  5
2E0
330
1F
100
AcDbEntity
  8
付属金具
  6
CONTINUOUS
 62
     6
100
AcDbLine
 10
1162.423252758123
 20
3723.571255427776
 30
0.0
 11
1162.301932895421
 21
3723.954625645281
 31
0.0
  0
LINE
  5
2E1
330
1F
100
AcDbEntity
  8
付属金具
  6
CONTINUOUS
 62
     6
100
AcDbLine
 10
1162.592607413042
 20
3723.21209779459
 30
0.0
 11
1162.423252758123
 21
3723.571255427776
 31
0.0
  0
LINE
  5
2E2
330
1F
100
AcDbEntity
  8
付属金具
  6
CONTINUOUS
 62
     6
100
AcDbLine
 10
1162.786109268751
 20
3722.902221569547
 30
0.0
 11
1162.592607413042
 21
3723.21209779459
 31
0.0
  0
LINE
  5
2E3
330
1F
100
AcDbEntity
  8
付属金具
  6
CONTINUOUS
 62
     6
100
AcDbLine
 10
1162.998366111765
 20
3722.625524458232
 30
0.0
 11
1162.786109268751
 21
3722.902221569547
 31
0.0
  0
LINE
  5
2E4
330
1F
100
AcDbEntity
  8
付属金具
  6
CONTINUOUS
 62
     6
100
AcDbLine
 10
1163.217378182626
 20
3722.3684794534
 30
0.0
 11
1162.998366111765
 21
3722.625524458232
 31
0.0
  0
LINE
  5
2E5
330
1F
100
AcDbEntity
  8
付属金具
  6
CONTINUOUS
 62
     6
100
AcDbLine
 10
1163.440458807644
 20
3722.11587664904
 30
0.0
 11
1163.217378182626
 21
3722.3684794534
 31
0.0
  0
LINE
  5
2E6
330
1F
100
AcDbEntity
  8
付属金具
  6
CONTINUOUS
 62
     6
100
AcDbLine
 10
1163.660262145715
 20
3721.842076365768
 30
0.0
 11
1163.440458807644
 21
3722.11587664904
 31
0.0
  0
LINE
  5
2E7
330
1F
100
AcDbEntity
  8
付属金具
  6
CONTINUOUS
 62
     6
100
AcDbLine
 10
1163.867751783613
 20
3721.540458574389
 30
0.0
 11
1163.660262145715
 21
3721.842076365768
 31
0.0
  0
LINE
  5
2E8
330
1F
100
AcDbEntity
  8
付属金具
  6
CONTINUOUS
 62
     6
100
AcDbLine
 10
1164.053113538634
 20
3721.184556464084
 30
0.0
 11
1163.867751783613
 21
3721.540458574389
 31
0.0
  0
LINE
  5
2E9
330
1F
100
AcDbEntity
  8
付属金具
  6
CONTINUOUS
 62
     6
100
AcDbLine
 10
1164.119263052883
 20
3721.012231087878
 30
0.0
 11
1164.053113538634
 21
3721.184556464084
 31
0.0
  0
LINE
  5
2EA
330
1F
100
AcDbEntity
  8
付属金具
  6
CONTINUOUS
 62
     6
100
AcDbLine
 10
1164.167887762077
 20
3720.83317856929
 30
0.0
 11
1164.119263052883
 21
3721.012231087878
 31
0.0
  0
LINE
  5
2EB
330
1F
100
AcDbEntity
  8
付属金具
  6
CONTINUOUS
 62
     6
100
AcDbLine
 10
1164.218437853019
 20
3720.499919558787
 30
0.0
 11
1164.167887762077
 21
3720.83317856929
 31
0.0
  0
LINE
  5
2EC
330
1F
100
AcDbEntity
  8
付属金具
  6
CONTINUOUS
 62
     6
100
AcDbLine
 10
1164.233872262991
 20
3720.250793046336
 30
0.0
 11
1164.218437853019
 21
3720.499919558787
 31
0.0
  0
LINE
  5
2ED
330
1F
100
AcDbEntity
  8
付属金具
  6
CONTINUOUS
 62
     6
100
AcDbLine
 10
1164.231497091706
 20
3720.152398132886
 30
0.0
 11
1164.233872262991
 21
3720.250793046336
 31
0.0
  0
LINE
  5
2EE
330
1F
100
AcDbEntity
  8
付属金具
  6
CONTINUOUS
 62
     6
100
AcDbLine
 10
1164.52144043388
 20
3719.919825338493
 30
0.0
 11
1164.231497091706
 21
3720.152398132886
 31
0.0
  0
LINE
  5
2EF
330
1F
100
AcDbEntity
  8
付属金具
  6
CONTINUOUS
 62
     6
100
AcDbLine
 10
1164.480975882634
 20
3720.4057364241
 30
0.0
 11
1164.52144043388
 21
3719.919825338493
 31
0.0
  0
LINE
  5
2F0
330
1F
100
AcDbEntity
  8
付属金具
  6
CONTINUOUS
 62
     6
100
AcDbLine
 10
1164.409630193211
 20
3720.845550641193
 30
0.0
 11
1164.480975882634
 21
3720.4057364241
 31
0.0
  0
LINE
  5
2F1
330
1F
100
AcDbEntity
  8
付属金具
  6
CONTINUOUS
 62
     6
100
AcDbLine
 10
1164.355617077619
 20
3721.068453939302
 30
0.0
 11
1164.409630193211
 21
3720.845550641193
 31
0.0
  0
LINE
  5
2F2
330
1F
100
AcDbEntity
  8
付属金具
  6
CONTINUOUS
 62
     6
100
AcDbLine
 10
1164.282955647276
 20
3721.272784583329
 30
0.0
 11
1164.355617077619
 21
3721.068453939302
 31
0.0
  0
LINE
  5
2F3
330
1F
100
AcDbEntity
  8
付属金具
  6
CONTINUOUS
 62
     6
100
AcDbLine
 10
1164.107545973126
 20
3721.632506939553
 30
0.0
 11
1164.282955647276
 21
3721.272784583329
 31
0.0
  0
LINE
  5
2F4
330
1F
100
AcDbEntity
  8
付属金具
  6
CONTINUOUS
 62
     6
100
AcDbLine
 10
1163.90659466933
 20
3721.939390315821
 30
0.0
 11
1164.107545973126
 21
3721.632506939553
 31
0.0
  0
LINE
  5
2F5
330
1F
100
AcDbEntity
  8
付属金具
  6
CONTINUOUS
 62
     6
100
AcDbLine
 10
1163.690257536284
 20
3722.211765396963
 30
0.0
 11
1163.90659466933
 21
3721.939390315821
 31
0.0
  0
LINE
  5
2F6
330
1F
100
AcDbEntity
  8
付属金具
  6
CONTINUOUS
 62
     6
100
AcDbLine
 10
1163.24216602645
 20
3722.721999504375
 30
0.0
 11
1163.690257536284
 21
3722.211765396963
 31
0.0
  0
LINE
  5
2F7
330
1F
100
AcDbEntity
  8
付属金具
  6
CONTINUOUS
 62
     6
100
AcDbLine
 10
1163.028447683758
 20
3722.995246571376
 30
0.0
 11
1163.24216602645
 21
3722.721999504375
 31
0.0
  0
LINE
  5
2F8
330
1F
100
AcDbEntity
  8
付属金具
  6
CONTINUOUS
 62
     6
100
AcDbLine
 10
1162.927698959932
 20
3723.1457653458
 30
0.0
 11
1163.028447683758
 21
3722.995246571376
 31
0.0
  0
LINE
  5
2F9
330
1F
100
AcDbEntity
  8
付属金具
  6
CONTINUOUS
 62
     6
100
AcDbLine
 10
1162.83494208103
 20
3723.305121358072
 30
0.0
 11
1162.927698959932
 21
3723.1457653458
 31
0.0
  0
LINE
  5
2FA
330
1F
100
AcDbEntity
  8
付属金具
  6
CONTINUOUS
 62
     6
100
AcDbLine
 10
1162.745942865759
 20
3723.477334039004
 30
0.0
 11
1162.83494208103
 21
3723.305121358072
 31
0.0
  0
LINE
  5
2FB
330
1F
100
AcDbEntity
  8
付属金具
  6
CONTINUOUS
 62
     6
100
AcDbLine
 10
1162.665587426111
 20
3723.664278991259
 30
0.0
 11
1162.745942865759
 21
3723.477334039004
 31
0.0
  0
LINE
  5
2FC
330
1F
100
AcDbEntity
  8
付属金具
  6
CONTINUOUS
 62
     6
100
AcDbLine
 10
1162.549187398568
 20
3724.04953775654
 30
0.0
 11
1162.665587426111
 21
3723.664278991259
 31
0.0
  0
LINE
  5
2FD
330
1F
100
AcDbEntity
  8
付属金具
  6
CONTINUOUS
 62
     6
100
AcDbLine
 10
1162.490690240296
 20
3724.411104155915
 30
0.0
 11
1162.549187398568
 21
3724.04953775654
 31
0.0
  0
LINE
  5
2FE
330
1F
100
AcDbEntity
  8
付属金具
  6
CONTINUOUS
 62
     6
100
AcDbLine
 10
1162.470697033901
 20
3724.761737636148
 30
0.0
 11
1162.490690240296
 21
3724.411104155915
 31
0.0
  0
LINE
  5
2FF
330
1F
100
AcDbEntity
  8
付属金具
  6
CONTINUOUS
 62
     6
100
AcDbLine
 10
1162.468097920241
 20
3725.104744819116
 30
0.0
 11
1162.470697033901
 21
3724.761737636148
 31
0.0
  0
LINE
  5
300
330
1F
100
AcDbEntity
  8
付属金具
  6
CONTINUOUS
 62
     6
100
AcDbLine
 10
1162.465440411944
 20
3725.447467338483
 30
0.0
 11
1162.468097920241
 21
3725.104744819116
 31
0.0
  0
LINE
  5
301
330
1F
100
AcDbEntity
  8
付属金具
  6
CONTINUOUS
 62
     6
100
AcDbLine
 10
1162.440532555755
 20
3725.796209962266
 30
0.0
 11
1162.465440411944
 21
3725.447467338483
 31
0.0
  0
LINE
  5
302
330
1F
100
AcDbEntity
  8
付属金具
  6
CONTINUOUS
 62
     6
100
AcDbLine
 10
1162.374488902426
 20
3726.154879533598
 30
0.0
 11
1162.440532555755
 21
3725.796209962266
 31
0.0
  0
LINE
  5
303
330
1F
100
AcDbEntity
  8
付属金具
  6
CONTINUOUS
 62
     6
100
AcDbLine
 10
1162.24910567093
 20
3726.533805241959
 30
0.0
 11
1162.374488902426
 21
3726.154879533598
 31
0.0
  0
LINE
  5
304
330
1F
100
AcDbEntity
  8
付属金具
  6
CONTINUOUS
 62
     6
100
AcDbLine
 10
1162.165944523331
 20
3726.705503193527
 30
0.0
 11
1162.24910567093
 21
3726.533805241959
 31
0.0
  0
LINE
  5
305
330
1F
100
AcDbEntity
  8
付属金具
  6
CONTINUOUS
 62
     6
100
AcDbLine
 10
1162.060630194122
 20
3726.882867325725
 30
0.0
 11
1162.165944523331
 21
3726.705503193527
 31
0.0
  0
LINE
  5
306
330
1F
100
AcDbEntity
  8
付属金具
  6
CONTINUOUS
 62
     6
100
AcDbLine
 10
1161.822787699393
 20
3727.218623967524
 30
0.0
 11
1162.060630194122
 21
3726.882867325725
 31
0.0
  0
LINE
  5
307
330
1F
100
AcDbEntity
  8
付属金具
  6
CONTINUOUS
 62
     6
100
AcDbLine
 10
1161.536602963
 20
3727.575969201162
 30
0.0
 11
1161.822787699393
 21
3727.218623967524
 31
0.0
  0
LINE
  5
308
330
1F
100
AcDbEntity
  8
付属金具
  6
CONTINUOUS
 62
     6
100
AcDbLine
 10
1161.473006842666
 20
3727.256226997094
 30
0.0
 11
1161.536602963
 21
3727.575969201162
 31
0.0
  0
LINE
  5
309
330
1F
100
AcDbEntity
  8
付属金具
  6
CONTINUOUS
 62
     6
100
AcDbLine
 10
1161.656129827857
 20
3727.025679877239
 30
0.0
 11
1161.473006842666
 21
3727.256226997094
 31
0.0
  0
LINE
  5
30A
330
1F
100
AcDbEntity
  8
付属金具
  6
CONTINUOUS
 62
     6
100
AcDbLine
 10
1161.824484815824
 20
3726.766373132908
 30
0.0
 11
1161.656129827857
 21
3727.025679877239
 31
0.0
  0
LINE
  5
30B
330
1F
100
AcDbEntity
  8
付属金具
  6
CONTINUOUS
 62
     6
100
AcDbLine
 10
1161.991730471085
 20
3726.435008159228
 30
0.0
 11
1161.824484815824
 21
3726.766373132908
 31
0.0
  0
LINE
  5
30C
330
1F
100
AcDbEntity
  8
付属金具
  6
CONTINUOUS
 62
     6
100
AcDbLine
 10
1162.117199884004
 20
3726.056115532817
 30
0.0
 11
1161.991730471085
 21
3726.435008159228
 31
0.0
  0
LINE
  5
30D
330
1F
100
AcDbEntity
  8
付属金具
  6
CONTINUOUS
 62
     6
100
AcDbLine
 10
1162.184126232828
 20
3725.694900068535
 30
0.0
 11
1162.117199884004
 21
3726.056115532817
 31
0.0
  0
LINE
  5
30E
330
1F
100
AcDbEntity
  8
付属金具
  6
CONTINUOUS
 62
     6
100
AcDbLine
 10
1162.209077120072
 20
3725.346302937253
 30
0.0
 11
1162.184126232828
 21
3725.694900068535
 31
0.0
  0
LINE
  5
30F
330
1F
100
AcDbEntity
  8
付属金具
  6
CONTINUOUS
 62
     6
100
AcDbLine
 10
1162.213266945889
 20
3725.006924373049
 30
0.0
 11
1162.209077120072
 21
3725.346302937253
 31
0.0
  0
LINE
  5
310
330
1F
100
AcDbEntity
  8
付属金具
  6
CONTINUOUS
 62
     6
100
AcDbLine
 10
1162.21844026119
 20
3724.66490533351
 30
0.0
 11
1162.213266945889
 21
3725.006924373049
 31
0.0
  0
LINE
  5
311
330
1F
100
AcDbEntity
  8
付属金具
  6
CONTINUOUS
 62
     6
100
AcDbLine
 10
1162.240891511655
 20
3724.315215407993
 30
0.0
 11
1162.21844026119
 21
3724.66490533351
 31
0.0
  0
LINE
  5
312
330
1F
100
AcDbEntity
  8
付属金具
  6
CONTINUOUS
 62
     6
100
AcDbLine
 10
1162.301932895421
 20
3723.954625645281
 30
0.0
 11
1162.240891511655
 21
3724.315215407993
 31
0.0
  0
LINE
  5
313
330
1F
100
AcDbEntity
  8
付属金具
  6
CONTINUOUS
 62
     6
100
AcDbLine
 10
1163.184127415006
 20
3724.075344604125
 30
0.0
 11
1163.139495256763
 21
3724.258947721009
 31
0.0
  0
LINE
  5
314
330
1F
100
AcDbEntity
  8
付属金具
  6
CONTINUOUS
 62
     6
100
AcDbLine
 10
1163.139495256763
 20
3724.258947721009
 30
0.0
 11
1163.086308381891
 21
3724.614027337613
 31
0.0
  0
LINE
  5
315
330
1F
100
AcDbEntity
  8
付属金具
  6
CONTINUOUS
 62
     6
100
AcDbLine
 10
1163.086308381891
 20
3724.614027337613
 30
0.0
 11
1163.069855945382
 21
3724.963130964909
 31
0.0
  0
LINE
  5
316
330
1F
100
AcDbEntity
  8
付属金具
  6
CONTINUOUS
 62
     6
100
AcDbLine
 10
1163.069855945382
 20
3724.963130964909
 30
0.0
 11
1163.071220964184
 21
3725.310415589337
 31
0.0
  0
LINE
  5
317
330
1F
100
AcDbEntity
  8
付属金具
  6
CONTINUOUS
 62
     6
100
AcDbLine
 10
1163.071220964184
 20
3725.310415589337
 30
0.0
 11
1163.068240829485
 21
3725.66167274719
 31
0.0
  0
LINE
  5
318
330
1F
100
AcDbEntity
  8
付属金具
  6
CONTINUOUS
 62
     6
100
AcDbLine
 10
1163.068240829485
 20
3725.66167274719
 30
0.0
 11
1163.043859319222
 21
3726.016391171399
 31
0.0
  0
LINE
  5
319
330
1F
100
AcDbEntity
  8
付属金具
  6
CONTINUOUS
 62
     6
100
AcDbLine
 10
1163.043859319222
 20
3726.016391171399
 30
0.0
 11
1162.974918837849
 21
3726.382607237789
 31
0.0
  0
LINE
  5
31A
330
1F
100
AcDbEntity
  8
付属金具
  6
CONTINUOUS
 62
     6
100
AcDbLine
 10
1162.974918837849
 20
3726.382607237789
 30
0.0
 11
1162.843581381112
 21
3726.7620030868
 31
0.0
  0
LINE
  5
31B
330
1F
100
AcDbEntity
  8
付属金具
  6
CONTINUOUS
 62
     6
100
AcDbLine
 10
1162.843581381112
 20
3726.7620030868
 30
0.0
 11
1162.695631293886
 21
3727.057873741717
 31
0.0
  0
LINE
  5
31C
330
1F
100
AcDbEntity
  8
付属金具
  6
CONTINUOUS
 62
     6
100
AcDbLine
 10
1162.695631293886
 20
3727.057873741717
 30
0.0
 11
1162.511960233927
 21
3727.35709141737
 31
0.0
  0
LINE
  5
31D
330
1F
100
AcDbEntity
  8
付属金具
  6
CONTINUOUS
 62
     6
100
AcDbLine
 10
1162.511960233927
 20
3727.35709141737
 30
0.0
 11
1162.103961634343
 21
3727.9198431893
 31
0.0
  0
LINE
  5
31E
330
1F
100
AcDbEntity
  8
付属金具
  6
CONTINUOUS
 62
     6
100
AcDbLine
 10
1162.103961634343
 20
3727.9198431893
 30
0.0
 11
1161.759042166471
 21
3728.340577932222
 31
0.0
  0
LINE
  5
31F
330
1F
100
AcDbEntity
  8
付属金具
  6
CONTINUOUS
 62
     6
100
AcDbLine
 10
1161.759042166471
 20
3728.340577932222
 30
0.0
 11
1161.615198847905
 21
3728.506036899105
 31
0.0
  0
LINE
  5
320
330
1F
100
AcDbEntity
  8
付属金具
  6
CONTINUOUS
 62
     6
100
AcDbLine
 10
1161.615198847905
 20
3728.506036899105
 30
0.0
 11
1161.704722356955
 21
3728.75832554365
 31
0.0
  0
LINE
  5
321
330
1F
100
AcDbEntity
  8
付属金具
  6
CONTINUOUS
 62
     6
100
AcDbLine
 10
1161.704722356955
 20
3728.75832554365
 30
0.0
 11
1161.868598052029
 21
3728.577594538599
 31
0.0
  0
LINE
  5
322
330
1F
100
AcDbEntity
  8
付属金具
  6
CONTINUOUS
 62
     6
100
AcDbLine
 10
1161.868598052029
 20
3728.577594538599
 30
0.0
 11
1162.251803197504
 21
3728.117107586689
 31
0.0
  0
LINE
  5
323
330
1F
100
AcDbEntity
  8
付属金具
  6
CONTINUOUS
 62
     6
100
AcDbLine
 10
1162.251803197504
 20
3728.117107586689
 30
0.0
 11
1162.479245708381
 21
3727.823148985642
 31
0.0
  0
LINE
  5
324
330
1F
100
AcDbEntity
  8
付属金具
  6
CONTINUOUS
 62
     6
100
AcDbLine
 10
1162.479245708381
 20
3727.823148985642
 30
0.0
 11
1162.705344068799
 21
3727.502956912954
 31
0.0
  0
LINE
  5
325
330
1F
100
AcDbEntity
  8
付属金具
  6
CONTINUOUS
 62
     6
100
AcDbLine
 10
1162.705344068799
 20
3727.502956912954
 30
0.0
 11
1162.911518094041
 21
3727.175120903717
 31
0.0
  0
LINE
  5
326
330
1F
100
AcDbEntity
  8
付属金具
  6
CONTINUOUS
 62
     6
100
AcDbLine
 10
1162.911518094041
 20
3727.175120903717
 30
0.0
 11
1163.073453465903
 21
3726.85024271281
 31
0.0
  0
LINE
  5
327
330
1F
100
AcDbEntity
  8
付属金具
  6
CONTINUOUS
 62
     6
100
AcDbLine
 10
1163.073453465903
 20
3726.85024271281
 30
0.0
 11
1163.203838966961
 21
3726.473237195828
 31
0.0
  0
LINE
  5
328
330
1F
100
AcDbEntity
  8
付属金具
  6
CONTINUOUS
 62
     6
100
AcDbLine
 10
1163.203838966961
 20
3726.473237195828
 30
0.0
 11
1163.27330579426
 21
3726.112996929865
 31
0.0
  0
LINE
  5
329
330
1F
100
AcDbEntity
  8
付属金具
  6
CONTINUOUS
 62
     6
100
AcDbLine
 10
1163.27330579426
 20
3726.112996929865
 30
0.0
 11
1163.300744701722
 21
3725.765354860062
 31
0.0
  0
LINE
  5
32A
330
1F
100
AcDbEntity
  8
付属金具
  6
CONTINUOUS
 62
     6
100
AcDbLine
 10
1163.300744701722
 20
3725.765354860062
 30
0.0
 11
1163.30490829841
 21
3725.425966227439
 31
0.0
  0
LINE
  5
32B
330
1F
100
AcDbEntity
  8
付属金具
  6
CONTINUOUS
 62
     6
100
AcDbLine
 10
1163.30490829841
 20
3725.425966227439
 30
0.0
 11
1163.307537388218
 21
3725.082970551236
 31
0.0
  0
LINE
  5
32C
330
1F
100
AcDbEntity
  8
付属金具
  6
CONTINUOUS
 62
     6
100
AcDbLine
 10
1163.307537388218
 20
3725.082970551236
 30
0.0
 11
1163.327530594612
 21
3724.732337071004
 31
0.0
  0
LINE
  5
32D
330
1F
100
AcDbEntity
  8
付属金具
  6
CONTINUOUS
 62
     6
100
AcDbLine
 10
1163.327530594612
 20
3724.732337071004
 30
0.0
 11
1163.386113934308
 21
3724.370803753578
 31
0.0
  0
LINE
  5
32E
330
1F
100
AcDbEntity
  8
付属金具
  6
CONTINUOUS
 62
     6
100
AcDbLine
 10
1163.386113934308
 20
3724.370803753578
 30
0.0
 11
1163.504885824498
 21
3723.986455461063
 31
0.0
  0
LINE
  5
32F
330
1F
100
AcDbEntity
  8
付属金具
  6
CONTINUOUS
 62
     6
100
AcDbLine
 10
1163.504885824498
 20
3723.986455461063
 30
0.0
 11
1163.67432666084
 21
3723.627330909825
 31
0.0
  0
LINE
  5
330
330
1F
100
AcDbEntity
  8
付属金具
  6
CONTINUOUS
 62
     6
100
AcDbLine
 10
1163.67432666084
 20
3723.627330909825
 30
0.0
 11
1163.869323739394
 21
3723.320917674208
 31
0.0
  0
LINE
  5
331
330
1F
100
AcDbEntity
  8
付属金具
  6
CONTINUOUS
 62
     6
100
AcDbLine
 10
1163.869323739394
 20
3723.320917674208
 30
0.0
 11
1164.081272568571
 21
3723.052627537043
 31
0.0
  0
LINE
  5
332
330
1F
100
AcDbEntity
  8
付属金具
  6
CONTINUOUS
 62
     6
100
AcDbLine
 10
1164.081272568571
 20
3723.052627537043
 30
0.0
 11
1164.304351755244
 21
3722.800028479701
 31
0.0
  0
LINE
  5
333
330
1F
100
AcDbEntity
  8
付属金具
  6
CONTINUOUS
 62
     6
100
AcDbLine
 10
1164.304351755244
 20
3722.800028479701
 30
0.0
 11
1164.527400965769
 21
3722.547417915595
 31
0.0
  0
LINE
  5
334
330
1F
100
AcDbEntity
  8
付属金具
  6
CONTINUOUS
 62
     6
100
AcDbLine
 10
1164.527400965769
 20
3722.547417915595
 30
0.0
 11
1164.743739537161
 21
3722.275039087435
 31
0.0
  0
LINE
  5
335
330
1F
100
AcDbEntity
  8
付属金具
  6
CONTINUOUS
 62
     6
100
AcDbLine
 10
1164.743739537161
 20
3722.275039087435
 30
0.0
 11
1164.943081769215
 21
3721.964653318392
 31
0.0
  0
LINE
  5
336
330
1F
100
AcDbEntity
  8
付属金具
  6
CONTINUOUS
 62
     6
100
AcDbLine
 10
1164.943081769215
 20
3721.964653318392
 30
0.0
 11
1165.122227816535
 21
3721.594950984714
 31
0.0
  0
LINE
  5
337
330
1F
100
AcDbEntity
  8
付属金具
  6
CONTINUOUS
 62
     6
100
AcDbLine
 10
1165.122227816535
 20
3721.594950984714
 30
0.0
 11
1165.223756305811
 21
3721.278504994318
 31
0.0
  0
LINE
  5
338
330
1F
100
AcDbEntity
  8
付属金具
  6
CONTINUOUS
 62
     6
100
AcDbLine
 10
1165.223756305811
 20
3721.278504994318
 30
0.0
 11
1165.296446334574
 21
3720.902185033156
 31
0.0
  0
LINE
  5
339
330
1F
100
AcDbEntity
  8
付属金具
  6
CONTINUOUS
 62
     6
100
AcDbLine
 10
1165.296446334574
 20
3720.902185033156
 30
0.0
 11
1165.352459030766
 21
3720.502404226357
 31
0.0
  0
LINE
  5
33A
330
1F
100
AcDbEntity
  8
付属金具
  6
CONTINUOUS
 62
     6
100
AcDbLine
 10
1165.352459030766
 20
3720.502404226357
 30
0.0
 11
1165.38720112153
 21
3720.106001610293
 31
0.0
  0
LINE
  5
33B
330
1F
100
AcDbEntity
  8
付属金具
  6
CONTINUOUS
 62
     6
100
AcDbLine
 10
1165.38720112153
 20
3720.106001610293
 30
0.0
 11
1165.423307524986
 21
3719.451924501459
 31
0.0
  0
LINE
  5
33C
330
1F
100
AcDbEntity
  8
付属金具
  6
CONTINUOUS
 62
     6
100
AcDbLine
 10
1165.423307524986
 20
3719.451924501459
 30
0.0
 11
1165.426881454197
 21
3719.181057185114
 31
0.0
  0
LINE
  5
33D
330
1F
100
AcDbEntity
  8
付属金具
  6
CONTINUOUS
 62
     6
100
AcDbLine
 10
1165.426881454197
 20
3719.181057185114
 30
0.0
 11
1165.174417532088
 21
3719.316239144716
 31
0.0
  0
LINE
  5
33E
330
1F
100
AcDbEntity
  8
付属金具
  6
CONTINUOUS
 62
     6
100
AcDbLine
 10
1165.174417532088
 20
3719.316239144716
 30
0.0
 11
1165.160765937234
 21
3719.583366982089
 31
0.0
  0
LINE
  5
33F
330
1F
100
AcDbEntity
  8
付属金具
  6
CONTINUOUS
 62
     6
100
AcDbLine
 10
1165.160765937234
 20
3719.583366982089
 30
0.0
 11
1165.114759288963
 21
3720.210686295103
 31
0.0
  0
LINE
  5
340
330
1F
100
AcDbEntity
  8
付属金具
  6
CONTINUOUS
 62
     6
100
AcDbLine
 10
1165.114759288963
 20
3720.210686295103
 30
0.0
 11
1165.023128922787
 21
3720.934896919027
 31
0.0
  0
LINE
  5
341
330
1F
100
AcDbEntity
  8
付属金具
  6
CONTINUOUS
 62
     6
100
AcDbLine
 10
1165.023128922787
 20
3720.934896919027
 30
0.0
 11
1164.956985724932
 21
3721.256396541438
 31
0.0
  0
LINE
  5
342
330
1F
100
AcDbEntity
  8
付属金具
  6
CONTINUOUS
 62
     6
100
AcDbLine
 10
1164.956985724932
 20
3721.256396541438
 30
0.0
 11
1164.877431357458
 21
3721.50098242817
 31
0.0
  0
LINE
  5
343
330
1F
100
AcDbEntity
  8
付属金具
  6
CONTINUOUS
 62
     6
100
AcDbLine
 10
1164.877431357458
 20
3721.50098242817
 30
0.0
 11
1164.692712105934
 21
3721.862904927614
 31
0.0
  0
LINE
  5
344
330
1F
100
AcDbEntity
  8
付属金具
  6
CONTINUOUS
 62
     6
100
AcDbLine
 10
1164.692712105934
 20
3721.862904927614
 30
0.0
 11
1164.483339105625
 21
3722.169440245479
 31
0.0
  0
LINE
  5
345
330
1F
100
AcDbEntity
  8
付属金具
  6
CONTINUOUS
 62
     6
100
AcDbLine
 10
1164.483339105625
 20
3722.169440245479
 30
0.0
 11
1164.264457747085
 21
3722.440838689957
 31
0.0
  0
LINE
  5
346
330
1F
100
AcDbEntity
  8
付属金具
  6
CONTINUOUS
 62
     6
100
AcDbLine
 10
1164.264457747085
 20
3722.440838689957
 30
0.0
 11
1164.041377122066
 21
3722.693441494317
 31
0.0
  0
LINE
  5
347
330
1F
100
AcDbEntity
  8
付属金具
  6
CONTINUOUS
 62
     6
100
AcDbLine
 10
1164.041377122066
 20
3722.693441494317
 30
0.0
 11
1163.819946410485
 21
3722.949429095537
 31
0.0
  0
LINE
  5
348
330
1F
100
AcDbEntity
  8
付属金具
  6
CONTINUOUS
 62
     6
100
AcDbLine
 10
1163.819946410485
 20
3722.949429095537
 30
0.0
 11
1163.607032451408
 21
3723.220233482047
 31
0.0
  0
LINE
  5
349
330
1F
100
AcDbEntity
  8
付属金具
  6
CONTINUOUS
 62
     6
100
AcDbLine
 10
1163.607032451408
 20
3723.220233482047
 30
0.0
 11
1163.414467187797
 21
3723.52758020396
 31
0.0
  0
LINE
  5
34A
330
1F
100
AcDbEntity
  8
付属金具
  6
CONTINUOUS
 62
     6
100
AcDbLine
 10
1163.414467187797
 20
3723.52758020396
 30
0.0
 11
1163.327926016595
 21
3723.700736439606
 31
0.0
  0
LINE
  5
34B
330
1F
100
AcDbEntity
  8
付属金具
  6
CONTINUOUS
 62
     6
100
AcDbLine
 10
1163.327926016595
 20
3723.700736439606
 30
0.0
 11
1163.247600553095
 21
3723.887692898627
 31
0.0
  0
LINE
  5
34C
330
1F
100
AcDbEntity
  8
付属金具
  6
CONTINUOUS
 62
     6
100
AcDbLine
 10
1163.247600553095
 20
3723.887692898627
 30
0.0
 11
1163.184127415006
 21
3724.075344604125
 31
0.0
  0
LINE
  5
34D
330
1F
100
AcDbEntity
  8
付属金具
  6
CONTINUOUS
 62
     6
100
AcDbLine
 10
1164.139264379528
 20
3725.746245519394
 30
0.0
 11
1164.141893469336
 21
3725.403249843191
 31
0.0
  0
LINE
  5
34E
330
1F
100
AcDbEntity
  8
付属金具
  6
CONTINUOUS
 62
     6
100
AcDbLine
 10
1164.141893469336
 20
3725.403249843191
 30
0.0
 11
1164.164344719801
 21
3725.053559917673
 31
0.0
  0
LINE
  5
34F
330
1F
100
AcDbEntity
  8
付属金具
  6
CONTINUOUS
 62
     6
100
AcDbLine
 10
1164.164344719801
 20
3725.053559917673
 30
0.0
 11
1164.225386103566
 21
3724.692970154962
 31
0.0
  0
LINE
  5
350
330
1F
100
AcDbEntity
  8
付属金具
  6
CONTINUOUS
 62
     6
100
AcDbLine
 10
1164.225386103566
 20
3724.692970154962
 30
0.0
 11
1164.344274151327
 21
3724.308666451161
 31
0.0
  0
LINE
  5
351
330
1F
100
AcDbEntity
  8
付属金具
  6
CONTINUOUS
 62
     6
100
AcDbLine
 10
1164.344274151327
 20
3724.308666451161
 30
0.0
 11
1164.427143840321
 21
3724.122686628804
 31
0.0
  0
LINE
  5
352
330
1F
100
AcDbEntity
  8
付属金具
  6
CONTINUOUS
 62
     6
100
AcDbLine
 10
1164.427143840321
 20
3724.122686628804
 30
0.0
 11
1164.518031603368
 21
3723.945554112714
 31
0.0
  0
LINE
  5
353
330
1F
100
AcDbEntity
  8
付属金具
  6
CONTINUOUS
 62
     6
100
AcDbLine
 10
1164.518031603368
 20
3723.945554112714
 30
0.0
 11
1164.72288945382
 21
3723.628493834473
 31
0.0
  0
LINE
  5
354
330
1F
100
AcDbEntity
  8
付属金具
  6
CONTINUOUS
 62
     6
100
AcDbLine
 10
1164.72288945382
 20
3723.628493834473
 30
0.0
 11
1164.949012793902
 21
3723.345576361512
 31
0.0
  0
LINE
  5
355
330
1F
100
AcDbEntity
  8
付属金具
  6
CONTINUOUS
 62
     6
100
AcDbLine
 10
1164.949012793902
 20
3723.345576361512
 30
0.0
 11
1165.182874732004
 21
3723.079928422752
 31
0.0
  0
LINE
  5
356
330
1F
100
AcDbEntity
  8
付属金具
  6
CONTINUOUS
 62
     6
100
AcDbLine
 10
1165.182874732004
 20
3723.079928422752
 30
0.0
 11
1165.413809865915
 21
3722.821815472284
 31
0.0
  0
LINE
  5
357
330
1F
100
AcDbEntity
  8
付属金具
  6
CONTINUOUS
 62
     6
100
AcDbLine
 10
1165.413809865915
 20
3722.821815472284
 30
0.0
 11
1165.630146998961
 21
3722.549440391143
 31
0.0
  0
LINE
  5
358
330
1F
100
AcDbEntity
  8
付属金具
  6
CONTINUOUS
 62
     6
100
AcDbLine
 10
1165.630146998961
 20
3722.549440391143
 30
0.0
 11
1165.820311804309
 21
3722.255604457948
 31
0.0
  0
LINE
  5
359
330
1F
100
AcDbEntity
  8
付属金具
  6
CONTINUOUS
 62
     6
100
AcDbLine
 10
1165.820311804309
 20
3722.255604457948
 30
0.0
 11
1165.97410495569
 21
3721.921955980704
 31
0.0
  0
LINE
  5
35A
330
1F
100
AcDbEntity
  8
付属金具
  6
CONTINUOUS
 62
     6
100
AcDbLine
 10
1165.97410495569
 20
3721.921955980704
 30
0.0
 11
1166.092392092663
 21
3721.531781127283
 31
0.0
  0
LINE
  5
35B
330
1F
100
AcDbEntity
  8
付属金具
  6
CONTINUOUS
 62
     6
100
AcDbLine
 10
1166.092392092663
 20
3721.531781127283
 30
0.0
 11
1166.155934670867
 21
3721.172022508736
 31
0.0
  0
LINE
  5
35C
330
1F
100
AcDbEntity
  8
付属金具
  6
CONTINUOUS
 62
     6
100
AcDbLine
 10
1166.155934670867
 20
3721.172022508736
 30
0.0
 11
1166.186488738463
 21
3720.831216718452
 31
0.0
  0
LINE
  5
35D
330
1F
100
AcDbEntity
  8
付属金具
  6
CONTINUOUS
 62
     6
100
AcDbLine
 10
1166.186488738463
 20
3720.831216718452
 30
0.0
 11
1166.192832341533
 21
3720.50119012146
 31
0.0
  0
LINE
  5
35E
330
1F
100
AcDbEntity
  8
付属金具
  6
CONTINUOUS
 62
     6
100
AcDbLine
 10
1166.192832341533
 20
3720.50119012146
 30
0.0
 11
1166.196161520643
 21
3720.17866917783
 31
0.0
  0
LINE
  5
35F
330
1F
100
AcDbEntity
  8
付属金具
  6
CONTINUOUS
 62
     6
100
AcDbLine
 10
1166.196161520643
 20
3720.17866917783
 30
0.0
 11
1166.210930567246
 21
3719.848992077586
 31
0.0
  0
LINE
  5
360
330
1F
100
AcDbEntity
  8
付属金具
  6
CONTINUOUS
 62
     6
100
AcDbLine
 10
1166.210930567246
 20
3719.848992077586
 30
0.0
 11
1166.253464022481
 21
3719.506882013798
 31
0.0
  0
LINE
  5
361
330
1F
100
AcDbEntity
  8
付属金具
  6
CONTINUOUS
 62
     6
100
AcDbLine
 10
1166.253464022481
 20
3719.506882013798
 30
0.0
 11
1166.340738877888
 21
3719.144948100628
 31
0.0
  0
LINE
  5
362
330
1F
100
AcDbEntity
  8
付属金具
  6
CONTINUOUS
 62
     6
100
AcDbLine
 10
1166.340738877888
 20
3719.144948100628
 30
0.0
 11
1166.404034714463
 21
3718.980056808927
 31
0.0
  0
LINE
  5
363
330
1F
100
AcDbEntity
  8
付属金具
  6
CONTINUOUS
 62
     6
100
AcDbLine
 10
1166.404034714463
 20
3718.980056808927
 30
0.0
 11
1166.478331634557
 21
3718.816499410384
 31
0.0
  0
LINE
  5
364
330
1F
100
AcDbEntity
  8
付属金具
  6
CONTINUOUS
 62
     6
100
AcDbLine
 10
1166.478331634557
 20
3718.816499410384
 30
0.0
 11
1166.565839374003
 21
3718.640825178373
 31
0.0
  0
LINE
  5
365
330
1F
100
AcDbEntity
  8
付属金具
  6
CONTINUOUS
 62
     6
100
AcDbLine
 10
1166.565839374003
 20
3718.640825178373
 30
0.0
 11
1166.230860426546
 21
3718.74446156182
 31
0.0
  0
LINE
  5
366
330
1F
100
AcDbEntity
  8
付属金具
  6
CONTINUOUS
 62
     6
100
AcDbLine
 10
1166.230860426546
 20
3718.74446156182
 30
0.0
 11
1166.110982950669
 21
3719.056753063332
 31
0.0
  0
LINE
  5
367
330
1F
100
AcDbEntity
  8
付属金具
  6
CONTINUOUS
 62
     6
100
AcDbLine
 10
1166.110982950669
 20
3719.056753063332
 30
0.0
 11
1166.005335698407
 21
3719.428951440429
 31
0.0
  0
LINE
  5
368
330
1F
100
AcDbEntity
  8
付属金具
  6
CONTINUOUS
 62
     6
100
AcDbLine
 10
1166.005335698407
 20
3719.428951440429
 30
0.0
 11
1165.950614316654
 21
3719.780424013452
 31
0.0
  0
LINE
  5
369
330
1F
100
AcDbEntity
  8
付属金具
  6
CONTINUOUS
 62
     6
100
AcDbLine
 10
1165.950614316654
 20
3719.780424013452
 30
0.0
 11
1165.927946172444
 21
3720.115727417374
 31
0.0
  0
LINE
  5
36A
330
1F
100
AcDbEntity
  8
付属金具
  6
CONTINUOUS
 62
     6
100
AcDbLine
 10
1165.927946172444
 20
3720.115727417374
 30
0.0
 11
1165.922681548171
 21
3720.443279168369
 31
0.0
  0
LINE
  5
36B
330
1F
100
AcDbEntity
  8
付属金具
  6
CONTINUOUS
 62
     6
100
AcDbLine
 10
1165.922681548171
 20
3720.443279168369
 30
0.0
 11
1165.916343130466
 21
3720.773303456688
 31
0.0
  0
LINE
  5
36C
330
1F
100
AcDbEntity
  8
付属金具
  6
CONTINUOUS
 62
     6
100
AcDbLine
 10
1165.916343130466
 20
3720.773303456688
 30
0.0
 11
1165.891211756822
 21
3721.107665614568
 31
0.0
  0
LINE
  5
36D
330
1F
100
AcDbEntity
  8
付属金具
  6
CONTINUOUS
 62
     6
100
AcDbLine
 10
1165.891211756822
 20
3721.107665614568
 30
0.0
 11
1165.828986911066
 21
3721.456386852049
 31
0.0
  0
LINE
  5
36E
330
1F
100
AcDbEntity
  8
付属金具
  6
CONTINUOUS
 62
     6
100
AcDbLine
 10
1165.828986911066
 20
3721.456386852049
 30
0.0
 11
1165.716815937269
 21
3721.823191979923
 31
0.0
  0
LINE
  5
36F
330
1F
100
AcDbEntity
  8
付属金具
  6
CONTINUOUS
 62
     6
100
AcDbLine
 10
1165.716815937269
 20
3721.823191979923
 30
0.0
 11
1165.551440778392
 21
3722.18676622567
 31
0.0
  0
LINE
  5
370
330
1F
100
AcDbEntity
  8
付属金具
  6
CONTINUOUS
 62
     6
100
AcDbLine
 10
1165.551440778392
 20
3722.18676622567
 30
0.0
 11
1165.353037447109
 21
3722.494627676946
 31
0.0
  0
LINE
  5
371
330
1F
100
AcDbEntity
  8
付属金具
  6
CONTINUOUS
 62
     6
100
AcDbLine
 10
1165.353037447109
 20
3722.494627676946
 30
0.0
 11
1165.136700314063
 21
3722.767002758089
 31
0.0
  0
LINE
  5
372
330
1F
100
AcDbEntity
  8
付属金具
  6
CONTINUOUS
 62
     6
100
AcDbLine
 10
1165.136700314063
 20
3722.767002758089
 30
0.0
 11
1164.910110333652
 21
3723.021143175131
 31
0.0
  0
LINE
  5
373
330
1F
100
AcDbEntity
  8
付属金具
  6
CONTINUOUS
 62
     6
100
AcDbLine
 10
1164.910110333652
 20
3723.021143175131
 30
0.0
 11
1164.683632763793
 21
3723.275326742541
 31
0.0
  0
LINE
  5
374
330
1F
100
AcDbEntity
  8
付属金具
  6
CONTINUOUS
 62
     6
100
AcDbLine
 10
1164.683632763793
 20
3723.275326742541
 30
0.0
 11
1164.467340219461
 21
3723.547585666113
 31
0.0
  0
LINE
  5
375
330
1F
100
AcDbEntity
  8
付属金具
  6
CONTINUOUS
 62
     6
100
AcDbLine
 10
1164.467340219461
 20
3723.547585666113
 30
0.0
 11
1164.268892299464
 21
3723.85556327496
 31
0.0
  0
LINE
  5
376
330
1F
100
AcDbEntity
  8
付属金具
  6
CONTINUOUS
 62
     6
100
AcDbLine
 10
1164.268892299464
 20
3723.85556327496
 30
0.0
 11
1164.09947769225
 21
3724.214697894618
 31
0.0
  0
LINE
  5
377
330
1F
100
AcDbEntity
  8
付属金具
  6
CONTINUOUS
 62
     6
100
AcDbLine
 10
1164.09947769225
 20
3724.214697894618
 30
0.0
 11
1163.980593391508
 21
3724.599003036764
 31
0.0
  0
LINE
  5
378
330
1F
100
AcDbEntity
  8
付属金具
  6
CONTINUOUS
 62
     6
100
AcDbLine
 10
1163.980593391508
 20
3724.599003036764
 30
0.0
 11
1163.922122462365
 21
3724.960579504559
 31
0.0
  0
LINE
  5
379
330
1F
100
AcDbEntity
  8
付属金具
  6
CONTINUOUS
 62
     6
100
AcDbLine
 10
1163.922122462365
 20
3724.960579504559
 30
0.0
 11
1163.8996712119
 21
3725.310269430076
 31
0.0
  0
LINE
  5
37A
330
1F
100
AcDbEntity
  8
付属金具
  6
CONTINUOUS
 62
     6
100
AcDbLine
 10
1163.8996712119
 20
3725.310269430076
 30
0.0
 11
1163.894467920452
 21
3725.65227696285
 31
0.0
  0
LINE
  5
37B
330
1F
100
AcDbEntity
  8
付属金具
  6
CONTINUOUS
 62
     6
100
AcDbLine
 10
1163.894467920452
 20
3725.65227696285
 30
0.0
 11
1163.892762367834
 21
3725.992609150188
 31
0.0
  0
LINE
  5
37C
330
1F
100
AcDbEntity
  8
付属金具
  6
CONTINUOUS
 62
     6
100
AcDbLine
 10
1163.892762367834
 20
3725.992609150188
 30
0.0
 11
1163.867897662012
 21
3726.341239363419
 31
0.0
  0
LINE
  5
37D
330
1F
100
AcDbEntity
  8
付属金具
  6
CONTINUOUS
 62
     6
100
AcDbLine
 10
1163.867897662012
 20
3726.341239363419
 30
0.0
 11
1163.805891148348
 21
3726.704343375477
 31
0.0
  0
LINE
  5
37E
330
1F
100
AcDbEntity
  8
付属金具
  6
CONTINUOUS
 62
     6
100
AcDbLine
 10
1163.805891148348
 20
3726.704343375477
 30
0.0
 11
1163.682965960923
 21
3727.084212638552
 31
0.0
  0
LINE
  5
37F
330
1F
100
AcDbEntity
  8
付属金具
  6
CONTINUOUS
 62
     6
100
AcDbLine
 10
1163.682965960923
 20
3727.084212638552
 30
0.0
 11
1163.605494175097
 21
3727.263735013068
 31
0.0
  0
LINE
  5
380
330
1F
100
AcDbEntity
  8
付属金具
  6
CONTINUOUS
 62
     6
100
AcDbLine
 10
1163.605494175097
 20
3727.263735013068
 30
0.0
 11
1163.517738127413
 21
3727.425014963737
 31
0.0
  0
LINE
  5
381
330
1F
100
AcDbEntity
  8
付属金具
  6
CONTINUOUS
 62
     6
100
AcDbLine
 10
1163.517738127413
 20
3727.425014963737
 30
0.0
 11
1163.323533873728
 21
3727.714411270842
 31
0.0
  0
LINE
  5
382
330
1F
100
AcDbEntity
  8
付属金具
  6
CONTINUOUS
 62
     6
100
AcDbLine
 10
1163.323533873728
 20
3727.714411270842
 30
0.0
 11
1163.111454332229
 21
3727.968347968361
 31
0.0
  0
LINE
  5
383
330
1F
100
AcDbEntity
  8
付属金具
  6
CONTINUOUS
 62
     6
100
AcDbLine
 10
1163.111454332229
 20
3727.968347968361
 30
0.0
 11
1162.891579987435
 21
3728.204993556495
 31
0.0
  0
LINE
  5
384
330
1F
100
AcDbEntity
  8
付属金具
  6
CONTINUOUS
 62
     6
100
AcDbLine
 10
1162.891579987435
 20
3728.204993556495
 30
0.0
 11
1162.673284738235
 21
3728.445130030639
 31
0.0
  0
LINE
  5
385
330
1F
100
AcDbEntity
  8
付属金具
  6
CONTINUOUS
 62
     6
100
AcDbLine
 10
1162.673284738235
 20
3728.445130030639
 30
0.0
 11
1162.466252055014
 21
3728.700870761966
 31
0.0
  0
LINE
  5
386
330
1F
100
AcDbEntity
  8
付属金具
  6
CONTINUOUS
 62
     6
100
AcDbLine
 10
1162.466252055014
 20
3728.700870761966
 30
0.0
 11
1162.276038913934
 21
3728.994821414384
 31
0.0
  0
LINE
  5
387
330
1F
100
AcDbEntity
  8
付属金具
  6
CONTINUOUS
 62
     6
100
AcDbLine
 10
1162.276038913934
 20
3728.994821414384
 30
0.0
 11
1162.118345958919
 21
3729.338382834858
 31
0.0
  0
LINE
  5
388
330
1F
100
AcDbEntity
  8
付属金具
  6
CONTINUOUS
 62
     6
100
AcDbLine
 10
1162.118345958919
 20
3729.338382834858
 30
0.0
 11
1162.006177104913
 21
3729.667932363806
 31
0.0
  0
LINE
  5
389
330
1F
100
AcDbEntity
  8
付属金具
  6
CONTINUOUS
 62
     6
100
AcDbLine
 10
1162.006177104913
 20
3729.667932363806
 30
0.0
 11
1162.196321503038
 21
3729.941524483376
 31
0.0
  0
LINE
  5
38A
330
1F
100
AcDbEntity
  8
付属金具
  6
CONTINUOUS
 62
     6
100
AcDbLine
 10
1162.196321503038
 20
3729.941524483376
 30
0.0
 11
1162.272234364453
 21
3729.684126516697
 31
0.0
  0
LINE
  5
38B
330
1F
100
AcDbEntity
  8
付属金具
  6
CONTINUOUS
 62
     6
100
AcDbLine
 10
1162.272234364453
 20
3729.684126516697
 30
0.0
 11
1162.363142417996
 21
3729.432351391402
 31
0.0
  0
LINE
  5
38C
330
1F
100
AcDbEntity
  8
付属金具
  6
CONTINUOUS
 62
     6
100
AcDbLine
 10
1162.363142417996
 20
3729.432351391402
 30
0.0
 11
1162.52083537301
 21
3729.088789970928
 31
0.0
  0
LINE
  5
38D
330
1F
100
AcDbEntity
  8
付属金具
  6
CONTINUOUS
 62
     6
100
AcDbLine
 10
1162.52083537301
 20
3729.088789970928
 30
0.0
 11
1162.708504288597
 21
3728.793862681845
 31
0.0
  0
LINE
  5
38E
330
1F
100
AcDbEntity
  8
付属金具
  6
CONTINUOUS
 62
     6
100
AcDbLine
 10
1162.708504288597
 20
3728.793862681845
 30
0.0
 11
1162.918081197312
 21
3728.539098587182
 31
0.0
  0
LINE
  5
38F
330
1F
100
AcDbEntity
  8
付属金具
  6
CONTINUOUS
 62
     6
100
AcDbLine
 10
1162.918081197312
 20
3728.539098587182
 30
0.0
 11
1163.136458880917
 21
3728.298993756641
 31
0.0
  0
LINE
  5
390
330
1F
100
AcDbEntity
  8
付属金具
  6
CONTINUOUS
 62
     6
100
AcDbLine
 10
1163.136458880917
 20
3728.298993756641
 30
0.0
 11
1163.356250791305
 21
3728.062316524904
 31
0.0
  0
LINE
  5
391
330
1F
100
AcDbEntity
  8
付属金具
  6
CONTINUOUS
 62
     6
100
AcDbLine
 10
1163.356250791305
 20
3728.062316524904
 30
0.0
 11
1163.565872288734
 21
3727.807436272671
 31
0.0
  0
LINE
  5
392
330
1F
100
AcDbEntity
  8
付属金具
  6
CONTINUOUS
 62
     6
100
AcDbLine
 10
1163.565872288734
 20
3727.807436272671
 30
0.0
 11
1163.760072795401
 21
3727.51803852722
 31
0.0
  0
LINE
  5
393
330
1F
100
AcDbEntity
  8
付属金具
  6
CONTINUOUS
 62
     6
100
AcDbLine
 10
1163.760072795401
 20
3727.51803852722
 30
0.0
 11
1163.847828843085
 21
3727.356758576551
 31
0.0
  0
LINE
  5
394
330
1F
100
AcDbEntity
  8
付属金具
  6
CONTINUOUS
 62
     6
100
AcDbLine
 10
1163.847828843085
 20
3727.356758576551
 30
0.0
 11
1163.925304375929
 21
3727.177237640381
 31
0.0
  0
LINE
  5
395
330
1F
100
AcDbEntity
  8
付属金具
  6
CONTINUOUS
 62
     6
100
AcDbLine
 10
1163.925304375929
 20
3727.177237640381
 30
0.0
 11
1164.048143381931
 21
3726.797335295356
 31
0.0
  0
LINE
  5
396
330
1F
100
AcDbEntity
  8
付属金具
  6
CONTINUOUS
 62
     6
100
AcDbLine
 10
1164.048143381931
 20
3726.797335295356
 30
0.0
 11
1164.112694121089
 21
3726.435207919963
 31
0.0
  0
LINE
  5
397
330
1F
100
AcDbEntity
  8
付属金具
  6
CONTINUOUS
 62
     6
100
AcDbLine
 10
1164.112694121089
 20
3726.435207919963
 30
0.0
 11
1164.13755882691
 21
3726.086577706732
 31
0.0
  0
LINE
  5
398
330
1F
100
AcDbEntity
  8
付属金具
  6
CONTINUOUS
 62
     6
100
AcDbLine
 10
1164.13755882691
 20
3726.086577706732
 30
0.0
 11
1164.139264379528
 21
3725.746245519394
 31
0.0
  0
LINE
  5
399
330
1F
100
AcDbEntity
  8
付属金具
  6
CONTINUOUS
 62
     6
100
AcDbLine
 10
1165.778444718924
 20
3725.455364340731
 30
0.0
 11
1165.72695851862
 21
3725.320933776774
 31
0.0
  0
LINE
  5
39A
330
1F
100
AcDbEntity
  8
付属金具
  6
CONTINUOUS
 62
     6
100
AcDbLine
 10
1165.72695851862
 20
3725.320933776774
 30
0.0
 11
1165.704444748407
 21
3725.177676642122
 31
0.0
  0
LINE
  5
39B
330
1F
100
AcDbEntity
  8
付属金具
  6
CONTINUOUS
 62
     6
100
AcDbLine
 10
1165.704444748407
 20
3725.177676642122
 30
0.0
 11
1165.708401006816
 21
3725.033041487449
 31
0.0
  0
LINE
  5
39C
330
1F
100
AcDbEntity
  8
付属金具
  6
CONTINUOUS
 62
     6
100
AcDbLine
 10
1165.708401006816
 20
3725.033041487449
 30
0.0
 11
1165.743141225364
 21
3724.882901922464
 31
0.0
  0
LINE
  5
39D
330
1F
100
AcDbEntity
  8
付属金具
  6
CONTINUOUS
 62
     6
100
AcDbLine
 10
1165.743141225364
 20
3724.882901922464
 30
0.0
 11
1165.808704630274
 21
3724.741838516592
 31
0.0
  0
LINE
  5
39E
330
1F
100
AcDbEntity
  8
付属金具
  6
CONTINUOUS
 62
     6
100
AcDbLine
 10
1165.808704630274
 20
3724.741838516592
 30
0.0
 11
1165.902383677588
 21
3724.617341449816
 31
0.0
  0
LINE
  5
39F
330
1F
100
AcDbEntity
  8
付属金具
  6
CONTINUOUS
 62
     6
100
AcDbLine
 10
1165.902383677588
 20
3724.617341449816
 30
0.0
 11
1166.016786505026
 21
3724.520872216794
 31
0.0
  0
LINE
  5
3A0
330
1F
100
AcDbEntity
  8
付属金具
  6
CONTINUOUS
 62
     6
100
AcDbLine
 10
1166.016786505026
 20
3724.520872216794
 30
0.0
 11
1166.148977928651
 21
3724.445405675543
 31
0.0
  0
LINE
  5
3A1
330
1F
100
AcDbEntity
  8
付属金具
  6
CONTINUOUS
 62
     6
100
AcDbLine
 10
1166.148977928651
 20
3724.445405675543
 30
0.0
 11
1166.293398309372
 21
3724.39771981343
 31
0.0
  0
LINE
  5
3A2
330
1F
100
AcDbEntity
  8
付属金具
  6
CONTINUOUS
 62
     6
100
AcDbLine
 10
1166.293398309372
 20
3724.39771981343
 30
0.0
 11
1166.444140319331
 21
3724.378173798901
 31
0.0
  0
LINE
  5
3A3
330
1F
100
AcDbEntity
  8
付属金具
  6
CONTINUOUS
 62
     6
100
AcDbLine
 10
1166.444140319331
 20
3724.378173798901
 30
0.0
 11
1166.597873397181
 21
3724.388511449962
 31
0.0
  0
LINE
  5
3A4
330
1F
100
AcDbEntity
  8
付属金具
  6
CONTINUOUS
 62
     6
100
AcDbLine
 10
1166.597873397181
 20
3724.388511449962
 30
0.0
 11
1166.751998669812
 21
3724.427472904694
 31
0.0
  0
LINE
  5
3A5
330
1F
100
AcDbEntity
  8
付属金具
  6
CONTINUOUS
 62
     6
100
AcDbLine
 10
1166.751998669812
 20
3724.427472904694
 30
0.0
 11
1166.896164061596
 21
3724.49999650644
 31
0.0
  0
LINE
  5
3A6
330
1F
100
AcDbEntity
  8
付属金具
  6
CONTINUOUS
 62
     6
100
AcDbLine
 10
1166.896164061596
 20
3724.49999650644
 30
0.0
 11
1167.019740696985
 21
3724.596241354431
 31
0.0
  0
LINE
  5
3A7
330
1F
100
AcDbEntity
  8
付属金具
  6
CONTINUOUS
 62
     6
100
AcDbLine
 10
1167.019740696985
 20
3724.596241354431
 30
0.0
 11
1167.12130004845
 21
3724.712503514028
 31
0.0
  0
LINE
  5
3A8
330
1F
100
AcDbEntity
  8
付属金具
  6
CONTINUOUS
 62
     6
100
AcDbLine
 10
1167.12130004845
 20
3724.712503514028
 30
0.0
 11
1167.199135877966
 21
3724.84563451624
 31
0.0
  0
LINE
  5
3A9
330
1F
100
AcDbEntity
  8
付属金具
  6
CONTINUOUS
 62
     6
100
AcDbLine
 10
1167.199135877966
 20
3724.84563451624
 30
0.0
 11
1167.249346057844
 21
3724.99099379773
 31
0.0
  0
LINE
  5
3AA
330
1F
100
AcDbEntity
  8
付属金具
  6
CONTINUOUS
 62
     6
100
AcDbLine
 10
1167.249346057844
 20
3724.99099379773
 30
0.0
 11
1167.268805130421
 21
3725.141861502259
 31
0.0
  0
LINE
  5
3AB
330
1F
100
AcDbEntity
  8
付属金具
  6
CONTINUOUS
 62
     6
100
AcDbLine
 10
1167.268805130421
 20
3725.141861502259
 30
0.0
 11
1167.258570582022
 21
3725.295505183088
 31
0.0
  0
LINE
  5
3AC
330
1F
100
AcDbEntity
  8
付属金具
  6
CONTINUOUS
 62
     6
100
AcDbLine
 10
1167.258570582022
 20
3725.295505183088
 30
0.0
 11
1167.212024896339
 21
3725.446753535403
 31
0.0
  0
LINE
  5
3AD
330
1F
100
AcDbEntity
  8
付属金具
  6
CONTINUOUS
 62
     6
100
AcDbLine
 10
1167.212024896339
 20
3725.446753535403
 30
0.0
 11
1167.138914996372
 21
3725.584920113231
 31
0.0
  0
LINE
  5
3AE
330
1F
100
AcDbEntity
  8
付属金具
  6
CONTINUOUS
 62
     6
100
AcDbLine
 10
1167.138914996372
 20
3725.584920113231
 30
0.0
 11
1167.041564466851
 21
3725.696593593298
 31
0.0
  0
LINE
  5
3AF
330
1F
100
AcDbEntity
  8
付属金具
  6
CONTINUOUS
 62
     6
100
AcDbLine
 10
1167.041564466851
 20
3725.696593593298
 30
0.0
 11
1166.9265883961
 21
3725.787197998101
 31
0.0
  0
LINE
  5
3B0
330
1F
100
AcDbEntity
  8
付属金具
  6
CONTINUOUS
 62
     6
100
AcDbLine
 10
1166.9265883961
 20
3725.787197998101
 30
0.0
 11
1166.795799448001
 21
3725.851663987251
 31
0.0
  0
LINE
  5
3B1
330
1F
100
AcDbEntity
  8
付属金具
  6
CONTINUOUS
 62
     6
100
AcDbLine
 10
1166.795799448001
 20
3725.851663987251
 30
0.0
 11
1166.655199313201
 21
3725.889397768494
 31
0.0
  0
LINE
  5
3B2
330
1F
100
AcDbEntity
  8
付属金具
  6
CONTINUOUS
 62
     6
100
AcDbLine
 10
1166.655199313201
 20
3725.889397768494
 30
0.0
 11
1166.507241720732
 21
3725.901354137598
 31
0.0
  0
LINE
  5
3B3
330
1F
100
AcDbEntity
  8
付属金具
  6
CONTINUOUS
 62
     6
100
AcDbLine
 10
1166.507241720732
 20
3725.901354137598
 30
0.0
 11
1166.357004824054
 21
3725.889602791172
 31
0.0
  0
LINE
  5
3B4
330
1F
100
AcDbEntity
  8
付属金具
  6
CONTINUOUS
 62
     6
100
AcDbLine
 10
1166.357004824054
 20
3725.889602791172
 30
0.0
 11
1166.208273826887
 21
3725.8439245472
 31
0.0
  0
LINE
  5
3B5
330
1F
100
AcDbEntity
  8
付属金具
  6
CONTINUOUS
 62
     6
100
AcDbLine
 10
1166.208273826887
 20
3725.8439245472
 30
0.0
 11
1166.070694985624
 21
3725.77680971417
 31
0.0
  0
LINE
  5
3B6
330
1F
100
AcDbEntity
  8
付属金具
  6
CONTINUOUS
 62
     6
100
AcDbLine
 10
1166.070694985624
 20
3725.77680971417
 30
0.0
 11
1165.953597483058
 21
3725.686074272974
 31
0.0
  0
LINE
  5
3B7
330
1F
100
AcDbEntity
  8
付属金具
  6
CONTINUOUS
 62
     6
100
AcDbLine
 10
1165.953597483058
 20
3725.686074272974
 30
0.0
 11
1165.854257541324
 21
3725.57906030011
 31
0.0
  0
LINE
  5
3B8
330
1F
100
AcDbEntity
  8
付属金具
  6
CONTINUOUS
 62
     6
100
AcDbLine
 10
1165.854257541324
 20
3725.57906030011
 30
0.0
 11
1165.778444718924
 21
3725.455364340731
 31
0.0
  0
LINE
  5
3B9
330
1F
100
AcDbEntity
  8
付属金具
  6
CONTINUOUS
 62
     6
100
AcDbLine
 10
1165.25757058932
 20
3724.98304700279
 30
0.0
 11
1165.231424996775
 21
3725.245383142943
 31
0.0
  0
LINE
  5
3BA
330
1F
100
AcDbEntity
  8
付属金具
  6
CONTINUOUS
 62
     6
100
AcDbLine
 10
1165.325906979529
 20
3724.722740701303
 30
0.0
 11
1165.25757058932
 21
3724.98304700279
 31
0.0
  0
LINE
  5
3BB
330
1F
100
AcDbEntity
  8
付属金具
  6
CONTINUOUS
 62
     6
100
AcDbLine
 10
1165.44216580922
 20
3724.472167318499
 30
0.0
 11
1165.325906979529
 21
3724.722740701303
 31
0.0
  0
LINE
  5
3BC
330
1F
100
AcDbEntity
  8
付属金具
  6
CONTINUOUS
 62
     6
100
AcDbLine
 10
1165.594586893168
 20
3724.24702283484
 30
0.0
 11
1165.44216580922
 21
3724.472167318499
 31
0.0
  0
LINE
  5
3BD
330
1F
100
AcDbEntity
  8
付属金具
  6
CONTINUOUS
 62
     6
100
AcDbLine
 10
1165.780284388194
 20
3724.05446673965
 30
0.0
 11
1165.594586893168
 21
3724.24702283484
 31
0.0
  0
LINE
  5
3BE
330
1F
100
AcDbEntity
  8
付属金具
  6
CONTINUOUS
 62
     6
100
AcDbLine
 10
1165.992196313831
 20
3723.897944571899
 30
0.0
 11
1165.780284388194
 21
3724.05446673965
 31
0.0
  0
LINE
  5
3BF
330
1F
100
AcDbEntity
  8
付属金具
  6
CONTINUOUS
 62
     6
100
AcDbLine
 10
1166.225781345275
 20
3723.789891668931
 30
0.0
 11
1165.992196313831
 21
3723.897944571899
 31
0.0
  0
LINE
  5
3C0
330
1F
100
AcDbEntity
  8
付属金具
  6
CONTINUOUS
 62
     6
100
AcDbLine
 10
1166.474891850673
 20
3723.730699630408
 30
0.0
 11
1166.225781345275
 21
3723.789891668931
 31
0.0
  0
LINE
  5
3C1
330
1F
100
AcDbEntity
  8
付属金具
  6
CONTINUOUS
 62
     6
100
AcDbLine
 10
1166.602995867991
 20
3723.725429750871
 30
0.0
 11
1166.474891850673
 21
3723.730699630408
 31
0.0
  0
LINE
  5
3C2
330
1F
100
AcDbEntity
  8
付属金具
  6
CONTINUOUS
 62
     6
100
AcDbLine
 10
1166.734888963433
 20
3723.73302429974
 30
0.0
 11
1166.602995867991
 21
3723.725429750871
 31
0.0
  0
LINE
  5
3C3
330
1F
100
AcDbEntity
  8
付属金具
  6
CONTINUOUS
 62
     6
100
AcDbLine
 10
1166.863330289288
 20
3723.756610804726
 30
0.0
 11
1166.734888963433
 21
3723.73302429974
 31
0.0
  0
LINE
  5
3C4
330
1F
100
AcDbEntity
  8
付属金具
  6
CONTINUOUS
 62
     6
100
AcDbLine
 10
1166.993596142284
 20
3723.7980899711
 30
0.0
 11
1166.863330289288
 21
3723.756610804726
 31
0.0
  0
LINE
  5
3C5
330
1F
100
AcDbEntity
  8
付属金具
  6
CONTINUOUS
 62
     6
100
AcDbLine
 10
1167.120619307709
 20
3723.855374805507
 30
0.0
 11
1166.993596142284
 21
3723.7980899711
 31
0.0
  0
LINE
  5
3C6
330
1F
100
AcDbEntity
  8
付属金具
  6
CONTINUOUS
 62
     6
100
AcDbLine
 10
1167.231938448202
 20
3723.923823720576
 30
0.0
 11
1167.120619307709
 21
3723.855374805507
 31
0.0
  0
LINE
  5
3C7
330
1F
100
AcDbEntity
  8
付属金具
  6
CONTINUOUS
 62
     6
100
AcDbLine
 10
1167.334919707114
 20
3724.006388989096
 30
0.0
 11
1167.231938448202
 21
3723.923823720576
 31
0.0
  0
LINE
  5
3C8
330
1F
100
AcDbEntity
  8
付属金具
  6
CONTINUOUS
 62
     6
100
AcDbLine
 10
1167.426623283165
 20
3724.096035098354
 30
0.0
 11
1167.334919707114
 21
3724.006388989096
 31
0.0
  0
LINE
  5
3C9
330
1F
100
AcDbEntity
  8
付属金具
  6
CONTINUOUS
 62
     6
100
AcDbLine
 10
1167.50862395691
 20
3724.196264175416
 30
0.0
 11
1167.426623283165
 21
3724.096035098354
 31
0.0
  0
LINE
  5
3CA
330
1F
100
AcDbEntity
  8
付属金具
  6
CONTINUOUS
 62
     6
100
AcDbLine
 10
1167.575676846116
 20
3724.305183274757
 30
0.0
 11
1167.50862395691
 21
3724.196264175416
 31
0.0
  0
LINE
  5
3CB
330
1F
100
AcDbEntity
  8
付属金具
  6
CONTINUOUS
 62
     6
100
AcDbLine
 10
1167.633964863461
 20
3724.422152091754
 30
0.0
 11
1167.575676846116
 21
3724.305183274757
 31
0.0
  0
LINE
  5
3CC
330
1F
100
AcDbEntity
  8
付属金具
  6
CONTINUOUS
 62
     6
100
AcDbLine
 10
1167.679394664003
 20
3724.542714610498
 30
0.0
 11
1167.633964863461
 21
3724.422152091754
 31
0.0
  0
LINE
  5
3CD
330
1F
100
AcDbEntity
  8
付属金具
  6
CONTINUOUS
 62
     6
100
AcDbLine
 10
1167.713498445951
 20
3724.670472689205
 30
0.0
 11
1167.679394664003
 21
3724.542714610498
 31
0.0
  0
LINE
  5
3CE
330
1F
100
AcDbEntity
  8
付属金具
  6
CONTINUOUS
 62
     6
100
AcDbLine
 10
1167.734687805819
 20
3724.801802894476
 30
0.0
 11
1167.713498445951
 21
3724.670472689205
 31
0.0
  0
LINE
  5
3CF
330
1F
100
AcDbEntity
  8
付属金具
  6
CONTINUOUS
 62
     6
100
AcDbLine
 10
1167.746470541344
 20
3724.935429263699
 30
0.0
 11
1167.734687805819
 21
3724.801802894476
 31
0.0
  0
LINE
  5
3D0
330
1F
100
AcDbEntity
  8
付属金具
  6
CONTINUOUS
 62
     6
100
AcDbLine
 10
1167.743884473642
 20
3725.069047174143
 30
0.0
 11
1167.746470541344
 21
3724.935429263699
 31
0.0
  0
LINE
  5
3D1
330
1F
100
AcDbEntity
  8
付属金具
  6
CONTINUOUS
 62
     6
100
AcDbLine
 10
1167.707954112406
 20
3725.341921959096
 30
0.0
 11
1167.743884473642
 21
3725.069047174143
 31
0.0
  0
LINE
  5
3D2
330
1F
100
AcDbEntity
  8
付属金具
  6
CONTINUOUS
 62
     6
100
AcDbLine
 10
1167.670582106411
 20
3725.476619037218
 30
0.0
 11
1167.707954112406
 21
3725.341921959096
 31
0.0
  0
LINE
  5
3D3
330
1F
100
AcDbEntity
  8
付属金具
  6
CONTINUOUS
 62
     6
100
AcDbLine
 10
1167.624226896463
 20
3725.60498305842
 30
0.0
 11
1167.670582106411
 21
3725.476619037218
 31
0.0
  0
LINE
  5
3D4
330
1F
100
AcDbEntity
  8
付属金具
  6
CONTINUOUS
 62
     6
100
AcDbLine
 10
1167.502280143345
 20
3725.847728271257
 30
0.0
 11
1167.624226896463
 21
3725.60498305842
 31
0.0
  0
LINE
  5
3D5
330
1F
100
AcDbEntity
  8
付属金具
  6
CONTINUOUS
 62
     6
100
AcDbLine
 10
1167.343759509265
 20
3726.059117120255
 30
0.0
 11
1167.502280143345
 21
3725.847728271257
 31
0.0
  0
LINE
  5
3D6
330
1F
100
AcDbEntity
  8
付属金具
  6
CONTINUOUS
 62
     6
100
AcDbLine
 10
1167.254733687103
 20
3726.156798164188
 30
0.0
 11
1167.343759509265
 21
3726.059117120255
 31
0.0
  0
LINE
  5
3D7
330
1F
100
AcDbEntity
  8
付属金具
  6
CONTINUOUS
 62
     6
100
AcDbLine
 10
1167.159509078479
 20
3726.240556505775
 30
0.0
 11
1167.254733687103
 21
3726.156798164188
 31
0.0
  0
LINE
  5
3D8
330
1F
100
AcDbEntity
  8
付属金具
  6
CONTINUOUS
 62
     6
100
AcDbLine
 10
1166.947294077675
 20
3726.382659069982
 30
0.0
 11
1167.159509078479
 21
3726.240556505775
 31
0.0
  0
LINE
  5
3D9
330
1F
100
AcDbEntity
  8
付属金具
  6
CONTINUOUS
 62
     6
100
AcDbLine
 10
1166.72006833228
 20
3726.481738837417
 30
0.0
 11
1166.947294077675
 21
3726.382659069982
 31
0.0
  0
LINE
  5
3DA
330
1F
100
AcDbEntity
  8
付属金具
  6
CONTINUOUS
 62
     6
100
AcDbLine
 10
1166.600810371764
 20
3726.516255174208
 30
0.0
 11
1166.72006833228
 21
3726.481738837417
 31
0.0
  0
LINE
  5
3DB
330
1F
100
AcDbEntity
  8
付属金具
  6
CONTINUOUS
 62
     6
100
AcDbLine
 10
1166.477238425544
 20
3726.53192753515
 30
0.0
 11
1166.600810371764
 21
3726.516255174208
 31
0.0
  0
LINE
  5
3DC
330
1F
100
AcDbEntity
  8
付属金具
  6
CONTINUOUS
 62
     6
100
AcDbLine
 10
1166.226749482133
 20
3726.527478954914
 30
0.0
 11
1166.477238425544
 21
3726.53192753515
 31
0.0
  0
LINE
  5
3DD
330
1F
100
AcDbEntity
  8
付属金具
  6
CONTINUOUS
 62
     6
100
AcDbLine
 10
1166.099269539159
 20
3726.501376762237
 30
0.0
 11
1166.226749482133
 21
3726.527478954914
 31
0.0
  0
LINE
  5
3DE
330
1F
100
AcDbEntity
  8
付属金具
  6
CONTINUOUS
 62
     6
100
AcDbLine
 10
1165.972383709765
 20
3726.458439311784
 30
0.0
 11
1166.099269539159
 21
3726.501376762237
 31
0.0
  0
LINE
  5
3DF
330
1F
100
AcDbEntity
  8
付属金具
  6
CONTINUOUS
 62
     6
100
AcDbLine
 10
1165.740583484968
 20
3726.337972585541
 30
0.0
 11
1165.972383709765
 21
3726.458439311784
 31
0.0
  0
LINE
  5
3E0
330
1F
100
AcDbEntity
  8
付属金具
  6
CONTINUOUS
 62
     6
100
AcDbLine
 10
1165.55142870384
 20
3726.17365345255
 30
0.0
 11
1165.740583484968
 21
3726.337972585541
 31
0.0
  0
LINE
  5
3E1
330
1F
100
AcDbEntity
  8
付属金具
  6
CONTINUOUS
 62
     6
100
AcDbLine
 10
1165.40712647222
 20
3725.974862949243
 30
0.0
 11
1165.55142870384
 21
3726.17365345255
 31
0.0
  0
LINE
  5
3E2
330
1F
100
AcDbEntity
  8
付属金具
  6
CONTINUOUS
 62
     6
100
AcDbLine
 10
1165.304592116323
 20
3725.749200138733
 30
0.0
 11
1165.40712647222
 21
3725.974862949243
 31
0.0
  0
LINE
  5
3E3
330
1F
100
AcDbEntity
  8
付属金具
  6
CONTINUOUS
 62
     6
100
AcDbLine
 10
1165.246943104956
 20
3725.503506485903
 30
0.0
 11
1165.304592116323
 21
3725.749200138733
 31
0.0
  0
LINE
  5
3E4
330
1F
100
AcDbEntity
  8
付属金具
  6
CONTINUOUS
 62
     6
100
AcDbLine
 10
1165.231424996775
 20
3725.245383142943
 30
0.0
 11
1165.246943104956
 21
3725.503506485903
 31
0.0
  0
LINE
  5
3E5
330
1F
100
AcDbEntity
  8
付属金具
  6
CONTINUOUS
 62
     6
100
AcDbLine
 10
1166.896235009707
 20
3727.239999446654
 30
0.0
 11
1164.757864067205
 21
3726.419155748263
 31
0.0
  0
LINE
  5
3E6
330
1F
100
AcDbEntity
  8
付属金具
  6
CONTINUOUS
 62
     6
100
AcDbLine
 10
1164.757864067205
 20
3726.419155748263
 30
0.0
 11
1164.546906232753
 21
3726.968719695905
 31
0.0
  0
LINE
  5
3E7
330
1F
100
AcDbEntity
  8
付属金具
  6
CONTINUOUS
 62
     6
100
AcDbLine
 10
1164.546906232753
 20
3726.968719695905
 30
0.0
 11
1165.463764164997
 21
3727.32066848133
 31
0.0
  0
LINE
  5
3E8
330
1F
100
AcDbEntity
  8
付属金具
  6
CONTINUOUS
 62
     6
100
AcDbLine
 10
1165.463764164997
 20
3727.32066848133
 30
0.0
 11
1165.077270633242
 21
3728.327518554482
 31
0.0
  0
LINE
  5
3E9
330
1F
100
AcDbEntity
  8
付属金具
  6
CONTINUOUS
 62
     6
100
AcDbLine
 10
1165.077270633242
 20
3728.327518554482
 30
0.0
 11
1164.160412700997
 21
3727.975569769057
 31
0.0
  0
LINE
  5
3EA
330
1F
100
AcDbEntity
  8
付属金具
  6
CONTINUOUS
 62
     6
100
AcDbLine
 10
1164.160412700997
 20
3727.975569769057
 30
0.0
 11
1163.9494534282
 21
3728.525137463717
 31
0.0
  0
LINE
  5
3EB
330
1F
100
AcDbEntity
  8
付属金具
  6
CONTINUOUS
 62
     6
100
AcDbLine
 10
1163.9494534282
 20
3728.525137463717
 30
0.0
 11
1166.087824370702
 21
3729.345981162108
 31
0.0
  0
LINE
  5
3EC
330
1F
100
AcDbEntity
  8
付属金具
  6
CONTINUOUS
 62
     6
100
AcDbLine
 10
1166.087824370702
 20
3729.345981162108
 30
0.0
 11
1166.298783643499
 21
3728.796413467448
 31
0.0
  0
LINE
  5
3ED
330
1F
100
AcDbEntity
  8
付属金具
  6
CONTINUOUS
 62
     6
100
AcDbLine
 10
1166.298783643499
 20
3728.796413467448
 30
0.0
 11
1165.529378379323
 21
3728.501066458164
 31
0.0
  0
LINE
  5
3EE
330
1F
100
AcDbEntity
  8
付属金具
  6
CONTINUOUS
 62
     6
100
AcDbLine
 10
1165.529378379323
 20
3728.501066458164
 30
0.0
 11
1165.915871911079
 21
3727.494216385012
 31
0.0
  0
LINE
  5
3EF
330
1F
100
AcDbEntity
  8
付属金具
  6
CONTINUOUS
 62
     6
100
AcDbLine
 10
1165.915871911079
 20
3727.494216385012
 30
0.0
 11
1166.685277175255
 21
3727.789563394296
 31
0.0
  0
LINE
  5
3F0
330
1F
100
AcDbEntity
  8
付属金具
  6
CONTINUOUS
 62
     6
100
AcDbLine
 10
1166.685277175255
 20
3727.789563394296
 30
0.0
 11
1166.896235009707
 21
3727.239999446654
 31
0.0
  0
LINE
  5
3F1
330
1F
100
AcDbEntity
  8
付属金具
  6
CONTINUOUS
 62
     6
100
AcDbLine
 10
1165.85965960781
 20
3729.940370690867
 30
0.0
 11
1163.721288665308
 21
3729.119526992476
 31
0.0
  0
LINE
  5
3F2
330
1F
100
AcDbEntity
  8
付属金具
  6
CONTINUOUS
 62
     6
100
AcDbLine
 10
1163.721288665308
 20
3729.119526992476
 30
0.0
 11
1163.105619213701
 21
3730.723400748321
 31
0.0
  0
LINE
  5
3F3
330
1F
100
AcDbEntity
  8
付属金具
  6
CONTINUOUS
 62
     6
100
AcDbLine
 10
1163.105619213701
 20
3730.723400748321
 30
0.0
 11
1163.55775693593
 21
3730.896960158768
 31
0.0
  0
LINE
  5
3F4
330
1F
100
AcDbEntity
  8
付属金具
  6
CONTINUOUS
 62
     6
100
AcDbLine
 10
1163.55775693593
 20
3730.896960158768
 30
0.0
 11
1163.961458834472
 21
3729.84528075748
 31
0.0
  0
LINE
  5
3F5
330
1F
100
AcDbEntity
  8
付属金具
  6
CONTINUOUS
 62
     6
100
AcDbLine
 10
1163.961458834472
 20
3729.84528075748
 30
0.0
 11
1164.426179044488
 21
3730.02367013246
 31
0.0
  0
LINE
  5
3F6
330
1F
100
AcDbEntity
  8
付属金具
  6
CONTINUOUS
 62
     6
100
AcDbLine
 10
1164.426179044488
 20
3730.02367013246
 30
0.0
 11
1164.123172844871
 21
3730.813028269614
 31
0.0
  0
LINE
  5
3F7
330
1F
100
AcDbEntity
  8
付属金具
  6
CONTINUOUS
 62
     6
100
AcDbLine
 10
1164.123172844871
 20
3730.813028269614
 30
0.0
 11
1164.575280590953
 21
3730.986576173296
 31
0.0
  0
LINE
  5
3F8
330
1F
100
AcDbEntity
  8
付属金具
  6
CONTINUOUS
 62
     6
100
AcDbLine
 10
1164.575280590953
 20
3730.986576173296
 30
0.0
 11
1164.878286790569
 21
3730.197218036141
 31
0.0
  0
LINE
  5
3F9
330
1F
100
AcDbEntity
  8
付属金具
  6
CONTINUOUS
 62
     6
100
AcDbLine
 10
1164.878286790569
 20
3730.197218036141
 30
0.0
 11
1165.230543990333
 21
3730.332436906213
 31
0.0
  0
LINE
  5
3FA
330
1F
100
AcDbEntity
  8
付属金具
  6
CONTINUOUS
 62
     6
100
AcDbLine
 10
1165.230543990333
 20
3730.332436906213
 30
0.0
 11
1164.873809829089
 21
3731.261761168674
 31
0.0
  0
LINE
  5
3FB
330
1F
100
AcDbEntity
  8
付属金具
  6
CONTINUOUS
 62
     6
100
AcDbLine
 10
1164.873809829089
 20
3731.261761168674
 30
0.0
 11
1165.290957893501
 21
3731.421889307886
 31
0.0
  0
LINE
  5
3FC
330
1F
100
AcDbEntity
  8
付属金具
  6
CONTINUOUS
 62
     6
100
AcDbLine
 10
1165.290957893501
 20
3731.421889307886
 30
0.0
 11
1165.85965960781
 21
3729.940370690867
 31
0.0
  0
LINE
  5
3FD
330
1F
100
AcDbEntity
  8
付属金具
  6
CONTINUOUS
 62
     6
100
AcDbLine
 10
1167.573798868028
 20
3722.286610194956
 30
0.0
 11
1166.197176237745
 21
3722.669619352109
 31
0.0
  0
LINE
  5
3FE
330
1F
100
AcDbEntity
  8
付属金具
  6
CONTINUOUS
 62
     6
100
AcDbLine
 10
1166.197176237745
 20
3722.669619352109
 30
0.0
 11
1165.918137190899
 21
3723.396540921668
 31
0.0
  0
LINE
  5
3FF
330
1F
100
AcDbEntity
  8
付属金具
  6
CONTINUOUS
 62
     6
100
AcDbLine
 10
1165.918137190899
 20
3723.396540921668
 30
0.0
 11
1167.055239108453
 21
3723.010413064709
 31
0.0
  0
LINE
  5
400
330
1F
100
AcDbEntity
  8
付属金具
  6
CONTINUOUS
 62
     6
100
AcDbLine
 10
1167.055239108453
 20
3723.010413064709
 30
0.0
 11
1167.087437799148
 21
3723.217735026126
 31
0.0
  0
LINE
  5
401
330
1F
100
AcDbEntity
  8
付属金具
  6
CONTINUOUS
 62
     6
100
AcDbLine
 10
1167.087437799148
 20
3723.217735026126
 30
0.0
 11
1167.167883675517
 21
3723.388999668814
 31
0.0
  0
LINE
  5
402
330
1F
100
AcDbEntity
  8
付属金具
  6
CONTINUOUS
 62
     6
100
AcDbLine
 10
1167.167883675517
 20
3723.388999668814
 30
0.0
 11
1167.300443703738
 21
3723.528838358015
 31
0.0
  0
LINE
  5
403
330
1F
100
AcDbEntity
  8
付属金具
  6
CONTINUOUS
 62
     6
100
AcDbLine
 10
1167.300443703738
 20
3723.528838358015
 30
0.0
 11
1167.477797767518
 21
3723.634178916353
 31
0.0
  0
LINE
  5
404
330
1F
100
AcDbEntity
  8
付属金具
  6
CONTINUOUS
 62
     6
100
AcDbLine
 10
1167.477797767518
 20
3723.634178916353
 30
0.0
 11
1167.623174970213
 21
3723.681325512823
 31
0.0
  0
LINE
  5
405
330
1F
100
AcDbEntity
  8
付属金具
  6
CONTINUOUS
 62
     6
100
AcDbLine
 10
1167.623174970213
 20
3723.681325512823
 30
0.0
 11
1167.769947851227
 21
3723.694765149796
 31
0.0
  0
LINE
  5
406
330
1F
100
AcDbEntity
  8
付属金具
  6
CONTINUOUS
 62
     6
100
AcDbLine
 10
1167.769947851227
 20
3723.694765149796
 30
0.0
 11
1167.914761865073
 21
3723.675699344336
 31
0.0
  0
LINE
  5
407
330
1F
100
AcDbEntity
  8
付属金具
  6
CONTINUOUS
 62
     6
100
AcDbLine
 10
1167.914761865073
 20
3723.675699344336
 30
0.0
 11
1168.053183431838
 21
3723.628599780445
 31
0.0
  0
LINE
  5
408
330
1F
100
AcDbEntity
  8
付属金具
  6
CONTINUOUS
 62
     6
100
AcDbLine
 10
1168.053183431838
 20
3723.628599780445
 30
0.0
 11
1168.180943401226
 21
3723.557330593723
 31
0.0
  0
LINE
  5
409
330
1F
100
AcDbEntity
  8
付属金具
  6
CONTINUOUS
 62
     6
100
AcDbLine
 10
1168.180943401226
 20
3723.557330593723
 30
0.0
 11
1168.291883770659
 21
3723.462288001177
 31
0.0
  0
LINE
  5
40A
330
1F
100
AcDbEntity
  8
付属金具
  6
CONTINUOUS
 62
     6
100
AcDbLine
 10
1168.291883770659
 20
3723.462288001177
 30
0.0
 11
1168.38174026338
 21
3723.347737829906
 31
0.0
  0
LINE
  5
40B
330
1F
100
AcDbEntity
  8
付属金具
  6
CONTINUOUS
 62
     6
100
AcDbLine
 10
1168.38174026338
 20
3723.347737829906
 30
0.0
 11
1168.443879055975
 21
3723.208248865683
 31
0.0
  0
LINE
  5
40C
330
1F
100
AcDbEntity
  8
付属金具
  6
CONTINUOUS
 62
     6
100
AcDbLine
 10
1168.443879055975
 20
3723.208248865683
 30
0.0
 11
1168.881159132602
 21
3722.069095319853
 31
0.0
  0
LINE
  5
40D
330
1F
100
AcDbEntity
  8
付属金具
  6
CONTINUOUS
 62
     6
100
AcDbLine
 10
1168.881159132602
 20
3722.069095319853
 30
0.0
 11
1166.7427881901
 21
3721.248251621462
 31
0.0
  0
LINE
  5
40E
330
1F
100
AcDbEntity
  8
付属金具
  6
CONTINUOUS
 62
     6
100
AcDbLine
 10
1166.7427881901
 20
3721.248251621462
 30
0.0
 11
1166.529898657504
 21
3721.802847814814
 31
0.0
  0
LINE
  5
40F
330
1F
100
AcDbEntity
  8
付属金具
  6
CONTINUOUS
 62
     6
100
AcDbLine
 10
1166.529898657504
 20
3721.802847814814
 30
0.0
 11
1168.251121535595
 21
3722.463563373993
 31
0.0
  0
LINE
  5
410
330
1F
100
AcDbEntity
  8
付属金具
  6
CONTINUOUS
 62
     6
100
AcDbLine
 10
1168.251121535595
 20
3722.463563373993
 30
0.0
 11
1168.101527839573
 21
3722.853268275645
 31
0.0
  0
LINE
  5
411
330
1F
100
AcDbEntity
  8
付属金具
  6
CONTINUOUS
 62
     6
100
AcDbLine
 10
1168.101527839573
 20
3722.853268275645
 30
0.0
 11
1168.02106335863
 21
3722.965649947299
 31
0.0
  0
LINE
  5
412
330
1F
100
AcDbEntity
  8
付属金具
  6
CONTINUOUS
 62
     6
100
AcDbLine
 10
1168.02106335863
 20
3722.965649947299
 30
0.0
 11
1167.911310009325
 21
3723.035301719132
 31
0.0
  0
LINE
  5
413
330
1F
100
AcDbEntity
  8
付属金具
  6
CONTINUOUS
 62
     6
100
AcDbLine
 10
1167.911310009325
 20
3723.035301719132
 30
0.0
 11
1167.783919255531
 21
3723.060922413924
 31
0.0
  0
LINE
  5
414
330
1F
100
AcDbEntity
  8
付属金具
  6
CONTINUOUS
 62
     6
100
AcDbLine
 10
1167.783919255531
 20
3723.060922413924
 30
0.0
 11
1167.648849667131
 21
3723.032035803757
 31
0.0
  0
LINE
  5
415
330
1F
100
AcDbEntity
  8
付属金具
  6
CONTINUOUS
 62
     6
100
AcDbLine
 10
1167.648849667131
 20
3723.032035803757
 30
0.0
 11
1167.541580840524
 21
3722.967897412096
 31
0.0
  0
LINE
  5
416
330
1F
100
AcDbEntity
  8
付属金具
  6
CONTINUOUS
 62
     6
100
AcDbLine
 10
1167.541580840524
 20
3722.967897412096
 30
0.0
 11
1167.467158946656
 21
3722.870581855205
 31
0.0
  0
LINE
  5
417
330
1F
100
AcDbEntity
  8
付属金具
  6
CONTINUOUS
 62
     6
100
AcDbLine
 10
1167.467158946656
 20
3722.870581855205
 30
0.0
 11
1167.434266294173
 21
3722.754698623129
 31
0.0
  0
LINE
  5
418
330
1F
100
AcDbEntity
  8
付属金具
  6
CONTINUOUS
 62
     6
100
AcDbLine
 10
1167.434266294173
 20
3722.754698623129
 30
0.0
 11
1167.442377230347
 21
3722.628975266145
 31
0.0
  0
LINE
  5
419
330
1F
100
AcDbEntity
  8
付属金具
  6
CONTINUOUS
 62
     6
100
AcDbLine
 10
1167.442377230347
 20
3722.628975266145
 30
0.0
 11
1167.573798868028
 21
3722.286610194956
 31
0.0
  0
LINE
  5
41A
330
1F
100
AcDbEntity
  8
付属金具
  6
CONTINUOUS
 62
     6
100
AcDbLine
 10
1167.572406394172
 20
3720.274130511496
 30
0.0
 11
1167.591384390982
 21
3720.381654406122
 31
0.0
  0
LINE
  5
41B
330
1F
100
AcDbEntity
  8
付属金具
  6
CONTINUOUS
 62
     6
100
AcDbLine
 10
1167.591384390982
 20
3720.381654406122
 30
0.0
 11
1168.213389445347
 21
3720.620419776103
 31
0.0
  0
LINE
  5
41C
330
1F
100
AcDbEntity
  8
付属金具
  6
CONTINUOUS
 62
     6
100
AcDbLine
 10
1168.213389445347
 20
3720.620419776103
 30
0.0
 11
1167.998568214607
 21
3721.180048215167
 31
0.0
  0
LINE
  5
41D
330
1F
100
AcDbEntity
  8
付属金具
  6
CONTINUOUS
 62
     6
100
AcDbLine
 10
1167.998568214607
 20
3721.180048215167
 30
0.0
 11
1167.166760106001
 21
3720.860746998222
 31
0.0
  0
LINE
  5
41E
330
1F
100
AcDbEntity
  8
付属金具
  6
CONTINUOUS
 62
     6
100
AcDbLine
 10
1167.166760106001
 20
3720.860746998222
 30
0.0
 11
1167.121403492592
 21
3720.568079004774
 31
0.0
  0
LINE
  5
41F
330
1F
100
AcDbEntity
  8
付属金具
  6
CONTINUOUS
 62
     6
100
AcDbLine
 10
1167.121403492592
 20
3720.568079004774
 30
0.0
 11
1167.136372700582
 21
3720.290171689386
 31
0.0
  0
LINE
  5
420
330
1F
100
AcDbEntity
  8
付属金具
  6
CONTINUOUS
 62
     6
100
AcDbLine
 10
1167.136372700582
 20
3720.290171689386
 30
0.0
 11
1167.188423953001
 21
3720.035028345932
 31
0.0
  0
LINE
  5
421
330
1F
100
AcDbEntity
  8
付属金具
  6
CONTINUOUS
 62
     6
100
AcDbLine
 10
1167.188423953001
 20
3720.035028345932
 30
0.0
 11
1167.255426055532
 21
3719.808448270454
 31
0.0
  0
LINE
  5
422
330
1F
100
AcDbEntity
  8
付属金具
  6
CONTINUOUS
 62
     6
100
AcDbLine
 10
1167.255426055532
 20
3719.808448270454
 30
0.0
 11
1167.366477457789
 21
3719.541448004377
 31
0.0
  0
LINE
  5
423
330
1F
100
AcDbEntity
  8
付属金具
  6
CONTINUOUS
 62
     6
100
AcDbLine
 10
1167.366477457789
 20
3719.541448004377
 30
0.0
 11
1167.512814984705
 21
3719.316852989972
 31
0.0
  0
LINE
  5
424
330
1F
100
AcDbEntity
  8
付属金具
  6
CONTINUOUS
 62
     6
100
AcDbLine
 10
1167.512814984705
 20
3719.316852989972
 30
0.0
 11
1167.691227347819
 21
3719.135928333817
 31
0.0
  0
LINE
  5
425
330
1F
100
AcDbEntity
  8
付属金具
  6
CONTINUOUS
 62
     6
100
AcDbLine
 10
1167.691227347819
 20
3719.135928333817
 30
0.0
 11
1167.895571788818
 21
3718.99946732707
 31
0.0
  0
LINE
  5
426
330
1F
100
AcDbEntity
  8
付属金具
  6
CONTINUOUS
 62
     6
100
AcDbLine
 10
1167.895571788818
 20
3718.99946732707
 30
0.0
 11
1168.120441664663
 21
3718.913782190784
 31
0.0
  0
LINE
  5
427
330
1F
100
AcDbEntity
  8
付属金具
  6
CONTINUOUS
 62
     6
100
AcDbLine
 10
1168.120441664663
 20
3718.913782190784
 30
0.0
 11
1168.239376998777
 21
3718.887800492479
 31
0.0
  0
LINE
  5
428
330
1F
100
AcDbEntity
  8
付属金具
  6
CONTINUOUS
 62
     6
100
AcDbLine
 10
1168.239376998777
 20
3718.887800492479
 30
0.0
 11
1168.358443045212
 21
3718.876172233819
 31
0.0
  0
LINE
  5
429
330
1F
100
AcDbEntity
  8
付属金具
  6
CONTINUOUS
 62
     6
100
AcDbLine
 10
1168.358443045212
 20
3718.876172233819
 30
0.0
 11
1168.481266755278
 21
3718.877400643819
 31
0.0
  0
LINE
  5
42A
330
1F
100
AcDbEntity
  8
付属金具
  6
CONTINUOUS
 62
     6
100
AcDbLine
 10
1168.481266755278
 20
3718.877400643819
 30
0.0
 11
1168.602656575324
 21
3718.889621846173
 31
0.0
  0
LINE
  5
42B
330
1F
100
AcDbEntity
  8
付属金具
  6
CONTINUOUS
 62
     6
100
AcDbLine
 10
1168.602656575324
 20
3718.889621846173
 30
0.0
 11
1168.852014892766
 21
3718.956743606597
 31
0.0
  0
LINE
  5
42C
330
1F
100
AcDbEntity
  8
付属金具
  6
CONTINUOUS
 62
     6
100
AcDbLine
 10
1168.852014892766
 20
3718.956743606597
 30
0.0
 11
1168.97154776841
 21
3719.011153188145
 31
0.0
  0
LINE
  5
42D
330
1F
100
AcDbEntity
  8
付属金具
  6
CONTINUOUS
 62
     6
100
AcDbLine
 10
1168.97154776841
 20
3719.011153188145
 30
0.0
 11
1169.078816595017
 21
3719.075291579806
 31
0.0
  0
LINE
  5
42E
330
1F
100
AcDbEntity
  8
付属金具
  6
CONTINUOUS
 62
     6
100
AcDbLine
 10
1169.078816595017
 20
3719.075291579806
 30
0.0
 11
1169.176239262293
 21
3719.149949349755
 31
0.0
  0
LINE
  5
42F
330
1F
100
AcDbEntity
  8
付属金具
  6
CONTINUOUS
 62
     6
100
AcDbLine
 10
1169.176239262293
 20
3719.149949349755
 30
0.0
 11
1169.263905698678
 21
3719.235161018288
 31
0.0
  0
LINE
  5
430
330
1F
100
AcDbEntity
  8
付属金具
  6
CONTINUOUS
 62
     6
100
AcDbLine
 10
1169.263905698678
 20
3719.235161018288
 30
0.0
 11
1169.342762674489
 21
3719.328538562048
 31
0.0
  0
LINE
  5
431
330
1F
100
AcDbEntity
  8
付属金具
  6
CONTINUOUS
 62
     6
100
AcDbLine
 10
1169.342762674489
 20
3719.328538562048
 30
0.0
 11
1169.407796303597
 21
3719.428024056901
 31
0.0
  0
LINE
  5
432
330
1F
100
AcDbEntity
  8
付属金具
  6
CONTINUOUS
 62
     6
100
AcDbLine
 10
1169.407796303597
 20
3719.428024056901
 30
0.0
 11
1169.463892697998
 21
3719.535493105513
 31
0.0
  0
LINE
  5
433
330
1F
100
AcDbEntity
  8
付属金具
  6
CONTINUOUS
 62
     6
100
AcDbLine
 10
1169.463892697998
 20
3719.535493105513
 30
0.0
 11
1169.509714385126
 21
3719.647676546691
 31
0.0
  0
LINE
  5
434
330
1F
100
AcDbEntity
  8
付属金具
  6
CONTINUOUS
 62
     6
100
AcDbLine
 10
1169.509714385126
 20
3719.647676546691
 30
0.0
 11
1169.569224276794
 21
3719.888444042962
 31
0.0
  0
LINE
  5
435
330
1F
100
AcDbEntity
  8
付属金具
  6
CONTINUOUS
 62
     6
100
AcDbLine
 10
1169.569224276794
 20
3719.888444042962
 30
0.0
 11
1169.582563816939
 21
3720.137201603272
 31
0.0
  0
LINE
  5
436
330
1F
100
AcDbEntity
  8
付属金具
  6
CONTINUOUS
 62
     6
100
AcDbLine
 10
1169.582563816939
 20
3720.137201603272
 30
0.0
 11
1169.573469391281
 21
3720.265565435593
 31
0.0
  0
LINE
  5
437
330
1F
100
AcDbEntity
  8
付属金具
  6
CONTINUOUS
 62
     6
100
AcDbLine
 10
1169.573469391281
 20
3720.265565435593
 30
0.0
 11
1169.55338849467
 21
3720.39246771042
 31
0.0
  0
LINE
  5
438
330
1F
100
AcDbEntity
  8
付属金具
  6
CONTINUOUS
 62
     6
100
AcDbLine
 10
1169.55338849467
 20
3720.39246771042
 30
0.0
 11
1169.518913316718
 21
3720.519618293485
 31
0.0
  0
LINE
  5
439
330
1F
100
AcDbEntity
  8
付属金具
  6
CONTINUOUS
 62
     6
100
AcDbLine
 10
1169.518913316718
 20
3720.519618293485
 30
0.0
 11
1169.474448963219
 21
3720.643067664892
 31
0.0
  0
LINE
  5
43A
330
1F
100
AcDbEntity
  8
付属金具
  6
CONTINUOUS
 62
     6
100
AcDbLine
 10
1169.474448963219
 20
3720.643067664892
 30
0.0
 11
1169.36857494268
 21
3720.888964620134
 31
0.0
  0
LINE
  5
43B
330
1F
100
AcDbEntity
  8
付属金具
  6
CONTINUOUS
 62
     6
100
AcDbLine
 10
1169.36857494268
 20
3720.888964620134
 30
0.0
 11
1169.254178242756
 21
3721.09734731507
 31
0.0
  0
LINE
  5
43C
330
1F
100
AcDbEntity
  8
付属金具
  6
CONTINUOUS
 62
     6
100
AcDbLine
 10
1169.254178242756
 20
3721.09734731507
 30
0.0
 11
1169.188941022386
 21
3721.192616736512
 31
0.0
  0
LINE
  5
43D
330
1F
100
AcDbEntity
  8
付属金具
  6
CONTINUOUS
 62
     6
100
AcDbLine
 10
1169.188941022386
 20
3721.192616736512
 30
0.0
 11
1169.111194321431
 21
3721.283213192687
 31
0.0
  0
LINE
  5
43E
330
1F
100
AcDbEntity
  8
付属金具
  6
CONTINUOUS
 62
     6
100
AcDbLine
 10
1169.111194321431
 20
3721.283213192687
 30
0.0
 11
1169.02003682862
 21
3721.371417481764
 31
0.0
  0
LINE
  5
43F
330
1F
100
AcDbEntity
  8
付属金具
  6
CONTINUOUS
 62
     6
100
AcDbLine
 10
1169.02003682862
 20
3721.371417481764
 30
0.0
 11
1168.912873674052
 21
3721.45636250094
 31
0.0
  0
LINE
  5
440
330
1F
100
AcDbEntity
  8
付属金具
  6
CONTINUOUS
 62
     6
100
AcDbLine
 10
1168.912873674052
 20
3721.45636250094
 30
0.0
 11
1168.500641697781
 21
3721.298121471158
 31
0.0
  0
LINE
  5
441
330
1F
100
AcDbEntity
  8
付属金具
  6
CONTINUOUS
 62
     6
100
AcDbLine
 10
1168.500641697781
 20
3721.298121471158
 30
0.0
 11
1168.562171271664
 21
3721.250108065244
 31
0.0
  0
LINE
  5
442
330
1F
100
AcDbEntity
  8
付属金具
  6
CONTINUOUS
 62
     6
100
AcDbLine
 10
1168.562171271664
 20
3721.250108065244
 30
0.0
 11
1168.709745096589
 21
3721.111923281487
 31
0.0
  0
LINE
  5
443
330
1F
100
AcDbEntity
  8
付属金具
  6
CONTINUOUS
 62
     6
100
AcDbLine
 10
1168.709745096589
 20
3721.111923281487
 30
0.0
 11
1168.798887076322
 21
3721.014286826268
 31
0.0
  0
LINE
  5
444
330
1F
100
AcDbEntity
  8
付属金具
  6
CONTINUOUS
 62
     6
100
AcDbLine
 10
1168.798887076322
 20
3721.014286826268
 30
0.0
 11
1168.8855868162
 21
3720.892751135959
 31
0.0
  0
LINE
  5
445
330
1F
100
AcDbEntity
  8
付属金具
  6
CONTINUOUS
 62
     6
100
AcDbLine
 10
1168.8855868162
 20
3720.892751135959
 30
0.0
 11
1168.966159338474
 21
3720.757453489588
 31
0.0
  0
LINE
  5
446
330
1F
100
AcDbEntity
  8
付属金具
  6
CONTINUOUS
 62
     6
100
AcDbLine
 10
1168.966159338474
 20
3720.757453489588
 30
0.0
 11
1169.034132509537
 21
3720.603011842387
 31
0.0
  0
LINE
  5
447
330
1F
100
AcDbEntity
  8
付属金具
  6
CONTINUOUS
 62
     6
100
AcDbLine
 10
1169.034132509537
 20
3720.603011842387
 30
0.0
 11
1169.076641055555
 21
3720.447329049347
 31
0.0
  0
LINE
  5
448
330
1F
100
AcDbEntity
  8
付属金具
  6
CONTINUOUS
 62
     6
100
AcDbLine
 10
1169.076641055555
 20
3720.447329049347
 30
0.0
 11
1169.091385250757
 21
3720.289642704582
 31
0.0
  0
LINE
  5
449
330
1F
100
AcDbEntity
  8
付属金具
  6
CONTINUOUS
 62
     6
100
AcDbLine
 10
1169.091385250757
 20
3720.289642704582
 30
0.0
 11
1169.078700837949
 21
3720.135730767559
 31
0.0
  0
LINE
  5
44A
330
1F
100
AcDbEntity
  8
付属金具
  6
CONTINUOUS
 62
     6
100
AcDbLine
 10
1169.078700837949
 20
3720.135730767559
 30
0.0
 11
1169.036384570314
 21
3719.984747491063
 31
0.0
  0
LINE
  5
44B
330
1F
100
AcDbEntity
  8
付属金具
  6
CONTINUOUS
 62
     6
100
AcDbLine
 10
1169.036384570314
 20
3719.984747491063
 30
0.0
 11
1168.970389369444
 21
3719.850516899613
 31
0.0
  0
LINE
  5
44C
330
1F
100
AcDbEntity
  8
付属金具
  6
CONTINUOUS
 62
     6
100
AcDbLine
 10
1168.970389369444
 20
3719.850516899613
 30
0.0
 11
1168.879187159656
 21
3719.729571991053
 31
0.0
  0
LINE
  5
44D
330
1F
100
AcDbEntity
  8
付属金具
  6
CONTINUOUS
 62
     6
100
AcDbLine
 10
1168.879187159656
 20
3719.729571991053
 30
0.0
 11
1168.762573029776
 21
3719.630230342513
 31
0.0
  0
LINE
  5
44E
330
1F
100
AcDbEntity
  8
付属金具
  6
CONTINUOUS
 62
     6
100
AcDbLine
 10
1168.762573029776
 20
3719.630230342513
 30
0.0
 11
1168.622840411261
 21
3719.553763542272
 31
0.0
  0
LINE
  5
44F
330
1F
100
AcDbEntity
  8
付属金具
  6
CONTINUOUS
 62
     6
100
AcDbLine
 10
1168.622840411261
 20
3719.553763542272
 30
0.0
 11
1168.479072280307
 21
3719.510119338577
 31
0.0
  0
LINE
  5
450
330
1F
100
AcDbEntity
  8
付属金具
  6
CONTINUOUS
 62
     6
100
AcDbLine
 10
1168.479072280307
 20
3719.510119338577
 30
0.0
 11
1168.333707060183
 21
3719.48567684083
 31
0.0
  0
LINE
  5
451
330
1F
100
AcDbEntity
  8
付属金具
  6
CONTINUOUS
 62
     6
100
AcDbLine
 10
1168.333707060183
 20
3719.48567684083
 30
0.0
 11
1168.190604103718
 21
3719.485322440638
 31
0.0
  0
LINE
  5
452
330
1F
100
AcDbEntity
  8
付属金具
  6
CONTINUOUS
 62
     6
100
AcDbLine
 10
1168.190604103718
 20
3719.485322440638
 30
0.0
 11
1168.052256855119
 21
3719.509493084702
 31
0.0
  0
LINE
  5
453
330
1F
100
AcDbEntity
  8
付属金具
  6
CONTINUOUS
 62
     6
100
AcDbLine
 10
1168.052256855119
 20
3719.509493084702
 30
0.0
 11
1167.926809604912
 21
3719.567480050829
 31
0.0
  0
LINE
  5
454
330
1F
100
AcDbEntity
  8
付属金具
  6
CONTINUOUS
 62
     6
100
AcDbLine
 10
1167.926809604912
 20
3719.567480050829
 30
0.0
 11
1167.814730362204
 21
3719.650537960574
 31
0.0
  0
LINE
  5
455
330
1F
100
AcDbEntity
  8
付属金具
  6
CONTINUOUS
 62
     6
100
AcDbLine
 10
1167.814730362204
 20
3719.650537960574
 30
0.0
 11
1167.720497301489
 21
3719.769052905523
 31
0.0
  0
LINE
  5
456
330
1F
100
AcDbEntity
  8
付属金具
  6
CONTINUOUS
 62
     6
100
AcDbLine
 10
1167.720497301489
 20
3719.769052905523
 30
0.0
 11
1167.647562583245
 21
3719.921714668482
 31
0.0
  0
LINE
  5
457
330
1F
100
AcDbEntity
  8
付属金具
  6
CONTINUOUS
 62
     6
100
AcDbLine
 10
1167.647562583245
 20
3719.921714668482
 30
0.0
 11
1167.570360527184
 21
3720.19016527001
 31
0.0
  0
LINE
  5
458
330
1F
100
AcDbEntity
  8
付属金具
  6
CONTINUOUS
 62
     6
100
AcDbLine
 10
1167.570360527184
 20
3720.19016527001
 30
0.0
 11
1167.572406394172
 21
3720.274130511496
 31
0.0
  0
LINE
  5
459
330
1F
100
AcDbEntity
  8
付属金具
  6
CONTINUOUS
 62
     2
100
AcDbLine
 10
1141.787773423036
 20
1676.680191585164
 30
0.0
 11
1141.944821158197
 21
1672.182932863578
 31
0.0
  0
ARC
  5
45A
330
1F
100
AcDbEntity
  8
付属金具
  6
CONTINUOUS
 62
     6
100
AcDbCircle
 10
1072.460564348367
 20
1745.703153681397
 30
0.0
 40
21.1632472224
100
AcDbArc
 50
51.57827500000038
 51
79.46529600000001
  0
POLYLINE
  5
45B
330
1F
100
AcDbEntity
  8
付属金具
  6
CONTINUOUS
 62
     6
100
AcDb2dPolyline
 66
     1
 10
0.0
 20
0.0
 30
0.0
 70
   128
  0
VERTEX
  5
45C
330
45B
100
AcDbEntity
  8
付属金具
  6
CONTINUOUS
 62
     6
100
AcDbVertex
100
AcDb2dVertex
 10
1076.329863993246
 20
1766.509670993368
 30
0.0
  0
VERTEX
  5
45D
330
45B
100
AcDbEntity
  8
付属金具
  6
CONTINUOUS
 62
     6
100
AcDbVertex
100
AcDb2dVertex
 10
1071.007732148061
 20
1767.257050867813
 30
0.0
  0
VERTEX
  5
45E
330
45B
100
AcDbEntity
  8
付属金具
  6
CONTINUOUS
 62
     6
100
AcDbVertex
100
AcDb2dVertex
 10
1061.809584652902
 20
1768.473668992526
 30
0.0
  0
VERTEX
  5
45F
330
45B
100
AcDbEntity
  8
付属金具
  6
CONTINUOUS
 62
     6
100
AcDbVertex
100
AcDb2dVertex
 10
1061.777226906283
 20
1768.479892416196
 30
0.0
  0
SEQEND
  5
460
330
45B
100
AcDbEntity
  8
付属金具
  6
CONTINUOUS
 62
     6
  0
ARC
  5
461
330
1F
100
AcDbEntity
  8
付属金具
  6
CONTINUOUS
 62
     6
100
AcDbCircle
 10
1054.244929213557
 20
1780.21891405251
 30
0.0
 40
0.4822460808
100
AcDbArc
 50
92.02718200000541
 51
183.6100750000146
  0
ARC
  5
462
330
1F
100
AcDbEntity
  8
付属金具
  6
CONTINUOUS
 62
     6
100
AcDbCircle
 10
1075.443423441672
 20
1786.432097298481
 30
0.0
 40
22.5620670944
100
AcDbArc
 50
196.0806189999998
 51
232.7195640000002
  0
LINE
  5
463
330
1F
100
AcDbEntity
  8
付属金具
  6
CONTINUOUS
 62
     6
100
AcDbLine
 10
1062.499627822695
 20
1766.644348338339
 30
0.0
 11
1061.736177506505
 21
1766.892409740451
 31
0.0
  0
LINE
  5
464
330
1F
100
AcDbEntity
  8
付属金具
  6
CONTINUOUS
 62
     6
100
AcDbLine
 10
1061.736177506505
 20
1766.892409740451
 30
0.0
 11
1062.227450482468
 21
1768.404430234887
 31
0.0
  0
LINE
  5
465
330
1F
100
AcDbEntity
  8
付属金具
  6
CONTINUOUS
 62
     6
100
AcDbLine
 10
1061.936385892283
 20
1764.910984276693
 30
0.0
 11
1062.499627822695
 21
1766.644348338339
 31
0.0
  0
LINE
  5
466
330
1F
100
AcDbEntity
  8
付属金具
  6
CONTINUOUS
 62
     6
100
AcDbLine
 10
1083.493987399994
 20
1759.822890472556
 30
0.0
 11
1082.930779659911
 21
1758.089467364166
 31
0.0
  0
LINE
  5
467
330
1F
100
AcDbEntity
  8
付属金具
  6
CONTINUOUS
 62
     6
100
AcDbLine
 10
1083.493987399994
 20
1759.822890472556
 30
0.0
 11
1084.257433564956
 21
1759.574832941527
 31
0.0
  0
LINE
  5
468
330
1F
100
AcDbEntity
  8
付属金具
  6
CONTINUOUS
 62
     6
100
AcDbLine
 10
1085.233651470386
 20
1762.579287574083
 30
0.0
 11
1084.257433564956
 21
1759.574832941527
 31
0.0
  0
LINE
  5
469
330
1F
100
AcDbEntity
  8
付属金具
  6
CONTINUOUS
 62
     6
100
AcDbLine
 10
1061.667885015059
 20
1764.084563445973
 30
0.0
 11
1061.936385892283
 21
1764.910984276693
 31
0.0
  0
LINE
  5
46A
330
1F
100
AcDbEntity
  8
付属金具
  6
CONTINUOUS
 62
     6
100
AcDbLine
 10
1082.325207740477
 20
1757.037529712165
 30
0.0
 11
1061.807993158305
 21
1763.704004022338
 31
0.0
  0
LINE
  5
46B
330
1F
100
AcDbEntity
  8
付属金具
  6
CONTINUOUS
 62
     6
100
AcDbLine
 10
1061.667885015059
 20
1764.084563445973
 30
0.0
 11
1061.614155997504
 21
1763.919254176362
 31
0.0
  0
LINE
  5
46C
330
1F
100
AcDbEntity
  8
付属金具
  6
CONTINUOUS
 62
     6
100
AcDbLine
 10
1061.807993158305
 20
1763.704004022338
 30
0.0
 11
1061.614155997504
 21
1763.919254176362
 31
0.0
  0
LINE
  5
46D
330
1F
100
AcDbEntity
  8
付属金具
  6
CONTINUOUS
 62
     6
100
AcDbLine
 10
1082.662246833521
 20
1757.26304140171
 30
0.0
 11
1082.608549905204
 21
1757.097733252679
 31
0.0
  0
LINE
  5
46E
330
1F
100
AcDbEntity
  8
付属金具
  6
CONTINUOUS
 62
     6
100
AcDbLine
 10
1082.608549905204
 20
1757.097733252679
 30
0.0
 11
1082.325207740477
 21
1757.037529712165
 31
0.0
  0
LINE
  5
46F
330
1F
100
AcDbEntity
  8
付属金具
  6
CONTINUOUS
 62
     6
100
AcDbLine
 10
1082.930779659911
 20
1758.089467364166
 30
0.0
 11
1082.662246833521
 21
1757.26304140171
 31
0.0
  0
LINE
  5
470
330
1F
100
AcDbEntity
  8
付属金具
  6
CONTINUOUS
 62
     6
100
AcDbLine
 10
1080.893798541068
 20
1757.502662001554
 30
0.0
 11
1080.83176671616
 21
1757.311753666685
 31
0.0
  0
ARC
  5
471
330
1F
100
AcDbEntity
  8
付属金具
  6
CONTINUOUS
 62
     6
100
AcDbCircle
 10
1080.640922699845
 20
1757.373783721601
 30
0.0
 40
0.2006759864
100
AcDbArc
 50
252.000149999999
 51
341.9997630000425
  0
LINE
  5
472
330
1F
100
AcDbEntity
  8
付属金具
  6
CONTINUOUS
 62
     6
100
AcDbLine
 10
1063.306254733979
 20
1762.795148004328
 30
0.0
 11
1080.578892785002
 21
1757.182935694131
 31
0.0
  0
LINE
  5
473
330
1F
100
AcDbEntity
  8
付属金具
  6
CONTINUOUS
 62
     6
100
AcDbLine
 10
1063.177404532111
 20
1763.04802482606
 30
0.0
 11
1063.239438458109
 21
1763.238872993603
 31
0.0
  0
ARC
  5
474
330
1F
100
AcDbEntity
  8
付属金具
  6
CONTINUOUS
 62
     6
100
AcDbCircle
 10
1063.368252559581
 20
1762.985994911217
 30
0.0
 40
0.2006759864
100
AcDbArc
 50
161.9997599999671
 51
251.9997609999571
  0
LINE
  5
475
330
1F
100
AcDbEntity
  8
付属金具
  6
CONTINUOUS
 62
     6
100
AcDbLine
 10
1082.930779659911
 20
1758.089467364166
 30
0.0
 11
1061.936385892283
 21
1764.910984276693
 31
0.0
  0
LINE
  5
476
330
1F
100
AcDbEntity
  8
付属金具
  6
CONTINUOUS
 62
     6
100
AcDbLine
 10
1162.02617859816
 20
1784.8161752584
 30
0.0
 11
1054.246052722601
 21
1780.7008463063
 31
0.0
  0
LINE
  5
477
330
1F
100
AcDbEntity
  8
付属金具
  6
CONTINUOUS
 62
     6
100
AcDbLine
 10
1085.61235620846
 20
1762.2836664559
 30
0.0
 11
1136.069706613328
 21
1757.208096792294
 31
0.0
  0
ARC
  5
478
330
1F
100
AcDbEntity
  8
付属金具
  6
CONTINUOUS
 62
     6
100
AcDbCircle
 10
1135.423479104138
 20
1751.729893218906
 30
0.0
 40
5.516187486400002
100
AcDbArc
 50
1.7087659999982
 51
85.23129400000019
  0
LINE
  5
479
330
1F
100
AcDbEntity
  8
付属金具
  6
CONTINUOUS
 62
     6
100
AcDbLine
 10
1162.026178598152
 20
1784.816175258432
 30
0.0
 11
1183.608246335006
 21
1785.569837671026
 31
0.0
  0
ARC
  5
47A
330
1F
100
AcDbEntity
  8
付属金具
  6
CONTINUOUS
 62
     6
100
AcDbCircle
 10
1183.624823599503
 20
1785.087651632107
 30
0.0
 40
0.4824387336
100
AcDbArc
 50
359.7118640000007
 51
91.96853800000575
  0
POLYLINE
  5
47B
330
1F
100
AcDbEntity
  8
付属金具
  6
CONTINUOUS
 62
     6
100
AcDb2dPolyline
 66
     1
 10
0.0
 20
0.0
 30
0.0
 70
   128
  0
VERTEX
  5
47C
330
47B
100
AcDbEntity
  8
付属金具
  6
CONTINUOUS
 62
     6
100
AcDbVertex
100
AcDb2dVertex
 10
1140.753830895383
 20
1754.530543711877
 30
0.0
  0
VERTEX
  5
47D
330
47B
100
AcDbEntity
  8
付属金具
  6
CONTINUOUS
 62
     6
100
AcDbVertex
100
AcDb2dVertex
 10
1140.790168516029
 20
1754.574463063031
 30
0.0
  0
VERTEX
  5
47E
330
47B
100
AcDbEntity
  8
付属金具
  6
CONTINUOUS
 62
     6
100
AcDbVertex
100
AcDb2dVertex
 10
1145.22255697229
 20
1760.116920407807
 30
0.0
  0
VERTEX
  5
47F
330
47B
100
AcDbEntity
  8
付属金具
  6
CONTINUOUS
 62
     6
100
AcDbVertex
100
AcDb2dVertex
 10
1149.762065503652
 20
1766.40080997937
 30
0.0
  0
VERTEX
  5
480
330
47B
100
AcDbEntity
  8
付属金具
  6
CONTINUOUS
 62
     6
100
AcDbVertex
100
AcDb2dVertex
 10
1155.529079519373
 20
1775.327248250205
 30
0.0
  0
VERTEX
  5
481
330
47B
100
AcDbEntity
  8
付属金具
  6
CONTINUOUS
 62
     6
100
AcDbVertex
100
AcDb2dVertex
 10
1157.829988585884
 20
1779.081697955903
 30
0.0
  0
VERTEX
  5
482
330
47B
100
AcDbEntity
  8
付属金具
  6
CONTINUOUS
 62
     6
100
AcDbVertex
100
AcDb2dVertex
 10
1159.859415051889
 20
1782.170670186183
 30
0.0
  0
VERTEX
  5
483
330
47B
100
AcDbEntity
  8
付属金具
  6
CONTINUOUS
 62
     6
100
AcDbVertex
100
AcDb2dVertex
 10
1160.76668976204
 20
1783.354480343701
 30
0.0
  0
VERTEX
  5
484
330
47B
100
AcDbEntity
  8
付属金具
  6
CONTINUOUS
 62
     6
100
AcDbVertex
100
AcDb2dVertex
 10
1161.769996203855
 20
1784.204661560184
 30
0.0
  0
SEQEND
  5
485
330
47B
100
AcDbEntity
  8
付属金具
  6
CONTINUOUS
 62
     6
  0
LINE
  5
486
330
1F
100
AcDbEntity
  8
付属金具
  6
CONTINUOUS
 62
     6
100
AcDbLine
 10
1142.339846557074
 20
1705.515656007781
 30
0.0
 11
1140.936987807971
 21
1751.902083894041
 31
0.0
  0
LINE
  5
487
330
1F
100
AcDbEntity
  8
付属金具
  6
CONTINUOUS
 62
     6
100
AcDbLine
 10
1142.983815722088
 20
1687.53101483806
 30
0.0
 11
1142.360802964169
 21
1705.371765972319
 31
0.0
  0
LINE
  5
488
330
1F
100
AcDbEntity
  8
付属金具
  6
CONTINUOUS
 62
     6
100
AcDbLine
 10
1143.356747984878
 20
1691.985307402615
 30
0.0
 11
1143.059093667452
 21
1700.509011827178
 31
0.0
  0
ARC
  5
489
330
1F
100
AcDbEntity
  8
付属金具
  6
CONTINUOUS
 62
     6
100
AcDbCircle
 10
1120.778224119495
 20
1699.862697138014
 30
0.0
 40
22.2902460344
100
AcDbArc
 50
1.661636999999598
 51
14.21368499999953
  0
ARC
  5
48A
330
1F
100
AcDbEntity
  8
付属金具
  6
CONTINUOUS
 62
     6
100
AcDbCircle
 10
1120.778224119495
 20
1699.862697138014
 30
0.0
 40
22.290250048
100
AcDbArc
 50
14.21368499999959
 51
14.6909919999999
  0
ARC
  5
48B
330
1F
100
AcDbEntity
  8
付属金具
  6
CONTINUOUS
 62
     6
100
AcDbCircle
 10
1120.880476996051
 20
1691.598922983207
 30
0.0
 40
22.4801455048
100
AcDbArc
 50
348.3543660000003
 51
0.9874700000003205
  0
ARC
  5
48C
330
1F
100
AcDbEntity
  8
付属金具
  6
CONTINUOUS
 62
     6
100
AcDbCircle
 10
1143.09780943624
 20
1687.067367135658
 30
0.0
 40
0.2001221096
100
AcDbArc
 50
156.7881740000505
 51
181.795458999946
  0
LINE
  5
48D
330
1F
100
AcDbEntity
  8
付属金具
  6
CONTINUOUS
 62
     6
100
AcDbLine
 10
1143.210406265264
 20
1676.729871017796
 30
0.0
 11
1142.897948059689
 21
1687.0611227591
 31
0.0
  0
LINE
  5
48E
330
1F
100
AcDbEntity
  8
付属金具
  6
CONTINUOUS
 62
     6
100
AcDbLine
 10
1142.444516571706
 20
1672.20038261193
 30
0.0
 11
1142.521323250722
 21
1670.000927097811
 31
0.0
  0
LINE
  5
48F
330
1F
100
AcDbEntity
  8
付属金具
  6
CONTINUOUS
 62
     6
100
AcDbLine
 10
1184.106512598566
 20
1785.107536826064
 30
0.0
 11
1187.520690256918
 21
1698.891304348498
 31
0.0
  0
LINE
  5
490
330
1F
100
AcDbEntity
  8
付属金具
  6
CONTINUOUS
 62
     2
100
AcDbLine
 10
1183.50000000005
 20
1678.136814634448
 30
0.0
 11
1141.787773423035
 21
1676.680191585164
 31
0.0
  0
LINE
  5
491
330
1F
100
AcDbEntity
  8
付属金具
  6
CONTINUOUS
 62
     2
100
AcDbLine
 10
1173.934061044249
 20
1673.300021735855
 30
0.0
 11
1141.944821158197
 21
1672.182932863578
 31
0.0
  0
LINE
  5
492
330
1F
100
AcDbEntity
  8
付属金具
  6
CONTINUOUS
 62
     2
100
AcDbLine
 10
1189.758533119952
 20
1678.355367426884
 30
0.0
 11
1188.500000000048
 21
1678.311418481906
 31
0.0
  0
LINE
  5
493
330
1F
100
AcDbEntity
  8
付属金具
  6
CONTINUOUS
 62
     2
100
AcDbLine
 10
1189.758533119952
 20
1678.355367426884
 30
0.0
 11
1189.882362250807
 21
1674.809365071922
 31
0.0
  0
LINE
  5
494
330
1F
100
AcDbEntity
  8
付属金具
  6
CONTINUOUS
 62
     6
100
AcDbLine
 10
2412.594841671299
 20
1785.56982856625
 30
0.0
 11
2410.9166712257
 21
1785.56982856625
 31
0.0
  0
LINE
  5
495
330
1F
100
AcDbEntity
  8
付属金具
  6
CONTINUOUS
 62
     6
100
AcDbLine
 10
2410.9166712257
 20
1785.56982856625
 30
0.0
 11
2408.901173754499
 21
1785.56982856625
 31
0.0
  0
LINE
  5
496
330
1F
100
AcDbEntity
  8
付属金具
  6
CONTINUOUS
 62
     6
100
AcDbLine
 10
2408.901173754499
 20
1785.56982856625
 30
0.0
 11
2406.212069781699
 21
1785.56982856625
 31
0.0
  0
LINE
  5
497
330
1F
100
AcDbEntity
  8
付属金具
  6
CONTINUOUS
 62
     6
100
AcDbLine
 10
2406.212069781699
 20
1785.56982856625
 30
0.0
 11
2402.9423865281
 21
1785.56982856625
 31
0.0
  0
LINE
  5
498
330
1F
100
AcDbEntity
  8
付属金具
  6
CONTINUOUS
 62
     6
100
AcDbLine
 10
2402.9423865281
 20
1785.56982856625
 30
0.0
 11
2399.221771300899
 21
1785.56982856625
 31
0.0
  0
LINE
  5
499
330
1F
100
AcDbEntity
  8
付属金具
  6
CONTINUOUS
 62
     6
100
AcDbLine
 10
2399.221771300899
 20
1785.56982856625
 30
0.0
 11
2395.1894277889
 21
1785.56982856625
 31
0.0
  0
LINE
  5
49A
330
1F
100
AcDbEntity
  8
付属金具
  6
CONTINUOUS
 62
     6
100
AcDbLine
 10
2395.1894277889
 20
1785.56982856625
 30
0.0
 11
2391.0000000001
 21
1785.56982856625
 31
0.0
  0
LINE
  5
49B
330
1F
100
AcDbEntity
  8
付属金具
  6
CONTINUOUS
 62
     6
100
AcDbLine
 10
2391.0000000001
 20
1785.56982856625
 30
0.0
 11
2386.8113709177
 21
1785.56982856625
 31
0.0
  0
LINE
  5
49C
330
1F
100
AcDbEntity
  8
付属金具
  6
CONTINUOUS
 62
     6
100
AcDbLine
 10
2386.8113709177
 20
1785.56982856625
 30
0.0
 11
2382.7807452265
 21
1785.56982856625
 31
0.0
  0
LINE
  5
49D
330
1F
100
AcDbEntity
  8
付属金具
  6
CONTINUOUS
 62
     6
100
AcDbLine
 10
2382.7807452265
 20
1785.56982856625
 30
0.0
 11
2379.061723398499
 21
1785.56982856625
 31
0.0
  0
ARC
  5
49E
330
1F
100
AcDbEntity
  8
付属金具
  6
CONTINUOUS
 62
     6
100
AcDbCircle
 10
2412.5951507185
 20
1785.08846146385
 30
0.0
 40
0.4813430208
100
AcDbArc
 50
359.9656079999983
 51
90.03440100003822
  0
LINE
  5
49F
330
1F
100
AcDbEntity
  8
付属金具
  6
CONTINUOUS
 62
     6
100
AcDbLine
 10
2413.0793955721
 20
1785.06873863345
 30
0.0
 11
2413.0771921057
 21
1785.08821663425
 31
0.0
  0
LINE
  5
4A0
330
1F
100
AcDbEntity
  8
付属金具
  6
CONTINUOUS
 62
     6
100
AcDbLine
 10
2413.0808645497
 20
1785.06830917825
 30
0.0
 11
2413.0789661169
 21
1785.01000762465
 31
0.0
  0
ARC
  5
4A1
330
1F
100
AcDbEntity
  8
付属金具
  6
CONTINUOUS
 62
     6
100
AcDbCircle
 10
2380.2806978681
 20
1156.80765704465
 30
0.0
 40
628.3742410272
100
AcDbArc
 50
91.03271500000001
 51
91.03552199999999
  0
LINE
  5
4A2
330
1F
100
AcDbEntity
  8
付属金具
  6
CONTINUOUS
 62
     6
100
AcDbLine
 10
2379.061723398499
 20
1785.56982856625
 30
0.0
 11
2375.793324496899
 21
1785.56982856625
 31
0.0
  0
LINE
  5
4A3
330
1F
100
AcDbEntity
  8
付属金具
  6
CONTINUOUS
 62
     6
100
AcDbLine
 10
2375.793324496899
 20
1785.56982856625
 30
0.0
 11
2373.1035462393
 21
1785.56982856625
 31
0.0
  0
LINE
  5
4A4
330
1F
100
AcDbEntity
  8
付属金具
  6
CONTINUOUS
 62
     6
100
AcDbLine
 10
2373.1035462393
 20
1785.56982856625
 30
0.0
 11
2371.0903766561
 21
1785.56982856625
 31
0.0
  0
LINE
  5
4A5
330
1F
100
AcDbEntity
  8
付属金具
  6
CONTINUOUS
 62
     6
100
AcDbLine
 10
2371.0903766561
 20
1785.56982856625
 30
0.0
 11
2369.838269918499
 21
1785.56982856625
 31
0.0
  0
LINE
  5
4A6
330
1F
100
AcDbEntity
  8
付属金具
  6
CONTINUOUS
 62
     6
100
AcDbLine
 10
2369.838269918499
 20
1785.56982856625
 30
0.0
 11
2369.4085297529
 21
1785.56964394065
 31
0.0
  0
ARC
  5
4A7
330
1F
100
AcDbEntity
  8
付属金具
  6
CONTINUOUS
 62
     6
100
AcDbCircle
 10
2369.4047930913
 20
1785.08931636065
 30
0.0
 40
0.4803034984
100
AcDbArc
 50
89.82380599999439
 51
169.1774940000228
  0
LINE
  5
4A8
330
1F
100
AcDbEntity
  8
付属金具
  6
CONTINUOUS
 62
     6
100
AcDbLine
 10
2368.926917820899
 20
1785.08821663425
 30
0.0
 11
2368.924465511299
 21
1785.06873863345
 31
0.0
  0
ARC
  5
4A9
330
1F
100
AcDbEntity
  8
付属金具
  6
CONTINUOUS
 62
     6
100
AcDbCircle
 10
2369.090311476899
 20
1785.15062008705
 30
0.0
 40
0.1596569944
100
AcDbArc
 50
169.627647000052
 51
188.5674440000288
  0
LINE
  5
4AA
330
1F
100
AcDbEntity
  8
付属金具
  6
CONTINUOUS
 62
     6
100
AcDbLine
 10
2368.924345103299
 20
1785.01166122785
 30
0.0
 11
2368.9224466705
 21
1785.06830917825
 31
0.0
  0
ARC
  5
4AB
330
1F
100
AcDbEntity
  8
付属金具
  6
CONTINUOUS
 62
     6
100
AcDbCircle
 10
2334.898741425298
 20
1780.21891405246
 30
0.0
 40
0.4822460808
100
AcDbArc
 50
92.02718200000541
 51
183.6100750000146
  0
ARC
  5
4AC
330
1F
100
AcDbEntity
  8
付属金具
  6
CONTINUOUS
 62
     6
100
AcDbCircle
 10
2356.097235653413
 20
1786.432097298431
 30
0.0
 40
22.5620670944
100
AcDbArc
 50
196.0806189999998
 51
232.7195640000002
  0
LINE
  5
4AD
330
1F
100
AcDbEntity
  8
付属金具
  6
CONTINUOUS
 62
     6
100
AcDbLine
 10
2343.993539261535
 20
1766.644348338289
 30
0.0
 11
2343.230088945345
 21
1766.892409740401
 31
0.0
  0
LINE
  5
4AE
330
1F
100
AcDbEntity
  8
付属金具
  6
CONTINUOUS
 62
     6
100
AcDbLine
 10
2343.230088945345
 20
1766.892409740401
 30
0.0
 11
2343.721361921309
 21
1768.404430234837
 31
0.0
  0
LINE
  5
4AF
330
1F
100
AcDbEntity
  8
付属金具
  6
CONTINUOUS
 62
     6
100
AcDbLine
 10
2343.430297331123
 20
1764.910984276643
 30
0.0
 11
2343.993539261535
 21
1766.644348338289
 31
0.0
  0
LINE
  5
4B0
330
1F
100
AcDbEntity
  8
付属金具
  6
CONTINUOUS
 62
     6
100
AcDbLine
 10
2364.987898838835
 20
1759.822890472506
 30
0.0
 11
2364.424691098752
 21
1758.089467364116
 31
0.0
  0
LINE
  5
4B1
330
1F
100
AcDbEntity
  8
付属金具
  6
CONTINUOUS
 62
     6
100
AcDbLine
 10
2364.987898838835
 20
1759.822890472506
 30
0.0
 11
2365.751345003797
 21
1759.574832941477
 31
0.0
  0
LINE
  5
4B2
330
1F
100
AcDbEntity
  8
付属金具
  6
CONTINUOUS
 62
     6
100
AcDbLine
 10
2366.727562909226
 20
1762.579287574033
 30
0.0
 11
2365.751345003797
 21
1759.574832941477
 31
0.0
  0
LINE
  5
4B3
330
1F
100
AcDbEntity
  8
付属金具
  6
CONTINUOUS
 62
     6
100
AcDbLine
 10
2343.1617964539
 20
1764.084563445923
 30
0.0
 11
2343.430297331123
 21
1764.910984276643
 31
0.0
  0
LINE
  5
4B4
330
1F
100
AcDbEntity
  8
付属金具
  6
CONTINUOUS
 62
     6
100
AcDbLine
 10
2363.819119179318
 20
1757.037529712115
 30
0.0
 11
2343.301904597146
 21
1763.704004022288
 31
0.0
  0
LINE
  5
4B5
330
1F
100
AcDbEntity
  8
付属金具
  6
CONTINUOUS
 62
     6
100
AcDbLine
 10
2343.1617964539
 20
1764.084563445923
 30
0.0
 11
2343.108067436344
 21
1763.919254176312
 31
0.0
  0
LINE
  5
4B6
330
1F
100
AcDbEntity
  8
付属金具
  6
CONTINUOUS
 62
     6
100
AcDbLine
 10
2343.301904597146
 20
1763.704004022288
 30
0.0
 11
2343.108067436344
 21
1763.919254176312
 31
0.0
  0
LINE
  5
4B7
330
1F
100
AcDbEntity
  8
付属金具
  6
CONTINUOUS
 62
     6
100
AcDbLine
 10
2364.156158272362
 20
1757.26304140166
 30
0.0
 11
2364.102461344045
 21
1757.097733252629
 31
0.0
  0
LINE
  5
4B8
330
1F
100
AcDbEntity
  8
付属金具
  6
CONTINUOUS
 62
     6
100
AcDbLine
 10
2364.102461344045
 20
1757.097733252629
 30
0.0
 11
2363.819119179318
 21
1757.037529712115
 31
0.0
  0
LINE
  5
4B9
330
1F
100
AcDbEntity
  8
付属金具
  6
CONTINUOUS
 62
     6
100
AcDbLine
 10
2364.424691098752
 20
1758.089467364116
 30
0.0
 11
2364.156158272362
 21
1757.26304140166
 31
0.0
  0
LINE
  5
4BA
330
1F
100
AcDbEntity
  8
付属金具
  6
CONTINUOUS
 62
     6
100
AcDbLine
 10
2362.387709979909
 20
1757.502662001504
 30
0.0
 11
2362.325678155001
 21
1757.311753666635
 31
0.0
  0
ARC
  5
4BB
330
1F
100
AcDbEntity
  8
付属金具
  6
CONTINUOUS
 62
     6
100
AcDbCircle
 10
2362.134834138686
 20
1757.373783721551
 30
0.0
 40
0.2006759864
100
AcDbArc
 50
252.000149999999
 51
341.9997630000425
  0
LINE
  5
4BC
330
1F
100
AcDbEntity
  8
付属金具
  6
CONTINUOUS
 62
     6
100
AcDbLine
 10
2344.800166172819
 20
1762.795148004278
 30
0.0
 11
2362.072804223842
 21
1757.182935694081
 31
0.0
  0
LINE
  5
4BD
330
1F
100
AcDbEntity
  8
付属金具
  6
CONTINUOUS
 62
     6
100
AcDbLine
 10
2344.671315970952
 20
1763.04802482601
 30
0.0
 11
2344.73334989695
 21
1763.238872993553
 31
0.0
  0
ARC
  5
4BE
330
1F
100
AcDbEntity
  8
付属金具
  6
CONTINUOUS
 62
     6
100
AcDbCircle
 10
2344.862163998422
 20
1762.985994911167
 30
0.0
 40
0.2006759864
100
AcDbArc
 50
161.9997599999671
 51
251.9997609999571
  0
LINE
  5
4BF
330
1F
100
AcDbEntity
  8
付属金具
  6
CONTINUOUS
 62
     6
100
AcDbLine
 10
2364.424691098752
 20
1758.089467364116
 30
0.0
 11
2343.430297331123
 21
1764.910984276643
 31
0.0
  0
LINE
  5
4C0
330
1F
100
AcDbEntity
  8
付属金具
  6
CONTINUOUS
 62
     6
100
AcDbLine
 10
2369.4047930913
 20
1785.56982856625
 30
0.0
 11
2334.8998649343
 21
1780.70084630625
 31
0.0
  0
ARC
  5
4C1
330
1F
100
AcDbEntity
  8
付属金具
  6
CONTINUOUS
 62
     6
100
AcDbCircle
 10
2342.802358702633
 20
1752.466547271939
 30
0.0
 40
25.97346992771782
100
AcDbArc
 50
358.7377372410678
 51
22.90985252450768
  0
ARC
  5
4C2
330
1F
100
AcDbEntity
  8
付属金具
  6
CONTINUOUS
 62
     6
100
AcDbCircle
 10
2353.954475787208
 20
1745.703153681347
 30
0.0
 40
21.1632472224
100
AcDbArc
 50
52.87730075197252
 51
79.46529600000001
  0
ARC
  5
4C3
330
1F
100
AcDbEntity
  8
付属金具
  6
CONTINUOUS
 62
     6
100
AcDbCircle
 10
2514.256590574314
 20
3049.791430815841
 30
0.0
 40
1292.781217568201
100
AcDbArc
 50
262.3621273235812
 51
263.0499002980532
  0
LINE
  5
4C4
330
1F
100
AcDbEntity
  8
付属金具
  6
CONTINUOUS
 62
     6
100
AcDbLine
 10
2368.431263887236
 20
1679.499999999928
 30
0.0
 11
2368.924529728899
 21
1785.06812856625
 31
0.0
  0
LINE
  5
4C5
330
1F
100
AcDbEntity
  8
付属金具
  6
CONTINUOUS
 62
     6
100
AcDbLine
 10
2413.0787212873
 20
1785.09042010065
 30
0.0
 11
2413.572170780388
 21
1679.499999999928
 31
0.0
  0
DIMENSION
  5
4C7
330
1F
100
AcDbEntity
  8
寸法
  6
CONTINUOUS
 62
     3
100
AcDbDimension
  2
*D15
 10
1381.00000000011
 20
3825.0
 30
0.0
 11
1345.750000089516
 21
3674.999999999998
 31
0.0
 70
   160
  3
ISO-25
100
AcDbAlignedDimension
 13
1256.000000000059
 23
3525.0
 33
0.0
 14
1261.000000000059
 24
3825.0
 34
0.0
 50
90.0
100
AcDbRotatedDimension
1001
ACAD
1000
DSTYLE
1002
{
1070
   270
1070
     2
1070
     6
1000
EX_NORM
1070
     7
1000
EX_NORM
1070
    41
1040
44.99999618530273
1070
    42
1040
10.49999982118607
1070
    44
1040
15.0
1070
    73
1070
     0
1070
    74
1070
     0
1070
    75
1070
     0
1070
    76
1070
     1
1070
    77
1070
     1
1070
    78
1070
     0
1070
   140
1040
59.99999618530273
1070
   147
1040
0.0
1070
   173
1070
     1
1070
   176
1070
     3
1070
   177
1070
     3
1070
   178
1070
     2
1070
   271
1070
     0
1070
   277
1070
     2
1070
   279
1070
     2
1070
   280
1070
     0
1070
   287
1070
     5
1070
   340
1005
4C6
1002
}
  0
DIMENSION
  5
4D4
330
1F
100
AcDbEntity
  8
寸法
  6
CONTINUOUS
 62
     3
100
AcDbDimension
  2
*D16
 10
1471.00000000011
 20
3825.0
 30
0.0
 11
1435.750000089516
 21
3639.999999999998
 31
0.0
 70
   160
  3
ISO-25
100
AcDbAlignedDimension
 13
961.0000000000605
 23
3455.0
 33
0.0
 14
1261.000000000059
 24
3825.0
 34
0.0
 50
90.0
100
AcDbRotatedDimension
1001
ACAD
1000
DSTYLE
1002
{
1070
   270
1070
     2
1070
     6
1000
EX_NORM
1070
     7
1000
EX_NORM
1070
    41
1040
44.99999618530273
1070
    42
1040
10.49999982118607
1070
    44
1040
15.0
1070
    73
1070
     0
1070
    74
1070
     0
1070
    75
1070
     0
1070
    76
1070
     1
1070
    77
1070
     1
1070
    78
1070
     0
1070
   140
1040
59.99999618530273
1070
   147
1040
0.0
1070
   173
1070
     1
1070
   176
1070
     3
1070
   177
1070
     3
1070
   178
1070
     2
1070
   271
1070
     0
1070
   277
1070
     2
1070
   279
1070
     2
1070
   280
1070
     0
1070
   287
1070
     5
1070
   340
1005
4C6
1002
}
  0
DIMENSION
  5
4E0
330
1F
100
AcDbEntity
  8
寸法
  6
CONTINUOUS
 62
     3
100
AcDbDimension
  2
*D17
 10
1261.000000000059
 20
3334.999999999949
 30
0.0
 11
961.0000000000598
 21
3370.249999910542
 31
0.0
 70
   160
  3
ISO-25
100
AcDbAlignedDimension
 13
661.0000000000605
 23
3530.0
 33
0.0
 14
1261.000000000059
 24
3530.0
 34
0.0
100
AcDbRotatedDimension
1001
ACAD
1000
DSTYLE
1002
{
1070
   270
1070
     2
1070
     6
1000
EX_NORM
1070
     7
1000
EX_NORM
1070
    41
1040
44.99999618530273
1070
    42
1040
10.49999982118607
1070
    44
1040
15.0
1070
    73
1070
     0
1070
    74
1070
     0
1070
    75
1070
     0
1070
    76
1070
     0
1070
    77
1070
     1
1070
    78
1070
     0
1070
   140
1040
59.99999618530273
1070
   147
1040
0.0
1070
   173
1070
     1
1070
   176
1070
     3
1070
   177
1070
     3
1070
   178
1070
     2
1070
   271
1070
     0
1070
   277
1070
     2
1070
   279
1070
     2
1070
   280
1070
     0
1070
   287
1070
     5
1070
   340
1005
4C6
1002
}
  0
DIMENSION
  5
4ED
330
1F
100
AcDbEntity
  8
寸法
  6
CONTINUOUS
 62
     3
100
AcDbDimension
  2
*D18
 10
996.0000000000604
 20
3915.0
 30
0.0
 11
751.0000000000606
 21
3950.249999910593
 31
0.0
 70
   160
  1
35（壁排水）
  3
ISO-25
100
AcDbAlignedDimension
 13
961.0000000000605
 23
3825.0
 33
0.0
 14
996.0000000000604
 24
3875.0
 34
0.0
100
AcDbRotatedDimension
1001
ACAD
1000
DSTYLE
1002
{
1070
   270
1070
     2
1070
     6
1000
EX_NORM
1070
     7
1000
EX_NORM
1070
    41
1040
44.99999618530273
1070
    42
1040
10.49999982118607
1070
    44
1040
15.0
1070
    73
1070
     0
1070
    74
1070
     0
1070
    75
1070
     1
1070
    76
1070
     0
1070
    77
1070
     1
1070
    78
1070
     0
1070
   140
1040
59.99999618530273
1070
   147
1040
0.0
1070
   173
1070
     1
1070
   176
1070
     3
1070
   177
1070
     3
1070
   178
1070
     2
1070
   271
1070
     0
1070
   277
1070
     2
1070
   279
1070
     2
1070
   280
1070
     1
1070
   287
1070
     5
1070
   340
1005
4C6
1002
}
  0
DIMENSION
  5
4FB
330
1F
100
AcDbEntity
  8
寸法
  6
CONTINUOUS
 62
     3
100
AcDbDimension
  2
*D19
 10
1381.000000000059
 20
1669.5
 30
0.0
 11
1345.750000089465
 21
1294.499999999998
 31
0.0
 70
   160
  3
ISO-25
100
AcDbAlignedDimension
 13
1244.500000000059
 23
919.5
 33
0.0
 14
961.0000000000605
 24
1669.5
 34
0.0
 50
90.0
100
AcDbRotatedDimension
1001
ACAD
1000
DSTYLE
1002
{
1070
   270
1070
     2
1070
     6
1000
EX_NORM
1070
     7
1000
EX_NORM
1070
    41
1040
44.99999618530273
1070
    42
1040
10.49999982118607
1070
    44
1040
15.0
1070
    73
1070
     0
1070
    74
1070
     0
1070
    75
1070
     1
1070
    76
1070
     0
1070
    77
1070
     1
1070
    78
1070
     0
1070
   140
1040
59.99999618530273
1070
   147
1040
0.0
1070
   173
1070
     1
1070
   176
1070
     3
1070
   177
1070
     3
1070
   178
1070
     2
1070
   271
1070
     0
1070
   277
1070
     2
1070
   279
1070
     2
1070
   280
1070
     0
1070
   287
1070
     5
1070
   340
1005
4C6
1002
}
  0
DIMENSION
  5
507
330
1F
100
AcDbEntity
  8
寸法
  6
CONTINUOUS
 62
     3
100
AcDbDimension
  2
*D20
 10
1471.000000000059
 20
1704.5
 30
0.0
 11
1435.750000089465
 21
1311.999999999998
 31
0.0
 70
   160
  3
ISO-25
100
AcDbAlignedDimension
 13
1244.500000000059
 23
919.5
 33
0.0
 14
1255.814877125059
 24
1704.5
 34
0.0
 50
90.0
100
AcDbRotatedDimension
1001
ACAD
1000
DSTYLE
1002
{
1070
   270
1070
     2
1070
     6
1000
EX_NORM
1070
     7
1000
EX_NORM
1070
    41
1040
44.99999618530273
1070
    42
1040
10.49999982118607
1070
    44
1040
15.0
1070
    73
1070
     0
1070
    74
1070
     0
1070
    75
1070
     1
1070
    76
1070
     0
1070
    77
1070
     1
1070
    78
1070
     0
1070
   140
1040
59.99999618530273
1070
   147
1040
0.0
1070
   173
1070
     1
1070
   176
1070
     3
1070
   177
1070
     3
1070
   178
1070
     2
1070
   271
1070
     0
1070
   277
1070
     2
1070
   279
1070
     2
1070
   280
1070
     0
1070
   287
1070
     5
1070
   340
1005
4C6
1002
}
  0
DIMENSION
  5
513
330
1F
100
AcDbEntity
  8
寸法
  6
CONTINUOUS
 62
     3
100
AcDbDimension
  2
*D21
 10
2491.00000000006
 20
709.5
 30
0.0
 11
2701.00000000006
 21
744.749999910593
 31
0.0
 70
   160
  1
85（床給水）
  3
ISO-25
100
AcDbAlignedDimension
 13
2406.00000000006
 23
869.5
 33
0.0
 14
2491.00000000006
 24
919.4999999999991
 34
0.0
100
AcDbRotatedDimension
1001
ACAD
1000
DSTYLE
1002
{
1070
   270
1070
     2
1070
     6
1000
EX_NORM
1070
     7
1000
EX_NORM
1070
    41
1040
44.99999618530273
1070
    42
1040
10.49999982118607
1070
    44
1040
15.0
1070
    73
1070
     0
1070
    74
1070
     0
1070
    75
1070
     0
1070
    76
1070
     0
1070
    77
1070
     1
1070
    78
1070
     0
1070
   140
1040
59.99999618530273
1070
   147
1040
0.0
1070
   173
1070
     1
1070
   176
1070
     3
1070
   177
1070
     3
1070
   178
1070
     2
1070
   271
1070
     0
1070
   277
1070
     2
1070
   279
1070
     2
1070
   280
1070
     2
1070
   287
1070
     5
1070
   340
1005
4C6
1002
}
  0
DIMENSION
  5
522
330
1F
100
AcDbEntity
  8
寸法
  6
CONTINUOUS
 62
     3
100
AcDbDimension
  2
*D22
 10
2491.00000000006
 20
619.5
 30
0.0
 11
2701.00000000006
 21
654.749999910593
 31
0.0
 70
   160
  1
85（床排水）
  3
ISO-25
100
AcDbAlignedDimension
 13
2406.00000000006
 23
869.5
 33
0.0
 14
2491.00000000006
 24
919.4999999999991
 34
0.0
100
AcDbRotatedDimension
1001
ACAD
1000
DSTYLE
1002
{
1070
   270
1070
     2
1070
     6
1000
EX_NORM
1070
     7
1000
EX_NORM
1070
    41
1040
44.99999618530273
1070
    42
1040
10.49999982118607
1070
    44
1040
15.0
1070
    73
1070
     0
1070
    74
1070
     0
1070
    75
1070
     0
1070
    76
1070
     0
1070
    77
1070
     1
1070
    78
1070
     0
1070
   140
1040
59.99999618530273
1070
   147
1040
0.0
1070
   173
1070
     1
1070
   176
1070
     3
1070
   177
1070
     3
1070
   178
1070
     2
1070
   271
1070
     0
1070
   277
1070
     2
1070
   279
1070
     2
1070
   280
1070
     2
1070
   287
1070
     5
1070
   340
1005
4C6
1002
}
  0
DIMENSION
  5
531
330
1F
100
AcDbEntity
  8
寸法
  6
CONTINUOUS
 62
     3
100
AcDbDimension
  2
*D23
 10
2611.00000000006
 20
1269.5
 30
0.0
 11
2575.750000089467
 21
1106.499999999998
 31
0.0
 70
   160
  1
350（壁給水）
 53
89.99999999999973
  3
ISO-25
100
AcDbAlignedDimension
 13
2491.00000000006
 23
919.5
 33
0.0
 14
2499.00000000006
 24
1269.5
 34
0.0
 50
90.0
100
AcDbRotatedDimension
1001
ACAD
1000
DSTYLE
1002
{
1070
   270
1070
     2
1070
     6
1000
EX_NORM
1070
     7
1000
EX_NORM
1070
    41
1040
44.99999618530273
1070
    42
1040
10.49999982118607
1070
    44
1040
15.0
1070
    73
1070
     0
1070
    74
1070
     0
1070
    75
1070
     0
1070
    76
1070
     0
1070
    77
1070
     1
1070
    78
1070
     0
1070
   140
1040
59.99999618530273
1070
   147
1040
0.0
1070
   173
1070
     1
1070
   176
1070
     3
1070
   177
1070
     3
1070
   178
1070
     2
1070
   271
1070
     0
1070
   277
1070
     2
1070
   279
1070
     2
1070
   280
1070
     0
1070
   287
1070
     5
1070
   340
1005
4C6
1002
}
  0
DIMENSION
  5
53E
330
1F
100
AcDbEntity
  8
寸法
  6
CONTINUOUS
 62
     3
100
AcDbDimension
  2
*D24
 10
2701.00000000006
 20
1389.5
 30
0.0
 11
2665.750000089467
 21
1154.499999999998
 31
0.0
 70
   160
  1
470（壁排水）
  3
ISO-25
100
AcDbAlignedDimension
 13
2491.00000000006
 23
919.5
 33
0.0
 14
2541.00000000006
 24
1389.5
 34
0.0
 50
90.0
100
AcDbRotatedDimension
1001
ACAD
1000
DSTYLE
1002
{
1070
   270
1070
     2
1070
     6
1000
EX_NORM
1070
     7
1000
EX_NORM
1070
    41
1040
44.99999618530273
1070
    42
1040
10.49999982118607
1070
    44
1040
15.0
1070
    73
1070
     0
1070
    74
1070
     0
1070
    75
1070
     0
1070
    76
1070
     0
1070
    77
1070
     1
1070
    78
1070
     0
1070
   140
1040
59.99999618530273
1070
   147
1040
0.0
1070
   173
1070
     1
1070
   176
1070
     3
1070
   177
1070
     3
1070
   178
1070
     2
1070
   271
1070
     0
1070
   277
1070
     2
1070
   279
1070
     2
1070
   280
1070
     0
1070
   287
1070
     5
1070
   340
1005
4C6
1002
}
  0
DIMENSION
  5
54B
330
1F
100
AcDbEntity
  8
寸法
  6
CONTINUOUS
 62
     3
100
AcDbDimension
  2
*D25
 10
2791.00000000006
 20
1449.5
 30
0.0
 11
2755.750000089467
 21
1184.499999999998
 31
0.0
 70
   160
  1
530（壁固定）
  3
ISO-25
100
AcDbAlignedDimension
 13
2491.00000000006
 23
919.5
 33
0.0
 14
2523.500005722061
 24
1449.5
 34
0.0
 50
90.0
100
AcDbRotatedDimension
1001
ACAD
1000
DSTYLE
1002
{
1070
   270
1070
     2
1070
     6
1000
EX_NORM
1070
     7
1000
EX_NORM
1070
    41
1040
44.99999618530273
1070
    42
1040
10.49999982118607
1070
    44
1040
15.0
1070
    73
1070
     0
1070
    74
1070
     0
1070
    75
1070
     0
1070
    76
1070
     0
1070
    77
1070
     1
1070
    78
1070
     0
1070
   140
1040
59.99999618530273
1070
   147
1040
0.0
1070
   173
1070
     1
1070
   176
1070
     3
1070
   177
1070
     3
1070
   178
1070
     2
1070
   271
1070
     0
1070
   277
1070
     2
1070
   279
1070
     2
1070
   280
1070
     0
1070
   287
1070
     5
1070
   340
1005
4C6
1002
}
  0
TEXT
  5
558
330
1F
100
AcDbEntity
  8
寸法
  6
CONTINUOUS
 62
     2
100
AcDbText
 10
2529.00000000006
 20
804.749999910593
 30
0.0
 40
59.99999618530273
  1
Ｒ１/２
 41
0.8342465643686785
  7
EXCADSTD
 72
     5
 11
2702.99998664862
 21
804.749999910593
 31
0.0
100
AcDbText
  0
LEADER
  5
559
330
1F
100
AcDbEntity
  8
寸法
  6
CONTINUOUS
 62
     3
100
AcDbLeader
  3
ISO-25
 76
     3
 10
2416.50000000006
 20
911.5
 30
0.0
 10
2529.00000000006
 20
799.5
 30
0.0
 10
2688.30000000006
 20
799.5
 30
0.0
1001
ACAD
1000
DSTYLE
1002
{
1070
     5
1000
EX_NORM
1070
    41
1040
45.0
1070
   341
1005
4D
1002
}
  0
TEXT
  5
55A
330
1F
100
AcDbEntity
  8
寸法
  6
CONTINUOUS
 62
     2
100
AcDbText
 10
2150.100000357689
 20
804.749999910593
 30
0.0
 40
59.99999618530273
  1
φ３２
 41
1.070588224822399
  7
EXCADSTD
 72
     5
 11
2306.099988913597
 21
804.749999910593
 31
0.0
100
AcDbText
  0
LEADER
  5
55B
330
1F
100
AcDbEntity
  8
寸法
  6
CONTINUOUS
 62
     3
100
AcDbLeader
  3
ISO-25
 76
     3
 10
2390.00000000006
 20
880.5
 30
0.0
 10
2306.100000000061
 20
799.5
 30
0.0
 10
2144.25000000006
 20
799.5
 30
0.0
1001
ACAD
1000
DSTYLE
1002
{
1070
     5
1000
EX_NORM
1070
    41
1040
45.0
1070
   341
1005
4D
1002
}
  0
TEXT
  5
55C
330
1F
100
AcDbEntity
  8
寸法
  6
CONTINUOUS
 62
     2
100
AcDbText
 10
336.000001430572
 20
813.7499960958958
 30
0.0
 40
59.99999618530273
  1
ＶＰ･ＶＵ４０･５０
 41
0.8542372745578565
  7
EXCADSTD
 72
     5
 11
767.9999670982966
 21
813.7499960958958
 31
0.0
100
AcDbText
  0
TEXT
  5
55D
330
1F
100
AcDbEntity
  8
寸法
  6
CONTINUOUS
 62
     2
100
AcDbText
 10
336.000001430572
 20
753.749999910593
 30
0.0
 40
59.99999618530273
  1
４０～５０㎜立上げ
 41
0.9773584771306252
  7
EXCADSTD
 72
     5
 11
779.9999670982966
 21
753.749999910593
 31
0.0
100
AcDbText
  0
LEADER
  5
55E
330
1F
100
AcDbEntity
  8
寸法
  6
CONTINUOUS
 62
     3
100
AcDbLeader
  3
ISO-25
 76
     3
 10
927.5000000000496
 20
932.0999999999985
 30
0.0
 10
780.0000000000605
 20
748.5
 30
0.0
 10
342.0000000000605
 20
748.5
 30
0.0
1001
ACAD
1000
DSTYLE
1002
{
1070
     5
1000
EX_NORM
1070
    41
1040
45.0
1070
   341
1005
4D
1002
}
  0
DIMENSION
  5
55F
330
1F
100
AcDbEntity
  8
寸法
  6
CONTINUOUS
 62
     3
100
AcDbDimension
  2
*D26
 10
1156.00000000006
 20
1248.0
 30
0.0
 11
961.0000000015596
 21
1283.249999910593
 31
0.0
 70
   160
  1
390（壁固定）
  3
ISO-25
100
AcDbAlignedDimension
 13
766.0000000030582
 23
1445.700000000099
 33
0.0
 14
1156.00000000006
 24
1445.700000000099
 34
0.0
100
AcDbRotatedDimension
1001
ACAD
1000
DSTYLE
1002
{
1070
   270
1070
     2
1070
     6
1000
EX_NORM
1070
     7
1000
EX_NORM
1070
    41
1040
44.99999618530273
1070
    42
1040
10.49999982118607
1070
    44
1040
15.0
1070
    73
1070
     0
1070
    74
1070
     0
1070
    75
1070
     0
1070
    76
1070
     0
1070
    77
1070
     1
1070
    78
1070
     0
1070
   140
1040
59.99999618530273
1070
   147
1040
0.0
1070
   173
1070
     1
1070
   176
1070
     3
1070
   177
1070
     3
1070
   178
1070
     2
1070
   271
1070
     0
1070
   277
1070
     2
1070
   279
1070
     2
1070
   280
1070
     0
1070
   287
1070
     5
1070
   340
1005
4C6
1002
}
  0
DIMENSION
  5
56C
330
1F
100
AcDbEntity
  8
寸法
  6
CONTINUOUS
 62
     3
100
AcDbDimension
  2
*D27
 10
1261.000000000002
 20
2848.0
 30
0.0
 11
961.0000000000034
 21
2883.249999910593
 31
0.0
 70
   160
  1
600
  3
ISO-25
100
AcDbAlignedDimension
 13
661.0000000000041
 23
2669.50000000004
 33
0.0
 14
1261.000000000002
 24
2669.50000000004
 34
0.0
100
AcDbRotatedDimension
1001
ACAD
1000
DSTYLE
1002
{
1070
   270
1070
     2
1070
     6
1000
EX_NORM
1070
     7
1000
EX_NORM
1070
    41
1040
44.99999618530273
1070
    42
1040
10.49999982118607
1070
    44
1040
15.0
1070
    73
1070
     0
1070
    74
1070
     0
1070
    75
1070
     0
1070
    76
1070
     0
1070
    77
1070
     1
1070
    78
1070
     8
1070
   140
1040
59.99999618530273
1070
   147
1040
0.0
1070
   173
1070
     1
1070
   176
1070
     3
1070
   177
1070
     3
1070
   178
1070
     2
1070
   271
1070
     2
1070
   277
1070
     2
1070
   279
1070
     2
1070
   280
1070
     0
1070
   287
1070
     5
1070
   340
1005
4C6
1002
}
  0
LINE
  5
579
330
1F
100
AcDbEntity
  8
寸法
  6
CONTINUOUS
 62
     3
100
AcDbLine
 10
811.0000000000041
 20
2592.249994277954
 30
0.0
 11
811.0000000000041
 21
2747.5
 31
0.0
  0
LINE
  5
57A
330
1F
100
AcDbEntity
  8
寸法
  6
CONTINUOUS
 62
     3
100
AcDbLine
 10
1111.000000000004
 20
2593.599996566772
 30
0.0
 11
1111.000000000004
 21
2747.5
 31
0.0
  0
TEXT
  5
57B
330
1F
100
AcDbEntity
  8
寸法
  6
CONTINUOUS
 62
     2
100
AcDbText
 10
788.2000005543274
 20
2737.749999910593
 30
0.0
 40
59.99999618530273
  1
３００
 41
1.070588224822399
  7
EXCADSTD
 72
     5
 11
944.1999891102356
 21
2737.749999910593
 31
0.0
100
AcDbText
  0
TEXT
  5
57C
330
1F
100
AcDbEntity
  8
寸法
  6
CONTINUOUS
 62
     2
100
AcDbText
 10
938.2000001072926
 20
2737.749999910593
 30
0.0
 40
48.0
  1
（壁固定）
 41
1.013793114958138
  7
EXCADSTD
 72
     5
 11
1139.800002396111
 21
2737.749999910593
 31
0.0
100
AcDbText
  0
LINE
  5
57D
330
1F
100
AcDbEntity
  8
寸法
  6
CONTINUOUS
 62
     3
100
AcDbLine
 10
766.0000000000043
 20
2732.5
 30
0.0
 11
1156.000000000004
 21
2732.5
 31
0.0
  0
LINE
  5
57E
330
1F
100
AcDbEntity
  8
寸法
  6
CONTINUOUS
 62
     3
100
AcDbLine
 10
766.0000000000041
 20
2725.0
 30
0.0
 11
811.0000000000041
 21
2732.5
 31
0.0
  0
LINE
  5
57F
330
1F
100
AcDbEntity
  8
寸法
  6
CONTINUOUS
 62
     3
100
AcDbLine
 10
811.0000000000041
 20
2732.5
 30
0.0
 11
766.0000000000041
 21
2740.0
 31
0.0
  0
LINE
  5
580
330
1F
100
AcDbEntity
  8
寸法
  6
CONTINUOUS
 62
     3
100
AcDbLine
 10
1156.000000000004
 20
2740.0
 30
0.0
 11
1111.000000000004
 21
2732.5
 31
0.0
  0
LINE
  5
581
330
1F
100
AcDbEntity
  8
寸法
  6
CONTINUOUS
 62
     3
100
AcDbLine
 10
1111.000000000004
 20
2732.5
 30
0.0
 11
1156.000000000004
 21
2725.0
 31
0.0
  0
DIMENSION
  5
582
330
1F
100
AcDbEntity
  8
寸法
  6
CONTINUOUS
 62
     3
100
AcDbDimension
  2
*D28
 10
1381.0
 20
2069.5
 30
0.0
 11
1345.750000089407
 21
2369.499999999999
 31
0.0
 70
   160
  3
ISO-25
100
AcDbAlignedDimension
 13
1261.000000000006
 23
2669.5
 33
0.0
 14
1261.000000000006
 24
2069.5
 34
0.0
 50
90.0
100
AcDbRotatedDimension
1001
ACAD
1000
DSTYLE
1002
{
1070
   270
1070
     2
1070
     6
1000
EX_NORM
1070
     7
1000
EX_NORM
1070
    41
1040
44.99999618530273
1070
    42
1040
10.49999982118607
1070
    44
1040
15.0
1070
    73
1070
     0
1070
    74
1070
     0
1070
    75
1070
     0
1070
    76
1070
     0
1070
    77
1070
     1
1070
    78
1070
     0
1070
   140
1040
59.99999618530273
1070
   147
1040
0.0
1070
   173
1070
     1
1070
   176
1070
     3
1070
   177
1070
     3
1070
   178
1070
     2
1070
   271
1070
     0
1070
   277
1070
     2
1070
   279
1070
     2
1070
   280
1070
     0
1070
   287
1070
     5
1070
   340
1005
4C6
1002
}
  0
DIMENSION
  5
58F
330
1F
100
AcDbEntity
  8
寸法
  6
CONTINUOUS
 62
     3
100
AcDbDimension
  2
*D29
 10
1557.000000000002
 20
2669.5
 30
0.0
 11
1519.500000000001
 21
1794.499999999998
 31
0.0
 70
   160
  1
（1750）
  3
ISO-25
100
AcDbAlignedDimension
 13
1243.000000000106
 23
919.4999999999991
 33
0.0
 14
1261.000000000006
 24
2669.5
 34
0.0
 50
90.0
100
AcDbRotatedDimension
1001
ACAD
1000
DSTYLE
1002
{
1070
   270
1070
     2
1070
     6
1000
EX_NORM
1070
     7
1000
EX_NORM
1070
    41
1040
44.99999618530273
1070
    42
1040
22.5
1070
    44
1040
22.5
1070
    73
1070
     0
1070
    74
1070
     0
1070
    75
1070
     1
1070
    76
1070
     0
1070
    77
1070
     1
1070
    78
1070
     0
1070
   140
1040
59.99999618530273
1070
   147
1040
0.0
1070
   173
1070
     1
1070
   176
1070
     3
1070
   177
1070
     3
1070
   178
1070
     2
1070
   271
1070
     0
1070
   277
1070
     2
1070
   279
1070
     2
1070
   280
1070
     0
1070
   287
1070
     5
1070
   340
1005
4C6
1002
}
  0
DIMENSION
  5
59B
330
1F
100
AcDbEntity
  8
寸法
  6
CONTINUOUS
 62
     3
100
AcDbDimension
  2
*D30
 10
2490.999999999955
 20
2732.499999999999
 30
0.0
 11
2588.499999999955
 21
2767.749999910592
 31
0.0
 70
   160
  1
43
  3
ISO-25
100
AcDbAlignedDimension
 13
2448.599999999955
 23
2630.700000000004
 33
0.0
 14
2490.999999999955
 24
2633.519237886404
 34
0.0
100
AcDbRotatedDimension
1001
ACAD
1000
DSTYLE
1002
{
1070
   270
1070
     2
1070
     6
1000
EX_NORM
1070
     7
1000
EX_NORM
1070
    41
1040
44.99999618530273
1070
    42
1040
10.49999982118607
1070
    44
1040
15.0
1070
    73
1070
     0
1070
    74
1070
     0
1070
    75
1070
     0
1070
    76
1070
     1
1070
    77
1070
     1
1070
    78
1070
     0
1070
   140
1040
59.99999618530273
1070
   147
1040
0.0
1070
   173
1070
     1
1070
   176
1070
     3
1070
   177
1070
     3
1070
   178
1070
     2
1070
   271
1070
     0
1070
   277
1070
     2
1070
   279
1070
     2
1070
   280
1070
     2
1070
   287
1070
     5
1070
   340
1005
4C6
1002
}
  0
LINE
  5
5A9
330
1F
100
AcDbEntity
  8
寸法
  6
CONTINUOUS
 62
     3
100
AcDbLine
 10
2542.299999820942
 20
2089.500000000004
 30
0.0
 11
2910.999999999957
 21
2089.500000000003
 31
0.0
  0
LINE
  5
5AA
330
1F
100
AcDbEntity
  8
寸法
  6
CONTINUOUS
 62
     3
100
AcDbLine
 10
2542.299999820942
 20
2574.500000000004
 30
0.0
 11
2910.999999999955
 21
2574.500000000004
 31
0.0
  0
TEXT
  5
5AB
330
1F
100
AcDbEntity
  8
寸法
  6
CONTINUOUS
 62
     2
100
AcDbText
 10
2890.750000089363
 20
2159.200000554326
 30
0.0
 40
59.99999618530273
  1
４８５
 50
90.00000000000034
 41
1.070588224822399
  7
EXCADSTD
 72
     5
 11
2890.750000089362
 21
2315.199989110235
 31
0.0
100
AcDbText
  0
TEXT
  5
5AC
330
1F
100
AcDbEntity
  8
寸法
  6
CONTINUOUS
 62
     2
100
AcDbText
 10
2890.750000089363
 20
2309.200000107292
 30
0.0
 40
48.0
  1
（壁固定）
 50
90.00000000000026
 41
1.013793114958139
  7
EXCADSTD
 72
     5
 11
2890.750000089362
 21
2510.80000239611
 31
0.0
100
AcDbText
  0
LINE
  5
5AD
330
1F
100
AcDbEntity
  8
寸法
  6
CONTINUOUS
 62
     3
100
AcDbLine
 10
2895.999999999957
 20
2089.500000000003
 30
0.0
 11
2895.999999999955
 21
2574.500000000004
 31
0.0
  0
LINE
  5
5AE
330
1F
100
AcDbEntity
  8
寸法
  6
CONTINUOUS
 62
     3
100
AcDbLine
 10
2888.499999999957
 20
2134.500000000003
 30
0.0
 11
2895.999999999957
 21
2089.500000000003
 31
0.0
  0
LINE
  5
5AF
330
1F
100
AcDbEntity
  8
寸法
  6
CONTINUOUS
 62
     3
100
AcDbLine
 10
2895.999999999957
 20
2089.500000000003
 30
0.0
 11
2903.499999999957
 21
2134.500000000003
 31
0.0
  0
LINE
  5
5B0
330
1F
100
AcDbEntity
  8
寸法
  6
CONTINUOUS
 62
     3
100
AcDbLine
 10
2903.499999999955
 20
2529.500000000004
 30
0.0
 11
2895.999999999955
 21
2574.500000000004
 31
0.0
  0
LINE
  5
5B1
330
1F
100
AcDbEntity
  8
寸法
  6
CONTINUOUS
 62
     3
100
AcDbLine
 10
2895.999999999955
 20
2574.500000000004
 30
0.0
 11
2888.499999999955
 21
2529.500000000004
 31
0.0
  0
DIMENSION
  5
5B2
330
1F
100
AcDbEntity
  8
寸法
  6
CONTINUOUS
 62
     3
100
AcDbDimension
  2
*D31
 10
2895.999999999955
 20
2089.500000000004
 30
0.0
 11
2860.750000089362
 21
1504.500000000004
 31
0.0
 70
   160
  1
（1170）
  3
ISO-25
100
AcDbAlignedDimension
 13
2490.999999999955
 23
919.5000000000036
 33
0.0
 14
2531.799999999756
 24
2089.500000000004
 34
0.0
 50
90.0
100
AcDbRotatedDimension
1001
ACAD
1000
DSTYLE
1002
{
1070
   270
1070
     2
1070
     6
1000
EX_NORM
1070
     7
1000
EX_NORM
1070
    41
1040
44.99999618530273
1070
    42
1040
10.49999982118607
1070
    44
1040
15.0
1070
    73
1070
     0
1070
    74
1070
     0
1070
    75
1070
     0
1070
    76
1070
     1
1070
    77
1070
     1
1070
    78
1070
     0
1070
   140
1040
59.99999618530273
1070
   147
1040
0.0
1070
   173
1070
     1
1070
   176
1070
     3
1070
   177
1070
     3
1070
   178
1070
     2
1070
   271
1070
     0
1070
   277
1070
     2
1070
   279
1070
     2
1070
   280
1070
     0
1070
   287
1070
     5
1070
   340
1005
4C6
1002
}
  0
DIMENSION
  5
5BE
330
1F
100
AcDbEntity
  8
寸法
  6
CONTINUOUS
 62
     3
100
AcDbDimension
  2
*D32
 10
1171.000000000105
 20
4005.0
 30
0.0
 11
1384.000000000126
 21
4040.249999910593
 31
0.0
 70
   160
  1
210（壁給水）
  3
ISO-25
100
AcDbAlignedDimension
 13
961.0000000000649
 23
3835.4999998212
 33
0.0
 14
1171.000000000105
 24
3843.4999998212
 34
0.0
100
AcDbRotatedDimension
1001
ACAD
1000
DSTYLE
1002
{
1070
   270
1070
     2
1070
     6
1000
EX_NORM
1070
     7
1000
EX_NORM
1070
    41
1040
44.99999618530273
1070
    42
1040
10.49999982118561
1070
    44
1040
15.0
1070
    73
1070
     0
1070
    74
1070
     0
1070
    75
1070
     0
1070
    76
1070
     0
1070
    77
1070
     1
1070
    78
1070
     0
1070
   140
1040
59.99999618530273
1070
   147
1040
0.0
1070
   173
1070
     1
1070
   176
1070
     3
1070
   177
1070
     3
1070
   178
1070
     2
1070
   271
1070
     0
1070
   277
1070
     2
1070
   279
1070
     2
1070
   280
1070
     0
1070
   287
1070
     5
1070
   340
1005
4C6
1002
}
  0
DIMENSION
  5
5CB
330
1F
100
AcDbEntity
  8
寸法
  6
CONTINUOUS
 62
     3
100
AcDbDimension
  2
*D33
 10
1171.000000000095
 20
709.5
 30
0.0
 11
1388.500000000116
 21
744.749999910593
 31
0.0
 70
   160
  1
210（床給水）
  3
ISO-25
100
AcDbAlignedDimension
 13
961.0000000000551
 23
869.49999999998
 33
0.0
 14
1171.000000000095
 24
901.00000017881
 34
0.0
100
AcDbRotatedDimension
1001
ACAD
1000
DSTYLE
1002
{
1070
   270
1070
     2
1070
     6
1000
EX_NORM
1070
     7
1000
EX_NORM
1070
    41
1040
44.99999618530273
1070
    42
1040
10.49999982118607
1070
    44
1040
15.0
1070
    73
1070
     0
1070
    74
1070
     0
1070
    75
1070
     0
1070
    76
1070
     0
1070
    77
1070
     1
1070
    78
1070
     0
1070
   140
1040
59.99999618530273
1070
   147
1040
0.0
1070
   173
1070
     1
1070
   176
1070
     3
1070
   177
1070
     3
1070
   178
1070
     2
1070
   271
1070
     0
1070
   277
1070
     2
1070
   279
1070
     2
1070
   280
1070
     0
1070
   287
1070
     5
1070
   340
1005
4C6
1002
}
  0
ENDSEC
  0
SECTION
  2
OBJECTS
  0
DICTIONARY
  5
C
330
0
100
AcDbDictionary
  3
ACAD_GROUP
350
D
  3
ACAD_LAYOUT
350
1A
  3
ACAD_MATERIAL
350
3B
  3
ACAD_MLEADERSTYLE
350
5FA
  3
ACAD_MLINESTYLE
350
17
  3
ACAD_PLOTSETTINGS
350
19
  3
ACAD_VISUALSTYLE
350
2A
  3
ACDBHEADERROUNDTRIPXREC
350
5D8
  3
ACDBVARIABLEDICTIONARY
350
5F8
  0
DICTIONARY
  5
D
102
{ACAD_REACTORS
330
C
102
}
330
C
100
AcDbDictionary
  0
DICTIONARY
  5
1A
102
{ACAD_REACTORS
330
C
102
}
330
C
100
AcDbDictionary
  0
DICTIONARY
  5
3B
102
{ACAD_REACTORS
330
C
102
}
330
C
100
AcDbDictionary
  3
BYBLOCK
350
3D
  3
BYLAYER
350
3C
  3
GLOBAL
350
3E
  0
DICTIONARY
  5
5FA
102
{ACAD_REACTORS
330
C
102
}
330
C
100
AcDbDictionary
  0
DICTIONARY
  5
17
102
{ACAD_REACTORS
330
C
102
}
330
C
100
AcDbDictionary
  3
STANDARD
350
18
  0
DICTIONARY
  5
19
102
{ACAD_REACTORS
330
C
102
}
330
C
100
AcDbDictionary
  0
DICTIONARY
  5
2A
102
{ACAD_REACTORS
330
C
102
}
330
C
100
AcDbDictionary
  3
2DWIREFRAME
350
2F
  3
3D_HIDDEN
350
31
  3
3DWIREFRAME
350
30
  3
BASIC
350
32
  3
BRIGHTEN
350
36
  3
COLORCHANGE
350
3A
  3
CONCEPTUAL
350
34
  3
DIM
350
35
  3
FACEPATTERN
350
39
  3
FLAT
350
2B
  3
FLATWITHEDGES
350
2C
  3
GOURAUD
350
2D
  3
GOURAUDWITHEDGES
350
2E
  3
LINEPATTERN
350
38
  3
REALISTIC
350
33
  3
THICKEN
350
37
  0
DICTIONARY
  5
5D8
102
{ACAD_REACTORS
330
C
102
}
330
C
100
AcDbDictionary
  3
CEPSNTYPE
350
5E1
  3
DIMSTYLEDATA
350
5F7
  3
FINGERPRINTGUID
350
5E2
  3
HYPERLINKBASE
350
5DB
  3
INSUNITS
350
5E0
  3
LAYOUTDICT
350
5DD
  3
LWETCUNION
350
5DF
  3
PLOTSETDICT
350
5DE
  3
PSVPSCALE
350
5E4
  3
PUCSBASE
350
5E7
  3
PUCSORGBACK
350
5ED
  3
PUCSORGBOTTOM
350
5E9
  3
PUCSORGFRONT
350
5EC
  3
PUCSORGLEFT
350
5EA
  3
PUCSORGRIGHT
350
5EB
  3
PUCSORGTOP
350
5E8
  3
PUCSORTHOREF
350
5E5
  3
PUCSORTHOVIEW
350
5E6
  3
STYLESHEET
350
5DC
  3
TSTACKALIGN
350
5D9
  3
TSTACKSIZE
350
5DA
  3
UCSBASE
350
5F0
  3
UCSORGBACK
350
5F6
  3
UCSORGBOTTOM
350
5F2
  3
UCSORGFRONT
350
5F5
  3
UCSORGLEFT
350
5F3
  3
UCSORGRIGHT
350
5F4
  3
UCSORGTOP
350
5F1
  3
UCSORTHOREF
350
5EE
  3
UCSORTHOVIEW
350
5EF
  3
VERSIONGUID
350
5E3
  0
DICTIONARY
  5
5F8
102
{ACAD_REACTORS
330
C
102
}
330
C
100
AcDbDictionary
  3
DIMASSOC
350
5FD
  3
HIDETEXT
350
5FE
  3
PSOLHEIGHT
350
5FC
  3
PSOLWIDTH
350
5FB
  0
MATERIAL
  5
3D
102
{ACAD_REACTORS
330
3B
102
}
102
{ACAD_XDICTIONARY
360
601
102
}
330
3B
100
AcDbMaterial
  1
ByBlock
  0
MATERIAL
  5
3C
102
{ACAD_REACTORS
330
3B
102
}
102
{ACAD_XDICTIONARY
360
5FF
102
}
330
3B
100
AcDbMaterial
  1
ByLayer
  0
MATERIAL
  5
3E
102
{ACAD_REACTORS
330
3B
102
}
102
{ACAD_XDICTIONARY
360
603
102
}
330
3B
100
AcDbMaterial
  1
Global
  0
MLINESTYLE
  5
18
102
{ACAD_REACTORS
330
17
102
}
330
17
100
AcDbMlineStyle
  2
Standard
 70
     0
  3

 62
   256
 51
90.0
 52
90.0
 71
     2
 49
0.5
 62
   256
  6
BYLAYER
 49
-0.5
 62
   256
  6
BYLAYER
  0
ACAD_PROXY_OBJECT
  5
2F
102
{ACAD_REACTORS
330
2A
102
}
330
2A
100
AcDbProxyObject
 90
      499
 91
      501
 93
      436
310
42CC9915DA5C99599C985B595049028333333333333E3BF0000000000000FB0107901411070040501600405405064090741402480A0340
1001
ACAD
1000
AcDbSavedByObjectVersion
1070
     0
  0
ACAD_PROXY_OBJECT
  5
31
102
{ACAD_REACTORS
330
2A
102
}
330
2A
100
AcDbProxyObject
 90
      499
 91
      501
 93
      500
310
424CD108121A5919195B90640502408333333333333E3BF0000000000000FB01079024090700405020000000000001110200405405064090740C02480A0340
1001
ACAD
1000
AcDbSavedByObjectVersion
1070
     0
  0
ACAD_PROXY_OBJECT
  5
30
102
{ACAD_REACTORS
330
2A
102
}
330
2A
100
AcDbProxyObject
 90
      499
 91
      501
 93
      436
310
42CCD915DA5C99599C985B595059028333333333333E3BF0000000000000FB0107901411070040501600405405064090741402480A0340
1001
ACAD
1000
AcDbSavedByObjectVersion
1070
     0
  0
ACAD_PROXY_OBJECT
  5
32
102
{ACAD_REACTORS
330
2A
102
}
330
2A
100
AcDbProxyObject
 90
      499
 91
      501
 93
      388
310
4150985CDA58D07406404333333333333E3BF0000000000000FB0107A41107004050150841D405064090741402480A0350
1001
ACAD
1000
AcDbSavedByObjectVersion
1070
     0
  0
ACAD_PROXY_OBJECT
  5
36
102
{ACAD_REACTORS
330
2A
102
}
330
2A
100
AcDbProxyObject
 90
      499
 91
      501
 93
      428
310
42109C9A59DA1D195B90C409028333333333333E3BF0000000000000FB010790141107004050150841D405064090741402480A029950
1001
ACAD
1000
AcDbSavedByObjectVersion
1070
     0
  0
ACAD_PROXY_OBJECT
  5
3A
102
{ACAD_REACTORS
330
2A
102
}
330
2A
100
AcDbProxyObject
 90
      499
 91
      501
 93
      452
310
42D0DBDB1BDC90DA185B99D95104090240C333333333333E3BF0000000000000FB0108901411070040501508421405064090741402480A0350
1001
ACAD
1000
AcDbSavedByObjectVersion
1070
     0
  0
ACAD_PROXY_OBJECT
  5
34
102
{ACAD_REACTORS
330
2A
102
}
330
2A
100
AcDbProxyObject
 90
      499
 91
      501
 93
      500
310
4290DBDB98D95C1D1D585B10940D028333333333333E3BF0000000000000FB0107902409070040501000000000000111010841D405064090740C02480A0340
1001
ACAD
1000
AcDbSavedByObjectVersion
1070
     0
  0
ACAD_PROXY_OBJECT
  5
35
102
{ACAD_REACTORS
330
2A
102
}
330
2A
100
AcDbProxyObject
 90
      499
 91
      501
 93
      412
310
40D11A5B50B409028333333333333E3BF0000000000000FB010790141107004050150841D405064090741402480A02677FFFFFD0
1001
ACAD
1000
AcDbSavedByObjectVersion
1070
     0
  0
ACAD_PROXY_OBJECT
  5
39
102
{ACAD_REACTORS
330
2A
102
}
330
2A
100
AcDbProxyObject
 90
      499
 91
      501
 93
      444
310
42D19858D95C185D1D195C9B90F409028333333333333E3BF0000000000000FB010790141107004050150841D405064090741402480A0350
1001
ACAD
1000
AcDbSavedByObjectVersion
1070
     0
  0
ACAD_PROXY_OBJECT
  5
2B
102
{ACAD_REACTORS
330
2A
102
}
330
2A
100
AcDbProxyObject
 90
      499
 91
      501
 93
      388
310
41119B185D240901404333333333333E3BF0000000000000F9010740A41107004050150841D405064090741402480A1B50
1001
ACAD
1000
AcDbSavedByObjectVersion
1070
     0
  0
ACAD_PROXY_OBJECT
  5
2C
102
{ACAD_REACTORS
330
2A
102
}
330
2A
100
AcDbProxyObject
 90
      499
 91
      501
 93
      476
310
43519B185D15DA5D1A115919D95CD0140901404333333333333E3BF0000000000000F9010740901411070040501600405405064090741402480A1B50
1001
ACAD
1000
AcDbSavedByObjectVersion
1070
     0
  0
ACAD_PROXY_OBJECT
  5
2D
102
{ACAD_REACTORS
330
2A
102
}
330
2A
100
AcDbProxyObject
 90
      499
 91
      501
 93
      412
310
41D1DBDD5C985D5910240902404333333333333E3BF0000000000000F9010740A411070040501641D405064090741402480A1B50
1001
ACAD
1000
AcDbSavedByObjectVersion
1070
     0
  0
ACAD_PROXY_OBJECT
  5
2E
102
{ACAD_REACTORS
330
2A
102
}
330
2A
100
AcDbProxyObject
 90
      499
 91
      501
 93
      500
310
4411DBDD5C985D5915DA5D1A115919D95CD0340902404333333333333E3BF0000000000000F9010740901411070040501600405405064090741402480A1B50
1001
ACAD
1000
AcDbSavedByObjectVersion
1070
     0
  0
ACAD_PROXY_OBJECT
  5
38
102
{ACAD_REACTORS
330
2A
102
}
330
2A
100
AcDbProxyObject
 90
      499
 91
      501
 93
      444
310
42D31A5B995C185D1D195C9B90E409028333333333333E3BF0000000000000FB010790141107004050750841D405064090741402483A0350
1001
ACAD
1000
AcDbSavedByObjectVersion
1070
     0
  0
ACAD_PROXY_OBJECT
  5
33
102
{ACAD_REACTORS
330
2A
102
}
330
2A
100
AcDbProxyObject
 90
      499
 91
      501
 93
      420
310
425499585B1A5CDD1A58D08409028333333333333E3BF0000000000000FB01079019070040501508421405064090741402480A1B40
1001
ACAD
1000
AcDbSavedByObjectVersion
1070
     0
  0
ACAD_PROXY_OBJECT
  5
37
102
{ACAD_REACTORS
330
2A
102
}
330
2A
100
AcDbProxyObject
 90
      499
 91
      501
 93
      412
310
41D51A1A58DAD95B90D409028333333333333E3BF0000000000000FB010790141107004050150C41D405064090741402480A0350
1001
ACAD
1000
AcDbSavedByObjectVersion
1070
     0
  0
XRECORD
  5
5E1
102
{ACAD_REACTORS
330
5D8
102
}
330
5D8
100
AcDbXrecord
 90
        0
  0
XRECORD
  5
5F7
102
{ACAD_REACTORS
330
5D8
102
}
330
5D8
100
AcDbXrecord
1000
DSTYLE
1002
{
1070
   340
340
11
1002
}
  0
XRECORD
  5
5E2
102
{ACAD_REACTORS
330
5D8
102
}
330
5D8
100
AcDbXrecord
  1
{99CDD2B4-0274-407E-A6DA-3CF6FA0673C5}
  0
XRECORD
  5
5DB
102
{ACAD_REACTORS
330
5D8
102
}
330
5D8
100
AcDbXrecord
  1

  0
XRECORD
  5
5E0
102
{ACAD_REACTORS
330
5D8
102
}
330
5D8
100
AcDbXrecord
 90
        4
  0
XRECORD
  5
5DD
102
{ACAD_REACTORS
330
5D8
102
}
330
5D8
100
AcDbXrecord
340
1A
  0
XRECORD
  5
5DF
102
{ACAD_REACTORS
330
5D8
102
}
330
5D8
100
AcDbXrecord
 90
    10781
  0
XRECORD
  5
5DE
102
{ACAD_REACTORS
330
5D8
102
}
330
5D8
100
AcDbXrecord
340
19
  0
XRECORD
  5
5E4
102
{ACAD_REACTORS
330
5D8
102
}
330
5D8
100
AcDbXrecord
 40
0.0
  0
XRECORD
  5
5E7
102
{ACAD_REACTORS
330
5D8
102
}
330
5D8
100
AcDbXrecord
340
0
  0
XRECORD
  5
5ED
102
{ACAD_REACTORS
330
5D8
102
}
330
5D8
100
AcDbXrecord
 10
0.0
 20
0.0
 30
0.0
  0
XRECORD
  5
5E9
102
{ACAD_REACTORS
330
5D8
102
}
330
5D8
100
AcDbXrecord
 10
0.0
 20
0.0
 30
0.0
  0
XRECORD
  5
5EC
102
{ACAD_REACTORS
330
5D8
102
}
330
5D8
100
AcDbXrecord
 10
0.0
 20
0.0
 30
0.0
  0
XRECORD
  5
5EA
102
{ACAD_REACTORS
330
5D8
102
}
330
5D8
100
AcDbXrecord
 10
0.0
 20
0.0
 30
0.0
  0
XRECORD
  5
5EB
102
{ACAD_REACTORS
330
5D8
102
}
330
5D8
100
AcDbXrecord
 10
0.0
 20
0.0
 30
0.0
  0
XRECORD
  5
5E8
102
{ACAD_REACTORS
330
5D8
102
}
330
5D8
100
AcDbXrecord
 10
0.0
 20
0.0
 30
0.0
  0
XRECORD
  5
5E5
102
{ACAD_REACTORS
330
5D8
102
}
330
5D8
100
AcDbXrecord
340
0
  0
XRECORD
  5
5E6
102
{ACAD_REACTORS
330
5D8
102
}
330
5D8
100
AcDbXrecord
 70
     0
  0
XRECORD
  5
5DC
102
{ACAD_REACTORS
330
5D8
102
}
330
5D8
100
AcDbXrecord
  1

  0
XRECORD
  5
5D9
102
{ACAD_REACTORS
330
5D8
102
}
330
5D8
100
AcDbXrecord
 90
        1
  0
XRECORD
  5
5DA
102
{ACAD_REACTORS
330
5D8
102
}
330
5D8
100
AcDbXrecord
 90
       70
  0
XRECORD
  5
5F0
102
{ACAD_REACTORS
330
5D8
102
}
330
5D8
100
AcDbXrecord
340
0
  0
XRECORD
  5
5F6
102
{ACAD_REACTORS
330
5D8
102
}
330
5D8
100
AcDbXrecord
 10
0.0
 20
0.0
 30
0.0
  0
XRECORD
  5
5F2
102
{ACAD_REACTORS
330
5D8
102
}
330
5D8
100
AcDbXrecord
 10
0.0
 20
0.0
 30
0.0
  0
XRECORD
  5
5F5
102
{ACAD_REACTORS
330
5D8
102
}
330
5D8
100
AcDbXrecord
 10
0.0
 20
0.0
 30
0.0
  0
XRECORD
  5
5F3
102
{ACAD_REACTORS
330
5D8
102
}
330
5D8
100
AcDbXrecord
 10
0.0
 20
0.0
 30
0.0
  0
XRECORD
  5
5F4
102
{ACAD_REACTORS
330
5D8
102
}
330
5D8
100
AcDbXrecord
 10
0.0
 20
0.0
 30
0.0
  0
XRECORD
  5
5F1
102
{ACAD_REACTORS
330
5D8
102
}
330
5D8
100
AcDbXrecord
 10
0.0
 20
0.0
 30
0.0
  0
XRECORD
  5
5EE
102
{ACAD_REACTORS
330
5D8
102
}
330
5D8
100
AcDbXrecord
340
0
  0
XRECORD
  5
5EF
102
{ACAD_REACTORS
330
5D8
102
}
330
5D8
100
AcDbXrecord
 70
     0
  0
XRECORD
  5
5E3
102
{ACAD_REACTORS
330
5D8
102
}
330
5D8
100
AcDbXrecord
  1
{FAEB1C32-E019-11D5-929B-00C0DF256EC4}
  0
DICTIONARYVAR
  5
5FD
102
{ACAD_REACTORS
330
5F8
102
}
330
5F8
100
DictionaryVariables
280
     0
  1
2
  0
DICTIONARYVAR
  5
5FE
102
{ACAD_REACTORS
330
5F8
102
}
330
5F8
100
DictionaryVariables
280
     0
  1
1
  0
DICTIONARYVAR
  5
5FC
102
{ACAD_REACTORS
330
5F8
102
}
330
5F8
100
DictionaryVariables
280
     0
  1
80.000000
  0
DICTIONARYVAR
  5
5FB
102
{ACAD_REACTORS
330
5F8
102
}
330
5F8
100
DictionaryVariables
280
     0
  1
5.000000
  0
DICTIONARY
  5
601
330
3D
100
AcDbDictionary
280
     1
  3
ACAD_XREC_ROUNDTRIP
360
602
  0
DICTIONARY
  5
5FF
330
3C
100
AcDbDictionary
280
     1
  3
ACAD_XREC_ROUNDTRIP
360
600
  0
DICTIONARY
  5
603
330
3E
100
AcDbDictionary
280
     1
  3
ACAD_XREC_ROUNDTRIP
360
604
  0
XRECORD
  5
602
102
{ACAD_REACTORS
330
601
102
}
330
601
100
AcDbXrecord
102
MATERIAL
148
0.0
149
0.0
149
0.0
 93
        0
 94
      127
282
     0
 72
     1
 77
     1
171
     1
175
     1
179
     1
273
     0
  0
XRECORD
  5
600
102
{ACAD_REACTORS
330
5FF
102
}
330
5FF
100
AcDbXrecord
102
MATERIAL
148
0.0
149
0.0
149
0.0
 93
        0
 94
      127
282
     0
 72
     1
 77
     1
171
     1
175
     1
179
     1
273
     0
  0
XRECORD
  5
604
102
{ACAD_REACTORS
330
603
102
}
330
603
100
AcDbXrecord
102
MATERIAL
148
0.0
149
0.0
149
0.0
 93
        0
 94
      127
282
     0
 72
     1
 77
     1
171
     1
175
     1
179
     1
273
     0
  0
ENDSEC
  0
EOF
