  0
SECTION
  2
HEADER
  9
$ACADVER
  1
AC1014
  9
$ACADMAINTVER
 70
     9
  9
$DWGCODEPAGE
  3
ANSI_932
  9
$INSBASE
 10
0.0
 20
0.0
 30
0.0
  9
$EXTMIN
 10
17.400000000044
 20
9.299999999999955
 30
0.0
  9
$EXTMAX
 10
199.4000000000443
 20
289.3
 30
0.0
  9
$LIMMIN
 10
0.0
 20
0.0
  9
$LIMMAX
 10
210.0
 20
297.0
  9
$ORTHOMODE
 70
     0
  9
$REGENMODE
 70
     1
  9
$FILLMODE
 70
     1
  9
$QTEXTMODE
 70
     0
  9
$MIRRTEXT
 70
     1
  9
$DRAGMODE
 70
     2
  9
$LTSCALE
 40
1.0
  9
$OSMODE
 70
    37
  9
$ATTMODE
 70
     1
  9
$TEXTSIZE
 40
2.5
  9
$TRACEWID
 40
1.0
  9
$TEXTSTYLE
  7
STANDARD
  9
$CLAYER
  8
化粧台
  9
$CELTYPE
  6
BYLAYER
  9
$CECOLOR
 62
   256
  9
$CELTSCALE
 40
1.0
  9
$DELOBJ
 70
     1
  9
$DISPSILH
 70
     0
  9
$DIMSCALE
 40
1.0
  9
$DIMASZ
 40
2.5
  9
$DIMEXO
 40
0.625
  9
$DIMDLI
 40
3.75
  9
$DIMRND
 40
0.0
  9
$DIMDLE
 40
0.0
  9
$DIMEXE
 40
1.25
  9
$DIMTP
 40
0.0
  9
$DIMTM
 40
0.0
  9
$DIMTXT
 40
2.5
  9
$DIMCEN
 40
2.5
  9
$DIMTSZ
 40
0.0
  9
$DIMTOL
 70
     0
  9
$DIMLIM
 70
     0
  9
$DIMTIH
 70
     0
  9
$DIMTOH
 70
     0
  9
$DIMSE1
 70
     0
  9
$DIMSE2
 70
     0
  9
$DIMTAD
 70
     1
  9
$DIMZIN
 70
     8
  9
$DIMBLK
  1

  9
$DIMASO
 70
     1
  9
$DIMSHO
 70
     1
  9
$DIMPOST
  1

  9
$DIMAPOST
  1

  9
$DIMALT
 70
     0
  9
$DIMALTD
 70
     3
  9
$DIMALTF
 40
0.03937007874016
  9
$DIMLFAC
 40
1.0
  9
$DIMTOFL
 70
     1
  9
$DIMTVP
 40
0.0
  9
$DIMTIX
 70
     0
  9
$DIMSOXD
 70
     0
  9
$DIMSAH
 70
     0
  9
$DIMBLK1
  1

  9
$DIMBLK2
  1

  9
$DIMSTYLE
  2
ISO-25
  9
$DIMCLRD
 70
     0
  9
$DIMCLRE
 70
     0
  9
$DIMCLRT
 70
     0
  9
$DIMTFAC
 40
1.0
  9
$DIMGAP
 40
0.625
  9
$DIMJUST
 70
     0
  9
$DIMSD1
 70
     0
  9
$DIMSD2
 70
     0
  9
$DIMTOLJ
 70
     0
  9
$DIMTZIN
 70
     8
  9
$DIMALTZ
 70
     0
  9
$DIMALTTZ
 70
     0
  9
$DIMFIT
 70
     3
  9
$DIMUPT
 70
     0
  9
$DIMUNIT
 70
     2
  9
$DIMDEC
 70
     2
  9
$DIMTDEC
 70
     2
  9
$DIMALTU
 70
     2
  9
$DIMALTTD
 70
     3
  9
$DIMTXSTY
  7
STANDARD
  9
$DIMAUNIT
 70
     0
  9
$LUNITS
 70
     2
  9
$LUPREC
 70
     4
  9
$SKETCHINC
 40
1.0
  9
$FILLETRAD
 40
10.0
  9
$AUNITS
 70
     0
  9
$AUPREC
 70
     0
  9
$MENU
  1
.
  9
$ELEVATION
 40
0.0
  9
$PELEVATION
 40
0.0
  9
$THICKNESS
 40
0.0
  9
$LIMCHECK
 70
     0
  9
$CHAMFERA
 40
10.0
  9
$CHAMFERB
 40
10.0
  9
$CHAMFERC
 40
20.0
  9
$CHAMFERD
 40
0.0
  9
$SKPOLY
 70
     0
  9
$TDCREATE
 40
2460095.493058252
  9
$TDUPDATE
 40
2460095.49305875
  9
$TDINDWG
 40
0.0000000116
  9
$TDUSRTIMER
 40
0.0000000116
  9
$USRTIMER
 70
     1
  9
$ANGBASE
 50
0.0
  9
$ANGDIR
 70
     0
  9
$PDMODE
 70
     0
  9
$PDSIZE
 40
0.0
  9
$PLINEWID
 40
0.0
  9
$COORDS
 70
     1
  9
$SPLFRAME
 70
     0
  9
$SPLINETYPE
 70
     6
  9
$SPLINESEGS
 70
     8
  9
$ATTDIA
 70
     0
  9
$ATTREQ
 70
     1
  9
$HANDLING
 70
     1
  9
$HANDSEED
  5
5EF
  9
$SURFTAB1
 70
     6
  9
$SURFTAB2
 70
     6
  9
$SURFTYPE
 70
     6
  9
$SURFU
 70
     6
  9
$SURFV
 70
     6
  9
$UCSNAME
  2

  9
$UCSORG
 10
0.0
 20
0.0
 30
0.0
  9
$UCSXDIR
 10
1.0
 20
0.0
 30
0.0
  9
$UCSYDIR
 10
0.0
 20
1.0
 30
0.0
  9
$PUCSNAME
  2

  9
$PUCSORG
 10
0.0
 20
0.0
 30
0.0
  9
$PUCSXDIR
 10
1.0
 20
0.0
 30
0.0
  9
$PUCSYDIR
 10
0.0
 20
1.0
 30
0.0
  9
$USERI1
 70
     0
  9
$USERI2
 70
     0
  9
$USERI3
 70
     0
  9
$USERI4
 70
     0
  9
$USERI5
 70
     0
  9
$USERR1
 40
0.0
  9
$USERR2
 40
0.0
  9
$USERR3
 40
0.0
  9
$USERR4
 40
0.0
  9
$USERR5
 40
0.0
  9
$WORLDVIEW
 70
     1
  9
$SHADEDGE
 70
     3
  9
$SHADEDIF
 70
    70
  9
$TILEMODE
 70
     1
  9
$MAXACTVP
 70
    64
  9
$PINSBASE
 10
0.0
 20
0.0
 30
0.0
  9
$PLIMCHECK
 70
     0
  9
$PEXTMIN
 10
1.000000000000000E+20
 20
1.000000000000000E+20
 30
1.000000000000000E+20
  9
$PEXTMAX
 10
-1.000000000000000E+20
 20
-1.000000000000000E+20
 30
-1.000000000000000E+20
  9
$PLIMMIN
 10
0.0
 20
0.0
  9
$PLIMMAX
 10
420.0
 20
297.0
  9
$UNITMODE
 70
     0
  9
$VISRETAIN
 70
     1
  9
$PLINEGEN
 70
     0
  9
$PSLTSCALE
 70
     1
  9
$TREEDEPTH
 70
  3020
  9
$PICKSTYLE
 70
     1
  9
$CMLSTYLE
  2
STANDARD
  9
$CMLJUST
 70
     0
  9
$CMLSCALE
 40
20.0
  9
$PROXYGRAPHICS
 70
     1
  9
$MEASUREMENT
 70
     1
  0
ENDSEC
  0
SECTION
  2
CLASSES
  0
CLASS
  1
ACDBDICTIONARYWDFLT
  2
AcDbDictionaryWithDefault
  3
ObjectDBX Classes
 90
        0
280
     0
281
     0
  0
CLASS
  1
VISUALSTYLE
  2
AcDbVisualStyle
  3
ObjectDBX Classes
 90
     4095
280
     0
281
     0
  0
CLASS
  1
MATERIAL
  2
AcDbMaterial
  3
ObjectDBX Classes
 90
     1153
280
     0
281
     0
  0
CLASS
  1
SUN
  2
AcDbSun
  3
SCENEOE
 90
     1024
280
     0
281
     0
  0
CLASS
  1
DICTIONARYVAR
  2
AcDbDictionaryVar
  3
ObjectDBX Classes
 90
        0
280
     0
281
     0
  0
CLASS
  1
XRECORD
  2
AcDbXrecord
  3
AutoCAD 2000
 90
        0
280
     0
281
     0
  0
CLASS
  1
LWPOLYLINE
  2
AcDbPolyline
  3
AutoCAD 2000
 90
        0
280
     0
281
     1
  0
CLASS
  1
HATCH
  2
AcDbHatch
  3
AutoCAD 2000
 90
        0
280
     0
281
     1
  0
CLASS
  1
ACDBPLACEHOLDER
  2
AcDbPlaceHolder
  3
ObjectDBX Classes
 90
        0
280
     0
281
     0
  0
CLASS
  1
LAYOUT
  2
AcDbLayout
  3
ObjectDBX Classes
 90
        0
280
     0
281
     0
  0
ENDSEC
  0
SECTION
  2
TABLES
  0
TABLE
  2
VPORT
  5
8
330
0
100
AcDbSymbolTable
 70
     1
  0
VPORT
  5
29
330
8
100
AcDbSymbolTableRecord
100
AcDbViewportTableRecord
  2
*ACTIVE
 70
     0
 10
0.0
 20
0.0
 11
1.0
 21
1.0
 12
1626.000000000662
 22
2239.5
 13
0.0
 23
0.0
 14
10.0
 24
10.0
 15
10.0
 25
10.0
 16
0.0
 26
0.0
 36
1.0
 17
0.0
 27
0.0
 37
0.0
 40
4200.000000000001
 41
0.6500000000000008
 42
50.0
 43
0.0
 44
0.0
 50
0.0
 51
0.0
 71
     0
 72
  1000
 73
     1
 74
     3
 75
     0
 76
     0
 77
     0
 78
     0
  0
ENDTAB
  0
TABLE
  2
LTYPE
  5
5
330
0
100
AcDbSymbolTable
 70
     7
  0
LTYPE
  5
14
330
5
100
AcDbSymbolTableRecord
100
AcDbLinetypeTableRecord
  2
BYBLOCK
 70
     0
  3

 72
    65
 73
     0
 40
0.0
  0
LTYPE
  5
15
330
5
100
AcDbSymbolTableRecord
100
AcDbLinetypeTableRecord
  2
BYLAYER
 70
     0
  3

 72
    65
 73
     0
 40
0.0
  0
LTYPE
  5
16
330
5
100
AcDbSymbolTableRecord
100
AcDbLinetypeTableRecord
  2
CONTINUOUS
 70
     0
  3
Solid line
 72
    65
 73
     0
 40
0.0
  0
LTYPE
  5
40
330
5
100
AcDbSymbolTableRecord
100
AcDbLinetypeTableRecord
  2
EXLTYPE1
 70
     0
  3
破線
 72
    65
 73
     2
 40
3.0
 49
2.0
 74
     0
 49
-1.0
 74
     0
  0
LTYPE
  5
41
330
5
100
AcDbSymbolTableRecord
100
AcDbLinetypeTableRecord
  2
EXLTYPE2
 70
     0
  3
点線
 72
    65
 73
     2
 40
2.0
 49
1.0
 74
     0
 49
-1.0
 74
     0
  0
LTYPE
  5
42
330
5
100
AcDbSymbolTableRecord
100
AcDbLinetypeTableRecord
  2
EXLTYPE3
 70
     0
  3
一点鎖線
 72
    65
 73
     4
 40
10.0
 49
7.0
 74
     0
 49
-1.0
 74
     0
 49
1.0
 74
     0
 49
-1.0
 74
     0
  0
LTYPE
  5
43
330
5
100
AcDbSymbolTableRecord
100
AcDbLinetypeTableRecord
  2
EXLTYPE4
 70
     0
  3
二点鎖線
 72
    65
 73
     6
 40
12.0
 49
7.0
 74
     0
 49
-1.0
 74
     0
 49
1.0
 74
     0
 49
-1.0
 74
     0
 49
1.0
 74
     0
 49
-1.0
 74
     0
  0
LTYPE
  5
44
330
5
100
AcDbSymbolTableRecord
100
AcDbLinetypeTableRecord
  2
EXLTYPE5
 70
     0
  3
三点鎖線
 72
    65
 73
     8
 40
37.0
 49
30.0
 74
     0
 49
-1.0
 74
     0
 49
1.0
 74
     0
 49
-1.0
 74
     0
 49
1.0
 74
     0
 49
-1.0
 74
     0
 49
1.0
 74
     0
 49
-1.0
 74
     0
  0
LTYPE
  5
45
330
5
100
AcDbSymbolTableRecord
100
AcDbLinetypeTableRecord
  2
EXLTYPE6
 70
     0
  3
四点鎖線
 72
    65
 73
    10
 40
39.0
 49
30.0
 74
     0
 49
-1.0
 74
     0
 49
1.0
 74
     0
 49
-1.0
 74
     0
 49
1.0
 74
     0
 49
-1.0
 74
     0
 49
1.0
 74
     0
 49
-1.0
 74
     0
 49
1.0
 74
     0
 49
-1.0
 74
     0
  0
ENDTAB
  0
TABLE
  2
LAYER
  5
2
330
0
100
AcDbSymbolTable
 70
     7
  0
LAYER
  5
10
330
2
100
AcDbSymbolTableRecord
100
AcDbLayerTableRecord
  2
0
 70
     0
 62
     7
  6
CONTINUOUS
  0
LAYER
  5
48
330
2
100
AcDbSymbolTableRecord
100
AcDbLayerTableRecord
  2
枠_表
 70
     0
 62
     7
  6
CONTINUOUS
  0
LAYER
  5
49
330
2
100
AcDbSymbolTableRecord
100
AcDbLayerTableRecord
  2
化粧台
 70
     0
 62
     7
  6
CONTINUOUS
  0
LAYER
  5
4A
330
2
100
AcDbSymbolTableRecord
100
AcDbLayerTableRecord
  2
鏡台
 70
     0
 62
     7
  6
CONTINUOUS
  0
LAYER
  5
4B
330
2
100
AcDbSymbolTableRecord
100
AcDbLayerTableRecord
  2
付属金具
 70
     0
 62
     7
  6
CONTINUOUS
  0
LAYER
  5
4C
330
2
100
AcDbSymbolTableRecord
100
AcDbLayerTableRecord
  2
寸法
 70
     0
 62
     7
  6
CONTINUOUS
  0
LAYER
  5
4A9
330
2
100
AcDbSymbolTableRecord
100
AcDbLayerTableRecord
  2
DEFPOINTS
 70
     0
 62
     7
  6
CONTINUOUS
  0
ENDTAB
  0
TABLE
  2
STYLE
  5
3
330
0
100
AcDbSymbolTable
 70
     5
  0
STYLE
  5
11
330
3
100
AcDbSymbolTableRecord
100
AcDbTextStyleTableRecord
  2
STANDARD
 70
     0
 40
0.0
 41
1.0
 50
0.0
 71
     0
 42
2.5
  3
monotxt
  4
extfont
  0
STYLE
  5
46
330
3
100
AcDbSymbolTableRecord
100
AcDbTextStyleTableRecord
  2
EXCADSTD
 70
     0
 40
0.0
 41
1.0
 50
0.0
 71
     0
 42
0.2
  3
monotxt
  4
extfont
  0
STYLE
  5
47
330
3
100
AcDbSymbolTableRecord
100
AcDbTextStyleTableRecord
  2
EXCADVERT
 70
     4
 40
0.0
 41
1.0
 50
0.0
 71
     0
 42
0.286885
  3
monotxt
  4
extfont
  0
STYLE
  5
AF
330
3
100
AcDbSymbolTableRecord
100
AcDbTextStyleTableRecord
  2
EXCADTTF1
 70
     0
 40
0.0
 41
1.0
 50
0.0
 71
     0
 42
0.2
  3
MSGOTHIC.TTC
  4

1001
ACAD
1000
MS Gothic
1071
    32817
  0
STYLE
  5
4A7
330
3
100
AcDbSymbolTableRecord
100
AcDbTextStyleTableRecord
  2
EXCADDIM1
 70
     0
 40
0.0
 41
0.84
 50
0.0
 71
     0
 42
0.2
  3
monotxt
  4
extfont
  0
ENDTAB
  0
TABLE
  2
VIEW
  5
6
330
0
100
AcDbSymbolTable
 70
     0
  0
ENDTAB
  0
TABLE
  2
UCS
  5
7
330
0
100
AcDbSymbolTable
 70
     0
  0
ENDTAB
  0
TABLE
  2
APPID
  5
9
330
0
100
AcDbSymbolTable
 70
     1
  0
APPID
  5
12
330
9
100
AcDbSymbolTableRecord
100
AcDbRegAppTableRecord
  2
ACAD
 70
     0
  0
ENDTAB
  0
TABLE
  2
DIMSTYLE
  5
A
330
0
100
AcDbSymbolTable
 70
     1
  0
DIMSTYLE
105
27
102
{ACAD_REACTORS
330
4A8
330
4B5
330
4C1
330
4CE
330
4DC
330
4E8
330
4F4
330
501
330
510
330
51C
330
528
330
53B
330
548
330
554
330
56A
330
577
330
58C
330
59A
330
5A8
330
5B5
102
}
330
A
100
AcDbSymbolTableRecord
100
AcDbDimStyleTableRecord
  2
ISO-25
 70
     0
  3

  4

  5

  6

  7

 40
1.0
 41
2.5
 42
0.625
 43
3.75
 44
1.25
 45
0.0
 46
0.0
 47
0.0
 48
0.0
140
2.5
141
2.5
142
0.0
143
0.03937007874016
144
1.0
145
0.0
146
1.0
147
0.625
 71
     0
 72
     0
 73
     0
 74
     0
 75
     0
 76
     0
 77
     1
 78
     8
170
     0
171
     3
172
     1
173
     0
174
     0
175
     0
176
     0
177
     0
178
     0
270
     2
271
     2
272
     2
273
     2
274
     3
340
11
275
     0
280
     0
281
     0
282
     0
283
     0
284
     8
285
     0
286
     0
287
     5
288
     0
  0
ENDTAB
  0
TABLE
  2
BLOCK_RECORD
  5
1
330
0
100
AcDbSymbolTable
 70
    35
  0
BLOCK_RECORD
  5
1F
330
1
100
AcDbSymbolTableRecord
100
AcDbBlockTableRecord
  2
*MODEL_SPACE
  0
BLOCK_RECORD
  5
1B
330
1
100
AcDbSymbolTableRecord
100
AcDbBlockTableRecord
  2
*PAPER_SPACE
  0
BLOCK_RECORD
  5
4D
330
1
100
AcDbSymbolTableRecord
100
AcDbBlockTableRecord
  2
EX_NORM
  0
BLOCK_RECORD
  5
50
330
1
100
AcDbSymbolTableRecord
100
AcDbBlockTableRecord
  2
EX_BNORM
  0
BLOCK_RECORD
  5
53
330
1
100
AcDbSymbolTableRecord
100
AcDbBlockTableRecord
  2
EX_BCIR
  0
BLOCK_RECORD
  5
56
330
1
100
AcDbSymbolTableRecord
100
AcDbBlockTableRecord
  2
EX_RCIVIL
  0
BLOCK_RECORD
  5
59
330
1
100
AcDbSymbolTableRecord
100
AcDbBlockTableRecord
  2
EX_SLANT
  0
BLOCK_RECORD
  5
5C
330
1
100
AcDbSymbolTableRecord
100
AcDbBlockTableRecord
  2
EX_NONE
  0
BLOCK_RECORD
  5
5F
330
1
100
AcDbSymbolTableRecord
100
AcDbBlockTableRecord
  2
EX_CIVIL
  0
BLOCK_RECORD
  5
62
330
1
100
AcDbSymbolTableRecord
100
AcDbBlockTableRecord
  2
EX_WCIR
  0
BLOCK_RECORD
  5
65
330
1
100
AcDbSymbolTableRecord
100
AcDbBlockTableRecord
  2
EX_WCIR2
  0
BLOCK_RECORD
  5
68
330
1
100
AcDbSymbolTableRecord
100
AcDbBlockTableRecord
  2
EX_WNORM
  0
BLOCK_RECORD
  5
6B
330
1
100
AcDbSymbolTableRecord
100
AcDbBlockTableRecord
  2
EX_NNORM
  0
BLOCK_RECORD
  5
6E
330
1
100
AcDbSymbolTableRecord
100
AcDbBlockTableRecord
  2
EX_BBOX
  0
BLOCK_RECORD
  5
71
330
1
100
AcDbSymbolTableRecord
100
AcDbBlockTableRecord
  2
EX_WBOX
  0
BLOCK_RECORD
  5
74
330
1
100
AcDbSymbolTableRecord
100
AcDbBlockTableRecord
  2
EX_INTEGRAL
  0
BLOCK_RECORD
  5
4AA
330
1
100
AcDbSymbolTableRecord
100
AcDbBlockTableRecord
  2
*D15
  0
BLOCK_RECORD
  5
4B6
330
1
100
AcDbSymbolTableRecord
100
AcDbBlockTableRecord
  2
*D16
  0
BLOCK_RECORD
  5
4C2
330
1
100
AcDbSymbolTableRecord
100
AcDbBlockTableRecord
  2
*D17
  0
BLOCK_RECORD
  5
4CF
330
1
100
AcDbSymbolTableRecord
100
AcDbBlockTableRecord
  2
*D18
  0
BLOCK_RECORD
  5
4DD
330
1
100
AcDbSymbolTableRecord
100
AcDbBlockTableRecord
  2
*D19
  0
BLOCK_RECORD
  5
4E9
330
1
100
AcDbSymbolTableRecord
100
AcDbBlockTableRecord
  2
*D20
  0
BLOCK_RECORD
  5
4F5
330
1
100
AcDbSymbolTableRecord
100
AcDbBlockTableRecord
  2
*D21
  0
BLOCK_RECORD
  5
502
330
1
100
AcDbSymbolTableRecord
100
AcDbBlockTableRecord
  2
*D22
  0
BLOCK_RECORD
  5
511
330
1
100
AcDbSymbolTableRecord
100
AcDbBlockTableRecord
  2
*D23
  0
BLOCK_RECORD
  5
51D
330
1
100
AcDbSymbolTableRecord
100
AcDbBlockTableRecord
  2
*D24
  0
BLOCK_RECORD
  5
529
330
1
100
AcDbSymbolTableRecord
100
AcDbBlockTableRecord
  2
*D25
  0
BLOCK_RECORD
  5
53C
330
1
100
AcDbSymbolTableRecord
100
AcDbBlockTableRecord
  2
*D26
  0
BLOCK_RECORD
  5
549
330
1
100
AcDbSymbolTableRecord
100
AcDbBlockTableRecord
  2
*D27
  0
BLOCK_RECORD
  5
555
330
1
100
AcDbSymbolTableRecord
100
AcDbBlockTableRecord
  2
*D28
  0
BLOCK_RECORD
  5
56B
330
1
100
AcDbSymbolTableRecord
100
AcDbBlockTableRecord
  2
*D29
  0
BLOCK_RECORD
  5
578
330
1
100
AcDbSymbolTableRecord
100
AcDbBlockTableRecord
  2
*D30
  0
BLOCK_RECORD
  5
58D
330
1
100
AcDbSymbolTableRecord
100
AcDbBlockTableRecord
  2
*D31
  0
BLOCK_RECORD
  5
59B
330
1
100
AcDbSymbolTableRecord
100
AcDbBlockTableRecord
  2
*D32
  0
BLOCK_RECORD
  5
5A9
330
1
100
AcDbSymbolTableRecord
100
AcDbBlockTableRecord
  2
*D33
  0
BLOCK_RECORD
  5
5B6
330
1
100
AcDbSymbolTableRecord
100
AcDbBlockTableRecord
  2
*D34
  0
ENDTAB
  0
ENDSEC
  0
SECTION
  2
BLOCKS
  0
BLOCK
  5
20
330
1F
100
AcDbEntity
  8
0
100
AcDbBlockBegin
  2
*MODEL_SPACE
 70
     0
 10
0.0
 20
0.0
 30
0.0
  3
*MODEL_SPACE
  1

  0
ENDBLK
  5
21
330
1F
100
AcDbEntity
  8
0
100
AcDbBlockEnd
  0
BLOCK
  5
1C
330
1B
100
AcDbEntity
 67
     1
  8
0
100
AcDbBlockBegin
  2
*PAPER_SPACE
 70
     0
 10
0.0
 20
0.0
 30
0.0
  3
*PAPER_SPACE
  1

  0
ENDBLK
  5
1D
330
1B
100
AcDbEntity
 67
     1
  8
0
100
AcDbBlockEnd
  0
BLOCK
  5
4E
330
4D
100
AcDbEntity
  8
0
100
AcDbBlockBegin
  2
EX_NORM
 70
     0
 10
0.0
 20
0.0
 30
0.0
  3
EX_NORM
  1

  0
LINE
  5
77
330
4D
100
AcDbEntity
  8
0
  6
CONTINUOUS
 62
     0
100
AcDbLine
 10
0.0
 20
0.0
 30
0.0
 11
-1.0
 21
0.0
 31
0.0
  0
LINE
  5
78
330
4D
100
AcDbEntity
  8
0
  6
CONTINUOUS
 62
     0
100
AcDbLine
 10
0.0
 20
0.0
 30
0.0
 11
-1.0
 21
0.166666667
 31
0.0
  0
LINE
  5
79
330
4D
100
AcDbEntity
  8
0
  6
CONTINUOUS
 62
     0
100
AcDbLine
 10
0.0
 20
0.0
 30
0.0
 11
-1.0
 21
-0.166666667
 31
0.0
  0
ENDBLK
  5
4F
330
4D
100
AcDbEntity
  8
0
100
AcDbBlockEnd
  0
BLOCK
  5
51
330
50
100
AcDbEntity
  8
0
100
AcDbBlockBegin
  2
EX_BNORM
 70
     0
 10
0.0
 20
0.0
 30
0.0
  3
EX_BNORM
  1

  0
LINE
  5
7A
330
50
100
AcDbEntity
  8
0
  6
CONTINUOUS
 62
     0
100
AcDbLine
 10
0.0
 20
0.0
 30
0.0
 11
-1.0
 21
0.0
 31
0.0
  0
LINE
  5
7B
330
50
100
AcDbEntity
  8
0
  6
CONTINUOUS
 62
     0
100
AcDbLine
 10
0.0
 20
0.0
 30
0.0
 11
-1.0
 21
0.166666667
 31
0.0
  0
LINE
  5
7C
330
50
100
AcDbEntity
  8
0
  6
CONTINUOUS
 62
     0
100
AcDbLine
 10
0.0
 20
0.0
 30
0.0
 11
-1.0
 21
-0.166666667
 31
0.0
  0
LINE
  5
7D
330
50
100
AcDbEntity
  8
0
  6
CONTINUOUS
 62
     0
100
AcDbLine
 10
0.0
 20
0.0
 30
0.0
 11
-1.0
 21
0.083333333
 31
0.0
  0
LINE
  5
7E
330
50
100
AcDbEntity
  8
0
  6
CONTINUOUS
 62
     0
100
AcDbLine
 10
0.0
 20
0.0
 30
0.0
 11
-1.0
 21
-0.083333333
 31
0.0
  0
LINE
  5
7F
330
50
100
AcDbEntity
  8
0
  6
CONTINUOUS
 62
     0
100
AcDbLine
 10
-1.0
 20
0.166666667
 30
0.0
 11
-1.0
 21
-0.166666667
 31
0.0
  0
ENDBLK
  5
52
330
50
100
AcDbEntity
  8
0
100
AcDbBlockEnd
  0
BLOCK
  5
54
330
53
100
AcDbEntity
  8
0
100
AcDbBlockBegin
  2
EX_BCIR
 70
     0
 10
0.0
 20
0.0
 30
0.0
  3
EX_BCIR
  1

  0
LINE
  5
80
330
53
100
AcDbEntity
  8
0
  6
CONTINUOUS
 62
     0
100
AcDbLine
 10
0.0
 20
0.0
 30
0.0
 11
-1.0
 21
0.0
 31
0.0
  0
CIRCLE
  5
81
330
53
100
AcDbEntity
  8
0
  6
CONTINUOUS
 62
     0
100
AcDbCircle
 10
0.0
 20
0.0
 30
0.0
 40
0.5
  0
CIRCLE
  5
82
330
53
100
AcDbEntity
  8
0
  6
CONTINUOUS
 62
     0
100
AcDbCircle
 10
0.0
 20
0.0
 30
0.0
 40
0.25
  0
ENDBLK
  5
55
330
53
100
AcDbEntity
  8
0
100
AcDbBlockEnd
  0
BLOCK
  5
57
330
56
100
AcDbEntity
  8
0
100
AcDbBlockBegin
  2
EX_RCIVIL
 70
     0
 10
0.0
 20
0.0
 30
0.0
  3
EX_RCIVIL
  1

  0
LINE
  5
83
330
56
100
AcDbEntity
  8
0
  6
CONTINUOUS
 62
     0
100
AcDbLine
 10
0.0
 20
0.0
 30
0.0
 11
-1.0
 21
0.0
 31
0.0
  0
LINE
  5
84
330
56
100
AcDbEntity
  8
0
  6
CONTINUOUS
 62
     0
100
AcDbLine
 10
-1.0
 20
-0.25
 30
0.0
 11
0.0
 21
-0.25
 31
0.0
  0
LINE
  5
85
330
56
100
AcDbEntity
  8
0
  6
CONTINUOUS
 62
     0
100
AcDbLine
 10
-1.0
 20
-0.125
 30
0.0
 11
0.0
 21
-0.125
 31
0.0
  0
ENDBLK
  5
58
330
56
100
AcDbEntity
  8
0
100
AcDbBlockEnd
  0
BLOCK
  5
5A
330
59
100
AcDbEntity
  8
0
100
AcDbBlockBegin
  2
EX_SLANT
 70
     0
 10
0.0
 20
0.0
 30
0.0
  3
EX_SLANT
  1

  0
LINE
  5
86
330
59
100
AcDbEntity
  8
0
  6
CONTINUOUS
 62
     0
100
AcDbLine
 10
0.0
 20
0.0
 30
0.0
 11
-1.0
 21
0.0
 31
0.0
  0
LINE
  5
87
330
59
100
AcDbEntity
  8
0
  6
CONTINUOUS
 62
     0
100
AcDbLine
 10
0.707106781
 20
0.707106781
 30
0.0
 11
-0.707106781
 21
-0.707106781
 31
0.0
  0
ENDBLK
  5
5B
330
59
100
AcDbEntity
  8
0
100
AcDbBlockEnd
  0
BLOCK
  5
5D
330
5C
100
AcDbEntity
  8
0
100
AcDbBlockBegin
  2
EX_NONE
 70
     0
 10
0.0
 20
0.0
 30
0.0
  3
EX_NONE
  1

  0
LINE
  5
88
330
5C
100
AcDbEntity
  8
0
  6
CONTINUOUS
 62
     0
100
AcDbLine
 10
0.0
 20
0.0
 30
0.0
 11
-1.0
 21
0.0
 31
0.0
  0
ENDBLK
  5
5E
330
5C
100
AcDbEntity
  8
0
100
AcDbBlockEnd
  0
BLOCK
  5
60
330
5F
100
AcDbEntity
  8
0
100
AcDbBlockBegin
  2
EX_CIVIL
 70
     0
 10
0.0
 20
0.0
 30
0.0
  3
EX_CIVIL
  1

  0
LINE
  5
89
330
5F
100
AcDbEntity
  8
0
  6
CONTINUOUS
 62
     0
100
AcDbLine
 10
0.0
 20
0.0
 30
0.0
 11
-1.0
 21
0.0
 31
0.0
  0
LINE
  5
8A
330
5F
100
AcDbEntity
  8
0
  6
CONTINUOUS
 62
     0
100
AcDbLine
 10
-1.0
 20
0.25
 30
0.0
 11
0.0
 21
0.25
 31
0.0
  0
LINE
  5
8B
330
5F
100
AcDbEntity
  8
0
  6
CONTINUOUS
 62
     0
100
AcDbLine
 10
-1.0
 20
0.125
 30
0.0
 11
0.0
 21
0.125
 31
0.0
  0
ENDBLK
  5
61
330
5F
100
AcDbEntity
  8
0
100
AcDbBlockEnd
  0
BLOCK
  5
63
330
62
100
AcDbEntity
  8
0
100
AcDbBlockBegin
  2
EX_WCIR
 70
     0
 10
0.0
 20
0.0
 30
0.0
  3
EX_WCIR
  1

  0
LINE
  5
8C
330
62
100
AcDbEntity
  8
0
  6
CONTINUOUS
 62
     0
100
AcDbLine
 10
0.0
 20
0.0
 30
0.0
 11
-1.0
 21
0.0
 31
0.0
  0
CIRCLE
  5
8D
330
62
100
AcDbEntity
  8
0
  6
CONTINUOUS
 62
     0
100
AcDbCircle
 10
0.0
 20
0.0
 30
0.0
 40
0.5
  0
ENDBLK
  5
64
330
62
100
AcDbEntity
  8
0
100
AcDbBlockEnd
  0
BLOCK
  5
66
330
65
100
AcDbEntity
  8
0
100
AcDbBlockBegin
  2
EX_WCIR2
 70
     0
 10
0.0
 20
0.0
 30
0.0
  3
EX_WCIR2
  1

  0
LINE
  5
8E
330
65
100
AcDbEntity
  8
0
  6
CONTINUOUS
 62
     0
100
AcDbLine
 10
-0.5
 20
0.0
 30
0.0
 11
-1.0
 21
0.0
 31
0.0
  0
CIRCLE
  5
8F
330
65
100
AcDbEntity
  8
0
  6
CONTINUOUS
 62
     0
100
AcDbCircle
 10
0.0
 20
0.0
 30
0.0
 40
0.5
  0
ENDBLK
  5
67
330
65
100
AcDbEntity
  8
0
100
AcDbBlockEnd
  0
BLOCK
  5
69
330
68
100
AcDbEntity
  8
0
100
AcDbBlockBegin
  2
EX_WNORM
 70
     0
 10
0.0
 20
0.0
 30
0.0
  3
EX_WNORM
  1

  0
LINE
  5
90
330
68
100
AcDbEntity
  8
0
  6
CONTINUOUS
 62
     0
100
AcDbLine
 10
-1.0
 20
0.0
 30
0.0
 11
-1.0
 21
0.0
 31
0.0
  0
LINE
  5
91
330
68
100
AcDbEntity
  8
0
  6
CONTINUOUS
 62
     0
100
AcDbLine
 10
0.0
 20
0.0
 30
0.0
 11
-1.0
 21
0.166666667
 31
0.0
  0
LINE
  5
92
330
68
100
AcDbEntity
  8
0
  6
CONTINUOUS
 62
     0
100
AcDbLine
 10
0.0
 20
0.0
 30
0.0
 11
-1.0
 21
-0.166666667
 31
0.0
  0
LINE
  5
93
330
68
100
AcDbEntity
  8
0
  6
CONTINUOUS
 62
     0
100
AcDbLine
 10
-1.0
 20
0.166666667
 30
0.0
 11
-1.0
 21
-0.166666667
 31
0.0
  0
ENDBLK
  5
6A
330
68
100
AcDbEntity
  8
0
100
AcDbBlockEnd
  0
BLOCK
  5
6C
330
6B
100
AcDbEntity
  8
0
100
AcDbBlockBegin
  2
EX_NNORM
 70
     0
 10
0.0
 20
0.0
 30
0.0
  3
EX_NNORM
  1

  0
LINE
  5
94
330
6B
100
AcDbEntity
  8
0
  6
CONTINUOUS
 62
     0
100
AcDbLine
 10
0.0
 20
0.0
 30
0.0
 11
-1.0
 21
0.0
 31
0.0
  0
LINE
  5
95
330
6B
100
AcDbEntity
  8
0
  6
CONTINUOUS
 62
     0
100
AcDbLine
 10
0.0
 20
0.0
 30
0.0
 11
-1.0
 21
0.166666667
 31
0.0
  0
LINE
  5
96
330
6B
100
AcDbEntity
  8
0
  6
CONTINUOUS
 62
     0
100
AcDbLine
 10
0.0
 20
0.0
 30
0.0
 11
-1.0
 21
-0.166666667
 31
0.0
  0
LINE
  5
97
330
6B
100
AcDbEntity
  8
0
  6
CONTINUOUS
 62
     0
100
AcDbLine
 10
-1.0
 20
0.166666667
 30
0.0
 11
-1.0
 21
-0.166666667
 31
0.0
  0
ENDBLK
  5
6D
330
6B
100
AcDbEntity
  8
0
100
AcDbBlockEnd
  0
BLOCK
  5
6F
330
6E
100
AcDbEntity
  8
0
100
AcDbBlockBegin
  2
EX_BBOX
 70
     0
 10
0.0
 20
0.0
 30
0.0
  3
EX_BBOX
  1

  0
LINE
  5
98
330
6E
100
AcDbEntity
  8
0
  6
CONTINUOUS
 62
     0
100
AcDbLine
 10
0.0
 20
0.0
 30
0.0
 11
-1.0
 21
0.0
 31
0.0
  0
LINE
  5
99
330
6E
100
AcDbEntity
  8
0
  6
CONTINUOUS
 62
     0
100
AcDbLine
 10
-0.5
 20
0.5
 30
0.0
 11
0.5
 21
0.5
 31
0.0
  0
LINE
  5
9A
330
6E
100
AcDbEntity
  8
0
  6
CONTINUOUS
 62
     0
100
AcDbLine
 10
0.5
 20
0.5
 30
0.0
 11
0.5
 21
-0.5
 31
0.0
  0
LINE
  5
9B
330
6E
100
AcDbEntity
  8
0
  6
CONTINUOUS
 62
     0
100
AcDbLine
 10
0.5
 20
-0.5
 30
0.0
 11
-0.5
 21
-0.5
 31
0.0
  0
LINE
  5
9C
330
6E
100
AcDbEntity
  8
0
  6
CONTINUOUS
 62
     0
100
AcDbLine
 10
-0.5
 20
-0.5
 30
0.0
 11
-0.5
 21
0.5
 31
0.0
  0
LINE
  5
9D
330
6E
100
AcDbEntity
  8
0
  6
CONTINUOUS
 62
     0
100
AcDbLine
 10
-0.25
 20
0.25
 30
0.0
 11
0.25
 21
0.25
 31
0.0
  0
LINE
  5
9E
330
6E
100
AcDbEntity
  8
0
  6
CONTINUOUS
 62
     0
100
AcDbLine
 10
0.25
 20
0.25
 30
0.0
 11
0.25
 21
-0.25
 31
0.0
  0
LINE
  5
9F
330
6E
100
AcDbEntity
  8
0
  6
CONTINUOUS
 62
     0
100
AcDbLine
 10
0.25
 20
-0.25
 30
0.0
 11
-0.25
 21
-0.25
 31
0.0
  0
LINE
  5
A0
330
6E
100
AcDbEntity
  8
0
  6
CONTINUOUS
 62
     0
100
AcDbLine
 10
-0.25
 20
-0.25
 30
0.0
 11
-0.25
 21
0.25
 31
0.0
  0
ENDBLK
  5
70
330
6E
100
AcDbEntity
  8
0
100
AcDbBlockEnd
  0
BLOCK
  5
72
330
71
100
AcDbEntity
  8
0
100
AcDbBlockBegin
  2
EX_WBOX
 70
     0
 10
0.0
 20
0.0
 30
0.0
  3
EX_WBOX
  1

  0
LINE
  5
A1
330
71
100
AcDbEntity
  8
0
  6
CONTINUOUS
 62
     0
100
AcDbLine
 10
-0.5
 20
0.0
 30
0.0
 11
-1.0
 21
0.0
 31
0.0
  0
LINE
  5
A2
330
71
100
AcDbEntity
  8
0
  6
CONTINUOUS
 62
     0
100
AcDbLine
 10
-0.5
 20
0.5
 30
0.0
 11
0.5
 21
0.5
 31
0.0
  0
LINE
  5
A3
330
71
100
AcDbEntity
  8
0
  6
CONTINUOUS
 62
     0
100
AcDbLine
 10
0.5
 20
0.5
 30
0.0
 11
0.5
 21
-0.5
 31
0.0
  0
LINE
  5
A4
330
71
100
AcDbEntity
  8
0
  6
CONTINUOUS
 62
     0
100
AcDbLine
 10
0.5
 20
-0.5
 30
0.0
 11
-0.5
 21
-0.5
 31
0.0
  0
LINE
  5
A5
330
71
100
AcDbEntity
  8
0
  6
CONTINUOUS
 62
     0
100
AcDbLine
 10
-0.5
 20
-0.5
 30
0.0
 11
-0.5
 21
0.5
 31
0.0
  0
ENDBLK
  5
73
330
71
100
AcDbEntity
  8
0
100
AcDbBlockEnd
  0
BLOCK
  5
75
330
74
100
AcDbEntity
  8
0
100
AcDbBlockBegin
  2
EX_INTEGRAL
 70
     0
 10
0.0
 20
0.0
 30
0.0
  3
EX_INTEGRAL
  1

  0
LINE
  5
A6
330
74
100
AcDbEntity
  8
0
  6
CONTINUOUS
 62
     0
100
AcDbLine
 10
0.0
 20
0.0
 30
0.0
 11
-1.0
 21
0.0
 31
0.0
  0
ARC
  5
A7
330
74
100
AcDbEntity
  8
0
  6
CONTINUOUS
 62
     0
100
AcDbCircle
 10
0.542115
 20
0.164992
 30
0.0
 40
0.56667
100
AcDbArc
 50
73.07249033629006
 51
196.9275130221199
  0
ARC
  5
A8
330
74
100
AcDbEntity
  8
0
  6
CONTINUOUS
 62
     0
100
AcDbCircle
 10
-0.542115
 20
-0.164992
 30
0.0
 40
0.56667
100
AcDbArc
 50
253.0724869220464
 51
16.9275130559125
  0
ENDBLK
  5
76
330
74
100
AcDbEntity
  8
0
100
AcDbBlockEnd
  0
BLOCK
  5
4AB
330
4AA
100
AcDbEntity
  8
0
100
AcDbBlockBegin
  2
*D15
 70
     1
 10
0.0
 20
0.0
 30
0.0
  3
*D15
  1

  0
LINE
  5
4AD
330
4AA
100
AcDbEntity
  8
寸法
  6
CONTINUOUS
 62
     3
100
AcDbLine
 10
1266.499999821845
 20
3525.0
 30
0.0
 11
1396.000000000709
 21
3525.0
 31
0.0
  0
LINE
  5
4AE
330
4AA
100
AcDbEntity
  8
寸法
  6
CONTINUOUS
 62
     3
100
AcDbLine
 10
1381.000000000709
 20
3569.999996185303
 30
0.0
 11
1381.000000000709
 21
3780.000003814697
 31
0.0
  0
INSERT
  5
4AF
330
4AA
100
AcDbEntity
  8
寸法
 62
     3
100
AcDbBlockReference
  2
EX_NORM
 10
1381.000000000709
 20
3525.0
 30
0.0
 41
44.99999618530273
 42
44.99999618530273
 43
44.99999618530273
 50
270.0
  0
INSERT
  5
4B0
330
4AA
100
AcDbEntity
  8
寸法
 62
     3
100
AcDbBlockReference
  2
EX_NORM
 10
1381.000000000709
 20
3825.0
 30
0.0
 41
44.99999618530273
 42
44.99999618530273
 43
44.99999618530273
 50
90.0
  0
MTEXT
  5
4B1
330
4AA
100
AcDbEntity
  8
寸法
 62
     2
100
AcDbMText
 10
1345.750000090116
 20
3674.999999999998
 30
0.0
 40
59.99999618530273
 41
0.0
 71
     5
 72
     1
  1
300
  7
EXCADDIM1
 11
0.0
 21
1.0
 31
0.0
  0
POINT
  5
4B2
330
4AA
100
AcDbEntity
  8
DEFPOINTS
 62
     0
100
AcDbPoint
 10
1256.000000000658
 20
3525.0
 30
0.0
  0
POINT
  5
4B3
330
4AA
100
AcDbEntity
  8
DEFPOINTS
 62
     0
100
AcDbPoint
 10
1261.000000000658
 20
3825.0
 30
0.0
  0
POINT
  5
4B4
330
4AA
100
AcDbEntity
  8
DEFPOINTS
 62
     0
100
AcDbPoint
 10
1381.000000000709
 20
3825.0
 30
0.0
  0
ENDBLK
  5
4AC
330
4AA
100
AcDbEntity
  8
0
100
AcDbBlockEnd
  0
BLOCK
  5
4B7
330
4B6
100
AcDbEntity
  8
0
100
AcDbBlockBegin
  2
*D16
 70
     1
 10
0.0
 20
0.0
 30
0.0
  3
*D16
  1

  0
LINE
  5
4B9
330
4B6
100
AcDbEntity
  8
寸法
  6
CONTINUOUS
 62
     3
100
AcDbLine
 10
971.4999998218464
 20
3455.0
 30
0.0
 11
1486.000000000709
 21
3455.0
 31
0.0
  0
LINE
  5
4BA
330
4B6
100
AcDbEntity
  8
寸法
  6
CONTINUOUS
 62
     3
100
AcDbLine
 10
1471.000000000709
 20
3499.999996185303
 30
0.0
 11
1471.000000000709
 21
3780.000003814697
 31
0.0
  0
INSERT
  5
4BB
330
4B6
100
AcDbEntity
  8
寸法
 62
     3
100
AcDbBlockReference
  2
EX_NORM
 10
1471.000000000709
 20
3455.0
 30
0.0
 41
44.99999618530273
 42
44.99999618530273
 43
44.99999618530273
 50
270.0
  0
INSERT
  5
4BC
330
4B6
100
AcDbEntity
  8
寸法
 62
     3
100
AcDbBlockReference
  2
EX_NORM
 10
1471.000000000709
 20
3825.0
 30
0.0
 41
44.99999618530273
 42
44.99999618530273
 43
44.99999618530273
 50
90.0
  0
MTEXT
  5
4BD
330
4B6
100
AcDbEntity
  8
寸法
 62
     2
100
AcDbMText
 10
1435.750000090116
 20
3639.999999999998
 30
0.0
 40
59.99999618530273
 41
0.0
 71
     5
 72
     1
  1
370
  7
EXCADDIM1
 11
0.0
 21
1.0
 31
0.0
  0
POINT
  5
4BE
330
4B6
100
AcDbEntity
  8
DEFPOINTS
 62
     0
100
AcDbPoint
 10
961.0000000006603
 20
3455.0
 30
0.0
  0
POINT
  5
4BF
330
4B6
100
AcDbEntity
  8
DEFPOINTS
 62
     0
100
AcDbPoint
 10
1261.000000000658
 20
3825.0
 30
0.0
  0
POINT
  5
4C0
330
4B6
100
AcDbEntity
  8
DEFPOINTS
 62
     0
100
AcDbPoint
 10
1471.000000000709
 20
3825.0
 30
0.0
  0
ENDBLK
  5
4B8
330
4B6
100
AcDbEntity
  8
0
100
AcDbBlockEnd
  0
BLOCK
  5
4C3
330
4C2
100
AcDbEntity
  8
0
100
AcDbBlockBegin
  2
*D17
 70
     1
 10
0.0
 20
0.0
 30
0.0
  3
*D17
  1

  0
LINE
  5
4C5
330
4C2
100
AcDbEntity
  8
寸法
  6
CONTINUOUS
 62
     3
100
AcDbLine
 10
661.0000000006603
 20
3519.500000178814
 30
0.0
 11
661.0000000006603
 21
3319.999999999949
 31
0.0
  0
LINE
  5
4C6
330
4C2
100
AcDbEntity
  8
寸法
  6
CONTINUOUS
 62
     3
100
AcDbLine
 10
1261.000000000658
 20
3519.500000178814
 30
0.0
 11
1261.000000000658
 21
3319.999999999949
 31
0.0
  0
LINE
  5
4C7
330
4C2
100
AcDbEntity
  8
寸法
  6
CONTINUOUS
 62
     3
100
AcDbLine
 10
705.999996185963
 20
3334.999999999949
 30
0.0
 11
1216.000003815356
 21
3334.999999999949
 31
0.0
  0
INSERT
  5
4C8
330
4C2
100
AcDbEntity
  8
寸法
 62
     3
100
AcDbBlockReference
  2
EX_NORM
 10
661.0000000006603
 20
3334.999999999949
 30
0.0
 41
44.99999618530273
 42
44.99999618530273
 43
44.99999618530273
 50
180.0
  0
INSERT
  5
4C9
330
4C2
100
AcDbEntity
  8
寸法
 62
     3
100
AcDbBlockReference
  2
EX_NORM
 10
1261.000000000658
 20
3334.999999999949
 30
0.0
 41
44.99999618530273
 42
44.99999618530273
 43
44.99999618530273
  0
MTEXT
  5
4CA
330
4C2
100
AcDbEntity
  8
寸法
 62
     2
100
AcDbMText
 10
961.0000000006596
 20
3370.249999910542
 30
0.0
 40
59.99999618530273
 41
0.0
 71
     5
 72
     1
  1
600
  7
EXCADDIM1
  0
POINT
  5
4CB
330
4C2
100
AcDbEntity
  8
DEFPOINTS
 62
     0
100
AcDbPoint
 10
661.0000000006603
 20
3530.0
 30
0.0
  0
POINT
  5
4CC
330
4C2
100
AcDbEntity
  8
DEFPOINTS
 62
     0
100
AcDbPoint
 10
1261.000000000658
 20
3530.0
 30
0.0
  0
POINT
  5
4CD
330
4C2
100
AcDbEntity
  8
DEFPOINTS
 62
     0
100
AcDbPoint
 10
1261.000000000658
 20
3334.999999999949
 30
0.0
  0
ENDBLK
  5
4C4
330
4C2
100
AcDbEntity
  8
0
100
AcDbBlockEnd
  0
BLOCK
  5
4D0
330
4CF
100
AcDbEntity
  8
0
100
AcDbBlockBegin
  2
*D18
 70
     1
 10
0.0
 20
0.0
 30
0.0
  3
*D18
  1

  0
LINE
  5
4D2
330
4CF
100
AcDbEntity
  8
寸法
  6
CONTINUOUS
 62
     3
100
AcDbLine
 10
996.0000000006603
 20
3885.499999821186
 30
0.0
 11
996.0000000006603
 21
3930.0
 31
0.0
  0
LINE
  5
4D3
330
4CF
100
AcDbEntity
  8
寸法
  6
CONTINUOUS
 62
     3
100
AcDbLine
 10
961.0000000006603
 20
3915.0
 30
0.0
 11
996.0000000006603
 21
3915.0
 31
0.0
  0
LINE
  5
4D4
330
4CF
100
AcDbEntity
  8
寸法
  6
CONTINUOUS
 62
     3
100
AcDbLine
 10
916.0000038153576
 20
3915.0
 30
0.0
 11
871.0000076300548
 21
3915.0
 31
0.0
  0
LINE
  5
4D5
330
4CF
100
AcDbEntity
  8
寸法
  6
CONTINUOUS
 62
     3
100
AcDbLine
 10
1040.999996185963
 20
3915.0
 30
0.0
 11
1085.999992371266
 21
3915.0
 31
0.0
  0
INSERT
  5
4D6
330
4CF
100
AcDbEntity
  8
寸法
 62
     3
100
AcDbBlockReference
  2
EX_NORM
 10
961.0000000006603
 20
3915.0
 30
0.0
 41
44.99999618530273
 42
44.99999618530273
 43
44.99999618530273
  0
INSERT
  5
4D7
330
4CF
100
AcDbEntity
  8
寸法
 62
     3
100
AcDbBlockReference
  2
EX_NORM
 10
996.0000000006603
 20
3915.0
 30
0.0
 41
44.99999618530273
 42
44.99999618530273
 43
44.99999618530273
 50
180.0
  0
MTEXT
  5
4D8
330
4CF
100
AcDbEntity
  8
寸法
 62
     2
100
AcDbMText
 10
751.0000000006604
 20
3950.249999910593
 30
0.0
 40
59.99999618530273
 41
0.0
 71
     5
 72
     1
  1
35（壁排水）
  7
EXCADDIM1
  0
POINT
  5
4D9
330
4CF
100
AcDbEntity
  8
DEFPOINTS
 62
     0
100
AcDbPoint
 10
961.0000000006603
 20
3825.0
 30
0.0
  0
POINT
  5
4DA
330
4CF
100
AcDbEntity
  8
DEFPOINTS
 62
     0
100
AcDbPoint
 10
996.0000000006603
 20
3875.0
 30
0.0
  0
POINT
  5
4DB
330
4CF
100
AcDbEntity
  8
DEFPOINTS
 62
     0
100
AcDbPoint
 10
996.0000000006603
 20
3915.0
 30
0.0
  0
ENDBLK
  5
4D1
330
4CF
100
AcDbEntity
  8
0
100
AcDbBlockEnd
  0
BLOCK
  5
4DE
330
4DD
100
AcDbEntity
  8
0
100
AcDbBlockBegin
  2
*D19
 70
     1
 10
0.0
 20
0.0
 30
0.0
  3
*D19
  1

  0
LINE
  5
4E0
330
4DD
100
AcDbEntity
  8
寸法
  6
CONTINUOUS
 62
     3
100
AcDbLine
 10
971.4999998218464
 20
1669.5
 30
0.0
 11
1396.000000000658
 21
1669.5
 31
0.0
  0
LINE
  5
4E1
330
4DD
100
AcDbEntity
  8
寸法
  6
CONTINUOUS
 62
     3
100
AcDbLine
 10
1381.000000000658
 20
964.4999961853019
 30
0.0
 11
1381.000000000658
 21
1624.500003814697
 31
0.0
  0
INSERT
  5
4E2
330
4DD
100
AcDbEntity
  8
寸法
 62
     3
100
AcDbBlockReference
  2
EX_NORM
 10
1381.000000000658
 20
919.4999999999992
 30
0.0
 41
44.99999618530273
 42
44.99999618530273
 43
44.99999618530273
 50
270.0
  0
INSERT
  5
4E3
330
4DD
100
AcDbEntity
  8
寸法
 62
     3
100
AcDbBlockReference
  2
EX_NORM
 10
1381.000000000658
 20
1669.5
 30
0.0
 41
44.99999618530273
 42
44.99999618530273
 43
44.99999618530273
 50
90.0
  0
MTEXT
  5
4E4
330
4DD
100
AcDbEntity
  8
寸法
 62
     2
100
AcDbMText
 10
1345.750000090065
 20
1294.499999999998
 30
0.0
 40
59.99999618530273
 41
0.0
 71
     5
 72
     1
  1
750
  7
EXCADDIM1
 11
0.0
 21
1.0
 31
0.0
  0
POINT
  5
4E5
330
4DD
100
AcDbEntity
  8
DEFPOINTS
 62
     0
100
AcDbPoint
 10
1244.500000000658
 20
919.4999999999991
 30
0.0
  0
POINT
  5
4E6
330
4DD
100
AcDbEntity
  8
DEFPOINTS
 62
     0
100
AcDbPoint
 10
961.0000000006603
 20
1669.5
 30
0.0
  0
POINT
  5
4E7
330
4DD
100
AcDbEntity
  8
DEFPOINTS
 62
     0
100
AcDbPoint
 10
1381.000000000658
 20
1669.5
 30
0.0
  0
ENDBLK
  5
4DF
330
4DD
100
AcDbEntity
  8
0
100
AcDbBlockEnd
  0
BLOCK
  5
4EA
330
4E9
100
AcDbEntity
  8
0
100
AcDbBlockBegin
  2
*D20
 70
     1
 10
0.0
 20
0.0
 30
0.0
  3
*D20
  1

  0
LINE
  5
4EC
330
4E9
100
AcDbEntity
  8
寸法
  6
CONTINUOUS
 62
     3
100
AcDbLine
 10
1266.314876946844
 20
1704.5
 30
0.0
 11
1486.000000000658
 21
1704.5
 31
0.0
  0
LINE
  5
4ED
330
4E9
100
AcDbEntity
  8
寸法
  6
CONTINUOUS
 62
     3
100
AcDbLine
 10
1471.000000000658
 20
964.4999961853019
 30
0.0
 11
1471.000000000658
 21
1659.500003814697
 31
0.0
  0
INSERT
  5
4EE
330
4E9
100
AcDbEntity
  8
寸法
 62
     3
100
AcDbBlockReference
  2
EX_NORM
 10
1471.000000000658
 20
919.4999999999992
 30
0.0
 41
44.99999618530273
 42
44.99999618530273
 43
44.99999618530273
 50
270.0
  0
INSERT
  5
4EF
330
4E9
100
AcDbEntity
  8
寸法
 62
     3
100
AcDbBlockReference
  2
EX_NORM
 10
1471.000000000658
 20
1704.5
 30
0.0
 41
44.99999618530273
 42
44.99999618530273
 43
44.99999618530273
 50
90.0
  0
MTEXT
  5
4F0
330
4E9
100
AcDbEntity
  8
寸法
 62
     2
100
AcDbMText
 10
1435.750000090065
 20
1311.999999999998
 30
0.0
 40
59.99999618530273
 41
0.0
 71
     5
 72
     1
  1
785
  7
EXCADDIM1
 11
0.0
 21
1.0
 31
0.0
  0
POINT
  5
4F1
330
4E9
100
AcDbEntity
  8
DEFPOINTS
 62
     0
100
AcDbPoint
 10
1244.500000000658
 20
919.4999999999991
 30
0.0
  0
POINT
  5
4F2
330
4E9
100
AcDbEntity
  8
DEFPOINTS
 62
     0
100
AcDbPoint
 10
1255.814877125658
 20
1704.5
 30
0.0
  0
POINT
  5
4F3
330
4E9
100
AcDbEntity
  8
DEFPOINTS
 62
     0
100
AcDbPoint
 10
1471.000000000658
 20
1704.5
 30
0.0
  0
ENDBLK
  5
4EB
330
4E9
100
AcDbEntity
  8
0
100
AcDbBlockEnd
  0
BLOCK
  5
4F6
330
4F5
100
AcDbEntity
  8
0
100
AcDbBlockBegin
  2
*D21
 70
     1
 10
0.0
 20
0.0
 30
0.0
  3
*D21
  1

  0
LINE
  5
4F8
330
4F5
100
AcDbEntity
  8
寸法
  6
CONTINUOUS
 62
     3
100
AcDbLine
 10
2406.00000000066
 20
709.5
 30
0.0
 11
2491.00000000066
 21
709.5
 31
0.0
  0
LINE
  5
4F9
330
4F5
100
AcDbEntity
  8
寸法
  6
CONTINUOUS
 62
     3
100
AcDbLine
 10
2361.000003815358
 20
709.5
 30
0.0
 11
2316.000007630055
 21
709.5
 31
0.0
  0
LINE
  5
4FA
330
4F5
100
AcDbEntity
  8
寸法
  6
CONTINUOUS
 62
     3
100
AcDbLine
 10
2535.999996185963
 20
709.5
 30
0.0
 11
2580.999992371266
 21
709.5
 31
0.0
  0
INSERT
  5
4FB
330
4F5
100
AcDbEntity
  8
寸法
 62
     3
100
AcDbBlockReference
  2
EX_NORM
 10
2406.00000000066
 20
709.5
 30
0.0
 41
44.99999618530273
 42
44.99999618530273
 43
44.99999618530273
  0
INSERT
  5
4FC
330
4F5
100
AcDbEntity
  8
寸法
 62
     3
100
AcDbBlockReference
  2
EX_NORM
 10
2491.00000000066
 20
709.5
 30
0.0
 41
44.99999618530273
 42
44.99999618530273
 43
44.99999618530273
 50
180.0
  0
MTEXT
  5
4FD
330
4F5
100
AcDbEntity
  8
寸法
 62
     2
100
AcDbMText
 10
2701.00000000066
 20
744.749999910593
 30
0.0
 40
59.99999618530273
 41
0.0
 71
     5
 72
     1
  1
85（床給水）
  7
EXCADDIM1
  0
POINT
  5
4FE
330
4F5
100
AcDbEntity
  8
DEFPOINTS
 62
     0
100
AcDbPoint
 10
2406.00000000066
 20
869.5
 30
0.0
  0
POINT
  5
4FF
330
4F5
100
AcDbEntity
  8
DEFPOINTS
 62
     0
100
AcDbPoint
 10
2491.00000000066
 20
919.4999999999991
 30
0.0
  0
POINT
  5
500
330
4F5
100
AcDbEntity
  8
DEFPOINTS
 62
     0
100
AcDbPoint
 10
2491.00000000066
 20
709.5
 30
0.0
  0
ENDBLK
  5
4F7
330
4F5
100
AcDbEntity
  8
0
100
AcDbBlockEnd
  0
BLOCK
  5
503
330
502
100
AcDbEntity
  8
0
100
AcDbBlockBegin
  2
*D22
 70
     1
 10
0.0
 20
0.0
 30
0.0
  3
*D22
  1

  0
LINE
  5
505
330
502
100
AcDbEntity
  8
寸法
  6
CONTINUOUS
 62
     3
100
AcDbLine
 10
2406.00000000066
 20
859.0000001788139
 30
0.0
 11
2406.00000000066
 21
604.5
 31
0.0
  0
LINE
  5
506
330
502
100
AcDbEntity
  8
寸法
  6
CONTINUOUS
 62
     3
100
AcDbLine
 10
2491.00000000066
 20
909.000000178813
 30
0.0
 11
2491.00000000066
 21
604.5
 31
0.0
  0
LINE
  5
507
330
502
100
AcDbEntity
  8
寸法
  6
CONTINUOUS
 62
     3
100
AcDbLine
 10
2406.00000000066
 20
619.5
 30
0.0
 11
2491.00000000066
 21
619.5
 31
0.0
  0
LINE
  5
508
330
502
100
AcDbEntity
  8
寸法
  6
CONTINUOUS
 62
     3
100
AcDbLine
 10
2361.000003815358
 20
619.5
 30
0.0
 11
2316.000007630055
 21
619.5
 31
0.0
  0
LINE
  5
509
330
502
100
AcDbEntity
  8
寸法
  6
CONTINUOUS
 62
     3
100
AcDbLine
 10
2535.999996185963
 20
619.5
 30
0.0
 11
2580.999992371266
 21
619.5
 31
0.0
  0
INSERT
  5
50A
330
502
100
AcDbEntity
  8
寸法
 62
     3
100
AcDbBlockReference
  2
EX_NORM
 10
2406.00000000066
 20
619.5
 30
0.0
 41
44.99999618530273
 42
44.99999618530273
 43
44.99999618530273
  0
INSERT
  5
50B
330
502
100
AcDbEntity
  8
寸法
 62
     3
100
AcDbBlockReference
  2
EX_NORM
 10
2491.00000000066
 20
619.5
 30
0.0
 41
44.99999618530273
 42
44.99999618530273
 43
44.99999618530273
 50
180.0
  0
MTEXT
  5
50C
330
502
100
AcDbEntity
  8
寸法
 62
     2
100
AcDbMText
 10
2701.00000000066
 20
654.749999910593
 30
0.0
 40
59.99999618530273
 41
0.0
 71
     5
 72
     1
  1
85（床排水）
  7
EXCADDIM1
  0
POINT
  5
50D
330
502
100
AcDbEntity
  8
DEFPOINTS
 62
     0
100
AcDbPoint
 10
2406.00000000066
 20
869.5
 30
0.0
  0
POINT
  5
50E
330
502
100
AcDbEntity
  8
DEFPOINTS
 62
     0
100
AcDbPoint
 10
2491.00000000066
 20
919.4999999999991
 30
0.0
  0
POINT
  5
50F
330
502
100
AcDbEntity
  8
DEFPOINTS
 62
     0
100
AcDbPoint
 10
2491.00000000066
 20
619.5
 30
0.0
  0
ENDBLK
  5
504
330
502
100
AcDbEntity
  8
0
100
AcDbBlockEnd
  0
BLOCK
  5
512
330
511
100
AcDbEntity
  8
0
100
AcDbBlockBegin
  2
*D23
 70
     1
 10
0.0
 20
0.0
 30
0.0
  3
*D23
  1

  0
LINE
  5
514
330
511
100
AcDbEntity
  8
寸法
  6
CONTINUOUS
 62
     3
100
AcDbLine
 10
2509.499999821846
 20
1269.5
 30
0.0
 11
2626.00000000066
 21
1269.5
 31
0.0
  0
LINE
  5
515
330
511
100
AcDbEntity
  8
寸法
  6
CONTINUOUS
 62
     3
100
AcDbLine
 10
2611.00000000066
 20
964.4999961853017
 30
0.0
 11
2611.00000000066
 21
1224.500003814697
 31
0.0
  0
INSERT
  5
516
330
511
100
AcDbEntity
  8
寸法
 62
     3
100
AcDbBlockReference
  2
EX_NORM
 10
2611.00000000066
 20
919.499999999999
 30
0.0
 41
44.99999618530273
 42
44.99999618530273
 43
44.99999618530273
 50
270.0
  0
INSERT
  5
517
330
511
100
AcDbEntity
  8
寸法
 62
     3
100
AcDbBlockReference
  2
EX_NORM
 10
2611.00000000066
 20
1269.5
 30
0.0
 41
44.99999618530273
 42
44.99999618530273
 43
44.99999618530273
 50
90.0
  0
MTEXT
  5
518
330
511
100
AcDbEntity
  8
寸法
 62
     2
100
AcDbMText
 10
2575.750000090067
 20
1106.499999999998
 30
0.0
 40
59.99999618530273
 41
0.0
 71
     5
 72
     1
  1
350（壁給水）
  7
EXCADDIM1
 11
4.724169043383025E-15
 21
1.0
 31
0.0
  0
POINT
  5
519
330
511
100
AcDbEntity
  8
DEFPOINTS
 62
     0
100
AcDbPoint
 10
2491.00000000066
 20
919.4999999999991
 30
0.0
  0
POINT
  5
51A
330
511
100
AcDbEntity
  8
DEFPOINTS
 62
     0
100
AcDbPoint
 10
2499.00000000066
 20
1269.5
 30
0.0
  0
POINT
  5
51B
330
511
100
AcDbEntity
  8
DEFPOINTS
 62
     0
100
AcDbPoint
 10
2611.00000000066
 20
1269.5
 30
0.0
  0
ENDBLK
  5
513
330
511
100
AcDbEntity
  8
0
100
AcDbBlockEnd
  0
BLOCK
  5
51E
330
51D
100
AcDbEntity
  8
0
100
AcDbBlockBegin
  2
*D24
 70
     1
 10
0.0
 20
0.0
 30
0.0
  3
*D24
  1

  0
LINE
  5
520
330
51D
100
AcDbEntity
  8
寸法
  6
CONTINUOUS
 62
     3
100
AcDbLine
 10
2551.499999821846
 20
1389.5
 30
0.0
 11
2716.00000000066
 21
1389.5
 31
0.0
  0
LINE
  5
521
330
51D
100
AcDbEntity
  8
寸法
  6
CONTINUOUS
 62
     3
100
AcDbLine
 10
2701.00000000066
 20
964.4999961853017
 30
0.0
 11
2701.00000000066
 21
1344.500003814697
 31
0.0
  0
INSERT
  5
522
330
51D
100
AcDbEntity
  8
寸法
 62
     3
100
AcDbBlockReference
  2
EX_NORM
 10
2701.00000000066
 20
919.499999999999
 30
0.0
 41
44.99999618530273
 42
44.99999618530273
 43
44.99999618530273
 50
270.0
  0
INSERT
  5
523
330
51D
100
AcDbEntity
  8
寸法
 62
     3
100
AcDbBlockReference
  2
EX_NORM
 10
2701.00000000066
 20
1389.5
 30
0.0
 41
44.99999618530273
 42
44.99999618530273
 43
44.99999618530273
 50
90.0
  0
MTEXT
  5
524
330
51D
100
AcDbEntity
  8
寸法
 62
     2
100
AcDbMText
 10
2665.750000090066
 20
1154.499999999998
 30
0.0
 40
59.99999618530273
 41
0.0
 71
     5
 72
     1
  1
470（壁排水）
  7
EXCADDIM1
 11
0.0
 21
1.0
 31
0.0
  0
POINT
  5
525
330
51D
100
AcDbEntity
  8
DEFPOINTS
 62
     0
100
AcDbPoint
 10
2491.00000000066
 20
919.4999999999991
 30
0.0
  0
POINT
  5
526
330
51D
100
AcDbEntity
  8
DEFPOINTS
 62
     0
100
AcDbPoint
 10
2541.00000000066
 20
1389.5
 30
0.0
  0
POINT
  5
527
330
51D
100
AcDbEntity
  8
DEFPOINTS
 62
     0
100
AcDbPoint
 10
2701.00000000066
 20
1389.5
 30
0.0
  0
ENDBLK
  5
51F
330
51D
100
AcDbEntity
  8
0
100
AcDbBlockEnd
  0
BLOCK
  5
52A
330
529
100
AcDbEntity
  8
0
100
AcDbBlockBegin
  2
*D25
 70
     1
 10
0.0
 20
0.0
 30
0.0
  3
*D25
  1

  0
LINE
  5
52C
330
529
100
AcDbEntity
  8
寸法
  6
CONTINUOUS
 62
     3
100
AcDbLine
 10
2534.000005543847
 20
1449.5
 30
0.0
 11
2806.00000000066
 21
1449.5
 31
0.0
  0
LINE
  5
52D
330
529
100
AcDbEntity
  8
寸法
  6
CONTINUOUS
 62
     3
100
AcDbLine
 10
2791.00000000066
 20
964.4999961853026
 30
0.0
 11
2791.00000000066
 21
1404.500003814697
 31
0.0
  0
INSERT
  5
52E
330
529
100
AcDbEntity
  8
寸法
 62
     3
100
AcDbBlockReference
  2
EX_NORM
 10
2791.00000000066
 20
919.4999999999999
 30
0.0
 41
44.99999618530273
 42
44.99999618530273
 43
44.99999618530273
 50
270.0
  0
INSERT
  5
52F
330
529
100
AcDbEntity
  8
寸法
 62
     3
100
AcDbBlockReference
  2
EX_NORM
 10
2791.00000000066
 20
1449.5
 30
0.0
 41
44.99999618530273
 42
44.99999618530273
 43
44.99999618530273
 50
90.0
  0
MTEXT
  5
530
330
529
100
AcDbEntity
  8
寸法
 62
     2
100
AcDbMText
 10
2755.750000090066
 20
1184.499999999998
 30
0.0
 40
59.99999618530273
 41
0.0
 71
     5
 72
     1
  1
530（壁固定）
  7
EXCADDIM1
 11
0.0
 21
1.0
 31
0.0
  0
POINT
  5
531
330
529
100
AcDbEntity
  8
DEFPOINTS
 62
     0
100
AcDbPoint
 10
2491.00000000066
 20
919.5
 30
0.0
  0
POINT
  5
532
330
529
100
AcDbEntity
  8
DEFPOINTS
 62
     0
100
AcDbPoint
 10
2523.500005722661
 20
1449.5
 30
0.0
  0
POINT
  5
533
330
529
100
AcDbEntity
  8
DEFPOINTS
 62
     0
100
AcDbPoint
 10
2791.00000000066
 20
1449.5
 30
0.0
  0
ENDBLK
  5
52B
330
529
100
AcDbEntity
  8
0
100
AcDbBlockEnd
  0
BLOCK
  5
53D
330
53C
100
AcDbEntity
  8
0
100
AcDbBlockBegin
  2
*D26
 70
     1
 10
0.0
 20
0.0
 30
0.0
  3
*D26
  1

  0
LINE
  5
53F
330
53C
100
AcDbEntity
  8
寸法
  6
CONTINUOUS
 62
     3
100
AcDbLine
 10
766.000000003658
 20
1435.200000178913
 30
0.0
 11
766.000000003658
 21
1233.0
 31
0.0
  0
LINE
  5
540
330
53C
100
AcDbEntity
  8
寸法
  6
CONTINUOUS
 62
     3
100
AcDbLine
 10
1156.00000000066
 20
1435.200000178913
 30
0.0
 11
1156.00000000066
 21
1233.0
 31
0.0
  0
LINE
  5
541
330
53C
100
AcDbEntity
  8
寸法
  6
CONTINUOUS
 62
     3
100
AcDbLine
 10
810.9999961889607
 20
1248.0
 30
0.0
 11
1111.000003815358
 21
1248.0
 31
0.0
  0
INSERT
  5
542
330
53C
100
AcDbEntity
  8
寸法
 62
     3
100
AcDbBlockReference
  2
EX_NORM
 10
766.000000003658
 20
1248.0
 30
0.0
 41
44.99999618530273
 42
44.99999618530273
 43
44.99999618530273
 50
180.0
  0
INSERT
  5
543
330
53C
100
AcDbEntity
  8
寸法
 62
     3
100
AcDbBlockReference
  2
EX_NORM
 10
1156.00000000066
 20
1248.0
 30
0.0
 41
44.99999618530273
 42
44.99999618530273
 43
44.99999618530273
  0
MTEXT
  5
544
330
53C
100
AcDbEntity
  8
寸法
 62
     2
100
AcDbMText
 10
961.0000000021594
 20
1283.249999910593
 30
0.0
 40
59.99999618530273
 41
0.0
 71
     5
 72
     1
  1
390（壁固定）
  7
EXCADDIM1
  0
POINT
  5
545
330
53C
100
AcDbEntity
  8
DEFPOINTS
 62
     0
100
AcDbPoint
 10
766.000000003658
 20
1445.700000000099
 30
0.0
  0
POINT
  5
546
330
53C
100
AcDbEntity
  8
DEFPOINTS
 62
     0
100
AcDbPoint
 10
1156.00000000066
 20
1445.700000000099
 30
0.0
  0
POINT
  5
547
330
53C
100
AcDbEntity
  8
DEFPOINTS
 62
     0
100
AcDbPoint
 10
1156.00000000066
 20
1248.0
 30
0.0
  0
ENDBLK
  5
53E
330
53C
100
AcDbEntity
  8
0
100
AcDbBlockEnd
  0
BLOCK
  5
54A
330
549
100
AcDbEntity
  8
0
100
AcDbBlockBegin
  2
*D27
 70
     1
 10
0.0
 20
0.0
 30
0.0
  3
*D27
  1

  0
LINE
  5
54C
330
549
100
AcDbEntity
  8
寸法
  6
CONTINUOUS
 62
     3
100
AcDbLine
 10
1283.500000000606
 20
2669.5
 30
0.0
 11
1579.500000000602
 21
2669.5
 31
0.0
  0
LINE
  5
54D
330
549
100
AcDbEntity
  8
寸法
  6
CONTINUOUS
 62
     3
100
AcDbLine
 10
1557.000000000602
 20
964.4999961853018
 30
0.0
 11
1557.000000000602
 21
2624.500003814697
 31
0.0
  0
INSERT
  5
54E
330
549
100
AcDbEntity
  8
寸法
 62
     3
100
AcDbBlockReference
  2
EX_NORM
 10
1557.000000000602
 20
919.4999999999991
 30
0.0
 41
44.99999618530273
 42
44.99999618530273
 43
44.99999618530273
 50
270.0
  0
INSERT
  5
54F
330
549
100
AcDbEntity
  8
寸法
 62
     3
100
AcDbBlockReference
  2
EX_NORM
 10
1557.000000000602
 20
2669.5
 30
0.0
 41
44.99999618530273
 42
44.99999618530273
 43
44.99999618530273
 50
90.0
  0
MTEXT
  5
550
330
549
100
AcDbEntity
  8
寸法
 62
     2
100
AcDbMText
 10
1519.500000000601
 20
1794.499999999998
 30
0.0
 40
59.99999618530273
 41
0.0
 71
     5
 72
     1
  1
（1750）
  7
EXCADDIM1
 11
0.0
 21
1.0
 31
0.0
  0
POINT
  5
551
330
549
100
AcDbEntity
  8
DEFPOINTS
 62
     0
100
AcDbPoint
 10
1243.000000000706
 20
919.4999999999991
 30
0.0
  0
POINT
  5
552
330
549
100
AcDbEntity
  8
DEFPOINTS
 62
     0
100
AcDbPoint
 10
1261.000000000606
 20
2669.5
 30
0.0
  0
POINT
  5
553
330
549
100
AcDbEntity
  8
DEFPOINTS
 62
     0
100
AcDbPoint
 10
1557.000000000602
 20
2669.5
 30
0.0
  0
ENDBLK
  5
54B
330
549
100
AcDbEntity
  8
0
100
AcDbBlockEnd
  0
BLOCK
  5
556
330
555
100
AcDbEntity
  8
0
100
AcDbBlockBegin
  2
*D28
 70
     1
 10
0.0
 20
0.0
 30
0.0
  3
*D28
  1

  0
LINE
  5
558
330
555
100
AcDbEntity
  8
寸法
  6
CONTINUOUS
 62
     3
100
AcDbLine
 10
661.0000000006039
 20
2679.999999821231
 30
0.0
 11
661.0000000006039
 21
2904.000000000005
 31
0.0
  0
LINE
  5
559
330
555
100
AcDbEntity
  8
寸法
  6
CONTINUOUS
 62
     3
100
AcDbLine
 10
1261.000000000602
 20
2679.999999821231
 30
0.0
 11
1261.000000000602
 21
2904.000000000005
 31
0.0
  0
LINE
  5
55A
330
555
100
AcDbEntity
  8
寸法
  6
CONTINUOUS
 62
     3
100
AcDbLine
 10
705.9999961859066
 20
2889.000000000005
 30
0.0
 11
1216.000003815299
 21
2889.000000000005
 31
0.0
  0
INSERT
  5
55B
330
555
100
AcDbEntity
  8
寸法
 62
     3
100
AcDbBlockReference
  2
EX_NORM
 10
661.0000000006039
 20
2889.000000000005
 30
0.0
 41
44.99999618530273
 42
44.99999618530273
 43
44.99999618530273
 50
180.0
  0
INSERT
  5
55C
330
555
100
AcDbEntity
  8
寸法
 62
     3
100
AcDbBlockReference
  2
EX_NORM
 10
1261.000000000602
 20
2889.000000000005
 30
0.0
 41
44.99999618530273
 42
44.99999618530273
 43
44.99999618530273
  0
MTEXT
  5
55D
330
555
100
AcDbEntity
  8
寸法
 62
     2
100
AcDbMText
 10
961.0000000006032
 20
2924.249999910598
 30
0.0
 40
59.99999618530273
 41
0.0
 71
     5
 72
     1
  1
600
  7
EXCADDIM1
  0
POINT
  5
55E
330
555
100
AcDbEntity
  8
DEFPOINTS
 62
     0
100
AcDbPoint
 10
661.0000000006039
 20
2669.500000000045
 30
0.0
  0
POINT
  5
55F
330
555
100
AcDbEntity
  8
DEFPOINTS
 62
     0
100
AcDbPoint
 10
1261.000000000602
 20
2669.500000000045
 30
0.0
  0
POINT
  5
560
330
555
100
AcDbEntity
  8
DEFPOINTS
 62
     0
100
AcDbPoint
 10
1261.000000000602
 20
2889.000000000005
 30
0.0
  0
ENDBLK
  5
557
330
555
100
AcDbEntity
  8
0
100
AcDbBlockEnd
  0
BLOCK
  5
56C
330
56B
100
AcDbEntity
  8
0
100
AcDbBlockBegin
  2
*D29
 70
     1
 10
0.0
 20
0.0
 30
0.0
  3
*D29
  1

  0
LINE
  5
56E
330
56B
100
AcDbEntity
  8
寸法
  6
CONTINUOUS
 62
     3
100
AcDbLine
 10
1271.499999821788
 20
2669.500000000045
 30
0.0
 11
1448.000000000506
 21
2669.500000000045
 31
0.0
  0
LINE
  5
56F
330
56B
100
AcDbEntity
  8
寸法
  6
CONTINUOUS
 62
     3
100
AcDbLine
 10
1271.499999821788
 20
2149.500000000045
 30
0.0
 11
1448.000000000506
 21
2149.500000000045
 31
0.0
  0
LINE
  5
570
330
56B
100
AcDbEntity
  8
寸法
  6
CONTINUOUS
 62
     3
100
AcDbLine
 10
1433.000000000506
 20
2624.500003814742
 30
0.0
 11
1433.000000000506
 21
2194.499996185347
 31
0.0
  0
INSERT
  5
571
330
56B
100
AcDbEntity
  8
寸法
 62
     3
100
AcDbBlockReference
  2
EX_NORM
 10
1433.000000000506
 20
2669.500000000045
 30
0.0
 41
44.99999618530273
 42
44.99999618530273
 43
44.99999618530273
 50
90.0
  0
INSERT
  5
572
330
56B
100
AcDbEntity
  8
寸法
 62
     3
100
AcDbBlockReference
  2
EX_NORM
 10
1433.000000000506
 20
2149.500000000045
 30
0.0
 41
44.99999618530273
 42
44.99999618530273
 43
44.99999618530273
 50
270.0
  0
MTEXT
  5
573
330
56B
100
AcDbEntity
  8
寸法
 62
     2
100
AcDbMText
 10
1397.750000089913
 20
2409.500000000044
 30
0.0
 40
59.99999618530273
 41
0.0
 71
     5
 72
     1
  1
520
  7
EXCADDIM1
 11
0.0
 21
1.0
 31
0.0
  0
POINT
  5
574
330
56B
100
AcDbEntity
  8
DEFPOINTS
 62
     0
100
AcDbPoint
 10
1261.000000000602
 20
2669.500000000045
 30
0.0
  0
POINT
  5
575
330
56B
100
AcDbEntity
  8
DEFPOINTS
 62
     0
100
AcDbPoint
 10
1261.000000000602
 20
2149.500000000045
 30
0.0
  0
POINT
  5
576
330
56B
100
AcDbEntity
  8
DEFPOINTS
 62
     0
100
AcDbPoint
 10
1433.000000000506
 20
2149.500000000045
 30
0.0
  0
ENDBLK
  5
56D
330
56B
100
AcDbEntity
  8
0
100
AcDbBlockEnd
  0
BLOCK
  5
579
330
578
100
AcDbEntity
  8
0
100
AcDbBlockBegin
  2
*D30
 70
     1
 10
0.0
 20
0.0
 30
0.0
  3
*D30
  1

  0
LINE
  5
57B
330
578
100
AcDbEntity
  8
寸法
  6
CONTINUOUS
 62
     3
100
AcDbLine
 10
2887.999999821641
 20
919.5000000000051
 30
0.0
 11
2896.5000000005
 21
919.5000000000056
 31
0.0
  0
LINE
  5
57C
330
578
100
AcDbEntity
  8
寸法
  6
CONTINUOUS
 62
     3
100
AcDbLine
 10
2544.499999642941
 20
2169.500000000005
 30
0.0
 11
2896.5000000005
 21
2169.500000000005
 31
0.0
  0
LINE
  5
57D
330
578
100
AcDbEntity
  8
寸法
  6
CONTINUOUS
 62
     3
100
AcDbLine
 10
2881.5000000005
 20
964.4999961853075
 30
0.0
 11
2881.5000000005
 21
2124.500003814702
 31
0.0
  0
INSERT
  5
57E
330
578
100
AcDbEntity
  8
寸法
 62
     3
100
AcDbBlockReference
  2
EX_NORM
 10
2881.5000000005
 20
919.5000000000048
 30
0.0
 41
44.99999618530273
 42
44.99999618530273
 43
44.99999618530273
 50
270.0
  0
INSERT
  5
57F
330
578
100
AcDbEntity
  8
寸法
 62
     3
100
AcDbBlockReference
  2
EX_NORM
 10
2881.5000000005
 20
2169.500000000005
 30
0.0
 41
44.99999618530273
 42
44.99999618530273
 43
44.99999618530273
 50
90.0
  0
MTEXT
  5
580
330
578
100
AcDbEntity
  8
寸法
 62
     2
100
AcDbMText
 10
2844.0000000005
 20
1544.500000000004
 30
0.0
 40
59.99999618530273
 41
0.0
 71
     5
 72
     1
  1
（1250）
  7
EXCADDIM1
 11
0.0
 21
1.0
 31
0.0
  0
POINT
  5
581
330
578
100
AcDbEntity
  8
DEFPOINTS
 62
     0
100
AcDbPoint
 10
2877.500000000455
 20
919.5000000000045
 30
0.0
  0
POINT
  5
582
330
578
100
AcDbEntity
  8
DEFPOINTS
 62
     0
100
AcDbPoint
 10
2533.999999821755
 20
2169.500000000005
 30
0.0
  0
POINT
  5
583
330
578
100
AcDbEntity
  8
DEFPOINTS
 62
     0
100
AcDbPoint
 10
2881.5000000005
 20
2169.500000000005
 30
0.0
  0
ENDBLK
  5
57A
330
578
100
AcDbEntity
  8
0
100
AcDbBlockEnd
  0
BLOCK
  5
58E
330
58D
100
AcDbEntity
  8
0
100
AcDbBlockBegin
  2
*D31
 70
     1
 10
0.0
 20
0.0
 30
0.0
  3
*D31
  1

  0
LINE
  5
590
330
58D
100
AcDbEntity
  8
寸法
  6
CONTINUOUS
 62
     3
100
AcDbLine
 10
2611.000000000555
 20
2669.500000000005
 30
0.0
 11
2881.5000000005
 21
2669.500000000005
 31
0.0
  0
LINE
  5
591
330
58D
100
AcDbEntity
  8
寸法
  6
CONTINUOUS
 62
     3
100
AcDbLine
 10
2881.5000000005
 20
2609.480762113504
 30
0.0
 11
2881.5000000005
 21
2669.500000000005
 31
0.0
  0
LINE
  5
592
330
58D
100
AcDbEntity
  8
寸法
  6
CONTINUOUS
 62
     3
100
AcDbLine
 10
2881.5000000005
 20
2564.480765928201
 30
0.0
 11
2881.5000000005
 21
2519.480769742899
 31
0.0
  0
LINE
  5
593
330
58D
100
AcDbEntity
  8
寸法
  6
CONTINUOUS
 62
     3
100
AcDbLine
 10
2881.5000000005
 20
2714.499996185307
 30
0.0
 11
2881.5000000005
 21
2759.49999237061
 31
0.0
  0
INSERT
  5
594
330
58D
100
AcDbEntity
  8
寸法
 62
     3
100
AcDbBlockReference
  2
EX_NONE
 10
2881.5000000005
 20
2609.480762113504
 30
0.0
 41
44.99999618530273
 42
44.99999618530273
 43
44.99999618530273
 50
90.0
  0
INSERT
  5
595
330
58D
100
AcDbEntity
  8
寸法
 62
     3
100
AcDbBlockReference
  2
EX_NORM
 10
2881.5000000005
 20
2669.500000000005
 30
0.0
 41
44.99999618530273
 42
44.99999618530273
 43
44.99999618530273
 50
270.0
  0
MTEXT
  5
596
330
58D
100
AcDbEntity
  8
寸法
 62
     2
100
AcDbMText
 10
2844.000000000497
 20
2767.000000000003
 30
0.0
 40
59.99999618530273
 41
0.0
 71
     5
 72
     1
  1
60
  7
EXCADDIM1
 11
0.0
 21
1.0
 31
0.0
  0
POINT
  5
597
330
58D
100
AcDbEntity
  8
DEFPOINTS
 62
     0
100
AcDbPoint
 10
2870.000000000455
 20
2609.480762113504
 30
0.0
  0
POINT
  5
598
330
58D
100
AcDbEntity
  8
DEFPOINTS
 62
     0
100
AcDbPoint
 10
2611.000000000555
 20
2669.500000000005
 30
0.0
  0
POINT
  5
599
330
58D
100
AcDbEntity
  8
DEFPOINTS
 62
     0
100
AcDbPoint
 10
2881.5000000005
 20
2669.500000000005
 30
0.0
  0
ENDBLK
  5
58F
330
58D
100
AcDbEntity
  8
0
100
AcDbBlockEnd
  0
BLOCK
  5
59C
330
59B
100
AcDbEntity
  8
0
100
AcDbBlockBegin
  2
*D32
 70
     1
 10
0.0
 20
0.0
 30
0.0
  3
*D32
  1

  0
LINE
  5
59E
330
59B
100
AcDbEntity
  8
寸法
  6
CONTINUOUS
 62
     3
100
AcDbLine
 10
2453.800000000554
 20
2681.19999982119
 30
0.0
 11
2453.800000000554
 21
2744.500000000005
 31
0.0
  0
LINE
  5
59F
330
59B
100
AcDbEntity
  8
寸法
  6
CONTINUOUS
 62
     3
100
AcDbLine
 10
2453.800000000554
 20
2729.500000000005
 30
0.0
 11
2491.000000000555
 21
2729.500000000005
 31
0.0
  0
LINE
  5
5A0
330
59B
100
AcDbEntity
  8
寸法
  6
CONTINUOUS
 62
     3
100
AcDbLine
 10
2408.800003815251
 20
2729.500000000005
 30
0.0
 11
2363.800007629949
 21
2729.500000000005
 31
0.0
  0
LINE
  5
5A1
330
59B
100
AcDbEntity
  8
寸法
  6
CONTINUOUS
 62
     3
100
AcDbLine
 10
2535.999996185858
 20
2729.500000000005
 30
0.0
 11
2580.99999237116
 21
2729.500000000005
 31
0.0
  0
INSERT
  5
5A2
330
59B
100
AcDbEntity
  8
寸法
 62
     3
100
AcDbBlockReference
  2
EX_NORM
 10
2453.800000000554
 20
2729.500000000005
 30
0.0
 41
44.99999618530273
 42
44.99999618530273
 43
44.99999618530273
  0
INSERT
  5
5A3
330
59B
100
AcDbEntity
  8
寸法
 62
     3
100
AcDbBlockReference
  2
EX_NORM
 10
2491.000000000555
 20
2729.500000000005
 30
0.0
 41
44.99999618530273
 42
44.99999618530273
 43
44.99999618530273
 50
180.0
  0
MTEXT
  5
5A4
330
59B
100
AcDbEntity
  8
寸法
 62
     2
100
AcDbMText
 10
2356.300000000554
 20
2764.749999910598
 30
0.0
 40
59.99999618530273
 41
0.0
 71
     5
 72
     1
  1
38
  7
EXCADDIM1
  0
POINT
  5
5A5
330
59B
100
AcDbEntity
  8
DEFPOINTS
 62
     0
100
AcDbPoint
 10
2453.800000000554
 20
2670.700000000004
 30
0.0
  0
POINT
  5
5A6
330
59B
100
AcDbEntity
  8
DEFPOINTS
 62
     0
100
AcDbPoint
 10
2491.000000000555
 20
2668.500000000005
 30
0.0
  0
POINT
  5
5A7
330
59B
100
AcDbEntity
  8
DEFPOINTS
 62
     0
100
AcDbPoint
 10
2491.000000000555
 20
2729.500000000005
 30
0.0
  0
ENDBLK
  5
59D
330
59B
100
AcDbEntity
  8
0
100
AcDbBlockEnd
  0
BLOCK
  5
5AA
330
5A9
100
AcDbEntity
  8
0
100
AcDbBlockBegin
  2
*D33
 70
     1
 10
0.0
 20
0.0
 30
0.0
  3
*D33
  1

  0
LINE
  5
5AC
330
5A9
100
AcDbEntity
  8
寸法
  6
CONTINUOUS
 62
     3
100
AcDbLine
 10
961.0000000006648
 20
3845.999999642386
 30
0.0
 11
961.0000000006648
 21
4020.0
 31
0.0
  0
LINE
  5
5AD
330
5A9
100
AcDbEntity
  8
寸法
  6
CONTINUOUS
 62
     3
100
AcDbLine
 10
1171.000000000705
 20
3853.999999642386
 30
0.0
 11
1171.000000000705
 21
4020.0
 31
0.0
  0
LINE
  5
5AE
330
5A9
100
AcDbEntity
  8
寸法
  6
CONTINUOUS
 62
     3
100
AcDbLine
 10
1005.999996185968
 20
4005.0
 30
0.0
 11
1126.000003815402
 21
4005.0
 31
0.0
  0
INSERT
  5
5AF
330
5A9
100
AcDbEntity
  8
寸法
 62
     3
100
AcDbBlockReference
  2
EX_NORM
 10
961.0000000006648
 20
4005.0
 30
0.0
 41
44.99999618530273
 42
44.99999618530273
 43
44.99999618530273
 50
180.0
  0
INSERT
  5
5B0
330
5A9
100
AcDbEntity
  8
寸法
 62
     3
100
AcDbBlockReference
  2
EX_NORM
 10
1171.000000000705
 20
4005.0
 30
0.0
 41
44.99999618530273
 42
44.99999618530273
 43
44.99999618530273
  0
MTEXT
  5
5B1
330
5A9
100
AcDbEntity
  8
寸法
 62
     2
100
AcDbMText
 10
1384.000000000725
 20
4040.249999910593
 30
0.0
 40
59.99999618530273
 41
0.0
 71
     5
 72
     1
  1
210（壁給水）
  7
EXCADDIM1
  0
POINT
  5
5B2
330
5A9
100
AcDbEntity
  8
DEFPOINTS
 62
     0
100
AcDbPoint
 10
961.0000000006648
 20
3835.4999998212
 30
0.0
  0
POINT
  5
5B3
330
5A9
100
AcDbEntity
  8
DEFPOINTS
 62
     0
100
AcDbPoint
 10
1171.000000000705
 20
3843.4999998212
 30
0.0
  0
POINT
  5
5B4
330
5A9
100
AcDbEntity
  8
DEFPOINTS
 62
     0
100
AcDbPoint
 10
1171.000000000705
 20
4005.0
 30
0.0
  0
ENDBLK
  5
5AB
330
5A9
100
AcDbEntity
  8
0
100
AcDbBlockEnd
  0
BLOCK
  5
5B7
330
5B6
100
AcDbEntity
  8
0
100
AcDbBlockBegin
  2
*D34
 70
     1
 10
0.0
 20
0.0
 30
0.0
  3
*D34
  1

  0
LINE
  5
5B9
330
5B6
100
AcDbEntity
  8
寸法
  6
CONTINUOUS
 62
     3
100
AcDbLine
 10
961.000000000655
 20
859.0000001787939
 30
0.0
 11
961.000000000655
 21
694.5
 31
0.0
  0
LINE
  5
5BA
330
5B6
100
AcDbEntity
  8
寸法
  6
CONTINUOUS
 62
     3
100
AcDbLine
 10
1171.000000000695
 20
890.5000003576239
 30
0.0
 11
1171.000000000695
 21
694.5
 31
0.0
  0
LINE
  5
5BB
330
5B6
100
AcDbEntity
  8
寸法
  6
CONTINUOUS
 62
     3
100
AcDbLine
 10
1005.999996185958
 20
709.5
 30
0.0
 11
1126.000003815392
 21
709.5
 31
0.0
  0
INSERT
  5
5BC
330
5B6
100
AcDbEntity
  8
寸法
 62
     3
100
AcDbBlockReference
  2
EX_NORM
 10
961.000000000655
 20
709.5
 30
0.0
 41
44.99999618530273
 42
44.99999618530273
 43
44.99999618530273
 50
180.0
  0
INSERT
  5
5BD
330
5B6
100
AcDbEntity
  8
寸法
 62
     3
100
AcDbBlockReference
  2
EX_NORM
 10
1171.000000000695
 20
709.5
 30
0.0
 41
44.99999618530273
 42
44.99999618530273
 43
44.99999618530273
  0
MTEXT
  5
5BE
330
5B6
100
AcDbEntity
  8
寸法
 62
     2
100
AcDbMText
 10
1388.500000000716
 20
744.749999910593
 30
0.0
 40
59.99999618530273
 41
0.0
 71
     5
 72
     1
  1
210（床給水）
  7
EXCADDIM1
  0
POINT
  5
5BF
330
5B6
100
AcDbEntity
  8
DEFPOINTS
 62
     0
100
AcDbPoint
 10
961.000000000655
 20
869.49999999998
 30
0.0
  0
POINT
  5
5C0
330
5B6
100
AcDbEntity
  8
DEFPOINTS
 62
     0
100
AcDbPoint
 10
1171.000000000695
 20
901.00000017881
 30
0.0
  0
POINT
  5
5C1
330
5B6
100
AcDbEntity
  8
DEFPOINTS
 62
     0
100
AcDbPoint
 10
1171.000000000695
 20
709.5
 30
0.0
  0
ENDBLK
  5
5B8
330
5B6
100
AcDbEntity
  8
0
100
AcDbBlockEnd
  0
ENDSEC
  0
SECTION
  2
ENTITIES
  0
LINE
  5
A9
330
1F
100
AcDbEntity
  8
枠_表
  6
CONTINUOUS
 62
     7
100
AcDbLine
 10
261.0000000006601
 20
139.4999999999993
 30
0.0
 11
2991.00000000066
 21
139.4999999999993
 31
0.0
  0
HATCH
  5
AA
330
1F
100
AcDbEntity
  8
枠_表
  6
CONTINUOUS
 62
     3
100
AcDbHatch
 10
0.0
 20
0.0
 30
0.0
210
0.0
220
0.0
230
1.0
  2
SOLID
 70
     1
 71
     1
 91
        1
 92
        3
 72
     1
 73
     1
 93
       10
 10
1162.08789860054
 20
184.82548994631
 42
-0.017362223501556
 10
1162.219523600539
 20
264.2763649463099
 42
-0.0267627618865285
 10
1162.219523600539
 20
264.2763649463111
 42
0.0737939047395297
 10
1181.59877360054
 20
264.3573649463108
 42
0.0183878899657109
 10
1180.819148600539
 20
192.7229899463116
 42
-0.1144749489451909
 10
1177.680398600538
 20
177.636739946309
 42
-0.1929163439413163
 10
1162.74602360054
 20
165.9119899463099
 42
-0.0603888289562337
 10
1154.828273600539
 20
163.9376149463101
 42
0.0
 10
1152.975398600539
 20
169.5772399463091
 42
0.0860918333465722
 10
1158.513773600539
 20
172.52361494631
 42
0.1331843103855141
 97
        0
 75
     0
 76
     1
 98
        1
 10
0.0
 20
0.0
  0
HATCH
  5
AB
330
1F
100
AcDbEntity
  8
枠_表
  6
CONTINUOUS
 62
     3
100
AcDbHatch
 10
0.0
 20
0.0
 30
0.0
210
0.0
220
0.0
230
1.0
  2
SOLID
 70
     1
 71
     1
 91
        1
 92
        3
 72
     1
 73
     1
 93
       16
 10
1250.803148600539
 20
183.1548649463109
 42
-0.0386228372648426
 10
1250.712023600538
 20
231.967489946311
 42
-0.0398707891902887
 10
1259.57139860054
 20
232.0079899463121
 42
-0.1256886216044368
 10
1259.166398600539
 20
223.725739946312
 42
-0.0367815758121429
 10
1259.166398600539
 20
223.7257399463099
 42
-0.268021535028829
 10
1277.03702360054
 20
233.0002399463111
 42
-0.2571134422124888
 10
1289.257898600539
 20
226.9556149463115
 42
-0.1522526366014298
 10
1292.36627360054
 20
216.9014899463101
 42
-0.0158825412051521
 10
1292.143523600537
 20
183.1042399463118
 42
-0.0285251271418421
 10
1283.587898600539
 20
183.1042399463092
 42
-0.0452212723224612
 10
1284.02327360054
 20
214.3297399463106
 42
-0.0315567291532142
 10
1281.370523600538
 20
223.5536149463122
 42
-0.1476272403790709
 10
1264.097273600539
 20
224.8799899463091
 42
-0.3908144705745794
 10
1259.227148600539
 20
212.760364946309
 42
-0.2046259928850854
 10
1259.227148600539
 20
212.7603649463106
 42
0.0
 10
1259.986523600541
 20
183.0738649463112
 42
-0.0304995761723369
 97
        0
 75
     0
 76
     1
 98
        1
 10
0.0
 20
0.0
  0
HATCH
  5
AC
330
1F
100
AcDbEntity
  8
枠_表
  6
CONTINUOUS
 62
     3
100
AcDbHatch
 10
0.0
 20
0.0
 30
0.0
210
0.0
220
0.0
230
1.0
  2
SOLID
 70
     1
 71
     1
 91
        2
 92
        1
 93
        1
 72
     2
 10
1314.428271058167
 20
249.8753200310557
 40
5.358501700154826
 50
0.0
 51
360.0
 73
     1
 97
        0
 92
        3
 72
     1
 73
     1
 93
        3
 10
1309.639523600539
 20
232.0484899463118
 42
0.1200283885712921
 10
1318.954523600537
 20
183.0941149463105
 42
-0.0401820615762149
 10
1309.649648600539
 20
183.0637399463094
 42
-0.0237521668114666
 97
        0
 75
     0
 76
     1
 98
        1
 10
0.0
 20
0.0
  0
HATCH
  5
AD
330
1F
100
AcDbEntity
  8
枠_表
  6
CONTINUOUS
 62
     3
100
AcDbHatch
 10
0.0
 20
0.0
 30
0.0
210
0.0
220
0.0
230
1.0
  2
SOLID
 70
     1
 71
     1
 91
        1
 92
        3
 72
     1
 73
     1
 93
       30
 10
1361.601023600539
 20
230.0032399463128
 42
-0.0009362235736497
 10
1361.601023600537
 20
230.0032399463103
 42
0.0681165430304653
 10
1359.145640230761
 20
222.6423649463095
 42
0.0
 10
1349.89652360054
 20
228.9704899463122
 42
-0.302112590907374
 10
1349.896523600539
 20
228.9704899463095
 42
0.0
 10
1340.571398600539
 20
221.822239946312
 42
-0.3704245237568778
 10
1340.571398600538
 20
221.8222399463116
 42
0.0
 10
1341.05739860054
 20
217.0432399463103
 42
-0.0262822419456939
 10
1346.80839860054
 20
212.4464899463116
 42
-0.180060563604375
 10
1355.98164860054
 20
209.6519899463096
 42
-0.0298130817160724
 10
1355.981648600539
 20
209.6519899463108
 42
-0.3153987453686078
 10
1364.43602360054
 20
199.9826149463104
 42
0.0
 10
1364.385398600539
 20
195.6592399463116
 42
-0.3510306079065168
 10
1348.084148600539
 20
181.990489946312
 42
0.0
 10
1343.325398600539
 20
181.9904899463108
 42
-0.1053356344842436
 10
1332.795398600538
 20
185.0279899463112
 42
0.1188608286962634
 10
1334.719148600538
 20
192.7229899463123
 42
0.0
 10
1346.26164860054
 20
185.6354899463113
 42
-0.2447573632916039
 10
1346.261648600538
 20
185.6354899463111
 42
0.0
 10
1357.39914860054
 20
193.4317399463096
 42
-0.3734162676407277
 10
1357.399148600539
 20
193.43173994631
 42
0.0
 10
1353.359273600539
 20
201.2178649463096
 42
-0.261219770190848
 10
1343.932898600538
 20
204.6401149463114
 42
-0.0572747914118363
 10
1343.93289860054
 20
204.6401149463095
 42
-0.1189658875692221
 10
1336.440398600538
 20
209.0343649463096
 42
-0.2005226878639636
 10
1333.301648600538
 20
216.1117399463433
 42
0.0
 10
1333.25102360054
 20
218.794864946309
 42
-0.2622894489606957
 10
1341.300398600539
 20
231.0967399463106
 42
-0.0988461274137808
 10
1348.833398600539
 20
232.909114946309
 42
0.0
 10
1351.627898600538
 20
232.9091149463105
 42
-0.0920156312561188
 97
        0
 75
     0
 76
     1
 98
        1
 10
0.0
 20
0.0
  0
HATCH
  5
AE
330
1F
100
AcDbEntity
  8
枠_表
  6
CONTINUOUS
 62
     3
100
AcDbHatch
 10
0.0
 20
0.0
 30
0.0
210
0.0
220
0.0
230
1.0
  2
SOLID
 70
     1
 71
     1
 91
        2
 92
        3
 72
     1
 73
     1
 93
       27
 10
1200.259148600539
 20
227.0467399463097
 42
-0.1769427732109284
 10
1200.259148600539
 20
227.0467399463098
 42
0.0
 10
1200.259148600539
 20
221.5792399463112
 42
0.0
 10
1201.57539860054
 20
221.5792399463107
 42
-0.207533601427307
 10
1210.121134185019
 20
227.9898538693564
 42
-0.1226604740888933
 10
1217.67414860054
 20
228.1503649463112
 42
-0.3213715781137954
 10
1225.482492033977
 20
218.5659771567722
 42
-0.064704004662446
 10
1225.521023600539
 20
213.4994899463109
 42
-0.257798906330806
 10
1223.931398600539
 20
211.57573994631
 42
-0.056602577721096
 10
1220.529398600539
 20
210.3911149463123
 42
-0.0166741689362636
 10
1208.055398600539
 20
208.0218649463094
 42
0.1186092302783404
 10
1199.823773600539
 20
204.0731149463118
 42
0.1699204224386695
 10
1196.239523600539
 20
198.07911494631
 42
0.1006533494296199
 10
1195.908130020036
 20
192.8780332643591
 42
0.1675695228968024
 10
1199.155523600539
 20
185.9088649463119
 42
0.1376980079804242
 10
1205.058398600539
 20
182.4967399463105
 42
0.0719813663796923
 10
1207.741523600538
 20
182.0512399463121
 42
0.0
 10
1211.852273600539
 20
182.0512399463122
 42
0.1944607457809085
 10
1225.490648600539
 20
189.0678649463093
 42
0.1288538183665954
 10
1226.867648600538
 20
185.6253649463115
 42
0.2098387395261546
 10
1231.36314860054
 20
183.1447399463104
 42
0.0
 10
1234.623398600539
 20
183.1244899463105
 42
0.0945009641609563
 10
1239.331523600539
 20
184.126864946312
 42
0.0
 10
1239.331523600539
 20
186.4859899463093
 42
-0.2395739894657535
 10
1235.22077360054
 20
186.445489946309
 42
-0.2502312110031057
 10
1233.195773600537
 20
190.252489946313
 42
-0.0104343570771765
 10
1233.46914860054
 20
218.6429899463118
 42
0.4051015674140716
 97
        0
 92
        3
 72
     1
 73
     1
 93
        8
 10
1225.703273600539
 20
208.5382399463092
 42
-0.0339435190873666
 10
1225.703273600549
 20
208.5382399462927
 42
-0.0001110072973599
 10
1225.27802360054
 20
193.026739946309
 42
-0.2253076310552528
 10
1214.646773600539
 20
185.9291149463115
 42
0.0
 10
1212.044648600538
 20
185.9291149463098
 42
-0.3657967558150132
 10
1204.309148600539
 20
194.1506149463112
 42
0.0
 10
1204.30914860054
 20
197.0868649463121
 42
-0.2530797830369341
 10
1209.533648600539
 20
204.3161149463117
 42
-0.0724473624720066
 97
        0
 75
     0
 76
     1
 98
        1
 10
0.0
 20
0.0
  0
TEXT
  5
B0
330
1F
100
AcDbEntity
  8
枠_表
  6
CONTINUOUS
 62
     2
100
AcDbText
 10
1384.500000000668
 20
174.7500000000014
 30
0.0
 40
50.625
  1
ジャニス工業株式会社
 41
1.025641025641026
  7
EXCADTTF1
 72
     5
 11
2059.500000000668
 21
174.7500000000014
 31
0.0
100
AcDbText
  0
ARC
  5
B1
330
1F
100
AcDbEntity
  8
枠_表
  6
CONTINUOUS
 62
     3
100
AcDbCircle
 10
1216.902798619493
 20
206.4250933390315
 30
0.0
 40
26.50025272990596
100
AcDbArc
 50
88.77000393305703
 51
128.9068631829044
  0
ARC
  5
B2
330
1F
100
AcDbEntity
  8
枠_表
  6
CONTINUOUS
 62
     3
100
AcDbCircle
 10
1218.105940891083
 20
217.5287438959981
 30
0.0
 40
15.40356112671885
100
AcDbArc
 50
4.148222840814693
 51
92.36000944257292
  0
ARC
  5
B3
330
1F
100
AcDbEntity
  8
枠_表
  6
CONTINUOUS
 62
     3
100
AcDbCircle
 10
1913.475203758726
 20
197.8985765897608
 30
0.0
 40
680.3223983798493
100
AcDbArc
 50
178.2526643324597
 51
180.6439560401927
  0
ARC
  5
B4
330
1F
100
AcDbEntity
  8
枠_表
  6
CONTINUOUS
 62
     3
100
AcDbCircle
 10
1237.77359841757
 20
190.2454393170694
 30
0.0
 40
4.577830246610835
100
AcDbArc
 50
179.9117548191414
 51
236.1065985968857
  0
ARC
  5
B5
330
1F
100
AcDbEntity
  8
枠_表
  6
CONTINUOUS
 62
     3
100
AcDbCircle
 10
1237.236311769358
 20
190.5091783111618
 30
0.0
 40
4.5360728870472
100
AcDbArc
 50
243.6191685566582
 51
297.5097757939563
  0
LINE
  5
B6
330
1F
100
AcDbEntity
  8
枠_表
  6
CONTINUOUS
 62
     3
100
AcDbLine
 10
1239.331523600539
 20
184.126864946312
 30
0.0
 11
1239.331523600539
 21
186.485989946309
 31
0.0
  0
LINE
  5
B7
330
1F
100
AcDbEntity
  8
枠_表
  6
CONTINUOUS
 62
     3
100
AcDbLine
 10
1231.36314860054
 20
183.1447399463104
 30
0.0
 11
1234.623398600539
 21
183.1447399463104
 31
0.0
  0
ARC
  5
B8
330
1F
100
AcDbEntity
  8
枠_表
  6
CONTINUOUS
 62
     3
100
AcDbCircle
 10
1234.349383792502
 20
195.969676923454
 30
0.0
 40
12.84810930031341
100
AcDbArc
 50
271.2220539293239
 51
292.8159509797653
  0
ARC
  5
B9
330
1F
100
AcDbEntity
  8
枠_表
  6
CONTINUOUS
 62
     3
100
AcDbCircle
 10
1231.940660262883
 20
189.5051184792953
 30
0.0
 40
6.38654325930597
100
AcDbArc
 50
217.4081478714985
 51
264.8118660441384
  0
ARC
  5
BA
330
1F
100
AcDbEntity
  8
枠_表
  6
CONTINUOUS
 62
     3
100
AcDbCircle
 10
1232.747334084411
 20
189.9738891398579
 30
0.0
 40
7.31302701014583
100
AcDbArc
 50
187.1167640402297
 51
216.4860549324747
  0
ARC
  5
BB
330
1F
100
AcDbEntity
  8
枠_表
  6
CONTINUOUS
 62
     3
100
AcDbCircle
 10
1209.991956880715
 20
202.430103938525
 30
0.0
 40
20.46359880155898
100
AcDbArc
 50
275.2158792069686
 51
319.2336424873511
  0
LINE
  5
BC
330
1F
100
AcDbEntity
  8
枠_表
  6
CONTINUOUS
 62
     3
100
AcDbLine
 10
1207.741523600538
 20
182.0512399463121
 30
0.0
 11
1211.852273600539
 21
182.0512399463121
 31
0.0
  0
ARC
  5
BD
330
1F
100
AcDbEntity
  8
枠_表
  6
CONTINUOUS
 62
     3
100
AcDbCircle
 10
1207.939219611177
 20
191.5445241581108
 30
0.0
 40
9.49534248137679
100
AcDbArc
 50
252.3384873625213
 51
268.8069976857606
  0
ARC
  5
BE
330
1F
100
AcDbEntity
  8
枠_表
  6
CONTINUOUS
 62
     3
100
AcDbCircle
 10
1208.184442956196
 20
194.7166657158903
 30
0.0
 40
12.61343486634549
100
AcDbArc
 50
224.289750990011
 51
255.6505938786759
  0
ARC
  5
BF
330
1F
100
AcDbEntity
  8
枠_表
  6
CONTINUOUS
 62
     3
100
AcDbCircle
 10
1207.637299937988
 20
194.1022532359295
 30
0.0
 40
11.79288520689435
100
AcDbArc
 50
185.9586126338419
 51
224.0091989319859
  0
ARC
  5
C0
330
1F
100
AcDbEntity
  8
枠_表
  6
CONTINUOUS
 62
     3
100
AcDbCircle
 10
1208.861252786162
 20
194.6638068821608
 30
0.0
 40
13.07564058883004
100
AcDbArc
 50
164.8589457925044
 51
187.8495628504518
  0
ARC
  5
C1
330
1F
100
AcDbEntity
  8
枠_表
  6
CONTINUOUS
 62
     3
100
AcDbCircle
 10
1206.595856855186
 20
195.954949875121
 30
0.0
 40
10.57193055836883
100
AcDbArc
 50
129.8344892359069
 51
168.4089447024628
  0
ARC
  5
C2
330
1F
100
AcDbEntity
  8
枠_表
  6
CONTINUOUS
 62
     3
100
AcDbCircle
 10
1212.145520802032
 20
188.941272222429
 30
0.0
 40
19.5140492547738
100
AcDbArc
 50
102.0988446293839
 51
129.1556705448828
  0
ARC
  5
C3
330
1F
100
AcDbEntity
  8
枠_表
  6
CONTINUOUS
 62
     3
100
AcDbCircle
 10
1178.779514998532
 20
396.1803044662827
 30
0.0
 40
190.4223614055573
100
AcDbArc
 50
278.8438342053764
 51
282.6649181367123
  0
ARC
  5
C4
330
1F
100
AcDbEntity
  8
枠_表
  6
CONTINUOUS
 62
     3
100
AcDbCircle
 10
1217.014957517298
 20
225.9611044033113
 30
0.0
 40
15.96170002909176
100
AcDbArc
 50
282.7195832898965
 51
295.6781112778079
  0
ARC
  5
C5
330
1F
100
AcDbEntity
  8
枠_表
  6
CONTINUOUS
 62
     3
100
AcDbCircle
 10
1222.984643351666
 20
213.9766998756431
 30
0.0
 40
2.580882423421965
100
AcDbArc
 50
291.5204897073511
 51
349.3445900274031
  0
ARC
  5
C6
330
1F
100
AcDbEntity
  8
枠_表
  6
CONTINUOUS
 62
     3
100
AcDbCircle
 10
1206.008081035649
 20
215.8844805562694
 30
0.0
 40
19.65815626528382
100
AcDbArc
 50
353.0315250986587
 51
7.839947970678348
  0
ARC
  5
C7
330
1F
100
AcDbEntity
  8
枠_表
  6
CONTINUOUS
 62
     3
100
AcDbCircle
 10
1214.892511923318
 20
217.9112829230132
 30
0.0
 40
10.61019807939003
100
AcDbArc
 50
3.537639967999379
 51
74.8013566619203
  0
ARC
  5
C8
330
1F
100
AcDbEntity
  8
枠_表
  6
CONTINUOUS
 62
     3
100
AcDbCircle
 10
1214.21986437041
 20
212.9075745769524
 30
0.0
 40
15.62929101996345
100
AcDbArc
 50
77.23143261361693
 51
105.203415964315
  0
ARC
  5
C9
330
1F
100
AcDbEntity
  8
枠_表
  6
CONTINUOUS
 62
     3
100
AcDbCircle
 10
1213.238042656113
 20
214.9335287786823
 30
0.0
 40
13.42321657765079
100
AcDbArc
 50
103.4267945469744
 51
150.3242613737993
  0
LINE
  5
CA
330
1F
100
AcDbEntity
  8
枠_表
  6
CONTINUOUS
 62
     3
100
AcDbLine
 10
1200.259148600539
 20
227.0467399463098
 30
0.0
 11
1200.259148600539
 21
221.5792399463112
 31
0.0
  0
ARC
  5
CB
330
1F
100
AcDbEntity
  8
枠_表
  6
CONTINUOUS
 62
     3
100
AcDbCircle
 10
1057.715934784725
 20
190.1014142884173
 30
0.0
 40
104.505225747009
100
AcDbArc
 50
353.1274757312911
 51
357.106204490141
  0
ARC
  5
CC
330
1F
100
AcDbEntity
  8
枠_表
  6
CONTINUOUS
 62
     3
100
AcDbCircle
 10
420.5078281850608
 20
225.7796003758244
 30
0.0
 40
742.7100645598513
100
AcDbArc
 50
356.8390243485978
 51
2.971133813187157
  0
ARC
  5
CD
330
1F
100
AcDbEntity
  8
枠_表
  6
CONTINUOUS
 62
     3
100
AcDbCircle
 10
1150.639107975067
 20
180.5111277709364
 30
0.0
 40
11.2165377829595
100
AcDbArc
 50
314.592391474832
 51
344.9374073189123
  0
ARC
  5
CE
330
1F
100
AcDbEntity
  8
枠_表
  6
CONTINUOUS
 62
     3
100
AcDbCircle
 10
1147.25209345348
 20
187.0139789168968
 30
0.0
 40
18.35200500585038
100
AcDbArc
 50
288.1715191042997
 51
307.8537826235693
  0
LINE
  5
CF
330
1F
100
AcDbEntity
  8
枠_表
  6
CONTINUOUS
 62
     3
100
AcDbLine
 10
1154.828273600539
 20
163.9376149463101
 30
0.0
 11
1152.97539860054
 21
169.577239946309
 31
0.0
  0
ARC
  5
D0
330
1F
100
AcDbEntity
  8
枠_表
  6
CONTINUOUS
 62
     3
100
AcDbCircle
 10
1150.643362480662
 20
197.5834729373071
 30
0.0
 40
33.90512116232043
100
AcDbArc
 50
277.0901027239701
 51
290.9134154817058
  0
ARC
  5
D1
330
1F
100
AcDbEntity
  8
枠_表
  6
CONTINUOUS
 62
     3
100
AcDbCircle
 10
1155.584599183485
 20
190.4075277940228
 30
0.0
 40
25.52092032294173
100
AcDbArc
 50
286.2966123578915
 51
329.973223283839
  0
ARC
  5
D2
330
1F
100
AcDbEntity
  8
枠_表
  6
CONTINUOUS
 62
     3
100
AcDbCircle
 10
1146.734904269256
 20
191.944703532015
 30
0.0
 40
34.09312894671467
100
AcDbArc
 50
335.1860595856123
 51
1.308075913059364
  0
ARC
  5
D3
330
1F
100
AcDbEntity
  8
枠_表
  6
CONTINUOUS
 62
     3
100
AcDbCircle
 10
2154.813797120816
 20
217.9440541426277
 30
0.0
 40
974.3211367025408
100
AcDbArc
 50
177.2695926307304
 51
181.4833117237826
  0
ARC
  5
D4
330
1F
100
AcDbEntity
  8
枠_表
  6
CONTINUOUS
 62
     3
100
AcDbCircle
 10
1171.636230019005
 20
329.6126355783338
 30
0.0
 40
66.01138250235698
100
AcDbArc
 50
261.7986203004403
 51
278.6803384946418
  0
ARC
  5
D5
330
1F
100
AcDbEntity
  8
枠_表
  6
CONTINUOUS
 62
     3
100
AcDbCircle
 10
1208.408414903723
 20
268.1252071740744
 30
0.0
 40
62.04610222041025
100
AcDbArc
 50
278.4088456599976
 51
286.1851416003176
  0
ARC
  5
D6
330
1F
100
AcDbEntity
  8
枠_表
  6
CONTINUOUS
 62
     3
100
AcDbCircle
 10
1221.849097764319
 20
178.2478294001976
 30
0.0
 40
28.83098679232812
100
AcDbArc
 50
98.71271710191789
 51
115.2874718053599
  0
ARC
  5
D7
330
1F
100
AcDbEntity
  8
枠_表
  6
CONTINUOUS
 62
     3
100
AcDbCircle
 10
1213.60528002634
 20
195.8711218570784
 30
0.0
 40
9.375291501855795
100
AcDbArc
 50
115.7403688633493
 51
172.5491744442191
  0
LINE
  5
D8
330
1F
100
AcDbEntity
  8
枠_表
  6
CONTINUOUS
 62
     3
100
AcDbLine
 10
1204.309148600539
 20
197.0868649463091
 30
0.0
 11
1204.309148600539
 21
194.1506149463112
 31
0.0
  0
ARC
  5
D9
330
1F
100
AcDbEntity
  8
枠_表
  6
CONTINUOUS
 62
     3
100
AcDbCircle
 10
1213.043948023974
 20
194.6192070146662
 30
0.0
 40
8.747359572704955
100
AcDbArc
 50
183.0707787095794
 51
263.4402016072427
  0
LINE
  5
DA
330
1F
100
AcDbEntity
  8
枠_表
  6
CONTINUOUS
 62
     3
100
AcDbLine
 10
1212.044648600538
 20
185.9291149463115
 30
0.0
 11
1214.646773600539
 21
185.9291149463115
 31
0.0
  0
ARC
  5
DB
330
1F
100
AcDbEntity
  8
枠_表
  6
CONTINUOUS
 62
     3
100
AcDbCircle
 10
1212.486703615552
 20
200.6754734295293
 30
0.0
 40
14.90372405996874
100
AcDbArc
 50
278.3335103000368
 51
329.1221464187299
  0
ARC
  5
DC
330
1F
100
AcDbEntity
  8
枠_表
  6
CONTINUOUS
 62
     3
100
AcDbCircle
 10
-33708.02313326536
 20
1158.489786838173
 30
0.0
 40
34946.64001890887
100
AcDbArc
 50
358.4169008257799
 51
358.4423418242109
  0
ARC
  5
DD
330
1F
100
AcDbEntity
  8
枠_表
  6
CONTINUOUS
 62
     3
100
AcDbCircle
 10
1254.871317011061
 20
123.7603881767564
 30
0.0
 40
59.53363641627745
100
AcDbArc
 50
85.07099551674689
 51
93.91830029343228
  0
ARC
  5
DE
330
1F
100
AcDbEntity
  8
枠_表
  6
CONTINUOUS
 62
     3
100
AcDbCircle
 10
1370.113286843321
 20
196.3725220514721
 30
0.0
 40
110.9268148967239
100
AcDbArc
 50
179.8977458165987
 51
186.8855675734268
  0
ARC
  5
DF
330
1F
100
AcDbEntity
  8
枠_表
  6
CONTINUOUS
 62
     3
100
AcDbCircle
 10
1275.849258355624
 20
213.1192837707067
 30
0.0
 40
16.62598434477196
100
AcDbArc
 50
134.9787476233347
 51
181.2369872983282
  0
ARC
  5
E0
330
1F
100
AcDbEntity
  8
枠_表
  6
CONTINUOUS
 62
     3
100
AcDbCircle
 10
1272.015021781493
 20
214.8549409708016
 30
0.0
 40
12.77467585570504
100
AcDbArc
 50
42.91644474042847
 51
128.3015542351336
  0
ARC
  5
E1
330
1F
100
AcDbEntity
  8
枠_表
  6
CONTINUOUS
 62
     3
100
AcDbCircle
 10
1267.417110685943
 20
214.5472708232342
 30
0.0
 40
16.60758761616231
100
AcDbArc
 50
359.2495022237244
 51
32.84055016678327
  0
ARC
  5
E2
330
1F
100
AcDbEntity
  8
枠_表
  6
CONTINUOUS
 62
     3
100
AcDbCircle
 10
1036.676006798125
 20
202.1627006823689
 30
0.0
 40
247.6463350002882
100
AcDbArc
 50
355.5862454873798
 51
2.816115806820253
  0
ARC
  5
E3
330
1F
100
AcDbEntity
  8
枠_表
  6
CONTINUOUS
 62
     3
100
AcDbCircle
 10
1287.865711100539
 20
135.902289288415
 30
0.0
 40
47.39539878190116
100
AcDbArc
 50
84.82155189294139
 51
95.17844810705873
  0
ARC
  5
E4
330
1F
100
AcDbEntity
  8
枠_表
  6
CONTINUOUS
 62
     3
100
AcDbCircle
 10
1536.986450493209
 20
194.8601062108708
 30
0.0
 40
245.1249869780733
100
AcDbArc
 50
176.2131780319488
 51
182.7488833337936
  0
ARC
  5
E5
330
1F
100
AcDbEntity
  8
枠_表
  6
CONTINUOUS
 62
     3
100
AcDbCircle
 10
1200.287040182173
 20
213.4973662218204
 30
0.0
 40
92.14213631800438
100
AcDbArc
 50
358.4775281223095
 51
2.117232414210064
  0
ARC
  5
E6
330
1F
100
AcDbEntity
  8
枠_表
  6
CONTINUOUS
 62
     3
100
AcDbCircle
 10
1274.685827302388
 20
216.9428913677291
 30
0.0
 40
17.68049477190885
100
AcDbArc
 50
359.8658335690532
 51
34.49363429411157
  0
ARC
  5
E7
330
1F
100
AcDbEntity
  8
枠_表
  6
CONTINUOUS
 62
     3
100
AcDbCircle
 10
1277.65860861273
 20
218.8806997196991
 30
0.0
 40
14.1332156333331
100
AcDbArc
 50
34.84393737091607
 51
92.5207065423111
  0
ARC
  5
E8
330
1F
100
AcDbEntity
  8
枠_表
  6
CONTINUOUS
 62
     3
100
AcDbCircle
 10
1276.131160351046
 20
212.8913983227892
 30
0.0
 40
20.1292349498589
100
AcDbArc
 50
87.42068310381028
 51
147.4361518966862
  0
ARC
  5
E9
330
1F
100
AcDbEntity
  8
枠_表
  6
CONTINUOUS
 62
     3
100
AcDbCircle
 10
1315.586209110088
 20
225.1178522074588
 30
0.0
 40
56.43698250687272
100
AcDbArc
 50
172.9875214416311
 51
181.4134392789641
  0
ARC
  5
EA
330
1F
100
AcDbEntity
  8
枠_表
  6
CONTINUOUS
 62
     3
100
AcDbCircle
 10
1255.06242747985
 20
249.3310319721741
 30
0.0
 40
17.90024037819024
100
AcDbArc
 50
255.9341994177206
 51
284.5896440601899
  0
ARC
  5
EB
330
1F
100
AcDbEntity
  8
枠_表
  6
CONTINUOUS
 62
     3
100
AcDbCircle
 10
945.1765483014025
 20
206.9907088007619
 30
0.0
 40
306.5546709196609
100
AcDbArc
 50
355.5405243117485
 51
4.673398698656258
  0
LINE
  5
EC
330
1F
100
AcDbEntity
  8
枠_表
  6
CONTINUOUS
 62
     3
100
AcDbLine
 10
1259.227148600539
 20
212.7603649463106
 30
0.0
 11
1259.227148600539
 21
196.5704899463117
 31
0.0
  0
CIRCLE
  5
ED
330
1F
100
AcDbEntity
  8
枠_表
  6
CONTINUOUS
 62
     3
100
AcDbCircle
 10
1314.428271058167
 20
249.8753200310557
 30
0.0
 40
5.358501700154835
  0
ARC
  5
EE
330
1F
100
AcDbEntity
  8
枠_表
  6
CONTINUOUS
 62
     3
100
AcDbCircle
 10
1314.218411404823
 20
251.2998711537125
 30
0.0
 40
19.7884282326031
100
AcDbArc
 50
256.6209501743446
 51
283.9984576255729
  0
ARC
  5
EF
330
1F
100
AcDbEntity
  8
枠_表
  6
CONTINUOUS
 62
     3
100
AcDbCircle
 10
1314.621613406364
 20
85.1970627618482
 30
0.0
 40
97.99289227876633
100
AcDbArc
 50
87.46575055044718
 51
92.90832285102188
  0
ARC
  5
F0
330
1F
100
AcDbEntity
  8
枠_表
  6
CONTINUOUS
 62
     3
100
AcDbCircle
 10
1623.381070769998
 20
207.2821508609081
 30
0.0
 40
305.38595858835
100
AcDbArc
 50
175.3387608397566
 51
184.5428594926176
  0
ARC
  5
F1
330
1F
100
AcDbEntity
  8
枠_表
  6
CONTINUOUS
 62
     3
100
AcDbCircle
 10
977.5350863052437
 20
207.4874689149362
 30
0.0
 40
333.0114127553719
100
AcDbArc
 50
355.7940354718673
 51
4.229650257234378
  0
ARC
  5
F2
330
1F
100
AcDbEntity
  8
枠_表
  6
CONTINUOUS
 62
     3
100
AcDbCircle
 10
1832.466679849886
 20
1447.544614944631
 30
0.0
 40
1305.420034344473
100
AcDbArc
 50
248.6422112053103
 51
248.8567777804232
  0
ARC
  5
F3
330
1F
100
AcDbEntity
  8
枠_表
  6
CONTINUOUS
 62
     3
100
AcDbCircle
 10
1351.281424269749
 20
217.7494557545924
 30
0.0
 40
15.16361801388235
100
AcDbArc
 50
67.66151957087348
 51
88.69073168448988
  0
ARC
  5
F4
330
1F
100
AcDbEntity
  8
枠_表
  6
CONTINUOUS
 62
     3
100
AcDbCircle
 10
1349.656656643249
 20
213.146864690641
 30
0.0
 40
19.79962298051288
100
AcDbArc
 50
92.38301574576484
 51
114.9635286746436
  0
ARC
  5
F5
330
1F
100
AcDbEntity
  8
枠_表
  6
CONTINUOUS
 62
     3
100
AcDbCircle
 10
1348.194524520606
 20
217.8013936652781
 30
0.0
 40
14.97648840463785
100
AcDbArc
 50
117.4083995939977
 51
176.1964688215695
  0
ARC
  5
F6
330
1F
100
AcDbEntity
  8
枠_表
  6
CONTINUOUS
 62
     3
100
AcDbCircle
 10
1343.339888689563
 20
216.3289153613277
 30
0.0
 40
10.04058908858416
100
AcDbArc
 50
181.2393899443581
 51
226.5942921332421
  0
ARC
  5
F7
330
1F
100
AcDbEntity
  8
枠_表
  6
CONTINUOUS
 62
     3
100
AcDbCircle
 10
1349.290221870589
 20
222.3594616510013
 30
0.0
 40
18.51151426169351
100
AcDbArc
 50
226.0402388947521
 51
253.1776672992999
  0
ARC
  5
F8
330
1F
100
AcDbEntity
  8
枠_表
  6
CONTINUOUS
 62
     3
100
AcDbCircle
 10
1333.757233775228
 20
161.9185712632816
 30
0.0
 40
43.91667620959131
100
AcDbArc
 50
63.49050203733571
 51
76.60259219849584
  0
ARC
  5
F9
330
1F
100
AcDbEntity
  8
枠_表
  6
CONTINUOUS
 62
     3
100
AcDbCircle
 10
1350.462006878714
 20
194.9769338149736
 30
0.0
 40
6.88065228328521
100
AcDbArc
 50
6.53892419415897
 51
65.09756080693691
  0
ARC
  5
FA
330
1F
100
AcDbEntity
  8
枠_表
  6
CONTINUOUS
 62
     3
100
AcDbCircle
 10
1348.553666617641
 20
194.5503545635734
 30
0.0
 40
8.91593237815014
100
AcDbArc
 50
270.8867385422408
 51
352.7925382056677
  0
ARC
  5
FB
330
1F
100
AcDbEntity
  8
枠_表
  6
CONTINUOUS
 62
     3
100
AcDbCircle
 10
1347.954156485893
 20
198.9987959666075
 30
0.0
 40
13.47006053193791
100
AcDbArc
 50
207.7689879465537
 51
262.7817283832026
  0
ARC
  5
FC
330
1F
100
AcDbEntity
  8
枠_表
  6
CONTINUOUS
 62
     3
100
AcDbCircle
 10
1345.18950818958
 20
208.2234865216537
 30
0.0
 40
26.2991447367003
100
AcDbArc
 50
241.8829576087176
 51
265.9354096935781
  0
ARC
  5
FD
330
1F
100
AcDbEntity
  8
枠_表
  6
CONTINUOUS
 62
     3
100
AcDbCircle
 10
1347.699582970798
 20
199.0038700677076
 30
0.0
 40
17.01772587270968
100
AcDbArc
 50
271.2948770866743
 51
348.6654156292868
  0
ARC
  5
FE
330
1F
100
AcDbEntity
  8
枠_表
  6
CONTINUOUS
 62
     3
100
AcDbCircle
 10
1353.306858194457
 20
198.7825887797362
 30
0.0
 40
11.19367613594409
100
AcDbArc
 50
6.154262763177246
 51
76.17509904255616
  0
ARC
  5
FF
330
1F
100
AcDbEntity
  8
枠_表
  6
CONTINUOUS
 62
     3
100
AcDbCircle
 10
1374.807700454473
 20
287.9038965755251
 30
0.0
 40
80.4846638777502
100
AcDbArc
 50
249.6420733479936
 51
256.4727051201885
  0
ARC
  5
100
330
1F
100
AcDbEntity
  8
枠_表
  6
CONTINUOUS
 62
     3
100
AcDbCircle
 10
1350.108202858781
 20
222.4707962649927
 30
0.0
 40
10.55345561005776
100
AcDbArc
 50
210.9501336849607
 51
251.7794729821079
  0
ARC
  5
101
330
1F
100
AcDbEntity
  8
枠_表
  6
CONTINUOUS
 62
     3
100
AcDbCircle
 10
1360.954711100559
 20
224.0734774463158
 30
0.0
 40
21.102779059401
100
AcDbArc
 50
193.4375782160214
 51
199.459638038058
  0
ARC
  5
102
330
1F
100
AcDbEntity
  8
枠_表
  6
CONTINUOUS
 62
     3
100
AcDbCircle
 10
1348.552644729744
 20
220.901249206189
 30
0.0
 40
8.034208966558964
100
AcDbArc
 50
92.11404364449162
 51
173.4175047026091
  0
ARC
  5
103
330
1F
100
AcDbEntity
  8
枠_表
  6
CONTINUOUS
 62
     3
100
AcDbCircle
 10
1349.12210086979
 20
219.8143854437512
 30
0.0
 40
9.188796451533795
100
AcDbArc
 50
17.92452211681263
 51
85.16543319077402
  0
LINE
  5
104
330
1F
100
AcDbEntity
  8
枠_表
  6
CONTINUOUS
 62
     3
100
AcDbLine
 10
1351.62789860054
 20
232.909114946309
 30
0.0
 11
1348.833398600539
 21
232.909114946309
 31
0.0
  0
LINE
  5
105
330
1F
100
AcDbEntity
  8
枠_表
  6
CONTINUOUS
 62
     3
100
AcDbLine
 10
1346.261648600538
 20
185.6354899463111
 30
0.0
 11
1348.69164860054
 21
185.6354899463111
 31
0.0
  0
LINE
  5
106
330
1F
100
AcDbEntity
  8
枠_表
  6
CONTINUOUS
 62
     3
100
AcDbLine
 10
1336.03539860054
 20
192.7229899463123
 30
0.0
 11
1334.719148600538
 21
192.7229899463123
 31
0.0
  0
LINE
  5
107
330
1F
100
AcDbEntity
  8
枠_表
  6
CONTINUOUS
 62
     3
100
AcDbLine
 10
1343.325398600539
 20
181.990489946312
 30
0.0
 11
1348.084148600539
 21
181.990489946312
 31
0.0
  0
LINE
  5
108
330
1F
100
AcDbEntity
  8
枠_表
  6
CONTINUOUS
 62
     3
100
AcDbLine
 10
1200.259148600539
 20
221.5792399463112
 30
0.0
 11
1201.57539860054
 21
221.5792399463112
 31
0.0
  0
ARC
  5
109
330
1F
100
AcDbEntity
  8
枠_表
  6
CONTINUOUS
 62
     3
100
AcDbCircle
 10
1317.801619698804
 20
192.8669639347504
 30
0.0
 40
16.91930610118257
100
AcDbArc
 50
332.3987521421788
 51
359.5124385477116
  0
LINE
  5
10A
330
1F
100
AcDbEntity
  8
枠_表
  6
CONTINUOUS
 62
     3
100
AcDbLine
 10
1357.297898600539
 20
195.7604899463104
 30
0.0
 11
1357.399148600539
 21
193.43173994631
 31
0.0
  0
LINE
  5
10B
330
1F
100
AcDbEntity
  8
枠_表
  6
CONTINUOUS
 62
     3
100
AcDbLine
 10
1364.43602360054
 20
199.9826149463104
 30
0.0
 11
1364.385398600539
 21
195.6592399463102
 31
0.0
  0
LINE
  5
10C
330
1F
100
AcDbEntity
  8
枠_表
  6
CONTINUOUS
 62
     3
100
AcDbLine
 10
1340.571398600538
 20
221.8222399463116
 30
0.0
 11
1340.429648600539
 21
219.1694899463107
 31
0.0
  0
LINE
  5
10D
330
1F
100
AcDbEntity
  8
枠_表
  6
CONTINUOUS
 62
     3
100
AcDbLine
 10
1333.251023600539
 20
218.7948649463101
 30
0.0
 11
1333.301648600538
 21
216.1117399463433
 31
0.0
  0
LINE
  5
10E
330
1F
100
AcDbEntity
  8
枠_表
  6
CONTINUOUS
 62
     3
100
AcDbLine
 10
1348.256273600538
 20
228.9299899463094
 30
0.0
 11
1349.896523600539
 21
228.9704899463095
 31
0.0
  0
LINE
  5
10F
330
1F
100
AcDbEntity
  8
枠_表
  6
CONTINUOUS
 62
     3
100
AcDbLine
 10
1357.86489860054
 20
222.6423649463095
 30
0.0
 11
1359.145640230761
 21
222.6423649463095
 31
0.0
  0
ARC
  5
110
330
1F
100
AcDbEntity
  8
枠_表
  6
CONTINUOUS
 62
     3
100
AcDbCircle
 10
1387.263721603968
 20
217.3529156261236
 30
0.0
 40
28.61127005606746
100
AcDbArc
 50
153.7591918158497
 51
169.3462759801917
  0
TEXT
  5
111
330
1F
100
AcDbEntity
  8
枠_表
  6
CONTINUOUS
 62
     2
100
AcDbText
 10
2826.805664100663
 20
391.0841674500011
 30
0.0
 40
44.99999618530273
  1
１
 41
1.101333426694527
  7
EXCADSTD
 72
     5
 11
2862.205664100663
 21
391.0841674500011
 31
0.0
100
AcDbText
  0
TEXT
  5
112
330
1F
100
AcDbEntity
  8
枠_表
  6
CONTINUOUS
 62
     2
100
AcDbText
 10
294.7500000006635
 20
400.125001907348
 30
0.0
 40
63.74999618530273
  1
製図
 41
1.509694103275157
  7
EXCADSTD
 72
     5
 11
445.9889895110089
 21
400.125001907348
 31
0.0
100
AcDbText
  0
TEXT
  5
113
330
1F
100
AcDbEntity
  8
枠_表
  6
CONTINUOUS
 62
     2
100
AcDbText
 10
527.2500000006635
 20
400.125001907348
 30
0.0
 40
63.74999618530273
  1
写図
 41
1.509694103275156
  7
EXCADSTD
 72
     5
 11
678.4889895110089
 21
400.125001907348
 31
0.0
100
AcDbText
  0
TEXT
  5
114
330
1F
100
AcDbEntity
  8
枠_表
  6
CONTINUOUS
 62
     2
100
AcDbText
 10
752.2500000006652
 20
400.125001907348
 30
0.0
 40
63.74999618530273
  1
検図
 41
1.303826737454632
  7
EXCADSTD
 72
     5
 11
882.8654921334243
 21
400.125001907348
 31
0.0
100
AcDbText
  0
TEXT
  5
115
330
1F
100
AcDbEntity
  8
枠_表
  6
CONTINUOUS
 62
     2
100
AcDbText
 10
947.2500000006635
 20
400.125001907348
 30
0.0
 40
63.74999618530273
  1
承認
 41
1.303826737454632
  7
EXCADSTD
 72
     5
 11
1077.865492133423
 21
400.125001907348
 31
0.0
100
AcDbText
  0
TEXT
  5
116
330
1F
100
AcDbEntity
  8
枠_表
  6
CONTINUOUS
 62
     2
100
AcDbText
 10
1124.625000000664
 20
385.125001907348
 30
0.0
 40
63.74999618530273
  1
品
 41
1.119999999999999
  7
EXCADSTD
 72
     5
 11
1175.624996948906
 21
385.125001907348
 31
0.0
100
AcDbText
  0
TEXT
  5
117
330
1F
100
AcDbEntity
  8
枠_表
  6
CONTINUOUS
 62
     2
100
AcDbText
 10
1124.625000000664
 20
310.125001907348
 30
0.0
 40
63.74999618530273
  1
名
 41
1.119999999999999
  7
EXCADSTD
 72
     5
 11
1175.624996948906
 21
310.125001907348
 31
0.0
100
AcDbText
  0
TEXT
  5
118
330
1F
100
AcDbEntity
  8
枠_表
  6
CONTINUOUS
 62
     2
100
AcDbText
 10
2084.625000000664
 20
385.125001907348
 30
0.0
 40
63.74999618530273
  1
品
 41
1.120000000000004
  7
EXCADSTD
 72
     5
 11
2135.624996948907
 21
385.125001907348
 31
0.0
100
AcDbText
  0
TEXT
  5
119
330
1F
100
AcDbEntity
  8
枠_表
  6
CONTINUOUS
 62
     2
100
AcDbText
 10
2084.625000000664
 20
310.125001907348
 30
0.0
 40
63.74999618530273
  1
番
 41
1.120000000000004
  7
EXCADSTD
 72
     5
 11
2135.624996948907
 21
310.125001907348
 31
0.0
100
AcDbText
  0
TEXT
  5
11A
330
1F
100
AcDbEntity
  8
枠_表
  6
CONTINUOUS
 62
     2
100
AcDbText
 10
2716.125000000663
 20
385.125001907348
 30
0.0
 40
63.74999618530273
  1
尺
 41
1.120000000000004
  7
EXCADSTD
 72
     5
 11
2767.124996948905
 21
385.125001907348
 31
0.0
100
AcDbText
  0
TEXT
  5
11B
330
1F
100
AcDbEntity
  8
枠_表
  6
CONTINUOUS
 62
     2
100
AcDbText
 10
2716.125000000663
 20
310.125001907348
 30
0.0
 40
63.74999618530273
  1
度
 41
1.120000000000004
  7
EXCADSTD
 72
     5
 11
2767.124996948905
 21
310.125001907348
 31
0.0
100
AcDbText
  0
TEXT
  5
11C
330
1F
100
AcDbEntity
  8
枠_表
  6
CONTINUOUS
 62
     2
100
AcDbText
 10
2084.625000000664
 20
215.6250019073486
 30
0.0
 40
63.74999618530273
  1
図
 41
1.120000000000004
  7
EXCADSTD
 72
     5
 11
2135.624996948907
 21
215.6250019073486
 31
0.0
100
AcDbText
  0
TEXT
  5
11D
330
1F
100
AcDbEntity
  8
枠_表
  6
CONTINUOUS
 62
     2
100
AcDbText
 10
2084.625000000664
 20
151.1250019073493
 30
0.0
 40
63.74999618530273
  1
番
 41
1.120000000000004
  7
EXCADSTD
 72
     5
 11
2135.624996948907
 21
151.1250019073493
 31
0.0
100
AcDbText
  0
LINE
  5
11E
330
1F
100
AcDbEntity
  8
枠_表
  6
CONTINUOUS
 62
     7
100
AcDbLine
 10
261.0000000006635
 20
469.4999999999993
 30
0.0
 11
2991.000000000663
 21
469.4999999999993
 31
0.0
  0
LINE
  5
11F
330
1F
100
AcDbEntity
  8
枠_表
  6
CONTINUOUS
 62
     7
100
AcDbLine
 10
2991.000000000663
 20
139.4999999999993
 30
0.0
 11
2991.000000000663
 21
4339.5
 31
0.0
  0
LINE
  5
120
330
1F
100
AcDbEntity
  8
枠_表
  6
CONTINUOUS
 62
     7
100
AcDbLine
 10
261.0000000006635
 20
4339.5
 30
0.0
 11
2991.000000000663
 21
4339.5
 31
0.0
  0
LINE
  5
121
330
1F
100
AcDbEntity
  8
枠_表
  6
CONTINUOUS
 62
     6
100
AcDbLine
 10
2991.000000000663
 20
289.4999999999993
 30
0.0
 11
1116.000000000663
 21
289.4999999999993
 31
0.0
  0
LINE
  5
122
330
1F
100
AcDbEntity
  8
枠_表
  6
CONTINUOUS
 62
     6
100
AcDbLine
 10
2781.000000000663
 20
469.4999999999993
 30
0.0
 11
2781.000000000663
 21
289.4999999999993
 31
0.0
  0
LINE
  5
123
330
1F
100
AcDbEntity
  8
枠_表
  6
CONTINUOUS
 62
     6
100
AcDbLine
 10
2706.000000000663
 20
469.4999999999993
 30
0.0
 11
2706.000000000663
 21
289.4999999999993
 31
0.0
  0
LINE
  5
124
330
1F
100
AcDbEntity
  8
枠_表
  6
CONTINUOUS
 62
     6
100
AcDbLine
 10
2151.000000000663
 20
469.4999999999993
 30
0.0
 11
2151.000000000663
 21
139.4999999999993
 31
0.0
  0
LINE
  5
125
330
1F
100
AcDbEntity
  8
枠_表
  6
CONTINUOUS
 62
     6
100
AcDbLine
 10
2076.000000000663
 20
469.4999999999993
 30
0.0
 11
2076.000000000663
 21
139.4999999999993
 31
0.0
  0
LINE
  5
126
330
1F
100
AcDbEntity
  8
枠_表
  6
CONTINUOUS
 62
     6
100
AcDbLine
 10
1191.000000000663
 20
469.4999999999993
 30
0.0
 11
1191.000000000663
 21
289.4999999999993
 31
0.0
  0
LINE
  5
127
330
1F
100
AcDbEntity
  8
枠_表
  6
CONTINUOUS
 62
     6
100
AcDbLine
 10
1116.000000000663
 20
469.4999999999993
 30
0.0
 11
1116.000000000663
 21
139.4999999999993
 31
0.0
  0
LINE
  5
128
330
1F
100
AcDbEntity
  8
枠_表
  6
CONTINUOUS
 62
     6
100
AcDbLine
 10
921.0000000006652
 20
469.4999999999993
 30
0.0
 11
921.0000000006652
 21
139.4999999999993
 31
0.0
  0
LINE
  5
129
330
1F
100
AcDbEntity
  8
枠_表
  6
CONTINUOUS
 62
     6
100
AcDbLine
 10
726.0000000006652
 20
469.4999999999993
 30
0.0
 11
726.0000000006652
 21
139.4999999999993
 31
0.0
  0
LINE
  5
12A
330
1F
100
AcDbEntity
  8
枠_表
  6
CONTINUOUS
 62
     6
100
AcDbLine
 10
493.5000000006635
 20
469.4999999999993
 30
0.0
 11
493.5000000006635
 21
139.4999999999993
 31
0.0
  0
LINE
  5
12B
330
1F
100
AcDbEntity
  8
枠_表
  6
CONTINUOUS
 62
     6
100
AcDbLine
 10
261.0000000006635
 20
394.4999999999993
 30
0.0
 11
1116.000000000663
 21
394.4999999999993
 31
0.0
  0
LINE
  5
12C
330
1F
100
AcDbEntity
  8
枠_表
  6
CONTINUOUS
 62
     6
100
AcDbLine
 10
2829.980712900664
 20
324.0043945500008
 30
0.0
 11
2945.990844750664
 21
442.04974365
 31
0.0
  0
CIRCLE
  5
12D
330
1F
100
AcDbEntity
  8
枠_表
  6
CONTINUOUS
 62
     6
100
AcDbCircle
 10
568.5000000006635
 20
176.9999999999993
 30
0.0
 40
1.5000003
  0
CIRCLE
  5
12E
330
1F
100
AcDbEntity
  8
枠_表
  6
CONTINUOUS
 62
     6
100
AcDbCircle
 10
643.5000000006635
 20
176.9999999999993
 30
0.0
 40
1.5000003
  0
LINE
  5
12F
330
1F
100
AcDbEntity
  8
枠_表
  6
EXLTYPE2
 62
     6
100
AcDbLine
 10
261.0000000006635
 20
214.4999999999993
 30
0.0
 11
726.0000000006652
 21
214.4999999999993
 31
0.0
  0
LINE
  5
130
330
1F
100
AcDbEntity
  8
枠_表
  6
CONTINUOUS
 62
     7
100
AcDbLine
 10
261.0000000006635
 20
139.4999999999993
 30
0.0
 11
261.0000000006635
 21
4339.5
 31
0.0
  0
TEXT
  5
131
330
1F
100
AcDbEntity
  8
枠_表
  6
CONTINUOUS
 62
     2
100
AcDbText
 10
2887.918945350663
 20
324.5232695999982
 30
0.0
 40
44.99999618530273
  1
１５
 41
1.098531308335248
  7
EXCADSTD
 72
     5
 11
2965.600795569198
 21
324.5232695999982
 31
0.0
100
AcDbText
  0
TEXT
  5
132
330
1F
100
AcDbEntity
  8
枠_表
  6
CONTINUOUS
 62
     2
100
AcDbText
 10
2841.000000000715
 20
4153.125001907346
 30
0.0
 40
59.99999618530273
  1
１
 41
1.120000000000004
  7
EXCADSTD
 72
     5
 11
2888.999996948957
 21
4153.125001907346
 31
0.0
100
AcDbText
  0
TEXT
  5
133
330
1F
100
AcDbEntity
  8
枠_表
  6
CONTINUOUS
 62
     2
100
AcDbText
 10
1741.499999999259
 20
3981.750003814705
 30
0.0
 40
59.99999618530273
  1
※止水栓（別途手配）
 41
1.052966101694915
  7
EXCADSTD
 72
     5
 11
2273.999966143821
 21
3981.750003814705
 31
0.0
100
AcDbText
  0
TEXT
  5
134
330
1F
100
AcDbEntity
  8
枠_表
  6
CONTINUOUS
 62
     2
100
AcDbText
 10
2841.000000000715
 20
3646.125001907347
 30
0.0
 40
59.99999618530273
  1
１
 41
1.120000000000004
  7
EXCADSTD
 72
     5
 11
2888.999996948957
 21
3646.125001907347
 31
0.0
100
AcDbText
  0
TEXT
  5
135
330
1F
100
AcDbEntity
  8
枠_表
  6
CONTINUOUS
 62
     2
100
AcDbText
 10
2841.000000000715
 20
3533.250001907349
 30
0.0
 40
59.99999618530273
  1
１
 41
1.120000000000004
  7
EXCADSTD
 72
     5
 11
2888.999996948957
 21
3533.250001907349
 31
0.0
100
AcDbText
  0
TEXT
  5
136
330
1F
100
AcDbEntity
  8
枠_表
  6
CONTINUOUS
 62
     2
100
AcDbText
 10
2284.500000000508
 20
3573.225001907348
 30
0.0
 40
59.99999618530273
  1
配管アダプター
 41
0.990243889413228
  7
EXCADSTD
 72
     5
 11
2632.499973297627
 21
3573.225001907348
 31
0.0
100
AcDbText
  0
TEXT
  5
137
330
1F
100
AcDbEntity
  8
枠_表
  6
CONTINUOUS
 62
     2
100
AcDbText
 10
2284.500000000508
 20
3498.975001907348
 30
0.0
 40
59.99999618530273
  1
（ＶＰ５０・ＶＵ５０用）
 41
0.8183098359622852
  7
EXCADSTD
 72
     5
 11
2782.499954224141
 21
3498.975001907348
 31
0.0
100
AcDbText
  0
TEXT
  5
138
330
1F
100
AcDbEntity
  8
枠_表
  6
CONTINUOUS
 62
     2
100
AcDbText
 10
1746.000000000708
 20
3721.875001907346
 30
0.0
 40
59.99999618530273
  1
※壁排水用部材（別途手配）
 41
1.045454545454545
  7
EXCADSTD
 72
     5
 11
2435.999956131689
 21
3721.875001907346
 31
0.0
100
AcDbText
  0
LINE
  5
139
330
1F
100
AcDbEntity
  8
枠_表
  6
CONTINUOUS
 62
     6
100
AcDbLine
 10
1746.000000000715
 20
4220.249999999996
 30
0.0
 11
2946.000000000715
 21
4220.249999999996
 31
0.0
  0
LINE
  5
13A
330
1F
100
AcDbEntity
  8
枠_表
  6
CONTINUOUS
 62
     6
100
AcDbLine
 10
1746.000000000715
 20
4294.499999999997
 30
0.0
 11
2946.000000000715
 21
4294.499999999997
 31
0.0
  0
LINE
  5
13B
330
1F
100
AcDbEntity
  8
枠_表
  6
CONTINUOUS
 62
     6
100
AcDbLine
 10
1746.000000000715
 20
3966.749999999998
 30
0.0
 11
2946.000000000715
 21
3966.749999999998
 31
0.0
  0
LINE
  5
13C
330
1F
100
AcDbEntity
  8
枠_表
  6
CONTINUOUS
 62
     6
100
AcDbLine
 10
1746.000000000715
 20
3818.249999999997
 30
0.0
 11
2946.000000000715
 21
3818.249999999997
 31
0.0
  0
LINE
  5
13D
330
1F
100
AcDbEntity
  8
枠_表
  6
CONTINUOUS
 62
     6
100
AcDbLine
 10
1746.000000000715
 20
3892.499999999997
 30
0.0
 11
2946.000000000715
 21
3892.499999999997
 31
0.0
  0
LINE
  5
13E
330
1F
100
AcDbEntity
  8
枠_表
  6
CONTINUOUS
 62
     6
100
AcDbLine
 10
1746.000000000715
 20
3818.25
 30
0.0
 11
1746.000000000715
 21
3966.749999999998
 31
0.0
  0
LINE
  5
13F
330
1F
100
AcDbEntity
  8
枠_表
  6
CONTINUOUS
 62
     6
100
AcDbLine
 10
2271.000000000715
 20
3818.249999999997
 30
0.0
 11
2271.000000000715
 21
3966.749999999998
 31
0.0
  0
LINE
  5
140
330
1F
100
AcDbEntity
  8
枠_表
  6
CONTINUOUS
 62
     6
100
AcDbLine
 10
2796.000000000715
 20
3818.249999999997
 30
0.0
 11
2796.000000000715
 21
3966.749999999998
 31
0.0
  0
LINE
  5
141
330
1F
100
AcDbEntity
  8
枠_表
  6
CONTINUOUS
 62
     6
100
AcDbLine
 10
2946.000000000715
 20
3818.25
 30
0.0
 11
2946.000000000715
 21
3966.749999999998
 31
0.0
  0
LINE
  5
142
330
1F
100
AcDbEntity
  8
枠_表
  6
CONTINUOUS
 62
     6
100
AcDbLine
 10
1746.000000000715
 20
3490.499999999998
 30
0.0
 11
2946.000000000715
 21
3490.499999999998
 31
0.0
  0
LINE
  5
143
330
1F
100
AcDbEntity
  8
枠_表
  6
CONTINUOUS
 62
     6
100
AcDbLine
 10
1746.000000000715
 20
3639.0
 30
0.0
 11
2946.000000000715
 21
3639.0
 31
0.0
  0
LINE
  5
144
330
1F
100
AcDbEntity
  8
枠_表
  6
CONTINUOUS
 62
     6
100
AcDbLine
 10
1746.000000000715
 20
3713.249999999997
 30
0.0
 11
2946.000000000715
 21
3713.249999999997
 31
0.0
  0
LINE
  5
145
330
1F
100
AcDbEntity
  8
枠_表
  6
CONTINUOUS
 62
     6
100
AcDbLine
 10
1746.000000000715
 20
3490.499999999998
 30
0.0
 11
1746.000000000715
 21
3713.249999999997
 31
0.0
  0
LINE
  5
146
330
1F
100
AcDbEntity
  8
枠_表
  6
CONTINUOUS
 62
     6
100
AcDbLine
 10
2271.000000000715
 20
3490.499999999998
 30
0.0
 11
2271.000000000715
 21
3713.249999999997
 31
0.0
  0
LINE
  5
147
330
1F
100
AcDbEntity
  8
枠_表
  6
CONTINUOUS
 62
     6
100
AcDbLine
 10
2796.000000000715
 20
3490.499999999998
 30
0.0
 11
2796.000000000715
 21
3713.249999999997
 31
0.0
  0
LINE
  5
148
330
1F
100
AcDbEntity
  8
枠_表
  6
CONTINUOUS
 62
     6
100
AcDbLine
 10
2946.000000000715
 20
3490.499999999998
 30
0.0
 11
2946.000000000715
 21
3713.249999999997
 31
0.0
  0
LINE
  5
149
330
1F
100
AcDbEntity
  8
枠_表
  6
CONTINUOUS
 62
     6
100
AcDbLine
 10
1746.000000000715
 20
4145.999999999995
 30
0.0
 11
2946.000000000715
 21
4145.999999999995
 31
0.0
  0
TEXT
  5
14A
330
1F
100
AcDbEntity
  8
枠_表
  6
CONTINUOUS
 62
     2
100
AcDbText
 10
2284.500000000508
 20
3644.625001907345
 30
0.0
 40
59.99999618530273
  1
Ｌ管
 41
1.049923628946709
  7
EXCADSTD
 72
     5
 11
2383.492793007405
 21
3644.625001907345
 31
0.0
100
AcDbText
  0
TEXT
  5
14B
330
1F
100
AcDbEntity
  8
枠_表
  6
CONTINUOUS
 62
     2
100
AcDbText
 10
2817.000000090122
 20
4227.37500190735
 30
0.0
 40
59.99999618530273
  1
個数
 41
1.049923628946709
  7
EXCADSTD
 72
     5
 11
2915.992793097019
 21
4227.37500190735
 31
0.0
100
AcDbText
  0
TEXT
  5
14C
330
1F
100
AcDbEntity
  8
枠_表
  6
CONTINUOUS
 62
     2
100
AcDbText
 10
1873.500000000708
 20
4227.37500190735
 30
0.0
 40
59.99999618530273
  1
品番
 41
1.895695426731975
  7
EXCADSTD
 72
     5
 11
2052.236986014502
 21
4227.37500190735
 31
0.0
100
AcDbText
  0
TEXT
  5
14D
330
1F
100
AcDbEntity
  8
枠_表
  6
CONTINUOUS
 62
     2
100
AcDbText
 10
2398.500000000704
 20
4227.37500190735
 30
0.0
 40
59.99999618530273
  1
品名
 41
1.895695426731973
  7
EXCADSTD
 72
     5
 11
2577.236986014498
 21
4227.37500190735
 31
0.0
100
AcDbText
  0
TEXT
  5
14E
330
1F
100
AcDbEntity
  8
枠_表
  6
CONTINUOUS
 62
     2
100
AcDbText
 10
1469.9999985702
 20
304.5000038146966
 30
0.0
 40
74.99999237060547
  1
洗面化粧台
 41
1.052413789665836
  7
EXCADSTD
 72
     5
 11
1796.999964237924
 21
304.5000038146966
 31
0.0
100
AcDbText
  0
TEXT
  5
14F
330
1F
100
AcDbEntity
  8
枠_表
  6
CONTINUOUS
 62
     2
100
AcDbText
 10
2284.500000000508
 20
3901.125001907347
 30
0.0
 40
59.99999618530273
  1
床給水用止水栓
 41
0.990243889413228
  7
EXCADSTD
 72
     5
 11
2632.499973297627
 21
3901.125001907347
 31
0.0
100
AcDbText
  0
TEXT
  5
150
330
1F
100
AcDbEntity
  8
枠_表
  6
CONTINUOUS
 62
     2
100
AcDbText
 10
2281.500000000507
 20
3826.875001907346
 30
0.0
 40
59.99999618530273
  1
壁給水用止水栓
 41
0.990243889413228
  7
EXCADSTD
 72
     5
 11
2629.499973297627
 21
3826.875001907346
 31
0.0
100
AcDbText
  0
TEXT
  5
151
330
1F
100
AcDbEntity
  8
枠_表
  6
CONTINUOUS
 62
     2
100
AcDbText
 10
1206.000000000662
 20
402.000001907348
 30
0.0
 40
59.99999618530273
  1
６００ｍｍ幅
 41
0.9999999872843416
  7
EXCADSTD
 72
     5
 11
1505.999977112478
 21
402.000001907348
 31
0.0
100
AcDbText
  0
TEXT
  5
152
330
1F
100
AcDbEntity
  8
枠_表
  6
CONTINUOUS
 62
     2
100
AcDbText
 10
2841.000000000754
 20
4076.550001907348
 30
0.0
 40
59.99999618530273
  1
１
 41
1.120000000000004
  7
EXCADSTD
 72
     5
 11
2888.999996948996
 21
4076.550001907348
 31
0.0
100
AcDbText
  0
LINE
  5
153
330
1F
100
AcDbEntity
  8
枠_表
  6
CONTINUOUS
 62
     6
100
AcDbLine
 10
2946.00000000075
 20
4070.999999999994
 30
0.0
 11
1746.00000000075
 21
4070.999999999994
 31
0.0
  0
LINE
  5
154
330
1F
100
AcDbEntity
  8
枠_表
  6
CONTINUOUS
 62
     6
100
AcDbLine
 10
1746.000000000715
 20
4071.0
 30
0.0
 11
1746.000000000715
 21
4294.5
 31
0.0
  0
LINE
  5
155
330
1F
100
AcDbEntity
  8
枠_表
  6
CONTINUOUS
 62
     6
100
AcDbLine
 10
2196.000000000715
 20
4294.499999999997
 30
0.0
 11
2196.000000000715
 21
4070.999999999994
 31
0.0
  0
LINE
  5
156
330
1F
100
AcDbEntity
  8
枠_表
  6
CONTINUOUS
 62
     6
100
AcDbLine
 10
2796.000000000715
 20
4070.999999999994
 30
0.0
 11
2796.000000000715
 21
4294.499999999997
 31
0.0
  0
LINE
  5
157
330
1F
100
AcDbEntity
  8
枠_表
  6
CONTINUOUS
 62
     6
100
AcDbLine
 10
2946.000000000715
 20
4071.0
 30
0.0
 11
2946.000000000715
 21
4294.5
 31
0.0
  0
CIRCLE
  5
158
330
1F
100
AcDbEntity
  8
枠_表
  6
CONTINUOUS
 62
     6
100
AcDbCircle
 10
336.0000000006072
 20
176.9999999999993
 30
0.0
 40
1.5000003
  0
CIRCLE
  5
159
330
1F
100
AcDbEntity
  8
枠_表
  6
CONTINUOUS
 62
     6
100
AcDbCircle
 10
411.0000000006072
 20
176.9999999999993
 30
0.0
 40
1.5000003
  0
TEXT
  5
15A
330
1F
100
AcDbEntity
  8
枠_表
  6
CONTINUOUS
 62
     2
100
AcDbText
 10
2209.050000000747
 20
4078.125001907348
 30
0.0
 40
59.99999618530273
  1
化粧鏡
 41
1.070588224822399
  7
EXCADSTD
 72
     5
 11
2365.049988556656
 21
4078.125001907348
 31
0.0
100
AcDbText
  0
TEXT
  5
15B
330
1F
100
AcDbEntity
  8
枠_表
  6
CONTINUOUS
 62
     2
100
AcDbText
 10
1756.500000000746
 20
4078.125001907348
 30
0.0
 40
59.99999618530273
  1
ＬＵＭ６０２ＣＳ
 41
0.7819148841479134
  7
EXCADSTD
 72
     5
 11
2071.499976158888
 21
4078.125001907348
 31
0.0
100
AcDbText
  0
TEXT
  5
15C
330
1F
100
AcDbEntity
  8
枠_表
  6
CONTINUOUS
 62
     2
100
AcDbText
 10
302.2500000006688
 20
267.0000038146999
 30
0.0
 40
74.99999237060547
  1
川野
 41
1.166581818181818
  7
EXCADSTD
 72
     5
 11
439.7399860144627
 21
267.0000038146999
 31
0.0
100
AcDbText
  0
TEXT
  5
15D
330
1F
100
AcDbEntity
  8
枠_表
  6
CONTINUOUS
 62
     6
100
AcDbText
 10
270.5161735138836
 20
153.6751117073488
 30
0.0
 40
44.99999618530273
  1
'23
 41
0.4689783949971204
  7
EXCADSTD
 72
     5
 11
317.7489935774747
 21
153.6751117073488
 31
0.0
100
AcDbText
  0
TEXT
  5
15E
330
1F
100
AcDbEntity
  8
枠_表
  6
CONTINUOUS
 62
     2
100
AcDbText
 10
2340.000000000626
 20
339.0000038146985
 30
0.0
 40
89.99999237060547
  1
別記
 41
1.166581818181818
  7
EXCADSTD
 72
     5
 11
2504.98798601442
 21
339.0000038146985
 31
0.0
100
AcDbText
  0
TEXT
  5
15F
330
1F
100
AcDbEntity
  8
枠_表
  6
CONTINUOUS
 62
     2
100
AcDbText
 10
1756.500000000755
 20
4153.125001907346
 30
0.0
 40
59.99999618530273
  1
ＬＵ０６０１ＡＳＳ１Ｅ
 41
0.7673076828932146
  7
EXCADSTD
 72
     5
 11
2183.999967575829
 21
4153.125001907346
 31
0.0
100
AcDbText
  0
TEXT
  5
160
330
1F
100
AcDbEntity
  8
枠_表
  6
CONTINUOUS
 62
     2
100
AcDbText
 10
1753.500000000816
 20
3899.25000190735
 30
0.0
 40
59.99999618530273
  1
ＪＬ２１１－３３０ＷＭＹ
 41
0.7640844976398299
  7
EXCADSTD
 72
     5
 11
2218.499964714866
 21
3899.25000190735
 31
0.0
100
AcDbText
  0
TEXT
  5
161
330
1F
100
AcDbEntity
  8
枠_表
  6
CONTINUOUS
 62
     2
100
AcDbText
 10
1741.499999999309
 20
3400.500003814705
 30
0.0
 40
59.99999618530273
  1
※洗面化粧台には、床排水用トラップを付属
 41
1.036764705882353
  7
EXCADSTD
 72
     5
 11
2798.99993276527
 21
3400.500003814705
 31
0.0
100
AcDbText
  0
TEXT
  5
162
330
1F
100
AcDbEntity
  8
枠_表
  6
CONTINUOUS
 62
     2
100
AcDbText
 10
1741.499999999309
 20
3340.500007629403
 30
0.0
 40
59.99999618530273
  1
※洗面化粧台には、止水栓は含まれない
 41
1.038551401869159
  7
EXCADSTD
 72
     5
 11
2693.99993944099
 21
3340.500007629403
 31
0.0
100
AcDbText
  0
TEXT
  5
163
330
1F
100
AcDbEntity
  8
枠_表
  6
CONTINUOUS
 62
     2
100
AcDbText
 10
1741.499999999309
 20
3280.5000114441
 30
0.0
 40
59.99999618530273
  1
※単水栓は、自動水栓（電池式）
 41
1.042134831460674
  7
EXCADSTD
 72
     5
 11
2536.49994945457
 21
3280.5000114441
 31
0.0
100
AcDbText
  0
TEXT
  5
164
330
1F
100
AcDbEntity
  8
枠_表
  6
CONTINUOUS
 62
     2
100
AcDbText
 10
1753.500000000766
 20
3534.37500190735
 30
0.0
 40
59.99999618530273
  1
ＬＵＭＥＨ７０－２００－３２Ｂ
 41
0.6685393858491744
  7
EXCADSTD
 72
     5
 11
2263.500013352206
 21
3534.37500190735
 31
0.0
100
AcDbText
  0
TEXT
  5
165
330
1F
100
AcDbEntity
  8
枠_表
  6
CONTINUOUS
 62
     2
100
AcDbText
 10
1756.500000000755
 20
3825.375001907347
 30
0.0
 40
59.99999618530273
  1
ＪＬ２２１－７５ＷＭＳＹ
 41
0.7640844976398302
  7
EXCADSTD
 72
     5
 11
2221.499964714806
 21
3825.375001907347
 31
0.0
100
AcDbText
  0
TEXT
  5
166
330
1F
100
AcDbEntity
  8
枠_表
  6
CONTINUOUS
 62
     2
100
AcDbText
 10
2209.500000000508
 20
4151.625001907344
 30
0.0
 40
59.99999618530273
  1
洗面化粧台（一般地形）
 41
0.9692307555369835
  7
EXCADSTD
 72
     5
 11
2749.499958038838
 21
4151.625001907344
 31
0.0
100
AcDbText
  0
TEXT
  5
167
330
1F
100
AcDbEntity
  8
枠_表
  6
CONTINUOUS
 62
     2
100
AcDbText
 10
1756.500000000705
 20
3646.125001907347
 30
0.0
 40
59.99999618530273
  1
ＭＥ４４１３１
 41
0.7896341368434869
  7
EXCADSTD
 72
     5
 11
2033.99997901987
 21
3646.125001907347
 31
0.0
100
AcDbText
  0
TEXT
  5
168
330
1F
100
AcDbEntity
  8
枠_表
  6
CONTINUOUS
 62
     2
100
AcDbText
 10
2841.000000000715
 20
3900.375001907347
 30
0.0
 40
59.99999618530273
  1
１
 41
1.120000000000004
  7
EXCADSTD
 72
     5
 11
2888.999996948957
 21
3900.375001907347
 31
0.0
100
AcDbText
  0
TEXT
  5
169
330
1F
100
AcDbEntity
  8
枠_表
  6
CONTINUOUS
 62
     2
100
AcDbText
 10
2841.000000000715
 20
3826.875001907346
 30
0.0
 40
59.99999618530273
  1
１
 41
1.120000000000004
  7
EXCADSTD
 72
     5
 11
2888.999996948957
 21
3826.875001907346
 31
0.0
100
AcDbText
  0
TEXT
  5
16A
330
1F
100
AcDbEntity
  8
枠_表
  6
CONTINUOUS
 62
     7
100
AcDbText
 10
2263.500000000613
 20
171.7500038146979
 30
0.0
 40
89.99999237060547
  1
ＬＵ２１８７９１
 41
1.01773049277147
  7
EXCADSTD
 72
     5
 11
2878.499945641177
 21
171.7500038146979
 31
0.0
100
AcDbText
  0
TEXT
  5
16B
330
1F
100
AcDbEntity
  8
枠_表
  6
CONTINUOUS
 62
     6
100
AcDbText
 10
364.6036740860882
 20
153.6751117073488
 30
0.0
 40
44.99999618530273
  1
5
 41
0.4683823586133572
  7
EXCADSTD
 72
     5
 11
381.6661728463116
 21
153.6751117073488
 31
0.0
100
AcDbText
  0
TEXT
  5
16C
330
1F
100
AcDbEntity
  8
枠_表
  6
CONTINUOUS
 62
     6
100
AcDbText
 10
434.8411738715118
 20
153.6751117073488
 30
0.0
 40
44.99999618530273
  1
30
 41
0.4086486447995843
  7
EXCADSTD
 72
     5
 11
467.241170819754
 21
153.6751117073488
 31
0.0
100
AcDbText
  0
LINE
  5
16D
330
1F
100
AcDbEntity
  8
化粧台
  6
CONTINUOUS
 62
     2
100
AcDbLine
 10
791.0000000006603
 20
1669.499999999956
 30
0.0
 11
1131.000000000697
 21
1669.499999999956
 31
0.0
  0
ARC
  5
16E
330
1F
100
AcDbEntity
  8
化粧台
  6
CONTINUOUS
 62
     2
100
AcDbCircle
 10
961.0000000006603
 20
1749.382636432929
 30
0.0
 40
214.8826364329721
100
AcDbArc
 50
202.703373117341
 51
337.2966268826543
  0
ARC
  5
16F
330
1F
100
AcDbEntity
  8
化粧台
  6
CONTINUOUS
 62
     2
100
AcDbCircle
 10
1254.905786216765
 20
1674.499999999956
 30
0.0
 40
5.0
100
AcDbArc
 50
357.9174347202663
 51
127.8553251654789
  0
LINE
  5
170
330
1F
100
AcDbEntity
  8
化粧台
  6
CONTINUOUS
 62
     2
100
AcDbLine
 10
1131.0000000007
 20
1669.499999999956
 30
0.0
 11
1240.432787040942
 21
1674.257947262577
 31
0.0
  0
ARC
  5
171
330
1F
100
AcDbEntity
  8
化粧台
  6
CONTINUOUS
 62
     2
100
AcDbCircle
 10
1239.564042555416
 20
1694.239070429678
 30
0.0
 40
20.0
100
AcDbArc
 50
272.4895529219986
 51
307.8553251654777
  0
ARC
  5
172
330
1F
100
AcDbEntity
  8
化粧台
  6
CONTINUOUS
 62
     2
100
AcDbCircle
 10
1255.814877125855
 20
1699.499999999956
 30
0.0
 40
5.0
100
AcDbArc
 50
357.9174347202663
 51
90.00000000000001
  0
ARC
  5
173
330
1F
100
AcDbEntity
  8
化粧台
  6
CONTINUOUS
 62
     2
100
AcDbCircle
 10
1154.003506836516
 20
1624.499999999956
 30
0.0
 40
15.00000000000001
100
AcDbArc
 50
90.00000000000001
 51
147.0951725792534
  0
LINE
  5
174
330
1F
100
AcDbEntity
  8
化粧台
  6
CONTINUOUS
 62
     2
100
AcDbLine
 10
1258.741490224176
 20
1642.390981145636
 30
0.0
 11
1260.811574615587
 21
1699.318301909421
 31
0.0
  0
ARC
  5
175
330
1F
100
AcDbEntity
  8
化粧台
  6
CONTINUOUS
 62
     2
100
AcDbCircle
 10
1255.743471730339
 20
1642.499999999956
 30
0.0
 40
3.000000000000002
100
AcDbArc
 50
270.0
 51
357.9174347202733
  0
ARC
  5
176
330
1F
100
AcDbEntity
  8
化粧台
  6
CONTINUOUS
 62
     2
100
AcDbCircle
 10
1156.464988491049
 20
1667.604339212608
 30
0.0
 40
3.000000000000002
100
AcDbArc
 50
337.2966268826544
 51
92.48955292199311
  0
LINE
  5
177
330
1F
100
AcDbEntity
  8
化粧台
  6
CONTINUOUS
 62
     2
100
AcDbLine
 10
1154.003506836516
 20
1639.499999999956
 30
0.0
 11
1255.743471730339
 21
1639.499999999956
 31
0.0
  0
ARC
  5
178
330
1F
100
AcDbEntity
  8
化粧台
  6
CONTINUOUS
 62
     2
100
AcDbCircle
 10
667.0942137845941
 20
1674.499999999956
 30
0.0
 40
5.0
100
AcDbArc
 50
52.14467483452227
 51
182.0825652797287
  0
LINE
  5
179
330
1F
100
AcDbEntity
  8
化粧台
  6
CONTINUOUS
 62
     2
100
AcDbLine
 10
791.0000000006603
 20
1669.499999999956
 30
0.0
 11
681.5672129604154
 21
1674.257947262577
 31
0.0
  0
ARC
  5
17A
330
1F
100
AcDbEntity
  8
化粧台
  6
CONTINUOUS
 62
     2
100
AcDbCircle
 10
682.4359574459431
 20
1694.239070429678
 30
0.0
 40
20.0
100
AcDbArc
 50
232.1446748345211
 51
267.5104470780012
  0
ARC
  5
17B
330
1F
100
AcDbEntity
  8
化粧台
  6
CONTINUOUS
 62
     2
100
AcDbCircle
 10
666.1851228755022
 20
1699.499999999956
 30
0.0
 40
5.0
100
AcDbArc
 50
90.00000000000001
 51
182.0825652797287
  0
ARC
  5
17C
330
1F
100
AcDbEntity
  8
化粧台
  6
CONTINUOUS
 62
     2
100
AcDbCircle
 10
767.996493164841
 20
1624.499999999956
 30
0.0
 40
15.00000000000001
100
AcDbArc
 50
32.90482742074656
 51
90.00000000000001
  0
LINE
  5
17D
330
1F
100
AcDbEntity
  8
化粧台
  6
CONTINUOUS
 62
     2
100
AcDbLine
 10
663.2585097771826
 20
1642.390981145636
 30
0.0
 11
661.1884253857697
 21
1699.318301909421
 31
0.0
  0
ARC
  5
17E
330
1F
100
AcDbEntity
  8
化粧台
  6
CONTINUOUS
 62
     2
100
AcDbCircle
 10
666.2565282710184
 20
1642.499999999956
 30
0.0
 40
3.000000000000002
100
AcDbArc
 50
182.082565279727
 51
270.0000000000002
  0
ARC
  5
17F
330
1F
100
AcDbEntity
  8
化粧台
  6
CONTINUOUS
 62
     2
100
AcDbCircle
 10
765.535011510312
 20
1667.604339212608
 30
0.0
 40
3.000000000000002
100
AcDbArc
 50
87.51044707800041
 51
202.7033731173424
  0
LINE
  5
180
330
1F
100
AcDbEntity
  8
化粧台
  6
CONTINUOUS
 62
     2
100
AcDbLine
 10
767.996493164841
 20
1639.499999999956
 30
0.0
 11
666.2565282710184
 21
1639.499999999956
 31
0.0
  0
ARC
  5
181
330
1F
100
AcDbEntity
  8
化粧台
  6
CONTINUOUS
 62
     2
100
AcDbCircle
 10
1088.629733491167
 20
1458.5
 30
0.0
 40
2.0
100
AcDbArc
 50
16.84927962281586
 51
90.00000000000001
  0
ARC
  5
182
330
1F
100
AcDbEntity
  8
化粧台
  6
CONTINUOUS
 62
     2
100
AcDbCircle
 10
1088.629733491167
 20
1453.5
 30
0.0
 40
2.0
100
AcDbArc
 50
270.0000000000002
 51
343.1507203771823
  0
ARC
  5
183
330
1F
100
AcDbEntity
  8
化粧台
  6
CONTINUOUS
 62
     2
100
AcDbCircle
 10
1080.37500000062
 20
1456.0
 30
0.0
 40
10.625
100
AcDbArc
 50
343.15072037717
 51
16.84927962283012
  0
ARC
  5
184
330
1F
100
AcDbEntity
  8
化粧台
  6
CONTINUOUS
 62
     2
100
AcDbCircle
 10
1031.50000000062
 20
2540.685482900404
 30
0.0
 40
1090.685482900405
100
AcDbArc
 50
266.9919716782235
 51
273.0080283217767
  0
ARC
  5
185
330
1F
100
AcDbEntity
  8
化粧台
  6
CONTINUOUS
 62
     2
100
AcDbCircle
 10
1031.50000000062
 20
371.3145170995958
 30
0.0
 40
1090.685482900405
100
AcDbArc
 50
86.99197167822338
 51
93.00802832177656
  0
ARC
  5
186
330
1F
100
AcDbEntity
  8
化粧台
  6
CONTINUOUS
 62
     2
100
AcDbCircle
 10
982.6250000006202
 20
1456.0
 30
0.0
 40
10.625
100
AcDbArc
 50
163.1507203771698
 51
196.8492796228301
  0
ARC
  5
187
330
1F
100
AcDbEntity
  8
化粧台
  6
CONTINUOUS
 62
     2
100
AcDbCircle
 10
974.3702665100699
 20
1453.5
 30
0.0
 40
2.0
100
AcDbArc
 50
196.8492796228176
 51
270.0000000000002
  0
ARC
  5
188
330
1F
100
AcDbEntity
  8
化粧台
  6
CONTINUOUS
 62
     2
100
AcDbCircle
 10
974.3702665100699
 20
1458.5
 30
0.0
 40
2.0
100
AcDbArc
 50
90.00000000000001
 51
163.1507203771841
  0
ARC
  5
189
330
1F
100
AcDbEntity
  8
化粧台
  6
CONTINUOUS
 62
     2
100
AcDbCircle
 10
833.3702665100736
 20
1458.5
 30
0.0
 40
2.0
100
AcDbArc
 50
90.00000000000001
 51
163.1507203771844
  0
ARC
  5
18A
330
1F
100
AcDbEntity
  8
化粧台
  6
CONTINUOUS
 62
     2
100
AcDbCircle
 10
833.3702665100736
 20
1453.5
 30
0.0
 40
2.0
100
AcDbArc
 50
196.8492796228166
 51
270.0
  0
ARC
  5
18B
330
1F
100
AcDbEntity
  8
化粧台
  6
CONTINUOUS
 62
     2
100
AcDbCircle
 10
841.6250000006203
 20
1456.0
 30
0.0
 40
10.625
100
AcDbArc
 50
163.1507203771702
 51
196.8492796228299
  0
ARC
  5
18C
330
1F
100
AcDbEntity
  8
化粧台
  6
CONTINUOUS
 62
     2
100
AcDbCircle
 10
890.5000000006203
 20
2540.685482900404
 30
0.0
 40
1090.685482900405
100
AcDbArc
 50
266.9919716782234
 51
273.0080283217766
  0
ARC
  5
18D
330
1F
100
AcDbEntity
  8
化粧台
  6
CONTINUOUS
 62
     2
100
AcDbCircle
 10
890.5000000006203
 20
371.3145170995958
 30
0.0
 40
1090.685482900405
100
AcDbArc
 50
86.99197167822344
 51
93.00802832177662
  0
ARC
  5
18E
330
1F
100
AcDbEntity
  8
化粧台
  6
CONTINUOUS
 62
     2
100
AcDbCircle
 10
939.3750000006203
 20
1456.0
 30
0.0
 40
10.625
100
AcDbArc
 50
343.1507203771704
 51
16.8492796228307
  0
ARC
  5
18F
330
1F
100
AcDbEntity
  8
化粧台
  6
CONTINUOUS
 62
     2
100
AcDbCircle
 10
947.6297334911706
 20
1453.5
 30
0.0
 40
2.0
100
AcDbArc
 50
270.0
 51
343.1507203771844
  0
ARC
  5
190
330
1F
100
AcDbEntity
  8
化粧台
  6
CONTINUOUS
 62
     2
100
AcDbCircle
 10
947.6297334911706
 20
1458.5
 30
0.0
 40
2.0
100
AcDbArc
 50
16.84927962281563
 51
90.00000000000001
  0
LINE
  5
191
330
1F
100
AcDbEntity
  8
化粧台
  6
CONTINUOUS
 62
     2
100
AcDbLine
 10
1241.000000000618
 20
1501.0
 30
0.0
 11
1241.000000000618
 21
1011.0
 31
0.0
  0
LINE
  5
192
330
1F
100
AcDbEntity
  8
化粧台
  6
CONTINUOUS
 62
     2
100
AcDbLine
 10
962.0000000006202
 20
1011.00000000004
 30
0.0
 11
1241.000000000658
 21
1011.00000000004
 31
0.0
  0
LINE
  5
193
330
1F
100
AcDbEntity
  8
化粧台
  6
CONTINUOUS
 62
     2
100
AcDbLine
 10
681.0000000006203
 20
1501.0
 30
0.0
 11
681.0000000006203
 21
1011.0
 31
0.0
  0
LINE
  5
194
330
1F
100
AcDbEntity
  8
化粧台
  6
CONTINUOUS
 62
     2
100
AcDbLine
 10
681.0000000006203
 20
1011.00000000004
 30
0.0
 11
960.0000000006203
 21
1011.00000000004
 31
0.0
  0
LINE
  5
195
330
1F
100
AcDbEntity
  8
化粧台
  6
CONTINUOUS
 62
     2
100
AcDbLine
 10
960.0000000006203
 20
1501.00000000004
 30
0.0
 11
681.0000000006203
 21
1501.00000000004
 31
0.0
  0
LINE
  5
196
330
1F
100
AcDbEntity
  8
化粧台
  6
CONTINUOUS
 62
     2
100
AcDbLine
 10
1243.000000000691
 20
1508.0
 30
0.0
 11
679.000000000693
 21
1508.0
 31
0.0
  0
LINE
  5
197
330
1F
100
AcDbEntity
  8
化粧台
  6
CONTINUOUS
 62
     2
100
AcDbLine
 10
1241.000000000658
 20
1501.00000000004
 30
0.0
 11
962.0000000006202
 21
1501.00000000004
 31
0.0
  0
LINE
  5
198
330
1F
100
AcDbEntity
  8
化粧台
  6
CONTINUOUS
 62
     2
100
AcDbLine
 10
1229.50000000066
 20
1010.0
 30
0.0
 11
1229.50000000066
 21
919.5
 31
0.0
  0
LINE
  5
199
330
1F
100
AcDbEntity
  8
化粧台
  6
CONTINUOUS
 62
     2
100
AcDbLine
 10
692.5000000006603
 20
1010.0
 30
0.0
 11
692.5000000006603
 21
919.5
 31
0.0
  0
LINE
  5
19A
330
1F
100
AcDbEntity
  8
化粧台
  6
EXLTYPE3
 62
     6
100
AcDbLine
 10
960.0000000006203
 20
1501.0
 30
0.0
 11
681.0000000005693
 21
1256.0
 31
0.0
  0
LINE
  5
19B
330
1F
100
AcDbEntity
  8
化粧台
  6
EXLTYPE3
 62
     6
100
AcDbLine
 10
681.0000000006203
 20
1256.0
 30
0.0
 11
960.0000000006203
 21
1011.0
 31
0.0
  0
LINE
  5
19C
330
1F
100
AcDbEntity
  8
化粧台
  6
EXLTYPE3
 62
     6
100
AcDbLine
 10
1241.000000000658
 20
1256.00000000008
 30
0.0
 11
962.0000000006202
 21
1011.00000000008
 31
0.0
  0
LINE
  5
19D
330
1F
100
AcDbEntity
  8
化粧台
  6
EXLTYPE3
 62
     6
100
AcDbLine
 10
1241.000000000658
 20
1256.0
 30
0.0
 11
962.0000000006202
 21
1501.0
 31
0.0
  0
LINE
  5
19E
330
1F
100
AcDbEntity
  8
化粧台
  6
CONTINUOUS
 62
     2
100
AcDbLine
 10
679.000000000693
 20
1639.499999999956
 30
0.0
 11
679.000000000693
 21
1508.0
 31
0.0
  0
LINE
  5
19F
330
1F
100
AcDbEntity
  8
化粧台
  6
CONTINUOUS
 62
     2
100
AcDbLine
 10
677.5000000006603
 20
1639.499999999956
 30
0.0
 11
677.5000000006603
 21
919.5
 31
0.0
  0
LINE
  5
1A0
330
1F
100
AcDbEntity
  8
化粧台
  6
CONTINUOUS
 62
     2
100
AcDbLine
 10
1243.000000000628
 20
1639.499999999956
 30
0.0
 11
1243.000000000628
 21
1508.0
 31
0.0
  0
LINE
  5
1A1
330
1F
100
AcDbEntity
  8
化粧台
  6
CONTINUOUS
 62
     2
100
AcDbLine
 10
1244.500000000662
 20
1639.5
 30
0.0
 11
1244.500000000662
 21
919.5
 31
0.0
  0
LINE
  5
1A2
330
1F
100
AcDbEntity
  8
化粧台
  6
CONTINUOUS
 62
     6
100
AcDbLine
 10
1160.500000000642
 20
911.5
 30
0.0
 11
1181.50000000066
 21
911.5
 31
0.0
  0
LINE
  5
1A3
330
1F
100
AcDbEntity
  8
化粧台
  6
CONTINUOUS
 62
     6
100
AcDbLine
 10
1160.500000000642
 20
919.5
 30
0.0
 11
1160.500000000642
 21
911.5
 31
0.0
  0
LINE
  5
1A4
330
1F
100
AcDbEntity
  8
化粧台
  6
CONTINUOUS
 62
     6
100
AcDbLine
 10
1181.500000000649
 20
919.5
 30
0.0
 11
1181.500000000649
 21
911.5
 31
0.0
  0
LINE
  5
1A5
330
1F
100
AcDbEntity
  8
化粧台
  6
CONTINUOUS
 62
     2
100
AcDbLine
 10
977.0000000006567
 20
869.4999999999782
 30
0.0
 11
945.0000000006567
 21
869.4999999999782
 31
0.0
  0
LINE
  5
1A6
330
1F
100
AcDbEntity
  8
化粧台
  6
CONTINUOUS
 62
     2
100
AcDbLine
 10
945.0000000006567
 20
919.5
 30
0.0
 11
945.0000000006567
 21
869.4999999999782
 31
0.0
  0
LINE
  5
1A7
330
1F
100
AcDbEntity
  8
化粧台
  6
CONTINUOUS
 62
     2
100
AcDbLine
 10
977.0000000006567
 20
919.5
 30
0.0
 11
977.0000000006567
 21
869.4999999999782
 31
0.0
  0
LINE
  5
1A8
330
1F
100
AcDbEntity
  8
化粧台
  6
CONTINUOUS
 62
     6
100
AcDbLine
 10
756.0000000032396
 20
1449.50000000004
 30
0.0
 11
776.0000000032396
 21
1449.50000000004
 31
0.0
  0
LINE
  5
1A9
330
1F
100
AcDbEntity
  8
化粧台
  6
CONTINUOUS
 62
     6
100
AcDbLine
 10
766.0000000032396
 20
1439.5
 30
0.0
 11
766.0000000032396
 21
1459.50000000004
 31
0.0
  0
CIRCLE
  5
1AA
330
1F
100
AcDbEntity
  8
化粧台
  6
CONTINUOUS
 62
     6
100
AcDbCircle
 10
766.0000000006603
 20
1449.500000000098
 30
0.0
 40
3.800000000000001
  0
LINE
  5
1AB
330
1F
100
AcDbEntity
  8
化粧台
  6
CONTINUOUS
 62
     6
100
AcDbLine
 10
1146.000000000638
 20
1449.50000000004
 30
0.0
 11
1166.000000000638
 21
1449.50000000004
 31
0.0
  0
LINE
  5
1AC
330
1F
100
AcDbEntity
  8
化粧台
  6
CONTINUOUS
 62
     6
100
AcDbLine
 10
1156.000000000638
 20
1439.5
 30
0.0
 11
1156.000000000638
 21
1459.50000000004
 31
0.0
  0
CIRCLE
  5
1AD
330
1F
100
AcDbEntity
  8
化粧台
  6
CONTINUOUS
 62
     6
100
AcDbCircle
 10
1155.999999998059
 20
1449.500000000098
 30
0.0
 40
3.800000000000001
  0
ARC
  5
1AE
330
1F
100
AcDbEntity
  8
化粧台
  6
CONTINUOUS
 62
     6
100
AcDbCircle
 10
1185.835000000809
 20
1574.891304348086
 30
0.0
 40
100.0
100
AcDbArc
 50
83.99726479958528
 51
95.78779095102057
  0
LINE
  5
1AF
330
1F
100
AcDbEntity
  8
化粧台
  6
CONTINUOUS
 62
     6
100
AcDbLine
 10
1177.614828861306
 20
1696.815716896646
 30
0.0
 11
1181.250000000682
 21
1688.067551638451
 31
0.0
  0
ARC
  5
1B0
330
1F
100
AcDbEntity
  8
化粧台
  6
CONTINUOUS
 62
     6
100
AcDbCircle
 10
1179.000000000671
 20
1697.39130434845
 30
0.0
 40
1.5
100
AcDbArc
 50
89.99999999997263
 51
202.5646074934729
  0
LINE
  5
1B1
330
1F
100
AcDbEntity
  8
化粧台
  6
CONTINUOUS
 62
     6
100
AcDbLine
 10
1194.385171140037
 20
1696.815716896657
 30
0.0
 11
1190.750000000675
 21
1688.067551638458
 31
0.0
  0
ARC
  5
1B2
330
1F
100
AcDbEntity
  8
化粧台
  6
CONTINUOUS
 62
     6
100
AcDbCircle
 10
1193.000000000671
 20
1697.391304348457
 30
0.0
 40
1.5
100
AcDbArc
 50
337.4353925066304
 51
90.00000000011136
  0
LINE
  5
1B3
330
1F
100
AcDbEntity
  8
化粧台
  6
CONTINUOUS
 62
     6
100
AcDbLine
 10
1179.000000000671
 20
1698.89130434845
 30
0.0
 11
1193.000000000671
 21
1698.891304348457
 31
0.0
  0
ARC
  5
1B4
330
1F
100
AcDbEntity
  8
化粧台
  6
CONTINUOUS
 62
     6
100
AcDbCircle
 10
1182.750000000678
 20
1685.39130434845
 30
0.0
 40
1.5
100
AcDbArc
 50
180.0000000000381
 51
270.0000000001
  0
ARC
  5
1B5
330
1F
100
AcDbEntity
  8
化粧台
  6
CONTINUOUS
 62
     6
100
AcDbCircle
 10
1189.250000000678
 20
1685.391304348457
 30
0.0
 40
1.5
100
AcDbArc
 50
269.9999999999722
 51
0.0000000000343202
  0
LINE
  5
1B6
330
1F
100
AcDbEntity
  8
化粧台
  6
CONTINUOUS
 62
     6
100
AcDbLine
 10
1181.250000000678
 20
1685.39130434845
 30
0.0
 11
1181.250000000675
 21
1688.067551638458
 31
0.0
  0
LINE
  5
1B7
330
1F
100
AcDbEntity
  8
化粧台
  6
CONTINUOUS
 62
     6
100
AcDbLine
 10
1190.750000000678
 20
1685.391304348457
 30
0.0
 11
1190.750000000678
 21
1688.067551638465
 31
0.0
  0
LINE
  5
1B8
330
1F
100
AcDbEntity
  8
化粧台
  6
CONTINUOUS
 62
     6
100
AcDbLine
 10
1189.250000000653
 20
1683.891304348454
 30
0.0
 11
1182.750000000711
 21
1683.891304348454
 31
0.0
  0
LINE
  5
1B9
330
1F
100
AcDbEntity
  8
化粧台
  6
CONTINUOUS
 62
     6
100
AcDbLine
 10
1188.500000000689
 20
1674.616086766844
 30
0.0
 11
1188.500000000686
 21
1683.891304348454
 31
0.0
  0
LINE
  5
1BA
330
1F
100
AcDbEntity
  8
化粧台
  6
CONTINUOUS
 62
     6
100
AcDbLine
 10
1183.500000000693
 20
1674.77188559973
 30
0.0
 11
1183.500000000686
 21
1683.891304348454
 31
0.0
  0
ARC
  5
1BB
330
1F
100
AcDbEntity
  8
化粧台
  6
CONTINUOUS
 62
     6
100
AcDbCircle
 10
1176.002981663956
 20
1671.891304347973
 30
0.0
 40
2.502981663321009
100
AcDbArc
 50
95.78779095101787
 51
192.4803605327015
  0
ARC
  5
1BC
330
1F
100
AcDbEntity
  8
化粧台
  6
CONTINUOUS
 62
     6
100
AcDbCircle
 10
1196.034792609496
 20
1671.891304348046
 30
0.0
 40
2.465207391219374
100
AcDbArc
 50
12.67380037052594
 51
83.99726479958545
  0
LINE
  5
1BD
330
1F
100
AcDbEntity
  8
化粧台
  6
EXLTYPE3
 62
     6
100
AcDbLine
 10
1166.000000000668
 20
1825.269009300398
 30
0.0
 11
1166.000000000668
 21
1641.021739130503
 31
0.0
  0
LINE
  5
1BE
330
1F
100
AcDbEntity
  8
化粧台
  6
CONTINUOUS
 62
     2
100
AcDbLine
 10
2205.680501424285
 20
1642.151532742202
 30
0.0
 11
2201.207948430201
 21
1539.282813878577
 31
0.0
  0
ARC
  5
1BF
330
1F
100
AcDbEntity
  8
化粧台
  6
CONTINUOUS
 62
     2
100
AcDbCircle
 10
2208.608897757744
 20
1641.499999999975
 30
0.0
 40
3.000000000000002
100
AcDbArc
 50
90.00000000000001
 51
170.4059317731352
  0
ARC
  5
1C0
330
1F
100
AcDbEntity
  8
化粧台
  6
CONTINUOUS
 62
     2
100
AcDbCircle
 10
2202.692817974645
 20
1642.499999999978
 30
0.0
 40
3.000000000000003
100
AcDbArc
 50
270.0
 51
350.4059317731353
  0
LINE
  5
1C1
330
1F
100
AcDbEntity
  8
化粧台
  6
CONTINUOUS
 62
     2
100
AcDbLine
 10
2208.608897757744
 20
1644.499999999978
 30
0.0
 11
2491.000000000702
 21
1644.499999999978
 31
0.0
  0
LINE
  5
1C2
330
1F
100
AcDbEntity
  8
化粧台
  6
CONTINUOUS
 62
     2
100
AcDbLine
 10
2191.000000000702
 20
1669.499999999978
 30
0.0
 11
2191.000000000702
 21
1674.499999999978
 31
0.0
  0
LINE
  5
1C3
330
1F
100
AcDbEntity
  8
化粧台
  6
CONTINUOUS
 62
     2
100
AcDbLine
 10
2449.705835738831
 20
1679.499999999978
 30
0.0
 11
2196.000000000702
 21
1679.499999999978
 31
0.0
  0
ARC
  5
1C4
330
1F
100
AcDbEntity
  8
化粧台
  6
CONTINUOUS
 62
     2
100
AcDbCircle
 10
2449.705835738831
 20
1684.499999999978
 30
0.0
 40
5.0
100
AcDbArc
 50
270.0
 51
343.1195105726896
  0
LINE
  5
1C5
330
1F
100
AcDbEntity
  8
化粧台
  6
CONTINUOUS
 62
     2
100
AcDbLine
 10
2459.923318878209
 20
1700.951881795063
 30
0.0
 11
2454.490398336717
 21
1683.04811820489
 31
0.0
  0
ARC
  5
1C6
330
1F
100
AcDbEntity
  8
化粧台
  6
CONTINUOUS
 62
     2
100
AcDbCircle
 10
2196.212667638432
 20
1539.499999999978
 30
0.0
 40
5.0
100
AcDbArc
 50
235.0734784673723
 51
357.5104470780591
  0
ARC
  5
1C7
330
1F
100
AcDbEntity
  8
化粧台
  6
CONTINUOUS
 62
     2
100
AcDbCircle
 10
2290.679366996161
 20
1674.781346505904
 30
0.0
 40
170.0
100
AcDbArc
 50
183.5724826096917
 51
235.0734784673746
  0
ARC
  5
1C8
330
1F
100
AcDbEntity
  8
化粧台
  6
CONTINUOUS
 62
     2
100
AcDbCircle
 10
2196.000000000702
 20
1674.499999999978
 30
0.0
 40
5.0
100
AcDbArc
 50
90.00000000000001
 51
180.0000000000002
  0
ARC
  5
1C9
330
1F
100
AcDbEntity
  8
化粧台
  6
CONTINUOUS
 62
     2
100
AcDbCircle
 10
2126.000000000702
 20
2156.999999999975
 30
0.0
 40
487.4999999999997
100
AcDbArc
 50
270.0
 51
277.6622556607652
  0
ARC
  5
1CA
330
1F
100
AcDbEntity
  8
化粧台
  6
CONTINUOUS
 62
     2
100
AcDbCircle
 10
2126.000000000702
 20
1664.499999999978
 30
0.0
 40
5.0
100
AcDbArc
 50
90.00000000000001
 51
183.5724826096912
  0
LINE
  5
1CB
330
1F
100
AcDbEntity
  8
化粧台
  6
CONTINUOUS
 62
     2
100
AcDbLine
 10
2191.069933514786
 20
1668.666666666642
 30
0.0
 11
2195.577422873339
 21
1641.999999999978
 31
0.0
  0
ARC
  5
1CC
330
1F
100
AcDbEntity
  8
化粧台
  6
CONTINUOUS
 62
     2
100
AcDbCircle
 10
2196.000000000702
 20
1669.499999999978
 30
0.0
 40
5.0
100
AcDbArc
 50
180.0000000000002
 51
189.5940682268592
  0
ARC
  5
1CD
330
1F
100
AcDbEntity
  8
化粧台
  6
CONTINUOUS
 62
     2
100
AcDbCircle
 10
2198.535462764889
 20
1642.499999999978
 30
0.0
 40
3.000000000000002
100
AcDbArc
 50
189.5940682268655
 51
270.0
  0
LINE
  5
1CE
330
1F
100
AcDbEntity
  8
化粧台
  6
CONTINUOUS
 62
     2
100
AcDbLine
 10
2198.535462764889
 20
1639.499999999978
 30
0.0
 11
2202.692817974645
 21
1639.499999999978
 31
0.0
  0
LINE
  5
1CF
330
1F
100
AcDbEntity
  8
化粧台
  6
CONTINUOUS
 62
     2
100
AcDbLine
 10
2229.0000000007
 20
1011.0
 30
0.0
 11
2229.0000000007
 21
1501.0
 31
0.0
  0
LINE
  5
1D0
330
1F
100
AcDbEntity
  8
化粧台
  6
CONTINUOUS
 62
     2
100
AcDbLine
 10
2214.000000000711
 20
1501.0
 30
0.0
 11
2214.000000000711
 21
1011.0
 31
0.0
  0
LINE
  5
1D1
330
1F
100
AcDbEntity
  8
化粧台
  6
CONTINUOUS
 62
     2
100
AcDbLine
 10
2214.000000000711
 20
1501.0
 30
0.0
 11
2229.000000000708
 21
1501.0
 31
0.0
  0
LINE
  5
1D2
330
1F
100
AcDbEntity
  8
化粧台
  6
CONTINUOUS
 62
     2
100
AcDbLine
 10
2214.000000000711
 20
1011.0
 30
0.0
 11
2229.000000000708
 21
1011.0
 31
0.0
  0
ARC
  5
1D3
330
1F
100
AcDbEntity
  8
化粧台
  6
CONTINUOUS
 62
     2
100
AcDbCircle
 10
2204.50000000076
 20
1456.0
 30
0.0
 40
18.5
100
AcDbArc
 50
163.3984504009939
 51
196.6015495990061
  0
LINE
  5
1D4
330
1F
100
AcDbEntity
  8
化粧台
  6
CONTINUOUS
 62
     2
100
AcDbLine
 10
2214.00000000076
 20
1451.5
 30
0.0
 11
2187.78655739731
 21
1450.001629662143
 31
0.0
  0
ARC
  5
1D5
330
1F
100
AcDbEntity
  8
化粧台
  6
CONTINUOUS
 62
     2
100
AcDbCircle
 10
2187.729490169511
 20
1451.0
 30
0.0
 40
1.0
100
AcDbArc
 50
196.6015495990198
 51
273.2714886349227
  0
LINE
  5
1D6
330
1F
100
AcDbEntity
  8
化粧台
  6
CONTINUOUS
 62
     2
100
AcDbLine
 10
2214.00000000076
 20
1460.5
 30
0.0
 11
2187.78655739731
 21
1461.998370337857
 31
0.0
  0
ARC
  5
1D7
330
1F
100
AcDbEntity
  8
化粧台
  6
CONTINUOUS
 62
     2
100
AcDbCircle
 10
2187.729490169511
 20
1461.0
 30
0.0
 40
1.0
100
AcDbArc
 50
86.72851136507767
 51
163.3984504009802
  0
LINE
  5
1D8
330
1F
100
AcDbEntity
  8
化粧台
  6
CONTINUOUS
 62
     2
100
AcDbLine
 10
2210.5000000007
 20
1508.0
 30
0.0
 11
2231.0000000007
 21
1508.0
 31
0.0
  0
LINE
  5
1D9
330
1F
100
AcDbEntity
  8
化粧台
  6
CONTINUOUS
 62
     2
100
AcDbLine
 10
2210.5000000007
 20
1508.0
 30
0.0
 11
2210.5000000007
 21
1644.499999999978
 31
0.0
  0
LINE
  5
1DA
330
1F
100
AcDbEntity
  8
化粧台
  6
CONTINUOUS
 62
     2
100
AcDbLine
 10
2231.0000000007
 20
919.5
 30
0.0
 11
2231.0000000007
 21
1644.499999999978
 31
0.0
  0
LINE
  5
1DB
330
1F
100
AcDbEntity
  8
化粧台
  6
CONTINUOUS
 62
     6
100
AcDbLine
 10
2317.614828861306
 20
1696.815716896646
 30
0.0
 11
2321.250000000682
 21
1688.067551638451
 31
0.0
  0
ARC
  5
1DC
330
1F
100
AcDbEntity
  8
化粧台
  6
CONTINUOUS
 62
     6
100
AcDbCircle
 10
2319.000000000671
 20
1697.39130434845
 30
0.0
 40
1.5
100
AcDbArc
 50
89.99999999997263
 51
202.5646074934729
  0
LINE
  5
1DD
330
1F
100
AcDbEntity
  8
化粧台
  6
CONTINUOUS
 62
     6
100
AcDbLine
 10
2334.385171140037
 20
1696.815716896657
 30
0.0
 11
2330.750000000675
 21
1688.067551638458
 31
0.0
  0
ARC
  5
1DE
330
1F
100
AcDbEntity
  8
化粧台
  6
CONTINUOUS
 62
     6
100
AcDbCircle
 10
2333.000000000671
 20
1697.391304348457
 30
0.0
 40
1.5
100
AcDbArc
 50
337.4353925066304
 51
90.00000000011136
  0
LINE
  5
1DF
330
1F
100
AcDbEntity
  8
化粧台
  6
CONTINUOUS
 62
     6
100
AcDbLine
 10
2319.000000000671
 20
1698.89130434845
 30
0.0
 11
2333.000000000671
 21
1698.891304348457
 31
0.0
  0
ARC
  5
1E0
330
1F
100
AcDbEntity
  8
化粧台
  6
CONTINUOUS
 62
     6
100
AcDbCircle
 10
2322.750000000678
 20
1685.39130434845
 30
0.0
 40
1.5
100
AcDbArc
 50
180.0000000000381
 51
270.0000000001
  0
ARC
  5
1E1
330
1F
100
AcDbEntity
  8
化粧台
  6
CONTINUOUS
 62
     6
100
AcDbCircle
 10
2329.250000000678
 20
1685.391304348457
 30
0.0
 40
1.5
100
AcDbArc
 50
269.9999999999722
 51
0.0000000000343202
  0
LINE
  5
1E2
330
1F
100
AcDbEntity
  8
化粧台
  6
CONTINUOUS
 62
     6
100
AcDbLine
 10
2321.250000000678
 20
1685.39130434845
 30
0.0
 11
2321.250000000675
 21
1688.067551638458
 31
0.0
  0
LINE
  5
1E3
330
1F
100
AcDbEntity
  8
化粧台
  6
CONTINUOUS
 62
     6
100
AcDbLine
 10
2330.750000000678
 20
1685.391304348457
 30
0.0
 11
2330.750000000678
 21
1688.067551638465
 31
0.0
  0
LINE
  5
1E4
330
1F
100
AcDbEntity
  8
化粧台
  6
CONTINUOUS
 62
     6
100
AcDbLine
 10
2329.250000000655
 20
1683.891304348454
 30
0.0
 11
2322.750000000713
 21
1683.891304348454
 31
0.0
  0
LINE
  5
1E5
330
1F
100
AcDbEntity
  8
化粧台
  6
CONTINUOUS
 62
     6
100
AcDbLine
 10
2323.500000000693
 20
1679.500000000018
 30
0.0
 11
2323.500000000688
 21
1683.891304348454
 31
0.0
  0
LINE
  5
1E6
330
1F
100
AcDbEntity
  8
化粧台
  6
CONTINUOUS
 62
     6
100
AcDbLine
 10
2328.500000000689
 20
1679.500000000018
 30
0.0
 11
2328.500000000686
 21
1683.891304348454
 31
0.0
  0
LINE
  5
1E7
330
1F
100
AcDbEntity
  8
化粧台
  6
CONTINUOUS
 62
     2
100
AcDbLine
 10
2422.000000000658
 20
869.4999999999782
 30
0.0
 11
2390.000000000658
 21
869.4999999999782
 31
0.0
  0
LINE
  5
1E8
330
1F
100
AcDbEntity
  8
化粧台
  6
CONTINUOUS
 62
     2
100
AcDbLine
 10
2390.000000000658
 20
919.5
 30
0.0
 11
2390.000000000658
 21
869.4999999999782
 31
0.0
  0
LINE
  5
1E9
330
1F
100
AcDbEntity
  8
化粧台
  6
CONTINUOUS
 62
     2
100
AcDbLine
 10
2422.000000000658
 20
919.5
 30
0.0
 11
2422.000000000658
 21
869.4999999999782
 31
0.0
  0
LINE
  5
1EA
330
1F
100
AcDbEntity
  8
化粧台
  6
EXLTYPE2
 62
     6
100
AcDbLine
 10
2390.00000000066
 20
919.5
 30
0.0
 11
2390.00000000066
 21
1041.0
 31
0.0
  0
LINE
  5
1EB
330
1F
100
AcDbEntity
  8
化粧台
  6
EXLTYPE2
 62
     6
100
AcDbLine
 10
2422.00000000066
 20
919.5
 30
0.0
 11
2422.00000000066
 21
1041.0
 31
0.0
  0
LINE
  5
1EC
330
1F
100
AcDbEntity
  8
化粧台
  6
CONTINUOUS
 62
     6
100
AcDbLine
 10
2395.50000000066
 20
911.5
 30
0.0
 11
2416.500000000649
 21
911.5
 31
0.0
  0
LINE
  5
1ED
330
1F
100
AcDbEntity
  8
化粧台
  6
CONTINUOUS
 62
     6
100
AcDbLine
 10
2416.500000000649
 20
919.5
 30
0.0
 11
2416.500000000649
 21
911.5
 31
0.0
  0
LINE
  5
1EE
330
1F
100
AcDbEntity
  8
化粧台
  6
CONTINUOUS
 62
     6
100
AcDbLine
 10
2395.500000000642
 20
919.5
 30
0.0
 11
2395.500000000642
 21
911.5
 31
0.0
  0
LINE
  5
1EF
330
1F
100
AcDbEntity
  8
化粧台
  6
EXLTYPE2
 62
     6
100
AcDbLine
 10
2395.50000000066
 20
919.5
 30
0.0
 11
2395.50000000066
 21
1041.0
 31
0.0
  0
LINE
  5
1F0
330
1F
100
AcDbEntity
  8
化粧台
  6
EXLTYPE2
 62
     6
100
AcDbLine
 10
2416.50000000066
 20
919.5
 30
0.0
 11
2416.50000000066
 21
1041.0
 31
0.0
  0
LINE
  5
1F1
330
1F
100
AcDbEntity
  8
化粧台
  6
EXLTYPE3
 62
     6
100
AcDbLine
 10
2406.000000000658
 20
1091.0
 30
0.0
 11
2406.000000000658
 21
849.4999999999782
 31
0.0
  0
LINE
  5
1F2
330
1F
100
AcDbEntity
  8
化粧台
  6
CONTINUOUS
 62
     6
100
AcDbLine
 10
2523.500005722664
 20
1449.499999999956
 30
0.0
 11
2491.000005722664
 21
1447.49999999996
 31
0.0
  0
LINE
  5
1F3
330
1F
100
AcDbEntity
  8
化粧台
  6
CONTINUOUS
 62
     6
100
AcDbLine
 10
2491.000005722664
 20
1451.49999999996
 30
0.0
 11
2523.500005722664
 21
1449.499999999956
 31
0.0
  0
LINE
  5
1F4
330
1F
100
AcDbEntity
  8
化粧台
  6
CONTINUOUS
 62
     6
100
AcDbLine
 10
2486.00000000066
 20
1449.499999999953
 30
0.0
 11
2528.500005722561
 21
1449.499999999953
 31
0.0
  0
ARC
  5
1F5
330
1F
100
AcDbEntity
  8
化粧台
  6
CONTINUOUS
 62
     2
100
AcDbCircle
 10
2464.707881476093
 20
1699.499999999978
 30
0.0
 40
5.0
100
AcDbArc
 50
90.00000000000001
 51
163.119510572688
  0
LINE
  5
1F6
330
1F
100
AcDbEntity
  8
化粧台
  6
CONTINUOUS
 62
     2
100
AcDbLine
 10
2491.000000000702
 20
1704.499999999978
 30
0.0
 11
2464.707881476093
 21
1704.499999999978
 31
0.0
  0
LINE
  5
1F7
330
1F
100
AcDbEntity
  8
化粧台
  6
EXLTYPE3
 62
     6
100
AcDbLine
 10
2391.000000000668
 20
1825.269009300398
 30
0.0
 11
2391.000000000668
 21
1649.500000000102
 31
0.0
  0
LINE
  5
1F8
330
1F
100
AcDbEntity
  8
化粧台
  6
CONTINUOUS
 62
     6
100
AcDbLine
 10
983.8000000006524
 20
981.5000000000001
 30
0.0
 11
983.8000000006524
 21
963.7000000000007
 31
0.0
  0
LINE
  5
1F9
330
1F
100
AcDbEntity
  8
化粧台
  6
CONTINUOUS
 62
     6
100
AcDbLine
 10
938.2000000006537
 20
981.5000000000001
 30
0.0
 11
938.2000000006537
 21
963.7000000000007
 31
0.0
  0
ARC
  5
1FA
330
1F
100
AcDbEntity
  8
化粧台
  6
EXLTYPE2
 62
     6
100
AcDbCircle
 10
930.500000000653
 20
943.5
 30
0.0
 40
3.000000000000003
100
AcDbArc
 50
90.00000000000001
 51
180.0
  0
LINE
  5
1FB
330
1F
100
AcDbEntity
  8
化粧台
  6
EXLTYPE2
 62
     6
100
AcDbLine
 10
930.500000000653
 20
946.5
 30
0.0
 11
991.500000000653
 21
946.5
 31
0.0
  0
LINE
  5
1FC
330
1F
100
AcDbEntity
  8
化粧台
  6
EXLTYPE2
 62
     6
100
AcDbLine
 10
927.500000000653
 20
943.5
 30
0.0
 11
927.500000000653
 21
923.5
 31
0.0
  0
ARC
  5
1FD
330
1F
100
AcDbEntity
  8
化粧台
  6
EXLTYPE2
 62
     6
100
AcDbCircle
 10
937.000000000653
 20
958.5
 30
0.0
 40
3.000000000000003
100
AcDbArc
 50
90.00000000000001
 51
180.0
  0
LINE
  5
1FE
330
1F
100
AcDbEntity
  8
化粧台
  6
EXLTYPE2
 62
     6
100
AcDbLine
 10
937.000000000653
 20
961.4999999999999
 30
0.0
 11
985.000000000653
 21
961.4999999999999
 31
0.0
  0
LINE
  5
1FF
330
1F
100
AcDbEntity
  8
化粧台
  6
EXLTYPE2
 62
     6
100
AcDbLine
 10
934.000000000653
 20
958.5
 30
0.0
 11
934.000000000653
 21
946.5
 31
0.0
  0
ARC
  5
200
330
1F
100
AcDbEntity
  8
化粧台
  6
EXLTYPE2
 62
     6
100
AcDbCircle
 10
985.000000000653
 20
958.5
 30
0.0
 40
3.000000000000003
100
AcDbArc
 50
0.0
 51
90.00000000000001
  0
LINE
  5
201
330
1F
100
AcDbEntity
  8
化粧台
  6
EXLTYPE2
 62
     6
100
AcDbLine
 10
988.000000000653
 20
958.5
 30
0.0
 11
988.000000000653
 21
946.5
 31
0.0
  0
ARC
  5
202
330
1F
100
AcDbEntity
  8
化粧台
  6
EXLTYPE2
 62
     6
100
AcDbCircle
 10
991.500000000653
 20
943.5
 30
0.0
 40
3.000000000000003
100
AcDbArc
 50
0.0
 51
90.00000000000001
  0
LINE
  5
203
330
1F
100
AcDbEntity
  8
化粧台
  6
EXLTYPE2
 62
     6
100
AcDbLine
 10
994.5000000006531
 20
943.5
 30
0.0
 11
994.5000000006531
 21
923.5
 31
0.0
  0
LINE
  5
204
330
1F
100
AcDbEntity
  8
化粧台
  6
EXLTYPE2
 62
     6
100
AcDbLine
 10
927.500000000653
 20
923.5
 30
0.0
 11
994.5000000006531
 21
923.5
 31
0.0
  0
LINE
  5
205
330
1F
100
AcDbEntity
  8
化粧台
  6
EXLTYPE2
 62
     6
100
AcDbLine
 10
938.2000000006537
 20
981.5000000000001
 30
0.0
 11
983.8000000006524
 21
981.5000000000001
 31
0.0
  0
LINE
  5
206
330
1F
100
AcDbEntity
  8
化粧台
  6
EXLTYPE2
 62
     6
100
AcDbLine
 10
938.2000000006537
 20
963.7000000000007
 30
0.0
 11
983.8000000006524
 21
963.7000000000007
 31
0.0
  0
LINE
  5
207
330
1F
100
AcDbEntity
  8
化粧台
  6
CONTINUOUS
 62
     6
100
AcDbLine
 10
2428.800000000652
 20
981.5000000000001
 30
0.0
 11
2428.800000000652
 21
963.7000000000007
 31
0.0
  0
LINE
  5
208
330
1F
100
AcDbEntity
  8
化粧台
  6
CONTINUOUS
 62
     6
100
AcDbLine
 10
2383.200000000654
 20
981.5000000000001
 30
0.0
 11
2383.200000000654
 21
963.7000000000007
 31
0.0
  0
ARC
  5
209
330
1F
100
AcDbEntity
  8
化粧台
  6
EXLTYPE2
 62
     6
100
AcDbCircle
 10
2375.500000000653
 20
943.5
 30
0.0
 40
3.000000000000003
100
AcDbArc
 50
90.00000000000001
 51
180.0
  0
LINE
  5
20A
330
1F
100
AcDbEntity
  8
化粧台
  6
EXLTYPE2
 62
     6
100
AcDbLine
 10
2375.500000000653
 20
946.5
 30
0.0
 11
2436.500000000653
 21
946.5
 31
0.0
  0
LINE
  5
20B
330
1F
100
AcDbEntity
  8
化粧台
  6
EXLTYPE2
 62
     6
100
AcDbLine
 10
2372.500000000653
 20
943.5
 30
0.0
 11
2372.500000000653
 21
923.5
 31
0.0
  0
ARC
  5
20C
330
1F
100
AcDbEntity
  8
化粧台
  6
EXLTYPE2
 62
     6
100
AcDbCircle
 10
2382.000000000653
 20
958.5
 30
0.0
 40
3.000000000000003
100
AcDbArc
 50
90.00000000000001
 51
180.0
  0
LINE
  5
20D
330
1F
100
AcDbEntity
  8
化粧台
  6
EXLTYPE2
 62
     6
100
AcDbLine
 10
2382.000000000653
 20
961.4999999999999
 30
0.0
 11
2430.000000000653
 21
961.4999999999999
 31
0.0
  0
LINE
  5
20E
330
1F
100
AcDbEntity
  8
化粧台
  6
EXLTYPE2
 62
     6
100
AcDbLine
 10
2379.000000000653
 20
958.5
 30
0.0
 11
2379.000000000653
 21
946.5
 31
0.0
  0
ARC
  5
20F
330
1F
100
AcDbEntity
  8
化粧台
  6
EXLTYPE2
 62
     6
100
AcDbCircle
 10
2430.000000000653
 20
958.5
 30
0.0
 40
3.000000000000003
100
AcDbArc
 50
0.0
 51
90.00000000000001
  0
LINE
  5
210
330
1F
100
AcDbEntity
  8
化粧台
  6
EXLTYPE2
 62
     6
100
AcDbLine
 10
2433.000000000653
 20
958.5
 30
0.0
 11
2433.000000000653
 21
946.5
 31
0.0
  0
ARC
  5
211
330
1F
100
AcDbEntity
  8
化粧台
  6
EXLTYPE2
 62
     6
100
AcDbCircle
 10
2436.500000000653
 20
943.5
 30
0.0
 40
3.000000000000003
100
AcDbArc
 50
0.0
 51
90.00000000000001
  0
LINE
  5
212
330
1F
100
AcDbEntity
  8
化粧台
  6
EXLTYPE2
 62
     6
100
AcDbLine
 10
2439.500000000653
 20
943.5
 30
0.0
 11
2439.500000000653
 21
923.5
 31
0.0
  0
LINE
  5
213
330
1F
100
AcDbEntity
  8
化粧台
  6
EXLTYPE2
 62
     6
100
AcDbLine
 10
2372.500000000653
 20
923.5
 30
0.0
 11
2439.500000000653
 21
923.5
 31
0.0
  0
LINE
  5
214
330
1F
100
AcDbEntity
  8
化粧台
  6
EXLTYPE2
 62
     6
100
AcDbLine
 10
2383.200000000654
 20
981.5000000000001
 30
0.0
 11
2428.800000000652
 21
981.5000000000001
 31
0.0
  0
LINE
  5
215
330
1F
100
AcDbEntity
  8
化粧台
  6
EXLTYPE2
 62
     6
100
AcDbLine
 10
2383.200000000654
 20
963.7000000000007
 30
0.0
 11
2428.800000000652
 21
963.7000000000007
 31
0.0
  0
LINE
  5
216
330
1F
100
AcDbEntity
  8
化粧台
  6
EXLTYPE2
 62
     6
100
AcDbLine
 10
945.0000000006603
 20
919.5
 30
0.0
 11
945.0000000006603
 21
1089.5
 31
0.0
  0
LINE
  5
217
330
1F
100
AcDbEntity
  8
化粧台
  6
EXLTYPE2
 62
     6
100
AcDbLine
 10
977.0000000006603
 20
919.5
 30
0.0
 11
977.0000000006603
 21
1089.5
 31
0.0
  0
LINE
  5
218
330
1F
100
AcDbEntity
  8
化粧台
  6
EXLTYPE4
 62
     6
100
AcDbLine
 10
1160.50000000066
 20
919.5
 30
0.0
 11
1160.50000000066
 21
1069.5
 31
0.0
  0
LINE
  5
219
330
1F
100
AcDbEntity
  8
化粧台
  6
EXLTYPE4
 62
     6
100
AcDbLine
 10
1181.50000000066
 20
919.5
 30
0.0
 11
1181.50000000066
 21
1069.5
 31
0.0
  0
LINE
  5
21A
330
1F
100
AcDbEntity
  8
化粧台
  6
EXLTYPE3
 62
     6
100
AcDbLine
 10
1171.00000000066
 20
1079.5
 30
0.0
 11
1171.00000000066
 21
891.5
 31
0.0
  0
LINE
  5
21B
330
1F
100
AcDbEntity
  8
化粧台
  6
EXLTYPE3
 62
     6
100
AcDbLine
 10
2461.00000000066
 20
1389.499999999998
 30
0.0
 11
2556.00000000066
 21
1389.499999999998
 31
0.0
  0
LINE
  5
21C
330
1F
100
AcDbEntity
  8
化粧台
  6
CONTINUOUS
 62
     6
100
AcDbLine
 10
2541.00000000066
 20
1405.499999999998
 30
0.0
 11
2541.00000000066
 21
1373.499999999998
 31
0.0
  0
LINE
  5
21D
330
1F
100
AcDbEntity
  8
化粧台
  6
CONTINUOUS
 62
     6
100
AcDbLine
 10
2491.00000000066
 20
1405.499999999998
 30
0.0
 11
2541.00000000066
 21
1405.499999999998
 31
0.0
  0
LINE
  5
21E
330
1F
100
AcDbEntity
  8
化粧台
  6
CONTINUOUS
 62
     6
100
AcDbLine
 10
2491.00000000066
 20
1373.499999999998
 30
0.0
 11
2541.00000000066
 21
1373.499999999998
 31
0.0
  0
LINE
  5
21F
330
1F
100
AcDbEntity
  8
化粧台
  6
CONTINUOUS
 62
     6
100
AcDbLine
 10
2491.00000000066
 20
1258.999999999978
 30
0.0
 11
2499.00000000066
 21
1258.999999999978
 31
0.0
  0
LINE
  5
220
330
1F
100
AcDbEntity
  8
化粧台
  6
CONTINUOUS
 62
     6
100
AcDbLine
 10
2491.00000000066
 20
1279.999999999985
 30
0.0
 11
2499.00000000066
 21
1279.999999999985
 31
0.0
  0
LINE
  5
221
330
1F
100
AcDbEntity
  8
化粧台
  6
CONTINUOUS
 62
     6
100
AcDbLine
 10
2499.00000000066
 20
1258.999999999996
 30
0.0
 11
2499.00000000066
 21
1279.999999999985
 31
0.0
  0
LINE
  5
222
330
1F
100
AcDbEntity
  8
化粧台
  6
EXLTYPE3
 62
     6
100
AcDbLine
 10
2471.00000000066
 20
1269.499999999998
 30
0.0
 11
2519.00000000066
 21
1269.499999999998
 31
0.0
  0
LINE
  5
223
330
1F
100
AcDbEntity
  8
化粧台
  6
CONTINUOUS
 62
     2
100
AcDbLine
 10
960.0000000006203
 20
1501.0
 30
0.0
 11
960.0000000006203
 21
1339.5
 31
0.0
  0
LINE
  5
224
330
1F
100
AcDbEntity
  8
化粧台
  6
CONTINUOUS
 62
     2
100
AcDbLine
 10
960.0000000006203
 20
1231.5
 30
0.0
 11
960.0000000006203
 21
1011.00000000004
 31
0.0
  0
LINE
  5
225
330
1F
100
AcDbEntity
  8
化粧台
  6
CONTINUOUS
 62
     2
100
AcDbLine
 10
962.0000000006202
 20
1501.0
 30
0.0
 11
962.0000000006202
 21
1339.5
 31
0.0
  0
LINE
  5
226
330
1F
100
AcDbEntity
  8
化粧台
  6
CONTINUOUS
 62
     2
100
AcDbLine
 10
962.0000000006202
 20
1231.5
 30
0.0
 11
962.0000000006202
 21
1011.00000000004
 31
0.0
  0
LINE
  5
227
330
1F
100
AcDbEntity
  8
化粧台
  6
EXLTYPE3
 62
     6
100
AcDbLine
 10
961.0000000006603
 20
1724.499999999956
 30
0.0
 11
961.0000000006603
 21
1339.5
 31
0.0
  0
LINE
  5
228
330
1F
100
AcDbEntity
  8
化粧台
  6
EXLTYPE3
 62
     6
100
AcDbLine
 10
961.0000000006603
 20
1231.5
 30
0.0
 11
961.0000000006603
 21
849.5
 31
0.0
  0
TEXT
  5
229
330
1F
100
AcDbEntity
  8
化粧台
  6
CONTINUOUS
 62
     2
100
AcDbText
 10
505.000000000613
 20
926.6999999999989
 30
0.0
 40
59.99999618530273
  1
Ｆ.Ｌ.
 41
0.9086538461538461
  7
EXCADSTD
 72
     5
 11
639.9999914175442
 21
926.6999999999989
 31
0.0
100
AcDbText
  0
LINE
  5
22A
330
1F
100
AcDbEntity
  8
化粧台
  6
CONTINUOUS
 62
     7
100
AcDbLine
 10
2014.50000000066
 20
919.4999999999991
 30
0.0
 11
2491.00000000066
 21
919.4999999999991
 31
0.0
  0
TEXT
  5
22B
330
1F
100
AcDbEntity
  8
化粧台
  6
CONTINUOUS
 62
     2
100
AcDbText
 10
2024.000000000513
 20
926.6999999999998
 30
0.0
 40
59.99999618530273
  1
Ｆ.Ｌ.
 41
0.9086538461538461
  7
EXCADSTD
 72
     5
 11
2158.999991417444
 21
926.6999999999998
 31
0.0
100
AcDbText
  0
LINE
  5
22C
330
1F
100
AcDbEntity
  8
化粧台
  6
CONTINUOUS
 62
     1
100
AcDbLine
 10
676.0000000007003
 20
3785.896460656128
 30
0.0
 11
665.4968154082544
 21
3786.958862369156
 31
0.0
  0
LINE
  5
22D
330
1F
100
AcDbEntity
  8
化粧台
  6
CONTINUOUS
 62
     1
100
AcDbLine
 10
1246.000000000618
 20
3785.896460656128
 30
0.0
 11
1256.503184593068
 21
3786.958862369156
 31
0.0
  0
LINE
  5
22E
330
1F
100
AcDbEntity
  8
化粧台
  6
CONTINUOUS
 62
     1
100
AcDbLine
 10
676.0000000006603
 20
3785.896460656131
 30
0.0
 11
676.0000000006603
 21
3524.999999999956
 31
0.0
  0
ARC
  5
22F
330
1F
100
AcDbEntity
  8
化粧台
  6
CONTINUOUS
 62
     1
100
AcDbCircle
 10
666.0000000006603
 20
3791.933478461477
 30
0.0
 40
5.0
100
AcDbArc
 50
180.0
 51
264.2241517557764
  0
LINE
  5
230
330
1F
100
AcDbEntity
  8
化粧台
  6
CONTINUOUS
 62
     1
100
AcDbLine
 10
879.8467290697427
 20
3784.379204098828
 30
0.0
 11
676.0000000007003
 21
3785.896460656128
 31
0.0
  0
LINE
  5
231
330
1F
100
AcDbEntity
  8
化粧台
  6
CONTINUOUS
 62
     1
100
AcDbLine
 10
666.0000000006603
 20
3794.999999999956
 30
0.0
 11
661.0000000006603
 21
3794.999999999956
 31
0.0
  0
ARC
  5
232
330
1F
100
AcDbEntity
  8
化粧台
  6
CONTINUOUS
 62
     2
100
AcDbCircle
 10
666.0000000006603
 20
3799.999999999956
 30
0.0
 40
5.0
100
AcDbArc
 50
180.0
 51
270.0000000000002
  0
ARC
  5
233
330
1F
100
AcDbEntity
  8
化粧台
  6
CONTINUOUS
 62
     2
100
AcDbCircle
 10
759.2575899823405
 20
3519.999999999956
 30
0.0
 40
5.0
100
AcDbArc
 50
51.72879195205692
 51
90.00000000000001
  0
ARC
  5
234
330
1F
100
AcDbEntity
  8
化粧台
  6
CONTINUOUS
 62
     2
100
AcDbCircle
 10
666.0000000006603
 20
3529.999999999956
 30
0.0
 40
5.0
100
AcDbArc
 50
180.0
 51
270.0000000000002
  0
ARC
  5
235
330
1F
100
AcDbEntity
  8
化粧台
  6
CONTINUOUS
 62
     1
100
AcDbCircle
 10
961.0000000006603
 20
3775.714285714243
 30
0.0
 40
320.7142857142863
100
AcDbArc
 50
231.4199075616226
 51
231.7287919520556
  0
LINE
  5
236
330
1F
100
AcDbEntity
  8
化粧台
  6
CONTINUOUS
 62
     1
100
AcDbLine
 10
761.0000000006603
 20
3524.999999999956
 30
0.0
 11
759.2575899823405
 21
3524.999999999956
 31
0.0
  0
LINE
  5
237
330
1F
100
AcDbEntity
  8
化粧台
  6
CONTINUOUS
 62
     2
100
AcDbLine
 10
661.0000000006603
 20
3824.999999999956
 30
0.0
 11
661.0000000006603
 21
3529.999999999956
 31
0.0
  0
LINE
  5
238
330
1F
100
AcDbEntity
  8
化粧台
  6
CONTINUOUS
 62
     2
100
AcDbLine
 10
759.2575899823405
 20
3524.999999999956
 30
0.0
 11
666.0000000006603
 21
3524.999999999956
 31
0.0
  0
ELLIPSE
  5
239
330
1F
100
AcDbEntity
  8
化粧台
  6
CONTINUOUS
 62
     2
100
AcDbEllipse
 10
961.0000000006603
 20
3771.173898276829
 30
0.0
 11
12.00000000000001
 21
0.0
 31
0.0
210
0.0
220
0.0
230
1.0
 40
0.2903763590166665
 41
0.0
 42
6.283185307179586
  0
ARC
  5
23A
330
1F
100
AcDbEntity
  8
化粧台
  6
CONTINUOUS
 62
     2
100
AcDbCircle
 10
961.0000000006603
 20
3862.972118768519
 30
0.0
 40
112.9721187685906
100
AcDbArc
 50
224.0817618104601
 51
315.9182381895401
  0
LINE
  5
23B
330
1F
100
AcDbEntity
  8
化粧台
  6
CONTINUOUS
 62
     1
100
AcDbLine
 10
1246.000000000658
 20
3785.896460656131
 30
0.0
 11
1246.000000000658
 21
3524.999999999956
 31
0.0
  0
ARC
  5
23C
330
1F
100
AcDbEntity
  8
化粧台
  6
CONTINUOUS
 62
     1
100
AcDbCircle
 10
1256.000000000658
 20
3791.933478461477
 30
0.0
 40
5.0
100
AcDbArc
 50
275.7758482442237
 51
0.0
  0
LINE
  5
23D
330
1F
100
AcDbEntity
  8
化粧台
  6
CONTINUOUS
 62
     1
100
AcDbLine
 10
1042.153270931582
 20
3784.379204098828
 30
0.0
 11
1246.000000000618
 21
3785.896460656128
 31
0.0
  0
LINE
  5
23E
330
1F
100
AcDbEntity
  8
化粧台
  6
CONTINUOUS
 62
     1
100
AcDbLine
 10
1256.000000000658
 20
3794.999999999956
 30
0.0
 11
1261.000000000658
 21
3794.999999999956
 31
0.0
  0
ARC
  5
23F
330
1F
100
AcDbEntity
  8
化粧台
  6
CONTINUOUS
 62
     2
100
AcDbCircle
 10
1256.000000000658
 20
3799.999999999956
 30
0.0
 40
5.0
100
AcDbArc
 50
270.0000000000002
 51
0.0
  0
LINE
  5
240
330
1F
100
AcDbEntity
  8
化粧台
  6
CONTINUOUS
 62
     2
100
AcDbLine
 10
666.0000000006603
 20
3794.999999999956
 30
0.0
 11
1256.000000000658
 21
3794.999999999956
 31
0.0
  0
CIRCLE
  5
241
330
1F
100
AcDbEntity
  8
化粧台
  6
CONTINUOUS
 62
     2
100
AcDbCircle
 10
961.0000000006603
 20
3699.999999999956
 30
0.0
 40
20.5
  0
CIRCLE
  5
242
330
1F
100
AcDbEntity
  8
化粧台
  6
CONTINUOUS
 62
     2
100
AcDbCircle
 10
961.0000000006603
 20
3699.999999999956
 30
0.0
 40
30.50000000000002
  0
ARC
  5
243
330
1F
100
AcDbEntity
  8
化粧台
  6
CONTINUOUS
 62
     2
100
AcDbCircle
 10
1162.74241001898
 20
3519.999999999956
 30
0.0
 40
5.0
100
AcDbArc
 50
90.00000000000001
 51
128.2712080479443
  0
ARC
  5
244
330
1F
100
AcDbEntity
  8
化粧台
  6
CONTINUOUS
 62
     2
100
AcDbCircle
 10
1256.000000000658
 20
3529.999999999956
 30
0.0
 40
5.0
100
AcDbArc
 50
270.0000000000002
 51
0.0
  0
ARC
  5
245
330
1F
100
AcDbEntity
  8
化粧台
  6
CONTINUOUS
 62
     2
100
AcDbCircle
 10
961.0000000006603
 20
3775.714285714243
 30
0.0
 40
320.7142857142863
100
AcDbArc
 50
231.7287919520556
 51
308.2712080479444
  0
ARC
  5
246
330
1F
100
AcDbEntity
  8
化粧台
  6
CONTINUOUS
 62
     1
100
AcDbCircle
 10
961.0000000006603
 20
3775.714285714243
 30
0.0
 40
320.7142857142863
100
AcDbArc
 50
308.2712080479444
 51
308.5800924383774
  0
LINE
  5
247
330
1F
100
AcDbEntity
  8
化粧台
  6
CONTINUOUS
 62
     1
100
AcDbLine
 10
1161.00000000066
 20
3524.999999999956
 30
0.0
 11
1162.74241001898
 21
3524.999999999956
 31
0.0
  0
LINE
  5
248
330
1F
100
AcDbEntity
  8
化粧台
  6
CONTINUOUS
 62
     2
100
AcDbLine
 10
1261.000000000658
 20
3824.999999999956
 30
0.0
 11
1261.000000000658
 21
3529.999999999956
 31
0.0
  0
LINE
  5
249
330
1F
100
AcDbEntity
  8
化粧台
  6
CONTINUOUS
 62
     2
100
AcDbLine
 10
1162.74241001898
 20
3524.999999999956
 30
0.0
 11
1256.000000000658
 21
3524.999999999956
 31
0.0
  0
LINE
  5
24A
330
1F
100
AcDbEntity
  8
化粧台
  6
EXLTYPE3
 62
     6
100
AcDbLine
 10
914.9000000006581
 20
3699.999999999956
 30
0.0
 11
1006.50000000066
 21
3699.999999999956
 31
0.0
  0
LINE
  5
24B
330
1F
100
AcDbEntity
  8
化粧台
  6
CONTINUOUS
 62
     6
100
AcDbLine
 10
1154.00000000066
 20
3825.0
 30
0.0
 11
1156.00000000066
 21
3857.5
 31
0.0
  0
LINE
  5
24C
330
1F
100
AcDbEntity
  8
化粧台
  6
CONTINUOUS
 62
     6
100
AcDbLine
 10
1156.00000000066
 20
3857.5
 30
0.0
 11
1158.00000000066
 21
3825.0
 31
0.0
  0
LINE
  5
24D
330
1F
100
AcDbEntity
  8
化粧台
  6
CONTINUOUS
 62
     6
100
AcDbLine
 10
1156.00000000066
 20
3820.0
 30
0.0
 11
1156.00000000066
 21
3862.500005721901
 31
0.0
  0
LINE
  5
24E
330
1F
100
AcDbEntity
  8
化粧台
  6
CONTINUOUS
 62
     6
100
AcDbLine
 10
764.0000000006603
 20
3825.0
 30
0.0
 11
766.0000000006603
 21
3857.5
 31
0.0
  0
LINE
  5
24F
330
1F
100
AcDbEntity
  8
化粧台
  6
CONTINUOUS
 62
     6
100
AcDbLine
 10
766.0000000006603
 20
3857.5
 30
0.0
 11
768.0000000006603
 21
3825.0
 31
0.0
  0
LINE
  5
250
330
1F
100
AcDbEntity
  8
化粧台
  6
CONTINUOUS
 62
     6
100
AcDbLine
 10
766.0000000006603
 20
3820.0
 30
0.0
 11
766.0000000006603
 21
3862.500005721901
 31
0.0
  0
LINE
  5
251
330
1F
100
AcDbEntity
  8
化粧台
  6
EXLTYPE3
 62
     6
100
AcDbLine
 10
961.0000000006567
 20
3434.999999999956
 30
0.0
 11
961.0000000006603
 21
3845.0
 31
0.0
  0
LINE
  5
252
330
1F
100
AcDbEntity
  8
化粧台
  6
CONTINUOUS
 62
     6
100
AcDbLine
 10
1144.00000000066
 20
3724.999999999956
 30
0.0
 11
1188.00000000066
 21
3724.999999999956
 31
0.0
  0
LINE
  5
253
330
1F
100
AcDbEntity
  8
化粧台
  6
CONTINUOUS
 62
     6
100
AcDbLine
 10
1166.00000000066
 20
3702.999999999956
 30
0.0
 11
1166.00000000066
 21
3746.999999999956
 31
0.0
  0
CIRCLE
  5
254
330
1F
100
AcDbEntity
  8
化粧台
  6
CONTINUOUS
 62
     6
100
AcDbCircle
 10
1186.00000000066
 20
3660.0
 30
0.0
 40
8.50000000060004
  0
CIRCLE
  5
255
330
1F
100
AcDbEntity
  8
化粧台
  6
CONTINUOUS
 62
     6
100
AcDbCircle
 10
1186.00000000066
 20
3660.0
 30
0.0
 40
12.5
  0
LINE
  5
256
330
1F
100
AcDbEntity
  8
化粧台
  6
EXLTYPE3
 62
     6
100
AcDbLine
 10
996.0000000006603
 20
3795.0
 30
0.0
 11
996.0000000006603
 21
3890.0
 31
0.0
  0
LINE
  5
257
330
1F
100
AcDbEntity
  8
化粧台
  6
CONTINUOUS
 62
     6
100
AcDbLine
 10
980.0000000006603
 20
3875.0
 30
0.0
 11
1012.00000000066
 21
3875.0
 31
0.0
  0
LINE
  5
258
330
1F
100
AcDbEntity
  8
化粧台
  6
CONTINUOUS
 62
     6
100
AcDbLine
 10
980.0000000006603
 20
3825.0
 30
0.0
 11
980.0000000006603
 21
3875.0
 31
0.0
  0
LINE
  5
259
330
1F
100
AcDbEntity
  8
化粧台
  6
CONTINUOUS
 62
     6
100
AcDbLine
 10
1012.00000000066
 20
3825.0
 30
0.0
 11
1012.00000000066
 21
3875.0
 31
0.0
  0
LINE
  5
25A
330
1F
100
AcDbEntity
  8
化粧台
  6
CONTINUOUS
 62
     6
100
AcDbLine
 10
1181.500000000682
 20
3825.0
 30
0.0
 11
1181.500000000682
 21
3833.0
 31
0.0
  0
LINE
  5
25B
330
1F
100
AcDbEntity
  8
化粧台
  6
CONTINUOUS
 62
     6
100
AcDbLine
 10
1160.500000000675
 20
3825.0
 30
0.0
 11
1160.500000000675
 21
3833.0
 31
0.0
  0
LINE
  5
25C
330
1F
100
AcDbEntity
  8
化粧台
  6
CONTINUOUS
 62
     6
100
AcDbLine
 10
1181.500000000664
 20
3833.0
 30
0.0
 11
1160.500000000675
 21
3833.0
 31
0.0
  0
LINE
  5
25D
330
1F
100
AcDbEntity
  8
化粧台
  6
EXLTYPE3
 62
     6
100
AcDbLine
 10
1171.00000000066
 20
3805.0
 30
0.0
 11
1171.00000000066
 21
3853.0
 31
0.0
  0
LINE
  5
25E
330
1F
100
AcDbEntity
  8
化粧台
  6
CONTINUOUS
 62
     7
100
AcDbLine
 10
511.0000000006603
 20
3825.0
 30
0.0
 11
1516.000000000658
 21
3825.0
 31
0.0
  0
TEXT
  5
25F
330
1F
100
AcDbEntity
  8
化粧台
  6
CONTINUOUS
 62
     2
100
AcDbText
 10
510.5500000009743
 20
3758.000003814646
 30
0.0
 40
59.99999618530273
  1
Ｗ.Ｌ.
 41
0.9086538461538461
  7
EXCADSTD
 72
     5
 11
645.5499914179054
 21
3758.000003814646
 31
0.0
100
AcDbText
  0
LINE
  5
260
330
1F
100
AcDbEntity
  8
化粧台
  6
CONTINUOUS
 62
     7
100
AcDbLine
 10
2491.00000000066
 20
919.4999999999991
 30
0.0
 11
2491.000000000658
 21
2926.35
 31
0.0
  0
TEXT
  5
261
330
1F
100
AcDbEntity
  8
化粧台
  6
CONTINUOUS
 62
     2
100
AcDbText
 10
2481.500000000495
 20
2792.0
 30
0.0
 40
59.99999618530273
  1
Ｗ.Ｌ.
 50
90.0
 41
0.9086538461538461
  7
EXCADSTD
 72
     5
 11
2481.500000000495
 21
2926.999991416931
 31
0.0
100
AcDbText
  0
LINE
  5
262
330
1F
100
AcDbEntity
  8
化粧台
  6
CONTINUOUS
 62
     7
100
AcDbLine
 10
511.0000000006603
 20
919.4999999999991
 30
0.0
 11
1593.0000000006
 21
919.4999999999991
 31
0.0
  0
ARC
  5
263
330
1F
100
AcDbEntity
  8
化粧台
  6
CONTINUOUS
 62
     2
100
AcDbCircle
 10
961.0000000006603
 20
3634.999999999956
 30
0.0
 40
170.0
100
AcDbArc
 50
118.5139152596803
 51
17.11440851745081
  0
ARC
  5
264
330
1F
100
AcDbEntity
  8
化粧台
  6
CONTINUOUS
 62
     2
100
AcDbCircle
 10
961.0000000006603
 20
3634.999999999956
 30
0.0
 40
170.0
100
AcDbArc
 50
32.06690736231076
 51
61.48608474031997
  0
LINE
  5
265
330
1F
100
AcDbEntity
  8
化粧台
  6
CONTINUOUS
 62
     2
100
AcDbLine
 10
666.1851228755022
 20
1704.499999999956
 30
0.0
 11
1142.370562911176
 21
1704.499999999956
 31
0.0
  0
LINE
  5
266
330
1F
100
AcDbEntity
  8
化粧台
  6
CONTINUOUS
 62
     2
100
AcDbLine
 10
1187.298584943526
 20
1704.499999999956
 30
0.0
 11
1255.814877125855
 21
1704.499999999956
 31
0.0
  0
LINE
  5
267
330
1F
100
AcDbEntity
  8
鏡台
  6
EXLTYPE3
 62
     6
100
AcDbLine
 10
961.0000000006021
 20
2717.700000000004
 30
0.0
 11
961.0000000006021
 21
2086.200000000004
 31
0.0
  0
LINE
  5
268
330
1F
100
AcDbEntity
  8
鏡台
  6
CONTINUOUS
 62
     2
100
AcDbLine
 10
661.0000000006039
 20
2669.500000000045
 30
0.0
 11
661.0000000006039
 21
2149.500000000045
 31
0.0
  0
LINE
  5
269
330
1F
100
AcDbEntity
  8
鏡台
  6
CONTINUOUS
 62
     2
100
AcDbLine
 10
1261.000000000602
 20
2669.500000000045
 30
0.0
 11
1261.000000000602
 21
2149.500000000045
 31
0.0
  0
LINE
  5
26A
330
1F
100
AcDbEntity
  8
鏡台
  6
CONTINUOUS
 62
     2
100
AcDbLine
 10
701.5000000006039
 20
2669.500000000045
 30
0.0
 11
701.5000000006039
 21
2149.500000000045
 31
0.0
  0
LINE
  5
26B
330
1F
100
AcDbEntity
  8
鏡台
  6
CONTINUOUS
 62
     2
100
AcDbLine
 10
1220.500000000602
 20
2669.500000000045
 30
0.0
 11
1220.500000000602
 21
2149.500000000045
 31
0.0
  0
LINE
  5
26C
330
1F
100
AcDbEntity
  8
鏡台
  6
CONTINUOUS
 62
     2
100
AcDbLine
 10
661.0000000006039
 20
2669.500000000045
 30
0.0
 11
703.5000000006039
 21
2669.500000000045
 31
0.0
  0
LINE
  5
26D
330
1F
100
AcDbEntity
  8
鏡台
  6
CONTINUOUS
 62
     2
100
AcDbLine
 10
1218.500000000602
 20
2669.500000000045
 30
0.0
 11
1261.000000000602
 21
2669.500000000045
 31
0.0
  0
LINE
  5
26E
330
1F
100
AcDbEntity
  8
鏡台
  6
CONTINUOUS
 62
     2
100
AcDbLine
 10
1218.500000000602
 20
2149.500000000045
 30
0.0
 11
1261.000000000602
 21
2149.500000000045
 31
0.0
  0
LINE
  5
26F
330
1F
100
AcDbEntity
  8
鏡台
  6
CONTINUOUS
 62
     2
100
AcDbLine
 10
661.0000000006039
 20
2149.500000000045
 30
0.0
 11
703.5000000006039
 21
2149.500000000045
 31
0.0
  0
LINE
  5
270
330
1F
100
AcDbEntity
  8
鏡台
  6
CONTINUOUS
 62
     6
100
AcDbLine
 10
1017.535533906533
 20
2493.964466094082
 30
0.0
 11
1032.535533906535
 21
2508.96446609408
 31
0.0
  0
LINE
  5
271
330
1F
100
AcDbEntity
  8
鏡台
  6
CONTINUOUS
 62
     6
100
AcDbLine
 10
1007.0000000006
 20
2490.500000000019
 30
0.0
 11
1039.500000000604
 21
2523.000000000015
 31
0.0
  0
LINE
  5
272
330
1F
100
AcDbEntity
  8
鏡台
  6
CONTINUOUS
 62
     6
100
AcDbLine
 10
1027.714466094669
 20
2518.285533905947
 30
0.0
 11
1014.964466094669
 21
2505.535533905951
 31
0.0
  0
LINE
  5
273
330
1F
100
AcDbEntity
  8
鏡台
  6
CONTINUOUS
 62
     6
100
AcDbLine
 10
852.5355339065354
 20
2466.964466094081
 30
0.0
 11
867.5355339065354
 21
2481.96446609408
 31
0.0
  0
LINE
  5
274
330
1F
100
AcDbEntity
  8
鏡台
  6
CONTINUOUS
 62
     6
100
AcDbLine
 10
842.0000000006003
 20
2463.500000000018
 30
0.0
 11
874.5000000006039
 21
2496.000000000015
 31
0.0
  0
LINE
  5
275
330
1F
100
AcDbEntity
  8
鏡台
  6
CONTINUOUS
 62
     6
100
AcDbLine
 10
862.7144660946688
 20
2491.285533905947
 30
0.0
 11
849.9644660946706
 21
2478.53553390595
 31
0.0
  0
LINE
  5
276
330
1F
100
AcDbEntity
  8
鏡台
  6
CONTINUOUS
 62
     6
100
AcDbLine
 10
996.5355339065336
 20
2303.964466094081
 30
0.0
 11
1011.535533906535
 21
2318.96446609408
 31
0.0
  0
LINE
  5
277
330
1F
100
AcDbEntity
  8
鏡台
  6
CONTINUOUS
 62
     6
100
AcDbLine
 10
986.0000000006003
 20
2300.500000000018
 30
0.0
 11
1018.500000000604
 21
2333.000000000015
 31
0.0
  0
LINE
  5
278
330
1F
100
AcDbEntity
  8
鏡台
  6
CONTINUOUS
 62
     6
100
AcDbLine
 10
1006.714466094669
 20
2328.285533905947
 30
0.0
 11
993.9644660946686
 21
2315.53553390595
 31
0.0
  0
LINE
  5
279
330
1F
100
AcDbEntity
  8
鏡台
  6
EXLTYPE3
 62
     6
100
AcDbLine
 10
1111.000000000604
 20
2596.480762113545
 30
0.0
 11
1111.000000000604
 21
2622.480762113545
 31
0.0
  0
LINE
  5
27A
330
1F
100
AcDbEntity
  8
鏡台
  6
EXLTYPE3
 62
     6
100
AcDbLine
 10
1124.000000000604
 20
2609.480762113545
 30
0.0
 11
1098.000000000604
 21
2609.480762113545
 31
0.0
  0
LINE
  5
27B
330
1F
100
AcDbEntity
  8
鏡台
  6
EXLTYPE3
 62
     6
100
AcDbLine
 10
824.0000000006039
 20
2169.500000000045
 30
0.0
 11
798.0000000006039
 21
2169.500000000045
 31
0.0
  0
LINE
  5
27C
330
1F
100
AcDbEntity
  8
鏡台
  6
EXLTYPE3
 62
     6
100
AcDbLine
 10
811.0000000006039
 20
2156.500000000045
 30
0.0
 11
811.0000000006039
 21
2182.500000000045
 31
0.0
  0
LINE
  5
27D
330
1F
100
AcDbEntity
  8
鏡台
  6
EXLTYPE3
 62
     6
100
AcDbLine
 10
1124.000000000604
 20
2169.500000000045
 30
0.0
 11
1098.000000000604
 21
2169.500000000045
 31
0.0
  0
LINE
  5
27E
330
1F
100
AcDbEntity
  8
鏡台
  6
EXLTYPE3
 62
     6
100
AcDbLine
 10
1111.000000000604
 20
2156.500000000045
 30
0.0
 11
1111.000000000604
 21
2182.500000000045
 31
0.0
  0
LINE
  5
27F
330
1F
100
AcDbEntity
  8
鏡台
  6
EXLTYPE3
 62
     6
100
AcDbLine
 10
824.0000000006039
 20
2609.480762113545
 30
0.0
 11
798.0000000006039
 21
2609.480762113545
 31
0.0
  0
LINE
  5
280
330
1F
100
AcDbEntity
  8
鏡台
  6
EXLTYPE3
 62
     6
100
AcDbLine
 10
811.0000000006039
 20
2596.480762113545
 30
0.0
 11
811.0000000006039
 21
2622.480762113545
 31
0.0
  0
LINE
  5
281
330
1F
100
AcDbEntity
  8
鏡台
  6
CONTINUOUS
 62
     4
100
AcDbLine
 10
703.5000000006039
 20
2660.700000000044
 30
0.0
 11
1218.500000000602
 21
2660.700000000044
 31
0.0
  0
LINE
  5
282
330
1F
100
AcDbEntity
  8
鏡台
  6
CONTINUOUS
 62
     4
100
AcDbLine
 10
703.5000000006039
 20
2670.700000000044
 30
0.0
 11
1218.500000000602
 21
2670.700000000044
 31
0.0
  0
LINE
  5
283
330
1F
100
AcDbEntity
  8
鏡台
  6
CONTINUOUS
 62
     4
100
AcDbLine
 10
1218.500000000602
 20
2670.700000000044
 30
0.0
 11
1218.500000000602
 21
2660.700000000044
 31
0.0
  0
LINE
  5
284
330
1F
100
AcDbEntity
  8
鏡台
  6
CONTINUOUS
 62
     4
100
AcDbLine
 10
703.5000000006057
 20
2670.700000000044
 30
0.0
 11
703.5000000006057
 21
2660.700000000044
 31
0.0
  0
LINE
  5
285
330
1F
100
AcDbEntity
  8
鏡台
  6
CONTINUOUS
 62
     4
100
AcDbLine
 10
703.5000000006039
 20
2148.300000000045
 30
0.0
 11
1218.500000000602
 21
2148.300000000045
 31
0.0
  0
LINE
  5
286
330
1F
100
AcDbEntity
  8
鏡台
  6
CONTINUOUS
 62
     4
100
AcDbLine
 10
1218.500000000602
 20
2158.300000000045
 30
0.0
 11
1218.500000000602
 21
2148.300000000045
 31
0.0
  0
LINE
  5
287
330
1F
100
AcDbEntity
  8
鏡台
  6
CONTINUOUS
 62
     4
100
AcDbLine
 10
703.5000000006039
 20
2158.300000000045
 30
0.0
 11
1218.500000000602
 21
2158.300000000045
 31
0.0
  0
LINE
  5
288
330
1F
100
AcDbEntity
  8
鏡台
  6
CONTINUOUS
 62
     4
100
AcDbLine
 10
703.5000000006057
 20
2158.300000000045
 30
0.0
 11
703.5000000006057
 21
2148.300000000045
 31
0.0
  0
LINE
  5
289
330
1F
100
AcDbEntity
  8
鏡台
  6
CONTINUOUS
 62
     2
100
AcDbLine
 10
2491.000000000555
 20
2154.500000000005
 30
0.0
 11
2478.500000000555
 21
2154.500000000005
 31
0.0
  0
LINE
  5
28A
330
1F
100
AcDbEntity
  8
鏡台
  6
CONTINUOUS
 62
     2
100
AcDbLine
 10
2491.000000000555
 20
2184.500000000005
 30
0.0
 11
2478.500000000555
 21
2184.500000000005
 31
0.0
  0
LINE
  5
28B
330
1F
100
AcDbEntity
  8
鏡台
  6
CONTINUOUS
 62
     2
100
AcDbLine
 10
2491.000000000555
 20
2214.500000000005
 30
0.0
 11
2478.500000000555
 21
2214.500000000005
 31
0.0
  0
LINE
  5
28C
330
1F
100
AcDbEntity
  8
鏡台
  6
CONTINUOUS
 62
     2
100
AcDbLine
 10
2478.500000000555
 20
2669.500000000005
 30
0.0
 11
2478.500000000555
 21
2149.500000000005
 31
0.0
  0
LINE
  5
28D
330
1F
100
AcDbEntity
  8
鏡台
  6
CONTINUOUS
 62
     2
100
AcDbLine
 10
2478.500000000555
 20
2594.480762113505
 30
0.0
 11
2491.000000000555
 21
2594.480762113505
 31
0.0
  0
LINE
  5
28E
330
1F
100
AcDbEntity
  8
鏡台
  6
CONTINUOUS
 62
     2
100
AcDbLine
 10
2491.000000000555
 20
2618.500000000005
 30
0.0
 11
2478.500000000555
 21
2640.150635094588
 31
0.0
  0
LINE
  5
28F
330
1F
100
AcDbEntity
  8
鏡台
  6
CONTINUOUS
 62
     2
100
AcDbLine
 10
2491.000000000555
 20
2668.500000000005
 30
0.0
 11
2478.500000000555
 21
2668.500000000005
 31
0.0
  0
LINE
  5
290
330
1F
100
AcDbEntity
  8
鏡台
  6
CONTINUOUS
 62
     2
100
AcDbLine
 10
2455.000000000555
 20
2149.500000000005
 30
0.0
 11
2478.500000000555
 21
2149.500000000005
 31
0.0
  0
LINE
  5
291
330
1F
100
AcDbEntity
  8
鏡台
  6
CONTINUOUS
 62
     2
100
AcDbLine
 10
2453.800000000554
 20
2158.300000000005
 30
0.0
 11
2453.800000000554
 21
2148.300000000005
 31
0.0
  0
LINE
  5
292
330
1F
100
AcDbEntity
  8
鏡台
  6
CONTINUOUS
 62
     2
100
AcDbLine
 10
2453.800000000554
 20
2148.300000000005
 30
0.0
 11
2473.800000000554
 21
2148.300000000005
 31
0.0
  0
LINE
  5
293
330
1F
100
AcDbEntity
  8
鏡台
  6
CONTINUOUS
 62
     2
100
AcDbLine
 10
2473.80000000056
 20
2149.500000000005
 30
0.0
 11
2473.80000000056
 21
2148.300000000005
 31
0.0
  0
LINE
  5
294
330
1F
100
AcDbEntity
  8
鏡台
  6
CONTINUOUS
 62
     2
100
AcDbLine
 10
2453.800000000554
 20
2158.300000000005
 30
0.0
 11
2455.000000000555
 21
2158.300000000005
 31
0.0
  0
LINE
  5
295
330
1F
100
AcDbEntity
  8
鏡台
  6
CONTINUOUS
 62
     2
100
AcDbLine
 10
2455.000000000555
 20
2669.500000000005
 30
0.0
 11
2478.500000000555
 21
2669.500000000005
 31
0.0
  0
LINE
  5
296
330
1F
100
AcDbEntity
  8
鏡台
  6
CONTINUOUS
 62
     2
100
AcDbLine
 10
2453.800000000554
 20
2660.700000000004
 30
0.0
 11
2453.800000000554
 21
2670.700000000004
 31
0.0
  0
LINE
  5
297
330
1F
100
AcDbEntity
  8
鏡台
  6
CONTINUOUS
 62
     2
100
AcDbLine
 10
2453.800000000554
 20
2670.700000000004
 30
0.0
 11
2473.800000000554
 21
2670.700000000004
 31
0.0
  0
LINE
  5
298
330
1F
100
AcDbEntity
  8
鏡台
  6
CONTINUOUS
 62
     2
100
AcDbLine
 10
2453.800000000554
 20
2660.700000000009
 30
0.0
 11
2455.000000000555
 21
2660.700000000009
 31
0.0
  0
LINE
  5
299
330
1F
100
AcDbEntity
  8
鏡台
  6
CONTINUOUS
 62
     2
100
AcDbLine
 10
2473.80000000056
 20
2670.700000000004
 30
0.0
 11
2473.80000000056
 21
2669.500000000005
 31
0.0
  0
LINE
  5
29A
330
1F
100
AcDbEntity
  8
鏡台
  6
CONTINUOUS
 62
     2
100
AcDbLine
 10
2455.000000000555
 20
2668.500000000005
 30
0.0
 11
2460.000000000555
 21
2668.500000000005
 31
0.0
  0
LINE
  5
29B
330
1F
100
AcDbEntity
  8
鏡台
  6
CONTINUOUS
 62
     2
100
AcDbLine
 10
2461.000000000555
 20
2669.500000000005
 30
0.0
 11
2461.000000000555
 21
2149.500000000005
 31
0.0
  0
LINE
  5
29C
330
1F
100
AcDbEntity
  8
鏡台
  6
EXLTYPE3
 62
     6
100
AcDbLine
 10
2476.000000000555
 20
2609.480762113504
 30
0.0
 11
2533.500000000555
 21
2609.480762113503
 31
0.0
  0
LINE
  5
29D
330
1F
100
AcDbEntity
  8
鏡台
  6
CONTINUOUS
 62
     6
100
AcDbLine
 10
2523.500000000558
 20
2609.480762113503
 30
0.0
 11
2491.000000000558
 21
2607.480762113505
 31
0.0
  0
LINE
  5
29E
330
1F
100
AcDbEntity
  8
鏡台
  6
CONTINUOUS
 62
     6
100
AcDbLine
 10
2491.000000000558
 20
2611.480762113505
 30
0.0
 11
2523.500000000558
 21
2609.480762113503
 31
0.0
  0
LINE
  5
29F
330
1F
100
AcDbEntity
  8
鏡台
  6
EXLTYPE3
 62
     6
100
AcDbLine
 10
2476.000000000555
 20
2169.500000000005
 30
0.0
 11
2533.500000000555
 21
2169.500000000004
 31
0.0
  0
LINE
  5
2A0
330
1F
100
AcDbEntity
  8
鏡台
  6
CONTINUOUS
 62
     6
100
AcDbLine
 10
2523.500000000558
 20
2169.500000000004
 30
0.0
 11
2491.000000000558
 21
2167.500000000005
 31
0.0
  0
LINE
  5
2A1
330
1F
100
AcDbEntity
  8
鏡台
  6
CONTINUOUS
 62
     6
100
AcDbLine
 10
2491.000000000558
 20
2171.500000000005
 30
0.0
 11
2523.500000000558
 21
2169.500000000004
 31
0.0
  0
ARC
  5
2A2
330
1F
100
AcDbEntity
  8
鏡台
  6
CONTINUOUS
 62
     6
100
AcDbCircle
 10
2483.500000000555
 20
2157.668000000005
 30
0.0
 40
5.668000000000172
100
AcDbArc
 50
213.9816465839783
 51
326.018353416022
  0
LINE
  5
2A3
330
1F
100
AcDbEntity
  8
鏡台
  6
CONTINUOUS
 62
     4
100
AcDbLine
 10
2455.000000000555
 20
2669.500000000005
 30
0.0
 11
2455.000000000555
 21
2149.500000000005
 31
0.0
  0
LINE
  5
2A4
330
1F
100
AcDbEntity
  8
鏡台
  6
CONTINUOUS
 62
     4
100
AcDbLine
 10
2460.000000000555
 20
2668.500000000005
 30
0.0
 11
2460.000000000555
 21
2149.500000000005
 31
0.0
  0
ARC
  5
2A5
330
1F
100
AcDbEntity
  8
付属金具
  6
CONTINUOUS
 62
     6
100
AcDbCircle
 10
1166.040440088531
 20
3725.033627205672
 30
0.0
 40
22.5239338808
100
AcDbArc
 50
43.50818700000016
 51
54.78416000000001
  0
ARC
  5
2A6
330
1F
100
AcDbEntity
  8
付属金具
  6
CONTINUOUS
 62
     6
100
AcDbCircle
 10
1166.018415305444
 20
3725.048792200184
 30
0.0
 40
22.5242991184
100
AcDbArc
 50
54.71626800000008
 51
65.99204899999945
  0
ARC
  5
2A7
330
1F
100
AcDbEntity
  8
付属金具
  6
CONTINUOUS
 62
     6
100
AcDbCircle
 10
1166.024355643512
 20
3725.046476693598
 30
0.0
 40
22.5239940848
100
AcDbArc
 50
66.00820999999988
 51
77.28414200000014
  0
ARC
  5
2A8
330
1F
100
AcDbEntity
  8
付属金具
  6
CONTINUOUS
 62
     6
100
AcDbCircle
 10
1165.998289098286
 20
3725.052347436257
 30
0.0
 40
22.5240542888
100
AcDbArc
 50
77.21624900000018
 51
88.49216799999986
  0
ARC
  5
2A9
330
1F
100
AcDbEntity
  8
付属金具
  6
CONTINUOUS
 62
     6
100
AcDbCircle
 10
1166.004617393667
 20
3725.051496391679
 30
0.0
 40
22.5246924512
100
AcDbArc
 50
88.50824599999994
 51
99.78377499999984
  0
ARC
  5
2AA
330
1F
100
AcDbEntity
  8
付属金具
  6
CONTINUOUS
 62
     6
100
AcDbCircle
 10
1165.978086857174
 20
3725.048921764047
 30
0.0
 40
22.52281810000001
100
AcDbArc
 50
99.71616999999982
 51
110.9929420000001
  0
ARC
  5
2AB
330
1F
100
AcDbEntity
  8
付属金具
  6
CONTINUOUS
 62
     6
100
AcDbCircle
 10
1165.992249670266
 20
3725.032712150731
 30
0.0
 40
22.5430707256
100
AcDbArc
 50
111.011786
 51
122.8865830000002
  0
LINE
  5
2AC
330
1F
100
AcDbEntity
  8
付属金具
  6
CONTINUOUS
 62
     6
100
AcDbLine
 10
1157.26431480264
 20
3745.294880864677
 30
0.0
 11
1068.160441107611
 21
3711.088748138814
 31
0.0
  0
LINE
  5
2AD
330
1F
100
AcDbEntity
  8
付属金具
  6
CONTINUOUS
 62
     6
100
AcDbLine
 10
1068.160704324856
 20
3711.088062434447
 30
0.0
 11
1157.264490280804
 21
3745.294423728433
 31
0.0
  0
LINE
  5
2AE
330
1F
100
AcDbEntity
  8
付属金具
  6
CONTINUOUS
 62
     6
100
AcDbLine
 10
1157.26454648608
 20
3745.294445303617
 30
0.0
 11
1158.088238552832
 21
3745.610631063987
 31
0.0
  0
ARC
  5
2AF
330
1F
100
AcDbEntity
  8
付属金具
  6
CONTINUOUS
 62
     6
100
AcDbCircle
 10
1076.064510473989
 20
3690.477000097453
 30
0.0
 40
22.074980612
100
AcDbArc
 50
110.9805179999999
 51
291.0194619999999
  0
ARC
  5
2B0
330
1F
100
AcDbEntity
  8
付属金具
  6
CONTINUOUS
 62
     6
100
AcDbCircle
 10
1166.015271810945
 20
3724.973588598133
 30
0.0
 40
22.5466267752
100
AcDbArc
 50
279.1146609999999
 51
290.9876739999999
  0
ARC
  5
2B1
330
1F
100
AcDbEntity
  8
付属金具
  6
CONTINUOUS
 62
     6
100
AcDbCircle
 10
1166.012245323164
 20
3724.956945608007
 30
0.0
 40
22.5322219648
100
AcDbArc
 50
291.0100219999999
 51
302.2818220000001
  0
ARC
  5
2B2
330
1F
100
AcDbEntity
  8
付属金具
  6
CONTINUOUS
 62
     6
100
AcDbCircle
 10
1166.038152421385
 20
3724.964134657688
 30
0.0
 40
22.5244877576
100
AcDbArc
 50
302.2163139999998
 51
313.4920000000001
  0
ARC
  5
2B3
330
1F
100
AcDbEntity
  8
付属金具
  6
CONTINUOUS
 62
     6
100
AcDbCircle
 10
1166.034019041393
 20
3724.959267752188
 30
0.0
 40
22.5238134728
100
AcDbArc
 50
313.5081599999998
 51
324.7841739999999
  0
ARC
  5
2B4
330
1F
100
AcDbEntity
  8
付属金具
  6
CONTINUOUS
 62
     6
100
AcDbCircle
 10
1165.86095799793
 20
3724.943742047835
 30
0.0
 40
22.0751973464
100
AcDbArc
 50
291.3032080000001
 51
291.3890839999999
  0
LINE
  5
2B5
330
1F
100
AcDbEntity
  8
付属金具
  6
CONTINUOUS
 62
     6
100
AcDbLine
 10
1083.982739191199
 20
3669.870162825634
 30
0.0
 11
1173.088278371123
 21
3704.072214407243
 31
0.0
  0
LINE
  5
2B6
330
1F
100
AcDbEntity
  8
付属金具
  6
CONTINUOUS
 62
     6
100
AcDbLine
 10
1173.088278371123
 20
3704.072214407243
 30
0.0
 11
1083.982696040831
 21
3669.870275236186
 31
0.0
  0
LINE
  5
2B7
330
1F
100
AcDbEntity
  8
付属金具
  6
CONTINUOUS
 62
     6
100
AcDbLine
 10
1173.911751809344
 20
3704.38896971441
 30
0.0
 11
1173.088059742591
 21
3704.07278395404
 31
0.0
  0
ARC
  5
2B8
330
1F
100
AcDbEntity
  8
付属金具
  6
CONTINUOUS
 62
     6
100
AcDbCircle
 10
1166.000005139709
 20
3724.999606451168
 30
0.0
 40
22.0770315616
100
AcDbArc
 50
291.0001660000001
 51
21.00021400000055
  0
ARC
  5
2B9
330
1F
100
AcDbEntity
  8
付属金具
  6
CONTINUOUS
 62
     6
100
AcDbCircle
 10
1166.046842300191
 20
3724.975342128788
 30
0.0
 40
22.5238977584
100
AcDbArc
 50
336.0081829999997
 51
347.2841830000002
  0
ARC
  5
2BA
330
1F
100
AcDbEntity
  8
付属金具
  6
CONTINUOUS
 62
     6
100
AcDbCircle
 10
1166.048973176637
 20
3724.981405055626
 30
0.0
 40
22.524363336
100
AcDbArc
 50
324.7162819999996
 51
335.992023
  0
ARC
  5
2BB
330
1F
100
AcDbEntity
  8
付属金具
  6
CONTINUOUS
 62
     6
100
AcDbCircle
 10
1165.999635742546
 20
3724.999202404882
 30
0.0
 40
22.0775252344
100
AcDbArc
 50
21.0011289999997
 51
110.9985290000003
  0
ARC
  5
2BC
330
1F
100
AcDbEntity
  8
付属金具
  6
CONTINUOUS
 62
     6
100
AcDbCircle
 10
1166.042586764065
 20
3725.011885011732
 30
0.0
 40
22.5324788352
100
AcDbArc
 50
21.01010400000024
 51
32.28177399999977
  0
ARC
  5
2BD
330
1F
100
AcDbEntity
  8
付属金具
  6
CONTINUOUS
 62
     6
100
AcDbCircle
 10
1166.035745655675
 20
3725.037994458462
 30
0.0
 40
22.5243352408
100
AcDbArc
 50
32.21625800000055
 51
43.49202600000044
  0
ARC
  5
2BE
330
1F
100
AcDbEntity
  8
付属金具
  6
CONTINUOUS
 62
     6
100
AcDbCircle
 10
1166.05265160243
 20
3724.995151325304
 30
0.0
 40
22.5238335408
100
AcDbArc
 50
358.5081779999999
 51
9.784192000000056
  0
ARC
  5
2BF
330
1F
100
AcDbEntity
  8
付属金具
  6
CONTINUOUS
 62
     6
100
AcDbCircle
 10
1166.044756830856
 20
3725.020589761485
 30
0.0
 40
22.5273213592
100
AcDbArc
 50
9.717078999999938
 51
20.99134400000031
  0
ARC
  5
2C0
330
1F
100
AcDbEntity
  8
付属金具
  6
CONTINUOUS
 62
     6
100
AcDbCircle
 10
1166.052229026745
 20
3725.001549612852
 30
0.0
 40
22.5244074856
100
AcDbArc
 50
347.216277
 51
358.4920179999999
  0
LINE
  5
2C1
330
1F
100
AcDbEntity
  8
付属金具
  6
CONTINUOUS
 62
     6
100
AcDbLine
 10
1162.423252758723
 20
3723.571255427776
 30
0.0
 11
1162.301932896021
 21
3723.954625645281
 31
0.0
  0
LINE
  5
2C2
330
1F
100
AcDbEntity
  8
付属金具
  6
CONTINUOUS
 62
     6
100
AcDbLine
 10
1162.592607413642
 20
3723.21209779459
 30
0.0
 11
1162.423252758723
 21
3723.571255427776
 31
0.0
  0
LINE
  5
2C3
330
1F
100
AcDbEntity
  8
付属金具
  6
CONTINUOUS
 62
     6
100
AcDbLine
 10
1162.786109269351
 20
3722.902221569547
 30
0.0
 11
1162.592607413642
 21
3723.21209779459
 31
0.0
  0
LINE
  5
2C4
330
1F
100
AcDbEntity
  8
付属金具
  6
CONTINUOUS
 62
     6
100
AcDbLine
 10
1162.998366112365
 20
3722.625524458232
 30
0.0
 11
1162.786109269351
 21
3722.902221569547
 31
0.0
  0
LINE
  5
2C5
330
1F
100
AcDbEntity
  8
付属金具
  6
CONTINUOUS
 62
     6
100
AcDbLine
 10
1163.217378183226
 20
3722.3684794534
 30
0.0
 11
1162.998366112365
 21
3722.625524458232
 31
0.0
  0
LINE
  5
2C6
330
1F
100
AcDbEntity
  8
付属金具
  6
CONTINUOUS
 62
     6
100
AcDbLine
 10
1163.440458808244
 20
3722.11587664904
 30
0.0
 11
1163.217378183226
 21
3722.3684794534
 31
0.0
  0
LINE
  5
2C7
330
1F
100
AcDbEntity
  8
付属金具
  6
CONTINUOUS
 62
     6
100
AcDbLine
 10
1163.660262146315
 20
3721.842076365768
 30
0.0
 11
1163.440458808244
 21
3722.11587664904
 31
0.0
  0
LINE
  5
2C8
330
1F
100
AcDbEntity
  8
付属金具
  6
CONTINUOUS
 62
     6
100
AcDbLine
 10
1163.867751784213
 20
3721.540458574389
 30
0.0
 11
1163.660262146315
 21
3721.842076365768
 31
0.0
  0
LINE
  5
2C9
330
1F
100
AcDbEntity
  8
付属金具
  6
CONTINUOUS
 62
     6
100
AcDbLine
 10
1164.053113539234
 20
3721.184556464084
 30
0.0
 11
1163.867751784213
 21
3721.540458574389
 31
0.0
  0
LINE
  5
2CA
330
1F
100
AcDbEntity
  8
付属金具
  6
CONTINUOUS
 62
     6
100
AcDbLine
 10
1164.119263053483
 20
3721.012231087878
 30
0.0
 11
1164.053113539234
 21
3721.184556464084
 31
0.0
  0
LINE
  5
2CB
330
1F
100
AcDbEntity
  8
付属金具
  6
CONTINUOUS
 62
     6
100
AcDbLine
 10
1164.167887762677
 20
3720.83317856929
 30
0.0
 11
1164.119263053483
 21
3721.012231087878
 31
0.0
  0
LINE
  5
2CC
330
1F
100
AcDbEntity
  8
付属金具
  6
CONTINUOUS
 62
     6
100
AcDbLine
 10
1164.218437853619
 20
3720.499919558787
 30
0.0
 11
1164.167887762677
 21
3720.83317856929
 31
0.0
  0
LINE
  5
2CD
330
1F
100
AcDbEntity
  8
付属金具
  6
CONTINUOUS
 62
     6
100
AcDbLine
 10
1164.233872263591
 20
3720.250793046336
 30
0.0
 11
1164.218437853619
 21
3720.499919558787
 31
0.0
  0
LINE
  5
2CE
330
1F
100
AcDbEntity
  8
付属金具
  6
CONTINUOUS
 62
     6
100
AcDbLine
 10
1164.231497092306
 20
3720.152398132886
 30
0.0
 11
1164.233872263591
 21
3720.250793046336
 31
0.0
  0
LINE
  5
2CF
330
1F
100
AcDbEntity
  8
付属金具
  6
CONTINUOUS
 62
     6
100
AcDbLine
 10
1164.52144043448
 20
3719.919825338493
 30
0.0
 11
1164.231497092306
 21
3720.152398132886
 31
0.0
  0
LINE
  5
2D0
330
1F
100
AcDbEntity
  8
付属金具
  6
CONTINUOUS
 62
     6
100
AcDbLine
 10
1164.480975883234
 20
3720.4057364241
 30
0.0
 11
1164.52144043448
 21
3719.919825338493
 31
0.0
  0
LINE
  5
2D1
330
1F
100
AcDbEntity
  8
付属金具
  6
CONTINUOUS
 62
     6
100
AcDbLine
 10
1164.409630193811
 20
3720.845550641193
 30
0.0
 11
1164.480975883234
 21
3720.4057364241
 31
0.0
  0
LINE
  5
2D2
330
1F
100
AcDbEntity
  8
付属金具
  6
CONTINUOUS
 62
     6
100
AcDbLine
 10
1164.355617078219
 20
3721.068453939302
 30
0.0
 11
1164.409630193811
 21
3720.845550641193
 31
0.0
  0
LINE
  5
2D3
330
1F
100
AcDbEntity
  8
付属金具
  6
CONTINUOUS
 62
     6
100
AcDbLine
 10
1164.282955647876
 20
3721.272784583329
 30
0.0
 11
1164.355617078219
 21
3721.068453939302
 31
0.0
  0
LINE
  5
2D4
330
1F
100
AcDbEntity
  8
付属金具
  6
CONTINUOUS
 62
     6
100
AcDbLine
 10
1164.107545973726
 20
3721.632506939553
 30
0.0
 11
1164.282955647876
 21
3721.272784583329
 31
0.0
  0
LINE
  5
2D5
330
1F
100
AcDbEntity
  8
付属金具
  6
CONTINUOUS
 62
     6
100
AcDbLine
 10
1163.90659466993
 20
3721.939390315821
 30
0.0
 11
1164.107545973726
 21
3721.632506939553
 31
0.0
  0
LINE
  5
2D6
330
1F
100
AcDbEntity
  8
付属金具
  6
CONTINUOUS
 62
     6
100
AcDbLine
 10
1163.690257536884
 20
3722.211765396963
 30
0.0
 11
1163.90659466993
 21
3721.939390315821
 31
0.0
  0
LINE
  5
2D7
330
1F
100
AcDbEntity
  8
付属金具
  6
CONTINUOUS
 62
     6
100
AcDbLine
 10
1163.24216602705
 20
3722.721999504375
 30
0.0
 11
1163.690257536884
 21
3722.211765396963
 31
0.0
  0
LINE
  5
2D8
330
1F
100
AcDbEntity
  8
付属金具
  6
CONTINUOUS
 62
     6
100
AcDbLine
 10
1163.028447684358
 20
3722.995246571376
 30
0.0
 11
1163.24216602705
 21
3722.721999504375
 31
0.0
  0
LINE
  5
2D9
330
1F
100
AcDbEntity
  8
付属金具
  6
CONTINUOUS
 62
     6
100
AcDbLine
 10
1162.927698960532
 20
3723.1457653458
 30
0.0
 11
1163.028447684358
 21
3722.995246571376
 31
0.0
  0
LINE
  5
2DA
330
1F
100
AcDbEntity
  8
付属金具
  6
CONTINUOUS
 62
     6
100
AcDbLine
 10
1162.83494208163
 20
3723.305121358072
 30
0.0
 11
1162.927698960532
 21
3723.1457653458
 31
0.0
  0
LINE
  5
2DB
330
1F
100
AcDbEntity
  8
付属金具
  6
CONTINUOUS
 62
     6
100
AcDbLine
 10
1162.745942866359
 20
3723.477334039004
 30
0.0
 11
1162.83494208163
 21
3723.305121358072
 31
0.0
  0
LINE
  5
2DC
330
1F
100
AcDbEntity
  8
付属金具
  6
CONTINUOUS
 62
     6
100
AcDbLine
 10
1162.665587426711
 20
3723.664278991259
 30
0.0
 11
1162.745942866359
 21
3723.477334039004
 31
0.0
  0
LINE
  5
2DD
330
1F
100
AcDbEntity
  8
付属金具
  6
CONTINUOUS
 62
     6
100
AcDbLine
 10
1162.549187399168
 20
3724.04953775654
 30
0.0
 11
1162.665587426711
 21
3723.664278991259
 31
0.0
  0
LINE
  5
2DE
330
1F
100
AcDbEntity
  8
付属金具
  6
CONTINUOUS
 62
     6
100
AcDbLine
 10
1162.490690240896
 20
3724.411104155915
 30
0.0
 11
1162.549187399168
 21
3724.04953775654
 31
0.0
  0
LINE
  5
2DF
330
1F
100
AcDbEntity
  8
付属金具
  6
CONTINUOUS
 62
     6
100
AcDbLine
 10
1162.470697034501
 20
3724.761737636148
 30
0.0
 11
1162.490690240896
 21
3724.411104155915
 31
0.0
  0
LINE
  5
2E0
330
1F
100
AcDbEntity
  8
付属金具
  6
CONTINUOUS
 62
     6
100
AcDbLine
 10
1162.468097920841
 20
3725.104744819116
 30
0.0
 11
1162.470697034501
 21
3724.761737636148
 31
0.0
  0
LINE
  5
2E1
330
1F
100
AcDbEntity
  8
付属金具
  6
CONTINUOUS
 62
     6
100
AcDbLine
 10
1162.465440412544
 20
3725.447467338483
 30
0.0
 11
1162.468097920841
 21
3725.104744819116
 31
0.0
  0
LINE
  5
2E2
330
1F
100
AcDbEntity
  8
付属金具
  6
CONTINUOUS
 62
     6
100
AcDbLine
 10
1162.440532556355
 20
3725.796209962266
 30
0.0
 11
1162.465440412544
 21
3725.447467338483
 31
0.0
  0
LINE
  5
2E3
330
1F
100
AcDbEntity
  8
付属金具
  6
CONTINUOUS
 62
     6
100
AcDbLine
 10
1162.374488903026
 20
3726.154879533598
 30
0.0
 11
1162.440532556355
 21
3725.796209962266
 31
0.0
  0
LINE
  5
2E4
330
1F
100
AcDbEntity
  8
付属金具
  6
CONTINUOUS
 62
     6
100
AcDbLine
 10
1162.24910567153
 20
3726.533805241959
 30
0.0
 11
1162.374488903026
 21
3726.154879533598
 31
0.0
  0
LINE
  5
2E5
330
1F
100
AcDbEntity
  8
付属金具
  6
CONTINUOUS
 62
     6
100
AcDbLine
 10
1162.165944523931
 20
3726.705503193527
 30
0.0
 11
1162.24910567153
 21
3726.533805241959
 31
0.0
  0
LINE
  5
2E6
330
1F
100
AcDbEntity
  8
付属金具
  6
CONTINUOUS
 62
     6
100
AcDbLine
 10
1162.060630194722
 20
3726.882867325725
 30
0.0
 11
1162.165944523931
 21
3726.705503193527
 31
0.0
  0
LINE
  5
2E7
330
1F
100
AcDbEntity
  8
付属金具
  6
CONTINUOUS
 62
     6
100
AcDbLine
 10
1161.822787699993
 20
3727.218623967524
 30
0.0
 11
1162.060630194722
 21
3726.882867325725
 31
0.0
  0
LINE
  5
2E8
330
1F
100
AcDbEntity
  8
付属金具
  6
CONTINUOUS
 62
     6
100
AcDbLine
 10
1161.5366029636
 20
3727.575969201162
 30
0.0
 11
1161.822787699993
 21
3727.218623967524
 31
0.0
  0
LINE
  5
2E9
330
1F
100
AcDbEntity
  8
付属金具
  6
CONTINUOUS
 62
     6
100
AcDbLine
 10
1161.473006843266
 20
3727.256226997094
 30
0.0
 11
1161.5366029636
 21
3727.575969201162
 31
0.0
  0
LINE
  5
2EA
330
1F
100
AcDbEntity
  8
付属金具
  6
CONTINUOUS
 62
     6
100
AcDbLine
 10
1161.656129828457
 20
3727.025679877239
 30
0.0
 11
1161.473006843266
 21
3727.256226997094
 31
0.0
  0
LINE
  5
2EB
330
1F
100
AcDbEntity
  8
付属金具
  6
CONTINUOUS
 62
     6
100
AcDbLine
 10
1161.824484816424
 20
3726.766373132908
 30
0.0
 11
1161.656129828457
 21
3727.025679877239
 31
0.0
  0
LINE
  5
2EC
330
1F
100
AcDbEntity
  8
付属金具
  6
CONTINUOUS
 62
     6
100
AcDbLine
 10
1161.991730471686
 20
3726.435008159228
 30
0.0
 11
1161.824484816424
 21
3726.766373132908
 31
0.0
  0
LINE
  5
2ED
330
1F
100
AcDbEntity
  8
付属金具
  6
CONTINUOUS
 62
     6
100
AcDbLine
 10
1162.117199884604
 20
3726.056115532817
 30
0.0
 11
1161.991730471686
 21
3726.435008159228
 31
0.0
  0
LINE
  5
2EE
330
1F
100
AcDbEntity
  8
付属金具
  6
CONTINUOUS
 62
     6
100
AcDbLine
 10
1162.184126233428
 20
3725.694900068535
 30
0.0
 11
1162.117199884604
 21
3726.056115532817
 31
0.0
  0
LINE
  5
2EF
330
1F
100
AcDbEntity
  8
付属金具
  6
CONTINUOUS
 62
     6
100
AcDbLine
 10
1162.209077120672
 20
3725.346302937253
 30
0.0
 11
1162.184126233428
 21
3725.694900068535
 31
0.0
  0
LINE
  5
2F0
330
1F
100
AcDbEntity
  8
付属金具
  6
CONTINUOUS
 62
     6
100
AcDbLine
 10
1162.21326694649
 20
3725.006924373049
 30
0.0
 11
1162.209077120672
 21
3725.346302937253
 31
0.0
  0
LINE
  5
2F1
330
1F
100
AcDbEntity
  8
付属金具
  6
CONTINUOUS
 62
     6
100
AcDbLine
 10
1162.21844026179
 20
3724.66490533351
 30
0.0
 11
1162.21326694649
 21
3725.006924373049
 31
0.0
  0
LINE
  5
2F2
330
1F
100
AcDbEntity
  8
付属金具
  6
CONTINUOUS
 62
     6
100
AcDbLine
 10
1162.240891512255
 20
3724.315215407993
 30
0.0
 11
1162.21844026179
 21
3724.66490533351
 31
0.0
  0
LINE
  5
2F3
330
1F
100
AcDbEntity
  8
付属金具
  6
CONTINUOUS
 62
     6
100
AcDbLine
 10
1162.301932896021
 20
3723.954625645281
 30
0.0
 11
1162.240891512255
 21
3724.315215407993
 31
0.0
  0
LINE
  5
2F4
330
1F
100
AcDbEntity
  8
付属金具
  6
CONTINUOUS
 62
     6
100
AcDbLine
 10
1163.184127415606
 20
3724.075344604125
 30
0.0
 11
1163.139495257363
 21
3724.258947721009
 31
0.0
  0
LINE
  5
2F5
330
1F
100
AcDbEntity
  8
付属金具
  6
CONTINUOUS
 62
     6
100
AcDbLine
 10
1163.139495257363
 20
3724.258947721009
 30
0.0
 11
1163.086308382491
 21
3724.614027337613
 31
0.0
  0
LINE
  5
2F6
330
1F
100
AcDbEntity
  8
付属金具
  6
CONTINUOUS
 62
     6
100
AcDbLine
 10
1163.086308382491
 20
3724.614027337613
 30
0.0
 11
1163.069855945982
 21
3724.963130964909
 31
0.0
  0
LINE
  5
2F7
330
1F
100
AcDbEntity
  8
付属金具
  6
CONTINUOUS
 62
     6
100
AcDbLine
 10
1163.069855945982
 20
3724.963130964909
 30
0.0
 11
1163.071220964784
 21
3725.310415589337
 31
0.0
  0
LINE
  5
2F8
330
1F
100
AcDbEntity
  8
付属金具
  6
CONTINUOUS
 62
     6
100
AcDbLine
 10
1163.071220964784
 20
3725.310415589337
 30
0.0
 11
1163.068240830085
 21
3725.66167274719
 31
0.0
  0
LINE
  5
2F9
330
1F
100
AcDbEntity
  8
付属金具
  6
CONTINUOUS
 62
     6
100
AcDbLine
 10
1163.068240830085
 20
3725.66167274719
 30
0.0
 11
1163.043859319822
 21
3726.016391171399
 31
0.0
  0
LINE
  5
2FA
330
1F
100
AcDbEntity
  8
付属金具
  6
CONTINUOUS
 62
     6
100
AcDbLine
 10
1163.043859319822
 20
3726.016391171399
 30
0.0
 11
1162.974918838449
 21
3726.382607237789
 31
0.0
  0
LINE
  5
2FB
330
1F
100
AcDbEntity
  8
付属金具
  6
CONTINUOUS
 62
     6
100
AcDbLine
 10
1162.974918838449
 20
3726.382607237789
 30
0.0
 11
1162.843581381712
 21
3726.7620030868
 31
0.0
  0
LINE
  5
2FC
330
1F
100
AcDbEntity
  8
付属金具
  6
CONTINUOUS
 62
     6
100
AcDbLine
 10
1162.843581381712
 20
3726.7620030868
 30
0.0
 11
1162.695631294486
 21
3727.057873741717
 31
0.0
  0
LINE
  5
2FD
330
1F
100
AcDbEntity
  8
付属金具
  6
CONTINUOUS
 62
     6
100
AcDbLine
 10
1162.695631294486
 20
3727.057873741717
 30
0.0
 11
1162.511960234527
 21
3727.35709141737
 31
0.0
  0
LINE
  5
2FE
330
1F
100
AcDbEntity
  8
付属金具
  6
CONTINUOUS
 62
     6
100
AcDbLine
 10
1162.511960234527
 20
3727.35709141737
 30
0.0
 11
1162.103961634944
 21
3727.9198431893
 31
0.0
  0
LINE
  5
2FF
330
1F
100
AcDbEntity
  8
付属金具
  6
CONTINUOUS
 62
     6
100
AcDbLine
 10
1162.103961634944
 20
3727.9198431893
 30
0.0
 11
1161.759042167071
 21
3728.340577932222
 31
0.0
  0
LINE
  5
300
330
1F
100
AcDbEntity
  8
付属金具
  6
CONTINUOUS
 62
     6
100
AcDbLine
 10
1161.759042167071
 20
3728.340577932222
 30
0.0
 11
1161.615198848505
 21
3728.506036899105
 31
0.0
  0
LINE
  5
301
330
1F
100
AcDbEntity
  8
付属金具
  6
CONTINUOUS
 62
     6
100
AcDbLine
 10
1161.615198848505
 20
3728.506036899105
 30
0.0
 11
1161.704722357555
 21
3728.75832554365
 31
0.0
  0
LINE
  5
302
330
1F
100
AcDbEntity
  8
付属金具
  6
CONTINUOUS
 62
     6
100
AcDbLine
 10
1161.704722357555
 20
3728.75832554365
 30
0.0
 11
1161.868598052629
 21
3728.577594538599
 31
0.0
  0
LINE
  5
303
330
1F
100
AcDbEntity
  8
付属金具
  6
CONTINUOUS
 62
     6
100
AcDbLine
 10
1161.868598052629
 20
3728.577594538599
 30
0.0
 11
1162.251803198104
 21
3728.117107586689
 31
0.0
  0
LINE
  5
304
330
1F
100
AcDbEntity
  8
付属金具
  6
CONTINUOUS
 62
     6
100
AcDbLine
 10
1162.251803198104
 20
3728.117107586689
 30
0.0
 11
1162.479245708981
 21
3727.823148985642
 31
0.0
  0
LINE
  5
305
330
1F
100
AcDbEntity
  8
付属金具
  6
CONTINUOUS
 62
     6
100
AcDbLine
 10
1162.479245708981
 20
3727.823148985642
 30
0.0
 11
1162.705344069399
 21
3727.502956912954
 31
0.0
  0
LINE
  5
306
330
1F
100
AcDbEntity
  8
付属金具
  6
CONTINUOUS
 62
     6
100
AcDbLine
 10
1162.705344069399
 20
3727.502956912954
 30
0.0
 11
1162.911518094641
 21
3727.175120903717
 31
0.0
  0
LINE
  5
307
330
1F
100
AcDbEntity
  8
付属金具
  6
CONTINUOUS
 62
     6
100
AcDbLine
 10
1162.911518094641
 20
3727.175120903717
 30
0.0
 11
1163.073453466503
 21
3726.85024271281
 31
0.0
  0
LINE
  5
308
330
1F
100
AcDbEntity
  8
付属金具
  6
CONTINUOUS
 62
     6
100
AcDbLine
 10
1163.073453466503
 20
3726.85024271281
 30
0.0
 11
1163.203838967562
 21
3726.473237195828
 31
0.0
  0
LINE
  5
309
330
1F
100
AcDbEntity
  8
付属金具
  6
CONTINUOUS
 62
     6
100
AcDbLine
 10
1163.203838967562
 20
3726.473237195828
 30
0.0
 11
1163.27330579486
 21
3726.112996929865
 31
0.0
  0
LINE
  5
30A
330
1F
100
AcDbEntity
  8
付属金具
  6
CONTINUOUS
 62
     6
100
AcDbLine
 10
1163.27330579486
 20
3726.112996929865
 30
0.0
 11
1163.300744702322
 21
3725.765354860062
 31
0.0
  0
LINE
  5
30B
330
1F
100
AcDbEntity
  8
付属金具
  6
CONTINUOUS
 62
     6
100
AcDbLine
 10
1163.300744702322
 20
3725.765354860062
 30
0.0
 11
1163.30490829901
 21
3725.425966227439
 31
0.0
  0
LINE
  5
30C
330
1F
100
AcDbEntity
  8
付属金具
  6
CONTINUOUS
 62
     6
100
AcDbLine
 10
1163.30490829901
 20
3725.425966227439
 30
0.0
 11
1163.307537388818
 21
3725.082970551236
 31
0.0
  0
LINE
  5
30D
330
1F
100
AcDbEntity
  8
付属金具
  6
CONTINUOUS
 62
     6
100
AcDbLine
 10
1163.307537388818
 20
3725.082970551236
 30
0.0
 11
1163.327530595212
 21
3724.732337071004
 31
0.0
  0
LINE
  5
30E
330
1F
100
AcDbEntity
  8
付属金具
  6
CONTINUOUS
 62
     6
100
AcDbLine
 10
1163.327530595212
 20
3724.732337071004
 30
0.0
 11
1163.386113934908
 21
3724.370803753578
 31
0.0
  0
LINE
  5
30F
330
1F
100
AcDbEntity
  8
付属金具
  6
CONTINUOUS
 62
     6
100
AcDbLine
 10
1163.386113934908
 20
3724.370803753578
 30
0.0
 11
1163.504885825098
 21
3723.986455461063
 31
0.0
  0
LINE
  5
310
330
1F
100
AcDbEntity
  8
付属金具
  6
CONTINUOUS
 62
     6
100
AcDbLine
 10
1163.504885825098
 20
3723.986455461063
 30
0.0
 11
1163.67432666144
 21
3723.627330909825
 31
0.0
  0
LINE
  5
311
330
1F
100
AcDbEntity
  8
付属金具
  6
CONTINUOUS
 62
     6
100
AcDbLine
 10
1163.67432666144
 20
3723.627330909825
 30
0.0
 11
1163.869323739994
 21
3723.320917674208
 31
0.0
  0
LINE
  5
312
330
1F
100
AcDbEntity
  8
付属金具
  6
CONTINUOUS
 62
     6
100
AcDbLine
 10
1163.869323739994
 20
3723.320917674208
 30
0.0
 11
1164.081272569171
 21
3723.052627537043
 31
0.0
  0
LINE
  5
313
330
1F
100
AcDbEntity
  8
付属金具
  6
CONTINUOUS
 62
     6
100
AcDbLine
 10
1164.081272569171
 20
3723.052627537043
 30
0.0
 11
1164.304351755844
 21
3722.800028479701
 31
0.0
  0
LINE
  5
314
330
1F
100
AcDbEntity
  8
付属金具
  6
CONTINUOUS
 62
     6
100
AcDbLine
 10
1164.304351755844
 20
3722.800028479701
 30
0.0
 11
1164.527400966369
 21
3722.547417915595
 31
0.0
  0
LINE
  5
315
330
1F
100
AcDbEntity
  8
付属金具
  6
CONTINUOUS
 62
     6
100
AcDbLine
 10
1164.527400966369
 20
3722.547417915595
 30
0.0
 11
1164.743739537761
 21
3722.275039087435
 31
0.0
  0
LINE
  5
316
330
1F
100
AcDbEntity
  8
付属金具
  6
CONTINUOUS
 62
     6
100
AcDbLine
 10
1164.743739537761
 20
3722.275039087435
 30
0.0
 11
1164.943081769815
 21
3721.964653318392
 31
0.0
  0
LINE
  5
317
330
1F
100
AcDbEntity
  8
付属金具
  6
CONTINUOUS
 62
     6
100
AcDbLine
 10
1164.943081769815
 20
3721.964653318392
 30
0.0
 11
1165.122227817135
 21
3721.594950984714
 31
0.0
  0
LINE
  5
318
330
1F
100
AcDbEntity
  8
付属金具
  6
CONTINUOUS
 62
     6
100
AcDbLine
 10
1165.122227817135
 20
3721.594950984714
 30
0.0
 11
1165.223756306411
 21
3721.278504994318
 31
0.0
  0
LINE
  5
319
330
1F
100
AcDbEntity
  8
付属金具
  6
CONTINUOUS
 62
     6
100
AcDbLine
 10
1165.223756306411
 20
3721.278504994318
 30
0.0
 11
1165.296446335174
 21
3720.902185033156
 31
0.0
  0
LINE
  5
31A
330
1F
100
AcDbEntity
  8
付属金具
  6
CONTINUOUS
 62
     6
100
AcDbLine
 10
1165.296446335174
 20
3720.902185033156
 30
0.0
 11
1165.352459031366
 21
3720.502404226357
 31
0.0
  0
LINE
  5
31B
330
1F
100
AcDbEntity
  8
付属金具
  6
CONTINUOUS
 62
     6
100
AcDbLine
 10
1165.352459031366
 20
3720.502404226357
 30
0.0
 11
1165.38720112213
 21
3720.106001610293
 31
0.0
  0
LINE
  5
31C
330
1F
100
AcDbEntity
  8
付属金具
  6
CONTINUOUS
 62
     6
100
AcDbLine
 10
1165.38720112213
 20
3720.106001610293
 30
0.0
 11
1165.423307525586
 21
3719.451924501459
 31
0.0
  0
LINE
  5
31D
330
1F
100
AcDbEntity
  8
付属金具
  6
CONTINUOUS
 62
     6
100
AcDbLine
 10
1165.423307525586
 20
3719.451924501459
 30
0.0
 11
1165.426881454797
 21
3719.181057185114
 31
0.0
  0
LINE
  5
31E
330
1F
100
AcDbEntity
  8
付属金具
  6
CONTINUOUS
 62
     6
100
AcDbLine
 10
1165.426881454797
 20
3719.181057185114
 30
0.0
 11
1165.174417532688
 21
3719.316239144716
 31
0.0
  0
LINE
  5
31F
330
1F
100
AcDbEntity
  8
付属金具
  6
CONTINUOUS
 62
     6
100
AcDbLine
 10
1165.174417532688
 20
3719.316239144716
 30
0.0
 11
1165.160765937834
 21
3719.583366982089
 31
0.0
  0
LINE
  5
320
330
1F
100
AcDbEntity
  8
付属金具
  6
CONTINUOUS
 62
     6
100
AcDbLine
 10
1165.160765937834
 20
3719.583366982089
 30
0.0
 11
1165.114759289563
 21
3720.210686295103
 31
0.0
  0
LINE
  5
321
330
1F
100
AcDbEntity
  8
付属金具
  6
CONTINUOUS
 62
     6
100
AcDbLine
 10
1165.114759289563
 20
3720.210686295103
 30
0.0
 11
1165.023128923387
 21
3720.934896919027
 31
0.0
  0
LINE
  5
322
330
1F
100
AcDbEntity
  8
付属金具
  6
CONTINUOUS
 62
     6
100
AcDbLine
 10
1165.023128923387
 20
3720.934896919027
 30
0.0
 11
1164.956985725532
 21
3721.256396541438
 31
0.0
  0
LINE
  5
323
330
1F
100
AcDbEntity
  8
付属金具
  6
CONTINUOUS
 62
     6
100
AcDbLine
 10
1164.956985725532
 20
3721.256396541438
 30
0.0
 11
1164.877431358058
 21
3721.50098242817
 31
0.0
  0
LINE
  5
324
330
1F
100
AcDbEntity
  8
付属金具
  6
CONTINUOUS
 62
     6
100
AcDbLine
 10
1164.877431358058
 20
3721.50098242817
 30
0.0
 11
1164.692712106534
 21
3721.862904927614
 31
0.0
  0
LINE
  5
325
330
1F
100
AcDbEntity
  8
付属金具
  6
CONTINUOUS
 62
     6
100
AcDbLine
 10
1164.692712106534
 20
3721.862904927614
 30
0.0
 11
1164.483339106225
 21
3722.169440245479
 31
0.0
  0
LINE
  5
326
330
1F
100
AcDbEntity
  8
付属金具
  6
CONTINUOUS
 62
     6
100
AcDbLine
 10
1164.483339106225
 20
3722.169440245479
 30
0.0
 11
1164.264457747685
 21
3722.440838689957
 31
0.0
  0
LINE
  5
327
330
1F
100
AcDbEntity
  8
付属金具
  6
CONTINUOUS
 62
     6
100
AcDbLine
 10
1164.264457747685
 20
3722.440838689957
 30
0.0
 11
1164.041377122667
 21
3722.693441494317
 31
0.0
  0
LINE
  5
328
330
1F
100
AcDbEntity
  8
付属金具
  6
CONTINUOUS
 62
     6
100
AcDbLine
 10
1164.041377122667
 20
3722.693441494317
 30
0.0
 11
1163.819946411085
 21
3722.949429095537
 31
0.0
  0
LINE
  5
329
330
1F
100
AcDbEntity
  8
付属金具
  6
CONTINUOUS
 62
     6
100
AcDbLine
 10
1163.819946411085
 20
3722.949429095537
 30
0.0
 11
1163.607032452009
 21
3723.220233482047
 31
0.0
  0
LINE
  5
32A
330
1F
100
AcDbEntity
  8
付属金具
  6
CONTINUOUS
 62
     6
100
AcDbLine
 10
1163.607032452009
 20
3723.220233482047
 30
0.0
 11
1163.414467188397
 21
3723.52758020396
 31
0.0
  0
LINE
  5
32B
330
1F
100
AcDbEntity
  8
付属金具
  6
CONTINUOUS
 62
     6
100
AcDbLine
 10
1163.414467188397
 20
3723.52758020396
 30
0.0
 11
1163.327926017196
 21
3723.700736439606
 31
0.0
  0
LINE
  5
32C
330
1F
100
AcDbEntity
  8
付属金具
  6
CONTINUOUS
 62
     6
100
AcDbLine
 10
1163.327926017196
 20
3723.700736439606
 30
0.0
 11
1163.247600553695
 21
3723.887692898627
 31
0.0
  0
LINE
  5
32D
330
1F
100
AcDbEntity
  8
付属金具
  6
CONTINUOUS
 62
     6
100
AcDbLine
 10
1163.247600553695
 20
3723.887692898627
 30
0.0
 11
1163.184127415606
 21
3724.075344604125
 31
0.0
  0
LINE
  5
32E
330
1F
100
AcDbEntity
  8
付属金具
  6
CONTINUOUS
 62
     6
100
AcDbLine
 10
1164.139264380128
 20
3725.746245519394
 30
0.0
 11
1164.141893469936
 21
3725.403249843191
 31
0.0
  0
LINE
  5
32F
330
1F
100
AcDbEntity
  8
付属金具
  6
CONTINUOUS
 62
     6
100
AcDbLine
 10
1164.141893469936
 20
3725.403249843191
 30
0.0
 11
1164.164344720401
 21
3725.053559917673
 31
0.0
  0
LINE
  5
330
330
1F
100
AcDbEntity
  8
付属金具
  6
CONTINUOUS
 62
     6
100
AcDbLine
 10
1164.164344720401
 20
3725.053559917673
 30
0.0
 11
1164.225386104166
 21
3724.692970154962
 31
0.0
  0
LINE
  5
331
330
1F
100
AcDbEntity
  8
付属金具
  6
CONTINUOUS
 62
     6
100
AcDbLine
 10
1164.225386104166
 20
3724.692970154962
 30
0.0
 11
1164.344274151927
 21
3724.308666451161
 31
0.0
  0
LINE
  5
332
330
1F
100
AcDbEntity
  8
付属金具
  6
CONTINUOUS
 62
     6
100
AcDbLine
 10
1164.344274151927
 20
3724.308666451161
 30
0.0
 11
1164.427143840921
 21
3724.122686628804
 31
0.0
  0
LINE
  5
333
330
1F
100
AcDbEntity
  8
付属金具
  6
CONTINUOUS
 62
     6
100
AcDbLine
 10
1164.427143840921
 20
3724.122686628804
 30
0.0
 11
1164.518031603968
 21
3723.945554112714
 31
0.0
  0
LINE
  5
334
330
1F
100
AcDbEntity
  8
付属金具
  6
CONTINUOUS
 62
     6
100
AcDbLine
 10
1164.518031603968
 20
3723.945554112714
 30
0.0
 11
1164.72288945442
 21
3723.628493834473
 31
0.0
  0
LINE
  5
335
330
1F
100
AcDbEntity
  8
付属金具
  6
CONTINUOUS
 62
     6
100
AcDbLine
 10
1164.72288945442
 20
3723.628493834473
 30
0.0
 11
1164.949012794502
 21
3723.345576361512
 31
0.0
  0
LINE
  5
336
330
1F
100
AcDbEntity
  8
付属金具
  6
CONTINUOUS
 62
     6
100
AcDbLine
 10
1164.949012794502
 20
3723.345576361512
 30
0.0
 11
1165.182874732604
 21
3723.079928422752
 31
0.0
  0
LINE
  5
337
330
1F
100
AcDbEntity
  8
付属金具
  6
CONTINUOUS
 62
     6
100
AcDbLine
 10
1165.182874732604
 20
3723.079928422752
 30
0.0
 11
1165.413809866515
 21
3722.821815472284
 31
0.0
  0
LINE
  5
338
330
1F
100
AcDbEntity
  8
付属金具
  6
CONTINUOUS
 62
     6
100
AcDbLine
 10
1165.413809866515
 20
3722.821815472284
 30
0.0
 11
1165.630146999561
 21
3722.549440391143
 31
0.0
  0
LINE
  5
339
330
1F
100
AcDbEntity
  8
付属金具
  6
CONTINUOUS
 62
     6
100
AcDbLine
 10
1165.630146999561
 20
3722.549440391143
 30
0.0
 11
1165.820311804909
 21
3722.255604457948
 31
0.0
  0
LINE
  5
33A
330
1F
100
AcDbEntity
  8
付属金具
  6
CONTINUOUS
 62
     6
100
AcDbLine
 10
1165.820311804909
 20
3722.255604457948
 30
0.0
 11
1165.97410495629
 21
3721.921955980704
 31
0.0
  0
LINE
  5
33B
330
1F
100
AcDbEntity
  8
付属金具
  6
CONTINUOUS
 62
     6
100
AcDbLine
 10
1165.97410495629
 20
3721.921955980704
 30
0.0
 11
1166.092392093263
 21
3721.531781127283
 31
0.0
  0
LINE
  5
33C
330
1F
100
AcDbEntity
  8
付属金具
  6
CONTINUOUS
 62
     6
100
AcDbLine
 10
1166.092392093263
 20
3721.531781127283
 30
0.0
 11
1166.155934671467
 21
3721.172022508736
 31
0.0
  0
LINE
  5
33D
330
1F
100
AcDbEntity
  8
付属金具
  6
CONTINUOUS
 62
     6
100
AcDbLine
 10
1166.155934671467
 20
3721.172022508736
 30
0.0
 11
1166.186488739063
 21
3720.831216718452
 31
0.0
  0
LINE
  5
33E
330
1F
100
AcDbEntity
  8
付属金具
  6
CONTINUOUS
 62
     6
100
AcDbLine
 10
1166.186488739063
 20
3720.831216718452
 30
0.0
 11
1166.192832342133
 21
3720.50119012146
 31
0.0
  0
LINE
  5
33F
330
1F
100
AcDbEntity
  8
付属金具
  6
CONTINUOUS
 62
     6
100
AcDbLine
 10
1166.192832342133
 20
3720.50119012146
 30
0.0
 11
1166.196161521243
 21
3720.17866917783
 31
0.0
  0
LINE
  5
340
330
1F
100
AcDbEntity
  8
付属金具
  6
CONTINUOUS
 62
     6
100
AcDbLine
 10
1166.196161521243
 20
3720.17866917783
 30
0.0
 11
1166.210930567846
 21
3719.848992077586
 31
0.0
  0
LINE
  5
341
330
1F
100
AcDbEntity
  8
付属金具
  6
CONTINUOUS
 62
     6
100
AcDbLine
 10
1166.210930567846
 20
3719.848992077586
 30
0.0
 11
1166.253464023081
 21
3719.506882013798
 31
0.0
  0
LINE
  5
342
330
1F
100
AcDbEntity
  8
付属金具
  6
CONTINUOUS
 62
     6
100
AcDbLine
 10
1166.253464023081
 20
3719.506882013798
 30
0.0
 11
1166.340738878488
 21
3719.144948100628
 31
0.0
  0
LINE
  5
343
330
1F
100
AcDbEntity
  8
付属金具
  6
CONTINUOUS
 62
     6
100
AcDbLine
 10
1166.340738878488
 20
3719.144948100628
 30
0.0
 11
1166.404034715063
 21
3718.980056808927
 31
0.0
  0
LINE
  5
344
330
1F
100
AcDbEntity
  8
付属金具
  6
CONTINUOUS
 62
     6
100
AcDbLine
 10
1166.404034715063
 20
3718.980056808927
 30
0.0
 11
1166.478331635157
 21
3718.816499410384
 31
0.0
  0
LINE
  5
345
330
1F
100
AcDbEntity
  8
付属金具
  6
CONTINUOUS
 62
     6
100
AcDbLine
 10
1166.478331635157
 20
3718.816499410384
 30
0.0
 11
1166.565839374603
 21
3718.640825178373
 31
0.0
  0
LINE
  5
346
330
1F
100
AcDbEntity
  8
付属金具
  6
CONTINUOUS
 62
     6
100
AcDbLine
 10
1166.565839374603
 20
3718.640825178373
 30
0.0
 11
1166.230860427146
 21
3718.74446156182
 31
0.0
  0
LINE
  5
347
330
1F
100
AcDbEntity
  8
付属金具
  6
CONTINUOUS
 62
     6
100
AcDbLine
 10
1166.230860427146
 20
3718.74446156182
 30
0.0
 11
1166.110982951269
 21
3719.056753063332
 31
0.0
  0
LINE
  5
348
330
1F
100
AcDbEntity
  8
付属金具
  6
CONTINUOUS
 62
     6
100
AcDbLine
 10
1166.110982951269
 20
3719.056753063332
 30
0.0
 11
1166.005335699007
 21
3719.428951440429
 31
0.0
  0
LINE
  5
349
330
1F
100
AcDbEntity
  8
付属金具
  6
CONTINUOUS
 62
     6
100
AcDbLine
 10
1166.005335699007
 20
3719.428951440429
 30
0.0
 11
1165.950614317254
 21
3719.780424013452
 31
0.0
  0
LINE
  5
34A
330
1F
100
AcDbEntity
  8
付属金具
  6
CONTINUOUS
 62
     6
100
AcDbLine
 10
1165.950614317254
 20
3719.780424013452
 30
0.0
 11
1165.927946173044
 21
3720.115727417374
 31
0.0
  0
LINE
  5
34B
330
1F
100
AcDbEntity
  8
付属金具
  6
CONTINUOUS
 62
     6
100
AcDbLine
 10
1165.927946173044
 20
3720.115727417374
 30
0.0
 11
1165.922681548771
 21
3720.443279168369
 31
0.0
  0
LINE
  5
34C
330
1F
100
AcDbEntity
  8
付属金具
  6
CONTINUOUS
 62
     6
100
AcDbLine
 10
1165.922681548771
 20
3720.443279168369
 30
0.0
 11
1165.916343131066
 21
3720.773303456688
 31
0.0
  0
LINE
  5
34D
330
1F
100
AcDbEntity
  8
付属金具
  6
CONTINUOUS
 62
     6
100
AcDbLine
 10
1165.916343131066
 20
3720.773303456688
 30
0.0
 11
1165.891211757422
 21
3721.107665614568
 31
0.0
  0
LINE
  5
34E
330
1F
100
AcDbEntity
  8
付属金具
  6
CONTINUOUS
 62
     6
100
AcDbLine
 10
1165.891211757422
 20
3721.107665614568
 30
0.0
 11
1165.828986911666
 21
3721.456386852049
 31
0.0
  0
LINE
  5
34F
330
1F
100
AcDbEntity
  8
付属金具
  6
CONTINUOUS
 62
     6
100
AcDbLine
 10
1165.828986911666
 20
3721.456386852049
 30
0.0
 11
1165.716815937869
 21
3721.823191979923
 31
0.0
  0
LINE
  5
350
330
1F
100
AcDbEntity
  8
付属金具
  6
CONTINUOUS
 62
     6
100
AcDbLine
 10
1165.716815937869
 20
3721.823191979923
 30
0.0
 11
1165.551440778992
 21
3722.18676622567
 31
0.0
  0
LINE
  5
351
330
1F
100
AcDbEntity
  8
付属金具
  6
CONTINUOUS
 62
     6
100
AcDbLine
 10
1165.551440778992
 20
3722.18676622567
 30
0.0
 11
1165.353037447709
 21
3722.494627676946
 31
0.0
  0
LINE
  5
352
330
1F
100
AcDbEntity
  8
付属金具
  6
CONTINUOUS
 62
     6
100
AcDbLine
 10
1165.353037447709
 20
3722.494627676946
 30
0.0
 11
1165.136700314663
 21
3722.767002758089
 31
0.0
  0
LINE
  5
353
330
1F
100
AcDbEntity
  8
付属金具
  6
CONTINUOUS
 62
     6
100
AcDbLine
 10
1165.136700314663
 20
3722.767002758089
 30
0.0
 11
1164.910110334252
 21
3723.021143175131
 31
0.0
  0
LINE
  5
354
330
1F
100
AcDbEntity
  8
付属金具
  6
CONTINUOUS
 62
     6
100
AcDbLine
 10
1164.910110334252
 20
3723.021143175131
 30
0.0
 11
1164.683632764393
 21
3723.275326742541
 31
0.0
  0
LINE
  5
355
330
1F
100
AcDbEntity
  8
付属金具
  6
CONTINUOUS
 62
     6
100
AcDbLine
 10
1164.683632764393
 20
3723.275326742541
 30
0.0
 11
1164.467340220061
 21
3723.547585666113
 31
0.0
  0
LINE
  5
356
330
1F
100
AcDbEntity
  8
付属金具
  6
CONTINUOUS
 62
     6
100
AcDbLine
 10
1164.467340220061
 20
3723.547585666113
 30
0.0
 11
1164.268892300064
 21
3723.85556327496
 31
0.0
  0
LINE
  5
357
330
1F
100
AcDbEntity
  8
付属金具
  6
CONTINUOUS
 62
     6
100
AcDbLine
 10
1164.268892300064
 20
3723.85556327496
 30
0.0
 11
1164.09947769285
 21
3724.214697894618
 31
0.0
  0
LINE
  5
358
330
1F
100
AcDbEntity
  8
付属金具
  6
CONTINUOUS
 62
     6
100
AcDbLine
 10
1164.09947769285
 20
3724.214697894618
 30
0.0
 11
1163.980593392108
 21
3724.599003036764
 31
0.0
  0
LINE
  5
359
330
1F
100
AcDbEntity
  8
付属金具
  6
CONTINUOUS
 62
     6
100
AcDbLine
 10
1163.980593392108
 20
3724.599003036764
 30
0.0
 11
1163.922122462965
 21
3724.960579504559
 31
0.0
  0
LINE
  5
35A
330
1F
100
AcDbEntity
  8
付属金具
  6
CONTINUOUS
 62
     6
100
AcDbLine
 10
1163.922122462965
 20
3724.960579504559
 30
0.0
 11
1163.8996712125
 21
3725.310269430076
 31
0.0
  0
LINE
  5
35B
330
1F
100
AcDbEntity
  8
付属金具
  6
CONTINUOUS
 62
     6
100
AcDbLine
 10
1163.8996712125
 20
3725.310269430076
 30
0.0
 11
1163.894467921052
 21
3725.65227696285
 31
0.0
  0
LINE
  5
35C
330
1F
100
AcDbEntity
  8
付属金具
  6
CONTINUOUS
 62
     6
100
AcDbLine
 10
1163.894467921052
 20
3725.65227696285
 30
0.0
 11
1163.892762368434
 21
3725.992609150188
 31
0.0
  0
LINE
  5
35D
330
1F
100
AcDbEntity
  8
付属金具
  6
CONTINUOUS
 62
     6
100
AcDbLine
 10
1163.892762368434
 20
3725.992609150188
 30
0.0
 11
1163.867897662612
 21
3726.341239363419
 31
0.0
  0
LINE
  5
35E
330
1F
100
AcDbEntity
  8
付属金具
  6
CONTINUOUS
 62
     6
100
AcDbLine
 10
1163.867897662612
 20
3726.341239363419
 30
0.0
 11
1163.805891148948
 21
3726.704343375477
 31
0.0
  0
LINE
  5
35F
330
1F
100
AcDbEntity
  8
付属金具
  6
CONTINUOUS
 62
     6
100
AcDbLine
 10
1163.805891148948
 20
3726.704343375477
 30
0.0
 11
1163.682965961523
 21
3727.084212638552
 31
0.0
  0
LINE
  5
360
330
1F
100
AcDbEntity
  8
付属金具
  6
CONTINUOUS
 62
     6
100
AcDbLine
 10
1163.682965961523
 20
3727.084212638552
 30
0.0
 11
1163.605494175697
 21
3727.263735013068
 31
0.0
  0
LINE
  5
361
330
1F
100
AcDbEntity
  8
付属金具
  6
CONTINUOUS
 62
     6
100
AcDbLine
 10
1163.605494175697
 20
3727.263735013068
 30
0.0
 11
1163.517738128013
 21
3727.425014963737
 31
0.0
  0
LINE
  5
362
330
1F
100
AcDbEntity
  8
付属金具
  6
CONTINUOUS
 62
     6
100
AcDbLine
 10
1163.517738128013
 20
3727.425014963737
 30
0.0
 11
1163.323533874328
 21
3727.714411270842
 31
0.0
  0
LINE
  5
363
330
1F
100
AcDbEntity
  8
付属金具
  6
CONTINUOUS
 62
     6
100
AcDbLine
 10
1163.323533874328
 20
3727.714411270842
 30
0.0
 11
1163.111454332829
 21
3727.968347968361
 31
0.0
  0
LINE
  5
364
330
1F
100
AcDbEntity
  8
付属金具
  6
CONTINUOUS
 62
     6
100
AcDbLine
 10
1163.111454332829
 20
3727.968347968361
 30
0.0
 11
1162.891579988035
 21
3728.204993556495
 31
0.0
  0
LINE
  5
365
330
1F
100
AcDbEntity
  8
付属金具
  6
CONTINUOUS
 62
     6
100
AcDbLine
 10
1162.891579988035
 20
3728.204993556495
 30
0.0
 11
1162.673284738835
 21
3728.445130030639
 31
0.0
  0
LINE
  5
366
330
1F
100
AcDbEntity
  8
付属金具
  6
CONTINUOUS
 62
     6
100
AcDbLine
 10
1162.673284738835
 20
3728.445130030639
 30
0.0
 11
1162.466252055614
 21
3728.700870761966
 31
0.0
  0
LINE
  5
367
330
1F
100
AcDbEntity
  8
付属金具
  6
CONTINUOUS
 62
     6
100
AcDbLine
 10
1162.466252055614
 20
3728.700870761966
 30
0.0
 11
1162.276038914534
 21
3728.994821414384
 31
0.0
  0
LINE
  5
368
330
1F
100
AcDbEntity
  8
付属金具
  6
CONTINUOUS
 62
     6
100
AcDbLine
 10
1162.276038914534
 20
3728.994821414384
 30
0.0
 11
1162.118345959519
 21
3729.338382834858
 31
0.0
  0
LINE
  5
369
330
1F
100
AcDbEntity
  8
付属金具
  6
CONTINUOUS
 62
     6
100
AcDbLine
 10
1162.118345959519
 20
3729.338382834858
 30
0.0
 11
1162.006177105513
 21
3729.667932363806
 31
0.0
  0
LINE
  5
36A
330
1F
100
AcDbEntity
  8
付属金具
  6
CONTINUOUS
 62
     6
100
AcDbLine
 10
1162.006177105513
 20
3729.667932363806
 30
0.0
 11
1162.196321503639
 21
3729.941524483376
 31
0.0
  0
LINE
  5
36B
330
1F
100
AcDbEntity
  8
付属金具
  6
CONTINUOUS
 62
     6
100
AcDbLine
 10
1162.196321503639
 20
3729.941524483376
 30
0.0
 11
1162.272234365053
 21
3729.684126516697
 31
0.0
  0
LINE
  5
36C
330
1F
100
AcDbEntity
  8
付属金具
  6
CONTINUOUS
 62
     6
100
AcDbLine
 10
1162.272234365053
 20
3729.684126516697
 30
0.0
 11
1162.363142418596
 21
3729.432351391402
 31
0.0
  0
LINE
  5
36D
330
1F
100
AcDbEntity
  8
付属金具
  6
CONTINUOUS
 62
     6
100
AcDbLine
 10
1162.363142418596
 20
3729.432351391402
 30
0.0
 11
1162.52083537361
 21
3729.088789970928
 31
0.0
  0
LINE
  5
36E
330
1F
100
AcDbEntity
  8
付属金具
  6
CONTINUOUS
 62
     6
100
AcDbLine
 10
1162.52083537361
 20
3729.088789970928
 30
0.0
 11
1162.708504289197
 21
3728.793862681845
 31
0.0
  0
LINE
  5
36F
330
1F
100
AcDbEntity
  8
付属金具
  6
CONTINUOUS
 62
     6
100
AcDbLine
 10
1162.708504289197
 20
3728.793862681845
 30
0.0
 11
1162.918081197912
 21
3728.539098587182
 31
0.0
  0
LINE
  5
370
330
1F
100
AcDbEntity
  8
付属金具
  6
CONTINUOUS
 62
     6
100
AcDbLine
 10
1162.918081197912
 20
3728.539098587182
 30
0.0
 11
1163.136458881517
 21
3728.298993756641
 31
0.0
  0
LINE
  5
371
330
1F
100
AcDbEntity
  8
付属金具
  6
CONTINUOUS
 62
     6
100
AcDbLine
 10
1163.136458881517
 20
3728.298993756641
 30
0.0
 11
1163.356250791905
 21
3728.062316524904
 31
0.0
  0
LINE
  5
372
330
1F
100
AcDbEntity
  8
付属金具
  6
CONTINUOUS
 62
     6
100
AcDbLine
 10
1163.356250791905
 20
3728.062316524904
 30
0.0
 11
1163.565872289334
 21
3727.807436272671
 31
0.0
  0
LINE
  5
373
330
1F
100
AcDbEntity
  8
付属金具
  6
CONTINUOUS
 62
     6
100
AcDbLine
 10
1163.565872289334
 20
3727.807436272671
 30
0.0
 11
1163.760072796001
 21
3727.51803852722
 31
0.0
  0
LINE
  5
374
330
1F
100
AcDbEntity
  8
付属金具
  6
CONTINUOUS
 62
     6
100
AcDbLine
 10
1163.760072796001
 20
3727.51803852722
 30
0.0
 11
1163.847828843685
 21
3727.356758576551
 31
0.0
  0
LINE
  5
375
330
1F
100
AcDbEntity
  8
付属金具
  6
CONTINUOUS
 62
     6
100
AcDbLine
 10
1163.847828843685
 20
3727.356758576551
 30
0.0
 11
1163.925304376529
 21
3727.177237640381
 31
0.0
  0
LINE
  5
376
330
1F
100
AcDbEntity
  8
付属金具
  6
CONTINUOUS
 62
     6
100
AcDbLine
 10
1163.925304376529
 20
3727.177237640381
 30
0.0
 11
1164.048143382531
 21
3726.797335295356
 31
0.0
  0
LINE
  5
377
330
1F
100
AcDbEntity
  8
付属金具
  6
CONTINUOUS
 62
     6
100
AcDbLine
 10
1164.048143382531
 20
3726.797335295356
 30
0.0
 11
1164.112694121689
 21
3726.435207919963
 31
0.0
  0
LINE
  5
378
330
1F
100
AcDbEntity
  8
付属金具
  6
CONTINUOUS
 62
     6
100
AcDbLine
 10
1164.112694121689
 20
3726.435207919963
 30
0.0
 11
1164.13755882751
 21
3726.086577706732
 31
0.0
  0
LINE
  5
379
330
1F
100
AcDbEntity
  8
付属金具
  6
CONTINUOUS
 62
     6
100
AcDbLine
 10
1164.13755882751
 20
3726.086577706732
 30
0.0
 11
1164.139264380128
 21
3725.746245519394
 31
0.0
  0
LINE
  5
37A
330
1F
100
AcDbEntity
  8
付属金具
  6
CONTINUOUS
 62
     6
100
AcDbLine
 10
1165.778444719524
 20
3725.455364340731
 30
0.0
 11
1165.72695851922
 21
3725.320933776774
 31
0.0
  0
LINE
  5
37B
330
1F
100
AcDbEntity
  8
付属金具
  6
CONTINUOUS
 62
     6
100
AcDbLine
 10
1165.72695851922
 20
3725.320933776774
 30
0.0
 11
1165.704444749007
 21
3725.177676642122
 31
0.0
  0
LINE
  5
37C
330
1F
100
AcDbEntity
  8
付属金具
  6
CONTINUOUS
 62
     6
100
AcDbLine
 10
1165.704444749007
 20
3725.177676642122
 30
0.0
 11
1165.708401007416
 21
3725.033041487449
 31
0.0
  0
LINE
  5
37D
330
1F
100
AcDbEntity
  8
付属金具
  6
CONTINUOUS
 62
     6
100
AcDbLine
 10
1165.708401007416
 20
3725.033041487449
 30
0.0
 11
1165.743141225964
 21
3724.882901922464
 31
0.0
  0
LINE
  5
37E
330
1F
100
AcDbEntity
  8
付属金具
  6
CONTINUOUS
 62
     6
100
AcDbLine
 10
1165.743141225964
 20
3724.882901922464
 30
0.0
 11
1165.808704630874
 21
3724.741838516592
 31
0.0
  0
LINE
  5
37F
330
1F
100
AcDbEntity
  8
付属金具
  6
CONTINUOUS
 62
     6
100
AcDbLine
 10
1165.808704630874
 20
3724.741838516592
 30
0.0
 11
1165.902383678188
 21
3724.617341449816
 31
0.0
  0
LINE
  5
380
330
1F
100
AcDbEntity
  8
付属金具
  6
CONTINUOUS
 62
     6
100
AcDbLine
 10
1165.902383678188
 20
3724.617341449816
 30
0.0
 11
1166.016786505626
 21
3724.520872216794
 31
0.0
  0
LINE
  5
381
330
1F
100
AcDbEntity
  8
付属金具
  6
CONTINUOUS
 62
     6
100
AcDbLine
 10
1166.016786505626
 20
3724.520872216794
 30
0.0
 11
1166.148977929251
 21
3724.445405675543
 31
0.0
  0
LINE
  5
382
330
1F
100
AcDbEntity
  8
付属金具
  6
CONTINUOUS
 62
     6
100
AcDbLine
 10
1166.148977929251
 20
3724.445405675543
 30
0.0
 11
1166.293398309972
 21
3724.39771981343
 31
0.0
  0
LINE
  5
383
330
1F
100
AcDbEntity
  8
付属金具
  6
CONTINUOUS
 62
     6
100
AcDbLine
 10
1166.293398309972
 20
3724.39771981343
 30
0.0
 11
1166.444140319931
 21
3724.378173798901
 31
0.0
  0
LINE
  5
384
330
1F
100
AcDbEntity
  8
付属金具
  6
CONTINUOUS
 62
     6
100
AcDbLine
 10
1166.444140319931
 20
3724.378173798901
 30
0.0
 11
1166.597873397781
 21
3724.388511449962
 31
0.0
  0
LINE
  5
385
330
1F
100
AcDbEntity
  8
付属金具
  6
CONTINUOUS
 62
     6
100
AcDbLine
 10
1166.597873397781
 20
3724.388511449962
 30
0.0
 11
1166.751998670412
 21
3724.427472904694
 31
0.0
  0
LINE
  5
386
330
1F
100
AcDbEntity
  8
付属金具
  6
CONTINUOUS
 62
     6
100
AcDbLine
 10
1166.751998670412
 20
3724.427472904694
 30
0.0
 11
1166.896164062196
 21
3724.49999650644
 31
0.0
  0
LINE
  5
387
330
1F
100
AcDbEntity
  8
付属金具
  6
CONTINUOUS
 62
     6
100
AcDbLine
 10
1166.896164062196
 20
3724.49999650644
 30
0.0
 11
1167.019740697585
 21
3724.596241354431
 31
0.0
  0
LINE
  5
388
330
1F
100
AcDbEntity
  8
付属金具
  6
CONTINUOUS
 62
     6
100
AcDbLine
 10
1167.019740697585
 20
3724.596241354431
 30
0.0
 11
1167.12130004905
 21
3724.712503514028
 31
0.0
  0
LINE
  5
389
330
1F
100
AcDbEntity
  8
付属金具
  6
CONTINUOUS
 62
     6
100
AcDbLine
 10
1167.12130004905
 20
3724.712503514028
 30
0.0
 11
1167.199135878566
 21
3724.84563451624
 31
0.0
  0
LINE
  5
38A
330
1F
100
AcDbEntity
  8
付属金具
  6
CONTINUOUS
 62
     6
100
AcDbLine
 10
1167.199135878566
 20
3724.84563451624
 30
0.0
 11
1167.249346058444
 21
3724.99099379773
 31
0.0
  0
LINE
  5
38B
330
1F
100
AcDbEntity
  8
付属金具
  6
CONTINUOUS
 62
     6
100
AcDbLine
 10
1167.249346058444
 20
3724.99099379773
 30
0.0
 11
1167.268805131021
 21
3725.141861502259
 31
0.0
  0
LINE
  5
38C
330
1F
100
AcDbEntity
  8
付属金具
  6
CONTINUOUS
 62
     6
100
AcDbLine
 10
1167.268805131021
 20
3725.141861502259
 30
0.0
 11
1167.258570582622
 21
3725.295505183088
 31
0.0
  0
LINE
  5
38D
330
1F
100
AcDbEntity
  8
付属金具
  6
CONTINUOUS
 62
     6
100
AcDbLine
 10
1167.258570582622
 20
3725.295505183088
 30
0.0
 11
1167.212024896939
 21
3725.446753535403
 31
0.0
  0
LINE
  5
38E
330
1F
100
AcDbEntity
  8
付属金具
  6
CONTINUOUS
 62
     6
100
AcDbLine
 10
1167.212024896939
 20
3725.446753535403
 30
0.0
 11
1167.138914996972
 21
3725.584920113231
 31
0.0
  0
LINE
  5
38F
330
1F
100
AcDbEntity
  8
付属金具
  6
CONTINUOUS
 62
     6
100
AcDbLine
 10
1167.138914996972
 20
3725.584920113231
 30
0.0
 11
1167.041564467452
 21
3725.696593593298
 31
0.0
  0
LINE
  5
390
330
1F
100
AcDbEntity
  8
付属金具
  6
CONTINUOUS
 62
     6
100
AcDbLine
 10
1167.041564467452
 20
3725.696593593298
 30
0.0
 11
1166.9265883967
 21
3725.787197998101
 31
0.0
  0
LINE
  5
391
330
1F
100
AcDbEntity
  8
付属金具
  6
CONTINUOUS
 62
     6
100
AcDbLine
 10
1166.9265883967
 20
3725.787197998101
 30
0.0
 11
1166.795799448601
 21
3725.851663987251
 31
0.0
  0
LINE
  5
392
330
1F
100
AcDbEntity
  8
付属金具
  6
CONTINUOUS
 62
     6
100
AcDbLine
 10
1166.795799448601
 20
3725.851663987251
 30
0.0
 11
1166.655199313801
 21
3725.889397768494
 31
0.0
  0
LINE
  5
393
330
1F
100
AcDbEntity
  8
付属金具
  6
CONTINUOUS
 62
     6
100
AcDbLine
 10
1166.655199313801
 20
3725.889397768494
 30
0.0
 11
1166.507241721332
 21
3725.901354137598
 31
0.0
  0
LINE
  5
394
330
1F
100
AcDbEntity
  8
付属金具
  6
CONTINUOUS
 62
     6
100
AcDbLine
 10
1166.507241721332
 20
3725.901354137598
 30
0.0
 11
1166.357004824654
 21
3725.889602791172
 31
0.0
  0
LINE
  5
395
330
1F
100
AcDbEntity
  8
付属金具
  6
CONTINUOUS
 62
     6
100
AcDbLine
 10
1166.357004824654
 20
3725.889602791172
 30
0.0
 11
1166.208273827487
 21
3725.8439245472
 31
0.0
  0
LINE
  5
396
330
1F
100
AcDbEntity
  8
付属金具
  6
CONTINUOUS
 62
     6
100
AcDbLine
 10
1166.208273827487
 20
3725.8439245472
 30
0.0
 11
1166.070694986224
 21
3725.77680971417
 31
0.0
  0
LINE
  5
397
330
1F
100
AcDbEntity
  8
付属金具
  6
CONTINUOUS
 62
     6
100
AcDbLine
 10
1166.070694986224
 20
3725.77680971417
 30
0.0
 11
1165.953597483658
 21
3725.686074272974
 31
0.0
  0
LINE
  5
398
330
1F
100
AcDbEntity
  8
付属金具
  6
CONTINUOUS
 62
     6
100
AcDbLine
 10
1165.953597483658
 20
3725.686074272974
 30
0.0
 11
1165.854257541924
 21
3725.57906030011
 31
0.0
  0
LINE
  5
399
330
1F
100
AcDbEntity
  8
付属金具
  6
CONTINUOUS
 62
     6
100
AcDbLine
 10
1165.854257541924
 20
3725.57906030011
 30
0.0
 11
1165.778444719524
 21
3725.455364340731
 31
0.0
  0
LINE
  5
39A
330
1F
100
AcDbEntity
  8
付属金具
  6
CONTINUOUS
 62
     6
100
AcDbLine
 10
1165.25757058992
 20
3724.98304700279
 30
0.0
 11
1165.231424997375
 21
3725.245383142943
 31
0.0
  0
LINE
  5
39B
330
1F
100
AcDbEntity
  8
付属金具
  6
CONTINUOUS
 62
     6
100
AcDbLine
 10
1165.32590698013
 20
3724.722740701303
 30
0.0
 11
1165.25757058992
 21
3724.98304700279
 31
0.0
  0
LINE
  5
39C
330
1F
100
AcDbEntity
  8
付属金具
  6
CONTINUOUS
 62
     6
100
AcDbLine
 10
1165.44216580982
 20
3724.472167318499
 30
0.0
 11
1165.32590698013
 21
3724.722740701303
 31
0.0
  0
LINE
  5
39D
330
1F
100
AcDbEntity
  8
付属金具
  6
CONTINUOUS
 62
     6
100
AcDbLine
 10
1165.594586893768
 20
3724.24702283484
 30
0.0
 11
1165.44216580982
 21
3724.472167318499
 31
0.0
  0
LINE
  5
39E
330
1F
100
AcDbEntity
  8
付属金具
  6
CONTINUOUS
 62
     6
100
AcDbLine
 10
1165.780284388794
 20
3724.05446673965
 30
0.0
 11
1165.594586893768
 21
3724.24702283484
 31
0.0
  0
LINE
  5
39F
330
1F
100
AcDbEntity
  8
付属金具
  6
CONTINUOUS
 62
     6
100
AcDbLine
 10
1165.992196314431
 20
3723.897944571899
 30
0.0
 11
1165.780284388794
 21
3724.05446673965
 31
0.0
  0
LINE
  5
3A0
330
1F
100
AcDbEntity
  8
付属金具
  6
CONTINUOUS
 62
     6
100
AcDbLine
 10
1166.225781345875
 20
3723.789891668931
 30
0.0
 11
1165.992196314431
 21
3723.897944571899
 31
0.0
  0
LINE
  5
3A1
330
1F
100
AcDbEntity
  8
付属金具
  6
CONTINUOUS
 62
     6
100
AcDbLine
 10
1166.474891851273
 20
3723.730699630408
 30
0.0
 11
1166.225781345875
 21
3723.789891668931
 31
0.0
  0
LINE
  5
3A2
330
1F
100
AcDbEntity
  8
付属金具
  6
CONTINUOUS
 62
     6
100
AcDbLine
 10
1166.602995868592
 20
3723.725429750871
 30
0.0
 11
1166.474891851273
 21
3723.730699630408
 31
0.0
  0
LINE
  5
3A3
330
1F
100
AcDbEntity
  8
付属金具
  6
CONTINUOUS
 62
     6
100
AcDbLine
 10
1166.734888964033
 20
3723.73302429974
 30
0.0
 11
1166.602995868592
 21
3723.725429750871
 31
0.0
  0
LINE
  5
3A4
330
1F
100
AcDbEntity
  8
付属金具
  6
CONTINUOUS
 62
     6
100
AcDbLine
 10
1166.863330289888
 20
3723.756610804726
 30
0.0
 11
1166.734888964033
 21
3723.73302429974
 31
0.0
  0
LINE
  5
3A5
330
1F
100
AcDbEntity
  8
付属金具
  6
CONTINUOUS
 62
     6
100
AcDbLine
 10
1166.993596142884
 20
3723.7980899711
 30
0.0
 11
1166.863330289888
 21
3723.756610804726
 31
0.0
  0
LINE
  5
3A6
330
1F
100
AcDbEntity
  8
付属金具
  6
CONTINUOUS
 62
     6
100
AcDbLine
 10
1167.120619308309
 20
3723.855374805507
 30
0.0
 11
1166.993596142884
 21
3723.7980899711
 31
0.0
  0
LINE
  5
3A7
330
1F
100
AcDbEntity
  8
付属金具
  6
CONTINUOUS
 62
     6
100
AcDbLine
 10
1167.231938448802
 20
3723.923823720576
 30
0.0
 11
1167.120619308309
 21
3723.855374805507
 31
0.0
  0
LINE
  5
3A8
330
1F
100
AcDbEntity
  8
付属金具
  6
CONTINUOUS
 62
     6
100
AcDbLine
 10
1167.334919707714
 20
3724.006388989096
 30
0.0
 11
1167.231938448802
 21
3723.923823720576
 31
0.0
  0
LINE
  5
3A9
330
1F
100
AcDbEntity
  8
付属金具
  6
CONTINUOUS
 62
     6
100
AcDbLine
 10
1167.426623283765
 20
3724.096035098354
 30
0.0
 11
1167.334919707714
 21
3724.006388989096
 31
0.0
  0
LINE
  5
3AA
330
1F
100
AcDbEntity
  8
付属金具
  6
CONTINUOUS
 62
     6
100
AcDbLine
 10
1167.50862395751
 20
3724.196264175416
 30
0.0
 11
1167.426623283765
 21
3724.096035098354
 31
0.0
  0
LINE
  5
3AB
330
1F
100
AcDbEntity
  8
付属金具
  6
CONTINUOUS
 62
     6
100
AcDbLine
 10
1167.575676846717
 20
3724.305183274757
 30
0.0
 11
1167.50862395751
 21
3724.196264175416
 31
0.0
  0
LINE
  5
3AC
330
1F
100
AcDbEntity
  8
付属金具
  6
CONTINUOUS
 62
     6
100
AcDbLine
 10
1167.633964864061
 20
3724.422152091754
 30
0.0
 11
1167.575676846717
 21
3724.305183274757
 31
0.0
  0
LINE
  5
3AD
330
1F
100
AcDbEntity
  8
付属金具
  6
CONTINUOUS
 62
     6
100
AcDbLine
 10
1167.679394664603
 20
3724.542714610498
 30
0.0
 11
1167.633964864061
 21
3724.422152091754
 31
0.0
  0
LINE
  5
3AE
330
1F
100
AcDbEntity
  8
付属金具
  6
CONTINUOUS
 62
     6
100
AcDbLine
 10
1167.713498446551
 20
3724.670472689205
 30
0.0
 11
1167.679394664603
 21
3724.542714610498
 31
0.0
  0
LINE
  5
3AF
330
1F
100
AcDbEntity
  8
付属金具
  6
CONTINUOUS
 62
     6
100
AcDbLine
 10
1167.73468780642
 20
3724.801802894476
 30
0.0
 11
1167.713498446551
 21
3724.670472689205
 31
0.0
  0
LINE
  5
3B0
330
1F
100
AcDbEntity
  8
付属金具
  6
CONTINUOUS
 62
     6
100
AcDbLine
 10
1167.746470541944
 20
3724.935429263699
 30
0.0
 11
1167.73468780642
 21
3724.801802894476
 31
0.0
  0
LINE
  5
3B1
330
1F
100
AcDbEntity
  8
付属金具
  6
CONTINUOUS
 62
     6
100
AcDbLine
 10
1167.743884474242
 20
3725.069047174143
 30
0.0
 11
1167.746470541944
 21
3724.935429263699
 31
0.0
  0
LINE
  5
3B2
330
1F
100
AcDbEntity
  8
付属金具
  6
CONTINUOUS
 62
     6
100
AcDbLine
 10
1167.707954113006
 20
3725.341921959096
 30
0.0
 11
1167.743884474242
 21
3725.069047174143
 31
0.0
  0
LINE
  5
3B3
330
1F
100
AcDbEntity
  8
付属金具
  6
CONTINUOUS
 62
     6
100
AcDbLine
 10
1167.670582107011
 20
3725.476619037218
 30
0.0
 11
1167.707954113006
 21
3725.341921959096
 31
0.0
  0
LINE
  5
3B4
330
1F
100
AcDbEntity
  8
付属金具
  6
CONTINUOUS
 62
     6
100
AcDbLine
 10
1167.624226897063
 20
3725.60498305842
 30
0.0
 11
1167.670582107011
 21
3725.476619037218
 31
0.0
  0
LINE
  5
3B5
330
1F
100
AcDbEntity
  8
付属金具
  6
CONTINUOUS
 62
     6
100
AcDbLine
 10
1167.502280143945
 20
3725.847728271257
 30
0.0
 11
1167.624226897063
 21
3725.60498305842
 31
0.0
  0
LINE
  5
3B6
330
1F
100
AcDbEntity
  8
付属金具
  6
CONTINUOUS
 62
     6
100
AcDbLine
 10
1167.343759509865
 20
3726.059117120255
 30
0.0
 11
1167.502280143945
 21
3725.847728271257
 31
0.0
  0
LINE
  5
3B7
330
1F
100
AcDbEntity
  8
付属金具
  6
CONTINUOUS
 62
     6
100
AcDbLine
 10
1167.254733687703
 20
3726.156798164188
 30
0.0
 11
1167.343759509865
 21
3726.059117120255
 31
0.0
  0
LINE
  5
3B8
330
1F
100
AcDbEntity
  8
付属金具
  6
CONTINUOUS
 62
     6
100
AcDbLine
 10
1167.159509079079
 20
3726.240556505775
 30
0.0
 11
1167.254733687703
 21
3726.156798164188
 31
0.0
  0
LINE
  5
3B9
330
1F
100
AcDbEntity
  8
付属金具
  6
CONTINUOUS
 62
     6
100
AcDbLine
 10
1166.947294078275
 20
3726.382659069982
 30
0.0
 11
1167.159509079079
 21
3726.240556505775
 31
0.0
  0
LINE
  5
3BA
330
1F
100
AcDbEntity
  8
付属金具
  6
CONTINUOUS
 62
     6
100
AcDbLine
 10
1166.72006833288
 20
3726.481738837417
 30
0.0
 11
1166.947294078275
 21
3726.382659069982
 31
0.0
  0
LINE
  5
3BB
330
1F
100
AcDbEntity
  8
付属金具
  6
CONTINUOUS
 62
     6
100
AcDbLine
 10
1166.600810372364
 20
3726.516255174208
 30
0.0
 11
1166.72006833288
 21
3726.481738837417
 31
0.0
  0
LINE
  5
3BC
330
1F
100
AcDbEntity
  8
付属金具
  6
CONTINUOUS
 62
     6
100
AcDbLine
 10
1166.477238426144
 20
3726.53192753515
 30
0.0
 11
1166.600810372364
 21
3726.516255174208
 31
0.0
  0
LINE
  5
3BD
330
1F
100
AcDbEntity
  8
付属金具
  6
CONTINUOUS
 62
     6
100
AcDbLine
 10
1166.226749482733
 20
3726.527478954914
 30
0.0
 11
1166.477238426144
 21
3726.53192753515
 31
0.0
  0
LINE
  5
3BE
330
1F
100
AcDbEntity
  8
付属金具
  6
CONTINUOUS
 62
     6
100
AcDbLine
 10
1166.099269539759
 20
3726.501376762237
 30
0.0
 11
1166.226749482733
 21
3726.527478954914
 31
0.0
  0
LINE
  5
3BF
330
1F
100
AcDbEntity
  8
付属金具
  6
CONTINUOUS
 62
     6
100
AcDbLine
 10
1165.972383710365
 20
3726.458439311784
 30
0.0
 11
1166.099269539759
 21
3726.501376762237
 31
0.0
  0
LINE
  5
3C0
330
1F
100
AcDbEntity
  8
付属金具
  6
CONTINUOUS
 62
     6
100
AcDbLine
 10
1165.740583485568
 20
3726.337972585541
 30
0.0
 11
1165.972383710365
 21
3726.458439311784
 31
0.0
  0
LINE
  5
3C1
330
1F
100
AcDbEntity
  8
付属金具
  6
CONTINUOUS
 62
     6
100
AcDbLine
 10
1165.55142870444
 20
3726.17365345255
 30
0.0
 11
1165.740583485568
 21
3726.337972585541
 31
0.0
  0
LINE
  5
3C2
330
1F
100
AcDbEntity
  8
付属金具
  6
CONTINUOUS
 62
     6
100
AcDbLine
 10
1165.40712647282
 20
3725.974862949243
 30
0.0
 11
1165.55142870444
 21
3726.17365345255
 31
0.0
  0
LINE
  5
3C3
330
1F
100
AcDbEntity
  8
付属金具
  6
CONTINUOUS
 62
     6
100
AcDbLine
 10
1165.304592116923
 20
3725.749200138733
 30
0.0
 11
1165.40712647282
 21
3725.974862949243
 31
0.0
  0
LINE
  5
3C4
330
1F
100
AcDbEntity
  8
付属金具
  6
CONTINUOUS
 62
     6
100
AcDbLine
 10
1165.246943105556
 20
3725.503506485903
 30
0.0
 11
1165.304592116923
 21
3725.749200138733
 31
0.0
  0
LINE
  5
3C5
330
1F
100
AcDbEntity
  8
付属金具
  6
CONTINUOUS
 62
     6
100
AcDbLine
 10
1165.231424997375
 20
3725.245383142943
 30
0.0
 11
1165.246943105556
 21
3725.503506485903
 31
0.0
  0
LINE
  5
3C6
330
1F
100
AcDbEntity
  8
付属金具
  6
CONTINUOUS
 62
     6
100
AcDbLine
 10
1166.896235010307
 20
3727.239999446654
 30
0.0
 11
1164.757864067805
 21
3726.419155748263
 31
0.0
  0
LINE
  5
3C7
330
1F
100
AcDbEntity
  8
付属金具
  6
CONTINUOUS
 62
     6
100
AcDbLine
 10
1164.757864067805
 20
3726.419155748263
 30
0.0
 11
1164.546906233353
 21
3726.968719695905
 31
0.0
  0
LINE
  5
3C8
330
1F
100
AcDbEntity
  8
付属金具
  6
CONTINUOUS
 62
     6
100
AcDbLine
 10
1164.546906233353
 20
3726.968719695905
 30
0.0
 11
1165.463764165597
 21
3727.32066848133
 31
0.0
  0
LINE
  5
3C9
330
1F
100
AcDbEntity
  8
付属金具
  6
CONTINUOUS
 62
     6
100
AcDbLine
 10
1165.463764165597
 20
3727.32066848133
 30
0.0
 11
1165.077270633842
 21
3728.327518554482
 31
0.0
  0
LINE
  5
3CA
330
1F
100
AcDbEntity
  8
付属金具
  6
CONTINUOUS
 62
     6
100
AcDbLine
 10
1165.077270633842
 20
3728.327518554482
 30
0.0
 11
1164.160412701597
 21
3727.975569769057
 31
0.0
  0
LINE
  5
3CB
330
1F
100
AcDbEntity
  8
付属金具
  6
CONTINUOUS
 62
     6
100
AcDbLine
 10
1164.160412701597
 20
3727.975569769057
 30
0.0
 11
1163.9494534288
 21
3728.525137463717
 31
0.0
  0
LINE
  5
3CC
330
1F
100
AcDbEntity
  8
付属金具
  6
CONTINUOUS
 62
     6
100
AcDbLine
 10
1163.9494534288
 20
3728.525137463717
 30
0.0
 11
1166.087824371302
 21
3729.345981162108
 31
0.0
  0
LINE
  5
3CD
330
1F
100
AcDbEntity
  8
付属金具
  6
CONTINUOUS
 62
     6
100
AcDbLine
 10
1166.087824371302
 20
3729.345981162108
 30
0.0
 11
1166.298783644099
 21
3728.796413467448
 31
0.0
  0
LINE
  5
3CE
330
1F
100
AcDbEntity
  8
付属金具
  6
CONTINUOUS
 62
     6
100
AcDbLine
 10
1166.298783644099
 20
3728.796413467448
 30
0.0
 11
1165.529378379923
 21
3728.501066458164
 31
0.0
  0
LINE
  5
3CF
330
1F
100
AcDbEntity
  8
付属金具
  6
CONTINUOUS
 62
     6
100
AcDbLine
 10
1165.529378379923
 20
3728.501066458164
 30
0.0
 11
1165.915871911679
 21
3727.494216385012
 31
0.0
  0
LINE
  5
3D0
330
1F
100
AcDbEntity
  8
付属金具
  6
CONTINUOUS
 62
     6
100
AcDbLine
 10
1165.915871911679
 20
3727.494216385012
 30
0.0
 11
1166.685277175855
 21
3727.789563394296
 31
0.0
  0
LINE
  5
3D1
330
1F
100
AcDbEntity
  8
付属金具
  6
CONTINUOUS
 62
     6
100
AcDbLine
 10
1166.685277175855
 20
3727.789563394296
 30
0.0
 11
1166.896235010307
 21
3727.239999446654
 31
0.0
  0
LINE
  5
3D2
330
1F
100
AcDbEntity
  8
付属金具
  6
CONTINUOUS
 62
     6
100
AcDbLine
 10
1165.85965960841
 20
3729.940370690867
 30
0.0
 11
1163.721288665908
 21
3729.119526992476
 31
0.0
  0
LINE
  5
3D3
330
1F
100
AcDbEntity
  8
付属金具
  6
CONTINUOUS
 62
     6
100
AcDbLine
 10
1163.721288665908
 20
3729.119526992476
 30
0.0
 11
1163.105619214301
 21
3730.723400748321
 31
0.0
  0
LINE
  5
3D4
330
1F
100
AcDbEntity
  8
付属金具
  6
CONTINUOUS
 62
     6
100
AcDbLine
 10
1163.105619214301
 20
3730.723400748321
 30
0.0
 11
1163.55775693653
 21
3730.896960158768
 31
0.0
  0
LINE
  5
3D5
330
1F
100
AcDbEntity
  8
付属金具
  6
CONTINUOUS
 62
     6
100
AcDbLine
 10
1163.55775693653
 20
3730.896960158768
 30
0.0
 11
1163.961458835072
 21
3729.84528075748
 31
0.0
  0
LINE
  5
3D6
330
1F
100
AcDbEntity
  8
付属金具
  6
CONTINUOUS
 62
     6
100
AcDbLine
 10
1163.961458835072
 20
3729.84528075748
 30
0.0
 11
1164.426179045088
 21
3730.02367013246
 31
0.0
  0
LINE
  5
3D7
330
1F
100
AcDbEntity
  8
付属金具
  6
CONTINUOUS
 62
     6
100
AcDbLine
 10
1164.426179045088
 20
3730.02367013246
 30
0.0
 11
1164.123172845471
 21
3730.813028269614
 31
0.0
  0
LINE
  5
3D8
330
1F
100
AcDbEntity
  8
付属金具
  6
CONTINUOUS
 62
     6
100
AcDbLine
 10
1164.123172845471
 20
3730.813028269614
 30
0.0
 11
1164.575280591553
 21
3730.986576173296
 31
0.0
  0
LINE
  5
3D9
330
1F
100
AcDbEntity
  8
付属金具
  6
CONTINUOUS
 62
     6
100
AcDbLine
 10
1164.575280591553
 20
3730.986576173296
 30
0.0
 11
1164.878286791169
 21
3730.197218036141
 31
0.0
  0
LINE
  5
3DA
330
1F
100
AcDbEntity
  8
付属金具
  6
CONTINUOUS
 62
     6
100
AcDbLine
 10
1164.878286791169
 20
3730.197218036141
 30
0.0
 11
1165.230543990933
 21
3730.332436906213
 31
0.0
  0
LINE
  5
3DB
330
1F
100
AcDbEntity
  8
付属金具
  6
CONTINUOUS
 62
     6
100
AcDbLine
 10
1165.230543990933
 20
3730.332436906213
 30
0.0
 11
1164.873809829689
 21
3731.261761168674
 31
0.0
  0
LINE
  5
3DC
330
1F
100
AcDbEntity
  8
付属金具
  6
CONTINUOUS
 62
     6
100
AcDbLine
 10
1164.873809829689
 20
3731.261761168674
 30
0.0
 11
1165.290957894101
 21
3731.421889307886
 31
0.0
  0
LINE
  5
3DD
330
1F
100
AcDbEntity
  8
付属金具
  6
CONTINUOUS
 62
     6
100
AcDbLine
 10
1165.290957894101
 20
3731.421889307886
 30
0.0
 11
1165.85965960841
 21
3729.940370690867
 31
0.0
  0
LINE
  5
3DE
330
1F
100
AcDbEntity
  8
付属金具
  6
CONTINUOUS
 62
     6
100
AcDbLine
 10
1167.573798868629
 20
3722.286610194956
 30
0.0
 11
1166.197176238345
 21
3722.669619352109
 31
0.0
  0
LINE
  5
3DF
330
1F
100
AcDbEntity
  8
付属金具
  6
CONTINUOUS
 62
     6
100
AcDbLine
 10
1166.197176238345
 20
3722.669619352109
 30
0.0
 11
1165.918137191499
 21
3723.396540921668
 31
0.0
  0
LINE
  5
3E0
330
1F
100
AcDbEntity
  8
付属金具
  6
CONTINUOUS
 62
     6
100
AcDbLine
 10
1165.918137191499
 20
3723.396540921668
 30
0.0
 11
1167.055239109053
 21
3723.010413064709
 31
0.0
  0
LINE
  5
3E1
330
1F
100
AcDbEntity
  8
付属金具
  6
CONTINUOUS
 62
     6
100
AcDbLine
 10
1167.055239109053
 20
3723.010413064709
 30
0.0
 11
1167.087437799748
 21
3723.217735026126
 31
0.0
  0
LINE
  5
3E2
330
1F
100
AcDbEntity
  8
付属金具
  6
CONTINUOUS
 62
     6
100
AcDbLine
 10
1167.087437799748
 20
3723.217735026126
 30
0.0
 11
1167.167883676117
 21
3723.388999668814
 31
0.0
  0
LINE
  5
3E3
330
1F
100
AcDbEntity
  8
付属金具
  6
CONTINUOUS
 62
     6
100
AcDbLine
 10
1167.167883676117
 20
3723.388999668814
 30
0.0
 11
1167.300443704338
 21
3723.528838358015
 31
0.0
  0
LINE
  5
3E4
330
1F
100
AcDbEntity
  8
付属金具
  6
CONTINUOUS
 62
     6
100
AcDbLine
 10
1167.300443704338
 20
3723.528838358015
 30
0.0
 11
1167.477797768118
 21
3723.634178916353
 31
0.0
  0
LINE
  5
3E5
330
1F
100
AcDbEntity
  8
付属金具
  6
CONTINUOUS
 62
     6
100
AcDbLine
 10
1167.477797768118
 20
3723.634178916353
 30
0.0
 11
1167.623174970813
 21
3723.681325512823
 31
0.0
  0
LINE
  5
3E6
330
1F
100
AcDbEntity
  8
付属金具
  6
CONTINUOUS
 62
     6
100
AcDbLine
 10
1167.623174970813
 20
3723.681325512823
 30
0.0
 11
1167.769947851827
 21
3723.694765149796
 31
0.0
  0
LINE
  5
3E7
330
1F
100
AcDbEntity
  8
付属金具
  6
CONTINUOUS
 62
     6
100
AcDbLine
 10
1167.769947851827
 20
3723.694765149796
 30
0.0
 11
1167.914761865673
 21
3723.675699344336
 31
0.0
  0
LINE
  5
3E8
330
1F
100
AcDbEntity
  8
付属金具
  6
CONTINUOUS
 62
     6
100
AcDbLine
 10
1167.914761865673
 20
3723.675699344336
 30
0.0
 11
1168.053183432438
 21
3723.628599780445
 31
0.0
  0
LINE
  5
3E9
330
1F
100
AcDbEntity
  8
付属金具
  6
CONTINUOUS
 62
     6
100
AcDbLine
 10
1168.053183432438
 20
3723.628599780445
 30
0.0
 11
1168.180943401826
 21
3723.557330593723
 31
0.0
  0
LINE
  5
3EA
330
1F
100
AcDbEntity
  8
付属金具
  6
CONTINUOUS
 62
     6
100
AcDbLine
 10
1168.180943401826
 20
3723.557330593723
 30
0.0
 11
1168.291883771259
 21
3723.462288001177
 31
0.0
  0
LINE
  5
3EB
330
1F
100
AcDbEntity
  8
付属金具
  6
CONTINUOUS
 62
     6
100
AcDbLine
 10
1168.291883771259
 20
3723.462288001177
 30
0.0
 11
1168.38174026398
 21
3723.347737829906
 31
0.0
  0
LINE
  5
3EC
330
1F
100
AcDbEntity
  8
付属金具
  6
CONTINUOUS
 62
     6
100
AcDbLine
 10
1168.38174026398
 20
3723.347737829906
 30
0.0
 11
1168.443879056575
 21
3723.208248865683
 31
0.0
  0
LINE
  5
3ED
330
1F
100
AcDbEntity
  8
付属金具
  6
CONTINUOUS
 62
     6
100
AcDbLine
 10
1168.443879056575
 20
3723.208248865683
 30
0.0
 11
1168.881159133202
 21
3722.069095319853
 31
0.0
  0
LINE
  5
3EE
330
1F
100
AcDbEntity
  8
付属金具
  6
CONTINUOUS
 62
     6
100
AcDbLine
 10
1168.881159133202
 20
3722.069095319853
 30
0.0
 11
1166.7427881907
 21
3721.248251621462
 31
0.0
  0
LINE
  5
3EF
330
1F
100
AcDbEntity
  8
付属金具
  6
CONTINUOUS
 62
     6
100
AcDbLine
 10
1166.7427881907
 20
3721.248251621462
 30
0.0
 11
1166.529898658104
 21
3721.802847814814
 31
0.0
  0
LINE
  5
3F0
330
1F
100
AcDbEntity
  8
付属金具
  6
CONTINUOUS
 62
     6
100
AcDbLine
 10
1166.529898658104
 20
3721.802847814814
 30
0.0
 11
1168.251121536195
 21
3722.463563373993
 31
0.0
  0
LINE
  5
3F1
330
1F
100
AcDbEntity
  8
付属金具
  6
CONTINUOUS
 62
     6
100
AcDbLine
 10
1168.251121536195
 20
3722.463563373993
 30
0.0
 11
1168.101527840174
 21
3722.853268275645
 31
0.0
  0
LINE
  5
3F2
330
1F
100
AcDbEntity
  8
付属金具
  6
CONTINUOUS
 62
     6
100
AcDbLine
 10
1168.101527840174
 20
3722.853268275645
 30
0.0
 11
1168.02106335923
 21
3722.965649947299
 31
0.0
  0
LINE
  5
3F3
330
1F
100
AcDbEntity
  8
付属金具
  6
CONTINUOUS
 62
     6
100
AcDbLine
 10
1168.02106335923
 20
3722.965649947299
 30
0.0
 11
1167.911310009925
 21
3723.035301719132
 31
0.0
  0
LINE
  5
3F4
330
1F
100
AcDbEntity
  8
付属金具
  6
CONTINUOUS
 62
     6
100
AcDbLine
 10
1167.911310009925
 20
3723.035301719132
 30
0.0
 11
1167.783919256131
 21
3723.060922413924
 31
0.0
  0
LINE
  5
3F5
330
1F
100
AcDbEntity
  8
付属金具
  6
CONTINUOUS
 62
     6
100
AcDbLine
 10
1167.783919256131
 20
3723.060922413924
 30
0.0
 11
1167.648849667731
 21
3723.032035803757
 31
0.0
  0
LINE
  5
3F6
330
1F
100
AcDbEntity
  8
付属金具
  6
CONTINUOUS
 62
     6
100
AcDbLine
 10
1167.648849667731
 20
3723.032035803757
 30
0.0
 11
1167.541580841124
 21
3722.967897412096
 31
0.0
  0
LINE
  5
3F7
330
1F
100
AcDbEntity
  8
付属金具
  6
CONTINUOUS
 62
     6
100
AcDbLine
 10
1167.541580841124
 20
3722.967897412096
 30
0.0
 11
1167.467158947256
 21
3722.870581855205
 31
0.0
  0
LINE
  5
3F8
330
1F
100
AcDbEntity
  8
付属金具
  6
CONTINUOUS
 62
     6
100
AcDbLine
 10
1167.467158947256
 20
3722.870581855205
 30
0.0
 11
1167.434266294773
 21
3722.754698623129
 31
0.0
  0
LINE
  5
3F9
330
1F
100
AcDbEntity
  8
付属金具
  6
CONTINUOUS
 62
     6
100
AcDbLine
 10
1167.434266294773
 20
3722.754698623129
 30
0.0
 11
1167.442377230947
 21
3722.628975266145
 31
0.0
  0
LINE
  5
3FA
330
1F
100
AcDbEntity
  8
付属金具
  6
CONTINUOUS
 62
     6
100
AcDbLine
 10
1167.442377230947
 20
3722.628975266145
 30
0.0
 11
1167.573798868629
 21
3722.286610194956
 31
0.0
  0
LINE
  5
3FB
330
1F
100
AcDbEntity
  8
付属金具
  6
CONTINUOUS
 62
     6
100
AcDbLine
 10
1167.572406394772
 20
3720.274130511496
 30
0.0
 11
1167.591384391582
 21
3720.381654406122
 31
0.0
  0
LINE
  5
3FC
330
1F
100
AcDbEntity
  8
付属金具
  6
CONTINUOUS
 62
     6
100
AcDbLine
 10
1167.591384391582
 20
3720.381654406122
 30
0.0
 11
1168.213389445947
 21
3720.620419776103
 31
0.0
  0
LINE
  5
3FD
330
1F
100
AcDbEntity
  8
付属金具
  6
CONTINUOUS
 62
     6
100
AcDbLine
 10
1168.213389445947
 20
3720.620419776103
 30
0.0
 11
1167.998568215207
 21
3721.180048215167
 31
0.0
  0
LINE
  5
3FE
330
1F
100
AcDbEntity
  8
付属金具
  6
CONTINUOUS
 62
     6
100
AcDbLine
 10
1167.998568215207
 20
3721.180048215167
 30
0.0
 11
1167.166760106601
 21
3720.860746998222
 31
0.0
  0
LINE
  5
3FF
330
1F
100
AcDbEntity
  8
付属金具
  6
CONTINUOUS
 62
     6
100
AcDbLine
 10
1167.166760106601
 20
3720.860746998222
 30
0.0
 11
1167.121403493192
 21
3720.568079004774
 31
0.0
  0
LINE
  5
400
330
1F
100
AcDbEntity
  8
付属金具
  6
CONTINUOUS
 62
     6
100
AcDbLine
 10
1167.121403493192
 20
3720.568079004774
 30
0.0
 11
1167.136372701182
 21
3720.290171689386
 31
0.0
  0
LINE
  5
401
330
1F
100
AcDbEntity
  8
付属金具
  6
CONTINUOUS
 62
     6
100
AcDbLine
 10
1167.136372701182
 20
3720.290171689386
 30
0.0
 11
1167.188423953601
 21
3720.035028345932
 31
0.0
  0
LINE
  5
402
330
1F
100
AcDbEntity
  8
付属金具
  6
CONTINUOUS
 62
     6
100
AcDbLine
 10
1167.188423953601
 20
3720.035028345932
 30
0.0
 11
1167.255426056132
 21
3719.808448270454
 31
0.0
  0
LINE
  5
403
330
1F
100
AcDbEntity
  8
付属金具
  6
CONTINUOUS
 62
     6
100
AcDbLine
 10
1167.255426056132
 20
3719.808448270454
 30
0.0
 11
1167.366477458389
 21
3719.541448004377
 31
0.0
  0
LINE
  5
404
330
1F
100
AcDbEntity
  8
付属金具
  6
CONTINUOUS
 62
     6
100
AcDbLine
 10
1167.366477458389
 20
3719.541448004377
 30
0.0
 11
1167.512814985305
 21
3719.316852989972
 31
0.0
  0
LINE
  5
405
330
1F
100
AcDbEntity
  8
付属金具
  6
CONTINUOUS
 62
     6
100
AcDbLine
 10
1167.512814985305
 20
3719.316852989972
 30
0.0
 11
1167.691227348419
 21
3719.135928333817
 31
0.0
  0
LINE
  5
406
330
1F
100
AcDbEntity
  8
付属金具
  6
CONTINUOUS
 62
     6
100
AcDbLine
 10
1167.691227348419
 20
3719.135928333817
 30
0.0
 11
1167.895571789418
 21
3718.99946732707
 31
0.0
  0
LINE
  5
407
330
1F
100
AcDbEntity
  8
付属金具
  6
CONTINUOUS
 62
     6
100
AcDbLine
 10
1167.895571789418
 20
3718.99946732707
 30
0.0
 11
1168.120441665263
 21
3718.913782190784
 31
0.0
  0
LINE
  5
408
330
1F
100
AcDbEntity
  8
付属金具
  6
CONTINUOUS
 62
     6
100
AcDbLine
 10
1168.120441665263
 20
3718.913782190784
 30
0.0
 11
1168.239376999377
 21
3718.887800492479
 31
0.0
  0
LINE
  5
409
330
1F
100
AcDbEntity
  8
付属金具
  6
CONTINUOUS
 62
     6
100
AcDbLine
 10
1168.239376999377
 20
3718.887800492479
 30
0.0
 11
1168.358443045812
 21
3718.876172233819
 31
0.0
  0
LINE
  5
40A
330
1F
100
AcDbEntity
  8
付属金具
  6
CONTINUOUS
 62
     6
100
AcDbLine
 10
1168.358443045812
 20
3718.876172233819
 30
0.0
 11
1168.481266755878
 21
3718.877400643819
 31
0.0
  0
LINE
  5
40B
330
1F
100
AcDbEntity
  8
付属金具
  6
CONTINUOUS
 62
     6
100
AcDbLine
 10
1168.481266755878
 20
3718.877400643819
 30
0.0
 11
1168.602656575924
 21
3718.889621846173
 31
0.0
  0
LINE
  5
40C
330
1F
100
AcDbEntity
  8
付属金具
  6
CONTINUOUS
 62
     6
100
AcDbLine
 10
1168.602656575924
 20
3718.889621846173
 30
0.0
 11
1168.852014893366
 21
3718.956743606597
 31
0.0
  0
LINE
  5
40D
330
1F
100
AcDbEntity
  8
付属金具
  6
CONTINUOUS
 62
     6
100
AcDbLine
 10
1168.852014893366
 20
3718.956743606597
 30
0.0
 11
1168.97154776901
 21
3719.011153188145
 31
0.0
  0
LINE
  5
40E
330
1F
100
AcDbEntity
  8
付属金具
  6
CONTINUOUS
 62
     6
100
AcDbLine
 10
1168.97154776901
 20
3719.011153188145
 30
0.0
 11
1169.078816595617
 21
3719.075291579806
 31
0.0
  0
LINE
  5
40F
330
1F
100
AcDbEntity
  8
付属金具
  6
CONTINUOUS
 62
     6
100
AcDbLine
 10
1169.078816595617
 20
3719.075291579806
 30
0.0
 11
1169.176239262893
 21
3719.149949349755
 31
0.0
  0
LINE
  5
410
330
1F
100
AcDbEntity
  8
付属金具
  6
CONTINUOUS
 62
     6
100
AcDbLine
 10
1169.176239262893
 20
3719.149949349755
 30
0.0
 11
1169.263905699278
 21
3719.235161018288
 31
0.0
  0
LINE
  5
411
330
1F
100
AcDbEntity
  8
付属金具
  6
CONTINUOUS
 62
     6
100
AcDbLine
 10
1169.263905699278
 20
3719.235161018288
 30
0.0
 11
1169.342762675089
 21
3719.328538562048
 31
0.0
  0
LINE
  5
412
330
1F
100
AcDbEntity
  8
付属金具
  6
CONTINUOUS
 62
     6
100
AcDbLine
 10
1169.342762675089
 20
3719.328538562048
 30
0.0
 11
1169.407796304198
 21
3719.428024056901
 31
0.0
  0
LINE
  5
413
330
1F
100
AcDbEntity
  8
付属金具
  6
CONTINUOUS
 62
     6
100
AcDbLine
 10
1169.407796304198
 20
3719.428024056901
 30
0.0
 11
1169.463892698598
 21
3719.535493105513
 31
0.0
  0
LINE
  5
414
330
1F
100
AcDbEntity
  8
付属金具
  6
CONTINUOUS
 62
     6
100
AcDbLine
 10
1169.463892698598
 20
3719.535493105513
 30
0.0
 11
1169.509714385726
 21
3719.647676546691
 31
0.0
  0
LINE
  5
415
330
1F
100
AcDbEntity
  8
付属金具
  6
CONTINUOUS
 62
     6
100
AcDbLine
 10
1169.509714385726
 20
3719.647676546691
 30
0.0
 11
1169.569224277394
 21
3719.888444042962
 31
0.0
  0
LINE
  5
416
330
1F
100
AcDbEntity
  8
付属金具
  6
CONTINUOUS
 62
     6
100
AcDbLine
 10
1169.569224277394
 20
3719.888444042962
 30
0.0
 11
1169.582563817539
 21
3720.137201603272
 31
0.0
  0
LINE
  5
417
330
1F
100
AcDbEntity
  8
付属金具
  6
CONTINUOUS
 62
     6
100
AcDbLine
 10
1169.582563817539
 20
3720.137201603272
 30
0.0
 11
1169.573469391881
 21
3720.265565435593
 31
0.0
  0
LINE
  5
418
330
1F
100
AcDbEntity
  8
付属金具
  6
CONTINUOUS
 62
     6
100
AcDbLine
 10
1169.573469391881
 20
3720.265565435593
 30
0.0
 11
1169.55338849527
 21
3720.39246771042
 31
0.0
  0
LINE
  5
419
330
1F
100
AcDbEntity
  8
付属金具
  6
CONTINUOUS
 62
     6
100
AcDbLine
 10
1169.55338849527
 20
3720.39246771042
 30
0.0
 11
1169.518913317318
 21
3720.519618293485
 31
0.0
  0
LINE
  5
41A
330
1F
100
AcDbEntity
  8
付属金具
  6
CONTINUOUS
 62
     6
100
AcDbLine
 10
1169.518913317318
 20
3720.519618293485
 30
0.0
 11
1169.474448963819
 21
3720.643067664892
 31
0.0
  0
LINE
  5
41B
330
1F
100
AcDbEntity
  8
付属金具
  6
CONTINUOUS
 62
     6
100
AcDbLine
 10
1169.474448963819
 20
3720.643067664892
 30
0.0
 11
1169.36857494328
 21
3720.888964620134
 31
0.0
  0
LINE
  5
41C
330
1F
100
AcDbEntity
  8
付属金具
  6
CONTINUOUS
 62
     6
100
AcDbLine
 10
1169.36857494328
 20
3720.888964620134
 30
0.0
 11
1169.254178243356
 21
3721.09734731507
 31
0.0
  0
LINE
  5
41D
330
1F
100
AcDbEntity
  8
付属金具
  6
CONTINUOUS
 62
     6
100
AcDbLine
 10
1169.254178243356
 20
3721.09734731507
 30
0.0
 11
1169.188941022986
 21
3721.192616736512
 31
0.0
  0
LINE
  5
41E
330
1F
100
AcDbEntity
  8
付属金具
  6
CONTINUOUS
 62
     6
100
AcDbLine
 10
1169.188941022986
 20
3721.192616736512
 30
0.0
 11
1169.111194322031
 21
3721.283213192687
 31
0.0
  0
LINE
  5
41F
330
1F
100
AcDbEntity
  8
付属金具
  6
CONTINUOUS
 62
     6
100
AcDbLine
 10
1169.111194322031
 20
3721.283213192687
 30
0.0
 11
1169.02003682922
 21
3721.371417481764
 31
0.0
  0
LINE
  5
420
330
1F
100
AcDbEntity
  8
付属金具
  6
CONTINUOUS
 62
     6
100
AcDbLine
 10
1169.02003682922
 20
3721.371417481764
 30
0.0
 11
1168.912873674652
 21
3721.45636250094
 31
0.0
  0
LINE
  5
421
330
1F
100
AcDbEntity
  8
付属金具
  6
CONTINUOUS
 62
     6
100
AcDbLine
 10
1168.912873674652
 20
3721.45636250094
 30
0.0
 11
1168.500641698381
 21
3721.298121471158
 31
0.0
  0
LINE
  5
422
330
1F
100
AcDbEntity
  8
付属金具
  6
CONTINUOUS
 62
     6
100
AcDbLine
 10
1168.500641698381
 20
3721.298121471158
 30
0.0
 11
1168.562171272264
 21
3721.250108065244
 31
0.0
  0
LINE
  5
423
330
1F
100
AcDbEntity
  8
付属金具
  6
CONTINUOUS
 62
     6
100
AcDbLine
 10
1168.562171272264
 20
3721.250108065244
 30
0.0
 11
1168.709745097189
 21
3721.111923281487
 31
0.0
  0
LINE
  5
424
330
1F
100
AcDbEntity
  8
付属金具
  6
CONTINUOUS
 62
     6
100
AcDbLine
 10
1168.709745097189
 20
3721.111923281487
 30
0.0
 11
1168.798887076922
 21
3721.014286826268
 31
0.0
  0
LINE
  5
425
330
1F
100
AcDbEntity
  8
付属金具
  6
CONTINUOUS
 62
     6
100
AcDbLine
 10
1168.798887076922
 20
3721.014286826268
 30
0.0
 11
1168.8855868168
 21
3720.892751135959
 31
0.0
  0
LINE
  5
426
330
1F
100
AcDbEntity
  8
付属金具
  6
CONTINUOUS
 62
     6
100
AcDbLine
 10
1168.8855868168
 20
3720.892751135959
 30
0.0
 11
1168.966159339074
 21
3720.757453489588
 31
0.0
  0
LINE
  5
427
330
1F
100
AcDbEntity
  8
付属金具
  6
CONTINUOUS
 62
     6
100
AcDbLine
 10
1168.966159339074
 20
3720.757453489588
 30
0.0
 11
1169.034132510137
 21
3720.603011842387
 31
0.0
  0
LINE
  5
428
330
1F
100
AcDbEntity
  8
付属金具
  6
CONTINUOUS
 62
     6
100
AcDbLine
 10
1169.034132510137
 20
3720.603011842387
 30
0.0
 11
1169.076641056155
 21
3720.447329049347
 31
0.0
  0
LINE
  5
429
330
1F
100
AcDbEntity
  8
付属金具
  6
CONTINUOUS
 62
     6
100
AcDbLine
 10
1169.076641056155
 20
3720.447329049347
 30
0.0
 11
1169.091385251357
 21
3720.289642704582
 31
0.0
  0
LINE
  5
42A
330
1F
100
AcDbEntity
  8
付属金具
  6
CONTINUOUS
 62
     6
100
AcDbLine
 10
1169.091385251357
 20
3720.289642704582
 30
0.0
 11
1169.078700838549
 21
3720.135730767559
 31
0.0
  0
LINE
  5
42B
330
1F
100
AcDbEntity
  8
付属金具
  6
CONTINUOUS
 62
     6
100
AcDbLine
 10
1169.078700838549
 20
3720.135730767559
 30
0.0
 11
1169.036384570914
 21
3719.984747491063
 31
0.0
  0
LINE
  5
42C
330
1F
100
AcDbEntity
  8
付属金具
  6
CONTINUOUS
 62
     6
100
AcDbLine
 10
1169.036384570914
 20
3719.984747491063
 30
0.0
 11
1168.970389370044
 21
3719.850516899613
 31
0.0
  0
LINE
  5
42D
330
1F
100
AcDbEntity
  8
付属金具
  6
CONTINUOUS
 62
     6
100
AcDbLine
 10
1168.970389370044
 20
3719.850516899613
 30
0.0
 11
1168.879187160256
 21
3719.729571991053
 31
0.0
  0
LINE
  5
42E
330
1F
100
AcDbEntity
  8
付属金具
  6
CONTINUOUS
 62
     6
100
AcDbLine
 10
1168.879187160256
 20
3719.729571991053
 30
0.0
 11
1168.762573030376
 21
3719.630230342513
 31
0.0
  0
LINE
  5
42F
330
1F
100
AcDbEntity
  8
付属金具
  6
CONTINUOUS
 62
     6
100
AcDbLine
 10
1168.762573030376
 20
3719.630230342513
 30
0.0
 11
1168.622840411861
 21
3719.553763542272
 31
0.0
  0
LINE
  5
430
330
1F
100
AcDbEntity
  8
付属金具
  6
CONTINUOUS
 62
     6
100
AcDbLine
 10
1168.622840411861
 20
3719.553763542272
 30
0.0
 11
1168.479072280907
 21
3719.510119338577
 31
0.0
  0
LINE
  5
431
330
1F
100
AcDbEntity
  8
付属金具
  6
CONTINUOUS
 62
     6
100
AcDbLine
 10
1168.479072280907
 20
3719.510119338577
 30
0.0
 11
1168.333707060783
 21
3719.48567684083
 31
0.0
  0
LINE
  5
432
330
1F
100
AcDbEntity
  8
付属金具
  6
CONTINUOUS
 62
     6
100
AcDbLine
 10
1168.333707060783
 20
3719.48567684083
 30
0.0
 11
1168.190604104318
 21
3719.485322440638
 31
0.0
  0
LINE
  5
433
330
1F
100
AcDbEntity
  8
付属金具
  6
CONTINUOUS
 62
     6
100
AcDbLine
 10
1168.190604104318
 20
3719.485322440638
 30
0.0
 11
1168.052256855719
 21
3719.509493084702
 31
0.0
  0
LINE
  5
434
330
1F
100
AcDbEntity
  8
付属金具
  6
CONTINUOUS
 62
     6
100
AcDbLine
 10
1168.052256855719
 20
3719.509493084702
 30
0.0
 11
1167.926809605512
 21
3719.567480050829
 31
0.0
  0
LINE
  5
435
330
1F
100
AcDbEntity
  8
付属金具
  6
CONTINUOUS
 62
     6
100
AcDbLine
 10
1167.926809605512
 20
3719.567480050829
 30
0.0
 11
1167.814730362804
 21
3719.650537960574
 31
0.0
  0
LINE
  5
436
330
1F
100
AcDbEntity
  8
付属金具
  6
CONTINUOUS
 62
     6
100
AcDbLine
 10
1167.814730362804
 20
3719.650537960574
 30
0.0
 11
1167.720497302089
 21
3719.769052905523
 31
0.0
  0
LINE
  5
437
330
1F
100
AcDbEntity
  8
付属金具
  6
CONTINUOUS
 62
     6
100
AcDbLine
 10
1167.720497302089
 20
3719.769052905523
 30
0.0
 11
1167.647562583845
 21
3719.921714668482
 31
0.0
  0
LINE
  5
438
330
1F
100
AcDbEntity
  8
付属金具
  6
CONTINUOUS
 62
     6
100
AcDbLine
 10
1167.647562583845
 20
3719.921714668482
 30
0.0
 11
1167.570360527784
 21
3720.19016527001
 31
0.0
  0
LINE
  5
439
330
1F
100
AcDbEntity
  8
付属金具
  6
CONTINUOUS
 62
     6
100
AcDbLine
 10
1167.570360527784
 20
3720.19016527001
 30
0.0
 11
1167.572406394772
 21
3720.274130511496
 31
0.0
  0
ARC
  5
43A
330
1F
100
AcDbEntity
  8
付属金具
  6
CONTINUOUS
 62
     6
100
AcDbCircle
 10
1072.460564348967
 20
1745.703153681397
 30
0.0
 40
21.1632472224
100
AcDbArc
 50
51.57827500000038
 51
79.46529600000001
  0
POLYLINE
  5
43B
330
1F
100
AcDbEntity
  8
付属金具
  6
CONTINUOUS
 62
     6
100
AcDb2dPolyline
 66
     1
 10
0.0
 20
0.0
 30
0.0
 70
   128
  0
VERTEX
  5
43C
330
43B
100
AcDbEntity
  8
付属金具
  6
CONTINUOUS
 62
     6
100
AcDbVertex
100
AcDb2dVertex
 10
1076.329863993846
 20
1766.509670993368
 30
0.0
  0
VERTEX
  5
43D
330
43B
100
AcDbEntity
  8
付属金具
  6
CONTINUOUS
 62
     6
100
AcDbVertex
100
AcDb2dVertex
 10
1071.007732148661
 20
1767.257050867813
 30
0.0
  0
VERTEX
  5
43E
330
43B
100
AcDbEntity
  8
付属金具
  6
CONTINUOUS
 62
     6
100
AcDbVertex
100
AcDb2dVertex
 10
1061.809584653502
 20
1768.473668992526
 30
0.0
  0
VERTEX
  5
43F
330
43B
100
AcDbEntity
  8
付属金具
  6
CONTINUOUS
 62
     6
100
AcDbVertex
100
AcDb2dVertex
 10
1061.777226906883
 20
1768.479892416196
 30
0.0
  0
SEQEND
  5
440
330
43B
100
AcDbEntity
  8
付属金具
  6
CONTINUOUS
 62
     6
  0
ARC
  5
441
330
1F
100
AcDbEntity
  8
付属金具
  6
CONTINUOUS
 62
     6
100
AcDbCircle
 10
1054.244929214157
 20
1780.21891405251
 30
0.0
 40
0.4822460808
100
AcDbArc
 50
92.02718200000541
 51
183.6100750000146
  0
ARC
  5
442
330
1F
100
AcDbEntity
  8
付属金具
  6
CONTINUOUS
 62
     6
100
AcDbCircle
 10
1075.443423442272
 20
1786.432097298481
 30
0.0
 40
22.5620670944
100
AcDbArc
 50
196.0806189999998
 51
232.7195640000002
  0
LINE
  5
443
330
1F
100
AcDbEntity
  8
付属金具
  6
CONTINUOUS
 62
     6
100
AcDbLine
 10
1062.499627823295
 20
1766.644348338339
 30
0.0
 11
1061.736177507105
 21
1766.892409740451
 31
0.0
  0
LINE
  5
444
330
1F
100
AcDbEntity
  8
付属金具
  6
CONTINUOUS
 62
     6
100
AcDbLine
 10
1061.736177507105
 20
1766.892409740451
 30
0.0
 11
1062.227450483068
 21
1768.404430234887
 31
0.0
  0
LINE
  5
445
330
1F
100
AcDbEntity
  8
付属金具
  6
CONTINUOUS
 62
     6
100
AcDbLine
 10
1061.936385892883
 20
1764.910984276693
 30
0.0
 11
1062.499627823295
 21
1766.644348338339
 31
0.0
  0
LINE
  5
446
330
1F
100
AcDbEntity
  8
付属金具
  6
CONTINUOUS
 62
     6
100
AcDbLine
 10
1083.493987400594
 20
1759.822890472556
 30
0.0
 11
1082.930779660511
 21
1758.089467364166
 31
0.0
  0
LINE
  5
447
330
1F
100
AcDbEntity
  8
付属金具
  6
CONTINUOUS
 62
     6
100
AcDbLine
 10
1083.493987400594
 20
1759.822890472556
 30
0.0
 11
1084.257433565556
 21
1759.574832941527
 31
0.0
  0
LINE
  5
448
330
1F
100
AcDbEntity
  8
付属金具
  6
CONTINUOUS
 62
     6
100
AcDbLine
 10
1085.233651470986
 20
1762.579287574083
 30
0.0
 11
1084.257433565556
 21
1759.574832941527
 31
0.0
  0
LINE
  5
449
330
1F
100
AcDbEntity
  8
付属金具
  6
CONTINUOUS
 62
     6
100
AcDbLine
 10
1061.66788501566
 20
1764.084563445973
 30
0.0
 11
1061.936385892883
 21
1764.910984276693
 31
0.0
  0
LINE
  5
44A
330
1F
100
AcDbEntity
  8
付属金具
  6
CONTINUOUS
 62
     6
100
AcDbLine
 10
1082.325207741077
 20
1757.037529712165
 30
0.0
 11
1061.807993158905
 21
1763.704004022338
 31
0.0
  0
LINE
  5
44B
330
1F
100
AcDbEntity
  8
付属金具
  6
CONTINUOUS
 62
     6
100
AcDbLine
 10
1061.66788501566
 20
1764.084563445973
 30
0.0
 11
1061.614155998104
 21
1763.919254176362
 31
0.0
  0
LINE
  5
44C
330
1F
100
AcDbEntity
  8
付属金具
  6
CONTINUOUS
 62
     6
100
AcDbLine
 10
1061.807993158905
 20
1763.704004022338
 30
0.0
 11
1061.614155998104
 21
1763.919254176362
 31
0.0
  0
LINE
  5
44D
330
1F
100
AcDbEntity
  8
付属金具
  6
CONTINUOUS
 62
     6
100
AcDbLine
 10
1082.662246834121
 20
1757.26304140171
 30
0.0
 11
1082.608549905804
 21
1757.097733252679
 31
0.0
  0
LINE
  5
44E
330
1F
100
AcDbEntity
  8
付属金具
  6
CONTINUOUS
 62
     6
100
AcDbLine
 10
1082.608549905804
 20
1757.097733252679
 30
0.0
 11
1082.325207741077
 21
1757.037529712165
 31
0.0
  0
LINE
  5
44F
330
1F
100
AcDbEntity
  8
付属金具
  6
CONTINUOUS
 62
     6
100
AcDbLine
 10
1082.930779660511
 20
1758.089467364166
 30
0.0
 11
1082.662246834121
 21
1757.26304140171
 31
0.0
  0
LINE
  5
450
330
1F
100
AcDbEntity
  8
付属金具
  6
CONTINUOUS
 62
     6
100
AcDbLine
 10
1080.893798541669
 20
1757.502662001554
 30
0.0
 11
1080.83176671676
 21
1757.311753666685
 31
0.0
  0
ARC
  5
451
330
1F
100
AcDbEntity
  8
付属金具
  6
CONTINUOUS
 62
     6
100
AcDbCircle
 10
1080.640922700445
 20
1757.373783721601
 30
0.0
 40
0.2006759864
100
AcDbArc
 50
252.000149999999
 51
341.9997630000425
  0
LINE
  5
452
330
1F
100
AcDbEntity
  8
付属金具
  6
CONTINUOUS
 62
     6
100
AcDbLine
 10
1063.306254734579
 20
1762.795148004328
 30
0.0
 11
1080.578892785602
 21
1757.182935694131
 31
0.0
  0
LINE
  5
453
330
1F
100
AcDbEntity
  8
付属金具
  6
CONTINUOUS
 62
     6
100
AcDbLine
 10
1063.177404532711
 20
1763.04802482606
 30
0.0
 11
1063.239438458709
 21
1763.238872993603
 31
0.0
  0
ARC
  5
454
330
1F
100
AcDbEntity
  8
付属金具
  6
CONTINUOUS
 62
     6
100
AcDbCircle
 10
1063.368252560181
 20
1762.985994911217
 30
0.0
 40
0.2006759864
100
AcDbArc
 50
161.9997599999671
 51
251.9997609999571
  0
LINE
  5
455
330
1F
100
AcDbEntity
  8
付属金具
  6
CONTINUOUS
 62
     6
100
AcDbLine
 10
1082.930779660511
 20
1758.089467364166
 30
0.0
 11
1061.936385892883
 21
1764.910984276693
 31
0.0
  0
LINE
  5
456
330
1F
100
AcDbEntity
  8
付属金具
  6
CONTINUOUS
 62
     6
100
AcDbLine
 10
1162.02617859876
 20
1784.8161752584
 30
0.0
 11
1054.246052723201
 21
1780.7008463063
 31
0.0
  0
LINE
  5
457
330
1F
100
AcDbEntity
  8
付属金具
  6
CONTINUOUS
 62
     6
100
AcDbLine
 10
1085.61235620906
 20
1762.2836664559
 30
0.0
 11
1136.069706613928
 21
1757.208096792294
 31
0.0
  0
ARC
  5
458
330
1F
100
AcDbEntity
  8
付属金具
  6
CONTINUOUS
 62
     6
100
AcDbCircle
 10
1135.423479104738
 20
1751.729893218906
 30
0.0
 40
5.516187486400002
100
AcDbArc
 50
1.7087659999982
 51
85.23129400000019
  0
LINE
  5
459
330
1F
100
AcDbEntity
  8
付属金具
  6
CONTINUOUS
 62
     6
100
AcDbLine
 10
1162.026178598752
 20
1784.816175258432
 30
0.0
 11
1183.608246335606
 21
1785.569837671026
 31
0.0
  0
ARC
  5
45A
330
1F
100
AcDbEntity
  8
付属金具
  6
CONTINUOUS
 62
     6
100
AcDbCircle
 10
1183.624823600103
 20
1785.087651632107
 30
0.0
 40
0.4824387336
100
AcDbArc
 50
359.7118640000007
 51
91.96853800000575
  0
POLYLINE
  5
45B
330
1F
100
AcDbEntity
  8
付属金具
  6
CONTINUOUS
 62
     6
100
AcDb2dPolyline
 66
     1
 10
0.0
 20
0.0
 30
0.0
 70
   128
  0
VERTEX
  5
45C
330
45B
100
AcDbEntity
  8
付属金具
  6
CONTINUOUS
 62
     6
100
AcDbVertex
100
AcDb2dVertex
 10
1140.753830895983
 20
1754.530543711877
 30
0.0
  0
VERTEX
  5
45D
330
45B
100
AcDbEntity
  8
付属金具
  6
CONTINUOUS
 62
     6
100
AcDbVertex
100
AcDb2dVertex
 10
1140.790168516629
 20
1754.574463063031
 30
0.0
  0
VERTEX
  5
45E
330
45B
100
AcDbEntity
  8
付属金具
  6
CONTINUOUS
 62
     6
100
AcDbVertex
100
AcDb2dVertex
 10
1145.22255697289
 20
1760.116920407807
 30
0.0
  0
VERTEX
  5
45F
330
45B
100
AcDbEntity
  8
付属金具
  6
CONTINUOUS
 62
     6
100
AcDbVertex
100
AcDb2dVertex
 10
1149.762065504252
 20
1766.40080997937
 30
0.0
  0
VERTEX
  5
460
330
45B
100
AcDbEntity
  8
付属金具
  6
CONTINUOUS
 62
     6
100
AcDbVertex
100
AcDb2dVertex
 10
1155.529079519973
 20
1775.327248250205
 30
0.0
  0
VERTEX
  5
461
330
45B
100
AcDbEntity
  8
付属金具
  6
CONTINUOUS
 62
     6
100
AcDbVertex
100
AcDb2dVertex
 10
1157.829988586484
 20
1779.081697955903
 30
0.0
  0
VERTEX
  5
462
330
45B
100
AcDbEntity
  8
付属金具
  6
CONTINUOUS
 62
     6
100
AcDbVertex
100
AcDb2dVertex
 10
1159.859415052489
 20
1782.170670186183
 30
0.0
  0
VERTEX
  5
463
330
45B
100
AcDbEntity
  8
付属金具
  6
CONTINUOUS
 62
     6
100
AcDbVertex
100
AcDb2dVertex
 10
1160.76668976264
 20
1783.354480343701
 30
0.0
  0
VERTEX
  5
464
330
45B
100
AcDbEntity
  8
付属金具
  6
CONTINUOUS
 62
     6
100
AcDbVertex
100
AcDb2dVertex
 10
1161.769996204455
 20
1784.204661560184
 30
0.0
  0
SEQEND
  5
465
330
45B
100
AcDbEntity
  8
付属金具
  6
CONTINUOUS
 62
     6
  0
LINE
  5
466
330
1F
100
AcDbEntity
  8
付属金具
  6
CONTINUOUS
 62
     6
100
AcDbLine
 10
1184.106512599166
 20
1785.107536826064
 30
0.0
 11
1187.520690257518
 21
1698.891304348498
 31
0.0
  0
LINE
  5
467
330
1F
100
AcDbEntity
  8
付属金具
  6
CONTINUOUS
 62
     6
100
AcDbLine
 10
1142.339846557674
 20
1705.515656007781
 30
0.0
 11
1140.936987808571
 21
1751.902083894041
 31
0.0
  0
LINE
  5
468
330
1F
100
AcDbEntity
  8
付属金具
  6
CONTINUOUS
 62
     2
100
AcDbLine
 10
1141.787773423636
 20
1676.680191585164
 30
0.0
 11
1141.944821158797
 21
1672.182932863578
 31
0.0
  0
LINE
  5
469
330
1F
100
AcDbEntity
  8
付属金具
  6
CONTINUOUS
 62
     6
100
AcDbLine
 10
1142.983815722688
 20
1687.53101483806
 30
0.0
 11
1142.360802964769
 21
1705.371765972319
 31
0.0
  0
LINE
  5
46A
330
1F
100
AcDbEntity
  8
付属金具
  6
CONTINUOUS
 62
     6
100
AcDbLine
 10
1143.356747985478
 20
1691.985307402615
 30
0.0
 11
1143.059093668052
 21
1700.509011827178
 31
0.0
  0
ARC
  5
46B
330
1F
100
AcDbEntity
  8
付属金具
  6
CONTINUOUS
 62
     6
100
AcDbCircle
 10
1120.778224120096
 20
1699.862697138014
 30
0.0
 40
22.2902460344
100
AcDbArc
 50
1.661636999999598
 51
14.21368499999953
  0
ARC
  5
46C
330
1F
100
AcDbEntity
  8
付属金具
  6
CONTINUOUS
 62
     6
100
AcDbCircle
 10
1120.778224120096
 20
1699.862697138014
 30
0.0
 40
22.290250048
100
AcDbArc
 50
14.21368499999959
 51
14.6909919999999
  0
ARC
  5
46D
330
1F
100
AcDbEntity
  8
付属金具
  6
CONTINUOUS
 62
     6
100
AcDbCircle
 10
1120.880476996651
 20
1691.598922983207
 30
0.0
 40
22.4801455048
100
AcDbArc
 50
348.3543660000003
 51
0.9874700000003205
  0
ARC
  5
46E
330
1F
100
AcDbEntity
  8
付属金具
  6
CONTINUOUS
 62
     6
100
AcDbCircle
 10
1143.09780943684
 20
1687.067367135658
 30
0.0
 40
0.2001221096
100
AcDbArc
 50
156.7881740000505
 51
181.795458999946
  0
LINE
  5
46F
330
1F
100
AcDbEntity
  8
付属金具
  6
CONTINUOUS
 62
     6
100
AcDbLine
 10
1143.210406265864
 20
1676.729871017796
 30
0.0
 11
1142.897948060289
 21
1687.0611227591
 31
0.0
  0
LINE
  5
470
330
1F
100
AcDbEntity
  8
付属金具
  6
CONTINUOUS
 62
     6
100
AcDbLine
 10
1142.444516572306
 20
1672.20038261193
 30
0.0
 11
1142.521323251322
 21
1670.000927097811
 31
0.0
  0
LINE
  5
471
330
1F
100
AcDbEntity
  8
付属金具
  6
CONTINUOUS
 62
     2
100
AcDbLine
 10
1183.500000000651
 20
1678.136814634448
 30
0.0
 11
1141.787773423635
 21
1676.680191585164
 31
0.0
  0
LINE
  5
472
330
1F
100
AcDbEntity
  8
付属金具
  6
CONTINUOUS
 62
     2
100
AcDbLine
 10
1173.934061044849
 20
1673.300021735855
 30
0.0
 11
1141.944821158797
 21
1672.182932863578
 31
0.0
  0
LINE
  5
473
330
1F
100
AcDbEntity
  8
付属金具
  6
CONTINUOUS
 62
     2
100
AcDbLine
 10
1189.758533120552
 20
1678.355367426884
 30
0.0
 11
1188.500000000648
 21
1678.311418481906
 31
0.0
  0
LINE
  5
474
330
1F
100
AcDbEntity
  8
付属金具
  6
CONTINUOUS
 62
     2
100
AcDbLine
 10
1189.758533120552
 20
1678.355367426884
 30
0.0
 11
1189.882362251407
 21
1674.809365071922
 31
0.0
  0
LINE
  5
475
330
1F
100
AcDbEntity
  8
付属金具
  6
CONTINUOUS
 62
     6
100
AcDbLine
 10
2412.594841671899
 20
1785.56982856625
 30
0.0
 11
2410.9166712263
 21
1785.56982856625
 31
0.0
  0
LINE
  5
476
330
1F
100
AcDbEntity
  8
付属金具
  6
CONTINUOUS
 62
     6
100
AcDbLine
 10
2410.9166712263
 20
1785.56982856625
 30
0.0
 11
2408.901173755099
 21
1785.56982856625
 31
0.0
  0
LINE
  5
477
330
1F
100
AcDbEntity
  8
付属金具
  6
CONTINUOUS
 62
     6
100
AcDbLine
 10
2408.901173755099
 20
1785.56982856625
 30
0.0
 11
2406.212069782299
 21
1785.56982856625
 31
0.0
  0
LINE
  5
478
330
1F
100
AcDbEntity
  8
付属金具
  6
CONTINUOUS
 62
     6
100
AcDbLine
 10
2406.212069782299
 20
1785.56982856625
 30
0.0
 11
2402.942386528699
 21
1785.56982856625
 31
0.0
  0
LINE
  5
479
330
1F
100
AcDbEntity
  8
付属金具
  6
CONTINUOUS
 62
     6
100
AcDbLine
 10
2402.942386528699
 20
1785.56982856625
 30
0.0
 11
2399.221771301499
 21
1785.56982856625
 31
0.0
  0
LINE
  5
47A
330
1F
100
AcDbEntity
  8
付属金具
  6
CONTINUOUS
 62
     6
100
AcDbLine
 10
2399.221771301499
 20
1785.56982856625
 30
0.0
 11
2395.189427789499
 21
1785.56982856625
 31
0.0
  0
LINE
  5
47B
330
1F
100
AcDbEntity
  8
付属金具
  6
CONTINUOUS
 62
     6
100
AcDbLine
 10
2395.189427789499
 20
1785.56982856625
 30
0.0
 11
2391.000000000699
 21
1785.56982856625
 31
0.0
  0
LINE
  5
47C
330
1F
100
AcDbEntity
  8
付属金具
  6
CONTINUOUS
 62
     6
100
AcDbLine
 10
2391.000000000699
 20
1785.56982856625
 30
0.0
 11
2386.811370918299
 21
1785.56982856625
 31
0.0
  0
LINE
  5
47D
330
1F
100
AcDbEntity
  8
付属金具
  6
CONTINUOUS
 62
     6
100
AcDbLine
 10
2386.811370918299
 20
1785.56982856625
 30
0.0
 11
2382.780745227099
 21
1785.56982856625
 31
0.0
  0
LINE
  5
47E
330
1F
100
AcDbEntity
  8
付属金具
  6
CONTINUOUS
 62
     6
100
AcDbLine
 10
2382.780745227099
 20
1785.56982856625
 30
0.0
 11
2379.061723399099
 21
1785.56982856625
 31
0.0
  0
ARC
  5
47F
330
1F
100
AcDbEntity
  8
付属金具
  6
CONTINUOUS
 62
     6
100
AcDbCircle
 10
2412.595150719099
 20
1785.08846146385
 30
0.0
 40
0.4813430208
100
AcDbArc
 50
359.9656079999983
 51
90.03440100003822
  0
LINE
  5
480
330
1F
100
AcDbEntity
  8
付属金具
  6
CONTINUOUS
 62
     6
100
AcDbLine
 10
2413.079395572699
 20
1785.06873863345
 30
0.0
 11
2413.0771921063
 21
1785.08821663425
 31
0.0
  0
LINE
  5
481
330
1F
100
AcDbEntity
  8
付属金具
  6
CONTINUOUS
 62
     6
100
AcDbLine
 10
2413.080864550299
 20
1785.06830917825
 30
0.0
 11
2413.078966117499
 21
1785.01000762465
 31
0.0
  0
ARC
  5
482
330
1F
100
AcDbEntity
  8
付属金具
  6
CONTINUOUS
 62
     6
100
AcDbCircle
 10
2380.280697868699
 20
1156.80765704465
 30
0.0
 40
628.3742410272
100
AcDbArc
 50
91.03271500000001
 51
91.03552199999999
  0
LINE
  5
483
330
1F
100
AcDbEntity
  8
付属金具
  6
CONTINUOUS
 62
     6
100
AcDbLine
 10
2379.061723399099
 20
1785.56982856625
 30
0.0
 11
2375.793324497499
 21
1785.56982856625
 31
0.0
  0
LINE
  5
484
330
1F
100
AcDbEntity
  8
付属金具
  6
CONTINUOUS
 62
     6
100
AcDbLine
 10
2375.793324497499
 20
1785.56982856625
 30
0.0
 11
2373.1035462399
 21
1785.56982856625
 31
0.0
  0
LINE
  5
485
330
1F
100
AcDbEntity
  8
付属金具
  6
CONTINUOUS
 62
     6
100
AcDbLine
 10
2373.1035462399
 20
1785.56982856625
 30
0.0
 11
2371.090376656699
 21
1785.56982856625
 31
0.0
  0
LINE
  5
486
330
1F
100
AcDbEntity
  8
付属金具
  6
CONTINUOUS
 62
     6
100
AcDbLine
 10
2371.090376656699
 20
1785.56982856625
 30
0.0
 11
2369.838269919099
 21
1785.56982856625
 31
0.0
  0
LINE
  5
487
330
1F
100
AcDbEntity
  8
付属金具
  6
CONTINUOUS
 62
     6
100
AcDbLine
 10
2369.838269919099
 20
1785.56982856625
 30
0.0
 11
2369.408529753499
 21
1785.56964394065
 31
0.0
  0
ARC
  5
488
330
1F
100
AcDbEntity
  8
付属金具
  6
CONTINUOUS
 62
     6
100
AcDbCircle
 10
2369.4047930919
 20
1785.08931636065
 30
0.0
 40
0.4803034984
100
AcDbArc
 50
89.82380599999439
 51
169.1774940000228
  0
LINE
  5
489
330
1F
100
AcDbEntity
  8
付属金具
  6
CONTINUOUS
 62
     6
100
AcDbLine
 10
2368.926917821499
 20
1785.08821663425
 30
0.0
 11
2368.924465511899
 21
1785.06873863345
 31
0.0
  0
ARC
  5
48A
330
1F
100
AcDbEntity
  8
付属金具
  6
CONTINUOUS
 62
     6
100
AcDbCircle
 10
2369.090311477499
 20
1785.15062008705
 30
0.0
 40
0.1596569944
100
AcDbArc
 50
169.627647000052
 51
188.5674440000288
  0
LINE
  5
48B
330
1F
100
AcDbEntity
  8
付属金具
  6
CONTINUOUS
 62
     6
100
AcDbLine
 10
2368.924345103899
 20
1785.01166122785
 30
0.0
 11
2368.922446671099
 21
1785.06830917825
 31
0.0
  0
ARC
  5
48C
330
1F
100
AcDbEntity
  8
付属金具
  6
CONTINUOUS
 62
     6
100
AcDbCircle
 10
2334.898741425898
 20
1780.21891405246
 30
0.0
 40
0.4822460808
100
AcDbArc
 50
92.02718200000541
 51
183.6100750000146
  0
ARC
  5
48D
330
1F
100
AcDbEntity
  8
付属金具
  6
CONTINUOUS
 62
     6
100
AcDbCircle
 10
2356.097235654013
 20
1786.432097298431
 30
0.0
 40
22.5620670944
100
AcDbArc
 50
196.0806189999998
 51
232.7195640000002
  0
LINE
  5
48E
330
1F
100
AcDbEntity
  8
付属金具
  6
CONTINUOUS
 62
     6
100
AcDbLine
 10
2343.993539262135
 20
1766.644348338289
 30
0.0
 11
2343.230088945945
 21
1766.892409740401
 31
0.0
  0
LINE
  5
48F
330
1F
100
AcDbEntity
  8
付属金具
  6
CONTINUOUS
 62
     6
100
AcDbLine
 10
2343.230088945945
 20
1766.892409740401
 30
0.0
 11
2343.721361921909
 21
1768.404430234837
 31
0.0
  0
LINE
  5
490
330
1F
100
AcDbEntity
  8
付属金具
  6
CONTINUOUS
 62
     6
100
AcDbLine
 10
2343.430297331723
 20
1764.910984276643
 30
0.0
 11
2343.993539262135
 21
1766.644348338289
 31
0.0
  0
LINE
  5
491
330
1F
100
AcDbEntity
  8
付属金具
  6
CONTINUOUS
 62
     6
100
AcDbLine
 10
2364.987898839434
 20
1759.822890472506
 30
0.0
 11
2364.424691099352
 21
1758.089467364116
 31
0.0
  0
LINE
  5
492
330
1F
100
AcDbEntity
  8
付属金具
  6
CONTINUOUS
 62
     6
100
AcDbLine
 10
2364.987898839434
 20
1759.822890472506
 30
0.0
 11
2365.751345004397
 21
1759.574832941477
 31
0.0
  0
LINE
  5
493
330
1F
100
AcDbEntity
  8
付属金具
  6
CONTINUOUS
 62
     6
100
AcDbLine
 10
2366.727562909826
 20
1762.579287574033
 30
0.0
 11
2365.751345004397
 21
1759.574832941477
 31
0.0
  0
LINE
  5
494
330
1F
100
AcDbEntity
  8
付属金具
  6
CONTINUOUS
 62
     6
100
AcDbLine
 10
2343.1617964545
 20
1764.084563445923
 30
0.0
 11
2343.430297331723
 21
1764.910984276643
 31
0.0
  0
LINE
  5
495
330
1F
100
AcDbEntity
  8
付属金具
  6
CONTINUOUS
 62
     6
100
AcDbLine
 10
2363.819119179917
 20
1757.037529712115
 30
0.0
 11
2343.301904597746
 21
1763.704004022288
 31
0.0
  0
LINE
  5
496
330
1F
100
AcDbEntity
  8
付属金具
  6
CONTINUOUS
 62
     6
100
AcDbLine
 10
2343.1617964545
 20
1764.084563445923
 30
0.0
 11
2343.108067436944
 21
1763.919254176312
 31
0.0
  0
LINE
  5
497
330
1F
100
AcDbEntity
  8
付属金具
  6
CONTINUOUS
 62
     6
100
AcDbLine
 10
2343.301904597746
 20
1763.704004022288
 30
0.0
 11
2343.108067436944
 21
1763.919254176312
 31
0.0
  0
LINE
  5
498
330
1F
100
AcDbEntity
  8
付属金具
  6
CONTINUOUS
 62
     6
100
AcDbLine
 10
2364.156158272961
 20
1757.26304140166
 30
0.0
 11
2364.102461344645
 21
1757.097733252629
 31
0.0
  0
LINE
  5
499
330
1F
100
AcDbEntity
  8
付属金具
  6
CONTINUOUS
 62
     6
100
AcDbLine
 10
2364.102461344645
 20
1757.097733252629
 30
0.0
 11
2363.819119179917
 21
1757.037529712115
 31
0.0
  0
LINE
  5
49A
330
1F
100
AcDbEntity
  8
付属金具
  6
CONTINUOUS
 62
     6
100
AcDbLine
 10
2364.424691099352
 20
1758.089467364116
 30
0.0
 11
2364.156158272961
 21
1757.26304140166
 31
0.0
  0
LINE
  5
49B
330
1F
100
AcDbEntity
  8
付属金具
  6
CONTINUOUS
 62
     6
100
AcDbLine
 10
2362.387709980509
 20
1757.502662001504
 30
0.0
 11
2362.325678155601
 21
1757.311753666635
 31
0.0
  0
ARC
  5
49C
330
1F
100
AcDbEntity
  8
付属金具
  6
CONTINUOUS
 62
     6
100
AcDbCircle
 10
2362.134834139285
 20
1757.373783721551
 30
0.0
 40
0.2006759864
100
AcDbArc
 50
252.000149999999
 51
341.9997630000425
  0
LINE
  5
49D
330
1F
100
AcDbEntity
  8
付属金具
  6
CONTINUOUS
 62
     6
100
AcDbLine
 10
2344.800166173419
 20
1762.795148004278
 30
0.0
 11
2362.072804224442
 21
1757.182935694081
 31
0.0
  0
LINE
  5
49E
330
1F
100
AcDbEntity
  8
付属金具
  6
CONTINUOUS
 62
     6
100
AcDbLine
 10
2344.671315971552
 20
1763.04802482601
 30
0.0
 11
2344.73334989755
 21
1763.238872993553
 31
0.0
  0
ARC
  5
49F
330
1F
100
AcDbEntity
  8
付属金具
  6
CONTINUOUS
 62
     6
100
AcDbCircle
 10
2344.862163999022
 20
1762.985994911167
 30
0.0
 40
0.2006759864
100
AcDbArc
 50
161.9997599999671
 51
251.9997609999571
  0
LINE
  5
4A0
330
1F
100
AcDbEntity
  8
付属金具
  6
CONTINUOUS
 62
     6
100
AcDbLine
 10
2364.424691099352
 20
1758.089467364116
 30
0.0
 11
2343.430297331723
 21
1764.910984276643
 31
0.0
  0
LINE
  5
4A1
330
1F
100
AcDbEntity
  8
付属金具
  6
CONTINUOUS
 62
     6
100
AcDbLine
 10
2369.4047930919
 20
1785.56982856625
 30
0.0
 11
2334.8998649349
 21
1780.70084630625
 31
0.0
  0
ARC
  5
4A2
330
1F
100
AcDbEntity
  8
付属金具
  6
CONTINUOUS
 62
     6
100
AcDbCircle
 10
2342.802358703233
 20
1752.466547271939
 30
0.0
 40
25.97346992771782
100
AcDbArc
 50
358.7377372410678
 51
22.90985252450768
  0
ARC
  5
4A3
330
1F
100
AcDbEntity
  8
付属金具
  6
CONTINUOUS
 62
     6
100
AcDbCircle
 10
2353.954475787808
 20
1745.703153681347
 30
0.0
 40
21.1632472224
100
AcDbArc
 50
52.87730075197252
 51
79.46529600000001
  0
ARC
  5
4A4
330
1F
100
AcDbEntity
  8
付属金具
  6
CONTINUOUS
 62
     6
100
AcDbCircle
 10
2514.256590574914
 20
3049.791430815841
 30
0.0
 40
1292.781217568201
100
AcDbArc
 50
262.3621273235812
 51
263.0499002980532
  0
LINE
  5
4A5
330
1F
100
AcDbEntity
  8
付属金具
  6
CONTINUOUS
 62
     6
100
AcDbLine
 10
2368.431263887836
 20
1679.499999999928
 30
0.0
 11
2368.924529729499
 21
1785.06812856625
 31
0.0
  0
LINE
  5
4A6
330
1F
100
AcDbEntity
  8
付属金具
  6
CONTINUOUS
 62
     6
100
AcDbLine
 10
2413.078721287899
 20
1785.09042010065
 30
0.0
 11
2413.572170780988
 21
1679.499999999928
 31
0.0
  0
DIMENSION
  5
4A8
330
1F
100
AcDbEntity
  8
寸法
  6
CONTINUOUS
 62
     3
100
AcDbDimension
  2
*D15
 10
1381.000000000709
 20
3825.0
 30
0.0
 11
1345.750000090116
 21
3674.999999999998
 31
0.0
 70
   160
  3
ISO-25
100
AcDbAlignedDimension
 13
1256.000000000658
 23
3525.0
 33
0.0
 14
1261.000000000658
 24
3825.0
 34
0.0
 50
90.0
100
AcDbRotatedDimension
1001
ACAD
1000
DSTYLE
1002
{
1070
   270
1070
     2
1070
     6
1000
EX_NORM
1070
     7
1000
EX_NORM
1070
    41
1040
44.99999618530273
1070
    42
1040
10.49999982118607
1070
    44
1040
15.0
1070
    73
1070
     0
1070
    74
1070
     0
1070
    75
1070
     0
1070
    76
1070
     1
1070
    77
1070
     1
1070
    78
1070
     0
1070
   140
1040
59.99999618530273
1070
   147
1040
0.0
1070
   173
1070
     1
1070
   176
1070
     3
1070
   177
1070
     3
1070
   178
1070
     2
1070
   271
1070
     0
1070
   277
1070
     2
1070
   279
1070
     2
1070
   280
1070
     0
1070
   287
1070
     5
1070
   340
1005
4A7
1002
}
  0
DIMENSION
  5
4B5
330
1F
100
AcDbEntity
  8
寸法
  6
CONTINUOUS
 62
     3
100
AcDbDimension
  2
*D16
 10
1471.000000000709
 20
3825.0
 30
0.0
 11
1435.750000090116
 21
3639.999999999998
 31
0.0
 70
   160
  3
ISO-25
100
AcDbAlignedDimension
 13
961.0000000006603
 23
3455.0
 33
0.0
 14
1261.000000000658
 24
3825.0
 34
0.0
 50
90.0
100
AcDbRotatedDimension
1001
ACAD
1000
DSTYLE
1002
{
1070
   270
1070
     2
1070
     6
1000
EX_NORM
1070
     7
1000
EX_NORM
1070
    41
1040
44.99999618530273
1070
    42
1040
10.49999982118607
1070
    44
1040
15.0
1070
    73
1070
     0
1070
    74
1070
     0
1070
    75
1070
     0
1070
    76
1070
     1
1070
    77
1070
     1
1070
    78
1070
     0
1070
   140
1040
59.99999618530273
1070
   147
1040
0.0
1070
   173
1070
     1
1070
   176
1070
     3
1070
   177
1070
     3
1070
   178
1070
     2
1070
   271
1070
     0
1070
   277
1070
     2
1070
   279
1070
     2
1070
   280
1070
     0
1070
   287
1070
     5
1070
   340
1005
4A7
1002
}
  0
DIMENSION
  5
4C1
330
1F
100
AcDbEntity
  8
寸法
  6
CONTINUOUS
 62
     3
100
AcDbDimension
  2
*D17
 10
1261.000000000658
 20
3334.999999999949
 30
0.0
 11
961.0000000006596
 21
3370.249999910542
 31
0.0
 70
   160
  3
ISO-25
100
AcDbAlignedDimension
 13
661.0000000006603
 23
3530.0
 33
0.0
 14
1261.000000000658
 24
3530.0
 34
0.0
100
AcDbRotatedDimension
1001
ACAD
1000
DSTYLE
1002
{
1070
   270
1070
     2
1070
     6
1000
EX_NORM
1070
     7
1000
EX_NORM
1070
    41
1040
44.99999618530273
1070
    42
1040
10.49999982118607
1070
    44
1040
15.0
1070
    73
1070
     0
1070
    74
1070
     0
1070
    75
1070
     0
1070
    76
1070
     0
1070
    77
1070
     1
1070
    78
1070
     0
1070
   140
1040
59.99999618530273
1070
   147
1040
0.0
1070
   173
1070
     1
1070
   176
1070
     3
1070
   177
1070
     3
1070
   178
1070
     2
1070
   271
1070
     0
1070
   277
1070
     2
1070
   279
1070
     2
1070
   280
1070
     0
1070
   287
1070
     5
1070
   340
1005
4A7
1002
}
  0
DIMENSION
  5
4CE
330
1F
100
AcDbEntity
  8
寸法
  6
CONTINUOUS
 62
     3
100
AcDbDimension
  2
*D18
 10
996.0000000006603
 20
3915.0
 30
0.0
 11
751.0000000006604
 21
3950.249999910593
 31
0.0
 70
   160
  1
35（壁排水）
  3
ISO-25
100
AcDbAlignedDimension
 13
961.0000000006603
 23
3825.0
 33
0.0
 14
996.0000000006603
 24
3875.0
 34
0.0
100
AcDbRotatedDimension
1001
ACAD
1000
DSTYLE
1002
{
1070
   270
1070
     2
1070
     6
1000
EX_NORM
1070
     7
1000
EX_NORM
1070
    41
1040
44.99999618530273
1070
    42
1040
10.49999982118607
1070
    44
1040
15.0
1070
    73
1070
     0
1070
    74
1070
     0
1070
    75
1070
     1
1070
    76
1070
     0
1070
    77
1070
     1
1070
    78
1070
     0
1070
   140
1040
59.99999618530273
1070
   147
1040
0.0
1070
   173
1070
     1
1070
   176
1070
     3
1070
   177
1070
     3
1070
   178
1070
     2
1070
   271
1070
     0
1070
   277
1070
     2
1070
   279
1070
     2
1070
   280
1070
     1
1070
   287
1070
     5
1070
   340
1005
4A7
1002
}
  0
DIMENSION
  5
4DC
330
1F
100
AcDbEntity
  8
寸法
  6
CONTINUOUS
 62
     3
100
AcDbDimension
  2
*D19
 10
1381.000000000658
 20
1669.5
 30
0.0
 11
1345.750000090065
 21
1294.499999999998
 31
0.0
 70
   160
  3
ISO-25
100
AcDbAlignedDimension
 13
1244.500000000658
 23
919.4999999999991
 33
0.0
 14
961.0000000006603
 24
1669.5
 34
0.0
 50
90.0
100
AcDbRotatedDimension
1001
ACAD
1000
DSTYLE
1002
{
1070
   270
1070
     2
1070
     6
1000
EX_NORM
1070
     7
1000
EX_NORM
1070
    41
1040
44.99999618530273
1070
    42
1040
10.49999982118607
1070
    44
1040
15.0
1070
    73
1070
     0
1070
    74
1070
     0
1070
    75
1070
     1
1070
    76
1070
     0
1070
    77
1070
     1
1070
    78
1070
     0
1070
   140
1040
59.99999618530273
1070
   147
1040
0.0
1070
   173
1070
     1
1070
   176
1070
     3
1070
   177
1070
     3
1070
   178
1070
     2
1070
   271
1070
     0
1070
   277
1070
     2
1070
   279
1070
     2
1070
   280
1070
     0
1070
   287
1070
     5
1070
   340
1005
4A7
1002
}
  0
DIMENSION
  5
4E8
330
1F
100
AcDbEntity
  8
寸法
  6
CONTINUOUS
 62
     3
100
AcDbDimension
  2
*D20
 10
1471.000000000658
 20
1704.5
 30
0.0
 11
1435.750000090065
 21
1311.999999999998
 31
0.0
 70
   160
  3
ISO-25
100
AcDbAlignedDimension
 13
1244.500000000658
 23
919.4999999999991
 33
0.0
 14
1255.814877125658
 24
1704.5
 34
0.0
 50
90.0
100
AcDbRotatedDimension
1001
ACAD
1000
DSTYLE
1002
{
1070
   270
1070
     2
1070
     6
1000
EX_NORM
1070
     7
1000
EX_NORM
1070
    41
1040
44.99999618530273
1070
    42
1040
10.49999982118607
1070
    44
1040
15.0
1070
    73
1070
     0
1070
    74
1070
     0
1070
    75
1070
     1
1070
    76
1070
     0
1070
    77
1070
     1
1070
    78
1070
     0
1070
   140
1040
59.99999618530273
1070
   147
1040
0.0
1070
   173
1070
     1
1070
   176
1070
     3
1070
   177
1070
     3
1070
   178
1070
     2
1070
   271
1070
     0
1070
   277
1070
     2
1070
   279
1070
     2
1070
   280
1070
     0
1070
   287
1070
     5
1070
   340
1005
4A7
1002
}
  0
DIMENSION
  5
4F4
330
1F
100
AcDbEntity
  8
寸法
  6
CONTINUOUS
 62
     3
100
AcDbDimension
  2
*D21
 10
2491.00000000066
 20
709.5
 30
0.0
 11
2701.00000000066
 21
744.749999910593
 31
0.0
 70
   160
  1
85（床給水）
  3
ISO-25
100
AcDbAlignedDimension
 13
2406.00000000066
 23
869.5
 33
0.0
 14
2491.00000000066
 24
919.4999999999991
 34
0.0
100
AcDbRotatedDimension
1001
ACAD
1000
DSTYLE
1002
{
1070
   270
1070
     2
1070
     6
1000
EX_NORM
1070
     7
1000
EX_NORM
1070
    41
1040
44.99999618530273
1070
    42
1040
0.0
1070
    44
1040
0.0
1070
    73
1070
     0
1070
    74
1070
     0
1070
    75
1070
     1
1070
    76
1070
     1
1070
    77
1070
     1
1070
    78
1070
     0
1070
   140
1040
59.99999618530273
1070
   147
1040
0.0
1070
   173
1070
     1
1070
   176
1070
     3
1070
   177
1070
     3
1070
   178
1070
     2
1070
   271
1070
     0
1070
   277
1070
     2
1070
   279
1070
     2
1070
   280
1070
     2
1070
   287
1070
     5
1070
   340
1005
4A7
1002
}
  0
DIMENSION
  5
501
330
1F
100
AcDbEntity
  8
寸法
  6
CONTINUOUS
 62
     3
100
AcDbDimension
  2
*D22
 10
2491.00000000066
 20
619.5
 30
0.0
 11
2701.00000000066
 21
654.749999910593
 31
0.0
 70
   160
  1
85（床排水）
  3
ISO-25
100
AcDbAlignedDimension
 13
2406.00000000066
 23
869.5
 33
0.0
 14
2491.00000000066
 24
919.4999999999991
 34
0.0
100
AcDbRotatedDimension
1001
ACAD
1000
DSTYLE
1002
{
1070
   270
1070
     2
1070
     6
1000
EX_NORM
1070
     7
1000
EX_NORM
1070
    41
1040
44.99999618530273
1070
    42
1040
10.49999982118607
1070
    44
1040
15.0
1070
    73
1070
     0
1070
    74
1070
     0
1070
    75
1070
     0
1070
    76
1070
     0
1070
    77
1070
     1
1070
    78
1070
     0
1070
   140
1040
59.99999618530273
1070
   147
1040
0.0
1070
   173
1070
     1
1070
   176
1070
     3
1070
   177
1070
     3
1070
   178
1070
     2
1070
   271
1070
     0
1070
   277
1070
     2
1070
   279
1070
     2
1070
   280
1070
     2
1070
   287
1070
     5
1070
   340
1005
4A7
1002
}
  0
DIMENSION
  5
510
330
1F
100
AcDbEntity
  8
寸法
  6
CONTINUOUS
 62
     3
100
AcDbDimension
  2
*D23
 10
2611.00000000066
 20
1269.5
 30
0.0
 11
2575.750000090067
 21
1106.499999999998
 31
0.0
 70
   160
  1
350（壁給水）
 53
89.99999999999973
  3
ISO-25
100
AcDbAlignedDimension
 13
2491.00000000066
 23
919.4999999999991
 33
0.0
 14
2499.00000000066
 24
1269.5
 34
0.0
 50
90.0
100
AcDbRotatedDimension
1001
ACAD
1000
DSTYLE
1002
{
1070
   270
1070
     2
1070
     6
1000
EX_NORM
1070
     7
1000
EX_NORM
1070
    41
1040
44.99999618530273
1070
    42
1040
10.49999982118607
1070
    44
1040
15.0
1070
    73
1070
     0
1070
    74
1070
     0
1070
    75
1070
     1
1070
    76
1070
     0
1070
    77
1070
     1
1070
    78
1070
     0
1070
   140
1040
59.99999618530273
1070
   147
1040
0.0
1070
   173
1070
     1
1070
   176
1070
     3
1070
   177
1070
     3
1070
   178
1070
     2
1070
   271
1070
     0
1070
   277
1070
     2
1070
   279
1070
     2
1070
   280
1070
     0
1070
   287
1070
     5
1070
   340
1005
4A7
1002
}
  0
DIMENSION
  5
51C
330
1F
100
AcDbEntity
  8
寸法
  6
CONTINUOUS
 62
     3
100
AcDbDimension
  2
*D24
 10
2701.00000000066
 20
1389.5
 30
0.0
 11
2665.750000090066
 21
1154.499999999998
 31
0.0
 70
   160
  1
470（壁排水）
  3
ISO-25
100
AcDbAlignedDimension
 13
2491.00000000066
 23
919.4999999999991
 33
0.0
 14
2541.00000000066
 24
1389.5
 34
0.0
 50
90.0
100
AcDbRotatedDimension
1001
ACAD
1000
DSTYLE
1002
{
1070
   270
1070
     2
1070
     6
1000
EX_NORM
1070
     7
1000
EX_NORM
1070
    41
1040
44.99999618530273
1070
    42
1040
10.49999982118607
1070
    44
1040
15.0
1070
    73
1070
     0
1070
    74
1070
     0
1070
    75
1070
     1
1070
    76
1070
     0
1070
    77
1070
     1
1070
    78
1070
     0
1070
   140
1040
59.99999618530273
1070
   147
1040
0.0
1070
   173
1070
     1
1070
   176
1070
     3
1070
   177
1070
     3
1070
   178
1070
     2
1070
   271
1070
     0
1070
   277
1070
     2
1070
   279
1070
     2
1070
   280
1070
     0
1070
   287
1070
     5
1070
   340
1005
4A7
1002
}
  0
DIMENSION
  5
528
330
1F
100
AcDbEntity
  8
寸法
  6
CONTINUOUS
 62
     3
100
AcDbDimension
  2
*D25
 10
2791.00000000066
 20
1449.5
 30
0.0
 11
2755.750000090066
 21
1184.499999999998
 31
0.0
 70
   160
  1
530（壁固定）
  3
ISO-25
100
AcDbAlignedDimension
 13
2491.00000000066
 23
919.5
 33
0.0
 14
2523.500005722661
 24
1449.5
 34
0.0
 50
90.0
100
AcDbRotatedDimension
1001
ACAD
1000
DSTYLE
1002
{
1070
   270
1070
     2
1070
     6
1000
EX_NORM
1070
     7
1000
EX_NORM
1070
    41
1040
44.99999618530273
1070
    42
1040
10.49999982118607
1070
    44
1040
15.0
1070
    73
1070
     0
1070
    74
1070
     0
1070
    75
1070
     1
1070
    76
1070
     0
1070
    77
1070
     1
1070
    78
1070
     0
1070
   140
1040
59.99999618530273
1070
   147
1040
0.0
1070
   173
1070
     1
1070
   176
1070
     3
1070
   177
1070
     3
1070
   178
1070
     2
1070
   271
1070
     0
1070
   277
1070
     2
1070
   279
1070
     2
1070
   280
1070
     0
1070
   287
1070
     5
1070
   340
1005
4A7
1002
}
  0
TEXT
  5
534
330
1F
100
AcDbEntity
  8
寸法
  6
CONTINUOUS
 62
     2
100
AcDbText
 10
2529.00000000066
 20
804.749999910593
 30
0.0
 40
59.99999618530273
  1
Ｒ１/２
 41
0.8342465643686785
  7
EXCADSTD
 72
     5
 11
2702.99998664922
 21
804.749999910593
 31
0.0
100
AcDbText
  0
LEADER
  5
535
330
1F
100
AcDbEntity
  8
寸法
  6
CONTINUOUS
 62
     3
100
AcDbLeader
  3
ISO-25
 76
     3
 10
2416.50000000066
 20
911.5
 30
0.0
 10
2529.00000000066
 20
799.5
 30
0.0
 10
2688.30000000066
 20
799.5
 30
0.0
1001
ACAD
1000
DSTYLE
1002
{
1070
     5
1000
EX_NORM
1070
    41
1040
45.0
1070
   341
1005
4D
1002
}
  0
TEXT
  5
536
330
1F
100
AcDbEntity
  8
寸法
  6
CONTINUOUS
 62
     2
100
AcDbText
 10
2150.100000358289
 20
804.749999910593
 30
0.0
 40
59.99999618530273
  1
φ３２
 41
1.070588224822399
  7
EXCADSTD
 72
     5
 11
2306.099988914197
 21
804.749999910593
 31
0.0
100
AcDbText
  0
LEADER
  5
537
330
1F
100
AcDbEntity
  8
寸法
  6
CONTINUOUS
 62
     3
100
AcDbLeader
  3
ISO-25
 76
     3
 10
2390.00000000066
 20
880.5
 30
0.0
 10
2306.100000000661
 20
799.5
 30
0.0
 10
2144.25000000066
 20
799.5
 30
0.0
1001
ACAD
1000
DSTYLE
1002
{
1070
     5
1000
EX_NORM
1070
    41
1040
45.0
1070
   341
1005
4D
1002
}
  0
TEXT
  5
538
330
1F
100
AcDbEntity
  8
寸法
  6
CONTINUOUS
 62
     2
100
AcDbText
 10
336.0000014311718
 20
813.7499960958958
 30
0.0
 40
59.99999618530273
  1
ＶＰ･ＶＵ４０･５０
 41
0.8542372745578565
  7
EXCADSTD
 72
     5
 11
767.9999670988964
 21
813.7499960958958
 31
0.0
100
AcDbText
  0
TEXT
  5
539
330
1F
100
AcDbEntity
  8
寸法
  6
CONTINUOUS
 62
     2
100
AcDbText
 10
336.0000014311718
 20
753.749999910593
 30
0.0
 40
59.99999618530273
  1
４０～５０㎜立上げ
 41
0.9773584771306252
  7
EXCADSTD
 72
     5
 11
779.9999670988964
 21
753.749999910593
 31
0.0
100
AcDbText
  0
LEADER
  5
53A
330
1F
100
AcDbEntity
  8
寸法
  6
CONTINUOUS
 62
     3
100
AcDbLeader
  3
ISO-25
 76
     3
 10
927.5000000006494
 20
932.0999999999985
 30
0.0
 10
780.0000000006603
 20
748.5
 30
0.0
 10
342.0000000006603
 20
748.5
 30
0.0
1001
ACAD
1000
DSTYLE
1002
{
1070
     5
1000
EX_NORM
1070
    41
1040
45.0
1070
   341
1005
4D
1002
}
  0
DIMENSION
  5
53B
330
1F
100
AcDbEntity
  8
寸法
  6
CONTINUOUS
 62
     3
100
AcDbDimension
  2
*D26
 10
1156.00000000066
 20
1248.0
 30
0.0
 11
961.0000000021594
 21
1283.249999910593
 31
0.0
 70
   160
  1
390（壁固定）
  3
ISO-25
100
AcDbAlignedDimension
 13
766.000000003658
 23
1445.700000000099
 33
0.0
 14
1156.00000000066
 24
1445.700000000099
 34
0.0
100
AcDbRotatedDimension
1001
ACAD
1000
DSTYLE
1002
{
1070
   270
1070
     2
1070
     6
1000
EX_NORM
1070
     7
1000
EX_NORM
1070
    41
1040
44.99999618530273
1070
    42
1040
10.49999982118607
1070
    44
1040
15.0
1070
    73
1070
     0
1070
    74
1070
     0
1070
    75
1070
     0
1070
    76
1070
     0
1070
    77
1070
     1
1070
    78
1070
     0
1070
   140
1040
59.99999618530273
1070
   147
1040
0.0
1070
   173
1070
     1
1070
   176
1070
     3
1070
   177
1070
     3
1070
   178
1070
     2
1070
   271
1070
     0
1070
   277
1070
     2
1070
   279
1070
     2
1070
   280
1070
     0
1070
   287
1070
     5
1070
   340
1005
4A7
1002
}
  0
DIMENSION
  5
548
330
1F
100
AcDbEntity
  8
寸法
  6
CONTINUOUS
 62
     3
100
AcDbDimension
  2
*D27
 10
1557.000000000602
 20
2669.5
 30
0.0
 11
1519.500000000601
 21
1794.499999999998
 31
0.0
 70
   160
  1
（1750）
  3
ISO-25
100
AcDbAlignedDimension
 13
1243.000000000706
 23
919.4999999999991
 33
0.0
 14
1261.000000000606
 24
2669.5
 34
0.0
 50
90.0
100
AcDbRotatedDimension
1001
ACAD
1000
DSTYLE
1002
{
1070
   270
1070
     2
1070
     6
1000
EX_NORM
1070
     7
1000
EX_NORM
1070
    41
1040
44.99999618530273
1070
    42
1040
22.5
1070
    44
1040
22.5
1070
    73
1070
     0
1070
    74
1070
     0
1070
    75
1070
     1
1070
    76
1070
     0
1070
    77
1070
     1
1070
    78
1070
     0
1070
   140
1040
59.99999618530273
1070
   147
1040
0.0
1070
   173
1070
     1
1070
   176
1070
     3
1070
   177
1070
     3
1070
   178
1070
     2
1070
   271
1070
     0
1070
   277
1070
     2
1070
   279
1070
     2
1070
   280
1070
     0
1070
   287
1070
     5
1070
   340
1005
4A7
1002
}
  0
DIMENSION
  5
554
330
1F
100
AcDbEntity
  8
寸法
  6
CONTINUOUS
 62
     3
100
AcDbDimension
  2
*D28
 10
1261.000000000602
 20
2889.000000000005
 30
0.0
 11
961.0000000006032
 21
2924.249999910598
 31
0.0
 70
   160
  3
ISO-25
100
AcDbAlignedDimension
 13
661.0000000006039
 23
2669.500000000045
 33
0.0
 14
1261.000000000602
 24
2669.500000000045
 34
0.0
100
AcDbRotatedDimension
1001
ACAD
1000
DSTYLE
1002
{
1070
   270
1070
     2
1070
     6
1000
EX_NORM
1070
     7
1000
EX_NORM
1070
    41
1040
44.99999618530273
1070
    42
1040
10.49999982118607
1070
    44
1040
15.0
1070
    73
1070
     0
1070
    74
1070
     0
1070
    75
1070
     0
1070
    76
1070
     0
1070
    77
1070
     1
1070
    78
1070
     8
1070
   140
1040
59.99999618530273
1070
   147
1040
0.0
1070
   173
1070
     1
1070
   176
1070
     3
1070
   177
1070
     3
1070
   178
1070
     2
1070
   271
1070
     2
1070
   277
1070
     2
1070
   279
1070
     2
1070
   280
1070
     0
1070
   287
1070
     5
1070
   340
1005
4A7
1002
}
  0
LINE
  5
561
330
1F
100
AcDbEntity
  8
寸法
  6
CONTINUOUS
 62
     3
100
AcDbLine
 10
811.0000000006039
 20
2619.980761934731
 30
0.0
 11
811.0000000006039
 21
2778.000000000005
 31
0.0
  0
LINE
  5
562
330
1F
100
AcDbEntity
  8
寸法
  6
CONTINUOUS
 62
     3
100
AcDbLine
 10
1111.000000000604
 20
2619.980761934731
 30
0.0
 11
1111.000000000604
 21
2778.000000000005
 31
0.0
  0
TEXT
  5
563
330
1F
100
AcDbEntity
  8
寸法
  6
CONTINUOUS
 62
     2
100
AcDbText
 10
788.2000005549272
 20
2768.249999910598
 30
0.0
 40
59.99999618530273
  1
３００
 41
1.070588224822399
  7
EXCADSTD
 72
     5
 11
944.1999891108354
 21
2768.249999910598
 31
0.0
100
AcDbText
  0
TEXT
  5
564
330
1F
100
AcDbEntity
  8
寸法
  6
CONTINUOUS
 62
     2
100
AcDbText
 10
938.2000001078924
 20
2768.249999910598
 30
0.0
 40
48.0
  1
（壁固定）
 41
1.013793114958138
  7
EXCADSTD
 72
     5
 11
1139.800002396711
 21
2768.249999910598
 31
0.0
100
AcDbText
  0
LINE
  5
565
330
1F
100
AcDbEntity
  8
寸法
  6
CONTINUOUS
 62
     3
100
AcDbLine
 10
766.0000000006041
 20
2763.000000000005
 30
0.0
 11
1156.000000000604
 21
2763.000000000005
 31
0.0
  0
LINE
  5
566
330
1F
100
AcDbEntity
  8
寸法
  6
CONTINUOUS
 62
     3
100
AcDbLine
 10
766.0000000006039
 20
2755.500000000005
 30
0.0
 11
811.0000000006039
 21
2763.000000000005
 31
0.0
  0
LINE
  5
567
330
1F
100
AcDbEntity
  8
寸法
  6
CONTINUOUS
 62
     3
100
AcDbLine
 10
811.0000000006039
 20
2763.000000000005
 30
0.0
 11
766.0000000006039
 21
2770.500000000005
 31
0.0
  0
LINE
  5
568
330
1F
100
AcDbEntity
  8
寸法
  6
CONTINUOUS
 62
     3
100
AcDbLine
 10
1156.000000000604
 20
2770.500000000005
 30
0.0
 11
1111.000000000604
 21
2763.000000000005
 31
0.0
  0
LINE
  5
569
330
1F
100
AcDbEntity
  8
寸法
  6
CONTINUOUS
 62
     3
100
AcDbLine
 10
1111.000000000604
 20
2763.000000000005
 30
0.0
 11
1156.000000000604
 21
2755.500000000005
 31
0.0
  0
DIMENSION
  5
56A
330
1F
100
AcDbEntity
  8
寸法
  6
CONTINUOUS
 62
     3
100
AcDbDimension
  2
*D29
 10
1433.000000000506
 20
2149.500000000045
 30
0.0
 11
1397.750000089913
 21
2409.500000000044
 31
0.0
 70
   160
  3
ISO-25
100
AcDbAlignedDimension
 13
1261.000000000602
 23
2669.500000000045
 33
0.0
 14
1261.000000000602
 24
2149.500000000045
 34
0.0
 50
90.0
100
AcDbRotatedDimension
1001
ACAD
1000
DSTYLE
1002
{
1070
   270
1070
     2
1070
     6
1000
EX_NORM
1070
     7
1000
EX_NORM
1070
    41
1040
44.99999618530273
1070
    42
1040
10.49999982118607
1070
    44
1040
15.0
1070
    73
1070
     0
1070
    74
1070
     0
1070
    75
1070
     0
1070
    76
1070
     0
1070
    77
1070
     1
1070
    78
1070
     8
1070
   140
1040
59.99999618530273
1070
   147
1040
0.0
1070
   173
1070
     1
1070
   176
1070
     3
1070
   177
1070
     3
1070
   178
1070
     2
1070
   271
1070
     2
1070
   277
1070
     2
1070
   279
1070
     2
1070
   280
1070
     0
1070
   287
1070
     5
1070
   340
1005
4A7
1002
}
  0
DIMENSION
  5
577
330
1F
100
AcDbEntity
  8
寸法
  6
CONTINUOUS
 62
     3
100
AcDbDimension
  2
*D30
 10
2881.5000000005
 20
2169.500000000005
 30
0.0
 11
2844.0000000005
 21
1544.500000000004
 31
0.0
 70
   160
  1
（1250）
  3
ISO-25
100
AcDbAlignedDimension
 13
2877.500000000455
 23
919.5000000000045
 33
0.0
 14
2533.999999821755
 24
2169.500000000005
 34
0.0
 50
90.0
100
AcDbRotatedDimension
1001
ACAD
1000
DSTYLE
1002
{
1070
   270
1070
     2
1070
     6
1000
EX_NORM
1070
     7
1000
EX_NORM
1070
    41
1040
44.99999618530273
1070
    42
1040
10.49999982118607
1070
    44
1040
15.0
1070
    73
1070
     0
1070
    74
1070
     0
1070
    75
1070
     0
1070
    76
1070
     0
1070
    77
1070
     1
1070
    78
1070
     8
1070
   140
1040
59.99999618530273
1070
   147
1040
0.0
1070
   173
1070
     1
1070
   176
1070
     3
1070
   177
1070
     3
1070
   178
1070
     2
1070
   271
1070
     1
1070
   277
1070
     2
1070
   279
1070
     2
1070
   280
1070
     0
1070
   287
1070
     5
1070
   340
1005
4A7
1002
}
  0
TEXT
  5
584
330
1F
100
AcDbEntity
  8
寸法
  6
CONTINUOUS
 62
     2
100
AcDbText
 10
2874.0000000005
 20
2216.690381611078
 30
0.0
 40
59.99999618530273
  1
４４０
 50
90.0
 41
1.070588224822399
  7
EXCADSTD
 72
     5
 11
2874.0000000005
 21
2372.690370166986
 31
0.0
100
AcDbText
  0
TEXT
  5
585
330
1F
100
AcDbEntity
  8
寸法
  6
CONTINUOUS
 62
     2
100
AcDbText
 10
2874.0000000005
 20
2366.690381164043
 30
0.0
 40
48.0
  1
（壁固定）
 50
90.0
 41
1.013793114958139
  7
EXCADSTD
 72
     5
 11
2874.0000000005
 21
2568.290383452861
 31
0.0
100
AcDbText
  0
LINE
  5
586
330
1F
100
AcDbEntity
  8
寸法
  6
CONTINUOUS
 62
     3
100
AcDbLine
 10
2881.5000000005
 20
2169.500000000004
 30
0.0
 11
2881.5000000005
 21
2609.480762113504
 31
0.0
  0
LINE
  5
587
330
1F
100
AcDbEntity
  8
寸法
  6
CONTINUOUS
 62
     3
100
AcDbLine
 10
2874.0000000005
 20
2214.500000000004
 30
0.0
 11
2881.5000000005
 21
2169.500000000004
 31
0.0
  0
LINE
  5
588
330
1F
100
AcDbEntity
  8
寸法
  6
CONTINUOUS
 62
     3
100
AcDbLine
 10
2881.5000000005
 20
2169.500000000004
 30
0.0
 11
2889.0000000005
 21
2214.500000000004
 31
0.0
  0
LINE
  5
589
330
1F
100
AcDbEntity
  8
寸法
  6
CONTINUOUS
 62
     3
100
AcDbLine
 10
2889.0000000005
 20
2564.480762113504
 30
0.0
 11
2881.5000000005
 21
2609.480762113504
 31
0.0
  0
LINE
  5
58A
330
1F
100
AcDbEntity
  8
寸法
  6
CONTINUOUS
 62
     3
100
AcDbLine
 10
2881.5000000005
 20
2609.480762113504
 30
0.0
 11
2874.0000000005
 21
2564.480762113504
 31
0.0
  0
LINE
  5
58B
330
1F
100
AcDbEntity
  8
寸法
  6
CONTINUOUS
 62
     3
100
AcDbLine
 10
2538.500001907903
 20
2609.480762113504
 30
0.0
 11
2896.5000000005
 21
2609.480762113504
 31
0.0
  0
DIMENSION
  5
58C
330
1F
100
AcDbEntity
  8
寸法
  6
CONTINUOUS
 62
     3
100
AcDbDimension
  2
*D31
 10
2881.5000000005
 20
2669.500000000005
 30
0.0
 11
2844.000000000497
 21
2767.000000000003
 31
0.0
 70
   160
  3
ISO-25
100
AcDbAlignedDimension
 13
2870.000000000455
 23
2609.480762113504
 33
0.0
 14
2611.000000000555
 24
2669.500000000005
 34
0.0
 50
90.0
100
AcDbRotatedDimension
1001
ACAD
1000
DSTYLE
1002
{
1070
   270
1070
     2
1070
     6
1000
EX_NONE
1070
     7
1000
EX_NORM
1070
    41
1040
44.99999618530273
1070
    42
1040
0.0
1070
    44
1040
0.0
1070
    73
1070
     0
1070
    74
1070
     0
1070
    75
1070
     1
1070
    76
1070
     0
1070
    77
1070
     1
1070
    78
1070
     8
1070
   140
1040
59.99999618530273
1070
   147
1040
0.0
1070
   173
1070
     1
1070
   176
1070
     3
1070
   177
1070
     3
1070
   178
1070
     2
1070
   271
1070
     1
1070
   277
1070
     2
1070
   279
1070
     2
1070
   280
1070
     2
1070
   287
1070
     5
1070
   340
1005
4A7
1002
}
  0
DIMENSION
  5
59A
330
1F
100
AcDbEntity
  8
寸法
  6
CONTINUOUS
 62
     3
100
AcDbDimension
  2
*D32
 10
2491.000000000555
 20
2729.500000000005
 30
0.0
 11
2356.300000000554
 21
2764.749999910598
 31
0.0
 70
   160
  1
38
  3
ISO-25
100
AcDbAlignedDimension
 13
2453.800000000554
 23
2670.700000000004
 33
0.0
 14
2491.000000000555
 24
2668.500000000005
 34
0.0
100
AcDbRotatedDimension
1001
ACAD
1000
DSTYLE
1002
{
1070
   270
1070
     2
1070
     6
1000
EX_NORM
1070
     7
1000
EX_NORM
1070
    41
1040
44.99999618530273
1070
    42
1040
10.49999982118607
1070
    44
1040
15.0
1070
    73
1070
     0
1070
    74
1070
     0
1070
    75
1070
     0
1070
    76
1070
     1
1070
    77
1070
     1
1070
    78
1070
     8
1070
   140
1040
59.99999618530273
1070
   147
1040
0.0
1070
   173
1070
     1
1070
   176
1070
     3
1070
   177
1070
     3
1070
   178
1070
     2
1070
   271
1070
     2
1070
   277
1070
     2
1070
   279
1070
     2
1070
   280
1070
     1
1070
   287
1070
     5
1070
   340
1005
4A7
1002
}
  0
DIMENSION
  5
5A8
330
1F
100
AcDbEntity
  8
寸法
  6
CONTINUOUS
 62
     3
100
AcDbDimension
  2
*D33
 10
1171.000000000705
 20
4005.0
 30
0.0
 11
1384.000000000725
 21
4040.249999910593
 31
0.0
 70
   160
  1
210（壁給水）
  3
ISO-25
100
AcDbAlignedDimension
 13
961.0000000006648
 23
3835.4999998212
 33
0.0
 14
1171.000000000705
 24
3843.4999998212
 34
0.0
100
AcDbRotatedDimension
1001
ACAD
1000
DSTYLE
1002
{
1070
   270
1070
     2
1070
     6
1000
EX_NORM
1070
     7
1000
EX_NORM
1070
    41
1040
44.99999618530273
1070
    42
1040
10.49999982118561
1070
    44
1040
15.0
1070
    73
1070
     0
1070
    74
1070
     0
1070
    75
1070
     0
1070
    76
1070
     0
1070
    77
1070
     1
1070
    78
1070
     0
1070
   140
1040
59.99999618530273
1070
   147
1040
0.0
1070
   173
1070
     1
1070
   176
1070
     3
1070
   177
1070
     3
1070
   178
1070
     2
1070
   271
1070
     0
1070
   277
1070
     2
1070
   279
1070
     2
1070
   280
1070
     0
1070
   287
1070
     5
1070
   340
1005
4A7
1002
}
  0
DIMENSION
  5
5B5
330
1F
100
AcDbEntity
  8
寸法
  6
CONTINUOUS
 62
     3
100
AcDbDimension
  2
*D34
 10
1171.000000000695
 20
709.5
 30
0.0
 11
1388.500000000716
 21
744.749999910593
 31
0.0
 70
   160
  1
210（床給水）
  3
ISO-25
100
AcDbAlignedDimension
 13
961.000000000655
 23
869.49999999998
 33
0.0
 14
1171.000000000695
 24
901.00000017881
 34
0.0
100
AcDbRotatedDimension
1001
ACAD
1000
DSTYLE
1002
{
1070
   270
1070
     2
1070
     6
1000
EX_NORM
1070
     7
1000
EX_NORM
1070
    41
1040
44.99999618530273
1070
    42
1040
10.49999982118607
1070
    44
1040
15.0
1070
    73
1070
     0
1070
    74
1070
     0
1070
    75
1070
     0
1070
    76
1070
     0
1070
    77
1070
     1
1070
    78
1070
     0
1070
   140
1040
59.99999618530273
1070
   147
1040
0.0
1070
   173
1070
     1
1070
   176
1070
     3
1070
   177
1070
     3
1070
   178
1070
     2
1070
   271
1070
     0
1070
   277
1070
     2
1070
   279
1070
     2
1070
   280
1070
     0
1070
   287
1070
     5
1070
   340
1005
4A7
1002
}
  0
ENDSEC
  0
SECTION
  2
OBJECTS
  0
DICTIONARY
  5
C
330
0
100
AcDbDictionary
  3
ACAD_GROUP
350
D
  3
ACAD_LAYOUT
350
1A
  3
ACAD_MATERIAL
350
3B
  3
ACAD_MLEADERSTYLE
350
5E4
  3
ACAD_MLINESTYLE
350
17
  3
ACAD_PLOTSETTINGS
350
19
  3
ACAD_VISUALSTYLE
350
2A
  3
ACDBHEADERROUNDTRIPXREC
350
5C2
  3
ACDBVARIABLEDICTIONARY
350
5E2
  0
DICTIONARY
  5
D
102
{ACAD_REACTORS
330
C
102
}
330
C
100
AcDbDictionary
  0
DICTIONARY
  5
1A
102
{ACAD_REACTORS
330
C
102
}
330
C
100
AcDbDictionary
  0
DICTIONARY
  5
3B
102
{ACAD_REACTORS
330
C
102
}
330
C
100
AcDbDictionary
  3
BYBLOCK
350
3D
  3
BYLAYER
350
3C
  3
GLOBAL
350
3E
  0
DICTIONARY
  5
5E4
102
{ACAD_REACTORS
330
C
102
}
330
C
100
AcDbDictionary
  0
DICTIONARY
  5
17
102
{ACAD_REACTORS
330
C
102
}
330
C
100
AcDbDictionary
  3
STANDARD
350
18
  0
DICTIONARY
  5
19
102
{ACAD_REACTORS
330
C
102
}
330
C
100
AcDbDictionary
  0
DICTIONARY
  5
2A
102
{ACAD_REACTORS
330
C
102
}
330
C
100
AcDbDictionary
  3
2DWIREFRAME
350
2F
  3
3D_HIDDEN
350
31
  3
3DWIREFRAME
350
30
  3
BASIC
350
32
  3
BRIGHTEN
350
36
  3
COLORCHANGE
350
3A
  3
CONCEPTUAL
350
34
  3
DIM
350
35
  3
FACEPATTERN
350
39
  3
FLAT
350
2B
  3
FLATWITHEDGES
350
2C
  3
GOURAUD
350
2D
  3
GOURAUDWITHEDGES
350
2E
  3
LINEPATTERN
350
38
  3
REALISTIC
350
33
  3
THICKEN
350
37
  0
DICTIONARY
  5
5C2
102
{ACAD_REACTORS
330
C
102
}
330
C
100
AcDbDictionary
  3
CEPSNTYPE
350
5CB
  3
DIMSTYLEDATA
350
5E1
  3
FINGERPRINTGUID
350
5CC
  3
HYPERLINKBASE
350
5C5
  3
INSUNITS
350
5CA
  3
LAYOUTDICT
350
5C7
  3
LWETCUNION
350
5C9
  3
PLOTSETDICT
350
5C8
  3
PSVPSCALE
350
5CE
  3
PUCSBASE
350
5D1
  3
PUCSORGBACK
350
5D7
  3
PUCSORGBOTTOM
350
5D3
  3
PUCSORGFRONT
350
5D6
  3
PUCSORGLEFT
350
5D4
  3
PUCSORGRIGHT
350
5D5
  3
PUCSORGTOP
350
5D2
  3
PUCSORTHOREF
350
5CF
  3
PUCSORTHOVIEW
350
5D0
  3
STYLESHEET
350
5C6
  3
TSTACKALIGN
350
5C3
  3
TSTACKSIZE
350
5C4
  3
UCSBASE
350
5DA
  3
UCSORGBACK
350
5E0
  3
UCSORGBOTTOM
350
5DC
  3
UCSORGFRONT
350
5DF
  3
UCSORGLEFT
350
5DD
  3
UCSORGRIGHT
350
5DE
  3
UCSORGTOP
350
5DB
  3
UCSORTHOREF
350
5D8
  3
UCSORTHOVIEW
350
5D9
  3
VERSIONGUID
350
5CD
  0
DICTIONARY
  5
5E2
102
{ACAD_REACTORS
330
C
102
}
330
C
100
AcDbDictionary
  3
DIMASSOC
350
5E7
  3
HIDETEXT
350
5E8
  3
PSOLHEIGHT
350
5E6
  3
PSOLWIDTH
350
5E5
  0
MATERIAL
  5
3D
102
{ACAD_REACTORS
330
3B
102
}
102
{ACAD_XDICTIONARY
360
5EB
102
}
330
3B
100
AcDbMaterial
  1
ByBlock
  0
MATERIAL
  5
3C
102
{ACAD_REACTORS
330
3B
102
}
102
{ACAD_XDICTIONARY
360
5E9
102
}
330
3B
100
AcDbMaterial
  1
ByLayer
  0
MATERIAL
  5
3E
102
{ACAD_REACTORS
330
3B
102
}
102
{ACAD_XDICTIONARY
360
5ED
102
}
330
3B
100
AcDbMaterial
  1
Global
  0
MLINESTYLE
  5
18
102
{ACAD_REACTORS
330
17
102
}
330
17
100
AcDbMlineStyle
  2
Standard
 70
     0
  3

 62
   256
 51
90.0
 52
90.0
 71
     2
 49
0.5
 62
   256
  6
BYLAYER
 49
-0.5
 62
   256
  6
BYLAYER
  0
ACAD_PROXY_OBJECT
  5
2F
102
{ACAD_REACTORS
330
2A
102
}
330
2A
100
AcDbProxyObject
 90
      499
 91
      501
 93
      436
310
42CC9915DA5C99599C985B595049028333333333333E3BF0000000000000FB0107901411070040501600405405064090741402480A0340
1001
ACAD
1000
AcDbSavedByObjectVersion
1070
     0
  0
ACAD_PROXY_OBJECT
  5
31
102
{ACAD_REACTORS
330
2A
102
}
330
2A
100
AcDbProxyObject
 90
      499
 91
      501
 93
      500
310
424CD108121A5919195B90640502408333333333333E3BF0000000000000FB01079024090700405020000000000001110200405405064090740C02480A0340
1001
ACAD
1000
AcDbSavedByObjectVersion
1070
     0
  0
ACAD_PROXY_OBJECT
  5
30
102
{ACAD_REACTORS
330
2A
102
}
330
2A
100
AcDbProxyObject
 90
      499
 91
      501
 93
      436
310
42CCD915DA5C99599C985B595059028333333333333E3BF0000000000000FB0107901411070040501600405405064090741402480A0340
1001
ACAD
1000
AcDbSavedByObjectVersion
1070
     0
  0
ACAD_PROXY_OBJECT
  5
32
102
{ACAD_REACTORS
330
2A
102
}
330
2A
100
AcDbProxyObject
 90
      499
 91
      501
 93
      388
310
4150985CDA58D07406404333333333333E3BF0000000000000FB0107A41107004050150841D405064090741402480A0350
1001
ACAD
1000
AcDbSavedByObjectVersion
1070
     0
  0
ACAD_PROXY_OBJECT
  5
36
102
{ACAD_REACTORS
330
2A
102
}
330
2A
100
AcDbProxyObject
 90
      499
 91
      501
 93
      428
310
42109C9A59DA1D195B90C409028333333333333E3BF0000000000000FB010790141107004050150841D405064090741402480A029950
1001
ACAD
1000
AcDbSavedByObjectVersion
1070
     0
  0
ACAD_PROXY_OBJECT
  5
3A
102
{ACAD_REACTORS
330
2A
102
}
330
2A
100
AcDbProxyObject
 90
      499
 91
      501
 93
      452
310
42D0DBDB1BDC90DA185B99D95104090240C333333333333E3BF0000000000000FB0108901411070040501508421405064090741402480A0350
1001
ACAD
1000
AcDbSavedByObjectVersion
1070
     0
  0
ACAD_PROXY_OBJECT
  5
34
102
{ACAD_REACTORS
330
2A
102
}
330
2A
100
AcDbProxyObject
 90
      499
 91
      501
 93
      500
310
4290DBDB98D95C1D1D585B10940D028333333333333E3BF0000000000000FB0107902409070040501000000000000111010841D405064090740C02480A0340
1001
ACAD
1000
AcDbSavedByObjectVersion
1070
     0
  0
ACAD_PROXY_OBJECT
  5
35
102
{ACAD_REACTORS
330
2A
102
}
330
2A
100
AcDbProxyObject
 90
      499
 91
      501
 93
      412
310
40D11A5B50B409028333333333333E3BF0000000000000FB010790141107004050150841D405064090741402480A02677FFFFFD0
1001
ACAD
1000
AcDbSavedByObjectVersion
1070
     0
  0
ACAD_PROXY_OBJECT
  5
39
102
{ACAD_REACTORS
330
2A
102
}
330
2A
100
AcDbProxyObject
 90
      499
 91
      501
 93
      444
310
42D19858D95C185D1D195C9B90F409028333333333333E3BF0000000000000FB010790141107004050150841D405064090741402480A0350
1001
ACAD
1000
AcDbSavedByObjectVersion
1070
     0
  0
ACAD_PROXY_OBJECT
  5
2B
102
{ACAD_REACTORS
330
2A
102
}
330
2A
100
AcDbProxyObject
 90
      499
 91
      501
 93
      388
310
41119B185D240901404333333333333E3BF0000000000000F9010740A41107004050150841D405064090741402480A1B50
1001
ACAD
1000
AcDbSavedByObjectVersion
1070
     0
  0
ACAD_PROXY_OBJECT
  5
2C
102
{ACAD_REACTORS
330
2A
102
}
330
2A
100
AcDbProxyObject
 90
      499
 91
      501
 93
      476
310
43519B185D15DA5D1A115919D95CD0140901404333333333333E3BF0000000000000F9010740901411070040501600405405064090741402480A1B50
1001
ACAD
1000
AcDbSavedByObjectVersion
1070
     0
  0
ACAD_PROXY_OBJECT
  5
2D
102
{ACAD_REACTORS
330
2A
102
}
330
2A
100
AcDbProxyObject
 90
      499
 91
      501
 93
      412
310
41D1DBDD5C985D5910240902404333333333333E3BF0000000000000F9010740A411070040501641D405064090741402480A1B50
1001
ACAD
1000
AcDbSavedByObjectVersion
1070
     0
  0
ACAD_PROXY_OBJECT
  5
2E
102
{ACAD_REACTORS
330
2A
102
}
330
2A
100
AcDbProxyObject
 90
      499
 91
      501
 93
      500
310
4411DBDD5C985D5915DA5D1A115919D95CD0340902404333333333333E3BF0000000000000F9010740901411070040501600405405064090741402480A1B50
1001
ACAD
1000
AcDbSavedByObjectVersion
1070
     0
  0
ACAD_PROXY_OBJECT
  5
38
102
{ACAD_REACTORS
330
2A
102
}
330
2A
100
AcDbProxyObject
 90
      499
 91
      501
 93
      444
310
42D31A5B995C185D1D195C9B90E409028333333333333E3BF0000000000000FB010790141107004050750841D405064090741402483A0350
1001
ACAD
1000
AcDbSavedByObjectVersion
1070
     0
  0
ACAD_PROXY_OBJECT
  5
33
102
{ACAD_REACTORS
330
2A
102
}
330
2A
100
AcDbProxyObject
 90
      499
 91
      501
 93
      420
310
425499585B1A5CDD1A58D08409028333333333333E3BF0000000000000FB01079019070040501508421405064090741402480A1B40
1001
ACAD
1000
AcDbSavedByObjectVersion
1070
     0
  0
ACAD_PROXY_OBJECT
  5
37
102
{ACAD_REACTORS
330
2A
102
}
330
2A
100
AcDbProxyObject
 90
      499
 91
      501
 93
      412
310
41D51A1A58DAD95B90D409028333333333333E3BF0000000000000FB010790141107004050150C41D405064090741402480A0350
1001
ACAD
1000
AcDbSavedByObjectVersion
1070
     0
  0
XRECORD
  5
5CB
102
{ACAD_REACTORS
330
5C2
102
}
330
5C2
100
AcDbXrecord
 90
        0
  0
XRECORD
  5
5E1
102
{ACAD_REACTORS
330
5C2
102
}
330
5C2
100
AcDbXrecord
1000
DSTYLE
1002
{
1070
   340
340
11
1002
}
  0
XRECORD
  5
5CC
102
{ACAD_REACTORS
330
5C2
102
}
330
5C2
100
AcDbXrecord
  1
{51F891AF-312D-403A-BF56-511359B66B2B}
  0
XRECORD
  5
5C5
102
{ACAD_REACTORS
330
5C2
102
}
330
5C2
100
AcDbXrecord
  1

  0
XRECORD
  5
5CA
102
{ACAD_REACTORS
330
5C2
102
}
330
5C2
100
AcDbXrecord
 90
        4
  0
XRECORD
  5
5C7
102
{ACAD_REACTORS
330
5C2
102
}
330
5C2
100
AcDbXrecord
340
1A
  0
XRECORD
  5
5C9
102
{ACAD_REACTORS
330
5C2
102
}
330
5C2
100
AcDbXrecord
 90
    10781
  0
XRECORD
  5
5C8
102
{ACAD_REACTORS
330
5C2
102
}
330
5C2
100
AcDbXrecord
340
19
  0
XRECORD
  5
5CE
102
{ACAD_REACTORS
330
5C2
102
}
330
5C2
100
AcDbXrecord
 40
0.0
  0
XRECORD
  5
5D1
102
{ACAD_REACTORS
330
5C2
102
}
330
5C2
100
AcDbXrecord
340
0
  0
XRECORD
  5
5D7
102
{ACAD_REACTORS
330
5C2
102
}
330
5C2
100
AcDbXrecord
 10
0.0
 20
0.0
 30
0.0
  0
XRECORD
  5
5D3
102
{ACAD_REACTORS
330
5C2
102
}
330
5C2
100
AcDbXrecord
 10
0.0
 20
0.0
 30
0.0
  0
XRECORD
  5
5D6
102
{ACAD_REACTORS
330
5C2
102
}
330
5C2
100
AcDbXrecord
 10
0.0
 20
0.0
 30
0.0
  0
XRECORD
  5
5D4
102
{ACAD_REACTORS
330
5C2
102
}
330
5C2
100
AcDbXrecord
 10
0.0
 20
0.0
 30
0.0
  0
XRECORD
  5
5D5
102
{ACAD_REACTORS
330
5C2
102
}
330
5C2
100
AcDbXrecord
 10
0.0
 20
0.0
 30
0.0
  0
XRECORD
  5
5D2
102
{ACAD_REACTORS
330
5C2
102
}
330
5C2
100
AcDbXrecord
 10
0.0
 20
0.0
 30
0.0
  0
XRECORD
  5
5CF
102
{ACAD_REACTORS
330
5C2
102
}
330
5C2
100
AcDbXrecord
340
0
  0
XRECORD
  5
5D0
102
{ACAD_REACTORS
330
5C2
102
}
330
5C2
100
AcDbXrecord
 70
     0
  0
XRECORD
  5
5C6
102
{ACAD_REACTORS
330
5C2
102
}
330
5C2
100
AcDbXrecord
  1

  0
XRECORD
  5
5C3
102
{ACAD_REACTORS
330
5C2
102
}
330
5C2
100
AcDbXrecord
 90
        1
  0
XRECORD
  5
5C4
102
{ACAD_REACTORS
330
5C2
102
}
330
5C2
100
AcDbXrecord
 90
       70
  0
XRECORD
  5
5DA
102
{ACAD_REACTORS
330
5C2
102
}
330
5C2
100
AcDbXrecord
340
0
  0
XRECORD
  5
5E0
102
{ACAD_REACTORS
330
5C2
102
}
330
5C2
100
AcDbXrecord
 10
0.0
 20
0.0
 30
0.0
  0
XRECORD
  5
5DC
102
{ACAD_REACTORS
330
5C2
102
}
330
5C2
100
AcDbXrecord
 10
0.0
 20
0.0
 30
0.0
  0
XRECORD
  5
5DF
102
{ACAD_REACTORS
330
5C2
102
}
330
5C2
100
AcDbXrecord
 10
0.0
 20
0.0
 30
0.0
  0
XRECORD
  5
5DD
102
{ACAD_REACTORS
330
5C2
102
}
330
5C2
100
AcDbXrecord
 10
0.0
 20
0.0
 30
0.0
  0
XRECORD
  5
5DE
102
{ACAD_REACTORS
330
5C2
102
}
330
5C2
100
AcDbXrecord
 10
0.0
 20
0.0
 30
0.0
  0
XRECORD
  5
5DB
102
{ACAD_REACTORS
330
5C2
102
}
330
5C2
100
AcDbXrecord
 10
0.0
 20
0.0
 30
0.0
  0
XRECORD
  5
5D8
102
{ACAD_REACTORS
330
5C2
102
}
330
5C2
100
AcDbXrecord
340
0
  0
XRECORD
  5
5D9
102
{ACAD_REACTORS
330
5C2
102
}
330
5C2
100
AcDbXrecord
 70
     0
  0
XRECORD
  5
5CD
102
{ACAD_REACTORS
330
5C2
102
}
330
5C2
100
AcDbXrecord
  1
{FAEB1C32-E019-11D5-929B-00C0DF256EC4}
  0
DICTIONARYVAR
  5
5E7
102
{ACAD_REACTORS
330
5E2
102
}
330
5E2
100
DictionaryVariables
280
     0
  1
2
  0
DICTIONARYVAR
  5
5E8
102
{ACAD_REACTORS
330
5E2
102
}
330
5E2
100
DictionaryVariables
280
     0
  1
1
  0
DICTIONARYVAR
  5
5E6
102
{ACAD_REACTORS
330
5E2
102
}
330
5E2
100
DictionaryVariables
280
     0
  1
80.000000
  0
DICTIONARYVAR
  5
5E5
102
{ACAD_REACTORS
330
5E2
102
}
330
5E2
100
DictionaryVariables
280
     0
  1
5.000000
  0
DICTIONARY
  5
5EB
330
3D
100
AcDbDictionary
280
     1
  3
ACAD_XREC_ROUNDTRIP
360
5EC
  0
DICTIONARY
  5
5E9
330
3C
100
AcDbDictionary
280
     1
  3
ACAD_XREC_ROUNDTRIP
360
5EA
  0
DICTIONARY
  5
5ED
330
3E
100
AcDbDictionary
280
     1
  3
ACAD_XREC_ROUNDTRIP
360
5EE
  0
XRECORD
  5
5EC
102
{ACAD_REACTORS
330
5EB
102
}
330
5EB
100
AcDbXrecord
102
MATERIAL
148
0.0
149
0.0
149
0.0
 93
        0
 94
      127
282
     0
 72
     1
 77
     1
171
     1
175
     1
179
     1
273
     0
  0
XRECORD
  5
5EA
102
{ACAD_REACTORS
330
5E9
102
}
330
5E9
100
AcDbXrecord
102
MATERIAL
148
0.0
149
0.0
149
0.0
 93
        0
 94
      127
282
     0
 72
     1
 77
     1
171
     1
175
     1
179
     1
273
     0
  0
XRECORD
  5
5EE
102
{ACAD_REACTORS
330
5ED
102
}
330
5ED
100
AcDbXrecord
102
MATERIAL
148
0.0
149
0.0
149
0.0
 93
        0
 94
      127
282
     0
 72
     1
 77
     1
171
     1
175
     1
179
     1
273
     0
  0
ENDSEC
  0
EOF
