  0
SECTION
  2
HEADER
  9
$ACADVER
  1
AC1014
  9
$ACADMAINTVER
 70
     9
  9
$DWGCODEPAGE
  3
ANSI_932
  9
$INSBASE
 10
0.0
 20
0.0
 30
0.0
  9
$EXTMIN
 10
17.40000000003735
 20
9.299999999999955
 30
0.0
  9
$EXTMAX
 10
199.4000000000376
 20
289.3
 30
0.0
  9
$LIMMIN
 10
0.0
 20
0.0
  9
$LIMMAX
 10
210.0
 20
297.0
  9
$ORTHOMODE
 70
     0
  9
$REGENMODE
 70
     1
  9
$FILLMODE
 70
     1
  9
$QTEXTMODE
 70
     0
  9
$MIRRTEXT
 70
     1
  9
$DRAGMODE
 70
     2
  9
$LTSCALE
 40
1.0
  9
$OSMODE
 70
    37
  9
$ATTMODE
 70
     1
  9
$TEXTSIZE
 40
2.5
  9
$TRACEWID
 40
1.0
  9
$TEXTSTYLE
  7
STANDARD
  9
$CLAYER
  8
化粧台
  9
$CELTYPE
  6
BYLAYER
  9
$CECOLOR
 62
   256
  9
$CELTSCALE
 40
1.0
  9
$DELOBJ
 70
     1
  9
$DISPSILH
 70
     0
  9
$DIMSCALE
 40
1.0
  9
$DIMASZ
 40
2.5
  9
$DIMEXO
 40
0.625
  9
$DIMDLI
 40
3.75
  9
$DIMRND
 40
0.0
  9
$DIMDLE
 40
0.0
  9
$DIMEXE
 40
1.25
  9
$DIMTP
 40
0.0
  9
$DIMTM
 40
0.0
  9
$DIMTXT
 40
2.5
  9
$DIMCEN
 40
2.5
  9
$DIMTSZ
 40
0.0
  9
$DIMTOL
 70
     0
  9
$DIMLIM
 70
     0
  9
$DIMTIH
 70
     0
  9
$DIMTOH
 70
     0
  9
$DIMSE1
 70
     0
  9
$DIMSE2
 70
     0
  9
$DIMTAD
 70
     1
  9
$DIMZIN
 70
     8
  9
$DIMBLK
  1

  9
$DIMASO
 70
     1
  9
$DIMSHO
 70
     1
  9
$DIMPOST
  1

  9
$DIMAPOST
  1

  9
$DIMALT
 70
     0
  9
$DIMALTD
 70
     3
  9
$DIMALTF
 40
0.03937007874016
  9
$DIMLFAC
 40
1.0
  9
$DIMTOFL
 70
     1
  9
$DIMTVP
 40
0.0
  9
$DIMTIX
 70
     0
  9
$DIMSOXD
 70
     0
  9
$DIMSAH
 70
     0
  9
$DIMBLK1
  1

  9
$DIMBLK2
  1

  9
$DIMSTYLE
  2
ISO-25
  9
$DIMCLRD
 70
     0
  9
$DIMCLRE
 70
     0
  9
$DIMCLRT
 70
     0
  9
$DIMTFAC
 40
1.0
  9
$DIMGAP
 40
0.625
  9
$DIMJUST
 70
     0
  9
$DIMSD1
 70
     0
  9
$DIMSD2
 70
     0
  9
$DIMTOLJ
 70
     0
  9
$DIMTZIN
 70
     8
  9
$DIMALTZ
 70
     0
  9
$DIMALTTZ
 70
     0
  9
$DIMFIT
 70
     3
  9
$DIMUPT
 70
     0
  9
$DIMUNIT
 70
     2
  9
$DIMDEC
 70
     2
  9
$DIMTDEC
 70
     2
  9
$DIMALTU
 70
     2
  9
$DIMALTTD
 70
     3
  9
$DIMTXSTY
  7
STANDARD
  9
$DIMAUNIT
 70
     0
  9
$LUNITS
 70
     2
  9
$LUPREC
 70
     4
  9
$SKETCHINC
 40
1.0
  9
$FILLETRAD
 40
10.0
  9
$AUNITS
 70
     0
  9
$AUPREC
 70
     0
  9
$MENU
  1
.
  9
$ELEVATION
 40
0.0
  9
$PELEVATION
 40
0.0
  9
$THICKNESS
 40
0.0
  9
$LIMCHECK
 70
     0
  9
$CHAMFERA
 40
10.0
  9
$CHAMFERB
 40
10.0
  9
$CHAMFERC
 40
20.0
  9
$CHAMFERD
 40
0.0
  9
$SKPOLY
 70
     0
  9
$TDCREATE
 40
2460095.490054491
  9
$TDUPDATE
 40
2460095.490054757
  9
$TDINDWG
 40
0.0000000116
  9
$TDUSRTIMER
 40
0.0000000116
  9
$USRTIMER
 70
     1
  9
$ANGBASE
 50
0.0
  9
$ANGDIR
 70
     0
  9
$PDMODE
 70
     0
  9
$PDSIZE
 40
0.0
  9
$PLINEWID
 40
0.0
  9
$COORDS
 70
     1
  9
$SPLFRAME
 70
     0
  9
$SPLINETYPE
 70
     6
  9
$SPLINESEGS
 70
     8
  9
$ATTDIA
 70
     0
  9
$ATTREQ
 70
     1
  9
$HANDLING
 70
     1
  9
$HANDSEED
  5
557
  9
$SURFTAB1
 70
     6
  9
$SURFTAB2
 70
     6
  9
$SURFTYPE
 70
     6
  9
$SURFU
 70
     6
  9
$SURFV
 70
     6
  9
$UCSNAME
  2

  9
$UCSORG
 10
0.0
 20
0.0
 30
0.0
  9
$UCSXDIR
 10
1.0
 20
0.0
 30
0.0
  9
$UCSYDIR
 10
0.0
 20
1.0
 30
0.0
  9
$PUCSNAME
  2

  9
$PUCSORG
 10
0.0
 20
0.0
 30
0.0
  9
$PUCSXDIR
 10
1.0
 20
0.0
 30
0.0
  9
$PUCSYDIR
 10
0.0
 20
1.0
 30
0.0
  9
$USERI1
 70
     0
  9
$USERI2
 70
     0
  9
$USERI3
 70
     0
  9
$USERI4
 70
     0
  9
$USERI5
 70
     0
  9
$USERR1
 40
0.0
  9
$USERR2
 40
0.0
  9
$USERR3
 40
0.0
  9
$USERR4
 40
0.0
  9
$USERR5
 40
0.0
  9
$WORLDVIEW
 70
     1
  9
$SHADEDGE
 70
     3
  9
$SHADEDIF
 70
    70
  9
$TILEMODE
 70
     1
  9
$MAXACTVP
 70
    64
  9
$PINSBASE
 10
0.0
 20
0.0
 30
0.0
  9
$PLIMCHECK
 70
     0
  9
$PEXTMIN
 10
1.000000000000000E+20
 20
1.000000000000000E+20
 30
1.000000000000000E+20
  9
$PEXTMAX
 10
-1.000000000000000E+20
 20
-1.000000000000000E+20
 30
-1.000000000000000E+20
  9
$PLIMMIN
 10
0.0
 20
0.0
  9
$PLIMMAX
 10
420.0
 20
297.0
  9
$UNITMODE
 70
     0
  9
$VISRETAIN
 70
     1
  9
$PLINEGEN
 70
     0
  9
$PSLTSCALE
 70
     1
  9
$TREEDEPTH
 70
  3020
  9
$PICKSTYLE
 70
     1
  9
$CMLSTYLE
  2
STANDARD
  9
$CMLJUST
 70
     0
  9
$CMLSCALE
 40
20.0
  9
$PROXYGRAPHICS
 70
     1
  9
$MEASUREMENT
 70
     1
  0
ENDSEC
  0
SECTION
  2
CLASSES
  0
CLASS
  1
ACDBDICTIONARYWDFLT
  2
AcDbDictionaryWithDefault
  3
ObjectDBX Classes
 90
        0
280
     0
281
     0
  0
CLASS
  1
VISUALSTYLE
  2
AcDbVisualStyle
  3
ObjectDBX Classes
 90
     4095
280
     0
281
     0
  0
CLASS
  1
MATERIAL
  2
AcDbMaterial
  3
ObjectDBX Classes
 90
     1153
280
     0
281
     0
  0
CLASS
  1
SUN
  2
AcDbSun
  3
SCENEOE
 90
     1024
280
     0
281
     0
  0
CLASS
  1
DICTIONARYVAR
  2
AcDbDictionaryVar
  3
ObjectDBX Classes
 90
        0
280
     0
281
     0
  0
CLASS
  1
XRECORD
  2
AcDbXrecord
  3
AutoCAD 2000
 90
        0
280
     0
281
     0
  0
CLASS
  1
LWPOLYLINE
  2
AcDbPolyline
  3
AutoCAD 2000
 90
        0
280
     0
281
     1
  0
CLASS
  1
HATCH
  2
AcDbHatch
  3
AutoCAD 2000
 90
        0
280
     0
281
     1
  0
CLASS
  1
ACDBPLACEHOLDER
  2
AcDbPlaceHolder
  3
ObjectDBX Classes
 90
        0
280
     0
281
     0
  0
CLASS
  1
LAYOUT
  2
AcDbLayout
  3
ObjectDBX Classes
 90
        0
280
     0
281
     0
  0
ENDSEC
  0
SECTION
  2
TABLES
  0
TABLE
  2
VPORT
  5
8
330
0
100
AcDbSymbolTable
 70
     1
  0
VPORT
  5
29
330
8
100
AcDbSymbolTableRecord
100
AcDbViewportTableRecord
  2
*ACTIVE
 70
     0
 10
0.0
 20
0.0
 11
1.0
 21
1.0
 12
1626.000000000562
 22
2239.5
 13
0.0
 23
0.0
 14
10.0
 24
10.0
 15
10.0
 25
10.0
 16
0.0
 26
0.0
 36
1.0
 17
0.0
 27
0.0
 37
0.0
 40
4200.000000000001
 41
0.6500000000000008
 42
50.0
 43
0.0
 44
0.0
 50
0.0
 51
0.0
 71
     0
 72
  1000
 73
     1
 74
     3
 75
     0
 76
     0
 77
     0
 78
     0
  0
ENDTAB
  0
TABLE
  2
LTYPE
  5
5
330
0
100
AcDbSymbolTable
 70
     7
  0
LTYPE
  5
14
330
5
100
AcDbSymbolTableRecord
100
AcDbLinetypeTableRecord
  2
BYBLOCK
 70
     0
  3

 72
    65
 73
     0
 40
0.0
  0
LTYPE
  5
15
330
5
100
AcDbSymbolTableRecord
100
AcDbLinetypeTableRecord
  2
BYLAYER
 70
     0
  3

 72
    65
 73
     0
 40
0.0
  0
LTYPE
  5
16
330
5
100
AcDbSymbolTableRecord
100
AcDbLinetypeTableRecord
  2
CONTINUOUS
 70
     0
  3
Solid line
 72
    65
 73
     0
 40
0.0
  0
LTYPE
  5
40
330
5
100
AcDbSymbolTableRecord
100
AcDbLinetypeTableRecord
  2
EXLTYPE1
 70
     0
  3
破線
 72
    65
 73
     2
 40
3.0
 49
2.0
 74
     0
 49
-1.0
 74
     0
  0
LTYPE
  5
41
330
5
100
AcDbSymbolTableRecord
100
AcDbLinetypeTableRecord
  2
EXLTYPE2
 70
     0
  3
点線
 72
    65
 73
     2
 40
2.0
 49
1.0
 74
     0
 49
-1.0
 74
     0
  0
LTYPE
  5
42
330
5
100
AcDbSymbolTableRecord
100
AcDbLinetypeTableRecord
  2
EXLTYPE3
 70
     0
  3
一点鎖線
 72
    65
 73
     4
 40
10.0
 49
7.0
 74
     0
 49
-1.0
 74
     0
 49
1.0
 74
     0
 49
-1.0
 74
     0
  0
LTYPE
  5
43
330
5
100
AcDbSymbolTableRecord
100
AcDbLinetypeTableRecord
  2
EXLTYPE4
 70
     0
  3
二点鎖線
 72
    65
 73
     6
 40
12.0
 49
7.0
 74
     0
 49
-1.0
 74
     0
 49
1.0
 74
     0
 49
-1.0
 74
     0
 49
1.0
 74
     0
 49
-1.0
 74
     0
  0
LTYPE
  5
44
330
5
100
AcDbSymbolTableRecord
100
AcDbLinetypeTableRecord
  2
EXLTYPE5
 70
     0
  3
三点鎖線
 72
    65
 73
     8
 40
37.0
 49
30.0
 74
     0
 49
-1.0
 74
     0
 49
1.0
 74
     0
 49
-1.0
 74
     0
 49
1.0
 74
     0
 49
-1.0
 74
     0
 49
1.0
 74
     0
 49
-1.0
 74
     0
  0
LTYPE
  5
45
330
5
100
AcDbSymbolTableRecord
100
AcDbLinetypeTableRecord
  2
EXLTYPE6
 70
     0
  3
四点鎖線
 72
    65
 73
    10
 40
39.0
 49
30.0
 74
     0
 49
-1.0
 74
     0
 49
1.0
 74
     0
 49
-1.0
 74
     0
 49
1.0
 74
     0
 49
-1.0
 74
     0
 49
1.0
 74
     0
 49
-1.0
 74
     0
 49
1.0
 74
     0
 49
-1.0
 74
     0
  0
ENDTAB
  0
TABLE
  2
LAYER
  5
2
330
0
100
AcDbSymbolTable
 70
     7
  0
LAYER
  5
10
330
2
100
AcDbSymbolTableRecord
100
AcDbLayerTableRecord
  2
0
 70
     0
 62
     7
  6
CONTINUOUS
  0
LAYER
  5
48
330
2
100
AcDbSymbolTableRecord
100
AcDbLayerTableRecord
  2
枠_表
 70
     0
 62
     7
  6
CONTINUOUS
  0
LAYER
  5
49
330
2
100
AcDbSymbolTableRecord
100
AcDbLayerTableRecord
  2
化粧台
 70
     0
 62
     7
  6
CONTINUOUS
  0
LAYER
  5
4A
330
2
100
AcDbSymbolTableRecord
100
AcDbLayerTableRecord
  2
鏡台
 70
     0
 62
     7
  6
CONTINUOUS
  0
LAYER
  5
4B
330
2
100
AcDbSymbolTableRecord
100
AcDbLayerTableRecord
  2
付属金具
 70
     0
 62
     7
  6
CONTINUOUS
  0
LAYER
  5
4C
330
2
100
AcDbSymbolTableRecord
100
AcDbLayerTableRecord
  2
寸法
 70
     0
 62
     7
  6
CONTINUOUS
  0
LAYER
  5
470
330
2
100
AcDbSymbolTableRecord
100
AcDbLayerTableRecord
  2
DEFPOINTS
 70
     0
 62
     7
  6
CONTINUOUS
  0
ENDTAB
  0
TABLE
  2
STYLE
  5
3
330
0
100
AcDbSymbolTable
 70
     5
  0
STYLE
  5
11
330
3
100
AcDbSymbolTableRecord
100
AcDbTextStyleTableRecord
  2
STANDARD
 70
     0
 40
0.0
 41
1.0
 50
0.0
 71
     0
 42
2.5
  3
monotxt
  4
extfont
  0
STYLE
  5
46
330
3
100
AcDbSymbolTableRecord
100
AcDbTextStyleTableRecord
  2
EXCADSTD
 70
     0
 40
0.0
 41
1.0
 50
0.0
 71
     0
 42
0.2
  3
monotxt
  4
extfont
  0
STYLE
  5
47
330
3
100
AcDbSymbolTableRecord
100
AcDbTextStyleTableRecord
  2
EXCADVERT
 70
     4
 40
0.0
 41
1.0
 50
0.0
 71
     0
 42
0.286885
  3
monotxt
  4
extfont
  0
STYLE
  5
AF
330
3
100
AcDbSymbolTableRecord
100
AcDbTextStyleTableRecord
  2
EXCADTTF1
 70
     0
 40
0.0
 41
1.0
 50
0.0
 71
     0
 42
0.2
  3
MSGOTHIC.TTC
  4

1001
ACAD
1000
MS Gothic
1071
    32817
  0
STYLE
  5
46E
330
3
100
AcDbSymbolTableRecord
100
AcDbTextStyleTableRecord
  2
EXCADDIM1
 70
     0
 40
0.0
 41
0.84
 50
0.0
 71
     0
 42
0.2
  3
monotxt
  4
extfont
  0
ENDTAB
  0
TABLE
  2
VIEW
  5
6
330
0
100
AcDbSymbolTable
 70
     0
  0
ENDTAB
  0
TABLE
  2
UCS
  5
7
330
0
100
AcDbSymbolTable
 70
     0
  0
ENDTAB
  0
TABLE
  2
APPID
  5
9
330
0
100
AcDbSymbolTable
 70
     1
  0
APPID
  5
12
330
9
100
AcDbSymbolTableRecord
100
AcDbRegAppTableRecord
  2
ACAD
 70
     0
  0
ENDTAB
  0
TABLE
  2
DIMSTYLE
  5
A
330
0
100
AcDbSymbolTable
 70
     1
  0
DIMSTYLE
105
27
102
{ACAD_REACTORS
330
46F
330
47C
330
488
330
495
330
4A3
330
4AF
330
4BB
330
4C8
330
4D7
330
4E3
330
4EF
330
503
330
510
330
51D
102
}
330
A
100
AcDbSymbolTableRecord
100
AcDbDimStyleTableRecord
  2
ISO-25
 70
     0
  3

  4

  5

  6

  7

 40
1.0
 41
2.5
 42
0.625
 43
3.75
 44
1.25
 45
0.0
 46
0.0
 47
0.0
 48
0.0
140
2.5
141
2.5
142
0.0
143
0.03937007874016
144
1.0
145
0.0
146
1.0
147
0.625
 71
     0
 72
     0
 73
     0
 74
     0
 75
     0
 76
     0
 77
     1
 78
     8
170
     0
171
     3
172
     1
173
     0
174
     0
175
     0
176
     0
177
     0
178
     0
270
     2
271
     2
272
     2
273
     2
274
     3
340
11
275
     0
280
     0
281
     0
282
     0
283
     0
284
     8
285
     0
286
     0
287
     5
288
     0
  0
ENDTAB
  0
TABLE
  2
BLOCK_RECORD
  5
1
330
0
100
AcDbSymbolTable
 70
    29
  0
BLOCK_RECORD
  5
1F
330
1
100
AcDbSymbolTableRecord
100
AcDbBlockTableRecord
  2
*MODEL_SPACE
  0
BLOCK_RECORD
  5
1B
330
1
100
AcDbSymbolTableRecord
100
AcDbBlockTableRecord
  2
*PAPER_SPACE
  0
BLOCK_RECORD
  5
4D
330
1
100
AcDbSymbolTableRecord
100
AcDbBlockTableRecord
  2
EX_NORM
  0
BLOCK_RECORD
  5
50
330
1
100
AcDbSymbolTableRecord
100
AcDbBlockTableRecord
  2
EX_BNORM
  0
BLOCK_RECORD
  5
53
330
1
100
AcDbSymbolTableRecord
100
AcDbBlockTableRecord
  2
EX_BCIR
  0
BLOCK_RECORD
  5
56
330
1
100
AcDbSymbolTableRecord
100
AcDbBlockTableRecord
  2
EX_RCIVIL
  0
BLOCK_RECORD
  5
59
330
1
100
AcDbSymbolTableRecord
100
AcDbBlockTableRecord
  2
EX_SLANT
  0
BLOCK_RECORD
  5
5C
330
1
100
AcDbSymbolTableRecord
100
AcDbBlockTableRecord
  2
EX_NONE
  0
BLOCK_RECORD
  5
5F
330
1
100
AcDbSymbolTableRecord
100
AcDbBlockTableRecord
  2
EX_CIVIL
  0
BLOCK_RECORD
  5
62
330
1
100
AcDbSymbolTableRecord
100
AcDbBlockTableRecord
  2
EX_WCIR
  0
BLOCK_RECORD
  5
65
330
1
100
AcDbSymbolTableRecord
100
AcDbBlockTableRecord
  2
EX_WCIR2
  0
BLOCK_RECORD
  5
68
330
1
100
AcDbSymbolTableRecord
100
AcDbBlockTableRecord
  2
EX_WNORM
  0
BLOCK_RECORD
  5
6B
330
1
100
AcDbSymbolTableRecord
100
AcDbBlockTableRecord
  2
EX_NNORM
  0
BLOCK_RECORD
  5
6E
330
1
100
AcDbSymbolTableRecord
100
AcDbBlockTableRecord
  2
EX_BBOX
  0
BLOCK_RECORD
  5
71
330
1
100
AcDbSymbolTableRecord
100
AcDbBlockTableRecord
  2
EX_WBOX
  0
BLOCK_RECORD
  5
74
330
1
100
AcDbSymbolTableRecord
100
AcDbBlockTableRecord
  2
EX_INTEGRAL
  0
BLOCK_RECORD
  5
471
330
1
100
AcDbSymbolTableRecord
100
AcDbBlockTableRecord
  2
*D15
  0
BLOCK_RECORD
  5
47D
330
1
100
AcDbSymbolTableRecord
100
AcDbBlockTableRecord
  2
*D16
  0
BLOCK_RECORD
  5
489
330
1
100
AcDbSymbolTableRecord
100
AcDbBlockTableRecord
  2
*D17
  0
BLOCK_RECORD
  5
496
330
1
100
AcDbSymbolTableRecord
100
AcDbBlockTableRecord
  2
*D18
  0
BLOCK_RECORD
  5
4A4
330
1
100
AcDbSymbolTableRecord
100
AcDbBlockTableRecord
  2
*D19
  0
BLOCK_RECORD
  5
4B0
330
1
100
AcDbSymbolTableRecord
100
AcDbBlockTableRecord
  2
*D20
  0
BLOCK_RECORD
  5
4BC
330
1
100
AcDbSymbolTableRecord
100
AcDbBlockTableRecord
  2
*D21
  0
BLOCK_RECORD
  5
4C9
330
1
100
AcDbSymbolTableRecord
100
AcDbBlockTableRecord
  2
*D22
  0
BLOCK_RECORD
  5
4D8
330
1
100
AcDbSymbolTableRecord
100
AcDbBlockTableRecord
  2
*D23
  0
BLOCK_RECORD
  5
4E4
330
1
100
AcDbSymbolTableRecord
100
AcDbBlockTableRecord
  2
*D24
  0
BLOCK_RECORD
  5
4F0
330
1
100
AcDbSymbolTableRecord
100
AcDbBlockTableRecord
  2
*D25
  0
BLOCK_RECORD
  5
504
330
1
100
AcDbSymbolTableRecord
100
AcDbBlockTableRecord
  2
*D26
  0
BLOCK_RECORD
  5
511
330
1
100
AcDbSymbolTableRecord
100
AcDbBlockTableRecord
  2
*D27
  0
BLOCK_RECORD
  5
51E
330
1
100
AcDbSymbolTableRecord
100
AcDbBlockTableRecord
  2
*D28
  0
ENDTAB
  0
ENDSEC
  0
SECTION
  2
BLOCKS
  0
BLOCK
  5
20
330
1F
100
AcDbEntity
  8
0
100
AcDbBlockBegin
  2
*MODEL_SPACE
 70
     0
 10
0.0
 20
0.0
 30
0.0
  3
*MODEL_SPACE
  1

  0
ENDBLK
  5
21
330
1F
100
AcDbEntity
  8
0
100
AcDbBlockEnd
  0
BLOCK
  5
1C
330
1B
100
AcDbEntity
 67
     1
  8
0
100
AcDbBlockBegin
  2
*PAPER_SPACE
 70
     0
 10
0.0
 20
0.0
 30
0.0
  3
*PAPER_SPACE
  1

  0
ENDBLK
  5
1D
330
1B
100
AcDbEntity
 67
     1
  8
0
100
AcDbBlockEnd
  0
BLOCK
  5
4E
330
4D
100
AcDbEntity
  8
0
100
AcDbBlockBegin
  2
EX_NORM
 70
     0
 10
0.0
 20
0.0
 30
0.0
  3
EX_NORM
  1

  0
LINE
  5
77
330
4D
100
AcDbEntity
  8
0
  6
CONTINUOUS
 62
     0
100
AcDbLine
 10
0.0
 20
0.0
 30
0.0
 11
-1.0
 21
0.0
 31
0.0
  0
LINE
  5
78
330
4D
100
AcDbEntity
  8
0
  6
CONTINUOUS
 62
     0
100
AcDbLine
 10
0.0
 20
0.0
 30
0.0
 11
-1.0
 21
0.166666667
 31
0.0
  0
LINE
  5
79
330
4D
100
AcDbEntity
  8
0
  6
CONTINUOUS
 62
     0
100
AcDbLine
 10
0.0
 20
0.0
 30
0.0
 11
-1.0
 21
-0.166666667
 31
0.0
  0
ENDBLK
  5
4F
330
4D
100
AcDbEntity
  8
0
100
AcDbBlockEnd
  0
BLOCK
  5
51
330
50
100
AcDbEntity
  8
0
100
AcDbBlockBegin
  2
EX_BNORM
 70
     0
 10
0.0
 20
0.0
 30
0.0
  3
EX_BNORM
  1

  0
LINE
  5
7A
330
50
100
AcDbEntity
  8
0
  6
CONTINUOUS
 62
     0
100
AcDbLine
 10
0.0
 20
0.0
 30
0.0
 11
-1.0
 21
0.0
 31
0.0
  0
LINE
  5
7B
330
50
100
AcDbEntity
  8
0
  6
CONTINUOUS
 62
     0
100
AcDbLine
 10
0.0
 20
0.0
 30
0.0
 11
-1.0
 21
0.166666667
 31
0.0
  0
LINE
  5
7C
330
50
100
AcDbEntity
  8
0
  6
CONTINUOUS
 62
     0
100
AcDbLine
 10
0.0
 20
0.0
 30
0.0
 11
-1.0
 21
-0.166666667
 31
0.0
  0
LINE
  5
7D
330
50
100
AcDbEntity
  8
0
  6
CONTINUOUS
 62
     0
100
AcDbLine
 10
0.0
 20
0.0
 30
0.0
 11
-1.0
 21
0.083333333
 31
0.0
  0
LINE
  5
7E
330
50
100
AcDbEntity
  8
0
  6
CONTINUOUS
 62
     0
100
AcDbLine
 10
0.0
 20
0.0
 30
0.0
 11
-1.0
 21
-0.083333333
 31
0.0
  0
LINE
  5
7F
330
50
100
AcDbEntity
  8
0
  6
CONTINUOUS
 62
     0
100
AcDbLine
 10
-1.0
 20
0.166666667
 30
0.0
 11
-1.0
 21
-0.166666667
 31
0.0
  0
ENDBLK
  5
52
330
50
100
AcDbEntity
  8
0
100
AcDbBlockEnd
  0
BLOCK
  5
54
330
53
100
AcDbEntity
  8
0
100
AcDbBlockBegin
  2
EX_BCIR
 70
     0
 10
0.0
 20
0.0
 30
0.0
  3
EX_BCIR
  1

  0
LINE
  5
80
330
53
100
AcDbEntity
  8
0
  6
CONTINUOUS
 62
     0
100
AcDbLine
 10
0.0
 20
0.0
 30
0.0
 11
-1.0
 21
0.0
 31
0.0
  0
CIRCLE
  5
81
330
53
100
AcDbEntity
  8
0
  6
CONTINUOUS
 62
     0
100
AcDbCircle
 10
0.0
 20
0.0
 30
0.0
 40
0.5
  0
CIRCLE
  5
82
330
53
100
AcDbEntity
  8
0
  6
CONTINUOUS
 62
     0
100
AcDbCircle
 10
0.0
 20
0.0
 30
0.0
 40
0.25
  0
ENDBLK
  5
55
330
53
100
AcDbEntity
  8
0
100
AcDbBlockEnd
  0
BLOCK
  5
57
330
56
100
AcDbEntity
  8
0
100
AcDbBlockBegin
  2
EX_RCIVIL
 70
     0
 10
0.0
 20
0.0
 30
0.0
  3
EX_RCIVIL
  1

  0
LINE
  5
83
330
56
100
AcDbEntity
  8
0
  6
CONTINUOUS
 62
     0
100
AcDbLine
 10
0.0
 20
0.0
 30
0.0
 11
-1.0
 21
0.0
 31
0.0
  0
LINE
  5
84
330
56
100
AcDbEntity
  8
0
  6
CONTINUOUS
 62
     0
100
AcDbLine
 10
-1.0
 20
-0.25
 30
0.0
 11
0.0
 21
-0.25
 31
0.0
  0
LINE
  5
85
330
56
100
AcDbEntity
  8
0
  6
CONTINUOUS
 62
     0
100
AcDbLine
 10
-1.0
 20
-0.125
 30
0.0
 11
0.0
 21
-0.125
 31
0.0
  0
ENDBLK
  5
58
330
56
100
AcDbEntity
  8
0
100
AcDbBlockEnd
  0
BLOCK
  5
5A
330
59
100
AcDbEntity
  8
0
100
AcDbBlockBegin
  2
EX_SLANT
 70
     0
 10
0.0
 20
0.0
 30
0.0
  3
EX_SLANT
  1

  0
LINE
  5
86
330
59
100
AcDbEntity
  8
0
  6
CONTINUOUS
 62
     0
100
AcDbLine
 10
0.0
 20
0.0
 30
0.0
 11
-1.0
 21
0.0
 31
0.0
  0
LINE
  5
87
330
59
100
AcDbEntity
  8
0
  6
CONTINUOUS
 62
     0
100
AcDbLine
 10
0.707106781
 20
0.707106781
 30
0.0
 11
-0.707106781
 21
-0.707106781
 31
0.0
  0
ENDBLK
  5
5B
330
59
100
AcDbEntity
  8
0
100
AcDbBlockEnd
  0
BLOCK
  5
5D
330
5C
100
AcDbEntity
  8
0
100
AcDbBlockBegin
  2
EX_NONE
 70
     0
 10
0.0
 20
0.0
 30
0.0
  3
EX_NONE
  1

  0
LINE
  5
88
330
5C
100
AcDbEntity
  8
0
  6
CONTINUOUS
 62
     0
100
AcDbLine
 10
0.0
 20
0.0
 30
0.0
 11
-1.0
 21
0.0
 31
0.0
  0
ENDBLK
  5
5E
330
5C
100
AcDbEntity
  8
0
100
AcDbBlockEnd
  0
BLOCK
  5
60
330
5F
100
AcDbEntity
  8
0
100
AcDbBlockBegin
  2
EX_CIVIL
 70
     0
 10
0.0
 20
0.0
 30
0.0
  3
EX_CIVIL
  1

  0
LINE
  5
89
330
5F
100
AcDbEntity
  8
0
  6
CONTINUOUS
 62
     0
100
AcDbLine
 10
0.0
 20
0.0
 30
0.0
 11
-1.0
 21
0.0
 31
0.0
  0
LINE
  5
8A
330
5F
100
AcDbEntity
  8
0
  6
CONTINUOUS
 62
     0
100
AcDbLine
 10
-1.0
 20
0.25
 30
0.0
 11
0.0
 21
0.25
 31
0.0
  0
LINE
  5
8B
330
5F
100
AcDbEntity
  8
0
  6
CONTINUOUS
 62
     0
100
AcDbLine
 10
-1.0
 20
0.125
 30
0.0
 11
0.0
 21
0.125
 31
0.0
  0
ENDBLK
  5
61
330
5F
100
AcDbEntity
  8
0
100
AcDbBlockEnd
  0
BLOCK
  5
63
330
62
100
AcDbEntity
  8
0
100
AcDbBlockBegin
  2
EX_WCIR
 70
     0
 10
0.0
 20
0.0
 30
0.0
  3
EX_WCIR
  1

  0
LINE
  5
8C
330
62
100
AcDbEntity
  8
0
  6
CONTINUOUS
 62
     0
100
AcDbLine
 10
0.0
 20
0.0
 30
0.0
 11
-1.0
 21
0.0
 31
0.0
  0
CIRCLE
  5
8D
330
62
100
AcDbEntity
  8
0
  6
CONTINUOUS
 62
     0
100
AcDbCircle
 10
0.0
 20
0.0
 30
0.0
 40
0.5
  0
ENDBLK
  5
64
330
62
100
AcDbEntity
  8
0
100
AcDbBlockEnd
  0
BLOCK
  5
66
330
65
100
AcDbEntity
  8
0
100
AcDbBlockBegin
  2
EX_WCIR2
 70
     0
 10
0.0
 20
0.0
 30
0.0
  3
EX_WCIR2
  1

  0
LINE
  5
8E
330
65
100
AcDbEntity
  8
0
  6
CONTINUOUS
 62
     0
100
AcDbLine
 10
-0.5
 20
0.0
 30
0.0
 11
-1.0
 21
0.0
 31
0.0
  0
CIRCLE
  5
8F
330
65
100
AcDbEntity
  8
0
  6
CONTINUOUS
 62
     0
100
AcDbCircle
 10
0.0
 20
0.0
 30
0.0
 40
0.5
  0
ENDBLK
  5
67
330
65
100
AcDbEntity
  8
0
100
AcDbBlockEnd
  0
BLOCK
  5
69
330
68
100
AcDbEntity
  8
0
100
AcDbBlockBegin
  2
EX_WNORM
 70
     0
 10
0.0
 20
0.0
 30
0.0
  3
EX_WNORM
  1

  0
LINE
  5
90
330
68
100
AcDbEntity
  8
0
  6
CONTINUOUS
 62
     0
100
AcDbLine
 10
-1.0
 20
0.0
 30
0.0
 11
-1.0
 21
0.0
 31
0.0
  0
LINE
  5
91
330
68
100
AcDbEntity
  8
0
  6
CONTINUOUS
 62
     0
100
AcDbLine
 10
0.0
 20
0.0
 30
0.0
 11
-1.0
 21
0.166666667
 31
0.0
  0
LINE
  5
92
330
68
100
AcDbEntity
  8
0
  6
CONTINUOUS
 62
     0
100
AcDbLine
 10
0.0
 20
0.0
 30
0.0
 11
-1.0
 21
-0.166666667
 31
0.0
  0
LINE
  5
93
330
68
100
AcDbEntity
  8
0
  6
CONTINUOUS
 62
     0
100
AcDbLine
 10
-1.0
 20
0.166666667
 30
0.0
 11
-1.0
 21
-0.166666667
 31
0.0
  0
ENDBLK
  5
6A
330
68
100
AcDbEntity
  8
0
100
AcDbBlockEnd
  0
BLOCK
  5
6C
330
6B
100
AcDbEntity
  8
0
100
AcDbBlockBegin
  2
EX_NNORM
 70
     0
 10
0.0
 20
0.0
 30
0.0
  3
EX_NNORM
  1

  0
LINE
  5
94
330
6B
100
AcDbEntity
  8
0
  6
CONTINUOUS
 62
     0
100
AcDbLine
 10
0.0
 20
0.0
 30
0.0
 11
-1.0
 21
0.0
 31
0.0
  0
LINE
  5
95
330
6B
100
AcDbEntity
  8
0
  6
CONTINUOUS
 62
     0
100
AcDbLine
 10
0.0
 20
0.0
 30
0.0
 11
-1.0
 21
0.166666667
 31
0.0
  0
LINE
  5
96
330
6B
100
AcDbEntity
  8
0
  6
CONTINUOUS
 62
     0
100
AcDbLine
 10
0.0
 20
0.0
 30
0.0
 11
-1.0
 21
-0.166666667
 31
0.0
  0
LINE
  5
97
330
6B
100
AcDbEntity
  8
0
  6
CONTINUOUS
 62
     0
100
AcDbLine
 10
-1.0
 20
0.166666667
 30
0.0
 11
-1.0
 21
-0.166666667
 31
0.0
  0
ENDBLK
  5
6D
330
6B
100
AcDbEntity
  8
0
100
AcDbBlockEnd
  0
BLOCK
  5
6F
330
6E
100
AcDbEntity
  8
0
100
AcDbBlockBegin
  2
EX_BBOX
 70
     0
 10
0.0
 20
0.0
 30
0.0
  3
EX_BBOX
  1

  0
LINE
  5
98
330
6E
100
AcDbEntity
  8
0
  6
CONTINUOUS
 62
     0
100
AcDbLine
 10
0.0
 20
0.0
 30
0.0
 11
-1.0
 21
0.0
 31
0.0
  0
LINE
  5
99
330
6E
100
AcDbEntity
  8
0
  6
CONTINUOUS
 62
     0
100
AcDbLine
 10
-0.5
 20
0.5
 30
0.0
 11
0.5
 21
0.5
 31
0.0
  0
LINE
  5
9A
330
6E
100
AcDbEntity
  8
0
  6
CONTINUOUS
 62
     0
100
AcDbLine
 10
0.5
 20
0.5
 30
0.0
 11
0.5
 21
-0.5
 31
0.0
  0
LINE
  5
9B
330
6E
100
AcDbEntity
  8
0
  6
CONTINUOUS
 62
     0
100
AcDbLine
 10
0.5
 20
-0.5
 30
0.0
 11
-0.5
 21
-0.5
 31
0.0
  0
LINE
  5
9C
330
6E
100
AcDbEntity
  8
0
  6
CONTINUOUS
 62
     0
100
AcDbLine
 10
-0.5
 20
-0.5
 30
0.0
 11
-0.5
 21
0.5
 31
0.0
  0
LINE
  5
9D
330
6E
100
AcDbEntity
  8
0
  6
CONTINUOUS
 62
     0
100
AcDbLine
 10
-0.25
 20
0.25
 30
0.0
 11
0.25
 21
0.25
 31
0.0
  0
LINE
  5
9E
330
6E
100
AcDbEntity
  8
0
  6
CONTINUOUS
 62
     0
100
AcDbLine
 10
0.25
 20
0.25
 30
0.0
 11
0.25
 21
-0.25
 31
0.0
  0
LINE
  5
9F
330
6E
100
AcDbEntity
  8
0
  6
CONTINUOUS
 62
     0
100
AcDbLine
 10
0.25
 20
-0.25
 30
0.0
 11
-0.25
 21
-0.25
 31
0.0
  0
LINE
  5
A0
330
6E
100
AcDbEntity
  8
0
  6
CONTINUOUS
 62
     0
100
AcDbLine
 10
-0.25
 20
-0.25
 30
0.0
 11
-0.25
 21
0.25
 31
0.0
  0
ENDBLK
  5
70
330
6E
100
AcDbEntity
  8
0
100
AcDbBlockEnd
  0
BLOCK
  5
72
330
71
100
AcDbEntity
  8
0
100
AcDbBlockBegin
  2
EX_WBOX
 70
     0
 10
0.0
 20
0.0
 30
0.0
  3
EX_WBOX
  1

  0
LINE
  5
A1
330
71
100
AcDbEntity
  8
0
  6
CONTINUOUS
 62
     0
100
AcDbLine
 10
-0.5
 20
0.0
 30
0.0
 11
-1.0
 21
0.0
 31
0.0
  0
LINE
  5
A2
330
71
100
AcDbEntity
  8
0
  6
CONTINUOUS
 62
     0
100
AcDbLine
 10
-0.5
 20
0.5
 30
0.0
 11
0.5
 21
0.5
 31
0.0
  0
LINE
  5
A3
330
71
100
AcDbEntity
  8
0
  6
CONTINUOUS
 62
     0
100
AcDbLine
 10
0.5
 20
0.5
 30
0.0
 11
0.5
 21
-0.5
 31
0.0
  0
LINE
  5
A4
330
71
100
AcDbEntity
  8
0
  6
CONTINUOUS
 62
     0
100
AcDbLine
 10
0.5
 20
-0.5
 30
0.0
 11
-0.5
 21
-0.5
 31
0.0
  0
LINE
  5
A5
330
71
100
AcDbEntity
  8
0
  6
CONTINUOUS
 62
     0
100
AcDbLine
 10
-0.5
 20
-0.5
 30
0.0
 11
-0.5
 21
0.5
 31
0.0
  0
ENDBLK
  5
73
330
71
100
AcDbEntity
  8
0
100
AcDbBlockEnd
  0
BLOCK
  5
75
330
74
100
AcDbEntity
  8
0
100
AcDbBlockBegin
  2
EX_INTEGRAL
 70
     0
 10
0.0
 20
0.0
 30
0.0
  3
EX_INTEGRAL
  1

  0
LINE
  5
A6
330
74
100
AcDbEntity
  8
0
  6
CONTINUOUS
 62
     0
100
AcDbLine
 10
0.0
 20
0.0
 30
0.0
 11
-1.0
 21
0.0
 31
0.0
  0
ARC
  5
A7
330
74
100
AcDbEntity
  8
0
  6
CONTINUOUS
 62
     0
100
AcDbCircle
 10
0.542115
 20
0.164992
 30
0.0
 40
0.56667
100
AcDbArc
 50
73.07249033629006
 51
196.9275130221199
  0
ARC
  5
A8
330
74
100
AcDbEntity
  8
0
  6
CONTINUOUS
 62
     0
100
AcDbCircle
 10
-0.542115
 20
-0.164992
 30
0.0
 40
0.56667
100
AcDbArc
 50
253.0724869220464
 51
16.9275130559125
  0
ENDBLK
  5
76
330
74
100
AcDbEntity
  8
0
100
AcDbBlockEnd
  0
BLOCK
  5
472
330
471
100
AcDbEntity
  8
0
100
AcDbBlockBegin
  2
*D15
 70
     1
 10
0.0
 20
0.0
 30
0.0
  3
*D15
  1

  0
LINE
  5
474
330
471
100
AcDbEntity
  8
寸法
  6
CONTINUOUS
 62
     3
100
AcDbLine
 10
1266.499999821745
 20
2419.5
 30
0.0
 11
1396.00000000061
 21
2419.5
 31
0.0
  0
LINE
  5
475
330
471
100
AcDbEntity
  8
寸法
  6
CONTINUOUS
 62
     3
100
AcDbLine
 10
1381.00000000061
 20
2464.499996185303
 30
0.0
 11
1381.00000000061
 21
2674.500003814697
 31
0.0
  0
INSERT
  5
476
330
471
100
AcDbEntity
  8
寸法
 62
     3
100
AcDbBlockReference
  2
EX_NORM
 10
1381.00000000061
 20
2419.5
 30
0.0
 41
44.99999618530273
 42
44.99999618530273
 43
44.99999618530273
 50
270.0
  0
INSERT
  5
477
330
471
100
AcDbEntity
  8
寸法
 62
     3
100
AcDbBlockReference
  2
EX_NORM
 10
1381.00000000061
 20
2719.5
 30
0.0
 41
44.99999618530273
 42
44.99999618530273
 43
44.99999618530273
 50
90.0
  0
MTEXT
  5
478
330
471
100
AcDbEntity
  8
寸法
 62
     2
100
AcDbMText
 10
1345.750000090016
 20
2569.499999999999
 30
0.0
 40
59.99999618530273
 41
0.0
 71
     5
 72
     1
  1
300
  7
EXCADDIM1
 11
0.0
 21
1.0
 31
0.0
  0
POINT
  5
479
330
471
100
AcDbEntity
  8
DEFPOINTS
 62
     0
100
AcDbPoint
 10
1256.000000000559
 20
2419.5
 30
0.0
  0
POINT
  5
47A
330
471
100
AcDbEntity
  8
DEFPOINTS
 62
     0
100
AcDbPoint
 10
1261.000000000559
 20
2719.5
 30
0.0
  0
POINT
  5
47B
330
471
100
AcDbEntity
  8
DEFPOINTS
 62
     0
100
AcDbPoint
 10
1381.00000000061
 20
2719.5
 30
0.0
  0
ENDBLK
  5
473
330
471
100
AcDbEntity
  8
0
100
AcDbBlockEnd
  0
BLOCK
  5
47E
330
47D
100
AcDbEntity
  8
0
100
AcDbBlockBegin
  2
*D16
 70
     1
 10
0.0
 20
0.0
 30
0.0
  3
*D16
  1

  0
LINE
  5
480
330
47D
100
AcDbEntity
  8
寸法
  6
CONTINUOUS
 62
     3
100
AcDbLine
 10
971.4999998217469
 20
2349.5
 30
0.0
 11
1486.00000000061
 21
2349.5
 31
0.0
  0
LINE
  5
481
330
47D
100
AcDbEntity
  8
寸法
  6
CONTINUOUS
 62
     3
100
AcDbLine
 10
1471.00000000061
 20
2394.499996185303
 30
0.0
 11
1471.00000000061
 21
2674.500003814697
 31
0.0
  0
INSERT
  5
482
330
47D
100
AcDbEntity
  8
寸法
 62
     3
100
AcDbBlockReference
  2
EX_NORM
 10
1471.00000000061
 20
2349.5
 30
0.0
 41
44.99999618530273
 42
44.99999618530273
 43
44.99999618530273
 50
270.0
  0
INSERT
  5
483
330
47D
100
AcDbEntity
  8
寸法
 62
     3
100
AcDbBlockReference
  2
EX_NORM
 10
1471.00000000061
 20
2719.5
 30
0.0
 41
44.99999618530273
 42
44.99999618530273
 43
44.99999618530273
 50
90.0
  0
MTEXT
  5
484
330
47D
100
AcDbEntity
  8
寸法
 62
     2
100
AcDbMText
 10
1435.750000090016
 20
2534.499999999998
 30
0.0
 40
59.99999618530273
 41
0.0
 71
     5
 72
     1
  1
370
  7
EXCADDIM1
 11
0.0
 21
1.0
 31
0.0
  0
POINT
  5
485
330
47D
100
AcDbEntity
  8
DEFPOINTS
 62
     0
100
AcDbPoint
 10
961.0000000005608
 20
2349.5
 30
0.0
  0
POINT
  5
486
330
47D
100
AcDbEntity
  8
DEFPOINTS
 62
     0
100
AcDbPoint
 10
1261.000000000559
 20
2719.5
 30
0.0
  0
POINT
  5
487
330
47D
100
AcDbEntity
  8
DEFPOINTS
 62
     0
100
AcDbPoint
 10
1471.00000000061
 20
2719.5
 30
0.0
  0
ENDBLK
  5
47F
330
47D
100
AcDbEntity
  8
0
100
AcDbBlockEnd
  0
BLOCK
  5
48A
330
489
100
AcDbEntity
  8
0
100
AcDbBlockBegin
  2
*D17
 70
     1
 10
0.0
 20
0.0
 30
0.0
  3
*D17
  1

  0
LINE
  5
48C
330
489
100
AcDbEntity
  8
寸法
  6
CONTINUOUS
 62
     3
100
AcDbLine
 10
661.0000000005607
 20
2414.000000178814
 30
0.0
 11
661.0000000005607
 21
2214.499999999949
 31
0.0
  0
LINE
  5
48D
330
489
100
AcDbEntity
  8
寸法
  6
CONTINUOUS
 62
     3
100
AcDbLine
 10
1261.000000000559
 20
2414.000000178814
 30
0.0
 11
1261.000000000559
 21
2214.499999999949
 31
0.0
  0
LINE
  5
48E
330
489
100
AcDbEntity
  8
寸法
  6
CONTINUOUS
 62
     3
100
AcDbLine
 10
705.9999961858634
 20
2229.499999999949
 30
0.0
 11
1216.000003815256
 21
2229.499999999949
 31
0.0
  0
INSERT
  5
48F
330
489
100
AcDbEntity
  8
寸法
 62
     3
100
AcDbBlockReference
  2
EX_NORM
 10
661.0000000005607
 20
2229.499999999949
 30
0.0
 41
44.99999618530273
 42
44.99999618530273
 43
44.99999618530273
 50
180.0
  0
INSERT
  5
490
330
489
100
AcDbEntity
  8
寸法
 62
     3
100
AcDbBlockReference
  2
EX_NORM
 10
1261.000000000559
 20
2229.499999999949
 30
0.0
 41
44.99999618530273
 42
44.99999618530273
 43
44.99999618530273
  0
MTEXT
  5
491
330
489
100
AcDbEntity
  8
寸法
 62
     2
100
AcDbMText
 10
961.00000000056
 20
2264.749999910542
 30
0.0
 40
59.99999618530273
 41
0.0
 71
     5
 72
     1
  1
600
  7
EXCADDIM1
  0
POINT
  5
492
330
489
100
AcDbEntity
  8
DEFPOINTS
 62
     0
100
AcDbPoint
 10
661.0000000005607
 20
2424.5
 30
0.0
  0
POINT
  5
493
330
489
100
AcDbEntity
  8
DEFPOINTS
 62
     0
100
AcDbPoint
 10
1261.000000000559
 20
2424.5
 30
0.0
  0
POINT
  5
494
330
489
100
AcDbEntity
  8
DEFPOINTS
 62
     0
100
AcDbPoint
 10
1261.000000000559
 20
2229.499999999949
 30
0.0
  0
ENDBLK
  5
48B
330
489
100
AcDbEntity
  8
0
100
AcDbBlockEnd
  0
BLOCK
  5
497
330
496
100
AcDbEntity
  8
0
100
AcDbBlockBegin
  2
*D18
 70
     1
 10
0.0
 20
0.0
 30
0.0
  3
*D18
  1

  0
LINE
  5
499
330
496
100
AcDbEntity
  8
寸法
  6
CONTINUOUS
 62
     3
100
AcDbLine
 10
996.0000000005607
 20
2779.999999821186
 30
0.0
 11
996.0000000005607
 21
2824.5
 31
0.0
  0
LINE
  5
49A
330
496
100
AcDbEntity
  8
寸法
  6
CONTINUOUS
 62
     3
100
AcDbLine
 10
961.0000000005608
 20
2809.5
 30
0.0
 11
996.0000000005607
 21
2809.5
 31
0.0
  0
LINE
  5
49B
330
496
100
AcDbEntity
  8
寸法
  6
CONTINUOUS
 62
     3
100
AcDbLine
 10
916.0000038152581
 20
2809.5
 30
0.0
 11
871.0000076299553
 21
2809.5
 31
0.0
  0
LINE
  5
49C
330
496
100
AcDbEntity
  8
寸法
  6
CONTINUOUS
 62
     3
100
AcDbLine
 10
1040.999996185863
 20
2809.5
 30
0.0
 11
1085.999992371166
 21
2809.5
 31
0.0
  0
INSERT
  5
49D
330
496
100
AcDbEntity
  8
寸法
 62
     3
100
AcDbBlockReference
  2
EX_NORM
 10
961.0000000005608
 20
2809.5
 30
0.0
 41
44.99999618530273
 42
44.99999618530273
 43
44.99999618530273
  0
INSERT
  5
49E
330
496
100
AcDbEntity
  8
寸法
 62
     3
100
AcDbBlockReference
  2
EX_NORM
 10
996.0000000005607
 20
2809.5
 30
0.0
 41
44.99999618530273
 42
44.99999618530273
 43
44.99999618530273
 50
180.0
  0
MTEXT
  5
49F
330
496
100
AcDbEntity
  8
寸法
 62
     2
100
AcDbMText
 10
751.0000000005612
 20
2844.749999910593
 30
0.0
 40
59.99999618530273
 41
0.0
 71
     5
 72
     1
  1
35（壁排水）
  7
EXCADDIM1
  0
POINT
  5
4A0
330
496
100
AcDbEntity
  8
DEFPOINTS
 62
     0
100
AcDbPoint
 10
961.0000000005608
 20
2719.5
 30
0.0
  0
POINT
  5
4A1
330
496
100
AcDbEntity
  8
DEFPOINTS
 62
     0
100
AcDbPoint
 10
996.0000000005607
 20
2769.5
 30
0.0
  0
POINT
  5
4A2
330
496
100
AcDbEntity
  8
DEFPOINTS
 62
     0
100
AcDbPoint
 10
996.0000000005607
 20
2809.5
 30
0.0
  0
ENDBLK
  5
498
330
496
100
AcDbEntity
  8
0
100
AcDbBlockEnd
  0
BLOCK
  5
4A5
330
4A4
100
AcDbEntity
  8
0
100
AcDbBlockBegin
  2
*D19
 70
     1
 10
0.0
 20
0.0
 30
0.0
  3
*D19
  1

  0
LINE
  5
4A7
330
4A4
100
AcDbEntity
  8
寸法
  6
CONTINUOUS
 62
     3
100
AcDbLine
 10
971.4999998217469
 20
1669.5
 30
0.0
 11
1396.000000000559
 21
1669.5
 31
0.0
  0
LINE
  5
4A8
330
4A4
100
AcDbEntity
  8
寸法
  6
CONTINUOUS
 62
     3
100
AcDbLine
 10
1381.000000000559
 20
964.4999961853028
 30
0.0
 11
1381.000000000559
 21
1624.500003814697
 31
0.0
  0
INSERT
  5
4A9
330
4A4
100
AcDbEntity
  8
寸法
 62
     3
100
AcDbBlockReference
  2
EX_NORM
 10
1381.000000000559
 20
919.5000000000001
 30
0.0
 41
44.99999618530273
 42
44.99999618530273
 43
44.99999618530273
 50
270.0
  0
INSERT
  5
4AA
330
4A4
100
AcDbEntity
  8
寸法
 62
     3
100
AcDbBlockReference
  2
EX_NORM
 10
1381.000000000559
 20
1669.5
 30
0.0
 41
44.99999618530273
 42
44.99999618530273
 43
44.99999618530273
 50
90.0
  0
MTEXT
  5
4AB
330
4A4
100
AcDbEntity
  8
寸法
 62
     2
100
AcDbMText
 10
1345.750000089965
 20
1294.499999999998
 30
0.0
 40
59.99999618530273
 41
0.0
 71
     5
 72
     1
  1
750
  7
EXCADDIM1
 11
0.0
 21
1.0
 31
0.0
  0
POINT
  5
4AC
330
4A4
100
AcDbEntity
  8
DEFPOINTS
 62
     0
100
AcDbPoint
 10
1244.500000000559
 20
919.5
 30
0.0
  0
POINT
  5
4AD
330
4A4
100
AcDbEntity
  8
DEFPOINTS
 62
     0
100
AcDbPoint
 10
961.0000000005608
 20
1669.5
 30
0.0
  0
POINT
  5
4AE
330
4A4
100
AcDbEntity
  8
DEFPOINTS
 62
     0
100
AcDbPoint
 10
1381.000000000559
 20
1669.5
 30
0.0
  0
ENDBLK
  5
4A6
330
4A4
100
AcDbEntity
  8
0
100
AcDbBlockEnd
  0
BLOCK
  5
4B1
330
4B0
100
AcDbEntity
  8
0
100
AcDbBlockBegin
  2
*D20
 70
     1
 10
0.0
 20
0.0
 30
0.0
  3
*D20
  1

  0
LINE
  5
4B3
330
4B0
100
AcDbEntity
  8
寸法
  6
CONTINUOUS
 62
     3
100
AcDbLine
 10
1266.314876946745
 20
1704.5
 30
0.0
 11
1486.000000000559
 21
1704.5
 31
0.0
  0
LINE
  5
4B4
330
4B0
100
AcDbEntity
  8
寸法
  6
CONTINUOUS
 62
     3
100
AcDbLine
 10
1471.000000000559
 20
964.4999961853028
 30
0.0
 11
1471.000000000559
 21
1659.500003814697
 31
0.0
  0
INSERT
  5
4B5
330
4B0
100
AcDbEntity
  8
寸法
 62
     3
100
AcDbBlockReference
  2
EX_NORM
 10
1471.000000000559
 20
919.5000000000001
 30
0.0
 41
44.99999618530273
 42
44.99999618530273
 43
44.99999618530273
 50
270.0
  0
INSERT
  5
4B6
330
4B0
100
AcDbEntity
  8
寸法
 62
     3
100
AcDbBlockReference
  2
EX_NORM
 10
1471.000000000559
 20
1704.5
 30
0.0
 41
44.99999618530273
 42
44.99999618530273
 43
44.99999618530273
 50
90.0
  0
MTEXT
  5
4B7
330
4B0
100
AcDbEntity
  8
寸法
 62
     2
100
AcDbMText
 10
1435.750000089965
 20
1311.999999999998
 30
0.0
 40
59.99999618530273
 41
0.0
 71
     5
 72
     1
  1
785
  7
EXCADDIM1
 11
0.0
 21
1.0
 31
0.0
  0
POINT
  5
4B8
330
4B0
100
AcDbEntity
  8
DEFPOINTS
 62
     0
100
AcDbPoint
 10
1244.500000000559
 20
919.5
 30
0.0
  0
POINT
  5
4B9
330
4B0
100
AcDbEntity
  8
DEFPOINTS
 62
     0
100
AcDbPoint
 10
1255.814877125559
 20
1704.5
 30
0.0
  0
POINT
  5
4BA
330
4B0
100
AcDbEntity
  8
DEFPOINTS
 62
     0
100
AcDbPoint
 10
1471.000000000559
 20
1704.5
 30
0.0
  0
ENDBLK
  5
4B2
330
4B0
100
AcDbEntity
  8
0
100
AcDbBlockEnd
  0
BLOCK
  5
4BD
330
4BC
100
AcDbEntity
  8
0
100
AcDbBlockBegin
  2
*D21
 70
     1
 10
0.0
 20
0.0
 30
0.0
  3
*D21
  1

  0
LINE
  5
4BF
330
4BC
100
AcDbEntity
  8
寸法
  6
CONTINUOUS
 62
     3
100
AcDbLine
 10
2406.000000000561
 20
709.5
 30
0.0
 11
2491.000000000561
 21
709.5
 31
0.0
  0
LINE
  5
4C0
330
4BC
100
AcDbEntity
  8
寸法
  6
CONTINUOUS
 62
     3
100
AcDbLine
 10
2361.000003815258
 20
709.5
 30
0.0
 11
2316.000007629955
 21
709.5
 31
0.0
  0
LINE
  5
4C1
330
4BC
100
AcDbEntity
  8
寸法
  6
CONTINUOUS
 62
     3
100
AcDbLine
 10
2535.999996185863
 20
709.5
 30
0.0
 11
2580.999992371166
 21
709.5
 31
0.0
  0
INSERT
  5
4C2
330
4BC
100
AcDbEntity
  8
寸法
 62
     3
100
AcDbBlockReference
  2
EX_NORM
 10
2406.000000000561
 20
709.5
 30
0.0
 41
44.99999618530273
 42
44.99999618530273
 43
44.99999618530273
  0
INSERT
  5
4C3
330
4BC
100
AcDbEntity
  8
寸法
 62
     3
100
AcDbBlockReference
  2
EX_NORM
 10
2491.000000000561
 20
709.5
 30
0.0
 41
44.99999618530273
 42
44.99999618530273
 43
44.99999618530273
 50
180.0
  0
MTEXT
  5
4C4
330
4BC
100
AcDbEntity
  8
寸法
 62
     2
100
AcDbMText
 10
2701.00000000056
 20
744.749999910593
 30
0.0
 40
59.99999618530273
 41
0.0
 71
     5
 72
     1
  1
85（床給水）
  7
EXCADDIM1
  0
POINT
  5
4C5
330
4BC
100
AcDbEntity
  8
DEFPOINTS
 62
     0
100
AcDbPoint
 10
2406.000000000561
 20
869.5
 30
0.0
  0
POINT
  5
4C6
330
4BC
100
AcDbEntity
  8
DEFPOINTS
 62
     0
100
AcDbPoint
 10
2491.000000000561
 20
919.4999999999991
 30
0.0
  0
POINT
  5
4C7
330
4BC
100
AcDbEntity
  8
DEFPOINTS
 62
     0
100
AcDbPoint
 10
2491.000000000561
 20
709.5
 30
0.0
  0
ENDBLK
  5
4BE
330
4BC
100
AcDbEntity
  8
0
100
AcDbBlockEnd
  0
BLOCK
  5
4CA
330
4C9
100
AcDbEntity
  8
0
100
AcDbBlockBegin
  2
*D22
 70
     1
 10
0.0
 20
0.0
 30
0.0
  3
*D22
  1

  0
LINE
  5
4CC
330
4C9
100
AcDbEntity
  8
寸法
  6
CONTINUOUS
 62
     3
100
AcDbLine
 10
2406.000000000561
 20
859.0000001788139
 30
0.0
 11
2406.000000000561
 21
604.5
 31
0.0
  0
LINE
  5
4CD
330
4C9
100
AcDbEntity
  8
寸法
  6
CONTINUOUS
 62
     3
100
AcDbLine
 10
2491.000000000561
 20
909.000000178813
 30
0.0
 11
2491.000000000561
 21
604.5
 31
0.0
  0
LINE
  5
4CE
330
4C9
100
AcDbEntity
  8
寸法
  6
CONTINUOUS
 62
     3
100
AcDbLine
 10
2406.000000000561
 20
619.5
 30
0.0
 11
2491.000000000561
 21
619.5
 31
0.0
  0
LINE
  5
4CF
330
4C9
100
AcDbEntity
  8
寸法
  6
CONTINUOUS
 62
     3
100
AcDbLine
 10
2361.000003815258
 20
619.5
 30
0.0
 11
2316.000007629955
 21
619.5
 31
0.0
  0
LINE
  5
4D0
330
4C9
100
AcDbEntity
  8
寸法
  6
CONTINUOUS
 62
     3
100
AcDbLine
 10
2535.999996185863
 20
619.5
 30
0.0
 11
2580.999992371166
 21
619.5
 31
0.0
  0
INSERT
  5
4D1
330
4C9
100
AcDbEntity
  8
寸法
 62
     3
100
AcDbBlockReference
  2
EX_NORM
 10
2406.000000000561
 20
619.5
 30
0.0
 41
44.99999618530273
 42
44.99999618530273
 43
44.99999618530273
  0
INSERT
  5
4D2
330
4C9
100
AcDbEntity
  8
寸法
 62
     3
100
AcDbBlockReference
  2
EX_NORM
 10
2491.000000000561
 20
619.5
 30
0.0
 41
44.99999618530273
 42
44.99999618530273
 43
44.99999618530273
 50
180.0
  0
MTEXT
  5
4D3
330
4C9
100
AcDbEntity
  8
寸法
 62
     2
100
AcDbMText
 10
2701.00000000056
 20
654.749999910593
 30
0.0
 40
59.99999618530273
 41
0.0
 71
     5
 72
     1
  1
85（床排水）
  7
EXCADDIM1
  0
POINT
  5
4D4
330
4C9
100
AcDbEntity
  8
DEFPOINTS
 62
     0
100
AcDbPoint
 10
2406.000000000561
 20
869.5
 30
0.0
  0
POINT
  5
4D5
330
4C9
100
AcDbEntity
  8
DEFPOINTS
 62
     0
100
AcDbPoint
 10
2491.000000000561
 20
919.4999999999991
 30
0.0
  0
POINT
  5
4D6
330
4C9
100
AcDbEntity
  8
DEFPOINTS
 62
     0
100
AcDbPoint
 10
2491.000000000561
 20
619.5
 30
0.0
  0
ENDBLK
  5
4CB
330
4C9
100
AcDbEntity
  8
0
100
AcDbBlockEnd
  0
BLOCK
  5
4D9
330
4D8
100
AcDbEntity
  8
0
100
AcDbBlockBegin
  2
*D23
 70
     1
 10
0.0
 20
0.0
 30
0.0
  3
*D23
  1

  0
LINE
  5
4DB
330
4D8
100
AcDbEntity
  8
寸法
  6
CONTINUOUS
 62
     3
100
AcDbLine
 10
2509.499999821747
 20
1269.5
 30
0.0
 11
2626.000000000561
 21
1269.5
 31
0.0
  0
LINE
  5
4DC
330
4D8
100
AcDbEntity
  8
寸法
  6
CONTINUOUS
 62
     3
100
AcDbLine
 10
2611.000000000561
 20
964.4999961853026
 30
0.0
 11
2611.000000000561
 21
1224.500003814697
 31
0.0
  0
INSERT
  5
4DD
330
4D8
100
AcDbEntity
  8
寸法
 62
     3
100
AcDbBlockReference
  2
EX_NORM
 10
2611.000000000561
 20
919.4999999999999
 30
0.0
 41
44.99999618530273
 42
44.99999618530273
 43
44.99999618530273
 50
270.0
  0
INSERT
  5
4DE
330
4D8
100
AcDbEntity
  8
寸法
 62
     3
100
AcDbBlockReference
  2
EX_NORM
 10
2611.000000000561
 20
1269.5
 30
0.0
 41
44.99999618530273
 42
44.99999618530273
 43
44.99999618530273
 50
90.0
  0
MTEXT
  5
4DF
330
4D8
100
AcDbEntity
  8
寸法
 62
     2
100
AcDbMText
 10
2575.750000089968
 20
1106.499999999998
 30
0.0
 40
59.99999618530273
 41
0.0
 71
     5
 72
     1
  1
350（壁給水）
  7
EXCADDIM1
 11
4.724169043383025E-15
 21
1.0
 31
0.0
  0
POINT
  5
4E0
330
4D8
100
AcDbEntity
  8
DEFPOINTS
 62
     0
100
AcDbPoint
 10
2491.000000000561
 20
919.5
 30
0.0
  0
POINT
  5
4E1
330
4D8
100
AcDbEntity
  8
DEFPOINTS
 62
     0
100
AcDbPoint
 10
2499.000000000561
 20
1269.5
 30
0.0
  0
POINT
  5
4E2
330
4D8
100
AcDbEntity
  8
DEFPOINTS
 62
     0
100
AcDbPoint
 10
2611.000000000561
 20
1269.5
 30
0.0
  0
ENDBLK
  5
4DA
330
4D8
100
AcDbEntity
  8
0
100
AcDbBlockEnd
  0
BLOCK
  5
4E5
330
4E4
100
AcDbEntity
  8
0
100
AcDbBlockBegin
  2
*D24
 70
     1
 10
0.0
 20
0.0
 30
0.0
  3
*D24
  1

  0
LINE
  5
4E7
330
4E4
100
AcDbEntity
  8
寸法
  6
CONTINUOUS
 62
     3
100
AcDbLine
 10
2551.499999821747
 20
1389.5
 30
0.0
 11
2716.000000000561
 21
1389.5
 31
0.0
  0
LINE
  5
4E8
330
4E4
100
AcDbEntity
  8
寸法
  6
CONTINUOUS
 62
     3
100
AcDbLine
 10
2701.000000000561
 20
964.4999961853026
 30
0.0
 11
2701.000000000561
 21
1344.500003814697
 31
0.0
  0
INSERT
  5
4E9
330
4E4
100
AcDbEntity
  8
寸法
 62
     3
100
AcDbBlockReference
  2
EX_NORM
 10
2701.000000000561
 20
919.4999999999999
 30
0.0
 41
44.99999618530273
 42
44.99999618530273
 43
44.99999618530273
 50
270.0
  0
INSERT
  5
4EA
330
4E4
100
AcDbEntity
  8
寸法
 62
     3
100
AcDbBlockReference
  2
EX_NORM
 10
2701.000000000561
 20
1389.5
 30
0.0
 41
44.99999618530273
 42
44.99999618530273
 43
44.99999618530273
 50
90.0
  0
MTEXT
  5
4EB
330
4E4
100
AcDbEntity
  8
寸法
 62
     2
100
AcDbMText
 10
2665.750000089967
 20
1154.499999999998
 30
0.0
 40
59.99999618530273
 41
0.0
 71
     5
 72
     1
  1
470（壁排水）
  7
EXCADDIM1
 11
0.0
 21
1.0
 31
0.0
  0
POINT
  5
4EC
330
4E4
100
AcDbEntity
  8
DEFPOINTS
 62
     0
100
AcDbPoint
 10
2491.000000000561
 20
919.5
 30
0.0
  0
POINT
  5
4ED
330
4E4
100
AcDbEntity
  8
DEFPOINTS
 62
     0
100
AcDbPoint
 10
2541.000000000561
 20
1389.5
 30
0.0
  0
POINT
  5
4EE
330
4E4
100
AcDbEntity
  8
DEFPOINTS
 62
     0
100
AcDbPoint
 10
2701.000000000561
 20
1389.5
 30
0.0
  0
ENDBLK
  5
4E6
330
4E4
100
AcDbEntity
  8
0
100
AcDbBlockEnd
  0
BLOCK
  5
4F1
330
4F0
100
AcDbEntity
  8
0
100
AcDbBlockBegin
  2
*D25
 70
     1
 10
0.0
 20
0.0
 30
0.0
  3
*D25
  1

  0
LINE
  5
4F3
330
4F0
100
AcDbEntity
  8
寸法
  6
CONTINUOUS
 62
     3
100
AcDbLine
 10
2501.499999821747
 20
919.5
 30
0.0
 11
2806.000000000561
 21
919.4999999999999
 31
0.0
  0
LINE
  5
4F4
330
4F0
100
AcDbEntity
  8
寸法
  6
CONTINUOUS
 62
     3
100
AcDbLine
 10
2534.000005543747
 20
1449.5
 30
0.0
 11
2806.000000000561
 21
1449.5
 31
0.0
  0
LINE
  5
4F5
330
4F0
100
AcDbEntity
  8
寸法
  6
CONTINUOUS
 62
     3
100
AcDbLine
 10
2791.000000000561
 20
964.4999961853026
 30
0.0
 11
2791.000000000561
 21
1404.500003814697
 31
0.0
  0
INSERT
  5
4F6
330
4F0
100
AcDbEntity
  8
寸法
 62
     3
100
AcDbBlockReference
  2
EX_NORM
 10
2791.000000000561
 20
919.4999999999999
 30
0.0
 41
44.99999618530273
 42
44.99999618530273
 43
44.99999618530273
 50
270.0
  0
INSERT
  5
4F7
330
4F0
100
AcDbEntity
  8
寸法
 62
     3
100
AcDbBlockReference
  2
EX_NORM
 10
2791.000000000561
 20
1449.5
 30
0.0
 41
44.99999618530273
 42
44.99999618530273
 43
44.99999618530273
 50
90.0
  0
MTEXT
  5
4F8
330
4F0
100
AcDbEntity
  8
寸法
 62
     2
100
AcDbMText
 10
2755.750000089967
 20
1184.499999999998
 30
0.0
 40
59.99999618530273
 41
0.0
 71
     5
 72
     1
  1
530（壁固定）
  7
EXCADDIM1
 11
0.0
 21
1.0
 31
0.0
  0
POINT
  5
4F9
330
4F0
100
AcDbEntity
  8
DEFPOINTS
 62
     0
100
AcDbPoint
 10
2491.000000000561
 20
919.5
 30
0.0
  0
POINT
  5
4FA
330
4F0
100
AcDbEntity
  8
DEFPOINTS
 62
     0
100
AcDbPoint
 10
2523.500005722561
 20
1449.5
 30
0.0
  0
POINT
  5
4FB
330
4F0
100
AcDbEntity
  8
DEFPOINTS
 62
     0
100
AcDbPoint
 10
2791.000000000561
 20
1449.5
 30
0.0
  0
ENDBLK
  5
4F2
330
4F0
100
AcDbEntity
  8
0
100
AcDbBlockEnd
  0
BLOCK
  5
505
330
504
100
AcDbEntity
  8
0
100
AcDbBlockBegin
  2
*D26
 70
     1
 10
0.0
 20
0.0
 30
0.0
  3
*D26
  1

  0
LINE
  5
507
330
504
100
AcDbEntity
  8
寸法
  6
CONTINUOUS
 62
     3
100
AcDbLine
 10
766.0000000035584
 20
1435.200000178913
 30
0.0
 11
766.0000000035584
 21
1233.0
 31
0.0
  0
LINE
  5
508
330
504
100
AcDbEntity
  8
寸法
  6
CONTINUOUS
 62
     3
100
AcDbLine
 10
1156.000000000561
 20
1435.200000178913
 30
0.0
 11
1156.000000000561
 21
1233.0
 31
0.0
  0
LINE
  5
509
330
504
100
AcDbEntity
  8
寸法
  6
CONTINUOUS
 62
     3
100
AcDbLine
 10
810.9999961888611
 20
1248.0
 30
0.0
 11
1111.000003815258
 21
1248.0
 31
0.0
  0
INSERT
  5
50A
330
504
100
AcDbEntity
  8
寸法
 62
     3
100
AcDbBlockReference
  2
EX_NORM
 10
766.0000000035584
 20
1248.0
 30
0.0
 41
44.99999618530273
 42
44.99999618530273
 43
44.99999618530273
 50
180.0
  0
INSERT
  5
50B
330
504
100
AcDbEntity
  8
寸法
 62
     3
100
AcDbBlockReference
  2
EX_NORM
 10
1156.000000000561
 20
1248.0
 30
0.0
 41
44.99999618530273
 42
44.99999618530273
 43
44.99999618530273
  0
MTEXT
  5
50C
330
504
100
AcDbEntity
  8
寸法
 62
     2
100
AcDbMText
 10
961.0000000020596
 20
1283.249999910593
 30
0.0
 40
59.99999618530273
 41
0.0
 71
     5
 72
     1
  1
390（壁固定）
  7
EXCADDIM1
  0
POINT
  5
50D
330
504
100
AcDbEntity
  8
DEFPOINTS
 62
     0
100
AcDbPoint
 10
766.0000000035584
 20
1445.700000000099
 30
0.0
  0
POINT
  5
50E
330
504
100
AcDbEntity
  8
DEFPOINTS
 62
     0
100
AcDbPoint
 10
1156.000000000561
 20
1445.700000000099
 30
0.0
  0
POINT
  5
50F
330
504
100
AcDbEntity
  8
DEFPOINTS
 62
     0
100
AcDbPoint
 10
1156.000000000561
 20
1248.0
 30
0.0
  0
ENDBLK
  5
506
330
504
100
AcDbEntity
  8
0
100
AcDbBlockEnd
  0
BLOCK
  5
512
330
511
100
AcDbEntity
  8
0
100
AcDbBlockBegin
  2
*D27
 70
     1
 10
0.0
 20
0.0
 30
0.0
  3
*D27
  1

  0
LINE
  5
514
330
511
100
AcDbEntity
  8
寸法
  6
CONTINUOUS
 62
     3
100
AcDbLine
 10
961.0000000005599
 20
859.0000001787939
 30
0.0
 11
961.0000000005599
 21
694.5
 31
0.0
  0
LINE
  5
515
330
511
100
AcDbEntity
  8
寸法
  6
CONTINUOUS
 62
     3
100
AcDbLine
 10
1171.0000000006
 20
890.5000003576239
 30
0.0
 11
1171.0000000006
 21
694.5
 31
0.0
  0
LINE
  5
516
330
511
100
AcDbEntity
  8
寸法
  6
CONTINUOUS
 62
     3
100
AcDbLine
 10
1005.999996185863
 20
709.5
 30
0.0
 11
1126.000003815297
 21
709.5
 31
0.0
  0
INSERT
  5
517
330
511
100
AcDbEntity
  8
寸法
 62
     3
100
AcDbBlockReference
  2
EX_NORM
 10
961.0000000005599
 20
709.5
 30
0.0
 41
44.99999618530273
 42
44.99999618530273
 43
44.99999618530273
 50
180.0
  0
INSERT
  5
518
330
511
100
AcDbEntity
  8
寸法
 62
     3
100
AcDbBlockReference
  2
EX_NORM
 10
1171.0000000006
 20
709.5
 30
0.0
 41
44.99999618530273
 42
44.99999618530273
 43
44.99999618530273
  0
MTEXT
  5
519
330
511
100
AcDbEntity
  8
寸法
 62
     2
100
AcDbMText
 10
1388.50000000062
 20
744.749999910593
 30
0.0
 40
59.99999618530273
 41
0.0
 71
     5
 72
     1
  1
210（床給水）
  7
EXCADDIM1
  0
POINT
  5
51A
330
511
100
AcDbEntity
  8
DEFPOINTS
 62
     0
100
AcDbPoint
 10
961.0000000005599
 20
869.49999999998
 30
0.0
  0
POINT
  5
51B
330
511
100
AcDbEntity
  8
DEFPOINTS
 62
     0
100
AcDbPoint
 10
1171.0000000006
 20
901.00000017881
 30
0.0
  0
POINT
  5
51C
330
511
100
AcDbEntity
  8
DEFPOINTS
 62
     0
100
AcDbPoint
 10
1171.0000000006
 20
709.5
 30
0.0
  0
ENDBLK
  5
513
330
511
100
AcDbEntity
  8
0
100
AcDbBlockEnd
  0
BLOCK
  5
51F
330
51E
100
AcDbEntity
  8
0
100
AcDbBlockBegin
  2
*D28
 70
     1
 10
0.0
 20
0.0
 30
0.0
  3
*D28
  1

  0
LINE
  5
521
330
51E
100
AcDbEntity
  8
寸法
  6
CONTINUOUS
 62
     3
100
AcDbLine
 10
961.0000000005599
 20
2740.499999642386
 30
0.0
 11
961.0000000005599
 21
2914.5
 31
0.0
  0
LINE
  5
522
330
51E
100
AcDbEntity
  8
寸法
  6
CONTINUOUS
 62
     3
100
AcDbLine
 10
1171.0000000006
 20
2748.499999642386
 30
0.0
 11
1171.0000000006
 21
2914.5
 31
0.0
  0
LINE
  5
523
330
51E
100
AcDbEntity
  8
寸法
  6
CONTINUOUS
 62
     3
100
AcDbLine
 10
1005.999996185863
 20
2899.5
 30
0.0
 11
1126.000003815297
 21
2899.5
 31
0.0
  0
INSERT
  5
524
330
51E
100
AcDbEntity
  8
寸法
 62
     3
100
AcDbBlockReference
  2
EX_NORM
 10
961.0000000005599
 20
2899.5
 30
0.0
 41
44.99999618530273
 42
44.99999618530273
 43
44.99999618530273
 50
180.0
  0
INSERT
  5
525
330
51E
100
AcDbEntity
  8
寸法
 62
     3
100
AcDbBlockReference
  2
EX_NORM
 10
1171.0000000006
 20
2899.5
 30
0.0
 41
44.99999618530273
 42
44.99999618530273
 43
44.99999618530273
  0
MTEXT
  5
526
330
51E
100
AcDbEntity
  8
寸法
 62
     2
100
AcDbMText
 10
1384.000000000621
 20
2934.749999910593
 30
0.0
 40
59.99999618530273
 41
0.0
 71
     5
 72
     1
  1
210（壁給水）
  7
EXCADDIM1
  0
POINT
  5
527
330
51E
100
AcDbEntity
  8
DEFPOINTS
 62
     0
100
AcDbPoint
 10
961.0000000005599
 20
2729.9999998212
 30
0.0
  0
POINT
  5
528
330
51E
100
AcDbEntity
  8
DEFPOINTS
 62
     0
100
AcDbPoint
 10
1171.0000000006
 20
2737.9999998212
 30
0.0
  0
POINT
  5
529
330
51E
100
AcDbEntity
  8
DEFPOINTS
 62
     0
100
AcDbPoint
 10
1171.0000000006
 20
2899.5
 30
0.0
  0
ENDBLK
  5
520
330
51E
100
AcDbEntity
  8
0
100
AcDbBlockEnd
  0
ENDSEC
  0
SECTION
  2
ENTITIES
  0
LINE
  5
A9
330
1F
100
AcDbEntity
  8
枠_表
  6
CONTINUOUS
 62
     7
100
AcDbLine
 10
261.0000000005603
 20
139.4999999999993
 30
0.0
 11
2991.00000000056
 21
139.4999999999993
 31
0.0
  0
HATCH
  5
AA
330
1F
100
AcDbEntity
  8
枠_表
  6
CONTINUOUS
 62
     3
100
AcDbHatch
 10
0.0
 20
0.0
 30
0.0
210
0.0
220
0.0
230
1.0
  2
SOLID
 70
     1
 71
     1
 91
        1
 92
        3
 72
     1
 73
     1
 93
       10
 10
1162.08789860044
 20
184.82548994631
 42
-0.017362223501556
 10
1162.219523600439
 20
264.2763649463099
 42
-0.0267627618865285
 10
1162.21952360044
 20
264.2763649463111
 42
0.0737939047395297
 10
1181.59877360044
 20
264.3573649463108
 42
0.0183878899657109
 10
1180.81914860044
 20
192.7229899463116
 42
-0.1144749489451909
 10
1177.680398600438
 20
177.636739946309
 42
-0.1929163439413163
 10
1162.74602360044
 20
165.9119899463099
 42
-0.0603888289562337
 10
1154.828273600439
 20
163.9376149463101
 42
0.0
 10
1152.975398600439
 20
169.5772399463091
 42
0.0860918333465722
 10
1158.513773600439
 20
172.52361494631
 42
0.1331843103855141
 97
        0
 75
     0
 76
     1
 98
        1
 10
0.0
 20
0.0
  0
HATCH
  5
AB
330
1F
100
AcDbEntity
  8
枠_表
  6
CONTINUOUS
 62
     3
100
AcDbHatch
 10
0.0
 20
0.0
 30
0.0
210
0.0
220
0.0
230
1.0
  2
SOLID
 70
     1
 71
     1
 91
        1
 92
        3
 72
     1
 73
     1
 93
       16
 10
1250.803148600439
 20
183.1548649463109
 42
-0.0386228372648426
 10
1250.712023600439
 20
231.967489946311
 42
-0.0398707891902887
 10
1259.57139860044
 20
232.0079899463121
 42
-0.1256886216044368
 10
1259.166398600439
 20
223.725739946312
 42
-0.0367815758121429
 10
1259.166398600439
 20
223.7257399463099
 42
-0.268021535028829
 10
1277.037023600441
 20
233.0002399463111
 42
-0.2571134422124888
 10
1289.257898600439
 20
226.9556149463115
 42
-0.1522526366014298
 10
1292.36627360044
 20
216.9014899463101
 42
-0.0158825412051521
 10
1292.143523600437
 20
183.1042399463118
 42
-0.0285251271418421
 10
1283.58789860044
 20
183.1042399463092
 42
-0.0452212723224612
 10
1284.02327360044
 20
214.3297399463106
 42
-0.0315567291532142
 10
1281.370523600438
 20
223.5536149463122
 42
-0.1476272403790709
 10
1264.097273600439
 20
224.8799899463091
 42
-0.3908144705745794
 10
1259.227148600439
 20
212.760364946309
 42
-0.2046259928850854
 10
1259.227148600439
 20
212.7603649463106
 42
0.0
 10
1259.986523600441
 20
183.0738649463112
 42
-0.0304995761723369
 97
        0
 75
     0
 76
     1
 98
        1
 10
0.0
 20
0.0
  0
HATCH
  5
AC
330
1F
100
AcDbEntity
  8
枠_表
  6
CONTINUOUS
 62
     3
100
AcDbHatch
 10
0.0
 20
0.0
 30
0.0
210
0.0
220
0.0
230
1.0
  2
SOLID
 70
     1
 71
     1
 91
        2
 92
        1
 93
        1
 72
     2
 10
1314.428271058067
 20
249.8753200310557
 40
5.358501700154826
 50
0.0
 51
360.0
 73
     1
 97
        0
 92
        3
 72
     1
 73
     1
 93
        3
 10
1309.639523600439
 20
232.0484899463118
 42
0.1200283885712921
 10
1318.954523600438
 20
183.0941149463105
 42
-0.0401820615762149
 10
1309.649648600439
 20
183.0637399463094
 42
-0.0237521668114666
 97
        0
 75
     0
 76
     1
 98
        1
 10
0.0
 20
0.0
  0
HATCH
  5
AD
330
1F
100
AcDbEntity
  8
枠_表
  6
CONTINUOUS
 62
     3
100
AcDbHatch
 10
0.0
 20
0.0
 30
0.0
210
0.0
220
0.0
230
1.0
  2
SOLID
 70
     1
 71
     1
 91
        1
 92
        3
 72
     1
 73
     1
 93
       30
 10
1361.601023600439
 20
230.0032399463128
 42
-0.0009362235736497
 10
1361.601023600437
 20
230.0032399463103
 42
0.0681165430304653
 10
1359.145640230661
 20
222.6423649463095
 42
0.0
 10
1349.89652360044
 20
228.9704899463122
 42
-0.302112590907374
 10
1349.896523600439
 20
228.9704899463095
 42
0.0
 10
1340.571398600439
 20
221.822239946312
 42
-0.3704245237568778
 10
1340.571398600438
 20
221.8222399463116
 42
0.0
 10
1341.05739860044
 20
217.0432399463103
 42
-0.0262822419456939
 10
1346.80839860044
 20
212.4464899463116
 42
-0.180060563604375
 10
1355.98164860044
 20
209.6519899463096
 42
-0.0298130817160724
 10
1355.981648600439
 20
209.6519899463108
 42
-0.3153987453686078
 10
1364.436023600441
 20
199.9826149463104
 42
0.0
 10
1364.38539860044
 20
195.6592399463116
 42
-0.3510306079065168
 10
1348.08414860044
 20
181.990489946312
 42
0.0
 10
1343.325398600439
 20
181.9904899463108
 42
-0.1053356344842436
 10
1332.795398600439
 20
185.0279899463112
 42
0.1188608286962634
 10
1334.719148600439
 20
192.7229899463123
 42
0.0
 10
1346.26164860044
 20
185.6354899463113
 42
-0.2447573632916039
 10
1346.261648600439
 20
185.6354899463111
 42
0.0
 10
1357.39914860044
 20
193.4317399463096
 42
-0.3734162676407277
 10
1357.39914860044
 20
193.43173994631
 42
0.0
 10
1353.359273600439
 20
201.2178649463096
 42
-0.261219770190848
 10
1343.932898600439
 20
204.6401149463114
 42
-0.0572747914118363
 10
1343.93289860044
 20
204.6401149463095
 42
-0.1189658875692221
 10
1336.440398600439
 20
209.0343649463096
 42
-0.2005226878639636
 10
1333.301648600438
 20
216.1117399463433
 42
0.0
 10
1333.25102360044
 20
218.794864946309
 42
-0.2622894489606957
 10
1341.30039860044
 20
231.0967399463106
 42
-0.0988461274137808
 10
1348.833398600439
 20
232.909114946309
 42
0.0
 10
1351.627898600438
 20
232.9091149463105
 42
-0.0920156312561188
 97
        0
 75
     0
 76
     1
 98
        1
 10
0.0
 20
0.0
  0
HATCH
  5
AE
330
1F
100
AcDbEntity
  8
枠_表
  6
CONTINUOUS
 62
     3
100
AcDbHatch
 10
0.0
 20
0.0
 30
0.0
210
0.0
220
0.0
230
1.0
  2
SOLID
 70
     1
 71
     1
 91
        2
 92
        3
 72
     1
 73
     1
 93
       27
 10
1200.25914860044
 20
227.0467399463097
 42
-0.1769427732109284
 10
1200.25914860044
 20
227.0467399463098
 42
0.0
 10
1200.25914860044
 20
221.5792399463112
 42
0.0
 10
1201.57539860044
 20
221.5792399463107
 42
-0.207533601427307
 10
1210.121134184919
 20
227.9898538693564
 42
-0.1226604740888933
 10
1217.67414860044
 20
228.1503649463112
 42
-0.3213715781137954
 10
1225.482492033878
 20
218.5659771567722
 42
-0.064704004662446
 10
1225.52102360044
 20
213.4994899463109
 42
-0.257798906330806
 10
1223.93139860044
 20
211.57573994631
 42
-0.056602577721096
 10
1220.529398600439
 20
210.3911149463123
 42
-0.0166741689362636
 10
1208.05539860044
 20
208.0218649463094
 42
0.1186092302783404
 10
1199.82377360044
 20
204.0731149463118
 42
0.1699204224386695
 10
1196.239523600439
 20
198.07911494631
 42
0.1006533494296199
 10
1195.908130019936
 20
192.8780332643591
 42
0.1675695228968024
 10
1199.15552360044
 20
185.9088649463119
 42
0.1376980079804242
 10
1205.058398600439
 20
182.4967399463105
 42
0.0719813663796923
 10
1207.741523600438
 20
182.0512399463121
 42
0.0
 10
1211.85227360044
 20
182.0512399463122
 42
0.1944607457809085
 10
1225.49064860044
 20
189.0678649463093
 42
0.1288538183665954
 10
1226.867648600438
 20
185.6253649463115
 42
0.2098387395261546
 10
1231.36314860044
 20
183.1447399463104
 42
0.0
 10
1234.623398600439
 20
183.1244899463105
 42
0.0945009641609563
 10
1239.33152360044
 20
184.126864946312
 42
0.0
 10
1239.331523600439
 20
186.4859899463093
 42
-0.2395739894657535
 10
1235.22077360044
 20
186.445489946309
 42
-0.2502312110031057
 10
1233.195773600437
 20
190.252489946313
 42
-0.0104343570771765
 10
1233.469148600441
 20
218.6429899463118
 42
0.4051015674140716
 97
        0
 92
        3
 72
     1
 73
     1
 93
        8
 10
1225.703273600439
 20
208.5382399463092
 42
-0.0339435190873666
 10
1225.703273600448
 20
208.5382399462927
 42
-0.0001110072973599
 10
1225.278023600441
 20
193.026739946309
 42
-0.2253076310552528
 10
1214.646773600439
 20
185.9291149463115
 42
0.0
 10
1212.044648600438
 20
185.9291149463098
 42
-0.3657967558150132
 10
1204.309148600439
 20
194.1506149463112
 42
0.0
 10
1204.30914860044
 20
197.0868649463121
 42
-0.2530797830369341
 10
1209.533648600439
 20
204.3161149463117
 42
-0.0724473624720066
 97
        0
 75
     0
 76
     1
 98
        1
 10
0.0
 20
0.0
  0
TEXT
  5
B0
330
1F
100
AcDbEntity
  8
枠_表
  6
CONTINUOUS
 62
     2
100
AcDbText
 10
1384.500000000568
 20
174.7500000000014
 30
0.0
 40
50.625
  1
ジャニス工業株式会社
 41
1.025641025641026
  7
EXCADTTF1
 72
     5
 11
2059.500000000568
 21
174.7500000000014
 31
0.0
100
AcDbText
  0
ARC
  5
B1
330
1F
100
AcDbEntity
  8
枠_表
  6
CONTINUOUS
 62
     3
100
AcDbCircle
 10
1216.902798619393
 20
206.4250933390315
 30
0.0
 40
26.50025272990596
100
AcDbArc
 50
88.77000393305703
 51
128.9068631829044
  0
ARC
  5
B2
330
1F
100
AcDbEntity
  8
枠_表
  6
CONTINUOUS
 62
     3
100
AcDbCircle
 10
1218.105940890984
 20
217.5287438959981
 30
0.0
 40
15.40356112671885
100
AcDbArc
 50
4.148222840814693
 51
92.36000944257292
  0
ARC
  5
B3
330
1F
100
AcDbEntity
  8
枠_表
  6
CONTINUOUS
 62
     3
100
AcDbCircle
 10
1913.475203758627
 20
197.8985765897608
 30
0.0
 40
680.3223983798493
100
AcDbArc
 50
178.2526643324597
 51
180.6439560401927
  0
ARC
  5
B4
330
1F
100
AcDbEntity
  8
枠_表
  6
CONTINUOUS
 62
     3
100
AcDbCircle
 10
1237.77359841747
 20
190.2454393170694
 30
0.0
 40
4.577830246610835
100
AcDbArc
 50
179.9117548191414
 51
236.1065985968857
  0
ARC
  5
B5
330
1F
100
AcDbEntity
  8
枠_表
  6
CONTINUOUS
 62
     3
100
AcDbCircle
 10
1237.236311769258
 20
190.5091783111618
 30
0.0
 40
4.5360728870472
100
AcDbArc
 50
243.6191685566582
 51
297.5097757939563
  0
LINE
  5
B6
330
1F
100
AcDbEntity
  8
枠_表
  6
CONTINUOUS
 62
     3
100
AcDbLine
 10
1239.33152360044
 20
184.126864946312
 30
0.0
 11
1239.33152360044
 21
186.485989946309
 31
0.0
  0
LINE
  5
B7
330
1F
100
AcDbEntity
  8
枠_表
  6
CONTINUOUS
 62
     3
100
AcDbLine
 10
1231.36314860044
 20
183.1447399463104
 30
0.0
 11
1234.623398600439
 21
183.1447399463104
 31
0.0
  0
ARC
  5
B8
330
1F
100
AcDbEntity
  8
枠_表
  6
CONTINUOUS
 62
     3
100
AcDbCircle
 10
1234.349383792402
 20
195.969676923454
 30
0.0
 40
12.84810930031341
100
AcDbArc
 50
271.2220539293239
 51
292.8159509797653
  0
ARC
  5
B9
330
1F
100
AcDbEntity
  8
枠_表
  6
CONTINUOUS
 62
     3
100
AcDbCircle
 10
1231.940660262783
 20
189.5051184792953
 30
0.0
 40
6.38654325930597
100
AcDbArc
 50
217.4081478714985
 51
264.8118660441384
  0
ARC
  5
BA
330
1F
100
AcDbEntity
  8
枠_表
  6
CONTINUOUS
 62
     3
100
AcDbCircle
 10
1232.747334084311
 20
189.9738891398579
 30
0.0
 40
7.31302701014583
100
AcDbArc
 50
187.1167640402297
 51
216.4860549324747
  0
ARC
  5
BB
330
1F
100
AcDbEntity
  8
枠_表
  6
CONTINUOUS
 62
     3
100
AcDbCircle
 10
1209.991956880615
 20
202.430103938525
 30
0.0
 40
20.46359880155898
100
AcDbArc
 50
275.2158792069686
 51
319.2336424873511
  0
LINE
  5
BC
330
1F
100
AcDbEntity
  8
枠_表
  6
CONTINUOUS
 62
     3
100
AcDbLine
 10
1207.741523600438
 20
182.0512399463121
 30
0.0
 11
1211.85227360044
 21
182.0512399463121
 31
0.0
  0
ARC
  5
BD
330
1F
100
AcDbEntity
  8
枠_表
  6
CONTINUOUS
 62
     3
100
AcDbCircle
 10
1207.939219611078
 20
191.5445241581108
 30
0.0
 40
9.49534248137679
100
AcDbArc
 50
252.3384873625213
 51
268.8069976857606
  0
ARC
  5
BE
330
1F
100
AcDbEntity
  8
枠_表
  6
CONTINUOUS
 62
     3
100
AcDbCircle
 10
1208.184442956097
 20
194.7166657158903
 30
0.0
 40
12.61343486634549
100
AcDbArc
 50
224.289750990011
 51
255.6505938786759
  0
ARC
  5
BF
330
1F
100
AcDbEntity
  8
枠_表
  6
CONTINUOUS
 62
     3
100
AcDbCircle
 10
1207.637299937889
 20
194.1022532359295
 30
0.0
 40
11.79288520689435
100
AcDbArc
 50
185.9586126338419
 51
224.0091989319859
  0
ARC
  5
C0
330
1F
100
AcDbEntity
  8
枠_表
  6
CONTINUOUS
 62
     3
100
AcDbCircle
 10
1208.861252786063
 20
194.6638068821608
 30
0.0
 40
13.07564058883004
100
AcDbArc
 50
164.8589457925044
 51
187.8495628504518
  0
ARC
  5
C1
330
1F
100
AcDbEntity
  8
枠_表
  6
CONTINUOUS
 62
     3
100
AcDbCircle
 10
1206.595856855087
 20
195.954949875121
 30
0.0
 40
10.57193055836883
100
AcDbArc
 50
129.8344892359069
 51
168.4089447024628
  0
ARC
  5
C2
330
1F
100
AcDbEntity
  8
枠_表
  6
CONTINUOUS
 62
     3
100
AcDbCircle
 10
1212.145520801932
 20
188.941272222429
 30
0.0
 40
19.5140492547738
100
AcDbArc
 50
102.0988446293839
 51
129.1556705448828
  0
ARC
  5
C3
330
1F
100
AcDbEntity
  8
枠_表
  6
CONTINUOUS
 62
     3
100
AcDbCircle
 10
1178.779514998432
 20
396.1803044662827
 30
0.0
 40
190.4223614055573
100
AcDbArc
 50
278.8438342053764
 51
282.6649181367123
  0
ARC
  5
C4
330
1F
100
AcDbEntity
  8
枠_表
  6
CONTINUOUS
 62
     3
100
AcDbCircle
 10
1217.014957517198
 20
225.9611044033113
 30
0.0
 40
15.96170002909176
100
AcDbArc
 50
282.7195832898965
 51
295.6781112778079
  0
ARC
  5
C5
330
1F
100
AcDbEntity
  8
枠_表
  6
CONTINUOUS
 62
     3
100
AcDbCircle
 10
1222.984643351566
 20
213.9766998756431
 30
0.0
 40
2.580882423421965
100
AcDbArc
 50
291.5204897073511
 51
349.3445900274031
  0
ARC
  5
C6
330
1F
100
AcDbEntity
  8
枠_表
  6
CONTINUOUS
 62
     3
100
AcDbCircle
 10
1206.008081035549
 20
215.8844805562694
 30
0.0
 40
19.65815626528382
100
AcDbArc
 50
353.0315250986587
 51
7.839947970678348
  0
ARC
  5
C7
330
1F
100
AcDbEntity
  8
枠_表
  6
CONTINUOUS
 62
     3
100
AcDbCircle
 10
1214.892511923218
 20
217.9112829230132
 30
0.0
 40
10.61019807939003
100
AcDbArc
 50
3.537639967999379
 51
74.8013566619203
  0
ARC
  5
C8
330
1F
100
AcDbEntity
  8
枠_表
  6
CONTINUOUS
 62
     3
100
AcDbCircle
 10
1214.21986437031
 20
212.9075745769524
 30
0.0
 40
15.62929101996345
100
AcDbArc
 50
77.23143261361693
 51
105.203415964315
  0
ARC
  5
C9
330
1F
100
AcDbEntity
  8
枠_表
  6
CONTINUOUS
 62
     3
100
AcDbCircle
 10
1213.238042656013
 20
214.9335287786823
 30
0.0
 40
13.42321657765079
100
AcDbArc
 50
103.4267945469744
 51
150.3242613737993
  0
LINE
  5
CA
330
1F
100
AcDbEntity
  8
枠_表
  6
CONTINUOUS
 62
     3
100
AcDbLine
 10
1200.25914860044
 20
227.0467399463098
 30
0.0
 11
1200.25914860044
 21
221.5792399463112
 31
0.0
  0
ARC
  5
CB
330
1F
100
AcDbEntity
  8
枠_表
  6
CONTINUOUS
 62
     3
100
AcDbCircle
 10
1057.715934784625
 20
190.1014142884173
 30
0.0
 40
104.505225747009
100
AcDbArc
 50
353.1274757312911
 51
357.106204490141
  0
ARC
  5
CC
330
1F
100
AcDbEntity
  8
枠_表
  6
CONTINUOUS
 62
     3
100
AcDbCircle
 10
420.5078281849611
 20
225.7796003758244
 30
0.0
 40
742.7100645598513
100
AcDbArc
 50
356.8390243485978
 51
2.971133813187157
  0
ARC
  5
CD
330
1F
100
AcDbEntity
  8
枠_表
  6
CONTINUOUS
 62
     3
100
AcDbCircle
 10
1150.639107974967
 20
180.5111277709364
 30
0.0
 40
11.2165377829595
100
AcDbArc
 50
314.592391474832
 51
344.9374073189123
  0
ARC
  5
CE
330
1F
100
AcDbEntity
  8
枠_表
  6
CONTINUOUS
 62
     3
100
AcDbCircle
 10
1147.252093453381
 20
187.0139789168968
 30
0.0
 40
18.35200500585038
100
AcDbArc
 50
288.1715191042997
 51
307.8537826235693
  0
LINE
  5
CF
330
1F
100
AcDbEntity
  8
枠_表
  6
CONTINUOUS
 62
     3
100
AcDbLine
 10
1154.828273600439
 20
163.9376149463101
 30
0.0
 11
1152.97539860044
 21
169.577239946309
 31
0.0
  0
ARC
  5
D0
330
1F
100
AcDbEntity
  8
枠_表
  6
CONTINUOUS
 62
     3
100
AcDbCircle
 10
1150.643362480562
 20
197.5834729373071
 30
0.0
 40
33.90512116232043
100
AcDbArc
 50
277.0901027239701
 51
290.9134154817058
  0
ARC
  5
D1
330
1F
100
AcDbEntity
  8
枠_表
  6
CONTINUOUS
 62
     3
100
AcDbCircle
 10
1155.584599183386
 20
190.4075277940228
 30
0.0
 40
25.52092032294173
100
AcDbArc
 50
286.2966123578915
 51
329.973223283839
  0
ARC
  5
D2
330
1F
100
AcDbEntity
  8
枠_表
  6
CONTINUOUS
 62
     3
100
AcDbCircle
 10
1146.734904269156
 20
191.944703532015
 30
0.0
 40
34.09312894671467
100
AcDbArc
 50
335.1860595856123
 51
1.308075913059364
  0
ARC
  5
D3
330
1F
100
AcDbEntity
  8
枠_表
  6
CONTINUOUS
 62
     3
100
AcDbCircle
 10
2154.813797120716
 20
217.9440541426277
 30
0.0
 40
974.3211367025408
100
AcDbArc
 50
177.2695926307304
 51
181.4833117237826
  0
ARC
  5
D4
330
1F
100
AcDbEntity
  8
枠_表
  6
CONTINUOUS
 62
     3
100
AcDbCircle
 10
1171.636230018906
 20
329.6126355783338
 30
0.0
 40
66.01138250235698
100
AcDbArc
 50
261.7986203004403
 51
278.6803384946418
  0
ARC
  5
D5
330
1F
100
AcDbEntity
  8
枠_表
  6
CONTINUOUS
 62
     3
100
AcDbCircle
 10
1208.408414903623
 20
268.1252071740744
 30
0.0
 40
62.04610222041025
100
AcDbArc
 50
278.4088456599976
 51
286.1851416003176
  0
ARC
  5
D6
330
1F
100
AcDbEntity
  8
枠_表
  6
CONTINUOUS
 62
     3
100
AcDbCircle
 10
1221.84909776422
 20
178.2478294001976
 30
0.0
 40
28.83098679232812
100
AcDbArc
 50
98.71271710191789
 51
115.2874718053599
  0
ARC
  5
D7
330
1F
100
AcDbEntity
  8
枠_表
  6
CONTINUOUS
 62
     3
100
AcDbCircle
 10
1213.605280026241
 20
195.8711218570784
 30
0.0
 40
9.375291501855795
100
AcDbArc
 50
115.7403688633493
 51
172.5491744442191
  0
LINE
  5
D8
330
1F
100
AcDbEntity
  8
枠_表
  6
CONTINUOUS
 62
     3
100
AcDbLine
 10
1204.309148600439
 20
197.0868649463091
 30
0.0
 11
1204.309148600439
 21
194.1506149463112
 31
0.0
  0
ARC
  5
D9
330
1F
100
AcDbEntity
  8
枠_表
  6
CONTINUOUS
 62
     3
100
AcDbCircle
 10
1213.043948023874
 20
194.6192070146662
 30
0.0
 40
8.747359572704955
100
AcDbArc
 50
183.0707787095794
 51
263.4402016072427
  0
LINE
  5
DA
330
1F
100
AcDbEntity
  8
枠_表
  6
CONTINUOUS
 62
     3
100
AcDbLine
 10
1212.044648600438
 20
185.9291149463115
 30
0.0
 11
1214.646773600439
 21
185.9291149463115
 31
0.0
  0
ARC
  5
DB
330
1F
100
AcDbEntity
  8
枠_表
  6
CONTINUOUS
 62
     3
100
AcDbCircle
 10
1212.486703615453
 20
200.6754734295293
 30
0.0
 40
14.90372405996874
100
AcDbArc
 50
278.3335103000368
 51
329.1221464187299
  0
ARC
  5
DC
330
1F
100
AcDbEntity
  8
枠_表
  6
CONTINUOUS
 62
     3
100
AcDbCircle
 10
-33708.02313326546
 20
1158.489786838173
 30
0.0
 40
34946.64001890887
100
AcDbArc
 50
358.4169008257799
 51
358.4423418242109
  0
ARC
  5
DD
330
1F
100
AcDbEntity
  8
枠_表
  6
CONTINUOUS
 62
     3
100
AcDbCircle
 10
1254.871317010961
 20
123.7603881767564
 30
0.0
 40
59.53363641627745
100
AcDbArc
 50
85.07099551674689
 51
93.91830029343228
  0
ARC
  5
DE
330
1F
100
AcDbEntity
  8
枠_表
  6
CONTINUOUS
 62
     3
100
AcDbCircle
 10
1370.113286843221
 20
196.3725220514721
 30
0.0
 40
110.9268148967239
100
AcDbArc
 50
179.8977458165987
 51
186.8855675734268
  0
ARC
  5
DF
330
1F
100
AcDbEntity
  8
枠_表
  6
CONTINUOUS
 62
     3
100
AcDbCircle
 10
1275.849258355525
 20
213.1192837707067
 30
0.0
 40
16.62598434477196
100
AcDbArc
 50
134.9787476233347
 51
181.2369872983282
  0
ARC
  5
E0
330
1F
100
AcDbEntity
  8
枠_表
  6
CONTINUOUS
 62
     3
100
AcDbCircle
 10
1272.015021781393
 20
214.8549409708016
 30
0.0
 40
12.77467585570504
100
AcDbArc
 50
42.91644474042847
 51
128.3015542351336
  0
ARC
  5
E1
330
1F
100
AcDbEntity
  8
枠_表
  6
CONTINUOUS
 62
     3
100
AcDbCircle
 10
1267.417110685843
 20
214.5472708232342
 30
0.0
 40
16.60758761616231
100
AcDbArc
 50
359.2495022237244
 51
32.84055016678327
  0
ARC
  5
E2
330
1F
100
AcDbEntity
  8
枠_表
  6
CONTINUOUS
 62
     3
100
AcDbCircle
 10
1036.676006798026
 20
202.1627006823689
 30
0.0
 40
247.6463350002882
100
AcDbArc
 50
355.5862454873798
 51
2.816115806820253
  0
ARC
  5
E3
330
1F
100
AcDbEntity
  8
枠_表
  6
CONTINUOUS
 62
     3
100
AcDbCircle
 10
1287.86571110044
 20
135.902289288415
 30
0.0
 40
47.39539878190116
100
AcDbArc
 50
84.82155189294139
 51
95.17844810705873
  0
ARC
  5
E4
330
1F
100
AcDbEntity
  8
枠_表
  6
CONTINUOUS
 62
     3
100
AcDbCircle
 10
1536.986450493109
 20
194.8601062108708
 30
0.0
 40
245.1249869780733
100
AcDbArc
 50
176.2131780319488
 51
182.7488833337936
  0
ARC
  5
E5
330
1F
100
AcDbEntity
  8
枠_表
  6
CONTINUOUS
 62
     3
100
AcDbCircle
 10
1200.287040182073
 20
213.4973662218204
 30
0.0
 40
92.14213631800438
100
AcDbArc
 50
358.4775281223095
 51
2.117232414210064
  0
ARC
  5
E6
330
1F
100
AcDbEntity
  8
枠_表
  6
CONTINUOUS
 62
     3
100
AcDbCircle
 10
1274.685827302288
 20
216.9428913677291
 30
0.0
 40
17.68049477190885
100
AcDbArc
 50
359.8658335690532
 51
34.49363429411157
  0
ARC
  5
E7
330
1F
100
AcDbEntity
  8
枠_表
  6
CONTINUOUS
 62
     3
100
AcDbCircle
 10
1277.65860861263
 20
218.8806997196991
 30
0.0
 40
14.1332156333331
100
AcDbArc
 50
34.84393737091607
 51
92.5207065423111
  0
ARC
  5
E8
330
1F
100
AcDbEntity
  8
枠_表
  6
CONTINUOUS
 62
     3
100
AcDbCircle
 10
1276.131160350946
 20
212.8913983227892
 30
0.0
 40
20.1292349498589
100
AcDbArc
 50
87.42068310381028
 51
147.4361518966862
  0
ARC
  5
E9
330
1F
100
AcDbEntity
  8
枠_表
  6
CONTINUOUS
 62
     3
100
AcDbCircle
 10
1315.586209109988
 20
225.1178522074588
 30
0.0
 40
56.43698250687272
100
AcDbArc
 50
172.9875214416311
 51
181.4134392789641
  0
ARC
  5
EA
330
1F
100
AcDbEntity
  8
枠_表
  6
CONTINUOUS
 62
     3
100
AcDbCircle
 10
1255.06242747975
 20
249.3310319721741
 30
0.0
 40
17.90024037819024
100
AcDbArc
 50
255.9341994177206
 51
284.5896440601899
  0
ARC
  5
EB
330
1F
100
AcDbEntity
  8
枠_表
  6
CONTINUOUS
 62
     3
100
AcDbCircle
 10
945.1765483013027
 20
206.9907088007619
 30
0.0
 40
306.5546709196609
100
AcDbArc
 50
355.5405243117485
 51
4.673398698656258
  0
LINE
  5
EC
330
1F
100
AcDbEntity
  8
枠_表
  6
CONTINUOUS
 62
     3
100
AcDbLine
 10
1259.227148600439
 20
212.7603649463106
 30
0.0
 11
1259.227148600439
 21
196.5704899463117
 31
0.0
  0
CIRCLE
  5
ED
330
1F
100
AcDbEntity
  8
枠_表
  6
CONTINUOUS
 62
     3
100
AcDbCircle
 10
1314.428271058067
 20
249.8753200310557
 30
0.0
 40
5.358501700154835
  0
ARC
  5
EE
330
1F
100
AcDbEntity
  8
枠_表
  6
CONTINUOUS
 62
     3
100
AcDbCircle
 10
1314.218411404724
 20
251.2998711537125
 30
0.0
 40
19.7884282326031
100
AcDbArc
 50
256.6209501743446
 51
283.9984576255729
  0
ARC
  5
EF
330
1F
100
AcDbEntity
  8
枠_表
  6
CONTINUOUS
 62
     3
100
AcDbCircle
 10
1314.621613406264
 20
85.1970627618482
 30
0.0
 40
97.99289227876633
100
AcDbArc
 50
87.46575055044718
 51
92.90832285102188
  0
ARC
  5
F0
330
1F
100
AcDbEntity
  8
枠_表
  6
CONTINUOUS
 62
     3
100
AcDbCircle
 10
1623.381070769898
 20
207.2821508609081
 30
0.0
 40
305.38595858835
100
AcDbArc
 50
175.3387608397566
 51
184.5428594926176
  0
ARC
  5
F1
330
1F
100
AcDbEntity
  8
枠_表
  6
CONTINUOUS
 62
     3
100
AcDbCircle
 10
977.5350863051439
 20
207.4874689149362
 30
0.0
 40
333.0114127553719
100
AcDbArc
 50
355.7940354718673
 51
4.229650257234378
  0
ARC
  5
F2
330
1F
100
AcDbEntity
  8
枠_表
  6
CONTINUOUS
 62
     3
100
AcDbCircle
 10
1832.466679849786
 20
1447.544614944631
 30
0.0
 40
1305.420034344473
100
AcDbArc
 50
248.6422112053103
 51
248.8567777804232
  0
ARC
  5
F3
330
1F
100
AcDbEntity
  8
枠_表
  6
CONTINUOUS
 62
     3
100
AcDbCircle
 10
1351.281424269649
 20
217.7494557545924
 30
0.0
 40
15.16361801388235
100
AcDbArc
 50
67.66151957087348
 51
88.69073168448988
  0
ARC
  5
F4
330
1F
100
AcDbEntity
  8
枠_表
  6
CONTINUOUS
 62
     3
100
AcDbCircle
 10
1349.65665664315
 20
213.146864690641
 30
0.0
 40
19.79962298051288
100
AcDbArc
 50
92.38301574576484
 51
114.9635286746436
  0
ARC
  5
F5
330
1F
100
AcDbEntity
  8
枠_表
  6
CONTINUOUS
 62
     3
100
AcDbCircle
 10
1348.194524520506
 20
217.8013936652781
 30
0.0
 40
14.97648840463785
100
AcDbArc
 50
117.4083995939977
 51
176.1964688215695
  0
ARC
  5
F6
330
1F
100
AcDbEntity
  8
枠_表
  6
CONTINUOUS
 62
     3
100
AcDbCircle
 10
1343.339888689464
 20
216.3289153613277
 30
0.0
 40
10.04058908858416
100
AcDbArc
 50
181.2393899443581
 51
226.5942921332421
  0
ARC
  5
F7
330
1F
100
AcDbEntity
  8
枠_表
  6
CONTINUOUS
 62
     3
100
AcDbCircle
 10
1349.290221870489
 20
222.3594616510013
 30
0.0
 40
18.51151426169351
100
AcDbArc
 50
226.0402388947521
 51
253.1776672992999
  0
ARC
  5
F8
330
1F
100
AcDbEntity
  8
枠_表
  6
CONTINUOUS
 62
     3
100
AcDbCircle
 10
1333.757233775128
 20
161.9185712632816
 30
0.0
 40
43.91667620959131
100
AcDbArc
 50
63.49050203733571
 51
76.60259219849584
  0
ARC
  5
F9
330
1F
100
AcDbEntity
  8
枠_表
  6
CONTINUOUS
 62
     3
100
AcDbCircle
 10
1350.462006878614
 20
194.9769338149736
 30
0.0
 40
6.88065228328521
100
AcDbArc
 50
6.53892419415897
 51
65.09756080693691
  0
ARC
  5
FA
330
1F
100
AcDbEntity
  8
枠_表
  6
CONTINUOUS
 62
     3
100
AcDbCircle
 10
1348.553666617541
 20
194.5503545635734
 30
0.0
 40
8.91593237815014
100
AcDbArc
 50
270.8867385422408
 51
352.7925382056677
  0
ARC
  5
FB
330
1F
100
AcDbEntity
  8
枠_表
  6
CONTINUOUS
 62
     3
100
AcDbCircle
 10
1347.954156485794
 20
198.9987959666075
 30
0.0
 40
13.47006053193791
100
AcDbArc
 50
207.7689879465537
 51
262.7817283832026
  0
ARC
  5
FC
330
1F
100
AcDbEntity
  8
枠_表
  6
CONTINUOUS
 62
     3
100
AcDbCircle
 10
1345.18950818948
 20
208.2234865216537
 30
0.0
 40
26.2991447367003
100
AcDbArc
 50
241.8829576087176
 51
265.9354096935781
  0
ARC
  5
FD
330
1F
100
AcDbEntity
  8
枠_表
  6
CONTINUOUS
 62
     3
100
AcDbCircle
 10
1347.699582970698
 20
199.0038700677076
 30
0.0
 40
17.01772587270968
100
AcDbArc
 50
271.2948770866743
 51
348.6654156292868
  0
ARC
  5
FE
330
1F
100
AcDbEntity
  8
枠_表
  6
CONTINUOUS
 62
     3
100
AcDbCircle
 10
1353.306858194357
 20
198.7825887797362
 30
0.0
 40
11.19367613594409
100
AcDbArc
 50
6.154262763177246
 51
76.17509904255616
  0
ARC
  5
FF
330
1F
100
AcDbEntity
  8
枠_表
  6
CONTINUOUS
 62
     3
100
AcDbCircle
 10
1374.807700454373
 20
287.9038965755251
 30
0.0
 40
80.4846638777502
100
AcDbArc
 50
249.6420733479936
 51
256.4727051201885
  0
ARC
  5
100
330
1F
100
AcDbEntity
  8
枠_表
  6
CONTINUOUS
 62
     3
100
AcDbCircle
 10
1350.108202858682
 20
222.4707962649927
 30
0.0
 40
10.55345561005776
100
AcDbArc
 50
210.9501336849607
 51
251.7794729821079
  0
ARC
  5
101
330
1F
100
AcDbEntity
  8
枠_表
  6
CONTINUOUS
 62
     3
100
AcDbCircle
 10
1360.954711100459
 20
224.0734774463158
 30
0.0
 40
21.102779059401
100
AcDbArc
 50
193.4375782160214
 51
199.459638038058
  0
ARC
  5
102
330
1F
100
AcDbEntity
  8
枠_表
  6
CONTINUOUS
 62
     3
100
AcDbCircle
 10
1348.552644729644
 20
220.901249206189
 30
0.0
 40
8.034208966558964
100
AcDbArc
 50
92.11404364449162
 51
173.4175047026091
  0
ARC
  5
103
330
1F
100
AcDbEntity
  8
枠_表
  6
CONTINUOUS
 62
     3
100
AcDbCircle
 10
1349.12210086969
 20
219.8143854437512
 30
0.0
 40
9.188796451533795
100
AcDbArc
 50
17.92452211681263
 51
85.16543319077402
  0
LINE
  5
104
330
1F
100
AcDbEntity
  8
枠_表
  6
CONTINUOUS
 62
     3
100
AcDbLine
 10
1351.62789860044
 20
232.909114946309
 30
0.0
 11
1348.833398600439
 21
232.909114946309
 31
0.0
  0
LINE
  5
105
330
1F
100
AcDbEntity
  8
枠_表
  6
CONTINUOUS
 62
     3
100
AcDbLine
 10
1346.261648600439
 20
185.6354899463111
 30
0.0
 11
1348.691648600441
 21
185.6354899463111
 31
0.0
  0
LINE
  5
106
330
1F
100
AcDbEntity
  8
枠_表
  6
CONTINUOUS
 62
     3
100
AcDbLine
 10
1336.035398600441
 20
192.7229899463123
 30
0.0
 11
1334.719148600439
 21
192.7229899463123
 31
0.0
  0
LINE
  5
107
330
1F
100
AcDbEntity
  8
枠_表
  6
CONTINUOUS
 62
     3
100
AcDbLine
 10
1343.325398600439
 20
181.990489946312
 30
0.0
 11
1348.08414860044
 21
181.990489946312
 31
0.0
  0
LINE
  5
108
330
1F
100
AcDbEntity
  8
枠_表
  6
CONTINUOUS
 62
     3
100
AcDbLine
 10
1200.25914860044
 20
221.5792399463112
 30
0.0
 11
1201.57539860044
 21
221.5792399463112
 31
0.0
  0
ARC
  5
109
330
1F
100
AcDbEntity
  8
枠_表
  6
CONTINUOUS
 62
     3
100
AcDbCircle
 10
1317.801619698705
 20
192.8669639347504
 30
0.0
 40
16.91930610118257
100
AcDbArc
 50
332.3987521421788
 51
359.5124385477116
  0
LINE
  5
10A
330
1F
100
AcDbEntity
  8
枠_表
  6
CONTINUOUS
 62
     3
100
AcDbLine
 10
1357.297898600439
 20
195.7604899463104
 30
0.0
 11
1357.39914860044
 21
193.43173994631
 31
0.0
  0
LINE
  5
10B
330
1F
100
AcDbEntity
  8
枠_表
  6
CONTINUOUS
 62
     3
100
AcDbLine
 10
1364.436023600441
 20
199.9826149463104
 30
0.0
 11
1364.385398600439
 21
195.6592399463102
 31
0.0
  0
LINE
  5
10C
330
1F
100
AcDbEntity
  8
枠_表
  6
CONTINUOUS
 62
     3
100
AcDbLine
 10
1340.571398600438
 20
221.8222399463116
 30
0.0
 11
1340.429648600439
 21
219.1694899463107
 31
0.0
  0
LINE
  5
10D
330
1F
100
AcDbEntity
  8
枠_表
  6
CONTINUOUS
 62
     3
100
AcDbLine
 10
1333.25102360044
 20
218.7948649463101
 30
0.0
 11
1333.301648600438
 21
216.1117399463433
 31
0.0
  0
LINE
  5
10E
330
1F
100
AcDbEntity
  8
枠_表
  6
CONTINUOUS
 62
     3
100
AcDbLine
 10
1348.256273600438
 20
228.9299899463094
 30
0.0
 11
1349.896523600439
 21
228.9704899463095
 31
0.0
  0
LINE
  5
10F
330
1F
100
AcDbEntity
  8
枠_表
  6
CONTINUOUS
 62
     3
100
AcDbLine
 10
1357.86489860044
 20
222.6423649463095
 30
0.0
 11
1359.145640230661
 21
222.6423649463095
 31
0.0
  0
ARC
  5
110
330
1F
100
AcDbEntity
  8
枠_表
  6
CONTINUOUS
 62
     3
100
AcDbCircle
 10
1387.263721603869
 20
217.3529156261236
 30
0.0
 40
28.61127005606746
100
AcDbArc
 50
153.7591918158497
 51
169.3462759801917
  0
TEXT
  5
111
330
1F
100
AcDbEntity
  8
枠_表
  6
CONTINUOUS
 62
     2
100
AcDbText
 10
2826.805664100563
 20
391.0841674500011
 30
0.0
 40
44.99999618530273
  1
１
 41
1.101333426694527
  7
EXCADSTD
 72
     5
 11
2862.205664100563
 21
391.0841674500011
 31
0.0
100
AcDbText
  0
TEXT
  5
112
330
1F
100
AcDbEntity
  8
枠_表
  6
CONTINUOUS
 62
     2
100
AcDbText
 10
294.7500000005637
 20
400.125001907348
 30
0.0
 40
63.74999618530273
  1
製図
 41
1.509694103275157
  7
EXCADSTD
 72
     5
 11
445.9889895109092
 21
400.125001907348
 31
0.0
100
AcDbText
  0
TEXT
  5
113
330
1F
100
AcDbEntity
  8
枠_表
  6
CONTINUOUS
 62
     2
100
AcDbText
 10
527.2500000005637
 20
400.125001907348
 30
0.0
 40
63.74999618530273
  1
写図
 41
1.509694103275156
  7
EXCADSTD
 72
     5
 11
678.488989510909
 21
400.125001907348
 31
0.0
100
AcDbText
  0
TEXT
  5
114
330
1F
100
AcDbEntity
  8
枠_表
  6
CONTINUOUS
 62
     2
100
AcDbText
 10
752.2500000005654
 20
400.125001907348
 30
0.0
 40
63.74999618530273
  1
検図
 41
1.303826737454632
  7
EXCADSTD
 72
     5
 11
882.8654921333244
 21
400.125001907348
 31
0.0
100
AcDbText
  0
TEXT
  5
115
330
1F
100
AcDbEntity
  8
枠_表
  6
CONTINUOUS
 62
     2
100
AcDbText
 10
947.2500000005637
 20
400.125001907348
 30
0.0
 40
63.74999618530273
  1
承認
 41
1.303826737454632
  7
EXCADSTD
 72
     5
 11
1077.865492133323
 21
400.125001907348
 31
0.0
100
AcDbText
  0
TEXT
  5
116
330
1F
100
AcDbEntity
  8
枠_表
  6
CONTINUOUS
 62
     2
100
AcDbText
 10
1124.625000000564
 20
385.125001907348
 30
0.0
 40
63.74999618530273
  1
品
 41
1.119999999999999
  7
EXCADSTD
 72
     5
 11
1175.624996948806
 21
385.125001907348
 31
0.0
100
AcDbText
  0
TEXT
  5
117
330
1F
100
AcDbEntity
  8
枠_表
  6
CONTINUOUS
 62
     2
100
AcDbText
 10
1124.625000000564
 20
310.125001907348
 30
0.0
 40
63.74999618530273
  1
名
 41
1.119999999999999
  7
EXCADSTD
 72
     5
 11
1175.624996948806
 21
310.125001907348
 31
0.0
100
AcDbText
  0
TEXT
  5
118
330
1F
100
AcDbEntity
  8
枠_表
  6
CONTINUOUS
 62
     2
100
AcDbText
 10
2084.625000000564
 20
385.125001907348
 30
0.0
 40
63.74999618530273
  1
品
 41
1.120000000000004
  7
EXCADSTD
 72
     5
 11
2135.624996948807
 21
385.125001907348
 31
0.0
100
AcDbText
  0
TEXT
  5
119
330
1F
100
AcDbEntity
  8
枠_表
  6
CONTINUOUS
 62
     2
100
AcDbText
 10
2084.625000000564
 20
310.125001907348
 30
0.0
 40
63.74999618530273
  1
番
 41
1.120000000000004
  7
EXCADSTD
 72
     5
 11
2135.624996948807
 21
310.125001907348
 31
0.0
100
AcDbText
  0
TEXT
  5
11A
330
1F
100
AcDbEntity
  8
枠_表
  6
CONTINUOUS
 62
     2
100
AcDbText
 10
2716.125000000563
 20
385.125001907348
 30
0.0
 40
63.74999618530273
  1
尺
 41
1.120000000000004
  7
EXCADSTD
 72
     5
 11
2767.124996948805
 21
385.125001907348
 31
0.0
100
AcDbText
  0
TEXT
  5
11B
330
1F
100
AcDbEntity
  8
枠_表
  6
CONTINUOUS
 62
     2
100
AcDbText
 10
2716.125000000563
 20
310.125001907348
 30
0.0
 40
63.74999618530273
  1
度
 41
1.120000000000004
  7
EXCADSTD
 72
     5
 11
2767.124996948805
 21
310.125001907348
 31
0.0
100
AcDbText
  0
TEXT
  5
11C
330
1F
100
AcDbEntity
  8
枠_表
  6
CONTINUOUS
 62
     2
100
AcDbText
 10
2084.625000000564
 20
215.6250019073486
 30
0.0
 40
63.74999618530273
  1
図
 41
1.120000000000004
  7
EXCADSTD
 72
     5
 11
2135.624996948807
 21
215.6250019073486
 31
0.0
100
AcDbText
  0
TEXT
  5
11D
330
1F
100
AcDbEntity
  8
枠_表
  6
CONTINUOUS
 62
     2
100
AcDbText
 10
2084.625000000564
 20
151.1250019073493
 30
0.0
 40
63.74999618530273
  1
番
 41
1.120000000000004
  7
EXCADSTD
 72
     5
 11
2135.624996948807
 21
151.1250019073493
 31
0.0
100
AcDbText
  0
LINE
  5
11E
330
1F
100
AcDbEntity
  8
枠_表
  6
CONTINUOUS
 62
     7
100
AcDbLine
 10
261.0000000005637
 20
469.4999999999993
 30
0.0
 11
2991.000000000564
 21
469.4999999999993
 31
0.0
  0
LINE
  5
11F
330
1F
100
AcDbEntity
  8
枠_表
  6
CONTINUOUS
 62
     7
100
AcDbLine
 10
2991.000000000564
 20
139.4999999999993
 30
0.0
 11
2991.000000000564
 21
4339.5
 31
0.0
  0
LINE
  5
120
330
1F
100
AcDbEntity
  8
枠_表
  6
CONTINUOUS
 62
     7
100
AcDbLine
 10
261.0000000005637
 20
4339.5
 30
0.0
 11
2991.000000000564
 21
4339.5
 31
0.0
  0
LINE
  5
121
330
1F
100
AcDbEntity
  8
枠_表
  6
CONTINUOUS
 62
     6
100
AcDbLine
 10
2991.000000000564
 20
289.4999999999993
 30
0.0
 11
1116.000000000564
 21
289.4999999999993
 31
0.0
  0
LINE
  5
122
330
1F
100
AcDbEntity
  8
枠_表
  6
CONTINUOUS
 62
     6
100
AcDbLine
 10
2781.000000000564
 20
469.4999999999993
 30
0.0
 11
2781.000000000564
 21
289.4999999999993
 31
0.0
  0
LINE
  5
123
330
1F
100
AcDbEntity
  8
枠_表
  6
CONTINUOUS
 62
     6
100
AcDbLine
 10
2706.000000000564
 20
469.4999999999993
 30
0.0
 11
2706.000000000564
 21
289.4999999999993
 31
0.0
  0
LINE
  5
124
330
1F
100
AcDbEntity
  8
枠_表
  6
CONTINUOUS
 62
     6
100
AcDbLine
 10
2151.000000000564
 20
469.4999999999993
 30
0.0
 11
2151.000000000564
 21
139.4999999999993
 31
0.0
  0
LINE
  5
125
330
1F
100
AcDbEntity
  8
枠_表
  6
CONTINUOUS
 62
     6
100
AcDbLine
 10
2076.000000000564
 20
469.4999999999993
 30
0.0
 11
2076.000000000564
 21
139.4999999999993
 31
0.0
  0
LINE
  5
126
330
1F
100
AcDbEntity
  8
枠_表
  6
CONTINUOUS
 62
     6
100
AcDbLine
 10
1191.000000000564
 20
469.4999999999993
 30
0.0
 11
1191.000000000564
 21
289.4999999999993
 31
0.0
  0
LINE
  5
127
330
1F
100
AcDbEntity
  8
枠_表
  6
CONTINUOUS
 62
     6
100
AcDbLine
 10
1116.000000000564
 20
469.4999999999993
 30
0.0
 11
1116.000000000564
 21
139.4999999999993
 31
0.0
  0
LINE
  5
128
330
1F
100
AcDbEntity
  8
枠_表
  6
CONTINUOUS
 62
     6
100
AcDbLine
 10
921.0000000005654
 20
469.4999999999993
 30
0.0
 11
921.0000000005654
 21
139.4999999999993
 31
0.0
  0
LINE
  5
129
330
1F
100
AcDbEntity
  8
枠_表
  6
CONTINUOUS
 62
     6
100
AcDbLine
 10
726.0000000005654
 20
469.4999999999993
 30
0.0
 11
726.0000000005654
 21
139.4999999999993
 31
0.0
  0
LINE
  5
12A
330
1F
100
AcDbEntity
  8
枠_表
  6
CONTINUOUS
 62
     6
100
AcDbLine
 10
493.5000000005637
 20
469.4999999999993
 30
0.0
 11
493.5000000005637
 21
139.4999999999993
 31
0.0
  0
LINE
  5
12B
330
1F
100
AcDbEntity
  8
枠_表
  6
CONTINUOUS
 62
     6
100
AcDbLine
 10
261.0000000005637
 20
394.4999999999993
 30
0.0
 11
1116.000000000564
 21
394.4999999999993
 31
0.0
  0
LINE
  5
12C
330
1F
100
AcDbEntity
  8
枠_表
  6
CONTINUOUS
 62
     6
100
AcDbLine
 10
2829.980712900564
 20
324.0043945500008
 30
0.0
 11
2945.990844750564
 21
442.04974365
 31
0.0
  0
CIRCLE
  5
12D
330
1F
100
AcDbEntity
  8
枠_表
  6
CONTINUOUS
 62
     6
100
AcDbCircle
 10
336.0000000005637
 20
176.9999999999993
 30
0.0
 40
1.5000003
  0
CIRCLE
  5
12E
330
1F
100
AcDbEntity
  8
枠_表
  6
CONTINUOUS
 62
     6
100
AcDbCircle
 10
411.0000000005637
 20
176.9999999999993
 30
0.0
 40
1.5000003
  0
CIRCLE
  5
12F
330
1F
100
AcDbEntity
  8
枠_表
  6
CONTINUOUS
 62
     6
100
AcDbCircle
 10
568.5000000005637
 20
176.9999999999993
 30
0.0
 40
1.5000003
  0
CIRCLE
  5
130
330
1F
100
AcDbEntity
  8
枠_表
  6
CONTINUOUS
 62
     6
100
AcDbCircle
 10
643.5000000005637
 20
176.9999999999993
 30
0.0
 40
1.5000003
  0
LINE
  5
131
330
1F
100
AcDbEntity
  8
枠_表
  6
EXLTYPE2
 62
     6
100
AcDbLine
 10
261.0000000005637
 20
214.4999999999993
 30
0.0
 11
726.0000000005654
 21
214.4999999999993
 31
0.0
  0
CIRCLE
  5
132
330
1F
100
AcDbEntity
  8
枠_表
  6
CONTINUOUS
 62
     6
100
AcDbCircle
 10
336.0000000005654
 20
176.9999999999993
 30
0.0
 40
1.5000003
  0
CIRCLE
  5
133
330
1F
100
AcDbEntity
  8
枠_表
  6
CONTINUOUS
 62
     6
100
AcDbCircle
 10
411.0000000005654
 20
176.9999999999993
 30
0.0
 40
1.5000003
  0
LINE
  5
134
330
1F
100
AcDbEntity
  8
枠_表
  6
CONTINUOUS
 62
     7
100
AcDbLine
 10
261.0000000005637
 20
139.4999999999993
 30
0.0
 11
261.0000000005637
 21
4339.5
 31
0.0
  0
TEXT
  5
135
330
1F
100
AcDbEntity
  8
枠_表
  6
CONTINUOUS
 62
     2
100
AcDbText
 10
2887.918945350563
 20
324.5232695999982
 30
0.0
 40
44.99999618530273
  1
１５
 41
1.098531308335248
  7
EXCADSTD
 72
     5
 11
2965.600795569097
 21
324.5232695999982
 31
0.0
100
AcDbText
  0
TEXT
  5
136
330
1F
100
AcDbEntity
  8
枠_表
  6
CONTINUOUS
 62
     2
100
AcDbText
 10
2841.000000000615
 20
4153.125001907346
 30
0.0
 40
59.99999618530273
  1
１
 41
1.120000000000004
  7
EXCADSTD
 72
     5
 11
2888.999996948857
 21
4153.125001907346
 31
0.0
100
AcDbText
  0
TEXT
  5
137
330
1F
100
AcDbEntity
  8
枠_表
  6
CONTINUOUS
 62
     2
100
AcDbText
 10
1741.499999999159
 20
3981.750003814705
 30
0.0
 40
59.99999618530273
  1
※止水栓（別途手配）
 41
1.052966101694915
  7
EXCADSTD
 72
     5
 11
2273.999966143721
 21
3981.750003814705
 31
0.0
100
AcDbText
  0
TEXT
  5
138
330
1F
100
AcDbEntity
  8
枠_表
  6
CONTINUOUS
 62
     2
100
AcDbText
 10
2841.000000000615
 20
3646.125001907347
 30
0.0
 40
59.99999618530273
  1
１
 41
1.120000000000004
  7
EXCADSTD
 72
     5
 11
2888.999996948857
 21
3646.125001907347
 31
0.0
100
AcDbText
  0
TEXT
  5
139
330
1F
100
AcDbEntity
  8
枠_表
  6
CONTINUOUS
 62
     2
100
AcDbText
 10
2841.000000000615
 20
3533.250001907349
 30
0.0
 40
59.99999618530273
  1
１
 41
1.120000000000004
  7
EXCADSTD
 72
     5
 11
2888.999996948857
 21
3533.250001907349
 31
0.0
100
AcDbText
  0
TEXT
  5
13A
330
1F
100
AcDbEntity
  8
枠_表
  6
CONTINUOUS
 62
     2
100
AcDbText
 10
2284.500000000408
 20
3573.225001907348
 30
0.0
 40
59.99999618530273
  1
配管アダプター
 41
0.990243889413228
  7
EXCADSTD
 72
     5
 11
2632.499973297528
 21
3573.225001907348
 31
0.0
100
AcDbText
  0
TEXT
  5
13B
330
1F
100
AcDbEntity
  8
枠_表
  6
CONTINUOUS
 62
     2
100
AcDbText
 10
2284.500000000408
 20
3498.975001907348
 30
0.0
 40
59.99999618530273
  1
（ＶＰ５０・ＶＵ５０用）
 41
0.8183098359622852
  7
EXCADSTD
 72
     5
 11
2782.499954224041
 21
3498.975001907348
 31
0.0
100
AcDbText
  0
TEXT
  5
13C
330
1F
100
AcDbEntity
  8
枠_表
  6
CONTINUOUS
 62
     2
100
AcDbText
 10
1746.000000000608
 20
3721.875001907346
 30
0.0
 40
59.99999618530273
  1
※壁排水用部材（別途手配）
 41
1.045454545454546
  7
EXCADSTD
 72
     5
 11
2435.999956131589
 21
3721.875001907346
 31
0.0
100
AcDbText
  0
LINE
  5
13D
330
1F
100
AcDbEntity
  8
枠_表
  6
CONTINUOUS
 62
     6
100
AcDbLine
 10
1746.000000000615
 20
4220.249999999996
 30
0.0
 11
2946.000000000615
 21
4220.249999999996
 31
0.0
  0
LINE
  5
13E
330
1F
100
AcDbEntity
  8
枠_表
  6
CONTINUOUS
 62
     6
100
AcDbLine
 10
1746.000000000615
 20
4294.499999999997
 30
0.0
 11
2946.000000000615
 21
4294.499999999997
 31
0.0
  0
LINE
  5
13F
330
1F
100
AcDbEntity
  8
枠_表
  6
CONTINUOUS
 62
     6
100
AcDbLine
 10
1746.000000000615
 20
3966.749999999998
 30
0.0
 11
2946.000000000615
 21
3966.749999999998
 31
0.0
  0
LINE
  5
140
330
1F
100
AcDbEntity
  8
枠_表
  6
CONTINUOUS
 62
     6
100
AcDbLine
 10
1746.000000000615
 20
3818.249999999997
 30
0.0
 11
2946.000000000615
 21
3818.249999999997
 31
0.0
  0
LINE
  5
141
330
1F
100
AcDbEntity
  8
枠_表
  6
CONTINUOUS
 62
     6
100
AcDbLine
 10
1746.000000000615
 20
3892.499999999997
 30
0.0
 11
2946.000000000615
 21
3892.499999999997
 31
0.0
  0
LINE
  5
142
330
1F
100
AcDbEntity
  8
枠_表
  6
CONTINUOUS
 62
     6
100
AcDbLine
 10
1746.000000000615
 20
3818.25
 30
0.0
 11
1746.000000000615
 21
3966.749999999998
 31
0.0
  0
LINE
  5
143
330
1F
100
AcDbEntity
  8
枠_表
  6
CONTINUOUS
 62
     6
100
AcDbLine
 10
2271.000000000615
 20
3818.249999999997
 30
0.0
 11
2271.000000000615
 21
3966.749999999998
 31
0.0
  0
LINE
  5
144
330
1F
100
AcDbEntity
  8
枠_表
  6
CONTINUOUS
 62
     6
100
AcDbLine
 10
2796.000000000615
 20
3818.249999999997
 30
0.0
 11
2796.000000000615
 21
3966.749999999998
 31
0.0
  0
LINE
  5
145
330
1F
100
AcDbEntity
  8
枠_表
  6
CONTINUOUS
 62
     6
100
AcDbLine
 10
2946.000000000615
 20
3818.25
 30
0.0
 11
2946.000000000615
 21
3966.749999999998
 31
0.0
  0
LINE
  5
146
330
1F
100
AcDbEntity
  8
枠_表
  6
CONTINUOUS
 62
     6
100
AcDbLine
 10
1746.000000000615
 20
3490.499999999998
 30
0.0
 11
2946.000000000615
 21
3490.499999999998
 31
0.0
  0
LINE
  5
147
330
1F
100
AcDbEntity
  8
枠_表
  6
CONTINUOUS
 62
     6
100
AcDbLine
 10
1746.000000000615
 20
3639.0
 30
0.0
 11
2946.000000000615
 21
3639.0
 31
0.0
  0
LINE
  5
148
330
1F
100
AcDbEntity
  8
枠_表
  6
CONTINUOUS
 62
     6
100
AcDbLine
 10
1746.000000000615
 20
3713.249999999997
 30
0.0
 11
2946.000000000615
 21
3713.249999999997
 31
0.0
  0
LINE
  5
149
330
1F
100
AcDbEntity
  8
枠_表
  6
CONTINUOUS
 62
     6
100
AcDbLine
 10
1746.000000000615
 20
3490.499999999998
 30
0.0
 11
1746.000000000615
 21
3713.249999999997
 31
0.0
  0
LINE
  5
14A
330
1F
100
AcDbEntity
  8
枠_表
  6
CONTINUOUS
 62
     6
100
AcDbLine
 10
2271.000000000615
 20
3490.499999999998
 30
0.0
 11
2271.000000000615
 21
3713.249999999997
 31
0.0
  0
LINE
  5
14B
330
1F
100
AcDbEntity
  8
枠_表
  6
CONTINUOUS
 62
     6
100
AcDbLine
 10
2796.000000000615
 20
3490.499999999998
 30
0.0
 11
2796.000000000615
 21
3713.249999999997
 31
0.0
  0
LINE
  5
14C
330
1F
100
AcDbEntity
  8
枠_表
  6
CONTINUOUS
 62
     6
100
AcDbLine
 10
2946.000000000615
 20
3490.499999999998
 30
0.0
 11
2946.000000000615
 21
3713.249999999997
 31
0.0
  0
LINE
  5
14D
330
1F
100
AcDbEntity
  8
枠_表
  6
CONTINUOUS
 62
     6
100
AcDbLine
 10
1746.000000000615
 20
4145.999999999995
 30
0.0
 11
2946.000000000615
 21
4145.999999999995
 31
0.0
  0
TEXT
  5
14E
330
1F
100
AcDbEntity
  8
枠_表
  6
CONTINUOUS
 62
     2
100
AcDbText
 10
2284.500000000408
 20
3644.625001907345
 30
0.0
 40
59.99999618530273
  1
Ｌ管
 41
1.049923628946709
  7
EXCADSTD
 72
     5
 11
2383.492793007305
 21
3644.625001907345
 31
0.0
100
AcDbText
  0
TEXT
  5
14F
330
1F
100
AcDbEntity
  8
枠_表
  6
CONTINUOUS
 62
     2
100
AcDbText
 10
2817.000000090022
 20
4227.37500190735
 30
0.0
 40
59.99999618530273
  1
個数
 41
1.049923628946709
  7
EXCADSTD
 72
     5
 11
2915.992793096919
 21
4227.37500190735
 31
0.0
100
AcDbText
  0
TEXT
  5
150
330
1F
100
AcDbEntity
  8
枠_表
  6
CONTINUOUS
 62
     2
100
AcDbText
 10
1873.500000000608
 20
4227.37500190735
 30
0.0
 40
59.99999618530273
  1
品番
 41
1.895695426731973
  7
EXCADSTD
 72
     5
 11
2052.236986014402
 21
4227.37500190735
 31
0.0
100
AcDbText
  0
TEXT
  5
151
330
1F
100
AcDbEntity
  8
枠_表
  6
CONTINUOUS
 62
     2
100
AcDbText
 10
2398.500000000605
 20
4227.37500190735
 30
0.0
 40
59.99999618530273
  1
品名
 41
1.895695426731973
  7
EXCADSTD
 72
     5
 11
2577.236986014399
 21
4227.37500190735
 31
0.0
100
AcDbText
  0
TEXT
  5
152
330
1F
100
AcDbEntity
  8
枠_表
  6
CONTINUOUS
 62
     2
100
AcDbText
 10
1469.9999985701
 20
304.5000038146966
 30
0.0
 40
74.99999237060547
  1
洗面化粧台
 41
1.052413789665836
  7
EXCADSTD
 72
     5
 11
1796.999964237825
 21
304.5000038146966
 31
0.0
100
AcDbText
  0
TEXT
  5
153
330
1F
100
AcDbEntity
  8
枠_表
  6
CONTINUOUS
 62
     2
100
AcDbText
 10
2281.500000000407
 20
3826.875001907346
 30
0.0
 40
59.99999618530273
  1
壁給水用止水栓
 41
0.990243889413228
  7
EXCADSTD
 72
     5
 11
2629.499973297527
 21
3826.875001907346
 31
0.0
100
AcDbText
  0
LINE
  5
154
330
1F
100
AcDbEntity
  8
枠_表
  6
CONTINUOUS
 62
     6
100
AcDbLine
 10
1746.000000000615
 20
4145.999999999995
 30
0.0
 11
1746.000000000615
 21
4294.5
 31
0.0
  0
LINE
  5
155
330
1F
100
AcDbEntity
  8
枠_表
  6
CONTINUOUS
 62
     6
100
AcDbLine
 10
2796.000000000615
 20
4145.999999999995
 30
0.0
 11
2796.000000000615
 21
4294.499999999997
 31
0.0
  0
LINE
  5
156
330
1F
100
AcDbEntity
  8
枠_表
  6
CONTINUOUS
 62
     6
100
AcDbLine
 10
2946.000000000615
 20
4145.999999999995
 30
0.0
 11
2946.000000000615
 21
4294.5
 31
0.0
  0
LINE
  5
157
330
1F
100
AcDbEntity
  8
枠_表
  6
CONTINUOUS
 62
     6
100
AcDbLine
 10
2196.000000000615
 20
4294.499999999997
 30
0.0
 11
2196.000000000615
 21
4145.999999999995
 31
0.0
  0
TEXT
  5
158
330
1F
100
AcDbEntity
  8
枠_表
  6
CONTINUOUS
 62
     2
100
AcDbText
 10
1206.000000000562
 20
402.000001907348
 30
0.0
 40
59.99999618530273
  1
６００ｍｍ幅
 41
0.9999999872843416
  7
EXCADSTD
 72
     5
 11
1505.999977112378
 21
402.000001907348
 31
0.0
100
AcDbText
  0
TEXT
  5
159
330
1F
100
AcDbEntity
  8
枠_表
  6
CONTINUOUS
 62
     2
100
AcDbText
 10
2340.000000000626
 20
339.0000038146985
 30
0.0
 40
89.99999237060547
  1
別記
 41
1.166581818181818
  7
EXCADSTD
 72
     5
 11
2504.98798601442
 21
339.0000038146985
 31
0.0
100
AcDbText
  0
TEXT
  5
15A
330
1F
100
AcDbEntity
  8
枠_表
  6
CONTINUOUS
 62
     2
100
AcDbText
 10
302.2500000005688
 20
267.0000038147
 30
0.0
 40
74.99999237060547
  1
川野
 41
1.166581818181818
  7
EXCADSTD
 72
     5
 11
439.7399860143628
 21
267.0000038147
 31
0.0
100
AcDbText
  0
TEXT
  5
15B
330
1F
100
AcDbEntity
  8
枠_表
  6
CONTINUOUS
 62
     2
100
AcDbText
 10
1756.500000000605
 20
4153.125001907346
 30
0.0
 40
59.99999618530273
  1
ＬＵ０６０１ＡＳＳ１Ｅ
 41
0.7673076828932146
  7
EXCADSTD
 72
     5
 11
2183.999967575679
 21
4153.125001907346
 31
0.0
100
AcDbText
  0
TEXT
  5
15C
330
1F
100
AcDbEntity
  8
枠_表
  6
CONTINUOUS
 62
     2
100
AcDbText
 10
1756.500000000605
 20
3825.375001907347
 30
0.0
 40
59.99999618530273
  1
ＪＬ２２１－７５ＷＭＳＹ
 41
0.7640844976398302
  7
EXCADSTD
 72
     5
 11
2221.499964714656
 21
3825.375001907347
 31
0.0
100
AcDbText
  0
TEXT
  5
15D
330
1F
100
AcDbEntity
  8
枠_表
  6
CONTINUOUS
 62
     2
100
AcDbText
 10
1753.500000000666
 20
3899.25000190735
 30
0.0
 40
59.99999618530273
  1
ＪＬ２１１－３３０ＷＭＹ
 41
0.7640844976398299
  7
EXCADSTD
 72
     5
 11
2218.499964714716
 21
3899.25000190735
 31
0.0
100
AcDbText
  0
TEXT
  5
15E
330
1F
100
AcDbEntity
  8
枠_表
  6
CONTINUOUS
 62
     2
100
AcDbText
 10
1753.500000000666
 20
3534.37500190735
 30
0.0
 40
59.99999618530273
  1
ＬＵＭＥＨ７０－２００－３２Ｂ
 41
0.6685393858491742
  7
EXCADSTD
 72
     5
 11
2263.500013352106
 21
3534.37500190735
 31
0.0
100
AcDbText
  0
TEXT
  5
15F
330
1F
100
AcDbEntity
  8
枠_表
  6
CONTINUOUS
 62
     2
100
AcDbText
 10
2284.500000000408
 20
3901.125001907347
 30
0.0
 40
59.99999618530273
  1
床給水用止水栓
 41
0.990243889413228
  7
EXCADSTD
 72
     5
 11
2632.499973297528
 21
3901.125001907347
 31
0.0
100
AcDbText
  0
TEXT
  5
160
330
1F
100
AcDbEntity
  8
枠_表
  6
CONTINUOUS
 62
     2
100
AcDbText
 10
1741.499999999159
 20
3400.500003814705
 30
0.0
 40
59.99999618530273
  1
※洗面化粧台には、床排水用トラップを付属
 41
1.036764705882353
  7
EXCADSTD
 72
     5
 11
2798.99993276512
 21
3400.500003814705
 31
0.0
100
AcDbText
  0
TEXT
  5
161
330
1F
100
AcDbEntity
  8
枠_表
  6
CONTINUOUS
 62
     2
100
AcDbText
 10
1741.499999999159
 20
3340.500007629403
 30
0.0
 40
59.99999618530273
  1
※洗面化粧台には、止水栓は含まれない
 41
1.038551401869159
  7
EXCADSTD
 72
     5
 11
2693.99993944084
 21
3340.500007629403
 31
0.0
100
AcDbText
  0
TEXT
  5
162
330
1F
100
AcDbEntity
  8
枠_表
  6
CONTINUOUS
 62
     2
100
AcDbText
 10
1741.499999999159
 20
3280.5000114441
 30
0.0
 40
59.99999618530273
  1
※単水栓は、自動水栓（電池式）
 41
1.042134831460674
  7
EXCADSTD
 72
     5
 11
2536.49994945442
 21
3280.5000114441
 31
0.0
100
AcDbText
  0
TEXT
  5
163
330
1F
100
AcDbEntity
  8
枠_表
  6
CONTINUOUS
 62
     2
100
AcDbText
 10
2209.500000000408
 20
4151.625001907344
 30
0.0
 40
59.99999618530273
  1
洗面化粧台（一般地形）
 41
0.9692307555369835
  7
EXCADSTD
 72
     5
 11
2749.499958038738
 21
4151.625001907344
 31
0.0
100
AcDbText
  0
TEXT
  5
164
330
1F
100
AcDbEntity
  8
枠_表
  6
CONTINUOUS
 62
     2
100
AcDbText
 10
1756.500000000605
 20
3646.125001907347
 30
0.0
 40
59.99999618530273
  1
ＭＥ４４１３１
 41
0.7896341368434869
  7
EXCADSTD
 72
     5
 11
2033.99997901977
 21
3646.125001907347
 31
0.0
100
AcDbText
  0
TEXT
  5
165
330
1F
100
AcDbEntity
  8
枠_表
  6
CONTINUOUS
 62
     2
100
AcDbText
 10
2841.000000000615
 20
3900.375001907347
 30
0.0
 40
59.99999618530273
  1
１
 41
1.120000000000004
  7
EXCADSTD
 72
     5
 11
2888.999996948857
 21
3900.375001907347
 31
0.0
100
AcDbText
  0
TEXT
  5
166
330
1F
100
AcDbEntity
  8
枠_表
  6
CONTINUOUS
 62
     2
100
AcDbText
 10
2841.000000000615
 20
3826.875001907346
 30
0.0
 40
59.99999618530273
  1
１
 41
1.120000000000004
  7
EXCADSTD
 72
     5
 11
2888.999996948857
 21
3826.875001907346
 31
0.0
100
AcDbText
  0
TEXT
  5
167
330
1F
100
AcDbEntity
  8
枠_表
  6
CONTINUOUS
 62
     7
100
AcDbText
 10
2263.500000000513
 20
171.7500038146979
 30
0.0
 40
89.99999237060547
  1
ＬＵ２１８７６１
 41
1.01773049277147
  7
EXCADSTD
 72
     5
 11
2878.499945641076
 21
171.7500038146979
 31
0.0
100
AcDbText
  0
TEXT
  5
168
330
1F
100
AcDbEntity
  8
枠_表
  6
CONTINUOUS
 62
     6
100
AcDbText
 10
270.5161735137837
 20
153.6751117073488
 30
0.0
 40
44.99999618530273
  1
'23
 41
0.4689783949971204
  7
EXCADSTD
 72
     5
 11
317.7489935773747
 21
153.6751117073488
 31
0.0
100
AcDbText
  0
TEXT
  5
169
330
1F
100
AcDbEntity
  8
枠_表
  6
CONTINUOUS
 62
     6
100
AcDbText
 10
364.6036740859883
 20
153.6751117073488
 30
0.0
 40
44.99999618530273
  1
5
 41
0.4683823586133572
  7
EXCADSTD
 72
     5
 11
381.6661728462117
 21
153.6751117073488
 31
0.0
100
AcDbText
  0
TEXT
  5
16A
330
1F
100
AcDbEntity
  8
枠_表
  6
CONTINUOUS
 62
     6
100
AcDbText
 10
434.8411738714119
 20
153.6751117073488
 30
0.0
 40
44.99999618530273
  1
30
 41
0.4086486447995843
  7
EXCADSTD
 72
     5
 11
467.241170819654
 21
153.6751117073488
 31
0.0
100
AcDbText
  0
LINE
  5
16B
330
1F
100
AcDbEntity
  8
化粧台
  6
CONTINUOUS
 62
     2
100
AcDbLine
 10
791.0000000005607
 20
1669.499999999956
 30
0.0
 11
1131.000000000597
 21
1669.499999999956
 31
0.0
  0
ARC
  5
16C
330
1F
100
AcDbEntity
  8
化粧台
  6
CONTINUOUS
 62
     2
100
AcDbCircle
 10
961.0000000005608
 20
1749.382636432929
 30
0.0
 40
214.8826364329721
100
AcDbArc
 50
202.703373117341
 51
337.2966268826543
  0
ARC
  5
16D
330
1F
100
AcDbEntity
  8
化粧台
  6
CONTINUOUS
 62
     2
100
AcDbCircle
 10
1254.905786216665
 20
1674.499999999956
 30
0.0
 40
5.0
100
AcDbArc
 50
357.9174347202663
 51
127.8553251654789
  0
LINE
  5
16E
330
1F
100
AcDbEntity
  8
化粧台
  6
CONTINUOUS
 62
     2
100
AcDbLine
 10
1131.000000000601
 20
1669.499999999956
 30
0.0
 11
1240.432787040842
 21
1674.257947262577
 31
0.0
  0
ARC
  5
16F
330
1F
100
AcDbEntity
  8
化粧台
  6
CONTINUOUS
 62
     2
100
AcDbCircle
 10
1239.564042555316
 20
1694.239070429678
 30
0.0
 40
20.0
100
AcDbArc
 50
272.4895529219986
 51
307.8553251654777
  0
ARC
  5
170
330
1F
100
AcDbEntity
  8
化粧台
  6
CONTINUOUS
 62
     2
100
AcDbCircle
 10
1255.814877125755
 20
1699.499999999956
 30
0.0
 40
5.0
100
AcDbArc
 50
357.9174347202663
 51
90.00000000000001
  0
ARC
  5
171
330
1F
100
AcDbEntity
  8
化粧台
  6
CONTINUOUS
 62
     2
100
AcDbCircle
 10
1154.003506836416
 20
1624.499999999956
 30
0.0
 40
15.00000000000001
100
AcDbArc
 50
90.00000000000001
 51
147.0951725792534
  0
LINE
  5
172
330
1F
100
AcDbEntity
  8
化粧台
  6
CONTINUOUS
 62
     2
100
AcDbLine
 10
1258.741490224077
 20
1642.390981145636
 30
0.0
 11
1260.811574615488
 21
1699.318301909421
 31
0.0
  0
ARC
  5
173
330
1F
100
AcDbEntity
  8
化粧台
  6
CONTINUOUS
 62
     2
100
AcDbCircle
 10
1255.743471730239
 20
1642.499999999956
 30
0.0
 40
3.000000000000002
100
AcDbArc
 50
270.0
 51
357.9174347202733
  0
ARC
  5
174
330
1F
100
AcDbEntity
  8
化粧台
  6
CONTINUOUS
 62
     2
100
AcDbCircle
 10
1156.464988490949
 20
1667.604339212608
 30
0.0
 40
3.000000000000002
100
AcDbArc
 50
337.2966268826544
 51
92.48955292199311
  0
LINE
  5
175
330
1F
100
AcDbEntity
  8
化粧台
  6
CONTINUOUS
 62
     2
100
AcDbLine
 10
1154.003506836416
 20
1639.499999999956
 30
0.0
 11
1255.743471730239
 21
1639.499999999956
 31
0.0
  0
ARC
  5
176
330
1F
100
AcDbEntity
  8
化粧台
  6
CONTINUOUS
 62
     2
100
AcDbCircle
 10
667.0942137844945
 20
1674.499999999956
 30
0.0
 40
5.0
100
AcDbArc
 50
52.14467483452227
 51
182.0825652797287
  0
LINE
  5
177
330
1F
100
AcDbEntity
  8
化粧台
  6
CONTINUOUS
 62
     2
100
AcDbLine
 10
791.0000000005607
 20
1669.499999999956
 30
0.0
 11
681.5672129603158
 21
1674.257947262577
 31
0.0
  0
ARC
  5
178
330
1F
100
AcDbEntity
  8
化粧台
  6
CONTINUOUS
 62
     2
100
AcDbCircle
 10
682.4359574458435
 20
1694.239070429678
 30
0.0
 40
20.0
100
AcDbArc
 50
232.1446748345211
 51
267.5104470780012
  0
ARC
  5
179
330
1F
100
AcDbEntity
  8
化粧台
  6
CONTINUOUS
 62
     2
100
AcDbCircle
 10
666.1851228754026
 20
1699.499999999956
 30
0.0
 40
5.0
100
AcDbArc
 50
90.00000000000001
 51
182.0825652797287
  0
ARC
  5
17A
330
1F
100
AcDbEntity
  8
化粧台
  6
CONTINUOUS
 62
     2
100
AcDbCircle
 10
767.9964931647414
 20
1624.499999999956
 30
0.0
 40
15.00000000000001
100
AcDbArc
 50
32.90482742074656
 51
90.00000000000001
  0
LINE
  5
17B
330
1F
100
AcDbEntity
  8
化粧台
  6
CONTINUOUS
 62
     2
100
AcDbLine
 10
663.258509777083
 20
1642.390981145636
 30
0.0
 11
661.1884253856701
 21
1699.318301909421
 31
0.0
  0
ARC
  5
17C
330
1F
100
AcDbEntity
  8
化粧台
  6
CONTINUOUS
 62
     2
100
AcDbCircle
 10
666.2565282709188
 20
1642.499999999956
 30
0.0
 40
3.000000000000002
100
AcDbArc
 50
182.082565279727
 51
270.0000000000002
  0
ARC
  5
17D
330
1F
100
AcDbEntity
  8
化粧台
  6
CONTINUOUS
 62
     2
100
AcDbCircle
 10
765.5350115102124
 20
1667.604339212608
 30
0.0
 40
3.000000000000002
100
AcDbArc
 50
87.51044707800041
 51
202.7033731173424
  0
LINE
  5
17E
330
1F
100
AcDbEntity
  8
化粧台
  6
CONTINUOUS
 62
     2
100
AcDbLine
 10
767.9964931647414
 20
1639.499999999956
 30
0.0
 11
666.2565282709188
 21
1639.499999999956
 31
0.0
  0
ARC
  5
17F
330
1F
100
AcDbEntity
  8
化粧台
  6
CONTINUOUS
 62
     2
100
AcDbCircle
 10
1088.629733491067
 20
1458.5
 30
0.0
 40
2.0
100
AcDbArc
 50
16.84927962281586
 51
90.00000000000001
  0
ARC
  5
180
330
1F
100
AcDbEntity
  8
化粧台
  6
CONTINUOUS
 62
     2
100
AcDbCircle
 10
1088.629733491067
 20
1453.5
 30
0.0
 40
2.0
100
AcDbArc
 50
270.0000000000002
 51
343.1507203771823
  0
ARC
  5
181
330
1F
100
AcDbEntity
  8
化粧台
  6
CONTINUOUS
 62
     2
100
AcDbCircle
 10
1080.375000000521
 20
1456.0
 30
0.0
 40
10.625
100
AcDbArc
 50
343.15072037717
 51
16.84927962283012
  0
ARC
  5
182
330
1F
100
AcDbEntity
  8
化粧台
  6
CONTINUOUS
 62
     2
100
AcDbCircle
 10
1031.500000000521
 20
2540.685482900404
 30
0.0
 40
1090.685482900405
100
AcDbArc
 50
266.9919716782235
 51
273.0080283217767
  0
ARC
  5
183
330
1F
100
AcDbEntity
  8
化粧台
  6
CONTINUOUS
 62
     2
100
AcDbCircle
 10
1031.500000000521
 20
371.3145170995958
 30
0.0
 40
1090.685482900405
100
AcDbArc
 50
86.99197167822338
 51
93.00802832177656
  0
ARC
  5
184
330
1F
100
AcDbEntity
  8
化粧台
  6
CONTINUOUS
 62
     2
100
AcDbCircle
 10
982.6250000005207
 20
1456.0
 30
0.0
 40
10.625
100
AcDbArc
 50
163.1507203771698
 51
196.8492796228301
  0
ARC
  5
185
330
1F
100
AcDbEntity
  8
化粧台
  6
CONTINUOUS
 62
     2
100
AcDbCircle
 10
974.3702665099703
 20
1453.5
 30
0.0
 40
2.0
100
AcDbArc
 50
196.8492796228176
 51
270.0000000000002
  0
ARC
  5
186
330
1F
100
AcDbEntity
  8
化粧台
  6
CONTINUOUS
 62
     2
100
AcDbCircle
 10
974.3702665099703
 20
1458.5
 30
0.0
 40
2.0
100
AcDbArc
 50
90.00000000000001
 51
163.1507203771841
  0
ARC
  5
187
330
1F
100
AcDbEntity
  8
化粧台
  6
CONTINUOUS
 62
     2
100
AcDbCircle
 10
833.370266509974
 20
1458.5
 30
0.0
 40
2.0
100
AcDbArc
 50
90.00000000000001
 51
163.1507203771844
  0
ARC
  5
188
330
1F
100
AcDbEntity
  8
化粧台
  6
CONTINUOUS
 62
     2
100
AcDbCircle
 10
833.370266509974
 20
1453.5
 30
0.0
 40
2.0
100
AcDbArc
 50
196.8492796228166
 51
270.0
  0
ARC
  5
189
330
1F
100
AcDbEntity
  8
化粧台
  6
CONTINUOUS
 62
     2
100
AcDbCircle
 10
841.6250000005207
 20
1456.0
 30
0.0
 40
10.625
100
AcDbArc
 50
163.1507203771702
 51
196.8492796228299
  0
ARC
  5
18A
330
1F
100
AcDbEntity
  8
化粧台
  6
CONTINUOUS
 62
     2
100
AcDbCircle
 10
890.5000000005207
 20
2540.685482900404
 30
0.0
 40
1090.685482900405
100
AcDbArc
 50
266.9919716782234
 51
273.0080283217766
  0
ARC
  5
18B
330
1F
100
AcDbEntity
  8
化粧台
  6
CONTINUOUS
 62
     2
100
AcDbCircle
 10
890.5000000005207
 20
371.3145170995958
 30
0.0
 40
1090.685482900405
100
AcDbArc
 50
86.99197167822344
 51
93.00802832177662
  0
ARC
  5
18C
330
1F
100
AcDbEntity
  8
化粧台
  6
CONTINUOUS
 62
     2
100
AcDbCircle
 10
939.3750000005207
 20
1456.0
 30
0.0
 40
10.625
100
AcDbArc
 50
343.1507203771704
 51
16.8492796228307
  0
ARC
  5
18D
330
1F
100
AcDbEntity
  8
化粧台
  6
CONTINUOUS
 62
     2
100
AcDbCircle
 10
947.629733491071
 20
1453.5
 30
0.0
 40
2.0
100
AcDbArc
 50
270.0
 51
343.1507203771844
  0
ARC
  5
18E
330
1F
100
AcDbEntity
  8
化粧台
  6
CONTINUOUS
 62
     2
100
AcDbCircle
 10
947.629733491071
 20
1458.5
 30
0.0
 40
2.0
100
AcDbArc
 50
16.84927962281563
 51
90.00000000000001
  0
LINE
  5
18F
330
1F
100
AcDbEntity
  8
化粧台
  6
CONTINUOUS
 62
     2
100
AcDbLine
 10
1241.000000000519
 20
1501.0
 30
0.0
 11
1241.000000000519
 21
1011.0
 31
0.0
  0
LINE
  5
190
330
1F
100
AcDbEntity
  8
化粧台
  6
CONTINUOUS
 62
     2
100
AcDbLine
 10
962.0000000005207
 20
1011.00000000004
 30
0.0
 11
1241.000000000559
 21
1011.00000000004
 31
0.0
  0
LINE
  5
191
330
1F
100
AcDbEntity
  8
化粧台
  6
CONTINUOUS
 62
     2
100
AcDbLine
 10
681.0000000005207
 20
1501.0
 30
0.0
 11
681.0000000005207
 21
1011.0
 31
0.0
  0
LINE
  5
192
330
1F
100
AcDbEntity
  8
化粧台
  6
CONTINUOUS
 62
     2
100
AcDbLine
 10
681.0000000005207
 20
1011.00000000004
 30
0.0
 11
960.0000000005208
 21
1011.00000000004
 31
0.0
  0
LINE
  5
193
330
1F
100
AcDbEntity
  8
化粧台
  6
CONTINUOUS
 62
     2
100
AcDbLine
 10
960.0000000005208
 20
1501.00000000004
 30
0.0
 11
681.0000000005207
 21
1501.00000000004
 31
0.0
  0
LINE
  5
194
330
1F
100
AcDbEntity
  8
化粧台
  6
CONTINUOUS
 62
     2
100
AcDbLine
 10
1243.000000000592
 20
1508.0
 30
0.0
 11
679.0000000005934
 21
1508.0
 31
0.0
  0
LINE
  5
195
330
1F
100
AcDbEntity
  8
化粧台
  6
CONTINUOUS
 62
     2
100
AcDbLine
 10
1241.000000000559
 20
1501.00000000004
 30
0.0
 11
962.0000000005207
 21
1501.00000000004
 31
0.0
  0
LINE
  5
196
330
1F
100
AcDbEntity
  8
化粧台
  6
CONTINUOUS
 62
     2
100
AcDbLine
 10
677.5000000005607
 20
919.5
 30
0.0
 11
1244.500000000563
 21
919.5
 31
0.0
  0
LINE
  5
197
330
1F
100
AcDbEntity
  8
化粧台
  6
CONTINUOUS
 62
     2
100
AcDbLine
 10
1229.500000000561
 20
1010.0
 30
0.0
 11
1229.500000000561
 21
919.5
 31
0.0
  0
LINE
  5
198
330
1F
100
AcDbEntity
  8
化粧台
  6
CONTINUOUS
 62
     2
100
AcDbLine
 10
692.5000000005607
 20
1010.0
 30
0.0
 11
692.5000000005607
 21
919.5
 31
0.0
  0
LINE
  5
199
330
1F
100
AcDbEntity
  8
化粧台
  6
EXLTYPE3
 62
     6
100
AcDbLine
 10
960.0000000005208
 20
1501.0
 30
0.0
 11
681.0000000004698
 21
1256.0
 31
0.0
  0
LINE
  5
19A
330
1F
100
AcDbEntity
  8
化粧台
  6
EXLTYPE3
 62
     6
100
AcDbLine
 10
681.0000000005207
 20
1256.0
 30
0.0
 11
960.0000000005208
 21
1011.0
 31
0.0
  0
LINE
  5
19B
330
1F
100
AcDbEntity
  8
化粧台
  6
EXLTYPE3
 62
     6
100
AcDbLine
 10
1241.000000000559
 20
1256.00000000008
 30
0.0
 11
962.0000000005207
 21
1011.00000000008
 31
0.0
  0
LINE
  5
19C
330
1F
100
AcDbEntity
  8
化粧台
  6
EXLTYPE3
 62
     6
100
AcDbLine
 10
1241.000000000559
 20
1256.0
 30
0.0
 11
962.0000000005207
 21
1501.0
 31
0.0
  0
LINE
  5
19D
330
1F
100
AcDbEntity
  8
化粧台
  6
CONTINUOUS
 62
     2
100
AcDbLine
 10
679.0000000005934
 20
1639.499999999956
 30
0.0
 11
679.0000000005934
 21
1508.0
 31
0.0
  0
LINE
  5
19E
330
1F
100
AcDbEntity
  8
化粧台
  6
CONTINUOUS
 62
     2
100
AcDbLine
 10
677.5000000005607
 20
1639.499999999956
 30
0.0
 11
677.5000000005607
 21
919.5
 31
0.0
  0
LINE
  5
19F
330
1F
100
AcDbEntity
  8
化粧台
  6
CONTINUOUS
 62
     2
100
AcDbLine
 10
1243.000000000528
 20
1639.499999999956
 30
0.0
 11
1243.000000000528
 21
1508.0
 31
0.0
  0
LINE
  5
1A0
330
1F
100
AcDbEntity
  8
化粧台
  6
CONTINUOUS
 62
     2
100
AcDbLine
 10
1244.500000000563
 20
1639.5
 30
0.0
 11
1244.500000000563
 21
919.5
 31
0.0
  0
LINE
  5
1A1
330
1F
100
AcDbEntity
  8
化粧台
  6
CONTINUOUS
 62
     6
100
AcDbLine
 10
1160.500000000543
 20
911.5
 30
0.0
 11
1181.500000000561
 21
911.5
 31
0.0
  0
LINE
  5
1A2
330
1F
100
AcDbEntity
  8
化粧台
  6
CONTINUOUS
 62
     6
100
AcDbLine
 10
1160.500000000543
 20
919.5
 30
0.0
 11
1160.500000000543
 21
911.5
 31
0.0
  0
LINE
  5
1A3
330
1F
100
AcDbEntity
  8
化粧台
  6
CONTINUOUS
 62
     6
100
AcDbLine
 10
1181.50000000055
 20
919.5
 30
0.0
 11
1181.50000000055
 21
911.5
 31
0.0
  0
LINE
  5
1A4
330
1F
100
AcDbEntity
  8
化粧台
  6
CONTINUOUS
 62
     2
100
AcDbLine
 10
977.0000000005571
 20
869.4999999999782
 30
0.0
 11
945.0000000005571
 21
869.4999999999782
 31
0.0
  0
LINE
  5
1A5
330
1F
100
AcDbEntity
  8
化粧台
  6
CONTINUOUS
 62
     2
100
AcDbLine
 10
945.0000000005571
 20
919.5
 30
0.0
 11
945.0000000005571
 21
869.4999999999782
 31
0.0
  0
LINE
  5
1A6
330
1F
100
AcDbEntity
  8
化粧台
  6
CONTINUOUS
 62
     2
100
AcDbLine
 10
977.0000000005571
 20
919.5
 30
0.0
 11
977.0000000005571
 21
869.4999999999782
 31
0.0
  0
LINE
  5
1A7
330
1F
100
AcDbEntity
  8
化粧台
  6
CONTINUOUS
 62
     6
100
AcDbLine
 10
756.00000000314
 20
1449.50000000004
 30
0.0
 11
776.00000000314
 21
1449.50000000004
 31
0.0
  0
LINE
  5
1A8
330
1F
100
AcDbEntity
  8
化粧台
  6
CONTINUOUS
 62
     6
100
AcDbLine
 10
766.00000000314
 20
1439.5
 30
0.0
 11
766.00000000314
 21
1459.50000000004
 31
0.0
  0
CIRCLE
  5
1A9
330
1F
100
AcDbEntity
  8
化粧台
  6
CONTINUOUS
 62
     6
100
AcDbCircle
 10
766.0000000005607
 20
1449.500000000098
 30
0.0
 40
3.800000000000001
  0
LINE
  5
1AA
330
1F
100
AcDbEntity
  8
化粧台
  6
CONTINUOUS
 62
     6
100
AcDbLine
 10
1146.000000000539
 20
1449.50000000004
 30
0.0
 11
1166.000000000539
 21
1449.50000000004
 31
0.0
  0
LINE
  5
1AB
330
1F
100
AcDbEntity
  8
化粧台
  6
CONTINUOUS
 62
     6
100
AcDbLine
 10
1156.000000000539
 20
1439.5
 30
0.0
 11
1156.000000000539
 21
1459.50000000004
 31
0.0
  0
CIRCLE
  5
1AC
330
1F
100
AcDbEntity
  8
化粧台
  6
CONTINUOUS
 62
     6
100
AcDbCircle
 10
1155.99999999796
 20
1449.500000000098
 30
0.0
 40
3.800000000000001
  0
LINE
  5
1AD
330
1F
100
AcDbEntity
  8
化粧台
  6
EXLTYPE3
 62
     6
100
AcDbLine
 10
1166.000000000568
 20
1825.269009300398
 30
0.0
 11
1166.000000000568
 21
1641.021739130503
 31
0.0
  0
LINE
  5
1AE
330
1F
100
AcDbEntity
  8
化粧台
  6
CONTINUOUS
 62
     2
100
AcDbLine
 10
2205.680501424186
 20
1642.151532742202
 30
0.0
 11
2201.207948430102
 21
1539.282813878577
 31
0.0
  0
ARC
  5
1AF
330
1F
100
AcDbEntity
  8
化粧台
  6
CONTINUOUS
 62
     2
100
AcDbCircle
 10
2208.608897757644
 20
1641.499999999975
 30
0.0
 40
3.000000000000002
100
AcDbArc
 50
90.00000000000001
 51
170.4059317731352
  0
ARC
  5
1B0
330
1F
100
AcDbEntity
  8
化粧台
  6
CONTINUOUS
 62
     2
100
AcDbCircle
 10
2202.692817974545
 20
1642.499999999978
 30
0.0
 40
3.000000000000003
100
AcDbArc
 50
270.0
 51
350.4059317731353
  0
LINE
  5
1B1
330
1F
100
AcDbEntity
  8
化粧台
  6
CONTINUOUS
 62
     2
100
AcDbLine
 10
2208.608897757644
 20
1644.499999999978
 30
0.0
 11
2491.000000000603
 21
1644.499999999978
 31
0.0
  0
LINE
  5
1B2
330
1F
100
AcDbEntity
  8
化粧台
  6
CONTINUOUS
 62
     2
100
AcDbLine
 10
2191.000000000603
 20
1669.499999999978
 30
0.0
 11
2191.000000000603
 21
1674.499999999978
 31
0.0
  0
LINE
  5
1B3
330
1F
100
AcDbEntity
  8
化粧台
  6
CONTINUOUS
 62
     2
100
AcDbLine
 10
2449.705835738731
 20
1679.499999999978
 30
0.0
 11
2196.000000000603
 21
1679.499999999978
 31
0.0
  0
ARC
  5
1B4
330
1F
100
AcDbEntity
  8
化粧台
  6
CONTINUOUS
 62
     2
100
AcDbCircle
 10
2449.705835738731
 20
1684.499999999978
 30
0.0
 40
5.0
100
AcDbArc
 50
270.0
 51
343.1195105726896
  0
LINE
  5
1B5
330
1F
100
AcDbEntity
  8
化粧台
  6
CONTINUOUS
 62
     2
100
AcDbLine
 10
2459.92331887811
 20
1700.951881795063
 30
0.0
 11
2454.490398336617
 21
1683.04811820489
 31
0.0
  0
ARC
  5
1B6
330
1F
100
AcDbEntity
  8
化粧台
  6
CONTINUOUS
 62
     2
100
AcDbCircle
 10
2196.212667638333
 20
1539.499999999978
 30
0.0
 40
5.0
100
AcDbArc
 50
235.0734784673723
 51
357.5104470780591
  0
ARC
  5
1B7
330
1F
100
AcDbEntity
  8
化粧台
  6
CONTINUOUS
 62
     2
100
AcDbCircle
 10
2290.679366996061
 20
1674.781346505904
 30
0.0
 40
170.0
100
AcDbArc
 50
183.5724826096917
 51
235.0734784673746
  0
ARC
  5
1B8
330
1F
100
AcDbEntity
  8
化粧台
  6
CONTINUOUS
 62
     2
100
AcDbCircle
 10
2196.000000000603
 20
1674.499999999978
 30
0.0
 40
5.0
100
AcDbArc
 50
90.00000000000001
 51
180.0000000000002
  0
ARC
  5
1B9
330
1F
100
AcDbEntity
  8
化粧台
  6
CONTINUOUS
 62
     2
100
AcDbCircle
 10
2126.000000000603
 20
2156.999999999975
 30
0.0
 40
487.4999999999997
100
AcDbArc
 50
270.0
 51
277.6622556607652
  0
ARC
  5
1BA
330
1F
100
AcDbEntity
  8
化粧台
  6
CONTINUOUS
 62
     2
100
AcDbCircle
 10
2126.000000000603
 20
1664.499999999978
 30
0.0
 40
5.0
100
AcDbArc
 50
90.00000000000001
 51
183.5724826096912
  0
LINE
  5
1BB
330
1F
100
AcDbEntity
  8
化粧台
  6
CONTINUOUS
 62
     2
100
AcDbLine
 10
2191.069933514686
 20
1668.666666666642
 30
0.0
 11
2195.577422873239
 21
1641.999999999978
 31
0.0
  0
ARC
  5
1BC
330
1F
100
AcDbEntity
  8
化粧台
  6
CONTINUOUS
 62
     2
100
AcDbCircle
 10
2196.000000000603
 20
1669.499999999978
 30
0.0
 40
5.0
100
AcDbArc
 50
180.0000000000002
 51
189.5940682268592
  0
ARC
  5
1BD
330
1F
100
AcDbEntity
  8
化粧台
  6
CONTINUOUS
 62
     2
100
AcDbCircle
 10
2198.535462764789
 20
1642.499999999978
 30
0.0
 40
3.000000000000002
100
AcDbArc
 50
189.5940682268655
 51
270.0
  0
LINE
  5
1BE
330
1F
100
AcDbEntity
  8
化粧台
  6
CONTINUOUS
 62
     2
100
AcDbLine
 10
2198.535462764789
 20
1639.499999999978
 30
0.0
 11
2202.692817974545
 21
1639.499999999978
 31
0.0
  0
LINE
  5
1BF
330
1F
100
AcDbEntity
  8
化粧台
  6
CONTINUOUS
 62
     2
100
AcDbLine
 10
2229.000000000601
 20
1011.0
 30
0.0
 11
2229.000000000601
 21
1501.0
 31
0.0
  0
LINE
  5
1C0
330
1F
100
AcDbEntity
  8
化粧台
  6
CONTINUOUS
 62
     2
100
AcDbLine
 10
2491.000000000613
 20
1648.0
 30
0.0
 11
2491.000000000613
 21
1529.499999999949
 31
0.0
  0
LINE
  5
1C1
330
1F
100
AcDbEntity
  8
化粧台
  6
CONTINUOUS
 62
     2
100
AcDbLine
 10
2214.000000000612
 20
1501.0
 30
0.0
 11
2214.000000000612
 21
1011.0
 31
0.0
  0
LINE
  5
1C2
330
1F
100
AcDbEntity
  8
化粧台
  6
CONTINUOUS
 62
     2
100
AcDbLine
 10
2214.000000000612
 20
1501.0
 30
0.0
 11
2229.000000000608
 21
1501.0
 31
0.0
  0
LINE
  5
1C3
330
1F
100
AcDbEntity
  8
化粧台
  6
CONTINUOUS
 62
     2
100
AcDbLine
 10
2214.000000000612
 20
1011.0
 30
0.0
 11
2229.000000000608
 21
1011.0
 31
0.0
  0
ARC
  5
1C4
330
1F
100
AcDbEntity
  8
化粧台
  6
CONTINUOUS
 62
     2
100
AcDbCircle
 10
2204.500000000661
 20
1456.0
 30
0.0
 40
18.5
100
AcDbArc
 50
163.3984504009939
 51
196.6015495990061
  0
LINE
  5
1C5
330
1F
100
AcDbEntity
  8
化粧台
  6
CONTINUOUS
 62
     2
100
AcDbLine
 10
2214.000000000661
 20
1451.5
 30
0.0
 11
2187.786557397211
 21
1450.001629662143
 31
0.0
  0
ARC
  5
1C6
330
1F
100
AcDbEntity
  8
化粧台
  6
CONTINUOUS
 62
     2
100
AcDbCircle
 10
2187.729490169412
 20
1451.0
 30
0.0
 40
1.0
100
AcDbArc
 50
196.6015495990198
 51
273.2714886349227
  0
LINE
  5
1C7
330
1F
100
AcDbEntity
  8
化粧台
  6
CONTINUOUS
 62
     2
100
AcDbLine
 10
2214.000000000661
 20
1460.5
 30
0.0
 11
2187.786557397211
 21
1461.998370337857
 31
0.0
  0
LINE
  5
1C8
330
1F
100
AcDbEntity
  8
化粧台
  6
CONTINUOUS
 62
     2
100
AcDbLine
 10
2214.000000000661
 20
1451.5
 30
0.0
 11
2214.000000000661
 21
1460.5
 31
0.0
  0
ARC
  5
1C9
330
1F
100
AcDbEntity
  8
化粧台
  6
CONTINUOUS
 62
     2
100
AcDbCircle
 10
2187.729490169412
 20
1461.0
 30
0.0
 40
1.0
100
AcDbArc
 50
86.72851136507767
 51
163.3984504009802
  0
LINE
  5
1CA
330
1F
100
AcDbEntity
  8
化粧台
  6
CONTINUOUS
 62
     2
100
AcDbLine
 10
2491.000000000601
 20
1529.499999999971
 30
0.0
 11
2491.000000000601
 21
919.5
 31
0.0
  0
LINE
  5
1CB
330
1F
100
AcDbEntity
  8
化粧台
  6
CONTINUOUS
 62
     2
100
AcDbLine
 10
2210.500000000601
 20
1508.0
 30
0.0
 11
2231.000000000601
 21
1508.0
 31
0.0
  0
LINE
  5
1CC
330
1F
100
AcDbEntity
  8
化粧台
  6
CONTINUOUS
 62
     2
100
AcDbLine
 10
2231.000000000601
 20
919.5
 30
0.0
 11
2491.000000000601
 21
919.5
 31
0.0
  0
LINE
  5
1CD
330
1F
100
AcDbEntity
  8
化粧台
  6
CONTINUOUS
 62
     2
100
AcDbLine
 10
2210.500000000601
 20
1508.0
 30
0.0
 11
2210.500000000601
 21
1644.499999999978
 31
0.0
  0
LINE
  5
1CE
330
1F
100
AcDbEntity
  8
化粧台
  6
CONTINUOUS
 62
     2
100
AcDbLine
 10
2231.000000000601
 20
919.5
 30
0.0
 11
2231.000000000601
 21
1644.499999999978
 31
0.0
  0
LINE
  5
1CF
330
1F
100
AcDbEntity
  8
化粧台
  6
CONTINUOUS
 62
     2
100
AcDbLine
 10
2422.000000000559
 20
869.4999999999782
 30
0.0
 11
2390.000000000559
 21
869.4999999999782
 31
0.0
  0
LINE
  5
1D0
330
1F
100
AcDbEntity
  8
化粧台
  6
CONTINUOUS
 62
     2
100
AcDbLine
 10
2390.000000000559
 20
919.5
 30
0.0
 11
2390.000000000559
 21
869.4999999999782
 31
0.0
  0
LINE
  5
1D1
330
1F
100
AcDbEntity
  8
化粧台
  6
CONTINUOUS
 62
     2
100
AcDbLine
 10
2422.000000000559
 20
919.5
 30
0.0
 11
2422.000000000559
 21
869.4999999999782
 31
0.0
  0
LINE
  5
1D2
330
1F
100
AcDbEntity
  8
化粧台
  6
EXLTYPE2
 62
     6
100
AcDbLine
 10
2390.000000000561
 20
919.5
 30
0.0
 11
2390.000000000561
 21
1041.0
 31
0.0
  0
LINE
  5
1D3
330
1F
100
AcDbEntity
  8
化粧台
  6
EXLTYPE2
 62
     6
100
AcDbLine
 10
2422.000000000561
 20
919.5
 30
0.0
 11
2422.000000000561
 21
1041.0
 31
0.0
  0
LINE
  5
1D4
330
1F
100
AcDbEntity
  8
化粧台
  6
CONTINUOUS
 62
     6
100
AcDbLine
 10
2395.500000000561
 20
911.5
 30
0.0
 11
2416.50000000055
 21
911.5
 31
0.0
  0
LINE
  5
1D5
330
1F
100
AcDbEntity
  8
化粧台
  6
CONTINUOUS
 62
     6
100
AcDbLine
 10
2416.50000000055
 20
919.5
 30
0.0
 11
2416.50000000055
 21
911.5
 31
0.0
  0
LINE
  5
1D6
330
1F
100
AcDbEntity
  8
化粧台
  6
CONTINUOUS
 62
     6
100
AcDbLine
 10
2395.500000000543
 20
919.5
 30
0.0
 11
2395.500000000543
 21
911.5
 31
0.0
  0
LINE
  5
1D7
330
1F
100
AcDbEntity
  8
化粧台
  6
EXLTYPE2
 62
     6
100
AcDbLine
 10
2395.500000000561
 20
919.5
 30
0.0
 11
2395.500000000561
 21
1041.0
 31
0.0
  0
LINE
  5
1D8
330
1F
100
AcDbEntity
  8
化粧台
  6
EXLTYPE2
 62
     6
100
AcDbLine
 10
2416.500000000561
 20
919.5
 30
0.0
 11
2416.500000000561
 21
1041.0
 31
0.0
  0
LINE
  5
1D9
330
1F
100
AcDbEntity
  8
化粧台
  6
EXLTYPE3
 62
     6
100
AcDbLine
 10
2406.000000000559
 20
1091.0
 30
0.0
 11
2406.000000000559
 21
849.4999999999782
 31
0.0
  0
LINE
  5
1DA
330
1F
100
AcDbEntity
  8
化粧台
  6
CONTINUOUS
 62
     6
100
AcDbLine
 10
2523.500005722565
 20
1449.499999999956
 30
0.0
 11
2491.000005722565
 21
1447.49999999996
 31
0.0
  0
LINE
  5
1DB
330
1F
100
AcDbEntity
  8
化粧台
  6
CONTINUOUS
 62
     6
100
AcDbLine
 10
2491.000005722565
 20
1451.49999999996
 30
0.0
 11
2523.500005722565
 21
1449.499999999956
 31
0.0
  0
LINE
  5
1DC
330
1F
100
AcDbEntity
  8
化粧台
  6
CONTINUOUS
 62
     6
100
AcDbLine
 10
2486.000000000561
 20
1449.499999999953
 30
0.0
 11
2528.500005722461
 21
1449.499999999953
 31
0.0
  0
ARC
  5
1DD
330
1F
100
AcDbEntity
  8
化粧台
  6
CONTINUOUS
 62
     2
100
AcDbCircle
 10
2464.707881475994
 20
1699.499999999978
 30
0.0
 40
5.0
100
AcDbArc
 50
90.00000000000001
 51
163.119510572688
  0
LINE
  5
1DE
330
1F
100
AcDbEntity
  8
化粧台
  6
CONTINUOUS
 62
     2
100
AcDbLine
 10
2491.000000000603
 20
1704.499999999978
 30
0.0
 11
2491.000000000603
 21
1644.499999999978
 31
0.0
  0
LINE
  5
1DF
330
1F
100
AcDbEntity
  8
化粧台
  6
CONTINUOUS
 62
     2
100
AcDbLine
 10
2491.000000000603
 20
1704.499999999978
 30
0.0
 11
2464.707881475994
 21
1704.499999999978
 31
0.0
  0
LINE
  5
1E0
330
1F
100
AcDbEntity
  8
化粧台
  6
EXLTYPE3
 62
     6
100
AcDbLine
 10
2391.000000000568
 20
1825.269009300398
 30
0.0
 11
2391.000000000568
 21
1649.500000000102
 31
0.0
  0
LINE
  5
1E1
330
1F
100
AcDbEntity
  8
化粧台
  6
CONTINUOUS
 62
     6
100
AcDbLine
 10
983.8000000005526
 20
981.5000000000001
 30
0.0
 11
983.8000000005526
 21
963.7000000000007
 31
0.0
  0
LINE
  5
1E2
330
1F
100
AcDbEntity
  8
化粧台
  6
CONTINUOUS
 62
     6
100
AcDbLine
 10
938.2000000005542
 20
981.5000000000001
 30
0.0
 11
938.2000000005542
 21
963.7000000000007
 31
0.0
  0
ARC
  5
1E3
330
1F
100
AcDbEntity
  8
化粧台
  6
EXLTYPE2
 62
     6
100
AcDbCircle
 10
930.5000000005534
 20
943.5
 30
0.0
 40
3.000000000000003
100
AcDbArc
 50
90.00000000000001
 51
180.0
  0
LINE
  5
1E4
330
1F
100
AcDbEntity
  8
化粧台
  6
EXLTYPE2
 62
     6
100
AcDbLine
 10
930.5000000005534
 20
946.5
 30
0.0
 11
991.5000000005535
 21
946.5
 31
0.0
  0
LINE
  5
1E5
330
1F
100
AcDbEntity
  8
化粧台
  6
EXLTYPE2
 62
     6
100
AcDbLine
 10
927.5000000005534
 20
943.5
 30
0.0
 11
927.5000000005534
 21
923.5
 31
0.0
  0
ARC
  5
1E6
330
1F
100
AcDbEntity
  8
化粧台
  6
EXLTYPE2
 62
     6
100
AcDbCircle
 10
937.0000000005534
 20
958.5
 30
0.0
 40
3.000000000000003
100
AcDbArc
 50
90.00000000000001
 51
180.0
  0
LINE
  5
1E7
330
1F
100
AcDbEntity
  8
化粧台
  6
EXLTYPE2
 62
     6
100
AcDbLine
 10
937.0000000005534
 20
961.4999999999999
 30
0.0
 11
985.0000000005534
 21
961.4999999999999
 31
0.0
  0
LINE
  5
1E8
330
1F
100
AcDbEntity
  8
化粧台
  6
EXLTYPE2
 62
     6
100
AcDbLine
 10
934.0000000005534
 20
958.5
 30
0.0
 11
934.0000000005534
 21
946.5
 31
0.0
  0
ARC
  5
1E9
330
1F
100
AcDbEntity
  8
化粧台
  6
EXLTYPE2
 62
     6
100
AcDbCircle
 10
985.0000000005534
 20
958.5
 30
0.0
 40
3.000000000000003
100
AcDbArc
 50
0.0
 51
90.00000000000001
  0
LINE
  5
1EA
330
1F
100
AcDbEntity
  8
化粧台
  6
EXLTYPE2
 62
     6
100
AcDbLine
 10
988.0000000005535
 20
958.5
 30
0.0
 11
988.0000000005535
 21
946.5
 31
0.0
  0
ARC
  5
1EB
330
1F
100
AcDbEntity
  8
化粧台
  6
EXLTYPE2
 62
     6
100
AcDbCircle
 10
991.5000000005535
 20
943.5
 30
0.0
 40
3.000000000000003
100
AcDbArc
 50
0.0
 51
90.00000000000001
  0
LINE
  5
1EC
330
1F
100
AcDbEntity
  8
化粧台
  6
EXLTYPE2
 62
     6
100
AcDbLine
 10
994.5000000005533
 20
943.5
 30
0.0
 11
994.5000000005533
 21
923.5
 31
0.0
  0
LINE
  5
1ED
330
1F
100
AcDbEntity
  8
化粧台
  6
EXLTYPE2
 62
     6
100
AcDbLine
 10
927.5000000005534
 20
923.5
 30
0.0
 11
994.5000000005533
 21
923.5
 31
0.0
  0
LINE
  5
1EE
330
1F
100
AcDbEntity
  8
化粧台
  6
EXLTYPE2
 62
     6
100
AcDbLine
 10
938.2000000005542
 20
981.5000000000001
 30
0.0
 11
983.8000000005526
 21
981.5000000000001
 31
0.0
  0
LINE
  5
1EF
330
1F
100
AcDbEntity
  8
化粧台
  6
EXLTYPE2
 62
     6
100
AcDbLine
 10
938.2000000005542
 20
963.7000000000007
 30
0.0
 11
983.8000000005526
 21
963.7000000000007
 31
0.0
  0
LINE
  5
1F0
330
1F
100
AcDbEntity
  8
化粧台
  6
CONTINUOUS
 62
     6
100
AcDbLine
 10
2428.800000000553
 20
981.5000000000001
 30
0.0
 11
2428.800000000553
 21
963.7000000000007
 31
0.0
  0
LINE
  5
1F1
330
1F
100
AcDbEntity
  8
化粧台
  6
CONTINUOUS
 62
     6
100
AcDbLine
 10
2383.200000000554
 20
981.5000000000001
 30
0.0
 11
2383.200000000554
 21
963.7000000000007
 31
0.0
  0
ARC
  5
1F2
330
1F
100
AcDbEntity
  8
化粧台
  6
EXLTYPE2
 62
     6
100
AcDbCircle
 10
2375.500000000553
 20
943.5
 30
0.0
 40
3.000000000000003
100
AcDbArc
 50
90.00000000000001
 51
180.0
  0
LINE
  5
1F3
330
1F
100
AcDbEntity
  8
化粧台
  6
EXLTYPE2
 62
     6
100
AcDbLine
 10
2375.500000000553
 20
946.5
 30
0.0
 11
2436.500000000553
 21
946.5
 31
0.0
  0
LINE
  5
1F4
330
1F
100
AcDbEntity
  8
化粧台
  6
EXLTYPE2
 62
     6
100
AcDbLine
 10
2372.500000000553
 20
943.5
 30
0.0
 11
2372.500000000553
 21
923.5
 31
0.0
  0
ARC
  5
1F5
330
1F
100
AcDbEntity
  8
化粧台
  6
EXLTYPE2
 62
     6
100
AcDbCircle
 10
2382.000000000553
 20
958.5
 30
0.0
 40
3.000000000000003
100
AcDbArc
 50
90.00000000000001
 51
180.0
  0
LINE
  5
1F6
330
1F
100
AcDbEntity
  8
化粧台
  6
EXLTYPE2
 62
     6
100
AcDbLine
 10
2382.000000000553
 20
961.4999999999999
 30
0.0
 11
2430.000000000553
 21
961.4999999999999
 31
0.0
  0
LINE
  5
1F7
330
1F
100
AcDbEntity
  8
化粧台
  6
EXLTYPE2
 62
     6
100
AcDbLine
 10
2379.000000000553
 20
958.5
 30
0.0
 11
2379.000000000553
 21
946.5
 31
0.0
  0
ARC
  5
1F8
330
1F
100
AcDbEntity
  8
化粧台
  6
EXLTYPE2
 62
     6
100
AcDbCircle
 10
2430.000000000553
 20
958.5
 30
0.0
 40
3.000000000000003
100
AcDbArc
 50
0.0
 51
90.00000000000001
  0
LINE
  5
1F9
330
1F
100
AcDbEntity
  8
化粧台
  6
EXLTYPE2
 62
     6
100
AcDbLine
 10
2433.000000000553
 20
958.5
 30
0.0
 11
2433.000000000553
 21
946.5
 31
0.0
  0
ARC
  5
1FA
330
1F
100
AcDbEntity
  8
化粧台
  6
EXLTYPE2
 62
     6
100
AcDbCircle
 10
2436.500000000553
 20
943.5
 30
0.0
 40
3.000000000000003
100
AcDbArc
 50
0.0
 51
90.00000000000001
  0
LINE
  5
1FB
330
1F
100
AcDbEntity
  8
化粧台
  6
EXLTYPE2
 62
     6
100
AcDbLine
 10
2439.500000000553
 20
943.5
 30
0.0
 11
2439.500000000553
 21
923.5
 31
0.0
  0
LINE
  5
1FC
330
1F
100
AcDbEntity
  8
化粧台
  6
EXLTYPE2
 62
     6
100
AcDbLine
 10
2372.500000000553
 20
923.5
 30
0.0
 11
2439.500000000553
 21
923.5
 31
0.0
  0
LINE
  5
1FD
330
1F
100
AcDbEntity
  8
化粧台
  6
EXLTYPE2
 62
     6
100
AcDbLine
 10
2383.200000000554
 20
981.5000000000001
 30
0.0
 11
2428.800000000553
 21
981.5000000000001
 31
0.0
  0
LINE
  5
1FE
330
1F
100
AcDbEntity
  8
化粧台
  6
EXLTYPE2
 62
     6
100
AcDbLine
 10
2383.200000000554
 20
963.7000000000007
 30
0.0
 11
2428.800000000553
 21
963.7000000000007
 31
0.0
  0
LINE
  5
1FF
330
1F
100
AcDbEntity
  8
化粧台
  6
EXLTYPE2
 62
     6
100
AcDbLine
 10
945.0000000005607
 20
919.5
 30
0.0
 11
945.0000000005607
 21
1089.5
 31
0.0
  0
LINE
  5
200
330
1F
100
AcDbEntity
  8
化粧台
  6
EXLTYPE2
 62
     6
100
AcDbLine
 10
977.0000000005607
 20
919.5
 30
0.0
 11
977.0000000005607
 21
1089.5
 31
0.0
  0
LINE
  5
201
330
1F
100
AcDbEntity
  8
化粧台
  6
EXLTYPE4
 62
     6
100
AcDbLine
 10
1160.500000000561
 20
919.5
 30
0.0
 11
1160.500000000561
 21
1069.5
 31
0.0
  0
LINE
  5
202
330
1F
100
AcDbEntity
  8
化粧台
  6
EXLTYPE4
 62
     6
100
AcDbLine
 10
1181.500000000561
 20
919.5
 30
0.0
 11
1181.500000000561
 21
1069.5
 31
0.0
  0
LINE
  5
203
330
1F
100
AcDbEntity
  8
化粧台
  6
EXLTYPE3
 62
     6
100
AcDbLine
 10
1171.000000000561
 20
1079.5
 30
0.0
 11
1171.000000000561
 21
891.5
 31
0.0
  0
LINE
  5
204
330
1F
100
AcDbEntity
  8
化粧台
  6
EXLTYPE3
 62
     6
100
AcDbLine
 10
2461.000000000561
 20
1389.499999999998
 30
0.0
 11
2556.000000000561
 21
1389.499999999998
 31
0.0
  0
LINE
  5
205
330
1F
100
AcDbEntity
  8
化粧台
  6
CONTINUOUS
 62
     6
100
AcDbLine
 10
2541.000000000561
 20
1405.499999999998
 30
0.0
 11
2541.000000000561
 21
1373.499999999998
 31
0.0
  0
LINE
  5
206
330
1F
100
AcDbEntity
  8
化粧台
  6
CONTINUOUS
 62
     6
100
AcDbLine
 10
2491.000000000561
 20
1405.499999999998
 30
0.0
 11
2541.000000000561
 21
1405.499999999998
 31
0.0
  0
LINE
  5
207
330
1F
100
AcDbEntity
  8
化粧台
  6
CONTINUOUS
 62
     6
100
AcDbLine
 10
2491.000000000561
 20
1373.499999999998
 30
0.0
 11
2541.000000000561
 21
1373.499999999998
 31
0.0
  0
LINE
  5
208
330
1F
100
AcDbEntity
  8
化粧台
  6
CONTINUOUS
 62
     6
100
AcDbLine
 10
2491.000000000561
 20
1258.999999999978
 30
0.0
 11
2499.000000000561
 21
1258.999999999978
 31
0.0
  0
LINE
  5
209
330
1F
100
AcDbEntity
  8
化粧台
  6
CONTINUOUS
 62
     6
100
AcDbLine
 10
2491.000000000561
 20
1279.999999999985
 30
0.0
 11
2499.000000000561
 21
1279.999999999985
 31
0.0
  0
LINE
  5
20A
330
1F
100
AcDbEntity
  8
化粧台
  6
CONTINUOUS
 62
     6
100
AcDbLine
 10
2499.000000000561
 20
1258.999999999996
 30
0.0
 11
2499.000000000561
 21
1279.999999999985
 31
0.0
  0
LINE
  5
20B
330
1F
100
AcDbEntity
  8
化粧台
  6
EXLTYPE3
 62
     6
100
AcDbLine
 10
2471.000000000561
 20
1269.499999999998
 30
0.0
 11
2519.000000000561
 21
1269.499999999998
 31
0.0
  0
LINE
  5
20C
330
1F
100
AcDbEntity
  8
化粧台
  6
CONTINUOUS
 62
     2
100
AcDbLine
 10
960.0000000005208
 20
1501.0
 30
0.0
 11
960.0000000005208
 21
1339.5
 31
0.0
  0
LINE
  5
20D
330
1F
100
AcDbEntity
  8
化粧台
  6
CONTINUOUS
 62
     2
100
AcDbLine
 10
960.0000000005208
 20
1231.5
 30
0.0
 11
960.0000000005208
 21
1011.00000000004
 31
0.0
  0
LINE
  5
20E
330
1F
100
AcDbEntity
  8
化粧台
  6
CONTINUOUS
 62
     2
100
AcDbLine
 10
962.0000000005207
 20
1501.0
 30
0.0
 11
962.0000000005207
 21
1339.5
 31
0.0
  0
LINE
  5
20F
330
1F
100
AcDbEntity
  8
化粧台
  6
CONTINUOUS
 62
     2
100
AcDbLine
 10
962.0000000005207
 20
1231.5
 30
0.0
 11
962.0000000005207
 21
1011.00000000004
 31
0.0
  0
LINE
  5
210
330
1F
100
AcDbEntity
  8
化粧台
  6
EXLTYPE3
 62
     6
100
AcDbLine
 10
961.0000000005608
 20
1724.499999999956
 30
0.0
 11
961.0000000005608
 21
1339.5
 31
0.0
  0
LINE
  5
211
330
1F
100
AcDbEntity
  8
化粧台
  6
EXLTYPE3
 62
     6
100
AcDbLine
 10
961.0000000005608
 20
1231.5
 30
0.0
 11
961.0000000005608
 21
849.5
 31
0.0
  0
LINE
  5
212
330
1F
100
AcDbEntity
  8
化粧台
  6
CONTINUOUS
 62
     1
100
AcDbLine
 10
676.0000000006007
 20
2680.396460656128
 30
0.0
 11
665.4968154081548
 21
2681.458862369156
 31
0.0
  0
LINE
  5
213
330
1F
100
AcDbEntity
  8
化粧台
  6
CONTINUOUS
 62
     1
100
AcDbLine
 10
1246.000000000519
 20
2680.396460656128
 30
0.0
 11
1256.503184592968
 21
2681.458862369156
 31
0.0
  0
LINE
  5
214
330
1F
100
AcDbEntity
  8
化粧台
  6
CONTINUOUS
 62
     1
100
AcDbLine
 10
676.0000000005607
 20
2680.396460656131
 30
0.0
 11
676.0000000005607
 21
2419.499999999956
 31
0.0
  0
ARC
  5
215
330
1F
100
AcDbEntity
  8
化粧台
  6
CONTINUOUS
 62
     1
100
AcDbCircle
 10
666.0000000005607
 20
2686.433478461477
 30
0.0
 40
5.0
100
AcDbArc
 50
180.0
 51
264.2241517557764
  0
LINE
  5
216
330
1F
100
AcDbEntity
  8
化粧台
  6
CONTINUOUS
 62
     1
100
AcDbLine
 10
879.8467290696431
 20
2678.879204098828
 30
0.0
 11
676.0000000006007
 21
2680.396460656128
 31
0.0
  0
LINE
  5
217
330
1F
100
AcDbEntity
  8
化粧台
  6
CONTINUOUS
 62
     1
100
AcDbLine
 10
666.0000000005607
 20
2689.499999999956
 30
0.0
 11
661.0000000005607
 21
2689.499999999956
 31
0.0
  0
ARC
  5
218
330
1F
100
AcDbEntity
  8
化粧台
  6
CONTINUOUS
 62
     2
100
AcDbCircle
 10
666.0000000005607
 20
2694.499999999956
 30
0.0
 40
5.0
100
AcDbArc
 50
180.0
 51
270.0000000000002
  0
ARC
  5
219
330
1F
100
AcDbEntity
  8
化粧台
  6
CONTINUOUS
 62
     2
100
AcDbCircle
 10
759.2575899822409
 20
2414.499999999956
 30
0.0
 40
5.0
100
AcDbArc
 50
51.72879195205692
 51
90.00000000000001
  0
ARC
  5
21A
330
1F
100
AcDbEntity
  8
化粧台
  6
CONTINUOUS
 62
     2
100
AcDbCircle
 10
666.0000000005607
 20
2424.499999999956
 30
0.0
 40
5.0
100
AcDbArc
 50
180.0
 51
270.0000000000002
  0
ARC
  5
21B
330
1F
100
AcDbEntity
  8
化粧台
  6
CONTINUOUS
 62
     1
100
AcDbCircle
 10
961.0000000005608
 20
2670.214285714243
 30
0.0
 40
320.7142857142863
100
AcDbArc
 50
231.4199075616226
 51
231.7287919520556
  0
LINE
  5
21C
330
1F
100
AcDbEntity
  8
化粧台
  6
CONTINUOUS
 62
     1
100
AcDbLine
 10
761.0000000005607
 20
2419.499999999956
 30
0.0
 11
759.2575899822409
 21
2419.499999999956
 31
0.0
  0
LINE
  5
21D
330
1F
100
AcDbEntity
  8
化粧台
  6
CONTINUOUS
 62
     2
100
AcDbLine
 10
661.0000000005607
 20
2719.499999999956
 30
0.0
 11
661.0000000005607
 21
2424.499999999956
 31
0.0
  0
LINE
  5
21E
330
1F
100
AcDbEntity
  8
化粧台
  6
CONTINUOUS
 62
     2
100
AcDbLine
 10
759.2575899822409
 20
2419.499999999956
 30
0.0
 11
666.0000000005607
 21
2419.499999999956
 31
0.0
  0
ELLIPSE
  5
21F
330
1F
100
AcDbEntity
  8
化粧台
  6
CONTINUOUS
 62
     2
100
AcDbEllipse
 10
961.0000000005608
 20
2665.673898276829
 30
0.0
 11
12.00000000000001
 21
0.0
 31
0.0
210
0.0
220
0.0
230
1.0
 40
0.2903763590166665
 41
0.0
 42
6.283185307179586
  0
ARC
  5
220
330
1F
100
AcDbEntity
  8
化粧台
  6
CONTINUOUS
 62
     2
100
AcDbCircle
 10
961.0000000005608
 20
2757.472118768519
 30
0.0
 40
112.9721187685906
100
AcDbArc
 50
224.0817618104601
 51
315.9182381895401
  0
LINE
  5
221
330
1F
100
AcDbEntity
  8
化粧台
  6
CONTINUOUS
 62
     1
100
AcDbLine
 10
1246.000000000559
 20
2680.396460656131
 30
0.0
 11
1246.000000000559
 21
2419.499999999956
 31
0.0
  0
ARC
  5
222
330
1F
100
AcDbEntity
  8
化粧台
  6
CONTINUOUS
 62
     1
100
AcDbCircle
 10
1256.000000000559
 20
2686.433478461477
 30
0.0
 40
5.0
100
AcDbArc
 50
275.7758482442237
 51
0.0
  0
LINE
  5
223
330
1F
100
AcDbEntity
  8
化粧台
  6
CONTINUOUS
 62
     1
100
AcDbLine
 10
1042.153270931482
 20
2678.879204098828
 30
0.0
 11
1246.000000000519
 21
2680.396460656128
 31
0.0
  0
LINE
  5
224
330
1F
100
AcDbEntity
  8
化粧台
  6
CONTINUOUS
 62
     1
100
AcDbLine
 10
1256.000000000559
 20
2689.499999999956
 30
0.0
 11
1261.000000000559
 21
2689.499999999956
 31
0.0
  0
ARC
  5
225
330
1F
100
AcDbEntity
  8
化粧台
  6
CONTINUOUS
 62
     2
100
AcDbCircle
 10
1256.000000000559
 20
2694.499999999956
 30
0.0
 40
5.0
100
AcDbArc
 50
270.0000000000002
 51
0.0
  0
LINE
  5
226
330
1F
100
AcDbEntity
  8
化粧台
  6
CONTINUOUS
 62
     2
100
AcDbLine
 10
666.0000000005607
 20
2689.499999999956
 30
0.0
 11
1256.000000000559
 21
2689.499999999956
 31
0.0
  0
LINE
  5
227
330
1F
100
AcDbEntity
  8
化粧台
  6
CONTINUOUS
 62
     2
100
AcDbLine
 10
661.0000000005607
 20
2719.499999999956
 30
0.0
 11
1261.000000000559
 21
2719.499999999956
 31
0.0
  0
CIRCLE
  5
228
330
1F
100
AcDbEntity
  8
化粧台
  6
CONTINUOUS
 62
     2
100
AcDbCircle
 10
961.0000000005608
 20
2594.499999999956
 30
0.0
 40
20.5
  0
CIRCLE
  5
229
330
1F
100
AcDbEntity
  8
化粧台
  6
CONTINUOUS
 62
     2
100
AcDbCircle
 10
961.0000000005608
 20
2594.499999999956
 30
0.0
 40
30.50000000000002
  0
ARC
  5
22A
330
1F
100
AcDbEntity
  8
化粧台
  6
CONTINUOUS
 62
     2
100
AcDbCircle
 10
1162.74241001888
 20
2414.499999999956
 30
0.0
 40
5.0
100
AcDbArc
 50
90.00000000000001
 51
128.2712080479443
  0
ARC
  5
22B
330
1F
100
AcDbEntity
  8
化粧台
  6
CONTINUOUS
 62
     2
100
AcDbCircle
 10
1256.000000000559
 20
2424.499999999956
 30
0.0
 40
5.0
100
AcDbArc
 50
270.0000000000002
 51
0.0
  0
ARC
  5
22C
330
1F
100
AcDbEntity
  8
化粧台
  6
CONTINUOUS
 62
     2
100
AcDbCircle
 10
961.0000000005608
 20
2670.214285714243
 30
0.0
 40
320.7142857142863
100
AcDbArc
 50
231.7287919520556
 51
308.2712080479444
  0
ARC
  5
22D
330
1F
100
AcDbEntity
  8
化粧台
  6
CONTINUOUS
 62
     1
100
AcDbCircle
 10
961.0000000005608
 20
2670.214285714243
 30
0.0
 40
320.7142857142863
100
AcDbArc
 50
308.2712080479444
 51
308.5800924383774
  0
LINE
  5
22E
330
1F
100
AcDbEntity
  8
化粧台
  6
CONTINUOUS
 62
     1
100
AcDbLine
 10
1161.000000000561
 20
2419.499999999956
 30
0.0
 11
1162.74241001888
 21
2419.499999999956
 31
0.0
  0
LINE
  5
22F
330
1F
100
AcDbEntity
  8
化粧台
  6
CONTINUOUS
 62
     2
100
AcDbLine
 10
1261.000000000559
 20
2719.499999999956
 30
0.0
 11
1261.000000000559
 21
2424.499999999956
 31
0.0
  0
LINE
  5
230
330
1F
100
AcDbEntity
  8
化粧台
  6
CONTINUOUS
 62
     2
100
AcDbLine
 10
1162.74241001888
 20
2419.499999999956
 30
0.0
 11
1256.000000000559
 21
2419.499999999956
 31
0.0
  0
LINE
  5
231
330
1F
100
AcDbEntity
  8
化粧台
  6
EXLTYPE3
 62
     6
100
AcDbLine
 10
914.9000000005585
 20
2594.499999999956
 30
0.0
 11
1006.500000000561
 21
2594.499999999956
 31
0.0
  0
LINE
  5
232
330
1F
100
AcDbEntity
  8
化粧台
  6
CONTINUOUS
 62
     6
100
AcDbLine
 10
1154.000000000561
 20
2719.5
 30
0.0
 11
1156.000000000561
 21
2752.0
 31
0.0
  0
LINE
  5
233
330
1F
100
AcDbEntity
  8
化粧台
  6
CONTINUOUS
 62
     6
100
AcDbLine
 10
1156.000000000561
 20
2752.0
 30
0.0
 11
1158.000000000561
 21
2719.5
 31
0.0
  0
LINE
  5
234
330
1F
100
AcDbEntity
  8
化粧台
  6
CONTINUOUS
 62
     6
100
AcDbLine
 10
1156.000000000561
 20
2714.5
 30
0.0
 11
1156.000000000561
 21
2757.0000057219
 31
0.0
  0
LINE
  5
235
330
1F
100
AcDbEntity
  8
化粧台
  6
CONTINUOUS
 62
     6
100
AcDbLine
 10
764.0000000005607
 20
2719.5
 30
0.0
 11
766.0000000005607
 21
2752.0
 31
0.0
  0
LINE
  5
236
330
1F
100
AcDbEntity
  8
化粧台
  6
CONTINUOUS
 62
     6
100
AcDbLine
 10
766.0000000005607
 20
2752.0
 30
0.0
 11
768.0000000005607
 21
2719.5
 31
0.0
  0
LINE
  5
237
330
1F
100
AcDbEntity
  8
化粧台
  6
CONTINUOUS
 62
     6
100
AcDbLine
 10
766.0000000005607
 20
2714.5
 30
0.0
 11
766.0000000005607
 21
2757.0000057219
 31
0.0
  0
LINE
  5
238
330
1F
100
AcDbEntity
  8
化粧台
  6
EXLTYPE3
 62
     6
100
AcDbLine
 10
961.0000000005572
 20
2329.499999999956
 30
0.0
 11
961.0000000005608
 21
2739.5
 31
0.0
  0
LINE
  5
239
330
1F
100
AcDbEntity
  8
化粧台
  6
CONTINUOUS
 62
     6
100
AcDbLine
 10
1144.000000000561
 20
2619.499999999956
 30
0.0
 11
1188.000000000561
 21
2619.499999999956
 31
0.0
  0
LINE
  5
23A
330
1F
100
AcDbEntity
  8
化粧台
  6
CONTINUOUS
 62
     6
100
AcDbLine
 10
1166.000000000561
 20
2597.499999999956
 30
0.0
 11
1166.000000000561
 21
2641.499999999956
 31
0.0
  0
CIRCLE
  5
23B
330
1F
100
AcDbEntity
  8
化粧台
  6
CONTINUOUS
 62
     6
100
AcDbCircle
 10
1186.000000000561
 20
2554.5
 30
0.0
 40
8.50000000060004
  0
CIRCLE
  5
23C
330
1F
100
AcDbEntity
  8
化粧台
  6
CONTINUOUS
 62
     6
100
AcDbCircle
 10
1186.000000000561
 20
2554.5
 30
0.0
 40
12.5
  0
LINE
  5
23D
330
1F
100
AcDbEntity
  8
化粧台
  6
EXLTYPE3
 62
     6
100
AcDbLine
 10
996.0000000005607
 20
2689.5
 30
0.0
 11
996.0000000005607
 21
2784.5
 31
0.0
  0
LINE
  5
23E
330
1F
100
AcDbEntity
  8
化粧台
  6
CONTINUOUS
 62
     6
100
AcDbLine
 10
980.0000000005608
 20
2769.5
 30
0.0
 11
1012.000000000561
 21
2769.5
 31
0.0
  0
LINE
  5
23F
330
1F
100
AcDbEntity
  8
化粧台
  6
CONTINUOUS
 62
     6
100
AcDbLine
 10
980.0000000005608
 20
2719.5
 30
0.0
 11
980.0000000005608
 21
2769.5
 31
0.0
  0
LINE
  5
240
330
1F
100
AcDbEntity
  8
化粧台
  6
CONTINUOUS
 62
     6
100
AcDbLine
 10
1012.000000000561
 20
2719.5
 30
0.0
 11
1012.000000000561
 21
2769.5
 31
0.0
  0
LINE
  5
241
330
1F
100
AcDbEntity
  8
化粧台
  6
CONTINUOUS
 62
     6
100
AcDbLine
 10
1181.500000000583
 20
2719.5
 30
0.0
 11
1181.500000000583
 21
2727.5
 31
0.0
  0
LINE
  5
242
330
1F
100
AcDbEntity
  8
化粧台
  6
CONTINUOUS
 62
     6
100
AcDbLine
 10
1160.500000000575
 20
2719.5
 30
0.0
 11
1160.500000000575
 21
2727.5
 31
0.0
  0
LINE
  5
243
330
1F
100
AcDbEntity
  8
化粧台
  6
CONTINUOUS
 62
     6
100
AcDbLine
 10
1181.500000000564
 20
2727.5
 30
0.0
 11
1160.500000000575
 21
2727.5
 31
0.0
  0
LINE
  5
244
330
1F
100
AcDbEntity
  8
化粧台
  6
EXLTYPE3
 62
     6
100
AcDbLine
 10
1171.000000000561
 20
2699.5
 30
0.0
 11
1171.000000000561
 21
2747.5
 31
0.0
  0
LINE
  5
245
330
1F
100
AcDbEntity
  8
化粧台
  6
CONTINUOUS
 62
     7
100
AcDbLine
 10
511.0000000005606
 20
2719.5
 30
0.0
 11
1516.000000000559
 21
2719.5
 31
0.0
  0
LINE
  5
246
330
1F
100
AcDbEntity
  8
化粧台
  6
CONTINUOUS
 62
     7
100
AcDbLine
 10
511.0000000005606
 20
919.5
 30
0.0
 11
1516.000000000559
 21
919.5
 31
0.0
  0
LINE
  5
247
330
1F
100
AcDbEntity
  8
化粧台
  6
CONTINUOUS
 62
     7
100
AcDbLine
 10
2491.000000000561
 20
919.5
 30
0.0
 11
2491.000000000561
 21
2094.0
 31
0.0
  0
TEXT
  5
248
330
1F
100
AcDbEntity
  8
化粧台
  6
CONTINUOUS
 62
     2
100
AcDbText
 10
2481.500000000395
 20
1962.65
 30
0.0
 40
59.99999618530273
  1
Ｗ.Ｌ.
 50
90.0
 41
0.9086538461538461
  7
EXCADSTD
 72
     5
 11
2481.500000000395
 21
2097.649991416931
 31
0.0
100
AcDbText
  0
TEXT
  5
249
330
1F
100
AcDbEntity
  8
化粧台
  6
CONTINUOUS
 62
     2
100
AcDbText
 10
510.5500000008747
 20
2652.500003814646
 30
0.0
 40
59.99999618530273
  1
Ｗ.Ｌ.
 41
0.9086538461538461
  7
EXCADSTD
 72
     5
 11
645.5499914178058
 21
2652.500003814646
 31
0.0
100
AcDbText
  0
TEXT
  5
24A
330
1F
100
AcDbEntity
  8
化粧台
  6
CONTINUOUS
 62
     2
100
AcDbText
 10
505.0000000005134
 20
926.6999999999989
 30
0.0
 40
59.99999618530273
  1
Ｆ.Ｌ.
 41
0.9086538461538465
  7
EXCADSTD
 72
     5
 11
639.9999914174446
 21
926.6999999999989
 31
0.0
100
AcDbText
  0
LINE
  5
24B
330
1F
100
AcDbEntity
  8
化粧台
  6
CONTINUOUS
 62
     7
100
AcDbLine
 10
2014.500000000561
 20
919.4999999999991
 30
0.0
 11
2491.000000000561
 21
919.4999999999991
 31
0.0
  0
TEXT
  5
24C
330
1F
100
AcDbEntity
  8
化粧台
  6
CONTINUOUS
 62
     2
100
AcDbText
 10
2024.000000000413
 20
926.6999999999998
 30
0.0
 40
59.99999618530273
  1
Ｆ.Ｌ.
 41
0.9086538461538446
  7
EXCADSTD
 72
     5
 11
2158.999991417344
 21
926.6999999999998
 31
0.0
100
AcDbText
  0
ARC
  5
24D
330
1F
100
AcDbEntity
  8
化粧台
  6
CONTINUOUS
 62
     2
100
AcDbCircle
 10
961.0000000005608
 20
2529.499999999956
 30
0.0
 40
170.0
100
AcDbArc
 50
32.06712477842595
 51
61.48608474031997
  0
ARC
  5
24E
330
1F
100
AcDbEntity
  8
化粧台
  6
CONTINUOUS
 62
     2
100
AcDbCircle
 10
961.0000000005608
 20
2529.499999999956
 30
0.0
 40
170.0
100
AcDbArc
 50
118.5139152596804
 51
17.11440851742302
  0
LINE
  5
24F
330
1F
100
AcDbEntity
  8
化粧台
  6
CONTINUOUS
 62
     2
100
AcDbLine
 10
1187.268187354172
 20
1704.499999999956
 30
0.0
 11
1255.814877125755
 21
1704.499999999956
 31
0.0
  0
LINE
  5
250
330
1F
100
AcDbEntity
  8
化粧台
  6
CONTINUOUS
 62
     2
100
AcDbLine
 10
666.1851228754026
 20
1704.499999999956
 30
0.0
 11
1142.40095072944
 21
1704.499999999956
 31
0.0
  0
ARC
  5
251
330
1F
100
AcDbEntity
  8
付属金具
  6
CONTINUOUS
 62
     6
100
AcDbCircle
 10
1166.040440088461
 20
2619.533627205622
 30
0.0
 40
22.5239338808
100
AcDbArc
 50
43.50818700000016
 51
54.78416000000001
  0
ARC
  5
252
330
1F
100
AcDbEntity
  8
付属金具
  6
CONTINUOUS
 62
     6
100
AcDbCircle
 10
1166.018415305374
 20
2619.548792200134
 30
0.0
 40
22.5242991184
100
AcDbArc
 50
54.71626800000008
 51
65.99204899999945
  0
ARC
  5
253
330
1F
100
AcDbEntity
  8
付属金具
  6
CONTINUOUS
 62
     6
100
AcDbCircle
 10
1166.024355643442
 20
2619.546476693548
 30
0.0
 40
22.5239940848
100
AcDbArc
 50
66.00820999999988
 51
77.28414200000014
  0
ARC
  5
254
330
1F
100
AcDbEntity
  8
付属金具
  6
CONTINUOUS
 62
     6
100
AcDbCircle
 10
1165.998289098216
 20
2619.552347436207
 30
0.0
 40
22.5240542888
100
AcDbArc
 50
77.21624900000018
 51
88.49216799999986
  0
ARC
  5
255
330
1F
100
AcDbEntity
  8
付属金具
  6
CONTINUOUS
 62
     6
100
AcDbCircle
 10
1166.004617393597
 20
2619.551496391629
 30
0.0
 40
22.5246924512
100
AcDbArc
 50
88.50824599999994
 51
99.78377499999984
  0
ARC
  5
256
330
1F
100
AcDbEntity
  8
付属金具
  6
CONTINUOUS
 62
     6
100
AcDbCircle
 10
1165.978086857104
 20
2619.548921763997
 30
0.0
 40
22.52281810000001
100
AcDbArc
 50
99.71616999999982
 51
110.9929420000001
  0
ARC
  5
257
330
1F
100
AcDbEntity
  8
付属金具
  6
CONTINUOUS
 62
     6
100
AcDbCircle
 10
1165.992249670196
 20
2619.532712150681
 30
0.0
 40
22.5430707256
100
AcDbArc
 50
111.011786
 51
122.8865830000002
  0
LINE
  5
258
330
1F
100
AcDbEntity
  8
付属金具
  6
CONTINUOUS
 62
     6
100
AcDbLine
 10
1157.26431480257
 20
2639.794880864627
 30
0.0
 11
1068.160441107541
 21
2605.588748138764
 31
0.0
  0
LINE
  5
259
330
1F
100
AcDbEntity
  8
付属金具
  6
CONTINUOUS
 62
     6
100
AcDbLine
 10
1068.160704324786
 20
2605.588062434397
 30
0.0
 11
1157.264490280734
 21
2639.794423728383
 31
0.0
  0
LINE
  5
25A
330
1F
100
AcDbEntity
  8
付属金具
  6
CONTINUOUS
 62
     6
100
AcDbLine
 10
1157.26454648601
 20
2639.794445303567
 30
0.0
 11
1158.088238552762
 21
2640.110631063937
 31
0.0
  0
ARC
  5
25B
330
1F
100
AcDbEntity
  8
付属金具
  6
CONTINUOUS
 62
     6
100
AcDbCircle
 10
1076.064510473919
 20
2584.977000097403
 30
0.0
 40
22.074980612
100
AcDbArc
 50
110.9805179999999
 51
291.0194619999999
  0
ARC
  5
25C
330
1F
100
AcDbEntity
  8
付属金具
  6
CONTINUOUS
 62
     6
100
AcDbCircle
 10
1166.015271810875
 20
2619.473588598083
 30
0.0
 40
22.5466267752
100
AcDbArc
 50
279.1146609999999
 51
290.9876739999999
  0
ARC
  5
25D
330
1F
100
AcDbEntity
  8
付属金具
  6
CONTINUOUS
 62
     6
100
AcDbCircle
 10
1166.012245323094
 20
2619.456945607957
 30
0.0
 40
22.5322219648
100
AcDbArc
 50
291.0100219999999
 51
302.2818220000001
  0
ARC
  5
25E
330
1F
100
AcDbEntity
  8
付属金具
  6
CONTINUOUS
 62
     6
100
AcDbCircle
 10
1166.038152421315
 20
2619.464134657638
 30
0.0
 40
22.5244877576
100
AcDbArc
 50
302.2163139999998
 51
313.4920000000001
  0
ARC
  5
25F
330
1F
100
AcDbEntity
  8
付属金具
  6
CONTINUOUS
 62
     6
100
AcDbCircle
 10
1166.034019041323
 20
2619.459267752138
 30
0.0
 40
22.5238134728
100
AcDbArc
 50
313.5081599999998
 51
324.7841739999999
  0
ARC
  5
260
330
1F
100
AcDbEntity
  8
付属金具
  6
CONTINUOUS
 62
     6
100
AcDbCircle
 10
1165.86095799786
 20
2619.443742047785
 30
0.0
 40
22.0751973464
100
AcDbArc
 50
291.3032080000001
 51
291.3890839999999
  0
LINE
  5
261
330
1F
100
AcDbEntity
  8
付属金具
  6
CONTINUOUS
 62
     6
100
AcDbLine
 10
1083.982739191129
 20
2564.370162825584
 30
0.0
 11
1173.088278371053
 21
2598.572214407193
 31
0.0
  0
LINE
  5
262
330
1F
100
AcDbEntity
  8
付属金具
  6
CONTINUOUS
 62
     6
100
AcDbLine
 10
1173.088278371053
 20
2598.572214407193
 30
0.0
 11
1083.982696040761
 21
2564.370275236136
 31
0.0
  0
LINE
  5
263
330
1F
100
AcDbEntity
  8
付属金具
  6
CONTINUOUS
 62
     6
100
AcDbLine
 10
1173.911751809273
 20
2598.88896971436
 30
0.0
 11
1173.088059742521
 21
2598.57278395399
 31
0.0
  0
ARC
  5
264
330
1F
100
AcDbEntity
  8
付属金具
  6
CONTINUOUS
 62
     6
100
AcDbCircle
 10
1166.000005139639
 20
2619.499606451118
 30
0.0
 40
22.0770315616
100
AcDbArc
 50
291.0001660000001
 51
21.00021400000055
  0
ARC
  5
265
330
1F
100
AcDbEntity
  8
付属金具
  6
CONTINUOUS
 62
     6
100
AcDbCircle
 10
1166.046842300121
 20
2619.475342128738
 30
0.0
 40
22.5238977584
100
AcDbArc
 50
336.0081829999997
 51
347.2841830000002
  0
ARC
  5
266
330
1F
100
AcDbEntity
  8
付属金具
  6
CONTINUOUS
 62
     6
100
AcDbCircle
 10
1166.048973176567
 20
2619.481405055576
 30
0.0
 40
22.524363336
100
AcDbArc
 50
324.7162819999996
 51
335.992023
  0
ARC
  5
267
330
1F
100
AcDbEntity
  8
付属金具
  6
CONTINUOUS
 62
     6
100
AcDbCircle
 10
1165.999635742476
 20
2619.499202404832
 30
0.0
 40
22.0775252344
100
AcDbArc
 50
21.0011289999997
 51
110.9985290000003
  0
ARC
  5
268
330
1F
100
AcDbEntity
  8
付属金具
  6
CONTINUOUS
 62
     6
100
AcDbCircle
 10
1166.042586763995
 20
2619.511885011682
 30
0.0
 40
22.5324788352
100
AcDbArc
 50
21.01010400000024
 51
32.28177399999977
  0
ARC
  5
269
330
1F
100
AcDbEntity
  8
付属金具
  6
CONTINUOUS
 62
     6
100
AcDbCircle
 10
1166.035745655605
 20
2619.537994458412
 30
0.0
 40
22.5243352408
100
AcDbArc
 50
32.21625800000055
 51
43.49202600000044
  0
ARC
  5
26A
330
1F
100
AcDbEntity
  8
付属金具
  6
CONTINUOUS
 62
     6
100
AcDbCircle
 10
1166.05265160236
 20
2619.495151325254
 30
0.0
 40
22.5238335408
100
AcDbArc
 50
358.5081779999999
 51
9.784192000000056
  0
ARC
  5
26B
330
1F
100
AcDbEntity
  8
付属金具
  6
CONTINUOUS
 62
     6
100
AcDbCircle
 10
1166.044756830786
 20
2619.520589761435
 30
0.0
 40
22.5273213592
100
AcDbArc
 50
9.717078999999938
 51
20.99134400000031
  0
ARC
  5
26C
330
1F
100
AcDbEntity
  8
付属金具
  6
CONTINUOUS
 62
     6
100
AcDbCircle
 10
1166.052229026675
 20
2619.501549612802
 30
0.0
 40
22.5244074856
100
AcDbArc
 50
347.216277
 51
358.4920179999999
  0
LINE
  5
26D
330
1F
100
AcDbEntity
  8
付属金具
  6
CONTINUOUS
 62
     6
100
AcDbLine
 10
1162.423252758653
 20
2618.071255427726
 30
0.0
 11
1162.301932895951
 21
2618.454625645231
 31
0.0
  0
LINE
  5
26E
330
1F
100
AcDbEntity
  8
付属金具
  6
CONTINUOUS
 62
     6
100
AcDbLine
 10
1162.592607413572
 20
2617.71209779454
 30
0.0
 11
1162.423252758653
 21
2618.071255427726
 31
0.0
  0
LINE
  5
26F
330
1F
100
AcDbEntity
  8
付属金具
  6
CONTINUOUS
 62
     6
100
AcDbLine
 10
1162.786109269281
 20
2617.402221569497
 30
0.0
 11
1162.592607413572
 21
2617.71209779454
 31
0.0
  0
LINE
  5
270
330
1F
100
AcDbEntity
  8
付属金具
  6
CONTINUOUS
 62
     6
100
AcDbLine
 10
1162.998366112295
 20
2617.125524458182
 30
0.0
 11
1162.786109269281
 21
2617.402221569497
 31
0.0
  0
LINE
  5
271
330
1F
100
AcDbEntity
  8
付属金具
  6
CONTINUOUS
 62
     6
100
AcDbLine
 10
1163.217378183156
 20
2616.86847945335
 30
0.0
 11
1162.998366112295
 21
2617.125524458182
 31
0.0
  0
LINE
  5
272
330
1F
100
AcDbEntity
  8
付属金具
  6
CONTINUOUS
 62
     6
100
AcDbLine
 10
1163.440458808174
 20
2616.61587664899
 30
0.0
 11
1163.217378183156
 21
2616.86847945335
 31
0.0
  0
LINE
  5
273
330
1F
100
AcDbEntity
  8
付属金具
  6
CONTINUOUS
 62
     6
100
AcDbLine
 10
1163.660262146245
 20
2616.342076365718
 30
0.0
 11
1163.440458808174
 21
2616.61587664899
 31
0.0
  0
LINE
  5
274
330
1F
100
AcDbEntity
  8
付属金具
  6
CONTINUOUS
 62
     6
100
AcDbLine
 10
1163.867751784143
 20
2616.040458574339
 30
0.0
 11
1163.660262146245
 21
2616.342076365718
 31
0.0
  0
LINE
  5
275
330
1F
100
AcDbEntity
  8
付属金具
  6
CONTINUOUS
 62
     6
100
AcDbLine
 10
1164.053113539164
 20
2615.684556464034
 30
0.0
 11
1163.867751784143
 21
2616.040458574339
 31
0.0
  0
LINE
  5
276
330
1F
100
AcDbEntity
  8
付属金具
  6
CONTINUOUS
 62
     6
100
AcDbLine
 10
1164.119263053413
 20
2615.512231087828
 30
0.0
 11
1164.053113539164
 21
2615.684556464034
 31
0.0
  0
LINE
  5
277
330
1F
100
AcDbEntity
  8
付属金具
  6
CONTINUOUS
 62
     6
100
AcDbLine
 10
1164.167887762607
 20
2615.33317856924
 30
0.0
 11
1164.119263053413
 21
2615.512231087828
 31
0.0
  0
LINE
  5
278
330
1F
100
AcDbEntity
  8
付属金具
  6
CONTINUOUS
 62
     6
100
AcDbLine
 10
1164.218437853549
 20
2614.999919558737
 30
0.0
 11
1164.167887762607
 21
2615.33317856924
 31
0.0
  0
LINE
  5
279
330
1F
100
AcDbEntity
  8
付属金具
  6
CONTINUOUS
 62
     6
100
AcDbLine
 10
1164.233872263521
 20
2614.750793046286
 30
0.0
 11
1164.218437853549
 21
2614.999919558737
 31
0.0
  0
LINE
  5
27A
330
1F
100
AcDbEntity
  8
付属金具
  6
CONTINUOUS
 62
     6
100
AcDbLine
 10
1164.231497092236
 20
2614.652398132836
 30
0.0
 11
1164.233872263521
 21
2614.750793046286
 31
0.0
  0
LINE
  5
27B
330
1F
100
AcDbEntity
  8
付属金具
  6
CONTINUOUS
 62
     6
100
AcDbLine
 10
1164.52144043441
 20
2614.419825338443
 30
0.0
 11
1164.231497092236
 21
2614.652398132836
 31
0.0
  0
LINE
  5
27C
330
1F
100
AcDbEntity
  8
付属金具
  6
CONTINUOUS
 62
     6
100
AcDbLine
 10
1164.480975883164
 20
2614.90573642405
 30
0.0
 11
1164.52144043441
 21
2614.419825338443
 31
0.0
  0
LINE
  5
27D
330
1F
100
AcDbEntity
  8
付属金具
  6
CONTINUOUS
 62
     6
100
AcDbLine
 10
1164.409630193741
 20
2615.345550641143
 30
0.0
 11
1164.480975883164
 21
2614.90573642405
 31
0.0
  0
LINE
  5
27E
330
1F
100
AcDbEntity
  8
付属金具
  6
CONTINUOUS
 62
     6
100
AcDbLine
 10
1164.355617078149
 20
2615.568453939252
 30
0.0
 11
1164.409630193741
 21
2615.345550641143
 31
0.0
  0
LINE
  5
27F
330
1F
100
AcDbEntity
  8
付属金具
  6
CONTINUOUS
 62
     6
100
AcDbLine
 10
1164.282955647806
 20
2615.772784583279
 30
0.0
 11
1164.355617078149
 21
2615.568453939252
 31
0.0
  0
LINE
  5
280
330
1F
100
AcDbEntity
  8
付属金具
  6
CONTINUOUS
 62
     6
100
AcDbLine
 10
1164.107545973656
 20
2616.132506939503
 30
0.0
 11
1164.282955647806
 21
2615.772784583279
 31
0.0
  0
LINE
  5
281
330
1F
100
AcDbEntity
  8
付属金具
  6
CONTINUOUS
 62
     6
100
AcDbLine
 10
1163.90659466986
 20
2616.439390315771
 30
0.0
 11
1164.107545973656
 21
2616.132506939503
 31
0.0
  0
LINE
  5
282
330
1F
100
AcDbEntity
  8
付属金具
  6
CONTINUOUS
 62
     6
100
AcDbLine
 10
1163.690257536814
 20
2616.711765396913
 30
0.0
 11
1163.90659466986
 21
2616.439390315771
 31
0.0
  0
LINE
  5
283
330
1F
100
AcDbEntity
  8
付属金具
  6
CONTINUOUS
 62
     6
100
AcDbLine
 10
1163.24216602698
 20
2617.221999504325
 30
0.0
 11
1163.690257536814
 21
2616.711765396913
 31
0.0
  0
LINE
  5
284
330
1F
100
AcDbEntity
  8
付属金具
  6
CONTINUOUS
 62
     6
100
AcDbLine
 10
1163.028447684288
 20
2617.495246571326
 30
0.0
 11
1163.24216602698
 21
2617.221999504325
 31
0.0
  0
LINE
  5
285
330
1F
100
AcDbEntity
  8
付属金具
  6
CONTINUOUS
 62
     6
100
AcDbLine
 10
1162.927698960462
 20
2617.64576534575
 30
0.0
 11
1163.028447684288
 21
2617.495246571326
 31
0.0
  0
LINE
  5
286
330
1F
100
AcDbEntity
  8
付属金具
  6
CONTINUOUS
 62
     6
100
AcDbLine
 10
1162.83494208156
 20
2617.805121358022
 30
0.0
 11
1162.927698960462
 21
2617.64576534575
 31
0.0
  0
LINE
  5
287
330
1F
100
AcDbEntity
  8
付属金具
  6
CONTINUOUS
 62
     6
100
AcDbLine
 10
1162.745942866289
 20
2617.977334038954
 30
0.0
 11
1162.83494208156
 21
2617.805121358022
 31
0.0
  0
LINE
  5
288
330
1F
100
AcDbEntity
  8
付属金具
  6
CONTINUOUS
 62
     6
100
AcDbLine
 10
1162.665587426641
 20
2618.164278991209
 30
0.0
 11
1162.745942866289
 21
2617.977334038954
 31
0.0
  0
LINE
  5
289
330
1F
100
AcDbEntity
  8
付属金具
  6
CONTINUOUS
 62
     6
100
AcDbLine
 10
1162.549187399098
 20
2618.54953775649
 30
0.0
 11
1162.665587426641
 21
2618.164278991209
 31
0.0
  0
LINE
  5
28A
330
1F
100
AcDbEntity
  8
付属金具
  6
CONTINUOUS
 62
     6
100
AcDbLine
 10
1162.490690240826
 20
2618.911104155865
 30
0.0
 11
1162.549187399098
 21
2618.54953775649
 31
0.0
  0
LINE
  5
28B
330
1F
100
AcDbEntity
  8
付属金具
  6
CONTINUOUS
 62
     6
100
AcDbLine
 10
1162.470697034431
 20
2619.261737636098
 30
0.0
 11
1162.490690240826
 21
2618.911104155865
 31
0.0
  0
LINE
  5
28C
330
1F
100
AcDbEntity
  8
付属金具
  6
CONTINUOUS
 62
     6
100
AcDbLine
 10
1162.468097920771
 20
2619.604744819066
 30
0.0
 11
1162.470697034431
 21
2619.261737636098
 31
0.0
  0
LINE
  5
28D
330
1F
100
AcDbEntity
  8
付属金具
  6
CONTINUOUS
 62
     6
100
AcDbLine
 10
1162.465440412474
 20
2619.947467338432
 30
0.0
 11
1162.468097920771
 21
2619.604744819066
 31
0.0
  0
LINE
  5
28E
330
1F
100
AcDbEntity
  8
付属金具
  6
CONTINUOUS
 62
     6
100
AcDbLine
 10
1162.440532556285
 20
2620.296209962216
 30
0.0
 11
1162.465440412474
 21
2619.947467338432
 31
0.0
  0
LINE
  5
28F
330
1F
100
AcDbEntity
  8
付属金具
  6
CONTINUOUS
 62
     6
100
AcDbLine
 10
1162.374488902956
 20
2620.654879533548
 30
0.0
 11
1162.440532556285
 21
2620.296209962216
 31
0.0
  0
LINE
  5
290
330
1F
100
AcDbEntity
  8
付属金具
  6
CONTINUOUS
 62
     6
100
AcDbLine
 10
1162.24910567146
 20
2621.033805241909
 30
0.0
 11
1162.374488902956
 21
2620.654879533548
 31
0.0
  0
LINE
  5
291
330
1F
100
AcDbEntity
  8
付属金具
  6
CONTINUOUS
 62
     6
100
AcDbLine
 10
1162.165944523861
 20
2621.205503193476
 30
0.0
 11
1162.24910567146
 21
2621.033805241909
 31
0.0
  0
LINE
  5
292
330
1F
100
AcDbEntity
  8
付属金具
  6
CONTINUOUS
 62
     6
100
AcDbLine
 10
1162.060630194652
 20
2621.382867325675
 30
0.0
 11
1162.165944523861
 21
2621.205503193476
 31
0.0
  0
LINE
  5
293
330
1F
100
AcDbEntity
  8
付属金具
  6
CONTINUOUS
 62
     6
100
AcDbLine
 10
1161.822787699923
 20
2621.718623967474
 30
0.0
 11
1162.060630194652
 21
2621.382867325675
 31
0.0
  0
LINE
  5
294
330
1F
100
AcDbEntity
  8
付属金具
  6
CONTINUOUS
 62
     6
100
AcDbLine
 10
1161.53660296353
 20
2622.075969201112
 30
0.0
 11
1161.822787699923
 21
2621.718623967474
 31
0.0
  0
LINE
  5
295
330
1F
100
AcDbEntity
  8
付属金具
  6
CONTINUOUS
 62
     6
100
AcDbLine
 10
1161.473006843196
 20
2621.756226997044
 30
0.0
 11
1161.53660296353
 21
2622.075969201112
 31
0.0
  0
LINE
  5
296
330
1F
100
AcDbEntity
  8
付属金具
  6
CONTINUOUS
 62
     6
100
AcDbLine
 10
1161.656129828387
 20
2621.525679877189
 30
0.0
 11
1161.473006843196
 21
2621.756226997044
 31
0.0
  0
LINE
  5
297
330
1F
100
AcDbEntity
  8
付属金具
  6
CONTINUOUS
 62
     6
100
AcDbLine
 10
1161.824484816354
 20
2621.266373132858
 30
0.0
 11
1161.656129828387
 21
2621.525679877189
 31
0.0
  0
LINE
  5
298
330
1F
100
AcDbEntity
  8
付属金具
  6
CONTINUOUS
 62
     6
100
AcDbLine
 10
1161.991730471615
 20
2620.935008159178
 30
0.0
 11
1161.824484816354
 21
2621.266373132858
 31
0.0
  0
LINE
  5
299
330
1F
100
AcDbEntity
  8
付属金具
  6
CONTINUOUS
 62
     6
100
AcDbLine
 10
1162.117199884534
 20
2620.556115532767
 30
0.0
 11
1161.991730471615
 21
2620.935008159178
 31
0.0
  0
LINE
  5
29A
330
1F
100
AcDbEntity
  8
付属金具
  6
CONTINUOUS
 62
     6
100
AcDbLine
 10
1162.184126233358
 20
2620.194900068485
 30
0.0
 11
1162.117199884534
 21
2620.556115532767
 31
0.0
  0
LINE
  5
29B
330
1F
100
AcDbEntity
  8
付属金具
  6
CONTINUOUS
 62
     6
100
AcDbLine
 10
1162.209077120602
 20
2619.846302937203
 30
0.0
 11
1162.184126233358
 21
2620.194900068485
 31
0.0
  0
LINE
  5
29C
330
1F
100
AcDbEntity
  8
付属金具
  6
CONTINUOUS
 62
     6
100
AcDbLine
 10
1162.213266946419
 20
2619.506924372999
 30
0.0
 11
1162.209077120602
 21
2619.846302937203
 31
0.0
  0
LINE
  5
29D
330
1F
100
AcDbEntity
  8
付属金具
  6
CONTINUOUS
 62
     6
100
AcDbLine
 10
1162.21844026172
 20
2619.16490533346
 30
0.0
 11
1162.213266946419
 21
2619.506924372999
 31
0.0
  0
LINE
  5
29E
330
1F
100
AcDbEntity
  8
付属金具
  6
CONTINUOUS
 62
     6
100
AcDbLine
 10
1162.240891512185
 20
2618.815215407943
 30
0.0
 11
1162.21844026172
 21
2619.16490533346
 31
0.0
  0
LINE
  5
29F
330
1F
100
AcDbEntity
  8
付属金具
  6
CONTINUOUS
 62
     6
100
AcDbLine
 10
1162.301932895951
 20
2618.454625645231
 30
0.0
 11
1162.240891512185
 21
2618.815215407943
 31
0.0
  0
LINE
  5
2A0
330
1F
100
AcDbEntity
  8
付属金具
  6
CONTINUOUS
 62
     6
100
AcDbLine
 10
1163.184127415536
 20
2618.575344604075
 30
0.0
 11
1163.139495257293
 21
2618.758947720959
 31
0.0
  0
LINE
  5
2A1
330
1F
100
AcDbEntity
  8
付属金具
  6
CONTINUOUS
 62
     6
100
AcDbLine
 10
1163.139495257293
 20
2618.758947720959
 30
0.0
 11
1163.086308382421
 21
2619.114027337563
 31
0.0
  0
LINE
  5
2A2
330
1F
100
AcDbEntity
  8
付属金具
  6
CONTINUOUS
 62
     6
100
AcDbLine
 10
1163.086308382421
 20
2619.114027337563
 30
0.0
 11
1163.069855945912
 21
2619.463130964859
 31
0.0
  0
LINE
  5
2A3
330
1F
100
AcDbEntity
  8
付属金具
  6
CONTINUOUS
 62
     6
100
AcDbLine
 10
1163.069855945912
 20
2619.463130964859
 30
0.0
 11
1163.071220964714
 21
2619.810415589287
 31
0.0
  0
LINE
  5
2A4
330
1F
100
AcDbEntity
  8
付属金具
  6
CONTINUOUS
 62
     6
100
AcDbLine
 10
1163.071220964714
 20
2619.810415589287
 30
0.0
 11
1163.068240830015
 21
2620.16167274714
 31
0.0
  0
LINE
  5
2A5
330
1F
100
AcDbEntity
  8
付属金具
  6
CONTINUOUS
 62
     6
100
AcDbLine
 10
1163.068240830015
 20
2620.16167274714
 30
0.0
 11
1163.043859319752
 21
2620.516391171349
 31
0.0
  0
LINE
  5
2A6
330
1F
100
AcDbEntity
  8
付属金具
  6
CONTINUOUS
 62
     6
100
AcDbLine
 10
1163.043859319752
 20
2620.516391171349
 30
0.0
 11
1162.974918838379
 21
2620.882607237739
 31
0.0
  0
LINE
  5
2A7
330
1F
100
AcDbEntity
  8
付属金具
  6
CONTINUOUS
 62
     6
100
AcDbLine
 10
1162.974918838379
 20
2620.882607237739
 30
0.0
 11
1162.843581381642
 21
2621.26200308675
 31
0.0
  0
LINE
  5
2A8
330
1F
100
AcDbEntity
  8
付属金具
  6
CONTINUOUS
 62
     6
100
AcDbLine
 10
1162.843581381642
 20
2621.26200308675
 30
0.0
 11
1162.695631294416
 21
2621.557873741667
 31
0.0
  0
LINE
  5
2A9
330
1F
100
AcDbEntity
  8
付属金具
  6
CONTINUOUS
 62
     6
100
AcDbLine
 10
1162.695631294416
 20
2621.557873741667
 30
0.0
 11
1162.511960234457
 21
2621.85709141732
 31
0.0
  0
LINE
  5
2AA
330
1F
100
AcDbEntity
  8
付属金具
  6
CONTINUOUS
 62
     6
100
AcDbLine
 10
1162.511960234457
 20
2621.85709141732
 30
0.0
 11
1162.103961634873
 21
2622.41984318925
 31
0.0
  0
LINE
  5
2AB
330
1F
100
AcDbEntity
  8
付属金具
  6
CONTINUOUS
 62
     6
100
AcDbLine
 10
1162.103961634873
 20
2622.41984318925
 30
0.0
 11
1161.759042167001
 21
2622.840577932172
 31
0.0
  0
LINE
  5
2AC
330
1F
100
AcDbEntity
  8
付属金具
  6
CONTINUOUS
 62
     6
100
AcDbLine
 10
1161.759042167001
 20
2622.840577932172
 30
0.0
 11
1161.615198848435
 21
2623.006036899055
 31
0.0
  0
LINE
  5
2AD
330
1F
100
AcDbEntity
  8
付属金具
  6
CONTINUOUS
 62
     6
100
AcDbLine
 10
1161.615198848435
 20
2623.006036899055
 30
0.0
 11
1161.704722357485
 21
2623.2583255436
 31
0.0
  0
LINE
  5
2AE
330
1F
100
AcDbEntity
  8
付属金具
  6
CONTINUOUS
 62
     6
100
AcDbLine
 10
1161.704722357485
 20
2623.2583255436
 30
0.0
 11
1161.868598052559
 21
2623.077594538549
 31
0.0
  0
LINE
  5
2AF
330
1F
100
AcDbEntity
  8
付属金具
  6
CONTINUOUS
 62
     6
100
AcDbLine
 10
1161.868598052559
 20
2623.077594538549
 30
0.0
 11
1162.251803198034
 21
2622.617107586639
 31
0.0
  0
LINE
  5
2B0
330
1F
100
AcDbEntity
  8
付属金具
  6
CONTINUOUS
 62
     6
100
AcDbLine
 10
1162.251803198034
 20
2622.617107586639
 30
0.0
 11
1162.479245708911
 21
2622.323148985592
 31
0.0
  0
LINE
  5
2B1
330
1F
100
AcDbEntity
  8
付属金具
  6
CONTINUOUS
 62
     6
100
AcDbLine
 10
1162.479245708911
 20
2622.323148985592
 30
0.0
 11
1162.705344069329
 21
2622.002956912904
 31
0.0
  0
LINE
  5
2B2
330
1F
100
AcDbEntity
  8
付属金具
  6
CONTINUOUS
 62
     6
100
AcDbLine
 10
1162.705344069329
 20
2622.002956912904
 30
0.0
 11
1162.911518094571
 21
2621.675120903667
 31
0.0
  0
LINE
  5
2B3
330
1F
100
AcDbEntity
  8
付属金具
  6
CONTINUOUS
 62
     6
100
AcDbLine
 10
1162.911518094571
 20
2621.675120903667
 30
0.0
 11
1163.073453466433
 21
2621.35024271276
 31
0.0
  0
LINE
  5
2B4
330
1F
100
AcDbEntity
  8
付属金具
  6
CONTINUOUS
 62
     6
100
AcDbLine
 10
1163.073453466433
 20
2621.35024271276
 30
0.0
 11
1163.203838967491
 21
2620.973237195778
 31
0.0
  0
LINE
  5
2B5
330
1F
100
AcDbEntity
  8
付属金具
  6
CONTINUOUS
 62
     6
100
AcDbLine
 10
1163.203838967491
 20
2620.973237195778
 30
0.0
 11
1163.27330579479
 21
2620.612996929815
 31
0.0
  0
LINE
  5
2B6
330
1F
100
AcDbEntity
  8
付属金具
  6
CONTINUOUS
 62
     6
100
AcDbLine
 10
1163.27330579479
 20
2620.612996929815
 30
0.0
 11
1163.300744702252
 21
2620.265354860012
 31
0.0
  0
LINE
  5
2B7
330
1F
100
AcDbEntity
  8
付属金具
  6
CONTINUOUS
 62
     6
100
AcDbLine
 10
1163.300744702252
 20
2620.265354860012
 30
0.0
 11
1163.30490829894
 21
2619.925966227389
 31
0.0
  0
LINE
  5
2B8
330
1F
100
AcDbEntity
  8
付属金具
  6
CONTINUOUS
 62
     6
100
AcDbLine
 10
1163.30490829894
 20
2619.925966227389
 30
0.0
 11
1163.307537388748
 21
2619.582970551186
 31
0.0
  0
LINE
  5
2B9
330
1F
100
AcDbEntity
  8
付属金具
  6
CONTINUOUS
 62
     6
100
AcDbLine
 10
1163.307537388748
 20
2619.582970551186
 30
0.0
 11
1163.327530595142
 21
2619.232337070954
 31
0.0
  0
LINE
  5
2BA
330
1F
100
AcDbEntity
  8
付属金具
  6
CONTINUOUS
 62
     6
100
AcDbLine
 10
1163.327530595142
 20
2619.232337070954
 30
0.0
 11
1163.386113934838
 21
2618.870803753528
 31
0.0
  0
LINE
  5
2BB
330
1F
100
AcDbEntity
  8
付属金具
  6
CONTINUOUS
 62
     6
100
AcDbLine
 10
1163.386113934838
 20
2618.870803753528
 30
0.0
 11
1163.504885825028
 21
2618.486455461013
 31
0.0
  0
LINE
  5
2BC
330
1F
100
AcDbEntity
  8
付属金具
  6
CONTINUOUS
 62
     6
100
AcDbLine
 10
1163.504885825028
 20
2618.486455461013
 30
0.0
 11
1163.67432666137
 21
2618.127330909775
 31
0.0
  0
LINE
  5
2BD
330
1F
100
AcDbEntity
  8
付属金具
  6
CONTINUOUS
 62
     6
100
AcDbLine
 10
1163.67432666137
 20
2618.127330909775
 30
0.0
 11
1163.869323739924
 21
2617.820917674158
 31
0.0
  0
LINE
  5
2BE
330
1F
100
AcDbEntity
  8
付属金具
  6
CONTINUOUS
 62
     6
100
AcDbLine
 10
1163.869323739924
 20
2617.820917674158
 30
0.0
 11
1164.081272569101
 21
2617.552627536993
 31
0.0
  0
LINE
  5
2BF
330
1F
100
AcDbEntity
  8
付属金具
  6
CONTINUOUS
 62
     6
100
AcDbLine
 10
1164.081272569101
 20
2617.552627536993
 30
0.0
 11
1164.304351755774
 21
2617.300028479651
 31
0.0
  0
LINE
  5
2C0
330
1F
100
AcDbEntity
  8
付属金具
  6
CONTINUOUS
 62
     6
100
AcDbLine
 10
1164.304351755774
 20
2617.300028479651
 30
0.0
 11
1164.527400966299
 21
2617.047417915545
 31
0.0
  0
LINE
  5
2C1
330
1F
100
AcDbEntity
  8
付属金具
  6
CONTINUOUS
 62
     6
100
AcDbLine
 10
1164.527400966299
 20
2617.047417915545
 30
0.0
 11
1164.743739537691
 21
2616.775039087385
 31
0.0
  0
LINE
  5
2C2
330
1F
100
AcDbEntity
  8
付属金具
  6
CONTINUOUS
 62
     6
100
AcDbLine
 10
1164.743739537691
 20
2616.775039087385
 30
0.0
 11
1164.943081769745
 21
2616.464653318342
 31
0.0
  0
LINE
  5
2C3
330
1F
100
AcDbEntity
  8
付属金具
  6
CONTINUOUS
 62
     6
100
AcDbLine
 10
1164.943081769745
 20
2616.464653318342
 30
0.0
 11
1165.122227817065
 21
2616.094950984664
 31
0.0
  0
LINE
  5
2C4
330
1F
100
AcDbEntity
  8
付属金具
  6
CONTINUOUS
 62
     6
100
AcDbLine
 10
1165.122227817065
 20
2616.094950984664
 30
0.0
 11
1165.223756306341
 21
2615.778504994268
 31
0.0
  0
LINE
  5
2C5
330
1F
100
AcDbEntity
  8
付属金具
  6
CONTINUOUS
 62
     6
100
AcDbLine
 10
1165.223756306341
 20
2615.778504994268
 30
0.0
 11
1165.296446335104
 21
2615.402185033106
 31
0.0
  0
LINE
  5
2C6
330
1F
100
AcDbEntity
  8
付属金具
  6
CONTINUOUS
 62
     6
100
AcDbLine
 10
1165.296446335104
 20
2615.402185033106
 30
0.0
 11
1165.352459031296
 21
2615.002404226307
 31
0.0
  0
LINE
  5
2C7
330
1F
100
AcDbEntity
  8
付属金具
  6
CONTINUOUS
 62
     6
100
AcDbLine
 10
1165.352459031296
 20
2615.002404226307
 30
0.0
 11
1165.38720112206
 21
2614.606001610243
 31
0.0
  0
LINE
  5
2C8
330
1F
100
AcDbEntity
  8
付属金具
  6
CONTINUOUS
 62
     6
100
AcDbLine
 10
1165.38720112206
 20
2614.606001610243
 30
0.0
 11
1165.423307525516
 21
2613.951924501408
 31
0.0
  0
LINE
  5
2C9
330
1F
100
AcDbEntity
  8
付属金具
  6
CONTINUOUS
 62
     6
100
AcDbLine
 10
1165.423307525516
 20
2613.951924501408
 30
0.0
 11
1165.426881454727
 21
2613.681057185064
 31
0.0
  0
LINE
  5
2CA
330
1F
100
AcDbEntity
  8
付属金具
  6
CONTINUOUS
 62
     6
100
AcDbLine
 10
1165.426881454727
 20
2613.681057185064
 30
0.0
 11
1165.174417532618
 21
2613.816239144666
 31
0.0
  0
LINE
  5
2CB
330
1F
100
AcDbEntity
  8
付属金具
  6
CONTINUOUS
 62
     6
100
AcDbLine
 10
1165.174417532618
 20
2613.816239144666
 30
0.0
 11
1165.160765937764
 21
2614.083366982039
 31
0.0
  0
LINE
  5
2CC
330
1F
100
AcDbEntity
  8
付属金具
  6
CONTINUOUS
 62
     6
100
AcDbLine
 10
1165.160765937764
 20
2614.083366982039
 30
0.0
 11
1165.114759289493
 21
2614.710686295053
 31
0.0
  0
LINE
  5
2CD
330
1F
100
AcDbEntity
  8
付属金具
  6
CONTINUOUS
 62
     6
100
AcDbLine
 10
1165.114759289493
 20
2614.710686295053
 30
0.0
 11
1165.023128923317
 21
2615.434896918977
 31
0.0
  0
LINE
  5
2CE
330
1F
100
AcDbEntity
  8
付属金具
  6
CONTINUOUS
 62
     6
100
AcDbLine
 10
1165.023128923317
 20
2615.434896918977
 30
0.0
 11
1164.956985725462
 21
2615.756396541388
 31
0.0
  0
LINE
  5
2CF
330
1F
100
AcDbEntity
  8
付属金具
  6
CONTINUOUS
 62
     6
100
AcDbLine
 10
1164.956985725462
 20
2615.756396541388
 30
0.0
 11
1164.877431357988
 21
2616.00098242812
 31
0.0
  0
LINE
  5
2D0
330
1F
100
AcDbEntity
  8
付属金具
  6
CONTINUOUS
 62
     6
100
AcDbLine
 10
1164.877431357988
 20
2616.00098242812
 30
0.0
 11
1164.692712106464
 21
2616.362904927564
 31
0.0
  0
LINE
  5
2D1
330
1F
100
AcDbEntity
  8
付属金具
  6
CONTINUOUS
 62
     6
100
AcDbLine
 10
1164.692712106464
 20
2616.362904927564
 30
0.0
 11
1164.483339106155
 21
2616.669440245429
 31
0.0
  0
LINE
  5
2D2
330
1F
100
AcDbEntity
  8
付属金具
  6
CONTINUOUS
 62
     6
100
AcDbLine
 10
1164.483339106155
 20
2616.669440245429
 30
0.0
 11
1164.264457747615
 21
2616.940838689907
 31
0.0
  0
LINE
  5
2D3
330
1F
100
AcDbEntity
  8
付属金具
  6
CONTINUOUS
 62
     6
100
AcDbLine
 10
1164.264457747615
 20
2616.940838689907
 30
0.0
 11
1164.041377122596
 21
2617.193441494267
 31
0.0
  0
LINE
  5
2D4
330
1F
100
AcDbEntity
  8
付属金具
  6
CONTINUOUS
 62
     6
100
AcDbLine
 10
1164.041377122596
 20
2617.193441494267
 30
0.0
 11
1163.819946411015
 21
2617.449429095487
 31
0.0
  0
LINE
  5
2D5
330
1F
100
AcDbEntity
  8
付属金具
  6
CONTINUOUS
 62
     6
100
AcDbLine
 10
1163.819946411015
 20
2617.449429095487
 30
0.0
 11
1163.607032451938
 21
2617.720233481997
 31
0.0
  0
LINE
  5
2D6
330
1F
100
AcDbEntity
  8
付属金具
  6
CONTINUOUS
 62
     6
100
AcDbLine
 10
1163.607032451938
 20
2617.720233481997
 30
0.0
 11
1163.414467188327
 21
2618.02758020391
 31
0.0
  0
LINE
  5
2D7
330
1F
100
AcDbEntity
  8
付属金具
  6
CONTINUOUS
 62
     6
100
AcDbLine
 10
1163.414467188327
 20
2618.02758020391
 30
0.0
 11
1163.327926017125
 21
2618.200736439556
 31
0.0
  0
LINE
  5
2D8
330
1F
100
AcDbEntity
  8
付属金具
  6
CONTINUOUS
 62
     6
100
AcDbLine
 10
1163.327926017125
 20
2618.200736439556
 30
0.0
 11
1163.247600553625
 21
2618.387692898577
 31
0.0
  0
LINE
  5
2D9
330
1F
100
AcDbEntity
  8
付属金具
  6
CONTINUOUS
 62
     6
100
AcDbLine
 10
1163.247600553625
 20
2618.387692898577
 30
0.0
 11
1163.184127415536
 21
2618.575344604075
 31
0.0
  0
LINE
  5
2DA
330
1F
100
AcDbEntity
  8
付属金具
  6
CONTINUOUS
 62
     6
100
AcDbLine
 10
1164.139264380058
 20
2620.246245519344
 30
0.0
 11
1164.141893469866
 21
2619.903249843141
 31
0.0
  0
LINE
  5
2DB
330
1F
100
AcDbEntity
  8
付属金具
  6
CONTINUOUS
 62
     6
100
AcDbLine
 10
1164.141893469866
 20
2619.903249843141
 30
0.0
 11
1164.164344720331
 21
2619.553559917623
 31
0.0
  0
LINE
  5
2DC
330
1F
100
AcDbEntity
  8
付属金具
  6
CONTINUOUS
 62
     6
100
AcDbLine
 10
1164.164344720331
 20
2619.553559917623
 30
0.0
 11
1164.225386104096
 21
2619.192970154912
 31
0.0
  0
LINE
  5
2DD
330
1F
100
AcDbEntity
  8
付属金具
  6
CONTINUOUS
 62
     6
100
AcDbLine
 10
1164.225386104096
 20
2619.192970154912
 30
0.0
 11
1164.344274151857
 21
2618.808666451111
 31
0.0
  0
LINE
  5
2DE
330
1F
100
AcDbEntity
  8
付属金具
  6
CONTINUOUS
 62
     6
100
AcDbLine
 10
1164.344274151857
 20
2618.808666451111
 30
0.0
 11
1164.427143840851
 21
2618.622686628754
 31
0.0
  0
LINE
  5
2DF
330
1F
100
AcDbEntity
  8
付属金具
  6
CONTINUOUS
 62
     6
100
AcDbLine
 10
1164.427143840851
 20
2618.622686628754
 30
0.0
 11
1164.518031603898
 21
2618.445554112664
 31
0.0
  0
LINE
  5
2E0
330
1F
100
AcDbEntity
  8
付属金具
  6
CONTINUOUS
 62
     6
100
AcDbLine
 10
1164.518031603898
 20
2618.445554112664
 30
0.0
 11
1164.72288945435
 21
2618.128493834423
 31
0.0
  0
LINE
  5
2E1
330
1F
100
AcDbEntity
  8
付属金具
  6
CONTINUOUS
 62
     6
100
AcDbLine
 10
1164.72288945435
 20
2618.128493834423
 30
0.0
 11
1164.949012794432
 21
2617.845576361462
 31
0.0
  0
LINE
  5
2E2
330
1F
100
AcDbEntity
  8
付属金具
  6
CONTINUOUS
 62
     6
100
AcDbLine
 10
1164.949012794432
 20
2617.845576361462
 30
0.0
 11
1165.182874732534
 21
2617.579928422702
 31
0.0
  0
LINE
  5
2E3
330
1F
100
AcDbEntity
  8
付属金具
  6
CONTINUOUS
 62
     6
100
AcDbLine
 10
1165.182874732534
 20
2617.579928422702
 30
0.0
 11
1165.413809866445
 21
2617.321815472234
 31
0.0
  0
LINE
  5
2E4
330
1F
100
AcDbEntity
  8
付属金具
  6
CONTINUOUS
 62
     6
100
AcDbLine
 10
1165.413809866445
 20
2617.321815472234
 30
0.0
 11
1165.630146999491
 21
2617.049440391093
 31
0.0
  0
LINE
  5
2E5
330
1F
100
AcDbEntity
  8
付属金具
  6
CONTINUOUS
 62
     6
100
AcDbLine
 10
1165.630146999491
 20
2617.049440391093
 30
0.0
 11
1165.820311804839
 21
2616.755604457898
 31
0.0
  0
LINE
  5
2E6
330
1F
100
AcDbEntity
  8
付属金具
  6
CONTINUOUS
 62
     6
100
AcDbLine
 10
1165.820311804839
 20
2616.755604457898
 30
0.0
 11
1165.97410495622
 21
2616.421955980654
 31
0.0
  0
LINE
  5
2E7
330
1F
100
AcDbEntity
  8
付属金具
  6
CONTINUOUS
 62
     6
100
AcDbLine
 10
1165.97410495622
 20
2616.421955980654
 30
0.0
 11
1166.092392093193
 21
2616.031781127233
 31
0.0
  0
LINE
  5
2E8
330
1F
100
AcDbEntity
  8
付属金具
  6
CONTINUOUS
 62
     6
100
AcDbLine
 10
1166.092392093193
 20
2616.031781127233
 30
0.0
 11
1166.155934671397
 21
2615.672022508686
 31
0.0
  0
LINE
  5
2E9
330
1F
100
AcDbEntity
  8
付属金具
  6
CONTINUOUS
 62
     6
100
AcDbLine
 10
1166.155934671397
 20
2615.672022508686
 30
0.0
 11
1166.186488738993
 21
2615.331216718402
 31
0.0
  0
LINE
  5
2EA
330
1F
100
AcDbEntity
  8
付属金具
  6
CONTINUOUS
 62
     6
100
AcDbLine
 10
1166.186488738993
 20
2615.331216718402
 30
0.0
 11
1166.192832342063
 21
2615.00119012141
 31
0.0
  0
LINE
  5
2EB
330
1F
100
AcDbEntity
  8
付属金具
  6
CONTINUOUS
 62
     6
100
AcDbLine
 10
1166.192832342063
 20
2615.00119012141
 30
0.0
 11
1166.196161521173
 21
2614.67866917778
 31
0.0
  0
LINE
  5
2EC
330
1F
100
AcDbEntity
  8
付属金具
  6
CONTINUOUS
 62
     6
100
AcDbLine
 10
1166.196161521173
 20
2614.67866917778
 30
0.0
 11
1166.210930567776
 21
2614.348992077536
 31
0.0
  0
LINE
  5
2ED
330
1F
100
AcDbEntity
  8
付属金具
  6
CONTINUOUS
 62
     6
100
AcDbLine
 10
1166.210930567776
 20
2614.348992077536
 30
0.0
 11
1166.253464023011
 21
2614.006882013748
 31
0.0
  0
LINE
  5
2EE
330
1F
100
AcDbEntity
  8
付属金具
  6
CONTINUOUS
 62
     6
100
AcDbLine
 10
1166.253464023011
 20
2614.006882013748
 30
0.0
 11
1166.340738878418
 21
2613.644948100577
 31
0.0
  0
LINE
  5
2EF
330
1F
100
AcDbEntity
  8
付属金具
  6
CONTINUOUS
 62
     6
100
AcDbLine
 10
1166.340738878418
 20
2613.644948100577
 30
0.0
 11
1166.404034714993
 21
2613.480056808877
 31
0.0
  0
LINE
  5
2F0
330
1F
100
AcDbEntity
  8
付属金具
  6
CONTINUOUS
 62
     6
100
AcDbLine
 10
1166.404034714993
 20
2613.480056808877
 30
0.0
 11
1166.478331635087
 21
2613.316499410334
 31
0.0
  0
LINE
  5
2F1
330
1F
100
AcDbEntity
  8
付属金具
  6
CONTINUOUS
 62
     6
100
AcDbLine
 10
1166.478331635087
 20
2613.316499410334
 30
0.0
 11
1166.565839374533
 21
2613.140825178323
 31
0.0
  0
LINE
  5
2F2
330
1F
100
AcDbEntity
  8
付属金具
  6
CONTINUOUS
 62
     6
100
AcDbLine
 10
1166.565839374533
 20
2613.140825178323
 30
0.0
 11
1166.230860427076
 21
2613.24446156177
 31
0.0
  0
LINE
  5
2F3
330
1F
100
AcDbEntity
  8
付属金具
  6
CONTINUOUS
 62
     6
100
AcDbLine
 10
1166.230860427076
 20
2613.24446156177
 30
0.0
 11
1166.110982951199
 21
2613.556753063282
 31
0.0
  0
LINE
  5
2F4
330
1F
100
AcDbEntity
  8
付属金具
  6
CONTINUOUS
 62
     6
100
AcDbLine
 10
1166.110982951199
 20
2613.556753063282
 30
0.0
 11
1166.005335698937
 21
2613.928951440379
 31
0.0
  0
LINE
  5
2F5
330
1F
100
AcDbEntity
  8
付属金具
  6
CONTINUOUS
 62
     6
100
AcDbLine
 10
1166.005335698937
 20
2613.928951440379
 30
0.0
 11
1165.950614317184
 21
2614.280424013402
 31
0.0
  0
LINE
  5
2F6
330
1F
100
AcDbEntity
  8
付属金具
  6
CONTINUOUS
 62
     6
100
AcDbLine
 10
1165.950614317184
 20
2614.280424013402
 30
0.0
 11
1165.927946172974
 21
2614.615727417324
 31
0.0
  0
LINE
  5
2F7
330
1F
100
AcDbEntity
  8
付属金具
  6
CONTINUOUS
 62
     6
100
AcDbLine
 10
1165.927946172974
 20
2614.615727417324
 30
0.0
 11
1165.922681548701
 21
2614.943279168319
 31
0.0
  0
LINE
  5
2F8
330
1F
100
AcDbEntity
  8
付属金具
  6
CONTINUOUS
 62
     6
100
AcDbLine
 10
1165.922681548701
 20
2614.943279168319
 30
0.0
 11
1165.916343130996
 21
2615.273303456638
 31
0.0
  0
LINE
  5
2F9
330
1F
100
AcDbEntity
  8
付属金具
  6
CONTINUOUS
 62
     6
100
AcDbLine
 10
1165.916343130996
 20
2615.273303456638
 30
0.0
 11
1165.891211757352
 21
2615.607665614518
 31
0.0
  0
LINE
  5
2FA
330
1F
100
AcDbEntity
  8
付属金具
  6
CONTINUOUS
 62
     6
100
AcDbLine
 10
1165.891211757352
 20
2615.607665614518
 30
0.0
 11
1165.828986911596
 21
2615.956386851999
 31
0.0
  0
LINE
  5
2FB
330
1F
100
AcDbEntity
  8
付属金具
  6
CONTINUOUS
 62
     6
100
AcDbLine
 10
1165.828986911596
 20
2615.956386851999
 30
0.0
 11
1165.716815937799
 21
2616.323191979873
 31
0.0
  0
LINE
  5
2FC
330
1F
100
AcDbEntity
  8
付属金具
  6
CONTINUOUS
 62
     6
100
AcDbLine
 10
1165.716815937799
 20
2616.323191979873
 30
0.0
 11
1165.551440778922
 21
2616.68676622562
 31
0.0
  0
LINE
  5
2FD
330
1F
100
AcDbEntity
  8
付属金具
  6
CONTINUOUS
 62
     6
100
AcDbLine
 10
1165.551440778922
 20
2616.68676622562
 30
0.0
 11
1165.353037447639
 21
2616.994627676896
 31
0.0
  0
LINE
  5
2FE
330
1F
100
AcDbEntity
  8
付属金具
  6
CONTINUOUS
 62
     6
100
AcDbLine
 10
1165.353037447639
 20
2616.994627676896
 30
0.0
 11
1165.136700314593
 21
2617.267002758039
 31
0.0
  0
LINE
  5
2FF
330
1F
100
AcDbEntity
  8
付属金具
  6
CONTINUOUS
 62
     6
100
AcDbLine
 10
1165.136700314593
 20
2617.267002758039
 30
0.0
 11
1164.910110334182
 21
2617.521143175081
 31
0.0
  0
LINE
  5
300
330
1F
100
AcDbEntity
  8
付属金具
  6
CONTINUOUS
 62
     6
100
AcDbLine
 10
1164.910110334182
 20
2617.521143175081
 30
0.0
 11
1164.683632764323
 21
2617.775326742491
 31
0.0
  0
LINE
  5
301
330
1F
100
AcDbEntity
  8
付属金具
  6
CONTINUOUS
 62
     6
100
AcDbLine
 10
1164.683632764323
 20
2617.775326742491
 30
0.0
 11
1164.467340219991
 21
2618.047585666063
 31
0.0
  0
LINE
  5
302
330
1F
100
AcDbEntity
  8
付属金具
  6
CONTINUOUS
 62
     6
100
AcDbLine
 10
1164.467340219991
 20
2618.047585666063
 30
0.0
 11
1164.268892299994
 21
2618.35556327491
 31
0.0
  0
LINE
  5
303
330
1F
100
AcDbEntity
  8
付属金具
  6
CONTINUOUS
 62
     6
100
AcDbLine
 10
1164.268892299994
 20
2618.35556327491
 30
0.0
 11
1164.09947769278
 21
2618.714697894568
 31
0.0
  0
LINE
  5
304
330
1F
100
AcDbEntity
  8
付属金具
  6
CONTINUOUS
 62
     6
100
AcDbLine
 10
1164.09947769278
 20
2618.714697894568
 30
0.0
 11
1163.980593392038
 21
2619.099003036714
 31
0.0
  0
LINE
  5
305
330
1F
100
AcDbEntity
  8
付属金具
  6
CONTINUOUS
 62
     6
100
AcDbLine
 10
1163.980593392038
 20
2619.099003036714
 30
0.0
 11
1163.922122462895
 21
2619.460579504509
 31
0.0
  0
LINE
  5
306
330
1F
100
AcDbEntity
  8
付属金具
  6
CONTINUOUS
 62
     6
100
AcDbLine
 10
1163.922122462895
 20
2619.460579504509
 30
0.0
 11
1163.89967121243
 21
2619.810269430026
 31
0.0
  0
LINE
  5
307
330
1F
100
AcDbEntity
  8
付属金具
  6
CONTINUOUS
 62
     6
100
AcDbLine
 10
1163.89967121243
 20
2619.810269430026
 30
0.0
 11
1163.894467920982
 21
2620.1522769628
 31
0.0
  0
LINE
  5
308
330
1F
100
AcDbEntity
  8
付属金具
  6
CONTINUOUS
 62
     6
100
AcDbLine
 10
1163.894467920982
 20
2620.1522769628
 30
0.0
 11
1163.892762368364
 21
2620.492609150138
 31
0.0
  0
LINE
  5
309
330
1F
100
AcDbEntity
  8
付属金具
  6
CONTINUOUS
 62
     6
100
AcDbLine
 10
1163.892762368364
 20
2620.492609150138
 30
0.0
 11
1163.867897662542
 21
2620.841239363369
 31
0.0
  0
LINE
  5
30A
330
1F
100
AcDbEntity
  8
付属金具
  6
CONTINUOUS
 62
     6
100
AcDbLine
 10
1163.867897662542
 20
2620.841239363369
 30
0.0
 11
1163.805891148878
 21
2621.204343375427
 31
0.0
  0
LINE
  5
30B
330
1F
100
AcDbEntity
  8
付属金具
  6
CONTINUOUS
 62
     6
100
AcDbLine
 10
1163.805891148878
 20
2621.204343375427
 30
0.0
 11
1163.682965961453
 21
2621.584212638502
 31
0.0
  0
LINE
  5
30C
330
1F
100
AcDbEntity
  8
付属金具
  6
CONTINUOUS
 62
     6
100
AcDbLine
 10
1163.682965961453
 20
2621.584212638502
 30
0.0
 11
1163.605494175627
 21
2621.763735013018
 31
0.0
  0
LINE
  5
30D
330
1F
100
AcDbEntity
  8
付属金具
  6
CONTINUOUS
 62
     6
100
AcDbLine
 10
1163.605494175627
 20
2621.763735013018
 30
0.0
 11
1163.517738127943
 21
2621.925014963687
 31
0.0
  0
LINE
  5
30E
330
1F
100
AcDbEntity
  8
付属金具
  6
CONTINUOUS
 62
     6
100
AcDbLine
 10
1163.517738127943
 20
2621.925014963687
 30
0.0
 11
1163.323533874258
 21
2622.214411270792
 31
0.0
  0
LINE
  5
30F
330
1F
100
AcDbEntity
  8
付属金具
  6
CONTINUOUS
 62
     6
100
AcDbLine
 10
1163.323533874258
 20
2622.214411270792
 30
0.0
 11
1163.111454332759
 21
2622.468347968311
 31
0.0
  0
LINE
  5
310
330
1F
100
AcDbEntity
  8
付属金具
  6
CONTINUOUS
 62
     6
100
AcDbLine
 10
1163.111454332759
 20
2622.468347968311
 30
0.0
 11
1162.891579987965
 21
2622.704993556445
 31
0.0
  0
LINE
  5
311
330
1F
100
AcDbEntity
  8
付属金具
  6
CONTINUOUS
 62
     6
100
AcDbLine
 10
1162.891579987965
 20
2622.704993556445
 30
0.0
 11
1162.673284738765
 21
2622.945130030589
 31
0.0
  0
LINE
  5
312
330
1F
100
AcDbEntity
  8
付属金具
  6
CONTINUOUS
 62
     6
100
AcDbLine
 10
1162.673284738765
 20
2622.945130030589
 30
0.0
 11
1162.466252055544
 21
2623.200870761916
 31
0.0
  0
LINE
  5
313
330
1F
100
AcDbEntity
  8
付属金具
  6
CONTINUOUS
 62
     6
100
AcDbLine
 10
1162.466252055544
 20
2623.200870761916
 30
0.0
 11
1162.276038914464
 21
2623.494821414334
 31
0.0
  0
LINE
  5
314
330
1F
100
AcDbEntity
  8
付属金具
  6
CONTINUOUS
 62
     6
100
AcDbLine
 10
1162.276038914464
 20
2623.494821414334
 30
0.0
 11
1162.118345959449
 21
2623.838382834808
 31
0.0
  0
LINE
  5
315
330
1F
100
AcDbEntity
  8
付属金具
  6
CONTINUOUS
 62
     6
100
AcDbLine
 10
1162.118345959449
 20
2623.838382834808
 30
0.0
 11
1162.006177105443
 21
2624.167932363756
 31
0.0
  0
LINE
  5
316
330
1F
100
AcDbEntity
  8
付属金具
  6
CONTINUOUS
 62
     6
100
AcDbLine
 10
1162.006177105443
 20
2624.167932363756
 30
0.0
 11
1162.196321503568
 21
2624.441524483326
 31
0.0
  0
LINE
  5
317
330
1F
100
AcDbEntity
  8
付属金具
  6
CONTINUOUS
 62
     6
100
AcDbLine
 10
1162.196321503568
 20
2624.441524483326
 30
0.0
 11
1162.272234364983
 21
2624.184126516647
 31
0.0
  0
LINE
  5
318
330
1F
100
AcDbEntity
  8
付属金具
  6
CONTINUOUS
 62
     6
100
AcDbLine
 10
1162.272234364983
 20
2624.184126516647
 30
0.0
 11
1162.363142418526
 21
2623.932351391352
 31
0.0
  0
LINE
  5
319
330
1F
100
AcDbEntity
  8
付属金具
  6
CONTINUOUS
 62
     6
100
AcDbLine
 10
1162.363142418526
 20
2623.932351391352
 30
0.0
 11
1162.52083537354
 21
2623.588789970878
 31
0.0
  0
LINE
  5
31A
330
1F
100
AcDbEntity
  8
付属金具
  6
CONTINUOUS
 62
     6
100
AcDbLine
 10
1162.52083537354
 20
2623.588789970878
 30
0.0
 11
1162.708504289127
 21
2623.293862681795
 31
0.0
  0
LINE
  5
31B
330
1F
100
AcDbEntity
  8
付属金具
  6
CONTINUOUS
 62
     6
100
AcDbLine
 10
1162.708504289127
 20
2623.293862681795
 30
0.0
 11
1162.918081197842
 21
2623.039098587132
 31
0.0
  0
LINE
  5
31C
330
1F
100
AcDbEntity
  8
付属金具
  6
CONTINUOUS
 62
     6
100
AcDbLine
 10
1162.918081197842
 20
2623.039098587132
 30
0.0
 11
1163.136458881447
 21
2622.798993756591
 31
0.0
  0
LINE
  5
31D
330
1F
100
AcDbEntity
  8
付属金具
  6
CONTINUOUS
 62
     6
100
AcDbLine
 10
1163.136458881447
 20
2622.798993756591
 30
0.0
 11
1163.356250791835
 21
2622.562316524854
 31
0.0
  0
LINE
  5
31E
330
1F
100
AcDbEntity
  8
付属金具
  6
CONTINUOUS
 62
     6
100
AcDbLine
 10
1163.356250791835
 20
2622.562316524854
 30
0.0
 11
1163.565872289264
 21
2622.307436272621
 31
0.0
  0
LINE
  5
31F
330
1F
100
AcDbEntity
  8
付属金具
  6
CONTINUOUS
 62
     6
100
AcDbLine
 10
1163.565872289264
 20
2622.307436272621
 30
0.0
 11
1163.760072795931
 21
2622.01803852717
 31
0.0
  0
LINE
  5
320
330
1F
100
AcDbEntity
  8
付属金具
  6
CONTINUOUS
 62
     6
100
AcDbLine
 10
1163.760072795931
 20
2622.01803852717
 30
0.0
 11
1163.847828843615
 21
2621.856758576501
 31
0.0
  0
LINE
  5
321
330
1F
100
AcDbEntity
  8
付属金具
  6
CONTINUOUS
 62
     6
100
AcDbLine
 10
1163.847828843615
 20
2621.856758576501
 30
0.0
 11
1163.925304376459
 21
2621.677237640331
 31
0.0
  0
LINE
  5
322
330
1F
100
AcDbEntity
  8
付属金具
  6
CONTINUOUS
 62
     6
100
AcDbLine
 10
1163.925304376459
 20
2621.677237640331
 30
0.0
 11
1164.048143382461
 21
2621.297335295306
 31
0.0
  0
LINE
  5
323
330
1F
100
AcDbEntity
  8
付属金具
  6
CONTINUOUS
 62
     6
100
AcDbLine
 10
1164.048143382461
 20
2621.297335295306
 30
0.0
 11
1164.112694121619
 21
2620.935207919913
 31
0.0
  0
LINE
  5
324
330
1F
100
AcDbEntity
  8
付属金具
  6
CONTINUOUS
 62
     6
100
AcDbLine
 10
1164.112694121619
 20
2620.935207919913
 30
0.0
 11
1164.13755882744
 21
2620.586577706682
 31
0.0
  0
LINE
  5
325
330
1F
100
AcDbEntity
  8
付属金具
  6
CONTINUOUS
 62
     6
100
AcDbLine
 10
1164.13755882744
 20
2620.586577706682
 30
0.0
 11
1164.139264380058
 21
2620.246245519344
 31
0.0
  0
LINE
  5
326
330
1F
100
AcDbEntity
  8
付属金具
  6
CONTINUOUS
 62
     6
100
AcDbLine
 10
1165.778444719454
 20
2619.955364340681
 30
0.0
 11
1165.72695851915
 21
2619.820933776724
 31
0.0
  0
LINE
  5
327
330
1F
100
AcDbEntity
  8
付属金具
  6
CONTINUOUS
 62
     6
100
AcDbLine
 10
1165.72695851915
 20
2619.820933776724
 30
0.0
 11
1165.704444748937
 21
2619.677676642072
 31
0.0
  0
LINE
  5
328
330
1F
100
AcDbEntity
  8
付属金具
  6
CONTINUOUS
 62
     6
100
AcDbLine
 10
1165.704444748937
 20
2619.677676642072
 30
0.0
 11
1165.708401007346
 21
2619.533041487399
 31
0.0
  0
LINE
  5
329
330
1F
100
AcDbEntity
  8
付属金具
  6
CONTINUOUS
 62
     6
100
AcDbLine
 10
1165.708401007346
 20
2619.533041487399
 30
0.0
 11
1165.743141225894
 21
2619.382901922414
 31
0.0
  0
LINE
  5
32A
330
1F
100
AcDbEntity
  8
付属金具
  6
CONTINUOUS
 62
     6
100
AcDbLine
 10
1165.743141225894
 20
2619.382901922414
 30
0.0
 11
1165.808704630804
 21
2619.241838516542
 31
0.0
  0
LINE
  5
32B
330
1F
100
AcDbEntity
  8
付属金具
  6
CONTINUOUS
 62
     6
100
AcDbLine
 10
1165.808704630804
 20
2619.241838516542
 30
0.0
 11
1165.902383678118
 21
2619.117341449766
 31
0.0
  0
LINE
  5
32C
330
1F
100
AcDbEntity
  8
付属金具
  6
CONTINUOUS
 62
     6
100
AcDbLine
 10
1165.902383678118
 20
2619.117341449766
 30
0.0
 11
1166.016786505556
 21
2619.020872216744
 31
0.0
  0
LINE
  5
32D
330
1F
100
AcDbEntity
  8
付属金具
  6
CONTINUOUS
 62
     6
100
AcDbLine
 10
1166.016786505556
 20
2619.020872216744
 30
0.0
 11
1166.148977929181
 21
2618.945405675493
 31
0.0
  0
LINE
  5
32E
330
1F
100
AcDbEntity
  8
付属金具
  6
CONTINUOUS
 62
     6
100
AcDbLine
 10
1166.148977929181
 20
2618.945405675493
 30
0.0
 11
1166.293398309902
 21
2618.89771981338
 31
0.0
  0
LINE
  5
32F
330
1F
100
AcDbEntity
  8
付属金具
  6
CONTINUOUS
 62
     6
100
AcDbLine
 10
1166.293398309902
 20
2618.89771981338
 30
0.0
 11
1166.444140319861
 21
2618.878173798851
 31
0.0
  0
LINE
  5
330
330
1F
100
AcDbEntity
  8
付属金具
  6
CONTINUOUS
 62
     6
100
AcDbLine
 10
1166.444140319861
 20
2618.878173798851
 30
0.0
 11
1166.597873397711
 21
2618.888511449912
 31
0.0
  0
LINE
  5
331
330
1F
100
AcDbEntity
  8
付属金具
  6
CONTINUOUS
 62
     6
100
AcDbLine
 10
1166.597873397711
 20
2618.888511449912
 30
0.0
 11
1166.751998670342
 21
2618.927472904644
 31
0.0
  0
LINE
  5
332
330
1F
100
AcDbEntity
  8
付属金具
  6
CONTINUOUS
 62
     6
100
AcDbLine
 10
1166.751998670342
 20
2618.927472904644
 30
0.0
 11
1166.896164062126
 21
2618.99999650639
 31
0.0
  0
LINE
  5
333
330
1F
100
AcDbEntity
  8
付属金具
  6
CONTINUOUS
 62
     6
100
AcDbLine
 10
1166.896164062126
 20
2618.99999650639
 30
0.0
 11
1167.019740697515
 21
2619.096241354381
 31
0.0
  0
LINE
  5
334
330
1F
100
AcDbEntity
  8
付属金具
  6
CONTINUOUS
 62
     6
100
AcDbLine
 10
1167.019740697515
 20
2619.096241354381
 30
0.0
 11
1167.12130004898
 21
2619.212503513977
 31
0.0
  0
LINE
  5
335
330
1F
100
AcDbEntity
  8
付属金具
  6
CONTINUOUS
 62
     6
100
AcDbLine
 10
1167.12130004898
 20
2619.212503513977
 30
0.0
 11
1167.199135878496
 21
2619.34563451619
 31
0.0
  0
LINE
  5
336
330
1F
100
AcDbEntity
  8
付属金具
  6
CONTINUOUS
 62
     6
100
AcDbLine
 10
1167.199135878496
 20
2619.34563451619
 30
0.0
 11
1167.249346058374
 21
2619.49099379768
 31
0.0
  0
LINE
  5
337
330
1F
100
AcDbEntity
  8
付属金具
  6
CONTINUOUS
 62
     6
100
AcDbLine
 10
1167.249346058374
 20
2619.49099379768
 30
0.0
 11
1167.268805130951
 21
2619.641861502209
 31
0.0
  0
LINE
  5
338
330
1F
100
AcDbEntity
  8
付属金具
  6
CONTINUOUS
 62
     6
100
AcDbLine
 10
1167.268805130951
 20
2619.641861502209
 30
0.0
 11
1167.258570582552
 21
2619.795505183038
 31
0.0
  0
LINE
  5
339
330
1F
100
AcDbEntity
  8
付属金具
  6
CONTINUOUS
 62
     6
100
AcDbLine
 10
1167.258570582552
 20
2619.795505183038
 30
0.0
 11
1167.212024896869
 21
2619.946753535353
 31
0.0
  0
LINE
  5
33A
330
1F
100
AcDbEntity
  8
付属金具
  6
CONTINUOUS
 62
     6
100
AcDbLine
 10
1167.212024896869
 20
2619.946753535353
 30
0.0
 11
1167.138914996902
 21
2620.084920113181
 31
0.0
  0
LINE
  5
33B
330
1F
100
AcDbEntity
  8
付属金具
  6
CONTINUOUS
 62
     6
100
AcDbLine
 10
1167.138914996902
 20
2620.084920113181
 30
0.0
 11
1167.041564467381
 21
2620.196593593248
 31
0.0
  0
LINE
  5
33C
330
1F
100
AcDbEntity
  8
付属金具
  6
CONTINUOUS
 62
     6
100
AcDbLine
 10
1167.041564467381
 20
2620.196593593248
 30
0.0
 11
1166.92658839663
 21
2620.28719799805
 31
0.0
  0
LINE
  5
33D
330
1F
100
AcDbEntity
  8
付属金具
  6
CONTINUOUS
 62
     6
100
AcDbLine
 10
1166.92658839663
 20
2620.28719799805
 30
0.0
 11
1166.795799448531
 21
2620.351663987201
 31
0.0
  0
LINE
  5
33E
330
1F
100
AcDbEntity
  8
付属金具
  6
CONTINUOUS
 62
     6
100
AcDbLine
 10
1166.795799448531
 20
2620.351663987201
 30
0.0
 11
1166.655199313731
 21
2620.389397768444
 31
0.0
  0
LINE
  5
33F
330
1F
100
AcDbEntity
  8
付属金具
  6
CONTINUOUS
 62
     6
100
AcDbLine
 10
1166.655199313731
 20
2620.389397768444
 30
0.0
 11
1166.507241721262
 21
2620.401354137548
 31
0.0
  0
LINE
  5
340
330
1F
100
AcDbEntity
  8
付属金具
  6
CONTINUOUS
 62
     6
100
AcDbLine
 10
1166.507241721262
 20
2620.401354137548
 30
0.0
 11
1166.357004824584
 21
2620.389602791122
 31
0.0
  0
LINE
  5
341
330
1F
100
AcDbEntity
  8
付属金具
  6
CONTINUOUS
 62
     6
100
AcDbLine
 10
1166.357004824584
 20
2620.389602791122
 30
0.0
 11
1166.208273827417
 21
2620.34392454715
 31
0.0
  0
LINE
  5
342
330
1F
100
AcDbEntity
  8
付属金具
  6
CONTINUOUS
 62
     6
100
AcDbLine
 10
1166.208273827417
 20
2620.34392454715
 30
0.0
 11
1166.070694986154
 21
2620.27680971412
 31
0.0
  0
LINE
  5
343
330
1F
100
AcDbEntity
  8
付属金具
  6
CONTINUOUS
 62
     6
100
AcDbLine
 10
1166.070694986154
 20
2620.27680971412
 30
0.0
 11
1165.953597483588
 21
2620.186074272924
 31
0.0
  0
LINE
  5
344
330
1F
100
AcDbEntity
  8
付属金具
  6
CONTINUOUS
 62
     6
100
AcDbLine
 10
1165.953597483588
 20
2620.186074272924
 30
0.0
 11
1165.854257541854
 21
2620.07906030006
 31
0.0
  0
LINE
  5
345
330
1F
100
AcDbEntity
  8
付属金具
  6
CONTINUOUS
 62
     6
100
AcDbLine
 10
1165.854257541854
 20
2620.07906030006
 30
0.0
 11
1165.778444719454
 21
2619.955364340681
 31
0.0
  0
LINE
  5
346
330
1F
100
AcDbEntity
  8
付属金具
  6
CONTINUOUS
 62
     6
100
AcDbLine
 10
1165.25757058985
 20
2619.48304700274
 30
0.0
 11
1165.231424997305
 21
2619.745383142893
 31
0.0
  0
LINE
  5
347
330
1F
100
AcDbEntity
  8
付属金具
  6
CONTINUOUS
 62
     6
100
AcDbLine
 10
1165.325906980059
 20
2619.222740701253
 30
0.0
 11
1165.25757058985
 21
2619.48304700274
 31
0.0
  0
LINE
  5
348
330
1F
100
AcDbEntity
  8
付属金具
  6
CONTINUOUS
 62
     6
100
AcDbLine
 10
1165.44216580975
 20
2618.972167318449
 30
0.0
 11
1165.325906980059
 21
2619.222740701253
 31
0.0
  0
LINE
  5
349
330
1F
100
AcDbEntity
  8
付属金具
  6
CONTINUOUS
 62
     6
100
AcDbLine
 10
1165.594586893698
 20
2618.74702283479
 30
0.0
 11
1165.44216580975
 21
2618.972167318449
 31
0.0
  0
LINE
  5
34A
330
1F
100
AcDbEntity
  8
付属金具
  6
CONTINUOUS
 62
     6
100
AcDbLine
 10
1165.780284388724
 20
2618.5544667396
 30
0.0
 11
1165.594586893698
 21
2618.74702283479
 31
0.0
  0
LINE
  5
34B
330
1F
100
AcDbEntity
  8
付属金具
  6
CONTINUOUS
 62
     6
100
AcDbLine
 10
1165.992196314361
 20
2618.397944571849
 30
0.0
 11
1165.780284388724
 21
2618.5544667396
 31
0.0
  0
LINE
  5
34C
330
1F
100
AcDbEntity
  8
付属金具
  6
CONTINUOUS
 62
     6
100
AcDbLine
 10
1166.225781345805
 20
2618.289891668881
 30
0.0
 11
1165.992196314361
 21
2618.397944571849
 31
0.0
  0
LINE
  5
34D
330
1F
100
AcDbEntity
  8
付属金具
  6
CONTINUOUS
 62
     6
100
AcDbLine
 10
1166.474891851203
 20
2618.230699630358
 30
0.0
 11
1166.225781345805
 21
2618.289891668881
 31
0.0
  0
LINE
  5
34E
330
1F
100
AcDbEntity
  8
付属金具
  6
CONTINUOUS
 62
     6
100
AcDbLine
 10
1166.602995868521
 20
2618.225429750821
 30
0.0
 11
1166.474891851203
 21
2618.230699630358
 31
0.0
  0
LINE
  5
34F
330
1F
100
AcDbEntity
  8
付属金具
  6
CONTINUOUS
 62
     6
100
AcDbLine
 10
1166.734888963963
 20
2618.23302429969
 30
0.0
 11
1166.602995868521
 21
2618.225429750821
 31
0.0
  0
LINE
  5
350
330
1F
100
AcDbEntity
  8
付属金具
  6
CONTINUOUS
 62
     6
100
AcDbLine
 10
1166.863330289818
 20
2618.256610804676
 30
0.0
 11
1166.734888963963
 21
2618.23302429969
 31
0.0
  0
LINE
  5
351
330
1F
100
AcDbEntity
  8
付属金具
  6
CONTINUOUS
 62
     6
100
AcDbLine
 10
1166.993596142814
 20
2618.29808997105
 30
0.0
 11
1166.863330289818
 21
2618.256610804676
 31
0.0
  0
LINE
  5
352
330
1F
100
AcDbEntity
  8
付属金具
  6
CONTINUOUS
 62
     6
100
AcDbLine
 10
1167.120619308239
 20
2618.355374805457
 30
0.0
 11
1166.993596142814
 21
2618.29808997105
 31
0.0
  0
LINE
  5
353
330
1F
100
AcDbEntity
  8
付属金具
  6
CONTINUOUS
 62
     6
100
AcDbLine
 10
1167.231938448732
 20
2618.423823720526
 30
0.0
 11
1167.120619308239
 21
2618.355374805457
 31
0.0
  0
LINE
  5
354
330
1F
100
AcDbEntity
  8
付属金具
  6
CONTINUOUS
 62
     6
100
AcDbLine
 10
1167.334919707644
 20
2618.506388989046
 30
0.0
 11
1167.231938448732
 21
2618.423823720526
 31
0.0
  0
LINE
  5
355
330
1F
100
AcDbEntity
  8
付属金具
  6
CONTINUOUS
 62
     6
100
AcDbLine
 10
1167.426623283695
 20
2618.596035098304
 30
0.0
 11
1167.334919707644
 21
2618.506388989046
 31
0.0
  0
LINE
  5
356
330
1F
100
AcDbEntity
  8
付属金具
  6
CONTINUOUS
 62
     6
100
AcDbLine
 10
1167.50862395744
 20
2618.696264175366
 30
0.0
 11
1167.426623283695
 21
2618.596035098304
 31
0.0
  0
LINE
  5
357
330
1F
100
AcDbEntity
  8
付属金具
  6
CONTINUOUS
 62
     6
100
AcDbLine
 10
1167.575676846647
 20
2618.805183274707
 30
0.0
 11
1167.50862395744
 21
2618.696264175366
 31
0.0
  0
LINE
  5
358
330
1F
100
AcDbEntity
  8
付属金具
  6
CONTINUOUS
 62
     6
100
AcDbLine
 10
1167.633964863991
 20
2618.922152091704
 30
0.0
 11
1167.575676846647
 21
2618.805183274707
 31
0.0
  0
LINE
  5
359
330
1F
100
AcDbEntity
  8
付属金具
  6
CONTINUOUS
 62
     6
100
AcDbLine
 10
1167.679394664533
 20
2619.042714610448
 30
0.0
 11
1167.633964863991
 21
2618.922152091704
 31
0.0
  0
LINE
  5
35A
330
1F
100
AcDbEntity
  8
付属金具
  6
CONTINUOUS
 62
     6
100
AcDbLine
 10
1167.713498446481
 20
2619.170472689155
 30
0.0
 11
1167.679394664533
 21
2619.042714610448
 31
0.0
  0
LINE
  5
35B
330
1F
100
AcDbEntity
  8
付属金具
  6
CONTINUOUS
 62
     6
100
AcDbLine
 10
1167.734687806349
 20
2619.301802894426
 30
0.0
 11
1167.713498446481
 21
2619.170472689155
 31
0.0
  0
LINE
  5
35C
330
1F
100
AcDbEntity
  8
付属金具
  6
CONTINUOUS
 62
     6
100
AcDbLine
 10
1167.746470541874
 20
2619.435429263649
 30
0.0
 11
1167.734687806349
 21
2619.301802894426
 31
0.0
  0
LINE
  5
35D
330
1F
100
AcDbEntity
  8
付属金具
  6
CONTINUOUS
 62
     6
100
AcDbLine
 10
1167.743884474172
 20
2619.569047174093
 30
0.0
 11
1167.746470541874
 21
2619.435429263649
 31
0.0
  0
LINE
  5
35E
330
1F
100
AcDbEntity
  8
付属金具
  6
CONTINUOUS
 62
     6
100
AcDbLine
 10
1167.707954112936
 20
2619.841921959046
 30
0.0
 11
1167.743884474172
 21
2619.569047174093
 31
0.0
  0
LINE
  5
35F
330
1F
100
AcDbEntity
  8
付属金具
  6
CONTINUOUS
 62
     6
100
AcDbLine
 10
1167.670582106941
 20
2619.976619037168
 30
0.0
 11
1167.707954112936
 21
2619.841921959046
 31
0.0
  0
LINE
  5
360
330
1F
100
AcDbEntity
  8
付属金具
  6
CONTINUOUS
 62
     6
100
AcDbLine
 10
1167.624226896993
 20
2620.10498305837
 30
0.0
 11
1167.670582106941
 21
2619.976619037168
 31
0.0
  0
LINE
  5
361
330
1F
100
AcDbEntity
  8
付属金具
  6
CONTINUOUS
 62
     6
100
AcDbLine
 10
1167.502280143875
 20
2620.347728271207
 30
0.0
 11
1167.624226896993
 21
2620.10498305837
 31
0.0
  0
LINE
  5
362
330
1F
100
AcDbEntity
  8
付属金具
  6
CONTINUOUS
 62
     6
100
AcDbLine
 10
1167.343759509795
 20
2620.559117120205
 30
0.0
 11
1167.502280143875
 21
2620.347728271207
 31
0.0
  0
LINE
  5
363
330
1F
100
AcDbEntity
  8
付属金具
  6
CONTINUOUS
 62
     6
100
AcDbLine
 10
1167.254733687633
 20
2620.656798164138
 30
0.0
 11
1167.343759509795
 21
2620.559117120205
 31
0.0
  0
LINE
  5
364
330
1F
100
AcDbEntity
  8
付属金具
  6
CONTINUOUS
 62
     6
100
AcDbLine
 10
1167.159509079009
 20
2620.740556505725
 30
0.0
 11
1167.254733687633
 21
2620.656798164138
 31
0.0
  0
LINE
  5
365
330
1F
100
AcDbEntity
  8
付属金具
  6
CONTINUOUS
 62
     6
100
AcDbLine
 10
1166.947294078205
 20
2620.882659069932
 30
0.0
 11
1167.159509079009
 21
2620.740556505725
 31
0.0
  0
LINE
  5
366
330
1F
100
AcDbEntity
  8
付属金具
  6
CONTINUOUS
 62
     6
100
AcDbLine
 10
1166.72006833281
 20
2620.981738837367
 30
0.0
 11
1166.947294078205
 21
2620.882659069932
 31
0.0
  0
LINE
  5
367
330
1F
100
AcDbEntity
  8
付属金具
  6
CONTINUOUS
 62
     6
100
AcDbLine
 10
1166.600810372294
 20
2621.016255174158
 30
0.0
 11
1166.72006833281
 21
2620.981738837367
 31
0.0
  0
LINE
  5
368
330
1F
100
AcDbEntity
  8
付属金具
  6
CONTINUOUS
 62
     6
100
AcDbLine
 10
1166.477238426074
 20
2621.0319275351
 30
0.0
 11
1166.600810372294
 21
2621.016255174158
 31
0.0
  0
LINE
  5
369
330
1F
100
AcDbEntity
  8
付属金具
  6
CONTINUOUS
 62
     6
100
AcDbLine
 10
1166.226749482663
 20
2621.027478954864
 30
0.0
 11
1166.477238426074
 21
2621.0319275351
 31
0.0
  0
LINE
  5
36A
330
1F
100
AcDbEntity
  8
付属金具
  6
CONTINUOUS
 62
     6
100
AcDbLine
 10
1166.099269539689
 20
2621.001376762187
 30
0.0
 11
1166.226749482663
 21
2621.027478954864
 31
0.0
  0
LINE
  5
36B
330
1F
100
AcDbEntity
  8
付属金具
  6
CONTINUOUS
 62
     6
100
AcDbLine
 10
1165.972383710295
 20
2620.958439311734
 30
0.0
 11
1166.099269539689
 21
2621.001376762187
 31
0.0
  0
LINE
  5
36C
330
1F
100
AcDbEntity
  8
付属金具
  6
CONTINUOUS
 62
     6
100
AcDbLine
 10
1165.740583485498
 20
2620.837972585491
 30
0.0
 11
1165.972383710295
 21
2620.958439311734
 31
0.0
  0
LINE
  5
36D
330
1F
100
AcDbEntity
  8
付属金具
  6
CONTINUOUS
 62
     6
100
AcDbLine
 10
1165.55142870437
 20
2620.6736534525
 30
0.0
 11
1165.740583485498
 21
2620.837972585491
 31
0.0
  0
LINE
  5
36E
330
1F
100
AcDbEntity
  8
付属金具
  6
CONTINUOUS
 62
     6
100
AcDbLine
 10
1165.40712647275
 20
2620.474862949193
 30
0.0
 11
1165.55142870437
 21
2620.6736534525
 31
0.0
  0
LINE
  5
36F
330
1F
100
AcDbEntity
  8
付属金具
  6
CONTINUOUS
 62
     6
100
AcDbLine
 10
1165.304592116853
 20
2620.249200138683
 30
0.0
 11
1165.40712647275
 21
2620.474862949193
 31
0.0
  0
LINE
  5
370
330
1F
100
AcDbEntity
  8
付属金具
  6
CONTINUOUS
 62
     6
100
AcDbLine
 10
1165.246943105486
 20
2620.003506485853
 30
0.0
 11
1165.304592116853
 21
2620.249200138683
 31
0.0
  0
LINE
  5
371
330
1F
100
AcDbEntity
  8
付属金具
  6
CONTINUOUS
 62
     6
100
AcDbLine
 10
1165.231424997305
 20
2619.745383142893
 30
0.0
 11
1165.246943105486
 21
2620.003506485853
 31
0.0
  0
LINE
  5
372
330
1F
100
AcDbEntity
  8
付属金具
  6
CONTINUOUS
 62
     6
100
AcDbLine
 10
1166.896235010237
 20
2621.739999446604
 30
0.0
 11
1164.757864067735
 21
2620.919155748213
 31
0.0
  0
LINE
  5
373
330
1F
100
AcDbEntity
  8
付属金具
  6
CONTINUOUS
 62
     6
100
AcDbLine
 10
1164.757864067735
 20
2620.919155748213
 30
0.0
 11
1164.546906233283
 21
2621.468719695855
 31
0.0
  0
LINE
  5
374
330
1F
100
AcDbEntity
  8
付属金具
  6
CONTINUOUS
 62
     6
100
AcDbLine
 10
1164.546906233283
 20
2621.468719695855
 30
0.0
 11
1165.463764165527
 21
2621.82066848128
 31
0.0
  0
LINE
  5
375
330
1F
100
AcDbEntity
  8
付属金具
  6
CONTINUOUS
 62
     6
100
AcDbLine
 10
1165.463764165527
 20
2621.82066848128
 30
0.0
 11
1165.077270633772
 21
2622.827518554432
 31
0.0
  0
LINE
  5
376
330
1F
100
AcDbEntity
  8
付属金具
  6
CONTINUOUS
 62
     6
100
AcDbLine
 10
1165.077270633772
 20
2622.827518554432
 30
0.0
 11
1164.160412701527
 21
2622.475569769007
 31
0.0
  0
LINE
  5
377
330
1F
100
AcDbEntity
  8
付属金具
  6
CONTINUOUS
 62
     6
100
AcDbLine
 10
1164.160412701527
 20
2622.475569769007
 30
0.0
 11
1163.94945342873
 21
2623.025137463667
 31
0.0
  0
LINE
  5
378
330
1F
100
AcDbEntity
  8
付属金具
  6
CONTINUOUS
 62
     6
100
AcDbLine
 10
1163.94945342873
 20
2623.025137463667
 30
0.0
 11
1166.087824371232
 21
2623.845981162058
 31
0.0
  0
LINE
  5
379
330
1F
100
AcDbEntity
  8
付属金具
  6
CONTINUOUS
 62
     6
100
AcDbLine
 10
1166.087824371232
 20
2623.845981162058
 30
0.0
 11
1166.298783644029
 21
2623.296413467398
 31
0.0
  0
LINE
  5
37A
330
1F
100
AcDbEntity
  8
付属金具
  6
CONTINUOUS
 62
     6
100
AcDbLine
 10
1166.298783644029
 20
2623.296413467398
 30
0.0
 11
1165.529378379853
 21
2623.001066458114
 31
0.0
  0
LINE
  5
37B
330
1F
100
AcDbEntity
  8
付属金具
  6
CONTINUOUS
 62
     6
100
AcDbLine
 10
1165.529378379853
 20
2623.001066458114
 30
0.0
 11
1165.915871911609
 21
2621.994216384962
 31
0.0
  0
LINE
  5
37C
330
1F
100
AcDbEntity
  8
付属金具
  6
CONTINUOUS
 62
     6
100
AcDbLine
 10
1165.915871911609
 20
2621.994216384962
 30
0.0
 11
1166.685277175785
 21
2622.289563394246
 31
0.0
  0
LINE
  5
37D
330
1F
100
AcDbEntity
  8
付属金具
  6
CONTINUOUS
 62
     6
100
AcDbLine
 10
1166.685277175785
 20
2622.289563394246
 30
0.0
 11
1166.896235010237
 21
2621.739999446604
 31
0.0
  0
LINE
  5
37E
330
1F
100
AcDbEntity
  8
付属金具
  6
CONTINUOUS
 62
     6
100
AcDbLine
 10
1165.85965960834
 20
2624.440370690817
 30
0.0
 11
1163.721288665838
 21
2623.619526992426
 31
0.0
  0
LINE
  5
37F
330
1F
100
AcDbEntity
  8
付属金具
  6
CONTINUOUS
 62
     6
100
AcDbLine
 10
1163.721288665838
 20
2623.619526992426
 30
0.0
 11
1163.105619214231
 21
2625.223400748271
 31
0.0
  0
LINE
  5
380
330
1F
100
AcDbEntity
  8
付属金具
  6
CONTINUOUS
 62
     6
100
AcDbLine
 10
1163.105619214231
 20
2625.223400748271
 30
0.0
 11
1163.55775693646
 21
2625.396960158718
 31
0.0
  0
LINE
  5
381
330
1F
100
AcDbEntity
  8
付属金具
  6
CONTINUOUS
 62
     6
100
AcDbLine
 10
1163.55775693646
 20
2625.396960158718
 30
0.0
 11
1163.961458835002
 21
2624.34528075743
 31
0.0
  0
LINE
  5
382
330
1F
100
AcDbEntity
  8
付属金具
  6
CONTINUOUS
 62
     6
100
AcDbLine
 10
1163.961458835002
 20
2624.34528075743
 30
0.0
 11
1164.426179045018
 21
2624.52367013241
 31
0.0
  0
LINE
  5
383
330
1F
100
AcDbEntity
  8
付属金具
  6
CONTINUOUS
 62
     6
100
AcDbLine
 10
1164.426179045018
 20
2624.52367013241
 30
0.0
 11
1164.123172845401
 21
2625.313028269564
 31
0.0
  0
LINE
  5
384
330
1F
100
AcDbEntity
  8
付属金具
  6
CONTINUOUS
 62
     6
100
AcDbLine
 10
1164.123172845401
 20
2625.313028269564
 30
0.0
 11
1164.575280591483
 21
2625.486576173246
 31
0.0
  0
LINE
  5
385
330
1F
100
AcDbEntity
  8
付属金具
  6
CONTINUOUS
 62
     6
100
AcDbLine
 10
1164.575280591483
 20
2625.486576173246
 30
0.0
 11
1164.878286791099
 21
2624.697218036091
 31
0.0
  0
LINE
  5
386
330
1F
100
AcDbEntity
  8
付属金具
  6
CONTINUOUS
 62
     6
100
AcDbLine
 10
1164.878286791099
 20
2624.697218036091
 30
0.0
 11
1165.230543990863
 21
2624.832436906163
 31
0.0
  0
LINE
  5
387
330
1F
100
AcDbEntity
  8
付属金具
  6
CONTINUOUS
 62
     6
100
AcDbLine
 10
1165.230543990863
 20
2624.832436906163
 30
0.0
 11
1164.873809829619
 21
2625.761761168624
 31
0.0
  0
LINE
  5
388
330
1F
100
AcDbEntity
  8
付属金具
  6
CONTINUOUS
 62
     6
100
AcDbLine
 10
1164.873809829619
 20
2625.761761168624
 30
0.0
 11
1165.290957894031
 21
2625.921889307836
 31
0.0
  0
LINE
  5
389
330
1F
100
AcDbEntity
  8
付属金具
  6
CONTINUOUS
 62
     6
100
AcDbLine
 10
1165.290957894031
 20
2625.921889307836
 30
0.0
 11
1165.85965960834
 21
2624.440370690817
 31
0.0
  0
LINE
  5
38A
330
1F
100
AcDbEntity
  8
付属金具
  6
CONTINUOUS
 62
     6
100
AcDbLine
 10
1167.573798868558
 20
2616.786610194906
 30
0.0
 11
1166.197176238275
 21
2617.169619352059
 31
0.0
  0
LINE
  5
38B
330
1F
100
AcDbEntity
  8
付属金具
  6
CONTINUOUS
 62
     6
100
AcDbLine
 10
1166.197176238275
 20
2617.169619352059
 30
0.0
 11
1165.918137191429
 21
2617.896540921618
 31
0.0
  0
LINE
  5
38C
330
1F
100
AcDbEntity
  8
付属金具
  6
CONTINUOUS
 62
     6
100
AcDbLine
 10
1165.918137191429
 20
2617.896540921618
 30
0.0
 11
1167.055239108983
 21
2617.510413064659
 31
0.0
  0
LINE
  5
38D
330
1F
100
AcDbEntity
  8
付属金具
  6
CONTINUOUS
 62
     6
100
AcDbLine
 10
1167.055239108983
 20
2617.510413064659
 30
0.0
 11
1167.087437799678
 21
2617.717735026076
 31
0.0
  0
LINE
  5
38E
330
1F
100
AcDbEntity
  8
付属金具
  6
CONTINUOUS
 62
     6
100
AcDbLine
 10
1167.087437799678
 20
2617.717735026076
 30
0.0
 11
1167.167883676047
 21
2617.888999668764
 31
0.0
  0
LINE
  5
38F
330
1F
100
AcDbEntity
  8
付属金具
  6
CONTINUOUS
 62
     6
100
AcDbLine
 10
1167.167883676047
 20
2617.888999668764
 30
0.0
 11
1167.300443704268
 21
2618.028838357965
 31
0.0
  0
LINE
  5
390
330
1F
100
AcDbEntity
  8
付属金具
  6
CONTINUOUS
 62
     6
100
AcDbLine
 10
1167.300443704268
 20
2618.028838357965
 30
0.0
 11
1167.477797768048
 21
2618.134178916303
 31
0.0
  0
LINE
  5
391
330
1F
100
AcDbEntity
  8
付属金具
  6
CONTINUOUS
 62
     6
100
AcDbLine
 10
1167.477797768048
 20
2618.134178916303
 30
0.0
 11
1167.623174970743
 21
2618.181325512773
 31
0.0
  0
LINE
  5
392
330
1F
100
AcDbEntity
  8
付属金具
  6
CONTINUOUS
 62
     6
100
AcDbLine
 10
1167.623174970743
 20
2618.181325512773
 30
0.0
 11
1167.769947851757
 21
2618.194765149746
 31
0.0
  0
LINE
  5
393
330
1F
100
AcDbEntity
  8
付属金具
  6
CONTINUOUS
 62
     6
100
AcDbLine
 10
1167.769947851757
 20
2618.194765149746
 30
0.0
 11
1167.914761865603
 21
2618.175699344286
 31
0.0
  0
LINE
  5
394
330
1F
100
AcDbEntity
  8
付属金具
  6
CONTINUOUS
 62
     6
100
AcDbLine
 10
1167.914761865603
 20
2618.175699344286
 30
0.0
 11
1168.053183432368
 21
2618.128599780395
 31
0.0
  0
LINE
  5
395
330
1F
100
AcDbEntity
  8
付属金具
  6
CONTINUOUS
 62
     6
100
AcDbLine
 10
1168.053183432368
 20
2618.128599780395
 30
0.0
 11
1168.180943401756
 21
2618.057330593673
 31
0.0
  0
LINE
  5
396
330
1F
100
AcDbEntity
  8
付属金具
  6
CONTINUOUS
 62
     6
100
AcDbLine
 10
1168.180943401756
 20
2618.057330593673
 30
0.0
 11
1168.291883771189
 21
2617.962288001127
 31
0.0
  0
LINE
  5
397
330
1F
100
AcDbEntity
  8
付属金具
  6
CONTINUOUS
 62
     6
100
AcDbLine
 10
1168.291883771189
 20
2617.962288001127
 30
0.0
 11
1168.38174026391
 21
2617.847737829856
 31
0.0
  0
LINE
  5
398
330
1F
100
AcDbEntity
  8
付属金具
  6
CONTINUOUS
 62
     6
100
AcDbLine
 10
1168.38174026391
 20
2617.847737829856
 30
0.0
 11
1168.443879056505
 21
2617.708248865633
 31
0.0
  0
LINE
  5
399
330
1F
100
AcDbEntity
  8
付属金具
  6
CONTINUOUS
 62
     6
100
AcDbLine
 10
1168.443879056505
 20
2617.708248865633
 30
0.0
 11
1168.881159133132
 21
2616.569095319803
 31
0.0
  0
LINE
  5
39A
330
1F
100
AcDbEntity
  8
付属金具
  6
CONTINUOUS
 62
     6
100
AcDbLine
 10
1168.881159133132
 20
2616.569095319803
 30
0.0
 11
1166.74278819063
 21
2615.748251621412
 31
0.0
  0
LINE
  5
39B
330
1F
100
AcDbEntity
  8
付属金具
  6
CONTINUOUS
 62
     6
100
AcDbLine
 10
1166.74278819063
 20
2615.748251621412
 30
0.0
 11
1166.529898658034
 21
2616.302847814764
 31
0.0
  0
LINE
  5
39C
330
1F
100
AcDbEntity
  8
付属金具
  6
CONTINUOUS
 62
     6
100
AcDbLine
 10
1166.529898658034
 20
2616.302847814764
 30
0.0
 11
1168.251121536125
 21
2616.963563373943
 31
0.0
  0
LINE
  5
39D
330
1F
100
AcDbEntity
  8
付属金具
  6
CONTINUOUS
 62
     6
100
AcDbLine
 10
1168.251121536125
 20
2616.963563373943
 30
0.0
 11
1168.101527840103
 21
2617.353268275595
 31
0.0
  0
LINE
  5
39E
330
1F
100
AcDbEntity
  8
付属金具
  6
CONTINUOUS
 62
     6
100
AcDbLine
 10
1168.101527840103
 20
2617.353268275595
 30
0.0
 11
1168.02106335916
 21
2617.465649947249
 31
0.0
  0
LINE
  5
39F
330
1F
100
AcDbEntity
  8
付属金具
  6
CONTINUOUS
 62
     6
100
AcDbLine
 10
1168.02106335916
 20
2617.465649947249
 30
0.0
 11
1167.911310009855
 21
2617.535301719082
 31
0.0
  0
LINE
  5
3A0
330
1F
100
AcDbEntity
  8
付属金具
  6
CONTINUOUS
 62
     6
100
AcDbLine
 10
1167.911310009855
 20
2617.535301719082
 30
0.0
 11
1167.783919256061
 21
2617.560922413874
 31
0.0
  0
LINE
  5
3A1
330
1F
100
AcDbEntity
  8
付属金具
  6
CONTINUOUS
 62
     6
100
AcDbLine
 10
1167.783919256061
 20
2617.560922413874
 30
0.0
 11
1167.648849667661
 21
2617.532035803707
 31
0.0
  0
LINE
  5
3A2
330
1F
100
AcDbEntity
  8
付属金具
  6
CONTINUOUS
 62
     6
100
AcDbLine
 10
1167.648849667661
 20
2617.532035803707
 30
0.0
 11
1167.541580841054
 21
2617.467897412046
 31
0.0
  0
LINE
  5
3A3
330
1F
100
AcDbEntity
  8
付属金具
  6
CONTINUOUS
 62
     6
100
AcDbLine
 10
1167.541580841054
 20
2617.467897412046
 30
0.0
 11
1167.467158947186
 21
2617.370581855155
 31
0.0
  0
LINE
  5
3A4
330
1F
100
AcDbEntity
  8
付属金具
  6
CONTINUOUS
 62
     6
100
AcDbLine
 10
1167.467158947186
 20
2617.370581855155
 30
0.0
 11
1167.434266294703
 21
2617.254698623079
 31
0.0
  0
LINE
  5
3A5
330
1F
100
AcDbEntity
  8
付属金具
  6
CONTINUOUS
 62
     6
100
AcDbLine
 10
1167.434266294703
 20
2617.254698623079
 30
0.0
 11
1167.442377230877
 21
2617.128975266095
 31
0.0
  0
LINE
  5
3A6
330
1F
100
AcDbEntity
  8
付属金具
  6
CONTINUOUS
 62
     6
100
AcDbLine
 10
1167.442377230877
 20
2617.128975266095
 30
0.0
 11
1167.573798868558
 21
2616.786610194906
 31
0.0
  0
LINE
  5
3A7
330
1F
100
AcDbEntity
  8
付属金具
  6
CONTINUOUS
 62
     6
100
AcDbLine
 10
1167.572406394702
 20
2614.774130511446
 30
0.0
 11
1167.591384391512
 21
2614.881654406072
 31
0.0
  0
LINE
  5
3A8
330
1F
100
AcDbEntity
  8
付属金具
  6
CONTINUOUS
 62
     6
100
AcDbLine
 10
1167.591384391512
 20
2614.881654406072
 30
0.0
 11
1168.213389445877
 21
2615.120419776053
 31
0.0
  0
LINE
  5
3A9
330
1F
100
AcDbEntity
  8
付属金具
  6
CONTINUOUS
 62
     6
100
AcDbLine
 10
1168.213389445877
 20
2615.120419776053
 30
0.0
 11
1167.998568215137
 21
2615.680048215117
 31
0.0
  0
LINE
  5
3AA
330
1F
100
AcDbEntity
  8
付属金具
  6
CONTINUOUS
 62
     6
100
AcDbLine
 10
1167.998568215137
 20
2615.680048215117
 30
0.0
 11
1167.166760106531
 21
2615.360746998172
 31
0.0
  0
LINE
  5
3AB
330
1F
100
AcDbEntity
  8
付属金具
  6
CONTINUOUS
 62
     6
100
AcDbLine
 10
1167.166760106531
 20
2615.360746998172
 30
0.0
 11
1167.121403493122
 21
2615.068079004724
 31
0.0
  0
LINE
  5
3AC
330
1F
100
AcDbEntity
  8
付属金具
  6
CONTINUOUS
 62
     6
100
AcDbLine
 10
1167.121403493122
 20
2615.068079004724
 30
0.0
 11
1167.136372701112
 21
2614.790171689336
 31
0.0
  0
LINE
  5
3AD
330
1F
100
AcDbEntity
  8
付属金具
  6
CONTINUOUS
 62
     6
100
AcDbLine
 10
1167.136372701112
 20
2614.790171689336
 30
0.0
 11
1167.188423953531
 21
2614.535028345882
 31
0.0
  0
LINE
  5
3AE
330
1F
100
AcDbEntity
  8
付属金具
  6
CONTINUOUS
 62
     6
100
AcDbLine
 10
1167.188423953531
 20
2614.535028345882
 30
0.0
 11
1167.255426056062
 21
2614.308448270404
 31
0.0
  0
LINE
  5
3AF
330
1F
100
AcDbEntity
  8
付属金具
  6
CONTINUOUS
 62
     6
100
AcDbLine
 10
1167.255426056062
 20
2614.308448270404
 30
0.0
 11
1167.366477458319
 21
2614.041448004327
 31
0.0
  0
LINE
  5
3B0
330
1F
100
AcDbEntity
  8
付属金具
  6
CONTINUOUS
 62
     6
100
AcDbLine
 10
1167.366477458319
 20
2614.041448004327
 30
0.0
 11
1167.512814985235
 21
2613.816852989922
 31
0.0
  0
LINE
  5
3B1
330
1F
100
AcDbEntity
  8
付属金具
  6
CONTINUOUS
 62
     6
100
AcDbLine
 10
1167.512814985235
 20
2613.816852989922
 30
0.0
 11
1167.691227348349
 21
2613.635928333767
 31
0.0
  0
LINE
  5
3B2
330
1F
100
AcDbEntity
  8
付属金具
  6
CONTINUOUS
 62
     6
100
AcDbLine
 10
1167.691227348349
 20
2613.635928333767
 30
0.0
 11
1167.895571789348
 21
2613.49946732702
 31
0.0
  0
LINE
  5
3B3
330
1F
100
AcDbEntity
  8
付属金具
  6
CONTINUOUS
 62
     6
100
AcDbLine
 10
1167.895571789348
 20
2613.49946732702
 30
0.0
 11
1168.120441665193
 21
2613.413782190734
 31
0.0
  0
LINE
  5
3B4
330
1F
100
AcDbEntity
  8
付属金具
  6
CONTINUOUS
 62
     6
100
AcDbLine
 10
1168.120441665193
 20
2613.413782190734
 30
0.0
 11
1168.239376999307
 21
2613.387800492429
 31
0.0
  0
LINE
  5
3B5
330
1F
100
AcDbEntity
  8
付属金具
  6
CONTINUOUS
 62
     6
100
AcDbLine
 10
1168.239376999307
 20
2613.387800492429
 30
0.0
 11
1168.358443045742
 21
2613.376172233769
 31
0.0
  0
LINE
  5
3B6
330
1F
100
AcDbEntity
  8
付属金具
  6
CONTINUOUS
 62
     6
100
AcDbLine
 10
1168.358443045742
 20
2613.376172233769
 30
0.0
 11
1168.481266755808
 21
2613.377400643769
 31
0.0
  0
LINE
  5
3B7
330
1F
100
AcDbEntity
  8
付属金具
  6
CONTINUOUS
 62
     6
100
AcDbLine
 10
1168.481266755808
 20
2613.377400643769
 30
0.0
 11
1168.602656575854
 21
2613.389621846123
 31
0.0
  0
LINE
  5
3B8
330
1F
100
AcDbEntity
  8
付属金具
  6
CONTINUOUS
 62
     6
100
AcDbLine
 10
1168.602656575854
 20
2613.389621846123
 30
0.0
 11
1168.852014893296
 21
2613.456743606547
 31
0.0
  0
LINE
  5
3B9
330
1F
100
AcDbEntity
  8
付属金具
  6
CONTINUOUS
 62
     6
100
AcDbLine
 10
1168.852014893296
 20
2613.456743606547
 30
0.0
 11
1168.97154776894
 21
2613.511153188095
 31
0.0
  0
LINE
  5
3BA
330
1F
100
AcDbEntity
  8
付属金具
  6
CONTINUOUS
 62
     6
100
AcDbLine
 10
1168.97154776894
 20
2613.511153188095
 30
0.0
 11
1169.078816595547
 21
2613.575291579756
 31
0.0
  0
LINE
  5
3BB
330
1F
100
AcDbEntity
  8
付属金具
  6
CONTINUOUS
 62
     6
100
AcDbLine
 10
1169.078816595547
 20
2613.575291579756
 30
0.0
 11
1169.176239262823
 21
2613.649949349705
 31
0.0
  0
LINE
  5
3BC
330
1F
100
AcDbEntity
  8
付属金具
  6
CONTINUOUS
 62
     6
100
AcDbLine
 10
1169.176239262823
 20
2613.649949349705
 30
0.0
 11
1169.263905699208
 21
2613.735161018238
 31
0.0
  0
LINE
  5
3BD
330
1F
100
AcDbEntity
  8
付属金具
  6
CONTINUOUS
 62
     6
100
AcDbLine
 10
1169.263905699208
 20
2613.735161018238
 30
0.0
 11
1169.342762675019
 21
2613.828538561998
 31
0.0
  0
LINE
  5
3BE
330
1F
100
AcDbEntity
  8
付属金具
  6
CONTINUOUS
 62
     6
100
AcDbLine
 10
1169.342762675019
 20
2613.828538561998
 30
0.0
 11
1169.407796304127
 21
2613.928024056851
 31
0.0
  0
LINE
  5
3BF
330
1F
100
AcDbEntity
  8
付属金具
  6
CONTINUOUS
 62
     6
100
AcDbLine
 10
1169.407796304127
 20
2613.928024056851
 30
0.0
 11
1169.463892698528
 21
2614.035493105463
 31
0.0
  0
LINE
  5
3C0
330
1F
100
AcDbEntity
  8
付属金具
  6
CONTINUOUS
 62
     6
100
AcDbLine
 10
1169.463892698528
 20
2614.035493105463
 30
0.0
 11
1169.509714385656
 21
2614.147676546641
 31
0.0
  0
LINE
  5
3C1
330
1F
100
AcDbEntity
  8
付属金具
  6
CONTINUOUS
 62
     6
100
AcDbLine
 10
1169.509714385656
 20
2614.147676546641
 30
0.0
 11
1169.569224277324
 21
2614.388444042911
 31
0.0
  0
LINE
  5
3C2
330
1F
100
AcDbEntity
  8
付属金具
  6
CONTINUOUS
 62
     6
100
AcDbLine
 10
1169.569224277324
 20
2614.388444042911
 30
0.0
 11
1169.582563817469
 21
2614.637201603222
 31
0.0
  0
LINE
  5
3C3
330
1F
100
AcDbEntity
  8
付属金具
  6
CONTINUOUS
 62
     6
100
AcDbLine
 10
1169.582563817469
 20
2614.637201603222
 30
0.0
 11
1169.573469391811
 21
2614.765565435543
 31
0.0
  0
LINE
  5
3C4
330
1F
100
AcDbEntity
  8
付属金具
  6
CONTINUOUS
 62
     6
100
AcDbLine
 10
1169.573469391811
 20
2614.765565435543
 30
0.0
 11
1169.5533884952
 21
2614.89246771037
 31
0.0
  0
LINE
  5
3C5
330
1F
100
AcDbEntity
  8
付属金具
  6
CONTINUOUS
 62
     6
100
AcDbLine
 10
1169.5533884952
 20
2614.89246771037
 30
0.0
 11
1169.518913317248
 21
2615.019618293435
 31
0.0
  0
LINE
  5
3C6
330
1F
100
AcDbEntity
  8
付属金具
  6
CONTINUOUS
 62
     6
100
AcDbLine
 10
1169.518913317248
 20
2615.019618293435
 30
0.0
 11
1169.474448963749
 21
2615.143067664842
 31
0.0
  0
LINE
  5
3C7
330
1F
100
AcDbEntity
  8
付属金具
  6
CONTINUOUS
 62
     6
100
AcDbLine
 10
1169.474448963749
 20
2615.143067664842
 30
0.0
 11
1169.36857494321
 21
2615.388964620084
 31
0.0
  0
LINE
  5
3C8
330
1F
100
AcDbEntity
  8
付属金具
  6
CONTINUOUS
 62
     6
100
AcDbLine
 10
1169.36857494321
 20
2615.388964620084
 30
0.0
 11
1169.254178243286
 21
2615.59734731502
 31
0.0
  0
LINE
  5
3C9
330
1F
100
AcDbEntity
  8
付属金具
  6
CONTINUOUS
 62
     6
100
AcDbLine
 10
1169.254178243286
 20
2615.59734731502
 30
0.0
 11
1169.188941022916
 21
2615.692616736462
 31
0.0
  0
LINE
  5
3CA
330
1F
100
AcDbEntity
  8
付属金具
  6
CONTINUOUS
 62
     6
100
AcDbLine
 10
1169.188941022916
 20
2615.692616736462
 30
0.0
 11
1169.111194321961
 21
2615.783213192637
 31
0.0
  0
LINE
  5
3CB
330
1F
100
AcDbEntity
  8
付属金具
  6
CONTINUOUS
 62
     6
100
AcDbLine
 10
1169.111194321961
 20
2615.783213192637
 30
0.0
 11
1169.02003682915
 21
2615.871417481714
 31
0.0
  0
LINE
  5
3CC
330
1F
100
AcDbEntity
  8
付属金具
  6
CONTINUOUS
 62
     6
100
AcDbLine
 10
1169.02003682915
 20
2615.871417481714
 30
0.0
 11
1168.912873674582
 21
2615.95636250089
 31
0.0
  0
LINE
  5
3CD
330
1F
100
AcDbEntity
  8
付属金具
  6
CONTINUOUS
 62
     6
100
AcDbLine
 10
1168.912873674582
 20
2615.95636250089
 30
0.0
 11
1168.500641698311
 21
2615.798121471108
 31
0.0
  0
LINE
  5
3CE
330
1F
100
AcDbEntity
  8
付属金具
  6
CONTINUOUS
 62
     6
100
AcDbLine
 10
1168.500641698311
 20
2615.798121471108
 30
0.0
 11
1168.562171272194
 21
2615.750108065194
 31
0.0
  0
LINE
  5
3CF
330
1F
100
AcDbEntity
  8
付属金具
  6
CONTINUOUS
 62
     6
100
AcDbLine
 10
1168.562171272194
 20
2615.750108065194
 30
0.0
 11
1168.709745097119
 21
2615.611923281437
 31
0.0
  0
LINE
  5
3D0
330
1F
100
AcDbEntity
  8
付属金具
  6
CONTINUOUS
 62
     6
100
AcDbLine
 10
1168.709745097119
 20
2615.611923281437
 30
0.0
 11
1168.798887076852
 21
2615.514286826218
 31
0.0
  0
LINE
  5
3D1
330
1F
100
AcDbEntity
  8
付属金具
  6
CONTINUOUS
 62
     6
100
AcDbLine
 10
1168.798887076852
 20
2615.514286826218
 30
0.0
 11
1168.88558681673
 21
2615.392751135909
 31
0.0
  0
LINE
  5
3D2
330
1F
100
AcDbEntity
  8
付属金具
  6
CONTINUOUS
 62
     6
100
AcDbLine
 10
1168.88558681673
 20
2615.392751135909
 30
0.0
 11
1168.966159339004
 21
2615.257453489538
 31
0.0
  0
LINE
  5
3D3
330
1F
100
AcDbEntity
  8
付属金具
  6
CONTINUOUS
 62
     6
100
AcDbLine
 10
1168.966159339004
 20
2615.257453489538
 30
0.0
 11
1169.034132510067
 21
2615.103011842337
 31
0.0
  0
LINE
  5
3D4
330
1F
100
AcDbEntity
  8
付属金具
  6
CONTINUOUS
 62
     6
100
AcDbLine
 10
1169.034132510067
 20
2615.103011842337
 30
0.0
 11
1169.076641056085
 21
2614.947329049297
 31
0.0
  0
LINE
  5
3D5
330
1F
100
AcDbEntity
  8
付属金具
  6
CONTINUOUS
 62
     6
100
AcDbLine
 10
1169.076641056085
 20
2614.947329049297
 30
0.0
 11
1169.091385251287
 21
2614.789642704532
 31
0.0
  0
LINE
  5
3D6
330
1F
100
AcDbEntity
  8
付属金具
  6
CONTINUOUS
 62
     6
100
AcDbLine
 10
1169.091385251287
 20
2614.789642704532
 30
0.0
 11
1169.078700838479
 21
2614.635730767509
 31
0.0
  0
LINE
  5
3D7
330
1F
100
AcDbEntity
  8
付属金具
  6
CONTINUOUS
 62
     6
100
AcDbLine
 10
1169.078700838479
 20
2614.635730767509
 30
0.0
 11
1169.036384570844
 21
2614.484747491013
 31
0.0
  0
LINE
  5
3D8
330
1F
100
AcDbEntity
  8
付属金具
  6
CONTINUOUS
 62
     6
100
AcDbLine
 10
1169.036384570844
 20
2614.484747491013
 30
0.0
 11
1168.970389369974
 21
2614.350516899563
 31
0.0
  0
LINE
  5
3D9
330
1F
100
AcDbEntity
  8
付属金具
  6
CONTINUOUS
 62
     6
100
AcDbLine
 10
1168.970389369974
 20
2614.350516899563
 30
0.0
 11
1168.879187160186
 21
2614.229571991003
 31
0.0
  0
LINE
  5
3DA
330
1F
100
AcDbEntity
  8
付属金具
  6
CONTINUOUS
 62
     6
100
AcDbLine
 10
1168.879187160186
 20
2614.229571991003
 30
0.0
 11
1168.762573030306
 21
2614.130230342463
 31
0.0
  0
LINE
  5
3DB
330
1F
100
AcDbEntity
  8
付属金具
  6
CONTINUOUS
 62
     6
100
AcDbLine
 10
1168.762573030306
 20
2614.130230342463
 30
0.0
 11
1168.622840411791
 21
2614.053763542222
 31
0.0
  0
LINE
  5
3DC
330
1F
100
AcDbEntity
  8
付属金具
  6
CONTINUOUS
 62
     6
100
AcDbLine
 10
1168.622840411791
 20
2614.053763542222
 30
0.0
 11
1168.479072280837
 21
2614.010119338527
 31
0.0
  0
LINE
  5
3DD
330
1F
100
AcDbEntity
  8
付属金具
  6
CONTINUOUS
 62
     6
100
AcDbLine
 10
1168.479072280837
 20
2614.010119338527
 30
0.0
 11
1168.333707060713
 21
2613.98567684078
 31
0.0
  0
LINE
  5
3DE
330
1F
100
AcDbEntity
  8
付属金具
  6
CONTINUOUS
 62
     6
100
AcDbLine
 10
1168.333707060713
 20
2613.98567684078
 30
0.0
 11
1168.190604104248
 21
2613.985322440588
 31
0.0
  0
LINE
  5
3DF
330
1F
100
AcDbEntity
  8
付属金具
  6
CONTINUOUS
 62
     6
100
AcDbLine
 10
1168.190604104248
 20
2613.985322440588
 30
0.0
 11
1168.052256855649
 21
2614.009493084652
 31
0.0
  0
LINE
  5
3E0
330
1F
100
AcDbEntity
  8
付属金具
  6
CONTINUOUS
 62
     6
100
AcDbLine
 10
1168.052256855649
 20
2614.009493084652
 30
0.0
 11
1167.926809605442
 21
2614.067480050779
 31
0.0
  0
LINE
  5
3E1
330
1F
100
AcDbEntity
  8
付属金具
  6
CONTINUOUS
 62
     6
100
AcDbLine
 10
1167.926809605442
 20
2614.067480050779
 30
0.0
 11
1167.814730362734
 21
2614.150537960524
 31
0.0
  0
LINE
  5
3E2
330
1F
100
AcDbEntity
  8
付属金具
  6
CONTINUOUS
 62
     6
100
AcDbLine
 10
1167.814730362734
 20
2614.150537960524
 30
0.0
 11
1167.720497302019
 21
2614.269052905473
 31
0.0
  0
LINE
  5
3E3
330
1F
100
AcDbEntity
  8
付属金具
  6
CONTINUOUS
 62
     6
100
AcDbLine
 10
1167.720497302019
 20
2614.269052905473
 30
0.0
 11
1167.647562583775
 21
2614.421714668432
 31
0.0
  0
LINE
  5
3E4
330
1F
100
AcDbEntity
  8
付属金具
  6
CONTINUOUS
 62
     6
100
AcDbLine
 10
1167.647562583775
 20
2614.421714668432
 30
0.0
 11
1167.570360527714
 21
2614.69016526996
 31
0.0
  0
LINE
  5
3E5
330
1F
100
AcDbEntity
  8
付属金具
  6
CONTINUOUS
 62
     6
100
AcDbLine
 10
1167.570360527714
 20
2614.69016526996
 30
0.0
 11
1167.572406394702
 21
2614.774130511446
 31
0.0
  0
ARC
  5
3E6
330
1F
100
AcDbEntity
  8
付属金具
  6
CONTINUOUS
 62
     6
100
AcDbCircle
 10
1185.835000000709
 20
1574.891304348086
 30
0.0
 40
100.0
100
AcDbArc
 50
83.99726479958528
 51
95.78779095102057
  0
LINE
  5
3E7
330
1F
100
AcDbEntity
  8
付属金具
  6
CONTINUOUS
 62
     6
100
AcDbLine
 10
1177.614828861206
 20
1696.815716896646
 30
0.0
 11
1181.250000000583
 21
1688.067551638451
 31
0.0
  0
ARC
  5
3E8
330
1F
100
AcDbEntity
  8
付属金具
  6
CONTINUOUS
 62
     6
100
AcDbCircle
 10
1179.000000000572
 20
1697.39130434845
 30
0.0
 40
1.5
100
AcDbArc
 50
89.99999999997263
 51
202.5646074934729
  0
LINE
  5
3E9
330
1F
100
AcDbEntity
  8
付属金具
  6
CONTINUOUS
 62
     6
100
AcDbLine
 10
1194.385171139937
 20
1696.815716896657
 30
0.0
 11
1190.750000000575
 21
1688.067551638458
 31
0.0
  0
ARC
  5
3EA
330
1F
100
AcDbEntity
  8
付属金具
  6
CONTINUOUS
 62
     6
100
AcDbCircle
 10
1193.000000000572
 20
1697.391304348457
 30
0.0
 40
1.5
100
AcDbArc
 50
337.4353925066304
 51
90.00000000011136
  0
LINE
  5
3EB
330
1F
100
AcDbEntity
  8
付属金具
  6
CONTINUOUS
 62
     6
100
AcDbLine
 10
1179.000000000572
 20
1698.89130434845
 30
0.0
 11
1193.000000000572
 21
1698.891304348457
 31
0.0
  0
ARC
  5
3EC
330
1F
100
AcDbEntity
  8
付属金具
  6
CONTINUOUS
 62
     6
100
AcDbCircle
 10
1182.750000000579
 20
1685.39130434845
 30
0.0
 40
1.5
100
AcDbArc
 50
180.0000000000381
 51
270.0000000001
  0
ARC
  5
3ED
330
1F
100
AcDbEntity
  8
付属金具
  6
CONTINUOUS
 62
     6
100
AcDbCircle
 10
1189.250000000579
 20
1685.391304348457
 30
0.0
 40
1.5
100
AcDbArc
 50
269.9999999999722
 51
0.0000000000343202
  0
LINE
  5
3EE
330
1F
100
AcDbEntity
  8
付属金具
  6
CONTINUOUS
 62
     6
100
AcDbLine
 10
1181.250000000579
 20
1685.39130434845
 30
0.0
 11
1181.250000000575
 21
1688.067551638458
 31
0.0
  0
LINE
  5
3EF
330
1F
100
AcDbEntity
  8
付属金具
  6
CONTINUOUS
 62
     6
100
AcDbLine
 10
1190.750000000579
 20
1685.391304348457
 30
0.0
 11
1190.750000000579
 21
1688.067551638465
 31
0.0
  0
LINE
  5
3F0
330
1F
100
AcDbEntity
  8
付属金具
  6
CONTINUOUS
 62
     6
100
AcDbLine
 10
1189.250000000553
 20
1683.891304348454
 30
0.0
 11
1182.750000000612
 21
1683.891304348454
 31
0.0
  0
LINE
  5
3F1
330
1F
100
AcDbEntity
  8
付属金具
  6
CONTINUOUS
 62
     6
100
AcDbLine
 10
1183.500000000593
 20
1674.77188559973
 30
0.0
 11
1183.500000000586
 21
1683.891304348454
 31
0.0
  0
ARC
  5
3F2
330
1F
100
AcDbEntity
  8
付属金具
  6
CONTINUOUS
 62
     6
100
AcDbCircle
 10
1176.002981663857
 20
1671.891304347973
 30
0.0
 40
2.502981663321009
100
AcDbArc
 50
95.78779095101787
 51
192.4803605327015
  0
ARC
  5
3F3
330
1F
100
AcDbEntity
  8
付属金具
  6
CONTINUOUS
 62
     6
100
AcDbCircle
 10
1196.034792609397
 20
1671.891304348046
 30
0.0
 40
2.465207391219374
100
AcDbArc
 50
12.67380037052594
 51
83.99726479958545
  0
LINE
  5
3F4
330
1F
100
AcDbEntity
  8
付属金具
  6
CONTINUOUS
 62
     6
100
AcDbLine
 10
1188.50000000059
 20
1674.855786915649
 30
0.0
 11
1188.500000000586
 21
1683.891304348454
 31
0.0
  0
LINE
  5
3F5
330
1F
100
AcDbEntity
  8
付属金具
  6
CONTINUOUS
 62
     2
100
AcDbLine
 10
1141.787773423576
 20
1676.680191585164
 30
0.0
 11
1141.944821158737
 21
1672.182932863578
 31
0.0
  0
ARC
  5
3F6
330
1F
100
AcDbEntity
  8
付属金具
  6
CONTINUOUS
 62
     6
100
AcDbCircle
 10
1072.460564348907
 20
1745.703153681397
 30
0.0
 40
21.1632472224
100
AcDbArc
 50
51.57827500000038
 51
79.46529600000001
  0
POLYLINE
  5
3F7
330
1F
100
AcDbEntity
  8
付属金具
  6
CONTINUOUS
 62
     6
100
AcDb2dPolyline
 66
     1
 10
0.0
 20
0.0
 30
0.0
 70
   128
  0
VERTEX
  5
3F8
330
3F7
100
AcDbEntity
  8
付属金具
  6
CONTINUOUS
 62
     6
100
AcDbVertex
100
AcDb2dVertex
 10
1076.329863993786
 20
1766.509670993368
 30
0.0
  0
VERTEX
  5
3F9
330
3F7
100
AcDbEntity
  8
付属金具
  6
CONTINUOUS
 62
     6
100
AcDbVertex
100
AcDb2dVertex
 10
1071.007732148602
 20
1767.257050867813
 30
0.0
  0
VERTEX
  5
3FA
330
3F7
100
AcDbEntity
  8
付属金具
  6
CONTINUOUS
 62
     6
100
AcDbVertex
100
AcDb2dVertex
 10
1061.809584653442
 20
1768.473668992526
 30
0.0
  0
VERTEX
  5
3FB
330
3F7
100
AcDbEntity
  8
付属金具
  6
CONTINUOUS
 62
     6
100
AcDbVertex
100
AcDb2dVertex
 10
1061.777226906823
 20
1768.479892416196
 30
0.0
  0
SEQEND
  5
3FC
330
3F7
100
AcDbEntity
  8
付属金具
  6
CONTINUOUS
 62
     6
  0
ARC
  5
3FD
330
1F
100
AcDbEntity
  8
付属金具
  6
CONTINUOUS
 62
     6
100
AcDbCircle
 10
1054.244929214097
 20
1780.21891405251
 30
0.0
 40
0.4822460808
100
AcDbArc
 50
92.02718200000541
 51
183.6100750000146
  0
ARC
  5
3FE
330
1F
100
AcDbEntity
  8
付属金具
  6
CONTINUOUS
 62
     6
100
AcDbCircle
 10
1075.443423442212
 20
1786.432097298481
 30
0.0
 40
22.5620670944
100
AcDbArc
 50
196.0806189999998
 51
232.7195640000002
  0
LINE
  5
3FF
330
1F
100
AcDbEntity
  8
付属金具
  6
CONTINUOUS
 62
     6
100
AcDbLine
 10
1062.499627823235
 20
1766.644348338339
 30
0.0
 11
1061.736177507045
 21
1766.892409740451
 31
0.0
  0
LINE
  5
400
330
1F
100
AcDbEntity
  8
付属金具
  6
CONTINUOUS
 62
     6
100
AcDbLine
 10
1061.736177507045
 20
1766.892409740451
 30
0.0
 11
1062.227450483009
 21
1768.404430234887
 31
0.0
  0
LINE
  5
401
330
1F
100
AcDbEntity
  8
付属金具
  6
CONTINUOUS
 62
     6
100
AcDbLine
 10
1061.936385892823
 20
1764.910984276693
 30
0.0
 11
1062.499627823235
 21
1766.644348338339
 31
0.0
  0
LINE
  5
402
330
1F
100
AcDbEntity
  8
付属金具
  6
CONTINUOUS
 62
     6
100
AcDbLine
 10
1083.493987400534
 20
1759.822890472556
 30
0.0
 11
1082.930779660451
 21
1758.089467364166
 31
0.0
  0
LINE
  5
403
330
1F
100
AcDbEntity
  8
付属金具
  6
CONTINUOUS
 62
     6
100
AcDbLine
 10
1083.493987400534
 20
1759.822890472556
 30
0.0
 11
1084.257433565496
 21
1759.574832941527
 31
0.0
  0
LINE
  5
404
330
1F
100
AcDbEntity
  8
付属金具
  6
CONTINUOUS
 62
     6
100
AcDbLine
 10
1085.233651470926
 20
1762.579287574083
 30
0.0
 11
1084.257433565496
 21
1759.574832941527
 31
0.0
  0
LINE
  5
405
330
1F
100
AcDbEntity
  8
付属金具
  6
CONTINUOUS
 62
     6
100
AcDbLine
 10
1061.6678850156
 20
1764.084563445973
 30
0.0
 11
1061.936385892823
 21
1764.910984276693
 31
0.0
  0
LINE
  5
406
330
1F
100
AcDbEntity
  8
付属金具
  6
CONTINUOUS
 62
     6
100
AcDbLine
 10
1082.325207741017
 20
1757.037529712165
 30
0.0
 11
1061.807993158845
 21
1763.704004022338
 31
0.0
  0
LINE
  5
407
330
1F
100
AcDbEntity
  8
付属金具
  6
CONTINUOUS
 62
     6
100
AcDbLine
 10
1061.6678850156
 20
1764.084563445973
 30
0.0
 11
1061.614155998044
 21
1763.919254176362
 31
0.0
  0
LINE
  5
408
330
1F
100
AcDbEntity
  8
付属金具
  6
CONTINUOUS
 62
     6
100
AcDbLine
 10
1061.807993158845
 20
1763.704004022338
 30
0.0
 11
1061.614155998044
 21
1763.919254176362
 31
0.0
  0
LINE
  5
409
330
1F
100
AcDbEntity
  8
付属金具
  6
CONTINUOUS
 62
     6
100
AcDbLine
 10
1082.662246834061
 20
1757.26304140171
 30
0.0
 11
1082.608549905745
 21
1757.097733252679
 31
0.0
  0
LINE
  5
40A
330
1F
100
AcDbEntity
  8
付属金具
  6
CONTINUOUS
 62
     6
100
AcDbLine
 10
1082.608549905745
 20
1757.097733252679
 30
0.0
 11
1082.325207741017
 21
1757.037529712165
 31
0.0
  0
LINE
  5
40B
330
1F
100
AcDbEntity
  8
付属金具
  6
CONTINUOUS
 62
     6
100
AcDbLine
 10
1082.930779660451
 20
1758.089467364166
 30
0.0
 11
1082.662246834061
 21
1757.26304140171
 31
0.0
  0
LINE
  5
40C
330
1F
100
AcDbEntity
  8
付属金具
  6
CONTINUOUS
 62
     6
100
AcDbLine
 10
1080.893798541609
 20
1757.502662001554
 30
0.0
 11
1080.8317667167
 21
1757.311753666685
 31
0.0
  0
ARC
  5
40D
330
1F
100
AcDbEntity
  8
付属金具
  6
CONTINUOUS
 62
     6
100
AcDbCircle
 10
1080.640922700385
 20
1757.373783721601
 30
0.0
 40
0.2006759864
100
AcDbArc
 50
252.000149999999
 51
341.9997630000425
  0
LINE
  5
40E
330
1F
100
AcDbEntity
  8
付属金具
  6
CONTINUOUS
 62
     6
100
AcDbLine
 10
1063.306254734519
 20
1762.795148004328
 30
0.0
 11
1080.578892785542
 21
1757.182935694131
 31
0.0
  0
LINE
  5
40F
330
1F
100
AcDbEntity
  8
付属金具
  6
CONTINUOUS
 62
     6
100
AcDbLine
 10
1063.177404532652
 20
1763.04802482606
 30
0.0
 11
1063.239438458649
 21
1763.238872993603
 31
0.0
  0
ARC
  5
410
330
1F
100
AcDbEntity
  8
付属金具
  6
CONTINUOUS
 62
     6
100
AcDbCircle
 10
1063.368252560122
 20
1762.985994911217
 30
0.0
 40
0.2006759864
100
AcDbArc
 50
161.9997599999671
 51
251.9997609999571
  0
LINE
  5
411
330
1F
100
AcDbEntity
  8
付属金具
  6
CONTINUOUS
 62
     6
100
AcDbLine
 10
1082.930779660451
 20
1758.089467364166
 30
0.0
 11
1061.936385892823
 21
1764.910984276693
 31
0.0
  0
LINE
  5
412
330
1F
100
AcDbEntity
  8
付属金具
  6
CONTINUOUS
 62
     6
100
AcDbLine
 10
1162.0261785987
 20
1784.8161752584
 30
0.0
 11
1054.246052723141
 21
1780.7008463063
 31
0.0
  0
LINE
  5
413
330
1F
100
AcDbEntity
  8
付属金具
  6
CONTINUOUS
 62
     6
100
AcDbLine
 10
1085.612356209
 20
1762.2836664559
 30
0.0
 11
1136.069706613869
 21
1757.208096792294
 31
0.0
  0
ARC
  5
414
330
1F
100
AcDbEntity
  8
付属金具
  6
CONTINUOUS
 62
     6
100
AcDbCircle
 10
1135.423479104678
 20
1751.729893218906
 30
0.0
 40
5.516187486400002
100
AcDbArc
 50
1.7087659999982
 51
85.23129400000019
  0
LINE
  5
415
330
1F
100
AcDbEntity
  8
付属金具
  6
CONTINUOUS
 62
     6
100
AcDbLine
 10
1162.026178598692
 20
1784.816175258432
 30
0.0
 11
1183.608246335546
 21
1785.569837671026
 31
0.0
  0
ARC
  5
416
330
1F
100
AcDbEntity
  8
付属金具
  6
CONTINUOUS
 62
     6
100
AcDbCircle
 10
1183.624823600043
 20
1785.087651632107
 30
0.0
 40
0.4824387336
100
AcDbArc
 50
359.7118640000007
 51
91.96853800000575
  0
POLYLINE
  5
417
330
1F
100
AcDbEntity
  8
付属金具
  6
CONTINUOUS
 62
     6
100
AcDb2dPolyline
 66
     1
 10
0.0
 20
0.0
 30
0.0
 70
   128
  0
VERTEX
  5
418
330
417
100
AcDbEntity
  8
付属金具
  6
CONTINUOUS
 62
     6
100
AcDbVertex
100
AcDb2dVertex
 10
1140.753830895924
 20
1754.530543711877
 30
0.0
  0
VERTEX
  5
419
330
417
100
AcDbEntity
  8
付属金具
  6
CONTINUOUS
 62
     6
100
AcDbVertex
100
AcDb2dVertex
 10
1140.79016851657
 20
1754.574463063031
 30
0.0
  0
VERTEX
  5
41A
330
417
100
AcDbEntity
  8
付属金具
  6
CONTINUOUS
 62
     6
100
AcDbVertex
100
AcDb2dVertex
 10
1145.22255697283
 20
1760.116920407807
 30
0.0
  0
VERTEX
  5
41B
330
417
100
AcDbEntity
  8
付属金具
  6
CONTINUOUS
 62
     6
100
AcDbVertex
100
AcDb2dVertex
 10
1149.762065504192
 20
1766.40080997937
 30
0.0
  0
VERTEX
  5
41C
330
417
100
AcDbEntity
  8
付属金具
  6
CONTINUOUS
 62
     6
100
AcDbVertex
100
AcDb2dVertex
 10
1155.529079519913
 20
1775.327248250205
 30
0.0
  0
VERTEX
  5
41D
330
417
100
AcDbEntity
  8
付属金具
  6
CONTINUOUS
 62
     6
100
AcDbVertex
100
AcDb2dVertex
 10
1157.829988586424
 20
1779.081697955903
 30
0.0
  0
VERTEX
  5
41E
330
417
100
AcDbEntity
  8
付属金具
  6
CONTINUOUS
 62
     6
100
AcDbVertex
100
AcDb2dVertex
 10
1159.85941505243
 20
1782.170670186183
 30
0.0
  0
VERTEX
  5
41F
330
417
100
AcDbEntity
  8
付属金具
  6
CONTINUOUS
 62
     6
100
AcDbVertex
100
AcDb2dVertex
 10
1160.76668976258
 20
1783.354480343701
 30
0.0
  0
VERTEX
  5
420
330
417
100
AcDbEntity
  8
付属金具
  6
CONTINUOUS
 62
     6
100
AcDbVertex
100
AcDb2dVertex
 10
1161.769996204395
 20
1784.204661560184
 30
0.0
  0
SEQEND
  5
421
330
417
100
AcDbEntity
  8
付属金具
  6
CONTINUOUS
 62
     6
  0
LINE
  5
422
330
1F
100
AcDbEntity
  8
付属金具
  6
CONTINUOUS
 62
     6
100
AcDbLine
 10
1142.339846557614
 20
1705.515656007781
 30
0.0
 11
1140.936987808511
 21
1751.902083894041
 31
0.0
  0
LINE
  5
423
330
1F
100
AcDbEntity
  8
付属金具
  6
CONTINUOUS
 62
     6
100
AcDbLine
 10
1142.983815722629
 20
1687.53101483806
 30
0.0
 11
1142.36080296471
 21
1705.371765972319
 31
0.0
  0
LINE
  5
424
330
1F
100
AcDbEntity
  8
付属金具
  6
CONTINUOUS
 62
     6
100
AcDbLine
 10
1143.356747985418
 20
1691.985307402615
 30
0.0
 11
1143.059093667992
 21
1700.509011827178
 31
0.0
  0
ARC
  5
425
330
1F
100
AcDbEntity
  8
付属金具
  6
CONTINUOUS
 62
     6
100
AcDbCircle
 10
1120.778224120036
 20
1699.862697138014
 30
0.0
 40
22.2902460344
100
AcDbArc
 50
1.661636999999598
 51
14.21368499999953
  0
ARC
  5
426
330
1F
100
AcDbEntity
  8
付属金具
  6
CONTINUOUS
 62
     6
100
AcDbCircle
 10
1120.778224120036
 20
1699.862697138014
 30
0.0
 40
22.290250048
100
AcDbArc
 50
14.21368499999959
 51
14.6909919999999
  0
ARC
  5
427
330
1F
100
AcDbEntity
  8
付属金具
  6
CONTINUOUS
 62
     6
100
AcDbCircle
 10
1120.880476996591
 20
1691.598922983207
 30
0.0
 40
22.4801455048
100
AcDbArc
 50
348.3543660000003
 51
0.9874700000003205
  0
ARC
  5
428
330
1F
100
AcDbEntity
  8
付属金具
  6
CONTINUOUS
 62
     6
100
AcDbCircle
 10
1143.09780943678
 20
1687.067367135658
 30
0.0
 40
0.2001221096
100
AcDbArc
 50
156.7881740000505
 51
181.795458999946
  0
LINE
  5
429
330
1F
100
AcDbEntity
  8
付属金具
  6
CONTINUOUS
 62
     6
100
AcDbLine
 10
1143.210406265804
 20
1676.729871017796
 30
0.0
 11
1142.897948060229
 21
1687.0611227591
 31
0.0
  0
LINE
  5
42A
330
1F
100
AcDbEntity
  8
付属金具
  6
CONTINUOUS
 62
     6
100
AcDbLine
 10
1142.444516572247
 20
1672.20038261193
 30
0.0
 11
1142.521323251262
 21
1670.000927097811
 31
0.0
  0
LINE
  5
42B
330
1F
100
AcDbEntity
  8
付属金具
  6
CONTINUOUS
 62
     6
100
AcDbLine
 10
1184.106512599106
 20
1785.107536826064
 30
0.0
 11
1187.520690257459
 21
1698.891304348498
 31
0.0
  0
LINE
  5
42C
330
1F
100
AcDbEntity
  8
付属金具
  6
CONTINUOUS
 62
     2
100
AcDbLine
 10
1183.500000000591
 20
1678.136814634448
 30
0.0
 11
1141.787773423576
 21
1676.680191585164
 31
0.0
  0
LINE
  5
42D
330
1F
100
AcDbEntity
  8
付属金具
  6
CONTINUOUS
 62
     2
100
AcDbLine
 10
1189.758533120492
 20
1678.355367426884
 30
0.0
 11
1188.500000000588
 21
1678.311418481906
 31
0.0
  0
LINE
  5
42E
330
1F
100
AcDbEntity
  8
付属金具
  6
CONTINUOUS
 62
     2
100
AcDbLine
 10
1173.93406104479
 20
1673.300021735855
 30
0.0
 11
1141.944821158737
 21
1672.182932863578
 31
0.0
  0
LINE
  5
42F
330
1F
100
AcDbEntity
  8
付属金具
  6
CONTINUOUS
 62
     2
100
AcDbLine
 10
1189.758533120493
 20
1678.355367426884
 30
0.0
 11
1189.882362251348
 21
1674.809365071922
 31
0.0
  0
LINE
  5
430
330
1F
100
AcDbEntity
  8
付属金具
  6
CONTINUOUS
 62
     6
100
AcDbLine
 10
2317.614828861206
 20
1696.815716896646
 30
0.0
 11
2321.250000000583
 21
1688.067551638451
 31
0.0
  0
ARC
  5
431
330
1F
100
AcDbEntity
  8
付属金具
  6
CONTINUOUS
 62
     6
100
AcDbCircle
 10
2319.000000000572
 20
1697.39130434845
 30
0.0
 40
1.5
100
AcDbArc
 50
89.99999999997263
 51
202.5646074934729
  0
LINE
  5
432
330
1F
100
AcDbEntity
  8
付属金具
  6
CONTINUOUS
 62
     6
100
AcDbLine
 10
2334.385171139937
 20
1696.815716896657
 30
0.0
 11
2330.750000000575
 21
1688.067551638458
 31
0.0
  0
ARC
  5
433
330
1F
100
AcDbEntity
  8
付属金具
  6
CONTINUOUS
 62
     6
100
AcDbCircle
 10
2333.000000000572
 20
1697.391304348457
 30
0.0
 40
1.5
100
AcDbArc
 50
337.4353925066304
 51
90.00000000011136
  0
LINE
  5
434
330
1F
100
AcDbEntity
  8
付属金具
  6
CONTINUOUS
 62
     6
100
AcDbLine
 10
2319.000000000572
 20
1698.89130434845
 30
0.0
 11
2333.000000000572
 21
1698.891304348457
 31
0.0
  0
ARC
  5
435
330
1F
100
AcDbEntity
  8
付属金具
  6
CONTINUOUS
 62
     6
100
AcDbCircle
 10
2322.750000000579
 20
1685.39130434845
 30
0.0
 40
1.5
100
AcDbArc
 50
180.0000000000381
 51
270.0000000001
  0
ARC
  5
436
330
1F
100
AcDbEntity
  8
付属金具
  6
CONTINUOUS
 62
     6
100
AcDbCircle
 10
2329.250000000579
 20
1685.391304348457
 30
0.0
 40
1.5
100
AcDbArc
 50
269.9999999999722
 51
0.0000000000343202
  0
LINE
  5
437
330
1F
100
AcDbEntity
  8
付属金具
  6
CONTINUOUS
 62
     6
100
AcDbLine
 10
2321.250000000579
 20
1685.39130434845
 30
0.0
 11
2321.250000000575
 21
1688.067551638458
 31
0.0
  0
LINE
  5
438
330
1F
100
AcDbEntity
  8
付属金具
  6
CONTINUOUS
 62
     6
100
AcDbLine
 10
2330.750000000579
 20
1685.391304348457
 30
0.0
 11
2330.750000000579
 21
1688.067551638465
 31
0.0
  0
LINE
  5
439
330
1F
100
AcDbEntity
  8
付属金具
  6
CONTINUOUS
 62
     6
100
AcDbLine
 10
2329.250000000555
 20
1683.891304348454
 30
0.0
 11
2322.750000000613
 21
1683.891304348454
 31
0.0
  0
LINE
  5
43A
330
1F
100
AcDbEntity
  8
付属金具
  6
CONTINUOUS
 62
     6
100
AcDbLine
 10
2323.500000000593
 20
1679.500000000018
 30
0.0
 11
2323.500000000588
 21
1683.891304348454
 31
0.0
  0
LINE
  5
43B
330
1F
100
AcDbEntity
  8
付属金具
  6
CONTINUOUS
 62
     6
100
AcDbLine
 10
2328.50000000059
 20
1679.500000000018
 30
0.0
 11
2328.500000000586
 21
1683.891304348454
 31
0.0
  0
LINE
  5
43C
330
1F
100
AcDbEntity
  8
付属金具
  6
CONTINUOUS
 62
     6
100
AcDbLine
 10
2412.594841671799
 20
1785.5698285663
 30
0.0
 11
2410.916671226199
 21
1785.5698285663
 31
0.0
  0
LINE
  5
43D
330
1F
100
AcDbEntity
  8
付属金具
  6
CONTINUOUS
 62
     6
100
AcDbLine
 10
2410.916671226199
 20
1785.5698285663
 30
0.0
 11
2408.901173754999
 21
1785.5698285663
 31
0.0
  0
LINE
  5
43E
330
1F
100
AcDbEntity
  8
付属金具
  6
CONTINUOUS
 62
     6
100
AcDbLine
 10
2408.901173754999
 20
1785.5698285663
 30
0.0
 11
2406.212069782199
 21
1785.5698285663
 31
0.0
  0
LINE
  5
43F
330
1F
100
AcDbEntity
  8
付属金具
  6
CONTINUOUS
 62
     6
100
AcDbLine
 10
2406.212069782199
 20
1785.5698285663
 30
0.0
 11
2402.942386528599
 21
1785.5698285663
 31
0.0
  0
LINE
  5
440
330
1F
100
AcDbEntity
  8
付属金具
  6
CONTINUOUS
 62
     6
100
AcDbLine
 10
2402.942386528599
 20
1785.5698285663
 30
0.0
 11
2399.221771301399
 21
1785.5698285663
 31
0.0
  0
LINE
  5
441
330
1F
100
AcDbEntity
  8
付属金具
  6
CONTINUOUS
 62
     6
100
AcDbLine
 10
2399.221771301399
 20
1785.5698285663
 30
0.0
 11
2395.189427789399
 21
1785.5698285663
 31
0.0
  0
LINE
  5
442
330
1F
100
AcDbEntity
  8
付属金具
  6
CONTINUOUS
 62
     6
100
AcDbLine
 10
2395.189427789399
 20
1785.5698285663
 30
0.0
 11
2391.000000000599
 21
1785.5698285663
 31
0.0
  0
LINE
  5
443
330
1F
100
AcDbEntity
  8
付属金具
  6
CONTINUOUS
 62
     6
100
AcDbLine
 10
2391.000000000599
 20
1785.5698285663
 30
0.0
 11
2386.811370918199
 21
1785.5698285663
 31
0.0
  0
LINE
  5
444
330
1F
100
AcDbEntity
  8
付属金具
  6
CONTINUOUS
 62
     6
100
AcDbLine
 10
2386.811370918199
 20
1785.5698285663
 30
0.0
 11
2382.780745226999
 21
1785.5698285663
 31
0.0
  0
LINE
  5
445
330
1F
100
AcDbEntity
  8
付属金具
  6
CONTINUOUS
 62
     6
100
AcDbLine
 10
2382.780745226999
 20
1785.5698285663
 30
0.0
 11
2379.061723398999
 21
1785.5698285663
 31
0.0
  0
ARC
  5
446
330
1F
100
AcDbEntity
  8
付属金具
  6
CONTINUOUS
 62
     6
100
AcDbCircle
 10
2412.595150718999
 20
1785.0884614639
 30
0.0
 40
0.4813430208
100
AcDbArc
 50
359.9656079999983
 51
90.03440100003822
  0
LINE
  5
447
330
1F
100
AcDbEntity
  8
付属金具
  6
CONTINUOUS
 62
     6
100
AcDbLine
 10
2413.079395572599
 20
1785.0687386335
 30
0.0
 11
2413.0771921062
 21
1785.0882166343
 31
0.0
  0
LINE
  5
448
330
1F
100
AcDbEntity
  8
付属金具
  6
CONTINUOUS
 62
     6
100
AcDbLine
 10
2413.080864550199
 20
1785.0683091783
 30
0.0
 11
2413.078966117399
 21
1785.0100076247
 31
0.0
  0
ARC
  5
449
330
1F
100
AcDbEntity
  8
付属金具
  6
CONTINUOUS
 62
     6
100
AcDbCircle
 10
2380.280697868599
 20
1156.8076570447
 30
0.0
 40
628.3742410272
100
AcDbArc
 50
91.03271500000001
 51
91.03552199999999
  0
LINE
  5
44A
330
1F
100
AcDbEntity
  8
付属金具
  6
CONTINUOUS
 62
     6
100
AcDbLine
 10
2379.061723398999
 20
1785.5698285663
 30
0.0
 11
2375.793324497399
 21
1785.5698285663
 31
0.0
  0
LINE
  5
44B
330
1F
100
AcDbEntity
  8
付属金具
  6
CONTINUOUS
 62
     6
100
AcDbLine
 10
2375.793324497399
 20
1785.5698285663
 30
0.0
 11
2373.103546239799
 21
1785.5698285663
 31
0.0
  0
LINE
  5
44C
330
1F
100
AcDbEntity
  8
付属金具
  6
CONTINUOUS
 62
     6
100
AcDbLine
 10
2373.103546239799
 20
1785.5698285663
 30
0.0
 11
2371.090376656599
 21
1785.5698285663
 31
0.0
  0
LINE
  5
44D
330
1F
100
AcDbEntity
  8
付属金具
  6
CONTINUOUS
 62
     6
100
AcDbLine
 10
2371.090376656599
 20
1785.5698285663
 30
0.0
 11
2369.838269918999
 21
1785.5698285663
 31
0.0
  0
LINE
  5
44E
330
1F
100
AcDbEntity
  8
付属金具
  6
CONTINUOUS
 62
     6
100
AcDbLine
 10
2369.838269918999
 20
1785.5698285663
 30
0.0
 11
2369.408529753399
 21
1785.5696439407
 31
0.0
  0
ARC
  5
44F
330
1F
100
AcDbEntity
  8
付属金具
  6
CONTINUOUS
 62
     6
100
AcDbCircle
 10
2369.4047930918
 20
1785.0893163607
 30
0.0
 40
0.4803034984
100
AcDbArc
 50
89.82380599999439
 51
169.1774940000228
  0
LINE
  5
450
330
1F
100
AcDbEntity
  8
付属金具
  6
CONTINUOUS
 62
     6
100
AcDbLine
 10
2368.926917821399
 20
1785.0882166343
 30
0.0
 11
2368.924465511799
 21
1785.0687386335
 31
0.0
  0
ARC
  5
451
330
1F
100
AcDbEntity
  8
付属金具
  6
CONTINUOUS
 62
     6
100
AcDbCircle
 10
2369.090311477399
 20
1785.1506200871
 30
0.0
 40
0.1596569944
100
AcDbArc
 50
169.627647000052
 51
188.5674440000288
  0
LINE
  5
452
330
1F
100
AcDbEntity
  8
付属金具
  6
CONTINUOUS
 62
     6
100
AcDbLine
 10
2368.924345103799
 20
1785.0116612279
 30
0.0
 11
2368.922446670999
 21
1785.0683091783
 31
0.0
  0
ARC
  5
453
330
1F
100
AcDbEntity
  8
付属金具
  6
CONTINUOUS
 62
     6
100
AcDbCircle
 10
2334.898741425798
 20
1780.21891405251
 30
0.0
 40
0.4822460808
100
AcDbArc
 50
92.02718200000541
 51
183.6100750000146
  0
ARC
  5
454
330
1F
100
AcDbEntity
  8
付属金具
  6
CONTINUOUS
 62
     6
100
AcDbCircle
 10
2356.097235653913
 20
1786.432097298481
 30
0.0
 40
22.5620670944
100
AcDbArc
 50
196.0806189999998
 51
232.7195640000002
  0
LINE
  5
455
330
1F
100
AcDbEntity
  8
付属金具
  6
CONTINUOUS
 62
     6
100
AcDbLine
 10
2343.993539262035
 20
1766.644348338339
 30
0.0
 11
2343.230088945845
 21
1766.892409740451
 31
0.0
  0
LINE
  5
456
330
1F
100
AcDbEntity
  8
付属金具
  6
CONTINUOUS
 62
     6
100
AcDbLine
 10
2343.230088945845
 20
1766.892409740451
 30
0.0
 11
2343.721361921809
 21
1768.404430234887
 31
0.0
  0
LINE
  5
457
330
1F
100
AcDbEntity
  8
付属金具
  6
CONTINUOUS
 62
     6
100
AcDbLine
 10
2343.430297331623
 20
1764.910984276693
 30
0.0
 11
2343.993539262035
 21
1766.644348338339
 31
0.0
  0
LINE
  5
458
330
1F
100
AcDbEntity
  8
付属金具
  6
CONTINUOUS
 62
     6
100
AcDbLine
 10
2364.987898839334
 20
1759.822890472556
 30
0.0
 11
2364.424691099252
 21
1758.089467364166
 31
0.0
  0
LINE
  5
459
330
1F
100
AcDbEntity
  8
付属金具
  6
CONTINUOUS
 62
     6
100
AcDbLine
 10
2364.987898839334
 20
1759.822890472556
 30
0.0
 11
2365.751345004297
 21
1759.574832941527
 31
0.0
  0
LINE
  5
45A
330
1F
100
AcDbEntity
  8
付属金具
  6
CONTINUOUS
 62
     6
100
AcDbLine
 10
2366.727562909726
 20
1762.579287574083
 30
0.0
 11
2365.751345004297
 21
1759.574832941527
 31
0.0
  0
LINE
  5
45B
330
1F
100
AcDbEntity
  8
付属金具
  6
CONTINUOUS
 62
     6
100
AcDbLine
 10
2343.1617964544
 20
1764.084563445973
 30
0.0
 11
2343.430297331623
 21
1764.910984276693
 31
0.0
  0
LINE
  5
45C
330
1F
100
AcDbEntity
  8
付属金具
  6
CONTINUOUS
 62
     6
100
AcDbLine
 10
2363.819119179817
 20
1757.037529712165
 30
0.0
 11
2343.301904597646
 21
1763.704004022338
 31
0.0
  0
LINE
  5
45D
330
1F
100
AcDbEntity
  8
付属金具
  6
CONTINUOUS
 62
     6
100
AcDbLine
 10
2343.1617964544
 20
1764.084563445973
 30
0.0
 11
2343.108067436844
 21
1763.919254176362
 31
0.0
  0
LINE
  5
45E
330
1F
100
AcDbEntity
  8
付属金具
  6
CONTINUOUS
 62
     6
100
AcDbLine
 10
2343.301904597646
 20
1763.704004022338
 30
0.0
 11
2343.108067436844
 21
1763.919254176362
 31
0.0
  0
LINE
  5
45F
330
1F
100
AcDbEntity
  8
付属金具
  6
CONTINUOUS
 62
     6
100
AcDbLine
 10
2364.156158272861
 20
1757.26304140171
 30
0.0
 11
2364.102461344545
 21
1757.097733252679
 31
0.0
  0
LINE
  5
460
330
1F
100
AcDbEntity
  8
付属金具
  6
CONTINUOUS
 62
     6
100
AcDbLine
 10
2364.102461344545
 20
1757.097733252679
 30
0.0
 11
2363.819119179817
 21
1757.037529712165
 31
0.0
  0
LINE
  5
461
330
1F
100
AcDbEntity
  8
付属金具
  6
CONTINUOUS
 62
     6
100
AcDbLine
 10
2364.424691099252
 20
1758.089467364166
 30
0.0
 11
2364.156158272861
 21
1757.26304140171
 31
0.0
  0
LINE
  5
462
330
1F
100
AcDbEntity
  8
付属金具
  6
CONTINUOUS
 62
     6
100
AcDbLine
 10
2362.387709980409
 20
1757.502662001554
 30
0.0
 11
2362.325678155501
 21
1757.311753666685
 31
0.0
  0
ARC
  5
463
330
1F
100
AcDbEntity
  8
付属金具
  6
CONTINUOUS
 62
     6
100
AcDbCircle
 10
2362.134834139185
 20
1757.373783721601
 30
0.0
 40
0.2006759864
100
AcDbArc
 50
252.000149999999
 51
341.9997630000425
  0
LINE
  5
464
330
1F
100
AcDbEntity
  8
付属金具
  6
CONTINUOUS
 62
     6
100
AcDbLine
 10
2344.800166173319
 20
1762.795148004328
 30
0.0
 11
2362.072804224342
 21
1757.182935694131
 31
0.0
  0
LINE
  5
465
330
1F
100
AcDbEntity
  8
付属金具
  6
CONTINUOUS
 62
     6
100
AcDbLine
 10
2344.671315971452
 20
1763.04802482606
 30
0.0
 11
2344.73334989745
 21
1763.238872993603
 31
0.0
  0
ARC
  5
466
330
1F
100
AcDbEntity
  8
付属金具
  6
CONTINUOUS
 62
     6
100
AcDbCircle
 10
2344.862163998922
 20
1762.985994911217
 30
0.0
 40
0.2006759864
100
AcDbArc
 50
161.9997599999671
 51
251.9997609999571
  0
LINE
  5
467
330
1F
100
AcDbEntity
  8
付属金具
  6
CONTINUOUS
 62
     6
100
AcDbLine
 10
2364.424691099252
 20
1758.089467364166
 30
0.0
 11
2343.430297331623
 21
1764.910984276693
 31
0.0
  0
LINE
  5
468
330
1F
100
AcDbEntity
  8
付属金具
  6
CONTINUOUS
 62
     6
100
AcDbLine
 10
2369.4047930918
 20
1785.5698285663
 30
0.0
 11
2334.8998649348
 21
1780.7008463063
 31
0.0
  0
ARC
  5
469
330
1F
100
AcDbEntity
  8
付属金具
  6
CONTINUOUS
 62
     6
100
AcDbCircle
 10
2342.802358703133
 20
1752.466547271989
 30
0.0
 40
25.97346992771782
100
AcDbArc
 50
358.7377372410678
 51
22.90985252450768
  0
ARC
  5
46A
330
1F
100
AcDbEntity
  8
付属金具
  6
CONTINUOUS
 62
     6
100
AcDbCircle
 10
2353.954475787708
 20
1745.703153681397
 30
0.0
 40
21.1632472224
100
AcDbArc
 50
52.87730075197252
 51
79.46529600000001
  0
ARC
  5
46B
330
1F
100
AcDbEntity
  8
付属金具
  6
CONTINUOUS
 62
     6
100
AcDbCircle
 10
2514.256590574814
 20
3049.791430815891
 30
0.0
 40
1292.781217568201
100
AcDbArc
 50
262.3621273235812
 51
263.0499002980532
  0
LINE
  5
46C
330
1F
100
AcDbEntity
  8
付属金具
  6
CONTINUOUS
 62
     6
100
AcDbLine
 10
2368.431263887736
 20
1679.499999999978
 30
0.0
 11
2368.924529729399
 21
1785.0681285663
 31
0.0
  0
LINE
  5
46D
330
1F
100
AcDbEntity
  8
付属金具
  6
CONTINUOUS
 62
     6
100
AcDbLine
 10
2413.078721287799
 20
1785.0904201007
 30
0.0
 11
2413.572170780888
 21
1679.499999999978
 31
0.0
  0
DIMENSION
  5
46F
330
1F
100
AcDbEntity
  8
寸法
  6
CONTINUOUS
 62
     3
100
AcDbDimension
  2
*D15
 10
1381.00000000061
 20
2719.5
 30
0.0
 11
1345.750000090016
 21
2569.499999999999
 31
0.0
 70
   160
  3
ISO-25
100
AcDbAlignedDimension
 13
1256.000000000559
 23
2419.5
 33
0.0
 14
1261.000000000559
 24
2719.5
 34
0.0
 50
90.0
100
AcDbRotatedDimension
1001
ACAD
1000
DSTYLE
1002
{
1070
   270
1070
     2
1070
     6
1000
EX_NORM
1070
     7
1000
EX_NORM
1070
    41
1040
44.99999618530273
1070
    42
1040
10.49999982118607
1070
    44
1040
15.0
1070
    73
1070
     0
1070
    74
1070
     0
1070
    75
1070
     0
1070
    76
1070
     1
1070
    77
1070
     1
1070
    78
1070
     0
1070
   140
1040
59.99999618530273
1070
   147
1040
0.0
1070
   173
1070
     1
1070
   176
1070
     3
1070
   177
1070
     3
1070
   178
1070
     2
1070
   271
1070
     0
1070
   277
1070
     2
1070
   279
1070
     2
1070
   280
1070
     0
1070
   287
1070
     5
1070
   340
1005
46E
1002
}
  0
DIMENSION
  5
47C
330
1F
100
AcDbEntity
  8
寸法
  6
CONTINUOUS
 62
     3
100
AcDbDimension
  2
*D16
 10
1471.00000000061
 20
2719.5
 30
0.0
 11
1435.750000090016
 21
2534.499999999998
 31
0.0
 70
   160
  3
ISO-25
100
AcDbAlignedDimension
 13
961.0000000005608
 23
2349.5
 33
0.0
 14
1261.000000000559
 24
2719.5
 34
0.0
 50
90.0
100
AcDbRotatedDimension
1001
ACAD
1000
DSTYLE
1002
{
1070
   270
1070
     2
1070
     6
1000
EX_NORM
1070
     7
1000
EX_NORM
1070
    41
1040
44.99999618530273
1070
    42
1040
10.49999982118607
1070
    44
1040
15.0
1070
    73
1070
     0
1070
    74
1070
     0
1070
    75
1070
     0
1070
    76
1070
     1
1070
    77
1070
     1
1070
    78
1070
     0
1070
   140
1040
59.99999618530273
1070
   147
1040
0.0
1070
   173
1070
     1
1070
   176
1070
     3
1070
   177
1070
     3
1070
   178
1070
     2
1070
   271
1070
     0
1070
   277
1070
     2
1070
   279
1070
     2
1070
   280
1070
     0
1070
   287
1070
     5
1070
   340
1005
46E
1002
}
  0
DIMENSION
  5
488
330
1F
100
AcDbEntity
  8
寸法
  6
CONTINUOUS
 62
     3
100
AcDbDimension
  2
*D17
 10
1261.000000000559
 20
2229.499999999949
 30
0.0
 11
961.00000000056
 21
2264.749999910542
 31
0.0
 70
   160
  3
ISO-25
100
AcDbAlignedDimension
 13
661.0000000005607
 23
2424.5
 33
0.0
 14
1261.000000000559
 24
2424.5
 34
0.0
100
AcDbRotatedDimension
1001
ACAD
1000
DSTYLE
1002
{
1070
   270
1070
     2
1070
     6
1000
EX_NORM
1070
     7
1000
EX_NORM
1070
    41
1040
44.99999618530273
1070
    42
1040
10.49999982118607
1070
    44
1040
15.0
1070
    73
1070
     0
1070
    74
1070
     0
1070
    75
1070
     0
1070
    76
1070
     0
1070
    77
1070
     1
1070
    78
1070
     0
1070
   140
1040
59.99999618530273
1070
   147
1040
0.0
1070
   173
1070
     1
1070
   176
1070
     3
1070
   177
1070
     3
1070
   178
1070
     2
1070
   271
1070
     0
1070
   277
1070
     2
1070
   279
1070
     2
1070
   280
1070
     0
1070
   287
1070
     5
1070
   340
1005
46E
1002
}
  0
DIMENSION
  5
495
330
1F
100
AcDbEntity
  8
寸法
  6
CONTINUOUS
 62
     3
100
AcDbDimension
  2
*D18
 10
996.0000000005607
 20
2809.5
 30
0.0
 11
751.0000000005612
 21
2844.749999910593
 31
0.0
 70
   160
  1
35（壁排水）
  3
ISO-25
100
AcDbAlignedDimension
 13
961.0000000005608
 23
2719.5
 33
0.0
 14
996.0000000005607
 24
2769.5
 34
0.0
100
AcDbRotatedDimension
1001
ACAD
1000
DSTYLE
1002
{
1070
   270
1070
     2
1070
     6
1000
EX_NORM
1070
     7
1000
EX_NORM
1070
    41
1040
44.99999618530273
1070
    42
1040
10.49999982118607
1070
    44
1040
15.0
1070
    73
1070
     0
1070
    74
1070
     0
1070
    75
1070
     1
1070
    76
1070
     0
1070
    77
1070
     1
1070
    78
1070
     0
1070
   140
1040
59.99999618530273
1070
   147
1040
0.0
1070
   173
1070
     1
1070
   176
1070
     3
1070
   177
1070
     3
1070
   178
1070
     2
1070
   271
1070
     0
1070
   277
1070
     2
1070
   279
1070
     2
1070
   280
1070
     1
1070
   287
1070
     5
1070
   340
1005
46E
1002
}
  0
DIMENSION
  5
4A3
330
1F
100
AcDbEntity
  8
寸法
  6
CONTINUOUS
 62
     3
100
AcDbDimension
  2
*D19
 10
1381.000000000559
 20
1669.5
 30
0.0
 11
1345.750000089965
 21
1294.499999999998
 31
0.0
 70
   160
  3
ISO-25
100
AcDbAlignedDimension
 13
1244.500000000559
 23
919.5
 33
0.0
 14
961.0000000005608
 24
1669.5
 34
0.0
 50
90.0
100
AcDbRotatedDimension
1001
ACAD
1000
DSTYLE
1002
{
1070
   270
1070
     2
1070
     6
1000
EX_NORM
1070
     7
1000
EX_NORM
1070
    41
1040
44.99999618530273
1070
    42
1040
10.49999982118607
1070
    44
1040
15.0
1070
    73
1070
     0
1070
    74
1070
     0
1070
    75
1070
     1
1070
    76
1070
     0
1070
    77
1070
     1
1070
    78
1070
     0
1070
   140
1040
59.99999618530273
1070
   147
1040
0.0
1070
   173
1070
     1
1070
   176
1070
     3
1070
   177
1070
     3
1070
   178
1070
     2
1070
   271
1070
     0
1070
   277
1070
     2
1070
   279
1070
     2
1070
   280
1070
     0
1070
   287
1070
     5
1070
   340
1005
46E
1002
}
  0
DIMENSION
  5
4AF
330
1F
100
AcDbEntity
  8
寸法
  6
CONTINUOUS
 62
     3
100
AcDbDimension
  2
*D20
 10
1471.000000000559
 20
1704.5
 30
0.0
 11
1435.750000089965
 21
1311.999999999998
 31
0.0
 70
   160
  3
ISO-25
100
AcDbAlignedDimension
 13
1244.500000000559
 23
919.5
 33
0.0
 14
1255.814877125559
 24
1704.5
 34
0.0
 50
90.0
100
AcDbRotatedDimension
1001
ACAD
1000
DSTYLE
1002
{
1070
   270
1070
     2
1070
     6
1000
EX_NORM
1070
     7
1000
EX_NORM
1070
    41
1040
44.99999618530273
1070
    42
1040
10.49999982118607
1070
    44
1040
15.0
1070
    73
1070
     0
1070
    74
1070
     0
1070
    75
1070
     1
1070
    76
1070
     0
1070
    77
1070
     1
1070
    78
1070
     0
1070
   140
1040
59.99999618530273
1070
   147
1040
0.0
1070
   173
1070
     1
1070
   176
1070
     3
1070
   177
1070
     3
1070
   178
1070
     2
1070
   271
1070
     0
1070
   277
1070
     2
1070
   279
1070
     2
1070
   280
1070
     0
1070
   287
1070
     5
1070
   340
1005
46E
1002
}
  0
DIMENSION
  5
4BB
330
1F
100
AcDbEntity
  8
寸法
  6
CONTINUOUS
 62
     3
100
AcDbDimension
  2
*D21
 10
2491.000000000561
 20
709.5
 30
0.0
 11
2701.00000000056
 21
744.749999910593
 31
0.0
 70
   160
  1
85（床給水）
  3
ISO-25
100
AcDbAlignedDimension
 13
2406.000000000561
 23
869.5
 33
0.0
 14
2491.000000000561
 24
919.4999999999991
 34
0.0
100
AcDbRotatedDimension
1001
ACAD
1000
DSTYLE
1002
{
1070
   270
1070
     2
1070
     6
1000
EX_NORM
1070
     7
1000
EX_NORM
1070
    41
1040
44.99999618530273
1070
    42
1040
0.0
1070
    44
1040
0.0
1070
    73
1070
     0
1070
    74
1070
     0
1070
    75
1070
     1
1070
    76
1070
     1
1070
    77
1070
     1
1070
    78
1070
     0
1070
   140
1040
59.99999618530273
1070
   147
1040
0.0
1070
   173
1070
     1
1070
   176
1070
     3
1070
   177
1070
     3
1070
   178
1070
     2
1070
   271
1070
     0
1070
   277
1070
     2
1070
   279
1070
     2
1070
   280
1070
     2
1070
   287
1070
     5
1070
   340
1005
46E
1002
}
  0
DIMENSION
  5
4C8
330
1F
100
AcDbEntity
  8
寸法
  6
CONTINUOUS
 62
     3
100
AcDbDimension
  2
*D22
 10
2491.000000000561
 20
619.5
 30
0.0
 11
2701.00000000056
 21
654.749999910593
 31
0.0
 70
   160
  1
85（床排水）
  3
ISO-25
100
AcDbAlignedDimension
 13
2406.000000000561
 23
869.5
 33
0.0
 14
2491.000000000561
 24
919.4999999999991
 34
0.0
100
AcDbRotatedDimension
1001
ACAD
1000
DSTYLE
1002
{
1070
   270
1070
     2
1070
     6
1000
EX_NORM
1070
     7
1000
EX_NORM
1070
    41
1040
44.99999618530273
1070
    42
1040
10.49999982118607
1070
    44
1040
15.0
1070
    73
1070
     0
1070
    74
1070
     0
1070
    75
1070
     0
1070
    76
1070
     0
1070
    77
1070
     1
1070
    78
1070
     0
1070
   140
1040
59.99999618530273
1070
   147
1040
0.0
1070
   173
1070
     1
1070
   176
1070
     3
1070
   177
1070
     3
1070
   178
1070
     2
1070
   271
1070
     0
1070
   277
1070
     2
1070
   279
1070
     2
1070
   280
1070
     2
1070
   287
1070
     5
1070
   340
1005
46E
1002
}
  0
DIMENSION
  5
4D7
330
1F
100
AcDbEntity
  8
寸法
  6
CONTINUOUS
 62
     3
100
AcDbDimension
  2
*D23
 10
2611.000000000561
 20
1269.5
 30
0.0
 11
2575.750000089968
 21
1106.499999999998
 31
0.0
 70
   160
  1
350（壁給水）
 53
89.99999999999973
  3
ISO-25
100
AcDbAlignedDimension
 13
2491.000000000561
 23
919.5
 33
0.0
 14
2499.000000000561
 24
1269.5
 34
0.0
 50
90.0
100
AcDbRotatedDimension
1001
ACAD
1000
DSTYLE
1002
{
1070
   270
1070
     2
1070
     6
1000
EX_NORM
1070
     7
1000
EX_NORM
1070
    41
1040
44.99999618530273
1070
    42
1040
10.49999982118607
1070
    44
1040
15.0
1070
    73
1070
     0
1070
    74
1070
     0
1070
    75
1070
     1
1070
    76
1070
     0
1070
    77
1070
     1
1070
    78
1070
     0
1070
   140
1040
59.99999618530273
1070
   147
1040
0.0
1070
   173
1070
     1
1070
   176
1070
     3
1070
   177
1070
     3
1070
   178
1070
     2
1070
   271
1070
     0
1070
   277
1070
     2
1070
   279
1070
     2
1070
   280
1070
     0
1070
   287
1070
     5
1070
   340
1005
46E
1002
}
  0
DIMENSION
  5
4E3
330
1F
100
AcDbEntity
  8
寸法
  6
CONTINUOUS
 62
     3
100
AcDbDimension
  2
*D24
 10
2701.000000000561
 20
1389.5
 30
0.0
 11
2665.750000089967
 21
1154.499999999998
 31
0.0
 70
   160
  1
470（壁排水）
  3
ISO-25
100
AcDbAlignedDimension
 13
2491.000000000561
 23
919.5
 33
0.0
 14
2541.000000000561
 24
1389.5
 34
0.0
 50
90.0
100
AcDbRotatedDimension
1001
ACAD
1000
DSTYLE
1002
{
1070
   270
1070
     2
1070
     6
1000
EX_NORM
1070
     7
1000
EX_NORM
1070
    41
1040
44.99999618530273
1070
    42
1040
10.49999982118607
1070
    44
1040
15.0
1070
    73
1070
     0
1070
    74
1070
     0
1070
    75
1070
     1
1070
    76
1070
     0
1070
    77
1070
     1
1070
    78
1070
     0
1070
   140
1040
59.99999618530273
1070
   147
1040
0.0
1070
   173
1070
     1
1070
   176
1070
     3
1070
   177
1070
     3
1070
   178
1070
     2
1070
   271
1070
     0
1070
   277
1070
     2
1070
   279
1070
     2
1070
   280
1070
     0
1070
   287
1070
     5
1070
   340
1005
46E
1002
}
  0
DIMENSION
  5
4EF
330
1F
100
AcDbEntity
  8
寸法
  6
CONTINUOUS
 62
     3
100
AcDbDimension
  2
*D25
 10
2791.000000000561
 20
1449.5
 30
0.0
 11
2755.750000089967
 21
1184.499999999998
 31
0.0
 70
   160
  1
530（壁固定）
  3
ISO-25
100
AcDbAlignedDimension
 13
2491.000000000561
 23
919.5
 33
0.0
 14
2523.500005722561
 24
1449.5
 34
0.0
 50
90.0
100
AcDbRotatedDimension
1001
ACAD
1000
DSTYLE
1002
{
1070
   270
1070
     2
1070
     6
1000
EX_NORM
1070
     7
1000
EX_NORM
1070
    41
1040
44.99999618530273
1070
    42
1040
10.49999982118607
1070
    44
1040
15.0
1070
    73
1070
     0
1070
    74
1070
     0
1070
    75
1070
     0
1070
    76
1070
     0
1070
    77
1070
     1
1070
    78
1070
     0
1070
   140
1040
59.99999618530273
1070
   147
1040
0.0
1070
   173
1070
     1
1070
   176
1070
     3
1070
   177
1070
     3
1070
   178
1070
     2
1070
   271
1070
     0
1070
   277
1070
     2
1070
   279
1070
     2
1070
   280
1070
     0
1070
   287
1070
     5
1070
   340
1005
46E
1002
}
  0
TEXT
  5
4FC
330
1F
100
AcDbEntity
  8
寸法
  6
CONTINUOUS
 62
     2
100
AcDbText
 10
2529.000000000561
 20
804.749999910593
 30
0.0
 40
59.99999618530273
  1
Ｒ１/２
 41
0.8342465643686785
  7
EXCADSTD
 72
     5
 11
2702.99998664912
 21
804.749999910593
 31
0.0
100
AcDbText
  0
LEADER
  5
4FD
330
1F
100
AcDbEntity
  8
寸法
  6
CONTINUOUS
 62
     3
100
AcDbLeader
  3
ISO-25
 76
     3
 10
2416.500000000561
 20
911.5
 30
0.0
 10
2529.000000000561
 20
799.5
 30
0.0
 10
2688.30000000056
 20
799.5
 30
0.0
1001
ACAD
1000
DSTYLE
1002
{
1070
     5
1000
EX_NORM
1070
    41
1040
45.0
1070
   341
1005
4D
1002
}
  0
TEXT
  5
4FE
330
1F
100
AcDbEntity
  8
寸法
  6
CONTINUOUS
 62
     2
100
AcDbText
 10
2150.100000358189
 20
804.749999910593
 30
0.0
 40
59.99999618530273
  1
φ３２
 41
1.070588224822399
  7
EXCADSTD
 72
     5
 11
2306.099988914097
 21
804.749999910593
 31
0.0
100
AcDbText
  0
LEADER
  5
4FF
330
1F
100
AcDbEntity
  8
寸法
  6
CONTINUOUS
 62
     3
100
AcDbLeader
  3
ISO-25
 76
     3
 10
2390.000000000561
 20
880.5
 30
0.0
 10
2306.100000000561
 20
799.5
 30
0.0
 10
2144.250000000561
 20
799.5
 30
0.0
1001
ACAD
1000
DSTYLE
1002
{
1070
     5
1000
EX_NORM
1070
    41
1040
45.0
1070
   341
1005
4D
1002
}
  0
TEXT
  5
500
330
1F
100
AcDbEntity
  8
寸法
  6
CONTINUOUS
 62
     2
100
AcDbText
 10
336.0000014310722
 20
813.7499960958958
 30
0.0
 40
59.99999618530273
  1
ＶＰ･ＶＵ４０･５０
 41
0.8542372745578565
  7
EXCADSTD
 72
     5
 11
767.9999670987968
 21
813.7499960958958
 31
0.0
100
AcDbText
  0
TEXT
  5
501
330
1F
100
AcDbEntity
  8
寸法
  6
CONTINUOUS
 62
     2
100
AcDbText
 10
336.0000014310722
 20
753.749999910593
 30
0.0
 40
59.99999618530273
  1
４０～５０㎜立上げ
 41
0.9773584771306252
  7
EXCADSTD
 72
     5
 11
779.9999670987968
 21
753.749999910593
 31
0.0
100
AcDbText
  0
LEADER
  5
502
330
1F
100
AcDbEntity
  8
寸法
  6
CONTINUOUS
 62
     3
100
AcDbLeader
  3
ISO-25
 76
     3
 10
927.5000000005498
 20
932.0999999999985
 30
0.0
 10
780.0000000005607
 20
748.5
 30
0.0
 10
342.0000000005607
 20
748.5
 30
0.0
1001
ACAD
1000
DSTYLE
1002
{
1070
     5
1000
EX_NORM
1070
    41
1040
45.0
1070
   341
1005
4D
1002
}
  0
DIMENSION
  5
503
330
1F
100
AcDbEntity
  8
寸法
  6
CONTINUOUS
 62
     3
100
AcDbDimension
  2
*D26
 10
1156.000000000561
 20
1248.0
 30
0.0
 11
961.0000000020596
 21
1283.249999910593
 31
0.0
 70
   160
  1
390（壁固定）
  3
ISO-25
100
AcDbAlignedDimension
 13
766.0000000035584
 23
1445.700000000099
 33
0.0
 14
1156.000000000561
 24
1445.700000000099
 34
0.0
100
AcDbRotatedDimension
1001
ACAD
1000
DSTYLE
1002
{
1070
   270
1070
     2
1070
     6
1000
EX_NORM
1070
     7
1000
EX_NORM
1070
    41
1040
44.99999618530273
1070
    42
1040
10.49999982118607
1070
    44
1040
15.0
1070
    73
1070
     0
1070
    74
1070
     0
1070
    75
1070
     0
1070
    76
1070
     0
1070
    77
1070
     1
1070
    78
1070
     0
1070
   140
1040
59.99999618530273
1070
   147
1040
0.0
1070
   173
1070
     1
1070
   176
1070
     3
1070
   177
1070
     3
1070
   178
1070
     2
1070
   271
1070
     0
1070
   277
1070
     2
1070
   279
1070
     2
1070
   280
1070
     0
1070
   287
1070
     5
1070
   340
1005
46E
1002
}
  0
DIMENSION
  5
510
330
1F
100
AcDbEntity
  8
寸法
  6
CONTINUOUS
 62
     3
100
AcDbDimension
  2
*D27
 10
1171.0000000006
 20
709.5
 30
0.0
 11
1388.50000000062
 21
744.749999910593
 31
0.0
 70
   160
  1
210（床給水）
  3
ISO-25
100
AcDbAlignedDimension
 13
961.0000000005599
 23
869.49999999998
 33
0.0
 14
1171.0000000006
 24
901.00000017881
 34
0.0
100
AcDbRotatedDimension
1001
ACAD
1000
DSTYLE
1002
{
1070
   270
1070
     2
1070
     6
1000
EX_NORM
1070
     7
1000
EX_NORM
1070
    41
1040
44.99999618530273
1070
    42
1040
10.49999982118607
1070
    44
1040
15.0
1070
    73
1070
     0
1070
    74
1070
     0
1070
    75
1070
     0
1070
    76
1070
     0
1070
    77
1070
     1
1070
    78
1070
     0
1070
   140
1040
59.99999618530273
1070
   147
1040
0.0
1070
   173
1070
     1
1070
   176
1070
     3
1070
   177
1070
     3
1070
   178
1070
     2
1070
   271
1070
     0
1070
   277
1070
     2
1070
   279
1070
     2
1070
   280
1070
     0
1070
   287
1070
     5
1070
   340
1005
46E
1002
}
  0
DIMENSION
  5
51D
330
1F
100
AcDbEntity
  8
寸法
  6
CONTINUOUS
 62
     3
100
AcDbDimension
  2
*D28
 10
1171.0000000006
 20
2899.5
 30
0.0
 11
1384.000000000621
 21
2934.749999910593
 31
0.0
 70
   160
  1
210（壁給水）
  3
ISO-25
100
AcDbAlignedDimension
 13
961.0000000005599
 23
2729.9999998212
 33
0.0
 14
1171.0000000006
 24
2737.9999998212
 34
0.0
100
AcDbRotatedDimension
1001
ACAD
1000
DSTYLE
1002
{
1070
   270
1070
     2
1070
     6
1000
EX_NORM
1070
     7
1000
EX_NORM
1070
    41
1040
44.99999618530273
1070
    42
1040
10.49999982118607
1070
    44
1040
15.0
1070
    73
1070
     0
1070
    74
1070
     0
1070
    75
1070
     0
1070
    76
1070
     0
1070
    77
1070
     1
1070
    78
1070
     0
1070
   140
1040
59.99999618530273
1070
   147
1040
0.0
1070
   173
1070
     1
1070
   176
1070
     3
1070
   177
1070
     3
1070
   178
1070
     2
1070
   271
1070
     0
1070
   277
1070
     2
1070
   279
1070
     2
1070
   280
1070
     0
1070
   287
1070
     5
1070
   340
1005
46E
1002
}
  0
ENDSEC
  0
SECTION
  2
OBJECTS
  0
DICTIONARY
  5
C
330
0
100
AcDbDictionary
  3
ACAD_GROUP
350
D
  3
ACAD_LAYOUT
350
1A
  3
ACAD_MATERIAL
350
3B
  3
ACAD_MLEADERSTYLE
350
54C
  3
ACAD_MLINESTYLE
350
17
  3
ACAD_PLOTSETTINGS
350
19
  3
ACAD_VISUALSTYLE
350
2A
  3
ACDBHEADERROUNDTRIPXREC
350
52A
  3
ACDBVARIABLEDICTIONARY
350
54A
  0
DICTIONARY
  5
D
102
{ACAD_REACTORS
330
C
102
}
330
C
100
AcDbDictionary
  0
DICTIONARY
  5
1A
102
{ACAD_REACTORS
330
C
102
}
330
C
100
AcDbDictionary
  0
DICTIONARY
  5
3B
102
{ACAD_REACTORS
330
C
102
}
330
C
100
AcDbDictionary
  3
BYBLOCK
350
3D
  3
BYLAYER
350
3C
  3
GLOBAL
350
3E
  0
DICTIONARY
  5
54C
102
{ACAD_REACTORS
330
C
102
}
330
C
100
AcDbDictionary
  0
DICTIONARY
  5
17
102
{ACAD_REACTORS
330
C
102
}
330
C
100
AcDbDictionary
  3
STANDARD
350
18
  0
DICTIONARY
  5
19
102
{ACAD_REACTORS
330
C
102
}
330
C
100
AcDbDictionary
  0
DICTIONARY
  5
2A
102
{ACAD_REACTORS
330
C
102
}
330
C
100
AcDbDictionary
  3
2DWIREFRAME
350
2F
  3
3D_HIDDEN
350
31
  3
3DWIREFRAME
350
30
  3
BASIC
350
32
  3
BRIGHTEN
350
36
  3
COLORCHANGE
350
3A
  3
CONCEPTUAL
350
34
  3
DIM
350
35
  3
FACEPATTERN
350
39
  3
FLAT
350
2B
  3
FLATWITHEDGES
350
2C
  3
GOURAUD
350
2D
  3
GOURAUDWITHEDGES
350
2E
  3
LINEPATTERN
350
38
  3
REALISTIC
350
33
  3
THICKEN
350
37
  0
DICTIONARY
  5
52A
102
{ACAD_REACTORS
330
C
102
}
330
C
100
AcDbDictionary
  3
CEPSNTYPE
350
533
  3
DIMSTYLEDATA
350
549
  3
FINGERPRINTGUID
350
534
  3
HYPERLINKBASE
350
52D
  3
INSUNITS
350
532
  3
LAYOUTDICT
350
52F
  3
LWETCUNION
350
531
  3
PLOTSETDICT
350
530
  3
PSVPSCALE
350
536
  3
PUCSBASE
350
539
  3
PUCSORGBACK
350
53F
  3
PUCSORGBOTTOM
350
53B
  3
PUCSORGFRONT
350
53E
  3
PUCSORGLEFT
350
53C
  3
PUCSORGRIGHT
350
53D
  3
PUCSORGTOP
350
53A
  3
PUCSORTHOREF
350
537
  3
PUCSORTHOVIEW
350
538
  3
STYLESHEET
350
52E
  3
TSTACKALIGN
350
52B
  3
TSTACKSIZE
350
52C
  3
UCSBASE
350
542
  3
UCSORGBACK
350
548
  3
UCSORGBOTTOM
350
544
  3
UCSORGFRONT
350
547
  3
UCSORGLEFT
350
545
  3
UCSORGRIGHT
350
546
  3
UCSORGTOP
350
543
  3
UCSORTHOREF
350
540
  3
UCSORTHOVIEW
350
541
  3
VERSIONGUID
350
535
  0
DICTIONARY
  5
54A
102
{ACAD_REACTORS
330
C
102
}
330
C
100
AcDbDictionary
  3
DIMASSOC
350
54F
  3
HIDETEXT
350
550
  3
PSOLHEIGHT
350
54E
  3
PSOLWIDTH
350
54D
  0
MATERIAL
  5
3D
102
{ACAD_REACTORS
330
3B
102
}
102
{ACAD_XDICTIONARY
360
553
102
}
330
3B
100
AcDbMaterial
  1
ByBlock
  0
MATERIAL
  5
3C
102
{ACAD_REACTORS
330
3B
102
}
102
{ACAD_XDICTIONARY
360
551
102
}
330
3B
100
AcDbMaterial
  1
ByLayer
  0
MATERIAL
  5
3E
102
{ACAD_REACTORS
330
3B
102
}
102
{ACAD_XDICTIONARY
360
555
102
}
330
3B
100
AcDbMaterial
  1
Global
  0
MLINESTYLE
  5
18
102
{ACAD_REACTORS
330
17
102
}
330
17
100
AcDbMlineStyle
  2
Standard
 70
     0
  3

 62
   256
 51
90.0
 52
90.0
 71
     2
 49
0.5
 62
   256
  6
BYLAYER
 49
-0.5
 62
   256
  6
BYLAYER
  0
ACAD_PROXY_OBJECT
  5
2F
102
{ACAD_REACTORS
330
2A
102
}
330
2A
100
AcDbProxyObject
 90
      499
 91
      501
 93
      436
310
42CC9915DA5C99599C985B595049028333333333333E3BF0000000000000FB0107901411070040501600405405064090741402480A0340
1001
ACAD
1000
AcDbSavedByObjectVersion
1070
     0
  0
ACAD_PROXY_OBJECT
  5
31
102
{ACAD_REACTORS
330
2A
102
}
330
2A
100
AcDbProxyObject
 90
      499
 91
      501
 93
      500
310
424CD108121A5919195B90640502408333333333333E3BF0000000000000FB01079024090700405020000000000001110200405405064090740C02480A0340
1001
ACAD
1000
AcDbSavedByObjectVersion
1070
     0
  0
ACAD_PROXY_OBJECT
  5
30
102
{ACAD_REACTORS
330
2A
102
}
330
2A
100
AcDbProxyObject
 90
      499
 91
      501
 93
      436
310
42CCD915DA5C99599C985B595059028333333333333E3BF0000000000000FB0107901411070040501600405405064090741402480A0340
1001
ACAD
1000
AcDbSavedByObjectVersion
1070
     0
  0
ACAD_PROXY_OBJECT
  5
32
102
{ACAD_REACTORS
330
2A
102
}
330
2A
100
AcDbProxyObject
 90
      499
 91
      501
 93
      388
310
4150985CDA58D07406404333333333333E3BF0000000000000FB0107A41107004050150841D405064090741402480A0350
1001
ACAD
1000
AcDbSavedByObjectVersion
1070
     0
  0
ACAD_PROXY_OBJECT
  5
36
102
{ACAD_REACTORS
330
2A
102
}
330
2A
100
AcDbProxyObject
 90
      499
 91
      501
 93
      428
310
42109C9A59DA1D195B90C409028333333333333E3BF0000000000000FB010790141107004050150841D405064090741402480A029950
1001
ACAD
1000
AcDbSavedByObjectVersion
1070
     0
  0
ACAD_PROXY_OBJECT
  5
3A
102
{ACAD_REACTORS
330
2A
102
}
330
2A
100
AcDbProxyObject
 90
      499
 91
      501
 93
      452
310
42D0DBDB1BDC90DA185B99D95104090240C333333333333E3BF0000000000000FB0108901411070040501508421405064090741402480A0350
1001
ACAD
1000
AcDbSavedByObjectVersion
1070
     0
  0
ACAD_PROXY_OBJECT
  5
34
102
{ACAD_REACTORS
330
2A
102
}
330
2A
100
AcDbProxyObject
 90
      499
 91
      501
 93
      500
310
4290DBDB98D95C1D1D585B10940D028333333333333E3BF0000000000000FB0107902409070040501000000000000111010841D405064090740C02480A0340
1001
ACAD
1000
AcDbSavedByObjectVersion
1070
     0
  0
ACAD_PROXY_OBJECT
  5
35
102
{ACAD_REACTORS
330
2A
102
}
330
2A
100
AcDbProxyObject
 90
      499
 91
      501
 93
      412
310
40D11A5B50B409028333333333333E3BF0000000000000FB010790141107004050150841D405064090741402480A02677FFFFFD0
1001
ACAD
1000
AcDbSavedByObjectVersion
1070
     0
  0
ACAD_PROXY_OBJECT
  5
39
102
{ACAD_REACTORS
330
2A
102
}
330
2A
100
AcDbProxyObject
 90
      499
 91
      501
 93
      444
310
42D19858D95C185D1D195C9B90F409028333333333333E3BF0000000000000FB010790141107004050150841D405064090741402480A0350
1001
ACAD
1000
AcDbSavedByObjectVersion
1070
     0
  0
ACAD_PROXY_OBJECT
  5
2B
102
{ACAD_REACTORS
330
2A
102
}
330
2A
100
AcDbProxyObject
 90
      499
 91
      501
 93
      388
310
41119B185D240901404333333333333E3BF0000000000000F9010740A41107004050150841D405064090741402480A1B50
1001
ACAD
1000
AcDbSavedByObjectVersion
1070
     0
  0
ACAD_PROXY_OBJECT
  5
2C
102
{ACAD_REACTORS
330
2A
102
}
330
2A
100
AcDbProxyObject
 90
      499
 91
      501
 93
      476
310
43519B185D15DA5D1A115919D95CD0140901404333333333333E3BF0000000000000F9010740901411070040501600405405064090741402480A1B50
1001
ACAD
1000
AcDbSavedByObjectVersion
1070
     0
  0
ACAD_PROXY_OBJECT
  5
2D
102
{ACAD_REACTORS
330
2A
102
}
330
2A
100
AcDbProxyObject
 90
      499
 91
      501
 93
      412
310
41D1DBDD5C985D5910240902404333333333333E3BF0000000000000F9010740A411070040501641D405064090741402480A1B50
1001
ACAD
1000
AcDbSavedByObjectVersion
1070
     0
  0
ACAD_PROXY_OBJECT
  5
2E
102
{ACAD_REACTORS
330
2A
102
}
330
2A
100
AcDbProxyObject
 90
      499
 91
      501
 93
      500
310
4411DBDD5C985D5915DA5D1A115919D95CD0340902404333333333333E3BF0000000000000F9010740901411070040501600405405064090741402480A1B50
1001
ACAD
1000
AcDbSavedByObjectVersion
1070
     0
  0
ACAD_PROXY_OBJECT
  5
38
102
{ACAD_REACTORS
330
2A
102
}
330
2A
100
AcDbProxyObject
 90
      499
 91
      501
 93
      444
310
42D31A5B995C185D1D195C9B90E409028333333333333E3BF0000000000000FB010790141107004050750841D405064090741402483A0350
1001
ACAD
1000
AcDbSavedByObjectVersion
1070
     0
  0
ACAD_PROXY_OBJECT
  5
33
102
{ACAD_REACTORS
330
2A
102
}
330
2A
100
AcDbProxyObject
 90
      499
 91
      501
 93
      420
310
425499585B1A5CDD1A58D08409028333333333333E3BF0000000000000FB01079019070040501508421405064090741402480A1B40
1001
ACAD
1000
AcDbSavedByObjectVersion
1070
     0
  0
ACAD_PROXY_OBJECT
  5
37
102
{ACAD_REACTORS
330
2A
102
}
330
2A
100
AcDbProxyObject
 90
      499
 91
      501
 93
      412
310
41D51A1A58DAD95B90D409028333333333333E3BF0000000000000FB010790141107004050150C41D405064090741402480A0350
1001
ACAD
1000
AcDbSavedByObjectVersion
1070
     0
  0
XRECORD
  5
533
102
{ACAD_REACTORS
330
52A
102
}
330
52A
100
AcDbXrecord
 90
        0
  0
XRECORD
  5
549
102
{ACAD_REACTORS
330
52A
102
}
330
52A
100
AcDbXrecord
1000
DSTYLE
1002
{
1070
   340
340
11
1002
}
  0
XRECORD
  5
534
102
{ACAD_REACTORS
330
52A
102
}
330
52A
100
AcDbXrecord
  1
{47FD485C-F2F0-4D41-9778-A0A12E944E45}
  0
XRECORD
  5
52D
102
{ACAD_REACTORS
330
52A
102
}
330
52A
100
AcDbXrecord
  1

  0
XRECORD
  5
532
102
{ACAD_REACTORS
330
52A
102
}
330
52A
100
AcDbXrecord
 90
        4
  0
XRECORD
  5
52F
102
{ACAD_REACTORS
330
52A
102
}
330
52A
100
AcDbXrecord
340
1A
  0
XRECORD
  5
531
102
{ACAD_REACTORS
330
52A
102
}
330
52A
100
AcDbXrecord
 90
    10781
  0
XRECORD
  5
530
102
{ACAD_REACTORS
330
52A
102
}
330
52A
100
AcDbXrecord
340
19
  0
XRECORD
  5
536
102
{ACAD_REACTORS
330
52A
102
}
330
52A
100
AcDbXrecord
 40
0.0
  0
XRECORD
  5
539
102
{ACAD_REACTORS
330
52A
102
}
330
52A
100
AcDbXrecord
340
0
  0
XRECORD
  5
53F
102
{ACAD_REACTORS
330
52A
102
}
330
52A
100
AcDbXrecord
 10
0.0
 20
0.0
 30
0.0
  0
XRECORD
  5
53B
102
{ACAD_REACTORS
330
52A
102
}
330
52A
100
AcDbXrecord
 10
0.0
 20
0.0
 30
0.0
  0
XRECORD
  5
53E
102
{ACAD_REACTORS
330
52A
102
}
330
52A
100
AcDbXrecord
 10
0.0
 20
0.0
 30
0.0
  0
XRECORD
  5
53C
102
{ACAD_REACTORS
330
52A
102
}
330
52A
100
AcDbXrecord
 10
0.0
 20
0.0
 30
0.0
  0
XRECORD
  5
53D
102
{ACAD_REACTORS
330
52A
102
}
330
52A
100
AcDbXrecord
 10
0.0
 20
0.0
 30
0.0
  0
XRECORD
  5
53A
102
{ACAD_REACTORS
330
52A
102
}
330
52A
100
AcDbXrecord
 10
0.0
 20
0.0
 30
0.0
  0
XRECORD
  5
537
102
{ACAD_REACTORS
330
52A
102
}
330
52A
100
AcDbXrecord
340
0
  0
XRECORD
  5
538
102
{ACAD_REACTORS
330
52A
102
}
330
52A
100
AcDbXrecord
 70
     0
  0
XRECORD
  5
52E
102
{ACAD_REACTORS
330
52A
102
}
330
52A
100
AcDbXrecord
  1

  0
XRECORD
  5
52B
102
{ACAD_REACTORS
330
52A
102
}
330
52A
100
AcDbXrecord
 90
        1
  0
XRECORD
  5
52C
102
{ACAD_REACTORS
330
52A
102
}
330
52A
100
AcDbXrecord
 90
       70
  0
XRECORD
  5
542
102
{ACAD_REACTORS
330
52A
102
}
330
52A
100
AcDbXrecord
340
0
  0
XRECORD
  5
548
102
{ACAD_REACTORS
330
52A
102
}
330
52A
100
AcDbXrecord
 10
0.0
 20
0.0
 30
0.0
  0
XRECORD
  5
544
102
{ACAD_REACTORS
330
52A
102
}
330
52A
100
AcDbXrecord
 10
0.0
 20
0.0
 30
0.0
  0
XRECORD
  5
547
102
{ACAD_REACTORS
330
52A
102
}
330
52A
100
AcDbXrecord
 10
0.0
 20
0.0
 30
0.0
  0
XRECORD
  5
545
102
{ACAD_REACTORS
330
52A
102
}
330
52A
100
AcDbXrecord
 10
0.0
 20
0.0
 30
0.0
  0
XRECORD
  5
546
102
{ACAD_REACTORS
330
52A
102
}
330
52A
100
AcDbXrecord
 10
0.0
 20
0.0
 30
0.0
  0
XRECORD
  5
543
102
{ACAD_REACTORS
330
52A
102
}
330
52A
100
AcDbXrecord
 10
0.0
 20
0.0
 30
0.0
  0
XRECORD
  5
540
102
{ACAD_REACTORS
330
52A
102
}
330
52A
100
AcDbXrecord
340
0
  0
XRECORD
  5
541
102
{ACAD_REACTORS
330
52A
102
}
330
52A
100
AcDbXrecord
 70
     0
  0
XRECORD
  5
535
102
{ACAD_REACTORS
330
52A
102
}
330
52A
100
AcDbXrecord
  1
{FAEB1C32-E019-11D5-929B-00C0DF256EC4}
  0
DICTIONARYVAR
  5
54F
102
{ACAD_REACTORS
330
54A
102
}
330
54A
100
DictionaryVariables
280
     0
  1
2
  0
DICTIONARYVAR
  5
550
102
{ACAD_REACTORS
330
54A
102
}
330
54A
100
DictionaryVariables
280
     0
  1
1
  0
DICTIONARYVAR
  5
54E
102
{ACAD_REACTORS
330
54A
102
}
330
54A
100
DictionaryVariables
280
     0
  1
80.000000
  0
DICTIONARYVAR
  5
54D
102
{ACAD_REACTORS
330
54A
102
}
330
54A
100
DictionaryVariables
280
     0
  1
5.000000
  0
DICTIONARY
  5
553
330
3D
100
AcDbDictionary
280
     1
  3
ACAD_XREC_ROUNDTRIP
360
554
  0
DICTIONARY
  5
551
330
3C
100
AcDbDictionary
280
     1
  3
ACAD_XREC_ROUNDTRIP
360
552
  0
DICTIONARY
  5
555
330
3E
100
AcDbDictionary
280
     1
  3
ACAD_XREC_ROUNDTRIP
360
556
  0
XRECORD
  5
554
102
{ACAD_REACTORS
330
553
102
}
330
553
100
AcDbXrecord
102
MATERIAL
148
0.0
149
0.0
149
0.0
 93
        0
 94
      127
282
     0
 72
     1
 77
     1
171
     1
175
     1
179
     1
273
     0
  0
XRECORD
  5
552
102
{ACAD_REACTORS
330
551
102
}
330
551
100
AcDbXrecord
102
MATERIAL
148
0.0
149
0.0
149
0.0
 93
        0
 94
      127
282
     0
 72
     1
 77
     1
171
     1
175
     1
179
     1
273
     0
  0
XRECORD
  5
556
102
{ACAD_REACTORS
330
555
102
}
330
555
100
AcDbXrecord
102
MATERIAL
148
0.0
149
0.0
149
0.0
 93
        0
 94
      127
282
     0
 72
     1
 77
     1
171
     1
175
     1
179
     1
273
     0
  0
ENDSEC
  0
EOF
