  0
SECTION
  2
HEADER
  9
$ACADVER
  1
AC1014
  9
$ACADMAINTVER
 70
     9
  9
$DWGCODEPAGE
  3
ANSI_932
  9
$INSBASE
 10
0.0
 20
0.0
 30
0.0
  9
$EXTMIN
 10
17.40000000000811
 20
9.299999999999955
 30
0.0
  9
$EXTMAX
 10
199.4000000000084
 20
289.3
 30
0.0
  9
$LIMMIN
 10
0.0
 20
0.0
  9
$LIMMAX
 10
210.0
 20
297.0
  9
$ORTHOMODE
 70
     0
  9
$REGENMODE
 70
     1
  9
$FILLMODE
 70
     1
  9
$QTEXTMODE
 70
     0
  9
$MIRRTEXT
 70
     1
  9
$DRAGMODE
 70
     2
  9
$LTSCALE
 40
1.0
  9
$OSMODE
 70
    37
  9
$ATTMODE
 70
     1
  9
$TEXTSIZE
 40
2.5
  9
$TRACEWID
 40
1.0
  9
$TEXTSTYLE
  7
STANDARD
  9
$CLAYER
  8
化粧台
  9
$CELTYPE
  6
BYLAYER
  9
$CECOLOR
 62
   256
  9
$CELTSCALE
 40
1.0
  9
$DELOBJ
 70
     1
  9
$DISPSILH
 70
     0
  9
$DIMSCALE
 40
1.0
  9
$DIMASZ
 40
2.5
  9
$DIMEXO
 40
0.625
  9
$DIMDLI
 40
3.75
  9
$DIMRND
 40
0.0
  9
$DIMDLE
 40
0.0
  9
$DIMEXE
 40
1.25
  9
$DIMTP
 40
0.0
  9
$DIMTM
 40
0.0
  9
$DIMTXT
 40
2.5
  9
$DIMCEN
 40
2.5
  9
$DIMTSZ
 40
0.0
  9
$DIMTOL
 70
     0
  9
$DIMLIM
 70
     0
  9
$DIMTIH
 70
     0
  9
$DIMTOH
 70
     0
  9
$DIMSE1
 70
     0
  9
$DIMSE2
 70
     0
  9
$DIMTAD
 70
     1
  9
$DIMZIN
 70
     8
  9
$DIMBLK
  1

  9
$DIMASO
 70
     1
  9
$DIMSHO
 70
     1
  9
$DIMPOST
  1

  9
$DIMAPOST
  1

  9
$DIMALT
 70
     0
  9
$DIMALTD
 70
     3
  9
$DIMALTF
 40
0.03937007874016
  9
$DIMLFAC
 40
1.0
  9
$DIMTOFL
 70
     1
  9
$DIMTVP
 40
0.0
  9
$DIMTIX
 70
     0
  9
$DIMSOXD
 70
     0
  9
$DIMSAH
 70
     0
  9
$DIMBLK1
  1

  9
$DIMBLK2
  1

  9
$DIMSTYLE
  2
ISO-25
  9
$DIMCLRD
 70
     0
  9
$DIMCLRE
 70
     0
  9
$DIMCLRT
 70
     0
  9
$DIMTFAC
 40
1.0
  9
$DIMGAP
 40
0.625
  9
$DIMJUST
 70
     0
  9
$DIMSD1
 70
     0
  9
$DIMSD2
 70
     0
  9
$DIMTOLJ
 70
     0
  9
$DIMTZIN
 70
     8
  9
$DIMALTZ
 70
     0
  9
$DIMALTTZ
 70
     0
  9
$DIMFIT
 70
     3
  9
$DIMUPT
 70
     0
  9
$DIMUNIT
 70
     2
  9
$DIMDEC
 70
     2
  9
$DIMTDEC
 70
     2
  9
$DIMALTU
 70
     2
  9
$DIMALTTD
 70
     3
  9
$DIMTXSTY
  7
STANDARD
  9
$DIMAUNIT
 70
     0
  9
$LUNITS
 70
     2
  9
$LUPREC
 70
     4
  9
$SKETCHINC
 40
1.0
  9
$FILLETRAD
 40
10.0
  9
$AUNITS
 70
     0
  9
$AUPREC
 70
     0
  9
$MENU
  1
.
  9
$ELEVATION
 40
0.0
  9
$PELEVATION
 40
0.0
  9
$THICKNESS
 40
0.0
  9
$LIMCHECK
 70
     0
  9
$CHAMFERA
 40
10.0
  9
$CHAMFERB
 40
10.0
  9
$CHAMFERC
 40
20.0
  9
$CHAMFERD
 40
0.0
  9
$SKPOLY
 70
     0
  9
$TDCREATE
 40
2460083.673083553
  9
$TDUPDATE
 40
2460083.673083773
  9
$TDINDWG
 40
0.0000000116
  9
$TDUSRTIMER
 40
0.0000000116
  9
$USRTIMER
 70
     1
  9
$ANGBASE
 50
0.0
  9
$ANGDIR
 70
     0
  9
$PDMODE
 70
     0
  9
$PDSIZE
 40
0.0
  9
$PLINEWID
 40
0.0
  9
$COORDS
 70
     1
  9
$SPLFRAME
 70
     0
  9
$SPLINETYPE
 70
     6
  9
$SPLINESEGS
 70
     8
  9
$ATTDIA
 70
     0
  9
$ATTREQ
 70
     1
  9
$HANDLING
 70
     1
  9
$HANDSEED
  5
501
  9
$SURFTAB1
 70
     6
  9
$SURFTAB2
 70
     6
  9
$SURFTYPE
 70
     6
  9
$SURFU
 70
     6
  9
$SURFV
 70
     6
  9
$UCSNAME
  2

  9
$UCSORG
 10
0.0
 20
0.0
 30
0.0
  9
$UCSXDIR
 10
1.0
 20
0.0
 30
0.0
  9
$UCSYDIR
 10
0.0
 20
1.0
 30
0.0
  9
$PUCSNAME
  2

  9
$PUCSORG
 10
0.0
 20
0.0
 30
0.0
  9
$PUCSXDIR
 10
1.0
 20
0.0
 30
0.0
  9
$PUCSYDIR
 10
0.0
 20
1.0
 30
0.0
  9
$USERI1
 70
     0
  9
$USERI2
 70
     0
  9
$USERI3
 70
     0
  9
$USERI4
 70
     0
  9
$USERI5
 70
     0
  9
$USERR1
 40
0.0
  9
$USERR2
 40
0.0
  9
$USERR3
 40
0.0
  9
$USERR4
 40
0.0
  9
$USERR5
 40
0.0
  9
$WORLDVIEW
 70
     1
  9
$SHADEDGE
 70
     3
  9
$SHADEDIF
 70
    70
  9
$TILEMODE
 70
     1
  9
$MAXACTVP
 70
    64
  9
$PINSBASE
 10
0.0
 20
0.0
 30
0.0
  9
$PLIMCHECK
 70
     0
  9
$PEXTMIN
 10
1.000000000000000E+20
 20
1.000000000000000E+20
 30
1.000000000000000E+20
  9
$PEXTMAX
 10
-1.000000000000000E+20
 20
-1.000000000000000E+20
 30
-1.000000000000000E+20
  9
$PLIMMIN
 10
0.0
 20
0.0
  9
$PLIMMAX
 10
420.0
 20
297.0
  9
$UNITMODE
 70
     0
  9
$VISRETAIN
 70
     1
  9
$PLINEGEN
 70
     0
  9
$PSLTSCALE
 70
     1
  9
$TREEDEPTH
 70
  3020
  9
$PICKSTYLE
 70
     1
  9
$CMLSTYLE
  2
STANDARD
  9
$CMLJUST
 70
     0
  9
$CMLSCALE
 40
20.0
  9
$PROXYGRAPHICS
 70
     1
  9
$MEASUREMENT
 70
     1
  0
ENDSEC
  0
SECTION
  2
CLASSES
  0
CLASS
  1
ACDBDICTIONARYWDFLT
  2
AcDbDictionaryWithDefault
  3
ObjectDBX Classes
 90
        0
280
     0
281
     0
  0
CLASS
  1
VISUALSTYLE
  2
AcDbVisualStyle
  3
ObjectDBX Classes
 90
     4095
280
     0
281
     0
  0
CLASS
  1
MATERIAL
  2
AcDbMaterial
  3
ObjectDBX Classes
 90
     1153
280
     0
281
     0
  0
CLASS
  1
SUN
  2
AcDbSun
  3
SCENEOE
 90
     1024
280
     0
281
     0
  0
CLASS
  1
DICTIONARYVAR
  2
AcDbDictionaryVar
  3
ObjectDBX Classes
 90
        0
280
     0
281
     0
  0
CLASS
  1
XRECORD
  2
AcDbXrecord
  3
AutoCAD 2000
 90
        0
280
     0
281
     0
  0
CLASS
  1
LWPOLYLINE
  2
AcDbPolyline
  3
AutoCAD 2000
 90
        0
280
     0
281
     1
  0
CLASS
  1
HATCH
  2
AcDbHatch
  3
AutoCAD 2000
 90
        0
280
     0
281
     1
  0
CLASS
  1
ACDBPLACEHOLDER
  2
AcDbPlaceHolder
  3
ObjectDBX Classes
 90
        0
280
     0
281
     0
  0
CLASS
  1
LAYOUT
  2
AcDbLayout
  3
ObjectDBX Classes
 90
        0
280
     0
281
     0
  0
ENDSEC
  0
SECTION
  2
TABLES
  0
TABLE
  2
VPORT
  5
8
330
0
100
AcDbSymbolTable
 70
     1
  0
VPORT
  5
29
330
8
100
AcDbSymbolTableRecord
100
AcDbViewportTableRecord
  2
*ACTIVE
 70
     0
 10
0.0
 20
0.0
 11
1.0
 21
1.0
 12
1626.000000000123
 22
2239.5
 13
0.0
 23
0.0
 14
10.0
 24
10.0
 15
10.0
 25
10.0
 16
0.0
 26
0.0
 36
1.0
 17
0.0
 27
0.0
 37
0.0
 40
4200.0
 41
0.650000000000001
 42
50.0
 43
0.0
 44
0.0
 50
0.0
 51
0.0
 71
     0
 72
  1000
 73
     1
 74
     3
 75
     0
 76
     0
 77
     0
 78
     0
  0
ENDTAB
  0
TABLE
  2
LTYPE
  5
5
330
0
100
AcDbSymbolTable
 70
     7
  0
LTYPE
  5
14
330
5
100
AcDbSymbolTableRecord
100
AcDbLinetypeTableRecord
  2
BYBLOCK
 70
     0
  3

 72
    65
 73
     0
 40
0.0
  0
LTYPE
  5
15
330
5
100
AcDbSymbolTableRecord
100
AcDbLinetypeTableRecord
  2
BYLAYER
 70
     0
  3

 72
    65
 73
     0
 40
0.0
  0
LTYPE
  5
16
330
5
100
AcDbSymbolTableRecord
100
AcDbLinetypeTableRecord
  2
CONTINUOUS
 70
     0
  3
Solid line
 72
    65
 73
     0
 40
0.0
  0
LTYPE
  5
40
330
5
100
AcDbSymbolTableRecord
100
AcDbLinetypeTableRecord
  2
EXLTYPE1
 70
     0
  3
破線
 72
    65
 73
     2
 40
3.0
 49
2.0
 74
     0
 49
-1.0
 74
     0
  0
LTYPE
  5
41
330
5
100
AcDbSymbolTableRecord
100
AcDbLinetypeTableRecord
  2
EXLTYPE2
 70
     0
  3
点線
 72
    65
 73
     2
 40
2.0
 49
1.0
 74
     0
 49
-1.0
 74
     0
  0
LTYPE
  5
42
330
5
100
AcDbSymbolTableRecord
100
AcDbLinetypeTableRecord
  2
EXLTYPE3
 70
     0
  3
一点鎖線
 72
    65
 73
     4
 40
10.0
 49
7.0
 74
     0
 49
-1.0
 74
     0
 49
1.0
 74
     0
 49
-1.0
 74
     0
  0
LTYPE
  5
43
330
5
100
AcDbSymbolTableRecord
100
AcDbLinetypeTableRecord
  2
EXLTYPE4
 70
     0
  3
二点鎖線
 72
    65
 73
     6
 40
12.0
 49
7.0
 74
     0
 49
-1.0
 74
     0
 49
1.0
 74
     0
 49
-1.0
 74
     0
 49
1.0
 74
     0
 49
-1.0
 74
     0
  0
LTYPE
  5
44
330
5
100
AcDbSymbolTableRecord
100
AcDbLinetypeTableRecord
  2
EXLTYPE5
 70
     0
  3
三点鎖線
 72
    65
 73
     8
 40
37.0
 49
30.0
 74
     0
 49
-1.0
 74
     0
 49
1.0
 74
     0
 49
-1.0
 74
     0
 49
1.0
 74
     0
 49
-1.0
 74
     0
 49
1.0
 74
     0
 49
-1.0
 74
     0
  0
LTYPE
  5
45
330
5
100
AcDbSymbolTableRecord
100
AcDbLinetypeTableRecord
  2
EXLTYPE6
 70
     0
  3
四点鎖線
 72
    65
 73
    10
 40
39.0
 49
30.0
 74
     0
 49
-1.0
 74
     0
 49
1.0
 74
     0
 49
-1.0
 74
     0
 49
1.0
 74
     0
 49
-1.0
 74
     0
 49
1.0
 74
     0
 49
-1.0
 74
     0
 49
1.0
 74
     0
 49
-1.0
 74
     0
  0
ENDTAB
  0
TABLE
  2
LAYER
  5
2
330
0
100
AcDbSymbolTable
 70
     7
  0
LAYER
  5
10
330
2
100
AcDbSymbolTableRecord
100
AcDbLayerTableRecord
  2
0
 70
     0
 62
     7
  6
CONTINUOUS
  0
LAYER
  5
48
330
2
100
AcDbSymbolTableRecord
100
AcDbLayerTableRecord
  2
枠_表
 70
     0
 62
     7
  6
CONTINUOUS
  0
LAYER
  5
49
330
2
100
AcDbSymbolTableRecord
100
AcDbLayerTableRecord
  2
化粧台
 70
     0
 62
     7
  6
CONTINUOUS
  0
LAYER
  5
4A
330
2
100
AcDbSymbolTableRecord
100
AcDbLayerTableRecord
  2
鏡台
 70
     0
 62
     7
  6
CONTINUOUS
  0
LAYER
  5
4B
330
2
100
AcDbSymbolTableRecord
100
AcDbLayerTableRecord
  2
付属金具
 70
     0
 62
     7
  6
CONTINUOUS
  0
LAYER
  5
4C
330
2
100
AcDbSymbolTableRecord
100
AcDbLayerTableRecord
  2
寸法
 70
     0
 62
     7
  6
CONTINUOUS
  0
LAYER
  5
393
330
2
100
AcDbSymbolTableRecord
100
AcDbLayerTableRecord
  2
DEFPOINTS
 70
     0
 62
     7
  6
CONTINUOUS
  0
ENDTAB
  0
TABLE
  2
STYLE
  5
3
330
0
100
AcDbSymbolTable
 70
     5
  0
STYLE
  5
11
330
3
100
AcDbSymbolTableRecord
100
AcDbTextStyleTableRecord
  2
STANDARD
 70
     0
 40
0.0
 41
1.0
 50
0.0
 71
     0
 42
2.5
  3
monotxt
  4
extfont
  0
STYLE
  5
46
330
3
100
AcDbSymbolTableRecord
100
AcDbTextStyleTableRecord
  2
EXCADSTD
 70
     0
 40
0.0
 41
1.0
 50
0.0
 71
     0
 42
0.2
  3
monotxt
  4
extfont
  0
STYLE
  5
47
330
3
100
AcDbSymbolTableRecord
100
AcDbTextStyleTableRecord
  2
EXCADVERT
 70
     4
 40
0.0
 41
1.0
 50
0.0
 71
     0
 42
0.286885
  3
monotxt
  4
extfont
  0
STYLE
  5
AF
330
3
100
AcDbSymbolTableRecord
100
AcDbTextStyleTableRecord
  2
EXCADTTF1
 70
     0
 40
0.0
 41
1.0
 50
0.0
 71
     0
 42
0.2
  3
MSGOTHIC.TTC
  4

1001
ACAD
1000
MS Gothic
1071
    32817
  0
STYLE
  5
391
330
3
100
AcDbSymbolTableRecord
100
AcDbTextStyleTableRecord
  2
EXCADDIM1
 70
     0
 40
0.0
 41
0.84
 50
0.0
 71
     0
 42
0.2
  3
monotxt
  4
extfont
  0
ENDTAB
  0
TABLE
  2
VIEW
  5
6
330
0
100
AcDbSymbolTable
 70
     0
  0
ENDTAB
  0
TABLE
  2
UCS
  5
7
330
0
100
AcDbSymbolTable
 70
     0
  0
ENDTAB
  0
TABLE
  2
APPID
  5
9
330
0
100
AcDbSymbolTable
 70
     1
  0
APPID
  5
12
330
9
100
AcDbSymbolTableRecord
100
AcDbRegAppTableRecord
  2
ACAD
 70
     0
  0
ENDTAB
  0
TABLE
  2
DIMSTYLE
  5
A
330
0
100
AcDbSymbolTable
 70
     1
  0
DIMSTYLE
105
27
102
{ACAD_REACTORS
330
392
330
3A0
330
3AD
330
3B9
330
3C5
330
3D2
330
3DF
330
3EB
330
3F6
330
403
330
40F
330
41B
330
428
330
435
330
440
330
44F
330
460
330
46C
330
478
330
485
330
492
330
49E
330
4AF
330
4BB
330
4C8
102
}
330
A
100
AcDbSymbolTableRecord
100
AcDbDimStyleTableRecord
  2
ISO-25
 70
     0
  3

  4

  5

  6

  7

 40
1.0
 41
2.5
 42
0.625
 43
3.75
 44
1.25
 45
0.0
 46
0.0
 47
0.0
 48
0.0
140
2.5
141
2.5
142
0.0
143
0.03937007874016
144
1.0
145
0.0
146
1.0
147
0.625
 71
     0
 72
     0
 73
     0
 74
     0
 75
     0
 76
     0
 77
     1
 78
     8
170
     0
171
     3
172
     1
173
     0
174
     0
175
     0
176
     0
177
     0
178
     0
270
     2
271
     2
272
     2
273
     2
274
     3
340
11
275
     0
280
     0
281
     0
282
     0
283
     0
284
     8
285
     0
286
     0
287
     5
288
     0
  0
ENDTAB
  0
TABLE
  2
BLOCK_RECORD
  5
1
330
0
100
AcDbSymbolTable
 70
    40
  0
BLOCK_RECORD
  5
1F
330
1
100
AcDbSymbolTableRecord
100
AcDbBlockTableRecord
  2
*MODEL_SPACE
  0
BLOCK_RECORD
  5
1B
330
1
100
AcDbSymbolTableRecord
100
AcDbBlockTableRecord
  2
*PAPER_SPACE
  0
BLOCK_RECORD
  5
4D
330
1
100
AcDbSymbolTableRecord
100
AcDbBlockTableRecord
  2
EX_NORM
  0
BLOCK_RECORD
  5
50
330
1
100
AcDbSymbolTableRecord
100
AcDbBlockTableRecord
  2
EX_BNORM
  0
BLOCK_RECORD
  5
53
330
1
100
AcDbSymbolTableRecord
100
AcDbBlockTableRecord
  2
EX_BCIR
  0
BLOCK_RECORD
  5
56
330
1
100
AcDbSymbolTableRecord
100
AcDbBlockTableRecord
  2
EX_RCIVIL
  0
BLOCK_RECORD
  5
59
330
1
100
AcDbSymbolTableRecord
100
AcDbBlockTableRecord
  2
EX_SLANT
  0
BLOCK_RECORD
  5
5C
330
1
100
AcDbSymbolTableRecord
100
AcDbBlockTableRecord
  2
EX_NONE
  0
BLOCK_RECORD
  5
5F
330
1
100
AcDbSymbolTableRecord
100
AcDbBlockTableRecord
  2
EX_CIVIL
  0
BLOCK_RECORD
  5
62
330
1
100
AcDbSymbolTableRecord
100
AcDbBlockTableRecord
  2
EX_WCIR
  0
BLOCK_RECORD
  5
65
330
1
100
AcDbSymbolTableRecord
100
AcDbBlockTableRecord
  2
EX_WCIR2
  0
BLOCK_RECORD
  5
68
330
1
100
AcDbSymbolTableRecord
100
AcDbBlockTableRecord
  2
EX_WNORM
  0
BLOCK_RECORD
  5
6B
330
1
100
AcDbSymbolTableRecord
100
AcDbBlockTableRecord
  2
EX_NNORM
  0
BLOCK_RECORD
  5
6E
330
1
100
AcDbSymbolTableRecord
100
AcDbBlockTableRecord
  2
EX_BBOX
  0
BLOCK_RECORD
  5
71
330
1
100
AcDbSymbolTableRecord
100
AcDbBlockTableRecord
  2
EX_WBOX
  0
BLOCK_RECORD
  5
74
330
1
100
AcDbSymbolTableRecord
100
AcDbBlockTableRecord
  2
EX_INTEGRAL
  0
BLOCK_RECORD
  5
394
330
1
100
AcDbSymbolTableRecord
100
AcDbBlockTableRecord
  2
*D15
  0
BLOCK_RECORD
  5
3A1
330
1
100
AcDbSymbolTableRecord
100
AcDbBlockTableRecord
  2
*D16
  0
BLOCK_RECORD
  5
3AE
330
1
100
AcDbSymbolTableRecord
100
AcDbBlockTableRecord
  2
*D17
  0
BLOCK_RECORD
  5
3BA
330
1
100
AcDbSymbolTableRecord
100
AcDbBlockTableRecord
  2
*D18
  0
BLOCK_RECORD
  5
3C6
330
1
100
AcDbSymbolTableRecord
100
AcDbBlockTableRecord
  2
*D19
  0
BLOCK_RECORD
  5
3D3
330
1
100
AcDbSymbolTableRecord
100
AcDbBlockTableRecord
  2
*D20
  0
BLOCK_RECORD
  5
3E0
330
1
100
AcDbSymbolTableRecord
100
AcDbBlockTableRecord
  2
*D21
  0
BLOCK_RECORD
  5
3EC
330
1
100
AcDbSymbolTableRecord
100
AcDbBlockTableRecord
  2
*D22
  0
BLOCK_RECORD
  5
3F7
330
1
100
AcDbSymbolTableRecord
100
AcDbBlockTableRecord
  2
*D23
  0
BLOCK_RECORD
  5
404
330
1
100
AcDbSymbolTableRecord
100
AcDbBlockTableRecord
  2
*D24
  0
BLOCK_RECORD
  5
410
330
1
100
AcDbSymbolTableRecord
100
AcDbBlockTableRecord
  2
*D25
  0
BLOCK_RECORD
  5
41C
330
1
100
AcDbSymbolTableRecord
100
AcDbBlockTableRecord
  2
*D26
  0
BLOCK_RECORD
  5
429
330
1
100
AcDbSymbolTableRecord
100
AcDbBlockTableRecord
  2
*D27
  0
BLOCK_RECORD
  5
436
330
1
100
AcDbSymbolTableRecord
100
AcDbBlockTableRecord
  2
*D28
  0
BLOCK_RECORD
  5
441
330
1
100
AcDbSymbolTableRecord
100
AcDbBlockTableRecord
  2
*D29
  0
BLOCK_RECORD
  5
450
330
1
100
AcDbSymbolTableRecord
100
AcDbBlockTableRecord
  2
*D30
  0
BLOCK_RECORD
  5
461
330
1
100
AcDbSymbolTableRecord
100
AcDbBlockTableRecord
  2
*D31
  0
BLOCK_RECORD
  5
46D
330
1
100
AcDbSymbolTableRecord
100
AcDbBlockTableRecord
  2
*D32
  0
BLOCK_RECORD
  5
479
330
1
100
AcDbSymbolTableRecord
100
AcDbBlockTableRecord
  2
*D33
  0
BLOCK_RECORD
  5
486
330
1
100
AcDbSymbolTableRecord
100
AcDbBlockTableRecord
  2
*D34
  0
BLOCK_RECORD
  5
493
330
1
100
AcDbSymbolTableRecord
100
AcDbBlockTableRecord
  2
*D35
  0
BLOCK_RECORD
  5
49F
330
1
100
AcDbSymbolTableRecord
100
AcDbBlockTableRecord
  2
*D36
  0
BLOCK_RECORD
  5
4B0
330
1
100
AcDbSymbolTableRecord
100
AcDbBlockTableRecord
  2
*D37
  0
BLOCK_RECORD
  5
4BC
330
1
100
AcDbSymbolTableRecord
100
AcDbBlockTableRecord
  2
*D38
  0
BLOCK_RECORD
  5
4C9
330
1
100
AcDbSymbolTableRecord
100
AcDbBlockTableRecord
  2
*D39
  0
ENDTAB
  0
ENDSEC
  0
SECTION
  2
BLOCKS
  0
BLOCK
  5
20
330
1F
100
AcDbEntity
  8
0
100
AcDbBlockBegin
  2
*MODEL_SPACE
 70
     0
 10
0.0
 20
0.0
 30
0.0
  3
*MODEL_SPACE
  1

  0
ENDBLK
  5
21
330
1F
100
AcDbEntity
  8
0
100
AcDbBlockEnd
  0
BLOCK
  5
1C
330
1B
100
AcDbEntity
 67
     1
  8
0
100
AcDbBlockBegin
  2
*PAPER_SPACE
 70
     0
 10
0.0
 20
0.0
 30
0.0
  3
*PAPER_SPACE
  1

  0
ENDBLK
  5
1D
330
1B
100
AcDbEntity
 67
     1
  8
0
100
AcDbBlockEnd
  0
BLOCK
  5
4E
330
4D
100
AcDbEntity
  8
0
100
AcDbBlockBegin
  2
EX_NORM
 70
     0
 10
0.0
 20
0.0
 30
0.0
  3
EX_NORM
  1

  0
LINE
  5
77
330
4D
100
AcDbEntity
  8
0
  6
CONTINUOUS
 62
     0
100
AcDbLine
 10
0.0
 20
0.0
 30
0.0
 11
-1.0
 21
0.0
 31
0.0
  0
LINE
  5
78
330
4D
100
AcDbEntity
  8
0
  6
CONTINUOUS
 62
     0
100
AcDbLine
 10
0.0
 20
0.0
 30
0.0
 11
-1.0
 21
0.166666667
 31
0.0
  0
LINE
  5
79
330
4D
100
AcDbEntity
  8
0
  6
CONTINUOUS
 62
     0
100
AcDbLine
 10
0.0
 20
0.0
 30
0.0
 11
-1.0
 21
-0.166666667
 31
0.0
  0
ENDBLK
  5
4F
330
4D
100
AcDbEntity
  8
0
100
AcDbBlockEnd
  0
BLOCK
  5
51
330
50
100
AcDbEntity
  8
0
100
AcDbBlockBegin
  2
EX_BNORM
 70
     0
 10
0.0
 20
0.0
 30
0.0
  3
EX_BNORM
  1

  0
LINE
  5
7A
330
50
100
AcDbEntity
  8
0
  6
CONTINUOUS
 62
     0
100
AcDbLine
 10
0.0
 20
0.0
 30
0.0
 11
-1.0
 21
0.0
 31
0.0
  0
LINE
  5
7B
330
50
100
AcDbEntity
  8
0
  6
CONTINUOUS
 62
     0
100
AcDbLine
 10
0.0
 20
0.0
 30
0.0
 11
-1.0
 21
0.166666667
 31
0.0
  0
LINE
  5
7C
330
50
100
AcDbEntity
  8
0
  6
CONTINUOUS
 62
     0
100
AcDbLine
 10
0.0
 20
0.0
 30
0.0
 11
-1.0
 21
-0.166666667
 31
0.0
  0
LINE
  5
7D
330
50
100
AcDbEntity
  8
0
  6
CONTINUOUS
 62
     0
100
AcDbLine
 10
0.0
 20
0.0
 30
0.0
 11
-1.0
 21
0.083333333
 31
0.0
  0
LINE
  5
7E
330
50
100
AcDbEntity
  8
0
  6
CONTINUOUS
 62
     0
100
AcDbLine
 10
0.0
 20
0.0
 30
0.0
 11
-1.0
 21
-0.083333333
 31
0.0
  0
LINE
  5
7F
330
50
100
AcDbEntity
  8
0
  6
CONTINUOUS
 62
     0
100
AcDbLine
 10
-1.0
 20
0.166666667
 30
0.0
 11
-1.0
 21
-0.166666667
 31
0.0
  0
ENDBLK
  5
52
330
50
100
AcDbEntity
  8
0
100
AcDbBlockEnd
  0
BLOCK
  5
54
330
53
100
AcDbEntity
  8
0
100
AcDbBlockBegin
  2
EX_BCIR
 70
     0
 10
0.0
 20
0.0
 30
0.0
  3
EX_BCIR
  1

  0
LINE
  5
80
330
53
100
AcDbEntity
  8
0
  6
CONTINUOUS
 62
     0
100
AcDbLine
 10
0.0
 20
0.0
 30
0.0
 11
-1.0
 21
0.0
 31
0.0
  0
CIRCLE
  5
81
330
53
100
AcDbEntity
  8
0
  6
CONTINUOUS
 62
     0
100
AcDbCircle
 10
0.0
 20
0.0
 30
0.0
 40
0.5
  0
CIRCLE
  5
82
330
53
100
AcDbEntity
  8
0
  6
CONTINUOUS
 62
     0
100
AcDbCircle
 10
0.0
 20
0.0
 30
0.0
 40
0.25
  0
ENDBLK
  5
55
330
53
100
AcDbEntity
  8
0
100
AcDbBlockEnd
  0
BLOCK
  5
57
330
56
100
AcDbEntity
  8
0
100
AcDbBlockBegin
  2
EX_RCIVIL
 70
     0
 10
0.0
 20
0.0
 30
0.0
  3
EX_RCIVIL
  1

  0
LINE
  5
83
330
56
100
AcDbEntity
  8
0
  6
CONTINUOUS
 62
     0
100
AcDbLine
 10
0.0
 20
0.0
 30
0.0
 11
-1.0
 21
0.0
 31
0.0
  0
LINE
  5
84
330
56
100
AcDbEntity
  8
0
  6
CONTINUOUS
 62
     0
100
AcDbLine
 10
-1.0
 20
-0.25
 30
0.0
 11
0.0
 21
-0.25
 31
0.0
  0
LINE
  5
85
330
56
100
AcDbEntity
  8
0
  6
CONTINUOUS
 62
     0
100
AcDbLine
 10
-1.0
 20
-0.125
 30
0.0
 11
0.0
 21
-0.125
 31
0.0
  0
ENDBLK
  5
58
330
56
100
AcDbEntity
  8
0
100
AcDbBlockEnd
  0
BLOCK
  5
5A
330
59
100
AcDbEntity
  8
0
100
AcDbBlockBegin
  2
EX_SLANT
 70
     0
 10
0.0
 20
0.0
 30
0.0
  3
EX_SLANT
  1

  0
LINE
  5
86
330
59
100
AcDbEntity
  8
0
  6
CONTINUOUS
 62
     0
100
AcDbLine
 10
0.0
 20
0.0
 30
0.0
 11
-1.0
 21
0.0
 31
0.0
  0
LINE
  5
87
330
59
100
AcDbEntity
  8
0
  6
CONTINUOUS
 62
     0
100
AcDbLine
 10
0.707106781
 20
0.707106781
 30
0.0
 11
-0.707106781
 21
-0.707106781
 31
0.0
  0
ENDBLK
  5
5B
330
59
100
AcDbEntity
  8
0
100
AcDbBlockEnd
  0
BLOCK
  5
5D
330
5C
100
AcDbEntity
  8
0
100
AcDbBlockBegin
  2
EX_NONE
 70
     0
 10
0.0
 20
0.0
 30
0.0
  3
EX_NONE
  1

  0
LINE
  5
88
330
5C
100
AcDbEntity
  8
0
  6
CONTINUOUS
 62
     0
100
AcDbLine
 10
0.0
 20
0.0
 30
0.0
 11
-1.0
 21
0.0
 31
0.0
  0
ENDBLK
  5
5E
330
5C
100
AcDbEntity
  8
0
100
AcDbBlockEnd
  0
BLOCK
  5
60
330
5F
100
AcDbEntity
  8
0
100
AcDbBlockBegin
  2
EX_CIVIL
 70
     0
 10
0.0
 20
0.0
 30
0.0
  3
EX_CIVIL
  1

  0
LINE
  5
89
330
5F
100
AcDbEntity
  8
0
  6
CONTINUOUS
 62
     0
100
AcDbLine
 10
0.0
 20
0.0
 30
0.0
 11
-1.0
 21
0.0
 31
0.0
  0
LINE
  5
8A
330
5F
100
AcDbEntity
  8
0
  6
CONTINUOUS
 62
     0
100
AcDbLine
 10
-1.0
 20
0.25
 30
0.0
 11
0.0
 21
0.25
 31
0.0
  0
LINE
  5
8B
330
5F
100
AcDbEntity
  8
0
  6
CONTINUOUS
 62
     0
100
AcDbLine
 10
-1.0
 20
0.125
 30
0.0
 11
0.0
 21
0.125
 31
0.0
  0
ENDBLK
  5
61
330
5F
100
AcDbEntity
  8
0
100
AcDbBlockEnd
  0
BLOCK
  5
63
330
62
100
AcDbEntity
  8
0
100
AcDbBlockBegin
  2
EX_WCIR
 70
     0
 10
0.0
 20
0.0
 30
0.0
  3
EX_WCIR
  1

  0
LINE
  5
8C
330
62
100
AcDbEntity
  8
0
  6
CONTINUOUS
 62
     0
100
AcDbLine
 10
0.0
 20
0.0
 30
0.0
 11
-1.0
 21
0.0
 31
0.0
  0
CIRCLE
  5
8D
330
62
100
AcDbEntity
  8
0
  6
CONTINUOUS
 62
     0
100
AcDbCircle
 10
0.0
 20
0.0
 30
0.0
 40
0.5
  0
ENDBLK
  5
64
330
62
100
AcDbEntity
  8
0
100
AcDbBlockEnd
  0
BLOCK
  5
66
330
65
100
AcDbEntity
  8
0
100
AcDbBlockBegin
  2
EX_WCIR2
 70
     0
 10
0.0
 20
0.0
 30
0.0
  3
EX_WCIR2
  1

  0
LINE
  5
8E
330
65
100
AcDbEntity
  8
0
  6
CONTINUOUS
 62
     0
100
AcDbLine
 10
-0.5
 20
0.0
 30
0.0
 11
-1.0
 21
0.0
 31
0.0
  0
CIRCLE
  5
8F
330
65
100
AcDbEntity
  8
0
  6
CONTINUOUS
 62
     0
100
AcDbCircle
 10
0.0
 20
0.0
 30
0.0
 40
0.5
  0
ENDBLK
  5
67
330
65
100
AcDbEntity
  8
0
100
AcDbBlockEnd
  0
BLOCK
  5
69
330
68
100
AcDbEntity
  8
0
100
AcDbBlockBegin
  2
EX_WNORM
 70
     0
 10
0.0
 20
0.0
 30
0.0
  3
EX_WNORM
  1

  0
LINE
  5
90
330
68
100
AcDbEntity
  8
0
  6
CONTINUOUS
 62
     0
100
AcDbLine
 10
-1.0
 20
0.0
 30
0.0
 11
-1.0
 21
0.0
 31
0.0
  0
LINE
  5
91
330
68
100
AcDbEntity
  8
0
  6
CONTINUOUS
 62
     0
100
AcDbLine
 10
0.0
 20
0.0
 30
0.0
 11
-1.0
 21
0.166666667
 31
0.0
  0
LINE
  5
92
330
68
100
AcDbEntity
  8
0
  6
CONTINUOUS
 62
     0
100
AcDbLine
 10
0.0
 20
0.0
 30
0.0
 11
-1.0
 21
-0.166666667
 31
0.0
  0
LINE
  5
93
330
68
100
AcDbEntity
  8
0
  6
CONTINUOUS
 62
     0
100
AcDbLine
 10
-1.0
 20
0.166666667
 30
0.0
 11
-1.0
 21
-0.166666667
 31
0.0
  0
ENDBLK
  5
6A
330
68
100
AcDbEntity
  8
0
100
AcDbBlockEnd
  0
BLOCK
  5
6C
330
6B
100
AcDbEntity
  8
0
100
AcDbBlockBegin
  2
EX_NNORM
 70
     0
 10
0.0
 20
0.0
 30
0.0
  3
EX_NNORM
  1

  0
LINE
  5
94
330
6B
100
AcDbEntity
  8
0
  6
CONTINUOUS
 62
     0
100
AcDbLine
 10
0.0
 20
0.0
 30
0.0
 11
-1.0
 21
0.0
 31
0.0
  0
LINE
  5
95
330
6B
100
AcDbEntity
  8
0
  6
CONTINUOUS
 62
     0
100
AcDbLine
 10
0.0
 20
0.0
 30
0.0
 11
-1.0
 21
0.166666667
 31
0.0
  0
LINE
  5
96
330
6B
100
AcDbEntity
  8
0
  6
CONTINUOUS
 62
     0
100
AcDbLine
 10
0.0
 20
0.0
 30
0.0
 11
-1.0
 21
-0.166666667
 31
0.0
  0
LINE
  5
97
330
6B
100
AcDbEntity
  8
0
  6
CONTINUOUS
 62
     0
100
AcDbLine
 10
-1.0
 20
0.166666667
 30
0.0
 11
-1.0
 21
-0.166666667
 31
0.0
  0
ENDBLK
  5
6D
330
6B
100
AcDbEntity
  8
0
100
AcDbBlockEnd
  0
BLOCK
  5
6F
330
6E
100
AcDbEntity
  8
0
100
AcDbBlockBegin
  2
EX_BBOX
 70
     0
 10
0.0
 20
0.0
 30
0.0
  3
EX_BBOX
  1

  0
LINE
  5
98
330
6E
100
AcDbEntity
  8
0
  6
CONTINUOUS
 62
     0
100
AcDbLine
 10
0.0
 20
0.0
 30
0.0
 11
-1.0
 21
0.0
 31
0.0
  0
LINE
  5
99
330
6E
100
AcDbEntity
  8
0
  6
CONTINUOUS
 62
     0
100
AcDbLine
 10
-0.5
 20
0.5
 30
0.0
 11
0.5
 21
0.5
 31
0.0
  0
LINE
  5
9A
330
6E
100
AcDbEntity
  8
0
  6
CONTINUOUS
 62
     0
100
AcDbLine
 10
0.5
 20
0.5
 30
0.0
 11
0.5
 21
-0.5
 31
0.0
  0
LINE
  5
9B
330
6E
100
AcDbEntity
  8
0
  6
CONTINUOUS
 62
     0
100
AcDbLine
 10
0.5
 20
-0.5
 30
0.0
 11
-0.5
 21
-0.5
 31
0.0
  0
LINE
  5
9C
330
6E
100
AcDbEntity
  8
0
  6
CONTINUOUS
 62
     0
100
AcDbLine
 10
-0.5
 20
-0.5
 30
0.0
 11
-0.5
 21
0.5
 31
0.0
  0
LINE
  5
9D
330
6E
100
AcDbEntity
  8
0
  6
CONTINUOUS
 62
     0
100
AcDbLine
 10
-0.25
 20
0.25
 30
0.0
 11
0.25
 21
0.25
 31
0.0
  0
LINE
  5
9E
330
6E
100
AcDbEntity
  8
0
  6
CONTINUOUS
 62
     0
100
AcDbLine
 10
0.25
 20
0.25
 30
0.0
 11
0.25
 21
-0.25
 31
0.0
  0
LINE
  5
9F
330
6E
100
AcDbEntity
  8
0
  6
CONTINUOUS
 62
     0
100
AcDbLine
 10
0.25
 20
-0.25
 30
0.0
 11
-0.25
 21
-0.25
 31
0.0
  0
LINE
  5
A0
330
6E
100
AcDbEntity
  8
0
  6
CONTINUOUS
 62
     0
100
AcDbLine
 10
-0.25
 20
-0.25
 30
0.0
 11
-0.25
 21
0.25
 31
0.0
  0
ENDBLK
  5
70
330
6E
100
AcDbEntity
  8
0
100
AcDbBlockEnd
  0
BLOCK
  5
72
330
71
100
AcDbEntity
  8
0
100
AcDbBlockBegin
  2
EX_WBOX
 70
     0
 10
0.0
 20
0.0
 30
0.0
  3
EX_WBOX
  1

  0
LINE
  5
A1
330
71
100
AcDbEntity
  8
0
  6
CONTINUOUS
 62
     0
100
AcDbLine
 10
-0.5
 20
0.0
 30
0.0
 11
-1.0
 21
0.0
 31
0.0
  0
LINE
  5
A2
330
71
100
AcDbEntity
  8
0
  6
CONTINUOUS
 62
     0
100
AcDbLine
 10
-0.5
 20
0.5
 30
0.0
 11
0.5
 21
0.5
 31
0.0
  0
LINE
  5
A3
330
71
100
AcDbEntity
  8
0
  6
CONTINUOUS
 62
     0
100
AcDbLine
 10
0.5
 20
0.5
 30
0.0
 11
0.5
 21
-0.5
 31
0.0
  0
LINE
  5
A4
330
71
100
AcDbEntity
  8
0
  6
CONTINUOUS
 62
     0
100
AcDbLine
 10
0.5
 20
-0.5
 30
0.0
 11
-0.5
 21
-0.5
 31
0.0
  0
LINE
  5
A5
330
71
100
AcDbEntity
  8
0
  6
CONTINUOUS
 62
     0
100
AcDbLine
 10
-0.5
 20
-0.5
 30
0.0
 11
-0.5
 21
0.5
 31
0.0
  0
ENDBLK
  5
73
330
71
100
AcDbEntity
  8
0
100
AcDbBlockEnd
  0
BLOCK
  5
75
330
74
100
AcDbEntity
  8
0
100
AcDbBlockBegin
  2
EX_INTEGRAL
 70
     0
 10
0.0
 20
0.0
 30
0.0
  3
EX_INTEGRAL
  1

  0
LINE
  5
A6
330
74
100
AcDbEntity
  8
0
  6
CONTINUOUS
 62
     0
100
AcDbLine
 10
0.0
 20
0.0
 30
0.0
 11
-1.0
 21
0.0
 31
0.0
  0
ARC
  5
A7
330
74
100
AcDbEntity
  8
0
  6
CONTINUOUS
 62
     0
100
AcDbCircle
 10
0.542115
 20
0.164992
 30
0.0
 40
0.56667
100
AcDbArc
 50
73.07249033629006
 51
196.9275130221199
  0
ARC
  5
A8
330
74
100
AcDbEntity
  8
0
  6
CONTINUOUS
 62
     0
100
AcDbCircle
 10
-0.542115
 20
-0.164992
 30
0.0
 40
0.56667
100
AcDbArc
 50
253.0724869220464
 51
16.9275130559125
  0
ENDBLK
  5
76
330
74
100
AcDbEntity
  8
0
100
AcDbBlockEnd
  0
BLOCK
  5
395
330
394
100
AcDbEntity
  8
0
100
AcDbBlockBegin
  2
*D15
 70
     1
 10
0.0
 20
0.0
 30
0.0
  3
*D15
  1

  0
LINE
  5
397
330
394
100
AcDbEntity
  8
寸法
  6
CONTINUOUS
 62
     3
100
AcDbLine
 10
686.0000000001185
 20
3324.500000178814
 30
0.0
 11
686.0000000001185
 21
3190.000000000051
 31
0.0
  0
LINE
  5
398
330
394
100
AcDbEntity
  8
寸法
  6
CONTINUOUS
 62
     3
100
AcDbLine
 10
1236.000000000117
 20
3324.500000178814
 30
0.0
 11
1236.000000000117
 21
3190.000000000051
 31
0.0
  0
LINE
  5
399
330
394
100
AcDbEntity
  8
寸法
  6
CONTINUOUS
 62
     3
100
AcDbLine
 10
730.9999961854212
 20
3205.000000000051
 30
0.0
 11
1191.000003814814
 21
3205.000000000051
 31
0.0
  0
INSERT
  5
39A
330
394
100
AcDbEntity
  8
寸法
 62
     3
100
AcDbBlockReference
  2
EX_NORM
 10
686.0000000001185
 20
3205.000000000051
 30
0.0
 41
44.99999618530273
 42
44.99999618530273
 43
44.99999618530273
 50
180.0
  0
INSERT
  5
39B
330
394
100
AcDbEntity
  8
寸法
 62
     3
100
AcDbBlockReference
  2
EX_NORM
 10
1236.000000000117
 20
3205.000000000051
 30
0.0
 41
44.99999618530273
 42
44.99999618530273
 43
44.99999618530273
  0
MTEXT
  5
39C
330
394
100
AcDbEntity
  8
寸法
 62
     2
100
AcDbMText
 10
961.0000000001178
 20
3240.249999910644
 30
0.0
 40
59.99999618530273
 41
0.0
 71
     5
 72
     1
  1
550
  7
EXCADDIM1
  0
POINT
  5
39D
330
394
100
AcDbEntity
  8
DEFPOINTS
 62
     0
100
AcDbPoint
 10
686.0000000001185
 20
3335.0
 30
0.0
  0
POINT
  5
39E
330
394
100
AcDbEntity
  8
DEFPOINTS
 62
     0
100
AcDbPoint
 10
1236.000000000117
 20
3335.0
 30
0.0
  0
POINT
  5
39F
330
394
100
AcDbEntity
  8
DEFPOINTS
 62
     0
100
AcDbPoint
 10
1236.000000000117
 20
3205.000000000051
 30
0.0
  0
ENDBLK
  5
396
330
394
100
AcDbEntity
  8
0
100
AcDbBlockEnd
  0
BLOCK
  5
3A2
330
3A1
100
AcDbEntity
  8
0
100
AcDbBlockBegin
  2
*D16
 70
     1
 10
0.0
 20
0.0
 30
0.0
  3
*D16
  1

  0
LINE
  5
3A4
330
3A1
100
AcDbEntity
  8
寸法
  6
CONTINUOUS
 62
     3
100
AcDbLine
 10
661.0000000001185
 20
3364.500000178814
 30
0.0
 11
661.0000000001185
 21
3100.000000000051
 31
0.0
  0
LINE
  5
3A5
330
3A1
100
AcDbEntity
  8
寸法
  6
CONTINUOUS
 62
     3
100
AcDbLine
 10
1261.000000000117
 20
3364.500000178814
 30
0.0
 11
1261.000000000117
 21
3100.000000000051
 31
0.0
  0
LINE
  5
3A6
330
3A1
100
AcDbEntity
  8
寸法
  6
CONTINUOUS
 62
     3
100
AcDbLine
 10
705.9999961854212
 20
3115.000000000051
 30
0.0
 11
1216.000003814814
 21
3115.000000000051
 31
0.0
  0
INSERT
  5
3A7
330
3A1
100
AcDbEntity
  8
寸法
 62
     3
100
AcDbBlockReference
  2
EX_NORM
 10
661.0000000001185
 20
3115.000000000051
 30
0.0
 41
44.99999618530273
 42
44.99999618530273
 43
44.99999618530273
 50
180.0
  0
INSERT
  5
3A8
330
3A1
100
AcDbEntity
  8
寸法
 62
     3
100
AcDbBlockReference
  2
EX_NORM
 10
1261.000000000117
 20
3115.000000000051
 30
0.0
 41
44.99999618530273
 42
44.99999618530273
 43
44.99999618530273
  0
MTEXT
  5
3A9
330
3A1
100
AcDbEntity
  8
寸法
 62
     2
100
AcDbMText
 10
961.0000000001178
 20
3150.249999910644
 30
0.0
 40
59.99999618530273
 41
0.0
 71
     5
 72
     1
  1
600
  7
EXCADDIM1
  0
POINT
  5
3AA
330
3A1
100
AcDbEntity
  8
DEFPOINTS
 62
     0
100
AcDbPoint
 10
661.0000000001185
 20
3375.0
 30
0.0
  0
POINT
  5
3AB
330
3A1
100
AcDbEntity
  8
DEFPOINTS
 62
     0
100
AcDbPoint
 10
1261.000000000117
 20
3375.0
 30
0.0
  0
POINT
  5
3AC
330
3A1
100
AcDbEntity
  8
DEFPOINTS
 62
     0
100
AcDbPoint
 10
1261.000000000117
 20
3115.000000000051
 30
0.0
  0
ENDBLK
  5
3A3
330
3A1
100
AcDbEntity
  8
0
100
AcDbBlockEnd
  0
BLOCK
  5
3AF
330
3AE
100
AcDbEntity
  8
0
100
AcDbBlockBegin
  2
*D17
 70
     1
 10
0.0
 20
0.0
 30
0.0
  3
*D17
  1

  0
LINE
  5
3B1
330
3AE
100
AcDbEntity
  8
寸法
  6
CONTINUOUS
 62
     3
100
AcDbLine
 10
1271.499999821303
 20
3375.0
 30
0.0
 11
1396.000000000118
 21
3375.0
 31
0.0
  0
LINE
  5
3B2
330
3AE
100
AcDbEntity
  8
寸法
  6
CONTINUOUS
 62
     3
100
AcDbLine
 10
1381.000000000118
 20
3780.000003814697
 30
0.0
 11
1381.000000000118
 21
3419.999996185303
 31
0.0
  0
INSERT
  5
3B3
330
3AE
100
AcDbEntity
  8
寸法
 62
     3
100
AcDbBlockReference
  2
EX_NORM
 10
1381.000000000118
 20
3825.0
 30
0.0
 41
44.99999618530273
 42
44.99999618530273
 43
44.99999618530273
 50
90.0
  0
INSERT
  5
3B4
330
3AE
100
AcDbEntity
  8
寸法
 62
     3
100
AcDbBlockReference
  2
EX_NORM
 10
1381.000000000118
 20
3375.0
 30
0.0
 41
44.99999618530273
 42
44.99999618530273
 43
44.99999618530273
 50
270.0
  0
MTEXT
  5
3B5
330
3AE
100
AcDbEntity
  8
寸法
 62
     2
100
AcDbMText
 10
1345.750000089527
 20
3600.0
 30
0.0
 40
59.99999618530273
 41
0.0
 71
     5
 72
     1
  1
450
  7
EXCADDIM1
 11
0.0
 21
1.0
 31
0.0
  0
POINT
  5
3B6
330
3AE
100
AcDbEntity
  8
DEFPOINTS
 62
     0
100
AcDbPoint
 10
1261.000000000117
 20
3825.0
 30
0.0
  0
POINT
  5
3B7
330
3AE
100
AcDbEntity
  8
DEFPOINTS
 62
     0
100
AcDbPoint
 10
1261.000000000117
 20
3375.0
 30
0.0
  0
POINT
  5
3B8
330
3AE
100
AcDbEntity
  8
DEFPOINTS
 62
     0
100
AcDbPoint
 10
1381.000000000118
 20
3375.0
 30
0.0
  0
ENDBLK
  5
3B0
330
3AE
100
AcDbEntity
  8
0
100
AcDbBlockEnd
  0
BLOCK
  5
3BB
330
3BA
100
AcDbEntity
  8
0
100
AcDbBlockBegin
  2
*D18
 70
     1
 10
0.0
 20
0.0
 30
0.0
  3
*D18
  1

  0
LINE
  5
3BD
330
3BA
100
AcDbEntity
  8
寸法
  6
CONTINUOUS
 62
     3
100
AcDbLine
 10
1236.499999821303
 20
3325.0
 30
0.0
 11
1486.000000000118
 21
3325.0
 31
0.0
  0
LINE
  5
3BE
330
3BA
100
AcDbEntity
  8
寸法
  6
CONTINUOUS
 62
     3
100
AcDbLine
 10
1471.000000000118
 20
3780.000003814697
 30
0.0
 11
1471.000000000118
 21
3369.999996185303
 31
0.0
  0
INSERT
  5
3BF
330
3BA
100
AcDbEntity
  8
寸法
 62
     3
100
AcDbBlockReference
  2
EX_NORM
 10
1471.000000000118
 20
3825.0
 30
0.0
 41
44.99999618530273
 42
44.99999618530273
 43
44.99999618530273
 50
90.0
  0
INSERT
  5
3C0
330
3BA
100
AcDbEntity
  8
寸法
 62
     3
100
AcDbBlockReference
  2
EX_NORM
 10
1471.000000000118
 20
3325.0
 30
0.0
 41
44.99999618530273
 42
44.99999618530273
 43
44.99999618530273
 50
270.0
  0
MTEXT
  5
3C1
330
3BA
100
AcDbEntity
  8
寸法
 62
     2
100
AcDbMText
 10
1435.750000089527
 20
3575.0
 30
0.0
 40
59.99999618530273
 41
0.0
 71
     5
 72
     1
  1
500
  7
EXCADDIM1
 11
0.0
 21
1.0
 31
0.0
  0
POINT
  5
3C2
330
3BA
100
AcDbEntity
  8
DEFPOINTS
 62
     0
100
AcDbPoint
 10
1261.000000000117
 20
3825.0
 30
0.0
  0
POINT
  5
3C3
330
3BA
100
AcDbEntity
  8
DEFPOINTS
 62
     0
100
AcDbPoint
 10
1226.000000000117
 20
3325.0
 30
0.0
  0
POINT
  5
3C4
330
3BA
100
AcDbEntity
  8
DEFPOINTS
 62
     0
100
AcDbPoint
 10
1471.000000000118
 20
3325.0
 30
0.0
  0
ENDBLK
  5
3BC
330
3BA
100
AcDbEntity
  8
0
100
AcDbBlockEnd
  0
BLOCK
  5
3C7
330
3C6
100
AcDbEntity
  8
0
100
AcDbBlockBegin
  2
*D19
 70
     1
 10
0.0
 20
0.0
 30
0.0
  3
*D19
  1

  0
LINE
  5
3C9
330
3C6
100
AcDbEntity
  8
寸法
  6
CONTINUOUS
 62
     3
100
AcDbLine
 10
861.0000000001148
 20
3843.499999821186
 30
0.0
 11
861.0000000001148
 21
3929.999999999999
 31
0.0
  0
LINE
  5
3CA
330
3C6
100
AcDbEntity
  8
寸法
  6
CONTINUOUS
 62
     3
100
AcDbLine
 10
1061.000000000118
 20
3848.999999821186
 30
0.0
 11
1061.000000000118
 21
3929.999999999999
 31
0.0
  0
LINE
  5
3CB
330
3C6
100
AcDbEntity
  8
寸法
  6
CONTINUOUS
 62
     3
100
AcDbLine
 10
905.9999961854176
 20
3914.999999999999
 30
0.0
 11
1016.000003814816
 21
3914.999999999999
 31
0.0
  0
INSERT
  5
3CC
330
3C6
100
AcDbEntity
  8
寸法
 62
     3
100
AcDbBlockReference
  2
EX_NORM
 10
861.0000000001148
 20
3914.999999999999
 30
0.0
 41
44.99999618530273
 42
44.99999618530273
 43
44.99999618530273
 50
180.0
  0
INSERT
  5
3CD
330
3C6
100
AcDbEntity
  8
寸法
 62
     3
100
AcDbBlockReference
  2
EX_NORM
 10
1061.000000000118
 20
3914.999999999999
 30
0.0
 41
44.99999618530273
 42
44.99999618530273
 43
44.99999618530273
  0
MTEXT
  5
3CE
330
3C6
100
AcDbEntity
  8
寸法
 62
     2
100
AcDbMText
 10
628.5000000001152
 20
3950.249999910592
 30
0.0
 40
59.99999618530273
 41
0.0
 71
     5
 72
     1
  1
200（壁給水）
  7
EXCADDIM1
  0
POINT
  5
3CF
330
3C6
100
AcDbEntity
  8
DEFPOINTS
 62
     0
100
AcDbPoint
 10
861.0000000001148
 20
3833.0
 30
0.0
  0
POINT
  5
3D0
330
3C6
100
AcDbEntity
  8
DEFPOINTS
 62
     0
100
AcDbPoint
 10
1061.000000000118
 20
3838.5
 30
0.0
  0
POINT
  5
3D1
330
3C6
100
AcDbEntity
  8
DEFPOINTS
 62
     0
100
AcDbPoint
 10
1061.000000000118
 20
3914.999999999999
 30
0.0
  0
ENDBLK
  5
3C8
330
3C6
100
AcDbEntity
  8
0
100
AcDbBlockEnd
  0
BLOCK
  5
3D4
330
3D3
100
AcDbEntity
  8
0
100
AcDbBlockBegin
  2
*D20
 70
     1
 10
0.0
 20
0.0
 30
0.0
  3
*D20
  1

  0
LINE
  5
3D6
330
3D3
100
AcDbEntity
  8
寸法
  6
CONTINUOUS
 62
     3
100
AcDbLine
 10
961.0000000001185
 20
3835.499999821186
 30
0.0
 11
961.0000000001185
 21
4019.999999999999
 31
0.0
  0
LINE
  5
3D7
330
3D3
100
AcDbEntity
  8
寸法
  6
CONTINUOUS
 62
     3
100
AcDbLine
 10
1161.000000000118
 20
3885.499999821186
 30
0.0
 11
1161.000000000118
 21
4019.999999999999
 31
0.0
  0
LINE
  5
3D8
330
3D3
100
AcDbEntity
  8
寸法
  6
CONTINUOUS
 62
     3
100
AcDbLine
 10
1005.999996185421
 20
4004.999999999999
 30
0.0
 11
1116.000003814816
 21
4004.999999999999
 31
0.0
  0
INSERT
  5
3D9
330
3D3
100
AcDbEntity
  8
寸法
 62
     3
100
AcDbBlockReference
  2
EX_NORM
 10
961.0000000001185
 20
4004.999999999999
 30
0.0
 41
44.99999618530273
 42
44.99999618530273
 43
44.99999618530273
 50
180.0
  0
INSERT
  5
3DA
330
3D3
100
AcDbEntity
  8
寸法
 62
     3
100
AcDbBlockReference
  2
EX_NORM
 10
1161.000000000118
 20
4004.999999999999
 30
0.0
 41
44.99999618530273
 42
44.99999618530273
 43
44.99999618530273
  0
MTEXT
  5
3DB
330
3D3
100
AcDbEntity
  8
寸法
 62
     2
100
AcDbMText
 10
728.5000000001186
 20
4040.249999910592
 30
0.0
 40
59.99999618530273
 41
0.0
 71
     5
 72
     1
  1
200（壁排水）
  7
EXCADDIM1
  0
POINT
  5
3DC
330
3D3
100
AcDbEntity
  8
DEFPOINTS
 62
     0
100
AcDbPoint
 10
961.0000000001185
 20
3825.0
 30
0.0
  0
POINT
  5
3DD
330
3D3
100
AcDbEntity
  8
DEFPOINTS
 62
     0
100
AcDbPoint
 10
1161.000000000118
 20
3875.0
 30
0.0
  0
POINT
  5
3DE
330
3D3
100
AcDbEntity
  8
DEFPOINTS
 62
     0
100
AcDbPoint
 10
1161.000000000118
 20
4004.999999999999
 30
0.0
  0
ENDBLK
  5
3D5
330
3D3
100
AcDbEntity
  8
0
100
AcDbBlockEnd
  0
BLOCK
  5
3E1
330
3E0
100
AcDbEntity
  8
0
100
AcDbBlockBegin
  2
*D21
 70
     1
 10
0.0
 20
0.0
 30
0.0
  3
*D21
  1

  0
LINE
  5
3E3
330
3E0
100
AcDbEntity
  8
寸法
  6
CONTINUOUS
 62
     3
100
AcDbLine
 10
2551.499999821306
 20
1349.5
 30
0.0
 11
2716.00000000012
 21
1349.5
 31
0.0
  0
LINE
  5
3E4
330
3E0
100
AcDbEntity
  8
寸法
  6
CONTINUOUS
 62
     3
100
AcDbLine
 10
2701.00000000012
 20
964.4999961853026
 30
0.0
 11
2701.00000000012
 21
1304.500003814697
 31
0.0
  0
INSERT
  5
3E5
330
3E0
100
AcDbEntity
  8
寸法
 62
     3
100
AcDbBlockReference
  2
EX_NORM
 10
2701.00000000012
 20
919.4999999999999
 30
0.0
 41
44.99999618530273
 42
44.99999618530273
 43
44.99999618530273
 50
270.0
  0
INSERT
  5
3E6
330
3E0
100
AcDbEntity
  8
寸法
 62
     3
100
AcDbBlockReference
  2
EX_NORM
 10
2701.00000000012
 20
1349.5
 30
0.0
 41
44.99999618530273
 42
44.99999618530273
 43
44.99999618530273
 50
90.0
  0
MTEXT
  5
3E7
330
3E0
100
AcDbEntity
  8
寸法
 62
     2
100
AcDbMText
 10
2665.750000089527
 20
1134.499999999998
 30
0.0
 40
59.99999618530273
 41
0.0
 71
     5
 72
     1
  1
430（壁排水）
  7
EXCADDIM1
 11
0.0
 21
1.0
 31
0.0
  0
POINT
  5
3E8
330
3E0
100
AcDbEntity
  8
DEFPOINTS
 62
     0
100
AcDbPoint
 10
2491.00000000012
 20
919.5
 30
0.0
  0
POINT
  5
3E9
330
3E0
100
AcDbEntity
  8
DEFPOINTS
 62
     0
100
AcDbPoint
 10
2541.00000000012
 20
1349.5
 30
0.0
  0
POINT
  5
3EA
330
3E0
100
AcDbEntity
  8
DEFPOINTS
 62
     0
100
AcDbPoint
 10
2701.00000000012
 20
1349.5
 30
0.0
  0
ENDBLK
  5
3E2
330
3E0
100
AcDbEntity
  8
0
100
AcDbBlockEnd
  0
BLOCK
  5
3ED
330
3EC
100
AcDbEntity
  8
0
100
AcDbBlockBegin
  2
*D22
 70
     1
 10
0.0
 20
0.0
 30
0.0
  3
*D22
  1

  0
LINE
  5
3EF
330
3EC
100
AcDbEntity
  8
寸法
  6
CONTINUOUS
 62
     3
100
AcDbLine
 10
2611.00000000012
 20
964.4999961853026
 30
0.0
 11
2611.00000000012
 21
1304.500003814697
 31
0.0
  0
INSERT
  5
3F0
330
3EC
100
AcDbEntity
  8
寸法
 62
     3
100
AcDbBlockReference
  2
EX_NORM
 10
2611.00000000012
 20
919.4999999999999
 30
0.0
 41
44.99999618530273
 42
44.99999618530273
 43
44.99999618530273
 50
270.0
  0
INSERT
  5
3F1
330
3EC
100
AcDbEntity
  8
寸法
 62
     3
100
AcDbBlockReference
  2
EX_NORM
 10
2611.00000000012
 20
1349.5
 30
0.0
 41
44.99999618530273
 42
44.99999618530273
 43
44.99999618530273
 50
90.0
  0
MTEXT
  5
3F2
330
3EC
100
AcDbEntity
  8
寸法
 62
     2
100
AcDbMText
 10
2575.750000089527
 20
1134.499999999998
 30
0.0
 40
59.99999618530273
 41
0.0
 71
     5
 72
     1
  1
430（壁給水）
  7
EXCADDIM1
 11
0.0
 21
1.0
 31
0.0
  0
POINT
  5
3F3
330
3EC
100
AcDbEntity
  8
DEFPOINTS
 62
     0
100
AcDbPoint
 10
2491.00000000012
 20
919.5
 30
0.0
  0
POINT
  5
3F4
330
3EC
100
AcDbEntity
  8
DEFPOINTS
 62
     0
100
AcDbPoint
 10
2541.00000000012
 20
1349.5
 30
0.0
  0
POINT
  5
3F5
330
3EC
100
AcDbEntity
  8
DEFPOINTS
 62
     0
100
AcDbPoint
 10
2611.00000000012
 20
1349.5
 30
0.0
  0
ENDBLK
  5
3EE
330
3EC
100
AcDbEntity
  8
0
100
AcDbBlockEnd
  0
BLOCK
  5
3F8
330
3F7
100
AcDbEntity
  8
0
100
AcDbBlockBegin
  2
*D23
 70
     1
 10
0.0
 20
0.0
 30
0.0
  3
*D23
  1

  0
LINE
  5
3FA
330
3F7
100
AcDbEntity
  8
寸法
  6
CONTINUOUS
 62
     3
100
AcDbLine
 10
2501.499999821306
 20
919.5
 30
0.0
 11
2806.00000000012
 21
919.4999999999999
 31
0.0
  0
LINE
  5
3FB
330
3F7
100
AcDbEntity
  8
寸法
  6
CONTINUOUS
 62
     3
100
AcDbLine
 10
2534.000005543206
 20
1499.5
 30
0.0
 11
2806.00000000012
 21
1499.5
 31
0.0
  0
LINE
  5
3FC
330
3F7
100
AcDbEntity
  8
寸法
  6
CONTINUOUS
 62
     3
100
AcDbLine
 10
2791.00000000012
 20
964.4999961853026
 30
0.0
 11
2791.00000000012
 21
1454.500003814697
 31
0.0
  0
INSERT
  5
3FD
330
3F7
100
AcDbEntity
  8
寸法
 62
     3
100
AcDbBlockReference
  2
EX_NORM
 10
2791.00000000012
 20
919.4999999999999
 30
0.0
 41
44.99999618530273
 42
44.99999618530273
 43
44.99999618530273
 50
270.0
  0
INSERT
  5
3FE
330
3F7
100
AcDbEntity
  8
寸法
 62
     3
100
AcDbBlockReference
  2
EX_NORM
 10
2791.00000000012
 20
1499.5
 30
0.0
 41
44.99999618530273
 42
44.99999618530273
 43
44.99999618530273
 50
90.0
  0
MTEXT
  5
3FF
330
3F7
100
AcDbEntity
  8
寸法
 62
     2
100
AcDbMText
 10
2755.750000089527
 20
1209.499999999998
 30
0.0
 40
59.99999618530273
 41
0.0
 71
     5
 72
     1
  1
580（壁固定）
  7
EXCADDIM1
 11
0.0
 21
1.0
 31
0.0
  0
POINT
  5
400
330
3F7
100
AcDbEntity
  8
DEFPOINTS
 62
     0
100
AcDbPoint
 10
2491.00000000012
 20
919.5
 30
0.0
  0
POINT
  5
401
330
3F7
100
AcDbEntity
  8
DEFPOINTS
 62
     0
100
AcDbPoint
 10
2523.50000572202
 20
1499.5
 30
0.0
  0
POINT
  5
402
330
3F7
100
AcDbEntity
  8
DEFPOINTS
 62
     0
100
AcDbPoint
 10
2791.00000000012
 20
1499.5
 30
0.0
  0
ENDBLK
  5
3F9
330
3F7
100
AcDbEntity
  8
0
100
AcDbBlockEnd
  0
BLOCK
  5
405
330
404
100
AcDbEntity
  8
0
100
AcDbBlockBegin
  2
*D24
 70
     1
 10
0.0
 20
0.0
 30
0.0
  3
*D24
  1

  0
LINE
  5
407
330
404
100
AcDbEntity
  8
寸法
  6
CONTINUOUS
 62
     3
100
AcDbLine
 10
2391.000000000118
 20
859.0000001786939
 30
0.0
 11
2391.000000000118
 21
694.5
 31
0.0
  0
LINE
  5
408
330
404
100
AcDbEntity
  8
寸法
  6
CONTINUOUS
 62
     3
100
AcDbLine
 10
2435.999996185421
 20
709.5
 30
0.0
 11
2446.000003814817
 21
709.5
 31
0.0
  0
INSERT
  5
409
330
404
100
AcDbEntity
  8
寸法
 62
     3
100
AcDbBlockReference
  2
EX_NORM
 10
2391.000000000118
 20
709.5
 30
0.0
 41
44.99999618530273
 42
44.99999618530273
 43
44.99999618530273
 50
180.0
  0
INSERT
  5
40A
330
404
100
AcDbEntity
  8
寸法
 62
     3
100
AcDbBlockReference
  2
EX_NORM
 10
2491.00000000012
 20
709.5
 30
0.0
 41
44.99999618530273
 42
44.99999618530273
 43
44.99999618530273
  0
MTEXT
  5
40B
330
404
100
AcDbEntity
  8
寸法
 62
     2
100
AcDbMText
 10
2723.50000000012
 20
744.749999910593
 30
0.0
 40
59.99999618530273
 41
0.0
 71
     5
 72
     1
  1
100（床排水）
  7
EXCADDIM1
  0
POINT
  5
40C
330
404
100
AcDbEntity
  8
DEFPOINTS
 62
     0
100
AcDbPoint
 10
2391.000000000118
 20
869.49999999988
 30
0.0
  0
POINT
  5
40D
330
404
100
AcDbEntity
  8
DEFPOINTS
 62
     0
100
AcDbPoint
 10
2491.00000000012
 20
919.5
 30
0.0
  0
POINT
  5
40E
330
404
100
AcDbEntity
  8
DEFPOINTS
 62
     0
100
AcDbPoint
 10
2491.00000000012
 20
709.5
 30
0.0
  0
ENDBLK
  5
406
330
404
100
AcDbEntity
  8
0
100
AcDbBlockEnd
  0
BLOCK
  5
411
330
410
100
AcDbEntity
  8
0
100
AcDbBlockBegin
  2
*D25
 70
     1
 10
0.0
 20
0.0
 30
0.0
  3
*D25
  1

  0
LINE
  5
413
330
410
100
AcDbEntity
  8
寸法
  6
CONTINUOUS
 62
     3
100
AcDbLine
 10
1141.000000000118
 20
1485.200000178913
 30
0.0
 11
1141.000000000118
 21
1208.5
 31
0.0
  0
LINE
  5
414
330
410
100
AcDbEntity
  8
寸法
  6
CONTINUOUS
 62
     3
100
AcDbLine
 10
825.9999961854012
 20
1223.5
 30
0.0
 11
1096.000003814816
 21
1223.5
 31
0.0
  0
INSERT
  5
415
330
410
100
AcDbEntity
  8
寸法
 62
     3
100
AcDbBlockReference
  2
EX_NORM
 10
781.0000000000985
 20
1223.5
 30
0.0
 41
44.99999618530273
 42
44.99999618530273
 43
44.99999618530273
 50
180.0
  0
INSERT
  5
416
330
410
100
AcDbEntity
  8
寸法
 62
     3
100
AcDbBlockReference
  2
EX_NORM
 10
1141.000000000118
 20
1223.5
 30
0.0
 41
44.99999618530273
 42
44.99999618530273
 43
44.99999618530273
  0
MTEXT
  5
417
330
410
100
AcDbEntity
  8
寸法
 62
     2
100
AcDbMText
 10
971.0000000001085
 20
1258.749999910593
 30
0.0
 40
59.99999618530273
 41
0.0
 71
     5
 72
     1
  1
360（壁固定）
  7
EXCADDIM1
  0
POINT
  5
418
330
410
100
AcDbEntity
  8
DEFPOINTS
 62
     0
100
AcDbPoint
 10
781.0000000000985
 20
1495.700000000099
 30
0.0
  0
POINT
  5
419
330
410
100
AcDbEntity
  8
DEFPOINTS
 62
     0
100
AcDbPoint
 10
1141.000000000118
 20
1495.700000000099
 30
0.0
  0
POINT
  5
41A
330
410
100
AcDbEntity
  8
DEFPOINTS
 62
     0
100
AcDbPoint
 10
1141.000000000118
 20
1223.5
 30
0.0
  0
ENDBLK
  5
412
330
410
100
AcDbEntity
  8
0
100
AcDbBlockEnd
  0
BLOCK
  5
41D
330
41C
100
AcDbEntity
  8
0
100
AcDbBlockBegin
  2
*D26
 70
     1
 10
0.0
 20
0.0
 30
0.0
  3
*D26
  1

  0
LINE
  5
41F
330
41C
100
AcDbEntity
  8
寸法
  6
CONTINUOUS
 62
     3
100
AcDbLine
 10
881.0000000001185
 20
901.0000001788139
 30
0.0
 11
881.0000000001185
 21
784.4999999999945
 31
0.0
  0
LINE
  5
420
330
41C
100
AcDbEntity
  8
寸法
  6
CONTINUOUS
 62
     3
100
AcDbLine
 10
1041.000000000118
 20
901.0000001788139
 30
0.0
 11
1041.000000000118
 21
784.4999999999945
 31
0.0
  0
LINE
  5
421
330
41C
100
AcDbEntity
  8
寸法
  6
CONTINUOUS
 62
     3
100
AcDbLine
 10
925.9999961854212
 20
799.4999999999945
 30
0.0
 11
996.0000038148157
 21
799.4999999999945
 31
0.0
  0
INSERT
  5
422
330
41C
100
AcDbEntity
  8
寸法
 62
     3
100
AcDbBlockReference
  2
EX_NORM
 10
881.0000000001185
 20
799.4999999999945
 30
0.0
 41
44.99999618530273
 42
44.99999618530273
 43
44.99999618530273
 50
180.0
  0
INSERT
  5
423
330
41C
100
AcDbEntity
  8
寸法
 62
     3
100
AcDbBlockReference
  2
EX_NORM
 10
1041.000000000118
 20
799.4999999999945
 30
0.0
 41
44.99999618530273
 42
44.99999618530273
 43
44.99999618530273
  0
MTEXT
  5
424
330
41C
100
AcDbEntity
  8
寸法
 62
     2
100
AcDbMText
 10
648.5000000001186
 20
834.7499999105876
 30
0.0
 40
59.99999618530273
 41
0.0
 71
     5
 72
     1
  1
160（床給水）
  7
EXCADDIM1
  0
POINT
  5
425
330
41C
100
AcDbEntity
  8
DEFPOINTS
 62
     0
100
AcDbPoint
 10
881.0000000001185
 20
911.5
 30
0.0
  0
POINT
  5
426
330
41C
100
AcDbEntity
  8
DEFPOINTS
 62
     0
100
AcDbPoint
 10
1041.000000000118
 20
911.5
 30
0.0
  0
POINT
  5
427
330
41C
100
AcDbEntity
  8
DEFPOINTS
 62
     0
100
AcDbPoint
 10
1041.000000000118
 20
799.4999999999945
 30
0.0
  0
ENDBLK
  5
41E
330
41C
100
AcDbEntity
  8
0
100
AcDbBlockEnd
  0
BLOCK
  5
42A
330
429
100
AcDbEntity
  8
0
100
AcDbBlockBegin
  2
*D27
 70
     1
 10
0.0
 20
0.0
 30
0.0
  3
*D27
  1

  0
LINE
  5
42C
330
429
100
AcDbEntity
  8
寸法
  6
CONTINUOUS
 62
     3
100
AcDbLine
 10
961.0000000001185
 20
909.0000001788139
 30
0.0
 11
961.0000000001185
 21
694.4999999999945
 31
0.0
  0
LINE
  5
42D
330
429
100
AcDbEntity
  8
寸法
  6
CONTINUOUS
 62
     3
100
AcDbLine
 10
1161.000000000118
 20
859.0000001786939
 30
0.0
 11
1161.000000000118
 21
694.4999999999945
 31
0.0
  0
LINE
  5
42E
330
429
100
AcDbEntity
  8
寸法
  6
CONTINUOUS
 62
     3
100
AcDbLine
 10
1005.999996185421
 20
709.4999999999945
 30
0.0
 11
1116.000003814816
 21
709.4999999999945
 31
0.0
  0
INSERT
  5
42F
330
429
100
AcDbEntity
  8
寸法
 62
     3
100
AcDbBlockReference
  2
EX_NORM
 10
961.0000000001185
 20
709.4999999999945
 30
0.0
 41
44.99999618530273
 42
44.99999618530273
 43
44.99999618530273
 50
180.0
  0
INSERT
  5
430
330
429
100
AcDbEntity
  8
寸法
 62
     3
100
AcDbBlockReference
  2
EX_NORM
 10
1161.000000000118
 20
709.4999999999945
 30
0.0
 41
44.99999618530273
 42
44.99999618530273
 43
44.99999618530273
  0
MTEXT
  5
431
330
429
100
AcDbEntity
  8
寸法
 62
     2
100
AcDbMText
 10
728.5000000001183
 20
744.7499999105876
 30
0.0
 40
59.99999618530273
 41
0.0
 71
     5
 72
     1
  1
200（床排水）
  7
EXCADDIM1
  0
POINT
  5
432
330
429
100
AcDbEntity
  8
DEFPOINTS
 62
     0
100
AcDbPoint
 10
961.0000000001185
 20
919.5
 30
0.0
  0
POINT
  5
433
330
429
100
AcDbEntity
  8
DEFPOINTS
 62
     0
100
AcDbPoint
 10
1161.000000000118
 20
869.49999999988
 30
0.0
  0
POINT
  5
434
330
429
100
AcDbEntity
  8
DEFPOINTS
 62
     0
100
AcDbPoint
 10
1161.000000000118
 20
709.4999999999945
 30
0.0
  0
ENDBLK
  5
42B
330
429
100
AcDbEntity
  8
0
100
AcDbBlockEnd
  0
BLOCK
  5
437
330
436
100
AcDbEntity
  8
0
100
AcDbBlockBegin
  2
*D28
 70
     1
 10
0.0
 20
0.0
 30
0.0
  3
*D28
  1

  0
LINE
  5
439
330
436
100
AcDbEntity
  8
寸法
  6
CONTINUOUS
 62
     3
100
AcDbLine
 10
1381.000000000114
 20
964.4999961853028
 30
0.0
 11
1381.000000000114
 21
1574.500003814697
 31
0.0
  0
INSERT
  5
43A
330
436
100
AcDbEntity
  8
寸法
 62
     3
100
AcDbBlockReference
  2
EX_NORM
 10
1381.000000000114
 20
919.5000000000001
 30
0.0
 41
44.99999618530273
 42
44.99999618530273
 43
44.99999618530273
 50
270.0
  0
INSERT
  5
43B
330
436
100
AcDbEntity
  8
寸法
 62
     3
100
AcDbBlockReference
  2
EX_NORM
 10
1381.000000000114
 20
1619.5
 30
0.0
 41
44.99999618530273
 42
44.99999618530273
 43
44.99999618530273
 50
90.0
  0
MTEXT
  5
43C
330
436
100
AcDbEntity
  8
寸法
 62
     2
100
AcDbMText
 10
1345.750000089521
 20
1269.5
 30
0.0
 40
59.99999618530273
 41
0.0
 71
     5
 72
     1
  1
700
  7
EXCADDIM1
 11
0.0
 21
1.0
 31
0.0
  0
POINT
  5
43D
330
436
100
AcDbEntity
  8
DEFPOINTS
 62
     0
100
AcDbPoint
 10
1259.000000000117
 20
919.5
 30
0.0
  0
POINT
  5
43E
330
436
100
AcDbEntity
  8
DEFPOINTS
 62
     0
100
AcDbPoint
 10
1261.000000000117
 20
1619.5
 30
0.0
  0
POINT
  5
43F
330
436
100
AcDbEntity
  8
DEFPOINTS
 62
     0
100
AcDbPoint
 10
1381.000000000114
 20
1619.5
 30
0.0
  0
ENDBLK
  5
438
330
436
100
AcDbEntity
  8
0
100
AcDbBlockEnd
  0
BLOCK
  5
442
330
441
100
AcDbEntity
  8
0
100
AcDbBlockBegin
  2
*D29
 70
     1
 10
0.0
 20
0.0
 30
0.0
  3
*D29
  1

  0
LINE
  5
444
330
441
100
AcDbEntity
  8
寸法
  6
CONTINUOUS
 62
     3
100
AcDbLine
 10
1241.499999821303
 20
1759.5
 30
0.0
 11
1486.000000000114
 21
1759.5
 31
0.0
  0
LINE
  5
445
330
441
100
AcDbEntity
  8
寸法
  6
CONTINUOUS
 62
     3
100
AcDbLine
 10
1471.000000000114
 20
964.4999961853028
 30
0.0
 11
1471.000000000114
 21
1714.500003814697
 31
0.0
  0
INSERT
  5
446
330
441
100
AcDbEntity
  8
寸法
 62
     3
100
AcDbBlockReference
  2
EX_NORM
 10
1471.000000000114
 20
919.5000000000001
 30
0.0
 41
44.99999618530273
 42
44.99999618530273
 43
44.99999618530273
 50
270.0
  0
INSERT
  5
447
330
441
100
AcDbEntity
  8
寸法
 62
     3
100
AcDbBlockReference
  2
EX_NORM
 10
1471.000000000114
 20
1759.5
 30
0.0
 41
44.99999618530273
 42
44.99999618530273
 43
44.99999618530273
 50
90.0
  0
MTEXT
  5
448
330
441
100
AcDbEntity
  8
寸法
 62
     2
100
AcDbMText
 10
1435.750000089521
 20
1339.5
 30
0.0
 40
59.99999618530273
 41
0.0
 71
     5
 72
     1
  1
（840）
  7
EXCADDIM1
 11
0.0
 21
1.0
 31
0.0
  0
POINT
  5
449
330
441
100
AcDbEntity
  8
DEFPOINTS
 62
     0
100
AcDbPoint
 10
1259.000000000117
 20
919.5
 30
0.0
  0
POINT
  5
44A
330
441
100
AcDbEntity
  8
DEFPOINTS
 62
     0
100
AcDbPoint
 10
1231.000000000117
 20
1759.5
 30
0.0
  0
POINT
  5
44B
330
441
100
AcDbEntity
  8
DEFPOINTS
 62
     0
100
AcDbPoint
 10
1471.000000000114
 20
1759.5
 30
0.0
  0
ENDBLK
  5
443
330
441
100
AcDbEntity
  8
0
100
AcDbBlockEnd
  0
BLOCK
  5
451
330
450
100
AcDbEntity
  8
0
100
AcDbBlockBegin
  2
*D30
 70
     1
 10
0.0
 20
0.0
 30
0.0
  3
*D30
  1

  0
LINE
  5
453
330
450
100
AcDbEntity
  8
寸法
  6
CONTINUOUS
 62
     3
100
AcDbLine
 10
2331.000000000118
 20
901.0000001788139
 30
0.0
 11
2331.000000000118
 21
604.5
 31
0.0
  0
LINE
  5
454
330
450
100
AcDbEntity
  8
寸法
  6
CONTINUOUS
 62
     3
100
AcDbLine
 10
2491.00000000012
 20
909.0000001788139
 30
0.0
 11
2491.00000000012
 21
604.5
 31
0.0
  0
LINE
  5
455
330
450
100
AcDbEntity
  8
寸法
  6
CONTINUOUS
 62
     3
100
AcDbLine
 10
2375.999996185421
 20
619.5
 30
0.0
 11
2446.000003814817
 21
619.5
 31
0.0
  0
INSERT
  5
456
330
450
100
AcDbEntity
  8
寸法
 62
     3
100
AcDbBlockReference
  2
EX_NORM
 10
2331.000000000118
 20
619.5
 30
0.0
 41
44.99999618530273
 42
44.99999618530273
 43
44.99999618530273
 50
180.0
  0
INSERT
  5
457
330
450
100
AcDbEntity
  8
寸法
 62
     3
100
AcDbBlockReference
  2
EX_NORM
 10
2491.00000000012
 20
619.5
 30
0.0
 41
44.99999618530273
 42
44.99999618530273
 43
44.99999618530273
  0
MTEXT
  5
458
330
450
100
AcDbEntity
  8
寸法
 62
     2
100
AcDbMText
 10
2723.50000000012
 20
654.749999910593
 30
0.0
 40
59.99999618530273
 41
0.0
 71
     5
 72
     1
  1
160（床給水）
  7
EXCADDIM1
  0
POINT
  5
459
330
450
100
AcDbEntity
  8
DEFPOINTS
 62
     0
100
AcDbPoint
 10
2331.000000000118
 20
911.5
 30
0.0
  0
POINT
  5
45A
330
450
100
AcDbEntity
  8
DEFPOINTS
 62
     0
100
AcDbPoint
 10
2491.00000000012
 20
919.5
 30
0.0
  0
POINT
  5
45B
330
450
100
AcDbEntity
  8
DEFPOINTS
 62
     0
100
AcDbPoint
 10
2491.00000000012
 20
619.5
 30
0.0
  0
ENDBLK
  5
452
330
450
100
AcDbEntity
  8
0
100
AcDbBlockEnd
  0
BLOCK
  5
462
330
461
100
AcDbEntity
  8
0
100
AcDbBlockBegin
  2
*D31
 70
     1
 10
0.0
 20
0.0
 30
0.0
  3
*D31
  1

  0
LINE
  5
464
330
461
100
AcDbEntity
  8
寸法
  6
CONTINUOUS
 62
     3
100
AcDbLine
 10
1271.499999821303
 20
1619.5
 30
0.0
 11
1396.000000000114
 21
1619.5
 31
0.0
  0
LINE
  5
465
330
461
100
AcDbEntity
  8
寸法
  6
CONTINUOUS
 62
     3
100
AcDbLine
 10
1381.000000000114
 20
1664.499996185303
 30
0.0
 11
1381.000000000114
 21
1714.500003814697
 31
0.0
  0
INSERT
  5
466
330
461
100
AcDbEntity
  8
寸法
 62
     3
100
AcDbBlockReference
  2
EX_NORM
 10
1381.000000000114
 20
1619.5
 30
0.0
 41
44.99999618530273
 42
44.99999618530273
 43
44.99999618530273
 50
270.0
  0
INSERT
  5
467
330
461
100
AcDbEntity
  8
寸法
 62
     3
100
AcDbBlockReference
  2
EX_NORM
 10
1381.000000000114
 20
1759.5
 30
0.0
 41
44.99999618530273
 42
44.99999618530273
 43
44.99999618530273
 50
90.0
  0
MTEXT
  5
468
330
461
100
AcDbEntity
  8
寸法
 62
     2
100
AcDbMText
 10
1345.750000089521
 20
1689.5
 30
0.0
 40
59.99999618530273
 41
0.0
 71
     5
 72
     1
  1
140
  7
EXCADDIM1
 11
0.0
 21
1.0
 31
0.0
  0
POINT
  5
469
330
461
100
AcDbEntity
  8
DEFPOINTS
 62
     0
100
AcDbPoint
 10
1261.000000000117
 20
1619.5
 30
0.0
  0
POINT
  5
46A
330
461
100
AcDbEntity
  8
DEFPOINTS
 62
     0
100
AcDbPoint
 10
1231.000000000117
 20
1759.5
 30
0.0
  0
POINT
  5
46B
330
461
100
AcDbEntity
  8
DEFPOINTS
 62
     0
100
AcDbPoint
 10
1381.000000000114
 20
1759.5
 30
0.0
  0
ENDBLK
  5
463
330
461
100
AcDbEntity
  8
0
100
AcDbBlockEnd
  0
BLOCK
  5
46E
330
46D
100
AcDbEntity
  8
0
100
AcDbBlockBegin
  2
*D32
 70
     1
 10
0.0
 20
0.0
 30
0.0
  3
*D32
  1

  0
LINE
  5
470
330
46D
100
AcDbEntity
  8
寸法
  6
CONTINUOUS
 62
     3
100
AcDbLine
 10
1261.000000000165
 20
2669.5
 30
0.0
 11
1563.000000000061
 21
2669.5
 31
0.0
  0
LINE
  5
471
330
46D
100
AcDbEntity
  8
寸法
  6
CONTINUOUS
 62
     3
100
AcDbLine
 10
1563.000000000061
 20
964.4999961853027
 30
0.0
 11
1563.000000000061
 21
2624.500003814697
 31
0.0
  0
INSERT
  5
472
330
46D
100
AcDbEntity
  8
寸法
 62
     3
100
AcDbBlockReference
  2
EX_NORM
 10
1563.000000000061
 20
919.5
 30
0.0
 41
44.99999618530273
 42
44.99999618530273
 43
44.99999618530273
 50
270.0
  0
INSERT
  5
473
330
46D
100
AcDbEntity
  8
寸法
 62
     3
100
AcDbBlockReference
  2
EX_NORM
 10
1563.000000000061
 20
2669.5
 30
0.0
 41
44.99999618530273
 42
44.99999618530273
 43
44.99999618530273
 50
90.0
  0
MTEXT
  5
474
330
46D
100
AcDbEntity
  8
寸法
 62
     2
100
AcDbMText
 10
1525.500000000061
 20
1794.499999999998
 30
0.0
 40
59.99999618530273
 41
0.0
 71
     5
 72
     1
  1
（1750）
  7
EXCADDIM1
 11
0.0
 21
1.0
 31
0.0
  0
POINT
  5
475
330
46D
100
AcDbEntity
  8
DEFPOINTS
 62
     0
100
AcDbPoint
 10
1243.000000000265
 20
919.5
 30
0.0
  0
POINT
  5
476
330
46D
100
AcDbEntity
  8
DEFPOINTS
 62
     0
100
AcDbPoint
 10
1261.000000000165
 20
2669.5
 30
0.0
  0
POINT
  5
477
330
46D
100
AcDbEntity
  8
DEFPOINTS
 62
     0
100
AcDbPoint
 10
1563.000000000061
 20
2669.5
 30
0.0
  0
ENDBLK
  5
46F
330
46D
100
AcDbEntity
  8
0
100
AcDbBlockEnd
  0
BLOCK
  5
47A
330
479
100
AcDbEntity
  8
0
100
AcDbBlockBegin
  2
*D33
 70
     1
 10
0.0
 20
0.0
 30
0.0
  3
*D33
  1

  0
LINE
  5
47C
330
479
100
AcDbEntity
  8
寸法
  6
CONTINUOUS
 62
     3
100
AcDbLine
 10
811.0000000001603
 20
2631.799999821186
 30
0.0
 11
811.0000000001603
 21
2747.5
 31
0.0
  0
LINE
  5
47D
330
479
100
AcDbEntity
  8
寸法
  6
CONTINUOUS
 62
     3
100
AcDbLine
 10
1111.00000000016
 20
2631.799999821186
 30
0.0
 11
1111.00000000016
 21
2747.5
 31
0.0
  0
LINE
  5
47E
330
479
100
AcDbEntity
  8
寸法
  6
CONTINUOUS
 62
     3
100
AcDbLine
 10
855.999996185463
 20
2732.5
 30
0.0
 11
1066.000003814858
 21
2732.5
 31
0.0
  0
INSERT
  5
47F
330
479
100
AcDbEntity
  8
寸法
 62
     3
100
AcDbBlockReference
  2
EX_NORM
 10
811.0000000001603
 20
2732.5
 30
0.0
 41
44.99999618530273
 42
44.99999618530273
 43
44.99999618530273
 50
180.0
  0
INSERT
  5
480
330
479
100
AcDbEntity
  8
寸法
 62
     3
100
AcDbBlockReference
  2
EX_NORM
 10
1111.00000000016
 20
2732.5
 30
0.0
 41
44.99999618530273
 42
44.99999618530273
 43
44.99999618530273
  0
MTEXT
  5
481
330
479
100
AcDbEntity
  8
寸法
 62
     2
100
AcDbMText
 10
962.5000000001605
 20
2775.249999910593
 30
0.0
 40
59.99999618530273
 41
0.0
 71
     5
 72
     1
  1
300（壁固定）
  7
EXCADDIM1
  0
POINT
  5
482
330
479
100
AcDbEntity
  8
DEFPOINTS
 62
     0
100
AcDbPoint
 10
811.0000000001603
 20
2621.3
 30
0.0
  0
POINT
  5
483
330
479
100
AcDbEntity
  8
DEFPOINTS
 62
     0
100
AcDbPoint
 10
1111.00000000016
 20
2621.3
 30
0.0
  0
POINT
  5
484
330
479
100
AcDbEntity
  8
DEFPOINTS
 62
     0
100
AcDbPoint
 10
1111.00000000016
 20
2732.5
 30
0.0
  0
ENDBLK
  5
47B
330
479
100
AcDbEntity
  8
0
100
AcDbBlockEnd
  0
BLOCK
  5
487
330
486
100
AcDbEntity
  8
0
100
AcDbBlockBegin
  2
*D34
 70
     1
 10
0.0
 20
0.0
 30
0.0
  3
*D34
  1

  0
LINE
  5
489
330
486
100
AcDbEntity
  8
寸法
  6
CONTINUOUS
 62
     3
100
AcDbLine
 10
736.0000000001603
 20
2678.799999821186
 30
0.0
 11
736.0000000001603
 21
2863.5
 31
0.0
  0
LINE
  5
48A
330
486
100
AcDbEntity
  8
寸法
  6
CONTINUOUS
 62
     3
100
AcDbLine
 10
1186.00000000016
 20
2678.799999821186
 30
0.0
 11
1186.00000000016
 21
2863.5
 31
0.0
  0
LINE
  5
48B
330
486
100
AcDbEntity
  8
寸法
  6
CONTINUOUS
 62
     3
100
AcDbLine
 10
780.999996185463
 20
2848.5
 30
0.0
 11
1141.000003814858
 21
2848.5
 31
0.0
  0
INSERT
  5
48C
330
486
100
AcDbEntity
  8
寸法
 62
     3
100
AcDbBlockReference
  2
EX_NORM
 10
736.0000000001603
 20
2848.5
 30
0.0
 41
44.99999618530273
 42
44.99999618530273
 43
44.99999618530273
 50
180.0
  0
INSERT
  5
48D
330
486
100
AcDbEntity
  8
寸法
 62
     3
100
AcDbBlockReference
  2
EX_NORM
 10
1186.00000000016
 20
2848.5
 30
0.0
 41
44.99999618530273
 42
44.99999618530273
 43
44.99999618530273
  0
MTEXT
  5
48E
330
486
100
AcDbEntity
  8
寸法
 62
     2
100
AcDbMText
 10
961.0000000001605
 20
2883.749999910593
 30
0.0
 40
59.99999618530273
 41
0.0
 71
     5
 72
     1
  1
450
  7
EXCADDIM1
  0
POINT
  5
48F
330
486
100
AcDbEntity
  8
DEFPOINTS
 62
     0
100
AcDbPoint
 10
736.0000000001603
 20
2668.3
 30
0.0
  0
POINT
  5
490
330
486
100
AcDbEntity
  8
DEFPOINTS
 62
     0
100
AcDbPoint
 10
1186.00000000016
 20
2668.3
 30
0.0
  0
POINT
  5
491
330
486
100
AcDbEntity
  8
DEFPOINTS
 62
     0
100
AcDbPoint
 10
1186.00000000016
 20
2848.5
 30
0.0
  0
ENDBLK
  5
488
330
486
100
AcDbEntity
  8
0
100
AcDbBlockEnd
  0
BLOCK
  5
494
330
493
100
AcDbEntity
  8
0
100
AcDbBlockBegin
  2
*D35
 70
     1
 10
0.0
 20
0.0
 30
0.0
  3
*D35
  1

  0
LINE
  5
496
330
493
100
AcDbEntity
  8
寸法
  6
CONTINUOUS
 62
     3
100
AcDbLine
 10
2369.80000000023
 20
2679.999999821187
 30
0.0
 11
2369.80000000023
 21
2749.5
 31
0.0
  0
LINE
  5
497
330
493
100
AcDbEntity
  8
寸法
  6
CONTINUOUS
 62
     3
100
AcDbLine
 10
2414.799996185533
 20
2734.5
 30
0.0
 11
2446.000003814926
 21
2734.5
 31
0.0
  0
INSERT
  5
498
330
493
100
AcDbEntity
  8
寸法
 62
     3
100
AcDbBlockReference
  2
EX_NORM
 10
2369.80000000023
 20
2734.5
 30
0.0
 41
44.99999618530273
 42
44.99999618530273
 43
44.99999618530273
 50
180.0
  0
INSERT
  5
499
330
493
100
AcDbEntity
  8
寸法
 62
     3
100
AcDbBlockReference
  2
EX_NORM
 10
2491.000000000229
 20
2734.5
 30
0.0
 41
44.99999618530273
 42
44.99999618530273
 43
44.99999618530273
  0
MTEXT
  5
49A
330
493
100
AcDbEntity
  8
寸法
 62
     2
100
AcDbMText
 10
2604.55000000023
 20
2769.749999910593
 30
0.0
 40
59.99999618530273
 41
0.0
 71
     5
 72
     1
  1
122
  7
EXCADDIM1
  0
POINT
  5
49B
330
493
100
AcDbEntity
  8
DEFPOINTS
 62
     0
100
AcDbPoint
 10
2369.80000000023
 20
2669.500000000001
 30
0.0
  0
POINT
  5
49C
330
493
100
AcDbEntity
  8
DEFPOINTS
 62
     0
100
AcDbPoint
 10
2491.000000000229
 20
2663.3
 30
0.0
  0
POINT
  5
49D
330
493
100
AcDbEntity
  8
DEFPOINTS
 62
     0
100
AcDbPoint
 10
2491.000000000229
 20
2734.5
 30
0.0
  0
ENDBLK
  5
495
330
493
100
AcDbEntity
  8
0
100
AcDbBlockEnd
  0
BLOCK
  5
4A0
330
49F
100
AcDbEntity
  8
0
100
AcDbBlockBegin
  2
*D36
 70
     1
 10
0.0
 20
0.0
 30
0.0
  3
*D36
  1

  0
LINE
  5
4A2
330
49F
100
AcDbEntity
  8
寸法
  6
CONTINUOUS
 62
     3
100
AcDbLine
 10
2400.299999821416
 20
2669.5
 30
0.0
 11
2911.000000000198
 21
2669.5
 31
0.0
  0
LINE
  5
4A3
330
49F
100
AcDbEntity
  8
寸法
  6
CONTINUOUS
 62
     3
100
AcDbLine
 10
2895.510000000599
 20
2613.3
 30
0.0
 11
2895.510000000599
 21
2669.5
 31
0.0
  0
LINE
  5
4A4
330
49F
100
AcDbEntity
  8
寸法
  6
CONTINUOUS
 62
     3
100
AcDbLine
 10
2895.510000000599
 20
2568.300003814697
 30
0.0
 11
2895.510000000599
 21
2523.300007629395
 31
0.0
  0
LINE
  5
4A5
330
49F
100
AcDbEntity
  8
寸法
  6
CONTINUOUS
 62
     3
100
AcDbLine
 10
2895.510000000599
 20
2714.499996185303
 30
0.0
 11
2895.510000000599
 21
2759.499992370605
 31
0.0
  0
INSERT
  5
4A6
330
49F
100
AcDbEntity
  8
寸法
 62
     3
100
AcDbBlockReference
  2
EX_NONE
 10
2895.510000000599
 20
2613.3
 30
0.0
 41
44.99999618530273
 42
44.99999618530273
 43
44.99999618530273
 50
90.0
  0
INSERT
  5
4A7
330
49F
100
AcDbEntity
  8
寸法
 62
     3
100
AcDbBlockReference
  2
EX_NORM
 10
2895.510000000599
 20
2669.5
 30
0.0
 41
44.99999618530273
 42
44.99999618530273
 43
44.99999618530273
 50
270.0
  0
MTEXT
  5
4A8
330
49F
100
AcDbEntity
  8
寸法
 62
     2
100
AcDbMText
 10
2860.750000089607
 20
2764.7
 30
0.0
 40
59.99999618530273
 41
0.0
 71
     5
 72
     1
  1
63
  7
EXCADDIM1
 11
-3.035887853477192E-14
 21
1.0
 31
0.0
  0
POINT
  5
4A9
330
49F
100
AcDbEntity
  8
DEFPOINTS
 62
     0
100
AcDbPoint
 10
2523.71000000063
 20
2613.3
 30
0.0
  0
POINT
  5
4AA
330
49F
100
AcDbEntity
  8
DEFPOINTS
 62
     0
100
AcDbPoint
 10
2389.310000000631
 20
2669.5
 30
0.0
  0
POINT
  5
4AB
330
49F
100
AcDbEntity
  8
DEFPOINTS
 62
     0
100
AcDbPoint
 10
2895.510000000599
 20
2669.5
 30
0.0
  0
ENDBLK
  5
4A1
330
49F
100
AcDbEntity
  8
0
100
AcDbBlockEnd
  0
BLOCK
  5
4B1
330
4B0
100
AcDbEntity
  8
0
100
AcDbBlockBegin
  2
*D37
 70
     1
 10
0.0
 20
0.0
 30
0.0
  3
*D37
  1

  0
LINE
  5
4B3
330
4B0
100
AcDbEntity
  8
寸法
  6
CONTINUOUS
 62
     3
100
AcDbLine
 10
2850.7000000004
 20
2166.3
 30
0.0
 11
2895.5000000004
 21
2166.3
 31
0.0
  0
LINE
  5
4B4
330
4B0
100
AcDbEntity
  8
寸法
  6
CONTINUOUS
 62
     3
100
AcDbLine
 10
2895.5000000004
 20
2211.299996185303
 30
0.0
 11
2895.5000000004
 21
2561.300003814697
 31
0.0
  0
INSERT
  5
4B5
330
4B0
100
AcDbEntity
  8
寸法
 62
     3
100
AcDbBlockReference
  2
EX_NORM
 10
2895.5000000004
 20
2166.3
 30
0.0
 41
44.99999618530273
 42
44.99999618530273
 43
44.99999618530273
 50
270.0
  0
INSERT
  5
4B6
330
4B0
100
AcDbEntity
  8
寸法
 62
     3
100
AcDbBlockReference
  2
EX_NORM
 10
2895.5000000004
 20
2606.3
 30
0.0
 41
44.99999618530273
 42
44.99999618530273
 43
44.99999618530273
 50
90.0
  0
MTEXT
  5
4B7
330
4B0
100
AcDbEntity
  8
寸法
 62
     2
100
AcDbMText
 10
2860.250000089807
 20
2386.3
 30
0.0
 40
59.99999618530273
 41
0.0
 71
     5
 72
     1
  1
440（壁固定）
  7
EXCADDIM1
 11
0.0
 21
1.0
 31
0.0
  0
POINT
  5
4B8
330
4B0
100
AcDbEntity
  8
DEFPOINTS
 62
     0
100
AcDbPoint
 10
2850.7000000004
 20
2166.3
 30
0.0
  0
POINT
  5
4B9
330
4B0
100
AcDbEntity
  8
DEFPOINTS
 62
     0
100
AcDbPoint
 10
2850.7000000004
 20
2606.3
 30
0.0
  0
POINT
  5
4BA
330
4B0
100
AcDbEntity
  8
DEFPOINTS
 62
     0
100
AcDbPoint
 10
2895.5000000004
 20
2606.3
 30
0.0
  0
ENDBLK
  5
4B2
330
4B0
100
AcDbEntity
  8
0
100
AcDbBlockEnd
  0
BLOCK
  5
4BD
330
4BC
100
AcDbEntity
  8
0
100
AcDbBlockBegin
  2
*D38
 70
     1
 10
0.0
 20
0.0
 30
0.0
  3
*D38
  1

  0
LINE
  5
4BF
330
4BC
100
AcDbEntity
  8
寸法
  6
CONTINUOUS
 62
     3
100
AcDbLine
 10
2900.000000298824
 20
2166.3
 30
0.0
 11
2878.500000119609
 21
2166.3
 31
0.0
  0
LINE
  5
4C0
330
4BC
100
AcDbEntity
  8
寸法
  6
CONTINUOUS
 62
     3
100
AcDbLine
 10
2895.5000000004
 20
2121.300003814697
 30
0.0
 11
2895.5000000004
 21
964.4999961853027
 31
0.0
  0
INSERT
  5
4C1
330
4BC
100
AcDbEntity
  8
寸法
 62
     3
100
AcDbBlockReference
  2
EX_NORM
 10
2895.5000000004
 20
2166.3
 30
0.0
 41
44.99999618530273
 42
44.99999618530273
 43
44.99999618530273
 50
90.0
  0
INSERT
  5
4C2
330
4BC
100
AcDbEntity
  8
寸法
 62
     3
100
AcDbBlockReference
  2
EX_NORM
 10
2895.5000000004
 20
919.5
 30
0.0
 41
44.99999618530273
 42
44.99999618530273
 43
44.99999618530273
 50
270.0
  0
MTEXT
  5
4C3
330
4BC
100
AcDbEntity
  8
寸法
 62
     2
100
AcDbMText
 10
2858.250000089407
 20
1542.9
 30
0.0
 40
59.99999618530273
 41
0.0
 71
     5
 72
     1
  1
（1247）
  7
EXCADDIM1
 11
-3.828568698926949E-16
 21
1.0
 31
0.0
  0
POINT
  5
4C4
330
4BC
100
AcDbEntity
  8
DEFPOINTS
 62
     0
100
AcDbPoint
 10
2912.5000000008
 20
2166.3
 30
0.0
  0
POINT
  5
4C5
330
4BC
100
AcDbEntity
  8
DEFPOINTS
 62
     0
100
AcDbPoint
 10
2895.5000000004
 20
919.5
 30
0.0
  0
POINT
  5
4C6
330
4BC
100
AcDbEntity
  8
DEFPOINTS
 62
     0
100
AcDbPoint
 10
2895.5000000004
 20
919.5
 30
0.0
  0
ENDBLK
  5
4BE
330
4BC
100
AcDbEntity
  8
0
100
AcDbBlockEnd
  0
BLOCK
  5
4CA
330
4C9
100
AcDbEntity
  8
0
100
AcDbBlockBegin
  2
*D39
 70
     1
 10
0.0
 20
0.0
 30
0.0
  3
*D39
  1

  0
LINE
  5
4CC
330
4C9
100
AcDbEntity
  8
寸法
  6
CONTINUOUS
 62
     3
100
AcDbLine
 10
1506.000002384316
 20
2103.1
 30
0.0
 11
1195.000011444222
 21
2103.1
 31
0.0
  0
LINE
  5
4CD
330
4C9
100
AcDbEntity
  8
寸法
  6
CONTINUOUS
 62
     3
100
AcDbLine
 10
1477.00000000013
 20
2624.500003814697
 30
0.0
 11
1477.00000000013
 21
2148.099996185303
 31
0.0
  0
INSERT
  5
4CE
330
4C9
100
AcDbEntity
  8
寸法
 62
     3
100
AcDbBlockReference
  2
EX_NORM
 10
1477.00000000013
 20
2669.5
 30
0.0
 41
44.99999618530273
 42
44.99999618530273
 43
44.99999618530273
 50
90.0
  0
INSERT
  5
4CF
330
4C9
100
AcDbEntity
  8
寸法
 62
     3
100
AcDbBlockReference
  2
EX_NORM
 10
1477.00000000013
 20
2103.1
 30
0.0
 41
44.99999618530273
 42
44.99999618530273
 43
44.99999618530273
 50
270.0
  0
MTEXT
  5
4D0
330
4C9
100
AcDbEntity
  8
寸法
 62
     2
100
AcDbMText
 10
1435.750000089537
 20
2386.3
 30
0.0
 40
59.99999618530273
 41
0.0
 71
     5
 72
     1
  1
567
  7
EXCADDIM1
 11
-3.828568698926949E-16
 21
1.0
 31
0.0
  0
POINT
  5
4D1
330
4C9
100
AcDbEntity
  8
DEFPOINTS
 62
     0
100
AcDbPoint
 10
1576.00000000013
 20
2669.5
 30
0.0
  0
POINT
  5
4D2
330
4C9
100
AcDbEntity
  8
DEFPOINTS
 62
     0
100
AcDbPoint
 10
1576.00000000013
 20
2103.1
 30
0.0
  0
POINT
  5
4D3
330
4C9
100
AcDbEntity
  8
DEFPOINTS
 62
     0
100
AcDbPoint
 10
1477.00000000013
 20
2103.1
 30
0.0
  0
ENDBLK
  5
4CB
330
4C9
100
AcDbEntity
  8
0
100
AcDbBlockEnd
  0
ENDSEC
  0
SECTION
  2
ENTITIES
  0
LINE
  5
A9
330
1F
100
AcDbEntity
  8
枠_表
  6
CONTINUOUS
 62
     7
100
AcDbLine
 10
261.0000000001216
 20
139.4999999999993
 30
0.0
 11
2991.000000000121
 21
139.4999999999993
 31
0.0
  0
HATCH
  5
AA
330
1F
100
AcDbEntity
  8
枠_表
  6
CONTINUOUS
 62
     3
100
AcDbHatch
 10
0.0
 20
0.0
 30
0.0
210
0.0
220
0.0
230
1.0
  2
SOLID
 70
     1
 71
     1
 91
        1
 92
        3
 72
     1
 73
     1
 93
       10
 10
1162.087898600001
 20
184.82548994631
 42
-0.017362223501556
 10
1162.219523600001
 20
264.2763649463133
 42
-0.0267627618865285
 10
1162.219523600001
 20
264.2763649463111
 42
0.0737939047395297
 10
1181.5987736
 20
264.3573649463108
 42
0.0183878899657109
 10
1180.819148600003
 20
192.7229899463116
 42
-0.1144749489451909
 10
1177.680398600001
 20
177.6367399463124
 42
-0.1929163439413163
 10
1162.746023600003
 20
165.9119899463099
 42
-0.0603888289562337
 10
1154.828273600001
 20
163.9376149463101
 42
0.0
 10
1152.9753986
 20
169.5772399463125
 42
0.0860918333465722
 10
1158.513773600002
 20
172.52361494631
 42
0.1331843103855141
 97
        0
 75
     0
 76
     1
 98
        1
 10
0.0
 20
0.0
  0
HATCH
  5
AB
330
1F
100
AcDbEntity
  8
枠_表
  6
CONTINUOUS
 62
     3
100
AcDbHatch
 10
0.0
 20
0.0
 30
0.0
210
0.0
220
0.0
230
1.0
  2
SOLID
 70
     1
 71
     1
 91
        1
 92
        3
 72
     1
 73
     1
 93
       16
 10
1250.803148600002
 20
183.1548649463109
 42
-0.0386228372648426
 10
1250.712023600002
 20
231.967489946311
 42
-0.0398707891902887
 10
1259.571398600001
 20
232.0079899463121
 42
-0.1256886216044368
 10
1259.166398600002
 20
223.725739946312
 42
-0.0367815758121429
 10
1259.166398600002
 20
223.7257399463099
 42
-0.268021535028829
 10
1277.037023600002
 20
233.0002399463111
 42
-0.2571134422124888
 10
1289.2578986
 20
226.9556149463115
 42
-0.1522526366014298
 10
1292.366273600001
 20
216.9014899463101
 42
-0.0158825412051521
 10
1292.1435236
 20
183.1042399463118
 42
-0.0285251271418421
 10
1283.587898600003
 20
183.1042399463126
 42
-0.0452212723224612
 10
1284.023273600001
 20
214.3297399463106
 42
-0.0315567291532142
 10
1281.370523600001
 20
223.5536149463122
 42
-0.1476272403790709
 10
1264.097273600002
 20
224.8799899463125
 42
-0.3908144705745794
 10
1259.227148600001
 20
212.7603649463124
 42
-0.2046259928850854
 10
1259.227148600001
 20
212.7603649463106
 42
0.0
 10
1259.986523600002
 20
183.0738649463112
 42
-0.0304995761723369
 97
        0
 75
     0
 76
     1
 98
        1
 10
0.0
 20
0.0
  0
HATCH
  5
AC
330
1F
100
AcDbEntity
  8
枠_表
  6
CONTINUOUS
 62
     3
100
AcDbHatch
 10
0.0
 20
0.0
 30
0.0
210
0.0
220
0.0
230
1.0
  2
SOLID
 70
     1
 71
     1
 91
        2
 92
        1
 93
        1
 72
     2
 10
1314.42827105763
 20
249.8753200310557
 40
5.358501700154826
 50
0.0
 51
360.0
 73
     1
 97
        0
 92
        3
 72
     1
 73
     1
 93
        3
 10
1309.639523600001
 20
232.0484899463118
 42
0.1200283885712921
 10
1318.954523599999
 20
183.0941149463105
 42
-0.0401820615762149
 10
1309.649648600001
 20
183.0637399463128
 42
-0.0237521668114666
 97
        0
 75
     0
 76
     1
 98
        1
 10
0.0
 20
0.0
  0
HATCH
  5
AD
330
1F
100
AcDbEntity
  8
枠_表
  6
CONTINUOUS
 62
     3
100
AcDbHatch
 10
0.0
 20
0.0
 30
0.0
210
0.0
220
0.0
230
1.0
  2
SOLID
 70
     1
 71
     1
 91
        1
 92
        3
 72
     1
 73
     1
 93
       30
 10
1361.601023599998
 20
230.0032399463119
 42
-0.0009362235736497
 10
1361.601023599999
 20
230.0032399463103
 42
0.0681165430304653
 10
1359.145640230223
 20
222.6423649463129
 42
0.0
 10
1349.896523600002
 20
228.9704899463122
 42
-0.302112590907374
 10
1349.896523600002
 20
228.9704899463129
 42
0.0
 10
1340.571398600001
 20
221.822239946312
 42
-0.3704245237568778
 10
1340.571398600001
 20
221.8222399463116
 42
0.0
 10
1341.057398600001
 20
217.0432399463103
 42
-0.0262822419456939
 10
1346.808398600001
 20
212.4464899463116
 42
-0.180060563604375
 10
1355.981648600001
 20
209.6519899463131
 42
-0.0298130817160724
 10
1355.981648600001
 20
209.6519899463108
 42
-0.3153987453686078
 10
1364.436023600002
 20
199.9826149463104
 42
0.0
 10
1364.385398600003
 20
195.6592399463116
 42
-0.3510306079065168
 10
1348.084148600001
 20
181.990489946312
 42
0.0
 10
1343.3253986
 20
181.9904899463108
 42
-0.1053356344842436
 10
1332.795398600002
 20
185.0279899463112
 42
0.1188608286962634
 10
1334.719148600002
 20
192.7229899463123
 42
0.0
 10
1346.261648600001
 20
185.6354899463113
 42
-0.2447573632916039
 10
1346.261648600002
 20
185.6354899463111
 42
0.0
 10
1357.399148600001
 20
193.431739946313
 42
-0.3734162676407277
 10
1357.399148600002
 20
193.43173994631
 42
0.0
 10
1353.359273600002
 20
201.2178649463131
 42
-0.261219770190848
 10
1343.9328986
 20
204.6401149463114
 42
-0.0572747914118363
 10
1343.932898600002
 20
204.6401149463129
 42
-0.1189658875692221
 10
1336.440398600002
 20
209.034364946313
 42
-0.2005226878639636
 10
1333.301648600001
 20
216.1117399463433
 42
0.0
 10
1333.251023600001
 20
218.7948649463124
 42
-0.2622894489606957
 10
1341.300398600003
 20
231.0967399463106
 42
-0.0988461274137808
 10
1348.833398600002
 20
232.9091149463125
 42
0.0
 10
1351.627898600001
 20
232.9091149463105
 42
-0.0920156312561188
 97
        0
 75
     0
 76
     1
 98
        1
 10
0.0
 20
0.0
  0
HATCH
  5
AE
330
1F
100
AcDbEntity
  8
枠_表
  6
CONTINUOUS
 62
     3
100
AcDbHatch
 10
0.0
 20
0.0
 30
0.0
210
0.0
220
0.0
230
1.0
  2
SOLID
 70
     1
 71
     1
 91
        2
 92
        3
 72
     1
 73
     1
 93
       27
 10
1200.259148600001
 20
227.0467399463132
 42
-0.1769427732109284
 10
1200.259148600003
 20
227.0467399463132
 42
0.0
 10
1200.259148600003
 20
221.5792399463112
 42
0.0
 10
1201.575398600002
 20
221.5792399463107
 42
-0.207533601427307
 10
1210.121134184482
 20
227.9898538693564
 42
-0.1226604740888933
 10
1217.674148600002
 20
228.1503649463112
 42
-0.3213715781137954
 10
1225.482492033439
 20
218.5659771567722
 42
-0.064704004662446
 10
1225.521023600001
 20
213.4994899463109
 42
-0.257798906330806
 10
1223.931398600003
 20
211.57573994631
 42
-0.056602577721096
 10
1220.529398600002
 20
210.3911149463123
 42
-0.0166741689362636
 10
1208.055398600001
 20
208.0218649463128
 42
0.1186092302783404
 10
1199.823773600001
 20
204.0731149463118
 42
0.1699204224386695
 10
1196.239523600002
 20
198.07911494631
 42
0.1006533494296199
 10
1195.908130019499
 20
192.8780332643591
 42
0.1675695228968024
 10
1199.155523600003
 20
185.9088649463119
 42
0.1376980079804242
 10
1205.0583986
 20
182.4967399463105
 42
0.0719813663796923
 10
1207.741523600001
 20
182.0512399463121
 42
0.0
 10
1211.852273600002
 20
182.0512399463122
 42
0.1944607457809085
 10
1225.490648600003
 20
189.0678649463127
 42
0.1288538183665954
 10
1226.867648600001
 20
185.6253649463115
 42
0.2098387395261546
 10
1231.363148600002
 20
183.1447399463104
 42
0.0
 10
1234.623398600002
 20
183.1244899463105
 42
0.0945009641609563
 10
1239.331523600001
 20
184.126864946312
 42
0.0
 10
1239.331523600001
 20
186.4859899463127
 42
-0.2395739894657535
 10
1235.220773600002
 20
186.4454899463124
 42
-0.2502312110031057
 10
1233.1957736
 20
190.252489946313
 42
-0.0104343570771765
 10
1233.469148600002
 20
218.6429899463118
 42
0.4051015674140716
 97
        0
 92
        3
 72
     1
 73
     1
 93
        8
 10
1225.703273600002
 20
208.5382399463126
 42
-0.0339435190873666
 10
1225.703273600011
 20
208.5382399462961
 42
-0.0001110072973599
 10
1225.278023600002
 20
193.0267399463124
 42
-0.2253076310552528
 10
1214.646773600002
 20
185.9291149463115
 42
0.0
 10
1212.044648600001
 20
185.9291149463132
 42
-0.3657967558150132
 10
1204.309148600001
 20
194.1506149463112
 42
0.0
 10
1204.309148600002
 20
197.0868649463121
 42
-0.2530797830369341
 10
1209.533648600002
 20
204.3161149463117
 42
-0.0724473624720066
 97
        0
 75
     0
 76
     1
 98
        1
 10
0.0
 20
0.0
  0
TEXT
  5
B0
330
1F
100
AcDbEntity
  8
枠_表
  6
CONTINUOUS
 62
     2
100
AcDbText
 10
1384.500000000128
 20
174.7500000000014
 30
0.0
 40
50.625
  1
ジャニス工業株式会社
 41
1.025641025641026
  7
EXCADTTF1
 72
     5
 11
2059.500000000128
 21
174.7500000000014
 31
0.0
100
AcDbText
  0
ARC
  5
B1
330
1F
100
AcDbEntity
  8
枠_表
  6
CONTINUOUS
 62
     3
100
AcDbCircle
 10
1216.902798618954
 20
206.4250933390349
 30
0.0
 40
26.50025272990596
100
AcDbArc
 50
88.77000393305703
 51
128.9068631829044
  0
ARC
  5
B2
330
1F
100
AcDbEntity
  8
枠_表
  6
CONTINUOUS
 62
     3
100
AcDbCircle
 10
1218.105940890545
 20
217.5287438959981
 30
0.0
 40
15.40356112671885
100
AcDbArc
 50
4.148222840814693
 51
92.36000944257292
  0
ARC
  5
B3
330
1F
100
AcDbEntity
  8
枠_表
  6
CONTINUOUS
 62
     3
100
AcDbCircle
 10
1913.47520375819
 20
197.8985765897608
 30
0.0
 40
680.3223983798493
100
AcDbArc
 50
178.2526643324597
 51
180.6439560401927
  0
ARC
  5
B4
330
1F
100
AcDbEntity
  8
枠_表
  6
CONTINUOUS
 62
     3
100
AcDbCircle
 10
1237.773598417032
 20
190.2454393170729
 30
0.0
 40
4.577830246610835
100
AcDbArc
 50
179.9117548191414
 51
236.1065985968857
  0
ARC
  5
B5
330
1F
100
AcDbEntity
  8
枠_表
  6
CONTINUOUS
 62
     3
100
AcDbCircle
 10
1237.23631176882
 20
190.5091783111652
 30
0.0
 40
4.5360728870472
100
AcDbArc
 50
243.6191685566582
 51
297.5097757939563
  0
LINE
  5
B6
330
1F
100
AcDbEntity
  8
枠_表
  6
CONTINUOUS
 62
     3
100
AcDbLine
 10
1239.331523600001
 20
184.126864946312
 30
0.0
 11
1239.331523600001
 21
186.4859899463124
 31
0.0
  0
LINE
  5
B7
330
1F
100
AcDbEntity
  8
枠_表
  6
CONTINUOUS
 62
     3
100
AcDbLine
 10
1231.363148600002
 20
183.1447399463104
 30
0.0
 11
1234.623398600002
 21
183.1447399463104
 31
0.0
  0
ARC
  5
B8
330
1F
100
AcDbEntity
  8
枠_表
  6
CONTINUOUS
 62
     3
100
AcDbCircle
 10
1234.349383791965
 20
195.969676923454
 30
0.0
 40
12.84810930031341
100
AcDbArc
 50
271.2220539293239
 51
292.8159509797653
  0
ARC
  5
B9
330
1F
100
AcDbEntity
  8
枠_表
  6
CONTINUOUS
 62
     3
100
AcDbCircle
 10
1231.940660262346
 20
189.5051184792953
 30
0.0
 40
6.38654325930597
100
AcDbArc
 50
217.4081478714985
 51
264.8118660441384
  0
ARC
  5
BA
330
1F
100
AcDbEntity
  8
枠_表
  6
CONTINUOUS
 62
     3
100
AcDbCircle
 10
1232.747334083874
 20
189.9738891398613
 30
0.0
 40
7.31302701014583
100
AcDbArc
 50
187.1167640402297
 51
216.4860549324747
  0
ARC
  5
BB
330
1F
100
AcDbEntity
  8
枠_表
  6
CONTINUOUS
 62
     3
100
AcDbCircle
 10
1209.991956880178
 20
202.430103938525
 30
0.0
 40
20.46359880155898
100
AcDbArc
 50
275.2158792069686
 51
319.2336424873511
  0
LINE
  5
BC
330
1F
100
AcDbEntity
  8
枠_表
  6
CONTINUOUS
 62
     3
100
AcDbLine
 10
1207.741523600001
 20
182.0512399463121
 30
0.0
 11
1211.852273600002
 21
182.0512399463121
 31
0.0
  0
ARC
  5
BD
330
1F
100
AcDbEntity
  8
枠_表
  6
CONTINUOUS
 62
     3
100
AcDbCircle
 10
1207.939219610639
 20
191.5445241581108
 30
0.0
 40
9.49534248137679
100
AcDbArc
 50
252.3384873625213
 51
268.8069976857606
  0
ARC
  5
BE
330
1F
100
AcDbEntity
  8
枠_表
  6
CONTINUOUS
 62
     3
100
AcDbCircle
 10
1208.18444295566
 20
194.7166657158903
 30
0.0
 40
12.61343486634549
100
AcDbArc
 50
224.289750990011
 51
255.6505938786759
  0
ARC
  5
BF
330
1F
100
AcDbEntity
  8
枠_表
  6
CONTINUOUS
 62
     3
100
AcDbCircle
 10
1207.637299937452
 20
194.1022532359295
 30
0.0
 40
11.79288520689435
100
AcDbArc
 50
185.9586126338419
 51
224.0091989319859
  0
ARC
  5
C0
330
1F
100
AcDbEntity
  8
枠_表
  6
CONTINUOUS
 62
     3
100
AcDbCircle
 10
1208.861252785626
 20
194.6638068821608
 30
0.0
 40
13.07564058883004
100
AcDbArc
 50
164.8589457925044
 51
187.8495628504518
  0
ARC
  5
C1
330
1F
100
AcDbEntity
  8
枠_表
  6
CONTINUOUS
 62
     3
100
AcDbCircle
 10
1206.595856854648
 20
195.954949875121
 30
0.0
 40
10.57193055836883
100
AcDbArc
 50
129.8344892359069
 51
168.4089447024628
  0
ARC
  5
C2
330
1F
100
AcDbEntity
  8
枠_表
  6
CONTINUOUS
 62
     3
100
AcDbCircle
 10
1212.145520801493
 20
188.9412722224324
 30
0.0
 40
19.5140492547738
100
AcDbArc
 50
102.0988446293839
 51
129.1556705448828
  0
ARC
  5
C3
330
1F
100
AcDbEntity
  8
枠_表
  6
CONTINUOUS
 62
     3
100
AcDbCircle
 10
1178.779514997995
 20
396.1803044662827
 30
0.0
 40
190.4223614055573
100
AcDbArc
 50
278.8438342053764
 51
282.6649181367123
  0
ARC
  5
C4
330
1F
100
AcDbEntity
  8
枠_表
  6
CONTINUOUS
 62
     3
100
AcDbCircle
 10
1217.014957516761
 20
225.9611044033113
 30
0.0
 40
15.96170002909176
100
AcDbArc
 50
282.7195832898965
 51
295.6781112778079
  0
ARC
  5
C5
330
1F
100
AcDbEntity
  8
枠_表
  6
CONTINUOUS
 62
     3
100
AcDbCircle
 10
1222.984643351127
 20
213.9766998756431
 30
0.0
 40
2.580882423421965
100
AcDbArc
 50
291.5204897073511
 51
349.3445900274031
  0
ARC
  5
C6
330
1F
100
AcDbEntity
  8
枠_表
  6
CONTINUOUS
 62
     3
100
AcDbCircle
 10
1206.008081035111
 20
215.8844805562694
 30
0.0
 40
19.65815626528382
100
AcDbArc
 50
353.0315250986587
 51
7.839947970678348
  0
ARC
  5
C7
330
1F
100
AcDbEntity
  8
枠_表
  6
CONTINUOUS
 62
     3
100
AcDbCircle
 10
1214.892511922779
 20
217.9112829230132
 30
0.0
 40
10.61019807939003
100
AcDbArc
 50
3.537639967999379
 51
74.8013566619203
  0
ARC
  5
C8
330
1F
100
AcDbEntity
  8
枠_表
  6
CONTINUOUS
 62
     3
100
AcDbCircle
 10
1214.219864369873
 20
212.9075745769524
 30
0.0
 40
15.62929101996345
100
AcDbArc
 50
77.23143261361693
 51
105.203415964315
  0
ARC
  5
C9
330
1F
100
AcDbEntity
  8
枠_表
  6
CONTINUOUS
 62
     3
100
AcDbCircle
 10
1213.238042655574
 20
214.9335287786823
 30
0.0
 40
13.42321657765079
100
AcDbArc
 50
103.4267945469744
 51
150.3242613737993
  0
LINE
  5
CA
330
1F
100
AcDbEntity
  8
枠_表
  6
CONTINUOUS
 62
     3
100
AcDbLine
 10
1200.259148600003
 20
227.0467399463132
 30
0.0
 11
1200.259148600003
 21
221.5792399463112
 31
0.0
  0
ARC
  5
CB
330
1F
100
AcDbEntity
  8
枠_表
  6
CONTINUOUS
 62
     3
100
AcDbCircle
 10
1057.715934784187
 20
190.1014142884173
 30
0.0
 40
104.505225747009
100
AcDbArc
 50
353.1274757312911
 51
357.106204490141
  0
ARC
  5
CC
330
1F
100
AcDbEntity
  8
枠_表
  6
CONTINUOUS
 62
     3
100
AcDbCircle
 10
420.5078281845224
 20
225.7796003758278
 30
0.0
 40
742.7100645598513
100
AcDbArc
 50
356.8390243485978
 51
2.971133813187157
  0
ARC
  5
CD
330
1F
100
AcDbEntity
  8
枠_表
  6
CONTINUOUS
 62
     3
100
AcDbCircle
 10
1150.63910797453
 20
180.5111277709364
 30
0.0
 40
11.2165377829595
100
AcDbArc
 50
314.592391474832
 51
344.9374073189123
  0
ARC
  5
CE
330
1F
100
AcDbEntity
  8
枠_表
  6
CONTINUOUS
 62
     3
100
AcDbCircle
 10
1147.252093452942
 20
187.0139789169002
 30
0.0
 40
18.35200500585038
100
AcDbArc
 50
288.1715191042997
 51
307.8537826235693
  0
LINE
  5
CF
330
1F
100
AcDbEntity
  8
枠_表
  6
CONTINUOUS
 62
     3
100
AcDbLine
 10
1154.828273600001
 20
163.9376149463101
 30
0.0
 11
1152.975398600001
 21
169.5772399463124
 31
0.0
  0
ARC
  5
D0
330
1F
100
AcDbEntity
  8
枠_表
  6
CONTINUOUS
 62
     3
100
AcDbCircle
 10
1150.643362480125
 20
197.5834729373071
 30
0.0
 40
33.90512116232043
100
AcDbArc
 50
277.0901027239701
 51
290.9134154817058
  0
ARC
  5
D1
330
1F
100
AcDbEntity
  8
枠_表
  6
CONTINUOUS
 62
     3
100
AcDbCircle
 10
1155.584599182949
 20
190.4075277940262
 30
0.0
 40
25.52092032294173
100
AcDbArc
 50
286.2966123578915
 51
329.973223283839
  0
ARC
  5
D2
330
1F
100
AcDbEntity
  8
枠_表
  6
CONTINUOUS
 62
     3
100
AcDbCircle
 10
1146.734904268719
 20
191.944703532015
 30
0.0
 40
34.09312894671467
100
AcDbArc
 50
335.1860595856123
 51
1.308075913059364
  0
ARC
  5
D3
330
1F
100
AcDbEntity
  8
枠_表
  6
CONTINUOUS
 62
     3
100
AcDbCircle
 10
2154.813797120276
 20
217.9440541426277
 30
0.0
 40
974.3211367025408
100
AcDbArc
 50
177.2695926307304
 51
181.4833117237826
  0
ARC
  5
D4
330
1F
100
AcDbEntity
  8
枠_表
  6
CONTINUOUS
 62
     3
100
AcDbCircle
 10
1171.636230018467
 20
329.6126355783338
 30
0.0
 40
66.01138250235698
100
AcDbArc
 50
261.7986203004403
 51
278.6803384946418
  0
ARC
  5
D5
330
1F
100
AcDbEntity
  8
枠_表
  6
CONTINUOUS
 62
     3
100
AcDbCircle
 10
1208.408414903186
 20
268.1252071740778
 30
0.0
 40
62.04610222041025
100
AcDbArc
 50
278.4088456599976
 51
286.1851416003176
  0
ARC
  5
D6
330
1F
100
AcDbEntity
  8
枠_表
  6
CONTINUOUS
 62
     3
100
AcDbCircle
 10
1221.849097763783
 20
178.2478294001976
 30
0.0
 40
28.83098679232812
100
AcDbArc
 50
98.71271710191789
 51
115.2874718053599
  0
ARC
  5
D7
330
1F
100
AcDbEntity
  8
枠_表
  6
CONTINUOUS
 62
     3
100
AcDbCircle
 10
1213.605280025802
 20
195.8711218570784
 30
0.0
 40
9.375291501855795
100
AcDbArc
 50
115.7403688633493
 51
172.5491744442191
  0
LINE
  5
D8
330
1F
100
AcDbEntity
  8
枠_表
  6
CONTINUOUS
 62
     3
100
AcDbLine
 10
1204.309148600001
 20
197.0868649463125
 30
0.0
 11
1204.309148600001
 21
194.1506149463112
 31
0.0
  0
ARC
  5
D9
330
1F
100
AcDbEntity
  8
枠_表
  6
CONTINUOUS
 62
     3
100
AcDbCircle
 10
1213.043948023437
 20
194.6192070146697
 30
0.0
 40
8.747359572704955
100
AcDbArc
 50
183.0707787095794
 51
263.4402016072427
  0
LINE
  5
DA
330
1F
100
AcDbEntity
  8
枠_表
  6
CONTINUOUS
 62
     3
100
AcDbLine
 10
1212.044648600001
 20
185.9291149463115
 30
0.0
 11
1214.646773600002
 21
185.9291149463115
 31
0.0
  0
ARC
  5
DB
330
1F
100
AcDbEntity
  8
枠_表
  6
CONTINUOUS
 62
     3
100
AcDbCircle
 10
1212.486703615014
 20
200.6754734295328
 30
0.0
 40
14.90372405996874
100
AcDbArc
 50
278.3335103000368
 51
329.1221464187299
  0
ARC
  5
DC
330
1F
100
AcDbEntity
  8
枠_表
  6
CONTINUOUS
 62
     3
100
AcDbCircle
 10
-33708.0231332659
 20
1158.489786838177
 30
0.0
 40
34946.64001890887
100
AcDbArc
 50
358.4169008257799
 51
358.4423418242109
  0
ARC
  5
DD
330
1F
100
AcDbEntity
  8
枠_表
  6
CONTINUOUS
 62
     3
100
AcDbCircle
 10
1254.871317010524
 20
123.7603881767564
 30
0.0
 40
59.53363641627745
100
AcDbArc
 50
85.07099551674689
 51
93.91830029343228
  0
ARC
  5
DE
330
1F
100
AcDbEntity
  8
枠_表
  6
CONTINUOUS
 62
     3
100
AcDbCircle
 10
1370.113286842783
 20
196.3725220514721
 30
0.0
 40
110.9268148967239
100
AcDbArc
 50
179.8977458165987
 51
186.8855675734268
  0
ARC
  5
DF
330
1F
100
AcDbEntity
  8
枠_表
  6
CONTINUOUS
 62
     3
100
AcDbCircle
 10
1275.849258355086
 20
213.1192837707101
 30
0.0
 40
16.62598434477196
100
AcDbArc
 50
134.9787476233347
 51
181.2369872983282
  0
ARC
  5
E0
330
1F
100
AcDbEntity
  8
枠_表
  6
CONTINUOUS
 62
     3
100
AcDbCircle
 10
1272.015021780956
 20
214.854940970805
 30
0.0
 40
12.77467585570504
100
AcDbArc
 50
42.91644474042847
 51
128.3015542351336
  0
ARC
  5
E1
330
1F
100
AcDbEntity
  8
枠_表
  6
CONTINUOUS
 62
     3
100
AcDbCircle
 10
1267.417110685406
 20
214.5472708232342
 30
0.0
 40
16.60758761616231
100
AcDbArc
 50
359.2495022237244
 51
32.84055016678327
  0
ARC
  5
E2
330
1F
100
AcDbEntity
  8
枠_表
  6
CONTINUOUS
 62
     3
100
AcDbCircle
 10
1036.676006797587
 20
202.1627006823689
 30
0.0
 40
247.6463350002882
100
AcDbArc
 50
355.5862454873798
 51
2.816115806820253
  0
ARC
  5
E3
330
1F
100
AcDbEntity
  8
枠_表
  6
CONTINUOUS
 62
     3
100
AcDbCircle
 10
1287.865711100003
 20
135.9022892884184
 30
0.0
 40
47.39539878190116
100
AcDbArc
 50
84.82155189294139
 51
95.17844810705873
  0
ARC
  5
E4
330
1F
100
AcDbEntity
  8
枠_表
  6
CONTINUOUS
 62
     3
100
AcDbCircle
 10
1536.986450492672
 20
194.8601062108708
 30
0.0
 40
245.1249869780733
100
AcDbArc
 50
176.2131780319488
 51
182.7488833337936
  0
ARC
  5
E5
330
1F
100
AcDbEntity
  8
枠_表
  6
CONTINUOUS
 62
     3
100
AcDbCircle
 10
1200.287040181634
 20
213.4973662218204
 30
0.0
 40
92.14213631800438
100
AcDbArc
 50
358.4775281223095
 51
2.117232414210064
  0
ARC
  5
E6
330
1F
100
AcDbEntity
  8
枠_表
  6
CONTINUOUS
 62
     3
100
AcDbCircle
 10
1274.685827301849
 20
216.9428913677291
 30
0.0
 40
17.68049477190885
100
AcDbArc
 50
359.8658335690532
 51
34.49363429411157
  0
ARC
  5
E7
330
1F
100
AcDbEntity
  8
枠_表
  6
CONTINUOUS
 62
     3
100
AcDbCircle
 10
1277.658608612191
 20
218.8806997196991
 30
0.0
 40
14.1332156333331
100
AcDbArc
 50
34.84393737091607
 51
92.5207065423111
  0
ARC
  5
E8
330
1F
100
AcDbEntity
  8
枠_表
  6
CONTINUOUS
 62
     3
100
AcDbCircle
 10
1276.131160350509
 20
212.8913983227892
 30
0.0
 40
20.1292349498589
100
AcDbArc
 50
87.42068310381028
 51
147.4361518966862
  0
ARC
  5
E9
330
1F
100
AcDbEntity
  8
枠_表
  6
CONTINUOUS
 62
     3
100
AcDbCircle
 10
1315.586209109551
 20
225.1178522074588
 30
0.0
 40
56.43698250687272
100
AcDbArc
 50
172.9875214416311
 51
181.4134392789641
  0
ARC
  5
EA
330
1F
100
AcDbEntity
  8
枠_表
  6
CONTINUOUS
 62
     3
100
AcDbCircle
 10
1255.062427479312
 20
249.3310319721741
 30
0.0
 40
17.90024037819024
100
AcDbArc
 50
255.9341994177206
 51
284.5896440601899
  0
ARC
  5
EB
330
1F
100
AcDbEntity
  8
枠_表
  6
CONTINUOUS
 62
     3
100
AcDbCircle
 10
945.1765483008658
 20
206.9907088007619
 30
0.0
 40
306.5546709196609
100
AcDbArc
 50
355.5405243117485
 51
4.673398698656258
  0
LINE
  5
EC
330
1F
100
AcDbEntity
  8
枠_表
  6
CONTINUOUS
 62
     3
100
AcDbLine
 10
1259.227148600001
 20
212.7603649463106
 30
0.0
 11
1259.227148600001
 21
196.5704899463117
 31
0.0
  0
CIRCLE
  5
ED
330
1F
100
AcDbEntity
  8
枠_表
  6
CONTINUOUS
 62
     3
100
AcDbCircle
 10
1314.42827105763
 20
249.8753200310557
 30
0.0
 40
5.358501700154835
  0
ARC
  5
EE
330
1F
100
AcDbEntity
  8
枠_表
  6
CONTINUOUS
 62
     3
100
AcDbCircle
 10
1314.218411404285
 20
251.2998711537125
 30
0.0
 40
19.7884282326031
100
AcDbArc
 50
256.6209501743446
 51
283.9984576255729
  0
ARC
  5
EF
330
1F
100
AcDbEntity
  8
枠_表
  6
CONTINUOUS
 62
     3
100
AcDbCircle
 10
1314.621613405826
 20
85.19706276185161
 30
0.0
 40
97.99289227876633
100
AcDbArc
 50
87.46575055044718
 51
92.90832285102188
  0
ARC
  5
F0
330
1F
100
AcDbEntity
  8
枠_表
  6
CONTINUOUS
 62
     3
100
AcDbCircle
 10
1623.381070769459
 20
207.2821508609081
 30
0.0
 40
305.38595858835
100
AcDbArc
 50
175.3387608397566
 51
184.5428594926176
  0
ARC
  5
F1
330
1F
100
AcDbEntity
  8
枠_表
  6
CONTINUOUS
 62
     3
100
AcDbCircle
 10
977.535086304707
 20
207.4874689149362
 30
0.0
 40
333.0114127553719
100
AcDbArc
 50
355.7940354718673
 51
4.229650257234378
  0
ARC
  5
F2
330
1F
100
AcDbEntity
  8
枠_表
  6
CONTINUOUS
 62
     3
100
AcDbCircle
 10
1832.466679849346
 20
1447.54461494463
 30
0.0
 40
1305.420034344473
100
AcDbArc
 50
248.6422112053103
 51
248.8567777804232
  0
ARC
  5
F3
330
1F
100
AcDbEntity
  8
枠_表
  6
CONTINUOUS
 62
     3
100
AcDbCircle
 10
1351.281424269212
 20
217.7494557545924
 30
0.0
 40
15.16361801388235
100
AcDbArc
 50
67.66151957087348
 51
88.69073168448988
  0
ARC
  5
F4
330
1F
100
AcDbEntity
  8
枠_表
  6
CONTINUOUS
 62
     3
100
AcDbCircle
 10
1349.656656642713
 20
213.146864690641
 30
0.0
 40
19.79962298051288
100
AcDbArc
 50
92.38301574576484
 51
114.9635286746436
  0
ARC
  5
F5
330
1F
100
AcDbEntity
  8
枠_表
  6
CONTINUOUS
 62
     3
100
AcDbCircle
 10
1348.194524520067
 20
217.8013936652815
 30
0.0
 40
14.97648840463785
100
AcDbArc
 50
117.4083995939977
 51
176.1964688215695
  0
ARC
  5
F6
330
1F
100
AcDbEntity
  8
枠_表
  6
CONTINUOUS
 62
     3
100
AcDbCircle
 10
1343.339888689027
 20
216.3289153613312
 30
0.0
 40
10.04058908858416
100
AcDbArc
 50
181.2393899443581
 51
226.5942921332421
  0
ARC
  5
F7
330
1F
100
AcDbEntity
  8
枠_表
  6
CONTINUOUS
 62
     3
100
AcDbCircle
 10
1349.290221870051
 20
222.3594616510047
 30
0.0
 40
18.51151426169351
100
AcDbArc
 50
226.0402388947521
 51
253.1776672992999
  0
ARC
  5
F8
330
1F
100
AcDbEntity
  8
枠_表
  6
CONTINUOUS
 62
     3
100
AcDbCircle
 10
1333.75723377469
 20
161.9185712632816
 30
0.0
 40
43.91667620959131
100
AcDbArc
 50
63.49050203733571
 51
76.60259219849584
  0
ARC
  5
F9
330
1F
100
AcDbEntity
  8
枠_表
  6
CONTINUOUS
 62
     3
100
AcDbCircle
 10
1350.462006878177
 20
194.976933814977
 30
0.0
 40
6.88065228328521
100
AcDbArc
 50
6.53892419415897
 51
65.09756080693691
  0
ARC
  5
FA
330
1F
100
AcDbEntity
  8
枠_表
  6
CONTINUOUS
 62
     3
100
AcDbCircle
 10
1348.553666617102
 20
194.5503545635768
 30
0.0
 40
8.91593237815014
100
AcDbArc
 50
270.8867385422408
 51
352.7925382056677
  0
ARC
  5
FB
330
1F
100
AcDbEntity
  8
枠_表
  6
CONTINUOUS
 62
     3
100
AcDbCircle
 10
1347.954156485355
 20
198.9987959666075
 30
0.0
 40
13.47006053193791
100
AcDbArc
 50
207.7689879465537
 51
262.7817283832026
  0
ARC
  5
FC
330
1F
100
AcDbEntity
  8
枠_表
  6
CONTINUOUS
 62
     3
100
AcDbCircle
 10
1345.189508189041
 20
208.2234865216537
 30
0.0
 40
26.2991447367003
100
AcDbArc
 50
241.8829576087176
 51
265.9354096935781
  0
ARC
  5
FD
330
1F
100
AcDbEntity
  8
枠_表
  6
CONTINUOUS
 62
     3
100
AcDbCircle
 10
1347.699582970261
 20
199.0038700677076
 30
0.0
 40
17.01772587270968
100
AcDbArc
 50
271.2948770866743
 51
348.6654156292868
  0
ARC
  5
FE
330
1F
100
AcDbEntity
  8
枠_表
  6
CONTINUOUS
 62
     3
100
AcDbCircle
 10
1353.306858193919
 20
198.7825887797362
 30
0.0
 40
11.19367613594409
100
AcDbArc
 50
6.154262763177246
 51
76.17509904255616
  0
ARC
  5
FF
330
1F
100
AcDbEntity
  8
枠_表
  6
CONTINUOUS
 62
     3
100
AcDbCircle
 10
1374.807700453934
 20
287.9038965755285
 30
0.0
 40
80.4846638777502
100
AcDbArc
 50
249.6420733479936
 51
256.4727051201885
  0
ARC
  5
100
330
1F
100
AcDbEntity
  8
枠_表
  6
CONTINUOUS
 62
     3
100
AcDbCircle
 10
1350.108202858243
 20
222.4707962649927
 30
0.0
 40
10.55345561005776
100
AcDbArc
 50
210.9501336849607
 51
251.7794729821079
  0
ARC
  5
101
330
1F
100
AcDbEntity
  8
枠_表
  6
CONTINUOUS
 62
     3
100
AcDbCircle
 10
1360.95471110002
 20
224.0734774463158
 30
0.0
 40
21.102779059401
100
AcDbArc
 50
193.4375782160214
 51
199.459638038058
  0
ARC
  5
102
330
1F
100
AcDbEntity
  8
枠_表
  6
CONTINUOUS
 62
     3
100
AcDbCircle
 10
1348.552644729205
 20
220.901249206189
 30
0.0
 40
8.034208966558964
100
AcDbArc
 50
92.11404364449162
 51
173.4175047026091
  0
ARC
  5
103
330
1F
100
AcDbEntity
  8
枠_表
  6
CONTINUOUS
 62
     3
100
AcDbCircle
 10
1349.122100869251
 20
219.8143854437512
 30
0.0
 40
9.188796451533795
100
AcDbArc
 50
17.92452211681263
 51
85.16543319077402
  0
LINE
  5
104
330
1F
100
AcDbEntity
  8
枠_表
  6
CONTINUOUS
 62
     3
100
AcDbLine
 10
1351.627898600002
 20
232.9091149463125
 30
0.0
 11
1348.833398600002
 21
232.9091149463125
 31
0.0
  0
LINE
  5
105
330
1F
100
AcDbEntity
  8
枠_表
  6
CONTINUOUS
 62
     3
100
AcDbLine
 10
1346.261648600002
 20
185.6354899463111
 30
0.0
 11
1348.691648600002
 21
185.6354899463111
 31
0.0
  0
LINE
  5
106
330
1F
100
AcDbEntity
  8
枠_表
  6
CONTINUOUS
 62
     3
100
AcDbLine
 10
1336.035398600002
 20
192.7229899463123
 30
0.0
 11
1334.719148600002
 21
192.7229899463123
 31
0.0
  0
LINE
  5
107
330
1F
100
AcDbEntity
  8
枠_表
  6
CONTINUOUS
 62
     3
100
AcDbLine
 10
1343.325398600002
 20
181.990489946312
 30
0.0
 11
1348.084148600001
 21
181.990489946312
 31
0.0
  0
LINE
  5
108
330
1F
100
AcDbEntity
  8
枠_表
  6
CONTINUOUS
 62
     3
100
AcDbLine
 10
1200.259148600003
 20
221.5792399463112
 30
0.0
 11
1201.575398600001
 21
221.5792399463112
 31
0.0
  0
ARC
  5
109
330
1F
100
AcDbEntity
  8
枠_表
  6
CONTINUOUS
 62
     3
100
AcDbCircle
 10
1317.801619698268
 20
192.8669639347504
 30
0.0
 40
16.91930610118257
100
AcDbArc
 50
332.3987521421788
 51
359.5124385477116
  0
LINE
  5
10A
330
1F
100
AcDbEntity
  8
枠_表
  6
CONTINUOUS
 62
     3
100
AcDbLine
 10
1357.297898600001
 20
195.7604899463104
 30
0.0
 11
1357.399148600002
 21
193.43173994631
 31
0.0
  0
LINE
  5
10B
330
1F
100
AcDbEntity
  8
枠_表
  6
CONTINUOUS
 62
     3
100
AcDbLine
 10
1364.436023600002
 20
199.9826149463104
 30
0.0
 11
1364.3853986
 21
195.6592399463102
 31
0.0
  0
LINE
  5
10C
330
1F
100
AcDbEntity
  8
枠_表
  6
CONTINUOUS
 62
     3
100
AcDbLine
 10
1340.571398600001
 20
221.8222399463116
 30
0.0
 11
1340.429648600001
 21
219.1694899463107
 31
0.0
  0
LINE
  5
10D
330
1F
100
AcDbEntity
  8
枠_表
  6
CONTINUOUS
 62
     3
100
AcDbLine
 10
1333.251023600001
 20
218.7948649463101
 30
0.0
 11
1333.301648600001
 21
216.1117399463433
 31
0.0
  0
LINE
  5
10E
330
1F
100
AcDbEntity
  8
枠_表
  6
CONTINUOUS
 62
     3
100
AcDbLine
 10
1348.256273600001
 20
228.9299899463128
 30
0.0
 11
1349.896523600002
 21
228.9704899463129
 31
0.0
  0
LINE
  5
10F
330
1F
100
AcDbEntity
  8
枠_表
  6
CONTINUOUS
 62
     3
100
AcDbLine
 10
1357.864898600002
 20
222.6423649463129
 30
0.0
 11
1359.145640230223
 21
222.6423649463129
 31
0.0
  0
ARC
  5
110
330
1F
100
AcDbEntity
  8
枠_表
  6
CONTINUOUS
 62
     3
100
AcDbCircle
 10
1387.26372160343
 20
217.3529156261236
 30
0.0
 40
28.61127005606746
100
AcDbArc
 50
153.7591918158497
 51
169.3462759801917
  0
TEXT
  5
111
330
1F
100
AcDbEntity
  8
枠_表
  6
CONTINUOUS
 62
     2
100
AcDbText
 10
2826.805664100124
 20
391.0841674500011
 30
0.0
 40
44.99999618530273
  1
１
 41
1.101333426694527
  7
EXCADSTD
 72
     5
 11
2862.205664100125
 21
391.0841674500011
 31
0.0
100
AcDbText
  0
TEXT
  5
112
330
1F
100
AcDbEntity
  8
枠_表
  6
CONTINUOUS
 62
     2
100
AcDbText
 10
294.7500000001251
 20
400.125001907348
 30
0.0
 40
63.74999618530273
  1
製図
 41
1.509694103275157
  7
EXCADSTD
 72
     5
 11
445.9889895104705
 21
400.125001907348
 31
0.0
100
AcDbText
  0
TEXT
  5
113
330
1F
100
AcDbEntity
  8
枠_表
  6
CONTINUOUS
 62
     2
100
AcDbText
 10
527.250000000125
 20
400.125001907348
 30
0.0
 40
63.74999618530273
  1
写図
 41
1.509694103275156
  7
EXCADSTD
 72
     5
 11
678.4889895104704
 21
400.125001907348
 31
0.0
100
AcDbText
  0
TEXT
  5
114
330
1F
100
AcDbEntity
  8
枠_表
  6
CONTINUOUS
 62
     2
100
AcDbText
 10
752.2500000001268
 20
400.125001907348
 30
0.0
 40
63.74999618530273
  1
検図
 41
1.303826737454632
  7
EXCADSTD
 72
     5
 11
882.8654921328858
 21
400.125001907348
 31
0.0
100
AcDbText
  0
TEXT
  5
115
330
1F
100
AcDbEntity
  8
枠_表
  6
CONTINUOUS
 62
     2
100
AcDbText
 10
947.2500000001268
 20
400.125001907348
 30
0.0
 40
63.74999618530273
  1
承認
 41
1.303826737454633
  7
EXCADSTD
 72
     5
 11
1077.865492132886
 21
400.125001907348
 31
0.0
100
AcDbText
  0
TEXT
  5
116
330
1F
100
AcDbEntity
  8
枠_表
  6
CONTINUOUS
 62
     2
100
AcDbText
 10
1124.625000000126
 20
385.125001907348
 30
0.0
 40
63.74999618530273
  1
品
 41
1.119999999999999
  7
EXCADSTD
 72
     5
 11
1175.624996948368
 21
385.125001907348
 31
0.0
100
AcDbText
  0
TEXT
  5
117
330
1F
100
AcDbEntity
  8
枠_表
  6
CONTINUOUS
 62
     2
100
AcDbText
 10
1124.625000000126
 20
310.125001907348
 30
0.0
 40
63.74999618530273
  1
名
 41
1.119999999999999
  7
EXCADSTD
 72
     5
 11
1175.624996948368
 21
310.125001907348
 31
0.0
100
AcDbText
  0
TEXT
  5
118
330
1F
100
AcDbEntity
  8
枠_表
  6
CONTINUOUS
 62
     2
100
AcDbText
 10
2084.625000000124
 20
385.125001907348
 30
0.0
 40
63.74999618530273
  1
品
 41
1.120000000000004
  7
EXCADSTD
 72
     5
 11
2135.624996948367
 21
385.125001907348
 31
0.0
100
AcDbText
  0
TEXT
  5
119
330
1F
100
AcDbEntity
  8
枠_表
  6
CONTINUOUS
 62
     2
100
AcDbText
 10
2084.625000000124
 20
310.125001907348
 30
0.0
 40
63.74999618530273
  1
番
 41
1.120000000000004
  7
EXCADSTD
 72
     5
 11
2135.624996948367
 21
310.125001907348
 31
0.0
100
AcDbText
  0
TEXT
  5
11A
330
1F
100
AcDbEntity
  8
枠_表
  6
CONTINUOUS
 62
     2
100
AcDbText
 10
2716.125000000124
 20
385.125001907348
 30
0.0
 40
63.74999618530273
  1
尺
 41
1.120000000000004
  7
EXCADSTD
 72
     5
 11
2767.124996948367
 21
385.125001907348
 31
0.0
100
AcDbText
  0
TEXT
  5
11B
330
1F
100
AcDbEntity
  8
枠_表
  6
CONTINUOUS
 62
     2
100
AcDbText
 10
2716.125000000124
 20
310.125001907348
 30
0.0
 40
63.74999618530273
  1
度
 41
1.120000000000004
  7
EXCADSTD
 72
     5
 11
2767.124996948367
 21
310.125001907348
 31
0.0
100
AcDbText
  0
TEXT
  5
11C
330
1F
100
AcDbEntity
  8
枠_表
  6
CONTINUOUS
 62
     2
100
AcDbText
 10
2084.625000000124
 20
215.6250019073486
 30
0.0
 40
63.74999618530273
  1
図
 41
1.120000000000004
  7
EXCADSTD
 72
     5
 11
2135.624996948367
 21
215.6250019073486
 31
0.0
100
AcDbText
  0
TEXT
  5
11D
330
1F
100
AcDbEntity
  8
枠_表
  6
CONTINUOUS
 62
     2
100
AcDbText
 10
2084.625000000124
 20
151.1250019073493
 30
0.0
 40
63.74999618530273
  1
番
 41
1.120000000000004
  7
EXCADSTD
 72
     5
 11
2135.624996948367
 21
151.1250019073493
 31
0.0
100
AcDbText
  0
LINE
  5
11E
330
1F
100
AcDbEntity
  8
枠_表
  6
CONTINUOUS
 62
     7
100
AcDbLine
 10
261.0000000001251
 20
469.4999999999993
 30
0.0
 11
2991.000000000125
 21
469.4999999999993
 31
0.0
  0
LINE
  5
11F
330
1F
100
AcDbEntity
  8
枠_表
  6
CONTINUOUS
 62
     7
100
AcDbLine
 10
2991.000000000125
 20
139.4999999999993
 30
0.0
 11
2991.000000000125
 21
4339.499999999999
 31
0.0
  0
LINE
  5
120
330
1F
100
AcDbEntity
  8
枠_表
  6
CONTINUOUS
 62
     7
100
AcDbLine
 10
261.0000000001251
 20
4339.499999999999
 30
0.0
 11
2991.000000000125
 21
4339.499999999999
 31
0.0
  0
LINE
  5
121
330
1F
100
AcDbEntity
  8
枠_表
  6
CONTINUOUS
 62
     6
100
AcDbLine
 10
2991.000000000125
 20
289.4999999999993
 30
0.0
 11
1116.000000000127
 21
289.4999999999993
 31
0.0
  0
LINE
  5
122
330
1F
100
AcDbEntity
  8
枠_表
  6
CONTINUOUS
 62
     6
100
AcDbLine
 10
2781.000000000125
 20
469.4999999999993
 30
0.0
 11
2781.000000000125
 21
289.4999999999993
 31
0.0
  0
LINE
  5
123
330
1F
100
AcDbEntity
  8
枠_表
  6
CONTINUOUS
 62
     6
100
AcDbLine
 10
2706.000000000125
 20
469.4999999999993
 30
0.0
 11
2706.000000000125
 21
289.4999999999993
 31
0.0
  0
LINE
  5
124
330
1F
100
AcDbEntity
  8
枠_表
  6
CONTINUOUS
 62
     6
100
AcDbLine
 10
2151.000000000125
 20
469.4999999999993
 30
0.0
 11
2151.000000000125
 21
139.4999999999993
 31
0.0
  0
LINE
  5
125
330
1F
100
AcDbEntity
  8
枠_表
  6
CONTINUOUS
 62
     6
100
AcDbLine
 10
2076.000000000125
 20
469.4999999999993
 30
0.0
 11
2076.000000000125
 21
139.4999999999993
 31
0.0
  0
LINE
  5
126
330
1F
100
AcDbEntity
  8
枠_表
  6
CONTINUOUS
 62
     6
100
AcDbLine
 10
1191.000000000127
 20
469.4999999999993
 30
0.0
 11
1191.000000000127
 21
289.4999999999993
 31
0.0
  0
LINE
  5
127
330
1F
100
AcDbEntity
  8
枠_表
  6
CONTINUOUS
 62
     6
100
AcDbLine
 10
1116.000000000127
 20
469.4999999999993
 30
0.0
 11
1116.000000000127
 21
139.4999999999993
 31
0.0
  0
LINE
  5
128
330
1F
100
AcDbEntity
  8
枠_表
  6
CONTINUOUS
 62
     6
100
AcDbLine
 10
921.0000000001268
 20
469.4999999999993
 30
0.0
 11
921.0000000001268
 21
139.4999999999993
 31
0.0
  0
LINE
  5
129
330
1F
100
AcDbEntity
  8
枠_表
  6
CONTINUOUS
 62
     6
100
AcDbLine
 10
726.0000000001268
 20
469.4999999999993
 30
0.0
 11
726.0000000001268
 21
139.4999999999993
 31
0.0
  0
LINE
  5
12A
330
1F
100
AcDbEntity
  8
枠_表
  6
CONTINUOUS
 62
     6
100
AcDbLine
 10
493.500000000125
 20
469.4999999999993
 30
0.0
 11
493.500000000125
 21
139.4999999999993
 31
0.0
  0
LINE
  5
12B
330
1F
100
AcDbEntity
  8
枠_表
  6
CONTINUOUS
 62
     6
100
AcDbLine
 10
261.0000000001251
 20
394.4999999999993
 30
0.0
 11
1116.000000000127
 21
394.4999999999993
 31
0.0
  0
LINE
  5
12C
330
1F
100
AcDbEntity
  8
枠_表
  6
CONTINUOUS
 62
     6
100
AcDbLine
 10
2829.980712900124
 20
324.0043945500008
 30
0.0
 11
2945.990844750125
 21
442.04974365
 31
0.0
  0
LINE
  5
12D
330
1F
100
AcDbEntity
  8
枠_表
  6
EXLTYPE2
 62
     6
100
AcDbLine
 10
261.0000000001251
 20
214.4999999999993
 30
0.0
 11
726.0000000001268
 21
214.4999999999993
 31
0.0
  0
LINE
  5
12E
330
1F
100
AcDbEntity
  8
枠_表
  6
CONTINUOUS
 62
     7
100
AcDbLine
 10
261.0000000001251
 20
139.4999999999993
 30
0.0
 11
261.0000000001251
 21
4339.499999999999
 31
0.0
  0
TEXT
  5
12F
330
1F
100
AcDbEntity
  8
枠_表
  6
CONTINUOUS
 62
     2
100
AcDbText
 10
2887.918945350124
 20
324.5232696000016
 30
0.0
 40
44.99999618530273
  1
１５
 41
1.098531308335255
  7
EXCADSTD
 72
     5
 11
2965.600795568659
 21
324.5232696000016
 31
0.0
100
AcDbText
  0
TEXT
  5
130
330
1F
100
AcDbEntity
  8
枠_表
  6
CONTINUOUS
 62
     2
100
AcDbText
 10
2841.000000000176
 20
4153.125001907345
 30
0.0
 40
59.99999618530273
  1
１
 41
1.120000000000004
  7
EXCADSTD
 72
     5
 11
2888.999996948418
 21
4153.125001907345
 31
0.0
100
AcDbText
  0
TEXT
  5
131
330
1F
100
AcDbEntity
  8
枠_表
  6
CONTINUOUS
 62
     2
100
AcDbText
 10
2841.000000000176
 20
4078.875001907345
 30
0.0
 40
59.99999618530273
  1
１
 41
1.120000000000004
  7
EXCADSTD
 72
     5
 11
2888.999996948418
 21
4078.875001907345
 31
0.0
100
AcDbText
  0
TEXT
  5
132
330
1F
100
AcDbEntity
  8
枠_表
  6
CONTINUOUS
 62
     2
100
AcDbText
 10
2209.49999999997
 20
4151.625001907343
 30
0.0
 40
59.99999618530273
  1
洗面化粧台
 41
1.013793091171089
  7
EXCADSTD
 72
     5
 11
2461.499980926483
 21
4151.625001907343
 31
0.0
100
AcDbText
  0
LINE
  5
133
330
1F
100
AcDbEntity
  8
枠_表
  6
CONTINUOUS
 62
     6
100
AcDbLine
 10
1746.000000000176
 20
4220.249999999995
 30
0.0
 11
2946.000000000176
 21
4220.249999999995
 31
0.0
  0
LINE
  5
134
330
1F
100
AcDbEntity
  8
枠_表
  6
CONTINUOUS
 62
     6
100
AcDbLine
 10
1746.000000000176
 20
4294.499999999996
 30
0.0
 11
2946.000000000176
 21
4294.499999999996
 31
0.0
  0
LINE
  5
135
330
1F
100
AcDbEntity
  8
枠_表
  6
CONTINUOUS
 62
     6
100
AcDbLine
 10
1746.000000000176
 20
4071.749999999994
 30
0.0
 11
2946.000000000176
 21
4071.749999999994
 31
0.0
  0
LINE
  5
136
330
1F
100
AcDbEntity
  8
枠_表
  6
CONTINUOUS
 62
     6
100
AcDbLine
 10
1746.000000000176
 20
4145.999999999995
 30
0.0
 11
2946.000000000176
 21
4145.999999999995
 31
0.0
  0
TEXT
  5
137
330
1F
100
AcDbEntity
  8
枠_表
  6
CONTINUOUS
 62
     2
100
AcDbText
 10
2817.000000089583
 20
4227.37500190735
 30
0.0
 40
59.99999618530273
  1
個数
 41
1.049923628946709
  7
EXCADSTD
 72
     5
 11
2915.99279309648
 21
4227.37500190735
 31
0.0
100
AcDbText
  0
TEXT
  5
138
330
1F
100
AcDbEntity
  8
枠_表
  6
CONTINUOUS
 62
     2
100
AcDbText
 10
1873.500000000168
 20
4227.37500190735
 30
0.0
 40
59.99999618530273
  1
品番
 41
1.895695426731975
  7
EXCADSTD
 72
     5
 11
2052.236986013962
 21
4227.37500190735
 31
0.0
100
AcDbText
  0
TEXT
  5
139
330
1F
100
AcDbEntity
  8
枠_表
  6
CONTINUOUS
 62
     2
100
AcDbText
 10
2398.500000000168
 20
4227.37500190735
 30
0.0
 40
59.99999618530273
  1
品名
 41
1.895695426731973
  7
EXCADSTD
 72
     5
 11
2577.236986013962
 21
4227.37500190735
 31
0.0
100
AcDbText
  0
TEXT
  5
13A
330
1F
100
AcDbEntity
  8
枠_表
  6
CONTINUOUS
 62
     2
100
AcDbText
 10
1469.999998569661
 20
304.5000038146966
 30
0.0
 40
74.99999237060547
  1
洗面化粧台
 41
1.052413789665836
  7
EXCADSTD
 72
     5
 11
1796.999964237386
 21
304.5000038146966
 31
0.0
100
AcDbText
  0
TEXT
  5
13B
330
1F
100
AcDbEntity
  8
枠_表
  6
CONTINUOUS
 62
     2
100
AcDbText
 10
1756.500000000167
 20
4153.125001907345
 30
0.0
 40
59.99999618530273
  1
ＬＵ０６０１ＣＳＤ１Ｅ
 41
0.7080769098966538
  7
EXCADSTD
 72
     5
 11
2150.99996757524
 21
4153.125001907345
 31
0.0
100
AcDbText
  0
TEXT
  5
13C
330
1F
100
AcDbEntity
  8
枠_表
  6
CONTINUOUS
 62
     2
100
AcDbText
 10
1756.500000000167
 20
4078.875001907345
 30
0.0
 40
59.99999618530273
  1
ＬＵ０６０１ＣＳＤ１Ｙ
 41
0.7080769098966538
  7
EXCADSTD
 72
     5
 11
2150.99996757524
 21
4078.875001907345
 31
0.0
100
AcDbText
  0
TEXT
  5
13D
330
1F
100
AcDbEntity
  8
枠_表
  6
CONTINUOUS
 62
     2
100
AcDbText
 10
1206.000000000125
 20
402.000001907348
 30
0.0
 40
59.99999618530273
  1
６００ｍｍ幅
 41
0.9999999872843416
  7
EXCADSTD
 72
     5
 11
1505.999977111941
 21
402.000001907348
 31
0.0
100
AcDbText
  0
TEXT
  5
13E
330
1F
100
AcDbEntity
  8
枠_表
  6
CONTINUOUS
 62
     2
100
AcDbText
 10
2209.49999999997
 20
4077.375001907342
 30
0.0
 40
59.99999618530273
  1
洗面化粧台（寒冷地形）
 41
0.9692307555369835
  7
EXCADSTD
 72
     5
 11
2749.4999580383
 21
4077.375001907342
 31
0.0
100
AcDbText
  0
TEXT
  5
13F
330
1F
100
AcDbEntity
  8
枠_表
  6
CONTINUOUS
 62
     2
100
AcDbText
 10
2206.500000715417
 20
342.0000038146966
 30
0.0
 40
74.99999237060547
  1
ＬＵ０６０１ＣＳ型
 41
0.7818868115311168
  7
EXCADSTD
 72
     5
 11
2650.499966383141
 21
342.0000038146966
 31
0.0
100
AcDbText
  0
TEXT
  5
140
330
1F
100
AcDbEntity
  8
枠_表
  6
CONTINUOUS
 62
     2
100
AcDbText
 10
1741.499999998722
 20
3914.250003814705
 30
0.0
 40
59.99999618530273
  1
※止水栓（別途手配）
 41
1.052966101694915
  7
EXCADSTD
 72
     5
 11
2273.999966143284
 21
3914.250003814705
 31
0.0
100
AcDbText
  0
TEXT
  5
141
330
1F
100
AcDbEntity
  8
枠_表
  6
CONTINUOUS
 62
     2
100
AcDbText
 10
2841.000000000176
 20
3578.625001907346
 30
0.0
 40
59.99999618530273
  1
１
 41
1.120000000000004
  7
EXCADSTD
 72
     5
 11
2888.999996948418
 21
3578.625001907346
 31
0.0
100
AcDbText
  0
TEXT
  5
142
330
1F
100
AcDbEntity
  8
枠_表
  6
CONTINUOUS
 62
     2
100
AcDbText
 10
2841.000000000176
 20
3465.750001907348
 30
0.0
 40
59.99999618530273
  1
１
 41
1.120000000000004
  7
EXCADSTD
 72
     5
 11
2888.999996948418
 21
3465.750001907348
 31
0.0
100
AcDbText
  0
TEXT
  5
143
330
1F
100
AcDbEntity
  8
枠_表
  6
CONTINUOUS
 62
     2
100
AcDbText
 10
2284.499999999971
 20
3505.725001907348
 30
0.0
 40
59.99999618530273
  1
配管アダプター
 41
0.990243889413228
  7
EXCADSTD
 72
     5
 11
2632.49997329709
 21
3505.725001907348
 31
0.0
100
AcDbText
  0
TEXT
  5
144
330
1F
100
AcDbEntity
  8
枠_表
  6
CONTINUOUS
 62
     2
100
AcDbText
 10
2284.499999999971
 20
3431.475001907347
 30
0.0
 40
59.99999618530273
  1
（ＶＰ５０・ＶＵ５０用）
 41
0.8183098359622852
  7
EXCADSTD
 72
     5
 11
2782.499954223604
 21
3431.475001907347
 31
0.0
100
AcDbText
  0
TEXT
  5
145
330
1F
100
AcDbEntity
  8
枠_表
  6
CONTINUOUS
 62
     2
100
AcDbText
 10
1746.000000000168
 20
3654.375001907345
 30
0.0
 40
59.99999618530273
  1
※壁排水用部材（別途手配）
 41
1.045454545454545
  7
EXCADSTD
 72
     5
 11
2435.999956131149
 21
3654.375001907345
 31
0.0
100
AcDbText
  0
LINE
  5
146
330
1F
100
AcDbEntity
  8
枠_表
  6
CONTINUOUS
 62
     6
100
AcDbLine
 10
1746.000000000176
 20
3899.249999999997
 30
0.0
 11
2946.000000000178
 21
3899.249999999997
 31
0.0
  0
LINE
  5
147
330
1F
100
AcDbEntity
  8
枠_表
  6
CONTINUOUS
 62
     6
100
AcDbLine
 10
1746.000000000176
 20
3750.749999999996
 30
0.0
 11
2946.000000000178
 21
3750.749999999996
 31
0.0
  0
LINE
  5
148
330
1F
100
AcDbEntity
  8
枠_表
  6
CONTINUOUS
 62
     6
100
AcDbLine
 10
1746.000000000176
 20
3824.999999999997
 30
0.0
 11
2946.000000000178
 21
3824.999999999997
 31
0.0
  0
LINE
  5
149
330
1F
100
AcDbEntity
  8
枠_表
  6
CONTINUOUS
 62
     6
100
AcDbLine
 10
1746.000000000176
 20
3750.75
 30
0.0
 11
1746.000000000176
 21
3899.249999999997
 31
0.0
  0
LINE
  5
14A
330
1F
100
AcDbEntity
  8
枠_表
  6
CONTINUOUS
 62
     6
100
AcDbLine
 10
2271.000000000178
 20
3750.749999999996
 30
0.0
 11
2271.000000000178
 21
3899.249999999997
 31
0.0
  0
LINE
  5
14B
330
1F
100
AcDbEntity
  8
枠_表
  6
CONTINUOUS
 62
     6
100
AcDbLine
 10
2796.000000000178
 20
3750.749999999996
 30
0.0
 11
2796.000000000178
 21
3899.249999999997
 31
0.0
  0
LINE
  5
14C
330
1F
100
AcDbEntity
  8
枠_表
  6
CONTINUOUS
 62
     6
100
AcDbLine
 10
2946.000000000178
 20
3750.75
 30
0.0
 11
2946.000000000178
 21
3899.249999999997
 31
0.0
  0
LINE
  5
14D
330
1F
100
AcDbEntity
  8
枠_表
  6
CONTINUOUS
 62
     6
100
AcDbLine
 10
1746.000000000176
 20
3422.999999999997
 30
0.0
 11
2946.000000000178
 21
3422.999999999997
 31
0.0
  0
LINE
  5
14E
330
1F
100
AcDbEntity
  8
枠_表
  6
CONTINUOUS
 62
     6
100
AcDbLine
 10
1746.000000000176
 20
3571.499999999999
 30
0.0
 11
2946.000000000178
 21
3571.499999999999
 31
0.0
  0
LINE
  5
14F
330
1F
100
AcDbEntity
  8
枠_表
  6
CONTINUOUS
 62
     6
100
AcDbLine
 10
1746.000000000176
 20
3645.749999999996
 30
0.0
 11
2946.000000000178
 21
3645.749999999996
 31
0.0
  0
LINE
  5
150
330
1F
100
AcDbEntity
  8
枠_表
  6
CONTINUOUS
 62
     6
100
AcDbLine
 10
1746.000000000176
 20
3422.999999999997
 30
0.0
 11
1746.000000000176
 21
3645.749999999996
 31
0.0
  0
LINE
  5
151
330
1F
100
AcDbEntity
  8
枠_表
  6
CONTINUOUS
 62
     6
100
AcDbLine
 10
2271.000000000178
 20
3422.999999999997
 30
0.0
 11
2271.000000000178
 21
3645.749999999996
 31
0.0
  0
LINE
  5
152
330
1F
100
AcDbEntity
  8
枠_表
  6
CONTINUOUS
 62
     6
100
AcDbLine
 10
2796.000000000178
 20
3422.999999999997
 30
0.0
 11
2796.000000000178
 21
3645.749999999996
 31
0.0
  0
LINE
  5
153
330
1F
100
AcDbEntity
  8
枠_表
  6
CONTINUOUS
 62
     6
100
AcDbLine
 10
2946.000000000178
 20
3422.999999999997
 30
0.0
 11
2946.000000000178
 21
3645.749999999996
 31
0.0
  0
TEXT
  5
154
330
1F
100
AcDbEntity
  8
枠_表
  6
CONTINUOUS
 62
     2
100
AcDbText
 10
1756.500000000167
 20
3578.625001907346
 30
0.0
 40
59.99999618530273
  1
４４１３１
 41
0.7543103313994125
  7
EXCADSTD
 72
     5
 11
1943.999984741378
 21
3578.625001907346
 31
0.0
100
AcDbText
  0
TEXT
  5
155
330
1F
100
AcDbEntity
  8
枠_表
  6
CONTINUOUS
 62
     2
100
AcDbText
 10
2284.499999999971
 20
3577.125001907344
 30
0.0
 40
59.99999618530273
  1
Ｌ管
 41
1.049923628946709
  7
EXCADSTD
 72
     5
 11
2383.492793006868
 21
3577.125001907344
 31
0.0
100
AcDbText
  0
TEXT
  5
156
330
1F
100
AcDbEntity
  8
枠_表
  6
CONTINUOUS
 62
     2
100
AcDbText
 10
2841.000000000176
 20
3832.875001907347
 30
0.0
 40
59.99999618530273
  1
２
 41
1.120000000000004
  7
EXCADSTD
 72
     5
 11
2888.999996948418
 21
3832.875001907347
 31
0.0
100
AcDbText
  0
TEXT
  5
157
330
1F
100
AcDbEntity
  8
枠_表
  6
CONTINUOUS
 62
     2
100
AcDbText
 10
2284.499999999971
 20
3833.625001907346
 30
0.0
 40
59.99999618530273
  1
床給水用止水栓
 41
0.990243889413228
  7
EXCADSTD
 72
     5
 11
2632.49997329709
 21
3833.625001907346
 31
0.0
100
AcDbText
  0
TEXT
  5
158
330
1F
100
AcDbEntity
  8
枠_表
  6
CONTINUOUS
 62
     2
100
AcDbText
 10
2841.000000000176
 20
3759.375001907345
 30
0.0
 40
59.99999618530273
  1
２
 41
1.120000000000004
  7
EXCADSTD
 72
     5
 11
2888.999996948418
 21
3759.375001907345
 31
0.0
100
AcDbText
  0
TEXT
  5
159
330
1F
100
AcDbEntity
  8
枠_表
  6
CONTINUOUS
 62
     2
100
AcDbText
 10
2281.49999999997
 20
3759.375001907345
 30
0.0
 40
59.99999618530273
  1
壁給水用止水栓
 41
0.990243889413228
  7
EXCADSTD
 72
     5
 11
2629.49997329709
 21
3759.375001907345
 31
0.0
100
AcDbText
  0
TEXT
  5
15A
330
1F
100
AcDbEntity
  8
枠_表
  6
CONTINUOUS
 62
     2
100
AcDbText
 10
1741.499999998721
 20
3333.000003814705
 30
0.0
 40
59.99999618530273
  1
※洗面化粧台には、床排水用トラップを付属
 41
1.036764705882353
  7
EXCADSTD
 72
     5
 11
2798.999932764681
 21
3333.000003814705
 31
0.0
100
AcDbText
  0
TEXT
  5
15B
330
1F
100
AcDbEntity
  8
枠_表
  6
CONTINUOUS
 62
     2
100
AcDbText
 10
1741.499999998721
 20
3273.000007629402
 30
0.0
 40
59.99999618530273
  1
※洗面化粧台には、止水栓は含まれない
 41
1.038551401869159
  7
EXCADSTD
 72
     5
 11
2693.999939440401
 21
3273.000007629402
 31
0.0
100
AcDbText
  0
TEXT
  5
15C
330
1F
100
AcDbEntity
  8
枠_表
  6
CONTINUOUS
 62
     2
100
AcDbText
 10
1741.499999998721
 20
3213.0000114441
 30
0.0
 40
59.99999618530273
  1
※湯水混合水栓は、節湯Ｃ１形、吐水口引出式
 41
1.036
  7
EXCADSTD
 72
     5
 11
2851.499929426821
 21
3213.0000114441
 31
0.0
100
AcDbText
  0
TEXT
  5
15D
330
1F
100
AcDbEntity
  8
枠_表
  6
CONTINUOUS
 62
     2
100
AcDbText
 10
2841.000000000214
 20
4002.300001907348
 30
0.0
 40
59.99999618530273
  1
１
 41
1.120000000000004
  7
EXCADSTD
 72
     5
 11
2888.999996948456
 21
4002.300001907348
 31
0.0
100
AcDbText
  0
LINE
  5
15E
330
1F
100
AcDbEntity
  8
枠_表
  6
CONTINUOUS
 62
     6
100
AcDbLine
 10
2946.00000000021
 20
3996.749999999994
 30
0.0
 11
1746.00000000021
 21
3996.749999999994
 31
0.0
  0
LINE
  5
15F
330
1F
100
AcDbEntity
  8
枠_表
  6
CONTINUOUS
 62
     6
100
AcDbLine
 10
2946.000000000176
 20
3996.75
 30
0.0
 11
2946.000000000176
 21
4294.499999999999
 31
0.0
  0
LINE
  5
160
330
1F
100
AcDbEntity
  8
枠_表
  6
CONTINUOUS
 62
     6
100
AcDbLine
 10
2796.000000000176
 20
3996.749999999994
 30
0.0
 11
2796.000000000176
 21
4294.499999999996
 31
0.0
  0
LINE
  5
161
330
1F
100
AcDbEntity
  8
枠_表
  6
CONTINUOUS
 62
     6
100
AcDbLine
 10
2196.000000000178
 20
4294.499999999996
 30
0.0
 11
2196.000000000178
 21
3996.749999999994
 31
0.0
  0
LINE
  5
162
330
1F
100
AcDbEntity
  8
枠_表
  6
CONTINUOUS
 62
     6
100
AcDbLine
 10
1746.000000000176
 20
3996.749999999994
 30
0.0
 11
1746.000000000176
 21
4294.499999999999
 31
0.0
  0
TEXT
  5
163
330
1F
100
AcDbEntity
  8
枠_表
  6
CONTINUOUS
 62
     2
100
AcDbText
 10
2209.050000000207
 20
4003.875001907348
 30
0.0
 40
59.99999618530273
  1
化粧鏡
 41
1.070588224822399
  7
EXCADSTD
 72
     5
 11
2365.049988556115
 21
4003.875001907348
 31
0.0
100
AcDbText
  0
TEXT
  5
164
330
1F
100
AcDbEntity
  8
枠_表
  6
CONTINUOUS
 62
     2
100
AcDbText
 10
1753.500000000166
 20
3466.875001907349
 30
0.0
 40
59.99999618530273
  1
ＬＵＭＥＨ７０－２００－３２Ｂ
 41
0.6685393858491744
  7
EXCADSTD
 72
     5
 11
2263.500013351606
 21
3466.875001907349
 31
0.0
100
AcDbText
  0
CIRCLE
  5
165
330
1F
100
AcDbEntity
  8
枠_表
  6
CONTINUOUS
 62
     6
100
AcDbCircle
 10
336.000000000125
 20
176.9999999999993
 30
0.0
 40
1.5000003
  0
CIRCLE
  5
166
330
1F
100
AcDbEntity
  8
枠_表
  6
CONTINUOUS
 62
     6
100
AcDbCircle
 10
411.000000000125
 20
176.9999999999993
 30
0.0
 40
1.5000003
  0
CIRCLE
  5
167
330
1F
100
AcDbEntity
  8
枠_表
  6
CONTINUOUS
 62
     6
100
AcDbCircle
 10
568.500000000125
 20
176.9999999999993
 30
0.0
 40
1.5000003
  0
CIRCLE
  5
168
330
1F
100
AcDbEntity
  8
枠_表
  6
CONTINUOUS
 62
     6
100
AcDbCircle
 10
643.500000000125
 20
176.9999999999993
 30
0.0
 40
1.5000003
  0
TEXT
  5
169
330
1F
100
AcDbEntity
  8
枠_表
  6
CONTINUOUS
 62
     2
100
AcDbText
 10
1753.500000000227
 20
3831.75000190735
 30
0.0
 40
59.99999618530273
  1
ＪＬ２２１Ｆ２００ＷＭＳＹ２５
 41
0.6685393858491744
  7
EXCADSTD
 72
     5
 11
2263.500013351668
 21
3831.75000190735
 31
0.0
100
AcDbText
  0
TEXT
  5
16A
330
1F
100
AcDbEntity
  8
枠_表
  6
CONTINUOUS
 62
     2
100
AcDbText
 10
1756.500000000167
 20
3757.875001907347
 30
0.0
 40
59.99999618530273
  1
ＪＬ２２１－７５ＷＭＳＹ
 41
0.7049295643013956
  7
EXCADSTD
 72
     5
 11
2185.499964714217
 21
3757.875001907347
 31
0.0
100
AcDbText
  0
TEXT
  5
16B
330
1F
100
AcDbEntity
  8
枠_表
  6
CONTINUOUS
 62
     2
100
AcDbText
 10
1756.500000000206
 20
4003.875001907348
 30
0.0
 40
59.99999618530273
  1
ＬＵＭ４５１０ＰＮＮ
 41
0.7711864312489818
  7
EXCADSTD
 72
     5
 11
2146.499970436302
 21
4003.875001907348
 31
0.0
100
AcDbText
  0
TEXT
  5
16C
330
1F
100
AcDbEntity
  8
枠_表
  6
CONTINUOUS
 62
     2
100
AcDbText
 10
302.2500000000674
 20
267.0000038146999
 30
0.0
 40
74.99999237060547
  1
伊藤
 41
1.166581818181818
  7
EXCADSTD
 72
     5
 11
439.7399860138613
 21
267.0000038146999
 31
0.0
100
AcDbText
  0
TEXT
  5
16D
330
1F
100
AcDbEntity
  8
枠_表
  6
CONTINUOUS
 62
     6
100
AcDbText
 10
270.5161735132857
 20
153.6751117073487
 30
0.0
 40
44.99999618530273
  1
'23
 41
0.4689783949971204
  7
EXCADSTD
 72
     5
 11
317.7489935768767
 21
153.6751117073487
 31
0.0
100
AcDbText
  0
TEXT
  5
16E
330
1F
100
AcDbEntity
  8
枠_表
  6
CONTINUOUS
 62
     6
100
AcDbText
 10
364.6036740854902
 20
153.6751117073487
 30
0.0
 40
44.99999618530273
  1
4
 41
0.4423611164681707
  7
EXCADSTD
 72
     5
 11
381.6661728457136
 21
153.6751117073487
 31
0.0
100
AcDbText
  0
TEXT
  5
16F
330
1F
100
AcDbEntity
  8
枠_表
  6
CONTINUOUS
 62
     6
100
AcDbText
 10
434.8411738709138
 20
153.6751117073487
 30
0.0
 40
44.99999618530273
  1
18
 41
0.4086486447995843
  7
EXCADSTD
 72
     5
 11
467.241170819156
 21
153.6751117073487
 31
0.0
100
AcDbText
  0
TEXT
  5
170
330
1F
100
AcDbEntity
  8
枠_表
  6
CONTINUOUS
 62
     2
100
AcDbText
 10
747.7500000000674
 20
267.0000038146998
 30
0.0
 40
74.99999237060547
  1
川野
 41
1.166581818181819
  7
EXCADSTD
 72
     5
 11
885.2399860138614
 21
267.0000038146998
 31
0.0
100
AcDbText
  0
TEXT
  5
171
330
1F
100
AcDbEntity
  8
枠_表
  6
CONTINUOUS
 62
     7
100
AcDbText
 10
2263.500000000075
 20
171.7500038146979
 30
0.0
 40
89.99999237060547
  1
ＬＵ２１８８３０
 41
1.01773049277147
  7
EXCADSTD
 72
     5
 11
2878.499945640639
 21
171.7500038146979
 31
0.0
100
AcDbText
  0
LINE
  5
172
330
1F
100
AcDbEntity
  8
化粧台
  6
CONTINUOUS
 62
     2
100
AcDbLine
 10
2066.000000000118
 20
919.5
 30
0.0
 11
2066.000000000118
 21
1599.5
 31
0.0
  0
LINE
  5
173
330
1F
100
AcDbEntity
  8
化粧台
  6
CONTINUOUS
 62
     6
100
AcDbLine
 10
2044.500000000118
 20
1564.499999999995
 30
0.0
 11
2044.500000000118
 21
1562.5
 31
0.0
  0
LINE
  5
174
330
1F
100
AcDbEntity
  8
化粧台
  6
CONTINUOUS
 62
     6
100
AcDbLine
 10
2043.000000000118
 20
1565.543551862876
 30
0.0
 11
2043.000000000118
 21
1563.5
 31
0.0
  0
LINE
  5
175
330
1F
100
AcDbEntity
  8
化粧台
  6
CONTINUOUS
 62
     6
100
AcDbLine
 10
2044.500000000118
 20
1562.5
 30
0.0
 11
2044.000000000118
 21
1562.5
 31
0.0
  0
ARC
  5
176
330
1F
100
AcDbEntity
  8
化粧台
  6
CONTINUOUS
 62
     6
100
AcDbCircle
 10
2044.000000000118
 20
1563.5
 30
0.0
 40
1.0
100
AcDbArc
 50
180.0
 51
270.000000000026
  0
LINE
  5
177
330
1F
100
AcDbEntity
  8
化粧台
  6
CONTINUOUS
 62
     6
100
AcDbLine
 10
2062.500000000118
 20
1549.5
 30
0.0
 11
2063.000000000118
 21
1549.5
 31
0.0
  0
ARC
  5
178
330
1F
100
AcDbEntity
  8
化粧台
  6
CONTINUOUS
 62
     6
100
AcDbCircle
 10
2044.000000000118
 20
1565.543551862876
 30
0.0
 40
1.0
100
AcDbArc
 50
92.8514919099879
 51
180.0
  0
ARC
  5
179
330
1F
100
AcDbEntity
  8
化粧台
  6
CONTINUOUS
 62
     6
100
AcDbCircle
 10
2054.150000000112
 20
1575.060271065815
 30
0.0
 40
8.0
100
AcDbArc
 50
272.8514919099882
 51
0.0
  0
LINE
  5
17A
330
1F
100
AcDbEntity
  8
化粧台
  6
CONTINUOUS
 62
     6
100
AcDbLine
 10
2043.950252619732
 20
1566.54231369542
 30
0.0
 11
2054.547979043207
 21
1567.070176405472
 31
0.0
  0
LINE
  5
17B
330
1F
100
AcDbEntity
  8
化粧台
  6
CONTINUOUS
 62
     6
100
AcDbLine
 10
2062.150000000112
 20
1591.449999999999
 30
0.0
 11
2062.150000000112
 21
1575.060271065815
 31
0.0
  0
LINE
  5
17C
330
1F
100
AcDbEntity
  8
化粧台
  6
CONTINUOUS
 62
     6
100
AcDbLine
 10
2048.327167025418
 20
1592.45000000001
 30
0.0
 11
2061.150000000112
 21
1592.45000000001
 31
0.0
  0
LINE
  5
17D
330
1F
100
AcDbEntity
  8
化粧台
  6
CONTINUOUS
 62
     6
100
AcDbLine
 10
2048.365960544119
 20
1594.5
 30
0.0
 11
2061.000000000118
 21
1594.5
 31
0.0
  0
ARC
  5
17E
330
1F
100
AcDbEntity
  8
化粧台
  6
CONTINUOUS
 62
     6
100
AcDbCircle
 10
2048.365960544159
 20
1591.5
 30
0.0
 40
3.000000000000003
100
AcDbArc
 50
90.00000000000001
 51
142.0420920441179
  0
ARC
  5
17F
330
1F
100
AcDbEntity
  8
化粧台
  6
CONTINUOUS
 62
     6
100
AcDbCircle
 10
2057.827514544913
 20
1584.119011184754
 30
0.0
 40
15.00000000000001
100
AcDbArc
 50
142.0420920441203
 51
170.7449623899722
  0
ARC
  5
180
330
1F
100
AcDbEntity
  8
化粧台
  6
CONTINUOUS
 62
     6
100
AcDbCircle
 10
2048.327167025449
 20
1591.450000000008
 30
0.0
 40
1.0
100
AcDbArc
 50
90.00000000000001
 51
142.3442539694352
  0
ARC
  5
181
330
1F
100
AcDbEntity
  8
化粧台
  6
CONTINUOUS
 62
     6
100
AcDbCircle
 10
2057.827514544913
 20
1584.119011184754
 30
0.0
 40
13.00000000000001
100
AcDbArc
 50
142.344253969435
 51
163.1780394406755
  0
ARC
  5
182
330
1F
100
AcDbEntity
  8
化粧台
  6
CONTINUOUS
 62
     6
100
AcDbCircle
 10
2044.750000000118
 20
1586.25
 30
0.0
 40
1.750000000000001
100
AcDbArc
 50
170.7449623899685
 51
68.7663136548995
  0
ARC
  5
183
330
1F
100
AcDbEntity
  8
化粧台
  6
CONTINUOUS
 62
     6
100
AcDbCircle
 10
2061.150000000112
 20
1591.450000000008
 30
0.0
 40
1.0
100
AcDbArc
 50
0.0
 51
90.00000000000001
  0
LINE
  5
184
330
1F
100
AcDbEntity
  8
化粧台
  6
CONTINUOUS
 62
     6
100
AcDbLine
 10
2044.500000000124
 20
1564.499999999995
 30
0.0
 11
2062.50000000012
 21
1564.499999999995
 31
0.0
  0
ARC
  5
185
330
1F
100
AcDbEntity
  8
化粧台
  6
CONTINUOUS
 62
     6
100
AcDbCircle
 10
2061.000000000118
 20
1591.5
 30
0.0
 40
3.000000000000003
100
AcDbArc
 50
0.0
 51
90.00000000000001
  0
LINE
  5
186
330
1F
100
AcDbEntity
  8
化粧台
  6
CONTINUOUS
 62
     6
100
AcDbLine
 10
2064.000000000118
 20
1591.5
 30
0.0
 11
2064.000000000118
 21
1550.5
 31
0.0
  0
ARC
  5
187
330
1F
100
AcDbEntity
  8
化粧台
  6
CONTINUOUS
 62
     6
100
AcDbCircle
 10
2063.000000000118
 20
1550.5
 30
0.0
 40
1.0
100
AcDbArc
 50
269.999999999987
 51
0.0
  0
LINE
  5
188
330
1F
100
AcDbEntity
  8
化粧台
  6
CONTINUOUS
 62
     2
100
AcDbLine
 10
2045.500000000119
 20
1009.5
 30
0.0
 11
2062.500000000118
 21
1009.5
 31
0.0
  0
LINE
  5
189
330
1F
100
AcDbEntity
  8
化粧台
  6
CONTINUOUS
 62
     6
100
AcDbLine
 10
2523.500005722122
 20
1499.499999999958
 30
0.0
 11
2491.000005722122
 21
1497.49999999996
 31
0.0
  0
LINE
  5
18A
330
1F
100
AcDbEntity
  8
化粧台
  6
CONTINUOUS
 62
     6
100
AcDbLine
 10
2491.000005722122
 20
1501.49999999996
 30
0.0
 11
2523.500005722122
 21
1499.499999999958
 31
0.0
  0
LINE
  5
18B
330
1F
100
AcDbEntity
  8
化粧台
  6
CONTINUOUS
 62
     6
100
AcDbLine
 10
2486.00000000012
 20
1499.499999999953
 30
0.0
 11
2528.50000572202
 21
1499.499999999953
 31
0.0
  0
LINE
  5
18C
330
1F
100
AcDbEntity
  8
化粧台
  6
EXLTYPE2
 62
     6
100
AcDbLine
 10
2375.00000000012
 20
919.4999999999
 30
0.0
 11
2375.00000000012
 21
1089.5
 31
0.0
  0
LINE
  5
18D
330
1F
100
AcDbEntity
  8
化粧台
  6
EXLTYPE2
 62
     6
100
AcDbLine
 10
2407.00000000012
 20
919.4999999999
 30
0.0
 11
2407.00000000012
 21
1089.5
 31
0.0
  0
LINE
  5
18E
330
1F
100
AcDbEntity
  8
化粧台
  6
EXLTYPE3
 62
     6
100
AcDbLine
 10
2391.00000000012
 20
1104.5
 30
0.0
 11
2391.00000000012
 21
854.49999999988
 31
0.0
  0
LINE
  5
18F
330
1F
100
AcDbEntity
  8
化粧台
  6
EXLTYPE2
 62
     6
100
AcDbLine
 10
2368.200000000121
 20
963.7000000000007
 30
0.0
 11
2413.800000000119
 21
963.7000000000007
 31
0.0
  0
LINE
  5
190
330
1F
100
AcDbEntity
  8
化粧台
  6
EXLTYPE2
 62
     6
100
AcDbLine
 10
2368.200000000121
 20
981.5000000000001
 30
0.0
 11
2413.800000000119
 21
981.5000000000001
 31
0.0
  0
LINE
  5
191
330
1F
100
AcDbEntity
  8
化粧台
  6
EXLTYPE2
 62
     6
100
AcDbLine
 10
2357.50000000012
 20
923.5
 30
0.0
 11
2424.500000000124
 21
923.5
 31
0.0
  0
LINE
  5
192
330
1F
100
AcDbEntity
  8
化粧台
  6
EXLTYPE2
 62
     6
100
AcDbLine
 10
2424.500000000124
 20
943.5
 30
0.0
 11
2424.500000000124
 21
923.5
 31
0.0
  0
ARC
  5
193
330
1F
100
AcDbEntity
  8
化粧台
  6
EXLTYPE2
 62
     6
100
AcDbCircle
 10
2421.500000000124
 20
943.5
 30
0.0
 40
3.000000000000003
100
AcDbArc
 50
0.0
 51
90.00000000000001
  0
LINE
  5
194
330
1F
100
AcDbEntity
  8
化粧台
  6
EXLTYPE2
 62
     6
100
AcDbLine
 10
2418.00000000012
 20
958.5
 30
0.0
 11
2418.00000000012
 21
946.5
 31
0.0
  0
ARC
  5
195
330
1F
100
AcDbEntity
  8
化粧台
  6
EXLTYPE2
 62
     6
100
AcDbCircle
 10
2415.000000000124
 20
958.5
 30
0.0
 40
3.000000000000003
100
AcDbArc
 50
0.0
 51
90.00000000000001
  0
LINE
  5
196
330
1F
100
AcDbEntity
  8
化粧台
  6
EXLTYPE2
 62
     6
100
AcDbLine
 10
2364.000000000124
 20
958.5
 30
0.0
 11
2364.000000000124
 21
946.5
 31
0.0
  0
LINE
  5
197
330
1F
100
AcDbEntity
  8
化粧台
  6
EXLTYPE2
 62
     6
100
AcDbLine
 10
2367.000000000124
 20
961.4999999999999
 30
0.0
 11
2415.000000000124
 21
961.4999999999999
 31
0.0
  0
ARC
  5
198
330
1F
100
AcDbEntity
  8
化粧台
  6
EXLTYPE2
 62
     6
100
AcDbCircle
 10
2367.000000000124
 20
958.5
 30
0.0
 40
3.000000000000003
100
AcDbArc
 50
90.00000000000001
 51
180.0
  0
LINE
  5
199
330
1F
100
AcDbEntity
  8
化粧台
  6
EXLTYPE2
 62
     6
100
AcDbLine
 10
2357.50000000012
 20
943.5
 30
0.0
 11
2357.50000000012
 21
923.5
 31
0.0
  0
LINE
  5
19A
330
1F
100
AcDbEntity
  8
化粧台
  6
EXLTYPE2
 62
     6
100
AcDbLine
 10
2360.50000000012
 20
946.5
 30
0.0
 11
2421.500000000124
 21
946.5
 31
0.0
  0
ARC
  5
19B
330
1F
100
AcDbEntity
  8
化粧台
  6
EXLTYPE2
 62
     6
100
AcDbCircle
 10
2360.50000000012
 20
943.5
 30
0.0
 40
3.000000000000003
100
AcDbArc
 50
90.00000000000001
 51
180.0
  0
LINE
  5
19C
330
1F
100
AcDbEntity
  8
化粧台
  6
CONTINUOUS
 62
     6
100
AcDbLine
 10
2368.200000000121
 20
981.5000000000001
 30
0.0
 11
2368.200000000121
 21
963.7000000000007
 31
0.0
  0
LINE
  5
19D
330
1F
100
AcDbEntity
  8
化粧台
  6
CONTINUOUS
 62
     6
100
AcDbLine
 10
2413.800000000119
 20
981.5000000000001
 30
0.0
 11
2413.800000000119
 21
963.7000000000007
 31
0.0
  0
LINE
  5
19E
330
1F
100
AcDbEntity
  8
化粧台
  6
CONTINUOUS
 62
     6
100
AcDbLine
 10
2491.00000000012
 20
1333.499999999998
 30
0.0
 11
2541.00000000012
 21
1333.499999999998
 31
0.0
  0
LINE
  5
19F
330
1F
100
AcDbEntity
  8
化粧台
  6
CONTINUOUS
 62
     6
100
AcDbLine
 10
2491.00000000012
 20
1365.499999999998
 30
0.0
 11
2541.00000000012
 21
1365.499999999998
 31
0.0
  0
LINE
  5
1A0
330
1F
100
AcDbEntity
  8
化粧台
  6
CONTINUOUS
 62
     6
100
AcDbLine
 10
2541.00000000012
 20
1365.499999999998
 30
0.0
 11
2541.00000000012
 21
1333.499999999998
 31
0.0
  0
LINE
  5
1A1
330
1F
100
AcDbEntity
  8
化粧台
  6
EXLTYPE3
 62
     6
100
AcDbLine
 10
2461.00000000012
 20
1349.499999999998
 30
0.0
 11
2556.00000000012
 21
1349.499999999998
 31
0.0
  0
LINE
  5
1A2
330
1F
100
AcDbEntity
  8
化粧台
  6
CONTINUOUS
 62
     6
100
AcDbLine
 10
2499.00000000012
 20
1338.999999999996
 30
0.0
 11
2499.00000000012
 21
1359.999999999985
 31
0.0
  0
LINE
  5
1A3
330
1F
100
AcDbEntity
  8
化粧台
  6
CONTINUOUS
 62
     6
100
AcDbLine
 10
2491.00000000012
 20
1359.999999999985
 30
0.0
 11
2499.00000000012
 21
1359.999999999985
 31
0.0
  0
LINE
  5
1A4
330
1F
100
AcDbEntity
  8
化粧台
  6
CONTINUOUS
 62
     6
100
AcDbLine
 10
2491.00000000012
 20
1338.999999999978
 30
0.0
 11
2499.00000000012
 21
1338.999999999978
 31
0.0
  0
LINE
  5
1A5
330
1F
100
AcDbEntity
  8
化粧台
  6
CONTINUOUS
 62
     2
100
AcDbLine
 10
2407.000000000116
 20
919.4999999999
 30
0.0
 11
2407.000000000116
 21
869.49999999988
 31
0.0
  0
LINE
  5
1A6
330
1F
100
AcDbEntity
  8
化粧台
  6
CONTINUOUS
 62
     2
100
AcDbLine
 10
2407.000000000116
 20
869.49999999988
 30
0.0
 11
2375.000000000116
 21
869.49999999988
 31
0.0
  0
LINE
  5
1A7
330
1F
100
AcDbEntity
  8
化粧台
  6
CONTINUOUS
 62
     2
100
AcDbLine
 10
2375.000000000116
 20
919.4999999999
 30
0.0
 11
2375.000000000116
 21
869.49999999988
 31
0.0
  0
LINE
  5
1A8
330
1F
100
AcDbEntity
  8
化粧台
  6
EXLTYPE3
 62
     6
100
AcDbLine
 10
961.0000000001185
 20
1194.0
 30
0.0
 11
961.0000000001185
 21
899.5
 31
0.0
  0
LINE
  5
1A9
330
1F
100
AcDbEntity
  8
化粧台
  6
CONTINUOUS
 62
     6
100
AcDbLine
 10
771.0000000000966
 20
1499.500000000038
 30
0.0
 11
791.0000000000966
 21
1499.500000000038
 31
0.0
  0
LINE
  5
1AA
330
1F
100
AcDbEntity
  8
化粧台
  6
CONTINUOUS
 62
     6
100
AcDbLine
 10
781.0000000000966
 20
1489.5
 30
0.0
 11
781.0000000000966
 21
1509.50000000004
 31
0.0
  0
CIRCLE
  5
1AB
330
1F
100
AcDbEntity
  8
化粧台
  6
CONTINUOUS
 62
     6
100
AcDbCircle
 10
780.9999999975173
 20
1499.500000000098
 30
0.0
 40
3.800000000000001
  0
LINE
  5
1AC
330
1F
100
AcDbEntity
  8
化粧台
  6
CONTINUOUS
 62
     6
100
AcDbLine
 10
1131.000000000097
 20
1499.500000000038
 30
0.0
 11
1151.000000000097
 21
1499.500000000038
 31
0.0
  0
LINE
  5
1AD
330
1F
100
AcDbEntity
  8
化粧台
  6
CONTINUOUS
 62
     6
100
AcDbLine
 10
1141.000000000097
 20
1489.5
 30
0.0
 11
1141.000000000097
 21
1509.50000000004
 31
0.0
  0
CIRCLE
  5
1AE
330
1F
100
AcDbEntity
  8
化粧台
  6
CONTINUOUS
 62
     6
100
AcDbCircle
 10
1140.999999997517
 20
1499.500000000098
 30
0.0
 40
3.800000000000001
  0
LINE
  5
1AF
330
1F
100
AcDbEntity
  8
化粧台
  6
CONTINUOUS
 62
     6
100
AcDbLine
 10
891.5000000001185
 20
911.5
 30
0.0
 11
870.5000000001276
 21
911.5
 31
0.0
  0
LINE
  5
1B0
330
1F
100
AcDbEntity
  8
化粧台
  6
CONTINUOUS
 62
     6
100
AcDbLine
 10
870.5000000001276
 20
919.5
 30
0.0
 11
870.5000000001276
 21
911.5
 31
0.0
  0
LINE
  5
1B1
330
1F
100
AcDbEntity
  8
化粧台
  6
CONTINUOUS
 62
     6
100
AcDbLine
 10
891.5000000001348
 20
919.5
 30
0.0
 11
891.5000000001348
 21
911.5
 31
0.0
  0
LINE
  5
1B2
330
1F
100
AcDbEntity
  8
化粧台
  6
EXLTYPE4
 62
     6
100
AcDbLine
 10
870.5000000001185
 20
919.5
 30
0.0
 11
870.5000000001185
 21
1069.5
 31
0.0
  0
LINE
  5
1B3
330
1F
100
AcDbEntity
  8
化粧台
  6
EXLTYPE4
 62
     6
100
AcDbLine
 10
891.5000000001185
 20
919.5
 30
0.0
 11
891.5000000001185
 21
1069.5
 31
0.0
  0
LINE
  5
1B4
330
1F
100
AcDbEntity
  8
化粧台
  6
EXLTYPE3
 62
     6
100
AcDbLine
 10
881.0000000001185
 20
1084.5
 30
0.0
 11
881.0000000001185
 21
896.5
 31
0.0
  0
LINE
  5
1B5
330
1F
100
AcDbEntity
  8
化粧台
  6
CONTINUOUS
 62
     6
100
AcDbLine
 10
1030.500000000118
 20
911.5
 30
0.0
 11
1051.500000000108
 21
911.5
 31
0.0
  0
LINE
  5
1B6
330
1F
100
AcDbEntity
  8
化粧台
  6
CONTINUOUS
 62
     6
100
AcDbLine
 10
1051.500000000108
 20
919.5
 30
0.0
 11
1051.500000000108
 21
911.5
 31
0.0
  0
LINE
  5
1B7
330
1F
100
AcDbEntity
  8
化粧台
  6
CONTINUOUS
 62
     6
100
AcDbLine
 10
1030.500000000102
 20
919.5
 30
0.0
 11
1030.500000000102
 21
911.5
 31
0.0
  0
LINE
  5
1B8
330
1F
100
AcDbEntity
  8
化粧台
  6
EXLTYPE4
 62
     6
100
AcDbLine
 10
1030.500000000118
 20
919.5
 30
0.0
 11
1030.500000000118
 21
1069.5
 31
0.0
  0
LINE
  5
1B9
330
1F
100
AcDbEntity
  8
化粧台
  6
EXLTYPE4
 62
     6
100
AcDbLine
 10
1051.500000000118
 20
919.5
 30
0.0
 11
1051.500000000118
 21
1069.5
 31
0.0
  0
LINE
  5
1BA
330
1F
100
AcDbEntity
  8
化粧台
  6
EXLTYPE3
 62
     6
100
AcDbLine
 10
1041.000000000118
 20
1084.5
 30
0.0
 11
1041.000000000118
 21
896.5
 31
0.0
  0
LINE
  5
1BB
330
1F
100
AcDbEntity
  8
化粧台
  6
EXLTYPE2
 62
     6
100
AcDbLine
 10
1145.000000000118
 20
919.4999999999
 30
0.0
 11
1145.000000000118
 21
1089.5
 31
0.0
  0
LINE
  5
1BC
330
1F
100
AcDbEntity
  8
化粧台
  6
EXLTYPE2
 62
     6
100
AcDbLine
 10
1177.000000000118
 20
919.4999999999
 30
0.0
 11
1177.000000000118
 21
1089.5
 31
0.0
  0
LINE
  5
1BD
330
1F
100
AcDbEntity
  8
化粧台
  6
EXLTYPE3
 62
     6
100
AcDbLine
 10
1161.000000000118
 20
1104.5
 30
0.0
 11
1161.000000000118
 21
854.49999999988
 31
0.0
  0
LINE
  5
1BE
330
1F
100
AcDbEntity
  8
化粧台
  6
EXLTYPE2
 62
     6
100
AcDbLine
 10
1138.200000000117
 20
963.7000000000007
 30
0.0
 11
1183.80000000012
 21
963.7000000000007
 31
0.0
  0
LINE
  5
1BF
330
1F
100
AcDbEntity
  8
化粧台
  6
EXLTYPE2
 62
     6
100
AcDbLine
 10
1138.200000000117
 20
981.5000000000001
 30
0.0
 11
1183.80000000012
 21
981.5000000000001
 31
0.0
  0
LINE
  5
1C0
330
1F
100
AcDbEntity
  8
化粧台
  6
EXLTYPE2
 62
     6
100
AcDbLine
 10
1127.500000000118
 20
923.5
 30
0.0
 11
1194.500000000122
 21
923.5
 31
0.0
  0
LINE
  5
1C1
330
1F
100
AcDbEntity
  8
化粧台
  6
EXLTYPE2
 62
     6
100
AcDbLine
 10
1194.500000000122
 20
943.5
 30
0.0
 11
1194.500000000122
 21
923.5
 31
0.0
  0
ARC
  5
1C2
330
1F
100
AcDbEntity
  8
化粧台
  6
EXLTYPE2
 62
     6
100
AcDbCircle
 10
1191.500000000122
 20
943.5
 30
0.0
 40
3.000000000000003
100
AcDbArc
 50
0.0
 51
90.00000000000001
  0
LINE
  5
1C3
330
1F
100
AcDbEntity
  8
化粧台
  6
EXLTYPE2
 62
     6
100
AcDbLine
 10
1188.00000000012
 20
958.5
 30
0.0
 11
1188.00000000012
 21
946.5
 31
0.0
  0
ARC
  5
1C4
330
1F
100
AcDbEntity
  8
化粧台
  6
EXLTYPE2
 62
     6
100
AcDbCircle
 10
1185.000000000122
 20
958.5
 30
0.0
 40
3.000000000000003
100
AcDbArc
 50
0.0
 51
90.00000000000001
  0
LINE
  5
1C5
330
1F
100
AcDbEntity
  8
化粧台
  6
EXLTYPE2
 62
     6
100
AcDbLine
 10
1134.00000000012
 20
958.5
 30
0.0
 11
1134.00000000012
 21
946.5
 31
0.0
  0
LINE
  5
1C6
330
1F
100
AcDbEntity
  8
化粧台
  6
EXLTYPE2
 62
     6
100
AcDbLine
 10
1137.000000000122
 20
961.4999999999999
 30
0.0
 11
1185.000000000122
 21
961.4999999999999
 31
0.0
  0
ARC
  5
1C7
330
1F
100
AcDbEntity
  8
化粧台
  6
EXLTYPE2
 62
     6
100
AcDbCircle
 10
1137.000000000122
 20
958.5
 30
0.0
 40
3.000000000000003
100
AcDbArc
 50
90.00000000000001
 51
180.0
  0
LINE
  5
1C8
330
1F
100
AcDbEntity
  8
化粧台
  6
EXLTYPE2
 62
     6
100
AcDbLine
 10
1127.500000000118
 20
943.5
 30
0.0
 11
1127.500000000118
 21
923.5
 31
0.0
  0
LINE
  5
1C9
330
1F
100
AcDbEntity
  8
化粧台
  6
EXLTYPE2
 62
     6
100
AcDbLine
 10
1130.50000000012
 20
946.5
 30
0.0
 11
1191.500000000122
 21
946.5
 31
0.0
  0
ARC
  5
1CA
330
1F
100
AcDbEntity
  8
化粧台
  6
EXLTYPE2
 62
     6
100
AcDbCircle
 10
1130.50000000012
 20
943.5
 30
0.0
 40
3.000000000000003
100
AcDbArc
 50
90.00000000000001
 51
180.0
  0
LINE
  5
1CB
330
1F
100
AcDbEntity
  8
化粧台
  6
CONTINUOUS
 62
     6
100
AcDbLine
 10
1138.200000000117
 20
981.5000000000001
 30
0.0
 11
1138.200000000117
 21
963.7000000000007
 31
0.0
  0
LINE
  5
1CC
330
1F
100
AcDbEntity
  8
化粧台
  6
CONTINUOUS
 62
     6
100
AcDbLine
 10
1183.80000000012
 20
981.5000000000001
 30
0.0
 11
1183.80000000012
 21
963.7000000000007
 31
0.0
  0
LINE
  5
1CD
330
1F
100
AcDbEntity
  8
化粧台
  6
CONTINUOUS
 62
     2
100
AcDbLine
 10
1145.000000000117
 20
919.4999999999
 30
0.0
 11
1145.000000000117
 21
869.49999999988
 31
0.0
  0
LINE
  5
1CE
330
1F
100
AcDbEntity
  8
化粧台
  6
CONTINUOUS
 62
     2
100
AcDbLine
 10
1177.000000000117
 20
869.49999999988
 30
0.0
 11
1145.000000000117
 21
869.49999999988
 31
0.0
  0
LINE
  5
1CF
330
1F
100
AcDbEntity
  8
化粧台
  6
CONTINUOUS
 62
     2
100
AcDbLine
 10
1177.000000000117
 20
919.4999999999
 30
0.0
 11
1177.000000000117
 21
869.49999999988
 31
0.0
  0
LINE
  5
1D0
330
1F
100
AcDbEntity
  8
化粧台
  6
EXLTYPE4
 62
     6
100
AcDbLine
 10
2320.50000000012
 20
919.5
 30
0.0
 11
2320.50000000012
 21
1069.5
 31
0.0
  0
LINE
  5
1D1
330
1F
100
AcDbEntity
  8
化粧台
  6
CONTINUOUS
 62
     6
100
AcDbLine
 10
2341.50000000012
 20
911.5
 30
0.0
 11
2320.500000000127
 21
911.5
 31
0.0
  0
LINE
  5
1D2
330
1F
100
AcDbEntity
  8
化粧台
  6
CONTINUOUS
 62
     6
100
AcDbLine
 10
2341.500000000135
 20
919.5
 30
0.0
 11
2341.500000000135
 21
911.5
 31
0.0
  0
LINE
  5
1D3
330
1F
100
AcDbEntity
  8
化粧台
  6
CONTINUOUS
 62
     6
100
AcDbLine
 10
2320.500000000127
 20
919.5
 30
0.0
 11
2320.500000000127
 21
911.5
 31
0.0
  0
LINE
  5
1D4
330
1F
100
AcDbEntity
  8
化粧台
  6
EXLTYPE4
 62
     6
100
AcDbLine
 10
2341.50000000012
 20
919.5
 30
0.0
 11
2341.50000000012
 21
1069.5
 31
0.0
  0
LINE
  5
1D5
330
1F
100
AcDbEntity
  8
化粧台
  6
EXLTYPE3
 62
     6
100
AcDbLine
 10
2331.00000000012
 20
1084.5
 30
0.0
 11
2331.00000000012
 21
896.5
 31
0.0
  0
LINE
  5
1D6
330
1F
100
AcDbEntity
  8
化粧台
  6
CONTINUOUS
 62
     2
100
AcDbLine
 10
2062.500000000118
 20
1009.5
 30
0.0
 11
2062.500000000118
 21
1564.5
 31
0.0
  0
LINE
  5
1D7
330
1F
100
AcDbEntity
  8
化粧台
  6
CONTINUOUS
 62
     2
100
AcDbLine
 10
2045.500000000119
 20
1009.5
 30
0.0
 11
2045.500000000119
 21
1564.5
 31
0.0
  0
LINE
  5
1D8
330
1F
100
AcDbEntity
  8
化粧台
  6
CONTINUOUS
 62
     6
100
AcDbLine
 10
958.0000000001185
 20
1562.5
 30
0.0
 11
958.0000000001185
 21
1594.5
 31
0.0
  0
LINE
  5
1D9
330
1F
100
AcDbEntity
  8
化粧台
  6
CONTINUOUS
 62
     6
100
AcDbLine
 10
964.0000000001185
 20
1594.5
 30
0.0
 11
964.0000000001185
 21
1562.5
 31
0.0
  0
LINE
  5
1DA
330
1F
100
AcDbEntity
  8
化粧台
  6
CONTINUOUS
 62
     2
100
AcDbLine
 10
958.0000000001185
 20
1311.0
 30
0.0
 11
958.0000000001185
 21
1562.5
 31
0.0
  0
LINE
  5
1DB
330
1F
100
AcDbEntity
  8
化粧台
  6
CONTINUOUS
 62
     2
100
AcDbLine
 10
964.0000000001185
 20
1562.5
 30
0.0
 11
964.0000000001185
 21
1311.0
 31
0.0
  0
LINE
  5
1DC
330
1F
100
AcDbEntity
  8
化粧台
  6
CONTINUOUS
 62
     2
100
AcDbLine
 10
958.0000000001185
 20
1009.5
 30
0.0
 11
958.0000000001185
 21
1194.0
 31
0.0
  0
LINE
  5
1DD
330
1F
100
AcDbEntity
  8
化粧台
  6
CONTINUOUS
 62
     2
100
AcDbLine
 10
964.0000000001185
 20
1194.0
 30
0.0
 11
964.0000000001185
 21
1009.5
 31
0.0
  0
LINE
  5
1DE
330
1F
100
AcDbEntity
  8
化粧台
  6
CONTINUOUS
 62
     2
100
AcDbLine
 10
678.0000000001185
 20
919.5
 30
0.0
 11
678.0000000001185
 21
1009.5
 31
0.0
  0
LINE
  5
1DF
330
1F
100
AcDbEntity
  8
化粧台
  6
CONTINUOUS
 62
     2
100
AcDbLine
 10
663.0000000001185
 20
919.5
 30
0.0
 11
663.0000000001185
 21
1599.5
 31
0.0
  0
LINE
  5
1E0
330
1F
100
AcDbEntity
  8
化粧台
  6
CONTINUOUS
 62
     6
100
AcDbLine
 10
666.0000000001203
 20
1594.5
 30
0.0
 11
666.0000000001203
 21
1562.5
 31
0.0
  0
LINE
  5
1E1
330
1F
100
AcDbEntity
  8
化粧台
  6
CONTINUOUS
 62
     2
100
AcDbLine
 10
693.0000000001185
 20
919.5
 30
0.0
 11
693.0000000001185
 21
1009.5
 31
0.0
  0
LINE
  5
1E2
330
1F
100
AcDbEntity
  8
化粧台
  6
CONTINUOUS
 62
     2
100
AcDbLine
 10
666.0000000001185
 20
1562.5
 30
0.0
 11
666.0000000001185
 21
1009.5
 31
0.0
  0
LINE
  5
1E3
330
1F
100
AcDbEntity
  8
化粧台
  6
CONTINUOUS
 62
     6
100
AcDbLine
 10
958.0000000001185
 20
1594.5
 30
0.0
 11
666.0000000001203
 21
1594.5
 31
0.0
  0
LINE
  5
1E4
330
1F
100
AcDbEntity
  8
化粧台
  6
CONTINUOUS
 62
     6
100
AcDbLine
 10
958.0000000001185
 20
1584.5
 30
0.0
 11
666.0000000001203
 21
1584.5
 31
0.0
  0
LINE
  5
1E5
330
1F
100
AcDbEntity
  8
化粧台
  6
CONTINUOUS
 62
     6
100
AcDbLine
 10
958.0000000001185
 20
1566.542313695401
 30
0.0
 11
666.0000000001203
 21
1566.542313695401
 31
0.0
  0
LINE
  5
1E6
330
1F
100
AcDbEntity
  8
化粧台
  6
CONTINUOUS
 62
     6
100
AcDbLine
 10
958.0000000001185
 20
1562.5
 30
0.0
 11
666.0000000001203
 21
1562.5
 31
0.0
  0
LINE
  5
1E7
330
1F
100
AcDbEntity
  8
化粧台
  6
CONTINUOUS
 62
     2
100
AcDbLine
 10
1244.000000000117
 20
919.5
 30
0.0
 11
1244.000000000117
 21
1009.5
 31
0.0
  0
LINE
  5
1E8
330
1F
100
AcDbEntity
  8
化粧台
  6
CONTINUOUS
 62
     2
100
AcDbLine
 10
1259.000000000117
 20
919.5
 30
0.0
 11
1259.000000000117
 21
1599.5
 31
0.0
  0
LINE
  5
1E9
330
1F
100
AcDbEntity
  8
化粧台
  6
CONTINUOUS
 62
     6
100
AcDbLine
 10
1256.000000000118
 20
1594.5
 30
0.0
 11
1256.000000000118
 21
1562.5
 31
0.0
  0
LINE
  5
1EA
330
1F
100
AcDbEntity
  8
化粧台
  6
CONTINUOUS
 62
     2
100
AcDbLine
 10
1229.000000000117
 20
919.5
 30
0.0
 11
1229.000000000117
 21
1009.5
 31
0.0
  0
LINE
  5
1EB
330
1F
100
AcDbEntity
  8
化粧台
  6
CONTINUOUS
 62
     2
100
AcDbLine
 10
1256.000000000117
 20
1562.5
 30
0.0
 11
1256.000000000117
 21
1009.5
 31
0.0
  0
LINE
  5
1EC
330
1F
100
AcDbEntity
  8
化粧台
  6
CONTINUOUS
 62
     6
100
AcDbLine
 10
1256.000000000118
 20
1594.5
 30
0.0
 11
964.0000000001185
 21
1594.5
 31
0.0
  0
LINE
  5
1ED
330
1F
100
AcDbEntity
  8
化粧台
  6
CONTINUOUS
 62
     6
100
AcDbLine
 10
1256.000000000118
 20
1584.5
 30
0.0
 11
964.0000000001185
 21
1584.5
 31
0.0
  0
LINE
  5
1EE
330
1F
100
AcDbEntity
  8
化粧台
  6
CONTINUOUS
 62
     6
100
AcDbLine
 10
1256.000000000118
 20
1566.542313695401
 30
0.0
 11
964.0000000001185
 21
1566.542313695401
 31
0.0
  0
LINE
  5
1EF
330
1F
100
AcDbEntity
  8
化粧台
  6
CONTINUOUS
 62
     6
100
AcDbLine
 10
1256.000000000118
 20
1562.5
 30
0.0
 11
964.0000000001185
 21
1562.5
 31
0.0
  0
LINE
  5
1F0
330
1F
100
AcDbEntity
  8
化粧台
  6
CONTINUOUS
 62
     2
100
AcDbLine
 10
1261.000000000117
 20
1599.5
 30
0.0
 11
661.0000000001185
 21
1599.5
 31
0.0
  0
LINE
  5
1F1
330
1F
100
AcDbEntity
  8
化粧台
  6
CONTINUOUS
 62
     2
100
AcDbLine
 10
1256.000000000117
 20
1009.5
 30
0.0
 11
666.0000000001185
 21
1009.5
 31
0.0
  0
LINE
  5
1F2
330
1F
100
AcDbEntity
  8
化粧台
  6
EXLTYPE3
 62
     6
100
AcDbLine
 10
958.0000000001185
 20
1594.5
 30
0.0
 11
666.0000000001185
 21
1302.0
 31
0.0
  0
LINE
  5
1F3
330
1F
100
AcDbEntity
  8
化粧台
  6
EXLTYPE3
 62
     6
100
AcDbLine
 10
666.0000000001185
 20
1302.0
 30
0.0
 11
725.897435897554
 21
1242.0
 31
0.0
  0
LINE
  5
1F4
330
1F
100
AcDbEntity
  8
化粧台
  6
EXLTYPE3
 62
     6
100
AcDbLine
 10
786.0000000001185
 20
1181.794520547945
 30
0.0
 11
958.0000000001185
 21
1009.5
 31
0.0
  0
LINE
  5
1F5
330
1F
100
AcDbEntity
  8
化粧台
  6
EXLTYPE3
 62
     6
100
AcDbLine
 10
1136.000000000118
 20
1181.794520547945
 30
0.0
 11
964.0000000001185
 21
1009.5
 31
0.0
  0
LINE
  5
1F6
330
1F
100
AcDbEntity
  8
化粧台
  6
EXLTYPE3
 62
     6
100
AcDbLine
 10
1256.000000000117
 20
1302.0
 30
0.0
 11
1196.102564102683
 21
1242.0
 31
0.0
  0
LINE
  5
1F7
330
1F
100
AcDbEntity
  8
化粧台
  6
EXLTYPE3
 62
     6
100
AcDbLine
 10
964.0000000001185
 20
1594.5
 30
0.0
 11
1256.000000000117
 21
1302.0
 31
0.0
  0
LINE
  5
1F8
330
1F
100
AcDbEntity
  8
化粧台
  6
CONTINUOUS
 62
     7
100
AcDbLine
 10
1891.000000000117
 20
919.5
 30
0.0
 11
2491.00000000012
 21
919.5
 31
0.0
  0
TEXT
  5
1F9
330
1F
100
AcDbEntity
  8
化粧台
  6
CONTINUOUS
 62
     2
100
AcDbText
 10
502.9000000000735
 20
926.6999999999998
 30
0.0
 40
59.99999618530273
  1
Ｆ.Ｌ.
 41
0.9086538461538465
  7
EXCADSTD
 72
     5
 11
637.8999914170047
 21
926.6999999999998
 31
0.0
100
AcDbText
  0
TEXT
  5
1FA
330
1F
100
AcDbEntity
  8
化粧台
  6
CONTINUOUS
 62
     2
100
AcDbText
 10
1882.900000000074
 20
926.6999999999998
 30
0.0
 40
59.99999618530273
  1
Ｆ.Ｌ.
 41
0.9086538461538461
  7
EXCADSTD
 72
     5
 11
2017.899991417005
 21
926.6999999999998
 31
0.0
100
AcDbText
  0
ARC
  5
1FB
330
1F
100
AcDbEntity
  8
化粧台
  6
CONTINUOUS
 62
     6
100
AcDbCircle
 10
292.0624573311636
 20
4025.946075093718
 30
0.0
 40
800.0000000000006
100
AcDbArc
 50
301.6289008635034
 51
317.9381374214719
  0
ARC
  5
1FC
330
1F
100
AcDbEntity
  8
化粧台
  6
CONTINUOUS
 62
     6
100
AcDbCircle
 10
1629.937542669073
 20
4025.946075093718
 30
0.0
 40
800.0000000000006
100
AcDbArc
 50
222.0618625785282
 51
238.3710991364966
  0
LINE
  5
1FD
330
1F
100
AcDbEntity
  8
化粧台
  6
CONTINUOUS
 62
     6
100
AcDbLine
 10
886.0000000001203
 20
3636.0
 30
0.0
 11
886.0000000001203
 21
3490.0
 31
0.0
  0
LINE
  5
1FE
330
1F
100
AcDbEntity
  8
化粧台
  6
CONTINUOUS
 62
     6
100
AcDbLine
 10
886.0000000001203
 20
3490.0
 30
0.0
 11
1036.00000000012
 21
3490.0
 31
0.0
  0
LINE
  5
1FF
330
1F
100
AcDbEntity
  8
化粧台
  6
CONTINUOUS
 62
     6
100
AcDbLine
 10
1036.00000000012
 20
3636.0
 30
0.0
 11
1036.00000000012
 21
3490.0
 31
0.0
  0
LINE
  5
200
330
1F
100
AcDbEntity
  8
化粧台
  6
CONTINUOUS
 62
     6
100
AcDbLine
 10
1036.00000000012
 20
3636.0
 30
0.0
 11
1204.50000000012
 21
3675.0
 31
0.0
  0
LINE
  5
201
330
1F
100
AcDbEntity
  8
化粧台
  6
CONTINUOUS
 62
     6
100
AcDbLine
 10
886.0000000001203
 20
3636.0
 30
0.0
 11
717.5000000001203
 21
3675.0
 31
0.0
  0
ARC
  5
202
330
1F
100
AcDbEntity
  8
化粧台
  6
CONTINUOUS
 62
     2
100
AcDbCircle
 10
696.0000000001203
 20
3335.0
 30
0.0
 40
10.0
100
AcDbArc
 50
180.0
 51
270.0000000000002
  0
ARC
  5
203
330
1F
100
AcDbEntity
  8
化粧台
  6
CONTINUOUS
 62
     2
100
AcDbCircle
 10
1226.000000000118
 20
3335.0
 30
0.0
 40
10.0
100
AcDbArc
 50
270.0000000000002
 51
0.0
  0
LINE
  5
204
330
1F
100
AcDbEntity
  8
化粧台
  6
CONTINUOUS
 62
     2
100
AcDbLine
 10
1236.000000000118
 20
3825.0
 30
0.0
 11
1236.000000000118
 21
3335.0
 31
0.0
  0
LINE
  5
205
330
1F
100
AcDbEntity
  8
化粧台
  6
CONTINUOUS
 62
     2
100
AcDbLine
 10
696.0000000001203
 20
3325.0
 30
0.0
 11
1226.000000000118
 21
3325.0
 31
0.0
  0
LINE
  5
206
330
1F
100
AcDbEntity
  8
化粧台
  6
CONTINUOUS
 62
     2
100
AcDbLine
 10
686.0000000001203
 20
3825.0
 30
0.0
 11
686.0000000001203
 21
3335.0
 31
0.0
  0
LINE
  5
207
330
1F
100
AcDbEntity
  8
化粧台
  6
CONTINUOUS
 62
     2
100
AcDbLine
 10
717.0000000001203
 20
3336.0
 30
0.0
 11
1205.00000000012
 21
3336.0
 31
0.0
  0
ARC
  5
208
330
1F
100
AcDbEntity
  8
化粧台
  6
CONTINUOUS
 62
     2
100
AcDbCircle
 10
717.0000000001203
 20
3356.0
 30
0.0
 40
20.0
100
AcDbArc
 50
180.0
 51
270.0000000000002
  0
ARC
  5
209
330
1F
100
AcDbEntity
  8
化粧台
  6
CONTINUOUS
 62
     2
100
AcDbCircle
 10
1205.00000000012
 20
3356.0
 30
0.0
 40
20.0
100
AcDbArc
 50
270.0000000000002
 51
0.0
  0
ARC
  5
20A
330
1F
100
AcDbEntity
  8
化粧台
  6
CONTINUOUS
 62
     2
100
AcDbCircle
 10
707.0000000001203
 20
3800.0
 30
0.0
 40
10.0
100
AcDbArc
 50
90.00000000000001
 51
180.0
  0
ARC
  5
20B
330
1F
100
AcDbEntity
  8
化粧台
  6
CONTINUOUS
 62
     2
100
AcDbCircle
 10
1215.000000000118
 20
3800.0
 30
0.0
 40
10.0
100
AcDbArc
 50
0.0
 51
90.00000000000001
  0
LINE
  5
20C
330
1F
100
AcDbEntity
  8
化粧台
  6
CONTINUOUS
 62
     2
100
AcDbLine
 10
697.0000000001203
 20
3800.0
 30
0.0
 11
697.0000000001203
 21
3356.0
 31
0.0
  0
LINE
  5
20D
330
1F
100
AcDbEntity
  8
化粧台
  6
CONTINUOUS
 62
     2
100
AcDbLine
 10
707.0000000001203
 20
3810.0
 30
0.0
 11
1215.000000000118
 21
3810.0
 31
0.0
  0
LINE
  5
20E
330
1F
100
AcDbEntity
  8
化粧台
  6
CONTINUOUS
 62
     2
100
AcDbLine
 10
1225.000000000118
 20
3800.0
 30
0.0
 11
1225.000000000118
 21
3356.0
 31
0.0
  0
LINE
  5
20F
330
1F
100
AcDbEntity
  8
化粧台
  6
CONTINUOUS
 62
     2
100
AcDbLine
 10
717.5000000001203
 20
3675.0
 30
0.0
 11
712.401251961068
 21
3800.661772545198
 31
0.0
  0
LINE
  5
210
330
1F
100
AcDbEntity
  8
化粧台
  6
CONTINUOUS
 62
     2
100
AcDbLine
 10
1204.50000000012
 20
3675.0
 30
0.0
 11
1209.598748039171
 21
3800.661772545198
 31
0.0
  0
CIRCLE
  5
211
330
1F
100
AcDbEntity
  8
化粧台
  6
CONTINUOUS
 62
     6
100
AcDbCircle
 10
891.0000000001203
 20
3730.0
 30
0.0
 40
8.50000000060004
  0
CIRCLE
  5
212
330
1F
100
AcDbEntity
  8
化粧台
  6
CONTINUOUS
 62
     6
100
AcDbCircle
 10
891.0000000001203
 20
3730.0
 30
0.0
 40
12.5
  0
LINE
  5
213
330
1F
100
AcDbEntity
  8
化粧台
  6
CONTINUOUS
 62
     6
100
AcDbLine
 10
886.0000000001203
 20
3636.0
 30
0.0
 11
940.9158947461349
 21
3636.0
 31
0.0
  0
LINE
  5
214
330
1F
100
AcDbEntity
  8
化粧台
  6
CONTINUOUS
 62
     6
100
AcDbLine
 10
981.0841052541166
 20
3636.0
 30
0.0
 11
1036.00000000012
 21
3636.0
 31
0.0
  0
LINE
  5
215
330
1F
100
AcDbEntity
  8
化粧台
  6
CONTINUOUS
 62
     2
100
AcDbLine
 10
717.5000000001185
 20
3675.0
 30
0.0
 11
946.0000000001185
 21
3675.0
 31
0.0
  0
LINE
  5
216
330
1F
100
AcDbEntity
  8
化粧台
  6
CONTINUOUS
 62
     2
100
AcDbLine
 10
976.0000000001185
 20
3675.0
 30
0.0
 11
1204.50000000012
 21
3675.0
 31
0.0
  0
ARC
  5
217
330
1F
100
AcDbEntity
  8
化粧台
  6
CONTINUOUS
 62
     2
100
AcDbCircle
 10
961.0000000001185
 20
3590.0
 30
0.0
 40
26.90000000000001
100
AcDbArc
 50
122.1685825196854
 51
57.83141748031862
  0
ARC
  5
218
330
1F
100
AcDbEntity
  8
化粧台
  6
CONTINUOUS
 62
     2
100
AcDbCircle
 10
961.0000000001185
 20
3590.0
 30
0.0
 40
19.20000000000001
100
AcDbArc
 50
108.8435915236058
 51
71.15640847639469
  0
LINE
  5
219
330
1F
100
AcDbEntity
  8
化粧台
  6
EXLTYPE3
 62
     6
100
AcDbLine
 10
961.0000000001202
 20
3845.0
 30
0.0
 11
961.0000000001202
 21
3305.0
 31
0.0
  0
CIRCLE
  5
21A
330
1F
100
AcDbEntity
  8
化粧台
  6
CONTINUOUS
 62
     6
100
AcDbCircle
 10
961.0000000001185
 20
3740.0
 30
0.0
 40
24.50000000000002
  0
LINE
  5
21B
330
1F
100
AcDbEntity
  8
化粧台
  6
CONTINUOUS
 62
     6
100
AcDbLine
 10
957.0000000001185
 20
3654.999999999989
 30
0.0
 11
965.0000000001185
 21
3654.999999999989
 31
0.0
  0
LINE
  5
21C
330
1F
100
AcDbEntity
  8
化粧台
  6
CONTINUOUS
 62
     6
100
AcDbLine
 10
957.0000000001185
 20
3715.828736069456
 30
0.0
 11
957.0000000001185
 21
3654.999999999989
 31
0.0
  0
LINE
  5
21D
330
1F
100
AcDbEntity
  8
化粧台
  6
CONTINUOUS
 62
     6
100
AcDbLine
 10
965.0000000001185
 20
3715.828736069456
 30
0.0
 11
965.0000000001185
 21
3654.999999999989
 31
0.0
  0
ELLIPSE
  5
21E
330
1F
100
AcDbEntity
  8
化粧台
  6
CONTINUOUS
 62
     6
100
AcDbEllipse
 10
961.0000000001185
 20
3615.0
 30
0.0
 11
15.00000000000001
 21
0.0
 31
0.0
210
0.0
220
0.0
230
1.0
 40
0.5
 41
0.0
 42
6.283185307179586
  0
LINE
  5
21F
330
1F
100
AcDbEntity
  8
化粧台
  6
CONTINUOUS
 62
     6
100
AcDbLine
 10
946.0000000001185
 20
3720.62862937219
 30
0.0
 11
946.0000000001185
 21
3615.0
 31
0.0
  0
LINE
  5
220
330
1F
100
AcDbEntity
  8
化粧台
  6
CONTINUOUS
 62
     6
100
AcDbLine
 10
976.0000000001185
 20
3720.62862937219
 30
0.0
 11
976.0000000001185
 21
3615.0
 31
0.0
  0
ELLIPSE
  5
221
330
1F
100
AcDbEntity
  8
化粧台
  6
CONTINUOUS
 62
     6
100
AcDbEllipse
 10
961.0000000001185
 20
3684.282032302999
 30
0.0
 11
15.00000000000001
 21
0.0
 31
0.0
210
0.0
220
0.0
230
1.0
 40
0.5000000000000004
 41
0.0
 42
1.300863530961499
  0
ELLIPSE
  5
222
330
1F
100
AcDbEntity
  8
化粧台
  6
CONTINUOUS
 62
     6
100
AcDbEllipse
 10
961.0000000001185
 20
3684.282032302999
 30
0.0
 11
15.00000000000001
 21
0.0
 31
0.0
210
0.0
220
0.0
230
1.0
 40
0.5000000000000004
 41
1.840729122628308
 42
3.141592653589793
  0
LINE
  5
223
330
1F
100
AcDbEntity
  8
化粧台
  6
CONTINUOUS
 62
     6
100
AcDbLine
 10
850.5000000001185
 20
3833.0
 30
0.0
 11
871.5000000001094
 21
3833.0
 31
0.0
  0
LINE
  5
224
330
1F
100
AcDbEntity
  8
化粧台
  6
CONTINUOUS
 62
     6
100
AcDbLine
 10
871.5000000001094
 20
3825.0
 30
0.0
 11
871.5000000001094
 21
3833.0
 31
0.0
  0
LINE
  5
225
330
1F
100
AcDbEntity
  8
化粧台
  6
CONTINUOUS
 62
     6
100
AcDbLine
 10
850.5000000001021
 20
3825.0
 30
0.0
 11
850.5000000001021
 21
3833.0
 31
0.0
  0
LINE
  5
226
330
1F
100
AcDbEntity
  8
化粧台
  6
EXLTYPE3
 62
     6
100
AcDbLine
 10
861.0000000001185
 20
3795.0
 30
0.0
 11
861.0000000001185
 21
3848.0
 31
0.0
  0
LINE
  5
227
330
1F
100
AcDbEntity
  8
化粧台
  6
CONTINUOUS
 62
     6
100
AcDbLine
 10
1071.500000000124
 20
3833.0
 30
0.0
 11
1050.500000000133
 21
3833.0
 31
0.0
  0
LINE
  5
228
330
1F
100
AcDbEntity
  8
化粧台
  6
CONTINUOUS
 62
     6
100
AcDbLine
 10
1050.500000000133
 20
3825.0
 30
0.0
 11
1050.500000000133
 21
3833.0
 31
0.0
  0
LINE
  5
229
330
1F
100
AcDbEntity
  8
化粧台
  6
CONTINUOUS
 62
     6
100
AcDbLine
 10
1071.50000000014
 20
3825.0
 30
0.0
 11
1071.50000000014
 21
3833.0
 31
0.0
  0
LINE
  5
22A
330
1F
100
AcDbEntity
  8
化粧台
  6
EXLTYPE3
 62
     6
100
AcDbLine
 10
1061.000000000124
 20
3795.0
 30
0.0
 11
1061.000000000124
 21
3848.0
 31
0.0
  0
LINE
  5
22B
330
1F
100
AcDbEntity
  8
化粧台
  6
CONTINUOUS
 62
     6
100
AcDbLine
 10
1177.00000000012
 20
3825.0
 30
0.0
 11
1177.00000000012
 21
3875.0
 31
0.0
  0
LINE
  5
22C
330
1F
100
AcDbEntity
  8
化粧台
  6
CONTINUOUS
 62
     6
100
AcDbLine
 10
1145.00000000012
 20
3825.0
 30
0.0
 11
1145.00000000012
 21
3875.0
 31
0.0
  0
LINE
  5
22D
330
1F
100
AcDbEntity
  8
化粧台
  6
CONTINUOUS
 62
     6
100
AcDbLine
 10
1145.00000000012
 20
3875.0
 30
0.0
 11
1177.00000000012
 21
3875.0
 31
0.0
  0
LINE
  5
22E
330
1F
100
AcDbEntity
  8
化粧台
  6
EXLTYPE3
 62
     6
100
AcDbLine
 10
1161.00000000012
 20
3795.0
 30
0.0
 11
1161.00000000012
 21
3890.0
 31
0.0
  0
LINE
  5
22F
330
1F
100
AcDbEntity
  8
化粧台
  6
CONTINUOUS
 62
     2
100
AcDbLine
 10
661.0000000001203
 20
3825.0
 30
0.0
 11
661.0000000001203
 21
3375.0
 31
0.0
  0
LINE
  5
230
330
1F
100
AcDbEntity
  8
化粧台
  6
CONTINUOUS
 62
     2
100
AcDbLine
 10
661.0000000001185
 20
3375.0
 30
0.0
 11
686.0000000001203
 21
3375.0
 31
0.0
  0
LINE
  5
231
330
1F
100
AcDbEntity
  8
化粧台
  6
CONTINUOUS
 62
     2
100
AcDbLine
 10
1261.000000000117
 20
3825.0
 30
0.0
 11
1261.000000000117
 21
3375.0
 31
0.0
  0
LINE
  5
232
330
1F
100
AcDbEntity
  8
化粧台
  6
CONTINUOUS
 62
     2
100
AcDbLine
 10
1236.000000000118
 20
3375.0
 30
0.0
 11
1261.000000000117
 21
3375.0
 31
0.0
  0
LINE
  5
233
330
1F
100
AcDbEntity
  8
化粧台
  6
CONTINUOUS
 62
     6
100
AcDbLine
 10
1141.00000000016
 20
3857.500005722002
 30
0.0
 11
1143.000000000158
 21
3825.000005722002
 31
0.0
  0
LINE
  5
234
330
1F
100
AcDbEntity
  8
化粧台
  6
CONTINUOUS
 62
     6
100
AcDbLine
 10
1139.000000000158
 20
3825.000005722002
 30
0.0
 11
1141.00000000016
 21
3857.500005722002
 31
0.0
  0
LINE
  5
235
330
1F
100
AcDbEntity
  8
化粧台
  6
CONTINUOUS
 62
     6
100
AcDbLine
 10
1141.000000000166
 20
3820.0
 30
0.0
 11
1141.000000000166
 21
3862.500005721901
 31
0.0
  0
LINE
  5
236
330
1F
100
AcDbEntity
  8
化粧台
  6
CONTINUOUS
 62
     6
100
AcDbLine
 10
781.0000000000894
 20
3857.500005722002
 30
0.0
 11
783.0000000000875
 21
3825.000005722002
 31
0.0
  0
LINE
  5
237
330
1F
100
AcDbEntity
  8
化粧台
  6
CONTINUOUS
 62
     6
100
AcDbLine
 10
779.0000000000894
 20
3825.000005722002
 30
0.0
 11
781.0000000000894
 21
3857.500005722002
 31
0.0
  0
LINE
  5
238
330
1F
100
AcDbEntity
  8
化粧台
  6
CONTINUOUS
 62
     6
100
AcDbLine
 10
781.0000000000966
 20
3820.0
 30
0.0
 11
781.0000000000966
 21
3862.500005721901
 31
0.0
  0
LINE
  5
239
330
1F
100
AcDbEntity
  8
化粧台
  6
CONTINUOUS
 62
     7
100
AcDbLine
 10
511.0000000001203
 20
3825.0
 30
0.0
 11
1516.000000000115
 21
3825.0
 31
0.0
  0
TEXT
  5
23A
330
1F
100
AcDbEntity
  8
化粧台
  6
CONTINUOUS
 62
     2
100
AcDbText
 10
509.7000000003329
 20
3758.000003814647
 30
0.0
 40
59.99999618530273
  1
Ｗ.Ｌ.
 41
0.9086538461538461
  7
EXCADSTD
 72
     5
 11
644.6999914172641
 21
3758.000003814647
 31
0.0
100
AcDbText
  0
TEXT
  5
23B
330
1F
100
AcDbEntity
  8
化粧台
  6
CONTINUOUS
 62
     2
100
AcDbText
 10
2481.500000000051
 20
2799.5
 30
0.0
 40
59.99999618530273
  1
Ｗ.Ｌ.
 50
90.0
 41
0.9086538461538461
  7
EXCADSTD
 72
     5
 11
2481.500000000051
 21
2934.499991416932
 31
0.0
100
AcDbText
  0
LINE
  5
23C
330
1F
100
AcDbEntity
  8
化粧台
  6
CONTINUOUS
 62
     7
100
AcDbLine
 10
511.0000000001185
 20
919.5
 30
0.0
 11
1593.000000000061
 21
919.5
 31
0.0
  0
LINE
  5
23D
330
1F
100
AcDbEntity
  8
化粧台
  6
CONTINUOUS
 62
     2
100
AcDbLine
 10
2491.000000000116
 20
1599.5
 30
0.0
 11
2041.000000000118
 21
1599.5
 31
0.0
  0
LINE
  5
23E
330
1F
100
AcDbEntity
  8
化粧台
  6
CONTINUOUS
 62
     2
100
AcDbLine
 10
1230.996305873274
 20
1624.307834389494
 30
0.0
 11
1235.996305873274
 21
1754.307834389494
 31
0.0
  0
ARC
  5
23F
330
1F
100
AcDbEntity
  8
化粧台
  6
CONTINUOUS
 62
     2
100
AcDbCircle
 10
1231.000000000118
 20
1754.5
 30
0.0
 40
5.0
100
AcDbArc
 50
357.7974018382349
 51
90.00000000000001
  0
ARC
  5
240
330
1F
100
AcDbEntity
  8
化粧台
  6
CONTINUOUS
 62
     2
100
AcDbCircle
 10
1226.000000000118
 20
1624.5
 30
0.0
 40
5.0
100
AcDbArc
 50
270.0000000000002
 51
357.7974018382349
  0
LINE
  5
241
330
1F
100
AcDbEntity
  8
化粧台
  6
CONTINUOUS
 62
     2
100
AcDbLine
 10
691.003694126963
 20
1624.307834389494
 30
0.0
 11
686.003694126963
 21
1754.307834389494
 31
0.0
  0
ARC
  5
242
330
1F
100
AcDbEntity
  8
化粧台
  6
CONTINUOUS
 62
     2
100
AcDbCircle
 10
691.0000000001203
 20
1754.5
 30
0.0
 40
5.0
100
AcDbArc
 50
90.00000000000001
 51
182.2025981617654
  0
ARC
  5
243
330
1F
100
AcDbEntity
  8
化粧台
  6
CONTINUOUS
 62
     2
100
AcDbCircle
 10
696.0000000001203
 20
1624.5
 30
0.0
 40
5.0
100
AcDbArc
 50
182.2025981617654
 51
270.0000000000002
  0
LINE
  5
244
330
1F
100
AcDbEntity
  8
化粧台
  6
CONTINUOUS
 62
     2
100
AcDbLine
 10
691.0000000001203
 20
1759.5
 30
0.0
 11
1231.000000000118
 21
1759.5
 31
0.0
  0
LINE
  5
245
330
1F
100
AcDbEntity
  8
化粧台
  6
CONTINUOUS
 62
     6
100
AcDbLine
 10
882.6148288607676
 20
1769.924412548848
 30
0.0
 11
886.2500000001421
 21
1761.176247290652
 31
0.0
  0
ARC
  5
246
330
1F
100
AcDbEntity
  8
化粧台
  6
CONTINUOUS
 62
     6
100
AcDbCircle
 10
884.000000000133
 20
1770.500000000651
 30
0.0
 40
1.5
100
AcDbArc
 50
89.99999999997263
 51
202.5646074934729
  0
LINE
  5
247
330
1F
100
AcDbEntity
  8
化粧台
  6
CONTINUOUS
 62
     6
100
AcDbLine
 10
899.3851711394984
 20
1769.924412548859
 30
0.0
 11
895.7500000001367
 21
1761.176247290659
 31
0.0
  0
ARC
  5
248
330
1F
100
AcDbEntity
  8
化粧台
  6
CONTINUOUS
 62
     6
100
AcDbCircle
 10
898.0000000001312
 20
1770.500000000658
 30
0.0
 40
1.5
100
AcDbArc
 50
337.4353925066304
 51
90.00000000011136
  0
LINE
  5
249
330
1F
100
AcDbEntity
  8
化粧台
  6
CONTINUOUS
 62
     6
100
AcDbLine
 10
884.0000000001312
 20
1772.000000000651
 30
0.0
 11
898.0000000001312
 21
1772.000000000658
 31
0.0
  0
LINE
  5
24A
330
1F
100
AcDbEntity
  8
化粧台
  6
CONTINUOUS
 62
     6
100
AcDbLine
 10
886.2500000001403
 20
1759.5
 30
0.0
 11
886.2500000001367
 21
1761.176247290659
 31
0.0
  0
LINE
  5
24B
330
1F
100
AcDbEntity
  8
化粧台
  6
CONTINUOUS
 62
     6
100
AcDbLine
 10
895.7500000001403
 20
1759.5
 30
0.0
 11
895.7500000001403
 21
1761.176247290667
 31
0.0
  0
ELLIPSE
  5
24C
330
1F
100
AcDbEntity
  8
化粧台
  6
CONTINUOUS
 62
     6
100
AcDbEllipse
 10
961.0000000001185
 20
1812.4999999999
 30
0.0
 11
11.50000000000001
 21
0.0
 31
0.0
210
0.0
220
0.0
230
1.0
 40
0.4226182617406996
 41
0.0
 42
6.283185307179586
  0
CIRCLE
  5
24D
330
1F
100
AcDbEntity
  8
化粧台
  6
CONTINUOUS
 62
     6
100
AcDbCircle
 10
961.0000000001185
 20
1878.0
 30
0.0
 40
4.0
  0
ELLIPSE
  5
24E
330
1F
100
AcDbEntity
  8
化粧台
  6
CONTINUOUS
 62
     6
100
AcDbEllipse
 10
961.0000000001185
 20
1838.5
 30
0.0
 11
15.00000000000001
 21
0.0
 31
0.0
210
0.0
220
0.0
230
1.0
 40
0.8660254037844385
 41
0.0
 42
6.283185307179586
  0
ELLIPSE
  5
24F
330
1F
100
AcDbEntity
  8
化粧台
  6
CONTINUOUS
 62
     6
100
AcDbEllipse
 10
961.0000000001185
 20
1780.476297946399
 30
0.0
 11
1.060575238719482E-15
 21
17.32050807560018
 31
0.0
210
0.0
220
0.0
230
1.0
 40
0.8660254037888688
 41
1.570796326794897
 42
4.71238898038469
  0
LINE
  5
250
330
1F
100
AcDbEntity
  8
化粧台
  6
CONTINUOUS
 62
     6
100
AcDbLine
 10
946.0000000001185
 20
1838.5
 30
0.0
 11
946.0000000001185
 21
1780.476297946399
 31
0.0
  0
LINE
  5
251
330
1F
100
AcDbEntity
  8
化粧台
  6
CONTINUOUS
 62
     6
100
AcDbLine
 10
976.0000000001185
 20
1838.5
 30
0.0
 11
976.0000000001185
 21
1780.476297946399
 31
0.0
  0
LINE
  5
252
330
1F
100
AcDbEntity
  8
化粧台
  6
CONTINUOUS
 62
     6
100
AcDbLine
 10
949.5000000001185
 20
1812.4999999999
 30
0.0
 11
949.5000000001185
 21
1821.2902360689
 31
0.0
  0
LINE
  5
253
330
1F
100
AcDbEntity
  8
化粧台
  6
CONTINUOUS
 62
     6
100
AcDbLine
 10
972.5000000001185
 20
1812.4999999999
 30
0.0
 11
972.5000000001185
 21
1821.2902360689
 31
0.0
  0
ELLIPSE
  5
254
330
1F
100
AcDbEntity
  8
化粧台
  6
CONTINUOUS
 62
     6
100
AcDbEllipse
 10
961.0000000001185
 20
1821.2902360689
 30
0.0
 11
11.50000000000001
 21
0.0
 31
0.0
210
0.0
220
0.0
230
1.0
 40
0.1739668486608696
 41
0.0
 42
3.141592653589793
  0
LINE
  5
255
330
1F
100
AcDbEntity
  8
化粧台
  6
CONTINUOUS
 62
     6
100
AcDbLine
 10
936.5000000001185
 20
1845.5
 30
0.0
 11
948.364072386101
 21
1845.5
 31
0.0
  0
LINE
  5
256
330
1F
100
AcDbEntity
  8
化粧台
  6
CONTINUOUS
 62
     6
100
AcDbLine
 10
973.6359276141341
 20
1845.5
 30
0.0
 11
985.5000000001183
 21
1845.5
 31
0.0
  0
LINE
  5
257
330
1F
100
AcDbEntity
  8
化粧台
  6
CONTINUOUS
 62
     6
100
AcDbLine
 10
947.1556268952538
 20
1843.5
 30
0.0
 11
936.5000000001185
 21
1843.5
 31
0.0
  0
LINE
  5
258
330
1F
100
AcDbEntity
  8
化粧台
  6
CONTINUOUS
 62
     6
100
AcDbLine
 10
985.5000000001183
 20
1843.5
 30
0.0
 11
974.8443731049813
 21
1843.5
 31
0.0
  0
LINE
  5
259
330
1F
100
AcDbEntity
  8
化粧台
  6
CONTINUOUS
 62
     6
100
AcDbLine
 10
936.5000000001185
 20
1885.5
 30
0.0
 11
936.5000000001185
 21
1845.5
 31
0.0
  0
ARC
  5
25A
330
1F
100
AcDbEntity
  8
化粧台
  6
CONTINUOUS
 62
     6
100
AcDbCircle
 10
938.5000000001185
 20
1885.5
 30
0.0
 40
2.0
100
AcDbArc
 50
90.00000000000001
 51
180.0
  0
LINE
  5
25B
330
1F
100
AcDbEntity
  8
化粧台
  6
CONTINUOUS
 62
     6
100
AcDbLine
 10
985.5000000001183
 20
1885.5
 30
0.0
 11
985.5000000001183
 21
1845.5
 31
0.0
  0
LINE
  5
25C
330
1F
100
AcDbEntity
  8
化粧台
  6
CONTINUOUS
 62
     6
100
AcDbLine
 10
938.5000000001185
 20
1887.5
 30
0.0
 11
983.5000000001185
 21
1887.5
 31
0.0
  0
ARC
  5
25D
330
1F
100
AcDbEntity
  8
化粧台
  6
CONTINUOUS
 62
     6
100
AcDbCircle
 10
983.5000000001185
 20
1885.5
 30
0.0
 40
2.0
100
AcDbArc
 50
0.0
 51
90.00000000000001
  0
LINE
  5
25E
330
1F
100
AcDbEntity
  8
化粧台
  6
CONTINUOUS
 62
     6
100
AcDbLine
 10
936.5000000001185
 20
1843.5
 30
0.0
 11
936.5000000001185
 21
1759.5
 31
0.0
  0
LINE
  5
25F
330
1F
100
AcDbEntity
  8
化粧台
  6
CONTINUOUS
 62
     6
100
AcDbLine
 10
985.5000000001183
 20
1843.5
 30
0.0
 11
985.5000000001183
 21
1759.5
 31
0.0
  0
ELLIPSE
  5
260
330
1F
100
AcDbEntity
  8
化粧台
  6
CONTINUOUS
 62
     6
100
AcDbEllipse
 10
961.0000000001185
 20
1798.4999999999
 30
0.0
 11
15.00000000000001
 21
0.0
 31
0.0
210
0.0
220
0.0
230
1.0
 40
0.8660254037844385
 41
3.141592653589793
 42
6.283185307179586
  0
ARC
  5
261
330
1F
100
AcDbEntity
  8
化粧台
  6
CONTINUOUS
 62
     2
100
AcDbCircle
 10
1996.363160000119
 20
1754.499999999949
 30
0.0
 40
5.0
100
AcDbArc
 50
90.00000300000029
 51
189.3347286182104
  0
LINE
  5
262
330
1F
100
AcDbEntity
  8
化粧台
  6
CONTINUOUS
 62
     2
100
AcDbLine
 10
1991.429372088058
 20
1753.688990235023
 30
0.0
 11
2012.936322473621
 21
1622.851192188009
 31
0.0
  0
ARC
  5
263
330
1F
100
AcDbEntity
  8
化粧台
  6
CONTINUOUS
 62
     2
100
AcDbCircle
 10
2016.883352803269
 20
1623.499999999949
 30
0.0
 40
4.0
100
AcDbArc
 50
189.3347286182108
 51
270.0000000000002
  0
LINE
  5
264
330
1F
100
AcDbEntity
  8
化粧台
  6
CONTINUOUS
 62
     2
100
AcDbLine
 10
2491.00000000012
 20
1759.499999999949
 30
0.0
 11
1996.363160000119
 21
1759.499999999949
 31
0.0
  0
LINE
  5
265
330
1F
100
AcDbEntity
  8
化粧台
  6
EXLTYPE3
 62
     6
100
AcDbLine
 10
2406.00000000012
 20
1729.5
 30
0.0
 11
2406.00000000012
 21
1902.5
 31
0.0
  0
LINE
  5
266
330
1F
100
AcDbEntity
  8
化粧台
  6
CONTINUOUS
 62
     6
100
AcDbLine
 10
2274.577460449203
 20
1817.360110009868
 30
0.0
 11
2295.422539551037
 21
1807.639889989834
 31
0.0
  0
LINE
  5
267
330
1F
100
AcDbEntity
  8
化粧台
  6
CONTINUOUS
 62
     6
100
AcDbLine
 10
2274.577460449196
 20
1817.360110009919
 30
0.0
 11
2277.343012176716
 21
1823.290854828603
 31
0.0
  0
LINE
  5
268
330
1F
100
AcDbEntity
  8
化粧台
  6
CONTINUOUS
 62
     6
100
AcDbLine
 10
2295.42253955104
 20
1807.639889989881
 30
0.0
 11
2297.337682219804
 21
1811.746926696807
 31
0.0
  0
LINE
  5
269
330
1F
100
AcDbEntity
  8
化粧台
  6
CONTINUOUS
 62
     6
100
AcDbLine
 10
2321.00000000012
 20
1882.0
 30
0.0
 11
2321.00000000012
 21
1874.0
 31
0.0
  0
LINE
  5
26A
330
1F
100
AcDbEntity
  8
化粧台
  6
CONTINUOUS
 62
     6
100
AcDbLine
 10
2321.00000000012
 20
1874.0
 30
0.0
 11
2381.50000000012
 21
1874.0
 31
0.0
  0
LINE
  5
26B
330
1F
100
AcDbEntity
  8
化粧台
  6
CONTINUOUS
 62
     6
100
AcDbLine
 10
2321.00000000012
 20
1882.0
 30
0.0
 11
2381.50000000012
 21
1882.0
 31
0.0
  0
ELLIPSE
  5
26C
330
1F
100
AcDbEntity
  8
化粧台
  6
CONTINUOUS
 62
     6
100
AcDbEllipse
 10
2381.50000000012
 20
1780.47629794645
 30
0.0
 11
-3.181725716167551E-15
 21
-17.32050807564974
 31
0.0
210
0.0
220
0.0
230
1.0
 40
0.2961015548620202
 41
0.0
 42
3.141592653589793
  0
LINE
  5
26D
330
1F
100
AcDbEntity
  8
化粧台
  6
CONTINUOUS
 62
     6
100
AcDbLine
 10
2297.337682219833
 20
1811.746926696825
 30
0.0
 11
2381.50000000012
 21
1763.155789870762
 31
0.0
  0
ELLIPSE
  5
26E
330
1F
100
AcDbEntity
  8
化粧台
  6
CONTINUOUS
 62
     6
100
AcDbEllipse
 10
2287.340347198271
 20
1817.5188907627
 30
0.0
 11
9.997335021550128
 21
-5.77196406590008
 31
0.0
210
0.0
220
0.0
230
1.0
 40
0.4017250258051183
 41
0.0
 42
3.141592653594508
  0
LINE
  5
26F
330
1F
100
AcDbEntity
  8
化粧台
  6
CONTINUOUS
 62
     6
100
AcDbLine
 10
2406.00000000004
 20
1845.500000000136
 30
0.0
 11
2430.50000000012
 21
1859.645081595325
 31
0.0
  0
LINE
  5
270
330
1F
100
AcDbEntity
  8
化粧台
  6
CONTINUOUS
 62
     6
100
AcDbLine
 10
2381.50000000012
 20
1843.5
 30
0.0
 11
2430.50000000012
 21
1843.5
 31
0.0
  0
LINE
  5
271
330
1F
100
AcDbEntity
  8
化粧台
  6
CONTINUOUS
 62
     6
100
AcDbLine
 10
2381.50000000012
 20
1845.5
 30
0.0
 11
2405.999999999804
 21
1845.5
 31
0.0
  0
LINE
  5
272
330
1F
100
AcDbEntity
  8
化粧台
  6
CONTINUOUS
 62
     6
100
AcDbLine
 10
2381.50000000012
 20
1843.5
 30
0.0
 11
2381.50000000012
 21
1797.796806022099
 31
0.0
  0
ARC
  5
273
330
1F
100
AcDbEntity
  8
化粧台
  6
CONTINUOUS
 62
     6
100
AcDbCircle
 10
2383.50000000012
 20
1885.5
 30
0.0
 40
2.0
100
AcDbArc
 50
90.00000000000001
 51
180.0
  0
LINE
  5
274
330
1F
100
AcDbEntity
  8
化粧台
  6
CONTINUOUS
 62
     6
100
AcDbLine
 10
2430.50000000012
 20
1885.5
 30
0.0
 11
2430.50000000012
 21
1859.645081595325
 31
0.0
  0
LINE
  5
275
330
1F
100
AcDbEntity
  8
化粧台
  6
CONTINUOUS
 62
     6
100
AcDbLine
 10
2383.50000000012
 20
1887.5
 30
0.0
 11
2428.50000000012
 21
1887.5
 31
0.0
  0
ARC
  5
276
330
1F
100
AcDbEntity
  8
化粧台
  6
CONTINUOUS
 62
     6
100
AcDbCircle
 10
2428.50000000012
 20
1885.5
 30
0.0
 40
2.0
100
AcDbArc
 50
0.0
 51
90.00000000000001
  0
LINE
  5
277
330
1F
100
AcDbEntity
  8
化粧台
  6
CONTINUOUS
 62
     6
100
AcDbLine
 10
2289.366025404161
 20
1850.990381056617
 30
0.0
 11
2381.50000000012
 21
1797.796806022137
 31
0.0
  0
ARC
  5
278
330
1F
100
AcDbEntity
  8
化粧台
  6
CONTINUOUS
 62
     6
100
AcDbCircle
 10
2288.866025404161
 20
1850.124355652833
 30
0.0
 40
1.0
100
AcDbArc
 50
60.00000000000271
 51
150.0000000000029
  0
LINE
  5
279
330
1F
100
AcDbEntity
  8
化粧台
  6
CONTINUOUS
 62
     6
100
AcDbLine
 10
2288.000000000378
 20
1850.624355652833
 30
0.0
 11
2274.000000000378
 21
1826.375644346868
 31
0.0
  0
LINE
  5
27A
330
1F
100
AcDbEntity
  8
化粧台
  6
CONTINUOUS
 62
     6
100
AcDbLine
 10
2274.366025404164
 20
1825.009618943084
 30
0.0
 11
2277.343012176709
 21
1823.290854828581
 31
0.0
  0
ARC
  5
27B
330
1F
100
AcDbEntity
  8
化粧台
  6
CONTINUOUS
 62
     6
100
AcDbCircle
 10
2274.866025404164
 20
1825.875644346868
 30
0.0
 40
1.0
100
AcDbArc
 50
150.0000000000029
 51
240.0000000000029
  0
ARC
  5
27C
330
1F
100
AcDbEntity
  8
化粧台
  6
CONTINUOUS
 62
     6
100
AcDbCircle
 10
2406.000000000418
 20
1843.5
 30
0.0
 40
21.50470878668207
100
AcDbArc
 50
0.0
 51
34.61977017493128
  0
LINE
  5
27D
330
1F
100
AcDbEntity
  8
化粧台
  6
CONTINUOUS
 62
     6
100
AcDbLine
 10
2381.50000000012
 20
1885.5
 30
0.0
 11
2381.50000000012
 21
1882.0
 31
0.0
  0
LINE
  5
27E
330
1F
100
AcDbEntity
  8
化粧台
  6
CONTINUOUS
 62
     6
100
AcDbLine
 10
2381.50000000012
 20
1874.0
 30
0.0
 11
2381.50000000012
 21
1845.5
 31
0.0
  0
ELLIPSE
  5
27F
330
1F
100
AcDbEntity
  8
化粧台
  6
CONTINUOUS
 62
     6
100
AcDbEllipse
 10
2381.50000000012
 20
1878.0
 30
0.0
 11
-1.531427479570780E-15
 21
4.0
 31
0.0
210
0.0
220
0.0
230
1.0
 40
0.1525819451966582
 41
3.141592653589784
 42
6.283185307179586
  0
LINE
  5
280
330
1F
100
AcDbEntity
  8
化粧台
  6
CONTINUOUS
 62
     6
100
AcDbLine
 10
2357.782032303134
 20
1811.490381056621
 30
0.0
 11
2342.782032303134
 21
1785.509618943088
 31
0.0
  0
LINE
  5
281
330
1F
100
AcDbEntity
  8
化粧台
  6
CONTINUOUS
 62
     6
100
AcDbLine
 10
2381.50000000012
 20
1763.1557898708
 30
0.0
 11
2381.50000000012
 21
1759.499999999949
 31
0.0
  0
LINE
  5
282
330
1F
100
AcDbEntity
  8
化粧台
  6
CONTINUOUS
 62
     6
100
AcDbLine
 10
2430.50000000012
 20
1843.5
 30
0.0
 11
2430.50000000012
 21
1759.499999999949
 31
0.0
  0
LINE
  5
283
330
1F
100
AcDbEntity
  8
化粧台
  6
EXLTYPE3
 62
     6
100
AcDbLine
 10
961.0000000001185
 20
1907.5
 30
0.0
 11
961.0000000001185
 21
1311.0
 31
0.0
  0
LINE
  5
284
330
1F
100
AcDbEntity
  8
化粧台
  6
CONTINUOUS
 62
     2
100
AcDbLine
 10
661.0000000001185
 20
1619.5
 30
0.0
 11
661.0000000001185
 21
1599.5
 31
0.0
  0
LINE
  5
285
330
1F
100
AcDbEntity
  8
化粧台
  6
CONTINUOUS
 62
     2
100
AcDbLine
 10
1261.000000000117
 20
1619.5
 30
0.0
 11
1261.000000000117
 21
1599.5
 31
0.0
  0
LINE
  5
286
330
1F
100
AcDbEntity
  8
化粧台
  6
CONTINUOUS
 62
     2
100
AcDbLine
 10
1261.000000000117
 20
1619.5
 30
0.0
 11
661.0000000001185
 21
1619.5
 31
0.0
  0
LINE
  5
287
330
1F
100
AcDbEntity
  8
化粧台
  6
CONTINUOUS
 62
     7
100
AcDbLine
 10
2491.00000000012
 20
919.5
 30
0.0
 11
2491.000000000116
 21
2926.35
 31
0.0
  0
LINE
  5
288
330
1F
100
AcDbEntity
  8
化粧台
  6
CONTINUOUS
 62
     2
100
AcDbLine
 10
2491.00000000012
 20
1619.499999999949
 30
0.0
 11
2016.883352803218
 21
1619.499999999949
 31
0.0
  0
LINE
  5
289
330
1F
100
AcDbEntity
  8
化粧台
  6
EXLTYPE3
 62
     6
100
AcDbLine
 10
921.5000000001185
 20
3740.0
 30
0.0
 11
1000.500000000118
 21
3740.0
 31
0.0
  0
LINE
  5
28A
330
1F
100
AcDbEntity
  8
化粧台
  6
EXLTYPE3
 62
     6
100
AcDbLine
 10
924.1000000001206
 20
3590.0
 30
0.0
 11
997.9000000001199
 21
3590.0
 31
0.0
  0
LINE
  5
28B
330
1F
100
AcDbEntity
  8
化粧台
  6
CONTINUOUS
 62
     2
100
AcDbLine
 10
2491.000000000116
 20
1619.4999999999
 30
0.0
 11
2044.000000000118
 21
1619.4999999999
 31
0.0
  0
LINE
  5
28C
330
1F
100
AcDbEntity
  8
化粧台
  6
CONTINUOUS
 62
     2
100
AcDbLine
 10
2041.000000000118
 20
1616.4999999999
 30
0.0
 11
2041.000000000118
 21
1599.5
 31
0.0
  0
LINE
  5
28D
330
1F
100
AcDbEntity
  8
鏡台
  6
CONTINUOUS
 62
     2
100
AcDbLine
 10
736.00000000013
 20
2656.3
 30
0.0
 11
736.00000000013
 21
2116.3
 31
0.0
  0
LINE
  5
28E
330
1F
100
AcDbEntity
  8
鏡台
  6
CONTINUOUS
 62
     6
100
AcDbLine
 10
792.75000000013
 20
2606.299999999999
 30
0.0
 11
829.25000000013
 21
2606.299999999999
 31
0.0
  0
LINE
  5
28F
330
1F
100
AcDbEntity
  8
鏡台
  6
CONTINUOUS
 62
     6
100
AcDbLine
 10
811.00000000013
 20
2588.05
 30
0.0
 11
811.00000000013
 21
2624.55
 31
0.0
  0
LINE
  5
290
330
1F
100
AcDbEntity
  8
鏡台
  6
CONTINUOUS
 62
     6
100
AcDbLine
 10
1092.75000000013
 20
2606.299999999999
 30
0.0
 11
1129.25000000013
 21
2606.299999999999
 31
0.0
  0
LINE
  5
291
330
1F
100
AcDbEntity
  8
鏡台
  6
CONTINUOUS
 62
     6
100
AcDbLine
 10
1111.00000000013
 20
2588.05
 30
0.0
 11
1111.00000000013
 21
2624.55
 31
0.0
  0
LINE
  5
292
330
1F
100
AcDbEntity
  8
鏡台
  6
CONTINUOUS
 62
     6
100
AcDbLine
 10
1092.75000000013
 20
2166.299999999999
 30
0.0
 11
1129.25000000013
 21
2166.299999999999
 31
0.0
  0
LINE
  5
293
330
1F
100
AcDbEntity
  8
鏡台
  6
CONTINUOUS
 62
     6
100
AcDbLine
 10
1111.00000000013
 20
2148.05
 30
0.0
 11
1111.00000000013
 21
2184.55
 31
0.0
  0
LINE
  5
294
330
1F
100
AcDbEntity
  8
鏡台
  6
CONTINUOUS
 62
     6
100
AcDbLine
 10
792.75000000013
 20
2166.299999999999
 30
0.0
 11
829.25000000013
 21
2166.299999999999
 31
0.0
  0
LINE
  5
295
330
1F
100
AcDbEntity
  8
鏡台
  6
CONTINUOUS
 62
     6
100
AcDbLine
 10
811.00000000013
 20
2148.05
 30
0.0
 11
811.00000000013
 21
2184.55
 31
0.0
  0
CIRCLE
  5
296
330
1F
100
AcDbEntity
  8
鏡台
  6
EXLTYPE2
 62
     6
100
AcDbCircle
 10
811.00000000013
 20
2166.3
 30
0.0
 40
8.25
  0
CIRCLE
  5
297
330
1F
100
AcDbEntity
  8
鏡台
  6
EXLTYPE2
 62
     6
100
AcDbCircle
 10
1111.00000000013
 20
2166.3
 30
0.0
 40
8.25
  0
LINE
  5
298
330
1F
100
AcDbEntity
  8
鏡台
  6
CONTINUOUS
 62
     2
100
AcDbLine
 10
737.50000000013
 20
2668.3
 30
0.0
 11
737.50000000013
 21
2104.3
 31
0.0
  0
LINE
  5
299
330
1F
100
AcDbEntity
  8
鏡台
  6
CONTINUOUS
 62
     4
100
AcDbLine
 10
739.00000000013
 20
2669.5
 30
0.0
 11
739.00000000013
 21
2662.5
 31
0.0
  0
ARC
  5
29A
330
1F
100
AcDbEntity
  8
鏡台
  6
CONTINUOUS
 62
     4
100
AcDbCircle
 10
742.0000000001309
 20
2662.5
 30
0.0
 40
3.000000000000001
100
AcDbArc
 50
180.0
 51
270.0
  0
LINE
  5
29B
330
1F
100
AcDbEntity
  8
鏡台
  6
CONTINUOUS
 62
     4
100
AcDbLine
 10
1183.00000000013
 20
2669.5
 30
0.0
 11
1183.00000000013
 21
2662.5
 31
0.0
  0
ARC
  5
29C
330
1F
100
AcDbEntity
  8
鏡台
  6
CONTINUOUS
 62
     4
100
AcDbCircle
 10
1180.000000000131
 20
2662.5
 30
0.0
 40
3.000000000000001
100
AcDbArc
 50
270.0
 51
0.0
  0
LINE
  5
29D
330
1F
100
AcDbEntity
  8
鏡台
  6
CONTINUOUS
 62
     4
100
AcDbLine
 10
739.00000000013
 20
2669.5
 30
0.0
 11
1183.00000000013
 21
2669.5
 31
0.0
  0
LINE
  5
29E
330
1F
100
AcDbEntity
  8
鏡台
  6
CONTINUOUS
 62
     4
100
AcDbLine
 10
742.0000000001309
 20
2659.5
 30
0.0
 11
1180.000000000131
 21
2659.5
 31
0.0
  0
LINE
  5
29F
330
1F
100
AcDbEntity
  8
鏡台
  6
CONTINUOUS
 62
     4
100
AcDbLine
 10
739.00000000013
 20
2103.1
 30
0.0
 11
739.00000000013
 21
2110.1
 31
0.0
  0
ARC
  5
2A0
330
1F
100
AcDbEntity
  8
鏡台
  6
CONTINUOUS
 62
     4
100
AcDbCircle
 10
742.000000000129
 20
2110.1
 30
0.0
 40
3.000000000000001
100
AcDbArc
 50
90.00000000000001
 51
180.0
  0
LINE
  5
2A1
330
1F
100
AcDbEntity
  8
鏡台
  6
EXLTYPE3
 62
     6
100
AcDbLine
 10
1184.50000000013
 20
2668.3
 30
0.0
 11
737.50000000013
 21
2386.3
 31
0.0
  0
LINE
  5
2A2
330
1F
100
AcDbEntity
  8
鏡台
  6
CONTINUOUS
 62
     2
100
AcDbLine
 10
1184.500000000129
 20
2656.3
 30
0.0
 11
1186.00000000013
 21
2656.3
 31
0.0
  0
LINE
  5
2A3
330
1F
100
AcDbEntity
  8
鏡台
  6
CONTINUOUS
 62
     2
100
AcDbLine
 10
736.00000000013
 20
2656.3
 30
0.0
 11
737.50000000013
 21
2656.3
 31
0.0
  0
CIRCLE
  5
2A4
330
1F
100
AcDbEntity
  8
鏡台
  6
EXLTYPE2
 62
     6
100
AcDbCircle
 10
811.00000000013
 20
2606.3
 30
0.0
 40
8.25
  0
CIRCLE
  5
2A5
330
1F
100
AcDbEntity
  8
鏡台
  6
EXLTYPE2
 62
     6
100
AcDbCircle
 10
1111.00000000013
 20
2606.3
 30
0.0
 40
8.25
  0
LINE
  5
2A6
330
1F
100
AcDbEntity
  8
鏡台
  6
CONTINUOUS
 62
     2
100
AcDbLine
 10
736.00000000013
 20
2116.3
 30
0.0
 11
737.50000000013
 21
2116.3
 31
0.0
  0
LINE
  5
2A7
330
1F
100
AcDbEntity
  8
鏡台
  6
CONTINUOUS
 62
     2
100
AcDbLine
 10
737.50000000013
 20
2668.299999999999
 30
0.0
 11
739.00000000013
 21
2668.299999999999
 31
0.0
  0
LINE
  5
2A8
330
1F
100
AcDbEntity
  8
鏡台
  6
CONTINUOUS
 62
     2
100
AcDbLine
 10
1183.000000000131
 20
2668.299999999999
 30
0.0
 11
1184.500000000129
 21
2668.299999999999
 31
0.0
  0
LINE
  5
2A9
330
1F
100
AcDbEntity
  8
鏡台
  6
CONTINUOUS
 62
     2
100
AcDbLine
 10
739.00000000013
 20
2104.300000000001
 30
0.0
 11
737.50000000013
 21
2104.300000000001
 31
0.0
  0
LINE
  5
2AA
330
1F
100
AcDbEntity
  8
鏡台
  6
CONTINUOUS
 62
     6
100
AcDbLine
 10
901.5144660941986
 20
2220.885533905902
 30
0.0
 11
888.7644660941986
 21
2208.135533905906
 31
0.0
  0
LINE
  5
2AB
330
1F
100
AcDbEntity
  8
鏡台
  6
CONTINUOUS
 62
     6
100
AcDbLine
 10
880.8000000001283
 20
2193.099999999974
 30
0.0
 11
913.300000000132
 21
2225.599999999971
 31
0.0
  0
LINE
  5
2AC
330
1F
100
AcDbEntity
  8
鏡台
  6
CONTINUOUS
 62
     6
100
AcDbLine
 10
891.3355339060635
 20
2196.564466094037
 30
0.0
 11
906.3355339060653
 21
2211.564466094035
 31
0.0
  0
LINE
  5
2AD
330
1F
100
AcDbEntity
  8
鏡台
  6
CONTINUOUS
 62
     6
100
AcDbLine
 10
932.544533433197
 20
2577.303831421802
 30
0.0
 11
919.794533433197
 21
2564.553831421806
 31
0.0
  0
LINE
  5
2AE
330
1F
100
AcDbEntity
  8
鏡台
  6
CONTINUOUS
 62
     6
100
AcDbLine
 10
911.8300673391267
 20
2549.518297515874
 30
0.0
 11
944.3300673391303
 21
2582.018297515871
 31
0.0
  0
LINE
  5
2AF
330
1F
100
AcDbEntity
  8
鏡台
  6
CONTINUOUS
 62
     6
100
AcDbLine
 10
922.3656012450618
 20
2552.982763609937
 30
0.0
 11
937.3656012450637
 21
2567.982763609935
 31
0.0
  0
LINE
  5
2B0
330
1F
100
AcDbEntity
  8
鏡台
  6
CONTINUOUS
 62
     6
100
AcDbLine
 10
1023.114466094198
 20
2413.985533905901
 30
0.0
 11
1010.364466094198
 21
2401.235533905905
 31
0.0
  0
LINE
  5
2B1
330
1F
100
AcDbEntity
  8
鏡台
  6
CONTINUOUS
 62
     6
100
AcDbLine
 10
1002.400000000128
 20
2386.199999999973
 30
0.0
 11
1034.900000000132
 21
2418.699999999971
 31
0.0
  0
LINE
  5
2B2
330
1F
100
AcDbEntity
  8
鏡台
  6
CONTINUOUS
 62
     6
100
AcDbLine
 10
1012.935533906063
 20
2389.664466094036
 30
0.0
 11
1027.935533906065
 21
2404.664466094035
 31
0.0
  0
LINE
  5
2B3
330
1F
100
AcDbEntity
  8
鏡台
  6
CONTINUOUS
 62
     2
100
AcDbLine
 10
1186.00000000013
 20
2656.3
 30
0.0
 11
1186.00000000013
 21
2116.3
 31
0.0
  0
LINE
  5
2B4
330
1F
100
AcDbEntity
  8
鏡台
  6
CONTINUOUS
 62
     4
100
AcDbLine
 10
1183.00000000013
 20
2103.1
 30
0.0
 11
739.00000000013
 21
2103.1
 31
0.0
  0
LINE
  5
2B5
330
1F
100
AcDbEntity
  8
鏡台
  6
CONTINUOUS
 62
     4
100
AcDbLine
 10
1183.00000000013
 20
2103.1
 30
0.0
 11
1183.00000000013
 21
2110.1
 31
0.0
  0
ARC
  5
2B6
330
1F
100
AcDbEntity
  8
鏡台
  6
CONTINUOUS
 62
     4
100
AcDbCircle
 10
1180.000000000131
 20
2110.1
 30
0.0
 40
3.000000000000001
100
AcDbArc
 50
0.0
 51
90.00000000000001
  0
LINE
  5
2B7
330
1F
100
AcDbEntity
  8
鏡台
  6
CONTINUOUS
 62
     2
100
AcDbLine
 10
1184.500000000129
 20
2116.299999999999
 30
0.0
 11
1186.00000000013
 21
2116.299999999999
 31
0.0
  0
LINE
  5
2B8
330
1F
100
AcDbEntity
  8
鏡台
  6
CONTINUOUS
 62
     2
100
AcDbLine
 10
1183.000000000131
 20
2104.300000000001
 30
0.0
 11
1184.500000000129
 21
2104.300000000001
 31
0.0
  0
LINE
  5
2B9
330
1F
100
AcDbEntity
  8
鏡台
  6
CONTINUOUS
 62
     4
100
AcDbLine
 10
1180.000000000131
 20
2113.1
 30
0.0
 11
742.000000000129
 21
2113.1
 31
0.0
  0
LINE
  5
2BA
330
1F
100
AcDbEntity
  8
鏡台
  6
EXLTYPE3
 62
     6
100
AcDbLine
 10
737.50000000013
 20
2386.3
 30
0.0
 11
1184.500000000131
 21
2104.300000000001
 31
0.0
  0
LINE
  5
2BB
330
1F
100
AcDbEntity
  8
鏡台
  6
CONTINUOUS
 62
     2
100
AcDbLine
 10
1184.500000000129
 20
2668.3
 30
0.0
 11
1184.500000000129
 21
2104.300000000001
 31
0.0
  0
LINE
  5
2BC
330
1F
100
AcDbEntity
  8
鏡台
  6
EXLTYPE2
 62
     3
100
AcDbLine
 10
752.50000000013
 20
2133.3
 30
0.0
 11
752.50000000013
 21
2173.3
 31
0.0
  0
LINE
  5
2BD
330
1F
100
AcDbEntity
  8
鏡台
  6
EXLTYPE2
 62
     3
100
AcDbLine
 10
752.50000000013
 20
2133.3
 30
0.0
 11
1169.500000000129
 21
2133.3
 31
0.0
  0
LINE
  5
2BE
330
1F
100
AcDbEntity
  8
鏡台
  6
EXLTYPE2
 62
     3
100
AcDbLine
 10
752.50000000013
 20
2173.3
 30
0.0
 11
1169.500000000129
 21
2173.3
 31
0.0
  0
LINE
  5
2BF
330
1F
100
AcDbEntity
  8
鏡台
  6
EXLTYPE2
 62
     3
100
AcDbLine
 10
1169.500000000129
 20
2173.3
 30
0.0
 11
1169.500000000129
 21
2133.3
 31
0.0
  0
LINE
  5
2C0
330
1F
100
AcDbEntity
  8
鏡台
  6
EXLTYPE2
 62
     3
100
AcDbLine
 10
752.5000000001302
 20
2375.3
 30
0.0
 11
1169.500000000129
 21
2375.3
 31
0.0
  0
LINE
  5
2C1
330
1F
100
AcDbEntity
  8
鏡台
  6
EXLTYPE2
 62
     3
100
AcDbLine
 10
752.5000000001302
 20
2415.3
 30
0.0
 11
1169.500000000129
 21
2415.3
 31
0.0
  0
LINE
  5
2C2
330
1F
100
AcDbEntity
  8
鏡台
  6
EXLTYPE2
 62
     3
100
AcDbLine
 10
1169.500000000129
 20
2415.3
 30
0.0
 11
1169.500000000129
 21
2375.3
 31
0.0
  0
LINE
  5
2C3
330
1F
100
AcDbEntity
  8
鏡台
  6
EXLTYPE2
 62
     3
100
AcDbLine
 10
752.5000000001302
 20
2375.3
 30
0.0
 11
752.5000000001302
 21
2415.3
 31
0.0
  0
LINE
  5
2C4
330
1F
100
AcDbEntity
  8
鏡台
  6
EXLTYPE2
 62
     6
100
AcDbLine
 10
961.00000000013
 20
2669.5
 30
0.0
 11
961.00000000013
 21
2696.3
 31
0.0
  0
LINE
  5
2C5
330
1F
100
AcDbEntity
  8
鏡台
  6
EXLTYPE3
 62
     6
100
AcDbLine
 10
961.0000000001302
 20
2067.0
 30
0.0
 11
961.0000000001302
 21
2695.5
 31
0.0
  0
CIRCLE
  5
2C6
330
1F
100
AcDbEntity
  8
鏡台
  6
EXLTYPE2
 62
     3
100
AcDbCircle
 10
2464.0000000002
 20
2628.300000000001
 30
0.0
 40
4.0
  0
CIRCLE
  5
2C7
330
1F
100
AcDbEntity
  8
鏡台
  6
EXLTYPE2
 62
     3
100
AcDbCircle
 10
2404.0000000002
 20
2628.300000000001
 30
0.0
 40
4.0
  0
ARC
  5
2C8
330
1F
100
AcDbEntity
  8
鏡台
  6
EXLTYPE2
 62
     3
100
AcDbCircle
 10
2395.500000000199
 20
2172.799999999999
 30
0.0
 40
0.5
100
AcDbArc
 50
90.00000000000001
 51
180.0
  0
ARC
  5
2C9
330
1F
100
AcDbEntity
  8
鏡台
  6
EXLTYPE2
 62
     3
100
AcDbCircle
 10
2397.000000000199
 20
2172.799999999999
 30
0.0
 40
0.5
100
AcDbArc
 50
0.0
 51
90.00000000000001
  0
ARC
  5
2CA
330
1F
100
AcDbEntity
  8
鏡台
  6
EXLTYPE2
 62
     3
100
AcDbCircle
 10
2395.300000000198
 20
2169.341607978309
 30
0.0
 40
0.3
100
AcDbArc
 50
180.0
 51
260.4059317731485
  0
ARC
  5
2CB
330
1F
100
AcDbEntity
  8
鏡台
  6
EXLTYPE2
 62
     3
100
AcDbCircle
 10
2395.2000000002
 20
2168.749999999999
 30
0.0
 40
0.3
100
AcDbArc
 50
0.0
 51
80.40593177314841
  0
ARC
  5
2CC
330
1F
100
AcDbEntity
  8
鏡台
  6
EXLTYPE2
 62
     3
100
AcDbCircle
 10
2395.2000000002
 20
2166.349999999999
 30
0.0
 40
0.3
100
AcDbArc
 50
279.5940682268516
 51
0.0
  0
ARC
  5
2CD
330
1F
100
AcDbEntity
  8
鏡台
  6
EXLTYPE2
 62
     3
100
AcDbCircle
 10
2395.300000000198
 20
2165.758392021688
 30
0.0
 40
0.3
100
AcDbArc
 50
99.59406822685159
 51
180.0
  0
ARC
  5
2CE
330
1F
100
AcDbEntity
  8
鏡台
  6
EXLTYPE2
 62
     3
100
AcDbCircle
 10
2395.300000000198
 20
2163.341607978309
 30
0.0
 40
0.3
100
AcDbArc
 50
180.0
 51
260.4059317731485
  0
ARC
  5
2CF
330
1F
100
AcDbEntity
  8
鏡台
  6
EXLTYPE2
 62
     3
100
AcDbCircle
 10
2395.2000000002
 20
2162.749999999999
 30
0.0
 40
0.3
100
AcDbArc
 50
0.0
 51
80.40593177314841
  0
ARC
  5
2D0
330
1F
100
AcDbEntity
  8
鏡台
  6
EXLTYPE2
 62
     3
100
AcDbCircle
 10
2395.300000000198
 20
2159.758392021688
 30
0.0
 40
0.3
100
AcDbArc
 50
99.59406822685159
 51
180.0
  0
ARC
  5
2D1
330
1F
100
AcDbEntity
  8
鏡台
  6
EXLTYPE2
 62
     3
100
AcDbCircle
 10
2395.2000000002
 20
2160.349999999999
 30
0.0
 40
0.3
100
AcDbArc
 50
279.5940682268516
 51
0.0
  0
ARC
  5
2D2
330
1F
100
AcDbEntity
  8
鏡台
  6
EXLTYPE2
 62
     3
100
AcDbCircle
 10
2395.300000000198
 20
2157.341607978309
 30
0.0
 40
0.3
100
AcDbArc
 50
180.0
 51
260.4059317731485
  0
ARC
  5
2D3
330
1F
100
AcDbEntity
  8
鏡台
  6
EXLTYPE2
 62
     3
100
AcDbCircle
 10
2395.2000000002
 20
2156.749999999999
 30
0.0
 40
0.3
100
AcDbArc
 50
0.0
 51
80.40593177314841
  0
ARC
  5
2D4
330
1F
100
AcDbEntity
  8
鏡台
  6
EXLTYPE2
 62
     3
100
AcDbCircle
 10
2395.300000000198
 20
2153.758392021688
 30
0.0
 40
0.3
100
AcDbArc
 50
99.59406822685159
 51
180.0
  0
ARC
  5
2D5
330
1F
100
AcDbEntity
  8
鏡台
  6
EXLTYPE2
 62
     3
100
AcDbCircle
 10
2395.2000000002
 20
2154.349999999999
 30
0.0
 40
0.3
100
AcDbArc
 50
279.5940682268516
 51
0.0
  0
ARC
  5
2D6
330
1F
100
AcDbEntity
  8
鏡台
  6
EXLTYPE2
 62
     3
100
AcDbCircle
 10
2395.300000000198
 20
2151.341607978309
 30
0.0
 40
0.3
100
AcDbArc
 50
180.0
 51
260.4059317731485
  0
ARC
  5
2D7
330
1F
100
AcDbEntity
  8
鏡台
  6
EXLTYPE2
 62
     3
100
AcDbCircle
 10
2395.2000000002
 20
2150.749999999999
 30
0.0
 40
0.3
100
AcDbArc
 50
0.0
 51
80.40593177314841
  0
ARC
  5
2D8
330
1F
100
AcDbEntity
  8
鏡台
  6
EXLTYPE2
 62
     3
100
AcDbCircle
 10
2395.2000000002
 20
2148.349999999999
 30
0.0
 40
0.3
100
AcDbArc
 50
279.5940682268516
 51
0.0
  0
ARC
  5
2D9
330
1F
100
AcDbEntity
  8
鏡台
  6
EXLTYPE2
 62
     3
100
AcDbCircle
 10
2395.300000000198
 20
2147.758392021688
 30
0.0
 40
0.3
100
AcDbArc
 50
99.59406822685159
 51
180.0
  0
ARC
  5
2DA
330
1F
100
AcDbEntity
  8
鏡台
  6
EXLTYPE2
 62
     3
100
AcDbCircle
 10
2395.300000000198
 20
2145.341607978309
 30
0.0
 40
0.3
100
AcDbArc
 50
180.0
 51
260.4059317731485
  0
ARC
  5
2DB
330
1F
100
AcDbEntity
  8
鏡台
  6
EXLTYPE2
 62
     3
100
AcDbCircle
 10
2395.2000000002
 20
2144.749999999999
 30
0.0
 40
0.3
100
AcDbArc
 50
0.0
 51
80.40593177314841
  0
ARC
  5
2DC
330
1F
100
AcDbEntity
  8
鏡台
  6
EXLTYPE2
 62
     3
100
AcDbCircle
 10
2395.2000000002
 20
2142.349999999999
 30
0.0
 40
0.3
100
AcDbArc
 50
279.5940682268516
 51
0.0
  0
ARC
  5
2DD
330
1F
100
AcDbEntity
  8
鏡台
  6
EXLTYPE2
 62
     3
100
AcDbCircle
 10
2395.300000000198
 20
2141.758392021688
 30
0.0
 40
0.3
100
AcDbArc
 50
99.59406822685159
 51
180.0
  0
ARC
  5
2DE
330
1F
100
AcDbEntity
  8
鏡台
  6
EXLTYPE2
 62
     3
100
AcDbCircle
 10
2395.300000000198
 20
2139.341607978309
 30
0.0
 40
0.3
100
AcDbArc
 50
180.0
 51
260.4059317731485
  0
ARC
  5
2DF
330
1F
100
AcDbEntity
  8
鏡台
  6
EXLTYPE2
 62
     3
100
AcDbCircle
 10
2395.2000000002
 20
2138.749999999999
 30
0.0
 40
0.3
100
AcDbArc
 50
0.0
 51
80.40593177314841
  0
ARC
  5
2E0
330
1F
100
AcDbEntity
  8
鏡台
  6
EXLTYPE2
 62
     3
100
AcDbCircle
 10
2395.300000000198
 20
2135.758392021688
 30
0.0
 40
0.3
100
AcDbArc
 50
99.59406822685159
 51
180.0
  0
ARC
  5
2E1
330
1F
100
AcDbEntity
  8
鏡台
  6
EXLTYPE2
 62
     3
100
AcDbCircle
 10
2395.2000000002
 20
2136.349999999999
 30
0.0
 40
0.3
100
AcDbArc
 50
279.5940682268516
 51
0.0
  0
ARC
  5
2E2
330
1F
100
AcDbEntity
  8
鏡台
  6
EXLTYPE2
 62
     3
100
AcDbCircle
 10
2395.500000000199
 20
2133.799999999999
 30
0.0
 40
0.5
100
AcDbArc
 50
180.0
 51
270.0000000000002
  0
ARC
  5
2E3
330
1F
100
AcDbEntity
  8
鏡台
  6
EXLTYPE2
 62
     3
100
AcDbCircle
 10
2397.000000000199
 20
2133.799999999999
 30
0.0
 40
0.5
100
AcDbArc
 50
270.0000000000002
 51
0.0
  0
ARC
  5
2E4
330
1F
100
AcDbEntity
  8
鏡台
  6
EXLTYPE2
 62
     3
100
AcDbCircle
 10
2397.800000000198
 20
2151.099999999999
 30
0.0
 40
0.3
100
AcDbArc
 50
180.0
 51
270.0000000000002
  0
ARC
  5
2E5
330
1F
100
AcDbEntity
  8
鏡台
  6
EXLTYPE2
 62
     3
100
AcDbCircle
 10
2397.800000000198
 20
2147.999999999999
 30
0.0
 40
0.3
100
AcDbArc
 50
90.00000000000001
 51
180.0
  0
ARC
  5
2E6
330
1F
100
AcDbEntity
  8
鏡台
  6
EXLTYPE2
 62
     3
100
AcDbCircle
 10
2410.750000000199
 20
2141.549999999999
 30
0.0
 40
1.250000000000569
100
AcDbArc
 50
180.0
 51
0.0
  0
ARC
  5
2E7
330
1F
100
AcDbEntity
  8
鏡台
  6
EXLTYPE2
 62
     3
100
AcDbCircle
 10
2409.200000000198
 20
2147.999999999999
 30
0.0
 40
0.3
100
AcDbArc
 50
0.0
 51
90.00000000000001
  0
ARC
  5
2E8
330
1F
100
AcDbEntity
  8
鏡台
  6
EXLTYPE2
 62
     3
100
AcDbCircle
 10
2412.300000000198
 20
2147.999999999999
 30
0.0
 40
0.3
100
AcDbArc
 50
90.00000000000001
 51
180.0
  0
ARC
  5
2E9
330
1F
100
AcDbEntity
  8
鏡台
  6
EXLTYPE2
 62
     3
100
AcDbCircle
 10
2427.5000000002
 20
2147.799999999993
 30
0.0
 40
0.499999999994202
100
AcDbArc
 50
180.0
 51
0.0
  0
ARC
  5
2EA
330
1F
100
AcDbEntity
  8
鏡台
  6
EXLTYPE2
 62
     3
100
AcDbCircle
 10
2426.700000000198
 20
2147.999999999999
 30
0.0
 40
0.3
100
AcDbArc
 50
0.0
 51
90.00000000000001
  0
ARC
  5
2EB
330
1F
100
AcDbEntity
  8
鏡台
  6
EXLTYPE2
 62
     3
100
AcDbCircle
 10
2428.300000000199
 20
2147.999999999999
 30
0.0
 40
0.3
100
AcDbArc
 50
90.00000000000001
 51
180.0
  0
ARC
  5
2EC
330
1F
100
AcDbEntity
  8
鏡台
  6
EXLTYPE2
 62
     3
100
AcDbCircle
 10
2441.2000000002
 20
2147.999999999999
 30
0.0
 40
0.3
100
AcDbArc
 50
0.0
 51
90.00000000000001
  0
ARC
  5
2ED
330
1F
100
AcDbEntity
  8
鏡台
  6
EXLTYPE2
 62
     3
100
AcDbCircle
 10
2442.000000000199
 20
2147.8
 30
0.0
 40
0.500000000001478
100
AcDbArc
 50
180.0
 51
0.0
  0
ARC
  5
2EE
330
1F
100
AcDbEntity
  8
鏡台
  6
EXLTYPE2
 62
     3
100
AcDbCircle
 10
2442.800000000198
 20
2147.999999999999
 30
0.0
 40
0.3
100
AcDbArc
 50
90.00000000000001
 51
180.0
  0
ARC
  5
2EF
330
1F
100
AcDbEntity
  8
鏡台
  6
EXLTYPE2
 62
     3
100
AcDbCircle
 10
2457.2000000002
 20
2147.999999999999
 30
0.0
 40
0.3
100
AcDbArc
 50
0.0
 51
90.00000000000001
  0
ARC
  5
2F0
330
1F
100
AcDbEntity
  8
鏡台
  6
EXLTYPE2
 62
     3
100
AcDbCircle
 10
2460.300000000198
 20
2147.999999999999
 30
0.0
 40
0.3
100
AcDbArc
 50
90.00000000000001
 51
180.0
  0
ARC
  5
2F1
330
1F
100
AcDbEntity
  8
鏡台
  6
EXLTYPE2
 62
     3
100
AcDbCircle
 10
2460.500000000199
 20
2138.799999999999
 30
0.0
 40
0.5
100
AcDbArc
 50
180.0
 51
270.0000000000002
  0
ARC
  5
2F2
330
1F
100
AcDbEntity
  8
鏡台
  6
EXLTYPE2
 62
     3
100
AcDbCircle
 10
2466.750000000199
 20
2137.049999999999
 30
0.0
 40
1.249999999999631
100
AcDbArc
 50
270.0000000000002
 51
90.00000000000001
  0
ARC
  5
2F3
330
1F
100
AcDbEntity
  8
鏡台
  6
EXLTYPE2
 62
     3
100
AcDbCircle
 10
2458.000000000199
 20
2136.299999999999
 30
0.0
 40
0.5
100
AcDbArc
 50
180.0
 51
270.0000000000002
  0
ARC
  5
2F4
330
1F
100
AcDbEntity
  8
鏡台
  6
EXLTYPE2
 62
     3
100
AcDbCircle
 10
2472.5000000002
 20
2148.799999999999
 30
0.0
 40
0.5
100
AcDbArc
 50
270.0000000000002
 51
0.0
  0
ARC
  5
2F5
330
1F
100
AcDbEntity
  8
鏡台
  6
EXLTYPE2
 62
     3
100
AcDbCircle
 10
2472.5000000002
 20
2151.299999999999
 30
0.0
 40
0.5
100
AcDbArc
 50
0.0
 51
90.00000000000001
  0
ARC
  5
2F6
330
1F
100
AcDbEntity
  8
鏡台
  6
EXLTYPE2
 62
     3
100
AcDbCircle
 10
2469.500000000199
 20
2151.299999999999
 30
0.0
 40
0.5
100
AcDbArc
 50
270.0000000000002
 51
0.0
  0
ARC
  5
2F7
330
1F
100
AcDbEntity
  8
鏡台
  6
EXLTYPE2
 62
     3
100
AcDbCircle
 10
2470.500000000199
 20
2151.299999999999
 30
0.0
 40
0.5
100
AcDbArc
 50
90.00000000000001
 51
180.0
  0
LINE
  5
2F8
330
1F
100
AcDbEntity
  8
鏡台
  6
EXLTYPE2
 62
     3
100
AcDbLine
 10
2395.500000000199
 20
2173.299999999999
 30
0.0
 11
2397.000000000199
 21
2173.3
 31
0.0
  0
LINE
  5
2F9
330
1F
100
AcDbEntity
  8
鏡台
  6
EXLTYPE2
 62
     3
100
AcDbLine
 10
2395.0000000002
 20
2172.799999999999
 30
0.0
 11
2395.0000000002
 21
2169.341607978309
 31
0.0
  0
LINE
  5
2FA
330
1F
100
AcDbEntity
  8
鏡台
  6
EXLTYPE2
 62
     3
100
AcDbLine
 10
2395.500000000199
 20
2168.749999999999
 30
0.0
 11
2395.500000000199
 21
2166.349999999999
 31
0.0
  0
LINE
  5
2FB
330
1F
100
AcDbEntity
  8
鏡台
  6
EXLTYPE2
 62
     3
100
AcDbLine
 10
2395.0000000002
 20
2165.758392021688
 30
0.0
 11
2395.0000000002
 21
2163.341607978309
 31
0.0
  0
LINE
  5
2FC
330
1F
100
AcDbEntity
  8
鏡台
  6
EXLTYPE2
 62
     3
100
AcDbLine
 10
2395.500000000199
 20
2162.749999999999
 30
0.0
 11
2395.500000000199
 21
2160.349999999999
 31
0.0
  0
LINE
  5
2FD
330
1F
100
AcDbEntity
  8
鏡台
  6
EXLTYPE2
 62
     3
100
AcDbLine
 10
2395.0000000002
 20
2159.758392021688
 30
0.0
 11
2395.0000000002
 21
2157.341607978309
 31
0.0
  0
LINE
  5
2FE
330
1F
100
AcDbEntity
  8
鏡台
  6
EXLTYPE2
 62
     3
100
AcDbLine
 10
2395.500000000199
 20
2156.749999999999
 30
0.0
 11
2395.500000000199
 21
2154.349999999999
 31
0.0
  0
LINE
  5
2FF
330
1F
100
AcDbEntity
  8
鏡台
  6
EXLTYPE2
 62
     3
100
AcDbLine
 10
2395.000000000197
 20
2153.758392021688
 30
0.0
 11
2395.0000000002
 21
2151.341607978309
 31
0.0
  0
LINE
  5
300
330
1F
100
AcDbEntity
  8
鏡台
  6
EXLTYPE2
 62
     3
100
AcDbLine
 10
2395.500000000199
 20
2150.749999999999
 30
0.0
 11
2395.500000000199
 21
2148.349999999999
 31
0.0
  0
LINE
  5
301
330
1F
100
AcDbEntity
  8
鏡台
  6
EXLTYPE2
 62
     3
100
AcDbLine
 10
2395.0000000002
 20
2147.758392021688
 30
0.0
 11
2395.000000000197
 21
2145.341607978309
 31
0.0
  0
LINE
  5
302
330
1F
100
AcDbEntity
  8
鏡台
  6
EXLTYPE2
 62
     3
100
AcDbLine
 10
2395.500000000199
 20
2144.749999999999
 30
0.0
 11
2395.500000000199
 21
2142.349999999999
 31
0.0
  0
LINE
  5
303
330
1F
100
AcDbEntity
  8
鏡台
  6
EXLTYPE2
 62
     3
100
AcDbLine
 10
2395.000000000197
 20
2141.758392021688
 30
0.0
 11
2395.000000000197
 21
2139.341607978309
 31
0.0
  0
LINE
  5
304
330
1F
100
AcDbEntity
  8
鏡台
  6
EXLTYPE2
 62
     3
100
AcDbLine
 10
2395.500000000197
 20
2138.749999999999
 30
0.0
 11
2395.500000000199
 21
2136.349999999999
 31
0.0
  0
LINE
  5
305
330
1F
100
AcDbEntity
  8
鏡台
  6
EXLTYPE2
 62
     3
100
AcDbLine
 10
2395.000000000197
 20
2135.758392021688
 30
0.0
 11
2395.000000000196
 21
2133.799999999999
 31
0.0
  0
LINE
  5
306
330
1F
100
AcDbEntity
  8
鏡台
  6
EXLTYPE2
 62
     3
100
AcDbLine
 10
2395.500000000199
 20
2133.299999999999
 30
0.0
 11
2397.000000000199
 21
2133.3
 31
0.0
  0
LINE
  5
307
330
1F
100
AcDbEntity
  8
鏡台
  6
EXLTYPE2
 62
     3
100
AcDbLine
 10
2397.5000000002
 20
2147.999999999999
 30
0.0
 11
2397.5000000002
 21
2133.799999999999
 31
0.0
  0
LINE
  5
308
330
1F
100
AcDbEntity
  8
鏡台
  6
EXLTYPE2
 62
     3
100
AcDbLine
 10
2397.5000000002
 20
2172.799999999999
 30
0.0
 11
2397.5000000002
 21
2151.099999999999
 31
0.0
  0
LINE
  5
309
330
1F
100
AcDbEntity
  8
鏡台
  6
EXLTYPE2
 62
     3
100
AcDbLine
 10
2397.800000000198
 20
2148.299999999999
 30
0.0
 11
2409.200000000198
 21
2148.299999999999
 31
0.0
  0
LINE
  5
30A
330
1F
100
AcDbEntity
  8
鏡台
  6
EXLTYPE2
 62
     3
100
AcDbLine
 10
2409.500000000199
 20
2147.999999999999
 30
0.0
 11
2409.500000000199
 21
2141.55
 31
0.0
  0
LINE
  5
30B
330
1F
100
AcDbEntity
  8
鏡台
  6
EXLTYPE2
 62
     3
100
AcDbLine
 10
2412.000000000199
 20
2147.999999999999
 30
0.0
 11
2412.000000000199
 21
2141.55
 31
0.0
  0
LINE
  5
30C
330
1F
100
AcDbEntity
  8
鏡台
  6
EXLTYPE2
 62
     3
100
AcDbLine
 10
2412.300000000198
 20
2148.299999999999
 30
0.0
 11
2426.700000000198
 21
2148.299999999999
 31
0.0
  0
LINE
  5
30D
330
1F
100
AcDbEntity
  8
鏡台
  6
EXLTYPE2
 62
     3
100
AcDbLine
 10
2427.000000000192
 20
2148.0
 30
0.0
 11
2427.000000000199
 21
2147.799999999993
 31
0.0
  0
LINE
  5
30E
330
1F
100
AcDbEntity
  8
鏡台
  6
EXLTYPE2
 62
     3
100
AcDbLine
 10
2428.000000000193
 20
2147.999999999999
 30
0.0
 11
2428.000000000188
 21
2147.799999999997
 31
0.0
  0
LINE
  5
30F
330
1F
100
AcDbEntity
  8
鏡台
  6
EXLTYPE2
 62
     3
100
AcDbLine
 10
2428.300000000199
 20
2148.299999999999
 30
0.0
 11
2441.2000000002
 21
2148.299999999999
 31
0.0
  0
LINE
  5
310
330
1F
100
AcDbEntity
  8
鏡台
  6
EXLTYPE2
 62
     3
100
AcDbLine
 10
2441.500000000199
 20
2147.999999999999
 30
0.0
 11
2441.500000000206
 21
2147.800000000002
 31
0.0
  0
LINE
  5
311
330
1F
100
AcDbEntity
  8
鏡台
  6
EXLTYPE2
 62
     3
100
AcDbLine
 10
2442.5000000002
 20
2147.999999999998
 30
0.0
 11
2442.5000000002
 21
2147.8
 31
0.0
  0
LINE
  5
312
330
1F
100
AcDbEntity
  8
鏡台
  6
EXLTYPE2
 62
     3
100
AcDbLine
 10
2442.800000000198
 20
2148.299999999999
 30
0.0
 11
2457.2000000002
 21
2148.299999999999
 31
0.0
  0
LINE
  5
313
330
1F
100
AcDbEntity
  8
鏡台
  6
EXLTYPE2
 62
     3
100
AcDbLine
 10
2457.5000000002
 20
2147.999999999999
 30
0.0
 11
2457.5000000002
 21
2136.299999999999
 31
0.0
  0
LINE
  5
314
330
1F
100
AcDbEntity
  8
鏡台
  6
EXLTYPE2
 62
     3
100
AcDbLine
 10
2460.0000000002
 20
2147.999999999999
 30
0.0
 11
2460.0000000002
 21
2138.799999999999
 31
0.0
  0
LINE
  5
315
330
1F
100
AcDbEntity
  8
鏡台
  6
EXLTYPE2
 62
     3
100
AcDbLine
 10
2460.500000000199
 20
2138.299999999998
 30
0.0
 11
2466.750000000199
 21
2138.299999999999
 31
0.0
  0
LINE
  5
316
330
1F
100
AcDbEntity
  8
鏡台
  6
EXLTYPE2
 62
     3
100
AcDbLine
 10
2458.000000000199
 20
2135.799999999999
 30
0.0
 11
2466.750000000199
 21
2135.799999999998
 31
0.0
  0
LINE
  5
317
330
1F
100
AcDbEntity
  8
鏡台
  6
EXLTYPE2
 62
     3
100
AcDbLine
 10
2473.000000000199
 20
2151.299999999999
 30
0.0
 11
2473.000000000199
 21
2148.799999999999
 31
0.0
  0
LINE
  5
318
330
1F
100
AcDbEntity
  8
鏡台
  6
EXLTYPE2
 62
     3
100
AcDbLine
 10
2470.500000000199
 20
2151.799999999998
 30
0.0
 11
2472.5000000002
 21
2151.799999999997
 31
0.0
  0
LINE
  5
319
330
1F
100
AcDbEntity
  8
鏡台
  6
EXLTYPE2
 62
     3
100
AcDbLine
 10
2397.800000000198
 20
2150.799999999999
 30
0.0
 11
2469.500000000199
 21
2150.799999999999
 31
0.0
  0
LINE
  5
31A
330
1F
100
AcDbEntity
  8
鏡台
  6
EXLTYPE2
 62
     3
100
AcDbLine
 10
2460.300000000198
 20
2148.299999999998
 30
0.0
 11
2472.5000000002
 21
2148.299999999998
 31
0.0
  0
CIRCLE
  5
31B
330
1F
100
AcDbEntity
  8
鏡台
  6
EXLTYPE2
 62
     3
100
AcDbCircle
 10
2464.0000000002
 20
2144.3
 30
0.0
 40
4.0
  0
CIRCLE
  5
31C
330
1F
100
AcDbEntity
  8
鏡台
  6
EXLTYPE2
 62
     3
100
AcDbCircle
 10
2404.0000000002
 20
2144.3
 30
0.0
 40
4.0
  0
ARC
  5
31D
330
1F
100
AcDbEntity
  8
鏡台
  6
EXLTYPE2
 62
     3
100
AcDbCircle
 10
2395.500000000199
 20
2414.799999999999
 30
0.0
 40
0.5
100
AcDbArc
 50
90.00000000000001
 51
180.0
  0
ARC
  5
31E
330
1F
100
AcDbEntity
  8
鏡台
  6
EXLTYPE2
 62
     3
100
AcDbCircle
 10
2397.000000000199
 20
2414.799999999999
 30
0.0
 40
0.5
100
AcDbArc
 50
0.0
 51
90.00000000000001
  0
ARC
  5
31F
330
1F
100
AcDbEntity
  8
鏡台
  6
EXLTYPE2
 62
     3
100
AcDbCircle
 10
2395.300000000198
 20
2411.341607978309
 30
0.0
 40
0.3
100
AcDbArc
 50
180.0
 51
260.4059317731485
  0
ARC
  5
320
330
1F
100
AcDbEntity
  8
鏡台
  6
EXLTYPE2
 62
     3
100
AcDbCircle
 10
2395.2000000002
 20
2410.749999999999
 30
0.0
 40
0.3
100
AcDbArc
 50
0.0
 51
80.40593177314841
  0
ARC
  5
321
330
1F
100
AcDbEntity
  8
鏡台
  6
EXLTYPE2
 62
     3
100
AcDbCircle
 10
2395.2000000002
 20
2408.349999999999
 30
0.0
 40
0.3
100
AcDbArc
 50
279.5940682268516
 51
0.0
  0
ARC
  5
322
330
1F
100
AcDbEntity
  8
鏡台
  6
EXLTYPE2
 62
     3
100
AcDbCircle
 10
2395.300000000198
 20
2407.758392021688
 30
0.0
 40
0.3
100
AcDbArc
 50
99.59406822685159
 51
180.0
  0
ARC
  5
323
330
1F
100
AcDbEntity
  8
鏡台
  6
EXLTYPE2
 62
     3
100
AcDbCircle
 10
2395.300000000198
 20
2405.341607978309
 30
0.0
 40
0.3
100
AcDbArc
 50
180.0
 51
260.4059317731485
  0
ARC
  5
324
330
1F
100
AcDbEntity
  8
鏡台
  6
EXLTYPE2
 62
     3
100
AcDbCircle
 10
2395.2000000002
 20
2404.749999999999
 30
0.0
 40
0.3
100
AcDbArc
 50
0.0
 51
80.40593177314841
  0
ARC
  5
325
330
1F
100
AcDbEntity
  8
鏡台
  6
EXLTYPE2
 62
     3
100
AcDbCircle
 10
2395.300000000198
 20
2401.758392021688
 30
0.0
 40
0.3
100
AcDbArc
 50
99.59406822685159
 51
180.0
  0
ARC
  5
326
330
1F
100
AcDbEntity
  8
鏡台
  6
EXLTYPE2
 62
     3
100
AcDbCircle
 10
2395.2000000002
 20
2402.349999999999
 30
0.0
 40
0.3
100
AcDbArc
 50
279.5940682268516
 51
0.0
  0
ARC
  5
327
330
1F
100
AcDbEntity
  8
鏡台
  6
EXLTYPE2
 62
     3
100
AcDbCircle
 10
2395.300000000198
 20
2399.341607978309
 30
0.0
 40
0.3
100
AcDbArc
 50
180.0
 51
260.4059317731485
  0
ARC
  5
328
330
1F
100
AcDbEntity
  8
鏡台
  6
EXLTYPE2
 62
     3
100
AcDbCircle
 10
2395.2000000002
 20
2398.749999999999
 30
0.0
 40
0.3
100
AcDbArc
 50
0.0
 51
80.40593177314841
  0
ARC
  5
329
330
1F
100
AcDbEntity
  8
鏡台
  6
EXLTYPE2
 62
     3
100
AcDbCircle
 10
2395.300000000198
 20
2395.758392021688
 30
0.0
 40
0.3
100
AcDbArc
 50
99.59406822685159
 51
180.0
  0
ARC
  5
32A
330
1F
100
AcDbEntity
  8
鏡台
  6
EXLTYPE2
 62
     3
100
AcDbCircle
 10
2395.2000000002
 20
2396.349999999999
 30
0.0
 40
0.3
100
AcDbArc
 50
279.5940682268516
 51
0.0
  0
ARC
  5
32B
330
1F
100
AcDbEntity
  8
鏡台
  6
EXLTYPE2
 62
     3
100
AcDbCircle
 10
2395.300000000198
 20
2393.341607978309
 30
0.0
 40
0.3
100
AcDbArc
 50
180.0
 51
260.4059317731485
  0
ARC
  5
32C
330
1F
100
AcDbEntity
  8
鏡台
  6
EXLTYPE2
 62
     3
100
AcDbCircle
 10
2395.2000000002
 20
2392.749999999999
 30
0.0
 40
0.3
100
AcDbArc
 50
0.0
 51
80.40593177314841
  0
ARC
  5
32D
330
1F
100
AcDbEntity
  8
鏡台
  6
EXLTYPE2
 62
     3
100
AcDbCircle
 10
2395.2000000002
 20
2390.349999999999
 30
0.0
 40
0.3
100
AcDbArc
 50
279.5940682268516
 51
0.0
  0
ARC
  5
32E
330
1F
100
AcDbEntity
  8
鏡台
  6
EXLTYPE2
 62
     3
100
AcDbCircle
 10
2395.300000000198
 20
2389.758392021688
 30
0.0
 40
0.3
100
AcDbArc
 50
99.59406822685159
 51
180.0
  0
ARC
  5
32F
330
1F
100
AcDbEntity
  8
鏡台
  6
EXLTYPE2
 62
     3
100
AcDbCircle
 10
2395.300000000198
 20
2387.341607978309
 30
0.0
 40
0.3
100
AcDbArc
 50
180.0
 51
260.4059317731485
  0
ARC
  5
330
330
1F
100
AcDbEntity
  8
鏡台
  6
EXLTYPE2
 62
     3
100
AcDbCircle
 10
2395.2000000002
 20
2386.749999999999
 30
0.0
 40
0.3
100
AcDbArc
 50
0.0
 51
80.40593177314841
  0
ARC
  5
331
330
1F
100
AcDbEntity
  8
鏡台
  6
EXLTYPE2
 62
     3
100
AcDbCircle
 10
2395.2000000002
 20
2384.349999999999
 30
0.0
 40
0.3
100
AcDbArc
 50
279.5940682268516
 51
0.0
  0
ARC
  5
332
330
1F
100
AcDbEntity
  8
鏡台
  6
EXLTYPE2
 62
     3
100
AcDbCircle
 10
2395.300000000198
 20
2383.758392021688
 30
0.0
 40
0.3
100
AcDbArc
 50
99.59406822685159
 51
180.0
  0
ARC
  5
333
330
1F
100
AcDbEntity
  8
鏡台
  6
EXLTYPE2
 62
     3
100
AcDbCircle
 10
2395.300000000198
 20
2381.341607978309
 30
0.0
 40
0.3
100
AcDbArc
 50
180.0
 51
260.4059317731485
  0
ARC
  5
334
330
1F
100
AcDbEntity
  8
鏡台
  6
EXLTYPE2
 62
     3
100
AcDbCircle
 10
2395.2000000002
 20
2380.749999999999
 30
0.0
 40
0.3
100
AcDbArc
 50
0.0
 51
80.40593177314841
  0
ARC
  5
335
330
1F
100
AcDbEntity
  8
鏡台
  6
EXLTYPE2
 62
     3
100
AcDbCircle
 10
2395.300000000198
 20
2377.758392021688
 30
0.0
 40
0.3
100
AcDbArc
 50
99.59406822685159
 51
180.0
  0
ARC
  5
336
330
1F
100
AcDbEntity
  8
鏡台
  6
EXLTYPE2
 62
     3
100
AcDbCircle
 10
2395.2000000002
 20
2378.349999999999
 30
0.0
 40
0.3
100
AcDbArc
 50
279.5940682268516
 51
0.0
  0
ARC
  5
337
330
1F
100
AcDbEntity
  8
鏡台
  6
EXLTYPE2
 62
     3
100
AcDbCircle
 10
2395.500000000199
 20
2375.799999999999
 30
0.0
 40
0.5
100
AcDbArc
 50
180.0
 51
270.0000000000002
  0
ARC
  5
338
330
1F
100
AcDbEntity
  8
鏡台
  6
EXLTYPE2
 62
     3
100
AcDbCircle
 10
2397.000000000199
 20
2375.799999999999
 30
0.0
 40
0.5
100
AcDbArc
 50
270.0000000000002
 51
0.0
  0
ARC
  5
339
330
1F
100
AcDbEntity
  8
鏡台
  6
EXLTYPE2
 62
     3
100
AcDbCircle
 10
2397.800000000198
 20
2393.099999999999
 30
0.0
 40
0.3
100
AcDbArc
 50
180.0
 51
270.0000000000002
  0
ARC
  5
33A
330
1F
100
AcDbEntity
  8
鏡台
  6
EXLTYPE2
 62
     3
100
AcDbCircle
 10
2397.800000000198
 20
2389.999999999999
 30
0.0
 40
0.3
100
AcDbArc
 50
90.00000000000001
 51
180.0
  0
ARC
  5
33B
330
1F
100
AcDbEntity
  8
鏡台
  6
EXLTYPE2
 62
     3
100
AcDbCircle
 10
2410.750000000199
 20
2383.549999999999
 30
0.0
 40
1.250000000000569
100
AcDbArc
 50
180.0
 51
0.0
  0
ARC
  5
33C
330
1F
100
AcDbEntity
  8
鏡台
  6
EXLTYPE2
 62
     3
100
AcDbCircle
 10
2409.200000000198
 20
2389.999999999999
 30
0.0
 40
0.3
100
AcDbArc
 50
0.0
 51
90.00000000000001
  0
ARC
  5
33D
330
1F
100
AcDbEntity
  8
鏡台
  6
EXLTYPE2
 62
     3
100
AcDbCircle
 10
2412.300000000198
 20
2389.999999999999
 30
0.0
 40
0.3
100
AcDbArc
 50
90.00000000000001
 51
180.0
  0
ARC
  5
33E
330
1F
100
AcDbEntity
  8
鏡台
  6
EXLTYPE2
 62
     3
100
AcDbCircle
 10
2427.5000000002
 20
2389.799999999993
 30
0.0
 40
0.499999999994202
100
AcDbArc
 50
180.0
 51
0.0
  0
ARC
  5
33F
330
1F
100
AcDbEntity
  8
鏡台
  6
EXLTYPE2
 62
     3
100
AcDbCircle
 10
2426.700000000198
 20
2389.999999999999
 30
0.0
 40
0.3
100
AcDbArc
 50
0.0
 51
90.00000000000001
  0
ARC
  5
340
330
1F
100
AcDbEntity
  8
鏡台
  6
EXLTYPE2
 62
     3
100
AcDbCircle
 10
2428.300000000199
 20
2389.999999999999
 30
0.0
 40
0.3
100
AcDbArc
 50
90.00000000000001
 51
180.0
  0
ARC
  5
341
330
1F
100
AcDbEntity
  8
鏡台
  6
EXLTYPE2
 62
     3
100
AcDbCircle
 10
2441.2000000002
 20
2389.999999999999
 30
0.0
 40
0.3
100
AcDbArc
 50
0.0
 51
90.00000000000001
  0
ARC
  5
342
330
1F
100
AcDbEntity
  8
鏡台
  6
EXLTYPE2
 62
     3
100
AcDbCircle
 10
2442.000000000199
 20
2389.8
 30
0.0
 40
0.500000000001478
100
AcDbArc
 50
180.0
 51
0.0
  0
ARC
  5
343
330
1F
100
AcDbEntity
  8
鏡台
  6
EXLTYPE2
 62
     3
100
AcDbCircle
 10
2442.800000000198
 20
2389.999999999999
 30
0.0
 40
0.3
100
AcDbArc
 50
90.00000000000001
 51
180.0
  0
ARC
  5
344
330
1F
100
AcDbEntity
  8
鏡台
  6
EXLTYPE2
 62
     3
100
AcDbCircle
 10
2457.2000000002
 20
2389.999999999999
 30
0.0
 40
0.3
100
AcDbArc
 50
0.0
 51
90.00000000000001
  0
ARC
  5
345
330
1F
100
AcDbEntity
  8
鏡台
  6
EXLTYPE2
 62
     3
100
AcDbCircle
 10
2460.300000000198
 20
2389.999999999999
 30
0.0
 40
0.3
100
AcDbArc
 50
90.00000000000001
 51
180.0
  0
ARC
  5
346
330
1F
100
AcDbEntity
  8
鏡台
  6
EXLTYPE2
 62
     3
100
AcDbCircle
 10
2460.500000000199
 20
2380.799999999999
 30
0.0
 40
0.5
100
AcDbArc
 50
180.0
 51
270.0000000000002
  0
ARC
  5
347
330
1F
100
AcDbEntity
  8
鏡台
  6
EXLTYPE2
 62
     3
100
AcDbCircle
 10
2466.750000000199
 20
2379.049999999999
 30
0.0
 40
1.249999999999631
100
AcDbArc
 50
270.0000000000002
 51
90.00000000000001
  0
ARC
  5
348
330
1F
100
AcDbEntity
  8
鏡台
  6
EXLTYPE2
 62
     3
100
AcDbCircle
 10
2458.000000000199
 20
2378.299999999999
 30
0.0
 40
0.5
100
AcDbArc
 50
180.0
 51
270.0000000000002
  0
ARC
  5
349
330
1F
100
AcDbEntity
  8
鏡台
  6
EXLTYPE2
 62
     3
100
AcDbCircle
 10
2472.5000000002
 20
2390.799999999999
 30
0.0
 40
0.5
100
AcDbArc
 50
270.0000000000002
 51
0.0
  0
ARC
  5
34A
330
1F
100
AcDbEntity
  8
鏡台
  6
EXLTYPE2
 62
     3
100
AcDbCircle
 10
2472.5000000002
 20
2393.299999999999
 30
0.0
 40
0.5
100
AcDbArc
 50
0.0
 51
90.00000000000001
  0
ARC
  5
34B
330
1F
100
AcDbEntity
  8
鏡台
  6
EXLTYPE2
 62
     3
100
AcDbCircle
 10
2469.500000000199
 20
2393.299999999999
 30
0.0
 40
0.5
100
AcDbArc
 50
270.0000000000002
 51
0.0
  0
ARC
  5
34C
330
1F
100
AcDbEntity
  8
鏡台
  6
EXLTYPE2
 62
     3
100
AcDbCircle
 10
2470.500000000199
 20
2393.299999999999
 30
0.0
 40
0.5
100
AcDbArc
 50
90.00000000000001
 51
180.0
  0
LINE
  5
34D
330
1F
100
AcDbEntity
  8
鏡台
  6
EXLTYPE2
 62
     3
100
AcDbLine
 10
2395.500000000199
 20
2415.299999999999
 30
0.0
 11
2397.000000000199
 21
2415.3
 31
0.0
  0
LINE
  5
34E
330
1F
100
AcDbEntity
  8
鏡台
  6
EXLTYPE2
 62
     3
100
AcDbLine
 10
2395.0000000002
 20
2414.799999999999
 30
0.0
 11
2395.0000000002
 21
2411.341607978309
 31
0.0
  0
LINE
  5
34F
330
1F
100
AcDbEntity
  8
鏡台
  6
EXLTYPE2
 62
     3
100
AcDbLine
 10
2395.500000000199
 20
2410.749999999999
 30
0.0
 11
2395.500000000199
 21
2408.349999999999
 31
0.0
  0
LINE
  5
350
330
1F
100
AcDbEntity
  8
鏡台
  6
EXLTYPE2
 62
     3
100
AcDbLine
 10
2395.0000000002
 20
2407.758392021688
 30
0.0
 11
2395.0000000002
 21
2405.341607978309
 31
0.0
  0
LINE
  5
351
330
1F
100
AcDbEntity
  8
鏡台
  6
EXLTYPE2
 62
     3
100
AcDbLine
 10
2395.500000000199
 20
2404.749999999999
 30
0.0
 11
2395.500000000199
 21
2402.349999999999
 31
0.0
  0
LINE
  5
352
330
1F
100
AcDbEntity
  8
鏡台
  6
EXLTYPE2
 62
     3
100
AcDbLine
 10
2395.0000000002
 20
2401.758392021688
 30
0.0
 11
2395.0000000002
 21
2399.341607978309
 31
0.0
  0
LINE
  5
353
330
1F
100
AcDbEntity
  8
鏡台
  6
EXLTYPE2
 62
     3
100
AcDbLine
 10
2395.500000000199
 20
2398.749999999999
 30
0.0
 11
2395.500000000199
 21
2396.349999999999
 31
0.0
  0
LINE
  5
354
330
1F
100
AcDbEntity
  8
鏡台
  6
EXLTYPE2
 62
     3
100
AcDbLine
 10
2395.000000000197
 20
2395.758392021688
 30
0.0
 11
2395.0000000002
 21
2393.341607978309
 31
0.0
  0
LINE
  5
355
330
1F
100
AcDbEntity
  8
鏡台
  6
EXLTYPE2
 62
     3
100
AcDbLine
 10
2395.500000000199
 20
2392.749999999999
 30
0.0
 11
2395.500000000199
 21
2390.349999999999
 31
0.0
  0
LINE
  5
356
330
1F
100
AcDbEntity
  8
鏡台
  6
EXLTYPE2
 62
     3
100
AcDbLine
 10
2395.0000000002
 20
2389.758392021688
 30
0.0
 11
2395.000000000197
 21
2387.341607978309
 31
0.0
  0
LINE
  5
357
330
1F
100
AcDbEntity
  8
鏡台
  6
EXLTYPE2
 62
     3
100
AcDbLine
 10
2395.500000000199
 20
2386.749999999999
 30
0.0
 11
2395.500000000199
 21
2384.349999999999
 31
0.0
  0
LINE
  5
358
330
1F
100
AcDbEntity
  8
鏡台
  6
EXLTYPE2
 62
     3
100
AcDbLine
 10
2395.000000000197
 20
2383.758392021688
 30
0.0
 11
2395.000000000197
 21
2381.341607978309
 31
0.0
  0
LINE
  5
359
330
1F
100
AcDbEntity
  8
鏡台
  6
EXLTYPE2
 62
     3
100
AcDbLine
 10
2395.500000000197
 20
2380.749999999999
 30
0.0
 11
2395.500000000199
 21
2378.349999999999
 31
0.0
  0
LINE
  5
35A
330
1F
100
AcDbEntity
  8
鏡台
  6
EXLTYPE2
 62
     3
100
AcDbLine
 10
2395.000000000197
 20
2377.758392021688
 30
0.0
 11
2395.000000000196
 21
2375.799999999999
 31
0.0
  0
LINE
  5
35B
330
1F
100
AcDbEntity
  8
鏡台
  6
EXLTYPE2
 62
     3
100
AcDbLine
 10
2395.500000000199
 20
2375.299999999999
 30
0.0
 11
2397.000000000199
 21
2375.3
 31
0.0
  0
LINE
  5
35C
330
1F
100
AcDbEntity
  8
鏡台
  6
EXLTYPE2
 62
     3
100
AcDbLine
 10
2397.5000000002
 20
2389.999999999999
 30
0.0
 11
2397.5000000002
 21
2375.799999999999
 31
0.0
  0
LINE
  5
35D
330
1F
100
AcDbEntity
  8
鏡台
  6
EXLTYPE2
 62
     3
100
AcDbLine
 10
2397.5000000002
 20
2414.799999999999
 30
0.0
 11
2397.5000000002
 21
2393.099999999999
 31
0.0
  0
LINE
  5
35E
330
1F
100
AcDbEntity
  8
鏡台
  6
EXLTYPE2
 62
     3
100
AcDbLine
 10
2397.800000000198
 20
2390.299999999999
 30
0.0
 11
2409.200000000198
 21
2390.299999999999
 31
0.0
  0
LINE
  5
35F
330
1F
100
AcDbEntity
  8
鏡台
  6
EXLTYPE2
 62
     3
100
AcDbLine
 10
2409.500000000199
 20
2389.999999999999
 30
0.0
 11
2409.500000000199
 21
2383.55
 31
0.0
  0
LINE
  5
360
330
1F
100
AcDbEntity
  8
鏡台
  6
EXLTYPE2
 62
     3
100
AcDbLine
 10
2412.000000000199
 20
2389.999999999999
 30
0.0
 11
2412.000000000199
 21
2383.55
 31
0.0
  0
LINE
  5
361
330
1F
100
AcDbEntity
  8
鏡台
  6
EXLTYPE2
 62
     3
100
AcDbLine
 10
2412.300000000198
 20
2390.299999999999
 30
0.0
 11
2426.700000000198
 21
2390.299999999999
 31
0.0
  0
LINE
  5
362
330
1F
100
AcDbEntity
  8
鏡台
  6
EXLTYPE2
 62
     3
100
AcDbLine
 10
2427.000000000192
 20
2390.0
 30
0.0
 11
2427.000000000199
 21
2389.799999999993
 31
0.0
  0
LINE
  5
363
330
1F
100
AcDbEntity
  8
鏡台
  6
EXLTYPE2
 62
     3
100
AcDbLine
 10
2428.000000000193
 20
2389.999999999999
 30
0.0
 11
2428.000000000188
 21
2389.799999999997
 31
0.0
  0
LINE
  5
364
330
1F
100
AcDbEntity
  8
鏡台
  6
EXLTYPE2
 62
     3
100
AcDbLine
 10
2428.300000000199
 20
2390.299999999999
 30
0.0
 11
2441.2000000002
 21
2390.299999999999
 31
0.0
  0
LINE
  5
365
330
1F
100
AcDbEntity
  8
鏡台
  6
EXLTYPE2
 62
     3
100
AcDbLine
 10
2441.500000000199
 20
2389.999999999999
 30
0.0
 11
2441.500000000206
 21
2389.800000000002
 31
0.0
  0
LINE
  5
366
330
1F
100
AcDbEntity
  8
鏡台
  6
EXLTYPE2
 62
     3
100
AcDbLine
 10
2442.5000000002
 20
2389.999999999998
 30
0.0
 11
2442.5000000002
 21
2389.8
 31
0.0
  0
LINE
  5
367
330
1F
100
AcDbEntity
  8
鏡台
  6
EXLTYPE2
 62
     3
100
AcDbLine
 10
2442.800000000198
 20
2390.299999999999
 30
0.0
 11
2457.2000000002
 21
2390.299999999999
 31
0.0
  0
LINE
  5
368
330
1F
100
AcDbEntity
  8
鏡台
  6
EXLTYPE2
 62
     3
100
AcDbLine
 10
2457.5000000002
 20
2389.999999999999
 30
0.0
 11
2457.5000000002
 21
2378.299999999999
 31
0.0
  0
LINE
  5
369
330
1F
100
AcDbEntity
  8
鏡台
  6
EXLTYPE2
 62
     3
100
AcDbLine
 10
2460.0000000002
 20
2389.999999999999
 30
0.0
 11
2460.0000000002
 21
2380.799999999999
 31
0.0
  0
LINE
  5
36A
330
1F
100
AcDbEntity
  8
鏡台
  6
EXLTYPE2
 62
     3
100
AcDbLine
 10
2460.500000000199
 20
2380.299999999998
 30
0.0
 11
2466.750000000199
 21
2380.299999999999
 31
0.0
  0
LINE
  5
36B
330
1F
100
AcDbEntity
  8
鏡台
  6
EXLTYPE2
 62
     3
100
AcDbLine
 10
2458.000000000199
 20
2377.799999999999
 30
0.0
 11
2466.750000000199
 21
2377.799999999998
 31
0.0
  0
LINE
  5
36C
330
1F
100
AcDbEntity
  8
鏡台
  6
EXLTYPE2
 62
     3
100
AcDbLine
 10
2473.000000000199
 20
2393.299999999999
 30
0.0
 11
2473.000000000199
 21
2390.799999999999
 31
0.0
  0
LINE
  5
36D
330
1F
100
AcDbEntity
  8
鏡台
  6
EXLTYPE2
 62
     3
100
AcDbLine
 10
2470.500000000199
 20
2393.799999999998
 30
0.0
 11
2472.5000000002
 21
2393.799999999997
 31
0.0
  0
LINE
  5
36E
330
1F
100
AcDbEntity
  8
鏡台
  6
EXLTYPE2
 62
     3
100
AcDbLine
 10
2397.800000000198
 20
2392.799999999999
 30
0.0
 11
2469.500000000199
 21
2392.799999999999
 31
0.0
  0
LINE
  5
36F
330
1F
100
AcDbEntity
  8
鏡台
  6
EXLTYPE2
 62
     3
100
AcDbLine
 10
2460.300000000198
 20
2390.299999999998
 30
0.0
 11
2472.5000000002
 21
2390.299999999998
 31
0.0
  0
CIRCLE
  5
370
330
1F
100
AcDbEntity
  8
鏡台
  6
EXLTYPE2
 62
     3
100
AcDbCircle
 10
2464.0000000002
 20
2386.3
 30
0.0
 40
4.0
  0
CIRCLE
  5
371
330
1F
100
AcDbEntity
  8
鏡台
  6
EXLTYPE2
 62
     3
100
AcDbCircle
 10
2404.0000000002
 20
2386.3
 30
0.0
 40
4.0
  0
LINE
  5
372
330
1F
100
AcDbEntity
  8
鏡台
  6
CONTINUOUS
 62
     4
100
AcDbLine
 10
2369.800000000205
 20
2103.1
 30
0.0
 11
2389.800000000201
 21
2103.1
 31
0.0
  0
LINE
  5
373
330
1F
100
AcDbEntity
  8
鏡台
  6
CONTINUOUS
 62
     4
100
AcDbLine
 10
2371.000000000202
 20
2104.300000000001
 30
0.0
 11
2389.800000000201
 21
2104.300000000001
 31
0.0
  0
LINE
  5
374
330
1F
100
AcDbEntity
  8
鏡台
  6
CONTINUOUS
 62
     4
100
AcDbLine
 10
2371.000000000202
 20
2113.1
 30
0.0
 11
2371.000000000202
 21
2104.300000000001
 31
0.0
  0
LINE
  5
375
330
1F
100
AcDbEntity
  8
鏡台
  6
CONTINUOUS
 62
     4
100
AcDbLine
 10
2369.800000000201
 20
2113.1
 30
0.0
 11
2371.000000000202
 21
2113.1
 31
0.0
  0
LINE
  5
376
330
1F
100
AcDbEntity
  8
鏡台
  6
CONTINUOUS
 62
     4
100
AcDbLine
 10
2389.800000000201
 20
2103.1
 30
0.0
 11
2389.800000000201
 21
2104.300000000001
 31
0.0
  0
LINE
  5
377
330
1F
100
AcDbEntity
  8
鏡台
  6
CONTINUOUS
 62
     4
100
AcDbLine
 10
2369.800000000205
 20
2103.1
 30
0.0
 11
2369.800000000205
 21
2113.1
 31
0.0
  0
LINE
  5
378
330
1F
100
AcDbEntity
  8
鏡台
  6
CONTINUOUS
 62
     4
100
AcDbLine
 10
2369.800000000205
 20
2669.5
 30
0.0
 11
2389.800000000201
 21
2669.5
 31
0.0
  0
LINE
  5
379
330
1F
100
AcDbEntity
  8
鏡台
  6
CONTINUOUS
 62
     4
100
AcDbLine
 10
2371.000000000202
 20
2668.299999999999
 30
0.0
 11
2389.800000000201
 21
2668.299999999999
 31
0.0
  0
LINE
  5
37A
330
1F
100
AcDbEntity
  8
鏡台
  6
CONTINUOUS
 62
     4
100
AcDbLine
 10
2371.000000000202
 20
2659.5
 30
0.0
 11
2371.000000000202
 21
2668.299999999999
 31
0.0
  0
LINE
  5
37B
330
1F
100
AcDbEntity
  8
鏡台
  6
CONTINUOUS
 62
     4
100
AcDbLine
 10
2369.800000000201
 20
2659.5
 30
0.0
 11
2371.000000000202
 21
2659.5
 31
0.0
  0
LINE
  5
37C
330
1F
100
AcDbEntity
  8
鏡台
  6
CONTINUOUS
 62
     4
100
AcDbLine
 10
2389.800000000201
 20
2669.5
 30
0.0
 11
2389.800000000201
 21
2668.299999999999
 31
0.0
  0
LINE
  5
37D
330
1F
100
AcDbEntity
  8
鏡台
  6
CONTINUOUS
 62
     4
100
AcDbLine
 10
2369.800000000205
 20
2669.5
 30
0.0
 11
2369.800000000205
 21
2659.5
 31
0.0
  0
LINE
  5
37E
330
1F
100
AcDbEntity
  8
鏡台
  6
CONTINUOUS
 62
     2
100
AcDbLine
 10
2371.0000000002
 20
2667.8
 30
0.0
 11
2371.0000000002
 21
2104.8
 31
0.0
  0
LINE
  5
37F
330
1F
100
AcDbEntity
  8
鏡台
  6
CONTINUOUS
 62
     2
100
AcDbLine
 10
2374.0000000002
 20
2104.3
 30
0.0
 11
2389.0000000002
 21
2104.3
 31
0.0
  0
LINE
  5
380
330
1F
100
AcDbEntity
  8
鏡台
  6
CONTINUOUS
 62
     2
100
AcDbLine
 10
2374.0000000002
 20
2668.3
 30
0.0
 11
2389.0000000002
 21
2668.3
 31
0.0
  0
LINE
  5
381
330
1F
100
AcDbEntity
  8
鏡台
  6
CONTINUOUS
 62
     2
100
AcDbLine
 10
2389.0000000002
 20
2668.3
 30
0.0
 11
2389.0000000002
 21
2104.3
 31
0.0
  0
LINE
  5
382
330
1F
100
AcDbEntity
  8
鏡台
  6
CONTINUOUS
 62
     2
100
AcDbLine
 10
2374.0000000002
 20
2668.3
 30
0.0
 11
2374.0000000002
 21
2104.3
 31
0.0
  0
LINE
  5
383
330
1F
100
AcDbEntity
  8
鏡台
  6
CONTINUOUS
 62
     6
100
AcDbLine
 10
2491.000000000198
 20
2167.8
 30
0.0
 11
2517.661651584898
 21
2167.8
 31
0.0
  0
LINE
  5
384
330
1F
100
AcDbEntity
  8
鏡台
  6
CONTINUOUS
 62
     6
100
AcDbLine
 10
2491.000000000198
 20
2164.8
 30
0.0
 11
2517.661651584929
 21
2164.8
 31
0.0
  0
ARC
  5
385
330
1F
100
AcDbEntity
  8
鏡台
  6
CONTINUOUS
 62
     6
100
AcDbCircle
 10
2517.661651584929
 20
2179.8
 30
0.0
 40
15.00000000000001
100
AcDbArc
 50
270.0000000000002
 51
295.8419327630793
  0
ARC
  5
386
330
1F
100
AcDbEntity
  8
鏡台
  6
CONTINUOUS
 62
     6
100
AcDbCircle
 10
2517.661651584898
 20
2152.8
 30
0.0
 40
15.00000000000001
100
AcDbArc
 50
64.15806723683205
 51
90.00000000000001
  0
LINE
  5
387
330
1F
100
AcDbEntity
  8
鏡台
  6
CONTINUOUS
 62
     6
100
AcDbLine
 10
2491.000000000198
 20
2607.8
 30
0.0
 11
2517.661651584898
 21
2607.8
 31
0.0
  0
LINE
  5
388
330
1F
100
AcDbEntity
  8
鏡台
  6
CONTINUOUS
 62
     6
100
AcDbLine
 10
2491.000000000198
 20
2604.8
 30
0.0
 11
2517.661651584929
 21
2604.8
 31
0.0
  0
ARC
  5
389
330
1F
100
AcDbEntity
  8
鏡台
  6
CONTINUOUS
 62
     6
100
AcDbCircle
 10
2517.661651584929
 20
2619.8
 30
0.0
 40
15.00000000000001
100
AcDbArc
 50
270.0000000000002
 51
295.8419327630793
  0
ARC
  5
38A
330
1F
100
AcDbEntity
  8
鏡台
  6
CONTINUOUS
 62
     6
100
AcDbCircle
 10
2517.661651584898
 20
2592.8
 30
0.0
 40
15.00000000000001
100
AcDbArc
 50
64.15806723683205
 51
90.00000000000001
  0
LINE
  5
38B
330
1F
100
AcDbEntity
  8
鏡台
  6
CONTINUOUS
 62
     2
100
AcDbLine
 10
2491.0000000002
 20
2656.3
 30
0.0
 11
2491.0000000002
 21
2116.3
 31
0.0
  0
LINE
  5
38C
330
1F
100
AcDbEntity
  8
鏡台
  6
CONTINUOUS
 62
     2
100
AcDbLine
 10
2391.0000000002
 20
2656.3
 30
0.0
 11
2391.0000000002
 21
2116.3
 31
0.0
  0
LINE
  5
38D
330
1F
100
AcDbEntity
  8
鏡台
  6
CONTINUOUS
 62
     2
100
AcDbLine
 10
2391.0000000002
 20
2116.3
 30
0.0
 11
2491.0000000002
 21
2116.3
 31
0.0
  0
LINE
  5
38E
330
1F
100
AcDbEntity
  8
鏡台
  6
CONTINUOUS
 62
     2
100
AcDbLine
 10
2391.0000000002
 20
2656.3
 30
0.0
 11
2491.0000000002
 21
2656.3
 31
0.0
  0
LINE
  5
38F
330
1F
100
AcDbEntity
  8
鏡台
  6
EXLTYPE3
 62
     6
100
AcDbLine
 10
2531.800000000039
 20
2606.3
 30
0.0
 11
2484.0
 21
2606.3
 31
0.0
  0
LINE
  5
390
330
1F
100
AcDbEntity
  8
鏡台
  6
EXLTYPE3
 62
     6
100
AcDbLine
 10
2531.800000000039
 20
2166.3
 30
0.0
 11
2485.5
 21
2166.3
 31
0.0
  0
DIMENSION
  5
392
330
1F
100
AcDbEntity
  8
寸法
  6
CONTINUOUS
 62
     3
100
AcDbDimension
  2
*D15
 10
1236.000000000117
 20
3205.000000000051
 30
0.0
 11
961.0000000001178
 21
3240.249999910644
 31
0.0
 70
   160
  3
ISO-25
100
AcDbAlignedDimension
 13
686.0000000001185
 23
3335.0
 33
0.0
 14
1236.000000000117
 24
3335.0
 34
0.0
100
AcDbRotatedDimension
1001
ACAD
1000
DSTYLE
1002
{
1070
   270
1070
     2
1070
     6
1000
EX_NORM
1070
     7
1000
EX_NORM
1070
    41
1040
44.99999618530273
1070
    42
1040
10.49999982118607
1070
    44
1040
15.0
1070
    73
1070
     0
1070
    74
1070
     0
1070
    75
1070
     0
1070
    76
1070
     0
1070
    77
1070
     1
1070
    78
1070
     0
1070
   140
1040
59.99999618530273
1070
   147
1040
0.0
1070
   173
1070
     1
1070
   176
1070
     3
1070
   177
1070
     3
1070
   178
1070
     2
1070
   271
1070
     0
1070
   277
1070
     2
1070
   279
1070
     2
1070
   280
1070
     0
1070
   287
1070
     5
1070
   340
1005
391
1002
}
  0
DIMENSION
  5
3A0
330
1F
100
AcDbEntity
  8
寸法
  6
CONTINUOUS
 62
     3
100
AcDbDimension
  2
*D16
 10
1261.000000000117
 20
3115.000000000051
 30
0.0
 11
961.0000000001178
 21
3150.249999910644
 31
0.0
 70
   160
  3
ISO-25
100
AcDbAlignedDimension
 13
661.0000000001185
 23
3375.0
 33
0.0
 14
1261.000000000117
 24
3375.0
 34
0.0
100
AcDbRotatedDimension
1001
ACAD
1000
DSTYLE
1002
{
1070
   270
1070
     2
1070
     6
1000
EX_NORM
1070
     7
1000
EX_NORM
1070
    41
1040
44.99999618530273
1070
    42
1040
10.49999982118607
1070
    44
1040
15.0
1070
    73
1070
     0
1070
    74
1070
     0
1070
    75
1070
     0
1070
    76
1070
     0
1070
    77
1070
     1
1070
    78
1070
     0
1070
   140
1040
59.99999618530273
1070
   147
1040
0.0
1070
   173
1070
     1
1070
   176
1070
     3
1070
   177
1070
     3
1070
   178
1070
     2
1070
   271
1070
     0
1070
   277
1070
     2
1070
   279
1070
     2
1070
   280
1070
     0
1070
   287
1070
     5
1070
   340
1005
391
1002
}
  0
DIMENSION
  5
3AD
330
1F
100
AcDbEntity
  8
寸法
  6
CONTINUOUS
 62
     3
100
AcDbDimension
  2
*D17
 10
1381.000000000118
 20
3375.0
 30
0.0
 11
1345.750000089527
 21
3600.0
 31
0.0
 70
   160
  3
ISO-25
100
AcDbAlignedDimension
 13
1261.000000000117
 23
3825.0
 33
0.0
 14
1261.000000000117
 24
3375.0
 34
0.0
 50
90.0
100
AcDbRotatedDimension
1001
ACAD
1000
DSTYLE
1002
{
1070
   270
1070
     2
1070
     6
1000
EX_NORM
1070
     7
1000
EX_NORM
1070
    41
1040
44.99999618530273
1070
    42
1040
10.49999982118607
1070
    44
1040
15.0
1070
    73
1070
     0
1070
    74
1070
     0
1070
    75
1070
     1
1070
    76
1070
     0
1070
    77
1070
     1
1070
    78
1070
     0
1070
   140
1040
59.99999618530273
1070
   147
1040
0.0
1070
   173
1070
     1
1070
   176
1070
     3
1070
   177
1070
     3
1070
   178
1070
     2
1070
   271
1070
     0
1070
   277
1070
     2
1070
   279
1070
     2
1070
   280
1070
     0
1070
   287
1070
     5
1070
   340
1005
391
1002
}
  0
DIMENSION
  5
3B9
330
1F
100
AcDbEntity
  8
寸法
  6
CONTINUOUS
 62
     3
100
AcDbDimension
  2
*D18
 10
1471.000000000118
 20
3325.0
 30
0.0
 11
1435.750000089527
 21
3575.0
 31
0.0
 70
   160
  3
ISO-25
100
AcDbAlignedDimension
 13
1261.000000000117
 23
3825.0
 33
0.0
 14
1226.000000000117
 24
3325.0
 34
0.0
 50
90.0
100
AcDbRotatedDimension
1001
ACAD
1000
DSTYLE
1002
{
1070
   270
1070
     2
1070
     6
1000
EX_NORM
1070
     7
1000
EX_NORM
1070
    41
1040
44.99999618530273
1070
    42
1040
10.49999982118607
1070
    44
1040
15.0
1070
    73
1070
     0
1070
    74
1070
     0
1070
    75
1070
     1
1070
    76
1070
     0
1070
    77
1070
     1
1070
    78
1070
     0
1070
   140
1040
59.99999618530273
1070
   147
1040
0.0
1070
   173
1070
     1
1070
   176
1070
     3
1070
   177
1070
     3
1070
   178
1070
     2
1070
   271
1070
     0
1070
   277
1070
     2
1070
   279
1070
     2
1070
   280
1070
     0
1070
   287
1070
     5
1070
   340
1005
391
1002
}
  0
DIMENSION
  5
3C5
330
1F
100
AcDbEntity
  8
寸法
  6
CONTINUOUS
 62
     3
100
AcDbDimension
  2
*D19
 10
1061.000000000118
 20
3914.999999999999
 30
0.0
 11
628.5000000001152
 21
3950.249999910592
 31
0.0
 70
   160
  1
200（壁給水）
  3
ISO-25
100
AcDbAlignedDimension
 13
861.0000000001148
 23
3833.0
 33
0.0
 14
1061.000000000118
 24
3838.5
 34
0.0
100
AcDbRotatedDimension
1001
ACAD
1000
DSTYLE
1002
{
1070
   270
1070
     2
1070
     6
1000
EX_NORM
1070
     7
1000
EX_NORM
1070
    41
1040
44.99999618530273
1070
    42
1040
10.49999982118561
1070
    44
1040
15.0
1070
    73
1070
     0
1070
    74
1070
     0
1070
    75
1070
     0
1070
    76
1070
     0
1070
    77
1070
     1
1070
    78
1070
     0
1070
   140
1040
59.99999618530273
1070
   147
1040
0.0
1070
   173
1070
     1
1070
   176
1070
     3
1070
   177
1070
     3
1070
   178
1070
     2
1070
   271
1070
     0
1070
   277
1070
     2
1070
   279
1070
     2
1070
   280
1070
     1
1070
   287
1070
     5
1070
   340
1005
391
1002
}
  0
DIMENSION
  5
3D2
330
1F
100
AcDbEntity
  8
寸法
  6
CONTINUOUS
 62
     3
100
AcDbDimension
  2
*D20
 10
1161.000000000118
 20
4004.999999999999
 30
0.0
 11
728.5000000001186
 21
4040.249999910592
 31
0.0
 70
   160
  1
200（壁排水）
  3
ISO-25
100
AcDbAlignedDimension
 13
961.0000000001185
 23
3825.0
 33
0.0
 14
1161.000000000118
 24
3875.0
 34
0.0
100
AcDbRotatedDimension
1001
ACAD
1000
DSTYLE
1002
{
1070
   270
1070
     2
1070
     6
1000
EX_NORM
1070
     7
1000
EX_NORM
1070
    41
1040
44.99999618530273
1070
    42
1040
10.49999982118607
1070
    44
1040
15.0
1070
    73
1070
     0
1070
    74
1070
     0
1070
    75
1070
     0
1070
    76
1070
     0
1070
    77
1070
     1
1070
    78
1070
     0
1070
   140
1040
59.99999618530273
1070
   147
1040
0.0
1070
   173
1070
     1
1070
   176
1070
     3
1070
   177
1070
     3
1070
   178
1070
     2
1070
   271
1070
     0
1070
   277
1070
     2
1070
   279
1070
     2
1070
   280
1070
     1
1070
   287
1070
     5
1070
   340
1005
391
1002
}
  0
DIMENSION
  5
3DF
330
1F
100
AcDbEntity
  8
寸法
  6
CONTINUOUS
 62
     3
100
AcDbDimension
  2
*D21
 10
2701.00000000012
 20
1349.5
 30
0.0
 11
2665.750000089527
 21
1134.499999999998
 31
0.0
 70
   160
  1
430（壁排水）
  3
ISO-25
100
AcDbAlignedDimension
 13
2491.00000000012
 23
919.5
 33
0.0
 14
2541.00000000012
 24
1349.5
 34
0.0
 50
90.0
100
AcDbRotatedDimension
1001
ACAD
1000
DSTYLE
1002
{
1070
   270
1070
     2
1070
     6
1000
EX_NORM
1070
     7
1000
EX_NORM
1070
    41
1040
44.99999618530273
1070
    42
1040
10.49999982118607
1070
    44
1040
15.0
1070
    73
1070
     0
1070
    74
1070
     0
1070
    75
1070
     1
1070
    76
1070
     0
1070
    77
1070
     1
1070
    78
1070
     0
1070
   140
1040
59.99999618530273
1070
   147
1040
0.0
1070
   173
1070
     1
1070
   176
1070
     3
1070
   177
1070
     3
1070
   178
1070
     2
1070
   271
1070
     0
1070
   277
1070
     2
1070
   279
1070
     2
1070
   280
1070
     0
1070
   287
1070
     5
1070
   340
1005
391
1002
}
  0
DIMENSION
  5
3EB
330
1F
100
AcDbEntity
  8
寸法
  6
CONTINUOUS
 62
     3
100
AcDbDimension
  2
*D22
 10
2611.00000000012
 20
1349.5
 30
0.0
 11
2575.750000089527
 21
1134.499999999998
 31
0.0
 70
   160
  1
430（壁給水）
  3
ISO-25
100
AcDbAlignedDimension
 13
2491.00000000012
 23
919.5
 33
0.0
 14
2541.00000000012
 24
1349.5
 34
0.0
 50
90.0
100
AcDbRotatedDimension
1001
ACAD
1000
DSTYLE
1002
{
1070
   270
1070
     2
1070
     6
1000
EX_NORM
1070
     7
1000
EX_NORM
1070
    41
1040
44.99999618530273
1070
    42
1040
0.0
1070
    44
1040
0.0
1070
    73
1070
     0
1070
    74
1070
     0
1070
    75
1070
     1
1070
    76
1070
     1
1070
    77
1070
     1
1070
    78
1070
     0
1070
   140
1040
59.99999618530273
1070
   147
1040
0.0
1070
   173
1070
     1
1070
   176
1070
     3
1070
   177
1070
     3
1070
   178
1070
     2
1070
   271
1070
     0
1070
   277
1070
     2
1070
   279
1070
     2
1070
   280
1070
     0
1070
   287
1070
     5
1070
   340
1005
391
1002
}
  0
DIMENSION
  5
3F6
330
1F
100
AcDbEntity
  8
寸法
  6
CONTINUOUS
 62
     3
100
AcDbDimension
  2
*D23
 10
2791.00000000012
 20
1499.5
 30
0.0
 11
2755.750000089527
 21
1209.499999999998
 31
0.0
 70
   160
  1
580（壁固定）
  3
ISO-25
100
AcDbAlignedDimension
 13
2491.00000000012
 23
919.5
 33
0.0
 14
2523.50000572202
 24
1499.5
 34
0.0
 50
90.0
100
AcDbRotatedDimension
1001
ACAD
1000
DSTYLE
1002
{
1070
   270
1070
     2
1070
     6
1000
EX_NORM
1070
     7
1000
EX_NORM
1070
    41
1040
44.99999618530273
1070
    42
1040
10.49999982118607
1070
    44
1040
15.0
1070
    73
1070
     0
1070
    74
1070
     0
1070
    75
1070
     0
1070
    76
1070
     0
1070
    77
1070
     1
1070
    78
1070
     0
1070
   140
1040
59.99999618530273
1070
   147
1040
0.0
1070
   173
1070
     1
1070
   176
1070
     3
1070
   177
1070
     3
1070
   178
1070
     2
1070
   271
1070
     0
1070
   277
1070
     2
1070
   279
1070
     2
1070
   280
1070
     0
1070
   287
1070
     5
1070
   340
1005
391
1002
}
  0
DIMENSION
  5
403
330
1F
100
AcDbEntity
  8
寸法
  6
CONTINUOUS
 62
     3
100
AcDbDimension
  2
*D24
 10
2491.00000000012
 20
709.5
 30
0.0
 11
2723.50000000012
 21
744.749999910593
 31
0.0
 70
   160
  1
100（床排水）
  3
ISO-25
100
AcDbAlignedDimension
 13
2391.000000000118
 23
869.49999999988
 33
0.0
 14
2491.00000000012
 24
919.5
 34
0.0
100
AcDbRotatedDimension
1001
ACAD
1000
DSTYLE
1002
{
1070
   270
1070
     2
1070
     6
1000
EX_NORM
1070
     7
1000
EX_NORM
1070
    41
1040
44.99999618530273
1070
    42
1040
10.49999982118607
1070
    44
1040
15.0
1070
    73
1070
     0
1070
    74
1070
     0
1070
    75
1070
     0
1070
    76
1070
     1
1070
    77
1070
     1
1070
    78
1070
     0
1070
   140
1040
59.99999618530273
1070
   147
1040
0.0
1070
   173
1070
     1
1070
   176
1070
     3
1070
   177
1070
     3
1070
   178
1070
     2
1070
   271
1070
     0
1070
   277
1070
     2
1070
   279
1070
     2
1070
   280
1070
     2
1070
   287
1070
     5
1070
   340
1005
391
1002
}
  0
DIMENSION
  5
40F
330
1F
100
AcDbEntity
  8
寸法
  6
CONTINUOUS
 62
     3
100
AcDbDimension
  2
*D25
 10
1141.000000000118
 20
1223.5
 30
0.0
 11
971.0000000001085
 21
1258.749999910593
 31
0.0
 70
   160
  1
360（壁固定）
  3
ISO-25
100
AcDbAlignedDimension
 13
781.0000000000985
 23
1495.700000000099
 33
0.0
 14
1141.000000000118
 24
1495.700000000099
 34
0.0
100
AcDbRotatedDimension
1001
ACAD
1000
DSTYLE
1002
{
1070
   270
1070
     2
1070
     6
1000
EX_NORM
1070
     7
1000
EX_NORM
1070
    41
1040
44.99999618530273
1070
    42
1040
10.49999982118607
1070
    44
1040
15.0
1070
    73
1070
     0
1070
    74
1070
     0
1070
    75
1070
     1
1070
    76
1070
     0
1070
    77
1070
     1
1070
    78
1070
     0
1070
   140
1040
59.99999618530273
1070
   147
1040
0.0
1070
   173
1070
     1
1070
   176
1070
     3
1070
   177
1070
     3
1070
   178
1070
     2
1070
   271
1070
     0
1070
   277
1070
     2
1070
   279
1070
     2
1070
   280
1070
     0
1070
   287
1070
     5
1070
   340
1005
391
1002
}
  0
DIMENSION
  5
41B
330
1F
100
AcDbEntity
  8
寸法
  6
CONTINUOUS
 62
     3
100
AcDbDimension
  2
*D26
 10
1041.000000000118
 20
799.4999999999945
 30
0.0
 11
648.5000000001186
 21
834.7499999105876
 31
0.0
 70
   160
  1
160（床給水）
  3
ISO-25
100
AcDbAlignedDimension
 13
881.0000000001185
 23
911.5
 33
0.0
 14
1041.000000000118
 24
911.5
 34
0.0
100
AcDbRotatedDimension
1001
ACAD
1000
DSTYLE
1002
{
1070
   270
1070
     2
1070
     6
1000
EX_NORM
1070
     7
1000
EX_NORM
1070
    41
1040
44.99999618530273
1070
    42
1040
10.49999982118607
1070
    44
1040
15.0
1070
    73
1070
     0
1070
    74
1070
     0
1070
    75
1070
     0
1070
    76
1070
     0
1070
    77
1070
     1
1070
    78
1070
     0
1070
   140
1040
59.99999618530273
1070
   147
1040
0.0
1070
   173
1070
     1
1070
   176
1070
     3
1070
   177
1070
     3
1070
   178
1070
     2
1070
   271
1070
     0
1070
   277
1070
     2
1070
   279
1070
     2
1070
   280
1070
     1
1070
   287
1070
     5
1070
   340
1005
391
1002
}
  0
DIMENSION
  5
428
330
1F
100
AcDbEntity
  8
寸法
  6
CONTINUOUS
 62
     3
100
AcDbDimension
  2
*D27
 10
1161.000000000118
 20
709.4999999999945
 30
0.0
 11
728.5000000001183
 21
744.7499999105876
 31
0.0
 70
   160
  1
200（床排水）
  3
ISO-25
100
AcDbAlignedDimension
 13
961.0000000001185
 23
919.5
 33
0.0
 14
1161.000000000118
 24
869.49999999988
 34
0.0
100
AcDbRotatedDimension
1001
ACAD
1000
DSTYLE
1002
{
1070
   270
1070
     2
1070
     6
1000
EX_NORM
1070
     7
1000
EX_NORM
1070
    41
1040
44.99999618530273
1070
    42
1040
10.49999982118607
1070
    44
1040
15.0
1070
    73
1070
     0
1070
    74
1070
     0
1070
    75
1070
     0
1070
    76
1070
     0
1070
    77
1070
     1
1070
    78
1070
     0
1070
   140
1040
59.99999618530273
1070
   147
1040
0.0
1070
   173
1070
     1
1070
   176
1070
     3
1070
   177
1070
     3
1070
   178
1070
     2
1070
   271
1070
     0
1070
   277
1070
     2
1070
   279
1070
     2
1070
   280
1070
     1
1070
   287
1070
     5
1070
   340
1005
391
1002
}
  0
DIMENSION
  5
435
330
1F
100
AcDbEntity
  8
寸法
  6
CONTINUOUS
 62
     3
100
AcDbDimension
  2
*D28
 10
1381.000000000114
 20
1619.5
 30
0.0
 11
1345.750000089521
 21
1269.5
 31
0.0
 70
   160
  3
ISO-25
100
AcDbAlignedDimension
 13
1259.000000000117
 23
919.5
 33
0.0
 14
1261.000000000117
 24
1619.5
 34
0.0
 50
90.0
100
AcDbRotatedDimension
1001
ACAD
1000
DSTYLE
1002
{
1070
   270
1070
     2
1070
     6
1000
EX_NORM
1070
     7
1000
EX_NORM
1070
    41
1040
44.99999618530273
1070
    42
1040
0.0
1070
    44
1040
0.0
1070
    73
1070
     0
1070
    74
1070
     0
1070
    75
1070
     1
1070
    76
1070
     1
1070
    77
1070
     1
1070
    78
1070
     0
1070
   140
1040
59.99999618530273
1070
   147
1040
0.0
1070
   173
1070
     1
1070
   176
1070
     3
1070
   177
1070
     3
1070
   178
1070
     2
1070
   271
1070
     0
1070
   277
1070
     2
1070
   279
1070
     2
1070
   280
1070
     0
1070
   287
1070
     5
1070
   340
1005
391
1002
}
  0
DIMENSION
  5
440
330
1F
100
AcDbEntity
  8
寸法
  6
CONTINUOUS
 62
     3
100
AcDbDimension
  2
*D29
 10
1471.000000000114
 20
1759.5
 30
0.0
 11
1435.750000089521
 21
1339.5
 31
0.0
 70
   160
  1
（<>）
  3
ISO-25
100
AcDbAlignedDimension
 13
1259.000000000117
 23
919.5
 33
0.0
 14
1231.000000000117
 24
1759.5
 34
0.0
 50
90.0
100
AcDbRotatedDimension
1001
ACAD
1000
DSTYLE
1002
{
1070
   270
1070
     2
1070
     6
1000
EX_NORM
1070
     7
1000
EX_NORM
1070
    41
1040
44.99999618530273
1070
    42
1040
10.49999982118607
1070
    44
1040
15.0
1070
    73
1070
     0
1070
    74
1070
     0
1070
    75
1070
     1
1070
    76
1070
     0
1070
    77
1070
     1
1070
    78
1070
     0
1070
   140
1040
59.99999618530273
1070
   147
1040
0.0
1070
   173
1070
     1
1070
   176
1070
     3
1070
   177
1070
     3
1070
   178
1070
     2
1070
   271
1070
     0
1070
   277
1070
     2
1070
   279
1070
     2
1070
   280
1070
     0
1070
   287
1070
     5
1070
   340
1005
391
1002
}
  0
TEXT
  5
44C
330
1F
100
AcDbEntity
  8
寸法
  6
CONTINUOUS
 62
     2
100
AcDbText
 10
1341.750000000122
 20
819.7499960958958
 30
0.0
 40
59.99999618530273
  1
ＶＰ･ＶＵ４０･５０
 41
0.8542372745578565
  7
EXCADSTD
 72
     5
 11
1773.749965667847
 21
819.7499960958958
 31
0.0
100
AcDbText
  0
TEXT
  5
44D
330
1F
100
AcDbEntity
  8
寸法
  6
CONTINUOUS
 62
     2
100
AcDbText
 10
1341.750000000122
 20
759.749999910593
 30
0.0
 40
59.99999618530273
  1
４０～５０mm立上げ
 41
0.7522387940136347
  7
EXCADSTD
 72
     5
 11
1773.749965667847
 21
759.749999910593
 31
0.0
100
AcDbText
  0
LEADER
  5
44E
330
1F
100
AcDbEntity
  8
寸法
  6
CONTINUOUS
 62
     3
100
AcDbLeader
  3
ISO-25
 76
     3
 10
1194.500000000118
 20
935.5
 30
0.0
 10
1341.750000000117
 20
754.5
 30
0.0
 10
1772.250000000115
 20
754.5
 30
0.0
1001
ACAD
1000
DSTYLE
1002
{
1070
     5
1000
EX_NORM
1070
    41
1040
45.0
1070
   341
1005
4D
1002
}
  0
DIMENSION
  5
44F
330
1F
100
AcDbEntity
  8
寸法
  6
CONTINUOUS
 62
     3
100
AcDbDimension
  2
*D30
 10
2491.00000000012
 20
619.5
 30
0.0
 11
2723.50000000012
 21
654.749999910593
 31
0.0
 70
   160
  1
160（床給水）
  3
ISO-25
100
AcDbAlignedDimension
 13
2331.000000000118
 23
911.5
 33
0.0
 14
2491.00000000012
 24
919.5
 34
0.0
100
AcDbRotatedDimension
1001
ACAD
1000
DSTYLE
1002
{
1070
   270
1070
     2
1070
     6
1000
EX_NORM
1070
     7
1000
EX_NORM
1070
    41
1040
44.99999618530273
1070
    42
1040
10.49999982118607
1070
    44
1040
15.0
1070
    73
1070
     0
1070
    74
1070
     0
1070
    75
1070
     0
1070
    76
1070
     0
1070
    77
1070
     1
1070
    78
1070
     0
1070
   140
1040
59.99999618530273
1070
   147
1040
0.0
1070
   173
1070
     1
1070
   176
1070
     3
1070
   177
1070
     3
1070
   178
1070
     2
1070
   271
1070
     0
1070
   277
1070
     2
1070
   279
1070
     2
1070
   280
1070
     2
1070
   287
1070
     5
1070
   340
1005
391
1002
}
  0
TEXT
  5
45C
330
1F
100
AcDbEntity
  8
寸法
  6
CONTINUOUS
 62
     2
100
AcDbText
 10
2531.25000000012
 20
804.749999910593
 30
0.0
 40
59.99999618530273
  1
φ３２
 41
1.070588224822399
  7
EXCADSTD
 72
     5
 11
2687.249988556028
 21
804.749999910593
 31
0.0
100
AcDbText
  0
LEADER
  5
45D
330
1F
100
AcDbEntity
  8
寸法
  6
CONTINUOUS
 62
     3
100
AcDbLeader
  3
ISO-25
 76
     3
 10
2407.00000000012
 20
889.3500000000004
 30
0.0
 10
2531.25000000012
 20
799.5
 30
0.0
 10
2671.50000000012
 20
799.5
 30
0.0
1001
ACAD
1000
DSTYLE
1002
{
1070
     5
1000
EX_NORM
1070
    41
1040
45.0
1070
   341
1005
4D
1002
}
  0
TEXT
  5
45E
330
1F
100
AcDbEntity
  8
寸法
  6
CONTINUOUS
 62
     2
100
AcDbText
 10
2074.500000536562
 20
804.749999910593
 30
0.0
 40
59.99999618530273
  1
Ｒ１/２
 41
0.8342465643686785
  7
EXCADSTD
 72
     5
 11
2248.499987185121
 21
804.749999910593
 31
0.0
100
AcDbText
  0
LEADER
  5
45F
330
1F
100
AcDbEntity
  8
寸法
  6
CONTINUOUS
 62
     3
100
AcDbLeader
  3
ISO-25
 76
     3
 10
2320.50000000012
 20
911.5
 30
0.0
 10
2248.50000000012
 20
799.5
 30
0.0
 10
2077.350000000119
 20
799.5
 30
0.0
1001
ACAD
1000
DSTYLE
1002
{
1070
     5
1000
EX_NORM
1070
    41
1040
45.0
1070
   341
1005
4D
1002
}
  0
DIMENSION
  5
460
330
1F
100
AcDbEntity
  8
寸法
  6
CONTINUOUS
 62
     3
100
AcDbDimension
  2
*D31
 10
1381.000000000114
 20
1759.5
 30
0.0
 11
1345.750000089521
 21
1689.5
 31
0.0
 70
   160
  3
ISO-25
100
AcDbAlignedDimension
 13
1261.000000000117
 23
1619.5
 33
0.0
 14
1231.000000000117
 24
1759.5
 34
0.0
 50
90.0
100
AcDbRotatedDimension
1001
ACAD
1000
DSTYLE
1002
{
1070
   270
1070
     2
1070
     6
1000
EX_NORM
1070
     7
1000
EX_NORM
1070
    41
1040
44.99999618530273
1070
    42
1040
10.49999982118607
1070
    44
1040
15.0
1070
    73
1070
     0
1070
    74
1070
     0
1070
    75
1070
     0
1070
    76
1070
     1
1070
    77
1070
     1
1070
    78
1070
     0
1070
   140
1040
59.99999618530273
1070
   147
1040
0.0
1070
   173
1070
     1
1070
   176
1070
     3
1070
   177
1070
     3
1070
   178
1070
     2
1070
   271
1070
     0
1070
   277
1070
     2
1070
   279
1070
     2
1070
   280
1070
     0
1070
   287
1070
     5
1070
   340
1005
391
1002
}
  0
DIMENSION
  5
46C
330
1F
100
AcDbEntity
  8
寸法
  6
CONTINUOUS
 62
     3
100
AcDbDimension
  2
*D32
 10
1563.000000000061
 20
2669.5
 30
0.0
 11
1525.500000000061
 21
1794.499999999998
 31
0.0
 70
   160
  1
（1750）
  3
ISO-25
100
AcDbAlignedDimension
 13
1243.000000000265
 23
919.5
 33
0.0
 14
1261.000000000165
 24
2669.5
 34
0.0
 50
90.0
100
AcDbRotatedDimension
1001
ACAD
1000
DSTYLE
1002
{
1070
   270
1070
     2
1070
     6
1000
EX_NORM
1070
     7
1000
EX_NORM
1070
    41
1040
44.99999618530273
1070
    42
1040
0.0
1070
    44
1040
0.0
1070
    73
1070
     0
1070
    74
1070
     0
1070
    75
1070
     1
1070
    76
1070
     0
1070
    77
1070
     1
1070
    78
1070
     0
1070
   140
1040
59.99999618530273
1070
   147
1040
0.0
1070
   173
1070
     1
1070
   176
1070
     3
1070
   177
1070
     3
1070
   178
1070
     2
1070
   271
1070
     0
1070
   277
1070
     2
1070
   279
1070
     2
1070
   280
1070
     0
1070
   287
1070
     5
1070
   340
1005
391
1002
}
  0
DIMENSION
  5
478
330
1F
100
AcDbEntity
  8
寸法
  6
CONTINUOUS
 62
     3
100
AcDbDimension
  2
*D33
 10
1111.00000000016
 20
2732.5
 30
0.0
 11
962.5000000001605
 21
2775.249999910593
 31
0.0
 70
   160
  1
<>（壁固定）
  3
ISO-25
100
AcDbAlignedDimension
 13
811.0000000001603
 23
2621.3
 33
0.0
 14
1111.00000000016
 24
2621.3
 34
0.0
100
AcDbRotatedDimension
1001
ACAD
1000
DSTYLE
1002
{
1070
   270
1070
     2
1070
     6
1000
EX_NORM
1070
     7
1000
EX_NORM
1070
    41
1040
44.99999618530273
1070
    42
1040
10.49999982118607
1070
    44
1040
15.0
1070
    73
1070
     0
1070
    74
1070
     0
1070
    75
1070
     0
1070
    76
1070
     0
1070
    77
1070
     1
1070
    78
1070
     8
1070
   140
1040
59.99999618530273
1070
   147
1040
0.0
1070
   173
1070
     1
1070
   176
1070
     3
1070
   177
1070
     3
1070
   178
1070
     2
1070
   271
1070
     2
1070
   277
1070
     2
1070
   279
1070
     2
1070
   280
1070
     0
1070
   287
1070
     5
1070
   340
1005
391
1002
}
  0
DIMENSION
  5
485
330
1F
100
AcDbEntity
  8
寸法
  6
CONTINUOUS
 62
     3
100
AcDbDimension
  2
*D34
 10
1186.00000000016
 20
2848.5
 30
0.0
 11
961.0000000001605
 21
2883.749999910593
 31
0.0
 70
   160
  3
ISO-25
100
AcDbAlignedDimension
 13
736.0000000001603
 23
2668.3
 33
0.0
 14
1186.00000000016
 24
2668.3
 34
0.0
100
AcDbRotatedDimension
1001
ACAD
1000
DSTYLE
1002
{
1070
   270
1070
     2
1070
     6
1000
EX_NORM
1070
     7
1000
EX_NORM
1070
    41
1040
44.99999618530273
1070
    42
1040
10.49999982118607
1070
    44
1040
15.0
1070
    73
1070
     0
1070
    74
1070
     0
1070
    75
1070
     0
1070
    76
1070
     0
1070
    77
1070
     1
1070
    78
1070
     8
1070
   140
1040
59.99999618530273
1070
   147
1040
0.0
1070
   173
1070
     1
1070
   176
1070
     3
1070
   177
1070
     3
1070
   178
1070
     2
1070
   271
1070
     2
1070
   277
1070
     2
1070
   279
1070
     2
1070
   280
1070
     0
1070
   287
1070
     5
1070
   340
1005
391
1002
}
  0
DIMENSION
  5
492
330
1F
100
AcDbEntity
  8
寸法
  6
CONTINUOUS
 62
     3
100
AcDbDimension
  2
*D35
 10
2491.000000000229
 20
2734.5
 30
0.0
 11
2604.55000000023
 21
2769.749999910593
 31
0.0
 70
   160
  1
122
  3
ISO-25
100
AcDbAlignedDimension
 13
2369.80000000023
 23
2669.500000000001
 33
0.0
 14
2491.000000000229
 24
2663.3
 34
0.0
100
AcDbRotatedDimension
1001
ACAD
1000
DSTYLE
1002
{
1070
   270
1070
     2
1070
     6
1000
EX_NORM
1070
     7
1000
EX_NORM
1070
    41
1040
44.99999618530273
1070
    42
1040
10.49999982118607
1070
    44
1040
15.0
1070
    73
1070
     0
1070
    74
1070
     0
1070
    75
1070
     0
1070
    76
1070
     1
1070
    77
1070
     1
1070
    78
1070
     8
1070
   140
1040
59.99999618530273
1070
   147
1040
0.0
1070
   173
1070
     1
1070
   176
1070
     3
1070
   177
1070
     3
1070
   178
1070
     2
1070
   271
1070
     2
1070
   277
1070
     2
1070
   279
1070
     2
1070
   280
1070
     0
1070
   287
1070
     5
1070
   340
1005
391
1002
}
  0
DIMENSION
  5
49E
330
1F
100
AcDbEntity
  8
寸法
  6
CONTINUOUS
 62
     3
100
AcDbDimension
  2
*D36
 10
2895.510000000599
 20
2669.5
 30
0.0
 11
2860.750000089607
 21
2764.7
 31
0.0
 70
   160
  1
63
 53
90.00000000000173
  3
ISO-25
100
AcDbAlignedDimension
 13
2523.71000000063
 23
2613.3
 33
0.0
 14
2389.310000000631
 24
2669.5
 34
0.0
 50
90.0
100
AcDbRotatedDimension
1001
ACAD
1000
DSTYLE
1002
{
1070
   270
1070
     2
1070
     6
1000
EX_NONE
1070
     7
1000
EX_NORM
1070
    41
1040
44.99999618530273
1070
    42
1040
10.98999982078567
1070
    44
1040
15.4899999995996
1070
    73
1070
     0
1070
    74
1070
     0
1070
    75
1070
     1
1070
    76
1070
     0
1070
    77
1070
     1
1070
    78
1070
     8
1070
   140
1040
59.99999618530273
1070
   147
1040
0.0
1070
   173
1070
     1
1070
   176
1070
     3
1070
   177
1070
     3
1070
   178
1070
     2
1070
   271
1070
     2
1070
   277
1070
     2
1070
   279
1070
     2
1070
   280
1070
     0
1070
   287
1070
     5
1070
   340
1005
391
1002
}
  0
LINE
  5
4AC
330
1F
100
AcDbEntity
  8
寸法
  6
CONTINUOUS
 62
     3
100
AcDbLine
 10
2511.999999642487
 20
919.5
 30
0.0
 11
2911.5000000001
 21
919.5
 31
0.0
  0
LINE
  5
4AD
330
1F
100
AcDbEntity
  8
寸法
  6
CONTINUOUS
 62
     3
100
AcDbLine
 10
781.0000000000985
 20
1485.200000178913
 30
0.0
 11
781.0000000000985
 21
1242.0
 31
0.0
  0
ARC
  5
4AE
330
1F
100
AcDbEntity
  8
寸法
  6
CONTINUOUS
 62
     2
100
AcDbCircle
 10
2044.000000000118
 20
1616.4999999999
 30
0.0
 40
3.0
100
AcDbArc
 50
90.00000000000001
 51
180.0
  0
DIMENSION
  5
4AF
330
1F
100
AcDbEntity
  8
寸法
  6
CONTINUOUS
 62
     3
100
AcDbDimension
  2
*D37
 10
2895.5000000004
 20
2606.3
 30
0.0
 11
2860.250000089807
 21
2386.3
 31
0.0
 70
   160
  1
440（壁固定）
  3
ISO-25
100
AcDbAlignedDimension
 13
2850.7000000004
 23
2166.3
 33
0.0
 14
2850.7000000004
 24
2606.3
 34
0.0
 50
90.0
100
AcDbRotatedDimension
1001
ACAD
1000
DSTYLE
1002
{
1070
   270
1070
     2
1070
     6
1000
EX_NORM
1070
     7
1000
EX_NORM
1070
    41
1040
44.99999618530273
1070
    42
1040
0.0
1070
    44
1040
0.0
1070
    73
1070
     0
1070
    74
1070
     0
1070
    75
1070
     0
1070
    76
1070
     1
1070
    77
1070
     1
1070
    78
1070
     8
1070
   140
1040
59.99999618530273
1070
   147
1040
0.0
1070
   173
1070
     1
1070
   176
1070
     3
1070
   177
1070
     3
1070
   178
1070
     2
1070
   271
1070
     1
1070
   277
1070
     2
1070
   279
1070
     2
1070
   280
1070
     0
1070
   287
1070
     5
1070
   340
1005
391
1002
}
  0
DIMENSION
  5
4BB
330
1F
100
AcDbEntity
  8
寸法
  6
CONTINUOUS
 62
     3
100
AcDbDimension
  2
*D38
 10
2895.5000000004
 20
919.5
 30
0.0
 11
2858.250000089407
 21
1542.9
 31
0.0
 70
   160
  1
（1247）
 53
90.00000000000001
  3
ISO-25
100
AcDbAlignedDimension
 13
2912.5000000008
 23
2166.3
 33
0.0
 14
2895.5000000004
 24
919.5
 34
0.0
 50
90.0
100
AcDbRotatedDimension
1001
ACAD
1000
DSTYLE
1002
{
1070
   270
1070
     2
1070
     6
1000
EX_NORM
1070
     7
1000
EX_NORM
1070
    41
1040
44.99999618530273
1070
    42
1040
12.49999970197678
1070
    44
1040
16.99999988079071
1070
    73
1070
     0
1070
    74
1070
     0
1070
    75
1070
     0
1070
    76
1070
     1
1070
    77
1070
     1
1070
    78
1070
     8
1070
   140
1040
59.99999618530273
1070
   147
1040
0.0
1070
   173
1070
     1
1070
   176
1070
     3
1070
   177
1070
     3
1070
   178
1070
     2
1070
   271
1070
     1
1070
   277
1070
     2
1070
   279
1070
     2
1070
   280
1070
     0
1070
   287
1070
     5
1070
   340
1005
391
1002
}
  0
LINE
  5
4C7
330
1F
100
AcDbEntity
  8
寸法
  6
CONTINUOUS
 62
     3
100
AcDbLine
 10
2538.0
 20
2606.300000000003
 30
0.0
 11
2905.5000000004
 21
2606.299999999999
 31
0.0
  0
DIMENSION
  5
4C8
330
1F
100
AcDbEntity
  8
寸法
  6
CONTINUOUS
 62
     3
100
AcDbDimension
  2
*D39
 10
1477.00000000013
 20
2103.1
 30
0.0
 11
1435.750000089537
 21
2386.3
 31
0.0
 70
   160
  1
567
 53
90.00000000000001
  3
ISO-25
100
AcDbAlignedDimension
 13
1576.00000000013
 23
2669.5
 33
0.0
 14
1576.00000000013
 24
2103.1
 34
0.0
 50
90.0
100
AcDbRotatedDimension
1001
ACAD
1000
DSTYLE
1002
{
1070
   270
1070
     2
1070
     6
1000
EX_NORM
1070
     7
1000
EX_NORM
1070
    41
1040
44.99999618530273
1070
    42
1040
69.99999761581421
1070
    44
1040
281.9999885559082
1070
    73
1070
     0
1070
    74
1070
     0
1070
    75
1070
     1
1070
    76
1070
     0
1070
    77
1070
     1
1070
    78
1070
     0
1070
   140
1040
59.99999618530273
1070
   147
1040
0.0
1070
   173
1070
     1
1070
   176
1070
     3
1070
   177
1070
     3
1070
   178
1070
     2
1070
   271
1070
     0
1070
   277
1070
     2
1070
   279
1070
     2
1070
   280
1070
     0
1070
   287
1070
     5
1070
   340
1005
391
1002
}
  0
ENDSEC
  0
SECTION
  2
OBJECTS
  0
DICTIONARY
  5
C
330
0
100
AcDbDictionary
  3
ACAD_GROUP
350
D
  3
ACAD_LAYOUT
350
1A
  3
ACAD_MATERIAL
350
3B
  3
ACAD_MLEADERSTYLE
350
4F6
  3
ACAD_MLINESTYLE
350
17
  3
ACAD_PLOTSETTINGS
350
19
  3
ACAD_VISUALSTYLE
350
2A
  3
ACDBHEADERROUNDTRIPXREC
350
4D4
  3
ACDBVARIABLEDICTIONARY
350
4F4
  0
DICTIONARY
  5
D
102
{ACAD_REACTORS
330
C
102
}
330
C
100
AcDbDictionary
  0
DICTIONARY
  5
1A
102
{ACAD_REACTORS
330
C
102
}
330
C
100
AcDbDictionary
  0
DICTIONARY
  5
3B
102
{ACAD_REACTORS
330
C
102
}
330
C
100
AcDbDictionary
  3
BYBLOCK
350
3D
  3
BYLAYER
350
3C
  3
GLOBAL
350
3E
  0
DICTIONARY
  5
4F6
102
{ACAD_REACTORS
330
C
102
}
330
C
100
AcDbDictionary
  0
DICTIONARY
  5
17
102
{ACAD_REACTORS
330
C
102
}
330
C
100
AcDbDictionary
  3
STANDARD
350
18
  0
DICTIONARY
  5
19
102
{ACAD_REACTORS
330
C
102
}
330
C
100
AcDbDictionary
  0
DICTIONARY
  5
2A
102
{ACAD_REACTORS
330
C
102
}
330
C
100
AcDbDictionary
  3
2DWIREFRAME
350
2F
  3
3D_HIDDEN
350
31
  3
3DWIREFRAME
350
30
  3
BASIC
350
32
  3
BRIGHTEN
350
36
  3
COLORCHANGE
350
3A
  3
CONCEPTUAL
350
34
  3
DIM
350
35
  3
FACEPATTERN
350
39
  3
FLAT
350
2B
  3
FLATWITHEDGES
350
2C
  3
GOURAUD
350
2D
  3
GOURAUDWITHEDGES
350
2E
  3
LINEPATTERN
350
38
  3
REALISTIC
350
33
  3
THICKEN
350
37
  0
DICTIONARY
  5
4D4
102
{ACAD_REACTORS
330
C
102
}
330
C
100
AcDbDictionary
  3
CEPSNTYPE
350
4DD
  3
DIMSTYLEDATA
350
4F3
  3
FINGERPRINTGUID
350
4DE
  3
HYPERLINKBASE
350
4D7
  3
INSUNITS
350
4DC
  3
LAYOUTDICT
350
4D9
  3
LWETCUNION
350
4DB
  3
PLOTSETDICT
350
4DA
  3
PSVPSCALE
350
4E0
  3
PUCSBASE
350
4E3
  3
PUCSORGBACK
350
4E9
  3
PUCSORGBOTTOM
350
4E5
  3
PUCSORGFRONT
350
4E8
  3
PUCSORGLEFT
350
4E6
  3
PUCSORGRIGHT
350
4E7
  3
PUCSORGTOP
350
4E4
  3
PUCSORTHOREF
350
4E1
  3
PUCSORTHOVIEW
350
4E2
  3
STYLESHEET
350
4D8
  3
TSTACKALIGN
350
4D5
  3
TSTACKSIZE
350
4D6
  3
UCSBASE
350
4EC
  3
UCSORGBACK
350
4F2
  3
UCSORGBOTTOM
350
4EE
  3
UCSORGFRONT
350
4F1
  3
UCSORGLEFT
350
4EF
  3
UCSORGRIGHT
350
4F0
  3
UCSORGTOP
350
4ED
  3
UCSORTHOREF
350
4EA
  3
UCSORTHOVIEW
350
4EB
  3
VERSIONGUID
350
4DF
  0
DICTIONARY
  5
4F4
102
{ACAD_REACTORS
330
C
102
}
330
C
100
AcDbDictionary
  3
DIMASSOC
350
4F9
  3
HIDETEXT
350
4FA
  3
PSOLHEIGHT
350
4F8
  3
PSOLWIDTH
350
4F7
  0
MATERIAL
  5
3D
102
{ACAD_REACTORS
330
3B
102
}
102
{ACAD_XDICTIONARY
360
4FD
102
}
330
3B
100
AcDbMaterial
  1
ByBlock
  0
MATERIAL
  5
3C
102
{ACAD_REACTORS
330
3B
102
}
102
{ACAD_XDICTIONARY
360
4FB
102
}
330
3B
100
AcDbMaterial
  1
ByLayer
  0
MATERIAL
  5
3E
102
{ACAD_REACTORS
330
3B
102
}
102
{ACAD_XDICTIONARY
360
4FF
102
}
330
3B
100
AcDbMaterial
  1
Global
  0
MLINESTYLE
  5
18
102
{ACAD_REACTORS
330
17
102
}
330
17
100
AcDbMlineStyle
  2
Standard
 70
     0
  3

 62
   256
 51
90.0
 52
90.0
 71
     2
 49
0.5
 62
   256
  6
BYLAYER
 49
-0.5
 62
   256
  6
BYLAYER
  0
ACAD_PROXY_OBJECT
  5
2F
102
{ACAD_REACTORS
330
2A
102
}
330
2A
100
AcDbProxyObject
 90
      499
 91
      501
 93
      436
310
42CC9915DA5C99599C985B595049028333333333333E3BF0000000000000FB0107901411070040501600405405064090741402480A0340
1001
ACAD
1000
AcDbSavedByObjectVersion
1070
     0
  0
ACAD_PROXY_OBJECT
  5
31
102
{ACAD_REACTORS
330
2A
102
}
330
2A
100
AcDbProxyObject
 90
      499
 91
      501
 93
      500
310
424CD108121A5919195B90640502408333333333333E3BF0000000000000FB01079024090700405020000000000001110200405405064090740C02480A0340
1001
ACAD
1000
AcDbSavedByObjectVersion
1070
     0
  0
ACAD_PROXY_OBJECT
  5
30
102
{ACAD_REACTORS
330
2A
102
}
330
2A
100
AcDbProxyObject
 90
      499
 91
      501
 93
      436
310
42CCD915DA5C99599C985B595059028333333333333E3BF0000000000000FB0107901411070040501600405405064090741402480A0340
1001
ACAD
1000
AcDbSavedByObjectVersion
1070
     0
  0
ACAD_PROXY_OBJECT
  5
32
102
{ACAD_REACTORS
330
2A
102
}
330
2A
100
AcDbProxyObject
 90
      499
 91
      501
 93
      388
310
4150985CDA58D07406404333333333333E3BF0000000000000FB0107A41107004050150841D405064090741402480A0350
1001
ACAD
1000
AcDbSavedByObjectVersion
1070
     0
  0
ACAD_PROXY_OBJECT
  5
36
102
{ACAD_REACTORS
330
2A
102
}
330
2A
100
AcDbProxyObject
 90
      499
 91
      501
 93
      428
310
42109C9A59DA1D195B90C409028333333333333E3BF0000000000000FB010790141107004050150841D405064090741402480A029950
1001
ACAD
1000
AcDbSavedByObjectVersion
1070
     0
  0
ACAD_PROXY_OBJECT
  5
3A
102
{ACAD_REACTORS
330
2A
102
}
330
2A
100
AcDbProxyObject
 90
      499
 91
      501
 93
      452
310
42D0DBDB1BDC90DA185B99D95104090240C333333333333E3BF0000000000000FB0108901411070040501508421405064090741402480A0350
1001
ACAD
1000
AcDbSavedByObjectVersion
1070
     0
  0
ACAD_PROXY_OBJECT
  5
34
102
{ACAD_REACTORS
330
2A
102
}
330
2A
100
AcDbProxyObject
 90
      499
 91
      501
 93
      500
310
4290DBDB98D95C1D1D585B10940D028333333333333E3BF0000000000000FB0107902409070040501000000000000111010841D405064090740C02480A0340
1001
ACAD
1000
AcDbSavedByObjectVersion
1070
     0
  0
ACAD_PROXY_OBJECT
  5
35
102
{ACAD_REACTORS
330
2A
102
}
330
2A
100
AcDbProxyObject
 90
      499
 91
      501
 93
      412
310
40D11A5B50B409028333333333333E3BF0000000000000FB010790141107004050150841D405064090741402480A02677FFFFFD0
1001
ACAD
1000
AcDbSavedByObjectVersion
1070
     0
  0
ACAD_PROXY_OBJECT
  5
39
102
{ACAD_REACTORS
330
2A
102
}
330
2A
100
AcDbProxyObject
 90
      499
 91
      501
 93
      444
310
42D19858D95C185D1D195C9B90F409028333333333333E3BF0000000000000FB010790141107004050150841D405064090741402480A0350
1001
ACAD
1000
AcDbSavedByObjectVersion
1070
     0
  0
ACAD_PROXY_OBJECT
  5
2B
102
{ACAD_REACTORS
330
2A
102
}
330
2A
100
AcDbProxyObject
 90
      499
 91
      501
 93
      388
310
41119B185D240901404333333333333E3BF0000000000000F9010740A41107004050150841D405064090741402480A1B50
1001
ACAD
1000
AcDbSavedByObjectVersion
1070
     0
  0
ACAD_PROXY_OBJECT
  5
2C
102
{ACAD_REACTORS
330
2A
102
}
330
2A
100
AcDbProxyObject
 90
      499
 91
      501
 93
      476
310
43519B185D15DA5D1A115919D95CD0140901404333333333333E3BF0000000000000F9010740901411070040501600405405064090741402480A1B50
1001
ACAD
1000
AcDbSavedByObjectVersion
1070
     0
  0
ACAD_PROXY_OBJECT
  5
2D
102
{ACAD_REACTORS
330
2A
102
}
330
2A
100
AcDbProxyObject
 90
      499
 91
      501
 93
      412
310
41D1DBDD5C985D5910240902404333333333333E3BF0000000000000F9010740A411070040501641D405064090741402480A1B50
1001
ACAD
1000
AcDbSavedByObjectVersion
1070
     0
  0
ACAD_PROXY_OBJECT
  5
2E
102
{ACAD_REACTORS
330
2A
102
}
330
2A
100
AcDbProxyObject
 90
      499
 91
      501
 93
      500
310
4411DBDD5C985D5915DA5D1A115919D95CD0340902404333333333333E3BF0000000000000F9010740901411070040501600405405064090741402480A1B50
1001
ACAD
1000
AcDbSavedByObjectVersion
1070
     0
  0
ACAD_PROXY_OBJECT
  5
38
102
{ACAD_REACTORS
330
2A
102
}
330
2A
100
AcDbProxyObject
 90
      499
 91
      501
 93
      444
310
42D31A5B995C185D1D195C9B90E409028333333333333E3BF0000000000000FB010790141107004050750841D405064090741402483A0350
1001
ACAD
1000
AcDbSavedByObjectVersion
1070
     0
  0
ACAD_PROXY_OBJECT
  5
33
102
{ACAD_REACTORS
330
2A
102
}
330
2A
100
AcDbProxyObject
 90
      499
 91
      501
 93
      420
310
425499585B1A5CDD1A58D08409028333333333333E3BF0000000000000FB01079019070040501508421405064090741402480A1B40
1001
ACAD
1000
AcDbSavedByObjectVersion
1070
     0
  0
ACAD_PROXY_OBJECT
  5
37
102
{ACAD_REACTORS
330
2A
102
}
330
2A
100
AcDbProxyObject
 90
      499
 91
      501
 93
      412
310
41D51A1A58DAD95B90D409028333333333333E3BF0000000000000FB010790141107004050150C41D405064090741402480A0350
1001
ACAD
1000
AcDbSavedByObjectVersion
1070
     0
  0
XRECORD
  5
4DD
102
{ACAD_REACTORS
330
4D4
102
}
330
4D4
100
AcDbXrecord
 90
        0
  0
XRECORD
  5
4F3
102
{ACAD_REACTORS
330
4D4
102
}
330
4D4
100
AcDbXrecord
1000
DSTYLE
1002
{
1070
   340
340
11
1002
}
  0
XRECORD
  5
4DE
102
{ACAD_REACTORS
330
4D4
102
}
330
4D4
100
AcDbXrecord
  1
{754FCCE2-3BDF-4417-BD9A-BFB08228D594}
  0
XRECORD
  5
4D7
102
{ACAD_REACTORS
330
4D4
102
}
330
4D4
100
AcDbXrecord
  1

  0
XRECORD
  5
4DC
102
{ACAD_REACTORS
330
4D4
102
}
330
4D4
100
AcDbXrecord
 90
        4
  0
XRECORD
  5
4D9
102
{ACAD_REACTORS
330
4D4
102
}
330
4D4
100
AcDbXrecord
340
1A
  0
XRECORD
  5
4DB
102
{ACAD_REACTORS
330
4D4
102
}
330
4D4
100
AcDbXrecord
 90
    10781
  0
XRECORD
  5
4DA
102
{ACAD_REACTORS
330
4D4
102
}
330
4D4
100
AcDbXrecord
340
19
  0
XRECORD
  5
4E0
102
{ACAD_REACTORS
330
4D4
102
}
330
4D4
100
AcDbXrecord
 40
0.0
  0
XRECORD
  5
4E3
102
{ACAD_REACTORS
330
4D4
102
}
330
4D4
100
AcDbXrecord
340
0
  0
XRECORD
  5
4E9
102
{ACAD_REACTORS
330
4D4
102
}
330
4D4
100
AcDbXrecord
 10
0.0
 20
0.0
 30
0.0
  0
XRECORD
  5
4E5
102
{ACAD_REACTORS
330
4D4
102
}
330
4D4
100
AcDbXrecord
 10
0.0
 20
0.0
 30
0.0
  0
XRECORD
  5
4E8
102
{ACAD_REACTORS
330
4D4
102
}
330
4D4
100
AcDbXrecord
 10
0.0
 20
0.0
 30
0.0
  0
XRECORD
  5
4E6
102
{ACAD_REACTORS
330
4D4
102
}
330
4D4
100
AcDbXrecord
 10
0.0
 20
0.0
 30
0.0
  0
XRECORD
  5
4E7
102
{ACAD_REACTORS
330
4D4
102
}
330
4D4
100
AcDbXrecord
 10
0.0
 20
0.0
 30
0.0
  0
XRECORD
  5
4E4
102
{ACAD_REACTORS
330
4D4
102
}
330
4D4
100
AcDbXrecord
 10
0.0
 20
0.0
 30
0.0
  0
XRECORD
  5
4E1
102
{ACAD_REACTORS
330
4D4
102
}
330
4D4
100
AcDbXrecord
340
0
  0
XRECORD
  5
4E2
102
{ACAD_REACTORS
330
4D4
102
}
330
4D4
100
AcDbXrecord
 70
     0
  0
XRECORD
  5
4D8
102
{ACAD_REACTORS
330
4D4
102
}
330
4D4
100
AcDbXrecord
  1

  0
XRECORD
  5
4D5
102
{ACAD_REACTORS
330
4D4
102
}
330
4D4
100
AcDbXrecord
 90
        1
  0
XRECORD
  5
4D6
102
{ACAD_REACTORS
330
4D4
102
}
330
4D4
100
AcDbXrecord
 90
       70
  0
XRECORD
  5
4EC
102
{ACAD_REACTORS
330
4D4
102
}
330
4D4
100
AcDbXrecord
340
0
  0
XRECORD
  5
4F2
102
{ACAD_REACTORS
330
4D4
102
}
330
4D4
100
AcDbXrecord
 10
0.0
 20
0.0
 30
0.0
  0
XRECORD
  5
4EE
102
{ACAD_REACTORS
330
4D4
102
}
330
4D4
100
AcDbXrecord
 10
0.0
 20
0.0
 30
0.0
  0
XRECORD
  5
4F1
102
{ACAD_REACTORS
330
4D4
102
}
330
4D4
100
AcDbXrecord
 10
0.0
 20
0.0
 30
0.0
  0
XRECORD
  5
4EF
102
{ACAD_REACTORS
330
4D4
102
}
330
4D4
100
AcDbXrecord
 10
0.0
 20
0.0
 30
0.0
  0
XRECORD
  5
4F0
102
{ACAD_REACTORS
330
4D4
102
}
330
4D4
100
AcDbXrecord
 10
0.0
 20
0.0
 30
0.0
  0
XRECORD
  5
4ED
102
{ACAD_REACTORS
330
4D4
102
}
330
4D4
100
AcDbXrecord
 10
0.0
 20
0.0
 30
0.0
  0
XRECORD
  5
4EA
102
{ACAD_REACTORS
330
4D4
102
}
330
4D4
100
AcDbXrecord
340
0
  0
XRECORD
  5
4EB
102
{ACAD_REACTORS
330
4D4
102
}
330
4D4
100
AcDbXrecord
 70
     0
  0
XRECORD
  5
4DF
102
{ACAD_REACTORS
330
4D4
102
}
330
4D4
100
AcDbXrecord
  1
{FAEB1C32-E019-11D5-929B-00C0DF256EC4}
  0
DICTIONARYVAR
  5
4F9
102
{ACAD_REACTORS
330
4F4
102
}
330
4F4
100
DictionaryVariables
280
     0
  1
2
  0
DICTIONARYVAR
  5
4FA
102
{ACAD_REACTORS
330
4F4
102
}
330
4F4
100
DictionaryVariables
280
     0
  1
1
  0
DICTIONARYVAR
  5
4F8
102
{ACAD_REACTORS
330
4F4
102
}
330
4F4
100
DictionaryVariables
280
     0
  1
80.000000
  0
DICTIONARYVAR
  5
4F7
102
{ACAD_REACTORS
330
4F4
102
}
330
4F4
100
DictionaryVariables
280
     0
  1
5.000000
  0
DICTIONARY
  5
4FD
330
3D
100
AcDbDictionary
280
     1
  3
ACAD_XREC_ROUNDTRIP
360
4FE
  0
DICTIONARY
  5
4FB
330
3C
100
AcDbDictionary
280
     1
  3
ACAD_XREC_ROUNDTRIP
360
4FC
  0
DICTIONARY
  5
4FF
330
3E
100
AcDbDictionary
280
     1
  3
ACAD_XREC_ROUNDTRIP
360
500
  0
XRECORD
  5
4FE
102
{ACAD_REACTORS
330
4FD
102
}
330
4FD
100
AcDbXrecord
102
MATERIAL
148
0.0
149
0.0
149
0.0
 93
        0
 94
      127
282
     0
 72
     1
 77
     1
171
     1
175
     1
179
     1
273
     0
  0
XRECORD
  5
4FC
102
{ACAD_REACTORS
330
4FB
102
}
330
4FB
100
AcDbXrecord
102
MATERIAL
148
0.0
149
0.0
149
0.0
 93
        0
 94
      127
282
     0
 72
     1
 77
     1
171
     1
175
     1
179
     1
273
     0
  0
XRECORD
  5
500
102
{ACAD_REACTORS
330
4FF
102
}
330
4FF
100
AcDbXrecord
102
MATERIAL
148
0.0
149
0.0
149
0.0
 93
        0
 94
      127
282
     0
 72
     1
 77
     1
171
     1
175
     1
179
     1
273
     0
  0
ENDSEC
  0
EOF
