  0
SECTION
  2
HEADER
  9
$ACADVER
  1
AC1014
  9
$ACADMAINTVER
 70
     9
  9
$DWGCODEPAGE
  3
ANSI_932
  9
$INSBASE
 10
0.0
 20
0.0
 30
0.0
  9
$EXTMIN
 10
17.40000000000327
 20
9.299999999999955
 30
0.0
  9
$EXTMAX
 10
199.4000000000036
 20
289.3
 30
0.0
  9
$LIMMIN
 10
0.0
 20
0.0
  9
$LIMMAX
 10
210.0
 20
297.0
  9
$ORTHOMODE
 70
     0
  9
$REGENMODE
 70
     1
  9
$FILLMODE
 70
     1
  9
$QTEXTMODE
 70
     0
  9
$MIRRTEXT
 70
     1
  9
$DRAGMODE
 70
     2
  9
$LTSCALE
 40
1.0
  9
$OSMODE
 70
    37
  9
$ATTMODE
 70
     1
  9
$TEXTSIZE
 40
2.5
  9
$TRACEWID
 40
1.0
  9
$TEXTSTYLE
  7
STANDARD
  9
$CLAYER
  8
化粧台
  9
$CELTYPE
  6
BYLAYER
  9
$CECOLOR
 62
   256
  9
$CELTSCALE
 40
1.0
  9
$DELOBJ
 70
     1
  9
$DISPSILH
 70
     0
  9
$DIMSCALE
 40
1.0
  9
$DIMASZ
 40
2.5
  9
$DIMEXO
 40
0.625
  9
$DIMDLI
 40
3.75
  9
$DIMRND
 40
0.0
  9
$DIMDLE
 40
0.0
  9
$DIMEXE
 40
1.25
  9
$DIMTP
 40
0.0
  9
$DIMTM
 40
0.0
  9
$DIMTXT
 40
2.5
  9
$DIMCEN
 40
2.5
  9
$DIMTSZ
 40
0.0
  9
$DIMTOL
 70
     0
  9
$DIMLIM
 70
     0
  9
$DIMTIH
 70
     0
  9
$DIMTOH
 70
     0
  9
$DIMSE1
 70
     0
  9
$DIMSE2
 70
     0
  9
$DIMTAD
 70
     1
  9
$DIMZIN
 70
     8
  9
$DIMBLK
  1

  9
$DIMASO
 70
     1
  9
$DIMSHO
 70
     1
  9
$DIMPOST
  1

  9
$DIMAPOST
  1

  9
$DIMALT
 70
     0
  9
$DIMALTD
 70
     3
  9
$DIMALTF
 40
0.03937007874016
  9
$DIMLFAC
 40
1.0
  9
$DIMTOFL
 70
     1
  9
$DIMTVP
 40
0.0
  9
$DIMTIX
 70
     0
  9
$DIMSOXD
 70
     0
  9
$DIMSAH
 70
     0
  9
$DIMBLK1
  1

  9
$DIMBLK2
  1

  9
$DIMSTYLE
  2
ISO-25
  9
$DIMCLRD
 70
     0
  9
$DIMCLRE
 70
     0
  9
$DIMCLRT
 70
     0
  9
$DIMTFAC
 40
1.0
  9
$DIMGAP
 40
0.625
  9
$DIMJUST
 70
     0
  9
$DIMSD1
 70
     0
  9
$DIMSD2
 70
     0
  9
$DIMTOLJ
 70
     0
  9
$DIMTZIN
 70
     8
  9
$DIMALTZ
 70
     0
  9
$DIMALTTZ
 70
     0
  9
$DIMFIT
 70
     3
  9
$DIMUPT
 70
     0
  9
$DIMUNIT
 70
     2
  9
$DIMDEC
 70
     2
  9
$DIMTDEC
 70
     2
  9
$DIMALTU
 70
     2
  9
$DIMALTTD
 70
     3
  9
$DIMTXSTY
  7
STANDARD
  9
$DIMAUNIT
 70
     0
  9
$LUNITS
 70
     2
  9
$LUPREC
 70
     4
  9
$SKETCHINC
 40
1.0
  9
$FILLETRAD
 40
10.0
  9
$AUNITS
 70
     0
  9
$AUPREC
 70
     0
  9
$MENU
  1
.
  9
$ELEVATION
 40
0.0
  9
$PELEVATION
 40
0.0
  9
$THICKNESS
 40
0.0
  9
$LIMCHECK
 70
     0
  9
$CHAMFERA
 40
10.0
  9
$CHAMFERB
 40
10.0
  9
$CHAMFERC
 40
20.0
  9
$CHAMFERD
 40
0.0
  9
$SKPOLY
 70
     0
  9
$TDCREATE
 40
2460062.627455798
  9
$TDUPDATE
 40
2460062.62745603
  9
$TDINDWG
 40
0.0000000116
  9
$TDUSRTIMER
 40
0.0000000116
  9
$USRTIMER
 70
     1
  9
$ANGBASE
 50
0.0
  9
$ANGDIR
 70
     0
  9
$PDMODE
 70
     0
  9
$PDSIZE
 40
0.0
  9
$PLINEWID
 40
0.0
  9
$COORDS
 70
     1
  9
$SPLFRAME
 70
     0
  9
$SPLINETYPE
 70
     6
  9
$SPLINESEGS
 70
     8
  9
$ATTDIA
 70
     0
  9
$ATTREQ
 70
     1
  9
$HANDLING
 70
     1
  9
$HANDSEED
  5
3A0
  9
$SURFTAB1
 70
     6
  9
$SURFTAB2
 70
     6
  9
$SURFTYPE
 70
     6
  9
$SURFU
 70
     6
  9
$SURFV
 70
     6
  9
$UCSNAME
  2

  9
$UCSORG
 10
0.0
 20
0.0
 30
0.0
  9
$UCSXDIR
 10
1.0
 20
0.0
 30
0.0
  9
$UCSYDIR
 10
0.0
 20
1.0
 30
0.0
  9
$PUCSNAME
  2

  9
$PUCSORG
 10
0.0
 20
0.0
 30
0.0
  9
$PUCSXDIR
 10
1.0
 20
0.0
 30
0.0
  9
$PUCSYDIR
 10
0.0
 20
1.0
 30
0.0
  9
$USERI1
 70
     0
  9
$USERI2
 70
     0
  9
$USERI3
 70
     0
  9
$USERI4
 70
     0
  9
$USERI5
 70
     0
  9
$USERR1
 40
0.0
  9
$USERR2
 40
0.0
  9
$USERR3
 40
0.0
  9
$USERR4
 40
0.0
  9
$USERR5
 40
0.0
  9
$WORLDVIEW
 70
     1
  9
$SHADEDGE
 70
     3
  9
$SHADEDIF
 70
    70
  9
$TILEMODE
 70
     1
  9
$MAXACTVP
 70
    64
  9
$PINSBASE
 10
0.0
 20
0.0
 30
0.0
  9
$PLIMCHECK
 70
     0
  9
$PEXTMIN
 10
1.000000000000000E+20
 20
1.000000000000000E+20
 30
1.000000000000000E+20
  9
$PEXTMAX
 10
-1.000000000000000E+20
 20
-1.000000000000000E+20
 30
-1.000000000000000E+20
  9
$PLIMMIN
 10
0.0
 20
0.0
  9
$PLIMMAX
 10
420.0
 20
297.0
  9
$UNITMODE
 70
     0
  9
$VISRETAIN
 70
     1
  9
$PLINEGEN
 70
     0
  9
$PSLTSCALE
 70
     1
  9
$TREEDEPTH
 70
  3020
  9
$PICKSTYLE
 70
     1
  9
$CMLSTYLE
  2
STANDARD
  9
$CMLJUST
 70
     0
  9
$CMLSCALE
 40
20.0
  9
$PROXYGRAPHICS
 70
     1
  9
$MEASUREMENT
 70
     1
  0
ENDSEC
  0
SECTION
  2
CLASSES
  0
CLASS
  1
ACDBDICTIONARYWDFLT
  2
AcDbDictionaryWithDefault
  3
ObjectDBX Classes
 90
        0
280
     0
281
     0
  0
CLASS
  1
VISUALSTYLE
  2
AcDbVisualStyle
  3
ObjectDBX Classes
 90
     4095
280
     0
281
     0
  0
CLASS
  1
MATERIAL
  2
AcDbMaterial
  3
ObjectDBX Classes
 90
     1153
280
     0
281
     0
  0
CLASS
  1
SUN
  2
AcDbSun
  3
SCENEOE
 90
     1024
280
     0
281
     0
  0
CLASS
  1
DICTIONARYVAR
  2
AcDbDictionaryVar
  3
ObjectDBX Classes
 90
        0
280
     0
281
     0
  0
CLASS
  1
XRECORD
  2
AcDbXrecord
  3
AutoCAD 2000
 90
        0
280
     0
281
     0
  0
CLASS
  1
LWPOLYLINE
  2
AcDbPolyline
  3
AutoCAD 2000
 90
        0
280
     0
281
     1
  0
CLASS
  1
HATCH
  2
AcDbHatch
  3
AutoCAD 2000
 90
        0
280
     0
281
     1
  0
CLASS
  1
ACDBPLACEHOLDER
  2
AcDbPlaceHolder
  3
ObjectDBX Classes
 90
        0
280
     0
281
     0
  0
CLASS
  1
LAYOUT
  2
AcDbLayout
  3
ObjectDBX Classes
 90
        0
280
     0
281
     0
  0
ENDSEC
  0
SECTION
  2
TABLES
  0
TABLE
  2
VPORT
  5
8
330
0
100
AcDbSymbolTable
 70
     1
  0
VPORT
  5
29
330
8
100
AcDbSymbolTableRecord
100
AcDbViewportTableRecord
  2
*ACTIVE
 70
     0
 10
0.0
 20
0.0
 11
1.0
 21
1.0
 12
1626.000000000052
 22
2239.5
 13
0.0
 23
0.0
 14
10.0
 24
10.0
 15
10.0
 25
10.0
 16
0.0
 26
0.0
 36
1.0
 17
0.0
 27
0.0
 37
0.0
 40
4200.000000000001
 41
0.6500000000000011
 42
50.0
 43
0.0
 44
0.0
 50
0.0
 51
0.0
 71
     0
 72
  1000
 73
     1
 74
     3
 75
     0
 76
     0
 77
     0
 78
     0
  0
ENDTAB
  0
TABLE
  2
LTYPE
  5
5
330
0
100
AcDbSymbolTable
 70
     7
  0
LTYPE
  5
14
330
5
100
AcDbSymbolTableRecord
100
AcDbLinetypeTableRecord
  2
BYBLOCK
 70
     0
  3

 72
    65
 73
     0
 40
0.0
  0
LTYPE
  5
15
330
5
100
AcDbSymbolTableRecord
100
AcDbLinetypeTableRecord
  2
BYLAYER
 70
     0
  3

 72
    65
 73
     0
 40
0.0
  0
LTYPE
  5
16
330
5
100
AcDbSymbolTableRecord
100
AcDbLinetypeTableRecord
  2
CONTINUOUS
 70
     0
  3
Solid line
 72
    65
 73
     0
 40
0.0
  0
LTYPE
  5
40
330
5
100
AcDbSymbolTableRecord
100
AcDbLinetypeTableRecord
  2
EXLTYPE1
 70
     0
  3
破線
 72
    65
 73
     2
 40
3.0
 49
2.0
 74
     0
 49
-1.0
 74
     0
  0
LTYPE
  5
41
330
5
100
AcDbSymbolTableRecord
100
AcDbLinetypeTableRecord
  2
EXLTYPE2
 70
     0
  3
点線
 72
    65
 73
     2
 40
2.0
 49
1.0
 74
     0
 49
-1.0
 74
     0
  0
LTYPE
  5
42
330
5
100
AcDbSymbolTableRecord
100
AcDbLinetypeTableRecord
  2
EXLTYPE3
 70
     0
  3
一点鎖線
 72
    65
 73
     4
 40
10.0
 49
7.0
 74
     0
 49
-1.0
 74
     0
 49
1.0
 74
     0
 49
-1.0
 74
     0
  0
LTYPE
  5
43
330
5
100
AcDbSymbolTableRecord
100
AcDbLinetypeTableRecord
  2
EXLTYPE4
 70
     0
  3
二点鎖線
 72
    65
 73
     6
 40
12.0
 49
7.0
 74
     0
 49
-1.0
 74
     0
 49
1.0
 74
     0
 49
-1.0
 74
     0
 49
1.0
 74
     0
 49
-1.0
 74
     0
  0
LTYPE
  5
44
330
5
100
AcDbSymbolTableRecord
100
AcDbLinetypeTableRecord
  2
EXLTYPE5
 70
     0
  3
三点鎖線
 72
    65
 73
     8
 40
37.0
 49
30.0
 74
     0
 49
-1.0
 74
     0
 49
1.0
 74
     0
 49
-1.0
 74
     0
 49
1.0
 74
     0
 49
-1.0
 74
     0
 49
1.0
 74
     0
 49
-1.0
 74
     0
  0
LTYPE
  5
45
330
5
100
AcDbSymbolTableRecord
100
AcDbLinetypeTableRecord
  2
EXLTYPE6
 70
     0
  3
四点鎖線
 72
    65
 73
    10
 40
39.0
 49
30.0
 74
     0
 49
-1.0
 74
     0
 49
1.0
 74
     0
 49
-1.0
 74
     0
 49
1.0
 74
     0
 49
-1.0
 74
     0
 49
1.0
 74
     0
 49
-1.0
 74
     0
 49
1.0
 74
     0
 49
-1.0
 74
     0
  0
ENDTAB
  0
TABLE
  2
LAYER
  5
2
330
0
100
AcDbSymbolTable
 70
     7
  0
LAYER
  5
10
330
2
100
AcDbSymbolTableRecord
100
AcDbLayerTableRecord
  2
0
 70
     0
 62
     7
  6
CONTINUOUS
  0
LAYER
  5
48
330
2
100
AcDbSymbolTableRecord
100
AcDbLayerTableRecord
  2
枠_表
 70
     0
 62
     7
  6
CONTINUOUS
  0
LAYER
  5
49
330
2
100
AcDbSymbolTableRecord
100
AcDbLayerTableRecord
  2
化粧台
 70
     0
 62
     7
  6
CONTINUOUS
  0
LAYER
  5
4A
330
2
100
AcDbSymbolTableRecord
100
AcDbLayerTableRecord
  2
鏡台
 70
     0
 62
     7
  6
CONTINUOUS
  0
LAYER
  5
4B
330
2
100
AcDbSymbolTableRecord
100
AcDbLayerTableRecord
  2
付属金具
 70
     0
 62
     7
  6
CONTINUOUS
  0
LAYER
  5
4C
330
2
100
AcDbSymbolTableRecord
100
AcDbLayerTableRecord
  2
寸法
 70
     0
 62
     7
  6
CONTINUOUS
  0
LAYER
  5
295
330
2
100
AcDbSymbolTableRecord
100
AcDbLayerTableRecord
  2
DEFPOINTS
 70
     0
 62
     7
  6
CONTINUOUS
  0
ENDTAB
  0
TABLE
  2
STYLE
  5
3
330
0
100
AcDbSymbolTable
 70
     5
  0
STYLE
  5
11
330
3
100
AcDbSymbolTableRecord
100
AcDbTextStyleTableRecord
  2
STANDARD
 70
     0
 40
0.0
 41
1.0
 50
0.0
 71
     0
 42
2.5
  3
monotxt
  4
extfont
  0
STYLE
  5
46
330
3
100
AcDbSymbolTableRecord
100
AcDbTextStyleTableRecord
  2
EXCADSTD
 70
     0
 40
0.0
 41
1.0
 50
0.0
 71
     0
 42
0.2
  3
monotxt
  4
extfont
  0
STYLE
  5
47
330
3
100
AcDbSymbolTableRecord
100
AcDbTextStyleTableRecord
  2
EXCADVERT
 70
     4
 40
0.0
 41
1.0
 50
0.0
 71
     0
 42
0.286885
  3
monotxt
  4
extfont
  0
STYLE
  5
150
330
3
100
AcDbSymbolTableRecord
100
AcDbTextStyleTableRecord
  2
EXCADTTF1
 70
     0
 40
0.0
 41
1.0
 50
0.0
 71
     0
 42
0.2
  3
MSGOTHIC.TTC
  4

1001
ACAD
1000
MS Gothic
1071
    32817
  0
STYLE
  5
293
330
3
100
AcDbSymbolTableRecord
100
AcDbTextStyleTableRecord
  2
EXCADDIM1
 70
     0
 40
0.0
 41
0.84
 50
0.0
 71
     0
 42
0.2
  3
monotxt
  4
extfont
  0
ENDTAB
  0
TABLE
  2
VIEW
  5
6
330
0
100
AcDbSymbolTable
 70
     0
  0
ENDTAB
  0
TABLE
  2
UCS
  5
7
330
0
100
AcDbSymbolTable
 70
     0
  0
ENDTAB
  0
TABLE
  2
APPID
  5
9
330
0
100
AcDbSymbolTable
 70
     1
  0
APPID
  5
12
330
9
100
AcDbSymbolTableRecord
100
AcDbRegAppTableRecord
  2
ACAD
 70
     0
  0
ENDTAB
  0
TABLE
  2
DIMSTYLE
  5
A
330
0
100
AcDbSymbolTable
 70
     1
  0
DIMSTYLE
105
27
102
{ACAD_REACTORS
330
294
330
2A1
330
2AE
330
2BB
330
2C8
330
2D5
330
2E2
330
2EF
330
2FC
330
308
330
315
330
322
330
32F
330
33C
330
348
330
359
330
365
102
}
330
A
100
AcDbSymbolTableRecord
100
AcDbDimStyleTableRecord
  2
ISO-25
 70
     0
  3

  4

  5

  6

  7

 40
1.0
 41
2.5
 42
0.625
 43
3.75
 44
1.25
 45
0.0
 46
0.0
 47
0.0
 48
0.0
140
2.5
141
2.5
142
0.0
143
0.03937007874016
144
1.0
145
0.0
146
1.0
147
0.625
 71
     0
 72
     0
 73
     0
 74
     0
 75
     0
 76
     0
 77
     1
 78
     8
170
     0
171
     3
172
     1
173
     0
174
     0
175
     0
176
     0
177
     0
178
     0
270
     2
271
     2
272
     2
273
     2
274
     3
340
11
275
     0
280
     0
281
     0
282
     0
283
     0
284
     8
285
     0
286
     0
287
     5
288
     0
  0
ENDTAB
  0
TABLE
  2
BLOCK_RECORD
  5
1
330
0
100
AcDbSymbolTable
 70
    32
  0
BLOCK_RECORD
  5
1F
330
1
100
AcDbSymbolTableRecord
100
AcDbBlockTableRecord
  2
*MODEL_SPACE
  0
BLOCK_RECORD
  5
1B
330
1
100
AcDbSymbolTableRecord
100
AcDbBlockTableRecord
  2
*PAPER_SPACE
  0
BLOCK_RECORD
  5
4D
330
1
100
AcDbSymbolTableRecord
100
AcDbBlockTableRecord
  2
EX_NORM
  0
BLOCK_RECORD
  5
50
330
1
100
AcDbSymbolTableRecord
100
AcDbBlockTableRecord
  2
EX_BNORM
  0
BLOCK_RECORD
  5
53
330
1
100
AcDbSymbolTableRecord
100
AcDbBlockTableRecord
  2
EX_BCIR
  0
BLOCK_RECORD
  5
56
330
1
100
AcDbSymbolTableRecord
100
AcDbBlockTableRecord
  2
EX_RCIVIL
  0
BLOCK_RECORD
  5
59
330
1
100
AcDbSymbolTableRecord
100
AcDbBlockTableRecord
  2
EX_SLANT
  0
BLOCK_RECORD
  5
5C
330
1
100
AcDbSymbolTableRecord
100
AcDbBlockTableRecord
  2
EX_NONE
  0
BLOCK_RECORD
  5
5F
330
1
100
AcDbSymbolTableRecord
100
AcDbBlockTableRecord
  2
EX_CIVIL
  0
BLOCK_RECORD
  5
62
330
1
100
AcDbSymbolTableRecord
100
AcDbBlockTableRecord
  2
EX_WCIR
  0
BLOCK_RECORD
  5
65
330
1
100
AcDbSymbolTableRecord
100
AcDbBlockTableRecord
  2
EX_WCIR2
  0
BLOCK_RECORD
  5
68
330
1
100
AcDbSymbolTableRecord
100
AcDbBlockTableRecord
  2
EX_WNORM
  0
BLOCK_RECORD
  5
6B
330
1
100
AcDbSymbolTableRecord
100
AcDbBlockTableRecord
  2
EX_NNORM
  0
BLOCK_RECORD
  5
6E
330
1
100
AcDbSymbolTableRecord
100
AcDbBlockTableRecord
  2
EX_BBOX
  0
BLOCK_RECORD
  5
71
330
1
100
AcDbSymbolTableRecord
100
AcDbBlockTableRecord
  2
EX_WBOX
  0
BLOCK_RECORD
  5
74
330
1
100
AcDbSymbolTableRecord
100
AcDbBlockTableRecord
  2
EX_INTEGRAL
  0
BLOCK_RECORD
  5
296
330
1
100
AcDbSymbolTableRecord
100
AcDbBlockTableRecord
  2
*D15
  0
BLOCK_RECORD
  5
2A2
330
1
100
AcDbSymbolTableRecord
100
AcDbBlockTableRecord
  2
*D16
  0
BLOCK_RECORD
  5
2AF
330
1
100
AcDbSymbolTableRecord
100
AcDbBlockTableRecord
  2
*D17
  0
BLOCK_RECORD
  5
2BC
330
1
100
AcDbSymbolTableRecord
100
AcDbBlockTableRecord
  2
*D18
  0
BLOCK_RECORD
  5
2C9
330
1
100
AcDbSymbolTableRecord
100
AcDbBlockTableRecord
  2
*D19
  0
BLOCK_RECORD
  5
2D6
330
1
100
AcDbSymbolTableRecord
100
AcDbBlockTableRecord
  2
*D20
  0
BLOCK_RECORD
  5
2E3
330
1
100
AcDbSymbolTableRecord
100
AcDbBlockTableRecord
  2
*D21
  0
BLOCK_RECORD
  5
2F0
330
1
100
AcDbSymbolTableRecord
100
AcDbBlockTableRecord
  2
*D22
  0
BLOCK_RECORD
  5
2FD
330
1
100
AcDbSymbolTableRecord
100
AcDbBlockTableRecord
  2
*D23
  0
BLOCK_RECORD
  5
309
330
1
100
AcDbSymbolTableRecord
100
AcDbBlockTableRecord
  2
*D24
  0
BLOCK_RECORD
  5
316
330
1
100
AcDbSymbolTableRecord
100
AcDbBlockTableRecord
  2
*D25
  0
BLOCK_RECORD
  5
323
330
1
100
AcDbSymbolTableRecord
100
AcDbBlockTableRecord
  2
*D26
  0
BLOCK_RECORD
  5
330
330
1
100
AcDbSymbolTableRecord
100
AcDbBlockTableRecord
  2
*D27
  0
BLOCK_RECORD
  5
33D
330
1
100
AcDbSymbolTableRecord
100
AcDbBlockTableRecord
  2
*D28
  0
BLOCK_RECORD
  5
349
330
1
100
AcDbSymbolTableRecord
100
AcDbBlockTableRecord
  2
*D29
  0
BLOCK_RECORD
  5
35A
330
1
100
AcDbSymbolTableRecord
100
AcDbBlockTableRecord
  2
*D30
  0
BLOCK_RECORD
  5
366
330
1
100
AcDbSymbolTableRecord
100
AcDbBlockTableRecord
  2
*D31
  0
ENDTAB
  0
ENDSEC
  0
SECTION
  2
BLOCKS
  0
BLOCK
  5
20
330
1F
100
AcDbEntity
  8
0
100
AcDbBlockBegin
  2
*MODEL_SPACE
 70
     0
 10
0.0
 20
0.0
 30
0.0
  3
*MODEL_SPACE
  1

  0
ENDBLK
  5
21
330
1F
100
AcDbEntity
  8
0
100
AcDbBlockEnd
  0
BLOCK
  5
1C
330
1B
100
AcDbEntity
 67
     1
  8
0
100
AcDbBlockBegin
  2
*PAPER_SPACE
 70
     0
 10
0.0
 20
0.0
 30
0.0
  3
*PAPER_SPACE
  1

  0
ENDBLK
  5
1D
330
1B
100
AcDbEntity
 67
     1
  8
0
100
AcDbBlockEnd
  0
BLOCK
  5
4E
330
4D
100
AcDbEntity
  8
0
100
AcDbBlockBegin
  2
EX_NORM
 70
     0
 10
0.0
 20
0.0
 30
0.0
  3
EX_NORM
  1

  0
LINE
  5
77
330
4D
100
AcDbEntity
  8
0
  6
CONTINUOUS
 62
     0
100
AcDbLine
 10
0.0
 20
0.0
 30
0.0
 11
-1.0
 21
0.0
 31
0.0
  0
LINE
  5
78
330
4D
100
AcDbEntity
  8
0
  6
CONTINUOUS
 62
     0
100
AcDbLine
 10
0.0
 20
0.0
 30
0.0
 11
-1.0
 21
0.166666667
 31
0.0
  0
LINE
  5
79
330
4D
100
AcDbEntity
  8
0
  6
CONTINUOUS
 62
     0
100
AcDbLine
 10
0.0
 20
0.0
 30
0.0
 11
-1.0
 21
-0.166666667
 31
0.0
  0
ENDBLK
  5
4F
330
4D
100
AcDbEntity
  8
0
100
AcDbBlockEnd
  0
BLOCK
  5
51
330
50
100
AcDbEntity
  8
0
100
AcDbBlockBegin
  2
EX_BNORM
 70
     0
 10
0.0
 20
0.0
 30
0.0
  3
EX_BNORM
  1

  0
LINE
  5
7A
330
50
100
AcDbEntity
  8
0
  6
CONTINUOUS
 62
     0
100
AcDbLine
 10
0.0
 20
0.0
 30
0.0
 11
-1.0
 21
0.0
 31
0.0
  0
LINE
  5
7B
330
50
100
AcDbEntity
  8
0
  6
CONTINUOUS
 62
     0
100
AcDbLine
 10
0.0
 20
0.0
 30
0.0
 11
-1.0
 21
0.166666667
 31
0.0
  0
LINE
  5
7C
330
50
100
AcDbEntity
  8
0
  6
CONTINUOUS
 62
     0
100
AcDbLine
 10
0.0
 20
0.0
 30
0.0
 11
-1.0
 21
-0.166666667
 31
0.0
  0
LINE
  5
7D
330
50
100
AcDbEntity
  8
0
  6
CONTINUOUS
 62
     0
100
AcDbLine
 10
0.0
 20
0.0
 30
0.0
 11
-1.0
 21
0.083333333
 31
0.0
  0
LINE
  5
7E
330
50
100
AcDbEntity
  8
0
  6
CONTINUOUS
 62
     0
100
AcDbLine
 10
0.0
 20
0.0
 30
0.0
 11
-1.0
 21
-0.083333333
 31
0.0
  0
LINE
  5
7F
330
50
100
AcDbEntity
  8
0
  6
CONTINUOUS
 62
     0
100
AcDbLine
 10
-1.0
 20
0.166666667
 30
0.0
 11
-1.0
 21
-0.166666667
 31
0.0
  0
ENDBLK
  5
52
330
50
100
AcDbEntity
  8
0
100
AcDbBlockEnd
  0
BLOCK
  5
54
330
53
100
AcDbEntity
  8
0
100
AcDbBlockBegin
  2
EX_BCIR
 70
     0
 10
0.0
 20
0.0
 30
0.0
  3
EX_BCIR
  1

  0
LINE
  5
80
330
53
100
AcDbEntity
  8
0
  6
CONTINUOUS
 62
     0
100
AcDbLine
 10
0.0
 20
0.0
 30
0.0
 11
-1.0
 21
0.0
 31
0.0
  0
CIRCLE
  5
81
330
53
100
AcDbEntity
  8
0
  6
CONTINUOUS
 62
     0
100
AcDbCircle
 10
0.0
 20
0.0
 30
0.0
 40
0.5
  0
CIRCLE
  5
82
330
53
100
AcDbEntity
  8
0
  6
CONTINUOUS
 62
     0
100
AcDbCircle
 10
0.0
 20
0.0
 30
0.0
 40
0.25
  0
ENDBLK
  5
55
330
53
100
AcDbEntity
  8
0
100
AcDbBlockEnd
  0
BLOCK
  5
57
330
56
100
AcDbEntity
  8
0
100
AcDbBlockBegin
  2
EX_RCIVIL
 70
     0
 10
0.0
 20
0.0
 30
0.0
  3
EX_RCIVIL
  1

  0
LINE
  5
83
330
56
100
AcDbEntity
  8
0
  6
CONTINUOUS
 62
     0
100
AcDbLine
 10
0.0
 20
0.0
 30
0.0
 11
-1.0
 21
0.0
 31
0.0
  0
LINE
  5
84
330
56
100
AcDbEntity
  8
0
  6
CONTINUOUS
 62
     0
100
AcDbLine
 10
-1.0
 20
-0.25
 30
0.0
 11
0.0
 21
-0.25
 31
0.0
  0
LINE
  5
85
330
56
100
AcDbEntity
  8
0
  6
CONTINUOUS
 62
     0
100
AcDbLine
 10
-1.0
 20
-0.125
 30
0.0
 11
0.0
 21
-0.125
 31
0.0
  0
ENDBLK
  5
58
330
56
100
AcDbEntity
  8
0
100
AcDbBlockEnd
  0
BLOCK
  5
5A
330
59
100
AcDbEntity
  8
0
100
AcDbBlockBegin
  2
EX_SLANT
 70
     0
 10
0.0
 20
0.0
 30
0.0
  3
EX_SLANT
  1

  0
LINE
  5
86
330
59
100
AcDbEntity
  8
0
  6
CONTINUOUS
 62
     0
100
AcDbLine
 10
0.0
 20
0.0
 30
0.0
 11
-1.0
 21
0.0
 31
0.0
  0
LINE
  5
87
330
59
100
AcDbEntity
  8
0
  6
CONTINUOUS
 62
     0
100
AcDbLine
 10
0.707106781
 20
0.707106781
 30
0.0
 11
-0.707106781
 21
-0.707106781
 31
0.0
  0
ENDBLK
  5
5B
330
59
100
AcDbEntity
  8
0
100
AcDbBlockEnd
  0
BLOCK
  5
5D
330
5C
100
AcDbEntity
  8
0
100
AcDbBlockBegin
  2
EX_NONE
 70
     0
 10
0.0
 20
0.0
 30
0.0
  3
EX_NONE
  1

  0
LINE
  5
88
330
5C
100
AcDbEntity
  8
0
  6
CONTINUOUS
 62
     0
100
AcDbLine
 10
0.0
 20
0.0
 30
0.0
 11
-1.0
 21
0.0
 31
0.0
  0
ENDBLK
  5
5E
330
5C
100
AcDbEntity
  8
0
100
AcDbBlockEnd
  0
BLOCK
  5
60
330
5F
100
AcDbEntity
  8
0
100
AcDbBlockBegin
  2
EX_CIVIL
 70
     0
 10
0.0
 20
0.0
 30
0.0
  3
EX_CIVIL
  1

  0
LINE
  5
89
330
5F
100
AcDbEntity
  8
0
  6
CONTINUOUS
 62
     0
100
AcDbLine
 10
0.0
 20
0.0
 30
0.0
 11
-1.0
 21
0.0
 31
0.0
  0
LINE
  5
8A
330
5F
100
AcDbEntity
  8
0
  6
CONTINUOUS
 62
     0
100
AcDbLine
 10
-1.0
 20
0.25
 30
0.0
 11
0.0
 21
0.25
 31
0.0
  0
LINE
  5
8B
330
5F
100
AcDbEntity
  8
0
  6
CONTINUOUS
 62
     0
100
AcDbLine
 10
-1.0
 20
0.125
 30
0.0
 11
0.0
 21
0.125
 31
0.0
  0
ENDBLK
  5
61
330
5F
100
AcDbEntity
  8
0
100
AcDbBlockEnd
  0
BLOCK
  5
63
330
62
100
AcDbEntity
  8
0
100
AcDbBlockBegin
  2
EX_WCIR
 70
     0
 10
0.0
 20
0.0
 30
0.0
  3
EX_WCIR
  1

  0
LINE
  5
8C
330
62
100
AcDbEntity
  8
0
  6
CONTINUOUS
 62
     0
100
AcDbLine
 10
0.0
 20
0.0
 30
0.0
 11
-1.0
 21
0.0
 31
0.0
  0
CIRCLE
  5
8D
330
62
100
AcDbEntity
  8
0
  6
CONTINUOUS
 62
     0
100
AcDbCircle
 10
0.0
 20
0.0
 30
0.0
 40
0.5
  0
ENDBLK
  5
64
330
62
100
AcDbEntity
  8
0
100
AcDbBlockEnd
  0
BLOCK
  5
66
330
65
100
AcDbEntity
  8
0
100
AcDbBlockBegin
  2
EX_WCIR2
 70
     0
 10
0.0
 20
0.0
 30
0.0
  3
EX_WCIR2
  1

  0
LINE
  5
8E
330
65
100
AcDbEntity
  8
0
  6
CONTINUOUS
 62
     0
100
AcDbLine
 10
-0.5
 20
0.0
 30
0.0
 11
-1.0
 21
0.0
 31
0.0
  0
CIRCLE
  5
8F
330
65
100
AcDbEntity
  8
0
  6
CONTINUOUS
 62
     0
100
AcDbCircle
 10
0.0
 20
0.0
 30
0.0
 40
0.5
  0
ENDBLK
  5
67
330
65
100
AcDbEntity
  8
0
100
AcDbBlockEnd
  0
BLOCK
  5
69
330
68
100
AcDbEntity
  8
0
100
AcDbBlockBegin
  2
EX_WNORM
 70
     0
 10
0.0
 20
0.0
 30
0.0
  3
EX_WNORM
  1

  0
LINE
  5
90
330
68
100
AcDbEntity
  8
0
  6
CONTINUOUS
 62
     0
100
AcDbLine
 10
-1.0
 20
0.0
 30
0.0
 11
-1.0
 21
0.0
 31
0.0
  0
LINE
  5
91
330
68
100
AcDbEntity
  8
0
  6
CONTINUOUS
 62
     0
100
AcDbLine
 10
0.0
 20
0.0
 30
0.0
 11
-1.0
 21
0.166666667
 31
0.0
  0
LINE
  5
92
330
68
100
AcDbEntity
  8
0
  6
CONTINUOUS
 62
     0
100
AcDbLine
 10
0.0
 20
0.0
 30
0.0
 11
-1.0
 21
-0.166666667
 31
0.0
  0
LINE
  5
93
330
68
100
AcDbEntity
  8
0
  6
CONTINUOUS
 62
     0
100
AcDbLine
 10
-1.0
 20
0.166666667
 30
0.0
 11
-1.0
 21
-0.166666667
 31
0.0
  0
ENDBLK
  5
6A
330
68
100
AcDbEntity
  8
0
100
AcDbBlockEnd
  0
BLOCK
  5
6C
330
6B
100
AcDbEntity
  8
0
100
AcDbBlockBegin
  2
EX_NNORM
 70
     0
 10
0.0
 20
0.0
 30
0.0
  3
EX_NNORM
  1

  0
LINE
  5
94
330
6B
100
AcDbEntity
  8
0
  6
CONTINUOUS
 62
     0
100
AcDbLine
 10
0.0
 20
0.0
 30
0.0
 11
-1.0
 21
0.0
 31
0.0
  0
LINE
  5
95
330
6B
100
AcDbEntity
  8
0
  6
CONTINUOUS
 62
     0
100
AcDbLine
 10
0.0
 20
0.0
 30
0.0
 11
-1.0
 21
0.166666667
 31
0.0
  0
LINE
  5
96
330
6B
100
AcDbEntity
  8
0
  6
CONTINUOUS
 62
     0
100
AcDbLine
 10
0.0
 20
0.0
 30
0.0
 11
-1.0
 21
-0.166666667
 31
0.0
  0
LINE
  5
97
330
6B
100
AcDbEntity
  8
0
  6
CONTINUOUS
 62
     0
100
AcDbLine
 10
-1.0
 20
0.166666667
 30
0.0
 11
-1.0
 21
-0.166666667
 31
0.0
  0
ENDBLK
  5
6D
330
6B
100
AcDbEntity
  8
0
100
AcDbBlockEnd
  0
BLOCK
  5
6F
330
6E
100
AcDbEntity
  8
0
100
AcDbBlockBegin
  2
EX_BBOX
 70
     0
 10
0.0
 20
0.0
 30
0.0
  3
EX_BBOX
  1

  0
LINE
  5
98
330
6E
100
AcDbEntity
  8
0
  6
CONTINUOUS
 62
     0
100
AcDbLine
 10
0.0
 20
0.0
 30
0.0
 11
-1.0
 21
0.0
 31
0.0
  0
LINE
  5
99
330
6E
100
AcDbEntity
  8
0
  6
CONTINUOUS
 62
     0
100
AcDbLine
 10
-0.5
 20
0.5
 30
0.0
 11
0.5
 21
0.5
 31
0.0
  0
LINE
  5
9A
330
6E
100
AcDbEntity
  8
0
  6
CONTINUOUS
 62
     0
100
AcDbLine
 10
0.5
 20
0.5
 30
0.0
 11
0.5
 21
-0.5
 31
0.0
  0
LINE
  5
9B
330
6E
100
AcDbEntity
  8
0
  6
CONTINUOUS
 62
     0
100
AcDbLine
 10
0.5
 20
-0.5
 30
0.0
 11
-0.5
 21
-0.5
 31
0.0
  0
LINE
  5
9C
330
6E
100
AcDbEntity
  8
0
  6
CONTINUOUS
 62
     0
100
AcDbLine
 10
-0.5
 20
-0.5
 30
0.0
 11
-0.5
 21
0.5
 31
0.0
  0
LINE
  5
9D
330
6E
100
AcDbEntity
  8
0
  6
CONTINUOUS
 62
     0
100
AcDbLine
 10
-0.25
 20
0.25
 30
0.0
 11
0.25
 21
0.25
 31
0.0
  0
LINE
  5
9E
330
6E
100
AcDbEntity
  8
0
  6
CONTINUOUS
 62
     0
100
AcDbLine
 10
0.25
 20
0.25
 30
0.0
 11
0.25
 21
-0.25
 31
0.0
  0
LINE
  5
9F
330
6E
100
AcDbEntity
  8
0
  6
CONTINUOUS
 62
     0
100
AcDbLine
 10
0.25
 20
-0.25
 30
0.0
 11
-0.25
 21
-0.25
 31
0.0
  0
LINE
  5
A0
330
6E
100
AcDbEntity
  8
0
  6
CONTINUOUS
 62
     0
100
AcDbLine
 10
-0.25
 20
-0.25
 30
0.0
 11
-0.25
 21
0.25
 31
0.0
  0
ENDBLK
  5
70
330
6E
100
AcDbEntity
  8
0
100
AcDbBlockEnd
  0
BLOCK
  5
72
330
71
100
AcDbEntity
  8
0
100
AcDbBlockBegin
  2
EX_WBOX
 70
     0
 10
0.0
 20
0.0
 30
0.0
  3
EX_WBOX
  1

  0
LINE
  5
A1
330
71
100
AcDbEntity
  8
0
  6
CONTINUOUS
 62
     0
100
AcDbLine
 10
-0.5
 20
0.0
 30
0.0
 11
-1.0
 21
0.0
 31
0.0
  0
LINE
  5
A2
330
71
100
AcDbEntity
  8
0
  6
CONTINUOUS
 62
     0
100
AcDbLine
 10
-0.5
 20
0.5
 30
0.0
 11
0.5
 21
0.5
 31
0.0
  0
LINE
  5
A3
330
71
100
AcDbEntity
  8
0
  6
CONTINUOUS
 62
     0
100
AcDbLine
 10
0.5
 20
0.5
 30
0.0
 11
0.5
 21
-0.5
 31
0.0
  0
LINE
  5
A4
330
71
100
AcDbEntity
  8
0
  6
CONTINUOUS
 62
     0
100
AcDbLine
 10
0.5
 20
-0.5
 30
0.0
 11
-0.5
 21
-0.5
 31
0.0
  0
LINE
  5
A5
330
71
100
AcDbEntity
  8
0
  6
CONTINUOUS
 62
     0
100
AcDbLine
 10
-0.5
 20
-0.5
 30
0.0
 11
-0.5
 21
0.5
 31
0.0
  0
ENDBLK
  5
73
330
71
100
AcDbEntity
  8
0
100
AcDbBlockEnd
  0
BLOCK
  5
75
330
74
100
AcDbEntity
  8
0
100
AcDbBlockBegin
  2
EX_INTEGRAL
 70
     0
 10
0.0
 20
0.0
 30
0.0
  3
EX_INTEGRAL
  1

  0
LINE
  5
A6
330
74
100
AcDbEntity
  8
0
  6
CONTINUOUS
 62
     0
100
AcDbLine
 10
0.0
 20
0.0
 30
0.0
 11
-1.0
 21
0.0
 31
0.0
  0
ARC
  5
A7
330
74
100
AcDbEntity
  8
0
  6
CONTINUOUS
 62
     0
100
AcDbCircle
 10
0.542115
 20
0.164992
 30
0.0
 40
0.56667
100
AcDbArc
 50
73.07249033629006
 51
196.9275130221199
  0
ARC
  5
A8
330
74
100
AcDbEntity
  8
0
  6
CONTINUOUS
 62
     0
100
AcDbCircle
 10
-0.542115
 20
-0.164992
 30
0.0
 40
0.56667
100
AcDbArc
 50
253.0724869220464
 51
16.9275130559125
  0
ENDBLK
  5
76
330
74
100
AcDbEntity
  8
0
100
AcDbBlockEnd
  0
BLOCK
  5
297
330
296
100
AcDbEntity
  8
0
100
AcDbBlockBegin
  2
*D15
 70
     1
 10
0.0
 20
0.0
 30
0.0
  3
*D15
  1

  0
LINE
  5
299
330
296
100
AcDbEntity
  8
寸法
  6
CONTINUOUS
 62
     3
100
AcDbLine
 10
1271.499999821232
 20
1619.5
 30
0.0
 11
1396.000000000055
 21
1619.5
 31
0.0
  0
LINE
  5
29A
330
296
100
AcDbEntity
  8
寸法
  6
CONTINUOUS
 62
     3
100
AcDbLine
 10
1381.000000000055
 20
964.4999961853028
 30
0.0
 11
1381.000000000055
 21
1574.500003814697
 31
0.0
  0
INSERT
  5
29B
330
296
100
AcDbEntity
  8
寸法
 62
     3
100
AcDbBlockReference
  2
EX_NORM
 10
1381.000000000055
 20
919.5000000000001
 30
0.0
 41
44.99999618530273
 42
44.99999618530273
 43
44.99999618530273
 50
270.0
  0
INSERT
  5
29C
330
296
100
AcDbEntity
  8
寸法
 62
     3
100
AcDbBlockReference
  2
EX_NORM
 10
1381.000000000055
 20
1619.5
 30
0.0
 41
44.99999618530273
 42
44.99999618530273
 43
44.99999618530273
 50
90.0
  0
MTEXT
  5
29D
330
296
100
AcDbEntity
  8
寸法
 62
     2
100
AcDbMText
 10
1345.75000008946
 20
1269.5
 30
0.0
 40
59.99999618530273
 41
0.0
 71
     5
 72
     1
  1
700
  7
EXCADDIM1
 11
0.0
 21
1.0
 31
0.0
  0
POINT
  5
29E
330
296
100
AcDbEntity
  8
DEFPOINTS
 62
     0
100
AcDbPoint
 10
1259.000000000046
 20
919.5
 30
0.0
  0
POINT
  5
29F
330
296
100
AcDbEntity
  8
DEFPOINTS
 62
     0
100
AcDbPoint
 10
1261.000000000046
 20
1619.5
 30
0.0
  0
POINT
  5
2A0
330
296
100
AcDbEntity
  8
DEFPOINTS
 62
     0
100
AcDbPoint
 10
1381.000000000055
 20
1619.5
 30
0.0
  0
ENDBLK
  5
298
330
296
100
AcDbEntity
  8
0
100
AcDbBlockEnd
  0
BLOCK
  5
2A3
330
2A2
100
AcDbEntity
  8
0
100
AcDbBlockBegin
  2
*D16
 70
     1
 10
0.0
 20
0.0
 30
0.0
  3
*D16
  1

  0
LINE
  5
2A5
330
2A2
100
AcDbEntity
  8
寸法
  6
CONTINUOUS
 62
     3
100
AcDbLine
 10
961.0000000000477
 20
909.000000178813
 30
0.0
 11
961.0000000000477
 21
694.4999999999945
 31
0.0
  0
LINE
  5
2A6
330
2A2
100
AcDbEntity
  8
寸法
  6
CONTINUOUS
 62
     3
100
AcDbLine
 10
1161.000000000048
 20
859.000000178693
 30
0.0
 11
1161.000000000048
 21
694.4999999999945
 31
0.0
  0
LINE
  5
2A7
330
2A2
100
AcDbEntity
  8
寸法
  6
CONTINUOUS
 62
     3
100
AcDbLine
 10
1005.99999618535
 20
709.4999999999945
 30
0.0
 11
1116.000003814745
 21
709.4999999999945
 31
0.0
  0
INSERT
  5
2A8
330
2A2
100
AcDbEntity
  8
寸法
 62
     3
100
AcDbBlockReference
  2
EX_NORM
 10
961.0000000000477
 20
709.4999999999945
 30
0.0
 41
44.99999618530273
 42
44.99999618530273
 43
44.99999618530273
 50
180.0
  0
INSERT
  5
2A9
330
2A2
100
AcDbEntity
  8
寸法
 62
     3
100
AcDbBlockReference
  2
EX_NORM
 10
1161.000000000048
 20
709.4999999999945
 30
0.0
 41
44.99999618530273
 42
44.99999618530273
 43
44.99999618530273
  0
MTEXT
  5
2AA
330
2A2
100
AcDbEntity
  8
寸法
 62
     2
100
AcDbMText
 10
728.5000000000477
 20
744.7499999105876
 30
0.0
 40
59.99999618530273
 41
0.0
 71
     5
 72
     1
  1
200（床排水）
  7
EXCADDIM1
  0
POINT
  5
2AB
330
2A2
100
AcDbEntity
  8
DEFPOINTS
 62
     0
100
AcDbPoint
 10
961.0000000000477
 20
919.4999999999991
 30
0.0
  0
POINT
  5
2AC
330
2A2
100
AcDbEntity
  8
DEFPOINTS
 62
     0
100
AcDbPoint
 10
1161.000000000048
 20
869.499999999879
 30
0.0
  0
POINT
  5
2AD
330
2A2
100
AcDbEntity
  8
DEFPOINTS
 62
     0
100
AcDbPoint
 10
1161.000000000048
 20
709.4999999999945
 30
0.0
  0
ENDBLK
  5
2A4
330
2A2
100
AcDbEntity
  8
0
100
AcDbBlockEnd
  0
BLOCK
  5
2B0
330
2AF
100
AcDbEntity
  8
0
100
AcDbBlockBegin
  2
*D17
 70
     1
 10
0.0
 20
0.0
 30
0.0
  3
*D17
  1

  0
LINE
  5
2B2
330
2AF
100
AcDbEntity
  8
寸法
  6
CONTINUOUS
 62
     3
100
AcDbLine
 10
881.0000000000477
 20
901.0000001788139
 30
0.0
 11
881.0000000000477
 21
784.4999999999945
 31
0.0
  0
LINE
  5
2B3
330
2AF
100
AcDbEntity
  8
寸法
  6
CONTINUOUS
 62
     3
100
AcDbLine
 10
1041.000000000048
 20
901.0000001788139
 30
0.0
 11
1041.000000000048
 21
784.4999999999945
 31
0.0
  0
LINE
  5
2B4
330
2AF
100
AcDbEntity
  8
寸法
  6
CONTINUOUS
 62
     3
100
AcDbLine
 10
925.9999961853505
 20
799.4999999999945
 30
0.0
 11
996.000003814745
 21
799.4999999999945
 31
0.0
  0
INSERT
  5
2B5
330
2AF
100
AcDbEntity
  8
寸法
 62
     3
100
AcDbBlockReference
  2
EX_NORM
 10
881.0000000000477
 20
799.4999999999945
 30
0.0
 41
44.99999618530273
 42
44.99999618530273
 43
44.99999618530273
 50
180.0
  0
INSERT
  5
2B6
330
2AF
100
AcDbEntity
  8
寸法
 62
     3
100
AcDbBlockReference
  2
EX_NORM
 10
1041.000000000048
 20
799.4999999999945
 30
0.0
 41
44.99999618530273
 42
44.99999618530273
 43
44.99999618530273
  0
MTEXT
  5
2B7
330
2AF
100
AcDbEntity
  8
寸法
 62
     2
100
AcDbMText
 10
648.5000000000476
 20
834.7499999105876
 30
0.0
 40
59.99999618530273
 41
0.0
 71
     5
 72
     1
  1
160（床給水）
  7
EXCADDIM1
  0
POINT
  5
2B8
330
2AF
100
AcDbEntity
  8
DEFPOINTS
 62
     0
100
AcDbPoint
 10
881.0000000000477
 20
911.5
 30
0.0
  0
POINT
  5
2B9
330
2AF
100
AcDbEntity
  8
DEFPOINTS
 62
     0
100
AcDbPoint
 10
1041.000000000048
 20
911.5
 30
0.0
  0
POINT
  5
2BA
330
2AF
100
AcDbEntity
  8
DEFPOINTS
 62
     0
100
AcDbPoint
 10
1041.000000000048
 20
799.4999999999945
 30
0.0
  0
ENDBLK
  5
2B1
330
2AF
100
AcDbEntity
  8
0
100
AcDbBlockEnd
  0
BLOCK
  5
2BD
330
2BC
100
AcDbEntity
  8
0
100
AcDbBlockBegin
  2
*D18
 70
     1
 10
0.0
 20
0.0
 30
0.0
  3
*D18
  1

  0
LINE
  5
2BF
330
2BC
100
AcDbEntity
  8
寸法
  6
CONTINUOUS
 62
     3
100
AcDbLine
 10
781.0000000000277
 20
1485.200000178913
 30
0.0
 11
781.0000000000277
 21
1208.5
 31
0.0
  0
LINE
  5
2C0
330
2BC
100
AcDbEntity
  8
寸法
  6
CONTINUOUS
 62
     3
100
AcDbLine
 10
1141.000000000048
 20
1485.200000178913
 30
0.0
 11
1141.000000000048
 21
1208.5
 31
0.0
  0
LINE
  5
2C1
330
2BC
100
AcDbEntity
  8
寸法
  6
CONTINUOUS
 62
     3
100
AcDbLine
 10
825.9999961853305
 20
1223.5
 30
0.0
 11
1096.000003814745
 21
1223.5
 31
0.0
  0
INSERT
  5
2C2
330
2BC
100
AcDbEntity
  8
寸法
 62
     3
100
AcDbBlockReference
  2
EX_NORM
 10
781.0000000000277
 20
1223.5
 30
0.0
 41
44.99999618530273
 42
44.99999618530273
 43
44.99999618530273
 50
180.0
  0
INSERT
  5
2C3
330
2BC
100
AcDbEntity
  8
寸法
 62
     3
100
AcDbBlockReference
  2
EX_NORM
 10
1141.000000000048
 20
1223.5
 30
0.0
 41
44.99999618530273
 42
44.99999618530273
 43
44.99999618530273
  0
MTEXT
  5
2C4
330
2BC
100
AcDbEntity
  8
寸法
 62
     2
100
AcDbMText
 10
971.0000000000375
 20
1258.749999910593
 30
0.0
 40
59.99999618530273
 41
0.0
 71
     5
 72
     1
  1
360（壁固定）
  7
EXCADDIM1
  0
POINT
  5
2C5
330
2BC
100
AcDbEntity
  8
DEFPOINTS
 62
     0
100
AcDbPoint
 10
781.0000000000277
 20
1495.700000000099
 30
0.0
  0
POINT
  5
2C6
330
2BC
100
AcDbEntity
  8
DEFPOINTS
 62
     0
100
AcDbPoint
 10
1141.000000000048
 20
1495.700000000099
 30
0.0
  0
POINT
  5
2C7
330
2BC
100
AcDbEntity
  8
DEFPOINTS
 62
     0
100
AcDbPoint
 10
1141.000000000048
 20
1223.5
 30
0.0
  0
ENDBLK
  5
2BE
330
2BC
100
AcDbEntity
  8
0
100
AcDbBlockEnd
  0
BLOCK
  5
2CA
330
2C9
100
AcDbEntity
  8
0
100
AcDbBlockBegin
  2
*D19
 70
     1
 10
0.0
 20
0.0
 30
0.0
  3
*D19
  1

  0
LINE
  5
2CC
330
2C9
100
AcDbEntity
  8
寸法
  6
CONTINUOUS
 62
     3
100
AcDbLine
 10
2391.000000000051
 20
859.000000178693
 30
0.0
 11
2391.000000000051
 21
694.5
 31
0.0
  0
LINE
  5
2CD
330
2C9
100
AcDbEntity
  8
寸法
  6
CONTINUOUS
 62
     3
100
AcDbLine
 10
2491.00000000005
 20
909.000000178813
 30
0.0
 11
2491.00000000005
 21
694.5
 31
0.0
  0
LINE
  5
2CE
330
2C9
100
AcDbEntity
  8
寸法
  6
CONTINUOUS
 62
     3
100
AcDbLine
 10
2435.999996185354
 20
709.5
 30
0.0
 11
2446.000003814747
 21
709.5
 31
0.0
  0
INSERT
  5
2CF
330
2C9
100
AcDbEntity
  8
寸法
 62
     3
100
AcDbBlockReference
  2
EX_NORM
 10
2391.000000000051
 20
709.5
 30
0.0
 41
44.99999618530273
 42
44.99999618530273
 43
44.99999618530273
 50
180.0
  0
INSERT
  5
2D0
330
2C9
100
AcDbEntity
  8
寸法
 62
     3
100
AcDbBlockReference
  2
EX_NORM
 10
2491.00000000005
 20
709.5
 30
0.0
 41
44.99999618530273
 42
44.99999618530273
 43
44.99999618530273
  0
MTEXT
  5
2D1
330
2C9
100
AcDbEntity
  8
寸法
 62
     2
100
AcDbMText
 10
2723.50000000005
 20
744.749999910593
 30
0.0
 40
59.99999618530273
 41
0.0
 71
     5
 72
     1
  1
100（床排水）
  7
EXCADDIM1
  0
POINT
  5
2D2
330
2C9
100
AcDbEntity
  8
DEFPOINTS
 62
     0
100
AcDbPoint
 10
2391.000000000051
 20
869.499999999879
 30
0.0
  0
POINT
  5
2D3
330
2C9
100
AcDbEntity
  8
DEFPOINTS
 62
     0
100
AcDbPoint
 10
2491.00000000005
 20
919.4999999999991
 30
0.0
  0
POINT
  5
2D4
330
2C9
100
AcDbEntity
  8
DEFPOINTS
 62
     0
100
AcDbPoint
 10
2491.00000000005
 20
709.5
 30
0.0
  0
ENDBLK
  5
2CB
330
2C9
100
AcDbEntity
  8
0
100
AcDbBlockEnd
  0
BLOCK
  5
2D7
330
2D6
100
AcDbEntity
  8
0
100
AcDbBlockBegin
  2
*D20
 70
     1
 10
0.0
 20
0.0
 30
0.0
  3
*D20
  1

  0
LINE
  5
2D9
330
2D6
100
AcDbEntity
  8
寸法
  6
CONTINUOUS
 62
     3
100
AcDbLine
 10
2501.499999821236
 20
919.5
 30
0.0
 11
2806.00000000006
 21
919.4999999999999
 31
0.0
  0
LINE
  5
2DA
330
2D6
100
AcDbEntity
  8
寸法
  6
CONTINUOUS
 62
     3
100
AcDbLine
 10
2534.000005543136
 20
1499.5
 30
0.0
 11
2806.00000000006
 21
1499.5
 31
0.0
  0
LINE
  5
2DB
330
2D6
100
AcDbEntity
  8
寸法
  6
CONTINUOUS
 62
     3
100
AcDbLine
 10
2791.00000000006
 20
964.4999961853026
 30
0.0
 11
2791.00000000006
 21
1454.500003814697
 31
0.0
  0
INSERT
  5
2DC
330
2D6
100
AcDbEntity
  8
寸法
 62
     3
100
AcDbBlockReference
  2
EX_NORM
 10
2791.00000000006
 20
919.4999999999999
 30
0.0
 41
44.99999618530273
 42
44.99999618530273
 43
44.99999618530273
 50
270.0
  0
INSERT
  5
2DD
330
2D6
100
AcDbEntity
  8
寸法
 62
     3
100
AcDbBlockReference
  2
EX_NORM
 10
2791.00000000006
 20
1499.5
 30
0.0
 41
44.99999618530273
 42
44.99999618530273
 43
44.99999618530273
 50
90.0
  0
MTEXT
  5
2DE
330
2D6
100
AcDbEntity
  8
寸法
 62
     2
100
AcDbMText
 10
2755.750000089466
 20
1209.499999999998
 30
0.0
 40
59.99999618530273
 41
0.0
 71
     5
 72
     1
  1
580（壁固定）
  7
EXCADDIM1
 11
0.0
 21
1.0
 31
0.0
  0
POINT
  5
2DF
330
2D6
100
AcDbEntity
  8
DEFPOINTS
 62
     0
100
AcDbPoint
 10
2491.00000000005
 20
919.5
 30
0.0
  0
POINT
  5
2E0
330
2D6
100
AcDbEntity
  8
DEFPOINTS
 62
     0
100
AcDbPoint
 10
2523.50000572195
 20
1499.5
 30
0.0
  0
POINT
  5
2E1
330
2D6
100
AcDbEntity
  8
DEFPOINTS
 62
     0
100
AcDbPoint
 10
2791.00000000006
 20
1499.5
 30
0.0
  0
ENDBLK
  5
2D8
330
2D6
100
AcDbEntity
  8
0
100
AcDbBlockEnd
  0
BLOCK
  5
2E4
330
2E3
100
AcDbEntity
  8
0
100
AcDbBlockBegin
  2
*D21
 70
     1
 10
0.0
 20
0.0
 30
0.0
  3
*D21
  1

  0
LINE
  5
2E6
330
2E3
100
AcDbEntity
  8
寸法
  6
CONTINUOUS
 62
     3
100
AcDbLine
 10
961.0000000000477
 20
3179.999999821186
 30
0.0
 11
961.0000000000477
 21
3364.5
 31
0.0
  0
LINE
  5
2E7
330
2E3
100
AcDbEntity
  8
寸法
  6
CONTINUOUS
 62
     3
100
AcDbLine
 10
1161.000000000048
 20
3229.999999821186
 30
0.0
 11
1161.000000000048
 21
3364.5
 31
0.0
  0
LINE
  5
2E8
330
2E3
100
AcDbEntity
  8
寸法
  6
CONTINUOUS
 62
     3
100
AcDbLine
 10
1005.99999618535
 20
3349.5
 30
0.0
 11
1116.000003814745
 21
3349.5
 31
0.0
  0
INSERT
  5
2E9
330
2E3
100
AcDbEntity
  8
寸法
 62
     3
100
AcDbBlockReference
  2
EX_NORM
 10
961.0000000000477
 20
3349.5
 30
0.0
 41
44.99999618530273
 42
44.99999618530273
 43
44.99999618530273
 50
180.0
  0
INSERT
  5
2EA
330
2E3
100
AcDbEntity
  8
寸法
 62
     3
100
AcDbBlockReference
  2
EX_NORM
 10
1161.000000000048
 20
3349.5
 30
0.0
 41
44.99999618530273
 42
44.99999618530273
 43
44.99999618530273
  0
MTEXT
  5
2EB
330
2E3
100
AcDbEntity
  8
寸法
 62
     2
100
AcDbMText
 10
728.5000000000479
 20
3384.749999910593
 30
0.0
 40
59.99999618530273
 41
0.0
 71
     5
 72
     1
  1
200（壁排水）
  7
EXCADDIM1
  0
POINT
  5
2EC
330
2E3
100
AcDbEntity
  8
DEFPOINTS
 62
     0
100
AcDbPoint
 10
961.0000000000477
 20
3169.5
 30
0.0
  0
POINT
  5
2ED
330
2E3
100
AcDbEntity
  8
DEFPOINTS
 62
     0
100
AcDbPoint
 10
1161.000000000048
 20
3219.5
 30
0.0
  0
POINT
  5
2EE
330
2E3
100
AcDbEntity
  8
DEFPOINTS
 62
     0
100
AcDbPoint
 10
1161.000000000048
 20
3349.5
 30
0.0
  0
ENDBLK
  5
2E5
330
2E3
100
AcDbEntity
  8
0
100
AcDbBlockEnd
  0
BLOCK
  5
2F1
330
2F0
100
AcDbEntity
  8
0
100
AcDbBlockBegin
  2
*D22
 70
     1
 10
0.0
 20
0.0
 30
0.0
  3
*D22
  1

  0
LINE
  5
2F3
330
2F0
100
AcDbEntity
  8
寸法
  6
CONTINUOUS
 62
     3
100
AcDbLine
 10
861.0000000000496
 20
3187.999999821186
 30
0.0
 11
861.0000000000496
 21
3274.5
 31
0.0
  0
LINE
  5
2F4
330
2F0
100
AcDbEntity
  8
寸法
  6
CONTINUOUS
 62
     3
100
AcDbLine
 10
1061.000000000048
 20
3193.499999821186
 30
0.0
 11
1061.000000000048
 21
3274.5
 31
0.0
  0
LINE
  5
2F5
330
2F0
100
AcDbEntity
  8
寸法
  6
CONTINUOUS
 62
     3
100
AcDbLine
 10
905.9999961853523
 20
3259.5
 30
0.0
 11
1016.000003814745
 21
3259.5
 31
0.0
  0
INSERT
  5
2F6
330
2F0
100
AcDbEntity
  8
寸法
 62
     3
100
AcDbBlockReference
  2
EX_NORM
 10
861.0000000000496
 20
3259.5
 30
0.0
 41
44.99999618530273
 42
44.99999618530273
 43
44.99999618530273
 50
180.0
  0
INSERT
  5
2F7
330
2F0
100
AcDbEntity
  8
寸法
 62
     3
100
AcDbBlockReference
  2
EX_NORM
 10
1061.000000000048
 20
3259.5
 30
0.0
 41
44.99999618530273
 42
44.99999618530273
 43
44.99999618530273
  0
MTEXT
  5
2F8
330
2F0
100
AcDbEntity
  8
寸法
 62
     2
100
AcDbMText
 10
628.5000000000497
 20
3294.749999910593
 30
0.0
 40
59.99999618530273
 41
0.0
 71
     5
 72
     1
  1
200（壁給水）
  7
EXCADDIM1
  0
POINT
  5
2F9
330
2F0
100
AcDbEntity
  8
DEFPOINTS
 62
     0
100
AcDbPoint
 10
861.0000000000496
 20
3177.5
 30
0.0
  0
POINT
  5
2FA
330
2F0
100
AcDbEntity
  8
DEFPOINTS
 62
     0
100
AcDbPoint
 10
1061.000000000048
 20
3183.0
 30
0.0
  0
POINT
  5
2FB
330
2F0
100
AcDbEntity
  8
DEFPOINTS
 62
     0
100
AcDbPoint
 10
1061.000000000048
 20
3259.5
 30
0.0
  0
ENDBLK
  5
2F2
330
2F0
100
AcDbEntity
  8
0
100
AcDbBlockEnd
  0
BLOCK
  5
2FE
330
2FD
100
AcDbEntity
  8
0
100
AcDbBlockBegin
  2
*D23
 70
     1
 10
0.0
 20
0.0
 30
0.0
  3
*D23
  1

  0
LINE
  5
300
330
2FD
100
AcDbEntity
  8
寸法
  6
CONTINUOUS
 62
     3
100
AcDbLine
 10
1271.499999821232
 20
2719.5
 30
0.0
 11
1396.000000000055
 21
2719.5
 31
0.0
  0
LINE
  5
301
330
2FD
100
AcDbEntity
  8
寸法
  6
CONTINUOUS
 62
     3
100
AcDbLine
 10
1381.000000000055
 20
3124.500003814697
 30
0.0
 11
1381.000000000055
 21
2764.499996185303
 31
0.0
  0
INSERT
  5
302
330
2FD
100
AcDbEntity
  8
寸法
 62
     3
100
AcDbBlockReference
  2
EX_NORM
 10
1381.000000000055
 20
3169.5
 30
0.0
 41
44.99999618530273
 42
44.99999618530273
 43
44.99999618530273
 50
90.0
  0
INSERT
  5
303
330
2FD
100
AcDbEntity
  8
寸法
 62
     3
100
AcDbBlockReference
  2
EX_NORM
 10
1381.000000000055
 20
2719.5
 30
0.0
 41
44.99999618530273
 42
44.99999618530273
 43
44.99999618530273
 50
270.0
  0
MTEXT
  5
304
330
2FD
100
AcDbEntity
  8
寸法
 62
     2
100
AcDbMText
 10
1345.750000089464
 20
2944.5
 30
0.0
 40
59.99999618530273
 41
0.0
 71
     5
 72
     1
  1
450
  7
EXCADDIM1
 11
0.0
 21
1.0
 31
0.0
  0
POINT
  5
305
330
2FD
100
AcDbEntity
  8
DEFPOINTS
 62
     0
100
AcDbPoint
 10
1261.000000000046
 20
3169.5
 30
0.0
  0
POINT
  5
306
330
2FD
100
AcDbEntity
  8
DEFPOINTS
 62
     0
100
AcDbPoint
 10
1261.000000000046
 20
2719.5
 30
0.0
  0
POINT
  5
307
330
2FD
100
AcDbEntity
  8
DEFPOINTS
 62
     0
100
AcDbPoint
 10
1381.000000000055
 20
2719.5
 30
0.0
  0
ENDBLK
  5
2FF
330
2FD
100
AcDbEntity
  8
0
100
AcDbBlockEnd
  0
BLOCK
  5
30A
330
309
100
AcDbEntity
  8
0
100
AcDbBlockBegin
  2
*D24
 70
     1
 10
0.0
 20
0.0
 30
0.0
  3
*D24
  1

  0
LINE
  5
30C
330
309
100
AcDbEntity
  8
寸法
  6
CONTINUOUS
 62
     3
100
AcDbLine
 10
661.0000000000477
 20
2709.000000178814
 30
0.0
 11
661.0000000000477
 21
2444.5
 31
0.0
  0
LINE
  5
30D
330
309
100
AcDbEntity
  8
寸法
  6
CONTINUOUS
 62
     3
100
AcDbLine
 10
1261.000000000046
 20
2709.000000178814
 30
0.0
 11
1261.000000000046
 21
2444.5
 31
0.0
  0
LINE
  5
30E
330
309
100
AcDbEntity
  8
寸法
  6
CONTINUOUS
 62
     3
100
AcDbLine
 10
705.9999961853505
 20
2459.5
 30
0.0
 11
1216.000003814743
 21
2459.5
 31
0.0
  0
INSERT
  5
30F
330
309
100
AcDbEntity
  8
寸法
 62
     3
100
AcDbBlockReference
  2
EX_NORM
 10
661.0000000000477
 20
2459.5
 30
0.0
 41
44.99999618530273
 42
44.99999618530273
 43
44.99999618530273
 50
180.0
  0
INSERT
  5
310
330
309
100
AcDbEntity
  8
寸法
 62
     3
100
AcDbBlockReference
  2
EX_NORM
 10
1261.000000000046
 20
2459.5
 30
0.0
 41
44.99999618530273
 42
44.99999618530273
 43
44.99999618530273
  0
MTEXT
  5
311
330
309
100
AcDbEntity
  8
寸法
 62
     2
100
AcDbMText
 10
961.0000000000471
 20
2494.749999910593
 30
0.0
 40
59.99999618530273
 41
0.0
 71
     5
 72
     1
  1
600
  7
EXCADDIM1
  0
POINT
  5
312
330
309
100
AcDbEntity
  8
DEFPOINTS
 62
     0
100
AcDbPoint
 10
661.0000000000477
 20
2719.5
 30
0.0
  0
POINT
  5
313
330
309
100
AcDbEntity
  8
DEFPOINTS
 62
     0
100
AcDbPoint
 10
1261.000000000046
 20
2719.5
 30
0.0
  0
POINT
  5
314
330
309
100
AcDbEntity
  8
DEFPOINTS
 62
     0
100
AcDbPoint
 10
1261.000000000046
 20
2459.5
 30
0.0
  0
ENDBLK
  5
30B
330
309
100
AcDbEntity
  8
0
100
AcDbBlockEnd
  0
BLOCK
  5
317
330
316
100
AcDbEntity
  8
0
100
AcDbBlockBegin
  2
*D25
 70
     1
 10
0.0
 20
0.0
 30
0.0
  3
*D25
  1

  0
LINE
  5
319
330
316
100
AcDbEntity
  8
寸法
  6
CONTINUOUS
 62
     3
100
AcDbLine
 10
2501.499999821247
 20
919.5
 30
0.0
 11
2626.00000000006
 21
919.4999999999999
 31
0.0
  0
LINE
  5
31A
330
316
100
AcDbEntity
  8
寸法
  6
CONTINUOUS
 62
     3
100
AcDbLine
 10
2509.499999821247
 20
1379.5
 30
0.0
 11
2626.00000000006
 21
1379.5
 31
0.0
  0
LINE
  5
31B
330
316
100
AcDbEntity
  8
寸法
  6
CONTINUOUS
 62
     3
100
AcDbLine
 10
2611.00000000006
 20
964.4999961853026
 30
0.0
 11
2611.00000000006
 21
1334.500003814697
 31
0.0
  0
INSERT
  5
31C
330
316
100
AcDbEntity
  8
寸法
 62
     3
100
AcDbBlockReference
  2
EX_NORM
 10
2611.00000000006
 20
919.4999999999999
 30
0.0
 41
44.99999618530273
 42
44.99999618530273
 43
44.99999618530273
 50
270.0
  0
INSERT
  5
31D
330
316
100
AcDbEntity
  8
寸法
 62
     3
100
AcDbBlockReference
  2
EX_NORM
 10
2611.00000000006
 20
1379.5
 30
0.0
 41
44.99999618530273
 42
44.99999618530273
 43
44.99999618530273
 50
90.0
  0
MTEXT
  5
31E
330
316
100
AcDbEntity
  8
寸法
 62
     2
100
AcDbMText
 10
2575.750000089466
 20
1149.5
 30
0.0
 40
59.99999618530273
 41
0.0
 71
     5
 72
     1
  1
460（壁給水）
  7
EXCADDIM1
 11
0.0
 21
1.0
 31
0.0
  0
POINT
  5
31F
330
316
100
AcDbEntity
  8
DEFPOINTS
 62
     0
100
AcDbPoint
 10
2491.00000000006
 20
919.5
 30
0.0
  0
POINT
  5
320
330
316
100
AcDbEntity
  8
DEFPOINTS
 62
     0
100
AcDbPoint
 10
2499.00000000006
 20
1379.5
 30
0.0
  0
POINT
  5
321
330
316
100
AcDbEntity
  8
DEFPOINTS
 62
     0
100
AcDbPoint
 10
2611.00000000006
 20
1379.5
 30
0.0
  0
ENDBLK
  5
318
330
316
100
AcDbEntity
  8
0
100
AcDbBlockEnd
  0
BLOCK
  5
324
330
323
100
AcDbEntity
  8
0
100
AcDbBlockBegin
  2
*D26
 70
     1
 10
0.0
 20
0.0
 30
0.0
  3
*D26
  1

  0
LINE
  5
326
330
323
100
AcDbEntity
  8
寸法
  6
CONTINUOUS
 62
     3
100
AcDbLine
 10
2501.499999821247
 20
919.5
 30
0.0
 11
2716.00000000006
 21
919.4999999999999
 31
0.0
  0
LINE
  5
327
330
323
100
AcDbEntity
  8
寸法
  6
CONTINUOUS
 62
     3
100
AcDbLine
 10
2551.499999821247
 20
1389.5
 30
0.0
 11
2716.00000000006
 21
1389.5
 31
0.0
  0
LINE
  5
328
330
323
100
AcDbEntity
  8
寸法
  6
CONTINUOUS
 62
     3
100
AcDbLine
 10
2701.00000000006
 20
964.4999961853026
 30
0.0
 11
2701.00000000006
 21
1344.500003814697
 31
0.0
  0
INSERT
  5
329
330
323
100
AcDbEntity
  8
寸法
 62
     3
100
AcDbBlockReference
  2
EX_NORM
 10
2701.00000000006
 20
919.4999999999999
 30
0.0
 41
44.99999618530273
 42
44.99999618530273
 43
44.99999618530273
 50
270.0
  0
INSERT
  5
32A
330
323
100
AcDbEntity
  8
寸法
 62
     3
100
AcDbBlockReference
  2
EX_NORM
 10
2701.00000000006
 20
1389.5
 30
0.0
 41
44.99999618530273
 42
44.99999618530273
 43
44.99999618530273
 50
90.0
  0
MTEXT
  5
32B
330
323
100
AcDbEntity
  8
寸法
 62
     2
100
AcDbMText
 10
2665.750000089466
 20
1154.5
 30
0.0
 40
59.99999618530273
 41
0.0
 71
     5
 72
     1
  1
470（壁排水）
  7
EXCADDIM1
 11
0.0
 21
1.0
 31
0.0
  0
POINT
  5
32C
330
323
100
AcDbEntity
  8
DEFPOINTS
 62
     0
100
AcDbPoint
 10
2491.00000000006
 20
919.5
 30
0.0
  0
POINT
  5
32D
330
323
100
AcDbEntity
  8
DEFPOINTS
 62
     0
100
AcDbPoint
 10
2541.00000000006
 20
1389.5
 30
0.0
  0
POINT
  5
32E
330
323
100
AcDbEntity
  8
DEFPOINTS
 62
     0
100
AcDbPoint
 10
2701.00000000006
 20
1389.5
 30
0.0
  0
ENDBLK
  5
325
330
323
100
AcDbEntity
  8
0
100
AcDbBlockEnd
  0
BLOCK
  5
331
330
330
100
AcDbEntity
  8
0
100
AcDbBlockBegin
  2
*D27
 70
     1
 10
0.0
 20
0.0
 30
0.0
  3
*D27
  1

  0
LINE
  5
333
330
330
100
AcDbEntity
  8
寸法
  6
CONTINUOUS
 62
     3
100
AcDbLine
 10
736.0000000000568
 20
2904.500000178814
 30
0.0
 11
736.0000000000568
 21
2534.5
 31
0.0
  0
LINE
  5
334
330
330
100
AcDbEntity
  8
寸法
  6
CONTINUOUS
 62
     3
100
AcDbLine
 10
1186.000000000057
 20
2904.500000178814
 30
0.0
 11
1186.000000000057
 21
2534.5
 31
0.0
  0
LINE
  5
335
330
330
100
AcDbEntity
  8
寸法
  6
CONTINUOUS
 62
     3
100
AcDbLine
 10
780.9999961853596
 20
2549.5
 30
0.0
 11
1141.000003814754
 21
2549.5
 31
0.0
  0
INSERT
  5
336
330
330
100
AcDbEntity
  8
寸法
 62
     3
100
AcDbBlockReference
  2
EX_NORM
 10
736.0000000000568
 20
2549.5
 30
0.0
 41
44.99999618530273
 42
44.99999618530273
 43
44.99999618530273
 50
180.0
  0
INSERT
  5
337
330
330
100
AcDbEntity
  8
寸法
 62
     3
100
AcDbBlockReference
  2
EX_NORM
 10
1186.000000000057
 20
2549.5
 30
0.0
 41
44.99999618530273
 42
44.99999618530273
 43
44.99999618530273
  0
MTEXT
  5
338
330
330
100
AcDbEntity
  8
寸法
 62
     2
100
AcDbMText
 10
961.0000000000571
 20
2584.749999910593
 30
0.0
 40
59.99999618530273
 41
0.0
 71
     5
 72
     1
  1
450
  7
EXCADDIM1
  0
POINT
  5
339
330
330
100
AcDbEntity
  8
DEFPOINTS
 62
     0
100
AcDbPoint
 10
736.0000000000568
 20
2915.0
 30
0.0
  0
POINT
  5
33A
330
330
100
AcDbEntity
  8
DEFPOINTS
 62
     0
100
AcDbPoint
 10
1186.000000000057
 20
2915.0
 30
0.0
  0
POINT
  5
33B
330
330
100
AcDbEntity
  8
DEFPOINTS
 62
     0
100
AcDbPoint
 10
1186.000000000057
 20
2549.5
 30
0.0
  0
ENDBLK
  5
332
330
330
100
AcDbEntity
  8
0
100
AcDbBlockEnd
  0
BLOCK
  5
33E
330
33D
100
AcDbEntity
  8
0
100
AcDbBlockBegin
  2
*D28
 70
     1
 10
0.0
 20
0.0
 30
0.0
  3
*D28
  1

  0
LINE
  5
340
330
33D
100
AcDbEntity
  8
寸法
  6
CONTINUOUS
 62
     3
100
AcDbLine
 10
971.4999998212356
 20
1789.5
 30
0.0
 11
1486.000000000055
 21
1789.5
 31
0.0
  0
LINE
  5
341
330
33D
100
AcDbEntity
  8
寸法
  6
CONTINUOUS
 62
     3
100
AcDbLine
 10
1471.000000000055
 20
964.4999961853028
 30
0.0
 11
1471.000000000055
 21
1744.500003814697
 31
0.0
  0
INSERT
  5
342
330
33D
100
AcDbEntity
  8
寸法
 62
     3
100
AcDbBlockReference
  2
EX_NORM
 10
1471.000000000055
 20
919.5000000000001
 30
0.0
 41
44.99999618530273
 42
44.99999618530273
 43
44.99999618530273
 50
270.0
  0
INSERT
  5
343
330
33D
100
AcDbEntity
  8
寸法
 62
     3
100
AcDbBlockReference
  2
EX_NORM
 10
1471.000000000055
 20
1789.5
 30
0.0
 41
44.99999618530273
 42
44.99999618530273
 43
44.99999618530273
 50
90.0
  0
MTEXT
  5
344
330
33D
100
AcDbEntity
  8
寸法
 62
     2
100
AcDbMText
 10
1435.75000008946
 20
1354.5
 30
0.0
 40
59.99999618530273
 41
0.0
 71
     5
 72
     1
  1
（870）
  7
EXCADDIM1
 11
0.0
 21
1.0
 31
0.0
  0
POINT
  5
345
330
33D
100
AcDbEntity
  8
DEFPOINTS
 62
     0
100
AcDbPoint
 10
1259.000000000057
 20
919.5
 30
0.0
  0
POINT
  5
346
330
33D
100
AcDbEntity
  8
DEFPOINTS
 62
     0
100
AcDbPoint
 10
961.0000000000496
 20
1789.5
 30
0.0
  0
POINT
  5
347
330
33D
100
AcDbEntity
  8
DEFPOINTS
 62
     0
100
AcDbPoint
 10
1471.000000000055
 20
1789.5
 30
0.0
  0
ENDBLK
  5
33F
330
33D
100
AcDbEntity
  8
0
100
AcDbBlockEnd
  0
BLOCK
  5
34A
330
349
100
AcDbEntity
  8
0
100
AcDbBlockBegin
  2
*D29
 70
     1
 10
0.0
 20
0.0
 30
0.0
  3
*D29
  1

  0
LINE
  5
34C
330
349
100
AcDbEntity
  8
寸法
  6
CONTINUOUS
 62
     3
100
AcDbLine
 10
2331.000000000059
 20
901.0000001788139
 30
0.0
 11
2331.000000000059
 21
604.5
 31
0.0
  0
LINE
  5
34D
330
349
100
AcDbEntity
  8
寸法
  6
CONTINUOUS
 62
     3
100
AcDbLine
 10
2491.00000000006
 20
909.000000178813
 30
0.0
 11
2491.00000000006
 21
604.5
 31
0.0
  0
LINE
  5
34E
330
349
100
AcDbEntity
  8
寸法
  6
CONTINUOUS
 62
     3
100
AcDbLine
 10
2375.999996185361
 20
619.5
 30
0.0
 11
2446.000003814758
 21
619.5
 31
0.0
  0
INSERT
  5
34F
330
349
100
AcDbEntity
  8
寸法
 62
     3
100
AcDbBlockReference
  2
EX_NORM
 10
2331.000000000059
 20
619.5
 30
0.0
 41
44.99999618530273
 42
44.99999618530273
 43
44.99999618530273
 50
180.0
  0
INSERT
  5
350
330
349
100
AcDbEntity
  8
寸法
 62
     3
100
AcDbBlockReference
  2
EX_NORM
 10
2491.00000000006
 20
619.5
 30
0.0
 41
44.99999618530273
 42
44.99999618530273
 43
44.99999618530273
  0
MTEXT
  5
351
330
349
100
AcDbEntity
  8
寸法
 62
     2
100
AcDbMText
 10
2723.50000000006
 20
654.749999910593
 30
0.0
 40
59.99999618530273
 41
0.0
 71
     5
 72
     1
  1
160（床給水）
  7
EXCADDIM1
  0
POINT
  5
352
330
349
100
AcDbEntity
  8
DEFPOINTS
 62
     0
100
AcDbPoint
 10
2331.000000000059
 20
911.5
 30
0.0
  0
POINT
  5
353
330
349
100
AcDbEntity
  8
DEFPOINTS
 62
     0
100
AcDbPoint
 10
2491.00000000006
 20
919.4999999999991
 30
0.0
  0
POINT
  5
354
330
349
100
AcDbEntity
  8
DEFPOINTS
 62
     0
100
AcDbPoint
 10
2491.00000000006
 20
619.5
 30
0.0
  0
ENDBLK
  5
34B
330
349
100
AcDbEntity
  8
0
100
AcDbBlockEnd
  0
BLOCK
  5
35B
330
35A
100
AcDbEntity
  8
0
100
AcDbBlockBegin
  2
*D30
 70
     1
 10
0.0
 20
0.0
 30
0.0
  3
*D30
  1

  0
LINE
  5
35D
330
35A
100
AcDbEntity
  8
寸法
  6
CONTINUOUS
 62
     3
100
AcDbLine
 10
971.4999998212446
 20
1789.5
 30
0.0
 11
1396.000000000055
 21
1789.5
 31
0.0
  0
LINE
  5
35E
330
35A
100
AcDbEntity
  8
寸法
  6
CONTINUOUS
 62
     3
100
AcDbLine
 10
1381.000000000055
 20
1664.499996185303
 30
0.0
 11
1381.000000000055
 21
1744.500003814697
 31
0.0
  0
INSERT
  5
35F
330
35A
100
AcDbEntity
  8
寸法
 62
     3
100
AcDbBlockReference
  2
EX_NORM
 10
1381.000000000055
 20
1619.5
 30
0.0
 41
44.99999618530273
 42
44.99999618530273
 43
44.99999618530273
 50
270.0
  0
INSERT
  5
360
330
35A
100
AcDbEntity
  8
寸法
 62
     3
100
AcDbBlockReference
  2
EX_NORM
 10
1381.000000000055
 20
1789.5
 30
0.0
 41
44.99999618530273
 42
44.99999618530273
 43
44.99999618530273
 50
90.0
  0
MTEXT
  5
361
330
35A
100
AcDbEntity
  8
寸法
 62
     2
100
AcDbMText
 10
1345.750000089462
 20
1704.5
 30
0.0
 40
59.99999618530273
 41
0.0
 71
     5
 72
     1
  1
170
  7
EXCADDIM1
 11
0.0
 21
1.0
 31
0.0
  0
POINT
  5
362
330
35A
100
AcDbEntity
  8
DEFPOINTS
 62
     0
100
AcDbPoint
 10
1261.000000000057
 20
1619.5
 30
0.0
  0
POINT
  5
363
330
35A
100
AcDbEntity
  8
DEFPOINTS
 62
     0
100
AcDbPoint
 10
961.0000000000585
 20
1789.5
 30
0.0
  0
POINT
  5
364
330
35A
100
AcDbEntity
  8
DEFPOINTS
 62
     0
100
AcDbPoint
 10
1381.000000000055
 20
1789.5
 30
0.0
  0
ENDBLK
  5
35C
330
35A
100
AcDbEntity
  8
0
100
AcDbBlockEnd
  0
BLOCK
  5
367
330
366
100
AcDbEntity
  8
0
100
AcDbBlockBegin
  2
*D31
 70
     1
 10
0.0
 20
0.0
 30
0.0
  3
*D31
  1

  0
LINE
  5
369
330
366
100
AcDbEntity
  8
寸法
  6
CONTINUOUS
 62
     3
100
AcDbLine
 10
1271.499999821186
 20
3169.5
 30
0.0
 11
1486.0000000001
 21
3169.5
 31
0.0
  0
LINE
  5
36A
330
366
100
AcDbEntity
  8
寸法
  6
CONTINUOUS
 62
     3
100
AcDbLine
 10
971.4999998212361
 20
2697.5
 30
0.0
 11
1486.0000000001
 21
2697.5
 31
0.0
  0
LINE
  5
36B
330
366
100
AcDbEntity
  8
寸法
  6
CONTINUOUS
 62
     3
100
AcDbLine
 10
1471.0000000001
 20
3124.500003814697
 30
0.0
 11
1471.0000000001
 21
2742.499996185303
 31
0.0
  0
INSERT
  5
36C
330
366
100
AcDbEntity
  8
寸法
 62
     3
100
AcDbBlockReference
  2
EX_NORM
 10
1471.0000000001
 20
3169.5
 30
0.0
 41
44.99999618530273
 42
44.99999618530273
 43
44.99999618530273
 50
90.0
  0
INSERT
  5
36D
330
366
100
AcDbEntity
  8
寸法
 62
     3
100
AcDbBlockReference
  2
EX_NORM
 10
1471.0000000001
 20
2697.5
 30
0.0
 41
44.99999618530273
 42
44.99999618530273
 43
44.99999618530273
 50
270.0
  0
MTEXT
  5
36E
330
366
100
AcDbEntity
  8
寸法
 62
     2
100
AcDbMText
 10
1435.750000089507
 20
2933.5
 30
0.0
 40
59.99999618530273
 41
0.0
 71
     5
 72
     1
  1
470
  7
EXCADDIM1
 11
0.0
 21
1.0
 31
0.0
  0
POINT
  5
36F
330
366
100
AcDbEntity
  8
DEFPOINTS
 62
     0
100
AcDbPoint
 10
1261.0
 20
3169.5
 30
0.0
  0
POINT
  5
370
330
366
100
AcDbEntity
  8
DEFPOINTS
 62
     0
100
AcDbPoint
 10
961.00000000005
 20
2697.5
 30
0.0
  0
POINT
  5
371
330
366
100
AcDbEntity
  8
DEFPOINTS
 62
     0
100
AcDbPoint
 10
1471.0000000001
 20
2697.5
 30
0.0
  0
ENDBLK
  5
368
330
366
100
AcDbEntity
  8
0
100
AcDbBlockEnd
  0
ENDSEC
  0
SECTION
  2
ENTITIES
  0
TEXT
  5
A9
330
1F
100
AcDbEntity
  8
枠_表
  6
CONTINUOUS
 62
     2
100
AcDbText
 10
2281.499999999898
 20
3826.875001907346
 30
0.0
 40
59.99999618530273
  1
壁給水用止水栓
 41
0.990243889413228
  7
EXCADSTD
 72
     5
 11
2629.499973297017
 21
3826.875001907346
 31
0.0
100
AcDbText
  0
TEXT
  5
AA
330
1F
100
AcDbEntity
  8
枠_表
  6
CONTINUOUS
 62
     2
100
AcDbText
 10
2841.000000000106
 20
3826.875001907346
 30
0.0
 40
59.99999618530273
  1
２
 41
1.120000000000004
  7
EXCADSTD
 72
     5
 11
2888.999996948348
 21
3826.875001907346
 31
0.0
100
AcDbText
  0
TEXT
  5
AB
330
1F
100
AcDbEntity
  8
枠_表
  6
CONTINUOUS
 62
     2
100
AcDbText
 10
2284.499999999899
 20
3901.125001907347
 30
0.0
 40
59.99999618530273
  1
床給水用止水栓
 41
0.990243889413228
  7
EXCADSTD
 72
     5
 11
2632.499973297018
 21
3901.125001907347
 31
0.0
100
AcDbText
  0
TEXT
  5
AC
330
1F
100
AcDbEntity
  8
枠_表
  6
CONTINUOUS
 62
     2
100
AcDbText
 10
2841.000000000106
 20
3900.375001907347
 30
0.0
 40
59.99999618530273
  1
２
 41
1.120000000000004
  7
EXCADSTD
 72
     5
 11
2888.999996948348
 21
3900.375001907347
 31
0.0
100
AcDbText
  0
TEXT
  5
AD
330
1F
100
AcDbEntity
  8
枠_表
  6
CONTINUOUS
 62
     2
100
AcDbText
 10
1469.999998569591
 20
304.5000038146966
 30
0.0
 40
74.99999237060547
  1
洗面化粧台
 41
1.052413789665836
  7
EXCADSTD
 72
     5
 11
1796.999964237315
 21
304.5000038146966
 31
0.0
100
AcDbText
  0
TEXT
  5
AE
330
1F
100
AcDbEntity
  8
枠_表
  6
CONTINUOUS
 62
     2
100
AcDbText
 10
2398.500000000097
 20
4227.37500190735
 30
0.0
 40
59.99999618530273
  1
品名
 41
1.895695426731973
  7
EXCADSTD
 72
     5
 11
2577.236986013891
 21
4227.37500190735
 31
0.0
100
AcDbText
  0
TEXT
  5
AF
330
1F
100
AcDbEntity
  8
枠_表
  6
CONTINUOUS
 62
     2
100
AcDbText
 10
1873.500000000097
 20
4227.37500190735
 30
0.0
 40
59.99999618530273
  1
品番
 41
1.895695426731973
  7
EXCADSTD
 72
     5
 11
2052.236986013891
 21
4227.37500190735
 31
0.0
100
AcDbText
  0
TEXT
  5
B0
330
1F
100
AcDbEntity
  8
枠_表
  6
CONTINUOUS
 62
     2
100
AcDbText
 10
2817.000000089511
 20
4227.37500190735
 30
0.0
 40
59.99999618530273
  1
個数
 41
1.049923628946709
  7
EXCADSTD
 72
     5
 11
2915.992793096408
 21
4227.37500190735
 31
0.0
100
AcDbText
  0
TEXT
  5
B1
330
1F
100
AcDbEntity
  8
枠_表
  6
CONTINUOUS
 62
     2
100
AcDbText
 10
2284.499999999899
 20
3644.625001907345
 30
0.0
 40
59.99999618530273
  1
Ｌ管
 41
1.049923628946709
  7
EXCADSTD
 72
     5
 11
2383.492793006796
 21
3644.625001907345
 31
0.0
100
AcDbText
  0
LINE
  5
B2
330
1F
100
AcDbEntity
  8
枠_表
  6
CONTINUOUS
 62
     6
100
AcDbLine
 10
1746.000000000106
 20
4145.999999999995
 30
0.0
 11
2946.000000000106
 21
4145.999999999995
 31
0.0
  0
LINE
  5
B3
330
1F
100
AcDbEntity
  8
枠_表
  6
CONTINUOUS
 62
     6
100
AcDbLine
 10
2196.000000000106
 20
4294.499999999997
 30
0.0
 11
2196.000000000106
 21
4071.749999999995
 31
0.0
  0
LINE
  5
B4
330
1F
100
AcDbEntity
  8
枠_表
  6
CONTINUOUS
 62
     6
100
AcDbLine
 10
2946.000000000106
 20
3490.499999999998
 30
0.0
 11
2946.000000000106
 21
3713.249999999997
 31
0.0
  0
LINE
  5
B5
330
1F
100
AcDbEntity
  8
枠_表
  6
CONTINUOUS
 62
     6
100
AcDbLine
 10
2796.000000000106
 20
3490.499999999998
 30
0.0
 11
2796.000000000106
 21
3713.249999999997
 31
0.0
  0
LINE
  5
B6
330
1F
100
AcDbEntity
  8
枠_表
  6
CONTINUOUS
 62
     6
100
AcDbLine
 10
2271.000000000106
 20
3490.499999999998
 30
0.0
 11
2271.000000000106
 21
3713.249999999997
 31
0.0
  0
LINE
  5
B7
330
1F
100
AcDbEntity
  8
枠_表
  6
CONTINUOUS
 62
     6
100
AcDbLine
 10
1746.000000000106
 20
3490.499999999998
 30
0.0
 11
1746.000000000106
 21
3713.249999999997
 31
0.0
  0
LINE
  5
B8
330
1F
100
AcDbEntity
  8
枠_表
  6
CONTINUOUS
 62
     6
100
AcDbLine
 10
1746.000000000106
 20
3713.249999999997
 30
0.0
 11
2946.000000000106
 21
3713.249999999997
 31
0.0
  0
LINE
  5
B9
330
1F
100
AcDbEntity
  8
枠_表
  6
CONTINUOUS
 62
     6
100
AcDbLine
 10
1746.000000000106
 20
3639.0
 30
0.0
 11
2946.000000000106
 21
3639.0
 31
0.0
  0
LINE
  5
BA
330
1F
100
AcDbEntity
  8
枠_表
  6
CONTINUOUS
 62
     6
100
AcDbLine
 10
1746.000000000106
 20
3490.499999999998
 30
0.0
 11
2946.000000000106
 21
3490.499999999998
 31
0.0
  0
LINE
  5
BB
330
1F
100
AcDbEntity
  8
枠_表
  6
CONTINUOUS
 62
     6
100
AcDbLine
 10
2946.000000000106
 20
3818.25
 30
0.0
 11
2946.000000000106
 21
3966.749999999998
 31
0.0
  0
LINE
  5
BC
330
1F
100
AcDbEntity
  8
枠_表
  6
CONTINUOUS
 62
     6
100
AcDbLine
 10
2796.000000000106
 20
3818.249999999997
 30
0.0
 11
2796.000000000106
 21
3966.749999999998
 31
0.0
  0
LINE
  5
BD
330
1F
100
AcDbEntity
  8
枠_表
  6
CONTINUOUS
 62
     6
100
AcDbLine
 10
2271.000000000106
 20
3818.249999999997
 30
0.0
 11
2271.000000000106
 21
3966.749999999998
 31
0.0
  0
LINE
  5
BE
330
1F
100
AcDbEntity
  8
枠_表
  6
CONTINUOUS
 62
     6
100
AcDbLine
 10
1746.000000000106
 20
3818.25
 30
0.0
 11
1746.000000000106
 21
3966.749999999998
 31
0.0
  0
LINE
  5
BF
330
1F
100
AcDbEntity
  8
枠_表
  6
CONTINUOUS
 62
     6
100
AcDbLine
 10
1746.000000000106
 20
3892.499999999997
 30
0.0
 11
2946.000000000106
 21
3892.499999999997
 31
0.0
  0
LINE
  5
C0
330
1F
100
AcDbEntity
  8
枠_表
  6
CONTINUOUS
 62
     6
100
AcDbLine
 10
1746.000000000106
 20
3818.249999999997
 30
0.0
 11
2946.000000000106
 21
3818.249999999997
 31
0.0
  0
LINE
  5
C1
330
1F
100
AcDbEntity
  8
枠_表
  6
CONTINUOUS
 62
     6
100
AcDbLine
 10
1746.000000000106
 20
3966.749999999998
 30
0.0
 11
2946.000000000106
 21
3966.749999999998
 31
0.0
  0
LINE
  5
C2
330
1F
100
AcDbEntity
  8
枠_表
  6
CONTINUOUS
 62
     6
100
AcDbLine
 10
2946.000000000106
 20
4071.749999999995
 30
0.0
 11
2946.000000000106
 21
4294.5
 31
0.0
  0
LINE
  5
C3
330
1F
100
AcDbEntity
  8
枠_表
  6
CONTINUOUS
 62
     6
100
AcDbLine
 10
2796.000000000106
 20
4071.749999999995
 30
0.0
 11
2796.000000000106
 21
4294.499999999997
 31
0.0
  0
LINE
  5
C4
330
1F
100
AcDbEntity
  8
枠_表
  6
CONTINUOUS
 62
     6
100
AcDbLine
 10
1746.000000000106
 20
4071.749999999995
 30
0.0
 11
1746.000000000106
 21
4294.5
 31
0.0
  0
LINE
  5
C5
330
1F
100
AcDbEntity
  8
枠_表
  6
CONTINUOUS
 62
     6
100
AcDbLine
 10
1746.000000000106
 20
4071.749999999995
 30
0.0
 11
2946.000000000106
 21
4071.749999999995
 31
0.0
  0
LINE
  5
C6
330
1F
100
AcDbEntity
  8
枠_表
  6
CONTINUOUS
 62
     6
100
AcDbLine
 10
1746.000000000106
 20
4294.499999999997
 30
0.0
 11
2946.000000000106
 21
4294.499999999997
 31
0.0
  0
LINE
  5
C7
330
1F
100
AcDbEntity
  8
枠_表
  6
CONTINUOUS
 62
     6
100
AcDbLine
 10
1746.000000000106
 20
4220.249999999996
 30
0.0
 11
2946.000000000106
 21
4220.249999999996
 31
0.0
  0
TEXT
  5
C8
330
1F
100
AcDbEntity
  8
枠_表
  6
CONTINUOUS
 62
     2
100
AcDbText
 10
2209.499999999899
 20
4151.625001907344
 30
0.0
 40
59.99999618530273
  1
洗面化粧台
 41
1.013793091171089
  7
EXCADSTD
 72
     5
 11
2461.499980926412
 21
4151.625001907344
 31
0.0
100
AcDbText
  0
TEXT
  5
C9
330
1F
100
AcDbEntity
  8
枠_表
  6
CONTINUOUS
 62
     2
100
AcDbText
 10
2841.000000000106
 20
4078.875001907346
 30
0.0
 40
59.99999618530273
  1
１
 41
1.120000000000004
  7
EXCADSTD
 72
     5
 11
2888.999996948348
 21
4078.875001907346
 31
0.0
100
AcDbText
  0
TEXT
  5
CA
330
1F
100
AcDbEntity
  8
枠_表
  6
CONTINUOUS
 62
     2
100
AcDbText
 10
1746.000000000097
 20
3721.875001907346
 30
0.0
 40
59.99999618530273
  1
※壁排水用部材（別途手配）
 41
1.045454545454546
  7
EXCADSTD
 72
     5
 11
2435.999956131078
 21
3721.875001907346
 31
0.0
100
AcDbText
  0
TEXT
  5
CB
330
1F
100
AcDbEntity
  8
枠_表
  6
CONTINUOUS
 62
     2
100
AcDbText
 10
2284.499999999899
 20
3498.975001907348
 30
0.0
 40
59.99999618530273
  1
（ＶＰ５０・ＶＵ５０用）
 41
0.8183098359622852
  7
EXCADSTD
 72
     5
 11
2782.499954223531
 21
3498.975001907348
 31
0.0
100
AcDbText
  0
TEXT
  5
CC
330
1F
100
AcDbEntity
  8
枠_表
  6
CONTINUOUS
 62
     2
100
AcDbText
 10
2284.499999999899
 20
3573.225001907345
 30
0.0
 40
59.99999618530273
  1
配管アダプター
 41
0.990243889413228
  7
EXCADSTD
 72
     5
 11
2632.499973297018
 21
3573.225001907345
 31
0.0
100
AcDbText
  0
TEXT
  5
CD
330
1F
100
AcDbEntity
  8
枠_表
  6
CONTINUOUS
 62
     2
100
AcDbText
 10
2841.000000000106
 20
3533.250001907345
 30
0.0
 40
59.99999618530273
  1
１
 41
1.120000000000004
  7
EXCADSTD
 72
     5
 11
2888.999996948348
 21
3533.250001907345
 31
0.0
100
AcDbText
  0
TEXT
  5
CE
330
1F
100
AcDbEntity
  8
枠_表
  6
CONTINUOUS
 62
     2
100
AcDbText
 10
2841.000000000106
 20
3646.125001907347
 30
0.0
 40
59.99999618530273
  1
１
 41
1.120000000000004
  7
EXCADSTD
 72
     5
 11
2888.999996948348
 21
3646.125001907347
 31
0.0
100
AcDbText
  0
TEXT
  5
CF
330
1F
100
AcDbEntity
  8
枠_表
  6
CONTINUOUS
 62
     2
100
AcDbText
 10
1741.49999999865
 20
3981.750003814705
 30
0.0
 40
59.99999618530273
  1
※止水栓（別途手配）
 41
1.052966101694915
  7
EXCADSTD
 72
     5
 11
2273.999966143212
 21
3981.750003814705
 31
0.0
100
AcDbText
  0
TEXT
  5
D0
330
1F
100
AcDbEntity
  8
枠_表
  6
CONTINUOUS
 62
     2
100
AcDbText
 10
2841.000000000106
 20
4153.125001907346
 30
0.0
 40
59.99999618530273
  1
１
 41
1.120000000000004
  7
EXCADSTD
 72
     5
 11
2888.999996948348
 21
4153.125001907346
 31
0.0
100
AcDbText
  0
TEXT
  5
D1
330
1F
100
AcDbEntity
  8
枠_表
  6
CONTINUOUS
 62
     2
100
AcDbText
 10
2887.918945350054
 20
324.5232695999982
 30
0.0
 40
44.99999618530273
  1
１５
 41
1.098531308335248
  7
EXCADSTD
 72
     5
 11
2965.600795568588
 21
324.5232695999982
 31
0.0
100
AcDbText
  0
LINE
  5
D2
330
1F
100
AcDbEntity
  8
枠_表
  6
CONTINUOUS
 62
     7
100
AcDbLine
 10
261.0000000000542
 20
139.4999999999993
 30
0.0
 11
261.0000000000542
 21
4339.5
 31
0.0
  0
LINE
  5
D3
330
1F
100
AcDbEntity
  8
枠_表
  6
EXLTYPE2
 62
     6
100
AcDbLine
 10
261.0000000000542
 20
214.4999999999993
 30
0.0
 11
726.0000000000559
 21
214.4999999999993
 31
0.0
  0
LINE
  5
D4
330
1F
100
AcDbEntity
  8
枠_表
  6
CONTINUOUS
 62
     6
100
AcDbLine
 10
2829.980712900053
 20
324.0043945500008
 30
0.0
 11
2945.990844750054
 21
442.04974365
 31
0.0
  0
LINE
  5
D5
330
1F
100
AcDbEntity
  8
枠_表
  6
CONTINUOUS
 62
     6
100
AcDbLine
 10
261.0000000000542
 20
394.4999999999993
 30
0.0
 11
1116.000000000056
 21
394.4999999999993
 31
0.0
  0
LINE
  5
D6
330
1F
100
AcDbEntity
  8
枠_表
  6
CONTINUOUS
 62
     6
100
AcDbLine
 10
493.5000000000542
 20
469.4999999999993
 30
0.0
 11
493.5000000000542
 21
139.4999999999993
 31
0.0
  0
LINE
  5
D7
330
1F
100
AcDbEntity
  8
枠_表
  6
CONTINUOUS
 62
     6
100
AcDbLine
 10
726.0000000000559
 20
469.4999999999993
 30
0.0
 11
726.0000000000559
 21
139.4999999999993
 31
0.0
  0
LINE
  5
D8
330
1F
100
AcDbEntity
  8
枠_表
  6
CONTINUOUS
 62
     6
100
AcDbLine
 10
921.0000000000559
 20
469.4999999999993
 30
0.0
 11
921.0000000000559
 21
139.4999999999993
 31
0.0
  0
LINE
  5
D9
330
1F
100
AcDbEntity
  8
枠_表
  6
CONTINUOUS
 62
     6
100
AcDbLine
 10
1116.000000000056
 20
469.4999999999993
 30
0.0
 11
1116.000000000056
 21
139.4999999999993
 31
0.0
  0
LINE
  5
DA
330
1F
100
AcDbEntity
  8
枠_表
  6
CONTINUOUS
 62
     6
100
AcDbLine
 10
1191.000000000056
 20
469.4999999999993
 30
0.0
 11
1191.000000000056
 21
289.4999999999993
 31
0.0
  0
LINE
  5
DB
330
1F
100
AcDbEntity
  8
枠_表
  6
CONTINUOUS
 62
     6
100
AcDbLine
 10
2076.000000000054
 20
469.4999999999993
 30
0.0
 11
2076.000000000054
 21
139.4999999999993
 31
0.0
  0
LINE
  5
DC
330
1F
100
AcDbEntity
  8
枠_表
  6
CONTINUOUS
 62
     6
100
AcDbLine
 10
2151.000000000054
 20
469.4999999999993
 30
0.0
 11
2151.000000000054
 21
139.4999999999993
 31
0.0
  0
LINE
  5
DD
330
1F
100
AcDbEntity
  8
枠_表
  6
CONTINUOUS
 62
     6
100
AcDbLine
 10
2706.000000000054
 20
469.4999999999993
 30
0.0
 11
2706.000000000054
 21
289.4999999999993
 31
0.0
  0
LINE
  5
DE
330
1F
100
AcDbEntity
  8
枠_表
  6
CONTINUOUS
 62
     6
100
AcDbLine
 10
2781.000000000054
 20
469.4999999999993
 30
0.0
 11
2781.000000000054
 21
289.4999999999993
 31
0.0
  0
LINE
  5
DF
330
1F
100
AcDbEntity
  8
枠_表
  6
CONTINUOUS
 62
     6
100
AcDbLine
 10
2991.000000000054
 20
289.4999999999993
 30
0.0
 11
1116.000000000056
 21
289.4999999999993
 31
0.0
  0
LINE
  5
E0
330
1F
100
AcDbEntity
  8
枠_表
  6
CONTINUOUS
 62
     7
100
AcDbLine
 10
261.0000000000542
 20
4339.5
 30
0.0
 11
2991.000000000054
 21
4339.5
 31
0.0
  0
LINE
  5
E1
330
1F
100
AcDbEntity
  8
枠_表
  6
CONTINUOUS
 62
     7
100
AcDbLine
 10
2991.000000000054
 20
139.4999999999993
 30
0.0
 11
2991.000000000054
 21
4339.5
 31
0.0
  0
LINE
  5
E2
330
1F
100
AcDbEntity
  8
枠_表
  6
CONTINUOUS
 62
     7
100
AcDbLine
 10
261.0000000000542
 20
469.4999999999993
 30
0.0
 11
2991.000000000054
 21
469.4999999999993
 31
0.0
  0
TEXT
  5
E3
330
1F
100
AcDbEntity
  8
枠_表
  6
CONTINUOUS
 62
     2
100
AcDbText
 10
2084.625000000053
 20
151.1250019073493
 30
0.0
 40
63.74999618530273
  1
番
 41
1.120000000000004
  7
EXCADSTD
 72
     5
 11
2135.624996948296
 21
151.1250019073493
 31
0.0
100
AcDbText
  0
TEXT
  5
E4
330
1F
100
AcDbEntity
  8
枠_表
  6
CONTINUOUS
 62
     2
100
AcDbText
 10
2084.625000000053
 20
215.6250019073486
 30
0.0
 40
63.74999618530273
  1
図
 41
1.120000000000004
  7
EXCADSTD
 72
     5
 11
2135.624996948296
 21
215.6250019073486
 31
0.0
100
AcDbText
  0
TEXT
  5
E5
330
1F
100
AcDbEntity
  8
枠_表
  6
CONTINUOUS
 62
     2
100
AcDbText
 10
2716.125000000054
 20
310.125001907348
 30
0.0
 40
63.74999618530273
  1
度
 41
1.120000000000004
  7
EXCADSTD
 72
     5
 11
2767.124996948296
 21
310.125001907348
 31
0.0
100
AcDbText
  0
TEXT
  5
E6
330
1F
100
AcDbEntity
  8
枠_表
  6
CONTINUOUS
 62
     2
100
AcDbText
 10
2716.125000000054
 20
385.125001907348
 30
0.0
 40
63.74999618530273
  1
尺
 41
1.120000000000004
  7
EXCADSTD
 72
     5
 11
2767.124996948296
 21
385.125001907348
 31
0.0
100
AcDbText
  0
TEXT
  5
E7
330
1F
100
AcDbEntity
  8
枠_表
  6
CONTINUOUS
 62
     2
100
AcDbText
 10
2084.625000000053
 20
310.125001907348
 30
0.0
 40
63.74999618530273
  1
番
 41
1.120000000000004
  7
EXCADSTD
 72
     5
 11
2135.624996948296
 21
310.125001907348
 31
0.0
100
AcDbText
  0
TEXT
  5
E8
330
1F
100
AcDbEntity
  8
枠_表
  6
CONTINUOUS
 62
     2
100
AcDbText
 10
2084.625000000053
 20
385.125001907348
 30
0.0
 40
63.74999618530273
  1
品
 41
1.120000000000004
  7
EXCADSTD
 72
     5
 11
2135.624996948296
 21
385.125001907348
 31
0.0
100
AcDbText
  0
TEXT
  5
E9
330
1F
100
AcDbEntity
  8
枠_表
  6
CONTINUOUS
 62
     2
100
AcDbText
 10
1124.625000000055
 20
310.125001907348
 30
0.0
 40
63.74999618530273
  1
名
 41
1.119999999999999
  7
EXCADSTD
 72
     5
 11
1175.624996948297
 21
310.125001907348
 31
0.0
100
AcDbText
  0
TEXT
  5
EA
330
1F
100
AcDbEntity
  8
枠_表
  6
CONTINUOUS
 62
     2
100
AcDbText
 10
1124.625000000055
 20
385.125001907348
 30
0.0
 40
63.74999618530273
  1
品
 41
1.119999999999999
  7
EXCADSTD
 72
     5
 11
1175.624996948297
 21
385.125001907348
 31
0.0
100
AcDbText
  0
TEXT
  5
EB
330
1F
100
AcDbEntity
  8
枠_表
  6
CONTINUOUS
 62
     2
100
AcDbText
 10
947.2500000000559
 20
400.125001907348
 30
0.0
 40
63.74999618530273
  1
承認
 41
1.303826737454632
  7
EXCADSTD
 72
     5
 11
1077.865492132815
 21
400.125001907348
 31
0.0
100
AcDbText
  0
TEXT
  5
EC
330
1F
100
AcDbEntity
  8
枠_表
  6
CONTINUOUS
 62
     2
100
AcDbText
 10
752.2500000000559
 20
400.125001907348
 30
0.0
 40
63.74999618530273
  1
検図
 41
1.303826737454632
  7
EXCADSTD
 72
     5
 11
882.865492132815
 21
400.125001907348
 31
0.0
100
AcDbText
  0
TEXT
  5
ED
330
1F
100
AcDbEntity
  8
枠_表
  6
CONTINUOUS
 62
     2
100
AcDbText
 10
527.2500000000542
 20
400.125001907348
 30
0.0
 40
63.74999618530273
  1
写図
 41
1.509694103275157
  7
EXCADSTD
 72
     5
 11
678.4889895103997
 21
400.125001907348
 31
0.0
100
AcDbText
  0
TEXT
  5
EE
330
1F
100
AcDbEntity
  8
枠_表
  6
CONTINUOUS
 62
     2
100
AcDbText
 10
294.7500000000542
 20
400.125001907348
 30
0.0
 40
63.74999618530273
  1
製図
 41
1.509694103275157
  7
EXCADSTD
 72
     5
 11
445.9889895103997
 21
400.125001907348
 31
0.0
100
AcDbText
  0
TEXT
  5
EF
330
1F
100
AcDbEntity
  8
枠_表
  6
CONTINUOUS
 62
     2
100
AcDbText
 10
2826.805664100054
 20
391.0841674500011
 30
0.0
 40
44.99999618530273
  1
１
 41
1.101333426694527
  7
EXCADSTD
 72
     5
 11
2862.205664100054
 21
391.0841674500011
 31
0.0
100
AcDbText
  0
ARC
  5
F0
330
1F
100
AcDbEntity
  8
枠_表
  6
CONTINUOUS
 62
     3
100
AcDbCircle
 10
1387.263721603359
 20
217.3529156261236
 30
0.0
 40
28.61127005606746
100
AcDbArc
 50
153.7591918158497
 51
169.3462759801917
  0
LINE
  5
F1
330
1F
100
AcDbEntity
  8
枠_表
  6
CONTINUOUS
 62
     3
100
AcDbLine
 10
1357.864898599931
 20
222.6423649463095
 30
0.0
 11
1359.145640230152
 21
222.6423649463095
 31
0.0
  0
LINE
  5
F2
330
1F
100
AcDbEntity
  8
枠_表
  6
CONTINUOUS
 62
     3
100
AcDbLine
 10
1348.256273599931
 20
228.9299899463094
 30
0.0
 11
1349.896523599932
 21
228.9704899463095
 31
0.0
  0
LINE
  5
F3
330
1F
100
AcDbEntity
  8
枠_表
  6
CONTINUOUS
 62
     3
100
AcDbLine
 10
1333.25102359993
 20
218.7948649463101
 30
0.0
 11
1333.30164859993
 21
216.1117399463433
 31
0.0
  0
LINE
  5
F4
330
1F
100
AcDbEntity
  8
枠_表
  6
CONTINUOUS
 62
     3
100
AcDbLine
 10
1340.57139859993
 20
221.8222399463116
 30
0.0
 11
1340.42964859993
 21
219.1694899463107
 31
0.0
  0
LINE
  5
F5
330
1F
100
AcDbEntity
  8
枠_表
  6
CONTINUOUS
 62
     3
100
AcDbLine
 10
1364.436023599931
 20
199.9826149463104
 30
0.0
 11
1364.385398599929
 21
195.6592399463102
 31
0.0
  0
LINE
  5
F6
330
1F
100
AcDbEntity
  8
枠_表
  6
CONTINUOUS
 62
     3
100
AcDbLine
 10
1357.29789859993
 20
195.7604899463104
 30
0.0
 11
1357.399148599932
 21
193.43173994631
 31
0.0
  0
ARC
  5
F7
330
1F
100
AcDbEntity
  8
枠_表
  6
CONTINUOUS
 62
     3
100
AcDbCircle
 10
1317.801619698197
 20
192.8669639347504
 30
0.0
 40
16.91930610118257
100
AcDbArc
 50
332.3987521421788
 51
359.5124385477116
  0
LINE
  5
F8
330
1F
100
AcDbEntity
  8
枠_表
  6
CONTINUOUS
 62
     3
100
AcDbLine
 10
1200.259148599932
 20
221.5792399463112
 30
0.0
 11
1201.575398599931
 21
221.5792399463112
 31
0.0
  0
LINE
  5
F9
330
1F
100
AcDbEntity
  8
枠_表
  6
CONTINUOUS
 62
     3
100
AcDbLine
 10
1343.325398599931
 20
181.990489946312
 30
0.0
 11
1348.08414859993
 21
181.990489946312
 31
0.0
  0
LINE
  5
FA
330
1F
100
AcDbEntity
  8
枠_表
  6
CONTINUOUS
 62
     3
100
AcDbLine
 10
1336.035398599931
 20
192.7229899463123
 30
0.0
 11
1334.719148599931
 21
192.7229899463123
 31
0.0
  0
LINE
  5
FB
330
1F
100
AcDbEntity
  8
枠_表
  6
CONTINUOUS
 62
     3
100
AcDbLine
 10
1346.261648599931
 20
185.6354899463111
 30
0.0
 11
1348.691648599931
 21
185.6354899463111
 31
0.0
  0
LINE
  5
FC
330
1F
100
AcDbEntity
  8
枠_表
  6
CONTINUOUS
 62
     3
100
AcDbLine
 10
1351.627898599931
 20
232.909114946309
 30
0.0
 11
1348.833398599932
 21
232.909114946309
 31
0.0
  0
ARC
  5
FD
330
1F
100
AcDbEntity
  8
枠_表
  6
CONTINUOUS
 62
     3
100
AcDbCircle
 10
1349.12210086918
 20
219.8143854437512
 30
0.0
 40
9.188796451533795
100
AcDbArc
 50
17.92452211681263
 51
85.16543319077402
  0
ARC
  5
FE
330
1F
100
AcDbEntity
  8
枠_表
  6
CONTINUOUS
 62
     3
100
AcDbCircle
 10
1348.552644729135
 20
220.901249206189
 30
0.0
 40
8.034208966558964
100
AcDbArc
 50
92.11404364449162
 51
173.4175047026091
  0
ARC
  5
FF
330
1F
100
AcDbEntity
  8
枠_表
  6
CONTINUOUS
 62
     3
100
AcDbCircle
 10
1360.954711099949
 20
224.0734774463158
 30
0.0
 40
21.102779059401
100
AcDbArc
 50
193.4375782160214
 51
199.459638038058
  0
ARC
  5
100
330
1F
100
AcDbEntity
  8
枠_表
  6
CONTINUOUS
 62
     3
100
AcDbCircle
 10
1350.108202858172
 20
222.4707962649927
 30
0.0
 40
10.55345561005776
100
AcDbArc
 50
210.9501336849607
 51
251.7794729821079
  0
ARC
  5
101
330
1F
100
AcDbEntity
  8
枠_表
  6
CONTINUOUS
 62
     3
100
AcDbCircle
 10
1374.807700453864
 20
287.9038965755251
 30
0.0
 40
80.4846638777502
100
AcDbArc
 50
249.6420733479936
 51
256.4727051201885
  0
ARC
  5
102
330
1F
100
AcDbEntity
  8
枠_表
  6
CONTINUOUS
 62
     3
100
AcDbCircle
 10
1353.306858193848
 20
198.7825887797362
 30
0.0
 40
11.19367613594409
100
AcDbArc
 50
6.154262763177246
 51
76.17509904255616
  0
ARC
  5
103
330
1F
100
AcDbEntity
  8
枠_表
  6
CONTINUOUS
 62
     3
100
AcDbCircle
 10
1347.69958297019
 20
199.0038700677076
 30
0.0
 40
17.01772587270968
100
AcDbArc
 50
271.2948770866743
 51
348.6654156292868
  0
ARC
  5
104
330
1F
100
AcDbEntity
  8
枠_表
  6
CONTINUOUS
 62
     3
100
AcDbCircle
 10
1345.189508188971
 20
208.2234865216537
 30
0.0
 40
26.2991447367003
100
AcDbArc
 50
241.8829576087176
 51
265.9354096935781
  0
ARC
  5
105
330
1F
100
AcDbEntity
  8
枠_表
  6
CONTINUOUS
 62
     3
100
AcDbCircle
 10
1347.954156485284
 20
198.9987959666075
 30
0.0
 40
13.47006053193791
100
AcDbArc
 50
207.7689879465537
 51
262.7817283832026
  0
ARC
  5
106
330
1F
100
AcDbEntity
  8
枠_表
  6
CONTINUOUS
 62
     3
100
AcDbCircle
 10
1348.553666617032
 20
194.5503545635734
 30
0.0
 40
8.91593237815014
100
AcDbArc
 50
270.8867385422408
 51
352.7925382056677
  0
ARC
  5
107
330
1F
100
AcDbEntity
  8
枠_表
  6
CONTINUOUS
 62
     3
100
AcDbCircle
 10
1350.462006878106
 20
194.9769338149736
 30
0.0
 40
6.88065228328521
100
AcDbArc
 50
6.53892419415897
 51
65.09756080693691
  0
ARC
  5
108
330
1F
100
AcDbEntity
  8
枠_表
  6
CONTINUOUS
 62
     3
100
AcDbCircle
 10
1333.757233774619
 20
161.9185712632816
 30
0.0
 40
43.91667620959131
100
AcDbArc
 50
63.49050203733571
 51
76.60259219849584
  0
ARC
  5
109
330
1F
100
AcDbEntity
  8
枠_表
  6
CONTINUOUS
 62
     3
100
AcDbCircle
 10
1349.29022186998
 20
222.3594616510013
 30
0.0
 40
18.51151426169351
100
AcDbArc
 50
226.0402388947521
 51
253.1776672992999
  0
ARC
  5
10A
330
1F
100
AcDbEntity
  8
枠_表
  6
CONTINUOUS
 62
     3
100
AcDbCircle
 10
1343.339888688956
 20
216.3289153613277
 30
0.0
 40
10.04058908858416
100
AcDbArc
 50
181.2393899443581
 51
226.5942921332421
  0
ARC
  5
10B
330
1F
100
AcDbEntity
  8
枠_表
  6
CONTINUOUS
 62
     3
100
AcDbCircle
 10
1348.194524519997
 20
217.8013936652781
 30
0.0
 40
14.97648840463785
100
AcDbArc
 50
117.4083995939977
 51
176.1964688215695
  0
ARC
  5
10C
330
1F
100
AcDbEntity
  8
枠_表
  6
CONTINUOUS
 62
     3
100
AcDbCircle
 10
1349.656656642642
 20
213.146864690641
 30
0.0
 40
19.79962298051288
100
AcDbArc
 50
92.38301574576484
 51
114.9635286746436
  0
ARC
  5
10D
330
1F
100
AcDbEntity
  8
枠_表
  6
CONTINUOUS
 62
     3
100
AcDbCircle
 10
1351.281424269141
 20
217.7494557545924
 30
0.0
 40
15.16361801388235
100
AcDbArc
 50
67.66151957087348
 51
88.69073168448988
  0
ARC
  5
10E
330
1F
100
AcDbEntity
  8
枠_表
  6
CONTINUOUS
 62
     3
100
AcDbCircle
 10
1832.466679849275
 20
1447.544614944631
 30
0.0
 40
1305.420034344473
100
AcDbArc
 50
248.6422112053103
 51
248.8567777804232
  0
ARC
  5
10F
330
1F
100
AcDbEntity
  8
枠_表
  6
CONTINUOUS
 62
     3
100
AcDbCircle
 10
977.5350863046361
 20
207.4874689149362
 30
0.0
 40
333.0114127553719
100
AcDbArc
 50
355.7940354718673
 51
4.229650257234378
  0
ARC
  5
110
330
1F
100
AcDbEntity
  8
枠_表
  6
CONTINUOUS
 62
     3
100
AcDbCircle
 10
1623.381070769389
 20
207.2821508609081
 30
0.0
 40
305.38595858835
100
AcDbArc
 50
175.3387608397566
 51
184.5428594926176
  0
ARC
  5
111
330
1F
100
AcDbEntity
  8
枠_表
  6
CONTINUOUS
 62
     3
100
AcDbCircle
 10
1314.621613405755
 20
85.1970627618482
 30
0.0
 40
97.99289227876633
100
AcDbArc
 50
87.46575055044718
 51
92.90832285102188
  0
ARC
  5
112
330
1F
100
AcDbEntity
  8
枠_表
  6
CONTINUOUS
 62
     3
100
AcDbCircle
 10
1314.218411404214
 20
251.2998711537125
 30
0.0
 40
19.7884282326031
100
AcDbArc
 50
256.6209501743446
 51
283.9984576255729
  0
CIRCLE
  5
113
330
1F
100
AcDbEntity
  8
枠_表
  6
CONTINUOUS
 62
     3
100
AcDbCircle
 10
1314.428271057559
 20
249.8753200310557
 30
0.0
 40
5.358501700154835
  0
LINE
  5
114
330
1F
100
AcDbEntity
  8
枠_表
  6
CONTINUOUS
 62
     3
100
AcDbLine
 10
1259.22714859993
 20
212.7603649463106
 30
0.0
 11
1259.22714859993
 21
196.5704899463117
 31
0.0
  0
ARC
  5
115
330
1F
100
AcDbEntity
  8
枠_表
  6
CONTINUOUS
 62
     3
100
AcDbCircle
 10
945.1765483007949
 20
206.9907088007619
 30
0.0
 40
306.5546709196609
100
AcDbArc
 50
355.5405243117485
 51
4.673398698656258
  0
ARC
  5
116
330
1F
100
AcDbEntity
  8
枠_表
  6
CONTINUOUS
 62
     3
100
AcDbCircle
 10
1255.062427479241
 20
249.3310319721741
 30
0.0
 40
17.90024037819024
100
AcDbArc
 50
255.9341994177206
 51
284.5896440601899
  0
ARC
  5
117
330
1F
100
AcDbEntity
  8
枠_表
  6
CONTINUOUS
 62
     3
100
AcDbCircle
 10
1315.58620910948
 20
225.1178522074588
 30
0.0
 40
56.43698250687272
100
AcDbArc
 50
172.9875214416311
 51
181.4134392789641
  0
ARC
  5
118
330
1F
100
AcDbEntity
  8
枠_表
  6
CONTINUOUS
 62
     3
100
AcDbCircle
 10
1276.131160350438
 20
212.8913983227892
 30
0.0
 40
20.1292349498589
100
AcDbArc
 50
87.42068310381028
 51
147.4361518966862
  0
ARC
  5
119
330
1F
100
AcDbEntity
  8
枠_表
  6
CONTINUOUS
 62
     3
100
AcDbCircle
 10
1277.658608612121
 20
218.8806997196991
 30
0.0
 40
14.1332156333331
100
AcDbArc
 50
34.84393737091607
 51
92.5207065423111
  0
ARC
  5
11A
330
1F
100
AcDbEntity
  8
枠_表
  6
CONTINUOUS
 62
     3
100
AcDbCircle
 10
1274.685827301779
 20
216.9428913677291
 30
0.0
 40
17.68049477190885
100
AcDbArc
 50
359.8658335690532
 51
34.49363429411157
  0
ARC
  5
11B
330
1F
100
AcDbEntity
  8
枠_表
  6
CONTINUOUS
 62
     3
100
AcDbCircle
 10
1200.287040181564
 20
213.4973662218204
 30
0.0
 40
92.14213631800438
100
AcDbArc
 50
358.4775281223095
 51
2.117232414210064
  0
ARC
  5
11C
330
1F
100
AcDbEntity
  8
枠_表
  6
CONTINUOUS
 62
     3
100
AcDbCircle
 10
1536.986450492599
 20
194.8601062108708
 30
0.0
 40
245.1249869780733
100
AcDbArc
 50
176.2131780319488
 51
182.7488833337936
  0
ARC
  5
11D
330
1F
100
AcDbEntity
  8
枠_表
  6
CONTINUOUS
 62
     3
100
AcDbCircle
 10
1287.865711099932
 20
135.902289288415
 30
0.0
 40
47.39539878190116
100
AcDbArc
 50
84.82155189294139
 51
95.17844810705873
  0
ARC
  5
11E
330
1F
100
AcDbEntity
  8
枠_表
  6
CONTINUOUS
 62
     3
100
AcDbCircle
 10
1036.676006797516
 20
202.1627006823689
 30
0.0
 40
247.6463350002882
100
AcDbArc
 50
355.5862454873798
 51
2.816115806820253
  0
ARC
  5
11F
330
1F
100
AcDbEntity
  8
枠_表
  6
CONTINUOUS
 62
     3
100
AcDbCircle
 10
1267.417110685335
 20
214.5472708232342
 30
0.0
 40
16.60758761616231
100
AcDbArc
 50
359.2495022237244
 51
32.84055016678327
  0
ARC
  5
120
330
1F
100
AcDbEntity
  8
枠_表
  6
CONTINUOUS
 62
     3
100
AcDbCircle
 10
1272.015021780886
 20
214.8549409708016
 30
0.0
 40
12.77467585570504
100
AcDbArc
 50
42.91644474042847
 51
128.3015542351336
  0
ARC
  5
121
330
1F
100
AcDbEntity
  8
枠_表
  6
CONTINUOUS
 62
     3
100
AcDbCircle
 10
1275.849258355015
 20
213.1192837707067
 30
0.0
 40
16.62598434477196
100
AcDbArc
 50
134.9787476233347
 51
181.2369872983282
  0
ARC
  5
122
330
1F
100
AcDbEntity
  8
枠_表
  6
CONTINUOUS
 62
     3
100
AcDbCircle
 10
1370.113286842712
 20
196.3725220514721
 30
0.0
 40
110.9268148967239
100
AcDbArc
 50
179.8977458165987
 51
186.8855675734268
  0
ARC
  5
123
330
1F
100
AcDbEntity
  8
枠_表
  6
CONTINUOUS
 62
     3
100
AcDbCircle
 10
1254.871317010453
 20
123.7603881767564
 30
0.0
 40
59.53363641627745
100
AcDbArc
 50
85.07099551674689
 51
93.91830029343228
  0
ARC
  5
124
330
1F
100
AcDbEntity
  8
枠_表
  6
CONTINUOUS
 62
     3
100
AcDbCircle
 10
-33708.02313326597
 20
1158.489786838173
 30
0.0
 40
34946.64001890887
100
AcDbArc
 50
358.4169008257799
 51
358.4423418242109
  0
ARC
  5
125
330
1F
100
AcDbEntity
  8
枠_表
  6
CONTINUOUS
 62
     3
100
AcDbCircle
 10
1212.486703614943
 20
200.6754734295293
 30
0.0
 40
14.90372405996874
100
AcDbArc
 50
278.3335103000368
 51
329.1221464187299
  0
LINE
  5
126
330
1F
100
AcDbEntity
  8
枠_表
  6
CONTINUOUS
 62
     3
100
AcDbLine
 10
1212.04464859993
 20
185.9291149463115
 30
0.0
 11
1214.646773599931
 21
185.9291149463115
 31
0.0
  0
ARC
  5
127
330
1F
100
AcDbEntity
  8
枠_表
  6
CONTINUOUS
 62
     3
100
AcDbCircle
 10
1213.043948023367
 20
194.6192070146662
 30
0.0
 40
8.747359572704955
100
AcDbArc
 50
183.0707787095794
 51
263.4402016072427
  0
LINE
  5
128
330
1F
100
AcDbEntity
  8
枠_表
  6
CONTINUOUS
 62
     3
100
AcDbLine
 10
1204.30914859993
 20
197.0868649463091
 30
0.0
 11
1204.30914859993
 21
194.1506149463112
 31
0.0
  0
ARC
  5
129
330
1F
100
AcDbEntity
  8
枠_表
  6
CONTINUOUS
 62
     3
100
AcDbCircle
 10
1213.605280025731
 20
195.8711218570784
 30
0.0
 40
9.375291501855795
100
AcDbArc
 50
115.7403688633493
 51
172.5491744442191
  0
ARC
  5
12A
330
1F
100
AcDbEntity
  8
枠_表
  6
CONTINUOUS
 62
     3
100
AcDbCircle
 10
1221.849097763712
 20
178.2478294001976
 30
0.0
 40
28.83098679232812
100
AcDbArc
 50
98.71271710191789
 51
115.2874718053599
  0
ARC
  5
12B
330
1F
100
AcDbEntity
  8
枠_表
  6
CONTINUOUS
 62
     3
100
AcDbCircle
 10
1208.408414903115
 20
268.1252071740744
 30
0.0
 40
62.04610222041025
100
AcDbArc
 50
278.4088456599976
 51
286.1851416003176
  0
ARC
  5
12C
330
1F
100
AcDbEntity
  8
枠_表
  6
CONTINUOUS
 62
     3
100
AcDbCircle
 10
1171.636230018396
 20
329.6126355783338
 30
0.0
 40
66.01138250235698
100
AcDbArc
 50
261.7986203004403
 51
278.6803384946418
  0
ARC
  5
12D
330
1F
100
AcDbEntity
  8
枠_表
  6
CONTINUOUS
 62
     3
100
AcDbCircle
 10
2154.813797120205
 20
217.9440541426277
 30
0.0
 40
974.3211367025408
100
AcDbArc
 50
177.2695926307304
 51
181.4833117237826
  0
ARC
  5
12E
330
1F
100
AcDbEntity
  8
枠_表
  6
CONTINUOUS
 62
     3
100
AcDbCircle
 10
1146.734904268648
 20
191.944703532015
 30
0.0
 40
34.09312894671467
100
AcDbArc
 50
335.1860595856123
 51
1.308075913059364
  0
ARC
  5
12F
330
1F
100
AcDbEntity
  8
枠_表
  6
CONTINUOUS
 62
     3
100
AcDbCircle
 10
1155.584599182878
 20
190.4075277940228
 30
0.0
 40
25.52092032294173
100
AcDbArc
 50
286.2966123578915
 51
329.973223283839
  0
ARC
  5
130
330
1F
100
AcDbEntity
  8
枠_表
  6
CONTINUOUS
 62
     3
100
AcDbCircle
 10
1150.643362480054
 20
197.5834729373071
 30
0.0
 40
33.90512116232043
100
AcDbArc
 50
277.0901027239701
 51
290.9134154817058
  0
LINE
  5
131
330
1F
100
AcDbEntity
  8
枠_表
  6
CONTINUOUS
 62
     3
100
AcDbLine
 10
1154.82827359993
 20
163.9376149463101
 30
0.0
 11
1152.97539859993
 21
169.577239946309
 31
0.0
  0
ARC
  5
132
330
1F
100
AcDbEntity
  8
枠_表
  6
CONTINUOUS
 62
     3
100
AcDbCircle
 10
1147.252093452871
 20
187.0139789168968
 30
0.0
 40
18.35200500585038
100
AcDbArc
 50
288.1715191042997
 51
307.8537826235693
  0
ARC
  5
133
330
1F
100
AcDbEntity
  8
枠_表
  6
CONTINUOUS
 62
     3
100
AcDbCircle
 10
1150.639107974459
 20
180.5111277709364
 30
0.0
 40
11.2165377829595
100
AcDbArc
 50
314.592391474832
 51
344.9374073189123
  0
ARC
  5
134
330
1F
100
AcDbEntity
  8
枠_表
  6
CONTINUOUS
 62
     3
100
AcDbCircle
 10
420.5078281844516
 20
225.7796003758244
 30
0.0
 40
742.7100645598513
100
AcDbArc
 50
356.8390243485978
 51
2.971133813187157
  0
ARC
  5
135
330
1F
100
AcDbEntity
  8
枠_表
  6
CONTINUOUS
 62
     3
100
AcDbCircle
 10
1057.715934784116
 20
190.1014142884173
 30
0.0
 40
104.505225747009
100
AcDbArc
 50
353.1274757312911
 51
357.106204490141
  0
LINE
  5
136
330
1F
100
AcDbEntity
  8
枠_表
  6
CONTINUOUS
 62
     3
100
AcDbLine
 10
1200.259148599932
 20
227.0467399463098
 30
0.0
 11
1200.259148599932
 21
221.5792399463112
 31
0.0
  0
ARC
  5
137
330
1F
100
AcDbEntity
  8
枠_表
  6
CONTINUOUS
 62
     3
100
AcDbCircle
 10
1213.238042655503
 20
214.9335287786823
 30
0.0
 40
13.42321657765079
100
AcDbArc
 50
103.4267945469744
 51
150.3242613737993
  0
ARC
  5
138
330
1F
100
AcDbEntity
  8
枠_表
  6
CONTINUOUS
 62
     3
100
AcDbCircle
 10
1214.219864369802
 20
212.9075745769524
 30
0.0
 40
15.62929101996345
100
AcDbArc
 50
77.23143261361693
 51
105.203415964315
  0
ARC
  5
139
330
1F
100
AcDbEntity
  8
枠_表
  6
CONTINUOUS
 62
     3
100
AcDbCircle
 10
1214.892511922709
 20
217.9112829230132
 30
0.0
 40
10.61019807939003
100
AcDbArc
 50
3.537639967999379
 51
74.8013566619203
  0
ARC
  5
13A
330
1F
100
AcDbEntity
  8
枠_表
  6
CONTINUOUS
 62
     3
100
AcDbCircle
 10
1206.00808103504
 20
215.8844805562694
 30
0.0
 40
19.65815626528382
100
AcDbArc
 50
353.0315250986587
 51
7.839947970678348
  0
ARC
  5
13B
330
1F
100
AcDbEntity
  8
枠_表
  6
CONTINUOUS
 62
     3
100
AcDbCircle
 10
1222.984643351057
 20
213.9766998756431
 30
0.0
 40
2.580882423421965
100
AcDbArc
 50
291.5204897073511
 51
349.3445900274031
  0
ARC
  5
13C
330
1F
100
AcDbEntity
  8
枠_表
  6
CONTINUOUS
 62
     3
100
AcDbCircle
 10
1217.01495751669
 20
225.9611044033113
 30
0.0
 40
15.96170002909176
100
AcDbArc
 50
282.7195832898965
 51
295.6781112778079
  0
ARC
  5
13D
330
1F
100
AcDbEntity
  8
枠_表
  6
CONTINUOUS
 62
     3
100
AcDbCircle
 10
1178.779514997924
 20
396.1803044662827
 30
0.0
 40
190.4223614055573
100
AcDbArc
 50
278.8438342053764
 51
282.6649181367123
  0
ARC
  5
13E
330
1F
100
AcDbEntity
  8
枠_表
  6
CONTINUOUS
 62
     3
100
AcDbCircle
 10
1212.145520801423
 20
188.941272222429
 30
0.0
 40
19.5140492547738
100
AcDbArc
 50
102.0988446293839
 51
129.1556705448828
  0
ARC
  5
13F
330
1F
100
AcDbEntity
  8
枠_表
  6
CONTINUOUS
 62
     3
100
AcDbCircle
 10
1206.595856854577
 20
195.954949875121
 30
0.0
 40
10.57193055836883
100
AcDbArc
 50
129.8344892359069
 51
168.4089447024628
  0
ARC
  5
140
330
1F
100
AcDbEntity
  8
枠_表
  6
CONTINUOUS
 62
     3
100
AcDbCircle
 10
1208.861252785555
 20
194.6638068821608
 30
0.0
 40
13.07564058883004
100
AcDbArc
 50
164.8589457925044
 51
187.8495628504518
  0
ARC
  5
141
330
1F
100
AcDbEntity
  8
枠_表
  6
CONTINUOUS
 62
     3
100
AcDbCircle
 10
1207.637299937381
 20
194.1022532359295
 30
0.0
 40
11.79288520689435
100
AcDbArc
 50
185.9586126338419
 51
224.0091989319859
  0
ARC
  5
142
330
1F
100
AcDbEntity
  8
枠_表
  6
CONTINUOUS
 62
     3
100
AcDbCircle
 10
1208.184442955589
 20
194.7166657158903
 30
0.0
 40
12.61343486634549
100
AcDbArc
 50
224.289750990011
 51
255.6505938786759
  0
ARC
  5
143
330
1F
100
AcDbEntity
  8
枠_表
  6
CONTINUOUS
 62
     3
100
AcDbCircle
 10
1207.939219610568
 20
191.5445241581108
 30
0.0
 40
9.49534248137679
100
AcDbArc
 50
252.3384873625213
 51
268.8069976857606
  0
LINE
  5
144
330
1F
100
AcDbEntity
  8
枠_表
  6
CONTINUOUS
 62
     3
100
AcDbLine
 10
1207.74152359993
 20
182.0512399463121
 30
0.0
 11
1211.852273599932
 21
182.0512399463121
 31
0.0
  0
ARC
  5
145
330
1F
100
AcDbEntity
  8
枠_表
  6
CONTINUOUS
 62
     3
100
AcDbCircle
 10
1209.991956880107
 20
202.430103938525
 30
0.0
 40
20.46359880155898
100
AcDbArc
 50
275.2158792069686
 51
319.2336424873511
  0
ARC
  5
146
330
1F
100
AcDbEntity
  8
枠_表
  6
CONTINUOUS
 62
     3
100
AcDbCircle
 10
1232.747334083803
 20
189.9738891398579
 30
0.0
 40
7.31302701014583
100
AcDbArc
 50
187.1167640402297
 51
216.4860549324747
  0
ARC
  5
147
330
1F
100
AcDbEntity
  8
枠_表
  6
CONTINUOUS
 62
     3
100
AcDbCircle
 10
1231.940660262275
 20
189.5051184792953
 30
0.0
 40
6.38654325930597
100
AcDbArc
 50
217.4081478714985
 51
264.8118660441384
  0
ARC
  5
148
330
1F
100
AcDbEntity
  8
枠_表
  6
CONTINUOUS
 62
     3
100
AcDbCircle
 10
1234.349383791895
 20
195.969676923454
 30
0.0
 40
12.84810930031341
100
AcDbArc
 50
271.2220539293239
 51
292.8159509797653
  0
LINE
  5
149
330
1F
100
AcDbEntity
  8
枠_表
  6
CONTINUOUS
 62
     3
100
AcDbLine
 10
1231.363148599931
 20
183.1447399463104
 30
0.0
 11
1234.623398599931
 21
183.1447399463104
 31
0.0
  0
LINE
  5
14A
330
1F
100
AcDbEntity
  8
枠_表
  6
CONTINUOUS
 62
     3
100
AcDbLine
 10
1239.33152359993
 20
184.126864946312
 30
0.0
 11
1239.33152359993
 21
186.485989946309
 31
0.0
  0
ARC
  5
14B
330
1F
100
AcDbEntity
  8
枠_表
  6
CONTINUOUS
 62
     3
100
AcDbCircle
 10
1237.236311768749
 20
190.5091783111618
 30
0.0
 40
4.5360728870472
100
AcDbArc
 50
243.6191685566582
 51
297.5097757939563
  0
ARC
  5
14C
330
1F
100
AcDbEntity
  8
枠_表
  6
CONTINUOUS
 62
     3
100
AcDbCircle
 10
1237.773598416961
 20
190.2454393170694
 30
0.0
 40
4.577830246610835
100
AcDbArc
 50
179.9117548191414
 51
236.1065985968857
  0
ARC
  5
14D
330
1F
100
AcDbEntity
  8
枠_表
  6
CONTINUOUS
 62
     3
100
AcDbCircle
 10
1913.475203758117
 20
197.8985765897608
 30
0.0
 40
680.3223983798493
100
AcDbArc
 50
178.2526643324597
 51
180.6439560401927
  0
ARC
  5
14E
330
1F
100
AcDbEntity
  8
枠_表
  6
CONTINUOUS
 62
     3
100
AcDbCircle
 10
1218.105940890474
 20
217.5287438959981
 30
0.0
 40
15.40356112671885
100
AcDbArc
 50
4.148222840814693
 51
92.36000944257292
  0
ARC
  5
14F
330
1F
100
AcDbEntity
  8
枠_表
  6
CONTINUOUS
 62
     3
100
AcDbCircle
 10
1216.902798618884
 20
206.4250933390315
 30
0.0
 40
26.50025272990596
100
AcDbArc
 50
88.77000393305703
 51
128.9068631829044
  0
TEXT
  5
151
330
1F
100
AcDbEntity
  8
枠_表
  6
CONTINUOUS
 62
     2
100
AcDbText
 10
1384.500000000057
 20
174.7500000000014
 30
0.0
 40
50.625
  1
ジャニス工業株式会社
 41
1.025641025641026
  7
EXCADTTF1
 72
     5
 11
2059.500000000057
 21
174.7500000000014
 31
0.0
100
AcDbText
  0
HATCH
  5
152
330
1F
100
AcDbEntity
  8
枠_表
  6
CONTINUOUS
 62
     3
100
AcDbHatch
 10
0.0
 20
0.0
 30
0.0
210
0.0
220
0.0
230
1.0
  2
SOLID
 70
     1
 71
     1
 91
        2
 92
        3
 72
     1
 73
     1
 93
       27
 10
1200.25914859993
 20
227.0467399463097
 42
-0.1769427732109284
 10
1200.259148599932
 20
227.0467399463098
 42
0.0
 10
1200.259148599932
 20
221.5792399463112
 42
0.0
 10
1201.575398599931
 20
221.5792399463107
 42
-0.207533601427307
 10
1210.121134184411
 20
227.9898538693564
 42
-0.1226604740888933
 10
1217.674148599931
 20
228.1503649463112
 42
-0.3213715781137954
 10
1225.482492033368
 20
218.5659771567722
 42
-0.064704004662446
 10
1225.52102359993
 20
213.4994899463109
 42
-0.257798906330806
 10
1223.931398599932
 20
211.57573994631
 42
-0.056602577721096
 10
1220.529398599931
 20
210.3911149463123
 42
-0.0166741689362636
 10
1208.05539859993
 20
208.0218649463094
 42
0.1186092302783404
 10
1199.82377359993
 20
204.0731149463118
 42
0.1699204224386695
 10
1196.239523599932
 20
198.07911494631
 42
0.1006533494296199
 10
1195.908130019429
 20
192.8780332643591
 42
0.1675695228968024
 10
1199.155523599932
 20
185.9088649463119
 42
0.1376980079804242
 10
1205.05839859993
 20
182.4967399463105
 42
0.0719813663796923
 10
1207.74152359993
 20
182.0512399463121
 42
0.0
 10
1211.852273599932
 20
182.0512399463122
 42
0.1944607457809085
 10
1225.490648599932
 20
189.0678649463093
 42
0.1288538183665954
 10
1226.867648599931
 20
185.6253649463115
 42
0.2098387395261546
 10
1231.363148599931
 20
183.1447399463104
 42
0.0
 10
1234.623398599932
 20
183.1244899463105
 42
0.0945009641609563
 10
1239.33152359993
 20
184.126864946312
 42
0.0
 10
1239.33152359993
 20
186.4859899463093
 42
-0.2395739894657535
 10
1235.220773599931
 20
186.445489946309
 42
-0.2502312110031057
 10
1233.195773599928
 20
190.252489946313
 42
-0.0104343570771765
 10
1233.469148599931
 20
218.6429899463118
 42
0.4051015674140716
 97
        0
 92
        3
 72
     1
 73
     1
 93
        8
 10
1225.703273599931
 20
208.5382399463092
 42
-0.0339435190873666
 10
1225.703273599938
 20
208.5382399462927
 42
-0.0001110072973599
 10
1225.278023599931
 20
193.026739946309
 42
-0.2253076310552528
 10
1214.646773599931
 20
185.9291149463115
 42
0.0
 10
1212.04464859993
 20
185.9291149463098
 42
-0.3657967558150132
 10
1204.30914859993
 20
194.1506149463112
 42
0.0
 10
1204.309148599931
 20
197.0868649463121
 42
-0.2530797830369341
 10
1209.533648599932
 20
204.3161149463117
 42
-0.0724473624720066
 97
        0
 75
     0
 76
     1
 98
        1
 10
0.0
 20
0.0
  0
HATCH
  5
153
330
1F
100
AcDbEntity
  8
枠_表
  6
CONTINUOUS
 62
     3
100
AcDbHatch
 10
0.0
 20
0.0
 30
0.0
210
0.0
220
0.0
230
1.0
  2
SOLID
 70
     1
 71
     1
 91
        1
 92
        3
 72
     1
 73
     1
 93
       30
 10
1361.601023599928
 20
230.0032399463128
 42
-0.0009362235736497
 10
1361.601023599928
 20
230.0032399463103
 42
0.0681165430304653
 10
1359.145640230152
 20
222.6423649463095
 42
0.0
 10
1349.896523599931
 20
228.9704899463122
 42
-0.302112590907374
 10
1349.896523599932
 20
228.9704899463095
 42
0.0
 10
1340.57139859993
 20
221.822239946312
 42
-0.3704245237568778
 10
1340.57139859993
 20
221.8222399463116
 42
0.0
 10
1341.057398599931
 20
217.0432399463103
 42
-0.0262822419456939
 10
1346.808398599931
 20
212.4464899463116
 42
-0.180060563604375
 10
1355.981648599931
 20
209.6519899463096
 42
-0.0298130817160724
 10
1355.98164859993
 20
209.6519899463108
 42
-0.3153987453686078
 10
1364.436023599931
 20
199.9826149463104
 42
0.0
 10
1364.385398599932
 20
195.6592399463116
 42
-0.3510306079065168
 10
1348.08414859993
 20
181.990489946312
 42
0.0
 10
1343.325398599929
 20
181.9904899463108
 42
-0.1053356344842436
 10
1332.795398599931
 20
185.0279899463112
 42
0.1188608286962634
 10
1334.719148599931
 20
192.7229899463123
 42
0.0
 10
1346.261648599931
 20
185.6354899463113
 42
-0.2447573632916039
 10
1346.261648599931
 20
185.6354899463111
 42
0.0
 10
1357.399148599931
 20
193.4317399463096
 42
-0.3734162676407277
 10
1357.399148599932
 20
193.43173994631
 42
0.0
 10
1353.359273599932
 20
201.2178649463096
 42
-0.261219770190848
 10
1343.932898599929
 20
204.6401149463114
 42
-0.0572747914118363
 10
1343.932898599931
 20
204.6401149463095
 42
-0.1189658875692221
 10
1336.440398599931
 20
209.0343649463096
 42
-0.2005226878639636
 10
1333.30164859993
 20
216.1117399463433
 42
0.0
 10
1333.251023599931
 20
218.794864946309
 42
-0.2622894489606957
 10
1341.300398599932
 20
231.0967399463106
 42
-0.0988461274137808
 10
1348.833398599932
 20
232.909114946309
 42
0.0
 10
1351.627898599931
 20
232.9091149463105
 42
-0.0920156312561188
 97
        0
 75
     0
 76
     1
 98
        1
 10
0.0
 20
0.0
  0
HATCH
  5
154
330
1F
100
AcDbEntity
  8
枠_表
  6
CONTINUOUS
 62
     3
100
AcDbHatch
 10
0.0
 20
0.0
 30
0.0
210
0.0
220
0.0
230
1.0
  2
SOLID
 70
     1
 71
     1
 91
        2
 92
        1
 93
        1
 72
     2
 10
1314.428271057559
 20
249.8753200310557
 40
5.358501700154826
 50
0.0
 51
360.0
 73
     1
 97
        0
 92
        3
 72
     1
 73
     1
 93
        3
 10
1309.63952359993
 20
232.0484899463118
 42
0.1200283885712921
 10
1318.954523599928
 20
183.0941149463105
 42
-0.0401820615762149
 10
1309.64964859993
 20
183.0637399463094
 42
-0.0237521668114666
 97
        0
 75
     0
 76
     1
 98
        1
 10
0.0
 20
0.0
  0
HATCH
  5
155
330
1F
100
AcDbEntity
  8
枠_表
  6
CONTINUOUS
 62
     3
100
AcDbHatch
 10
0.0
 20
0.0
 30
0.0
210
0.0
220
0.0
230
1.0
  2
SOLID
 70
     1
 71
     1
 91
        1
 92
        3
 72
     1
 73
     1
 93
       16
 10
1250.803148599931
 20
183.1548649463109
 42
-0.0386228372648426
 10
1250.712023599931
 20
231.967489946311
 42
-0.0398707891902887
 10
1259.571398599931
 20
232.0079899463121
 42
-0.1256886216044368
 10
1259.166398599931
 20
223.725739946312
 42
-0.0367815758121429
 10
1259.166398599931
 20
223.7257399463099
 42
-0.268021535028829
 10
1277.037023599931
 20
233.0002399463111
 42
-0.2571134422124888
 10
1289.25789859993
 20
226.9556149463115
 42
-0.1522526366014298
 10
1292.366273599931
 20
216.9014899463101
 42
-0.0158825412051521
 10
1292.143523599927
 20
183.1042399463118
 42
-0.0285251271418421
 10
1283.587898599932
 20
183.1042399463092
 42
-0.0452212723224612
 10
1284.02327359993
 20
214.3297399463106
 42
-0.0315567291532142
 10
1281.370523599931
 20
223.5536149463122
 42
-0.1476272403790709
 10
1264.097273599931
 20
224.8799899463091
 42
-0.3908144705745794
 10
1259.22714859993
 20
212.760364946309
 42
-0.2046259928850854
 10
1259.22714859993
 20
212.7603649463106
 42
0.0
 10
1259.986523599932
 20
183.0738649463112
 42
-0.0304995761723369
 97
        0
 75
     0
 76
     1
 98
        1
 10
0.0
 20
0.0
  0
HATCH
  5
156
330
1F
100
AcDbEntity
  8
枠_表
  6
CONTINUOUS
 62
     3
100
AcDbHatch
 10
0.0
 20
0.0
 30
0.0
210
0.0
220
0.0
230
1.0
  2
SOLID
 70
     1
 71
     1
 91
        1
 92
        3
 72
     1
 73
     1
 93
       10
 10
1162.08789859993
 20
184.82548994631
 42
-0.017362223501556
 10
1162.21952359993
 20
264.2763649463099
 42
-0.0267627618865285
 10
1162.21952359993
 20
264.2763649463111
 42
0.0737939047395297
 10
1181.598773599929
 20
264.3573649463108
 42
0.0183878899657109
 10
1180.819148599932
 20
192.7229899463116
 42
-0.1144749489451909
 10
1177.68039859993
 20
177.636739946309
 42
-0.1929163439413163
 10
1162.746023599932
 20
165.9119899463099
 42
-0.0603888289562337
 10
1154.82827359993
 20
163.9376149463101
 42
0.0
 10
1152.97539859993
 20
169.5772399463091
 42
0.0860918333465722
 10
1158.513773599931
 20
172.52361494631
 42
0.1331843103855141
 97
        0
 75
     0
 76
     1
 98
        1
 10
0.0
 20
0.0
  0
LINE
  5
157
330
1F
100
AcDbEntity
  8
枠_表
  6
CONTINUOUS
 62
     7
100
AcDbLine
 10
261.0000000000491
 20
139.4999999999993
 30
0.0
 11
2991.000000000049
 21
139.4999999999993
 31
0.0
  0
TEXT
  5
158
330
1F
100
AcDbEntity
  8
枠_表
  6
CONTINUOUS
 62
     2
100
AcDbText
 10
1206.000000000054
 20
402.000001907348
 30
0.0
 40
59.99999618530273
  1
６００ｍｍ幅
 41
0.9999999872843416
  7
EXCADSTD
 72
     5
 11
1505.999977111871
 21
402.000001907348
 31
0.0
100
AcDbText
  0
TEXT
  5
159
330
1F
100
AcDbEntity
  8
枠_表
  6
CONTINUOUS
 62
     2
100
AcDbText
 10
1756.500000000096
 20
4153.125001907346
 30
0.0
 40
59.99999618530273
  1
ＬＵ０６０２ＣＳＤ１Ｅ
 41
0.7080769098966542
  7
EXCADSTD
 72
     5
 11
2150.999967575169
 21
4153.125001907346
 31
0.0
100
AcDbText
  0
TEXT
  5
15A
330
1F
100
AcDbEntity
  8
枠_表
  6
CONTINUOUS
 62
     2
100
AcDbText
 10
1756.500000000096
 20
4078.875001907346
 30
0.0
 40
59.99999618530273
  1
ＬＵ０６０２ＣＳＤ１Ｙ
 41
0.7080769098966542
  7
EXCADSTD
 72
     5
 11
2150.999967575169
 21
4078.875001907346
 31
0.0
100
AcDbText
  0
TEXT
  5
15B
330
1F
100
AcDbEntity
  8
枠_表
  6
CONTINUOUS
 62
     2
100
AcDbText
 10
1741.49999999866
 20
3400.500003814705
 30
0.0
 40
59.99999618530273
  1
※洗面化粧台には、床排水用トラップを付属
 41
1.036764705882353
  7
EXCADSTD
 72
     5
 11
2798.999932764621
 21
3400.500003814705
 31
0.0
100
AcDbText
  0
TEXT
  5
15C
330
1F
100
AcDbEntity
  8
枠_表
  6
CONTINUOUS
 62
     2
100
AcDbText
 10
1741.49999999866
 20
3340.500007629403
 30
0.0
 40
59.99999618530273
  1
※洗面化粧台には、止水栓は含まれない
 41
1.038551401869159
  7
EXCADSTD
 72
     5
 11
2693.999939440341
 21
3340.500007629403
 31
0.0
100
AcDbText
  0
TEXT
  5
15D
330
1F
100
AcDbEntity
  8
枠_表
  6
CONTINUOUS
 62
     2
100
AcDbText
 10
1741.49999999866
 20
3280.5000114441
 30
0.0
 40
59.99999618530273
  1
※湯水混合水栓は、節湯Ｃ１形、吐水口引出式
 41
1.036
  7
EXCADSTD
 72
     5
 11
2851.499929426761
 21
3280.5000114441
 31
0.0
100
AcDbText
  0
TEXT
  5
15E
330
1F
100
AcDbEntity
  8
枠_表
  6
CONTINUOUS
 62
     2
100
AcDbText
 10
2209.499999999899
 20
4077.375001907343
 30
0.0
 40
59.99999618530273
  1
洗面化粧台（寒冷地形）
 41
0.9692307555369835
  7
EXCADSTD
 72
     5
 11
2749.499958038229
 21
4077.375001907343
 31
0.0
100
AcDbText
  0
TEXT
  5
15F
330
1F
100
AcDbEntity
  8
枠_表
  6
CONTINUOUS
 62
     2
100
AcDbText
 10
2206.500000715346
 20
342.0000038146966
 30
0.0
 40
74.99999237060547
  1
ＬＵ０６０２ＣＳ型
 41
0.7818868115311168
  7
EXCADSTD
 72
     5
 11
2650.49996638307
 21
342.0000038146966
 31
0.0
100
AcDbText
  0
TEXT
  5
160
330
1F
100
AcDbEntity
  8
枠_表
  6
CONTINUOUS
 62
     2
100
AcDbText
 10
1753.500000000166
 20
3534.375001907349
 30
0.0
 40
59.99999618530273
  1
ＬＵＭＥＨ７０－２００－３２Ｂ
 41
0.6685393858491744
  7
EXCADSTD
 72
     5
 11
2263.500013351606
 21
3534.375001907349
 31
0.0
100
AcDbText
  0
CIRCLE
  5
161
330
1F
100
AcDbEntity
  8
枠_表
  6
CONTINUOUS
 62
     6
100
AcDbCircle
 10
411.0000000000543
 20
176.9999999999993
 30
0.0
 40
1.5000003
  0
CIRCLE
  5
162
330
1F
100
AcDbEntity
  8
枠_表
  6
CONTINUOUS
 62
     6
100
AcDbCircle
 10
336.0000000000543
 20
176.9999999999993
 30
0.0
 40
1.5000003
  0
TEXT
  5
163
330
1F
100
AcDbEntity
  8
枠_表
  6
CONTINUOUS
 62
     2
100
AcDbText
 10
302.2500000000074
 20
267.0000038146999
 30
0.0
 40
74.99999237060547
  1
福地
 41
1.166581818181818
  7
EXCADSTD
 72
     5
 11
439.7399860138013
 21
267.0000038146999
 31
0.0
100
AcDbText
  0
TEXT
  5
164
330
1F
100
AcDbEntity
  8
枠_表
  6
CONTINUOUS
 62
     6
100
AcDbText
 10
270.5161735132257
 20
153.6751117073488
 30
0.0
 40
44.99999618530273
  1
'21
 41
0.5376093796308453
  7
EXCADSTD
 72
     5
 11
317.7489935768167
 21
153.6751117073488
 31
0.0
100
AcDbText
  0
TEXT
  5
165
330
1F
100
AcDbEntity
  8
枠_表
  6
CONTINUOUS
 62
     6
100
AcDbText
 10
357.4786741748372
 20
153.6751117073488
 30
0.0
 40
44.99999618530273
  1
12
 41
0.4086486447995843
  7
EXCADSTD
 72
     5
 11
389.8786711230794
 21
153.6751117073488
 31
0.0
100
AcDbText
  0
TEXT
  5
166
330
1F
100
AcDbEntity
  8
枠_表
  6
CONTINUOUS
 62
     6
100
AcDbText
 10
441.9661737814469
 20
153.6751117073488
 30
0.0
 40
44.99999618530273
  1
1
 41
0.7238636451297339
  7
EXCADSTD
 72
     5
 11
459.0286725416702
 21
153.6751117073488
 31
0.0
100
AcDbText
  0
TEXT
  5
167
330
1F
100
AcDbEntity
  8
枠_表
  6
CONTINUOUS
 62
     2
100
AcDbText
 10
1753.500000000157
 20
3899.25000190735
 30
0.0
 40
59.99999618530273
  1
ＪＬ２２１Ｆ２００ＷＭＹ３０
 41
0.6999999868630395
  7
EXCADSTD
 72
     5
 11
2251.499958992161
 21
3899.25000190735
 31
0.0
100
AcDbText
  0
TEXT
  5
168
330
1F
100
AcDbEntity
  8
枠_表
  6
CONTINUOUS
 62
     2
100
AcDbText
 10
1756.500000000096
 20
3825.375001907347
 30
0.0
 40
59.99999618530273
  1
ＪＬ２２１－７５ＷＭＳＹ
 41
0.7049295643013961
  7
EXCADSTD
 72
     5
 11
2185.499964714146
 21
3825.375001907347
 31
0.0
100
AcDbText
  0
TEXT
  5
169
330
1F
100
AcDbEntity
  8
枠_表
  6
CONTINUOUS
 62
     7
100
AcDbText
 10
2263.500000000003
 20
171.7500038146979
 30
0.0
 40
89.99999237060547
  1
ＬＵ２１７９５３
 41
1.01773049277147
  7
EXCADSTD
 72
     5
 11
2878.499945640567
 21
171.7500038146979
 31
0.0
100
AcDbText
  0
TEXT
  5
16A
330
1F
100
AcDbEntity
  8
枠_表
  6
CONTINUOUS
 62
     2
100
AcDbText
 10
534.7500000000074
 20
267.0000038146999
 30
0.0
 40
74.99999237060547
  1
川野
 41
1.166581818181819
  7
EXCADSTD
 72
     5
 11
672.2399860138014
 21
267.0000038146999
 31
0.0
100
AcDbText
  0
TEXT
  5
16B
330
1F
100
AcDbEntity
  8
枠_表
  6
CONTINUOUS
 62
     6
100
AcDbText
 10
503.0161735132257
 20
153.6751117073487
 30
0.0
 40
44.99999618530273
  1
'23
 41
0.4689783949971204
  7
EXCADSTD
 72
     5
 11
550.2489935768167
 21
153.6751117073487
 31
0.0
100
AcDbText
  0
TEXT
  5
16C
330
1F
100
AcDbEntity
  8
枠_表
  6
CONTINUOUS
 62
     6
100
AcDbText
 10
597.1036740854303
 20
153.6751117073487
 30
0.0
 40
44.99999618530273
  1
4
 41
0.4423611164681722
  7
EXCADSTD
 72
     5
 11
614.1661728456537
 21
153.6751117073487
 31
0.0
100
AcDbText
  0
TEXT
  5
16D
330
1F
100
AcDbEntity
  8
枠_表
  6
CONTINUOUS
 62
     6
100
AcDbText
 10
667.3411738708538
 20
153.6751117073487
 30
0.0
 40
44.99999618530273
  1
14
 41
0.3978947330943328
  7
EXCADSTD
 72
     5
 11
699.741170819096
 21
153.6751117073487
 31
0.0
100
AcDbText
  0
CIRCLE
  5
16E
330
1F
100
AcDbEntity
  8
枠_表
  6
CONTINUOUS
 62
     6
100
AcDbCircle
 10
643.5000000000542
 20
176.9999999999993
 30
0.0
 40
1.5000003
  0
CIRCLE
  5
16F
330
1F
100
AcDbEntity
  8
枠_表
  6
CONTINUOUS
 62
     6
100
AcDbCircle
 10
568.5000000000542
 20
176.9999999999993
 30
0.0
 40
1.5000003
  0
TEXT
  5
170
330
1F
100
AcDbEntity
  8
枠_表
  6
CONTINUOUS
 62
     2
100
AcDbText
 10
1756.500000000096
 20
3646.125001907347
 30
0.0
 40
59.99999618530273
  1
ＭＥ４４１３１
 41
0.7298780354833208
  7
EXCADSTD
 72
     5
 11
2012.999979019261
 21
3646.125001907347
 31
0.0
100
AcDbText
  0
LINE
  5
171
330
1F
100
AcDbEntity
  8
化粧台
  6
EXLTYPE3
 62
     6
100
AcDbLine
 10
961.0000000000477
 20
1194.0
 30
0.0
 11
961.0000000000477
 21
899.5
 31
0.0
  0
LINE
  5
172
330
1F
100
AcDbEntity
  8
化粧台
  6
EXLTYPE3
 62
     6
100
AcDbLine
 10
1161.00000000005
 20
3139.5
 30
0.0
 11
1161.00000000005
 21
3234.5
 31
0.0
  0
LINE
  5
173
330
1F
100
AcDbEntity
  8
化粧台
  6
CONTINUOUS
 62
     6
100
AcDbLine
 10
1145.000000000051
 20
3219.5
 30
0.0
 11
1177.000000000051
 21
3219.5
 31
0.0
  0
LINE
  5
174
330
1F
100
AcDbEntity
  8
化粧台
  6
CONTINUOUS
 62
     6
100
AcDbLine
 10
1145.000000000051
 20
3169.5
 30
0.0
 11
1145.000000000051
 21
3219.5
 31
0.0
  0
LINE
  5
175
330
1F
100
AcDbEntity
  8
化粧台
  6
CONTINUOUS
 62
     6
100
AcDbLine
 10
1177.000000000051
 20
3169.5
 30
0.0
 11
1177.000000000051
 21
3219.5
 31
0.0
  0
LINE
  5
176
330
1F
100
AcDbEntity
  8
化粧台
  6
EXLTYPE3
 62
     6
100
AcDbLine
 10
1061.000000000053
 20
3139.5
 30
0.0
 11
1061.000000000053
 21
3192.5
 31
0.0
  0
LINE
  5
177
330
1F
100
AcDbEntity
  8
化粧台
  6
CONTINUOUS
 62
     6
100
AcDbLine
 10
1071.50000000007
 20
3169.5
 30
0.0
 11
1071.50000000007
 21
3177.5
 31
0.0
  0
LINE
  5
178
330
1F
100
AcDbEntity
  8
化粧台
  6
CONTINUOUS
 62
     6
100
AcDbLine
 10
1050.500000000062
 20
3169.5
 30
0.0
 11
1050.500000000062
 21
3177.5
 31
0.0
  0
LINE
  5
179
330
1F
100
AcDbEntity
  8
化粧台
  6
CONTINUOUS
 62
     6
100
AcDbLine
 10
1071.500000000053
 20
3177.5
 30
0.0
 11
1050.500000000062
 21
3177.5
 31
0.0
  0
LINE
  5
17A
330
1F
100
AcDbEntity
  8
化粧台
  6
EXLTYPE3
 62
     6
100
AcDbLine
 10
861.0000000000477
 20
3139.5
 30
0.0
 11
861.0000000000477
 21
3192.5
 31
0.0
  0
LINE
  5
17B
330
1F
100
AcDbEntity
  8
化粧台
  6
CONTINUOUS
 62
     6
100
AcDbLine
 10
850.5000000000314
 20
3169.5
 30
0.0
 11
850.5000000000314
 21
3177.5
 31
0.0
  0
LINE
  5
17C
330
1F
100
AcDbEntity
  8
化粧台
  6
CONTINUOUS
 62
     6
100
AcDbLine
 10
871.5000000000387
 20
3169.5
 30
0.0
 11
871.5000000000387
 21
3177.5
 31
0.0
  0
LINE
  5
17D
330
1F
100
AcDbEntity
  8
化粧台
  6
CONTINUOUS
 62
     6
100
AcDbLine
 10
850.5000000000477
 20
3177.5
 30
0.0
 11
871.5000000000387
 21
3177.5
 31
0.0
  0
LINE
  5
17E
330
1F
100
AcDbEntity
  8
化粧台
  6
CONTINUOUS
 62
     2
100
AcDbLine
 10
2375.000000000046
 20
919.4999999999
 30
0.0
 11
2375.000000000046
 21
869.49999999988
 31
0.0
  0
LINE
  5
17F
330
1F
100
AcDbEntity
  8
化粧台
  6
CONTINUOUS
 62
     2
100
AcDbLine
 10
2407.000000000046
 20
869.49999999988
 30
0.0
 11
2375.000000000046
 21
869.49999999988
 31
0.0
  0
LINE
  5
180
330
1F
100
AcDbEntity
  8
化粧台
  6
CONTINUOUS
 62
     2
100
AcDbLine
 10
2407.000000000046
 20
919.4999999999
 30
0.0
 11
2407.000000000046
 21
869.49999999988
 31
0.0
  0
LINE
  5
181
330
1F
100
AcDbEntity
  8
化粧台
  6
CONTINUOUS
 62
     6
100
AcDbLine
 10
2413.800000000049
 20
981.5000000000001
 30
0.0
 11
2413.800000000049
 21
963.7000000000007
 31
0.0
  0
LINE
  5
182
330
1F
100
AcDbEntity
  8
化粧台
  6
CONTINUOUS
 62
     6
100
AcDbLine
 10
2368.20000000005
 20
981.5000000000001
 30
0.0
 11
2368.20000000005
 21
963.7000000000007
 31
0.0
  0
ARC
  5
183
330
1F
100
AcDbEntity
  8
化粧台
  6
EXLTYPE2
 62
     6
100
AcDbCircle
 10
2360.500000000053
 20
943.5
 30
0.0
 40
3.000000000000003
100
AcDbArc
 50
90.00000000000001
 51
180.0
  0
LINE
  5
184
330
1F
100
AcDbEntity
  8
化粧台
  6
EXLTYPE2
 62
     6
100
AcDbLine
 10
2360.500000000053
 20
946.5
 30
0.0
 11
2421.500000000053
 21
946.5
 31
0.0
  0
LINE
  5
185
330
1F
100
AcDbEntity
  8
化粧台
  6
EXLTYPE2
 62
     6
100
AcDbLine
 10
2357.50000000005
 20
943.5
 30
0.0
 11
2357.50000000005
 21
923.5
 31
0.0
  0
ARC
  5
186
330
1F
100
AcDbEntity
  8
化粧台
  6
EXLTYPE2
 62
     6
100
AcDbCircle
 10
2367.000000000053
 20
958.5
 30
0.0
 40
3.000000000000003
100
AcDbArc
 50
90.00000000000001
 51
180.0
  0
LINE
  5
187
330
1F
100
AcDbEntity
  8
化粧台
  6
EXLTYPE2
 62
     6
100
AcDbLine
 10
2367.000000000053
 20
961.4999999999999
 30
0.0
 11
2415.000000000053
 21
961.4999999999999
 31
0.0
  0
LINE
  5
188
330
1F
100
AcDbEntity
  8
化粧台
  6
EXLTYPE2
 62
     6
100
AcDbLine
 10
2364.000000000053
 20
958.5
 30
0.0
 11
2364.000000000053
 21
946.5
 31
0.0
  0
ARC
  5
189
330
1F
100
AcDbEntity
  8
化粧台
  6
EXLTYPE2
 62
     6
100
AcDbCircle
 10
2415.000000000053
 20
958.5
 30
0.0
 40
3.000000000000003
100
AcDbArc
 50
0.0
 51
90.00000000000001
  0
LINE
  5
18A
330
1F
100
AcDbEntity
  8
化粧台
  6
EXLTYPE2
 62
     6
100
AcDbLine
 10
2418.000000000053
 20
958.5
 30
0.0
 11
2418.000000000053
 21
946.5
 31
0.0
  0
ARC
  5
18B
330
1F
100
AcDbEntity
  8
化粧台
  6
EXLTYPE2
 62
     6
100
AcDbCircle
 10
2421.500000000053
 20
943.5
 30
0.0
 40
3.000000000000003
100
AcDbArc
 50
0.0
 51
90.00000000000001
  0
LINE
  5
18C
330
1F
100
AcDbEntity
  8
化粧台
  6
EXLTYPE2
 62
     6
100
AcDbLine
 10
2424.500000000053
 20
943.5
 30
0.0
 11
2424.500000000053
 21
923.5
 31
0.0
  0
LINE
  5
18D
330
1F
100
AcDbEntity
  8
化粧台
  6
EXLTYPE2
 62
     6
100
AcDbLine
 10
2357.50000000005
 20
923.5
 30
0.0
 11
2424.500000000053
 21
923.5
 31
0.0
  0
LINE
  5
18E
330
1F
100
AcDbEntity
  8
化粧台
  6
EXLTYPE2
 62
     6
100
AcDbLine
 10
2368.20000000005
 20
981.5000000000001
 30
0.0
 11
2413.800000000049
 21
981.5000000000001
 31
0.0
  0
LINE
  5
18F
330
1F
100
AcDbEntity
  8
化粧台
  6
EXLTYPE2
 62
     6
100
AcDbLine
 10
2368.20000000005
 20
963.7000000000007
 30
0.0
 11
2413.800000000049
 21
963.7000000000007
 31
0.0
  0
LINE
  5
190
330
1F
100
AcDbEntity
  8
化粧台
  6
EXLTYPE3
 62
     6
100
AcDbLine
 10
2391.00000000005
 20
1104.5
 30
0.0
 11
2391.00000000005
 21
854.49999999988
 31
0.0
  0
LINE
  5
191
330
1F
100
AcDbEntity
  8
化粧台
  6
EXLTYPE2
 62
     6
100
AcDbLine
 10
2407.00000000005
 20
919.4999999999
 30
0.0
 11
2407.00000000005
 21
1089.5
 31
0.0
  0
LINE
  5
192
330
1F
100
AcDbEntity
  8
化粧台
  6
EXLTYPE2
 62
     6
100
AcDbLine
 10
2375.00000000005
 20
919.4999999999
 30
0.0
 11
2375.00000000005
 21
1089.5
 31
0.0
  0
LINE
  5
193
330
1F
100
AcDbEntity
  8
化粧台
  6
CONTINUOUS
 62
     6
100
AcDbLine
 10
2486.00000000005
 20
1499.499999999953
 30
0.0
 11
2528.50000572195
 21
1499.499999999953
 31
0.0
  0
LINE
  5
194
330
1F
100
AcDbEntity
  8
化粧台
  6
CONTINUOUS
 62
     6
100
AcDbLine
 10
2491.000005722052
 20
1501.49999999996
 30
0.0
 11
2523.500005722052
 21
1499.499999999958
 31
0.0
  0
LINE
  5
195
330
1F
100
AcDbEntity
  8
化粧台
  6
CONTINUOUS
 62
     6
100
AcDbLine
 10
2523.500005722052
 20
1499.499999999958
 30
0.0
 11
2491.000005722052
 21
1497.49999999996
 31
0.0
  0
LINE
  5
196
330
1F
100
AcDbEntity
  8
化粧台
  6
CONTINUOUS
 62
     2
100
AcDbLine
 10
2045.500000000048
 20
1009.5
 30
0.0
 11
2062.500000000048
 21
1009.5
 31
0.0
  0
ARC
  5
197
330
1F
100
AcDbEntity
  8
化粧台
  6
CONTINUOUS
 62
     6
100
AcDbCircle
 10
2063.000000000048
 20
1550.5
 30
0.0
 40
1.0
100
AcDbArc
 50
269.999999999987
 51
0.0
  0
LINE
  5
198
330
1F
100
AcDbEntity
  8
化粧台
  6
CONTINUOUS
 62
     6
100
AcDbLine
 10
2064.000000000048
 20
1591.5
 30
0.0
 11
2064.000000000048
 21
1550.5
 31
0.0
  0
ARC
  5
199
330
1F
100
AcDbEntity
  8
化粧台
  6
CONTINUOUS
 62
     6
100
AcDbCircle
 10
2061.000000000048
 20
1591.5
 30
0.0
 40
3.000000000000003
100
AcDbArc
 50
0.0
 51
90.00000000000001
  0
LINE
  5
19A
330
1F
100
AcDbEntity
  8
化粧台
  6
CONTINUOUS
 62
     2
100
AcDbLine
 10
2045.500000000048
 20
1564.5
 30
0.0
 11
2062.500000000048
 21
1564.5
 31
0.0
  0
LINE
  5
19B
330
1F
100
AcDbEntity
  8
化粧台
  6
CONTINUOUS
 62
     6
100
AcDbLine
 10
2044.500000000055
 20
1564.499999999995
 30
0.0
 11
2062.500000000051
 21
1564.499999999995
 31
0.0
  0
ARC
  5
19C
330
1F
100
AcDbEntity
  8
化粧台
  6
CONTINUOUS
 62
     6
100
AcDbCircle
 10
2061.150000000042
 20
1591.450000000008
 30
0.0
 40
1.0
100
AcDbArc
 50
0.0
 51
90.00000000000001
  0
ARC
  5
19D
330
1F
100
AcDbEntity
  8
化粧台
  6
CONTINUOUS
 62
     6
100
AcDbCircle
 10
2044.750000000048
 20
1586.25
 30
0.0
 40
1.750000000000001
100
AcDbArc
 50
170.7449623899685
 51
68.7663136548995
  0
ARC
  5
19E
330
1F
100
AcDbEntity
  8
化粧台
  6
CONTINUOUS
 62
     6
100
AcDbCircle
 10
2057.827514544843
 20
1584.119011184754
 30
0.0
 40
13.00000000000001
100
AcDbArc
 50
142.344253969435
 51
163.1780394406755
  0
ARC
  5
19F
330
1F
100
AcDbEntity
  8
化粧台
  6
CONTINUOUS
 62
     6
100
AcDbCircle
 10
2048.327167025378
 20
1591.450000000008
 30
0.0
 40
1.0
100
AcDbArc
 50
90.00000000000001
 51
142.3442539694352
  0
ARC
  5
1A0
330
1F
100
AcDbEntity
  8
化粧台
  6
CONTINUOUS
 62
     6
100
AcDbCircle
 10
2057.827514544843
 20
1584.119011184754
 30
0.0
 40
15.00000000000001
100
AcDbArc
 50
142.0420920441203
 51
170.7449623899722
  0
ARC
  5
1A1
330
1F
100
AcDbEntity
  8
化粧台
  6
CONTINUOUS
 62
     6
100
AcDbCircle
 10
2048.365960544088
 20
1591.5
 30
0.0
 40
3.000000000000003
100
AcDbArc
 50
90.00000000000001
 51
142.0420920441179
  0
LINE
  5
1A2
330
1F
100
AcDbEntity
  8
化粧台
  6
CONTINUOUS
 62
     6
100
AcDbLine
 10
2048.365960544048
 20
1594.5
 30
0.0
 11
2061.000000000048
 21
1594.5
 31
0.0
  0
LINE
  5
1A3
330
1F
100
AcDbEntity
  8
化粧台
  6
CONTINUOUS
 62
     6
100
AcDbLine
 10
2048.327167025349
 20
1592.45000000001
 30
0.0
 11
2061.150000000042
 21
1592.45000000001
 31
0.0
  0
LINE
  5
1A4
330
1F
100
AcDbEntity
  8
化粧台
  6
CONTINUOUS
 62
     6
100
AcDbLine
 10
2062.150000000042
 20
1591.449999999999
 30
0.0
 11
2062.150000000042
 21
1575.060271065815
 31
0.0
  0
LINE
  5
1A5
330
1F
100
AcDbEntity
  8
化粧台
  6
CONTINUOUS
 62
     6
100
AcDbLine
 10
2062.500000000051
 20
1564.499999999995
 30
0.0
 11
2062.500000000051
 21
1549.5
 31
0.0
  0
LINE
  5
1A6
330
1F
100
AcDbEntity
  8
化粧台
  6
CONTINUOUS
 62
     6
100
AcDbLine
 10
2043.950252619663
 20
1566.54231369542
 30
0.0
 11
2054.547979043139
 21
1567.070176405472
 31
0.0
  0
ARC
  5
1A7
330
1F
100
AcDbEntity
  8
化粧台
  6
CONTINUOUS
 62
     6
100
AcDbCircle
 10
2054.150000000042
 20
1575.060271065815
 30
0.0
 40
8.0
100
AcDbArc
 50
272.8514919099882
 51
0.0
  0
ARC
  5
1A8
330
1F
100
AcDbEntity
  8
化粧台
  6
CONTINUOUS
 62
     6
100
AcDbCircle
 10
2044.000000000048
 20
1565.543551862876
 30
0.0
 40
1.0
100
AcDbArc
 50
92.8514919099879
 51
180.0
  0
LINE
  5
1A9
330
1F
100
AcDbEntity
  8
化粧台
  6
CONTINUOUS
 62
     6
100
AcDbLine
 10
2062.500000000048
 20
1549.5
 30
0.0
 11
2063.000000000048
 21
1549.5
 31
0.0
  0
ARC
  5
1AA
330
1F
100
AcDbEntity
  8
化粧台
  6
CONTINUOUS
 62
     6
100
AcDbCircle
 10
2044.000000000048
 20
1563.5
 30
0.0
 40
1.0
100
AcDbArc
 50
180.0
 51
270.000000000026
  0
LINE
  5
1AB
330
1F
100
AcDbEntity
  8
化粧台
  6
CONTINUOUS
 62
     6
100
AcDbLine
 10
2044.500000000048
 20
1562.5
 30
0.0
 11
2044.000000000048
 21
1562.5
 31
0.0
  0
LINE
  5
1AC
330
1F
100
AcDbEntity
  8
化粧台
  6
CONTINUOUS
 62
     6
100
AcDbLine
 10
2043.000000000048
 20
1565.543551862876
 30
0.0
 11
2043.000000000048
 21
1563.5
 31
0.0
  0
LINE
  5
1AD
330
1F
100
AcDbEntity
  8
化粧台
  6
CONTINUOUS
 62
     6
100
AcDbLine
 10
2044.500000000048
 20
1564.499999999995
 30
0.0
 11
2044.500000000048
 21
1562.5
 31
0.0
  0
LINE
  5
1AE
330
1F
100
AcDbEntity
  8
化粧台
  6
CONTINUOUS
 62
     2
100
AcDbLine
 10
2066.000000000048
 20
919.5
 30
0.0
 11
2066.000000000048
 21
1599.5
 31
0.0
  0
LINE
  5
1AF
330
1F
100
AcDbEntity
  8
化粧台
  6
CONTINUOUS
 62
     2
100
AcDbLine
 10
2066.000000000048
 20
919.5
 30
0.0
 11
2491.000000000046
 21
919.5
 31
0.0
  0
LINE
  5
1B0
330
1F
100
AcDbEntity
  8
化粧台
  6
EXLTYPE3
 62
     6
100
AcDbLine
 10
961.0000000000496
 20
3189.5
 30
0.0
 11
961.0000000000496
 21
2662.0
 31
0.0
  0
LINE
  5
1B1
330
1F
100
AcDbEntity
  8
化粧台
  6
EXLTYPE3
 62
     6
100
AcDbLine
 10
2461.00000000005
 20
1389.499999999998
 30
0.0
 11
2556.00000000005
 21
1389.499999999998
 31
0.0
  0
LINE
  5
1B2
330
1F
100
AcDbEntity
  8
化粧台
  6
CONTINUOUS
 62
     6
100
AcDbLine
 10
2541.00000000005
 20
1405.499999999998
 30
0.0
 11
2541.00000000005
 21
1373.499999999998
 31
0.0
  0
LINE
  5
1B3
330
1F
100
AcDbEntity
  8
化粧台
  6
CONTINUOUS
 62
     6
100
AcDbLine
 10
2491.00000000005
 20
1405.499999999998
 30
0.0
 11
2541.00000000005
 21
1405.499999999998
 31
0.0
  0
LINE
  5
1B4
330
1F
100
AcDbEntity
  8
化粧台
  6
CONTINUOUS
 62
     6
100
AcDbLine
 10
2491.00000000005
 20
1373.499999999998
 30
0.0
 11
2541.00000000005
 21
1373.499999999998
 31
0.0
  0
LINE
  5
1B5
330
1F
100
AcDbEntity
  8
化粧台
  6
CONTINUOUS
 62
     6
100
AcDbLine
 10
2491.00000000005
 20
1368.999999999978
 30
0.0
 11
2499.00000000005
 21
1368.999999999978
 31
0.0
  0
LINE
  5
1B6
330
1F
100
AcDbEntity
  8
化粧台
  6
CONTINUOUS
 62
     6
100
AcDbLine
 10
2491.00000000005
 20
1389.999999999985
 30
0.0
 11
2499.00000000005
 21
1389.999999999985
 31
0.0
  0
LINE
  5
1B7
330
1F
100
AcDbEntity
  8
化粧台
  6
CONTINUOUS
 62
     6
100
AcDbLine
 10
2499.00000000005
 20
1368.999999999996
 30
0.0
 11
2499.00000000005
 21
1389.999999999985
 31
0.0
  0
LINE
  5
1B8
330
1F
100
AcDbEntity
  8
化粧台
  6
EXLTYPE3
 62
     6
100
AcDbLine
 10
2461.00000000005
 20
1379.499999999998
 30
0.0
 11
2514.00000000006
 21
1379.499999999998
 31
0.0
  0
LINE
  5
1B9
330
1F
100
AcDbEntity
  8
化粧台
  6
EXLTYPE3
 62
     6
100
AcDbLine
 10
1041.000000000048
 20
1084.5
 30
0.0
 11
1041.000000000048
 21
896.5
 31
0.0
  0
LINE
  5
1BA
330
1F
100
AcDbEntity
  8
化粧台
  6
EXLTYPE4
 62
     6
100
AcDbLine
 10
1051.500000000046
 20
919.5
 30
0.0
 11
1051.500000000046
 21
1069.5
 31
0.0
  0
LINE
  5
1BB
330
1F
100
AcDbEntity
  8
化粧台
  6
EXLTYPE4
 62
     6
100
AcDbLine
 10
1030.500000000048
 20
919.5
 30
0.0
 11
1030.500000000048
 21
1069.5
 31
0.0
  0
LINE
  5
1BC
330
1F
100
AcDbEntity
  8
化粧台
  6
CONTINUOUS
 62
     6
100
AcDbLine
 10
1030.500000000031
 20
919.5
 30
0.0
 11
1030.500000000031
 21
911.5
 31
0.0
  0
LINE
  5
1BD
330
1F
100
AcDbEntity
  8
化粧台
  6
CONTINUOUS
 62
     6
100
AcDbLine
 10
1051.500000000039
 20
919.5
 30
0.0
 11
1051.500000000039
 21
911.5
 31
0.0
  0
LINE
  5
1BE
330
1F
100
AcDbEntity
  8
化粧台
  6
CONTINUOUS
 62
     6
100
AcDbLine
 10
1030.500000000048
 20
911.5
 30
0.0
 11
1051.500000000039
 21
911.5
 31
0.0
  0
LINE
  5
1BF
330
1F
100
AcDbEntity
  8
化粧台
  6
EXLTYPE3
 62
     6
100
AcDbLine
 10
881.0000000000496
 20
1084.5
 30
0.0
 11
881.0000000000496
 21
896.5
 31
0.0
  0
LINE
  5
1C0
330
1F
100
AcDbEntity
  8
化粧台
  6
EXLTYPE4
 62
     6
100
AcDbLine
 10
891.5000000000496
 20
919.5
 30
0.0
 11
891.5000000000496
 21
1069.5
 31
0.0
  0
LINE
  5
1C1
330
1F
100
AcDbEntity
  8
化粧台
  6
EXLTYPE4
 62
     6
100
AcDbLine
 10
870.5000000000496
 20
919.5
 30
0.0
 11
870.5000000000496
 21
1069.5
 31
0.0
  0
LINE
  5
1C2
330
1F
100
AcDbEntity
  8
化粧台
  6
CONTINUOUS
 62
     6
100
AcDbLine
 10
891.5000000000659
 20
919.5
 30
0.0
 11
891.5000000000659
 21
911.5
 31
0.0
  0
LINE
  5
1C3
330
1F
100
AcDbEntity
  8
化粧台
  6
CONTINUOUS
 62
     6
100
AcDbLine
 10
870.5000000000587
 20
919.5
 30
0.0
 11
870.5000000000587
 21
911.5
 31
0.0
  0
LINE
  5
1C4
330
1F
100
AcDbEntity
  8
化粧台
  6
CONTINUOUS
 62
     6
100
AcDbLine
 10
891.5000000000496
 20
911.5
 30
0.0
 11
870.5000000000587
 21
911.5
 31
0.0
  0
LINE
  5
1C5
330
1F
100
AcDbEntity
  8
化粧台
  6
CONTINUOUS
 62
     2
100
AcDbLine
 10
1177.000000000046
 20
919.4999999999
 30
0.0
 11
1177.000000000046
 21
869.49999999988
 31
0.0
  0
LINE
  5
1C6
330
1F
100
AcDbEntity
  8
化粧台
  6
CONTINUOUS
 62
     2
100
AcDbLine
 10
1177.000000000046
 20
869.49999999988
 30
0.0
 11
1145.000000000048
 21
869.49999999988
 31
0.0
  0
LINE
  5
1C7
330
1F
100
AcDbEntity
  8
化粧台
  6
CONTINUOUS
 62
     2
100
AcDbLine
 10
1145.000000000048
 20
919.4999999999
 30
0.0
 11
1145.000000000048
 21
869.49999999988
 31
0.0
  0
LINE
  5
1C8
330
1F
100
AcDbEntity
  8
化粧台
  6
CONTINUOUS
 62
     6
100
AcDbLine
 10
1183.800000000049
 20
981.5000000000001
 30
0.0
 11
1183.800000000049
 21
963.7000000000007
 31
0.0
  0
LINE
  5
1C9
330
1F
100
AcDbEntity
  8
化粧台
  6
CONTINUOUS
 62
     6
100
AcDbLine
 10
1138.20000000005
 20
981.5000000000001
 30
0.0
 11
1138.20000000005
 21
963.7000000000007
 31
0.0
  0
ARC
  5
1CA
330
1F
100
AcDbEntity
  8
化粧台
  6
EXLTYPE2
 62
     6
100
AcDbCircle
 10
1130.500000000051
 20
943.5
 30
0.0
 40
3.000000000000003
100
AcDbArc
 50
90.00000000000001
 51
180.0
  0
LINE
  5
1CB
330
1F
100
AcDbEntity
  8
化粧台
  6
EXLTYPE2
 62
     6
100
AcDbLine
 10
1130.500000000051
 20
946.5
 30
0.0
 11
1191.500000000051
 21
946.5
 31
0.0
  0
LINE
  5
1CC
330
1F
100
AcDbEntity
  8
化粧台
  6
EXLTYPE2
 62
     6
100
AcDbLine
 10
1127.50000000005
 20
943.5
 30
0.0
 11
1127.50000000005
 21
923.5
 31
0.0
  0
ARC
  5
1CD
330
1F
100
AcDbEntity
  8
化粧台
  6
EXLTYPE2
 62
     6
100
AcDbCircle
 10
1137.000000000051
 20
958.5
 30
0.0
 40
3.000000000000003
100
AcDbArc
 50
90.00000000000001
 51
180.0
  0
LINE
  5
1CE
330
1F
100
AcDbEntity
  8
化粧台
  6
EXLTYPE2
 62
     6
100
AcDbLine
 10
1137.000000000051
 20
961.4999999999999
 30
0.0
 11
1185.000000000051
 21
961.4999999999999
 31
0.0
  0
LINE
  5
1CF
330
1F
100
AcDbEntity
  8
化粧台
  6
EXLTYPE2
 62
     6
100
AcDbLine
 10
1134.000000000051
 20
958.5
 30
0.0
 11
1134.000000000051
 21
946.5
 31
0.0
  0
ARC
  5
1D0
330
1F
100
AcDbEntity
  8
化粧台
  6
EXLTYPE2
 62
     6
100
AcDbCircle
 10
1185.000000000051
 20
958.5
 30
0.0
 40
3.000000000000003
100
AcDbArc
 50
0.0
 51
90.00000000000001
  0
LINE
  5
1D1
330
1F
100
AcDbEntity
  8
化粧台
  6
EXLTYPE2
 62
     6
100
AcDbLine
 10
1188.00000000005
 20
958.5
 30
0.0
 11
1188.00000000005
 21
946.5
 31
0.0
  0
ARC
  5
1D2
330
1F
100
AcDbEntity
  8
化粧台
  6
EXLTYPE2
 62
     6
100
AcDbCircle
 10
1191.500000000051
 20
943.5
 30
0.0
 40
3.000000000000003
100
AcDbArc
 50
0.0
 51
90.00000000000001
  0
LINE
  5
1D3
330
1F
100
AcDbEntity
  8
化粧台
  6
EXLTYPE2
 62
     6
100
AcDbLine
 10
1194.500000000051
 20
943.5
 30
0.0
 11
1194.500000000051
 21
923.5
 31
0.0
  0
LINE
  5
1D4
330
1F
100
AcDbEntity
  8
化粧台
  6
EXLTYPE2
 62
     6
100
AcDbLine
 10
1127.50000000005
 20
923.5
 30
0.0
 11
1194.500000000051
 21
923.5
 31
0.0
  0
LINE
  5
1D5
330
1F
100
AcDbEntity
  8
化粧台
  6
EXLTYPE2
 62
     6
100
AcDbLine
 10
1138.20000000005
 20
981.5000000000001
 30
0.0
 11
1183.800000000049
 21
981.5000000000001
 31
0.0
  0
LINE
  5
1D6
330
1F
100
AcDbEntity
  8
化粧台
  6
EXLTYPE2
 62
     6
100
AcDbLine
 10
1138.20000000005
 20
963.7000000000007
 30
0.0
 11
1183.800000000049
 21
963.7000000000007
 31
0.0
  0
LINE
  5
1D7
330
1F
100
AcDbEntity
  8
化粧台
  6
EXLTYPE3
 62
     6
100
AcDbLine
 10
1161.000000000048
 20
1104.5
 30
0.0
 11
1161.000000000048
 21
854.49999999988
 31
0.0
  0
LINE
  5
1D8
330
1F
100
AcDbEntity
  8
化粧台
  6
EXLTYPE2
 62
     6
100
AcDbLine
 10
1177.000000000048
 20
919.4999999999
 30
0.0
 11
1177.000000000048
 21
1089.5
 31
0.0
  0
LINE
  5
1D9
330
1F
100
AcDbEntity
  8
化粧台
  6
EXLTYPE2
 62
     6
100
AcDbLine
 10
1145.000000000048
 20
919.4999999999
 30
0.0
 11
1145.000000000048
 21
1089.5
 31
0.0
  0
LINE
  5
1DA
330
1F
100
AcDbEntity
  8
化粧台
  6
CONTINUOUS
 62
     6
100
AcDbLine
 10
1141.000000000097
 20
3164.5
 30
0.0
 11
1141.000000000097
 21
3207.0000057219
 31
0.0
  0
LINE
  5
1DB
330
1F
100
AcDbEntity
  8
化粧台
  6
CONTINUOUS
 62
     6
100
AcDbLine
 10
1139.00000000009
 20
3169.500005722004
 30
0.0
 11
1141.000000000091
 21
3202.000005722004
 31
0.0
  0
LINE
  5
1DC
330
1F
100
AcDbEntity
  8
化粧台
  6
CONTINUOUS
 62
     6
100
AcDbLine
 10
1141.000000000091
 20
3202.000005722004
 30
0.0
 11
1143.00000000009
 21
3169.500005722004
 31
0.0
  0
LINE
  5
1DD
330
1F
100
AcDbEntity
  8
化粧台
  6
CONTINUOUS
 62
     2
100
AcDbLine
 10
1261.000000000048
 20
3169.5
 30
0.0
 11
1261.000000000048
 21
2719.5
 31
0.0
  0
LINE
  5
1DE
330
1F
100
AcDbEntity
  8
化粧台
  6
CONTINUOUS
 62
     6
100
AcDbLine
 10
781.0000000000259
 20
3164.5
 30
0.0
 11
781.0000000000259
 21
3207.0000057219
 31
0.0
  0
LINE
  5
1DF
330
1F
100
AcDbEntity
  8
化粧台
  6
CONTINUOUS
 62
     6
100
AcDbLine
 10
779.0000000000186
 20
3169.500005722004
 30
0.0
 11
781.0000000000205
 21
3202.000005722004
 31
0.0
  0
LINE
  5
1E0
330
1F
100
AcDbEntity
  8
化粧台
  6
CONTINUOUS
 62
     6
100
AcDbLine
 10
781.0000000000205
 20
3202.000005722004
 30
0.0
 11
783.0000000000186
 21
3169.500005722004
 31
0.0
  0
LINE
  5
1E1
330
1F
100
AcDbEntity
  8
化粧台
  6
CONTINUOUS
 62
     2
100
AcDbLine
 10
661.0000000000496
 20
3169.5
 30
0.0
 11
661.0000000000496
 21
2719.5
 31
0.0
  0
LINE
  5
1E2
330
1F
100
AcDbEntity
  8
化粧台
  6
CONTINUOUS
 62
     2
100
AcDbLine
 10
661.0000000000496
 20
3169.5
 30
0.0
 11
1261.000000000048
 21
3169.5
 31
0.0
  0
CIRCLE
  5
1E3
330
1F
100
AcDbEntity
  8
化粧台
  6
CONTINUOUS
 62
     6
100
AcDbCircle
 10
780.9999999974484
 20
1499.500000000098
 30
0.0
 40
3.800000000000001
  0
LINE
  5
1E4
330
1F
100
AcDbEntity
  8
化粧台
  6
CONTINUOUS
 62
     6
100
AcDbLine
 10
781.0000000000277
 20
1489.5
 30
0.0
 11
781.0000000000277
 21
1509.50000000004
 31
0.0
  0
LINE
  5
1E5
330
1F
100
AcDbEntity
  8
化粧台
  6
CONTINUOUS
 62
     6
100
AcDbLine
 10
771.0000000000277
 20
1499.500000000038
 30
0.0
 11
791.0000000000277
 21
1499.500000000038
 31
0.0
  0
LINE
  5
1E6
330
1F
100
AcDbEntity
  8
化粧台
  6
CONTINUOUS
 62
     2
100
AcDbLine
 10
693.0000000000477
 20
919.5
 30
0.0
 11
693.0000000000477
 21
1009.5
 31
0.0
  0
LINE
  5
1E7
330
1F
100
AcDbEntity
  8
化粧台
  6
CONTINUOUS
 62
     6
100
AcDbLine
 10
666.0000000000514
 20
1594.5
 30
0.0
 11
666.0000000000514
 21
1562.5
 31
0.0
  0
LINE
  5
1E8
330
1F
100
AcDbEntity
  8
化粧台
  6
CONTINUOUS
 62
     2
100
AcDbLine
 10
663.0000000000477
 20
919.5
 30
0.0
 11
663.0000000000477
 21
1599.5
 31
0.0
  0
LINE
  5
1E9
330
1F
100
AcDbEntity
  8
化粧台
  6
CONTINUOUS
 62
     2
100
AcDbLine
 10
678.0000000000477
 20
919.5
 30
0.0
 11
678.0000000000477
 21
1009.5
 31
0.0
  0
CIRCLE
  5
1EA
330
1F
100
AcDbEntity
  8
化粧台
  6
CONTINUOUS
 62
     6
100
AcDbCircle
 10
1140.999999997448
 20
1499.500000000098
 30
0.0
 40
3.800000000000001
  0
LINE
  5
1EB
330
1F
100
AcDbEntity
  8
化粧台
  6
CONTINUOUS
 62
     6
100
AcDbLine
 10
1141.000000000028
 20
1489.5
 30
0.0
 11
1141.000000000028
 21
1509.50000000004
 31
0.0
  0
LINE
  5
1EC
330
1F
100
AcDbEntity
  8
化粧台
  6
CONTINUOUS
 62
     6
100
AcDbLine
 10
1131.000000000028
 20
1499.500000000038
 30
0.0
 11
1151.000000000028
 21
1499.500000000038
 31
0.0
  0
LINE
  5
1ED
330
1F
100
AcDbEntity
  8
化粧台
  6
CONTINUOUS
 62
     2
100
AcDbLine
 10
1229.000000000048
 20
919.5
 30
0.0
 11
1229.000000000048
 21
1009.5
 31
0.0
  0
LINE
  5
1EE
330
1F
100
AcDbEntity
  8
化粧台
  6
CONTINUOUS
 62
     6
100
AcDbLine
 10
1256.00000000005
 20
1594.5
 30
0.0
 11
1256.00000000005
 21
1562.5
 31
0.0
  0
LINE
  5
1EF
330
1F
100
AcDbEntity
  8
化粧台
  6
CONTINUOUS
 62
     2
100
AcDbLine
 10
1259.000000000048
 20
919.5
 30
0.0
 11
1259.000000000048
 21
1599.5
 31
0.0
  0
LINE
  5
1F0
330
1F
100
AcDbEntity
  8
化粧台
  6
CONTINUOUS
 62
     2
100
AcDbLine
 10
1244.000000000048
 20
919.5
 30
0.0
 11
1244.000000000048
 21
1009.5
 31
0.0
  0
LINE
  5
1F1
330
1F
100
AcDbEntity
  8
化粧台
  6
CONTINUOUS
 62
     2
100
AcDbLine
 10
1261.000000000048
 20
1599.5
 30
0.0
 11
661.0000000000496
 21
1599.5
 31
0.0
  0
LINE
  5
1F2
330
1F
100
AcDbEntity
  8
化粧台
  6
CONTINUOUS
 62
     2
100
AcDbLine
 10
1256.000000000048
 20
1009.5
 30
0.0
 11
666.0000000000477
 21
1009.5
 31
0.0
  0
LINE
  5
1F3
330
1F
100
AcDbEntity
  8
化粧台
  6
CONTINUOUS
 62
     2
100
AcDbLine
 10
663.0000000000477
 20
919.5
 30
0.0
 11
1259.000000000048
 21
919.5
 31
0.0
  0
LINE
  5
1F4
330
1F
100
AcDbEntity
  8
化粧台
  6
EXLTYPE4
 62
     6
100
AcDbLine
 10
2320.50000000005
 20
919.5
 30
0.0
 11
2320.50000000005
 21
1069.5
 31
0.0
  0
LINE
  5
1F5
330
1F
100
AcDbEntity
  8
化粧台
  6
CONTINUOUS
 62
     6
100
AcDbLine
 10
2320.500000000057
 20
919.5
 30
0.0
 11
2320.500000000057
 21
911.5
 31
0.0
  0
LINE
  5
1F6
330
1F
100
AcDbEntity
  8
化粧台
  6
CONTINUOUS
 62
     6
100
AcDbLine
 10
2341.50000000005
 20
911.5
 30
0.0
 11
2320.500000000057
 21
911.5
 31
0.0
  0
LINE
  5
1F7
330
1F
100
AcDbEntity
  8
化粧台
  6
CONTINUOUS
 62
     6
100
AcDbLine
 10
2341.500000000064
 20
919.5
 30
0.0
 11
2341.500000000064
 21
911.5
 31
0.0
  0
LINE
  5
1F8
330
1F
100
AcDbEntity
  8
化粧台
  6
EXLTYPE4
 62
     6
100
AcDbLine
 10
2341.50000000005
 20
919.5
 30
0.0
 11
2341.50000000005
 21
1069.5
 31
0.0
  0
LINE
  5
1F9
330
1F
100
AcDbEntity
  8
化粧台
  6
EXLTYPE3
 62
     6
100
AcDbLine
 10
2331.00000000005
 20
1084.5
 30
0.0
 11
2331.00000000005
 21
896.5
 31
0.0
  0
LINE
  5
1FA
330
1F
100
AcDbEntity
  8
化粧台
  6
CONTINUOUS
 62
     2
100
AcDbLine
 10
2045.500000000048
 20
1009.5
 30
0.0
 11
2045.500000000048
 21
1564.5
 31
0.0
  0
LINE
  5
1FB
330
1F
100
AcDbEntity
  8
化粧台
  6
CONTINUOUS
 62
     2
100
AcDbLine
 10
2062.500000000048
 20
1009.5
 30
0.0
 11
2062.500000000048
 21
1564.5
 31
0.0
  0
LINE
  5
1FC
330
1F
100
AcDbEntity
  8
化粧台
  6
CONTINUOUS
 62
     2
100
AcDbLine
 10
666.0000000000477
 20
1562.5
 30
0.0
 11
666.0000000000477
 21
1009.5
 31
0.0
  0
LINE
  5
1FD
330
1F
100
AcDbEntity
  8
化粧台
  6
CONTINUOUS
 62
     2
100
AcDbLine
 10
1256.000000000048
 20
1562.5
 30
0.0
 11
1256.000000000048
 21
1009.5
 31
0.0
  0
LINE
  5
1FE
330
1F
100
AcDbEntity
  8
化粧台
  6
CONTINUOUS
 62
     6
100
AcDbLine
 10
958.0000000000477
 20
1594.5
 30
0.0
 11
666.0000000000514
 21
1594.5
 31
0.0
  0
LINE
  5
1FF
330
1F
100
AcDbEntity
  8
化粧台
  6
CONTINUOUS
 62
     6
100
AcDbLine
 10
958.0000000000477
 20
1584.5
 30
0.0
 11
666.0000000000514
 21
1584.5
 31
0.0
  0
LINE
  5
200
330
1F
100
AcDbEntity
  8
化粧台
  6
CONTINUOUS
 62
     6
100
AcDbLine
 10
958.0000000000477
 20
1566.542313695401
 30
0.0
 11
666.0000000000514
 21
1566.542313695401
 31
0.0
  0
LINE
  5
201
330
1F
100
AcDbEntity
  8
化粧台
  6
CONTINUOUS
 62
     6
100
AcDbLine
 10
958.0000000000477
 20
1562.5
 30
0.0
 11
666.0000000000514
 21
1562.5
 31
0.0
  0
LINE
  5
202
330
1F
100
AcDbEntity
  8
化粧台
  6
CONTINUOUS
 62
     6
100
AcDbLine
 10
1256.00000000005
 20
1562.5
 30
0.0
 11
964.0000000000441
 21
1562.5
 31
0.0
  0
LINE
  5
203
330
1F
100
AcDbEntity
  8
化粧台
  6
CONTINUOUS
 62
     6
100
AcDbLine
 10
1256.00000000005
 20
1566.542313695401
 30
0.0
 11
964.0000000000441
 21
1566.542313695401
 31
0.0
  0
LINE
  5
204
330
1F
100
AcDbEntity
  8
化粧台
  6
CONTINUOUS
 62
     6
100
AcDbLine
 10
1256.00000000005
 20
1584.5
 30
0.0
 11
964.0000000000441
 21
1584.5
 31
0.0
  0
LINE
  5
205
330
1F
100
AcDbEntity
  8
化粧台
  6
CONTINUOUS
 62
     6
100
AcDbLine
 10
1256.00000000005
 20
1594.5
 30
0.0
 11
964.0000000000441
 21
1594.5
 31
0.0
  0
LINE
  5
206
330
1F
100
AcDbEntity
  8
化粧台
  6
CONTINUOUS
 62
     6
100
AcDbLine
 10
958.0000000000477
 20
1562.5
 30
0.0
 11
958.0000000000477
 21
1594.5
 31
0.0
  0
LINE
  5
207
330
1F
100
AcDbEntity
  8
化粧台
  6
CONTINUOUS
 62
     6
100
AcDbLine
 10
964.0000000000349
 20
1562.5
 30
0.0
 11
964.0000000000441
 21
1594.5
 31
0.0
  0
LINE
  5
208
330
1F
100
AcDbEntity
  8
化粧台
  6
CONTINUOUS
 62
     2
100
AcDbLine
 10
958.0000000000477
 20
1311.0
 30
0.0
 11
958.0000000000477
 21
1562.5
 31
0.0
  0
LINE
  5
209
330
1F
100
AcDbEntity
  8
化粧台
  6
CONTINUOUS
 62
     2
100
AcDbLine
 10
964.0000000000441
 20
1311.0
 30
0.0
 11
964.0000000000349
 21
1562.5
 31
0.0
  0
LINE
  5
20A
330
1F
100
AcDbEntity
  8
化粧台
  6
CONTINUOUS
 62
     2
100
AcDbLine
 10
958.0000000000477
 20
1009.5
 30
0.0
 11
958.0000000000477
 21
1194.0
 31
0.0
  0
LINE
  5
20B
330
1F
100
AcDbEntity
  8
化粧台
  6
CONTINUOUS
 62
     2
100
AcDbLine
 10
964.0000000000441
 20
1009.5
 30
0.0
 11
964.0000000000441
 21
1194.0
 31
0.0
  0
LINE
  5
20C
330
1F
100
AcDbEntity
  8
化粧台
  6
EXLTYPE3
 62
     6
100
AcDbLine
 10
958.0000000000568
 20
1594.5
 30
0.0
 11
666.0000000000568
 21
1302.0
 31
0.0
  0
LINE
  5
20D
330
1F
100
AcDbEntity
  8
化粧台
  6
EXLTYPE3
 62
     6
100
AcDbLine
 10
666.0000000000568
 20
1302.0
 30
0.0
 11
725.8974358974924
 21
1242.0
 31
0.0
  0
LINE
  5
20E
330
1F
100
AcDbEntity
  8
化粧台
  6
EXLTYPE3
 62
     6
100
AcDbLine
 10
786.0000000000568
 20
1181.794520547945
 30
0.0
 11
958.0000000000568
 21
1009.5
 31
0.0
  0
LINE
  5
20F
330
1F
100
AcDbEntity
  8
化粧台
  6
EXLTYPE3
 62
     6
100
AcDbLine
 10
964.000000000057
 20
1594.5
 30
0.0
 11
1256.000000000055
 21
1302.0
 31
0.0
  0
LINE
  5
210
330
1F
100
AcDbEntity
  8
化粧台
  6
EXLTYPE3
 62
     6
100
AcDbLine
 10
1256.000000000055
 20
1302.0
 30
0.0
 11
1196.102564102621
 21
1242.0
 31
0.0
  0
LINE
  5
211
330
1F
100
AcDbEntity
  8
化粧台
  6
EXLTYPE3
 62
     6
100
AcDbLine
 10
1136.000000000057
 20
1181.794520547945
 30
0.0
 11
964.000000000057
 21
1009.5
 31
0.0
  0
LINE
  5
212
330
1F
100
AcDbEntity
  8
化粧台
  6
CONTINUOUS
 62
     7
100
AcDbLine
 10
511.0000000000496
 20
3169.5
 30
0.0
 11
1516.000000000048
 21
3169.5
 31
0.0
  0
LINE
  5
213
330
1F
100
AcDbEntity
  8
化粧台
  6
CONTINUOUS
 62
     7
100
AcDbLine
 10
511.0000000000496
 20
919.5
 30
0.0
 11
1516.000000000048
 21
919.5
 31
0.0
  0
LINE
  5
214
330
1F
100
AcDbEntity
  8
化粧台
  6
CONTINUOUS
 62
     7
100
AcDbLine
 10
1891.000000000046
 20
919.5
 30
0.0
 11
2491.00000000005
 21
919.5
 31
0.0
  0
TEXT
  5
215
330
1F
100
AcDbEntity
  8
化粧台
  6
CONTINUOUS
 62
     2
100
AcDbText
 10
510.5500000002735
 20
3102.500003814646
 30
0.0
 40
59.99999618530273
  1
Ｗ.Ｌ.
 41
0.9086538461538461
  7
EXCADSTD
 72
     5
 11
645.5499914172046
 21
3102.500003814646
 31
0.0
100
AcDbText
  0
TEXT
  5
216
330
1F
100
AcDbEntity
  8
化粧台
  6
CONTINUOUS
 62
     2
100
AcDbText
 10
504.9999999999131
 20
926.6999999999989
 30
0.0
 40
59.99999618530273
  1
Ｆ.Ｌ.
 41
0.9086538461538465
  7
EXCADSTD
 72
     5
 11
639.9999914168443
 21
926.6999999999989
 31
0.0
100
AcDbText
  0
TEXT
  5
217
330
1F
100
AcDbEntity
  8
化粧台
  6
CONTINUOUS
 62
     2
100
AcDbText
 10
1884.999999999913
 20
926.6999999999989
 30
0.0
 40
59.99999618530273
  1
Ｆ.Ｌ.
 41
0.9086538461538461
  7
EXCADSTD
 72
     5
 11
2019.999991416844
 21
926.6999999999989
 31
0.0
100
AcDbText
  0
ARC
  5
218
330
1F
100
AcDbEntity
  8
化粧台
  6
CONTINUOUS
 62
     6
100
AcDbCircle
 10
909.0384757736688
 20
2954.5
 30
0.0
 40
50.00000000000004
100
AcDbArc
 50
90.00000000000001
 51
171.7867892961641
  0
ARC
  5
219
330
1F
100
AcDbEntity
  8
化粧台
  6
CONTINUOUS
 62
     6
100
AcDbCircle
 10
1012.961524226448
 20
2954.5
 30
0.0
 40
50.00000000000004
100
AcDbArc
 50
8.213210703835998
 51
90.00000000000001
  0
ARC
  5
21A
330
1F
100
AcDbEntity
  8
化粧台
  6
CONTINUOUS
 62
     6
100
AcDbCircle
 10
961.0000000000585
 20
2946.999999998156
 30
0.0
 40
102.4999999995951
100
AcDbArc
 50
171.7867892961641
 51
8.213210703835998
  0
ARC
  5
21B
330
1F
100
AcDbEntity
  8
化粧台
  6
CONTINUOUS
 62
     2
100
AcDbCircle
 10
961.0000000000585
 20
2934.929987018266
 30
0.0
 40
212.5700129817332
100
AcDbArc
 50
9.763897427589361
 51
170.2361025724106
  0
ARC
  5
21C
330
1F
100
AcDbEntity
  8
化粧台
  6
CONTINUOUS
 62
     2
100
AcDbCircle
 10
800.7848212401555
 20
2962.5
 30
0.0
 40
50.00000000000004
100
AcDbArc
 50
90.00000000000001
 51
170.2361025724106
  0
ARC
  5
21D
330
1F
100
AcDbEntity
  8
化粧台
  6
CONTINUOUS
 62
     2
100
AcDbCircle
 10
1121.215178759962
 20
2962.5
 30
0.0
 40
50.00000000000004
100
AcDbArc
 50
9.763897427589361
 51
90.00000000000001
  0
CIRCLE
  5
21E
330
1F
100
AcDbEntity
  8
化粧台
  6
CONTINUOUS
 62
     2
100
AcDbCircle
 10
961.0000000000585
 20
2924.5
 30
0.0
 40
19.20000000000001
  0
CIRCLE
  5
21F
330
1F
100
AcDbEntity
  8
化粧台
  6
CONTINUOUS
 62
     6
100
AcDbCircle
 10
901.0000000000587
 20
3063.5
 30
0.0
 40
8.50000000060004
  0
CIRCLE
  5
220
330
1F
100
AcDbEntity
  8
化粧台
  6
CONTINUOUS
 62
     6
100
AcDbCircle
 10
901.0000000000587
 20
3063.5
 30
0.0
 40
12.5
  0
ELLIPSE
  5
221
330
1F
100
AcDbEntity
  8
化粧台
  6
CONTINUOUS
 62
     2
100
AcDbEllipse
 10
961.0000000000568
 20
2925.0
 30
0.0
 11
1.393035734030114E-14
 21
227.5
 31
0.0
210
0.0
220
0.0
230
1.0
 40
0.9890109890109892
 41
0.0
 42
6.283185307179586
  0
CIRCLE
  5
222
330
1F
100
AcDbEntity
  8
化粧台
  6
CONTINUOUS
 62
     6
100
AcDbCircle
 10
961.0000000000477
 20
3073.5
 30
0.0
 40
25.00000000010004
  0
ELLIPSE
  5
223
330
1F
100
AcDbEntity
  8
化粧台
  6
CONTINUOUS
 62
     6
100
AcDbEllipse
 10
961.0000000000477
 20
2979.940536449099
 30
0.0
 11
-7.500000000000007
 21
9.184850993605158E-16
 31
0.0
210
0.0
220
0.0
230
1.0
 40
0.4388120546666563
 41
0.0
 42
6.283185307179586
  0
ELLIPSE
  5
224
330
1F
100
AcDbEntity
  8
化粧台
  6
CONTINUOUS
 62
     6
100
AcDbEllipse
 10
961.0000000000477
 20
2955.7145230735
 30
0.0
 11
-15.00000000000001
 21
1.836970198721031E-15
 31
0.0
210
0.0
220
0.0
230
1.0
 40
0.4362793889666742
 41
0.0
 42
6.283185307179586
  0
LINE
  5
225
330
1F
100
AcDbEntity
  8
化粧台
  6
CONTINUOUS
 62
     6
100
AcDbLine
 10
946.0000000000477
 20
2955.7145230735
 30
0.0
 11
946.0000000000477
 21
3053.499999999874
 31
0.0
  0
LINE
  5
226
330
1F
100
AcDbEntity
  8
化粧台
  6
CONTINUOUS
 62
     6
100
AcDbLine
 10
976.0000000000477
 20
2955.7145230735
 30
0.0
 11
976.0000000000477
 21
3053.499999999874
 31
0.0
  0
LINE
  5
227
330
1F
100
AcDbEntity
  8
化粧台
  6
CONTINUOUS
 62
     6
100
AcDbLine
 10
953.5000000000477
 20
2979.940536449099
 30
0.0
 11
953.5000000000477
 21
3049.651519964471
 31
0.0
  0
LINE
  5
228
330
1F
100
AcDbEntity
  8
化粧台
  6
CONTINUOUS
 62
     6
100
AcDbLine
 10
968.5000000000477
 20
2979.940536449099
 30
0.0
 11
968.5000000000477
 21
3049.651519964471
 31
0.0
  0
LINE
  5
229
330
1F
100
AcDbEntity
  8
化粧台
  6
CONTINUOUS
 62
     6
100
AcDbLine
 10
946.0000000000477
 20
3004.5
 30
0.0
 11
909.0384757736688
 21
3004.5
 31
0.0
  0
LINE
  5
22A
330
1F
100
AcDbEntity
  8
化粧台
  6
CONTINUOUS
 62
     2
100
AcDbLine
 10
800.7848212401555
 20
3012.5
 30
0.0
 11
946.0000000000477
 21
3012.5
 31
0.0
  0
LINE
  5
22B
330
1F
100
AcDbEntity
  8
化粧台
  6
CONTINUOUS
 62
     2
100
AcDbLine
 10
976.0000000000477
 20
3012.5
 30
0.0
 11
1121.215178759962
 21
3012.5
 31
0.0
  0
LINE
  5
22C
330
1F
100
AcDbEntity
  8
化粧台
  6
CONTINUOUS
 62
     6
100
AcDbLine
 10
1012.961524226448
 20
3004.5
 30
0.0
 11
976.0000000000477
 21
3004.5
 31
0.0
  0
ARC
  5
22D
330
1F
100
AcDbEntity
  8
化粧台
  6
CONTINUOUS
 62
     2
100
AcDbCircle
 10
961.0000000000585
 20
2924.5
 30
0.0
 40
26.90000000000001
100
AcDbArc
 50
107.3170186528517
 51
72.68298134716953
  0
ELLIPSE
  5
22E
330
1F
100
AcDbEntity
  8
化粧台
  6
CONTINUOUS
 62
     6
100
AcDbEllipse
 10
961.0000000000568
 20
2925.0
 30
0.0
 11
1.362419564051430E-14
 21
222.5
 31
0.0
210
0.0
220
0.0
230
1.0
 40
0.9887640449438201
 41
0.0
 42
6.283185307179586
  0
LINE
  5
22F
330
1F
100
AcDbEntity
  8
化粧台
  6
CONTINUOUS
 62
     2
100
AcDbLine
 10
661.0000000000477
 20
2719.5
 30
0.0
 11
864.4713114831258
 21
2719.5
 31
0.0
  0
LINE
  5
230
330
1F
100
AcDbEntity
  8
化粧台
  6
CONTINUOUS
 62
     2
100
AcDbLine
 10
1057.528688516988
 20
2719.5
 30
0.0
 11
1261.000000000048
 21
2719.5
 31
0.0
  0
LINE
  5
231
330
1F
100
AcDbEntity
  8
化粧台
  6
CONTINUOUS
 62
     2
100
AcDbLine
 10
2491.000000000046
 20
919.5
 30
0.0
 11
2491.000000000046
 21
1619.5
 31
0.0
  0
LINE
  5
232
330
1F
100
AcDbEntity
  8
化粧台
  6
CONTINUOUS
 62
     6
100
AcDbLine
 10
862.643505552564
 20
1780.5
 30
0.0
 11
1059.356494447548
 21
1780.5
 31
0.0
  0
LINE
  5
233
330
1F
100
AcDbEntity
  8
化粧台
  6
CONTINUOUS
 62
     2
100
AcDbLine
 10
736.2834769812475
 20
1777.840358287754
 30
0.0
 11
792.0000000000587
 21
1619.5
 31
0.0
  0
LINE
  5
234
330
1F
100
AcDbEntity
  8
化粧台
  6
CONTINUOUS
 62
     2
100
AcDbLine
 10
1130.000000000059
 20
1619.5
 30
0.0
 11
1185.71652301887
 21
1777.840358287754
 31
0.0
  0
LINE
  5
235
330
1F
100
AcDbEntity
  8
化粧台
  6
CONTINUOUS
 62
     2
100
AcDbLine
 10
792.0000000000587
 20
1619.5
 30
0.0
 11
1130.000000000059
 21
1619.5
 31
0.0
  0
ARC
  5
236
330
1F
100
AcDbEntity
  8
化粧台
  6
CONTINUOUS
 62
     2
100
AcDbCircle
 10
741.0000000000587
 20
1779.5
 30
0.0
 40
5.0
100
AcDbArc
 50
92.60390534515753
 51
199.3858598894216
  0
ARC
  5
237
330
1F
100
AcDbEntity
  8
化粧台
  6
CONTINUOUS
 62
     2
100
AcDbCircle
 10
1181.000000000059
 20
1779.5
 30
0.0
 40
5.0
100
AcDbArc
 50
340.6141401105788
 51
87.39609465484251
  0
ARC
  5
238
330
1F
100
AcDbEntity
  8
化粧台
  6
CONTINUOUS
 62
     2
100
AcDbCircle
 10
961.0000000000585
 20
6617.000000000004
 30
0.0
 40
4837.500000000005
100
AcDbArc
 50
267.4553150987836
 51
272.5446849012167
  0
ARC
  5
239
330
1F
100
AcDbEntity
  8
化粧台
  6
CONTINUOUS
 62
     6
100
AcDbCircle
 10
900.8350000002088
 20
1683.500000000287
 30
0.0
 40
100.0
100
AcDbArc
 50
83.99726479958528
 51
95.78779095102057
  0
ARC
  5
23A
330
1F
100
AcDbEntity
  8
化粧台
  6
CONTINUOUS
 62
     6
100
AcDbCircle
 10
891.0029816633582
 20
1780.500000000175
 30
0.0
 40
2.502981663321009
100
AcDbArc
 50
95.78779095101787
 51
180.0000000040806
  0
ARC
  5
23B
330
1F
100
AcDbEntity
  8
化粧台
  6
CONTINUOUS
 62
     6
100
AcDbCircle
 10
911.0347926088984
 20
1780.500000000247
 30
0.0
 40
2.465207391219374
100
AcDbArc
 50
0.0
 51
83.99726479958545
  0
LINE
  5
23C
330
1F
100
AcDbEntity
  8
化粧台
  6
CONTINUOUS
 62
     6
100
AcDbLine
 10
888.5000000000368
 20
1780.500000000018
 30
0.0
 11
913.5000000001169
 21
1780.500000000036
 31
0.0
  0
LINE
  5
23D
330
1F
100
AcDbEntity
  8
化粧台
  6
CONTINUOUS
 62
     6
100
AcDbLine
 10
892.614828860706
 20
1805.424412548848
 30
0.0
 11
896.2500000000805
 21
1796.676247290652
 31
0.0
  0
ARC
  5
23E
330
1F
100
AcDbEntity
  8
化粧台
  6
CONTINUOUS
 62
     6
100
AcDbCircle
 10
894.0000000000714
 20
1806.000000000651
 30
0.0
 40
1.5
100
AcDbArc
 50
89.99999999997263
 51
202.5646074934729
  0
LINE
  5
23F
330
1F
100
AcDbEntity
  8
化粧台
  6
CONTINUOUS
 62
     6
100
AcDbLine
 10
909.3851711394368
 20
1805.424412548858
 30
0.0
 11
905.750000000075
 21
1796.676247290659
 31
0.0
  0
ARC
  5
240
330
1F
100
AcDbEntity
  8
化粧台
  6
CONTINUOUS
 62
     6
100
AcDbCircle
 10
908.0000000000696
 20
1806.000000000658
 30
0.0
 40
1.5
100
AcDbArc
 50
337.4353925066304
 51
90.00000000011136
  0
LINE
  5
241
330
1F
100
AcDbEntity
  8
化粧台
  6
CONTINUOUS
 62
     6
100
AcDbLine
 10
894.0000000000696
 20
1807.500000000651
 30
0.0
 11
908.0000000000696
 21
1807.500000000658
 31
0.0
  0
ARC
  5
242
330
1F
100
AcDbEntity
  8
化粧台
  6
CONTINUOUS
 62
     6
100
AcDbCircle
 10
897.7500000000787
 20
1794.000000000651
 30
0.0
 40
1.5
100
AcDbArc
 50
180.0000000000381
 51
270.0000000001
  0
ARC
  5
243
330
1F
100
AcDbEntity
  8
化粧台
  6
CONTINUOUS
 62
     6
100
AcDbCircle
 10
904.2500000000787
 20
1794.000000000658
 30
0.0
 40
1.5
100
AcDbArc
 50
269.9999999999722
 51
0.0000000000343202
  0
LINE
  5
244
330
1F
100
AcDbEntity
  8
化粧台
  6
CONTINUOUS
 62
     6
100
AcDbLine
 10
896.2500000000787
 20
1794.000000000651
 30
0.0
 11
896.250000000075
 21
1796.676247290659
 31
0.0
  0
LINE
  5
245
330
1F
100
AcDbEntity
  8
化粧台
  6
CONTINUOUS
 62
     6
100
AcDbLine
 10
905.7500000000787
 20
1794.000000000658
 30
0.0
 11
905.7500000000787
 21
1796.676247290667
 31
0.0
  0
LINE
  5
246
330
1F
100
AcDbEntity
  8
化粧台
  6
CONTINUOUS
 62
     6
100
AcDbLine
 10
904.250000000055
 20
1792.500000000655
 30
0.0
 11
897.7500000001132
 21
1792.500000000655
 31
0.0
  0
LINE
  5
247
330
1F
100
AcDbEntity
  8
化粧台
  6
CONTINUOUS
 62
     6
100
AcDbLine
 10
903.5000000000896
 20
1783.224782419045
 30
0.0
 11
903.500000000086
 21
1792.500000000655
 31
0.0
  0
LINE
  5
248
330
1F
100
AcDbEntity
  8
化粧台
  6
CONTINUOUS
 62
     6
100
AcDbLine
 10
898.5000000000914
 20
1783.380581251931
 30
0.0
 11
898.5000000000878
 21
1792.500000000655
 31
0.0
  0
ARC
  5
249
330
1F
100
AcDbEntity
  8
化粧台
  6
CONTINUOUS
 62
     2
100
AcDbCircle
 10
961.0000000000585
 20
-3058.000000000006
 30
0.0
 40
4847.500000000005
100
AcDbArc
 50
90.73874893071417
 51
92.60390534515777
  0
ELLIPSE
  5
24A
330
1F
100
AcDbEntity
  8
化粧台
  6
CONTINUOUS
 62
     6
100
AcDbEllipse
 10
961.0000000000477
 20
1848.883863229501
 30
0.0
 11
11.50000000000001
 21
0.0
 31
0.0
210
0.0
220
0.0
230
1.0
 40
0.4226182617406996
 41
0.0
 42
6.283185307179586
  0
CIRCLE
  5
24B
330
1F
100
AcDbEntity
  8
化粧台
  6
CONTINUOUS
 62
     6
100
AcDbCircle
 10
961.0000000000477
 20
1914.383863229599
 30
0.0
 40
4.0
  0
ELLIPSE
  5
24C
330
1F
100
AcDbEntity
  8
化粧台
  6
CONTINUOUS
 62
     6
100
AcDbEllipse
 10
961.0000000000477
 20
1874.883863229599
 30
0.0
 11
15.00000000000001
 21
0.0
 31
0.0
210
0.0
220
0.0
230
1.0
 40
0.8660254037844385
 41
0.0
 42
6.283185307179586
  0
ELLIPSE
  5
24D
330
1F
100
AcDbEntity
  8
化粧台
  6
CONTINUOUS
 62
     6
100
AcDbEllipse
 10
961.0000000000477
 20
1816.860161176
 30
0.0
 11
1.060575238719482E-15
 21
17.32050807560018
 31
0.0
210
0.0
220
0.0
230
1.0
 40
0.8660254037888688
 41
1.570796326794897
 42
4.71238898038469
  0
LINE
  5
24E
330
1F
100
AcDbEntity
  8
化粧台
  6
CONTINUOUS
 62
     6
100
AcDbLine
 10
946.0000000000477
 20
1874.883863229599
 30
0.0
 11
946.0000000000477
 21
1816.860161176
 31
0.0
  0
LINE
  5
24F
330
1F
100
AcDbEntity
  8
化粧台
  6
CONTINUOUS
 62
     6
100
AcDbLine
 10
976.0000000000477
 20
1874.883863229599
 30
0.0
 11
976.0000000000477
 21
1816.860161176
 31
0.0
  0
LINE
  5
250
330
1F
100
AcDbEntity
  8
化粧台
  6
CONTINUOUS
 62
     6
100
AcDbLine
 10
949.5000000000477
 20
1848.883863229501
 30
0.0
 11
949.5000000000477
 21
1857.6740992985
 31
0.0
  0
LINE
  5
251
330
1F
100
AcDbEntity
  8
化粧台
  6
CONTINUOUS
 62
     6
100
AcDbLine
 10
972.5000000000476
 20
1848.883863229501
 30
0.0
 11
972.5000000000476
 21
1857.6740992985
 31
0.0
  0
ELLIPSE
  5
252
330
1F
100
AcDbEntity
  8
化粧台
  6
CONTINUOUS
 62
     6
100
AcDbEllipse
 10
961.0000000000477
 20
1857.6740992985
 30
0.0
 11
11.50000000000001
 21
0.0
 31
0.0
210
0.0
220
0.0
230
1.0
 40
0.1739668486608696
 41
0.0
 42
3.141592653589793
  0
LINE
  5
253
330
1F
100
AcDbEntity
  8
化粧台
  6
CONTINUOUS
 62
     6
100
AcDbLine
 10
936.5000000000477
 20
1881.883863229599
 30
0.0
 11
948.3640723860303
 21
1881.883863229599
 31
0.0
  0
LINE
  5
254
330
1F
100
AcDbEntity
  8
化粧台
  6
CONTINUOUS
 62
     6
100
AcDbLine
 10
973.6359276140633
 20
1881.883863229599
 30
0.0
 11
985.5000000000477
 21
1881.883863229599
 31
0.0
  0
LINE
  5
255
330
1F
100
AcDbEntity
  8
化粧台
  6
CONTINUOUS
 62
     6
100
AcDbLine
 10
947.1556268951831
 20
1879.883863229599
 30
0.0
 11
936.5000000000477
 21
1879.883863229599
 31
0.0
  0
LINE
  5
256
330
1F
100
AcDbEntity
  8
化粧台
  6
CONTINUOUS
 62
     6
100
AcDbLine
 10
985.5000000000477
 20
1879.883863229599
 30
0.0
 11
974.8443731049106
 21
1879.883863229599
 31
0.0
  0
LINE
  5
257
330
1F
100
AcDbEntity
  8
化粧台
  6
CONTINUOUS
 62
     6
100
AcDbLine
 10
936.5000000000477
 20
1921.883863229599
 30
0.0
 11
936.5000000000477
 21
1881.883863229599
 31
0.0
  0
ARC
  5
258
330
1F
100
AcDbEntity
  8
化粧台
  6
CONTINUOUS
 62
     6
100
AcDbCircle
 10
938.5000000000477
 20
1921.883863229599
 30
0.0
 40
2.0
100
AcDbArc
 50
90.00000000000001
 51
180.0
  0
LINE
  5
259
330
1F
100
AcDbEntity
  8
化粧台
  6
CONTINUOUS
 62
     6
100
AcDbLine
 10
985.5000000000477
 20
1921.883863229599
 30
0.0
 11
985.5000000000477
 21
1881.883863229599
 31
0.0
  0
LINE
  5
25A
330
1F
100
AcDbEntity
  8
化粧台
  6
CONTINUOUS
 62
     6
100
AcDbLine
 10
938.5000000000477
 20
1923.883863229599
 30
0.0
 11
983.5000000000477
 21
1923.883863229599
 31
0.0
  0
ARC
  5
25B
330
1F
100
AcDbEntity
  8
化粧台
  6
CONTINUOUS
 62
     6
100
AcDbCircle
 10
983.5000000000477
 20
1921.883863229599
 30
0.0
 40
2.0
100
AcDbArc
 50
0.0
 51
90.00000000000001
  0
LINE
  5
25C
330
1F
100
AcDbEntity
  8
化粧台
  6
CONTINUOUS
 62
     6
100
AcDbLine
 10
936.5000000000477
 20
1879.883863229599
 30
0.0
 11
936.5000000000459
 21
1779.562041741517
 31
0.0
  0
LINE
  5
25D
330
1F
100
AcDbEntity
  8
化粧台
  6
CONTINUOUS
 62
     6
100
AcDbLine
 10
985.5000000000477
 20
1879.883863229599
 30
0.0
 11
985.5000000000459
 21
1779.562041741517
 31
0.0
  0
ELLIPSE
  5
25E
330
1F
100
AcDbEntity
  8
化粧台
  6
CONTINUOUS
 62
     6
100
AcDbEllipse
 10
961.0000000000477
 20
1834.883863229501
 30
0.0
 11
15.00000000000001
 21
0.0
 31
0.0
210
0.0
220
0.0
230
1.0
 40
0.8660254037844385
 41
3.141592653589793
 42
6.283185307179586
  0
ARC
  5
25F
330
1F
100
AcDbEntity
  8
化粧台
  6
CONTINUOUS
 62
     2
100
AcDbCircle
 10
961.0000000000585
 20
-3058.000000000006
 30
0.0
 40
4847.500000000005
100
AcDbArc
 50
90.28958278998701
 51
90.67964612359954
  0
ARC
  5
260
330
1F
100
AcDbEntity
  8
化粧台
  6
CONTINUOUS
 62
     2
100
AcDbCircle
 10
961.0000000000585
 20
-3058.000000000006
 30
0.0
 40
4847.500000000005
100
AcDbArc
 50
87.39609465484229
 51
89.71041721001328
  0
LINE
  5
261
330
1F
100
AcDbEntity
  8
化粧台
  6
EXLTYPE3
 62
     6
100
AcDbLine
 10
961.0000000000477
 20
1943.883863229599
 30
0.0
 11
961.0000000000477
 21
1311.0
 31
0.0
  0
LINE
  5
262
330
1F
100
AcDbEntity
  8
化粧台
  6
CONTINUOUS
 62
     2
100
AcDbLine
 10
661.0000000000496
 20
1619.5
 30
0.0
 11
661.0000000000496
 21
1599.5
 31
0.0
  0
LINE
  5
263
330
1F
100
AcDbEntity
  8
化粧台
  6
CONTINUOUS
 62
     2
100
AcDbLine
 10
1261.000000000048
 20
1619.5
 30
0.0
 11
1261.000000000048
 21
1599.5
 31
0.0
  0
LINE
  5
264
330
1F
100
AcDbEntity
  8
化粧台
  6
CONTINUOUS
 62
     2
100
AcDbLine
 10
1261.000000000048
 20
1619.5
 30
0.0
 11
661.0000000000496
 21
1619.5
 31
0.0
  0
LINE
  5
265
330
1F
100
AcDbEntity
  8
化粧台
  6
CONTINUOUS
 62
     7
100
AcDbLine
 10
2491.00000000005
 20
919.5
 30
0.0
 11
2491.00000000005
 21
2095.0
 31
0.0
  0
TEXT
  5
266
330
1F
100
AcDbEntity
  8
化粧台
  6
CONTINUOUS
 62
     2
100
AcDbText
 10
2481.499999999895
 20
1963.65
 30
0.0
 40
59.99999618530273
  1
Ｗ.Ｌ.
 50
90.0
 41
0.9086538461538461
  7
EXCADSTD
 72
     5
 11
2481.499999999895
 21
2098.649991416931
 31
0.0
100
AcDbText
  0
LINE
  5
267
330
1F
100
AcDbEntity
  8
化粧台
  6
CONTINUOUS
 62
     2
100
AcDbLine
 10
2491.000000000046
 20
1599.5
 30
0.0
 11
2041.000000000048
 21
1599.5
 31
0.0
  0
LINE
  5
268
330
1F
100
AcDbEntity
  8
化粧台
  6
CONTINUOUS
 62
     2
100
AcDbLine
 10
2129.13684962046
 20
1619.499999999851
 30
0.0
 11
2466.991244013314
 21
1619.499999999851
 31
0.0
  0
LINE
  5
269
330
1F
100
AcDbEntity
  8
化粧台
  6
CONTINUOUS
 62
     2
100
AcDbLine
 10
2129.000000000059
 20
1619.4999999999
 30
0.0
 11
2019.93677613818
 21
1771.586203190225
 31
0.0
  0
LINE
  5
26A
330
1F
100
AcDbEntity
  8
化粧台
  6
CONTINUOUS
 62
     2
100
AcDbLine
 10
2023.88766880882
 20
1779.498738010985
 30
0.0
 11
2468.887668808801
 21
1789.498738010987
 31
0.0
  0
LINE
  5
26B
330
1F
100
AcDbEntity
  8
化粧台
  6
CONTINUOUS
 62
     2
100
AcDbLine
 10
2473.99548949336
 20
1784.287668367015
 30
0.0
 11
2466.991244013362
 21
1619.4999999999
 31
0.0
  0
ARC
  5
26C
330
1F
100
AcDbEntity
  8
化粧台
  6
CONTINUOUS
 62
     2
100
AcDbCircle
 10
2469.00000000006
 20
1784.499999999902
 30
0.0
 40
5.0
100
AcDbArc
 50
357.566126804928
 51
91.28732894152482
  0
ARC
  5
26D
330
1F
100
AcDbEntity
  8
化粧台
  6
CONTINUOUS
 62
     2
100
AcDbCircle
 10
2024.000000000081
 20
1774.499999999902
 30
0.0
 40
5.0
100
AcDbArc
 50
91.28732894152482
 51
215.6448564186274
  0
LINE
  5
26E
330
1F
100
AcDbEntity
  8
化粧台
  6
CONTINUOUS
 62
     6
100
AcDbLine
 10
2419.499999999649
 20
1879.883863229501
 30
0.0
 11
2419.499999999649
 21
1788.3762911555
 31
0.0
  0
LINE
  5
26F
330
1F
100
AcDbEntity
  8
化粧台
  6
CONTINUOUS
 62
     6
100
AcDbLine
 10
2370.499999999649
 20
1799.539653100299
 30
0.0
 11
2370.499999999649
 21
1787.26265479187
 31
0.0
  0
LINE
  5
270
330
1F
100
AcDbEntity
  8
化粧台
  6
CONTINUOUS
 62
     6
100
AcDbLine
 10
2346.782032302663
 20
1847.874244286122
 30
0.0
 11
2331.782032302667
 21
1821.893482172589
 31
0.0
  0
LINE
  5
271
330
1F
100
AcDbEntity
  8
化粧台
  6
CONTINUOUS
 62
     6
100
AcDbLine
 10
2286.337682219366
 20
1848.130789926327
 30
0.0
 11
2370.499999999649
 21
1799.539653100262
 31
0.0
  0
ELLIPSE
  5
272
330
1F
100
AcDbEntity
  8
化粧台
  6
CONTINUOUS
 62
     6
100
AcDbEllipse
 10
2370.499999999649
 20
1816.860161175951
 30
0.0
 11
-3.181725716167551E-15
 21
-17.32050807564974
 31
0.0
210
0.0
220
0.0
230
1.0
 40
0.2961015548620202
 41
0.0
 42
3.141592653589793
  0
ELLIPSE
  5
273
330
1F
100
AcDbEntity
  8
化粧台
  6
CONTINUOUS
 62
     6
100
AcDbEllipse
 10
2370.499999999649
 20
1914.383863229501
 30
0.0
 11
-1.531427479570780E-15
 21
4.0
 31
0.0
210
0.0
220
0.0
230
1.0
 40
0.1525819451966582
 41
3.141592653589784
 42
6.283185307179586
  0
LINE
  5
274
330
1F
100
AcDbEntity
  8
化粧台
  6
CONTINUOUS
 62
     6
100
AcDbLine
 10
2370.499999999649
 20
1910.383863229501
 30
0.0
 11
2370.499999999649
 21
1881.883863229501
 31
0.0
  0
LINE
  5
275
330
1F
100
AcDbEntity
  8
化粧台
  6
CONTINUOUS
 62
     6
100
AcDbLine
 10
2370.499999999649
 20
1921.883863229501
 30
0.0
 11
2370.499999999649
 21
1918.383863229501
 31
0.0
  0
ARC
  5
276
330
1F
100
AcDbEntity
  8
化粧台
  6
CONTINUOUS
 62
     6
100
AcDbCircle
 10
2394.999999999951
 20
1879.883863229501
 30
0.0
 40
21.50470878668207
100
AcDbArc
 50
0.0
 51
34.61977017493128
  0
ARC
  5
277
330
1F
100
AcDbEntity
  8
化粧台
  6
CONTINUOUS
 62
     6
100
AcDbCircle
 10
2263.866025403694
 20
1862.259507576369
 30
0.0
 40
1.0
100
AcDbArc
 50
150.0000000000029
 51
240.0000000000029
  0
LINE
  5
278
330
1F
100
AcDbEntity
  8
化粧台
  6
CONTINUOUS
 62
     6
100
AcDbLine
 10
2263.366025403694
 20
1861.393482172585
 30
0.0
 11
2266.343012176238
 21
1859.674718058082
 31
0.0
  0
LINE
  5
279
330
1F
100
AcDbEntity
  8
化粧台
  6
CONTINUOUS
 62
     6
100
AcDbLine
 10
2276.999999999908
 20
1887.008218882334
 30
0.0
 11
2262.999999999908
 21
1862.759507576369
 31
0.0
  0
ARC
  5
27A
330
1F
100
AcDbEntity
  8
化粧台
  6
CONTINUOUS
 62
     6
100
AcDbCircle
 10
2277.866025403694
 20
1886.508218882334
 30
0.0
 40
1.0
100
AcDbArc
 50
60.00000000000271
 51
150.0000000000029
  0
LINE
  5
27B
330
1F
100
AcDbEntity
  8
化粧台
  6
CONTINUOUS
 62
     6
100
AcDbLine
 10
2278.366025403694
 20
1887.374244286118
 30
0.0
 11
2370.499999999649
 21
1834.180669251638
 31
0.0
  0
ARC
  5
27C
330
1F
100
AcDbEntity
  8
化粧台
  6
CONTINUOUS
 62
     6
100
AcDbCircle
 10
2417.499999999649
 20
1921.883863229501
 30
0.0
 40
2.0
100
AcDbArc
 50
0.0
 51
90.00000000000001
  0
LINE
  5
27D
330
1F
100
AcDbEntity
  8
化粧台
  6
CONTINUOUS
 62
     6
100
AcDbLine
 10
2372.499999999649
 20
1923.883863229501
 30
0.0
 11
2417.499999999649
 21
1923.883863229501
 31
0.0
  0
LINE
  5
27E
330
1F
100
AcDbEntity
  8
化粧台
  6
CONTINUOUS
 62
     6
100
AcDbLine
 10
2419.499999999649
 20
1921.883863229501
 30
0.0
 11
2419.499999999649
 21
1896.028944824826
 31
0.0
  0
ARC
  5
27F
330
1F
100
AcDbEntity
  8
化粧台
  6
CONTINUOUS
 62
     6
100
AcDbCircle
 10
2372.499999999649
 20
1921.883863229501
 30
0.0
 40
2.0
100
AcDbArc
 50
90.00000000000001
 51
180.0
  0
LINE
  5
280
330
1F
100
AcDbEntity
  8
化粧台
  6
CONTINUOUS
 62
     6
100
AcDbLine
 10
2370.499999999649
 20
1879.883863229501
 30
0.0
 11
2370.499999999649
 21
1834.1806692516
 31
0.0
  0
LINE
  5
281
330
1F
100
AcDbEntity
  8
化粧台
  6
CONTINUOUS
 62
     6
100
AcDbLine
 10
2370.499999999649
 20
1881.883863229501
 30
0.0
 11
2394.999999999337
 21
1881.883863229501
 31
0.0
  0
LINE
  5
282
330
1F
100
AcDbEntity
  8
化粧台
  6
CONTINUOUS
 62
     6
100
AcDbLine
 10
2370.499999999649
 20
1879.883863229501
 30
0.0
 11
2419.499999999649
 21
1879.883863229501
 31
0.0
  0
LINE
  5
283
330
1F
100
AcDbEntity
  8
化粧台
  6
CONTINUOUS
 62
     6
100
AcDbLine
 10
2394.999999999573
 20
1881.883863229637
 30
0.0
 11
2419.499999999649
 21
1896.028944824826
 31
0.0
  0
ELLIPSE
  5
284
330
1F
100
AcDbEntity
  8
化粧台
  6
CONTINUOUS
 62
     6
100
AcDbEllipse
 10
2276.3403471978
 20
1853.902753992201
 30
0.0
 11
9.997335021550128
 21
-5.77196406590008
 31
0.0
210
0.0
220
0.0
230
1.0
 40
0.4017250258051183
 41
0.0
 42
3.141592653594508
  0
LINE
  5
285
330
1F
100
AcDbEntity
  8
化粧台
  6
CONTINUOUS
 62
     6
100
AcDbLine
 10
2309.999999999649
 20
1918.383863229501
 30
0.0
 11
2370.499999999649
 21
1918.383863229501
 31
0.0
  0
LINE
  5
286
330
1F
100
AcDbEntity
  8
化粧台
  6
CONTINUOUS
 62
     6
100
AcDbLine
 10
2309.999999999649
 20
1910.383863229501
 30
0.0
 11
2370.499999999649
 21
1910.383863229501
 31
0.0
  0
LINE
  5
287
330
1F
100
AcDbEntity
  8
化粧台
  6
CONTINUOUS
 62
     6
100
AcDbLine
 10
2309.999999999649
 20
1918.383863229501
 30
0.0
 11
2309.999999999649
 21
1910.383863229501
 31
0.0
  0
LINE
  5
288
330
1F
100
AcDbEntity
  8
化粧台
  6
CONTINUOUS
 62
     6
100
AcDbLine
 10
2284.422539550573
 20
1844.023753219382
 30
0.0
 11
2286.337682219334
 21
1848.130789926308
 31
0.0
  0
LINE
  5
289
330
1F
100
AcDbEntity
  8
化粧台
  6
CONTINUOUS
 62
     6
100
AcDbLine
 10
2263.577460448729
 20
1853.743973239419
 30
0.0
 11
2266.343012176245
 21
1859.674718058104
 31
0.0
  0
LINE
  5
28A
330
1F
100
AcDbEntity
  8
化粧台
  6
CONTINUOUS
 62
     6
100
AcDbLine
 10
2263.577460448736
 20
1853.743973239368
 30
0.0
 11
2284.422539550566
 21
1844.023753219335
 31
0.0
  0
LINE
  5
28B
330
1F
100
AcDbEntity
  8
化粧台
  6
EXLTYPE3
 62
     6
100
AcDbLine
 10
2395.000000000068
 20
1938.883863229501
 30
0.0
 11
2395.000000000068
 21
1757.838340959104
 31
0.0
  0
LINE
  5
28C
330
1F
100
AcDbEntity
  8
化粧台
  6
EXLTYPE3
 62
     6
100
AcDbLine
 10
1001.00000000015
 20
3073.499999999989
 30
0.0
 11
920.9999999999495
 21
3073.499999999989
 31
0.0
  0
LINE
  5
28D
330
1F
100
AcDbEntity
  8
化粧台
  6
EXLTYPE3
 62
     6
100
AcDbLine
 10
924.100000000059
 20
2924.5
 30
0.0
 11
997.9000000000583
 21
2924.5
 31
0.0
  0
LINE
  5
28E
330
1F
100
AcDbEntity
  8
化粧台
  6
CONTINUOUS
 62
     2
100
AcDbLine
 10
2041.000000000048
 20
1616.499999999949
 30
0.0
 11
2041.000000000048
 21
1599.5
 31
0.0
  0
LINE
  5
28F
330
1F
100
AcDbEntity
  8
化粧台
  6
CONTINUOUS
 62
     2
100
AcDbLine
 10
2491.000000000046
 20
1619.499999999949
 30
0.0
 11
2044.000000000048
 21
1619.499999999949
 31
0.0
  0
TEXT
  5
290
330
1F
100
AcDbEntity
  8
寸法
  6
CONTINUOUS
 62
     2
100
AcDbText
 10
1341.750000000038
 20
819.7499960958949
 30
0.0
 40
59.99999618530273
  1
ＶＰ･ＶＵ４０･５０
 41
0.8542372745578565
  7
EXCADSTD
 72
     5
 11
1773.749965667762
 21
819.7499960958949
 31
0.0
100
AcDbText
  0
TEXT
  5
291
330
1F
100
AcDbEntity
  8
寸法
  6
CONTINUOUS
 62
     2
100
AcDbText
 10
1341.750000000038
 20
759.7499999105921
 30
0.0
 40
59.99999618530273
  1
４０～５０mm立上げ
 41
0.7522387940136347
  7
EXCADSTD
 72
     5
 11
1773.749965667762
 21
759.7499999105921
 31
0.0
100
AcDbText
  0
LEADER
  5
292
330
1F
100
AcDbEntity
  8
寸法
  6
CONTINUOUS
 62
     3
100
AcDbLeader
  3
ISO-25
 76
     3
 10
1194.500000000048
 20
935.5
 30
0.0
 10
1341.750000000046
 20
754.5
 30
0.0
 10
1772.250000000048
 20
754.5
 30
0.0
1001
ACAD
1000
DSTYLE
1002
{
1070
     5
1000
EX_NORM
1070
    41
1040
45.0
1070
   341
1005
4D
1002
}
  0
DIMENSION
  5
294
330
1F
100
AcDbEntity
  8
寸法
  6
CONTINUOUS
 62
     3
100
AcDbDimension
  2
*D15
 10
1381.000000000055
 20
1619.5
 30
0.0
 11
1345.75000008946
 21
1269.5
 31
0.0
 70
   160
  3
ISO-25
100
AcDbAlignedDimension
 13
1259.000000000046
 23
919.5
 33
0.0
 14
1261.000000000046
 24
1619.5
 34
0.0
 50
90.0
100
AcDbRotatedDimension
1001
ACAD
1000
DSTYLE
1002
{
1070
   270
1070
     2
1070
     6
1000
EX_NORM
1070
     7
1000
EX_NORM
1070
    41
1040
44.99999618530273
1070
    42
1040
10.49999982118607
1070
    44
1040
15.0
1070
    73
1070
     0
1070
    74
1070
     0
1070
    75
1070
     1
1070
    76
1070
     0
1070
    77
1070
     1
1070
    78
1070
     0
1070
   140
1040
59.99999618530273
1070
   147
1040
0.0
1070
   173
1070
     1
1070
   176
1070
     3
1070
   177
1070
     3
1070
   178
1070
     2
1070
   271
1070
     0
1070
   277
1070
     2
1070
   279
1070
     2
1070
   280
1070
     0
1070
   287
1070
     5
1070
   340
1005
293
1002
}
  0
DIMENSION
  5
2A1
330
1F
100
AcDbEntity
  8
寸法
  6
CONTINUOUS
 62
     3
100
AcDbDimension
  2
*D16
 10
1161.000000000048
 20
709.4999999999945
 30
0.0
 11
728.5000000000477
 21
744.7499999105876
 31
0.0
 70
   160
  1
200（床排水）
  3
ISO-25
100
AcDbAlignedDimension
 13
961.0000000000477
 23
919.4999999999991
 33
0.0
 14
1161.000000000048
 24
869.499999999879
 34
0.0
100
AcDbRotatedDimension
1001
ACAD
1000
DSTYLE
1002
{
1070
   270
1070
     2
1070
     6
1000
EX_NORM
1070
     7
1000
EX_NORM
1070
    41
1040
44.99999618530273
1070
    42
1040
10.49999982118607
1070
    44
1040
15.0
1070
    73
1070
     0
1070
    74
1070
     0
1070
    75
1070
     0
1070
    76
1070
     0
1070
    77
1070
     1
1070
    78
1070
     0
1070
   140
1040
59.99999618530273
1070
   147
1040
0.0
1070
   173
1070
     1
1070
   176
1070
     3
1070
   177
1070
     3
1070
   178
1070
     2
1070
   271
1070
     0
1070
   277
1070
     2
1070
   279
1070
     2
1070
   280
1070
     1
1070
   287
1070
     5
1070
   340
1005
293
1002
}
  0
DIMENSION
  5
2AE
330
1F
100
AcDbEntity
  8
寸法
  6
CONTINUOUS
 62
     3
100
AcDbDimension
  2
*D17
 10
1041.000000000048
 20
799.4999999999945
 30
0.0
 11
648.5000000000476
 21
834.7499999105876
 31
0.0
 70
   160
  1
160（床給水）
  3
ISO-25
100
AcDbAlignedDimension
 13
881.0000000000477
 23
911.5
 33
0.0
 14
1041.000000000048
 24
911.5
 34
0.0
100
AcDbRotatedDimension
1001
ACAD
1000
DSTYLE
1002
{
1070
   270
1070
     2
1070
     6
1000
EX_NORM
1070
     7
1000
EX_NORM
1070
    41
1040
44.99999618530273
1070
    42
1040
10.49999982118607
1070
    44
1040
15.0
1070
    73
1070
     0
1070
    74
1070
     0
1070
    75
1070
     0
1070
    76
1070
     0
1070
    77
1070
     1
1070
    78
1070
     0
1070
   140
1040
59.99999618530273
1070
   147
1040
0.0
1070
   173
1070
     1
1070
   176
1070
     3
1070
   177
1070
     3
1070
   178
1070
     2
1070
   271
1070
     0
1070
   277
1070
     2
1070
   279
1070
     2
1070
   280
1070
     1
1070
   287
1070
     5
1070
   340
1005
293
1002
}
  0
DIMENSION
  5
2BB
330
1F
100
AcDbEntity
  8
寸法
  6
CONTINUOUS
 62
     3
100
AcDbDimension
  2
*D18
 10
1141.000000000048
 20
1223.5
 30
0.0
 11
971.0000000000375
 21
1258.749999910593
 31
0.0
 70
   160
  1
360（壁固定）
  3
ISO-25
100
AcDbAlignedDimension
 13
781.0000000000277
 23
1495.700000000099
 33
0.0
 14
1141.000000000048
 24
1495.700000000099
 34
0.0
100
AcDbRotatedDimension
1001
ACAD
1000
DSTYLE
1002
{
1070
   270
1070
     2
1070
     6
1000
EX_NORM
1070
     7
1000
EX_NORM
1070
    41
1040
44.99999618530273
1070
    42
1040
10.49999982118607
1070
    44
1040
15.0
1070
    73
1070
     0
1070
    74
1070
     0
1070
    75
1070
     0
1070
    76
1070
     0
1070
    77
1070
     1
1070
    78
1070
     0
1070
   140
1040
59.99999618530273
1070
   147
1040
0.0
1070
   173
1070
     1
1070
   176
1070
     3
1070
   177
1070
     3
1070
   178
1070
     2
1070
   271
1070
     0
1070
   277
1070
     2
1070
   279
1070
     2
1070
   280
1070
     0
1070
   287
1070
     5
1070
   340
1005
293
1002
}
  0
DIMENSION
  5
2C8
330
1F
100
AcDbEntity
  8
寸法
  6
CONTINUOUS
 62
     3
100
AcDbDimension
  2
*D19
 10
2491.00000000005
 20
709.5
 30
0.0
 11
2723.50000000005
 21
744.749999910593
 31
0.0
 70
   160
  1
100（床排水）
  3
ISO-25
100
AcDbAlignedDimension
 13
2391.000000000051
 23
869.499999999879
 33
0.0
 14
2491.00000000005
 24
919.4999999999991
 34
0.0
100
AcDbRotatedDimension
1001
ACAD
1000
DSTYLE
1002
{
1070
   270
1070
     2
1070
     6
1000
EX_NORM
1070
     7
1000
EX_NORM
1070
    41
1040
44.99999618530273
1070
    42
1040
10.49999982118607
1070
    44
1040
15.0
1070
    73
1070
     0
1070
    74
1070
     0
1070
    75
1070
     0
1070
    76
1070
     0
1070
    77
1070
     1
1070
    78
1070
     0
1070
   140
1040
59.99999618530273
1070
   147
1040
0.0
1070
   173
1070
     1
1070
   176
1070
     3
1070
   177
1070
     3
1070
   178
1070
     2
1070
   271
1070
     0
1070
   277
1070
     2
1070
   279
1070
     2
1070
   280
1070
     2
1070
   287
1070
     5
1070
   340
1005
293
1002
}
  0
DIMENSION
  5
2D5
330
1F
100
AcDbEntity
  8
寸法
  6
CONTINUOUS
 62
     3
100
AcDbDimension
  2
*D20
 10
2791.00000000006
 20
1499.5
 30
0.0
 11
2755.750000089466
 21
1209.499999999998
 31
0.0
 70
   160
  1
580（壁固定）
  3
ISO-25
100
AcDbAlignedDimension
 13
2491.00000000005
 23
919.5
 33
0.0
 14
2523.50000572195
 24
1499.5
 34
0.0
 50
90.0
100
AcDbRotatedDimension
1001
ACAD
1000
DSTYLE
1002
{
1070
   270
1070
     2
1070
     6
1000
EX_NORM
1070
     7
1000
EX_NORM
1070
    41
1040
44.99999618530273
1070
    42
1040
10.49999982118607
1070
    44
1040
15.0
1070
    73
1070
     0
1070
    74
1070
     0
1070
    75
1070
     0
1070
    76
1070
     0
1070
    77
1070
     1
1070
    78
1070
     0
1070
   140
1040
59.99999618530273
1070
   147
1040
0.0
1070
   173
1070
     1
1070
   176
1070
     3
1070
   177
1070
     3
1070
   178
1070
     2
1070
   271
1070
     0
1070
   277
1070
     2
1070
   279
1070
     2
1070
   280
1070
     0
1070
   287
1070
     5
1070
   340
1005
293
1002
}
  0
DIMENSION
  5
2E2
330
1F
100
AcDbEntity
  8
寸法
  6
CONTINUOUS
 62
     3
100
AcDbDimension
  2
*D21
 10
1161.000000000048
 20
3349.5
 30
0.0
 11
728.5000000000479
 21
3384.749999910593
 31
0.0
 70
   160
  1
200（壁排水）
  3
ISO-25
100
AcDbAlignedDimension
 13
961.0000000000477
 23
3169.5
 33
0.0
 14
1161.000000000048
 24
3219.5
 34
0.0
100
AcDbRotatedDimension
1001
ACAD
1000
DSTYLE
1002
{
1070
   270
1070
     2
1070
     6
1000
EX_NORM
1070
     7
1000
EX_NORM
1070
    41
1040
44.99999618530273
1070
    42
1040
10.49999982118607
1070
    44
1040
15.0
1070
    73
1070
     0
1070
    74
1070
     0
1070
    75
1070
     0
1070
    76
1070
     0
1070
    77
1070
     1
1070
    78
1070
     0
1070
   140
1040
59.99999618530273
1070
   147
1040
0.0
1070
   173
1070
     1
1070
   176
1070
     3
1070
   177
1070
     3
1070
   178
1070
     2
1070
   271
1070
     0
1070
   277
1070
     2
1070
   279
1070
     2
1070
   280
1070
     1
1070
   287
1070
     5
1070
   340
1005
293
1002
}
  0
DIMENSION
  5
2EF
330
1F
100
AcDbEntity
  8
寸法
  6
CONTINUOUS
 62
     3
100
AcDbDimension
  2
*D22
 10
1061.000000000048
 20
3259.5
 30
0.0
 11
628.5000000000497
 21
3294.749999910593
 31
0.0
 70
   160
  1
200（壁給水）
  3
ISO-25
100
AcDbAlignedDimension
 13
861.0000000000496
 23
3177.5
 33
0.0
 14
1061.000000000048
 24
3183.0
 34
0.0
100
AcDbRotatedDimension
1001
ACAD
1000
DSTYLE
1002
{
1070
   270
1070
     2
1070
     6
1000
EX_NORM
1070
     7
1000
EX_NORM
1070
    41
1040
44.99999618530273
1070
    42
1040
10.49999982118607
1070
    44
1040
15.0
1070
    73
1070
     0
1070
    74
1070
     0
1070
    75
1070
     0
1070
    76
1070
     0
1070
    77
1070
     1
1070
    78
1070
     0
1070
   140
1040
59.99999618530273
1070
   147
1040
0.0
1070
   173
1070
     1
1070
   176
1070
     3
1070
   177
1070
     3
1070
   178
1070
     2
1070
   271
1070
     0
1070
   277
1070
     2
1070
   279
1070
     2
1070
   280
1070
     1
1070
   287
1070
     5
1070
   340
1005
293
1002
}
  0
DIMENSION
  5
2FC
330
1F
100
AcDbEntity
  8
寸法
  6
CONTINUOUS
 62
     3
100
AcDbDimension
  2
*D23
 10
1381.000000000055
 20
2719.5
 30
0.0
 11
1345.750000089464
 21
2944.5
 31
0.0
 70
   160
  3
ISO-25
100
AcDbAlignedDimension
 13
1261.000000000046
 23
3169.5
 33
0.0
 14
1261.000000000046
 24
2719.5
 34
0.0
 50
90.0
100
AcDbRotatedDimension
1001
ACAD
1000
DSTYLE
1002
{
1070
   270
1070
     2
1070
     6
1000
EX_NORM
1070
     7
1000
EX_NORM
1070
    41
1040
44.99999618530273
1070
    42
1040
10.49999982118607
1070
    44
1040
15.0
1070
    73
1070
     0
1070
    74
1070
     0
1070
    75
1070
     1
1070
    76
1070
     0
1070
    77
1070
     1
1070
    78
1070
     0
1070
   140
1040
59.99999618530273
1070
   147
1040
0.0
1070
   173
1070
     1
1070
   176
1070
     3
1070
   177
1070
     3
1070
   178
1070
     2
1070
   271
1070
     0
1070
   277
1070
     2
1070
   279
1070
     2
1070
   280
1070
     0
1070
   287
1070
     5
1070
   340
1005
293
1002
}
  0
DIMENSION
  5
308
330
1F
100
AcDbEntity
  8
寸法
  6
CONTINUOUS
 62
     3
100
AcDbDimension
  2
*D24
 10
1261.000000000046
 20
2459.5
 30
0.0
 11
961.0000000000471
 21
2494.749999910593
 31
0.0
 70
   160
  3
ISO-25
100
AcDbAlignedDimension
 13
661.0000000000477
 23
2719.5
 33
0.0
 14
1261.000000000046
 24
2719.5
 34
0.0
100
AcDbRotatedDimension
1001
ACAD
1000
DSTYLE
1002
{
1070
   270
1070
     2
1070
     6
1000
EX_NORM
1070
     7
1000
EX_NORM
1070
    41
1040
44.99999618530273
1070
    42
1040
10.49999982118607
1070
    44
1040
15.0
1070
    73
1070
     0
1070
    74
1070
     0
1070
    75
1070
     0
1070
    76
1070
     0
1070
    77
1070
     1
1070
    78
1070
     0
1070
   140
1040
59.99999618530273
1070
   147
1040
0.0
1070
   173
1070
     1
1070
   176
1070
     3
1070
   177
1070
     3
1070
   178
1070
     2
1070
   271
1070
     0
1070
   277
1070
     2
1070
   279
1070
     2
1070
   280
1070
     0
1070
   287
1070
     5
1070
   340
1005
293
1002
}
  0
DIMENSION
  5
315
330
1F
100
AcDbEntity
  8
寸法
  6
CONTINUOUS
 62
     3
100
AcDbDimension
  2
*D25
 10
2611.00000000006
 20
1379.5
 30
0.0
 11
2575.750000089466
 21
1149.5
 31
0.0
 70
   160
  1
460（壁給水）
  3
ISO-25
100
AcDbAlignedDimension
 13
2491.00000000006
 23
919.5
 33
0.0
 14
2499.00000000006
 24
1379.5
 34
0.0
 50
90.0
100
AcDbRotatedDimension
1001
ACAD
1000
DSTYLE
1002
{
1070
   270
1070
     2
1070
     6
1000
EX_NORM
1070
     7
1000
EX_NORM
1070
    41
1040
44.99999618530273
1070
    42
1040
10.49999982118607
1070
    44
1040
15.0
1070
    73
1070
     0
1070
    74
1070
     0
1070
    75
1070
     0
1070
    76
1070
     0
1070
    77
1070
     1
1070
    78
1070
     0
1070
   140
1040
59.99999618530273
1070
   147
1040
0.0
1070
   173
1070
     1
1070
   176
1070
     3
1070
   177
1070
     3
1070
   178
1070
     2
1070
   271
1070
     0
1070
   277
1070
     2
1070
   279
1070
     2
1070
   280
1070
     0
1070
   287
1070
     5
1070
   340
1005
293
1002
}
  0
DIMENSION
  5
322
330
1F
100
AcDbEntity
  8
寸法
  6
CONTINUOUS
 62
     3
100
AcDbDimension
  2
*D26
 10
2701.00000000006
 20
1389.5
 30
0.0
 11
2665.750000089466
 21
1154.5
 31
0.0
 70
   160
  1
470（壁排水）
  3
ISO-25
100
AcDbAlignedDimension
 13
2491.00000000006
 23
919.5
 33
0.0
 14
2541.00000000006
 24
1389.5
 34
0.0
 50
90.0
100
AcDbRotatedDimension
1001
ACAD
1000
DSTYLE
1002
{
1070
   270
1070
     2
1070
     6
1000
EX_NORM
1070
     7
1000
EX_NORM
1070
    41
1040
44.99999618530273
1070
    42
1040
10.49999982118607
1070
    44
1040
15.0
1070
    73
1070
     0
1070
    74
1070
     0
1070
    75
1070
     0
1070
    76
1070
     0
1070
    77
1070
     1
1070
    78
1070
     0
1070
   140
1040
59.99999618530273
1070
   147
1040
0.0
1070
   173
1070
     1
1070
   176
1070
     3
1070
   177
1070
     3
1070
   178
1070
     2
1070
   271
1070
     0
1070
   277
1070
     2
1070
   279
1070
     2
1070
   280
1070
     0
1070
   287
1070
     5
1070
   340
1005
293
1002
}
  0
DIMENSION
  5
32F
330
1F
100
AcDbEntity
  8
寸法
  6
CONTINUOUS
 62
     3
100
AcDbDimension
  2
*D27
 10
1186.000000000057
 20
2549.5
 30
0.0
 11
961.0000000000571
 21
2584.749999910593
 31
0.0
 70
   160
  3
ISO-25
100
AcDbAlignedDimension
 13
736.0000000000568
 23
2915.0
 33
0.0
 14
1186.000000000057
 24
2915.0
 34
0.0
100
AcDbRotatedDimension
1001
ACAD
1000
DSTYLE
1002
{
1070
   270
1070
     2
1070
     6
1000
EX_NORM
1070
     7
1000
EX_NORM
1070
    41
1040
44.99999618530273
1070
    42
1040
10.49999982118607
1070
    44
1040
15.0
1070
    73
1070
     0
1070
    74
1070
     0
1070
    75
1070
     0
1070
    76
1070
     0
1070
    77
1070
     1
1070
    78
1070
     0
1070
   140
1040
59.99999618530273
1070
   147
1040
0.0
1070
   173
1070
     1
1070
   176
1070
     3
1070
   177
1070
     3
1070
   178
1070
     2
1070
   271
1070
     0
1070
   277
1070
     2
1070
   279
1070
     2
1070
   280
1070
     0
1070
   287
1070
     5
1070
   340
1005
293
1002
}
  0
DIMENSION
  5
33C
330
1F
100
AcDbEntity
  8
寸法
  6
CONTINUOUS
 62
     3
100
AcDbDimension
  2
*D28
 10
1471.000000000055
 20
1789.5
 30
0.0
 11
1435.75000008946
 21
1354.5
 31
0.0
 70
   160
  1
（<>）
  3
ISO-25
100
AcDbAlignedDimension
 13
1259.000000000057
 23
919.5
 33
0.0
 14
961.0000000000496
 24
1789.5
 34
0.0
 50
90.0
100
AcDbRotatedDimension
1001
ACAD
1000
DSTYLE
1002
{
1070
   270
1070
     2
1070
     6
1000
EX_NORM
1070
     7
1000
EX_NORM
1070
    41
1040
44.99999618530273
1070
    42
1040
10.49999982118607
1070
    44
1040
15.0
1070
    73
1070
     0
1070
    74
1070
     0
1070
    75
1070
     1
1070
    76
1070
     0
1070
    77
1070
     1
1070
    78
1070
     0
1070
   140
1040
59.99999618530273
1070
   147
1040
0.0
1070
   173
1070
     1
1070
   176
1070
     3
1070
   177
1070
     3
1070
   178
1070
     2
1070
   271
1070
     0
1070
   277
1070
     2
1070
   279
1070
     2
1070
   280
1070
     0
1070
   287
1070
     5
1070
   340
1005
293
1002
}
  0
DIMENSION
  5
348
330
1F
100
AcDbEntity
  8
寸法
  6
CONTINUOUS
 62
     3
100
AcDbDimension
  2
*D29
 10
2491.00000000006
 20
619.5
 30
0.0
 11
2723.50000000006
 21
654.749999910593
 31
0.0
 70
   160
  1
160（床給水）
  3
ISO-25
100
AcDbAlignedDimension
 13
2331.000000000059
 23
911.5
 33
0.0
 14
2491.00000000006
 24
919.4999999999991
 34
0.0
100
AcDbRotatedDimension
1001
ACAD
1000
DSTYLE
1002
{
1070
   270
1070
     2
1070
     6
1000
EX_NORM
1070
     7
1000
EX_NORM
1070
    41
1040
44.99999618530273
1070
    42
1040
10.49999982118607
1070
    44
1040
15.0
1070
    73
1070
     0
1070
    74
1070
     0
1070
    75
1070
     0
1070
    76
1070
     0
1070
    77
1070
     1
1070
    78
1070
     0
1070
   140
1040
59.99999618530273
1070
   147
1040
0.0
1070
   173
1070
     1
1070
   176
1070
     3
1070
   177
1070
     3
1070
   178
1070
     2
1070
   271
1070
     0
1070
   277
1070
     2
1070
   279
1070
     2
1070
   280
1070
     2
1070
   287
1070
     5
1070
   340
1005
293
1002
}
  0
TEXT
  5
355
330
1F
100
AcDbEntity
  8
寸法
  6
CONTINUOUS
 62
     2
100
AcDbText
 10
2074.500000536502
 20
804.749999910593
 30
0.0
 40
59.99999618530273
  1
Ｒ１/２
 41
0.8342465643686785
  7
EXCADSTD
 72
     5
 11
2248.499987185062
 21
804.749999910593
 31
0.0
100
AcDbText
  0
LEADER
  5
356
330
1F
100
AcDbEntity
  8
寸法
  6
CONTINUOUS
 62
     3
100
AcDbLeader
  3
ISO-25
 76
     3
 10
2320.50000000006
 20
911.5
 30
0.0
 10
2248.50000000006
 20
799.5
 30
0.0
 10
2077.350000000059
 20
799.5
 30
0.0
1001
ACAD
1000
DSTYLE
1002
{
1070
     5
1000
EX_NORM
1070
    41
1040
45.0
1070
   341
1005
4D
1002
}
  0
TEXT
  5
357
330
1F
100
AcDbEntity
  8
寸法
  6
CONTINUOUS
 62
     2
100
AcDbText
 10
2531.25000000006
 20
804.749999910593
 30
0.0
 40
59.99999618530273
  1
φ３２
 41
1.070588224822399
  7
EXCADSTD
 72
     5
 11
2687.249988555969
 21
804.749999910593
 31
0.0
100
AcDbText
  0
LEADER
  5
358
330
1F
100
AcDbEntity
  8
寸法
  6
CONTINUOUS
 62
     3
100
AcDbLeader
  3
ISO-25
 76
     3
 10
2407.00000000006
 20
889.3499999999985
 30
0.0
 10
2531.25000000006
 20
799.5
 30
0.0
 10
2671.50000000006
 20
799.5
 30
0.0
1001
ACAD
1000
DSTYLE
1002
{
1070
     5
1000
EX_NORM
1070
    41
1040
45.0
1070
   341
1005
4D
1002
}
  0
DIMENSION
  5
359
330
1F
100
AcDbEntity
  8
寸法
  6
CONTINUOUS
 62
     3
100
AcDbDimension
  2
*D30
 10
1381.000000000055
 20
1789.5
 30
0.0
 11
1345.750000089462
 21
1704.5
 31
0.0
 70
   160
  3
ISO-25
100
AcDbAlignedDimension
 13
1261.000000000057
 23
1619.5
 33
0.0
 14
961.0000000000585
 24
1789.5
 34
0.0
 50
90.0
100
AcDbRotatedDimension
1001
ACAD
1000
DSTYLE
1002
{
1070
   270
1070
     2
1070
     6
1000
EX_NORM
1070
     7
1000
EX_NORM
1070
    41
1040
44.99999618530273
1070
    42
1040
10.49999982118607
1070
    44
1040
15.0
1070
    73
1070
     0
1070
    74
1070
     0
1070
    75
1070
     1
1070
    76
1070
     0
1070
    77
1070
     1
1070
    78
1070
     0
1070
   140
1040
59.99999618530273
1070
   147
1040
0.0
1070
   173
1070
     1
1070
   176
1070
     3
1070
   177
1070
     3
1070
   178
1070
     2
1070
   271
1070
     0
1070
   277
1070
     2
1070
   279
1070
     2
1070
   280
1070
     0
1070
   287
1070
     5
1070
   340
1005
293
1002
}
  0
DIMENSION
  5
365
330
1F
100
AcDbEntity
  8
寸法
  6
CONTINUOUS
 62
     3
100
AcDbDimension
  2
*D31
 10
1471.0000000001
 20
2697.5
 30
0.0
 11
1435.750000089507
 21
2933.5
 31
0.0
 70
   160
  1
470
  3
ISO-25
100
AcDbAlignedDimension
 13
1261.0
 23
3169.5
 33
0.0
 14
961.00000000005
 24
2697.5
 34
0.0
 50
90.0
100
AcDbRotatedDimension
1001
ACAD
1000
DSTYLE
1002
{
1070
   270
1070
     2
1070
     6
1000
EX_NORM
1070
     7
1000
EX_NORM
1070
    41
1040
44.99999618530273
1070
    42
1040
10.49999982118607
1070
    44
1040
15.0
1070
    73
1070
     0
1070
    74
1070
     0
1070
    75
1070
     0
1070
    76
1070
     0
1070
    77
1070
     1
1070
    78
1070
     8
1070
   140
1040
59.99999618530273
1070
   147
1040
0.0
1070
   173
1070
     1
1070
   176
1070
     3
1070
   177
1070
     3
1070
   178
1070
     2
1070
   271
1070
     1
1070
   277
1070
     2
1070
   279
1070
     2
1070
   280
1070
     0
1070
   287
1070
     5
1070
   340
1005
293
1002
}
  0
ARC
  5
372
330
1F
100
AcDbEntity
  8
寸法
  6
CONTINUOUS
 62
     2
100
AcDbCircle
 10
2044.000000000048
 20
1616.499999999949
 30
0.0
 40
3.0
100
AcDbArc
 50
90.00000000000001
 51
180.0
  0
ENDSEC
  0
SECTION
  2
OBJECTS
  0
DICTIONARY
  5
C
330
0
100
AcDbDictionary
  3
ACAD_GROUP
350
D
  3
ACAD_LAYOUT
350
1A
  3
ACAD_MATERIAL
350
3B
  3
ACAD_MLEADERSTYLE
350
395
  3
ACAD_MLINESTYLE
350
17
  3
ACAD_PLOTSETTINGS
350
19
  3
ACAD_VISUALSTYLE
350
2A
  3
ACDBHEADERROUNDTRIPXREC
350
373
  3
ACDBVARIABLEDICTIONARY
350
393
  0
DICTIONARY
  5
D
102
{ACAD_REACTORS
330
C
102
}
330
C
100
AcDbDictionary
  0
DICTIONARY
  5
1A
102
{ACAD_REACTORS
330
C
102
}
330
C
100
AcDbDictionary
  0
DICTIONARY
  5
3B
102
{ACAD_REACTORS
330
C
102
}
330
C
100
AcDbDictionary
  3
BYBLOCK
350
3D
  3
BYLAYER
350
3C
  3
GLOBAL
350
3E
  0
DICTIONARY
  5
395
102
{ACAD_REACTORS
330
C
102
}
330
C
100
AcDbDictionary
  0
DICTIONARY
  5
17
102
{ACAD_REACTORS
330
C
102
}
330
C
100
AcDbDictionary
  3
STANDARD
350
18
  0
DICTIONARY
  5
19
102
{ACAD_REACTORS
330
C
102
}
330
C
100
AcDbDictionary
  0
DICTIONARY
  5
2A
102
{ACAD_REACTORS
330
C
102
}
330
C
100
AcDbDictionary
  3
2DWIREFRAME
350
2F
  3
3D_HIDDEN
350
31
  3
3DWIREFRAME
350
30
  3
BASIC
350
32
  3
BRIGHTEN
350
36
  3
COLORCHANGE
350
3A
  3
CONCEPTUAL
350
34
  3
DIM
350
35
  3
FACEPATTERN
350
39
  3
FLAT
350
2B
  3
FLATWITHEDGES
350
2C
  3
GOURAUD
350
2D
  3
GOURAUDWITHEDGES
350
2E
  3
LINEPATTERN
350
38
  3
REALISTIC
350
33
  3
THICKEN
350
37
  0
DICTIONARY
  5
373
102
{ACAD_REACTORS
330
C
102
}
330
C
100
AcDbDictionary
  3
CEPSNTYPE
350
37C
  3
DIMSTYLEDATA
350
392
  3
FINGERPRINTGUID
350
37D
  3
HYPERLINKBASE
350
376
  3
INSUNITS
350
37B
  3
LAYOUTDICT
350
378
  3
LWETCUNION
350
37A
  3
PLOTSETDICT
350
379
  3
PSVPSCALE
350
37F
  3
PUCSBASE
350
382
  3
PUCSORGBACK
350
388
  3
PUCSORGBOTTOM
350
384
  3
PUCSORGFRONT
350
387
  3
PUCSORGLEFT
350
385
  3
PUCSORGRIGHT
350
386
  3
PUCSORGTOP
350
383
  3
PUCSORTHOREF
350
380
  3
PUCSORTHOVIEW
350
381
  3
STYLESHEET
350
377
  3
TSTACKALIGN
350
374
  3
TSTACKSIZE
350
375
  3
UCSBASE
350
38B
  3
UCSORGBACK
350
391
  3
UCSORGBOTTOM
350
38D
  3
UCSORGFRONT
350
390
  3
UCSORGLEFT
350
38E
  3
UCSORGRIGHT
350
38F
  3
UCSORGTOP
350
38C
  3
UCSORTHOREF
350
389
  3
UCSORTHOVIEW
350
38A
  3
VERSIONGUID
350
37E
  0
DICTIONARY
  5
393
102
{ACAD_REACTORS
330
C
102
}
330
C
100
AcDbDictionary
  3
DIMASSOC
350
398
  3
HIDETEXT
350
399
  3
PSOLHEIGHT
350
397
  3
PSOLWIDTH
350
396
  0
MATERIAL
  5
3D
102
{ACAD_REACTORS
330
3B
102
}
102
{ACAD_XDICTIONARY
360
39C
102
}
330
3B
100
AcDbMaterial
  1
ByBlock
  0
MATERIAL
  5
3C
102
{ACAD_REACTORS
330
3B
102
}
102
{ACAD_XDICTIONARY
360
39A
102
}
330
3B
100
AcDbMaterial
  1
ByLayer
  0
MATERIAL
  5
3E
102
{ACAD_REACTORS
330
3B
102
}
102
{ACAD_XDICTIONARY
360
39E
102
}
330
3B
100
AcDbMaterial
  1
Global
  0
MLINESTYLE
  5
18
102
{ACAD_REACTORS
330
17
102
}
330
17
100
AcDbMlineStyle
  2
Standard
 70
     0
  3

 62
   256
 51
90.0
 52
90.0
 71
     2
 49
0.5
 62
   256
  6
BYLAYER
 49
-0.5
 62
   256
  6
BYLAYER
  0
ACAD_PROXY_OBJECT
  5
2F
102
{ACAD_REACTORS
330
2A
102
}
330
2A
100
AcDbProxyObject
 90
      499
 91
      501
 93
      436
310
42CC9915DA5C99599C985B595049028333333333333E3BF0000000000000FB0107901411070040501600405405064090741402480A0340
1001
ACAD
1000
AcDbSavedByObjectVersion
1070
     0
  0
ACAD_PROXY_OBJECT
  5
31
102
{ACAD_REACTORS
330
2A
102
}
330
2A
100
AcDbProxyObject
 90
      499
 91
      501
 93
      500
310
424CD108121A5919195B90640502408333333333333E3BF0000000000000FB01079024090700405020000000000001110200405405064090740C02480A0340
1001
ACAD
1000
AcDbSavedByObjectVersion
1070
     0
  0
ACAD_PROXY_OBJECT
  5
30
102
{ACAD_REACTORS
330
2A
102
}
330
2A
100
AcDbProxyObject
 90
      499
 91
      501
 93
      436
310
42CCD915DA5C99599C985B595059028333333333333E3BF0000000000000FB0107901411070040501600405405064090741402480A0340
1001
ACAD
1000
AcDbSavedByObjectVersion
1070
     0
  0
ACAD_PROXY_OBJECT
  5
32
102
{ACAD_REACTORS
330
2A
102
}
330
2A
100
AcDbProxyObject
 90
      499
 91
      501
 93
      388
310
4150985CDA58D07406404333333333333E3BF0000000000000FB0107A41107004050150841D405064090741402480A0350
1001
ACAD
1000
AcDbSavedByObjectVersion
1070
     0
  0
ACAD_PROXY_OBJECT
  5
36
102
{ACAD_REACTORS
330
2A
102
}
330
2A
100
AcDbProxyObject
 90
      499
 91
      501
 93
      428
310
42109C9A59DA1D195B90C409028333333333333E3BF0000000000000FB010790141107004050150841D405064090741402480A029950
1001
ACAD
1000
AcDbSavedByObjectVersion
1070
     0
  0
ACAD_PROXY_OBJECT
  5
3A
102
{ACAD_REACTORS
330
2A
102
}
330
2A
100
AcDbProxyObject
 90
      499
 91
      501
 93
      452
310
42D0DBDB1BDC90DA185B99D95104090240C333333333333E3BF0000000000000FB0108901411070040501508421405064090741402480A0350
1001
ACAD
1000
AcDbSavedByObjectVersion
1070
     0
  0
ACAD_PROXY_OBJECT
  5
34
102
{ACAD_REACTORS
330
2A
102
}
330
2A
100
AcDbProxyObject
 90
      499
 91
      501
 93
      500
310
4290DBDB98D95C1D1D585B10940D028333333333333E3BF0000000000000FB0107902409070040501000000000000111010841D405064090740C02480A0340
1001
ACAD
1000
AcDbSavedByObjectVersion
1070
     0
  0
ACAD_PROXY_OBJECT
  5
35
102
{ACAD_REACTORS
330
2A
102
}
330
2A
100
AcDbProxyObject
 90
      499
 91
      501
 93
      412
310
40D11A5B50B409028333333333333E3BF0000000000000FB010790141107004050150841D405064090741402480A02677FFFFFD0
1001
ACAD
1000
AcDbSavedByObjectVersion
1070
     0
  0
ACAD_PROXY_OBJECT
  5
39
102
{ACAD_REACTORS
330
2A
102
}
330
2A
100
AcDbProxyObject
 90
      499
 91
      501
 93
      444
310
42D19858D95C185D1D195C9B90F409028333333333333E3BF0000000000000FB010790141107004050150841D405064090741402480A0350
1001
ACAD
1000
AcDbSavedByObjectVersion
1070
     0
  0
ACAD_PROXY_OBJECT
  5
2B
102
{ACAD_REACTORS
330
2A
102
}
330
2A
100
AcDbProxyObject
 90
      499
 91
      501
 93
      388
310
41119B185D240901404333333333333E3BF0000000000000F9010740A41107004050150841D405064090741402480A1B50
1001
ACAD
1000
AcDbSavedByObjectVersion
1070
     0
  0
ACAD_PROXY_OBJECT
  5
2C
102
{ACAD_REACTORS
330
2A
102
}
330
2A
100
AcDbProxyObject
 90
      499
 91
      501
 93
      476
310
43519B185D15DA5D1A115919D95CD0140901404333333333333E3BF0000000000000F9010740901411070040501600405405064090741402480A1B50
1001
ACAD
1000
AcDbSavedByObjectVersion
1070
     0
  0
ACAD_PROXY_OBJECT
  5
2D
102
{ACAD_REACTORS
330
2A
102
}
330
2A
100
AcDbProxyObject
 90
      499
 91
      501
 93
      412
310
41D1DBDD5C985D5910240902404333333333333E3BF0000000000000F9010740A411070040501641D405064090741402480A1B50
1001
ACAD
1000
AcDbSavedByObjectVersion
1070
     0
  0
ACAD_PROXY_OBJECT
  5
2E
102
{ACAD_REACTORS
330
2A
102
}
330
2A
100
AcDbProxyObject
 90
      499
 91
      501
 93
      500
310
4411DBDD5C985D5915DA5D1A115919D95CD0340902404333333333333E3BF0000000000000F9010740901411070040501600405405064090741402480A1B50
1001
ACAD
1000
AcDbSavedByObjectVersion
1070
     0
  0
ACAD_PROXY_OBJECT
  5
38
102
{ACAD_REACTORS
330
2A
102
}
330
2A
100
AcDbProxyObject
 90
      499
 91
      501
 93
      444
310
42D31A5B995C185D1D195C9B90E409028333333333333E3BF0000000000000FB010790141107004050750841D405064090741402483A0350
1001
ACAD
1000
AcDbSavedByObjectVersion
1070
     0
  0
ACAD_PROXY_OBJECT
  5
33
102
{ACAD_REACTORS
330
2A
102
}
330
2A
100
AcDbProxyObject
 90
      499
 91
      501
 93
      420
310
425499585B1A5CDD1A58D08409028333333333333E3BF0000000000000FB01079019070040501508421405064090741402480A1B40
1001
ACAD
1000
AcDbSavedByObjectVersion
1070
     0
  0
ACAD_PROXY_OBJECT
  5
37
102
{ACAD_REACTORS
330
2A
102
}
330
2A
100
AcDbProxyObject
 90
      499
 91
      501
 93
      412
310
41D51A1A58DAD95B90D409028333333333333E3BF0000000000000FB010790141107004050150C41D405064090741402480A0350
1001
ACAD
1000
AcDbSavedByObjectVersion
1070
     0
  0
XRECORD
  5
37C
102
{ACAD_REACTORS
330
373
102
}
330
373
100
AcDbXrecord
 90
        0
  0
XRECORD
  5
392
102
{ACAD_REACTORS
330
373
102
}
330
373
100
AcDbXrecord
1000
DSTYLE
1002
{
1070
   340
340
11
1002
}
  0
XRECORD
  5
37D
102
{ACAD_REACTORS
330
373
102
}
330
373
100
AcDbXrecord
  1
{871F252D-8574-45F3-8AFF-D2A7CDE16E50}
  0
XRECORD
  5
376
102
{ACAD_REACTORS
330
373
102
}
330
373
100
AcDbXrecord
  1

  0
XRECORD
  5
37B
102
{ACAD_REACTORS
330
373
102
}
330
373
100
AcDbXrecord
 90
        4
  0
XRECORD
  5
378
102
{ACAD_REACTORS
330
373
102
}
330
373
100
AcDbXrecord
340
1A
  0
XRECORD
  5
37A
102
{ACAD_REACTORS
330
373
102
}
330
373
100
AcDbXrecord
 90
    10781
  0
XRECORD
  5
379
102
{ACAD_REACTORS
330
373
102
}
330
373
100
AcDbXrecord
340
19
  0
XRECORD
  5
37F
102
{ACAD_REACTORS
330
373
102
}
330
373
100
AcDbXrecord
 40
0.0
  0
XRECORD
  5
382
102
{ACAD_REACTORS
330
373
102
}
330
373
100
AcDbXrecord
340
0
  0
XRECORD
  5
388
102
{ACAD_REACTORS
330
373
102
}
330
373
100
AcDbXrecord
 10
0.0
 20
0.0
 30
0.0
  0
XRECORD
  5
384
102
{ACAD_REACTORS
330
373
102
}
330
373
100
AcDbXrecord
 10
0.0
 20
0.0
 30
0.0
  0
XRECORD
  5
387
102
{ACAD_REACTORS
330
373
102
}
330
373
100
AcDbXrecord
 10
0.0
 20
0.0
 30
0.0
  0
XRECORD
  5
385
102
{ACAD_REACTORS
330
373
102
}
330
373
100
AcDbXrecord
 10
0.0
 20
0.0
 30
0.0
  0
XRECORD
  5
386
102
{ACAD_REACTORS
330
373
102
}
330
373
100
AcDbXrecord
 10
0.0
 20
0.0
 30
0.0
  0
XRECORD
  5
383
102
{ACAD_REACTORS
330
373
102
}
330
373
100
AcDbXrecord
 10
0.0
 20
0.0
 30
0.0
  0
XRECORD
  5
380
102
{ACAD_REACTORS
330
373
102
}
330
373
100
AcDbXrecord
340
0
  0
XRECORD
  5
381
102
{ACAD_REACTORS
330
373
102
}
330
373
100
AcDbXrecord
 70
     0
  0
XRECORD
  5
377
102
{ACAD_REACTORS
330
373
102
}
330
373
100
AcDbXrecord
  1

  0
XRECORD
  5
374
102
{ACAD_REACTORS
330
373
102
}
330
373
100
AcDbXrecord
 90
        1
  0
XRECORD
  5
375
102
{ACAD_REACTORS
330
373
102
}
330
373
100
AcDbXrecord
 90
       70
  0
XRECORD
  5
38B
102
{ACAD_REACTORS
330
373
102
}
330
373
100
AcDbXrecord
340
0
  0
XRECORD
  5
391
102
{ACAD_REACTORS
330
373
102
}
330
373
100
AcDbXrecord
 10
0.0
 20
0.0
 30
0.0
  0
XRECORD
  5
38D
102
{ACAD_REACTORS
330
373
102
}
330
373
100
AcDbXrecord
 10
0.0
 20
0.0
 30
0.0
  0
XRECORD
  5
390
102
{ACAD_REACTORS
330
373
102
}
330
373
100
AcDbXrecord
 10
0.0
 20
0.0
 30
0.0
  0
XRECORD
  5
38E
102
{ACAD_REACTORS
330
373
102
}
330
373
100
AcDbXrecord
 10
0.0
 20
0.0
 30
0.0
  0
XRECORD
  5
38F
102
{ACAD_REACTORS
330
373
102
}
330
373
100
AcDbXrecord
 10
0.0
 20
0.0
 30
0.0
  0
XRECORD
  5
38C
102
{ACAD_REACTORS
330
373
102
}
330
373
100
AcDbXrecord
 10
0.0
 20
0.0
 30
0.0
  0
XRECORD
  5
389
102
{ACAD_REACTORS
330
373
102
}
330
373
100
AcDbXrecord
340
0
  0
XRECORD
  5
38A
102
{ACAD_REACTORS
330
373
102
}
330
373
100
AcDbXrecord
 70
     0
  0
XRECORD
  5
37E
102
{ACAD_REACTORS
330
373
102
}
330
373
100
AcDbXrecord
  1
{FAEB1C32-E019-11D5-929B-00C0DF256EC4}
  0
DICTIONARYVAR
  5
398
102
{ACAD_REACTORS
330
393
102
}
330
393
100
DictionaryVariables
280
     0
  1
2
  0
DICTIONARYVAR
  5
399
102
{ACAD_REACTORS
330
393
102
}
330
393
100
DictionaryVariables
280
     0
  1
1
  0
DICTIONARYVAR
  5
397
102
{ACAD_REACTORS
330
393
102
}
330
393
100
DictionaryVariables
280
     0
  1
80.000000
  0
DICTIONARYVAR
  5
396
102
{ACAD_REACTORS
330
393
102
}
330
393
100
DictionaryVariables
280
     0
  1
5.000000
  0
DICTIONARY
  5
39C
330
3D
100
AcDbDictionary
280
     1
  3
ACAD_XREC_ROUNDTRIP
360
39D
  0
DICTIONARY
  5
39A
330
3C
100
AcDbDictionary
280
     1
  3
ACAD_XREC_ROUNDTRIP
360
39B
  0
DICTIONARY
  5
39E
330
3E
100
AcDbDictionary
280
     1
  3
ACAD_XREC_ROUNDTRIP
360
39F
  0
XRECORD
  5
39D
102
{ACAD_REACTORS
330
39C
102
}
330
39C
100
AcDbXrecord
102
MATERIAL
148
0.0
149
0.0
149
0.0
 93
        0
 94
      127
282
     0
 72
     1
 77
     1
171
     1
175
     1
179
     1
273
     0
  0
XRECORD
  5
39B
102
{ACAD_REACTORS
330
39A
102
}
330
39A
100
AcDbXrecord
102
MATERIAL
148
0.0
149
0.0
149
0.0
 93
        0
 94
      127
282
     0
 72
     1
 77
     1
171
     1
175
     1
179
     1
273
     0
  0
XRECORD
  5
39F
102
{ACAD_REACTORS
330
39E
102
}
330
39E
100
AcDbXrecord
102
MATERIAL
148
0.0
149
0.0
149
0.0
 93
        0
 94
      127
282
     0
 72
     1
 77
     1
171
     1
175
     1
179
     1
273
     0
  0
ENDSEC
  0
EOF
