  0
SECTION
  2
HEADER
  9
$ACADVER
  1
AC1014
  9
$ACADMAINTVER
 70
     9
  9
$DWGCODEPAGE
  3
ANSI_932
  9
$INSBASE
 10
0.0
 20
0.0
 30
0.0
  9
$EXTMIN
 10
17.4000000000252
 20
9.299999999999955
 30
0.0
  9
$EXTMAX
 10
199.4000000000257
 20
289.3
 30
0.0
  9
$LIMMIN
 10
0.0
 20
0.0
  9
$LIMMAX
 10
210.0
 20
297.0
  9
$ORTHOMODE
 70
     0
  9
$REGENMODE
 70
     1
  9
$FILLMODE
 70
     1
  9
$QTEXTMODE
 70
     0
  9
$MIRRTEXT
 70
     1
  9
$DRAGMODE
 70
     2
  9
$LTSCALE
 40
1.0
  9
$OSMODE
 70
    37
  9
$ATTMODE
 70
     1
  9
$TEXTSIZE
 40
2.5
  9
$TRACEWID
 40
1.0
  9
$TEXTSTYLE
  7
STANDARD
  9
$CLAYER
  8
寸法
  9
$CELTYPE
  6
BYLAYER
  9
$CECOLOR
 62
   256
  9
$CELTSCALE
 40
1.0
  9
$DELOBJ
 70
     1
  9
$DISPSILH
 70
     0
  9
$DIMSCALE
 40
1.0
  9
$DIMASZ
 40
2.5
  9
$DIMEXO
 40
0.625
  9
$DIMDLI
 40
3.75
  9
$DIMRND
 40
0.0
  9
$DIMDLE
 40
0.0
  9
$DIMEXE
 40
1.25
  9
$DIMTP
 40
0.0
  9
$DIMTM
 40
0.0
  9
$DIMTXT
 40
2.5
  9
$DIMCEN
 40
2.5
  9
$DIMTSZ
 40
0.0
  9
$DIMTOL
 70
     0
  9
$DIMLIM
 70
     0
  9
$DIMTIH
 70
     0
  9
$DIMTOH
 70
     0
  9
$DIMSE1
 70
     0
  9
$DIMSE2
 70
     0
  9
$DIMTAD
 70
     1
  9
$DIMZIN
 70
     8
  9
$DIMBLK
  1

  9
$DIMASO
 70
     1
  9
$DIMSHO
 70
     1
  9
$DIMPOST
  1

  9
$DIMAPOST
  1

  9
$DIMALT
 70
     0
  9
$DIMALTD
 70
     3
  9
$DIMALTF
 40
0.03937007874016
  9
$DIMLFAC
 40
1.0
  9
$DIMTOFL
 70
     1
  9
$DIMTVP
 40
0.0
  9
$DIMTIX
 70
     0
  9
$DIMSOXD
 70
     0
  9
$DIMSAH
 70
     0
  9
$DIMBLK1
  1

  9
$DIMBLK2
  1

  9
$DIMSTYLE
  2
ISO-25
  9
$DIMCLRD
 70
     0
  9
$DIMCLRE
 70
     0
  9
$DIMCLRT
 70
     0
  9
$DIMTFAC
 40
1.0
  9
$DIMGAP
 40
0.625
  9
$DIMJUST
 70
     0
  9
$DIMSD1
 70
     0
  9
$DIMSD2
 70
     0
  9
$DIMTOLJ
 70
     0
  9
$DIMTZIN
 70
     8
  9
$DIMALTZ
 70
     0
  9
$DIMALTTZ
 70
     0
  9
$DIMFIT
 70
     3
  9
$DIMUPT
 70
     0
  9
$DIMUNIT
 70
     2
  9
$DIMDEC
 70
     2
  9
$DIMTDEC
 70
     2
  9
$DIMALTU
 70
     2
  9
$DIMALTTD
 70
     3
  9
$DIMTXSTY
  7
STANDARD
  9
$DIMAUNIT
 70
     0
  9
$LUNITS
 70
     2
  9
$LUPREC
 70
     4
  9
$SKETCHINC
 40
1.0
  9
$FILLETRAD
 40
10.0
  9
$AUNITS
 70
     0
  9
$AUPREC
 70
     0
  9
$MENU
  1
.
  9
$ELEVATION
 40
0.0
  9
$PELEVATION
 40
0.0
  9
$THICKNESS
 40
0.0
  9
$LIMCHECK
 70
     0
  9
$CHAMFERA
 40
10.0
  9
$CHAMFERB
 40
10.0
  9
$CHAMFERC
 40
20.0
  9
$CHAMFERD
 40
0.0
  9
$SKPOLY
 70
     0
  9
$TDCREATE
 40
2460084.580751852
  9
$TDUPDATE
 40
2460084.580752084
  9
$TDINDWG
 40
0.0000000116
  9
$TDUSRTIMER
 40
0.0000000116
  9
$USRTIMER
 70
     1
  9
$ANGBASE
 50
0.0
  9
$ANGDIR
 70
     0
  9
$PDMODE
 70
     0
  9
$PDSIZE
 40
0.0
  9
$PLINEWID
 40
0.0
  9
$COORDS
 70
     1
  9
$SPLFRAME
 70
     0
  9
$SPLINETYPE
 70
     6
  9
$SPLINESEGS
 70
     8
  9
$ATTDIA
 70
     0
  9
$ATTREQ
 70
     1
  9
$HANDLING
 70
     1
  9
$HANDSEED
  5
514
  9
$SURFTAB1
 70
     6
  9
$SURFTAB2
 70
     6
  9
$SURFTYPE
 70
     6
  9
$SURFU
 70
     6
  9
$SURFV
 70
     6
  9
$UCSNAME
  2

  9
$UCSORG
 10
0.0
 20
0.0
 30
0.0
  9
$UCSXDIR
 10
1.0
 20
0.0
 30
0.0
  9
$UCSYDIR
 10
0.0
 20
1.0
 30
0.0
  9
$PUCSNAME
  2

  9
$PUCSORG
 10
0.0
 20
0.0
 30
0.0
  9
$PUCSXDIR
 10
1.0
 20
0.0
 30
0.0
  9
$PUCSYDIR
 10
0.0
 20
1.0
 30
0.0
  9
$USERI1
 70
     0
  9
$USERI2
 70
     0
  9
$USERI3
 70
     0
  9
$USERI4
 70
     0
  9
$USERI5
 70
     0
  9
$USERR1
 40
0.0
  9
$USERR2
 40
0.0
  9
$USERR3
 40
0.0
  9
$USERR4
 40
0.0
  9
$USERR5
 40
0.0
  9
$WORLDVIEW
 70
     1
  9
$SHADEDGE
 70
     3
  9
$SHADEDIF
 70
    70
  9
$TILEMODE
 70
     1
  9
$MAXACTVP
 70
    64
  9
$PINSBASE
 10
0.0
 20
0.0
 30
0.0
  9
$PLIMCHECK
 70
     0
  9
$PEXTMIN
 10
1.000000000000000E+20
 20
1.000000000000000E+20
 30
1.000000000000000E+20
  9
$PEXTMAX
 10
-1.000000000000000E+20
 20
-1.000000000000000E+20
 30
-1.000000000000000E+20
  9
$PLIMMIN
 10
0.0
 20
0.0
  9
$PLIMMAX
 10
420.0
 20
297.0
  9
$UNITMODE
 70
     0
  9
$VISRETAIN
 70
     1
  9
$PLINEGEN
 70
     0
  9
$PSLTSCALE
 70
     1
  9
$TREEDEPTH
 70
  3020
  9
$PICKSTYLE
 70
     1
  9
$CMLSTYLE
  2
STANDARD
  9
$CMLJUST
 70
     0
  9
$CMLSCALE
 40
20.0
  9
$PROXYGRAPHICS
 70
     1
  9
$MEASUREMENT
 70
     1
  0
ENDSEC
  0
SECTION
  2
CLASSES
  0
CLASS
  1
ACDBDICTIONARYWDFLT
  2
AcDbDictionaryWithDefault
  3
ObjectDBX Classes
 90
        0
280
     0
281
     0
  0
CLASS
  1
VISUALSTYLE
  2
AcDbVisualStyle
  3
ObjectDBX Classes
 90
     4095
280
     0
281
     0
  0
CLASS
  1
MATERIAL
  2
AcDbMaterial
  3
ObjectDBX Classes
 90
     1153
280
     0
281
     0
  0
CLASS
  1
SUN
  2
AcDbSun
  3
SCENEOE
 90
     1024
280
     0
281
     0
  0
CLASS
  1
DICTIONARYVAR
  2
AcDbDictionaryVar
  3
ObjectDBX Classes
 90
        0
280
     0
281
     0
  0
CLASS
  1
XRECORD
  2
AcDbXrecord
  3
AutoCAD 2000
 90
        0
280
     0
281
     0
  0
CLASS
  1
LWPOLYLINE
  2
AcDbPolyline
  3
AutoCAD 2000
 90
        0
280
     0
281
     1
  0
CLASS
  1
HATCH
  2
AcDbHatch
  3
AutoCAD 2000
 90
        0
280
     0
281
     1
  0
CLASS
  1
ACDBPLACEHOLDER
  2
AcDbPlaceHolder
  3
ObjectDBX Classes
 90
        0
280
     0
281
     0
  0
CLASS
  1
LAYOUT
  2
AcDbLayout
  3
ObjectDBX Classes
 90
        0
280
     0
281
     0
  0
ENDSEC
  0
SECTION
  2
TABLES
  0
TABLE
  2
VPORT
  5
8
330
0
100
AcDbSymbolTable
 70
     1
  0
VPORT
  5
29
330
8
100
AcDbSymbolTableRecord
100
AcDbViewportTableRecord
  2
*ACTIVE
 70
     0
 10
0.0
 20
0.0
 11
1.0
 21
1.0
 12
1626.000000000382
 22
2239.5
 13
0.0
 23
0.0
 14
10.0
 24
10.0
 15
10.0
 25
10.0
 16
0.0
 26
0.0
 36
1.0
 17
0.0
 27
0.0
 37
0.0
 40
4200.000000000001
 41
0.6500000000000017
 42
50.0
 43
0.0
 44
0.0
 50
0.0
 51
0.0
 71
     0
 72
  1000
 73
     1
 74
     3
 75
     0
 76
     0
 77
     0
 78
     0
  0
ENDTAB
  0
TABLE
  2
LTYPE
  5
5
330
0
100
AcDbSymbolTable
 70
     7
  0
LTYPE
  5
14
330
5
100
AcDbSymbolTableRecord
100
AcDbLinetypeTableRecord
  2
BYBLOCK
 70
     0
  3

 72
    65
 73
     0
 40
0.0
  0
LTYPE
  5
15
330
5
100
AcDbSymbolTableRecord
100
AcDbLinetypeTableRecord
  2
BYLAYER
 70
     0
  3

 72
    65
 73
     0
 40
0.0
  0
LTYPE
  5
16
330
5
100
AcDbSymbolTableRecord
100
AcDbLinetypeTableRecord
  2
CONTINUOUS
 70
     0
  3
Solid line
 72
    65
 73
     0
 40
0.0
  0
LTYPE
  5
40
330
5
100
AcDbSymbolTableRecord
100
AcDbLinetypeTableRecord
  2
EXLTYPE1
 70
     0
  3
破線
 72
    65
 73
     2
 40
3.0
 49
2.0
 74
     0
 49
-1.0
 74
     0
  0
LTYPE
  5
41
330
5
100
AcDbSymbolTableRecord
100
AcDbLinetypeTableRecord
  2
EXLTYPE2
 70
     0
  3
点線
 72
    65
 73
     2
 40
2.0
 49
1.0
 74
     0
 49
-1.0
 74
     0
  0
LTYPE
  5
42
330
5
100
AcDbSymbolTableRecord
100
AcDbLinetypeTableRecord
  2
EXLTYPE3
 70
     0
  3
一点鎖線
 72
    65
 73
     4
 40
10.0
 49
7.0
 74
     0
 49
-1.0
 74
     0
 49
1.0
 74
     0
 49
-1.0
 74
     0
  0
LTYPE
  5
43
330
5
100
AcDbSymbolTableRecord
100
AcDbLinetypeTableRecord
  2
EXLTYPE4
 70
     0
  3
二点鎖線
 72
    65
 73
     6
 40
12.0
 49
7.0
 74
     0
 49
-1.0
 74
     0
 49
1.0
 74
     0
 49
-1.0
 74
     0
 49
1.0
 74
     0
 49
-1.0
 74
     0
  0
LTYPE
  5
44
330
5
100
AcDbSymbolTableRecord
100
AcDbLinetypeTableRecord
  2
EXLTYPE5
 70
     0
  3
三点鎖線
 72
    65
 73
     8
 40
37.0
 49
30.0
 74
     0
 49
-1.0
 74
     0
 49
1.0
 74
     0
 49
-1.0
 74
     0
 49
1.0
 74
     0
 49
-1.0
 74
     0
 49
1.0
 74
     0
 49
-1.0
 74
     0
  0
LTYPE
  5
45
330
5
100
AcDbSymbolTableRecord
100
AcDbLinetypeTableRecord
  2
EXLTYPE6
 70
     0
  3
四点鎖線
 72
    65
 73
    10
 40
39.0
 49
30.0
 74
     0
 49
-1.0
 74
     0
 49
1.0
 74
     0
 49
-1.0
 74
     0
 49
1.0
 74
     0
 49
-1.0
 74
     0
 49
1.0
 74
     0
 49
-1.0
 74
     0
 49
1.0
 74
     0
 49
-1.0
 74
     0
  0
ENDTAB
  0
TABLE
  2
LAYER
  5
2
330
0
100
AcDbSymbolTable
 70
     7
  0
LAYER
  5
10
330
2
100
AcDbSymbolTableRecord
100
AcDbLayerTableRecord
  2
0
 70
     0
 62
     7
  6
CONTINUOUS
  0
LAYER
  5
48
330
2
100
AcDbSymbolTableRecord
100
AcDbLayerTableRecord
  2
枠_表
 70
     0
 62
     7
  6
CONTINUOUS
  0
LAYER
  5
49
330
2
100
AcDbSymbolTableRecord
100
AcDbLayerTableRecord
  2
化粧台
 70
     0
 62
     7
  6
CONTINUOUS
  0
LAYER
  5
4A
330
2
100
AcDbSymbolTableRecord
100
AcDbLayerTableRecord
  2
鏡台
 70
     0
 62
     7
  6
CONTINUOUS
  0
LAYER
  5
4B
330
2
100
AcDbSymbolTableRecord
100
AcDbLayerTableRecord
  2
付属金具
 70
     0
 62
     7
  6
CONTINUOUS
  0
LAYER
  5
4C
330
2
100
AcDbSymbolTableRecord
100
AcDbLayerTableRecord
  2
寸法
 70
     0
 62
     7
  6
CONTINUOUS
  0
LAYER
  5
386
330
2
100
AcDbSymbolTableRecord
100
AcDbLayerTableRecord
  2
DEFPOINTS
 70
     0
 62
     7
  6
CONTINUOUS
  0
ENDTAB
  0
TABLE
  2
STYLE
  5
3
330
0
100
AcDbSymbolTable
 70
     5
  0
STYLE
  5
11
330
3
100
AcDbSymbolTableRecord
100
AcDbTextStyleTableRecord
  2
STANDARD
 70
     0
 40
0.0
 41
1.0
 50
0.0
 71
     0
 42
2.5
  3
monotxt
  4
extfont
  0
STYLE
  5
46
330
3
100
AcDbSymbolTableRecord
100
AcDbTextStyleTableRecord
  2
EXCADSTD
 70
     0
 40
0.0
 41
1.0
 50
0.0
 71
     0
 42
0.2
  3
monotxt
  4
extfont
  0
STYLE
  5
47
330
3
100
AcDbSymbolTableRecord
100
AcDbTextStyleTableRecord
  2
EXCADVERT
 70
     4
 40
0.0
 41
1.0
 50
0.0
 71
     0
 42
0.286885
  3
monotxt
  4
extfont
  0
STYLE
  5
133
330
3
100
AcDbSymbolTableRecord
100
AcDbTextStyleTableRecord
  2
EXCADTTF1
 70
     0
 40
0.0
 41
1.0
 50
0.0
 71
     0
 42
0.2
  3
MSGOTHIC.TTC
  4

1001
ACAD
1000
MS Gothic
1071
    32817
  0
STYLE
  5
384
330
3
100
AcDbSymbolTableRecord
100
AcDbTextStyleTableRecord
  2
EXCADDIM1
 70
     0
 40
0.0
 41
0.84
 50
0.0
 71
     0
 42
0.2
  3
monotxt
  4
extfont
  0
ENDTAB
  0
TABLE
  2
VIEW
  5
6
330
0
100
AcDbSymbolTable
 70
     0
  0
ENDTAB
  0
TABLE
  2
UCS
  5
7
330
0
100
AcDbSymbolTable
 70
     0
  0
ENDTAB
  0
TABLE
  2
APPID
  5
9
330
0
100
AcDbSymbolTable
 70
     1
  0
APPID
  5
12
330
9
100
AcDbSymbolTableRecord
100
AcDbRegAppTableRecord
  2
ACAD
 70
     0
  0
ENDTAB
  0
TABLE
  2
DIMSTYLE
  5
A
330
0
100
AcDbSymbolTable
 70
     1
  0
DIMSTYLE
105
27
102
{ACAD_REACTORS
330
385
330
392
330
39F
330
3AC
330
3B9
330
3C7
330
3D4
330
3E0
330
3ED
330
3FA
330
406
330
413
330
41F
330
42B
330
438
330
444
330
44F
330
45B
330
468
330
475
330
4A5
330
4B3
330
4C0
330
4CD
330
4DB
102
}
330
A
100
AcDbSymbolTableRecord
100
AcDbDimStyleTableRecord
  2
ISO-25
 70
     0
  3

  4

  5

  6

  7

 40
1.0
 41
2.5
 42
0.625
 43
3.75
 44
1.25
 45
0.0
 46
0.0
 47
0.0
 48
0.0
140
2.5
141
2.5
142
0.0
143
0.03937007874016
144
1.0
145
0.0
146
1.0
147
0.625
 71
     0
 72
     0
 73
     0
 74
     0
 75
     0
 76
     0
 77
     1
 78
     8
170
     0
171
     3
172
     1
173
     0
174
     0
175
     0
176
     0
177
     0
178
     0
270
     2
271
     2
272
     2
273
     2
274
     3
340
11
275
     0
280
     0
281
     0
282
     0
283
     0
284
     8
285
     0
286
     0
287
     5
288
     0
  0
ENDTAB
  0
TABLE
  2
BLOCK_RECORD
  5
1
330
0
100
AcDbSymbolTable
 70
    40
  0
BLOCK_RECORD
  5
1F
330
1
100
AcDbSymbolTableRecord
100
AcDbBlockTableRecord
  2
*MODEL_SPACE
  0
BLOCK_RECORD
  5
1B
330
1
100
AcDbSymbolTableRecord
100
AcDbBlockTableRecord
  2
*PAPER_SPACE
  0
BLOCK_RECORD
  5
4D
330
1
100
AcDbSymbolTableRecord
100
AcDbBlockTableRecord
  2
EX_NORM
  0
BLOCK_RECORD
  5
50
330
1
100
AcDbSymbolTableRecord
100
AcDbBlockTableRecord
  2
EX_BNORM
  0
BLOCK_RECORD
  5
53
330
1
100
AcDbSymbolTableRecord
100
AcDbBlockTableRecord
  2
EX_BCIR
  0
BLOCK_RECORD
  5
56
330
1
100
AcDbSymbolTableRecord
100
AcDbBlockTableRecord
  2
EX_RCIVIL
  0
BLOCK_RECORD
  5
59
330
1
100
AcDbSymbolTableRecord
100
AcDbBlockTableRecord
  2
EX_SLANT
  0
BLOCK_RECORD
  5
5C
330
1
100
AcDbSymbolTableRecord
100
AcDbBlockTableRecord
  2
EX_NONE
  0
BLOCK_RECORD
  5
5F
330
1
100
AcDbSymbolTableRecord
100
AcDbBlockTableRecord
  2
EX_CIVIL
  0
BLOCK_RECORD
  5
62
330
1
100
AcDbSymbolTableRecord
100
AcDbBlockTableRecord
  2
EX_WCIR
  0
BLOCK_RECORD
  5
65
330
1
100
AcDbSymbolTableRecord
100
AcDbBlockTableRecord
  2
EX_WCIR2
  0
BLOCK_RECORD
  5
68
330
1
100
AcDbSymbolTableRecord
100
AcDbBlockTableRecord
  2
EX_WNORM
  0
BLOCK_RECORD
  5
6B
330
1
100
AcDbSymbolTableRecord
100
AcDbBlockTableRecord
  2
EX_NNORM
  0
BLOCK_RECORD
  5
6E
330
1
100
AcDbSymbolTableRecord
100
AcDbBlockTableRecord
  2
EX_BBOX
  0
BLOCK_RECORD
  5
71
330
1
100
AcDbSymbolTableRecord
100
AcDbBlockTableRecord
  2
EX_WBOX
  0
BLOCK_RECORD
  5
74
330
1
100
AcDbSymbolTableRecord
100
AcDbBlockTableRecord
  2
EX_INTEGRAL
  0
BLOCK_RECORD
  5
387
330
1
100
AcDbSymbolTableRecord
100
AcDbBlockTableRecord
  2
*D15
  0
BLOCK_RECORD
  5
393
330
1
100
AcDbSymbolTableRecord
100
AcDbBlockTableRecord
  2
*D16
  0
BLOCK_RECORD
  5
3A0
330
1
100
AcDbSymbolTableRecord
100
AcDbBlockTableRecord
  2
*D17
  0
BLOCK_RECORD
  5
3AD
330
1
100
AcDbSymbolTableRecord
100
AcDbBlockTableRecord
  2
*D18
  0
BLOCK_RECORD
  5
3BA
330
1
100
AcDbSymbolTableRecord
100
AcDbBlockTableRecord
  2
*D19
  0
BLOCK_RECORD
  5
3C8
330
1
100
AcDbSymbolTableRecord
100
AcDbBlockTableRecord
  2
*D20
  0
BLOCK_RECORD
  5
3D5
330
1
100
AcDbSymbolTableRecord
100
AcDbBlockTableRecord
  2
*D21
  0
BLOCK_RECORD
  5
3E1
330
1
100
AcDbSymbolTableRecord
100
AcDbBlockTableRecord
  2
*D22
  0
BLOCK_RECORD
  5
3EE
330
1
100
AcDbSymbolTableRecord
100
AcDbBlockTableRecord
  2
*D23
  0
BLOCK_RECORD
  5
3FB
330
1
100
AcDbSymbolTableRecord
100
AcDbBlockTableRecord
  2
*D24
  0
BLOCK_RECORD
  5
407
330
1
100
AcDbSymbolTableRecord
100
AcDbBlockTableRecord
  2
*D25
  0
BLOCK_RECORD
  5
414
330
1
100
AcDbSymbolTableRecord
100
AcDbBlockTableRecord
  2
*D26
  0
BLOCK_RECORD
  5
420
330
1
100
AcDbSymbolTableRecord
100
AcDbBlockTableRecord
  2
*D27
  0
BLOCK_RECORD
  5
42C
330
1
100
AcDbSymbolTableRecord
100
AcDbBlockTableRecord
  2
*D28
  0
BLOCK_RECORD
  5
439
330
1
100
AcDbSymbolTableRecord
100
AcDbBlockTableRecord
  2
*D29
  0
BLOCK_RECORD
  5
445
330
1
100
AcDbSymbolTableRecord
100
AcDbBlockTableRecord
  2
*D30
  0
BLOCK_RECORD
  5
450
330
1
100
AcDbSymbolTableRecord
100
AcDbBlockTableRecord
  2
*D31
  0
BLOCK_RECORD
  5
45C
330
1
100
AcDbSymbolTableRecord
100
AcDbBlockTableRecord
  2
*D32
  0
BLOCK_RECORD
  5
469
330
1
100
AcDbSymbolTableRecord
100
AcDbBlockTableRecord
  2
*D33
  0
BLOCK_RECORD
  5
476
330
1
100
AcDbSymbolTableRecord
100
AcDbBlockTableRecord
  2
*D34
  0
BLOCK_RECORD
  5
4A6
330
1
100
AcDbSymbolTableRecord
100
AcDbBlockTableRecord
  2
*D35
  0
BLOCK_RECORD
  5
4B4
330
1
100
AcDbSymbolTableRecord
100
AcDbBlockTableRecord
  2
*D36
  0
BLOCK_RECORD
  5
4C1
330
1
100
AcDbSymbolTableRecord
100
AcDbBlockTableRecord
  2
*D37
  0
BLOCK_RECORD
  5
4CE
330
1
100
AcDbSymbolTableRecord
100
AcDbBlockTableRecord
  2
*D38
  0
BLOCK_RECORD
  5
4DC
330
1
100
AcDbSymbolTableRecord
100
AcDbBlockTableRecord
  2
*D39
  0
ENDTAB
  0
ENDSEC
  0
SECTION
  2
BLOCKS
  0
BLOCK
  5
20
330
1F
100
AcDbEntity
  8
0
100
AcDbBlockBegin
  2
*MODEL_SPACE
 70
     0
 10
0.0
 20
0.0
 30
0.0
  3
*MODEL_SPACE
  1

  0
ENDBLK
  5
21
330
1F
100
AcDbEntity
  8
0
100
AcDbBlockEnd
  0
BLOCK
  5
1C
330
1B
100
AcDbEntity
 67
     1
  8
0
100
AcDbBlockBegin
  2
*PAPER_SPACE
 70
     0
 10
0.0
 20
0.0
 30
0.0
  3
*PAPER_SPACE
  1

  0
ENDBLK
  5
1D
330
1B
100
AcDbEntity
 67
     1
  8
0
100
AcDbBlockEnd
  0
BLOCK
  5
4E
330
4D
100
AcDbEntity
  8
0
100
AcDbBlockBegin
  2
EX_NORM
 70
     0
 10
0.0
 20
0.0
 30
0.0
  3
EX_NORM
  1

  0
LINE
  5
77
330
4D
100
AcDbEntity
  8
0
  6
CONTINUOUS
 62
     0
100
AcDbLine
 10
0.0
 20
0.0
 30
0.0
 11
-1.0
 21
0.0
 31
0.0
  0
LINE
  5
78
330
4D
100
AcDbEntity
  8
0
  6
CONTINUOUS
 62
     0
100
AcDbLine
 10
0.0
 20
0.0
 30
0.0
 11
-1.0
 21
0.166666667
 31
0.0
  0
LINE
  5
79
330
4D
100
AcDbEntity
  8
0
  6
CONTINUOUS
 62
     0
100
AcDbLine
 10
0.0
 20
0.0
 30
0.0
 11
-1.0
 21
-0.166666667
 31
0.0
  0
ENDBLK
  5
4F
330
4D
100
AcDbEntity
  8
0
100
AcDbBlockEnd
  0
BLOCK
  5
51
330
50
100
AcDbEntity
  8
0
100
AcDbBlockBegin
  2
EX_BNORM
 70
     0
 10
0.0
 20
0.0
 30
0.0
  3
EX_BNORM
  1

  0
LINE
  5
7A
330
50
100
AcDbEntity
  8
0
  6
CONTINUOUS
 62
     0
100
AcDbLine
 10
0.0
 20
0.0
 30
0.0
 11
-1.0
 21
0.0
 31
0.0
  0
LINE
  5
7B
330
50
100
AcDbEntity
  8
0
  6
CONTINUOUS
 62
     0
100
AcDbLine
 10
0.0
 20
0.0
 30
0.0
 11
-1.0
 21
0.166666667
 31
0.0
  0
LINE
  5
7C
330
50
100
AcDbEntity
  8
0
  6
CONTINUOUS
 62
     0
100
AcDbLine
 10
0.0
 20
0.0
 30
0.0
 11
-1.0
 21
-0.166666667
 31
0.0
  0
LINE
  5
7D
330
50
100
AcDbEntity
  8
0
  6
CONTINUOUS
 62
     0
100
AcDbLine
 10
0.0
 20
0.0
 30
0.0
 11
-1.0
 21
0.083333333
 31
0.0
  0
LINE
  5
7E
330
50
100
AcDbEntity
  8
0
  6
CONTINUOUS
 62
     0
100
AcDbLine
 10
0.0
 20
0.0
 30
0.0
 11
-1.0
 21
-0.083333333
 31
0.0
  0
LINE
  5
7F
330
50
100
AcDbEntity
  8
0
  6
CONTINUOUS
 62
     0
100
AcDbLine
 10
-1.0
 20
0.166666667
 30
0.0
 11
-1.0
 21
-0.166666667
 31
0.0
  0
ENDBLK
  5
52
330
50
100
AcDbEntity
  8
0
100
AcDbBlockEnd
  0
BLOCK
  5
54
330
53
100
AcDbEntity
  8
0
100
AcDbBlockBegin
  2
EX_BCIR
 70
     0
 10
0.0
 20
0.0
 30
0.0
  3
EX_BCIR
  1

  0
LINE
  5
80
330
53
100
AcDbEntity
  8
0
  6
CONTINUOUS
 62
     0
100
AcDbLine
 10
0.0
 20
0.0
 30
0.0
 11
-1.0
 21
0.0
 31
0.0
  0
CIRCLE
  5
81
330
53
100
AcDbEntity
  8
0
  6
CONTINUOUS
 62
     0
100
AcDbCircle
 10
0.0
 20
0.0
 30
0.0
 40
0.5
  0
CIRCLE
  5
82
330
53
100
AcDbEntity
  8
0
  6
CONTINUOUS
 62
     0
100
AcDbCircle
 10
0.0
 20
0.0
 30
0.0
 40
0.25
  0
ENDBLK
  5
55
330
53
100
AcDbEntity
  8
0
100
AcDbBlockEnd
  0
BLOCK
  5
57
330
56
100
AcDbEntity
  8
0
100
AcDbBlockBegin
  2
EX_RCIVIL
 70
     0
 10
0.0
 20
0.0
 30
0.0
  3
EX_RCIVIL
  1

  0
LINE
  5
83
330
56
100
AcDbEntity
  8
0
  6
CONTINUOUS
 62
     0
100
AcDbLine
 10
0.0
 20
0.0
 30
0.0
 11
-1.0
 21
0.0
 31
0.0
  0
LINE
  5
84
330
56
100
AcDbEntity
  8
0
  6
CONTINUOUS
 62
     0
100
AcDbLine
 10
-1.0
 20
-0.25
 30
0.0
 11
0.0
 21
-0.25
 31
0.0
  0
LINE
  5
85
330
56
100
AcDbEntity
  8
0
  6
CONTINUOUS
 62
     0
100
AcDbLine
 10
-1.0
 20
-0.125
 30
0.0
 11
0.0
 21
-0.125
 31
0.0
  0
ENDBLK
  5
58
330
56
100
AcDbEntity
  8
0
100
AcDbBlockEnd
  0
BLOCK
  5
5A
330
59
100
AcDbEntity
  8
0
100
AcDbBlockBegin
  2
EX_SLANT
 70
     0
 10
0.0
 20
0.0
 30
0.0
  3
EX_SLANT
  1

  0
LINE
  5
86
330
59
100
AcDbEntity
  8
0
  6
CONTINUOUS
 62
     0
100
AcDbLine
 10
0.0
 20
0.0
 30
0.0
 11
-1.0
 21
0.0
 31
0.0
  0
LINE
  5
87
330
59
100
AcDbEntity
  8
0
  6
CONTINUOUS
 62
     0
100
AcDbLine
 10
0.707106781
 20
0.707106781
 30
0.0
 11
-0.707106781
 21
-0.707106781
 31
0.0
  0
ENDBLK
  5
5B
330
59
100
AcDbEntity
  8
0
100
AcDbBlockEnd
  0
BLOCK
  5
5D
330
5C
100
AcDbEntity
  8
0
100
AcDbBlockBegin
  2
EX_NONE
 70
     0
 10
0.0
 20
0.0
 30
0.0
  3
EX_NONE
  1

  0
LINE
  5
88
330
5C
100
AcDbEntity
  8
0
  6
CONTINUOUS
 62
     0
100
AcDbLine
 10
0.0
 20
0.0
 30
0.0
 11
-1.0
 21
0.0
 31
0.0
  0
ENDBLK
  5
5E
330
5C
100
AcDbEntity
  8
0
100
AcDbBlockEnd
  0
BLOCK
  5
60
330
5F
100
AcDbEntity
  8
0
100
AcDbBlockBegin
  2
EX_CIVIL
 70
     0
 10
0.0
 20
0.0
 30
0.0
  3
EX_CIVIL
  1

  0
LINE
  5
89
330
5F
100
AcDbEntity
  8
0
  6
CONTINUOUS
 62
     0
100
AcDbLine
 10
0.0
 20
0.0
 30
0.0
 11
-1.0
 21
0.0
 31
0.0
  0
LINE
  5
8A
330
5F
100
AcDbEntity
  8
0
  6
CONTINUOUS
 62
     0
100
AcDbLine
 10
-1.0
 20
0.25
 30
0.0
 11
0.0
 21
0.25
 31
0.0
  0
LINE
  5
8B
330
5F
100
AcDbEntity
  8
0
  6
CONTINUOUS
 62
     0
100
AcDbLine
 10
-1.0
 20
0.125
 30
0.0
 11
0.0
 21
0.125
 31
0.0
  0
ENDBLK
  5
61
330
5F
100
AcDbEntity
  8
0
100
AcDbBlockEnd
  0
BLOCK
  5
63
330
62
100
AcDbEntity
  8
0
100
AcDbBlockBegin
  2
EX_WCIR
 70
     0
 10
0.0
 20
0.0
 30
0.0
  3
EX_WCIR
  1

  0
LINE
  5
8C
330
62
100
AcDbEntity
  8
0
  6
CONTINUOUS
 62
     0
100
AcDbLine
 10
0.0
 20
0.0
 30
0.0
 11
-1.0
 21
0.0
 31
0.0
  0
CIRCLE
  5
8D
330
62
100
AcDbEntity
  8
0
  6
CONTINUOUS
 62
     0
100
AcDbCircle
 10
0.0
 20
0.0
 30
0.0
 40
0.5
  0
ENDBLK
  5
64
330
62
100
AcDbEntity
  8
0
100
AcDbBlockEnd
  0
BLOCK
  5
66
330
65
100
AcDbEntity
  8
0
100
AcDbBlockBegin
  2
EX_WCIR2
 70
     0
 10
0.0
 20
0.0
 30
0.0
  3
EX_WCIR2
  1

  0
LINE
  5
8E
330
65
100
AcDbEntity
  8
0
  6
CONTINUOUS
 62
     0
100
AcDbLine
 10
-0.5
 20
0.0
 30
0.0
 11
-1.0
 21
0.0
 31
0.0
  0
CIRCLE
  5
8F
330
65
100
AcDbEntity
  8
0
  6
CONTINUOUS
 62
     0
100
AcDbCircle
 10
0.0
 20
0.0
 30
0.0
 40
0.5
  0
ENDBLK
  5
67
330
65
100
AcDbEntity
  8
0
100
AcDbBlockEnd
  0
BLOCK
  5
69
330
68
100
AcDbEntity
  8
0
100
AcDbBlockBegin
  2
EX_WNORM
 70
     0
 10
0.0
 20
0.0
 30
0.0
  3
EX_WNORM
  1

  0
LINE
  5
90
330
68
100
AcDbEntity
  8
0
  6
CONTINUOUS
 62
     0
100
AcDbLine
 10
-1.0
 20
0.0
 30
0.0
 11
-1.0
 21
0.0
 31
0.0
  0
LINE
  5
91
330
68
100
AcDbEntity
  8
0
  6
CONTINUOUS
 62
     0
100
AcDbLine
 10
0.0
 20
0.0
 30
0.0
 11
-1.0
 21
0.166666667
 31
0.0
  0
LINE
  5
92
330
68
100
AcDbEntity
  8
0
  6
CONTINUOUS
 62
     0
100
AcDbLine
 10
0.0
 20
0.0
 30
0.0
 11
-1.0
 21
-0.166666667
 31
0.0
  0
LINE
  5
93
330
68
100
AcDbEntity
  8
0
  6
CONTINUOUS
 62
     0
100
AcDbLine
 10
-1.0
 20
0.166666667
 30
0.0
 11
-1.0
 21
-0.166666667
 31
0.0
  0
ENDBLK
  5
6A
330
68
100
AcDbEntity
  8
0
100
AcDbBlockEnd
  0
BLOCK
  5
6C
330
6B
100
AcDbEntity
  8
0
100
AcDbBlockBegin
  2
EX_NNORM
 70
     0
 10
0.0
 20
0.0
 30
0.0
  3
EX_NNORM
  1

  0
LINE
  5
94
330
6B
100
AcDbEntity
  8
0
  6
CONTINUOUS
 62
     0
100
AcDbLine
 10
0.0
 20
0.0
 30
0.0
 11
-1.0
 21
0.0
 31
0.0
  0
LINE
  5
95
330
6B
100
AcDbEntity
  8
0
  6
CONTINUOUS
 62
     0
100
AcDbLine
 10
0.0
 20
0.0
 30
0.0
 11
-1.0
 21
0.166666667
 31
0.0
  0
LINE
  5
96
330
6B
100
AcDbEntity
  8
0
  6
CONTINUOUS
 62
     0
100
AcDbLine
 10
0.0
 20
0.0
 30
0.0
 11
-1.0
 21
-0.166666667
 31
0.0
  0
LINE
  5
97
330
6B
100
AcDbEntity
  8
0
  6
CONTINUOUS
 62
     0
100
AcDbLine
 10
-1.0
 20
0.166666667
 30
0.0
 11
-1.0
 21
-0.166666667
 31
0.0
  0
ENDBLK
  5
6D
330
6B
100
AcDbEntity
  8
0
100
AcDbBlockEnd
  0
BLOCK
  5
6F
330
6E
100
AcDbEntity
  8
0
100
AcDbBlockBegin
  2
EX_BBOX
 70
     0
 10
0.0
 20
0.0
 30
0.0
  3
EX_BBOX
  1

  0
LINE
  5
98
330
6E
100
AcDbEntity
  8
0
  6
CONTINUOUS
 62
     0
100
AcDbLine
 10
0.0
 20
0.0
 30
0.0
 11
-1.0
 21
0.0
 31
0.0
  0
LINE
  5
99
330
6E
100
AcDbEntity
  8
0
  6
CONTINUOUS
 62
     0
100
AcDbLine
 10
-0.5
 20
0.5
 30
0.0
 11
0.5
 21
0.5
 31
0.0
  0
LINE
  5
9A
330
6E
100
AcDbEntity
  8
0
  6
CONTINUOUS
 62
     0
100
AcDbLine
 10
0.5
 20
0.5
 30
0.0
 11
0.5
 21
-0.5
 31
0.0
  0
LINE
  5
9B
330
6E
100
AcDbEntity
  8
0
  6
CONTINUOUS
 62
     0
100
AcDbLine
 10
0.5
 20
-0.5
 30
0.0
 11
-0.5
 21
-0.5
 31
0.0
  0
LINE
  5
9C
330
6E
100
AcDbEntity
  8
0
  6
CONTINUOUS
 62
     0
100
AcDbLine
 10
-0.5
 20
-0.5
 30
0.0
 11
-0.5
 21
0.5
 31
0.0
  0
LINE
  5
9D
330
6E
100
AcDbEntity
  8
0
  6
CONTINUOUS
 62
     0
100
AcDbLine
 10
-0.25
 20
0.25
 30
0.0
 11
0.25
 21
0.25
 31
0.0
  0
LINE
  5
9E
330
6E
100
AcDbEntity
  8
0
  6
CONTINUOUS
 62
     0
100
AcDbLine
 10
0.25
 20
0.25
 30
0.0
 11
0.25
 21
-0.25
 31
0.0
  0
LINE
  5
9F
330
6E
100
AcDbEntity
  8
0
  6
CONTINUOUS
 62
     0
100
AcDbLine
 10
0.25
 20
-0.25
 30
0.0
 11
-0.25
 21
-0.25
 31
0.0
  0
LINE
  5
A0
330
6E
100
AcDbEntity
  8
0
  6
CONTINUOUS
 62
     0
100
AcDbLine
 10
-0.25
 20
-0.25
 30
0.0
 11
-0.25
 21
0.25
 31
0.0
  0
ENDBLK
  5
70
330
6E
100
AcDbEntity
  8
0
100
AcDbBlockEnd
  0
BLOCK
  5
72
330
71
100
AcDbEntity
  8
0
100
AcDbBlockBegin
  2
EX_WBOX
 70
     0
 10
0.0
 20
0.0
 30
0.0
  3
EX_WBOX
  1

  0
LINE
  5
A1
330
71
100
AcDbEntity
  8
0
  6
CONTINUOUS
 62
     0
100
AcDbLine
 10
-0.5
 20
0.0
 30
0.0
 11
-1.0
 21
0.0
 31
0.0
  0
LINE
  5
A2
330
71
100
AcDbEntity
  8
0
  6
CONTINUOUS
 62
     0
100
AcDbLine
 10
-0.5
 20
0.5
 30
0.0
 11
0.5
 21
0.5
 31
0.0
  0
LINE
  5
A3
330
71
100
AcDbEntity
  8
0
  6
CONTINUOUS
 62
     0
100
AcDbLine
 10
0.5
 20
0.5
 30
0.0
 11
0.5
 21
-0.5
 31
0.0
  0
LINE
  5
A4
330
71
100
AcDbEntity
  8
0
  6
CONTINUOUS
 62
     0
100
AcDbLine
 10
0.5
 20
-0.5
 30
0.0
 11
-0.5
 21
-0.5
 31
0.0
  0
LINE
  5
A5
330
71
100
AcDbEntity
  8
0
  6
CONTINUOUS
 62
     0
100
AcDbLine
 10
-0.5
 20
-0.5
 30
0.0
 11
-0.5
 21
0.5
 31
0.0
  0
ENDBLK
  5
73
330
71
100
AcDbEntity
  8
0
100
AcDbBlockEnd
  0
BLOCK
  5
75
330
74
100
AcDbEntity
  8
0
100
AcDbBlockBegin
  2
EX_INTEGRAL
 70
     0
 10
0.0
 20
0.0
 30
0.0
  3
EX_INTEGRAL
  1

  0
LINE
  5
A6
330
74
100
AcDbEntity
  8
0
  6
CONTINUOUS
 62
     0
100
AcDbLine
 10
0.0
 20
0.0
 30
0.0
 11
-1.0
 21
0.0
 31
0.0
  0
ARC
  5
A7
330
74
100
AcDbEntity
  8
0
  6
CONTINUOUS
 62
     0
100
AcDbCircle
 10
0.542115
 20
0.164992
 30
0.0
 40
0.56667
100
AcDbArc
 50
73.07249033629006
 51
196.9275130221199
  0
ARC
  5
A8
330
74
100
AcDbEntity
  8
0
  6
CONTINUOUS
 62
     0
100
AcDbCircle
 10
-0.542115
 20
-0.164992
 30
0.0
 40
0.56667
100
AcDbArc
 50
253.0724869220464
 51
16.9275130559125
  0
ENDBLK
  5
76
330
74
100
AcDbEntity
  8
0
100
AcDbBlockEnd
  0
BLOCK
  5
388
330
387
100
AcDbEntity
  8
0
100
AcDbBlockBegin
  2
*D15
 70
     1
 10
0.0
 20
0.0
 30
0.0
  3
*D15
  1

  0
LINE
  5
38A
330
387
100
AcDbEntity
  8
寸法
  6
CONTINUOUS
 62
     3
100
AcDbLine
 10
1346.49999982156
 20
1619.499999999999
 30
0.0
 11
1471.000000000387
 21
1619.499999999999
 31
0.0
  0
LINE
  5
38B
330
387
100
AcDbEntity
  8
寸法
  6
CONTINUOUS
 62
     3
100
AcDbLine
 10
1456.000000000387
 20
964.4999961853019
 30
0.0
 11
1456.000000000387
 21
1574.500003814696
 31
0.0
  0
INSERT
  5
38C
330
387
100
AcDbEntity
  8
寸法
 62
     3
100
AcDbBlockReference
  2
EX_NORM
 10
1456.000000000387
 20
919.4999999999992
 30
0.0
 41
44.99999618530273
 42
44.99999618530273
 43
44.99999618530273
 50
270.0
  0
INSERT
  5
38D
330
387
100
AcDbEntity
  8
寸法
 62
     3
100
AcDbBlockReference
  2
EX_NORM
 10
1456.000000000387
 20
1619.499999999999
 30
0.0
 41
44.99999618530273
 42
44.99999618530273
 43
44.99999618530273
 50
90.0
  0
MTEXT
  5
38E
330
387
100
AcDbEntity
  8
寸法
 62
     2
100
AcDbMText
 10
1420.750000089792
 20
1269.499999999999
 30
0.0
 40
59.99999618530273
 41
0.0
 71
     5
 72
     1
  1
700
  7
EXCADDIM1
 11
0.0
 21
1.0
 31
0.0
  0
POINT
  5
38F
330
387
100
AcDbEntity
  8
DEFPOINTS
 62
     0
100
AcDbPoint
 10
1334.000000000374
 20
919.4999999999991
 30
0.0
  0
POINT
  5
390
330
387
100
AcDbEntity
  8
DEFPOINTS
 62
     0
100
AcDbPoint
 10
1336.000000000374
 20
1619.499999999999
 30
0.0
  0
POINT
  5
391
330
387
100
AcDbEntity
  8
DEFPOINTS
 62
     0
100
AcDbPoint
 10
1456.000000000387
 20
1619.499999999999
 30
0.0
  0
ENDBLK
  5
389
330
387
100
AcDbEntity
  8
0
100
AcDbBlockEnd
  0
BLOCK
  5
394
330
393
100
AcDbEntity
  8
0
100
AcDbBlockBegin
  2
*D16
 70
     1
 10
0.0
 20
0.0
 30
0.0
  3
*D16
  1

  0
LINE
  5
396
330
393
100
AcDbEntity
  8
寸法
  6
CONTINUOUS
 62
     3
100
AcDbLine
 10
961.0000000003781
 20
909.000000178813
 30
0.0
 11
961.0000000003781
 21
694.4999999999945
 31
0.0
  0
LINE
  5
397
330
393
100
AcDbEntity
  8
寸法
  6
CONTINUOUS
 62
     3
100
AcDbLine
 10
1201.000000000376
 20
859.000000178693
 30
0.0
 11
1201.000000000376
 21
694.4999999999945
 31
0.0
  0
LINE
  5
398
330
393
100
AcDbEntity
  8
寸法
  6
CONTINUOUS
 62
     3
100
AcDbLine
 10
1005.999996185681
 20
709.4999999999945
 30
0.0
 11
1156.000003815073
 21
709.4999999999945
 31
0.0
  0
INSERT
  5
399
330
393
100
AcDbEntity
  8
寸法
 62
     3
100
AcDbBlockReference
  2
EX_NORM
 10
961.0000000003781
 20
709.4999999999945
 30
0.0
 41
44.99999618530273
 42
44.99999618530273
 43
44.99999618530273
 50
180.0
  0
INSERT
  5
39A
330
393
100
AcDbEntity
  8
寸法
 62
     3
100
AcDbBlockReference
  2
EX_NORM
 10
1201.000000000376
 20
709.4999999999945
 30
0.0
 41
44.99999618530273
 42
44.99999618530273
 43
44.99999618530273
  0
MTEXT
  5
39B
330
393
100
AcDbEntity
  8
寸法
 62
     2
100
AcDbMText
 10
728.5000000003781
 20
744.7499999105876
 30
0.0
 40
59.99999618530273
 41
0.0
 71
     5
 72
     1
  1
240（床排水）
  7
EXCADDIM1
  0
POINT
  5
39C
330
393
100
AcDbEntity
  8
DEFPOINTS
 62
     0
100
AcDbPoint
 10
961.0000000003781
 20
919.4999999999991
 30
0.0
  0
POINT
  5
39D
330
393
100
AcDbEntity
  8
DEFPOINTS
 62
     0
100
AcDbPoint
 10
1201.000000000376
 20
869.499999999879
 30
0.0
  0
POINT
  5
39E
330
393
100
AcDbEntity
  8
DEFPOINTS
 62
     0
100
AcDbPoint
 10
1201.000000000376
 20
709.4999999999945
 30
0.0
  0
ENDBLK
  5
395
330
393
100
AcDbEntity
  8
0
100
AcDbBlockEnd
  0
BLOCK
  5
3A1
330
3A0
100
AcDbEntity
  8
0
100
AcDbBlockBegin
  2
*D17
 70
     1
 10
0.0
 20
0.0
 30
0.0
  3
*D17
  1

  0
LINE
  5
3A3
330
3A0
100
AcDbEntity
  8
寸法
  6
CONTINUOUS
 62
     3
100
AcDbLine
 10
796.0000000003776
 20
901.0000001788139
 30
0.0
 11
796.0000000003776
 21
784.4999999999945
 31
0.0
  0
LINE
  5
3A4
330
3A0
100
AcDbEntity
  8
寸法
  6
CONTINUOUS
 62
     3
100
AcDbLine
 10
1126.000000000376
 20
901.0000001788139
 30
0.0
 11
1126.000000000376
 21
784.4999999999945
 31
0.0
  0
LINE
  5
3A5
330
3A0
100
AcDbEntity
  8
寸法
  6
CONTINUOUS
 62
     3
100
AcDbLine
 10
840.9999961856803
 20
799.4999999999945
 30
0.0
 11
1081.000003815073
 21
799.4999999999945
 31
0.0
  0
INSERT
  5
3A6
330
3A0
100
AcDbEntity
  8
寸法
 62
     3
100
AcDbBlockReference
  2
EX_NORM
 10
796.0000000003776
 20
799.4999999999945
 30
0.0
 41
44.99999618530273
 42
44.99999618530273
 43
44.99999618530273
 50
180.0
  0
INSERT
  5
3A7
330
3A0
100
AcDbEntity
  8
寸法
 62
     3
100
AcDbBlockReference
  2
EX_NORM
 10
1126.000000000376
 20
799.4999999999945
 30
0.0
 41
44.99999618530273
 42
44.99999618530273
 43
44.99999618530273
  0
MTEXT
  5
3A8
330
3A0
100
AcDbEntity
  8
寸法
 62
     2
100
AcDbMText
 10
563.5000000003777
 20
834.7499999105876
 30
0.0
 40
59.99999618530273
 41
0.0
 71
     5
 72
     1
  1
330（床給水）
  7
EXCADDIM1
  0
POINT
  5
3A9
330
3A0
100
AcDbEntity
  8
DEFPOINTS
 62
     0
100
AcDbPoint
 10
796.0000000003776
 20
911.5
 30
0.0
  0
POINT
  5
3AA
330
3A0
100
AcDbEntity
  8
DEFPOINTS
 62
     0
100
AcDbPoint
 10
1126.000000000376
 20
911.5
 30
0.0
  0
POINT
  5
3AB
330
3A0
100
AcDbEntity
  8
DEFPOINTS
 62
     0
100
AcDbPoint
 10
1126.000000000376
 20
799.4999999999945
 30
0.0
  0
ENDBLK
  5
3A2
330
3A0
100
AcDbEntity
  8
0
100
AcDbBlockEnd
  0
BLOCK
  5
3AE
330
3AD
100
AcDbEntity
  8
0
100
AcDbBlockBegin
  2
*D18
 70
     1
 10
0.0
 20
0.0
 30
0.0
  3
*D18
  1

  0
LINE
  5
3B0
330
3AD
100
AcDbEntity
  8
寸法
  6
CONTINUOUS
 62
     3
100
AcDbLine
 10
706.000000000358
 20
1485.200000178913
 30
0.0
 11
706.000000000358
 21
1208.500000000001
 31
0.0
  0
LINE
  5
3B1
330
3AD
100
AcDbEntity
  8
寸法
  6
CONTINUOUS
 62
     3
100
AcDbLine
 10
1216.000000000376
 20
1485.200000178913
 30
0.0
 11
1216.000000000376
 21
1208.500000000001
 31
0.0
  0
LINE
  5
3B2
330
3AD
100
AcDbEntity
  8
寸法
  6
CONTINUOUS
 62
     3
100
AcDbLine
 10
750.9999961856607
 20
1223.500000000001
 30
0.0
 11
1171.000003815073
 21
1223.500000000001
 31
0.0
  0
INSERT
  5
3B3
330
3AD
100
AcDbEntity
  8
寸法
 62
     3
100
AcDbBlockReference
  2
EX_NORM
 10
706.000000000358
 20
1223.500000000001
 30
0.0
 41
44.99999618530273
 42
44.99999618530273
 43
44.99999618530273
 50
180.0
  0
INSERT
  5
3B4
330
3AD
100
AcDbEntity
  8
寸法
 62
     3
100
AcDbBlockReference
  2
EX_NORM
 10
1216.000000000376
 20
1223.500000000001
 30
0.0
 41
44.99999618530273
 42
44.99999618530273
 43
44.99999618530273
  0
MTEXT
  5
3B5
330
3AD
100
AcDbEntity
  8
寸法
 62
     2
100
AcDbMText
 10
961.000000000367
 20
1258.749999910594
 30
0.0
 40
59.99999618530273
 41
0.0
 71
     5
 72
     1
  1
510（壁固定）
  7
EXCADDIM1
  0
POINT
  5
3B6
330
3AD
100
AcDbEntity
  8
DEFPOINTS
 62
     0
100
AcDbPoint
 10
706.000000000358
 20
1495.700000000099
 30
0.0
  0
POINT
  5
3B7
330
3AD
100
AcDbEntity
  8
DEFPOINTS
 62
     0
100
AcDbPoint
 10
1216.000000000376
 20
1495.700000000099
 30
0.0
  0
POINT
  5
3B8
330
3AD
100
AcDbEntity
  8
DEFPOINTS
 62
     0
100
AcDbPoint
 10
1216.000000000376
 20
1223.500000000001
 30
0.0
  0
ENDBLK
  5
3AF
330
3AD
100
AcDbEntity
  8
0
100
AcDbBlockEnd
  0
BLOCK
  5
3BB
330
3BA
100
AcDbEntity
  8
0
100
AcDbBlockBegin
  2
*D19
 70
     1
 10
0.0
 20
0.0
 30
0.0
  3
*D19
  1

  0
LINE
  5
3BD
330
3BA
100
AcDbEntity
  8
寸法
  6
CONTINUOUS
 62
     3
100
AcDbLine
 10
2411.000000000378
 20
901.0000001788139
 30
0.0
 11
2411.000000000378
 21
694.4999999999945
 31
0.0
  0
LINE
  5
3BE
330
3BA
100
AcDbEntity
  8
寸法
  6
CONTINUOUS
 62
     3
100
AcDbLine
 10
2411.000000000378
 20
709.4999999999945
 30
0.0
 11
2491.000000000378
 21
709.4999999999945
 31
0.0
  0
LINE
  5
3BF
330
3BA
100
AcDbEntity
  8
寸法
  6
CONTINUOUS
 62
     3
100
AcDbLine
 10
2366.000003815075
 20
709.4999999999945
 30
0.0
 11
2321.000007629772
 21
709.4999999999945
 31
0.0
  0
LINE
  5
3C0
330
3BA
100
AcDbEntity
  8
寸法
  6
CONTINUOUS
 62
     3
100
AcDbLine
 10
2535.999996185681
 20
709.4999999999945
 30
0.0
 11
2580.999992370983
 21
709.4999999999945
 31
0.0
  0
INSERT
  5
3C1
330
3BA
100
AcDbEntity
  8
寸法
 62
     3
100
AcDbBlockReference
  2
EX_NORM
 10
2411.000000000378
 20
709.4999999999945
 30
0.0
 41
44.99999618530273
 42
44.99999618530273
 43
44.99999618530273
  0
INSERT
  5
3C2
330
3BA
100
AcDbEntity
  8
寸法
 62
     3
100
AcDbBlockReference
  2
EX_NORM
 10
2491.000000000378
 20
709.4999999999945
 30
0.0
 41
44.99999618530273
 42
44.99999618530273
 43
44.99999618530273
 50
180.0
  0
MTEXT
  5
3C3
330
3BA
100
AcDbEntity
  8
寸法
 62
     2
100
AcDbMText
 10
2701.000000000378
 20
744.7499999105876
 30
0.0
 40
59.99999618530273
 41
0.0
 71
     5
 72
     1
  1
80（床給水）
  7
EXCADDIM1
  0
POINT
  5
3C4
330
3BA
100
AcDbEntity
  8
DEFPOINTS
 62
     0
100
AcDbPoint
 10
2411.000000000378
 20
911.5
 30
0.0
  0
POINT
  5
3C5
330
3BA
100
AcDbEntity
  8
DEFPOINTS
 62
     0
100
AcDbPoint
 10
2491.000000000378
 20
919.4999999999991
 30
0.0
  0
POINT
  5
3C6
330
3BA
100
AcDbEntity
  8
DEFPOINTS
 62
     0
100
AcDbPoint
 10
2491.000000000378
 20
709.4999999999945
 30
0.0
  0
ENDBLK
  5
3BC
330
3BA
100
AcDbEntity
  8
0
100
AcDbBlockEnd
  0
BLOCK
  5
3C9
330
3C8
100
AcDbEntity
  8
0
100
AcDbBlockBegin
  2
*D20
 70
     1
 10
0.0
 20
0.0
 30
0.0
  3
*D20
  1

  0
LINE
  5
3CB
330
3C8
100
AcDbEntity
  8
寸法
  6
CONTINUOUS
 62
     3
100
AcDbLine
 10
2391.000000000378
 20
859.000000178693
 30
0.0
 11
2391.000000000378
 21
604.4999999999945
 31
0.0
  0
LINE
  5
3CC
330
3C8
100
AcDbEntity
  8
寸法
  6
CONTINUOUS
 62
     3
100
AcDbLine
 10
2491.000000000378
 20
909.000000178813
 30
0.0
 11
2491.000000000378
 21
604.4999999999945
 31
0.0
  0
LINE
  5
3CD
330
3C8
100
AcDbEntity
  8
寸法
  6
CONTINUOUS
 62
     3
100
AcDbLine
 10
2435.999996185681
 20
619.4999999999945
 30
0.0
 11
2446.000003815075
 21
619.4999999999945
 31
0.0
  0
INSERT
  5
3CE
330
3C8
100
AcDbEntity
  8
寸法
 62
     3
100
AcDbBlockReference
  2
EX_NORM
 10
2391.000000000378
 20
619.4999999999945
 30
0.0
 41
44.99999618530273
 42
44.99999618530273
 43
44.99999618530273
 50
180.0
  0
INSERT
  5
3CF
330
3C8
100
AcDbEntity
  8
寸法
 62
     3
100
AcDbBlockReference
  2
EX_NORM
 10
2491.000000000378
 20
619.4999999999945
 30
0.0
 41
44.99999618530273
 42
44.99999618530273
 43
44.99999618530273
  0
MTEXT
  5
3D0
330
3C8
100
AcDbEntity
  8
寸法
 62
     2
100
AcDbMText
 10
2723.500000000378
 20
654.7499999105876
 30
0.0
 40
59.99999618530273
 41
0.0
 71
     5
 72
     1
  1
100（床排水）
  7
EXCADDIM1
  0
POINT
  5
3D1
330
3C8
100
AcDbEntity
  8
DEFPOINTS
 62
     0
100
AcDbPoint
 10
2391.000000000378
 20
869.499999999879
 30
0.0
  0
POINT
  5
3D2
330
3C8
100
AcDbEntity
  8
DEFPOINTS
 62
     0
100
AcDbPoint
 10
2491.000000000378
 20
919.4999999999991
 30
0.0
  0
POINT
  5
3D3
330
3C8
100
AcDbEntity
  8
DEFPOINTS
 62
     0
100
AcDbPoint
 10
2491.000000000378
 20
619.4999999999945
 30
0.0
  0
ENDBLK
  5
3CA
330
3C8
100
AcDbEntity
  8
0
100
AcDbBlockEnd
  0
BLOCK
  5
3D6
330
3D5
100
AcDbEntity
  8
0
100
AcDbBlockBegin
  2
*D21
 70
     1
 10
0.0
 20
0.0
 30
0.0
  3
*D21
  1

  0
LINE
  5
3D8
330
3D5
100
AcDbEntity
  8
寸法
  6
CONTINUOUS
 62
     3
100
AcDbLine
 10
2534.000005543464
 20
1499.5
 30
0.0
 11
2806.000000000389
 21
1499.5
 31
0.0
  0
LINE
  5
3D9
330
3D5
100
AcDbEntity
  8
寸法
  6
CONTINUOUS
 62
     3
100
AcDbLine
 10
2791.000000000389
 20
964.4999961853017
 30
0.0
 11
2791.000000000389
 21
1454.500003814697
 31
0.0
  0
INSERT
  5
3DA
330
3D5
100
AcDbEntity
  8
寸法
 62
     3
100
AcDbBlockReference
  2
EX_NORM
 10
2791.000000000389
 20
919.499999999999
 30
0.0
 41
44.99999618530273
 42
44.99999618530273
 43
44.99999618530273
 50
270.0
  0
INSERT
  5
3DB
330
3D5
100
AcDbEntity
  8
寸法
 62
     3
100
AcDbBlockReference
  2
EX_NORM
 10
2791.000000000389
 20
1499.5
 30
0.0
 41
44.99999618530273
 42
44.99999618530273
 43
44.99999618530273
 50
90.0
  0
MTEXT
  5
3DC
330
3D5
100
AcDbEntity
  8
寸法
 62
     2
100
AcDbMText
 10
2755.750000089795
 20
1209.499999999998
 30
0.0
 40
59.99999618530273
 41
0.0
 71
     5
 72
     1
  1
580（壁固定）
  7
EXCADDIM1
 11
0.0
 21
1.0
 31
0.0
  0
POINT
  5
3DD
330
3D5
100
AcDbEntity
  8
DEFPOINTS
 62
     0
100
AcDbPoint
 10
2491.000000000378
 20
919.4999999999991
 30
0.0
  0
POINT
  5
3DE
330
3D5
100
AcDbEntity
  8
DEFPOINTS
 62
     0
100
AcDbPoint
 10
2523.500005722278
 20
1499.5
 30
0.0
  0
POINT
  5
3DF
330
3D5
100
AcDbEntity
  8
DEFPOINTS
 62
     0
100
AcDbPoint
 10
2791.000000000389
 20
1499.5
 30
0.0
  0
ENDBLK
  5
3D7
330
3D5
100
AcDbEntity
  8
0
100
AcDbBlockEnd
  0
BLOCK
  5
3E2
330
3E1
100
AcDbEntity
  8
0
100
AcDbBlockBegin
  2
*D22
 70
     1
 10
0.0
 20
0.0
 30
0.0
  3
*D22
  1

  0
LINE
  5
3E4
330
3E1
100
AcDbEntity
  8
寸法
  6
CONTINUOUS
 62
     3
100
AcDbLine
 10
961.0000000003781
 20
3835.499999821186
 30
0.0
 11
961.0000000003781
 21
4020.0
 31
0.0
  0
LINE
  5
3E5
330
3E1
100
AcDbEntity
  8
寸法
  6
CONTINUOUS
 62
     3
100
AcDbLine
 10
1161.000000000378
 20
3885.499999821186
 30
0.0
 11
1161.000000000378
 21
4020.0
 31
0.0
  0
LINE
  5
3E6
330
3E1
100
AcDbEntity
  8
寸法
  6
CONTINUOUS
 62
     3
100
AcDbLine
 10
1005.999996185681
 20
4005.0
 30
0.0
 11
1116.000003815075
 21
4005.0
 31
0.0
  0
INSERT
  5
3E7
330
3E1
100
AcDbEntity
  8
寸法
 62
     3
100
AcDbBlockReference
  2
EX_NORM
 10
961.0000000003781
 20
4005.0
 30
0.0
 41
44.99999618530273
 42
44.99999618530273
 43
44.99999618530273
 50
180.0
  0
INSERT
  5
3E8
330
3E1
100
AcDbEntity
  8
寸法
 62
     3
100
AcDbBlockReference
  2
EX_NORM
 10
1161.000000000378
 20
4005.0
 30
0.0
 41
44.99999618530273
 42
44.99999618530273
 43
44.99999618530273
  0
MTEXT
  5
3E9
330
3E1
100
AcDbEntity
  8
寸法
 62
     2
100
AcDbMText
 10
728.5000000003783
 20
4040.249999910593
 30
0.0
 40
59.99999618530273
 41
0.0
 71
     5
 72
     1
  1
200（壁排水）
  7
EXCADDIM1
  0
POINT
  5
3EA
330
3E1
100
AcDbEntity
  8
DEFPOINTS
 62
     0
100
AcDbPoint
 10
961.0000000003781
 20
3825.0
 30
0.0
  0
POINT
  5
3EB
330
3E1
100
AcDbEntity
  8
DEFPOINTS
 62
     0
100
AcDbPoint
 10
1161.000000000378
 20
3875.0
 30
0.0
  0
POINT
  5
3EC
330
3E1
100
AcDbEntity
  8
DEFPOINTS
 62
     0
100
AcDbPoint
 10
1161.000000000378
 20
4005.0
 30
0.0
  0
ENDBLK
  5
3E3
330
3E1
100
AcDbEntity
  8
0
100
AcDbBlockEnd
  0
BLOCK
  5
3EF
330
3EE
100
AcDbEntity
  8
0
100
AcDbBlockBegin
  2
*D23
 70
     1
 10
0.0
 20
0.0
 30
0.0
  3
*D23
  1

  0
LINE
  5
3F1
330
3EE
100
AcDbEntity
  8
寸法
  6
CONTINUOUS
 62
     3
100
AcDbLine
 10
861.0000000003816
 20
3843.499999821186
 30
0.0
 11
861.0000000003816
 21
3930.0
 31
0.0
  0
LINE
  5
3F2
330
3EE
100
AcDbEntity
  8
寸法
  6
CONTINUOUS
 62
     3
100
AcDbLine
 10
1061.000000000378
 20
3848.999999821186
 30
0.0
 11
1061.000000000378
 21
3930.0
 31
0.0
  0
LINE
  5
3F3
330
3EE
100
AcDbEntity
  8
寸法
  6
CONTINUOUS
 62
     3
100
AcDbLine
 10
905.9999961856844
 20
3915.0
 30
0.0
 11
1016.000003815075
 21
3915.0
 31
0.0
  0
INSERT
  5
3F4
330
3EE
100
AcDbEntity
  8
寸法
 62
     3
100
AcDbBlockReference
  2
EX_NORM
 10
861.0000000003816
 20
3915.0
 30
0.0
 41
44.99999618530273
 42
44.99999618530273
 43
44.99999618530273
 50
180.0
  0
INSERT
  5
3F5
330
3EE
100
AcDbEntity
  8
寸法
 62
     3
100
AcDbBlockReference
  2
EX_NORM
 10
1061.000000000378
 20
3915.0
 30
0.0
 41
44.99999618530273
 42
44.99999618530273
 43
44.99999618530273
  0
MTEXT
  5
3F6
330
3EE
100
AcDbEntity
  8
寸法
 62
     2
100
AcDbMText
 10
628.5000000003819
 20
3950.249999910593
 30
0.0
 40
59.99999618530273
 41
0.0
 71
     5
 72
     1
  1
200（壁給水）
  7
EXCADDIM1
  0
POINT
  5
3F7
330
3EE
100
AcDbEntity
  8
DEFPOINTS
 62
     0
100
AcDbPoint
 10
861.0000000003816
 20
3833.0
 30
0.0
  0
POINT
  5
3F8
330
3EE
100
AcDbEntity
  8
DEFPOINTS
 62
     0
100
AcDbPoint
 10
1061.000000000378
 20
3838.5
 30
0.0
  0
POINT
  5
3F9
330
3EE
100
AcDbEntity
  8
DEFPOINTS
 62
     0
100
AcDbPoint
 10
1061.000000000378
 20
3915.0
 30
0.0
  0
ENDBLK
  5
3F0
330
3EE
100
AcDbEntity
  8
0
100
AcDbBlockEnd
  0
BLOCK
  5
3FC
330
3FB
100
AcDbEntity
  8
0
100
AcDbBlockBegin
  2
*D24
 70
     1
 10
0.0
 20
0.0
 30
0.0
  3
*D24
  1

  0
LINE
  5
3FE
330
3FB
100
AcDbEntity
  8
寸法
  6
CONTINUOUS
 62
     3
100
AcDbLine
 10
1346.49999982156
 20
3375.0
 30
0.0
 11
1471.000000000385
 21
3375.0
 31
0.0
  0
LINE
  5
3FF
330
3FB
100
AcDbEntity
  8
寸法
  6
CONTINUOUS
 62
     3
100
AcDbLine
 10
1456.000000000385
 20
3780.000003814697
 30
0.0
 11
1456.000000000385
 21
3419.999996185303
 31
0.0
  0
INSERT
  5
400
330
3FB
100
AcDbEntity
  8
寸法
 62
     3
100
AcDbBlockReference
  2
EX_NORM
 10
1456.000000000385
 20
3825.0
 30
0.0
 41
44.99999618530273
 42
44.99999618530273
 43
44.99999618530273
 50
90.0
  0
INSERT
  5
401
330
3FB
100
AcDbEntity
  8
寸法
 62
     3
100
AcDbBlockReference
  2
EX_NORM
 10
1456.000000000385
 20
3375.0
 30
0.0
 41
44.99999618530273
 42
44.99999618530273
 43
44.99999618530273
 50
270.0
  0
MTEXT
  5
402
330
3FB
100
AcDbEntity
  8
寸法
 62
     2
100
AcDbMText
 10
1420.750000089794
 20
3599.999999999999
 30
0.0
 40
59.99999618530273
 41
0.0
 71
     5
 72
     1
  1
450
  7
EXCADDIM1
 11
0.0
 21
1.0
 31
0.0
  0
POINT
  5
403
330
3FB
100
AcDbEntity
  8
DEFPOINTS
 62
     0
100
AcDbPoint
 10
1336.000000000374
 20
3825.0
 30
0.0
  0
POINT
  5
404
330
3FB
100
AcDbEntity
  8
DEFPOINTS
 62
     0
100
AcDbPoint
 10
1336.000000000374
 20
3375.0
 30
0.0
  0
POINT
  5
405
330
3FB
100
AcDbEntity
  8
DEFPOINTS
 62
     0
100
AcDbPoint
 10
1456.000000000385
 20
3375.0
 30
0.0
  0
ENDBLK
  5
3FD
330
3FB
100
AcDbEntity
  8
0
100
AcDbBlockEnd
  0
BLOCK
  5
408
330
407
100
AcDbEntity
  8
0
100
AcDbBlockBegin
  2
*D25
 70
     1
 10
0.0
 20
0.0
 30
0.0
  3
*D25
  1

  0
LINE
  5
40A
330
407
100
AcDbEntity
  8
寸法
  6
CONTINUOUS
 62
     3
100
AcDbLine
 10
586.000000000378
 20
3364.500000178814
 30
0.0
 11
586.000000000378
 21
3100.0
 31
0.0
  0
LINE
  5
40B
330
407
100
AcDbEntity
  8
寸法
  6
CONTINUOUS
 62
     3
100
AcDbLine
 10
1336.000000000374
 20
3364.500000178814
 30
0.0
 11
1336.000000000374
 21
3100.0
 31
0.0
  0
LINE
  5
40C
330
407
100
AcDbEntity
  8
寸法
  6
CONTINUOUS
 62
     3
100
AcDbLine
 10
630.9999961856807
 20
3115.0
 30
0.0
 11
1291.000003815072
 21
3115.0
 31
0.0
  0
INSERT
  5
40D
330
407
100
AcDbEntity
  8
寸法
 62
     3
100
AcDbBlockReference
  2
EX_NORM
 10
586.000000000378
 20
3115.0
 30
0.0
 41
44.99999618530273
 42
44.99999618530273
 43
44.99999618530273
 50
180.0
  0
INSERT
  5
40E
330
407
100
AcDbEntity
  8
寸法
 62
     3
100
AcDbBlockReference
  2
EX_NORM
 10
1336.000000000374
 20
3115.0
 30
0.0
 41
44.99999618530273
 42
44.99999618530273
 43
44.99999618530273
  0
MTEXT
  5
40F
330
407
100
AcDbEntity
  8
寸法
 62
     2
100
AcDbMText
 10
961.0000000003763
 20
3150.249999910593
 30
0.0
 40
59.99999618530273
 41
0.0
 71
     5
 72
     1
  1
750
  7
EXCADDIM1
  0
POINT
  5
410
330
407
100
AcDbEntity
  8
DEFPOINTS
 62
     0
100
AcDbPoint
 10
586.000000000378
 20
3375.0
 30
0.0
  0
POINT
  5
411
330
407
100
AcDbEntity
  8
DEFPOINTS
 62
     0
100
AcDbPoint
 10
1336.000000000374
 20
3375.0
 30
0.0
  0
POINT
  5
412
330
407
100
AcDbEntity
  8
DEFPOINTS
 62
     0
100
AcDbPoint
 10
1336.000000000374
 20
3115.0
 30
0.0
  0
ENDBLK
  5
409
330
407
100
AcDbEntity
  8
0
100
AcDbBlockEnd
  0
BLOCK
  5
415
330
414
100
AcDbEntity
  8
0
100
AcDbBlockBegin
  2
*D26
 70
     1
 10
0.0
 20
0.0
 30
0.0
  3
*D26
  1

  0
LINE
  5
417
330
414
100
AcDbEntity
  8
寸法
  6
CONTINUOUS
 62
     3
100
AcDbLine
 10
2509.499999821575
 20
1379.5
 30
0.0
 11
2626.000000000389
 21
1379.5
 31
0.0
  0
LINE
  5
418
330
414
100
AcDbEntity
  8
寸法
  6
CONTINUOUS
 62
     3
100
AcDbLine
 10
2611.000000000389
 20
964.4999961853017
 30
0.0
 11
2611.000000000389
 21
1334.500003814697
 31
0.0
  0
INSERT
  5
419
330
414
100
AcDbEntity
  8
寸法
 62
     3
100
AcDbBlockReference
  2
EX_NORM
 10
2611.000000000389
 20
919.499999999999
 30
0.0
 41
44.99999618530273
 42
44.99999618530273
 43
44.99999618530273
 50
270.0
  0
INSERT
  5
41A
330
414
100
AcDbEntity
  8
寸法
 62
     3
100
AcDbBlockReference
  2
EX_NORM
 10
2611.000000000389
 20
1379.5
 30
0.0
 41
44.99999618530273
 42
44.99999618530273
 43
44.99999618530273
 50
90.0
  0
MTEXT
  5
41B
330
414
100
AcDbEntity
  8
寸法
 62
     2
100
AcDbMText
 10
2575.750000089795
 20
1149.5
 30
0.0
 40
59.99999618530273
 41
0.0
 71
     5
 72
     1
  1
460（壁給水）
  7
EXCADDIM1
 11
0.0
 21
1.0
 31
0.0
  0
POINT
  5
41C
330
414
100
AcDbEntity
  8
DEFPOINTS
 62
     0
100
AcDbPoint
 10
2491.000000000389
 20
919.4999999999991
 30
0.0
  0
POINT
  5
41D
330
414
100
AcDbEntity
  8
DEFPOINTS
 62
     0
100
AcDbPoint
 10
2499.000000000389
 20
1379.5
 30
0.0
  0
POINT
  5
41E
330
414
100
AcDbEntity
  8
DEFPOINTS
 62
     0
100
AcDbPoint
 10
2611.000000000389
 20
1379.5
 30
0.0
  0
ENDBLK
  5
416
330
414
100
AcDbEntity
  8
0
100
AcDbBlockEnd
  0
BLOCK
  5
421
330
420
100
AcDbEntity
  8
0
100
AcDbBlockBegin
  2
*D27
 70
     1
 10
0.0
 20
0.0
 30
0.0
  3
*D27
  1

  0
LINE
  5
423
330
420
100
AcDbEntity
  8
寸法
  6
CONTINUOUS
 62
     3
100
AcDbLine
 10
2551.499999821575
 20
1389.5
 30
0.0
 11
2716.000000000389
 21
1389.5
 31
0.0
  0
LINE
  5
424
330
420
100
AcDbEntity
  8
寸法
  6
CONTINUOUS
 62
     3
100
AcDbLine
 10
2701.000000000389
 20
964.4999961853017
 30
0.0
 11
2701.000000000389
 21
1344.500003814697
 31
0.0
  0
INSERT
  5
425
330
420
100
AcDbEntity
  8
寸法
 62
     3
100
AcDbBlockReference
  2
EX_NORM
 10
2701.000000000389
 20
919.499999999999
 30
0.0
 41
44.99999618530273
 42
44.99999618530273
 43
44.99999618530273
 50
270.0
  0
INSERT
  5
426
330
420
100
AcDbEntity
  8
寸法
 62
     3
100
AcDbBlockReference
  2
EX_NORM
 10
2701.000000000389
 20
1389.5
 30
0.0
 41
44.99999618530273
 42
44.99999618530273
 43
44.99999618530273
 50
90.0
  0
MTEXT
  5
427
330
420
100
AcDbEntity
  8
寸法
 62
     2
100
AcDbMText
 10
2665.750000089795
 20
1154.5
 30
0.0
 40
59.99999618530273
 41
0.0
 71
     5
 72
     1
  1
470（壁排水）
  7
EXCADDIM1
 11
0.0
 21
1.0
 31
0.0
  0
POINT
  5
428
330
420
100
AcDbEntity
  8
DEFPOINTS
 62
     0
100
AcDbPoint
 10
2491.000000000389
 20
919.4999999999991
 30
0.0
  0
POINT
  5
429
330
420
100
AcDbEntity
  8
DEFPOINTS
 62
     0
100
AcDbPoint
 10
2541.000000000389
 20
1389.5
 30
0.0
  0
POINT
  5
42A
330
420
100
AcDbEntity
  8
DEFPOINTS
 62
     0
100
AcDbPoint
 10
2701.000000000389
 20
1389.5
 30
0.0
  0
ENDBLK
  5
422
330
420
100
AcDbEntity
  8
0
100
AcDbBlockEnd
  0
BLOCK
  5
42D
330
42C
100
AcDbEntity
  8
0
100
AcDbBlockBegin
  2
*D28
 70
     1
 10
0.0
 20
0.0
 30
0.0
  3
*D28
  1

  0
LINE
  5
42F
330
42C
100
AcDbEntity
  8
寸法
  6
CONTINUOUS
 62
     3
100
AcDbLine
 10
736.0000000003871
 20
3560.000000178814
 30
0.0
 11
736.0000000003871
 21
3190.0
 31
0.0
  0
LINE
  5
430
330
42C
100
AcDbEntity
  8
寸法
  6
CONTINUOUS
 62
     3
100
AcDbLine
 10
1186.000000000385
 20
3560.000000178814
 30
0.0
 11
1186.000000000385
 21
3190.0
 31
0.0
  0
LINE
  5
431
330
42C
100
AcDbEntity
  8
寸法
  6
CONTINUOUS
 62
     3
100
AcDbLine
 10
780.9999961856898
 20
3205.0
 30
0.0
 11
1141.000003815082
 21
3205.0
 31
0.0
  0
INSERT
  5
432
330
42C
100
AcDbEntity
  8
寸法
 62
     3
100
AcDbBlockReference
  2
EX_NORM
 10
736.0000000003871
 20
3205.0
 30
0.0
 41
44.99999618530273
 42
44.99999618530273
 43
44.99999618530273
 50
180.0
  0
INSERT
  5
433
330
42C
100
AcDbEntity
  8
寸法
 62
     3
100
AcDbBlockReference
  2
EX_NORM
 10
1186.000000000385
 20
3205.0
 30
0.0
 41
44.99999618530273
 42
44.99999618530273
 43
44.99999618530273
  0
MTEXT
  5
434
330
42C
100
AcDbEntity
  8
寸法
 62
     2
100
AcDbMText
 10
961.0000000003865
 20
3240.249999910593
 30
0.0
 40
59.99999618530273
 41
0.0
 71
     5
 72
     1
  1
450
  7
EXCADDIM1
  0
POINT
  5
435
330
42C
100
AcDbEntity
  8
DEFPOINTS
 62
     0
100
AcDbPoint
 10
736.0000000003871
 20
3570.5
 30
0.0
  0
POINT
  5
436
330
42C
100
AcDbEntity
  8
DEFPOINTS
 62
     0
100
AcDbPoint
 10
1186.000000000385
 20
3570.5
 30
0.0
  0
POINT
  5
437
330
42C
100
AcDbEntity
  8
DEFPOINTS
 62
     0
100
AcDbPoint
 10
1186.000000000385
 20
3205.0
 30
0.0
  0
ENDBLK
  5
42E
330
42C
100
AcDbEntity
  8
0
100
AcDbBlockEnd
  0
BLOCK
  5
43A
330
439
100
AcDbEntity
  8
0
100
AcDbBlockBegin
  2
*D29
 70
     1
 10
0.0
 20
0.0
 30
0.0
  3
*D29
  1

  0
LINE
  5
43C
330
439
100
AcDbEntity
  8
寸法
  6
CONTINUOUS
 62
     3
100
AcDbLine
 10
971.4999998215659
 20
1789.499999999999
 30
0.0
 11
1561.000000000387
 21
1789.499999999999
 31
0.0
  0
LINE
  5
43D
330
439
100
AcDbEntity
  8
寸法
  6
CONTINUOUS
 62
     3
100
AcDbLine
 10
1546.000000000387
 20
964.4999961853019
 30
0.0
 11
1546.000000000387
 21
1744.500003814696
 31
0.0
  0
INSERT
  5
43E
330
439
100
AcDbEntity
  8
寸法
 62
     3
100
AcDbBlockReference
  2
EX_NORM
 10
1546.000000000387
 20
919.4999999999992
 30
0.0
 41
44.99999618530273
 42
44.99999618530273
 43
44.99999618530273
 50
270.0
  0
INSERT
  5
43F
330
439
100
AcDbEntity
  8
寸法
 62
     3
100
AcDbBlockReference
  2
EX_NORM
 10
1546.000000000387
 20
1789.499999999999
 30
0.0
 41
44.99999618530273
 42
44.99999618530273
 43
44.99999618530273
 50
90.0
  0
MTEXT
  5
440
330
439
100
AcDbEntity
  8
寸法
 62
     2
100
AcDbMText
 10
1510.750000089792
 20
1354.499999999999
 30
0.0
 40
59.99999618530273
 41
0.0
 71
     5
 72
     1
  1
（870）
  7
EXCADDIM1
 11
0.0
 21
1.0
 31
0.0
  0
POINT
  5
441
330
439
100
AcDbEntity
  8
DEFPOINTS
 62
     0
100
AcDbPoint
 10
1334.000000000385
 20
919.4999999999991
 30
0.0
  0
POINT
  5
442
330
439
100
AcDbEntity
  8
DEFPOINTS
 62
     0
100
AcDbPoint
 10
961.0000000003798
 20
1789.499999999999
 30
0.0
  0
POINT
  5
443
330
439
100
AcDbEntity
  8
DEFPOINTS
 62
     0
100
AcDbPoint
 10
1546.000000000387
 20
1789.499999999999
 30
0.0
  0
ENDBLK
  5
43B
330
439
100
AcDbEntity
  8
0
100
AcDbBlockEnd
  0
BLOCK
  5
446
330
445
100
AcDbEntity
  8
0
100
AcDbBlockBegin
  2
*D30
 70
     1
 10
0.0
 20
0.0
 30
0.0
  3
*D30
  1

  0
LINE
  5
448
330
445
100
AcDbEntity
  8
寸法
  6
CONTINUOUS
 62
     3
100
AcDbLine
 10
1456.000000000387
 20
1664.499996185302
 30
0.0
 11
1456.000000000387
 21
1744.500003814696
 31
0.0
  0
INSERT
  5
449
330
445
100
AcDbEntity
  8
寸法
 62
     3
100
AcDbBlockReference
  2
EX_NORM
 10
1456.000000000387
 20
1619.499999999999
 30
0.0
 41
44.99999618530273
 42
44.99999618530273
 43
44.99999618530273
 50
270.0
  0
INSERT
  5
44A
330
445
100
AcDbEntity
  8
寸法
 62
     3
100
AcDbBlockReference
  2
EX_NORM
 10
1456.000000000387
 20
1789.499999999999
 30
0.0
 41
44.99999618530273
 42
44.99999618530273
 43
44.99999618530273
 50
90.0
  0
MTEXT
  5
44B
330
445
100
AcDbEntity
  8
寸法
 62
     2
100
AcDbMText
 10
1420.750000089794
 20
1704.499999999999
 30
0.0
 40
59.99999618530273
 41
0.0
 71
     5
 72
     1
  1
170
  7
EXCADDIM1
 11
0.0
 21
1.0
 31
0.0
  0
POINT
  5
44C
330
445
100
AcDbEntity
  8
DEFPOINTS
 62
     0
100
AcDbPoint
 10
1336.000000000385
 20
1619.499999999999
 30
0.0
  0
POINT
  5
44D
330
445
100
AcDbEntity
  8
DEFPOINTS
 62
     0
100
AcDbPoint
 10
961.0000000003889
 20
1789.499999999999
 30
0.0
  0
POINT
  5
44E
330
445
100
AcDbEntity
  8
DEFPOINTS
 62
     0
100
AcDbPoint
 10
1456.000000000387
 20
1789.499999999999
 30
0.0
  0
ENDBLK
  5
447
330
445
100
AcDbEntity
  8
0
100
AcDbBlockEnd
  0
BLOCK
  5
451
330
450
100
AcDbEntity
  8
0
100
AcDbBlockBegin
  2
*D31
 70
     1
 10
0.0
 20
0.0
 30
0.0
  3
*D31
  1

  0
LINE
  5
453
330
450
100
AcDbEntity
  8
寸法
  6
CONTINUOUS
 62
     3
100
AcDbLine
 10
1261.000000000335
 20
2669.5
 30
0.0
 11
1635.000000000332
 21
2669.5
 31
0.0
  0
LINE
  5
454
330
450
100
AcDbEntity
  8
寸法
  6
CONTINUOUS
 62
     3
100
AcDbLine
 10
1635.000000000332
 20
964.4999961853018
 30
0.0
 11
1635.000000000332
 21
2624.500003814697
 31
0.0
  0
INSERT
  5
455
330
450
100
AcDbEntity
  8
寸法
 62
     3
100
AcDbBlockReference
  2
EX_NORM
 10
1635.000000000332
 20
919.4999999999991
 30
0.0
 41
44.99999618530273
 42
44.99999618530273
 43
44.99999618530273
 50
270.0
  0
INSERT
  5
456
330
450
100
AcDbEntity
  8
寸法
 62
     3
100
AcDbBlockReference
  2
EX_NORM
 10
1635.000000000332
 20
2669.5
 30
0.0
 41
44.99999618530273
 42
44.99999618530273
 43
44.99999618530273
 50
90.0
  0
MTEXT
  5
457
330
450
100
AcDbEntity
  8
寸法
 62
     2
100
AcDbMText
 10
1597.500000000332
 20
1794.499999999999
 30
0.0
 40
59.99999618530273
 41
0.0
 71
     5
 72
     1
  1
（1750）
  7
EXCADDIM1
 11
0.0
 21
1.0
 31
0.0
  0
POINT
  5
458
330
450
100
AcDbEntity
  8
DEFPOINTS
 62
     0
100
AcDbPoint
 10
1243.000000000435
 20
919.4999999999991
 30
0.0
  0
POINT
  5
459
330
450
100
AcDbEntity
  8
DEFPOINTS
 62
     0
100
AcDbPoint
 10
1261.000000000335
 20
2669.5
 30
0.0
  0
POINT
  5
45A
330
450
100
AcDbEntity
  8
DEFPOINTS
 62
     0
100
AcDbPoint
 10
1635.000000000332
 20
2669.5
 30
0.0
  0
ENDBLK
  5
452
330
450
100
AcDbEntity
  8
0
100
AcDbBlockEnd
  0
BLOCK
  5
45D
330
45C
100
AcDbEntity
  8
0
100
AcDbBlockBegin
  2
*D32
 70
     1
 10
0.0
 20
0.0
 30
0.0
  3
*D32
  1

  0
LINE
  5
45F
330
45C
100
AcDbEntity
  8
寸法
  6
CONTINUOUS
 62
     3
100
AcDbLine
 10
811.0000000003298
 20
2631.799999821185
 30
0.0
 11
811.0000000003298
 21
2747.499999999999
 31
0.0
  0
LINE
  5
460
330
45C
100
AcDbEntity
  8
寸法
  6
CONTINUOUS
 62
     3
100
AcDbLine
 10
1111.00000000033
 20
2631.799999821185
 30
0.0
 11
1111.00000000033
 21
2747.499999999999
 31
0.0
  0
LINE
  5
461
330
45C
100
AcDbEntity
  8
寸法
  6
CONTINUOUS
 62
     3
100
AcDbLine
 10
855.9999961856325
 20
2732.499999999999
 30
0.0
 11
1066.000003815027
 21
2732.499999999999
 31
0.0
  0
INSERT
  5
462
330
45C
100
AcDbEntity
  8
寸法
 62
     3
100
AcDbBlockReference
  2
EX_NORM
 10
811.0000000003298
 20
2732.499999999999
 30
0.0
 41
44.99999618530273
 42
44.99999618530273
 43
44.99999618530273
 50
180.0
  0
INSERT
  5
463
330
45C
100
AcDbEntity
  8
寸法
 62
     3
100
AcDbBlockReference
  2
EX_NORM
 10
1111.00000000033
 20
2732.499999999999
 30
0.0
 41
44.99999618530273
 42
44.99999618530273
 43
44.99999618530273
  0
MTEXT
  5
464
330
45C
100
AcDbEntity
  8
寸法
 62
     2
100
AcDbMText
 10
961.0000000003299
 20
2767.749999910592
 30
0.0
 40
59.99999618530273
 41
0.0
 71
     5
 72
     1
  1
300（壁固定）
  7
EXCADDIM1
  0
POINT
  5
465
330
45C
100
AcDbEntity
  8
DEFPOINTS
 62
     0
100
AcDbPoint
 10
811.0000000003298
 20
2621.299999999999
 30
0.0
  0
POINT
  5
466
330
45C
100
AcDbEntity
  8
DEFPOINTS
 62
     0
100
AcDbPoint
 10
1111.00000000033
 20
2621.299999999999
 30
0.0
  0
POINT
  5
467
330
45C
100
AcDbEntity
  8
DEFPOINTS
 62
     0
100
AcDbPoint
 10
1111.00000000033
 20
2732.499999999999
 30
0.0
  0
ENDBLK
  5
45E
330
45C
100
AcDbEntity
  8
0
100
AcDbBlockEnd
  0
BLOCK
  5
46A
330
469
100
AcDbEntity
  8
0
100
AcDbBlockBegin
  2
*D33
 70
     1
 10
0.0
 20
0.0
 30
0.0
  3
*D33
  1

  0
LINE
  5
46C
330
469
100
AcDbEntity
  8
寸法
  6
CONTINUOUS
 62
     3
100
AcDbLine
 10
736.0000000003298
 20
2678.799999821185
 30
0.0
 11
736.0000000003298
 21
2863.499999999999
 31
0.0
  0
LINE
  5
46D
330
469
100
AcDbEntity
  8
寸法
  6
CONTINUOUS
 62
     3
100
AcDbLine
 10
1186.00000000033
 20
2678.799999821185
 30
0.0
 11
1186.00000000033
 21
2863.499999999999
 31
0.0
  0
LINE
  5
46E
330
469
100
AcDbEntity
  8
寸法
  6
CONTINUOUS
 62
     3
100
AcDbLine
 10
780.9999961856325
 20
2848.499999999999
 30
0.0
 11
1141.000003815027
 21
2848.499999999999
 31
0.0
  0
INSERT
  5
46F
330
469
100
AcDbEntity
  8
寸法
 62
     3
100
AcDbBlockReference
  2
EX_NORM
 10
736.0000000003298
 20
2848.499999999999
 30
0.0
 41
44.99999618530273
 42
44.99999618530273
 43
44.99999618530273
 50
180.0
  0
INSERT
  5
470
330
469
100
AcDbEntity
  8
寸法
 62
     3
100
AcDbBlockReference
  2
EX_NORM
 10
1186.00000000033
 20
2848.499999999999
 30
0.0
 41
44.99999618530273
 42
44.99999618530273
 43
44.99999618530273
  0
MTEXT
  5
471
330
469
100
AcDbEntity
  8
寸法
 62
     2
100
AcDbMText
 10
961.0000000003299
 20
2883.749999910592
 30
0.0
 40
59.99999618530273
 41
0.0
 71
     5
 72
     1
  1
450
  7
EXCADDIM1
  0
POINT
  5
472
330
469
100
AcDbEntity
  8
DEFPOINTS
 62
     0
100
AcDbPoint
 10
736.0000000003298
 20
2668.299999999999
 30
0.0
  0
POINT
  5
473
330
469
100
AcDbEntity
  8
DEFPOINTS
 62
     0
100
AcDbPoint
 10
1186.00000000033
 20
2668.299999999999
 30
0.0
  0
POINT
  5
474
330
469
100
AcDbEntity
  8
DEFPOINTS
 62
     0
100
AcDbPoint
 10
1186.00000000033
 20
2848.499999999999
 30
0.0
  0
ENDBLK
  5
46B
330
469
100
AcDbEntity
  8
0
100
AcDbBlockEnd
  0
BLOCK
  5
477
330
476
100
AcDbEntity
  8
0
100
AcDbBlockBegin
  2
*D34
 70
     1
 10
0.0
 20
0.0
 30
0.0
  3
*D34
  1

  0
LINE
  5
479
330
476
100
AcDbEntity
  8
寸法
  6
CONTINUOUS
 62
     3
100
AcDbLine
 10
2369.800000000399
 20
2679.999999821186
 30
0.0
 11
2369.800000000399
 21
2749.499999999999
 31
0.0
  0
LINE
  5
47A
330
476
100
AcDbEntity
  8
寸法
  6
CONTINUOUS
 62
     3
100
AcDbLine
 10
2414.799996185702
 20
2734.499999999999
 30
0.0
 11
2446.000003815097
 21
2734.499999999999
 31
0.0
  0
INSERT
  5
47B
330
476
100
AcDbEntity
  8
寸法
 62
     3
100
AcDbBlockReference
  2
EX_NORM
 10
2369.800000000399
 20
2734.499999999999
 30
0.0
 41
44.99999618530273
 42
44.99999618530273
 43
44.99999618530273
 50
180.0
  0
INSERT
  5
47C
330
476
100
AcDbEntity
  8
寸法
 62
     3
100
AcDbBlockReference
  2
EX_NORM
 10
2491.0000000004
 20
2734.499999999999
 30
0.0
 41
44.99999618530273
 42
44.99999618530273
 43
44.99999618530273
  0
MTEXT
  5
47D
330
476
100
AcDbEntity
  8
寸法
 62
     2
100
AcDbMText
 10
2604.550000000399
 20
2769.749999910592
 30
0.0
 40
59.99999618530273
 41
0.0
 71
     5
 72
     1
  1
122
  7
EXCADDIM1
  0
POINT
  5
47E
330
476
100
AcDbEntity
  8
DEFPOINTS
 62
     0
100
AcDbPoint
 10
2369.800000000399
 20
2669.5
 30
0.0
  0
POINT
  5
47F
330
476
100
AcDbEntity
  8
DEFPOINTS
 62
     0
100
AcDbPoint
 10
2491.0000000004
 20
2663.299999999999
 30
0.0
  0
POINT
  5
480
330
476
100
AcDbEntity
  8
DEFPOINTS
 62
     0
100
AcDbPoint
 10
2491.0000000004
 20
2734.499999999999
 30
0.0
  0
ENDBLK
  5
478
330
476
100
AcDbEntity
  8
0
100
AcDbBlockEnd
  0
BLOCK
  5
4A7
330
4A6
100
AcDbEntity
  8
0
100
AcDbBlockBegin
  2
*D35
 70
     1
 10
0.0
 20
0.0
 30
0.0
  3
*D35
  1

  0
LINE
  5
4A9
330
4A6
100
AcDbEntity
  8
寸法
  6
CONTINUOUS
 62
     3
100
AcDbLine
 10
971.4999998215661
 20
3353.0
 30
0.0
 11
1561.0000000004
 21
3353.0
 31
0.0
  0
LINE
  5
4AA
330
4A6
100
AcDbEntity
  8
寸法
  6
CONTINUOUS
 62
     3
100
AcDbLine
 10
1546.0000000004
 20
3780.000003814697
 30
0.0
 11
1546.0000000004
 21
3397.999996185303
 31
0.0
  0
INSERT
  5
4AB
330
4A6
100
AcDbEntity
  8
寸法
 62
     3
100
AcDbBlockReference
  2
EX_NORM
 10
1546.0000000004
 20
3825.0
 30
0.0
 41
44.99999618530273
 42
44.99999618530273
 43
44.99999618530273
 50
90.0
  0
INSERT
  5
4AC
330
4A6
100
AcDbEntity
  8
寸法
 62
     3
100
AcDbBlockReference
  2
EX_NORM
 10
1546.0000000004
 20
3353.0
 30
0.0
 41
44.99999618530273
 42
44.99999618530273
 43
44.99999618530273
 50
270.0
  0
MTEXT
  5
4AD
330
4A6
100
AcDbEntity
  8
寸法
 62
     2
100
AcDbMText
 10
1510.750000089807
 20
3589.0
 30
0.0
 40
59.99999618530273
 41
0.0
 71
     5
 72
     1
  1
470
  7
EXCADDIM1
 11
0.0
 21
1.0
 31
0.0
  0
POINT
  5
4AE
330
4A6
100
AcDbEntity
  8
DEFPOINTS
 62
     0
100
AcDbPoint
 10
1336.0000000004
 20
3825.0
 30
0.0
  0
POINT
  5
4AF
330
4A6
100
AcDbEntity
  8
DEFPOINTS
 62
     0
100
AcDbPoint
 10
961.00000000038
 20
3353.0
 30
0.0
  0
POINT
  5
4B0
330
4A6
100
AcDbEntity
  8
DEFPOINTS
 62
     0
100
AcDbPoint
 10
1546.0000000004
 20
3353.0
 30
0.0
  0
ENDBLK
  5
4A8
330
4A6
100
AcDbEntity
  8
0
100
AcDbBlockEnd
  0
BLOCK
  5
4B5
330
4B4
100
AcDbEntity
  8
0
100
AcDbBlockBegin
  2
*D36
 70
     1
 10
0.0
 20
0.0
 30
0.0
  3
*D36
  1

  0
LINE
  5
4B7
330
4B4
100
AcDbEntity
  8
寸法
  6
CONTINUOUS
 62
     3
100
AcDbLine
 10
2900.000050367075
 20
2166.3
 30
0.0
 11
2878.500050187861
 21
2166.3
 31
0.0
  0
LINE
  5
4B8
330
4B4
100
AcDbEntity
  8
寸法
  6
CONTINUOUS
 62
     3
100
AcDbLine
 10
2895.50000000075
 20
2121.300003814697
 30
0.0
 11
2895.50000000075
 21
964.4999961853027
 31
0.0
  0
INSERT
  5
4B9
330
4B4
100
AcDbEntity
  8
寸法
 62
     3
100
AcDbBlockReference
  2
EX_NORM
 10
2895.50000000075
 20
2166.3
 30
0.0
 41
44.99999618530273
 42
44.99999618530273
 43
44.99999618530273
 50
90.0
  0
INSERT
  5
4BA
330
4B4
100
AcDbEntity
  8
寸法
 62
     3
100
AcDbBlockReference
  2
EX_NORM
 10
2895.50000000075
 20
919.5
 30
0.0
 41
44.99999618530273
 42
44.99999618530273
 43
44.99999618530273
 50
270.0
  0
MTEXT
  5
4BB
330
4B4
100
AcDbEntity
  8
寸法
 62
     2
100
AcDbMText
 10
2858.250000089757
 20
1542.9
 30
0.0
 40
59.99999618530273
 41
0.0
 71
     5
 72
     1
  1
（1247）
  7
EXCADDIM1
 11
-3.828568698926949E-16
 21
1.0
 31
0.0
  0
POINT
  5
4BC
330
4B4
100
AcDbEntity
  8
DEFPOINTS
 62
     0
100
AcDbPoint
 10
2912.500000001151
 20
2166.3
 30
0.0
  0
POINT
  5
4BD
330
4B4
100
AcDbEntity
  8
DEFPOINTS
 62
     0
100
AcDbPoint
 10
2895.50000000075
 20
919.5
 30
0.0
  0
POINT
  5
4BE
330
4B4
100
AcDbEntity
  8
DEFPOINTS
 62
     0
100
AcDbPoint
 10
2895.50000000075
 20
919.5
 30
0.0
  0
ENDBLK
  5
4B6
330
4B4
100
AcDbEntity
  8
0
100
AcDbBlockEnd
  0
BLOCK
  5
4C2
330
4C1
100
AcDbEntity
  8
0
100
AcDbBlockBegin
  2
*D37
 70
     1
 10
0.0
 20
0.0
 30
0.0
  3
*D37
  1

  0
LINE
  5
4C4
330
4C1
100
AcDbEntity
  8
寸法
  6
CONTINUOUS
 62
     3
100
AcDbLine
 10
2850.70000000075
 20
2166.3
 30
0.0
 11
2895.50000000075
 21
2166.3
 31
0.0
  0
LINE
  5
4C5
330
4C1
100
AcDbEntity
  8
寸法
  6
CONTINUOUS
 62
     3
100
AcDbLine
 10
2895.50000000075
 20
2211.299996185303
 30
0.0
 11
2895.50000000075
 21
2561.300003814697
 31
0.0
  0
INSERT
  5
4C6
330
4C1
100
AcDbEntity
  8
寸法
 62
     3
100
AcDbBlockReference
  2
EX_NORM
 10
2895.50000000075
 20
2166.3
 30
0.0
 41
44.99999618530273
 42
44.99999618530273
 43
44.99999618530273
 50
270.0
  0
INSERT
  5
4C7
330
4C1
100
AcDbEntity
  8
寸法
 62
     3
100
AcDbBlockReference
  2
EX_NORM
 10
2895.50000000075
 20
2606.3
 30
0.0
 41
44.99999618530273
 42
44.99999618530273
 43
44.99999618530273
 50
90.0
  0
MTEXT
  5
4C8
330
4C1
100
AcDbEntity
  8
寸法
 62
     2
100
AcDbMText
 10
2860.250000090157
 20
2386.3
 30
0.0
 40
59.99999618530273
 41
0.0
 71
     5
 72
     1
  1
440（壁固定）
  7
EXCADDIM1
 11
0.0
 21
1.0
 31
0.0
  0
POINT
  5
4C9
330
4C1
100
AcDbEntity
  8
DEFPOINTS
 62
     0
100
AcDbPoint
 10
2850.70000000075
 20
2166.3
 30
0.0
  0
POINT
  5
4CA
330
4C1
100
AcDbEntity
  8
DEFPOINTS
 62
     0
100
AcDbPoint
 10
2850.70000000075
 20
2606.3
 30
0.0
  0
POINT
  5
4CB
330
4C1
100
AcDbEntity
  8
DEFPOINTS
 62
     0
100
AcDbPoint
 10
2895.50000000075
 20
2606.3
 30
0.0
  0
ENDBLK
  5
4C3
330
4C1
100
AcDbEntity
  8
0
100
AcDbBlockEnd
  0
BLOCK
  5
4CF
330
4CE
100
AcDbEntity
  8
0
100
AcDbBlockBegin
  2
*D38
 70
     1
 10
0.0
 20
0.0
 30
0.0
  3
*D38
  1

  0
LINE
  5
4D1
330
4CE
100
AcDbEntity
  8
寸法
  6
CONTINUOUS
 62
     3
100
AcDbLine
 10
2400.300050138024
 20
2669.5
 30
0.0
 11
2911.000050316806
 21
2669.5
 31
0.0
  0
LINE
  5
4D2
330
4CE
100
AcDbEntity
  8
寸法
  6
CONTINUOUS
 62
     3
100
AcDbLine
 10
2895.510000000949
 20
2613.3
 30
0.0
 11
2895.510000000949
 21
2669.5
 31
0.0
  0
LINE
  5
4D3
330
4CE
100
AcDbEntity
  8
寸法
  6
CONTINUOUS
 62
     3
100
AcDbLine
 10
2895.510000000949
 20
2568.300003814697
 30
0.0
 11
2895.510000000949
 21
2523.300007629395
 31
0.0
  0
LINE
  5
4D4
330
4CE
100
AcDbEntity
  8
寸法
  6
CONTINUOUS
 62
     3
100
AcDbLine
 10
2895.510000000949
 20
2714.499996185303
 30
0.0
 11
2895.510000000949
 21
2759.499992370605
 31
0.0
  0
INSERT
  5
4D5
330
4CE
100
AcDbEntity
  8
寸法
 62
     3
100
AcDbBlockReference
  2
EX_NONE
 10
2895.510000000949
 20
2613.3
 30
0.0
 41
44.99999618530273
 42
44.99999618530273
 43
44.99999618530273
 50
90.0
  0
INSERT
  5
4D6
330
4CE
100
AcDbEntity
  8
寸法
 62
     3
100
AcDbBlockReference
  2
EX_NORM
 10
2895.510000000949
 20
2669.5
 30
0.0
 41
44.99999618530273
 42
44.99999618530273
 43
44.99999618530273
 50
270.0
  0
MTEXT
  5
4D7
330
4CE
100
AcDbEntity
  8
寸法
 62
     2
100
AcDbMText
 10
2860.750000089957
 20
2764.7
 30
0.0
 40
59.99999618530273
 41
0.0
 71
     5
 72
     1
  1
63
  7
EXCADDIM1
 11
-3.035887853477192E-14
 21
1.0
 31
0.0
  0
POINT
  5
4D8
330
4CE
100
AcDbEntity
  8
DEFPOINTS
 62
     0
100
AcDbPoint
 10
2523.71000000098
 20
2613.3
 30
0.0
  0
POINT
  5
4D9
330
4CE
100
AcDbEntity
  8
DEFPOINTS
 62
     0
100
AcDbPoint
 10
2389.310000000981
 20
2669.5
 30
0.0
  0
POINT
  5
4DA
330
4CE
100
AcDbEntity
  8
DEFPOINTS
 62
     0
100
AcDbPoint
 10
2895.510000000949
 20
2669.5
 30
0.0
  0
ENDBLK
  5
4D0
330
4CE
100
AcDbEntity
  8
0
100
AcDbBlockEnd
  0
BLOCK
  5
4DD
330
4DC
100
AcDbEntity
  8
0
100
AcDbBlockBegin
  2
*D39
 70
     1
 10
0.0
 20
0.0
 30
0.0
  3
*D39
  1

  0
LINE
  5
4DF
330
4DC
100
AcDbEntity
  8
寸法
  6
CONTINUOUS
 62
     3
100
AcDbLine
 10
1567.500000000001
 20
2103.09999999995
 30
0.0
 11
1184.5000000004
 21
2103.09999999995
 31
0.0
  0
LINE
  5
4E0
330
4DC
100
AcDbEntity
  8
寸法
  6
CONTINUOUS
 62
     3
100
AcDbLine
 10
1546.0000000004
 20
2624.500003814647
 30
0.0
 11
1546.0000000004
 21
2148.099996185253
 31
0.0
  0
INSERT
  5
4E1
330
4DC
100
AcDbEntity
  8
寸法
 62
     3
100
AcDbBlockReference
  2
EX_NORM
 10
1546.0000000004
 20
2669.49999999995
 30
0.0
 41
44.99999618530273
 42
44.99999618530273
 43
44.99999618530273
 50
90.0
  0
INSERT
  5
4E2
330
4DC
100
AcDbEntity
  8
寸法
 62
     3
100
AcDbBlockReference
  2
EX_NORM
 10
1546.0000000004
 20
2103.09999999995
 30
0.0
 41
44.99999618530273
 42
44.99999618530273
 43
44.99999618530273
 50
270.0
  0
MTEXT
  5
4E3
330
4DC
100
AcDbEntity
  8
寸法
 62
     2
100
AcDbMText
 10
1504.750000089807
 20
2386.29999999995
 30
0.0
 40
59.99999618530273
 41
0.0
 71
     5
 72
     1
  1
567
  7
EXCADDIM1
 11
-3.828568698926949E-16
 21
1.0
 31
0.0
  0
POINT
  5
4E4
330
4DC
100
AcDbEntity
  8
DEFPOINTS
 62
     0
100
AcDbPoint
 10
1576.000000000305
 20
2669.49999999995
 30
0.0
  0
POINT
  5
4E5
330
4DC
100
AcDbEntity
  8
DEFPOINTS
 62
     0
100
AcDbPoint
 10
1576.000000000305
 20
2103.09999999995
 30
0.0
  0
POINT
  5
4E6
330
4DC
100
AcDbEntity
  8
DEFPOINTS
 62
     0
100
AcDbPoint
 10
1546.0000000004
 20
2103.09999999995
 30
0.0
  0
ENDBLK
  5
4DE
330
4DC
100
AcDbEntity
  8
0
100
AcDbBlockEnd
  0
ENDSEC
  0
SECTION
  2
ENTITIES
  0
TEXT
  5
A9
330
1F
100
AcDbEntity
  8
枠_表
  6
CONTINUOUS
 62
     2
100
AcDbText
 10
1469.999998569921
 20
304.5000038146966
 30
0.0
 40
74.99999237060547
  1
洗面化粧台
 41
1.052413789665836
  7
EXCADSTD
 72
     5
 11
1796.999964237646
 21
304.5000038146966
 31
0.0
100
AcDbText
  0
TEXT
  5
AA
330
1F
100
AcDbEntity
  8
枠_表
  6
CONTINUOUS
 62
     2
100
AcDbText
 10
2398.500000000428
 20
4227.37500190735
 30
0.0
 40
59.99999618530273
  1
品名
 41
1.895695426731973
  7
EXCADSTD
 72
     5
 11
2577.236986014222
 21
4227.37500190735
 31
0.0
100
AcDbText
  0
TEXT
  5
AB
330
1F
100
AcDbEntity
  8
枠_表
  6
CONTINUOUS
 62
     2
100
AcDbText
 10
1873.500000000426
 20
4227.37500190735
 30
0.0
 40
59.99999618530273
  1
品番
 41
1.895695426731973
  7
EXCADSTD
 72
     5
 11
2052.23698601422
 21
4227.37500190735
 31
0.0
100
AcDbText
  0
TEXT
  5
AC
330
1F
100
AcDbEntity
  8
枠_表
  6
CONTINUOUS
 62
     2
100
AcDbText
 10
2817.000000089842
 20
4227.37500190735
 30
0.0
 40
59.99999618530273
  1
個数
 41
1.049923628946709
  7
EXCADSTD
 72
     5
 11
2915.992793096739
 21
4227.37500190735
 31
0.0
100
AcDbText
  0
LINE
  5
AD
330
1F
100
AcDbEntity
  8
枠_表
  6
CONTINUOUS
 62
     6
100
AcDbLine
 10
1746.000000000436
 20
4145.999999999995
 30
0.0
 11
2946.000000000436
 21
4145.999999999995
 31
0.0
  0
LINE
  5
AE
330
1F
100
AcDbEntity
  8
枠_表
  6
CONTINUOUS
 62
     6
100
AcDbLine
 10
1746.000000000436
 20
4071.749999999995
 30
0.0
 11
2946.000000000436
 21
4071.749999999995
 31
0.0
  0
LINE
  5
AF
330
1F
100
AcDbEntity
  8
枠_表
  6
CONTINUOUS
 62
     6
100
AcDbLine
 10
1746.000000000436
 20
4294.499999999997
 30
0.0
 11
2946.000000000436
 21
4294.499999999997
 31
0.0
  0
LINE
  5
B0
330
1F
100
AcDbEntity
  8
枠_表
  6
CONTINUOUS
 62
     6
100
AcDbLine
 10
1746.000000000436
 20
4220.249999999996
 30
0.0
 11
2946.000000000436
 21
4220.249999999996
 31
0.0
  0
TEXT
  5
B1
330
1F
100
AcDbEntity
  8
枠_表
  6
CONTINUOUS
 62
     2
100
AcDbText
 10
2209.500000000228
 20
4151.625001907344
 30
0.0
 40
59.99999618530273
  1
洗面化粧台
 41
1.013793091171089
  7
EXCADSTD
 72
     5
 11
2461.499980926742
 21
4151.625001907344
 31
0.0
100
AcDbText
  0
TEXT
  5
B2
330
1F
100
AcDbEntity
  8
枠_表
  6
CONTINUOUS
 62
     2
100
AcDbText
 10
2841.000000000436
 20
4078.875001907346
 30
0.0
 40
59.99999618530273
  1
１
 41
1.120000000000004
  7
EXCADSTD
 72
     5
 11
2888.999996948678
 21
4078.875001907346
 31
0.0
100
AcDbText
  0
TEXT
  5
B3
330
1F
100
AcDbEntity
  8
枠_表
  6
CONTINUOUS
 62
     2
100
AcDbText
 10
2841.000000000436
 20
4153.125001907346
 30
0.0
 40
59.99999618530273
  1
１
 41
1.120000000000004
  7
EXCADSTD
 72
     5
 11
2888.999996948678
 21
4153.125001907346
 31
0.0
100
AcDbText
  0
TEXT
  5
B4
330
1F
100
AcDbEntity
  8
枠_表
  6
CONTINUOUS
 62
     2
100
AcDbText
 10
2887.918945350385
 20
324.5232695999982
 30
0.0
 40
44.99999618530273
  1
１５
 41
1.098531308335255
  7
EXCADSTD
 72
     5
 11
2965.600795568919
 21
324.5232695999982
 31
0.0
100
AcDbText
  0
LINE
  5
B5
330
1F
100
AcDbEntity
  8
枠_表
  6
CONTINUOUS
 62
     7
100
AcDbLine
 10
261.0000000003848
 20
139.4999999999993
 30
0.0
 11
261.0000000003848
 21
4339.5
 31
0.0
  0
LINE
  5
B6
330
1F
100
AcDbEntity
  8
枠_表
  6
EXLTYPE2
 62
     6
100
AcDbLine
 10
261.0000000003848
 20
214.4999999999993
 30
0.0
 11
726.0000000003848
 21
214.4999999999993
 31
0.0
  0
LINE
  5
B7
330
1F
100
AcDbEntity
  8
枠_表
  6
CONTINUOUS
 62
     6
100
AcDbLine
 10
2829.980712900384
 20
324.0043945500008
 30
0.0
 11
2945.990844750385
 21
442.04974365
 31
0.0
  0
LINE
  5
B8
330
1F
100
AcDbEntity
  8
枠_表
  6
CONTINUOUS
 62
     6
100
AcDbLine
 10
261.0000000003848
 20
394.4999999999993
 30
0.0
 11
1116.000000000385
 21
394.4999999999993
 31
0.0
  0
LINE
  5
B9
330
1F
100
AcDbEntity
  8
枠_表
  6
CONTINUOUS
 62
     6
100
AcDbLine
 10
493.5000000003848
 20
469.4999999999993
 30
0.0
 11
493.5000000003848
 21
139.4999999999993
 31
0.0
  0
LINE
  5
BA
330
1F
100
AcDbEntity
  8
枠_表
  6
CONTINUOUS
 62
     6
100
AcDbLine
 10
726.0000000003848
 20
469.4999999999993
 30
0.0
 11
726.0000000003848
 21
139.4999999999993
 31
0.0
  0
LINE
  5
BB
330
1F
100
AcDbEntity
  8
枠_表
  6
CONTINUOUS
 62
     6
100
AcDbLine
 10
921.0000000003848
 20
469.4999999999993
 30
0.0
 11
921.0000000003848
 21
139.4999999999993
 31
0.0
  0
LINE
  5
BC
330
1F
100
AcDbEntity
  8
枠_表
  6
CONTINUOUS
 62
     6
100
AcDbLine
 10
1116.000000000385
 20
469.4999999999993
 30
0.0
 11
1116.000000000385
 21
139.4999999999993
 31
0.0
  0
LINE
  5
BD
330
1F
100
AcDbEntity
  8
枠_表
  6
CONTINUOUS
 62
     6
100
AcDbLine
 10
1191.000000000385
 20
469.4999999999993
 30
0.0
 11
1191.000000000385
 21
289.4999999999993
 31
0.0
  0
LINE
  5
BE
330
1F
100
AcDbEntity
  8
枠_表
  6
CONTINUOUS
 62
     6
100
AcDbLine
 10
2076.000000000383
 20
469.4999999999993
 30
0.0
 11
2076.000000000383
 21
139.4999999999993
 31
0.0
  0
LINE
  5
BF
330
1F
100
AcDbEntity
  8
枠_表
  6
CONTINUOUS
 62
     6
100
AcDbLine
 10
2151.000000000383
 20
469.4999999999993
 30
0.0
 11
2151.000000000383
 21
139.4999999999993
 31
0.0
  0
LINE
  5
C0
330
1F
100
AcDbEntity
  8
枠_表
  6
CONTINUOUS
 62
     6
100
AcDbLine
 10
2706.000000000385
 20
469.4999999999993
 30
0.0
 11
2706.000000000385
 21
289.4999999999993
 31
0.0
  0
LINE
  5
C1
330
1F
100
AcDbEntity
  8
枠_表
  6
CONTINUOUS
 62
     6
100
AcDbLine
 10
2781.000000000385
 20
469.4999999999993
 30
0.0
 11
2781.000000000385
 21
289.4999999999993
 31
0.0
  0
LINE
  5
C2
330
1F
100
AcDbEntity
  8
枠_表
  6
CONTINUOUS
 62
     6
100
AcDbLine
 10
2991.000000000385
 20
289.4999999999993
 30
0.0
 11
1116.000000000385
 21
289.4999999999993
 31
0.0
  0
LINE
  5
C3
330
1F
100
AcDbEntity
  8
枠_表
  6
CONTINUOUS
 62
     7
100
AcDbLine
 10
261.0000000003848
 20
4339.5
 30
0.0
 11
2991.000000000385
 21
4339.5
 31
0.0
  0
LINE
  5
C4
330
1F
100
AcDbEntity
  8
枠_表
  6
CONTINUOUS
 62
     7
100
AcDbLine
 10
2991.000000000385
 20
139.4999999999993
 30
0.0
 11
2991.000000000385
 21
4339.5
 31
0.0
  0
LINE
  5
C5
330
1F
100
AcDbEntity
  8
枠_表
  6
CONTINUOUS
 62
     7
100
AcDbLine
 10
261.0000000003848
 20
469.4999999999993
 30
0.0
 11
2991.000000000385
 21
469.4999999999993
 31
0.0
  0
TEXT
  5
C6
330
1F
100
AcDbEntity
  8
枠_表
  6
CONTINUOUS
 62
     2
100
AcDbText
 10
2084.625000000382
 20
151.1250019073493
 30
0.0
 40
63.74999618530273
  1
番
 41
1.120000000000004
  7
EXCADSTD
 72
     5
 11
2135.624996948625
 21
151.1250019073493
 31
0.0
100
AcDbText
  0
TEXT
  5
C7
330
1F
100
AcDbEntity
  8
枠_表
  6
CONTINUOUS
 62
     2
100
AcDbText
 10
2084.625000000382
 20
215.6250019073486
 30
0.0
 40
63.74999618530273
  1
図
 41
1.120000000000004
  7
EXCADSTD
 72
     5
 11
2135.624996948625
 21
215.6250019073486
 31
0.0
100
AcDbText
  0
TEXT
  5
C8
330
1F
100
AcDbEntity
  8
枠_表
  6
CONTINUOUS
 62
     2
100
AcDbText
 10
2716.125000000384
 20
310.125001907348
 30
0.0
 40
63.74999618530273
  1
度
 41
1.120000000000004
  7
EXCADSTD
 72
     5
 11
2767.124996948627
 21
310.125001907348
 31
0.0
100
AcDbText
  0
TEXT
  5
C9
330
1F
100
AcDbEntity
  8
枠_表
  6
CONTINUOUS
 62
     2
100
AcDbText
 10
2716.125000000384
 20
385.125001907348
 30
0.0
 40
63.74999618530273
  1
尺
 41
1.120000000000004
  7
EXCADSTD
 72
     5
 11
2767.124996948627
 21
385.125001907348
 31
0.0
100
AcDbText
  0
TEXT
  5
CA
330
1F
100
AcDbEntity
  8
枠_表
  6
CONTINUOUS
 62
     2
100
AcDbText
 10
2084.625000000382
 20
310.125001907348
 30
0.0
 40
63.74999618530273
  1
番
 41
1.120000000000004
  7
EXCADSTD
 72
     5
 11
2135.624996948625
 21
310.125001907348
 31
0.0
100
AcDbText
  0
TEXT
  5
CB
330
1F
100
AcDbEntity
  8
枠_表
  6
CONTINUOUS
 62
     2
100
AcDbText
 10
2084.625000000382
 20
385.125001907348
 30
0.0
 40
63.74999618530273
  1
品
 41
1.120000000000004
  7
EXCADSTD
 72
     5
 11
2135.624996948625
 21
385.125001907348
 31
0.0
100
AcDbText
  0
TEXT
  5
CC
330
1F
100
AcDbEntity
  8
枠_表
  6
CONTINUOUS
 62
     2
100
AcDbText
 10
1124.625000000386
 20
310.125001907348
 30
0.0
 40
63.74999618530273
  1
名
 41
1.119999999999999
  7
EXCADSTD
 72
     5
 11
1175.624996948628
 21
310.125001907348
 31
0.0
100
AcDbText
  0
TEXT
  5
CD
330
1F
100
AcDbEntity
  8
枠_表
  6
CONTINUOUS
 62
     2
100
AcDbText
 10
1124.625000000386
 20
385.125001907348
 30
0.0
 40
63.74999618530273
  1
品
 41
1.119999999999999
  7
EXCADSTD
 72
     5
 11
1175.624996948628
 21
385.125001907348
 31
0.0
100
AcDbText
  0
TEXT
  5
CE
330
1F
100
AcDbEntity
  8
枠_表
  6
CONTINUOUS
 62
     2
100
AcDbText
 10
947.2500000003848
 20
400.125001907348
 30
0.0
 40
63.74999618530273
  1
承認
 41
1.303826737454633
  7
EXCADSTD
 72
     5
 11
1077.865492133144
 21
400.125001907348
 31
0.0
100
AcDbText
  0
TEXT
  5
CF
330
1F
100
AcDbEntity
  8
枠_表
  6
CONTINUOUS
 62
     2
100
AcDbText
 10
752.2500000003848
 20
400.125001907348
 30
0.0
 40
63.74999618530273
  1
検図
 41
1.303826737454632
  7
EXCADSTD
 72
     5
 11
882.8654921331439
 21
400.125001907348
 31
0.0
100
AcDbText
  0
TEXT
  5
D0
330
1F
100
AcDbEntity
  8
枠_表
  6
CONTINUOUS
 62
     2
100
AcDbText
 10
527.2500000003848
 20
400.125001907348
 30
0.0
 40
63.74999618530273
  1
写図
 41
1.509694103275157
  7
EXCADSTD
 72
     5
 11
678.4889895107303
 21
400.125001907348
 31
0.0
100
AcDbText
  0
TEXT
  5
D1
330
1F
100
AcDbEntity
  8
枠_表
  6
CONTINUOUS
 62
     2
100
AcDbText
 10
294.7500000003848
 20
400.125001907348
 30
0.0
 40
63.74999618530273
  1
製図
 41
1.509694103275157
  7
EXCADSTD
 72
     5
 11
445.9889895107303
 21
400.125001907348
 31
0.0
100
AcDbText
  0
TEXT
  5
D2
330
1F
100
AcDbEntity
  8
枠_表
  6
CONTINUOUS
 62
     2
100
AcDbText
 10
2826.805664100385
 20
391.0841674500011
 30
0.0
 40
44.99999618530273
  1
１
 41
1.101333426694527
  7
EXCADSTD
 72
     5
 11
2862.205664100385
 21
391.0841674500011
 31
0.0
100
AcDbText
  0
ARC
  5
D3
330
1F
100
AcDbEntity
  8
枠_表
  6
CONTINUOUS
 62
     3
100
AcDbCircle
 10
1387.263721603692
 20
217.3529156261236
 30
0.0
 40
28.61127005606746
100
AcDbArc
 50
153.7591918158497
 51
169.3462759801917
  0
LINE
  5
D4
330
1F
100
AcDbEntity
  8
枠_表
  6
CONTINUOUS
 62
     3
100
AcDbLine
 10
1357.864898600262
 20
222.6423649463095
 30
0.0
 11
1359.145640230483
 21
222.6423649463095
 31
0.0
  0
LINE
  5
D5
330
1F
100
AcDbEntity
  8
枠_表
  6
CONTINUOUS
 62
     3
100
AcDbLine
 10
1348.25627360026
 20
228.9299899463094
 30
0.0
 11
1349.896523600262
 21
228.9704899463095
 31
0.0
  0
LINE
  5
D6
330
1F
100
AcDbEntity
  8
枠_表
  6
CONTINUOUS
 62
     3
100
AcDbLine
 10
1333.251023600259
 20
218.7948649463101
 30
0.0
 11
1333.301648600259
 21
216.1117399463433
 31
0.0
  0
LINE
  5
D7
330
1F
100
AcDbEntity
  8
枠_表
  6
CONTINUOUS
 62
     3
100
AcDbLine
 10
1340.571398600261
 20
221.8222399463116
 30
0.0
 11
1340.429648600261
 21
219.1694899463107
 31
0.0
  0
LINE
  5
D8
330
1F
100
AcDbEntity
  8
枠_表
  6
CONTINUOUS
 62
     3
100
AcDbLine
 10
1364.436023600262
 20
199.9826149463104
 30
0.0
 11
1364.385398600258
 21
195.6592399463102
 31
0.0
  0
LINE
  5
D9
330
1F
100
AcDbEntity
  8
枠_表
  6
CONTINUOUS
 62
     3
100
AcDbLine
 10
1357.297898600261
 20
195.7604899463104
 30
0.0
 11
1357.399148600261
 21
193.43173994631
 31
0.0
  0
ARC
  5
DA
330
1F
100
AcDbEntity
  8
枠_表
  6
CONTINUOUS
 62
     3
100
AcDbCircle
 10
1317.801619698526
 20
192.8669639347504
 30
0.0
 40
16.91930610118257
100
AcDbArc
 50
332.3987521421788
 51
359.5124385477116
  0
LINE
  5
DB
330
1F
100
AcDbEntity
  8
枠_表
  6
CONTINUOUS
 62
     3
100
AcDbLine
 10
1200.259148600263
 20
221.5792399463112
 30
0.0
 11
1201.575398600261
 21
221.5792399463112
 31
0.0
  0
LINE
  5
DC
330
1F
100
AcDbEntity
  8
枠_表
  6
CONTINUOUS
 62
     3
100
AcDbLine
 10
1343.325398600262
 20
181.990489946312
 30
0.0
 11
1348.084148600259
 21
181.990489946312
 31
0.0
  0
LINE
  5
DD
330
1F
100
AcDbEntity
  8
枠_表
  6
CONTINUOUS
 62
     3
100
AcDbLine
 10
1336.03539860026
 20
192.7229899463123
 30
0.0
 11
1334.719148600262
 21
192.7229899463123
 31
0.0
  0
LINE
  5
DE
330
1F
100
AcDbEntity
  8
枠_表
  6
CONTINUOUS
 62
     3
100
AcDbLine
 10
1346.26164860026
 20
185.6354899463111
 30
0.0
 11
1348.69164860026
 21
185.6354899463111
 31
0.0
  0
LINE
  5
DF
330
1F
100
AcDbEntity
  8
枠_表
  6
CONTINUOUS
 62
     3
100
AcDbLine
 10
1351.627898600262
 20
232.909114946309
 30
0.0
 11
1348.833398600261
 21
232.909114946309
 31
0.0
  0
ARC
  5
E0
330
1F
100
AcDbEntity
  8
枠_表
  6
CONTINUOUS
 62
     3
100
AcDbCircle
 10
1349.122100869511
 20
219.8143854437512
 30
0.0
 40
9.188796451533795
100
AcDbArc
 50
17.92452211681263
 51
85.16543319077402
  0
ARC
  5
E1
330
1F
100
AcDbEntity
  8
枠_表
  6
CONTINUOUS
 62
     3
100
AcDbCircle
 10
1348.552644729465
 20
220.901249206189
 30
0.0
 40
8.034208966558964
100
AcDbArc
 50
92.11404364449162
 51
173.4175047026091
  0
ARC
  5
E2
330
1F
100
AcDbEntity
  8
枠_表
  6
CONTINUOUS
 62
     3
100
AcDbCircle
 10
1360.954711100278
 20
224.0734774463158
 30
0.0
 40
21.102779059401
100
AcDbArc
 50
193.4375782160214
 51
199.459638038058
  0
ARC
  5
E3
330
1F
100
AcDbEntity
  8
枠_表
  6
CONTINUOUS
 62
     3
100
AcDbCircle
 10
1350.108202858501
 20
222.4707962649927
 30
0.0
 40
10.55345561005776
100
AcDbArc
 50
210.9501336849607
 51
251.7794729821079
  0
ARC
  5
E4
330
1F
100
AcDbEntity
  8
枠_表
  6
CONTINUOUS
 62
     3
100
AcDbCircle
 10
1374.807700454194
 20
287.9038965755251
 30
0.0
 40
80.4846638777502
100
AcDbArc
 50
249.6420733479936
 51
256.4727051201885
  0
ARC
  5
E5
330
1F
100
AcDbEntity
  8
枠_表
  6
CONTINUOUS
 62
     3
100
AcDbCircle
 10
1353.306858194178
 20
198.7825887797362
 30
0.0
 40
11.19367613594409
100
AcDbArc
 50
6.154262763177246
 51
76.17509904255616
  0
ARC
  5
E6
330
1F
100
AcDbEntity
  8
枠_表
  6
CONTINUOUS
 62
     3
100
AcDbCircle
 10
1347.699582970519
 20
199.0038700677076
 30
0.0
 40
17.01772587270968
100
AcDbArc
 50
271.2948770866743
 51
348.6654156292868
  0
ARC
  5
E7
330
1F
100
AcDbEntity
  8
枠_表
  6
CONTINUOUS
 62
     3
100
AcDbCircle
 10
1345.189508189301
 20
208.2234865216537
 30
0.0
 40
26.2991447367003
100
AcDbArc
 50
241.8829576087176
 51
265.9354096935781
  0
ARC
  5
E8
330
1F
100
AcDbEntity
  8
枠_表
  6
CONTINUOUS
 62
     3
100
AcDbCircle
 10
1347.954156485613
 20
198.9987959666075
 30
0.0
 40
13.47006053193791
100
AcDbArc
 50
207.7689879465537
 51
262.7817283832026
  0
ARC
  5
E9
330
1F
100
AcDbEntity
  8
枠_表
  6
CONTINUOUS
 62
     3
100
AcDbCircle
 10
1348.553666617362
 20
194.5503545635734
 30
0.0
 40
8.91593237815014
100
AcDbArc
 50
270.8867385422408
 51
352.7925382056677
  0
ARC
  5
EA
330
1F
100
AcDbEntity
  8
枠_表
  6
CONTINUOUS
 62
     3
100
AcDbCircle
 10
1350.462006878435
 20
194.9769338149736
 30
0.0
 40
6.88065228328521
100
AcDbArc
 50
6.53892419415897
 51
65.09756080693691
  0
ARC
  5
EB
330
1F
100
AcDbEntity
  8
枠_表
  6
CONTINUOUS
 62
     3
100
AcDbCircle
 10
1333.757233774948
 20
161.9185712632816
 30
0.0
 40
43.91667620959131
100
AcDbArc
 50
63.49050203733571
 51
76.60259219849584
  0
ARC
  5
EC
330
1F
100
AcDbEntity
  8
枠_表
  6
CONTINUOUS
 62
     3
100
AcDbCircle
 10
1349.290221870311
 20
222.3594616510013
 30
0.0
 40
18.51151426169351
100
AcDbArc
 50
226.0402388947521
 51
253.1776672992999
  0
ARC
  5
ED
330
1F
100
AcDbEntity
  8
枠_表
  6
CONTINUOUS
 62
     3
100
AcDbCircle
 10
1343.339888689286
 20
216.3289153613277
 30
0.0
 40
10.04058908858416
100
AcDbArc
 50
181.2393899443581
 51
226.5942921332421
  0
ARC
  5
EE
330
1F
100
AcDbEntity
  8
枠_表
  6
CONTINUOUS
 62
     3
100
AcDbCircle
 10
1348.194524520327
 20
217.8013936652781
 30
0.0
 40
14.97648840463785
100
AcDbArc
 50
117.4083995939977
 51
176.1964688215695
  0
ARC
  5
EF
330
1F
100
AcDbEntity
  8
枠_表
  6
CONTINUOUS
 62
     3
100
AcDbCircle
 10
1349.656656642971
 20
213.146864690641
 30
0.0
 40
19.79962298051288
100
AcDbArc
 50
92.38301574576484
 51
114.9635286746436
  0
ARC
  5
F0
330
1F
100
AcDbEntity
  8
枠_表
  6
CONTINUOUS
 62
     3
100
AcDbCircle
 10
1351.28142426947
 20
217.7494557545924
 30
0.0
 40
15.16361801388235
100
AcDbArc
 50
67.66151957087348
 51
88.69073168448988
  0
ARC
  5
F1
330
1F
100
AcDbEntity
  8
枠_表
  6
CONTINUOUS
 62
     3
100
AcDbCircle
 10
1832.466679849604
 20
1447.544614944631
 30
0.0
 40
1305.420034344473
100
AcDbArc
 50
248.6422112053103
 51
248.8567777804232
  0
ARC
  5
F2
330
1F
100
AcDbEntity
  8
枠_表
  6
CONTINUOUS
 62
     3
100
AcDbCircle
 10
977.5350863049667
 20
207.4874689149362
 30
0.0
 40
333.0114127553719
100
AcDbArc
 50
355.7940354718673
 51
4.229650257234378
  0
ARC
  5
F3
330
1F
100
AcDbEntity
  8
枠_表
  6
CONTINUOUS
 62
     3
100
AcDbCircle
 10
1623.381070769718
 20
207.2821508609081
 30
0.0
 40
305.38595858835
100
AcDbArc
 50
175.3387608397566
 51
184.5428594926176
  0
ARC
  5
F4
330
1F
100
AcDbEntity
  8
枠_表
  6
CONTINUOUS
 62
     3
100
AcDbCircle
 10
1314.621613406086
 20
85.1970627618482
 30
0.0
 40
97.99289227876633
100
AcDbArc
 50
87.46575055044718
 51
92.90832285102188
  0
ARC
  5
F5
330
1F
100
AcDbEntity
  8
枠_表
  6
CONTINUOUS
 62
     3
100
AcDbCircle
 10
1314.218411404543
 20
251.2998711537125
 30
0.0
 40
19.7884282326031
100
AcDbArc
 50
256.6209501743446
 51
283.9984576255729
  0
CIRCLE
  5
F6
330
1F
100
AcDbEntity
  8
枠_表
  6
CONTINUOUS
 62
     3
100
AcDbCircle
 10
1314.428271057888
 20
249.8753200310557
 30
0.0
 40
5.358501700154835
  0
LINE
  5
F7
330
1F
100
AcDbEntity
  8
枠_表
  6
CONTINUOUS
 62
     3
100
AcDbLine
 10
1259.227148600259
 20
212.7603649463106
 30
0.0
 11
1259.227148600259
 21
196.5704899463117
 31
0.0
  0
ARC
  5
F8
330
1F
100
AcDbEntity
  8
枠_表
  6
CONTINUOUS
 62
     3
100
AcDbCircle
 10
945.1765483011221
 20
206.9907088007619
 30
0.0
 40
306.5546709196609
100
AcDbArc
 50
355.5405243117485
 51
4.673398698656258
  0
ARC
  5
F9
330
1F
100
AcDbEntity
  8
枠_表
  6
CONTINUOUS
 62
     3
100
AcDbCircle
 10
1255.062427479572
 20
249.3310319721741
 30
0.0
 40
17.90024037819024
100
AcDbArc
 50
255.9341994177206
 51
284.5896440601899
  0
ARC
  5
FA
330
1F
100
AcDbEntity
  8
枠_表
  6
CONTINUOUS
 62
     3
100
AcDbCircle
 10
1315.586209109811
 20
225.1178522074588
 30
0.0
 40
56.43698250687272
100
AcDbArc
 50
172.9875214416311
 51
181.4134392789641
  0
ARC
  5
FB
330
1F
100
AcDbEntity
  8
枠_表
  6
CONTINUOUS
 62
     3
100
AcDbCircle
 10
1276.131160350767
 20
212.8913983227892
 30
0.0
 40
20.1292349498589
100
AcDbArc
 50
87.42068310381028
 51
147.4361518966862
  0
ARC
  5
FC
330
1F
100
AcDbEntity
  8
枠_表
  6
CONTINUOUS
 62
     3
100
AcDbCircle
 10
1277.658608612451
 20
218.8806997196991
 30
0.0
 40
14.1332156333331
100
AcDbArc
 50
34.84393737091607
 51
92.5207065423111
  0
ARC
  5
FD
330
1F
100
AcDbEntity
  8
枠_表
  6
CONTINUOUS
 62
     3
100
AcDbCircle
 10
1274.685827302109
 20
216.9428913677291
 30
0.0
 40
17.68049477190885
100
AcDbArc
 50
359.8658335690532
 51
34.49363429411157
  0
ARC
  5
FE
330
1F
100
AcDbEntity
  8
枠_表
  6
CONTINUOUS
 62
     3
100
AcDbCircle
 10
1200.287040181894
 20
213.4973662218204
 30
0.0
 40
92.14213631800438
100
AcDbArc
 50
358.4775281223095
 51
2.117232414210064
  0
ARC
  5
FF
330
1F
100
AcDbEntity
  8
枠_表
  6
CONTINUOUS
 62
     3
100
AcDbCircle
 10
1536.98645049293
 20
194.8601062108708
 30
0.0
 40
245.1249869780733
100
AcDbArc
 50
176.2131780319488
 51
182.7488833337936
  0
ARC
  5
100
330
1F
100
AcDbEntity
  8
枠_表
  6
CONTINUOUS
 62
     3
100
AcDbCircle
 10
1287.865711100263
 20
135.902289288415
 30
0.0
 40
47.39539878190116
100
AcDbArc
 50
84.82155189294139
 51
95.17844810705873
  0
ARC
  5
101
330
1F
100
AcDbEntity
  8
枠_表
  6
CONTINUOUS
 62
     3
100
AcDbCircle
 10
1036.676006797847
 20
202.1627006823689
 30
0.0
 40
247.6463350002882
100
AcDbArc
 50
355.5862454873798
 51
2.816115806820253
  0
ARC
  5
102
330
1F
100
AcDbEntity
  8
枠_表
  6
CONTINUOUS
 62
     3
100
AcDbCircle
 10
1267.417110685664
 20
214.5472708232342
 30
0.0
 40
16.60758761616231
100
AcDbArc
 50
359.2495022237244
 51
32.84055016678327
  0
ARC
  5
103
330
1F
100
AcDbEntity
  8
枠_表
  6
CONTINUOUS
 62
     3
100
AcDbCircle
 10
1272.015021781216
 20
214.8549409708016
 30
0.0
 40
12.77467585570504
100
AcDbArc
 50
42.91644474042847
 51
128.3015542351336
  0
ARC
  5
104
330
1F
100
AcDbEntity
  8
枠_表
  6
CONTINUOUS
 62
     3
100
AcDbCircle
 10
1275.849258355344
 20
213.1192837707067
 30
0.0
 40
16.62598434477196
100
AcDbArc
 50
134.9787476233347
 51
181.2369872983282
  0
ARC
  5
105
330
1F
100
AcDbEntity
  8
枠_表
  6
CONTINUOUS
 62
     3
100
AcDbCircle
 10
1370.113286843042
 20
196.3725220514721
 30
0.0
 40
110.9268148967239
100
AcDbArc
 50
179.8977458165987
 51
186.8855675734268
  0
ARC
  5
106
330
1F
100
AcDbEntity
  8
枠_表
  6
CONTINUOUS
 62
     3
100
AcDbCircle
 10
1254.871317010782
 20
123.7603881767564
 30
0.0
 40
59.53363641627745
100
AcDbArc
 50
85.07099551674689
 51
93.91830029343228
  0
ARC
  5
107
330
1F
100
AcDbEntity
  8
枠_表
  6
CONTINUOUS
 62
     3
100
AcDbCircle
 10
-33708.02313326565
 20
1158.489786838173
 30
0.0
 40
34946.64001890887
100
AcDbArc
 50
358.4169008257799
 51
358.4423418242109
  0
ARC
  5
108
330
1F
100
AcDbEntity
  8
枠_表
  6
CONTINUOUS
 62
     3
100
AcDbCircle
 10
1212.486703615272
 20
200.6754734295293
 30
0.0
 40
14.90372405996874
100
AcDbArc
 50
278.3335103000368
 51
329.1221464187299
  0
LINE
  5
109
330
1F
100
AcDbEntity
  8
枠_表
  6
CONTINUOUS
 62
     3
100
AcDbLine
 10
1212.044648600261
 20
185.9291149463115
 30
0.0
 11
1214.646773600262
 21
185.9291149463115
 31
0.0
  0
ARC
  5
10A
330
1F
100
AcDbEntity
  8
枠_表
  6
CONTINUOUS
 62
     3
100
AcDbCircle
 10
1213.043948023696
 20
194.6192070146662
 30
0.0
 40
8.747359572704955
100
AcDbArc
 50
183.0707787095794
 51
263.4402016072427
  0
LINE
  5
10B
330
1F
100
AcDbEntity
  8
枠_表
  6
CONTINUOUS
 62
     3
100
AcDbLine
 10
1204.309148600259
 20
197.0868649463091
 30
0.0
 11
1204.309148600259
 21
194.1506149463112
 31
0.0
  0
ARC
  5
10C
330
1F
100
AcDbEntity
  8
枠_表
  6
CONTINUOUS
 62
     3
100
AcDbCircle
 10
1213.60528002606
 20
195.8711218570784
 30
0.0
 40
9.375291501855795
100
AcDbArc
 50
115.7403688633493
 51
172.5491744442191
  0
ARC
  5
10D
330
1F
100
AcDbEntity
  8
枠_表
  6
CONTINUOUS
 62
     3
100
AcDbCircle
 10
1221.849097764042
 20
178.2478294001976
 30
0.0
 40
28.83098679232812
100
AcDbArc
 50
98.71271710191789
 51
115.2874718053599
  0
ARC
  5
10E
330
1F
100
AcDbEntity
  8
枠_表
  6
CONTINUOUS
 62
     3
100
AcDbCircle
 10
1208.408414903444
 20
268.1252071740744
 30
0.0
 40
62.04610222041025
100
AcDbArc
 50
278.4088456599976
 51
286.1851416003176
  0
ARC
  5
10F
330
1F
100
AcDbEntity
  8
枠_表
  6
CONTINUOUS
 62
     3
100
AcDbCircle
 10
1171.636230018725
 20
329.6126355783338
 30
0.0
 40
66.01138250235698
100
AcDbArc
 50
261.7986203004403
 51
278.6803384946418
  0
ARC
  5
110
330
1F
100
AcDbEntity
  8
枠_表
  6
CONTINUOUS
 62
     3
100
AcDbCircle
 10
2154.813797120534
 20
217.9440541426277
 30
0.0
 40
974.3211367025408
100
AcDbArc
 50
177.2695926307304
 51
181.4833117237826
  0
ARC
  5
111
330
1F
100
AcDbEntity
  8
枠_表
  6
CONTINUOUS
 62
     3
100
AcDbCircle
 10
1146.734904268979
 20
191.944703532015
 30
0.0
 40
34.09312894671467
100
AcDbArc
 50
335.1860595856123
 51
1.308075913059364
  0
ARC
  5
112
330
1F
100
AcDbEntity
  8
枠_表
  6
CONTINUOUS
 62
     3
100
AcDbCircle
 10
1155.584599183207
 20
190.4075277940228
 30
0.0
 40
25.52092032294173
100
AcDbArc
 50
286.2966123578915
 51
329.973223283839
  0
ARC
  5
113
330
1F
100
AcDbEntity
  8
枠_表
  6
CONTINUOUS
 62
     3
100
AcDbCircle
 10
1150.643362480385
 20
197.5834729373071
 30
0.0
 40
33.90512116232043
100
AcDbArc
 50
277.0901027239701
 51
290.9134154817058
  0
LINE
  5
114
330
1F
100
AcDbEntity
  8
枠_表
  6
CONTINUOUS
 62
     3
100
AcDbLine
 10
1154.828273600261
 20
163.9376149463101
 30
0.0
 11
1152.975398600261
 21
169.577239946309
 31
0.0
  0
ARC
  5
115
330
1F
100
AcDbEntity
  8
枠_表
  6
CONTINUOUS
 62
     3
100
AcDbCircle
 10
1147.2520934532
 20
187.0139789168968
 30
0.0
 40
18.35200500585038
100
AcDbArc
 50
288.1715191042997
 51
307.8537826235693
  0
ARC
  5
116
330
1F
100
AcDbEntity
  8
枠_表
  6
CONTINUOUS
 62
     3
100
AcDbCircle
 10
1150.639107974788
 20
180.5111277709364
 30
0.0
 40
11.2165377829595
100
AcDbArc
 50
314.592391474832
 51
344.9374073189123
  0
ARC
  5
117
330
1F
100
AcDbEntity
  8
枠_表
  6
CONTINUOUS
 62
     3
100
AcDbCircle
 10
420.5078281847822
 20
225.7796003758244
 30
0.0
 40
742.7100645598513
100
AcDbArc
 50
356.8390243485978
 51
2.971133813187157
  0
ARC
  5
118
330
1F
100
AcDbEntity
  8
枠_表
  6
CONTINUOUS
 62
     3
100
AcDbCircle
 10
1057.715934784447
 20
190.1014142884173
 30
0.0
 40
104.505225747009
100
AcDbArc
 50
353.1274757312911
 51
357.106204490141
  0
LINE
  5
119
330
1F
100
AcDbEntity
  8
枠_表
  6
CONTINUOUS
 62
     3
100
AcDbLine
 10
1200.259148600263
 20
227.0467399463098
 30
0.0
 11
1200.259148600263
 21
221.5792399463112
 31
0.0
  0
ARC
  5
11A
330
1F
100
AcDbEntity
  8
枠_表
  6
CONTINUOUS
 62
     3
100
AcDbCircle
 10
1213.238042655834
 20
214.9335287786823
 30
0.0
 40
13.42321657765079
100
AcDbArc
 50
103.4267945469744
 51
150.3242613737993
  0
ARC
  5
11B
330
1F
100
AcDbEntity
  8
枠_表
  6
CONTINUOUS
 62
     3
100
AcDbCircle
 10
1214.219864370131
 20
212.9075745769524
 30
0.0
 40
15.62929101996345
100
AcDbArc
 50
77.23143261361693
 51
105.203415964315
  0
ARC
  5
11C
330
1F
100
AcDbEntity
  8
枠_表
  6
CONTINUOUS
 62
     3
100
AcDbCircle
 10
1214.892511923039
 20
217.9112829230132
 30
0.0
 40
10.61019807939003
100
AcDbArc
 50
3.537639967999379
 51
74.8013566619203
  0
ARC
  5
11D
330
1F
100
AcDbEntity
  8
枠_表
  6
CONTINUOUS
 62
     3
100
AcDbCircle
 10
1206.008081035371
 20
215.8844805562694
 30
0.0
 40
19.65815626528382
100
AcDbArc
 50
353.0315250986587
 51
7.839947970678348
  0
ARC
  5
11E
330
1F
100
AcDbEntity
  8
枠_表
  6
CONTINUOUS
 62
     3
100
AcDbCircle
 10
1222.984643351386
 20
213.9766998756431
 30
0.0
 40
2.580882423421965
100
AcDbArc
 50
291.5204897073511
 51
349.3445900274031
  0
ARC
  5
11F
330
1F
100
AcDbEntity
  8
枠_表
  6
CONTINUOUS
 62
     3
100
AcDbCircle
 10
1217.014957517021
 20
225.9611044033113
 30
0.0
 40
15.96170002909176
100
AcDbArc
 50
282.7195832898965
 51
295.6781112778079
  0
ARC
  5
120
330
1F
100
AcDbEntity
  8
枠_表
  6
CONTINUOUS
 62
     3
100
AcDbCircle
 10
1178.779514998253
 20
396.1803044662827
 30
0.0
 40
190.4223614055573
100
AcDbArc
 50
278.8438342053764
 51
282.6649181367123
  0
ARC
  5
121
330
1F
100
AcDbEntity
  8
枠_表
  6
CONTINUOUS
 62
     3
100
AcDbCircle
 10
1212.145520801753
 20
188.941272222429
 30
0.0
 40
19.5140492547738
100
AcDbArc
 50
102.0988446293839
 51
129.1556705448828
  0
ARC
  5
122
330
1F
100
AcDbEntity
  8
枠_表
  6
CONTINUOUS
 62
     3
100
AcDbCircle
 10
1206.595856854906
 20
195.954949875121
 30
0.0
 40
10.57193055836883
100
AcDbArc
 50
129.8344892359069
 51
168.4089447024628
  0
ARC
  5
123
330
1F
100
AcDbEntity
  8
枠_表
  6
CONTINUOUS
 62
     3
100
AcDbCircle
 10
1208.861252785884
 20
194.6638068821608
 30
0.0
 40
13.07564058883004
100
AcDbArc
 50
164.8589457925044
 51
187.8495628504518
  0
ARC
  5
124
330
1F
100
AcDbEntity
  8
枠_表
  6
CONTINUOUS
 62
     3
100
AcDbCircle
 10
1207.637299937712
 20
194.1022532359295
 30
0.0
 40
11.79288520689435
100
AcDbArc
 50
185.9586126338419
 51
224.0091989319859
  0
ARC
  5
125
330
1F
100
AcDbEntity
  8
枠_表
  6
CONTINUOUS
 62
     3
100
AcDbCircle
 10
1208.18444295592
 20
194.7166657158903
 30
0.0
 40
12.61343486634549
100
AcDbArc
 50
224.289750990011
 51
255.6505938786759
  0
ARC
  5
126
330
1F
100
AcDbEntity
  8
枠_表
  6
CONTINUOUS
 62
     3
100
AcDbCircle
 10
1207.939219610899
 20
191.5445241581108
 30
0.0
 40
9.49534248137679
100
AcDbArc
 50
252.3384873625213
 51
268.8069976857606
  0
LINE
  5
127
330
1F
100
AcDbEntity
  8
枠_表
  6
CONTINUOUS
 62
     3
100
AcDbLine
 10
1207.741523600261
 20
182.0512399463121
 30
0.0
 11
1211.852273600261
 21
182.0512399463121
 31
0.0
  0
ARC
  5
128
330
1F
100
AcDbEntity
  8
枠_表
  6
CONTINUOUS
 62
     3
100
AcDbCircle
 10
1209.991956880438
 20
202.430103938525
 30
0.0
 40
20.46359880155898
100
AcDbArc
 50
275.2158792069686
 51
319.2336424873511
  0
ARC
  5
129
330
1F
100
AcDbEntity
  8
枠_表
  6
CONTINUOUS
 62
     3
100
AcDbCircle
 10
1232.747334084134
 20
189.9738891398579
 30
0.0
 40
7.31302701014583
100
AcDbArc
 50
187.1167640402297
 51
216.4860549324747
  0
ARC
  5
12A
330
1F
100
AcDbEntity
  8
枠_表
  6
CONTINUOUS
 62
     3
100
AcDbCircle
 10
1231.940660262606
 20
189.5051184792953
 30
0.0
 40
6.38654325930597
100
AcDbArc
 50
217.4081478714985
 51
264.8118660441384
  0
ARC
  5
12B
330
1F
100
AcDbEntity
  8
枠_表
  6
CONTINUOUS
 62
     3
100
AcDbCircle
 10
1234.349383792224
 20
195.969676923454
 30
0.0
 40
12.84810930031341
100
AcDbArc
 50
271.2220539293239
 51
292.8159509797653
  0
LINE
  5
12C
330
1F
100
AcDbEntity
  8
枠_表
  6
CONTINUOUS
 62
     3
100
AcDbLine
 10
1231.363148600262
 20
183.1447399463104
 30
0.0
 11
1234.62339860026
 21
183.1447399463104
 31
0.0
  0
LINE
  5
12D
330
1F
100
AcDbEntity
  8
枠_表
  6
CONTINUOUS
 62
     3
100
AcDbLine
 10
1239.331523600261
 20
184.126864946312
 30
0.0
 11
1239.331523600261
 21
186.485989946309
 31
0.0
  0
ARC
  5
12E
330
1F
100
AcDbEntity
  8
枠_表
  6
CONTINUOUS
 62
     3
100
AcDbCircle
 10
1237.23631176908
 20
190.5091783111618
 30
0.0
 40
4.5360728870472
100
AcDbArc
 50
243.6191685566582
 51
297.5097757939563
  0
ARC
  5
12F
330
1F
100
AcDbEntity
  8
枠_表
  6
CONTINUOUS
 62
     3
100
AcDbCircle
 10
1237.773598417291
 20
190.2454393170694
 30
0.0
 40
4.577830246610835
100
AcDbArc
 50
179.9117548191414
 51
236.1065985968857
  0
ARC
  5
130
330
1F
100
AcDbEntity
  8
枠_表
  6
CONTINUOUS
 62
     3
100
AcDbCircle
 10
1913.475203758448
 20
197.8985765897608
 30
0.0
 40
680.3223983798493
100
AcDbArc
 50
178.2526643324597
 51
180.6439560401927
  0
ARC
  5
131
330
1F
100
AcDbEntity
  8
枠_表
  6
CONTINUOUS
 62
     3
100
AcDbCircle
 10
1218.105940890803
 20
217.5287438959981
 30
0.0
 40
15.40356112671885
100
AcDbArc
 50
4.148222840814693
 51
92.36000944257292
  0
ARC
  5
132
330
1F
100
AcDbEntity
  8
枠_表
  6
CONTINUOUS
 62
     3
100
AcDbCircle
 10
1216.902798619213
 20
206.4250933390315
 30
0.0
 40
26.50025272990596
100
AcDbArc
 50
88.77000393305703
 51
128.9068631829044
  0
TEXT
  5
134
330
1F
100
AcDbEntity
  8
枠_表
  6
CONTINUOUS
 62
     2
100
AcDbText
 10
1384.500000000386
 20
174.7500000000014
 30
0.0
 40
50.625
  1
ジャニス工業株式会社
 41
1.025641025641026
  7
EXCADTTF1
 72
     5
 11
2059.500000000387
 21
174.7500000000014
 31
0.0
100
AcDbText
  0
HATCH
  5
135
330
1F
100
AcDbEntity
  8
枠_表
  6
CONTINUOUS
 62
     3
100
AcDbHatch
 10
0.0
 20
0.0
 30
0.0
210
0.0
220
0.0
230
1.0
  2
SOLID
 70
     1
 71
     1
 91
        2
 92
        3
 72
     1
 73
     1
 93
       27
 10
1200.259148600259
 20
227.0467399463097
 42
-0.1769427732109284
 10
1200.259148600263
 20
227.0467399463098
 42
0.0
 10
1200.259148600263
 20
221.5792399463112
 42
0.0
 10
1201.575398600262
 20
221.5792399463107
 42
-0.207533601427307
 10
1210.12113418474
 20
227.9898538693564
 42
-0.1226604740888933
 10
1217.674148600262
 20
228.1503649463112
 42
-0.3213715781137954
 10
1225.482492033699
 20
218.5659771567722
 42
-0.064704004662446
 10
1225.521023600259
 20
213.4994899463109
 42
-0.257798906330806
 10
1223.931398600263
 20
211.57573994631
 42
-0.056602577721096
 10
1220.52939860026
 20
210.3911149463123
 42
-0.0166741689362636
 10
1208.055398600261
 20
208.0218649463094
 42
0.1186092302783404
 10
1199.823773600259
 20
204.0731149463118
 42
0.1699204224386695
 10
1196.239523600261
 20
198.07911494631
 42
0.1006533494296199
 10
1195.908130019759
 20
192.8780332643591
 42
0.1675695228968024
 10
1199.155523600263
 20
185.9088649463119
 42
0.1376980079804242
 10
1205.05839860026
 20
182.4967399463105
 42
0.0719813663796923
 10
1207.741523600261
 20
182.0512399463121
 42
0.0
 10
1211.852273600262
 20
182.0512399463122
 42
0.1944607457809085
 10
1225.490648600263
 20
189.0678649463093
 42
0.1288538183665954
 10
1226.867648600261
 20
185.6253649463115
 42
0.2098387395261546
 10
1231.363148600262
 20
183.1447399463104
 42
0.0
 10
1234.623398600261
 20
183.1244899463105
 42
0.0945009641609563
 10
1239.331523600261
 20
184.126864946312
 42
0.0
 10
1239.331523600261
 20
186.4859899463093
 42
-0.2395739894657535
 10
1235.220773600262
 20
186.445489946309
 42
-0.2502312110031057
 10
1233.195773600258
 20
190.252489946313
 42
-0.0104343570771765
 10
1233.46914860026
 20
218.6429899463118
 42
0.4051015674140716
 97
        0
 92
        3
 72
     1
 73
     1
 93
        8
 10
1225.70327360026
 20
208.5382399463092
 42
-0.0339435190873666
 10
1225.703273600258
 20
208.5382399462927
 42
-0.0001110072973599
 10
1225.27802360026
 20
193.026739946309
 42
-0.2253076310552528
 10
1214.646773600262
 20
185.9291149463115
 42
0.0
 10
1212.044648600259
 20
185.9291149463098
 42
-0.3657967558150132
 10
1204.309148600259
 20
194.1506149463112
 42
0.0
 10
1204.30914860026
 20
197.0868649463121
 42
-0.2530797830369341
 10
1209.533648600262
 20
204.3161149463117
 42
-0.0724473624720066
 97
        0
 75
     0
 76
     1
 98
        1
 10
0.0
 20
0.0
  0
HATCH
  5
136
330
1F
100
AcDbEntity
  8
枠_表
  6
CONTINUOUS
 62
     3
100
AcDbHatch
 10
0.0
 20
0.0
 30
0.0
210
0.0
220
0.0
230
1.0
  2
SOLID
 70
     1
 71
     1
 91
        1
 92
        3
 72
     1
 73
     1
 93
       30
 10
1361.601023600257
 20
230.0032399463128
 42
-0.0009362235736497
 10
1361.60102360026
 20
230.0032399463103
 42
0.0681165430304653
 10
1359.145640230483
 20
222.6423649463095
 42
0.0
 10
1349.896523600262
 20
228.9704899463122
 42
-0.302112590907374
 10
1349.896523600262
 20
228.9704899463095
 42
0.0
 10
1340.571398600261
 20
221.822239946312
 42
-0.3704245237568778
 10
1340.571398600261
 20
221.8222399463116
 42
0.0
 10
1341.05739860026
 20
217.0432399463103
 42
-0.0262822419456939
 10
1346.80839860026
 20
212.4464899463116
 42
-0.180060563604375
 10
1355.981648600261
 20
209.6519899463096
 42
-0.0298130817160724
 10
1355.981648600261
 20
209.6519899463108
 42
-0.3153987453686078
 10
1364.436023600262
 20
199.9826149463104
 42
0.0
 10
1364.385398600261
 20
195.6592399463116
 42
-0.3510306079065168
 10
1348.084148600259
 20
181.990489946312
 42
0.0
 10
1343.32539860026
 20
181.9904899463108
 42
-0.1053356344842436
 10
1332.79539860026
 20
185.0279899463112
 42
0.1188608286962634
 10
1334.719148600262
 20
192.7229899463123
 42
0.0
 10
1346.26164860026
 20
185.6354899463113
 42
-0.2447573632916039
 10
1346.26164860026
 20
185.6354899463111
 42
0.0
 10
1357.399148600261
 20
193.4317399463096
 42
-0.3734162676407277
 10
1357.399148600261
 20
193.43173994631
 42
0.0
 10
1353.359273600261
 20
201.2178649463096
 42
-0.261219770190848
 10
1343.932898600258
 20
204.6401149463114
 42
-0.0572747914118363
 10
1343.932898600262
 20
204.6401149463095
 42
-0.1189658875692221
 10
1336.440398600261
 20
209.0343649463096
 42
-0.2005226878639636
 10
1333.301648600259
 20
216.1117399463433
 42
0.0
 10
1333.251023600261
 20
218.794864946309
 42
-0.2622894489606957
 10
1341.300398600261
 20
231.0967399463106
 42
-0.0988461274137808
 10
1348.833398600261
 20
232.909114946309
 42
0.0
 10
1351.62789860026
 20
232.9091149463105
 42
-0.0920156312561188
 97
        0
 75
     0
 76
     1
 98
        1
 10
0.0
 20
0.0
  0
HATCH
  5
137
330
1F
100
AcDbEntity
  8
枠_表
  6
CONTINUOUS
 62
     3
100
AcDbHatch
 10
0.0
 20
0.0
 30
0.0
210
0.0
220
0.0
230
1.0
  2
SOLID
 70
     1
 71
     1
 91
        2
 92
        1
 93
        1
 72
     2
 10
1314.428271057888
 20
249.8753200310557
 40
5.358501700154826
 50
0.0
 51
360.0
 73
     1
 97
        0
 92
        3
 72
     1
 73
     1
 93
        3
 10
1309.639523600259
 20
232.0484899463118
 42
0.1200283885712921
 10
1318.954523600257
 20
183.0941149463105
 42
-0.0401820615762149
 10
1309.649648600261
 20
183.0637399463094
 42
-0.0237521668114666
 97
        0
 75
     0
 76
     1
 98
        1
 10
0.0
 20
0.0
  0
HATCH
  5
138
330
1F
100
AcDbEntity
  8
枠_表
  6
CONTINUOUS
 62
     3
100
AcDbHatch
 10
0.0
 20
0.0
 30
0.0
210
0.0
220
0.0
230
1.0
  2
SOLID
 70
     1
 71
     1
 91
        1
 92
        3
 72
     1
 73
     1
 93
       16
 10
1250.80314860026
 20
183.1548649463109
 42
-0.0386228372648426
 10
1250.712023600258
 20
231.967489946311
 42
-0.0398707891902887
 10
1259.571398600261
 20
232.0079899463121
 42
-0.1256886216044368
 10
1259.166398600262
 20
223.725739946312
 42
-0.0367815758121429
 10
1259.16639860026
 20
223.7257399463099
 42
-0.268021535028829
 10
1277.037023600262
 20
233.0002399463111
 42
-0.2571134422124888
 10
1289.25789860026
 20
226.9556149463115
 42
-0.1522526366014298
 10
1292.366273600261
 20
216.9014899463101
 42
-0.0158825412051521
 10
1292.143523600258
 20
183.1042399463118
 42
-0.0285251271418421
 10
1283.587898600263
 20
183.1042399463092
 42
-0.0452212723224612
 10
1284.023273600261
 20
214.3297399463106
 42
-0.0315567291532142
 10
1281.37052360026
 20
223.5536149463122
 42
-0.1476272403790709
 10
1264.097273600262
 20
224.8799899463091
 42
-0.3908144705745794
 10
1259.227148600259
 20
212.760364946309
 42
-0.2046259928850854
 10
1259.227148600259
 20
212.7603649463106
 42
0.0
 10
1259.986523600262
 20
183.0738649463112
 42
-0.0304995761723369
 97
        0
 75
     0
 76
     1
 98
        1
 10
0.0
 20
0.0
  0
HATCH
  5
139
330
1F
100
AcDbEntity
  8
枠_表
  6
CONTINUOUS
 62
     3
100
AcDbHatch
 10
0.0
 20
0.0
 30
0.0
210
0.0
220
0.0
230
1.0
  2
SOLID
 70
     1
 71
     1
 91
        1
 92
        3
 72
     1
 73
     1
 93
       10
 10
1162.087898600261
 20
184.82548994631
 42
-0.017362223501556
 10
1162.21952360026
 20
264.2763649463099
 42
-0.0267627618865285
 10
1162.219523600259
 20
264.2763649463111
 42
0.0737939047395297
 10
1181.598773600258
 20
264.3573649463108
 42
0.0183878899657109
 10
1180.819148600262
 20
192.7229899463116
 42
-0.1144749489451909
 10
1177.680398600259
 20
177.636739946309
 42
-0.1929163439413163
 10
1162.746023600263
 20
165.9119899463099
 42
-0.0603888289562337
 10
1154.828273600261
 20
163.9376149463101
 42
0.0
 10
1152.975398600259
 20
169.5772399463091
 42
0.0860918333465722
 10
1158.51377360026
 20
172.52361494631
 42
0.1331843103855141
 97
        0
 75
     0
 76
     1
 98
        1
 10
0.0
 20
0.0
  0
LINE
  5
13A
330
1F
100
AcDbEntity
  8
枠_表
  6
CONTINUOUS
 62
     7
100
AcDbLine
 10
261.000000000378
 20
139.4999999999993
 30
0.0
 11
2991.00000000038
 21
139.4999999999993
 31
0.0
  0
TEXT
  5
13B
330
1F
100
AcDbEntity
  8
枠_表
  6
CONTINUOUS
 62
     2
100
AcDbText
 10
1756.500000000427
 20
4153.125001907346
 30
0.0
 40
59.99999618530273
  1
ＬＵ０７５２ＣＳＤ１Ｅ
 41
0.7080769098966542
  7
EXCADSTD
 72
     5
 11
2150.9999675755
 21
4153.125001907346
 31
0.0
100
AcDbText
  0
TEXT
  5
13C
330
1F
100
AcDbEntity
  8
枠_表
  6
CONTINUOUS
 62
     2
100
AcDbText
 10
1756.500000000427
 20
4078.875001907346
 30
0.0
 40
59.99999618530273
  1
ＬＵ０７５２ＣＳＤ１Ｙ
 41
0.7080769098966542
  7
EXCADSTD
 72
     5
 11
2150.9999675755
 21
4078.875001907346
 31
0.0
100
AcDbText
  0
TEXT
  5
13D
330
1F
100
AcDbEntity
  8
枠_表
  6
CONTINUOUS
 62
     2
100
AcDbText
 10
1206.000000000385
 20
402.000001907348
 30
0.0
 40
59.99999618530273
  1
７５０ｍｍ幅
 41
0.9999999872843416
  7
EXCADSTD
 72
     5
 11
1505.999977112201
 21
402.000001907348
 31
0.0
100
AcDbText
  0
TEXT
  5
13E
330
1F
100
AcDbEntity
  8
枠_表
  6
CONTINUOUS
 62
     2
100
AcDbText
 10
2209.500000000228
 20
4077.375001907343
 30
0.0
 40
59.99999618530273
  1
洗面化粧台（寒冷地形）
 41
0.9692307555369835
  7
EXCADSTD
 72
     5
 11
2749.499958038558
 21
4077.375001907343
 31
0.0
100
AcDbText
  0
TEXT
  5
13F
330
1F
100
AcDbEntity
  8
枠_表
  6
CONTINUOUS
 62
     2
100
AcDbText
 10
2206.500000715675
 20
342.0000038146966
 30
0.0
 40
74.99999237060547
  1
ＬＵ０７５２ＣＳ型
 41
0.7818868115311168
  7
EXCADSTD
 72
     5
 11
2650.4999663834
 21
342.0000038146966
 31
0.0
100
AcDbText
  0
TEXT
  5
140
330
1F
100
AcDbEntity
  8
枠_表
  6
CONTINUOUS
 62
     2
100
AcDbText
 10
1741.499999998991
 20
3333.000003814705
 30
0.0
 40
59.99999618530273
  1
※洗面化粧台には、床排水用トラップを付属
 41
1.036764705882353
  7
EXCADSTD
 72
     5
 11
2798.999932764951
 21
3333.000003814705
 31
0.0
100
AcDbText
  0
TEXT
  5
141
330
1F
100
AcDbEntity
  8
枠_表
  6
CONTINUOUS
 62
     2
100
AcDbText
 10
1741.499999998991
 20
3273.000007629403
 30
0.0
 40
59.99999618530273
  1
※洗面化粧台には、止水栓は含まれない
 41
1.038551401869159
  7
EXCADSTD
 72
     5
 11
2693.999939440671
 21
3273.000007629403
 31
0.0
100
AcDbText
  0
TEXT
  5
142
330
1F
100
AcDbEntity
  8
枠_表
  6
CONTINUOUS
 62
     2
100
AcDbText
 10
1741.499999998991
 20
3213.0000114441
 30
0.0
 40
59.99999618530273
  1
※湯水混合水栓は、節湯Ｃ１形、吐水口引出式
 41
1.036
  7
EXCADSTD
 72
     5
 11
2851.499929427091
 21
3213.0000114441
 31
0.0
100
AcDbText
  0
TEXT
  5
143
330
1F
100
AcDbEntity
  8
枠_表
  6
CONTINUOUS
 62
     2
100
AcDbText
 10
1741.49999999898
 20
3914.250003814705
 30
0.0
 40
59.99999618530273
  1
※止水栓（別途手配）
 41
1.052966101694915
  7
EXCADSTD
 72
     5
 11
2273.999966143542
 21
3914.250003814705
 31
0.0
100
AcDbText
  0
TEXT
  5
144
330
1F
100
AcDbEntity
  8
枠_表
  6
CONTINUOUS
 62
     2
100
AcDbText
 10
2841.000000000436
 20
3578.625001907347
 30
0.0
 40
59.99999618530273
  1
１
 41
1.120000000000004
  7
EXCADSTD
 72
     5
 11
2888.999996948678
 21
3578.625001907347
 31
0.0
100
AcDbText
  0
TEXT
  5
145
330
1F
100
AcDbEntity
  8
枠_表
  6
CONTINUOUS
 62
     2
100
AcDbText
 10
2841.000000000436
 20
3465.750001907345
 30
0.0
 40
59.99999618530273
  1
１
 41
1.120000000000004
  7
EXCADSTD
 72
     5
 11
2888.999996948678
 21
3465.750001907345
 31
0.0
100
AcDbText
  0
TEXT
  5
146
330
1F
100
AcDbEntity
  8
枠_表
  6
CONTINUOUS
 62
     2
100
AcDbText
 10
2284.50000000023
 20
3505.725001907345
 30
0.0
 40
59.99999618530273
  1
配管アダプター
 41
0.990243889413228
  7
EXCADSTD
 72
     5
 11
2632.499973297349
 21
3505.725001907345
 31
0.0
100
AcDbText
  0
TEXT
  5
147
330
1F
100
AcDbEntity
  8
枠_表
  6
CONTINUOUS
 62
     2
100
AcDbText
 10
2284.50000000023
 20
3431.475001907348
 30
0.0
 40
59.99999618530273
  1
（ＶＰ５０・ＶＵ５０用）
 41
0.8183098359622852
  7
EXCADSTD
 72
     5
 11
2782.499954223862
 21
3431.475001907348
 31
0.0
100
AcDbText
  0
TEXT
  5
148
330
1F
100
AcDbEntity
  8
枠_表
  6
CONTINUOUS
 62
     2
100
AcDbText
 10
1746.000000000426
 20
3654.375001907346
 30
0.0
 40
59.99999618530273
  1
※壁排水用部材（別途手配）
 41
1.045454545454545
  7
EXCADSTD
 72
     5
 11
2435.999956131407
 21
3654.375001907346
 31
0.0
100
AcDbText
  0
LINE
  5
149
330
1F
100
AcDbEntity
  8
枠_表
  6
CONTINUOUS
 62
     6
100
AcDbLine
 10
1746.000000000436
 20
3899.249999999998
 30
0.0
 11
2946.000000000438
 21
3899.249999999998
 31
0.0
  0
LINE
  5
14A
330
1F
100
AcDbEntity
  8
枠_表
  6
CONTINUOUS
 62
     6
100
AcDbLine
 10
1746.000000000436
 20
3750.749999999997
 30
0.0
 11
2946.000000000438
 21
3750.749999999997
 31
0.0
  0
LINE
  5
14B
330
1F
100
AcDbEntity
  8
枠_表
  6
CONTINUOUS
 62
     6
100
AcDbLine
 10
1746.000000000436
 20
3824.999999999997
 30
0.0
 11
2946.000000000438
 21
3824.999999999997
 31
0.0
  0
LINE
  5
14C
330
1F
100
AcDbEntity
  8
枠_表
  6
CONTINUOUS
 62
     6
100
AcDbLine
 10
1746.000000000436
 20
3750.75
 30
0.0
 11
1746.000000000436
 21
3899.249999999998
 31
0.0
  0
LINE
  5
14D
330
1F
100
AcDbEntity
  8
枠_表
  6
CONTINUOUS
 62
     6
100
AcDbLine
 10
2271.000000000436
 20
3750.749999999997
 30
0.0
 11
2271.000000000436
 21
3899.249999999998
 31
0.0
  0
LINE
  5
14E
330
1F
100
AcDbEntity
  8
枠_表
  6
CONTINUOUS
 62
     6
100
AcDbLine
 10
2796.000000000438
 20
3750.749999999997
 30
0.0
 11
2796.000000000438
 21
3899.249999999998
 31
0.0
  0
LINE
  5
14F
330
1F
100
AcDbEntity
  8
枠_表
  6
CONTINUOUS
 62
     6
100
AcDbLine
 10
2946.000000000438
 20
3750.75
 30
0.0
 11
2946.000000000438
 21
3899.249999999998
 31
0.0
  0
LINE
  5
150
330
1F
100
AcDbEntity
  8
枠_表
  6
CONTINUOUS
 62
     6
100
AcDbLine
 10
1746.000000000436
 20
3422.999999999998
 30
0.0
 11
2946.000000000438
 21
3422.999999999998
 31
0.0
  0
LINE
  5
151
330
1F
100
AcDbEntity
  8
枠_表
  6
CONTINUOUS
 62
     6
100
AcDbLine
 10
1746.000000000436
 20
3571.5
 30
0.0
 11
2946.000000000438
 21
3571.5
 31
0.0
  0
LINE
  5
152
330
1F
100
AcDbEntity
  8
枠_表
  6
CONTINUOUS
 62
     6
100
AcDbLine
 10
1746.000000000436
 20
3645.749999999997
 30
0.0
 11
2946.000000000438
 21
3645.749999999997
 31
0.0
  0
LINE
  5
153
330
1F
100
AcDbEntity
  8
枠_表
  6
CONTINUOUS
 62
     6
100
AcDbLine
 10
2271.000000000436
 20
3422.999999999998
 30
0.0
 11
2271.000000000436
 21
3645.749999999997
 31
0.0
  0
LINE
  5
154
330
1F
100
AcDbEntity
  8
枠_表
  6
CONTINUOUS
 62
     6
100
AcDbLine
 10
2796.000000000438
 20
3422.999999999998
 30
0.0
 11
2796.000000000438
 21
3645.749999999997
 31
0.0
  0
LINE
  5
155
330
1F
100
AcDbEntity
  8
枠_表
  6
CONTINUOUS
 62
     6
100
AcDbLine
 10
2946.000000000438
 20
3422.999999999998
 30
0.0
 11
2946.000000000438
 21
3645.749999999997
 31
0.0
  0
TEXT
  5
156
330
1F
100
AcDbEntity
  8
枠_表
  6
CONTINUOUS
 62
     2
100
AcDbText
 10
2284.50000000023
 20
3577.125001907345
 30
0.0
 40
59.99999618530273
  1
Ｌ管
 41
1.049923628946709
  7
EXCADSTD
 72
     5
 11
2383.492793007127
 21
3577.125001907345
 31
0.0
100
AcDbText
  0
TEXT
  5
157
330
1F
100
AcDbEntity
  8
枠_表
  6
CONTINUOUS
 62
     2
100
AcDbText
 10
2841.000000000436
 20
3832.875001907347
 30
0.0
 40
59.99999618530273
  1
２
 41
1.120000000000004
  7
EXCADSTD
 72
     5
 11
2888.999996948678
 21
3832.875001907347
 31
0.0
100
AcDbText
  0
TEXT
  5
158
330
1F
100
AcDbEntity
  8
枠_表
  6
CONTINUOUS
 62
     2
100
AcDbText
 10
2284.50000000023
 20
3833.625001907347
 30
0.0
 40
59.99999618530273
  1
床給水用止水栓
 41
0.990243889413228
  7
EXCADSTD
 72
     5
 11
2632.499973297349
 21
3833.625001907347
 31
0.0
100
AcDbText
  0
TEXT
  5
159
330
1F
100
AcDbEntity
  8
枠_表
  6
CONTINUOUS
 62
     2
100
AcDbText
 10
2841.000000000436
 20
3759.375001907346
 30
0.0
 40
59.99999618530273
  1
２
 41
1.120000000000004
  7
EXCADSTD
 72
     5
 11
2888.999996948678
 21
3759.375001907346
 31
0.0
100
AcDbText
  0
TEXT
  5
15A
330
1F
100
AcDbEntity
  8
枠_表
  6
CONTINUOUS
 62
     2
100
AcDbText
 10
2281.500000000229
 20
3759.375001907346
 30
0.0
 40
59.99999618530273
  1
壁給水用止水栓
 41
0.990243889413228
  7
EXCADSTD
 72
     5
 11
2629.499973297348
 21
3759.375001907346
 31
0.0
100
AcDbText
  0
TEXT
  5
15B
330
1F
100
AcDbEntity
  8
枠_表
  6
CONTINUOUS
 62
     2
100
AcDbText
 10
2841.000000000484
 20
4002.300001907348
 30
0.0
 40
59.99999618530273
  1
１
 41
1.120000000000004
  7
EXCADSTD
 72
     5
 11
2888.999996948726
 21
4002.300001907348
 31
0.0
100
AcDbText
  0
LINE
  5
15C
330
1F
100
AcDbEntity
  8
枠_表
  6
CONTINUOUS
 62
     6
100
AcDbLine
 10
2946.000000000481
 20
3996.749999999994
 30
0.0
 11
1746.00000000048
 21
3996.749999999994
 31
0.0
  0
LINE
  5
15D
330
1F
100
AcDbEntity
  8
枠_表
  6
CONTINUOUS
 62
     6
100
AcDbLine
 10
1746.000000000436
 20
3996.75
 30
0.0
 11
1746.000000000436
 21
4294.5
 31
0.0
  0
LINE
  5
15E
330
1F
100
AcDbEntity
  8
枠_表
  6
CONTINUOUS
 62
     6
100
AcDbLine
 10
2196.000000000436
 20
4294.499999999997
 30
0.0
 11
2196.000000000436
 21
3996.749999999994
 31
0.0
  0
LINE
  5
15F
330
1F
100
AcDbEntity
  8
枠_表
  6
CONTINUOUS
 62
     6
100
AcDbLine
 10
2796.000000000436
 20
3996.749999999994
 30
0.0
 11
2796.000000000436
 21
4294.499999999997
 31
0.0
  0
LINE
  5
160
330
1F
100
AcDbEntity
  8
枠_表
  6
CONTINUOUS
 62
     6
100
AcDbLine
 10
2946.000000000436
 20
3996.75
 30
0.0
 11
2946.000000000436
 21
4294.5
 31
0.0
  0
TEXT
  5
161
330
1F
100
AcDbEntity
  8
枠_表
  6
CONTINUOUS
 62
     2
100
AcDbText
 10
2209.050000000477
 20
4003.875001907348
 30
0.0
 40
59.99999618530273
  1
化粧鏡
 41
1.070588224822399
  7
EXCADSTD
 72
     5
 11
2365.049988556385
 21
4003.875001907348
 31
0.0
100
AcDbText
  0
LINE
  5
162
330
1F
100
AcDbEntity
  8
枠_表
  6
CONTINUOUS
 62
     6
100
AcDbLine
 10
1746.00000000045
 20
3645.75
 30
0.0
 11
1746.00000000045
 21
3423.0
 31
0.0
  0
TEXT
  5
163
330
1F
100
AcDbEntity
  8
枠_表
  6
CONTINUOUS
 62
     2
100
AcDbText
 10
1753.500000000466
 20
3466.875001907349
 30
0.0
 40
59.99999618530273
  1
ＬＵＭＥＨ７０－２００－３２Ｂ
 41
0.6685393858491744
  7
EXCADSTD
 72
     5
 11
2263.500013351907
 21
3466.875001907349
 31
0.0
100
AcDbText
  0
CIRCLE
  5
164
330
1F
100
AcDbEntity
  8
枠_表
  6
CONTINUOUS
 62
     6
100
AcDbCircle
 10
411.0000000003849
 20
176.9999999999993
 30
0.0
 40
1.5000003
  0
CIRCLE
  5
165
330
1F
100
AcDbEntity
  8
枠_表
  6
CONTINUOUS
 62
     6
100
AcDbCircle
 10
336.0000000003849
 20
176.9999999999993
 30
0.0
 40
1.5000003
  0
CIRCLE
  5
166
330
1F
100
AcDbEntity
  8
枠_表
  6
CONTINUOUS
 62
     6
100
AcDbCircle
 10
568.5000000003945
 20
176.9999999999992
 30
0.0
 40
1.5000003
  0
CIRCLE
  5
167
330
1F
100
AcDbEntity
  8
枠_表
  6
CONTINUOUS
 62
     6
100
AcDbCircle
 10
643.5000000003945
 20
176.9999999999992
 30
0.0
 40
1.5000003
  0
TEXT
  5
168
330
1F
100
AcDbEntity
  8
枠_表
  6
CONTINUOUS
 62
     2
100
AcDbText
 10
1756.500000000397
 20
3757.875001907347
 30
0.0
 40
59.99999618530273
  1
ＪＬ２２１－７５ＷＭＳＹ
 41
0.7049295643013956
  7
EXCADSTD
 72
     5
 11
2185.499964714447
 21
3757.875001907347
 31
0.0
100
AcDbText
  0
TEXT
  5
169
330
1F
100
AcDbEntity
  8
枠_表
  6
CONTINUOUS
 62
     2
100
AcDbText
 10
1753.500000000457
 20
3831.75000190735
 30
0.0
 40
59.99999618530273
  1
ＪＬ２２１Ｆ２００ＷＭＹ３０
 41
0.6999999868630399
  7
EXCADSTD
 72
     5
 11
2251.499958992462
 21
3831.75000190735
 31
0.0
100
AcDbText
  0
TEXT
  5
16A
330
1F
100
AcDbEntity
  8
枠_表
  6
CONTINUOUS
 62
     2
100
AcDbText
 10
1756.500000000427
 20
3578.625001907347
 30
0.0
 40
59.99999618530273
  1
ＭＥ４４１３１
 41
0.7298780354833208
  7
EXCADSTD
 72
     5
 11
2012.999979019592
 21
3578.625001907347
 31
0.0
100
AcDbText
  0
TEXT
  5
16B
330
1F
100
AcDbEntity
  8
枠_表
  6
CONTINUOUS
 62
     2
100
AcDbText
 10
1756.500000000447
 20
4003.875001907348
 30
0.0
 40
59.99999618530273
  1
ＬＵＭ４５１０ＰＮＮ
 41
0.7711864312489822
  7
EXCADSTD
 72
     5
 11
2146.499970436543
 21
4003.875001907348
 31
0.0
100
AcDbText
  0
TEXT
  5
16C
330
1F
100
AcDbEntity
  8
枠_表
  6
CONTINUOUS
 62
     2
100
AcDbText
 10
302.2500000003373
 20
267.0000038146999
 30
0.0
 40
74.99999237060547
  1
川野
 41
1.166581818181818
  7
EXCADSTD
 72
     5
 11
439.7399860141313
 21
267.0000038146999
 31
0.0
100
AcDbText
  0
TEXT
  5
16D
330
1F
100
AcDbEntity
  8
枠_表
  6
CONTINUOUS
 62
     6
100
AcDbText
 10
270.5161735135556
 20
153.6751117073488
 30
0.0
 40
44.99999618530273
  1
'23
 41
0.4689783949971204
  7
EXCADSTD
 72
     5
 11
317.7489935771466
 21
153.6751117073488
 31
0.0
100
AcDbText
  0
TEXT
  5
16E
330
1F
100
AcDbEntity
  8
枠_表
  6
CONTINUOUS
 62
     6
100
AcDbText
 10
364.6036740857602
 20
153.6751117073488
 30
0.0
 40
44.99999618530273
  1
5
 41
0.4683823586133572
  7
EXCADSTD
 72
     5
 11
381.6661728459836
 21
153.6751117073488
 31
0.0
100
AcDbText
  0
TEXT
  5
16F
330
1F
100
AcDbEntity
  8
枠_表
  6
CONTINUOUS
 62
     6
100
AcDbText
 10
434.8411738711837
 20
153.6751117073488
 30
0.0
 40
44.99999618530273
  1
19
 41
0.4199999960440172
  7
EXCADSTD
 72
     5
 11
467.2411708194259
 21
153.6751117073488
 31
0.0
100
AcDbText
  0
TEXT
  5
170
330
1F
100
AcDbEntity
  8
枠_表
  6
CONTINUOUS
 62
     7
100
AcDbText
 10
2263.500000000336
 20
171.7500038146979
 30
0.0
 40
89.99999237060547
  1
ＬＵ３１９５５０
 41
1.01773049277147
  7
EXCADSTD
 72
     5
 11
2878.4999456409
 21
171.7500038146979
 31
0.0
100
AcDbText
  0
LINE
  5
171
330
1F
100
AcDbEntity
  8
化粧台
  6
EXLTYPE3
 62
     6
100
AcDbLine
 10
961.0000000003781
 20
1194.0
 30
0.0
 11
961.0000000003781
 21
899.5
 31
0.0
  0
LINE
  5
172
330
1F
100
AcDbEntity
  8
化粧台
  6
CONTINUOUS
 62
     2
100
AcDbLine
 10
2375.000000000376
 20
919.4999999999
 30
0.0
 11
2375.000000000376
 21
869.49999999988
 31
0.0
  0
LINE
  5
173
330
1F
100
AcDbEntity
  8
化粧台
  6
CONTINUOUS
 62
     2
100
AcDbLine
 10
2407.000000000376
 20
869.49999999988
 30
0.0
 11
2375.000000000376
 21
869.49999999988
 31
0.0
  0
LINE
  5
174
330
1F
100
AcDbEntity
  8
化粧台
  6
CONTINUOUS
 62
     2
100
AcDbLine
 10
2407.000000000376
 20
919.4999999999
 30
0.0
 11
2407.000000000376
 21
869.49999999988
 31
0.0
  0
LINE
  5
175
330
1F
100
AcDbEntity
  8
化粧台
  6
EXLTYPE3
 62
     6
100
AcDbLine
 10
2411.000000000378
 20
1084.5
 30
0.0
 11
2411.000000000378
 21
896.5
 31
0.0
  0
LINE
  5
176
330
1F
100
AcDbEntity
  8
化粧台
  6
EXLTYPE4
 62
     6
100
AcDbLine
 10
2421.500000000378
 20
919.5
 30
0.0
 11
2421.500000000378
 21
1069.5
 31
0.0
  0
LINE
  5
177
330
1F
100
AcDbEntity
  8
化粧台
  6
EXLTYPE4
 62
     6
100
AcDbLine
 10
2400.500000000378
 20
919.5
 30
0.0
 11
2400.500000000378
 21
1069.5
 31
0.0
  0
LINE
  5
178
330
1F
100
AcDbEntity
  8
化粧台
  6
CONTINUOUS
 62
     6
100
AcDbLine
 10
2421.500000000394
 20
919.5
 30
0.0
 11
2421.500000000394
 21
911.5
 31
0.0
  0
LINE
  5
179
330
1F
100
AcDbEntity
  8
化粧台
  6
CONTINUOUS
 62
     6
100
AcDbLine
 10
2400.500000000387
 20
919.5
 30
0.0
 11
2400.500000000387
 21
911.5
 31
0.0
  0
LINE
  5
17A
330
1F
100
AcDbEntity
  8
化粧台
  6
CONTINUOUS
 62
     6
100
AcDbLine
 10
2421.500000000378
 20
911.5
 30
0.0
 11
2400.500000000387
 21
911.5
 31
0.0
  0
LINE
  5
17B
330
1F
100
AcDbEntity
  8
化粧台
  6
CONTINUOUS
 62
     6
100
AcDbLine
 10
2413.800000000379
 20
981.5000000000001
 30
0.0
 11
2413.800000000379
 21
963.7000000000007
 31
0.0
  0
LINE
  5
17C
330
1F
100
AcDbEntity
  8
化粧台
  6
CONTINUOUS
 62
     6
100
AcDbLine
 10
2368.200000000379
 20
981.5000000000001
 30
0.0
 11
2368.200000000379
 21
963.7000000000007
 31
0.0
  0
ARC
  5
17D
330
1F
100
AcDbEntity
  8
化粧台
  6
EXLTYPE2
 62
     6
100
AcDbCircle
 10
2360.50000000038
 20
943.5
 30
0.0
 40
3.000000000000003
100
AcDbArc
 50
90.00000000000001
 51
180.0
  0
LINE
  5
17E
330
1F
100
AcDbEntity
  8
化粧台
  6
EXLTYPE2
 62
     6
100
AcDbLine
 10
2360.50000000038
 20
946.5
 30
0.0
 11
2421.500000000382
 21
946.5
 31
0.0
  0
LINE
  5
17F
330
1F
100
AcDbEntity
  8
化粧台
  6
EXLTYPE2
 62
     6
100
AcDbLine
 10
2357.50000000038
 20
943.5
 30
0.0
 11
2357.50000000038
 21
923.5
 31
0.0
  0
ARC
  5
180
330
1F
100
AcDbEntity
  8
化粧台
  6
EXLTYPE2
 62
     6
100
AcDbCircle
 10
2367.000000000382
 20
958.5
 30
0.0
 40
3.000000000000003
100
AcDbArc
 50
90.00000000000001
 51
180.0
  0
LINE
  5
181
330
1F
100
AcDbEntity
  8
化粧台
  6
EXLTYPE2
 62
     6
100
AcDbLine
 10
2367.000000000382
 20
961.4999999999999
 30
0.0
 11
2415.000000000382
 21
961.4999999999999
 31
0.0
  0
LINE
  5
182
330
1F
100
AcDbEntity
  8
化粧台
  6
EXLTYPE2
 62
     6
100
AcDbLine
 10
2364.000000000382
 20
958.5
 30
0.0
 11
2364.000000000382
 21
946.5
 31
0.0
  0
ARC
  5
183
330
1F
100
AcDbEntity
  8
化粧台
  6
EXLTYPE2
 62
     6
100
AcDbCircle
 10
2415.000000000382
 20
958.5
 30
0.0
 40
3.000000000000003
100
AcDbArc
 50
0.0
 51
90.00000000000001
  0
LINE
  5
184
330
1F
100
AcDbEntity
  8
化粧台
  6
EXLTYPE2
 62
     6
100
AcDbLine
 10
2418.00000000038
 20
958.5
 30
0.0
 11
2418.00000000038
 21
946.5
 31
0.0
  0
ARC
  5
185
330
1F
100
AcDbEntity
  8
化粧台
  6
EXLTYPE2
 62
     6
100
AcDbCircle
 10
2421.500000000382
 20
943.5
 30
0.0
 40
3.000000000000003
100
AcDbArc
 50
0.0
 51
90.00000000000001
  0
LINE
  5
186
330
1F
100
AcDbEntity
  8
化粧台
  6
EXLTYPE2
 62
     6
100
AcDbLine
 10
2424.500000000382
 20
943.5
 30
0.0
 11
2424.500000000382
 21
923.5
 31
0.0
  0
LINE
  5
187
330
1F
100
AcDbEntity
  8
化粧台
  6
EXLTYPE2
 62
     6
100
AcDbLine
 10
2357.50000000038
 20
923.5
 30
0.0
 11
2424.500000000382
 21
923.5
 31
0.0
  0
LINE
  5
188
330
1F
100
AcDbEntity
  8
化粧台
  6
EXLTYPE2
 62
     6
100
AcDbLine
 10
2368.200000000379
 20
981.5000000000001
 30
0.0
 11
2413.800000000379
 21
981.5000000000001
 31
0.0
  0
LINE
  5
189
330
1F
100
AcDbEntity
  8
化粧台
  6
EXLTYPE2
 62
     6
100
AcDbLine
 10
2368.200000000379
 20
963.7000000000007
 30
0.0
 11
2413.800000000379
 21
963.7000000000007
 31
0.0
  0
LINE
  5
18A
330
1F
100
AcDbEntity
  8
化粧台
  6
EXLTYPE3
 62
     6
100
AcDbLine
 10
2391.000000000378
 20
1104.5
 30
0.0
 11
2391.000000000378
 21
854.49999999988
 31
0.0
  0
LINE
  5
18B
330
1F
100
AcDbEntity
  8
化粧台
  6
EXLTYPE2
 62
     6
100
AcDbLine
 10
2407.000000000378
 20
919.4999999999
 30
0.0
 11
2407.000000000378
 21
1089.5
 31
0.0
  0
LINE
  5
18C
330
1F
100
AcDbEntity
  8
化粧台
  6
EXLTYPE2
 62
     6
100
AcDbLine
 10
2375.000000000378
 20
919.4999999999
 30
0.0
 11
2375.000000000378
 21
1089.5
 31
0.0
  0
LINE
  5
18D
330
1F
100
AcDbEntity
  8
化粧台
  6
CONTINUOUS
 62
     6
100
AcDbLine
 10
2486.000000000378
 20
1499.499999999953
 30
0.0
 11
2528.500005722278
 21
1499.499999999953
 31
0.0
  0
LINE
  5
18E
330
1F
100
AcDbEntity
  8
化粧台
  6
CONTINUOUS
 62
     6
100
AcDbLine
 10
2491.000005722382
 20
1501.49999999996
 30
0.0
 11
2523.500005722382
 21
1499.499999999958
 31
0.0
  0
LINE
  5
18F
330
1F
100
AcDbEntity
  8
化粧台
  6
CONTINUOUS
 62
     6
100
AcDbLine
 10
2523.500005722382
 20
1499.499999999958
 30
0.0
 11
2491.000005722382
 21
1497.49999999996
 31
0.0
  0
LINE
  5
190
330
1F
100
AcDbEntity
  8
化粧台
  6
EXLTYPE2
 62
     6
100
AcDbLine
 10
2332.500000000376
 20
1179.5
 30
0.0
 11
2062.500000000378
 21
1179.5
 31
0.0
  0
LINE
  5
191
330
1F
100
AcDbEntity
  8
化粧台
  6
EXLTYPE2
 62
     6
100
AcDbLine
 10
2332.500000000376
 20
1039.5
 30
0.0
 11
2062.500000000378
 21
1039.5
 31
0.0
  0
LINE
  5
192
330
1F
100
AcDbEntity
  8
化粧台
  6
EXLTYPE2
 62
     6
100
AcDbLine
 10
2332.500000000376
 20
1179.5
 30
0.0
 11
2332.500000000376
 21
1039.5
 31
0.0
  0
LINE
  5
193
330
1F
100
AcDbEntity
  8
化粧台
  6
EXLTYPE2
 62
     6
100
AcDbLine
 10
2332.500000000376
 20
1509.5
 30
0.0
 11
2062.500000000378
 21
1509.5
 31
0.0
  0
LINE
  5
194
330
1F
100
AcDbEntity
  8
化粧台
  6
EXLTYPE2
 62
     6
100
AcDbLine
 10
2332.500000000376
 20
1434.5
 30
0.0
 11
2062.500000000378
 21
1434.5
 31
0.0
  0
LINE
  5
195
330
1F
100
AcDbEntity
  8
化粧台
  6
EXLTYPE2
 62
     6
100
AcDbLine
 10
2332.500000000376
 20
1509.5
 30
0.0
 11
2332.500000000376
 21
1434.5
 31
0.0
  0
LINE
  5
196
330
1F
100
AcDbEntity
  8
化粧台
  6
CONTINUOUS
 62
     6
100
AcDbLine
 10
2062.500000000378
 20
1370.5
 30
0.0
 11
2063.000000000378
 21
1370.5
 31
0.0
  0
ARC
  5
197
330
1F
100
AcDbEntity
  8
化粧台
  6
CONTINUOUS
 62
     6
100
AcDbCircle
 10
2063.000000000378
 20
1371.5
 30
0.0
 40
1.0
100
AcDbArc
 50
269.999999999987
 51
0.0
  0
LINE
  5
198
330
1F
100
AcDbEntity
  8
化粧台
  6
CONTINUOUS
 62
     6
100
AcDbLine
 10
2064.000000000378
 20
1412.5
 30
0.0
 11
2064.000000000378
 21
1371.5
 31
0.0
  0
ARC
  5
199
330
1F
100
AcDbEntity
  8
化粧台
  6
CONTINUOUS
 62
     6
100
AcDbCircle
 10
2061.000000000378
 20
1412.5
 30
0.0
 40
3.000000000000003
100
AcDbArc
 50
0.0
 51
90.00000000000001
  0
LINE
  5
19A
330
1F
100
AcDbEntity
  8
化粧台
  6
CONTINUOUS
 62
     6
100
AcDbLine
 10
2044.500000000381
 20
1385.499999999995
 30
0.0
 11
2062.50000000038
 21
1385.499999999995
 31
0.0
  0
ARC
  5
19B
330
1F
100
AcDbEntity
  8
化粧台
  6
CONTINUOUS
 62
     6
100
AcDbCircle
 10
2061.150000000372
 20
1412.450000000008
 30
0.0
 40
1.0
100
AcDbArc
 50
0.0
 51
90.00000000000001
  0
ARC
  5
19C
330
1F
100
AcDbEntity
  8
化粧台
  6
CONTINUOUS
 62
     6
100
AcDbCircle
 10
2044.750000000376
 20
1407.25
 30
0.0
 40
1.750000000000001
100
AcDbArc
 50
170.7449623899685
 51
68.7663136548995
  0
ARC
  5
19D
330
1F
100
AcDbEntity
  8
化粧台
  6
CONTINUOUS
 62
     6
100
AcDbCircle
 10
2057.827514545173
 20
1405.119011184754
 30
0.0
 40
13.00000000000001
100
AcDbArc
 50
142.344253969435
 51
163.1780394406755
  0
ARC
  5
19E
330
1F
100
AcDbEntity
  8
化粧台
  6
CONTINUOUS
 62
     6
100
AcDbCircle
 10
2048.327167025709
 20
1412.450000000008
 30
0.0
 40
1.0
100
AcDbArc
 50
90.00000000000001
 51
142.3442539694352
  0
ARC
  5
19F
330
1F
100
AcDbEntity
  8
化粧台
  6
CONTINUOUS
 62
     6
100
AcDbCircle
 10
2057.827514545173
 20
1405.119011184754
 30
0.0
 40
15.00000000000001
100
AcDbArc
 50
142.0420920441203
 51
170.7449623899722
  0
ARC
  5
1A0
330
1F
100
AcDbEntity
  8
化粧台
  6
CONTINUOUS
 62
     6
100
AcDbCircle
 10
2048.365960544419
 20
1412.5
 30
0.0
 40
3.000000000000003
100
AcDbArc
 50
90.00000000000001
 51
142.0420920441179
  0
LINE
  5
1A1
330
1F
100
AcDbEntity
  8
化粧台
  6
CONTINUOUS
 62
     6
100
AcDbLine
 10
2048.365960544379
 20
1415.5
 30
0.0
 11
2061.000000000378
 21
1415.5
 31
0.0
  0
LINE
  5
1A2
330
1F
100
AcDbEntity
  8
化粧台
  6
CONTINUOUS
 62
     6
100
AcDbLine
 10
2048.327167025678
 20
1413.450000000008
 30
0.0
 11
2061.150000000372
 21
1413.450000000008
 31
0.0
  0
LINE
  5
1A3
330
1F
100
AcDbEntity
  8
化粧台
  6
CONTINUOUS
 62
     6
100
AcDbLine
 10
2062.150000000372
 20
1412.449999999999
 30
0.0
 11
2062.150000000372
 21
1396.060271065815
 31
0.0
  0
LINE
  5
1A4
330
1F
100
AcDbEntity
  8
化粧台
  6
CONTINUOUS
 62
     6
100
AcDbLine
 10
2043.95025261999
 20
1387.54231369542
 30
0.0
 11
2054.547979043467
 21
1388.070176405472
 31
0.0
  0
ARC
  5
1A5
330
1F
100
AcDbEntity
  8
化粧台
  6
CONTINUOUS
 62
     6
100
AcDbCircle
 10
2054.150000000372
 20
1396.060271065815
 30
0.0
 40
8.0
100
AcDbArc
 50
272.8514919099882
 51
0.0
  0
ARC
  5
1A6
330
1F
100
AcDbEntity
  8
化粧台
  6
CONTINUOUS
 62
     6
100
AcDbCircle
 10
2044.000000000376
 20
1386.543551862876
 30
0.0
 40
1.0
100
AcDbArc
 50
92.8514919099879
 51
180.0
  0
ARC
  5
1A7
330
1F
100
AcDbEntity
  8
化粧台
  6
CONTINUOUS
 62
     6
100
AcDbCircle
 10
2044.000000000376
 20
1384.5
 30
0.0
 40
1.0
100
AcDbArc
 50
180.0
 51
270.000000000026
  0
LINE
  5
1A8
330
1F
100
AcDbEntity
  8
化粧台
  6
CONTINUOUS
 62
     6
100
AcDbLine
 10
2044.500000000376
 20
1383.5
 30
0.0
 11
2044.000000000376
 21
1383.5
 31
0.0
  0
LINE
  5
1A9
330
1F
100
AcDbEntity
  8
化粧台
  6
CONTINUOUS
 62
     6
100
AcDbLine
 10
2043.000000000376
 20
1386.543551862876
 30
0.0
 11
2043.000000000376
 21
1384.5
 31
0.0
  0
LINE
  5
1AA
330
1F
100
AcDbEntity
  8
化粧台
  6
CONTINUOUS
 62
     6
100
AcDbLine
 10
2044.500000000376
 20
1385.499999999995
 30
0.0
 11
2044.500000000376
 21
1383.5
 31
0.0
  0
LINE
  5
1AB
330
1F
100
AcDbEntity
  8
化粧台
  6
CONTINUOUS
 62
     2
100
AcDbLine
 10
2045.500000000376
 20
1009.5
 30
0.0
 11
2045.500000000376
 21
1385.499999999995
 31
0.0
  0
LINE
  5
1AC
330
1F
100
AcDbEntity
  8
化粧台
  6
CONTINUOUS
 62
     2
100
AcDbLine
 10
2062.500000000378
 20
1009.5
 30
0.0
 11
2062.500000000378
 21
1385.499999999995
 31
0.0
  0
LINE
  5
1AD
330
1F
100
AcDbEntity
  8
化粧台
  6
CONTINUOUS
 62
     2
100
AcDbLine
 10
2045.500000000376
 20
1009.5
 30
0.0
 11
2062.500000000378
 21
1009.5
 31
0.0
  0
ARC
  5
1AE
330
1F
100
AcDbEntity
  8
化粧台
  6
CONTINUOUS
 62
     6
100
AcDbCircle
 10
2063.000000000378
 20
1550.5
 30
0.0
 40
1.0
100
AcDbArc
 50
269.999999999987
 51
0.0
  0
LINE
  5
1AF
330
1F
100
AcDbEntity
  8
化粧台
  6
CONTINUOUS
 62
     6
100
AcDbLine
 10
2064.000000000378
 20
1591.5
 30
0.0
 11
2064.000000000378
 21
1550.5
 31
0.0
  0
ARC
  5
1B0
330
1F
100
AcDbEntity
  8
化粧台
  6
CONTINUOUS
 62
     6
100
AcDbCircle
 10
2061.000000000378
 20
1591.5
 30
0.0
 40
3.000000000000003
100
AcDbArc
 50
0.0
 51
90.00000000000001
  0
LINE
  5
1B1
330
1F
100
AcDbEntity
  8
化粧台
  6
CONTINUOUS
 62
     2
100
AcDbLine
 10
2045.500000000376
 20
1419.5
 30
0.0
 11
2062.500000000378
 21
1419.5
 31
0.0
  0
LINE
  5
1B2
330
1F
100
AcDbEntity
  8
化粧台
  6
CONTINUOUS
 62
     2
100
AcDbLine
 10
2045.500000000376
 20
1419.5
 30
0.0
 11
2045.500000000376
 21
1564.5
 31
0.0
  0
LINE
  5
1B3
330
1F
100
AcDbEntity
  8
化粧台
  6
CONTINUOUS
 62
     2
100
AcDbLine
 10
2062.500000000378
 20
1419.5
 30
0.0
 11
2062.500000000378
 21
1564.5
 31
0.0
  0
LINE
  5
1B4
330
1F
100
AcDbEntity
  8
化粧台
  6
CONTINUOUS
 62
     6
100
AcDbLine
 10
2044.500000000381
 20
1564.499999999995
 30
0.0
 11
2062.50000000038
 21
1564.499999999995
 31
0.0
  0
ARC
  5
1B5
330
1F
100
AcDbEntity
  8
化粧台
  6
CONTINUOUS
 62
     6
100
AcDbCircle
 10
2061.150000000372
 20
1591.450000000008
 30
0.0
 40
1.0
100
AcDbArc
 50
0.0
 51
90.00000000000001
  0
ARC
  5
1B6
330
1F
100
AcDbEntity
  8
化粧台
  6
CONTINUOUS
 62
     6
100
AcDbCircle
 10
2044.750000000376
 20
1586.25
 30
0.0
 40
1.750000000000001
100
AcDbArc
 50
170.7449623899685
 51
68.7663136548995
  0
ARC
  5
1B7
330
1F
100
AcDbEntity
  8
化粧台
  6
CONTINUOUS
 62
     6
100
AcDbCircle
 10
2057.827514545173
 20
1584.119011184754
 30
0.0
 40
13.00000000000001
100
AcDbArc
 50
142.344253969435
 51
163.1780394406755
  0
ARC
  5
1B8
330
1F
100
AcDbEntity
  8
化粧台
  6
CONTINUOUS
 62
     6
100
AcDbCircle
 10
2048.327167025709
 20
1591.450000000008
 30
0.0
 40
1.0
100
AcDbArc
 50
90.00000000000001
 51
142.3442539694352
  0
ARC
  5
1B9
330
1F
100
AcDbEntity
  8
化粧台
  6
CONTINUOUS
 62
     6
100
AcDbCircle
 10
2057.827514545173
 20
1584.119011184754
 30
0.0
 40
15.00000000000001
100
AcDbArc
 50
142.0420920441203
 51
170.7449623899722
  0
ARC
  5
1BA
330
1F
100
AcDbEntity
  8
化粧台
  6
CONTINUOUS
 62
     6
100
AcDbCircle
 10
2048.365960544419
 20
1591.5
 30
0.0
 40
3.000000000000003
100
AcDbArc
 50
90.00000000000001
 51
142.0420920441179
  0
LINE
  5
1BB
330
1F
100
AcDbEntity
  8
化粧台
  6
CONTINUOUS
 62
     6
100
AcDbLine
 10
2048.365960544379
 20
1594.5
 30
0.0
 11
2061.000000000378
 21
1594.5
 31
0.0
  0
LINE
  5
1BC
330
1F
100
AcDbEntity
  8
化粧台
  6
CONTINUOUS
 62
     6
100
AcDbLine
 10
2048.327167025678
 20
1592.45000000001
 30
0.0
 11
2061.150000000372
 21
1592.45000000001
 31
0.0
  0
LINE
  5
1BD
330
1F
100
AcDbEntity
  8
化粧台
  6
CONTINUOUS
 62
     6
100
AcDbLine
 10
2062.150000000372
 20
1591.449999999999
 30
0.0
 11
2062.150000000372
 21
1575.060271065815
 31
0.0
  0
LINE
  5
1BE
330
1F
100
AcDbEntity
  8
化粧台
  6
CONTINUOUS
 62
     6
100
AcDbLine
 10
2043.95025261999
 20
1566.54231369542
 30
0.0
 11
2054.547979043467
 21
1567.070176405472
 31
0.0
  0
ARC
  5
1BF
330
1F
100
AcDbEntity
  8
化粧台
  6
CONTINUOUS
 62
     6
100
AcDbCircle
 10
2054.150000000372
 20
1575.060271065815
 30
0.0
 40
8.0
100
AcDbArc
 50
272.8514919099882
 51
0.0
  0
ARC
  5
1C0
330
1F
100
AcDbEntity
  8
化粧台
  6
CONTINUOUS
 62
     6
100
AcDbCircle
 10
2044.000000000376
 20
1565.543551862876
 30
0.0
 40
1.0
100
AcDbArc
 50
92.8514919099879
 51
180.0
  0
LINE
  5
1C1
330
1F
100
AcDbEntity
  8
化粧台
  6
CONTINUOUS
 62
     6
100
AcDbLine
 10
2062.500000000378
 20
1549.5
 30
0.0
 11
2063.000000000378
 21
1549.5
 31
0.0
  0
ARC
  5
1C2
330
1F
100
AcDbEntity
  8
化粧台
  6
CONTINUOUS
 62
     6
100
AcDbCircle
 10
2044.000000000376
 20
1563.5
 30
0.0
 40
1.0
100
AcDbArc
 50
180.0
 51
270.000000000026
  0
LINE
  5
1C3
330
1F
100
AcDbEntity
  8
化粧台
  6
CONTINUOUS
 62
     6
100
AcDbLine
 10
2044.500000000376
 20
1562.5
 30
0.0
 11
2044.000000000376
 21
1562.5
 31
0.0
  0
LINE
  5
1C4
330
1F
100
AcDbEntity
  8
化粧台
  6
CONTINUOUS
 62
     6
100
AcDbLine
 10
2043.000000000376
 20
1565.543551862876
 30
0.0
 11
2043.000000000376
 21
1563.5
 31
0.0
  0
LINE
  5
1C5
330
1F
100
AcDbEntity
  8
化粧台
  6
CONTINUOUS
 62
     6
100
AcDbLine
 10
2044.500000000376
 20
1564.499999999995
 30
0.0
 11
2044.500000000376
 21
1562.5
 31
0.0
  0
LINE
  5
1C6
330
1F
100
AcDbEntity
  8
化粧台
  6
CONTINUOUS
 62
     2
100
AcDbLine
 10
2066.000000000378
 20
919.5
 30
0.0
 11
2066.000000000378
 21
1599.5
 31
0.0
  0
LINE
  5
1C7
330
1F
100
AcDbEntity
  8
化粧台
  6
CONTINUOUS
 62
     2
100
AcDbLine
 10
1217.000000000376
 20
919.4999999999
 30
0.0
 11
1217.000000000376
 21
869.49999999988
 31
0.0
  0
LINE
  5
1C8
330
1F
100
AcDbEntity
  8
化粧台
  6
CONTINUOUS
 62
     2
100
AcDbLine
 10
1217.000000000376
 20
869.49999999988
 30
0.0
 11
1185.000000000376
 21
869.49999999988
 31
0.0
  0
LINE
  5
1C9
330
1F
100
AcDbEntity
  8
化粧台
  6
CONTINUOUS
 62
     2
100
AcDbLine
 10
1185.000000000376
 20
919.4999999999
 30
0.0
 11
1185.000000000376
 21
869.49999999988
 31
0.0
  0
LINE
  5
1CA
330
1F
100
AcDbEntity
  8
化粧台
  6
CONTINUOUS
 62
     6
100
AcDbLine
 10
1223.800000000377
 20
981.5000000000001
 30
0.0
 11
1223.800000000377
 21
963.7000000000007
 31
0.0
  0
LINE
  5
1CB
330
1F
100
AcDbEntity
  8
化粧台
  6
CONTINUOUS
 62
     6
100
AcDbLine
 10
1178.200000000379
 20
981.5000000000001
 30
0.0
 11
1178.200000000379
 21
963.7000000000007
 31
0.0
  0
ARC
  5
1CC
330
1F
100
AcDbEntity
  8
化粧台
  6
EXLTYPE2
 62
     6
100
AcDbCircle
 10
1170.50000000038
 20
943.5
 30
0.0
 40
3.000000000000003
100
AcDbArc
 50
90.00000000000001
 51
180.0
  0
LINE
  5
1CD
330
1F
100
AcDbEntity
  8
化粧台
  6
EXLTYPE2
 62
     6
100
AcDbLine
 10
1170.50000000038
 20
946.5
 30
0.0
 11
1231.50000000038
 21
946.5
 31
0.0
  0
LINE
  5
1CE
330
1F
100
AcDbEntity
  8
化粧台
  6
EXLTYPE2
 62
     6
100
AcDbLine
 10
1167.500000000378
 20
943.5
 30
0.0
 11
1167.500000000378
 21
923.5
 31
0.0
  0
ARC
  5
1CF
330
1F
100
AcDbEntity
  8
化粧台
  6
EXLTYPE2
 62
     6
100
AcDbCircle
 10
1177.00000000038
 20
958.5
 30
0.0
 40
3.000000000000003
100
AcDbArc
 50
90.00000000000001
 51
180.0
  0
LINE
  5
1D0
330
1F
100
AcDbEntity
  8
化粧台
  6
EXLTYPE2
 62
     6
100
AcDbLine
 10
1177.00000000038
 20
961.4999999999999
 30
0.0
 11
1225.00000000038
 21
961.4999999999999
 31
0.0
  0
LINE
  5
1D1
330
1F
100
AcDbEntity
  8
化粧台
  6
EXLTYPE2
 62
     6
100
AcDbLine
 10
1174.00000000038
 20
958.5
 30
0.0
 11
1174.00000000038
 21
946.5
 31
0.0
  0
ARC
  5
1D2
330
1F
100
AcDbEntity
  8
化粧台
  6
EXLTYPE2
 62
     6
100
AcDbCircle
 10
1225.00000000038
 20
958.5
 30
0.0
 40
3.000000000000003
100
AcDbArc
 50
0.0
 51
90.00000000000001
  0
LINE
  5
1D3
330
1F
100
AcDbEntity
  8
化粧台
  6
EXLTYPE2
 62
     6
100
AcDbLine
 10
1228.00000000038
 20
958.5
 30
0.0
 11
1228.00000000038
 21
946.5
 31
0.0
  0
ARC
  5
1D4
330
1F
100
AcDbEntity
  8
化粧台
  6
EXLTYPE2
 62
     6
100
AcDbCircle
 10
1231.50000000038
 20
943.5
 30
0.0
 40
3.000000000000003
100
AcDbArc
 50
0.0
 51
90.00000000000001
  0
LINE
  5
1D5
330
1F
100
AcDbEntity
  8
化粧台
  6
EXLTYPE2
 62
     6
100
AcDbLine
 10
1234.50000000038
 20
943.5
 30
0.0
 11
1234.50000000038
 21
923.5
 31
0.0
  0
LINE
  5
1D6
330
1F
100
AcDbEntity
  8
化粧台
  6
EXLTYPE2
 62
     6
100
AcDbLine
 10
1167.500000000378
 20
923.5
 30
0.0
 11
1234.50000000038
 21
923.5
 31
0.0
  0
LINE
  5
1D7
330
1F
100
AcDbEntity
  8
化粧台
  6
EXLTYPE2
 62
     6
100
AcDbLine
 10
1178.200000000379
 20
981.5000000000001
 30
0.0
 11
1223.800000000377
 21
981.5000000000001
 31
0.0
  0
LINE
  5
1D8
330
1F
100
AcDbEntity
  8
化粧台
  6
EXLTYPE2
 62
     6
100
AcDbLine
 10
1178.200000000379
 20
963.7000000000007
 30
0.0
 11
1223.800000000377
 21
963.7000000000007
 31
0.0
  0
LINE
  5
1D9
330
1F
100
AcDbEntity
  8
化粧台
  6
EXLTYPE3
 62
     6
100
AcDbLine
 10
1201.000000000378
 20
1104.5
 30
0.0
 11
1201.000000000378
 21
854.49999999988
 31
0.0
  0
LINE
  5
1DA
330
1F
100
AcDbEntity
  8
化粧台
  6
EXLTYPE3
 62
     6
100
AcDbLine
 10
1126.000000000378
 20
1084.5
 30
0.0
 11
1126.000000000378
 21
896.5
 31
0.0
  0
LINE
  5
1DB
330
1F
100
AcDbEntity
  8
化粧台
  6
EXLTYPE3
 62
     6
100
AcDbLine
 10
796.0000000003798
 20
1084.5
 30
0.0
 11
796.0000000003798
 21
896.5
 31
0.0
  0
LINE
  5
1DC
330
1F
100
AcDbEntity
  8
化粧台
  6
EXLTYPE2
 62
     6
100
AcDbLine
 10
1217.000000000378
 20
919.4999999999
 30
0.0
 11
1217.000000000378
 21
1089.5
 31
0.0
  0
LINE
  5
1DD
330
1F
100
AcDbEntity
  8
化粧台
  6
EXLTYPE2
 62
     6
100
AcDbLine
 10
1185.000000000378
 20
919.4999999999
 30
0.0
 11
1185.000000000378
 21
1089.5
 31
0.0
  0
LINE
  5
1DE
330
1F
100
AcDbEntity
  8
化粧台
  6
EXLTYPE4
 62
     6
100
AcDbLine
 10
1136.500000000376
 20
919.5
 30
0.0
 11
1136.500000000376
 21
1069.5
 31
0.0
  0
LINE
  5
1DF
330
1F
100
AcDbEntity
  8
化粧台
  6
EXLTYPE4
 62
     6
100
AcDbLine
 10
1115.500000000376
 20
919.5
 30
0.0
 11
1115.500000000376
 21
1069.5
 31
0.0
  0
LINE
  5
1E0
330
1F
100
AcDbEntity
  8
化粧台
  6
EXLTYPE4
 62
     6
100
AcDbLine
 10
806.5000000003798
 20
919.5
 30
0.0
 11
806.5000000003798
 21
1069.5
 31
0.0
  0
LINE
  5
1E1
330
1F
100
AcDbEntity
  8
化粧台
  6
EXLTYPE4
 62
     6
100
AcDbLine
 10
785.5000000003798
 20
919.5
 30
0.0
 11
785.5000000003798
 21
1069.5
 31
0.0
  0
LINE
  5
1E2
330
1F
100
AcDbEntity
  8
化粧台
  6
CONTINUOUS
 62
     6
100
AcDbLine
 10
806.5000000003962
 20
919.5
 30
0.0
 11
806.5000000003962
 21
911.5
 31
0.0
  0
LINE
  5
1E3
330
1F
100
AcDbEntity
  8
化粧台
  6
CONTINUOUS
 62
     6
100
AcDbLine
 10
785.5000000003889
 20
919.5
 30
0.0
 11
785.5000000003889
 21
911.5
 31
0.0
  0
LINE
  5
1E4
330
1F
100
AcDbEntity
  8
化粧台
  6
CONTINUOUS
 62
     6
100
AcDbLine
 10
806.5000000003798
 20
911.5
 30
0.0
 11
785.5000000003889
 21
911.5
 31
0.0
  0
LINE
  5
1E5
330
1F
100
AcDbEntity
  8
化粧台
  6
CONTINUOUS
 62
     6
100
AcDbLine
 10
1115.50000000036
 20
919.5
 30
0.0
 11
1115.50000000036
 21
911.5
 31
0.0
  0
LINE
  5
1E6
330
1F
100
AcDbEntity
  8
化粧台
  6
CONTINUOUS
 62
     6
100
AcDbLine
 10
1136.500000000367
 20
919.5
 30
0.0
 11
1136.500000000367
 21
911.5
 31
0.0
  0
LINE
  5
1E7
330
1F
100
AcDbEntity
  8
化粧台
  6
CONTINUOUS
 62
     6
100
AcDbLine
 10
1115.500000000376
 20
911.5
 30
0.0
 11
1136.500000000367
 21
911.5
 31
0.0
  0
LINE
  5
1E8
330
1F
100
AcDbEntity
  8
化粧台
  6
EXLTYPE3
 62
     6
100
AcDbLine
 10
2461.000000000378
 20
1389.499999999998
 30
0.0
 11
2556.000000000378
 21
1389.499999999998
 31
0.0
  0
LINE
  5
1E9
330
1F
100
AcDbEntity
  8
化粧台
  6
CONTINUOUS
 62
     6
100
AcDbLine
 10
2541.000000000378
 20
1405.499999999998
 30
0.0
 11
2541.000000000378
 21
1373.499999999998
 31
0.0
  0
LINE
  5
1EA
330
1F
100
AcDbEntity
  8
化粧台
  6
CONTINUOUS
 62
     6
100
AcDbLine
 10
2491.000000000378
 20
1405.499999999998
 30
0.0
 11
2541.000000000378
 21
1405.499999999998
 31
0.0
  0
LINE
  5
1EB
330
1F
100
AcDbEntity
  8
化粧台
  6
CONTINUOUS
 62
     6
100
AcDbLine
 10
2491.000000000378
 20
1373.499999999998
 30
0.0
 11
2541.000000000378
 21
1373.499999999998
 31
0.0
  0
LINE
  5
1EC
330
1F
100
AcDbEntity
  8
化粧台
  6
CONTINUOUS
 62
     6
100
AcDbLine
 10
2491.000000000378
 20
1368.999999999978
 30
0.0
 11
2499.000000000378
 21
1368.999999999978
 31
0.0
  0
LINE
  5
1ED
330
1F
100
AcDbEntity
  8
化粧台
  6
CONTINUOUS
 62
     6
100
AcDbLine
 10
2491.000000000378
 20
1389.999999999985
 30
0.0
 11
2499.000000000378
 21
1389.999999999985
 31
0.0
  0
LINE
  5
1EE
330
1F
100
AcDbEntity
  8
化粧台
  6
CONTINUOUS
 62
     6
100
AcDbLine
 10
2499.000000000378
 20
1368.999999999996
 30
0.0
 11
2499.000000000378
 21
1389.999999999985
 31
0.0
  0
LINE
  5
1EF
330
1F
100
AcDbEntity
  8
化粧台
  6
EXLTYPE3
 62
     6
100
AcDbLine
 10
2461.000000000378
 20
1379.499999999998
 30
0.0
 11
2514.000000000389
 21
1379.499999999998
 31
0.0
  0
CIRCLE
  5
1F0
330
1F
100
AcDbEntity
  8
化粧台
  6
CONTINUOUS
 62
     6
100
AcDbCircle
 10
705.9999999977787
 20
1499.500000000098
 30
0.0
 40
3.800000000000001
  0
LINE
  5
1F1
330
1F
100
AcDbEntity
  8
化粧台
  6
CONTINUOUS
 62
     6
100
AcDbLine
 10
706.000000000358
 20
1489.5
 30
0.0
 11
706.000000000358
 21
1509.50000000004
 31
0.0
  0
LINE
  5
1F2
330
1F
100
AcDbEntity
  8
化粧台
  6
CONTINUOUS
 62
     6
100
AcDbLine
 10
696.000000000358
 20
1499.500000000038
 30
0.0
 11
716.000000000358
 21
1499.500000000038
 31
0.0
  0
LINE
  5
1F3
330
1F
100
AcDbEntity
  8
化粧台
  6
CONTINUOUS
 62
     2
100
AcDbLine
 10
618.000000000378
 20
919.5
 30
0.0
 11
618.000000000378
 21
1009.5
 31
0.0
  0
LINE
  5
1F4
330
1F
100
AcDbEntity
  8
化粧台
  6
CONTINUOUS
 62
     2
100
AcDbLine
 10
591.000000000378
 20
1383.5
 30
0.0
 11
591.000000000378
 21
1009.5
 31
0.0
  0
LINE
  5
1F5
330
1F
100
AcDbEntity
  8
化粧台
  6
CONTINUOUS
 62
     6
100
AcDbLine
 10
591.0000000003816
 20
1415.5
 30
0.0
 11
591.0000000003816
 21
1383.5
 31
0.0
  0
LINE
  5
1F6
330
1F
100
AcDbEntity
  8
化粧台
  6
CONTINUOUS
 62
     2
100
AcDbLine
 10
591.000000000378
 20
1562.5
 30
0.0
 11
591.000000000378
 21
1419.5
 31
0.0
  0
LINE
  5
1F7
330
1F
100
AcDbEntity
  8
化粧台
  6
CONTINUOUS
 62
     6
100
AcDbLine
 10
591.0000000003816
 20
1594.5
 30
0.0
 11
591.0000000003816
 21
1562.5
 31
0.0
  0
LINE
  5
1F8
330
1F
100
AcDbEntity
  8
化粧台
  6
CONTINUOUS
 62
     2
100
AcDbLine
 10
588.000000000378
 20
919.5
 30
0.0
 11
588.000000000378
 21
1599.5
 31
0.0
  0
LINE
  5
1F9
330
1F
100
AcDbEntity
  8
化粧台
  6
CONTINUOUS
 62
     2
100
AcDbLine
 10
603.000000000378
 20
919.5
 30
0.0
 11
603.000000000378
 21
1009.5
 31
0.0
  0
CIRCLE
  5
1FA
330
1F
100
AcDbEntity
  8
化粧台
  6
CONTINUOUS
 62
     6
100
AcDbCircle
 10
1215.999999997777
 20
1499.500000000098
 30
0.0
 40
3.800000000000001
  0
LINE
  5
1FB
330
1F
100
AcDbEntity
  8
化粧台
  6
CONTINUOUS
 62
     6
100
AcDbLine
 10
1216.000000000356
 20
1489.5
 30
0.0
 11
1216.000000000356
 21
1509.50000000004
 31
0.0
  0
LINE
  5
1FC
330
1F
100
AcDbEntity
  8
化粧台
  6
CONTINUOUS
 62
     6
100
AcDbLine
 10
1206.000000000356
 20
1499.500000000038
 30
0.0
 11
1226.000000000356
 21
1499.500000000038
 31
0.0
  0
LINE
  5
1FD
330
1F
100
AcDbEntity
  8
化粧台
  6
CONTINUOUS
 62
     2
100
AcDbLine
 10
1304.000000000376
 20
919.5
 30
0.0
 11
1304.000000000376
 21
1009.5
 31
0.0
  0
LINE
  5
1FE
330
1F
100
AcDbEntity
  8
化粧台
  6
CONTINUOUS
 62
     2
100
AcDbLine
 10
1331.000000000376
 20
1383.5
 30
0.0
 11
1331.000000000376
 21
1009.5
 31
0.0
  0
LINE
  5
1FF
330
1F
100
AcDbEntity
  8
化粧台
  6
CONTINUOUS
 62
     6
100
AcDbLine
 10
1331.000000000378
 20
1415.5
 30
0.0
 11
1331.000000000378
 21
1383.5
 31
0.0
  0
LINE
  5
200
330
1F
100
AcDbEntity
  8
化粧台
  6
CONTINUOUS
 62
     2
100
AcDbLine
 10
1331.000000000376
 20
1562.5
 30
0.0
 11
1331.000000000376
 21
1419.5
 31
0.0
  0
LINE
  5
201
330
1F
100
AcDbEntity
  8
化粧台
  6
CONTINUOUS
 62
     6
100
AcDbLine
 10
1331.000000000378
 20
1594.5
 30
0.0
 11
1331.000000000378
 21
1562.5
 31
0.0
  0
LINE
  5
202
330
1F
100
AcDbEntity
  8
化粧台
  6
CONTINUOUS
 62
     2
100
AcDbLine
 10
1334.000000000376
 20
919.5
 30
0.0
 11
1334.000000000376
 21
1599.5
 31
0.0
  0
LINE
  5
203
330
1F
100
AcDbEntity
  8
化粧台
  6
CONTINUOUS
 62
     2
100
AcDbLine
 10
1319.000000000376
 20
919.5
 30
0.0
 11
1319.000000000376
 21
1009.5
 31
0.0
  0
LINE
  5
204
330
1F
100
AcDbEntity
  8
化粧台
  6
CONTINUOUS
 62
     6
100
AcDbLine
 10
1331.000000000378
 20
1383.5
 30
0.0
 11
591.0000000003816
 21
1383.5
 31
0.0
  0
LINE
  5
205
330
1F
100
AcDbEntity
  8
化粧台
  6
CONTINUOUS
 62
     6
100
AcDbLine
 10
1331.000000000378
 20
1387.5423136954
 30
0.0
 11
591.0000000003816
 21
1387.5423136954
 31
0.0
  0
LINE
  5
206
330
1F
100
AcDbEntity
  8
化粧台
  6
CONTINUOUS
 62
     2
100
AcDbLine
 10
1331.000000000376
 20
1419.5
 30
0.0
 11
591.000000000378
 21
1419.5
 31
0.0
  0
LINE
  5
207
330
1F
100
AcDbEntity
  8
化粧台
  6
CONTINUOUS
 62
     6
100
AcDbLine
 10
1331.000000000378
 20
1415.5
 30
0.0
 11
591.0000000003816
 21
1415.5
 31
0.0
  0
LINE
  5
208
330
1F
100
AcDbEntity
  8
化粧台
  6
CONTINUOUS
 62
     6
100
AcDbLine
 10
1331.000000000378
 20
1405.5
 30
0.0
 11
591.0000000003816
 21
1405.5
 31
0.0
  0
LINE
  5
209
330
1F
100
AcDbEntity
  8
化粧台
  6
CONTINUOUS
 62
     6
100
AcDbLine
 10
1331.000000000378
 20
1562.5
 30
0.0
 11
591.0000000003816
 21
1562.5
 31
0.0
  0
LINE
  5
20A
330
1F
100
AcDbEntity
  8
化粧台
  6
CONTINUOUS
 62
     6
100
AcDbLine
 10
1331.000000000378
 20
1566.542313695401
 30
0.0
 11
591.0000000003816
 21
1566.542313695401
 31
0.0
  0
LINE
  5
20B
330
1F
100
AcDbEntity
  8
化粧台
  6
CONTINUOUS
 62
     2
100
AcDbLine
 10
1331.000000000376
 20
1009.5
 30
0.0
 11
591.000000000378
 21
1009.5
 31
0.0
  0
LINE
  5
20C
330
1F
100
AcDbEntity
  8
化粧台
  6
CONTINUOUS
 62
     6
100
AcDbLine
 10
1331.000000000378
 20
1594.5
 30
0.0
 11
591.0000000003816
 21
1594.5
 31
0.0
  0
LINE
  5
20D
330
1F
100
AcDbEntity
  8
化粧台
  6
CONTINUOUS
 62
     6
100
AcDbLine
 10
1331.000000000378
 20
1584.5
 30
0.0
 11
591.0000000003816
 21
1584.5
 31
0.0
  0
LINE
  5
20E
330
1F
100
AcDbEntity
  8
化粧台
  6
CONTINUOUS
 62
     2
100
AcDbLine
 10
1336.000000000376
 20
1599.5
 30
0.0
 11
586.0000000003798
 21
1599.5
 31
0.0
  0
LINE
  5
20F
330
1F
100
AcDbEntity
  8
化粧台
  6
CONTINUOUS
 62
     7
100
AcDbLine
 10
1891.000000000376
 20
919.5
 30
0.0
 11
2491.000000000378
 21
919.5
 31
0.0
  0
TEXT
  5
210
330
1F
100
AcDbEntity
  8
化粧台
  6
CONTINUOUS
 62
     2
100
AcDbText
 10
430.0000000002439
 20
926.6999999999989
 30
0.0
 40
59.99999618530273
  1
Ｆ.Ｌ.
 41
0.9086538461538461
  7
EXCADSTD
 72
     5
 11
564.999991417175
 21
926.6999999999989
 31
0.0
100
AcDbText
  0
TEXT
  5
211
330
1F
100
AcDbEntity
  8
化粧台
  6
CONTINUOUS
 62
     2
100
AcDbText
 10
1885.000000000243
 20
926.6999999999989
 30
0.0
 40
59.99999618530273
  1
Ｆ.Ｌ.
 41
0.9086538461538461
  7
EXCADSTD
 72
     5
 11
2019.999991417174
 21
926.6999999999989
 31
0.0
100
AcDbText
  0
LINE
  5
212
330
1F
100
AcDbEntity
  8
化粧台
  6
EXLTYPE3
 62
     6
100
AcDbLine
 10
1161.000000000378
 20
3795.0
 30
0.0
 11
1161.000000000378
 21
3890.0
 31
0.0
  0
LINE
  5
213
330
1F
100
AcDbEntity
  8
化粧台
  6
CONTINUOUS
 62
     6
100
AcDbLine
 10
1145.00000000038
 20
3875.0
 30
0.0
 11
1177.00000000038
 21
3875.0
 31
0.0
  0
LINE
  5
214
330
1F
100
AcDbEntity
  8
化粧台
  6
CONTINUOUS
 62
     6
100
AcDbLine
 10
1145.00000000038
 20
3825.0
 30
0.0
 11
1145.00000000038
 21
3875.0
 31
0.0
  0
LINE
  5
215
330
1F
100
AcDbEntity
  8
化粧台
  6
CONTINUOUS
 62
     6
100
AcDbLine
 10
1177.00000000038
 20
3825.0
 30
0.0
 11
1177.00000000038
 21
3875.0
 31
0.0
  0
LINE
  5
216
330
1F
100
AcDbEntity
  8
化粧台
  6
EXLTYPE3
 62
     6
100
AcDbLine
 10
1061.000000000383
 20
3795.0
 30
0.0
 11
1061.000000000383
 21
3848.0
 31
0.0
  0
LINE
  5
217
330
1F
100
AcDbEntity
  8
化粧台
  6
CONTINUOUS
 62
     6
100
AcDbLine
 10
1071.5000000004
 20
3825.0
 30
0.0
 11
1071.5000000004
 21
3833.0
 31
0.0
  0
LINE
  5
218
330
1F
100
AcDbEntity
  8
化粧台
  6
CONTINUOUS
 62
     6
100
AcDbLine
 10
1050.500000000392
 20
3825.0
 30
0.0
 11
1050.500000000392
 21
3833.0
 31
0.0
  0
LINE
  5
219
330
1F
100
AcDbEntity
  8
化粧台
  6
CONTINUOUS
 62
     6
100
AcDbLine
 10
1071.500000000383
 20
3833.0
 30
0.0
 11
1050.500000000392
 21
3833.0
 31
0.0
  0
LINE
  5
21A
330
1F
100
AcDbEntity
  8
化粧台
  6
EXLTYPE3
 62
     6
100
AcDbLine
 10
861.000000000378
 20
3795.0
 30
0.0
 11
861.000000000378
 21
3848.0
 31
0.0
  0
LINE
  5
21B
330
1F
100
AcDbEntity
  8
化粧台
  6
CONTINUOUS
 62
     6
100
AcDbLine
 10
850.5000000003616
 20
3825.0
 30
0.0
 11
850.5000000003616
 21
3833.0
 31
0.0
  0
LINE
  5
21C
330
1F
100
AcDbEntity
  8
化粧台
  6
CONTINUOUS
 62
     6
100
AcDbLine
 10
871.5000000003689
 20
3825.0
 30
0.0
 11
871.5000000003689
 21
3833.0
 31
0.0
  0
LINE
  5
21D
330
1F
100
AcDbEntity
  8
化粧台
  6
CONTINUOUS
 62
     6
100
AcDbLine
 10
850.500000000378
 20
3833.0
 30
0.0
 11
871.5000000003689
 21
3833.0
 31
0.0
  0
LINE
  5
21E
330
1F
100
AcDbEntity
  8
化粧台
  6
EXLTYPE3
 62
     6
100
AcDbLine
 10
961.0000000003798
 20
3845.0
 30
0.0
 11
961.0000000003798
 21
3317.5
 31
0.0
  0
LINE
  5
21F
330
1F
100
AcDbEntity
  8
化粧台
  6
CONTINUOUS
 62
     6
100
AcDbLine
 10
1216.000000000425
 20
3820.0
 30
0.0
 11
1216.000000000425
 21
3862.500005721901
 31
0.0
  0
LINE
  5
220
330
1F
100
AcDbEntity
  8
化粧台
  6
CONTINUOUS
 62
     6
100
AcDbLine
 10
1214.000000000418
 20
3825.000005722004
 30
0.0
 11
1216.00000000042
 21
3857.500005722004
 31
0.0
  0
LINE
  5
221
330
1F
100
AcDbEntity
  8
化粧台
  6
CONTINUOUS
 62
     6
100
AcDbLine
 10
1216.00000000042
 20
3857.500005722004
 30
0.0
 11
1218.000000000418
 21
3825.000005722004
 31
0.0
  0
LINE
  5
222
330
1F
100
AcDbEntity
  8
化粧台
  6
CONTINUOUS
 62
     2
100
AcDbLine
 10
1336.000000000376
 20
3825.0
 30
0.0
 11
1336.000000000376
 21
3375.0
 31
0.0
  0
LINE
  5
223
330
1F
100
AcDbEntity
  8
化粧台
  6
CONTINUOUS
 62
     6
100
AcDbLine
 10
706.0000000003562
 20
3820.0
 30
0.0
 11
706.0000000003562
 21
3862.500005721901
 31
0.0
  0
LINE
  5
224
330
1F
100
AcDbEntity
  8
化粧台
  6
CONTINUOUS
 62
     6
100
AcDbLine
 10
704.0000000003489
 20
3825.000005722004
 30
0.0
 11
706.0000000003507
 21
3857.500005722004
 31
0.0
  0
LINE
  5
225
330
1F
100
AcDbEntity
  8
化粧台
  6
CONTINUOUS
 62
     6
100
AcDbLine
 10
706.0000000003507
 20
3857.500005722004
 30
0.0
 11
708.0000000003489
 21
3825.000005722004
 31
0.0
  0
LINE
  5
226
330
1F
100
AcDbEntity
  8
化粧台
  6
CONTINUOUS
 62
     2
100
AcDbLine
 10
586.0000000003798
 20
3825.0
 30
0.0
 11
586.0000000003798
 21
3375.0
 31
0.0
  0
LINE
  5
227
330
1F
100
AcDbEntity
  8
化粧台
  6
CONTINUOUS
 62
     7
100
AcDbLine
 10
436.0000000003798
 20
3825.0
 30
0.0
 11
1591.000000000376
 21
3825.0
 31
0.0
  0
TEXT
  5
228
330
1F
100
AcDbEntity
  8
化粧台
  6
CONTINUOUS
 62
     2
100
AcDbText
 10
435.5500000006033
 20
3758.000003814646
 30
0.0
 40
59.99999618530273
  1
Ｗ.Ｌ.
 41
0.9086538461538461
  7
EXCADSTD
 72
     5
 11
570.5499914175344
 21
3758.000003814646
 31
0.0
100
AcDbText
  0
LINE
  5
229
330
1F
100
AcDbEntity
  8
化粧台
  6
CONTINUOUS
 62
     7
100
AcDbLine
 10
2491.000000000378
 20
919.4999999999991
 30
0.0
 11
2491.000000000378
 21
2926.35
 31
0.0
  0
TEXT
  5
22A
330
1F
100
AcDbEntity
  8
化粧台
  6
CONTINUOUS
 62
     2
100
AcDbText
 10
2481.500000000225
 20
2792.0
 30
0.0
 40
59.99999618530273
  1
Ｗ.Ｌ.
 50
90.0
 41
0.9086538461538461
  7
EXCADSTD
 72
     5
 11
2481.500000000225
 21
2926.999991416931
 31
0.0
100
AcDbText
  0
LINE
  5
22B
330
1F
100
AcDbEntity
  8
化粧台
  6
CONTINUOUS
 62
     7
100
AcDbLine
 10
436.0000000003798
 20
919.4999999999991
 30
0.0
 11
1665.000000000331
 21
919.4999999999991
 31
0.0
  0
LINE
  5
22C
330
1F
100
AcDbEntity
  8
化粧台
  6
CONTINUOUS
 62
     6
100
AcDbLine
 10
862.6435055528942
 20
1780.499999999999
 30
0.0
 11
1059.356494447878
 21
1780.499999999999
 31
0.0
  0
LINE
  5
22D
330
1F
100
AcDbEntity
  8
化粧台
  6
CONTINUOUS
 62
     2
100
AcDbLine
 10
736.2834769815778
 20
1777.840358287754
 30
0.0
 11
792.0000000003889
 21
1619.499999999999
 31
0.0
  0
LINE
  5
22E
330
1F
100
AcDbEntity
  8
化粧台
  6
CONTINUOUS
 62
     2
100
AcDbLine
 10
1130.000000000387
 20
1619.499999999999
 30
0.0
 11
1185.716523019198
 21
1777.840358287754
 31
0.0
  0
ARC
  5
22F
330
1F
100
AcDbEntity
  8
化粧台
  6
CONTINUOUS
 62
     2
100
AcDbCircle
 10
741.0000000003889
 20
1779.499999999999
 30
0.0
 40
5.0
100
AcDbArc
 50
92.60390534515753
 51
199.3858598894216
  0
ARC
  5
230
330
1F
100
AcDbEntity
  8
化粧台
  6
CONTINUOUS
 62
     2
100
AcDbCircle
 10
1181.000000000387
 20
1779.499999999999
 30
0.0
 40
5.0
100
AcDbArc
 50
340.6141401105788
 51
87.39609465484251
  0
ARC
  5
231
330
1F
100
AcDbEntity
  8
化粧台
  6
CONTINUOUS
 62
     2
100
AcDbCircle
 10
961.0000000003889
 20
6617.000000000003
 30
0.0
 40
4837.500000000005
100
AcDbArc
 50
267.4553150987836
 51
272.5446849012167
  0
ARC
  5
232
330
1F
100
AcDbEntity
  8
化粧台
  6
CONTINUOUS
 62
     6
100
AcDbCircle
 10
900.835000000539
 20
1683.500000000286
 30
0.0
 40
100.0
100
AcDbArc
 50
83.99726479958528
 51
95.78779095102057
  0
ARC
  5
233
330
1F
100
AcDbEntity
  8
化粧台
  6
CONTINUOUS
 62
     6
100
AcDbCircle
 10
891.0029816636885
 20
1780.500000000174
 30
0.0
 40
2.502981663321009
100
AcDbArc
 50
95.78779095101787
 51
180.0000000040806
  0
ARC
  5
234
330
1F
100
AcDbEntity
  8
化粧台
  6
CONTINUOUS
 62
     6
100
AcDbCircle
 10
911.0347926092287
 20
1780.500000000246
 30
0.0
 40
2.465207391219374
100
AcDbArc
 50
0.0
 51
83.99726479958545
  0
LINE
  5
235
330
1F
100
AcDbEntity
  8
化粧台
  6
CONTINUOUS
 62
     6
100
AcDbLine
 10
892.6148288610362
 20
1805.424412548847
 30
0.0
 11
896.2500000004108
 21
1796.676247290651
 31
0.0
  0
ARC
  5
236
330
1F
100
AcDbEntity
  8
化粧台
  6
CONTINUOUS
 62
     6
100
AcDbCircle
 10
894.0000000004017
 20
1806.00000000065
 30
0.0
 40
1.5
100
AcDbArc
 50
89.99999999997263
 51
202.5646074934729
  0
LINE
  5
237
330
1F
100
AcDbEntity
  8
化粧台
  6
CONTINUOUS
 62
     6
100
AcDbLine
 10
909.3851711397671
 20
1805.424412548858
 30
0.0
 11
905.7500000004053
 21
1796.676247290658
 31
0.0
  0
ARC
  5
238
330
1F
100
AcDbEntity
  8
化粧台
  6
CONTINUOUS
 62
     6
100
AcDbCircle
 10
908.0000000003998
 20
1806.000000000658
 30
0.0
 40
1.5
100
AcDbArc
 50
337.4353925066304
 51
90.00000000011136
  0
LINE
  5
239
330
1F
100
AcDbEntity
  8
化粧台
  6
CONTINUOUS
 62
     6
100
AcDbLine
 10
894.0000000003998
 20
1807.50000000065
 30
0.0
 11
908.0000000003998
 21
1807.500000000658
 31
0.0
  0
ARC
  5
23A
330
1F
100
AcDbEntity
  8
化粧台
  6
CONTINUOUS
 62
     6
100
AcDbCircle
 10
897.7500000004089
 20
1794.00000000065
 30
0.0
 40
1.5
100
AcDbArc
 50
180.0000000000381
 51
270.0000000001
  0
ARC
  5
23B
330
1F
100
AcDbEntity
  8
化粧台
  6
CONTINUOUS
 62
     6
100
AcDbCircle
 10
904.2500000004089
 20
1794.000000000658
 30
0.0
 40
1.5
100
AcDbArc
 50
269.9999999999722
 51
0.0000000000343202
  0
LINE
  5
23C
330
1F
100
AcDbEntity
  8
化粧台
  6
CONTINUOUS
 62
     6
100
AcDbLine
 10
896.2500000004089
 20
1794.00000000065
 30
0.0
 11
896.2500000004053
 21
1796.676247290658
 31
0.0
  0
LINE
  5
23D
330
1F
100
AcDbEntity
  8
化粧台
  6
CONTINUOUS
 62
     6
100
AcDbLine
 10
905.7500000004089
 20
1794.000000000658
 30
0.0
 11
905.7500000004089
 21
1796.676247290666
 31
0.0
  0
LINE
  5
23E
330
1F
100
AcDbEntity
  8
化粧台
  6
CONTINUOUS
 62
     6
100
AcDbLine
 10
904.2500000003853
 20
1792.500000000654
 30
0.0
 11
897.7500000004435
 21
1792.500000000654
 31
0.0
  0
LINE
  5
23F
330
1F
100
AcDbEntity
  8
化粧台
  6
CONTINUOUS
 62
     6
100
AcDbLine
 10
903.5000000004198
 20
1783.224782419044
 30
0.0
 11
903.5000000004162
 21
1792.500000000654
 31
0.0
  0
LINE
  5
240
330
1F
100
AcDbEntity
  8
化粧台
  6
CONTINUOUS
 62
     6
100
AcDbLine
 10
898.5000000004217
 20
1783.38058125193
 30
0.0
 11
898.500000000418
 21
1792.500000000654
 31
0.0
  0
ARC
  5
241
330
1F
100
AcDbEntity
  8
化粧台
  6
CONTINUOUS
 62
     2
100
AcDbCircle
 10
961.0000000003889
 20
-3058.000000000006
 30
0.0
 40
4847.500000000005
100
AcDbArc
 50
90.73874893071417
 51
92.60390534515777
  0
ELLIPSE
  5
242
330
1F
100
AcDbEntity
  8
化粧台
  6
CONTINUOUS
 62
     6
100
AcDbEllipse
 10
961.0000000003781
 20
1848.8838632295
 30
0.0
 11
11.50000000000001
 21
0.0
 31
0.0
210
0.0
220
0.0
230
1.0
 40
0.4226182617406996
 41
0.0
 42
6.283185307179586
  0
CIRCLE
  5
243
330
1F
100
AcDbEntity
  8
化粧台
  6
CONTINUOUS
 62
     6
100
AcDbCircle
 10
961.0000000003781
 20
1914.383863229598
 30
0.0
 40
4.0
  0
ELLIPSE
  5
244
330
1F
100
AcDbEntity
  8
化粧台
  6
CONTINUOUS
 62
     6
100
AcDbEllipse
 10
961.0000000003781
 20
1874.883863229598
 30
0.0
 11
15.00000000000001
 21
0.0
 31
0.0
210
0.0
220
0.0
230
1.0
 40
0.8660254037844385
 41
0.0
 42
6.283185307179586
  0
ELLIPSE
  5
245
330
1F
100
AcDbEntity
  8
化粧台
  6
CONTINUOUS
 62
     6
100
AcDbEllipse
 10
961.0000000003781
 20
1816.860161176
 30
0.0
 11
1.060575238719482E-15
 21
17.32050807560018
 31
0.0
210
0.0
220
0.0
230
1.0
 40
0.8660254037888688
 41
1.570796326794897
 42
4.71238898038469
  0
LINE
  5
246
330
1F
100
AcDbEntity
  8
化粧台
  6
CONTINUOUS
 62
     6
100
AcDbLine
 10
946.000000000378
 20
1874.883863229598
 30
0.0
 11
946.000000000378
 21
1816.860161176
 31
0.0
  0
LINE
  5
247
330
1F
100
AcDbEntity
  8
化粧台
  6
CONTINUOUS
 62
     6
100
AcDbLine
 10
976.0000000003781
 20
1874.883863229598
 30
0.0
 11
976.0000000003781
 21
1816.860161176
 31
0.0
  0
LINE
  5
248
330
1F
100
AcDbEntity
  8
化粧台
  6
CONTINUOUS
 62
     6
100
AcDbLine
 10
949.500000000378
 20
1848.8838632295
 30
0.0
 11
949.500000000378
 21
1857.674099298499
 31
0.0
  0
LINE
  5
249
330
1F
100
AcDbEntity
  8
化粧台
  6
CONTINUOUS
 62
     6
100
AcDbLine
 10
972.5000000003781
 20
1848.8838632295
 30
0.0
 11
972.5000000003781
 21
1857.674099298499
 31
0.0
  0
ELLIPSE
  5
24A
330
1F
100
AcDbEntity
  8
化粧台
  6
CONTINUOUS
 62
     6
100
AcDbEllipse
 10
961.0000000003781
 20
1857.674099298499
 30
0.0
 11
11.50000000000001
 21
0.0
 31
0.0
210
0.0
220
0.0
230
1.0
 40
0.1739668486608696
 41
0.0
 42
3.141592653589793
  0
LINE
  5
24B
330
1F
100
AcDbEntity
  8
化粧台
  6
CONTINUOUS
 62
     6
100
AcDbLine
 10
936.500000000378
 20
1881.883863229598
 30
0.0
 11
948.3640723863606
 21
1881.883863229598
 31
0.0
  0
LINE
  5
24C
330
1F
100
AcDbEntity
  8
化粧台
  6
CONTINUOUS
 62
     6
100
AcDbLine
 10
973.6359276143935
 20
1881.883863229598
 30
0.0
 11
985.500000000378
 21
1881.883863229598
 31
0.0
  0
LINE
  5
24D
330
1F
100
AcDbEntity
  8
化粧台
  6
CONTINUOUS
 62
     6
100
AcDbLine
 10
947.1556268955134
 20
1879.883863229598
 30
0.0
 11
936.500000000378
 21
1879.883863229598
 31
0.0
  0
LINE
  5
24E
330
1F
100
AcDbEntity
  8
化粧台
  6
CONTINUOUS
 62
     6
100
AcDbLine
 10
985.500000000378
 20
1879.883863229598
 30
0.0
 11
974.8443731052407
 21
1879.883863229598
 31
0.0
  0
LINE
  5
24F
330
1F
100
AcDbEntity
  8
化粧台
  6
CONTINUOUS
 62
     6
100
AcDbLine
 10
936.500000000378
 20
1921.883863229598
 30
0.0
 11
936.500000000378
 21
1881.883863229598
 31
0.0
  0
ARC
  5
250
330
1F
100
AcDbEntity
  8
化粧台
  6
CONTINUOUS
 62
     6
100
AcDbCircle
 10
938.500000000378
 20
1921.883863229598
 30
0.0
 40
2.0
100
AcDbArc
 50
90.00000000000001
 51
180.0
  0
LINE
  5
251
330
1F
100
AcDbEntity
  8
化粧台
  6
CONTINUOUS
 62
     6
100
AcDbLine
 10
985.500000000378
 20
1921.883863229598
 30
0.0
 11
985.500000000378
 21
1881.883863229598
 31
0.0
  0
LINE
  5
252
330
1F
100
AcDbEntity
  8
化粧台
  6
CONTINUOUS
 62
     6
100
AcDbLine
 10
938.500000000378
 20
1923.883863229599
 30
0.0
 11
983.5000000003781
 21
1923.883863229599
 31
0.0
  0
ARC
  5
253
330
1F
100
AcDbEntity
  8
化粧台
  6
CONTINUOUS
 62
     6
100
AcDbCircle
 10
983.5000000003781
 20
1921.883863229598
 30
0.0
 40
2.0
100
AcDbArc
 50
0.0
 51
90.00000000000001
  0
LINE
  5
254
330
1F
100
AcDbEntity
  8
化粧台
  6
CONTINUOUS
 62
     6
100
AcDbLine
 10
936.500000000378
 20
1879.883863229598
 30
0.0
 11
936.5000000003762
 21
1779.562041741517
 31
0.0
  0
LINE
  5
255
330
1F
100
AcDbEntity
  8
化粧台
  6
CONTINUOUS
 62
     6
100
AcDbLine
 10
985.500000000378
 20
1879.883863229598
 30
0.0
 11
985.5000000003763
 21
1779.562041741517
 31
0.0
  0
ELLIPSE
  5
256
330
1F
100
AcDbEntity
  8
化粧台
  6
CONTINUOUS
 62
     6
100
AcDbEllipse
 10
961.0000000003781
 20
1834.8838632295
 30
0.0
 11
15.00000000000001
 21
0.0
 31
0.0
210
0.0
220
0.0
230
1.0
 40
0.8660254037844385
 41
3.141592653589793
 42
6.283185307179586
  0
ARC
  5
257
330
1F
100
AcDbEntity
  8
化粧台
  6
CONTINUOUS
 62
     2
100
AcDbCircle
 10
961.0000000003889
 20
-3058.000000000006
 30
0.0
 40
4847.500000000005
100
AcDbArc
 50
90.28958278998701
 51
90.67964612359954
  0
ARC
  5
258
330
1F
100
AcDbEntity
  8
化粧台
  6
CONTINUOUS
 62
     2
100
AcDbCircle
 10
961.0000000003889
 20
-3058.000000000006
 30
0.0
 40
4847.500000000005
100
AcDbArc
 50
87.39609465484229
 51
89.71041721001328
  0
LINE
  5
259
330
1F
100
AcDbEntity
  8
化粧台
  6
EXLTYPE3
 62
     6
100
AcDbLine
 10
961.0000000003781
 20
1943.883863229598
 30
0.0
 11
961.0000000003781
 21
1311.0
 31
0.0
  0
LINE
  5
25A
330
1F
100
AcDbEntity
  8
化粧台
  6
CONTINUOUS
 62
     2
100
AcDbLine
 10
586.0000000003798
 20
1619.499999999999
 30
0.0
 11
586.0000000003798
 21
1599.5
 31
0.0
  0
LINE
  5
25B
330
1F
100
AcDbEntity
  8
化粧台
  6
CONTINUOUS
 62
     2
100
AcDbLine
 10
1336.000000000376
 20
1619.499999999999
 30
0.0
 11
1336.000000000376
 21
1599.5
 31
0.0
  0
LINE
  5
25C
330
1F
100
AcDbEntity
  8
化粧台
  6
CONTINUOUS
 62
     2
100
AcDbLine
 10
1336.000000000376
 20
1619.499999999999
 30
0.0
 11
586.0000000003798
 21
1619.499999999999
 31
0.0
  0
LINE
  5
25D
330
1F
100
AcDbEntity
  8
化粧台
  6
CONTINUOUS
 62
     2
100
AcDbLine
 10
2491.000000000376
 20
1599.5
 30
0.0
 11
2041.000000000376
 21
1599.5
 31
0.0
  0
ARC
  5
25E
330
1F
100
AcDbEntity
  8
化粧台
  6
CONTINUOUS
 62
     6
100
AcDbCircle
 10
909.038475773999
 20
3610.0
 30
0.0
 40
50.00000000000004
100
AcDbArc
 50
90.00000000000001
 51
171.7867892961641
  0
ARC
  5
25F
330
1F
100
AcDbEntity
  8
化粧台
  6
CONTINUOUS
 62
     6
100
AcDbCircle
 10
1012.961524226779
 20
3610.0
 30
0.0
 40
50.00000000000004
100
AcDbArc
 50
8.213210703835998
 51
90.00000000000001
  0
ARC
  5
260
330
1F
100
AcDbEntity
  8
化粧台
  6
CONTINUOUS
 62
     6
100
AcDbCircle
 10
961.0000000003889
 20
3602.499999998156
 30
0.0
 40
102.4999999995951
100
AcDbArc
 50
171.7867892961641
 51
8.213210703835998
  0
ARC
  5
261
330
1F
100
AcDbEntity
  8
化粧台
  6
CONTINUOUS
 62
     2
100
AcDbCircle
 10
961.0000000003889
 20
3590.429987018266
 30
0.0
 40
212.5700129817332
100
AcDbArc
 50
9.763897427589361
 51
170.2361025724106
  0
ARC
  5
262
330
1F
100
AcDbEntity
  8
化粧台
  6
CONTINUOUS
 62
     2
100
AcDbCircle
 10
800.7848212404857
 20
3618.0
 30
0.0
 40
50.00000000000004
100
AcDbArc
 50
90.00000000000001
 51
170.2361025724106
  0
ARC
  5
263
330
1F
100
AcDbEntity
  8
化粧台
  6
CONTINUOUS
 62
     2
100
AcDbCircle
 10
1121.21517876029
 20
3618.0
 30
0.0
 40
50.00000000000004
100
AcDbArc
 50
9.763897427589361
 51
90.00000000000001
  0
LINE
  5
264
330
1F
100
AcDbEntity
  8
化粧台
  6
CONTINUOUS
 62
     6
100
AcDbLine
 10
924.1000000003893
 20
3580.0
 30
0.0
 11
997.9000000003884
 21
3580.0
 31
0.0
  0
CIRCLE
  5
265
330
1F
100
AcDbEntity
  8
化粧台
  6
CONTINUOUS
 62
     2
100
AcDbCircle
 10
961.0000000003889
 20
3580.0
 30
0.0
 40
19.20000000000001
  0
CIRCLE
  5
266
330
1F
100
AcDbEntity
  8
化粧台
  6
CONTINUOUS
 62
     6
100
AcDbCircle
 10
901.0000000003889
 20
3719.0
 30
0.0
 40
8.50000000060004
  0
CIRCLE
  5
267
330
1F
100
AcDbEntity
  8
化粧台
  6
CONTINUOUS
 62
     6
100
AcDbCircle
 10
901.0000000003889
 20
3719.0
 30
0.0
 40
12.5
  0
ELLIPSE
  5
268
330
1F
100
AcDbEntity
  8
化粧台
  6
CONTINUOUS
 62
     2
100
AcDbEllipse
 10
961.0000000003871
 20
3580.5
 30
0.0
 11
1.393035734030114E-14
 21
227.5
 31
0.0
210
0.0
220
0.0
230
1.0
 40
0.9890109890109892
 41
0.0
 42
6.283185307179586
  0
CIRCLE
  5
269
330
1F
100
AcDbEntity
  8
化粧台
  6
CONTINUOUS
 62
     6
100
AcDbCircle
 10
961.0000000003781
 20
3729.0
 30
0.0
 40
25.00000000010004
  0
ELLIPSE
  5
26A
330
1F
100
AcDbEntity
  8
化粧台
  6
CONTINUOUS
 62
     6
100
AcDbEllipse
 10
961.0000000003781
 20
3635.440536449099
 30
0.0
 11
-7.500000000000007
 21
9.184850993605158E-16
 31
0.0
210
0.0
220
0.0
230
1.0
 40
0.4388120546666563
 41
0.0
 42
6.283185307179586
  0
ELLIPSE
  5
26B
330
1F
100
AcDbEntity
  8
化粧台
  6
CONTINUOUS
 62
     6
100
AcDbEllipse
 10
961.0000000003781
 20
3611.2145230735
 30
0.0
 11
-15.00000000000001
 21
1.836970198721031E-15
 31
0.0
210
0.0
220
0.0
230
1.0
 40
0.4362793889666742
 41
0.0
 42
6.283185307179586
  0
LINE
  5
26C
330
1F
100
AcDbEntity
  8
化粧台
  6
CONTINUOUS
 62
     6
100
AcDbLine
 10
946.000000000378
 20
3611.2145230735
 30
0.0
 11
946.000000000378
 21
3708.999999999874
 31
0.0
  0
LINE
  5
26D
330
1F
100
AcDbEntity
  8
化粧台
  6
CONTINUOUS
 62
     6
100
AcDbLine
 10
976.0000000003781
 20
3611.2145230735
 30
0.0
 11
976.0000000003781
 21
3708.999999999874
 31
0.0
  0
LINE
  5
26E
330
1F
100
AcDbEntity
  8
化粧台
  6
CONTINUOUS
 62
     6
100
AcDbLine
 10
953.500000000378
 20
3635.440536449099
 30
0.0
 11
953.500000000378
 21
3705.151519964471
 31
0.0
  0
LINE
  5
26F
330
1F
100
AcDbEntity
  8
化粧台
  6
CONTINUOUS
 62
     6
100
AcDbLine
 10
968.5000000003781
 20
3635.440536449099
 30
0.0
 11
968.5000000003781
 21
3705.151519964471
 31
0.0
  0
LINE
  5
270
330
1F
100
AcDbEntity
  8
化粧台
  6
CONTINUOUS
 62
     6
100
AcDbLine
 10
946.000000000378
 20
3660.0
 30
0.0
 11
909.038475773999
 21
3660.0
 31
0.0
  0
LINE
  5
271
330
1F
100
AcDbEntity
  8
化粧台
  6
CONTINUOUS
 62
     2
100
AcDbLine
 10
800.7848212404857
 20
3668.0
 30
0.0
 11
946.000000000378
 21
3668.0
 31
0.0
  0
LINE
  5
272
330
1F
100
AcDbEntity
  8
化粧台
  6
CONTINUOUS
 62
     2
100
AcDbLine
 10
976.0000000003781
 20
3668.0
 30
0.0
 11
1121.21517876029
 21
3668.0
 31
0.0
  0
LINE
  5
273
330
1F
100
AcDbEntity
  8
化粧台
  6
CONTINUOUS
 62
     6
100
AcDbLine
 10
1012.961524226779
 20
3660.0
 30
0.0
 11
976.0000000003781
 21
3660.0
 31
0.0
  0
ARC
  5
274
330
1F
100
AcDbEntity
  8
化粧台
  6
CONTINUOUS
 62
     2
100
AcDbCircle
 10
961.0000000003889
 20
3580.0
 30
0.0
 40
26.90000000000001
100
AcDbArc
 50
107.3170186528517
 51
72.68298134716953
  0
LINE
  5
275
330
1F
100
AcDbEntity
  8
化粧台
  6
CONTINUOUS
 62
     6
100
AcDbLine
 10
1001.00000000048
 20
3728.999999999989
 30
0.0
 11
921.0000000002798
 21
3728.999999999989
 31
0.0
  0
ELLIPSE
  5
276
330
1F
100
AcDbEntity
  8
化粧台
  6
CONTINUOUS
 62
     6
100
AcDbEllipse
 10
961.0000000003871
 20
3580.5
 30
0.0
 11
1.362419564051430E-14
 21
222.5
 31
0.0
210
0.0
220
0.0
230
1.0
 40
0.9887640449438201
 41
0.0
 42
6.283185307179586
  0
LINE
  5
277
330
1F
100
AcDbEntity
  8
化粧台
  6
CONTINUOUS
 62
     2
100
AcDbLine
 10
586.000000000378
 20
3375.0
 30
0.0
 11
864.4713114834561
 21
3375.0
 31
0.0
  0
LINE
  5
278
330
1F
100
AcDbEntity
  8
化粧台
  6
CONTINUOUS
 62
     2
100
AcDbLine
 10
1057.528688517318
 20
3375.0
 30
0.0
 11
1336.000000000376
 21
3375.0
 31
0.0
  0
LINE
  5
279
330
1F
100
AcDbEntity
  8
化粧台
  6
CONTINUOUS
 62
     2
100
AcDbLine
 10
2041.000000000376
 20
1616.499999999949
 30
0.0
 11
2041.000000000376
 21
1599.5
 31
0.0
  0
LINE
  5
27A
330
1F
100
AcDbEntity
  8
鏡台
  6
CONTINUOUS
 62
     2
100
AcDbLine
 10
736.000000000385
 20
2656.3
 30
0.0
 11
736.000000000385
 21
2116.3
 31
0.0
  0
LINE
  5
27B
330
1F
100
AcDbEntity
  8
鏡台
  6
CONTINUOUS
 62
     6
100
AcDbLine
 10
792.750000000385
 20
2606.299999999999
 30
0.0
 11
829.250000000385
 21
2606.299999999999
 31
0.0
  0
LINE
  5
27C
330
1F
100
AcDbEntity
  8
鏡台
  6
CONTINUOUS
 62
     6
100
AcDbLine
 10
811.000000000385
 20
2588.05
 30
0.0
 11
811.000000000385
 21
2624.55
 31
0.0
  0
LINE
  5
27D
330
1F
100
AcDbEntity
  8
鏡台
  6
CONTINUOUS
 62
     6
100
AcDbLine
 10
1092.750000000385
 20
2606.299999999999
 30
0.0
 11
1129.250000000385
 21
2606.299999999999
 31
0.0
  0
LINE
  5
27E
330
1F
100
AcDbEntity
  8
鏡台
  6
CONTINUOUS
 62
     6
100
AcDbLine
 10
1111.000000000385
 20
2588.05
 30
0.0
 11
1111.000000000385
 21
2624.55
 31
0.0
  0
LINE
  5
27F
330
1F
100
AcDbEntity
  8
鏡台
  6
CONTINUOUS
 62
     6
100
AcDbLine
 10
1092.750000000385
 20
2166.299999999999
 30
0.0
 11
1129.250000000385
 21
2166.299999999999
 31
0.0
  0
LINE
  5
280
330
1F
100
AcDbEntity
  8
鏡台
  6
CONTINUOUS
 62
     6
100
AcDbLine
 10
1111.000000000385
 20
2148.05
 30
0.0
 11
1111.000000000385
 21
2184.55
 31
0.0
  0
LINE
  5
281
330
1F
100
AcDbEntity
  8
鏡台
  6
CONTINUOUS
 62
     6
100
AcDbLine
 10
792.750000000385
 20
2166.299999999999
 30
0.0
 11
829.250000000385
 21
2166.299999999999
 31
0.0
  0
LINE
  5
282
330
1F
100
AcDbEntity
  8
鏡台
  6
CONTINUOUS
 62
     6
100
AcDbLine
 10
811.000000000385
 20
2148.05
 30
0.0
 11
811.000000000385
 21
2184.55
 31
0.0
  0
CIRCLE
  5
283
330
1F
100
AcDbEntity
  8
鏡台
  6
EXLTYPE2
 62
     6
100
AcDbCircle
 10
811.000000000385
 20
2166.3
 30
0.0
 40
8.25
  0
CIRCLE
  5
284
330
1F
100
AcDbEntity
  8
鏡台
  6
EXLTYPE2
 62
     6
100
AcDbCircle
 10
1111.000000000385
 20
2166.3
 30
0.0
 40
8.25
  0
LINE
  5
285
330
1F
100
AcDbEntity
  8
鏡台
  6
CONTINUOUS
 62
     2
100
AcDbLine
 10
737.500000000385
 20
2668.3
 30
0.0
 11
737.500000000385
 21
2104.3
 31
0.0
  0
LINE
  5
286
330
1F
100
AcDbEntity
  8
鏡台
  6
CONTINUOUS
 62
     4
100
AcDbLine
 10
739.000000000385
 20
2669.5
 30
0.0
 11
739.000000000385
 21
2662.5
 31
0.0
  0
ARC
  5
287
330
1F
100
AcDbEntity
  8
鏡台
  6
CONTINUOUS
 62
     4
100
AcDbCircle
 10
742.0000000003859
 20
2662.5
 30
0.0
 40
3.000000000000001
100
AcDbArc
 50
180.0
 51
270.0
  0
LINE
  5
288
330
1F
100
AcDbEntity
  8
鏡台
  6
CONTINUOUS
 62
     4
100
AcDbLine
 10
1183.000000000385
 20
2669.5
 30
0.0
 11
1183.000000000385
 21
2662.5
 31
0.0
  0
ARC
  5
289
330
1F
100
AcDbEntity
  8
鏡台
  6
CONTINUOUS
 62
     4
100
AcDbCircle
 10
1180.000000000386
 20
2662.5
 30
0.0
 40
3.000000000000001
100
AcDbArc
 50
270.0
 51
0.0
  0
LINE
  5
28A
330
1F
100
AcDbEntity
  8
鏡台
  6
CONTINUOUS
 62
     4
100
AcDbLine
 10
739.000000000385
 20
2669.5
 30
0.0
 11
1183.000000000385
 21
2669.5
 31
0.0
  0
LINE
  5
28B
330
1F
100
AcDbEntity
  8
鏡台
  6
CONTINUOUS
 62
     4
100
AcDbLine
 10
742.0000000003859
 20
2659.5
 30
0.0
 11
1180.000000000386
 21
2659.5
 31
0.0
  0
LINE
  5
28C
330
1F
100
AcDbEntity
  8
鏡台
  6
CONTINUOUS
 62
     4
100
AcDbLine
 10
739.000000000385
 20
2103.1
 30
0.0
 11
739.000000000385
 21
2110.1
 31
0.0
  0
ARC
  5
28D
330
1F
100
AcDbEntity
  8
鏡台
  6
CONTINUOUS
 62
     4
100
AcDbCircle
 10
742.000000000384
 20
2110.1
 30
0.0
 40
3.000000000000001
100
AcDbArc
 50
90.00000000000001
 51
180.0
  0
LINE
  5
28E
330
1F
100
AcDbEntity
  8
鏡台
  6
EXLTYPE3
 62
     6
100
AcDbLine
 10
1184.500000000385
 20
2668.3
 30
0.0
 11
737.500000000385
 21
2386.3
 31
0.0
  0
LINE
  5
28F
330
1F
100
AcDbEntity
  8
鏡台
  6
CONTINUOUS
 62
     2
100
AcDbLine
 10
1184.500000000384
 20
2656.3
 30
0.0
 11
1186.000000000385
 21
2656.3
 31
0.0
  0
LINE
  5
290
330
1F
100
AcDbEntity
  8
鏡台
  6
CONTINUOUS
 62
     2
100
AcDbLine
 10
736.000000000385
 20
2656.3
 30
0.0
 11
737.500000000385
 21
2656.3
 31
0.0
  0
CIRCLE
  5
291
330
1F
100
AcDbEntity
  8
鏡台
  6
EXLTYPE2
 62
     6
100
AcDbCircle
 10
811.000000000385
 20
2606.3
 30
0.0
 40
8.25
  0
CIRCLE
  5
292
330
1F
100
AcDbEntity
  8
鏡台
  6
EXLTYPE2
 62
     6
100
AcDbCircle
 10
1111.000000000385
 20
2606.3
 30
0.0
 40
8.25
  0
LINE
  5
293
330
1F
100
AcDbEntity
  8
鏡台
  6
CONTINUOUS
 62
     2
100
AcDbLine
 10
736.000000000385
 20
2116.3
 30
0.0
 11
737.500000000385
 21
2116.3
 31
0.0
  0
LINE
  5
294
330
1F
100
AcDbEntity
  8
鏡台
  6
CONTINUOUS
 62
     2
100
AcDbLine
 10
737.500000000385
 20
2668.299999999999
 30
0.0
 11
739.000000000385
 21
2668.299999999999
 31
0.0
  0
LINE
  5
295
330
1F
100
AcDbEntity
  8
鏡台
  6
CONTINUOUS
 62
     2
100
AcDbLine
 10
1183.000000000386
 20
2668.299999999999
 30
0.0
 11
1184.500000000384
 21
2668.299999999999
 31
0.0
  0
LINE
  5
296
330
1F
100
AcDbEntity
  8
鏡台
  6
CONTINUOUS
 62
     2
100
AcDbLine
 10
739.000000000385
 20
2104.300000000001
 30
0.0
 11
737.500000000385
 21
2104.300000000001
 31
0.0
  0
LINE
  5
297
330
1F
100
AcDbEntity
  8
鏡台
  6
CONTINUOUS
 62
     6
100
AcDbLine
 10
901.5144660944536
 20
2220.885533905902
 30
0.0
 11
888.7644660944536
 21
2208.135533905906
 31
0.0
  0
LINE
  5
298
330
1F
100
AcDbEntity
  8
鏡台
  6
CONTINUOUS
 62
     6
100
AcDbLine
 10
880.8000000003833
 20
2193.099999999974
 30
0.0
 11
913.300000000387
 21
2225.599999999971
 31
0.0
  0
LINE
  5
299
330
1F
100
AcDbEntity
  8
鏡台
  6
CONTINUOUS
 62
     6
100
AcDbLine
 10
891.3355339063185
 20
2196.564466094037
 30
0.0
 11
906.3355339063203
 21
2211.564466094035
 31
0.0
  0
LINE
  5
29A
330
1F
100
AcDbEntity
  8
鏡台
  6
CONTINUOUS
 62
     6
100
AcDbLine
 10
932.544533433452
 20
2577.303831421802
 30
0.0
 11
919.794533433452
 21
2564.553831421806
 31
0.0
  0
LINE
  5
29B
330
1F
100
AcDbEntity
  8
鏡台
  6
CONTINUOUS
 62
     6
100
AcDbLine
 10
911.8300673393817
 20
2549.518297515874
 30
0.0
 11
944.3300673393853
 21
2582.018297515871
 31
0.0
  0
LINE
  5
29C
330
1F
100
AcDbEntity
  8
鏡台
  6
CONTINUOUS
 62
     6
100
AcDbLine
 10
922.3656012453168
 20
2552.982763609937
 30
0.0
 11
937.3656012453187
 21
2567.982763609935
 31
0.0
  0
LINE
  5
29D
330
1F
100
AcDbEntity
  8
鏡台
  6
CONTINUOUS
 62
     6
100
AcDbLine
 10
1023.114466094453
 20
2413.985533905901
 30
0.0
 11
1010.364466094453
 21
2401.235533905905
 31
0.0
  0
LINE
  5
29E
330
1F
100
AcDbEntity
  8
鏡台
  6
CONTINUOUS
 62
     6
100
AcDbLine
 10
1002.400000000383
 20
2386.199999999973
 30
0.0
 11
1034.900000000387
 21
2418.699999999971
 31
0.0
  0
LINE
  5
29F
330
1F
100
AcDbEntity
  8
鏡台
  6
CONTINUOUS
 62
     6
100
AcDbLine
 10
1012.935533906318
 20
2389.664466094036
 30
0.0
 11
1027.93553390632
 21
2404.664466094035
 31
0.0
  0
LINE
  5
2A0
330
1F
100
AcDbEntity
  8
鏡台
  6
CONTINUOUS
 62
     2
100
AcDbLine
 10
1186.000000000385
 20
2656.3
 30
0.0
 11
1186.000000000385
 21
2116.3
 31
0.0
  0
LINE
  5
2A1
330
1F
100
AcDbEntity
  8
鏡台
  6
CONTINUOUS
 62
     4
100
AcDbLine
 10
1183.000000000385
 20
2103.1
 30
0.0
 11
739.000000000385
 21
2103.1
 31
0.0
  0
LINE
  5
2A2
330
1F
100
AcDbEntity
  8
鏡台
  6
CONTINUOUS
 62
     4
100
AcDbLine
 10
1183.000000000385
 20
2103.1
 30
0.0
 11
1183.000000000385
 21
2110.1
 31
0.0
  0
ARC
  5
2A3
330
1F
100
AcDbEntity
  8
鏡台
  6
CONTINUOUS
 62
     4
100
AcDbCircle
 10
1180.000000000386
 20
2110.1
 30
0.0
 40
3.000000000000001
100
AcDbArc
 50
0.0
 51
90.00000000000001
  0
LINE
  5
2A4
330
1F
100
AcDbEntity
  8
鏡台
  6
CONTINUOUS
 62
     2
100
AcDbLine
 10
1184.500000000384
 20
2116.299999999999
 30
0.0
 11
1186.000000000385
 21
2116.299999999999
 31
0.0
  0
LINE
  5
2A5
330
1F
100
AcDbEntity
  8
鏡台
  6
CONTINUOUS
 62
     2
100
AcDbLine
 10
1183.000000000386
 20
2104.300000000001
 30
0.0
 11
1184.500000000384
 21
2104.300000000001
 31
0.0
  0
LINE
  5
2A6
330
1F
100
AcDbEntity
  8
鏡台
  6
CONTINUOUS
 62
     4
100
AcDbLine
 10
1180.000000000386
 20
2113.1
 30
0.0
 11
742.000000000384
 21
2113.1
 31
0.0
  0
LINE
  5
2A7
330
1F
100
AcDbEntity
  8
鏡台
  6
EXLTYPE3
 62
     6
100
AcDbLine
 10
737.500000000385
 20
2386.3
 30
0.0
 11
1184.500000000386
 21
2104.300000000001
 31
0.0
  0
LINE
  5
2A8
330
1F
100
AcDbEntity
  8
鏡台
  6
CONTINUOUS
 62
     2
100
AcDbLine
 10
1184.500000000384
 20
2668.3
 30
0.0
 11
1184.500000000384
 21
2104.300000000001
 31
0.0
  0
LINE
  5
2A9
330
1F
100
AcDbEntity
  8
鏡台
  6
EXLTYPE2
 62
     3
100
AcDbLine
 10
752.500000000385
 20
2133.3
 30
0.0
 11
752.500000000385
 21
2173.3
 31
0.0
  0
LINE
  5
2AA
330
1F
100
AcDbEntity
  8
鏡台
  6
EXLTYPE2
 62
     3
100
AcDbLine
 10
752.500000000385
 20
2133.3
 30
0.0
 11
1169.500000000384
 21
2133.3
 31
0.0
  0
LINE
  5
2AB
330
1F
100
AcDbEntity
  8
鏡台
  6
EXLTYPE2
 62
     3
100
AcDbLine
 10
752.500000000385
 20
2173.3
 30
0.0
 11
1169.500000000384
 21
2173.3
 31
0.0
  0
LINE
  5
2AC
330
1F
100
AcDbEntity
  8
鏡台
  6
EXLTYPE2
 62
     3
100
AcDbLine
 10
1169.500000000384
 20
2173.3
 30
0.0
 11
1169.500000000384
 21
2133.3
 31
0.0
  0
LINE
  5
2AD
330
1F
100
AcDbEntity
  8
鏡台
  6
EXLTYPE2
 62
     3
100
AcDbLine
 10
752.5000000003852
 20
2375.3
 30
0.0
 11
1169.500000000384
 21
2375.3
 31
0.0
  0
LINE
  5
2AE
330
1F
100
AcDbEntity
  8
鏡台
  6
EXLTYPE2
 62
     3
100
AcDbLine
 10
752.5000000003852
 20
2415.3
 30
0.0
 11
1169.500000000384
 21
2415.3
 31
0.0
  0
LINE
  5
2AF
330
1F
100
AcDbEntity
  8
鏡台
  6
EXLTYPE2
 62
     3
100
AcDbLine
 10
1169.500000000384
 20
2415.3
 30
0.0
 11
1169.500000000384
 21
2375.3
 31
0.0
  0
LINE
  5
2B0
330
1F
100
AcDbEntity
  8
鏡台
  6
EXLTYPE2
 62
     3
100
AcDbLine
 10
752.5000000003852
 20
2375.3
 30
0.0
 11
752.5000000003852
 21
2415.3
 31
0.0
  0
CIRCLE
  5
2B1
330
1F
100
AcDbEntity
  8
鏡台
  6
EXLTYPE2
 62
     3
100
AcDbCircle
 10
2464.00000000055
 20
2628.300000000001
 30
0.0
 40
4.0
  0
CIRCLE
  5
2B2
330
1F
100
AcDbEntity
  8
鏡台
  6
EXLTYPE2
 62
     3
100
AcDbCircle
 10
2404.00000000055
 20
2628.300000000001
 30
0.0
 40
4.0
  0
ARC
  5
2B3
330
1F
100
AcDbEntity
  8
鏡台
  6
EXLTYPE2
 62
     3
100
AcDbCircle
 10
2395.500000000549
 20
2172.799999999999
 30
0.0
 40
0.5
100
AcDbArc
 50
90.00000000000001
 51
180.0
  0
ARC
  5
2B4
330
1F
100
AcDbEntity
  8
鏡台
  6
EXLTYPE2
 62
     3
100
AcDbCircle
 10
2397.000000000549
 20
2172.799999999999
 30
0.0
 40
0.5
100
AcDbArc
 50
0.0
 51
90.00000000000001
  0
ARC
  5
2B5
330
1F
100
AcDbEntity
  8
鏡台
  6
EXLTYPE2
 62
     3
100
AcDbCircle
 10
2395.300000000549
 20
2169.341607978309
 30
0.0
 40
0.3
100
AcDbArc
 50
180.0
 51
260.4059317731485
  0
ARC
  5
2B6
330
1F
100
AcDbEntity
  8
鏡台
  6
EXLTYPE2
 62
     3
100
AcDbCircle
 10
2395.20000000055
 20
2168.749999999999
 30
0.0
 40
0.3
100
AcDbArc
 50
0.0
 51
80.40593177314841
  0
ARC
  5
2B7
330
1F
100
AcDbEntity
  8
鏡台
  6
EXLTYPE2
 62
     3
100
AcDbCircle
 10
2395.20000000055
 20
2166.349999999999
 30
0.0
 40
0.3
100
AcDbArc
 50
279.5940682268516
 51
0.0
  0
ARC
  5
2B8
330
1F
100
AcDbEntity
  8
鏡台
  6
EXLTYPE2
 62
     3
100
AcDbCircle
 10
2395.300000000549
 20
2165.758392021688
 30
0.0
 40
0.3
100
AcDbArc
 50
99.59406822685159
 51
180.0
  0
ARC
  5
2B9
330
1F
100
AcDbEntity
  8
鏡台
  6
EXLTYPE2
 62
     3
100
AcDbCircle
 10
2395.300000000549
 20
2163.341607978309
 30
0.0
 40
0.3
100
AcDbArc
 50
180.0
 51
260.4059317731485
  0
ARC
  5
2BA
330
1F
100
AcDbEntity
  8
鏡台
  6
EXLTYPE2
 62
     3
100
AcDbCircle
 10
2395.20000000055
 20
2162.749999999999
 30
0.0
 40
0.3
100
AcDbArc
 50
0.0
 51
80.40593177314841
  0
ARC
  5
2BB
330
1F
100
AcDbEntity
  8
鏡台
  6
EXLTYPE2
 62
     3
100
AcDbCircle
 10
2395.300000000549
 20
2159.758392021688
 30
0.0
 40
0.3
100
AcDbArc
 50
99.59406822685159
 51
180.0
  0
ARC
  5
2BC
330
1F
100
AcDbEntity
  8
鏡台
  6
EXLTYPE2
 62
     3
100
AcDbCircle
 10
2395.20000000055
 20
2160.349999999999
 30
0.0
 40
0.3
100
AcDbArc
 50
279.5940682268516
 51
0.0
  0
ARC
  5
2BD
330
1F
100
AcDbEntity
  8
鏡台
  6
EXLTYPE2
 62
     3
100
AcDbCircle
 10
2395.300000000549
 20
2157.341607978309
 30
0.0
 40
0.3
100
AcDbArc
 50
180.0
 51
260.4059317731485
  0
ARC
  5
2BE
330
1F
100
AcDbEntity
  8
鏡台
  6
EXLTYPE2
 62
     3
100
AcDbCircle
 10
2395.20000000055
 20
2156.749999999999
 30
0.0
 40
0.3
100
AcDbArc
 50
0.0
 51
80.40593177314841
  0
ARC
  5
2BF
330
1F
100
AcDbEntity
  8
鏡台
  6
EXLTYPE2
 62
     3
100
AcDbCircle
 10
2395.300000000549
 20
2153.758392021688
 30
0.0
 40
0.3
100
AcDbArc
 50
99.59406822685159
 51
180.0
  0
ARC
  5
2C0
330
1F
100
AcDbEntity
  8
鏡台
  6
EXLTYPE2
 62
     3
100
AcDbCircle
 10
2395.20000000055
 20
2154.349999999999
 30
0.0
 40
0.3
100
AcDbArc
 50
279.5940682268516
 51
0.0
  0
ARC
  5
2C1
330
1F
100
AcDbEntity
  8
鏡台
  6
EXLTYPE2
 62
     3
100
AcDbCircle
 10
2395.300000000549
 20
2151.341607978309
 30
0.0
 40
0.3
100
AcDbArc
 50
180.0
 51
260.4059317731485
  0
ARC
  5
2C2
330
1F
100
AcDbEntity
  8
鏡台
  6
EXLTYPE2
 62
     3
100
AcDbCircle
 10
2395.20000000055
 20
2150.749999999999
 30
0.0
 40
0.3
100
AcDbArc
 50
0.0
 51
80.40593177314841
  0
ARC
  5
2C3
330
1F
100
AcDbEntity
  8
鏡台
  6
EXLTYPE2
 62
     3
100
AcDbCircle
 10
2395.20000000055
 20
2148.349999999999
 30
0.0
 40
0.3
100
AcDbArc
 50
279.5940682268516
 51
0.0
  0
ARC
  5
2C4
330
1F
100
AcDbEntity
  8
鏡台
  6
EXLTYPE2
 62
     3
100
AcDbCircle
 10
2395.300000000549
 20
2147.758392021688
 30
0.0
 40
0.3
100
AcDbArc
 50
99.59406822685159
 51
180.0
  0
ARC
  5
2C5
330
1F
100
AcDbEntity
  8
鏡台
  6
EXLTYPE2
 62
     3
100
AcDbCircle
 10
2395.300000000549
 20
2145.341607978309
 30
0.0
 40
0.3
100
AcDbArc
 50
180.0
 51
260.4059317731485
  0
ARC
  5
2C6
330
1F
100
AcDbEntity
  8
鏡台
  6
EXLTYPE2
 62
     3
100
AcDbCircle
 10
2395.20000000055
 20
2144.749999999999
 30
0.0
 40
0.3
100
AcDbArc
 50
0.0
 51
80.40593177314841
  0
ARC
  5
2C7
330
1F
100
AcDbEntity
  8
鏡台
  6
EXLTYPE2
 62
     3
100
AcDbCircle
 10
2395.20000000055
 20
2142.349999999999
 30
0.0
 40
0.3
100
AcDbArc
 50
279.5940682268516
 51
0.0
  0
ARC
  5
2C8
330
1F
100
AcDbEntity
  8
鏡台
  6
EXLTYPE2
 62
     3
100
AcDbCircle
 10
2395.300000000549
 20
2141.758392021688
 30
0.0
 40
0.3
100
AcDbArc
 50
99.59406822685159
 51
180.0
  0
ARC
  5
2C9
330
1F
100
AcDbEntity
  8
鏡台
  6
EXLTYPE2
 62
     3
100
AcDbCircle
 10
2395.300000000549
 20
2139.341607978309
 30
0.0
 40
0.3
100
AcDbArc
 50
180.0
 51
260.4059317731485
  0
ARC
  5
2CA
330
1F
100
AcDbEntity
  8
鏡台
  6
EXLTYPE2
 62
     3
100
AcDbCircle
 10
2395.20000000055
 20
2138.749999999999
 30
0.0
 40
0.3
100
AcDbArc
 50
0.0
 51
80.40593177314841
  0
ARC
  5
2CB
330
1F
100
AcDbEntity
  8
鏡台
  6
EXLTYPE2
 62
     3
100
AcDbCircle
 10
2395.300000000549
 20
2135.758392021688
 30
0.0
 40
0.3
100
AcDbArc
 50
99.59406822685159
 51
180.0
  0
ARC
  5
2CC
330
1F
100
AcDbEntity
  8
鏡台
  6
EXLTYPE2
 62
     3
100
AcDbCircle
 10
2395.20000000055
 20
2136.349999999999
 30
0.0
 40
0.3
100
AcDbArc
 50
279.5940682268516
 51
0.0
  0
ARC
  5
2CD
330
1F
100
AcDbEntity
  8
鏡台
  6
EXLTYPE2
 62
     3
100
AcDbCircle
 10
2395.500000000549
 20
2133.799999999999
 30
0.0
 40
0.5
100
AcDbArc
 50
180.0
 51
270.0000000000002
  0
ARC
  5
2CE
330
1F
100
AcDbEntity
  8
鏡台
  6
EXLTYPE2
 62
     3
100
AcDbCircle
 10
2397.000000000549
 20
2133.799999999999
 30
0.0
 40
0.5
100
AcDbArc
 50
270.0000000000002
 51
0.0
  0
ARC
  5
2CF
330
1F
100
AcDbEntity
  8
鏡台
  6
EXLTYPE2
 62
     3
100
AcDbCircle
 10
2397.800000000549
 20
2151.099999999999
 30
0.0
 40
0.3
100
AcDbArc
 50
180.0
 51
270.0000000000002
  0
ARC
  5
2D0
330
1F
100
AcDbEntity
  8
鏡台
  6
EXLTYPE2
 62
     3
100
AcDbCircle
 10
2397.800000000549
 20
2147.999999999999
 30
0.0
 40
0.3
100
AcDbArc
 50
90.00000000000001
 51
180.0
  0
ARC
  5
2D1
330
1F
100
AcDbEntity
  8
鏡台
  6
EXLTYPE2
 62
     3
100
AcDbCircle
 10
2410.750000000549
 20
2141.549999999999
 30
0.0
 40
1.250000000000569
100
AcDbArc
 50
180.0
 51
0.0
  0
ARC
  5
2D2
330
1F
100
AcDbEntity
  8
鏡台
  6
EXLTYPE2
 62
     3
100
AcDbCircle
 10
2409.200000000548
 20
2147.999999999999
 30
0.0
 40
0.3
100
AcDbArc
 50
0.0
 51
90.00000000000001
  0
ARC
  5
2D3
330
1F
100
AcDbEntity
  8
鏡台
  6
EXLTYPE2
 62
     3
100
AcDbCircle
 10
2412.300000000549
 20
2147.999999999999
 30
0.0
 40
0.3
100
AcDbArc
 50
90.00000000000001
 51
180.0
  0
ARC
  5
2D4
330
1F
100
AcDbEntity
  8
鏡台
  6
EXLTYPE2
 62
     3
100
AcDbCircle
 10
2427.50000000055
 20
2147.799999999993
 30
0.0
 40
0.499999999994202
100
AcDbArc
 50
180.0
 51
0.0
  0
ARC
  5
2D5
330
1F
100
AcDbEntity
  8
鏡台
  6
EXLTYPE2
 62
     3
100
AcDbCircle
 10
2426.700000000548
 20
2147.999999999999
 30
0.0
 40
0.3
100
AcDbArc
 50
0.0
 51
90.00000000000001
  0
ARC
  5
2D6
330
1F
100
AcDbEntity
  8
鏡台
  6
EXLTYPE2
 62
     3
100
AcDbCircle
 10
2428.30000000055
 20
2147.999999999999
 30
0.0
 40
0.3
100
AcDbArc
 50
90.00000000000001
 51
180.0
  0
ARC
  5
2D7
330
1F
100
AcDbEntity
  8
鏡台
  6
EXLTYPE2
 62
     3
100
AcDbCircle
 10
2441.20000000055
 20
2147.999999999999
 30
0.0
 40
0.3
100
AcDbArc
 50
0.0
 51
90.00000000000001
  0
ARC
  5
2D8
330
1F
100
AcDbEntity
  8
鏡台
  6
EXLTYPE2
 62
     3
100
AcDbCircle
 10
2442.000000000549
 20
2147.8
 30
0.0
 40
0.500000000001478
100
AcDbArc
 50
180.0
 51
0.0
  0
ARC
  5
2D9
330
1F
100
AcDbEntity
  8
鏡台
  6
EXLTYPE2
 62
     3
100
AcDbCircle
 10
2442.800000000549
 20
2147.999999999999
 30
0.0
 40
0.3
100
AcDbArc
 50
90.00000000000001
 51
180.0
  0
ARC
  5
2DA
330
1F
100
AcDbEntity
  8
鏡台
  6
EXLTYPE2
 62
     3
100
AcDbCircle
 10
2457.20000000055
 20
2147.999999999999
 30
0.0
 40
0.3
100
AcDbArc
 50
0.0
 51
90.00000000000001
  0
ARC
  5
2DB
330
1F
100
AcDbEntity
  8
鏡台
  6
EXLTYPE2
 62
     3
100
AcDbCircle
 10
2460.300000000549
 20
2147.999999999999
 30
0.0
 40
0.3
100
AcDbArc
 50
90.00000000000001
 51
180.0
  0
ARC
  5
2DC
330
1F
100
AcDbEntity
  8
鏡台
  6
EXLTYPE2
 62
     3
100
AcDbCircle
 10
2460.500000000549
 20
2138.799999999999
 30
0.0
 40
0.5
100
AcDbArc
 50
180.0
 51
270.0000000000002
  0
ARC
  5
2DD
330
1F
100
AcDbEntity
  8
鏡台
  6
EXLTYPE2
 62
     3
100
AcDbCircle
 10
2466.750000000549
 20
2137.049999999999
 30
0.0
 40
1.249999999999631
100
AcDbArc
 50
270.0000000000002
 51
90.00000000000001
  0
ARC
  5
2DE
330
1F
100
AcDbEntity
  8
鏡台
  6
EXLTYPE2
 62
     3
100
AcDbCircle
 10
2458.000000000549
 20
2136.299999999999
 30
0.0
 40
0.5
100
AcDbArc
 50
180.0
 51
270.0000000000002
  0
ARC
  5
2DF
330
1F
100
AcDbEntity
  8
鏡台
  6
EXLTYPE2
 62
     3
100
AcDbCircle
 10
2472.50000000055
 20
2148.799999999999
 30
0.0
 40
0.5
100
AcDbArc
 50
270.0000000000002
 51
0.0
  0
ARC
  5
2E0
330
1F
100
AcDbEntity
  8
鏡台
  6
EXLTYPE2
 62
     3
100
AcDbCircle
 10
2472.50000000055
 20
2151.299999999999
 30
0.0
 40
0.5
100
AcDbArc
 50
0.0
 51
90.00000000000001
  0
ARC
  5
2E1
330
1F
100
AcDbEntity
  8
鏡台
  6
EXLTYPE2
 62
     3
100
AcDbCircle
 10
2469.500000000549
 20
2151.299999999999
 30
0.0
 40
0.5
100
AcDbArc
 50
270.0000000000002
 51
0.0
  0
ARC
  5
2E2
330
1F
100
AcDbEntity
  8
鏡台
  6
EXLTYPE2
 62
     3
100
AcDbCircle
 10
2470.500000000549
 20
2151.299999999999
 30
0.0
 40
0.5
100
AcDbArc
 50
90.00000000000001
 51
180.0
  0
LINE
  5
2E3
330
1F
100
AcDbEntity
  8
鏡台
  6
EXLTYPE2
 62
     3
100
AcDbLine
 10
2395.500000000549
 20
2173.299999999999
 30
0.0
 11
2397.000000000549
 21
2173.3
 31
0.0
  0
LINE
  5
2E4
330
1F
100
AcDbEntity
  8
鏡台
  6
EXLTYPE2
 62
     3
100
AcDbLine
 10
2395.00000000055
 20
2172.799999999999
 30
0.0
 11
2395.00000000055
 21
2169.341607978309
 31
0.0
  0
LINE
  5
2E5
330
1F
100
AcDbEntity
  8
鏡台
  6
EXLTYPE2
 62
     3
100
AcDbLine
 10
2395.500000000549
 20
2168.749999999999
 30
0.0
 11
2395.500000000549
 21
2166.349999999999
 31
0.0
  0
LINE
  5
2E6
330
1F
100
AcDbEntity
  8
鏡台
  6
EXLTYPE2
 62
     3
100
AcDbLine
 10
2395.00000000055
 20
2165.758392021688
 30
0.0
 11
2395.00000000055
 21
2163.341607978309
 31
0.0
  0
LINE
  5
2E7
330
1F
100
AcDbEntity
  8
鏡台
  6
EXLTYPE2
 62
     3
100
AcDbLine
 10
2395.500000000549
 20
2162.749999999999
 30
0.0
 11
2395.500000000549
 21
2160.349999999999
 31
0.0
  0
LINE
  5
2E8
330
1F
100
AcDbEntity
  8
鏡台
  6
EXLTYPE2
 62
     3
100
AcDbLine
 10
2395.00000000055
 20
2159.758392021688
 30
0.0
 11
2395.00000000055
 21
2157.341607978309
 31
0.0
  0
LINE
  5
2E9
330
1F
100
AcDbEntity
  8
鏡台
  6
EXLTYPE2
 62
     3
100
AcDbLine
 10
2395.500000000549
 20
2156.749999999999
 30
0.0
 11
2395.500000000549
 21
2154.349999999999
 31
0.0
  0
LINE
  5
2EA
330
1F
100
AcDbEntity
  8
鏡台
  6
EXLTYPE2
 62
     3
100
AcDbLine
 10
2395.000000000548
 20
2153.758392021688
 30
0.0
 11
2395.00000000055
 21
2151.341607978309
 31
0.0
  0
LINE
  5
2EB
330
1F
100
AcDbEntity
  8
鏡台
  6
EXLTYPE2
 62
     3
100
AcDbLine
 10
2395.500000000549
 20
2150.749999999999
 30
0.0
 11
2395.500000000549
 21
2148.349999999999
 31
0.0
  0
LINE
  5
2EC
330
1F
100
AcDbEntity
  8
鏡台
  6
EXLTYPE2
 62
     3
100
AcDbLine
 10
2395.00000000055
 20
2147.758392021688
 30
0.0
 11
2395.000000000548
 21
2145.341607978309
 31
0.0
  0
LINE
  5
2ED
330
1F
100
AcDbEntity
  8
鏡台
  6
EXLTYPE2
 62
     3
100
AcDbLine
 10
2395.500000000549
 20
2144.749999999999
 30
0.0
 11
2395.500000000549
 21
2142.349999999999
 31
0.0
  0
LINE
  5
2EE
330
1F
100
AcDbEntity
  8
鏡台
  6
EXLTYPE2
 62
     3
100
AcDbLine
 10
2395.000000000548
 20
2141.758392021688
 30
0.0
 11
2395.000000000548
 21
2139.341607978309
 31
0.0
  0
LINE
  5
2EF
330
1F
100
AcDbEntity
  8
鏡台
  6
EXLTYPE2
 62
     3
100
AcDbLine
 10
2395.500000000548
 20
2138.749999999999
 30
0.0
 11
2395.500000000549
 21
2136.349999999999
 31
0.0
  0
LINE
  5
2F0
330
1F
100
AcDbEntity
  8
鏡台
  6
EXLTYPE2
 62
     3
100
AcDbLine
 10
2395.000000000548
 20
2135.758392021688
 30
0.0
 11
2395.000000000546
 21
2133.799999999999
 31
0.0
  0
LINE
  5
2F1
330
1F
100
AcDbEntity
  8
鏡台
  6
EXLTYPE2
 62
     3
100
AcDbLine
 10
2395.500000000549
 20
2133.299999999999
 30
0.0
 11
2397.000000000549
 21
2133.3
 31
0.0
  0
LINE
  5
2F2
330
1F
100
AcDbEntity
  8
鏡台
  6
EXLTYPE2
 62
     3
100
AcDbLine
 10
2397.50000000055
 20
2147.999999999999
 30
0.0
 11
2397.50000000055
 21
2133.799999999999
 31
0.0
  0
LINE
  5
2F3
330
1F
100
AcDbEntity
  8
鏡台
  6
EXLTYPE2
 62
     3
100
AcDbLine
 10
2397.50000000055
 20
2172.799999999999
 30
0.0
 11
2397.50000000055
 21
2151.099999999999
 31
0.0
  0
LINE
  5
2F4
330
1F
100
AcDbEntity
  8
鏡台
  6
EXLTYPE2
 62
     3
100
AcDbLine
 10
2397.800000000549
 20
2148.299999999999
 30
0.0
 11
2409.200000000548
 21
2148.299999999999
 31
0.0
  0
LINE
  5
2F5
330
1F
100
AcDbEntity
  8
鏡台
  6
EXLTYPE2
 62
     3
100
AcDbLine
 10
2409.500000000549
 20
2147.999999999999
 30
0.0
 11
2409.500000000549
 21
2141.55
 31
0.0
  0
LINE
  5
2F6
330
1F
100
AcDbEntity
  8
鏡台
  6
EXLTYPE2
 62
     3
100
AcDbLine
 10
2412.000000000549
 20
2147.999999999999
 30
0.0
 11
2412.000000000549
 21
2141.55
 31
0.0
  0
LINE
  5
2F7
330
1F
100
AcDbEntity
  8
鏡台
  6
EXLTYPE2
 62
     3
100
AcDbLine
 10
2412.300000000549
 20
2148.299999999999
 30
0.0
 11
2426.700000000548
 21
2148.299999999999
 31
0.0
  0
LINE
  5
2F8
330
1F
100
AcDbEntity
  8
鏡台
  6
EXLTYPE2
 62
     3
100
AcDbLine
 10
2427.000000000542
 20
2148.0
 30
0.0
 11
2427.000000000549
 21
2147.799999999993
 31
0.0
  0
LINE
  5
2F9
330
1F
100
AcDbEntity
  8
鏡台
  6
EXLTYPE2
 62
     3
100
AcDbLine
 10
2428.000000000543
 20
2147.999999999999
 30
0.0
 11
2428.000000000538
 21
2147.799999999997
 31
0.0
  0
LINE
  5
2FA
330
1F
100
AcDbEntity
  8
鏡台
  6
EXLTYPE2
 62
     3
100
AcDbLine
 10
2428.30000000055
 20
2148.299999999999
 30
0.0
 11
2441.20000000055
 21
2148.299999999999
 31
0.0
  0
LINE
  5
2FB
330
1F
100
AcDbEntity
  8
鏡台
  6
EXLTYPE2
 62
     3
100
AcDbLine
 10
2441.500000000549
 20
2147.999999999999
 30
0.0
 11
2441.500000000556
 21
2147.800000000002
 31
0.0
  0
LINE
  5
2FC
330
1F
100
AcDbEntity
  8
鏡台
  6
EXLTYPE2
 62
     3
100
AcDbLine
 10
2442.50000000055
 20
2147.999999999998
 30
0.0
 11
2442.50000000055
 21
2147.8
 31
0.0
  0
LINE
  5
2FD
330
1F
100
AcDbEntity
  8
鏡台
  6
EXLTYPE2
 62
     3
100
AcDbLine
 10
2442.800000000549
 20
2148.299999999999
 30
0.0
 11
2457.20000000055
 21
2148.299999999999
 31
0.0
  0
LINE
  5
2FE
330
1F
100
AcDbEntity
  8
鏡台
  6
EXLTYPE2
 62
     3
100
AcDbLine
 10
2457.50000000055
 20
2147.999999999999
 30
0.0
 11
2457.50000000055
 21
2136.299999999999
 31
0.0
  0
LINE
  5
2FF
330
1F
100
AcDbEntity
  8
鏡台
  6
EXLTYPE2
 62
     3
100
AcDbLine
 10
2460.00000000055
 20
2147.999999999999
 30
0.0
 11
2460.00000000055
 21
2138.799999999999
 31
0.0
  0
LINE
  5
300
330
1F
100
AcDbEntity
  8
鏡台
  6
EXLTYPE2
 62
     3
100
AcDbLine
 10
2460.500000000549
 20
2138.299999999998
 30
0.0
 11
2466.750000000549
 21
2138.299999999999
 31
0.0
  0
LINE
  5
301
330
1F
100
AcDbEntity
  8
鏡台
  6
EXLTYPE2
 62
     3
100
AcDbLine
 10
2458.000000000549
 20
2135.799999999999
 30
0.0
 11
2466.750000000549
 21
2135.799999999998
 31
0.0
  0
LINE
  5
302
330
1F
100
AcDbEntity
  8
鏡台
  6
EXLTYPE2
 62
     3
100
AcDbLine
 10
2473.000000000549
 20
2151.299999999999
 30
0.0
 11
2473.000000000549
 21
2148.799999999999
 31
0.0
  0
LINE
  5
303
330
1F
100
AcDbEntity
  8
鏡台
  6
EXLTYPE2
 62
     3
100
AcDbLine
 10
2470.500000000549
 20
2151.799999999998
 30
0.0
 11
2472.50000000055
 21
2151.799999999997
 31
0.0
  0
LINE
  5
304
330
1F
100
AcDbEntity
  8
鏡台
  6
EXLTYPE2
 62
     3
100
AcDbLine
 10
2397.800000000549
 20
2150.799999999999
 30
0.0
 11
2469.500000000549
 21
2150.799999999999
 31
0.0
  0
LINE
  5
305
330
1F
100
AcDbEntity
  8
鏡台
  6
EXLTYPE2
 62
     3
100
AcDbLine
 10
2460.300000000549
 20
2148.299999999998
 30
0.0
 11
2472.50000000055
 21
2148.299999999998
 31
0.0
  0
CIRCLE
  5
306
330
1F
100
AcDbEntity
  8
鏡台
  6
EXLTYPE2
 62
     3
100
AcDbCircle
 10
2464.00000000055
 20
2144.3
 30
0.0
 40
4.0
  0
CIRCLE
  5
307
330
1F
100
AcDbEntity
  8
鏡台
  6
EXLTYPE2
 62
     3
100
AcDbCircle
 10
2404.00000000055
 20
2144.3
 30
0.0
 40
4.0
  0
ARC
  5
308
330
1F
100
AcDbEntity
  8
鏡台
  6
EXLTYPE2
 62
     3
100
AcDbCircle
 10
2395.500000000549
 20
2414.799999999999
 30
0.0
 40
0.5
100
AcDbArc
 50
90.00000000000001
 51
180.0
  0
ARC
  5
309
330
1F
100
AcDbEntity
  8
鏡台
  6
EXLTYPE2
 62
     3
100
AcDbCircle
 10
2397.000000000549
 20
2414.799999999999
 30
0.0
 40
0.5
100
AcDbArc
 50
0.0
 51
90.00000000000001
  0
ARC
  5
30A
330
1F
100
AcDbEntity
  8
鏡台
  6
EXLTYPE2
 62
     3
100
AcDbCircle
 10
2395.300000000549
 20
2411.341607978309
 30
0.0
 40
0.3
100
AcDbArc
 50
180.0
 51
260.4059317731485
  0
ARC
  5
30B
330
1F
100
AcDbEntity
  8
鏡台
  6
EXLTYPE2
 62
     3
100
AcDbCircle
 10
2395.20000000055
 20
2410.749999999999
 30
0.0
 40
0.3
100
AcDbArc
 50
0.0
 51
80.40593177314841
  0
ARC
  5
30C
330
1F
100
AcDbEntity
  8
鏡台
  6
EXLTYPE2
 62
     3
100
AcDbCircle
 10
2395.20000000055
 20
2408.349999999999
 30
0.0
 40
0.3
100
AcDbArc
 50
279.5940682268516
 51
0.0
  0
ARC
  5
30D
330
1F
100
AcDbEntity
  8
鏡台
  6
EXLTYPE2
 62
     3
100
AcDbCircle
 10
2395.300000000549
 20
2407.758392021688
 30
0.0
 40
0.3
100
AcDbArc
 50
99.59406822685159
 51
180.0
  0
ARC
  5
30E
330
1F
100
AcDbEntity
  8
鏡台
  6
EXLTYPE2
 62
     3
100
AcDbCircle
 10
2395.300000000549
 20
2405.341607978309
 30
0.0
 40
0.3
100
AcDbArc
 50
180.0
 51
260.4059317731485
  0
ARC
  5
30F
330
1F
100
AcDbEntity
  8
鏡台
  6
EXLTYPE2
 62
     3
100
AcDbCircle
 10
2395.20000000055
 20
2404.749999999999
 30
0.0
 40
0.3
100
AcDbArc
 50
0.0
 51
80.40593177314841
  0
ARC
  5
310
330
1F
100
AcDbEntity
  8
鏡台
  6
EXLTYPE2
 62
     3
100
AcDbCircle
 10
2395.300000000549
 20
2401.758392021688
 30
0.0
 40
0.3
100
AcDbArc
 50
99.59406822685159
 51
180.0
  0
ARC
  5
311
330
1F
100
AcDbEntity
  8
鏡台
  6
EXLTYPE2
 62
     3
100
AcDbCircle
 10
2395.20000000055
 20
2402.349999999999
 30
0.0
 40
0.3
100
AcDbArc
 50
279.5940682268516
 51
0.0
  0
ARC
  5
312
330
1F
100
AcDbEntity
  8
鏡台
  6
EXLTYPE2
 62
     3
100
AcDbCircle
 10
2395.300000000549
 20
2399.341607978309
 30
0.0
 40
0.3
100
AcDbArc
 50
180.0
 51
260.4059317731485
  0
ARC
  5
313
330
1F
100
AcDbEntity
  8
鏡台
  6
EXLTYPE2
 62
     3
100
AcDbCircle
 10
2395.20000000055
 20
2398.749999999999
 30
0.0
 40
0.3
100
AcDbArc
 50
0.0
 51
80.40593177314841
  0
ARC
  5
314
330
1F
100
AcDbEntity
  8
鏡台
  6
EXLTYPE2
 62
     3
100
AcDbCircle
 10
2395.300000000549
 20
2395.758392021688
 30
0.0
 40
0.3
100
AcDbArc
 50
99.59406822685159
 51
180.0
  0
ARC
  5
315
330
1F
100
AcDbEntity
  8
鏡台
  6
EXLTYPE2
 62
     3
100
AcDbCircle
 10
2395.20000000055
 20
2396.349999999999
 30
0.0
 40
0.3
100
AcDbArc
 50
279.5940682268516
 51
0.0
  0
ARC
  5
316
330
1F
100
AcDbEntity
  8
鏡台
  6
EXLTYPE2
 62
     3
100
AcDbCircle
 10
2395.300000000549
 20
2393.341607978309
 30
0.0
 40
0.3
100
AcDbArc
 50
180.0
 51
260.4059317731485
  0
ARC
  5
317
330
1F
100
AcDbEntity
  8
鏡台
  6
EXLTYPE2
 62
     3
100
AcDbCircle
 10
2395.20000000055
 20
2392.749999999999
 30
0.0
 40
0.3
100
AcDbArc
 50
0.0
 51
80.40593177314841
  0
ARC
  5
318
330
1F
100
AcDbEntity
  8
鏡台
  6
EXLTYPE2
 62
     3
100
AcDbCircle
 10
2395.20000000055
 20
2390.349999999999
 30
0.0
 40
0.3
100
AcDbArc
 50
279.5940682268516
 51
0.0
  0
ARC
  5
319
330
1F
100
AcDbEntity
  8
鏡台
  6
EXLTYPE2
 62
     3
100
AcDbCircle
 10
2395.300000000549
 20
2389.758392021688
 30
0.0
 40
0.3
100
AcDbArc
 50
99.59406822685159
 51
180.0
  0
ARC
  5
31A
330
1F
100
AcDbEntity
  8
鏡台
  6
EXLTYPE2
 62
     3
100
AcDbCircle
 10
2395.300000000549
 20
2387.341607978309
 30
0.0
 40
0.3
100
AcDbArc
 50
180.0
 51
260.4059317731485
  0
ARC
  5
31B
330
1F
100
AcDbEntity
  8
鏡台
  6
EXLTYPE2
 62
     3
100
AcDbCircle
 10
2395.20000000055
 20
2386.749999999999
 30
0.0
 40
0.3
100
AcDbArc
 50
0.0
 51
80.40593177314841
  0
ARC
  5
31C
330
1F
100
AcDbEntity
  8
鏡台
  6
EXLTYPE2
 62
     3
100
AcDbCircle
 10
2395.20000000055
 20
2384.349999999999
 30
0.0
 40
0.3
100
AcDbArc
 50
279.5940682268516
 51
0.0
  0
ARC
  5
31D
330
1F
100
AcDbEntity
  8
鏡台
  6
EXLTYPE2
 62
     3
100
AcDbCircle
 10
2395.300000000549
 20
2383.758392021688
 30
0.0
 40
0.3
100
AcDbArc
 50
99.59406822685159
 51
180.0
  0
ARC
  5
31E
330
1F
100
AcDbEntity
  8
鏡台
  6
EXLTYPE2
 62
     3
100
AcDbCircle
 10
2395.300000000549
 20
2381.341607978309
 30
0.0
 40
0.3
100
AcDbArc
 50
180.0
 51
260.4059317731485
  0
ARC
  5
31F
330
1F
100
AcDbEntity
  8
鏡台
  6
EXLTYPE2
 62
     3
100
AcDbCircle
 10
2395.20000000055
 20
2380.749999999999
 30
0.0
 40
0.3
100
AcDbArc
 50
0.0
 51
80.40593177314841
  0
ARC
  5
320
330
1F
100
AcDbEntity
  8
鏡台
  6
EXLTYPE2
 62
     3
100
AcDbCircle
 10
2395.300000000549
 20
2377.758392021688
 30
0.0
 40
0.3
100
AcDbArc
 50
99.59406822685159
 51
180.0
  0
ARC
  5
321
330
1F
100
AcDbEntity
  8
鏡台
  6
EXLTYPE2
 62
     3
100
AcDbCircle
 10
2395.20000000055
 20
2378.349999999999
 30
0.0
 40
0.3
100
AcDbArc
 50
279.5940682268516
 51
0.0
  0
ARC
  5
322
330
1F
100
AcDbEntity
  8
鏡台
  6
EXLTYPE2
 62
     3
100
AcDbCircle
 10
2395.500000000549
 20
2375.799999999999
 30
0.0
 40
0.5
100
AcDbArc
 50
180.0
 51
270.0000000000002
  0
ARC
  5
323
330
1F
100
AcDbEntity
  8
鏡台
  6
EXLTYPE2
 62
     3
100
AcDbCircle
 10
2397.000000000549
 20
2375.799999999999
 30
0.0
 40
0.5
100
AcDbArc
 50
270.0000000000002
 51
0.0
  0
ARC
  5
324
330
1F
100
AcDbEntity
  8
鏡台
  6
EXLTYPE2
 62
     3
100
AcDbCircle
 10
2397.800000000549
 20
2393.099999999999
 30
0.0
 40
0.3
100
AcDbArc
 50
180.0
 51
270.0000000000002
  0
ARC
  5
325
330
1F
100
AcDbEntity
  8
鏡台
  6
EXLTYPE2
 62
     3
100
AcDbCircle
 10
2397.800000000549
 20
2389.999999999999
 30
0.0
 40
0.3
100
AcDbArc
 50
90.00000000000001
 51
180.0
  0
ARC
  5
326
330
1F
100
AcDbEntity
  8
鏡台
  6
EXLTYPE2
 62
     3
100
AcDbCircle
 10
2410.750000000549
 20
2383.549999999999
 30
0.0
 40
1.250000000000569
100
AcDbArc
 50
180.0
 51
0.0
  0
ARC
  5
327
330
1F
100
AcDbEntity
  8
鏡台
  6
EXLTYPE2
 62
     3
100
AcDbCircle
 10
2409.200000000548
 20
2389.999999999999
 30
0.0
 40
0.3
100
AcDbArc
 50
0.0
 51
90.00000000000001
  0
ARC
  5
328
330
1F
100
AcDbEntity
  8
鏡台
  6
EXLTYPE2
 62
     3
100
AcDbCircle
 10
2412.300000000549
 20
2389.999999999999
 30
0.0
 40
0.3
100
AcDbArc
 50
90.00000000000001
 51
180.0
  0
ARC
  5
329
330
1F
100
AcDbEntity
  8
鏡台
  6
EXLTYPE2
 62
     3
100
AcDbCircle
 10
2427.50000000055
 20
2389.799999999993
 30
0.0
 40
0.499999999994202
100
AcDbArc
 50
180.0
 51
0.0
  0
ARC
  5
32A
330
1F
100
AcDbEntity
  8
鏡台
  6
EXLTYPE2
 62
     3
100
AcDbCircle
 10
2426.700000000548
 20
2389.999999999999
 30
0.0
 40
0.3
100
AcDbArc
 50
0.0
 51
90.00000000000001
  0
ARC
  5
32B
330
1F
100
AcDbEntity
  8
鏡台
  6
EXLTYPE2
 62
     3
100
AcDbCircle
 10
2428.30000000055
 20
2389.999999999999
 30
0.0
 40
0.3
100
AcDbArc
 50
90.00000000000001
 51
180.0
  0
ARC
  5
32C
330
1F
100
AcDbEntity
  8
鏡台
  6
EXLTYPE2
 62
     3
100
AcDbCircle
 10
2441.20000000055
 20
2389.999999999999
 30
0.0
 40
0.3
100
AcDbArc
 50
0.0
 51
90.00000000000001
  0
ARC
  5
32D
330
1F
100
AcDbEntity
  8
鏡台
  6
EXLTYPE2
 62
     3
100
AcDbCircle
 10
2442.000000000549
 20
2389.8
 30
0.0
 40
0.500000000001478
100
AcDbArc
 50
180.0
 51
0.0
  0
ARC
  5
32E
330
1F
100
AcDbEntity
  8
鏡台
  6
EXLTYPE2
 62
     3
100
AcDbCircle
 10
2442.800000000549
 20
2389.999999999999
 30
0.0
 40
0.3
100
AcDbArc
 50
90.00000000000001
 51
180.0
  0
ARC
  5
32F
330
1F
100
AcDbEntity
  8
鏡台
  6
EXLTYPE2
 62
     3
100
AcDbCircle
 10
2457.20000000055
 20
2389.999999999999
 30
0.0
 40
0.3
100
AcDbArc
 50
0.0
 51
90.00000000000001
  0
ARC
  5
330
330
1F
100
AcDbEntity
  8
鏡台
  6
EXLTYPE2
 62
     3
100
AcDbCircle
 10
2460.300000000549
 20
2389.999999999999
 30
0.0
 40
0.3
100
AcDbArc
 50
90.00000000000001
 51
180.0
  0
ARC
  5
331
330
1F
100
AcDbEntity
  8
鏡台
  6
EXLTYPE2
 62
     3
100
AcDbCircle
 10
2460.500000000549
 20
2380.799999999999
 30
0.0
 40
0.5
100
AcDbArc
 50
180.0
 51
270.0000000000002
  0
ARC
  5
332
330
1F
100
AcDbEntity
  8
鏡台
  6
EXLTYPE2
 62
     3
100
AcDbCircle
 10
2466.750000000549
 20
2379.049999999999
 30
0.0
 40
1.249999999999631
100
AcDbArc
 50
270.0000000000002
 51
90.00000000000001
  0
ARC
  5
333
330
1F
100
AcDbEntity
  8
鏡台
  6
EXLTYPE2
 62
     3
100
AcDbCircle
 10
2458.000000000549
 20
2378.299999999999
 30
0.0
 40
0.5
100
AcDbArc
 50
180.0
 51
270.0000000000002
  0
ARC
  5
334
330
1F
100
AcDbEntity
  8
鏡台
  6
EXLTYPE2
 62
     3
100
AcDbCircle
 10
2472.50000000055
 20
2390.799999999999
 30
0.0
 40
0.5
100
AcDbArc
 50
270.0000000000002
 51
0.0
  0
ARC
  5
335
330
1F
100
AcDbEntity
  8
鏡台
  6
EXLTYPE2
 62
     3
100
AcDbCircle
 10
2472.50000000055
 20
2393.299999999999
 30
0.0
 40
0.5
100
AcDbArc
 50
0.0
 51
90.00000000000001
  0
ARC
  5
336
330
1F
100
AcDbEntity
  8
鏡台
  6
EXLTYPE2
 62
     3
100
AcDbCircle
 10
2469.500000000549
 20
2393.299999999999
 30
0.0
 40
0.5
100
AcDbArc
 50
270.0000000000002
 51
0.0
  0
ARC
  5
337
330
1F
100
AcDbEntity
  8
鏡台
  6
EXLTYPE2
 62
     3
100
AcDbCircle
 10
2470.500000000549
 20
2393.299999999999
 30
0.0
 40
0.5
100
AcDbArc
 50
90.00000000000001
 51
180.0
  0
LINE
  5
338
330
1F
100
AcDbEntity
  8
鏡台
  6
EXLTYPE2
 62
     3
100
AcDbLine
 10
2395.500000000549
 20
2415.299999999999
 30
0.0
 11
2397.000000000549
 21
2415.3
 31
0.0
  0
LINE
  5
339
330
1F
100
AcDbEntity
  8
鏡台
  6
EXLTYPE2
 62
     3
100
AcDbLine
 10
2395.00000000055
 20
2414.799999999999
 30
0.0
 11
2395.00000000055
 21
2411.341607978309
 31
0.0
  0
LINE
  5
33A
330
1F
100
AcDbEntity
  8
鏡台
  6
EXLTYPE2
 62
     3
100
AcDbLine
 10
2395.500000000549
 20
2410.749999999999
 30
0.0
 11
2395.500000000549
 21
2408.349999999999
 31
0.0
  0
LINE
  5
33B
330
1F
100
AcDbEntity
  8
鏡台
  6
EXLTYPE2
 62
     3
100
AcDbLine
 10
2395.00000000055
 20
2407.758392021688
 30
0.0
 11
2395.00000000055
 21
2405.341607978309
 31
0.0
  0
LINE
  5
33C
330
1F
100
AcDbEntity
  8
鏡台
  6
EXLTYPE2
 62
     3
100
AcDbLine
 10
2395.500000000549
 20
2404.749999999999
 30
0.0
 11
2395.500000000549
 21
2402.349999999999
 31
0.0
  0
LINE
  5
33D
330
1F
100
AcDbEntity
  8
鏡台
  6
EXLTYPE2
 62
     3
100
AcDbLine
 10
2395.00000000055
 20
2401.758392021688
 30
0.0
 11
2395.00000000055
 21
2399.341607978309
 31
0.0
  0
LINE
  5
33E
330
1F
100
AcDbEntity
  8
鏡台
  6
EXLTYPE2
 62
     3
100
AcDbLine
 10
2395.500000000549
 20
2398.749999999999
 30
0.0
 11
2395.500000000549
 21
2396.349999999999
 31
0.0
  0
LINE
  5
33F
330
1F
100
AcDbEntity
  8
鏡台
  6
EXLTYPE2
 62
     3
100
AcDbLine
 10
2395.000000000548
 20
2395.758392021688
 30
0.0
 11
2395.00000000055
 21
2393.341607978309
 31
0.0
  0
LINE
  5
340
330
1F
100
AcDbEntity
  8
鏡台
  6
EXLTYPE2
 62
     3
100
AcDbLine
 10
2395.500000000549
 20
2392.749999999999
 30
0.0
 11
2395.500000000549
 21
2390.349999999999
 31
0.0
  0
LINE
  5
341
330
1F
100
AcDbEntity
  8
鏡台
  6
EXLTYPE2
 62
     3
100
AcDbLine
 10
2395.00000000055
 20
2389.758392021688
 30
0.0
 11
2395.000000000548
 21
2387.341607978309
 31
0.0
  0
LINE
  5
342
330
1F
100
AcDbEntity
  8
鏡台
  6
EXLTYPE2
 62
     3
100
AcDbLine
 10
2395.500000000549
 20
2386.749999999999
 30
0.0
 11
2395.500000000549
 21
2384.349999999999
 31
0.0
  0
LINE
  5
343
330
1F
100
AcDbEntity
  8
鏡台
  6
EXLTYPE2
 62
     3
100
AcDbLine
 10
2395.000000000548
 20
2383.758392021688
 30
0.0
 11
2395.000000000548
 21
2381.341607978309
 31
0.0
  0
LINE
  5
344
330
1F
100
AcDbEntity
  8
鏡台
  6
EXLTYPE2
 62
     3
100
AcDbLine
 10
2395.500000000548
 20
2380.749999999999
 30
0.0
 11
2395.500000000549
 21
2378.349999999999
 31
0.0
  0
LINE
  5
345
330
1F
100
AcDbEntity
  8
鏡台
  6
EXLTYPE2
 62
     3
100
AcDbLine
 10
2395.000000000548
 20
2377.758392021688
 30
0.0
 11
2395.000000000546
 21
2375.799999999999
 31
0.0
  0
LINE
  5
346
330
1F
100
AcDbEntity
  8
鏡台
  6
EXLTYPE2
 62
     3
100
AcDbLine
 10
2395.500000000549
 20
2375.299999999999
 30
0.0
 11
2397.000000000549
 21
2375.3
 31
0.0
  0
LINE
  5
347
330
1F
100
AcDbEntity
  8
鏡台
  6
EXLTYPE2
 62
     3
100
AcDbLine
 10
2397.50000000055
 20
2389.999999999999
 30
0.0
 11
2397.50000000055
 21
2375.799999999999
 31
0.0
  0
LINE
  5
348
330
1F
100
AcDbEntity
  8
鏡台
  6
EXLTYPE2
 62
     3
100
AcDbLine
 10
2397.50000000055
 20
2414.799999999999
 30
0.0
 11
2397.50000000055
 21
2393.099999999999
 31
0.0
  0
LINE
  5
349
330
1F
100
AcDbEntity
  8
鏡台
  6
EXLTYPE2
 62
     3
100
AcDbLine
 10
2397.800000000549
 20
2390.299999999999
 30
0.0
 11
2409.200000000548
 21
2390.299999999999
 31
0.0
  0
LINE
  5
34A
330
1F
100
AcDbEntity
  8
鏡台
  6
EXLTYPE2
 62
     3
100
AcDbLine
 10
2409.500000000549
 20
2389.999999999999
 30
0.0
 11
2409.500000000549
 21
2383.55
 31
0.0
  0
LINE
  5
34B
330
1F
100
AcDbEntity
  8
鏡台
  6
EXLTYPE2
 62
     3
100
AcDbLine
 10
2412.000000000549
 20
2389.999999999999
 30
0.0
 11
2412.000000000549
 21
2383.55
 31
0.0
  0
LINE
  5
34C
330
1F
100
AcDbEntity
  8
鏡台
  6
EXLTYPE2
 62
     3
100
AcDbLine
 10
2412.300000000549
 20
2390.299999999999
 30
0.0
 11
2426.700000000548
 21
2390.299999999999
 31
0.0
  0
LINE
  5
34D
330
1F
100
AcDbEntity
  8
鏡台
  6
EXLTYPE2
 62
     3
100
AcDbLine
 10
2427.000000000542
 20
2390.0
 30
0.0
 11
2427.000000000549
 21
2389.799999999993
 31
0.0
  0
LINE
  5
34E
330
1F
100
AcDbEntity
  8
鏡台
  6
EXLTYPE2
 62
     3
100
AcDbLine
 10
2428.000000000543
 20
2389.999999999999
 30
0.0
 11
2428.000000000538
 21
2389.799999999997
 31
0.0
  0
LINE
  5
34F
330
1F
100
AcDbEntity
  8
鏡台
  6
EXLTYPE2
 62
     3
100
AcDbLine
 10
2428.30000000055
 20
2390.299999999999
 30
0.0
 11
2441.20000000055
 21
2390.299999999999
 31
0.0
  0
LINE
  5
350
330
1F
100
AcDbEntity
  8
鏡台
  6
EXLTYPE2
 62
     3
100
AcDbLine
 10
2441.500000000549
 20
2389.999999999999
 30
0.0
 11
2441.500000000556
 21
2389.800000000002
 31
0.0
  0
LINE
  5
351
330
1F
100
AcDbEntity
  8
鏡台
  6
EXLTYPE2
 62
     3
100
AcDbLine
 10
2442.50000000055
 20
2389.999999999998
 30
0.0
 11
2442.50000000055
 21
2389.8
 31
0.0
  0
LINE
  5
352
330
1F
100
AcDbEntity
  8
鏡台
  6
EXLTYPE2
 62
     3
100
AcDbLine
 10
2442.800000000549
 20
2390.299999999999
 30
0.0
 11
2457.20000000055
 21
2390.299999999999
 31
0.0
  0
LINE
  5
353
330
1F
100
AcDbEntity
  8
鏡台
  6
EXLTYPE2
 62
     3
100
AcDbLine
 10
2457.50000000055
 20
2389.999999999999
 30
0.0
 11
2457.50000000055
 21
2378.299999999999
 31
0.0
  0
LINE
  5
354
330
1F
100
AcDbEntity
  8
鏡台
  6
EXLTYPE2
 62
     3
100
AcDbLine
 10
2460.00000000055
 20
2389.999999999999
 30
0.0
 11
2460.00000000055
 21
2380.799999999999
 31
0.0
  0
LINE
  5
355
330
1F
100
AcDbEntity
  8
鏡台
  6
EXLTYPE2
 62
     3
100
AcDbLine
 10
2460.500000000549
 20
2380.299999999998
 30
0.0
 11
2466.750000000549
 21
2380.299999999999
 31
0.0
  0
LINE
  5
356
330
1F
100
AcDbEntity
  8
鏡台
  6
EXLTYPE2
 62
     3
100
AcDbLine
 10
2458.000000000549
 20
2377.799999999999
 30
0.0
 11
2466.750000000549
 21
2377.799999999998
 31
0.0
  0
LINE
  5
357
330
1F
100
AcDbEntity
  8
鏡台
  6
EXLTYPE2
 62
     3
100
AcDbLine
 10
2473.000000000549
 20
2393.299999999999
 30
0.0
 11
2473.000000000549
 21
2390.799999999999
 31
0.0
  0
LINE
  5
358
330
1F
100
AcDbEntity
  8
鏡台
  6
EXLTYPE2
 62
     3
100
AcDbLine
 10
2470.500000000549
 20
2393.799999999998
 30
0.0
 11
2472.50000000055
 21
2393.799999999997
 31
0.0
  0
LINE
  5
359
330
1F
100
AcDbEntity
  8
鏡台
  6
EXLTYPE2
 62
     3
100
AcDbLine
 10
2397.800000000549
 20
2392.799999999999
 30
0.0
 11
2469.500000000549
 21
2392.799999999999
 31
0.0
  0
LINE
  5
35A
330
1F
100
AcDbEntity
  8
鏡台
  6
EXLTYPE2
 62
     3
100
AcDbLine
 10
2460.300000000549
 20
2390.299999999998
 30
0.0
 11
2472.50000000055
 21
2390.299999999998
 31
0.0
  0
CIRCLE
  5
35B
330
1F
100
AcDbEntity
  8
鏡台
  6
EXLTYPE2
 62
     3
100
AcDbCircle
 10
2464.00000000055
 20
2386.3
 30
0.0
 40
4.0
  0
CIRCLE
  5
35C
330
1F
100
AcDbEntity
  8
鏡台
  6
EXLTYPE2
 62
     3
100
AcDbCircle
 10
2404.00000000055
 20
2386.3
 30
0.0
 40
4.0
  0
LINE
  5
35D
330
1F
100
AcDbEntity
  8
鏡台
  6
CONTINUOUS
 62
     4
100
AcDbLine
 10
2369.800000000555
 20
2103.1
 30
0.0
 11
2389.800000000551
 21
2103.1
 31
0.0
  0
LINE
  5
35E
330
1F
100
AcDbEntity
  8
鏡台
  6
CONTINUOUS
 62
     4
100
AcDbLine
 10
2371.000000000552
 20
2104.300000000001
 30
0.0
 11
2389.800000000551
 21
2104.300000000001
 31
0.0
  0
LINE
  5
35F
330
1F
100
AcDbEntity
  8
鏡台
  6
CONTINUOUS
 62
     4
100
AcDbLine
 10
2371.000000000552
 20
2113.1
 30
0.0
 11
2371.000000000552
 21
2104.300000000001
 31
0.0
  0
LINE
  5
360
330
1F
100
AcDbEntity
  8
鏡台
  6
CONTINUOUS
 62
     4
100
AcDbLine
 10
2369.800000000551
 20
2113.1
 30
0.0
 11
2371.000000000552
 21
2113.1
 31
0.0
  0
LINE
  5
361
330
1F
100
AcDbEntity
  8
鏡台
  6
CONTINUOUS
 62
     4
100
AcDbLine
 10
2389.800000000551
 20
2103.1
 30
0.0
 11
2389.800000000551
 21
2104.300000000001
 31
0.0
  0
LINE
  5
362
330
1F
100
AcDbEntity
  8
鏡台
  6
CONTINUOUS
 62
     4
100
AcDbLine
 10
2369.800000000555
 20
2103.1
 30
0.0
 11
2369.800000000555
 21
2113.1
 31
0.0
  0
LINE
  5
363
330
1F
100
AcDbEntity
  8
鏡台
  6
CONTINUOUS
 62
     4
100
AcDbLine
 10
2369.800000000555
 20
2669.5
 30
0.0
 11
2389.800000000551
 21
2669.5
 31
0.0
  0
LINE
  5
364
330
1F
100
AcDbEntity
  8
鏡台
  6
CONTINUOUS
 62
     4
100
AcDbLine
 10
2371.000000000552
 20
2668.299999999999
 30
0.0
 11
2389.800000000551
 21
2668.299999999999
 31
0.0
  0
LINE
  5
365
330
1F
100
AcDbEntity
  8
鏡台
  6
CONTINUOUS
 62
     4
100
AcDbLine
 10
2371.000000000552
 20
2659.5
 30
0.0
 11
2371.000000000552
 21
2668.299999999999
 31
0.0
  0
LINE
  5
366
330
1F
100
AcDbEntity
  8
鏡台
  6
CONTINUOUS
 62
     4
100
AcDbLine
 10
2369.800000000551
 20
2659.5
 30
0.0
 11
2371.000000000552
 21
2659.5
 31
0.0
  0
LINE
  5
367
330
1F
100
AcDbEntity
  8
鏡台
  6
CONTINUOUS
 62
     4
100
AcDbLine
 10
2389.800000000551
 20
2669.5
 30
0.0
 11
2389.800000000551
 21
2668.299999999999
 31
0.0
  0
LINE
  5
368
330
1F
100
AcDbEntity
  8
鏡台
  6
CONTINUOUS
 62
     4
100
AcDbLine
 10
2369.800000000555
 20
2669.5
 30
0.0
 11
2369.800000000555
 21
2659.5
 31
0.0
  0
LINE
  5
369
330
1F
100
AcDbEntity
  8
鏡台
  6
CONTINUOUS
 62
     2
100
AcDbLine
 10
2371.00000000055
 20
2667.8
 30
0.0
 11
2371.00000000055
 21
2104.8
 31
0.0
  0
LINE
  5
36A
330
1F
100
AcDbEntity
  8
鏡台
  6
CONTINUOUS
 62
     2
100
AcDbLine
 10
2374.00000000055
 20
2104.3
 30
0.0
 11
2389.00000000055
 21
2104.3
 31
0.0
  0
LINE
  5
36B
330
1F
100
AcDbEntity
  8
鏡台
  6
CONTINUOUS
 62
     2
100
AcDbLine
 10
2374.00000000055
 20
2668.3
 30
0.0
 11
2389.00000000055
 21
2668.3
 31
0.0
  0
LINE
  5
36C
330
1F
100
AcDbEntity
  8
鏡台
  6
CONTINUOUS
 62
     2
100
AcDbLine
 10
2389.00000000055
 20
2668.3
 30
0.0
 11
2389.00000000055
 21
2104.3
 31
0.0
  0
LINE
  5
36D
330
1F
100
AcDbEntity
  8
鏡台
  6
CONTINUOUS
 62
     2
100
AcDbLine
 10
2374.00000000055
 20
2668.3
 30
0.0
 11
2374.00000000055
 21
2104.3
 31
0.0
  0
LINE
  5
36E
330
1F
100
AcDbEntity
  8
鏡台
  6
CONTINUOUS
 62
     6
100
AcDbLine
 10
2491.000000000548
 20
2167.8
 30
0.0
 11
2517.661651585248
 21
2167.8
 31
0.0
  0
LINE
  5
36F
330
1F
100
AcDbEntity
  8
鏡台
  6
CONTINUOUS
 62
     6
100
AcDbLine
 10
2491.000000000548
 20
2164.8
 30
0.0
 11
2517.661651585279
 21
2164.8
 31
0.0
  0
ARC
  5
370
330
1F
100
AcDbEntity
  8
鏡台
  6
CONTINUOUS
 62
     6
100
AcDbCircle
 10
2517.661651585279
 20
2179.8
 30
0.0
 40
15.00000000000001
100
AcDbArc
 50
270.0000000000002
 51
295.8419327630793
  0
ARC
  5
371
330
1F
100
AcDbEntity
  8
鏡台
  6
CONTINUOUS
 62
     6
100
AcDbCircle
 10
2517.661651585248
 20
2152.8
 30
0.0
 40
15.00000000000001
100
AcDbArc
 50
64.15806723683205
 51
90.00000000000001
  0
LINE
  5
372
330
1F
100
AcDbEntity
  8
鏡台
  6
CONTINUOUS
 62
     6
100
AcDbLine
 10
2491.000000000548
 20
2607.8
 30
0.0
 11
2517.661651585248
 21
2607.8
 31
0.0
  0
LINE
  5
373
330
1F
100
AcDbEntity
  8
鏡台
  6
CONTINUOUS
 62
     6
100
AcDbLine
 10
2491.000000000548
 20
2604.8
 30
0.0
 11
2517.661651585279
 21
2604.8
 31
0.0
  0
ARC
  5
374
330
1F
100
AcDbEntity
  8
鏡台
  6
CONTINUOUS
 62
     6
100
AcDbCircle
 10
2517.661651585279
 20
2619.8
 30
0.0
 40
15.00000000000001
100
AcDbArc
 50
270.0000000000002
 51
295.8419327630793
  0
ARC
  5
375
330
1F
100
AcDbEntity
  8
鏡台
  6
CONTINUOUS
 62
     6
100
AcDbCircle
 10
2517.661651585248
 20
2592.8
 30
0.0
 40
15.00000000000001
100
AcDbArc
 50
64.15806723683205
 51
90.00000000000001
  0
LINE
  5
376
330
1F
100
AcDbEntity
  8
鏡台
  6
CONTINUOUS
 62
     2
100
AcDbLine
 10
2491.00000000055
 20
2656.3
 30
0.0
 11
2491.00000000055
 21
2116.3
 31
0.0
  0
LINE
  5
377
330
1F
100
AcDbEntity
  8
鏡台
  6
CONTINUOUS
 62
     2
100
AcDbLine
 10
2391.00000000055
 20
2656.3
 30
0.0
 11
2391.00000000055
 21
2116.3
 31
0.0
  0
LINE
  5
378
330
1F
100
AcDbEntity
  8
鏡台
  6
CONTINUOUS
 62
     2
100
AcDbLine
 10
2391.00000000055
 20
2116.3
 30
0.0
 11
2491.00000000055
 21
2116.3
 31
0.0
  0
LINE
  5
379
330
1F
100
AcDbEntity
  8
鏡台
  6
CONTINUOUS
 62
     2
100
AcDbLine
 10
2391.00000000055
 20
2656.3
 30
0.0
 11
2491.00000000055
 21
2656.3
 31
0.0
  0
LINE
  5
37A
330
1F
100
AcDbEntity
  8
鏡台
  6
EXLTYPE3
 62
     6
100
AcDbLine
 10
2531.800000000389
 20
2606.3
 30
0.0
 11
2484.00000000035
 21
2606.3
 31
0.0
  0
LINE
  5
37B
330
1F
100
AcDbEntity
  8
鏡台
  6
EXLTYPE3
 62
     6
100
AcDbLine
 10
2531.800000000389
 20
2166.3
 30
0.0
 11
2485.50000000035
 21
2166.3
 31
0.0
  0
LINE
  5
37C
330
1F
100
AcDbEntity
  8
鏡台
  6
EXLTYPE3
 62
     6
100
AcDbLine
 10
961.0000000002999
 20
2085.0
 30
0.0
 11
961.0000000002999
 21
2695.499999999999
 31
0.0
  0
TEXT
  5
37D
330
1F
100
AcDbEntity
  8
寸法
  6
CONTINUOUS
 62
     2
100
AcDbText
 10
1381.750000000372
 20
819.7499960958949
 30
0.0
 40
59.99999618530273
  1
ＶＰ･ＶＵ４０･５０
 41
0.8542372745578565
  7
EXCADSTD
 72
     5
 11
1813.749965668096
 21
819.7499960958949
 31
0.0
100
AcDbText
  0
TEXT
  5
37E
330
1F
100
AcDbEntity
  8
寸法
  6
CONTINUOUS
 62
     2
100
AcDbText
 10
1381.750000000372
 20
759.7499999105921
 30
0.0
 40
59.99999618530273
  1
４０～５０mm立上げ
 41
0.7522387940136347
  7
EXCADSTD
 72
     5
 11
1813.749965668096
 21
759.7499999105921
 31
0.0
100
AcDbText
  0
LEADER
  5
37F
330
1F
100
AcDbEntity
  8
寸法
  6
CONTINUOUS
 62
     3
100
AcDbLeader
  3
ISO-25
 76
     3
 10
1234.500000000376
 20
935.5
 30
0.0
 10
1381.750000000376
 20
754.5
 30
0.0
 10
1812.250000000376
 20
754.5
 30
0.0
1001
ACAD
1000
DSTYLE
1002
{
1070
     5
1000
EX_NORM
1070
    41
1040
45.0
1070
   341
1005
4D
1002
}
  0
TEXT
  5
380
330
1F
100
AcDbEntity
  8
寸法
  6
CONTINUOUS
 62
     2
100
AcDbText
 10
2144.050000358007
 20
804.749999910593
 30
0.0
 40
59.99999618530273
  1
φ３２
 41
1.070588224822399
  7
EXCADSTD
 72
     5
 11
2300.049988913915
 21
804.749999910593
 31
0.0
100
AcDbText
  0
LEADER
  5
381
330
1F
100
AcDbEntity
  8
寸法
  6
CONTINUOUS
 62
     3
100
AcDbLeader
  3
ISO-25
 76
     3
 10
2375.000000000378
 20
882.5499999999993
 30
0.0
 10
2300.050000000379
 20
799.5
 30
0.0
 10
2146.450000000377
 20
799.5
 30
0.0
1001
ACAD
1000
DSTYLE
1002
{
1070
     5
1000
EX_NORM
1070
    41
1040
45.0
1070
   341
1005
4D
1002
}
  0
TEXT
  5
382
330
1F
100
AcDbEntity
  8
寸法
  6
CONTINUOUS
 62
     2
100
AcDbText
 10
2536.150000000378
 20
804.749999910593
 30
0.0
 40
59.99999618530273
  1
Ｒ１/２
 41
0.8342465643686785
  7
EXCADSTD
 72
     5
 11
2710.149986648937
 21
804.749999910593
 31
0.0
100
AcDbText
  0
LEADER
  5
383
330
1F
100
AcDbEntity
  8
寸法
  6
CONTINUOUS
 62
     3
100
AcDbLeader
  3
ISO-25
 76
     3
 10
2421.500000000378
 20
911.5
 30
0.0
 10
2536.150000000378
 20
799.5
 30
0.0
 10
2693.650000000378
 20
799.5
 30
0.0
1001
ACAD
1000
DSTYLE
1002
{
1070
     5
1000
EX_NORM
1070
    41
1040
45.0
1070
   341
1005
4D
1002
}
  0
DIMENSION
  5
385
330
1F
100
AcDbEntity
  8
寸法
  6
CONTINUOUS
 62
     3
100
AcDbDimension
  2
*D15
 10
1456.000000000387
 20
1619.499999999999
 30
0.0
 11
1420.750000089792
 21
1269.499999999999
 31
0.0
 70
   160
  3
ISO-25
100
AcDbAlignedDimension
 13
1334.000000000374
 23
919.4999999999991
 33
0.0
 14
1336.000000000374
 24
1619.499999999999
 34
0.0
 50
90.0
100
AcDbRotatedDimension
1001
ACAD
1000
DSTYLE
1002
{
1070
   270
1070
     2
1070
     6
1000
EX_NORM
1070
     7
1000
EX_NORM
1070
    41
1040
44.99999618530273
1070
    42
1040
10.49999982118607
1070
    44
1040
15.0
1070
    73
1070
     0
1070
    74
1070
     0
1070
    75
1070
     1
1070
    76
1070
     0
1070
    77
1070
     1
1070
    78
1070
     0
1070
   140
1040
59.99999618530273
1070
   147
1040
0.0
1070
   173
1070
     1
1070
   176
1070
     3
1070
   177
1070
     3
1070
   178
1070
     2
1070
   271
1070
     0
1070
   277
1070
     2
1070
   279
1070
     2
1070
   280
1070
     0
1070
   287
1070
     5
1070
   340
1005
384
1002
}
  0
DIMENSION
  5
392
330
1F
100
AcDbEntity
  8
寸法
  6
CONTINUOUS
 62
     3
100
AcDbDimension
  2
*D16
 10
1201.000000000376
 20
709.4999999999945
 30
0.0
 11
728.5000000003781
 21
744.7499999105876
 31
0.0
 70
   160
  1
240（床排水）
  3
ISO-25
100
AcDbAlignedDimension
 13
961.0000000003781
 23
919.4999999999991
 33
0.0
 14
1201.000000000376
 24
869.499999999879
 34
0.0
100
AcDbRotatedDimension
1001
ACAD
1000
DSTYLE
1002
{
1070
   270
1070
     2
1070
     6
1000
EX_NORM
1070
     7
1000
EX_NORM
1070
    41
1040
44.99999618530273
1070
    42
1040
10.49999982118607
1070
    44
1040
15.0
1070
    73
1070
     0
1070
    74
1070
     0
1070
    75
1070
     0
1070
    76
1070
     0
1070
    77
1070
     1
1070
    78
1070
     0
1070
   140
1040
59.99999618530273
1070
   147
1040
0.0
1070
   173
1070
     1
1070
   176
1070
     3
1070
   177
1070
     3
1070
   178
1070
     2
1070
   271
1070
     0
1070
   277
1070
     2
1070
   279
1070
     2
1070
   280
1070
     1
1070
   287
1070
     5
1070
   340
1005
384
1002
}
  0
DIMENSION
  5
39F
330
1F
100
AcDbEntity
  8
寸法
  6
CONTINUOUS
 62
     3
100
AcDbDimension
  2
*D17
 10
1126.000000000376
 20
799.4999999999945
 30
0.0
 11
563.5000000003777
 21
834.7499999105876
 31
0.0
 70
   160
  1
330（床給水）
  3
ISO-25
100
AcDbAlignedDimension
 13
796.0000000003776
 23
911.5
 33
0.0
 14
1126.000000000376
 24
911.5
 34
0.0
100
AcDbRotatedDimension
1001
ACAD
1000
DSTYLE
1002
{
1070
   270
1070
     2
1070
     6
1000
EX_NORM
1070
     7
1000
EX_NORM
1070
    41
1040
44.99999618530273
1070
    42
1040
10.49999982118607
1070
    44
1040
15.0
1070
    73
1070
     0
1070
    74
1070
     0
1070
    75
1070
     0
1070
    76
1070
     0
1070
    77
1070
     1
1070
    78
1070
     0
1070
   140
1040
59.99999618530273
1070
   147
1040
0.0
1070
   173
1070
     1
1070
   176
1070
     3
1070
   177
1070
     3
1070
   178
1070
     2
1070
   271
1070
     0
1070
   277
1070
     2
1070
   279
1070
     2
1070
   280
1070
     1
1070
   287
1070
     5
1070
   340
1005
384
1002
}
  0
DIMENSION
  5
3AC
330
1F
100
AcDbEntity
  8
寸法
  6
CONTINUOUS
 62
     3
100
AcDbDimension
  2
*D18
 10
1216.000000000376
 20
1223.500000000001
 30
0.0
 11
961.000000000367
 21
1258.749999910594
 31
0.0
 70
   160
  1
510（壁固定）
  3
ISO-25
100
AcDbAlignedDimension
 13
706.000000000358
 23
1495.700000000099
 33
0.0
 14
1216.000000000376
 24
1495.700000000099
 34
0.0
100
AcDbRotatedDimension
1001
ACAD
1000
DSTYLE
1002
{
1070
   270
1070
     2
1070
     6
1000
EX_NORM
1070
     7
1000
EX_NORM
1070
    41
1040
44.99999618530273
1070
    42
1040
10.49999982118607
1070
    44
1040
15.0
1070
    73
1070
     0
1070
    74
1070
     0
1070
    75
1070
     0
1070
    76
1070
     0
1070
    77
1070
     1
1070
    78
1070
     0
1070
   140
1040
59.99999618530273
1070
   147
1040
0.0
1070
   173
1070
     1
1070
   176
1070
     3
1070
   177
1070
     3
1070
   178
1070
     2
1070
   271
1070
     0
1070
   277
1070
     2
1070
   279
1070
     2
1070
   280
1070
     0
1070
   287
1070
     5
1070
   340
1005
384
1002
}
  0
DIMENSION
  5
3B9
330
1F
100
AcDbEntity
  8
寸法
  6
CONTINUOUS
 62
     3
100
AcDbDimension
  2
*D19
 10
2491.000000000378
 20
709.4999999999945
 30
0.0
 11
2701.000000000378
 21
744.7499999105876
 31
0.0
 70
   160
  1
80（床給水）
  3
ISO-25
100
AcDbAlignedDimension
 13
2411.000000000378
 23
911.5
 33
0.0
 14
2491.000000000378
 24
919.4999999999991
 34
0.0
100
AcDbRotatedDimension
1001
ACAD
1000
DSTYLE
1002
{
1070
   270
1070
     2
1070
     6
1000
EX_NORM
1070
     7
1000
EX_NORM
1070
    41
1040
44.99999618530273
1070
    42
1040
10.49999982118607
1070
    44
1040
15.0
1070
    73
1070
     0
1070
    74
1070
     0
1070
    75
1070
     0
1070
    76
1070
     1
1070
    77
1070
     1
1070
    78
1070
     0
1070
   140
1040
59.99999618530273
1070
   147
1040
0.0
1070
   173
1070
     1
1070
   176
1070
     3
1070
   177
1070
     3
1070
   178
1070
     2
1070
   271
1070
     0
1070
   277
1070
     2
1070
   279
1070
     2
1070
   280
1070
     2
1070
   287
1070
     5
1070
   340
1005
384
1002
}
  0
DIMENSION
  5
3C7
330
1F
100
AcDbEntity
  8
寸法
  6
CONTINUOUS
 62
     3
100
AcDbDimension
  2
*D20
 10
2491.000000000378
 20
619.4999999999945
 30
0.0
 11
2723.500000000378
 21
654.7499999105876
 31
0.0
 70
   160
  1
100（床排水）
  3
ISO-25
100
AcDbAlignedDimension
 13
2391.000000000378
 23
869.499999999879
 33
0.0
 14
2491.000000000378
 24
919.4999999999991
 34
0.0
100
AcDbRotatedDimension
1001
ACAD
1000
DSTYLE
1002
{
1070
   270
1070
     2
1070
     6
1000
EX_NORM
1070
     7
1000
EX_NORM
1070
    41
1040
44.99999618530273
1070
    42
1040
10.49999982118607
1070
    44
1040
15.0
1070
    73
1070
     0
1070
    74
1070
     0
1070
    75
1070
     0
1070
    76
1070
     0
1070
    77
1070
     1
1070
    78
1070
     0
1070
   140
1040
59.99999618530273
1070
   147
1040
0.0
1070
   173
1070
     1
1070
   176
1070
     3
1070
   177
1070
     3
1070
   178
1070
     2
1070
   271
1070
     0
1070
   277
1070
     2
1070
   279
1070
     2
1070
   280
1070
     2
1070
   287
1070
     5
1070
   340
1005
384
1002
}
  0
DIMENSION
  5
3D4
330
1F
100
AcDbEntity
  8
寸法
  6
CONTINUOUS
 62
     3
100
AcDbDimension
  2
*D21
 10
2791.000000000389
 20
1499.5
 30
0.0
 11
2755.750000089795
 21
1209.499999999998
 31
0.0
 70
   160
  1
580（壁固定）
  3
ISO-25
100
AcDbAlignedDimension
 13
2491.000000000378
 23
919.4999999999991
 33
0.0
 14
2523.500005722278
 24
1499.5
 34
0.0
 50
90.0
100
AcDbRotatedDimension
1001
ACAD
1000
DSTYLE
1002
{
1070
   270
1070
     2
1070
     6
1000
EX_NORM
1070
     7
1000
EX_NORM
1070
    41
1040
44.99999618530273
1070
    42
1040
10.49999982118607
1070
    44
1040
15.0
1070
    73
1070
     0
1070
    74
1070
     0
1070
    75
1070
     1
1070
    76
1070
     0
1070
    77
1070
     1
1070
    78
1070
     0
1070
   140
1040
59.99999618530273
1070
   147
1040
0.0
1070
   173
1070
     1
1070
   176
1070
     3
1070
   177
1070
     3
1070
   178
1070
     2
1070
   271
1070
     0
1070
   277
1070
     2
1070
   279
1070
     2
1070
   280
1070
     0
1070
   287
1070
     5
1070
   340
1005
384
1002
}
  0
DIMENSION
  5
3E0
330
1F
100
AcDbEntity
  8
寸法
  6
CONTINUOUS
 62
     3
100
AcDbDimension
  2
*D22
 10
1161.000000000378
 20
4005.0
 30
0.0
 11
728.5000000003783
 21
4040.249999910593
 31
0.0
 70
   160
  1
200（壁排水）
  3
ISO-25
100
AcDbAlignedDimension
 13
961.0000000003781
 23
3825.0
 33
0.0
 14
1161.000000000378
 24
3875.0
 34
0.0
100
AcDbRotatedDimension
1001
ACAD
1000
DSTYLE
1002
{
1070
   270
1070
     2
1070
     6
1000
EX_NORM
1070
     7
1000
EX_NORM
1070
    41
1040
44.99999618530273
1070
    42
1040
10.49999982118607
1070
    44
1040
15.0
1070
    73
1070
     0
1070
    74
1070
     0
1070
    75
1070
     0
1070
    76
1070
     0
1070
    77
1070
     1
1070
    78
1070
     0
1070
   140
1040
59.99999618530273
1070
   147
1040
0.0
1070
   173
1070
     1
1070
   176
1070
     3
1070
   177
1070
     3
1070
   178
1070
     2
1070
   271
1070
     0
1070
   277
1070
     2
1070
   279
1070
     2
1070
   280
1070
     1
1070
   287
1070
     5
1070
   340
1005
384
1002
}
  0
DIMENSION
  5
3ED
330
1F
100
AcDbEntity
  8
寸法
  6
CONTINUOUS
 62
     3
100
AcDbDimension
  2
*D23
 10
1061.000000000378
 20
3915.0
 30
0.0
 11
628.5000000003819
 21
3950.249999910593
 31
0.0
 70
   160
  1
200（壁給水）
  3
ISO-25
100
AcDbAlignedDimension
 13
861.0000000003816
 23
3833.0
 33
0.0
 14
1061.000000000378
 24
3838.5
 34
0.0
100
AcDbRotatedDimension
1001
ACAD
1000
DSTYLE
1002
{
1070
   270
1070
     2
1070
     6
1000
EX_NORM
1070
     7
1000
EX_NORM
1070
    41
1040
44.99999618530273
1070
    42
1040
10.49999982118561
1070
    44
1040
15.0
1070
    73
1070
     0
1070
    74
1070
     0
1070
    75
1070
     0
1070
    76
1070
     0
1070
    77
1070
     1
1070
    78
1070
     0
1070
   140
1040
59.99999618530273
1070
   147
1040
0.0
1070
   173
1070
     1
1070
   176
1070
     3
1070
   177
1070
     3
1070
   178
1070
     2
1070
   271
1070
     0
1070
   277
1070
     2
1070
   279
1070
     2
1070
   280
1070
     1
1070
   287
1070
     5
1070
   340
1005
384
1002
}
  0
DIMENSION
  5
3FA
330
1F
100
AcDbEntity
  8
寸法
  6
CONTINUOUS
 62
     3
100
AcDbDimension
  2
*D24
 10
1456.000000000385
 20
3375.0
 30
0.0
 11
1420.750000089794
 21
3599.999999999999
 31
0.0
 70
   160
  3
ISO-25
100
AcDbAlignedDimension
 13
1336.000000000374
 23
3825.0
 33
0.0
 14
1336.000000000374
 24
3375.0
 34
0.0
 50
90.0
100
AcDbRotatedDimension
1001
ACAD
1000
DSTYLE
1002
{
1070
   270
1070
     2
1070
     6
1000
EX_NORM
1070
     7
1000
EX_NORM
1070
    41
1040
44.99999618530273
1070
    42
1040
10.49999982118607
1070
    44
1040
15.0
1070
    73
1070
     0
1070
    74
1070
     0
1070
    75
1070
     1
1070
    76
1070
     0
1070
    77
1070
     1
1070
    78
1070
     0
1070
   140
1040
59.99999618530273
1070
   147
1040
0.0
1070
   173
1070
     1
1070
   176
1070
     3
1070
   177
1070
     3
1070
   178
1070
     2
1070
   271
1070
     0
1070
   277
1070
     2
1070
   279
1070
     2
1070
   280
1070
     0
1070
   287
1070
     5
1070
   340
1005
384
1002
}
  0
DIMENSION
  5
406
330
1F
100
AcDbEntity
  8
寸法
  6
CONTINUOUS
 62
     3
100
AcDbDimension
  2
*D25
 10
1336.000000000374
 20
3115.0
 30
0.0
 11
961.0000000003763
 21
3150.249999910593
 31
0.0
 70
   160
  3
ISO-25
100
AcDbAlignedDimension
 13
586.000000000378
 23
3375.0
 33
0.0
 14
1336.000000000374
 24
3375.0
 34
0.0
100
AcDbRotatedDimension
1001
ACAD
1000
DSTYLE
1002
{
1070
   270
1070
     2
1070
     6
1000
EX_NORM
1070
     7
1000
EX_NORM
1070
    41
1040
44.99999618530273
1070
    42
1040
10.49999982118607
1070
    44
1040
15.0
1070
    73
1070
     0
1070
    74
1070
     0
1070
    75
1070
     0
1070
    76
1070
     0
1070
    77
1070
     1
1070
    78
1070
     0
1070
   140
1040
59.99999618530273
1070
   147
1040
0.0
1070
   173
1070
     1
1070
   176
1070
     3
1070
   177
1070
     3
1070
   178
1070
     2
1070
   271
1070
     0
1070
   277
1070
     2
1070
   279
1070
     2
1070
   280
1070
     0
1070
   287
1070
     5
1070
   340
1005
384
1002
}
  0
DIMENSION
  5
413
330
1F
100
AcDbEntity
  8
寸法
  6
CONTINUOUS
 62
     3
100
AcDbDimension
  2
*D26
 10
2611.000000000389
 20
1379.5
 30
0.0
 11
2575.750000089795
 21
1149.5
 31
0.0
 70
   160
  1
460（壁給水）
  3
ISO-25
100
AcDbAlignedDimension
 13
2491.000000000389
 23
919.4999999999991
 33
0.0
 14
2499.000000000389
 24
1379.5
 34
0.0
 50
90.0
100
AcDbRotatedDimension
1001
ACAD
1000
DSTYLE
1002
{
1070
   270
1070
     2
1070
     6
1000
EX_NORM
1070
     7
1000
EX_NORM
1070
    41
1040
44.99999618530273
1070
    42
1040
10.49999982118607
1070
    44
1040
15.0
1070
    73
1070
     0
1070
    74
1070
     0
1070
    75
1070
     1
1070
    76
1070
     0
1070
    77
1070
     1
1070
    78
1070
     0
1070
   140
1040
59.99999618530273
1070
   147
1040
0.0
1070
   173
1070
     1
1070
   176
1070
     3
1070
   177
1070
     3
1070
   178
1070
     2
1070
   271
1070
     0
1070
   277
1070
     2
1070
   279
1070
     2
1070
   280
1070
     0
1070
   287
1070
     5
1070
   340
1005
384
1002
}
  0
DIMENSION
  5
41F
330
1F
100
AcDbEntity
  8
寸法
  6
CONTINUOUS
 62
     3
100
AcDbDimension
  2
*D27
 10
2701.000000000389
 20
1389.5
 30
0.0
 11
2665.750000089795
 21
1154.5
 31
0.0
 70
   160
  1
470（壁排水）
  3
ISO-25
100
AcDbAlignedDimension
 13
2491.000000000389
 23
919.4999999999991
 33
0.0
 14
2541.000000000389
 24
1389.5
 34
0.0
 50
90.0
100
AcDbRotatedDimension
1001
ACAD
1000
DSTYLE
1002
{
1070
   270
1070
     2
1070
     6
1000
EX_NORM
1070
     7
1000
EX_NORM
1070
    41
1040
44.99999618530273
1070
    42
1040
10.49999982118607
1070
    44
1040
15.0
1070
    73
1070
     0
1070
    74
1070
     0
1070
    75
1070
     1
1070
    76
1070
     0
1070
    77
1070
     1
1070
    78
1070
     0
1070
   140
1040
59.99999618530273
1070
   147
1040
0.0
1070
   173
1070
     1
1070
   176
1070
     3
1070
   177
1070
     3
1070
   178
1070
     2
1070
   271
1070
     0
1070
   277
1070
     2
1070
   279
1070
     2
1070
   280
1070
     0
1070
   287
1070
     5
1070
   340
1005
384
1002
}
  0
DIMENSION
  5
42B
330
1F
100
AcDbEntity
  8
寸法
  6
CONTINUOUS
 62
     3
100
AcDbDimension
  2
*D28
 10
1186.000000000385
 20
3205.0
 30
0.0
 11
961.0000000003865
 21
3240.249999910593
 31
0.0
 70
   160
  3
ISO-25
100
AcDbAlignedDimension
 13
736.0000000003871
 23
3570.5
 33
0.0
 14
1186.000000000385
 24
3570.5
 34
0.0
100
AcDbRotatedDimension
1001
ACAD
1000
DSTYLE
1002
{
1070
   270
1070
     2
1070
     6
1000
EX_NORM
1070
     7
1000
EX_NORM
1070
    41
1040
44.99999618530273
1070
    42
1040
10.49999982118607
1070
    44
1040
15.0
1070
    73
1070
     0
1070
    74
1070
     0
1070
    75
1070
     0
1070
    76
1070
     0
1070
    77
1070
     1
1070
    78
1070
     0
1070
   140
1040
59.99999618530273
1070
   147
1040
0.0
1070
   173
1070
     1
1070
   176
1070
     3
1070
   177
1070
     3
1070
   178
1070
     2
1070
   271
1070
     0
1070
   277
1070
     2
1070
   279
1070
     2
1070
   280
1070
     0
1070
   287
1070
     5
1070
   340
1005
384
1002
}
  0
DIMENSION
  5
438
330
1F
100
AcDbEntity
  8
寸法
  6
CONTINUOUS
 62
     3
100
AcDbDimension
  2
*D29
 10
1546.000000000387
 20
1789.499999999999
 30
0.0
 11
1510.750000089792
 21
1354.499999999999
 31
0.0
 70
   160
  1
（<>）
  3
ISO-25
100
AcDbAlignedDimension
 13
1334.000000000385
 23
919.4999999999991
 33
0.0
 14
961.0000000003798
 24
1789.499999999999
 34
0.0
 50
90.0
100
AcDbRotatedDimension
1001
ACAD
1000
DSTYLE
1002
{
1070
   270
1070
     2
1070
     6
1000
EX_NORM
1070
     7
1000
EX_NORM
1070
    41
1040
44.99999618530273
1070
    42
1040
10.49999982118607
1070
    44
1040
15.0
1070
    73
1070
     0
1070
    74
1070
     0
1070
    75
1070
     1
1070
    76
1070
     0
1070
    77
1070
     1
1070
    78
1070
     0
1070
   140
1040
59.99999618530273
1070
   147
1040
0.0
1070
   173
1070
     1
1070
   176
1070
     3
1070
   177
1070
     3
1070
   178
1070
     2
1070
   271
1070
     0
1070
   277
1070
     2
1070
   279
1070
     2
1070
   280
1070
     0
1070
   287
1070
     5
1070
   340
1005
384
1002
}
  0
DIMENSION
  5
444
330
1F
100
AcDbEntity
  8
寸法
  6
CONTINUOUS
 62
     3
100
AcDbDimension
  2
*D30
 10
1456.000000000387
 20
1789.499999999999
 30
0.0
 11
1420.750000089794
 21
1704.499999999999
 31
0.0
 70
   160
  3
ISO-25
100
AcDbAlignedDimension
 13
1336.000000000385
 23
1619.499999999999
 33
0.0
 14
961.0000000003889
 24
1789.499999999999
 34
0.0
 50
90.0
100
AcDbRotatedDimension
1001
ACAD
1000
DSTYLE
1002
{
1070
   270
1070
     2
1070
     6
1000
EX_NORM
1070
     7
1000
EX_NORM
1070
    41
1040
44.99999618530273
1070
    42
1040
0.0
1070
    44
1040
0.0
1070
    73
1070
     0
1070
    74
1070
     0
1070
    75
1070
     1
1070
    76
1070
     1
1070
    77
1070
     1
1070
    78
1070
     0
1070
   140
1040
59.99999618530273
1070
   147
1040
0.0
1070
   173
1070
     1
1070
   176
1070
     3
1070
   177
1070
     3
1070
   178
1070
     2
1070
   271
1070
     0
1070
   277
1070
     2
1070
   279
1070
     2
1070
   280
1070
     0
1070
   287
1070
     5
1070
   340
1005
384
1002
}
  0
DIMENSION
  5
44F
330
1F
100
AcDbEntity
  8
寸法
  6
CONTINUOUS
 62
     3
100
AcDbDimension
  2
*D31
 10
1635.000000000332
 20
2669.5
 30
0.0
 11
1597.500000000332
 21
1794.499999999999
 31
0.0
 70
   160
  1
（1750）
  3
ISO-25
100
AcDbAlignedDimension
 13
1243.000000000435
 23
919.4999999999991
 33
0.0
 14
1261.000000000335
 24
2669.5
 34
0.0
 50
90.0
100
AcDbRotatedDimension
1001
ACAD
1000
DSTYLE
1002
{
1070
   270
1070
     2
1070
     6
1000
EX_NORM
1070
     7
1000
EX_NORM
1070
    41
1040
44.99999618530273
1070
    42
1040
0.0
1070
    44
1040
0.0
1070
    73
1070
     0
1070
    74
1070
     0
1070
    75
1070
     1
1070
    76
1070
     0
1070
    77
1070
     1
1070
    78
1070
     0
1070
   140
1040
59.99999618530273
1070
   147
1040
0.0
1070
   173
1070
     1
1070
   176
1070
     3
1070
   177
1070
     3
1070
   178
1070
     2
1070
   271
1070
     0
1070
   277
1070
     2
1070
   279
1070
     2
1070
   280
1070
     0
1070
   287
1070
     5
1070
   340
1005
384
1002
}
  0
DIMENSION
  5
45B
330
1F
100
AcDbEntity
  8
寸法
  6
CONTINUOUS
 62
     3
100
AcDbDimension
  2
*D32
 10
1111.00000000033
 20
2732.499999999999
 30
0.0
 11
961.0000000003299
 21
2767.749999910592
 31
0.0
 70
   160
  1
<>（壁固定）
  3
ISO-25
100
AcDbAlignedDimension
 13
811.0000000003298
 23
2621.299999999999
 33
0.0
 14
1111.00000000033
 24
2621.299999999999
 34
0.0
100
AcDbRotatedDimension
1001
ACAD
1000
DSTYLE
1002
{
1070
   270
1070
     2
1070
     6
1000
EX_NORM
1070
     7
1000
EX_NORM
1070
    41
1040
44.99999618530273
1070
    42
1040
10.49999982118607
1070
    44
1040
15.0
1070
    73
1070
     0
1070
    74
1070
     0
1070
    75
1070
     0
1070
    76
1070
     0
1070
    77
1070
     1
1070
    78
1070
     8
1070
   140
1040
59.99999618530273
1070
   147
1040
0.0
1070
   173
1070
     1
1070
   176
1070
     3
1070
   177
1070
     3
1070
   178
1070
     2
1070
   271
1070
     2
1070
   277
1070
     2
1070
   279
1070
     2
1070
   280
1070
     0
1070
   287
1070
     5
1070
   340
1005
384
1002
}
  0
DIMENSION
  5
468
330
1F
100
AcDbEntity
  8
寸法
  6
CONTINUOUS
 62
     3
100
AcDbDimension
  2
*D33
 10
1186.00000000033
 20
2848.499999999999
 30
0.0
 11
961.0000000003299
 21
2883.749999910592
 31
0.0
 70
   160
  3
ISO-25
100
AcDbAlignedDimension
 13
736.0000000003298
 23
2668.299999999999
 33
0.0
 14
1186.00000000033
 24
2668.299999999999
 34
0.0
100
AcDbRotatedDimension
1001
ACAD
1000
DSTYLE
1002
{
1070
   270
1070
     2
1070
     6
1000
EX_NORM
1070
     7
1000
EX_NORM
1070
    41
1040
44.99999618530273
1070
    42
1040
10.49999982118607
1070
    44
1040
15.0
1070
    73
1070
     0
1070
    74
1070
     0
1070
    75
1070
     0
1070
    76
1070
     0
1070
    77
1070
     1
1070
    78
1070
     8
1070
   140
1040
59.99999618530273
1070
   147
1040
0.0
1070
   173
1070
     1
1070
   176
1070
     3
1070
   177
1070
     3
1070
   178
1070
     2
1070
   271
1070
     2
1070
   277
1070
     2
1070
   279
1070
     2
1070
   280
1070
     0
1070
   287
1070
     5
1070
   340
1005
384
1002
}
  0
DIMENSION
  5
475
330
1F
100
AcDbEntity
  8
寸法
  6
CONTINUOUS
 62
     3
100
AcDbDimension
  2
*D34
 10
2491.0000000004
 20
2734.499999999999
 30
0.0
 11
2604.550000000399
 21
2769.749999910592
 31
0.0
 70
   160
  1
122
  3
ISO-25
100
AcDbAlignedDimension
 13
2369.800000000399
 23
2669.5
 33
0.0
 14
2491.0000000004
 24
2663.299999999999
 34
0.0
100
AcDbRotatedDimension
1001
ACAD
1000
DSTYLE
1002
{
1070
   270
1070
     2
1070
     6
1000
EX_NORM
1070
     7
1000
EX_NORM
1070
    41
1040
44.99999618530273
1070
    42
1040
10.49999982118607
1070
    44
1040
15.0
1070
    73
1070
     0
1070
    74
1070
     0
1070
    75
1070
     0
1070
    76
1070
     1
1070
    77
1070
     1
1070
    78
1070
     8
1070
   140
1040
59.99999618530273
1070
   147
1040
0.0
1070
   173
1070
     1
1070
   176
1070
     3
1070
   177
1070
     3
1070
   178
1070
     2
1070
   271
1070
     2
1070
   277
1070
     2
1070
   279
1070
     2
1070
   280
1070
     0
1070
   287
1070
     5
1070
   340
1005
384
1002
}
  0
LINE
  5
481
330
1F
100
AcDbEntity
  8
寸法
  6
CONTINUOUS
 62
     2
100
AcDbLine
 10
2129.13684962086
 20
1619.499999999851
 30
0.0
 11
2466.991244013715
 21
1619.499999999851
 31
0.0
  0
LINE
  5
482
330
1F
100
AcDbEntity
  8
寸法
  6
CONTINUOUS
 62
     2
100
AcDbLine
 10
2129.000000000459
 20
1619.4999999999
 30
0.0
 11
2019.93677613858
 21
1771.586203190225
 31
0.0
  0
LINE
  5
483
330
1F
100
AcDbEntity
  8
寸法
  6
CONTINUOUS
 62
     2
100
AcDbLine
 10
2023.887668809221
 20
1779.498738010985
 30
0.0
 11
2468.887668809201
 21
1789.498738010987
 31
0.0
  0
LINE
  5
484
330
1F
100
AcDbEntity
  8
寸法
  6
CONTINUOUS
 62
     2
100
AcDbLine
 10
2473.99548949376
 20
1784.287668367015
 30
0.0
 11
2466.991244013762
 21
1619.4999999999
 31
0.0
  0
ARC
  5
485
330
1F
100
AcDbEntity
  8
寸法
  6
CONTINUOUS
 62
     2
100
AcDbCircle
 10
2469.000000000461
 20
1784.499999999902
 30
0.0
 40
5.0
100
AcDbArc
 50
357.566126804928
 51
91.28732894152482
  0
ARC
  5
486
330
1F
100
AcDbEntity
  8
寸法
  6
CONTINUOUS
 62
     2
100
AcDbCircle
 10
2024.00000000048
 20
1774.499999999902
 30
0.0
 40
5.0
100
AcDbArc
 50
91.28732894152482
 51
215.6448564186274
  0
LINE
  5
487
330
1F
100
AcDbEntity
  8
寸法
  6
CONTINUOUS
 62
     6
100
AcDbLine
 10
2419.50000000005
 20
1879.883863229501
 30
0.0
 11
2419.50000000005
 21
1788.3762911555
 31
0.0
  0
LINE
  5
488
330
1F
100
AcDbEntity
  8
寸法
  6
CONTINUOUS
 62
     6
100
AcDbLine
 10
2370.50000000005
 20
1799.539653100299
 30
0.0
 11
2370.50000000005
 21
1787.26265479187
 31
0.0
  0
LINE
  5
489
330
1F
100
AcDbEntity
  8
寸法
  6
CONTINUOUS
 62
     6
100
AcDbLine
 10
2346.782032303063
 20
1847.874244286122
 30
0.0
 11
2331.782032303067
 21
1821.893482172589
 31
0.0
  0
LINE
  5
48A
330
1F
100
AcDbEntity
  8
寸法
  6
CONTINUOUS
 62
     6
100
AcDbLine
 10
2286.337682219767
 20
1848.130789926327
 30
0.0
 11
2370.50000000005
 21
1799.539653100262
 31
0.0
  0
ELLIPSE
  5
48B
330
1F
100
AcDbEntity
  8
寸法
  6
CONTINUOUS
 62
     6
100
AcDbEllipse
 10
2370.50000000005
 20
1816.860161175951
 30
0.0
 11
-3.181725716167551E-15
 21
-17.32050807564974
 31
0.0
210
0.0
220
0.0
230
1.0
 40
0.2961015548620202
 41
0.0
 42
3.141592653589793
  0
ELLIPSE
  5
48C
330
1F
100
AcDbEntity
  8
寸法
  6
CONTINUOUS
 62
     6
100
AcDbEllipse
 10
2370.50000000005
 20
1914.383863229501
 30
0.0
 11
-1.531427479570780E-15
 21
4.0
 31
0.0
210
0.0
220
0.0
230
1.0
 40
0.1525819451966582
 41
3.141592653589784
 42
6.283185307179586
  0
LINE
  5
48D
330
1F
100
AcDbEntity
  8
寸法
  6
CONTINUOUS
 62
     6
100
AcDbLine
 10
2370.50000000005
 20
1910.383863229501
 30
0.0
 11
2370.50000000005
 21
1881.883863229501
 31
0.0
  0
LINE
  5
48E
330
1F
100
AcDbEntity
  8
寸法
  6
CONTINUOUS
 62
     6
100
AcDbLine
 10
2370.50000000005
 20
1921.883863229501
 30
0.0
 11
2370.50000000005
 21
1918.383863229501
 31
0.0
  0
ARC
  5
48F
330
1F
100
AcDbEntity
  8
寸法
  6
CONTINUOUS
 62
     6
100
AcDbCircle
 10
2395.000000000352
 20
1879.883863229501
 30
0.0
 40
21.50470878668207
100
AcDbArc
 50
0.0
 51
34.61977017493128
  0
ARC
  5
490
330
1F
100
AcDbEntity
  8
寸法
  6
CONTINUOUS
 62
     6
100
AcDbCircle
 10
2263.866025404094
 20
1862.259507576369
 30
0.0
 40
1.0
100
AcDbArc
 50
150.0000000000029
 51
240.0000000000029
  0
LINE
  5
491
330
1F
100
AcDbEntity
  8
寸法
  6
CONTINUOUS
 62
     6
100
AcDbLine
 10
2263.366025404094
 20
1861.393482172585
 30
0.0
 11
2266.343012176638
 21
1859.674718058082
 31
0.0
  0
LINE
  5
492
330
1F
100
AcDbEntity
  8
寸法
  6
CONTINUOUS
 62
     6
100
AcDbLine
 10
2277.000000000308
 20
1887.008218882334
 30
0.0
 11
2263.000000000308
 21
1862.759507576369
 31
0.0
  0
ARC
  5
493
330
1F
100
AcDbEntity
  8
寸法
  6
CONTINUOUS
 62
     6
100
AcDbCircle
 10
2277.866025404094
 20
1886.508218882334
 30
0.0
 40
1.0
100
AcDbArc
 50
60.00000000000271
 51
150.0000000000029
  0
LINE
  5
494
330
1F
100
AcDbEntity
  8
寸法
  6
CONTINUOUS
 62
     6
100
AcDbLine
 10
2278.366025404094
 20
1887.374244286118
 30
0.0
 11
2370.50000000005
 21
1834.180669251638
 31
0.0
  0
ARC
  5
495
330
1F
100
AcDbEntity
  8
寸法
  6
CONTINUOUS
 62
     6
100
AcDbCircle
 10
2417.50000000005
 20
1921.883863229501
 30
0.0
 40
2.0
100
AcDbArc
 50
0.0
 51
90.00000000000001
  0
LINE
  5
496
330
1F
100
AcDbEntity
  8
寸法
  6
CONTINUOUS
 62
     6
100
AcDbLine
 10
2372.50000000005
 20
1923.883863229501
 30
0.0
 11
2417.50000000005
 21
1923.883863229501
 31
0.0
  0
LINE
  5
497
330
1F
100
AcDbEntity
  8
寸法
  6
CONTINUOUS
 62
     6
100
AcDbLine
 10
2419.50000000005
 20
1921.883863229501
 30
0.0
 11
2419.50000000005
 21
1896.028944824826
 31
0.0
  0
ARC
  5
498
330
1F
100
AcDbEntity
  8
寸法
  6
CONTINUOUS
 62
     6
100
AcDbCircle
 10
2372.50000000005
 20
1921.883863229501
 30
0.0
 40
2.0
100
AcDbArc
 50
90.00000000000001
 51
180.0
  0
LINE
  5
499
330
1F
100
AcDbEntity
  8
寸法
  6
CONTINUOUS
 62
     6
100
AcDbLine
 10
2370.50000000005
 20
1879.883863229501
 30
0.0
 11
2370.50000000005
 21
1834.1806692516
 31
0.0
  0
LINE
  5
49A
330
1F
100
AcDbEntity
  8
寸法
  6
CONTINUOUS
 62
     6
100
AcDbLine
 10
2370.50000000005
 20
1881.883863229501
 30
0.0
 11
2394.999999999737
 21
1881.883863229501
 31
0.0
  0
LINE
  5
49B
330
1F
100
AcDbEntity
  8
寸法
  6
CONTINUOUS
 62
     6
100
AcDbLine
 10
2370.50000000005
 20
1879.883863229501
 30
0.0
 11
2419.50000000005
 21
1879.883863229501
 31
0.0
  0
LINE
  5
49C
330
1F
100
AcDbEntity
  8
寸法
  6
CONTINUOUS
 62
     6
100
AcDbLine
 10
2394.999999999973
 20
1881.883863229637
 30
0.0
 11
2419.50000000005
 21
1896.028944824826
 31
0.0
  0
ELLIPSE
  5
49D
330
1F
100
AcDbEntity
  8
寸法
  6
CONTINUOUS
 62
     6
100
AcDbEllipse
 10
2276.340347198201
 20
1853.902753992201
 30
0.0
 11
9.997335021550128
 21
-5.77196406590008
 31
0.0
210
0.0
220
0.0
230
1.0
 40
0.4017250258051183
 41
0.0
 42
3.141592653594508
  0
LINE
  5
49E
330
1F
100
AcDbEntity
  8
寸法
  6
CONTINUOUS
 62
     6
100
AcDbLine
 10
2310.00000000005
 20
1918.383863229501
 30
0.0
 11
2370.50000000005
 21
1918.383863229501
 31
0.0
  0
LINE
  5
49F
330
1F
100
AcDbEntity
  8
寸法
  6
CONTINUOUS
 62
     6
100
AcDbLine
 10
2310.00000000005
 20
1910.383863229501
 30
0.0
 11
2370.50000000005
 21
1910.383863229501
 31
0.0
  0
LINE
  5
4A0
330
1F
100
AcDbEntity
  8
寸法
  6
CONTINUOUS
 62
     6
100
AcDbLine
 10
2310.00000000005
 20
1918.383863229501
 30
0.0
 11
2310.00000000005
 21
1910.383863229501
 31
0.0
  0
LINE
  5
4A1
330
1F
100
AcDbEntity
  8
寸法
  6
CONTINUOUS
 62
     6
100
AcDbLine
 10
2284.422539550973
 20
1844.023753219382
 30
0.0
 11
2286.337682219734
 21
1848.130789926308
 31
0.0
  0
LINE
  5
4A2
330
1F
100
AcDbEntity
  8
寸法
  6
CONTINUOUS
 62
     6
100
AcDbLine
 10
2263.577460449129
 20
1853.743973239419
 30
0.0
 11
2266.343012176646
 21
1859.674718058104
 31
0.0
  0
LINE
  5
4A3
330
1F
100
AcDbEntity
  8
寸法
  6
CONTINUOUS
 62
     6
100
AcDbLine
 10
2263.577460449137
 20
1853.743973239368
 30
0.0
 11
2284.422539550966
 21
1844.023753219335
 31
0.0
  0
LINE
  5
4A4
330
1F
100
AcDbEntity
  8
寸法
  6
EXLTYPE3
 62
     6
100
AcDbLine
 10
2395.000000000468
 20
1938.883863229501
 30
0.0
 11
2395.000000000468
 21
1757.838340959104
 31
0.0
  0
DIMENSION
  5
4A5
330
1F
100
AcDbEntity
  8
寸法
  6
CONTINUOUS
 62
     3
100
AcDbDimension
  2
*D35
 10
1546.0000000004
 20
3353.0
 30
0.0
 11
1510.750000089807
 21
3589.0
 31
0.0
 70
   160
  1
470
  3
ISO-25
100
AcDbAlignedDimension
 13
1336.0000000004
 23
3825.0
 33
0.0
 14
961.00000000038
 24
3353.0
 34
0.0
 50
90.0
100
AcDbRotatedDimension
1001
ACAD
1000
DSTYLE
1002
{
1070
   270
1070
     2
1070
     6
1000
EX_NORM
1070
     7
1000
EX_NORM
1070
    41
1040
44.99999618530273
1070
    42
1040
10.49999982118607
1070
    44
1040
15.0
1070
    73
1070
     0
1070
    74
1070
     0
1070
    75
1070
     1
1070
    76
1070
     0
1070
    77
1070
     1
1070
    78
1070
     8
1070
   140
1040
59.99999618530273
1070
   147
1040
0.0
1070
   173
1070
     1
1070
   176
1070
     3
1070
   177
1070
     3
1070
   178
1070
     2
1070
   271
1070
     1
1070
   277
1070
     2
1070
   279
1070
     2
1070
   280
1070
     0
1070
   287
1070
     5
1070
   340
1005
384
1002
}
  0
LINE
  5
4B1
330
1F
100
AcDbEntity
  8
寸法
  6
CONTINUOUS
 62
     2
100
AcDbLine
 10
2491.000000000446
 20
1619.499999999949
 30
0.0
 11
2044.000000000376
 21
1619.499999999949
 31
0.0
  0
ARC
  5
4B2
330
1F
100
AcDbEntity
  8
寸法
  6
CONTINUOUS
 62
     2
100
AcDbCircle
 10
2044.000000000376
 20
1616.499999999949
 30
0.0
 40
3.0
100
AcDbArc
 50
90.00000000000001
 51
180.0
  0
DIMENSION
  5
4B3
330
1F
100
AcDbEntity
  8
寸法
  6
CONTINUOUS
 62
     3
100
AcDbDimension
  2
*D36
 10
2895.50000000075
 20
919.5
 30
0.0
 11
2858.250000089757
 21
1542.9
 31
0.0
 70
   160
  1
（1247）
 53
90.00000000000001
  3
ISO-25
100
AcDbAlignedDimension
 13
2912.500000001151
 23
2166.3
 33
0.0
 14
2895.50000000075
 24
919.5
 34
0.0
 50
90.0
100
AcDbRotatedDimension
1001
ACAD
1000
DSTYLE
1002
{
1070
   270
1070
     2
1070
     6
1000
EX_NORM
1070
     7
1000
EX_NORM
1070
    41
1040
44.99999618530273
1070
    42
1040
12.49994963407516
1070
    44
1040
16.9999498128891
1070
    73
1070
     0
1070
    74
1070
     0
1070
    75
1070
     0
1070
    76
1070
     1
1070
    77
1070
     1
1070
    78
1070
     8
1070
   140
1040
59.99999618530273
1070
   147
1040
0.0
1070
   173
1070
     1
1070
   176
1070
     3
1070
   177
1070
     3
1070
   178
1070
     2
1070
   271
1070
     1
1070
   277
1070
     2
1070
   279
1070
     2
1070
   280
1070
     0
1070
   287
1070
     5
1070
   340
1005
384
1002
}
  0
LINE
  5
4BF
330
1F
100
AcDbEntity
  8
寸法
  6
CONTINUOUS
 62
     3
100
AcDbLine
 10
2511.999999642837
 20
919.5
 30
0.0
 11
2911.50000000045
 21
919.5
 31
0.0
  0
DIMENSION
  5
4C0
330
1F
100
AcDbEntity
  8
寸法
  6
CONTINUOUS
 62
     3
100
AcDbDimension
  2
*D37
 10
2895.50000000075
 20
2606.3
 30
0.0
 11
2860.250000090157
 21
2386.3
 31
0.0
 70
   160
  1
440（壁固定）
  3
ISO-25
100
AcDbAlignedDimension
 13
2850.70000000075
 23
2166.3
 33
0.0
 14
2850.70000000075
 24
2606.3
 34
0.0
 50
90.0
100
AcDbRotatedDimension
1001
ACAD
1000
DSTYLE
1002
{
1070
   270
1070
     2
1070
     6
1000
EX_NORM
1070
     7
1000
EX_NORM
1070
    41
1040
44.99999618530273
1070
    42
1040
0.0
1070
    44
1040
0.0
1070
    73
1070
     0
1070
    74
1070
     0
1070
    75
1070
     0
1070
    76
1070
     1
1070
    77
1070
     1
1070
    78
1070
     8
1070
   140
1040
59.99999618530273
1070
   147
1040
0.0
1070
   173
1070
     1
1070
   176
1070
     3
1070
   177
1070
     3
1070
   178
1070
     2
1070
   271
1070
     1
1070
   277
1070
     2
1070
   279
1070
     2
1070
   280
1070
     0
1070
   287
1070
     5
1070
   340
1005
384
1002
}
  0
LINE
  5
4CC
330
1F
100
AcDbEntity
  8
寸法
  6
CONTINUOUS
 62
     3
100
AcDbLine
 10
2538.00000000035
 20
2606.300000000003
 30
0.0
 11
2905.50000000075
 21
2606.299999999999
 31
0.0
  0
DIMENSION
  5
4CD
330
1F
100
AcDbEntity
  8
寸法
  6
CONTINUOUS
 62
     3
100
AcDbDimension
  2
*D38
 10
2895.510000000949
 20
2669.5
 30
0.0
 11
2860.750000089957
 21
2764.7
 31
0.0
 70
   160
  1
63
 53
90.00000000000173
  3
ISO-25
100
AcDbAlignedDimension
 13
2523.71000000098
 23
2613.3
 33
0.0
 14
2389.310000000981
 24
2669.5
 34
0.0
 50
90.0
100
AcDbRotatedDimension
1001
ACAD
1000
DSTYLE
1002
{
1070
   270
1070
     2
1070
     6
1000
EX_NONE
1070
     7
1000
EX_NORM
1070
    41
1040
44.99999618530273
1070
    42
1040
10.990050137043
1070
    44
1040
15.49005031585693
1070
    73
1070
     0
1070
    74
1070
     0
1070
    75
1070
     1
1070
    76
1070
     0
1070
    77
1070
     1
1070
    78
1070
     8
1070
   140
1040
59.99999618530273
1070
   147
1040
0.0
1070
   173
1070
     1
1070
   176
1070
     3
1070
   177
1070
     3
1070
   178
1070
     2
1070
   271
1070
     2
1070
   277
1070
     2
1070
   279
1070
     2
1070
   280
1070
     0
1070
   287
1070
     5
1070
   340
1005
384
1002
}
  0
DIMENSION
  5
4DB
330
1F
100
AcDbEntity
  8
寸法
  6
CONTINUOUS
 62
     3
100
AcDbDimension
  2
*D39
 10
1546.0000000004
 20
2103.09999999995
 30
0.0
 11
1504.750000089807
 21
2386.29999999995
 31
0.0
 70
   160
  1
567
 53
90.00000000000001
  3
ISO-25
100
AcDbAlignedDimension
 13
1576.000000000305
 23
2669.49999999995
 33
0.0
 14
1576.000000000305
 24
2103.09999999995
 34
0.0
 50
90.0
100
AcDbRotatedDimension
1001
ACAD
1000
DSTYLE
1002
{
1070
   270
1070
     2
1070
     6
1000
EX_NORM
1070
     7
1000
EX_NORM
1070
    41
1040
44.99999618530273
1070
    42
1040
8.500000000304453
1070
    44
1040
361.4999999999995
1070
    73
1070
     0
1070
    74
1070
     0
1070
    75
1070
     1
1070
    76
1070
     0
1070
    77
1070
     1
1070
    78
1070
     0
1070
   140
1040
59.99999618530273
1070
   147
1040
0.0
1070
   173
1070
     1
1070
   176
1070
     3
1070
   177
1070
     3
1070
   178
1070
     2
1070
   271
1070
     0
1070
   277
1070
     2
1070
   279
1070
     2
1070
   280
1070
     0
1070
   287
1070
     5
1070
   340
1005
384
1002
}
  0
ENDSEC
  0
SECTION
  2
OBJECTS
  0
DICTIONARY
  5
C
330
0
100
AcDbDictionary
  3
ACAD_GROUP
350
D
  3
ACAD_LAYOUT
350
1A
  3
ACAD_MATERIAL
350
3B
  3
ACAD_MLEADERSTYLE
350
509
  3
ACAD_MLINESTYLE
350
17
  3
ACAD_PLOTSETTINGS
350
19
  3
ACAD_VISUALSTYLE
350
2A
  3
ACDBHEADERROUNDTRIPXREC
350
4E7
  3
ACDBVARIABLEDICTIONARY
350
507
  0
DICTIONARY
  5
D
102
{ACAD_REACTORS
330
C
102
}
330
C
100
AcDbDictionary
  0
DICTIONARY
  5
1A
102
{ACAD_REACTORS
330
C
102
}
330
C
100
AcDbDictionary
  0
DICTIONARY
  5
3B
102
{ACAD_REACTORS
330
C
102
}
330
C
100
AcDbDictionary
  3
BYBLOCK
350
3D
  3
BYLAYER
350
3C
  3
GLOBAL
350
3E
  0
DICTIONARY
  5
509
102
{ACAD_REACTORS
330
C
102
}
330
C
100
AcDbDictionary
  0
DICTIONARY
  5
17
102
{ACAD_REACTORS
330
C
102
}
330
C
100
AcDbDictionary
  3
STANDARD
350
18
  0
DICTIONARY
  5
19
102
{ACAD_REACTORS
330
C
102
}
330
C
100
AcDbDictionary
  0
DICTIONARY
  5
2A
102
{ACAD_REACTORS
330
C
102
}
330
C
100
AcDbDictionary
  3
2DWIREFRAME
350
2F
  3
3D_HIDDEN
350
31
  3
3DWIREFRAME
350
30
  3
BASIC
350
32
  3
BRIGHTEN
350
36
  3
COLORCHANGE
350
3A
  3
CONCEPTUAL
350
34
  3
DIM
350
35
  3
FACEPATTERN
350
39
  3
FLAT
350
2B
  3
FLATWITHEDGES
350
2C
  3
GOURAUD
350
2D
  3
GOURAUDWITHEDGES
350
2E
  3
LINEPATTERN
350
38
  3
REALISTIC
350
33
  3
THICKEN
350
37
  0
DICTIONARY
  5
4E7
102
{ACAD_REACTORS
330
C
102
}
330
C
100
AcDbDictionary
  3
CEPSNTYPE
350
4F0
  3
DIMSTYLEDATA
350
506
  3
FINGERPRINTGUID
350
4F1
  3
HYPERLINKBASE
350
4EA
  3
INSUNITS
350
4EF
  3
LAYOUTDICT
350
4EC
  3
LWETCUNION
350
4EE
  3
PLOTSETDICT
350
4ED
  3
PSVPSCALE
350
4F3
  3
PUCSBASE
350
4F6
  3
PUCSORGBACK
350
4FC
  3
PUCSORGBOTTOM
350
4F8
  3
PUCSORGFRONT
350
4FB
  3
PUCSORGLEFT
350
4F9
  3
PUCSORGRIGHT
350
4FA
  3
PUCSORGTOP
350
4F7
  3
PUCSORTHOREF
350
4F4
  3
PUCSORTHOVIEW
350
4F5
  3
STYLESHEET
350
4EB
  3
TSTACKALIGN
350
4E8
  3
TSTACKSIZE
350
4E9
  3
UCSBASE
350
4FF
  3
UCSORGBACK
350
505
  3
UCSORGBOTTOM
350
501
  3
UCSORGFRONT
350
504
  3
UCSORGLEFT
350
502
  3
UCSORGRIGHT
350
503
  3
UCSORGTOP
350
500
  3
UCSORTHOREF
350
4FD
  3
UCSORTHOVIEW
350
4FE
  3
VERSIONGUID
350
4F2
  0
DICTIONARY
  5
507
102
{ACAD_REACTORS
330
C
102
}
330
C
100
AcDbDictionary
  3
DIMASSOC
350
50C
  3
HIDETEXT
350
50D
  3
PSOLHEIGHT
350
50B
  3
PSOLWIDTH
350
50A
  0
MATERIAL
  5
3D
102
{ACAD_REACTORS
330
3B
102
}
102
{ACAD_XDICTIONARY
360
510
102
}
330
3B
100
AcDbMaterial
  1
ByBlock
  0
MATERIAL
  5
3C
102
{ACAD_REACTORS
330
3B
102
}
102
{ACAD_XDICTIONARY
360
50E
102
}
330
3B
100
AcDbMaterial
  1
ByLayer
  0
MATERIAL
  5
3E
102
{ACAD_REACTORS
330
3B
102
}
102
{ACAD_XDICTIONARY
360
512
102
}
330
3B
100
AcDbMaterial
  1
Global
  0
MLINESTYLE
  5
18
102
{ACAD_REACTORS
330
17
102
}
330
17
100
AcDbMlineStyle
  2
Standard
 70
     0
  3

 62
   256
 51
90.0
 52
90.0
 71
     2
 49
0.5
 62
   256
  6
BYLAYER
 49
-0.5
 62
   256
  6
BYLAYER
  0
ACAD_PROXY_OBJECT
  5
2F
102
{ACAD_REACTORS
330
2A
102
}
330
2A
100
AcDbProxyObject
 90
      499
 91
      501
 93
      436
310
42CC9915DA5C99599C985B595049028333333333333E3BF0000000000000FB0107901411070040501600405405064090741402480A0340
1001
ACAD
1000
AcDbSavedByObjectVersion
1070
     0
  0
ACAD_PROXY_OBJECT
  5
31
102
{ACAD_REACTORS
330
2A
102
}
330
2A
100
AcDbProxyObject
 90
      499
 91
      501
 93
      500
310
424CD108121A5919195B90640502408333333333333E3BF0000000000000FB01079024090700405020000000000001110200405405064090740C02480A0340
1001
ACAD
1000
AcDbSavedByObjectVersion
1070
     0
  0
ACAD_PROXY_OBJECT
  5
30
102
{ACAD_REACTORS
330
2A
102
}
330
2A
100
AcDbProxyObject
 90
      499
 91
      501
 93
      436
310
42CCD915DA5C99599C985B595059028333333333333E3BF0000000000000FB0107901411070040501600405405064090741402480A0340
1001
ACAD
1000
AcDbSavedByObjectVersion
1070
     0
  0
ACAD_PROXY_OBJECT
  5
32
102
{ACAD_REACTORS
330
2A
102
}
330
2A
100
AcDbProxyObject
 90
      499
 91
      501
 93
      388
310
4150985CDA58D07406404333333333333E3BF0000000000000FB0107A41107004050150841D405064090741402480A0350
1001
ACAD
1000
AcDbSavedByObjectVersion
1070
     0
  0
ACAD_PROXY_OBJECT
  5
36
102
{ACAD_REACTORS
330
2A
102
}
330
2A
100
AcDbProxyObject
 90
      499
 91
      501
 93
      428
310
42109C9A59DA1D195B90C409028333333333333E3BF0000000000000FB010790141107004050150841D405064090741402480A029950
1001
ACAD
1000
AcDbSavedByObjectVersion
1070
     0
  0
ACAD_PROXY_OBJECT
  5
3A
102
{ACAD_REACTORS
330
2A
102
}
330
2A
100
AcDbProxyObject
 90
      499
 91
      501
 93
      452
310
42D0DBDB1BDC90DA185B99D95104090240C333333333333E3BF0000000000000FB0108901411070040501508421405064090741402480A0350
1001
ACAD
1000
AcDbSavedByObjectVersion
1070
     0
  0
ACAD_PROXY_OBJECT
  5
34
102
{ACAD_REACTORS
330
2A
102
}
330
2A
100
AcDbProxyObject
 90
      499
 91
      501
 93
      500
310
4290DBDB98D95C1D1D585B10940D028333333333333E3BF0000000000000FB0107902409070040501000000000000111010841D405064090740C02480A0340
1001
ACAD
1000
AcDbSavedByObjectVersion
1070
     0
  0
ACAD_PROXY_OBJECT
  5
35
102
{ACAD_REACTORS
330
2A
102
}
330
2A
100
AcDbProxyObject
 90
      499
 91
      501
 93
      412
310
40D11A5B50B409028333333333333E3BF0000000000000FB010790141107004050150841D405064090741402480A02677FFFFFD0
1001
ACAD
1000
AcDbSavedByObjectVersion
1070
     0
  0
ACAD_PROXY_OBJECT
  5
39
102
{ACAD_REACTORS
330
2A
102
}
330
2A
100
AcDbProxyObject
 90
      499
 91
      501
 93
      444
310
42D19858D95C185D1D195C9B90F409028333333333333E3BF0000000000000FB010790141107004050150841D405064090741402480A0350
1001
ACAD
1000
AcDbSavedByObjectVersion
1070
     0
  0
ACAD_PROXY_OBJECT
  5
2B
102
{ACAD_REACTORS
330
2A
102
}
330
2A
100
AcDbProxyObject
 90
      499
 91
      501
 93
      388
310
41119B185D240901404333333333333E3BF0000000000000F9010740A41107004050150841D405064090741402480A1B50
1001
ACAD
1000
AcDbSavedByObjectVersion
1070
     0
  0
ACAD_PROXY_OBJECT
  5
2C
102
{ACAD_REACTORS
330
2A
102
}
330
2A
100
AcDbProxyObject
 90
      499
 91
      501
 93
      476
310
43519B185D15DA5D1A115919D95CD0140901404333333333333E3BF0000000000000F9010740901411070040501600405405064090741402480A1B50
1001
ACAD
1000
AcDbSavedByObjectVersion
1070
     0
  0
ACAD_PROXY_OBJECT
  5
2D
102
{ACAD_REACTORS
330
2A
102
}
330
2A
100
AcDbProxyObject
 90
      499
 91
      501
 93
      412
310
41D1DBDD5C985D5910240902404333333333333E3BF0000000000000F9010740A411070040501641D405064090741402480A1B50
1001
ACAD
1000
AcDbSavedByObjectVersion
1070
     0
  0
ACAD_PROXY_OBJECT
  5
2E
102
{ACAD_REACTORS
330
2A
102
}
330
2A
100
AcDbProxyObject
 90
      499
 91
      501
 93
      500
310
4411DBDD5C985D5915DA5D1A115919D95CD0340902404333333333333E3BF0000000000000F9010740901411070040501600405405064090741402480A1B50
1001
ACAD
1000
AcDbSavedByObjectVersion
1070
     0
  0
ACAD_PROXY_OBJECT
  5
38
102
{ACAD_REACTORS
330
2A
102
}
330
2A
100
AcDbProxyObject
 90
      499
 91
      501
 93
      444
310
42D31A5B995C185D1D195C9B90E409028333333333333E3BF0000000000000FB010790141107004050750841D405064090741402483A0350
1001
ACAD
1000
AcDbSavedByObjectVersion
1070
     0
  0
ACAD_PROXY_OBJECT
  5
33
102
{ACAD_REACTORS
330
2A
102
}
330
2A
100
AcDbProxyObject
 90
      499
 91
      501
 93
      420
310
425499585B1A5CDD1A58D08409028333333333333E3BF0000000000000FB01079019070040501508421405064090741402480A1B40
1001
ACAD
1000
AcDbSavedByObjectVersion
1070
     0
  0
ACAD_PROXY_OBJECT
  5
37
102
{ACAD_REACTORS
330
2A
102
}
330
2A
100
AcDbProxyObject
 90
      499
 91
      501
 93
      412
310
41D51A1A58DAD95B90D409028333333333333E3BF0000000000000FB010790141107004050150C41D405064090741402480A0350
1001
ACAD
1000
AcDbSavedByObjectVersion
1070
     0
  0
XRECORD
  5
4F0
102
{ACAD_REACTORS
330
4E7
102
}
330
4E7
100
AcDbXrecord
 90
        0
  0
XRECORD
  5
506
102
{ACAD_REACTORS
330
4E7
102
}
330
4E7
100
AcDbXrecord
1000
DSTYLE
1002
{
1070
   340
340
11
1002
}
  0
XRECORD
  5
4F1
102
{ACAD_REACTORS
330
4E7
102
}
330
4E7
100
AcDbXrecord
  1
{5E1BB224-1EE3-4EF9-9445-B3D54C1FB0B8}
  0
XRECORD
  5
4EA
102
{ACAD_REACTORS
330
4E7
102
}
330
4E7
100
AcDbXrecord
  1

  0
XRECORD
  5
4EF
102
{ACAD_REACTORS
330
4E7
102
}
330
4E7
100
AcDbXrecord
 90
        4
  0
XRECORD
  5
4EC
102
{ACAD_REACTORS
330
4E7
102
}
330
4E7
100
AcDbXrecord
340
1A
  0
XRECORD
  5
4EE
102
{ACAD_REACTORS
330
4E7
102
}
330
4E7
100
AcDbXrecord
 90
    10781
  0
XRECORD
  5
4ED
102
{ACAD_REACTORS
330
4E7
102
}
330
4E7
100
AcDbXrecord
340
19
  0
XRECORD
  5
4F3
102
{ACAD_REACTORS
330
4E7
102
}
330
4E7
100
AcDbXrecord
 40
0.0
  0
XRECORD
  5
4F6
102
{ACAD_REACTORS
330
4E7
102
}
330
4E7
100
AcDbXrecord
340
0
  0
XRECORD
  5
4FC
102
{ACAD_REACTORS
330
4E7
102
}
330
4E7
100
AcDbXrecord
 10
0.0
 20
0.0
 30
0.0
  0
XRECORD
  5
4F8
102
{ACAD_REACTORS
330
4E7
102
}
330
4E7
100
AcDbXrecord
 10
0.0
 20
0.0
 30
0.0
  0
XRECORD
  5
4FB
102
{ACAD_REACTORS
330
4E7
102
}
330
4E7
100
AcDbXrecord
 10
0.0
 20
0.0
 30
0.0
  0
XRECORD
  5
4F9
102
{ACAD_REACTORS
330
4E7
102
}
330
4E7
100
AcDbXrecord
 10
0.0
 20
0.0
 30
0.0
  0
XRECORD
  5
4FA
102
{ACAD_REACTORS
330
4E7
102
}
330
4E7
100
AcDbXrecord
 10
0.0
 20
0.0
 30
0.0
  0
XRECORD
  5
4F7
102
{ACAD_REACTORS
330
4E7
102
}
330
4E7
100
AcDbXrecord
 10
0.0
 20
0.0
 30
0.0
  0
XRECORD
  5
4F4
102
{ACAD_REACTORS
330
4E7
102
}
330
4E7
100
AcDbXrecord
340
0
  0
XRECORD
  5
4F5
102
{ACAD_REACTORS
330
4E7
102
}
330
4E7
100
AcDbXrecord
 70
     0
  0
XRECORD
  5
4EB
102
{ACAD_REACTORS
330
4E7
102
}
330
4E7
100
AcDbXrecord
  1

  0
XRECORD
  5
4E8
102
{ACAD_REACTORS
330
4E7
102
}
330
4E7
100
AcDbXrecord
 90
        1
  0
XRECORD
  5
4E9
102
{ACAD_REACTORS
330
4E7
102
}
330
4E7
100
AcDbXrecord
 90
       70
  0
XRECORD
  5
4FF
102
{ACAD_REACTORS
330
4E7
102
}
330
4E7
100
AcDbXrecord
340
0
  0
XRECORD
  5
505
102
{ACAD_REACTORS
330
4E7
102
}
330
4E7
100
AcDbXrecord
 10
0.0
 20
0.0
 30
0.0
  0
XRECORD
  5
501
102
{ACAD_REACTORS
330
4E7
102
}
330
4E7
100
AcDbXrecord
 10
0.0
 20
0.0
 30
0.0
  0
XRECORD
  5
504
102
{ACAD_REACTORS
330
4E7
102
}
330
4E7
100
AcDbXrecord
 10
0.0
 20
0.0
 30
0.0
  0
XRECORD
  5
502
102
{ACAD_REACTORS
330
4E7
102
}
330
4E7
100
AcDbXrecord
 10
0.0
 20
0.0
 30
0.0
  0
XRECORD
  5
503
102
{ACAD_REACTORS
330
4E7
102
}
330
4E7
100
AcDbXrecord
 10
0.0
 20
0.0
 30
0.0
  0
XRECORD
  5
500
102
{ACAD_REACTORS
330
4E7
102
}
330
4E7
100
AcDbXrecord
 10
0.0
 20
0.0
 30
0.0
  0
XRECORD
  5
4FD
102
{ACAD_REACTORS
330
4E7
102
}
330
4E7
100
AcDbXrecord
340
0
  0
XRECORD
  5
4FE
102
{ACAD_REACTORS
330
4E7
102
}
330
4E7
100
AcDbXrecord
 70
     0
  0
XRECORD
  5
4F2
102
{ACAD_REACTORS
330
4E7
102
}
330
4E7
100
AcDbXrecord
  1
{FAEB1C32-E019-11D5-929B-00C0DF256EC4}
  0
DICTIONARYVAR
  5
50C
102
{ACAD_REACTORS
330
507
102
}
330
507
100
DictionaryVariables
280
     0
  1
2
  0
DICTIONARYVAR
  5
50D
102
{ACAD_REACTORS
330
507
102
}
330
507
100
DictionaryVariables
280
     0
  1
1
  0
DICTIONARYVAR
  5
50B
102
{ACAD_REACTORS
330
507
102
}
330
507
100
DictionaryVariables
280
     0
  1
80.000000
  0
DICTIONARYVAR
  5
50A
102
{ACAD_REACTORS
330
507
102
}
330
507
100
DictionaryVariables
280
     0
  1
5.000000
  0
DICTIONARY
  5
510
330
3D
100
AcDbDictionary
280
     1
  3
ACAD_XREC_ROUNDTRIP
360
511
  0
DICTIONARY
  5
50E
330
3C
100
AcDbDictionary
280
     1
  3
ACAD_XREC_ROUNDTRIP
360
50F
  0
DICTIONARY
  5
512
330
3E
100
AcDbDictionary
280
     1
  3
ACAD_XREC_ROUNDTRIP
360
513
  0
XRECORD
  5
511
102
{ACAD_REACTORS
330
510
102
}
330
510
100
AcDbXrecord
102
MATERIAL
148
0.0
149
0.0
149
0.0
 93
        0
 94
      127
282
     0
 72
     1
 77
     1
171
     1
175
     1
179
     1
273
     0
  0
XRECORD
  5
50F
102
{ACAD_REACTORS
330
50E
102
}
330
50E
100
AcDbXrecord
102
MATERIAL
148
0.0
149
0.0
149
0.0
 93
        0
 94
      127
282
     0
 72
     1
 77
     1
171
     1
175
     1
179
     1
273
     0
  0
XRECORD
  5
513
102
{ACAD_REACTORS
330
512
102
}
330
512
100
AcDbXrecord
102
MATERIAL
148
0.0
149
0.0
149
0.0
 93
        0
 94
      127
282
     0
 72
     1
 77
     1
171
     1
175
     1
179
     1
273
     0
  0
ENDSEC
  0
EOF
