  0
SECTION
  2
HEADER
  9
$ACADVER
  1
AC1014
  9
$ACADMAINTVER
 70
     9
  9
$DWGCODEPAGE
  3
ANSI_932
  9
$INSBASE
 10
0.0
 20
0.0
 30
0.0
  9
$EXTMIN
 10
17.40000000002108
 20
9.299999999999955
 30
0.0
  9
$EXTMAX
 10
199.4000000000217
 20
289.3
 30
0.0
  9
$LIMMIN
 10
0.0
 20
0.0
  9
$LIMMAX
 10
210.0
 20
297.0
  9
$ORTHOMODE
 70
     0
  9
$REGENMODE
 70
     1
  9
$FILLMODE
 70
     1
  9
$QTEXTMODE
 70
     0
  9
$MIRRTEXT
 70
     1
  9
$DRAGMODE
 70
     2
  9
$LTSCALE
 40
1.0
  9
$OSMODE
 70
    37
  9
$ATTMODE
 70
     1
  9
$TEXTSIZE
 40
2.5
  9
$TRACEWID
 40
1.0
  9
$TEXTSTYLE
  7
STANDARD
  9
$CLAYER
  8
化粧台
  9
$CELTYPE
  6
BYLAYER
  9
$CECOLOR
 62
   256
  9
$CELTSCALE
 40
1.0
  9
$DELOBJ
 70
     1
  9
$DISPSILH
 70
     0
  9
$DIMSCALE
 40
1.0
  9
$DIMASZ
 40
2.5
  9
$DIMEXO
 40
0.625
  9
$DIMDLI
 40
3.75
  9
$DIMRND
 40
0.0
  9
$DIMDLE
 40
0.0
  9
$DIMEXE
 40
1.25
  9
$DIMTP
 40
0.0
  9
$DIMTM
 40
0.0
  9
$DIMTXT
 40
2.5
  9
$DIMCEN
 40
2.5
  9
$DIMTSZ
 40
0.0
  9
$DIMTOL
 70
     0
  9
$DIMLIM
 70
     0
  9
$DIMTIH
 70
     0
  9
$DIMTOH
 70
     0
  9
$DIMSE1
 70
     0
  9
$DIMSE2
 70
     0
  9
$DIMTAD
 70
     1
  9
$DIMZIN
 70
     8
  9
$DIMBLK
  1

  9
$DIMASO
 70
     1
  9
$DIMSHO
 70
     1
  9
$DIMPOST
  1

  9
$DIMAPOST
  1

  9
$DIMALT
 70
     0
  9
$DIMALTD
 70
     3
  9
$DIMALTF
 40
0.03937007874016
  9
$DIMLFAC
 40
1.0
  9
$DIMTOFL
 70
     1
  9
$DIMTVP
 40
0.0
  9
$DIMTIX
 70
     0
  9
$DIMSOXD
 70
     0
  9
$DIMSAH
 70
     0
  9
$DIMBLK1
  1

  9
$DIMBLK2
  1

  9
$DIMSTYLE
  2
ISO-25
  9
$DIMCLRD
 70
     0
  9
$DIMCLRE
 70
     0
  9
$DIMCLRT
 70
     0
  9
$DIMTFAC
 40
1.0
  9
$DIMGAP
 40
0.625
  9
$DIMJUST
 70
     0
  9
$DIMSD1
 70
     0
  9
$DIMSD2
 70
     0
  9
$DIMTOLJ
 70
     0
  9
$DIMTZIN
 70
     8
  9
$DIMALTZ
 70
     0
  9
$DIMALTTZ
 70
     0
  9
$DIMFIT
 70
     3
  9
$DIMUPT
 70
     0
  9
$DIMUNIT
 70
     2
  9
$DIMDEC
 70
     2
  9
$DIMTDEC
 70
     2
  9
$DIMALTU
 70
     2
  9
$DIMALTTD
 70
     3
  9
$DIMTXSTY
  7
STANDARD
  9
$DIMAUNIT
 70
     0
  9
$LUNITS
 70
     2
  9
$LUPREC
 70
     4
  9
$SKETCHINC
 40
1.0
  9
$FILLETRAD
 40
10.0
  9
$AUNITS
 70
     0
  9
$AUPREC
 70
     0
  9
$MENU
  1
.
  9
$ELEVATION
 40
0.0
  9
$PELEVATION
 40
0.0
  9
$THICKNESS
 40
0.0
  9
$LIMCHECK
 70
     0
  9
$CHAMFERA
 40
10.0
  9
$CHAMFERB
 40
10.0
  9
$CHAMFERC
 40
20.0
  9
$CHAMFERD
 40
0.0
  9
$SKPOLY
 70
     0
  9
$TDCREATE
 40
2460084.664644757
  9
$TDUPDATE
 40
2460084.664644988
  9
$TDINDWG
 40
0.0000000116
  9
$TDUSRTIMER
 40
0.0000000116
  9
$USRTIMER
 70
     1
  9
$ANGBASE
 50
0.0
  9
$ANGDIR
 70
     0
  9
$PDMODE
 70
     0
  9
$PDSIZE
 40
0.0
  9
$PLINEWID
 40
0.0
  9
$COORDS
 70
     1
  9
$SPLFRAME
 70
     0
  9
$SPLINETYPE
 70
     6
  9
$SPLINESEGS
 70
     8
  9
$ATTDIA
 70
     0
  9
$ATTREQ
 70
     1
  9
$HANDLING
 70
     1
  9
$HANDSEED
  5
515
  9
$SURFTAB1
 70
     6
  9
$SURFTAB2
 70
     6
  9
$SURFTYPE
 70
     6
  9
$SURFU
 70
     6
  9
$SURFV
 70
     6
  9
$UCSNAME
  2

  9
$UCSORG
 10
0.0
 20
0.0
 30
0.0
  9
$UCSXDIR
 10
1.0
 20
0.0
 30
0.0
  9
$UCSYDIR
 10
0.0
 20
1.0
 30
0.0
  9
$PUCSNAME
  2

  9
$PUCSORG
 10
0.0
 20
0.0
 30
0.0
  9
$PUCSXDIR
 10
1.0
 20
0.0
 30
0.0
  9
$PUCSYDIR
 10
0.0
 20
1.0
 30
0.0
  9
$USERI1
 70
     0
  9
$USERI2
 70
     0
  9
$USERI3
 70
     0
  9
$USERI4
 70
     0
  9
$USERI5
 70
     0
  9
$USERR1
 40
0.0
  9
$USERR2
 40
0.0
  9
$USERR3
 40
0.0
  9
$USERR4
 40
0.0
  9
$USERR5
 40
0.0
  9
$WORLDVIEW
 70
     1
  9
$SHADEDGE
 70
     3
  9
$SHADEDIF
 70
    70
  9
$TILEMODE
 70
     1
  9
$MAXACTVP
 70
    64
  9
$PINSBASE
 10
0.0
 20
0.0
 30
0.0
  9
$PLIMCHECK
 70
     0
  9
$PEXTMIN
 10
1.000000000000000E+20
 20
1.000000000000000E+20
 30
1.000000000000000E+20
  9
$PEXTMAX
 10
-1.000000000000000E+20
 20
-1.000000000000000E+20
 30
-1.000000000000000E+20
  9
$PLIMMIN
 10
0.0
 20
0.0
  9
$PLIMMAX
 10
420.0
 20
297.0
  9
$UNITMODE
 70
     0
  9
$VISRETAIN
 70
     1
  9
$PLINEGEN
 70
     0
  9
$PSLTSCALE
 70
     1
  9
$TREEDEPTH
 70
  3020
  9
$PICKSTYLE
 70
     1
  9
$CMLSTYLE
  2
STANDARD
  9
$CMLJUST
 70
     0
  9
$CMLSCALE
 40
20.0
  9
$PROXYGRAPHICS
 70
     1
  9
$MEASUREMENT
 70
     1
  0
ENDSEC
  0
SECTION
  2
CLASSES
  0
CLASS
  1
ACDBDICTIONARYWDFLT
  2
AcDbDictionaryWithDefault
  3
ObjectDBX Classes
 90
        0
280
     0
281
     0
  0
CLASS
  1
VISUALSTYLE
  2
AcDbVisualStyle
  3
ObjectDBX Classes
 90
     4095
280
     0
281
     0
  0
CLASS
  1
MATERIAL
  2
AcDbMaterial
  3
ObjectDBX Classes
 90
     1153
280
     0
281
     0
  0
CLASS
  1
SUN
  2
AcDbSun
  3
SCENEOE
 90
     1024
280
     0
281
     0
  0
CLASS
  1
DICTIONARYVAR
  2
AcDbDictionaryVar
  3
ObjectDBX Classes
 90
        0
280
     0
281
     0
  0
CLASS
  1
XRECORD
  2
AcDbXrecord
  3
AutoCAD 2000
 90
        0
280
     0
281
     0
  0
CLASS
  1
LWPOLYLINE
  2
AcDbPolyline
  3
AutoCAD 2000
 90
        0
280
     0
281
     1
  0
CLASS
  1
HATCH
  2
AcDbHatch
  3
AutoCAD 2000
 90
        0
280
     0
281
     1
  0
CLASS
  1
ACDBPLACEHOLDER
  2
AcDbPlaceHolder
  3
ObjectDBX Classes
 90
        0
280
     0
281
     0
  0
CLASS
  1
LAYOUT
  2
AcDbLayout
  3
ObjectDBX Classes
 90
        0
280
     0
281
     0
  0
ENDSEC
  0
SECTION
  2
TABLES
  0
TABLE
  2
VPORT
  5
8
330
0
100
AcDbSymbolTable
 70
     1
  0
VPORT
  5
29
330
8
100
AcDbSymbolTableRecord
100
AcDbViewportTableRecord
  2
*ACTIVE
 70
     0
 10
0.0
 20
0.0
 11
1.0
 21
1.0
 12
1626.000000000321
 22
2239.5
 13
0.0
 23
0.0
 14
10.0
 24
10.0
 15
10.0
 25
10.0
 16
0.0
 26
0.0
 36
1.0
 17
0.0
 27
0.0
 37
0.0
 40
4200.000000000001
 41
0.6500000000000019
 42
50.0
 43
0.0
 44
0.0
 50
0.0
 51
0.0
 71
     0
 72
  1000
 73
     1
 74
     3
 75
     0
 76
     0
 77
     0
 78
     0
  0
ENDTAB
  0
TABLE
  2
LTYPE
  5
5
330
0
100
AcDbSymbolTable
 70
     7
  0
LTYPE
  5
14
330
5
100
AcDbSymbolTableRecord
100
AcDbLinetypeTableRecord
  2
BYBLOCK
 70
     0
  3

 72
    65
 73
     0
 40
0.0
  0
LTYPE
  5
15
330
5
100
AcDbSymbolTableRecord
100
AcDbLinetypeTableRecord
  2
BYLAYER
 70
     0
  3

 72
    65
 73
     0
 40
0.0
  0
LTYPE
  5
16
330
5
100
AcDbSymbolTableRecord
100
AcDbLinetypeTableRecord
  2
CONTINUOUS
 70
     0
  3
Solid line
 72
    65
 73
     0
 40
0.0
  0
LTYPE
  5
40
330
5
100
AcDbSymbolTableRecord
100
AcDbLinetypeTableRecord
  2
EXLTYPE1
 70
     0
  3
破線
 72
    65
 73
     2
 40
3.0
 49
2.0
 74
     0
 49
-1.0
 74
     0
  0
LTYPE
  5
41
330
5
100
AcDbSymbolTableRecord
100
AcDbLinetypeTableRecord
  2
EXLTYPE2
 70
     0
  3
点線
 72
    65
 73
     2
 40
2.0
 49
1.0
 74
     0
 49
-1.0
 74
     0
  0
LTYPE
  5
42
330
5
100
AcDbSymbolTableRecord
100
AcDbLinetypeTableRecord
  2
EXLTYPE3
 70
     0
  3
一点鎖線
 72
    65
 73
     4
 40
10.0
 49
7.0
 74
     0
 49
-1.0
 74
     0
 49
1.0
 74
     0
 49
-1.0
 74
     0
  0
LTYPE
  5
43
330
5
100
AcDbSymbolTableRecord
100
AcDbLinetypeTableRecord
  2
EXLTYPE4
 70
     0
  3
二点鎖線
 72
    65
 73
     6
 40
12.0
 49
7.0
 74
     0
 49
-1.0
 74
     0
 49
1.0
 74
     0
 49
-1.0
 74
     0
 49
1.0
 74
     0
 49
-1.0
 74
     0
  0
LTYPE
  5
44
330
5
100
AcDbSymbolTableRecord
100
AcDbLinetypeTableRecord
  2
EXLTYPE5
 70
     0
  3
三点鎖線
 72
    65
 73
     8
 40
37.0
 49
30.0
 74
     0
 49
-1.0
 74
     0
 49
1.0
 74
     0
 49
-1.0
 74
     0
 49
1.0
 74
     0
 49
-1.0
 74
     0
 49
1.0
 74
     0
 49
-1.0
 74
     0
  0
LTYPE
  5
45
330
5
100
AcDbSymbolTableRecord
100
AcDbLinetypeTableRecord
  2
EXLTYPE6
 70
     0
  3
四点鎖線
 72
    65
 73
    10
 40
39.0
 49
30.0
 74
     0
 49
-1.0
 74
     0
 49
1.0
 74
     0
 49
-1.0
 74
     0
 49
1.0
 74
     0
 49
-1.0
 74
     0
 49
1.0
 74
     0
 49
-1.0
 74
     0
 49
1.0
 74
     0
 49
-1.0
 74
     0
  0
ENDTAB
  0
TABLE
  2
LAYER
  5
2
330
0
100
AcDbSymbolTable
 70
     7
  0
LAYER
  5
10
330
2
100
AcDbSymbolTableRecord
100
AcDbLayerTableRecord
  2
0
 70
     0
 62
     7
  6
CONTINUOUS
  0
LAYER
  5
48
330
2
100
AcDbSymbolTableRecord
100
AcDbLayerTableRecord
  2
枠_表
 70
     0
 62
     7
  6
CONTINUOUS
  0
LAYER
  5
49
330
2
100
AcDbSymbolTableRecord
100
AcDbLayerTableRecord
  2
化粧台
 70
     0
 62
     7
  6
CONTINUOUS
  0
LAYER
  5
4A
330
2
100
AcDbSymbolTableRecord
100
AcDbLayerTableRecord
  2
鏡台
 70
     0
 62
     7
  6
CONTINUOUS
  0
LAYER
  5
4B
330
2
100
AcDbSymbolTableRecord
100
AcDbLayerTableRecord
  2
付属金具
 70
     0
 62
     7
  6
CONTINUOUS
  0
LAYER
  5
4C
330
2
100
AcDbSymbolTableRecord
100
AcDbLayerTableRecord
  2
寸法
 70
     0
 62
     7
  6
CONTINUOUS
  0
LAYER
  5
357
330
2
100
AcDbSymbolTableRecord
100
AcDbLayerTableRecord
  2
DEFPOINTS
 70
     0
 62
     7
  6
CONTINUOUS
  0
ENDTAB
  0
TABLE
  2
STYLE
  5
3
330
0
100
AcDbSymbolTable
 70
     5
  0
STYLE
  5
11
330
3
100
AcDbSymbolTableRecord
100
AcDbTextStyleTableRecord
  2
STANDARD
 70
     0
 40
0.0
 41
1.0
 50
0.0
 71
     0
 42
2.5
  3
monotxt
  4
extfont
  0
STYLE
  5
46
330
3
100
AcDbSymbolTableRecord
100
AcDbTextStyleTableRecord
  2
EXCADSTD
 70
     0
 40
0.0
 41
1.0
 50
0.0
 71
     0
 42
0.2
  3
monotxt
  4
extfont
  0
STYLE
  5
47
330
3
100
AcDbSymbolTableRecord
100
AcDbTextStyleTableRecord
  2
EXCADVERT
 70
     4
 40
0.0
 41
1.0
 50
0.0
 71
     0
 42
0.286885
  3
monotxt
  4
extfont
  0
STYLE
  5
134
330
3
100
AcDbSymbolTableRecord
100
AcDbTextStyleTableRecord
  2
EXCADTTF1
 70
     0
 40
0.0
 41
1.0
 50
0.0
 71
     0
 42
0.2
  3
MSGOTHIC.TTC
  4

1001
ACAD
1000
MS Gothic
1071
    32817
  0
STYLE
  5
355
330
3
100
AcDbSymbolTableRecord
100
AcDbTextStyleTableRecord
  2
EXCADDIM1
 70
     0
 40
0.0
 41
0.84
 50
0.0
 71
     0
 42
0.2
  3
monotxt
  4
extfont
  0
ENDTAB
  0
TABLE
  2
VIEW
  5
6
330
0
100
AcDbSymbolTable
 70
     0
  0
ENDTAB
  0
TABLE
  2
UCS
  5
7
330
0
100
AcDbSymbolTable
 70
     0
  0
ENDTAB
  0
TABLE
  2
APPID
  5
9
330
0
100
AcDbSymbolTable
 70
     1
  0
APPID
  5
12
330
9
100
AcDbSymbolTableRecord
100
AcDbRegAppTableRecord
  2
ACAD
 70
     0
  0
ENDTAB
  0
TABLE
  2
DIMSTYLE
  5
A
330
0
100
AcDbSymbolTable
 70
     1
  0
DIMSTYLE
105
27
102
{ACAD_REACTORS
330
356
330
363
330
370
330
37D
330
38A
330
398
330
3A5
330
3B1
330
3BD
330
3C9
330
3D5
330
3E0
330
3EC
330
3F9
330
406
330
42A
330
437
330
444
330
450
330
45D
330
483
330
4B4
330
4C0
330
4CE
330
4DA
102
}
330
A
100
AcDbSymbolTableRecord
100
AcDbDimStyleTableRecord
  2
ISO-25
 70
     0
  3

  4

  5

  6

  7

 40
1.0
 41
2.5
 42
0.625
 43
3.75
 44
1.25
 45
0.0
 46
0.0
 47
0.0
 48
0.0
140
2.5
141
2.5
142
0.0
143
0.03937007874016
144
1.0
145
0.0
146
1.0
147
0.625
 71
     0
 72
     0
 73
     0
 74
     0
 75
     0
 76
     0
 77
     1
 78
     8
170
     0
171
     3
172
     1
173
     0
174
     0
175
     0
176
     0
177
     0
178
     0
270
     2
271
     2
272
     2
273
     2
274
     3
340
11
275
     0
280
     0
281
     0
282
     0
283
     0
284
     8
285
     0
286
     0
287
     5
288
     0
  0
ENDTAB
  0
TABLE
  2
BLOCK_RECORD
  5
1
330
0
100
AcDbSymbolTable
 70
    40
  0
BLOCK_RECORD
  5
1F
330
1
100
AcDbSymbolTableRecord
100
AcDbBlockTableRecord
  2
*MODEL_SPACE
  0
BLOCK_RECORD
  5
1B
330
1
100
AcDbSymbolTableRecord
100
AcDbBlockTableRecord
  2
*PAPER_SPACE
  0
BLOCK_RECORD
  5
4D
330
1
100
AcDbSymbolTableRecord
100
AcDbBlockTableRecord
  2
EX_NORM
  0
BLOCK_RECORD
  5
50
330
1
100
AcDbSymbolTableRecord
100
AcDbBlockTableRecord
  2
EX_BNORM
  0
BLOCK_RECORD
  5
53
330
1
100
AcDbSymbolTableRecord
100
AcDbBlockTableRecord
  2
EX_BCIR
  0
BLOCK_RECORD
  5
56
330
1
100
AcDbSymbolTableRecord
100
AcDbBlockTableRecord
  2
EX_RCIVIL
  0
BLOCK_RECORD
  5
59
330
1
100
AcDbSymbolTableRecord
100
AcDbBlockTableRecord
  2
EX_SLANT
  0
BLOCK_RECORD
  5
5C
330
1
100
AcDbSymbolTableRecord
100
AcDbBlockTableRecord
  2
EX_NONE
  0
BLOCK_RECORD
  5
5F
330
1
100
AcDbSymbolTableRecord
100
AcDbBlockTableRecord
  2
EX_CIVIL
  0
BLOCK_RECORD
  5
62
330
1
100
AcDbSymbolTableRecord
100
AcDbBlockTableRecord
  2
EX_WCIR
  0
BLOCK_RECORD
  5
65
330
1
100
AcDbSymbolTableRecord
100
AcDbBlockTableRecord
  2
EX_WCIR2
  0
BLOCK_RECORD
  5
68
330
1
100
AcDbSymbolTableRecord
100
AcDbBlockTableRecord
  2
EX_WNORM
  0
BLOCK_RECORD
  5
6B
330
1
100
AcDbSymbolTableRecord
100
AcDbBlockTableRecord
  2
EX_NNORM
  0
BLOCK_RECORD
  5
6E
330
1
100
AcDbSymbolTableRecord
100
AcDbBlockTableRecord
  2
EX_BBOX
  0
BLOCK_RECORD
  5
71
330
1
100
AcDbSymbolTableRecord
100
AcDbBlockTableRecord
  2
EX_WBOX
  0
BLOCK_RECORD
  5
74
330
1
100
AcDbSymbolTableRecord
100
AcDbBlockTableRecord
  2
EX_INTEGRAL
  0
BLOCK_RECORD
  5
358
330
1
100
AcDbSymbolTableRecord
100
AcDbBlockTableRecord
  2
*D15
  0
BLOCK_RECORD
  5
364
330
1
100
AcDbSymbolTableRecord
100
AcDbBlockTableRecord
  2
*D16
  0
BLOCK_RECORD
  5
371
330
1
100
AcDbSymbolTableRecord
100
AcDbBlockTableRecord
  2
*D17
  0
BLOCK_RECORD
  5
37E
330
1
100
AcDbSymbolTableRecord
100
AcDbBlockTableRecord
  2
*D18
  0
BLOCK_RECORD
  5
38B
330
1
100
AcDbSymbolTableRecord
100
AcDbBlockTableRecord
  2
*D19
  0
BLOCK_RECORD
  5
399
330
1
100
AcDbSymbolTableRecord
100
AcDbBlockTableRecord
  2
*D20
  0
BLOCK_RECORD
  5
3A6
330
1
100
AcDbSymbolTableRecord
100
AcDbBlockTableRecord
  2
*D21
  0
BLOCK_RECORD
  5
3B2
330
1
100
AcDbSymbolTableRecord
100
AcDbBlockTableRecord
  2
*D22
  0
BLOCK_RECORD
  5
3BE
330
1
100
AcDbSymbolTableRecord
100
AcDbBlockTableRecord
  2
*D23
  0
BLOCK_RECORD
  5
3CA
330
1
100
AcDbSymbolTableRecord
100
AcDbBlockTableRecord
  2
*D24
  0
BLOCK_RECORD
  5
3D6
330
1
100
AcDbSymbolTableRecord
100
AcDbBlockTableRecord
  2
*D25
  0
BLOCK_RECORD
  5
3E1
330
1
100
AcDbSymbolTableRecord
100
AcDbBlockTableRecord
  2
*D26
  0
BLOCK_RECORD
  5
3ED
330
1
100
AcDbSymbolTableRecord
100
AcDbBlockTableRecord
  2
*D27
  0
BLOCK_RECORD
  5
3FA
330
1
100
AcDbSymbolTableRecord
100
AcDbBlockTableRecord
  2
*D28
  0
BLOCK_RECORD
  5
407
330
1
100
AcDbSymbolTableRecord
100
AcDbBlockTableRecord
  2
*D29
  0
BLOCK_RECORD
  5
42B
330
1
100
AcDbSymbolTableRecord
100
AcDbBlockTableRecord
  2
*D30
  0
BLOCK_RECORD
  5
438
330
1
100
AcDbSymbolTableRecord
100
AcDbBlockTableRecord
  2
*D31
  0
BLOCK_RECORD
  5
445
330
1
100
AcDbSymbolTableRecord
100
AcDbBlockTableRecord
  2
*D32
  0
BLOCK_RECORD
  5
451
330
1
100
AcDbSymbolTableRecord
100
AcDbBlockTableRecord
  2
*D33
  0
BLOCK_RECORD
  5
45E
330
1
100
AcDbSymbolTableRecord
100
AcDbBlockTableRecord
  2
*D34
  0
BLOCK_RECORD
  5
484
330
1
100
AcDbSymbolTableRecord
100
AcDbBlockTableRecord
  2
*D35
  0
BLOCK_RECORD
  5
4B5
330
1
100
AcDbSymbolTableRecord
100
AcDbBlockTableRecord
  2
*D36
  0
BLOCK_RECORD
  5
4C1
330
1
100
AcDbSymbolTableRecord
100
AcDbBlockTableRecord
  2
*D37
  0
BLOCK_RECORD
  5
4CF
330
1
100
AcDbSymbolTableRecord
100
AcDbBlockTableRecord
  2
*D38
  0
BLOCK_RECORD
  5
4DB
330
1
100
AcDbSymbolTableRecord
100
AcDbBlockTableRecord
  2
*D39
  0
ENDTAB
  0
ENDSEC
  0
SECTION
  2
BLOCKS
  0
BLOCK
  5
20
330
1F
100
AcDbEntity
  8
0
100
AcDbBlockBegin
  2
*MODEL_SPACE
 70
     0
 10
0.0
 20
0.0
 30
0.0
  3
*MODEL_SPACE
  1

  0
ENDBLK
  5
21
330
1F
100
AcDbEntity
  8
0
100
AcDbBlockEnd
  0
BLOCK
  5
1C
330
1B
100
AcDbEntity
 67
     1
  8
0
100
AcDbBlockBegin
  2
*PAPER_SPACE
 70
     0
 10
0.0
 20
0.0
 30
0.0
  3
*PAPER_SPACE
  1

  0
ENDBLK
  5
1D
330
1B
100
AcDbEntity
 67
     1
  8
0
100
AcDbBlockEnd
  0
BLOCK
  5
4E
330
4D
100
AcDbEntity
  8
0
100
AcDbBlockBegin
  2
EX_NORM
 70
     0
 10
0.0
 20
0.0
 30
0.0
  3
EX_NORM
  1

  0
LINE
  5
77
330
4D
100
AcDbEntity
  8
0
  6
CONTINUOUS
 62
     0
100
AcDbLine
 10
0.0
 20
0.0
 30
0.0
 11
-1.0
 21
0.0
 31
0.0
  0
LINE
  5
78
330
4D
100
AcDbEntity
  8
0
  6
CONTINUOUS
 62
     0
100
AcDbLine
 10
0.0
 20
0.0
 30
0.0
 11
-1.0
 21
0.166666667
 31
0.0
  0
LINE
  5
79
330
4D
100
AcDbEntity
  8
0
  6
CONTINUOUS
 62
     0
100
AcDbLine
 10
0.0
 20
0.0
 30
0.0
 11
-1.0
 21
-0.166666667
 31
0.0
  0
ENDBLK
  5
4F
330
4D
100
AcDbEntity
  8
0
100
AcDbBlockEnd
  0
BLOCK
  5
51
330
50
100
AcDbEntity
  8
0
100
AcDbBlockBegin
  2
EX_BNORM
 70
     0
 10
0.0
 20
0.0
 30
0.0
  3
EX_BNORM
  1

  0
LINE
  5
7A
330
50
100
AcDbEntity
  8
0
  6
CONTINUOUS
 62
     0
100
AcDbLine
 10
0.0
 20
0.0
 30
0.0
 11
-1.0
 21
0.0
 31
0.0
  0
LINE
  5
7B
330
50
100
AcDbEntity
  8
0
  6
CONTINUOUS
 62
     0
100
AcDbLine
 10
0.0
 20
0.0
 30
0.0
 11
-1.0
 21
0.166666667
 31
0.0
  0
LINE
  5
7C
330
50
100
AcDbEntity
  8
0
  6
CONTINUOUS
 62
     0
100
AcDbLine
 10
0.0
 20
0.0
 30
0.0
 11
-1.0
 21
-0.166666667
 31
0.0
  0
LINE
  5
7D
330
50
100
AcDbEntity
  8
0
  6
CONTINUOUS
 62
     0
100
AcDbLine
 10
0.0
 20
0.0
 30
0.0
 11
-1.0
 21
0.083333333
 31
0.0
  0
LINE
  5
7E
330
50
100
AcDbEntity
  8
0
  6
CONTINUOUS
 62
     0
100
AcDbLine
 10
0.0
 20
0.0
 30
0.0
 11
-1.0
 21
-0.083333333
 31
0.0
  0
LINE
  5
7F
330
50
100
AcDbEntity
  8
0
  6
CONTINUOUS
 62
     0
100
AcDbLine
 10
-1.0
 20
0.166666667
 30
0.0
 11
-1.0
 21
-0.166666667
 31
0.0
  0
ENDBLK
  5
52
330
50
100
AcDbEntity
  8
0
100
AcDbBlockEnd
  0
BLOCK
  5
54
330
53
100
AcDbEntity
  8
0
100
AcDbBlockBegin
  2
EX_BCIR
 70
     0
 10
0.0
 20
0.0
 30
0.0
  3
EX_BCIR
  1

  0
LINE
  5
80
330
53
100
AcDbEntity
  8
0
  6
CONTINUOUS
 62
     0
100
AcDbLine
 10
0.0
 20
0.0
 30
0.0
 11
-1.0
 21
0.0
 31
0.0
  0
CIRCLE
  5
81
330
53
100
AcDbEntity
  8
0
  6
CONTINUOUS
 62
     0
100
AcDbCircle
 10
0.0
 20
0.0
 30
0.0
 40
0.5
  0
CIRCLE
  5
82
330
53
100
AcDbEntity
  8
0
  6
CONTINUOUS
 62
     0
100
AcDbCircle
 10
0.0
 20
0.0
 30
0.0
 40
0.25
  0
ENDBLK
  5
55
330
53
100
AcDbEntity
  8
0
100
AcDbBlockEnd
  0
BLOCK
  5
57
330
56
100
AcDbEntity
  8
0
100
AcDbBlockBegin
  2
EX_RCIVIL
 70
     0
 10
0.0
 20
0.0
 30
0.0
  3
EX_RCIVIL
  1

  0
LINE
  5
83
330
56
100
AcDbEntity
  8
0
  6
CONTINUOUS
 62
     0
100
AcDbLine
 10
0.0
 20
0.0
 30
0.0
 11
-1.0
 21
0.0
 31
0.0
  0
LINE
  5
84
330
56
100
AcDbEntity
  8
0
  6
CONTINUOUS
 62
     0
100
AcDbLine
 10
-1.0
 20
-0.25
 30
0.0
 11
0.0
 21
-0.25
 31
0.0
  0
LINE
  5
85
330
56
100
AcDbEntity
  8
0
  6
CONTINUOUS
 62
     0
100
AcDbLine
 10
-1.0
 20
-0.125
 30
0.0
 11
0.0
 21
-0.125
 31
0.0
  0
ENDBLK
  5
58
330
56
100
AcDbEntity
  8
0
100
AcDbBlockEnd
  0
BLOCK
  5
5A
330
59
100
AcDbEntity
  8
0
100
AcDbBlockBegin
  2
EX_SLANT
 70
     0
 10
0.0
 20
0.0
 30
0.0
  3
EX_SLANT
  1

  0
LINE
  5
86
330
59
100
AcDbEntity
  8
0
  6
CONTINUOUS
 62
     0
100
AcDbLine
 10
0.0
 20
0.0
 30
0.0
 11
-1.0
 21
0.0
 31
0.0
  0
LINE
  5
87
330
59
100
AcDbEntity
  8
0
  6
CONTINUOUS
 62
     0
100
AcDbLine
 10
0.707106781
 20
0.707106781
 30
0.0
 11
-0.707106781
 21
-0.707106781
 31
0.0
  0
ENDBLK
  5
5B
330
59
100
AcDbEntity
  8
0
100
AcDbBlockEnd
  0
BLOCK
  5
5D
330
5C
100
AcDbEntity
  8
0
100
AcDbBlockBegin
  2
EX_NONE
 70
     0
 10
0.0
 20
0.0
 30
0.0
  3
EX_NONE
  1

  0
LINE
  5
88
330
5C
100
AcDbEntity
  8
0
  6
CONTINUOUS
 62
     0
100
AcDbLine
 10
0.0
 20
0.0
 30
0.0
 11
-1.0
 21
0.0
 31
0.0
  0
ENDBLK
  5
5E
330
5C
100
AcDbEntity
  8
0
100
AcDbBlockEnd
  0
BLOCK
  5
60
330
5F
100
AcDbEntity
  8
0
100
AcDbBlockBegin
  2
EX_CIVIL
 70
     0
 10
0.0
 20
0.0
 30
0.0
  3
EX_CIVIL
  1

  0
LINE
  5
89
330
5F
100
AcDbEntity
  8
0
  6
CONTINUOUS
 62
     0
100
AcDbLine
 10
0.0
 20
0.0
 30
0.0
 11
-1.0
 21
0.0
 31
0.0
  0
LINE
  5
8A
330
5F
100
AcDbEntity
  8
0
  6
CONTINUOUS
 62
     0
100
AcDbLine
 10
-1.0
 20
0.25
 30
0.0
 11
0.0
 21
0.25
 31
0.0
  0
LINE
  5
8B
330
5F
100
AcDbEntity
  8
0
  6
CONTINUOUS
 62
     0
100
AcDbLine
 10
-1.0
 20
0.125
 30
0.0
 11
0.0
 21
0.125
 31
0.0
  0
ENDBLK
  5
61
330
5F
100
AcDbEntity
  8
0
100
AcDbBlockEnd
  0
BLOCK
  5
63
330
62
100
AcDbEntity
  8
0
100
AcDbBlockBegin
  2
EX_WCIR
 70
     0
 10
0.0
 20
0.0
 30
0.0
  3
EX_WCIR
  1

  0
LINE
  5
8C
330
62
100
AcDbEntity
  8
0
  6
CONTINUOUS
 62
     0
100
AcDbLine
 10
0.0
 20
0.0
 30
0.0
 11
-1.0
 21
0.0
 31
0.0
  0
CIRCLE
  5
8D
330
62
100
AcDbEntity
  8
0
  6
CONTINUOUS
 62
     0
100
AcDbCircle
 10
0.0
 20
0.0
 30
0.0
 40
0.5
  0
ENDBLK
  5
64
330
62
100
AcDbEntity
  8
0
100
AcDbBlockEnd
  0
BLOCK
  5
66
330
65
100
AcDbEntity
  8
0
100
AcDbBlockBegin
  2
EX_WCIR2
 70
     0
 10
0.0
 20
0.0
 30
0.0
  3
EX_WCIR2
  1

  0
LINE
  5
8E
330
65
100
AcDbEntity
  8
0
  6
CONTINUOUS
 62
     0
100
AcDbLine
 10
-0.5
 20
0.0
 30
0.0
 11
-1.0
 21
0.0
 31
0.0
  0
CIRCLE
  5
8F
330
65
100
AcDbEntity
  8
0
  6
CONTINUOUS
 62
     0
100
AcDbCircle
 10
0.0
 20
0.0
 30
0.0
 40
0.5
  0
ENDBLK
  5
67
330
65
100
AcDbEntity
  8
0
100
AcDbBlockEnd
  0
BLOCK
  5
69
330
68
100
AcDbEntity
  8
0
100
AcDbBlockBegin
  2
EX_WNORM
 70
     0
 10
0.0
 20
0.0
 30
0.0
  3
EX_WNORM
  1

  0
LINE
  5
90
330
68
100
AcDbEntity
  8
0
  6
CONTINUOUS
 62
     0
100
AcDbLine
 10
-1.0
 20
0.0
 30
0.0
 11
-1.0
 21
0.0
 31
0.0
  0
LINE
  5
91
330
68
100
AcDbEntity
  8
0
  6
CONTINUOUS
 62
     0
100
AcDbLine
 10
0.0
 20
0.0
 30
0.0
 11
-1.0
 21
0.166666667
 31
0.0
  0
LINE
  5
92
330
68
100
AcDbEntity
  8
0
  6
CONTINUOUS
 62
     0
100
AcDbLine
 10
0.0
 20
0.0
 30
0.0
 11
-1.0
 21
-0.166666667
 31
0.0
  0
LINE
  5
93
330
68
100
AcDbEntity
  8
0
  6
CONTINUOUS
 62
     0
100
AcDbLine
 10
-1.0
 20
0.166666667
 30
0.0
 11
-1.0
 21
-0.166666667
 31
0.0
  0
ENDBLK
  5
6A
330
68
100
AcDbEntity
  8
0
100
AcDbBlockEnd
  0
BLOCK
  5
6C
330
6B
100
AcDbEntity
  8
0
100
AcDbBlockBegin
  2
EX_NNORM
 70
     0
 10
0.0
 20
0.0
 30
0.0
  3
EX_NNORM
  1

  0
LINE
  5
94
330
6B
100
AcDbEntity
  8
0
  6
CONTINUOUS
 62
     0
100
AcDbLine
 10
0.0
 20
0.0
 30
0.0
 11
-1.0
 21
0.0
 31
0.0
  0
LINE
  5
95
330
6B
100
AcDbEntity
  8
0
  6
CONTINUOUS
 62
     0
100
AcDbLine
 10
0.0
 20
0.0
 30
0.0
 11
-1.0
 21
0.166666667
 31
0.0
  0
LINE
  5
96
330
6B
100
AcDbEntity
  8
0
  6
CONTINUOUS
 62
     0
100
AcDbLine
 10
0.0
 20
0.0
 30
0.0
 11
-1.0
 21
-0.166666667
 31
0.0
  0
LINE
  5
97
330
6B
100
AcDbEntity
  8
0
  6
CONTINUOUS
 62
     0
100
AcDbLine
 10
-1.0
 20
0.166666667
 30
0.0
 11
-1.0
 21
-0.166666667
 31
0.0
  0
ENDBLK
  5
6D
330
6B
100
AcDbEntity
  8
0
100
AcDbBlockEnd
  0
BLOCK
  5
6F
330
6E
100
AcDbEntity
  8
0
100
AcDbBlockBegin
  2
EX_BBOX
 70
     0
 10
0.0
 20
0.0
 30
0.0
  3
EX_BBOX
  1

  0
LINE
  5
98
330
6E
100
AcDbEntity
  8
0
  6
CONTINUOUS
 62
     0
100
AcDbLine
 10
0.0
 20
0.0
 30
0.0
 11
-1.0
 21
0.0
 31
0.0
  0
LINE
  5
99
330
6E
100
AcDbEntity
  8
0
  6
CONTINUOUS
 62
     0
100
AcDbLine
 10
-0.5
 20
0.5
 30
0.0
 11
0.5
 21
0.5
 31
0.0
  0
LINE
  5
9A
330
6E
100
AcDbEntity
  8
0
  6
CONTINUOUS
 62
     0
100
AcDbLine
 10
0.5
 20
0.5
 30
0.0
 11
0.5
 21
-0.5
 31
0.0
  0
LINE
  5
9B
330
6E
100
AcDbEntity
  8
0
  6
CONTINUOUS
 62
     0
100
AcDbLine
 10
0.5
 20
-0.5
 30
0.0
 11
-0.5
 21
-0.5
 31
0.0
  0
LINE
  5
9C
330
6E
100
AcDbEntity
  8
0
  6
CONTINUOUS
 62
     0
100
AcDbLine
 10
-0.5
 20
-0.5
 30
0.0
 11
-0.5
 21
0.5
 31
0.0
  0
LINE
  5
9D
330
6E
100
AcDbEntity
  8
0
  6
CONTINUOUS
 62
     0
100
AcDbLine
 10
-0.25
 20
0.25
 30
0.0
 11
0.25
 21
0.25
 31
0.0
  0
LINE
  5
9E
330
6E
100
AcDbEntity
  8
0
  6
CONTINUOUS
 62
     0
100
AcDbLine
 10
0.25
 20
0.25
 30
0.0
 11
0.25
 21
-0.25
 31
0.0
  0
LINE
  5
9F
330
6E
100
AcDbEntity
  8
0
  6
CONTINUOUS
 62
     0
100
AcDbLine
 10
0.25
 20
-0.25
 30
0.0
 11
-0.25
 21
-0.25
 31
0.0
  0
LINE
  5
A0
330
6E
100
AcDbEntity
  8
0
  6
CONTINUOUS
 62
     0
100
AcDbLine
 10
-0.25
 20
-0.25
 30
0.0
 11
-0.25
 21
0.25
 31
0.0
  0
ENDBLK
  5
70
330
6E
100
AcDbEntity
  8
0
100
AcDbBlockEnd
  0
BLOCK
  5
72
330
71
100
AcDbEntity
  8
0
100
AcDbBlockBegin
  2
EX_WBOX
 70
     0
 10
0.0
 20
0.0
 30
0.0
  3
EX_WBOX
  1

  0
LINE
  5
A1
330
71
100
AcDbEntity
  8
0
  6
CONTINUOUS
 62
     0
100
AcDbLine
 10
-0.5
 20
0.0
 30
0.0
 11
-1.0
 21
0.0
 31
0.0
  0
LINE
  5
A2
330
71
100
AcDbEntity
  8
0
  6
CONTINUOUS
 62
     0
100
AcDbLine
 10
-0.5
 20
0.5
 30
0.0
 11
0.5
 21
0.5
 31
0.0
  0
LINE
  5
A3
330
71
100
AcDbEntity
  8
0
  6
CONTINUOUS
 62
     0
100
AcDbLine
 10
0.5
 20
0.5
 30
0.0
 11
0.5
 21
-0.5
 31
0.0
  0
LINE
  5
A4
330
71
100
AcDbEntity
  8
0
  6
CONTINUOUS
 62
     0
100
AcDbLine
 10
0.5
 20
-0.5
 30
0.0
 11
-0.5
 21
-0.5
 31
0.0
  0
LINE
  5
A5
330
71
100
AcDbEntity
  8
0
  6
CONTINUOUS
 62
     0
100
AcDbLine
 10
-0.5
 20
-0.5
 30
0.0
 11
-0.5
 21
0.5
 31
0.0
  0
ENDBLK
  5
73
330
71
100
AcDbEntity
  8
0
100
AcDbBlockEnd
  0
BLOCK
  5
75
330
74
100
AcDbEntity
  8
0
100
AcDbBlockBegin
  2
EX_INTEGRAL
 70
     0
 10
0.0
 20
0.0
 30
0.0
  3
EX_INTEGRAL
  1

  0
LINE
  5
A6
330
74
100
AcDbEntity
  8
0
  6
CONTINUOUS
 62
     0
100
AcDbLine
 10
0.0
 20
0.0
 30
0.0
 11
-1.0
 21
0.0
 31
0.0
  0
ARC
  5
A7
330
74
100
AcDbEntity
  8
0
  6
CONTINUOUS
 62
     0
100
AcDbCircle
 10
0.542115
 20
0.164992
 30
0.0
 40
0.56667
100
AcDbArc
 50
73.07249033629006
 51
196.9275130221199
  0
ARC
  5
A8
330
74
100
AcDbEntity
  8
0
  6
CONTINUOUS
 62
     0
100
AcDbCircle
 10
-0.542115
 20
-0.164992
 30
0.0
 40
0.56667
100
AcDbArc
 50
253.0724869220464
 51
16.9275130559125
  0
ENDBLK
  5
76
330
74
100
AcDbEntity
  8
0
100
AcDbBlockEnd
  0
BLOCK
  5
359
330
358
100
AcDbEntity
  8
0
100
AcDbBlockBegin
  2
*D15
 70
     1
 10
0.0
 20
0.0
 30
0.0
  3
*D15
  1

  0
LINE
  5
35B
330
358
100
AcDbEntity
  8
寸法
  6
CONTINUOUS
 62
     3
100
AcDbLine
 10
1421.499999821502
 20
1619.499999999999
 30
0.0
 11
1546.000000000327
 21
1619.499999999999
 31
0.0
  0
LINE
  5
35C
330
358
100
AcDbEntity
  8
寸法
  6
CONTINUOUS
 62
     3
100
AcDbLine
 10
1531.000000000327
 20
964.4999961853019
 30
0.0
 11
1531.000000000327
 21
1574.500003814696
 31
0.0
  0
INSERT
  5
35D
330
358
100
AcDbEntity
  8
寸法
 62
     3
100
AcDbBlockReference
  2
EX_NORM
 10
1531.000000000327
 20
919.4999999999992
 30
0.0
 41
44.99999618530273
 42
44.99999618530273
 43
44.99999618530273
 50
270.0
  0
INSERT
  5
35E
330
358
100
AcDbEntity
  8
寸法
 62
     3
100
AcDbBlockReference
  2
EX_NORM
 10
1531.000000000327
 20
1619.499999999999
 30
0.0
 41
44.99999618530273
 42
44.99999618530273
 43
44.99999618530273
 50
90.0
  0
MTEXT
  5
35F
330
358
100
AcDbEntity
  8
寸法
 62
     2
100
AcDbMText
 10
1495.750000089732
 20
1269.499999999999
 30
0.0
 40
59.99999618530273
 41
0.0
 71
     5
 72
     1
  1
700
  7
EXCADDIM1
 11
0.0
 21
1.0
 31
0.0
  0
POINT
  5
360
330
358
100
AcDbEntity
  8
DEFPOINTS
 62
     0
100
AcDbPoint
 10
1409.000000000316
 20
919.4999999999991
 30
0.0
  0
POINT
  5
361
330
358
100
AcDbEntity
  8
DEFPOINTS
 62
     0
100
AcDbPoint
 10
1411.000000000316
 20
1619.499999999999
 30
0.0
  0
POINT
  5
362
330
358
100
AcDbEntity
  8
DEFPOINTS
 62
     0
100
AcDbPoint
 10
1531.000000000327
 20
1619.499999999999
 30
0.0
  0
ENDBLK
  5
35A
330
358
100
AcDbEntity
  8
0
100
AcDbBlockEnd
  0
BLOCK
  5
365
330
364
100
AcDbEntity
  8
0
100
AcDbBlockBegin
  2
*D16
 70
     1
 10
0.0
 20
0.0
 30
0.0
  3
*D16
  1

  0
LINE
  5
367
330
364
100
AcDbEntity
  8
寸法
  6
CONTINUOUS
 62
     3
100
AcDbLine
 10
961.0000000003197
 20
909.000000178813
 30
0.0
 11
961.0000000003197
 21
694.4999999999945
 31
0.0
  0
LINE
  5
368
330
364
100
AcDbEntity
  8
寸法
  6
CONTINUOUS
 62
     3
100
AcDbLine
 10
1201.000000000318
 20
859.000000178693
 30
0.0
 11
1201.000000000318
 21
694.4999999999945
 31
0.0
  0
LINE
  5
369
330
364
100
AcDbEntity
  8
寸法
  6
CONTINUOUS
 62
     3
100
AcDbLine
 10
1005.999996185622
 20
709.4999999999945
 30
0.0
 11
1156.000003815015
 21
709.4999999999945
 31
0.0
  0
INSERT
  5
36A
330
364
100
AcDbEntity
  8
寸法
 62
     3
100
AcDbBlockReference
  2
EX_NORM
 10
961.0000000003197
 20
709.4999999999945
 30
0.0
 41
44.99999618530273
 42
44.99999618530273
 43
44.99999618530273
 50
180.0
  0
INSERT
  5
36B
330
364
100
AcDbEntity
  8
寸法
 62
     3
100
AcDbBlockReference
  2
EX_NORM
 10
1201.000000000318
 20
709.4999999999945
 30
0.0
 41
44.99999618530273
 42
44.99999618530273
 43
44.99999618530273
  0
MTEXT
  5
36C
330
364
100
AcDbEntity
  8
寸法
 62
     2
100
AcDbMText
 10
728.5000000003198
 20
744.7499999105876
 30
0.0
 40
59.99999618530273
 41
0.0
 71
     5
 72
     1
  1
240（床排水）
  7
EXCADDIM1
  0
POINT
  5
36D
330
364
100
AcDbEntity
  8
DEFPOINTS
 62
     0
100
AcDbPoint
 10
961.0000000003197
 20
919.4999999999991
 30
0.0
  0
POINT
  5
36E
330
364
100
AcDbEntity
  8
DEFPOINTS
 62
     0
100
AcDbPoint
 10
1201.000000000318
 20
869.499999999879
 30
0.0
  0
POINT
  5
36F
330
364
100
AcDbEntity
  8
DEFPOINTS
 62
     0
100
AcDbPoint
 10
1201.000000000318
 20
709.4999999999945
 30
0.0
  0
ENDBLK
  5
366
330
364
100
AcDbEntity
  8
0
100
AcDbBlockEnd
  0
BLOCK
  5
372
330
371
100
AcDbEntity
  8
0
100
AcDbBlockBegin
  2
*D17
 70
     1
 10
0.0
 20
0.0
 30
0.0
  3
*D17
  1

  0
LINE
  5
374
330
371
100
AcDbEntity
  8
寸法
  6
CONTINUOUS
 62
     3
100
AcDbLine
 10
796.0000000003196
 20
901.0000001788139
 30
0.0
 11
796.0000000003196
 21
784.4999999999945
 31
0.0
  0
LINE
  5
375
330
371
100
AcDbEntity
  8
寸法
  6
CONTINUOUS
 62
     3
100
AcDbLine
 10
1126.000000000318
 20
901.0000001788139
 30
0.0
 11
1126.000000000318
 21
784.4999999999945
 31
0.0
  0
LINE
  5
376
330
371
100
AcDbEntity
  8
寸法
  6
CONTINUOUS
 62
     3
100
AcDbLine
 10
840.9999961856223
 20
799.4999999999945
 30
0.0
 11
1081.000003815015
 21
799.4999999999945
 31
0.0
  0
INSERT
  5
377
330
371
100
AcDbEntity
  8
寸法
 62
     3
100
AcDbBlockReference
  2
EX_NORM
 10
796.0000000003196
 20
799.4999999999945
 30
0.0
 41
44.99999618530273
 42
44.99999618530273
 43
44.99999618530273
 50
180.0
  0
INSERT
  5
378
330
371
100
AcDbEntity
  8
寸法
 62
     3
100
AcDbBlockReference
  2
EX_NORM
 10
1126.000000000318
 20
799.4999999999945
 30
0.0
 41
44.99999618530273
 42
44.99999618530273
 43
44.99999618530273
  0
MTEXT
  5
379
330
371
100
AcDbEntity
  8
寸法
 62
     2
100
AcDbMText
 10
563.5000000003195
 20
834.7499999105876
 30
0.0
 40
59.99999618530273
 41
0.0
 71
     5
 72
     1
  1
330（床給水）
  7
EXCADDIM1
  0
POINT
  5
37A
330
371
100
AcDbEntity
  8
DEFPOINTS
 62
     0
100
AcDbPoint
 10
796.0000000003196
 20
911.5
 30
0.0
  0
POINT
  5
37B
330
371
100
AcDbEntity
  8
DEFPOINTS
 62
     0
100
AcDbPoint
 10
1126.000000000318
 20
911.5
 30
0.0
  0
POINT
  5
37C
330
371
100
AcDbEntity
  8
DEFPOINTS
 62
     0
100
AcDbPoint
 10
1126.000000000318
 20
799.4999999999945
 30
0.0
  0
ENDBLK
  5
373
330
371
100
AcDbEntity
  8
0
100
AcDbBlockEnd
  0
BLOCK
  5
37F
330
37E
100
AcDbEntity
  8
0
100
AcDbBlockBegin
  2
*D18
 70
     1
 10
0.0
 20
0.0
 30
0.0
  3
*D18
  1

  0
LINE
  5
381
330
37E
100
AcDbEntity
  8
寸法
  6
CONTINUOUS
 62
     3
100
AcDbLine
 10
631.0000000002997
 20
1485.200000178913
 30
0.0
 11
631.0000000002997
 21
1208.500000000001
 31
0.0
  0
LINE
  5
382
330
37E
100
AcDbEntity
  8
寸法
  6
CONTINUOUS
 62
     3
100
AcDbLine
 10
1291.000000000318
 20
1485.200000178913
 30
0.0
 11
1291.000000000318
 21
1208.500000000001
 31
0.0
  0
LINE
  5
383
330
37E
100
AcDbEntity
  8
寸法
  6
CONTINUOUS
 62
     3
100
AcDbLine
 10
675.9999961856024
 20
1223.500000000001
 30
0.0
 11
1246.000003815015
 21
1223.500000000001
 31
0.0
  0
INSERT
  5
384
330
37E
100
AcDbEntity
  8
寸法
 62
     3
100
AcDbBlockReference
  2
EX_NORM
 10
631.0000000002997
 20
1223.500000000001
 30
0.0
 41
44.99999618530273
 42
44.99999618530273
 43
44.99999618530273
 50
180.0
  0
INSERT
  5
385
330
37E
100
AcDbEntity
  8
寸法
 62
     3
100
AcDbBlockReference
  2
EX_NORM
 10
1291.000000000318
 20
1223.500000000001
 30
0.0
 41
44.99999618530273
 42
44.99999618530273
 43
44.99999618530273
  0
MTEXT
  5
386
330
37E
100
AcDbEntity
  8
寸法
 62
     2
100
AcDbMText
 10
961.0000000003085
 20
1258.749999910594
 30
0.0
 40
59.99999618530273
 41
0.0
 71
     5
 72
     1
  1
660（壁固定）
  7
EXCADDIM1
  0
POINT
  5
387
330
37E
100
AcDbEntity
  8
DEFPOINTS
 62
     0
100
AcDbPoint
 10
631.0000000002997
 20
1495.700000000099
 30
0.0
  0
POINT
  5
388
330
37E
100
AcDbEntity
  8
DEFPOINTS
 62
     0
100
AcDbPoint
 10
1291.000000000318
 20
1495.700000000099
 30
0.0
  0
POINT
  5
389
330
37E
100
AcDbEntity
  8
DEFPOINTS
 62
     0
100
AcDbPoint
 10
1291.000000000318
 20
1223.500000000001
 30
0.0
  0
ENDBLK
  5
380
330
37E
100
AcDbEntity
  8
0
100
AcDbBlockEnd
  0
BLOCK
  5
38C
330
38B
100
AcDbEntity
  8
0
100
AcDbBlockBegin
  2
*D19
 70
     1
 10
0.0
 20
0.0
 30
0.0
  3
*D19
  1

  0
LINE
  5
38E
330
38B
100
AcDbEntity
  8
寸法
  6
CONTINUOUS
 62
     3
100
AcDbLine
 10
2411.000000000318
 20
901.0000001788139
 30
0.0
 11
2411.000000000318
 21
694.4999999999945
 31
0.0
  0
LINE
  5
38F
330
38B
100
AcDbEntity
  8
寸法
  6
CONTINUOUS
 62
     3
100
AcDbLine
 10
2411.000000000318
 20
709.4999999999945
 30
0.0
 11
2491.000000000318
 21
709.4999999999945
 31
0.0
  0
LINE
  5
390
330
38B
100
AcDbEntity
  8
寸法
  6
CONTINUOUS
 62
     3
100
AcDbLine
 10
2366.000003815015
 20
709.4999999999945
 30
0.0
 11
2321.000007629712
 21
709.4999999999945
 31
0.0
  0
LINE
  5
391
330
38B
100
AcDbEntity
  8
寸法
  6
CONTINUOUS
 62
     3
100
AcDbLine
 10
2535.999996185621
 20
709.4999999999945
 30
0.0
 11
2580.999992370923
 21
709.4999999999945
 31
0.0
  0
INSERT
  5
392
330
38B
100
AcDbEntity
  8
寸法
 62
     3
100
AcDbBlockReference
  2
EX_NORM
 10
2411.000000000318
 20
709.4999999999945
 30
0.0
 41
44.99999618530273
 42
44.99999618530273
 43
44.99999618530273
  0
INSERT
  5
393
330
38B
100
AcDbEntity
  8
寸法
 62
     3
100
AcDbBlockReference
  2
EX_NORM
 10
2491.000000000318
 20
709.4999999999945
 30
0.0
 41
44.99999618530273
 42
44.99999618530273
 43
44.99999618530273
 50
180.0
  0
MTEXT
  5
394
330
38B
100
AcDbEntity
  8
寸法
 62
     2
100
AcDbMText
 10
2701.000000000318
 20
744.7499999105876
 30
0.0
 40
59.99999618530273
 41
0.0
 71
     5
 72
     1
  1
80（床給水）
  7
EXCADDIM1
  0
POINT
  5
395
330
38B
100
AcDbEntity
  8
DEFPOINTS
 62
     0
100
AcDbPoint
 10
2411.000000000318
 20
911.5
 30
0.0
  0
POINT
  5
396
330
38B
100
AcDbEntity
  8
DEFPOINTS
 62
     0
100
AcDbPoint
 10
2491.000000000318
 20
919.4999999999991
 30
0.0
  0
POINT
  5
397
330
38B
100
AcDbEntity
  8
DEFPOINTS
 62
     0
100
AcDbPoint
 10
2491.000000000318
 20
709.4999999999945
 30
0.0
  0
ENDBLK
  5
38D
330
38B
100
AcDbEntity
  8
0
100
AcDbBlockEnd
  0
BLOCK
  5
39A
330
399
100
AcDbEntity
  8
0
100
AcDbBlockBegin
  2
*D20
 70
     1
 10
0.0
 20
0.0
 30
0.0
  3
*D20
  1

  0
LINE
  5
39C
330
399
100
AcDbEntity
  8
寸法
  6
CONTINUOUS
 62
     3
100
AcDbLine
 10
2391.000000000318
 20
859.000000178693
 30
0.0
 11
2391.000000000318
 21
604.4999999999945
 31
0.0
  0
LINE
  5
39D
330
399
100
AcDbEntity
  8
寸法
  6
CONTINUOUS
 62
     3
100
AcDbLine
 10
2491.000000000318
 20
909.000000178813
 30
0.0
 11
2491.000000000318
 21
604.4999999999945
 31
0.0
  0
LINE
  5
39E
330
399
100
AcDbEntity
  8
寸法
  6
CONTINUOUS
 62
     3
100
AcDbLine
 10
2435.999996185621
 20
619.4999999999945
 30
0.0
 11
2446.000003815015
 21
619.4999999999945
 31
0.0
  0
INSERT
  5
39F
330
399
100
AcDbEntity
  8
寸法
 62
     3
100
AcDbBlockReference
  2
EX_NORM
 10
2391.000000000318
 20
619.4999999999945
 30
0.0
 41
44.99999618530273
 42
44.99999618530273
 43
44.99999618530273
 50
180.0
  0
INSERT
  5
3A0
330
399
100
AcDbEntity
  8
寸法
 62
     3
100
AcDbBlockReference
  2
EX_NORM
 10
2491.000000000318
 20
619.4999999999945
 30
0.0
 41
44.99999618530273
 42
44.99999618530273
 43
44.99999618530273
  0
MTEXT
  5
3A1
330
399
100
AcDbEntity
  8
寸法
 62
     2
100
AcDbMText
 10
2723.500000000318
 20
654.7499999105876
 30
0.0
 40
59.99999618530273
 41
0.0
 71
     5
 72
     1
  1
100（床排水）
  7
EXCADDIM1
  0
POINT
  5
3A2
330
399
100
AcDbEntity
  8
DEFPOINTS
 62
     0
100
AcDbPoint
 10
2391.000000000318
 20
869.499999999879
 30
0.0
  0
POINT
  5
3A3
330
399
100
AcDbEntity
  8
DEFPOINTS
 62
     0
100
AcDbPoint
 10
2491.000000000318
 20
919.4999999999991
 30
0.0
  0
POINT
  5
3A4
330
399
100
AcDbEntity
  8
DEFPOINTS
 62
     0
100
AcDbPoint
 10
2491.000000000318
 20
619.4999999999945
 30
0.0
  0
ENDBLK
  5
39B
330
399
100
AcDbEntity
  8
0
100
AcDbBlockEnd
  0
BLOCK
  5
3A7
330
3A6
100
AcDbEntity
  8
0
100
AcDbBlockBegin
  2
*D21
 70
     1
 10
0.0
 20
0.0
 30
0.0
  3
*D21
  1

  0
LINE
  5
3A9
330
3A6
100
AcDbEntity
  8
寸法
  6
CONTINUOUS
 62
     3
100
AcDbLine
 10
2534.000005543404
 20
1499.5
 30
0.0
 11
2806.000000000329
 21
1499.5
 31
0.0
  0
LINE
  5
3AA
330
3A6
100
AcDbEntity
  8
寸法
  6
CONTINUOUS
 62
     3
100
AcDbLine
 10
2791.000000000329
 20
964.4999961853017
 30
0.0
 11
2791.000000000329
 21
1454.500003814697
 31
0.0
  0
INSERT
  5
3AB
330
3A6
100
AcDbEntity
  8
寸法
 62
     3
100
AcDbBlockReference
  2
EX_NORM
 10
2791.000000000329
 20
919.499999999999
 30
0.0
 41
44.99999618530273
 42
44.99999618530273
 43
44.99999618530273
 50
270.0
  0
INSERT
  5
3AC
330
3A6
100
AcDbEntity
  8
寸法
 62
     3
100
AcDbBlockReference
  2
EX_NORM
 10
2791.000000000329
 20
1499.5
 30
0.0
 41
44.99999618530273
 42
44.99999618530273
 43
44.99999618530273
 50
90.0
  0
MTEXT
  5
3AD
330
3A6
100
AcDbEntity
  8
寸法
 62
     2
100
AcDbMText
 10
2755.750000089735
 20
1209.499999999998
 30
0.0
 40
59.99999618530273
 41
0.0
 71
     5
 72
     1
  1
580（壁固定）
  7
EXCADDIM1
 11
0.0
 21
1.0
 31
0.0
  0
POINT
  5
3AE
330
3A6
100
AcDbEntity
  8
DEFPOINTS
 62
     0
100
AcDbPoint
 10
2491.000000000318
 20
919.4999999999991
 30
0.0
  0
POINT
  5
3AF
330
3A6
100
AcDbEntity
  8
DEFPOINTS
 62
     0
100
AcDbPoint
 10
2523.500005722218
 20
1499.5
 30
0.0
  0
POINT
  5
3B0
330
3A6
100
AcDbEntity
  8
DEFPOINTS
 62
     0
100
AcDbPoint
 10
2791.000000000329
 20
1499.5
 30
0.0
  0
ENDBLK
  5
3A8
330
3A6
100
AcDbEntity
  8
0
100
AcDbBlockEnd
  0
BLOCK
  5
3B3
330
3B2
100
AcDbEntity
  8
0
100
AcDbBlockBegin
  2
*D22
 70
     1
 10
0.0
 20
0.0
 30
0.0
  3
*D22
  1

  0
LINE
  5
3B5
330
3B2
100
AcDbEntity
  8
寸法
  6
CONTINUOUS
 62
     3
100
AcDbLine
 10
2509.499999821515
 20
1379.5
 30
0.0
 11
2626.000000000329
 21
1379.5
 31
0.0
  0
LINE
  5
3B6
330
3B2
100
AcDbEntity
  8
寸法
  6
CONTINUOUS
 62
     3
100
AcDbLine
 10
2611.000000000329
 20
964.4999961853017
 30
0.0
 11
2611.000000000329
 21
1334.500003814697
 31
0.0
  0
INSERT
  5
3B7
330
3B2
100
AcDbEntity
  8
寸法
 62
     3
100
AcDbBlockReference
  2
EX_NORM
 10
2611.000000000329
 20
919.499999999999
 30
0.0
 41
44.99999618530273
 42
44.99999618530273
 43
44.99999618530273
 50
270.0
  0
INSERT
  5
3B8
330
3B2
100
AcDbEntity
  8
寸法
 62
     3
100
AcDbBlockReference
  2
EX_NORM
 10
2611.000000000329
 20
1379.5
 30
0.0
 41
44.99999618530273
 42
44.99999618530273
 43
44.99999618530273
 50
90.0
  0
MTEXT
  5
3B9
330
3B2
100
AcDbEntity
  8
寸法
 62
     2
100
AcDbMText
 10
2575.750000089735
 20
1149.5
 30
0.0
 40
59.99999618530273
 41
0.0
 71
     5
 72
     1
  1
460（壁給水）
  7
EXCADDIM1
 11
0.0
 21
1.0
 31
0.0
  0
POINT
  5
3BA
330
3B2
100
AcDbEntity
  8
DEFPOINTS
 62
     0
100
AcDbPoint
 10
2491.000000000329
 20
919.4999999999991
 30
0.0
  0
POINT
  5
3BB
330
3B2
100
AcDbEntity
  8
DEFPOINTS
 62
     0
100
AcDbPoint
 10
2499.000000000329
 20
1379.5
 30
0.0
  0
POINT
  5
3BC
330
3B2
100
AcDbEntity
  8
DEFPOINTS
 62
     0
100
AcDbPoint
 10
2611.000000000329
 20
1379.5
 30
0.0
  0
ENDBLK
  5
3B4
330
3B2
100
AcDbEntity
  8
0
100
AcDbBlockEnd
  0
BLOCK
  5
3BF
330
3BE
100
AcDbEntity
  8
0
100
AcDbBlockBegin
  2
*D23
 70
     1
 10
0.0
 20
0.0
 30
0.0
  3
*D23
  1

  0
LINE
  5
3C1
330
3BE
100
AcDbEntity
  8
寸法
  6
CONTINUOUS
 62
     3
100
AcDbLine
 10
2551.499999821515
 20
1389.5
 30
0.0
 11
2716.000000000329
 21
1389.5
 31
0.0
  0
LINE
  5
3C2
330
3BE
100
AcDbEntity
  8
寸法
  6
CONTINUOUS
 62
     3
100
AcDbLine
 10
2701.000000000329
 20
964.4999961853017
 30
0.0
 11
2701.000000000329
 21
1344.500003814697
 31
0.0
  0
INSERT
  5
3C3
330
3BE
100
AcDbEntity
  8
寸法
 62
     3
100
AcDbBlockReference
  2
EX_NORM
 10
2701.000000000329
 20
919.499999999999
 30
0.0
 41
44.99999618530273
 42
44.99999618530273
 43
44.99999618530273
 50
270.0
  0
INSERT
  5
3C4
330
3BE
100
AcDbEntity
  8
寸法
 62
     3
100
AcDbBlockReference
  2
EX_NORM
 10
2701.000000000329
 20
1389.5
 30
0.0
 41
44.99999618530273
 42
44.99999618530273
 43
44.99999618530273
 50
90.0
  0
MTEXT
  5
3C5
330
3BE
100
AcDbEntity
  8
寸法
 62
     2
100
AcDbMText
 10
2665.750000089735
 20
1154.5
 30
0.0
 40
59.99999618530273
 41
0.0
 71
     5
 72
     1
  1
470（壁排水）
  7
EXCADDIM1
 11
0.0
 21
1.0
 31
0.0
  0
POINT
  5
3C6
330
3BE
100
AcDbEntity
  8
DEFPOINTS
 62
     0
100
AcDbPoint
 10
2491.000000000329
 20
919.4999999999991
 30
0.0
  0
POINT
  5
3C7
330
3BE
100
AcDbEntity
  8
DEFPOINTS
 62
     0
100
AcDbPoint
 10
2541.000000000329
 20
1389.5
 30
0.0
  0
POINT
  5
3C8
330
3BE
100
AcDbEntity
  8
DEFPOINTS
 62
     0
100
AcDbPoint
 10
2701.000000000329
 20
1389.5
 30
0.0
  0
ENDBLK
  5
3C0
330
3BE
100
AcDbEntity
  8
0
100
AcDbBlockEnd
  0
BLOCK
  5
3CB
330
3CA
100
AcDbEntity
  8
0
100
AcDbBlockBegin
  2
*D24
 70
     1
 10
0.0
 20
0.0
 30
0.0
  3
*D24
  1

  0
LINE
  5
3CD
330
3CA
100
AcDbEntity
  8
寸法
  6
CONTINUOUS
 62
     3
100
AcDbLine
 10
971.4999998215058
 20
1789.499999999999
 30
0.0
 11
1636.000000000327
 21
1789.499999999999
 31
0.0
  0
LINE
  5
3CE
330
3CA
100
AcDbEntity
  8
寸法
  6
CONTINUOUS
 62
     3
100
AcDbLine
 10
1621.000000000327
 20
964.4999961853019
 30
0.0
 11
1621.000000000327
 21
1744.500003814696
 31
0.0
  0
INSERT
  5
3CF
330
3CA
100
AcDbEntity
  8
寸法
 62
     3
100
AcDbBlockReference
  2
EX_NORM
 10
1621.000000000327
 20
919.4999999999992
 30
0.0
 41
44.99999618530273
 42
44.99999618530273
 43
44.99999618530273
 50
270.0
  0
INSERT
  5
3D0
330
3CA
100
AcDbEntity
  8
寸法
 62
     3
100
AcDbBlockReference
  2
EX_NORM
 10
1621.000000000327
 20
1789.499999999999
 30
0.0
 41
44.99999618530273
 42
44.99999618530273
 43
44.99999618530273
 50
90.0
  0
MTEXT
  5
3D1
330
3CA
100
AcDbEntity
  8
寸法
 62
     2
100
AcDbMText
 10
1585.750000089732
 20
1354.499999999999
 30
0.0
 40
59.99999618530273
 41
0.0
 71
     5
 72
     1
  1
（870）
  7
EXCADDIM1
 11
0.0
 21
1.0
 31
0.0
  0
POINT
  5
3D2
330
3CA
100
AcDbEntity
  8
DEFPOINTS
 62
     0
100
AcDbPoint
 10
1409.000000000327
 20
919.4999999999991
 30
0.0
  0
POINT
  5
3D3
330
3CA
100
AcDbEntity
  8
DEFPOINTS
 62
     0
100
AcDbPoint
 10
961.0000000003197
 20
1789.499999999999
 30
0.0
  0
POINT
  5
3D4
330
3CA
100
AcDbEntity
  8
DEFPOINTS
 62
     0
100
AcDbPoint
 10
1621.000000000327
 20
1789.499999999999
 30
0.0
  0
ENDBLK
  5
3CC
330
3CA
100
AcDbEntity
  8
0
100
AcDbBlockEnd
  0
BLOCK
  5
3D7
330
3D6
100
AcDbEntity
  8
0
100
AcDbBlockBegin
  2
*D25
 70
     1
 10
0.0
 20
0.0
 30
0.0
  3
*D25
  1

  0
LINE
  5
3D9
330
3D6
100
AcDbEntity
  8
寸法
  6
CONTINUOUS
 62
     3
100
AcDbLine
 10
1531.000000000327
 20
1664.499996185302
 30
0.0
 11
1531.000000000327
 21
1744.500003814696
 31
0.0
  0
INSERT
  5
3DA
330
3D6
100
AcDbEntity
  8
寸法
 62
     3
100
AcDbBlockReference
  2
EX_NORM
 10
1531.000000000327
 20
1619.499999999999
 30
0.0
 41
44.99999618530273
 42
44.99999618530273
 43
44.99999618530273
 50
270.0
  0
INSERT
  5
3DB
330
3D6
100
AcDbEntity
  8
寸法
 62
     3
100
AcDbBlockReference
  2
EX_NORM
 10
1531.000000000327
 20
1789.499999999999
 30
0.0
 41
44.99999618530273
 42
44.99999618530273
 43
44.99999618530273
 50
90.0
  0
MTEXT
  5
3DC
330
3D6
100
AcDbEntity
  8
寸法
 62
     2
100
AcDbMText
 10
1495.750000089734
 20
1704.499999999999
 30
0.0
 40
59.99999618530273
 41
0.0
 71
     5
 72
     1
  1
170
  7
EXCADDIM1
 11
0.0
 21
1.0
 31
0.0
  0
POINT
  5
3DD
330
3D6
100
AcDbEntity
  8
DEFPOINTS
 62
     0
100
AcDbPoint
 10
1411.000000000327
 20
1619.499999999999
 30
0.0
  0
POINT
  5
3DE
330
3D6
100
AcDbEntity
  8
DEFPOINTS
 62
     0
100
AcDbPoint
 10
961.0000000003197
 20
1789.499999999999
 30
0.0
  0
POINT
  5
3DF
330
3D6
100
AcDbEntity
  8
DEFPOINTS
 62
     0
100
AcDbPoint
 10
1531.000000000327
 20
1789.499999999999
 30
0.0
  0
ENDBLK
  5
3D8
330
3D6
100
AcDbEntity
  8
0
100
AcDbBlockEnd
  0
BLOCK
  5
3E2
330
3E1
100
AcDbEntity
  8
0
100
AcDbBlockBegin
  2
*D26
 70
     1
 10
0.0
 20
0.0
 30
0.0
  3
*D26
  1

  0
LINE
  5
3E4
330
3E1
100
AcDbEntity
  8
寸法
  6
CONTINUOUS
 62
     3
100
AcDbLine
 10
1261.000000000325
 20
2669.5
 30
0.0
 11
1711.50000000026
 21
2669.5
 31
0.0
  0
LINE
  5
3E5
330
3E1
100
AcDbEntity
  8
寸法
  6
CONTINUOUS
 62
     3
100
AcDbLine
 10
1711.50000000026
 20
964.4999961853027
 30
0.0
 11
1711.50000000026
 21
2624.500003814697
 31
0.0
  0
INSERT
  5
3E6
330
3E1
100
AcDbEntity
  8
寸法
 62
     3
100
AcDbBlockReference
  2
EX_NORM
 10
1711.50000000026
 20
919.5
 30
0.0
 41
44.99999618530273
 42
44.99999618530273
 43
44.99999618530273
 50
270.0
  0
INSERT
  5
3E7
330
3E1
100
AcDbEntity
  8
寸法
 62
     3
100
AcDbBlockReference
  2
EX_NORM
 10
1711.50000000026
 20
2669.5
 30
0.0
 41
44.99999618530273
 42
44.99999618530273
 43
44.99999618530273
 50
90.0
  0
MTEXT
  5
3E8
330
3E1
100
AcDbEntity
  8
寸法
 62
     2
100
AcDbMText
 10
1674.00000000026
 20
1794.5
 30
0.0
 40
59.99999618530273
 41
0.0
 71
     5
 72
     1
  1
（1750）
  7
EXCADDIM1
 11
0.0
 21
1.0
 31
0.0
  0
POINT
  5
3E9
330
3E1
100
AcDbEntity
  8
DEFPOINTS
 62
     0
100
AcDbPoint
 10
1243.000000000425
 20
919.5
 30
0.0
  0
POINT
  5
3EA
330
3E1
100
AcDbEntity
  8
DEFPOINTS
 62
     0
100
AcDbPoint
 10
1261.000000000325
 20
2669.5
 30
0.0
  0
POINT
  5
3EB
330
3E1
100
AcDbEntity
  8
DEFPOINTS
 62
     0
100
AcDbPoint
 10
1711.50000000026
 20
2669.5
 30
0.0
  0
ENDBLK
  5
3E3
330
3E1
100
AcDbEntity
  8
0
100
AcDbBlockEnd
  0
BLOCK
  5
3EE
330
3ED
100
AcDbEntity
  8
0
100
AcDbBlockBegin
  2
*D27
 70
     1
 10
0.0
 20
0.0
 30
0.0
  3
*D27
  1

  0
LINE
  5
3F0
330
3ED
100
AcDbEntity
  8
寸法
  6
CONTINUOUS
 62
     3
100
AcDbLine
 10
811.00000000032
 20
2631.799999821185
 30
0.0
 11
811.00000000032
 21
2747.499999999999
 31
0.0
  0
LINE
  5
3F1
330
3ED
100
AcDbEntity
  8
寸法
  6
CONTINUOUS
 62
     3
100
AcDbLine
 10
1111.00000000032
 20
2631.799999821185
 30
0.0
 11
1111.00000000032
 21
2747.499999999999
 31
0.0
  0
LINE
  5
3F2
330
3ED
100
AcDbEntity
  8
寸法
  6
CONTINUOUS
 62
     3
100
AcDbLine
 10
855.9999961856228
 20
2732.499999999999
 30
0.0
 11
1066.000003815017
 21
2732.499999999999
 31
0.0
  0
INSERT
  5
3F3
330
3ED
100
AcDbEntity
  8
寸法
 62
     3
100
AcDbBlockReference
  2
EX_NORM
 10
811.00000000032
 20
2732.499999999999
 30
0.0
 41
44.99999618530273
 42
44.99999618530273
 43
44.99999618530273
 50
180.0
  0
INSERT
  5
3F4
330
3ED
100
AcDbEntity
  8
寸法
 62
     3
100
AcDbBlockReference
  2
EX_NORM
 10
1111.00000000032
 20
2732.499999999999
 30
0.0
 41
44.99999618530273
 42
44.99999618530273
 43
44.99999618530273
  0
MTEXT
  5
3F5
330
3ED
100
AcDbEntity
  8
寸法
 62
     2
100
AcDbMText
 10
961.0000000003204
 20
2767.749999910592
 30
0.0
 40
59.99999618530273
 41
0.0
 71
     5
 72
     1
  1
300（壁固定）
  7
EXCADDIM1
  0
POINT
  5
3F6
330
3ED
100
AcDbEntity
  8
DEFPOINTS
 62
     0
100
AcDbPoint
 10
811.00000000032
 20
2621.299999999999
 30
0.0
  0
POINT
  5
3F7
330
3ED
100
AcDbEntity
  8
DEFPOINTS
 62
     0
100
AcDbPoint
 10
1111.00000000032
 20
2621.299999999999
 30
0.0
  0
POINT
  5
3F8
330
3ED
100
AcDbEntity
  8
DEFPOINTS
 62
     0
100
AcDbPoint
 10
1111.00000000032
 20
2732.499999999999
 30
0.0
  0
ENDBLK
  5
3EF
330
3ED
100
AcDbEntity
  8
0
100
AcDbBlockEnd
  0
BLOCK
  5
3FB
330
3FA
100
AcDbEntity
  8
0
100
AcDbBlockBegin
  2
*D28
 70
     1
 10
0.0
 20
0.0
 30
0.0
  3
*D28
  1

  0
LINE
  5
3FD
330
3FA
100
AcDbEntity
  8
寸法
  6
CONTINUOUS
 62
     3
100
AcDbLine
 10
736.0000000003201
 20
2678.799999821185
 30
0.0
 11
736.0000000003201
 21
2863.499999999999
 31
0.0
  0
LINE
  5
3FE
330
3FA
100
AcDbEntity
  8
寸法
  6
CONTINUOUS
 62
     3
100
AcDbLine
 10
1186.00000000032
 20
2678.799999821185
 30
0.0
 11
1186.00000000032
 21
2863.499999999999
 31
0.0
  0
LINE
  5
3FF
330
3FA
100
AcDbEntity
  8
寸法
  6
CONTINUOUS
 62
     3
100
AcDbLine
 10
780.9999961856229
 20
2848.499999999999
 30
0.0
 11
1141.000003815017
 21
2848.499999999999
 31
0.0
  0
INSERT
  5
400
330
3FA
100
AcDbEntity
  8
寸法
 62
     3
100
AcDbBlockReference
  2
EX_NORM
 10
736.0000000003201
 20
2848.499999999999
 30
0.0
 41
44.99999618530273
 42
44.99999618530273
 43
44.99999618530273
 50
180.0
  0
INSERT
  5
401
330
3FA
100
AcDbEntity
  8
寸法
 62
     3
100
AcDbBlockReference
  2
EX_NORM
 10
1186.00000000032
 20
2848.499999999999
 30
0.0
 41
44.99999618530273
 42
44.99999618530273
 43
44.99999618530273
  0
MTEXT
  5
402
330
3FA
100
AcDbEntity
  8
寸法
 62
     2
100
AcDbMText
 10
961.0000000003204
 20
2883.749999910592
 30
0.0
 40
59.99999618530273
 41
0.0
 71
     5
 72
     1
  1
450
  7
EXCADDIM1
  0
POINT
  5
403
330
3FA
100
AcDbEntity
  8
DEFPOINTS
 62
     0
100
AcDbPoint
 10
736.0000000003201
 20
2668.299999999999
 30
0.0
  0
POINT
  5
404
330
3FA
100
AcDbEntity
  8
DEFPOINTS
 62
     0
100
AcDbPoint
 10
1186.00000000032
 20
2668.299999999999
 30
0.0
  0
POINT
  5
405
330
3FA
100
AcDbEntity
  8
DEFPOINTS
 62
     0
100
AcDbPoint
 10
1186.00000000032
 20
2848.499999999999
 30
0.0
  0
ENDBLK
  5
3FC
330
3FA
100
AcDbEntity
  8
0
100
AcDbBlockEnd
  0
BLOCK
  5
408
330
407
100
AcDbEntity
  8
0
100
AcDbBlockBegin
  2
*D29
 70
     1
 10
0.0
 20
0.0
 30
0.0
  3
*D29
  1

  0
LINE
  5
40A
330
407
100
AcDbEntity
  8
寸法
  6
CONTINUOUS
 62
     3
100
AcDbLine
 10
2369.800000000389
 20
2679.999999821186
 30
0.0
 11
2369.800000000389
 21
2749.499999999999
 31
0.0
  0
LINE
  5
40B
330
407
100
AcDbEntity
  8
寸法
  6
CONTINUOUS
 62
     3
100
AcDbLine
 10
2414.799996185692
 20
2734.499999999999
 30
0.0
 11
2446.000003815087
 21
2734.499999999999
 31
0.0
  0
INSERT
  5
40C
330
407
100
AcDbEntity
  8
寸法
 62
     3
100
AcDbBlockReference
  2
EX_NORM
 10
2369.800000000389
 20
2734.499999999999
 30
0.0
 41
44.99999618530273
 42
44.99999618530273
 43
44.99999618530273
 50
180.0
  0
INSERT
  5
40D
330
407
100
AcDbEntity
  8
寸法
 62
     3
100
AcDbBlockReference
  2
EX_NORM
 10
2491.00000000039
 20
2734.499999999999
 30
0.0
 41
44.99999618530273
 42
44.99999618530273
 43
44.99999618530273
  0
MTEXT
  5
40E
330
407
100
AcDbEntity
  8
寸法
 62
     2
100
AcDbMText
 10
2604.550000000389
 20
2769.749999910592
 30
0.0
 40
59.99999618530273
 41
0.0
 71
     5
 72
     1
  1
122
  7
EXCADDIM1
  0
POINT
  5
40F
330
407
100
AcDbEntity
  8
DEFPOINTS
 62
     0
100
AcDbPoint
 10
2369.800000000389
 20
2669.5
 30
0.0
  0
POINT
  5
410
330
407
100
AcDbEntity
  8
DEFPOINTS
 62
     0
100
AcDbPoint
 10
2491.00000000039
 20
2663.299999999999
 30
0.0
  0
POINT
  5
411
330
407
100
AcDbEntity
  8
DEFPOINTS
 62
     0
100
AcDbPoint
 10
2491.00000000039
 20
2734.499999999999
 30
0.0
  0
ENDBLK
  5
409
330
407
100
AcDbEntity
  8
0
100
AcDbBlockEnd
  0
BLOCK
  5
42C
330
42B
100
AcDbEntity
  8
0
100
AcDbBlockBegin
  2
*D30
 70
     1
 10
0.0
 20
0.0
 30
0.0
  3
*D30
  1

  0
LINE
  5
42E
330
42B
100
AcDbEntity
  8
寸法
  6
CONTINUOUS
 62
     3
100
AcDbLine
 10
961.0000000003201
 20
3835.499999821186
 30
0.0
 11
961.0000000003201
 21
4020.0
 31
0.0
  0
LINE
  5
42F
330
42B
100
AcDbEntity
  8
寸法
  6
CONTINUOUS
 62
     3
100
AcDbLine
 10
1161.000000000318
 20
3885.499999821186
 30
0.0
 11
1161.000000000318
 21
4020.0
 31
0.0
  0
LINE
  5
430
330
42B
100
AcDbEntity
  8
寸法
  6
CONTINUOUS
 62
     3
100
AcDbLine
 10
1005.999996185623
 20
4005.0
 30
0.0
 11
1116.000003815016
 21
4005.0
 31
0.0
  0
INSERT
  5
431
330
42B
100
AcDbEntity
  8
寸法
 62
     3
100
AcDbBlockReference
  2
EX_NORM
 10
961.0000000003201
 20
4005.0
 30
0.0
 41
44.99999618530273
 42
44.99999618530273
 43
44.99999618530273
 50
180.0
  0
INSERT
  5
432
330
42B
100
AcDbEntity
  8
寸法
 62
     3
100
AcDbBlockReference
  2
EX_NORM
 10
1161.000000000318
 20
4005.0
 30
0.0
 41
44.99999618530273
 42
44.99999618530273
 43
44.99999618530273
  0
MTEXT
  5
433
330
42B
100
AcDbEntity
  8
寸法
 62
     2
100
AcDbMText
 10
728.5000000003203
 20
4040.249999910593
 30
0.0
 40
59.99999618530273
 41
0.0
 71
     5
 72
     1
  1
200（壁排水）
  7
EXCADDIM1
  0
POINT
  5
434
330
42B
100
AcDbEntity
  8
DEFPOINTS
 62
     0
100
AcDbPoint
 10
961.0000000003201
 20
3825.0
 30
0.0
  0
POINT
  5
435
330
42B
100
AcDbEntity
  8
DEFPOINTS
 62
     0
100
AcDbPoint
 10
1161.000000000318
 20
3875.0
 30
0.0
  0
POINT
  5
436
330
42B
100
AcDbEntity
  8
DEFPOINTS
 62
     0
100
AcDbPoint
 10
1161.000000000318
 20
4005.0
 30
0.0
  0
ENDBLK
  5
42D
330
42B
100
AcDbEntity
  8
0
100
AcDbBlockEnd
  0
BLOCK
  5
439
330
438
100
AcDbEntity
  8
0
100
AcDbBlockBegin
  2
*D31
 70
     1
 10
0.0
 20
0.0
 30
0.0
  3
*D31
  1

  0
LINE
  5
43B
330
438
100
AcDbEntity
  8
寸法
  6
CONTINUOUS
 62
     3
100
AcDbLine
 10
861.0000000003201
 20
3843.499999821186
 30
0.0
 11
861.0000000003201
 21
3930.0
 31
0.0
  0
LINE
  5
43C
330
438
100
AcDbEntity
  8
寸法
  6
CONTINUOUS
 62
     3
100
AcDbLine
 10
1061.00000000032
 20
3848.999999821186
 30
0.0
 11
1061.00000000032
 21
3930.0
 31
0.0
  0
LINE
  5
43D
330
438
100
AcDbEntity
  8
寸法
  6
CONTINUOUS
 62
     3
100
AcDbLine
 10
905.9999961856229
 20
3915.0
 30
0.0
 11
1016.000003815017
 21
3915.0
 31
0.0
  0
INSERT
  5
43E
330
438
100
AcDbEntity
  8
寸法
 62
     3
100
AcDbBlockReference
  2
EX_NORM
 10
861.0000000003201
 20
3915.0
 30
0.0
 41
44.99999618530273
 42
44.99999618530273
 43
44.99999618530273
 50
180.0
  0
INSERT
  5
43F
330
438
100
AcDbEntity
  8
寸法
 62
     3
100
AcDbBlockReference
  2
EX_NORM
 10
1061.00000000032
 20
3915.0
 30
0.0
 41
44.99999618530273
 42
44.99999618530273
 43
44.99999618530273
  0
MTEXT
  5
440
330
438
100
AcDbEntity
  8
寸法
 62
     2
100
AcDbMText
 10
628.5000000003203
 20
3950.249999910593
 30
0.0
 40
59.99999618530273
 41
0.0
 71
     5
 72
     1
  1
200（壁給水）
  7
EXCADDIM1
  0
POINT
  5
441
330
438
100
AcDbEntity
  8
DEFPOINTS
 62
     0
100
AcDbPoint
 10
861.0000000003201
 20
3833.0
 30
0.0
  0
POINT
  5
442
330
438
100
AcDbEntity
  8
DEFPOINTS
 62
     0
100
AcDbPoint
 10
1061.00000000032
 20
3838.5
 30
0.0
  0
POINT
  5
443
330
438
100
AcDbEntity
  8
DEFPOINTS
 62
     0
100
AcDbPoint
 10
1061.00000000032
 20
3915.0
 30
0.0
  0
ENDBLK
  5
43A
330
438
100
AcDbEntity
  8
0
100
AcDbBlockEnd
  0
BLOCK
  5
446
330
445
100
AcDbEntity
  8
0
100
AcDbBlockBegin
  2
*D32
 70
     1
 10
0.0
 20
0.0
 30
0.0
  3
*D32
  1

  0
LINE
  5
448
330
445
100
AcDbEntity
  8
寸法
  6
CONTINUOUS
 62
     3
100
AcDbLine
 10
1421.499999821503
 20
3375.0
 30
0.0
 11
1546.000000000327
 21
3375.0
 31
0.0
  0
LINE
  5
449
330
445
100
AcDbEntity
  8
寸法
  6
CONTINUOUS
 62
     3
100
AcDbLine
 10
1531.000000000327
 20
3780.000003814697
 30
0.0
 11
1531.000000000327
 21
3419.999996185303
 31
0.0
  0
INSERT
  5
44A
330
445
100
AcDbEntity
  8
寸法
 62
     3
100
AcDbBlockReference
  2
EX_NORM
 10
1531.000000000327
 20
3825.0
 30
0.0
 41
44.99999618530273
 42
44.99999618530273
 43
44.99999618530273
 50
90.0
  0
INSERT
  5
44B
330
445
100
AcDbEntity
  8
寸法
 62
     3
100
AcDbBlockReference
  2
EX_NORM
 10
1531.000000000327
 20
3375.0
 30
0.0
 41
44.99999618530273
 42
44.99999618530273
 43
44.99999618530273
 50
270.0
  0
MTEXT
  5
44C
330
445
100
AcDbEntity
  8
寸法
 62
     2
100
AcDbMText
 10
1495.750000089735
 20
3599.999999999999
 30
0.0
 40
59.99999618530273
 41
0.0
 71
     5
 72
     1
  1
450
  7
EXCADDIM1
 11
0.0
 21
1.0
 31
0.0
  0
POINT
  5
44D
330
445
100
AcDbEntity
  8
DEFPOINTS
 62
     0
100
AcDbPoint
 10
1411.000000000317
 20
3825.0
 30
0.0
  0
POINT
  5
44E
330
445
100
AcDbEntity
  8
DEFPOINTS
 62
     0
100
AcDbPoint
 10
1411.000000000317
 20
3375.0
 30
0.0
  0
POINT
  5
44F
330
445
100
AcDbEntity
  8
DEFPOINTS
 62
     0
100
AcDbPoint
 10
1531.000000000327
 20
3375.0
 30
0.0
  0
ENDBLK
  5
447
330
445
100
AcDbEntity
  8
0
100
AcDbBlockEnd
  0
BLOCK
  5
452
330
451
100
AcDbEntity
  8
0
100
AcDbBlockBegin
  2
*D33
 70
     1
 10
0.0
 20
0.0
 30
0.0
  3
*D33
  1

  0
LINE
  5
454
330
451
100
AcDbEntity
  8
寸法
  6
CONTINUOUS
 62
     3
100
AcDbLine
 10
511.0000000003201
 20
3364.500000178814
 30
0.0
 11
511.0000000003201
 21
3100.0
 31
0.0
  0
LINE
  5
455
330
451
100
AcDbEntity
  8
寸法
  6
CONTINUOUS
 62
     3
100
AcDbLine
 10
1411.000000000317
 20
3364.500000178814
 30
0.0
 11
1411.000000000317
 21
3100.0
 31
0.0
  0
LINE
  5
456
330
451
100
AcDbEntity
  8
寸法
  6
CONTINUOUS
 62
     3
100
AcDbLine
 10
555.9999961856229
 20
3115.0
 30
0.0
 11
1366.000003815014
 21
3115.0
 31
0.0
  0
INSERT
  5
457
330
451
100
AcDbEntity
  8
寸法
 62
     3
100
AcDbBlockReference
  2
EX_NORM
 10
511.0000000003201
 20
3115.0
 30
0.0
 41
44.99999618530273
 42
44.99999618530273
 43
44.99999618530273
 50
180.0
  0
INSERT
  5
458
330
451
100
AcDbEntity
  8
寸法
 62
     3
100
AcDbBlockReference
  2
EX_NORM
 10
1411.000000000317
 20
3115.0
 30
0.0
 41
44.99999618530273
 42
44.99999618530273
 43
44.99999618530273
  0
MTEXT
  5
459
330
451
100
AcDbEntity
  8
寸法
 62
     2
100
AcDbMText
 10
961.0000000003186
 20
3150.249999910593
 30
0.0
 40
59.99999618530273
 41
0.0
 71
     5
 72
     1
  1
900
  7
EXCADDIM1
  0
POINT
  5
45A
330
451
100
AcDbEntity
  8
DEFPOINTS
 62
     0
100
AcDbPoint
 10
511.0000000003201
 20
3375.0
 30
0.0
  0
POINT
  5
45B
330
451
100
AcDbEntity
  8
DEFPOINTS
 62
     0
100
AcDbPoint
 10
1411.000000000317
 20
3375.0
 30
0.0
  0
POINT
  5
45C
330
451
100
AcDbEntity
  8
DEFPOINTS
 62
     0
100
AcDbPoint
 10
1411.000000000317
 20
3115.0
 30
0.0
  0
ENDBLK
  5
453
330
451
100
AcDbEntity
  8
0
100
AcDbBlockEnd
  0
BLOCK
  5
45F
330
45E
100
AcDbEntity
  8
0
100
AcDbBlockBegin
  2
*D34
 70
     1
 10
0.0
 20
0.0
 30
0.0
  3
*D34
  1

  0
LINE
  5
461
330
45E
100
AcDbEntity
  8
寸法
  6
CONTINUOUS
 62
     3
100
AcDbLine
 10
736.0000000003292
 20
3560.000000178814
 30
0.0
 11
736.0000000003292
 21
3190.0
 31
0.0
  0
LINE
  5
462
330
45E
100
AcDbEntity
  8
寸法
  6
CONTINUOUS
 62
     3
100
AcDbLine
 10
1186.000000000327
 20
3560.000000178814
 30
0.0
 11
1186.000000000327
 21
3190.0
 31
0.0
  0
LINE
  5
463
330
45E
100
AcDbEntity
  8
寸法
  6
CONTINUOUS
 62
     3
100
AcDbLine
 10
780.999996185632
 20
3205.0
 30
0.0
 11
1141.000003815025
 21
3205.0
 31
0.0
  0
INSERT
  5
464
330
45E
100
AcDbEntity
  8
寸法
 62
     3
100
AcDbBlockReference
  2
EX_NORM
 10
736.0000000003292
 20
3205.0
 30
0.0
 41
44.99999618530273
 42
44.99999618530273
 43
44.99999618530273
 50
180.0
  0
INSERT
  5
465
330
45E
100
AcDbEntity
  8
寸法
 62
     3
100
AcDbBlockReference
  2
EX_NORM
 10
1186.000000000327
 20
3205.0
 30
0.0
 41
44.99999618530273
 42
44.99999618530273
 43
44.99999618530273
  0
MTEXT
  5
466
330
45E
100
AcDbEntity
  8
寸法
 62
     2
100
AcDbMText
 10
961.0000000003286
 20
3240.249999910593
 30
0.0
 40
59.99999618530273
 41
0.0
 71
     5
 72
     1
  1
450
  7
EXCADDIM1
  0
POINT
  5
467
330
45E
100
AcDbEntity
  8
DEFPOINTS
 62
     0
100
AcDbPoint
 10
736.0000000003292
 20
3570.5
 30
0.0
  0
POINT
  5
468
330
45E
100
AcDbEntity
  8
DEFPOINTS
 62
     0
100
AcDbPoint
 10
1186.000000000327
 20
3570.5
 30
0.0
  0
POINT
  5
469
330
45E
100
AcDbEntity
  8
DEFPOINTS
 62
     0
100
AcDbPoint
 10
1186.000000000327
 20
3205.0
 30
0.0
  0
ENDBLK
  5
460
330
45E
100
AcDbEntity
  8
0
100
AcDbBlockEnd
  0
BLOCK
  5
485
330
484
100
AcDbEntity
  8
0
100
AcDbBlockBegin
  2
*D35
 70
     1
 10
0.0
 20
0.0
 30
0.0
  3
*D35
  1

  0
LINE
  5
487
330
484
100
AcDbEntity
  8
寸法
  6
CONTINUOUS
 62
     3
100
AcDbLine
 10
971.4999998215062
 20
3353.0
 30
0.0
 11
1636.00000000037
 21
3353.0
 31
0.0
  0
LINE
  5
488
330
484
100
AcDbEntity
  8
寸法
  6
CONTINUOUS
 62
     3
100
AcDbLine
 10
1621.00000000037
 20
3780.000003814697
 30
0.0
 11
1621.00000000037
 21
3397.999996185303
 31
0.0
  0
INSERT
  5
489
330
484
100
AcDbEntity
  8
寸法
 62
     3
100
AcDbBlockReference
  2
EX_NORM
 10
1621.00000000037
 20
3825.0
 30
0.0
 41
44.99999618530273
 42
44.99999618530273
 43
44.99999618530273
 50
90.0
  0
INSERT
  5
48A
330
484
100
AcDbEntity
  8
寸法
 62
     3
100
AcDbBlockReference
  2
EX_NORM
 10
1621.00000000037
 20
3353.0
 30
0.0
 41
44.99999618530273
 42
44.99999618530273
 43
44.99999618530273
 50
270.0
  0
MTEXT
  5
48B
330
484
100
AcDbEntity
  8
寸法
 62
     2
100
AcDbMText
 10
1585.750000089777
 20
3589.0
 30
0.0
 40
59.99999618530273
 41
0.0
 71
     5
 72
     1
  1
470
  7
EXCADDIM1
 11
0.0
 21
1.0
 31
0.0
  0
POINT
  5
48C
330
484
100
AcDbEntity
  8
DEFPOINTS
 62
     0
100
AcDbPoint
 10
1411.00000000027
 20
3825.0
 30
0.0
  0
POINT
  5
48D
330
484
100
AcDbEntity
  8
DEFPOINTS
 62
     0
100
AcDbPoint
 10
961.0000000003201
 20
3353.0
 30
0.0
  0
POINT
  5
48E
330
484
100
AcDbEntity
  8
DEFPOINTS
 62
     0
100
AcDbPoint
 10
1621.00000000037
 20
3353.0
 30
0.0
  0
ENDBLK
  5
486
330
484
100
AcDbEntity
  8
0
100
AcDbBlockEnd
  0
BLOCK
  5
4B6
330
4B5
100
AcDbEntity
  8
0
100
AcDbBlockBegin
  2
*D36
 70
     1
 10
0.0
 20
0.0
 30
0.0
  3
*D36
  1

  0
LINE
  5
4B8
330
4B5
100
AcDbEntity
  8
寸法
  6
CONTINUOUS
 62
     3
100
AcDbLine
 10
1576.00000000029
 20
2103.1
 30
0.0
 11
1621.0000000003
 21
2103.1
 31
0.0
  0
LINE
  5
4B9
330
4B5
100
AcDbEntity
  8
寸法
  6
CONTINUOUS
 62
     3
100
AcDbLine
 10
1621.0000000003
 20
2624.500003814697
 30
0.0
 11
1621.0000000003
 21
2148.099996185303
 31
0.0
  0
INSERT
  5
4BA
330
4B5
100
AcDbEntity
  8
寸法
 62
     3
100
AcDbBlockReference
  2
EX_NORM
 10
1621.0000000003
 20
2669.5
 30
0.0
 41
44.99999618530273
 42
44.99999618530273
 43
44.99999618530273
 50
90.0
  0
INSERT
  5
4BB
330
4B5
100
AcDbEntity
  8
寸法
 62
     3
100
AcDbBlockReference
  2
EX_NORM
 10
1621.0000000003
 20
2103.1
 30
0.0
 41
44.99999618530273
 42
44.99999618530273
 43
44.99999618530273
 50
270.0
  0
MTEXT
  5
4BC
330
4B5
100
AcDbEntity
  8
寸法
 62
     2
100
AcDbMText
 10
1579.750000089707
 20
2386.3
 30
0.0
 40
59.99999618530273
 41
0.0
 71
     5
 72
     1
  1
567
  7
EXCADDIM1
 11
-3.828568698926949E-16
 21
1.0
 31
0.0
  0
POINT
  5
4BD
330
4B5
100
AcDbEntity
  8
DEFPOINTS
 62
     0
100
AcDbPoint
 10
1576.00000000029
 20
2669.5
 30
0.0
  0
POINT
  5
4BE
330
4B5
100
AcDbEntity
  8
DEFPOINTS
 62
     0
100
AcDbPoint
 10
1576.00000000029
 20
2103.1
 30
0.0
  0
POINT
  5
4BF
330
4B5
100
AcDbEntity
  8
DEFPOINTS
 62
     0
100
AcDbPoint
 10
1621.0000000003
 20
2103.1
 30
0.0
  0
ENDBLK
  5
4B7
330
4B5
100
AcDbEntity
  8
0
100
AcDbBlockEnd
  0
BLOCK
  5
4C2
330
4C1
100
AcDbEntity
  8
0
100
AcDbBlockBegin
  2
*D37
 70
     1
 10
0.0
 20
0.0
 30
0.0
  3
*D37
  1

  0
LINE
  5
4C4
330
4C1
100
AcDbEntity
  8
寸法
  6
CONTINUOUS
 62
     3
100
AcDbLine
 10
2400.300050137814
 20
2669.5
 30
0.0
 11
2911.000050316596
 21
2669.5
 31
0.0
  0
LINE
  5
4C5
330
4C1
100
AcDbEntity
  8
寸法
  6
CONTINUOUS
 62
     3
100
AcDbLine
 10
2895.510000000739
 20
2613.3
 30
0.0
 11
2895.510000000739
 21
2669.5
 31
0.0
  0
LINE
  5
4C6
330
4C1
100
AcDbEntity
  8
寸法
  6
CONTINUOUS
 62
     3
100
AcDbLine
 10
2895.510000000739
 20
2568.300003814697
 30
0.0
 11
2895.510000000739
 21
2523.300007629395
 31
0.0
  0
LINE
  5
4C7
330
4C1
100
AcDbEntity
  8
寸法
  6
CONTINUOUS
 62
     3
100
AcDbLine
 10
2895.510000000739
 20
2714.499996185303
 30
0.0
 11
2895.510000000739
 21
2759.499992370605
 31
0.0
  0
INSERT
  5
4C8
330
4C1
100
AcDbEntity
  8
寸法
 62
     3
100
AcDbBlockReference
  2
EX_NONE
 10
2895.510000000739
 20
2613.3
 30
0.0
 41
44.99999618530273
 42
44.99999618530273
 43
44.99999618530273
 50
90.0
  0
INSERT
  5
4C9
330
4C1
100
AcDbEntity
  8
寸法
 62
     3
100
AcDbBlockReference
  2
EX_NORM
 10
2895.510000000739
 20
2669.5
 30
0.0
 41
44.99999618530273
 42
44.99999618530273
 43
44.99999618530273
 50
270.0
  0
MTEXT
  5
4CA
330
4C1
100
AcDbEntity
  8
寸法
 62
     2
100
AcDbMText
 10
2860.750000089747
 20
2764.7
 30
0.0
 40
59.99999618530273
 41
0.0
 71
     5
 72
     1
  1
63
  7
EXCADDIM1
 11
-3.035887853477192E-14
 21
1.0
 31
0.0
  0
POINT
  5
4CB
330
4C1
100
AcDbEntity
  8
DEFPOINTS
 62
     0
100
AcDbPoint
 10
2523.71000000077
 20
2613.3
 30
0.0
  0
POINT
  5
4CC
330
4C1
100
AcDbEntity
  8
DEFPOINTS
 62
     0
100
AcDbPoint
 10
2389.310000000771
 20
2669.5
 30
0.0
  0
POINT
  5
4CD
330
4C1
100
AcDbEntity
  8
DEFPOINTS
 62
     0
100
AcDbPoint
 10
2895.510000000739
 20
2669.5
 30
0.0
  0
ENDBLK
  5
4C3
330
4C1
100
AcDbEntity
  8
0
100
AcDbBlockEnd
  0
BLOCK
  5
4D0
330
4CF
100
AcDbEntity
  8
0
100
AcDbBlockBegin
  2
*D38
 70
     1
 10
0.0
 20
0.0
 30
0.0
  3
*D38
  1

  0
LINE
  5
4D2
330
4CF
100
AcDbEntity
  8
寸法
  6
CONTINUOUS
 62
     3
100
AcDbLine
 10
2850.70000000054
 20
2166.3
 30
0.0
 11
2895.50000000054
 21
2166.3
 31
0.0
  0
LINE
  5
4D3
330
4CF
100
AcDbEntity
  8
寸法
  6
CONTINUOUS
 62
     3
100
AcDbLine
 10
2895.50000000054
 20
2211.299996185303
 30
0.0
 11
2895.50000000054
 21
2561.300003814697
 31
0.0
  0
INSERT
  5
4D4
330
4CF
100
AcDbEntity
  8
寸法
 62
     3
100
AcDbBlockReference
  2
EX_NORM
 10
2895.50000000054
 20
2166.3
 30
0.0
 41
44.99999618530273
 42
44.99999618530273
 43
44.99999618530273
 50
270.0
  0
INSERT
  5
4D5
330
4CF
100
AcDbEntity
  8
寸法
 62
     3
100
AcDbBlockReference
  2
EX_NORM
 10
2895.50000000054
 20
2606.3
 30
0.0
 41
44.99999618530273
 42
44.99999618530273
 43
44.99999618530273
 50
90.0
  0
MTEXT
  5
4D6
330
4CF
100
AcDbEntity
  8
寸法
 62
     2
100
AcDbMText
 10
2860.250000089947
 20
2386.3
 30
0.0
 40
59.99999618530273
 41
0.0
 71
     5
 72
     1
  1
440（壁固定）
  7
EXCADDIM1
 11
0.0
 21
1.0
 31
0.0
  0
POINT
  5
4D7
330
4CF
100
AcDbEntity
  8
DEFPOINTS
 62
     0
100
AcDbPoint
 10
2850.70000000054
 20
2166.3
 30
0.0
  0
POINT
  5
4D8
330
4CF
100
AcDbEntity
  8
DEFPOINTS
 62
     0
100
AcDbPoint
 10
2850.70000000054
 20
2606.3
 30
0.0
  0
POINT
  5
4D9
330
4CF
100
AcDbEntity
  8
DEFPOINTS
 62
     0
100
AcDbPoint
 10
2895.50000000054
 20
2606.3
 30
0.0
  0
ENDBLK
  5
4D1
330
4CF
100
AcDbEntity
  8
0
100
AcDbBlockEnd
  0
BLOCK
  5
4DC
330
4DB
100
AcDbEntity
  8
0
100
AcDbBlockBegin
  2
*D39
 70
     1
 10
0.0
 20
0.0
 30
0.0
  3
*D39
  1

  0
LINE
  5
4DE
330
4DB
100
AcDbEntity
  8
寸法
  6
CONTINUOUS
 62
     3
100
AcDbLine
 10
2900.000050366865
 20
2166.3
 30
0.0
 11
2878.500050187651
 21
2166.3
 31
0.0
  0
LINE
  5
4DF
330
4DB
100
AcDbEntity
  8
寸法
  6
CONTINUOUS
 62
     3
100
AcDbLine
 10
2895.50000000054
 20
2121.300003814697
 30
0.0
 11
2895.50000000054
 21
964.4999961853027
 31
0.0
  0
INSERT
  5
4E0
330
4DB
100
AcDbEntity
  8
寸法
 62
     3
100
AcDbBlockReference
  2
EX_NORM
 10
2895.50000000054
 20
2166.3
 30
0.0
 41
44.99999618530273
 42
44.99999618530273
 43
44.99999618530273
 50
90.0
  0
INSERT
  5
4E1
330
4DB
100
AcDbEntity
  8
寸法
 62
     3
100
AcDbBlockReference
  2
EX_NORM
 10
2895.50000000054
 20
919.5
 30
0.0
 41
44.99999618530273
 42
44.99999618530273
 43
44.99999618530273
 50
270.0
  0
MTEXT
  5
4E2
330
4DB
100
AcDbEntity
  8
寸法
 62
     2
100
AcDbMText
 10
2858.250000089547
 20
1542.9
 30
0.0
 40
59.99999618530273
 41
0.0
 71
     5
 72
     1
  1
（1247）
  7
EXCADDIM1
 11
-3.828568698926949E-16
 21
1.0
 31
0.0
  0
POINT
  5
4E3
330
4DB
100
AcDbEntity
  8
DEFPOINTS
 62
     0
100
AcDbPoint
 10
2912.50000000094
 20
2166.3
 30
0.0
  0
POINT
  5
4E4
330
4DB
100
AcDbEntity
  8
DEFPOINTS
 62
     0
100
AcDbPoint
 10
2895.50000000054
 20
919.5
 30
0.0
  0
POINT
  5
4E5
330
4DB
100
AcDbEntity
  8
DEFPOINTS
 62
     0
100
AcDbPoint
 10
2895.50000000054
 20
919.5
 30
0.0
  0
ENDBLK
  5
4DD
330
4DB
100
AcDbEntity
  8
0
100
AcDbBlockEnd
  0
ENDSEC
  0
SECTION
  2
ENTITIES
  0
TEXT
  5
A9
330
1F
100
AcDbEntity
  8
枠_表
  6
CONTINUOUS
 62
     2
100
AcDbText
 10
1469.999998569864
 20
304.5000038146966
 30
0.0
 40
74.99999237060547
  1
洗面化粧台
 41
1.052413789665836
  7
EXCADSTD
 72
     5
 11
1796.999964237589
 21
304.5000038146966
 31
0.0
100
AcDbText
  0
TEXT
  5
AA
330
1F
100
AcDbEntity
  8
枠_表
  6
CONTINUOUS
 62
     2
100
AcDbText
 10
1206.000000000325
 20
402.000001907348
 30
0.0
 40
59.99999618530273
  1
９００ｍｍ幅
 41
0.9999999872843416
  7
EXCADSTD
 72
     5
 11
1505.999977112141
 21
402.000001907348
 31
0.0
100
AcDbText
  0
TEXT
  5
AB
330
1F
100
AcDbEntity
  8
枠_表
  6
CONTINUOUS
 62
     2
100
AcDbText
 10
2398.500000000369
 20
4227.37500190735
 30
0.0
 40
59.99999618530273
  1
品名
 41
1.895695426731973
  7
EXCADSTD
 72
     5
 11
2577.236986014163
 21
4227.37500190735
 31
0.0
100
AcDbText
  0
TEXT
  5
AC
330
1F
100
AcDbEntity
  8
枠_表
  6
CONTINUOUS
 62
     2
100
AcDbText
 10
1873.500000000369
 20
4227.37500190735
 30
0.0
 40
59.99999618530273
  1
品番
 41
1.895695426731973
  7
EXCADSTD
 72
     5
 11
2052.236986014163
 21
4227.37500190735
 31
0.0
100
AcDbText
  0
TEXT
  5
AD
330
1F
100
AcDbEntity
  8
枠_表
  6
CONTINUOUS
 62
     2
100
AcDbText
 10
2817.000000089779
 20
4227.37500190735
 30
0.0
 40
59.99999618530273
  1
個数
 41
1.049923628946709
  7
EXCADSTD
 72
     5
 11
2915.992793096676
 21
4227.37500190735
 31
0.0
100
AcDbText
  0
LINE
  5
AE
330
1F
100
AcDbEntity
  8
枠_表
  6
CONTINUOUS
 62
     6
100
AcDbLine
 10
1746.000000000379
 20
4145.999999999995
 30
0.0
 11
2946.000000000376
 21
4145.999999999995
 31
0.0
  0
LINE
  5
AF
330
1F
100
AcDbEntity
  8
枠_表
  6
CONTINUOUS
 62
     6
100
AcDbLine
 10
1746.000000000379
 20
4071.749999999995
 30
0.0
 11
2946.000000000376
 21
4071.749999999995
 31
0.0
  0
LINE
  5
B0
330
1F
100
AcDbEntity
  8
枠_表
  6
CONTINUOUS
 62
     6
100
AcDbLine
 10
1746.000000000379
 20
4294.499999999997
 30
0.0
 11
2946.000000000376
 21
4294.499999999997
 31
0.0
  0
LINE
  5
B1
330
1F
100
AcDbEntity
  8
枠_表
  6
CONTINUOUS
 62
     6
100
AcDbLine
 10
1746.000000000379
 20
4220.249999999996
 30
0.0
 11
2946.000000000376
 21
4220.249999999996
 31
0.0
  0
TEXT
  5
B2
330
1F
100
AcDbEntity
  8
枠_表
  6
CONTINUOUS
 62
     2
100
AcDbText
 10
2209.500000000169
 20
4151.625001907344
 30
0.0
 40
59.99999618530273
  1
洗面化粧台
 41
1.013793091171089
  7
EXCADSTD
 72
     5
 11
2461.499980926683
 21
4151.625001907344
 31
0.0
100
AcDbText
  0
TEXT
  5
B3
330
1F
100
AcDbEntity
  8
枠_表
  6
CONTINUOUS
 62
     2
100
AcDbText
 10
2841.000000000376
 20
4078.875001907346
 30
0.0
 40
59.99999618530273
  1
１
 41
1.120000000000004
  7
EXCADSTD
 72
     5
 11
2888.999996948618
 21
4078.875001907346
 31
0.0
100
AcDbText
  0
TEXT
  5
B4
330
1F
100
AcDbEntity
  8
枠_表
  6
CONTINUOUS
 62
     2
100
AcDbText
 10
2841.000000000376
 20
4153.125001907346
 30
0.0
 40
59.99999618530273
  1
１
 41
1.120000000000004
  7
EXCADSTD
 72
     5
 11
2888.999996948618
 21
4153.125001907346
 31
0.0
100
AcDbText
  0
TEXT
  5
B5
330
1F
100
AcDbEntity
  8
枠_表
  6
CONTINUOUS
 62
     2
100
AcDbText
 10
2887.918945350324
 20
324.5232695999982
 30
0.0
 40
44.99999618530273
  1
１５
 41
1.098531308335248
  7
EXCADSTD
 72
     5
 11
2965.600795568858
 21
324.5232695999982
 31
0.0
100
AcDbText
  0
LINE
  5
B6
330
1F
100
AcDbEntity
  8
枠_表
  6
CONTINUOUS
 62
     7
100
AcDbLine
 10
261.0000000003231
 20
139.4999999999993
 30
0.0
 11
261.0000000003231
 21
4339.5
 31
0.0
  0
LINE
  5
B7
330
1F
100
AcDbEntity
  8
枠_表
  6
EXLTYPE2
 62
     6
100
AcDbLine
 10
261.0000000003231
 20
214.4999999999993
 30
0.0
 11
726.0000000003247
 21
214.4999999999993
 31
0.0
  0
LINE
  5
B8
330
1F
100
AcDbEntity
  8
枠_表
  6
CONTINUOUS
 62
     6
100
AcDbLine
 10
2829.980712900322
 20
324.0043945500008
 30
0.0
 11
2945.990844750325
 21
442.04974365
 31
0.0
  0
LINE
  5
B9
330
1F
100
AcDbEntity
  8
枠_表
  6
CONTINUOUS
 62
     6
100
AcDbLine
 10
261.0000000003231
 20
394.4999999999993
 30
0.0
 11
1116.000000000325
 21
394.4999999999993
 31
0.0
  0
LINE
  5
BA
330
1F
100
AcDbEntity
  8
枠_表
  6
CONTINUOUS
 62
     6
100
AcDbLine
 10
493.500000000323
 20
469.4999999999993
 30
0.0
 11
493.500000000323
 21
139.4999999999993
 31
0.0
  0
LINE
  5
BB
330
1F
100
AcDbEntity
  8
枠_表
  6
CONTINUOUS
 62
     6
100
AcDbLine
 10
726.0000000003247
 20
469.4999999999993
 30
0.0
 11
726.0000000003247
 21
139.4999999999993
 31
0.0
  0
LINE
  5
BC
330
1F
100
AcDbEntity
  8
枠_表
  6
CONTINUOUS
 62
     6
100
AcDbLine
 10
921.0000000003247
 20
469.4999999999993
 30
0.0
 11
921.0000000003247
 21
139.4999999999993
 31
0.0
  0
LINE
  5
BD
330
1F
100
AcDbEntity
  8
枠_表
  6
CONTINUOUS
 62
     6
100
AcDbLine
 10
1116.000000000325
 20
469.4999999999993
 30
0.0
 11
1116.000000000325
 21
139.4999999999993
 31
0.0
  0
LINE
  5
BE
330
1F
100
AcDbEntity
  8
枠_表
  6
CONTINUOUS
 62
     6
100
AcDbLine
 10
1191.000000000325
 20
469.4999999999993
 30
0.0
 11
1191.000000000325
 21
289.4999999999993
 31
0.0
  0
LINE
  5
BF
330
1F
100
AcDbEntity
  8
枠_表
  6
CONTINUOUS
 62
     6
100
AcDbLine
 10
2076.000000000325
 20
469.4999999999993
 30
0.0
 11
2076.000000000325
 21
139.4999999999993
 31
0.0
  0
LINE
  5
C0
330
1F
100
AcDbEntity
  8
枠_表
  6
CONTINUOUS
 62
     6
100
AcDbLine
 10
2151.000000000325
 20
469.4999999999993
 30
0.0
 11
2151.000000000325
 21
139.4999999999993
 31
0.0
  0
LINE
  5
C1
330
1F
100
AcDbEntity
  8
枠_表
  6
CONTINUOUS
 62
     6
100
AcDbLine
 10
2706.000000000325
 20
469.4999999999993
 30
0.0
 11
2706.000000000325
 21
289.4999999999993
 31
0.0
  0
LINE
  5
C2
330
1F
100
AcDbEntity
  8
枠_表
  6
CONTINUOUS
 62
     6
100
AcDbLine
 10
2781.000000000325
 20
469.4999999999993
 30
0.0
 11
2781.000000000325
 21
289.4999999999993
 31
0.0
  0
LINE
  5
C3
330
1F
100
AcDbEntity
  8
枠_表
  6
CONTINUOUS
 62
     6
100
AcDbLine
 10
2991.000000000325
 20
289.4999999999993
 30
0.0
 11
1116.000000000325
 21
289.4999999999993
 31
0.0
  0
LINE
  5
C4
330
1F
100
AcDbEntity
  8
枠_表
  6
CONTINUOUS
 62
     7
100
AcDbLine
 10
261.0000000003231
 20
4339.5
 30
0.0
 11
2991.000000000325
 21
4339.5
 31
0.0
  0
LINE
  5
C5
330
1F
100
AcDbEntity
  8
枠_表
  6
CONTINUOUS
 62
     7
100
AcDbLine
 10
2991.000000000325
 20
139.4999999999993
 30
0.0
 11
2991.000000000325
 21
4339.5
 31
0.0
  0
LINE
  5
C6
330
1F
100
AcDbEntity
  8
枠_表
  6
CONTINUOUS
 62
     7
100
AcDbLine
 10
261.0000000003231
 20
469.4999999999993
 30
0.0
 11
2991.000000000325
 21
469.4999999999993
 31
0.0
  0
TEXT
  5
C7
330
1F
100
AcDbEntity
  8
枠_表
  6
CONTINUOUS
 62
     2
100
AcDbText
 10
2084.625000000322
 20
151.1250019073493
 30
0.0
 40
63.74999618530273
  1
番
 41
1.120000000000004
  7
EXCADSTD
 72
     5
 11
2135.624996948564
 21
151.1250019073493
 31
0.0
100
AcDbText
  0
TEXT
  5
C8
330
1F
100
AcDbEntity
  8
枠_表
  6
CONTINUOUS
 62
     2
100
AcDbText
 10
2084.625000000322
 20
215.6250019073486
 30
0.0
 40
63.74999618530273
  1
図
 41
1.120000000000004
  7
EXCADSTD
 72
     5
 11
2135.624996948564
 21
215.6250019073486
 31
0.0
100
AcDbText
  0
TEXT
  5
C9
330
1F
100
AcDbEntity
  8
枠_表
  6
CONTINUOUS
 62
     2
100
AcDbText
 10
2716.125000000324
 20
310.125001907348
 30
0.0
 40
63.74999618530273
  1
度
 41
1.120000000000004
  7
EXCADSTD
 72
     5
 11
2767.124996948566
 21
310.125001907348
 31
0.0
100
AcDbText
  0
TEXT
  5
CA
330
1F
100
AcDbEntity
  8
枠_表
  6
CONTINUOUS
 62
     2
100
AcDbText
 10
2716.125000000324
 20
385.125001907348
 30
0.0
 40
63.74999618530273
  1
尺
 41
1.120000000000004
  7
EXCADSTD
 72
     5
 11
2767.124996948566
 21
385.125001907348
 31
0.0
100
AcDbText
  0
TEXT
  5
CB
330
1F
100
AcDbEntity
  8
枠_表
  6
CONTINUOUS
 62
     2
100
AcDbText
 10
2084.625000000322
 20
310.125001907348
 30
0.0
 40
63.74999618530273
  1
番
 41
1.120000000000004
  7
EXCADSTD
 72
     5
 11
2135.624996948564
 21
310.125001907348
 31
0.0
100
AcDbText
  0
TEXT
  5
CC
330
1F
100
AcDbEntity
  8
枠_表
  6
CONTINUOUS
 62
     2
100
AcDbText
 10
2084.625000000322
 20
385.125001907348
 30
0.0
 40
63.74999618530273
  1
品
 41
1.120000000000004
  7
EXCADSTD
 72
     5
 11
2135.624996948564
 21
385.125001907348
 31
0.0
100
AcDbText
  0
TEXT
  5
CD
330
1F
100
AcDbEntity
  8
枠_表
  6
CONTINUOUS
 62
     2
100
AcDbText
 10
1124.625000000325
 20
310.125001907348
 30
0.0
 40
63.74999618530273
  1
名
 41
1.119999999999999
  7
EXCADSTD
 72
     5
 11
1175.624996948568
 21
310.125001907348
 31
0.0
100
AcDbText
  0
TEXT
  5
CE
330
1F
100
AcDbEntity
  8
枠_表
  6
CONTINUOUS
 62
     2
100
AcDbText
 10
1124.625000000325
 20
385.125001907348
 30
0.0
 40
63.74999618530273
  1
品
 41
1.119999999999999
  7
EXCADSTD
 72
     5
 11
1175.624996948568
 21
385.125001907348
 31
0.0
100
AcDbText
  0
TEXT
  5
CF
330
1F
100
AcDbEntity
  8
枠_表
  6
CONTINUOUS
 62
     2
100
AcDbText
 10
947.2500000003247
 20
400.125001907348
 30
0.0
 40
63.74999618530273
  1
承認
 41
1.303826737454632
  7
EXCADSTD
 72
     5
 11
1077.865492133084
 21
400.125001907348
 31
0.0
100
AcDbText
  0
TEXT
  5
D0
330
1F
100
AcDbEntity
  8
枠_表
  6
CONTINUOUS
 62
     2
100
AcDbText
 10
752.2500000003247
 20
400.125001907348
 30
0.0
 40
63.74999618530273
  1
検図
 41
1.303826737454632
  7
EXCADSTD
 72
     5
 11
882.8654921330838
 21
400.125001907348
 31
0.0
100
AcDbText
  0
TEXT
  5
D1
330
1F
100
AcDbEntity
  8
枠_表
  6
CONTINUOUS
 62
     2
100
AcDbText
 10
527.250000000323
 20
400.125001907348
 30
0.0
 40
63.74999618530273
  1
写図
 41
1.509694103275157
  7
EXCADSTD
 72
     5
 11
678.4889895106685
 21
400.125001907348
 31
0.0
100
AcDbText
  0
TEXT
  5
D2
330
1F
100
AcDbEntity
  8
枠_表
  6
CONTINUOUS
 62
     2
100
AcDbText
 10
294.7500000003231
 20
400.125001907348
 30
0.0
 40
63.74999618530273
  1
製図
 41
1.509694103275157
  7
EXCADSTD
 72
     5
 11
445.9889895106685
 21
400.125001907348
 31
0.0
100
AcDbText
  0
TEXT
  5
D3
330
1F
100
AcDbEntity
  8
枠_表
  6
CONTINUOUS
 62
     2
100
AcDbText
 10
2826.805664100324
 20
391.0841674500011
 30
0.0
 40
44.99999618530273
  1
１
 41
1.101333426694527
  7
EXCADSTD
 72
     5
 11
2862.205664100324
 21
391.0841674500011
 31
0.0
100
AcDbText
  0
ARC
  5
D4
330
1F
100
AcDbEntity
  8
枠_表
  6
CONTINUOUS
 62
     3
100
AcDbCircle
 10
1387.263721603631
 20
217.3529156261236
 30
0.0
 40
28.61127005606746
100
AcDbArc
 50
153.7591918158497
 51
169.3462759801917
  0
LINE
  5
D5
330
1F
100
AcDbEntity
  8
枠_表
  6
CONTINUOUS
 62
     3
100
AcDbLine
 10
1357.864898600201
 20
222.6423649463095
 30
0.0
 11
1359.145640230422
 21
222.6423649463095
 31
0.0
  0
LINE
  5
D6
330
1F
100
AcDbEntity
  8
枠_表
  6
CONTINUOUS
 62
     3
100
AcDbLine
 10
1348.256273600199
 20
228.9299899463094
 30
0.0
 11
1349.896523600202
 21
228.9704899463095
 31
0.0
  0
LINE
  5
D7
330
1F
100
AcDbEntity
  8
枠_表
  6
CONTINUOUS
 62
     3
100
AcDbLine
 10
1333.251023600202
 20
218.7948649463101
 30
0.0
 11
1333.301648600199
 21
216.1117399463433
 31
0.0
  0
LINE
  5
D8
330
1F
100
AcDbEntity
  8
枠_表
  6
CONTINUOUS
 62
     3
100
AcDbLine
 10
1340.571398600201
 20
221.8222399463116
 30
0.0
 11
1340.4296486002
 21
219.1694899463107
 31
0.0
  0
LINE
  5
D9
330
1F
100
AcDbEntity
  8
枠_表
  6
CONTINUOUS
 62
     3
100
AcDbLine
 10
1364.436023600202
 20
199.9826149463104
 30
0.0
 11
1364.385398600202
 21
195.6592399463102
 31
0.0
  0
LINE
  5
DA
330
1F
100
AcDbEntity
  8
枠_表
  6
CONTINUOUS
 62
     3
100
AcDbLine
 10
1357.2978986002
 20
195.7604899463104
 30
0.0
 11
1357.399148600201
 21
193.43173994631
 31
0.0
  0
ARC
  5
DB
330
1F
100
AcDbEntity
  8
枠_表
  6
CONTINUOUS
 62
     3
100
AcDbCircle
 10
1317.801619698466
 20
192.8669639347504
 30
0.0
 40
16.91930610118257
100
AcDbArc
 50
332.3987521421788
 51
359.5124385477116
  0
LINE
  5
DC
330
1F
100
AcDbEntity
  8
枠_表
  6
CONTINUOUS
 62
     3
100
AcDbLine
 10
1200.259148600202
 20
221.5792399463112
 30
0.0
 11
1201.575398600201
 21
221.5792399463112
 31
0.0
  0
LINE
  5
DD
330
1F
100
AcDbEntity
  8
枠_表
  6
CONTINUOUS
 62
     3
100
AcDbLine
 10
1343.325398600202
 20
181.990489946312
 30
0.0
 11
1348.084148600203
 21
181.990489946312
 31
0.0
  0
LINE
  5
DE
330
1F
100
AcDbEntity
  8
枠_表
  6
CONTINUOUS
 62
     3
100
AcDbLine
 10
1336.035398600204
 20
192.7229899463123
 30
0.0
 11
1334.719148600201
 21
192.7229899463123
 31
0.0
  0
LINE
  5
DF
330
1F
100
AcDbEntity
  8
枠_表
  6
CONTINUOUS
 62
     3
100
AcDbLine
 10
1346.2616486002
 20
185.6354899463111
 30
0.0
 11
1348.691648600204
 21
185.6354899463111
 31
0.0
  0
LINE
  5
E0
330
1F
100
AcDbEntity
  8
枠_表
  6
CONTINUOUS
 62
     3
100
AcDbLine
 10
1351.627898600201
 20
232.909114946309
 30
0.0
 11
1348.8333986002
 21
232.909114946309
 31
0.0
  0
ARC
  5
E1
330
1F
100
AcDbEntity
  8
枠_表
  6
CONTINUOUS
 62
     3
100
AcDbCircle
 10
1349.122100869451
 20
219.8143854437512
 30
0.0
 40
9.188796451533795
100
AcDbArc
 50
17.92452211681263
 51
85.16543319077402
  0
ARC
  5
E2
330
1F
100
AcDbEntity
  8
枠_表
  6
CONTINUOUS
 62
     3
100
AcDbCircle
 10
1348.552644729405
 20
220.901249206189
 30
0.0
 40
8.034208966558964
100
AcDbArc
 50
92.11404364449162
 51
173.4175047026091
  0
ARC
  5
E3
330
1F
100
AcDbEntity
  8
枠_表
  6
CONTINUOUS
 62
     3
100
AcDbCircle
 10
1360.954711100222
 20
224.0734774463158
 30
0.0
 40
21.102779059401
100
AcDbArc
 50
193.4375782160214
 51
199.459638038058
  0
ARC
  5
E4
330
1F
100
AcDbEntity
  8
枠_表
  6
CONTINUOUS
 62
     3
100
AcDbCircle
 10
1350.108202858444
 20
222.4707962649927
 30
0.0
 40
10.55345561005776
100
AcDbArc
 50
210.9501336849607
 51
251.7794729821079
  0
ARC
  5
E5
330
1F
100
AcDbEntity
  8
枠_表
  6
CONTINUOUS
 62
     3
100
AcDbCircle
 10
1374.807700454134
 20
287.9038965755251
 30
0.0
 40
80.4846638777502
100
AcDbArc
 50
249.6420733479936
 51
256.4727051201885
  0
ARC
  5
E6
330
1F
100
AcDbEntity
  8
枠_表
  6
CONTINUOUS
 62
     3
100
AcDbCircle
 10
1353.306858194118
 20
198.7825887797362
 30
0.0
 40
11.19367613594409
100
AcDbArc
 50
6.154262763177246
 51
76.17509904255616
  0
ARC
  5
E7
330
1F
100
AcDbEntity
  8
枠_表
  6
CONTINUOUS
 62
     3
100
AcDbCircle
 10
1347.699582970459
 20
199.0038700677076
 30
0.0
 40
17.01772587270968
100
AcDbArc
 50
271.2948770866743
 51
348.6654156292868
  0
ARC
  5
E8
330
1F
100
AcDbEntity
  8
枠_表
  6
CONTINUOUS
 62
     3
100
AcDbCircle
 10
1345.189508189241
 20
208.2234865216537
 30
0.0
 40
26.2991447367003
100
AcDbArc
 50
241.8829576087176
 51
265.9354096935781
  0
ARC
  5
E9
330
1F
100
AcDbEntity
  8
枠_表
  6
CONTINUOUS
 62
     3
100
AcDbCircle
 10
1347.954156485556
 20
198.9987959666075
 30
0.0
 40
13.47006053193791
100
AcDbArc
 50
207.7689879465537
 51
262.7817283832026
  0
ARC
  5
EA
330
1F
100
AcDbEntity
  8
枠_表
  6
CONTINUOUS
 62
     3
100
AcDbCircle
 10
1348.553666617302
 20
194.5503545635734
 30
0.0
 40
8.91593237815014
100
AcDbArc
 50
270.8867385422408
 51
352.7925382056677
  0
ARC
  5
EB
330
1F
100
AcDbEntity
  8
枠_表
  6
CONTINUOUS
 62
     3
100
AcDbCircle
 10
1350.462006878375
 20
194.9769338149736
 30
0.0
 40
6.88065228328521
100
AcDbArc
 50
6.53892419415897
 51
65.09756080693691
  0
ARC
  5
EC
330
1F
100
AcDbEntity
  8
枠_表
  6
CONTINUOUS
 62
     3
100
AcDbCircle
 10
1333.757233774891
 20
161.9185712632816
 30
0.0
 40
43.91667620959131
100
AcDbArc
 50
63.49050203733571
 51
76.60259219849584
  0
ARC
  5
ED
330
1F
100
AcDbEntity
  8
枠_表
  6
CONTINUOUS
 62
     3
100
AcDbCircle
 10
1349.29022187025
 20
222.3594616510013
 30
0.0
 40
18.51151426169351
100
AcDbArc
 50
226.0402388947521
 51
253.1776672992999
  0
ARC
  5
EE
330
1F
100
AcDbEntity
  8
枠_表
  6
CONTINUOUS
 62
     3
100
AcDbCircle
 10
1343.339888689226
 20
216.3289153613277
 30
0.0
 40
10.04058908858416
100
AcDbArc
 50
181.2393899443581
 51
226.5942921332421
  0
ARC
  5
EF
330
1F
100
AcDbEntity
  8
枠_表
  6
CONTINUOUS
 62
     3
100
AcDbCircle
 10
1348.194524520267
 20
217.8013936652781
 30
0.0
 40
14.97648840463785
100
AcDbArc
 50
117.4083995939977
 51
176.1964688215695
  0
ARC
  5
F0
330
1F
100
AcDbEntity
  8
枠_表
  6
CONTINUOUS
 62
     3
100
AcDbCircle
 10
1349.656656642911
 20
213.146864690641
 30
0.0
 40
19.79962298051288
100
AcDbArc
 50
92.38301574576484
 51
114.9635286746436
  0
ARC
  5
F1
330
1F
100
AcDbEntity
  8
枠_表
  6
CONTINUOUS
 62
     3
100
AcDbCircle
 10
1351.28142426941
 20
217.7494557545924
 30
0.0
 40
15.16361801388235
100
AcDbArc
 50
67.66151957087348
 51
88.69073168448988
  0
ARC
  5
F2
330
1F
100
AcDbEntity
  8
枠_表
  6
CONTINUOUS
 62
     3
100
AcDbCircle
 10
1832.466679849547
 20
1447.544614944631
 30
0.0
 40
1305.420034344473
100
AcDbArc
 50
248.6422112053103
 51
248.8567777804232
  0
ARC
  5
F3
330
1F
100
AcDbEntity
  8
枠_表
  6
CONTINUOUS
 62
     3
100
AcDbCircle
 10
977.5350863049066
 20
207.4874689149362
 30
0.0
 40
333.0114127553719
100
AcDbArc
 50
355.7940354718673
 51
4.229650257234378
  0
ARC
  5
F4
330
1F
100
AcDbEntity
  8
枠_表
  6
CONTINUOUS
 62
     3
100
AcDbCircle
 10
1623.381070769661
 20
207.2821508609081
 30
0.0
 40
305.38595858835
100
AcDbArc
 50
175.3387608397566
 51
184.5428594926176
  0
ARC
  5
F5
330
1F
100
AcDbEntity
  8
枠_表
  6
CONTINUOUS
 62
     3
100
AcDbCircle
 10
1314.621613406026
 20
85.1970627618482
 30
0.0
 40
97.99289227876633
100
AcDbArc
 50
87.46575055044718
 51
92.90832285102188
  0
ARC
  5
F6
330
1F
100
AcDbEntity
  8
枠_表
  6
CONTINUOUS
 62
     3
100
AcDbCircle
 10
1314.218411404486
 20
251.2998711537125
 30
0.0
 40
19.7884282326031
100
AcDbArc
 50
256.6209501743446
 51
283.9984576255729
  0
CIRCLE
  5
F7
330
1F
100
AcDbEntity
  8
枠_表
  6
CONTINUOUS
 62
     3
100
AcDbCircle
 10
1314.428271057828
 20
249.8753200310557
 30
0.0
 40
5.358501700154835
  0
LINE
  5
F8
330
1F
100
AcDbEntity
  8
枠_表
  6
CONTINUOUS
 62
     3
100
AcDbLine
 10
1259.227148600202
 20
212.7603649463106
 30
0.0
 11
1259.227148600202
 21
196.5704899463117
 31
0.0
  0
ARC
  5
F9
330
1F
100
AcDbEntity
  8
枠_表
  6
CONTINUOUS
 62
     3
100
AcDbCircle
 10
945.1765483010654
 20
206.9907088007619
 30
0.0
 40
306.5546709196609
100
AcDbArc
 50
355.5405243117485
 51
4.673398698656258
  0
ARC
  5
FA
330
1F
100
AcDbEntity
  8
枠_表
  6
CONTINUOUS
 62
     3
100
AcDbCircle
 10
1255.062427479511
 20
249.3310319721741
 30
0.0
 40
17.90024037819024
100
AcDbArc
 50
255.9341994177206
 51
284.5896440601899
  0
ARC
  5
FB
330
1F
100
AcDbEntity
  8
枠_表
  6
CONTINUOUS
 62
     3
100
AcDbCircle
 10
1315.586209109751
 20
225.1178522074588
 30
0.0
 40
56.43698250687272
100
AcDbArc
 50
172.9875214416311
 51
181.4134392789641
  0
ARC
  5
FC
330
1F
100
AcDbEntity
  8
枠_表
  6
CONTINUOUS
 62
     3
100
AcDbCircle
 10
1276.131160350707
 20
212.8913983227892
 30
0.0
 40
20.1292349498589
100
AcDbArc
 50
87.42068310381028
 51
147.4361518966862
  0
ARC
  5
FD
330
1F
100
AcDbEntity
  8
枠_表
  6
CONTINUOUS
 62
     3
100
AcDbCircle
 10
1277.658608612391
 20
218.8806997196991
 30
0.0
 40
14.1332156333331
100
AcDbArc
 50
34.84393737091607
 51
92.5207065423111
  0
ARC
  5
FE
330
1F
100
AcDbEntity
  8
枠_表
  6
CONTINUOUS
 62
     3
100
AcDbCircle
 10
1274.685827302049
 20
216.9428913677291
 30
0.0
 40
17.68049477190885
100
AcDbArc
 50
359.8658335690532
 51
34.49363429411157
  0
ARC
  5
FF
330
1F
100
AcDbEntity
  8
枠_表
  6
CONTINUOUS
 62
     3
100
AcDbCircle
 10
1200.287040181834
 20
213.4973662218204
 30
0.0
 40
92.14213631800438
100
AcDbArc
 50
358.4775281223095
 51
2.117232414210064
  0
ARC
  5
100
330
1F
100
AcDbEntity
  8
枠_表
  6
CONTINUOUS
 62
     3
100
AcDbCircle
 10
1536.986450492873
 20
194.8601062108708
 30
0.0
 40
245.1249869780733
100
AcDbArc
 50
176.2131780319488
 51
182.7488833337936
  0
ARC
  5
101
330
1F
100
AcDbEntity
  8
枠_表
  6
CONTINUOUS
 62
     3
100
AcDbCircle
 10
1287.865711100202
 20
135.902289288415
 30
0.0
 40
47.39539878190116
100
AcDbArc
 50
84.82155189294139
 51
95.17844810705873
  0
ARC
  5
102
330
1F
100
AcDbEntity
  8
枠_表
  6
CONTINUOUS
 62
     3
100
AcDbCircle
 10
1036.676006797787
 20
202.1627006823689
 30
0.0
 40
247.6463350002882
100
AcDbArc
 50
355.5862454873798
 51
2.816115806820253
  0
ARC
  5
103
330
1F
100
AcDbEntity
  8
枠_表
  6
CONTINUOUS
 62
     3
100
AcDbCircle
 10
1267.417110685604
 20
214.5472708232342
 30
0.0
 40
16.60758761616231
100
AcDbArc
 50
359.2495022237244
 51
32.84055016678327
  0
ARC
  5
104
330
1F
100
AcDbEntity
  8
枠_表
  6
CONTINUOUS
 62
     3
100
AcDbCircle
 10
1272.015021781156
 20
214.8549409708016
 30
0.0
 40
12.77467585570504
100
AcDbArc
 50
42.91644474042847
 51
128.3015542351336
  0
ARC
  5
105
330
1F
100
AcDbEntity
  8
枠_表
  6
CONTINUOUS
 62
     3
100
AcDbCircle
 10
1275.849258355287
 20
213.1192837707067
 30
0.0
 40
16.62598434477196
100
AcDbArc
 50
134.9787476233347
 51
181.2369872983282
  0
ARC
  5
106
330
1F
100
AcDbEntity
  8
枠_表
  6
CONTINUOUS
 62
     3
100
AcDbCircle
 10
1370.113286842982
 20
196.3725220514721
 30
0.0
 40
110.9268148967239
100
AcDbArc
 50
179.8977458165987
 51
186.8855675734268
  0
ARC
  5
107
330
1F
100
AcDbEntity
  8
枠_表
  6
CONTINUOUS
 62
     3
100
AcDbCircle
 10
1254.871317010722
 20
123.7603881767564
 30
0.0
 40
59.53363641627745
100
AcDbArc
 50
85.07099551674689
 51
93.91830029343228
  0
ARC
  5
108
330
1F
100
AcDbEntity
  8
枠_表
  6
CONTINUOUS
 62
     3
100
AcDbCircle
 10
-33708.02313326571
 20
1158.489786838173
 30
0.0
 40
34946.64001890887
100
AcDbArc
 50
358.4169008257799
 51
358.4423418242109
  0
ARC
  5
109
330
1F
100
AcDbEntity
  8
枠_表
  6
CONTINUOUS
 62
     3
100
AcDbCircle
 10
1212.486703615212
 20
200.6754734295293
 30
0.0
 40
14.90372405996874
100
AcDbArc
 50
278.3335103000368
 51
329.1221464187299
  0
LINE
  5
10A
330
1F
100
AcDbEntity
  8
枠_表
  6
CONTINUOUS
 62
     3
100
AcDbLine
 10
1212.044648600201
 20
185.9291149463115
 30
0.0
 11
1214.646773600202
 21
185.9291149463115
 31
0.0
  0
ARC
  5
10B
330
1F
100
AcDbEntity
  8
枠_表
  6
CONTINUOUS
 62
     3
100
AcDbCircle
 10
1213.043948023635
 20
194.6192070146662
 30
0.0
 40
8.747359572704955
100
AcDbArc
 50
183.0707787095794
 51
263.4402016072427
  0
LINE
  5
10C
330
1F
100
AcDbEntity
  8
枠_表
  6
CONTINUOUS
 62
     3
100
AcDbLine
 10
1204.309148600199
 20
197.0868649463091
 30
0.0
 11
1204.309148600199
 21
194.1506149463112
 31
0.0
  0
ARC
  5
10D
330
1F
100
AcDbEntity
  8
枠_表
  6
CONTINUOUS
 62
     3
100
AcDbCircle
 10
1213.605280026
 20
195.8711218570784
 30
0.0
 40
9.375291501855795
100
AcDbArc
 50
115.7403688633493
 51
172.5491744442191
  0
ARC
  5
10E
330
1F
100
AcDbEntity
  8
枠_表
  6
CONTINUOUS
 62
     3
100
AcDbCircle
 10
1221.849097763982
 20
178.2478294001976
 30
0.0
 40
28.83098679232812
100
AcDbArc
 50
98.71271710191789
 51
115.2874718053599
  0
ARC
  5
10F
330
1F
100
AcDbEntity
  8
枠_表
  6
CONTINUOUS
 62
     3
100
AcDbCircle
 10
1208.408414903384
 20
268.1252071740744
 30
0.0
 40
62.04610222041025
100
AcDbArc
 50
278.4088456599976
 51
286.1851416003176
  0
ARC
  5
110
330
1F
100
AcDbEntity
  8
枠_表
  6
CONTINUOUS
 62
     3
100
AcDbCircle
 10
1171.636230018665
 20
329.6126355783338
 30
0.0
 40
66.01138250235698
100
AcDbArc
 50
261.7986203004403
 51
278.6803384946418
  0
ARC
  5
111
330
1F
100
AcDbEntity
  8
枠_表
  6
CONTINUOUS
 62
     3
100
AcDbCircle
 10
2154.813797120474
 20
217.9440541426277
 30
0.0
 40
974.3211367025408
100
AcDbArc
 50
177.2695926307304
 51
181.4833117237826
  0
ARC
  5
112
330
1F
100
AcDbEntity
  8
枠_表
  6
CONTINUOUS
 62
     3
100
AcDbCircle
 10
1146.734904268919
 20
191.944703532015
 30
0.0
 40
34.09312894671467
100
AcDbArc
 50
335.1860595856123
 51
1.308075913059364
  0
ARC
  5
113
330
1F
100
AcDbEntity
  8
枠_表
  6
CONTINUOUS
 62
     3
100
AcDbCircle
 10
1155.584599183147
 20
190.4075277940228
 30
0.0
 40
25.52092032294173
100
AcDbArc
 50
286.2966123578915
 51
329.973223283839
  0
ARC
  5
114
330
1F
100
AcDbEntity
  8
枠_表
  6
CONTINUOUS
 62
     3
100
AcDbCircle
 10
1150.643362480325
 20
197.5834729373071
 30
0.0
 40
33.90512116232043
100
AcDbArc
 50
277.0901027239701
 51
290.9134154817058
  0
LINE
  5
115
330
1F
100
AcDbEntity
  8
枠_表
  6
CONTINUOUS
 62
     3
100
AcDbLine
 10
1154.8282736002
 20
163.9376149463101
 30
0.0
 11
1152.975398600201
 21
169.577239946309
 31
0.0
  0
ARC
  5
116
330
1F
100
AcDbEntity
  8
枠_表
  6
CONTINUOUS
 62
     3
100
AcDbCircle
 10
1147.25209345314
 20
187.0139789168968
 30
0.0
 40
18.35200500585038
100
AcDbArc
 50
288.1715191042997
 51
307.8537826235693
  0
ARC
  5
117
330
1F
100
AcDbEntity
  8
枠_表
  6
CONTINUOUS
 62
     3
100
AcDbCircle
 10
1150.639107974728
 20
180.5111277709364
 30
0.0
 40
11.2165377829595
100
AcDbArc
 50
314.592391474832
 51
344.9374073189123
  0
ARC
  5
118
330
1F
100
AcDbEntity
  8
枠_表
  6
CONTINUOUS
 62
     3
100
AcDbCircle
 10
420.5078281847238
 20
225.7796003758244
 30
0.0
 40
742.7100645598513
100
AcDbArc
 50
356.8390243485978
 51
2.971133813187157
  0
ARC
  5
119
330
1F
100
AcDbEntity
  8
枠_表
  6
CONTINUOUS
 62
     3
100
AcDbCircle
 10
1057.715934784386
 20
190.1014142884173
 30
0.0
 40
104.505225747009
100
AcDbArc
 50
353.1274757312911
 51
357.106204490141
  0
LINE
  5
11A
330
1F
100
AcDbEntity
  8
枠_表
  6
CONTINUOUS
 62
     3
100
AcDbLine
 10
1200.259148600202
 20
227.0467399463098
 30
0.0
 11
1200.259148600202
 21
221.5792399463112
 31
0.0
  0
ARC
  5
11B
330
1F
100
AcDbEntity
  8
枠_表
  6
CONTINUOUS
 62
     3
100
AcDbCircle
 10
1213.238042655774
 20
214.9335287786823
 30
0.0
 40
13.42321657765079
100
AcDbArc
 50
103.4267945469744
 51
150.3242613737993
  0
ARC
  5
11C
330
1F
100
AcDbEntity
  8
枠_表
  6
CONTINUOUS
 62
     3
100
AcDbCircle
 10
1214.219864370071
 20
212.9075745769524
 30
0.0
 40
15.62929101996345
100
AcDbArc
 50
77.23143261361693
 51
105.203415964315
  0
ARC
  5
11D
330
1F
100
AcDbEntity
  8
枠_表
  6
CONTINUOUS
 62
     3
100
AcDbCircle
 10
1214.892511922979
 20
217.9112829230132
 30
0.0
 40
10.61019807939003
100
AcDbArc
 50
3.537639967999379
 51
74.8013566619203
  0
ARC
  5
11E
330
1F
100
AcDbEntity
  8
枠_表
  6
CONTINUOUS
 62
     3
100
AcDbCircle
 10
1206.00808103531
 20
215.8844805562694
 30
0.0
 40
19.65815626528382
100
AcDbArc
 50
353.0315250986587
 51
7.839947970678348
  0
ARC
  5
11F
330
1F
100
AcDbEntity
  8
枠_表
  6
CONTINUOUS
 62
     3
100
AcDbCircle
 10
1222.984643351326
 20
213.9766998756431
 30
0.0
 40
2.580882423421965
100
AcDbArc
 50
291.5204897073511
 51
349.3445900274031
  0
ARC
  5
120
330
1F
100
AcDbEntity
  8
枠_表
  6
CONTINUOUS
 62
     3
100
AcDbCircle
 10
1217.014957516961
 20
225.9611044033113
 30
0.0
 40
15.96170002909176
100
AcDbArc
 50
282.7195832898965
 51
295.6781112778079
  0
ARC
  5
121
330
1F
100
AcDbEntity
  8
枠_表
  6
CONTINUOUS
 62
     3
100
AcDbCircle
 10
1178.779514998193
 20
396.1803044662827
 30
0.0
 40
190.4223614055573
100
AcDbArc
 50
278.8438342053764
 51
282.6649181367123
  0
ARC
  5
122
330
1F
100
AcDbEntity
  8
枠_表
  6
CONTINUOUS
 62
     3
100
AcDbCircle
 10
1212.145520801693
 20
188.941272222429
 30
0.0
 40
19.5140492547738
100
AcDbArc
 50
102.0988446293839
 51
129.1556705448828
  0
ARC
  5
123
330
1F
100
AcDbEntity
  8
枠_表
  6
CONTINUOUS
 62
     3
100
AcDbCircle
 10
1206.595856854846
 20
195.954949875121
 30
0.0
 40
10.57193055836883
100
AcDbArc
 50
129.8344892359069
 51
168.4089447024628
  0
ARC
  5
124
330
1F
100
AcDbEntity
  8
枠_表
  6
CONTINUOUS
 62
     3
100
AcDbCircle
 10
1208.861252785824
 20
194.6638068821608
 30
0.0
 40
13.07564058883004
100
AcDbArc
 50
164.8589457925044
 51
187.8495628504518
  0
ARC
  5
125
330
1F
100
AcDbEntity
  8
枠_表
  6
CONTINUOUS
 62
     3
100
AcDbCircle
 10
1207.637299937651
 20
194.1022532359295
 30
0.0
 40
11.79288520689435
100
AcDbArc
 50
185.9586126338419
 51
224.0091989319859
  0
ARC
  5
126
330
1F
100
AcDbEntity
  8
枠_表
  6
CONTINUOUS
 62
     3
100
AcDbCircle
 10
1208.184442955859
 20
194.7166657158903
 30
0.0
 40
12.61343486634549
100
AcDbArc
 50
224.289750990011
 51
255.6505938786759
  0
ARC
  5
127
330
1F
100
AcDbEntity
  8
枠_表
  6
CONTINUOUS
 62
     3
100
AcDbCircle
 10
1207.939219610839
 20
191.5445241581108
 30
0.0
 40
9.49534248137679
100
AcDbArc
 50
252.3384873625213
 51
268.8069976857606
  0
LINE
  5
128
330
1F
100
AcDbEntity
  8
枠_表
  6
CONTINUOUS
 62
     3
100
AcDbLine
 10
1207.741523600201
 20
182.0512399463121
 30
0.0
 11
1211.852273600201
 21
182.0512399463121
 31
0.0
  0
ARC
  5
129
330
1F
100
AcDbEntity
  8
枠_表
  6
CONTINUOUS
 62
     3
100
AcDbCircle
 10
1209.991956880378
 20
202.430103938525
 30
0.0
 40
20.46359880155898
100
AcDbArc
 50
275.2158792069686
 51
319.2336424873511
  0
ARC
  5
12A
330
1F
100
AcDbEntity
  8
枠_表
  6
CONTINUOUS
 62
     3
100
AcDbCircle
 10
1232.747334084074
 20
189.9738891398579
 30
0.0
 40
7.31302701014583
100
AcDbArc
 50
187.1167640402297
 51
216.4860549324747
  0
ARC
  5
12B
330
1F
100
AcDbEntity
  8
枠_表
  6
CONTINUOUS
 62
     3
100
AcDbCircle
 10
1231.940660262546
 20
189.5051184792953
 30
0.0
 40
6.38654325930597
100
AcDbArc
 50
217.4081478714985
 51
264.8118660441384
  0
ARC
  5
12C
330
1F
100
AcDbEntity
  8
枠_表
  6
CONTINUOUS
 62
     3
100
AcDbCircle
 10
1234.349383792164
 20
195.969676923454
 30
0.0
 40
12.84810930031341
100
AcDbArc
 50
271.2220539293239
 51
292.8159509797653
  0
LINE
  5
12D
330
1F
100
AcDbEntity
  8
枠_表
  6
CONTINUOUS
 62
     3
100
AcDbLine
 10
1231.363148600201
 20
183.1447399463104
 30
0.0
 11
1234.6233986002
 21
183.1447399463104
 31
0.0
  0
LINE
  5
12E
330
1F
100
AcDbEntity
  8
枠_表
  6
CONTINUOUS
 62
     3
100
AcDbLine
 10
1239.331523600201
 20
184.126864946312
 30
0.0
 11
1239.331523600201
 21
186.485989946309
 31
0.0
  0
ARC
  5
12F
330
1F
100
AcDbEntity
  8
枠_表
  6
CONTINUOUS
 62
     3
100
AcDbCircle
 10
1237.236311769019
 20
190.5091783111618
 30
0.0
 40
4.5360728870472
100
AcDbArc
 50
243.6191685566582
 51
297.5097757939563
  0
ARC
  5
130
330
1F
100
AcDbEntity
  8
枠_表
  6
CONTINUOUS
 62
     3
100
AcDbCircle
 10
1237.773598417231
 20
190.2454393170694
 30
0.0
 40
4.577830246610835
100
AcDbArc
 50
179.9117548191414
 51
236.1065985968857
  0
ARC
  5
131
330
1F
100
AcDbEntity
  8
枠_表
  6
CONTINUOUS
 62
     3
100
AcDbCircle
 10
1913.475203758391
 20
197.8985765897608
 30
0.0
 40
680.3223983798493
100
AcDbArc
 50
178.2526643324597
 51
180.6439560401927
  0
ARC
  5
132
330
1F
100
AcDbEntity
  8
枠_表
  6
CONTINUOUS
 62
     3
100
AcDbCircle
 10
1218.105940890743
 20
217.5287438959981
 30
0.0
 40
15.40356112671885
100
AcDbArc
 50
4.148222840814693
 51
92.36000944257292
  0
ARC
  5
133
330
1F
100
AcDbEntity
  8
枠_表
  6
CONTINUOUS
 62
     3
100
AcDbCircle
 10
1216.902798619152
 20
206.4250933390315
 30
0.0
 40
26.50025272990596
100
AcDbArc
 50
88.77000393305703
 51
128.9068631829044
  0
TEXT
  5
135
330
1F
100
AcDbEntity
  8
枠_表
  6
CONTINUOUS
 62
     2
100
AcDbText
 10
1384.500000000329
 20
174.7500000000014
 30
0.0
 40
50.625
  1
ジャニス工業株式会社
 41
1.025641025641025
  7
EXCADTTF1
 72
     5
 11
2059.500000000329
 21
174.7500000000014
 31
0.0
100
AcDbText
  0
HATCH
  5
136
330
1F
100
AcDbEntity
  8
枠_表
  6
CONTINUOUS
 62
     3
100
AcDbHatch
 10
0.0
 20
0.0
 30
0.0
210
0.0
220
0.0
230
1.0
  2
SOLID
 70
     1
 71
     1
 91
        2
 92
        3
 72
     1
 73
     1
 93
       27
 10
1200.259148600199
 20
227.0467399463097
 42
-0.1769427732109284
 10
1200.259148600202
 20
227.0467399463098
 42
0.0
 10
1200.259148600202
 20
221.5792399463112
 42
0.0
 10
1201.575398600201
 20
221.5792399463107
 42
-0.207533601427307
 10
1210.12113418468
 20
227.9898538693564
 42
-0.1226604740888933
 10
1217.674148600201
 20
228.1503649463112
 42
-0.3213715781137954
 10
1225.482492033639
 20
218.5659771567722
 42
-0.064704004662446
 10
1225.521023600199
 20
213.4994899463109
 42
-0.257798906330806
 10
1223.931398600202
 20
211.57573994631
 42
-0.056602577721096
 10
1220.5293986002
 20
210.3911149463123
 42
-0.0166741689362636
 10
1208.055398600201
 20
208.0218649463094
 42
0.1186092302783404
 10
1199.823773600199
 20
204.0731149463118
 42
0.1699204224386695
 10
1196.2395236002
 20
198.07911494631
 42
0.1006533494296199
 10
1195.908130019699
 20
192.8780332643591
 42
0.1675695228968024
 10
1199.155523600203
 20
185.9088649463119
 42
0.1376980079804242
 10
1205.0583986002
 20
182.4967399463105
 42
0.0719813663796923
 10
1207.741523600201
 20
182.0512399463121
 42
0.0
 10
1211.852273600202
 20
182.0512399463122
 42
0.1944607457809085
 10
1225.490648600202
 20
189.0678649463093
 42
0.1288538183665954
 10
1226.867648600201
 20
185.6253649463115
 42
0.2098387395261546
 10
1231.363148600201
 20
183.1447399463104
 42
0.0
 10
1234.623398600201
 20
183.1244899463105
 42
0.0945009641609563
 10
1239.331523600201
 20
184.126864946312
 42
0.0
 10
1239.3315236002
 20
186.4859899463093
 42
-0.2395739894657535
 10
1235.220773600201
 20
186.445489946309
 42
-0.2502312110031057
 10
1233.195773600201
 20
190.252489946313
 42
-0.0104343570771765
 10
1233.4691486002
 20
218.6429899463118
 42
0.4051015674140716
 97
        0
 92
        3
 72
     1
 73
     1
 93
        8
 10
1225.7032736002
 20
208.5382399463092
 42
-0.0339435190873666
 10
1225.7032736002
 20
208.5382399462927
 42
-0.0001110072973599
 10
1225.2780236002
 20
193.026739946309
 42
-0.2253076310552528
 10
1214.646773600202
 20
185.9291149463115
 42
0.0
 10
1212.044648600199
 20
185.9291149463098
 42
-0.3657967558150132
 10
1204.309148600199
 20
194.1506149463112
 42
0.0
 10
1204.3091486002
 20
197.0868649463121
 42
-0.2530797830369341
 10
1209.533648600202
 20
204.3161149463117
 42
-0.0724473624720066
 97
        0
 75
     0
 76
     1
 98
        1
 10
0.0
 20
0.0
  0
HATCH
  5
137
330
1F
100
AcDbEntity
  8
枠_表
  6
CONTINUOUS
 62
     3
100
AcDbHatch
 10
0.0
 20
0.0
 30
0.0
210
0.0
220
0.0
230
1.0
  2
SOLID
 70
     1
 71
     1
 91
        1
 92
        3
 72
     1
 73
     1
 93
       30
 10
1361.6010236002
 20
230.0032399463128
 42
-0.0009362235736497
 10
1361.6010236002
 20
230.0032399463103
 42
0.0681165430304653
 10
1359.145640230422
 20
222.6423649463095
 42
0.0
 10
1349.896523600201
 20
228.9704899463122
 42
-0.302112590907374
 10
1349.896523600202
 20
228.9704899463095
 42
0.0
 10
1340.5713986002
 20
221.822239946312
 42
-0.3704245237568778
 10
1340.571398600201
 20
221.8222399463116
 42
0.0
 10
1341.057398600203
 20
217.0432399463103
 42
-0.0262822419456939
 10
1346.808398600203
 20
212.4464899463116
 42
-0.180060563604375
 10
1355.981648600201
 20
209.6519899463096
 42
-0.0298130817160724
 10
1355.981648600201
 20
209.6519899463108
 42
-0.3153987453686078
 10
1364.436023600202
 20
199.9826149463104
 42
0.0
 10
1364.385398600201
 20
195.6592399463116
 42
-0.3510306079065168
 10
1348.084148600203
 20
181.990489946312
 42
0.0
 10
1343.3253986002
 20
181.9904899463108
 42
-0.1053356344842436
 10
1332.7953986002
 20
185.0279899463112
 42
0.1188608286962634
 10
1334.719148600201
 20
192.7229899463123
 42
0.0
 10
1346.261648600203
 20
185.6354899463113
 42
-0.2447573632916039
 10
1346.2616486002
 20
185.6354899463111
 42
0.0
 10
1357.399148600201
 20
193.4317399463096
 42
-0.3734162676407277
 10
1357.399148600201
 20
193.43173994631
 42
0.0
 10
1353.3592736002
 20
201.2178649463096
 42
-0.261219770190848
 10
1343.932898600201
 20
204.6401149463114
 42
-0.0572747914118363
 10
1343.932898600201
 20
204.6401149463095
 42
-0.1189658875692221
 10
1336.440398600201
 20
209.0343649463096
 42
-0.2005226878639636
 10
1333.301648600199
 20
216.1117399463433
 42
0.0
 10
1333.251023600201
 20
218.794864946309
 42
-0.2622894489606957
 10
1341.300398600201
 20
231.0967399463106
 42
-0.0988461274137808
 10
1348.8333986002
 20
232.909114946309
 42
0.0
 10
1351.627898600199
 20
232.9091149463105
 42
-0.0920156312561188
 97
        0
 75
     0
 76
     1
 98
        1
 10
0.0
 20
0.0
  0
HATCH
  5
138
330
1F
100
AcDbEntity
  8
枠_表
  6
CONTINUOUS
 62
     3
100
AcDbHatch
 10
0.0
 20
0.0
 30
0.0
210
0.0
220
0.0
230
1.0
  2
SOLID
 70
     1
 71
     1
 91
        2
 92
        1
 93
        1
 72
     2
 10
1314.428271057828
 20
249.8753200310557
 40
5.358501700154826
 50
0.0
 51
360.0
 73
     1
 97
        0
 92
        3
 72
     1
 73
     1
 93
        3
 10
1309.639523600202
 20
232.0484899463118
 42
0.1200283885712921
 10
1318.9545236002
 20
183.0941149463105
 42
-0.0401820615762149
 10
1309.6496486002
 20
183.0637399463094
 42
-0.0237521668114666
 97
        0
 75
     0
 76
     1
 98
        1
 10
0.0
 20
0.0
  0
HATCH
  5
139
330
1F
100
AcDbEntity
  8
枠_表
  6
CONTINUOUS
 62
     3
100
AcDbHatch
 10
0.0
 20
0.0
 30
0.0
210
0.0
220
0.0
230
1.0
  2
SOLID
 70
     1
 71
     1
 91
        1
 92
        3
 72
     1
 73
     1
 93
       16
 10
1250.8031486002
 20
183.1548649463109
 42
-0.0386228372648426
 10
1250.712023600202
 20
231.967489946311
 42
-0.0398707891902887
 10
1259.571398600201
 20
232.0079899463121
 42
-0.1256886216044368
 10
1259.166398600202
 20
223.725739946312
 42
-0.0367815758121429
 10
1259.1663986002
 20
223.7257399463099
 42
-0.268021535028829
 10
1277.037023600202
 20
233.0002399463111
 42
-0.2571134422124888
 10
1289.2578986002
 20
226.9556149463115
 42
-0.1522526366014298
 10
1292.366273600201
 20
216.9014899463101
 42
-0.0158825412051521
 10
1292.143523600201
 20
183.1042399463118
 42
-0.0285251271418421
 10
1283.587898600202
 20
183.1042399463092
 42
-0.0452212723224612
 10
1284.023273600201
 20
214.3297399463106
 42
-0.0315567291532142
 10
1281.370523600199
 20
223.5536149463122
 42
-0.1476272403790709
 10
1264.097273600202
 20
224.8799899463091
 42
-0.3908144705745794
 10
1259.227148600202
 20
212.760364946309
 42
-0.2046259928850854
 10
1259.227148600202
 20
212.7603649463106
 42
0.0
 10
1259.986523600202
 20
183.0738649463112
 42
-0.0304995761723369
 97
        0
 75
     0
 76
     1
 98
        1
 10
0.0
 20
0.0
  0
HATCH
  5
13A
330
1F
100
AcDbEntity
  8
枠_表
  6
CONTINUOUS
 62
     3
100
AcDbHatch
 10
0.0
 20
0.0
 30
0.0
210
0.0
220
0.0
230
1.0
  2
SOLID
 70
     1
 71
     1
 91
        1
 92
        3
 72
     1
 73
     1
 93
       10
 10
1162.087898600201
 20
184.82548994631
 42
-0.017362223501556
 10
1162.219523600202
 20
264.2763649463099
 42
-0.0267627618865285
 10
1162.219523600199
 20
264.2763649463111
 42
0.0737939047395297
 10
1181.598773600198
 20
264.3573649463108
 42
0.0183878899657109
 10
1180.819148600202
 20
192.7229899463116
 42
-0.1144749489451909
 10
1177.680398600199
 20
177.636739946309
 42
-0.1929163439413163
 10
1162.746023600203
 20
165.9119899463099
 42
-0.0603888289562337
 10
1154.8282736002
 20
163.9376149463101
 42
0.0
 10
1152.975398600198
 20
169.5772399463091
 42
0.0860918333465722
 10
1158.5137736002
 20
172.52361494631
 42
0.1331843103855141
 97
        0
 75
     0
 76
     1
 98
        1
 10
0.0
 20
0.0
  0
LINE
  5
13B
330
1F
100
AcDbEntity
  8
枠_表
  6
CONTINUOUS
 62
     7
100
AcDbLine
 10
261.0000000003163
 20
139.4999999999993
 30
0.0
 11
2991.000000000318
 21
139.4999999999993
 31
0.0
  0
TEXT
  5
13C
330
1F
100
AcDbEntity
  8
枠_表
  6
CONTINUOUS
 62
     2
100
AcDbText
 10
1756.50000000037
 20
4153.125001907346
 30
0.0
 40
59.99999618530273
  1
ＬＵ０９０２ＣＳＤ１Ｅ
 41
0.7080769098966542
  7
EXCADSTD
 72
     5
 11
2150.999967575443
 21
4153.125001907346
 31
0.0
100
AcDbText
  0
TEXT
  5
13D
330
1F
100
AcDbEntity
  8
枠_表
  6
CONTINUOUS
 62
     2
100
AcDbText
 10
1756.50000000037
 20
4078.875001907346
 30
0.0
 40
59.99999618530273
  1
ＬＵ０９０２ＣＳＤ１Ｙ
 41
0.7080769098966542
  7
EXCADSTD
 72
     5
 11
2150.999967575443
 21
4078.875001907346
 31
0.0
100
AcDbText
  0
TEXT
  5
13E
330
1F
100
AcDbEntity
  8
枠_表
  6
CONTINUOUS
 62
     2
100
AcDbText
 10
2206.500000715615
 20
342.0000038146966
 30
0.0
 40
74.99999237060547
  1
ＬＵ０９０２ＣＳ型
 41
0.7818868115311168
  7
EXCADSTD
 72
     5
 11
2650.499966383339
 21
342.0000038146966
 31
0.0
100
AcDbText
  0
TEXT
  5
13F
330
1F
100
AcDbEntity
  8
枠_表
  6
CONTINUOUS
 62
     2
100
AcDbText
 10
2209.500000000169
 20
4077.375001907343
 30
0.0
 40
59.99999618530273
  1
洗面化粧台（寒冷地形）
 41
0.9692307555369835
  7
EXCADSTD
 72
     5
 11
2749.499958038499
 21
4077.375001907343
 31
0.0
100
AcDbText
  0
TEXT
  5
140
330
1F
100
AcDbEntity
  8
枠_表
  6
CONTINUOUS
 62
     2
100
AcDbText
 10
2281.500000000168
 20
3759.375001907346
 30
0.0
 40
59.99999618530273
  1
壁給水用止水栓
 41
0.990243889413228
  7
EXCADSTD
 72
     5
 11
2629.499973297287
 21
3759.375001907346
 31
0.0
100
AcDbText
  0
TEXT
  5
141
330
1F
100
AcDbEntity
  8
枠_表
  6
CONTINUOUS
 62
     2
100
AcDbText
 10
2841.000000000376
 20
3759.375001907346
 30
0.0
 40
59.99999618530273
  1
２
 41
1.120000000000004
  7
EXCADSTD
 72
     5
 11
2888.999996948618
 21
3759.375001907346
 31
0.0
100
AcDbText
  0
TEXT
  5
142
330
1F
100
AcDbEntity
  8
枠_表
  6
CONTINUOUS
 62
     2
100
AcDbText
 10
2284.500000000169
 20
3833.625001907347
 30
0.0
 40
59.99999618530273
  1
床給水用止水栓
 41
0.990243889413228
  7
EXCADSTD
 72
     5
 11
2632.499973297288
 21
3833.625001907347
 31
0.0
100
AcDbText
  0
TEXT
  5
143
330
1F
100
AcDbEntity
  8
枠_表
  6
CONTINUOUS
 62
     2
100
AcDbText
 10
2841.000000000376
 20
3832.875001907347
 30
0.0
 40
59.99999618530273
  1
２
 41
1.120000000000004
  7
EXCADSTD
 72
     5
 11
2888.999996948618
 21
3832.875001907347
 31
0.0
100
AcDbText
  0
TEXT
  5
144
330
1F
100
AcDbEntity
  8
枠_表
  6
CONTINUOUS
 62
     2
100
AcDbText
 10
2284.500000000169
 20
3577.125001907345
 30
0.0
 40
59.99999618530273
  1
Ｌ管
 41
1.049923628946709
  7
EXCADSTD
 72
     5
 11
2383.492793007066
 21
3577.125001907345
 31
0.0
100
AcDbText
  0
LINE
  5
145
330
1F
100
AcDbEntity
  8
枠_表
  6
CONTINUOUS
 62
     6
100
AcDbLine
 10
2946.000000000376
 20
3422.999999999998
 30
0.0
 11
2946.000000000376
 21
3645.749999999997
 31
0.0
  0
LINE
  5
146
330
1F
100
AcDbEntity
  8
枠_表
  6
CONTINUOUS
 62
     6
100
AcDbLine
 10
2796.000000000376
 20
3422.999999999998
 30
0.0
 11
2796.000000000376
 21
3645.749999999997
 31
0.0
  0
LINE
  5
147
330
1F
100
AcDbEntity
  8
枠_表
  6
CONTINUOUS
 62
     6
100
AcDbLine
 10
2271.000000000376
 20
3422.999999999998
 30
0.0
 11
2271.000000000376
 21
3645.749999999997
 31
0.0
  0
LINE
  5
148
330
1F
100
AcDbEntity
  8
枠_表
  6
CONTINUOUS
 62
     6
100
AcDbLine
 10
1746.000000000379
 20
3422.999999999998
 30
0.0
 11
1746.000000000379
 21
3645.749999999997
 31
0.0
  0
LINE
  5
149
330
1F
100
AcDbEntity
  8
枠_表
  6
CONTINUOUS
 62
     6
100
AcDbLine
 10
1746.000000000379
 20
3645.749999999997
 30
0.0
 11
2946.000000000376
 21
3645.749999999997
 31
0.0
  0
LINE
  5
14A
330
1F
100
AcDbEntity
  8
枠_表
  6
CONTINUOUS
 62
     6
100
AcDbLine
 10
1746.000000000379
 20
3571.5
 30
0.0
 11
2946.000000000376
 21
3571.5
 31
0.0
  0
LINE
  5
14B
330
1F
100
AcDbEntity
  8
枠_表
  6
CONTINUOUS
 62
     6
100
AcDbLine
 10
1746.000000000379
 20
3422.999999999998
 30
0.0
 11
2946.000000000376
 21
3422.999999999998
 31
0.0
  0
LINE
  5
14C
330
1F
100
AcDbEntity
  8
枠_表
  6
CONTINUOUS
 62
     6
100
AcDbLine
 10
2946.000000000376
 20
3750.75
 30
0.0
 11
2946.000000000376
 21
3899.249999999998
 31
0.0
  0
LINE
  5
14D
330
1F
100
AcDbEntity
  8
枠_表
  6
CONTINUOUS
 62
     6
100
AcDbLine
 10
2796.000000000376
 20
3750.749999999997
 30
0.0
 11
2796.000000000376
 21
3899.249999999998
 31
0.0
  0
LINE
  5
14E
330
1F
100
AcDbEntity
  8
枠_表
  6
CONTINUOUS
 62
     6
100
AcDbLine
 10
2271.000000000376
 20
3750.749999999997
 30
0.0
 11
2271.000000000376
 21
3899.249999999998
 31
0.0
  0
LINE
  5
14F
330
1F
100
AcDbEntity
  8
枠_表
  6
CONTINUOUS
 62
     6
100
AcDbLine
 10
1746.000000000379
 20
3750.75
 30
0.0
 11
1746.000000000379
 21
3899.249999999998
 31
0.0
  0
LINE
  5
150
330
1F
100
AcDbEntity
  8
枠_表
  6
CONTINUOUS
 62
     6
100
AcDbLine
 10
1746.000000000379
 20
3824.999999999997
 30
0.0
 11
2946.000000000376
 21
3824.999999999997
 31
0.0
  0
LINE
  5
151
330
1F
100
AcDbEntity
  8
枠_表
  6
CONTINUOUS
 62
     6
100
AcDbLine
 10
1746.000000000379
 20
3750.749999999997
 30
0.0
 11
2946.000000000376
 21
3750.749999999997
 31
0.0
  0
LINE
  5
152
330
1F
100
AcDbEntity
  8
枠_表
  6
CONTINUOUS
 62
     6
100
AcDbLine
 10
1746.000000000379
 20
3899.249999999998
 30
0.0
 11
2946.000000000376
 21
3899.249999999998
 31
0.0
  0
TEXT
  5
153
330
1F
100
AcDbEntity
  8
枠_表
  6
CONTINUOUS
 62
     2
100
AcDbText
 10
1746.000000000369
 20
3654.375001907346
 30
0.0
 40
59.99999618530273
  1
※壁排水用部材（別途手配）
 41
1.045454545454546
  7
EXCADSTD
 72
     5
 11
2435.999956131351
 21
3654.375001907346
 31
0.0
100
AcDbText
  0
TEXT
  5
154
330
1F
100
AcDbEntity
  8
枠_表
  6
CONTINUOUS
 62
     2
100
AcDbText
 10
2284.500000000169
 20
3431.475001907348
 30
0.0
 40
59.99999618530273
  1
（ＶＰ５０・ＶＵ５０用）
 41
0.8183098359622852
  7
EXCADSTD
 72
     5
 11
2782.499954223802
 21
3431.475001907348
 31
0.0
100
AcDbText
  0
TEXT
  5
155
330
1F
100
AcDbEntity
  8
枠_表
  6
CONTINUOUS
 62
     2
100
AcDbText
 10
2284.500000000169
 20
3505.725001907345
 30
0.0
 40
59.99999618530273
  1
配管アダプター
 41
0.990243889413228
  7
EXCADSTD
 72
     5
 11
2632.499973297288
 21
3505.725001907345
 31
0.0
100
AcDbText
  0
TEXT
  5
156
330
1F
100
AcDbEntity
  8
枠_表
  6
CONTINUOUS
 62
     2
100
AcDbText
 10
2841.000000000376
 20
3465.750001907345
 30
0.0
 40
59.99999618530273
  1
１
 41
1.120000000000004
  7
EXCADSTD
 72
     5
 11
2888.999996948618
 21
3465.750001907345
 31
0.0
100
AcDbText
  0
TEXT
  5
157
330
1F
100
AcDbEntity
  8
枠_表
  6
CONTINUOUS
 62
     2
100
AcDbText
 10
2841.000000000376
 20
3578.625001907347
 30
0.0
 40
59.99999618530273
  1
１
 41
1.120000000000004
  7
EXCADSTD
 72
     5
 11
2888.999996948618
 21
3578.625001907347
 31
0.0
100
AcDbText
  0
TEXT
  5
158
330
1F
100
AcDbEntity
  8
枠_表
  6
CONTINUOUS
 62
     2
100
AcDbText
 10
1741.499999998924
 20
3914.250003814705
 30
0.0
 40
59.99999618530273
  1
※止水栓（別途手配）
 41
1.052966101694915
  7
EXCADSTD
 72
     5
 11
2273.999966143485
 21
3914.250003814705
 31
0.0
100
AcDbText
  0
TEXT
  5
159
330
1F
100
AcDbEntity
  8
枠_表
  6
CONTINUOUS
 62
     2
100
AcDbText
 10
1741.499999998934
 20
3333.000003814705
 30
0.0
 40
59.99999618530273
  1
※洗面化粧台には、床排水用トラップを付属
 41
1.036764705882353
  7
EXCADSTD
 72
     5
 11
2798.999932764895
 21
3333.000003814705
 31
0.0
100
AcDbText
  0
TEXT
  5
15A
330
1F
100
AcDbEntity
  8
枠_表
  6
CONTINUOUS
 62
     2
100
AcDbText
 10
1741.499999998934
 20
3273.000007629403
 30
0.0
 40
59.99999618530273
  1
※洗面化粧台には、止水栓は含まれない
 41
1.038551401869159
  7
EXCADSTD
 72
     5
 11
2693.999939440615
 21
3273.000007629403
 31
0.0
100
AcDbText
  0
TEXT
  5
15B
330
1F
100
AcDbEntity
  8
枠_表
  6
CONTINUOUS
 62
     2
100
AcDbText
 10
1741.499999998934
 20
3213.0000114441
 30
0.0
 40
59.99999618530273
  1
※湯水混合水栓は、節湯Ｃ１形、吐水口引出式
 41
1.036
  7
EXCADSTD
 72
     5
 11
2851.499929427035
 21
3213.0000114441
 31
0.0
100
AcDbText
  0
TEXT
  5
15C
330
1F
100
AcDbEntity
  8
枠_表
  6
CONTINUOUS
 62
     2
100
AcDbText
 10
2841.000000000424
 20
4002.300001907348
 30
0.0
 40
59.99999618530273
  1
１
 41
1.120000000000004
  7
EXCADSTD
 72
     5
 11
2888.999996948667
 21
4002.300001907348
 31
0.0
100
AcDbText
  0
LINE
  5
15D
330
1F
100
AcDbEntity
  8
枠_表
  6
CONTINUOUS
 62
     6
100
AcDbLine
 10
2946.00000000042
 20
3996.749999999994
 30
0.0
 11
1746.00000000042
 21
3996.749999999994
 31
0.0
  0
LINE
  5
15E
330
1F
100
AcDbEntity
  8
枠_表
  6
CONTINUOUS
 62
     6
100
AcDbLine
 10
1746.000000000379
 20
3996.75
 30
0.0
 11
1746.000000000379
 21
4294.5
 31
0.0
  0
LINE
  5
15F
330
1F
100
AcDbEntity
  8
枠_表
  6
CONTINUOUS
 62
     6
100
AcDbLine
 10
2196.000000000376
 20
4294.499999999997
 30
0.0
 11
2196.000000000376
 21
3996.749999999994
 31
0.0
  0
LINE
  5
160
330
1F
100
AcDbEntity
  8
枠_表
  6
CONTINUOUS
 62
     6
100
AcDbLine
 10
2796.000000000376
 20
3996.749999999994
 30
0.0
 11
2796.000000000376
 21
4294.499999999997
 31
0.0
  0
LINE
  5
161
330
1F
100
AcDbEntity
  8
枠_表
  6
CONTINUOUS
 62
     6
100
AcDbLine
 10
2946.000000000376
 20
3996.75
 30
0.0
 11
2946.000000000376
 21
4294.5
 31
0.0
  0
TEXT
  5
162
330
1F
100
AcDbEntity
  8
枠_表
  6
CONTINUOUS
 62
     2
100
AcDbText
 10
2209.050000000417
 20
4003.875001907348
 30
0.0
 40
59.99999618530273
  1
化粧鏡
 41
1.070588224822399
  7
EXCADSTD
 72
     5
 11
2365.049988556325
 21
4003.875001907348
 31
0.0
100
AcDbText
  0
TEXT
  5
163
330
1F
100
AcDbEntity
  8
枠_表
  6
CONTINUOUS
 62
     2
100
AcDbText
 10
1753.500000000466
 20
3466.875001907349
 30
0.0
 40
59.99999618530273
  1
ＬＵＭＥＨ７０－２００－３２Ｂ
 41
0.6685393858491744
  7
EXCADSTD
 72
     5
 11
2263.500013351907
 21
3466.875001907349
 31
0.0
100
AcDbText
  0
CIRCLE
  5
164
330
1F
100
AcDbEntity
  8
枠_表
  6
CONTINUOUS
 62
     6
100
AcDbCircle
 10
411.0000000003231
 20
176.9999999999993
 30
0.0
 40
1.5000003
  0
CIRCLE
  5
165
330
1F
100
AcDbEntity
  8
枠_表
  6
CONTINUOUS
 62
     6
100
AcDbCircle
 10
336.0000000003231
 20
176.9999999999993
 30
0.0
 40
1.5000003
  0
CIRCLE
  5
166
330
1F
100
AcDbEntity
  8
枠_表
  6
CONTINUOUS
 62
     6
100
AcDbCircle
 10
568.5000000003362
 20
176.9999999999993
 30
0.0
 40
1.5000003
  0
CIRCLE
  5
167
330
1F
100
AcDbEntity
  8
枠_表
  6
CONTINUOUS
 62
     6
100
AcDbCircle
 10
643.5000000003362
 20
176.9999999999993
 30
0.0
 40
1.5000003
  0
TEXT
  5
168
330
1F
100
AcDbEntity
  8
枠_表
  6
CONTINUOUS
 62
     2
100
AcDbText
 10
1756.500000000397
 20
3578.625001907347
 30
0.0
 40
59.99999618530273
  1
ＭＥ４４１３１
 41
0.7298780354833208
  7
EXCADSTD
 72
     5
 11
2012.999979019562
 21
3578.625001907347
 31
0.0
100
AcDbText
  0
TEXT
  5
169
330
1F
100
AcDbEntity
  8
枠_表
  6
CONTINUOUS
 62
     2
100
AcDbText
 10
1756.500000000397
 20
3757.875001907347
 30
0.0
 40
59.99999618530273
  1
ＪＬ２２１－７５ＷＭＳＹ
 41
0.7049295643013956
  7
EXCADSTD
 72
     5
 11
2185.499964714447
 21
3757.875001907347
 31
0.0
100
AcDbText
  0
TEXT
  5
16A
330
1F
100
AcDbEntity
  8
枠_表
  6
CONTINUOUS
 62
     2
100
AcDbText
 10
1753.500000000457
 20
3831.75000190735
 30
0.0
 40
59.99999618530273
  1
ＪＬ２２１Ｆ２００ＷＭＹ３０
 41
0.6999999868630399
  7
EXCADSTD
 72
     5
 11
2251.499958992462
 21
3831.75000190735
 31
0.0
100
AcDbText
  0
TEXT
  5
16B
330
1F
100
AcDbEntity
  8
枠_表
  6
CONTINUOUS
 62
     6
100
AcDbText
 10
270.5161735135645
 20
153.6751117073488
 30
0.0
 40
44.99999618530273
  1
'23
 41
0.4689783949971204
  7
EXCADSTD
 72
     5
 11
317.7489935771555
 21
153.6751117073488
 31
0.0
100
AcDbText
  0
TEXT
  5
16C
330
1F
100
AcDbEntity
  8
枠_表
  6
CONTINUOUS
 62
     6
100
AcDbText
 10
434.8411738711927
 20
153.6751117073488
 30
0.0
 40
44.99999618530273
  1
19
 41
0.4199999960440172
  7
EXCADSTD
 72
     5
 11
467.2411708194348
 21
153.6751117073488
 31
0.0
100
AcDbText
  0
TEXT
  5
16D
330
1F
100
AcDbEntity
  8
枠_表
  6
CONTINUOUS
 62
     6
100
AcDbText
 10
364.6036740857691
 20
153.6751117073488
 30
0.0
 40
44.99999618530273
  1
5
 41
0.4683823586133572
  7
EXCADSTD
 72
     5
 11
381.6661728459925
 21
153.6751117073488
 31
0.0
100
AcDbText
  0
TEXT
  5
16E
330
1F
100
AcDbEntity
  8
枠_表
  6
CONTINUOUS
 62
     2
100
AcDbText
 10
302.2500000003462
 20
267.0000038146999
 30
0.0
 40
74.99999237060547
  1
川野
 41
1.166581818181818
  7
EXCADSTD
 72
     5
 11
439.7399860141402
 21
267.0000038146999
 31
0.0
100
AcDbText
  0
TEXT
  5
16F
330
1F
100
AcDbEntity
  8
枠_表
  6
CONTINUOUS
 62
     2
100
AcDbText
 10
1756.500000000466
 20
4003.875001907348
 30
0.0
 40
59.99999618530273
  1
ＬＵＭ４５１０ＰＮＮ
 41
0.7711864312489822
  7
EXCADSTD
 72
     5
 11
2146.499970436562
 21
4003.875001907348
 31
0.0
100
AcDbText
  0
TEXT
  5
170
330
1F
100
AcDbEntity
  8
枠_表
  6
CONTINUOUS
 62
     7
100
AcDbText
 10
2263.500000000273
 20
171.7500038146979
 30
0.0
 40
89.99999237060547
  1
ＬＵＡ１１１７０
 41
1.01773049277147
  7
EXCADSTD
 72
     5
 11
2878.499945640837
 21
171.7500038146979
 31
0.0
100
AcDbText
  0
LINE
  5
171
330
1F
100
AcDbEntity
  8
化粧台
  6
EXLTYPE3
 62
     6
100
AcDbLine
 10
961.0000000003195
 20
1194.0
 30
0.0
 11
961.0000000003195
 21
899.5
 31
0.0
  0
LINE
  5
172
330
1F
100
AcDbEntity
  8
化粧台
  6
CONTINUOUS
 62
     2
100
AcDbLine
 10
2375.000000000314
 20
919.4999999999
 30
0.0
 11
2375.000000000314
 21
869.49999999988
 31
0.0
  0
LINE
  5
173
330
1F
100
AcDbEntity
  8
化粧台
  6
CONTINUOUS
 62
     2
100
AcDbLine
 10
2407.000000000314
 20
869.49999999988
 30
0.0
 11
2375.000000000314
 21
869.49999999988
 31
0.0
  0
LINE
  5
174
330
1F
100
AcDbEntity
  8
化粧台
  6
CONTINUOUS
 62
     2
100
AcDbLine
 10
2407.000000000314
 20
919.4999999999
 30
0.0
 11
2407.000000000314
 21
869.49999999988
 31
0.0
  0
LINE
  5
175
330
1F
100
AcDbEntity
  8
化粧台
  6
EXLTYPE3
 62
     6
100
AcDbLine
 10
2411.000000000316
 20
1084.5
 30
0.0
 11
2411.000000000316
 21
896.5
 31
0.0
  0
LINE
  5
176
330
1F
100
AcDbEntity
  8
化粧台
  6
EXLTYPE4
 62
     6
100
AcDbLine
 10
2421.500000000316
 20
919.5
 30
0.0
 11
2421.500000000316
 21
1069.5
 31
0.0
  0
LINE
  5
177
330
1F
100
AcDbEntity
  8
化粧台
  6
EXLTYPE4
 62
     6
100
AcDbLine
 10
2400.500000000316
 20
919.5
 30
0.0
 11
2400.500000000316
 21
1069.5
 31
0.0
  0
LINE
  5
178
330
1F
100
AcDbEntity
  8
化粧台
  6
CONTINUOUS
 62
     6
100
AcDbLine
 10
2421.500000000332
 20
919.5
 30
0.0
 11
2421.500000000332
 21
911.5
 31
0.0
  0
LINE
  5
179
330
1F
100
AcDbEntity
  8
化粧台
  6
CONTINUOUS
 62
     6
100
AcDbLine
 10
2400.500000000325
 20
919.5
 30
0.0
 11
2400.500000000325
 21
911.5
 31
0.0
  0
LINE
  5
17A
330
1F
100
AcDbEntity
  8
化粧台
  6
CONTINUOUS
 62
     6
100
AcDbLine
 10
2421.500000000316
 20
911.5
 30
0.0
 11
2400.500000000325
 21
911.5
 31
0.0
  0
LINE
  5
17B
330
1F
100
AcDbEntity
  8
化粧台
  6
CONTINUOUS
 62
     6
100
AcDbLine
 10
2413.800000000317
 20
981.5000000000001
 30
0.0
 11
2413.800000000317
 21
963.7000000000007
 31
0.0
  0
LINE
  5
17C
330
1F
100
AcDbEntity
  8
化粧台
  6
CONTINUOUS
 62
     6
100
AcDbLine
 10
2368.200000000317
 20
981.5000000000001
 30
0.0
 11
2368.200000000317
 21
963.7000000000007
 31
0.0
  0
ARC
  5
17D
330
1F
100
AcDbEntity
  8
化粧台
  6
EXLTYPE2
 62
     6
100
AcDbCircle
 10
2360.500000000318
 20
943.5
 30
0.0
 40
3.000000000000003
100
AcDbArc
 50
90.00000000000001
 51
180.0
  0
LINE
  5
17E
330
1F
100
AcDbEntity
  8
化粧台
  6
EXLTYPE2
 62
     6
100
AcDbLine
 10
2360.500000000318
 20
946.5
 30
0.0
 11
2421.50000000032
 21
946.5
 31
0.0
  0
LINE
  5
17F
330
1F
100
AcDbEntity
  8
化粧台
  6
EXLTYPE2
 62
     6
100
AcDbLine
 10
2357.500000000318
 20
943.5
 30
0.0
 11
2357.500000000318
 21
923.5
 31
0.0
  0
ARC
  5
180
330
1F
100
AcDbEntity
  8
化粧台
  6
EXLTYPE2
 62
     6
100
AcDbCircle
 10
2367.00000000032
 20
958.5
 30
0.0
 40
3.000000000000003
100
AcDbArc
 50
90.00000000000001
 51
180.0
  0
LINE
  5
181
330
1F
100
AcDbEntity
  8
化粧台
  6
EXLTYPE2
 62
     6
100
AcDbLine
 10
2367.00000000032
 20
961.4999999999999
 30
0.0
 11
2415.00000000032
 21
961.4999999999999
 31
0.0
  0
LINE
  5
182
330
1F
100
AcDbEntity
  8
化粧台
  6
EXLTYPE2
 62
     6
100
AcDbLine
 10
2364.00000000032
 20
958.5
 30
0.0
 11
2364.00000000032
 21
946.5
 31
0.0
  0
ARC
  5
183
330
1F
100
AcDbEntity
  8
化粧台
  6
EXLTYPE2
 62
     6
100
AcDbCircle
 10
2415.00000000032
 20
958.5
 30
0.0
 40
3.000000000000003
100
AcDbArc
 50
0.0
 51
90.00000000000001
  0
LINE
  5
184
330
1F
100
AcDbEntity
  8
化粧台
  6
EXLTYPE2
 62
     6
100
AcDbLine
 10
2418.000000000318
 20
958.5
 30
0.0
 11
2418.000000000318
 21
946.5
 31
0.0
  0
ARC
  5
185
330
1F
100
AcDbEntity
  8
化粧台
  6
EXLTYPE2
 62
     6
100
AcDbCircle
 10
2421.50000000032
 20
943.5
 30
0.0
 40
3.000000000000003
100
AcDbArc
 50
0.0
 51
90.00000000000001
  0
LINE
  5
186
330
1F
100
AcDbEntity
  8
化粧台
  6
EXLTYPE2
 62
     6
100
AcDbLine
 10
2424.50000000032
 20
943.5
 30
0.0
 11
2424.50000000032
 21
923.5
 31
0.0
  0
LINE
  5
187
330
1F
100
AcDbEntity
  8
化粧台
  6
EXLTYPE2
 62
     6
100
AcDbLine
 10
2357.500000000318
 20
923.5
 30
0.0
 11
2424.50000000032
 21
923.5
 31
0.0
  0
LINE
  5
188
330
1F
100
AcDbEntity
  8
化粧台
  6
EXLTYPE2
 62
     6
100
AcDbLine
 10
2368.200000000317
 20
981.5000000000001
 30
0.0
 11
2413.800000000317
 21
981.5000000000001
 31
0.0
  0
LINE
  5
189
330
1F
100
AcDbEntity
  8
化粧台
  6
EXLTYPE2
 62
     6
100
AcDbLine
 10
2368.200000000317
 20
963.7000000000007
 30
0.0
 11
2413.800000000317
 21
963.7000000000007
 31
0.0
  0
LINE
  5
18A
330
1F
100
AcDbEntity
  8
化粧台
  6
EXLTYPE3
 62
     6
100
AcDbLine
 10
2391.000000000316
 20
1104.5
 30
0.0
 11
2391.000000000316
 21
854.49999999988
 31
0.0
  0
LINE
  5
18B
330
1F
100
AcDbEntity
  8
化粧台
  6
EXLTYPE2
 62
     6
100
AcDbLine
 10
2407.000000000316
 20
919.4999999999
 30
0.0
 11
2407.000000000316
 21
1089.5
 31
0.0
  0
LINE
  5
18C
330
1F
100
AcDbEntity
  8
化粧台
  6
EXLTYPE2
 62
     6
100
AcDbLine
 10
2375.000000000316
 20
919.4999999999
 30
0.0
 11
2375.000000000316
 21
1089.5
 31
0.0
  0
LINE
  5
18D
330
1F
100
AcDbEntity
  8
化粧台
  6
CONTINUOUS
 62
     6
100
AcDbLine
 10
2486.000000000318
 20
1499.499999999953
 30
0.0
 11
2528.500005722218
 21
1499.499999999953
 31
0.0
  0
LINE
  5
18E
330
1F
100
AcDbEntity
  8
化粧台
  6
CONTINUOUS
 62
     6
100
AcDbLine
 10
2491.000005722322
 20
1501.49999999996
 30
0.0
 11
2523.500005722322
 21
1499.499999999958
 31
0.0
  0
LINE
  5
18F
330
1F
100
AcDbEntity
  8
化粧台
  6
CONTINUOUS
 62
     6
100
AcDbLine
 10
2523.500005722322
 20
1499.499999999958
 30
0.0
 11
2491.000005722322
 21
1497.49999999996
 31
0.0
  0
LINE
  5
190
330
1F
100
AcDbEntity
  8
化粧台
  6
EXLTYPE2
 62
     6
100
AcDbLine
 10
2332.500000000314
 20
1179.5
 30
0.0
 11
2062.500000000316
 21
1179.5
 31
0.0
  0
LINE
  5
191
330
1F
100
AcDbEntity
  8
化粧台
  6
EXLTYPE2
 62
     6
100
AcDbLine
 10
2332.500000000314
 20
1039.5
 30
0.0
 11
2062.500000000316
 21
1039.5
 31
0.0
  0
LINE
  5
192
330
1F
100
AcDbEntity
  8
化粧台
  6
EXLTYPE2
 62
     6
100
AcDbLine
 10
2332.500000000314
 20
1179.5
 30
0.0
 11
2332.500000000314
 21
1039.5
 31
0.0
  0
LINE
  5
193
330
1F
100
AcDbEntity
  8
化粧台
  6
EXLTYPE2
 62
     6
100
AcDbLine
 10
2332.500000000314
 20
1509.5
 30
0.0
 11
2062.500000000316
 21
1509.5
 31
0.0
  0
LINE
  5
194
330
1F
100
AcDbEntity
  8
化粧台
  6
EXLTYPE2
 62
     6
100
AcDbLine
 10
2332.500000000314
 20
1434.5
 30
0.0
 11
2062.500000000316
 21
1434.5
 31
0.0
  0
LINE
  5
195
330
1F
100
AcDbEntity
  8
化粧台
  6
EXLTYPE2
 62
     6
100
AcDbLine
 10
2332.500000000314
 20
1509.5
 30
0.0
 11
2332.500000000314
 21
1434.5
 31
0.0
  0
LINE
  5
196
330
1F
100
AcDbEntity
  8
化粧台
  6
CONTINUOUS
 62
     6
100
AcDbLine
 10
2062.500000000316
 20
1370.5
 30
0.0
 11
2063.000000000316
 21
1370.5
 31
0.0
  0
ARC
  5
197
330
1F
100
AcDbEntity
  8
化粧台
  6
CONTINUOUS
 62
     6
100
AcDbCircle
 10
2063.000000000316
 20
1371.5
 30
0.0
 40
1.0
100
AcDbArc
 50
269.999999999987
 51
0.0
  0
LINE
  5
198
330
1F
100
AcDbEntity
  8
化粧台
  6
CONTINUOUS
 62
     6
100
AcDbLine
 10
2064.000000000316
 20
1412.5
 30
0.0
 11
2064.000000000316
 21
1371.5
 31
0.0
  0
ARC
  5
199
330
1F
100
AcDbEntity
  8
化粧台
  6
CONTINUOUS
 62
     6
100
AcDbCircle
 10
2061.000000000316
 20
1412.5
 30
0.0
 40
3.000000000000003
100
AcDbArc
 50
0.0
 51
90.00000000000001
  0
LINE
  5
19A
330
1F
100
AcDbEntity
  8
化粧台
  6
CONTINUOUS
 62
     6
100
AcDbLine
 10
2044.500000000322
 20
1385.499999999995
 30
0.0
 11
2062.500000000318
 21
1385.499999999995
 31
0.0
  0
ARC
  5
19B
330
1F
100
AcDbEntity
  8
化粧台
  6
CONTINUOUS
 62
     6
100
AcDbCircle
 10
2061.15000000031
 20
1412.450000000008
 30
0.0
 40
1.0
100
AcDbArc
 50
0.0
 51
90.00000000000001
  0
ARC
  5
19C
330
1F
100
AcDbEntity
  8
化粧台
  6
CONTINUOUS
 62
     6
100
AcDbCircle
 10
2044.750000000316
 20
1407.25
 30
0.0
 40
1.750000000000001
100
AcDbArc
 50
170.7449623899685
 51
68.7663136548995
  0
ARC
  5
19D
330
1F
100
AcDbEntity
  8
化粧台
  6
CONTINUOUS
 62
     6
100
AcDbCircle
 10
2057.827514545111
 20
1405.119011184754
 30
0.0
 40
13.00000000000001
100
AcDbArc
 50
142.344253969435
 51
163.1780394406755
  0
ARC
  5
19E
330
1F
100
AcDbEntity
  8
化粧台
  6
CONTINUOUS
 62
     6
100
AcDbCircle
 10
2048.327167025647
 20
1412.450000000008
 30
0.0
 40
1.0
100
AcDbArc
 50
90.00000000000001
 51
142.3442539694352
  0
ARC
  5
19F
330
1F
100
AcDbEntity
  8
化粧台
  6
CONTINUOUS
 62
     6
100
AcDbCircle
 10
2057.827514545111
 20
1405.119011184754
 30
0.0
 40
15.00000000000001
100
AcDbArc
 50
142.0420920441203
 51
170.7449623899722
  0
ARC
  5
1A0
330
1F
100
AcDbEntity
  8
化粧台
  6
CONTINUOUS
 62
     6
100
AcDbCircle
 10
2048.365960544357
 20
1412.5
 30
0.0
 40
3.000000000000003
100
AcDbArc
 50
90.00000000000001
 51
142.0420920441179
  0
LINE
  5
1A1
330
1F
100
AcDbEntity
  8
化粧台
  6
CONTINUOUS
 62
     6
100
AcDbLine
 10
2048.365960544317
 20
1415.5
 30
0.0
 11
2061.000000000316
 21
1415.5
 31
0.0
  0
LINE
  5
1A2
330
1F
100
AcDbEntity
  8
化粧台
  6
CONTINUOUS
 62
     6
100
AcDbLine
 10
2048.327167025616
 20
1413.450000000008
 30
0.0
 11
2061.15000000031
 21
1413.450000000008
 31
0.0
  0
LINE
  5
1A3
330
1F
100
AcDbEntity
  8
化粧台
  6
CONTINUOUS
 62
     6
100
AcDbLine
 10
2062.15000000031
 20
1412.449999999999
 30
0.0
 11
2062.15000000031
 21
1396.060271065815
 31
0.0
  0
LINE
  5
1A4
330
1F
100
AcDbEntity
  8
化粧台
  6
CONTINUOUS
 62
     6
100
AcDbLine
 10
2043.95025261993
 20
1387.54231369542
 30
0.0
 11
2054.547979043405
 21
1388.070176405472
 31
0.0
  0
ARC
  5
1A5
330
1F
100
AcDbEntity
  8
化粧台
  6
CONTINUOUS
 62
     6
100
AcDbCircle
 10
2054.15000000031
 20
1396.060271065815
 30
0.0
 40
8.0
100
AcDbArc
 50
272.8514919099882
 51
0.0
  0
ARC
  5
1A6
330
1F
100
AcDbEntity
  8
化粧台
  6
CONTINUOUS
 62
     6
100
AcDbCircle
 10
2044.000000000316
 20
1386.543551862876
 30
0.0
 40
1.0
100
AcDbArc
 50
92.8514919099879
 51
180.0
  0
ARC
  5
1A7
330
1F
100
AcDbEntity
  8
化粧台
  6
CONTINUOUS
 62
     6
100
AcDbCircle
 10
2044.000000000316
 20
1384.5
 30
0.0
 40
1.0
100
AcDbArc
 50
180.0
 51
270.000000000026
  0
LINE
  5
1A8
330
1F
100
AcDbEntity
  8
化粧台
  6
CONTINUOUS
 62
     6
100
AcDbLine
 10
2044.500000000316
 20
1383.5
 30
0.0
 11
2044.000000000316
 21
1383.5
 31
0.0
  0
LINE
  5
1A9
330
1F
100
AcDbEntity
  8
化粧台
  6
CONTINUOUS
 62
     6
100
AcDbLine
 10
2043.000000000316
 20
1386.543551862876
 30
0.0
 11
2043.000000000316
 21
1384.5
 31
0.0
  0
LINE
  5
1AA
330
1F
100
AcDbEntity
  8
化粧台
  6
CONTINUOUS
 62
     6
100
AcDbLine
 10
2044.500000000316
 20
1385.499999999995
 30
0.0
 11
2044.500000000316
 21
1383.5
 31
0.0
  0
LINE
  5
1AB
330
1F
100
AcDbEntity
  8
化粧台
  6
CONTINUOUS
 62
     2
100
AcDbLine
 10
2045.500000000316
 20
1009.5
 30
0.0
 11
2045.500000000316
 21
1385.499999999995
 31
0.0
  0
LINE
  5
1AC
330
1F
100
AcDbEntity
  8
化粧台
  6
CONTINUOUS
 62
     2
100
AcDbLine
 10
2062.500000000316
 20
1009.5
 30
0.0
 11
2062.500000000316
 21
1385.499999999995
 31
0.0
  0
LINE
  5
1AD
330
1F
100
AcDbEntity
  8
化粧台
  6
CONTINUOUS
 62
     2
100
AcDbLine
 10
2045.500000000316
 20
1009.5
 30
0.0
 11
2062.500000000316
 21
1009.5
 31
0.0
  0
ARC
  5
1AE
330
1F
100
AcDbEntity
  8
化粧台
  6
CONTINUOUS
 62
     6
100
AcDbCircle
 10
2063.000000000316
 20
1550.5
 30
0.0
 40
1.0
100
AcDbArc
 50
269.999999999987
 51
0.0
  0
LINE
  5
1AF
330
1F
100
AcDbEntity
  8
化粧台
  6
CONTINUOUS
 62
     6
100
AcDbLine
 10
2064.000000000316
 20
1591.5
 30
0.0
 11
2064.000000000316
 21
1550.5
 31
0.0
  0
ARC
  5
1B0
330
1F
100
AcDbEntity
  8
化粧台
  6
CONTINUOUS
 62
     6
100
AcDbCircle
 10
2061.000000000316
 20
1591.5
 30
0.0
 40
3.000000000000003
100
AcDbArc
 50
0.0
 51
90.00000000000001
  0
LINE
  5
1B1
330
1F
100
AcDbEntity
  8
化粧台
  6
CONTINUOUS
 62
     2
100
AcDbLine
 10
2045.500000000316
 20
1419.5
 30
0.0
 11
2062.500000000316
 21
1419.5
 31
0.0
  0
LINE
  5
1B2
330
1F
100
AcDbEntity
  8
化粧台
  6
CONTINUOUS
 62
     2
100
AcDbLine
 10
2045.500000000316
 20
1419.5
 30
0.0
 11
2045.500000000316
 21
1564.5
 31
0.0
  0
LINE
  5
1B3
330
1F
100
AcDbEntity
  8
化粧台
  6
CONTINUOUS
 62
     2
100
AcDbLine
 10
2062.500000000316
 20
1419.5
 30
0.0
 11
2062.500000000316
 21
1564.5
 31
0.0
  0
LINE
  5
1B4
330
1F
100
AcDbEntity
  8
化粧台
  6
CONTINUOUS
 62
     6
100
AcDbLine
 10
2044.500000000322
 20
1564.499999999995
 30
0.0
 11
2062.500000000318
 21
1564.499999999995
 31
0.0
  0
ARC
  5
1B5
330
1F
100
AcDbEntity
  8
化粧台
  6
CONTINUOUS
 62
     6
100
AcDbCircle
 10
2061.15000000031
 20
1591.450000000008
 30
0.0
 40
1.0
100
AcDbArc
 50
0.0
 51
90.00000000000001
  0
ARC
  5
1B6
330
1F
100
AcDbEntity
  8
化粧台
  6
CONTINUOUS
 62
     6
100
AcDbCircle
 10
2044.750000000316
 20
1586.25
 30
0.0
 40
1.750000000000001
100
AcDbArc
 50
170.7449623899685
 51
68.7663136548995
  0
ARC
  5
1B7
330
1F
100
AcDbEntity
  8
化粧台
  6
CONTINUOUS
 62
     6
100
AcDbCircle
 10
2057.827514545111
 20
1584.119011184754
 30
0.0
 40
13.00000000000001
100
AcDbArc
 50
142.344253969435
 51
163.1780394406755
  0
ARC
  5
1B8
330
1F
100
AcDbEntity
  8
化粧台
  6
CONTINUOUS
 62
     6
100
AcDbCircle
 10
2048.327167025647
 20
1591.450000000008
 30
0.0
 40
1.0
100
AcDbArc
 50
90.00000000000001
 51
142.3442539694352
  0
ARC
  5
1B9
330
1F
100
AcDbEntity
  8
化粧台
  6
CONTINUOUS
 62
     6
100
AcDbCircle
 10
2057.827514545111
 20
1584.119011184754
 30
0.0
 40
15.00000000000001
100
AcDbArc
 50
142.0420920441203
 51
170.7449623899722
  0
ARC
  5
1BA
330
1F
100
AcDbEntity
  8
化粧台
  6
CONTINUOUS
 62
     6
100
AcDbCircle
 10
2048.365960544357
 20
1591.5
 30
0.0
 40
3.000000000000003
100
AcDbArc
 50
90.00000000000001
 51
142.0420920441179
  0
LINE
  5
1BB
330
1F
100
AcDbEntity
  8
化粧台
  6
CONTINUOUS
 62
     6
100
AcDbLine
 10
2048.365960544317
 20
1594.5
 30
0.0
 11
2061.000000000316
 21
1594.5
 31
0.0
  0
LINE
  5
1BC
330
1F
100
AcDbEntity
  8
化粧台
  6
CONTINUOUS
 62
     6
100
AcDbLine
 10
2048.327167025616
 20
1592.45000000001
 30
0.0
 11
2061.15000000031
 21
1592.45000000001
 31
0.0
  0
LINE
  5
1BD
330
1F
100
AcDbEntity
  8
化粧台
  6
CONTINUOUS
 62
     6
100
AcDbLine
 10
2062.15000000031
 20
1591.449999999999
 30
0.0
 11
2062.15000000031
 21
1575.060271065815
 31
0.0
  0
LINE
  5
1BE
330
1F
100
AcDbEntity
  8
化粧台
  6
CONTINUOUS
 62
     6
100
AcDbLine
 10
2043.95025261993
 20
1566.54231369542
 30
0.0
 11
2054.547979043405
 21
1567.070176405472
 31
0.0
  0
ARC
  5
1BF
330
1F
100
AcDbEntity
  8
化粧台
  6
CONTINUOUS
 62
     6
100
AcDbCircle
 10
2054.15000000031
 20
1575.060271065815
 30
0.0
 40
8.0
100
AcDbArc
 50
272.8514919099882
 51
0.0
  0
ARC
  5
1C0
330
1F
100
AcDbEntity
  8
化粧台
  6
CONTINUOUS
 62
     6
100
AcDbCircle
 10
2044.000000000316
 20
1565.543551862876
 30
0.0
 40
1.0
100
AcDbArc
 50
92.8514919099879
 51
180.0
  0
LINE
  5
1C1
330
1F
100
AcDbEntity
  8
化粧台
  6
CONTINUOUS
 62
     6
100
AcDbLine
 10
2062.500000000316
 20
1549.5
 30
0.0
 11
2063.000000000316
 21
1549.5
 31
0.0
  0
ARC
  5
1C2
330
1F
100
AcDbEntity
  8
化粧台
  6
CONTINUOUS
 62
     6
100
AcDbCircle
 10
2044.000000000316
 20
1563.5
 30
0.0
 40
1.0
100
AcDbArc
 50
180.0
 51
270.000000000026
  0
LINE
  5
1C3
330
1F
100
AcDbEntity
  8
化粧台
  6
CONTINUOUS
 62
     6
100
AcDbLine
 10
2044.500000000316
 20
1562.5
 30
0.0
 11
2044.000000000316
 21
1562.5
 31
0.0
  0
LINE
  5
1C4
330
1F
100
AcDbEntity
  8
化粧台
  6
CONTINUOUS
 62
     6
100
AcDbLine
 10
2043.000000000316
 20
1565.543551862876
 30
0.0
 11
2043.000000000316
 21
1563.5
 31
0.0
  0
LINE
  5
1C5
330
1F
100
AcDbEntity
  8
化粧台
  6
CONTINUOUS
 62
     6
100
AcDbLine
 10
2044.500000000316
 20
1564.499999999995
 30
0.0
 11
2044.500000000316
 21
1562.5
 31
0.0
  0
LINE
  5
1C6
330
1F
100
AcDbEntity
  8
化粧台
  6
CONTINUOUS
 62
     2
100
AcDbLine
 10
2066.000000000316
 20
919.5
 30
0.0
 11
2066.000000000316
 21
1599.5
 31
0.0
  0
LINE
  5
1C7
330
1F
100
AcDbEntity
  8
化粧台
  6
CONTINUOUS
 62
     2
100
AcDbLine
 10
1217.000000000318
 20
919.4999999999
 30
0.0
 11
1217.000000000318
 21
869.49999999988
 31
0.0
  0
LINE
  5
1C8
330
1F
100
AcDbEntity
  8
化粧台
  6
CONTINUOUS
 62
     2
100
AcDbLine
 10
1217.000000000318
 20
869.49999999988
 30
0.0
 11
1185.000000000318
 21
869.49999999988
 31
0.0
  0
LINE
  5
1C9
330
1F
100
AcDbEntity
  8
化粧台
  6
CONTINUOUS
 62
     2
100
AcDbLine
 10
1185.000000000318
 20
919.4999999999
 30
0.0
 11
1185.000000000318
 21
869.49999999988
 31
0.0
  0
LINE
  5
1CA
330
1F
100
AcDbEntity
  8
化粧台
  6
CONTINUOUS
 62
     6
100
AcDbLine
 10
1223.800000000319
 20
981.5000000000001
 30
0.0
 11
1223.800000000319
 21
963.7000000000007
 31
0.0
  0
LINE
  5
1CB
330
1F
100
AcDbEntity
  8
化粧台
  6
CONTINUOUS
 62
     6
100
AcDbLine
 10
1178.200000000319
 20
981.5000000000001
 30
0.0
 11
1178.200000000319
 21
963.7000000000007
 31
0.0
  0
ARC
  5
1CC
330
1F
100
AcDbEntity
  8
化粧台
  6
EXLTYPE2
 62
     6
100
AcDbCircle
 10
1170.500000000322
 20
943.5
 30
0.0
 40
3.000000000000003
100
AcDbArc
 50
90.00000000000001
 51
180.0
  0
LINE
  5
1CD
330
1F
100
AcDbEntity
  8
化粧台
  6
EXLTYPE2
 62
     6
100
AcDbLine
 10
1170.500000000322
 20
946.5
 30
0.0
 11
1231.500000000322
 21
946.5
 31
0.0
  0
LINE
  5
1CE
330
1F
100
AcDbEntity
  8
化粧台
  6
EXLTYPE2
 62
     6
100
AcDbLine
 10
1167.50000000032
 20
943.5
 30
0.0
 11
1167.50000000032
 21
923.5
 31
0.0
  0
ARC
  5
1CF
330
1F
100
AcDbEntity
  8
化粧台
  6
EXLTYPE2
 62
     6
100
AcDbCircle
 10
1177.000000000322
 20
958.5
 30
0.0
 40
3.000000000000003
100
AcDbArc
 50
90.00000000000001
 51
180.0
  0
LINE
  5
1D0
330
1F
100
AcDbEntity
  8
化粧台
  6
EXLTYPE2
 62
     6
100
AcDbLine
 10
1177.000000000322
 20
961.4999999999999
 30
0.0
 11
1225.000000000322
 21
961.4999999999999
 31
0.0
  0
LINE
  5
1D1
330
1F
100
AcDbEntity
  8
化粧台
  6
EXLTYPE2
 62
     6
100
AcDbLine
 10
1174.000000000322
 20
958.5
 30
0.0
 11
1174.000000000322
 21
946.5
 31
0.0
  0
ARC
  5
1D2
330
1F
100
AcDbEntity
  8
化粧台
  6
EXLTYPE2
 62
     6
100
AcDbCircle
 10
1225.000000000322
 20
958.5
 30
0.0
 40
3.000000000000003
100
AcDbArc
 50
0.0
 51
90.00000000000001
  0
LINE
  5
1D3
330
1F
100
AcDbEntity
  8
化粧台
  6
EXLTYPE2
 62
     6
100
AcDbLine
 10
1228.000000000322
 20
958.5
 30
0.0
 11
1228.000000000322
 21
946.5
 31
0.0
  0
ARC
  5
1D4
330
1F
100
AcDbEntity
  8
化粧台
  6
EXLTYPE2
 62
     6
100
AcDbCircle
 10
1231.500000000322
 20
943.5
 30
0.0
 40
3.000000000000003
100
AcDbArc
 50
0.0
 51
90.00000000000001
  0
LINE
  5
1D5
330
1F
100
AcDbEntity
  8
化粧台
  6
EXLTYPE2
 62
     6
100
AcDbLine
 10
1234.500000000322
 20
943.5
 30
0.0
 11
1234.500000000322
 21
923.5
 31
0.0
  0
LINE
  5
1D6
330
1F
100
AcDbEntity
  8
化粧台
  6
EXLTYPE2
 62
     6
100
AcDbLine
 10
1167.50000000032
 20
923.5
 30
0.0
 11
1234.500000000322
 21
923.5
 31
0.0
  0
LINE
  5
1D7
330
1F
100
AcDbEntity
  8
化粧台
  6
EXLTYPE2
 62
     6
100
AcDbLine
 10
1178.200000000319
 20
981.5000000000001
 30
0.0
 11
1223.800000000319
 21
981.5000000000001
 31
0.0
  0
LINE
  5
1D8
330
1F
100
AcDbEntity
  8
化粧台
  6
EXLTYPE2
 62
     6
100
AcDbLine
 10
1178.200000000319
 20
963.7000000000007
 30
0.0
 11
1223.800000000319
 21
963.7000000000007
 31
0.0
  0
LINE
  5
1D9
330
1F
100
AcDbEntity
  8
化粧台
  6
EXLTYPE3
 62
     6
100
AcDbLine
 10
1201.000000000318
 20
1104.5
 30
0.0
 11
1201.000000000318
 21
854.49999999988
 31
0.0
  0
LINE
  5
1DA
330
1F
100
AcDbEntity
  8
化粧台
  6
EXLTYPE3
 62
     6
100
AcDbLine
 10
1126.000000000318
 20
1084.5
 30
0.0
 11
1126.000000000318
 21
896.5
 31
0.0
  0
LINE
  5
1DB
330
1F
100
AcDbEntity
  8
化粧台
  6
EXLTYPE3
 62
     6
100
AcDbLine
 10
796.0000000003196
 20
1084.5
 30
0.0
 11
796.0000000003196
 21
896.5
 31
0.0
  0
LINE
  5
1DC
330
1F
100
AcDbEntity
  8
化粧台
  6
EXLTYPE2
 62
     6
100
AcDbLine
 10
1217.000000000318
 20
919.4999999999
 30
0.0
 11
1217.000000000318
 21
1089.5
 31
0.0
  0
LINE
  5
1DD
330
1F
100
AcDbEntity
  8
化粧台
  6
EXLTYPE2
 62
     6
100
AcDbLine
 10
1185.000000000318
 20
919.4999999999
 30
0.0
 11
1185.000000000318
 21
1089.5
 31
0.0
  0
LINE
  5
1DE
330
1F
100
AcDbEntity
  8
化粧台
  6
EXLTYPE4
 62
     6
100
AcDbLine
 10
1136.500000000318
 20
919.5
 30
0.0
 11
1136.500000000318
 21
1069.5
 31
0.0
  0
LINE
  5
1DF
330
1F
100
AcDbEntity
  8
化粧台
  6
EXLTYPE4
 62
     6
100
AcDbLine
 10
1115.500000000318
 20
919.5
 30
0.0
 11
1115.500000000318
 21
1069.5
 31
0.0
  0
LINE
  5
1E0
330
1F
100
AcDbEntity
  8
化粧台
  6
EXLTYPE4
 62
     6
100
AcDbLine
 10
806.5000000003196
 20
919.5
 30
0.0
 11
806.5000000003196
 21
1069.5
 31
0.0
  0
LINE
  5
1E1
330
1F
100
AcDbEntity
  8
化粧台
  6
EXLTYPE4
 62
     6
100
AcDbLine
 10
785.5000000003196
 20
919.5
 30
0.0
 11
785.5000000003196
 21
1069.5
 31
0.0
  0
LINE
  5
1E2
330
1F
100
AcDbEntity
  8
化粧台
  6
CONTINUOUS
 62
     6
100
AcDbLine
 10
1406.00000000032
 20
1383.5
 30
0.0
 11
516.0000000003233
 21
1383.5
 31
0.0
  0
LINE
  5
1E3
330
1F
100
AcDbEntity
  8
化粧台
  6
CONTINUOUS
 62
     6
100
AcDbLine
 10
1406.00000000032
 20
1387.5423136954
 30
0.0
 11
516.0000000003233
 21
1387.5423136954
 31
0.0
  0
LINE
  5
1E4
330
1F
100
AcDbEntity
  8
化粧台
  6
CONTINUOUS
 62
     2
100
AcDbLine
 10
1406.000000000316
 20
1419.5
 30
0.0
 11
516.0000000003197
 21
1419.5
 31
0.0
  0
LINE
  5
1E5
330
1F
100
AcDbEntity
  8
化粧台
  6
CONTINUOUS
 62
     6
100
AcDbLine
 10
1406.00000000032
 20
1415.5
 30
0.0
 11
516.0000000003233
 21
1415.5
 31
0.0
  0
LINE
  5
1E6
330
1F
100
AcDbEntity
  8
化粧台
  6
CONTINUOUS
 62
     6
100
AcDbLine
 10
1406.00000000032
 20
1405.5
 30
0.0
 11
516.0000000003233
 21
1405.5
 31
0.0
  0
LINE
  5
1E7
330
1F
100
AcDbEntity
  8
化粧台
  6
CONTINUOUS
 62
     6
100
AcDbLine
 10
1406.00000000032
 20
1562.5
 30
0.0
 11
516.0000000003233
 21
1562.5
 31
0.0
  0
LINE
  5
1E8
330
1F
100
AcDbEntity
  8
化粧台
  6
CONTINUOUS
 62
     6
100
AcDbLine
 10
1406.00000000032
 20
1566.542313695401
 30
0.0
 11
516.0000000003233
 21
1566.542313695401
 31
0.0
  0
LINE
  5
1E9
330
1F
100
AcDbEntity
  8
化粧台
  6
CONTINUOUS
 62
     2
100
AcDbLine
 10
1406.000000000316
 20
1009.5
 30
0.0
 11
516.0000000003197
 21
1009.5
 31
0.0
  0
LINE
  5
1EA
330
1F
100
AcDbEntity
  8
化粧台
  6
CONTINUOUS
 62
     6
100
AcDbLine
 10
1406.00000000032
 20
1594.5
 30
0.0
 11
516.0000000003233
 21
1594.5
 31
0.0
  0
LINE
  5
1EB
330
1F
100
AcDbEntity
  8
化粧台
  6
CONTINUOUS
 62
     6
100
AcDbLine
 10
1406.00000000032
 20
1584.5
 30
0.0
 11
516.0000000003233
 21
1584.5
 31
0.0
  0
LINE
  5
1EC
330
1F
100
AcDbEntity
  8
化粧台
  6
CONTINUOUS
 62
     2
100
AcDbLine
 10
1411.000000000316
 20
1599.5
 30
0.0
 11
511.0000000003196
 21
1599.5
 31
0.0
  0
CIRCLE
  5
1ED
330
1F
100
AcDbEntity
  8
化粧台
  6
CONTINUOUS
 62
     6
100
AcDbCircle
 10
1290.999999997717
 20
1499.500000000098
 30
0.0
 40
3.800000000000001
  0
LINE
  5
1EE
330
1F
100
AcDbEntity
  8
化粧台
  6
CONTINUOUS
 62
     6
100
AcDbLine
 10
1291.000000000296
 20
1489.5
 30
0.0
 11
1291.000000000296
 21
1509.50000000004
 31
0.0
  0
LINE
  5
1EF
330
1F
100
AcDbEntity
  8
化粧台
  6
CONTINUOUS
 62
     6
100
AcDbLine
 10
1281.000000000296
 20
1499.500000000038
 30
0.0
 11
1301.000000000296
 21
1499.500000000038
 31
0.0
  0
LINE
  5
1F0
330
1F
100
AcDbEntity
  8
化粧台
  6
CONTINUOUS
 62
     2
100
AcDbLine
 10
1379.000000000316
 20
919.5
 30
0.0
 11
1379.000000000316
 21
1009.5
 31
0.0
  0
LINE
  5
1F1
330
1F
100
AcDbEntity
  8
化粧台
  6
CONTINUOUS
 62
     2
100
AcDbLine
 10
1406.000000000316
 20
1383.5
 30
0.0
 11
1406.000000000316
 21
1009.5
 31
0.0
  0
LINE
  5
1F2
330
1F
100
AcDbEntity
  8
化粧台
  6
CONTINUOUS
 62
     6
100
AcDbLine
 10
1406.00000000032
 20
1415.5
 30
0.0
 11
1406.00000000032
 21
1383.5
 31
0.0
  0
LINE
  5
1F3
330
1F
100
AcDbEntity
  8
化粧台
  6
CONTINUOUS
 62
     2
100
AcDbLine
 10
1406.000000000316
 20
1562.5
 30
0.0
 11
1406.000000000316
 21
1419.5
 31
0.0
  0
LINE
  5
1F4
330
1F
100
AcDbEntity
  8
化粧台
  6
CONTINUOUS
 62
     6
100
AcDbLine
 10
1406.00000000032
 20
1594.5
 30
0.0
 11
1406.00000000032
 21
1562.5
 31
0.0
  0
LINE
  5
1F5
330
1F
100
AcDbEntity
  8
化粧台
  6
CONTINUOUS
 62
     2
100
AcDbLine
 10
1409.000000000316
 20
919.5
 30
0.0
 11
1409.000000000316
 21
1599.5
 31
0.0
  0
LINE
  5
1F6
330
1F
100
AcDbEntity
  8
化粧台
  6
CONTINUOUS
 62
     2
100
AcDbLine
 10
1394.000000000316
 20
919.5
 30
0.0
 11
1394.000000000316
 21
1009.5
 31
0.0
  0
CIRCLE
  5
1F7
330
1F
100
AcDbEntity
  8
化粧台
  6
CONTINUOUS
 62
     6
100
AcDbCircle
 10
630.9999999977185
 20
1499.500000000098
 30
0.0
 40
3.800000000000001
  0
LINE
  5
1F8
330
1F
100
AcDbEntity
  8
化粧台
  6
CONTINUOUS
 62
     6
100
AcDbLine
 10
631.0000000002997
 20
1489.5
 30
0.0
 11
631.0000000002997
 21
1509.50000000004
 31
0.0
  0
LINE
  5
1F9
330
1F
100
AcDbEntity
  8
化粧台
  6
CONTINUOUS
 62
     6
100
AcDbLine
 10
621.0000000002979
 20
1499.500000000038
 30
0.0
 11
641.0000000002979
 21
1499.500000000038
 31
0.0
  0
LINE
  5
1FA
330
1F
100
AcDbEntity
  8
化粧台
  6
CONTINUOUS
 62
     2
100
AcDbLine
 10
543.0000000003197
 20
919.5
 30
0.0
 11
543.0000000003197
 21
1009.5
 31
0.0
  0
LINE
  5
1FB
330
1F
100
AcDbEntity
  8
化粧台
  6
CONTINUOUS
 62
     2
100
AcDbLine
 10
516.0000000003197
 20
1383.5
 30
0.0
 11
516.0000000003197
 21
1009.5
 31
0.0
  0
LINE
  5
1FC
330
1F
100
AcDbEntity
  8
化粧台
  6
CONTINUOUS
 62
     6
100
AcDbLine
 10
516.0000000003233
 20
1415.5
 30
0.0
 11
516.0000000003233
 21
1383.5
 31
0.0
  0
LINE
  5
1FD
330
1F
100
AcDbEntity
  8
化粧台
  6
CONTINUOUS
 62
     2
100
AcDbLine
 10
516.0000000003197
 20
1562.5
 30
0.0
 11
516.0000000003197
 21
1419.5
 31
0.0
  0
LINE
  5
1FE
330
1F
100
AcDbEntity
  8
化粧台
  6
CONTINUOUS
 62
     6
100
AcDbLine
 10
516.0000000003233
 20
1594.5
 30
0.0
 11
516.0000000003233
 21
1562.5
 31
0.0
  0
LINE
  5
1FF
330
1F
100
AcDbEntity
  8
化粧台
  6
CONTINUOUS
 62
     2
100
AcDbLine
 10
513.0000000003197
 20
919.5
 30
0.0
 11
513.0000000003197
 21
1599.5
 31
0.0
  0
LINE
  5
200
330
1F
100
AcDbEntity
  8
化粧台
  6
CONTINUOUS
 62
     2
100
AcDbLine
 10
528.0000000003197
 20
919.5
 30
0.0
 11
528.0000000003197
 21
1009.5
 31
0.0
  0
LINE
  5
201
330
1F
100
AcDbEntity
  8
化粧台
  6
CONTINUOUS
 62
     6
100
AcDbLine
 10
806.5000000003378
 20
919.5
 30
0.0
 11
806.5000000003378
 21
911.5
 31
0.0
  0
LINE
  5
202
330
1F
100
AcDbEntity
  8
化粧台
  6
CONTINUOUS
 62
     6
100
AcDbLine
 10
785.5000000003305
 20
919.5
 30
0.0
 11
785.5000000003305
 21
911.5
 31
0.0
  0
LINE
  5
203
330
1F
100
AcDbEntity
  8
化粧台
  6
CONTINUOUS
 62
     6
100
AcDbLine
 10
806.5000000003196
 20
911.5
 30
0.0
 11
785.5000000003305
 21
911.5
 31
0.0
  0
LINE
  5
204
330
1F
100
AcDbEntity
  8
化粧台
  6
CONTINUOUS
 62
     6
100
AcDbLine
 10
1115.500000000301
 20
919.5
 30
0.0
 11
1115.500000000301
 21
911.5
 31
0.0
  0
LINE
  5
205
330
1F
100
AcDbEntity
  8
化粧台
  6
CONTINUOUS
 62
     6
100
AcDbLine
 10
1136.500000000309
 20
919.5
 30
0.0
 11
1136.500000000309
 21
911.5
 31
0.0
  0
LINE
  5
206
330
1F
100
AcDbEntity
  8
化粧台
  6
CONTINUOUS
 62
     6
100
AcDbLine
 10
1115.500000000318
 20
911.5
 30
0.0
 11
1136.500000000309
 21
911.5
 31
0.0
  0
LINE
  5
207
330
1F
100
AcDbEntity
  8
化粧台
  6
EXLTYPE3
 62
     6
100
AcDbLine
 10
2461.000000000316
 20
1389.499999999998
 30
0.0
 11
2556.000000000318
 21
1389.499999999998
 31
0.0
  0
LINE
  5
208
330
1F
100
AcDbEntity
  8
化粧台
  6
CONTINUOUS
 62
     6
100
AcDbLine
 10
2541.000000000318
 20
1405.499999999998
 30
0.0
 11
2541.000000000318
 21
1373.499999999998
 31
0.0
  0
LINE
  5
209
330
1F
100
AcDbEntity
  8
化粧台
  6
CONTINUOUS
 62
     6
100
AcDbLine
 10
2491.000000000318
 20
1405.499999999998
 30
0.0
 11
2541.000000000318
 21
1405.499999999998
 31
0.0
  0
LINE
  5
20A
330
1F
100
AcDbEntity
  8
化粧台
  6
CONTINUOUS
 62
     6
100
AcDbLine
 10
2491.000000000318
 20
1373.499999999998
 30
0.0
 11
2541.000000000318
 21
1373.499999999998
 31
0.0
  0
LINE
  5
20B
330
1F
100
AcDbEntity
  8
化粧台
  6
CONTINUOUS
 62
     6
100
AcDbLine
 10
2491.000000000318
 20
1368.999999999978
 30
0.0
 11
2499.000000000318
 21
1368.999999999978
 31
0.0
  0
LINE
  5
20C
330
1F
100
AcDbEntity
  8
化粧台
  6
CONTINUOUS
 62
     6
100
AcDbLine
 10
2491.000000000318
 20
1389.999999999985
 30
0.0
 11
2499.000000000318
 21
1389.999999999985
 31
0.0
  0
LINE
  5
20D
330
1F
100
AcDbEntity
  8
化粧台
  6
CONTINUOUS
 62
     6
100
AcDbLine
 10
2499.000000000318
 20
1368.999999999996
 30
0.0
 11
2499.000000000318
 21
1389.999999999985
 31
0.0
  0
LINE
  5
20E
330
1F
100
AcDbEntity
  8
化粧台
  6
EXLTYPE3
 62
     6
100
AcDbLine
 10
2461.000000000316
 20
1379.499999999998
 30
0.0
 11
2514.000000000329
 21
1379.499999999998
 31
0.0
  0
LINE
  5
20F
330
1F
100
AcDbEntity
  8
化粧台
  6
CONTINUOUS
 62
     7
100
AcDbLine
 10
1891.000000000316
 20
919.5
 30
0.0
 11
2491.000000000318
 21
919.5
 31
0.0
  0
TEXT
  5
210
330
1F
100
AcDbEntity
  8
化粧台
  6
CONTINUOUS
 62
     2
100
AcDbText
 10
355.0000000002336
 20
926.6999999999989
 30
0.0
 40
59.99999618530273
  1
Ｆ.Ｌ.
 41
0.9086538461538461
  7
EXCADSTD
 72
     5
 11
489.9999914171648
 21
926.6999999999989
 31
0.0
100
AcDbText
  0
TEXT
  5
211
330
1F
100
AcDbEntity
  8
化粧台
  6
CONTINUOUS
 62
     2
100
AcDbText
 10
1885.000000000184
 20
926.6999999999989
 30
0.0
 40
59.99999618530273
  1
Ｆ.Ｌ.
 41
0.9086538461538461
  7
EXCADSTD
 72
     5
 11
2019.999991417115
 21
926.6999999999989
 31
0.0
100
AcDbText
  0
LINE
  5
212
330
1F
100
AcDbEntity
  8
化粧台
  6
CONTINUOUS
 62
     7
100
AcDbLine
 10
361.0000000003214
 20
3825.0
 30
0.0
 11
1666.000000000316
 21
3825.0
 31
0.0
  0
TEXT
  5
213
330
1F
100
AcDbEntity
  8
化粧台
  6
CONTINUOUS
 62
     2
100
AcDbText
 10
370.0500000005432
 20
3758.000003814646
 30
0.0
 40
59.99999618530273
  1
Ｗ.Ｌ.
 41
0.9086538461538461
  7
EXCADSTD
 72
     5
 11
505.0499914174743
 21
3758.000003814646
 31
0.0
100
AcDbText
  0
TEXT
  5
214
330
1F
100
AcDbEntity
  8
化粧台
  6
CONTINUOUS
 62
     2
100
AcDbText
 10
2486.000000000265
 20
2792.15
 30
0.0
 40
59.99999618530273
  1
Ｗ.Ｌ.
 50
90.0
 41
0.9086538461538461
  7
EXCADSTD
 72
     5
 11
2486.000000000265
 21
2927.149991416931
 31
0.0
100
AcDbText
  0
LINE
  5
215
330
1F
100
AcDbEntity
  8
化粧台
  6
CONTINUOUS
 62
     7
100
AcDbLine
 10
361.0000000003196
 20
919.4999999999991
 30
0.0
 11
1743.000000000271
 21
919.4999999999991
 31
0.0
  0
LINE
  5
216
330
1F
100
AcDbEntity
  8
化粧台
  6
CONTINUOUS
 62
     2
100
AcDbLine
 10
1411.000000000316
 20
1619.499999999999
 30
0.0
 11
511.0000000003196
 21
1619.499999999999
 31
0.0
  0
LINE
  5
217
330
1F
100
AcDbEntity
  8
化粧台
  6
CONTINUOUS
 62
     2
100
AcDbLine
 10
1411.000000000316
 20
1619.499999999999
 30
0.0
 11
1411.000000000316
 21
1599.5
 31
0.0
  0
LINE
  5
218
330
1F
100
AcDbEntity
  8
化粧台
  6
CONTINUOUS
 62
     2
100
AcDbLine
 10
511.0000000003196
 20
1619.499999999999
 30
0.0
 11
511.0000000003196
 21
1599.5
 31
0.0
  0
LINE
  5
219
330
1F
100
AcDbEntity
  8
化粧台
  6
CONTINUOUS
 62
     6
100
AcDbLine
 10
862.6435055528358
 20
1780.499999999999
 30
0.0
 11
1059.35649444782
 21
1780.499999999999
 31
0.0
  0
LINE
  5
21A
330
1F
100
AcDbEntity
  8
化粧台
  6
CONTINUOUS
 62
     2
100
AcDbLine
 10
736.2834769815195
 20
1777.840358287754
 30
0.0
 11
792.0000000003305
 21
1619.499999999999
 31
0.0
  0
LINE
  5
21B
330
1F
100
AcDbEntity
  8
化粧台
  6
CONTINUOUS
 62
     2
100
AcDbLine
 10
1130.000000000329
 20
1619.499999999999
 30
0.0
 11
1185.71652301914
 21
1777.840358287754
 31
0.0
  0
ARC
  5
21C
330
1F
100
AcDbEntity
  8
化粧台
  6
CONTINUOUS
 62
     2
100
AcDbCircle
 10
741.0000000003306
 20
1779.499999999999
 30
0.0
 40
5.0
100
AcDbArc
 50
92.60390534515753
 51
199.3858598894216
  0
ARC
  5
21D
330
1F
100
AcDbEntity
  8
化粧台
  6
CONTINUOUS
 62
     2
100
AcDbCircle
 10
1181.000000000329
 20
1779.499999999999
 30
0.0
 40
5.0
100
AcDbArc
 50
340.6141401105788
 51
87.39609465484251
  0
ARC
  5
21E
330
1F
100
AcDbEntity
  8
化粧台
  6
CONTINUOUS
 62
     2
100
AcDbCircle
 10
961.0000000003306
 20
6617.000000000003
 30
0.0
 40
4837.500000000005
100
AcDbArc
 50
267.4553150987836
 51
272.5446849012167
  0
ARC
  5
21F
330
1F
100
AcDbEntity
  8
化粧台
  6
CONTINUOUS
 62
     6
100
AcDbCircle
 10
900.8350000004806
 20
1683.500000000286
 30
0.0
 40
100.0
100
AcDbArc
 50
83.99726479958528
 51
95.78779095102057
  0
ARC
  5
220
330
1F
100
AcDbEntity
  8
化粧台
  6
CONTINUOUS
 62
     6
100
AcDbCircle
 10
891.0029816636301
 20
1780.500000000174
 30
0.0
 40
2.502981663321009
100
AcDbArc
 50
95.78779095101787
 51
180.0000000040806
  0
ARC
  5
221
330
1F
100
AcDbEntity
  8
化粧台
  6
CONTINUOUS
 62
     6
100
AcDbCircle
 10
911.0347926091703
 20
1780.500000000246
 30
0.0
 40
2.465207391219374
100
AcDbArc
 50
0.0
 51
83.99726479958545
  0
LINE
  5
222
330
1F
100
AcDbEntity
  8
化粧台
  6
CONTINUOUS
 62
     6
100
AcDbLine
 10
892.6148288609778
 20
1805.424412548847
 30
0.0
 11
896.2500000003523
 21
1796.676247290651
 31
0.0
  0
ARC
  5
223
330
1F
100
AcDbEntity
  8
化粧台
  6
CONTINUOUS
 62
     6
100
AcDbCircle
 10
894.0000000003432
 20
1806.00000000065
 30
0.0
 40
1.5
100
AcDbArc
 50
89.99999999997263
 51
202.5646074934729
  0
LINE
  5
224
330
1F
100
AcDbEntity
  8
化粧台
  6
CONTINUOUS
 62
     6
100
AcDbLine
 10
909.3851711397086
 20
1805.424412548858
 30
0.0
 11
905.7500000003469
 21
1796.676247290658
 31
0.0
  0
ARC
  5
225
330
1F
100
AcDbEntity
  8
化粧台
  6
CONTINUOUS
 62
     6
100
AcDbCircle
 10
908.0000000003414
 20
1806.000000000658
 30
0.0
 40
1.5
100
AcDbArc
 50
337.4353925066304
 51
90.00000000011136
  0
LINE
  5
226
330
1F
100
AcDbEntity
  8
化粧台
  6
CONTINUOUS
 62
     6
100
AcDbLine
 10
894.0000000003414
 20
1807.50000000065
 30
0.0
 11
908.0000000003414
 21
1807.500000000658
 31
0.0
  0
ARC
  5
227
330
1F
100
AcDbEntity
  8
化粧台
  6
CONTINUOUS
 62
     6
100
AcDbCircle
 10
897.7500000003505
 20
1794.00000000065
 30
0.0
 40
1.5
100
AcDbArc
 50
180.0000000000381
 51
270.0000000001
  0
ARC
  5
228
330
1F
100
AcDbEntity
  8
化粧台
  6
CONTINUOUS
 62
     6
100
AcDbCircle
 10
904.2500000003505
 20
1794.000000000658
 30
0.0
 40
1.5
100
AcDbArc
 50
269.9999999999722
 51
0.0000000000343202
  0
LINE
  5
229
330
1F
100
AcDbEntity
  8
化粧台
  6
CONTINUOUS
 62
     6
100
AcDbLine
 10
896.2500000003505
 20
1794.00000000065
 30
0.0
 11
896.2500000003469
 21
1796.676247290658
 31
0.0
  0
LINE
  5
22A
330
1F
100
AcDbEntity
  8
化粧台
  6
CONTINUOUS
 62
     6
100
AcDbLine
 10
905.7500000003505
 20
1794.000000000658
 30
0.0
 11
905.7500000003505
 21
1796.676247290666
 31
0.0
  0
LINE
  5
22B
330
1F
100
AcDbEntity
  8
化粧台
  6
CONTINUOUS
 62
     6
100
AcDbLine
 10
904.2500000003268
 20
1792.500000000654
 30
0.0
 11
897.7500000003851
 21
1792.500000000654
 31
0.0
  0
LINE
  5
22C
330
1F
100
AcDbEntity
  8
化粧台
  6
CONTINUOUS
 62
     6
100
AcDbLine
 10
903.5000000003614
 20
1783.224782419044
 30
0.0
 11
903.5000000003578
 21
1792.500000000654
 31
0.0
  0
LINE
  5
22D
330
1F
100
AcDbEntity
  8
化粧台
  6
CONTINUOUS
 62
     6
100
AcDbLine
 10
898.5000000003632
 20
1783.38058125193
 30
0.0
 11
898.5000000003596
 21
1792.500000000654
 31
0.0
  0
ARC
  5
22E
330
1F
100
AcDbEntity
  8
化粧台
  6
CONTINUOUS
 62
     2
100
AcDbCircle
 10
961.0000000003306
 20
-3058.000000000006
 30
0.0
 40
4847.500000000005
100
AcDbArc
 50
90.73874893071417
 51
92.60390534515777
  0
ELLIPSE
  5
22F
330
1F
100
AcDbEntity
  8
化粧台
  6
CONTINUOUS
 62
     6
100
AcDbEllipse
 10
961.0000000003195
 20
1848.8838632295
 30
0.0
 11
11.50000000000001
 21
0.0
 31
0.0
210
0.0
220
0.0
230
1.0
 40
0.4226182617406996
 41
0.0
 42
6.283185307179586
  0
CIRCLE
  5
230
330
1F
100
AcDbEntity
  8
化粧台
  6
CONTINUOUS
 62
     6
100
AcDbCircle
 10
961.0000000003195
 20
1914.383863229598
 30
0.0
 40
4.0
  0
ELLIPSE
  5
231
330
1F
100
AcDbEntity
  8
化粧台
  6
CONTINUOUS
 62
     6
100
AcDbEllipse
 10
961.0000000003195
 20
1874.883863229598
 30
0.0
 11
15.00000000000001
 21
0.0
 31
0.0
210
0.0
220
0.0
230
1.0
 40
0.8660254037844385
 41
0.0
 42
6.283185307179586
  0
ELLIPSE
  5
232
330
1F
100
AcDbEntity
  8
化粧台
  6
CONTINUOUS
 62
     6
100
AcDbEllipse
 10
961.0000000003195
 20
1816.860161176
 30
0.0
 11
1.060575238719482E-15
 21
17.32050807560018
 31
0.0
210
0.0
220
0.0
230
1.0
 40
0.8660254037888688
 41
1.570796326794897
 42
4.71238898038469
  0
LINE
  5
233
330
1F
100
AcDbEntity
  8
化粧台
  6
CONTINUOUS
 62
     6
100
AcDbLine
 10
946.0000000003196
 20
1874.883863229598
 30
0.0
 11
946.0000000003196
 21
1816.860161176
 31
0.0
  0
LINE
  5
234
330
1F
100
AcDbEntity
  8
化粧台
  6
CONTINUOUS
 62
     6
100
AcDbLine
 10
976.0000000003195
 20
1874.883863229598
 30
0.0
 11
976.0000000003195
 21
1816.860161176
 31
0.0
  0
LINE
  5
235
330
1F
100
AcDbEntity
  8
化粧台
  6
CONTINUOUS
 62
     6
100
AcDbLine
 10
949.5000000003196
 20
1848.8838632295
 30
0.0
 11
949.5000000003196
 21
1857.674099298499
 31
0.0
  0
LINE
  5
236
330
1F
100
AcDbEntity
  8
化粧台
  6
CONTINUOUS
 62
     6
100
AcDbLine
 10
972.5000000003195
 20
1848.8838632295
 30
0.0
 11
972.5000000003195
 21
1857.674099298499
 31
0.0
  0
ELLIPSE
  5
237
330
1F
100
AcDbEntity
  8
化粧台
  6
CONTINUOUS
 62
     6
100
AcDbEllipse
 10
961.0000000003195
 20
1857.674099298499
 30
0.0
 11
11.50000000000001
 21
0.0
 31
0.0
210
0.0
220
0.0
230
1.0
 40
0.1739668486608696
 41
0.0
 42
3.141592653589793
  0
LINE
  5
238
330
1F
100
AcDbEntity
  8
化粧台
  6
CONTINUOUS
 62
     6
100
AcDbLine
 10
936.5000000003196
 20
1881.883863229598
 30
0.0
 11
948.3640723863022
 21
1881.883863229598
 31
0.0
  0
LINE
  5
239
330
1F
100
AcDbEntity
  8
化粧台
  6
CONTINUOUS
 62
     6
100
AcDbLine
 10
973.6359276143351
 20
1881.883863229598
 30
0.0
 11
985.5000000003196
 21
1881.883863229598
 31
0.0
  0
LINE
  5
23A
330
1F
100
AcDbEntity
  8
化粧台
  6
CONTINUOUS
 62
     6
100
AcDbLine
 10
947.1556268954549
 20
1879.883863229598
 30
0.0
 11
936.5000000003196
 21
1879.883863229598
 31
0.0
  0
LINE
  5
23B
330
1F
100
AcDbEntity
  8
化粧台
  6
CONTINUOUS
 62
     6
100
AcDbLine
 10
985.5000000003196
 20
1879.883863229598
 30
0.0
 11
974.8443731051823
 21
1879.883863229598
 31
0.0
  0
LINE
  5
23C
330
1F
100
AcDbEntity
  8
化粧台
  6
CONTINUOUS
 62
     6
100
AcDbLine
 10
936.5000000003196
 20
1921.883863229598
 30
0.0
 11
936.5000000003196
 21
1881.883863229598
 31
0.0
  0
ARC
  5
23D
330
1F
100
AcDbEntity
  8
化粧台
  6
CONTINUOUS
 62
     6
100
AcDbCircle
 10
938.5000000003196
 20
1921.883863229598
 30
0.0
 40
2.0
100
AcDbArc
 50
90.00000000000001
 51
180.0
  0
LINE
  5
23E
330
1F
100
AcDbEntity
  8
化粧台
  6
CONTINUOUS
 62
     6
100
AcDbLine
 10
985.5000000003196
 20
1921.883863229598
 30
0.0
 11
985.5000000003196
 21
1881.883863229598
 31
0.0
  0
LINE
  5
23F
330
1F
100
AcDbEntity
  8
化粧台
  6
CONTINUOUS
 62
     6
100
AcDbLine
 10
938.5000000003196
 20
1923.883863229599
 30
0.0
 11
983.5000000003195
 21
1923.883863229599
 31
0.0
  0
ARC
  5
240
330
1F
100
AcDbEntity
  8
化粧台
  6
CONTINUOUS
 62
     6
100
AcDbCircle
 10
983.5000000003195
 20
1921.883863229598
 30
0.0
 40
2.0
100
AcDbArc
 50
0.0
 51
90.00000000000001
  0
LINE
  5
241
330
1F
100
AcDbEntity
  8
化粧台
  6
CONTINUOUS
 62
     6
100
AcDbLine
 10
936.5000000003196
 20
1879.883863229598
 30
0.0
 11
936.5000000003178
 21
1779.562041741517
 31
0.0
  0
LINE
  5
242
330
1F
100
AcDbEntity
  8
化粧台
  6
CONTINUOUS
 62
     6
100
AcDbLine
 10
985.5000000003196
 20
1879.883863229598
 30
0.0
 11
985.5000000003176
 21
1779.562041741517
 31
0.0
  0
ELLIPSE
  5
243
330
1F
100
AcDbEntity
  8
化粧台
  6
CONTINUOUS
 62
     6
100
AcDbEllipse
 10
961.0000000003195
 20
1834.8838632295
 30
0.0
 11
15.00000000000001
 21
0.0
 31
0.0
210
0.0
220
0.0
230
1.0
 40
0.8660254037844385
 41
3.141592653589793
 42
6.283185307179586
  0
ARC
  5
244
330
1F
100
AcDbEntity
  8
化粧台
  6
CONTINUOUS
 62
     2
100
AcDbCircle
 10
961.0000000003306
 20
-3058.000000000006
 30
0.0
 40
4847.500000000005
100
AcDbArc
 50
90.28958278998701
 51
90.67964612359954
  0
ARC
  5
245
330
1F
100
AcDbEntity
  8
化粧台
  6
CONTINUOUS
 62
     2
100
AcDbCircle
 10
961.0000000003306
 20
-3058.000000000006
 30
0.0
 40
4847.500000000005
100
AcDbArc
 50
87.39609465484229
 51
89.71041721001328
  0
LINE
  5
246
330
1F
100
AcDbEntity
  8
化粧台
  6
EXLTYPE3
 62
     6
100
AcDbLine
 10
961.0000000003195
 20
1943.883863229598
 30
0.0
 11
961.0000000003195
 21
1311.0
 31
0.0
  0
LINE
  5
247
330
1F
100
AcDbEntity
  8
化粧台
  6
CONTINUOUS
 62
     7
100
AcDbLine
 10
2491.000000000318
 20
919.4999999999991
 30
0.0
 11
2491.000000000317
 21
2926.5
 31
0.0
  0
LINE
  5
248
330
1F
100
AcDbEntity
  8
化粧台
  6
CONTINUOUS
 62
     2
100
AcDbLine
 10
2491.000000000316
 20
1599.5
 30
0.0
 11
2041.000000000316
 21
1599.5
 31
0.0
  0
LINE
  5
249
330
1F
100
AcDbEntity
  8
化粧台
  6
CONTINUOUS
 62
     2
100
AcDbLine
 10
2491.000000000318
 20
1619.499999999948
 30
0.0
 11
2044.000000000316
 21
1619.499999999948
 31
0.0
  0
LINE
  5
24A
330
1F
100
AcDbEntity
  8
化粧台
  6
CONTINUOUS
 62
     2
100
AcDbLine
 10
2041.000000000316
 20
1616.499999999948
 30
0.0
 11
2041.000000000316
 21
1599.5
 31
0.0
  0
LINE
  5
24B
330
1F
100
AcDbEntity
  8
鏡台
  6
CONTINUOUS
 62
     2
100
AcDbLine
 10
736.0000000003301
 20
2656.3
 30
0.0
 11
736.0000000003301
 21
2116.3
 31
0.0
  0
LINE
  5
24C
330
1F
100
AcDbEntity
  8
鏡台
  6
CONTINUOUS
 62
     6
100
AcDbLine
 10
792.7500000003301
 20
2606.299999999999
 30
0.0
 11
829.2500000003301
 21
2606.299999999999
 31
0.0
  0
LINE
  5
24D
330
1F
100
AcDbEntity
  8
鏡台
  6
CONTINUOUS
 62
     6
100
AcDbLine
 10
811.0000000003301
 20
2588.05
 30
0.0
 11
811.0000000003301
 21
2624.55
 31
0.0
  0
LINE
  5
24E
330
1F
100
AcDbEntity
  8
鏡台
  6
CONTINUOUS
 62
     6
100
AcDbLine
 10
1092.75000000033
 20
2606.299999999999
 30
0.0
 11
1129.25000000033
 21
2606.299999999999
 31
0.0
  0
LINE
  5
24F
330
1F
100
AcDbEntity
  8
鏡台
  6
CONTINUOUS
 62
     6
100
AcDbLine
 10
1111.00000000033
 20
2588.05
 30
0.0
 11
1111.00000000033
 21
2624.55
 31
0.0
  0
LINE
  5
250
330
1F
100
AcDbEntity
  8
鏡台
  6
CONTINUOUS
 62
     6
100
AcDbLine
 10
1092.75000000033
 20
2166.299999999999
 30
0.0
 11
1129.25000000033
 21
2166.299999999999
 31
0.0
  0
LINE
  5
251
330
1F
100
AcDbEntity
  8
鏡台
  6
CONTINUOUS
 62
     6
100
AcDbLine
 10
1111.00000000033
 20
2148.05
 30
0.0
 11
1111.00000000033
 21
2184.55
 31
0.0
  0
LINE
  5
252
330
1F
100
AcDbEntity
  8
鏡台
  6
CONTINUOUS
 62
     6
100
AcDbLine
 10
792.7500000003301
 20
2166.299999999999
 30
0.0
 11
829.2500000003301
 21
2166.299999999999
 31
0.0
  0
LINE
  5
253
330
1F
100
AcDbEntity
  8
鏡台
  6
CONTINUOUS
 62
     6
100
AcDbLine
 10
811.0000000003301
 20
2148.05
 30
0.0
 11
811.0000000003301
 21
2184.55
 31
0.0
  0
CIRCLE
  5
254
330
1F
100
AcDbEntity
  8
鏡台
  6
EXLTYPE2
 62
     6
100
AcDbCircle
 10
811.0000000003301
 20
2166.3
 30
0.0
 40
8.25
  0
CIRCLE
  5
255
330
1F
100
AcDbEntity
  8
鏡台
  6
EXLTYPE2
 62
     6
100
AcDbCircle
 10
1111.00000000033
 20
2166.3
 30
0.0
 40
8.25
  0
LINE
  5
256
330
1F
100
AcDbEntity
  8
鏡台
  6
CONTINUOUS
 62
     2
100
AcDbLine
 10
737.5000000003301
 20
2668.3
 30
0.0
 11
737.5000000003301
 21
2104.3
 31
0.0
  0
LINE
  5
257
330
1F
100
AcDbEntity
  8
鏡台
  6
CONTINUOUS
 62
     4
100
AcDbLine
 10
739.0000000003301
 20
2669.5
 30
0.0
 11
739.0000000003301
 21
2662.5
 31
0.0
  0
ARC
  5
258
330
1F
100
AcDbEntity
  8
鏡台
  6
CONTINUOUS
 62
     4
100
AcDbCircle
 10
742.000000000331
 20
2662.5
 30
0.0
 40
3.000000000000001
100
AcDbArc
 50
180.0
 51
270.0
  0
LINE
  5
259
330
1F
100
AcDbEntity
  8
鏡台
  6
CONTINUOUS
 62
     4
100
AcDbLine
 10
1183.00000000033
 20
2669.5
 30
0.0
 11
1183.00000000033
 21
2662.5
 31
0.0
  0
ARC
  5
25A
330
1F
100
AcDbEntity
  8
鏡台
  6
CONTINUOUS
 62
     4
100
AcDbCircle
 10
1180.000000000331
 20
2662.5
 30
0.0
 40
3.000000000000001
100
AcDbArc
 50
270.0
 51
0.0
  0
LINE
  5
25B
330
1F
100
AcDbEntity
  8
鏡台
  6
CONTINUOUS
 62
     4
100
AcDbLine
 10
742.000000000331
 20
2659.5
 30
0.0
 11
1180.000000000331
 21
2659.5
 31
0.0
  0
LINE
  5
25C
330
1F
100
AcDbEntity
  8
鏡台
  6
CONTINUOUS
 62
     4
100
AcDbLine
 10
739.0000000003301
 20
2103.1
 30
0.0
 11
739.0000000003301
 21
2110.1
 31
0.0
  0
ARC
  5
25D
330
1F
100
AcDbEntity
  8
鏡台
  6
CONTINUOUS
 62
     4
100
AcDbCircle
 10
742.0000000003292
 20
2110.1
 30
0.0
 40
3.000000000000001
100
AcDbArc
 50
90.00000000000001
 51
180.0
  0
LINE
  5
25E
330
1F
100
AcDbEntity
  8
鏡台
  6
EXLTYPE3
 62
     6
100
AcDbLine
 10
1184.50000000033
 20
2668.3
 30
0.0
 11
737.5000000003301
 21
2386.3
 31
0.0
  0
LINE
  5
25F
330
1F
100
AcDbEntity
  8
鏡台
  6
CONTINUOUS
 62
     2
100
AcDbLine
 10
1184.500000000329
 20
2656.3
 30
0.0
 11
1186.00000000033
 21
2656.3
 31
0.0
  0
LINE
  5
260
330
1F
100
AcDbEntity
  8
鏡台
  6
CONTINUOUS
 62
     2
100
AcDbLine
 10
736.0000000003301
 20
2656.3
 30
0.0
 11
737.5000000003301
 21
2656.3
 31
0.0
  0
CIRCLE
  5
261
330
1F
100
AcDbEntity
  8
鏡台
  6
EXLTYPE2
 62
     6
100
AcDbCircle
 10
811.0000000003301
 20
2606.3
 30
0.0
 40
8.25
  0
CIRCLE
  5
262
330
1F
100
AcDbEntity
  8
鏡台
  6
EXLTYPE2
 62
     6
100
AcDbCircle
 10
1111.00000000033
 20
2606.3
 30
0.0
 40
8.25
  0
LINE
  5
263
330
1F
100
AcDbEntity
  8
鏡台
  6
CONTINUOUS
 62
     2
100
AcDbLine
 10
736.0000000003301
 20
2116.3
 30
0.0
 11
737.5000000003301
 21
2116.3
 31
0.0
  0
LINE
  5
264
330
1F
100
AcDbEntity
  8
鏡台
  6
CONTINUOUS
 62
     2
100
AcDbLine
 10
737.5000000003301
 20
2668.299999999999
 30
0.0
 11
739.0000000003301
 21
2668.299999999999
 31
0.0
  0
LINE
  5
265
330
1F
100
AcDbEntity
  8
鏡台
  6
CONTINUOUS
 62
     2
100
AcDbLine
 10
1183.000000000331
 20
2668.299999999999
 30
0.0
 11
1184.500000000329
 21
2668.299999999999
 31
0.0
  0
LINE
  5
266
330
1F
100
AcDbEntity
  8
鏡台
  6
CONTINUOUS
 62
     2
100
AcDbLine
 10
739.0000000003301
 20
2104.300000000001
 30
0.0
 11
737.5000000003301
 21
2104.300000000001
 31
0.0
  0
LINE
  5
267
330
1F
100
AcDbEntity
  8
鏡台
  6
CONTINUOUS
 62
     6
100
AcDbLine
 10
901.5144660943988
 20
2220.885533905902
 30
0.0
 11
888.7644660943988
 21
2208.135533905906
 31
0.0
  0
LINE
  5
268
330
1F
100
AcDbEntity
  8
鏡台
  6
CONTINUOUS
 62
     6
100
AcDbLine
 10
880.8000000003285
 20
2193.099999999974
 30
0.0
 11
913.3000000003321
 21
2225.599999999971
 31
0.0
  0
LINE
  5
269
330
1F
100
AcDbEntity
  8
鏡台
  6
CONTINUOUS
 62
     6
100
AcDbLine
 10
891.3355339062637
 20
2196.564466094037
 30
0.0
 11
906.3355339062655
 21
2211.564466094035
 31
0.0
  0
LINE
  5
26A
330
1F
100
AcDbEntity
  8
鏡台
  6
CONTINUOUS
 62
     6
100
AcDbLine
 10
932.5445334333972
 20
2577.303831421802
 30
0.0
 11
919.7945334333972
 21
2564.553831421806
 31
0.0
  0
LINE
  5
26B
330
1F
100
AcDbEntity
  8
鏡台
  6
CONTINUOUS
 62
     6
100
AcDbLine
 10
911.8300673393269
 20
2549.518297515874
 30
0.0
 11
944.3300673393305
 21
2582.018297515871
 31
0.0
  0
LINE
  5
26C
330
1F
100
AcDbEntity
  8
鏡台
  6
CONTINUOUS
 62
     6
100
AcDbLine
 10
922.365601245262
 20
2552.982763609937
 30
0.0
 11
937.3656012452639
 21
2567.982763609935
 31
0.0
  0
LINE
  5
26D
330
1F
100
AcDbEntity
  8
鏡台
  6
CONTINUOUS
 62
     6
100
AcDbLine
 10
1023.114466094398
 20
2413.985533905901
 30
0.0
 11
1010.364466094398
 21
2401.235533905905
 31
0.0
  0
LINE
  5
26E
330
1F
100
AcDbEntity
  8
鏡台
  6
CONTINUOUS
 62
     6
100
AcDbLine
 10
1002.400000000328
 20
2386.199999999973
 30
0.0
 11
1034.900000000332
 21
2418.699999999971
 31
0.0
  0
LINE
  5
26F
330
1F
100
AcDbEntity
  8
鏡台
  6
CONTINUOUS
 62
     6
100
AcDbLine
 10
1012.935533906263
 20
2389.664466094036
 30
0.0
 11
1027.935533906265
 21
2404.664466094035
 31
0.0
  0
LINE
  5
270
330
1F
100
AcDbEntity
  8
鏡台
  6
CONTINUOUS
 62
     2
100
AcDbLine
 10
1186.00000000033
 20
2656.3
 30
0.0
 11
1186.00000000033
 21
2116.3
 31
0.0
  0
LINE
  5
271
330
1F
100
AcDbEntity
  8
鏡台
  6
CONTINUOUS
 62
     4
100
AcDbLine
 10
1183.00000000033
 20
2103.1
 30
0.0
 11
739.0000000003301
 21
2103.1
 31
0.0
  0
LINE
  5
272
330
1F
100
AcDbEntity
  8
鏡台
  6
CONTINUOUS
 62
     4
100
AcDbLine
 10
1183.00000000033
 20
2103.1
 30
0.0
 11
1183.00000000033
 21
2110.1
 31
0.0
  0
ARC
  5
273
330
1F
100
AcDbEntity
  8
鏡台
  6
CONTINUOUS
 62
     4
100
AcDbCircle
 10
1180.000000000331
 20
2110.1
 30
0.0
 40
3.000000000000001
100
AcDbArc
 50
0.0
 51
90.00000000000001
  0
LINE
  5
274
330
1F
100
AcDbEntity
  8
鏡台
  6
CONTINUOUS
 62
     2
100
AcDbLine
 10
1184.500000000329
 20
2116.299999999999
 30
0.0
 11
1186.00000000033
 21
2116.299999999999
 31
0.0
  0
LINE
  5
275
330
1F
100
AcDbEntity
  8
鏡台
  6
CONTINUOUS
 62
     2
100
AcDbLine
 10
1183.000000000331
 20
2104.300000000001
 30
0.0
 11
1184.500000000329
 21
2104.300000000001
 31
0.0
  0
LINE
  5
276
330
1F
100
AcDbEntity
  8
鏡台
  6
CONTINUOUS
 62
     4
100
AcDbLine
 10
1180.000000000331
 20
2113.1
 30
0.0
 11
742.0000000003292
 21
2113.1
 31
0.0
  0
LINE
  5
277
330
1F
100
AcDbEntity
  8
鏡台
  6
EXLTYPE3
 62
     6
100
AcDbLine
 10
737.5000000003301
 20
2386.3
 30
0.0
 11
1184.500000000331
 21
2104.300000000001
 31
0.0
  0
LINE
  5
278
330
1F
100
AcDbEntity
  8
鏡台
  6
CONTINUOUS
 62
     2
100
AcDbLine
 10
1184.500000000329
 20
2668.3
 30
0.0
 11
1184.500000000329
 21
2104.300000000001
 31
0.0
  0
LINE
  5
279
330
1F
100
AcDbEntity
  8
鏡台
  6
EXLTYPE2
 62
     3
100
AcDbLine
 10
752.5000000003301
 20
2133.3
 30
0.0
 11
752.5000000003301
 21
2173.3
 31
0.0
  0
LINE
  5
27A
330
1F
100
AcDbEntity
  8
鏡台
  6
EXLTYPE2
 62
     3
100
AcDbLine
 10
752.5000000003301
 20
2133.3
 30
0.0
 11
1169.500000000329
 21
2133.3
 31
0.0
  0
LINE
  5
27B
330
1F
100
AcDbEntity
  8
鏡台
  6
EXLTYPE2
 62
     3
100
AcDbLine
 10
752.5000000003301
 20
2173.3
 30
0.0
 11
1169.500000000329
 21
2173.3
 31
0.0
  0
LINE
  5
27C
330
1F
100
AcDbEntity
  8
鏡台
  6
EXLTYPE2
 62
     3
100
AcDbLine
 10
1169.500000000329
 20
2173.3
 30
0.0
 11
1169.500000000329
 21
2133.3
 31
0.0
  0
LINE
  5
27D
330
1F
100
AcDbEntity
  8
鏡台
  6
EXLTYPE2
 62
     3
100
AcDbLine
 10
752.5000000003304
 20
2375.3
 30
0.0
 11
1169.500000000329
 21
2375.3
 31
0.0
  0
LINE
  5
27E
330
1F
100
AcDbEntity
  8
鏡台
  6
EXLTYPE2
 62
     3
100
AcDbLine
 10
752.5000000003304
 20
2415.3
 30
0.0
 11
1169.500000000329
 21
2415.3
 31
0.0
  0
LINE
  5
27F
330
1F
100
AcDbEntity
  8
鏡台
  6
EXLTYPE2
 62
     3
100
AcDbLine
 10
1169.500000000329
 20
2415.3
 30
0.0
 11
1169.500000000329
 21
2375.3
 31
0.0
  0
LINE
  5
280
330
1F
100
AcDbEntity
  8
鏡台
  6
EXLTYPE2
 62
     3
100
AcDbLine
 10
752.5000000003304
 20
2375.3
 30
0.0
 11
752.5000000003304
 21
2415.3
 31
0.0
  0
LINE
  5
281
330
1F
100
AcDbEntity
  8
鏡台
  6
CONTINUOUS
 62
     4
100
AcDbLine
 10
739.0000000003301
 20
2669.5
 30
0.0
 11
1183.00000000033
 21
2669.5
 31
0.0
  0
CIRCLE
  5
282
330
1F
100
AcDbEntity
  8
鏡台
  6
EXLTYPE2
 62
     3
100
AcDbCircle
 10
2464.00000000034
 20
2628.300000000001
 30
0.0
 40
4.0
  0
CIRCLE
  5
283
330
1F
100
AcDbEntity
  8
鏡台
  6
EXLTYPE2
 62
     3
100
AcDbCircle
 10
2404.00000000034
 20
2628.300000000001
 30
0.0
 40
4.0
  0
ARC
  5
284
330
1F
100
AcDbEntity
  8
鏡台
  6
EXLTYPE2
 62
     3
100
AcDbCircle
 10
2395.500000000339
 20
2172.799999999999
 30
0.0
 40
0.5
100
AcDbArc
 50
90.00000000000001
 51
180.0
  0
ARC
  5
285
330
1F
100
AcDbEntity
  8
鏡台
  6
EXLTYPE2
 62
     3
100
AcDbCircle
 10
2397.000000000339
 20
2172.799999999999
 30
0.0
 40
0.5
100
AcDbArc
 50
0.0
 51
90.00000000000001
  0
ARC
  5
286
330
1F
100
AcDbEntity
  8
鏡台
  6
EXLTYPE2
 62
     3
100
AcDbCircle
 10
2395.300000000339
 20
2169.341607978309
 30
0.0
 40
0.3
100
AcDbArc
 50
180.0
 51
260.4059317731485
  0
ARC
  5
287
330
1F
100
AcDbEntity
  8
鏡台
  6
EXLTYPE2
 62
     3
100
AcDbCircle
 10
2395.20000000034
 20
2168.749999999999
 30
0.0
 40
0.3
100
AcDbArc
 50
0.0
 51
80.40593177314841
  0
ARC
  5
288
330
1F
100
AcDbEntity
  8
鏡台
  6
EXLTYPE2
 62
     3
100
AcDbCircle
 10
2395.20000000034
 20
2166.349999999999
 30
0.0
 40
0.3
100
AcDbArc
 50
279.5940682268516
 51
0.0
  0
ARC
  5
289
330
1F
100
AcDbEntity
  8
鏡台
  6
EXLTYPE2
 62
     3
100
AcDbCircle
 10
2395.300000000339
 20
2165.758392021688
 30
0.0
 40
0.3
100
AcDbArc
 50
99.59406822685159
 51
180.0
  0
ARC
  5
28A
330
1F
100
AcDbEntity
  8
鏡台
  6
EXLTYPE2
 62
     3
100
AcDbCircle
 10
2395.300000000339
 20
2163.341607978309
 30
0.0
 40
0.3
100
AcDbArc
 50
180.0
 51
260.4059317731485
  0
ARC
  5
28B
330
1F
100
AcDbEntity
  8
鏡台
  6
EXLTYPE2
 62
     3
100
AcDbCircle
 10
2395.20000000034
 20
2162.749999999999
 30
0.0
 40
0.3
100
AcDbArc
 50
0.0
 51
80.40593177314841
  0
ARC
  5
28C
330
1F
100
AcDbEntity
  8
鏡台
  6
EXLTYPE2
 62
     3
100
AcDbCircle
 10
2395.300000000339
 20
2159.758392021688
 30
0.0
 40
0.3
100
AcDbArc
 50
99.59406822685159
 51
180.0
  0
ARC
  5
28D
330
1F
100
AcDbEntity
  8
鏡台
  6
EXLTYPE2
 62
     3
100
AcDbCircle
 10
2395.20000000034
 20
2160.349999999999
 30
0.0
 40
0.3
100
AcDbArc
 50
279.5940682268516
 51
0.0
  0
ARC
  5
28E
330
1F
100
AcDbEntity
  8
鏡台
  6
EXLTYPE2
 62
     3
100
AcDbCircle
 10
2395.300000000339
 20
2157.341607978309
 30
0.0
 40
0.3
100
AcDbArc
 50
180.0
 51
260.4059317731485
  0
ARC
  5
28F
330
1F
100
AcDbEntity
  8
鏡台
  6
EXLTYPE2
 62
     3
100
AcDbCircle
 10
2395.20000000034
 20
2156.749999999999
 30
0.0
 40
0.3
100
AcDbArc
 50
0.0
 51
80.40593177314841
  0
ARC
  5
290
330
1F
100
AcDbEntity
  8
鏡台
  6
EXLTYPE2
 62
     3
100
AcDbCircle
 10
2395.300000000339
 20
2153.758392021688
 30
0.0
 40
0.3
100
AcDbArc
 50
99.59406822685159
 51
180.0
  0
ARC
  5
291
330
1F
100
AcDbEntity
  8
鏡台
  6
EXLTYPE2
 62
     3
100
AcDbCircle
 10
2395.20000000034
 20
2154.349999999999
 30
0.0
 40
0.3
100
AcDbArc
 50
279.5940682268516
 51
0.0
  0
ARC
  5
292
330
1F
100
AcDbEntity
  8
鏡台
  6
EXLTYPE2
 62
     3
100
AcDbCircle
 10
2395.300000000339
 20
2151.341607978309
 30
0.0
 40
0.3
100
AcDbArc
 50
180.0
 51
260.4059317731485
  0
ARC
  5
293
330
1F
100
AcDbEntity
  8
鏡台
  6
EXLTYPE2
 62
     3
100
AcDbCircle
 10
2395.20000000034
 20
2150.749999999999
 30
0.0
 40
0.3
100
AcDbArc
 50
0.0
 51
80.40593177314841
  0
ARC
  5
294
330
1F
100
AcDbEntity
  8
鏡台
  6
EXLTYPE2
 62
     3
100
AcDbCircle
 10
2395.20000000034
 20
2148.349999999999
 30
0.0
 40
0.3
100
AcDbArc
 50
279.5940682268516
 51
0.0
  0
ARC
  5
295
330
1F
100
AcDbEntity
  8
鏡台
  6
EXLTYPE2
 62
     3
100
AcDbCircle
 10
2395.300000000339
 20
2147.758392021688
 30
0.0
 40
0.3
100
AcDbArc
 50
99.59406822685159
 51
180.0
  0
ARC
  5
296
330
1F
100
AcDbEntity
  8
鏡台
  6
EXLTYPE2
 62
     3
100
AcDbCircle
 10
2395.300000000339
 20
2145.341607978309
 30
0.0
 40
0.3
100
AcDbArc
 50
180.0
 51
260.4059317731485
  0
ARC
  5
297
330
1F
100
AcDbEntity
  8
鏡台
  6
EXLTYPE2
 62
     3
100
AcDbCircle
 10
2395.20000000034
 20
2144.749999999999
 30
0.0
 40
0.3
100
AcDbArc
 50
0.0
 51
80.40593177314841
  0
ARC
  5
298
330
1F
100
AcDbEntity
  8
鏡台
  6
EXLTYPE2
 62
     3
100
AcDbCircle
 10
2395.20000000034
 20
2142.349999999999
 30
0.0
 40
0.3
100
AcDbArc
 50
279.5940682268516
 51
0.0
  0
ARC
  5
299
330
1F
100
AcDbEntity
  8
鏡台
  6
EXLTYPE2
 62
     3
100
AcDbCircle
 10
2395.300000000339
 20
2141.758392021688
 30
0.0
 40
0.3
100
AcDbArc
 50
99.59406822685159
 51
180.0
  0
ARC
  5
29A
330
1F
100
AcDbEntity
  8
鏡台
  6
EXLTYPE2
 62
     3
100
AcDbCircle
 10
2395.300000000339
 20
2139.341607978309
 30
0.0
 40
0.3
100
AcDbArc
 50
180.0
 51
260.4059317731485
  0
ARC
  5
29B
330
1F
100
AcDbEntity
  8
鏡台
  6
EXLTYPE2
 62
     3
100
AcDbCircle
 10
2395.20000000034
 20
2138.749999999999
 30
0.0
 40
0.3
100
AcDbArc
 50
0.0
 51
80.40593177314841
  0
ARC
  5
29C
330
1F
100
AcDbEntity
  8
鏡台
  6
EXLTYPE2
 62
     3
100
AcDbCircle
 10
2395.300000000339
 20
2135.758392021688
 30
0.0
 40
0.3
100
AcDbArc
 50
99.59406822685159
 51
180.0
  0
ARC
  5
29D
330
1F
100
AcDbEntity
  8
鏡台
  6
EXLTYPE2
 62
     3
100
AcDbCircle
 10
2395.20000000034
 20
2136.349999999999
 30
0.0
 40
0.3
100
AcDbArc
 50
279.5940682268516
 51
0.0
  0
ARC
  5
29E
330
1F
100
AcDbEntity
  8
鏡台
  6
EXLTYPE2
 62
     3
100
AcDbCircle
 10
2395.500000000339
 20
2133.799999999999
 30
0.0
 40
0.5
100
AcDbArc
 50
180.0
 51
270.0000000000002
  0
ARC
  5
29F
330
1F
100
AcDbEntity
  8
鏡台
  6
EXLTYPE2
 62
     3
100
AcDbCircle
 10
2397.000000000339
 20
2133.799999999999
 30
0.0
 40
0.5
100
AcDbArc
 50
270.0000000000002
 51
0.0
  0
ARC
  5
2A0
330
1F
100
AcDbEntity
  8
鏡台
  6
EXLTYPE2
 62
     3
100
AcDbCircle
 10
2397.800000000339
 20
2151.099999999999
 30
0.0
 40
0.3
100
AcDbArc
 50
180.0
 51
270.0000000000002
  0
ARC
  5
2A1
330
1F
100
AcDbEntity
  8
鏡台
  6
EXLTYPE2
 62
     3
100
AcDbCircle
 10
2397.800000000339
 20
2147.999999999999
 30
0.0
 40
0.3
100
AcDbArc
 50
90.00000000000001
 51
180.0
  0
ARC
  5
2A2
330
1F
100
AcDbEntity
  8
鏡台
  6
EXLTYPE2
 62
     3
100
AcDbCircle
 10
2410.750000000339
 20
2141.549999999999
 30
0.0
 40
1.250000000000569
100
AcDbArc
 50
180.0
 51
0.0
  0
ARC
  5
2A3
330
1F
100
AcDbEntity
  8
鏡台
  6
EXLTYPE2
 62
     3
100
AcDbCircle
 10
2409.200000000338
 20
2147.999999999999
 30
0.0
 40
0.3
100
AcDbArc
 50
0.0
 51
90.00000000000001
  0
ARC
  5
2A4
330
1F
100
AcDbEntity
  8
鏡台
  6
EXLTYPE2
 62
     3
100
AcDbCircle
 10
2412.300000000339
 20
2147.999999999999
 30
0.0
 40
0.3
100
AcDbArc
 50
90.00000000000001
 51
180.0
  0
ARC
  5
2A5
330
1F
100
AcDbEntity
  8
鏡台
  6
EXLTYPE2
 62
     3
100
AcDbCircle
 10
2427.50000000034
 20
2147.799999999993
 30
0.0
 40
0.499999999994202
100
AcDbArc
 50
180.0
 51
0.0
  0
ARC
  5
2A6
330
1F
100
AcDbEntity
  8
鏡台
  6
EXLTYPE2
 62
     3
100
AcDbCircle
 10
2426.700000000338
 20
2147.999999999999
 30
0.0
 40
0.3
100
AcDbArc
 50
0.0
 51
90.00000000000001
  0
ARC
  5
2A7
330
1F
100
AcDbEntity
  8
鏡台
  6
EXLTYPE2
 62
     3
100
AcDbCircle
 10
2428.300000000339
 20
2147.999999999999
 30
0.0
 40
0.3
100
AcDbArc
 50
90.00000000000001
 51
180.0
  0
ARC
  5
2A8
330
1F
100
AcDbEntity
  8
鏡台
  6
EXLTYPE2
 62
     3
100
AcDbCircle
 10
2441.20000000034
 20
2147.999999999999
 30
0.0
 40
0.3
100
AcDbArc
 50
0.0
 51
90.00000000000001
  0
ARC
  5
2A9
330
1F
100
AcDbEntity
  8
鏡台
  6
EXLTYPE2
 62
     3
100
AcDbCircle
 10
2442.000000000339
 20
2147.8
 30
0.0
 40
0.500000000001478
100
AcDbArc
 50
180.0
 51
0.0
  0
ARC
  5
2AA
330
1F
100
AcDbEntity
  8
鏡台
  6
EXLTYPE2
 62
     3
100
AcDbCircle
 10
2442.800000000339
 20
2147.999999999999
 30
0.0
 40
0.3
100
AcDbArc
 50
90.00000000000001
 51
180.0
  0
ARC
  5
2AB
330
1F
100
AcDbEntity
  8
鏡台
  6
EXLTYPE2
 62
     3
100
AcDbCircle
 10
2457.20000000034
 20
2147.999999999999
 30
0.0
 40
0.3
100
AcDbArc
 50
0.0
 51
90.00000000000001
  0
ARC
  5
2AC
330
1F
100
AcDbEntity
  8
鏡台
  6
EXLTYPE2
 62
     3
100
AcDbCircle
 10
2460.300000000339
 20
2147.999999999999
 30
0.0
 40
0.3
100
AcDbArc
 50
90.00000000000001
 51
180.0
  0
ARC
  5
2AD
330
1F
100
AcDbEntity
  8
鏡台
  6
EXLTYPE2
 62
     3
100
AcDbCircle
 10
2460.500000000339
 20
2138.799999999999
 30
0.0
 40
0.5
100
AcDbArc
 50
180.0
 51
270.0000000000002
  0
ARC
  5
2AE
330
1F
100
AcDbEntity
  8
鏡台
  6
EXLTYPE2
 62
     3
100
AcDbCircle
 10
2466.750000000339
 20
2137.049999999999
 30
0.0
 40
1.249999999999631
100
AcDbArc
 50
270.0000000000002
 51
90.00000000000001
  0
ARC
  5
2AF
330
1F
100
AcDbEntity
  8
鏡台
  6
EXLTYPE2
 62
     3
100
AcDbCircle
 10
2458.000000000339
 20
2136.299999999999
 30
0.0
 40
0.5
100
AcDbArc
 50
180.0
 51
270.0000000000002
  0
ARC
  5
2B0
330
1F
100
AcDbEntity
  8
鏡台
  6
EXLTYPE2
 62
     3
100
AcDbCircle
 10
2472.50000000034
 20
2148.799999999999
 30
0.0
 40
0.5
100
AcDbArc
 50
270.0000000000002
 51
0.0
  0
ARC
  5
2B1
330
1F
100
AcDbEntity
  8
鏡台
  6
EXLTYPE2
 62
     3
100
AcDbCircle
 10
2472.50000000034
 20
2151.299999999999
 30
0.0
 40
0.5
100
AcDbArc
 50
0.0
 51
90.00000000000001
  0
ARC
  5
2B2
330
1F
100
AcDbEntity
  8
鏡台
  6
EXLTYPE2
 62
     3
100
AcDbCircle
 10
2469.500000000339
 20
2151.299999999999
 30
0.0
 40
0.5
100
AcDbArc
 50
270.0000000000002
 51
0.0
  0
ARC
  5
2B3
330
1F
100
AcDbEntity
  8
鏡台
  6
EXLTYPE2
 62
     3
100
AcDbCircle
 10
2470.500000000339
 20
2151.299999999999
 30
0.0
 40
0.5
100
AcDbArc
 50
90.00000000000001
 51
180.0
  0
LINE
  5
2B4
330
1F
100
AcDbEntity
  8
鏡台
  6
EXLTYPE2
 62
     3
100
AcDbLine
 10
2395.500000000339
 20
2173.299999999999
 30
0.0
 11
2397.000000000339
 21
2173.3
 31
0.0
  0
LINE
  5
2B5
330
1F
100
AcDbEntity
  8
鏡台
  6
EXLTYPE2
 62
     3
100
AcDbLine
 10
2395.00000000034
 20
2172.799999999999
 30
0.0
 11
2395.00000000034
 21
2169.341607978309
 31
0.0
  0
LINE
  5
2B6
330
1F
100
AcDbEntity
  8
鏡台
  6
EXLTYPE2
 62
     3
100
AcDbLine
 10
2395.500000000339
 20
2168.749999999999
 30
0.0
 11
2395.500000000339
 21
2166.349999999999
 31
0.0
  0
LINE
  5
2B7
330
1F
100
AcDbEntity
  8
鏡台
  6
EXLTYPE2
 62
     3
100
AcDbLine
 10
2395.00000000034
 20
2165.758392021688
 30
0.0
 11
2395.00000000034
 21
2163.341607978309
 31
0.0
  0
LINE
  5
2B8
330
1F
100
AcDbEntity
  8
鏡台
  6
EXLTYPE2
 62
     3
100
AcDbLine
 10
2395.500000000339
 20
2162.749999999999
 30
0.0
 11
2395.500000000339
 21
2160.349999999999
 31
0.0
  0
LINE
  5
2B9
330
1F
100
AcDbEntity
  8
鏡台
  6
EXLTYPE2
 62
     3
100
AcDbLine
 10
2395.00000000034
 20
2159.758392021688
 30
0.0
 11
2395.00000000034
 21
2157.341607978309
 31
0.0
  0
LINE
  5
2BA
330
1F
100
AcDbEntity
  8
鏡台
  6
EXLTYPE2
 62
     3
100
AcDbLine
 10
2395.500000000339
 20
2156.749999999999
 30
0.0
 11
2395.500000000339
 21
2154.349999999999
 31
0.0
  0
LINE
  5
2BB
330
1F
100
AcDbEntity
  8
鏡台
  6
EXLTYPE2
 62
     3
100
AcDbLine
 10
2395.000000000337
 20
2153.758392021688
 30
0.0
 11
2395.00000000034
 21
2151.341607978309
 31
0.0
  0
LINE
  5
2BC
330
1F
100
AcDbEntity
  8
鏡台
  6
EXLTYPE2
 62
     3
100
AcDbLine
 10
2395.500000000339
 20
2150.749999999999
 30
0.0
 11
2395.500000000339
 21
2148.349999999999
 31
0.0
  0
LINE
  5
2BD
330
1F
100
AcDbEntity
  8
鏡台
  6
EXLTYPE2
 62
     3
100
AcDbLine
 10
2395.00000000034
 20
2147.758392021688
 30
0.0
 11
2395.000000000337
 21
2145.341607978309
 31
0.0
  0
LINE
  5
2BE
330
1F
100
AcDbEntity
  8
鏡台
  6
EXLTYPE2
 62
     3
100
AcDbLine
 10
2395.500000000339
 20
2144.749999999999
 30
0.0
 11
2395.500000000339
 21
2142.349999999999
 31
0.0
  0
LINE
  5
2BF
330
1F
100
AcDbEntity
  8
鏡台
  6
EXLTYPE2
 62
     3
100
AcDbLine
 10
2395.000000000337
 20
2141.758392021688
 30
0.0
 11
2395.000000000337
 21
2139.341607978309
 31
0.0
  0
LINE
  5
2C0
330
1F
100
AcDbEntity
  8
鏡台
  6
EXLTYPE2
 62
     3
100
AcDbLine
 10
2395.500000000337
 20
2138.749999999999
 30
0.0
 11
2395.500000000339
 21
2136.349999999999
 31
0.0
  0
LINE
  5
2C1
330
1F
100
AcDbEntity
  8
鏡台
  6
EXLTYPE2
 62
     3
100
AcDbLine
 10
2395.000000000337
 20
2135.758392021688
 30
0.0
 11
2395.000000000336
 21
2133.799999999999
 31
0.0
  0
LINE
  5
2C2
330
1F
100
AcDbEntity
  8
鏡台
  6
EXLTYPE2
 62
     3
100
AcDbLine
 10
2395.500000000339
 20
2133.299999999999
 30
0.0
 11
2397.000000000339
 21
2133.3
 31
0.0
  0
LINE
  5
2C3
330
1F
100
AcDbEntity
  8
鏡台
  6
EXLTYPE2
 62
     3
100
AcDbLine
 10
2397.50000000034
 20
2147.999999999999
 30
0.0
 11
2397.50000000034
 21
2133.799999999999
 31
0.0
  0
LINE
  5
2C4
330
1F
100
AcDbEntity
  8
鏡台
  6
EXLTYPE2
 62
     3
100
AcDbLine
 10
2397.50000000034
 20
2172.799999999999
 30
0.0
 11
2397.50000000034
 21
2151.099999999999
 31
0.0
  0
LINE
  5
2C5
330
1F
100
AcDbEntity
  8
鏡台
  6
EXLTYPE2
 62
     3
100
AcDbLine
 10
2397.800000000339
 20
2148.299999999999
 30
0.0
 11
2409.200000000338
 21
2148.299999999999
 31
0.0
  0
LINE
  5
2C6
330
1F
100
AcDbEntity
  8
鏡台
  6
EXLTYPE2
 62
     3
100
AcDbLine
 10
2409.500000000339
 20
2147.999999999999
 30
0.0
 11
2409.500000000339
 21
2141.55
 31
0.0
  0
LINE
  5
2C7
330
1F
100
AcDbEntity
  8
鏡台
  6
EXLTYPE2
 62
     3
100
AcDbLine
 10
2412.000000000339
 20
2147.999999999999
 30
0.0
 11
2412.000000000339
 21
2141.55
 31
0.0
  0
LINE
  5
2C8
330
1F
100
AcDbEntity
  8
鏡台
  6
EXLTYPE2
 62
     3
100
AcDbLine
 10
2412.300000000339
 20
2148.299999999999
 30
0.0
 11
2426.700000000338
 21
2148.299999999999
 31
0.0
  0
LINE
  5
2C9
330
1F
100
AcDbEntity
  8
鏡台
  6
EXLTYPE2
 62
     3
100
AcDbLine
 10
2427.000000000332
 20
2148.0
 30
0.0
 11
2427.000000000339
 21
2147.799999999993
 31
0.0
  0
LINE
  5
2CA
330
1F
100
AcDbEntity
  8
鏡台
  6
EXLTYPE2
 62
     3
100
AcDbLine
 10
2428.000000000333
 20
2147.999999999999
 30
0.0
 11
2428.000000000328
 21
2147.799999999997
 31
0.0
  0
LINE
  5
2CB
330
1F
100
AcDbEntity
  8
鏡台
  6
EXLTYPE2
 62
     3
100
AcDbLine
 10
2428.300000000339
 20
2148.299999999999
 30
0.0
 11
2441.20000000034
 21
2148.299999999999
 31
0.0
  0
LINE
  5
2CC
330
1F
100
AcDbEntity
  8
鏡台
  6
EXLTYPE2
 62
     3
100
AcDbLine
 10
2441.500000000339
 20
2147.999999999999
 30
0.0
 11
2441.500000000346
 21
2147.800000000002
 31
0.0
  0
LINE
  5
2CD
330
1F
100
AcDbEntity
  8
鏡台
  6
EXLTYPE2
 62
     3
100
AcDbLine
 10
2442.50000000034
 20
2147.999999999998
 30
0.0
 11
2442.50000000034
 21
2147.8
 31
0.0
  0
LINE
  5
2CE
330
1F
100
AcDbEntity
  8
鏡台
  6
EXLTYPE2
 62
     3
100
AcDbLine
 10
2442.800000000339
 20
2148.299999999999
 30
0.0
 11
2457.20000000034
 21
2148.299999999999
 31
0.0
  0
LINE
  5
2CF
330
1F
100
AcDbEntity
  8
鏡台
  6
EXLTYPE2
 62
     3
100
AcDbLine
 10
2457.50000000034
 20
2147.999999999999
 30
0.0
 11
2457.50000000034
 21
2136.299999999999
 31
0.0
  0
LINE
  5
2D0
330
1F
100
AcDbEntity
  8
鏡台
  6
EXLTYPE2
 62
     3
100
AcDbLine
 10
2460.00000000034
 20
2147.999999999999
 30
0.0
 11
2460.00000000034
 21
2138.799999999999
 31
0.0
  0
LINE
  5
2D1
330
1F
100
AcDbEntity
  8
鏡台
  6
EXLTYPE2
 62
     3
100
AcDbLine
 10
2460.500000000339
 20
2138.299999999998
 30
0.0
 11
2466.750000000339
 21
2138.299999999999
 31
0.0
  0
LINE
  5
2D2
330
1F
100
AcDbEntity
  8
鏡台
  6
EXLTYPE2
 62
     3
100
AcDbLine
 10
2458.000000000339
 20
2135.799999999999
 30
0.0
 11
2466.750000000339
 21
2135.799999999998
 31
0.0
  0
LINE
  5
2D3
330
1F
100
AcDbEntity
  8
鏡台
  6
EXLTYPE2
 62
     3
100
AcDbLine
 10
2473.000000000339
 20
2151.299999999999
 30
0.0
 11
2473.000000000339
 21
2148.799999999999
 31
0.0
  0
LINE
  5
2D4
330
1F
100
AcDbEntity
  8
鏡台
  6
EXLTYPE2
 62
     3
100
AcDbLine
 10
2470.500000000339
 20
2151.799999999998
 30
0.0
 11
2472.50000000034
 21
2151.799999999997
 31
0.0
  0
LINE
  5
2D5
330
1F
100
AcDbEntity
  8
鏡台
  6
EXLTYPE2
 62
     3
100
AcDbLine
 10
2397.800000000339
 20
2150.799999999999
 30
0.0
 11
2469.500000000339
 21
2150.799999999999
 31
0.0
  0
LINE
  5
2D6
330
1F
100
AcDbEntity
  8
鏡台
  6
EXLTYPE2
 62
     3
100
AcDbLine
 10
2460.300000000339
 20
2148.299999999998
 30
0.0
 11
2472.50000000034
 21
2148.299999999998
 31
0.0
  0
CIRCLE
  5
2D7
330
1F
100
AcDbEntity
  8
鏡台
  6
EXLTYPE2
 62
     3
100
AcDbCircle
 10
2464.00000000034
 20
2144.3
 30
0.0
 40
4.0
  0
CIRCLE
  5
2D8
330
1F
100
AcDbEntity
  8
鏡台
  6
EXLTYPE2
 62
     3
100
AcDbCircle
 10
2404.00000000034
 20
2144.3
 30
0.0
 40
4.0
  0
ARC
  5
2D9
330
1F
100
AcDbEntity
  8
鏡台
  6
EXLTYPE2
 62
     3
100
AcDbCircle
 10
2395.500000000339
 20
2414.799999999999
 30
0.0
 40
0.5
100
AcDbArc
 50
90.00000000000001
 51
180.0
  0
ARC
  5
2DA
330
1F
100
AcDbEntity
  8
鏡台
  6
EXLTYPE2
 62
     3
100
AcDbCircle
 10
2397.000000000339
 20
2414.799999999999
 30
0.0
 40
0.5
100
AcDbArc
 50
0.0
 51
90.00000000000001
  0
ARC
  5
2DB
330
1F
100
AcDbEntity
  8
鏡台
  6
EXLTYPE2
 62
     3
100
AcDbCircle
 10
2395.300000000339
 20
2411.341607978309
 30
0.0
 40
0.3
100
AcDbArc
 50
180.0
 51
260.4059317731485
  0
ARC
  5
2DC
330
1F
100
AcDbEntity
  8
鏡台
  6
EXLTYPE2
 62
     3
100
AcDbCircle
 10
2395.20000000034
 20
2410.749999999999
 30
0.0
 40
0.3
100
AcDbArc
 50
0.0
 51
80.40593177314841
  0
ARC
  5
2DD
330
1F
100
AcDbEntity
  8
鏡台
  6
EXLTYPE2
 62
     3
100
AcDbCircle
 10
2395.20000000034
 20
2408.349999999999
 30
0.0
 40
0.3
100
AcDbArc
 50
279.5940682268516
 51
0.0
  0
ARC
  5
2DE
330
1F
100
AcDbEntity
  8
鏡台
  6
EXLTYPE2
 62
     3
100
AcDbCircle
 10
2395.300000000339
 20
2407.758392021688
 30
0.0
 40
0.3
100
AcDbArc
 50
99.59406822685159
 51
180.0
  0
ARC
  5
2DF
330
1F
100
AcDbEntity
  8
鏡台
  6
EXLTYPE2
 62
     3
100
AcDbCircle
 10
2395.300000000339
 20
2405.341607978309
 30
0.0
 40
0.3
100
AcDbArc
 50
180.0
 51
260.4059317731485
  0
ARC
  5
2E0
330
1F
100
AcDbEntity
  8
鏡台
  6
EXLTYPE2
 62
     3
100
AcDbCircle
 10
2395.20000000034
 20
2404.749999999999
 30
0.0
 40
0.3
100
AcDbArc
 50
0.0
 51
80.40593177314841
  0
ARC
  5
2E1
330
1F
100
AcDbEntity
  8
鏡台
  6
EXLTYPE2
 62
     3
100
AcDbCircle
 10
2395.300000000339
 20
2401.758392021688
 30
0.0
 40
0.3
100
AcDbArc
 50
99.59406822685159
 51
180.0
  0
ARC
  5
2E2
330
1F
100
AcDbEntity
  8
鏡台
  6
EXLTYPE2
 62
     3
100
AcDbCircle
 10
2395.20000000034
 20
2402.349999999999
 30
0.0
 40
0.3
100
AcDbArc
 50
279.5940682268516
 51
0.0
  0
ARC
  5
2E3
330
1F
100
AcDbEntity
  8
鏡台
  6
EXLTYPE2
 62
     3
100
AcDbCircle
 10
2395.300000000339
 20
2399.341607978309
 30
0.0
 40
0.3
100
AcDbArc
 50
180.0
 51
260.4059317731485
  0
ARC
  5
2E4
330
1F
100
AcDbEntity
  8
鏡台
  6
EXLTYPE2
 62
     3
100
AcDbCircle
 10
2395.20000000034
 20
2398.749999999999
 30
0.0
 40
0.3
100
AcDbArc
 50
0.0
 51
80.40593177314841
  0
ARC
  5
2E5
330
1F
100
AcDbEntity
  8
鏡台
  6
EXLTYPE2
 62
     3
100
AcDbCircle
 10
2395.300000000339
 20
2395.758392021688
 30
0.0
 40
0.3
100
AcDbArc
 50
99.59406822685159
 51
180.0
  0
ARC
  5
2E6
330
1F
100
AcDbEntity
  8
鏡台
  6
EXLTYPE2
 62
     3
100
AcDbCircle
 10
2395.20000000034
 20
2396.349999999999
 30
0.0
 40
0.3
100
AcDbArc
 50
279.5940682268516
 51
0.0
  0
ARC
  5
2E7
330
1F
100
AcDbEntity
  8
鏡台
  6
EXLTYPE2
 62
     3
100
AcDbCircle
 10
2395.300000000339
 20
2393.341607978309
 30
0.0
 40
0.3
100
AcDbArc
 50
180.0
 51
260.4059317731485
  0
ARC
  5
2E8
330
1F
100
AcDbEntity
  8
鏡台
  6
EXLTYPE2
 62
     3
100
AcDbCircle
 10
2395.20000000034
 20
2392.749999999999
 30
0.0
 40
0.3
100
AcDbArc
 50
0.0
 51
80.40593177314841
  0
ARC
  5
2E9
330
1F
100
AcDbEntity
  8
鏡台
  6
EXLTYPE2
 62
     3
100
AcDbCircle
 10
2395.20000000034
 20
2390.349999999999
 30
0.0
 40
0.3
100
AcDbArc
 50
279.5940682268516
 51
0.0
  0
ARC
  5
2EA
330
1F
100
AcDbEntity
  8
鏡台
  6
EXLTYPE2
 62
     3
100
AcDbCircle
 10
2395.300000000339
 20
2389.758392021688
 30
0.0
 40
0.3
100
AcDbArc
 50
99.59406822685159
 51
180.0
  0
ARC
  5
2EB
330
1F
100
AcDbEntity
  8
鏡台
  6
EXLTYPE2
 62
     3
100
AcDbCircle
 10
2395.300000000339
 20
2387.341607978309
 30
0.0
 40
0.3
100
AcDbArc
 50
180.0
 51
260.4059317731485
  0
ARC
  5
2EC
330
1F
100
AcDbEntity
  8
鏡台
  6
EXLTYPE2
 62
     3
100
AcDbCircle
 10
2395.20000000034
 20
2386.749999999999
 30
0.0
 40
0.3
100
AcDbArc
 50
0.0
 51
80.40593177314841
  0
ARC
  5
2ED
330
1F
100
AcDbEntity
  8
鏡台
  6
EXLTYPE2
 62
     3
100
AcDbCircle
 10
2395.20000000034
 20
2384.349999999999
 30
0.0
 40
0.3
100
AcDbArc
 50
279.5940682268516
 51
0.0
  0
ARC
  5
2EE
330
1F
100
AcDbEntity
  8
鏡台
  6
EXLTYPE2
 62
     3
100
AcDbCircle
 10
2395.300000000339
 20
2383.758392021688
 30
0.0
 40
0.3
100
AcDbArc
 50
99.59406822685159
 51
180.0
  0
ARC
  5
2EF
330
1F
100
AcDbEntity
  8
鏡台
  6
EXLTYPE2
 62
     3
100
AcDbCircle
 10
2395.300000000339
 20
2381.341607978309
 30
0.0
 40
0.3
100
AcDbArc
 50
180.0
 51
260.4059317731485
  0
ARC
  5
2F0
330
1F
100
AcDbEntity
  8
鏡台
  6
EXLTYPE2
 62
     3
100
AcDbCircle
 10
2395.20000000034
 20
2380.749999999999
 30
0.0
 40
0.3
100
AcDbArc
 50
0.0
 51
80.40593177314841
  0
ARC
  5
2F1
330
1F
100
AcDbEntity
  8
鏡台
  6
EXLTYPE2
 62
     3
100
AcDbCircle
 10
2395.300000000339
 20
2377.758392021688
 30
0.0
 40
0.3
100
AcDbArc
 50
99.59406822685159
 51
180.0
  0
ARC
  5
2F2
330
1F
100
AcDbEntity
  8
鏡台
  6
EXLTYPE2
 62
     3
100
AcDbCircle
 10
2395.20000000034
 20
2378.349999999999
 30
0.0
 40
0.3
100
AcDbArc
 50
279.5940682268516
 51
0.0
  0
ARC
  5
2F3
330
1F
100
AcDbEntity
  8
鏡台
  6
EXLTYPE2
 62
     3
100
AcDbCircle
 10
2395.500000000339
 20
2375.799999999999
 30
0.0
 40
0.5
100
AcDbArc
 50
180.0
 51
270.0000000000002
  0
ARC
  5
2F4
330
1F
100
AcDbEntity
  8
鏡台
  6
EXLTYPE2
 62
     3
100
AcDbCircle
 10
2397.000000000339
 20
2375.799999999999
 30
0.0
 40
0.5
100
AcDbArc
 50
270.0000000000002
 51
0.0
  0
ARC
  5
2F5
330
1F
100
AcDbEntity
  8
鏡台
  6
EXLTYPE2
 62
     3
100
AcDbCircle
 10
2397.800000000339
 20
2393.099999999999
 30
0.0
 40
0.3
100
AcDbArc
 50
180.0
 51
270.0000000000002
  0
ARC
  5
2F6
330
1F
100
AcDbEntity
  8
鏡台
  6
EXLTYPE2
 62
     3
100
AcDbCircle
 10
2397.800000000339
 20
2389.999999999999
 30
0.0
 40
0.3
100
AcDbArc
 50
90.00000000000001
 51
180.0
  0
ARC
  5
2F7
330
1F
100
AcDbEntity
  8
鏡台
  6
EXLTYPE2
 62
     3
100
AcDbCircle
 10
2410.750000000339
 20
2383.549999999999
 30
0.0
 40
1.250000000000569
100
AcDbArc
 50
180.0
 51
0.0
  0
ARC
  5
2F8
330
1F
100
AcDbEntity
  8
鏡台
  6
EXLTYPE2
 62
     3
100
AcDbCircle
 10
2409.200000000338
 20
2389.999999999999
 30
0.0
 40
0.3
100
AcDbArc
 50
0.0
 51
90.00000000000001
  0
ARC
  5
2F9
330
1F
100
AcDbEntity
  8
鏡台
  6
EXLTYPE2
 62
     3
100
AcDbCircle
 10
2412.300000000339
 20
2389.999999999999
 30
0.0
 40
0.3
100
AcDbArc
 50
90.00000000000001
 51
180.0
  0
ARC
  5
2FA
330
1F
100
AcDbEntity
  8
鏡台
  6
EXLTYPE2
 62
     3
100
AcDbCircle
 10
2427.50000000034
 20
2389.799999999993
 30
0.0
 40
0.499999999994202
100
AcDbArc
 50
180.0
 51
0.0
  0
ARC
  5
2FB
330
1F
100
AcDbEntity
  8
鏡台
  6
EXLTYPE2
 62
     3
100
AcDbCircle
 10
2426.700000000338
 20
2389.999999999999
 30
0.0
 40
0.3
100
AcDbArc
 50
0.0
 51
90.00000000000001
  0
ARC
  5
2FC
330
1F
100
AcDbEntity
  8
鏡台
  6
EXLTYPE2
 62
     3
100
AcDbCircle
 10
2428.300000000339
 20
2389.999999999999
 30
0.0
 40
0.3
100
AcDbArc
 50
90.00000000000001
 51
180.0
  0
ARC
  5
2FD
330
1F
100
AcDbEntity
  8
鏡台
  6
EXLTYPE2
 62
     3
100
AcDbCircle
 10
2441.20000000034
 20
2389.999999999999
 30
0.0
 40
0.3
100
AcDbArc
 50
0.0
 51
90.00000000000001
  0
ARC
  5
2FE
330
1F
100
AcDbEntity
  8
鏡台
  6
EXLTYPE2
 62
     3
100
AcDbCircle
 10
2442.000000000339
 20
2389.8
 30
0.0
 40
0.500000000001478
100
AcDbArc
 50
180.0
 51
0.0
  0
ARC
  5
2FF
330
1F
100
AcDbEntity
  8
鏡台
  6
EXLTYPE2
 62
     3
100
AcDbCircle
 10
2442.800000000339
 20
2389.999999999999
 30
0.0
 40
0.3
100
AcDbArc
 50
90.00000000000001
 51
180.0
  0
ARC
  5
300
330
1F
100
AcDbEntity
  8
鏡台
  6
EXLTYPE2
 62
     3
100
AcDbCircle
 10
2457.20000000034
 20
2389.999999999999
 30
0.0
 40
0.3
100
AcDbArc
 50
0.0
 51
90.00000000000001
  0
ARC
  5
301
330
1F
100
AcDbEntity
  8
鏡台
  6
EXLTYPE2
 62
     3
100
AcDbCircle
 10
2460.300000000339
 20
2389.999999999999
 30
0.0
 40
0.3
100
AcDbArc
 50
90.00000000000001
 51
180.0
  0
ARC
  5
302
330
1F
100
AcDbEntity
  8
鏡台
  6
EXLTYPE2
 62
     3
100
AcDbCircle
 10
2460.500000000339
 20
2380.799999999999
 30
0.0
 40
0.5
100
AcDbArc
 50
180.0
 51
270.0000000000002
  0
ARC
  5
303
330
1F
100
AcDbEntity
  8
鏡台
  6
EXLTYPE2
 62
     3
100
AcDbCircle
 10
2466.750000000339
 20
2379.049999999999
 30
0.0
 40
1.249999999999631
100
AcDbArc
 50
270.0000000000002
 51
90.00000000000001
  0
ARC
  5
304
330
1F
100
AcDbEntity
  8
鏡台
  6
EXLTYPE2
 62
     3
100
AcDbCircle
 10
2458.000000000339
 20
2378.299999999999
 30
0.0
 40
0.5
100
AcDbArc
 50
180.0
 51
270.0000000000002
  0
ARC
  5
305
330
1F
100
AcDbEntity
  8
鏡台
  6
EXLTYPE2
 62
     3
100
AcDbCircle
 10
2472.50000000034
 20
2390.799999999999
 30
0.0
 40
0.5
100
AcDbArc
 50
270.0000000000002
 51
0.0
  0
ARC
  5
306
330
1F
100
AcDbEntity
  8
鏡台
  6
EXLTYPE2
 62
     3
100
AcDbCircle
 10
2472.50000000034
 20
2393.299999999999
 30
0.0
 40
0.5
100
AcDbArc
 50
0.0
 51
90.00000000000001
  0
ARC
  5
307
330
1F
100
AcDbEntity
  8
鏡台
  6
EXLTYPE2
 62
     3
100
AcDbCircle
 10
2469.500000000339
 20
2393.299999999999
 30
0.0
 40
0.5
100
AcDbArc
 50
270.0000000000002
 51
0.0
  0
ARC
  5
308
330
1F
100
AcDbEntity
  8
鏡台
  6
EXLTYPE2
 62
     3
100
AcDbCircle
 10
2470.500000000339
 20
2393.299999999999
 30
0.0
 40
0.5
100
AcDbArc
 50
90.00000000000001
 51
180.0
  0
LINE
  5
309
330
1F
100
AcDbEntity
  8
鏡台
  6
EXLTYPE2
 62
     3
100
AcDbLine
 10
2395.500000000339
 20
2415.299999999999
 30
0.0
 11
2397.000000000339
 21
2415.3
 31
0.0
  0
LINE
  5
30A
330
1F
100
AcDbEntity
  8
鏡台
  6
EXLTYPE2
 62
     3
100
AcDbLine
 10
2395.00000000034
 20
2414.799999999999
 30
0.0
 11
2395.00000000034
 21
2411.341607978309
 31
0.0
  0
LINE
  5
30B
330
1F
100
AcDbEntity
  8
鏡台
  6
EXLTYPE2
 62
     3
100
AcDbLine
 10
2395.500000000339
 20
2410.749999999999
 30
0.0
 11
2395.500000000339
 21
2408.349999999999
 31
0.0
  0
LINE
  5
30C
330
1F
100
AcDbEntity
  8
鏡台
  6
EXLTYPE2
 62
     3
100
AcDbLine
 10
2395.00000000034
 20
2407.758392021688
 30
0.0
 11
2395.00000000034
 21
2405.341607978309
 31
0.0
  0
LINE
  5
30D
330
1F
100
AcDbEntity
  8
鏡台
  6
EXLTYPE2
 62
     3
100
AcDbLine
 10
2395.500000000339
 20
2404.749999999999
 30
0.0
 11
2395.500000000339
 21
2402.349999999999
 31
0.0
  0
LINE
  5
30E
330
1F
100
AcDbEntity
  8
鏡台
  6
EXLTYPE2
 62
     3
100
AcDbLine
 10
2395.00000000034
 20
2401.758392021688
 30
0.0
 11
2395.00000000034
 21
2399.341607978309
 31
0.0
  0
LINE
  5
30F
330
1F
100
AcDbEntity
  8
鏡台
  6
EXLTYPE2
 62
     3
100
AcDbLine
 10
2395.500000000339
 20
2398.749999999999
 30
0.0
 11
2395.500000000339
 21
2396.349999999999
 31
0.0
  0
LINE
  5
310
330
1F
100
AcDbEntity
  8
鏡台
  6
EXLTYPE2
 62
     3
100
AcDbLine
 10
2395.000000000337
 20
2395.758392021688
 30
0.0
 11
2395.00000000034
 21
2393.341607978309
 31
0.0
  0
LINE
  5
311
330
1F
100
AcDbEntity
  8
鏡台
  6
EXLTYPE2
 62
     3
100
AcDbLine
 10
2395.500000000339
 20
2392.749999999999
 30
0.0
 11
2395.500000000339
 21
2390.349999999999
 31
0.0
  0
LINE
  5
312
330
1F
100
AcDbEntity
  8
鏡台
  6
EXLTYPE2
 62
     3
100
AcDbLine
 10
2395.00000000034
 20
2389.758392021688
 30
0.0
 11
2395.000000000337
 21
2387.341607978309
 31
0.0
  0
LINE
  5
313
330
1F
100
AcDbEntity
  8
鏡台
  6
EXLTYPE2
 62
     3
100
AcDbLine
 10
2395.500000000339
 20
2386.749999999999
 30
0.0
 11
2395.500000000339
 21
2384.349999999999
 31
0.0
  0
LINE
  5
314
330
1F
100
AcDbEntity
  8
鏡台
  6
EXLTYPE2
 62
     3
100
AcDbLine
 10
2395.000000000337
 20
2383.758392021688
 30
0.0
 11
2395.000000000337
 21
2381.341607978309
 31
0.0
  0
LINE
  5
315
330
1F
100
AcDbEntity
  8
鏡台
  6
EXLTYPE2
 62
     3
100
AcDbLine
 10
2395.500000000337
 20
2380.749999999999
 30
0.0
 11
2395.500000000339
 21
2378.349999999999
 31
0.0
  0
LINE
  5
316
330
1F
100
AcDbEntity
  8
鏡台
  6
EXLTYPE2
 62
     3
100
AcDbLine
 10
2395.000000000337
 20
2377.758392021688
 30
0.0
 11
2395.000000000336
 21
2375.799999999999
 31
0.0
  0
LINE
  5
317
330
1F
100
AcDbEntity
  8
鏡台
  6
EXLTYPE2
 62
     3
100
AcDbLine
 10
2395.500000000339
 20
2375.299999999999
 30
0.0
 11
2397.000000000339
 21
2375.3
 31
0.0
  0
LINE
  5
318
330
1F
100
AcDbEntity
  8
鏡台
  6
EXLTYPE2
 62
     3
100
AcDbLine
 10
2397.50000000034
 20
2389.999999999999
 30
0.0
 11
2397.50000000034
 21
2375.799999999999
 31
0.0
  0
LINE
  5
319
330
1F
100
AcDbEntity
  8
鏡台
  6
EXLTYPE2
 62
     3
100
AcDbLine
 10
2397.50000000034
 20
2414.799999999999
 30
0.0
 11
2397.50000000034
 21
2393.099999999999
 31
0.0
  0
LINE
  5
31A
330
1F
100
AcDbEntity
  8
鏡台
  6
EXLTYPE2
 62
     3
100
AcDbLine
 10
2397.800000000339
 20
2390.299999999999
 30
0.0
 11
2409.200000000338
 21
2390.299999999999
 31
0.0
  0
LINE
  5
31B
330
1F
100
AcDbEntity
  8
鏡台
  6
EXLTYPE2
 62
     3
100
AcDbLine
 10
2409.500000000339
 20
2389.999999999999
 30
0.0
 11
2409.500000000339
 21
2383.55
 31
0.0
  0
LINE
  5
31C
330
1F
100
AcDbEntity
  8
鏡台
  6
EXLTYPE2
 62
     3
100
AcDbLine
 10
2412.000000000339
 20
2389.999999999999
 30
0.0
 11
2412.000000000339
 21
2383.55
 31
0.0
  0
LINE
  5
31D
330
1F
100
AcDbEntity
  8
鏡台
  6
EXLTYPE2
 62
     3
100
AcDbLine
 10
2412.300000000339
 20
2390.299999999999
 30
0.0
 11
2426.700000000338
 21
2390.299999999999
 31
0.0
  0
LINE
  5
31E
330
1F
100
AcDbEntity
  8
鏡台
  6
EXLTYPE2
 62
     3
100
AcDbLine
 10
2427.000000000332
 20
2390.0
 30
0.0
 11
2427.000000000339
 21
2389.799999999993
 31
0.0
  0
LINE
  5
31F
330
1F
100
AcDbEntity
  8
鏡台
  6
EXLTYPE2
 62
     3
100
AcDbLine
 10
2428.000000000333
 20
2389.999999999999
 30
0.0
 11
2428.000000000328
 21
2389.799999999997
 31
0.0
  0
LINE
  5
320
330
1F
100
AcDbEntity
  8
鏡台
  6
EXLTYPE2
 62
     3
100
AcDbLine
 10
2428.300000000339
 20
2390.299999999999
 30
0.0
 11
2441.20000000034
 21
2390.299999999999
 31
0.0
  0
LINE
  5
321
330
1F
100
AcDbEntity
  8
鏡台
  6
EXLTYPE2
 62
     3
100
AcDbLine
 10
2441.500000000339
 20
2389.999999999999
 30
0.0
 11
2441.500000000346
 21
2389.800000000002
 31
0.0
  0
LINE
  5
322
330
1F
100
AcDbEntity
  8
鏡台
  6
EXLTYPE2
 62
     3
100
AcDbLine
 10
2442.50000000034
 20
2389.999999999998
 30
0.0
 11
2442.50000000034
 21
2389.8
 31
0.0
  0
LINE
  5
323
330
1F
100
AcDbEntity
  8
鏡台
  6
EXLTYPE2
 62
     3
100
AcDbLine
 10
2442.800000000339
 20
2390.299999999999
 30
0.0
 11
2457.20000000034
 21
2390.299999999999
 31
0.0
  0
LINE
  5
324
330
1F
100
AcDbEntity
  8
鏡台
  6
EXLTYPE2
 62
     3
100
AcDbLine
 10
2457.50000000034
 20
2389.999999999999
 30
0.0
 11
2457.50000000034
 21
2378.299999999999
 31
0.0
  0
LINE
  5
325
330
1F
100
AcDbEntity
  8
鏡台
  6
EXLTYPE2
 62
     3
100
AcDbLine
 10
2460.00000000034
 20
2389.999999999999
 30
0.0
 11
2460.00000000034
 21
2380.799999999999
 31
0.0
  0
LINE
  5
326
330
1F
100
AcDbEntity
  8
鏡台
  6
EXLTYPE2
 62
     3
100
AcDbLine
 10
2460.500000000339
 20
2380.299999999998
 30
0.0
 11
2466.750000000339
 21
2380.299999999999
 31
0.0
  0
LINE
  5
327
330
1F
100
AcDbEntity
  8
鏡台
  6
EXLTYPE2
 62
     3
100
AcDbLine
 10
2458.000000000339
 20
2377.799999999999
 30
0.0
 11
2466.750000000339
 21
2377.799999999998
 31
0.0
  0
LINE
  5
328
330
1F
100
AcDbEntity
  8
鏡台
  6
EXLTYPE2
 62
     3
100
AcDbLine
 10
2473.000000000339
 20
2393.299999999999
 30
0.0
 11
2473.000000000339
 21
2390.799999999999
 31
0.0
  0
LINE
  5
329
330
1F
100
AcDbEntity
  8
鏡台
  6
EXLTYPE2
 62
     3
100
AcDbLine
 10
2470.500000000339
 20
2393.799999999998
 30
0.0
 11
2472.50000000034
 21
2393.799999999997
 31
0.0
  0
LINE
  5
32A
330
1F
100
AcDbEntity
  8
鏡台
  6
EXLTYPE2
 62
     3
100
AcDbLine
 10
2397.800000000339
 20
2392.799999999999
 30
0.0
 11
2469.500000000339
 21
2392.799999999999
 31
0.0
  0
LINE
  5
32B
330
1F
100
AcDbEntity
  8
鏡台
  6
EXLTYPE2
 62
     3
100
AcDbLine
 10
2460.300000000339
 20
2390.299999999998
 30
0.0
 11
2472.50000000034
 21
2390.299999999998
 31
0.0
  0
CIRCLE
  5
32C
330
1F
100
AcDbEntity
  8
鏡台
  6
EXLTYPE2
 62
     3
100
AcDbCircle
 10
2464.00000000034
 20
2386.3
 30
0.0
 40
4.0
  0
CIRCLE
  5
32D
330
1F
100
AcDbEntity
  8
鏡台
  6
EXLTYPE2
 62
     3
100
AcDbCircle
 10
2404.00000000034
 20
2386.3
 30
0.0
 40
4.0
  0
LINE
  5
32E
330
1F
100
AcDbEntity
  8
鏡台
  6
CONTINUOUS
 62
     4
100
AcDbLine
 10
2369.800000000345
 20
2103.1
 30
0.0
 11
2389.800000000341
 21
2103.1
 31
0.0
  0
LINE
  5
32F
330
1F
100
AcDbEntity
  8
鏡台
  6
CONTINUOUS
 62
     4
100
AcDbLine
 10
2371.000000000342
 20
2104.300000000001
 30
0.0
 11
2389.800000000341
 21
2104.300000000001
 31
0.0
  0
LINE
  5
330
330
1F
100
AcDbEntity
  8
鏡台
  6
CONTINUOUS
 62
     4
100
AcDbLine
 10
2371.000000000342
 20
2113.1
 30
0.0
 11
2371.000000000342
 21
2104.300000000001
 31
0.0
  0
LINE
  5
331
330
1F
100
AcDbEntity
  8
鏡台
  6
CONTINUOUS
 62
     4
100
AcDbLine
 10
2369.800000000341
 20
2113.1
 30
0.0
 11
2371.000000000342
 21
2113.1
 31
0.0
  0
LINE
  5
332
330
1F
100
AcDbEntity
  8
鏡台
  6
CONTINUOUS
 62
     4
100
AcDbLine
 10
2389.800000000341
 20
2103.1
 30
0.0
 11
2389.800000000341
 21
2104.300000000001
 31
0.0
  0
LINE
  5
333
330
1F
100
AcDbEntity
  8
鏡台
  6
CONTINUOUS
 62
     4
100
AcDbLine
 10
2369.800000000345
 20
2103.1
 30
0.0
 11
2369.800000000345
 21
2113.1
 31
0.0
  0
LINE
  5
334
330
1F
100
AcDbEntity
  8
鏡台
  6
CONTINUOUS
 62
     4
100
AcDbLine
 10
2371.000000000342
 20
2668.299999999999
 30
0.0
 11
2389.800000000341
 21
2668.299999999999
 31
0.0
  0
LINE
  5
335
330
1F
100
AcDbEntity
  8
鏡台
  6
CONTINUOUS
 62
     4
100
AcDbLine
 10
2371.000000000342
 20
2659.5
 30
0.0
 11
2371.000000000342
 21
2668.299999999999
 31
0.0
  0
LINE
  5
336
330
1F
100
AcDbEntity
  8
鏡台
  6
CONTINUOUS
 62
     4
100
AcDbLine
 10
2369.800000000341
 20
2659.5
 30
0.0
 11
2371.000000000342
 21
2659.5
 31
0.0
  0
LINE
  5
337
330
1F
100
AcDbEntity
  8
鏡台
  6
CONTINUOUS
 62
     4
100
AcDbLine
 10
2389.800000000341
 20
2669.5
 30
0.0
 11
2389.800000000341
 21
2668.299999999999
 31
0.0
  0
LINE
  5
338
330
1F
100
AcDbEntity
  8
鏡台
  6
CONTINUOUS
 62
     4
100
AcDbLine
 10
2369.800000000345
 20
2669.5
 30
0.0
 11
2369.800000000345
 21
2659.5
 31
0.0
  0
LINE
  5
339
330
1F
100
AcDbEntity
  8
鏡台
  6
CONTINUOUS
 62
     2
100
AcDbLine
 10
2371.00000000034
 20
2667.8
 30
0.0
 11
2371.00000000034
 21
2104.8
 31
0.0
  0
LINE
  5
33A
330
1F
100
AcDbEntity
  8
鏡台
  6
CONTINUOUS
 62
     2
100
AcDbLine
 10
2374.00000000034
 20
2104.3
 30
0.0
 11
2389.00000000034
 21
2104.3
 31
0.0
  0
LINE
  5
33B
330
1F
100
AcDbEntity
  8
鏡台
  6
CONTINUOUS
 62
     2
100
AcDbLine
 10
2374.00000000034
 20
2668.3
 30
0.0
 11
2389.00000000034
 21
2668.3
 31
0.0
  0
LINE
  5
33C
330
1F
100
AcDbEntity
  8
鏡台
  6
CONTINUOUS
 62
     2
100
AcDbLine
 10
2389.00000000034
 20
2668.3
 30
0.0
 11
2389.00000000034
 21
2104.3
 31
0.0
  0
LINE
  5
33D
330
1F
100
AcDbEntity
  8
鏡台
  6
CONTINUOUS
 62
     2
100
AcDbLine
 10
2374.00000000034
 20
2668.3
 30
0.0
 11
2374.00000000034
 21
2104.3
 31
0.0
  0
LINE
  5
33E
330
1F
100
AcDbEntity
  8
鏡台
  6
CONTINUOUS
 62
     6
100
AcDbLine
 10
2491.000000000338
 20
2167.8
 30
0.0
 11
2517.661651585038
 21
2167.8
 31
0.0
  0
LINE
  5
33F
330
1F
100
AcDbEntity
  8
鏡台
  6
CONTINUOUS
 62
     6
100
AcDbLine
 10
2491.000000000338
 20
2164.8
 30
0.0
 11
2517.661651585069
 21
2164.8
 31
0.0
  0
ARC
  5
340
330
1F
100
AcDbEntity
  8
鏡台
  6
CONTINUOUS
 62
     6
100
AcDbCircle
 10
2517.661651585069
 20
2179.8
 30
0.0
 40
15.00000000000001
100
AcDbArc
 50
270.0000000000002
 51
295.8419327630793
  0
ARC
  5
341
330
1F
100
AcDbEntity
  8
鏡台
  6
CONTINUOUS
 62
     6
100
AcDbCircle
 10
2517.661651585038
 20
2152.8
 30
0.0
 40
15.00000000000001
100
AcDbArc
 50
64.15806723683205
 51
90.00000000000001
  0
LINE
  5
342
330
1F
100
AcDbEntity
  8
鏡台
  6
CONTINUOUS
 62
     6
100
AcDbLine
 10
2491.000000000338
 20
2607.8
 30
0.0
 11
2517.661651585038
 21
2607.8
 31
0.0
  0
LINE
  5
343
330
1F
100
AcDbEntity
  8
鏡台
  6
CONTINUOUS
 62
     6
100
AcDbLine
 10
2491.000000000338
 20
2604.8
 30
0.0
 11
2517.661651585069
 21
2604.8
 31
0.0
  0
ARC
  5
344
330
1F
100
AcDbEntity
  8
鏡台
  6
CONTINUOUS
 62
     6
100
AcDbCircle
 10
2517.661651585069
 20
2619.8
 30
0.0
 40
15.00000000000001
100
AcDbArc
 50
270.0000000000002
 51
295.8419327630793
  0
ARC
  5
345
330
1F
100
AcDbEntity
  8
鏡台
  6
CONTINUOUS
 62
     6
100
AcDbCircle
 10
2517.661651585038
 20
2592.8
 30
0.0
 40
15.00000000000001
100
AcDbArc
 50
64.15806723683205
 51
90.00000000000001
  0
LINE
  5
346
330
1F
100
AcDbEntity
  8
鏡台
  6
CONTINUOUS
 62
     2
100
AcDbLine
 10
2491.00000000034
 20
2656.3
 30
0.0
 11
2491.00000000034
 21
2116.3
 31
0.0
  0
LINE
  5
347
330
1F
100
AcDbEntity
  8
鏡台
  6
CONTINUOUS
 62
     2
100
AcDbLine
 10
2391.00000000034
 20
2656.3
 30
0.0
 11
2391.00000000034
 21
2116.3
 31
0.0
  0
LINE
  5
348
330
1F
100
AcDbEntity
  8
鏡台
  6
CONTINUOUS
 62
     2
100
AcDbLine
 10
2391.00000000034
 20
2116.3
 30
0.0
 11
2491.00000000034
 21
2116.3
 31
0.0
  0
LINE
  5
349
330
1F
100
AcDbEntity
  8
鏡台
  6
CONTINUOUS
 62
     2
100
AcDbLine
 10
2391.00000000034
 20
2656.3
 30
0.0
 11
2491.00000000034
 21
2656.3
 31
0.0
  0
LINE
  5
34A
330
1F
100
AcDbEntity
  8
鏡台
  6
EXLTYPE3
 62
     6
100
AcDbLine
 10
2531.800000000179
 20
2606.3
 30
0.0
 11
2484.0000000002
 21
2606.3
 31
0.0
  0
LINE
  5
34B
330
1F
100
AcDbEntity
  8
鏡台
  6
EXLTYPE3
 62
     6
100
AcDbLine
 10
2531.800000000179
 20
2166.3
 30
0.0
 11
2486.2500000002
 21
2166.3
 31
0.0
  0
LINE
  5
34C
330
1F
100
AcDbEntity
  8
鏡台
  6
CONTINUOUS
 62
     4
100
AcDbLine
 10
2369.800000000345
 20
2669.5
 30
0.0
 11
2389.800000000341
 21
2669.5
 31
0.0
  0
LINE
  5
34D
330
1F
100
AcDbEntity
  8
鏡台
  6
EXLTYPE3
 62
     6
100
AcDbLine
 10
961.0000000002899
 20
2065.5
 30
0.0
 11
961.0000000002899
 21
2695.499999999999
 31
0.0
  0
TEXT
  5
34E
330
1F
100
AcDbEntity
  8
寸法
  6
CONTINUOUS
 62
     2
100
AcDbText
 10
1381.750000000314
 20
819.7499960958949
 30
0.0
 40
59.99999618530273
  1
ＶＰ･ＶＵ４０･５０
 41
0.8542372745578565
  7
EXCADSTD
 72
     5
 11
1813.749965668038
 21
819.7499960958949
 31
0.0
100
AcDbText
  0
TEXT
  5
34F
330
1F
100
AcDbEntity
  8
寸法
  6
CONTINUOUS
 62
     2
100
AcDbText
 10
1381.750000000314
 20
759.7499999105921
 30
0.0
 40
59.99999618530273
  1
４０～５０mm立上げ
 41
0.7522387940136347
  7
EXCADSTD
 72
     5
 11
1813.749965668038
 21
759.7499999105921
 31
0.0
100
AcDbText
  0
LEADER
  5
350
330
1F
100
AcDbEntity
  8
寸法
  6
CONTINUOUS
 62
     3
100
AcDbLeader
  3
ISO-25
 76
     3
 10
1234.500000000318
 20
935.5
 30
0.0
 10
1381.750000000316
 20
754.5
 30
0.0
 10
1812.250000000316
 20
754.5
 30
0.0
1001
ACAD
1000
DSTYLE
1002
{
1070
     5
1000
EX_NORM
1070
    41
1040
45.0
1070
   341
1005
4D
1002
}
  0
TEXT
  5
351
330
1F
100
AcDbEntity
  8
寸法
  6
CONTINUOUS
 62
     2
100
AcDbText
 10
2144.050000357945
 20
804.749999910593
 30
0.0
 40
59.99999618530273
  1
φ３２
 41
1.070588224822399
  7
EXCADSTD
 72
     5
 11
2300.049988913853
 21
804.749999910593
 31
0.0
100
AcDbText
  0
LEADER
  5
352
330
1F
100
AcDbEntity
  8
寸法
  6
CONTINUOUS
 62
     3
100
AcDbLeader
  3
ISO-25
 76
     3
 10
2375.000000000316
 20
882.5499999999993
 30
0.0
 10
2300.050000000317
 20
799.5
 30
0.0
 10
2146.450000000317
 20
799.5
 30
0.0
1001
ACAD
1000
DSTYLE
1002
{
1070
     5
1000
EX_NORM
1070
    41
1040
45.0
1070
   341
1005
4D
1002
}
  0
TEXT
  5
353
330
1F
100
AcDbEntity
  8
寸法
  6
CONTINUOUS
 62
     2
100
AcDbText
 10
2536.150000000318
 20
804.749999910593
 30
0.0
 40
59.99999618530273
  1
Ｒ１/２
 41
0.8342465643686785
  7
EXCADSTD
 72
     5
 11
2710.149986648877
 21
804.749999910593
 31
0.0
100
AcDbText
  0
LEADER
  5
354
330
1F
100
AcDbEntity
  8
寸法
  6
CONTINUOUS
 62
     3
100
AcDbLeader
  3
ISO-25
 76
     3
 10
2421.500000000316
 20
911.5
 30
0.0
 10
2536.150000000318
 20
799.5
 30
0.0
 10
2693.650000000318
 20
799.5
 30
0.0
1001
ACAD
1000
DSTYLE
1002
{
1070
     5
1000
EX_NORM
1070
    41
1040
45.0
1070
   341
1005
4D
1002
}
  0
DIMENSION
  5
356
330
1F
100
AcDbEntity
  8
寸法
  6
CONTINUOUS
 62
     3
100
AcDbDimension
  2
*D15
 10
1531.000000000327
 20
1619.499999999999
 30
0.0
 11
1495.750000089732
 21
1269.499999999999
 31
0.0
 70
   160
  3
ISO-25
100
AcDbAlignedDimension
 13
1409.000000000316
 23
919.4999999999991
 33
0.0
 14
1411.000000000316
 24
1619.499999999999
 34
0.0
 50
90.0
100
AcDbRotatedDimension
1001
ACAD
1000
DSTYLE
1002
{
1070
   270
1070
     2
1070
     6
1000
EX_NORM
1070
     7
1000
EX_NORM
1070
    41
1040
44.99999618530273
1070
    42
1040
10.49999982118607
1070
    44
1040
15.0
1070
    73
1070
     0
1070
    74
1070
     0
1070
    75
1070
     1
1070
    76
1070
     0
1070
    77
1070
     1
1070
    78
1070
     0
1070
   140
1040
59.99999618530273
1070
   147
1040
0.0
1070
   173
1070
     1
1070
   176
1070
     3
1070
   177
1070
     3
1070
   178
1070
     2
1070
   271
1070
     0
1070
   277
1070
     2
1070
   279
1070
     2
1070
   280
1070
     0
1070
   287
1070
     5
1070
   340
1005
355
1002
}
  0
DIMENSION
  5
363
330
1F
100
AcDbEntity
  8
寸法
  6
CONTINUOUS
 62
     3
100
AcDbDimension
  2
*D16
 10
1201.000000000318
 20
709.4999999999945
 30
0.0
 11
728.5000000003198
 21
744.7499999105876
 31
0.0
 70
   160
  1
240（床排水）
  3
ISO-25
100
AcDbAlignedDimension
 13
961.0000000003197
 23
919.4999999999991
 33
0.0
 14
1201.000000000318
 24
869.499999999879
 34
0.0
100
AcDbRotatedDimension
1001
ACAD
1000
DSTYLE
1002
{
1070
   270
1070
     2
1070
     6
1000
EX_NORM
1070
     7
1000
EX_NORM
1070
    41
1040
44.99999618530273
1070
    42
1040
10.49999982118607
1070
    44
1040
15.0
1070
    73
1070
     0
1070
    74
1070
     0
1070
    75
1070
     0
1070
    76
1070
     0
1070
    77
1070
     1
1070
    78
1070
     0
1070
   140
1040
59.99999618530273
1070
   147
1040
0.0
1070
   173
1070
     1
1070
   176
1070
     3
1070
   177
1070
     3
1070
   178
1070
     2
1070
   271
1070
     0
1070
   277
1070
     2
1070
   279
1070
     2
1070
   280
1070
     1
1070
   287
1070
     5
1070
   340
1005
355
1002
}
  0
DIMENSION
  5
370
330
1F
100
AcDbEntity
  8
寸法
  6
CONTINUOUS
 62
     3
100
AcDbDimension
  2
*D17
 10
1126.000000000318
 20
799.4999999999945
 30
0.0
 11
563.5000000003195
 21
834.7499999105876
 31
0.0
 70
   160
  1
330（床給水）
  3
ISO-25
100
AcDbAlignedDimension
 13
796.0000000003196
 23
911.5
 33
0.0
 14
1126.000000000318
 24
911.5
 34
0.0
100
AcDbRotatedDimension
1001
ACAD
1000
DSTYLE
1002
{
1070
   270
1070
     2
1070
     6
1000
EX_NORM
1070
     7
1000
EX_NORM
1070
    41
1040
44.99999618530273
1070
    42
1040
10.49999982118607
1070
    44
1040
15.0
1070
    73
1070
     0
1070
    74
1070
     0
1070
    75
1070
     0
1070
    76
1070
     0
1070
    77
1070
     1
1070
    78
1070
     0
1070
   140
1040
59.99999618530273
1070
   147
1040
0.0
1070
   173
1070
     1
1070
   176
1070
     3
1070
   177
1070
     3
1070
   178
1070
     2
1070
   271
1070
     0
1070
   277
1070
     2
1070
   279
1070
     2
1070
   280
1070
     1
1070
   287
1070
     5
1070
   340
1005
355
1002
}
  0
DIMENSION
  5
37D
330
1F
100
AcDbEntity
  8
寸法
  6
CONTINUOUS
 62
     3
100
AcDbDimension
  2
*D18
 10
1291.000000000318
 20
1223.500000000001
 30
0.0
 11
961.0000000003085
 21
1258.749999910594
 31
0.0
 70
   160
  1
660（壁固定）
  3
ISO-25
100
AcDbAlignedDimension
 13
631.0000000002997
 23
1495.700000000099
 33
0.0
 14
1291.000000000318
 24
1495.700000000099
 34
0.0
100
AcDbRotatedDimension
1001
ACAD
1000
DSTYLE
1002
{
1070
   270
1070
     2
1070
     6
1000
EX_NORM
1070
     7
1000
EX_NORM
1070
    41
1040
44.99999618530273
1070
    42
1040
10.49999982118607
1070
    44
1040
15.0
1070
    73
1070
     0
1070
    74
1070
     0
1070
    75
1070
     0
1070
    76
1070
     0
1070
    77
1070
     1
1070
    78
1070
     0
1070
   140
1040
59.99999618530273
1070
   147
1040
0.0
1070
   173
1070
     1
1070
   176
1070
     3
1070
   177
1070
     3
1070
   178
1070
     2
1070
   271
1070
     0
1070
   277
1070
     2
1070
   279
1070
     2
1070
   280
1070
     0
1070
   287
1070
     5
1070
   340
1005
355
1002
}
  0
DIMENSION
  5
38A
330
1F
100
AcDbEntity
  8
寸法
  6
CONTINUOUS
 62
     3
100
AcDbDimension
  2
*D19
 10
2491.000000000318
 20
709.4999999999945
 30
0.0
 11
2701.000000000318
 21
744.7499999105876
 31
0.0
 70
   160
  1
80（床給水）
  3
ISO-25
100
AcDbAlignedDimension
 13
2411.000000000318
 23
911.5
 33
0.0
 14
2491.000000000318
 24
919.4999999999991
 34
0.0
100
AcDbRotatedDimension
1001
ACAD
1000
DSTYLE
1002
{
1070
   270
1070
     2
1070
     6
1000
EX_NORM
1070
     7
1000
EX_NORM
1070
    41
1040
44.99999618530273
1070
    42
1040
10.49999982118607
1070
    44
1040
15.0
1070
    73
1070
     0
1070
    74
1070
     0
1070
    75
1070
     0
1070
    76
1070
     1
1070
    77
1070
     1
1070
    78
1070
     0
1070
   140
1040
59.99999618530273
1070
   147
1040
0.0
1070
   173
1070
     1
1070
   176
1070
     3
1070
   177
1070
     3
1070
   178
1070
     2
1070
   271
1070
     0
1070
   277
1070
     2
1070
   279
1070
     2
1070
   280
1070
     2
1070
   287
1070
     5
1070
   340
1005
355
1002
}
  0
DIMENSION
  5
398
330
1F
100
AcDbEntity
  8
寸法
  6
CONTINUOUS
 62
     3
100
AcDbDimension
  2
*D20
 10
2491.000000000318
 20
619.4999999999945
 30
0.0
 11
2723.500000000318
 21
654.7499999105876
 31
0.0
 70
   160
  1
100（床排水）
  3
ISO-25
100
AcDbAlignedDimension
 13
2391.000000000318
 23
869.499999999879
 33
0.0
 14
2491.000000000318
 24
919.4999999999991
 34
0.0
100
AcDbRotatedDimension
1001
ACAD
1000
DSTYLE
1002
{
1070
   270
1070
     2
1070
     6
1000
EX_NORM
1070
     7
1000
EX_NORM
1070
    41
1040
44.99999618530273
1070
    42
1040
10.49999982118607
1070
    44
1040
15.0
1070
    73
1070
     0
1070
    74
1070
     0
1070
    75
1070
     0
1070
    76
1070
     0
1070
    77
1070
     1
1070
    78
1070
     0
1070
   140
1040
59.99999618530273
1070
   147
1040
0.0
1070
   173
1070
     1
1070
   176
1070
     3
1070
   177
1070
     3
1070
   178
1070
     2
1070
   271
1070
     0
1070
   277
1070
     2
1070
   279
1070
     2
1070
   280
1070
     2
1070
   287
1070
     5
1070
   340
1005
355
1002
}
  0
DIMENSION
  5
3A5
330
1F
100
AcDbEntity
  8
寸法
  6
CONTINUOUS
 62
     3
100
AcDbDimension
  2
*D21
 10
2791.000000000329
 20
1499.5
 30
0.0
 11
2755.750000089735
 21
1209.499999999998
 31
0.0
 70
   160
  1
580（壁固定）
  3
ISO-25
100
AcDbAlignedDimension
 13
2491.000000000318
 23
919.4999999999991
 33
0.0
 14
2523.500005722218
 24
1499.5
 34
0.0
 50
90.0
100
AcDbRotatedDimension
1001
ACAD
1000
DSTYLE
1002
{
1070
   270
1070
     2
1070
     6
1000
EX_NORM
1070
     7
1000
EX_NORM
1070
    41
1040
44.99999618530273
1070
    42
1040
10.49999982118607
1070
    44
1040
15.0
1070
    73
1070
     0
1070
    74
1070
     0
1070
    75
1070
     1
1070
    76
1070
     0
1070
    77
1070
     1
1070
    78
1070
     0
1070
   140
1040
59.99999618530273
1070
   147
1040
0.0
1070
   173
1070
     1
1070
   176
1070
     3
1070
   177
1070
     3
1070
   178
1070
     2
1070
   271
1070
     0
1070
   277
1070
     2
1070
   279
1070
     2
1070
   280
1070
     0
1070
   287
1070
     5
1070
   340
1005
355
1002
}
  0
DIMENSION
  5
3B1
330
1F
100
AcDbEntity
  8
寸法
  6
CONTINUOUS
 62
     3
100
AcDbDimension
  2
*D22
 10
2611.000000000329
 20
1379.5
 30
0.0
 11
2575.750000089735
 21
1149.5
 31
0.0
 70
   160
  1
460（壁給水）
  3
ISO-25
100
AcDbAlignedDimension
 13
2491.000000000329
 23
919.4999999999991
 33
0.0
 14
2499.000000000329
 24
1379.5
 34
0.0
 50
90.0
100
AcDbRotatedDimension
1001
ACAD
1000
DSTYLE
1002
{
1070
   270
1070
     2
1070
     6
1000
EX_NORM
1070
     7
1000
EX_NORM
1070
    41
1040
44.99999618530273
1070
    42
1040
10.49999982118607
1070
    44
1040
15.0
1070
    73
1070
     0
1070
    74
1070
     0
1070
    75
1070
     1
1070
    76
1070
     0
1070
    77
1070
     1
1070
    78
1070
     0
1070
   140
1040
59.99999618530273
1070
   147
1040
0.0
1070
   173
1070
     1
1070
   176
1070
     3
1070
   177
1070
     3
1070
   178
1070
     2
1070
   271
1070
     0
1070
   277
1070
     2
1070
   279
1070
     2
1070
   280
1070
     0
1070
   287
1070
     5
1070
   340
1005
355
1002
}
  0
DIMENSION
  5
3BD
330
1F
100
AcDbEntity
  8
寸法
  6
CONTINUOUS
 62
     3
100
AcDbDimension
  2
*D23
 10
2701.000000000329
 20
1389.5
 30
0.0
 11
2665.750000089735
 21
1154.5
 31
0.0
 70
   160
  1
470（壁排水）
  3
ISO-25
100
AcDbAlignedDimension
 13
2491.000000000329
 23
919.4999999999991
 33
0.0
 14
2541.000000000329
 24
1389.5
 34
0.0
 50
90.0
100
AcDbRotatedDimension
1001
ACAD
1000
DSTYLE
1002
{
1070
   270
1070
     2
1070
     6
1000
EX_NORM
1070
     7
1000
EX_NORM
1070
    41
1040
44.99999618530273
1070
    42
1040
10.49999982118607
1070
    44
1040
15.0
1070
    73
1070
     0
1070
    74
1070
     0
1070
    75
1070
     1
1070
    76
1070
     0
1070
    77
1070
     1
1070
    78
1070
     0
1070
   140
1040
59.99999618530273
1070
   147
1040
0.0
1070
   173
1070
     1
1070
   176
1070
     3
1070
   177
1070
     3
1070
   178
1070
     2
1070
   271
1070
     0
1070
   277
1070
     2
1070
   279
1070
     2
1070
   280
1070
     0
1070
   287
1070
     5
1070
   340
1005
355
1002
}
  0
DIMENSION
  5
3C9
330
1F
100
AcDbEntity
  8
寸法
  6
CONTINUOUS
 62
     3
100
AcDbDimension
  2
*D24
 10
1621.000000000327
 20
1789.499999999999
 30
0.0
 11
1585.750000089732
 21
1354.499999999999
 31
0.0
 70
   160
  1
（<>）
  3
ISO-25
100
AcDbAlignedDimension
 13
1409.000000000327
 23
919.4999999999991
 33
0.0
 14
961.0000000003197
 24
1789.499999999999
 34
0.0
 50
90.0
100
AcDbRotatedDimension
1001
ACAD
1000
DSTYLE
1002
{
1070
   270
1070
     2
1070
     6
1000
EX_NORM
1070
     7
1000
EX_NORM
1070
    41
1040
44.99999618530273
1070
    42
1040
10.49999982118607
1070
    44
1040
15.0
1070
    73
1070
     0
1070
    74
1070
     0
1070
    75
1070
     1
1070
    76
1070
     0
1070
    77
1070
     1
1070
    78
1070
     0
1070
   140
1040
59.99999618530273
1070
   147
1040
0.0
1070
   173
1070
     1
1070
   176
1070
     3
1070
   177
1070
     3
1070
   178
1070
     2
1070
   271
1070
     0
1070
   277
1070
     2
1070
   279
1070
     2
1070
   280
1070
     0
1070
   287
1070
     5
1070
   340
1005
355
1002
}
  0
DIMENSION
  5
3D5
330
1F
100
AcDbEntity
  8
寸法
  6
CONTINUOUS
 62
     3
100
AcDbDimension
  2
*D25
 10
1531.000000000327
 20
1789.499999999999
 30
0.0
 11
1495.750000089734
 21
1704.499999999999
 31
0.0
 70
   160
  3
ISO-25
100
AcDbAlignedDimension
 13
1411.000000000327
 23
1619.499999999999
 33
0.0
 14
961.0000000003197
 24
1789.499999999999
 34
0.0
 50
90.0
100
AcDbRotatedDimension
1001
ACAD
1000
DSTYLE
1002
{
1070
   270
1070
     2
1070
     6
1000
EX_NORM
1070
     7
1000
EX_NORM
1070
    41
1040
44.99999618530273
1070
    42
1040
0.0
1070
    44
1040
0.0
1070
    73
1070
     0
1070
    74
1070
     0
1070
    75
1070
     1
1070
    76
1070
     1
1070
    77
1070
     1
1070
    78
1070
     0
1070
   140
1040
59.99999618530273
1070
   147
1040
0.0
1070
   173
1070
     1
1070
   176
1070
     3
1070
   177
1070
     3
1070
   178
1070
     2
1070
   271
1070
     0
1070
   277
1070
     2
1070
   279
1070
     2
1070
   280
1070
     0
1070
   287
1070
     5
1070
   340
1005
355
1002
}
  0
DIMENSION
  5
3E0
330
1F
100
AcDbEntity
  8
寸法
  6
CONTINUOUS
 62
     3
100
AcDbDimension
  2
*D26
 10
1711.50000000026
 20
2669.5
 30
0.0
 11
1674.00000000026
 21
1794.5
 31
0.0
 70
   160
  1
（1750）
  3
ISO-25
100
AcDbAlignedDimension
 13
1243.000000000425
 23
919.5
 33
0.0
 14
1261.000000000325
 24
2669.5
 34
0.0
 50
90.0
100
AcDbRotatedDimension
1001
ACAD
1000
DSTYLE
1002
{
1070
   270
1070
     2
1070
     6
1000
EX_NORM
1070
     7
1000
EX_NORM
1070
    41
1040
44.99999618530273
1070
    42
1040
0.0
1070
    44
1040
0.0
1070
    73
1070
     0
1070
    74
1070
     0
1070
    75
1070
     1
1070
    76
1070
     0
1070
    77
1070
     1
1070
    78
1070
     0
1070
   140
1040
59.99999618530273
1070
   147
1040
0.0
1070
   173
1070
     1
1070
   176
1070
     3
1070
   177
1070
     3
1070
   178
1070
     2
1070
   271
1070
     0
1070
   277
1070
     2
1070
   279
1070
     2
1070
   280
1070
     0
1070
   287
1070
     5
1070
   340
1005
355
1002
}
  0
DIMENSION
  5
3EC
330
1F
100
AcDbEntity
  8
寸法
  6
CONTINUOUS
 62
     3
100
AcDbDimension
  2
*D27
 10
1111.00000000032
 20
2732.499999999999
 30
0.0
 11
961.0000000003204
 21
2767.749999910592
 31
0.0
 70
   160
  1
<>（壁固定）
  3
ISO-25
100
AcDbAlignedDimension
 13
811.00000000032
 23
2621.299999999999
 33
0.0
 14
1111.00000000032
 24
2621.299999999999
 34
0.0
100
AcDbRotatedDimension
1001
ACAD
1000
DSTYLE
1002
{
1070
   270
1070
     2
1070
     6
1000
EX_NORM
1070
     7
1000
EX_NORM
1070
    41
1040
44.99999618530273
1070
    42
1040
10.49999982118607
1070
    44
1040
15.0
1070
    73
1070
     0
1070
    74
1070
     0
1070
    75
1070
     0
1070
    76
1070
     0
1070
    77
1070
     1
1070
    78
1070
     8
1070
   140
1040
59.99999618530273
1070
   147
1040
0.0
1070
   173
1070
     1
1070
   176
1070
     3
1070
   177
1070
     3
1070
   178
1070
     2
1070
   271
1070
     2
1070
   277
1070
     2
1070
   279
1070
     2
1070
   280
1070
     0
1070
   287
1070
     5
1070
   340
1005
355
1002
}
  0
DIMENSION
  5
3F9
330
1F
100
AcDbEntity
  8
寸法
  6
CONTINUOUS
 62
     3
100
AcDbDimension
  2
*D28
 10
1186.00000000032
 20
2848.499999999999
 30
0.0
 11
961.0000000003204
 21
2883.749999910592
 31
0.0
 70
   160
  3
ISO-25
100
AcDbAlignedDimension
 13
736.0000000003201
 23
2668.299999999999
 33
0.0
 14
1186.00000000032
 24
2668.299999999999
 34
0.0
100
AcDbRotatedDimension
1001
ACAD
1000
DSTYLE
1002
{
1070
   270
1070
     2
1070
     6
1000
EX_NORM
1070
     7
1000
EX_NORM
1070
    41
1040
44.99999618530273
1070
    42
1040
10.49999982118607
1070
    44
1040
15.0
1070
    73
1070
     0
1070
    74
1070
     0
1070
    75
1070
     0
1070
    76
1070
     0
1070
    77
1070
     1
1070
    78
1070
     8
1070
   140
1040
59.99999618530273
1070
   147
1040
0.0
1070
   173
1070
     1
1070
   176
1070
     3
1070
   177
1070
     3
1070
   178
1070
     2
1070
   271
1070
     2
1070
   277
1070
     2
1070
   279
1070
     2
1070
   280
1070
     0
1070
   287
1070
     5
1070
   340
1005
355
1002
}
  0
DIMENSION
  5
406
330
1F
100
AcDbEntity
  8
寸法
  6
CONTINUOUS
 62
     3
100
AcDbDimension
  2
*D29
 10
2491.00000000039
 20
2734.499999999999
 30
0.0
 11
2604.550000000389
 21
2769.749999910592
 31
0.0
 70
   160
  1
122
  3
ISO-25
100
AcDbAlignedDimension
 13
2369.800000000389
 23
2669.5
 33
0.0
 14
2491.00000000039
 24
2663.299999999999
 34
0.0
100
AcDbRotatedDimension
1001
ACAD
1000
DSTYLE
1002
{
1070
   270
1070
     2
1070
     6
1000
EX_NORM
1070
     7
1000
EX_NORM
1070
    41
1040
44.99999618530273
1070
    42
1040
10.49999982118607
1070
    44
1040
15.0
1070
    73
1070
     0
1070
    74
1070
     0
1070
    75
1070
     0
1070
    76
1070
     1
1070
    77
1070
     1
1070
    78
1070
     8
1070
   140
1040
59.99999618530273
1070
   147
1040
0.0
1070
   173
1070
     1
1070
   176
1070
     3
1070
   177
1070
     3
1070
   178
1070
     2
1070
   271
1070
     2
1070
   277
1070
     2
1070
   279
1070
     2
1070
   280
1070
     0
1070
   287
1070
     5
1070
   340
1005
355
1002
}
  0
LINE
  5
412
330
1F
100
AcDbEntity
  8
寸法
  6
EXLTYPE3
 62
     6
100
AcDbLine
 10
1161.00000000032
 20
3795.0
 30
0.0
 11
1161.00000000032
 21
3890.0
 31
0.0
  0
LINE
  5
413
330
1F
100
AcDbEntity
  8
寸法
  6
CONTINUOUS
 62
     6
100
AcDbLine
 10
1145.000000000322
 20
3875.0
 30
0.0
 11
1177.000000000322
 21
3875.0
 31
0.0
  0
LINE
  5
414
330
1F
100
AcDbEntity
  8
寸法
  6
CONTINUOUS
 62
     6
100
AcDbLine
 10
1145.000000000322
 20
3825.0
 30
0.0
 11
1145.000000000322
 21
3875.0
 31
0.0
  0
LINE
  5
415
330
1F
100
AcDbEntity
  8
寸法
  6
CONTINUOUS
 62
     6
100
AcDbLine
 10
1177.000000000322
 20
3825.0
 30
0.0
 11
1177.000000000322
 21
3875.0
 31
0.0
  0
LINE
  5
416
330
1F
100
AcDbEntity
  8
寸法
  6
EXLTYPE3
 62
     6
100
AcDbLine
 10
1061.000000000326
 20
3795.0
 30
0.0
 11
1061.000000000326
 21
3848.0
 31
0.0
  0
LINE
  5
417
330
1F
100
AcDbEntity
  8
寸法
  6
CONTINUOUS
 62
     6
100
AcDbLine
 10
1071.500000000342
 20
3825.0
 30
0.0
 11
1071.500000000342
 21
3833.0
 31
0.0
  0
LINE
  5
418
330
1F
100
AcDbEntity
  8
寸法
  6
CONTINUOUS
 62
     6
100
AcDbLine
 10
1050.500000000335
 20
3825.0
 30
0.0
 11
1050.500000000335
 21
3833.0
 31
0.0
  0
LINE
  5
419
330
1F
100
AcDbEntity
  8
寸法
  6
CONTINUOUS
 62
     6
100
AcDbLine
 10
1071.500000000326
 20
3833.0
 30
0.0
 11
1050.500000000335
 21
3833.0
 31
0.0
  0
LINE
  5
41A
330
1F
100
AcDbEntity
  8
寸法
  6
EXLTYPE3
 62
     6
100
AcDbLine
 10
861.0000000003201
 20
3795.0
 30
0.0
 11
861.0000000003201
 21
3848.0
 31
0.0
  0
LINE
  5
41B
330
1F
100
AcDbEntity
  8
寸法
  6
CONTINUOUS
 62
     6
100
AcDbLine
 10
850.5000000003038
 20
3825.0
 30
0.0
 11
850.5000000003038
 21
3833.0
 31
0.0
  0
LINE
  5
41C
330
1F
100
AcDbEntity
  8
寸法
  6
CONTINUOUS
 62
     6
100
AcDbLine
 10
871.500000000311
 20
3825.0
 30
0.0
 11
871.500000000311
 21
3833.0
 31
0.0
  0
LINE
  5
41D
330
1F
100
AcDbEntity
  8
寸法
  6
CONTINUOUS
 62
     6
100
AcDbLine
 10
850.5000000003201
 20
3833.0
 30
0.0
 11
871.500000000311
 21
3833.0
 31
0.0
  0
LINE
  5
41E
330
1F
100
AcDbEntity
  8
寸法
  6
CONTINUOUS
 62
     6
100
AcDbLine
 10
1291.000000000366
 20
3820.0
 30
0.0
 11
1291.000000000366
 21
3862.500005721901
 31
0.0
  0
LINE
  5
41F
330
1F
100
AcDbEntity
  8
寸法
  6
CONTINUOUS
 62
     6
100
AcDbLine
 10
1289.000000000358
 20
3825.000005722004
 30
0.0
 11
1291.000000000362
 21
3857.500005722004
 31
0.0
  0
LINE
  5
420
330
1F
100
AcDbEntity
  8
寸法
  6
CONTINUOUS
 62
     6
100
AcDbLine
 10
1291.000000000362
 20
3857.500005722004
 30
0.0
 11
1293.000000000358
 21
3825.000005722004
 31
0.0
  0
LINE
  5
421
330
1F
100
AcDbEntity
  8
寸法
  6
CONTINUOUS
 62
     6
100
AcDbLine
 10
631.0000000002983
 20
3820.0
 30
0.0
 11
631.0000000002983
 21
3862.500005721901
 31
0.0
  0
LINE
  5
422
330
1F
100
AcDbEntity
  8
寸法
  6
CONTINUOUS
 62
     6
100
AcDbLine
 10
629.000000000291
 20
3825.000005722004
 30
0.0
 11
631.0000000002929
 21
3857.500005722004
 31
0.0
  0
LINE
  5
423
330
1F
100
AcDbEntity
  8
寸法
  6
CONTINUOUS
 62
     6
100
AcDbLine
 10
631.0000000002929
 20
3857.500005722004
 30
0.0
 11
633.000000000291
 21
3825.000005722004
 31
0.0
  0
LINE
  5
424
330
1F
100
AcDbEntity
  8
寸法
  6
CONTINUOUS
 62
     2
100
AcDbLine
 10
511.0000000003219
 20
3825.0
 30
0.0
 11
1411.000000000317
 21
3825.0
 31
0.0
  0
LINE
  5
425
330
1F
100
AcDbEntity
  8
寸法
  6
CONTINUOUS
 62
     2
100
AcDbLine
 10
511.0000000003219
 20
3825.0
 30
0.0
 11
511.0000000003219
 21
3375.0
 31
0.0
  0
LINE
  5
426
330
1F
100
AcDbEntity
  8
寸法
  6
CONTINUOUS
 62
     2
100
AcDbLine
 10
1411.000000000317
 20
3825.0
 30
0.0
 11
1411.000000000317
 21
3375.0
 31
0.0
  0
LINE
  5
427
330
1F
100
AcDbEntity
  8
寸法
  6
EXLTYPE3
 62
     6
100
AcDbLine
 10
961.0000000003221
 20
3845.0
 30
0.0
 11
961.0000000003221
 21
3317.5
 31
0.0
  0
LINE
  5
428
330
1F
100
AcDbEntity
  8
寸法
  6
CONTINUOUS
 62
     2
100
AcDbLine
 10
511.0000000003201
 20
3375.0
 30
0.0
 11
864.471311483396
 21
3375.0
 31
0.0
  0
LINE
  5
429
330
1F
100
AcDbEntity
  8
寸法
  6
CONTINUOUS
 62
     2
100
AcDbLine
 10
1057.528688517258
 20
3375.0
 30
0.0
 11
1411.000000000317
 21
3375.0
 31
0.0
  0
DIMENSION
  5
42A
330
1F
100
AcDbEntity
  8
寸法
  6
CONTINUOUS
 62
     3
100
AcDbDimension
  2
*D30
 10
1161.000000000318
 20
4005.0
 30
0.0
 11
728.5000000003203
 21
4040.249999910593
 31
0.0
 70
   160
  1
200（壁排水）
  3
ISO-25
100
AcDbAlignedDimension
 13
961.0000000003201
 23
3825.0
 33
0.0
 14
1161.000000000318
 24
3875.0
 34
0.0
100
AcDbRotatedDimension
1001
ACAD
1000
DSTYLE
1002
{
1070
   270
1070
     2
1070
     6
1000
EX_NORM
1070
     7
1000
EX_NORM
1070
    41
1040
44.99999618530273
1070
    42
1040
10.49999982118607
1070
    44
1040
15.0
1070
    73
1070
     0
1070
    74
1070
     0
1070
    75
1070
     0
1070
    76
1070
     0
1070
    77
1070
     1
1070
    78
1070
     0
1070
   140
1040
59.99999618530273
1070
   147
1040
0.0
1070
   173
1070
     1
1070
   176
1070
     3
1070
   177
1070
     3
1070
   178
1070
     2
1070
   271
1070
     0
1070
   277
1070
     2
1070
   279
1070
     2
1070
   280
1070
     1
1070
   287
1070
     5
1070
   340
1005
355
1002
}
  0
DIMENSION
  5
437
330
1F
100
AcDbEntity
  8
寸法
  6
CONTINUOUS
 62
     3
100
AcDbDimension
  2
*D31
 10
1061.00000000032
 20
3915.0
 30
0.0
 11
628.5000000003203
 21
3950.249999910593
 31
0.0
 70
   160
  1
200（壁給水）
  3
ISO-25
100
AcDbAlignedDimension
 13
861.0000000003201
 23
3833.0
 33
0.0
 14
1061.00000000032
 24
3838.5
 34
0.0
100
AcDbRotatedDimension
1001
ACAD
1000
DSTYLE
1002
{
1070
   270
1070
     2
1070
     6
1000
EX_NORM
1070
     7
1000
EX_NORM
1070
    41
1040
44.99999618530273
1070
    42
1040
10.49999982118561
1070
    44
1040
15.0
1070
    73
1070
     0
1070
    74
1070
     0
1070
    75
1070
     0
1070
    76
1070
     0
1070
    77
1070
     1
1070
    78
1070
     0
1070
   140
1040
59.99999618530273
1070
   147
1040
0.0
1070
   173
1070
     1
1070
   176
1070
     3
1070
   177
1070
     3
1070
   178
1070
     2
1070
   271
1070
     0
1070
   277
1070
     2
1070
   279
1070
     2
1070
   280
1070
     1
1070
   287
1070
     5
1070
   340
1005
355
1002
}
  0
DIMENSION
  5
444
330
1F
100
AcDbEntity
  8
寸法
  6
CONTINUOUS
 62
     3
100
AcDbDimension
  2
*D32
 10
1531.000000000327
 20
3375.0
 30
0.0
 11
1495.750000089735
 21
3599.999999999999
 31
0.0
 70
   160
  3
ISO-25
100
AcDbAlignedDimension
 13
1411.000000000317
 23
3825.0
 33
0.0
 14
1411.000000000317
 24
3375.0
 34
0.0
 50
90.0
100
AcDbRotatedDimension
1001
ACAD
1000
DSTYLE
1002
{
1070
   270
1070
     2
1070
     6
1000
EX_NORM
1070
     7
1000
EX_NORM
1070
    41
1040
44.99999618530273
1070
    42
1040
10.49999982118607
1070
    44
1040
15.0
1070
    73
1070
     0
1070
    74
1070
     0
1070
    75
1070
     1
1070
    76
1070
     0
1070
    77
1070
     1
1070
    78
1070
     0
1070
   140
1040
59.99999618530273
1070
   147
1040
0.0
1070
   173
1070
     1
1070
   176
1070
     3
1070
   177
1070
     3
1070
   178
1070
     2
1070
   271
1070
     0
1070
   277
1070
     2
1070
   279
1070
     2
1070
   280
1070
     0
1070
   287
1070
     5
1070
   340
1005
355
1002
}
  0
DIMENSION
  5
450
330
1F
100
AcDbEntity
  8
寸法
  6
CONTINUOUS
 62
     3
100
AcDbDimension
  2
*D33
 10
1411.000000000317
 20
3115.0
 30
0.0
 11
961.0000000003186
 21
3150.249999910593
 31
0.0
 70
   160
  3
ISO-25
100
AcDbAlignedDimension
 13
511.0000000003201
 23
3375.0
 33
0.0
 14
1411.000000000317
 24
3375.0
 34
0.0
100
AcDbRotatedDimension
1001
ACAD
1000
DSTYLE
1002
{
1070
   270
1070
     2
1070
     6
1000
EX_NORM
1070
     7
1000
EX_NORM
1070
    41
1040
44.99999618530273
1070
    42
1040
10.49999982118607
1070
    44
1040
15.0
1070
    73
1070
     0
1070
    74
1070
     0
1070
    75
1070
     0
1070
    76
1070
     0
1070
    77
1070
     1
1070
    78
1070
     0
1070
   140
1040
59.99999618530273
1070
   147
1040
0.0
1070
   173
1070
     1
1070
   176
1070
     3
1070
   177
1070
     3
1070
   178
1070
     2
1070
   271
1070
     0
1070
   277
1070
     2
1070
   279
1070
     2
1070
   280
1070
     0
1070
   287
1070
     5
1070
   340
1005
355
1002
}
  0
DIMENSION
  5
45D
330
1F
100
AcDbEntity
  8
寸法
  6
CONTINUOUS
 62
     3
100
AcDbDimension
  2
*D34
 10
1186.000000000327
 20
3205.0
 30
0.0
 11
961.0000000003286
 21
3240.249999910593
 31
0.0
 70
   160
  3
ISO-25
100
AcDbAlignedDimension
 13
736.0000000003292
 23
3570.5
 33
0.0
 14
1186.000000000327
 24
3570.5
 34
0.0
100
AcDbRotatedDimension
1001
ACAD
1000
DSTYLE
1002
{
1070
   270
1070
     2
1070
     6
1000
EX_NORM
1070
     7
1000
EX_NORM
1070
    41
1040
44.99999618530273
1070
    42
1040
10.49999982118607
1070
    44
1040
15.0
1070
    73
1070
     0
1070
    74
1070
     0
1070
    75
1070
     0
1070
    76
1070
     0
1070
    77
1070
     1
1070
    78
1070
     0
1070
   140
1040
59.99999618530273
1070
   147
1040
0.0
1070
   173
1070
     1
1070
   176
1070
     3
1070
   177
1070
     3
1070
   178
1070
     2
1070
   271
1070
     0
1070
   277
1070
     2
1070
   279
1070
     2
1070
   280
1070
     0
1070
   287
1070
     5
1070
   340
1005
355
1002
}
  0
ARC
  5
46A
330
1F
100
AcDbEntity
  8
寸法
  6
CONTINUOUS
 62
     6
100
AcDbCircle
 10
909.0384757739389
 20
3610.0
 30
0.0
 40
50.00000000000004
100
AcDbArc
 50
90.00000000000001
 51
171.7867892961641
  0
ARC
  5
46B
330
1F
100
AcDbEntity
  8
寸法
  6
CONTINUOUS
 62
     6
100
AcDbCircle
 10
1012.961524226719
 20
3610.0
 30
0.0
 40
50.00000000000004
100
AcDbArc
 50
8.213210703835998
 51
90.00000000000001
  0
ARC
  5
46C
330
1F
100
AcDbEntity
  8
寸法
  6
CONTINUOUS
 62
     6
100
AcDbCircle
 10
961.0000000003289
 20
3602.499999998156
 30
0.0
 40
102.4999999995951
100
AcDbArc
 50
171.7867892961641
 51
8.213210703835998
  0
ARC
  5
46D
330
1F
100
AcDbEntity
  8
寸法
  6
CONTINUOUS
 62
     2
100
AcDbCircle
 10
961.0000000003289
 20
3590.429987018266
 30
0.0
 40
212.5700129817332
100
AcDbArc
 50
9.763897427589361
 51
170.2361025724106
  0
ARC
  5
46E
330
1F
100
AcDbEntity
  8
寸法
  6
CONTINUOUS
 62
     2
100
AcDbCircle
 10
800.7848212404256
 20
3618.0
 30
0.0
 40
50.00000000000004
100
AcDbArc
 50
90.00000000000001
 51
170.2361025724106
  0
ARC
  5
46F
330
1F
100
AcDbEntity
  8
寸法
  6
CONTINUOUS
 62
     2
100
AcDbCircle
 10
1121.21517876023
 20
3618.0
 30
0.0
 40
50.00000000000004
100
AcDbArc
 50
9.763897427589361
 51
90.00000000000001
  0
LINE
  5
470
330
1F
100
AcDbEntity
  8
寸法
  6
CONTINUOUS
 62
     6
100
AcDbLine
 10
924.1000000003291
 20
3580.0
 30
0.0
 11
997.9000000003283
 21
3580.0
 31
0.0
  0
CIRCLE
  5
471
330
1F
100
AcDbEntity
  8
寸法
  6
CONTINUOUS
 62
     2
100
AcDbCircle
 10
961.0000000003289
 20
3580.0
 30
0.0
 40
19.20000000000001
  0
CIRCLE
  5
472
330
1F
100
AcDbEntity
  8
寸法
  6
CONTINUOUS
 62
     6
100
AcDbCircle
 10
901.0000000003288
 20
3719.0
 30
0.0
 40
8.50000000060004
  0
CIRCLE
  5
473
330
1F
100
AcDbEntity
  8
寸法
  6
CONTINUOUS
 62
     6
100
AcDbCircle
 10
901.0000000003288
 20
3719.0
 30
0.0
 40
12.5
  0
ELLIPSE
  5
474
330
1F
100
AcDbEntity
  8
寸法
  6
CONTINUOUS
 62
     2
100
AcDbEllipse
 10
961.000000000327
 20
3580.5
 30
0.0
 11
1.393035734030114E-14
 21
227.5
 31
0.0
210
0.0
220
0.0
230
1.0
 40
0.9890109890109892
 41
0.0
 42
6.283185307179586
  0
CIRCLE
  5
475
330
1F
100
AcDbEntity
  8
寸法
  6
CONTINUOUS
 62
     6
100
AcDbCircle
 10
961.0000000003178
 20
3729.0
 30
0.0
 40
25.00000000010004
  0
ELLIPSE
  5
476
330
1F
100
AcDbEntity
  8
寸法
  6
CONTINUOUS
 62
     6
100
AcDbEllipse
 10
961.0000000003178
 20
3635.440536449099
 30
0.0
 11
-7.500000000000007
 21
9.184850993605158E-16
 31
0.0
210
0.0
220
0.0
230
1.0
 40
0.4388120546666563
 41
0.0
 42
6.283185307179586
  0
ELLIPSE
  5
477
330
1F
100
AcDbEntity
  8
寸法
  6
CONTINUOUS
 62
     6
100
AcDbEllipse
 10
961.0000000003178
 20
3611.2145230735
 30
0.0
 11
-15.00000000000001
 21
1.836970198721031E-15
 31
0.0
210
0.0
220
0.0
230
1.0
 40
0.4362793889666742
 41
0.0
 42
6.283185307179586
  0
LINE
  5
478
330
1F
100
AcDbEntity
  8
寸法
  6
CONTINUOUS
 62
     6
100
AcDbLine
 10
946.0000000003179
 20
3611.2145230735
 30
0.0
 11
946.0000000003179
 21
3708.999999999874
 31
0.0
  0
LINE
  5
479
330
1F
100
AcDbEntity
  8
寸法
  6
CONTINUOUS
 62
     6
100
AcDbLine
 10
976.0000000003178
 20
3611.2145230735
 30
0.0
 11
976.0000000003178
 21
3708.999999999874
 31
0.0
  0
LINE
  5
47A
330
1F
100
AcDbEntity
  8
寸法
  6
CONTINUOUS
 62
     6
100
AcDbLine
 10
953.5000000003179
 20
3635.440536449099
 30
0.0
 11
953.5000000003179
 21
3705.151519964471
 31
0.0
  0
LINE
  5
47B
330
1F
100
AcDbEntity
  8
寸法
  6
CONTINUOUS
 62
     6
100
AcDbLine
 10
968.5000000003178
 20
3635.440536449099
 30
0.0
 11
968.5000000003178
 21
3705.151519964471
 31
0.0
  0
LINE
  5
47C
330
1F
100
AcDbEntity
  8
寸法
  6
CONTINUOUS
 62
     6
100
AcDbLine
 10
946.0000000003179
 20
3660.0
 30
0.0
 11
909.0384757739389
 21
3660.0
 31
0.0
  0
LINE
  5
47D
330
1F
100
AcDbEntity
  8
寸法
  6
CONTINUOUS
 62
     2
100
AcDbLine
 10
800.7848212404256
 20
3668.0
 30
0.0
 11
946.0000000003179
 21
3668.0
 31
0.0
  0
LINE
  5
47E
330
1F
100
AcDbEntity
  8
寸法
  6
CONTINUOUS
 62
     2
100
AcDbLine
 10
976.0000000003178
 20
3668.0
 30
0.0
 11
1121.21517876023
 21
3668.0
 31
0.0
  0
LINE
  5
47F
330
1F
100
AcDbEntity
  8
寸法
  6
CONTINUOUS
 62
     6
100
AcDbLine
 10
1012.961524226719
 20
3660.0
 30
0.0
 11
976.0000000003178
 21
3660.0
 31
0.0
  0
ARC
  5
480
330
1F
100
AcDbEntity
  8
寸法
  6
CONTINUOUS
 62
     2
100
AcDbCircle
 10
961.0000000003289
 20
3580.0
 30
0.0
 40
26.90000000000001
100
AcDbArc
 50
107.3170186528517
 51
72.68298134716953
  0
LINE
  5
481
330
1F
100
AcDbEntity
  8
寸法
  6
CONTINUOUS
 62
     6
100
AcDbLine
 10
1001.00000000042
 20
3728.999999999989
 30
0.0
 11
921.0000000002196
 21
3728.999999999989
 31
0.0
  0
ELLIPSE
  5
482
330
1F
100
AcDbEntity
  8
寸法
  6
CONTINUOUS
 62
     6
100
AcDbEllipse
 10
961.000000000327
 20
3580.5
 30
0.0
 11
1.362419564051430E-14
 21
222.5
 31
0.0
210
0.0
220
0.0
230
1.0
 40
0.9887640449438201
 41
0.0
 42
6.283185307179586
  0
DIMENSION
  5
483
330
1F
100
AcDbEntity
  8
寸法
  6
CONTINUOUS
 62
     3
100
AcDbDimension
  2
*D35
 10
1621.00000000037
 20
3353.0
 30
0.0
 11
1585.750000089777
 21
3589.0
 31
0.0
 70
   160
  1
470
  3
ISO-25
100
AcDbAlignedDimension
 13
1411.00000000027
 23
3825.0
 33
0.0
 14
961.0000000003201
 24
3353.0
 34
0.0
 50
90.0
100
AcDbRotatedDimension
1001
ACAD
1000
DSTYLE
1002
{
1070
   270
1070
     2
1070
     6
1000
EX_NORM
1070
     7
1000
EX_NORM
1070
    41
1040
44.99999618530273
1070
    42
1040
10.49999982118607
1070
    44
1040
15.0
1070
    73
1070
     0
1070
    74
1070
     0
1070
    75
1070
     1
1070
    76
1070
     0
1070
    77
1070
     1
1070
    78
1070
     8
1070
   140
1040
59.99999618530273
1070
   147
1040
0.0
1070
   173
1070
     1
1070
   176
1070
     3
1070
   177
1070
     3
1070
   178
1070
     2
1070
   271
1070
     1
1070
   277
1070
     2
1070
   279
1070
     2
1070
   280
1070
     0
1070
   287
1070
     5
1070
   340
1005
355
1002
}
  0
LINE
  5
48F
330
1F
100
AcDbEntity
  8
寸法
  6
CONTINUOUS
 62
     2
100
AcDbLine
 10
2129.13684962076
 20
1619.499999999851
 30
0.0
 11
2466.991244013615
 21
1619.499999999851
 31
0.0
  0
LINE
  5
490
330
1F
100
AcDbEntity
  8
寸法
  6
CONTINUOUS
 62
     2
100
AcDbLine
 10
2129.000000000359
 20
1619.4999999999
 30
0.0
 11
2019.936776138481
 21
1771.586203190225
 31
0.0
  0
LINE
  5
491
330
1F
100
AcDbEntity
  8
寸法
  6
CONTINUOUS
 62
     2
100
AcDbLine
 10
2023.88766880912
 20
1779.498738010985
 30
0.0
 11
2468.887668809101
 21
1789.498738010987
 31
0.0
  0
LINE
  5
492
330
1F
100
AcDbEntity
  8
寸法
  6
CONTINUOUS
 62
     2
100
AcDbLine
 10
2473.99548949366
 20
1784.287668367015
 30
0.0
 11
2466.991244013662
 21
1619.4999999999
 31
0.0
  0
ARC
  5
493
330
1F
100
AcDbEntity
  8
寸法
  6
CONTINUOUS
 62
     2
100
AcDbCircle
 10
2469.000000000361
 20
1784.499999999902
 30
0.0
 40
5.0
100
AcDbArc
 50
357.566126804928
 51
91.28732894152482
  0
ARC
  5
494
330
1F
100
AcDbEntity
  8
寸法
  6
CONTINUOUS
 62
     2
100
AcDbCircle
 10
2024.000000000381
 20
1774.499999999902
 30
0.0
 40
5.0
100
AcDbArc
 50
91.28732894152482
 51
215.6448564186274
  0
LINE
  5
495
330
1F
100
AcDbEntity
  8
寸法
  6
CONTINUOUS
 62
     6
100
AcDbLine
 10
2419.49999999995
 20
1879.883863229501
 30
0.0
 11
2419.49999999995
 21
1788.3762911555
 31
0.0
  0
LINE
  5
496
330
1F
100
AcDbEntity
  8
寸法
  6
CONTINUOUS
 62
     6
100
AcDbLine
 10
2370.49999999995
 20
1799.539653100299
 30
0.0
 11
2370.49999999995
 21
1787.26265479187
 31
0.0
  0
LINE
  5
497
330
1F
100
AcDbEntity
  8
寸法
  6
CONTINUOUS
 62
     6
100
AcDbLine
 10
2346.782032302963
 20
1847.874244286122
 30
0.0
 11
2331.782032302967
 21
1821.893482172589
 31
0.0
  0
LINE
  5
498
330
1F
100
AcDbEntity
  8
寸法
  6
CONTINUOUS
 62
     6
100
AcDbLine
 10
2286.337682219666
 20
1848.130789926327
 30
0.0
 11
2370.49999999995
 21
1799.539653100262
 31
0.0
  0
ELLIPSE
  5
499
330
1F
100
AcDbEntity
  8
寸法
  6
CONTINUOUS
 62
     6
100
AcDbEllipse
 10
2370.49999999995
 20
1816.860161175951
 30
0.0
 11
-3.181725716167551E-15
 21
-17.32050807564974
 31
0.0
210
0.0
220
0.0
230
1.0
 40
0.2961015548620202
 41
0.0
 42
3.141592653589793
  0
ELLIPSE
  5
49A
330
1F
100
AcDbEntity
  8
寸法
  6
CONTINUOUS
 62
     6
100
AcDbEllipse
 10
2370.49999999995
 20
1914.383863229501
 30
0.0
 11
-1.531427479570780E-15
 21
4.0
 31
0.0
210
0.0
220
0.0
230
1.0
 40
0.1525819451966582
 41
3.141592653589784
 42
6.283185307179586
  0
LINE
  5
49B
330
1F
100
AcDbEntity
  8
寸法
  6
CONTINUOUS
 62
     6
100
AcDbLine
 10
2370.49999999995
 20
1910.383863229501
 30
0.0
 11
2370.49999999995
 21
1881.883863229501
 31
0.0
  0
LINE
  5
49C
330
1F
100
AcDbEntity
  8
寸法
  6
CONTINUOUS
 62
     6
100
AcDbLine
 10
2370.49999999995
 20
1921.883863229501
 30
0.0
 11
2370.49999999995
 21
1918.383863229501
 31
0.0
  0
ARC
  5
49D
330
1F
100
AcDbEntity
  8
寸法
  6
CONTINUOUS
 62
     6
100
AcDbCircle
 10
2395.000000000251
 20
1879.883863229501
 30
0.0
 40
21.50470878668207
100
AcDbArc
 50
0.0
 51
34.61977017493128
  0
ARC
  5
49E
330
1F
100
AcDbEntity
  8
寸法
  6
CONTINUOUS
 62
     6
100
AcDbCircle
 10
2263.866025403994
 20
1862.259507576369
 30
0.0
 40
1.0
100
AcDbArc
 50
150.0000000000029
 51
240.0000000000029
  0
LINE
  5
49F
330
1F
100
AcDbEntity
  8
寸法
  6
CONTINUOUS
 62
     6
100
AcDbLine
 10
2263.366025403994
 20
1861.393482172585
 30
0.0
 11
2266.343012176538
 21
1859.674718058082
 31
0.0
  0
LINE
  5
4A0
330
1F
100
AcDbEntity
  8
寸法
  6
CONTINUOUS
 62
     6
100
AcDbLine
 10
2277.000000000208
 20
1887.008218882334
 30
0.0
 11
2263.000000000208
 21
1862.759507576369
 31
0.0
  0
ARC
  5
4A1
330
1F
100
AcDbEntity
  8
寸法
  6
CONTINUOUS
 62
     6
100
AcDbCircle
 10
2277.866025403994
 20
1886.508218882334
 30
0.0
 40
1.0
100
AcDbArc
 50
60.00000000000271
 51
150.0000000000029
  0
LINE
  5
4A2
330
1F
100
AcDbEntity
  8
寸法
  6
CONTINUOUS
 62
     6
100
AcDbLine
 10
2278.366025403994
 20
1887.374244286118
 30
0.0
 11
2370.49999999995
 21
1834.180669251638
 31
0.0
  0
ARC
  5
4A3
330
1F
100
AcDbEntity
  8
寸法
  6
CONTINUOUS
 62
     6
100
AcDbCircle
 10
2417.49999999995
 20
1921.883863229501
 30
0.0
 40
2.0
100
AcDbArc
 50
0.0
 51
90.00000000000001
  0
LINE
  5
4A4
330
1F
100
AcDbEntity
  8
寸法
  6
CONTINUOUS
 62
     6
100
AcDbLine
 10
2372.49999999995
 20
1923.883863229501
 30
0.0
 11
2417.49999999995
 21
1923.883863229501
 31
0.0
  0
LINE
  5
4A5
330
1F
100
AcDbEntity
  8
寸法
  6
CONTINUOUS
 62
     6
100
AcDbLine
 10
2419.49999999995
 20
1921.883863229501
 30
0.0
 11
2419.49999999995
 21
1896.028944824826
 31
0.0
  0
ARC
  5
4A6
330
1F
100
AcDbEntity
  8
寸法
  6
CONTINUOUS
 62
     6
100
AcDbCircle
 10
2372.49999999995
 20
1921.883863229501
 30
0.0
 40
2.0
100
AcDbArc
 50
90.00000000000001
 51
180.0
  0
LINE
  5
4A7
330
1F
100
AcDbEntity
  8
寸法
  6
CONTINUOUS
 62
     6
100
AcDbLine
 10
2370.49999999995
 20
1879.883863229501
 30
0.0
 11
2370.49999999995
 21
1834.1806692516
 31
0.0
  0
LINE
  5
4A8
330
1F
100
AcDbEntity
  8
寸法
  6
CONTINUOUS
 62
     6
100
AcDbLine
 10
2370.49999999995
 20
1881.883863229501
 30
0.0
 11
2394.999999999637
 21
1881.883863229501
 31
0.0
  0
LINE
  5
4A9
330
1F
100
AcDbEntity
  8
寸法
  6
CONTINUOUS
 62
     6
100
AcDbLine
 10
2370.49999999995
 20
1879.883863229501
 30
0.0
 11
2419.49999999995
 21
1879.883863229501
 31
0.0
  0
LINE
  5
4AA
330
1F
100
AcDbEntity
  8
寸法
  6
CONTINUOUS
 62
     6
100
AcDbLine
 10
2394.999999999873
 20
1881.883863229637
 30
0.0
 11
2419.49999999995
 21
1896.028944824826
 31
0.0
  0
ELLIPSE
  5
4AB
330
1F
100
AcDbEntity
  8
寸法
  6
CONTINUOUS
 62
     6
100
AcDbEllipse
 10
2276.340347198101
 20
1853.902753992201
 30
0.0
 11
9.997335021550128
 21
-5.77196406590008
 31
0.0
210
0.0
220
0.0
230
1.0
 40
0.4017250258051183
 41
0.0
 42
3.141592653594508
  0
LINE
  5
4AC
330
1F
100
AcDbEntity
  8
寸法
  6
CONTINUOUS
 62
     6
100
AcDbLine
 10
2309.99999999995
 20
1918.383863229501
 30
0.0
 11
2370.49999999995
 21
1918.383863229501
 31
0.0
  0
LINE
  5
4AD
330
1F
100
AcDbEntity
  8
寸法
  6
CONTINUOUS
 62
     6
100
AcDbLine
 10
2309.99999999995
 20
1910.383863229501
 30
0.0
 11
2370.49999999995
 21
1910.383863229501
 31
0.0
  0
LINE
  5
4AE
330
1F
100
AcDbEntity
  8
寸法
  6
CONTINUOUS
 62
     6
100
AcDbLine
 10
2309.99999999995
 20
1918.383863229501
 30
0.0
 11
2309.99999999995
 21
1910.383863229501
 31
0.0
  0
LINE
  5
4AF
330
1F
100
AcDbEntity
  8
寸法
  6
CONTINUOUS
 62
     6
100
AcDbLine
 10
2284.422539550873
 20
1844.023753219382
 30
0.0
 11
2286.337682219634
 21
1848.130789926308
 31
0.0
  0
LINE
  5
4B0
330
1F
100
AcDbEntity
  8
寸法
  6
CONTINUOUS
 62
     6
100
AcDbLine
 10
2263.577460449029
 20
1853.743973239419
 30
0.0
 11
2266.343012176545
 21
1859.674718058104
 31
0.0
  0
LINE
  5
4B1
330
1F
100
AcDbEntity
  8
寸法
  6
CONTINUOUS
 62
     6
100
AcDbLine
 10
2263.577460449037
 20
1853.743973239368
 30
0.0
 11
2284.422539550866
 21
1844.023753219335
 31
0.0
  0
LINE
  5
4B2
330
1F
100
AcDbEntity
  8
寸法
  6
EXLTYPE3
 62
     6
100
AcDbLine
 10
2395.000000000368
 20
1938.883863229501
 30
0.0
 11
2395.000000000368
 21
1757.838340959104
 31
0.0
  0
ARC
  5
4B3
330
1F
100
AcDbEntity
  8
寸法
  6
CONTINUOUS
 62
     2
100
AcDbCircle
 10
2044.000000000316
 20
1616.499999999948
 30
0.0
 40
3.0
100
AcDbArc
 50
90.00000000000001
 51
180.0
  0
DIMENSION
  5
4B4
330
1F
100
AcDbEntity
  8
寸法
  6
CONTINUOUS
 62
     3
100
AcDbDimension
  2
*D36
 10
1621.0000000003
 20
2103.1
 30
0.0
 11
1579.750000089707
 21
2386.3
 31
0.0
 70
   160
  1
567
 53
90.00000000000001
  3
ISO-25
100
AcDbAlignedDimension
 13
1576.00000000029
 23
2669.5
 33
0.0
 14
1576.00000000029
 24
2103.1
 34
0.0
 50
90.0
100
AcDbRotatedDimension
1001
ACAD
1000
DSTYLE
1002
{
1070
   270
1070
     2
1070
     6
1000
EX_NORM
1070
     7
1000
EX_NORM
1070
    41
1040
44.99999618530273
1070
    42
1040
0.0
1070
    44
1040
0.0
1070
    73
1070
     0
1070
    74
1070
     0
1070
    75
1070
     1
1070
    76
1070
     0
1070
    77
1070
     1
1070
    78
1070
     0
1070
   140
1040
59.99999618530273
1070
   147
1040
0.0
1070
   173
1070
     1
1070
   176
1070
     3
1070
   177
1070
     3
1070
   178
1070
     2
1070
   271
1070
     0
1070
   277
1070
     2
1070
   279
1070
     2
1070
   280
1070
     0
1070
   287
1070
     5
1070
   340
1005
355
1002
}
  0
DIMENSION
  5
4C0
330
1F
100
AcDbEntity
  8
寸法
  6
CONTINUOUS
 62
     3
100
AcDbDimension
  2
*D37
 10
2895.510000000739
 20
2669.5
 30
0.0
 11
2860.750000089747
 21
2764.7
 31
0.0
 70
   160
  1
63
 53
90.00000000000173
  3
ISO-25
100
AcDbAlignedDimension
 13
2523.71000000077
 23
2613.3
 33
0.0
 14
2389.310000000771
 24
2669.5
 34
0.0
 50
90.0
100
AcDbRotatedDimension
1001
ACAD
1000
DSTYLE
1002
{
1070
   270
1070
     2
1070
     6
1000
EX_NONE
1070
     7
1000
EX_NORM
1070
    41
1040
44.99999618530273
1070
    42
1040
10.990050137043
1070
    44
1040
15.49005031585693
1070
    73
1070
     0
1070
    74
1070
     0
1070
    75
1070
     1
1070
    76
1070
     0
1070
    77
1070
     1
1070
    78
1070
     8
1070
   140
1040
59.99999618530273
1070
   147
1040
0.0
1070
   173
1070
     1
1070
   176
1070
     3
1070
   177
1070
     3
1070
   178
1070
     2
1070
   271
1070
     2
1070
   277
1070
     2
1070
   279
1070
     2
1070
   280
1070
     0
1070
   287
1070
     5
1070
   340
1005
355
1002
}
  0
DIMENSION
  5
4CE
330
1F
100
AcDbEntity
  8
寸法
  6
CONTINUOUS
 62
     3
100
AcDbDimension
  2
*D38
 10
2895.50000000054
 20
2606.3
 30
0.0
 11
2860.250000089947
 21
2386.3
 31
0.0
 70
   160
  1
440（壁固定）
  3
ISO-25
100
AcDbAlignedDimension
 13
2850.70000000054
 23
2166.3
 33
0.0
 14
2850.70000000054
 24
2606.3
 34
0.0
 50
90.0
100
AcDbRotatedDimension
1001
ACAD
1000
DSTYLE
1002
{
1070
   270
1070
     2
1070
     6
1000
EX_NORM
1070
     7
1000
EX_NORM
1070
    41
1040
44.99999618530273
1070
    42
1040
0.0
1070
    44
1040
0.0
1070
    73
1070
     0
1070
    74
1070
     0
1070
    75
1070
     0
1070
    76
1070
     1
1070
    77
1070
     1
1070
    78
1070
     8
1070
   140
1040
59.99999618530273
1070
   147
1040
0.0
1070
   173
1070
     1
1070
   176
1070
     3
1070
   177
1070
     3
1070
   178
1070
     2
1070
   271
1070
     1
1070
   277
1070
     2
1070
   279
1070
     2
1070
   280
1070
     0
1070
   287
1070
     5
1070
   340
1005
355
1002
}
  0
DIMENSION
  5
4DA
330
1F
100
AcDbEntity
  8
寸法
  6
CONTINUOUS
 62
     3
100
AcDbDimension
  2
*D39
 10
2895.50000000054
 20
919.5
 30
0.0
 11
2858.250000089547
 21
1542.9
 31
0.0
 70
   160
  1
（1247）
 53
90.00000000000001
  3
ISO-25
100
AcDbAlignedDimension
 13
2912.50000000094
 23
2166.3
 33
0.0
 14
2895.50000000054
 24
919.5
 34
0.0
 50
90.0
100
AcDbRotatedDimension
1001
ACAD
1000
DSTYLE
1002
{
1070
   270
1070
     2
1070
     6
1000
EX_NORM
1070
     7
1000
EX_NORM
1070
    41
1040
44.99999618530273
1070
    42
1040
12.49994963407516
1070
    44
1040
16.9999498128891
1070
    73
1070
     0
1070
    74
1070
     0
1070
    75
1070
     0
1070
    76
1070
     1
1070
    77
1070
     1
1070
    78
1070
     8
1070
   140
1040
59.99999618530273
1070
   147
1040
0.0
1070
   173
1070
     1
1070
   176
1070
     3
1070
   177
1070
     3
1070
   178
1070
     2
1070
   271
1070
     1
1070
   277
1070
     2
1070
   279
1070
     2
1070
   280
1070
     0
1070
   287
1070
     5
1070
   340
1005
355
1002
}
  0
LINE
  5
4E6
330
1F
100
AcDbEntity
  8
寸法
  6
CONTINUOUS
 62
     3
100
AcDbLine
 10
2538.00000000014
 20
2606.300000000003
 30
0.0
 11
2905.50000000054
 21
2606.299999999999
 31
0.0
  0
LINE
  5
4E7
330
1F
100
AcDbEntity
  8
寸法
  6
CONTINUOUS
 62
     3
100
AcDbLine
 10
2511.999999642627
 20
919.5
 30
0.0
 11
2911.500000000241
 21
919.5
 31
0.0
  0
ENDSEC
  0
SECTION
  2
OBJECTS
  0
DICTIONARY
  5
C
330
0
100
AcDbDictionary
  3
ACAD_GROUP
350
D
  3
ACAD_LAYOUT
350
1A
  3
ACAD_MATERIAL
350
3B
  3
ACAD_MLEADERSTYLE
350
50A
  3
ACAD_MLINESTYLE
350
17
  3
ACAD_PLOTSETTINGS
350
19
  3
ACAD_VISUALSTYLE
350
2A
  3
ACDBHEADERROUNDTRIPXREC
350
4E8
  3
ACDBVARIABLEDICTIONARY
350
508
  0
DICTIONARY
  5
D
102
{ACAD_REACTORS
330
C
102
}
330
C
100
AcDbDictionary
  0
DICTIONARY
  5
1A
102
{ACAD_REACTORS
330
C
102
}
330
C
100
AcDbDictionary
  0
DICTIONARY
  5
3B
102
{ACAD_REACTORS
330
C
102
}
330
C
100
AcDbDictionary
  3
BYBLOCK
350
3D
  3
BYLAYER
350
3C
  3
GLOBAL
350
3E
  0
DICTIONARY
  5
50A
102
{ACAD_REACTORS
330
C
102
}
330
C
100
AcDbDictionary
  0
DICTIONARY
  5
17
102
{ACAD_REACTORS
330
C
102
}
330
C
100
AcDbDictionary
  3
STANDARD
350
18
  0
DICTIONARY
  5
19
102
{ACAD_REACTORS
330
C
102
}
330
C
100
AcDbDictionary
  0
DICTIONARY
  5
2A
102
{ACAD_REACTORS
330
C
102
}
330
C
100
AcDbDictionary
  3
2DWIREFRAME
350
2F
  3
3D_HIDDEN
350
31
  3
3DWIREFRAME
350
30
  3
BASIC
350
32
  3
BRIGHTEN
350
36
  3
COLORCHANGE
350
3A
  3
CONCEPTUAL
350
34
  3
DIM
350
35
  3
FACEPATTERN
350
39
  3
FLAT
350
2B
  3
FLATWITHEDGES
350
2C
  3
GOURAUD
350
2D
  3
GOURAUDWITHEDGES
350
2E
  3
LINEPATTERN
350
38
  3
REALISTIC
350
33
  3
THICKEN
350
37
  0
DICTIONARY
  5
4E8
102
{ACAD_REACTORS
330
C
102
}
330
C
100
AcDbDictionary
  3
CEPSNTYPE
350
4F1
  3
DIMSTYLEDATA
350
507
  3
FINGERPRINTGUID
350
4F2
  3
HYPERLINKBASE
350
4EB
  3
INSUNITS
350
4F0
  3
LAYOUTDICT
350
4ED
  3
LWETCUNION
350
4EF
  3
PLOTSETDICT
350
4EE
  3
PSVPSCALE
350
4F4
  3
PUCSBASE
350
4F7
  3
PUCSORGBACK
350
4FD
  3
PUCSORGBOTTOM
350
4F9
  3
PUCSORGFRONT
350
4FC
  3
PUCSORGLEFT
350
4FA
  3
PUCSORGRIGHT
350
4FB
  3
PUCSORGTOP
350
4F8
  3
PUCSORTHOREF
350
4F5
  3
PUCSORTHOVIEW
350
4F6
  3
STYLESHEET
350
4EC
  3
TSTACKALIGN
350
4E9
  3
TSTACKSIZE
350
4EA
  3
UCSBASE
350
500
  3
UCSORGBACK
350
506
  3
UCSORGBOTTOM
350
502
  3
UCSORGFRONT
350
505
  3
UCSORGLEFT
350
503
  3
UCSORGRIGHT
350
504
  3
UCSORGTOP
350
501
  3
UCSORTHOREF
350
4FE
  3
UCSORTHOVIEW
350
4FF
  3
VERSIONGUID
350
4F3
  0
DICTIONARY
  5
508
102
{ACAD_REACTORS
330
C
102
}
330
C
100
AcDbDictionary
  3
DIMASSOC
350
50D
  3
HIDETEXT
350
50E
  3
PSOLHEIGHT
350
50C
  3
PSOLWIDTH
350
50B
  0
MATERIAL
  5
3D
102
{ACAD_REACTORS
330
3B
102
}
102
{ACAD_XDICTIONARY
360
511
102
}
330
3B
100
AcDbMaterial
  1
ByBlock
  0
MATERIAL
  5
3C
102
{ACAD_REACTORS
330
3B
102
}
102
{ACAD_XDICTIONARY
360
50F
102
}
330
3B
100
AcDbMaterial
  1
ByLayer
  0
MATERIAL
  5
3E
102
{ACAD_REACTORS
330
3B
102
}
102
{ACAD_XDICTIONARY
360
513
102
}
330
3B
100
AcDbMaterial
  1
Global
  0
MLINESTYLE
  5
18
102
{ACAD_REACTORS
330
17
102
}
330
17
100
AcDbMlineStyle
  2
Standard
 70
     0
  3

 62
   256
 51
90.0
 52
90.0
 71
     2
 49
0.5
 62
   256
  6
BYLAYER
 49
-0.5
 62
   256
  6
BYLAYER
  0
ACAD_PROXY_OBJECT
  5
2F
102
{ACAD_REACTORS
330
2A
102
}
330
2A
100
AcDbProxyObject
 90
      499
 91
      501
 93
      436
310
42CC9915DA5C99599C985B595049028333333333333E3BF0000000000000FB0107901411070040501600405405064090741402480A0340
1001
ACAD
1000
AcDbSavedByObjectVersion
1070
     0
  0
ACAD_PROXY_OBJECT
  5
31
102
{ACAD_REACTORS
330
2A
102
}
330
2A
100
AcDbProxyObject
 90
      499
 91
      501
 93
      500
310
424CD108121A5919195B90640502408333333333333E3BF0000000000000FB01079024090700405020000000000001110200405405064090740C02480A0340
1001
ACAD
1000
AcDbSavedByObjectVersion
1070
     0
  0
ACAD_PROXY_OBJECT
  5
30
102
{ACAD_REACTORS
330
2A
102
}
330
2A
100
AcDbProxyObject
 90
      499
 91
      501
 93
      436
310
42CCD915DA5C99599C985B595059028333333333333E3BF0000000000000FB0107901411070040501600405405064090741402480A0340
1001
ACAD
1000
AcDbSavedByObjectVersion
1070
     0
  0
ACAD_PROXY_OBJECT
  5
32
102
{ACAD_REACTORS
330
2A
102
}
330
2A
100
AcDbProxyObject
 90
      499
 91
      501
 93
      388
310
4150985CDA58D07406404333333333333E3BF0000000000000FB0107A41107004050150841D405064090741402480A0350
1001
ACAD
1000
AcDbSavedByObjectVersion
1070
     0
  0
ACAD_PROXY_OBJECT
  5
36
102
{ACAD_REACTORS
330
2A
102
}
330
2A
100
AcDbProxyObject
 90
      499
 91
      501
 93
      428
310
42109C9A59DA1D195B90C409028333333333333E3BF0000000000000FB010790141107004050150841D405064090741402480A029950
1001
ACAD
1000
AcDbSavedByObjectVersion
1070
     0
  0
ACAD_PROXY_OBJECT
  5
3A
102
{ACAD_REACTORS
330
2A
102
}
330
2A
100
AcDbProxyObject
 90
      499
 91
      501
 93
      452
310
42D0DBDB1BDC90DA185B99D95104090240C333333333333E3BF0000000000000FB0108901411070040501508421405064090741402480A0350
1001
ACAD
1000
AcDbSavedByObjectVersion
1070
     0
  0
ACAD_PROXY_OBJECT
  5
34
102
{ACAD_REACTORS
330
2A
102
}
330
2A
100
AcDbProxyObject
 90
      499
 91
      501
 93
      500
310
4290DBDB98D95C1D1D585B10940D028333333333333E3BF0000000000000FB0107902409070040501000000000000111010841D405064090740C02480A0340
1001
ACAD
1000
AcDbSavedByObjectVersion
1070
     0
  0
ACAD_PROXY_OBJECT
  5
35
102
{ACAD_REACTORS
330
2A
102
}
330
2A
100
AcDbProxyObject
 90
      499
 91
      501
 93
      412
310
40D11A5B50B409028333333333333E3BF0000000000000FB010790141107004050150841D405064090741402480A02677FFFFFD0
1001
ACAD
1000
AcDbSavedByObjectVersion
1070
     0
  0
ACAD_PROXY_OBJECT
  5
39
102
{ACAD_REACTORS
330
2A
102
}
330
2A
100
AcDbProxyObject
 90
      499
 91
      501
 93
      444
310
42D19858D95C185D1D195C9B90F409028333333333333E3BF0000000000000FB010790141107004050150841D405064090741402480A0350
1001
ACAD
1000
AcDbSavedByObjectVersion
1070
     0
  0
ACAD_PROXY_OBJECT
  5
2B
102
{ACAD_REACTORS
330
2A
102
}
330
2A
100
AcDbProxyObject
 90
      499
 91
      501
 93
      388
310
41119B185D240901404333333333333E3BF0000000000000F9010740A41107004050150841D405064090741402480A1B50
1001
ACAD
1000
AcDbSavedByObjectVersion
1070
     0
  0
ACAD_PROXY_OBJECT
  5
2C
102
{ACAD_REACTORS
330
2A
102
}
330
2A
100
AcDbProxyObject
 90
      499
 91
      501
 93
      476
310
43519B185D15DA5D1A115919D95CD0140901404333333333333E3BF0000000000000F9010740901411070040501600405405064090741402480A1B50
1001
ACAD
1000
AcDbSavedByObjectVersion
1070
     0
  0
ACAD_PROXY_OBJECT
  5
2D
102
{ACAD_REACTORS
330
2A
102
}
330
2A
100
AcDbProxyObject
 90
      499
 91
      501
 93
      412
310
41D1DBDD5C985D5910240902404333333333333E3BF0000000000000F9010740A411070040501641D405064090741402480A1B50
1001
ACAD
1000
AcDbSavedByObjectVersion
1070
     0
  0
ACAD_PROXY_OBJECT
  5
2E
102
{ACAD_REACTORS
330
2A
102
}
330
2A
100
AcDbProxyObject
 90
      499
 91
      501
 93
      500
310
4411DBDD5C985D5915DA5D1A115919D95CD0340902404333333333333E3BF0000000000000F9010740901411070040501600405405064090741402480A1B50
1001
ACAD
1000
AcDbSavedByObjectVersion
1070
     0
  0
ACAD_PROXY_OBJECT
  5
38
102
{ACAD_REACTORS
330
2A
102
}
330
2A
100
AcDbProxyObject
 90
      499
 91
      501
 93
      444
310
42D31A5B995C185D1D195C9B90E409028333333333333E3BF0000000000000FB010790141107004050750841D405064090741402483A0350
1001
ACAD
1000
AcDbSavedByObjectVersion
1070
     0
  0
ACAD_PROXY_OBJECT
  5
33
102
{ACAD_REACTORS
330
2A
102
}
330
2A
100
AcDbProxyObject
 90
      499
 91
      501
 93
      420
310
425499585B1A5CDD1A58D08409028333333333333E3BF0000000000000FB01079019070040501508421405064090741402480A1B40
1001
ACAD
1000
AcDbSavedByObjectVersion
1070
     0
  0
ACAD_PROXY_OBJECT
  5
37
102
{ACAD_REACTORS
330
2A
102
}
330
2A
100
AcDbProxyObject
 90
      499
 91
      501
 93
      412
310
41D51A1A58DAD95B90D409028333333333333E3BF0000000000000FB010790141107004050150C41D405064090741402480A0350
1001
ACAD
1000
AcDbSavedByObjectVersion
1070
     0
  0
XRECORD
  5
4F1
102
{ACAD_REACTORS
330
4E8
102
}
330
4E8
100
AcDbXrecord
 90
        0
  0
XRECORD
  5
507
102
{ACAD_REACTORS
330
4E8
102
}
330
4E8
100
AcDbXrecord
1000
DSTYLE
1002
{
1070
   340
340
11
1002
}
  0
XRECORD
  5
4F2
102
{ACAD_REACTORS
330
4E8
102
}
330
4E8
100
AcDbXrecord
  1
{31652768-8D1C-412D-AF03-8C07D02D6B4E}
  0
XRECORD
  5
4EB
102
{ACAD_REACTORS
330
4E8
102
}
330
4E8
100
AcDbXrecord
  1

  0
XRECORD
  5
4F0
102
{ACAD_REACTORS
330
4E8
102
}
330
4E8
100
AcDbXrecord
 90
        4
  0
XRECORD
  5
4ED
102
{ACAD_REACTORS
330
4E8
102
}
330
4E8
100
AcDbXrecord
340
1A
  0
XRECORD
  5
4EF
102
{ACAD_REACTORS
330
4E8
102
}
330
4E8
100
AcDbXrecord
 90
    10781
  0
XRECORD
  5
4EE
102
{ACAD_REACTORS
330
4E8
102
}
330
4E8
100
AcDbXrecord
340
19
  0
XRECORD
  5
4F4
102
{ACAD_REACTORS
330
4E8
102
}
330
4E8
100
AcDbXrecord
 40
0.0
  0
XRECORD
  5
4F7
102
{ACAD_REACTORS
330
4E8
102
}
330
4E8
100
AcDbXrecord
340
0
  0
XRECORD
  5
4FD
102
{ACAD_REACTORS
330
4E8
102
}
330
4E8
100
AcDbXrecord
 10
0.0
 20
0.0
 30
0.0
  0
XRECORD
  5
4F9
102
{ACAD_REACTORS
330
4E8
102
}
330
4E8
100
AcDbXrecord
 10
0.0
 20
0.0
 30
0.0
  0
XRECORD
  5
4FC
102
{ACAD_REACTORS
330
4E8
102
}
330
4E8
100
AcDbXrecord
 10
0.0
 20
0.0
 30
0.0
  0
XRECORD
  5
4FA
102
{ACAD_REACTORS
330
4E8
102
}
330
4E8
100
AcDbXrecord
 10
0.0
 20
0.0
 30
0.0
  0
XRECORD
  5
4FB
102
{ACAD_REACTORS
330
4E8
102
}
330
4E8
100
AcDbXrecord
 10
0.0
 20
0.0
 30
0.0
  0
XRECORD
  5
4F8
102
{ACAD_REACTORS
330
4E8
102
}
330
4E8
100
AcDbXrecord
 10
0.0
 20
0.0
 30
0.0
  0
XRECORD
  5
4F5
102
{ACAD_REACTORS
330
4E8
102
}
330
4E8
100
AcDbXrecord
340
0
  0
XRECORD
  5
4F6
102
{ACAD_REACTORS
330
4E8
102
}
330
4E8
100
AcDbXrecord
 70
     0
  0
XRECORD
  5
4EC
102
{ACAD_REACTORS
330
4E8
102
}
330
4E8
100
AcDbXrecord
  1

  0
XRECORD
  5
4E9
102
{ACAD_REACTORS
330
4E8
102
}
330
4E8
100
AcDbXrecord
 90
        1
  0
XRECORD
  5
4EA
102
{ACAD_REACTORS
330
4E8
102
}
330
4E8
100
AcDbXrecord
 90
       70
  0
XRECORD
  5
500
102
{ACAD_REACTORS
330
4E8
102
}
330
4E8
100
AcDbXrecord
340
0
  0
XRECORD
  5
506
102
{ACAD_REACTORS
330
4E8
102
}
330
4E8
100
AcDbXrecord
 10
0.0
 20
0.0
 30
0.0
  0
XRECORD
  5
502
102
{ACAD_REACTORS
330
4E8
102
}
330
4E8
100
AcDbXrecord
 10
0.0
 20
0.0
 30
0.0
  0
XRECORD
  5
505
102
{ACAD_REACTORS
330
4E8
102
}
330
4E8
100
AcDbXrecord
 10
0.0
 20
0.0
 30
0.0
  0
XRECORD
  5
503
102
{ACAD_REACTORS
330
4E8
102
}
330
4E8
100
AcDbXrecord
 10
0.0
 20
0.0
 30
0.0
  0
XRECORD
  5
504
102
{ACAD_REACTORS
330
4E8
102
}
330
4E8
100
AcDbXrecord
 10
0.0
 20
0.0
 30
0.0
  0
XRECORD
  5
501
102
{ACAD_REACTORS
330
4E8
102
}
330
4E8
100
AcDbXrecord
 10
0.0
 20
0.0
 30
0.0
  0
XRECORD
  5
4FE
102
{ACAD_REACTORS
330
4E8
102
}
330
4E8
100
AcDbXrecord
340
0
  0
XRECORD
  5
4FF
102
{ACAD_REACTORS
330
4E8
102
}
330
4E8
100
AcDbXrecord
 70
     0
  0
XRECORD
  5
4F3
102
{ACAD_REACTORS
330
4E8
102
}
330
4E8
100
AcDbXrecord
  1
{FAEB1C32-E019-11D5-929B-00C0DF256EC4}
  0
DICTIONARYVAR
  5
50D
102
{ACAD_REACTORS
330
508
102
}
330
508
100
DictionaryVariables
280
     0
  1
2
  0
DICTIONARYVAR
  5
50E
102
{ACAD_REACTORS
330
508
102
}
330
508
100
DictionaryVariables
280
     0
  1
1
  0
DICTIONARYVAR
  5
50C
102
{ACAD_REACTORS
330
508
102
}
330
508
100
DictionaryVariables
280
     0
  1
80.000000
  0
DICTIONARYVAR
  5
50B
102
{ACAD_REACTORS
330
508
102
}
330
508
100
DictionaryVariables
280
     0
  1
5.000000
  0
DICTIONARY
  5
511
330
3D
100
AcDbDictionary
280
     1
  3
ACAD_XREC_ROUNDTRIP
360
512
  0
DICTIONARY
  5
50F
330
3C
100
AcDbDictionary
280
     1
  3
ACAD_XREC_ROUNDTRIP
360
510
  0
DICTIONARY
  5
513
330
3E
100
AcDbDictionary
280
     1
  3
ACAD_XREC_ROUNDTRIP
360
514
  0
XRECORD
  5
512
102
{ACAD_REACTORS
330
511
102
}
330
511
100
AcDbXrecord
102
MATERIAL
148
0.0
149
0.0
149
0.0
 93
        0
 94
      127
282
     0
 72
     1
 77
     1
171
     1
175
     1
179
     1
273
     0
  0
XRECORD
  5
510
102
{ACAD_REACTORS
330
50F
102
}
330
50F
100
AcDbXrecord
102
MATERIAL
148
0.0
149
0.0
149
0.0
 93
        0
 94
      127
282
     0
 72
     1
 77
     1
171
     1
175
     1
179
     1
273
     0
  0
XRECORD
  5
514
102
{ACAD_REACTORS
330
513
102
}
330
513
100
AcDbXrecord
102
MATERIAL
148
0.0
149
0.0
149
0.0
 93
        0
 94
      127
282
     0
 72
     1
 77
     1
171
     1
175
     1
179
     1
273
     0
  0
ENDSEC
  0
EOF
