  0
SECTION
  2
HEADER
  9
$ACADVER
  1
AC1014
  9
$ACADMAINTVER
 70
     9
  9
$DWGCODEPAGE
  3
ANSI_932
  9
$INSBASE
 10
0.0
 20
0.0
 30
0.0
  9
$EXTMIN
 10
0.0000000000000446
 20
13.5
 30
0.0
  9
$EXTMAX
 10
200.0
 20
288.5
 30
0.0
  9
$LIMMIN
 10
0.0
 20
0.0
  9
$LIMMAX
 10
210.0
 20
297.0
  9
$ORTHOMODE
 70
     0
  9
$REGENMODE
 70
     1
  9
$FILLMODE
 70
     1
  9
$QTEXTMODE
 70
     0
  9
$MIRRTEXT
 70
     1
  9
$DRAGMODE
 70
     2
  9
$LTSCALE
 40
1.0
  9
$OSMODE
 70
    37
  9
$ATTMODE
 70
     1
  9
$TEXTSIZE
 40
2.5
  9
$TRACEWID
 40
1.0
  9
$TEXTSTYLE
  7
STANDARD
  9
$CLAYER
  8
化粧台
  9
$CELTYPE
  6
BYLAYER
  9
$CECOLOR
 62
   256
  9
$CELTSCALE
 40
1.0
  9
$DELOBJ
 70
     1
  9
$DISPSILH
 70
     0
  9
$DIMSCALE
 40
1.0
  9
$DIMASZ
 40
2.5
  9
$DIMEXO
 40
0.625
  9
$DIMDLI
 40
3.75
  9
$DIMRND
 40
0.0
  9
$DIMDLE
 40
0.0
  9
$DIMEXE
 40
1.25
  9
$DIMTP
 40
0.0
  9
$DIMTM
 40
0.0
  9
$DIMTXT
 40
2.5
  9
$DIMCEN
 40
2.5
  9
$DIMTSZ
 40
0.0
  9
$DIMTOL
 70
     0
  9
$DIMLIM
 70
     0
  9
$DIMTIH
 70
     0
  9
$DIMTOH
 70
     0
  9
$DIMSE1
 70
     0
  9
$DIMSE2
 70
     0
  9
$DIMTAD
 70
     1
  9
$DIMZIN
 70
     8
  9
$DIMBLK
  1

  9
$DIMASO
 70
     1
  9
$DIMSHO
 70
     1
  9
$DIMPOST
  1

  9
$DIMAPOST
  1

  9
$DIMALT
 70
     0
  9
$DIMALTD
 70
     3
  9
$DIMALTF
 40
0.03937007874016
  9
$DIMLFAC
 40
1.0
  9
$DIMTOFL
 70
     1
  9
$DIMTVP
 40
0.0
  9
$DIMTIX
 70
     0
  9
$DIMSOXD
 70
     0
  9
$DIMSAH
 70
     0
  9
$DIMBLK1
  1

  9
$DIMBLK2
  1

  9
$DIMSTYLE
  2
ISO-25
  9
$DIMCLRD
 70
     0
  9
$DIMCLRE
 70
     0
  9
$DIMCLRT
 70
     0
  9
$DIMTFAC
 40
1.0
  9
$DIMGAP
 40
0.625
  9
$DIMJUST
 70
     0
  9
$DIMSD1
 70
     0
  9
$DIMSD2
 70
     0
  9
$DIMTOLJ
 70
     0
  9
$DIMTZIN
 70
     8
  9
$DIMALTZ
 70
     0
  9
$DIMALTTZ
 70
     0
  9
$DIMFIT
 70
     3
  9
$DIMUPT
 70
     0
  9
$DIMUNIT
 70
     2
  9
$DIMDEC
 70
     2
  9
$DIMTDEC
 70
     2
  9
$DIMALTU
 70
     2
  9
$DIMALTTD
 70
     3
  9
$DIMTXSTY
  7
STANDARD
  9
$DIMAUNIT
 70
     0
  9
$LUNITS
 70
     2
  9
$LUPREC
 70
     4
  9
$SKETCHINC
 40
1.0
  9
$FILLETRAD
 40
10.0
  9
$AUNITS
 70
     0
  9
$AUPREC
 70
     0
  9
$MENU
  1
.
  9
$ELEVATION
 40
0.0
  9
$PELEVATION
 40
0.0
  9
$THICKNESS
 40
0.0
  9
$LIMCHECK
 70
     0
  9
$CHAMFERA
 40
10.0
  9
$CHAMFERB
 40
10.0
  9
$CHAMFERC
 40
20.0
  9
$CHAMFERD
 40
0.0
  9
$SKPOLY
 70
     0
  9
$TDCREATE
 40
2460594.477774225
  9
$TDUPDATE
 40
2460594.477774965
  9
$TDINDWG
 40
0.0000000116
  9
$TDUSRTIMER
 40
0.0000000116
  9
$USRTIMER
 70
     1
  9
$ANGBASE
 50
0.0
  9
$ANGDIR
 70
     0
  9
$PDMODE
 70
     0
  9
$PDSIZE
 40
0.0
  9
$PLINEWID
 40
0.0
  9
$COORDS
 70
     1
  9
$SPLFRAME
 70
     0
  9
$SPLINETYPE
 70
     6
  9
$SPLINESEGS
 70
     8
  9
$ATTDIA
 70
     0
  9
$ATTREQ
 70
     1
  9
$HANDLING
 70
     1
  9
$HANDSEED
  5
7A8
  9
$SURFTAB1
 70
     6
  9
$SURFTAB2
 70
     6
  9
$SURFTYPE
 70
     6
  9
$SURFU
 70
     6
  9
$SURFV
 70
     6
  9
$UCSNAME
  2

  9
$UCSORG
 10
0.0
 20
0.0
 30
0.0
  9
$UCSXDIR
 10
1.0
 20
0.0
 30
0.0
  9
$UCSYDIR
 10
0.0
 20
1.0
 30
0.0
  9
$PUCSNAME
  2

  9
$PUCSORG
 10
0.0
 20
0.0
 30
0.0
  9
$PUCSXDIR
 10
1.0
 20
0.0
 30
0.0
  9
$PUCSYDIR
 10
0.0
 20
1.0
 30
0.0
  9
$USERI1
 70
     0
  9
$USERI2
 70
     0
  9
$USERI3
 70
     0
  9
$USERI4
 70
     0
  9
$USERI5
 70
     0
  9
$USERR1
 40
0.0
  9
$USERR2
 40
0.0
  9
$USERR3
 40
0.0
  9
$USERR4
 40
0.0
  9
$USERR5
 40
0.0
  9
$WORLDVIEW
 70
     1
  9
$SHADEDGE
 70
     3
  9
$SHADEDIF
 70
    70
  9
$TILEMODE
 70
     1
  9
$MAXACTVP
 70
    64
  9
$PINSBASE
 10
0.0
 20
0.0
 30
0.0
  9
$PLIMCHECK
 70
     0
  9
$PEXTMIN
 10
1.000000000000000E+20
 20
1.000000000000000E+20
 30
1.000000000000000E+20
  9
$PEXTMAX
 10
-1.000000000000000E+20
 20
-1.000000000000000E+20
 30
-1.000000000000000E+20
  9
$PLIMMIN
 10
0.0
 20
0.0
  9
$PLIMMAX
 10
420.0
 20
297.0
  9
$UNITMODE
 70
     0
  9
$VISRETAIN
 70
     1
  9
$PLINEGEN
 70
     0
  9
$PSLTSCALE
 70
     1
  9
$TREEDEPTH
 70
  3020
  9
$PICKSTYLE
 70
     1
  9
$CMLSTYLE
  2
STANDARD
  9
$CMLJUST
 70
     0
  9
$CMLSCALE
 40
20.0
  9
$PROXYGRAPHICS
 70
     1
  9
$MEASUREMENT
 70
     1
  0
ENDSEC
  0
SECTION
  2
CLASSES
  0
CLASS
  1
ACDBDICTIONARYWDFLT
  2
AcDbDictionaryWithDefault
  3
ObjectDBX Classes
 90
        0
280
     0
281
     0
  0
CLASS
  1
VISUALSTYLE
  2
AcDbVisualStyle
  3
ObjectDBX Classes
 90
     4095
280
     0
281
     0
  0
CLASS
  1
MATERIAL
  2
AcDbMaterial
  3
ObjectDBX Classes
 90
     1153
280
     0
281
     0
  0
CLASS
  1
SUN
  2
AcDbSun
  3
SCENEOE
 90
     1024
280
     0
281
     0
  0
CLASS
  1
DICTIONARYVAR
  2
AcDbDictionaryVar
  3
ObjectDBX Classes
 90
        0
280
     0
281
     0
  0
CLASS
  1
XRECORD
  2
AcDbXrecord
  3
AutoCAD 2000
 90
        0
280
     0
281
     0
  0
CLASS
  1
LWPOLYLINE
  2
AcDbPolyline
  3
AutoCAD 2000
 90
        0
280
     0
281
     1
  0
CLASS
  1
HATCH
  2
AcDbHatch
  3
AutoCAD 2000
 90
        0
280
     0
281
     1
  0
CLASS
  1
ACDBPLACEHOLDER
  2
AcDbPlaceHolder
  3
ObjectDBX Classes
 90
        0
280
     0
281
     0
  0
CLASS
  1
LAYOUT
  2
AcDbLayout
  3
ObjectDBX Classes
 90
        0
280
     0
281
     0
  0
ENDSEC
  0
SECTION
  2
TABLES
  0
TABLE
  2
VPORT
  5
8
330
0
100
AcDbSymbolTable
 70
     1
  0
VPORT
  5
29
330
8
100
AcDbSymbolTableRecord
100
AcDbViewportTableRecord
  2
*ACTIVE
 70
     0
 10
0.0
 20
0.0
 11
1.0
 21
1.0
 12
1000.0
 22
1510.0
 13
0.0
 23
0.0
 14
10.0
 24
10.0
 15
10.0
 25
10.0
 16
0.0
 26
0.0
 36
1.0
 17
0.0
 27
0.0
 37
0.0
 40
2750.0
 41
0.7272727272727271
 42
50.0
 43
0.0
 44
0.0
 50
0.0
 51
0.0
 71
     0
 72
  1000
 73
     1
 74
     3
 75
     0
 76
     0
 77
     0
 78
     0
  0
ENDTAB
  0
TABLE
  2
LTYPE
  5
5
330
0
100
AcDbSymbolTable
 70
     7
  0
LTYPE
  5
14
330
5
100
AcDbSymbolTableRecord
100
AcDbLinetypeTableRecord
  2
BYBLOCK
 70
     0
  3

 72
    65
 73
     0
 40
0.0
  0
LTYPE
  5
15
330
5
100
AcDbSymbolTableRecord
100
AcDbLinetypeTableRecord
  2
BYLAYER
 70
     0
  3

 72
    65
 73
     0
 40
0.0
  0
LTYPE
  5
16
330
5
100
AcDbSymbolTableRecord
100
AcDbLinetypeTableRecord
  2
CONTINUOUS
 70
     0
  3
Solid line
 72
    65
 73
     0
 40
0.0
  0
LTYPE
  5
40
330
5
100
AcDbSymbolTableRecord
100
AcDbLinetypeTableRecord
  2
EXLTYPE1
 70
     0
  3
破線
 72
    65
 73
     2
 40
3.0
 49
2.0
 74
     0
 49
-1.0
 74
     0
  0
LTYPE
  5
41
330
5
100
AcDbSymbolTableRecord
100
AcDbLinetypeTableRecord
  2
EXLTYPE2
 70
     0
  3
点線
 72
    65
 73
     2
 40
2.0
 49
1.0
 74
     0
 49
-1.0
 74
     0
  0
LTYPE
  5
42
330
5
100
AcDbSymbolTableRecord
100
AcDbLinetypeTableRecord
  2
EXLTYPE3
 70
     0
  3
一点鎖線
 72
    65
 73
     4
 40
10.0
 49
7.0
 74
     0
 49
-1.0
 74
     0
 49
1.0
 74
     0
 49
-1.0
 74
     0
  0
LTYPE
  5
43
330
5
100
AcDbSymbolTableRecord
100
AcDbLinetypeTableRecord
  2
EXLTYPE4
 70
     0
  3
二点鎖線
 72
    65
 73
     6
 40
12.0
 49
7.0
 74
     0
 49
-1.0
 74
     0
 49
1.0
 74
     0
 49
-1.0
 74
     0
 49
1.0
 74
     0
 49
-1.0
 74
     0
  0
LTYPE
  5
44
330
5
100
AcDbSymbolTableRecord
100
AcDbLinetypeTableRecord
  2
EXLTYPE5
 70
     0
  3
三点鎖線
 72
    65
 73
     8
 40
37.0
 49
30.0
 74
     0
 49
-1.0
 74
     0
 49
1.0
 74
     0
 49
-1.0
 74
     0
 49
1.0
 74
     0
 49
-1.0
 74
     0
 49
1.0
 74
     0
 49
-1.0
 74
     0
  0
LTYPE
  5
45
330
5
100
AcDbSymbolTableRecord
100
AcDbLinetypeTableRecord
  2
EXLTYPE6
 70
     0
  3
四点鎖線
 72
    65
 73
    10
 40
39.0
 49
30.0
 74
     0
 49
-1.0
 74
     0
 49
1.0
 74
     0
 49
-1.0
 74
     0
 49
1.0
 74
     0
 49
-1.0
 74
     0
 49
1.0
 74
     0
 49
-1.0
 74
     0
 49
1.0
 74
     0
 49
-1.0
 74
     0
  0
ENDTAB
  0
TABLE
  2
LAYER
  5
2
330
0
100
AcDbSymbolTable
 70
     7
  0
LAYER
  5
10
330
2
100
AcDbSymbolTableRecord
100
AcDbLayerTableRecord
  2
0
 70
     0
 62
     7
  6
CONTINUOUS
  0
LAYER
  5
48
330
2
100
AcDbSymbolTableRecord
100
AcDbLayerTableRecord
  2
枠_表
 70
     0
 62
     7
  6
CONTINUOUS
  0
LAYER
  5
49
330
2
100
AcDbSymbolTableRecord
100
AcDbLayerTableRecord
  2
化粧台
 70
     0
 62
     7
  6
CONTINUOUS
  0
LAYER
  5
4A
330
2
100
AcDbSymbolTableRecord
100
AcDbLayerTableRecord
  2
鏡台
 70
     0
 62
     7
  6
CONTINUOUS
  0
LAYER
  5
4B
330
2
100
AcDbSymbolTableRecord
100
AcDbLayerTableRecord
  2
付属金具
 70
     0
 62
     7
  6
CONTINUOUS
  0
LAYER
  5
4C
330
2
100
AcDbSymbolTableRecord
100
AcDbLayerTableRecord
  2
寸法
 70
     0
 62
     7
  6
CONTINUOUS
  0
LAYER
  5
1BE
330
2
100
AcDbSymbolTableRecord
100
AcDbLayerTableRecord
  2
DEFPOINTS
 70
     0
 62
     7
  6
CONTINUOUS
  0
ENDTAB
  0
TABLE
  2
STYLE
  5
3
330
0
100
AcDbSymbolTable
 70
     5
  0
STYLE
  5
11
330
3
100
AcDbSymbolTableRecord
100
AcDbTextStyleTableRecord
  2
STANDARD
 70
     0
 40
0.0
 41
1.0
 50
0.0
 71
     0
 42
2.5
  3
monotxt
  4
extfont
  0
STYLE
  5
46
330
3
100
AcDbSymbolTableRecord
100
AcDbTextStyleTableRecord
  2
EXCADSTD
 70
     0
 40
0.0
 41
1.0
 50
0.0
 71
     0
 42
0.2
  3
monotxt
  4
extfont
  0
STYLE
  5
47
330
3
100
AcDbSymbolTableRecord
100
AcDbTextStyleTableRecord
  2
EXCADVERT
 70
     4
 40
0.0
 41
1.0
 50
0.0
 71
     0
 42
0.286885
  3
monotxt
  4
extfont
  0
STYLE
  5
DA
330
3
100
AcDbSymbolTableRecord
100
AcDbTextStyleTableRecord
  2
EXCADTTF1
 70
     0
 40
0.0
 41
1.0
 50
0.0
 71
     0
 42
0.2
  3
MSGOTHIC.TTC
  4

1001
ACAD
1000
MS Gothic
1071
    32817
  0
STYLE
  5
1BC
330
3
100
AcDbSymbolTableRecord
100
AcDbTextStyleTableRecord
  2
EXCADDIM1
 70
     0
 40
0.0
 41
0.84
 50
0.0
 71
     0
 42
0.2
  3
monotxt
  4
extfont
  0
ENDTAB
  0
TABLE
  2
VIEW
  5
6
330
0
100
AcDbSymbolTable
 70
     0
  0
ENDTAB
  0
TABLE
  2
UCS
  5
7
330
0
100
AcDbSymbolTable
 70
     0
  0
ENDTAB
  0
TABLE
  2
APPID
  5
9
330
0
100
AcDbSymbolTable
 70
     1
  0
APPID
  5
12
330
9
100
AcDbSymbolTableRecord
100
AcDbRegAppTableRecord
  2
ACAD
 70
     0
  0
ENDTAB
  0
TABLE
  2
DIMSTYLE
  5
A
330
0
100
AcDbSymbolTable
 70
     1
  0
DIMSTYLE
105
27
102
{ACAD_REACTORS
330
1BD
330
3BA
330
675
330
6F7
330
704
330
710
330
71C
330
728
330
736
330
743
330
750
330
75F
330
76C
102
}
330
A
100
AcDbSymbolTableRecord
100
AcDbDimStyleTableRecord
  2
ISO-25
 70
     0
  3

  4

  5

  6

  7

 40
1.0
 41
2.5
 42
0.625
 43
3.75
 44
1.25
 45
0.0
 46
0.0
 47
0.0
 48
0.0
140
2.5
141
2.5
142
0.0
143
0.03937007874016
144
1.0
145
0.0
146
1.0
147
0.625
 71
     0
 72
     0
 73
     0
 74
     0
 75
     0
 76
     0
 77
     1
 78
     8
170
     0
171
     3
172
     1
173
     0
174
     0
175
     0
176
     0
177
     0
178
     0
270
     2
271
     2
272
     2
273
     2
274
     3
340
11
275
     0
280
     0
281
     0
282
     0
283
     0
284
     8
285
     0
286
     0
287
     5
288
     0
  0
ENDTAB
  0
TABLE
  2
BLOCK_RECORD
  5
1
330
0
100
AcDbSymbolTable
 70
    28
  0
BLOCK_RECORD
  5
1F
330
1
100
AcDbSymbolTableRecord
100
AcDbBlockTableRecord
  2
*MODEL_SPACE
  0
BLOCK_RECORD
  5
1B
330
1
100
AcDbSymbolTableRecord
100
AcDbBlockTableRecord
  2
*PAPER_SPACE
  0
BLOCK_RECORD
  5
4D
330
1
100
AcDbSymbolTableRecord
100
AcDbBlockTableRecord
  2
EX_NORM
  0
BLOCK_RECORD
  5
50
330
1
100
AcDbSymbolTableRecord
100
AcDbBlockTableRecord
  2
EX_BNORM
  0
BLOCK_RECORD
  5
53
330
1
100
AcDbSymbolTableRecord
100
AcDbBlockTableRecord
  2
EX_BCIR
  0
BLOCK_RECORD
  5
56
330
1
100
AcDbSymbolTableRecord
100
AcDbBlockTableRecord
  2
EX_RCIVIL
  0
BLOCK_RECORD
  5
59
330
1
100
AcDbSymbolTableRecord
100
AcDbBlockTableRecord
  2
EX_SLANT
  0
BLOCK_RECORD
  5
5C
330
1
100
AcDbSymbolTableRecord
100
AcDbBlockTableRecord
  2
EX_NONE
  0
BLOCK_RECORD
  5
5F
330
1
100
AcDbSymbolTableRecord
100
AcDbBlockTableRecord
  2
EX_CIVIL
  0
BLOCK_RECORD
  5
62
330
1
100
AcDbSymbolTableRecord
100
AcDbBlockTableRecord
  2
EX_WCIR
  0
BLOCK_RECORD
  5
65
330
1
100
AcDbSymbolTableRecord
100
AcDbBlockTableRecord
  2
EX_WCIR2
  0
BLOCK_RECORD
  5
68
330
1
100
AcDbSymbolTableRecord
100
AcDbBlockTableRecord
  2
EX_WNORM
  0
BLOCK_RECORD
  5
6B
330
1
100
AcDbSymbolTableRecord
100
AcDbBlockTableRecord
  2
EX_NNORM
  0
BLOCK_RECORD
  5
6E
330
1
100
AcDbSymbolTableRecord
100
AcDbBlockTableRecord
  2
EX_BBOX
  0
BLOCK_RECORD
  5
71
330
1
100
AcDbSymbolTableRecord
100
AcDbBlockTableRecord
  2
EX_WBOX
  0
BLOCK_RECORD
  5
74
330
1
100
AcDbSymbolTableRecord
100
AcDbBlockTableRecord
  2
EX_INTEGRAL
  0
BLOCK_RECORD
  5
1BF
330
1
100
AcDbSymbolTableRecord
100
AcDbBlockTableRecord
  2
*D15
  0
BLOCK_RECORD
  5
3BB
330
1
100
AcDbSymbolTableRecord
100
AcDbBlockTableRecord
  2
*D16
  0
BLOCK_RECORD
  5
676
330
1
100
AcDbSymbolTableRecord
100
AcDbBlockTableRecord
  2
*D17
  0
BLOCK_RECORD
  5
6F8
330
1
100
AcDbSymbolTableRecord
100
AcDbBlockTableRecord
  2
*D18
  0
BLOCK_RECORD
  5
705
330
1
100
AcDbSymbolTableRecord
100
AcDbBlockTableRecord
  2
*D19
  0
BLOCK_RECORD
  5
711
330
1
100
AcDbSymbolTableRecord
100
AcDbBlockTableRecord
  2
*D20
  0
BLOCK_RECORD
  5
71D
330
1
100
AcDbSymbolTableRecord
100
AcDbBlockTableRecord
  2
*D21
  0
BLOCK_RECORD
  5
729
330
1
100
AcDbSymbolTableRecord
100
AcDbBlockTableRecord
  2
*D22
  0
BLOCK_RECORD
  5
737
330
1
100
AcDbSymbolTableRecord
100
AcDbBlockTableRecord
  2
*D23
  0
BLOCK_RECORD
  5
744
330
1
100
AcDbSymbolTableRecord
100
AcDbBlockTableRecord
  2
*D24
  0
BLOCK_RECORD
  5
751
330
1
100
AcDbSymbolTableRecord
100
AcDbBlockTableRecord
  2
*D25
  0
BLOCK_RECORD
  5
760
330
1
100
AcDbSymbolTableRecord
100
AcDbBlockTableRecord
  2
*D26
  0
BLOCK_RECORD
  5
76D
330
1
100
AcDbSymbolTableRecord
100
AcDbBlockTableRecord
  2
*D27
  0
ENDTAB
  0
ENDSEC
  0
SECTION
  2
BLOCKS
  0
BLOCK
  5
20
330
1F
100
AcDbEntity
  8
0
100
AcDbBlockBegin
  2
*MODEL_SPACE
 70
     0
 10
0.0
 20
0.0
 30
0.0
  3
*MODEL_SPACE
  1

  0
ENDBLK
  5
21
330
1F
100
AcDbEntity
  8
0
100
AcDbBlockEnd
  0
BLOCK
  5
1C
330
1B
100
AcDbEntity
 67
     1
  8
0
100
AcDbBlockBegin
  2
*PAPER_SPACE
 70
     0
 10
0.0
 20
0.0
 30
0.0
  3
*PAPER_SPACE
  1

  0
ENDBLK
  5
1D
330
1B
100
AcDbEntity
 67
     1
  8
0
100
AcDbBlockEnd
  0
BLOCK
  5
4E
330
4D
100
AcDbEntity
  8
0
100
AcDbBlockBegin
  2
EX_NORM
 70
     0
 10
0.0
 20
0.0
 30
0.0
  3
EX_NORM
  1

  0
LINE
  5
77
330
4D
100
AcDbEntity
  8
0
  6
CONTINUOUS
 62
     0
100
AcDbLine
 10
0.0
 20
0.0
 30
0.0
 11
-1.0
 21
0.0
 31
0.0
  0
LINE
  5
78
330
4D
100
AcDbEntity
  8
0
  6
CONTINUOUS
 62
     0
100
AcDbLine
 10
0.0
 20
0.0
 30
0.0
 11
-1.0
 21
0.166666667
 31
0.0
  0
LINE
  5
79
330
4D
100
AcDbEntity
  8
0
  6
CONTINUOUS
 62
     0
100
AcDbLine
 10
0.0
 20
0.0
 30
0.0
 11
-1.0
 21
-0.166666667
 31
0.0
  0
ENDBLK
  5
4F
330
4D
100
AcDbEntity
  8
0
100
AcDbBlockEnd
  0
BLOCK
  5
51
330
50
100
AcDbEntity
  8
0
100
AcDbBlockBegin
  2
EX_BNORM
 70
     0
 10
0.0
 20
0.0
 30
0.0
  3
EX_BNORM
  1

  0
LINE
  5
7A
330
50
100
AcDbEntity
  8
0
  6
CONTINUOUS
 62
     0
100
AcDbLine
 10
0.0
 20
0.0
 30
0.0
 11
-1.0
 21
0.0
 31
0.0
  0
LINE
  5
7B
330
50
100
AcDbEntity
  8
0
  6
CONTINUOUS
 62
     0
100
AcDbLine
 10
0.0
 20
0.0
 30
0.0
 11
-1.0
 21
0.166666667
 31
0.0
  0
LINE
  5
7C
330
50
100
AcDbEntity
  8
0
  6
CONTINUOUS
 62
     0
100
AcDbLine
 10
0.0
 20
0.0
 30
0.0
 11
-1.0
 21
-0.166666667
 31
0.0
  0
LINE
  5
7D
330
50
100
AcDbEntity
  8
0
  6
CONTINUOUS
 62
     0
100
AcDbLine
 10
0.0
 20
0.0
 30
0.0
 11
-1.0
 21
0.083333333
 31
0.0
  0
LINE
  5
7E
330
50
100
AcDbEntity
  8
0
  6
CONTINUOUS
 62
     0
100
AcDbLine
 10
0.0
 20
0.0
 30
0.0
 11
-1.0
 21
-0.083333333
 31
0.0
  0
LINE
  5
7F
330
50
100
AcDbEntity
  8
0
  6
CONTINUOUS
 62
     0
100
AcDbLine
 10
-1.0
 20
0.166666667
 30
0.0
 11
-1.0
 21
-0.166666667
 31
0.0
  0
ENDBLK
  5
52
330
50
100
AcDbEntity
  8
0
100
AcDbBlockEnd
  0
BLOCK
  5
54
330
53
100
AcDbEntity
  8
0
100
AcDbBlockBegin
  2
EX_BCIR
 70
     0
 10
0.0
 20
0.0
 30
0.0
  3
EX_BCIR
  1

  0
LINE
  5
80
330
53
100
AcDbEntity
  8
0
  6
CONTINUOUS
 62
     0
100
AcDbLine
 10
0.0
 20
0.0
 30
0.0
 11
-1.0
 21
0.0
 31
0.0
  0
CIRCLE
  5
81
330
53
100
AcDbEntity
  8
0
  6
CONTINUOUS
 62
     0
100
AcDbCircle
 10
0.0
 20
0.0
 30
0.0
 40
0.5
  0
CIRCLE
  5
82
330
53
100
AcDbEntity
  8
0
  6
CONTINUOUS
 62
     0
100
AcDbCircle
 10
0.0
 20
0.0
 30
0.0
 40
0.25
  0
ENDBLK
  5
55
330
53
100
AcDbEntity
  8
0
100
AcDbBlockEnd
  0
BLOCK
  5
57
330
56
100
AcDbEntity
  8
0
100
AcDbBlockBegin
  2
EX_RCIVIL
 70
     0
 10
0.0
 20
0.0
 30
0.0
  3
EX_RCIVIL
  1

  0
LINE
  5
83
330
56
100
AcDbEntity
  8
0
  6
CONTINUOUS
 62
     0
100
AcDbLine
 10
0.0
 20
0.0
 30
0.0
 11
-1.0
 21
0.0
 31
0.0
  0
LINE
  5
84
330
56
100
AcDbEntity
  8
0
  6
CONTINUOUS
 62
     0
100
AcDbLine
 10
-1.0
 20
-0.25
 30
0.0
 11
0.0
 21
-0.25
 31
0.0
  0
LINE
  5
85
330
56
100
AcDbEntity
  8
0
  6
CONTINUOUS
 62
     0
100
AcDbLine
 10
-1.0
 20
-0.125
 30
0.0
 11
0.0
 21
-0.125
 31
0.0
  0
ENDBLK
  5
58
330
56
100
AcDbEntity
  8
0
100
AcDbBlockEnd
  0
BLOCK
  5
5A
330
59
100
AcDbEntity
  8
0
100
AcDbBlockBegin
  2
EX_SLANT
 70
     0
 10
0.0
 20
0.0
 30
0.0
  3
EX_SLANT
  1

  0
LINE
  5
86
330
59
100
AcDbEntity
  8
0
  6
CONTINUOUS
 62
     0
100
AcDbLine
 10
0.0
 20
0.0
 30
0.0
 11
-1.0
 21
0.0
 31
0.0
  0
LINE
  5
87
330
59
100
AcDbEntity
  8
0
  6
CONTINUOUS
 62
     0
100
AcDbLine
 10
0.707106781
 20
0.707106781
 30
0.0
 11
-0.707106781
 21
-0.707106781
 31
0.0
  0
ENDBLK
  5
5B
330
59
100
AcDbEntity
  8
0
100
AcDbBlockEnd
  0
BLOCK
  5
5D
330
5C
100
AcDbEntity
  8
0
100
AcDbBlockBegin
  2
EX_NONE
 70
     0
 10
0.0
 20
0.0
 30
0.0
  3
EX_NONE
  1

  0
LINE
  5
88
330
5C
100
AcDbEntity
  8
0
  6
CONTINUOUS
 62
     0
100
AcDbLine
 10
0.0
 20
0.0
 30
0.0
 11
-1.0
 21
0.0
 31
0.0
  0
ENDBLK
  5
5E
330
5C
100
AcDbEntity
  8
0
100
AcDbBlockEnd
  0
BLOCK
  5
60
330
5F
100
AcDbEntity
  8
0
100
AcDbBlockBegin
  2
EX_CIVIL
 70
     0
 10
0.0
 20
0.0
 30
0.0
  3
EX_CIVIL
  1

  0
LINE
  5
89
330
5F
100
AcDbEntity
  8
0
  6
CONTINUOUS
 62
     0
100
AcDbLine
 10
0.0
 20
0.0
 30
0.0
 11
-1.0
 21
0.0
 31
0.0
  0
LINE
  5
8A
330
5F
100
AcDbEntity
  8
0
  6
CONTINUOUS
 62
     0
100
AcDbLine
 10
-1.0
 20
0.25
 30
0.0
 11
0.0
 21
0.25
 31
0.0
  0
LINE
  5
8B
330
5F
100
AcDbEntity
  8
0
  6
CONTINUOUS
 62
     0
100
AcDbLine
 10
-1.0
 20
0.125
 30
0.0
 11
0.0
 21
0.125
 31
0.0
  0
ENDBLK
  5
61
330
5F
100
AcDbEntity
  8
0
100
AcDbBlockEnd
  0
BLOCK
  5
63
330
62
100
AcDbEntity
  8
0
100
AcDbBlockBegin
  2
EX_WCIR
 70
     0
 10
0.0
 20
0.0
 30
0.0
  3
EX_WCIR
  1

  0
LINE
  5
8C
330
62
100
AcDbEntity
  8
0
  6
CONTINUOUS
 62
     0
100
AcDbLine
 10
0.0
 20
0.0
 30
0.0
 11
-1.0
 21
0.0
 31
0.0
  0
CIRCLE
  5
8D
330
62
100
AcDbEntity
  8
0
  6
CONTINUOUS
 62
     0
100
AcDbCircle
 10
0.0
 20
0.0
 30
0.0
 40
0.5
  0
ENDBLK
  5
64
330
62
100
AcDbEntity
  8
0
100
AcDbBlockEnd
  0
BLOCK
  5
66
330
65
100
AcDbEntity
  8
0
100
AcDbBlockBegin
  2
EX_WCIR2
 70
     0
 10
0.0
 20
0.0
 30
0.0
  3
EX_WCIR2
  1

  0
LINE
  5
8E
330
65
100
AcDbEntity
  8
0
  6
CONTINUOUS
 62
     0
100
AcDbLine
 10
-0.5
 20
0.0
 30
0.0
 11
-1.0
 21
0.0
 31
0.0
  0
CIRCLE
  5
8F
330
65
100
AcDbEntity
  8
0
  6
CONTINUOUS
 62
     0
100
AcDbCircle
 10
0.0
 20
0.0
 30
0.0
 40
0.5
  0
ENDBLK
  5
67
330
65
100
AcDbEntity
  8
0
100
AcDbBlockEnd
  0
BLOCK
  5
69
330
68
100
AcDbEntity
  8
0
100
AcDbBlockBegin
  2
EX_WNORM
 70
     0
 10
0.0
 20
0.0
 30
0.0
  3
EX_WNORM
  1

  0
LINE
  5
90
330
68
100
AcDbEntity
  8
0
  6
CONTINUOUS
 62
     0
100
AcDbLine
 10
-1.0
 20
0.0
 30
0.0
 11
-1.0
 21
0.0
 31
0.0
  0
LINE
  5
91
330
68
100
AcDbEntity
  8
0
  6
CONTINUOUS
 62
     0
100
AcDbLine
 10
0.0
 20
0.0
 30
0.0
 11
-1.0
 21
0.166666667
 31
0.0
  0
LINE
  5
92
330
68
100
AcDbEntity
  8
0
  6
CONTINUOUS
 62
     0
100
AcDbLine
 10
0.0
 20
0.0
 30
0.0
 11
-1.0
 21
-0.166666667
 31
0.0
  0
LINE
  5
93
330
68
100
AcDbEntity
  8
0
  6
CONTINUOUS
 62
     0
100
AcDbLine
 10
-1.0
 20
0.166666667
 30
0.0
 11
-1.0
 21
-0.166666667
 31
0.0
  0
ENDBLK
  5
6A
330
68
100
AcDbEntity
  8
0
100
AcDbBlockEnd
  0
BLOCK
  5
6C
330
6B
100
AcDbEntity
  8
0
100
AcDbBlockBegin
  2
EX_NNORM
 70
     0
 10
0.0
 20
0.0
 30
0.0
  3
EX_NNORM
  1

  0
LINE
  5
94
330
6B
100
AcDbEntity
  8
0
  6
CONTINUOUS
 62
     0
100
AcDbLine
 10
0.0
 20
0.0
 30
0.0
 11
-1.0
 21
0.0
 31
0.0
  0
LINE
  5
95
330
6B
100
AcDbEntity
  8
0
  6
CONTINUOUS
 62
     0
100
AcDbLine
 10
0.0
 20
0.0
 30
0.0
 11
-1.0
 21
0.166666667
 31
0.0
  0
LINE
  5
96
330
6B
100
AcDbEntity
  8
0
  6
CONTINUOUS
 62
     0
100
AcDbLine
 10
0.0
 20
0.0
 30
0.0
 11
-1.0
 21
-0.166666667
 31
0.0
  0
LINE
  5
97
330
6B
100
AcDbEntity
  8
0
  6
CONTINUOUS
 62
     0
100
AcDbLine
 10
-1.0
 20
0.166666667
 30
0.0
 11
-1.0
 21
-0.166666667
 31
0.0
  0
ENDBLK
  5
6D
330
6B
100
AcDbEntity
  8
0
100
AcDbBlockEnd
  0
BLOCK
  5
6F
330
6E
100
AcDbEntity
  8
0
100
AcDbBlockBegin
  2
EX_BBOX
 70
     0
 10
0.0
 20
0.0
 30
0.0
  3
EX_BBOX
  1

  0
LINE
  5
98
330
6E
100
AcDbEntity
  8
0
  6
CONTINUOUS
 62
     0
100
AcDbLine
 10
0.0
 20
0.0
 30
0.0
 11
-1.0
 21
0.0
 31
0.0
  0
LINE
  5
99
330
6E
100
AcDbEntity
  8
0
  6
CONTINUOUS
 62
     0
100
AcDbLine
 10
-0.5
 20
0.5
 30
0.0
 11
0.5
 21
0.5
 31
0.0
  0
LINE
  5
9A
330
6E
100
AcDbEntity
  8
0
  6
CONTINUOUS
 62
     0
100
AcDbLine
 10
0.5
 20
0.5
 30
0.0
 11
0.5
 21
-0.5
 31
0.0
  0
LINE
  5
9B
330
6E
100
AcDbEntity
  8
0
  6
CONTINUOUS
 62
     0
100
AcDbLine
 10
0.5
 20
-0.5
 30
0.0
 11
-0.5
 21
-0.5
 31
0.0
  0
LINE
  5
9C
330
6E
100
AcDbEntity
  8
0
  6
CONTINUOUS
 62
     0
100
AcDbLine
 10
-0.5
 20
-0.5
 30
0.0
 11
-0.5
 21
0.5
 31
0.0
  0
LINE
  5
9D
330
6E
100
AcDbEntity
  8
0
  6
CONTINUOUS
 62
     0
100
AcDbLine
 10
-0.25
 20
0.25
 30
0.0
 11
0.25
 21
0.25
 31
0.0
  0
LINE
  5
9E
330
6E
100
AcDbEntity
  8
0
  6
CONTINUOUS
 62
     0
100
AcDbLine
 10
0.25
 20
0.25
 30
0.0
 11
0.25
 21
-0.25
 31
0.0
  0
LINE
  5
9F
330
6E
100
AcDbEntity
  8
0
  6
CONTINUOUS
 62
     0
100
AcDbLine
 10
0.25
 20
-0.25
 30
0.0
 11
-0.25
 21
-0.25
 31
0.0
  0
LINE
  5
A0
330
6E
100
AcDbEntity
  8
0
  6
CONTINUOUS
 62
     0
100
AcDbLine
 10
-0.25
 20
-0.25
 30
0.0
 11
-0.25
 21
0.25
 31
0.0
  0
ENDBLK
  5
70
330
6E
100
AcDbEntity
  8
0
100
AcDbBlockEnd
  0
BLOCK
  5
72
330
71
100
AcDbEntity
  8
0
100
AcDbBlockBegin
  2
EX_WBOX
 70
     0
 10
0.0
 20
0.0
 30
0.0
  3
EX_WBOX
  1

  0
LINE
  5
A1
330
71
100
AcDbEntity
  8
0
  6
CONTINUOUS
 62
     0
100
AcDbLine
 10
-0.5
 20
0.0
 30
0.0
 11
-1.0
 21
0.0
 31
0.0
  0
LINE
  5
A2
330
71
100
AcDbEntity
  8
0
  6
CONTINUOUS
 62
     0
100
AcDbLine
 10
-0.5
 20
0.5
 30
0.0
 11
0.5
 21
0.5
 31
0.0
  0
LINE
  5
A3
330
71
100
AcDbEntity
  8
0
  6
CONTINUOUS
 62
     0
100
AcDbLine
 10
0.5
 20
0.5
 30
0.0
 11
0.5
 21
-0.5
 31
0.0
  0
LINE
  5
A4
330
71
100
AcDbEntity
  8
0
  6
CONTINUOUS
 62
     0
100
AcDbLine
 10
0.5
 20
-0.5
 30
0.0
 11
-0.5
 21
-0.5
 31
0.0
  0
LINE
  5
A5
330
71
100
AcDbEntity
  8
0
  6
CONTINUOUS
 62
     0
100
AcDbLine
 10
-0.5
 20
-0.5
 30
0.0
 11
-0.5
 21
0.5
 31
0.0
  0
ENDBLK
  5
73
330
71
100
AcDbEntity
  8
0
100
AcDbBlockEnd
  0
BLOCK
  5
75
330
74
100
AcDbEntity
  8
0
100
AcDbBlockBegin
  2
EX_INTEGRAL
 70
     0
 10
0.0
 20
0.0
 30
0.0
  3
EX_INTEGRAL
  1

  0
LINE
  5
A6
330
74
100
AcDbEntity
  8
0
  6
CONTINUOUS
 62
     0
100
AcDbLine
 10
0.0
 20
0.0
 30
0.0
 11
-1.0
 21
0.0
 31
0.0
  0
ARC
  5
A7
330
74
100
AcDbEntity
  8
0
  6
CONTINUOUS
 62
     0
100
AcDbCircle
 10
0.542115
 20
0.164992
 30
0.0
 40
0.56667
100
AcDbArc
 50
73.07249033629006
 51
196.9275130221199
  0
ARC
  5
A8
330
74
100
AcDbEntity
  8
0
  6
CONTINUOUS
 62
     0
100
AcDbCircle
 10
-0.542115
 20
-0.164992
 30
0.0
 40
0.56667
100
AcDbArc
 50
253.0724869220464
 51
16.9275130559125
  0
ENDBLK
  5
76
330
74
100
AcDbEntity
  8
0
100
AcDbBlockEnd
  0
BLOCK
  5
1C0
330
1BF
100
AcDbEntity
  8
0
100
AcDbBlockBegin
  2
*D15
 70
     1
 10
0.0
 20
0.0
 30
0.0
  3
*D15
  1

  0
LINE
  5
1C2
330
1BF
100
AcDbEntity
  8
化粧台
  6
CONTINUOUS
 62
     3
100
AcDbLine
 10
493.0
 20
1266.5
 30
0.0
 11
493.0
 21
1033.0
 31
0.0
  0
LINE
  5
1C3
330
1BF
100
AcDbEntity
  8
化粧台
  6
CONTINUOUS
 62
     3
100
AcDbLine
 10
793.0000000000001
 20
1266.5
 30
0.0
 11
793.0000000000001
 21
1033.0
 31
0.0
  0
LINE
  5
1C4
330
1BF
100
AcDbEntity
  8
化粧台
  6
CONTINUOUS
 62
     3
100
AcDbLine
 10
523.0
 20
1043.0
 30
0.0
 11
763.0000000000001
 21
1043.0
 31
0.0
  0
INSERT
  5
1C5
330
1BF
100
AcDbEntity
  8
化粧台
 62
     3
100
AcDbBlockReference
  2
EX_NORM
 10
493.0
 20
1043.0
 30
0.0
 41
30.0
 42
30.0
 43
30.0
 50
180.0
  0
INSERT
  5
1C6
330
1BF
100
AcDbEntity
  8
化粧台
 62
     3
100
AcDbBlockReference
  2
EX_NORM
 10
793.0000000000001
 20
1043.0
 30
0.0
 41
30.0
 42
30.0
 43
30.0
  0
MTEXT
  5
1C7
330
1BF
100
AcDbEntity
  8
化粧台
 62
     2
100
AcDbMText
 10
586.0000000000002
 20
1066.499999940395
 30
0.0
 40
40.0
 41
0.0
 71
     5
 72
     1
  1
300
  7
EXCADDIM1
  0
POINT
  5
1C8
330
1BF
100
AcDbEntity
  8
DEFPOINTS
 62
     0
100
AcDbPoint
 10
493.0
 20
1271.5
 30
0.0
  0
POINT
  5
1C9
330
1BF
100
AcDbEntity
  8
DEFPOINTS
 62
     0
100
AcDbPoint
 10
793.0000000000001
 20
1271.5
 30
0.0
  0
POINT
  5
1CA
330
1BF
100
AcDbEntity
  8
DEFPOINTS
 62
     0
100
AcDbPoint
 10
793.0000000000001
 20
1043.0
 30
0.0
  0
ENDBLK
  5
1C1
330
1BF
100
AcDbEntity
  8
0
100
AcDbBlockEnd
  0
BLOCK
  5
3BC
330
3BB
100
AcDbEntity
  8
0
100
AcDbBlockBegin
  2
*D16
 70
     1
 10
0.0
 20
0.0
 30
0.0
  3
*D16
  1

  0
LINE
  5
3BE
330
3BB
100
AcDbEntity
  8
化粧台
  6
CONTINUOUS
 62
     3
100
AcDbLine
 10
1710.0
 20
1126.5
 30
0.0
 11
1799.0
 21
1126.5
 31
0.0
  0
LINE
  5
3BF
330
3BB
100
AcDbEntity
  8
化粧台
  6
CONTINUOUS
 62
     3
100
AcDbLine
 10
1789.0
 20
1096.5
 30
0.0
 11
1789.0
 21
806.5
 31
0.0
  0
INSERT
  5
3C0
330
3BB
100
AcDbEntity
  8
化粧台
 62
     3
100
AcDbBlockReference
  2
EX_NORM
 10
1789.0
 20
1126.5
 30
0.0
 41
30.0
 42
30.0
 43
30.0
 50
90.0
  0
INSERT
  5
3C1
330
3BB
100
AcDbEntity
  8
化粧台
 62
     3
100
AcDbBlockReference
  2
EX_NORM
 10
1789.0
 20
776.5
 30
0.0
 41
30.0
 42
30.0
 43
30.0
 50
270.0
  0
MTEXT
  5
3C2
330
3BB
100
AcDbEntity
  8
化粧台
 62
     2
100
AcDbMText
 10
1763.750000089407
 20
962.0
 30
0.0
 40
40.0
 41
0.0
 71
     5
 72
     1
  1
350（壁給水）
  7
EXCADDIM1
 11
-6.049014748177263E-16
 21
1.0
 31
0.0
  0
POINT
  5
3C3
330
3BB
100
AcDbEntity
  8
DEFPOINTS
 62
     0
100
AcDbPoint
 10
1705.0
 20
1126.5
 30
0.0
  0
POINT
  5
3C4
330
3BB
100
AcDbEntity
  8
DEFPOINTS
 62
     0
100
AcDbPoint
 10
1705.0
 20
776.5
 30
0.0
  0
POINT
  5
3C5
330
3BB
100
AcDbEntity
  8
DEFPOINTS
 62
     0
100
AcDbPoint
 10
1789.0
 20
776.5
 30
0.0
  0
ENDBLK
  5
3BD
330
3BB
100
AcDbEntity
  8
0
100
AcDbBlockEnd
  0
BLOCK
  5
677
330
676
100
AcDbEntity
  8
0
100
AcDbBlockBegin
  2
*D17
 70
     1
 10
0.0
 20
0.0
 30
0.0
  3
*D17
  1

  0
LINE
  5
679
330
676
100
AcDbEntity
  8
付属金具
  6
CONTINUOUS
 62
     3
100
AcDbLine
 10
744.0
 20
2444.0
 30
0.0
 11
973.0000000000001
 21
2444.0
 31
0.0
  0
LINE
  5
67A
330
676
100
AcDbEntity
  8
付属金具
  6
CONTINUOUS
 62
     3
100
AcDbLine
 10
963.0000000000001
 20
2474.0
 30
0.0
 11
963.0000000000001
 21
2494.0
 31
0.0
  0
INSERT
  5
67B
330
676
100
AcDbEntity
  8
付属金具
 62
     3
100
AcDbBlockReference
  2
EX_NORM
 10
963.0000000000001
 20
2444.0
 30
0.0
 41
30.0
 42
30.0
 43
30.0
 50
270.0
  0
INSERT
  5
67C
330
676
100
AcDbEntity
  8
付属金具
 62
     3
100
AcDbBlockReference
  2
EX_NORM
 10
963.0000000000001
 20
2524.0
 30
0.0
 41
30.0
 42
30.0
 43
30.0
 50
90.0
  0
MTEXT
  5
67D
330
676
100
AcDbEntity
  8
付属金具
 62
     2
100
AcDbMText
 10
939.5000000596049
 20
2484.0
 30
0.0
 40
40.0
 41
0.0
 71
     5
 72
     1
  1
80
  7
EXCADDIM1
 11
0.0
 21
1.0
 31
0.0
  0
POINT
  5
67E
330
676
100
AcDbEntity
  8
DEFPOINTS
 62
     0
100
AcDbPoint
 10
739.0
 20
2444.0
 30
0.0
  0
POINT
  5
67F
330
676
100
AcDbEntity
  8
DEFPOINTS
 62
     0
100
AcDbPoint
 10
745.0
 20
2524.0
 30
0.0
  0
POINT
  5
680
330
676
100
AcDbEntity
  8
DEFPOINTS
 62
     0
100
AcDbPoint
 10
963.0000000000001
 20
2524.0
 30
0.0
  0
ENDBLK
  5
678
330
676
100
AcDbEntity
  8
0
100
AcDbBlockEnd
  0
BLOCK
  5
6F9
330
6F8
100
AcDbEntity
  8
0
100
AcDbBlockBegin
  2
*D18
 70
     1
 10
0.0
 20
0.0
 30
0.0
  3
*D18
  1

  0
LINE
  5
6FB
330
6F8
100
AcDbEntity
  8
寸法
  6
CONTINUOUS
 62
     3
100
AcDbLine
 10
392.9999999999998
 20
2153.809311284009
 30
0.0
 11
392.9999999999998
 21
1994.0
 31
0.0
  0
LINE
  5
6FC
330
6F8
100
AcDbEntity
  8
寸法
  6
CONTINUOUS
 62
     3
100
AcDbLine
 10
892.9999999999999
 20
2153.809311284009
 30
0.0
 11
892.9999999999999
 21
1994.0
 31
0.0
  0
LINE
  5
6FD
330
6F8
100
AcDbEntity
  8
寸法
  6
CONTINUOUS
 62
     3
100
AcDbLine
 10
422.9999999999998
 20
2004.0
 30
0.0
 11
862.9999999999999
 21
2004.0
 31
0.0
  0
INSERT
  5
6FE
330
6F8
100
AcDbEntity
  8
寸法
 62
     3
100
AcDbBlockReference
  2
EX_NORM
 10
392.9999999999998
 20
2004.0
 30
0.0
 41
30.0
 42
30.0
 43
30.0
 50
180.0
  0
INSERT
  5
6FF
330
6F8
100
AcDbEntity
  8
寸法
 62
     3
100
AcDbBlockReference
  2
EX_NORM
 10
892.9999999999999
 20
2004.0
 30
0.0
 41
30.0
 42
30.0
 43
30.0
  0
MTEXT
  5
700
330
6F8
100
AcDbEntity
  8
寸法
 62
     2
100
AcDbMText
 10
642.9999999999999
 20
2027.5
 30
0.0
 40
40.0
 41
0.0
 71
     5
 72
     1
  1
500
  7
EXCADDIM1
  0
POINT
  5
701
330
6F8
100
AcDbEntity
  8
DEFPOINTS
 62
     0
100
AcDbPoint
 10
392.9999999999998
 20
2160.8093111648
 30
0.0
  0
POINT
  5
702
330
6F8
100
AcDbEntity
  8
DEFPOINTS
 62
     0
100
AcDbPoint
 10
892.9999999999999
 20
2160.8093111648
 30
0.0
  0
POINT
  5
703
330
6F8
100
AcDbEntity
  8
DEFPOINTS
 62
     0
100
AcDbPoint
 10
892.9999999999999
 20
2004.0
 30
0.0
  0
ENDBLK
  5
6FA
330
6F8
100
AcDbEntity
  8
0
100
AcDbBlockEnd
  0
BLOCK
  5
706
330
705
100
AcDbEntity
  8
0
100
AcDbBlockBegin
  2
*D19
 70
     1
 10
0.0
 20
0.0
 30
0.0
  3
*D19
  1

  0
LINE
  5
708
330
705
100
AcDbEntity
  8
寸法
  6
CONTINUOUS
 62
     3
100
AcDbLine
 10
649.9999998807908
 20
2074.0
 30
0.0
 11
1037.999999999998
 21
2074.0
 31
0.0
  0
LINE
  5
709
330
705
100
AcDbEntity
  8
寸法
  6
CONTINUOUS
 62
     3
100
AcDbLine
 10
1028.0
 20
2104.0
 30
0.0
 11
1028.0
 21
2494.0
 31
0.0
  0
INSERT
  5
70A
330
705
100
AcDbEntity
  8
寸法
 62
     3
100
AcDbBlockReference
  2
EX_NORM
 10
1028.0
 20
2074.0
 30
0.0
 41
30.0
 42
30.0
 43
30.0
 50
270.0
  0
INSERT
  5
70B
330
705
100
AcDbEntity
  8
寸法
 62
     3
100
AcDbBlockReference
  2
EX_NORM
 10
1028.0
 20
2524.0
 30
0.0
 41
30.0
 42
30.0
 43
30.0
 50
90.0
  0
MTEXT
  5
70C
330
705
100
AcDbEntity
  8
寸法
 62
     2
100
AcDbMText
 10
1004.5
 20
2299.0
 30
0.0
 40
40.0
 41
0.0
 71
     5
 72
     1
  1
450
  7
EXCADDIM1
 11
0.0
 21
1.0
 31
0.0
  0
POINT
  5
70D
330
705
100
AcDbEntity
  8
DEFPOINTS
 62
     0
100
AcDbPoint
 10
643.0000000000001
 20
2074.0
 30
0.0
  0
POINT
  5
70E
330
705
100
AcDbEntity
  8
DEFPOINTS
 62
     0
100
AcDbPoint
 10
893.0163351137
 20
2524.0
 30
0.0
  0
POINT
  5
70F
330
705
100
AcDbEntity
  8
DEFPOINTS
 62
     0
100
AcDbPoint
 10
1028.0
 20
2524.0
 30
0.0
  0
ENDBLK
  5
707
330
705
100
AcDbEntity
  8
0
100
AcDbBlockEnd
  0
BLOCK
  5
712
330
711
100
AcDbEntity
  8
0
100
AcDbBlockBegin
  2
*D20
 70
     1
 10
0.0
 20
0.0
 30
0.0
  3
*D20
  1

  0
LINE
  5
714
330
711
100
AcDbEntity
  8
寸法
  6
CONTINUOUS
 62
     3
100
AcDbLine
 10
649.9999998807904
 20
1526.5
 30
0.0
 11
973.0000000000002
 21
1526.5
 31
0.0
  0
LINE
  5
715
330
711
100
AcDbEntity
  8
寸法
  6
CONTINUOUS
 62
     3
100
AcDbLine
 10
963.0000000000002
 20
806.5
 30
0.0
 11
963.0000000000002
 21
1496.5
 31
0.0
  0
INSERT
  5
716
330
711
100
AcDbEntity
  8
寸法
 62
     3
100
AcDbBlockReference
  2
EX_NORM
 10
963.0000000000002
 20
776.5
 30
0.0
 41
30.0
 42
30.0
 43
30.0
 50
270.0
  0
INSERT
  5
717
330
711
100
AcDbEntity
  8
寸法
 62
     3
100
AcDbBlockReference
  2
EX_NORM
 10
963.0000000000002
 20
1526.5
 30
0.0
 41
30.0
 42
30.0
 43
30.0
 50
90.0
  0
MTEXT
  5
718
330
711
100
AcDbEntity
  8
寸法
 62
     2
100
AcDbMText
 10
939.5000000000002
 20
1151.5
 30
0.0
 40
40.0
 41
0.0
 71
     5
 72
     1
  1
750
  7
EXCADDIM1
 11
0.0
 21
1.0
 31
0.0
  0
POINT
  5
719
330
711
100
AcDbEntity
  8
DEFPOINTS
 62
     0
100
AcDbPoint
 10
875.4999999999997
 20
776.5
 30
0.0
  0
POINT
  5
71A
330
711
100
AcDbEntity
  8
DEFPOINTS
 62
     0
100
AcDbPoint
 10
642.9999999999997
 20
1526.5
 30
0.0
  0
POINT
  5
71B
330
711
100
AcDbEntity
  8
DEFPOINTS
 62
     0
100
AcDbPoint
 10
963.0000000000002
 20
1526.5
 30
0.0
  0
ENDBLK
  5
713
330
711
100
AcDbEntity
  8
0
100
AcDbBlockEnd
  0
BLOCK
  5
71E
330
71D
100
AcDbEntity
  8
0
100
AcDbBlockBegin
  2
*D21
 70
     1
 10
0.0
 20
0.0
 30
0.0
  3
*D21
  1

  0
LINE
  5
720
330
71D
100
AcDbEntity
  8
寸法
  6
CONTINUOUS
 62
     3
100
AcDbLine
 10
889.4999998807903
 20
1576.5
 30
0.0
 11
1034.000000238419
 21
1576.5
 31
0.0
  0
LINE
  5
721
330
71D
100
AcDbEntity
  8
寸法
  6
CONTINUOUS
 62
     3
100
AcDbLine
 10
1023.0
 20
806.5
 30
0.0
 11
1023.0
 21
1546.5
 31
0.0
  0
INSERT
  5
722
330
71D
100
AcDbEntity
  8
寸法
 62
     3
100
AcDbBlockReference
  2
EX_NORM
 10
1023.0
 20
776.5
 30
0.0
 41
30.0
 42
30.0
 43
30.0
 50
270.0
  0
INSERT
  5
723
330
71D
100
AcDbEntity
  8
寸法
 62
     3
100
AcDbBlockReference
  2
EX_NORM
 10
1023.0
 20
1576.5
 30
0.0
 41
30.0
 42
30.0
 43
30.0
 50
90.0
  0
MTEXT
  5
724
330
71D
100
AcDbEntity
  8
寸法
 62
     2
100
AcDbMText
 10
999.5000000000005
 20
1176.5
 30
0.0
 40
40.0
 41
0.0
 71
     5
 72
     1
  1
800
  7
EXCADDIM1
 11
0.0
 21
1.0
 31
0.0
  0
POINT
  5
725
330
71D
100
AcDbEntity
  8
DEFPOINTS
 62
     0
100
AcDbPoint
 10
875.4999999999997
 20
776.5
 30
0.0
  0
POINT
  5
726
330
71D
100
AcDbEntity
  8
DEFPOINTS
 62
     0
100
AcDbPoint
 10
882.4999999999995
 20
1576.5
 30
0.0
  0
POINT
  5
727
330
71D
100
AcDbEntity
  8
DEFPOINTS
 62
     0
100
AcDbPoint
 10
1023.0
 20
1576.5
 30
0.0
  0
ENDBLK
  5
71F
330
71D
100
AcDbEntity
  8
0
100
AcDbBlockEnd
  0
BLOCK
  5
72A
330
729
100
AcDbEntity
  8
0
100
AcDbBlockBegin
  2
*D22
 70
     1
 10
0.0
 20
0.0
 30
0.0
  3
*D22
  1

  0
LINE
  5
72C
330
729
100
AcDbEntity
  8
寸法
  6
CONTINUOUS
 62
     3
100
AcDbLine
 10
410.4999999999997
 20
769.5000001192093
 30
0.0
 11
410.4999999999997
 21
552.0
 31
0.0
  0
LINE
  5
72D
330
729
100
AcDbEntity
  8
寸法
  6
CONTINUOUS
 62
     3
100
AcDbLine
 10
875.4999999999997
 20
769.5000001192093
 30
0.0
 11
875.4999999999997
 21
552.0
 31
0.0
  0
LINE
  5
72E
330
729
100
AcDbEntity
  8
寸法
  6
CONTINUOUS
 62
     3
100
AcDbLine
 10
440.4999999999997
 20
562.0
 30
0.0
 11
845.4999999999997
 21
562.0
 31
0.0
  0
INSERT
  5
72F
330
729
100
AcDbEntity
  8
寸法
 62
     3
100
AcDbBlockReference
  2
EX_NORM
 10
410.4999999999997
 20
562.0
 30
0.0
 41
30.0
 42
30.0
 43
30.0
 50
180.0
  0
INSERT
  5
730
330
729
100
AcDbEntity
  8
寸法
 62
     3
100
AcDbBlockReference
  2
EX_NORM
 10
875.4999999999997
 20
562.0
 30
0.0
 41
30.0
 42
30.0
 43
30.0
  0
MTEXT
  5
731
330
729
100
AcDbEntity
  8
寸法
 62
     2
100
AcDbMText
 10
642.9999999999997
 20
585.5000000000001
 30
0.0
 40
40.0
 41
0.0
 71
     5
 72
     1
  1
465
  7
EXCADDIM1
  0
POINT
  5
732
330
729
100
AcDbEntity
  8
DEFPOINTS
 62
     0
100
AcDbPoint
 10
410.4999999999997
 20
776.5
 30
0.0
  0
POINT
  5
733
330
729
100
AcDbEntity
  8
DEFPOINTS
 62
     0
100
AcDbPoint
 10
875.4999999999997
 20
776.5
 30
0.0
  0
POINT
  5
734
330
729
100
AcDbEntity
  8
DEFPOINTS
 62
     0
100
AcDbPoint
 10
875.4999999999997
 20
562.0
 30
0.0
  0
ENDBLK
  5
72B
330
729
100
AcDbEntity
  8
0
100
AcDbBlockEnd
  0
BLOCK
  5
738
330
737
100
AcDbEntity
  8
0
100
AcDbBlockBegin
  2
*D23
 70
     1
 10
0.0
 20
0.0
 30
0.0
  3
*D23
  1

  0
LINE
  5
73A
330
737
100
AcDbEntity
  8
寸法
  6
CONTINUOUS
 62
     3
100
AcDbLine
 10
1372.0
 20
769.5000001192093
 30
0.0
 11
1372.0
 21
483.0
 31
0.0
  0
LINE
  5
73B
330
737
100
AcDbEntity
  8
寸法
  6
CONTINUOUS
 62
     3
100
AcDbLine
 10
1705.0
 20
769.5000001192093
 30
0.0
 11
1705.0
 21
483.0
 31
0.0
  0
LINE
  5
73C
330
737
100
AcDbEntity
  8
寸法
  6
CONTINUOUS
 62
     3
100
AcDbLine
 10
1402.0
 20
493.0
 30
0.0
 11
1675.0
 21
493.0
 31
0.0
  0
INSERT
  5
73D
330
737
100
AcDbEntity
  8
寸法
 62
     3
100
AcDbBlockReference
  2
EX_NORM
 10
1372.0
 20
493.0
 30
0.0
 41
30.0
 42
30.0
 43
30.0
 50
180.0
  0
INSERT
  5
73E
330
737
100
AcDbEntity
  8
寸法
 62
     3
100
AcDbBlockReference
  2
EX_NORM
 10
1705.0
 20
493.0
 30
0.0
 41
30.0
 42
30.0
 43
30.0
  0
MTEXT
  5
73F
330
737
100
AcDbEntity
  8
寸法
 62
     2
100
AcDbMText
 10
1538.5
 20
516.4999999403954
 30
0.0
 40
40.0
 41
0.0
 71
     5
 72
     1
  1
333
  7
EXCADDIM1
  0
POINT
  5
740
330
737
100
AcDbEntity
  8
DEFPOINTS
 62
     0
100
AcDbPoint
 10
1372.0
 20
776.5
 30
0.0
  0
POINT
  5
741
330
737
100
AcDbEntity
  8
DEFPOINTS
 62
     0
100
AcDbPoint
 10
1705.0
 20
776.5
 30
0.0
  0
POINT
  5
742
330
737
100
AcDbEntity
  8
DEFPOINTS
 62
     0
100
AcDbPoint
 10
1705.0
 20
493.0
 30
0.0
  0
ENDBLK
  5
739
330
737
100
AcDbEntity
  8
0
100
AcDbBlockEnd
  0
BLOCK
  5
745
330
744
100
AcDbEntity
  8
0
100
AcDbBlockBegin
  2
*D24
 70
     1
 10
0.0
 20
0.0
 30
0.0
  3
*D24
  1

  0
LINE
  5
747
330
744
100
AcDbEntity
  8
寸法
  6
CONTINUOUS
 62
     3
100
AcDbLine
 10
1585.0
 20
669.3333327770233
 30
0.0
 11
1585.0
 21
552.0
 31
0.0
  0
LINE
  5
748
330
744
100
AcDbEntity
  8
寸法
  6
CONTINUOUS
 62
     3
100
AcDbLine
 10
1705.0
 20
763.3333327770233
 30
0.0
 11
1705.0
 21
552.0
 31
0.0
  0
LINE
  5
749
330
744
100
AcDbEntity
  8
寸法
  6
CONTINUOUS
 62
     3
100
AcDbLine
 10
1615.0
 20
562.0
 30
0.0
 11
1675.0
 21
562.0
 31
0.0
  0
INSERT
  5
74A
330
744
100
AcDbEntity
  8
寸法
 62
     3
100
AcDbBlockReference
  2
EX_NORM
 10
1585.0
 20
562.0
 30
0.0
 41
30.0
 42
30.0
 43
30.0
 50
180.0
  0
INSERT
  5
74B
330
744
100
AcDbEntity
  8
寸法
 62
     3
100
AcDbBlockReference
  2
EX_NORM
 10
1705.0
 20
562.0
 30
0.0
 41
30.0
 42
30.0
 43
30.0
  0
MTEXT
  5
74C
330
744
100
AcDbEntity
  8
寸法
 62
     2
100
AcDbMText
 10
1785.0
 20
585.4999999403954
 30
0.0
 40
40.0
 41
0.0
 71
     5
 72
     1
  1
120
  7
EXCADDIM1
  0
POINT
  5
74D
330
744
100
AcDbEntity
  8
DEFPOINTS
 62
     0
100
AcDbPoint
 10
1585.0
 20
682.5
 30
0.0
  0
POINT
  5
74E
330
744
100
AcDbEntity
  8
DEFPOINTS
 62
     0
100
AcDbPoint
 10
1705.0
 20
776.5
 30
0.0
  0
POINT
  5
74F
330
744
100
AcDbEntity
  8
DEFPOINTS
 62
     0
100
AcDbPoint
 10
1705.0
 20
562.0
 30
0.0
  0
ENDBLK
  5
746
330
744
100
AcDbEntity
  8
0
100
AcDbBlockEnd
  0
BLOCK
  5
752
330
751
100
AcDbEntity
  8
0
100
AcDbBlockBegin
  2
*D25
 70
     1
 10
0.0
 20
0.0
 30
0.0
  3
*D25
  1

  0
LINE
  5
754
330
751
100
AcDbEntity
  8
寸法
  6
CONTINUOUS
 62
     3
100
AcDbLine
 10
1630.0
 20
761.4999695692093
 30
0.0
 11
1630.0
 21
617.0
 31
0.0
  0
LINE
  5
755
330
751
100
AcDbEntity
  8
寸法
  6
CONTINUOUS
 62
     3
100
AcDbLine
 10
1705.0
 20
769.5000001192093
 30
0.0
 11
1705.0
 21
617.0
 31
0.0
  0
LINE
  5
756
330
751
100
AcDbEntity
  8
寸法
  6
CONTINUOUS
 62
     3
100
AcDbLine
 10
1660.0
 20
627.0
 30
0.0
 11
1675.0
 21
627.0
 31
0.0
  0
INSERT
  5
757
330
751
100
AcDbEntity
  8
寸法
 62
     3
100
AcDbBlockReference
  2
EX_NORM
 10
1630.0
 20
627.0
 30
0.0
 41
30.0
 42
30.0
 43
30.0
 50
180.0
  0
INSERT
  5
758
330
751
100
AcDbEntity
  8
寸法
 62
     3
100
AcDbBlockReference
  2
EX_NORM
 10
1705.0
 20
627.0
 30
0.0
 41
30.0
 42
30.0
 43
30.0
  0
MTEXT
  5
759
330
751
100
AcDbEntity
  8
寸法
 62
     2
100
AcDbMText
 10
1841.0
 20
649.5000000000002
 30
0.0
 40
40.0
 41
0.0
 71
     5
 72
     1
  1
75（床給水）
  7
EXCADDIM1
  0
POINT
  5
75A
330
751
100
AcDbEntity
  8
DEFPOINTS
 62
     0
100
AcDbPoint
 10
1630.0
 20
768.49996945
 30
0.0
  0
POINT
  5
75B
330
751
100
AcDbEntity
  8
DEFPOINTS
 62
     0
100
AcDbPoint
 10
1705.0
 20
776.5
 30
0.0
  0
POINT
  5
75C
330
751
100
AcDbEntity
  8
DEFPOINTS
 62
     0
100
AcDbPoint
 10
1705.0
 20
627.0
 30
0.0
  0
ENDBLK
  5
753
330
751
100
AcDbEntity
  8
0
100
AcDbBlockEnd
  0
BLOCK
  5
761
330
760
100
AcDbEntity
  8
0
100
AcDbBlockBegin
  2
*D26
 70
     1
 10
0.0
 20
0.0
 30
0.0
  3
*D26
  1

  0
LINE
  5
763
330
760
100
AcDbEntity
  8
寸法
  6
CONTINUOUS
 62
     3
100
AcDbLine
 10
1711.999999880791
 20
776.5
 30
0.0
 11
1867.0
 21
776.4999999999999
 31
0.0
  0
LINE
  5
764
330
760
100
AcDbEntity
  8
寸法
  6
CONTINUOUS
 62
     3
100
AcDbLine
 10
1744.499999880791
 20
1301.5
 30
0.0
 11
1867.0
 21
1301.5
 31
0.0
  0
LINE
  5
765
330
760
100
AcDbEntity
  8
寸法
  6
CONTINUOUS
 62
     3
100
AcDbLine
 10
1857.0
 20
806.4999999999999
 30
0.0
 11
1857.0
 21
1271.5
 31
0.0
  0
INSERT
  5
766
330
760
100
AcDbEntity
  8
寸法
 62
     3
100
AcDbBlockReference
  2
EX_NORM
 10
1857.0
 20
776.4999999999999
 30
0.0
 41
30.0
 42
30.0
 43
30.0
 50
270.0
  0
INSERT
  5
767
330
760
100
AcDbEntity
  8
寸法
 62
     3
100
AcDbBlockReference
  2
EX_NORM
 10
1857.0
 20
1301.5
 30
0.0
 41
30.0
 42
30.0
 43
30.0
 50
90.0
  0
MTEXT
  5
768
330
760
100
AcDbEntity
  8
寸法
 62
     2
100
AcDbMText
 10
1833.500000059605
 20
1039.0
 30
0.0
 40
40.0
 41
0.0
 71
     5
 72
     1
  1
525
  7
EXCADDIM1
 11
0.0
 21
1.0
 31
0.0
  0
POINT
  5
769
330
760
100
AcDbEntity
  8
DEFPOINTS
 62
     0
100
AcDbPoint
 10
1705.0
 20
776.5
 30
0.0
  0
POINT
  5
76A
330
760
100
AcDbEntity
  8
DEFPOINTS
 62
     0
100
AcDbPoint
 10
1737.5
 20
1301.5
 30
0.0
  0
POINT
  5
76B
330
760
100
AcDbEntity
  8
DEFPOINTS
 62
     0
100
AcDbPoint
 10
1857.0
 20
1301.5
 30
0.0
  0
ENDBLK
  5
762
330
760
100
AcDbEntity
  8
0
100
AcDbBlockEnd
  0
BLOCK
  5
76E
330
76D
100
AcDbEntity
  8
0
100
AcDbBlockBegin
  2
*D27
 70
     1
 10
0.0
 20
0.0
 30
0.0
  3
*D27
  1

  0
LINE
  5
770
330
76D
100
AcDbEntity
  8
寸法
  6
CONTINUOUS
 62
     3
100
AcDbLine
 10
642.9999999999999
 20
1583.499999880791
 30
0.0
 11
642.9999999999999
 21
1741.0
 31
0.0
  0
LINE
  5
771
330
76D
100
AcDbEntity
  8
寸法
  6
CONTINUOUS
 62
     3
100
AcDbLine
 10
694.0
 20
1583.499999880791
 30
0.0
 11
694.0
 21
1741.0
 31
0.0
  0
LINE
  5
772
330
76D
100
AcDbEntity
  8
寸法
  6
CONTINUOUS
 62
     3
100
AcDbLine
 10
642.9999999999999
 20
1731.0
 30
0.0
 11
694.0
 21
1731.0
 31
0.0
  0
LINE
  5
773
330
76D
100
AcDbEntity
  8
寸法
  6
CONTINUOUS
 62
     3
100
AcDbLine
 10
612.9999999999999
 20
1731.0
 30
0.0
 11
582.9999999999999
 21
1731.0
 31
0.0
  0
LINE
  5
774
330
76D
100
AcDbEntity
  8
寸法
  6
CONTINUOUS
 62
     3
100
AcDbLine
 10
724.0
 20
1731.0
 30
0.0
 11
754.0
 21
1731.0
 31
0.0
  0
INSERT
  5
775
330
76D
100
AcDbEntity
  8
寸法
 62
     3
100
AcDbBlockReference
  2
EX_NORM
 10
642.9999999999999
 20
1731.0
 30
0.0
 41
30.0
 42
30.0
 43
30.0
  0
INSERT
  5
776
330
76D
100
AcDbEntity
  8
寸法
 62
     3
100
AcDbBlockReference
  2
EX_NORM
 10
694.0
 20
1731.0
 30
0.0
 41
30.0
 42
30.0
 43
30.0
 50
180.0
  0
MTEXT
  5
777
330
76D
100
AcDbEntity
  8
寸法
 62
     2
100
AcDbMText
 10
668.5
 20
1754.499999940396
 30
0.0
 40
40.0
 41
0.0
 71
     5
 72
     1
  1
51
  7
EXCADDIM1
  0
POINT
  5
778
330
76D
100
AcDbEntity
  8
DEFPOINTS
 62
     0
100
AcDbPoint
 10
642.9999999999999
 20
1576.5
 30
0.0
  0
POINT
  5
779
330
76D
100
AcDbEntity
  8
DEFPOINTS
 62
     0
100
AcDbPoint
 10
694.0
 20
1576.5
 30
0.0
  0
POINT
  5
77A
330
76D
100
AcDbEntity
  8
DEFPOINTS
 62
     0
100
AcDbPoint
 10
694.0
 20
1731.0
 30
0.0
  0
ENDBLK
  5
76F
330
76D
100
AcDbEntity
  8
0
100
AcDbBlockEnd
  0
ENDSEC
  0
SECTION
  2
ENTITIES
  0
LINE
  5
A9
330
1F
100
AcDbEntity
  8
枠_表
  6
CONTINUOUS
 62
     7
100
AcDbLine
 10
180.0
 20
135.0
 30
0.0
 11
2000.0
 21
135.0
 31
0.0
  0
LINE
  5
AA
330
1F
100
AcDbEntity
  8
枠_表
  6
CONTINUOUS
 62
     7
100
AcDbLine
 10
2000.0
 20
135.0
 30
0.0
 11
2000.0
 21
2885.0
 31
0.0
  0
LINE
  5
AB
330
1F
100
AcDbEntity
  8
枠_表
  6
CONTINUOUS
 62
     7
100
AcDbLine
 10
180.0
 20
135.0
 30
0.0
 11
180.0
 21
2885.0
 31
0.0
  0
LINE
  5
AC
330
1F
100
AcDbEntity
  8
枠_表
  6
CONTINUOUS
 62
     7
100
AcDbLine
 10
180.0
 20
2885.0
 30
0.0
 11
2000.0
 21
2885.0
 31
0.0
  0
LINE
  5
AD
330
1F
100
AcDbEntity
  8
枠_表
  6
CONTINUOUS
 62
     7
100
AcDbLine
 10
180.0
 20
355.0
 30
0.0
 11
2000.0
 21
355.0
 31
0.0
  0
LINE
  5
AE
330
1F
100
AcDbEntity
  8
枠_表
  6
CONTINUOUS
 62
     6
100
AcDbLine
 10
2000.0
 20
235.0
 30
0.0
 11
750.0
 21
235.0
 31
0.0
  0
LINE
  5
AF
330
1F
100
AcDbEntity
  8
枠_表
  6
CONTINUOUS
 62
     6
100
AcDbLine
 10
1860.0
 20
355.0
 30
0.0
 11
1860.0
 21
235.0
 31
0.0
  0
LINE
  5
B0
330
1F
100
AcDbEntity
  8
枠_表
  6
CONTINUOUS
 62
     6
100
AcDbLine
 10
1810.0
 20
355.0
 30
0.0
 11
1810.0
 21
235.0
 31
0.0
  0
LINE
  5
B1
330
1F
100
AcDbEntity
  8
枠_表
  6
CONTINUOUS
 62
     6
100
AcDbLine
 10
1440.0
 20
355.0
 30
0.0
 11
1440.0
 21
135.0
 31
0.0
  0
LINE
  5
B2
330
1F
100
AcDbEntity
  8
枠_表
  6
CONTINUOUS
 62
     6
100
AcDbLine
 10
1390.0
 20
355.0
 30
0.0
 11
1390.0
 21
135.0
 31
0.0
  0
LINE
  5
B3
330
1F
100
AcDbEntity
  8
枠_表
  6
CONTINUOUS
 62
     6
100
AcDbLine
 10
800.0
 20
355.0
 30
0.0
 11
800.0
 21
235.0
 31
0.0
  0
LINE
  5
B4
330
1F
100
AcDbEntity
  8
枠_表
  6
CONTINUOUS
 62
     6
100
AcDbLine
 10
750.0
 20
355.0
 30
0.0
 11
750.0
 21
135.0
 31
0.0
  0
LINE
  5
B5
330
1F
100
AcDbEntity
  8
枠_表
  6
CONTINUOUS
 62
     6
100
AcDbLine
 10
620.0
 20
355.0
 30
0.0
 11
620.0
 21
135.0
 31
0.0
  0
LINE
  5
B6
330
1F
100
AcDbEntity
  8
枠_表
  6
CONTINUOUS
 62
     6
100
AcDbLine
 10
490.0
 20
355.0
 30
0.0
 11
490.0
 21
135.0
 31
0.0
  0
LINE
  5
B7
330
1F
100
AcDbEntity
  8
枠_表
  6
CONTINUOUS
 62
     6
100
AcDbLine
 10
335.0
 20
355.0
 30
0.0
 11
335.0
 21
135.0
 31
0.0
  0
LINE
  5
B8
330
1F
100
AcDbEntity
  8
枠_表
  6
CONTINUOUS
 62
     6
100
AcDbLine
 10
180.0
 20
305.0
 30
0.0
 11
750.0
 21
305.0
 31
0.0
  0
LINE
  5
B9
330
1F
100
AcDbEntity
  8
枠_表
  6
CONTINUOUS
 62
     6
100
AcDbLine
 10
1892.6538086
 20
258.0029297
 30
0.0
 11
1969.9938965
 21
336.6998291
 31
0.0
  0
TEXT
  5
BA
330
1F
100
AcDbEntity
  8
枠_表
  6
CONTINUOUS
 62
     2
100
AcDbText
 10
1890.5371094
 20
302.7227783
 30
0.0
 40
30.0
  1
１
 41
1.101333333333329
  7
EXCADSTD
 72
     5
 11
1914.1371094
 21
302.7227783
 31
0.0
100
AcDbText
  0
TEXT
  5
BB
330
1F
100
AcDbEntity
  8
枠_表
  6
CONTINUOUS
 62
     2
100
AcDbText
 10
202.5
 20
308.75
 30
0.0
 40
42.5
  1
製図
 41
1.509694117647059
  7
EXCADSTD
 72
     5
 11
303.326
 21
308.75
 31
0.0
100
AcDbText
  0
TEXT
  5
BC
330
1F
100
AcDbEntity
  8
枠_表
  6
CONTINUOUS
 62
     2
100
AcDbText
 10
357.5
 20
308.75
 30
0.0
 40
42.5
  1
写図
 41
1.509694117647059
  7
EXCADSTD
 72
     5
 11
458.326
 21
308.75
 31
0.0
100
AcDbText
  0
TEXT
  5
BD
330
1F
100
AcDbEntity
  8
枠_表
  6
CONTINUOUS
 62
     2
100
AcDbText
 10
507.5
 20
308.75
 30
0.0
 40
42.5
  1
検図
 41
1.303826737967914
  7
EXCADSTD
 72
     5
 11
594.577
 21
308.75
 31
0.0
100
AcDbText
  0
TEXT
  5
BE
330
1F
100
AcDbEntity
  8
枠_表
  6
CONTINUOUS
 62
     2
100
AcDbText
 10
637.5
 20
308.75
 30
0.0
 40
42.5
  1
承認
 41
1.303826737967914
  7
EXCADSTD
 72
     5
 11
724.577
 21
308.75
 31
0.0
100
AcDbText
  0
TEXT
  5
BF
330
1F
100
AcDbEntity
  8
枠_表
  6
CONTINUOUS
 62
     2
100
AcDbText
 10
755.75
 20
298.75
 30
0.0
 40
42.5
  1
品
 41
1.12
  7
EXCADSTD
 72
     5
 11
789.75
 21
298.75
 31
0.0
100
AcDbText
  0
TEXT
  5
C0
330
1F
100
AcDbEntity
  8
枠_表
  6
CONTINUOUS
 62
     2
100
AcDbText
 10
755.75
 20
248.75
 30
0.0
 40
42.5
  1
名
 41
1.12
  7
EXCADSTD
 72
     5
 11
789.75
 21
248.75
 31
0.0
100
AcDbText
  0
TEXT
  5
C1
330
1F
100
AcDbEntity
  8
枠_表
  6
CONTINUOUS
 62
     2
100
AcDbText
 10
1395.75
 20
298.75
 30
0.0
 40
42.5
  1
品
 41
1.12
  7
EXCADSTD
 72
     5
 11
1429.75
 21
298.75
 31
0.0
100
AcDbText
  0
TEXT
  5
C2
330
1F
100
AcDbEntity
  8
枠_表
  6
CONTINUOUS
 62
     2
100
AcDbText
 10
1395.75
 20
248.75
 30
0.0
 40
42.5
  1
番
 41
1.12
  7
EXCADSTD
 72
     5
 11
1429.75
 21
248.75
 31
0.0
100
AcDbText
  0
TEXT
  5
C3
330
1F
100
AcDbEntity
  8
枠_表
  6
CONTINUOUS
 62
     2
100
AcDbText
 10
1816.75
 20
298.75
 30
0.0
 40
42.5
  1
尺
 41
1.12
  7
EXCADSTD
 72
     5
 11
1850.75
 21
298.75
 31
0.0
100
AcDbText
  0
TEXT
  5
C4
330
1F
100
AcDbEntity
  8
枠_表
  6
CONTINUOUS
 62
     2
100
AcDbText
 10
1816.75
 20
248.75
 30
0.0
 40
42.5
  1
度
 41
1.12
  7
EXCADSTD
 72
     5
 11
1850.75
 21
248.75
 31
0.0
100
AcDbText
  0
TEXT
  5
C5
330
1F
100
AcDbEntity
  8
枠_表
  6
CONTINUOUS
 62
     2
100
AcDbText
 10
1395.75
 20
185.75
 30
0.0
 40
42.5
  1
図
 41
1.12
  7
EXCADSTD
 72
     5
 11
1429.75
 21
185.75
 31
0.0
100
AcDbText
  0
TEXT
  5
C6
330
1F
100
AcDbEntity
  8
枠_表
  6
CONTINUOUS
 62
     2
100
AcDbText
 10
1395.75
 20
142.75
 30
0.0
 40
42.5
  1
番
 41
1.12
  7
EXCADSTD
 72
     5
 11
1429.75
 21
142.75
 31
0.0
100
AcDbText
  0
LINE
  5
C7
330
1F
100
AcDbEntity
  8
枠_表
  6
EXLTYPE2
 62
     6
100
AcDbLine
 10
0.0000000000003553
 20
1485.0
 30
0.0
 11
180.0
 21
1485.0
 31
0.0
  0
TEXT
  5
C8
330
1F
100
AcDbEntity
  8
枠_表
  6
CONTINUOUS
 62
     2
100
AcDbText
 10
1931.2792969
 20
258.3488464
 30
0.0
 40
30.0
  1
１０
 41
1.098531212121213
  7
EXCADSTD
 72
     5
 11
1983.0671969
 21
258.3488464
 31
0.0
100
AcDbText
  0
LINE
  5
C9
330
1F
100
AcDbEntity
  8
枠_表
  6
EXLTYPE2
 62
     6
100
AcDbLine
 10
180.0000000000001
 20
185.0
 30
0.0
 11
490.0000000000001
 21
185.0
 31
0.0
  0
CIRCLE
  5
CA
330
1F
100
AcDbEntity
  8
枠_表
  6
CONTINUOUS
 62
     6
100
AcDbCircle
 10
230.0000000000001
 20
160.0
 30
0.0
 40
1.0000002
  0
CIRCLE
  5
CB
330
1F
100
AcDbEntity
  8
枠_表
  6
CONTINUOUS
 62
     6
100
AcDbCircle
 10
280.0000000000001
 20
160.0
 30
0.0
 40
1.0000002
  0
CIRCLE
  5
CC
330
1F
100
AcDbEntity
  8
枠_表
  6
CONTINUOUS
 62
     6
100
AcDbCircle
 10
385.0000000000001
 20
160.0
 30
0.0
 40
1.0000002
  0
CIRCLE
  5
CD
330
1F
100
AcDbEntity
  8
枠_表
  6
CONTINUOUS
 62
     6
100
AcDbCircle
 10
435.0000000000001
 20
160.0
 30
0.0
 40
1.0000002
  0
LINE
  5
CE
330
1F
100
AcDbEntity
  8
枠_表
  6
CONTINUOUS
 62
     6
100
AcDbLine
 10
1250.0
 20
2835.0
 30
0.0
 11
1950.0
 21
2835.0
 31
0.0
  0
LINE
  5
CF
330
1F
100
AcDbEntity
  8
枠_表
  6
CONTINUOUS
 62
     6
100
AcDbLine
 10
1250.0
 20
2780.0
 30
0.0
 11
1950.0
 21
2780.0
 31
0.0
  0
LINE
  5
D0
330
1F
100
AcDbEntity
  8
枠_表
  6
CONTINUOUS
 62
     6
100
AcDbLine
 10
1250.0
 20
2725.0
 30
0.0
 11
1950.0
 21
2725.0
 31
0.0
  0
TEXT
  5
D1
330
1F
100
AcDbEntity
  8
枠_表
  6
CONTINUOUS
 62
     2
100
AcDbText
 10
1330.0
 20
2787.5
 30
0.0
 40
40.0
  1
品番
 41
2.041518181818183
  7
EXCADSTD
 72
     5
 11
1458.324
 21
2787.5
 31
0.0
100
AcDbText
  0
TEXT
  5
D2
330
1F
100
AcDbEntity
  8
枠_表
  6
CONTINUOUS
 62
     2
100
AcDbText
 10
1630.0
 20
2787.5
 30
0.0
 40
40.0
  1
品名
 41
2.041518181818183
  7
EXCADSTD
 72
     5
 11
1758.324
 21
2787.5
 31
0.0
100
AcDbText
  0
TEXT
  5
D3
330
1F
100
AcDbEntity
  8
枠_表
  6
CONTINUOUS
 62
     2
100
AcDbText
 10
1859.000000059605
 20
2787.5
 30
0.0
 40
40.0
  1
個数
 41
1.195746363636364
  7
EXCADSTD
 72
     5
 11
1934.161200059605
 21
2787.5
 31
0.0
100
AcDbText
  0
TEXT
  5
D4
330
1F
100
AcDbEntity
  8
枠_表
  6
CONTINUOUS
 62
     2
100
AcDbText
 10
1560.0
 20
2732.5
 30
0.0
 40
40.0
  1
洗面化粧台
 41
1.164655172413793
  7
EXCADSTD
 72
     5
 11
1753.0
 21
2732.5
 31
0.0
100
AcDbText
  0
TEXT
  5
D5
330
1F
100
AcDbEntity
  8
枠_表
  6
CONTINUOUS
 62
     2
100
AcDbText
 10
1877.5
 20
2732.5
 30
0.0
 40
40.0
  1
１
 41
1.26
  7
EXCADSTD
 72
     5
 11
1913.5
 21
2732.5
 31
0.0
100
AcDbText
  0
TEXT
  5
D6
330
1F
100
AcDbEntity
  8
枠_表
  6
CONTINUOUS
 62
     2
100
AcDbText
 10
930.0
 20
295.0
 30
0.0
 40
50.0
  1
500㎜幅
 41
0.8693548387096773
  7
EXCADSTD
 72
     5
 11
1122.5
 21
295.0
 31
0.0
100
AcDbText
  0
TEXT
  5
D7
330
1F
100
AcDbEntity
  8
枠_表
  6
CONTINUOUS
 62
     2
100
AcDbText
 10
930.0
 20
245.0
 30
0.0
 40
50.0
  1
　洗面化粧台
 41
1.32
  7
EXCADSTD
 72
     5
 11
1260.0
 21
245.0
 31
0.0
100
AcDbText
  0
TEXT
  5
D8
330
1F
100
AcDbEntity
  8
枠_表
  6
CONTINUOUS
 62
     6
100
AcDbText
 10
207.5000001192124
 20
220.0000000000001
 30
0.0
 40
50.0
  1
間瀬
 41
1.213245090909091
  7
EXCADSTD
 72
     5
 11
302.8264001192123
 21
220.0000000000001
 31
0.0
100
AcDbText
  0
TEXT
  5
D9
330
1F
100
AcDbEntity
  8
枠_表
  6
CONTINUOUS
 62
     6
100
AcDbText
 10
635.4999997615843
 20
220.0
 30
0.0
 40
50.0
  1
古林
 41
1.18991346010815
  7
EXCADSTD
 72
     5
 11
728.9932001986532
 21
220.0
 31
0.0
100
AcDbText
  0
TEXT
  5
DB
330
1F
100
AcDbEntity
  8
枠_表
  6
CONTINUOUS
 62
     2
100
AcDbText
 10
770.0
 20
155.0
 30
0.0
 40
45.0
  1
ジャニス工業株式会社
 41
1.025641025641026
  7
EXCADTTF1
 72
     5
 11
1370.0
 21
155.0
 31
0.0
100
AcDbText
  0
LINE
  5
DC
330
1F
100
AcDbEntity
  8
枠_表
  6
CONTINUOUS
 62
     6
100
AcDbLine
 10
1250.0
 20
2725.0
 30
0.0
 11
1250.0
 21
2835.0
 31
0.0
  0
LINE
  5
DD
330
1F
100
AcDbEntity
  8
枠_表
  6
CONTINUOUS
 62
     6
100
AcDbLine
 10
1550.0
 20
2725.0
 30
0.0
 11
1550.0
 21
2835.0
 31
0.0
  0
LINE
  5
DE
330
1F
100
AcDbEntity
  8
枠_表
  6
CONTINUOUS
 62
     6
100
AcDbLine
 10
1850.0
 20
2725.0
 30
0.0
 11
1850.0
 21
2835.0
 31
0.0
  0
LINE
  5
DF
330
1F
100
AcDbEntity
  8
枠_表
  6
CONTINUOUS
 62
     6
100
AcDbLine
 10
1950.0
 20
2725.0
 30
0.0
 11
1950.0
 21
2835.0
 31
0.0
  0
TEXT
  5
E0
330
1F
100
AcDbEntity
  8
枠_表
  6
CONTINUOUS
 62
     2
100
AcDbText
 10
1260.000000000001
 20
2674.499999999999
 30
0.0
 40
40.0
  1
止水栓手配品番（アングル形の場合）
 41
0.7537128712871287
  7
EXCADSTD
 72
     5
 11
1695.000000000001
 21
2674.499999999999
 31
0.0
100
AcDbText
  0
LINE
  5
E1
330
1F
100
AcDbEntity
  8
枠_表
  6
CONTINUOUS
 62
     6
100
AcDbLine
 10
1250.0
 20
2667.0
 30
0.0
 11
1950.0
 21
2667.0
 31
0.0
  0
LINE
  5
E2
330
1F
100
AcDbEntity
  8
枠_表
  6
CONTINUOUS
 62
     6
100
AcDbLine
 10
1250.0
 20
2557.0
 30
0.0
 11
1950.0
 21
2557.0
 31
0.0
  0
LINE
  5
E3
330
1F
100
AcDbEntity
  8
枠_表
  6
CONTINUOUS
 62
     6
100
AcDbLine
 10
1250.0
 20
2611.999999999999
 30
0.0
 11
1950.0
 21
2611.999999999999
 31
0.0
  0
TEXT
  5
E4
330
1F
100
AcDbEntity
  8
枠_表
  6
CONTINUOUS
 62
     2
100
AcDbText
 10
1260.000000000001
 20
2564.5
 30
0.0
 40
40.0
  1
ＮＬ２２１-７５ＷＭＹ
 41
0.6918103448275863
  7
EXCADSTD
 72
     5
 11
1527.500000000001
 21
2564.5
 31
0.0
100
AcDbText
  0
TEXT
  5
E5
330
1F
100
AcDbEntity
  8
枠_表
  6
CONTINUOUS
 62
     2
100
AcDbText
 10
1560.000000000001
 20
2619.5
 30
0.0
 40
40.0
  1
フレキシブルパイプ
 41
0.9179245283018869
  7
EXCADSTD
 72
     5
 11
1838.000000000001
 21
2619.5
 31
0.0
100
AcDbText
  0
TEXT
  5
E6
330
1F
100
AcDbEntity
  8
枠_表
  6
CONTINUOUS
 62
     2
100
AcDbText
 10
1560.000000000001
 20
2564.5
 30
0.0
 40
40.0
  1
アングル形止水栓（共用形）
 41
0.6681817921725187
  7
EXCADSTD
 72
     5
 11
1853.999988555909
 21
2564.5
 31
0.0
100
AcDbText
  0
LINE
  5
E7
330
1F
100
AcDbEntity
  8
枠_表
  6
CONTINUOUS
 62
     6
100
AcDbLine
 10
1250.0
 20
2557.0
 30
0.0
 11
1250.0
 21
2667.0
 31
0.0
  0
LINE
  5
E8
330
1F
100
AcDbEntity
  8
枠_表
  6
CONTINUOUS
 62
     6
100
AcDbLine
 10
1550.0
 20
2557.0
 30
0.0
 11
1550.0
 21
2667.0
 31
0.0
  0
LINE
  5
E9
330
1F
100
AcDbEntity
  8
枠_表
  6
CONTINUOUS
 62
     6
100
AcDbLine
 10
1850.0
 20
2557.0
 30
0.0
 11
1850.0
 21
2667.0
 31
0.0
  0
LINE
  5
EA
330
1F
100
AcDbEntity
  8
枠_表
  6
CONTINUOUS
 62
     6
100
AcDbLine
 10
1950.0
 20
2557.0
 30
0.0
 11
1950.0
 21
2667.0
 31
0.0
  0
LINE
  5
EB
330
1F
100
AcDbEntity
  8
枠_表
  6
CONTINUOUS
 62
     6
100
AcDbLine
 10
1250.0
 20
2499.0
 30
0.0
 11
1950.0
 21
2499.0
 31
0.0
  0
LINE
  5
EC
330
1F
100
AcDbEntity
  8
枠_表
  6
CONTINUOUS
 62
     6
100
AcDbLine
 10
1250.0
 20
2389.0
 30
0.0
 11
1950.0
 21
2389.0
 31
0.0
  0
LINE
  5
ED
330
1F
100
AcDbEntity
  8
枠_表
  6
CONTINUOUS
 62
     6
100
AcDbLine
 10
1250.0
 20
2444.0
 30
0.0
 11
1950.0
 21
2444.0
 31
0.0
  0
TEXT
  5
EE
330
1F
100
AcDbEntity
  8
枠_表
  6
CONTINUOUS
 62
     2
100
AcDbText
 10
1260.000000000001
 20
2451.5
 30
0.0
 40
40.0
  1
ＮＬ３０Ｓ４０
 41
0.7896341463414634
  7
EXCADSTD
 72
     5
 11
1445.000000000001
 21
2451.5
 31
0.0
100
AcDbText
  0
TEXT
  5
EF
330
1F
100
AcDbEntity
  8
枠_表
  6
CONTINUOUS
 62
     2
100
AcDbText
 10
1560.000000000001
 20
2451.5
 30
0.0
 40
40.0
  1
フレキシブルパイプ
 41
0.9179245283018869
  7
EXCADSTD
 72
     5
 11
1838.000000000001
 21
2451.5
 31
0.0
100
AcDbText
  0
LINE
  5
F0
330
1F
100
AcDbEntity
  8
枠_表
  6
CONTINUOUS
 62
     6
100
AcDbLine
 10
1250.0
 20
2389.0
 30
0.0
 11
1250.0
 21
2499.0
 31
0.0
  0
LINE
  5
F1
330
1F
100
AcDbEntity
  8
枠_表
  6
CONTINUOUS
 62
     6
100
AcDbLine
 10
1550.0
 20
2389.0
 30
0.0
 11
1550.0
 21
2499.0
 31
0.0
  0
LINE
  5
F2
330
1F
100
AcDbEntity
  8
枠_表
  6
CONTINUOUS
 62
     6
100
AcDbLine
 10
1850.0
 20
2389.0
 30
0.0
 11
1850.0
 21
2499.0
 31
0.0
  0
LINE
  5
F3
330
1F
100
AcDbEntity
  8
枠_表
  6
CONTINUOUS
 62
     6
100
AcDbLine
 10
1950.0
 20
2389.0
 30
0.0
 11
1950.0
 21
2499.0
 31
0.0
  0
TEXT
  5
F4
330
1F
100
AcDbEntity
  8
枠_表
  6
CONTINUOUS
 62
     2
100
AcDbText
 10
1260.000000000001
 20
2506.5
 30
0.0
 40
40.0
  1
止水栓手配品番（ストレート形の場合）
 41
0.7523364485981309
  7
EXCADSTD
 72
     5
 11
1720.000000000001
 21
2506.5
 31
0.0
100
AcDbText
  0
TEXT
  5
F5
330
1F
100
AcDbEntity
  8
枠_表
  6
CONTINUOUS
 62
     2
100
AcDbText
 10
1260.000000000001
 20
2396.5
 30
0.0
 40
40.0
  1
ＮＬ２１１-３３０ＷＭＹ
 41
0.6948529411764707
  7
EXCADSTD
 72
     5
 11
1552.500000000001
 21
2396.5
 31
0.0
100
AcDbText
  0
TEXT
  5
F6
330
1F
100
AcDbEntity
  8
枠_表
  6
CONTINUOUS
 62
     2
100
AcDbText
 10
1560.000000000001
 20
2396.5
 30
0.0
 40
40.0
  1
ストレート形止水栓（共用形）
 41
0.6072289156626507
  7
EXCADSTD
 72
     5
 11
1848.000000000001
 21
2396.5
 31
0.0
100
AcDbText
  0
TEXT
  5
F7
330
1F
100
AcDbEntity
  8
枠_表
  6
CONTINUOUS
 62
     6
100
AcDbText
 10
182.0441162000001
 20
146.9500732
 30
0.0
 40
25.0
  1
２４
 41
1.052256742147966
  7
EXCADSTD
 72
     5
 11
223.3827739272416
 21
146.9500732
 31
0.0
100
AcDbText
  0
TEXT
  5
F8
330
1F
100
AcDbEntity
  8
枠_表
  6
CONTINUOUS
 62
     6
100
AcDbText
 10
244.5441162
 20
146.9500732
 30
0.0
 40
25.0
  1
７
 41
1.189439965820314
  7
EXCADSTD
 72
     5
 11
265.7841155896485
 21
146.9500732
 31
0.0
100
AcDbText
  0
TEXT
  5
F9
330
1F
100
AcDbEntity
  8
枠_表
  6
CONTINUOUS
 62
     6
100
AcDbText
 10
296.1191159973442
 20
146.9500732
 30
0.0
 40
25.0
  1
９
 41
1.189439965820314
  7
EXCADSTD
 72
     5
 11
317.3591153869927
 21
146.9500732
 31
0.0
100
AcDbText
  0
TEXT
  5
FA
330
1F
100
AcDbEntity
  8
枠_表
  6
CONTINUOUS
 62
     7
100
AcDbText
 10
1452.00000166893
 20
151.5
 30
0.0
 40
70.0
  1
ＬＵ１１０９７０
 41
1.140425531914894
  7
EXCADSTD
 72
     5
 11
1988.00000166893
 21
151.5
 31
0.0
100
AcDbText
  0
TEXT
  5
FB
330
1F
100
AcDbEntity
  8
枠_表
  6
CONTINUOUS
 62
     2
100
AcDbText
 10
1455.0
 20
270.0
 30
0.0
 40
50.0
  1
ＬＵ５０２ＦＥＡ（Ｙ）
 41
0.7323076923076925
  7
EXCADSTD
 72
     5
 11
1795.0
 21
270.0
 31
0.0
100
AcDbText
  0
TEXT
  5
FC
330
1F
100
AcDbEntity
  8
枠_表
  6
CONTINUOUS
 62
     2
100
AcDbText
 10
1260.000000000001
 20
2619.5
 30
0.0
 40
40.0
  1
ＮＬ３０Ｓ４０
 41
0.7896341463414634
  7
EXCADSTD
 72
     5
 11
1445.000000000001
 21
2619.5
 31
0.0
100
AcDbText
  0
TEXT
  5
FD
330
1F
100
AcDbEntity
  8
枠_表
  6
CONTINUOUS
 62
     2
100
AcDbText
 10
1877.5
 20
2619.5
 30
0.0
 40
40.0
  1
１
 41
1.26
  7
EXCADSTD
 72
     5
 11
1913.5
 21
2619.5
 31
0.0
100
AcDbText
  0
TEXT
  5
FE
330
1F
100
AcDbEntity
  8
枠_表
  6
CONTINUOUS
 62
     2
100
AcDbText
 10
1877.5
 20
2564.5
 30
0.0
 40
40.0
  1
１
 41
1.26
  7
EXCADSTD
 72
     5
 11
1913.5
 21
2564.5
 31
0.0
100
AcDbText
  0
TEXT
  5
FF
330
1F
100
AcDbEntity
  8
枠_表
  6
CONTINUOUS
 62
     2
100
AcDbText
 10
1877.5
 20
2451.5
 30
0.0
 40
40.0
  1
１
 41
1.26
  7
EXCADSTD
 72
     5
 11
1913.5
 21
2451.5
 31
0.0
100
AcDbText
  0
TEXT
  5
100
330
1F
100
AcDbEntity
  8
枠_表
  6
CONTINUOUS
 62
     2
100
AcDbText
 10
1877.5
 20
2396.5
 30
0.0
 40
40.0
  1
１
 41
1.26
  7
EXCADSTD
 72
     5
 11
1913.5
 21
2396.5
 31
0.0
100
AcDbText
  0
TEXT
  5
101
330
1F
100
AcDbEntity
  8
枠_表
  6
CONTINUOUS
 62
     2
100
AcDbText
 10
1265.000000000012
 20
2333.000000000009
 30
0.0
 40
35.0
  1
※止水栓・フレキシブルパイプは別途
 41
1.093069306930693
  7
EXCADSTD
 72
     5
 11
1817.000000000012
 21
2333.000000000009
 31
0.0
100
AcDbText
  0
TEXT
  5
102
330
1F
100
AcDbEntity
  8
枠_表
  6
CONTINUOUS
 62
     2
100
AcDbText
 10
1265.000000000012
 20
2298.000000000009
 30
0.0
 40
35.0
  1
※洗面化粧台
 41
1.142857142857143
  7
EXCADSTD
 72
     5
 11
1465.000000000012
 21
2298.000000000009
 31
0.0
100
AcDbText
  0
TEXT
  5
103
330
1F
100
AcDbEntity
  8
枠_表
  6
CONTINUOUS
 62
     2
100
AcDbText
 10
1265.000000000012
 20
2263.000000000009
 30
0.0
 40
35.0
  1
　品番にＹの付く場合は、寒冷地仕様
 41
1.093069306930693
  7
EXCADSTD
 72
     5
 11
1817.000000000012
 21
2263.000000000009
 31
0.0
100
AcDbText
  0
TEXT
  5
104
330
1F
100
AcDbEntity
  8
枠_表
  6
CONTINUOUS
 62
     2
100
AcDbText
 10
1260.000000000002
 20
2732.5
 30
0.0
 40
40.0
  1
ＬＵ５０２ＦＥＡ（Ｙ）
 41
0.7673076923076924
  7
EXCADSTD
 72
     5
 11
1545.000000000002
 21
2732.5
 31
0.0
100
AcDbText
  0
POLYLINE
  5
105
330
1F
100
AcDbEntity
  8
化粧台
  6
CONTINUOUS
 62
     3
100
AcDb2dPolyline
 66
     1
 10
0.0
 20
0.0
 30
0.0
 70
   128
  0
VERTEX
  5
106
330
105
100
AcDbEntity
  8
化粧台
  6
CONTINUOUS
 62
     3
100
AcDbVertex
100
AcDb2dVertex
 10
1091.0
 20
2524.0
 30
0.0
  0
VERTEX
  5
107
330
105
100
AcDbEntity
  8
化粧台
  6
CONTINUOUS
 62
     3
100
AcDbVertex
100
AcDb2dVertex
 10
1114.0
 20
2474.5
 30
0.0
  0
SEQEND
  5
108
330
105
100
AcDbEntity
  8
化粧台
  6
CONTINUOUS
 62
     3
  0
LINE
  5
109
330
1F
100
AcDbEntity
  8
化粧台
  6
CONTINUOUS
 62
     3
100
AcDbLine
 10
1108.175832745781
 20
2498.900383080832
 30
0.0
 11
1091.0
 21
2524.0
 31
0.0
  0
LINE
  5
10A
330
1F
100
AcDbEntity
  8
化粧台
  6
CONTINUOUS
 62
     3
100
AcDbLine
 10
1091.0
 20
2524.0
 30
0.0
 11
1099.106993056008
 21
2494.686578780534
 31
0.0
  0
POLYLINE
  5
10B
330
1F
100
AcDbEntity
  8
化粧台
  6
CONTINUOUS
 62
     3
100
AcDb2dPolyline
 66
     1
 10
0.0
 20
0.0
 30
0.0
 70
   128
  0
VERTEX
  5
10C
330
10B
100
AcDbEntity
  8
化粧台
  6
CONTINUOUS
 62
     3
100
AcDbVertex
100
AcDb2dVertex
 10
1705.0
 20
1752.0
 30
0.0
  0
VERTEX
  5
10D
330
10B
100
AcDbEntity
  8
化粧台
  6
CONTINUOUS
 62
     3
100
AcDbVertex
100
AcDb2dVertex
 10
1658.999999999999
 20
1772.0
 30
0.0
  0
SEQEND
  5
10E
330
10B
100
AcDbEntity
  8
化粧台
  6
CONTINUOUS
 62
     3
  0
LINE
  5
10F
330
1F
100
AcDbEntity
  8
化粧台
  6
CONTINUOUS
 62
     3
100
AcDbLine
 10
1675.49426775533
 20
1759.376433061167
 30
0.0
 11
1705.0
 21
1752.0
 31
0.0
  0
LINE
  5
110
330
1F
100
AcDbEntity
  8
化粧台
  6
CONTINUOUS
 62
     3
100
AcDbLine
 10
1705.0
 20
1752.0
 30
0.0
 11
1679.481528869474
 21
1768.5471336237
 31
0.0
  0
POLYLINE
  5
111
330
1F
100
AcDbEntity
  8
化粧台
  6
CONTINUOUS
 62
     3
100
AcDb2dPolyline
 66
     1
 10
0.0
 20
0.0
 30
0.0
 70
   128
  0
VERTEX
  5
112
330
111
100
AcDbEntity
  8
化粧台
  6
CONTINUOUS
 62
     3
100
AcDbVertex
100
AcDb2dVertex
 10
1308.0
 20
776.5
 30
0.0
  0
VERTEX
  5
113
330
111
100
AcDbEntity
  8
化粧台
  6
CONTINUOUS
 62
     3
100
AcDbVertex
100
AcDb2dVertex
 10
1288.999999999999
 20
825.4999999999998
 30
0.0
  0
SEQEND
  5
114
330
111
100
AcDbEntity
  8
化粧台
  6
CONTINUOUS
 62
     3
  0
LINE
  5
115
330
1F
100
AcDbEntity
  8
化粧台
  6
CONTINUOUS
 62
     3
100
AcDbLine
 10
1292.492357820523
 20
802.6631999960498
 30
0.0
 11
1308.0
 21
776.5
 31
0.0
  0
LINE
  5
116
330
1F
100
AcDbEntity
  8
化粧台
  6
CONTINUOUS
 62
     3
100
AcDbLine
 10
1308.0
 20
776.5
 30
0.0
 11
1301.815970910024
 21
806.2784785409586
 31
0.0
  0
LINE
  5
117
330
1F
100
AcDbEntity
  8
化粧台
  6
CONTINUOUS
 62
     2
100
AcDbLine
 10
1340.080852884725
 20
1420.668531354848
 30
0.0
 11
1337.949466947046
 21
1405.790932344487
 31
0.0
  0
ARC
  5
118
330
1F
100
AcDbEntity
  8
化粧台
  6
CONTINUOUS
 62
     2
100
AcDbCircle
 10
1413.464689349516
 20
1538.978050136185
 30
0.0
 40
160.0
100
AcDbArc
 50
188.1774134121478
 51
238.7262875343723
  0
ARC
  5
119
330
1F
100
AcDbEntity
  8
化粧台
  6
CONTINUOUS
 62
     2
100
AcDbCircle
 10
1369.207890523365
 20
1460.5
 30
0.0
 40
30.00000000000002
100
AcDbArc
 50
90.00000000000004
 51
178.7277544776489
  0
LINE
  5
11A
330
1F
100
AcDbEntity
  8
化粧台
  6
CONTINUOUS
 62
     2
100
AcDbLine
 10
1339.215286065436
 20
1461.166091457839
 30
0.0
 11
1337.998767409654
 21
1406.388984757026
 31
0.0
  0
ARC
  5
11B
330
1F
100
AcDbEntity
  8
化粧台
  6
CONTINUOUS
 62
     2
100
AcDbCircle
 10
1669.19143550084
 20
1571.025398393302
 30
0.0
 40
10.0
100
AcDbArc
 50
273.1978687353146
 51
349.3069580963016
  0
ARC
  5
11C
330
1F
100
AcDbEntity
  8
化粧台
  6
CONTINUOUS
 62
     2
100
AcDbCircle
 10
1339.595144145673
 20
1442.438848609693
 30
0.0
 40
100.0000000000001
100
AcDbArc
 50
93.19786873531247
 51
108.1027367008216
  0
ARC
  5
11D
330
1F
100
AcDbEntity
  8
化粧台
  6
CONTINUOUS
 62
     2
100
AcDbCircle
 10
1215.306412094502
 20
1822.639205112829
 30
0.0
 40
300.0
100
AcDbArc
 50
279.0667154286708
 51
288.1027367008253
  0
LINE
  5
11E
330
1F
100
AcDbEntity
  8
化粧台
  6
CONTINUOUS
 62
     2
100
AcDbLine
 10
1334.0167076088
 20
1542.283132601337
 30
0.0
 11
1669.7492791545
 21
1561.040969994135
 31
0.0
  0
ARC
  5
11F
330
1F
100
AcDbEntity
  8
化粧台
  6
CONTINUOUS
 62
     2
100
AcDbCircle
 10
1348.0
 20
1419.534023106028
 30
0.0
 40
8.0
100
AcDbArc
 50
65.09470600750072
 51
171.8471989110027
  0
LINE
  5
120
330
1F
100
AcDbEntity
  8
化粧台
  6
CONTINUOUS
 62
     2
100
AcDbLine
 10
1687.8615069032
 20
1576.5
 30
0.0
 11
1705.0
 21
1576.5
 31
0.0
  0
ARC
  5
121
330
1F
100
AcDbEntity
  8
化粧台
  6
CONTINUOUS
 62
     2
100
AcDbCircle
 10
1264.0
 20
1517.5
 30
0.0
 40
8.999999999999998
100
AcDbArc
 50
99.06671542866879
 51
188.1774134121526
  0
ARC
  5
122
330
1F
100
AcDbEntity
  8
化粧台
  6
CONTINUOUS
 62
     2
100
AcDbCircle
 10
1687.86150690318
 20
1567.5
 30
0.0
 40
8.999999999999998
100
AcDbArc
 50
90.00000000000004
 51
169.3069580963037
  0
ARC
  5
123
330
1F
100
AcDbEntity
  8
化粧台
  6
CONTINUOUS
 62
     2
100
AcDbCircle
 10
1333.0
 20
1406.5
 30
0.0
 40
5.0
100
AcDbArc
 50
238.7262875343714
 51
0.0
  0
LINE
  5
124
330
1F
100
AcDbEntity
  8
化粧台
  6
CONTINUOUS
 62
     2
100
AcDbLine
 10
1369.207890523365
 20
1490.5
 30
0.0
 11
1705.0
 21
1490.5
 31
0.0
  0
ARC
  5
125
330
1F
100
AcDbEntity
  8
化粧台
  6
EXLTYPE2
 62
     2
100
AcDbCircle
 10
1695.0
 20
1396.5
 30
0.0
 40
10.0
100
AcDbArc
 50
265.6778410235481
 51
0.0
  0
ARC
  5
126
330
1F
100
AcDbEntity
  8
化粧台
  6
EXLTYPE2
 62
     2
100
AcDbCircle
 10
1435.842119920198
 20
1416.086977032769
 30
0.0
 40
10.0
100
AcDbArc
 50
211.6075022462555
 51
265.6778410235519
  0
ARC
  5
127
330
1F
100
AcDbEntity
  8
化粧台
  6
EXLTYPE2
 62
     2
100
AcDbCircle
 10
1474.177430355354
 20
1346.500000000001
 30
0.0
 40
5.0
100
AcDbArc
 50
190.2434269361022
 51
270.0000000000002
  0
LINE
  5
128
330
1F
100
AcDbEntity
  8
化粧台
  6
EXLTYPE2
 62
     2
100
AcDbLine
 10
1474.177430355354
 20
1341.5
 30
0.0
 11
1535.822569644646
 21
1341.5
 31
0.0
  0
ARC
  5
129
330
1F
100
AcDbEntity
  8
化粧台
  6
EXLTYPE2
 62
     2
100
AcDbCircle
 10
1545.145485234283
 20
1342.882923154189
 30
0.0
 40
5.0
100
AcDbArc
 50
97.12916872039408
 51
158.7948921261556
  0
ARC
  5
12A
330
1F
100
AcDbEntity
  8
化粧台
  6
EXLTYPE2
 62
     2
100
AcDbCircle
 10
1535.822569644646
 20
1346.500000000001
 30
0.0
 40
5.0
100
AcDbArc
 50
270.0000000000002
 51
338.7948921262548
  0
LINE
  5
12B
330
1F
100
AcDbEntity
  8
化粧台
  6
EXLTYPE2
 62
     2
100
AcDbLine
 10
1463.346658850502
 20
1378.317579606814
 30
0.0
 11
1469.257124829652
 21
1345.610846732136
 31
0.0
  0
ARC
  5
12C
330
1F
100
AcDbEntity
  8
化粧台
  6
EXLTYPE2
 62
     2
100
AcDbCircle
 10
1535.8374866961
 20
1417.303089528721
 30
0.0
 40
70.0
100
AcDbArc
 50
277.1291687203957
 51
340.1421150702239
  0
LINE
  5
12D
330
1F
100
AcDbEntity
  8
化粧台
  6
EXLTYPE2
 62
     2
100
AcDbLine
 10
1390.0
 20
1471.5
 30
0.0
 11
1427.325536753165
 21
1410.846002776108
 31
0.0
  0
LINE
  5
12E
330
1F
100
AcDbEntity
  8
化粧台
  6
EXLTYPE2
 62
     2
100
AcDbLine
 10
1435.0884761235
 20
1406.115416421325
 30
0.0
 11
1694.246356203341
 21
1386.528439388552
 31
0.0
  0
ARC
  5
12F
330
1F
100
AcDbEntity
  8
化粧台
  6
EXLTYPE2
 62
     2
100
AcDbCircle
 10
1455.47417000938
 20
1376.894934378233
 30
0.0
 40
8.0
100
AcDbArc
 50
10.24342693609056
 51
71.62507505520315
  0
ARC
  5
130
330
1F
100
AcDbEntity
  8
化粧台
  6
EXLTYPE2
 62
     2
100
AcDbCircle
 10
1522.134457073958
 20
1434.680517455628
 30
0.0
 40
57.00000000000004
100
AcDbArc
 50
294.9565818872901
 51
317.7399036208649
  0
LINE
  5
131
330
1F
100
AcDbEntity
  8
化粧台
  6
EXLTYPE2
 62
     2
100
AcDbLine
 10
1462.5
 20
1383.00273386657
 30
0.0
 11
1546.184544045162
 21
1383.00273386657
 31
0.0
  0
ARC
  5
132
330
1F
100
AcDbEntity
  8
化粧台
  6
EXLTYPE2
 62
     2
100
AcDbCircle
 10
1775.436414563761
 20
2340.144207442958
 30
0.0
 40
1007.000000000001
100
AcDbArc
 50
245.0947060074998
 51
251.6250750552009
  0
LINE
  5
133
330
1F
100
AcDbEntity
  8
化粧台
  6
CONTINUOUS
 62
     2
100
AcDbLine
 10
1369.0
 20
1490.5
 30
0.0
 11
1369.0
 21
876.5
 31
0.0
  0
LINE
  5
134
330
1F
100
AcDbEntity
  8
化粧台
  6
CONTINUOUS
 62
     2
100
AcDbLine
 10
1371.999999999999
 20
876.5
 30
0.0
 11
1371.999999999999
 21
776.5
 31
0.0
  0
LINE
  5
135
330
1F
100
AcDbEntity
  8
化粧台
  6
CONTINUOUS
 62
     2
100
AcDbLine
 10
1346.5
 20
1329.5
 30
0.0
 11
1369.0
 21
1329.5
 31
0.0
  0
LINE
  5
136
330
1F
100
AcDbEntity
  8
化粧台
  6
CONTINUOUS
 62
     2
100
AcDbLine
 10
1346.5
 20
1480.104889899687
 30
0.0
 11
1346.5
 21
1329.5
 31
0.0
  0
LINE
  5
137
330
1F
100
AcDbEntity
  8
化粧台
  6
CONTINUOUS
 62
     2
100
AcDbLine
 10
1705.0
 20
1576.5
 30
0.0
 11
1705.0
 21
776.5
 31
0.0
  0
LINE
  5
138
330
1F
100
AcDbEntity
  8
化粧台
  6
CONTINUOUS
 62
     2
100
AcDbLine
 10
1348.0
 20
1322.5
 30
0.0
 11
1365.0
 21
1322.5
 31
0.0
  0
LINE
  5
139
330
1F
100
AcDbEntity
  8
化粧台
  6
CONTINUOUS
 62
     2
100
AcDbLine
 10
1348.0
 20
876.5
 30
0.0
 11
1365.0
 21
876.5
 31
0.0
  0
LINE
  5
13A
330
1F
100
AcDbEntity
  8
化粧台
  6
CONTINUOUS
 62
     2
100
AcDbLine
 10
1365.0
 20
1322.5
 30
0.0
 11
1365.0
 21
876.5
 31
0.0
  0
LINE
  5
13B
330
1F
100
AcDbEntity
  8
化粧台
  6
CONTINUOUS
 62
     2
100
AcDbLine
 10
1348.0
 20
1322.5
 30
0.0
 11
1348.0
 21
876.5
 31
0.0
  0
LINE
  5
13C
330
1F
100
AcDbEntity
  8
化粧台
  6
EXLTYPE2
 62
     6
100
AcDbLine
 10
1687.5
 20
1313.5
 30
0.0
 11
1705.0
 21
1313.5
 31
0.0
  0
LINE
  5
13D
330
1F
100
AcDbEntity
  8
化粧台
  6
EXLTYPE2
 62
     6
100
AcDbLine
 10
1687.5
 20
876.5
 30
0.0
 11
1687.5
 21
1313.5
 31
0.0
  0
LINE
  5
13E
330
1F
100
AcDbEntity
  8
化粧台
  6
EXLTYPE2
 62
     6
100
AcDbLine
 10
1691.5
 20
1288.500000000017
 30
0.0
 11
1705.0
 21
1288.500000000017
 31
0.0
  0
LINE
  5
13F
330
1F
100
AcDbEntity
  8
化粧台
  6
EXLTYPE2
 62
     6
100
AcDbLine
 10
1691.5
 20
876.5
 30
0.0
 11
1691.5
 21
1288.5
 31
0.0
  0
LINE
  5
140
330
1F
100
AcDbEntity
  8
化粧台
  6
EXLTYPE2
 62
     6
100
AcDbLine
 10
1399.0
 20
890.0
 30
0.0
 11
1399.0
 21
876.5
 31
0.0
  0
LINE
  5
141
330
1F
100
AcDbEntity
  8
化粧台
  6
EXLTYPE2
 62
     6
100
AcDbLine
 10
1399.0
 20
890.0
 30
0.0
 11
1657.5
 21
890.0
 31
0.0
  0
LINE
  5
142
330
1F
100
AcDbEntity
  8
化粧台
  6
EXLTYPE2
 62
     6
100
AcDbLine
 10
1657.5
 20
890.0
 30
0.0
 11
1657.5
 21
876.5
 31
0.0
  0
LINE
  5
143
330
1F
100
AcDbEntity
  8
化粧台
  6
EXLTYPE2
 62
     6
100
AcDbLine
 10
1657.5
 20
876.5
 30
0.0
 11
1691.499999999999
 21
876.5
 31
0.0
  0
LINE
  5
144
330
1F
100
AcDbEntity
  8
化粧台
  6
EXLTYPE2
 62
     6
100
AcDbLine
 10
1369.0
 20
893.9999999999998
 30
0.0
 11
1687.5
 21
893.9999999999998
 31
0.0
  0
LINE
  5
145
330
1F
100
AcDbEntity
  8
化粧台
  6
CONTINUOUS
 62
     2
100
AcDbLine
 10
1383.5
 20
876.5
 30
0.0
 11
1383.5
 21
776.5
 31
0.0
  0
LINE
  5
146
330
1F
100
AcDbEntity
  8
化粧台
  6
CONTINUOUS
 62
     2
100
AcDbLine
 10
1371.999999999999
 20
776.5
 30
0.0
 11
1705.0
 21
776.5
 31
0.0
  0
ARC
  5
147
330
1F
100
AcDbEntity
  8
化粧台
  6
CONTINUOUS
 62
     2
100
AcDbCircle
 10
1328.0
 20
1292.5
 30
0.0
 40
5.000000000000568
100
AcDbArc
 50
90.00000000000004
 51
270.0000000000002
  0
LINE
  5
148
330
1F
100
AcDbEntity
  8
化粧台
  6
CONTINUOUS
 62
     2
100
AcDbLine
 10
1327.999999999999
 20
1297.5
 30
0.0
 11
1348.0
 21
1297.5
 31
0.0
  0
LINE
  5
149
330
1F
100
AcDbEntity
  8
化粧台
  6
CONTINUOUS
 62
     2
100
AcDbLine
 10
1327.999999999999
 20
1287.5
 30
0.0
 11
1348.0
 21
1287.5
 31
0.0
  0
LINE
  5
14A
330
1F
100
AcDbEntity
  8
化粧台
  6
CONTINUOUS
 62
     6
100
AcDbLine
 10
1672.5
 20
1301.5
 30
0.0
 11
1752.5
 21
1301.5
 31
0.0
  0
LINE
  5
14B
330
1F
100
AcDbEntity
  8
化粧台
  6
CONTINUOUS
 62
     6
100
AcDbLine
 10
1705.0
 20
1303.499999999999
 30
0.0
 11
1737.5
 21
1301.499999999999
 31
0.0
  0
LINE
  5
14C
330
1F
100
AcDbEntity
  8
化粧台
  6
CONTINUOUS
 62
     6
100
AcDbLine
 10
1737.5
 20
1301.499999999999
 30
0.0
 11
1705.0
 21
1299.499999999999
 31
0.0
  0
LINE
  5
14D
330
1F
100
AcDbEntity
  8
化粧台
  6
EXLTYPE2
 62
     6
100
AcDbLine
 10
1383.5
 20
876.5000000000063
 30
0.0
 11
1399.0
 21
876.5
 31
0.0
  0
LINE
  5
14E
330
1F
100
AcDbEntity
  8
化粧台
  6
CONTINUOUS
 62
     2
100
AcDbLine
 10
1383.5
 20
876.5000000000523
 30
0.0
 11
1369.0
 21
876.5
 31
0.0
  0
LINE
  5
14F
330
1F
100
AcDbEntity
  8
化粧台
  6
EXLTYPE3
 62
     6
100
AcDbLine
 10
1505.0
 20
1356.499999999999
 30
0.0
 11
1505.0
 21
1188.093254605999
 31
0.0
  0
TEXT
  5
150
330
1F
100
AcDbEntity
  8
化粧台
  6
CONTINUOUS
 62
     2
100
AcDbText
 10
1206.499999999999
 20
776.5
 30
0.0
 40
40.0
  1
F.L.
 41
0.6227488235294114
  7
EXCADSTD
 72
     5
 11
1266.995599999999
 21
776.5
 31
0.0
100
AcDbText
  0
LINE
  5
151
330
1F
100
AcDbEntity
  8
化粧台
  6
EXLTYPE4
 62
     6
100
AcDbLine
 10
1371.999999999999
 20
776.5
 30
0.0
 11
1162.0
 21
776.5
 31
0.0
  0
ARC
  5
152
330
1F
100
AcDbEntity
  8
化粧台
  6
CONTINUOUS
 62
     2
100
AcDbCircle
 10
403.4999999999998
 20
1568.5
 30
0.0
 40
8.0
100
AcDbArc
 50
90.00000000000004
 51
180.0
  0
ARC
  5
153
330
1F
100
AcDbEntity
  8
化粧台
  6
CONTINUOUS
 62
     2
100
AcDbCircle
 10
404.5
 20
1532.499999999999
 30
0.0
 40
8.999999999999998
100
AcDbArc
 50
82.80246376638271
 51
181.5398910606258
  0
ARC
  5
154
330
1F
100
AcDbEntity
  8
化粧台
  6
CONTINUOUS
 62
     2
100
AcDbCircle
 10
437.7615421489089
 20
1488.261813583199
 30
0.0
 40
40.0
100
AcDbArc
 50
184.2335488339506
 51
236.7127242435741
  0
ARC
  5
155
330
1F
100
AcDbEntity
  8
化粧台
  6
CONTINUOUS
 62
     2
100
AcDbCircle
 10
1395.142107788306
 20
1559.13107727338
 30
0.0
 40
1000.000000000001
100
AcDbArc
 50
181.5398910606262
 51
184.2335488339492
  0
ARC
  5
156
330
1F
100
AcDbEntity
  8
化粧台
  6
CONTINUOUS
 62
     2
100
AcDbCircle
 10
558.5057235986498
 20
1672.16625248023
 30
0.0
 40
260.0
100
AcDbArc
 50
236.7127242435713
 51
255.6104883592206
  0
ARC
  5
157
330
1F
100
AcDbEntity
  8
化粧台
  6
CONTINUOUS
 62
     2
100
AcDbCircle
 10
404.5
 20
1552.5
 30
0.0
 40
8.999999999999998
100
AcDbArc
 50
71.49184939038282
 51
180.0
  0
LINE
  5
158
330
1F
100
AcDbEntity
  8
化粧台
  6
CONTINUOUS
 62
     2
100
AcDbLine
 10
395.4999999999997
 20
1532.499999999999
 30
0.0
 11
395.4999999999997
 21
1568.5
 31
0.0
  0
ARC
  5
159
330
1F
100
AcDbEntity
  8
化粧台
  6
CONTINUOUS
 62
     2
100
AcDbCircle
 10
882.4999999999995
 20
1568.5
 30
0.0
 40
8.0
100
AcDbArc
 50
0.0
 51
90.00000000000004
  0
ARC
  5
15A
330
1F
100
AcDbEntity
  8
化粧台
  6
CONTINUOUS
 62
     2
100
AcDbCircle
 10
848.238457851091
 20
1488.261813583199
 30
0.0
 40
40.0
100
AcDbArc
 50
303.2872757564281
 51
355.7664511660494
  0
ARC
  5
15B
330
1F
100
AcDbEntity
  8
化粧台
  6
CONTINUOUS
 62
     2
100
AcDbCircle
 10
-109.1421077883068
 20
1559.13107727338
 30
0.0
 40
1000.000000000001
100
AcDbArc
 50
355.766451166051
 51
358.4601089393738
  0
ARC
  5
15C
330
1F
100
AcDbEntity
  8
化粧台
  6
CONTINUOUS
 62
     2
100
AcDbCircle
 10
881.4999999999999
 20
1552.5
 30
0.0
 40
8.999999999999998
100
AcDbArc
 50
0.0
 51
108.508150609618
  0
LINE
  5
15D
330
1F
100
AcDbEntity
  8
化粧台
  6
CONTINUOUS
 62
     2
100
AcDbLine
 10
890.4999999999997
 20
1532.499999999999
 30
0.0
 11
890.4999999999997
 21
1568.5
 31
0.0
  0
ARC
  5
15E
330
1F
100
AcDbEntity
  8
化粧台
  6
CONTINUOUS
 62
     2
100
AcDbCircle
 10
727.4942764013495
 20
1672.16625248023
 30
0.0
 40
260.0
100
AcDbArc
 50
284.3895116407795
 51
303.2872757564286
  0
ARC
  5
15F
330
1F
100
AcDbEntity
  8
化粧台
  6
CONTINUOUS
 62
     2
100
AcDbCircle
 10
642.9999999999997
 20
3421.075000000024
 30
0.0
 40
1894.575000000026
100
AcDbArc
 50
262.8024637663836
 51
277.1975362336166
  0
ARC
  5
160
330
1F
100
AcDbEntity
  8
化粧台
  6
CONTINUOUS
 62
     2
100
AcDbCircle
 10
881.4999999999999
 20
1532.499999999999
 30
0.0
 40
8.999999999999998
100
AcDbArc
 50
358.4601089393742
 51
97.19753623361696
  0
ARC
  5
161
330
1F
100
AcDbEntity
  8
化粧台
  6
CONTINUOUS
 62
     2
100
AcDbCircle
 10
381.9617914564902
 20
1485.172225971377
 30
0.0
 40
80.0
100
AcDbArc
 50
40.47909358366461
 51
71.49184939038373
  0
ARC
  5
162
330
1F
100
AcDbEntity
  8
化粧台
  6
CONTINUOUS
 62
     2
100
AcDbCircle
 10
904.0382085435097
 20
1485.172225971377
 30
0.0
 40
80.0
100
AcDbArc
 50
108.5081506096163
 51
139.520906416336
  0
LINE
  5
163
330
1F
100
AcDbEntity
  8
化粧台
  6
CONTINUOUS
 62
     2
100
AcDbLine
 10
448.5996399180193
 20
1536.5
 30
0.0
 11
837.4003600819806
 21
1536.5
 31
0.0
  0
LINE
  5
164
330
1F
100
AcDbEntity
  8
化粧台
  6
CONTINUOUS
 62
     2
100
AcDbLine
 10
875.4999999999997
 20
1329.500000000011
 30
0.0
 11
410.4999999999997
 21
1329.5
 31
0.0
  0
LINE
  5
165
330
1F
100
AcDbEntity
  8
化粧台
  6
CONTINUOUS
 62
     2
100
AcDbLine
 10
875.4999999999997
 20
1322.500000000011
 30
0.0
 11
410.4999999999997
 21
1322.5
 31
0.0
  0
LINE
  5
166
330
1F
100
AcDbEntity
  8
化粧台
  6
CONTINUOUS
 62
     2
100
AcDbLine
 10
410.4999999999997
 20
876.5
 30
0.0
 11
875.4999999999997
 21
876.5
 31
0.0
  0
LINE
  5
167
330
1F
100
AcDbEntity
  8
化粧台
  6
CONTINUOUS
 62
     2
100
AcDbLine
 10
410.4999999999997
 20
776.5
 30
0.0
 11
875.4999999999997
 21
776.5
 31
0.0
  0
LINE
  5
168
330
1F
100
AcDbEntity
  8
化粧台
  6
CONTINUOUS
 62
     2
100
AcDbLine
 10
410.4999999999997
 20
1458.9905252675
 30
0.0
 11
410.5000000000002
 21
776.5
 31
0.0
  0
LINE
  5
169
330
1F
100
AcDbEntity
  8
化粧台
  6
CONTINUOUS
 62
     2
100
AcDbLine
 10
875.4999999999997
 20
1458.990525267458
 30
0.0
 11
875.4999999999997
 21
776.5
 31
0.0
  0
ARC
  5
16A
330
1F
100
AcDbEntity
  8
化粧台
  6
EXLTYPE2
 62
     2
100
AcDbCircle
 10
493.1422908374124
 20
1392.5
 30
0.0
 40
6.000000000000006
100
AcDbArc
 50
270.0000000000002
 51
347.9885216136378
  0
ARC
  5
16B
330
1F
100
AcDbEntity
  8
化粧台
  6
EXLTYPE2
 62
     2
100
AcDbCircle
 10
463.2373463575929
 20
1392.5
 30
0.0
 40
6.000000000000006
100
AcDbArc
 50
187.7651660184243
 51
270.0000000000002
  0
ARC
  5
16C
330
1F
100
AcDbEntity
  8
化粧台
  6
EXLTYPE2
 62
     2
100
AcDbCircle
 10
488.2469507659594
 20
1392.5
 30
0.0
 40
6.000000000000006
100
AcDbArc
 50
217.9798724448567
 51
270.0000000000002
  0
LINE
  5
16D
330
1F
100
AcDbEntity
  8
化粧台
  6
EXLTYPE2
 62
     2
100
AcDbLine
 10
488.2469507659603
 20
1386.499999999999
 30
0.0
 11
493.1422908374101
 21
1386.499999999997
 31
0.0
  0
ARC
  5
16E
330
1F
100
AcDbEntity
  8
化粧台
  6
EXLTYPE2
 62
     2
100
AcDbCircle
 10
467.7530492340376
 20
1392.5
 30
0.0
 40
6.000000000000006
100
AcDbArc
 50
270.0000000000002
 51
322.0201275551444
  0
LINE
  5
16F
330
1F
100
AcDbEntity
  8
化粧台
  6
EXLTYPE2
 62
     2
100
AcDbLine
 10
463.2373463575898
 20
1386.500000000003
 30
0.0
 11
467.7530492340376
 21
1386.500000000003
 31
0.0
  0
ARC
  5
170
330
1F
100
AcDbEntity
  8
化粧台
  6
EXLTYPE2
 62
     2
100
AcDbCircle
 10
477.9999999999999
 20
1384.5
 30
0.0
 40
7.000000000000006
100
AcDbArc
 50
37.97987244482628
 51
142.0201275551546
  0
LINE
  5
171
330
1F
100
AcDbEntity
  8
化粧台
  6
EXLTYPE2
 62
     2
100
AcDbLine
 10
451.3488458029219
 20
1435.275130778569
 30
0.0
 11
457.2923653493266
 21
1391.689320771599
 31
0.0
  0
ARC
  5
172
330
1F
100
AcDbEntity
  8
化粧台
  6
EXLTYPE2
 62
     2
100
AcDbCircle
 10
593.9930709214685
 20
1374.023493517224
 30
0.0
 40
8.0
100
AcDbArc
 50
10.24342693609073
 51
81.29216767011002
  0
ARC
  5
173
330
1F
100
AcDbEntity
  8
化粧台
  6
EXLTYPE2
 62
     2
100
AcDbCircle
 10
747.6599560030321
 20
2377.323791747684
 30
0.0
 40
1007.000000000001
100
AcDbArc
 50
256.5917732200704
 51
261.2921676701092
  0
LINE
  5
174
330
1F
100
AcDbEntity
  8
化粧台
  6
EXLTYPE2
 62
     2
100
AcDbLine
 10
601.8655597625913
 20
1375.446138745806
 30
0.0
 11
607.2571248296522
 21
1345.610846732136
 31
0.0
  0
ARC
  5
175
330
1F
100
AcDbEntity
  8
化粧台
  6
EXLTYPE2
 62
     2
100
AcDbCircle
 10
534.3233855841414
 20
1482.40060637259
 30
0.0
 40
86.99999999999999
100
AcDbArc
 50
247.6693488789864
 51
256.5917732200703
  0
ARC
  5
176
330
1F
100
AcDbEntity
  8
化粧台
  6
EXLTYPE2
 62
     2
100
AcDbCircle
 10
499.3678882336878
 20
1397.299999999999
 30
0.0
 40
5.0
100
AcDbArc
 50
67.66934887898476
 51
141.4935110079655
  0
LINE
  5
177
330
1F
100
AcDbEntity
  8
化粧台
  6
EXLTYPE2
 62
     2
100
AcDbLine
 10
501.2807745867717
 20
1401.91964055783
 30
0.0
 11
499.0109264113202
 21
1391.251354133209
 31
0.0
  0
ARC
  5
178
330
1F
100
AcDbEntity
  8
化粧台
  6
EXLTYPE2
 62
     2
100
AcDbCircle
 10
792.8577091625875
 20
1392.5
 30
0.0
 40
6.000000000000006
100
AcDbArc
 50
192.0114783863623
 51
270.0000000000002
  0
ARC
  5
179
330
1F
100
AcDbEntity
  8
化粧台
  6
EXLTYPE2
 62
     2
100
AcDbCircle
 10
822.7626536424067
 20
1392.5
 30
0.0
 40
6.000000000000006
100
AcDbArc
 50
270.0000000000002
 51
352.2348339815761
  0
ARC
  5
17A
330
1F
100
AcDbEntity
  8
化粧台
  6
EXLTYPE2
 62
     2
100
AcDbCircle
 10
797.7530492340402
 20
1392.5
 30
0.0
 40
6.000000000000006
100
AcDbArc
 50
270.0000000000002
 51
322.0201275551471
  0
LINE
  5
17B
330
1F
100
AcDbEntity
  8
化粧台
  6
EXLTYPE2
 62
     2
100
AcDbLine
 10
797.7530492340396
 20
1386.499999999999
 30
0.0
 11
792.8577091625895
 21
1386.499999999997
 31
0.0
  0
ARC
  5
17C
330
1F
100
AcDbEntity
  8
化粧台
  6
EXLTYPE2
 62
     2
100
AcDbCircle
 10
818.2469507659614
 20
1392.5
 30
0.0
 40
6.000000000000006
100
AcDbArc
 50
217.9798724448574
 51
270.0000000000002
  0
LINE
  5
17D
330
1F
100
AcDbEntity
  8
化粧台
  6
EXLTYPE2
 62
     2
100
AcDbLine
 10
822.7626536424101
 20
1386.500000000003
 30
0.0
 11
818.2469507659614
 21
1386.500000000003
 31
0.0
  0
ARC
  5
17E
330
1F
100
AcDbEntity
  8
化粧台
  6
EXLTYPE2
 62
     2
100
AcDbCircle
 10
807.9999999999991
 20
1384.5
 30
0.0
 40
7.000000000000006
100
AcDbArc
 50
37.97987244484084
 51
142.0201275551737
  0
LINE
  5
17F
330
1F
100
AcDbEntity
  8
化粧台
  6
EXLTYPE2
 62
     2
100
AcDbLine
 10
834.651154197078
 20
1435.275130778569
 30
0.0
 11
828.7076346506724
 21
1391.689320771599
 31
0.0
  0
ARC
  5
180
330
1F
100
AcDbEntity
  8
化粧台
  6
EXLTYPE2
 62
     2
100
AcDbCircle
 10
692.0069290785308
 20
1374.023493517224
 30
0.0
 40
8.0
100
AcDbArc
 50
98.70783232988995
 51
169.7565730639094
  0
ARC
  5
181
330
1F
100
AcDbEntity
  8
化粧台
  6
EXLTYPE2
 62
     2
100
AcDbCircle
 10
538.3400439969672
 20
2377.323791747684
 30
0.0
 40
1007.000000000001
100
AcDbArc
 50
278.7078323298911
 51
283.4082267799296
  0
LINE
  5
182
330
1F
100
AcDbEntity
  8
化粧台
  6
EXLTYPE2
 62
     2
100
AcDbLine
 10
684.1344402374083
 20
1375.446138745806
 30
0.0
 11
678.7428751703474
 21
1345.610846732136
 31
0.0
  0
ARC
  5
183
330
1F
100
AcDbEntity
  8
化粧台
  6
EXLTYPE2
 62
     2
100
AcDbCircle
 10
751.6766144158579
 20
1482.40060637259
 30
0.0
 40
86.99999999999999
100
AcDbArc
 50
283.4082267799305
 51
292.330651121014
  0
ARC
  5
184
330
1F
100
AcDbEntity
  8
化粧台
  6
EXLTYPE2
 62
     2
100
AcDbCircle
 10
786.632111766312
 20
1397.299999999999
 30
0.0
 40
5.0
100
AcDbArc
 50
38.50648899204094
 51
112.3306511210262
  0
LINE
  5
185
330
1F
100
AcDbEntity
  8
化粧台
  6
EXLTYPE2
 62
     2
100
AcDbLine
 10
784.719225413228
 20
1401.91964055783
 30
0.0
 11
786.9890735886794
 21
1391.251354133209
 31
0.0
  0
LINE
  5
186
330
1F
100
AcDbEntity
  8
化粧台
  6
EXLTYPE2
 62
     2
100
AcDbLine
 10
600.8468439910798
 20
1381.08340401922
 30
0.0
 11
685.1531560089201
 21
1381.08340401922
 31
0.0
  0
ARC
  5
187
330
1F
100
AcDbEntity
  8
化粧台
  6
EXLTYPE2
 62
     2
100
AcDbCircle
 10
612.1774303553532
 20
1346.500000000001
 30
0.0
 40
5.0
100
AcDbArc
 50
190.2434269361024
 51
270.0000000000002
  0
LINE
  5
188
330
1F
100
AcDbEntity
  8
化粧台
  6
EXLTYPE2
 62
     2
100
AcDbLine
 10
612.1774303553532
 20
1341.5
 30
0.0
 11
673.8225696446498
 21
1341.5
 31
0.0
  0
ARC
  5
189
330
1F
100
AcDbEntity
  8
化粧台
  6
EXLTYPE2
 62
     2
100
AcDbCircle
 10
673.8225696446464
 20
1346.500000000001
 30
0.0
 40
5.0
100
AcDbArc
 50
270.0000000000002
 51
349.756573063898
  0
ARC
  5
18A
330
1F
100
AcDbEntity
  8
化粧台
  6
CONTINUOUS
 62
     2
100
AcDbCircle
 10
642.9999999999997
 20
2001.499999999995
 30
0.0
 40
600.0
100
AcDbArc
 50
255.6104883592206
 51
284.3895116407793
  0
LINE
  5
18B
330
1F
100
AcDbEntity
  8
化粧台
  6
CONTINUOUS
 62
     2
100
AcDbLine
 10
520.9999999999998
 20
1287.5
 30
0.0
 11
441.9999999999994
 21
1287.5
 31
0.0
  0
LINE
  5
18C
330
1F
100
AcDbEntity
  8
化粧台
  6
CONTINUOUS
 62
     2
100
AcDbLine
 10
520.9999999999998
 20
1297.5
 30
0.0
 11
441.9999999999994
 21
1297.5
 31
0.0
  0
ELLIPSE
  5
18D
330
1F
100
AcDbEntity
  8
化粧台
  6
CONTINUOUS
 62
     2
100
AcDbEllipse
 10
520.9999999999998
 20
1292.5
 30
0.0
 11
5.99999999999995
 21
0.0
 31
0.0
210
0.0
220
0.0
230
1.0
 40
0.8333333333333403
 41
4.712388980384691
 42
7.853981633974484
  0
ELLIPSE
  5
18E
330
1F
100
AcDbEntity
  8
化粧台
  6
CONTINUOUS
 62
     2
100
AcDbEllipse
 10
441.9999999999994
 20
1292.5
 30
0.0
 11
5.99999999999995
 21
0.0
 31
0.0
210
0.0
220
0.0
230
1.0
 40
0.8333333333333403
 41
1.570796326794897
 42
4.712388980384691
  0
LINE
  5
18F
330
1F
100
AcDbEntity
  8
化粧台
  6
CONTINUOUS
 62
     6
100
AcDbLine
 10
492.9999999999997
 20
1331.5
 30
0.0
 11
492.9999999999997
 21
1271.5
 31
0.0
  0
LINE
  5
190
330
1F
100
AcDbEntity
  8
化粧台
  6
CONTINUOUS
 62
     6
100
AcDbLine
 10
522.9999999999997
 20
1301.5
 30
0.0
 11
462.9999999999999
 21
1301.5
 31
0.0
  0
CIRCLE
  5
191
330
1F
100
AcDbEntity
  8
化粧台
  6
EXLTYPE2
 62
     6
100
AcDbCircle
 10
492.9999999999999
 20
1301.5
 30
0.0
 40
7.500000000000014
  0
LINE
  5
192
330
1F
100
AcDbEntity
  8
化粧台
  6
CONTINUOUS
 62
     6
100
AcDbLine
 10
792.9999999999991
 20
1331.5
 30
0.0
 11
792.9999999999991
 21
1271.5
 31
0.0
  0
LINE
  5
193
330
1F
100
AcDbEntity
  8
化粧台
  6
CONTINUOUS
 62
     6
100
AcDbLine
 10
822.9999999999997
 20
1301.5
 30
0.0
 11
762.9999999999997
 21
1301.5
 31
0.0
  0
CIRCLE
  5
194
330
1F
100
AcDbEntity
  8
化粧台
  6
EXLTYPE2
 62
     6
100
AcDbCircle
 10
792.9999999999997
 20
1301.5
 30
0.0
 40
7.500000000000014
  0
LINE
  5
195
330
1F
100
AcDbEntity
  8
化粧台
  6
EXLTYPE4
 62
     6
100
AcDbLine
 10
410.4999999999997
 20
776.5
 30
0.0
 11
253.9999999999999
 21
776.5
 31
0.0
  0
LINE
  5
196
330
1F
100
AcDbEntity
  8
化粧台
  6
EXLTYPE4
 62
     6
100
AcDbLine
 10
1086.0
 20
776.5
 30
0.0
 11
875.4999999999997
 21
776.5
 31
0.0
  0
ARC
  5
197
330
1F
100
AcDbEntity
  8
化粧台
  6
CONTINUOUS
 62
     2
100
AcDbCircle
 10
486.5395962206853
 20
2177.504592287676
 30
0.0
 40
45.0
100
AcDbArc
 50
181.1736963130141
 51
242.9056091438193
  0
ARC
  5
198
330
1F
100
AcDbEntity
  8
化粧台
  6
CONTINUOUS
 62
     2
100
AcDbCircle
 10
683.3186762612655
 20
2404.520228597431
 30
0.0
 40
300.0
100
AcDbArc
 50
285.5923473883348
 51
297.094390856182
  0
ARC
  5
199
330
1F
100
AcDbEntity
  8
化粧台
  6
CONTINUOUS
 62
     2
100
AcDbCircle
 10
799.4604037793154
 20
2177.504592287676
 30
0.0
 40
45.0
100
AcDbArc
 50
297.0943908561834
 51
358.8263036869873
  0
ARC
  5
19A
330
1F
100
AcDbEntity
  8
化粧台
  6
CONTINUOUS
 62
     2
100
AcDbCircle
 10
643.0000000000001
 20
2673.999999999994
 30
0.0
 40
600.0
100
AcDbArc
 50
255.2269491164498
 51
284.7730508835501
  0
ARC
  5
19B
330
1F
100
AcDbEntity
  8
化粧台
  6
CONTINUOUS
 62
     2
100
AcDbCircle
 10
602.6813237387344
 20
2404.520228597431
 30
0.0
 40
300.0
100
AcDbArc
 50
242.9056091438185
 51
254.4076526116651
  0
ARC
  5
19C
330
1F
100
AcDbEntity
  8
化粧台
  6
CONTINUOUS
 62
     2
100
AcDbCircle
 10
643.0000000000001
 20
2549.000000000004
 30
0.0
 40
450.0000000000003
100
AcDbArc
 50
254.4076526116647
 51
285.5923473883353
  0
LINE
  5
19D
330
1F
100
AcDbEntity
  8
化粧台
  6
CONTINUOUS
 62
     2
100
AcDbLine
 10
393.0000000000001
 20
2523.999999999999
 30
0.0
 11
892.9999999999999
 21
2523.999999999999
 31
0.0
  0
ARC
  5
19E
330
1F
100
AcDbEntity
  8
化粧台
  6
CONTINUOUS
 62
     2
100
AcDbCircle
 10
566.5027049409963
 20
2383.916970767577
 30
0.0
 40
300.0
100
AcDbArc
 50
239.1046279403552
 51
255.2269491164498
  0
ARC
  5
19F
330
1F
100
AcDbEntity
  8
化粧台
  6
CONTINUOUS
 62
     2
100
AcDbCircle
 10
719.4972950590039
 20
2383.916970767577
 30
0.0
 40
300.0
100
AcDbArc
 50
284.7730508835502
 51
300.8953720596447
  0
ARC
  5
1A0
330
1F
100
AcDbEntity
  8
化粧台
  6
CONTINUOUS
 62
     2
100
AcDbCircle
 10
5440.499999999999
 20
2279.0
 30
0.0
 40
5000.0
100
AcDbArc
 50
179.4135025649874
 51
181.1736963130136
  0
LINE
  5
1A1
330
1F
100
AcDbEntity
  8
化粧台
  6
CONTINUOUS
 62
     2
100
AcDbLine
 10
393.0000000000001
 20
2523.999999999999
 30
0.0
 11
393.0000000000001
 21
2160.80931116478
 31
0.0
  0
ARC
  5
1A2
330
1F
100
AcDbEntity
  8
化粧台
  6
CONTINUOUS
 62
     2
100
AcDbCircle
 10
433.0000000000001
 20
2160.80931116478
 30
0.0
 40
40.0
100
AcDbArc
 50
180.0
 51
239.1046279403566
  0
ARC
  5
1A3
330
1F
100
AcDbEntity
  8
化粧台
  6
CONTINUOUS
 62
     2
100
AcDbCircle
 10
-4154.499999999999
 20
2279.0
 30
0.0
 40
5000.0
100
AcDbArc
 50
358.8263036869867
 51
0.5864974350121794
  0
LINE
  5
1A4
330
1F
100
AcDbEntity
  8
化粧台
  6
CONTINUOUS
 62
     2
100
AcDbLine
 10
892.9999999999999
 20
2523.999999999999
 30
0.0
 11
892.9999999999999
 21
2160.80931116478
 31
0.0
  0
ARC
  5
1A5
330
1F
100
AcDbEntity
  8
化粧台
  6
CONTINUOUS
 62
     2
100
AcDbCircle
 10
852.9999999999999
 20
2160.80931116478
 30
0.0
 40
40.0
100
AcDbArc
 50
300.8953720596447
 51
0.0
  0
LINE
  5
1A6
330
1F
100
AcDbEntity
  8
化粧台
  6
CONTINUOUS
 62
     6
100
AcDbLine
 10
791.0000000000011
 20
2524.0
 30
0.0
 11
792.9999999999999
 21
2556.5
 31
0.0
  0
LINE
  5
1A7
330
1F
100
AcDbEntity
  8
化粧台
  6
CONTINUOUS
 62
     6
100
AcDbLine
 10
792.9999999999999
 20
2556.5
 30
0.0
 11
795.0000000000009
 21
2524.0
 31
0.0
  0
LINE
  5
1A8
330
1F
100
AcDbEntity
  8
化粧台
  6
CONTINUOUS
 62
     6
100
AcDbLine
 10
491.0000000000011
 20
2524.0
 30
0.0
 11
493.0000000000001
 21
2556.5
 31
0.0
  0
LINE
  5
1A9
330
1F
100
AcDbEntity
  8
化粧台
  6
CONTINUOUS
 62
     6
100
AcDbLine
 10
493.0000000000001
 20
2556.5
 30
0.0
 11
495.0000000000009
 21
2524.0
 31
0.0
  0
LINE
  5
1AA
330
1F
100
AcDbEntity
  8
化粧台
  6
CONTINUOUS
 62
     6
100
AcDbLine
 10
792.9999999999995
 20
2513.999999999999
 30
0.0
 11
792.9999999999999
 21
2571.5
 31
0.0
  0
LINE
  5
1AB
330
1F
100
AcDbEntity
  8
化粧台
  6
CONTINUOUS
 62
     6
100
AcDbLine
 10
493.0000000000001
 20
2513.999999999999
 30
0.0
 11
493.0000000000001
 21
2571.5
 31
0.0
  0
LINE
  5
1AC
330
1F
100
AcDbEntity
  8
化粧台
  6
EXLTYPE3
 62
     6
100
AcDbLine
 10
643.0000000000001
 20
2539.0
 30
0.0
 11
643.0000000000001
 21
2058.999999999995
 31
0.0
  0
LINE
  5
1AD
330
1F
100
AcDbEntity
  8
化粧台
  6
CONTINUOUS
 62
     6
100
AcDbLine
 10
685.0000000000002
 20
2323.999999999999
 30
0.0
 11
600.9999999999999
 21
2323.999999999999
 31
0.0
  0
ARC
  5
1AE
330
1F
100
AcDbEntity
  8
化粧台
  6
CONTINUOUS
 62
     2
100
AcDbCircle
 10
510.758285544612
 20
2329.464133386517
 30
0.0
 40
70.0
100
AcDbArc
 50
93.92892922871853
 51
179.4135025649874
  0
ARC
  5
1AF
330
1F
100
AcDbEntity
  8
化粧台
  6
CONTINUOUS
 62
     2
100
AcDbCircle
 10
775.2417144553885
 20
2329.464133386517
 30
0.0
 40
70.0
100
AcDbArc
 50
0.5864974350125806
 51
86.07107077125134
  0
ARC
  5
1B0
330
1F
100
AcDbEntity
  8
化粧台
  6
CONTINUOUS
 62
     2
100
AcDbCircle
 10
402.0000000000002
 20
2507.999999999999
 30
0.0
 40
8.999999999999998
100
AcDbArc
 50
180.0
 51
270.0000000000002
  0
ARC
  5
1B1
330
1F
100
AcDbEntity
  8
化粧台
  6
CONTINUOUS
 62
     2
100
AcDbCircle
 10
460.5000000000001
 20
2473.999999999999
 30
0.0
 40
20.0
100
AcDbArc
 50
90.00000000000004
 51
180.0
  0
LINE
  5
1B2
330
1F
100
AcDbEntity
  8
化粧台
  6
CONTINUOUS
 62
     2
100
AcDbLine
 10
460.5000000000001
 20
2493.999999999999
 30
0.0
 11
825.5000000000007
 21
2493.999999999999
 31
0.0
  0
ARC
  5
1B3
330
1F
100
AcDbEntity
  8
化粧台
  6
CONTINUOUS
 62
     2
100
AcDbCircle
 10
884.0000000000005
 20
2507.999999999999
 30
0.0
 40
8.999999999999998
100
AcDbArc
 50
270.0000000000002
 51
0.0
  0
LINE
  5
1B4
330
1F
100
AcDbEntity
  8
化粧台
  6
CONTINUOUS
 62
     2
100
AcDbLine
 10
402.0000000000002
 20
2498.999999999999
 30
0.0
 11
884.0000000000005
 21
2498.999999999999
 31
0.0
  0
ARC
  5
1B5
330
1F
100
AcDbEntity
  8
化粧台
  6
CONTINUOUS
 62
     2
100
AcDbCircle
 10
825.5000000000007
 20
2473.999999999999
 30
0.0
 40
20.0
100
AcDbArc
 50
0.0
 51
90.00000000000004
  0
LINE
  5
1B6
330
1F
100
AcDbEntity
  8
化粧台
  6
CONTINUOUS
 62
     2
100
AcDbLine
 10
845.5000000000005
 20
2473.999999999999
 30
0.0
 11
845.5000000000067
 21
2369.0
 31
0.0
  0
LINE
  5
1B7
330
1F
100
AcDbEntity
  8
化粧台
  6
CONTINUOUS
 62
     2
100
AcDbLine
 10
440.5000000000001
 20
2473.999999999999
 30
0.0
 11
440.4999999999961
 21
2369.0
 31
0.0
  0
LINE
  5
1B8
330
1F
100
AcDbEntity
  8
化粧台
  6
EXLTYPE4
 62
     6
100
AcDbLine
 10
264.9999999999997
 20
2523.999999999999
 30
0.0
 11
392.9999999999998
 21
2524.0
 31
0.0
  0
LINE
  5
1B9
330
1F
100
AcDbEntity
  8
化粧台
  6
CONTINUOUS
 62
     6
100
AcDbLine
 10
694.0000000000003
 20
2399.0
 30
0.0
 11
694.0000000000003
 21
2489.0
 31
0.0
  0
TEXT
  5
1BA
330
1F
100
AcDbEntity
  8
化粧台
  6
CONTINUOUS
 62
     2
100
AcDbText
 10
1705.0
 20
1791.500000357628
 30
0.0
 40
40.0
  1
W.L.
 50
90.0
 41
0.5571963157894734
  7
EXCADSTD
 72
     5
 11
1705.0
 21
1851.995600357628
 31
0.0
100
AcDbText
  0
LINE
  5
1BB
330
1F
100
AcDbEntity
  8
化粧台
  6
EXLTYPE4
 62
     6
100
AcDbLine
 10
1705.0
 20
1576.5
 30
0.0
 11
1705.0
 21
1867.0
 31
0.0
  0
DIMENSION
  5
1BD
330
1F
100
AcDbEntity
  8
化粧台
  6
CONTINUOUS
 62
     3
100
AcDbDimension
  2
*D15
 10
793.0000000000001
 20
1043.0
 30
0.0
 11
586.0000000000002
 21
1066.499999940395
 31
0.0
 70
   160
  1
300
  3
ISO-25
100
AcDbAlignedDimension
 13
493.0
 23
1271.5
 33
0.0
 14
793.0000000000001
 24
1271.5
 34
0.0
100
AcDbRotatedDimension
1001
ACAD
1000
DSTYLE
1002
{
1070
   270
1070
     2
1070
     6
1000
EX_NORM
1070
     7
1000
EX_NORM
1070
    41
1040
30.0
1070
    42
1040
5.0
1070
    44
1040
10.0
1070
    73
1070
     0
1070
    74
1070
     0
1070
    75
1070
     0
1070
    76
1070
     0
1070
    77
1070
     1
1070
    78
1070
     8
1070
   140
1040
40.0
1070
   147
1040
0.0
1070
   173
1070
     1
1070
   176
1070
     3
1070
   177
1070
     3
1070
   178
1070
     2
1070
   271
1070
     2
1070
   277
1070
     2
1070
   279
1070
     2
1070
   280
1070
     0
1070
   287
1070
     5
1070
   340
1005
1BC
1002
}
  0
LINE
  5
1CB
330
1F
100
AcDbEntity
  8
化粧台
  6
EXLTYPE3
 62
     6
100
AcDbLine
 10
642.9999999999997
 20
1075.0
 30
0.0
 11
642.9999999999997
 21
729.4
 31
0.0
  0
LINE
  5
1CC
330
1F
100
AcDbEntity
  8
化粧台
  6
EXLTYPE3
 62
     6
100
AcDbLine
 10
642.9999999999997
 20
1669.0
 30
0.0
 11
642.9999999999997
 21
1124.0
 31
0.0
  0
LINE
  5
1CD
330
1F
100
AcDbEntity
  8
化粧台
  6
CONTINUOUS
 62
     6
100
AcDbLine
 10
731.0
 20
1120.66369123501
 30
0.0
 11
731.0
 21
1132.33630876493
 31
0.0
  0
LINE
  5
1CE
330
1F
100
AcDbEntity
  8
化粧台
  6
CONTINUOUS
 62
     6
100
AcDbLine
 10
716.5543916547899
 20
1140.67648463165
 30
0.0
 11
706.4456083452101
 21
1134.84017586669
 31
0.0
  0
LINE
  5
1CF
330
1F
100
AcDbEntity
  8
化粧台
  6
CONTINUOUS
 62
     6
100
AcDbLine
 10
706.4456083452101
 20
1118.15982413325
 30
0.0
 11
716.5543916547899
 21
1112.32351536829
 31
0.0
  0
ARC
  5
1D0
330
1F
100
AcDbEntity
  8
化粧台
  6
CONTINUOUS
 62
     6
100
AcDbCircle
 10
717.9999999999999
 20
1126.49999999997
 30
0.0
 40
14.25000000000001
100
AcDbArc
 50
264.1775448336003
 51
275.8224551664008
  0
ARC
  5
1D1
330
1F
100
AcDbEntity
  8
化粧台
  6
CONTINUOUS
 62
     6
100
AcDbCircle
 10
717.9999999999999
 20
1126.49999999997
 30
0.0
 40
14.25000000000001
100
AcDbArc
 50
324.1775448336014
 51
335.822455166401
  0
ARC
  5
1D2
330
1F
100
AcDbEntity
  8
化粧台
  6
CONTINUOUS
 62
     6
100
AcDbCircle
 10
717.9999999999999
 20
1126.49999999997
 30
0.0
 40
14.25000000000001
100
AcDbArc
 50
24.17754483360089
 51
35.82245516640057
  0
ARC
  5
1D3
330
1F
100
AcDbEntity
  8
化粧台
  6
CONTINUOUS
 62
     6
100
AcDbCircle
 10
717.9999999999999
 20
1126.49999999997
 30
0.0
 40
14.25000000000001
100
AcDbArc
 50
84.17754483359948
 51
95.82245516635967
  0
ARC
  5
1D4
330
1F
100
AcDbEntity
  8
化粧台
  6
CONTINUOUS
 62
     6
100
AcDbCircle
 10
717.9999999999999
 20
1126.49999999997
 30
0.0
 40
14.25000000000001
100
AcDbArc
 50
144.17754483364
 51
155.822455166359
  0
ARC
  5
1D5
330
1F
100
AcDbEntity
  8
化粧台
  6
CONTINUOUS
 62
     6
100
AcDbCircle
 10
717.9999999999999
 20
1126.49999999997
 30
0.0
 40
14.25000000000001
100
AcDbArc
 50
204.1775448335991
 51
215.822455166399
  0
LINE
  5
1D6
330
1F
100
AcDbEntity
  8
化粧台
  6
CONTINUOUS
 62
     6
100
AcDbLine
 10
706.5
 20
1160.29288719684
 30
0.0
 11
706.5
 21
1150.1071128031
 31
0.0
  0
LINE
  5
1D7
330
1F
100
AcDbEntity
  8
化粧台
  6
CONTINUOUS
 62
     6
100
AcDbLine
 10
729.5
 20
1160.29288719684
 30
0.0
 11
729.5
 21
1150.1071128031
 31
0.0
  0
ARC
  5
1D8
330
1F
100
AcDbEntity
  8
化粧台
  6
CONTINUOUS
 62
     6
100
AcDbCircle
 10
716.2499999999998
 20
1155.19999999997
 30
0.0
 40
11.00000000000001
100
AcDbArc
 50
207.5801992036014
 51
213.0557311509035
  0
ARC
  5
1D9
330
1F
100
AcDbEntity
  8
化粧台
  6
CONTINUOUS
 62
     6
100
AcDbCircle
 10
719.75
 20
1155.19999999997
 30
0.0
 40
11.00000000000001
100
AcDbArc
 50
326.9442688490998
 51
332.4198007963996
  0
CIRCLE
  5
1DA
330
1F
100
AcDbEntity
  8
化粧台
  6
EXLTYPE2
 62
     6
100
AcDbCircle
 10
717.9999999999999
 20
1126.49999999997
 30
0.0
 40
12.07434891639
  0
LINE
  5
1DB
330
1F
100
AcDbEntity
  8
化粧台
  6
CONTINUOUS
 62
     6
100
AcDbLine
 10
707.5
 20
1149.19999999997
 30
0.0
 11
707.5
 21
1141.3583333333
 31
0.0
  0
LINE
  5
1DC
330
1F
100
AcDbEntity
  8
化粧台
  6
CONTINUOUS
 62
     6
100
AcDbLine
 10
728.5
 20
1141.8583333333
 30
0.0
 11
728.5
 21
1135.448929172414
 31
0.0
  0
LINE
  5
1DD
330
1F
100
AcDbEntity
  8
化粧台
  6
EXLTYPE2
 62
     6
100
AcDbLine
 10
707.0304555427101
 20
1149.19999999997
 30
0.0
 11
728.9695444572899
 21
1149.19999999997
 31
0.0
  0
CIRCLE
  5
1DE
330
1F
100
AcDbEntity
  8
化粧台
  6
EXLTYPE2
 62
     6
100
AcDbCircle
 10
717.9999999999999
 20
1126.49999999997
 30
0.0
 40
4.75
  0
ARC
  5
1DF
330
1F
100
AcDbEntity
  8
化粧台
  6
EXLTYPE2
 62
     6
100
AcDbCircle
 10
716.2499999999998
 20
1155.19999999997
 30
0.0
 40
11.00000000000001
100
AcDbArc
 50
146.944268849098
 51
152.4198007964013
  0
ARC
  5
1E0
330
1F
100
AcDbEntity
  8
化粧台
  6
EXLTYPE2
 62
     6
100
AcDbCircle
 10
719.75
 20
1155.19999999997
 30
0.0
 40
11.00000000000001
100
AcDbArc
 50
27.58019920358758
 51
33.0557311508515
  0
LINE
  5
1E1
330
1F
100
AcDbEntity
  8
化粧台
  6
EXLTYPE2
 62
     6
100
AcDbLine
 10
707.0304555427101
 20
1161.19999999997
 30
0.0
 11
728.9695444572899
 21
1161.19999999997
 31
0.0
  0
LINE
  5
1E2
330
1F
100
AcDbEntity
  8
化粧台
  6
CONTINUOUS
 62
     6
100
AcDbLine
 10
718.0000000000305
 20
1169.000000000002
 30
0.0
 11
718.0000000000305
 21
1084.000000000002
 31
0.0
  0
LINE
  5
1E3
330
1F
100
AcDbEntity
  8
化粧台
  6
EXLTYPE2
 62
     6
100
AcDbLine
 10
711.6500000000003
 20
1161.19999999997
 30
0.0
 11
711.6500000000003
 21
1292.441666666667
 31
0.0
  0
LINE
  5
1E4
330
1F
100
AcDbEntity
  8
化粧台
  6
EXLTYPE2
 62
     6
100
AcDbLine
 10
724.3500000000008
 20
1161.19999999997
 30
0.0
 11
724.3500000000008
 21
1294.558333333333
 31
0.0
  0
LINE
  5
1E5
330
1F
100
AcDbEntity
  8
化粧台
  6
CONTINUOUS
 62
     6
100
AcDbLine
 10
649.8099391596
 20
1172.5
 30
0.0
 11
657.0000000000001
 21
1172.5
 31
0.0
  0
LINE
  5
1E6
330
1F
100
AcDbEntity
  8
化粧台
  6
CONTINUOUS
 62
     6
100
AcDbLine
 10
642.9999999999999
 20
1162.5
 30
0.0
 11
657.0000000000001
 21
1162.5
 31
0.0
  0
LINE
  5
1E7
330
1F
100
AcDbEntity
  8
化粧台
  6
CONTINUOUS
 62
     6
100
AcDbLine
 10
642.9999999999999
 20
1152.5
 30
0.0
 11
657.0000000000001
 21
1152.5
 31
0.0
  0
LINE
  5
1E8
330
1F
100
AcDbEntity
  8
化粧台
  6
CONTINUOUS
 62
     6
100
AcDbLine
 10
642.9999999999999
 20
1142.5
 30
0.0
 11
657.0000000000001
 21
1142.5
 31
0.0
  0
LINE
  5
1E9
330
1F
100
AcDbEntity
  8
化粧台
  6
CONTINUOUS
 62
     6
100
AcDbLine
 10
629.0000000000002
 20
1137.5
 30
0.0
 11
642.9999999999999
 21
1137.5
 31
0.0
  0
LINE
  5
1EA
330
1F
100
AcDbEntity
  8
化粧台
  6
CONTINUOUS
 62
     6
100
AcDbLine
 10
642.9999999999999
 20
1132.5
 30
0.0
 11
657.0000000000001
 21
1132.5
 31
0.0
  0
LINE
  5
1EB
330
1F
100
AcDbEntity
  8
化粧台
  6
CONTINUOUS
 62
     6
100
AcDbLine
 10
629.0000000000002
 20
1127.5
 30
0.0
 11
642.9999999999999
 21
1127.5
 31
0.0
  0
LINE
  5
1EC
330
1F
100
AcDbEntity
  8
化粧台
  6
CONTINUOUS
 62
     6
100
AcDbLine
 10
642.9999999999999
 20
1122.5
 30
0.0
 11
657.0000000000001
 21
1122.5
 31
0.0
  0
LINE
  5
1ED
330
1F
100
AcDbEntity
  8
化粧台
  6
CONTINUOUS
 62
     6
100
AcDbLine
 10
629.0000000000002
 20
1117.5
 30
0.0
 11
642.9999999999999
 21
1117.5
 31
0.0
  0
LINE
  5
1EE
330
1F
100
AcDbEntity
  8
化粧台
  6
CONTINUOUS
 62
     6
100
AcDbLine
 10
642.9999999999999
 20
1112.5
 30
0.0
 11
657.0000000000001
 21
1112.5
 31
0.0
  0
LINE
  5
1EF
330
1F
100
AcDbEntity
  8
化粧台
  6
CONTINUOUS
 62
     6
100
AcDbLine
 10
629.0000000000002
 20
1107.5
 30
0.0
 11
642.9999999999999
 21
1107.5
 31
0.0
  0
LINE
  5
1F0
330
1F
100
AcDbEntity
  8
化粧台
  6
CONTINUOUS
 62
     6
100
AcDbLine
 10
642.9999999999999
 20
1102.5
 30
0.0
 11
657.0000000000001
 21
1102.5
 31
0.0
  0
LINE
  5
1F1
330
1F
100
AcDbEntity
  8
化粧台
  6
CONTINUOUS
 62
     6
100
AcDbLine
 10
629.0000000000002
 20
1097.5
 30
0.0
 11
642.9999999999999
 21
1097.5
 31
0.0
  0
LINE
  5
1F2
330
1F
100
AcDbEntity
  8
化粧台
  6
CONTINUOUS
 62
     6
100
AcDbLine
 10
642.9999999999999
 20
1092.5
 30
0.0
 11
657.0000000000001
 21
1092.5
 31
0.0
  0
LINE
  5
1F3
330
1F
100
AcDbEntity
  8
化粧台
  6
CONTINUOUS
 62
     6
100
AcDbLine
 10
629.0000000000002
 20
1087.5
 30
0.0
 11
642.9999999999999
 21
1087.5
 31
0.0
  0
LINE
  5
1F4
330
1F
100
AcDbEntity
  8
化粧台
  6
CONTINUOUS
 62
     6
100
AcDbLine
 10
642.9999999999999
 20
1082.5
 30
0.0
 11
657.0000000000001
 21
1082.5
 31
0.0
  0
LINE
  5
1F5
330
1F
100
AcDbEntity
  8
化粧台
  6
CONTINUOUS
 62
     6
100
AcDbLine
 10
629.0000000000002
 20
1077.5
 30
0.0
 11
642.9999999999999
 21
1077.5
 31
0.0
  0
LINE
  5
1F6
330
1F
100
AcDbEntity
  8
化粧台
  6
CONTINUOUS
 62
     6
100
AcDbLine
 10
642.9999999999999
 20
1072.5
 30
0.0
 11
657.0000000000001
 21
1072.5
 31
0.0
  0
LINE
  5
1F7
330
1F
100
AcDbEntity
  8
化粧台
  6
CONTINUOUS
 62
     6
100
AcDbLine
 10
629.0000000000002
 20
1067.5
 30
0.0
 11
642.9999999999999
 21
1067.5
 31
0.0
  0
LINE
  5
1F8
330
1F
100
AcDbEntity
  8
化粧台
  6
CONTINUOUS
 62
     6
100
AcDbLine
 10
642.9999999999999
 20
1062.5
 30
0.0
 11
657.0000000000001
 21
1062.5
 31
0.0
  0
LINE
  5
1F9
330
1F
100
AcDbEntity
  8
化粧台
  6
EXLTYPE2
 62
     6
100
AcDbLine
 10
624.5
 20
1263.5
 30
0.0
 11
624.5
 21
1228.5
 31
0.0
  0
LINE
  5
1FA
330
1F
100
AcDbEntity
  8
化粧台
  6
EXLTYPE2
 62
     6
100
AcDbLine
 10
661.5
 20
1263.5
 30
0.0
 11
661.5
 21
1228.5
 31
0.0
  0
LINE
  5
1FB
330
1F
100
AcDbEntity
  8
化粧台
  6
EXLTYPE2
 62
     6
100
AcDbLine
 10
627.1500000000001
 20
1225.85
 30
0.0
 11
627.1500000000001
 21
1200.834963338
 31
0.0
  0
LINE
  5
1FC
330
1F
100
AcDbEntity
  8
化粧台
  6
EXLTYPE2
 62
     6
100
AcDbLine
 10
658.8500000000003
 20
1225.85
 30
0.0
 11
658.8500000000003
 21
1196.871126748
 31
0.0
  0
LINE
  5
1FD
330
1F
100
AcDbEntity
  8
化粧台
  6
EXLTYPE2
 62
     6
100
AcDbLine
 10
603.9788732524003
 20
1190.5
 30
0.0
 11
603.9788732524003
 21
1156.0
 31
0.0
  0
LINE
  5
1FE
330
1F
100
AcDbEntity
  8
化粧台
  6
EXLTYPE2
 62
     6
100
AcDbLine
 10
638.9788732524003
 20
1163.850661663
 30
0.0
 11
638.9788732524003
 21
1156.0
 31
0.0
  0
LINE
  5
1FF
330
1F
100
AcDbEntity
  8
化粧台
  6
EXLTYPE2
 62
     6
100
AcDbLine
 10
661.5
 20
1228.5
 30
0.0
 11
658.8500000000003
 21
1225.85
 31
0.0
  0
LINE
  5
200
330
1F
100
AcDbEntity
  8
化粧台
  6
EXLTYPE2
 62
     6
100
AcDbLine
 10
624.5
 20
1228.5
 30
0.0
 11
627.1500000000001
 21
1225.85
 31
0.0
  0
LINE
  5
201
330
1F
100
AcDbEntity
  8
化粧台
  6
EXLTYPE2
 62
     6
100
AcDbLine
 10
619.5999999999999
 20
1263.5
 30
0.0
 11
666.4000000000005
 21
1263.5
 31
0.0
  0
LINE
  5
202
330
1F
100
AcDbEntity
  8
化粧台
  6
EXLTYPE2
 62
     6
100
AcDbLine
 10
621.6000000000004
 20
1281.5
 30
0.0
 11
664.4000000000001
 21
1281.5
 31
0.0
  0
LINE
  5
203
330
1F
100
AcDbEntity
  8
化粧台
  6
EXLTYPE2
 62
     6
100
AcDbLine
 10
619.5999999999999
 20
1279.5
 30
0.0
 11
619.5999999999999
 21
1263.5
 31
0.0
  0
LINE
  5
204
330
1F
100
AcDbEntity
  8
化粧台
  6
EXLTYPE2
 62
     6
100
AcDbLine
 10
625.8700111029002
 20
1279.5
 30
0.0
 11
625.8700111029002
 21
1263.5
 31
0.0
  0
LINE
  5
205
330
1F
100
AcDbEntity
  8
化粧台
  6
EXLTYPE2
 62
     6
100
AcDbLine
 10
636.7299888971002
 20
1279.5
 30
0.0
 11
636.7299888971002
 21
1263.5
 31
0.0
  0
LINE
  5
206
330
1F
100
AcDbEntity
  8
化粧台
  6
EXLTYPE2
 62
     6
100
AcDbLine
 10
649.2700111028998
 20
1279.5
 30
0.0
 11
649.2700111028998
 21
1263.5
 31
0.0
  0
LINE
  5
207
330
1F
100
AcDbEntity
  8
化粧台
  6
EXLTYPE2
 62
     6
100
AcDbLine
 10
660.1299888970997
 20
1279.5
 30
0.0
 11
660.1299888970997
 21
1263.5
 31
0.0
  0
LINE
  5
208
330
1F
100
AcDbEntity
  8
化粧台
  6
EXLTYPE2
 62
     6
100
AcDbLine
 10
666.4000000000005
 20
1279.5
 30
0.0
 11
666.4000000000005
 21
1263.5
 31
0.0
  0
ARC
  5
209
330
1F
100
AcDbEntity
  8
化粧台
  6
EXLTYPE2
 62
     6
100
AcDbCircle
 10
621.6000000000004
 20
1279.5
 30
0.0
 40
2.0
100
AcDbArc
 50
90.00000000000004
 51
180.0
  0
ARC
  5
20A
330
1F
100
AcDbEntity
  8
化粧台
  6
EXLTYPE2
 62
     6
100
AcDbCircle
 10
664.4000000000001
 20
1279.5
 30
0.0
 40
2.0
100
AcDbArc
 50
0.0
 51
90.00000000000004
  0
LINE
  5
20B
330
1F
100
AcDbEntity
  8
化粧台
  6
EXLTYPE2
 62
     6
100
AcDbLine
 10
600.4788732524003
 20
1156.0
 30
0.0
 11
642.4788732524003
 21
1156.0
 31
0.0
  0
LINE
  5
20C
330
1F
100
AcDbEntity
  8
化粧台
  6
EXLTYPE2
 62
     6
100
AcDbLine
 10
601.9788732524003
 20
1139.5
 30
0.0
 11
640.9788732524001
 21
1139.5
 31
0.0
  0
LINE
  5
20D
330
1F
100
AcDbEntity
  8
化粧台
  6
EXLTYPE2
 62
     6
100
AcDbLine
 10
600.4788732524003
 20
1141.0
 30
0.0
 11
600.4788732524003
 21
1156.0
 31
0.0
  0
LINE
  5
20E
330
1F
100
AcDbEntity
  8
化粧台
  6
EXLTYPE2
 62
     6
100
AcDbLine
 10
642.4788732524003
 20
1141.0
 30
0.0
 11
642.4788732524003
 21
1156.0
 31
0.0
  0
LINE
  5
20F
330
1F
100
AcDbEntity
  8
化粧台
  6
EXLTYPE2
 62
     6
100
AcDbLine
 10
604.6565045534003
 20
1141.0
 30
0.0
 11
604.6565045534003
 21
1156.0
 31
0.0
  0
LINE
  5
210
330
1F
100
AcDbEntity
  8
化粧台
  6
EXLTYPE2
 62
     6
100
AcDbLine
 10
619.0040145414
 20
1141.0
 30
0.0
 11
619.0040145414
 21
1156.0
 31
0.0
  0
LINE
  5
211
330
1F
100
AcDbEntity
  8
化粧台
  6
EXLTYPE2
 62
     6
100
AcDbLine
 10
623.9537319635001
 20
1141.0
 30
0.0
 11
623.9537319635001
 21
1156.0
 31
0.0
  0
LINE
  5
212
330
1F
100
AcDbEntity
  8
化粧台
  6
EXLTYPE2
 62
     6
100
AcDbLine
 10
638.3012419514998
 20
1141.0
 30
0.0
 11
638.3012419514998
 21
1156.0
 31
0.0
  0
ARC
  5
213
330
1F
100
AcDbEntity
  8
化粧台
  6
EXLTYPE2
 62
     6
100
AcDbCircle
 10
640.9788732524001
 20
1141.0
 30
0.0
 40
1.5
100
AcDbArc
 50
270.0000000000002
 51
0.0
  0
ARC
  5
214
330
1F
100
AcDbEntity
  8
化粧台
  6
EXLTYPE2
 62
     6
100
AcDbCircle
 10
601.9788732524003
 20
1141.0
 30
0.0
 40
1.5
100
AcDbArc
 50
180.0
 51
270.0000000000002
  0
LINE
  5
215
330
1F
100
AcDbEntity
  8
化粧台
  6
EXLTYPE2
 62
     6
100
AcDbLine
 10
627.1500000000001
 20
1225.85
 30
0.0
 11
658.8500000000003
 21
1225.85
 31
0.0
  0
ARC
  5
216
330
1F
100
AcDbEntity
  8
化粧台
  6
EXLTYPE2
 62
     6
100
AcDbCircle
 10
621.4788732524003
 20
1175.35
 30
0.0
 40
15.85000000000001
100
AcDbArc
 50
99.64024330835963
 51
270.0000000000002
  0
LINE
  5
217
330
1F
100
AcDbEntity
  8
化粧台
  6
EXLTYPE2
 62
     6
100
AcDbLine
 10
603.9788732524003
 20
1190.5
 30
0.0
 11
616.8205473729004
 21
1190.5
 31
0.0
  0
LINE
  5
218
330
1F
100
AcDbEntity
  8
化粧台
  6
EXLTYPE2
 62
     6
100
AcDbLine
 10
582.8277576077999
 20
1231.5
 30
0.0
 11
582.8277576077999
 21
1215.5
 31
0.0
  0
LINE
  5
219
330
1F
100
AcDbEntity
  8
化粧台
  6
EXLTYPE2
 62
     6
100
AcDbLine
 10
593.6877354020003
 20
1231.5
 30
0.0
 11
593.6877354020003
 21
1215.5
 31
0.0
  0
LINE
  5
21A
330
1F
100
AcDbEntity
  8
化粧台
  6
EXLTYPE2
 62
     6
100
AcDbLine
 10
606.2277576078004
 20
1231.5
 30
0.0
 11
606.2277576078004
 21
1215.5
 31
0.0
  0
LINE
  5
21B
330
1F
100
AcDbEntity
  8
化粧台
  6
EXLTYPE2
 62
     6
100
AcDbLine
 10
617.0877354020004
 20
1231.5
 30
0.0
 11
617.0877354020004
 21
1215.5
 31
0.0
  0
LINE
  5
21C
330
1F
100
AcDbEntity
  8
化粧台
  6
EXLTYPE2
 62
     6
100
AcDbLine
 10
623.3577465049002
 20
1231.5
 30
0.0
 11
623.3577465049002
 21
1215.5
 31
0.0
  0
ARC
  5
21D
330
1F
100
AcDbEntity
  8
化粧台
  6
EXLTYPE2
 62
     6
100
AcDbCircle
 10
621.3577465049002
 20
1231.5
 30
0.0
 40
2.0
100
AcDbArc
 50
0.0
 51
90.00000000000004
  0
LINE
  5
21E
330
1F
100
AcDbEntity
  8
化粧台
  6
EXLTYPE2
 62
     6
100
AcDbLine
 10
618.4577465048997
 20
1215.5
 30
0.0
 11
618.4577465048997
 21
1190.5
 31
0.0
  0
LINE
  5
21F
330
1F
100
AcDbEntity
  8
化粧台
  6
EXLTYPE2
 62
     6
100
AcDbLine
 10
581.4577465049001
 20
1185.5
 30
0.0
 11
603.9788732524003
 21
1185.5
 31
0.0
  0
ARC
  5
220
330
1F
100
AcDbEntity
  8
化粧台
  6
EXLTYPE2
 62
     6
100
AcDbCircle
 10
621.4788732524003
 20
1196.871126748
 30
0.0
 40
37.37112674756002
100
AcDbArc
 50
197.7145952036001
 51
242.0775569934004
  0
ARC
  5
221
330
1F
100
AcDbEntity
  8
化粧台
  6
EXLTYPE2
 62
     6
100
AcDbCircle
 10
621.4788732524003
 20
1196.871126748
 30
0.0
 40
37.37112674756002
100
AcDbArc
 50
270.0000000000002
 51
0.0
  0
LINE
  5
222
330
1F
100
AcDbEntity
  8
化粧台
  6
EXLTYPE2
 62
     6
100
AcDbLine
 10
584.1077465049002
 20
1245.128873252
 30
0.0
 11
584.1077465049002
 21
1233.5
 31
0.0
  0
LINE
  5
223
330
1F
100
AcDbEntity
  8
化粧台
  6
EXLTYPE2
 62
     6
100
AcDbLine
 10
615.8077465049
 20
1245.128873252
 30
0.0
 11
615.8077465049
 21
1233.5
 31
0.0
  0
ARC
  5
224
330
1F
100
AcDbEntity
  8
化粧台
  6
EXLTYPE2
 62
     6
100
AcDbCircle
 10
621.4788732524003
 20
1245.128873252
 30
0.0
 40
5.671126747560002
100
AcDbArc
 50
57.81053182021338
 51
180.0
  0
ARC
  5
225
330
1F
100
AcDbEntity
  8
化粧台
  6
EXLTYPE2
 62
     6
100
AcDbCircle
 10
617.1500000000001
 20
1200.834963338
 30
0.0
 40
10.0
100
AcDbArc
 50
279.6402433084007
 51
0.0
  0
ARC
  5
226
330
1F
100
AcDbEntity
  8
化粧台
  6
EXLTYPE2
 62
     6
100
AcDbCircle
 10
621.4788732524003
 20
1245.128873252
 30
0.0
 40
37.37112674756002
100
AcDbArc
 50
81.11640989443508
 51
180.0
  0
LINE
  5
227
330
1F
100
AcDbEntity
  8
化粧台
  6
EXLTYPE2
 62
     6
100
AcDbLine
 10
584.1077465049002
 20
1233.5
 30
0.0
 11
621.3577465049002
 21
1233.5
 31
0.0
  0
LINE
  5
228
330
1F
100
AcDbEntity
  8
化粧台
  6
EXLTYPE2
 62
     6
100
AcDbLine
 10
581.4577465049001
 20
1215.5
 30
0.0
 11
623.3577465049002
 21
1215.5
 31
0.0
  0
LINE
  5
229
330
1F
100
AcDbEntity
  8
化粧台
  6
EXLTYPE2
 62
     6
100
AcDbLine
 10
581.4577465049001
 20
1215.5
 30
0.0
 11
581.4577465049001
 21
1185.5
 31
0.0
  0
LINE
  5
22A
330
1F
100
AcDbEntity
  8
化粧台
  6
EXLTYPE2
 62
     6
100
AcDbLine
 10
694.2121025830454
 20
1382.460534132779
 30
0.0
 11
724.3500000000008
 21
1294.558333333333
 31
0.0
  0
LINE
  5
22B
330
1F
100
AcDbEntity
  8
化粧台
  6
EXLTYPE2
 62
     6
100
AcDbLine
 10
683.8089210127814
 20
1373.64481371272
 30
0.0
 11
711.6500000000005
 21
1292.441666666667
 31
0.0
  0
LINE
  5
22C
330
1F
100
AcDbEntity
  8
化粧台
  6
CONTINUOUS
 62
     6
100
AcDbLine
 10
675.4999999999999
 20
1126.49999999997
 30
0.0
 11
760.4999999999999
 21
1126.49999999997
 31
0.0
  0
POLYLINE
  5
22D
330
1F
100
AcDbEntity
  8
化粧台
  6
EXLTYPE2
 62
     6
100
AcDb2dPolyline
 66
     1
 10
0.0
 20
0.0
 30
0.0
 70
   128
  0
VERTEX
  5
22E
330
22D
100
AcDbEntity
  8
化粧台
  6
EXLTYPE2
 62
     6
100
AcDbVertex
100
AcDb2dVertex
 10
658.843665876
 20
1196.183095803
 30
0.0
  0
VERTEX
  5
22F
330
22D
100
AcDbEntity
  8
化粧台
  6
EXLTYPE2
 62
     6
100
AcDbVertex
100
AcDb2dVertex
 10
660.5000000000001
 20
1195.0
 30
0.0
  0
VERTEX
  5
230
330
22D
100
AcDbEntity
  8
化粧台
  6
EXLTYPE2
 62
     6
100
AcDbVertex
100
AcDb2dVertex
 10
657.0000000000001
 20
1192.5
 30
0.0
  0
VERTEX
  5
231
330
22D
100
AcDbEntity
  8
化粧台
  6
EXLTYPE2
 62
     6
100
AcDbVertex
100
AcDb2dVertex
 10
660.5000000000001
 20
1190.0
 30
0.0
  0
VERTEX
  5
232
330
22D
100
AcDbEntity
  8
化粧台
  6
EXLTYPE2
 62
     6
100
AcDbVertex
100
AcDb2dVertex
 10
657.0000000000001
 20
1187.5
 30
0.0
  0
VERTEX
  5
233
330
22D
100
AcDbEntity
  8
化粧台
  6
EXLTYPE2
 62
     6
100
AcDbVertex
100
AcDb2dVertex
 10
660.5000000000001
 20
1185.0
 30
0.0
  0
VERTEX
  5
234
330
22D
100
AcDbEntity
  8
化粧台
  6
EXLTYPE2
 62
     6
100
AcDbVertex
100
AcDb2dVertex
 10
657.0000000000001
 20
1182.5
 30
0.0
  0
VERTEX
  5
235
330
22D
100
AcDbEntity
  8
化粧台
  6
EXLTYPE2
 62
     6
100
AcDbVertex
100
AcDb2dVertex
 10
660.5000000000001
 20
1180.0
 30
0.0
  0
VERTEX
  5
236
330
22D
100
AcDbEntity
  8
化粧台
  6
EXLTYPE2
 62
     6
100
AcDbVertex
100
AcDb2dVertex
 10
657.0000000000001
 20
1177.5
 30
0.0
  0
VERTEX
  5
237
330
22D
100
AcDbEntity
  8
化粧台
  6
EXLTYPE2
 62
     6
100
AcDbVertex
100
AcDb2dVertex
 10
660.5000000000001
 20
1175.0
 30
0.0
  0
VERTEX
  5
238
330
22D
100
AcDbEntity
  8
化粧台
  6
EXLTYPE2
 62
     6
100
AcDbVertex
100
AcDb2dVertex
 10
657.0000000000001
 20
1172.5
 30
0.0
  0
VERTEX
  5
239
330
22D
100
AcDbEntity
  8
化粧台
  6
EXLTYPE2
 62
     6
100
AcDbVertex
100
AcDb2dVertex
 10
660.5000000000001
 20
1170.0
 30
0.0
  0
VERTEX
  5
23A
330
22D
100
AcDbEntity
  8
化粧台
  6
EXLTYPE2
 62
     6
100
AcDbVertex
100
AcDb2dVertex
 10
657.0000000000001
 20
1167.5
 30
0.0
  0
VERTEX
  5
23B
330
22D
100
AcDbEntity
  8
化粧台
  6
EXLTYPE2
 62
     6
100
AcDbVertex
100
AcDb2dVertex
 10
660.5000000000001
 20
1165.0
 30
0.0
  0
VERTEX
  5
23C
330
22D
100
AcDbEntity
  8
化粧台
  6
EXLTYPE2
 62
     6
100
AcDbVertex
100
AcDb2dVertex
 10
657.0000000000001
 20
1162.5
 30
0.0
  0
VERTEX
  5
23D
330
22D
100
AcDbEntity
  8
化粧台
  6
EXLTYPE2
 62
     6
100
AcDbVertex
100
AcDb2dVertex
 10
660.5000000000001
 20
1160.0
 30
0.0
  0
VERTEX
  5
23E
330
22D
100
AcDbEntity
  8
化粧台
  6
EXLTYPE2
 62
     6
100
AcDbVertex
100
AcDb2dVertex
 10
657.0000000000001
 20
1157.5
 30
0.0
  0
VERTEX
  5
23F
330
22D
100
AcDbEntity
  8
化粧台
  6
EXLTYPE2
 62
     6
100
AcDbVertex
100
AcDb2dVertex
 10
660.5000000000001
 20
1155.0
 30
0.0
  0
VERTEX
  5
240
330
22D
100
AcDbEntity
  8
化粧台
  6
EXLTYPE2
 62
     6
100
AcDbVertex
100
AcDb2dVertex
 10
657.0000000000001
 20
1152.5
 30
0.0
  0
VERTEX
  5
241
330
22D
100
AcDbEntity
  8
化粧台
  6
EXLTYPE2
 62
     6
100
AcDbVertex
100
AcDb2dVertex
 10
660.5000000000001
 20
1150.0
 30
0.0
  0
VERTEX
  5
242
330
22D
100
AcDbEntity
  8
化粧台
  6
EXLTYPE2
 62
     6
100
AcDbVertex
100
AcDb2dVertex
 10
657.0000000000001
 20
1147.5
 30
0.0
  0
VERTEX
  5
243
330
22D
100
AcDbEntity
  8
化粧台
  6
EXLTYPE2
 62
     6
100
AcDbVertex
100
AcDb2dVertex
 10
660.5000000000001
 20
1145.0
 30
0.0
  0
VERTEX
  5
244
330
22D
100
AcDbEntity
  8
化粧台
  6
EXLTYPE2
 62
     6
100
AcDbVertex
100
AcDb2dVertex
 10
657.0000000000001
 20
1142.5
 30
0.0
  0
VERTEX
  5
245
330
22D
100
AcDbEntity
  8
化粧台
  6
EXLTYPE2
 62
     6
100
AcDbVertex
100
AcDb2dVertex
 10
660.5000000000001
 20
1140.0
 30
0.0
  0
VERTEX
  5
246
330
22D
100
AcDbEntity
  8
化粧台
  6
EXLTYPE2
 62
     6
100
AcDbVertex
100
AcDb2dVertex
 10
657.0000000000001
 20
1137.5
 30
0.0
  0
VERTEX
  5
247
330
22D
100
AcDbEntity
  8
化粧台
  6
EXLTYPE2
 62
     6
100
AcDbVertex
100
AcDb2dVertex
 10
660.5000000000001
 20
1135.0
 30
0.0
  0
VERTEX
  5
248
330
22D
100
AcDbEntity
  8
化粧台
  6
EXLTYPE2
 62
     6
100
AcDbVertex
100
AcDb2dVertex
 10
657.0000000000001
 20
1132.5
 30
0.0
  0
VERTEX
  5
249
330
22D
100
AcDbEntity
  8
化粧台
  6
EXLTYPE2
 62
     6
100
AcDbVertex
100
AcDb2dVertex
 10
660.5000000000001
 20
1130.0
 30
0.0
  0
VERTEX
  5
24A
330
22D
100
AcDbEntity
  8
化粧台
  6
EXLTYPE2
 62
     6
100
AcDbVertex
100
AcDb2dVertex
 10
657.0000000000001
 20
1127.5
 30
0.0
  0
VERTEX
  5
24B
330
22D
100
AcDbEntity
  8
化粧台
  6
EXLTYPE2
 62
     6
100
AcDbVertex
100
AcDb2dVertex
 10
660.5000000000001
 20
1125.0
 30
0.0
  0
VERTEX
  5
24C
330
22D
100
AcDbEntity
  8
化粧台
  6
EXLTYPE2
 62
     6
100
AcDbVertex
100
AcDb2dVertex
 10
657.0000000000001
 20
1122.5
 30
0.0
  0
VERTEX
  5
24D
330
22D
100
AcDbEntity
  8
化粧台
  6
EXLTYPE2
 62
     6
100
AcDbVertex
100
AcDb2dVertex
 10
660.5000000000001
 20
1120.0
 30
0.0
  0
VERTEX
  5
24E
330
22D
100
AcDbEntity
  8
化粧台
  6
EXLTYPE2
 62
     6
100
AcDbVertex
100
AcDb2dVertex
 10
657.0000000000001
 20
1117.5
 30
0.0
  0
VERTEX
  5
24F
330
22D
100
AcDbEntity
  8
化粧台
  6
EXLTYPE2
 62
     6
100
AcDbVertex
100
AcDb2dVertex
 10
660.5000000000001
 20
1115.0
 30
0.0
  0
VERTEX
  5
250
330
22D
100
AcDbEntity
  8
化粧台
  6
EXLTYPE2
 62
     6
100
AcDbVertex
100
AcDb2dVertex
 10
657.0000000000001
 20
1112.5
 30
0.0
  0
VERTEX
  5
251
330
22D
100
AcDbEntity
  8
化粧台
  6
EXLTYPE2
 62
     6
100
AcDbVertex
100
AcDb2dVertex
 10
660.5000000000001
 20
1110.0
 30
0.0
  0
VERTEX
  5
252
330
22D
100
AcDbEntity
  8
化粧台
  6
EXLTYPE2
 62
     6
100
AcDbVertex
100
AcDb2dVertex
 10
657.0000000000001
 20
1107.5
 30
0.0
  0
VERTEX
  5
253
330
22D
100
AcDbEntity
  8
化粧台
  6
EXLTYPE2
 62
     6
100
AcDbVertex
100
AcDb2dVertex
 10
660.5000000000001
 20
1105.0
 30
0.0
  0
VERTEX
  5
254
330
22D
100
AcDbEntity
  8
化粧台
  6
EXLTYPE2
 62
     6
100
AcDbVertex
100
AcDb2dVertex
 10
657.0000000000001
 20
1102.5
 30
0.0
  0
VERTEX
  5
255
330
22D
100
AcDbEntity
  8
化粧台
  6
EXLTYPE2
 62
     6
100
AcDbVertex
100
AcDb2dVertex
 10
660.5000000000001
 20
1100.0
 30
0.0
  0
VERTEX
  5
256
330
22D
100
AcDbEntity
  8
化粧台
  6
EXLTYPE2
 62
     6
100
AcDbVertex
100
AcDb2dVertex
 10
657.0000000000001
 20
1097.5
 30
0.0
  0
VERTEX
  5
257
330
22D
100
AcDbEntity
  8
化粧台
  6
EXLTYPE2
 62
     6
100
AcDbVertex
100
AcDb2dVertex
 10
660.5000000000001
 20
1095.0
 30
0.0
  0
VERTEX
  5
258
330
22D
100
AcDbEntity
  8
化粧台
  6
EXLTYPE2
 62
     6
100
AcDbVertex
100
AcDb2dVertex
 10
657.0000000000001
 20
1092.5
 30
0.0
  0
VERTEX
  5
259
330
22D
100
AcDbEntity
  8
化粧台
  6
EXLTYPE2
 62
     6
100
AcDbVertex
100
AcDb2dVertex
 10
660.5000000000001
 20
1090.0
 30
0.0
  0
VERTEX
  5
25A
330
22D
100
AcDbEntity
  8
化粧台
  6
EXLTYPE2
 62
     6
100
AcDbVertex
100
AcDb2dVertex
 10
657.0000000000001
 20
1087.5
 30
0.0
  0
VERTEX
  5
25B
330
22D
100
AcDbEntity
  8
化粧台
  6
EXLTYPE2
 62
     6
100
AcDbVertex
100
AcDb2dVertex
 10
660.5000000000001
 20
1085.0
 30
0.0
  0
VERTEX
  5
25C
330
22D
100
AcDbEntity
  8
化粧台
  6
EXLTYPE2
 62
     6
100
AcDbVertex
100
AcDb2dVertex
 10
657.0000000000001
 20
1082.5
 30
0.0
  0
VERTEX
  5
25D
330
22D
100
AcDbEntity
  8
化粧台
  6
EXLTYPE2
 62
     6
100
AcDbVertex
100
AcDb2dVertex
 10
660.5000000000001
 20
1080.0
 30
0.0
  0
VERTEX
  5
25E
330
22D
100
AcDbEntity
  8
化粧台
  6
EXLTYPE2
 62
     6
100
AcDbVertex
100
AcDb2dVertex
 10
657.0000000000001
 20
1077.5
 30
0.0
  0
VERTEX
  5
25F
330
22D
100
AcDbEntity
  8
化粧台
  6
EXLTYPE2
 62
     6
100
AcDbVertex
100
AcDb2dVertex
 10
660.5000000000001
 20
1075.0
 30
0.0
  0
VERTEX
  5
260
330
22D
100
AcDbEntity
  8
化粧台
  6
EXLTYPE2
 62
     6
100
AcDbVertex
100
AcDb2dVertex
 10
657.0000000000001
 20
1072.5
 30
0.0
  0
VERTEX
  5
261
330
22D
100
AcDbEntity
  8
化粧台
  6
EXLTYPE2
 62
     6
100
AcDbVertex
100
AcDb2dVertex
 10
660.5000000000001
 20
1070.0
 30
0.0
  0
VERTEX
  5
262
330
22D
100
AcDbEntity
  8
化粧台
  6
EXLTYPE2
 62
     6
100
AcDbVertex
100
AcDb2dVertex
 10
657.0000000000001
 20
1067.5
 30
0.0
  0
VERTEX
  5
263
330
22D
100
AcDbEntity
  8
化粧台
  6
EXLTYPE2
 62
     6
100
AcDbVertex
100
AcDb2dVertex
 10
660.5000000000001
 20
1065.0
 30
0.0
  0
VERTEX
  5
264
330
22D
100
AcDbEntity
  8
化粧台
  6
EXLTYPE2
 62
     6
100
AcDbVertex
100
AcDb2dVertex
 10
657.0000000000001
 20
1062.5
 30
0.0
  0
VERTEX
  5
265
330
22D
100
AcDbEntity
  8
化粧台
  6
EXLTYPE2
 62
     6
100
AcDbVertex
100
AcDb2dVertex
 10
660.5000000000001
 20
1060.0
 30
0.0
  0
VERTEX
  5
266
330
22D
100
AcDbEntity
  8
化粧台
  6
EXLTYPE2
 62
     6
100
AcDbVertex
100
AcDb2dVertex
 10
657.0000000000001
 20
1057.5
 30
0.0
  0
VERTEX
  5
267
330
22D
100
AcDbEntity
  8
化粧台
  6
EXLTYPE2
 62
     6
100
AcDbVertex
100
AcDb2dVertex
 10
660.5000000000001
 20
1055.0
 30
0.0
  0
VERTEX
  5
268
330
22D
100
AcDbEntity
  8
化粧台
  6
EXLTYPE2
 62
     6
100
AcDbVertex
100
AcDb2dVertex
 10
657.0000000000001
 20
1052.5
 30
0.0
  0
VERTEX
  5
269
330
22D
100
AcDbEntity
  8
化粧台
  6
EXLTYPE2
 62
     6
100
AcDbVertex
100
AcDb2dVertex
 10
660.5000000000001
 20
1050.0
 30
0.0
  0
VERTEX
  5
26A
330
22D
100
AcDbEntity
  8
化粧台
  6
EXLTYPE2
 62
     6
100
AcDbVertex
100
AcDb2dVertex
 10
657.0000000000001
 20
1047.5
 30
0.0
  0
VERTEX
  5
26B
330
22D
100
AcDbEntity
  8
化粧台
  6
EXLTYPE2
 62
     6
100
AcDbVertex
100
AcDb2dVertex
 10
660.5000000000001
 20
1045.0
 30
0.0
  0
VERTEX
  5
26C
330
22D
100
AcDbEntity
  8
化粧台
  6
EXLTYPE2
 62
     6
100
AcDbVertex
100
AcDb2dVertex
 10
657.0000000000001
 20
1042.5
 30
0.0
  0
VERTEX
  5
26D
330
22D
100
AcDbEntity
  8
化粧台
  6
EXLTYPE2
 62
     6
100
AcDbVertex
100
AcDb2dVertex
 10
660.5000000000001
 20
1040.0
 30
0.0
  0
VERTEX
  5
26E
330
22D
100
AcDbEntity
  8
化粧台
  6
EXLTYPE2
 62
     6
100
AcDbVertex
100
AcDb2dVertex
 10
657.0000000000001
 20
1037.5
 30
0.0
  0
VERTEX
  5
26F
330
22D
100
AcDbEntity
  8
化粧台
  6
EXLTYPE2
 62
     6
100
AcDbVertex
100
AcDb2dVertex
 10
660.5000000000001
 20
1035.0
 30
0.0
  0
VERTEX
  5
270
330
22D
100
AcDbEntity
  8
化粧台
  6
EXLTYPE2
 62
     6
100
AcDbVertex
100
AcDb2dVertex
 10
657.0000000000001
 20
1032.5
 30
0.0
  0
VERTEX
  5
271
330
22D
100
AcDbEntity
  8
化粧台
  6
EXLTYPE2
 62
     6
100
AcDbVertex
100
AcDb2dVertex
 10
660.5000000000001
 20
1030.0
 30
0.0
  0
VERTEX
  5
272
330
22D
100
AcDbEntity
  8
化粧台
  6
EXLTYPE2
 62
     6
100
AcDbVertex
100
AcDb2dVertex
 10
657.0000000000001
 20
1027.5
 30
0.0
  0
VERTEX
  5
273
330
22D
100
AcDbEntity
  8
化粧台
  6
EXLTYPE2
 62
     6
100
AcDbVertex
100
AcDb2dVertex
 10
660.5000000000001
 20
1025.0
 30
0.0
  0
VERTEX
  5
274
330
22D
100
AcDbEntity
  8
化粧台
  6
EXLTYPE2
 62
     6
100
AcDbVertex
100
AcDb2dVertex
 10
657.0000000000001
 20
1022.5
 30
0.0
  0
VERTEX
  5
275
330
22D
100
AcDbEntity
  8
化粧台
  6
EXLTYPE2
 62
     6
100
AcDbVertex
100
AcDb2dVertex
 10
660.5000000000001
 20
1020.0
 30
0.0
  0
VERTEX
  5
276
330
22D
100
AcDbEntity
  8
化粧台
  6
EXLTYPE2
 62
     6
100
AcDbVertex
100
AcDb2dVertex
 10
657.0000000000001
 20
1017.5
 30
0.0
  0
VERTEX
  5
277
330
22D
100
AcDbEntity
  8
化粧台
  6
EXLTYPE2
 62
     6
100
AcDbVertex
100
AcDb2dVertex
 10
660.5000000000001
 20
1015.0
 30
0.0
  0
VERTEX
  5
278
330
22D
100
AcDbEntity
  8
化粧台
  6
EXLTYPE2
 62
     6
100
AcDbVertex
100
AcDb2dVertex
 10
657.0000000000001
 20
1012.5
 30
0.0
  0
VERTEX
  5
279
330
22D
100
AcDbEntity
  8
化粧台
  6
EXLTYPE2
 62
     6
100
AcDbVertex
100
AcDb2dVertex
 10
660.5000000000001
 20
1010.0
 30
0.0
  0
VERTEX
  5
27A
330
22D
100
AcDbEntity
  8
化粧台
  6
EXLTYPE2
 62
     6
100
AcDbVertex
100
AcDb2dVertex
 10
657.0000000000001
 20
1007.5
 30
0.0
  0
VERTEX
  5
27B
330
22D
100
AcDbEntity
  8
化粧台
  6
EXLTYPE2
 62
     6
100
AcDbVertex
100
AcDb2dVertex
 10
660.5000000000001
 20
1005.0
 30
0.0
  0
VERTEX
  5
27C
330
22D
100
AcDbEntity
  8
化粧台
  6
EXLTYPE2
 62
     6
100
AcDbVertex
100
AcDb2dVertex
 10
657.0000000000001
 20
1002.5
 30
0.0
  0
VERTEX
  5
27D
330
22D
100
AcDbEntity
  8
化粧台
  6
EXLTYPE2
 62
     6
100
AcDbVertex
100
AcDb2dVertex
 10
660.5000000000001
 20
1000.0
 30
0.0
  0
VERTEX
  5
27E
330
22D
100
AcDbEntity
  8
化粧台
  6
EXLTYPE2
 62
     6
100
AcDbVertex
100
AcDb2dVertex
 10
657.0000000000001
 20
997.5000000000002
 30
0.0
  0
VERTEX
  5
27F
330
22D
100
AcDbEntity
  8
化粧台
  6
EXLTYPE2
 62
     6
100
AcDbVertex
100
AcDb2dVertex
 10
660.5000000000001
 20
995.0
 30
0.0
  0
VERTEX
  5
280
330
22D
100
AcDbEntity
  8
化粧台
  6
EXLTYPE2
 62
     6
100
AcDbVertex
100
AcDb2dVertex
 10
657.0000000000001
 20
992.5
 30
0.0
  0
VERTEX
  5
281
330
22D
100
AcDbEntity
  8
化粧台
  6
EXLTYPE2
 62
     6
100
AcDbVertex
100
AcDb2dVertex
 10
660.5000000000001
 20
990.0000000000002
 30
0.0
  0
VERTEX
  5
282
330
22D
100
AcDbEntity
  8
化粧台
  6
EXLTYPE2
 62
     6
100
AcDbVertex
100
AcDb2dVertex
 10
657.0000000000001
 20
987.5
 30
0.0
  0
VERTEX
  5
283
330
22D
100
AcDbEntity
  8
化粧台
  6
EXLTYPE2
 62
     6
100
AcDbVertex
100
AcDb2dVertex
 10
660.5000000000001
 20
985.0
 30
0.0
  0
VERTEX
  5
284
330
22D
100
AcDbEntity
  8
化粧台
  6
EXLTYPE2
 62
     6
100
AcDbVertex
100
AcDb2dVertex
 10
657.0000000000001
 20
982.5000000000002
 30
0.0
  0
VERTEX
  5
285
330
22D
100
AcDbEntity
  8
化粧台
  6
EXLTYPE2
 62
     6
100
AcDbVertex
100
AcDb2dVertex
 10
660.5000000000001
 20
980.0
 30
0.0
  0
VERTEX
  5
286
330
22D
100
AcDbEntity
  8
化粧台
  6
EXLTYPE2
 62
     6
100
AcDbVertex
100
AcDb2dVertex
 10
657.0000000000001
 20
977.5
 30
0.0
  0
VERTEX
  5
287
330
22D
100
AcDbEntity
  8
化粧台
  6
EXLTYPE2
 62
     6
100
AcDbVertex
100
AcDb2dVertex
 10
660.5000000000001
 20
975.0000000000002
 30
0.0
  0
VERTEX
  5
288
330
22D
100
AcDbEntity
  8
化粧台
  6
EXLTYPE2
 62
     6
100
AcDbVertex
100
AcDb2dVertex
 10
657.0000000000001
 20
972.5
 30
0.0
  0
VERTEX
  5
289
330
22D
100
AcDbEntity
  8
化粧台
  6
EXLTYPE2
 62
     6
100
AcDbVertex
100
AcDb2dVertex
 10
660.5000000000001
 20
970.0
 30
0.0
  0
VERTEX
  5
28A
330
22D
100
AcDbEntity
  8
化粧台
  6
EXLTYPE2
 62
     6
100
AcDbVertex
100
AcDb2dVertex
 10
657.0000000000001
 20
967.5000000000002
 30
0.0
  0
VERTEX
  5
28B
330
22D
100
AcDbEntity
  8
化粧台
  6
EXLTYPE2
 62
     6
100
AcDbVertex
100
AcDb2dVertex
 10
660.5000000000001
 20
965.0
 30
0.0
  0
VERTEX
  5
28C
330
22D
100
AcDbEntity
  8
化粧台
  6
EXLTYPE2
 62
     6
100
AcDbVertex
100
AcDb2dVertex
 10
657.0000000000001
 20
962.5
 30
0.0
  0
VERTEX
  5
28D
330
22D
100
AcDbEntity
  8
化粧台
  6
EXLTYPE2
 62
     6
100
AcDbVertex
100
AcDb2dVertex
 10
660.5000000000001
 20
960.0000000000002
 30
0.0
  0
VERTEX
  5
28E
330
22D
100
AcDbEntity
  8
化粧台
  6
EXLTYPE2
 62
     6
100
AcDbVertex
100
AcDb2dVertex
 10
657.0000000000001
 20
957.5
 30
0.0
  0
VERTEX
  5
28F
330
22D
100
AcDbEntity
  8
化粧台
  6
EXLTYPE2
 62
     6
100
AcDbVertex
100
AcDb2dVertex
 10
660.5000000000001
 20
955.0
 30
0.0
  0
VERTEX
  5
290
330
22D
100
AcDbEntity
  8
化粧台
  6
EXLTYPE2
 62
     6
100
AcDbVertex
100
AcDb2dVertex
 10
657.0000000000001
 20
952.5000000000002
 30
0.0
  0
VERTEX
  5
291
330
22D
100
AcDbEntity
  8
化粧台
  6
EXLTYPE2
 62
     6
100
AcDbVertex
100
AcDb2dVertex
 10
660.5000000000001
 20
950.0
 30
0.0
  0
VERTEX
  5
292
330
22D
100
AcDbEntity
  8
化粧台
  6
EXLTYPE2
 62
     6
100
AcDbVertex
100
AcDb2dVertex
 10
657.0000000000001
 20
947.5
 30
0.0
  0
VERTEX
  5
293
330
22D
100
AcDbEntity
  8
化粧台
  6
EXLTYPE2
 62
     6
100
AcDbVertex
100
AcDb2dVertex
 10
660.5000000000001
 20
945.0000000000002
 30
0.0
  0
VERTEX
  5
294
330
22D
100
AcDbEntity
  8
化粧台
  6
EXLTYPE2
 62
     6
100
AcDbVertex
100
AcDb2dVertex
 10
657.0000000000001
 20
942.5
 30
0.0
  0
VERTEX
  5
295
330
22D
100
AcDbEntity
  8
化粧台
  6
EXLTYPE2
 62
     6
100
AcDbVertex
100
AcDb2dVertex
 10
660.5000000000001
 20
940.0
 30
0.0
  0
VERTEX
  5
296
330
22D
100
AcDbEntity
  8
化粧台
  6
EXLTYPE2
 62
     6
100
AcDbVertex
100
AcDb2dVertex
 10
657.0000000000001
 20
937.5000000000002
 30
0.0
  0
VERTEX
  5
297
330
22D
100
AcDbEntity
  8
化粧台
  6
EXLTYPE2
 62
     6
100
AcDbVertex
100
AcDb2dVertex
 10
660.5000000000001
 20
935.0
 30
0.0
  0
VERTEX
  5
298
330
22D
100
AcDbEntity
  8
化粧台
  6
EXLTYPE2
 62
     6
100
AcDbVertex
100
AcDb2dVertex
 10
657.0000000000001
 20
932.5
 30
0.0
  0
VERTEX
  5
299
330
22D
100
AcDbEntity
  8
化粧台
  6
EXLTYPE2
 62
     6
100
AcDbVertex
100
AcDb2dVertex
 10
660.5000000000001
 20
930.0000000000002
 30
0.0
  0
VERTEX
  5
29A
330
22D
100
AcDbEntity
  8
化粧台
  6
EXLTYPE2
 62
     6
100
AcDbVertex
100
AcDb2dVertex
 10
657.0000000000001
 20
927.5
 30
0.0
  0
VERTEX
  5
29B
330
22D
100
AcDbEntity
  8
化粧台
  6
EXLTYPE2
 62
     6
100
AcDbVertex
100
AcDb2dVertex
 10
660.5000000000001
 20
925.0
 30
0.0
  0
VERTEX
  5
29C
330
22D
100
AcDbEntity
  8
化粧台
  6
EXLTYPE2
 62
     6
100
AcDbVertex
100
AcDb2dVertex
 10
657.0000000000001
 20
922.5000000000002
 30
0.0
  0
VERTEX
  5
29D
330
22D
100
AcDbEntity
  8
化粧台
  6
EXLTYPE2
 62
     6
100
AcDbVertex
100
AcDb2dVertex
 10
660.5000000000001
 20
920.0
 30
0.0
  0
VERTEX
  5
29E
330
22D
100
AcDbEntity
  8
化粧台
  6
EXLTYPE2
 62
     6
100
AcDbVertex
100
AcDb2dVertex
 10
657.0000000000001
 20
917.5
 30
0.0
  0
VERTEX
  5
29F
330
22D
100
AcDbEntity
  8
化粧台
  6
EXLTYPE2
 62
     6
100
AcDbVertex
100
AcDb2dVertex
 10
660.5000000000001
 20
915.0000000000002
 30
0.0
  0
VERTEX
  5
2A0
330
22D
100
AcDbEntity
  8
化粧台
  6
EXLTYPE2
 62
     6
100
AcDbVertex
100
AcDb2dVertex
 10
657.0000000000001
 20
912.5
 30
0.0
  0
VERTEX
  5
2A1
330
22D
100
AcDbEntity
  8
化粧台
  6
EXLTYPE2
 62
     6
100
AcDbVertex
100
AcDb2dVertex
 10
660.5000000000001
 20
910.0
 30
0.0
  0
VERTEX
  5
2A2
330
22D
100
AcDbEntity
  8
化粧台
  6
EXLTYPE2
 62
     6
100
AcDbVertex
100
AcDb2dVertex
 10
657.0000000000001
 20
907.5000000000002
 30
0.0
  0
VERTEX
  5
2A3
330
22D
100
AcDbEntity
  8
化粧台
  6
EXLTYPE2
 62
     6
100
AcDbVertex
100
AcDb2dVertex
 10
660.5000000000001
 20
905.0
 30
0.0
  0
VERTEX
  5
2A4
330
22D
100
AcDbEntity
  8
化粧台
  6
EXLTYPE2
 62
     6
100
AcDbVertex
100
AcDb2dVertex
 10
657.0000000000001
 20
902.5
 30
0.0
  0
VERTEX
  5
2A5
330
22D
100
AcDbEntity
  8
化粧台
  6
EXLTYPE2
 62
     6
100
AcDbVertex
100
AcDb2dVertex
 10
660.5000000000001
 20
900.0000000000002
 30
0.0
  0
VERTEX
  5
2A6
330
22D
100
AcDbEntity
  8
化粧台
  6
EXLTYPE2
 62
     6
100
AcDbVertex
100
AcDb2dVertex
 10
657.0000000000001
 20
897.5
 30
0.0
  0
VERTEX
  5
2A7
330
22D
100
AcDbEntity
  8
化粧台
  6
EXLTYPE2
 62
     6
100
AcDbVertex
100
AcDb2dVertex
 10
660.5000000000001
 20
895.0
 30
0.0
  0
VERTEX
  5
2A8
330
22D
100
AcDbEntity
  8
化粧台
  6
EXLTYPE2
 62
     6
100
AcDbVertex
100
AcDb2dVertex
 10
657.0000000000001
 20
892.5000000000002
 30
0.0
  0
VERTEX
  5
2A9
330
22D
100
AcDbEntity
  8
化粧台
  6
EXLTYPE2
 62
     6
100
AcDbVertex
100
AcDb2dVertex
 10
660.5000000000001
 20
890.0
 30
0.0
  0
VERTEX
  5
2AA
330
22D
100
AcDbEntity
  8
化粧台
  6
EXLTYPE2
 62
     6
100
AcDbVertex
100
AcDb2dVertex
 10
657.0000000000001
 20
887.5
 30
0.0
  0
VERTEX
  5
2AB
330
22D
100
AcDbEntity
  8
化粧台
  6
EXLTYPE2
 62
     6
100
AcDbVertex
100
AcDb2dVertex
 10
660.5000000000001
 20
885.0000000000002
 30
0.0
  0
VERTEX
  5
2AC
330
22D
100
AcDbEntity
  8
化粧台
  6
EXLTYPE2
 62
     6
100
AcDbVertex
100
AcDb2dVertex
 10
657.0000000000001
 20
882.5
 30
0.0
  0
VERTEX
  5
2AD
330
22D
100
AcDbEntity
  8
化粧台
  6
EXLTYPE2
 62
     6
100
AcDbVertex
100
AcDb2dVertex
 10
660.5000000000001
 20
880.0
 30
0.0
  0
VERTEX
  5
2AE
330
22D
100
AcDbEntity
  8
化粧台
  6
EXLTYPE2
 62
     6
100
AcDbVertex
100
AcDb2dVertex
 10
657.0000000000001
 20
877.5000000000002
 30
0.0
  0
VERTEX
  5
2AF
330
22D
100
AcDbEntity
  8
化粧台
  6
EXLTYPE2
 62
     6
100
AcDbVertex
100
AcDb2dVertex
 10
660.5000000000001
 20
875.0
 30
0.0
  0
VERTEX
  5
2B0
330
22D
100
AcDbEntity
  8
化粧台
  6
EXLTYPE2
 62
     6
100
AcDbVertex
100
AcDb2dVertex
 10
657.0000000000001
 20
872.5
 30
0.0
  0
VERTEX
  5
2B1
330
22D
100
AcDbEntity
  8
化粧台
  6
EXLTYPE2
 62
     6
100
AcDbVertex
100
AcDb2dVertex
 10
660.5000000000001
 20
870.0000000000002
 30
0.0
  0
VERTEX
  5
2B2
330
22D
100
AcDbEntity
  8
化粧台
  6
EXLTYPE2
 62
     6
100
AcDbVertex
100
AcDb2dVertex
 10
657.0000000000001
 20
867.5
 30
0.0
  0
VERTEX
  5
2B3
330
22D
100
AcDbEntity
  8
化粧台
  6
EXLTYPE2
 62
     6
100
AcDbVertex
100
AcDb2dVertex
 10
660.5000000000001
 20
865.0
 30
0.0
  0
VERTEX
  5
2B4
330
22D
100
AcDbEntity
  8
化粧台
  6
EXLTYPE2
 62
     6
100
AcDbVertex
100
AcDb2dVertex
 10
657.0000000000001
 20
862.5000000000002
 30
0.0
  0
VERTEX
  5
2B5
330
22D
100
AcDbEntity
  8
化粧台
  6
EXLTYPE2
 62
     6
100
AcDbVertex
100
AcDb2dVertex
 10
660.5000000000001
 20
860.0
 30
0.0
  0
VERTEX
  5
2B6
330
22D
100
AcDbEntity
  8
化粧台
  6
EXLTYPE2
 62
     6
100
AcDbVertex
100
AcDb2dVertex
 10
657.0000000000001
 20
857.5
 30
0.0
  0
VERTEX
  5
2B7
330
22D
100
AcDbEntity
  8
化粧台
  6
EXLTYPE2
 62
     6
100
AcDbVertex
100
AcDb2dVertex
 10
660.5000000000001
 20
855.0000000000002
 30
0.0
  0
VERTEX
  5
2B8
330
22D
100
AcDbEntity
  8
化粧台
  6
EXLTYPE2
 62
     6
100
AcDbVertex
100
AcDb2dVertex
 10
657.0000000000001
 20
852.5
 30
0.0
  0
VERTEX
  5
2B9
330
22D
100
AcDbEntity
  8
化粧台
  6
EXLTYPE2
 62
     6
100
AcDbVertex
100
AcDb2dVertex
 10
660.5000000000001
 20
850.0
 30
0.0
  0
VERTEX
  5
2BA
330
22D
100
AcDbEntity
  8
化粧台
  6
EXLTYPE2
 62
     6
100
AcDbVertex
100
AcDb2dVertex
 10
657.0000000000001
 20
847.5000000000002
 30
0.0
  0
VERTEX
  5
2BB
330
22D
100
AcDbEntity
  8
化粧台
  6
EXLTYPE2
 62
     6
100
AcDbVertex
100
AcDb2dVertex
 10
660.5000000000001
 20
845.0
 30
0.0
  0
VERTEX
  5
2BC
330
22D
100
AcDbEntity
  8
化粧台
  6
EXLTYPE2
 62
     6
100
AcDbVertex
100
AcDb2dVertex
 10
657.0000000000001
 20
842.5
 30
0.0
  0
VERTEX
  5
2BD
330
22D
100
AcDbEntity
  8
化粧台
  6
EXLTYPE2
 62
     6
100
AcDbVertex
100
AcDb2dVertex
 10
660.5000000000001
 20
840.0000000000002
 30
0.0
  0
VERTEX
  5
2BE
330
22D
100
AcDbEntity
  8
化粧台
  6
EXLTYPE2
 62
     6
100
AcDbVertex
100
AcDb2dVertex
 10
657.0000000000001
 20
837.5
 30
0.0
  0
VERTEX
  5
2BF
330
22D
100
AcDbEntity
  8
化粧台
  6
EXLTYPE2
 62
     6
100
AcDbVertex
100
AcDb2dVertex
 10
660.5000000000001
 20
835.0
 30
0.0
  0
VERTEX
  5
2C0
330
22D
100
AcDbEntity
  8
化粧台
  6
EXLTYPE2
 62
     6
100
AcDbVertex
100
AcDb2dVertex
 10
657.0000000000001
 20
832.5000000000002
 30
0.0
  0
VERTEX
  5
2C1
330
22D
100
AcDbEntity
  8
化粧台
  6
EXLTYPE2
 62
     6
100
AcDbVertex
100
AcDb2dVertex
 10
660.5000000000001
 20
830.0
 30
0.0
  0
VERTEX
  5
2C2
330
22D
100
AcDbEntity
  8
化粧台
  6
EXLTYPE2
 62
     6
100
AcDbVertex
100
AcDb2dVertex
 10
657.0000000000001
 20
827.5
 30
0.0
  0
VERTEX
  5
2C3
330
22D
100
AcDbEntity
  8
化粧台
  6
EXLTYPE2
 62
     6
100
AcDbVertex
100
AcDb2dVertex
 10
660.5000000000001
 20
825.0000000000002
 30
0.0
  0
VERTEX
  5
2C4
330
22D
100
AcDbEntity
  8
化粧台
  6
EXLTYPE2
 62
     6
100
AcDbVertex
100
AcDb2dVertex
 10
657.0000000000001
 20
822.5
 30
0.0
  0
VERTEX
  5
2C5
330
22D
100
AcDbEntity
  8
化粧台
  6
EXLTYPE2
 62
     6
100
AcDbVertex
100
AcDb2dVertex
 10
660.5000000000001
 20
820.0
 30
0.0
  0
VERTEX
  5
2C6
330
22D
100
AcDbEntity
  8
化粧台
  6
EXLTYPE2
 62
     6
100
AcDbVertex
100
AcDb2dVertex
 10
657.0000000000001
 20
817.5000000000002
 30
0.0
  0
VERTEX
  5
2C7
330
22D
100
AcDbEntity
  8
化粧台
  6
EXLTYPE2
 62
     6
100
AcDbVertex
100
AcDb2dVertex
 10
660.5000000000001
 20
815.0
 30
0.0
  0
VERTEX
  5
2C8
330
22D
100
AcDbEntity
  8
化粧台
  6
EXLTYPE2
 62
     6
100
AcDbVertex
100
AcDb2dVertex
 10
657.0000000000001
 20
812.5
 30
0.0
  0
VERTEX
  5
2C9
330
22D
100
AcDbEntity
  8
化粧台
  6
EXLTYPE2
 62
     6
100
AcDbVertex
100
AcDb2dVertex
 10
660.5000000000001
 20
810.0000000000002
 30
0.0
  0
VERTEX
  5
2CA
330
22D
100
AcDbEntity
  8
化粧台
  6
EXLTYPE2
 62
     6
100
AcDbVertex
100
AcDb2dVertex
 10
657.0000000000001
 20
807.5
 30
0.0
  0
VERTEX
  5
2CB
330
22D
100
AcDbEntity
  8
化粧台
  6
EXLTYPE2
 62
     6
100
AcDbVertex
100
AcDb2dVertex
 10
660.5000000000001
 20
805.0
 30
0.0
  0
VERTEX
  5
2CC
330
22D
100
AcDbEntity
  8
化粧台
  6
EXLTYPE2
 62
     6
100
AcDbVertex
100
AcDb2dVertex
 10
657.0000000000001
 20
802.5000000000002
 30
0.0
  0
VERTEX
  5
2CD
330
22D
100
AcDbEntity
  8
化粧台
  6
EXLTYPE2
 62
     6
100
AcDbVertex
100
AcDb2dVertex
 10
660.5000000000001
 20
800.0
 30
0.0
  0
VERTEX
  5
2CE
330
22D
100
AcDbEntity
  8
化粧台
  6
EXLTYPE2
 62
     6
100
AcDbVertex
100
AcDb2dVertex
 10
657.0000000000001
 20
797.5
 30
0.0
  0
VERTEX
  5
2CF
330
22D
100
AcDbEntity
  8
化粧台
  6
EXLTYPE2
 62
     6
100
AcDbVertex
100
AcDb2dVertex
 10
660.5000000000001
 20
795.0000000000002
 30
0.0
  0
VERTEX
  5
2D0
330
22D
100
AcDbEntity
  8
化粧台
  6
EXLTYPE2
 62
     6
100
AcDbVertex
100
AcDb2dVertex
 10
657.0000000000001
 20
792.5
 30
0.0
  0
VERTEX
  5
2D1
330
22D
100
AcDbEntity
  8
化粧台
  6
EXLTYPE2
 62
     6
100
AcDbVertex
100
AcDb2dVertex
 10
660.5000000000001
 20
790.0
 30
0.0
  0
VERTEX
  5
2D2
330
22D
100
AcDbEntity
  8
化粧台
  6
EXLTYPE2
 62
     6
100
AcDbVertex
100
AcDb2dVertex
 10
657.0000000000001
 20
787.5000000000002
 30
0.0
  0
VERTEX
  5
2D3
330
22D
100
AcDbEntity
  8
化粧台
  6
EXLTYPE2
 62
     6
100
AcDbVertex
100
AcDb2dVertex
 10
660.5000000000001
 20
785.0
 30
0.0
  0
VERTEX
  5
2D4
330
22D
100
AcDbEntity
  8
化粧台
  6
EXLTYPE2
 62
     6
100
AcDbVertex
100
AcDb2dVertex
 10
658.8500000000003
 20
782.5
 30
0.0
  0
SEQEND
  5
2D5
330
22D
100
AcDbEntity
  8
化粧台
  6
EXLTYPE2
 62
     6
  0
POLYLINE
  5
2D6
330
1F
100
AcDbEntity
  8
化粧台
  6
EXLTYPE2
 62
     6
100
AcDb2dPolyline
 66
     1
 10
0.0
 20
0.0
 30
0.0
 70
   128
  0
VERTEX
  5
2D7
330
2D6
100
AcDbEntity
  8
化粧台
  6
EXLTYPE2
 62
     6
100
AcDbVertex
100
AcDb2dVertex
 10
626.1999999999999
 20
1139.5
 30
0.0
  0
VERTEX
  5
2D8
330
2D6
100
AcDbEntity
  8
化粧台
  6
EXLTYPE2
 62
     6
100
AcDbVertex
100
AcDb2dVertex
 10
629.0000000000002
 20
1137.5
 30
0.0
  0
VERTEX
  5
2D9
330
2D6
100
AcDbEntity
  8
化粧台
  6
EXLTYPE2
 62
     6
100
AcDbVertex
100
AcDb2dVertex
 10
625.5000000000002
 20
1135.0
 30
0.0
  0
VERTEX
  5
2DA
330
2D6
100
AcDbEntity
  8
化粧台
  6
EXLTYPE2
 62
     6
100
AcDbVertex
100
AcDb2dVertex
 10
629.0000000000002
 20
1132.5
 30
0.0
  0
VERTEX
  5
2DB
330
2D6
100
AcDbEntity
  8
化粧台
  6
EXLTYPE2
 62
     6
100
AcDbVertex
100
AcDb2dVertex
 10
625.5000000000002
 20
1130.0
 30
0.0
  0
VERTEX
  5
2DC
330
2D6
100
AcDbEntity
  8
化粧台
  6
EXLTYPE2
 62
     6
100
AcDbVertex
100
AcDb2dVertex
 10
629.0000000000002
 20
1127.5
 30
0.0
  0
VERTEX
  5
2DD
330
2D6
100
AcDbEntity
  8
化粧台
  6
EXLTYPE2
 62
     6
100
AcDbVertex
100
AcDb2dVertex
 10
625.5000000000002
 20
1125.0
 30
0.0
  0
VERTEX
  5
2DE
330
2D6
100
AcDbEntity
  8
化粧台
  6
EXLTYPE2
 62
     6
100
AcDbVertex
100
AcDb2dVertex
 10
629.0000000000002
 20
1122.5
 30
0.0
  0
VERTEX
  5
2DF
330
2D6
100
AcDbEntity
  8
化粧台
  6
EXLTYPE2
 62
     6
100
AcDbVertex
100
AcDb2dVertex
 10
625.5000000000002
 20
1120.0
 30
0.0
  0
VERTEX
  5
2E0
330
2D6
100
AcDbEntity
  8
化粧台
  6
EXLTYPE2
 62
     6
100
AcDbVertex
100
AcDb2dVertex
 10
629.0000000000002
 20
1117.5
 30
0.0
  0
VERTEX
  5
2E1
330
2D6
100
AcDbEntity
  8
化粧台
  6
EXLTYPE2
 62
     6
100
AcDbVertex
100
AcDb2dVertex
 10
625.5000000000002
 20
1115.0
 30
0.0
  0
VERTEX
  5
2E2
330
2D6
100
AcDbEntity
  8
化粧台
  6
EXLTYPE2
 62
     6
100
AcDbVertex
100
AcDb2dVertex
 10
629.0000000000002
 20
1112.5
 30
0.0
  0
VERTEX
  5
2E3
330
2D6
100
AcDbEntity
  8
化粧台
  6
EXLTYPE2
 62
     6
100
AcDbVertex
100
AcDb2dVertex
 10
625.5000000000002
 20
1110.0
 30
0.0
  0
VERTEX
  5
2E4
330
2D6
100
AcDbEntity
  8
化粧台
  6
EXLTYPE2
 62
     6
100
AcDbVertex
100
AcDb2dVertex
 10
629.0000000000002
 20
1107.5
 30
0.0
  0
VERTEX
  5
2E5
330
2D6
100
AcDbEntity
  8
化粧台
  6
EXLTYPE2
 62
     6
100
AcDbVertex
100
AcDb2dVertex
 10
625.5000000000002
 20
1105.0
 30
0.0
  0
VERTEX
  5
2E6
330
2D6
100
AcDbEntity
  8
化粧台
  6
EXLTYPE2
 62
     6
100
AcDbVertex
100
AcDb2dVertex
 10
629.0000000000002
 20
1102.5
 30
0.0
  0
VERTEX
  5
2E7
330
2D6
100
AcDbEntity
  8
化粧台
  6
EXLTYPE2
 62
     6
100
AcDbVertex
100
AcDb2dVertex
 10
625.5000000000002
 20
1100.0
 30
0.0
  0
VERTEX
  5
2E8
330
2D6
100
AcDbEntity
  8
化粧台
  6
EXLTYPE2
 62
     6
100
AcDbVertex
100
AcDb2dVertex
 10
629.0000000000002
 20
1097.5
 30
0.0
  0
VERTEX
  5
2E9
330
2D6
100
AcDbEntity
  8
化粧台
  6
EXLTYPE2
 62
     6
100
AcDbVertex
100
AcDb2dVertex
 10
625.5000000000002
 20
1095.0
 30
0.0
  0
VERTEX
  5
2EA
330
2D6
100
AcDbEntity
  8
化粧台
  6
EXLTYPE2
 62
     6
100
AcDbVertex
100
AcDb2dVertex
 10
629.0000000000002
 20
1092.5
 30
0.0
  0
VERTEX
  5
2EB
330
2D6
100
AcDbEntity
  8
化粧台
  6
EXLTYPE2
 62
     6
100
AcDbVertex
100
AcDb2dVertex
 10
625.5000000000002
 20
1090.0
 30
0.0
  0
VERTEX
  5
2EC
330
2D6
100
AcDbEntity
  8
化粧台
  6
EXLTYPE2
 62
     6
100
AcDbVertex
100
AcDb2dVertex
 10
629.0000000000002
 20
1087.5
 30
0.0
  0
VERTEX
  5
2ED
330
2D6
100
AcDbEntity
  8
化粧台
  6
EXLTYPE2
 62
     6
100
AcDbVertex
100
AcDb2dVertex
 10
625.5000000000002
 20
1085.0
 30
0.0
  0
VERTEX
  5
2EE
330
2D6
100
AcDbEntity
  8
化粧台
  6
EXLTYPE2
 62
     6
100
AcDbVertex
100
AcDb2dVertex
 10
629.0000000000002
 20
1082.5
 30
0.0
  0
VERTEX
  5
2EF
330
2D6
100
AcDbEntity
  8
化粧台
  6
EXLTYPE2
 62
     6
100
AcDbVertex
100
AcDb2dVertex
 10
625.5000000000002
 20
1080.0
 30
0.0
  0
VERTEX
  5
2F0
330
2D6
100
AcDbEntity
  8
化粧台
  6
EXLTYPE2
 62
     6
100
AcDbVertex
100
AcDb2dVertex
 10
629.0000000000002
 20
1077.5
 30
0.0
  0
VERTEX
  5
2F1
330
2D6
100
AcDbEntity
  8
化粧台
  6
EXLTYPE2
 62
     6
100
AcDbVertex
100
AcDb2dVertex
 10
625.5000000000002
 20
1075.0
 30
0.0
  0
VERTEX
  5
2F2
330
2D6
100
AcDbEntity
  8
化粧台
  6
EXLTYPE2
 62
     6
100
AcDbVertex
100
AcDb2dVertex
 10
629.0000000000002
 20
1072.5
 30
0.0
  0
VERTEX
  5
2F3
330
2D6
100
AcDbEntity
  8
化粧台
  6
EXLTYPE2
 62
     6
100
AcDbVertex
100
AcDb2dVertex
 10
625.5000000000002
 20
1070.0
 30
0.0
  0
VERTEX
  5
2F4
330
2D6
100
AcDbEntity
  8
化粧台
  6
EXLTYPE2
 62
     6
100
AcDbVertex
100
AcDb2dVertex
 10
629.0000000000002
 20
1067.5
 30
0.0
  0
VERTEX
  5
2F5
330
2D6
100
AcDbEntity
  8
化粧台
  6
EXLTYPE2
 62
     6
100
AcDbVertex
100
AcDb2dVertex
 10
625.5000000000002
 20
1065.0
 30
0.0
  0
VERTEX
  5
2F6
330
2D6
100
AcDbEntity
  8
化粧台
  6
EXLTYPE2
 62
     6
100
AcDbVertex
100
AcDb2dVertex
 10
629.0000000000002
 20
1062.5
 30
0.0
  0
VERTEX
  5
2F7
330
2D6
100
AcDbEntity
  8
化粧台
  6
EXLTYPE2
 62
     6
100
AcDbVertex
100
AcDb2dVertex
 10
625.5000000000002
 20
1060.0
 30
0.0
  0
VERTEX
  5
2F8
330
2D6
100
AcDbEntity
  8
化粧台
  6
EXLTYPE2
 62
     6
100
AcDbVertex
100
AcDb2dVertex
 10
629.0000000000002
 20
1057.5
 30
0.0
  0
VERTEX
  5
2F9
330
2D6
100
AcDbEntity
  8
化粧台
  6
EXLTYPE2
 62
     6
100
AcDbVertex
100
AcDb2dVertex
 10
625.5000000000002
 20
1055.0
 30
0.0
  0
VERTEX
  5
2FA
330
2D6
100
AcDbEntity
  8
化粧台
  6
EXLTYPE2
 62
     6
100
AcDbVertex
100
AcDb2dVertex
 10
629.0000000000002
 20
1052.5
 30
0.0
  0
VERTEX
  5
2FB
330
2D6
100
AcDbEntity
  8
化粧台
  6
EXLTYPE2
 62
     6
100
AcDbVertex
100
AcDb2dVertex
 10
625.5000000000002
 20
1050.0
 30
0.0
  0
VERTEX
  5
2FC
330
2D6
100
AcDbEntity
  8
化粧台
  6
EXLTYPE2
 62
     6
100
AcDbVertex
100
AcDb2dVertex
 10
629.0000000000002
 20
1047.5
 30
0.0
  0
VERTEX
  5
2FD
330
2D6
100
AcDbEntity
  8
化粧台
  6
EXLTYPE2
 62
     6
100
AcDbVertex
100
AcDb2dVertex
 10
625.5000000000002
 20
1045.0
 30
0.0
  0
VERTEX
  5
2FE
330
2D6
100
AcDbEntity
  8
化粧台
  6
EXLTYPE2
 62
     6
100
AcDbVertex
100
AcDb2dVertex
 10
629.0000000000002
 20
1042.5
 30
0.0
  0
VERTEX
  5
2FF
330
2D6
100
AcDbEntity
  8
化粧台
  6
EXLTYPE2
 62
     6
100
AcDbVertex
100
AcDb2dVertex
 10
625.5000000000002
 20
1040.0
 30
0.0
  0
VERTEX
  5
300
330
2D6
100
AcDbEntity
  8
化粧台
  6
EXLTYPE2
 62
     6
100
AcDbVertex
100
AcDb2dVertex
 10
629.0000000000002
 20
1037.5
 30
0.0
  0
VERTEX
  5
301
330
2D6
100
AcDbEntity
  8
化粧台
  6
EXLTYPE2
 62
     6
100
AcDbVertex
100
AcDb2dVertex
 10
625.5000000000002
 20
1035.0
 30
0.0
  0
VERTEX
  5
302
330
2D6
100
AcDbEntity
  8
化粧台
  6
EXLTYPE2
 62
     6
100
AcDbVertex
100
AcDb2dVertex
 10
629.0000000000002
 20
1032.5
 30
0.0
  0
VERTEX
  5
303
330
2D6
100
AcDbEntity
  8
化粧台
  6
EXLTYPE2
 62
     6
100
AcDbVertex
100
AcDb2dVertex
 10
625.5000000000002
 20
1030.0
 30
0.0
  0
VERTEX
  5
304
330
2D6
100
AcDbEntity
  8
化粧台
  6
EXLTYPE2
 62
     6
100
AcDbVertex
100
AcDb2dVertex
 10
629.0000000000002
 20
1027.5
 30
0.0
  0
VERTEX
  5
305
330
2D6
100
AcDbEntity
  8
化粧台
  6
EXLTYPE2
 62
     6
100
AcDbVertex
100
AcDb2dVertex
 10
625.5000000000002
 20
1025.0
 30
0.0
  0
VERTEX
  5
306
330
2D6
100
AcDbEntity
  8
化粧台
  6
EXLTYPE2
 62
     6
100
AcDbVertex
100
AcDb2dVertex
 10
629.0000000000002
 20
1022.5
 30
0.0
  0
VERTEX
  5
307
330
2D6
100
AcDbEntity
  8
化粧台
  6
EXLTYPE2
 62
     6
100
AcDbVertex
100
AcDb2dVertex
 10
625.5000000000002
 20
1020.0
 30
0.0
  0
VERTEX
  5
308
330
2D6
100
AcDbEntity
  8
化粧台
  6
EXLTYPE2
 62
     6
100
AcDbVertex
100
AcDb2dVertex
 10
629.0000000000002
 20
1017.5
 30
0.0
  0
VERTEX
  5
309
330
2D6
100
AcDbEntity
  8
化粧台
  6
EXLTYPE2
 62
     6
100
AcDbVertex
100
AcDb2dVertex
 10
625.5000000000002
 20
1015.0
 30
0.0
  0
VERTEX
  5
30A
330
2D6
100
AcDbEntity
  8
化粧台
  6
EXLTYPE2
 62
     6
100
AcDbVertex
100
AcDb2dVertex
 10
629.0000000000002
 20
1012.5
 30
0.0
  0
VERTEX
  5
30B
330
2D6
100
AcDbEntity
  8
化粧台
  6
EXLTYPE2
 62
     6
100
AcDbVertex
100
AcDb2dVertex
 10
625.5000000000002
 20
1010.0
 30
0.0
  0
VERTEX
  5
30C
330
2D6
100
AcDbEntity
  8
化粧台
  6
EXLTYPE2
 62
     6
100
AcDbVertex
100
AcDb2dVertex
 10
629.0000000000002
 20
1007.5
 30
0.0
  0
VERTEX
  5
30D
330
2D6
100
AcDbEntity
  8
化粧台
  6
EXLTYPE2
 62
     6
100
AcDbVertex
100
AcDb2dVertex
 10
625.5000000000002
 20
1005.0
 30
0.0
  0
VERTEX
  5
30E
330
2D6
100
AcDbEntity
  8
化粧台
  6
EXLTYPE2
 62
     6
100
AcDbVertex
100
AcDb2dVertex
 10
629.0000000000002
 20
1002.5
 30
0.0
  0
VERTEX
  5
30F
330
2D6
100
AcDbEntity
  8
化粧台
  6
EXLTYPE2
 62
     6
100
AcDbVertex
100
AcDb2dVertex
 10
625.5000000000002
 20
1000.0
 30
0.0
  0
VERTEX
  5
310
330
2D6
100
AcDbEntity
  8
化粧台
  6
EXLTYPE2
 62
     6
100
AcDbVertex
100
AcDb2dVertex
 10
629.0000000000002
 20
997.5000000000002
 30
0.0
  0
VERTEX
  5
311
330
2D6
100
AcDbEntity
  8
化粧台
  6
EXLTYPE2
 62
     6
100
AcDbVertex
100
AcDb2dVertex
 10
625.5000000000002
 20
995.0
 30
0.0
  0
VERTEX
  5
312
330
2D6
100
AcDbEntity
  8
化粧台
  6
EXLTYPE2
 62
     6
100
AcDbVertex
100
AcDb2dVertex
 10
629.0000000000002
 20
992.5
 30
0.0
  0
VERTEX
  5
313
330
2D6
100
AcDbEntity
  8
化粧台
  6
EXLTYPE2
 62
     6
100
AcDbVertex
100
AcDb2dVertex
 10
625.5000000000002
 20
990.0000000000002
 30
0.0
  0
VERTEX
  5
314
330
2D6
100
AcDbEntity
  8
化粧台
  6
EXLTYPE2
 62
     6
100
AcDbVertex
100
AcDb2dVertex
 10
629.0000000000002
 20
987.5
 30
0.0
  0
VERTEX
  5
315
330
2D6
100
AcDbEntity
  8
化粧台
  6
EXLTYPE2
 62
     6
100
AcDbVertex
100
AcDb2dVertex
 10
625.5000000000002
 20
985.0
 30
0.0
  0
VERTEX
  5
316
330
2D6
100
AcDbEntity
  8
化粧台
  6
EXLTYPE2
 62
     6
100
AcDbVertex
100
AcDb2dVertex
 10
629.0000000000002
 20
982.5000000000002
 30
0.0
  0
VERTEX
  5
317
330
2D6
100
AcDbEntity
  8
化粧台
  6
EXLTYPE2
 62
     6
100
AcDbVertex
100
AcDb2dVertex
 10
625.5000000000002
 20
980.0
 30
0.0
  0
VERTEX
  5
318
330
2D6
100
AcDbEntity
  8
化粧台
  6
EXLTYPE2
 62
     6
100
AcDbVertex
100
AcDb2dVertex
 10
629.0000000000002
 20
977.5
 30
0.0
  0
VERTEX
  5
319
330
2D6
100
AcDbEntity
  8
化粧台
  6
EXLTYPE2
 62
     6
100
AcDbVertex
100
AcDb2dVertex
 10
625.5000000000002
 20
975.0000000000002
 30
0.0
  0
VERTEX
  5
31A
330
2D6
100
AcDbEntity
  8
化粧台
  6
EXLTYPE2
 62
     6
100
AcDbVertex
100
AcDb2dVertex
 10
629.0000000000002
 20
972.5
 30
0.0
  0
VERTEX
  5
31B
330
2D6
100
AcDbEntity
  8
化粧台
  6
EXLTYPE2
 62
     6
100
AcDbVertex
100
AcDb2dVertex
 10
625.5000000000002
 20
970.0
 30
0.0
  0
VERTEX
  5
31C
330
2D6
100
AcDbEntity
  8
化粧台
  6
EXLTYPE2
 62
     6
100
AcDbVertex
100
AcDb2dVertex
 10
629.0000000000002
 20
967.5000000000002
 30
0.0
  0
VERTEX
  5
31D
330
2D6
100
AcDbEntity
  8
化粧台
  6
EXLTYPE2
 62
     6
100
AcDbVertex
100
AcDb2dVertex
 10
625.5000000000002
 20
965.0
 30
0.0
  0
VERTEX
  5
31E
330
2D6
100
AcDbEntity
  8
化粧台
  6
EXLTYPE2
 62
     6
100
AcDbVertex
100
AcDb2dVertex
 10
629.0000000000002
 20
962.5
 30
0.0
  0
VERTEX
  5
31F
330
2D6
100
AcDbEntity
  8
化粧台
  6
EXLTYPE2
 62
     6
100
AcDbVertex
100
AcDb2dVertex
 10
625.5000000000002
 20
960.0000000000002
 30
0.0
  0
VERTEX
  5
320
330
2D6
100
AcDbEntity
  8
化粧台
  6
EXLTYPE2
 62
     6
100
AcDbVertex
100
AcDb2dVertex
 10
629.0000000000002
 20
957.5
 30
0.0
  0
VERTEX
  5
321
330
2D6
100
AcDbEntity
  8
化粧台
  6
EXLTYPE2
 62
     6
100
AcDbVertex
100
AcDb2dVertex
 10
625.5000000000002
 20
955.0
 30
0.0
  0
VERTEX
  5
322
330
2D6
100
AcDbEntity
  8
化粧台
  6
EXLTYPE2
 62
     6
100
AcDbVertex
100
AcDb2dVertex
 10
629.0000000000002
 20
952.5000000000002
 30
0.0
  0
VERTEX
  5
323
330
2D6
100
AcDbEntity
  8
化粧台
  6
EXLTYPE2
 62
     6
100
AcDbVertex
100
AcDb2dVertex
 10
625.5000000000002
 20
950.0
 30
0.0
  0
VERTEX
  5
324
330
2D6
100
AcDbEntity
  8
化粧台
  6
EXLTYPE2
 62
     6
100
AcDbVertex
100
AcDb2dVertex
 10
629.0000000000002
 20
947.5
 30
0.0
  0
VERTEX
  5
325
330
2D6
100
AcDbEntity
  8
化粧台
  6
EXLTYPE2
 62
     6
100
AcDbVertex
100
AcDb2dVertex
 10
625.5000000000002
 20
945.0000000000002
 30
0.0
  0
VERTEX
  5
326
330
2D6
100
AcDbEntity
  8
化粧台
  6
EXLTYPE2
 62
     6
100
AcDbVertex
100
AcDb2dVertex
 10
629.0000000000002
 20
942.5
 30
0.0
  0
VERTEX
  5
327
330
2D6
100
AcDbEntity
  8
化粧台
  6
EXLTYPE2
 62
     6
100
AcDbVertex
100
AcDb2dVertex
 10
625.5000000000002
 20
940.0
 30
0.0
  0
VERTEX
  5
328
330
2D6
100
AcDbEntity
  8
化粧台
  6
EXLTYPE2
 62
     6
100
AcDbVertex
100
AcDb2dVertex
 10
629.0000000000002
 20
937.5000000000002
 30
0.0
  0
VERTEX
  5
329
330
2D6
100
AcDbEntity
  8
化粧台
  6
EXLTYPE2
 62
     6
100
AcDbVertex
100
AcDb2dVertex
 10
625.5000000000002
 20
935.0
 30
0.0
  0
VERTEX
  5
32A
330
2D6
100
AcDbEntity
  8
化粧台
  6
EXLTYPE2
 62
     6
100
AcDbVertex
100
AcDb2dVertex
 10
629.0000000000002
 20
932.5
 30
0.0
  0
VERTEX
  5
32B
330
2D6
100
AcDbEntity
  8
化粧台
  6
EXLTYPE2
 62
     6
100
AcDbVertex
100
AcDb2dVertex
 10
625.5000000000002
 20
930.0000000000002
 30
0.0
  0
VERTEX
  5
32C
330
2D6
100
AcDbEntity
  8
化粧台
  6
EXLTYPE2
 62
     6
100
AcDbVertex
100
AcDb2dVertex
 10
629.0000000000002
 20
927.5
 30
0.0
  0
VERTEX
  5
32D
330
2D6
100
AcDbEntity
  8
化粧台
  6
EXLTYPE2
 62
     6
100
AcDbVertex
100
AcDb2dVertex
 10
625.5000000000002
 20
925.0
 30
0.0
  0
VERTEX
  5
32E
330
2D6
100
AcDbEntity
  8
化粧台
  6
EXLTYPE2
 62
     6
100
AcDbVertex
100
AcDb2dVertex
 10
629.0000000000002
 20
922.5000000000002
 30
0.0
  0
VERTEX
  5
32F
330
2D6
100
AcDbEntity
  8
化粧台
  6
EXLTYPE2
 62
     6
100
AcDbVertex
100
AcDb2dVertex
 10
625.5000000000002
 20
920.0
 30
0.0
  0
VERTEX
  5
330
330
2D6
100
AcDbEntity
  8
化粧台
  6
EXLTYPE2
 62
     6
100
AcDbVertex
100
AcDb2dVertex
 10
629.0000000000002
 20
917.5
 30
0.0
  0
VERTEX
  5
331
330
2D6
100
AcDbEntity
  8
化粧台
  6
EXLTYPE2
 62
     6
100
AcDbVertex
100
AcDb2dVertex
 10
625.5000000000002
 20
915.0000000000002
 30
0.0
  0
VERTEX
  5
332
330
2D6
100
AcDbEntity
  8
化粧台
  6
EXLTYPE2
 62
     6
100
AcDbVertex
100
AcDb2dVertex
 10
629.0000000000002
 20
912.5
 30
0.0
  0
VERTEX
  5
333
330
2D6
100
AcDbEntity
  8
化粧台
  6
EXLTYPE2
 62
     6
100
AcDbVertex
100
AcDb2dVertex
 10
625.5000000000002
 20
910.0
 30
0.0
  0
VERTEX
  5
334
330
2D6
100
AcDbEntity
  8
化粧台
  6
EXLTYPE2
 62
     6
100
AcDbVertex
100
AcDb2dVertex
 10
629.0000000000002
 20
907.5000000000002
 30
0.0
  0
VERTEX
  5
335
330
2D6
100
AcDbEntity
  8
化粧台
  6
EXLTYPE2
 62
     6
100
AcDbVertex
100
AcDb2dVertex
 10
625.5000000000002
 20
905.0
 30
0.0
  0
VERTEX
  5
336
330
2D6
100
AcDbEntity
  8
化粧台
  6
EXLTYPE2
 62
     6
100
AcDbVertex
100
AcDb2dVertex
 10
629.0000000000002
 20
902.5
 30
0.0
  0
VERTEX
  5
337
330
2D6
100
AcDbEntity
  8
化粧台
  6
EXLTYPE2
 62
     6
100
AcDbVertex
100
AcDb2dVertex
 10
625.5000000000002
 20
900.0000000000002
 30
0.0
  0
VERTEX
  5
338
330
2D6
100
AcDbEntity
  8
化粧台
  6
EXLTYPE2
 62
     6
100
AcDbVertex
100
AcDb2dVertex
 10
629.0000000000002
 20
897.5
 30
0.0
  0
VERTEX
  5
339
330
2D6
100
AcDbEntity
  8
化粧台
  6
EXLTYPE2
 62
     6
100
AcDbVertex
100
AcDb2dVertex
 10
625.5000000000002
 20
895.0
 30
0.0
  0
VERTEX
  5
33A
330
2D6
100
AcDbEntity
  8
化粧台
  6
EXLTYPE2
 62
     6
100
AcDbVertex
100
AcDb2dVertex
 10
629.0000000000002
 20
892.5000000000002
 30
0.0
  0
VERTEX
  5
33B
330
2D6
100
AcDbEntity
  8
化粧台
  6
EXLTYPE2
 62
     6
100
AcDbVertex
100
AcDb2dVertex
 10
625.5000000000002
 20
890.0
 30
0.0
  0
VERTEX
  5
33C
330
2D6
100
AcDbEntity
  8
化粧台
  6
EXLTYPE2
 62
     6
100
AcDbVertex
100
AcDb2dVertex
 10
629.0000000000002
 20
887.5
 30
0.0
  0
VERTEX
  5
33D
330
2D6
100
AcDbEntity
  8
化粧台
  6
EXLTYPE2
 62
     6
100
AcDbVertex
100
AcDb2dVertex
 10
625.5000000000002
 20
885.0000000000002
 30
0.0
  0
VERTEX
  5
33E
330
2D6
100
AcDbEntity
  8
化粧台
  6
EXLTYPE2
 62
     6
100
AcDbVertex
100
AcDb2dVertex
 10
629.0000000000002
 20
882.5
 30
0.0
  0
VERTEX
  5
33F
330
2D6
100
AcDbEntity
  8
化粧台
  6
EXLTYPE2
 62
     6
100
AcDbVertex
100
AcDb2dVertex
 10
625.5000000000002
 20
880.0
 30
0.0
  0
VERTEX
  5
340
330
2D6
100
AcDbEntity
  8
化粧台
  6
EXLTYPE2
 62
     6
100
AcDbVertex
100
AcDb2dVertex
 10
629.0000000000002
 20
877.5000000000002
 30
0.0
  0
VERTEX
  5
341
330
2D6
100
AcDbEntity
  8
化粧台
  6
EXLTYPE2
 62
     6
100
AcDbVertex
100
AcDb2dVertex
 10
625.5000000000002
 20
875.0
 30
0.0
  0
VERTEX
  5
342
330
2D6
100
AcDbEntity
  8
化粧台
  6
EXLTYPE2
 62
     6
100
AcDbVertex
100
AcDb2dVertex
 10
629.0000000000002
 20
872.5
 30
0.0
  0
VERTEX
  5
343
330
2D6
100
AcDbEntity
  8
化粧台
  6
EXLTYPE2
 62
     6
100
AcDbVertex
100
AcDb2dVertex
 10
625.5000000000002
 20
870.0000000000002
 30
0.0
  0
VERTEX
  5
344
330
2D6
100
AcDbEntity
  8
化粧台
  6
EXLTYPE2
 62
     6
100
AcDbVertex
100
AcDb2dVertex
 10
629.0000000000002
 20
867.5
 30
0.0
  0
VERTEX
  5
345
330
2D6
100
AcDbEntity
  8
化粧台
  6
EXLTYPE2
 62
     6
100
AcDbVertex
100
AcDb2dVertex
 10
625.5000000000002
 20
865.0
 30
0.0
  0
VERTEX
  5
346
330
2D6
100
AcDbEntity
  8
化粧台
  6
EXLTYPE2
 62
     6
100
AcDbVertex
100
AcDb2dVertex
 10
629.0000000000002
 20
862.5000000000002
 30
0.0
  0
VERTEX
  5
347
330
2D6
100
AcDbEntity
  8
化粧台
  6
EXLTYPE2
 62
     6
100
AcDbVertex
100
AcDb2dVertex
 10
625.5000000000002
 20
860.0
 30
0.0
  0
VERTEX
  5
348
330
2D6
100
AcDbEntity
  8
化粧台
  6
EXLTYPE2
 62
     6
100
AcDbVertex
100
AcDb2dVertex
 10
629.0000000000002
 20
857.5
 30
0.0
  0
VERTEX
  5
349
330
2D6
100
AcDbEntity
  8
化粧台
  6
EXLTYPE2
 62
     6
100
AcDbVertex
100
AcDb2dVertex
 10
625.5000000000002
 20
855.0000000000002
 30
0.0
  0
VERTEX
  5
34A
330
2D6
100
AcDbEntity
  8
化粧台
  6
EXLTYPE2
 62
     6
100
AcDbVertex
100
AcDb2dVertex
 10
629.0000000000002
 20
852.5
 30
0.0
  0
VERTEX
  5
34B
330
2D6
100
AcDbEntity
  8
化粧台
  6
EXLTYPE2
 62
     6
100
AcDbVertex
100
AcDb2dVertex
 10
625.5000000000002
 20
850.0
 30
0.0
  0
VERTEX
  5
34C
330
2D6
100
AcDbEntity
  8
化粧台
  6
EXLTYPE2
 62
     6
100
AcDbVertex
100
AcDb2dVertex
 10
629.0000000000002
 20
847.5000000000002
 30
0.0
  0
VERTEX
  5
34D
330
2D6
100
AcDbEntity
  8
化粧台
  6
EXLTYPE2
 62
     6
100
AcDbVertex
100
AcDb2dVertex
 10
625.5000000000002
 20
845.0
 30
0.0
  0
VERTEX
  5
34E
330
2D6
100
AcDbEntity
  8
化粧台
  6
EXLTYPE2
 62
     6
100
AcDbVertex
100
AcDb2dVertex
 10
629.0000000000002
 20
842.5
 30
0.0
  0
VERTEX
  5
34F
330
2D6
100
AcDbEntity
  8
化粧台
  6
EXLTYPE2
 62
     6
100
AcDbVertex
100
AcDb2dVertex
 10
625.5000000000002
 20
840.0000000000002
 30
0.0
  0
VERTEX
  5
350
330
2D6
100
AcDbEntity
  8
化粧台
  6
EXLTYPE2
 62
     6
100
AcDbVertex
100
AcDb2dVertex
 10
629.0000000000002
 20
837.5
 30
0.0
  0
VERTEX
  5
351
330
2D6
100
AcDbEntity
  8
化粧台
  6
EXLTYPE2
 62
     6
100
AcDbVertex
100
AcDb2dVertex
 10
625.5000000000002
 20
835.0
 30
0.0
  0
VERTEX
  5
352
330
2D6
100
AcDbEntity
  8
化粧台
  6
EXLTYPE2
 62
     6
100
AcDbVertex
100
AcDb2dVertex
 10
629.0000000000002
 20
832.5000000000002
 30
0.0
  0
VERTEX
  5
353
330
2D6
100
AcDbEntity
  8
化粧台
  6
EXLTYPE2
 62
     6
100
AcDbVertex
100
AcDb2dVertex
 10
625.5000000000002
 20
830.0
 30
0.0
  0
VERTEX
  5
354
330
2D6
100
AcDbEntity
  8
化粧台
  6
EXLTYPE2
 62
     6
100
AcDbVertex
100
AcDb2dVertex
 10
629.0000000000002
 20
827.5
 30
0.0
  0
VERTEX
  5
355
330
2D6
100
AcDbEntity
  8
化粧台
  6
EXLTYPE2
 62
     6
100
AcDbVertex
100
AcDb2dVertex
 10
625.5000000000002
 20
825.0000000000002
 30
0.0
  0
VERTEX
  5
356
330
2D6
100
AcDbEntity
  8
化粧台
  6
EXLTYPE2
 62
     6
100
AcDbVertex
100
AcDb2dVertex
 10
629.0000000000002
 20
822.5
 30
0.0
  0
VERTEX
  5
357
330
2D6
100
AcDbEntity
  8
化粧台
  6
EXLTYPE2
 62
     6
100
AcDbVertex
100
AcDb2dVertex
 10
625.5000000000002
 20
820.0
 30
0.0
  0
VERTEX
  5
358
330
2D6
100
AcDbEntity
  8
化粧台
  6
EXLTYPE2
 62
     6
100
AcDbVertex
100
AcDb2dVertex
 10
629.0000000000002
 20
817.5000000000002
 30
0.0
  0
VERTEX
  5
359
330
2D6
100
AcDbEntity
  8
化粧台
  6
EXLTYPE2
 62
     6
100
AcDbVertex
100
AcDb2dVertex
 10
625.5000000000002
 20
815.0
 30
0.0
  0
VERTEX
  5
35A
330
2D6
100
AcDbEntity
  8
化粧台
  6
EXLTYPE2
 62
     6
100
AcDbVertex
100
AcDb2dVertex
 10
629.0000000000002
 20
812.5
 30
0.0
  0
VERTEX
  5
35B
330
2D6
100
AcDbEntity
  8
化粧台
  6
EXLTYPE2
 62
     6
100
AcDbVertex
100
AcDb2dVertex
 10
625.5000000000002
 20
810.0000000000002
 30
0.0
  0
VERTEX
  5
35C
330
2D6
100
AcDbEntity
  8
化粧台
  6
EXLTYPE2
 62
     6
100
AcDbVertex
100
AcDb2dVertex
 10
629.0000000000002
 20
807.5
 30
0.0
  0
VERTEX
  5
35D
330
2D6
100
AcDbEntity
  8
化粧台
  6
EXLTYPE2
 62
     6
100
AcDbVertex
100
AcDb2dVertex
 10
625.5000000000002
 20
805.0
 30
0.0
  0
VERTEX
  5
35E
330
2D6
100
AcDbEntity
  8
化粧台
  6
EXLTYPE2
 62
     6
100
AcDbVertex
100
AcDb2dVertex
 10
629.0000000000002
 20
802.5000000000002
 30
0.0
  0
VERTEX
  5
35F
330
2D6
100
AcDbEntity
  8
化粧台
  6
EXLTYPE2
 62
     6
100
AcDbVertex
100
AcDb2dVertex
 10
625.5000000000002
 20
800.0
 30
0.0
  0
VERTEX
  5
360
330
2D6
100
AcDbEntity
  8
化粧台
  6
EXLTYPE2
 62
     6
100
AcDbVertex
100
AcDb2dVertex
 10
629.0000000000002
 20
797.5
 30
0.0
  0
VERTEX
  5
361
330
2D6
100
AcDbEntity
  8
化粧台
  6
EXLTYPE2
 62
     6
100
AcDbVertex
100
AcDb2dVertex
 10
625.5000000000002
 20
795.0000000000002
 30
0.0
  0
VERTEX
  5
362
330
2D6
100
AcDbEntity
  8
化粧台
  6
EXLTYPE2
 62
     6
100
AcDbVertex
100
AcDb2dVertex
 10
629.0000000000002
 20
792.5
 30
0.0
  0
VERTEX
  5
363
330
2D6
100
AcDbEntity
  8
化粧台
  6
EXLTYPE2
 62
     6
100
AcDbVertex
100
AcDb2dVertex
 10
625.5000000000002
 20
790.0
 30
0.0
  0
VERTEX
  5
364
330
2D6
100
AcDbEntity
  8
化粧台
  6
EXLTYPE2
 62
     6
100
AcDbVertex
100
AcDb2dVertex
 10
629.0000000000002
 20
787.5000000000002
 30
0.0
  0
VERTEX
  5
365
330
2D6
100
AcDbEntity
  8
化粧台
  6
EXLTYPE2
 62
     6
100
AcDbVertex
100
AcDb2dVertex
 10
625.5000000000002
 20
785.0
 30
0.0
  0
VERTEX
  5
366
330
2D6
100
AcDbEntity
  8
化粧台
  6
EXLTYPE2
 62
     6
100
AcDbVertex
100
AcDb2dVertex
 10
627.15
 20
782.5
 30
0.0
  0
SEQEND
  5
367
330
2D6
100
AcDbEntity
  8
化粧台
  6
EXLTYPE2
 62
     6
  0
LINE
  5
368
330
1F
100
AcDbEntity
  8
化粧台
  6
EXLTYPE2
 62
     6
100
AcDbLine
 10
610.0
 20
786.5
 30
0.0
 11
676.0000000000005
 21
786.5
 31
0.0
  0
LINE
  5
369
330
1F
100
AcDbEntity
  8
化粧台
  6
EXLTYPE2
 62
     6
100
AcDbLine
 10
610.0
 20
802.0
 30
0.0
 11
610.0
 21
786.5
 31
0.0
  0
ARC
  5
36A
330
1F
100
AcDbEntity
  8
化粧台
  6
EXLTYPE2
 62
     6
100
AcDbCircle
 10
612.5
 20
802.0
 30
0.0
 40
2.5
100
AcDbArc
 50
90.00000000000004
 51
180.0
  0
ARC
  5
36B
330
1F
100
AcDbEntity
  8
化粧台
  6
EXLTYPE2
 62
     6
100
AcDbCircle
 10
618.5000000000005
 20
814.0000000000003
 30
0.0
 40
2.5
100
AcDbArc
 50
90.00000000000004
 51
180.0
  0
LINE
  5
36C
330
1F
100
AcDbEntity
  8
化粧台
  6
EXLTYPE2
 62
     6
100
AcDbLine
 10
618.5000000000005
 20
816.5
 30
0.0
 11
667.5
 21
816.5
 31
0.0
  0
ARC
  5
36D
330
1F
100
AcDbEntity
  8
化粧台
  6
EXLTYPE2
 62
     6
100
AcDbCircle
 10
667.5
 20
814.0000000000003
 30
0.0
 40
2.5
100
AcDbArc
 50
0.0
 51
90.00000000000004
  0
LINE
  5
36E
330
1F
100
AcDbEntity
  8
化粧台
  6
EXLTYPE2
 62
     6
100
AcDbLine
 10
676.0000000000005
 20
802.0
 30
0.0
 11
676.0000000000005
 21
786.5
 31
0.0
  0
LINE
  5
36F
330
1F
100
AcDbEntity
  8
化粧台
  6
EXLTYPE2
 62
     6
100
AcDbLine
 10
612.5
 20
804.5
 30
0.0
 11
673.5000000000005
 21
804.5
 31
0.0
  0
ARC
  5
370
330
1F
100
AcDbEntity
  8
化粧台
  6
EXLTYPE2
 62
     6
100
AcDbCircle
 10
673.5000000000005
 20
802.0
 30
0.0
 40
2.5
100
AcDbArc
 50
0.0
 51
90.00000000000004
  0
LINE
  5
371
330
1F
100
AcDbEntity
  8
化粧台
  6
EXLTYPE2
 62
     6
100
AcDbLine
 10
616.0000000000005
 20
814.0000000000003
 30
0.0
 11
616.0000000000005
 21
807.0000000000002
 31
0.0
  0
ARC
  5
372
330
1F
100
AcDbEntity
  8
化粧台
  6
EXLTYPE2
 62
     6
100
AcDbCircle
 10
613.5000000000005
 20
807.0000000000002
 30
0.0
 40
2.5
100
AcDbArc
 50
270.0000000000002
 51
0.0
  0
LINE
  5
373
330
1F
100
AcDbEntity
  8
化粧台
  6
EXLTYPE2
 62
     6
100
AcDbLine
 10
670.0
 20
814.0000000000003
 30
0.0
 11
670.0
 21
807.0000000000002
 31
0.0
  0
ARC
  5
374
330
1F
100
AcDbEntity
  8
化粧台
  6
EXLTYPE2
 62
     6
100
AcDbCircle
 10
672.5
 20
807.0000000000002
 30
0.0
 40
2.5
100
AcDbArc
 50
180.0
 51
270.0000000000002
  0
LINE
  5
375
330
1F
100
AcDbEntity
  8
化粧台
  6
CONTINUOUS
 62
     6
100
AcDbLine
 10
642.9999999999999
 20
1052.5
 30
0.0
 11
657.0000000000001
 21
1052.5
 31
0.0
  0
LINE
  5
376
330
1F
100
AcDbEntity
  8
化粧台
  6
CONTINUOUS
 62
     6
100
AcDbLine
 10
629.0000000000002
 20
1047.5
 30
0.0
 11
642.9999999999999
 21
1047.5
 31
0.0
  0
LINE
  5
377
330
1F
100
AcDbEntity
  8
化粧台
  6
CONTINUOUS
 62
     6
100
AcDbLine
 10
642.9999999999999
 20
1042.5
 30
0.0
 11
657.0000000000001
 21
1042.5
 31
0.0
  0
LINE
  5
378
330
1F
100
AcDbEntity
  8
化粧台
  6
CONTINUOUS
 62
     6
100
AcDbLine
 10
629.0000000000002
 20
1037.5
 30
0.0
 11
642.9999999999999
 21
1037.5
 31
0.0
  0
LINE
  5
379
330
1F
100
AcDbEntity
  8
化粧台
  6
CONTINUOUS
 62
     6
100
AcDbLine
 10
642.9999999999999
 20
1032.5
 30
0.0
 11
657.0000000000001
 21
1032.5
 31
0.0
  0
LINE
  5
37A
330
1F
100
AcDbEntity
  8
化粧台
  6
CONTINUOUS
 62
     6
100
AcDbLine
 10
629.0000000000002
 20
1027.5
 30
0.0
 11
642.9999999999999
 21
1027.5
 31
0.0
  0
LINE
  5
37B
330
1F
100
AcDbEntity
  8
化粧台
  6
CONTINUOUS
 62
     6
100
AcDbLine
 10
642.9999999999999
 20
1022.5
 30
0.0
 11
657.0000000000001
 21
1022.5
 31
0.0
  0
LINE
  5
37C
330
1F
100
AcDbEntity
  8
化粧台
  6
CONTINUOUS
 62
     6
100
AcDbLine
 10
629.0000000000002
 20
1017.5
 30
0.0
 11
642.9999999999999
 21
1017.5
 31
0.0
  0
LINE
  5
37D
330
1F
100
AcDbEntity
  8
化粧台
  6
CONTINUOUS
 62
     6
100
AcDbLine
 10
642.9999999999999
 20
1012.5
 30
0.0
 11
657.0000000000001
 21
1012.5
 31
0.0
  0
LINE
  5
37E
330
1F
100
AcDbEntity
  8
化粧台
  6
CONTINUOUS
 62
     6
100
AcDbLine
 10
629.0000000000002
 20
1007.5
 30
0.0
 11
642.9999999999999
 21
1007.5
 31
0.0
  0
LINE
  5
37F
330
1F
100
AcDbEntity
  8
化粧台
  6
CONTINUOUS
 62
     6
100
AcDbLine
 10
642.9999999999999
 20
1002.5
 30
0.0
 11
657.0000000000001
 21
1002.5
 31
0.0
  0
LINE
  5
380
330
1F
100
AcDbEntity
  8
化粧台
  6
CONTINUOUS
 62
     6
100
AcDbLine
 10
629.0000000000002
 20
997.5000000000002
 30
0.0
 11
642.9999999999999
 21
997.5000000000002
 31
0.0
  0
LINE
  5
381
330
1F
100
AcDbEntity
  8
化粧台
  6
CONTINUOUS
 62
     6
100
AcDbLine
 10
642.9999999999999
 20
992.5
 30
0.0
 11
657.0000000000001
 21
992.5
 31
0.0
  0
LINE
  5
382
330
1F
100
AcDbEntity
  8
化粧台
  6
CONTINUOUS
 62
     6
100
AcDbLine
 10
629.0000000000002
 20
987.5
 30
0.0
 11
642.9999999999999
 21
987.5
 31
0.0
  0
LINE
  5
383
330
1F
100
AcDbEntity
  8
化粧台
  6
CONTINUOUS
 62
     6
100
AcDbLine
 10
642.9999999999999
 20
982.5000000000002
 30
0.0
 11
657.0000000000001
 21
982.5000000000002
 31
0.0
  0
LINE
  5
384
330
1F
100
AcDbEntity
  8
化粧台
  6
CONTINUOUS
 62
     6
100
AcDbLine
 10
629.0000000000002
 20
977.5
 30
0.0
 11
642.9999999999999
 21
977.5
 31
0.0
  0
LINE
  5
385
330
1F
100
AcDbEntity
  8
化粧台
  6
CONTINUOUS
 62
     6
100
AcDbLine
 10
642.9999999999999
 20
972.5
 30
0.0
 11
657.0000000000001
 21
972.5
 31
0.0
  0
LINE
  5
386
330
1F
100
AcDbEntity
  8
化粧台
  6
CONTINUOUS
 62
     6
100
AcDbLine
 10
629.0000000000002
 20
967.5000000000002
 30
0.0
 11
642.9999999999999
 21
967.5000000000002
 31
0.0
  0
LINE
  5
387
330
1F
100
AcDbEntity
  8
化粧台
  6
CONTINUOUS
 62
     6
100
AcDbLine
 10
642.9999999999999
 20
962.5
 30
0.0
 11
657.0000000000001
 21
962.5
 31
0.0
  0
LINE
  5
388
330
1F
100
AcDbEntity
  8
化粧台
  6
CONTINUOUS
 62
     6
100
AcDbLine
 10
629.0000000000002
 20
957.5
 30
0.0
 11
642.9999999999999
 21
957.5
 31
0.0
  0
LINE
  5
389
330
1F
100
AcDbEntity
  8
化粧台
  6
CONTINUOUS
 62
     6
100
AcDbLine
 10
642.9999999999999
 20
952.5000000000002
 30
0.0
 11
657.0000000000001
 21
952.5000000000002
 31
0.0
  0
LINE
  5
38A
330
1F
100
AcDbEntity
  8
化粧台
  6
CONTINUOUS
 62
     6
100
AcDbLine
 10
629.0000000000002
 20
947.5
 30
0.0
 11
642.9999999999999
 21
947.5
 31
0.0
  0
LINE
  5
38B
330
1F
100
AcDbEntity
  8
化粧台
  6
CONTINUOUS
 62
     6
100
AcDbLine
 10
642.9999999999999
 20
942.5
 30
0.0
 11
657.0000000000001
 21
942.5
 31
0.0
  0
LINE
  5
38C
330
1F
100
AcDbEntity
  8
化粧台
  6
CONTINUOUS
 62
     6
100
AcDbLine
 10
629.0000000000002
 20
937.5000000000002
 30
0.0
 11
642.9999999999999
 21
937.5000000000002
 31
0.0
  0
LINE
  5
38D
330
1F
100
AcDbEntity
  8
化粧台
  6
CONTINUOUS
 62
     6
100
AcDbLine
 10
642.9999999999999
 20
932.5
 30
0.0
 11
657.0000000000001
 21
932.5
 31
0.0
  0
LINE
  5
38E
330
1F
100
AcDbEntity
  8
化粧台
  6
CONTINUOUS
 62
     6
100
AcDbLine
 10
629.0000000000002
 20
927.5
 30
0.0
 11
642.9999999999999
 21
927.5
 31
0.0
  0
LINE
  5
38F
330
1F
100
AcDbEntity
  8
化粧台
  6
CONTINUOUS
 62
     6
100
AcDbLine
 10
642.9999999999999
 20
922.5000000000002
 30
0.0
 11
657.0000000000001
 21
922.5000000000002
 31
0.0
  0
LINE
  5
390
330
1F
100
AcDbEntity
  8
化粧台
  6
CONTINUOUS
 62
     6
100
AcDbLine
 10
629.0000000000002
 20
917.5
 30
0.0
 11
642.9999999999999
 21
917.5
 31
0.0
  0
LINE
  5
391
330
1F
100
AcDbEntity
  8
化粧台
  6
CONTINUOUS
 62
     6
100
AcDbLine
 10
642.9999999999999
 20
912.5
 30
0.0
 11
657.0000000000001
 21
912.5
 31
0.0
  0
LINE
  5
392
330
1F
100
AcDbEntity
  8
化粧台
  6
CONTINUOUS
 62
     6
100
AcDbLine
 10
629.0000000000002
 20
907.5000000000002
 30
0.0
 11
642.9999999999999
 21
907.5000000000002
 31
0.0
  0
LINE
  5
393
330
1F
100
AcDbEntity
  8
化粧台
  6
CONTINUOUS
 62
     6
100
AcDbLine
 10
642.9999999999999
 20
902.5
 30
0.0
 11
657.0000000000001
 21
902.5
 31
0.0
  0
LINE
  5
394
330
1F
100
AcDbEntity
  8
化粧台
  6
CONTINUOUS
 62
     6
100
AcDbLine
 10
629.0000000000002
 20
897.5
 30
0.0
 11
642.9999999999999
 21
897.5
 31
0.0
  0
LINE
  5
395
330
1F
100
AcDbEntity
  8
化粧台
  6
CONTINUOUS
 62
     6
100
AcDbLine
 10
642.9999999999999
 20
892.5000000000002
 30
0.0
 11
657.0000000000001
 21
892.5000000000002
 31
0.0
  0
LINE
  5
396
330
1F
100
AcDbEntity
  8
化粧台
  6
CONTINUOUS
 62
     6
100
AcDbLine
 10
629.0000000000002
 20
887.5
 30
0.0
 11
642.9999999999999
 21
887.5
 31
0.0
  0
LINE
  5
397
330
1F
100
AcDbEntity
  8
化粧台
  6
CONTINUOUS
 62
     6
100
AcDbLine
 10
642.9999999999999
 20
882.5
 30
0.0
 11
657.0000000000001
 21
882.5
 31
0.0
  0
LINE
  5
398
330
1F
100
AcDbEntity
  8
化粧台
  6
CONTINUOUS
 62
     6
100
AcDbLine
 10
629.0000000000002
 20
877.5000000000002
 30
0.0
 11
642.9999999999999
 21
877.5000000000002
 31
0.0
  0
LINE
  5
399
330
1F
100
AcDbEntity
  8
化粧台
  6
CONTINUOUS
 62
     6
100
AcDbLine
 10
642.9999999999999
 20
872.5
 30
0.0
 11
657.0000000000001
 21
872.5
 31
0.0
  0
LINE
  5
39A
330
1F
100
AcDbEntity
  8
化粧台
  6
CONTINUOUS
 62
     6
100
AcDbLine
 10
629.0000000000002
 20
867.5
 30
0.0
 11
642.9999999999999
 21
867.5
 31
0.0
  0
LINE
  5
39B
330
1F
100
AcDbEntity
  8
化粧台
  6
CONTINUOUS
 62
     6
100
AcDbLine
 10
642.9999999999999
 20
862.5000000000002
 30
0.0
 11
657.0000000000001
 21
862.5000000000002
 31
0.0
  0
LINE
  5
39C
330
1F
100
AcDbEntity
  8
化粧台
  6
CONTINUOUS
 62
     6
100
AcDbLine
 10
629.0000000000002
 20
857.5
 30
0.0
 11
642.9999999999999
 21
857.5
 31
0.0
  0
LINE
  5
39D
330
1F
100
AcDbEntity
  8
化粧台
  6
CONTINUOUS
 62
     6
100
AcDbLine
 10
642.9999999999999
 20
852.5
 30
0.0
 11
657.0000000000001
 21
852.5
 31
0.0
  0
LINE
  5
39E
330
1F
100
AcDbEntity
  8
化粧台
  6
CONTINUOUS
 62
     6
100
AcDbLine
 10
629.0000000000002
 20
847.5000000000002
 30
0.0
 11
642.9999999999999
 21
847.5000000000002
 31
0.0
  0
LINE
  5
39F
330
1F
100
AcDbEntity
  8
化粧台
  6
CONTINUOUS
 62
     6
100
AcDbLine
 10
642.9999999999999
 20
842.5
 30
0.0
 11
657.0000000000001
 21
842.5
 31
0.0
  0
LINE
  5
3A0
330
1F
100
AcDbEntity
  8
化粧台
  6
CONTINUOUS
 62
     6
100
AcDbLine
 10
629.0000000000002
 20
837.5
 30
0.0
 11
642.9999999999999
 21
837.5
 31
0.0
  0
LINE
  5
3A1
330
1F
100
AcDbEntity
  8
化粧台
  6
CONTINUOUS
 62
     6
100
AcDbLine
 10
642.9999999999999
 20
832.5000000000002
 30
0.0
 11
657.0000000000001
 21
832.5000000000002
 31
0.0
  0
LINE
  5
3A2
330
1F
100
AcDbEntity
  8
化粧台
  6
CONTINUOUS
 62
     6
100
AcDbLine
 10
629.0000000000002
 20
827.5
 30
0.0
 11
642.9999999999999
 21
827.5
 31
0.0
  0
LINE
  5
3A3
330
1F
100
AcDbEntity
  8
化粧台
  6
CONTINUOUS
 62
     6
100
AcDbLine
 10
642.9999999999999
 20
822.5
 30
0.0
 11
657.0000000000001
 21
822.5
 31
0.0
  0
LINE
  5
3A4
330
1F
100
AcDbEntity
  8
化粧台
  6
CONTINUOUS
 62
     6
100
AcDbLine
 10
629.0000000000002
 20
817.5000000000002
 30
0.0
 11
642.9999999999999
 21
817.5000000000002
 31
0.0
  0
LINE
  5
3A5
330
1F
100
AcDbEntity
  8
化粧台
  6
CONTINUOUS
 62
     6
100
AcDbLine
 10
642.9999999999999
 20
812.5
 30
0.0
 11
657.0000000000001
 21
812.5
 31
0.0
  0
LINE
  5
3A6
330
1F
100
AcDbEntity
  8
化粧台
  6
CONTINUOUS
 62
     6
100
AcDbLine
 10
629.0000000000002
 20
807.5
 30
0.0
 11
642.9999999999999
 21
807.5
 31
0.0
  0
LINE
  5
3A7
330
1F
100
AcDbEntity
  8
化粧台
  6
CONTINUOUS
 62
     6
100
AcDbLine
 10
642.9999999999999
 20
802.5000000000002
 30
0.0
 11
657.0000000000001
 21
802.5000000000002
 31
0.0
  0
LINE
  5
3A8
330
1F
100
AcDbEntity
  8
化粧台
  6
CONTINUOUS
 62
     6
100
AcDbLine
 10
629.0000000000002
 20
797.5
 30
0.0
 11
642.9999999999999
 21
797.5
 31
0.0
  0
LINE
  5
3A9
330
1F
100
AcDbEntity
  8
化粧台
  6
CONTINUOUS
 62
     6
100
AcDbLine
 10
642.9999999999999
 20
792.5
 30
0.0
 11
657.0000000000001
 21
792.5
 31
0.0
  0
LINE
  5
3AA
330
1F
100
AcDbEntity
  8
化粧台
  6
CONTINUOUS
 62
     6
100
AcDbLine
 10
629.0000000000002
 20
787.5000000000002
 30
0.0
 11
642.9999999999999
 21
787.5000000000002
 31
0.0
  0
LINE
  5
3AB
330
1F
100
AcDbEntity
  8
化粧台
  6
EXLTYPE2
 62
     6
100
AcDbLine
 10
642.9999999999999
 20
782.5
 30
0.0
 11
658.8500000000003
 21
782.5
 31
0.0
  0
LINE
  5
3AC
330
1F
100
AcDbEntity
  8
化粧台
  6
EXLTYPE2
 62
     6
100
AcDbLine
 10
618.5000000000003
 20
816.5
 30
0.0
 11
667.5000000000001
 21
816.5
 31
0.0
  0
LINE
  5
3AD
330
1F
100
AcDbEntity
  8
化粧台
  6
CONTINUOUS
 62
     6
100
AcDbLine
 10
727.9999999999999
 20
776.4930098007001
 30
0.0
 11
727.8522948999998
 21
769.7270812500001
 31
0.0
  0
LINE
  5
3AE
330
1F
100
AcDbEntity
  8
化粧台
  6
CONTINUOUS
 62
     6
100
AcDbLine
 10
727.8522948999998
 20
769.7270812500001
 30
0.0
 11
726.6251831
 21
768.49996945
 31
0.0
  0
LINE
  5
3AF
330
1F
100
AcDbEntity
  8
化粧台
  6
CONTINUOUS
 62
     6
100
AcDbLine
 10
726.6251831
 20
768.49996945
 30
0.0
 11
709.3748169
 21
768.49996945
 31
0.0
  0
LINE
  5
3B0
330
1F
100
AcDbEntity
  8
化粧台
  6
CONTINUOUS
 62
     6
100
AcDbLine
 10
709.3748169
 20
768.49996945
 30
0.0
 11
708.1478576999999
 21
769.7270812500001
 31
0.0
  0
LINE
  5
3B1
330
1F
100
AcDbEntity
  8
化粧台
  6
CONTINUOUS
 62
     6
100
AcDbLine
 10
708.1478576999999
 20
769.7270812500001
 30
0.0
 11
707.9999999999999
 21
776.4999999500001
 31
0.0
  0
LINE
  5
3B2
330
1F
100
AcDbEntity
  8
化粧台
  6
EXLTYPE4
 62
     6
100
AcDbLine
 10
707.9999999999999
 20
776.4999999500001
 30
0.0
 11
707.9999999999999
 21
976.5
 31
0.0
  0
LINE
  5
3B3
330
1F
100
AcDbEntity
  8
化粧台
  6
EXLTYPE4
 62
     6
100
AcDbLine
 10
727.9999999999999
 20
976.5
 30
0.0
 11
727.9999999999999
 21
776.4930098007001
 31
0.0
  0
LINE
  5
3B4
330
1F
100
AcDbEntity
  8
化粧台
  6
EXLTYPE3
 62
     6
100
AcDbLine
 10
717.9999999999999
 20
1016.0
 30
0.0
 11
717.9999999999999
 21
753.4999694499999
 31
0.0
  0
LINE
  5
3B5
330
1F
100
AcDbEntity
  8
化粧台
  6
CONTINUOUS
 62
     2
100
AcDbLine
 10
658.8500000000003
 20
682.5000000000001
 30
0.0
 11
658.8500000000003
 21
782.5
 31
0.0
  0
LINE
  5
3B6
330
1F
100
AcDbEntity
  8
化粧台
  6
CONTINUOUS
 62
     2
100
AcDbLine
 10
627.15
 20
782.5
 30
0.0
 11
627.15
 21
682.5000000000001
 31
0.0
  0
LINE
  5
3B7
330
1F
100
AcDbEntity
  8
化粧台
  6
CONTINUOUS
 62
     2
100
AcDbLine
 10
627.15
 20
682.5000000000001
 30
0.0
 11
658.8500000000003
 21
682.5000000000001
 31
0.0
  0
TEXT
  5
3B8
330
1F
100
AcDbEntity
  8
化粧台
  6
CONTINUOUS
 62
     2
100
AcDbText
 10
1023.000001072883
 20
626.4999999403954
 30
0.0
 40
40.0
  1
ＶＰ･ＶＵ４０･５０
 41
0.8542372881355933
  7
EXCADSTD
 72
     5
 11
1311.000001072883
 21
626.4999999403954
 31
0.0
100
AcDbText
  0
LEADER
  5
3B9
330
1F
100
AcDbEntity
  8
化粧台
  6
CONTINUOUS
 62
     3
100
AcDbLeader
  3
ISO-25
 76
     3
 10
1552.0
 20
786.5
 30
0.0
 10
1316.0
 20
623.0
 30
0.0
 10
1009.0
 20
623.0
 30
0.0
1001
ACAD
1000
DSTYLE
1002
{
1070
     5
1000
EX_NORM
1070
    41
1040
30.0
1070
   341
1005
4D
1002
}
  0
DIMENSION
  5
3BA
330
1F
100
AcDbEntity
  8
化粧台
  6
CONTINUOUS
 62
     3
100
AcDbDimension
  2
*D16
 10
1789.0
 20
776.5
 30
0.0
 11
1763.750000089407
 21
962.0
 31
0.0
 70
   160
  1
350（壁給水）
 53
90.00000000000004
  3
ISO-25
100
AcDbAlignedDimension
 13
1705.0
 23
1126.5
 33
0.0
 14
1705.0
 24
776.5
 34
0.0
 50
90.0
100
AcDbRotatedDimension
1001
ACAD
1000
DSTYLE
1002
{
1070
   270
1070
     2
1070
     6
1000
EX_NORM
1070
     7
1000
EX_NORM
1070
    41
1040
30.0
1070
    42
1040
5.0
1070
    44
1040
9.999999999999773
1070
    73
1070
     0
1070
    74
1070
     0
1070
    75
1070
     0
1070
    76
1070
     1
1070
    77
1070
     1
1070
    78
1070
     8
1070
   140
1040
40.0
1070
   147
1040
0.0
1070
   173
1070
     1
1070
   176
1070
     3
1070
   177
1070
     3
1070
   178
1070
     2
1070
   271
1070
     2
1070
   277
1070
     2
1070
   279
1070
     2
1070
   280
1070
     0
1070
   287
1070
     5
1070
   340
1005
1BC
1002
}
  0
TEXT
  5
3C6
330
1F
100
AcDbEntity
  8
化粧台
  6
CONTINUOUS
 62
     2
100
AcDbText
 10
1795.999999999999
 20
1335.499999940395
 30
0.0
 40
40.0
  1
Ｒ１/２
 41
0.9601027397260274
  7
EXCADSTD
 72
     5
 11
1929.499999999999
 21
1335.499999940395
 31
0.0
100
AcDbText
  0
LEADER
  5
3C7
330
1F
100
AcDbEntity
  8
化粧台
  6
CONTINUOUS
 62
     3
100
AcDbLeader
  3
ISO-25
 76
     3
 10
1713.0
 20
1137.0
 30
0.0
 10
1791.999999999999
 20
1333.0
 30
0.0
 10
1924.0
 20
1333.0
 30
0.0
1001
ACAD
1000
DSTYLE
1002
{
1070
     5
1000
EX_NORM
1070
    41
1040
35.0
1070
   341
1005
4D
1002
}
  0
LINE
  5
3C8
330
1F
100
AcDbEntity
  8
化粧台
  6
CONTINUOUS
 62
     6
100
AcDbLine
 10
1620.1478577
 20
769.7270812500001
 30
0.0
 11
1620.0
 21
776.4999999500001
 31
0.0
  0
LINE
  5
3C9
330
1F
100
AcDbEntity
  8
化粧台
  6
EXLTYPE2
 62
     6
100
AcDbLine
 10
1552.0
 20
786.5
 30
0.0
 11
1618.000000000001
 21
786.5
 31
0.0
  0
LINE
  5
3CA
330
1F
100
AcDbEntity
  8
化粧台
  6
EXLTYPE2
 62
     6
100
AcDbLine
 10
1552.0
 20
802.0
 30
0.0
 11
1552.0
 21
786.5
 31
0.0
  0
ARC
  5
3CB
330
1F
100
AcDbEntity
  8
化粧台
  6
EXLTYPE2
 62
     6
100
AcDbCircle
 10
1554.5
 20
802.0
 30
0.0
 40
2.5
100
AcDbArc
 50
90.00000000000004
 51
180.0
  0
ARC
  5
3CC
330
1F
100
AcDbEntity
  8
化粧台
  6
EXLTYPE2
 62
     6
100
AcDbCircle
 10
1560.500000000001
 20
814.0000000000003
 30
0.0
 40
2.5
100
AcDbArc
 50
90.00000000000004
 51
180.0
  0
LINE
  5
3CD
330
1F
100
AcDbEntity
  8
化粧台
  6
EXLTYPE2
 62
     6
100
AcDbLine
 10
1560.500000000001
 20
816.5
 30
0.0
 11
1609.5
 21
816.5
 31
0.0
  0
ARC
  5
3CE
330
1F
100
AcDbEntity
  8
化粧台
  6
EXLTYPE2
 62
     6
100
AcDbCircle
 10
1609.5
 20
814.0000000000003
 30
0.0
 40
2.5
100
AcDbArc
 50
0.0
 51
90.00000000000004
  0
LINE
  5
3CF
330
1F
100
AcDbEntity
  8
化粧台
  6
EXLTYPE2
 62
     6
100
AcDbLine
 10
1618.000000000001
 20
802.0
 30
0.0
 11
1618.000000000001
 21
786.5
 31
0.0
  0
LINE
  5
3D0
330
1F
100
AcDbEntity
  8
化粧台
  6
EXLTYPE2
 62
     6
100
AcDbLine
 10
1554.5
 20
804.5
 30
0.0
 11
1615.500000000001
 21
804.5
 31
0.0
  0
ARC
  5
3D1
330
1F
100
AcDbEntity
  8
化粧台
  6
EXLTYPE2
 62
     6
100
AcDbCircle
 10
1615.500000000001
 20
802.0
 30
0.0
 40
2.5
100
AcDbArc
 50
0.0
 51
90.00000000000004
  0
LINE
  5
3D2
330
1F
100
AcDbEntity
  8
化粧台
  6
EXLTYPE2
 62
     6
100
AcDbLine
 10
1558.000000000001
 20
814.0000000000003
 30
0.0
 11
1558.000000000001
 21
807.0000000000002
 31
0.0
  0
ARC
  5
3D3
330
1F
100
AcDbEntity
  8
化粧台
  6
EXLTYPE2
 62
     6
100
AcDbCircle
 10
1555.500000000001
 20
807.0000000000002
 30
0.0
 40
2.5
100
AcDbArc
 50
270.0000000000002
 51
0.0
  0
LINE
  5
3D4
330
1F
100
AcDbEntity
  8
化粧台
  6
EXLTYPE2
 62
     6
100
AcDbLine
 10
1612.0
 20
814.0000000000003
 30
0.0
 11
1612.0
 21
807.0000000000002
 31
0.0
  0
ARC
  5
3D5
330
1F
100
AcDbEntity
  8
化粧台
  6
EXLTYPE2
 62
     6
100
AcDbCircle
 10
1614.5
 20
807.0000000000002
 30
0.0
 40
2.5
100
AcDbArc
 50
180.0
 51
270.0000000000002
  0
LINE
  5
3D6
330
1F
100
AcDbEntity
  8
化粧台
  6
CONTINUOUS
 62
     6
100
AcDbLine
 10
1571.0
 20
1027.5
 30
0.0
 11
1585.0
 21
1027.5
 31
0.0
  0
LINE
  5
3D7
330
1F
100
AcDbEntity
  8
化粧台
  6
CONTINUOUS
 62
     6
100
AcDbLine
 10
1585.0
 20
1022.5
 30
0.0
 11
1599.0
 21
1022.5
 31
0.0
  0
LINE
  5
3D8
330
1F
100
AcDbEntity
  8
化粧台
  6
CONTINUOUS
 62
     6
100
AcDbLine
 10
1571.0
 20
1017.5
 30
0.0
 11
1585.0
 21
1017.5
 31
0.0
  0
LINE
  5
3D9
330
1F
100
AcDbEntity
  8
化粧台
  6
CONTINUOUS
 62
     6
100
AcDbLine
 10
1585.0
 20
1012.5
 30
0.0
 11
1599.0
 21
1012.5
 31
0.0
  0
LINE
  5
3DA
330
1F
100
AcDbEntity
  8
化粧台
  6
CONTINUOUS
 62
     6
100
AcDbLine
 10
1571.0
 20
1007.5
 30
0.0
 11
1585.0
 21
1007.5
 31
0.0
  0
LINE
  5
3DB
330
1F
100
AcDbEntity
  8
化粧台
  6
CONTINUOUS
 62
     6
100
AcDbLine
 10
1585.0
 20
1002.5
 30
0.0
 11
1599.0
 21
1002.5
 31
0.0
  0
LINE
  5
3DC
330
1F
100
AcDbEntity
  8
化粧台
  6
CONTINUOUS
 62
     6
100
AcDbLine
 10
1571.0
 20
997.5000000000002
 30
0.0
 11
1585.0
 21
997.5000000000002
 31
0.0
  0
LINE
  5
3DD
330
1F
100
AcDbEntity
  8
化粧台
  6
CONTINUOUS
 62
     6
100
AcDbLine
 10
1585.0
 20
982.5000000000002
 30
0.0
 11
1599.0
 21
982.5000000000002
 31
0.0
  0
LINE
  5
3DE
330
1F
100
AcDbEntity
  8
化粧台
  6
CONTINUOUS
 62
     6
100
AcDbLine
 10
1571.0
 20
977.5
 30
0.0
 11
1585.0
 21
977.5
 31
0.0
  0
LINE
  5
3DF
330
1F
100
AcDbEntity
  8
化粧台
  6
CONTINUOUS
 62
     6
100
AcDbLine
 10
1585.0
 20
972.5
 30
0.0
 11
1599.0
 21
972.5
 31
0.0
  0
LINE
  5
3E0
330
1F
100
AcDbEntity
  8
化粧台
  6
CONTINUOUS
 62
     6
100
AcDbLine
 10
1571.0
 20
967.5000000000002
 30
0.0
 11
1585.0
 21
967.5000000000002
 31
0.0
  0
LINE
  5
3E1
330
1F
100
AcDbEntity
  8
化粧台
  6
CONTINUOUS
 62
     6
100
AcDbLine
 10
1585.0
 20
962.5
 30
0.0
 11
1599.0
 21
962.5
 31
0.0
  0
LINE
  5
3E2
330
1F
100
AcDbEntity
  8
化粧台
  6
CONTINUOUS
 62
     6
100
AcDbLine
 10
1571.0
 20
957.5
 30
0.0
 11
1585.0
 21
957.5
 31
0.0
  0
LINE
  5
3E3
330
1F
100
AcDbEntity
  8
化粧台
  6
CONTINUOUS
 62
     6
100
AcDbLine
 10
1585.0
 20
952.5000000000002
 30
0.0
 11
1599.0
 21
952.5000000000002
 31
0.0
  0
LINE
  5
3E4
330
1F
100
AcDbEntity
  8
化粧台
  6
CONTINUOUS
 62
     6
100
AcDbLine
 10
1571.0
 20
947.5
 30
0.0
 11
1585.0
 21
947.5
 31
0.0
  0
LINE
  5
3E5
330
1F
100
AcDbEntity
  8
化粧台
  6
CONTINUOUS
 62
     6
100
AcDbLine
 10
1585.0
 20
942.5
 30
0.0
 11
1599.0
 21
942.5
 31
0.0
  0
LINE
  5
3E6
330
1F
100
AcDbEntity
  8
化粧台
  6
CONTINUOUS
 62
     6
100
AcDbLine
 10
1571.0
 20
937.5000000000002
 30
0.0
 11
1585.0
 21
937.5000000000002
 31
0.0
  0
LINE
  5
3E7
330
1F
100
AcDbEntity
  8
化粧台
  6
CONTINUOUS
 62
     6
100
AcDbLine
 10
1585.0
 20
932.5
 30
0.0
 11
1599.0
 21
932.5
 31
0.0
  0
LINE
  5
3E8
330
1F
100
AcDbEntity
  8
化粧台
  6
CONTINUOUS
 62
     6
100
AcDbLine
 10
1571.0
 20
927.5
 30
0.0
 11
1585.0
 21
927.5
 31
0.0
  0
LINE
  5
3E9
330
1F
100
AcDbEntity
  8
化粧台
  6
CONTINUOUS
 62
     6
100
AcDbLine
 10
1585.0
 20
922.5000000000002
 30
0.0
 11
1599.0
 21
922.5000000000002
 31
0.0
  0
LINE
  5
3EA
330
1F
100
AcDbEntity
  8
化粧台
  6
CONTINUOUS
 62
     6
100
AcDbLine
 10
1571.0
 20
917.5
 30
0.0
 11
1585.0
 21
917.5
 31
0.0
  0
LINE
  5
3EB
330
1F
100
AcDbEntity
  8
化粧台
  6
CONTINUOUS
 62
     6
100
AcDbLine
 10
1585.0
 20
912.5
 30
0.0
 11
1599.0
 21
912.5
 31
0.0
  0
LINE
  5
3EC
330
1F
100
AcDbEntity
  8
化粧台
  6
CONTINUOUS
 62
     6
100
AcDbLine
 10
1571.0
 20
907.5000000000002
 30
0.0
 11
1585.0
 21
907.5000000000002
 31
0.0
  0
LINE
  5
3ED
330
1F
100
AcDbEntity
  8
化粧台
  6
CONTINUOUS
 62
     6
100
AcDbLine
 10
1585.0
 20
902.5
 30
0.0
 11
1599.0
 21
902.5
 31
0.0
  0
LINE
  5
3EE
330
1F
100
AcDbEntity
  8
化粧台
  6
CONTINUOUS
 62
     6
100
AcDbLine
 10
1571.0
 20
897.5
 30
0.0
 11
1585.0
 21
897.5
 31
0.0
  0
LINE
  5
3EF
330
1F
100
AcDbEntity
  8
化粧台
  6
CONTINUOUS
 62
     6
100
AcDbLine
 10
1585.0
 20
892.5000000000002
 30
0.0
 11
1599.0
 21
892.5000000000002
 31
0.0
  0
LINE
  5
3F0
330
1F
100
AcDbEntity
  8
化粧台
  6
CONTINUOUS
 62
     6
100
AcDbLine
 10
1571.0
 20
887.5
 30
0.0
 11
1585.0
 21
887.5
 31
0.0
  0
LINE
  5
3F1
330
1F
100
AcDbEntity
  8
化粧台
  6
CONTINUOUS
 62
     6
100
AcDbLine
 10
1585.0
 20
882.5
 30
0.0
 11
1599.0
 21
882.5
 31
0.0
  0
LINE
  5
3F2
330
1F
100
AcDbEntity
  8
化粧台
  6
CONTINUOUS
 62
     6
100
AcDbLine
 10
1571.0
 20
877.5000000000002
 30
0.0
 11
1585.0
 21
877.5000000000002
 31
0.0
  0
LINE
  5
3F3
330
1F
100
AcDbEntity
  8
化粧台
  6
CONTINUOUS
 62
     6
100
AcDbLine
 10
1585.0
 20
872.5
 30
0.0
 11
1599.0
 21
872.5
 31
0.0
  0
LINE
  5
3F4
330
1F
100
AcDbEntity
  8
化粧台
  6
CONTINUOUS
 62
     6
100
AcDbLine
 10
1571.0
 20
867.5
 30
0.0
 11
1585.0
 21
867.5
 31
0.0
  0
LINE
  5
3F5
330
1F
100
AcDbEntity
  8
化粧台
  6
CONTINUOUS
 62
     6
100
AcDbLine
 10
1585.0
 20
862.5000000000002
 30
0.0
 11
1599.0
 21
862.5000000000002
 31
0.0
  0
LINE
  5
3F6
330
1F
100
AcDbEntity
  8
化粧台
  6
CONTINUOUS
 62
     6
100
AcDbLine
 10
1571.0
 20
857.5
 30
0.0
 11
1585.0
 21
857.5
 31
0.0
  0
LINE
  5
3F7
330
1F
100
AcDbEntity
  8
化粧台
  6
CONTINUOUS
 62
     6
100
AcDbLine
 10
1585.0
 20
852.5
 30
0.0
 11
1599.0
 21
852.5
 31
0.0
  0
LINE
  5
3F8
330
1F
100
AcDbEntity
  8
化粧台
  6
CONTINUOUS
 62
     6
100
AcDbLine
 10
1571.0
 20
847.5000000000002
 30
0.0
 11
1585.0
 21
847.5000000000002
 31
0.0
  0
LINE
  5
3F9
330
1F
100
AcDbEntity
  8
化粧台
  6
CONTINUOUS
 62
     6
100
AcDbLine
 10
1585.0
 20
842.5
 30
0.0
 11
1599.0
 21
842.5
 31
0.0
  0
LINE
  5
3FA
330
1F
100
AcDbEntity
  8
化粧台
  6
CONTINUOUS
 62
     6
100
AcDbLine
 10
1571.0
 20
837.5
 30
0.0
 11
1585.0
 21
837.5
 31
0.0
  0
LINE
  5
3FB
330
1F
100
AcDbEntity
  8
化粧台
  6
CONTINUOUS
 62
     6
100
AcDbLine
 10
1585.0
 20
832.5000000000002
 30
0.0
 11
1599.0
 21
832.5000000000002
 31
0.0
  0
LINE
  5
3FC
330
1F
100
AcDbEntity
  8
化粧台
  6
CONTINUOUS
 62
     6
100
AcDbLine
 10
1571.0
 20
827.5
 30
0.0
 11
1585.0
 21
827.5
 31
0.0
  0
LINE
  5
3FD
330
1F
100
AcDbEntity
  8
化粧台
  6
CONTINUOUS
 62
     6
100
AcDbLine
 10
1585.0
 20
822.5
 30
0.0
 11
1599.0
 21
822.5
 31
0.0
  0
LINE
  5
3FE
330
1F
100
AcDbEntity
  8
化粧台
  6
CONTINUOUS
 62
     6
100
AcDbLine
 10
1571.0
 20
817.5000000000002
 30
0.0
 11
1585.0
 21
817.5000000000002
 31
0.0
  0
LINE
  5
3FF
330
1F
100
AcDbEntity
  8
化粧台
  6
CONTINUOUS
 62
     6
100
AcDbLine
 10
1585.0
 20
812.5
 30
0.0
 11
1599.0
 21
812.5
 31
0.0
  0
LINE
  5
400
330
1F
100
AcDbEntity
  8
化粧台
  6
EXLTYPE2
 62
     6
100
AcDbLine
 10
1569.15
 20
782.5
 30
0.0
 11
1600.85
 21
782.5
 31
0.0
  0
LINE
  5
401
330
1F
100
AcDbEntity
  8
化粧台
  6
CONTINUOUS
 62
     6
100
AcDbLine
 10
1571.0
 20
807.5
 30
0.0
 11
1585.0
 21
807.5
 31
0.0
  0
LINE
  5
402
330
1F
100
AcDbEntity
  8
化粧台
  6
CONTINUOUS
 62
     6
100
AcDbLine
 10
1585.0
 20
802.5000000000002
 30
0.0
 11
1599.0
 21
802.5000000000002
 31
0.0
  0
LINE
  5
403
330
1F
100
AcDbEntity
  8
化粧台
  6
CONTINUOUS
 62
     6
100
AcDbLine
 10
1571.0
 20
797.5
 30
0.0
 11
1585.0
 21
797.5
 31
0.0
  0
LINE
  5
404
330
1F
100
AcDbEntity
  8
化粧台
  6
CONTINUOUS
 62
     6
100
AcDbLine
 10
1585.0
 20
792.5
 30
0.0
 11
1599.0
 21
792.5
 31
0.0
  0
LINE
  5
405
330
1F
100
AcDbEntity
  8
化粧台
  6
CONTINUOUS
 62
     6
100
AcDbLine
 10
1571.0
 20
787.5000000000002
 30
0.0
 11
1585.0
 21
787.5000000000002
 31
0.0
  0
LINE
  5
406
330
1F
100
AcDbEntity
  8
化粧台
  6
CONTINUOUS
 62
     2
100
AcDbLine
 10
1569.15
 20
782.5
 30
0.0
 11
1569.15
 21
682.5000000000001
 31
0.0
  0
LINE
  5
407
330
1F
100
AcDbEntity
  8
化粧台
  6
CONTINUOUS
 62
     2
100
AcDbLine
 10
1569.15
 20
682.5000000000001
 30
0.0
 11
1600.85
 21
682.5000000000001
 31
0.0
  0
LINE
  5
408
330
1F
100
AcDbEntity
  8
化粧台
  6
CONTINUOUS
 62
     2
100
AcDbLine
 10
1600.85
 20
682.5000000000001
 30
0.0
 11
1600.85
 21
782.5
 31
0.0
  0
LINE
  5
409
330
1F
100
AcDbEntity
  8
化粧台
  6
CONTINUOUS
 62
     6
100
AcDbLine
 10
1585.0
 20
992.5
 30
0.0
 11
1599.0
 21
992.5
 31
0.0
  0
POLYLINE
  5
40A
330
1F
100
AcDbEntity
  8
化粧台
  6
EXLTYPE2
 62
     6
100
AcDb2dPolyline
 66
     1
 10
0.0
 20
0.0
 30
0.0
 70
   128
  0
VERTEX
  5
40B
330
40A
100
AcDbEntity
  8
化粧台
  6
EXLTYPE2
 62
     6
100
AcDbVertex
100
AcDb2dVertex
 10
1600.85
 20
782.5
 30
0.0
  0
VERTEX
  5
40C
330
40A
100
AcDbEntity
  8
化粧台
  6
EXLTYPE2
 62
     6
100
AcDbVertex
100
AcDb2dVertex
 10
1602.5
 20
785.0
 30
0.0
  0
VERTEX
  5
40D
330
40A
100
AcDbEntity
  8
化粧台
  6
EXLTYPE2
 62
     6
100
AcDbVertex
100
AcDb2dVertex
 10
1599.0
 20
787.5000000000002
 30
0.0
  0
VERTEX
  5
40E
330
40A
100
AcDbEntity
  8
化粧台
  6
EXLTYPE2
 62
     6
100
AcDbVertex
100
AcDb2dVertex
 10
1602.5
 20
790.0
 30
0.0
  0
VERTEX
  5
40F
330
40A
100
AcDbEntity
  8
化粧台
  6
EXLTYPE2
 62
     6
100
AcDbVertex
100
AcDb2dVertex
 10
1599.0
 20
792.5
 30
0.0
  0
VERTEX
  5
410
330
40A
100
AcDbEntity
  8
化粧台
  6
EXLTYPE2
 62
     6
100
AcDbVertex
100
AcDb2dVertex
 10
1602.5
 20
795.0000000000002
 30
0.0
  0
VERTEX
  5
411
330
40A
100
AcDbEntity
  8
化粧台
  6
EXLTYPE2
 62
     6
100
AcDbVertex
100
AcDb2dVertex
 10
1599.0
 20
797.5
 30
0.0
  0
VERTEX
  5
412
330
40A
100
AcDbEntity
  8
化粧台
  6
EXLTYPE2
 62
     6
100
AcDbVertex
100
AcDb2dVertex
 10
1602.5
 20
800.0
 30
0.0
  0
VERTEX
  5
413
330
40A
100
AcDbEntity
  8
化粧台
  6
EXLTYPE2
 62
     6
100
AcDbVertex
100
AcDb2dVertex
 10
1599.0
 20
802.5000000000002
 30
0.0
  0
VERTEX
  5
414
330
40A
100
AcDbEntity
  8
化粧台
  6
EXLTYPE2
 62
     6
100
AcDbVertex
100
AcDb2dVertex
 10
1602.5
 20
805.0
 30
0.0
  0
VERTEX
  5
415
330
40A
100
AcDbEntity
  8
化粧台
  6
EXLTYPE2
 62
     6
100
AcDbVertex
100
AcDb2dVertex
 10
1599.0
 20
807.5
 30
0.0
  0
VERTEX
  5
416
330
40A
100
AcDbEntity
  8
化粧台
  6
EXLTYPE2
 62
     6
100
AcDbVertex
100
AcDb2dVertex
 10
1602.5
 20
810.0000000000002
 30
0.0
  0
VERTEX
  5
417
330
40A
100
AcDbEntity
  8
化粧台
  6
EXLTYPE2
 62
     6
100
AcDbVertex
100
AcDb2dVertex
 10
1599.0
 20
812.5
 30
0.0
  0
VERTEX
  5
418
330
40A
100
AcDbEntity
  8
化粧台
  6
EXLTYPE2
 62
     6
100
AcDbVertex
100
AcDb2dVertex
 10
1602.5
 20
815.0
 30
0.0
  0
VERTEX
  5
419
330
40A
100
AcDbEntity
  8
化粧台
  6
EXLTYPE2
 62
     6
100
AcDbVertex
100
AcDb2dVertex
 10
1599.0
 20
817.5000000000002
 30
0.0
  0
VERTEX
  5
41A
330
40A
100
AcDbEntity
  8
化粧台
  6
EXLTYPE2
 62
     6
100
AcDbVertex
100
AcDb2dVertex
 10
1602.5
 20
820.0
 30
0.0
  0
VERTEX
  5
41B
330
40A
100
AcDbEntity
  8
化粧台
  6
EXLTYPE2
 62
     6
100
AcDbVertex
100
AcDb2dVertex
 10
1599.0
 20
822.5
 30
0.0
  0
VERTEX
  5
41C
330
40A
100
AcDbEntity
  8
化粧台
  6
EXLTYPE2
 62
     6
100
AcDbVertex
100
AcDb2dVertex
 10
1602.5
 20
825.0000000000002
 30
0.0
  0
VERTEX
  5
41D
330
40A
100
AcDbEntity
  8
化粧台
  6
EXLTYPE2
 62
     6
100
AcDbVertex
100
AcDb2dVertex
 10
1599.0
 20
827.5
 30
0.0
  0
VERTEX
  5
41E
330
40A
100
AcDbEntity
  8
化粧台
  6
EXLTYPE2
 62
     6
100
AcDbVertex
100
AcDb2dVertex
 10
1602.5
 20
830.0
 30
0.0
  0
VERTEX
  5
41F
330
40A
100
AcDbEntity
  8
化粧台
  6
EXLTYPE2
 62
     6
100
AcDbVertex
100
AcDb2dVertex
 10
1599.0
 20
832.5000000000002
 30
0.0
  0
VERTEX
  5
420
330
40A
100
AcDbEntity
  8
化粧台
  6
EXLTYPE2
 62
     6
100
AcDbVertex
100
AcDb2dVertex
 10
1602.5
 20
835.0
 30
0.0
  0
VERTEX
  5
421
330
40A
100
AcDbEntity
  8
化粧台
  6
EXLTYPE2
 62
     6
100
AcDbVertex
100
AcDb2dVertex
 10
1599.0
 20
837.5
 30
0.0
  0
VERTEX
  5
422
330
40A
100
AcDbEntity
  8
化粧台
  6
EXLTYPE2
 62
     6
100
AcDbVertex
100
AcDb2dVertex
 10
1602.5
 20
840.0000000000002
 30
0.0
  0
VERTEX
  5
423
330
40A
100
AcDbEntity
  8
化粧台
  6
EXLTYPE2
 62
     6
100
AcDbVertex
100
AcDb2dVertex
 10
1599.0
 20
842.5
 30
0.0
  0
VERTEX
  5
424
330
40A
100
AcDbEntity
  8
化粧台
  6
EXLTYPE2
 62
     6
100
AcDbVertex
100
AcDb2dVertex
 10
1602.5
 20
845.0
 30
0.0
  0
VERTEX
  5
425
330
40A
100
AcDbEntity
  8
化粧台
  6
EXLTYPE2
 62
     6
100
AcDbVertex
100
AcDb2dVertex
 10
1599.0
 20
847.5000000000002
 30
0.0
  0
VERTEX
  5
426
330
40A
100
AcDbEntity
  8
化粧台
  6
EXLTYPE2
 62
     6
100
AcDbVertex
100
AcDb2dVertex
 10
1602.5
 20
850.0
 30
0.0
  0
VERTEX
  5
427
330
40A
100
AcDbEntity
  8
化粧台
  6
EXLTYPE2
 62
     6
100
AcDbVertex
100
AcDb2dVertex
 10
1599.0
 20
852.5
 30
0.0
  0
VERTEX
  5
428
330
40A
100
AcDbEntity
  8
化粧台
  6
EXLTYPE2
 62
     6
100
AcDbVertex
100
AcDb2dVertex
 10
1602.5
 20
855.0000000000002
 30
0.0
  0
VERTEX
  5
429
330
40A
100
AcDbEntity
  8
化粧台
  6
EXLTYPE2
 62
     6
100
AcDbVertex
100
AcDb2dVertex
 10
1599.0
 20
857.5
 30
0.0
  0
VERTEX
  5
42A
330
40A
100
AcDbEntity
  8
化粧台
  6
EXLTYPE2
 62
     6
100
AcDbVertex
100
AcDb2dVertex
 10
1602.5
 20
860.0
 30
0.0
  0
VERTEX
  5
42B
330
40A
100
AcDbEntity
  8
化粧台
  6
EXLTYPE2
 62
     6
100
AcDbVertex
100
AcDb2dVertex
 10
1599.0
 20
862.5000000000002
 30
0.0
  0
VERTEX
  5
42C
330
40A
100
AcDbEntity
  8
化粧台
  6
EXLTYPE2
 62
     6
100
AcDbVertex
100
AcDb2dVertex
 10
1602.5
 20
865.0
 30
0.0
  0
VERTEX
  5
42D
330
40A
100
AcDbEntity
  8
化粧台
  6
EXLTYPE2
 62
     6
100
AcDbVertex
100
AcDb2dVertex
 10
1599.0
 20
867.5
 30
0.0
  0
VERTEX
  5
42E
330
40A
100
AcDbEntity
  8
化粧台
  6
EXLTYPE2
 62
     6
100
AcDbVertex
100
AcDb2dVertex
 10
1602.5
 20
870.0000000000002
 30
0.0
  0
VERTEX
  5
42F
330
40A
100
AcDbEntity
  8
化粧台
  6
EXLTYPE2
 62
     6
100
AcDbVertex
100
AcDb2dVertex
 10
1599.0
 20
872.5
 30
0.0
  0
VERTEX
  5
430
330
40A
100
AcDbEntity
  8
化粧台
  6
EXLTYPE2
 62
     6
100
AcDbVertex
100
AcDb2dVertex
 10
1602.5
 20
875.0
 30
0.0
  0
VERTEX
  5
431
330
40A
100
AcDbEntity
  8
化粧台
  6
EXLTYPE2
 62
     6
100
AcDbVertex
100
AcDb2dVertex
 10
1599.0
 20
877.5000000000002
 30
0.0
  0
VERTEX
  5
432
330
40A
100
AcDbEntity
  8
化粧台
  6
EXLTYPE2
 62
     6
100
AcDbVertex
100
AcDb2dVertex
 10
1602.5
 20
880.0
 30
0.0
  0
VERTEX
  5
433
330
40A
100
AcDbEntity
  8
化粧台
  6
EXLTYPE2
 62
     6
100
AcDbVertex
100
AcDb2dVertex
 10
1599.0
 20
882.5
 30
0.0
  0
VERTEX
  5
434
330
40A
100
AcDbEntity
  8
化粧台
  6
EXLTYPE2
 62
     6
100
AcDbVertex
100
AcDb2dVertex
 10
1602.5
 20
885.0000000000002
 30
0.0
  0
VERTEX
  5
435
330
40A
100
AcDbEntity
  8
化粧台
  6
EXLTYPE2
 62
     6
100
AcDbVertex
100
AcDb2dVertex
 10
1599.0
 20
887.5
 30
0.0
  0
VERTEX
  5
436
330
40A
100
AcDbEntity
  8
化粧台
  6
EXLTYPE2
 62
     6
100
AcDbVertex
100
AcDb2dVertex
 10
1602.5
 20
890.0
 30
0.0
  0
VERTEX
  5
437
330
40A
100
AcDbEntity
  8
化粧台
  6
EXLTYPE2
 62
     6
100
AcDbVertex
100
AcDb2dVertex
 10
1599.0
 20
892.5000000000002
 30
0.0
  0
VERTEX
  5
438
330
40A
100
AcDbEntity
  8
化粧台
  6
EXLTYPE2
 62
     6
100
AcDbVertex
100
AcDb2dVertex
 10
1602.5
 20
895.0
 30
0.0
  0
VERTEX
  5
439
330
40A
100
AcDbEntity
  8
化粧台
  6
EXLTYPE2
 62
     6
100
AcDbVertex
100
AcDb2dVertex
 10
1599.0
 20
897.5
 30
0.0
  0
VERTEX
  5
43A
330
40A
100
AcDbEntity
  8
化粧台
  6
EXLTYPE2
 62
     6
100
AcDbVertex
100
AcDb2dVertex
 10
1602.5
 20
900.0000000000002
 30
0.0
  0
VERTEX
  5
43B
330
40A
100
AcDbEntity
  8
化粧台
  6
EXLTYPE2
 62
     6
100
AcDbVertex
100
AcDb2dVertex
 10
1599.0
 20
902.5
 30
0.0
  0
VERTEX
  5
43C
330
40A
100
AcDbEntity
  8
化粧台
  6
EXLTYPE2
 62
     6
100
AcDbVertex
100
AcDb2dVertex
 10
1602.5
 20
905.0
 30
0.0
  0
VERTEX
  5
43D
330
40A
100
AcDbEntity
  8
化粧台
  6
EXLTYPE2
 62
     6
100
AcDbVertex
100
AcDb2dVertex
 10
1599.0
 20
907.5000000000002
 30
0.0
  0
VERTEX
  5
43E
330
40A
100
AcDbEntity
  8
化粧台
  6
EXLTYPE2
 62
     6
100
AcDbVertex
100
AcDb2dVertex
 10
1602.5
 20
910.0
 30
0.0
  0
VERTEX
  5
43F
330
40A
100
AcDbEntity
  8
化粧台
  6
EXLTYPE2
 62
     6
100
AcDbVertex
100
AcDb2dVertex
 10
1599.0
 20
912.5
 30
0.0
  0
VERTEX
  5
440
330
40A
100
AcDbEntity
  8
化粧台
  6
EXLTYPE2
 62
     6
100
AcDbVertex
100
AcDb2dVertex
 10
1602.5
 20
915.0000000000002
 30
0.0
  0
VERTEX
  5
441
330
40A
100
AcDbEntity
  8
化粧台
  6
EXLTYPE2
 62
     6
100
AcDbVertex
100
AcDb2dVertex
 10
1599.0
 20
917.5
 30
0.0
  0
VERTEX
  5
442
330
40A
100
AcDbEntity
  8
化粧台
  6
EXLTYPE2
 62
     6
100
AcDbVertex
100
AcDb2dVertex
 10
1602.5
 20
920.0
 30
0.0
  0
VERTEX
  5
443
330
40A
100
AcDbEntity
  8
化粧台
  6
EXLTYPE2
 62
     6
100
AcDbVertex
100
AcDb2dVertex
 10
1599.0
 20
922.5000000000002
 30
0.0
  0
VERTEX
  5
444
330
40A
100
AcDbEntity
  8
化粧台
  6
EXLTYPE2
 62
     6
100
AcDbVertex
100
AcDb2dVertex
 10
1602.5
 20
925.0
 30
0.0
  0
VERTEX
  5
445
330
40A
100
AcDbEntity
  8
化粧台
  6
EXLTYPE2
 62
     6
100
AcDbVertex
100
AcDb2dVertex
 10
1599.0
 20
927.5
 30
0.0
  0
VERTEX
  5
446
330
40A
100
AcDbEntity
  8
化粧台
  6
EXLTYPE2
 62
     6
100
AcDbVertex
100
AcDb2dVertex
 10
1602.5
 20
930.0000000000002
 30
0.0
  0
VERTEX
  5
447
330
40A
100
AcDbEntity
  8
化粧台
  6
EXLTYPE2
 62
     6
100
AcDbVertex
100
AcDb2dVertex
 10
1599.0
 20
932.5
 30
0.0
  0
VERTEX
  5
448
330
40A
100
AcDbEntity
  8
化粧台
  6
EXLTYPE2
 62
     6
100
AcDbVertex
100
AcDb2dVertex
 10
1602.5
 20
935.0
 30
0.0
  0
VERTEX
  5
449
330
40A
100
AcDbEntity
  8
化粧台
  6
EXLTYPE2
 62
     6
100
AcDbVertex
100
AcDb2dVertex
 10
1599.0
 20
937.5000000000002
 30
0.0
  0
VERTEX
  5
44A
330
40A
100
AcDbEntity
  8
化粧台
  6
EXLTYPE2
 62
     6
100
AcDbVertex
100
AcDb2dVertex
 10
1602.5
 20
940.0
 30
0.0
  0
VERTEX
  5
44B
330
40A
100
AcDbEntity
  8
化粧台
  6
EXLTYPE2
 62
     6
100
AcDbVertex
100
AcDb2dVertex
 10
1599.0
 20
942.5
 30
0.0
  0
VERTEX
  5
44C
330
40A
100
AcDbEntity
  8
化粧台
  6
EXLTYPE2
 62
     6
100
AcDbVertex
100
AcDb2dVertex
 10
1602.5
 20
945.0000000000002
 30
0.0
  0
VERTEX
  5
44D
330
40A
100
AcDbEntity
  8
化粧台
  6
EXLTYPE2
 62
     6
100
AcDbVertex
100
AcDb2dVertex
 10
1599.0
 20
947.5
 30
0.0
  0
VERTEX
  5
44E
330
40A
100
AcDbEntity
  8
化粧台
  6
EXLTYPE2
 62
     6
100
AcDbVertex
100
AcDb2dVertex
 10
1602.5
 20
950.0
 30
0.0
  0
VERTEX
  5
44F
330
40A
100
AcDbEntity
  8
化粧台
  6
EXLTYPE2
 62
     6
100
AcDbVertex
100
AcDb2dVertex
 10
1599.0
 20
952.5000000000002
 30
0.0
  0
VERTEX
  5
450
330
40A
100
AcDbEntity
  8
化粧台
  6
EXLTYPE2
 62
     6
100
AcDbVertex
100
AcDb2dVertex
 10
1602.5
 20
955.0
 30
0.0
  0
VERTEX
  5
451
330
40A
100
AcDbEntity
  8
化粧台
  6
EXLTYPE2
 62
     6
100
AcDbVertex
100
AcDb2dVertex
 10
1599.0
 20
957.5
 30
0.0
  0
VERTEX
  5
452
330
40A
100
AcDbEntity
  8
化粧台
  6
EXLTYPE2
 62
     6
100
AcDbVertex
100
AcDb2dVertex
 10
1602.5
 20
960.0000000000002
 30
0.0
  0
VERTEX
  5
453
330
40A
100
AcDbEntity
  8
化粧台
  6
EXLTYPE2
 62
     6
100
AcDbVertex
100
AcDb2dVertex
 10
1599.0
 20
962.5
 30
0.0
  0
VERTEX
  5
454
330
40A
100
AcDbEntity
  8
化粧台
  6
EXLTYPE2
 62
     6
100
AcDbVertex
100
AcDb2dVertex
 10
1602.5
 20
965.0
 30
0.0
  0
VERTEX
  5
455
330
40A
100
AcDbEntity
  8
化粧台
  6
EXLTYPE2
 62
     6
100
AcDbVertex
100
AcDb2dVertex
 10
1599.0
 20
967.5000000000002
 30
0.0
  0
VERTEX
  5
456
330
40A
100
AcDbEntity
  8
化粧台
  6
EXLTYPE2
 62
     6
100
AcDbVertex
100
AcDb2dVertex
 10
1602.5
 20
970.0
 30
0.0
  0
VERTEX
  5
457
330
40A
100
AcDbEntity
  8
化粧台
  6
EXLTYPE2
 62
     6
100
AcDbVertex
100
AcDb2dVertex
 10
1599.0
 20
972.5
 30
0.0
  0
VERTEX
  5
458
330
40A
100
AcDbEntity
  8
化粧台
  6
EXLTYPE2
 62
     6
100
AcDbVertex
100
AcDb2dVertex
 10
1602.5
 20
975.0000000000002
 30
0.0
  0
VERTEX
  5
459
330
40A
100
AcDbEntity
  8
化粧台
  6
EXLTYPE2
 62
     6
100
AcDbVertex
100
AcDb2dVertex
 10
1599.0
 20
977.5
 30
0.0
  0
VERTEX
  5
45A
330
40A
100
AcDbEntity
  8
化粧台
  6
EXLTYPE2
 62
     6
100
AcDbVertex
100
AcDb2dVertex
 10
1602.5
 20
980.0
 30
0.0
  0
VERTEX
  5
45B
330
40A
100
AcDbEntity
  8
化粧台
  6
EXLTYPE2
 62
     6
100
AcDbVertex
100
AcDb2dVertex
 10
1599.0
 20
982.5000000000002
 30
0.0
  0
VERTEX
  5
45C
330
40A
100
AcDbEntity
  8
化粧台
  6
EXLTYPE2
 62
     6
100
AcDbVertex
100
AcDb2dVertex
 10
1602.5
 20
985.0
 30
0.0
  0
VERTEX
  5
45D
330
40A
100
AcDbEntity
  8
化粧台
  6
EXLTYPE2
 62
     6
100
AcDbVertex
100
AcDb2dVertex
 10
1599.0
 20
987.5
 30
0.0
  0
VERTEX
  5
45E
330
40A
100
AcDbEntity
  8
化粧台
  6
EXLTYPE2
 62
     6
100
AcDbVertex
100
AcDb2dVertex
 10
1602.5
 20
990.0000000000002
 30
0.0
  0
VERTEX
  5
45F
330
40A
100
AcDbEntity
  8
化粧台
  6
EXLTYPE2
 62
     6
100
AcDbVertex
100
AcDb2dVertex
 10
1599.0
 20
992.5
 30
0.0
  0
VERTEX
  5
460
330
40A
100
AcDbEntity
  8
化粧台
  6
EXLTYPE2
 62
     6
100
AcDbVertex
100
AcDb2dVertex
 10
1602.5
 20
995.0
 30
0.0
  0
VERTEX
  5
461
330
40A
100
AcDbEntity
  8
化粧台
  6
EXLTYPE2
 62
     6
100
AcDbVertex
100
AcDb2dVertex
 10
1599.0
 20
997.5000000000002
 30
0.0
  0
VERTEX
  5
462
330
40A
100
AcDbEntity
  8
化粧台
  6
EXLTYPE2
 62
     6
100
AcDbVertex
100
AcDb2dVertex
 10
1602.5
 20
1000.0
 30
0.0
  0
VERTEX
  5
463
330
40A
100
AcDbEntity
  8
化粧台
  6
EXLTYPE2
 62
     6
100
AcDbVertex
100
AcDb2dVertex
 10
1599.0
 20
1002.5
 30
0.0
  0
VERTEX
  5
464
330
40A
100
AcDbEntity
  8
化粧台
  6
EXLTYPE2
 62
     6
100
AcDbVertex
100
AcDb2dVertex
 10
1602.5
 20
1005.0
 30
0.0
  0
VERTEX
  5
465
330
40A
100
AcDbEntity
  8
化粧台
  6
EXLTYPE2
 62
     6
100
AcDbVertex
100
AcDb2dVertex
 10
1599.0
 20
1007.5
 30
0.0
  0
VERTEX
  5
466
330
40A
100
AcDbEntity
  8
化粧台
  6
EXLTYPE2
 62
     6
100
AcDbVertex
100
AcDb2dVertex
 10
1602.5
 20
1010.0
 30
0.0
  0
VERTEX
  5
467
330
40A
100
AcDbEntity
  8
化粧台
  6
EXLTYPE2
 62
     6
100
AcDbVertex
100
AcDb2dVertex
 10
1599.0
 20
1012.5
 30
0.0
  0
VERTEX
  5
468
330
40A
100
AcDbEntity
  8
化粧台
  6
EXLTYPE2
 62
     6
100
AcDbVertex
100
AcDb2dVertex
 10
1602.5
 20
1015.0
 30
0.0
  0
VERTEX
  5
469
330
40A
100
AcDbEntity
  8
化粧台
  6
EXLTYPE2
 62
     6
100
AcDbVertex
100
AcDb2dVertex
 10
1599.0
 20
1017.5
 30
0.0
  0
VERTEX
  5
46A
330
40A
100
AcDbEntity
  8
化粧台
  6
EXLTYPE2
 62
     6
100
AcDbVertex
100
AcDb2dVertex
 10
1602.5
 20
1020.0
 30
0.0
  0
VERTEX
  5
46B
330
40A
100
AcDbEntity
  8
化粧台
  6
EXLTYPE2
 62
     6
100
AcDbVertex
100
AcDb2dVertex
 10
1599.0
 20
1022.5
 30
0.0
  0
VERTEX
  5
46C
330
40A
100
AcDbEntity
  8
化粧台
  6
EXLTYPE2
 62
     6
100
AcDbVertex
100
AcDb2dVertex
 10
1602.5
 20
1025.0
 30
0.0
  0
VERTEX
  5
46D
330
40A
100
AcDbEntity
  8
化粧台
  6
EXLTYPE2
 62
     6
100
AcDbVertex
100
AcDb2dVertex
 10
1599.0
 20
1027.5
 30
0.0
  0
VERTEX
  5
46E
330
40A
100
AcDbEntity
  8
化粧台
  6
EXLTYPE2
 62
     6
100
AcDbVertex
100
AcDb2dVertex
 10
1602.5
 20
1030.0
 30
0.0
  0
VERTEX
  5
46F
330
40A
100
AcDbEntity
  8
化粧台
  6
EXLTYPE2
 62
     6
100
AcDbVertex
100
AcDb2dVertex
 10
1599.0
 20
1032.5
 30
0.0
  0
VERTEX
  5
470
330
40A
100
AcDbEntity
  8
化粧台
  6
EXLTYPE2
 62
     6
100
AcDbVertex
100
AcDb2dVertex
 10
1602.5
 20
1035.0
 30
0.0
  0
VERTEX
  5
471
330
40A
100
AcDbEntity
  8
化粧台
  6
EXLTYPE2
 62
     6
100
AcDbVertex
100
AcDb2dVertex
 10
1599.0
 20
1037.5
 30
0.0
  0
VERTEX
  5
472
330
40A
100
AcDbEntity
  8
化粧台
  6
EXLTYPE2
 62
     6
100
AcDbVertex
100
AcDb2dVertex
 10
1602.5
 20
1040.0
 30
0.0
  0
VERTEX
  5
473
330
40A
100
AcDbEntity
  8
化粧台
  6
EXLTYPE2
 62
     6
100
AcDbVertex
100
AcDb2dVertex
 10
1599.0
 20
1042.5
 30
0.0
  0
VERTEX
  5
474
330
40A
100
AcDbEntity
  8
化粧台
  6
EXLTYPE2
 62
     6
100
AcDbVertex
100
AcDb2dVertex
 10
1602.5
 20
1045.0
 30
0.0
  0
VERTEX
  5
475
330
40A
100
AcDbEntity
  8
化粧台
  6
EXLTYPE2
 62
     6
100
AcDbVertex
100
AcDb2dVertex
 10
1599.0
 20
1047.5
 30
0.0
  0
VERTEX
  5
476
330
40A
100
AcDbEntity
  8
化粧台
  6
EXLTYPE2
 62
     6
100
AcDbVertex
100
AcDb2dVertex
 10
1602.5
 20
1050.0
 30
0.0
  0
VERTEX
  5
477
330
40A
100
AcDbEntity
  8
化粧台
  6
EXLTYPE2
 62
     6
100
AcDbVertex
100
AcDb2dVertex
 10
1599.0
 20
1052.5
 30
0.0
  0
VERTEX
  5
478
330
40A
100
AcDbEntity
  8
化粧台
  6
EXLTYPE2
 62
     6
100
AcDbVertex
100
AcDb2dVertex
 10
1602.5
 20
1055.0
 30
0.0
  0
VERTEX
  5
479
330
40A
100
AcDbEntity
  8
化粧台
  6
EXLTYPE2
 62
     6
100
AcDbVertex
100
AcDb2dVertex
 10
1599.0
 20
1057.5
 30
0.0
  0
VERTEX
  5
47A
330
40A
100
AcDbEntity
  8
化粧台
  6
EXLTYPE2
 62
     6
100
AcDbVertex
100
AcDb2dVertex
 10
1602.5
 20
1060.0
 30
0.0
  0
VERTEX
  5
47B
330
40A
100
AcDbEntity
  8
化粧台
  6
EXLTYPE2
 62
     6
100
AcDbVertex
100
AcDb2dVertex
 10
1599.0
 20
1062.5
 30
0.0
  0
VERTEX
  5
47C
330
40A
100
AcDbEntity
  8
化粧台
  6
EXLTYPE2
 62
     6
100
AcDbVertex
100
AcDb2dVertex
 10
1602.5
 20
1065.0
 30
0.0
  0
VERTEX
  5
47D
330
40A
100
AcDbEntity
  8
化粧台
  6
EXLTYPE2
 62
     6
100
AcDbVertex
100
AcDb2dVertex
 10
1599.0
 20
1067.5
 30
0.0
  0
VERTEX
  5
47E
330
40A
100
AcDbEntity
  8
化粧台
  6
EXLTYPE2
 62
     6
100
AcDbVertex
100
AcDb2dVertex
 10
1602.5
 20
1070.0
 30
0.0
  0
VERTEX
  5
47F
330
40A
100
AcDbEntity
  8
化粧台
  6
EXLTYPE2
 62
     6
100
AcDbVertex
100
AcDb2dVertex
 10
1599.0
 20
1072.5
 30
0.0
  0
VERTEX
  5
480
330
40A
100
AcDbEntity
  8
化粧台
  6
EXLTYPE2
 62
     6
100
AcDbVertex
100
AcDb2dVertex
 10
1602.5
 20
1075.0
 30
0.0
  0
VERTEX
  5
481
330
40A
100
AcDbEntity
  8
化粧台
  6
EXLTYPE2
 62
     6
100
AcDbVertex
100
AcDb2dVertex
 10
1599.0
 20
1077.5
 30
0.0
  0
VERTEX
  5
482
330
40A
100
AcDbEntity
  8
化粧台
  6
EXLTYPE2
 62
     6
100
AcDbVertex
100
AcDb2dVertex
 10
1602.5
 20
1080.0
 30
0.0
  0
VERTEX
  5
483
330
40A
100
AcDbEntity
  8
化粧台
  6
EXLTYPE2
 62
     6
100
AcDbVertex
100
AcDb2dVertex
 10
1599.0
 20
1082.5
 30
0.0
  0
VERTEX
  5
484
330
40A
100
AcDbEntity
  8
化粧台
  6
EXLTYPE2
 62
     6
100
AcDbVertex
100
AcDb2dVertex
 10
1602.5
 20
1085.0
 30
0.0
  0
VERTEX
  5
485
330
40A
100
AcDbEntity
  8
化粧台
  6
EXLTYPE2
 62
     6
100
AcDbVertex
100
AcDb2dVertex
 10
1599.0
 20
1087.5
 30
0.0
  0
VERTEX
  5
486
330
40A
100
AcDbEntity
  8
化粧台
  6
EXLTYPE2
 62
     6
100
AcDbVertex
100
AcDb2dVertex
 10
1602.5
 20
1090.0
 30
0.0
  0
VERTEX
  5
487
330
40A
100
AcDbEntity
  8
化粧台
  6
EXLTYPE2
 62
     6
100
AcDbVertex
100
AcDb2dVertex
 10
1599.0
 20
1092.5
 30
0.0
  0
VERTEX
  5
488
330
40A
100
AcDbEntity
  8
化粧台
  6
EXLTYPE2
 62
     6
100
AcDbVertex
100
AcDb2dVertex
 10
1602.5
 20
1095.0
 30
0.0
  0
VERTEX
  5
489
330
40A
100
AcDbEntity
  8
化粧台
  6
EXLTYPE2
 62
     6
100
AcDbVertex
100
AcDb2dVertex
 10
1599.0
 20
1097.5
 30
0.0
  0
VERTEX
  5
48A
330
40A
100
AcDbEntity
  8
化粧台
  6
EXLTYPE2
 62
     6
100
AcDbVertex
100
AcDb2dVertex
 10
1602.5
 20
1100.0
 30
0.0
  0
VERTEX
  5
48B
330
40A
100
AcDbEntity
  8
化粧台
  6
EXLTYPE2
 62
     6
100
AcDbVertex
100
AcDb2dVertex
 10
1599.0
 20
1102.5
 30
0.0
  0
VERTEX
  5
48C
330
40A
100
AcDbEntity
  8
化粧台
  6
EXLTYPE2
 62
     6
100
AcDbVertex
100
AcDb2dVertex
 10
1602.5
 20
1105.0
 30
0.0
  0
VERTEX
  5
48D
330
40A
100
AcDbEntity
  8
化粧台
  6
EXLTYPE2
 62
     6
100
AcDbVertex
100
AcDb2dVertex
 10
1599.0
 20
1107.5
 30
0.0
  0
VERTEX
  5
48E
330
40A
100
AcDbEntity
  8
化粧台
  6
EXLTYPE2
 62
     6
100
AcDbVertex
100
AcDb2dVertex
 10
1602.5
 20
1110.0
 30
0.0
  0
VERTEX
  5
48F
330
40A
100
AcDbEntity
  8
化粧台
  6
EXLTYPE2
 62
     6
100
AcDbVertex
100
AcDb2dVertex
 10
1599.0
 20
1112.5
 30
0.0
  0
VERTEX
  5
490
330
40A
100
AcDbEntity
  8
化粧台
  6
EXLTYPE2
 62
     6
100
AcDbVertex
100
AcDb2dVertex
 10
1602.5
 20
1115.0
 30
0.0
  0
VERTEX
  5
491
330
40A
100
AcDbEntity
  8
化粧台
  6
EXLTYPE2
 62
     6
100
AcDbVertex
100
AcDb2dVertex
 10
1599.0
 20
1117.5
 30
0.0
  0
VERTEX
  5
492
330
40A
100
AcDbEntity
  8
化粧台
  6
EXLTYPE2
 62
     6
100
AcDbVertex
100
AcDb2dVertex
 10
1602.5
 20
1120.0
 30
0.0
  0
VERTEX
  5
493
330
40A
100
AcDbEntity
  8
化粧台
  6
EXLTYPE2
 62
     6
100
AcDbVertex
100
AcDb2dVertex
 10
1599.0
 20
1122.5
 30
0.0
  0
VERTEX
  5
494
330
40A
100
AcDbEntity
  8
化粧台
  6
EXLTYPE2
 62
     6
100
AcDbVertex
100
AcDb2dVertex
 10
1602.5
 20
1125.0
 30
0.0
  0
VERTEX
  5
495
330
40A
100
AcDbEntity
  8
化粧台
  6
EXLTYPE2
 62
     6
100
AcDbVertex
100
AcDb2dVertex
 10
1599.0
 20
1127.5
 30
0.0
  0
VERTEX
  5
496
330
40A
100
AcDbEntity
  8
化粧台
  6
EXLTYPE2
 62
     6
100
AcDbVertex
100
AcDb2dVertex
 10
1602.5
 20
1130.0
 30
0.0
  0
VERTEX
  5
497
330
40A
100
AcDbEntity
  8
化粧台
  6
EXLTYPE2
 62
     6
100
AcDbVertex
100
AcDb2dVertex
 10
1599.0
 20
1132.5
 30
0.0
  0
VERTEX
  5
498
330
40A
100
AcDbEntity
  8
化粧台
  6
EXLTYPE2
 62
     6
100
AcDbVertex
100
AcDb2dVertex
 10
1602.5
 20
1135.0
 30
0.0
  0
VERTEX
  5
499
330
40A
100
AcDbEntity
  8
化粧台
  6
EXLTYPE2
 62
     6
100
AcDbVertex
100
AcDb2dVertex
 10
1599.0
 20
1137.5
 30
0.0
  0
VERTEX
  5
49A
330
40A
100
AcDbEntity
  8
化粧台
  6
EXLTYPE2
 62
     6
100
AcDbVertex
100
AcDb2dVertex
 10
1602.5
 20
1140.0
 30
0.0
  0
VERTEX
  5
49B
330
40A
100
AcDbEntity
  8
化粧台
  6
EXLTYPE2
 62
     6
100
AcDbVertex
100
AcDb2dVertex
 10
1599.0
 20
1142.5
 30
0.0
  0
VERTEX
  5
49C
330
40A
100
AcDbEntity
  8
化粧台
  6
EXLTYPE2
 62
     6
100
AcDbVertex
100
AcDb2dVertex
 10
1602.5
 20
1145.0
 30
0.0
  0
VERTEX
  5
49D
330
40A
100
AcDbEntity
  8
化粧台
  6
EXLTYPE2
 62
     6
100
AcDbVertex
100
AcDb2dVertex
 10
1599.0
 20
1147.5
 30
0.0
  0
VERTEX
  5
49E
330
40A
100
AcDbEntity
  8
化粧台
  6
EXLTYPE2
 62
     6
100
AcDbVertex
100
AcDb2dVertex
 10
1602.5
 20
1150.0
 30
0.0
  0
VERTEX
  5
49F
330
40A
100
AcDbEntity
  8
化粧台
  6
EXLTYPE2
 62
     6
100
AcDbVertex
100
AcDb2dVertex
 10
1599.0
 20
1152.5
 30
0.0
  0
VERTEX
  5
4A0
330
40A
100
AcDbEntity
  8
化粧台
  6
EXLTYPE2
 62
     6
100
AcDbVertex
100
AcDb2dVertex
 10
1602.5
 20
1155.0
 30
0.0
  0
VERTEX
  5
4A1
330
40A
100
AcDbEntity
  8
化粧台
  6
EXLTYPE2
 62
     6
100
AcDbVertex
100
AcDb2dVertex
 10
1599.0
 20
1157.5
 30
0.0
  0
VERTEX
  5
4A2
330
40A
100
AcDbEntity
  8
化粧台
  6
EXLTYPE2
 62
     6
100
AcDbVertex
100
AcDb2dVertex
 10
1602.5
 20
1160.0
 30
0.0
  0
VERTEX
  5
4A3
330
40A
100
AcDbEntity
  8
化粧台
  6
EXLTYPE2
 62
     6
100
AcDbVertex
100
AcDb2dVertex
 10
1599.0
 20
1162.5
 30
0.0
  0
VERTEX
  5
4A4
330
40A
100
AcDbEntity
  8
化粧台
  6
EXLTYPE2
 62
     6
100
AcDbVertex
100
AcDb2dVertex
 10
1602.5
 20
1165.0
 30
0.0
  0
VERTEX
  5
4A5
330
40A
100
AcDbEntity
  8
化粧台
  6
EXLTYPE2
 62
     6
100
AcDbVertex
100
AcDb2dVertex
 10
1599.0
 20
1167.5
 30
0.0
  0
VERTEX
  5
4A6
330
40A
100
AcDbEntity
  8
化粧台
  6
EXLTYPE2
 62
     6
100
AcDbVertex
100
AcDb2dVertex
 10
1602.5
 20
1170.0
 30
0.0
  0
VERTEX
  5
4A7
330
40A
100
AcDbEntity
  8
化粧台
  6
EXLTYPE2
 62
     6
100
AcDbVertex
100
AcDb2dVertex
 10
1599.0
 20
1172.5
 30
0.0
  0
VERTEX
  5
4A8
330
40A
100
AcDbEntity
  8
化粧台
  6
EXLTYPE2
 62
     6
100
AcDbVertex
100
AcDb2dVertex
 10
1602.5
 20
1175.0
 30
0.0
  0
VERTEX
  5
4A9
330
40A
100
AcDbEntity
  8
化粧台
  6
EXLTYPE2
 62
     6
100
AcDbVertex
100
AcDb2dVertex
 10
1599.0
 20
1177.5
 30
0.0
  0
VERTEX
  5
4AA
330
40A
100
AcDbEntity
  8
化粧台
  6
EXLTYPE2
 62
     6
100
AcDbVertex
100
AcDb2dVertex
 10
1602.5
 20
1180.0
 30
0.0
  0
VERTEX
  5
4AB
330
40A
100
AcDbEntity
  8
化粧台
  6
EXLTYPE2
 62
     6
100
AcDbVertex
100
AcDb2dVertex
 10
1599.0
 20
1182.5
 30
0.0
  0
VERTEX
  5
4AC
330
40A
100
AcDbEntity
  8
化粧台
  6
EXLTYPE2
 62
     6
100
AcDbVertex
100
AcDb2dVertex
 10
1602.5
 20
1185.0
 30
0.0
  0
VERTEX
  5
4AD
330
40A
100
AcDbEntity
  8
化粧台
  6
EXLTYPE2
 62
     6
100
AcDbVertex
100
AcDb2dVertex
 10
1599.0
 20
1187.5
 30
0.0
  0
VERTEX
  5
4AE
330
40A
100
AcDbEntity
  8
化粧台
  6
EXLTYPE2
 62
     6
100
AcDbVertex
100
AcDb2dVertex
 10
1602.5
 20
1190.0
 30
0.0
  0
VERTEX
  5
4AF
330
40A
100
AcDbEntity
  8
化粧台
  6
EXLTYPE2
 62
     6
100
AcDbVertex
100
AcDb2dVertex
 10
1599.0
 20
1192.5
 30
0.0
  0
VERTEX
  5
4B0
330
40A
100
AcDbEntity
  8
化粧台
  6
EXLTYPE2
 62
     6
100
AcDbVertex
100
AcDb2dVertex
 10
1602.5
 20
1195.0
 30
0.0
  0
VERTEX
  5
4B1
330
40A
100
AcDbEntity
  8
化粧台
  6
EXLTYPE2
 62
     6
100
AcDbVertex
100
AcDb2dVertex
 10
1599.0
 20
1197.5
 30
0.0
  0
VERTEX
  5
4B2
330
40A
100
AcDbEntity
  8
化粧台
  6
EXLTYPE2
 62
     6
100
AcDbVertex
100
AcDb2dVertex
 10
1602.5
 20
1200.0
 30
0.0
  0
VERTEX
  5
4B3
330
40A
100
AcDbEntity
  8
化粧台
  6
EXLTYPE2
 62
     6
100
AcDbVertex
100
AcDb2dVertex
 10
1599.0
 20
1202.5
 30
0.0
  0
VERTEX
  5
4B4
330
40A
100
AcDbEntity
  8
化粧台
  6
EXLTYPE2
 62
     6
100
AcDbVertex
100
AcDb2dVertex
 10
1602.5
 20
1205.0
 30
0.0
  0
VERTEX
  5
4B5
330
40A
100
AcDbEntity
  8
化粧台
  6
EXLTYPE2
 62
     6
100
AcDbVertex
100
AcDb2dVertex
 10
1599.0
 20
1207.5
 30
0.0
  0
VERTEX
  5
4B6
330
40A
100
AcDbEntity
  8
化粧台
  6
EXLTYPE2
 62
     6
100
AcDbVertex
100
AcDb2dVertex
 10
1602.5
 20
1210.0
 30
0.0
  0
VERTEX
  5
4B7
330
40A
100
AcDbEntity
  8
化粧台
  6
EXLTYPE2
 62
     6
100
AcDbVertex
100
AcDb2dVertex
 10
1600.85
 20
1212.5
 30
0.0
  0
SEQEND
  5
4B8
330
40A
100
AcDbEntity
  8
化粧台
  6
EXLTYPE2
 62
     6
  0
LINE
  5
4B9
330
1F
100
AcDbEntity
  8
化粧台
  6
CONTINUOUS
 62
     6
100
AcDbLine
 10
1571.0
 20
987.5
 30
0.0
 11
1585.0
 21
987.5
 31
0.0
  0
POLYLINE
  5
4BA
330
1F
100
AcDbEntity
  8
化粧台
  6
EXLTYPE2
 62
     6
100
AcDb2dPolyline
 66
     1
 10
0.0
 20
0.0
 30
0.0
 70
   128
  0
VERTEX
  5
4BB
330
4BA
100
AcDbEntity
  8
化粧台
  6
EXLTYPE2
 62
     6
100
AcDbVertex
100
AcDb2dVertex
 10
1569.15
 20
1212.5
 30
0.0
  0
VERTEX
  5
4BC
330
4BA
100
AcDbEntity
  8
化粧台
  6
EXLTYPE2
 62
     6
100
AcDbVertex
100
AcDb2dVertex
 10
1567.5
 20
1210.0
 30
0.0
  0
VERTEX
  5
4BD
330
4BA
100
AcDbEntity
  8
化粧台
  6
EXLTYPE2
 62
     6
100
AcDbVertex
100
AcDb2dVertex
 10
1571.0
 20
1207.5
 30
0.0
  0
VERTEX
  5
4BE
330
4BA
100
AcDbEntity
  8
化粧台
  6
EXLTYPE2
 62
     6
100
AcDbVertex
100
AcDb2dVertex
 10
1567.5
 20
1205.0
 30
0.0
  0
VERTEX
  5
4BF
330
4BA
100
AcDbEntity
  8
化粧台
  6
EXLTYPE2
 62
     6
100
AcDbVertex
100
AcDb2dVertex
 10
1571.0
 20
1202.5
 30
0.0
  0
VERTEX
  5
4C0
330
4BA
100
AcDbEntity
  8
化粧台
  6
EXLTYPE2
 62
     6
100
AcDbVertex
100
AcDb2dVertex
 10
1567.5
 20
1200.0
 30
0.0
  0
VERTEX
  5
4C1
330
4BA
100
AcDbEntity
  8
化粧台
  6
EXLTYPE2
 62
     6
100
AcDbVertex
100
AcDb2dVertex
 10
1571.0
 20
1197.5
 30
0.0
  0
VERTEX
  5
4C2
330
4BA
100
AcDbEntity
  8
化粧台
  6
EXLTYPE2
 62
     6
100
AcDbVertex
100
AcDb2dVertex
 10
1567.5
 20
1195.0
 30
0.0
  0
VERTEX
  5
4C3
330
4BA
100
AcDbEntity
  8
化粧台
  6
EXLTYPE2
 62
     6
100
AcDbVertex
100
AcDb2dVertex
 10
1571.0
 20
1192.5
 30
0.0
  0
VERTEX
  5
4C4
330
4BA
100
AcDbEntity
  8
化粧台
  6
EXLTYPE2
 62
     6
100
AcDbVertex
100
AcDb2dVertex
 10
1567.5
 20
1190.0
 30
0.0
  0
VERTEX
  5
4C5
330
4BA
100
AcDbEntity
  8
化粧台
  6
EXLTYPE2
 62
     6
100
AcDbVertex
100
AcDb2dVertex
 10
1571.0
 20
1187.5
 30
0.0
  0
VERTEX
  5
4C6
330
4BA
100
AcDbEntity
  8
化粧台
  6
EXLTYPE2
 62
     6
100
AcDbVertex
100
AcDb2dVertex
 10
1567.5
 20
1185.0
 30
0.0
  0
VERTEX
  5
4C7
330
4BA
100
AcDbEntity
  8
化粧台
  6
EXLTYPE2
 62
     6
100
AcDbVertex
100
AcDb2dVertex
 10
1571.0
 20
1182.5
 30
0.0
  0
VERTEX
  5
4C8
330
4BA
100
AcDbEntity
  8
化粧台
  6
EXLTYPE2
 62
     6
100
AcDbVertex
100
AcDb2dVertex
 10
1567.5
 20
1180.0
 30
0.0
  0
VERTEX
  5
4C9
330
4BA
100
AcDbEntity
  8
化粧台
  6
EXLTYPE2
 62
     6
100
AcDbVertex
100
AcDb2dVertex
 10
1571.0
 20
1177.5
 30
0.0
  0
VERTEX
  5
4CA
330
4BA
100
AcDbEntity
  8
化粧台
  6
EXLTYPE2
 62
     6
100
AcDbVertex
100
AcDb2dVertex
 10
1567.5
 20
1175.0
 30
0.0
  0
VERTEX
  5
4CB
330
4BA
100
AcDbEntity
  8
化粧台
  6
EXLTYPE2
 62
     6
100
AcDbVertex
100
AcDb2dVertex
 10
1571.0
 20
1172.5
 30
0.0
  0
VERTEX
  5
4CC
330
4BA
100
AcDbEntity
  8
化粧台
  6
EXLTYPE2
 62
     6
100
AcDbVertex
100
AcDb2dVertex
 10
1567.5
 20
1170.0
 30
0.0
  0
VERTEX
  5
4CD
330
4BA
100
AcDbEntity
  8
化粧台
  6
EXLTYPE2
 62
     6
100
AcDbVertex
100
AcDb2dVertex
 10
1571.0
 20
1167.5
 30
0.0
  0
VERTEX
  5
4CE
330
4BA
100
AcDbEntity
  8
化粧台
  6
EXLTYPE2
 62
     6
100
AcDbVertex
100
AcDb2dVertex
 10
1567.5
 20
1165.0
 30
0.0
  0
VERTEX
  5
4CF
330
4BA
100
AcDbEntity
  8
化粧台
  6
EXLTYPE2
 62
     6
100
AcDbVertex
100
AcDb2dVertex
 10
1571.0
 20
1162.5
 30
0.0
  0
VERTEX
  5
4D0
330
4BA
100
AcDbEntity
  8
化粧台
  6
EXLTYPE2
 62
     6
100
AcDbVertex
100
AcDb2dVertex
 10
1567.5
 20
1160.0
 30
0.0
  0
VERTEX
  5
4D1
330
4BA
100
AcDbEntity
  8
化粧台
  6
EXLTYPE2
 62
     6
100
AcDbVertex
100
AcDb2dVertex
 10
1571.0
 20
1157.5
 30
0.0
  0
VERTEX
  5
4D2
330
4BA
100
AcDbEntity
  8
化粧台
  6
EXLTYPE2
 62
     6
100
AcDbVertex
100
AcDb2dVertex
 10
1567.5
 20
1155.0
 30
0.0
  0
VERTEX
  5
4D3
330
4BA
100
AcDbEntity
  8
化粧台
  6
EXLTYPE2
 62
     6
100
AcDbVertex
100
AcDb2dVertex
 10
1571.0
 20
1152.5
 30
0.0
  0
VERTEX
  5
4D4
330
4BA
100
AcDbEntity
  8
化粧台
  6
EXLTYPE2
 62
     6
100
AcDbVertex
100
AcDb2dVertex
 10
1567.5
 20
1150.0
 30
0.0
  0
VERTEX
  5
4D5
330
4BA
100
AcDbEntity
  8
化粧台
  6
EXLTYPE2
 62
     6
100
AcDbVertex
100
AcDb2dVertex
 10
1571.0
 20
1147.5
 30
0.0
  0
VERTEX
  5
4D6
330
4BA
100
AcDbEntity
  8
化粧台
  6
EXLTYPE2
 62
     6
100
AcDbVertex
100
AcDb2dVertex
 10
1567.5
 20
1145.0
 30
0.0
  0
VERTEX
  5
4D7
330
4BA
100
AcDbEntity
  8
化粧台
  6
EXLTYPE2
 62
     6
100
AcDbVertex
100
AcDb2dVertex
 10
1571.0
 20
1142.5
 30
0.0
  0
VERTEX
  5
4D8
330
4BA
100
AcDbEntity
  8
化粧台
  6
EXLTYPE2
 62
     6
100
AcDbVertex
100
AcDb2dVertex
 10
1567.5
 20
1140.0
 30
0.0
  0
VERTEX
  5
4D9
330
4BA
100
AcDbEntity
  8
化粧台
  6
EXLTYPE2
 62
     6
100
AcDbVertex
100
AcDb2dVertex
 10
1571.0
 20
1137.5
 30
0.0
  0
VERTEX
  5
4DA
330
4BA
100
AcDbEntity
  8
化粧台
  6
EXLTYPE2
 62
     6
100
AcDbVertex
100
AcDb2dVertex
 10
1567.5
 20
1135.0
 30
0.0
  0
VERTEX
  5
4DB
330
4BA
100
AcDbEntity
  8
化粧台
  6
EXLTYPE2
 62
     6
100
AcDbVertex
100
AcDb2dVertex
 10
1571.0
 20
1132.5
 30
0.0
  0
VERTEX
  5
4DC
330
4BA
100
AcDbEntity
  8
化粧台
  6
EXLTYPE2
 62
     6
100
AcDbVertex
100
AcDb2dVertex
 10
1567.5
 20
1130.0
 30
0.0
  0
VERTEX
  5
4DD
330
4BA
100
AcDbEntity
  8
化粧台
  6
EXLTYPE2
 62
     6
100
AcDbVertex
100
AcDb2dVertex
 10
1571.0
 20
1127.5
 30
0.0
  0
VERTEX
  5
4DE
330
4BA
100
AcDbEntity
  8
化粧台
  6
EXLTYPE2
 62
     6
100
AcDbVertex
100
AcDb2dVertex
 10
1567.5
 20
1125.0
 30
0.0
  0
VERTEX
  5
4DF
330
4BA
100
AcDbEntity
  8
化粧台
  6
EXLTYPE2
 62
     6
100
AcDbVertex
100
AcDb2dVertex
 10
1571.0
 20
1122.5
 30
0.0
  0
VERTEX
  5
4E0
330
4BA
100
AcDbEntity
  8
化粧台
  6
EXLTYPE2
 62
     6
100
AcDbVertex
100
AcDb2dVertex
 10
1567.5
 20
1120.0
 30
0.0
  0
VERTEX
  5
4E1
330
4BA
100
AcDbEntity
  8
化粧台
  6
EXLTYPE2
 62
     6
100
AcDbVertex
100
AcDb2dVertex
 10
1571.0
 20
1117.5
 30
0.0
  0
VERTEX
  5
4E2
330
4BA
100
AcDbEntity
  8
化粧台
  6
EXLTYPE2
 62
     6
100
AcDbVertex
100
AcDb2dVertex
 10
1567.5
 20
1115.0
 30
0.0
  0
VERTEX
  5
4E3
330
4BA
100
AcDbEntity
  8
化粧台
  6
EXLTYPE2
 62
     6
100
AcDbVertex
100
AcDb2dVertex
 10
1571.0
 20
1112.5
 30
0.0
  0
VERTEX
  5
4E4
330
4BA
100
AcDbEntity
  8
化粧台
  6
EXLTYPE2
 62
     6
100
AcDbVertex
100
AcDb2dVertex
 10
1567.5
 20
1110.0
 30
0.0
  0
VERTEX
  5
4E5
330
4BA
100
AcDbEntity
  8
化粧台
  6
EXLTYPE2
 62
     6
100
AcDbVertex
100
AcDb2dVertex
 10
1571.0
 20
1107.5
 30
0.0
  0
VERTEX
  5
4E6
330
4BA
100
AcDbEntity
  8
化粧台
  6
EXLTYPE2
 62
     6
100
AcDbVertex
100
AcDb2dVertex
 10
1567.5
 20
1105.0
 30
0.0
  0
VERTEX
  5
4E7
330
4BA
100
AcDbEntity
  8
化粧台
  6
EXLTYPE2
 62
     6
100
AcDbVertex
100
AcDb2dVertex
 10
1571.0
 20
1102.5
 30
0.0
  0
VERTEX
  5
4E8
330
4BA
100
AcDbEntity
  8
化粧台
  6
EXLTYPE2
 62
     6
100
AcDbVertex
100
AcDb2dVertex
 10
1567.5
 20
1100.0
 30
0.0
  0
VERTEX
  5
4E9
330
4BA
100
AcDbEntity
  8
化粧台
  6
EXLTYPE2
 62
     6
100
AcDbVertex
100
AcDb2dVertex
 10
1571.0
 20
1097.5
 30
0.0
  0
VERTEX
  5
4EA
330
4BA
100
AcDbEntity
  8
化粧台
  6
EXLTYPE2
 62
     6
100
AcDbVertex
100
AcDb2dVertex
 10
1567.5
 20
1095.0
 30
0.0
  0
VERTEX
  5
4EB
330
4BA
100
AcDbEntity
  8
化粧台
  6
EXLTYPE2
 62
     6
100
AcDbVertex
100
AcDb2dVertex
 10
1571.0
 20
1092.5
 30
0.0
  0
VERTEX
  5
4EC
330
4BA
100
AcDbEntity
  8
化粧台
  6
EXLTYPE2
 62
     6
100
AcDbVertex
100
AcDb2dVertex
 10
1567.5
 20
1090.0
 30
0.0
  0
VERTEX
  5
4ED
330
4BA
100
AcDbEntity
  8
化粧台
  6
EXLTYPE2
 62
     6
100
AcDbVertex
100
AcDb2dVertex
 10
1571.0
 20
1087.5
 30
0.0
  0
VERTEX
  5
4EE
330
4BA
100
AcDbEntity
  8
化粧台
  6
EXLTYPE2
 62
     6
100
AcDbVertex
100
AcDb2dVertex
 10
1567.5
 20
1085.0
 30
0.0
  0
VERTEX
  5
4EF
330
4BA
100
AcDbEntity
  8
化粧台
  6
EXLTYPE2
 62
     6
100
AcDbVertex
100
AcDb2dVertex
 10
1571.0
 20
1082.5
 30
0.0
  0
VERTEX
  5
4F0
330
4BA
100
AcDbEntity
  8
化粧台
  6
EXLTYPE2
 62
     6
100
AcDbVertex
100
AcDb2dVertex
 10
1567.5
 20
1080.0
 30
0.0
  0
VERTEX
  5
4F1
330
4BA
100
AcDbEntity
  8
化粧台
  6
EXLTYPE2
 62
     6
100
AcDbVertex
100
AcDb2dVertex
 10
1571.0
 20
1077.5
 30
0.0
  0
VERTEX
  5
4F2
330
4BA
100
AcDbEntity
  8
化粧台
  6
EXLTYPE2
 62
     6
100
AcDbVertex
100
AcDb2dVertex
 10
1567.5
 20
1075.0
 30
0.0
  0
VERTEX
  5
4F3
330
4BA
100
AcDbEntity
  8
化粧台
  6
EXLTYPE2
 62
     6
100
AcDbVertex
100
AcDb2dVertex
 10
1571.0
 20
1072.5
 30
0.0
  0
VERTEX
  5
4F4
330
4BA
100
AcDbEntity
  8
化粧台
  6
EXLTYPE2
 62
     6
100
AcDbVertex
100
AcDb2dVertex
 10
1567.5
 20
1070.0
 30
0.0
  0
VERTEX
  5
4F5
330
4BA
100
AcDbEntity
  8
化粧台
  6
EXLTYPE2
 62
     6
100
AcDbVertex
100
AcDb2dVertex
 10
1571.0
 20
1067.5
 30
0.0
  0
VERTEX
  5
4F6
330
4BA
100
AcDbEntity
  8
化粧台
  6
EXLTYPE2
 62
     6
100
AcDbVertex
100
AcDb2dVertex
 10
1567.5
 20
1065.0
 30
0.0
  0
VERTEX
  5
4F7
330
4BA
100
AcDbEntity
  8
化粧台
  6
EXLTYPE2
 62
     6
100
AcDbVertex
100
AcDb2dVertex
 10
1571.0
 20
1062.5
 30
0.0
  0
VERTEX
  5
4F8
330
4BA
100
AcDbEntity
  8
化粧台
  6
EXLTYPE2
 62
     6
100
AcDbVertex
100
AcDb2dVertex
 10
1567.5
 20
1060.0
 30
0.0
  0
VERTEX
  5
4F9
330
4BA
100
AcDbEntity
  8
化粧台
  6
EXLTYPE2
 62
     6
100
AcDbVertex
100
AcDb2dVertex
 10
1571.0
 20
1057.5
 30
0.0
  0
VERTEX
  5
4FA
330
4BA
100
AcDbEntity
  8
化粧台
  6
EXLTYPE2
 62
     6
100
AcDbVertex
100
AcDb2dVertex
 10
1567.5
 20
1055.0
 30
0.0
  0
VERTEX
  5
4FB
330
4BA
100
AcDbEntity
  8
化粧台
  6
EXLTYPE2
 62
     6
100
AcDbVertex
100
AcDb2dVertex
 10
1571.0
 20
1052.5
 30
0.0
  0
VERTEX
  5
4FC
330
4BA
100
AcDbEntity
  8
化粧台
  6
EXLTYPE2
 62
     6
100
AcDbVertex
100
AcDb2dVertex
 10
1567.5
 20
1050.0
 30
0.0
  0
VERTEX
  5
4FD
330
4BA
100
AcDbEntity
  8
化粧台
  6
EXLTYPE2
 62
     6
100
AcDbVertex
100
AcDb2dVertex
 10
1571.0
 20
1047.5
 30
0.0
  0
VERTEX
  5
4FE
330
4BA
100
AcDbEntity
  8
化粧台
  6
EXLTYPE2
 62
     6
100
AcDbVertex
100
AcDb2dVertex
 10
1567.5
 20
1045.0
 30
0.0
  0
VERTEX
  5
4FF
330
4BA
100
AcDbEntity
  8
化粧台
  6
EXLTYPE2
 62
     6
100
AcDbVertex
100
AcDb2dVertex
 10
1571.0
 20
1042.5
 30
0.0
  0
VERTEX
  5
500
330
4BA
100
AcDbEntity
  8
化粧台
  6
EXLTYPE2
 62
     6
100
AcDbVertex
100
AcDb2dVertex
 10
1567.5
 20
1040.0
 30
0.0
  0
VERTEX
  5
501
330
4BA
100
AcDbEntity
  8
化粧台
  6
EXLTYPE2
 62
     6
100
AcDbVertex
100
AcDb2dVertex
 10
1571.0
 20
1037.5
 30
0.0
  0
VERTEX
  5
502
330
4BA
100
AcDbEntity
  8
化粧台
  6
EXLTYPE2
 62
     6
100
AcDbVertex
100
AcDb2dVertex
 10
1567.5
 20
1035.0
 30
0.0
  0
VERTEX
  5
503
330
4BA
100
AcDbEntity
  8
化粧台
  6
EXLTYPE2
 62
     6
100
AcDbVertex
100
AcDb2dVertex
 10
1571.0
 20
1032.5
 30
0.0
  0
VERTEX
  5
504
330
4BA
100
AcDbEntity
  8
化粧台
  6
EXLTYPE2
 62
     6
100
AcDbVertex
100
AcDb2dVertex
 10
1567.5
 20
1030.0
 30
0.0
  0
VERTEX
  5
505
330
4BA
100
AcDbEntity
  8
化粧台
  6
EXLTYPE2
 62
     6
100
AcDbVertex
100
AcDb2dVertex
 10
1571.0
 20
1027.5
 30
0.0
  0
VERTEX
  5
506
330
4BA
100
AcDbEntity
  8
化粧台
  6
EXLTYPE2
 62
     6
100
AcDbVertex
100
AcDb2dVertex
 10
1567.5
 20
1025.0
 30
0.0
  0
VERTEX
  5
507
330
4BA
100
AcDbEntity
  8
化粧台
  6
EXLTYPE2
 62
     6
100
AcDbVertex
100
AcDb2dVertex
 10
1571.0
 20
1022.5
 30
0.0
  0
VERTEX
  5
508
330
4BA
100
AcDbEntity
  8
化粧台
  6
EXLTYPE2
 62
     6
100
AcDbVertex
100
AcDb2dVertex
 10
1567.5
 20
1020.0
 30
0.0
  0
VERTEX
  5
509
330
4BA
100
AcDbEntity
  8
化粧台
  6
EXLTYPE2
 62
     6
100
AcDbVertex
100
AcDb2dVertex
 10
1571.0
 20
1017.5
 30
0.0
  0
VERTEX
  5
50A
330
4BA
100
AcDbEntity
  8
化粧台
  6
EXLTYPE2
 62
     6
100
AcDbVertex
100
AcDb2dVertex
 10
1567.5
 20
1015.0
 30
0.0
  0
VERTEX
  5
50B
330
4BA
100
AcDbEntity
  8
化粧台
  6
EXLTYPE2
 62
     6
100
AcDbVertex
100
AcDb2dVertex
 10
1571.0
 20
1012.5
 30
0.0
  0
VERTEX
  5
50C
330
4BA
100
AcDbEntity
  8
化粧台
  6
EXLTYPE2
 62
     6
100
AcDbVertex
100
AcDb2dVertex
 10
1567.5
 20
1010.0
 30
0.0
  0
VERTEX
  5
50D
330
4BA
100
AcDbEntity
  8
化粧台
  6
EXLTYPE2
 62
     6
100
AcDbVertex
100
AcDb2dVertex
 10
1571.0
 20
1007.5
 30
0.0
  0
VERTEX
  5
50E
330
4BA
100
AcDbEntity
  8
化粧台
  6
EXLTYPE2
 62
     6
100
AcDbVertex
100
AcDb2dVertex
 10
1567.5
 20
1005.0
 30
0.0
  0
VERTEX
  5
50F
330
4BA
100
AcDbEntity
  8
化粧台
  6
EXLTYPE2
 62
     6
100
AcDbVertex
100
AcDb2dVertex
 10
1571.0
 20
1002.5
 30
0.0
  0
VERTEX
  5
510
330
4BA
100
AcDbEntity
  8
化粧台
  6
EXLTYPE2
 62
     6
100
AcDbVertex
100
AcDb2dVertex
 10
1567.5
 20
1000.0
 30
0.0
  0
VERTEX
  5
511
330
4BA
100
AcDbEntity
  8
化粧台
  6
EXLTYPE2
 62
     6
100
AcDbVertex
100
AcDb2dVertex
 10
1571.0
 20
997.5000000000002
 30
0.0
  0
VERTEX
  5
512
330
4BA
100
AcDbEntity
  8
化粧台
  6
EXLTYPE2
 62
     6
100
AcDbVertex
100
AcDb2dVertex
 10
1567.5
 20
995.0
 30
0.0
  0
VERTEX
  5
513
330
4BA
100
AcDbEntity
  8
化粧台
  6
EXLTYPE2
 62
     6
100
AcDbVertex
100
AcDb2dVertex
 10
1571.0
 20
992.5
 30
0.0
  0
VERTEX
  5
514
330
4BA
100
AcDbEntity
  8
化粧台
  6
EXLTYPE2
 62
     6
100
AcDbVertex
100
AcDb2dVertex
 10
1567.5
 20
990.0000000000002
 30
0.0
  0
VERTEX
  5
515
330
4BA
100
AcDbEntity
  8
化粧台
  6
EXLTYPE2
 62
     6
100
AcDbVertex
100
AcDb2dVertex
 10
1571.0
 20
987.5
 30
0.0
  0
VERTEX
  5
516
330
4BA
100
AcDbEntity
  8
化粧台
  6
EXLTYPE2
 62
     6
100
AcDbVertex
100
AcDb2dVertex
 10
1567.5
 20
985.0
 30
0.0
  0
VERTEX
  5
517
330
4BA
100
AcDbEntity
  8
化粧台
  6
EXLTYPE2
 62
     6
100
AcDbVertex
100
AcDb2dVertex
 10
1571.0
 20
982.5000000000002
 30
0.0
  0
VERTEX
  5
518
330
4BA
100
AcDbEntity
  8
化粧台
  6
EXLTYPE2
 62
     6
100
AcDbVertex
100
AcDb2dVertex
 10
1567.5
 20
980.0
 30
0.0
  0
VERTEX
  5
519
330
4BA
100
AcDbEntity
  8
化粧台
  6
EXLTYPE2
 62
     6
100
AcDbVertex
100
AcDb2dVertex
 10
1571.0
 20
977.5
 30
0.0
  0
VERTEX
  5
51A
330
4BA
100
AcDbEntity
  8
化粧台
  6
EXLTYPE2
 62
     6
100
AcDbVertex
100
AcDb2dVertex
 10
1567.5
 20
975.0000000000002
 30
0.0
  0
VERTEX
  5
51B
330
4BA
100
AcDbEntity
  8
化粧台
  6
EXLTYPE2
 62
     6
100
AcDbVertex
100
AcDb2dVertex
 10
1571.0
 20
972.5
 30
0.0
  0
VERTEX
  5
51C
330
4BA
100
AcDbEntity
  8
化粧台
  6
EXLTYPE2
 62
     6
100
AcDbVertex
100
AcDb2dVertex
 10
1567.5
 20
970.0
 30
0.0
  0
VERTEX
  5
51D
330
4BA
100
AcDbEntity
  8
化粧台
  6
EXLTYPE2
 62
     6
100
AcDbVertex
100
AcDb2dVertex
 10
1571.0
 20
967.5000000000002
 30
0.0
  0
VERTEX
  5
51E
330
4BA
100
AcDbEntity
  8
化粧台
  6
EXLTYPE2
 62
     6
100
AcDbVertex
100
AcDb2dVertex
 10
1567.5
 20
965.0
 30
0.0
  0
VERTEX
  5
51F
330
4BA
100
AcDbEntity
  8
化粧台
  6
EXLTYPE2
 62
     6
100
AcDbVertex
100
AcDb2dVertex
 10
1571.0
 20
962.5
 30
0.0
  0
VERTEX
  5
520
330
4BA
100
AcDbEntity
  8
化粧台
  6
EXLTYPE2
 62
     6
100
AcDbVertex
100
AcDb2dVertex
 10
1567.5
 20
960.0000000000002
 30
0.0
  0
VERTEX
  5
521
330
4BA
100
AcDbEntity
  8
化粧台
  6
EXLTYPE2
 62
     6
100
AcDbVertex
100
AcDb2dVertex
 10
1571.0
 20
957.5
 30
0.0
  0
VERTEX
  5
522
330
4BA
100
AcDbEntity
  8
化粧台
  6
EXLTYPE2
 62
     6
100
AcDbVertex
100
AcDb2dVertex
 10
1567.5
 20
955.0
 30
0.0
  0
VERTEX
  5
523
330
4BA
100
AcDbEntity
  8
化粧台
  6
EXLTYPE2
 62
     6
100
AcDbVertex
100
AcDb2dVertex
 10
1571.0
 20
952.5000000000002
 30
0.0
  0
VERTEX
  5
524
330
4BA
100
AcDbEntity
  8
化粧台
  6
EXLTYPE2
 62
     6
100
AcDbVertex
100
AcDb2dVertex
 10
1567.5
 20
950.0
 30
0.0
  0
VERTEX
  5
525
330
4BA
100
AcDbEntity
  8
化粧台
  6
EXLTYPE2
 62
     6
100
AcDbVertex
100
AcDb2dVertex
 10
1571.0
 20
947.5
 30
0.0
  0
VERTEX
  5
526
330
4BA
100
AcDbEntity
  8
化粧台
  6
EXLTYPE2
 62
     6
100
AcDbVertex
100
AcDb2dVertex
 10
1567.5
 20
945.0000000000002
 30
0.0
  0
VERTEX
  5
527
330
4BA
100
AcDbEntity
  8
化粧台
  6
EXLTYPE2
 62
     6
100
AcDbVertex
100
AcDb2dVertex
 10
1571.0
 20
942.5
 30
0.0
  0
VERTEX
  5
528
330
4BA
100
AcDbEntity
  8
化粧台
  6
EXLTYPE2
 62
     6
100
AcDbVertex
100
AcDb2dVertex
 10
1567.5
 20
940.0
 30
0.0
  0
VERTEX
  5
529
330
4BA
100
AcDbEntity
  8
化粧台
  6
EXLTYPE2
 62
     6
100
AcDbVertex
100
AcDb2dVertex
 10
1571.0
 20
937.5000000000002
 30
0.0
  0
VERTEX
  5
52A
330
4BA
100
AcDbEntity
  8
化粧台
  6
EXLTYPE2
 62
     6
100
AcDbVertex
100
AcDb2dVertex
 10
1567.5
 20
935.0
 30
0.0
  0
VERTEX
  5
52B
330
4BA
100
AcDbEntity
  8
化粧台
  6
EXLTYPE2
 62
     6
100
AcDbVertex
100
AcDb2dVertex
 10
1571.0
 20
932.5
 30
0.0
  0
VERTEX
  5
52C
330
4BA
100
AcDbEntity
  8
化粧台
  6
EXLTYPE2
 62
     6
100
AcDbVertex
100
AcDb2dVertex
 10
1567.5
 20
930.0000000000002
 30
0.0
  0
VERTEX
  5
52D
330
4BA
100
AcDbEntity
  8
化粧台
  6
EXLTYPE2
 62
     6
100
AcDbVertex
100
AcDb2dVertex
 10
1571.0
 20
927.5
 30
0.0
  0
VERTEX
  5
52E
330
4BA
100
AcDbEntity
  8
化粧台
  6
EXLTYPE2
 62
     6
100
AcDbVertex
100
AcDb2dVertex
 10
1567.5
 20
925.0
 30
0.0
  0
VERTEX
  5
52F
330
4BA
100
AcDbEntity
  8
化粧台
  6
EXLTYPE2
 62
     6
100
AcDbVertex
100
AcDb2dVertex
 10
1571.0
 20
922.5000000000002
 30
0.0
  0
VERTEX
  5
530
330
4BA
100
AcDbEntity
  8
化粧台
  6
EXLTYPE2
 62
     6
100
AcDbVertex
100
AcDb2dVertex
 10
1567.5
 20
920.0
 30
0.0
  0
VERTEX
  5
531
330
4BA
100
AcDbEntity
  8
化粧台
  6
EXLTYPE2
 62
     6
100
AcDbVertex
100
AcDb2dVertex
 10
1571.0
 20
917.5
 30
0.0
  0
VERTEX
  5
532
330
4BA
100
AcDbEntity
  8
化粧台
  6
EXLTYPE2
 62
     6
100
AcDbVertex
100
AcDb2dVertex
 10
1567.5
 20
915.0000000000002
 30
0.0
  0
VERTEX
  5
533
330
4BA
100
AcDbEntity
  8
化粧台
  6
EXLTYPE2
 62
     6
100
AcDbVertex
100
AcDb2dVertex
 10
1571.0
 20
912.5
 30
0.0
  0
VERTEX
  5
534
330
4BA
100
AcDbEntity
  8
化粧台
  6
EXLTYPE2
 62
     6
100
AcDbVertex
100
AcDb2dVertex
 10
1567.5
 20
910.0
 30
0.0
  0
VERTEX
  5
535
330
4BA
100
AcDbEntity
  8
化粧台
  6
EXLTYPE2
 62
     6
100
AcDbVertex
100
AcDb2dVertex
 10
1571.0
 20
907.5000000000002
 30
0.0
  0
VERTEX
  5
536
330
4BA
100
AcDbEntity
  8
化粧台
  6
EXLTYPE2
 62
     6
100
AcDbVertex
100
AcDb2dVertex
 10
1567.5
 20
905.0
 30
0.0
  0
VERTEX
  5
537
330
4BA
100
AcDbEntity
  8
化粧台
  6
EXLTYPE2
 62
     6
100
AcDbVertex
100
AcDb2dVertex
 10
1571.0
 20
902.5
 30
0.0
  0
VERTEX
  5
538
330
4BA
100
AcDbEntity
  8
化粧台
  6
EXLTYPE2
 62
     6
100
AcDbVertex
100
AcDb2dVertex
 10
1567.5
 20
900.0000000000002
 30
0.0
  0
VERTEX
  5
539
330
4BA
100
AcDbEntity
  8
化粧台
  6
EXLTYPE2
 62
     6
100
AcDbVertex
100
AcDb2dVertex
 10
1571.0
 20
897.5
 30
0.0
  0
VERTEX
  5
53A
330
4BA
100
AcDbEntity
  8
化粧台
  6
EXLTYPE2
 62
     6
100
AcDbVertex
100
AcDb2dVertex
 10
1567.5
 20
895.0
 30
0.0
  0
VERTEX
  5
53B
330
4BA
100
AcDbEntity
  8
化粧台
  6
EXLTYPE2
 62
     6
100
AcDbVertex
100
AcDb2dVertex
 10
1571.0
 20
892.5000000000002
 30
0.0
  0
VERTEX
  5
53C
330
4BA
100
AcDbEntity
  8
化粧台
  6
EXLTYPE2
 62
     6
100
AcDbVertex
100
AcDb2dVertex
 10
1567.5
 20
890.0
 30
0.0
  0
VERTEX
  5
53D
330
4BA
100
AcDbEntity
  8
化粧台
  6
EXLTYPE2
 62
     6
100
AcDbVertex
100
AcDb2dVertex
 10
1571.0
 20
887.5
 30
0.0
  0
VERTEX
  5
53E
330
4BA
100
AcDbEntity
  8
化粧台
  6
EXLTYPE2
 62
     6
100
AcDbVertex
100
AcDb2dVertex
 10
1567.5
 20
885.0000000000002
 30
0.0
  0
VERTEX
  5
53F
330
4BA
100
AcDbEntity
  8
化粧台
  6
EXLTYPE2
 62
     6
100
AcDbVertex
100
AcDb2dVertex
 10
1571.0
 20
882.5
 30
0.0
  0
VERTEX
  5
540
330
4BA
100
AcDbEntity
  8
化粧台
  6
EXLTYPE2
 62
     6
100
AcDbVertex
100
AcDb2dVertex
 10
1567.5
 20
880.0
 30
0.0
  0
VERTEX
  5
541
330
4BA
100
AcDbEntity
  8
化粧台
  6
EXLTYPE2
 62
     6
100
AcDbVertex
100
AcDb2dVertex
 10
1571.0
 20
877.5000000000002
 30
0.0
  0
VERTEX
  5
542
330
4BA
100
AcDbEntity
  8
化粧台
  6
EXLTYPE2
 62
     6
100
AcDbVertex
100
AcDb2dVertex
 10
1567.5
 20
875.0
 30
0.0
  0
VERTEX
  5
543
330
4BA
100
AcDbEntity
  8
化粧台
  6
EXLTYPE2
 62
     6
100
AcDbVertex
100
AcDb2dVertex
 10
1571.0
 20
872.5
 30
0.0
  0
VERTEX
  5
544
330
4BA
100
AcDbEntity
  8
化粧台
  6
EXLTYPE2
 62
     6
100
AcDbVertex
100
AcDb2dVertex
 10
1567.5
 20
870.0000000000002
 30
0.0
  0
VERTEX
  5
545
330
4BA
100
AcDbEntity
  8
化粧台
  6
EXLTYPE2
 62
     6
100
AcDbVertex
100
AcDb2dVertex
 10
1571.0
 20
867.5
 30
0.0
  0
VERTEX
  5
546
330
4BA
100
AcDbEntity
  8
化粧台
  6
EXLTYPE2
 62
     6
100
AcDbVertex
100
AcDb2dVertex
 10
1567.5
 20
865.0
 30
0.0
  0
VERTEX
  5
547
330
4BA
100
AcDbEntity
  8
化粧台
  6
EXLTYPE2
 62
     6
100
AcDbVertex
100
AcDb2dVertex
 10
1571.0
 20
862.5000000000002
 30
0.0
  0
VERTEX
  5
548
330
4BA
100
AcDbEntity
  8
化粧台
  6
EXLTYPE2
 62
     6
100
AcDbVertex
100
AcDb2dVertex
 10
1567.5
 20
860.0
 30
0.0
  0
VERTEX
  5
549
330
4BA
100
AcDbEntity
  8
化粧台
  6
EXLTYPE2
 62
     6
100
AcDbVertex
100
AcDb2dVertex
 10
1571.0
 20
857.5
 30
0.0
  0
VERTEX
  5
54A
330
4BA
100
AcDbEntity
  8
化粧台
  6
EXLTYPE2
 62
     6
100
AcDbVertex
100
AcDb2dVertex
 10
1567.5
 20
855.0000000000002
 30
0.0
  0
VERTEX
  5
54B
330
4BA
100
AcDbEntity
  8
化粧台
  6
EXLTYPE2
 62
     6
100
AcDbVertex
100
AcDb2dVertex
 10
1571.0
 20
852.5
 30
0.0
  0
VERTEX
  5
54C
330
4BA
100
AcDbEntity
  8
化粧台
  6
EXLTYPE2
 62
     6
100
AcDbVertex
100
AcDb2dVertex
 10
1567.5
 20
850.0
 30
0.0
  0
VERTEX
  5
54D
330
4BA
100
AcDbEntity
  8
化粧台
  6
EXLTYPE2
 62
     6
100
AcDbVertex
100
AcDb2dVertex
 10
1571.0
 20
847.5000000000002
 30
0.0
  0
VERTEX
  5
54E
330
4BA
100
AcDbEntity
  8
化粧台
  6
EXLTYPE2
 62
     6
100
AcDbVertex
100
AcDb2dVertex
 10
1567.5
 20
845.0
 30
0.0
  0
VERTEX
  5
54F
330
4BA
100
AcDbEntity
  8
化粧台
  6
EXLTYPE2
 62
     6
100
AcDbVertex
100
AcDb2dVertex
 10
1571.0
 20
842.5
 30
0.0
  0
VERTEX
  5
550
330
4BA
100
AcDbEntity
  8
化粧台
  6
EXLTYPE2
 62
     6
100
AcDbVertex
100
AcDb2dVertex
 10
1567.5
 20
840.0000000000002
 30
0.0
  0
VERTEX
  5
551
330
4BA
100
AcDbEntity
  8
化粧台
  6
EXLTYPE2
 62
     6
100
AcDbVertex
100
AcDb2dVertex
 10
1571.0
 20
837.5
 30
0.0
  0
VERTEX
  5
552
330
4BA
100
AcDbEntity
  8
化粧台
  6
EXLTYPE2
 62
     6
100
AcDbVertex
100
AcDb2dVertex
 10
1567.5
 20
835.0
 30
0.0
  0
VERTEX
  5
553
330
4BA
100
AcDbEntity
  8
化粧台
  6
EXLTYPE2
 62
     6
100
AcDbVertex
100
AcDb2dVertex
 10
1571.0
 20
832.5000000000002
 30
0.0
  0
VERTEX
  5
554
330
4BA
100
AcDbEntity
  8
化粧台
  6
EXLTYPE2
 62
     6
100
AcDbVertex
100
AcDb2dVertex
 10
1567.5
 20
830.0
 30
0.0
  0
VERTEX
  5
555
330
4BA
100
AcDbEntity
  8
化粧台
  6
EXLTYPE2
 62
     6
100
AcDbVertex
100
AcDb2dVertex
 10
1571.0
 20
827.5
 30
0.0
  0
VERTEX
  5
556
330
4BA
100
AcDbEntity
  8
化粧台
  6
EXLTYPE2
 62
     6
100
AcDbVertex
100
AcDb2dVertex
 10
1567.5
 20
825.0000000000002
 30
0.0
  0
VERTEX
  5
557
330
4BA
100
AcDbEntity
  8
化粧台
  6
EXLTYPE2
 62
     6
100
AcDbVertex
100
AcDb2dVertex
 10
1571.0
 20
822.5
 30
0.0
  0
VERTEX
  5
558
330
4BA
100
AcDbEntity
  8
化粧台
  6
EXLTYPE2
 62
     6
100
AcDbVertex
100
AcDb2dVertex
 10
1567.5
 20
820.0
 30
0.0
  0
VERTEX
  5
559
330
4BA
100
AcDbEntity
  8
化粧台
  6
EXLTYPE2
 62
     6
100
AcDbVertex
100
AcDb2dVertex
 10
1571.0
 20
817.5000000000002
 30
0.0
  0
VERTEX
  5
55A
330
4BA
100
AcDbEntity
  8
化粧台
  6
EXLTYPE2
 62
     6
100
AcDbVertex
100
AcDb2dVertex
 10
1567.5
 20
815.0
 30
0.0
  0
VERTEX
  5
55B
330
4BA
100
AcDbEntity
  8
化粧台
  6
EXLTYPE2
 62
     6
100
AcDbVertex
100
AcDb2dVertex
 10
1571.0
 20
812.5
 30
0.0
  0
VERTEX
  5
55C
330
4BA
100
AcDbEntity
  8
化粧台
  6
EXLTYPE2
 62
     6
100
AcDbVertex
100
AcDb2dVertex
 10
1567.5
 20
810.0000000000002
 30
0.0
  0
VERTEX
  5
55D
330
4BA
100
AcDbEntity
  8
化粧台
  6
EXLTYPE2
 62
     6
100
AcDbVertex
100
AcDb2dVertex
 10
1571.0
 20
807.5
 30
0.0
  0
VERTEX
  5
55E
330
4BA
100
AcDbEntity
  8
化粧台
  6
EXLTYPE2
 62
     6
100
AcDbVertex
100
AcDb2dVertex
 10
1567.5
 20
805.0
 30
0.0
  0
VERTEX
  5
55F
330
4BA
100
AcDbEntity
  8
化粧台
  6
EXLTYPE2
 62
     6
100
AcDbVertex
100
AcDb2dVertex
 10
1571.0
 20
802.5000000000002
 30
0.0
  0
VERTEX
  5
560
330
4BA
100
AcDbEntity
  8
化粧台
  6
EXLTYPE2
 62
     6
100
AcDbVertex
100
AcDb2dVertex
 10
1567.5
 20
800.0
 30
0.0
  0
VERTEX
  5
561
330
4BA
100
AcDbEntity
  8
化粧台
  6
EXLTYPE2
 62
     6
100
AcDbVertex
100
AcDb2dVertex
 10
1571.0
 20
797.5
 30
0.0
  0
VERTEX
  5
562
330
4BA
100
AcDbEntity
  8
化粧台
  6
EXLTYPE2
 62
     6
100
AcDbVertex
100
AcDb2dVertex
 10
1567.5
 20
795.0000000000002
 30
0.0
  0
VERTEX
  5
563
330
4BA
100
AcDbEntity
  8
化粧台
  6
EXLTYPE2
 62
     6
100
AcDbVertex
100
AcDb2dVertex
 10
1571.0
 20
792.5
 30
0.0
  0
VERTEX
  5
564
330
4BA
100
AcDbEntity
  8
化粧台
  6
EXLTYPE2
 62
     6
100
AcDbVertex
100
AcDb2dVertex
 10
1567.5
 20
790.0
 30
0.0
  0
VERTEX
  5
565
330
4BA
100
AcDbEntity
  8
化粧台
  6
EXLTYPE2
 62
     6
100
AcDbVertex
100
AcDb2dVertex
 10
1571.0
 20
787.5000000000002
 30
0.0
  0
VERTEX
  5
566
330
4BA
100
AcDbEntity
  8
化粧台
  6
EXLTYPE2
 62
     6
100
AcDbVertex
100
AcDb2dVertex
 10
1567.5
 20
785.0
 30
0.0
  0
VERTEX
  5
567
330
4BA
100
AcDbEntity
  8
化粧台
  6
EXLTYPE2
 62
     6
100
AcDbVertex
100
AcDb2dVertex
 10
1569.15
 20
782.5
 30
0.0
  0
SEQEND
  5
568
330
4BA
100
AcDbEntity
  8
化粧台
  6
EXLTYPE2
 62
     6
  0
ARC
  5
569
330
1F
100
AcDbEntity
  8
化粧台
  6
CONTINUOUS
 62
     6
100
AcDbCircle
 10
1636.105879972376
 20
1145.49999999997
 30
0.0
 40
6.500000000000004
100
AcDbArc
 50
270.0000000000002
 51
318.8458299263298
  0
ARC
  5
56A
330
1F
100
AcDbEntity
  8
化粧台
  6
CONTINUOUS
 62
     6
100
AcDbCircle
 10
1636.105879972376
 20
1107.49999999997
 30
0.0
 40
6.500000000000004
100
AcDbArc
 50
41.15417007366715
 51
90.00000000000004
  0
LINE
  5
56B
330
1F
100
AcDbEntity
  8
化粧台
  6
CONTINUOUS
 62
     6
100
AcDbLine
 10
1646.57254079757
 20
1141.22243186431
 30
0.0
 11
1641.0
 21
1141.22243186431
 31
0.0
  0
LINE
  5
56C
330
1F
100
AcDbEntity
  8
化粧台
  6
CONTINUOUS
 62
     6
100
AcDbLine
 10
1646.57254079757
 20
1111.77756813563
 30
0.0
 11
1641.0
 21
1111.77756813563
 31
0.0
  0
ARC
  5
56D
330
1F
100
AcDbEntity
  8
化粧台
  6
CONTINUOUS
 62
     6
100
AcDbCircle
 10
1606.0
 20
1142.49999999997
 30
0.0
 40
3.500000000000003
100
AcDbArc
 50
270.0000000000002
 51
0.0
  0
LINE
  5
56E
330
1F
100
AcDbEntity
  8
化粧台
  6
CONTINUOUS
 62
     6
100
AcDbLine
 10
1634.0
 20
1138.99999999997
 30
0.0
 11
1636.105879972376
 21
1138.99999999997
 31
0.0
  0
LINE
  5
56F
330
1F
100
AcDbEntity
  8
化粧台
  6
CONTINUOUS
 62
     6
100
AcDbLine
 10
1592.6
 20
1121.19999999997
 30
0.0
 11
1592.6
 21
1131.79999999997
 31
0.0
  0
ARC
  5
570
330
1F
100
AcDbEntity
  8
化粧台
  6
CONTINUOUS
 62
     6
100
AcDbCircle
 10
1601.72508278236
 20
1117.74999999997
 30
0.0
 40
5.500000000000004
100
AcDbArc
 50
217.1876259392028
 51
313.3417582271962
  0
ARC
  5
571
330
1F
100
AcDbEntity
  8
化粧台
  6
CONTINUOUS
 62
     6
100
AcDbCircle
 10
1601.72508278236
 20
1135.24999999997
 30
0.0
 40
5.500000000000004
100
AcDbArc
 50
46.65824177280057
 51
142.8123740607991
  0
LINE
  5
572
330
1F
100
AcDbEntity
  8
化粧台
  6
CONTINUOUS
 62
     6
100
AcDbLine
 10
1605.5
 20
1138.99999999997
 30
0.0
 11
1606.0
 21
1138.99999999997
 31
0.0
  0
LINE
  5
573
330
1F
100
AcDbEntity
  8
化粧台
  6
CONTINUOUS
 62
     6
100
AcDbLine
 10
1609.5
 20
1142.49999999997
 30
0.0
 11
1609.5
 21
1149.19999999997
 31
0.0
  0
LINE
  5
574
330
1F
100
AcDbEntity
  8
化粧台
  6
CONTINUOUS
 62
     6
100
AcDbLine
 10
1630.5
 20
1142.49999999997
 30
0.0
 11
1630.5
 21
1149.19999999997
 31
0.0
  0
LINE
  5
575
330
1F
100
AcDbEntity
  8
化粧台
  6
CONTINUOUS
 62
     6
100
AcDbLine
 10
1587.0
 20
1131.24999999997
 30
0.0
 11
1592.6
 21
1131.24999999997
 31
0.0
  0
LINE
  5
576
330
1F
100
AcDbEntity
  8
化粧台
  6
CONTINUOUS
 62
     6
100
AcDbLine
 10
1587.0
 20
1121.74999999997
 30
0.0
 11
1592.6
 21
1121.74999999997
 31
0.0
  0
LINE
  5
577
330
1F
100
AcDbEntity
  8
化粧台
  6
CONTINUOUS
 62
     6
100
AcDbLine
 10
1587.0
 20
1131.24999999997
 30
0.0
 11
1587.0
 21
1121.74999999997
 31
0.0
  0
LINE
  5
578
330
1F
100
AcDbEntity
  8
化粧台
  6
EXLTYPE2
 62
     6
100
AcDbLine
 10
1605.5
 20
1113.99999999997
 30
0.0
 11
1636.10587997238
 21
1113.99999999997
 31
0.0
  0
LINE
  5
579
330
1F
100
AcDbEntity
  8
化粧台
  6
EXLTYPE2
 62
     6
100
AcDbLine
 10
1605.5
 20
1113.74999999997
 30
0.0
 11
1605.5
 21
1139.24999999997
 31
0.0
  0
LINE
  5
57A
330
1F
100
AcDbEntity
  8
化粧台
  6
EXLTYPE2
 62
     6
100
AcDbLine
 10
1592.6
 20
1131.79999999997
 30
0.0
 11
1597.34345017772
 21
1138.57434891636
 31
0.0
  0
LINE
  5
57B
330
1F
100
AcDbEntity
  8
化粧台
  6
EXLTYPE2
 62
     6
100
AcDbLine
 10
1592.6
 20
1121.19999999997
 30
0.0
 11
1597.34345017772
 21
1114.42565108358
 31
0.0
  0
LINE
  5
57C
330
1F
100
AcDbEntity
  8
化粧台
  6
EXLTYPE2
 62
     6
100
AcDbLine
 10
1609.03045554271
 20
1149.19999999997
 30
0.0
 11
1630.96954445729
 21
1149.19999999997
 31
0.0
  0
ARC
  5
57D
330
1F
100
AcDbEntity
  8
化粧台
  6
EXLTYPE2
 62
     6
100
AcDbCircle
 10
1618.25
 20
1155.19999999997
 30
0.0
 40
11.00000000000001
100
AcDbArc
 50
146.9442688490985
 51
213.0557311509037
  0
ARC
  5
57E
330
1F
100
AcDbEntity
  8
化粧台
  6
EXLTYPE2
 62
     6
100
AcDbCircle
 10
1621.750000000001
 20
1155.19999999997
 30
0.0
 40
11.00000000000001
100
AcDbArc
 50
326.9442688490985
 51
33.05573115085276
  0
LINE
  5
57F
330
1F
100
AcDbEntity
  8
化粧台
  6
EXLTYPE2
 62
     6
100
AcDbLine
 10
1597.34345017772
 20
1138.57434891636
 30
0.0
 11
1597.34345017772
 21
1114.425651083479
 31
0.0
  0
LINE
  5
580
330
1F
100
AcDbEntity
  8
化粧台
  6
EXLTYPE2
 62
     6
100
AcDbLine
 10
1609.03045554271
 20
1161.19999999997
 30
0.0
 11
1630.96954445729
 21
1161.19999999997
 31
0.0
  0
LINE
  5
581
330
1F
100
AcDbEntity
  8
化粧台
  6
CONTINUOUS
 62
     6
100
AcDbLine
 10
1705.0
 20
1115.99999999997
 30
0.0
 11
1713.0
 21
1115.99999999997
 31
0.0
  0
LINE
  5
582
330
1F
100
AcDbEntity
  8
化粧台
  6
CONTINUOUS
 62
     6
100
AcDbLine
 10
1713.0
 20
1136.99999999997
 30
0.0
 11
1713.0
 21
1115.99999999997
 31
0.0
  0
LINE
  5
583
330
1F
100
AcDbEntity
  8
化粧台
  6
CONTINUOUS
 62
     6
100
AcDbLine
 10
1705.0
 20
1136.99999999997
 30
0.0
 11
1713.0
 21
1136.99999999997
 31
0.0
  0
LINE
  5
584
330
1F
100
AcDbEntity
  8
化粧台
  6
EXLTYPE2
 62
     6
100
AcDbLine
 10
1648.000000000001
 20
1136.99999999997
 30
0.0
 11
1705.0
 21
1136.99999999997
 31
0.0
  0
LINE
  5
585
330
1F
100
AcDbEntity
  8
化粧台
  6
EXLTYPE2
 62
     6
100
AcDbLine
 10
1648.000000000001
 20
1115.99999999997
 30
0.0
 11
1705.0
 21
1115.99999999997
 31
0.0
  0
LINE
  5
586
330
1F
100
AcDbEntity
  8
化粧台
  6
EXLTYPE2
 62
     6
100
AcDbLine
 10
1648.000000000001
 20
1138.74999999997
 30
0.0
 11
1648.000000000001
 21
1114.24999999997
 31
0.0
  0
LINE
  5
587
330
1F
100
AcDbEntity
  8
化粧台
  6
CONTINUOUS
 62
     6
100
AcDbLine
 10
1648.0
 20
1138.74999999997
 30
0.0
 11
1646.572540797569
 21
1141.22243186431
 31
0.0
  0
LINE
  5
588
330
1F
100
AcDbEntity
  8
化粧台
  6
CONTINUOUS
 62
     6
100
AcDbLine
 10
1648.0
 20
1114.24999999997
 30
0.0
 11
1646.572540797569
 21
1111.77756813563
 31
0.0
  0
LINE
  5
589
330
1F
100
AcDbEntity
  8
化粧台
  6
EXLTYPE2
 62
     6
100
AcDbLine
 10
1569.15
 20
1212.5
 30
0.0
 11
1600.85
 21
1212.5
 31
0.0
  0
LINE
  5
58A
330
1F
100
AcDbEntity
  8
化粧台
  6
CONTINUOUS
 62
     6
100
AcDbLine
 10
1571.0
 20
1207.5
 30
0.0
 11
1585.0
 21
1207.5
 31
0.0
  0
LINE
  5
58B
330
1F
100
AcDbEntity
  8
化粧台
  6
CONTINUOUS
 62
     6
100
AcDbLine
 10
1585.0
 20
1202.5
 30
0.0
 11
1599.0
 21
1202.5
 31
0.0
  0
LINE
  5
58C
330
1F
100
AcDbEntity
  8
化粧台
  6
CONTINUOUS
 62
     6
100
AcDbLine
 10
1571.0
 20
1197.5
 30
0.0
 11
1585.0
 21
1197.5
 31
0.0
  0
LINE
  5
58D
330
1F
100
AcDbEntity
  8
化粧台
  6
CONTINUOUS
 62
     6
100
AcDbLine
 10
1585.0
 20
1192.5
 30
0.0
 11
1599.0
 21
1192.5
 31
0.0
  0
LINE
  5
58E
330
1F
100
AcDbEntity
  8
化粧台
  6
CONTINUOUS
 62
     6
100
AcDbLine
 10
1571.0
 20
1187.5
 30
0.0
 11
1585.0
 21
1187.5
 31
0.0
  0
LINE
  5
58F
330
1F
100
AcDbEntity
  8
化粧台
  6
CONTINUOUS
 62
     6
100
AcDbLine
 10
1585.0
 20
1182.5
 30
0.0
 11
1599.0
 21
1182.5
 31
0.0
  0
LINE
  5
590
330
1F
100
AcDbEntity
  8
化粧台
  6
CONTINUOUS
 62
     6
100
AcDbLine
 10
1571.0
 20
1177.5
 30
0.0
 11
1585.0
 21
1177.5
 31
0.0
  0
LINE
  5
591
330
1F
100
AcDbEntity
  8
化粧台
  6
CONTINUOUS
 62
     6
100
AcDbLine
 10
1585.0
 20
1172.5
 30
0.0
 11
1599.0
 21
1172.5
 31
0.0
  0
LINE
  5
592
330
1F
100
AcDbEntity
  8
化粧台
  6
CONTINUOUS
 62
     6
100
AcDbLine
 10
1571.0
 20
1167.5
 30
0.0
 11
1585.0
 21
1167.5
 31
0.0
  0
LINE
  5
593
330
1F
100
AcDbEntity
  8
化粧台
  6
CONTINUOUS
 62
     6
100
AcDbLine
 10
1585.0
 20
1162.5
 30
0.0
 11
1599.0
 21
1162.5
 31
0.0
  0
LINE
  5
594
330
1F
100
AcDbEntity
  8
化粧台
  6
CONTINUOUS
 62
     6
100
AcDbLine
 10
1571.0
 20
1157.5
 30
0.0
 11
1585.0
 21
1157.5
 31
0.0
  0
LINE
  5
595
330
1F
100
AcDbEntity
  8
化粧台
  6
CONTINUOUS
 62
     6
100
AcDbLine
 10
1585.0
 20
1152.5
 30
0.0
 11
1599.0
 21
1152.5
 31
0.0
  0
LINE
  5
596
330
1F
100
AcDbEntity
  8
化粧台
  6
CONTINUOUS
 62
     6
100
AcDbLine
 10
1571.0
 20
1147.5
 30
0.0
 11
1585.0
 21
1147.5
 31
0.0
  0
LINE
  5
597
330
1F
100
AcDbEntity
  8
化粧台
  6
CONTINUOUS
 62
     6
100
AcDbLine
 10
1585.0
 20
1142.5
 30
0.0
 11
1599.0
 21
1142.5
 31
0.0
  0
LINE
  5
598
330
1F
100
AcDbEntity
  8
化粧台
  6
CONTINUOUS
 62
     6
100
AcDbLine
 10
1571.0
 20
1137.5
 30
0.0
 11
1585.0
 21
1137.5
 31
0.0
  0
LINE
  5
599
330
1F
100
AcDbEntity
  8
化粧台
  6
CONTINUOUS
 62
     6
100
AcDbLine
 10
1585.0
 20
1132.5
 30
0.0
 11
1599.0
 21
1132.5
 31
0.0
  0
LINE
  5
59A
330
1F
100
AcDbEntity
  8
化粧台
  6
CONTINUOUS
 62
     6
100
AcDbLine
 10
1571.0
 20
1127.5
 30
0.0
 11
1585.0
 21
1127.5
 31
0.0
  0
LINE
  5
59B
330
1F
100
AcDbEntity
  8
化粧台
  6
CONTINUOUS
 62
     6
100
AcDbLine
 10
1585.0
 20
1122.5
 30
0.0
 11
1599.0
 21
1122.5
 31
0.0
  0
LINE
  5
59C
330
1F
100
AcDbEntity
  8
化粧台
  6
CONTINUOUS
 62
     6
100
AcDbLine
 10
1571.0
 20
1117.5
 30
0.0
 11
1585.0
 21
1117.5
 31
0.0
  0
LINE
  5
59D
330
1F
100
AcDbEntity
  8
化粧台
  6
CONTINUOUS
 62
     6
100
AcDbLine
 10
1585.0
 20
1112.5
 30
0.0
 11
1599.0
 21
1112.5
 31
0.0
  0
LINE
  5
59E
330
1F
100
AcDbEntity
  8
化粧台
  6
CONTINUOUS
 62
     6
100
AcDbLine
 10
1571.0
 20
1107.5
 30
0.0
 11
1585.0
 21
1107.5
 31
0.0
  0
LINE
  5
59F
330
1F
100
AcDbEntity
  8
化粧台
  6
CONTINUOUS
 62
     6
100
AcDbLine
 10
1585.0
 20
1102.5
 30
0.0
 11
1599.0
 21
1102.5
 31
0.0
  0
LINE
  5
5A0
330
1F
100
AcDbEntity
  8
化粧台
  6
CONTINUOUS
 62
     6
100
AcDbLine
 10
1571.0
 20
1097.5
 30
0.0
 11
1585.0
 21
1097.5
 31
0.0
  0
LINE
  5
5A1
330
1F
100
AcDbEntity
  8
化粧台
  6
CONTINUOUS
 62
     6
100
AcDbLine
 10
1585.0
 20
1092.5
 30
0.0
 11
1599.0
 21
1092.5
 31
0.0
  0
LINE
  5
5A2
330
1F
100
AcDbEntity
  8
化粧台
  6
CONTINUOUS
 62
     6
100
AcDbLine
 10
1571.0
 20
1087.5
 30
0.0
 11
1585.0
 21
1087.5
 31
0.0
  0
LINE
  5
5A3
330
1F
100
AcDbEntity
  8
化粧台
  6
CONTINUOUS
 62
     6
100
AcDbLine
 10
1585.0
 20
1082.5
 30
0.0
 11
1599.0
 21
1082.5
 31
0.0
  0
LINE
  5
5A4
330
1F
100
AcDbEntity
  8
化粧台
  6
CONTINUOUS
 62
     6
100
AcDbLine
 10
1571.0
 20
1077.5
 30
0.0
 11
1585.0
 21
1077.5
 31
0.0
  0
LINE
  5
5A5
330
1F
100
AcDbEntity
  8
化粧台
  6
CONTINUOUS
 62
     6
100
AcDbLine
 10
1585.0
 20
1072.5
 30
0.0
 11
1599.0
 21
1072.5
 31
0.0
  0
LINE
  5
5A6
330
1F
100
AcDbEntity
  8
化粧台
  6
CONTINUOUS
 62
     6
100
AcDbLine
 10
1571.0
 20
1067.5
 30
0.0
 11
1585.0
 21
1067.5
 31
0.0
  0
LINE
  5
5A7
330
1F
100
AcDbEntity
  8
化粧台
  6
CONTINUOUS
 62
     6
100
AcDbLine
 10
1585.0
 20
1062.5
 30
0.0
 11
1599.0
 21
1062.5
 31
0.0
  0
LINE
  5
5A8
330
1F
100
AcDbEntity
  8
化粧台
  6
CONTINUOUS
 62
     6
100
AcDbLine
 10
1571.0
 20
1057.5
 30
0.0
 11
1585.0
 21
1057.5
 31
0.0
  0
LINE
  5
5A9
330
1F
100
AcDbEntity
  8
化粧台
  6
CONTINUOUS
 62
     6
100
AcDbLine
 10
1585.0
 20
1052.5
 30
0.0
 11
1599.0
 21
1052.5
 31
0.0
  0
LINE
  5
5AA
330
1F
100
AcDbEntity
  8
化粧台
  6
CONTINUOUS
 62
     6
100
AcDbLine
 10
1571.0
 20
1047.5
 30
0.0
 11
1585.0
 21
1047.5
 31
0.0
  0
LINE
  5
5AB
330
1F
100
AcDbEntity
  8
化粧台
  6
CONTINUOUS
 62
     6
100
AcDbLine
 10
1585.0
 20
1042.5
 30
0.0
 11
1599.0
 21
1042.5
 31
0.0
  0
LINE
  5
5AC
330
1F
100
AcDbEntity
  8
化粧台
  6
CONTINUOUS
 62
     6
100
AcDbLine
 10
1571.0
 20
1037.5
 30
0.0
 11
1585.0
 21
1037.5
 31
0.0
  0
LINE
  5
5AD
330
1F
100
AcDbEntity
  8
化粧台
  6
CONTINUOUS
 62
     6
100
AcDbLine
 10
1585.0
 20
1032.5
 30
0.0
 11
1599.0
 21
1032.5
 31
0.0
  0
LINE
  5
5AE
330
1F
100
AcDbEntity
  8
化粧台
  6
EXLTYPE2
 62
     6
100
AcDbLine
 10
1569.15
 20
1240.328125
 30
0.0
 11
1569.15
 21
1212.5
 31
0.0
  0
LINE
  5
5AF
330
1F
100
AcDbEntity
  8
化粧台
  6
EXLTYPE2
 62
     6
100
AcDbLine
 10
1600.85
 20
1212.5
 30
0.0
 11
1600.85
 21
1241.0
 31
0.0
  0
LINE
  5
5B0
330
1F
100
AcDbEntity
  8
化粧台
  6
EXLTYPE2
 62
     6
100
AcDbLine
 10
1626.350000000001
 20
1161.19999999997
 30
0.0
 11
1626.350000000001
 21
1293.951280605346
 31
0.0
  0
LINE
  5
5B1
330
1F
100
AcDbEntity
  8
化粧台
  6
EXLTYPE2
 62
     6
100
AcDbLine
 10
1613.650000000001
 20
1161.19999999997
 30
0.0
 11
1613.650000000001
 21
1293.048719394655
 31
0.0
  0
LINE
  5
5B2
330
1F
100
AcDbEntity
  8
化粧台
  6
EXLTYPE3
 62
     6
100
AcDbLine
 10
1572.0
 20
1126.49999999997
 30
0.0
 11
1728.0
 21
1126.49999999997
 31
0.0
  0
LINE
  5
5B3
330
1F
100
AcDbEntity
  8
化粧台
  6
EXLTYPE2
 62
     6
100
AcDbLine
 10
1612.239257174381
 20
1392.726480384681
 30
0.0
 11
1626.350000000001
 21
1293.951280605346
 31
0.0
  0
LINE
  5
5B4
330
1F
100
AcDbEntity
  8
化粧台
  6
EXLTYPE2
 62
     6
100
AcDbLine
 10
1599.922538550768
 20
1389.140949539286
 30
0.0
 11
1613.650000000001
 21
1293.048719394655
 31
0.0
  0
LINE
  5
5B5
330
1F
100
AcDbEntity
  8
化粧台
  6
EXLTYPE3
 62
     6
100
AcDbLine
 10
1585.0
 20
923.9999999999955
 30
0.0
 11
1585.0
 21
669.33333277702
 31
0.0
  0
TEXT
  5
5B6
330
1F
100
AcDbEntity
  8
化粧台
  6
CONTINUOUS
 62
     2
100
AcDbText
 10
1135.000000357627
 20
2484.0
 30
0.0
 40
40.0
  1
W.L.
 41
0.5571963157894734
  7
EXCADSTD
 72
     5
 11
1195.495600357627
 21
2484.0
 31
0.0
100
AcDbText
  0
LINE
  5
5B7
330
1F
100
AcDbEntity
  8
化粧台
  6
EXLTYPE4
 62
     6
100
AcDbLine
 10
892.9999999999999
 20
2524.0
 30
0.0
 11
1200.0
 21
2524.0
 31
0.0
  0
LINE
  5
5B8
330
1F
100
AcDbEntity
  8
化粧台
  6
CONTINUOUS
 62
     6
100
AcDbLine
 10
685.0000000000002
 20
2323.999999999999
 30
0.0
 11
601.0
 21
2323.999999999999
 31
0.0
  0
CIRCLE
  5
5B9
330
1F
100
AcDbEntity
  8
化粧台
  6
CONTINUOUS
 62
     2
100
AcDbCircle
 10
642.9999999999999
 20
2323.75
 30
0.0
 40
3.000000000000003
  0
CIRCLE
  5
5BA
330
1F
100
AcDbEntity
  8
化粧台
  6
CONTINUOUS
 62
     6
100
AcDbCircle
 10
635.9999999999994
 20
2323.999999999999
 30
0.0
 40
7.000000000000004
  0
CIRCLE
  5
5BB
330
1F
100
AcDbEntity
  8
化粧台
  6
CONTINUOUS
 62
     6
100
AcDbCircle
 10
624.9999999999992
 20
2326.356584999999
 30
0.0
 40
3.000000000000003
  0
LINE
  5
5BC
330
1F
100
AcDbEntity
  8
化粧台
  6
CONTINUOUS
 62
     6
100
AcDbLine
 10
694.0000000000001
 20
2399.0
 30
0.0
 11
694.0000000000001
 21
2489.0
 31
0.0
  0
LINE
  5
5BD
330
1F
100
AcDbEntity
  8
化粧台
  6
CONTINUOUS
 62
     6
100
AcDbLine
 10
739.0000000000001
 20
2444.0
 30
0.0
 11
648.9999999999995
 21
2444.0
 31
0.0
  0
CIRCLE
  5
5BE
330
1F
100
AcDbEntity
  8
化粧台
  6
CONTINUOUS
 62
     6
100
AcDbCircle
 10
617.7999999999998
 20
2330.256584999999
 30
0.0
 40
3.000000000000003
  0
CIRCLE
  5
5BF
330
1F
100
AcDbEntity
  8
化粧台
  6
CONTINUOUS
 62
     6
100
AcDbCircle
 10
611.5999999999999
 20
2335.499999999999
 30
0.0
 40
3.000000000000003
  0
CIRCLE
  5
5C0
330
1F
100
AcDbEntity
  8
化粧台
  6
CONTINUOUS
 62
     6
100
AcDbCircle
 10
606.1
 20
2342.799999999999
 30
0.0
 40
3.000000000000003
  0
CIRCLE
  5
5C1
330
1F
100
AcDbEntity
  8
化粧台
  6
CONTINUOUS
 62
     6
100
AcDbCircle
 10
602.7999999999998
 20
2350.099999999999
 30
0.0
 40
3.000000000000003
  0
CIRCLE
  5
5C2
330
1F
100
AcDbEntity
  8
化粧台
  6
CONTINUOUS
 62
     6
100
AcDbCircle
 10
601.5000000000001
 20
2357.499999999999
 30
0.0
 40
3.000000000000003
  0
LINE
  5
5C3
330
1F
100
AcDbEntity
  8
化粧台
  6
CONTINUOUS
 62
     2
100
AcDbLine
 10
702.5000418423999
 20
2364.2060165135
 30
0.0
 11
702.5000608672
 21
2392.7328201302
 31
0.0
  0
LINE
  5
5C4
330
1F
100
AcDbEntity
  8
化粧台
  6
CONTINUOUS
 62
     2
100
AcDbLine
 10
684.749831495
 20
2366.1904855129
 30
0.0
 11
684.7498972788
 21
2387.2816271673
 31
0.0
  0
ARC
  5
5C5
330
1F
100
AcDbEntity
  8
化粧台
  6
CONTINUOUS
 62
     2
100
AcDbCircle
 10
450.50013024534
 20
2392.7319097414
 30
0.0
 40
235.0000000000001
100
AcDbArc
 50
359.9999584318001
 51
6.813350806729924
  0
ARC
  5
5C6
330
1F
100
AcDbEntity
  8
化粧台
  6
CONTINUOUS
 62
     2
100
AcDbCircle
 10
549.74996990593
 20
2387.2817018015
 30
0.0
 40
134.9999237
100
AcDbArc
 50
359.9999755918005
 51
15.19563774250967
  0
ARC
  5
5C7
330
1F
100
AcDbEntity
  8
化粧台
  6
CONTINUOUS
 62
     2
100
AcDbCircle
 10
838.2501731689001
 20
2387.2823591346
 30
0.0
 40
135.0000954
100
AcDbArc
 50
164.8047458885002
 51
179.9999870418001
  0
ARC
  5
5C8
330
1F
100
AcDbEntity
  8
化粧台
  6
CONTINUOUS
 62
     2
100
AcDbCircle
 10
937.4998697547
 20
2392.7319097414
 30
0.0
 40
235.0000000000001
100
AcDbArc
 50
173.1866491933
 51
180.0000415682
  0
ARC
  5
5C9
330
1F
100
AcDbEntity
  8
化粧台
  6
CONTINUOUS
 62
     2
100
AcDbCircle
 10
726.7267997743998
 20
2462.8948266595
 30
0.0
 40
15.00000000000001
100
AcDbArc
 50
192.3751411436001
 51
227.6248588564002
  0
ARC
  5
5CA
330
1F
100
AcDbEntity
  8
化粧台
  6
CONTINUOUS
 62
     2
100
AcDbCircle
 10
717.935911594
 20
2460.9660226262
 30
0.0
 40
6.000000000000006
100
AcDbArc
 50
169.7738808536014
 51
192.3751411435995
  0
ARC
  5
5CB
330
1F
100
AcDbEntity
  8
化粧台
  6
CONTINUOUS
 62
     2
100
AcDbCircle
 10
720.6609623924999
 20
2456.24609619
 30
0.0
 40
6.000000000000006
100
AcDbArc
 50
227.6248588564022
 51
250.2261191464023
  0
ARC
  5
5CC
330
1F
100
AcDbEntity
  8
化粧台
  6
CONTINUOUS
 62
     2
100
AcDbCircle
 10
693.9999999999999
 20
2478.9794987695
 30
0.0
 40
15.00000000000001
100
AcDbArc
 50
265.1502572786007
 51
274.8497427214005
  0
ARC
  5
5CD
330
1F
100
AcDbEntity
  8
化粧台
  6
CONTINUOUS
 62
     2
100
AcDbCircle
 10
693.9999999999999
 20
2481.789653319
 30
0.0
 40
15.00000000000001
100
AcDbArc
 50
252.3751411436
 51
287.6248588564014
  0
ARC
  5
5CE
330
1F
100
AcDbEntity
  8
化粧台
  6
CONTINUOUS
 62
     2
100
AcDbCircle
 10
691.2749492014999
 20
2473.2121188163
 30
0.0
 40
6.000000000000006
100
AcDbArc
 50
229.7738808535975
 51
252.3751411436007
  0
ARC
  5
5CF
330
1F
100
AcDbEntity
  8
化粧台
  6
CONTINUOUS
 62
     2
100
AcDbCircle
 10
696.7250507984998
 20
2473.2121188163
 30
0.0
 40
6.000000000000006
100
AcDbArc
 50
287.6248588564016
 51
310.2261191464038
  0
ARC
  5
5D0
330
1F
100
AcDbEntity
  8
化粧台
  6
CONTINUOUS
 62
     2
100
AcDbCircle
 10
694.7608864703001
 20
2470.0117202386
 30
0.0
 40
6.000000000000006
100
AcDbArc
 50
274.8497427213987
 51
346.6969262699013
  0
ARC
  5
5D1
330
1F
100
AcDbEntity
  8
化粧台
  6
CONTINUOUS
 62
     2
100
AcDbCircle
 10
693.2391135296999
 20
2470.0117202386
 30
0.0
 40
6.000000000000006
100
AcDbArc
 50
193.303073730099
 51
265.1502572785984
  0
ARC
  5
5D2
330
1F
100
AcDbEntity
  8
化粧台
  6
CONTINUOUS
 62
     2
100
AcDbCircle
 10
663.706865454
 20
2461.4897493847
 30
0.0
 40
15.00000000000001
100
AcDbArc
 50
325.1502572785988
 51
334.8497427213998
  0
ARC
  5
5D3
330
1F
100
AcDbEntity
  8
化粧台
  6
CONTINUOUS
 62
     2
100
AcDbCircle
 10
661.2732002255999
 20
2462.8948266595
 30
0.0
 40
15.00000000000001
100
AcDbArc
 50
312.3751411436014
 51
347.6248588564002
  0
ARC
  5
5D4
330
1F
100
AcDbEntity
  8
化粧台
  6
CONTINUOUS
 62
     2
100
AcDbCircle
 10
667.3390376074998
 20
2456.24609619
 30
0.0
 40
6.000000000000006
100
AcDbArc
 50
289.7738808536018
 51
312.3751411435987
  0
ARC
  5
5D5
330
1F
100
AcDbEntity
  8
化粧台
  6
CONTINUOUS
 62
     2
100
AcDbCircle
 10
670.064088406
 20
2460.9660226262
 30
0.0
 40
6.000000000000006
100
AcDbArc
 50
347.6248588564002
 51
10.2261191463902
  0
ARC
  5
5D6
330
1F
100
AcDbEntity
  8
化粧台
  6
CONTINUOUS
 62
     2
100
AcDbCircle
 10
671.8536327123999
 20
2457.664807132
 30
0.0
 40
6.000000000000006
100
AcDbArc
 50
334.8497427214024
 51
46.6969262699421
  0
ARC
  5
5D7
330
1F
100
AcDbEntity
  8
化粧台
  6
CONTINUOUS
 62
     2
100
AcDbCircle
 10
671.0927462421
 20
2456.3469131066
 30
0.0
 40
6.000000000000006
100
AcDbArc
 50
253.3030737301007
 51
325.1502572785973
  0
ARC
  5
5D8
330
1F
100
AcDbEntity
  8
化粧台
  6
CONTINUOUS
 62
     2
100
AcDbCircle
 10
663.706865454
 20
2426.5102506153
 30
0.0
 40
15.00000000000001
100
AcDbArc
 50
25.15025727856947
 51
34.84974272142046
  0
ARC
  5
5D9
330
1F
100
AcDbEntity
  8
化粧台
  6
CONTINUOUS
 62
     2
100
AcDbCircle
 10
661.2732002255999
 20
2425.1051733405
 30
0.0
 40
15.00000000000001
100
AcDbArc
 50
12.37514114358909
 51
47.62485885640962
  0
ARC
  5
5DA
330
1F
100
AcDbEntity
  8
化粧台
  6
CONTINUOUS
 62
     2
100
AcDbCircle
 10
670.064088406
 20
2427.0339773738
 30
0.0
 40
6.000000000000006
100
AcDbArc
 50
349.7738808536014
 51
12.37514114359551
  0
ARC
  5
5DB
330
1F
100
AcDbEntity
  8
化粧台
  6
CONTINUOUS
 62
     2
100
AcDbCircle
 10
667.3390376074998
 20
2431.753903809999
 30
0.0
 40
6.000000000000006
100
AcDbArc
 50
47.62485885641065
 51
70.22611914638817
  0
ARC
  5
5DC
330
1F
100
AcDbEntity
  8
化粧台
  6
CONTINUOUS
 62
     2
100
AcDbCircle
 10
671.0927462421
 20
2431.6530868934
 30
0.0
 40
6.000000000000006
100
AcDbArc
 50
34.84974272142046
 51
106.6969262698993
  0
ARC
  5
5DD
330
1F
100
AcDbEntity
  8
化粧台
  6
CONTINUOUS
 62
     2
100
AcDbCircle
 10
671.8536327123999
 20
2430.335192867999
 30
0.0
 40
6.000000000000006
100
AcDbArc
 50
313.3030737301017
 51
25.15025727857378
  0
ARC
  5
5DE
330
1F
100
AcDbEntity
  8
化粧台
  6
CONTINUOUS
 62
     2
100
AcDbCircle
 10
693.9999999999999
 20
2409.0205012305
 30
0.0
 40
15.00000000000001
100
AcDbArc
 50
85.15025727856984
 51
94.84974272141906
  0
ARC
  5
5DF
330
1F
100
AcDbEntity
  8
化粧台
  6
CONTINUOUS
 62
     2
100
AcDbCircle
 10
693.9999999999999
 20
2406.210346681
 30
0.0
 40
15.00000000000001
100
AcDbArc
 50
72.3751411435894
 51
107.6248588564
  0
ARC
  5
5E0
330
1F
100
AcDbEntity
  8
化粧台
  6
CONTINUOUS
 62
     2
100
AcDbCircle
 10
696.7250507984998
 20
2414.7878811837
 30
0.0
 40
6.000000000000006
100
AcDbArc
 50
49.77388085360879
 51
72.37514114358883
  0
ARC
  5
5E1
330
1F
100
AcDbEntity
  8
化粧台
  6
CONTINUOUS
 62
     2
100
AcDbCircle
 10
691.2749492014999
 20
2414.7878811837
 30
0.0
 40
6.000000000000006
100
AcDbArc
 50
107.6248588563995
 51
130.2261191464027
  0
ARC
  5
5E2
330
1F
100
AcDbEntity
  8
化粧台
  6
CONTINUOUS
 62
     2
100
AcDbCircle
 10
693.2391135296999
 20
2417.9882797614
 30
0.0
 40
6.000000000000006
100
AcDbArc
 50
94.84974272141996
 51
166.6969262699019
  0
ARC
  5
5E3
330
1F
100
AcDbEntity
  8
化粧台
  6
CONTINUOUS
 62
     2
100
AcDbCircle
 10
694.7608864703001
 20
2417.9882797614
 30
0.0
 40
6.000000000000006
100
AcDbArc
 50
13.30307373006262
 51
85.15025727857241
  0
ARC
  5
5E4
330
1F
100
AcDbEntity
  8
化粧台
  6
CONTINUOUS
 62
     2
100
AcDbCircle
 10
724.293134546
 20
2426.5102506153
 30
0.0
 40
15.00000000000001
100
AcDbArc
 50
145.1502572786005
 51
154.8497427213999
  0
ARC
  5
5E5
330
1F
100
AcDbEntity
  8
化粧台
  6
CONTINUOUS
 62
     2
100
AcDbCircle
 10
726.7267997743998
 20
2425.1051733405
 30
0.0
 40
15.00000000000001
100
AcDbArc
 50
132.3751411435986
 51
167.6248588564
  0
ARC
  5
5E6
330
1F
100
AcDbEntity
  8
化粧台
  6
CONTINUOUS
 62
     2
100
AcDbCircle
 10
720.6609623924999
 20
2431.753903809999
 30
0.0
 40
6.000000000000006
100
AcDbArc
 50
109.7738808535977
 51
132.3751411435979
  0
ARC
  5
5E7
330
1F
100
AcDbEntity
  8
化粧台
  6
CONTINUOUS
 62
     2
100
AcDbCircle
 10
717.935911594
 20
2427.0339773738
 30
0.0
 40
6.000000000000006
100
AcDbArc
 50
167.6248588564005
 51
190.2261191463986
  0
ARC
  5
5E8
330
1F
100
AcDbEntity
  8
化粧台
  6
CONTINUOUS
 62
     2
100
AcDbCircle
 10
716.1463672875999
 20
2430.335192867999
 30
0.0
 40
6.000000000000006
100
AcDbArc
 50
154.8497427213975
 51
226.6969262698991
  0
ARC
  5
5E9
330
1F
100
AcDbEntity
  8
化粧台
  6
CONTINUOUS
 62
     2
100
AcDbCircle
 10
716.9072537578999
 20
2431.6530868934
 30
0.0
 40
6.000000000000006
100
AcDbArc
 50
73.30307373005954
 51
145.1502572786012
  0
ARC
  5
5EA
330
1F
100
AcDbEntity
  8
化粧台
  6
CONTINUOUS
 62
     2
100
AcDbCircle
 10
724.293134546
 20
2461.4897493847
 30
0.0
 40
15.00000000000001
100
AcDbArc
 50
205.1502572786
 51
214.849742721401
  0
ARC
  5
5EB
330
1F
100
AcDbEntity
  8
化粧台
  6
CONTINUOUS
 62
     2
100
AcDbCircle
 10
726.7267997743998
 20
2462.8948266595
 30
0.0
 40
15.00000000000001
100
AcDbArc
 50
192.3751411436001
 51
227.6248588564002
  0
ARC
  5
5EC
330
1F
100
AcDbEntity
  8
化粧台
  6
CONTINUOUS
 62
     2
100
AcDbCircle
 10
717.935911594
 20
2460.9660226262
 30
0.0
 40
6.000000000000006
100
AcDbArc
 50
169.7738808536014
 51
192.3751411435995
  0
ARC
  5
5ED
330
1F
100
AcDbEntity
  8
化粧台
  6
CONTINUOUS
 62
     2
100
AcDbCircle
 10
720.6609623924999
 20
2456.24609619
 30
0.0
 40
6.000000000000006
100
AcDbArc
 50
227.6248588564022
 51
250.2261191464023
  0
ARC
  5
5EE
330
1F
100
AcDbEntity
  8
化粧台
  6
CONTINUOUS
 62
     2
100
AcDbCircle
 10
716.9072537578999
 20
2456.3469131066
 30
0.0
 40
6.000000000000006
100
AcDbArc
 50
214.8497427214031
 51
286.6969262698993
  0
ARC
  5
5EF
330
1F
100
AcDbEntity
  8
化粧台
  6
CONTINUOUS
 62
     2
100
AcDbCircle
 10
716.1463672875999
 20
2457.664807132
 30
0.0
 40
6.000000000000006
100
AcDbArc
 50
133.3030737300979
 51
205.1502572785986
  0
ARC
  5
5F0
330
1F
100
AcDbEntity
  8
化粧台
  6
CONTINUOUS
 62
     2
100
AcDbCircle
 10
693.9999999999999
 20
2444.0
 30
0.0
 40
25.50000000000002
100
AcDbArc
 50
104.9999999999994
 51
135.0000000000003
  0
ARC
  5
5F1
330
1F
100
AcDbEntity
  8
化粧台
  6
CONTINUOUS
 62
     2
100
AcDbCircle
 10
693.9999999999999
 20
2444.0
 30
0.0
 40
25.50000000000002
100
AcDbArc
 50
164.9999999999992
 51
194.9999999999997
  0
ARC
  5
5F2
330
1F
100
AcDbEntity
  8
化粧台
  6
CONTINUOUS
 62
     2
100
AcDbCircle
 10
693.9999999999999
 20
2444.0
 30
0.0
 40
25.50000000000002
100
AcDbArc
 50
225.0000000000003
 51
255.0000000000006
  0
ARC
  5
5F3
330
1F
100
AcDbEntity
  8
化粧台
  6
CONTINUOUS
 62
     2
100
AcDbCircle
 10
693.9999999999999
 20
2444.0
 30
0.0
 40
25.50000000000002
100
AcDbArc
 50
285.0000000000015
 51
315.0000000000011
  0
ARC
  5
5F4
330
1F
100
AcDbEntity
  8
化粧台
  6
CONTINUOUS
 62
     2
100
AcDbCircle
 10
693.9999999999999
 20
2444.0
 30
0.0
 40
25.50000000000002
100
AcDbArc
 50
345.0000000000013
 51
15.00000000000072
  0
ARC
  5
5F5
330
1F
100
AcDbEntity
  8
化粧台
  6
CONTINUOUS
 62
     2
100
AcDbCircle
 10
693.9999999999999
 20
2444.0
 30
0.0
 40
25.50000000000002
100
AcDbArc
 50
45.00000000000067
 51
74.99999999999989
  0
CIRCLE
  5
5F6
330
1F
100
AcDbEntity
  8
化粧台
  6
CONTINUOUS
 62
     2
100
AcDbCircle
 10
693.9999999999999
 20
2444.0
 30
0.0
 40
13.00000000000001
  0
ARC
  5
5F7
330
1F
100
AcDbEntity
  8
化粧台
  6
CONTINUOUS
 62
     2
100
AcDbCircle
 10
716.1463672875999
 20
2457.664807132
 30
0.0
 40
6.000000000000006
100
AcDbArc
 50
133.3030737300979
 51
205.1502572785986
  0
ARC
  5
5F8
330
1F
100
AcDbEntity
  8
化粧台
  6
CONTINUOUS
 62
     2
100
AcDbCircle
 10
724.293134546
 20
2461.4897493847
 30
0.0
 40
15.00000000000001
100
AcDbArc
 50
205.1502572786
 51
214.849742721401
  0
ARC
  5
5F9
330
1F
100
AcDbEntity
  8
化粧台
  6
CONTINUOUS
 62
     2
100
AcDbCircle
 10
716.9072537578999
 20
2456.3469131066
 30
0.0
 40
6.000000000000006
100
AcDbArc
 50
214.8497427214031
 51
286.6969262698993
  0
LINE
  5
5FA
330
1F
100
AcDbEntity
  8
化粧台
  6
CONTINUOUS
 62
     2
100
AcDbLine
 10
703.2502368598318
 20
2375.172033368899
 30
0.0
 11
703.2502458925999
 21
2387.2824337947
 31
0.0
  0
LINE
  5
5FB
330
1F
100
AcDbEntity
  8
化粧台
  6
CONTINUOUS
 62
     2
100
AcDbLine
 10
685.5000091770999
 20
2364.206129372099
 30
0.0
 11
685.5000494370998
 21
2392.7316749174
 31
0.0
  0
ARC
  5
5FC
330
1F
100
AcDbEntity
  8
化粧台
  6
CONTINUOUS
 62
     2
100
AcDbCircle
 10
687.7498266877001
 20
2366.1905742572
 30
0.0
 40
2.999995900000003
100
AcDbArc
 50
180.0017265417995
 51
248.4272636517985
  0
ARC
  5
5FD
330
1F
100
AcDbEntity
  8
化粧台
  6
CONTINUOUS
 62
     2
100
AcDbCircle
 10
693.9999999999999
 20
2381.9998705705
 30
0.0
 40
20.0000286
100
AcDbArc
 50
248.4285148718007
 51
291.5713676518009
  0
LINE
  5
5FE
330
1F
100
AcDbEntity
  8
化粧台
  6
CONTINUOUS
 62
     2
100
AcDbLine
 10
703.2502301607999
 20
2366.1905157397
 30
0.0
 11
703.2502368598318
 21
2375.172033368899
 31
0.0
  0
ARC
  5
5FF
330
1F
100
AcDbEntity
  8
化粧台
  6
CONTINUOUS
 62
     2
100
AcDbCircle
 10
700.2501954983999
 20
2366.190574299199
 30
0.0
 40
3.0000561
100
AcDbArc
 50
291.5711998118039
 51
359.9988884018023
  0
CIRCLE
  5
600
330
1F
100
AcDbEntity
  8
化粧台
  6
CONTINUOUS
 62
     2
100
AcDbCircle
 10
592.0000000000001
 20
2444.0
 30
0.0
 40
19.0
  0
CIRCLE
  5
601
330
1F
100
AcDbEntity
  8
化粧台
  6
CONTINUOUS
 62
     2
100
AcDbCircle
 10
591.9999999999999
 20
2444.0
 30
0.0
 40
7.000000000000006
  0
CIRCLE
  5
602
330
1F
100
AcDbEntity
  8
化粧台
  6
CONTINUOUS
 62
     2
100
AcDbCircle
 10
591.9999999999999
 20
2444.0
 30
0.0
 40
5.0
  0
ELLIPSE
  5
603
330
1F
100
AcDbEntity
  8
化粧台
  6
CONTINUOUS
 62
     2
100
AcDbEllipse
 10
591.9999999999999
 20
2440.0
 30
0.0
 11
7.99999999999998
 21
0.0
 31
0.0
210
0.0
220
0.0
230
1.0
 40
0.5
 41
2.234360434708152
 42
7.19041752606126
  0
CIRCLE
  5
604
330
1F
100
AcDbEntity
  8
化粧台
  6
CONTINUOUS
 62
     6
100
AcDbCircle
 10
606.1
 20
2375.299999999999
 30
0.0
 40
3.000000000000003
  0
CIRCLE
  5
605
330
1F
100
AcDbEntity
  8
化粧台
  6
CONTINUOUS
 62
     6
100
AcDbCircle
 10
608.6
 20
2382.599999999999
 30
0.0
 40
3.000000000000003
  0
CIRCLE
  5
606
330
1F
100
AcDbEntity
  8
化粧台
  6
CONTINUOUS
 62
     6
100
AcDbCircle
 10
607.1
 20
2390.999999999999
 30
0.0
 40
3.000000000000003
  0
CIRCLE
  5
607
330
1F
100
AcDbEntity
  8
化粧台
  6
CONTINUOUS
 62
     6
100
AcDbCircle
 10
603.4
 20
2398.999999999999
 30
0.0
 40
3.000000000000003
  0
CIRCLE
  5
608
330
1F
100
AcDbEntity
  8
化粧台
  6
CONTINUOUS
 62
     6
100
AcDbCircle
 10
600.4
 20
2407.399999999999
 30
0.0
 40
3.000000000000003
  0
CIRCLE
  5
609
330
1F
100
AcDbEntity
  8
化粧台
  6
CONTINUOUS
 62
     6
100
AcDbCircle
 10
595.9999999999999
 20
2413.799999999999
 30
0.0
 40
3.000000000000003
  0
CIRCLE
  5
60A
330
1F
100
AcDbEntity
  8
化粧台
  6
CONTINUOUS
 62
     6
100
AcDbCircle
 10
591.5
 20
2420.999999999999
 30
0.0
 40
3.000000000000003
  0
CIRCLE
  5
60B
330
1F
100
AcDbEntity
  8
化粧台
  6
CONTINUOUS
 62
     6
100
AcDbCircle
 10
602.4
 20
2367.099999999999
 30
0.0
 40
3.000000000000003
  0
CIRCLE
  5
60C
330
1F
100
AcDbEntity
  8
化粧台
  6
CONTINUOUS
 62
     6
100
AcDbCircle
 10
589.3
 20
2429.999999999999
 30
0.0
 40
3.000000000000003
  0
ARC
  5
60D
330
1F
100
AcDbEntity
  8
化粧台
  6
CONTINUOUS
 62
     2
100
AcDbCircle
 10
643.0000000000001
 20
403.9999999999958
 30
0.0
 40
2000.000000000001
100
AcDbArc
 50
86.07107077128147
 51
88.24717146533163
  0
ARC
  5
60E
330
1F
100
AcDbEntity
  8
化粧台
  6
CONTINUOUS
 62
     2
100
AcDbCircle
 10
643.0000000000001
 20
403.9999999999958
 30
0.0
 40
2000.000000000001
100
AcDbArc
 50
88.83217689995202
 51
93.92892922871853
  0
LINE
  5
60F
330
1F
100
AcDbEntity
  8
化粧台
  6
CONTINUOUS
 62
     6
100
AcDbLine
 10
739.0000000000001
 20
2444.0
 30
0.0
 11
652.0
 21
2444.0
 31
0.0
  0
CIRCLE
  5
610
330
1F
100
AcDbEntity
  8
化粧台
  6
CONTINUOUS
 62
     6
100
AcDbCircle
 10
643.0000000000001
 20
2323.999999999999
 30
0.0
 40
17.0
  0
CIRCLE
  5
611
330
1F
100
AcDbEntity
  8
化粧台
  6
CONTINUOUS
 62
     6
100
AcDbCircle
 10
643.0000000000001
 20
2324.0
 30
0.0
 40
27.00000000000002
  0
LINE
  5
612
330
1F
100
AcDbEntity
  8
化粧台
  6
CONTINUOUS
 62
     6
100
AcDbLine
 10
694.0000000000001
 20
1591.5
 30
0.0
 11
694.0000000000001
 21
1506.5
 31
0.0
  0
LINE
  5
613
330
1F
100
AcDbEntity
  8
化粧台
  6
CONTINUOUS
 62
     2
100
AcDbLine
 10
712.75
 20
1576.5
 30
0.0
 11
882.4999999999995
 21
1576.5
 31
0.0
  0
LINE
  5
614
330
1F
100
AcDbEntity
  8
化粧台
  6
CONTINUOUS
 62
     2
100
AcDbLine
 10
403.5
 20
1576.5
 30
0.0
 11
675.25
 21
1576.5
 31
0.0
  0
LINE
  5
615
330
1F
100
AcDbEntity
  8
化粧台
  6
CONTINUOUS
 62
     6
100
AcDbLine
 10
1613.0
 20
1575.8
 30
0.0
 11
1613.0
 21
1574.0
 31
0.0
  0
LINE
  5
616
330
1F
100
AcDbEntity
  8
化粧台
  6
CONTINUOUS
 62
     6
100
AcDbLine
 10
1637.0
 20
1575.8
 30
0.0
 11
1637.0
 21
1574.0
 31
0.0
  0
LINE
  5
617
330
1F
100
AcDbEntity
  8
化粧台
  6
CONTINUOUS
 62
     6
100
AcDbLine
 10
1543.000000000001
 20
1563.375644347
 30
0.0
 11
1557.0
 21
1559.624355653
 31
0.0
  0
LINE
  5
618
330
1F
100
AcDbEntity
  8
化粧台
  6
CONTINUOUS
 62
     6
100
AcDbLine
 10
1543.000000000001
 20
1563.375644347
 30
0.0
 11
1546.7525871611
 21
1569.8753159699
 31
0.0
  0
LINE
  5
619
330
1F
100
AcDbEntity
  8
化粧台
  6
CONTINUOUS
 62
     6
100
AcDbLine
 10
1557.0
 20
1559.624355653
 30
0.0
 11
1558.9147886671
 21
1562.9408669102
 31
0.0
  0
LINE
  5
61A
330
1F
100
AcDbEntity
  8
化粧台
  6
CONTINUOUS
 62
     6
100
AcDbLine
 10
1572.1215436504
 20
1579.1088610064
 30
0.0
 11
1604.584881526101
 21
1567.2931723148
 31
0.0
  0
ARC
  5
61B
330
1F
100
AcDbEntity
  8
化粧台
  6
CONTINUOUS
 62
     6
100
AcDbCircle
 10
1564.939120640601
 20
1559.3753159699
 30
0.0
 40
21.0
100
AcDbArc
 50
69.99999999999991
 51
149.9999999999992
  0
ARC
  5
61C
330
1F
100
AcDbEntity
  8
化粧台
  6
CONTINUOUS
 62
     6
100
AcDbCircle
 10
1606.637002386
 20
1572.9313280395
 30
0.0
 40
6.000000000000006
100
AcDbArc
 50
249.9999999999978
 51
347.9574248570994
  0
ARC
  5
61D
330
1F
100
AcDbEntity
  8
化粧台
  6
CONTINUOUS
 62
     6
100
AcDbCircle
 10
1565.4099791955
 20
1559.1908669102
 30
0.0
 40
7.500000000000006
100
AcDbArc
 50
68.47949458187728
 51
150.0000000000001
  0
LINE
  5
61E
330
1F
100
AcDbEntity
  8
化粧台
  6
CONTINUOUS
 62
     6
100
AcDbLine
 10
1612.5049594046
 20
1571.6794972089
 30
0.0
 11
1613.0
 21
1574.0
 31
0.0
  0
LINE
  5
61F
330
1F
100
AcDbEntity
  8
化粧台
  6
CONTINUOUS
 62
     6
100
AcDbLine
 10
1606.25
 20
1575.8
 30
0.0
 11
1643.75
 21
1575.8
 31
0.0
  0
LINE
  5
620
330
1F
100
AcDbEntity
  8
化粧台
  6
CONTINUOUS
 62
     6
100
AcDbLine
 10
1612.5
 20
1621.8
 30
0.0
 11
1637.5
 21
1621.8
 31
0.0
  0
LINE
  5
621
330
1F
100
AcDbEntity
  8
化粧台
  6
CONTINUOUS
 62
     6
100
AcDbLine
 10
1606.25
 20
1578.3684005851
 30
0.0
 11
1606.25
 21
1575.8
 31
0.0
  0
LINE
  5
622
330
1F
100
AcDbEntity
  8
化粧台
  6
CONTINUOUS
 62
     6
100
AcDbLine
 10
1606.25
 20
1579.8
 30
0.0
 11
1643.75
 21
1579.8
 31
0.0
  0
LINE
  5
623
330
1F
100
AcDbEntity
  8
化粧台
  6
CONTINUOUS
 62
     6
100
AcDbLine
 10
1643.75
 20
1578.3684005851
 30
0.0
 11
1643.75
 21
1575.8
 31
0.0
  0
ARC
  5
624
330
1F
100
AcDbEntity
  8
化粧台
  6
CONTINUOUS
 62
     6
100
AcDbCircle
 10
1611.0
 20
1611.619981906201
 30
0.0
 40
10.0
100
AcDbArc
 50
95.73917047726947
 51
148.3653389518035
  0
ARC
  5
625
330
1F
100
AcDbEntity
  8
化粧台
  6
CONTINUOUS
 62
     6
100
AcDbCircle
 10
1608.5
 20
1588.514212529
 30
0.0
 40
9.0
100
AcDbArc
 50
205.3838036737018
 51
247.2715774025012
  0
ARC
  5
626
330
1F
100
AcDbEntity
  8
化粧台
  6
CONTINUOUS
 62
     6
100
AcDbCircle
 10
1639.0
 20
1611.619981906201
 30
0.0
 40
10.0
100
AcDbArc
 50
31.63466104817654
 51
84.26082952272792
  0
ARC
  5
627
330
1F
100
AcDbEntity
  8
化粧台
  6
CONTINUOUS
 62
     6
100
AcDbCircle
 10
1641.5
 20
1588.514212529
 30
0.0
 40
9.0
100
AcDbArc
 50
292.7284225974964
 51
334.6161963263025
  0
ARC
  5
628
330
1F
100
AcDbEntity
  8
化粧台
  6
CONTINUOUS
 62
     6
100
AcDbCircle
 10
1625.0
 20
1472.32174071123
 30
0.0
 40
150.0
100
AcDbArc
 50
84.26082952272986
 51
85.21980815279997
  0
ARC
  5
629
330
1F
100
AcDbEntity
  8
化粧台
  6
CONTINUOUS
 62
     6
100
AcDbCircle
 10
1625.0
 20
1472.32174071123
 30
0.0
 40
150.0
100
AcDbArc
 50
94.78019184719983
 51
95.73917047726992
  0
ARC
  5
62A
330
1F
100
AcDbEntity
  8
化粧台
  6
CONTINUOUS
 62
     6
100
AcDbCircle
 10
1604.25
 20
1578.3684005851
 30
0.0
 40
2.0
100
AcDbArc
 50
0.0
 51
67.27157740248003
  0
ARC
  5
62B
330
1F
100
AcDbEntity
  8
化粧台
  6
CONTINUOUS
 62
     6
100
AcDbCircle
 10
1645.75
 20
1578.3684005851
 30
0.0
 40
2.0
100
AcDbArc
 50
112.7284225974959
 51
180.0
  0
ARC
  5
62C
330
1F
100
AcDbEntity
  8
化粧台
  6
CONTINUOUS
 62
     6
100
AcDbCircle
 10
1500.5224381266
 20
1591.0295749748
 30
0.0
 40
149.2448218623
100
AcDbArc
 50
357.5524470212003
 51
9.968552698249928
  0
ARC
  5
62D
330
1F
100
AcDbEntity
  8
化粧台
  6
CONTINUOUS
 62
     6
100
AcDbCircle
 10
2631.344616034
 20
1610.9473307074
 30
0.0
 40
1000.000000000001
100
AcDbArc
 50
179.8165955722
 51
181.3506422186001
  0
ARC
  5
62E
330
1F
100
AcDbEntity
  8
化粧台
  6
CONTINUOUS
 62
     6
100
AcDbCircle
 10
1143.0312229203
 20
1588.3536574792
 30
0.0
 40
500.0000000000003
100
AcDbArc
 50
359.9023041688005
 51
2.988068983869838
  0
ARC
  5
62F
330
1F
100
AcDbEntity
  8
化粧台
  6
CONTINUOUS
 62
     6
100
AcDbCircle
 10
1636.8543118157
 20
1614.1307161113
 30
0.0
 40
5.504600751460005
100
AcDbArc
 50
2.988068983870754
 51
179.816595572198
  0
ARC
  5
630
330
1F
100
AcDbEntity
  8
化粧台
  6
CONTINUOUS
 62
     6
100
AcDbCircle
 10
1637.3256846619
 20
1587.5108282948
 30
0.0
 40
5.704819698300001
100
AcDbArc
 50
181.3506422186015
 51
359.9023041688
  0
ARC
  5
631
330
1F
100
AcDbEntity
  8
化粧台
  6
CONTINUOUS
 62
     6
100
AcDbCircle
 10
1749.4775618734
 20
1591.0295749748
 30
0.0
 40
149.2448218623
100
AcDbArc
 50
170.0314473017002
 51
182.4475529788002
  0
ARC
  5
632
330
1F
100
AcDbEntity
  8
化粧台
  6
CONTINUOUS
 62
     6
100
AcDbCircle
 10
1613.1456881843
 20
1614.1307161113
 30
0.0
 40
5.504600751460005
100
AcDbArc
 50
0.1834044278445635
 51
177.0119310160987
  0
ARC
  5
633
330
1F
100
AcDbEntity
  8
化粧台
  6
CONTINUOUS
 62
     6
100
AcDbCircle
 10
1612.674315338101
 20
1587.5108282948
 30
0.0
 40
5.704819698300001
100
AcDbArc
 50
180.0976958311999
 51
358.6493577813986
  0
ARC
  5
634
330
1F
100
AcDbEntity
  8
化粧台
  6
CONTINUOUS
 62
     6
100
AcDbCircle
 10
618.6553839661003
 20
1610.9473307074
 30
0.0
 40
1000.000000000001
100
AcDbArc
 50
358.6493577814004
 51
0.1834044278416987
  0
ARC
  5
635
330
1F
100
AcDbEntity
  8
化粧台
  6
CONTINUOUS
 62
     6
100
AcDbCircle
 10
2106.9687770797
 20
1588.3536574792
 30
0.0
 40
500.0000000000003
100
AcDbArc
 50
177.0119310161
 51
180.0976958312001
  0
LINE
  5
636
330
1F
100
AcDbEntity
  8
化粧台
  6
CONTINUOUS
 62
     6
100
AcDbLine
 10
1612.0
 20
1623.2356048604
 30
0.0
 11
1612.0
 21
1621.7573455717
 31
0.0
  0
LINE
  5
637
330
1F
100
AcDbEntity
  8
化粧台
  6
CONTINUOUS
 62
     6
100
AcDbLine
 10
1638.0
 20
1623.2356048604
 30
0.0
 11
1638.0
 21
1621.7573455717
 31
0.0
  0
ARC
  5
638
330
1F
100
AcDbEntity
  8
化粧台
  6
CONTINUOUS
 62
     6
100
AcDbCircle
 10
1625.0
 20
1473.8
 30
0.0
 40
150.0
100
AcDbArc
 50
85.02812843182993
 51
94.97187156816973
  0
ARC
  5
639
330
1F
100
AcDbEntity
  8
化粧台
  6
CONTINUOUS
 62
     6
100
AcDbCircle
 10
1524.1411330844
 20
1454.53365339552
 30
0.0
 40
120.0000000000001
100
AcDbArc
 50
58.13179812358393
 51
68.73704405443002
  0
LINE
  5
63A
330
1F
100
AcDbEntity
  8
化粧台
  6
CONTINUOUS
 62
     6
100
AcDbLine
 10
1637.0
 20
1574.0
 30
0.0
 11
1640.117777594775
 21
1559.385417524495
 31
0.0
  0
LINE
  5
63B
330
1F
100
AcDbEntity
  8
付属金具
  6
EXLTYPE2
 62
     6
100
AcDbLine
 10
1478.499999999999
 20
1333.0
 30
0.0
 11
1531.499999999999
 21
1333.0
 31
0.0
  0
LINE
  5
63C
330
1F
100
AcDbEntity
  8
付属金具
  6
EXLTYPE2
 62
     6
100
AcDbLine
 10
1525.5
 20
1316.0
 30
0.0
 11
1484.499999999999
 21
1316.0
 31
0.0
  0
LINE
  5
63D
330
1F
100
AcDbEntity
  8
付属金具
  6
EXLTYPE2
 62
     6
100
AcDbLine
 10
1478.499999999999
 20
1336.0
 30
0.0
 11
1478.499999999999
 21
1333.0
 31
0.0
  0
LINE
  5
63E
330
1F
100
AcDbEntity
  8
付属金具
  6
EXLTYPE2
 62
     6
100
AcDbLine
 10
1531.499999999999
 20
1336.0
 30
0.0
 11
1531.499999999999
 21
1333.0
 31
0.0
  0
LINE
  5
63F
330
1F
100
AcDbEntity
  8
付属金具
  6
EXLTYPE2
 62
     6
100
AcDbLine
 10
1525.5
 20
1333.0
 30
0.0
 11
1525.5
 21
1316.0
 31
0.0
  0
LINE
  5
640
330
1F
100
AcDbEntity
  8
付属金具
  6
EXLTYPE2
 62
     6
100
AcDbLine
 10
1507.218810797999
 20
1333.0
 30
0.0
 11
1507.218810797999
 21
1317.5
 31
0.0
  0
LINE
  5
641
330
1F
100
AcDbEntity
  8
付属金具
  6
EXLTYPE2
 62
     6
100
AcDbLine
 10
1502.781189201999
 20
1333.0
 30
0.0
 11
1502.781189201999
 21
1317.5
 31
0.0
  0
LINE
  5
642
330
1F
100
AcDbEntity
  8
付属金具
  6
EXLTYPE2
 62
     6
100
AcDbLine
 10
1486.718810798
 20
1333.0
 30
0.0
 11
1486.718810798
 21
1317.5
 31
0.0
  0
LINE
  5
643
330
1F
100
AcDbEntity
  8
付属金具
  6
EXLTYPE2
 62
     6
100
AcDbLine
 10
1484.499999999999
 20
1333.0
 30
0.0
 11
1484.499999999999
 21
1316.0
 31
0.0
  0
LINE
  5
644
330
1F
100
AcDbEntity
  8
付属金具
  6
EXLTYPE2
 62
     6
100
AcDbLine
 10
1523.281189201999
 20
1333.0
 30
0.0
 11
1523.281189201999
 21
1317.5
 31
0.0
  0
LINE
  5
645
330
1F
100
AcDbEntity
  8
付属金具
  6
EXLTYPE2
 62
     6
100
AcDbLine
 10
1484.499999999999
 20
1317.5
 30
0.0
 11
1486.718810798
 21
1317.5
 31
0.0
  0
LINE
  5
646
330
1F
100
AcDbEntity
  8
付属金具
  6
EXLTYPE2
 62
     6
100
AcDbLine
 10
1502.781189201999
 20
1317.5
 30
0.0
 11
1507.218810797999
 21
1317.5
 31
0.0
  0
LINE
  5
647
330
1F
100
AcDbEntity
  8
付属金具
  6
EXLTYPE2
 62
     6
100
AcDbLine
 10
1523.281189201999
 20
1317.5
 30
0.0
 11
1525.5
 21
1317.5
 31
0.0
  0
ARC
  5
648
330
1F
100
AcDbEntity
  8
付属金具
  6
EXLTYPE2
 62
     6
100
AcDbCircle
 10
1494.75
 20
1338.25
 30
0.0
 40
22.25
100
AcDbArc
 50
248.8413070006011
 51
291.1586929993987
  0
ARC
  5
649
330
1F
100
AcDbEntity
  8
付属金具
  6
EXLTYPE2
 62
     6
100
AcDbCircle
 10
1515.25
 20
1338.25
 30
0.0
 40
22.25
100
AcDbArc
 50
248.8413070006011
 51
291.158692999398
  0
LINE
  5
64A
330
1F
100
AcDbEntity
  8
付属金具
  6
EXLTYPE2
 62
     6
100
AcDbLine
 10
1476.499999999999
 20
1336.0
 30
0.0
 11
1533.499999999999
 21
1336.0
 31
0.0
  0
LINE
  5
64B
330
1F
100
AcDbEntity
  8
付属金具
  6
EXLTYPE2
 62
     6
100
AcDbLine
 10
1476.499999999999
 20
1339.0
 30
0.0
 11
1476.499999999999
 21
1336.0
 31
0.0
  0
LINE
  5
64C
330
1F
100
AcDbEntity
  8
付属金具
  6
EXLTYPE2
 62
     6
100
AcDbLine
 10
1476.499999999999
 20
1339.0
 30
0.0
 11
1533.499999999999
 21
1339.0
 31
0.0
  0
LINE
  5
64D
330
1F
100
AcDbEntity
  8
付属金具
  6
EXLTYPE2
 62
     6
100
AcDbLine
 10
1533.499999999999
 20
1339.0
 30
0.0
 11
1533.499999999999
 21
1336.0
 31
0.0
  0
LINE
  5
64E
330
1F
100
AcDbEntity
  8
付属金具
  6
EXLTYPE2
 62
     6
100
AcDbLine
 10
1476.499999999999
 20
1339.0
 30
0.0
 11
1481.5
 21
1341.5
 31
0.0
  0
LINE
  5
64F
330
1F
100
AcDbEntity
  8
付属金具
  6
EXLTYPE2
 62
     6
100
AcDbLine
 10
1533.499999999999
 20
1339.0
 30
0.0
 11
1528.5
 21
1341.5
 31
0.0
  0
LINE
  5
650
330
1F
100
AcDbEntity
  8
付属金具
  6
EXLTYPE2
 62
     6
100
AcDbLine
 10
1489.249999999999
 20
1306.0
 30
0.0
 11
1520.75
 21
1306.0
 31
0.0
  0
LINE
  5
651
330
1F
100
AcDbEntity
  8
付属金具
  6
EXLTYPE2
 62
     6
100
AcDbLine
 10
1486.499999999999
 20
1316.0
 30
0.0
 11
1486.499999999999
 21
1308.75
 31
0.0
  0
LINE
  5
652
330
1F
100
AcDbEntity
  8
付属金具
  6
EXLTYPE2
 62
     6
100
AcDbLine
 10
1489.249999999999
 20
1306.0
 30
0.0
 11
1486.499999999999
 21
1308.75
 31
0.0
  0
LINE
  5
653
330
1F
100
AcDbEntity
  8
付属金具
  6
EXLTYPE2
 62
     6
100
AcDbLine
 10
1520.75
 20
1306.0
 30
0.0
 11
1523.499999999999
 21
1308.75
 31
0.0
  0
LINE
  5
654
330
1F
100
AcDbEntity
  8
付属金具
  6
EXLTYPE2
 62
     6
100
AcDbLine
 10
1523.499999999999
 20
1316.0
 30
0.0
 11
1523.499999999999
 21
1308.75
 31
0.0
  0
LINE
  5
655
330
1F
100
AcDbEntity
  8
付属金具
  6
EXLTYPE2
 62
     6
100
AcDbLine
 10
1489.249999999999
 20
1306.0
 30
0.0
 11
1489.249999999999
 21
1281.5
 31
0.0
  0
LINE
  5
656
330
1F
100
AcDbEntity
  8
付属金具
  6
EXLTYPE2
 62
     6
100
AcDbLine
 10
1520.75
 20
1306.0
 30
0.0
 11
1520.75
 21
1281.5
 31
0.0
  0
LINE
  5
657
330
1F
100
AcDbEntity
  8
付属金具
  6
EXLTYPE2
 62
     6
100
AcDbLine
 10
627.2499999999994
 20
1306.0
 30
0.0
 11
658.7499999999995
 21
1306.0
 31
0.0
  0
LINE
  5
658
330
1F
100
AcDbEntity
  8
付属金具
  6
EXLTYPE2
 62
     6
100
AcDbLine
 10
624.4999999999994
 20
1316.0
 30
0.0
 11
624.4999999999994
 21
1308.75
 31
0.0
  0
LINE
  5
659
330
1F
100
AcDbEntity
  8
付属金具
  6
EXLTYPE2
 62
     6
100
AcDbLine
 10
627.2499999999994
 20
1306.0
 30
0.0
 11
624.4999999999994
 21
1308.75
 31
0.0
  0
LINE
  5
65A
330
1F
100
AcDbEntity
  8
付属金具
  6
EXLTYPE2
 62
     6
100
AcDbLine
 10
658.7499999999995
 20
1306.0
 30
0.0
 11
661.4999999999999
 21
1308.75
 31
0.0
  0
LINE
  5
65B
330
1F
100
AcDbEntity
  8
付属金具
  6
EXLTYPE2
 62
     6
100
AcDbLine
 10
661.4999999999999
 20
1316.0
 30
0.0
 11
661.4999999999999
 21
1308.75
 31
0.0
  0
LINE
  5
65C
330
1F
100
AcDbEntity
  8
付属金具
  6
EXLTYPE2
 62
     6
100
AcDbLine
 10
614.4999999999994
 20
1336.0
 30
0.0
 11
671.4999999999999
 21
1336.0
 31
0.0
  0
LINE
  5
65D
330
1F
100
AcDbEntity
  8
付属金具
  6
EXLTYPE2
 62
     6
100
AcDbLine
 10
616.4999999999999
 20
1333.0
 30
0.0
 11
669.4999999999994
 21
1333.0
 31
0.0
  0
LINE
  5
65E
330
1F
100
AcDbEntity
  8
付属金具
  6
EXLTYPE2
 62
     6
100
AcDbLine
 10
663.9999999999999
 20
1316.0
 30
0.0
 11
621.9999999999994
 21
1316.0
 31
0.0
  0
LINE
  5
65F
330
1F
100
AcDbEntity
  8
付属金具
  6
EXLTYPE2
 62
     6
100
AcDbLine
 10
616.4999999999999
 20
1336.0
 30
0.0
 11
616.4999999999999
 21
1333.0
 31
0.0
  0
LINE
  5
660
330
1F
100
AcDbEntity
  8
付属金具
  6
EXLTYPE2
 62
     6
100
AcDbLine
 10
620.4999999999997
 20
1317.5
 30
0.0
 11
620.4999999999997
 21
1333.0
 31
0.0
  0
LINE
  5
661
330
1F
100
AcDbEntity
  8
付属金具
  6
EXLTYPE2
 62
     6
100
AcDbLine
 10
629.8832884699995
 20
1333.0
 30
0.0
 11
629.8832884699995
 21
1317.5
 31
0.0
  0
LINE
  5
662
330
1F
100
AcDbEntity
  8
付属金具
  6
EXLTYPE2
 62
     6
100
AcDbLine
 10
633.7263815049995
 20
1333.0
 30
0.0
 11
633.7263815049995
 21
1317.5
 31
0.0
  0
LINE
  5
663
330
1F
100
AcDbEntity
  8
付属金具
  6
EXLTYPE2
 62
     6
100
AcDbLine
 10
652.2736184949998
 20
1333.0
 30
0.0
 11
652.2736184949998
 21
1317.5
 31
0.0
  0
LINE
  5
664
330
1F
100
AcDbEntity
  8
付属金具
  6
EXLTYPE2
 62
     6
100
AcDbLine
 10
656.1167115299999
 20
1333.0
 30
0.0
 11
656.1167115299999
 21
1317.5
 31
0.0
  0
LINE
  5
665
330
1F
100
AcDbEntity
  8
付属金具
  6
EXLTYPE2
 62
     6
100
AcDbLine
 10
665.4999999999997
 20
1317.5
 30
0.0
 11
665.4999999999997
 21
1333.0
 31
0.0
  0
LINE
  5
666
330
1F
100
AcDbEntity
  8
付属金具
  6
EXLTYPE2
 62
     6
100
AcDbLine
 10
669.4999999999994
 20
1336.0
 30
0.0
 11
669.4999999999994
 21
1333.0
 31
0.0
  0
LINE
  5
667
330
1F
100
AcDbEntity
  8
付属金具
  6
EXLTYPE2
 62
     6
100
AcDbLine
 10
621.9999999999994
 20
1316.0
 30
0.0
 11
620.4999999999997
 21
1317.5
 31
0.0
  0
LINE
  5
668
330
1F
100
AcDbEntity
  8
付属金具
  6
EXLTYPE2
 62
     6
100
AcDbLine
 10
665.4999999999997
 20
1317.5
 30
0.0
 11
663.9999999999999
 21
1316.0
 31
0.0
  0
LINE
  5
669
330
1F
100
AcDbEntity
  8
付属金具
  6
EXLTYPE2
 62
     6
100
AcDbLine
 10
629.8832884699995
 20
1317.5
 30
0.0
 11
633.7263815049995
 21
1317.5
 31
0.0
  0
LINE
  5
66A
330
1F
100
AcDbEntity
  8
付属金具
  6
EXLTYPE2
 62
     6
100
AcDbLine
 10
652.2736184949998
 20
1317.5
 30
0.0
 11
656.1167115299999
 21
1317.5
 31
0.0
  0
ARC
  5
66B
330
1F
100
AcDbEntity
  8
付属金具
  6
EXLTYPE2
 62
     6
100
AcDbCircle
 10
625.1916442349996
 20
1324.087175209499
 30
0.0
 40
8.087175209530002
100
AcDbArc
 50
234.5400412520996
 51
305.4599587479018
  0
ARC
  5
66C
330
1F
100
AcDbEntity
  8
付属金具
  6
EXLTYPE2
 62
     6
100
AcDbCircle
 10
642.9999999999997
 20
1345.4166666667
 30
0.0
 40
29.41666666667002
100
AcDbArc
 50
251.6240638709006
 51
288.3759361291011
  0
ARC
  5
66D
330
1F
100
AcDbEntity
  8
付属金具
  6
EXLTYPE2
 62
     6
100
AcDbCircle
 10
660.8083557649994
 20
1324.087175209499
 30
0.0
 40
8.087175209530002
100
AcDbArc
 50
234.5400412520996
 51
305.4599587479018
  0
LINE
  5
66E
330
1F
100
AcDbEntity
  8
付属金具
  6
EXLTYPE2
 62
     6
100
AcDbLine
 10
614.4999999999994
 20
1339.0
 30
0.0
 11
614.4999999999994
 21
1336.0
 31
0.0
  0
LINE
  5
66F
330
1F
100
AcDbEntity
  8
付属金具
  6
EXLTYPE2
 62
     6
100
AcDbLine
 10
614.4999999999994
 20
1339.0
 30
0.0
 11
671.4999999999999
 21
1339.0
 31
0.0
  0
LINE
  5
670
330
1F
100
AcDbEntity
  8
付属金具
  6
EXLTYPE2
 62
     6
100
AcDbLine
 10
671.4999999999999
 20
1339.0
 30
0.0
 11
671.4999999999999
 21
1336.0
 31
0.0
  0
LINE
  5
671
330
1F
100
AcDbEntity
  8
付属金具
  6
EXLTYPE2
 62
     6
100
AcDbLine
 10
614.4999999999994
 20
1339.0
 30
0.0
 11
619.4999999999994
 21
1341.5
 31
0.0
  0
LINE
  5
672
330
1F
100
AcDbEntity
  8
付属金具
  6
EXLTYPE2
 62
     6
100
AcDbLine
 10
671.4999999999999
 20
1339.0
 30
0.0
 11
666.4999999999999
 21
1341.5
 31
0.0
  0
LINE
  5
673
330
1F
100
AcDbEntity
  8
付属金具
  6
EXLTYPE2
 62
     6
100
AcDbLine
 10
627.2499999999994
 20
1306.0
 30
0.0
 11
627.2499999999994
 21
1281.5
 31
0.0
  0
LINE
  5
674
330
1F
100
AcDbEntity
  8
付属金具
  6
EXLTYPE2
 62
     6
100
AcDbLine
 10
658.7499999999995
 20
1306.0
 30
0.0
 11
658.7499999999995
 21
1281.5
 31
0.0
  0
DIMENSION
  5
675
330
1F
100
AcDbEntity
  8
付属金具
  6
CONTINUOUS
 62
     3
100
AcDbDimension
  2
*D17
 10
963.0000000000001
 20
2524.0
 30
0.0
 11
939.5000000596049
 21
2484.0
 31
0.0
 70
   160
  3
ISO-25
100
AcDbAlignedDimension
 13
739.0
 23
2444.0
 33
0.0
 14
745.0
 24
2524.0
 34
0.0
 50
90.0
100
AcDbRotatedDimension
1001
ACAD
1000
DSTYLE
1002
{
1070
   270
1070
     2
1070
     6
1000
EX_NORM
1070
     7
1000
EX_NORM
1070
    41
1040
30.0
1070
    42
1040
5.0
1070
    44
1040
10.0
1070
    73
1070
     0
1070
    74
1070
     0
1070
    75
1070
     0
1070
    76
1070
     1
1070
    77
1070
     1
1070
    78
1070
     8
1070
   140
1040
40.0
1070
   147
1040
0.0
1070
   173
1070
     1
1070
   176
1070
     3
1070
   177
1070
     3
1070
   178
1070
     2
1070
   271
1070
     2
1070
   277
1070
     2
1070
   279
1070
     2
1070
   280
1070
     0
1070
   287
1070
     5
1070
   340
1005
1BC
1002
}
  0
LINE
  5
681
330
1F
100
AcDbEntity
  8
付属金具
  6
EXLTYPE3
 62
     6
100
AcDbLine
 10
1630.0
 20
991.5
 30
0.0
 11
1630.0
 21
753.4999694499999
 31
0.0
  0
LINE
  5
682
330
1F
100
AcDbEntity
  8
付属金具
  6
CONTINUOUS
 62
     6
100
AcDbLine
 10
1640.0
 20
776.4930098007001
 30
0.0
 11
1639.8522949
 21
769.7270812500001
 31
0.0
  0
LINE
  5
683
330
1F
100
AcDbEntity
  8
付属金具
  6
CONTINUOUS
 62
     6
100
AcDbLine
 10
1639.8522949
 20
769.7270812500001
 30
0.0
 11
1638.6251831
 21
768.49996945
 31
0.0
  0
LINE
  5
684
330
1F
100
AcDbEntity
  8
付属金具
  6
CONTINUOUS
 62
     6
100
AcDbLine
 10
1638.6251831
 20
768.49996945
 30
0.0
 11
1621.3748169
 21
768.49996945
 31
0.0
  0
LINE
  5
685
330
1F
100
AcDbEntity
  8
付属金具
  6
CONTINUOUS
 62
     6
100
AcDbLine
 10
1621.3748169
 20
768.49996945
 30
0.0
 11
1620.1478577
 21
769.7270812500001
 31
0.0
  0
LINE
  5
686
330
1F
100
AcDbEntity
  8
付属金具
  6
EXLTYPE4
 62
     6
100
AcDbLine
 10
1620.0
 20
776.4999999500001
 30
0.0
 11
1620.0
 21
976.5
 31
0.0
  0
LINE
  5
687
330
1F
100
AcDbEntity
  8
付属金具
  6
EXLTYPE4
 62
     6
100
AcDbLine
 10
1640.0
 20
976.5
 30
0.0
 11
1640.0
 21
776.4930098007001
 31
0.0
  0
ARC
  5
688
330
1F
100
AcDbEntity
  8
付属金具
  6
EXLTYPE2
 62
     6
100
AcDbCircle
 10
1558.678124999999
 20
1240.328125
 30
0.0
 40
42.171875
100
AcDbArc
 50
7.202826755902299
 51
135.8871017961997
  0
ARC
  5
689
330
1F
100
AcDbEntity
  8
付属金具
  6
EXLTYPE2
 62
     6
100
AcDbCircle
 10
1558.678124999999
 20
1240.328125
 30
0.0
 40
10.471875
100
AcDbArc
 50
0.0
 51
180.0
  0
LINE
  5
68A
330
1F
100
AcDbEntity
  8
付属金具
  6
EXLTYPE2
 62
     6
100
AcDbLine
 10
1486.5
 20
1263.5
 30
0.0
 11
1486.5
 21
1228.5
 31
0.0
  0
LINE
  5
68B
330
1F
100
AcDbEntity
  8
付属金具
  6
EXLTYPE2
 62
     6
100
AcDbLine
 10
1523.5
 20
1263.5
 30
0.0
 11
1523.5
 21
1228.5
 31
0.0
  0
LINE
  5
68C
330
1F
100
AcDbEntity
  8
付属金具
  6
EXLTYPE2
 62
     6
100
AcDbLine
 10
1489.15
 20
1225.85
 30
0.0
 11
1489.15
 21
1188.093254606
 31
0.0
  0
LINE
  5
68D
330
1F
100
AcDbEntity
  8
付属金具
  6
EXLTYPE2
 62
     6
100
AcDbLine
 10
1520.85
 20
1225.85
 30
0.0
 11
1520.85
 21
1185.5
 31
0.0
  0
LINE
  5
68E
330
1F
100
AcDbEntity
  8
付属金具
  6
EXLTYPE2
 62
     6
100
AcDbLine
 10
1520.85
 20
1190.5
 30
0.0
 11
1536.178124999999
 21
1190.5
 31
0.0
  0
LINE
  5
68F
330
1F
100
AcDbEntity
  8
付属金具
  6
EXLTYPE2
 62
     6
100
AcDbLine
 10
1550.85625
 20
1215.5
 30
0.0
 11
1550.85625
 21
1185.5
 31
0.0
  0
LINE
  5
690
330
1F
100
AcDbEntity
  8
付属金具
  6
EXLTYPE2
 62
     6
100
AcDbLine
 10
1501.178125
 20
1160.52532196
 30
0.0
 11
1501.178125
 21
1156.0
 31
0.0
  0
LINE
  5
691
330
1F
100
AcDbEntity
  8
付属金具
  6
EXLTYPE2
 62
     6
100
AcDbLine
 10
1536.178124999999
 20
1190.5
 30
0.0
 11
1536.178124999999
 21
1156.0
 31
0.0
  0
LINE
  5
692
330
1F
100
AcDbEntity
  8
付属金具
  6
EXLTYPE2
 62
     6
100
AcDbLine
 10
1523.5
 20
1228.5
 30
0.0
 11
1520.85
 21
1225.85
 31
0.0
  0
LINE
  5
693
330
1F
100
AcDbEntity
  8
付属金具
  6
EXLTYPE2
 62
     6
100
AcDbLine
 10
1486.5
 20
1228.5
 30
0.0
 11
1489.15
 21
1225.85
 31
0.0
  0
LINE
  5
694
330
1F
100
AcDbEntity
  8
付属金具
  6
EXLTYPE2
 62
     6
100
AcDbLine
 10
1536.75625
 20
1185.5
 30
0.0
 11
1550.85625
 21
1185.5
 31
0.0
  0
LINE
  5
695
330
1F
100
AcDbEntity
  8
付属金具
  6
EXLTYPE2
 62
     6
100
AcDbLine
 10
1481.599999999999
 20
1263.5
 30
0.0
 11
1528.4
 21
1263.5
 31
0.0
  0
LINE
  5
696
330
1F
100
AcDbEntity
  8
付属金具
  6
EXLTYPE2
 62
     6
100
AcDbLine
 10
1483.6
 20
1281.5
 30
0.0
 11
1526.4
 21
1281.5
 31
0.0
  0
LINE
  5
697
330
1F
100
AcDbEntity
  8
付属金具
  6
EXLTYPE2
 62
     6
100
AcDbLine
 10
1481.599999999999
 20
1279.5
 30
0.0
 11
1481.599999999999
 21
1263.5
 31
0.0
  0
LINE
  5
698
330
1F
100
AcDbEntity
  8
付属金具
  6
EXLTYPE2
 62
     6
100
AcDbLine
 10
1487.870011103
 20
1279.5
 30
0.0
 11
1487.870011103
 21
1263.5
 31
0.0
  0
LINE
  5
699
330
1F
100
AcDbEntity
  8
付属金具
  6
EXLTYPE2
 62
     6
100
AcDbLine
 10
1498.729988897
 20
1279.5
 30
0.0
 11
1498.729988897
 21
1263.5
 31
0.0
  0
LINE
  5
69A
330
1F
100
AcDbEntity
  8
付属金具
  6
EXLTYPE2
 62
     6
100
AcDbLine
 10
1511.270011102999
 20
1279.5
 30
0.0
 11
1511.270011102999
 21
1263.5
 31
0.0
  0
LINE
  5
69B
330
1F
100
AcDbEntity
  8
付属金具
  6
EXLTYPE2
 62
     6
100
AcDbLine
 10
1522.129988897
 20
1279.5
 30
0.0
 11
1522.129988897
 21
1263.5
 31
0.0
  0
LINE
  5
69C
330
1F
100
AcDbEntity
  8
付属金具
  6
EXLTYPE2
 62
     6
100
AcDbLine
 10
1528.4
 20
1279.5
 30
0.0
 11
1528.4
 21
1263.5
 31
0.0
  0
ARC
  5
69D
330
1F
100
AcDbEntity
  8
付属金具
  6
EXLTYPE2
 62
     6
100
AcDbCircle
 10
1483.6
 20
1279.5
 30
0.0
 40
2.0
100
AcDbArc
 50
90.00000000000004
 51
180.0
  0
ARC
  5
69E
330
1F
100
AcDbEntity
  8
付属金具
  6
EXLTYPE2
 62
     6
100
AcDbCircle
 10
1526.4
 20
1279.5
 30
0.0
 40
2.0
100
AcDbArc
 50
0.0
 51
90.00000000000004
  0
LINE
  5
69F
330
1F
100
AcDbEntity
  8
付属金具
  6
EXLTYPE2
 62
     6
100
AcDbLine
 10
1520.85
 20
1215.5
 30
0.0
 11
1555.756249999999
 21
1215.5
 31
0.0
  0
LINE
  5
6A0
330
1F
100
AcDbEntity
  8
付属金具
  6
EXLTYPE2
 62
     6
100
AcDbLine
 10
1523.5
 20
1233.5
 30
0.0
 11
1553.756249999999
 21
1233.5
 31
0.0
  0
LINE
  5
6A1
330
1F
100
AcDbEntity
  8
付属金具
  6
EXLTYPE2
 62
     6
100
AcDbLine
 10
1526.086238897
 20
1231.5
 30
0.0
 11
1526.086238897
 21
1215.5
 31
0.0
  0
LINE
  5
6A2
330
1F
100
AcDbEntity
  8
付属金具
  6
EXLTYPE2
 62
     6
100
AcDbLine
 10
1538.626261103
 20
1231.5
 30
0.0
 11
1538.626261103
 21
1215.5
 31
0.0
  0
LINE
  5
6A3
330
1F
100
AcDbEntity
  8
付属金具
  6
EXLTYPE2
 62
     6
100
AcDbLine
 10
1549.486238897
 20
1231.5
 30
0.0
 11
1549.486238897
 21
1215.5
 31
0.0
  0
LINE
  5
6A4
330
1F
100
AcDbEntity
  8
付属金具
  6
EXLTYPE2
 62
     6
100
AcDbLine
 10
1555.756249999999
 20
1231.5
 30
0.0
 11
1555.756249999999
 21
1215.5
 31
0.0
  0
ARC
  5
6A5
330
1F
100
AcDbEntity
  8
付属金具
  6
EXLTYPE2
 62
     6
100
AcDbCircle
 10
1553.756249999999
 20
1231.5
 30
0.0
 40
2.0
100
AcDbArc
 50
0.0
 51
90.00000000000004
  0
LINE
  5
6A6
330
1F
100
AcDbEntity
  8
付属金具
  6
EXLTYPE2
 62
     6
100
AcDbLine
 10
1495.678125
 20
1156.0
 30
0.0
 11
1541.678125
 21
1156.0
 31
0.0
  0
LINE
  5
6A7
330
1F
100
AcDbEntity
  8
付属金具
  6
EXLTYPE2
 62
     6
100
AcDbLine
 10
1497.178125
 20
1139.5
 30
0.0
 11
1540.178125
 21
1139.5
 31
0.0
  0
LINE
  5
6A8
330
1F
100
AcDbEntity
  8
付属金具
  6
EXLTYPE2
 62
     6
100
AcDbLine
 10
1497.824466463
 20
1139.5
 30
0.0
 11
1497.824466463
 21
1156.0
 31
0.0
  0
LINE
  5
6A9
330
1F
100
AcDbEntity
  8
付属金具
  6
EXLTYPE2
 62
     6
100
AcDbLine
 10
1539.531783537
 20
1139.5
 30
0.0
 11
1539.531783537
 21
1156.0
 31
0.0
  0
LINE
  5
6AA
330
1F
100
AcDbEntity
  8
付属金具
  6
EXLTYPE2
 62
     6
100
AcDbLine
 10
1541.678125
 20
1141.0
 30
0.0
 11
1541.678125
 21
1156.0
 31
0.0
  0
LINE
  5
6AB
330
1F
100
AcDbEntity
  8
付属金具
  6
EXLTYPE2
 62
     6
100
AcDbLine
 10
1495.678125
 20
1141.0
 30
0.0
 11
1495.678125
 21
1156.0
 31
0.0
  0
LINE
  5
6AC
330
1F
100
AcDbEntity
  8
付属金具
  6
EXLTYPE2
 62
     6
100
AcDbLine
 10
1510.394586246
 20
1141.0
 30
0.0
 11
1510.394586246
 21
1156.0
 31
0.0
  0
LINE
  5
6AD
330
1F
100
AcDbEntity
  8
付属金具
  6
EXLTYPE2
 62
     6
100
AcDbLine
 10
1526.961663754
 20
1141.0
 30
0.0
 11
1526.961663754
 21
1156.0
 31
0.0
  0
LINE
  5
6AE
330
1F
100
AcDbEntity
  8
付属金具
  6
EXLTYPE2
 62
     6
100
AcDbLine
 10
1505.928125
 20
1156.0
 30
0.0
 11
1505.928125
 21
1141.0
 31
0.0
  0
LINE
  5
6AF
330
1F
100
AcDbEntity
  8
付属金具
  6
EXLTYPE2
 62
     6
100
AcDbLine
 10
1531.428124999999
 20
1156.0
 30
0.0
 11
1531.428124999999
 21
1141.0
 31
0.0
  0
ARC
  5
6B0
330
1F
100
AcDbEntity
  8
付属金具
  6
EXLTYPE2
 62
     6
100
AcDbCircle
 10
1497.178125
 20
1141.0
 30
0.0
 40
1.5
100
AcDbArc
 50
180.0
 51
270.0000000000002
  0
ARC
  5
6B1
330
1F
100
AcDbEntity
  8
付属金具
  6
EXLTYPE2
 62
     6
100
AcDbCircle
 10
1540.178125
 20
1141.0
 30
0.0
 40
1.5
100
AcDbArc
 50
270.0000000000002
 51
0.0
  0
LINE
  5
6B2
330
1F
100
AcDbEntity
  8
付属金具
  6
EXLTYPE2
 62
     6
100
AcDbLine
 10
1489.15
 20
1225.85
 30
0.0
 11
1520.85
 21
1225.85
 31
0.0
  0
ARC
  5
6B3
330
1F
100
AcDbEntity
  8
付属金具
  6
EXLTYPE2
 62
     6
100
AcDbCircle
 10
1529.15
 20
1188.093254606
 30
0.0
 40
40.0
100
AcDbArc
 50
180.0
 51
216.1437885097002
  0
ARC
  5
6B4
330
1F
100
AcDbEntity
  8
付属金具
  6
EXLTYPE2
 62
     6
100
AcDbCircle
 10
1508.961516187999
 20
1173.347912245
 30
0.0
 40
15.00000000000001
100
AcDbArc
 50
216.1437885097002
 51
310.3739745502
  0
ARC
  5
6B5
330
1F
100
AcDbEntity
  8
付属金具
  6
EXLTYPE2
 62
     6
100
AcDbCircle
 10
1506.595910552
 20
1186.423829377
 30
0.0
 40
40.0
100
AcDbArc
 50
317.6935529327007
 51
358.6765942212
  0
LINE
  5
6B6
330
1F
100
AcDbEntity
  8
付属金具
  6
EXLTYPE2
 62
     6
100
AcDbLine
 10
1548.20625
 20
1240.328125
 30
0.0
 11
1548.20625
 21
1233.5
 31
0.0
  0
LINE
  5
6B7
330
1F
100
AcDbEntity
  8
付属金具
  6
CONTINUOUS
 62
     6
100
AcDbLine
 10
682.0000000000001
 20
1575.8
 30
0.0
 11
682.0000000000001
 21
1574.0
 31
0.0
  0
LINE
  5
6B8
330
1F
100
AcDbEntity
  8
付属金具
  6
CONTINUOUS
 62
     6
100
AcDbLine
 10
706.0000000000002
 20
1575.8
 30
0.0
 11
706.0000000000002
 21
1574.0
 31
0.0
  0
LINE
  5
6B9
330
1F
100
AcDbEntity
  8
付属金具
  6
CONTINUOUS
 62
     6
100
AcDbLine
 10
674.0000000000001
 20
1536.5
 30
0.0
 11
682.0000000000001
 21
1574.0
 31
0.0
  0
LINE
  5
6BA
330
1F
100
AcDbEntity
  8
付属金具
  6
CONTINUOUS
 62
     6
100
AcDbLine
 10
706.0000000000002
 20
1574.0
 30
0.0
 11
714.0
 21
1536.5
 31
0.0
  0
LINE
  5
6BB
330
1F
100
AcDbEntity
  8
付属金具
  6
CONTINUOUS
 62
     6
100
AcDbLine
 10
703.0000000000001
 20
1576.2812896905
 30
0.0
 11
703.0000000000001
 21
1560.598711306
 31
0.0
  0
LINE
  5
6BC
330
1F
100
AcDbEntity
  8
付属金具
  6
CONTINUOUS
 62
     6
100
AcDbLine
 10
685.0000000000001
 20
1576.2812896905
 30
0.0
 11
685.0000000000001
 21
1560.598711306
 31
0.0
  0
ELLIPSE
  5
6BD
330
1F
100
AcDbEntity
  8
付属金具
  6
CONTINUOUS
 62
     6
100
AcDbEllipse
 10
694.0
 20
1562.401288694
 30
0.0
 11
8.999999999999982
 21
0.0
 31
0.0
210
0.0
220
0.0
230
1.0
 40
0.1082617392202558
 41
0.0
 42
3.141592653589792
  0
ELLIPSE
  5
6BE
330
1F
100
AcDbEntity
  8
付属金具
  6
CONTINUOUS
 62
     6
100
AcDbEllipse
 10
694.0
 20
1560.598711306
 30
0.0
 11
8.999999999999982
 21
0.0
 31
0.0
210
0.0
220
0.0
230
1.0
 40
0.1082617392202558
 41
3.141592653589792
 42
6.283185307179586
  0
ARC
  5
6BF
330
1F
100
AcDbEntity
  8
付属金具
  6
CONTINUOUS
 62
     6
100
AcDbCircle
 10
694.0
 20
1560.3753159699
 30
0.0
 40
20.0
100
AcDbArc
 50
69.33268350649018
 51
110.6673164935001
  0
ARC
  5
6C0
330
1F
100
AcDbEntity
  8
付属金具
  6
CONTINUOUS
 62
     6
100
AcDbCircle
 10
688.0000000000001
 20
1576.2812896905
 30
0.0
 40
3.000000000000003
100
AcDbArc
 50
110.6673164934949
 51
180.0
  0
ARC
  5
6C1
330
1F
100
AcDbEntity
  8
付属金具
  6
CONTINUOUS
 62
     6
100
AcDbCircle
 10
700.0000000000001
 20
1576.2812896905
 30
0.0
 40
3.000000000000003
100
AcDbArc
 50
0.0
 51
69.33268350648784
  0
LINE
  5
6C2
330
1F
100
AcDbEntity
  8
付属金具
  6
CONTINUOUS
 62
     6
100
AcDbLine
 10
682.4292468207
 20
1567.2931723148
 30
0.0
 11
685.1064518628
 21
1577.0733624002
 31
0.0
  0
LINE
  5
6C3
330
1F
100
AcDbEntity
  8
付属金具
  6
CONTINUOUS
 62
     6
100
AcDbLine
 10
705.5707531792999
 20
1567.2931723148
 30
0.0
 11
702.8935481372
 21
1577.0733624002
 31
0.0
  0
ARC
  5
6C4
330
1F
100
AcDbEntity
  8
付属金具
  6
CONTINUOUS
 62
     6
100
AcDbCircle
 10
588.3722585759801
 20
1588.151620484
 30
0.0
 40
100.0000000000001
100
AcDbArc
 50
332.1916075680008
 51
345.0780307190002
  0
ARC
  5
6C5
330
1F
100
AcDbEntity
  8
付属金具
  6
CONTINUOUS
 62
     6
100
AcDbCircle
 10
799.6277414240001
 20
1588.151620484
 30
0.0
 40
100.0000000000001
100
AcDbArc
 50
194.9219692809998
 51
207.808392432
  0
LINE
  5
6C6
330
1F
100
AcDbEntity
  8
付属金具
  6
CONTINUOUS
 62
     6
100
AcDbLine
 10
681.5000000000001
 20
1621.8
 30
0.0
 11
706.5
 21
1621.8
 31
0.0
  0
LINE
  5
6C7
330
1F
100
AcDbEntity
  8
付属金具
  6
CONTINUOUS
 62
     6
100
AcDbLine
 10
675.25
 20
1578.3684005851
 30
0.0
 11
675.25
 21
1575.8
 31
0.0
  0
LINE
  5
6C8
330
1F
100
AcDbEntity
  8
付属金具
  6
CONTINUOUS
 62
     6
100
AcDbLine
 10
712.75
 20
1578.3684005851
 30
0.0
 11
712.75
 21
1575.8
 31
0.0
  0
ARC
  5
6C9
330
1F
100
AcDbEntity
  8
付属金具
  6
CONTINUOUS
 62
     6
100
AcDbCircle
 10
680.0
 20
1611.619981906201
 30
0.0
 40
10.0
100
AcDbArc
 50
95.73917047726947
 51
171.5425821401038
  0
ARC
  5
6CA
330
1F
100
AcDbEntity
  8
付属金具
  6
CONTINUOUS
 62
     6
100
AcDbCircle
 10
677.5000000000001
 20
1588.514212529
 30
0.0
 40
9.0
100
AcDbArc
 50
181.0221794143961
 51
247.2715774024994
  0
ARC
  5
6CB
330
1F
100
AcDbEntity
  8
付属金具
  6
CONTINUOUS
 62
     6
100
AcDbCircle
 10
818.4775618734002
 20
1591.0295749748
 30
0.0
 40
150.0
100
AcDbArc
 50
171.5425821401001
 51
181.0221794143999
  0
ARC
  5
6CC
330
1F
100
AcDbEntity
  8
付属金具
  6
CONTINUOUS
 62
     6
100
AcDbCircle
 10
569.5224381266102
 20
1591.0295749748
 30
0.0
 40
150.0
100
AcDbArc
 50
358.9778205856002
 51
8.457417859939792
  0
ARC
  5
6CD
330
1F
100
AcDbEntity
  8
付属金具
  6
CONTINUOUS
 62
     6
100
AcDbCircle
 10
708.0000000000001
 20
1611.619981906201
 30
0.0
 40
10.0
100
AcDbArc
 50
8.457417859938362
 51
84.26082952272986
  0
ARC
  5
6CE
330
1F
100
AcDbEntity
  8
付属金具
  6
CONTINUOUS
 62
     6
100
AcDbCircle
 10
710.5000000000001
 20
1588.514212529
 30
0.0
 40
9.0
100
AcDbArc
 50
292.7284225975006
 51
358.977820585604
  0
ARC
  5
6CF
330
1F
100
AcDbEntity
  8
付属金具
  6
CONTINUOUS
 62
     6
100
AcDbCircle
 10
694.0
 20
1472.32174071123
 30
0.0
 40
150.0
100
AcDbArc
 50
84.2608295227299
 51
85.21980815279997
  0
ARC
  5
6D0
330
1F
100
AcDbEntity
  8
付属金具
  6
CONTINUOUS
 62
     6
100
AcDbCircle
 10
694.0
 20
1472.32174071123
 30
0.0
 40
150.0
100
AcDbArc
 50
94.78019184719993
 51
95.73917047726997
  0
ARC
  5
6D1
330
1F
100
AcDbEntity
  8
付属金具
  6
CONTINUOUS
 62
     6
100
AcDbCircle
 10
673.2500000000001
 20
1578.3684005851
 30
0.0
 40
2.0
100
AcDbArc
 50
0.0
 51
67.27157740249206
  0
ARC
  5
6D2
330
1F
100
AcDbEntity
  8
付属金具
  6
CONTINUOUS
 62
     6
100
AcDbCircle
 10
714.75
 20
1578.3684005851
 30
0.0
 40
2.0
100
AcDbArc
 50
112.7284225975019
 51
180.0
  0
ARC
  5
6D3
330
1F
100
AcDbEntity
  8
付属金具
  6
CONTINUOUS
 62
     6
100
AcDbCircle
 10
694.0
 20
1613.0354312126
 30
0.0
 40
6.599885650110004
100
AcDbArc
 50
0.0
 51
180.0
  0
ARC
  5
6D4
330
1F
100
AcDbEntity
  8
付属金具
  6
CONTINUOUS
 62
     6
100
AcDbCircle
 10
694.0
 20
1588.4058942466
 30
0.0
 40
6.599885650110004
100
AcDbArc
 50
180.0
 51
0.0
  0
ARC
  5
6D5
330
1F
100
AcDbEntity
  8
付属金具
  6
CONTINUOUS
 62
     6
100
AcDbCircle
 10
818.4775618734002
 20
1591.0295749748
 30
0.0
 40
149.1311085704
100
AcDbArc
 50
171.5425821401001
 51
181.0221794143999
  0
ARC
  5
6D6
330
1F
100
AcDbEntity
  8
付属金具
  6
CONTINUOUS
 62
     6
100
AcDbCircle
 10
680.0
 20
1611.619981906201
 30
0.0
 40
9.131108570370005
100
AcDbArc
 50
119.7302221603002
 51
171.542582140103
  0
ARC
  5
6D7
330
1F
100
AcDbEntity
  8
付属金具
  6
CONTINUOUS
 62
     6
100
AcDbCircle
 10
677.5000000000001
 20
1588.514212529
 30
0.0
 40
8.131108570370008
100
AcDbArc
 50
181.022179414399
 51
229.4181766543994
  0
ARC
  5
6D8
330
1F
100
AcDbEntity
  8
付属金具
  6
CONTINUOUS
 62
     6
100
AcDbCircle
 10
-323.5488390920999
 20
1618.1670661716
 30
0.0
 40
1000.000000000001
100
AcDbArc
 50
358.0388608184002
 51
0.0466541765597272
  0
ARC
  5
6D9
330
1F
100
AcDbEntity
  8
付属金具
  6
CONTINUOUS
 62
     6
100
AcDbCircle
 10
673.6515129704001
 20
1584.021221759
 30
0.0
 40
2.21521316258
100
AcDbArc
 50
229.4181766544071
 51
358.0388608183873
  0
ARC
  5
6DA
330
1F
100
AcDbEntity
  8
付属金具
  6
CONTINUOUS
 62
     6
100
AcDbCircle
 10
675.7963148665001
 20
1618.9808021214
 30
0.0
 40
0.6545147413610001
100
AcDbArc
 50
0.0466541765448876
 51
119.7302221602995
  0
LINE
  5
6DB
330
1F
100
AcDbEntity
  8
付属金具
  6
CONTINUOUS
 62
     6
100
AcDbLine
 10
687.4001143499
 20
1613.0354312126
 30
0.0
 11
687.4001143499
 21
1588.4058942466
 31
0.0
  0
LINE
  5
6DC
330
1F
100
AcDbEntity
  8
付属金具
  6
CONTINUOUS
 62
     6
100
AcDbLine
 10
700.5998856501
 20
1613.0354312126
 30
0.0
 11
700.5998856501
 21
1588.4058942466
 31
0.0
  0
ARC
  5
6DD
330
1F
100
AcDbEntity
  8
付属金具
  6
CONTINUOUS
 62
     6
100
AcDbCircle
 10
569.5224381266102
 20
1591.0295749748
 30
0.0
 40
149.1311085704
100
AcDbArc
 50
358.9778205856002
 51
8.457417859939905
  0
ARC
  5
6DE
330
1F
100
AcDbEntity
  8
付属金具
  6
CONTINUOUS
 62
     6
100
AcDbCircle
 10
714.3484870296
 20
1584.021221759
 30
0.0
 40
2.21521316258
100
AcDbArc
 50
181.9611391816128
 51
310.5818233455952
  0
ARC
  5
6DF
330
1F
100
AcDbEntity
  8
付属金具
  6
CONTINUOUS
 62
     6
100
AcDbCircle
 10
712.2036851335
 20
1618.9808021214
 30
0.0
 40
0.6545147413610001
100
AcDbArc
 50
60.26977783966343
 51
179.9533458233755
  0
ARC
  5
6E0
330
1F
100
AcDbEntity
  8
付属金具
  6
CONTINUOUS
 62
     6
100
AcDbCircle
 10
708.0000000000001
 20
1611.619981906201
 30
0.0
 40
9.131108570370005
100
AcDbArc
 50
8.457417859937387
 51
60.26977783964871
  0
ARC
  5
6E1
330
1F
100
AcDbEntity
  8
付属金具
  6
CONTINUOUS
 62
     6
100
AcDbCircle
 10
710.5000000000001
 20
1588.514212529
 30
0.0
 40
8.131108570370008
100
AcDbArc
 50
310.5818233456015
 51
358.9778205856011
  0
ARC
  5
6E2
330
1F
100
AcDbEntity
  8
付属金具
  6
CONTINUOUS
 62
     6
100
AcDbCircle
 10
1711.548839092
 20
1618.1670661716
 30
0.0
 40
1000.000000000001
100
AcDbArc
 50
179.9533458234001
 51
181.9611391816001
  0
LINE
  5
6E3
330
1F
100
AcDbEntity
  8
付属金具
  6
CONTINUOUS
 62
     6
100
AcDbLine
 10
681.0
 20
1623.2356048604
 30
0.0
 11
681.0
 21
1621.7573455717
 31
0.0
  0
LINE
  5
6E4
330
1F
100
AcDbEntity
  8
付属金具
  6
CONTINUOUS
 62
     6
100
AcDbLine
 10
707.0000000000001
 20
1623.2356048604
 30
0.0
 11
707.0000000000001
 21
1621.7573455717
 31
0.0
  0
ARC
  5
6E5
330
1F
100
AcDbEntity
  8
付属金具
  6
CONTINUOUS
 62
     6
100
AcDbCircle
 10
694.0
 20
1473.8
 30
0.0
 40
150.0
100
AcDbArc
 50
85.02812843182993
 51
94.9718715681699
  0
LINE
  5
6E6
330
1F
100
AcDbEntity
  8
付属金具
  6
CONTINUOUS
 62
     6
100
AcDbLine
 10
675.25
 20
1575.8
 30
0.0
 11
684.7578847891
 21
1575.8
 31
0.0
  0
LINE
  5
6E7
330
1F
100
AcDbEntity
  8
付属金具
  6
CONTINUOUS
 62
     6
100
AcDbLine
 10
703.2421152109001
 20
1575.8
 30
0.0
 11
712.75
 21
1575.8
 31
0.0
  0
LINE
  5
6E8
330
1F
100
AcDbEntity
  8
付属金具
  6
CONTINUOUS
 62
     6
100
AcDbLine
 10
675.25
 20
1579.8
 30
0.0
 11
689.2374743747998
 21
1579.8
 31
0.0
  0
LINE
  5
6E9
330
1F
100
AcDbEntity
  8
付属金具
  6
CONTINUOUS
 62
     6
100
AcDbLine
 10
698.7625256252
 20
1579.8
 30
0.0
 11
712.75
 21
1579.8
 31
0.0
  0
ARC
  5
6EA
330
1F
100
AcDbEntity
  8
付属金具
  6
CONTINUOUS
 62
     6
100
AcDbCircle
 10
592.0000000000002
 20
1039.499999999996
 30
0.0
 40
500.0000000000003
100
AcDbArc
 50
87.9327698957238
 51
92.06723010427615
  0
ARC
  5
6EB
330
1F
100
AcDbEntity
  8
付属金具
  6
CONTINUOUS
 62
     6
100
AcDbCircle
 10
574.0000000000003
 20
1538.175245024251
 30
0.0
 40
1.0
100
AcDbArc
 50
92.06723010427093
 51
180.0
  0
ARC
  5
6EC
330
1F
100
AcDbEntity
  8
付属金具
  6
CONTINUOUS
 62
     6
100
AcDbCircle
 10
609.9999999999998
 20
1538.175245024251
 30
0.0
 40
1.0
100
AcDbArc
 50
0.0
 51
87.93276989570954
  0
LINE
  5
6ED
330
1F
100
AcDbEntity
  8
付属金具
  6
CONTINUOUS
 62
     6
100
AcDbLine
 10
573.0
 20
1538.17524502425
 30
0.0
 11
573.0
 21
1536.5
 31
0.0
  0
LINE
  5
6EE
330
1F
100
AcDbEntity
  8
付属金具
  6
CONTINUOUS
 62
     6
100
AcDbLine
 10
611.0
 20
1538.17524502425
 30
0.0
 11
611.0
 21
1536.5
 31
0.0
  0
LINE
  5
6EF
330
1F
100
AcDbEntity
  8
付属金具
  6
CONTINUOUS
 62
     6
100
AcDbLine
 10
585.0000000000001
 20
1540.5
 30
0.0
 11
599.0000000000002
 21
1540.5
 31
0.0
  0
ARC
  5
6F0
330
1F
100
AcDbEntity
  8
付属金具
  6
CONTINUOUS
 62
     6
100
AcDbCircle
 10
583.727386366
 20
1546.363484846
 30
0.0
 40
6.000000000000006
100
AcDbArc
 50
282.2455792937005
 51
331.4942159980041
  0
ARC
  5
6F1
330
1F
100
AcDbEntity
  8
付属金具
  6
CONTINUOUS
 62
     6
100
AcDbCircle
 10
600.272613634
 20
1546.363484846
 30
0.0
 40
6.000000000000006
100
AcDbArc
 50
208.5057840019993
 51
257.7544207063007
  0
LINE
  5
6F2
330
1F
100
AcDbEntity
  8
付属金具
  6
CONTINUOUS
 62
     6
100
AcDbLine
 10
589.0000000000001
 20
1543.5
 30
0.0
 11
594.9999999999998
 21
1543.5
 31
0.0
  0
ARC
  5
6F3
330
1F
100
AcDbEntity
  8
付属金具
  6
CONTINUOUS
 62
     6
100
AcDbCircle
 10
592.0
 20
1547.5
 30
0.0
 40
5.0
100
AcDbArc
 50
306.8698976458438
 51
233.1301023541534
  0
ELLIPSE
  5
6F4
330
1F
100
AcDbEntity
  8
付属金具
  6
CONTINUOUS
 62
     6
100
AcDbEllipse
 10
592.0
 20
1543.5
 30
0.0
 11
7.99999999999998
 21
0.0
 31
0.0
210
0.0
220
0.0
230
1.0
 40
0.5000000000000091
 41
2.234360434708118
 42
7.190417526061296
  0
LINE
  5
6F5
330
1F
100
AcDbEntity
  8
付属金具
  6
CONTINUOUS
 62
     6
100
AcDbLine
 10
585.0000000000001
 20
1540.5
 30
0.0
 11
585.0000000000001
 21
1539.450997598761
 31
0.0
  0
LINE
  5
6F6
330
1F
100
AcDbEntity
  8
付属金具
  6
CONTINUOUS
 62
     6
100
AcDbLine
 10
599.0000000000002
 20
1540.5
 30
0.0
 11
599.0000000000002
 21
1539.450997598761
 31
0.0
  0
DIMENSION
  5
6F7
330
1F
100
AcDbEntity
  8
寸法
  6
CONTINUOUS
 62
     3
100
AcDbDimension
  2
*D18
 10
892.9999999999999
 20
2004.0
 30
0.0
 11
642.9999999999999
 21
2027.5
 31
0.0
 70
   160
  3
ISO-25
100
AcDbAlignedDimension
 13
392.9999999999998
 23
2160.8093111648
 33
0.0
 14
892.9999999999999
 24
2160.8093111648
 34
0.0
100
AcDbRotatedDimension
1001
ACAD
1000
DSTYLE
1002
{
1070
   270
1070
     2
1070
     6
1000
EX_NORM
1070
     7
1000
EX_NORM
1070
    41
1040
30.0
1070
    42
1040
6.99999988079071
1070
    44
1040
10.0
1070
    73
1070
     0
1070
    74
1070
     0
1070
    75
1070
     0
1070
    76
1070
     0
1070
    77
1070
     1
1070
    78
1070
     0
1070
   140
1040
40.0
1070
   147
1040
0.0
1070
   173
1070
     1
1070
   176
1070
     3
1070
   177
1070
     3
1070
   178
1070
     2
1070
   271
1070
     0
1070
   277
1070
     2
1070
   279
1070
     2
1070
   280
1070
     0
1070
   287
1070
     5
1070
   340
1005
1BC
1002
}
  0
DIMENSION
  5
704
330
1F
100
AcDbEntity
  8
寸法
  6
CONTINUOUS
 62
     3
100
AcDbDimension
  2
*D19
 10
1028.0
 20
2524.0
 30
0.0
 11
1004.5
 21
2299.0
 31
0.0
 70
   160
  3
ISO-25
100
AcDbAlignedDimension
 13
643.0000000000001
 23
2074.0
 33
0.0
 14
893.0163351137
 24
2524.0
 34
0.0
 50
90.0
100
AcDbRotatedDimension
1001
ACAD
1000
DSTYLE
1002
{
1070
   270
1070
     2
1070
     6
1000
EX_NORM
1070
     7
1000
EX_NORM
1070
    41
1040
30.0
1070
    42
1040
6.99999988079071
1070
    44
1040
9.999999999998408
1070
    73
1070
     0
1070
    74
1070
     0
1070
    75
1070
     0
1070
    76
1070
     1
1070
    77
1070
     1
1070
    78
1070
     0
1070
   140
1040
40.0
1070
   147
1040
0.0
1070
   173
1070
     1
1070
   176
1070
     3
1070
   177
1070
     3
1070
   178
1070
     2
1070
   271
1070
     0
1070
   277
1070
     2
1070
   279
1070
     2
1070
   280
1070
     0
1070
   287
1070
     5
1070
   340
1005
1BC
1002
}
  0
DIMENSION
  5
710
330
1F
100
AcDbEntity
  8
寸法
  6
CONTINUOUS
 62
     3
100
AcDbDimension
  2
*D20
 10
963.0000000000002
 20
1526.5
 30
0.0
 11
939.5000000000002
 21
1151.5
 31
0.0
 70
   160
  3
ISO-25
100
AcDbAlignedDimension
 13
875.4999999999997
 23
776.5
 33
0.0
 14
642.9999999999997
 24
1526.5
 34
0.0
 50
90.0
100
AcDbRotatedDimension
1001
ACAD
1000
DSTYLE
1002
{
1070
   270
1070
     2
1070
     6
1000
EX_NORM
1070
     7
1000
EX_NORM
1070
    41
1040
30.0
1070
    42
1040
6.99999988079071
1070
    44
1040
10.0
1070
    73
1070
     0
1070
    74
1070
     0
1070
    75
1070
     1
1070
    76
1070
     0
1070
    77
1070
     1
1070
    78
1070
     0
1070
   140
1040
40.0
1070
   147
1040
0.0
1070
   173
1070
     1
1070
   176
1070
     3
1070
   177
1070
     3
1070
   178
1070
     2
1070
   271
1070
     0
1070
   277
1070
     2
1070
   279
1070
     2
1070
   280
1070
     0
1070
   287
1070
     5
1070
   340
1005
1BC
1002
}
  0
DIMENSION
  5
71C
330
1F
100
AcDbEntity
  8
寸法
  6
CONTINUOUS
 62
     3
100
AcDbDimension
  2
*D21
 10
1023.0
 20
1576.5
 30
0.0
 11
999.5000000000005
 21
1176.5
 31
0.0
 70
   160
  3
ISO-25
100
AcDbAlignedDimension
 13
875.4999999999997
 23
776.5
 33
0.0
 14
882.4999999999995
 24
1576.5
 34
0.0
 50
90.0
100
AcDbRotatedDimension
1001
ACAD
1000
DSTYLE
1002
{
1070
   270
1070
     2
1070
     6
1000
EX_NORM
1070
     7
1000
EX_NORM
1070
    41
1040
30.0
1070
    42
1040
6.99999988079071
1070
    44
1040
11.00000023841858
1070
    73
1070
     0
1070
    74
1070
     0
1070
    75
1070
     1
1070
    76
1070
     0
1070
    77
1070
     1
1070
    78
1070
     0
1070
   140
1040
40.0
1070
   147
1040
0.0
1070
   173
1070
     1
1070
   176
1070
     3
1070
   177
1070
     3
1070
   178
1070
     2
1070
   271
1070
     0
1070
   277
1070
     2
1070
   279
1070
     2
1070
   280
1070
     0
1070
   287
1070
     5
1070
   340
1005
1BC
1002
}
  0
DIMENSION
  5
728
330
1F
100
AcDbEntity
  8
寸法
  6
CONTINUOUS
 62
     3
100
AcDbDimension
  2
*D22
 10
875.4999999999997
 20
562.0
 30
0.0
 11
642.9999999999997
 21
585.5000000000001
 31
0.0
 70
   160
  3
ISO-25
100
AcDbAlignedDimension
 13
410.4999999999997
 23
776.5
 33
0.0
 14
875.4999999999997
 24
776.5
 34
0.0
100
AcDbRotatedDimension
1001
ACAD
1000
DSTYLE
1002
{
1070
   270
1070
     2
1070
     6
1000
EX_NORM
1070
     7
1000
EX_NORM
1070
    41
1040
30.0
1070
    42
1040
6.99999988079071
1070
    44
1040
10.0
1070
    73
1070
     0
1070
    74
1070
     0
1070
    75
1070
     0
1070
    76
1070
     0
1070
    77
1070
     1
1070
    78
1070
     0
1070
   140
1040
40.0
1070
   147
1040
0.0
1070
   173
1070
     1
1070
   176
1070
     3
1070
   177
1070
     3
1070
   178
1070
     2
1070
   271
1070
     0
1070
   277
1070
     2
1070
   279
1070
     2
1070
   280
1070
     0
1070
   287
1070
     5
1070
   340
1005
1BC
1002
}
  0
LINE
  5
735
330
1F
100
AcDbEntity
  8
寸法
  6
CONTINUOUS
 62
     3
100
AcDbLine
 10
892.9999998211856
 20
1576.5
 30
0.0
 11
1023.0
 21
1576.5
 31
0.0
  0
DIMENSION
  5
736
330
1F
100
AcDbEntity
  8
寸法
  6
CONTINUOUS
 62
     3
100
AcDbDimension
  2
*D23
 10
1705.0
 20
493.0
 30
0.0
 11
1538.5
 21
516.4999999403954
 31
0.0
 70
   160
  3
ISO-25
100
AcDbAlignedDimension
 13
1372.0
 23
776.5
 33
0.0
 14
1705.0
 24
776.5
 34
0.0
100
AcDbRotatedDimension
1001
ACAD
1000
DSTYLE
1002
{
1070
   270
1070
     2
1070
     6
1000
EX_NORM
1070
     7
1000
EX_NORM
1070
    41
1040
30.0
1070
    42
1040
6.99999988079071
1070
    44
1040
10.0
1070
    73
1070
     0
1070
    74
1070
     0
1070
    75
1070
     0
1070
    76
1070
     0
1070
    77
1070
     1
1070
    78
1070
     0
1070
   140
1040
40.0
1070
   147
1040
0.0
1070
   173
1070
     1
1070
   176
1070
     3
1070
   177
1070
     3
1070
   178
1070
     2
1070
   271
1070
     0
1070
   277
1070
     2
1070
   279
1070
     2
1070
   280
1070
     0
1070
   287
1070
     5
1070
   340
1005
1BC
1002
}
  0
DIMENSION
  5
743
330
1F
100
AcDbEntity
  8
寸法
  6
CONTINUOUS
 62
     3
100
AcDbDimension
  2
*D24
 10
1705.0
 20
562.0
 30
0.0
 11
1785.0
 21
585.4999999403954
 31
0.0
 70
   160
  3
ISO-25
100
AcDbAlignedDimension
 13
1585.0
 23
682.5
 33
0.0
 14
1705.0
 24
776.5
 34
0.0
100
AcDbRotatedDimension
1001
ACAD
1000
DSTYLE
1002
{
1070
   270
1070
     2
1070
     6
1000
EX_NORM
1070
     7
1000
EX_NORM
1070
    41
1040
30.0
1070
    42
1040
13.16666722297668
1070
    44
1040
10.0
1070
    73
1070
     0
1070
    74
1070
     0
1070
    75
1070
     0
1070
    76
1070
     0
1070
    77
1070
     1
1070
    78
1070
     0
1070
   140
1040
40.0
1070
   147
1040
0.0
1070
   173
1070
     1
1070
   176
1070
     3
1070
   177
1070
     3
1070
   178
1070
     2
1070
   271
1070
     0
1070
   277
1070
     2
1070
   279
1070
     2
1070
   280
1070
     2
1070
   287
1070
     5
1070
   340
1005
1BC
1002
}
  0
DIMENSION
  5
750
330
1F
100
AcDbEntity
  8
寸法
  6
CONTINUOUS
 62
     3
100
AcDbDimension
  2
*D25
 10
1705.0
 20
627.0
 30
0.0
 11
1841.0
 21
649.5000000000002
 31
0.0
 70
   160
  1
75（床給水）
  3
ISO-25
100
AcDbAlignedDimension
 13
1630.0
 23
768.49996945
 33
0.0
 14
1705.0
 24
776.5
 34
0.0
100
AcDbRotatedDimension
1001
ACAD
1000
DSTYLE
1002
{
1070
   270
1070
     2
1070
     6
1000
EX_NORM
1070
     7
1000
EX_NORM
1070
    41
1040
30.0
1070
    42
1040
6.99999988079071
1070
    44
1040
10.0
1070
    73
1070
     0
1070
    74
1070
     0
1070
    75
1070
     0
1070
    76
1070
     0
1070
    77
1070
     1
1070
    78
1070
     0
1070
   140
1040
40.0
1070
   147
1040
0.0
1070
   173
1070
     1
1070
   176
1070
     3
1070
   177
1070
     3
1070
   178
1070
     2
1070
   271
1070
     0
1070
   277
1070
     2
1070
   279
1070
     2
1070
   280
1070
     0
1070
   287
1070
     5
1070
   340
1005
1BC
1002
}
  0
TEXT
  5
75D
330
1F
100
AcDbEntity
  8
寸法
  6
CONTINUOUS
 62
     2
100
AcDbText
 10
1737.47743557835
 20
695.9812091530002
 30
0.0
 40
40.0
  1
Ｒ１/２
 41
0.8342465753424658
  7
EXCADSTD
 72
     5
 11
1853.47743557835
 21
695.9812091530002
 31
0.0
100
AcDbText
  0
LEADER
  5
75E
330
1F
100
AcDbEntity
  8
寸法
  6
CONTINUOUS
 62
     3
100
AcDbLeader
  3
ISO-25
 76
     3
 10
1639.85229490002
 20
769.7270812500045
 30
0.0
 10
1732.47743557835
 20
692.4812092126049
 30
0.0
 10
1853.0
 20
692.4812092126049
 30
0.0
1001
ACAD
1000
DSTYLE
1002
{
1070
     5
1000
EX_NORM
1070
    41
1040
30.0
1070
   341
1005
4D
1002
}
  0
DIMENSION
  5
75F
330
1F
100
AcDbEntity
  8
寸法
  6
CONTINUOUS
 62
     3
100
AcDbDimension
  2
*D26
 10
1857.0
 20
1301.5
 30
0.0
 11
1833.500000059605
 21
1039.0
 31
0.0
 70
   160
  3
ISO-25
100
AcDbAlignedDimension
 13
1705.0
 23
776.5
 33
0.0
 14
1737.5
 24
1301.5
 34
0.0
 50
90.0
100
AcDbRotatedDimension
1001
ACAD
1000
DSTYLE
1002
{
1070
   270
1070
     2
1070
     6
1000
EX_NORM
1070
     7
1000
EX_NORM
1070
    41
1040
30.0
1070
    42
1040
6.99999988079071
1070
    44
1040
9.999999999999545
1070
    73
1070
     0
1070
    74
1070
     0
1070
    75
1070
     0
1070
    76
1070
     0
1070
    77
1070
     1
1070
    78
1070
     0
1070
   140
1040
40.0
1070
   147
1040
0.0
1070
   173
1070
     1
1070
   176
1070
     3
1070
   177
1070
     3
1070
   178
1070
     2
1070
   271
1070
     0
1070
   277
1070
     2
1070
   279
1070
     2
1070
   280
1070
     0
1070
   287
1070
     5
1070
   340
1005
1BC
1002
}
  0
DIMENSION
  5
76C
330
1F
100
AcDbEntity
  8
寸法
  6
CONTINUOUS
 62
     3
100
AcDbDimension
  2
*D27
 10
694.0
 20
1731.0
 30
0.0
 11
668.5
 21
1754.499999940396
 31
0.0
 70
   160
  3
ISO-25
100
AcDbAlignedDimension
 13
642.9999999999999
 23
1576.5
 33
0.0
 14
694.0
 24
1576.5
 34
0.0
100
AcDbRotatedDimension
1001
ACAD
1000
DSTYLE
1002
{
1070
   270
1070
     2
1070
     6
1000
EX_NORM
1070
     7
1000
EX_NORM
1070
    41
1040
30.0
1070
    42
1040
6.99999988079071
1070
    44
1040
10.0
1070
    73
1070
     0
1070
    74
1070
     0
1070
    75
1070
     0
1070
    76
1070
     0
1070
    77
1070
     1
1070
    78
1070
     0
1070
   140
1040
40.0
1070
   147
1040
0.0
1070
   173
1070
     1
1070
   176
1070
     3
1070
   177
1070
     3
1070
   178
1070
     2
1070
   271
1070
     0
1070
   277
1070
     2
1070
   279
1070
     2
1070
   280
1070
     0
1070
   287
1070
     5
1070
   340
1005
1BC
1002
}
  0
ENDSEC
  0
SECTION
  2
OBJECTS
  0
DICTIONARY
  5
C
330
0
100
AcDbDictionary
  3
ACAD_GROUP
350
D
  3
ACAD_LAYOUT
350
1A
  3
ACAD_MATERIAL
350
3B
  3
ACAD_MLEADERSTYLE
350
79D
  3
ACAD_MLINESTYLE
350
17
  3
ACAD_PLOTSETTINGS
350
19
  3
ACAD_VISUALSTYLE
350
2A
  3
ACDBHEADERROUNDTRIPXREC
350
77B
  3
ACDBVARIABLEDICTIONARY
350
79B
  0
DICTIONARY
  5
D
102
{ACAD_REACTORS
330
C
102
}
330
C
100
AcDbDictionary
  0
DICTIONARY
  5
1A
102
{ACAD_REACTORS
330
C
102
}
330
C
100
AcDbDictionary
  0
DICTIONARY
  5
3B
102
{ACAD_REACTORS
330
C
102
}
330
C
100
AcDbDictionary
  3
BYBLOCK
350
3D
  3
BYLAYER
350
3C
  3
GLOBAL
350
3E
  0
DICTIONARY
  5
79D
102
{ACAD_REACTORS
330
C
102
}
330
C
100
AcDbDictionary
  0
DICTIONARY
  5
17
102
{ACAD_REACTORS
330
C
102
}
330
C
100
AcDbDictionary
  3
STANDARD
350
18
  0
DICTIONARY
  5
19
102
{ACAD_REACTORS
330
C
102
}
330
C
100
AcDbDictionary
  0
DICTIONARY
  5
2A
102
{ACAD_REACTORS
330
C
102
}
330
C
100
AcDbDictionary
  3
2DWIREFRAME
350
2F
  3
3D_HIDDEN
350
31
  3
3DWIREFRAME
350
30
  3
BASIC
350
32
  3
BRIGHTEN
350
36
  3
COLORCHANGE
350
3A
  3
CONCEPTUAL
350
34
  3
DIM
350
35
  3
FACEPATTERN
350
39
  3
FLAT
350
2B
  3
FLATWITHEDGES
350
2C
  3
GOURAUD
350
2D
  3
GOURAUDWITHEDGES
350
2E
  3
LINEPATTERN
350
38
  3
REALISTIC
350
33
  3
THICKEN
350
37
  0
DICTIONARY
  5
77B
102
{ACAD_REACTORS
330
C
102
}
330
C
100
AcDbDictionary
  3
CEPSNTYPE
350
784
  3
DIMSTYLEDATA
350
79A
  3
FINGERPRINTGUID
350
785
  3
HYPERLINKBASE
350
77E
  3
INSUNITS
350
783
  3
LAYOUTDICT
350
780
  3
LWETCUNION
350
782
  3
PLOTSETDICT
350
781
  3
PSVPSCALE
350
787
  3
PUCSBASE
350
78A
  3
PUCSORGBACK
350
790
  3
PUCSORGBOTTOM
350
78C
  3
PUCSORGFRONT
350
78F
  3
PUCSORGLEFT
350
78D
  3
PUCSORGRIGHT
350
78E
  3
PUCSORGTOP
350
78B
  3
PUCSORTHOREF
350
788
  3
PUCSORTHOVIEW
350
789
  3
STYLESHEET
350
77F
  3
TSTACKALIGN
350
77C
  3
TSTACKSIZE
350
77D
  3
UCSBASE
350
793
  3
UCSORGBACK
350
799
  3
UCSORGBOTTOM
350
795
  3
UCSORGFRONT
350
798
  3
UCSORGLEFT
350
796
  3
UCSORGRIGHT
350
797
  3
UCSORGTOP
350
794
  3
UCSORTHOREF
350
791
  3
UCSORTHOVIEW
350
792
  3
VERSIONGUID
350
786
  0
DICTIONARY
  5
79B
102
{ACAD_REACTORS
330
C
102
}
330
C
100
AcDbDictionary
  3
DIMASSOC
350
7A0
  3
HIDETEXT
350
7A1
  3
PSOLHEIGHT
350
79F
  3
PSOLWIDTH
350
79E
  0
MATERIAL
  5
3D
102
{ACAD_REACTORS
330
3B
102
}
102
{ACAD_XDICTIONARY
360
7A4
102
}
330
3B
100
AcDbMaterial
  1
ByBlock
  0
MATERIAL
  5
3C
102
{ACAD_REACTORS
330
3B
102
}
102
{ACAD_XDICTIONARY
360
7A2
102
}
330
3B
100
AcDbMaterial
  1
ByLayer
  0
MATERIAL
  5
3E
102
{ACAD_REACTORS
330
3B
102
}
102
{ACAD_XDICTIONARY
360
7A6
102
}
330
3B
100
AcDbMaterial
  1
Global
  0
MLINESTYLE
  5
18
102
{ACAD_REACTORS
330
17
102
}
330
17
100
AcDbMlineStyle
  2
Standard
 70
     0
  3

 62
   256
 51
90.0
 52
90.0
 71
     2
 49
0.5
 62
   256
  6
BYLAYER
 49
-0.5
 62
   256
  6
BYLAYER
  0
ACAD_PROXY_OBJECT
  5
2F
102
{ACAD_REACTORS
330
2A
102
}
330
2A
100
AcDbProxyObject
 90
      499
 91
      501
 93
      436
310
42CC9915DA5C99599C985B595049028333333333333E3BF0000000000000FB0107901411070040501600405405064090741402480A0340
1001
ACAD
1000
AcDbSavedByObjectVersion
1070
     0
  0
ACAD_PROXY_OBJECT
  5
31
102
{ACAD_REACTORS
330
2A
102
}
330
2A
100
AcDbProxyObject
 90
      499
 91
      501
 93
      500
310
424CD108121A5919195B90640502408333333333333E3BF0000000000000FB01079024090700405020000000000001110200405405064090740C02480A0340
1001
ACAD
1000
AcDbSavedByObjectVersion
1070
     0
  0
ACAD_PROXY_OBJECT
  5
30
102
{ACAD_REACTORS
330
2A
102
}
330
2A
100
AcDbProxyObject
 90
      499
 91
      501
 93
      436
310
42CCD915DA5C99599C985B595059028333333333333E3BF0000000000000FB0107901411070040501600405405064090741402480A0340
1001
ACAD
1000
AcDbSavedByObjectVersion
1070
     0
  0
ACAD_PROXY_OBJECT
  5
32
102
{ACAD_REACTORS
330
2A
102
}
330
2A
100
AcDbProxyObject
 90
      499
 91
      501
 93
      388
310
4150985CDA58D07406404333333333333E3BF0000000000000FB0107A41107004050150841D405064090741402480A0350
1001
ACAD
1000
AcDbSavedByObjectVersion
1070
     0
  0
ACAD_PROXY_OBJECT
  5
36
102
{ACAD_REACTORS
330
2A
102
}
330
2A
100
AcDbProxyObject
 90
      499
 91
      501
 93
      428
310
42109C9A59DA1D195B90C409028333333333333E3BF0000000000000FB010790141107004050150841D405064090741402480A029950
1001
ACAD
1000
AcDbSavedByObjectVersion
1070
     0
  0
ACAD_PROXY_OBJECT
  5
3A
102
{ACAD_REACTORS
330
2A
102
}
330
2A
100
AcDbProxyObject
 90
      499
 91
      501
 93
      452
310
42D0DBDB1BDC90DA185B99D95104090240C333333333333E3BF0000000000000FB0108901411070040501508421405064090741402480A0350
1001
ACAD
1000
AcDbSavedByObjectVersion
1070
     0
  0
ACAD_PROXY_OBJECT
  5
34
102
{ACAD_REACTORS
330
2A
102
}
330
2A
100
AcDbProxyObject
 90
      499
 91
      501
 93
      500
310
4290DBDB98D95C1D1D585B10940D028333333333333E3BF0000000000000FB0107902409070040501000000000000111010841D405064090740C02480A0340
1001
ACAD
1000
AcDbSavedByObjectVersion
1070
     0
  0
ACAD_PROXY_OBJECT
  5
35
102
{ACAD_REACTORS
330
2A
102
}
330
2A
100
AcDbProxyObject
 90
      499
 91
      501
 93
      412
310
40D11A5B50B409028333333333333E3BF0000000000000FB010790141107004050150841D405064090741402480A02677FFFFFD0
1001
ACAD
1000
AcDbSavedByObjectVersion
1070
     0
  0
ACAD_PROXY_OBJECT
  5
39
102
{ACAD_REACTORS
330
2A
102
}
330
2A
100
AcDbProxyObject
 90
      499
 91
      501
 93
      444
310
42D19858D95C185D1D195C9B90F409028333333333333E3BF0000000000000FB010790141107004050150841D405064090741402480A0350
1001
ACAD
1000
AcDbSavedByObjectVersion
1070
     0
  0
ACAD_PROXY_OBJECT
  5
2B
102
{ACAD_REACTORS
330
2A
102
}
330
2A
100
AcDbProxyObject
 90
      499
 91
      501
 93
      388
310
41119B185D240901404333333333333E3BF0000000000000F9010740A41107004050150841D405064090741402480A1B50
1001
ACAD
1000
AcDbSavedByObjectVersion
1070
     0
  0
ACAD_PROXY_OBJECT
  5
2C
102
{ACAD_REACTORS
330
2A
102
}
330
2A
100
AcDbProxyObject
 90
      499
 91
      501
 93
      476
310
43519B185D15DA5D1A115919D95CD0140901404333333333333E3BF0000000000000F9010740901411070040501600405405064090741402480A1B50
1001
ACAD
1000
AcDbSavedByObjectVersion
1070
     0
  0
ACAD_PROXY_OBJECT
  5
2D
102
{ACAD_REACTORS
330
2A
102
}
330
2A
100
AcDbProxyObject
 90
      499
 91
      501
 93
      412
310
41D1DBDD5C985D5910240902404333333333333E3BF0000000000000F9010740A411070040501641D405064090741402480A1B50
1001
ACAD
1000
AcDbSavedByObjectVersion
1070
     0
  0
ACAD_PROXY_OBJECT
  5
2E
102
{ACAD_REACTORS
330
2A
102
}
330
2A
100
AcDbProxyObject
 90
      499
 91
      501
 93
      500
310
4411DBDD5C985D5915DA5D1A115919D95CD0340902404333333333333E3BF0000000000000F9010740901411070040501600405405064090741402480A1B50
1001
ACAD
1000
AcDbSavedByObjectVersion
1070
     0
  0
ACAD_PROXY_OBJECT
  5
38
102
{ACAD_REACTORS
330
2A
102
}
330
2A
100
AcDbProxyObject
 90
      499
 91
      501
 93
      444
310
42D31A5B995C185D1D195C9B90E409028333333333333E3BF0000000000000FB010790141107004050750841D405064090741402483A0350
1001
ACAD
1000
AcDbSavedByObjectVersion
1070
     0
  0
ACAD_PROXY_OBJECT
  5
33
102
{ACAD_REACTORS
330
2A
102
}
330
2A
100
AcDbProxyObject
 90
      499
 91
      501
 93
      420
310
425499585B1A5CDD1A58D08409028333333333333E3BF0000000000000FB01079019070040501508421405064090741402480A1B40
1001
ACAD
1000
AcDbSavedByObjectVersion
1070
     0
  0
ACAD_PROXY_OBJECT
  5
37
102
{ACAD_REACTORS
330
2A
102
}
330
2A
100
AcDbProxyObject
 90
      499
 91
      501
 93
      412
310
41D51A1A58DAD95B90D409028333333333333E3BF0000000000000FB010790141107004050150C41D405064090741402480A0350
1001
ACAD
1000
AcDbSavedByObjectVersion
1070
     0
  0
XRECORD
  5
784
102
{ACAD_REACTORS
330
77B
102
}
330
77B
100
AcDbXrecord
 90
        0
  0
XRECORD
  5
79A
102
{ACAD_REACTORS
330
77B
102
}
330
77B
100
AcDbXrecord
1000
DSTYLE
1002
{
1070
   340
340
11
1002
}
  0
XRECORD
  5
785
102
{ACAD_REACTORS
330
77B
102
}
330
77B
100
AcDbXrecord
  1
{32C28D81-F9EC-468D-ACE1-3A54AB488FF3}
  0
XRECORD
  5
77E
102
{ACAD_REACTORS
330
77B
102
}
330
77B
100
AcDbXrecord
  1

  0
XRECORD
  5
783
102
{ACAD_REACTORS
330
77B
102
}
330
77B
100
AcDbXrecord
 90
        4
  0
XRECORD
  5
780
102
{ACAD_REACTORS
330
77B
102
}
330
77B
100
AcDbXrecord
340
1A
  0
XRECORD
  5
782
102
{ACAD_REACTORS
330
77B
102
}
330
77B
100
AcDbXrecord
 90
    10781
  0
XRECORD
  5
781
102
{ACAD_REACTORS
330
77B
102
}
330
77B
100
AcDbXrecord
340
19
  0
XRECORD
  5
787
102
{ACAD_REACTORS
330
77B
102
}
330
77B
100
AcDbXrecord
 40
0.0
  0
XRECORD
  5
78A
102
{ACAD_REACTORS
330
77B
102
}
330
77B
100
AcDbXrecord
340
0
  0
XRECORD
  5
790
102
{ACAD_REACTORS
330
77B
102
}
330
77B
100
AcDbXrecord
 10
0.0
 20
0.0
 30
0.0
  0
XRECORD
  5
78C
102
{ACAD_REACTORS
330
77B
102
}
330
77B
100
AcDbXrecord
 10
0.0
 20
0.0
 30
0.0
  0
XRECORD
  5
78F
102
{ACAD_REACTORS
330
77B
102
}
330
77B
100
AcDbXrecord
 10
0.0
 20
0.0
 30
0.0
  0
XRECORD
  5
78D
102
{ACAD_REACTORS
330
77B
102
}
330
77B
100
AcDbXrecord
 10
0.0
 20
0.0
 30
0.0
  0
XRECORD
  5
78E
102
{ACAD_REACTORS
330
77B
102
}
330
77B
100
AcDbXrecord
 10
0.0
 20
0.0
 30
0.0
  0
XRECORD
  5
78B
102
{ACAD_REACTORS
330
77B
102
}
330
77B
100
AcDbXrecord
 10
0.0
 20
0.0
 30
0.0
  0
XRECORD
  5
788
102
{ACAD_REACTORS
330
77B
102
}
330
77B
100
AcDbXrecord
340
0
  0
XRECORD
  5
789
102
{ACAD_REACTORS
330
77B
102
}
330
77B
100
AcDbXrecord
 70
     0
  0
XRECORD
  5
77F
102
{ACAD_REACTORS
330
77B
102
}
330
77B
100
AcDbXrecord
  1

  0
XRECORD
  5
77C
102
{ACAD_REACTORS
330
77B
102
}
330
77B
100
AcDbXrecord
 90
        1
  0
XRECORD
  5
77D
102
{ACAD_REACTORS
330
77B
102
}
330
77B
100
AcDbXrecord
 90
       70
  0
XRECORD
  5
793
102
{ACAD_REACTORS
330
77B
102
}
330
77B
100
AcDbXrecord
340
0
  0
XRECORD
  5
799
102
{ACAD_REACTORS
330
77B
102
}
330
77B
100
AcDbXrecord
 10
0.0
 20
0.0
 30
0.0
  0
XRECORD
  5
795
102
{ACAD_REACTORS
330
77B
102
}
330
77B
100
AcDbXrecord
 10
0.0
 20
0.0
 30
0.0
  0
XRECORD
  5
798
102
{ACAD_REACTORS
330
77B
102
}
330
77B
100
AcDbXrecord
 10
0.0
 20
0.0
 30
0.0
  0
XRECORD
  5
796
102
{ACAD_REACTORS
330
77B
102
}
330
77B
100
AcDbXrecord
 10
0.0
 20
0.0
 30
0.0
  0
XRECORD
  5
797
102
{ACAD_REACTORS
330
77B
102
}
330
77B
100
AcDbXrecord
 10
0.0
 20
0.0
 30
0.0
  0
XRECORD
  5
794
102
{ACAD_REACTORS
330
77B
102
}
330
77B
100
AcDbXrecord
 10
0.0
 20
0.0
 30
0.0
  0
XRECORD
  5
791
102
{ACAD_REACTORS
330
77B
102
}
330
77B
100
AcDbXrecord
340
0
  0
XRECORD
  5
792
102
{ACAD_REACTORS
330
77B
102
}
330
77B
100
AcDbXrecord
 70
     0
  0
XRECORD
  5
786
102
{ACAD_REACTORS
330
77B
102
}
330
77B
100
AcDbXrecord
  1
{FAEB1C32-E019-11D5-929B-00C0DF256EC4}
  0
DICTIONARYVAR
  5
7A0
102
{ACAD_REACTORS
330
79B
102
}
330
79B
100
DictionaryVariables
280
     0
  1
2
  0
DICTIONARYVAR
  5
7A1
102
{ACAD_REACTORS
330
79B
102
}
330
79B
100
DictionaryVariables
280
     0
  1
1
  0
DICTIONARYVAR
  5
79F
102
{ACAD_REACTORS
330
79B
102
}
330
79B
100
DictionaryVariables
280
     0
  1
80.000000
  0
DICTIONARYVAR
  5
79E
102
{ACAD_REACTORS
330
79B
102
}
330
79B
100
DictionaryVariables
280
     0
  1
5.000000
  0
DICTIONARY
  5
7A4
330
3D
100
AcDbDictionary
280
     1
  3
ACAD_XREC_ROUNDTRIP
360
7A5
  0
DICTIONARY
  5
7A2
330
3C
100
AcDbDictionary
280
     1
  3
ACAD_XREC_ROUNDTRIP
360
7A3
  0
DICTIONARY
  5
7A6
330
3E
100
AcDbDictionary
280
     1
  3
ACAD_XREC_ROUNDTRIP
360
7A7
  0
XRECORD
  5
7A5
102
{ACAD_REACTORS
330
7A4
102
}
330
7A4
100
AcDbXrecord
102
MATERIAL
148
0.0
149
0.0
149
0.0
 93
        0
 94
      127
282
     0
 72
     1
 77
     1
171
     1
175
     1
179
     1
273
     0
  0
XRECORD
  5
7A3
102
{ACAD_REACTORS
330
7A2
102
}
330
7A2
100
AcDbXrecord
102
MATERIAL
148
0.0
149
0.0
149
0.0
 93
        0
 94
      127
282
     0
 72
     1
 77
     1
171
     1
175
     1
179
     1
273
     0
  0
XRECORD
  5
7A7
102
{ACAD_REACTORS
330
7A6
102
}
330
7A6
100
AcDbXrecord
102
MATERIAL
148
0.0
149
0.0
149
0.0
 93
        0
 94
      127
282
     0
 72
     1
 77
     1
171
     1
175
     1
179
     1
273
     0
  0
ENDSEC
  0
EOF
