  0
SECTION
  2
HEADER
  9
$ACADVER
  1
AC1014
  9
$ACADMAINTVER
 70
     9
  9
$DWGCODEPAGE
  3
ANSI_932
  9
$INSBASE
 10
0.0
 20
0.0
 30
0.0
  9
$EXTMIN
 10
-0.7999999999933705
 20
13.4
 30
0.0
  9
$EXTMAX
 10
204.2000000000066
 20
288.4
 30
0.0
  9
$LIMMIN
 10
0.0
 20
0.0
  9
$LIMMAX
 10
210.0
 20
297.0
  9
$ORTHOMODE
 70
     0
  9
$REGENMODE
 70
     1
  9
$FILLMODE
 70
     1
  9
$QTEXTMODE
 70
     0
  9
$MIRRTEXT
 70
     1
  9
$DRAGMODE
 70
     2
  9
$LTSCALE
 40
1.0
  9
$OSMODE
 70
    37
  9
$ATTMODE
 70
     1
  9
$TEXTSIZE
 40
2.5
  9
$TRACEWID
 40
1.0
  9
$TEXTSTYLE
  7
STANDARD
  9
$CLAYER
  8
化粧台
  9
$CELTYPE
  6
BYLAYER
  9
$CECOLOR
 62
   256
  9
$CELTSCALE
 40
1.0
  9
$DELOBJ
 70
     1
  9
$DISPSILH
 70
     0
  9
$DIMSCALE
 40
1.0
  9
$DIMASZ
 40
2.5
  9
$DIMEXO
 40
0.625
  9
$DIMDLI
 40
3.75
  9
$DIMRND
 40
0.0
  9
$DIMDLE
 40
0.0
  9
$DIMEXE
 40
1.25
  9
$DIMTP
 40
0.0
  9
$DIMTM
 40
0.0
  9
$DIMTXT
 40
2.5
  9
$DIMCEN
 40
2.5
  9
$DIMTSZ
 40
0.0
  9
$DIMTOL
 70
     0
  9
$DIMLIM
 70
     0
  9
$DIMTIH
 70
     0
  9
$DIMTOH
 70
     0
  9
$DIMSE1
 70
     0
  9
$DIMSE2
 70
     0
  9
$DIMTAD
 70
     1
  9
$DIMZIN
 70
     8
  9
$DIMBLK
  1

  9
$DIMASO
 70
     1
  9
$DIMSHO
 70
     1
  9
$DIMPOST
  1

  9
$DIMAPOST
  1

  9
$DIMALT
 70
     0
  9
$DIMALTD
 70
     3
  9
$DIMALTF
 40
0.03937007874016
  9
$DIMLFAC
 40
1.0
  9
$DIMTOFL
 70
     1
  9
$DIMTVP
 40
0.0
  9
$DIMTIX
 70
     0
  9
$DIMSOXD
 70
     0
  9
$DIMSAH
 70
     0
  9
$DIMBLK1
  1

  9
$DIMBLK2
  1

  9
$DIMSTYLE
  2
ISO-25
  9
$DIMCLRD
 70
     0
  9
$DIMCLRE
 70
     0
  9
$DIMCLRT
 70
     0
  9
$DIMTFAC
 40
1.0
  9
$DIMGAP
 40
0.625
  9
$DIMJUST
 70
     0
  9
$DIMSD1
 70
     0
  9
$DIMSD2
 70
     0
  9
$DIMTOLJ
 70
     0
  9
$DIMTZIN
 70
     8
  9
$DIMALTZ
 70
     0
  9
$DIMALTTZ
 70
     0
  9
$DIMFIT
 70
     3
  9
$DIMUPT
 70
     0
  9
$DIMUNIT
 70
     2
  9
$DIMDEC
 70
     2
  9
$DIMTDEC
 70
     2
  9
$DIMALTU
 70
     2
  9
$DIMALTTD
 70
     3
  9
$DIMTXSTY
  7
STANDARD
  9
$DIMAUNIT
 70
     0
  9
$LUNITS
 70
     2
  9
$LUPREC
 70
     4
  9
$SKETCHINC
 40
1.0
  9
$FILLETRAD
 40
10.0
  9
$AUNITS
 70
     0
  9
$AUPREC
 70
     0
  9
$MENU
  1
.
  9
$ELEVATION
 40
0.0
  9
$PELEVATION
 40
0.0
  9
$THICKNESS
 40
0.0
  9
$LIMCHECK
 70
     0
  9
$CHAMFERA
 40
10.0
  9
$CHAMFERB
 40
10.0
  9
$CHAMFERC
 40
20.0
  9
$CHAMFERD
 40
0.0
  9
$SKPOLY
 70
     0
  9
$TDCREATE
 40
2457432.485194537
  9
$TDUPDATE
 40
2457432.485196343
  9
$TDINDWG
 40
0.0000000116
  9
$TDUSRTIMER
 40
0.0000000116
  9
$USRTIMER
 70
     1
  9
$ANGBASE
 50
0.0
  9
$ANGDIR
 70
     0
  9
$PDMODE
 70
     0
  9
$PDSIZE
 40
0.0
  9
$PLINEWID
 40
0.0
  9
$COORDS
 70
     1
  9
$SPLFRAME
 70
     0
  9
$SPLINETYPE
 70
     6
  9
$SPLINESEGS
 70
     8
  9
$ATTDIA
 70
     0
  9
$ATTREQ
 70
     1
  9
$HANDLING
 70
     1
  9
$HANDSEED
  5
612
  9
$SURFTAB1
 70
     6
  9
$SURFTAB2
 70
     6
  9
$SURFTYPE
 70
     6
  9
$SURFU
 70
     6
  9
$SURFV
 70
     6
  9
$UCSNAME
  2

  9
$UCSORG
 10
0.0
 20
0.0
 30
0.0
  9
$UCSXDIR
 10
1.0
 20
0.0
 30
0.0
  9
$UCSYDIR
 10
0.0
 20
1.0
 30
0.0
  9
$PUCSNAME
  2

  9
$PUCSORG
 10
0.0
 20
0.0
 30
0.0
  9
$PUCSXDIR
 10
1.0
 20
0.0
 30
0.0
  9
$PUCSYDIR
 10
0.0
 20
1.0
 30
0.0
  9
$USERI1
 70
     0
  9
$USERI2
 70
     0
  9
$USERI3
 70
     0
  9
$USERI4
 70
     0
  9
$USERI5
 70
     0
  9
$USERR1
 40
0.0
  9
$USERR2
 40
0.0
  9
$USERR3
 40
0.0
  9
$USERR4
 40
0.0
  9
$USERR5
 40
0.0
  9
$WORLDVIEW
 70
     1
  9
$SHADEDGE
 70
     3
  9
$SHADEDIF
 70
    70
  9
$TILEMODE
 70
     1
  9
$MAXACTVP
 70
    64
  9
$PINSBASE
 10
0.0
 20
0.0
 30
0.0
  9
$PLIMCHECK
 70
     0
  9
$PEXTMIN
 10
1.000000000000000E+20
 20
1.000000000000000E+20
 30
1.000000000000000E+20
  9
$PEXTMAX
 10
-1.000000000000000E+20
 20
-1.000000000000000E+20
 30
-1.000000000000000E+20
  9
$PLIMMIN
 10
0.0
 20
0.0
  9
$PLIMMAX
 10
420.0
 20
297.0
  9
$UNITMODE
 70
     0
  9
$VISRETAIN
 70
     1
  9
$PLINEGEN
 70
     0
  9
$PSLTSCALE
 70
     1
  9
$TREEDEPTH
 70
  3020
  9
$PICKSTYLE
 70
     1
  9
$CMLSTYLE
  2
STANDARD
  9
$CMLJUST
 70
     0
  9
$CMLSCALE
 40
20.0
  9
$PROXYGRAPHICS
 70
     1
  9
$MEASUREMENT
 70
     1
  0
ENDSEC
  0
SECTION
  2
CLASSES
  0
CLASS
  1
ACDBDICTIONARYWDFLT
  2
AcDbDictionaryWithDefault
  3
ObjectDBX Classes
 90
        0
280
     0
281
     0
  0
CLASS
  1
VISUALSTYLE
  2
AcDbVisualStyle
  3
ObjectDBX Classes
 90
     4095
280
     0
281
     0
  0
CLASS
  1
MATERIAL
  2
AcDbMaterial
  3
ObjectDBX Classes
 90
     1153
280
     0
281
     0
  0
CLASS
  1
SUN
  2
AcDbSun
  3
SCENEOE
 90
     1024
280
     0
281
     0
  0
CLASS
  1
DICTIONARYVAR
  2
AcDbDictionaryVar
  3
ObjectDBX Classes
 90
        0
280
     0
281
     0
  0
CLASS
  1
XRECORD
  2
AcDbXrecord
  3
AutoCAD 2000
 90
        0
280
     0
281
     0
  0
CLASS
  1
LWPOLYLINE
  2
AcDbPolyline
  3
AutoCAD 2000
 90
        0
280
     0
281
     1
  0
CLASS
  1
HATCH
  2
AcDbHatch
  3
AutoCAD 2000
 90
        0
280
     0
281
     1
  0
CLASS
  1
ACDBPLACEHOLDER
  2
AcDbPlaceHolder
  3
ObjectDBX Classes
 90
        0
280
     0
281
     0
  0
CLASS
  1
LAYOUT
  2
AcDbLayout
  3
ObjectDBX Classes
 90
        0
280
     0
281
     0
  0
ENDSEC
  0
SECTION
  2
TABLES
  0
TABLE
  2
VPORT
  5
8
330
0
100
AcDbSymbolTable
 70
     1
  0
VPORT
  5
29
330
8
100
AcDbSymbolTableRecord
100
AcDbViewportTableRecord
  2
*ACTIVE
 70
     0
 10
0.0
 20
0.0
 11
1.0
 21
1.0
 12
1525.500000000099
 22
2263.5
 13
0.0
 23
0.0
 14
10.0
 24
10.0
 15
10.0
 25
10.0
 16
0.0
 26
0.0
 36
1.0
 17
0.0
 27
0.0
 37
0.0
 40
4125.0
 41
0.7454545454545454
 42
50.0
 43
0.0
 44
0.0
 50
0.0
 51
0.0
 71
     0
 72
  1000
 73
     1
 74
     3
 75
     0
 76
     0
 77
     0
 78
     0
  0
ENDTAB
  0
TABLE
  2
LTYPE
  5
5
330
0
100
AcDbSymbolTable
 70
     7
  0
LTYPE
  5
14
330
5
100
AcDbSymbolTableRecord
100
AcDbLinetypeTableRecord
  2
BYBLOCK
 70
     0
  3

 72
    65
 73
     0
 40
0.0
  0
LTYPE
  5
15
330
5
100
AcDbSymbolTableRecord
100
AcDbLinetypeTableRecord
  2
BYLAYER
 70
     0
  3

 72
    65
 73
     0
 40
0.0
  0
LTYPE
  5
16
330
5
100
AcDbSymbolTableRecord
100
AcDbLinetypeTableRecord
  2
CONTINUOUS
 70
     0
  3
Solid line
 72
    65
 73
     0
 40
0.0
  0
LTYPE
  5
40
330
5
100
AcDbSymbolTableRecord
100
AcDbLinetypeTableRecord
  2
EXLTYPE1
 70
     0
  3
破線
 72
    65
 73
     2
 40
3.0
 49
2.0
 74
     0
 49
-1.0
 74
     0
  0
LTYPE
  5
41
330
5
100
AcDbSymbolTableRecord
100
AcDbLinetypeTableRecord
  2
EXLTYPE2
 70
     0
  3
点線
 72
    65
 73
     2
 40
2.0
 49
1.0
 74
     0
 49
-1.0
 74
     0
  0
LTYPE
  5
42
330
5
100
AcDbSymbolTableRecord
100
AcDbLinetypeTableRecord
  2
EXLTYPE3
 70
     0
  3
一点鎖線
 72
    65
 73
     4
 40
10.0
 49
7.0
 74
     0
 49
-1.0
 74
     0
 49
1.0
 74
     0
 49
-1.0
 74
     0
  0
LTYPE
  5
43
330
5
100
AcDbSymbolTableRecord
100
AcDbLinetypeTableRecord
  2
EXLTYPE4
 70
     0
  3
二点鎖線
 72
    65
 73
     6
 40
12.0
 49
7.0
 74
     0
 49
-1.0
 74
     0
 49
1.0
 74
     0
 49
-1.0
 74
     0
 49
1.0
 74
     0
 49
-1.0
 74
     0
  0
LTYPE
  5
44
330
5
100
AcDbSymbolTableRecord
100
AcDbLinetypeTableRecord
  2
EXLTYPE5
 70
     0
  3
三点鎖線
 72
    65
 73
     8
 40
37.0
 49
30.0
 74
     0
 49
-1.0
 74
     0
 49
1.0
 74
     0
 49
-1.0
 74
     0
 49
1.0
 74
     0
 49
-1.0
 74
     0
 49
1.0
 74
     0
 49
-1.0
 74
     0
  0
LTYPE
  5
45
330
5
100
AcDbSymbolTableRecord
100
AcDbLinetypeTableRecord
  2
EXLTYPE6
 70
     0
  3
四点鎖線
 72
    65
 73
    10
 40
39.0
 49
30.0
 74
     0
 49
-1.0
 74
     0
 49
1.0
 74
     0
 49
-1.0
 74
     0
 49
1.0
 74
     0
 49
-1.0
 74
     0
 49
1.0
 74
     0
 49
-1.0
 74
     0
 49
1.0
 74
     0
 49
-1.0
 74
     0
  0
ENDTAB
  0
TABLE
  2
LAYER
  5
2
330
0
100
AcDbSymbolTable
 70
     7
  0
LAYER
  5
10
330
2
100
AcDbSymbolTableRecord
100
AcDbLayerTableRecord
  2
0
 70
     0
 62
     7
  6
CONTINUOUS
  0
LAYER
  5
48
330
2
100
AcDbSymbolTableRecord
100
AcDbLayerTableRecord
  2
枠_表
 70
     0
 62
     7
  6
CONTINUOUS
  0
LAYER
  5
49
330
2
100
AcDbSymbolTableRecord
100
AcDbLayerTableRecord
  2
化粧台
 70
     0
 62
     7
  6
CONTINUOUS
  0
LAYER
  5
4A
330
2
100
AcDbSymbolTableRecord
100
AcDbLayerTableRecord
  2
鏡台
 70
     0
 62
     7
  6
CONTINUOUS
  0
LAYER
  5
4B
330
2
100
AcDbSymbolTableRecord
100
AcDbLayerTableRecord
  2
付属金具
 70
     0
 62
     7
  6
CONTINUOUS
  0
LAYER
  5
4C
330
2
100
AcDbSymbolTableRecord
100
AcDbLayerTableRecord
  2
寸法
 70
     0
 62
     7
  6
CONTINUOUS
  0
LAYER
  5
11A
330
2
100
AcDbSymbolTableRecord
100
AcDbLayerTableRecord
  2
DEFPOINTS
 70
     0
 62
     7
  6
CONTINUOUS
  0
ENDTAB
  0
TABLE
  2
STYLE
  5
3
330
0
100
AcDbSymbolTable
 70
     6
  0
STYLE
  5
11
330
3
100
AcDbSymbolTableRecord
100
AcDbTextStyleTableRecord
  2
STANDARD
 70
     0
 40
0.0
 41
1.0
 50
0.0
 71
     0
 42
2.5
  3
monotxt
  4
extfont
  0
STYLE
  5
46
330
3
100
AcDbSymbolTableRecord
100
AcDbTextStyleTableRecord
  2
EXCADSTD
 70
     0
 40
0.0
 41
1.0
 50
0.0
 71
     0
 42
0.2
  3
monotxt
  4
extfont
  0
STYLE
  5
47
330
3
100
AcDbSymbolTableRecord
100
AcDbTextStyleTableRecord
  2
EXCADVERT
 70
     4
 40
0.0
 41
1.0
 50
0.0
 71
     0
 42
0.286885
  3
monotxt
  4
extfont
  0
STYLE
  5
CB
330
3
100
AcDbSymbolTableRecord
100
AcDbTextStyleTableRecord
  2
EXCADTTF1
 70
     0
 40
0.0
 41
1.0
 50
0.0
 71
     0
 42
0.2
  3
MSGOTHIC.TTC
  4

1001
ACAD
1000
MS Gothic
1071
    32817
  0
STYLE
  5
118
330
3
100
AcDbSymbolTableRecord
100
AcDbTextStyleTableRecord
  2
EXCADDIM1
 70
     0
 40
0.0
 41
0.84
 50
0.0
 71
     0
 42
0.2
  3
monotxt
  4
extfont
  0
STYLE
  5
196
330
3
100
AcDbSymbolTableRecord
100
AcDbTextStyleTableRecord
  2
EXCADDIM2
 70
     0
 40
0.0
 41
0.8
 50
0.0
 71
     0
 42
0.2
  3
monotxt
  4
extfont
  0
ENDTAB
  0
TABLE
  2
VIEW
  5
6
330
0
100
AcDbSymbolTable
 70
     0
  0
ENDTAB
  0
TABLE
  2
UCS
  5
7
330
0
100
AcDbSymbolTable
 70
     0
  0
ENDTAB
  0
TABLE
  2
APPID
  5
9
330
0
100
AcDbSymbolTable
 70
     1
  0
APPID
  5
12
330
9
100
AcDbSymbolTableRecord
100
AcDbRegAppTableRecord
  2
ACAD
 70
     0
  0
ENDTAB
  0
TABLE
  2
DIMSTYLE
  5
A
330
0
100
AcDbSymbolTable
 70
     1
  0
DIMSTYLE
105
27
102
{ACAD_REACTORS
330
119
330
129
330
138
330
145
330
151
330
15E
330
16C
330
179
330
189
330
197
330
1A4
330
1B1
330
1C0
330
1CF
330
1DC
330
1E9
330
1F6
330
2AF
330
303
330
310
330
31E
330
414
330
5C0
330
5CD
102
}
330
A
100
AcDbSymbolTableRecord
100
AcDbDimStyleTableRecord
  2
ISO-25
 70
     0
  3

  4

  5

  6

  7

 40
1.0
 41
2.5
 42
0.625
 43
3.75
 44
1.25
 45
0.0
 46
0.0
 47
0.0
 48
0.0
140
2.5
141
2.5
142
0.0
143
0.03937007874016
144
1.0
145
0.0
146
1.0
147
0.625
 71
     0
 72
     0
 73
     0
 74
     0
 75
     0
 76
     0
 77
     1
 78
     8
170
     0
171
     3
172
     1
173
     0
174
     0
175
     0
176
     0
177
     0
178
     0
270
     2
271
     2
272
     2
273
     2
274
     3
340
11
275
     0
280
     0
281
     0
282
     0
283
     0
284
     8
285
     0
286
     0
287
     5
288
     0
  0
ENDTAB
  0
TABLE
  2
BLOCK_RECORD
  5
1
330
0
100
AcDbSymbolTable
 70
    39
  0
BLOCK_RECORD
  5
1F
330
1
100
AcDbSymbolTableRecord
100
AcDbBlockTableRecord
  2
*MODEL_SPACE
  0
BLOCK_RECORD
  5
1B
330
1
100
AcDbSymbolTableRecord
100
AcDbBlockTableRecord
  2
*PAPER_SPACE
  0
BLOCK_RECORD
  5
4D
330
1
100
AcDbSymbolTableRecord
100
AcDbBlockTableRecord
  2
EX_NORM
  0
BLOCK_RECORD
  5
50
330
1
100
AcDbSymbolTableRecord
100
AcDbBlockTableRecord
  2
EX_BNORM
  0
BLOCK_RECORD
  5
53
330
1
100
AcDbSymbolTableRecord
100
AcDbBlockTableRecord
  2
EX_BCIR
  0
BLOCK_RECORD
  5
56
330
1
100
AcDbSymbolTableRecord
100
AcDbBlockTableRecord
  2
EX_RCIVIL
  0
BLOCK_RECORD
  5
59
330
1
100
AcDbSymbolTableRecord
100
AcDbBlockTableRecord
  2
EX_SLANT
  0
BLOCK_RECORD
  5
5C
330
1
100
AcDbSymbolTableRecord
100
AcDbBlockTableRecord
  2
EX_NONE
  0
BLOCK_RECORD
  5
5F
330
1
100
AcDbSymbolTableRecord
100
AcDbBlockTableRecord
  2
EX_CIVIL
  0
BLOCK_RECORD
  5
62
330
1
100
AcDbSymbolTableRecord
100
AcDbBlockTableRecord
  2
EX_WCIR
  0
BLOCK_RECORD
  5
65
330
1
100
AcDbSymbolTableRecord
100
AcDbBlockTableRecord
  2
EX_WCIR2
  0
BLOCK_RECORD
  5
68
330
1
100
AcDbSymbolTableRecord
100
AcDbBlockTableRecord
  2
EX_WNORM
  0
BLOCK_RECORD
  5
6B
330
1
100
AcDbSymbolTableRecord
100
AcDbBlockTableRecord
  2
EX_NNORM
  0
BLOCK_RECORD
  5
6E
330
1
100
AcDbSymbolTableRecord
100
AcDbBlockTableRecord
  2
EX_BBOX
  0
BLOCK_RECORD
  5
71
330
1
100
AcDbSymbolTableRecord
100
AcDbBlockTableRecord
  2
EX_WBOX
  0
BLOCK_RECORD
  5
74
330
1
100
AcDbSymbolTableRecord
100
AcDbBlockTableRecord
  2
EX_INTEGRAL
  0
BLOCK_RECORD
  5
11B
330
1
100
AcDbSymbolTableRecord
100
AcDbBlockTableRecord
  2
*D15
  0
BLOCK_RECORD
  5
12A
330
1
100
AcDbSymbolTableRecord
100
AcDbBlockTableRecord
  2
*D16
  0
BLOCK_RECORD
  5
139
330
1
100
AcDbSymbolTableRecord
100
AcDbBlockTableRecord
  2
*D17
  0
BLOCK_RECORD
  5
146
330
1
100
AcDbSymbolTableRecord
100
AcDbBlockTableRecord
  2
*D18
  0
BLOCK_RECORD
  5
152
330
1
100
AcDbSymbolTableRecord
100
AcDbBlockTableRecord
  2
*D19
  0
BLOCK_RECORD
  5
15F
330
1
100
AcDbSymbolTableRecord
100
AcDbBlockTableRecord
  2
*D20
  0
BLOCK_RECORD
  5
16D
330
1
100
AcDbSymbolTableRecord
100
AcDbBlockTableRecord
  2
*D21
  0
BLOCK_RECORD
  5
17A
330
1
100
AcDbSymbolTableRecord
100
AcDbBlockTableRecord
  2
*D22
  0
BLOCK_RECORD
  5
18A
330
1
100
AcDbSymbolTableRecord
100
AcDbBlockTableRecord
  2
*D23
  0
BLOCK_RECORD
  5
198
330
1
100
AcDbSymbolTableRecord
100
AcDbBlockTableRecord
  2
*D24
  0
BLOCK_RECORD
  5
1A5
330
1
100
AcDbSymbolTableRecord
100
AcDbBlockTableRecord
  2
*D25
  0
BLOCK_RECORD
  5
1B2
330
1
100
AcDbSymbolTableRecord
100
AcDbBlockTableRecord
  2
*D26
  0
BLOCK_RECORD
  5
1C1
330
1
100
AcDbSymbolTableRecord
100
AcDbBlockTableRecord
  2
*D27
  0
BLOCK_RECORD
  5
1D0
330
1
100
AcDbSymbolTableRecord
100
AcDbBlockTableRecord
  2
*D28
  0
BLOCK_RECORD
  5
1DD
330
1
100
AcDbSymbolTableRecord
100
AcDbBlockTableRecord
  2
*D29
  0
BLOCK_RECORD
  5
1EA
330
1
100
AcDbSymbolTableRecord
100
AcDbBlockTableRecord
  2
*D30
  0
BLOCK_RECORD
  5
1F7
330
1
100
AcDbSymbolTableRecord
100
AcDbBlockTableRecord
  2
*D31
  0
BLOCK_RECORD
  5
2B0
330
1
100
AcDbSymbolTableRecord
100
AcDbBlockTableRecord
  2
*D32
  0
BLOCK_RECORD
  5
304
330
1
100
AcDbSymbolTableRecord
100
AcDbBlockTableRecord
  2
*D33
  0
BLOCK_RECORD
  5
311
330
1
100
AcDbSymbolTableRecord
100
AcDbBlockTableRecord
  2
*D34
  0
BLOCK_RECORD
  5
31F
330
1
100
AcDbSymbolTableRecord
100
AcDbBlockTableRecord
  2
*D35
  0
BLOCK_RECORD
  5
415
330
1
100
AcDbSymbolTableRecord
100
AcDbBlockTableRecord
  2
*D36
  0
BLOCK_RECORD
  5
5C1
330
1
100
AcDbSymbolTableRecord
100
AcDbBlockTableRecord
  2
*D37
  0
BLOCK_RECORD
  5
5CE
330
1
100
AcDbSymbolTableRecord
100
AcDbBlockTableRecord
  2
*D38
  0
ENDTAB
  0
ENDSEC
  0
SECTION
  2
BLOCKS
  0
BLOCK
  5
20
330
1F
100
AcDbEntity
  8
0
100
AcDbBlockBegin
  2
*MODEL_SPACE
 70
     0
 10
0.0
 20
0.0
 30
0.0
  3
*MODEL_SPACE
  1

  0
ENDBLK
  5
21
330
1F
100
AcDbEntity
  8
0
100
AcDbBlockEnd
  0
BLOCK
  5
1C
330
1B
100
AcDbEntity
 67
     1
  8
0
100
AcDbBlockBegin
  2
*PAPER_SPACE
 70
     0
 10
0.0
 20
0.0
 30
0.0
  3
*PAPER_SPACE
  1

  0
ENDBLK
  5
1D
330
1B
100
AcDbEntity
 67
     1
  8
0
100
AcDbBlockEnd
  0
BLOCK
  5
4E
330
4D
100
AcDbEntity
  8
0
100
AcDbBlockBegin
  2
EX_NORM
 70
     0
 10
0.0
 20
0.0
 30
0.0
  3
EX_NORM
  1

  0
LINE
  5
77
330
4D
100
AcDbEntity
  8
0
  6
CONTINUOUS
 62
     0
100
AcDbLine
 10
0.0
 20
0.0
 30
0.0
 11
-1.0
 21
0.0
 31
0.0
  0
LINE
  5
78
330
4D
100
AcDbEntity
  8
0
  6
CONTINUOUS
 62
     0
100
AcDbLine
 10
0.0
 20
0.0
 30
0.0
 11
-1.0
 21
0.166666667
 31
0.0
  0
LINE
  5
79
330
4D
100
AcDbEntity
  8
0
  6
CONTINUOUS
 62
     0
100
AcDbLine
 10
0.0
 20
0.0
 30
0.0
 11
-1.0
 21
-0.166666667
 31
0.0
  0
ENDBLK
  5
4F
330
4D
100
AcDbEntity
  8
0
100
AcDbBlockEnd
  0
BLOCK
  5
51
330
50
100
AcDbEntity
  8
0
100
AcDbBlockBegin
  2
EX_BNORM
 70
     0
 10
0.0
 20
0.0
 30
0.0
  3
EX_BNORM
  1

  0
LINE
  5
7A
330
50
100
AcDbEntity
  8
0
  6
CONTINUOUS
 62
     0
100
AcDbLine
 10
0.0
 20
0.0
 30
0.0
 11
-1.0
 21
0.0
 31
0.0
  0
LINE
  5
7B
330
50
100
AcDbEntity
  8
0
  6
CONTINUOUS
 62
     0
100
AcDbLine
 10
0.0
 20
0.0
 30
0.0
 11
-1.0
 21
0.166666667
 31
0.0
  0
LINE
  5
7C
330
50
100
AcDbEntity
  8
0
  6
CONTINUOUS
 62
     0
100
AcDbLine
 10
0.0
 20
0.0
 30
0.0
 11
-1.0
 21
-0.166666667
 31
0.0
  0
LINE
  5
7D
330
50
100
AcDbEntity
  8
0
  6
CONTINUOUS
 62
     0
100
AcDbLine
 10
0.0
 20
0.0
 30
0.0
 11
-1.0
 21
0.083333333
 31
0.0
  0
LINE
  5
7E
330
50
100
AcDbEntity
  8
0
  6
CONTINUOUS
 62
     0
100
AcDbLine
 10
0.0
 20
0.0
 30
0.0
 11
-1.0
 21
-0.083333333
 31
0.0
  0
LINE
  5
7F
330
50
100
AcDbEntity
  8
0
  6
CONTINUOUS
 62
     0
100
AcDbLine
 10
-1.0
 20
0.166666667
 30
0.0
 11
-1.0
 21
-0.166666667
 31
0.0
  0
ENDBLK
  5
52
330
50
100
AcDbEntity
  8
0
100
AcDbBlockEnd
  0
BLOCK
  5
54
330
53
100
AcDbEntity
  8
0
100
AcDbBlockBegin
  2
EX_BCIR
 70
     0
 10
0.0
 20
0.0
 30
0.0
  3
EX_BCIR
  1

  0
LINE
  5
80
330
53
100
AcDbEntity
  8
0
  6
CONTINUOUS
 62
     0
100
AcDbLine
 10
0.0
 20
0.0
 30
0.0
 11
-1.0
 21
0.0
 31
0.0
  0
CIRCLE
  5
81
330
53
100
AcDbEntity
  8
0
  6
CONTINUOUS
 62
     0
100
AcDbCircle
 10
0.0
 20
0.0
 30
0.0
 40
0.5
  0
CIRCLE
  5
82
330
53
100
AcDbEntity
  8
0
  6
CONTINUOUS
 62
     0
100
AcDbCircle
 10
0.0
 20
0.0
 30
0.0
 40
0.25
  0
ENDBLK
  5
55
330
53
100
AcDbEntity
  8
0
100
AcDbBlockEnd
  0
BLOCK
  5
57
330
56
100
AcDbEntity
  8
0
100
AcDbBlockBegin
  2
EX_RCIVIL
 70
     0
 10
0.0
 20
0.0
 30
0.0
  3
EX_RCIVIL
  1

  0
LINE
  5
83
330
56
100
AcDbEntity
  8
0
  6
CONTINUOUS
 62
     0
100
AcDbLine
 10
0.0
 20
0.0
 30
0.0
 11
-1.0
 21
0.0
 31
0.0
  0
LINE
  5
84
330
56
100
AcDbEntity
  8
0
  6
CONTINUOUS
 62
     0
100
AcDbLine
 10
-1.0
 20
-0.25
 30
0.0
 11
0.0
 21
-0.25
 31
0.0
  0
LINE
  5
85
330
56
100
AcDbEntity
  8
0
  6
CONTINUOUS
 62
     0
100
AcDbLine
 10
-1.0
 20
-0.125
 30
0.0
 11
0.0
 21
-0.125
 31
0.0
  0
ENDBLK
  5
58
330
56
100
AcDbEntity
  8
0
100
AcDbBlockEnd
  0
BLOCK
  5
5A
330
59
100
AcDbEntity
  8
0
100
AcDbBlockBegin
  2
EX_SLANT
 70
     0
 10
0.0
 20
0.0
 30
0.0
  3
EX_SLANT
  1

  0
LINE
  5
86
330
59
100
AcDbEntity
  8
0
  6
CONTINUOUS
 62
     0
100
AcDbLine
 10
0.0
 20
0.0
 30
0.0
 11
-1.0
 21
0.0
 31
0.0
  0
LINE
  5
87
330
59
100
AcDbEntity
  8
0
  6
CONTINUOUS
 62
     0
100
AcDbLine
 10
0.707106781
 20
0.707106781
 30
0.0
 11
-0.707106781
 21
-0.707106781
 31
0.0
  0
ENDBLK
  5
5B
330
59
100
AcDbEntity
  8
0
100
AcDbBlockEnd
  0
BLOCK
  5
5D
330
5C
100
AcDbEntity
  8
0
100
AcDbBlockBegin
  2
EX_NONE
 70
     0
 10
0.0
 20
0.0
 30
0.0
  3
EX_NONE
  1

  0
LINE
  5
88
330
5C
100
AcDbEntity
  8
0
  6
CONTINUOUS
 62
     0
100
AcDbLine
 10
0.0
 20
0.0
 30
0.0
 11
-1.0
 21
0.0
 31
0.0
  0
ENDBLK
  5
5E
330
5C
100
AcDbEntity
  8
0
100
AcDbBlockEnd
  0
BLOCK
  5
60
330
5F
100
AcDbEntity
  8
0
100
AcDbBlockBegin
  2
EX_CIVIL
 70
     0
 10
0.0
 20
0.0
 30
0.0
  3
EX_CIVIL
  1

  0
LINE
  5
89
330
5F
100
AcDbEntity
  8
0
  6
CONTINUOUS
 62
     0
100
AcDbLine
 10
0.0
 20
0.0
 30
0.0
 11
-1.0
 21
0.0
 31
0.0
  0
LINE
  5
8A
330
5F
100
AcDbEntity
  8
0
  6
CONTINUOUS
 62
     0
100
AcDbLine
 10
-1.0
 20
0.25
 30
0.0
 11
0.0
 21
0.25
 31
0.0
  0
LINE
  5
8B
330
5F
100
AcDbEntity
  8
0
  6
CONTINUOUS
 62
     0
100
AcDbLine
 10
-1.0
 20
0.125
 30
0.0
 11
0.0
 21
0.125
 31
0.0
  0
ENDBLK
  5
61
330
5F
100
AcDbEntity
  8
0
100
AcDbBlockEnd
  0
BLOCK
  5
63
330
62
100
AcDbEntity
  8
0
100
AcDbBlockBegin
  2
EX_WCIR
 70
     0
 10
0.0
 20
0.0
 30
0.0
  3
EX_WCIR
  1

  0
LINE
  5
8C
330
62
100
AcDbEntity
  8
0
  6
CONTINUOUS
 62
     0
100
AcDbLine
 10
0.0
 20
0.0
 30
0.0
 11
-1.0
 21
0.0
 31
0.0
  0
CIRCLE
  5
8D
330
62
100
AcDbEntity
  8
0
  6
CONTINUOUS
 62
     0
100
AcDbCircle
 10
0.0
 20
0.0
 30
0.0
 40
0.5
  0
ENDBLK
  5
64
330
62
100
AcDbEntity
  8
0
100
AcDbBlockEnd
  0
BLOCK
  5
66
330
65
100
AcDbEntity
  8
0
100
AcDbBlockBegin
  2
EX_WCIR2
 70
     0
 10
0.0
 20
0.0
 30
0.0
  3
EX_WCIR2
  1

  0
LINE
  5
8E
330
65
100
AcDbEntity
  8
0
  6
CONTINUOUS
 62
     0
100
AcDbLine
 10
-0.5
 20
0.0
 30
0.0
 11
-1.0
 21
0.0
 31
0.0
  0
CIRCLE
  5
8F
330
65
100
AcDbEntity
  8
0
  6
CONTINUOUS
 62
     0
100
AcDbCircle
 10
0.0
 20
0.0
 30
0.0
 40
0.5
  0
ENDBLK
  5
67
330
65
100
AcDbEntity
  8
0
100
AcDbBlockEnd
  0
BLOCK
  5
69
330
68
100
AcDbEntity
  8
0
100
AcDbBlockBegin
  2
EX_WNORM
 70
     0
 10
0.0
 20
0.0
 30
0.0
  3
EX_WNORM
  1

  0
LINE
  5
90
330
68
100
AcDbEntity
  8
0
  6
CONTINUOUS
 62
     0
100
AcDbLine
 10
-1.0
 20
0.0
 30
0.0
 11
-1.0
 21
0.0
 31
0.0
  0
LINE
  5
91
330
68
100
AcDbEntity
  8
0
  6
CONTINUOUS
 62
     0
100
AcDbLine
 10
0.0
 20
0.0
 30
0.0
 11
-1.0
 21
0.166666667
 31
0.0
  0
LINE
  5
92
330
68
100
AcDbEntity
  8
0
  6
CONTINUOUS
 62
     0
100
AcDbLine
 10
0.0
 20
0.0
 30
0.0
 11
-1.0
 21
-0.166666667
 31
0.0
  0
LINE
  5
93
330
68
100
AcDbEntity
  8
0
  6
CONTINUOUS
 62
     0
100
AcDbLine
 10
-1.0
 20
0.166666667
 30
0.0
 11
-1.0
 21
-0.166666667
 31
0.0
  0
ENDBLK
  5
6A
330
68
100
AcDbEntity
  8
0
100
AcDbBlockEnd
  0
BLOCK
  5
6C
330
6B
100
AcDbEntity
  8
0
100
AcDbBlockBegin
  2
EX_NNORM
 70
     0
 10
0.0
 20
0.0
 30
0.0
  3
EX_NNORM
  1

  0
LINE
  5
94
330
6B
100
AcDbEntity
  8
0
  6
CONTINUOUS
 62
     0
100
AcDbLine
 10
0.0
 20
0.0
 30
0.0
 11
-1.0
 21
0.0
 31
0.0
  0
LINE
  5
95
330
6B
100
AcDbEntity
  8
0
  6
CONTINUOUS
 62
     0
100
AcDbLine
 10
0.0
 20
0.0
 30
0.0
 11
-1.0
 21
0.166666667
 31
0.0
  0
LINE
  5
96
330
6B
100
AcDbEntity
  8
0
  6
CONTINUOUS
 62
     0
100
AcDbLine
 10
0.0
 20
0.0
 30
0.0
 11
-1.0
 21
-0.166666667
 31
0.0
  0
LINE
  5
97
330
6B
100
AcDbEntity
  8
0
  6
CONTINUOUS
 62
     0
100
AcDbLine
 10
-1.0
 20
0.166666667
 30
0.0
 11
-1.0
 21
-0.166666667
 31
0.0
  0
ENDBLK
  5
6D
330
6B
100
AcDbEntity
  8
0
100
AcDbBlockEnd
  0
BLOCK
  5
6F
330
6E
100
AcDbEntity
  8
0
100
AcDbBlockBegin
  2
EX_BBOX
 70
     0
 10
0.0
 20
0.0
 30
0.0
  3
EX_BBOX
  1

  0
LINE
  5
98
330
6E
100
AcDbEntity
  8
0
  6
CONTINUOUS
 62
     0
100
AcDbLine
 10
0.0
 20
0.0
 30
0.0
 11
-1.0
 21
0.0
 31
0.0
  0
LINE
  5
99
330
6E
100
AcDbEntity
  8
0
  6
CONTINUOUS
 62
     0
100
AcDbLine
 10
-0.5
 20
0.5
 30
0.0
 11
0.5
 21
0.5
 31
0.0
  0
LINE
  5
9A
330
6E
100
AcDbEntity
  8
0
  6
CONTINUOUS
 62
     0
100
AcDbLine
 10
0.5
 20
0.5
 30
0.0
 11
0.5
 21
-0.5
 31
0.0
  0
LINE
  5
9B
330
6E
100
AcDbEntity
  8
0
  6
CONTINUOUS
 62
     0
100
AcDbLine
 10
0.5
 20
-0.5
 30
0.0
 11
-0.5
 21
-0.5
 31
0.0
  0
LINE
  5
9C
330
6E
100
AcDbEntity
  8
0
  6
CONTINUOUS
 62
     0
100
AcDbLine
 10
-0.5
 20
-0.5
 30
0.0
 11
-0.5
 21
0.5
 31
0.0
  0
LINE
  5
9D
330
6E
100
AcDbEntity
  8
0
  6
CONTINUOUS
 62
     0
100
AcDbLine
 10
-0.25
 20
0.25
 30
0.0
 11
0.25
 21
0.25
 31
0.0
  0
LINE
  5
9E
330
6E
100
AcDbEntity
  8
0
  6
CONTINUOUS
 62
     0
100
AcDbLine
 10
0.25
 20
0.25
 30
0.0
 11
0.25
 21
-0.25
 31
0.0
  0
LINE
  5
9F
330
6E
100
AcDbEntity
  8
0
  6
CONTINUOUS
 62
     0
100
AcDbLine
 10
0.25
 20
-0.25
 30
0.0
 11
-0.25
 21
-0.25
 31
0.0
  0
LINE
  5
A0
330
6E
100
AcDbEntity
  8
0
  6
CONTINUOUS
 62
     0
100
AcDbLine
 10
-0.25
 20
-0.25
 30
0.0
 11
-0.25
 21
0.25
 31
0.0
  0
ENDBLK
  5
70
330
6E
100
AcDbEntity
  8
0
100
AcDbBlockEnd
  0
BLOCK
  5
72
330
71
100
AcDbEntity
  8
0
100
AcDbBlockBegin
  2
EX_WBOX
 70
     0
 10
0.0
 20
0.0
 30
0.0
  3
EX_WBOX
  1

  0
LINE
  5
A1
330
71
100
AcDbEntity
  8
0
  6
CONTINUOUS
 62
     0
100
AcDbLine
 10
-0.5
 20
0.0
 30
0.0
 11
-1.0
 21
0.0
 31
0.0
  0
LINE
  5
A2
330
71
100
AcDbEntity
  8
0
  6
CONTINUOUS
 62
     0
100
AcDbLine
 10
-0.5
 20
0.5
 30
0.0
 11
0.5
 21
0.5
 31
0.0
  0
LINE
  5
A3
330
71
100
AcDbEntity
  8
0
  6
CONTINUOUS
 62
     0
100
AcDbLine
 10
0.5
 20
0.5
 30
0.0
 11
0.5
 21
-0.5
 31
0.0
  0
LINE
  5
A4
330
71
100
AcDbEntity
  8
0
  6
CONTINUOUS
 62
     0
100
AcDbLine
 10
0.5
 20
-0.5
 30
0.0
 11
-0.5
 21
-0.5
 31
0.0
  0
LINE
  5
A5
330
71
100
AcDbEntity
  8
0
  6
CONTINUOUS
 62
     0
100
AcDbLine
 10
-0.5
 20
-0.5
 30
0.0
 11
-0.5
 21
0.5
 31
0.0
  0
ENDBLK
  5
73
330
71
100
AcDbEntity
  8
0
100
AcDbBlockEnd
  0
BLOCK
  5
75
330
74
100
AcDbEntity
  8
0
100
AcDbBlockBegin
  2
EX_INTEGRAL
 70
     0
 10
0.0
 20
0.0
 30
0.0
  3
EX_INTEGRAL
  1

  0
LINE
  5
A6
330
74
100
AcDbEntity
  8
0
  6
CONTINUOUS
 62
     0
100
AcDbLine
 10
0.0
 20
0.0
 30
0.0
 11
-1.0
 21
0.0
 31
0.0
  0
ARC
  5
A7
330
74
100
AcDbEntity
  8
0
  6
CONTINUOUS
 62
     0
100
AcDbCircle
 10
0.542115
 20
0.164992
 30
0.0
 40
0.56667
100
AcDbArc
 50
73.07249033629006
 51
196.9275130221199
  0
ARC
  5
A8
330
74
100
AcDbEntity
  8
0
  6
CONTINUOUS
 62
     0
100
AcDbCircle
 10
-0.542115
 20
-0.164992
 30
0.0
 40
0.56667
100
AcDbArc
 50
253.0724869220464
 51
16.9275130559125
  0
ENDBLK
  5
76
330
74
100
AcDbEntity
  8
0
100
AcDbBlockEnd
  0
BLOCK
  5
11C
330
11B
100
AcDbEntity
  8
0
100
AcDbBlockBegin
  2
*D15
 70
     1
 10
0.0
 20
0.0
 30
0.0
  3
*D15
  1

  0
LINE
  5
11E
330
11B
100
AcDbEntity
  8
化粧台
  6
CONTINUOUS
 62
     3
100
AcDbLine
 10
1537.5
 20
1719.500003814797
 30
0.0
 11
1537.5
 21
1024.499996185303
 31
0.0
  0
INSERT
  5
11F
330
11B
100
AcDbEntity
  8
化粧台
 62
     3
100
AcDbBlockReference
  2
EX_NORM
 10
1537.5
 20
1764.5000000001
 30
0.0
 41
44.99999618530273
 42
44.99999618530273
 43
44.99999618530273
 50
90.0
  0
INSERT
  5
120
330
11B
100
AcDbEntity
  8
化粧台
 62
     3
100
AcDbBlockReference
  2
EX_NORM
 10
1537.5
 20
979.5
 30
0.0
 41
44.99999618530273
 42
44.99999618530273
 43
44.99999618530273
 50
270.0
  0
MTEXT
  5
121
330
11B
100
AcDbEntity
  8
化粧台
 62
     2
100
AcDbMText
 10
1500.0
 20
1372.00000000005
 30
0.0
 40
59.99999618530273
 41
0.0
 71
     5
 72
     1
  1
785
  7
EXCADDIM1
 11
0.0
 21
1.0
 31
0.0
  0
POINT
  5
122
330
11B
100
AcDbEntity
  8
DEFPOINTS
 62
     0
100
AcDbPoint
 10
1521.474995203837
 20
1764.5000000001
 30
0.0
  0
POINT
  5
123
330
11B
100
AcDbEntity
  8
DEFPOINTS
 62
     0
100
AcDbPoint
 10
1521.474995203837
 20
979.5
 30
0.0
  0
POINT
  5
124
330
11B
100
AcDbEntity
  8
DEFPOINTS
 62
     0
100
AcDbPoint
 10
1537.5
 20
979.5
 30
0.0
  0
ENDBLK
  5
11D
330
11B
100
AcDbEntity
  8
0
100
AcDbBlockEnd
  0
BLOCK
  5
12B
330
12A
100
AcDbEntity
  8
0
100
AcDbBlockBegin
  2
*D16
 70
     1
 10
0.0
 20
0.0
 30
0.0
  3
*D16
  1

  0
LINE
  5
12D
330
12A
100
AcDbEntity
  8
化粧台
  6
CONTINUOUS
 62
     3
100
AcDbLine
 10
1322.499999821283
 20
979.5000000000999
 30
0.0
 11
1453.5
 21
979.5000000001
 31
0.0
  0
LINE
  5
12E
330
12A
100
AcDbEntity
  8
化粧台
  6
CONTINUOUS
 62
     3
100
AcDbLine
 10
1035.499999821284
 20
1729.5000000001
 30
0.0
 11
1453.5
 21
1729.5000000001
 31
0.0
  0
LINE
  5
12F
330
12A
100
AcDbEntity
  8
化粧台
  6
CONTINUOUS
 62
     3
100
AcDbLine
 10
1438.5
 20
1024.499996185403
 30
0.0
 11
1438.5
 21
1684.500003814797
 31
0.0
  0
INSERT
  5
130
330
12A
100
AcDbEntity
  8
化粧台
 62
     3
100
AcDbBlockReference
  2
EX_NORM
 10
1438.5
 20
979.5000000001
 30
0.0
 41
44.99999618530273
 42
44.99999618530273
 43
44.99999618530273
 50
270.0
  0
INSERT
  5
131
330
12A
100
AcDbEntity
  8
化粧台
 62
     3
100
AcDbBlockReference
  2
EX_NORM
 10
1438.5
 20
1729.5000000001
 30
0.0
 41
44.99999618530273
 42
44.99999618530273
 43
44.99999618530273
 50
90.0
  0
MTEXT
  5
132
330
12A
100
AcDbEntity
  8
化粧台
 62
     2
100
AcDbMText
 10
1403.250000089407
 20
1354.500000000099
 30
0.0
 40
59.99999618530273
 41
0.0
 71
     5
 72
     1
  1
750
  7
EXCADDIM1
 11
0.0
 21
1.0
 31
0.0
  0
POINT
  5
133
330
12A
100
AcDbEntity
  8
DEFPOINTS
 62
     0
100
AcDbPoint
 10
1312.000000000097
 20
979.5000000000999
 30
0.0
  0
POINT
  5
134
330
12A
100
AcDbEntity
  8
DEFPOINTS
 62
     0
100
AcDbPoint
 10
1025.000000000098
 20
1729.5000000001
 30
0.0
  0
POINT
  5
135
330
12A
100
AcDbEntity
  8
DEFPOINTS
 62
     0
100
AcDbPoint
 10
1438.5
 20
1729.5000000001
 30
0.0
  0
ENDBLK
  5
12C
330
12A
100
AcDbEntity
  8
0
100
AcDbBlockEnd
  0
BLOCK
  5
13A
330
139
100
AcDbEntity
  8
0
100
AcDbBlockBegin
  2
*D17
 70
     1
 10
0.0
 20
0.0
 30
0.0
  3
*D17
  1

  0
LINE
  5
13C
330
139
100
AcDbEntity
  8
化粧台
  6
CONTINUOUS
 62
     3
100
AcDbLine
 10
725.0000000001785
 20
3492.0
 30
0.0
 11
725.0000000001785
 21
3294.0
 31
0.0
  0
LINE
  5
13D
330
139
100
AcDbEntity
  8
化粧台
  6
CONTINUOUS
 62
     3
100
AcDbLine
 10
1325.000000000137
 20
3492.0
 30
0.0
 11
1325.000000000137
 21
3294.0
 31
0.0
  0
LINE
  5
13E
330
139
100
AcDbEntity
  8
化粧台
  6
CONTINUOUS
 62
     3
100
AcDbLine
 10
769.9999961854812
 20
3309.0
 30
0.0
 11
1280.000003814834
 21
3309.0
 31
0.0
  0
INSERT
  5
13F
330
139
100
AcDbEntity
  8
化粧台
 62
     3
100
AcDbBlockReference
  2
EX_NORM
 10
725.0000000001785
 20
3309.0
 30
0.0
 41
44.99999618530273
 42
44.99999618530273
 43
44.99999618530273
 50
180.0
  0
INSERT
  5
140
330
139
100
AcDbEntity
  8
化粧台
 62
     3
100
AcDbBlockReference
  2
EX_NORM
 10
1325.000000000137
 20
3309.0
 30
0.0
 41
44.99999618530273
 42
44.99999618530273
 43
44.99999618530273
  0
MTEXT
  5
141
330
139
100
AcDbEntity
  8
化粧台
 62
     2
100
AcDbMText
 10
1025.000000000158
 20
3344.249999910593
 30
0.0
 40
59.99999618530273
 41
0.0
 71
     5
 72
     1
  1
600
  7
EXCADDIM1
  0
POINT
  5
142
330
139
100
AcDbEntity
  8
DEFPOINTS
 62
     0
100
AcDbPoint
 10
725.0000000001785
 20
3492.000000000039
 30
0.0
  0
POINT
  5
143
330
139
100
AcDbEntity
  8
DEFPOINTS
 62
     0
100
AcDbPoint
 10
1325.000000000137
 20
3492.000000000039
 30
0.0
  0
POINT
  5
144
330
139
100
AcDbEntity
  8
DEFPOINTS
 62
     0
100
AcDbPoint
 10
1325.000000000137
 20
3309.0
 30
0.0
  0
ENDBLK
  5
13B
330
139
100
AcDbEntity
  8
0
100
AcDbBlockEnd
  0
BLOCK
  5
147
330
146
100
AcDbEntity
  8
0
100
AcDbBlockBegin
  2
*D18
 70
     1
 10
0.0
 20
0.0
 30
0.0
  3
*D18
  1

  0
LINE
  5
149
330
146
100
AcDbEntity
  8
化粧台
  6
CONTINUOUS
 62
     3
100
AcDbLine
 10
1330.499999821323
 20
3515.500000000039
 30
0.0
 11
1458.0
 21
3515.500000000039
 31
0.0
  0
LINE
  5
14A
330
146
100
AcDbEntity
  8
化粧台
  6
CONTINUOUS
 62
     3
100
AcDbLine
 10
1443.0
 20
3770.500003814736
 30
0.0
 11
1443.0
 21
3560.499996185342
 31
0.0
  0
INSERT
  5
14B
330
146
100
AcDbEntity
  8
化粧台
 62
     3
100
AcDbBlockReference
  2
EX_NORM
 10
1443.0
 20
3815.500000000039
 30
0.0
 41
44.99999618530273
 42
44.99999618530273
 43
44.99999618530273
 50
90.0
  0
INSERT
  5
14C
330
146
100
AcDbEntity
  8
化粧台
 62
     3
100
AcDbBlockReference
  2
EX_NORM
 10
1443.0
 20
3515.500000000039
 30
0.0
 41
44.99999618530273
 42
44.99999618530273
 43
44.99999618530273
 50
270.0
  0
MTEXT
  5
14D
330
146
100
AcDbEntity
  8
化粧台
 62
     2
100
AcDbMText
 10
1407.750000089407
 20
3665.500000000039
 30
0.0
 40
59.99999618530273
 41
0.0
 71
     5
 72
     1
  1
300
  7
EXCADDIM1
 11
0.0
 21
1.0
 31
0.0
  0
POINT
  5
14E
330
146
100
AcDbEntity
  8
DEFPOINTS
 62
     0
100
AcDbPoint
 10
1325.000000000137
 20
3815.500000000039
 30
0.0
  0
POINT
  5
14F
330
146
100
AcDbEntity
  8
DEFPOINTS
 62
     0
100
AcDbPoint
 10
1320.000000000137
 20
3515.500000000039
 30
0.0
  0
POINT
  5
150
330
146
100
AcDbEntity
  8
DEFPOINTS
 62
     0
100
AcDbPoint
 10
1443.0
 20
3515.500000000039
 30
0.0
  0
ENDBLK
  5
148
330
146
100
AcDbEntity
  8
0
100
AcDbBlockEnd
  0
BLOCK
  5
153
330
152
100
AcDbEntity
  8
0
100
AcDbBlockBegin
  2
*D19
 70
     1
 10
0.0
 20
0.0
 30
0.0
  3
*D19
  1

  0
LINE
  5
155
330
152
100
AcDbEntity
  8
化粧台
  6
CONTINUOUS
 62
     3
100
AcDbLine
 10
1035.499999821324
 20
3815.5
 30
0.0
 11
1568.999999999997
 21
3815.5
 31
0.0
  0
LINE
  5
156
330
152
100
AcDbEntity
  8
化粧台
  6
CONTINUOUS
 62
     3
100
AcDbLine
 10
1035.499999821324
 20
3445.5
 30
0.0
 11
1568.999999999997
 21
3445.5
 31
0.0
  0
LINE
  5
157
330
152
100
AcDbEntity
  8
化粧台
  6
CONTINUOUS
 62
     3
100
AcDbLine
 10
1553.999999999999
 20
3770.500003814697
 30
0.0
 11
1553.999999999999
 21
3490.499996185302
 31
0.0
  0
INSERT
  5
158
330
152
100
AcDbEntity
  8
化粧台
 62
     3
100
AcDbBlockReference
  2
EX_NORM
 10
1553.999999999999
 20
3815.5
 30
0.0
 41
44.99999618530273
 42
44.99999618530273
 43
44.99999618530273
 50
90.0
  0
INSERT
  5
159
330
152
100
AcDbEntity
  8
化粧台
 62
     3
100
AcDbBlockReference
  2
EX_NORM
 10
1553.999999999999
 20
3445.5
 30
0.0
 41
44.99999618530273
 42
44.99999618530273
 43
44.99999618530273
 50
270.0
  0
MTEXT
  5
15A
330
152
100
AcDbEntity
  8
化粧台
 62
     2
100
AcDbMText
 10
1516.5
 20
3630.5
 30
0.0
 40
59.99999618530273
 41
0.0
 71
     5
 72
     1
  1
370
  7
EXCADDIM1
 11
0.0
 21
1.0
 31
0.0
  0
POINT
  5
15B
330
152
100
AcDbEntity
  8
DEFPOINTS
 62
     0
100
AcDbPoint
 10
1025.000000000138
 20
3815.5
 30
0.0
  0
POINT
  5
15C
330
152
100
AcDbEntity
  8
DEFPOINTS
 62
     0
100
AcDbPoint
 10
1025.000000000138
 20
3445.5
 30
0.0
  0
POINT
  5
15D
330
152
100
AcDbEntity
  8
DEFPOINTS
 62
     0
100
AcDbPoint
 10
1553.999999999999
 20
3445.5
 30
0.0
  0
ENDBLK
  5
154
330
152
100
AcDbEntity
  8
0
100
AcDbBlockEnd
  0
BLOCK
  5
160
330
15F
100
AcDbEntity
  8
0
100
AcDbBlockBegin
  2
*D20
 70
     1
 10
0.0
 20
0.0
 30
0.0
  3
*D20
  1

  0
LINE
  5
162
330
15F
100
AcDbEntity
  8
化粧台
  6
CONTINUOUS
 62
     3
100
AcDbLine
 10
1145.000000000136
 20
3866.399999821185
 30
0.0
 11
1145.000000000136
 21
3936.0
 31
0.0
  0
LINE
  5
163
330
15F
100
AcDbEntity
  8
化粧台
  6
CONTINUOUS
 62
     3
100
AcDbLine
 10
1235.000000000136
 20
3854.099999821186
 30
0.0
 11
1235.000000000136
 21
3936.0
 31
0.0
  0
LINE
  5
164
330
15F
100
AcDbEntity
  8
化粧台
  6
CONTINUOUS
 62
     3
100
AcDbLine
 10
1174.999998092788
 20
3921.0
 30
0.0
 11
1205.000001907485
 21
3921.0
 31
0.0
  0
INSERT
  5
165
330
15F
100
AcDbEntity
  8
化粧台
 62
     3
100
AcDbBlockReference
  2
EX_NORM
 10
1145.000000000136
 20
3921.0
 30
0.0
 41
29.99999809265137
 42
29.99999809265137
 43
29.99999809265137
 50
180.0
  0
INSERT
  5
166
330
15F
100
AcDbEntity
  8
化粧台
 62
     3
100
AcDbBlockReference
  2
EX_NORM
 10
1235.000000000136
 20
3921.0
 30
0.0
 41
29.99999809265137
 42
29.99999809265137
 43
29.99999809265137
  0
MTEXT
  5
167
330
15F
100
AcDbEntity
  8
化粧台
 62
     2
100
AcDbMText
 10
1438.999999463695
 20
3958.5
 30
0.0
 40
59.99999618530273
 41
0.0
 71
     5
 72
     1
  1
90（壁給水）
  7
EXCADDIM1
  0
POINT
  5
168
330
15F
100
AcDbEntity
  8
DEFPOINTS
 62
     0
100
AcDbPoint
 10
1145.000000000136
 20
3855.899999999999
 30
0.0
  0
POINT
  5
169
330
15F
100
AcDbEntity
  8
DEFPOINTS
 62
     0
100
AcDbPoint
 10
1235.000000000136
 20
3843.599999999999
 30
0.0
  0
POINT
  5
16A
330
15F
100
AcDbEntity
  8
DEFPOINTS
 62
     0
100
AcDbPoint
 10
1235.000000000136
 20
3921.0
 30
0.0
  0
ENDBLK
  5
161
330
15F
100
AcDbEntity
  8
0
100
AcDbBlockEnd
  0
BLOCK
  5
16E
330
16D
100
AcDbEntity
  8
0
100
AcDbBlockBegin
  2
*D21
 70
     1
 10
0.0
 20
0.0
 30
0.0
  3
*D21
  1

  0
LINE
  5
170
330
16D
100
AcDbEntity
  8
化粧台
  6
CONTINUOUS
 62
     3
100
AcDbLine
 10
1145.000000000136
 20
942.0000001787739
 30
0.0
 11
1145.000000000136
 21
813.0
 31
0.0
  0
LINE
  5
171
330
16D
100
AcDbEntity
  8
化粧台
  6
CONTINUOUS
 62
     3
100
AcDbLine
 10
1235.000000000136
 20
942.0000001788139
 30
0.0
 11
1235.000000000136
 21
813.0
 31
0.0
  0
LINE
  5
172
330
16D
100
AcDbEntity
  8
化粧台
  6
CONTINUOUS
 62
     3
100
AcDbLine
 10
1189.999996185439
 20
828.0
 30
0.0
 11
1190.000003814833
 21
828.0
 31
0.0
  0
INSERT
  5
173
330
16D
100
AcDbEntity
  8
化粧台
 62
     3
100
AcDbBlockReference
  2
EX_NORM
 10
1145.000000000136
 20
828.0
 30
0.0
 41
44.99999618530273
 42
44.99999618530273
 43
44.99999618530273
 50
180.0
  0
INSERT
  5
174
330
16D
100
AcDbEntity
  8
化粧台
 62
     3
100
AcDbBlockReference
  2
EX_NORM
 10
1235.000000000136
 20
828.0
 30
0.0
 41
44.99999618530273
 42
44.99999618530273
 43
44.99999618530273
  0
MTEXT
  5
175
330
16D
100
AcDbEntity
  8
化粧台
 62
     2
100
AcDbMText
 10
1471.99999928488
 20
865.5
 30
0.0
 40
59.99999618530273
 41
0.0
 71
     5
 72
     1
  1
  90（床給水）
  7
EXCADDIM1
  0
POINT
  5
176
330
16D
100
AcDbEntity
  8
DEFPOINTS
 62
     0
100
AcDbPoint
 10
1145.000000000136
 20
952.49999999996
 30
0.0
  0
POINT
  5
177
330
16D
100
AcDbEntity
  8
DEFPOINTS
 62
     0
100
AcDbPoint
 10
1235.000000000136
 20
952.5
 30
0.0
  0
POINT
  5
178
330
16D
100
AcDbEntity
  8
DEFPOINTS
 62
     0
100
AcDbPoint
 10
1235.000000000136
 20
828.0
 30
0.0
  0
ENDBLK
  5
16F
330
16D
100
AcDbEntity
  8
0
100
AcDbBlockEnd
  0
BLOCK
  5
17B
330
17A
100
AcDbEntity
  8
0
100
AcDbBlockBegin
  2
*D22
 70
     1
 10
0.0
 20
0.0
 30
0.0
  3
*D22
  1

  0
LINE
  5
17D
330
17A
100
AcDbEntity
  8
化粧台
  6
CONTINUOUS
 62
     3
100
AcDbLine
 10
1025.000000000136
 20
907.5000001788139
 30
0.0
 11
1025.000000000136
 21
813.0
 31
0.0
  0
LINE
  5
17E
330
17A
100
AcDbEntity
  8
化粧台
  6
CONTINUOUS
 62
     3
100
AcDbLine
 10
1145.000000000136
 20
942.0000001787739
 30
0.0
 11
1145.000000000136
 21
813.0
 31
0.0
  0
LINE
  5
17F
330
17A
100
AcDbEntity
  8
化粧台
  6
CONTINUOUS
 62
     3
100
AcDbLine
 10
1069.999996185439
 20
828.0
 30
0.0
 11
1100.000003814833
 21
828.0
 31
0.0
  0
INSERT
  5
180
330
17A
100
AcDbEntity
  8
化粧台
 62
     3
100
AcDbBlockReference
  2
EX_NORM
 10
1025.000000000136
 20
828.0
 30
0.0
 41
44.99999618530273
 42
44.99999618530273
 43
44.99999618530273
 50
180.0
  0
INSERT
  5
181
330
17A
100
AcDbEntity
  8
化粧台
 62
     3
100
AcDbBlockReference
  2
EX_NORM
 10
1145.000000000136
 20
828.0
 30
0.0
 41
44.99999618530273
 42
44.99999618530273
 43
44.99999618530273
  0
MTEXT
  5
182
330
17A
100
AcDbEntity
  8
化粧台
 62
     2
100
AcDbMText
 10
1085.000000000136
 20
865.5
 30
0.0
 40
59.99999618530273
 41
0.0
 71
     5
 72
     1
  1
120
  7
EXCADDIM1
  0
POINT
  5
183
330
17A
100
AcDbEntity
  8
DEFPOINTS
 62
     0
100
AcDbPoint
 10
1025.000000000136
 20
918.0
 30
0.0
  0
POINT
  5
184
330
17A
100
AcDbEntity
  8
DEFPOINTS
 62
     0
100
AcDbPoint
 10
1145.000000000136
 20
952.49999999996
 30
0.0
  0
POINT
  5
185
330
17A
100
AcDbEntity
  8
DEFPOINTS
 62
     0
100
AcDbPoint
 10
1145.000000000136
 20
828.0
 30
0.0
  0
ENDBLK
  5
17C
330
17A
100
AcDbEntity
  8
0
100
AcDbBlockEnd
  0
BLOCK
  5
18B
330
18A
100
AcDbEntity
  8
0
100
AcDbBlockBegin
  2
*D23
 70
     1
 10
0.0
 20
0.0
 30
0.0
  3
*D23
  1

  0
LINE
  5
18D
330
18A
100
AcDbEntity
  8
化粧台
  6
CONTINUOUS
 62
     3
100
AcDbLine
 10
2268.500000000096
 20
969.0000001788139
 30
0.0
 11
2268.500000000096
 21
726.0
 31
0.0
  0
LINE
  5
18E
330
18A
100
AcDbEntity
  8
化粧台
  6
CONTINUOUS
 62
     3
100
AcDbLine
 10
2528.000000000097
 20
969.0000001788139
 30
0.0
 11
2528.000000000097
 21
726.0
 31
0.0
  0
LINE
  5
18F
330
18A
100
AcDbEntity
  8
化粧台
  6
CONTINUOUS
 62
     3
100
AcDbLine
 10
2313.499996185399
 20
741.0
 30
0.0
 11
2483.000003814794
 21
741.0
 31
0.0
  0
INSERT
  5
190
330
18A
100
AcDbEntity
  8
化粧台
 62
     3
100
AcDbBlockReference
  2
EX_NORM
 10
2268.500000000096
 20
741.0
 30
0.0
 41
44.99999618530273
 42
44.99999618530273
 43
44.99999618530273
 50
180.0
  0
INSERT
  5
191
330
18A
100
AcDbEntity
  8
化粧台
 62
     3
100
AcDbBlockReference
  2
EX_NORM
 10
2528.000000000097
 20
741.0
 30
0.0
 41
44.99999618530273
 42
44.99999618530273
 43
44.99999618530273
  0
MTEXT
  5
192
330
18A
100
AcDbEntity
  8
化粧台
 62
     2
100
AcDbMText
 10
2398.250000000096
 20
778.5
 30
0.0
 40
59.99999618530273
 41
0.0
 71
     5
 72
     1
  1
260
  7
EXCADDIM1
  0
POINT
  5
193
330
18A
100
AcDbEntity
  8
DEFPOINTS
 62
     0
100
AcDbPoint
 10
2268.500000000096
 20
979.5
 30
0.0
  0
POINT
  5
194
330
18A
100
AcDbEntity
  8
DEFPOINTS
 62
     0
100
AcDbPoint
 10
2528.000000000097
 20
979.5
 30
0.0
  0
POINT
  5
195
330
18A
100
AcDbEntity
  8
DEFPOINTS
 62
     0
100
AcDbPoint
 10
2528.000000000097
 20
741.0
 30
0.0
  0
ENDBLK
  5
18C
330
18A
100
AcDbEntity
  8
0
100
AcDbBlockEnd
  0
BLOCK
  5
199
330
198
100
AcDbEntity
  8
0
100
AcDbBlockBegin
  2
*D24
 70
     1
 10
0.0
 20
0.0
 30
0.0
  3
*D24
  1

  0
LINE
  5
19B
330
198
100
AcDbEntity
  8
化粧台
  6
CONTINUOUS
 62
     3
100
AcDbLine
 10
2548.999999642482
 20
979.5
 30
0.0
 11
2643.000000000097
 21
979.4999999999999
 31
0.0
  0
LINE
  5
19C
330
198
100
AcDbEntity
  8
化粧台
  6
CONTINUOUS
 62
     3
100
AcDbLine
 10
2561.500005543282
 20
1299.5
 30
0.0
 11
2643.000000000097
 21
1299.5
 31
0.0
  0
LINE
  5
19D
330
198
100
AcDbEntity
  8
化粧台
  6
CONTINUOUS
 62
     3
100
AcDbLine
 10
2628.000000000097
 20
1024.499996185303
 30
0.0
 11
2628.000000000097
 21
1254.500003814697
 31
0.0
  0
INSERT
  5
19E
330
198
100
AcDbEntity
  8
化粧台
 62
     3
100
AcDbBlockReference
  2
EX_NORM
 10
2628.000000000097
 20
979.4999999999999
 30
0.0
 41
44.99999618530273
 42
44.99999618530273
 43
44.99999618530273
 50
270.0
  0
INSERT
  5
19F
330
198
100
AcDbEntity
  8
化粧台
 62
     3
100
AcDbBlockReference
  2
EX_NORM
 10
2628.000000000097
 20
1299.5
 30
0.0
 41
44.99999618530273
 42
44.99999618530273
 43
44.99999618530273
 50
90.0
  0
MTEXT
  5
1A0
330
198
100
AcDbEntity
  8
化粧台
 62
     2
100
AcDbMText
 10
2590.500000000097
 20
1147.0
 30
0.0
 40
59.99999618530273
 41
0.0
 71
     5
 72
     1
  1
320（壁給水）
  7
EXCADDIM2
 11
-3.828568698926949E-16
 21
1.0
 31
0.0
  0
POINT
  5
1A1
330
198
100
AcDbEntity
  8
DEFPOINTS
 62
     0
100
AcDbPoint
 10
2538.499999821296
 20
979.5
 30
0.0
  0
POINT
  5
1A2
330
198
100
AcDbEntity
  8
DEFPOINTS
 62
     0
100
AcDbPoint
 10
2551.000005722095
 20
1299.5
 30
0.0
  0
POINT
  5
1A3
330
198
100
AcDbEntity
  8
DEFPOINTS
 62
     0
100
AcDbPoint
 10
2628.000000000097
 20
1299.5
 30
0.0
  0
ENDBLK
  5
19A
330
198
100
AcDbEntity
  8
0
100
AcDbBlockEnd
  0
BLOCK
  5
1A6
330
1A5
100
AcDbEntity
  8
0
100
AcDbBlockBegin
  2
*D25
 70
     1
 10
0.0
 20
0.0
 30
0.0
  3
*D25
  1

  0
LINE
  5
1A8
330
1A5
100
AcDbEntity
  8
化粧台
  6
CONTINUOUS
 62
     3
100
AcDbLine
 10
2548.999999642482
 20
979.5
 30
0.0
 11
2730.000000000097
 21
979.4999999999999
 31
0.0
  0
LINE
  5
1A9
330
1A5
100
AcDbEntity
  8
化粧台
  6
CONTINUOUS
 62
     3
100
AcDbLine
 10
2567.249999821283
 20
1454.5
 30
0.0
 11
2730.000000000097
 21
1454.5
 31
0.0
  0
LINE
  5
1AA
330
1A5
100
AcDbEntity
  8
化粧台
  6
CONTINUOUS
 62
     3
100
AcDbLine
 10
2715.000000000097
 20
1024.499996185303
 30
0.0
 11
2715.000000000097
 21
1409.500003814697
 31
0.0
  0
INSERT
  5
1AB
330
1A5
100
AcDbEntity
  8
化粧台
 62
     3
100
AcDbBlockReference
  2
EX_NORM
 10
2715.000000000097
 20
979.4999999999999
 30
0.0
 41
44.99999618530273
 42
44.99999618530273
 43
44.99999618530273
 50
270.0
  0
INSERT
  5
1AC
330
1A5
100
AcDbEntity
  8
化粧台
 62
     3
100
AcDbBlockReference
  2
EX_NORM
 10
2715.000000000097
 20
1454.5
 30
0.0
 41
44.99999618530273
 42
44.99999618530273
 43
44.99999618530273
 50
90.0
  0
MTEXT
  5
1AD
330
1A5
100
AcDbEntity
  8
化粧台
 62
     2
100
AcDbMText
 10
2677.500000000097
 20
1217.0
 30
0.0
 40
59.99999618530273
 41
0.0
 71
     5
 72
     1
  1
475（壁排水）
  7
EXCADDIM1
 11
0.0
 21
1.0
 31
0.0
  0
POINT
  5
1AE
330
1A5
100
AcDbEntity
  8
DEFPOINTS
 62
     0
100
AcDbPoint
 10
2538.499999821296
 20
979.5
 30
0.0
  0
POINT
  5
1AF
330
1A5
100
AcDbEntity
  8
DEFPOINTS
 62
     0
100
AcDbPoint
 10
2556.750000000097
 20
1454.5
 30
0.0
  0
POINT
  5
1B0
330
1A5
100
AcDbEntity
  8
DEFPOINTS
 62
     0
100
AcDbPoint
 10
2715.000000000097
 20
1454.5
 30
0.0
  0
ENDBLK
  5
1A7
330
1A5
100
AcDbEntity
  8
0
100
AcDbBlockEnd
  0
BLOCK
  5
1B3
330
1B2
100
AcDbEntity
  8
0
100
AcDbBlockBegin
  2
*D26
 70
     1
 10
0.0
 20
0.0
 30
0.0
  3
*D26
  1

  0
LINE
  5
1B5
330
1B2
100
AcDbEntity
  8
化粧台
  6
CONTINUOUS
 62
     3
100
AcDbLine
 10
2443.000000000097
 20
924.0000001788139
 30
0.0
 11
2443.000000000097
 21
844.5
 31
0.0
  0
LINE
  5
1B6
330
1B2
100
AcDbEntity
  8
化粧台
  6
CONTINUOUS
 62
     3
100
AcDbLine
 10
2528.000000000097
 20
969.0000001788139
 30
0.0
 11
2528.000000000097
 21
844.5
 31
0.0
  0
LINE
  5
1B7
330
1B2
100
AcDbEntity
  8
化粧台
  6
CONTINUOUS
 62
     3
100
AcDbLine
 10
2443.000000000097
 20
859.5
 30
0.0
 11
2528.000000000097
 21
859.5
 31
0.0
  0
LINE
  5
1B8
330
1B2
100
AcDbEntity
  8
化粧台
  6
CONTINUOUS
 62
     3
100
AcDbLine
 10
2398.000003814794
 20
859.5
 30
0.0
 11
2353.000007629491
 21
859.5
 31
0.0
  0
LINE
  5
1B9
330
1B2
100
AcDbEntity
  8
化粧台
  6
CONTINUOUS
 62
     3
100
AcDbLine
 10
2572.9999961854
 20
859.5
 30
0.0
 11
2617.999992370702
 21
859.5
 31
0.0
  0
INSERT
  5
1BA
330
1B2
100
AcDbEntity
  8
化粧台
 62
     3
100
AcDbBlockReference
  2
EX_NORM
 10
2443.000000000097
 20
859.5
 30
0.0
 41
44.99999618530273
 42
44.99999618530273
 43
44.99999618530273
  0
INSERT
  5
1BB
330
1B2
100
AcDbEntity
  8
化粧台
 62
     3
100
AcDbBlockReference
  2
EX_NORM
 10
2528.000000000097
 20
859.5
 30
0.0
 41
44.99999618530273
 42
44.99999618530273
 43
44.99999618530273
 50
180.0
  0
MTEXT
  5
1BC
330
1B2
100
AcDbEntity
  8
化粧台
 62
     2
100
AcDbMText
 10
2770.999997139074
 20
897.0
 30
0.0
 40
59.99999618530273
 41
0.0
 71
     5
 72
     1
  1
85（床・給排水）
  7
EXCADDIM1
  0
POINT
  5
1BD
330
1B2
100
AcDbEntity
  8
DEFPOINTS
 62
     0
100
AcDbPoint
 10
2443.000000000097
 20
934.5
 30
0.0
  0
POINT
  5
1BE
330
1B2
100
AcDbEntity
  8
DEFPOINTS
 62
     0
100
AcDbPoint
 10
2528.000000000097
 20
979.5
 30
0.0
  0
POINT
  5
1BF
330
1B2
100
AcDbEntity
  8
DEFPOINTS
 62
     0
100
AcDbPoint
 10
2528.000000000097
 20
859.5
 30
0.0
  0
ENDBLK
  5
1B4
330
1B2
100
AcDbEntity
  8
0
100
AcDbBlockEnd
  0
BLOCK
  5
1C2
330
1C1
100
AcDbEntity
  8
0
100
AcDbBlockBegin
  2
*D27
 70
     1
 10
0.0
 20
0.0
 30
0.0
  3
*D27
  1

  0
LINE
  5
1C4
330
1C1
100
AcDbEntity
  8
化粧台
  6
CONTINUOUS
 62
     3
100
AcDbLine
 10
1025.000000000134
 20
3836.999999821186
 30
0.0
 11
1025.000000000134
 21
3936.0
 31
0.0
  0
LINE
  5
1C5
330
1C1
100
AcDbEntity
  8
化粧台
  6
CONTINUOUS
 62
     3
100
AcDbLine
 10
1065.000000000134
 20
3862.499999821186
 30
0.0
 11
1065.000000000134
 21
3936.0
 31
0.0
  0
LINE
  5
1C6
330
1C1
100
AcDbEntity
  8
化粧台
  6
CONTINUOUS
 62
     3
100
AcDbLine
 10
1025.000000000134
 20
3921.0
 30
0.0
 11
1065.000000000134
 21
3921.0
 31
0.0
  0
LINE
  5
1C7
330
1C1
100
AcDbEntity
  8
化粧台
  6
CONTINUOUS
 62
     3
100
AcDbLine
 10
995.000001907483
 20
3921.0
 30
0.0
 11
965.0000038148316
 21
3921.0
 31
0.0
  0
LINE
  5
1C8
330
1C1
100
AcDbEntity
  8
化粧台
  6
CONTINUOUS
 62
     3
100
AcDbLine
 10
1094.999998092786
 20
3921.0
 30
0.0
 11
1124.999996185437
 21
3921.0
 31
0.0
  0
INSERT
  5
1C9
330
1C1
100
AcDbEntity
  8
化粧台
 62
     3
100
AcDbBlockReference
  2
EX_NORM
 10
1025.000000000134
 20
3921.0
 30
0.0
 41
29.99999809265137
 42
29.99999809265137
 43
29.99999809265137
  0
INSERT
  5
1CA
330
1C1
100
AcDbEntity
  8
化粧台
 62
     3
100
AcDbBlockReference
  2
EX_NORM
 10
1065.000000000134
 20
3921.0
 30
0.0
 41
29.99999809265137
 42
29.99999809265137
 43
29.99999809265137
 50
180.0
  0
MTEXT
  5
1CB
330
1C1
100
AcDbEntity
  8
化粧台
 62
     2
100
AcDbMText
 10
821.0000005365764
 20
3958.5
 30
0.0
 40
59.99999618530273
 41
0.0
 71
     5
 72
     1
  1
40（壁排水）
  7
EXCADDIM1
  0
POINT
  5
1CC
330
1C1
100
AcDbEntity
  8
DEFPOINTS
 62
     0
100
AcDbPoint
 10
1025.000000000134
 20
3826.5
 30
0.0
  0
POINT
  5
1CD
330
1C1
100
AcDbEntity
  8
DEFPOINTS
 62
     0
100
AcDbPoint
 10
1065.000000000134
 20
3852.0
 30
0.0
  0
POINT
  5
1CE
330
1C1
100
AcDbEntity
  8
DEFPOINTS
 62
     0
100
AcDbPoint
 10
1065.000000000134
 20
3921.0
 30
0.0
  0
ENDBLK
  5
1C3
330
1C1
100
AcDbEntity
  8
0
100
AcDbBlockEnd
  0
BLOCK
  5
1D1
330
1D0
100
AcDbEntity
  8
0
100
AcDbBlockBegin
  2
*D28
 70
     1
 10
0.0
 20
0.0
 30
0.0
  3
*D28
  1

  0
LINE
  5
1D3
330
1D0
100
AcDbEntity
  8
化粧台
  6
CONTINUOUS
 62
     3
100
AcDbLine
 10
800.0000000001
 20
2738.799999821226
 30
0.0
 11
800.0000000001
 21
2962.5
 31
0.0
  0
LINE
  5
1D4
330
1D0
100
AcDbEntity
  8
化粧台
  6
CONTINUOUS
 62
     3
100
AcDbLine
 10
1250.0000000001
 20
2738.799999821226
 30
0.0
 11
1250.0000000001
 21
2962.5
 31
0.0
  0
LINE
  5
1D5
330
1D0
100
AcDbEntity
  8
化粧台
  6
CONTINUOUS
 62
     3
100
AcDbLine
 10
844.9999961854028
 20
2947.5
 30
0.0
 11
1205.000003814797
 21
2947.5
 31
0.0
  0
INSERT
  5
1D6
330
1D0
100
AcDbEntity
  8
化粧台
 62
     3
100
AcDbBlockReference
  2
EX_NORM
 10
800.0000000001
 20
2947.5
 30
0.0
 41
44.99999618530273
 42
44.99999618530273
 43
44.99999618530273
 50
180.0
  0
INSERT
  5
1D7
330
1D0
100
AcDbEntity
  8
化粧台
 62
     3
100
AcDbBlockReference
  2
EX_NORM
 10
1250.0000000001
 20
2947.5
 30
0.0
 41
44.99999618530273
 42
44.99999618530273
 43
44.99999618530273
  0
MTEXT
  5
1D8
330
1D0
100
AcDbEntity
  8
化粧台
 62
     2
100
AcDbMText
 10
1025.0000000001
 20
2982.749999910593
 30
0.0
 40
59.99999618530273
 41
0.0
 71
     5
 72
     1
  1
450
  7
EXCADDIM1
  0
POINT
  5
1D9
330
1D0
100
AcDbEntity
  8
DEFPOINTS
 62
     0
100
AcDbPoint
 10
800.0000000001
 20
2728.30000000004
 30
0.0
  0
POINT
  5
1DA
330
1D0
100
AcDbEntity
  8
DEFPOINTS
 62
     0
100
AcDbPoint
 10
1250.0000000001
 20
2728.30000000004
 30
0.0
  0
POINT
  5
1DB
330
1D0
100
AcDbEntity
  8
DEFPOINTS
 62
     0
100
AcDbPoint
 10
1250.0000000001
 20
2947.5
 30
0.0
  0
ENDBLK
  5
1D2
330
1D0
100
AcDbEntity
  8
0
100
AcDbBlockEnd
  0
BLOCK
  5
1DE
330
1DD
100
AcDbEntity
  8
0
100
AcDbBlockBegin
  2
*D29
 70
     1
 10
0.0
 20
0.0
 30
0.0
  3
*D29
  1

  0
LINE
  5
1E0
330
1DD
100
AcDbEntity
  8
化粧台
  6
CONTINUOUS
 62
     3
100
AcDbLine
 10
1258.999999821286
 20
2227.100000000039
 30
0.0
 11
1415.0000000001
 21
2227.100000000039
 31
0.0
  0
LINE
  5
1E1
330
1DD
100
AcDbEntity
  8
化粧台
  6
CONTINUOUS
 62
     3
100
AcDbLine
 10
1258.999999821286
 20
2729.50000000004
 30
0.0
 11
1415.0000000001
 21
2729.50000000004
 31
0.0
  0
LINE
  5
1E2
330
1DD
100
AcDbEntity
  8
化粧台
  6
CONTINUOUS
 62
     3
100
AcDbLine
 10
1400.0000000001
 20
2272.099996185342
 30
0.0
 11
1400.0000000001
 21
2684.500003814737
 31
0.0
  0
INSERT
  5
1E3
330
1DD
100
AcDbEntity
  8
化粧台
 62
     3
100
AcDbBlockReference
  2
EX_NORM
 10
1400.0000000001
 20
2227.100000000039
 30
0.0
 41
44.99999618530273
 42
44.99999618530273
 43
44.99999618530273
 50
270.0
  0
INSERT
  5
1E4
330
1DD
100
AcDbEntity
  8
化粧台
 62
     3
100
AcDbBlockReference
  2
EX_NORM
 10
1400.0000000001
 20
2729.50000000004
 30
0.0
 41
44.99999618530273
 42
44.99999618530273
 43
44.99999618530273
 50
90.0
  0
MTEXT
  5
1E5
330
1DD
100
AcDbEntity
  8
化粧台
 62
     2
100
AcDbMText
 10
1364.750000089508
 20
2478.30000000004
 30
0.0
 40
59.99999618530273
 41
0.0
 71
     5
 72
     1
  1
503
  7
EXCADDIM1
 11
0.0
 21
1.0
 31
0.0
  0
POINT
  5
1E6
330
1DD
100
AcDbEntity
  8
DEFPOINTS
 62
     0
100
AcDbPoint
 10
1248.5000000001
 20
2227.100000000039
 30
0.0
  0
POINT
  5
1E7
330
1DD
100
AcDbEntity
  8
DEFPOINTS
 62
     0
100
AcDbPoint
 10
1248.5000000001
 20
2729.50000000004
 30
0.0
  0
POINT
  5
1E8
330
1DD
100
AcDbEntity
  8
DEFPOINTS
 62
     0
100
AcDbPoint
 10
1400.0000000001
 20
2729.50000000004
 30
0.0
  0
ENDBLK
  5
1DF
330
1DD
100
AcDbEntity
  8
0
100
AcDbBlockEnd
  0
BLOCK
  5
1EB
330
1EA
100
AcDbEntity
  8
0
100
AcDbBlockBegin
  2
*D30
 70
     1
 10
0.0
 20
0.0
 30
0.0
  3
*D30
  1

  0
LINE
  5
1ED
330
1EA
100
AcDbEntity
  8
化粧台
  6
CONTINUOUS
 62
     3
100
AcDbLine
 10
875.0000000001003
 20
2691.799999821226
 30
0.0
 11
875.0000000001003
 21
2842.5
 31
0.0
  0
LINE
  5
1EE
330
1EA
100
AcDbEntity
  8
化粧台
  6
CONTINUOUS
 62
     3
100
AcDbLine
 10
1175.0000000001
 20
2691.799999821226
 30
0.0
 11
1175.0000000001
 21
2842.5
 31
0.0
  0
LINE
  5
1EF
330
1EA
100
AcDbEntity
  8
化粧台
  6
CONTINUOUS
 62
     3
100
AcDbLine
 10
919.999996185403
 20
2827.5
 30
0.0
 11
1130.000003814797
 21
2827.5
 31
0.0
  0
INSERT
  5
1F0
330
1EA
100
AcDbEntity
  8
化粧台
 62
     3
100
AcDbBlockReference
  2
EX_NORM
 10
875.0000000001003
 20
2827.5
 30
0.0
 41
44.99999618530273
 42
44.99999618530273
 43
44.99999618530273
 50
180.0
  0
INSERT
  5
1F1
330
1EA
100
AcDbEntity
  8
化粧台
 62
     3
100
AcDbBlockReference
  2
EX_NORM
 10
1175.0000000001
 20
2827.5
 30
0.0
 41
44.99999618530273
 42
44.99999618530273
 43
44.99999618530273
  0
MTEXT
  5
1F2
330
1EA
100
AcDbEntity
  8
化粧台
 62
     2
100
AcDbMText
 10
1025.0000000001
 20
2862.749999910593
 30
0.0
 40
59.99999618530273
 41
0.0
 71
     5
 72
     1
  1
300（壁固定）
  7
EXCADDIM1
  0
POINT
  5
1F3
330
1EA
100
AcDbEntity
  8
DEFPOINTS
 62
     0
100
AcDbPoint
 10
875.0000000001003
 20
2681.30000000004
 30
0.0
  0
POINT
  5
1F4
330
1EA
100
AcDbEntity
  8
DEFPOINTS
 62
     0
100
AcDbPoint
 10
1175.0000000001
 20
2681.30000000004
 30
0.0
  0
POINT
  5
1F5
330
1EA
100
AcDbEntity
  8
DEFPOINTS
 62
     0
100
AcDbPoint
 10
1175.0000000001
 20
2827.5
 30
0.0
  0
ENDBLK
  5
1EC
330
1EA
100
AcDbEntity
  8
0
100
AcDbBlockEnd
  0
BLOCK
  5
1F8
330
1F7
100
AcDbEntity
  8
0
100
AcDbBlockBegin
  2
*D31
 70
     1
 10
0.0
 20
0.0
 30
0.0
  3
*D31
  1

  0
LINE
  5
1FA
330
1F7
100
AcDbEntity
  8
化粧台
  6
CONTINUOUS
 62
     3
100
AcDbLine
 10
2406.8000000001
 20
2739.999999821186
 30
0.0
 11
2406.8000000001
 21
2804.5
 31
0.0
  0
LINE
  5
1FB
330
1F7
100
AcDbEntity
  8
化粧台
  6
CONTINUOUS
 62
     3
100
AcDbLine
 10
2528.0000000001
 20
2733.799999821186
 30
0.0
 11
2528.0000000001
 21
2804.5
 31
0.0
  0
LINE
  5
1FC
330
1F7
100
AcDbEntity
  8
化粧台
  6
CONTINUOUS
 62
     3
100
AcDbLine
 10
2451.799996185403
 20
2789.5
 30
0.0
 11
2483.000003814797
 21
2789.5
 31
0.0
  0
INSERT
  5
1FD
330
1F7
100
AcDbEntity
  8
化粧台
 62
     3
100
AcDbBlockReference
  2
EX_NORM
 10
2406.8000000001
 20
2789.5
 30
0.0
 41
44.99999618530273
 42
44.99999618530273
 43
44.99999618530273
 50
180.0
  0
INSERT
  5
1FE
330
1F7
100
AcDbEntity
  8
化粧台
 62
     3
100
AcDbBlockReference
  2
EX_NORM
 10
2528.0000000001
 20
2789.5
 30
0.0
 41
44.99999618530273
 42
44.99999618530273
 43
44.99999618530273
  0
MTEXT
  5
1FF
330
1F7
100
AcDbEntity
  8
化粧台
 62
     2
100
AcDbMText
 10
2467.4000000001
 20
2824.749999910593
 30
0.0
 40
59.99999618530273
 41
0.0
 71
     5
 72
     1
  1
122
  7
EXCADDIM1
  0
POINT
  5
200
330
1F7
100
AcDbEntity
  8
DEFPOINTS
 62
     0
100
AcDbPoint
 10
2406.8000000001
 20
2729.5
 30
0.0
  0
POINT
  5
201
330
1F7
100
AcDbEntity
  8
DEFPOINTS
 62
     0
100
AcDbPoint
 10
2528.0000000001
 20
2723.3
 30
0.0
  0
POINT
  5
202
330
1F7
100
AcDbEntity
  8
DEFPOINTS
 62
     0
100
AcDbPoint
 10
2528.0000000001
 20
2789.5
 30
0.0
  0
ENDBLK
  5
1F9
330
1F7
100
AcDbEntity
  8
0
100
AcDbBlockEnd
  0
BLOCK
  5
2B1
330
2B0
100
AcDbEntity
  8
0
100
AcDbBlockBegin
  2
*D32
 70
     1
 10
0.0
 20
0.0
 30
0.0
  3
*D32
  1

  0
LINE
  5
2B3
330
2B0
100
AcDbEntity
  8
化粧台
  6
CONTINUOUS
 62
     3
100
AcDbLine
 10
1269.499999642486
 20
2729.5
 30
0.0
 11
1654.5
 21
2729.5
 31
0.0
  0
LINE
  5
2B4
330
2B0
100
AcDbEntity
  8
化粧台
  6
CONTINUOUS
 62
     3
100
AcDbLine
 10
1626.474995024986
 20
979.5
 30
0.0
 11
1654.5
 21
979.5
 31
0.0
  0
LINE
  5
2B5
330
2B0
100
AcDbEntity
  8
化粧台
  6
CONTINUOUS
 62
     3
100
AcDbLine
 10
1639.5
 20
2684.500003814697
 30
0.0
 11
1639.5
 21
1024.499996185303
 31
0.0
  0
INSERT
  5
2B6
330
2B0
100
AcDbEntity
  8
化粧台
 62
     3
100
AcDbBlockReference
  2
EX_NORM
 10
1639.5
 20
2729.5
 30
0.0
 41
44.99999618530273
 42
44.99999618530273
 43
44.99999618530273
 50
90.0
  0
INSERT
  5
2B7
330
2B0
100
AcDbEntity
  8
化粧台
 62
     3
100
AcDbBlockReference
  2
EX_NORM
 10
1639.5
 20
979.5
 30
0.0
 41
44.99999618530273
 42
44.99999618530273
 43
44.99999618530273
 50
270.0
  0
MTEXT
  5
2B8
330
2B0
100
AcDbEntity
  8
化粧台
 62
     2
100
AcDbMText
 10
1602.0
 20
1854.5
 30
0.0
 40
59.99999618530273
 41
0.0
 71
     5
 72
     1
  1
（1750）
  7
EXCADDIM1
 11
0.0
 21
1.0
 31
0.0
  0
POINT
  5
2B9
330
2B0
100
AcDbEntity
  8
DEFPOINTS
 62
     0
100
AcDbPoint
 10
1258.9999998213
 20
2729.5
 30
0.0
  0
POINT
  5
2BA
330
2B0
100
AcDbEntity
  8
DEFPOINTS
 62
     0
100
AcDbPoint
 10
1615.9749952038
 20
979.5
 30
0.0
  0
POINT
  5
2BB
330
2B0
100
AcDbEntity
  8
DEFPOINTS
 62
     0
100
AcDbPoint
 10
1639.5
 20
979.5
 30
0.0
  0
ENDBLK
  5
2B2
330
2B0
100
AcDbEntity
  8
0
100
AcDbBlockEnd
  0
BLOCK
  5
305
330
304
100
AcDbEntity
  8
0
100
AcDbBlockBegin
  2
*D33
 70
     1
 10
0.0
 20
0.0
 30
0.0
  3
*D33
  1

  0
LINE
  5
307
330
304
100
AcDbEntity
  8
化粧台
  6
CONTINUOUS
 62
     3
100
AcDbLine
 10
2884.999999821286
 20
2293.3
 30
0.0
 11
2914.5
 21
2293.3
 31
0.0
  0
LINE
  5
308
330
304
100
AcDbEntity
  8
化粧台
  6
CONTINUOUS
 62
     3
100
AcDbLine
 10
2878.499999821186
 20
979.5
 30
0.0
 11
2914.5
 21
979.5
 31
0.0
  0
LINE
  5
309
330
304
100
AcDbEntity
  8
化粧台
  6
CONTINUOUS
 62
     3
100
AcDbLine
 10
2899.5
 20
2248.300003814697
 30
0.0
 11
2899.5
 21
1024.499996185303
 31
0.0
  0
INSERT
  5
30A
330
304
100
AcDbEntity
  8
化粧台
 62
     3
100
AcDbBlockReference
  2
EX_NORM
 10
2899.5
 20
2293.3
 30
0.0
 41
44.99999618530273
 42
44.99999618530273
 43
44.99999618530273
 50
90.0
  0
INSERT
  5
30B
330
304
100
AcDbEntity
  8
化粧台
 62
     3
100
AcDbBlockReference
  2
EX_NORM
 10
2899.5
 20
979.5
 30
0.0
 41
44.99999618530273
 42
44.99999618530273
 43
44.99999618530273
 50
270.0
  0
MTEXT
  5
30C
330
304
100
AcDbEntity
  8
化粧台
 62
     2
100
AcDbMText
 10
2862.0
 20
1636.4
 30
0.0
 40
59.99999618530273
 41
0.0
 71
     5
 72
     1
  1
（1314）
  7
EXCADDIM1
 11
0.0
 21
1.0
 31
0.0
  0
POINT
  5
30D
330
304
100
AcDbEntity
  8
DEFPOINTS
 62
     0
100
AcDbPoint
 10
2874.5000000001
 20
2293.3
 30
0.0
  0
POINT
  5
30E
330
304
100
AcDbEntity
  8
DEFPOINTS
 62
     0
100
AcDbPoint
 10
2868.0
 20
979.5
 30
0.0
  0
POINT
  5
30F
330
304
100
AcDbEntity
  8
DEFPOINTS
 62
     0
100
AcDbPoint
 10
2899.5
 20
979.5
 30
0.0
  0
ENDBLK
  5
306
330
304
100
AcDbEntity
  8
0
100
AcDbBlockEnd
  0
BLOCK
  5
312
330
311
100
AcDbEntity
  8
0
100
AcDbBlockBegin
  2
*D34
 70
     1
 10
0.0
 20
0.0
 30
0.0
  3
*D34
  1

  0
LINE
  5
314
330
311
100
AcDbEntity
  8
化粧台
  6
CONTINUOUS
 62
     3
100
AcDbLine
 10
2579.299999821086
 20
2673.3
 30
0.0
 11
2914.5
 21
2673.3
 31
0.0
  0
LINE
  5
315
330
311
100
AcDbEntity
  8
化粧台
  6
CONTINUOUS
 62
     3
100
AcDbLine
 10
2579.299999821086
 20
2293.3
 30
0.0
 11
2914.5
 21
2293.3
 31
0.0
  0
LINE
  5
316
330
311
100
AcDbEntity
  8
化粧台
  6
CONTINUOUS
 62
     3
100
AcDbLine
 10
2899.5
 20
2628.300003814697
 30
0.0
 11
2899.5
 21
2338.299996185303
 31
0.0
  0
INSERT
  5
317
330
311
100
AcDbEntity
  8
化粧台
 62
     3
100
AcDbBlockReference
  2
EX_NORM
 10
2899.5
 20
2673.3
 30
0.0
 41
44.99999618530273
 42
44.99999618530273
 43
44.99999618530273
 50
90.0
  0
INSERT
  5
318
330
311
100
AcDbEntity
  8
化粧台
 62
     3
100
AcDbBlockReference
  2
EX_NORM
 10
2899.5
 20
2293.3
 30
0.0
 41
44.99999618530273
 42
44.99999618530273
 43
44.99999618530273
 50
270.0
  0
MTEXT
  5
319
330
311
100
AcDbEntity
  8
化粧台
 62
     2
100
AcDbMText
 10
2862.0
 20
2483.3
 30
0.0
 40
59.99999618530273
 41
0.0
 71
     5
 72
     1
  1
380（壁固定）
  7
EXCADDIM1
 11
0.0
 21
1.0
 31
0.0
  0
POINT
  5
31A
330
311
100
AcDbEntity
  8
DEFPOINTS
 62
     0
100
AcDbPoint
 10
2568.7999999999
 20
2673.3
 30
0.0
  0
POINT
  5
31B
330
311
100
AcDbEntity
  8
DEFPOINTS
 62
     0
100
AcDbPoint
 10
2568.7999999999
 20
2293.3
 30
0.0
  0
POINT
  5
31C
330
311
100
AcDbEntity
  8
DEFPOINTS
 62
     0
100
AcDbPoint
 10
2899.5
 20
2293.3
 30
0.0
  0
ENDBLK
  5
313
330
311
100
AcDbEntity
  8
0
100
AcDbBlockEnd
  0
BLOCK
  5
320
330
31F
100
AcDbEntity
  8
0
100
AcDbBlockBegin
  2
*D35
 70
     1
 10
0.0
 20
0.0
 30
0.0
  3
*D35
  1

  0
LINE
  5
322
330
31F
100
AcDbEntity
  8
化粧台
  6
CONTINUOUS
 62
     3
100
AcDbLine
 10
2589.799999642286
 20
2673.3
 30
0.0
 11
2914.5
 21
2673.3
 31
0.0
  0
LINE
  5
323
330
31F
100
AcDbEntity
  8
化粧台
  6
CONTINUOUS
 62
     3
100
AcDbLine
 10
2436.599999821186
 20
2729.5
 30
0.0
 11
2914.5
 21
2729.5
 31
0.0
  0
LINE
  5
324
330
31F
100
AcDbEntity
  8
化粧台
  6
CONTINUOUS
 62
     3
100
AcDbLine
 10
2899.5
 20
2673.3
 30
0.0
 11
2899.5
 21
2729.5
 31
0.0
  0
LINE
  5
325
330
31F
100
AcDbEntity
  8
化粧台
  6
CONTINUOUS
 62
     3
100
AcDbLine
 10
2899.5
 20
2628.300003814697
 30
0.0
 11
2899.5
 21
2583.300007629395
 31
0.0
  0
LINE
  5
326
330
31F
100
AcDbEntity
  8
化粧台
  6
CONTINUOUS
 62
     3
100
AcDbLine
 10
2899.5
 20
2774.499996185303
 30
0.0
 11
2899.5
 21
2819.499992370605
 31
0.0
  0
INSERT
  5
327
330
31F
100
AcDbEntity
  8
化粧台
 62
     3
100
AcDbBlockReference
  2
EX_NORM
 10
2899.5
 20
2673.3
 30
0.0
 41
44.99999618530273
 42
44.99999618530273
 43
44.99999618530273
 50
90.0
  0
INSERT
  5
328
330
31F
100
AcDbEntity
  8
化粧台
 62
     3
100
AcDbBlockReference
  2
EX_NORM
 10
2899.5
 20
2729.5
 30
0.0
 41
44.99999618530273
 42
44.99999618530273
 43
44.99999618530273
 50
270.0
  0
MTEXT
  5
329
330
31F
100
AcDbEntity
  8
化粧台
 62
     2
100
AcDbMText
 10
2862.0
 20
2828.499999910593
 30
0.0
 40
59.99999618530273
 41
0.0
 71
     5
 72
     1
  1
56
  7
EXCADDIM1
 11
0.0
 21
1.0
 31
0.0
  0
POINT
  5
32A
330
31F
100
AcDbEntity
  8
DEFPOINTS
 62
     0
100
AcDbPoint
 10
2579.2999998211
 20
2673.3
 30
0.0
  0
POINT
  5
32B
330
31F
100
AcDbEntity
  8
DEFPOINTS
 62
     0
100
AcDbPoint
 10
2426.1
 20
2729.5
 30
0.0
  0
POINT
  5
32C
330
31F
100
AcDbEntity
  8
DEFPOINTS
 62
     0
100
AcDbPoint
 10
2899.5
 20
2729.5
 30
0.0
  0
ENDBLK
  5
321
330
31F
100
AcDbEntity
  8
0
100
AcDbBlockEnd
  0
BLOCK
  5
416
330
415
100
AcDbEntity
  8
0
100
AcDbBlockBegin
  2
*D36
 70
     1
 10
0.0
 20
0.0
 30
0.0
  3
*D36
  1

  0
LINE
  5
418
330
415
100
AcDbEntity
  8
化粧台
  6
CONTINUOUS
 62
     3
100
AcDbLine
 10
2428.0000000001
 20
1784.999999821186
 30
0.0
 11
2428.0000000001
 21
1983.0
 31
0.0
  0
LINE
  5
419
330
415
100
AcDbEntity
  8
化粧台
  6
CONTINUOUS
 62
     3
100
AcDbLine
 10
2528.0000000001
 20
1965.000000178814
 30
0.0
 11
2528.0000000001
 21
1953.0
 31
0.0
  0
LINE
  5
41A
330
415
100
AcDbEntity
  8
化粧台
  6
CONTINUOUS
 62
     3
100
AcDbLine
 10
2472.999996185403
 20
1968.0
 30
0.0
 11
2483.000003814797
 21
1968.0
 31
0.0
  0
INSERT
  5
41B
330
415
100
AcDbEntity
  8
化粧台
 62
     3
100
AcDbBlockReference
  2
EX_NORM
 10
2428.0000000001
 20
1968.0
 30
0.0
 41
44.99999618530273
 42
44.99999618530273
 43
44.99999618530273
 50
180.0
  0
INSERT
  5
41C
330
415
100
AcDbEntity
  8
化粧台
 62
     3
100
AcDbBlockReference
  2
EX_NORM
 10
2528.0000000001
 20
1968.0
 30
0.0
 41
44.99999618530273
 42
44.99999618530273
 43
44.99999618530273
  0
MTEXT
  5
41D
330
415
100
AcDbEntity
  8
化粧台
 62
     2
100
AcDbMText
 10
2648.0000000001
 20
2003.249999910593
 30
0.0
 40
59.99999618530273
 41
0.0
 71
     5
 72
     1
  1
100
  7
EXCADDIM1
  0
POINT
  5
41E
330
415
100
AcDbEntity
  8
DEFPOINTS
 62
     0
100
AcDbPoint
 10
2428.0000000001
 20
1774.5
 30
0.0
  0
POINT
  5
41F
330
415
100
AcDbEntity
  8
DEFPOINTS
 62
     0
100
AcDbPoint
 10
2528.0000000001
 20
1975.5
 30
0.0
  0
POINT
  5
420
330
415
100
AcDbEntity
  8
DEFPOINTS
 62
     0
100
AcDbPoint
 10
2528.0000000001
 20
1968.0
 30
0.0
  0
ENDBLK
  5
417
330
415
100
AcDbEntity
  8
0
100
AcDbBlockEnd
  0
BLOCK
  5
5C2
330
5C1
100
AcDbEntity
  8
0
100
AcDbBlockBegin
  2
*D37
 70
     1
 10
0.0
 20
0.0
 30
0.0
  3
*D37
  1

  0
LINE
  5
5C4
330
5C1
100
AcDbEntity
  8
化粧台
  6
CONTINUOUS
 62
     3
100
AcDbLine
 10
741.50000000018
 20
972.5000001788139
 30
0.0
 11
741.50000000018
 21
676.5
 31
0.0
  0
LINE
  5
5C5
330
5C1
100
AcDbEntity
  8
化粧台
  6
CONTINUOUS
 62
     3
100
AcDbLine
 10
1308.5000000002
 20
972.5000001788139
 30
0.0
 11
1308.5000000002
 21
676.5
 31
0.0
  0
LINE
  5
5C6
330
5C1
100
AcDbEntity
  8
化粧台
  6
CONTINUOUS
 62
     3
100
AcDbLine
 10
786.4999961854827
 20
691.5
 30
0.0
 11
1263.500003814897
 21
691.5
 31
0.0
  0
INSERT
  5
5C7
330
5C1
100
AcDbEntity
  8
化粧台
 62
     3
100
AcDbBlockReference
  2
EX_NORM
 10
741.50000000018
 20
691.5
 30
0.0
 41
44.99999618530273
 42
44.99999618530273
 43
44.99999618530273
 50
180.0
  0
INSERT
  5
5C8
330
5C1
100
AcDbEntity
  8
化粧台
 62
     3
100
AcDbBlockReference
  2
EX_NORM
 10
1308.5000000002
 20
691.5
 30
0.0
 41
44.99999618530273
 42
44.99999618530273
 43
44.99999618530273
  0
MTEXT
  5
5C9
330
5C1
100
AcDbEntity
  8
化粧台
 62
     2
100
AcDbMText
 10
1025.00000000019
 20
726.749999910593
 30
0.0
 40
59.99999618530273
 41
0.0
 71
     5
 72
     1
  1
567
  7
EXCADDIM1
  0
POINT
  5
5CA
330
5C1
100
AcDbEntity
  8
DEFPOINTS
 62
     0
100
AcDbPoint
 10
741.50000000018
 20
983.0
 30
0.0
  0
POINT
  5
5CB
330
5C1
100
AcDbEntity
  8
DEFPOINTS
 62
     0
100
AcDbPoint
 10
1308.5000000002
 20
983.0
 30
0.0
  0
POINT
  5
5CC
330
5C1
100
AcDbEntity
  8
DEFPOINTS
 62
     0
100
AcDbPoint
 10
1308.5000000002
 20
691.5
 30
0.0
  0
ENDBLK
  5
5C3
330
5C1
100
AcDbEntity
  8
0
100
AcDbBlockEnd
  0
BLOCK
  5
5CF
330
5CE
100
AcDbEntity
  8
0
100
AcDbBlockBegin
  2
*D38
 70
     1
 10
0.0
 20
0.0
 30
0.0
  3
*D38
  1

  0
LINE
  5
5D1
330
5CE
100
AcDbEntity
  8
寸法
  6
CONTINUOUS
 62
     3
100
AcDbLine
 10
830.0000000001385
 20
4005.0
 30
0.0
 11
830.0000000001385
 21
4071.0
 31
0.0
  0
LINE
  5
5D2
330
5CE
100
AcDbEntity
  8
寸法
  6
CONTINUOUS
 62
     3
100
AcDbLine
 10
1220.000000000137
 20
4005.0
 30
0.0
 11
1220.000000000137
 21
4071.0
 31
0.0
  0
LINE
  5
5D3
330
5CE
100
AcDbEntity
  8
寸法
  6
CONTINUOUS
 62
     3
100
AcDbLine
 10
874.9999961854412
 20
4056.0
 30
0.0
 11
1175.000003814834
 21
4056.0
 31
0.0
  0
INSERT
  5
5D4
330
5CE
100
AcDbEntity
  8
寸法
 62
     3
100
AcDbBlockReference
  2
EX_NORM
 10
830.0000000001385
 20
4056.0
 30
0.0
 41
44.99999618530273
 42
44.99999618530273
 43
44.99999618530273
 50
180.0
  0
INSERT
  5
5D5
330
5CE
100
AcDbEntity
  8
寸法
 62
     3
100
AcDbBlockReference
  2
EX_NORM
 10
1220.000000000137
 20
4056.0
 30
0.0
 41
44.99999618530273
 42
44.99999618530273
 43
44.99999618530273
  0
MTEXT
  5
5D6
330
5CE
100
AcDbEntity
  8
寸法
 62
     2
100
AcDbMText
 10
1025.000000000138
 20
4091.249999910593
 30
0.0
 40
59.99999618530273
 41
0.0
 71
     5
 72
     1
  1
390（壁固定）
  7
EXCADDIM1
  0
POINT
  5
5D7
330
5CE
100
AcDbEntity
  8
DEFPOINTS
 62
     0
100
AcDbPoint
 10
830.0000000001385
 20
3848.0
 30
0.0
  0
POINT
  5
5D8
330
5CE
100
AcDbEntity
  8
DEFPOINTS
 62
     0
100
AcDbPoint
 10
1220.000000000137
 20
3848.0
 30
0.0
  0
POINT
  5
5D9
330
5CE
100
AcDbEntity
  8
DEFPOINTS
 62
     0
100
AcDbPoint
 10
1220.000000000137
 20
4056.0
 30
0.0
  0
ENDBLK
  5
5D0
330
5CE
100
AcDbEntity
  8
0
100
AcDbBlockEnd
  0
ENDSEC
  0
SECTION
  2
ENTITIES
  0
LINE
  5
A9
330
1F
100
AcDbEntity
  8
枠_表
  6
CONTINUOUS
 62
     7
100
AcDbLine
 10
333.0000000000952
 20
201.0
 30
0.0
 11
3063.000000000099
 21
201.0
 31
0.0
  0
LINE
  5
AA
330
1F
100
AcDbEntity
  8
枠_表
  6
CONTINUOUS
 62
     7
100
AcDbLine
 10
3063.000000000099
 20
201.0
 30
0.0
 11
3063.000000000099
 21
4326.0
 31
0.0
  0
LINE
  5
AB
330
1F
100
AcDbEntity
  8
枠_表
  6
CONTINUOUS
 62
     7
100
AcDbLine
 10
333.0000000000952
 20
201.0
 30
0.0
 11
333.0000000000952
 21
4326.0
 31
0.0
  0
LINE
  5
AC
330
1F
100
AcDbEntity
  8
枠_表
  6
CONTINUOUS
 62
     7
100
AcDbLine
 10
333.0000000000952
 20
4326.0
 30
0.0
 11
3063.000000000099
 21
4326.0
 31
0.0
  0
LINE
  5
AD
330
1F
100
AcDbEntity
  8
枠_表
  6
CONTINUOUS
 62
     7
100
AcDbLine
 10
333.0000000000952
 20
531.0
 30
0.0
 11
3063.000000000099
 21
531.0
 31
0.0
  0
LINE
  5
AE
330
1F
100
AcDbEntity
  8
枠_表
  6
CONTINUOUS
 62
     6
100
AcDbLine
 10
3063.000000000099
 20
351.0
 30
0.0
 11
1188.000000000095
 21
351.0
 31
0.0
  0
LINE
  5
AF
330
1F
100
AcDbEntity
  8
枠_表
  6
CONTINUOUS
 62
     6
100
AcDbLine
 10
2853.000000000099
 20
531.0
 30
0.0
 11
2853.000000000099
 21
351.0
 31
0.0
  0
LINE
  5
B0
330
1F
100
AcDbEntity
  8
枠_表
  6
CONTINUOUS
 62
     6
100
AcDbLine
 10
2778.000000000097
 20
531.0
 30
0.0
 11
2778.000000000097
 21
351.0
 31
0.0
  0
LINE
  5
B1
330
1F
100
AcDbEntity
  8
枠_表
  6
CONTINUOUS
 62
     6
100
AcDbLine
 10
2223.000000000093
 20
531.0
 30
0.0
 11
2223.000000000093
 21
201.0
 31
0.0
  0
LINE
  5
B2
330
1F
100
AcDbEntity
  8
枠_表
  6
CONTINUOUS
 62
     6
100
AcDbLine
 10
2148.000000000093
 20
531.0
 30
0.0
 11
2148.000000000093
 21
201.0
 31
0.0
  0
LINE
  5
B3
330
1F
100
AcDbEntity
  8
枠_表
  6
CONTINUOUS
 62
     6
100
AcDbLine
 10
1263.000000000095
 20
531.0
 30
0.0
 11
1263.000000000095
 21
351.0
 31
0.0
  0
LINE
  5
B4
330
1F
100
AcDbEntity
  8
枠_表
  6
CONTINUOUS
 62
     6
100
AcDbLine
 10
1188.000000000095
 20
531.0
 30
0.0
 11
1188.000000000095
 21
201.0
 31
0.0
  0
LINE
  5
B5
330
1F
100
AcDbEntity
  8
枠_表
  6
CONTINUOUS
 62
     6
100
AcDbLine
 10
993.0000000000962
 20
531.0
 30
0.0
 11
993.0000000000962
 21
201.0
 31
0.0
  0
LINE
  5
B6
330
1F
100
AcDbEntity
  8
枠_表
  6
CONTINUOUS
 62
     6
100
AcDbLine
 10
798.0000000000966
 20
531.0
 30
0.0
 11
798.0000000000966
 21
201.0
 31
0.0
  0
LINE
  5
B7
330
1F
100
AcDbEntity
  8
枠_表
  6
CONTINUOUS
 62
     6
100
AcDbLine
 10
565.5000000000948
 20
531.0
 30
0.0
 11
565.5000000000948
 21
201.0
 31
0.0
  0
LINE
  5
B8
330
1F
100
AcDbEntity
  8
枠_表
  6
CONTINUOUS
 62
     6
100
AcDbLine
 10
333.0000000000952
 20
456.0
 30
0.0
 11
1188.000000000095
 21
456.0
 31
0.0
  0
LINE
  5
B9
330
1F
100
AcDbEntity
  8
枠_表
  6
CONTINUOUS
 62
     6
100
AcDbLine
 10
2901.980712900101
 20
385.5043945499997
 30
0.0
 11
3017.990844750099
 21
503.5497436500009
 31
0.0
  0
CIRCLE
  5
BA
330
1F
100
AcDbEntity
  8
枠_表
  6
CONTINUOUS
 62
     6
100
AcDbCircle
 10
640.5000000000948
 20
238.5
 30
0.0
 40
1.5000003
  0
CIRCLE
  5
BB
330
1F
100
AcDbEntity
  8
枠_表
  6
CONTINUOUS
 62
     6
100
AcDbCircle
 10
715.5000000000948
 20
238.5
 30
0.0
 40
1.5000003
  0
LINE
  5
BC
330
1F
100
AcDbEntity
  8
枠_表
  6
EXLTYPE2
 62
     6
100
AcDbLine
 10
333.0000000000952
 20
276.0
 30
0.0
 11
798.0000000000966
 21
276.0
 31
0.0
  0
TEXT
  5
BD
330
1F
100
AcDbEntity
  8
枠_表
  6
CONTINUOUS
 62
     2
100
AcDbText
 10
2898.805664100099
 20
452.5841674500002
 30
0.0
 40
44.99999618530273
  1
１
 41
1.101333426694527
  7
EXCADSTD
 72
     5
 11
2934.205664100099
 21
452.5841674500002
 31
0.0
100
AcDbText
  0
TEXT
  5
BE
330
1F
100
AcDbEntity
  8
枠_表
  6
CONTINUOUS
 62
     2
100
AcDbText
 10
2959.918945350099
 20
386.0232695999989
 30
0.0
 40
44.99999618530273
  1
１５
 41
1.098531308335255
  7
EXCADSTD
 72
     5
 11
3037.600795568634
 21
386.0232695999989
 31
0.0
100
AcDbText
  0
TEXT
  5
BF
330
1F
100
AcDbEntity
  8
枠_表
  6
CONTINUOUS
 62
     2
100
AcDbText
 10
366.7500000000952
 20
461.6250019073486
 30
0.0
 40
63.74999618530273
  1
製図
 41
1.509694103275157
  7
EXCADSTD
 72
     5
 11
517.9889895104407
 21
461.6250019073486
 31
0.0
100
AcDbText
  0
TEXT
  5
C0
330
1F
100
AcDbEntity
  8
枠_表
  6
CONTINUOUS
 62
     2
100
AcDbText
 10
599.2500000000948
 20
461.6250019073486
 30
0.0
 40
63.74999618530273
  1
写図
 41
1.509694103275156
  7
EXCADSTD
 72
     5
 11
750.4889895104402
 21
461.6250019073486
 31
0.0
100
AcDbText
  0
TEXT
  5
C1
330
1F
100
AcDbEntity
  8
枠_表
  6
CONTINUOUS
 62
     2
100
AcDbText
 10
824.249999106027
 20
461.6250019073486
 30
0.0
 40
63.74999618530273
  1
検図
 41
1.303826754906227
  7
EXCADSTD
 72
     5
 11
954.8654929870618
 21
461.6250019073486
 31
0.0
100
AcDbText
  0
TEXT
  5
C2
330
1F
100
AcDbEntity
  8
枠_表
  6
CONTINUOUS
 62
     2
100
AcDbText
 10
1019.249999106027
 20
461.6250019073486
 30
0.0
 40
63.74999618530273
  1
承認
 41
1.303826754906227
  7
EXCADSTD
 72
     5
 11
1149.865492987061
 21
461.6250019073486
 31
0.0
100
AcDbText
  0
TEXT
  5
C3
330
1F
100
AcDbEntity
  8
枠_表
  6
CONTINUOUS
 62
     2
100
AcDbText
 10
1196.625000000096
 20
446.6250019073486
 30
0.0
 40
63.74999618530273
  1
品
 41
1.119999999999999
  7
EXCADSTD
 72
     5
 11
1247.624996948338
 21
446.6250019073486
 31
0.0
100
AcDbText
  0
TEXT
  5
C4
330
1F
100
AcDbEntity
  8
枠_表
  6
CONTINUOUS
 62
     2
100
AcDbText
 10
1196.625000000096
 20
371.6250019073486
 30
0.0
 40
63.74999618530273
  1
名
 41
1.119999999999999
  7
EXCADSTD
 72
     5
 11
1247.624996948338
 21
371.6250019073486
 31
0.0
100
AcDbText
  0
TEXT
  5
C5
330
1F
100
AcDbEntity
  8
枠_表
  6
CONTINUOUS
 62
     2
100
AcDbText
 10
2156.625000000094
 20
446.6250019073486
 30
0.0
 40
63.74999618530273
  1
品
 41
1.120000000000004
  7
EXCADSTD
 72
     5
 11
2207.624996948337
 21
446.6250019073486
 31
0.0
100
AcDbText
  0
TEXT
  5
C6
330
1F
100
AcDbEntity
  8
枠_表
  6
CONTINUOUS
 62
     2
100
AcDbText
 10
2156.625000000094
 20
371.6250019073486
 30
0.0
 40
63.74999618530273
  1
番
 41
1.120000000000004
  7
EXCADSTD
 72
     5
 11
2207.624996948337
 21
371.6250019073486
 31
0.0
100
AcDbText
  0
TEXT
  5
C7
330
1F
100
AcDbEntity
  8
枠_表
  6
CONTINUOUS
 62
     2
100
AcDbText
 10
2788.1250000001
 20
446.6250019073486
 30
0.0
 40
63.74999618530273
  1
尺
 41
1.120000000000004
  7
EXCADSTD
 72
     5
 11
2839.124996948343
 21
446.6250019073486
 31
0.0
100
AcDbText
  0
TEXT
  5
C8
330
1F
100
AcDbEntity
  8
枠_表
  6
CONTINUOUS
 62
     2
100
AcDbText
 10
2788.1250000001
 20
371.6250019073486
 30
0.0
 40
63.74999618530273
  1
度
 41
1.120000000000004
  7
EXCADSTD
 72
     5
 11
2839.124996948343
 21
371.6250019073486
 31
0.0
100
AcDbText
  0
TEXT
  5
C9
330
1F
100
AcDbEntity
  8
枠_表
  6
CONTINUOUS
 62
     2
100
AcDbText
 10
2156.625000000094
 20
277.1250019073495
 30
0.0
 40
63.74999618530273
  1
図
 41
1.120000000000004
  7
EXCADSTD
 72
     5
 11
2207.624996948337
 21
277.1250019073495
 31
0.0
100
AcDbText
  0
TEXT
  5
CA
330
1F
100
AcDbEntity
  8
枠_表
  6
CONTINUOUS
 62
     2
100
AcDbText
 10
2156.625000000094
 20
212.6250019073486
 30
0.0
 40
63.74999618530273
  1
番
 41
1.120000000000004
  7
EXCADSTD
 72
     5
 11
2207.624996948337
 21
212.6250019073486
 31
0.0
100
AcDbText
  0
TEXT
  5
CC
330
1F
100
AcDbEntity
  8
枠_表
  6
CONTINUOUS
 62
     2
100
AcDbText
 10
1218.000000000097
 20
231.0000038146973
 30
0.0
 40
67.4999942779541
  1
ジャニス工業株式会社
 41
1.025641044209626
  7
EXCADTTF1
 72
     5
 11
2117.999940000097
 21
231.0000038146973
 31
0.0
100
AcDbText
  0
CIRCLE
  5
CD
330
1F
100
AcDbEntity
  8
枠_表
  6
CONTINUOUS
 62
     6
100
AcDbCircle
 10
408.0000000000957
 20
238.5
 30
0.0
 40
1.5000003
  0
CIRCLE
  5
CE
330
1F
100
AcDbEntity
  8
枠_表
  6
CONTINUOUS
 62
     6
100
AcDbCircle
 10
483.0000000000957
 20
238.5
 30
0.0
 40
1.5000003
  0
TEXT
  5
CF
330
1F
100
AcDbEntity
  8
枠_表
  6
CONTINUOUS
 62
     2
100
AcDbText
 10
1908.00000000009
 20
4209.750001907349
 30
0.0
 40
59.99999618530273
  1
品番
 41
2.041518237445143
  7
EXCADSTD
 72
     5
 11
2100.485993006987
 21
4209.750001907349
 31
0.0
100
AcDbText
  0
TEXT
  5
D0
330
1F
100
AcDbEntity
  8
枠_表
  6
CONTINUOUS
 62
     2
100
AcDbText
 10
2358.000000000097
 20
4209.750001907349
 30
0.0
 40
59.99999618530273
  1
品名
 41
2.041518237445141
  7
EXCADSTD
 72
     5
 11
2550.485993006994
 21
4209.750001907349
 31
0.0
100
AcDbText
  0
TEXT
  5
D1
330
1F
100
AcDbEntity
  8
枠_表
  6
CONTINUOUS
 62
     2
100
AcDbText
 10
2253.000000000091
 20
4127.250001907349
 30
0.0
 40
59.99999618530273
  1
洗面化粧台
 41
1.164655246460579
  7
EXCADSTD
 72
     5
 11
2542.500000000091
 21
4127.250001907349
 31
0.0
100
AcDbText
  0
TEXT
  5
D2
330
1F
100
AcDbEntity
  8
枠_表
  6
CONTINUOUS
 62
     2
100
AcDbText
 10
2851.50000053654
 20
4209.750001907349
 30
0.0
 40
59.99999618530273
  1
個数
 41
1.195746439659873
  7
EXCADSTD
 72
     5
 11
2964.24180053654
 21
4209.750001907349
 31
0.0
100
AcDbText
  0
LINE
  5
D3
330
1F
100
AcDbEntity
  8
枠_表
  6
CONTINUOUS
 62
     6
100
AcDbLine
 10
1788.000000000089
 20
4198.5
 30
0.0
 11
2988.000000000099
 21
4198.5
 31
0.0
  0
LINE
  5
D4
330
1F
100
AcDbEntity
  8
枠_表
  6
CONTINUOUS
 62
     6
100
AcDbLine
 10
1788.000000000089
 20
4281.0
 30
0.0
 11
2988.000000000099
 21
4281.0
 31
0.0
  0
LINE
  5
D5
330
1F
100
AcDbEntity
  8
枠_表
  6
EXLTYPE2
 62
     1
100
AcDbLine
 10
333.0000000000993
 20
2263.5
 30
0.0
 11
-11.99999999990069
 21
2263.5
 31
0.0
  0
TEXT
  5
D6
330
1F
100
AcDbEntity
  8
枠_表
  6
CONTINUOUS
 62
     2
100
AcDbText
 10
374.2500000000884
 20
328.5000038146973
 30
0.0
 40
74.99999237060547
  1
亀井
 41
1.224910918732916
  7
EXCADSTD
 72
     5
 11
518.6144864509513
 21
328.5000038146973
 31
0.0
100
AcDbText
  0
TEXT
  5
D7
330
1F
100
AcDbEntity
  8
枠_表
  6
CONTINUOUS
 62
     2
100
AcDbText
 10
2879.250000000099
 20
4119.000001907349
 30
0.0
 40
59.99999618530273
  1
１
 41
1.260000080108648
  7
EXCADSTD
 72
     5
 11
2933.250000000099
 21
4119.000001907349
 31
0.0
100
AcDbText
  0
TEXT
  5
D8
330
1F
100
AcDbEntity
  8
枠_表
  6
CONTINUOUS
 62
     2
100
AcDbText
 10
1803.00000000009
 20
4127.250001907349
 30
0.0
 40
59.99999618530273
  1
ＬＵ６０１ＡＳＤ
 41
0.7446808984093669
  7
EXCADSTD
 72
     5
 11
2103.00000000009
 21
4127.250001907349
 31
0.0
100
AcDbText
  0
TEXT
  5
D9
330
1F
100
AcDbEntity
  8
枠_表
  6
CONTINUOUS
 62
     2
100
AcDbText
 10
1419.000000000095
 20
442.5
 30
0.0
 40
74.99999237060547
  1
アルテシリーズ
 41
1.314634158498874
  7
EXCADSTD
 72
     5
 11
1996.499946594334
 21
442.5
 31
0.0
100
AcDbText
  0
TEXT
  5
DA
330
1F
100
AcDbEntity
  8
枠_表
  6
CONTINUOUS
 62
     2
100
AcDbText
 10
1419.000000000095
 20
367.5000076293945
 30
0.0
 40
74.99999237060547
  1
  洗面化粧台
 41
1.07441861458712
  7
EXCADSTD
 72
     5
 11
1913.999954223728
 21
367.5000076293945
 31
0.0
100
AcDbText
  0
TEXT
  5
DB
330
1F
100
AcDbEntity
  8
枠_表
  6
CONTINUOUS
 62
     2
100
AcDbText
 10
815.2500000000675
 20
328.5000038146973
 30
0.0
 40
74.99999237060547
  1
村上
 41
1.224910918732915
  7
EXCADSTD
 72
     5
 11
959.6144864509304
 21
328.5000038146973
 31
0.0
100
AcDbText
  0
TEXT
  5
DC
330
1F
100
AcDbEntity
  8
枠_表
  6
CONTINUOUS
 62
     2
100
AcDbText
 10
1011.750000000067
 20
336.0000038146973
 30
0.0
 40
74.99999237060547
  1
間瀬
 41
1.224910918732915
  7
EXCADSTD
 72
     5
 11
1156.11448645093
 21
336.0000038146973
 31
0.0
100
AcDbText
  0
LINE
  5
DD
330
1F
100
AcDbEntity
  8
枠_表
  6
CONTINUOUS
 62
     6
100
AcDbLine
 10
1788.000000000089
 20
3868.5
 30
0.0
 11
1788.000000000089
 21
3950.999999999996
 31
0.0
  0
LINE
  5
DE
330
1F
100
AcDbEntity
  8
枠_表
  6
CONTINUOUS
 62
     6
100
AcDbLine
 10
2238.000000000091
 20
3868.5
 30
0.0
 11
2238.000000000091
 21
3950.999999999996
 31
0.0
  0
LINE
  5
DF
330
1F
100
AcDbEntity
  8
枠_表
  6
CONTINUOUS
 62
     6
100
AcDbLine
 10
1788.000000000089
 20
3703.5
 30
0.0
 11
1788.000000000089
 21
3785.999999999996
 31
0.0
  0
LINE
  5
E0
330
1F
100
AcDbEntity
  8
枠_表
  6
CONTINUOUS
 62
     6
100
AcDbLine
 10
2238.000000000091
 20
3703.5
 30
0.0
 11
2238.000000000091
 21
3785.999999999996
 31
0.0
  0
LINE
  5
E1
330
1F
100
AcDbEntity
  8
枠_表
  6
CONTINUOUS
 62
     6
100
AcDbLine
 10
2988.000000000099
 20
3703.5
 30
0.0
 11
2988.000000000099
 21
3785.999999999996
 31
0.0
  0
LINE
  5
E2
330
1F
100
AcDbEntity
  8
枠_表
  6
CONTINUOUS
 62
     6
100
AcDbLine
 10
2838.000000000099
 20
3703.5
 30
0.0
 11
2838.000000000099
 21
3785.999999999996
 31
0.0
  0
TEXT
  5
E3
330
1F
100
AcDbEntity
  8
枠_表
  6
CONTINUOUS
 62
     2
100
AcDbText
 10
2879.250000000099
 20
3714.750001907345
 30
0.0
 40
59.99999618530273
  1
２
 41
1.260000080108648
  7
EXCADSTD
 72
     5
 11
2933.250000000099
 21
3714.750001907345
 31
0.0
100
AcDbText
  0
LINE
  5
E4
330
1F
100
AcDbEntity
  8
枠_表
  6
CONTINUOUS
 62
     6
100
AcDbLine
 10
1788.000000000089
 20
3703.499999999996
 30
0.0
 11
2988.000000000099
 21
3703.499999999996
 31
0.0
  0
LINE
  5
E5
330
1F
100
AcDbEntity
  8
枠_表
  6
CONTINUOUS
 62
     6
100
AcDbLine
 10
1788.000000000089
 20
3785.999999999996
 30
0.0
 11
2988.000000000099
 21
3785.999999999996
 31
0.0
  0
LINE
  5
E6
330
1F
100
AcDbEntity
  8
枠_表
  6
CONTINUOUS
 62
     6
100
AcDbLine
 10
2988.000000000099
 20
3868.5
 30
0.0
 11
2988.000000000099
 21
3950.999999999996
 31
0.0
  0
LINE
  5
E7
330
1F
100
AcDbEntity
  8
枠_表
  6
CONTINUOUS
 62
     6
100
AcDbLine
 10
2838.000000000099
 20
3868.5
 30
0.0
 11
2838.000000000099
 21
3950.999999999996
 31
0.0
  0
TEXT
  5
E8
330
1F
100
AcDbEntity
  8
枠_表
  6
CONTINUOUS
 62
     2
100
AcDbText
 10
2879.250000000099
 20
3879.750001907345
 30
0.0
 40
59.99999618530273
  1
２
 41
1.260000080108648
  7
EXCADSTD
 72
     5
 11
2933.250000000099
 21
3879.750001907345
 31
0.0
100
AcDbText
  0
LINE
  5
E9
330
1F
100
AcDbEntity
  8
枠_表
  6
CONTINUOUS
 62
     6
100
AcDbLine
 10
1788.000000000089
 20
3868.499999999996
 30
0.0
 11
2988.000000000099
 21
3868.499999999996
 31
0.0
  0
LINE
  5
EA
330
1F
100
AcDbEntity
  8
枠_表
  6
CONTINUOUS
 62
     6
100
AcDbLine
 10
1788.000000000089
 20
3950.999999999996
 30
0.0
 11
2988.000000000099
 21
3950.999999999996
 31
0.0
  0
TEXT
  5
EB
330
1F
100
AcDbEntity
  8
枠_表
  6
CONTINUOUS
 62
     2
100
AcDbText
 10
2253.000000000095
 20
3714.750001907345
 30
0.0
 40
59.99999618530273
  1
ストレート形止水栓（共用形）
 41
0.7590361351947703
  7
EXCADSTD
 72
     5
 11
2792.999958992099
 21
3714.750001907345
 31
0.0
100
AcDbText
  0
TEXT
  5
EC
330
1F
100
AcDbEntity
  8
枠_表
  6
CONTINUOUS
 62
     2
100
AcDbText
 10
2253.000000000096
 20
3879.750001907345
 30
0.0
 40
59.99999618530273
  1
アングル形止水栓（共用形）
 41
0.8159090676452161
  7
EXCADSTD
 72
     5
 11
2791.499950409031
 21
3879.750001907345
 31
0.0
100
AcDbText
  0
LINE
  5
ED
330
1F
100
AcDbEntity
  8
枠_表
  6
CONTINUOUS
 62
     6
100
AcDbLine
 10
1788.000000000089
 20
3538.5
 30
0.0
 11
1788.000000000089
 21
3620.999999999996
 31
0.0
  0
LINE
  5
EE
330
1F
100
AcDbEntity
  8
枠_表
  6
CONTINUOUS
 62
     6
100
AcDbLine
 10
2238.000000000091
 20
3538.5
 30
0.0
 11
2238.000000000091
 21
3620.999999999996
 31
0.0
  0
LINE
  5
EF
330
1F
100
AcDbEntity
  8
枠_表
  6
CONTINUOUS
 62
     6
100
AcDbLine
 10
2988.000000000099
 20
3538.5
 30
0.0
 11
2988.000000000099
 21
3620.999999999996
 31
0.0
  0
LINE
  5
F0
330
1F
100
AcDbEntity
  8
枠_表
  6
CONTINUOUS
 62
     6
100
AcDbLine
 10
2838.000000000099
 20
3538.5
 30
0.0
 11
2838.000000000099
 21
3620.999999999996
 31
0.0
  0
LINE
  5
F1
330
1F
100
AcDbEntity
  8
枠_表
  6
CONTINUOUS
 62
     6
100
AcDbLine
 10
1788.000000000089
 20
3538.499999999996
 30
0.0
 11
2988.000000000099
 21
3538.499999999996
 31
0.0
  0
LINE
  5
F2
330
1F
100
AcDbEntity
  8
枠_表
  6
CONTINUOUS
 62
     6
100
AcDbLine
 10
1788.000000000089
 20
3620.999999999996
 30
0.0
 11
2988.000000000099
 21
3620.999999999996
 31
0.0
  0
TEXT
  5
F3
330
1F
100
AcDbEntity
  8
枠_表
  6
CONTINUOUS
 62
     2
100
AcDbText
 10
1803.000000000091
 20
3797.250001907345
 30
0.0
 40
59.99999618530273
  1
止水栓手配品番（一般地、ストレート形の場合）
 41
0.9511450238992233
  7
EXCADSTD
 72
     5
 11
2870.999916076751
 21
3797.250001907345
 31
0.0
100
AcDbText
  0
TEXT
  5
F4
330
1F
100
AcDbEntity
  8
枠_表
  6
CONTINUOUS
 62
     2
100
AcDbText
 10
1803.000000000089
 20
3549.750001907345
 30
0.0
 40
59.99999618530273
  1
Ｐ２３７６
 41
0.8025861811911906
  7
EXCADSTD
 72
     5
 11
2002.499980926603
 21
3549.750001907345
 31
0.0
100
AcDbText
  0
TEXT
  5
F5
330
1F
100
AcDbEntity
  8
枠_表
  6
CONTINUOUS
 62
     2
100
AcDbText
 10
1803.000000000091
 20
3632.250001907345
 30
0.0
 40
59.99999618530273
  1
トラップ手配品番（壁排水の場合）
 41
0.9578947227879571
  7
EXCADSTD
 72
     5
 11
2582.999938964935
 21
3632.250001907345
 31
0.0
100
AcDbText
  0
TEXT
  5
F6
330
1F
100
AcDbEntity
  8
枠_表
  6
CONTINUOUS
 62
     2
100
AcDbText
 10
2253.000000000095
 20
3549.750001907345
 30
0.0
 40
59.99999618530273
  1
壁排水トラップセット
 41
0.7711864312489822
  7
EXCADSTD
 72
     5
 11
2642.999970436191
 21
3549.750001907345
 31
0.0
100
AcDbText
  0
TEXT
  5
F7
330
1F
100
AcDbEntity
  8
枠_表
  6
CONTINUOUS
 62
     2
100
AcDbText
 10
2879.250000000099
 20
3549.750001907345
 30
0.0
 40
59.99999618530273
  1
１
 41
1.260000080108648
  7
EXCADSTD
 72
     5
 11
2933.250000000099
 21
3549.750001907345
 31
0.0
100
AcDbText
  0
TEXT
  5
F8
330
1F
100
AcDbEntity
  8
枠_表
  6
CONTINUOUS
 62
     2
100
AcDbText
 10
1803.000000000091
 20
3962.250001907345
 30
0.0
 40
59.99999618530273
  1
止水栓手配品番（アングル形の場合）
 41
0.9564356294638249
  7
EXCADSTD
 72
     5
 11
2630.999935150237
 21
3962.250001907345
 31
0.0
100
AcDbText
  0
LINE
  5
F9
330
1F
100
AcDbEntity
  8
枠_表
  6
CONTINUOUS
 62
     6
100
AcDbLine
 10
1788.000000000089
 20
4116.0
 30
0.0
 11
2988.000000000099
 21
4116.0
 31
0.0
  0
TEXT
  5
FA
330
1F
100
AcDbEntity
  8
枠_表
  6
CONTINUOUS
 62
     2
100
AcDbText
 10
2879.250000000099
 20
4036.500001907349
 30
0.0
 40
59.99999618530273
  1
１
 41
1.260000080108648
  7
EXCADSTD
 72
     5
 11
2933.250000000099
 21
4036.500001907349
 31
0.0
100
AcDbText
  0
LINE
  5
FB
330
1F
100
AcDbEntity
  8
枠_表
  6
CONTINUOUS
 62
     6
100
AcDbLine
 10
1788.000000000089
 20
4033.5
 30
0.0
 11
2988.000000000099
 21
4033.5
 31
0.0
  0
LINE
  5
FC
330
1F
100
AcDbEntity
  8
枠_表
  6
CONTINUOUS
 62
     6
100
AcDbLine
 10
1788.000000000089
 20
4033.5
 30
0.0
 11
1788.000000000089
 21
4281.0
 31
0.0
  0
LINE
  5
FD
330
1F
100
AcDbEntity
  8
枠_表
  6
CONTINUOUS
 62
     6
100
AcDbLine
 10
2238.000000000091
 20
4033.5
 30
0.0
 11
2238.000000000091
 21
4281.0
 31
0.0
  0
LINE
  5
FE
330
1F
100
AcDbEntity
  8
枠_表
  6
CONTINUOUS
 62
     6
100
AcDbLine
 10
2838.000000000099
 20
4033.5
 30
0.0
 11
2838.000000000099
 21
4281.0
 31
0.0
  0
LINE
  5
FF
330
1F
100
AcDbEntity
  8
枠_表
  6
CONTINUOUS
 62
     6
100
AcDbLine
 10
2988.000000000099
 20
4033.5
 30
0.0
 11
2988.000000000099
 21
4281.0
 31
0.0
  0
TEXT
  5
100
330
1F
100
AcDbEntity
  8
枠_表
  6
CONTINUOUS
 62
     2
100
AcDbText
 10
1803.00000000009
 20
4044.750001907349
 30
0.0
 40
59.99999618530273
  1
ＬＵＭ４５１ＣＳ
 41
0.7446808984093669
  7
EXCADSTD
 72
     5
 11
2103.00000000009
 21
4044.750001907349
 31
0.0
100
AcDbText
  0
TEXT
  5
101
330
1F
100
AcDbEntity
  8
枠_表
  6
CONTINUOUS
 62
     2
100
AcDbText
 10
2253.000000000091
 20
4044.750001907349
 30
0.0
 40
59.99999618530273
  1
化粧鏡
 41
1.225000077883408
  7
EXCADSTD
 72
     5
 11
2431.500000000091
 21
4044.750001907349
 31
0.0
100
AcDbText
  0
TEXT
  5
102
330
1F
100
AcDbEntity
  8
枠_表
  6
CONTINUOUS
 62
     7
100
AcDbText
 10
2240.999996245004
 20
225.7500038146973
 30
0.0
 40
104.9999923706055
  1
ＬＵ２１７１９０
 41
1.140425547142764
  7
EXCADSTD
 72
     5
 11
3044.999948561288
 21
225.7500038146973
 31
0.0
100
AcDbText
  0
TEXT
  5
103
330
1F
100
AcDbEntity
  8
枠_表
  6
CONTINUOUS
 62
     2
100
AcDbText
 10
1815.00000000009
 20
3469.500003814694
 30
0.0
 40
52.49999618530273
  1
※止水栓は別途 
 41
0.9285714272739116
  7
EXCADSTD
 72
     5
 11
2156.249974727721
 21
3469.500003814694
 31
0.0
100
AcDbText
  0
TEXT
  5
104
330
1F
100
AcDbEntity
  8
枠_表
  6
CONTINUOUS
 62
     2
100
AcDbText
 10
1815.00000000009
 20
3409.500007629391
 30
0.0
 40
52.49999618530273
  1
※壁排水トラップセットはオプション
 41
1.01980197875919
  7
EXCADSTD
 72
     5
 11
2587.499942779631
 21
3409.500007629391
 31
0.0
100
AcDbText
  0
TEXT
  5
105
330
1F
100
AcDbEntity
  8
枠_表
  6
CONTINUOUS
 62
     2
100
AcDbText
 10
2238.000000000093
 20
441.0
 30
0.0
 40
74.99999237060547
  1
ＬＵ６０１ＡＳＤ
 41
0.7446808794711528
  7
EXCADSTD
 72
     5
 11
2612.999976158235
 21
441.0
 31
0.0
100
AcDbText
  0
TEXT
  5
106
330
1F
100
AcDbEntity
  8
枠_表
  6
CONTINUOUS
 62
     2
100
AcDbText
 10
2238.000000000093
 20
366.0000076293945
 30
0.0
 40
74.99999237060547
  1
ＬＵＭ４５１ＣＳ
 41
0.7446808794711528
  7
EXCADSTD
 72
     5
 11
2612.999976158235
 21
366.0000076293945
 31
0.0
100
AcDbText
  0
TEXT
  5
107
330
1F
100
AcDbEntity
  8
枠_表
  6
CONTINUOUS
 62
     2
100
AcDbText
 10
1803.000000000089
 20
3879.750001907345
 30
0.0
 40
59.99999618530273
  1
ＮＬ２２１－７５ＷＭＹ
 41
0.6784615987141971
  7
EXCADSTD
 72
     5
 11
2181.000009536832
 21
3879.750001907345
 31
0.0
100
AcDbText
  0
TEXT
  5
108
330
1F
100
AcDbEntity
  8
枠_表
  6
CONTINUOUS
 62
     2
100
AcDbText
 10
1803.000000000089
 20
3714.750001907345
 30
0.0
 40
59.99999618530273
  1
ＮＬ２１１－３００ＷＭＹ
 41
0.6778168692835045
  7
EXCADSTD
 72
     5
 11
2215.499954223722
 21
3714.750001907345
 31
0.0
100
AcDbText
  0
TEXT
  5
109
330
1F
100
AcDbEntity
  8
枠_表
  6
CONTINUOUS
 62
     2
100
AcDbText
 10
339.7499998500977
 20
208.5000019073486
 30
0.0
 40
59.99999618530273
  1
28
 41
0.4540540865305332
  7
EXCADSTD
 72
     5
 11
387.7500002315675
 21
208.5000019073486
 31
0.0
100
AcDbText
  0
TEXT
  5
10A
330
1F
100
AcDbEntity
  8
枠_表
  6
CONTINUOUS
 62
     2
100
AcDbText
 10
428.6250000000957
 20
208.5000019073486
 30
0.0
 40
59.99999618530273
  1
2
 41
0.4516544404801219
  7
EXCADSTD
 72
     5
 11
450.5625000000957
 21
208.5000019073486
 31
0.0
100
AcDbText
  0
TEXT
  5
10B
330
1F
100
AcDbEntity
  8
枠_表
  6
CONTINUOUS
 62
     2
100
AcDbText
 10
495.0000001500969
 20
208.5000019073486
 30
0.0
 40
59.99999618530273
  1
12
 41
0.4540540865305326
  7
EXCADSTD
 72
     5
 11
543.0000005315666
 21
208.5000019073486
 31
0.0
100
AcDbText
  0
POLYLINE
  5
10C
330
1F
100
AcDbEntity
  8
化粧台
  6
CONTINUOUS
 62
     3
100
AcDb2dPolyline
 66
     1
 10
0.0
 20
0.0
 30
0.0
 70
   128
  0
VERTEX
  5
10D
330
10C
100
AcDbEntity
  8
化粧台
  6
CONTINUOUS
 62
     3
100
AcDbVertex
100
AcDb2dVertex
 10
551.5000000001335
 20
979.5
 30
0.0
  0
VERTEX
  5
10E
330
10C
100
AcDbEntity
  8
化粧台
  6
CONTINUOUS
 62
     3
100
AcDbVertex
100
AcDb2dVertex
 10
532.5000000001335
 20
1028.5
 30
0.0
  0
SEQEND
  5
10F
330
10C
100
AcDbEntity
  8
化粧台
  6
CONTINUOUS
 62
     3
  0
LINE
  5
110
330
1F
100
AcDbEntity
  8
化粧台
  6
CONTINUOUS
 62
     3
100
AcDbLine
 10
528.2385367309182
 20
1018.744799994075
 30
0.0
 11
551.5000000001335
 21
979.5
 31
0.0
  0
LINE
  5
111
330
1F
100
AcDbEntity
  8
化粧台
  6
CONTINUOUS
 62
     3
100
AcDbLine
 10
551.5000000001335
 20
979.5
 30
0.0
 11
542.2239563651702
 21
1024.167717811438
 31
0.0
  0
POLYLINE
  5
112
330
1F
100
AcDbEntity
  8
化粧台
  6
CONTINUOUS
 62
     3
100
AcDb2dPolyline
 66
     1
 10
0.0
 20
0.0
 30
0.0
 70
   128
  0
VERTEX
  5
113
330
112
100
AcDbEntity
  8
化粧台
  6
CONTINUOUS
 62
     3
100
AcDbVertex
100
AcDb2dVertex
 10
2528.000000000097
 20
2973.0
 30
0.0
  0
VERTEX
  5
114
330
112
100
AcDbEntity
  8
化粧台
  6
CONTINUOUS
 62
     3
100
AcDbVertex
100
AcDb2dVertex
 10
2482.000000000097
 20
2993.0
 30
0.0
  0
SEQEND
  5
115
330
112
100
AcDbEntity
  8
化粧台
  6
CONTINUOUS
 62
     3
  0
LINE
  5
116
330
1F
100
AcDbEntity
  8
化粧台
  6
CONTINUOUS
 62
     3
100
AcDbLine
 10
2483.741401633093
 20
2984.064649591751
 30
0.0
 11
2528.000000000097
 21
2973.0
 31
0.0
  0
LINE
  5
117
330
1F
100
AcDbEntity
  8
化粧台
  6
CONTINUOUS
 62
     3
100
AcDbLine
 10
2528.000000000097
 20
2973.0
 30
0.0
 11
2489.722293304309
 21
2997.820700435549
 31
0.0
  0
DIMENSION
  5
119
330
1F
100
AcDbEntity
  8
化粧台
  6
CONTINUOUS
 62
     3
100
AcDbDimension
  2
*D15
 10
1537.5
 20
979.5
 30
0.0
 11
1500.0
 21
1372.00000000005
 31
0.0
 70
   160
  3
ISO-25
100
AcDbAlignedDimension
 13
1521.474995203837
 23
1764.5000000001
 33
0.0
 14
1521.474995203837
 24
979.5
 34
0.0
 50
90.0
100
AcDbRotatedDimension
1001
ACAD
1000
DSTYLE
1002
{
1070
   270
1070
     2
1070
     6
1000
EX_NORM
1070
     7
1000
EX_NORM
1070
    41
1040
44.99999618530273
1070
    42
1040
0.0
1070
    44
1040
0.0
1070
    73
1070
     0
1070
    74
1070
     0
1070
    75
1070
     1
1070
    76
1070
     1
1070
    77
1070
     1
1070
    78
1070
     8
1070
   140
1040
59.99999618530273
1070
   147
1040
0.0
1070
   173
1070
     1
1070
   176
1070
     3
1070
   177
1070
     3
1070
   178
1070
     2
1070
   271
1070
     1
1070
   277
1070
     2
1070
   279
1070
     2
1070
   280
1070
     0
1070
   287
1070
     5
1070
   340
1005
118
1002
}
  0
LINE
  5
125
330
1F
100
AcDbEntity
  8
化粧台
  6
CONTINUOUS
 62
     3
100
AcDbLine
 10
1305.474995025023
 20
1764.5000000001
 30
0.0
 11
1536.474995203837
 21
1764.5000000001
 31
0.0
  0
LINE
  5
126
330
1F
100
AcDbEntity
  8
化粧台
  6
CONTINUOUS
 62
     3
100
AcDbLine
 10
1307.499999821323
 20
979.5
 30
0.0
 11
1615.974995203837
 21
979.5
 31
0.0
  0
LINE
  5
127
330
1F
100
AcDbEntity
  8
化粧台
  6
CONTINUOUS
 62
     3
100
AcDbLine
 10
1330.314876946523
 20
1764.5000000001
 30
0.0
 11
1485.000000000137
 21
1764.5000000001
 31
0.0
  0
LINE
  5
128
330
1F
100
AcDbEntity
  8
化粧台
  6
CONTINUOUS
 62
     3
100
AcDbLine
 10
1322.499999821283
 20
979.5000000001
 30
0.0
 11
1485.000000000098
 21
979.5000000000991
 31
0.0
  0
DIMENSION
  5
129
330
1F
100
AcDbEntity
  8
化粧台
  6
CONTINUOUS
 62
     3
100
AcDbDimension
  2
*D16
 10
1438.5
 20
1729.5000000001
 30
0.0
 11
1403.250000089407
 21
1354.500000000099
 31
0.0
 70
   160
  3
ISO-25
100
AcDbAlignedDimension
 13
1312.000000000097
 23
979.5000000000999
 33
0.0
 14
1025.000000000098
 24
1729.5000000001
 34
0.0
 50
90.0
100
AcDbRotatedDimension
1001
ACAD
1000
DSTYLE
1002
{
1070
   270
1070
     2
1070
     6
1000
EX_NORM
1070
     7
1000
EX_NORM
1070
    41
1040
44.99999618530273
1070
    42
1040
10.49999982118607
1070
    44
1040
14.99999999999977
1070
    73
1070
     0
1070
    74
1070
     0
1070
    75
1070
     0
1070
    76
1070
     0
1070
    77
1070
     1
1070
    78
1070
     0
1070
   140
1040
59.99999618530273
1070
   147
1040
0.0
1070
   173
1070
     1
1070
   176
1070
     3
1070
   177
1070
     3
1070
   178
1070
     2
1070
   271
1070
     0
1070
   277
1070
     2
1070
   279
1070
     2
1070
   280
1070
     0
1070
   287
1070
     5
1070
   340
1005
118
1002
}
  0
LINE
  5
136
330
1F
100
AcDbEntity
  8
化粧台
  6
CONTINUOUS
 62
     3
100
AcDbLine
 10
1398.149999821323
 20
1764.5000000001
 30
0.0
 11
1489.050000000137
 21
1764.5000000001
 31
0.0
  0
LINE
  5
137
330
1F
100
AcDbEntity
  8
化粧台
  6
CONTINUOUS
 62
     3
100
AcDbLine
 10
1340.814876767724
 20
1764.5000000001
 30
0.0
 11
1495.500000000137
 21
1764.5000000001
 31
0.0
  0
DIMENSION
  5
138
330
1F
100
AcDbEntity
  8
化粧台
  6
CONTINUOUS
 62
     3
100
AcDbDimension
  2
*D17
 10
1325.000000000137
 20
3309.0
 30
0.0
 11
1025.000000000158
 21
3344.249999910593
 31
0.0
 70
   160
  3
ISO-25
100
AcDbAlignedDimension
 13
725.0000000001785
 23
3492.000000000039
 33
0.0
 14
1325.000000000137
 24
3492.000000000039
 34
0.0
100
AcDbRotatedDimension
1001
ACAD
1000
DSTYLE
1002
{
1070
   270
1070
     2
1070
     6
1000
EX_NORM
1070
     7
1000
EX_NORM
1070
    41
1040
44.99999618530273
1070
    42
1040
0.0000000000391109
1070
    44
1040
15.0
1070
    73
1070
     0
1070
    74
1070
     0
1070
    75
1070
     0
1070
    76
1070
     0
1070
    77
1070
     1
1070
    78
1070
     0
1070
   140
1040
59.99999618530273
1070
   147
1040
0.0
1070
   173
1070
     1
1070
   176
1070
     3
1070
   177
1070
     3
1070
   178
1070
     2
1070
   271
1070
     0
1070
   277
1070
     2
1070
   279
1070
     2
1070
   280
1070
     0
1070
   287
1070
     5
1070
   340
1005
118
1002
}
  0
DIMENSION
  5
145
330
1F
100
AcDbEntity
  8
化粧台
  6
CONTINUOUS
 62
     3
100
AcDbDimension
  2
*D18
 10
1443.0
 20
3515.500000000039
 30
0.0
 11
1407.750000089407
 21
3665.500000000039
 31
0.0
 70
   160
  3
ISO-25
100
AcDbAlignedDimension
 13
1325.000000000137
 23
3815.500000000039
 33
0.0
 14
1320.000000000137
 24
3515.500000000039
 34
0.0
 50
90.0
100
AcDbRotatedDimension
1001
ACAD
1000
DSTYLE
1002
{
1070
   270
1070
     2
1070
     6
1000
EX_NORM
1070
     7
1000
EX_NORM
1070
    41
1040
44.99999618530273
1070
    42
1040
10.49999982118607
1070
    44
1040
15.0
1070
    73
1070
     0
1070
    74
1070
     0
1070
    75
1070
     1
1070
    76
1070
     0
1070
    77
1070
     1
1070
    78
1070
     0
1070
   140
1040
59.99999618530273
1070
   147
1040
0.0
1070
   173
1070
     1
1070
   176
1070
     3
1070
   177
1070
     3
1070
   178
1070
     2
1070
   271
1070
     0
1070
   277
1070
     2
1070
   279
1070
     2
1070
   280
1070
     0
1070
   287
1070
     5
1070
   340
1005
118
1002
}
  0
DIMENSION
  5
151
330
1F
100
AcDbEntity
  8
化粧台
  6
CONTINUOUS
 62
     3
100
AcDbDimension
  2
*D19
 10
1553.999999999999
 20
3445.5
 30
0.0
 11
1516.5
 21
3630.5
 31
0.0
 70
   160
  3
ISO-25
100
AcDbAlignedDimension
 13
1025.000000000138
 23
3815.5
 33
0.0
 14
1025.000000000138
 24
3445.5
 34
0.0
 50
90.0
100
AcDbRotatedDimension
1001
ACAD
1000
DSTYLE
1002
{
1070
   270
1070
     2
1070
     6
1000
EX_NORM
1070
     7
1000
EX_NORM
1070
    41
1040
44.99999618530273
1070
    42
1040
10.49999982118607
1070
    44
1040
14.99999999999727
1070
    73
1070
     0
1070
    74
1070
     0
1070
    75
1070
     0
1070
    76
1070
     0
1070
    77
1070
     1
1070
    78
1070
     8
1070
   140
1040
59.99999618530273
1070
   147
1040
0.0
1070
   173
1070
     1
1070
   176
1070
     3
1070
   177
1070
     3
1070
   178
1070
     2
1070
   271
1070
     1
1070
   277
1070
     2
1070
   279
1070
     2
1070
   280
1070
     0
1070
   287
1070
     5
1070
   340
1005
118
1002
}
  0
DIMENSION
  5
15E
330
1F
100
AcDbEntity
  8
化粧台
  6
CONTINUOUS
 62
     3
100
AcDbDimension
  2
*D20
 10
1235.000000000136
 20
3921.0
 30
0.0
 11
1438.999999463695
 21
3958.5
 31
0.0
 70
   160
  1
90（壁給水）
  3
ISO-25
100
AcDbAlignedDimension
 13
1145.000000000136
 23
3855.899999999999
 33
0.0
 14
1235.000000000136
 24
3843.599999999999
 34
0.0
100
AcDbRotatedDimension
1001
ACAD
1000
DSTYLE
1002
{
1070
   270
1070
     2
1070
     6
1000
EX_NORM
1070
     7
1000
EX_NORM
1070
    41
1040
29.99999809265137
1070
    42
1040
10.49999982118607
1070
    44
1040
15.0
1070
    73
1070
     0
1070
    74
1070
     0
1070
    75
1070
     0
1070
    76
1070
     0
1070
    77
1070
     1
1070
    78
1070
     8
1070
   140
1040
59.99999618530273
1070
   147
1040
0.0
1070
   173
1070
     1
1070
   176
1070
     3
1070
   177
1070
     3
1070
   178
1070
     2
1070
   271
1070
     1
1070
   277
1070
     2
1070
   279
1070
     2
1070
   280
1070
     2
1070
   287
1070
     5
1070
   340
1005
118
1002
}
  0
LINE
  5
16B
330
1F
100
AcDbEntity
  8
化粧台
  6
CONTINUOUS
 62
     3
100
AcDbLine
 10
1145.000000000136
 20
942.0000001787739
 30
0.0
 11
1145.000000000136
 21
859.5
 31
0.0
  0
DIMENSION
  5
16C
330
1F
100
AcDbEntity
  8
化粧台
  6
CONTINUOUS
 62
     3
100
AcDbDimension
  2
*D21
 10
1235.000000000136
 20
828.0
 30
0.0
 11
1471.99999928488
 21
865.5
 31
0.0
 70
   160
  1
  90（床給水）
  3
ISO-25
100
AcDbAlignedDimension
 13
1145.000000000136
 23
952.49999999996
 33
0.0
 14
1235.000000000136
 24
952.5
 34
0.0
100
AcDbRotatedDimension
1001
ACAD
1000
DSTYLE
1002
{
1070
   270
1070
     2
1070
     6
1000
EX_NORM
1070
     7
1000
EX_NORM
1070
    41
1040
44.99999618530273
1070
    42
1040
10.49999982118607
1070
    44
1040
15.0
1070
    73
1070
     0
1070
    74
1070
     0
1070
    75
1070
     0
1070
    76
1070
     0
1070
    77
1070
     1
1070
    78
1070
     8
1070
   140
1040
59.99999618530273
1070
   147
1040
0.0
1070
   173
1070
     1
1070
   176
1070
     3
1070
   177
1070
     3
1070
   178
1070
     2
1070
   271
1070
     1
1070
   277
1070
     2
1070
   279
1070
     2
1070
   280
1070
     2
1070
   287
1070
     5
1070
   340
1005
118
1002
}
  0
DIMENSION
  5
179
330
1F
100
AcDbEntity
  8
化粧台
  6
CONTINUOUS
 62
     3
100
AcDbDimension
  2
*D22
 10
1145.000000000136
 20
828.0
 30
0.0
 11
1085.000000000136
 21
865.5
 31
0.0
 70
   160
  3
ISO-25
100
AcDbAlignedDimension
 13
1025.000000000136
 23
918.0
 33
0.0
 14
1145.000000000136
 24
952.49999999996
 34
0.0
100
AcDbRotatedDimension
1001
ACAD
1000
DSTYLE
1002
{
1070
   270
1070
     2
1070
     6
1000
EX_NORM
1070
     7
1000
EX_NORM
1070
    41
1040
44.99999618530273
1070
    42
1040
10.49999982118607
1070
    44
1040
15.0
1070
    73
1070
     0
1070
    74
1070
     0
1070
    75
1070
     0
1070
    76
1070
     0
1070
    77
1070
     1
1070
    78
1070
     8
1070
   140
1040
59.99999618530273
1070
   147
1040
0.0
1070
   173
1070
     1
1070
   176
1070
     3
1070
   177
1070
     3
1070
   178
1070
     2
1070
   271
1070
     1
1070
   277
1070
     2
1070
   279
1070
     2
1070
   280
1070
     0
1070
   287
1070
     5
1070
   340
1005
118
1002
}
  0
TEXT
  5
186
330
1F
100
AcDbEntity
  8
化粧台
  6
CONTINUOUS
 62
     2
100
AcDbText
 10
750.0000003577645
 20
859.749999910593
 30
0.0
 40
59.99999618530273
  1
床排水
 41
1.070588224822399
  7
EXCADSTD
 72
     5
 11
905.9999889136727
 21
859.749999910593
 31
0.0
100
AcDbText
  0
LEADER
  5
187
330
1F
100
AcDbEntity
  8
化粧台
  6
CONTINUOUS
 62
     3
100
AcDbLeader
  3
ISO-25
 76
     3
 10
1009.000000000135
 20
970.5
 30
0.0
 10
886.5000000001367
 20
857.5
 30
0.0
 10
749.2500000001376
 20
857.5
 30
0.0
1001
ACAD
1000
DSTYLE
1002
{
1070
     5
1000
EX_NORM
1070
    41
1040
45.0
1070
   341
1005
4D
1002
}
  0
LINE
  5
188
330
1F
100
AcDbEntity
  8
化粧台
  6
CONTINUOUS
 62
     3
100
AcDbLine
 10
2528.000000000095
 20
969.0000001788521
 30
0.0
 11
2528.000000000095
 21
890.5000000001
 31
0.0
  0
DIMENSION
  5
189
330
1F
100
AcDbEntity
  8
化粧台
  6
CONTINUOUS
 62
     3
100
AcDbDimension
  2
*D23
 10
2528.000000000097
 20
741.0
 30
0.0
 11
2398.250000000096
 21
778.5
 31
0.0
 70
   160
  1
260
  3
ISO-25
100
AcDbAlignedDimension
 13
2268.500000000096
 23
979.5
 33
0.0
 14
2528.000000000097
 24
979.5
 34
0.0
100
AcDbRotatedDimension
1001
ACAD
1000
DSTYLE
1002
{
1070
   270
1070
     2
1070
     6
1000
EX_NORM
1070
     7
1000
EX_NORM
1070
    41
1040
44.99999618530273
1070
    42
1040
10.49999982118607
1070
    44
1040
15.0
1070
    73
1070
     0
1070
    74
1070
     0
1070
    75
1070
     0
1070
    76
1070
     0
1070
    77
1070
     1
1070
    78
1070
     8
1070
   140
1040
59.99999618530273
1070
   147
1040
0.0
1070
   173
1070
     1
1070
   176
1070
     3
1070
   177
1070
     3
1070
   178
1070
     2
1070
   271
1070
     1
1070
   277
1070
     2
1070
   279
1070
     2
1070
   280
1070
     0
1070
   287
1070
     5
1070
   340
1005
118
1002
}
  0
DIMENSION
  5
197
330
1F
100
AcDbEntity
  8
化粧台
  6
CONTINUOUS
 62
     3
100
AcDbDimension
  2
*D24
 10
2628.000000000097
 20
1299.5
 30
0.0
 11
2590.500000000097
 21
1147.0
 31
0.0
 70
   160
  1
320（壁給水）
 53
90.00000000000001
  3
ISO-25
100
AcDbAlignedDimension
 13
2538.499999821296
 23
979.5
 33
0.0
 14
2551.000005722095
 24
1299.5
 34
0.0
 50
90.0
100
AcDbRotatedDimension
1001
ACAD
1000
DSTYLE
1002
{
1070
   270
1070
     2
1070
     6
1000
EX_NORM
1070
     7
1000
EX_NORM
1070
    41
1040
44.99999618530273
1070
    42
1040
10.49999982118607
1070
    44
1040
15.0
1070
    73
1070
     0
1070
    74
1070
     0
1070
    75
1070
     0
1070
    76
1070
     0
1070
    77
1070
     1
1070
    78
1070
     8
1070
   140
1040
59.99999618530273
1070
   147
1040
0.0
1070
   173
1070
     1
1070
   176
1070
     3
1070
   177
1070
     3
1070
   178
1070
     2
1070
   271
1070
     1
1070
   277
1070
     2
1070
   279
1070
     2
1070
   280
1070
     0
1070
   287
1070
     5
1070
   340
1005
196
1002
}
  0
DIMENSION
  5
1A4
330
1F
100
AcDbEntity
  8
化粧台
  6
CONTINUOUS
 62
     3
100
AcDbDimension
  2
*D25
 10
2715.000000000097
 20
1454.5
 30
0.0
 11
2677.500000000097
 21
1217.0
 31
0.0
 70
   160
  1
475（壁排水）
  3
ISO-25
100
AcDbAlignedDimension
 13
2538.499999821296
 23
979.5
 33
0.0
 14
2556.750000000097
 24
1454.5
 34
0.0
 50
90.0
100
AcDbRotatedDimension
1001
ACAD
1000
DSTYLE
1002
{
1070
   270
1070
     2
1070
     6
1000
EX_NORM
1070
     7
1000
EX_NORM
1070
    41
1040
44.99999618530273
1070
    42
1040
10.49999982118607
1070
    44
1040
15.0
1070
    73
1070
     0
1070
    74
1070
     0
1070
    75
1070
     0
1070
    76
1070
     0
1070
    77
1070
     1
1070
    78
1070
     8
1070
   140
1040
59.99999618530273
1070
   147
1040
0.0
1070
   173
1070
     1
1070
   176
1070
     3
1070
   177
1070
     3
1070
   178
1070
     2
1070
   271
1070
     1
1070
   277
1070
     2
1070
   279
1070
     2
1070
   280
1070
     0
1070
   287
1070
     5
1070
   340
1005
118
1002
}
  0
DIMENSION
  5
1B1
330
1F
100
AcDbEntity
  8
化粧台
  6
CONTINUOUS
 62
     3
100
AcDbDimension
  2
*D26
 10
2528.000000000097
 20
859.5
 30
0.0
 11
2770.999997139074
 21
897.0
 31
0.0
 70
   160
  1
85（床・給排水）
  3
ISO-25
100
AcDbAlignedDimension
 13
2443.000000000097
 23
934.5
 33
0.0
 14
2528.000000000097
 24
979.5
 34
0.0
100
AcDbRotatedDimension
1001
ACAD
1000
DSTYLE
1002
{
1070
   270
1070
     2
1070
     6
1000
EX_NORM
1070
     7
1000
EX_NORM
1070
    41
1040
44.99999618530273
1070
    42
1040
10.49999982118607
1070
    44
1040
15.0
1070
    73
1070
     0
1070
    74
1070
     0
1070
    75
1070
     0
1070
    76
1070
     0
1070
    77
1070
     1
1070
    78
1070
     8
1070
   140
1040
59.99999618530273
1070
   147
1040
0.0
1070
   173
1070
     1
1070
   176
1070
     3
1070
   177
1070
     3
1070
   178
1070
     2
1070
   271
1070
     1
1070
   277
1070
     2
1070
   279
1070
     2
1070
   280
1070
     2
1070
   287
1070
     5
1070
   340
1005
118
1002
}
  0
DIMENSION
  5
1C0
330
1F
100
AcDbEntity
  8
化粧台
  6
CONTINUOUS
 62
     3
100
AcDbDimension
  2
*D27
 10
1065.000000000134
 20
3921.0
 30
0.0
 11
821.0000005365764
 21
3958.5
 31
0.0
 70
   160
  1
40（壁排水）
  3
ISO-25
100
AcDbAlignedDimension
 13
1025.000000000134
 23
3826.5
 33
0.0
 14
1065.000000000134
 24
3852.0
 34
0.0
100
AcDbRotatedDimension
1001
ACAD
1000
DSTYLE
1002
{
1070
   270
1070
     2
1070
     6
1000
EX_NORM
1070
     7
1000
EX_NORM
1070
    41
1040
29.99999809265137
1070
    42
1040
10.49999982118607
1070
    44
1040
15.0
1070
    73
1070
     0
1070
    74
1070
     0
1070
    75
1070
     0
1070
    76
1070
     0
1070
    77
1070
     1
1070
    78
1070
     8
1070
   140
1040
59.99999618530273
1070
   147
1040
0.0
1070
   173
1070
     1
1070
   176
1070
     3
1070
   177
1070
     3
1070
   178
1070
     2
1070
   271
1070
     1
1070
   277
1070
     2
1070
   279
1070
     2
1070
   280
1070
     1
1070
   287
1070
     5
1070
   340
1005
118
1002
}
  0
DIMENSION
  5
1CF
330
1F
100
AcDbEntity
  8
化粧台
  6
CONTINUOUS
 62
     3
100
AcDbDimension
  2
*D28
 10
1250.0000000001
 20
2947.5
 30
0.0
 11
1025.0000000001
 21
2982.749999910593
 31
0.0
 70
   160
  3
ISO-25
100
AcDbAlignedDimension
 13
800.0000000001
 23
2728.30000000004
 33
0.0
 14
1250.0000000001
 24
2728.30000000004
 34
0.0
100
AcDbRotatedDimension
1001
ACAD
1000
DSTYLE
1002
{
1070
   270
1070
     2
1070
     6
1000
EX_NORM
1070
     7
1000
EX_NORM
1070
    41
1040
44.99999618530273
1070
    42
1040
10.49999982118607
1070
    44
1040
15.0
1070
    73
1070
     0
1070
    74
1070
     0
1070
    75
1070
     0
1070
    76
1070
     0
1070
    77
1070
     1
1070
    78
1070
     8
1070
   140
1040
59.99999618530273
1070
   147
1040
0.0
1070
   173
1070
     1
1070
   176
1070
     3
1070
   177
1070
     3
1070
   178
1070
     2
1070
   271
1070
     2
1070
   277
1070
     2
1070
   279
1070
     2
1070
   280
1070
     0
1070
   287
1070
     5
1070
   340
1005
118
1002
}
  0
DIMENSION
  5
1DC
330
1F
100
AcDbEntity
  8
化粧台
  6
CONTINUOUS
 62
     3
100
AcDbDimension
  2
*D29
 10
1400.0000000001
 20
2729.50000000004
 30
0.0
 11
1364.750000089508
 21
2478.30000000004
 31
0.0
 70
   160
  1
503
  3
ISO-25
100
AcDbAlignedDimension
 13
1248.5000000001
 23
2227.100000000039
 33
0.0
 14
1248.5000000001
 24
2729.50000000004
 34
0.0
 50
90.0
100
AcDbRotatedDimension
1001
ACAD
1000
DSTYLE
1002
{
1070
   270
1070
     2
1070
     6
1000
EX_NORM
1070
     7
1000
EX_NORM
1070
    41
1040
44.99999618530273
1070
    42
1040
10.49999982118607
1070
    44
1040
15.0
1070
    73
1070
     0
1070
    74
1070
     0
1070
    75
1070
     0
1070
    76
1070
     0
1070
    77
1070
     1
1070
    78
1070
     8
1070
   140
1040
59.99999618530273
1070
   147
1040
0.0
1070
   173
1070
     1
1070
   176
1070
     3
1070
   177
1070
     3
1070
   178
1070
     2
1070
   271
1070
     2
1070
   277
1070
     2
1070
   279
1070
     2
1070
   280
1070
     0
1070
   287
1070
     5
1070
   340
1005
118
1002
}
  0
DIMENSION
  5
1E9
330
1F
100
AcDbEntity
  8
化粧台
  6
CONTINUOUS
 62
     3
100
AcDbDimension
  2
*D30
 10
1175.0000000001
 20
2827.5
 30
0.0
 11
1025.0000000001
 21
2862.749999910593
 31
0.0
 70
   160
  1
<>（壁固定）
  3
ISO-25
100
AcDbAlignedDimension
 13
875.0000000001003
 23
2681.30000000004
 33
0.0
 14
1175.0000000001
 24
2681.30000000004
 34
0.0
100
AcDbRotatedDimension
1001
ACAD
1000
DSTYLE
1002
{
1070
   270
1070
     2
1070
     6
1000
EX_NORM
1070
     7
1000
EX_NORM
1070
    41
1040
44.99999618530273
1070
    42
1040
10.49999982118607
1070
    44
1040
15.0
1070
    73
1070
     0
1070
    74
1070
     0
1070
    75
1070
     0
1070
    76
1070
     0
1070
    77
1070
     1
1070
    78
1070
     8
1070
   140
1040
59.99999618530273
1070
   147
1040
0.0
1070
   173
1070
     1
1070
   176
1070
     3
1070
   177
1070
     3
1070
   178
1070
     2
1070
   271
1070
     2
1070
   277
1070
     2
1070
   279
1070
     2
1070
   280
1070
     0
1070
   287
1070
     5
1070
   340
1005
118
1002
}
  0
DIMENSION
  5
1F6
330
1F
100
AcDbEntity
  8
化粧台
  6
CONTINUOUS
 62
     3
100
AcDbDimension
  2
*D31
 10
2528.0000000001
 20
2789.5
 30
0.0
 11
2467.4000000001
 21
2824.749999910593
 31
0.0
 70
   160
  1
122
  3
ISO-25
100
AcDbAlignedDimension
 13
2406.8000000001
 23
2729.5
 33
0.0
 14
2528.0000000001
 24
2723.3
 34
0.0
100
AcDbRotatedDimension
1001
ACAD
1000
DSTYLE
1002
{
1070
   270
1070
     2
1070
     6
1000
EX_NORM
1070
     7
1000
EX_NORM
1070
    41
1040
44.99999618530273
1070
    42
1040
10.49999982118607
1070
    44
1040
15.0
1070
    73
1070
     0
1070
    74
1070
     0
1070
    75
1070
     0
1070
    76
1070
     0
1070
    77
1070
     1
1070
    78
1070
     8
1070
   140
1040
59.99999618530273
1070
   147
1040
0.0
1070
   173
1070
     1
1070
   176
1070
     3
1070
   177
1070
     3
1070
   178
1070
     2
1070
   271
1070
     2
1070
   277
1070
     2
1070
   279
1070
     2
1070
   280
1070
     0
1070
   287
1070
     5
1070
   340
1005
118
1002
}
  0
TEXT
  5
203
330
1F
100
AcDbEntity
  8
化粧台
  6
CONTINUOUS
 62
     2
100
AcDbText
 10
1599.000000536575
 20
3755.500003814697
 30
0.0
 40
59.99999618530273
  1
W.L.
 41
0.5571963512150641
  7
EXCADSTD
 72
     5
 11
1689.743400536575
 21
3755.500003814697
 31
0.0
100
AcDbText
  0
LINE
  5
204
330
1F
100
AcDbEntity
  8
化粧台
  6
CONTINUOUS
 62
     6
100
AcDbLine
 10
830.0000000001385
 20
3800.8
 30
0.0
 11
830.0000000001385
 21
3863.000000000001
 31
0.0
  0
LINE
  5
205
330
1F
100
AcDbEntity
  8
化粧台
  6
CONTINUOUS
 62
     6
100
AcDbLine
 10
830.0000000001385
 20
3848.000000000001
 30
0.0
 11
828.0000000001385
 21
3815.500000000001
 31
0.0
  0
LINE
  5
206
330
1F
100
AcDbEntity
  8
化粧台
  6
CONTINUOUS
 62
     6
100
AcDbLine
 10
832.0000000001403
 20
3815.500000000001
 30
0.0
 11
830.0000000001385
 21
3848.000000000001
 31
0.0
  0
LINE
  5
207
330
1F
100
AcDbEntity
  8
化粧台
  6
CONTINUOUS
 62
     6
100
AcDbLine
 10
1220.000000000137
 20
3800.8
 30
0.0
 11
1220.000000000137
 21
3863.000000000001
 31
0.0
  0
LINE
  5
208
330
1F
100
AcDbEntity
  8
化粧台
  6
CONTINUOUS
 62
     6
100
AcDbLine
 10
1220.000000000137
 20
3848.000000000001
 30
0.0
 11
1218.000000000137
 21
3815.500000000001
 31
0.0
  0
LINE
  5
209
330
1F
100
AcDbEntity
  8
化粧台
  6
CONTINUOUS
 62
     6
100
AcDbLine
 10
1222.000000000139
 20
3815.500000000001
 30
0.0
 11
1220.000000000137
 21
3848.000000000001
 31
0.0
  0
ARC
  5
20A
330
1F
100
AcDbEntity
  8
化粧台
  6
CONTINUOUS
 62
     2
100
AcDbCircle
 10
730.0000000001385
 20
3790.500000000037
 30
0.0
 40
5.0
100
AcDbArc
 50
180.0
 51
270.0000000000002
  0
ARC
  5
20B
330
1F
100
AcDbEntity
  8
化粧台
  6
CONTINUOUS
 62
     2
100
AcDbCircle
 10
823.2575899818178
 20
3510.500000000037
 30
0.0
 40
5.0
100
AcDbArc
 50
51.72879195205692
 51
90.00000000000004
  0
ARC
  5
20C
330
1F
100
AcDbEntity
  8
化粧台
  6
CONTINUOUS
 62
     2
100
AcDbCircle
 10
730.0000000001385
 20
3520.500000000037
 30
0.0
 40
5.0
100
AcDbArc
 50
180.0
 51
270.0000000000002
  0
LINE
  5
20D
330
1F
100
AcDbEntity
  8
化粧台
  6
CONTINUOUS
 62
     2
100
AcDbLine
 10
725.0000000001385
 20
3815.500000000037
 30
0.0
 11
725.0000000001385
 21
3520.500000000037
 31
0.0
  0
LINE
  5
20E
330
1F
100
AcDbEntity
  8
化粧台
  6
CONTINUOUS
 62
     2
100
AcDbLine
 10
823.2575899818178
 20
3515.500000000037
 30
0.0
 11
730.0000000001385
 21
3515.500000000037
 31
0.0
  0
ELLIPSE
  5
20F
330
1F
100
AcDbEntity
  8
化粧台
  6
CONTINUOUS
 62
     2
100
AcDbEllipse
 10
1025.000000000138
 20
3761.673898276909
 30
0.0
 11
12.00000000000001
 21
0.0
 31
0.0
210
0.0
220
0.0
230
1.0
 40
0.2903763590166665
 41
0.0
 42
6.283185307179586
  0
LINE
  5
210
330
1F
100
AcDbEntity
  8
化粧台
  6
CONTINUOUS
 62
     6
100
AcDbLine
 10
1040.000000000138
 20
3761.673898276938
 30
0.0
 11
1010.000000000138
 21
3761.673898276938
 31
0.0
  0
ARC
  5
211
330
1F
100
AcDbEntity
  8
化粧台
  6
CONTINUOUS
 62
     2
100
AcDbCircle
 10
1025.000000000138
 20
3853.4721187686
 30
0.0
 40
112.9721187685906
100
AcDbArc
 50
224.0817618104601
 51
315.9182381895401
  0
ARC
  5
212
330
1F
100
AcDbEntity
  8
化粧台
  6
CONTINUOUS
 62
     2
100
AcDbCircle
 10
1320.000000000137
 20
3790.500000000037
 30
0.0
 40
5.0
100
AcDbArc
 50
270.0000000000002
 51
0.0
  0
LINE
  5
213
330
1F
100
AcDbEntity
  8
化粧台
  6
CONTINUOUS
 62
     2
100
AcDbLine
 10
730.0000000001376
 20
3785.500000000037
 30
0.0
 11
1320.000000000137
 21
3785.500000000037
 31
0.0
  0
LINE
  5
214
330
1F
100
AcDbEntity
  8
化粧台
  6
CONTINUOUS
 62
     2
100
AcDbLine
 10
725.0000000001376
 20
3815.500000000037
 30
0.0
 11
1325.000000000137
 21
3815.500000000037
 31
0.0
  0
ARC
  5
215
330
1F
100
AcDbEntity
  8
化粧台
  6
CONTINUOUS
 62
     2
100
AcDbCircle
 10
1226.742410018457
 20
3510.500000000037
 30
0.0
 40
5.0
100
AcDbArc
 50
90.00000000000004
 51
128.2712080479444
  0
LINE
  5
216
330
1F
100
AcDbEntity
  8
化粧台
  6
EXLTYPE3
 62
     6
100
AcDbLine
 10
1208.000000000137
 20
3715.500000000037
 30
0.0
 11
1252.000000000137
 21
3715.500000000037
 31
0.0
  0
LINE
  5
217
330
1F
100
AcDbEntity
  8
化粧台
  6
EXLTYPE3
 62
     6
100
AcDbLine
 10
1230.000000000137
 20
3693.500000000037
 30
0.0
 11
1230.000000000137
 21
3737.500000000037
 31
0.0
  0
ARC
  5
218
330
1F
100
AcDbEntity
  8
化粧台
  6
CONTINUOUS
 62
     2
100
AcDbCircle
 10
1320.000000000137
 20
3520.500000000037
 30
0.0
 40
5.0
100
AcDbArc
 50
270.0000000000002
 51
0.0
  0
ARC
  5
219
330
1F
100
AcDbEntity
  8
化粧台
  6
CONTINUOUS
 62
     2
100
AcDbCircle
 10
1025.000000000138
 20
3766.214285714324
 30
0.0
 40
320.7142857142863
100
AcDbArc
 50
231.7287919520556
 51
308.2712080479444
  0
LINE
  5
21A
330
1F
100
AcDbEntity
  8
化粧台
  6
CONTINUOUS
 62
     2
100
AcDbLine
 10
1325.000000000137
 20
3815.500000000037
 30
0.0
 11
1325.000000000137
 21
3520.500000000037
 31
0.0
  0
LINE
  5
21B
330
1F
100
AcDbEntity
  8
化粧台
  6
CONTINUOUS
 62
     2
100
AcDbLine
 10
1226.742410018457
 20
3515.500000000037
 30
0.0
 11
1320.000000000137
 21
3515.500000000037
 31
0.0
  0
LINE
  5
21C
330
1F
100
AcDbEntity
  8
化粧台
  6
EXLTYPE3
 62
     6
100
AcDbLine
 10
979.500000000138
 20
3690.500000000037
 30
0.0
 11
1070.500000000138
 21
3690.500000000037
 31
0.0
  0
ARC
  5
21D
330
1F
100
AcDbEntity
  8
化粧台
  6
CONTINUOUS
 62
     2
100
AcDbCircle
 10
1025.000000000138
 20
3625.500000000037
 30
0.0
 40
170.0
100
AcDbArc
 50
29.97878780140052
 51
61.48608474031997
  0
ARC
  5
21E
330
1F
100
AcDbEntity
  8
化粧台
  6
CONTINUOUS
 62
     2
100
AcDbCircle
 10
1025.000000000138
 20
3625.500000000037
 30
0.0
 40
170.0
100
AcDbArc
 50
118.5139152596804
 51
19.8173968582466
  0
LINE
  5
21F
330
1F
100
AcDbEntity
  8
化粧台
  6
CONTINUOUS
 62
     6
100
AcDbLine
 10
1216.662461703622
 20
3690.55063230001
 30
0.0
 11
1217.800881948879
 21
3693.678416217666
 31
0.0
  0
LINE
  5
220
330
1F
100
AcDbEntity
  8
化粧台
  6
CONTINUOUS
 62
     6
100
AcDbLine
 10
1224.18000266991
 20
3687.814471153405
 30
0.0
 11
1225.318422915169
 21
3690.94225507107
 31
0.0
  0
ELLIPSE
  5
221
330
1F
100
AcDbEntity
  8
化粧台
  6
CONTINUOUS
 62
     6
100
AcDbEllipse
 10
1219.985766940525
 20
3687.986120795751
 30
0.0
 11
-7.047694655894399
 21
2.565151074942548
 31
0.0
210
0.0
220
0.0
230
1.0
 40
0.2006868301783938
 41
3.141592653589788
 42
6.283185307179586
  0
ELLIPSE
  5
222
330
1F
100
AcDbEntity
  8
化粧台
  6
CONTINUOUS
 62
     6
100
AcDbEllipse
 10
1197.389032142768
 20
3625.902102185509
 30
0.0
 11
-7.047694655894399
 21
2.565151074942548
 31
0.0
210
0.0
220
0.0
230
1.0
 40
0.2006868301783938
 41
0.0
 42
6.283185307179586
  0
LINE
  5
223
330
1F
100
AcDbEntity
  8
化粧台
  6
CONTINUOUS
 62
     6
100
AcDbLine
 10
1207.745708476007
 20
3732.967323355521
 30
0.0
 11
1210.628289726855
 21
3731.303064294371
 31
0.0
  0
LINE
  5
224
330
1F
100
AcDbEntity
  8
化粧台
  6
CONTINUOUS
 62
     6
100
AcDbLine
 10
1203.745708476007
 20
3726.039120125248
 30
0.0
 11
1206.628289726862
 21
3724.374861064091
 31
0.0
  0
ELLIPSE
  5
225
330
1F
100
AcDbEntity
  8
化粧台
  6
CONTINUOUS
 62
     6
100
AcDbEllipse
 10
1204.643071765705
 20
3730.139829341915
 30
0.0
 11
3.750000000000112
 21
6.495190528383489
 31
0.0
210
0.0
220
0.0
230
1.0
 40
0.2006868301783902
 41
3.141592653589788
 42
6.283185307179586
  0
ELLIPSE
  5
226
330
1F
100
AcDbEntity
  8
化粧台
  6
CONTINUOUS
 62
     6
100
AcDbEllipse
 10
1147.426130719038
 20
3763.174045657415
 30
0.0
 11
3.750000000000112
 21
6.495190528383489
 31
0.0
210
0.0
220
0.0
230
1.0
 40
0.2006868301783902
 41
0.0
 42
6.283185307179586
  0
LINE
  5
227
330
1F
100
AcDbEntity
  8
化粧台
  6
CONTINUOUS
 62
     6
100
AcDbLine
 10
1202.314471153369
 20
3709.680002669812
 30
0.0
 11
1205.442255071034
 21
3710.818422915047
 31
0.0
  0
LINE
  5
228
330
1F
100
AcDbEntity
  8
化粧台
  6
CONTINUOUS
 62
     6
100
AcDbLine
 10
1205.050632299974
 20
3702.162461703526
 30
0.0
 11
1208.178416217647
 21
3703.300881948763
 31
0.0
  0
LINE
  5
229
330
1F
100
AcDbEntity
  8
化粧台
  6
CONTINUOUS
 62
     6
100
AcDbLine
 10
1205.051271870646
 20
3698.438072284566
 30
0.0
 11
1142.967253260407
 21
3675.841337486811
 31
0.0
  0
LINE
  5
22A
330
1F
100
AcDbEntity
  8
化粧台
  6
CONTINUOUS
 62
     6
100
AcDbLine
 10
1199.92096972076
 20
3712.533461596357
 30
0.0
 11
1137.836951110522
 21
3689.936726798602
 31
0.0
  0
ELLIPSE
  5
22B
330
1F
100
AcDbEntity
  8
化粧台
  6
CONTINUOUS
 62
     6
100
AcDbEllipse
 10
1202.486120795703
 20
3705.485766940459
 30
0.0
 11
-2.56515107494252
 21
7.047694655894312
 31
0.0
210
0.0
220
0.0
230
1.0
 40
0.2006868301783963
 41
3.141592653589788
 42
6.283185307179586
  0
ARC
  5
22C
330
1F
100
AcDbEntity
  8
化粧台
  6
CONTINUOUS
 62
     6
100
AcDbCircle
 10
1230.000000000017
 20
3715.500000000025
 30
0.0
 40
27.00000000000002
100
AcDbArc
 50
233.7489885958695
 51
166.2510114040933
  0
LINE
  5
22D
330
1F
100
AcDbEntity
  8
化粧台
  6
CONTINUOUS
 62
     6
100
AcDbLine
 10
1121.154223073094
 20
3659.920710485912
 30
0.0
 11
1216.336449734187
 21
3694.564207821732
 31
0.0
  0
LINE
  5
22E
330
1F
100
AcDbEntity
  8
化粧台
  6
CONTINUOUS
 62
     6
100
AcDbLine
 10
1110.893618773323
 20
3688.111489109491
 30
0.0
 11
1206.075845434427
 21
3722.754986445312
 31
0.0
  0
CIRCLE
  5
22F
330
1F
100
AcDbEntity
  8
化粧台
  6
CONTINUOUS
 62
     6
100
AcDbCircle
 10
1230.000000000017
 20
3715.500000000025
 30
0.0
 40
24.99999999999103
  0
ELLIPSE
  5
230
330
1F
100
AcDbEntity
  8
化粧台
  6
CONTINUOUS
 62
     6
100
AcDbEllipse
 10
1140.402102185461
 20
3682.889032142702
 30
0.0
 11
-2.56515107494252
 21
7.047694655894312
 31
0.0
210
0.0
220
0.0
230
1.0
 40
0.2006868301783963
 41
0.0
 42
6.283185307179586
  0
ELLIPSE
  5
231
330
1F
100
AcDbEntity
  8
化粧台
  6
CONTINUOUS
 62
     6
100
AcDbEllipse
 10
1116.023920923211
 20
3674.016099797695
 30
0.0
 11
-5.130302149885037
 21
14.09538931178862
 31
0.0
210
0.0
220
0.0
230
1.0
 40
0.2032242918773345
 41
0.0
 42
6.283185307179586
  0
ARC
  5
232
330
1F
100
AcDbEntity
  8
化粧台
  6
CONTINUOUS
 62
     6
100
AcDbCircle
 10
730.0000000001385
 20
3782.433478461557
 30
0.0
 40
5.0
100
AcDbArc
 50
180.0
 51
264.2241517557764
  0
LINE
  5
233
330
1F
100
AcDbEntity
  8
化粧台
  6
CONTINUOUS
 62
     6
100
AcDbLine
 10
740.0000000001794
 20
3776.396460656209
 30
0.0
 11
729.4968154077299
 21
3777.458862369237
 31
0.0
  0
LINE
  5
234
330
1F
100
AcDbEntity
  8
化粧台
  6
CONTINUOUS
 62
     6
100
AcDbLine
 10
943.8467290692176
 20
3774.879204098909
 30
0.0
 11
740.0000000001794
 21
3776.396460656209
 31
0.0
  0
LINE
  5
235
330
1F
100
AcDbEntity
  8
化粧台
  6
CONTINUOUS
 62
     6
100
AcDbLine
 10
740.0000000001376
 20
3776.396460656213
 30
0.0
 11
740.0000000001376
 21
3515.500000000037
 31
0.0
  0
LINE
  5
236
330
1F
100
AcDbEntity
  8
化粧台
  6
CONTINUOUS
 62
     6
100
AcDbLine
 10
1106.153270931057
 20
3774.879204098909
 30
0.0
 11
1310.000000000097
 21
3776.396460656209
 31
0.0
  0
LINE
  5
237
330
1F
100
AcDbEntity
  8
化粧台
  6
CONTINUOUS
 62
     6
100
AcDbLine
 10
1310.000000000097
 20
3776.396460656209
 30
0.0
 11
1320.503184592545
 21
3777.458862369237
 31
0.0
  0
ARC
  5
238
330
1F
100
AcDbEntity
  8
化粧台
  6
CONTINUOUS
 62
     6
100
AcDbCircle
 10
1320.000000000137
 20
3782.433478461557
 30
0.0
 40
5.0
100
AcDbArc
 50
275.7758482442237
 51
0.0
  0
LINE
  5
239
330
1F
100
AcDbEntity
  8
化粧台
  6
CONTINUOUS
 62
     6
100
AcDbLine
 10
1310.000000000137
 20
3776.396460656213
 30
0.0
 11
1310.000000000137
 21
3515.500000000037
 31
0.0
  0
LINE
  5
23A
330
1F
100
AcDbEntity
  8
化粧台
  6
CONTINUOUS
 62
     6
100
AcDbLine
 10
1235.000000000138
 20
3752.55
 30
0.0
 11
1235.000000000138
 21
3897.3
 31
0.0
  0
LINE
  5
23B
330
1F
100
AcDbEntity
  8
化粧台
  6
CONTINUOUS
 62
     6
100
AcDbLine
 10
1145.000000000136
 20
3793.8
 30
0.0
 11
1145.000000000136
 21
3855.9
 31
0.0
  0
LINE
  5
23C
330
1F
100
AcDbEntity
  8
化粧台
  6
CONTINUOUS
 62
     6
100
AcDbLine
 10
1224.500000000139
 20
3823.5
 30
0.0
 11
1245.500000000136
 21
3823.5
 31
0.0
  0
LINE
  5
23D
330
1F
100
AcDbEntity
  8
化粧台
  6
CONTINUOUS
 62
     6
100
AcDbLine
 10
1245.500000000136
 20
3815.5
 30
0.0
 11
1245.500000000136
 21
3823.5
 31
0.0
  0
LINE
  5
23E
330
1F
100
AcDbEntity
  8
化粧台
  6
CONTINUOUS
 62
     6
100
AcDbLine
 10
1224.500000000139
 20
3815.5
 30
0.0
 11
1224.500000000139
 21
3823.5
 31
0.0
  0
LINE
  5
23F
330
1F
100
AcDbEntity
  8
化粧台
  6
CONTINUOUS
 62
     6
100
AcDbLine
 10
1235.000000000137
 20
3800.5
 30
0.0
 11
1235.000000000137
 21
3838.5
 31
0.0
  0
LINE
  5
240
330
1F
100
AcDbEntity
  8
化粧台
  6
CONTINUOUS
 62
     6
100
AcDbLine
 10
1134.50000000014
 20
3823.5
 30
0.0
 11
1155.50000000014
 21
3823.5
 31
0.0
  0
LINE
  5
241
330
1F
100
AcDbEntity
  8
化粧台
  6
CONTINUOUS
 62
     6
100
AcDbLine
 10
1155.50000000014
 20
3815.5
 30
0.0
 11
1155.50000000014
 21
3823.5
 31
0.0
  0
LINE
  5
242
330
1F
100
AcDbEntity
  8
化粧台
  6
CONTINUOUS
 62
     6
100
AcDbLine
 10
1134.50000000014
 20
3815.5
 30
0.0
 11
1134.50000000014
 21
3823.5
 31
0.0
  0
LINE
  5
243
330
1F
100
AcDbEntity
  8
化粧台
  6
CONTINUOUS
 62
     6
100
AcDbLine
 10
1145.000000000138
 20
3800.5
 30
0.0
 11
1145.000000000138
 21
3838.5
 31
0.0
  0
LINE
  5
244
330
1F
100
AcDbEntity
  8
化粧台
  6
EXLTYPE3
 62
     6
100
AcDbLine
 10
1025.000000000138
 20
3826.5
 30
0.0
 11
1025.000000000138
 21
3430.5
 31
0.0
  0
LINE
  5
245
330
1F
100
AcDbEntity
  8
化粧台
  6
CONTINUOUS
 62
     6
100
AcDbLine
 10
1048.700000000176
 20
3835.5
 30
0.0
 11
1080.700000000175
 21
3835.5
 31
0.0
  0
LINE
  5
246
330
1F
100
AcDbEntity
  8
化粧台
  6
CONTINUOUS
 62
     6
100
AcDbLine
 10
1048.700000000176
 20
3835.5
 30
0.0
 11
1048.700000000176
 21
3815.5
 31
0.0
  0
LINE
  5
247
330
1F
100
AcDbEntity
  8
化粧台
  6
CONTINUOUS
 62
     6
100
AcDbLine
 10
1080.700000000175
 20
3835.5
 30
0.0
 11
1080.700000000175
 21
3815.5
 31
0.0
  0
CIRCLE
  5
248
330
1F
100
AcDbEntity
  8
化粧台
  6
CONTINUOUS
 62
     6
100
AcDbCircle
 10
1025.000131458339
 20
3690.589548496029
 30
0.0
 40
20.5
  0
CIRCLE
  5
249
330
1F
100
AcDbEntity
  8
化粧台
  6
CONTINUOUS
 62
     6
100
AcDbCircle
 10
1047.544545878804
 20
3727.744531279959
 30
0.0
 40
2.1000366
  0
CIRCLE
  5
24A
330
1F
100
AcDbEntity
  8
化粧台
  6
CONTINUOUS
 62
     6
100
AcDbCircle
 10
1044.716664998805
 20
3731.354843719959
 30
0.0
 40
2.1000366
  0
CIRCLE
  5
24B
330
1F
100
AcDbEntity
  8
化粧台
  6
CONTINUOUS
 62
     6
100
AcDbCircle
 10
1068.413823158805
 20
3698.076171919959
 30
0.0
 40
2.1000366
  0
CIRCLE
  5
24C
330
1F
100
AcDbEntity
  8
化粧台
  6
CONTINUOUS
 62
     6
100
AcDbCircle
 10
1063.845707918805
 20
3696.989257759959
 30
0.0
 40
2.1000366
  0
CIRCLE
  5
24D
330
1F
100
AcDbEntity
  8
化粧台
  6
CONTINUOUS
 62
     6
100
AcDbCircle
 10
1059.929997518805
 20
3700.90624999996
 30
0.0
 40
2.1000366
  0
CIRCLE
  5
24E
330
1F
100
AcDbEntity
  8
化粧台
  6
CONTINUOUS
 62
     6
100
AcDbCircle
 10
1057.754704478805
 20
3705.037109359959
 30
0.0
 40
2.1000366
  0
CIRCLE
  5
24F
330
1F
100
AcDbEntity
  8
化粧台
  6
CONTINUOUS
 62
     6
100
AcDbCircle
 10
1055.579228438805
 20
3709.387695319959
 30
0.0
 40
2.1000366
  0
CIRCLE
  5
250
330
1F
100
AcDbEntity
  8
化粧台
  6
CONTINUOUS
 62
     6
100
AcDbCircle
 10
1053.621464798804
 20
3714.391601599959
 30
0.0
 40
2.1000366
  0
CIRCLE
  5
251
330
1F
100
AcDbEntity
  8
化粧台
  6
CONTINUOUS
 62
     6
100
AcDbCircle
 10
1051.663701158805
 20
3719.17871095996
 30
0.0
 40
2.1000366
  0
CIRCLE
  5
252
330
1F
100
AcDbEntity
  8
化粧台
  6
CONTINUOUS
 62
     6
100
AcDbCircle
 10
1050.140812958804
 20
3723.962890639959
 30
0.0
 40
2.1000366
  0
CIRCLE
  5
253
330
1F
100
AcDbEntity
  8
化粧台
  6
CONTINUOUS
 62
     6
100
AcDbCircle
 10
1040.553776798805
 20
3732.883789039959
 30
0.0
 40
2.1000366
  0
CIRCLE
  5
254
330
1F
100
AcDbEntity
  8
化粧台
  6
CONTINUOUS
 62
     6
100
AcDbCircle
 10
1035.333073598805
 20
3732.013671919959
 30
0.0
 40
2.1000366
  0
CIRCLE
  5
255
330
1F
100
AcDbEntity
  8
化粧台
  6
CONTINUOUS
 62
     6
100
AcDbCircle
 10
1031.417363198804
 20
3728.313476599959
 30
0.0
 40
2.1000366
  0
CIRCLE
  5
256
330
1F
100
AcDbEntity
  8
化粧台
  6
CONTINUOUS
 62
     6
100
AcDbCircle
 10
1026.414006278804
 20
3725.922851599959
 30
0.0
 40
2.1000366
  0
CIRCLE
  5
257
330
1F
100
AcDbEntity
  8
化粧台
  6
CONTINUOUS
 62
     6
100
AcDbCircle
 10
1023.368596118805
 20
3721.352539039959
 30
0.0
 40
2.1000366
  0
CIRCLE
  5
258
330
1F
100
AcDbEntity
  8
化粧台
  6
CONTINUOUS
 62
     6
100
AcDbCircle
 10
1022.280766478805
 20
3715.69824211996
 30
0.0
 40
2.1000366
  0
CIRCLE
  5
259
330
1F
100
AcDbEntity
  8
化粧台
  6
CONTINUOUS
 62
     6
100
AcDbCircle
 10
1022.716008278804
 20
3710.69433595996
 30
0.0
 40
2.1000366
  0
ARC
  5
25A
330
1F
100
AcDbEntity
  8
化粧台
  6
CONTINUOUS
 62
     6
100
AcDbCircle
 10
1025.007756278804
 20
3699.139648399959
 30
0.0
 40
10.08007044000001
100
AcDbArc
 50
290.361129760002
 51
249.6389617899985
  0
ARC
  5
25B
330
1F
100
AcDbEntity
  8
化粧台
  6
CONTINUOUS
 62
     6
100
AcDbCircle
 10
1025.007756278804
 20
3699.139648399959
 30
0.0
 40
8.639966040000004
100
AcDbArc
 50
294.0516357400017
 51
245.9483642599983
  0
CIRCLE
  5
25C
330
1F
100
AcDbEntity
  8
化粧台
  6
CONTINUOUS
 62
     6
100
AcDbCircle
 10
1025.007756278804
 20
3690.49999999996
 30
0.0
 40
3.600036600000004
  0
LINE
  5
25D
330
1F
100
AcDbEntity
  8
化粧台
  6
CONTINUOUS
 62
     6
100
AcDbLine
 10
1073.007756278804
 20
3690.49999999996
 30
0.0
 11
1029.677128838805
 21
3690.49999999996
 31
0.0
  0
CIRCLE
  5
25E
330
1F
100
AcDbEntity
  8
化粧台
  6
CONTINUOUS
 62
     6
100
AcDbCircle
 10
1085.228694773895
 20
3702.972312923242
 30
0.0
 40
2.1000366
  0
CIRCLE
  5
25F
330
1F
100
AcDbEntity
  8
化粧台
  6
CONTINUOUS
 62
     6
100
AcDbCircle
 10
1090.016137138875
 20
3704.965444231342
 30
0.0
 40
2.1000366
  0
CIRCLE
  5
260
330
1F
100
AcDbEntity
  8
化粧台
  6
CONTINUOUS
 62
     6
100
AcDbCircle
 10
1081.543192499885
 20
3700.145348131542
 30
0.0
 40
2.1000366
  0
CIRCLE
  5
261
330
1F
100
AcDbEntity
  8
化粧台
  6
CONTINUOUS
 62
     6
100
AcDbCircle
 10
1077.975545753755
 20
3697.106918508243
 30
0.0
 40
2.1000366
  0
CIRCLE
  5
262
330
1F
100
AcDbEntity
  8
化粧台
  6
CONTINUOUS
 62
     6
100
AcDbCircle
 10
1073.214177892695
 20
3697.27743218986
 30
0.0
 40
2.1000366
  0
CIRCLE
  5
263
330
1F
100
AcDbEntity
  8
化粧台
  6
CONTINUOUS
 62
     6
100
AcDbCircle
 10
1093.512612311474
 20
3709.045943833059
 30
0.0
 40
2.1000366
  0
CIRCLE
  5
264
330
1F
100
AcDbEntity
  8
化粧台
  6
CONTINUOUS
 62
     6
100
AcDbCircle
 10
1095.637268790495
 20
3714.169194196759
 30
0.0
 40
2.1000366
  0
CIRCLE
  5
265
330
1F
100
AcDbEntity
  8
化粧台
  6
CONTINUOUS
 62
     6
100
AcDbCircle
 10
1097.116331492525
 20
3718.862803055159
 30
0.0
 40
2.1000366
  0
CIRCLE
  5
266
330
1F
100
AcDbEntity
  8
化粧台
  6
CONTINUOUS
 62
     6
100
AcDbCircle
 10
1099.795971793335
 20
3729.30030314346
 30
0.0
 40
2.1000366
  0
CIRCLE
  5
267
330
1F
100
AcDbEntity
  8
化粧台
  6
CONTINUOUS
 62
     6
100
AcDbCircle
 10
1099.143383953335
 20
3723.643076543459
 30
0.0
 40
2.1000366
  0
CIRCLE
  5
268
330
1F
100
AcDbEntity
  8
化粧台
  6
CONTINUOUS
 62
     6
100
AcDbCircle
 10
1119.519945599605
 20
3732.861662269859
 30
0.0
 40
2.1000366
  0
CIRCLE
  5
269
330
1F
100
AcDbEntity
  8
化粧台
  6
CONTINUOUS
 62
     6
100
AcDbCircle
 10
1123.541895106975
 20
3730.232077929642
 30
0.0
 40
2.1000366
  0
CIRCLE
  5
26A
330
1F
100
AcDbEntity
  8
化粧台
  6
CONTINUOUS
 62
     6
100
AcDbCircle
 10
1114.558829130365
 20
3734.380671553759
 30
0.0
 40
2.1000366
  0
CIRCLE
  5
26B
330
1F
100
AcDbEntity
  8
化粧台
  6
CONTINUOUS
 62
     6
100
AcDbCircle
 10
1109.730032420697
 20
3734.406264448558
 30
0.0
 40
2.1000366
  0
CIRCLE
  5
26C
330
1F
100
AcDbEntity
  8
化粧台
  6
CONTINUOUS
 62
     6
100
AcDbCircle
 10
1104.952044777471
 20
3733.001566480499
 30
0.0
 40
2.1000366
  0
CIRCLE
  5
26D
330
1F
100
AcDbEntity
  8
化粧台
  6
CONTINUOUS
 62
     6
100
AcDbCircle
 10
1127.700297455815
 20
3727.359005850342
 30
0.0
 40
2.1000366
  0
CIRCLE
  5
26E
330
1F
100
AcDbEntity
  8
化粧台
  6
CONTINUOUS
 62
     6
100
AcDbCircle
 10
1132.174934138585
 20
3725.528574754842
 30
0.0
 40
2.1000366
  0
CIRCLE
  5
26F
330
1F
100
AcDbEntity
  8
化粧台
  6
CONTINUOUS
 62
     6
100
AcDbCircle
 10
1137.153935234545
 20
3724.062090571642
 30
0.0
 40
2.1000366
  0
CIRCLE
  5
270
330
1F
100
AcDbEntity
  8
化粧台
  6
CONTINUOUS
 62
     6
100
AcDbCircle
 10
1142.036194175784
 20
3722.765766548642
 30
0.0
 40
2.1000366
  0
CIRCLE
  5
271
330
1F
100
AcDbEntity
  8
化粧台
  6
CONTINUOUS
 62
     6
100
AcDbCircle
 10
1152.193934865485
 20
3719.450337890858
 30
0.0
 40
2.1000366
  0
CIRCLE
  5
272
330
1F
100
AcDbEntity
  8
化粧台
  6
CONTINUOUS
 62
     6
100
AcDbCircle
 10
1156.215884372855
 20
3716.820753550642
 30
0.0
 40
2.1000366
  0
CIRCLE
  5
273
330
1F
100
AcDbEntity
  8
化粧台
  6
CONTINUOUS
 62
     6
100
AcDbCircle
 10
1147.232818396244
 20
3720.969347174759
 30
0.0
 40
2.1000366
  0
CIRCLE
  5
274
330
1F
100
AcDbEntity
  8
化粧台
  6
CONTINUOUS
 62
     6
100
AcDbCircle
 10
1160.374286721694
 20
3713.947681471342
 30
0.0
 40
2.1000366
  0
CIRCLE
  5
275
330
1F
100
AcDbEntity
  8
化粧台
  6
CONTINUOUS
 62
     6
100
AcDbCircle
 10
1164.848923404465
 20
3712.117250375842
 30
0.0
 40
2.1000366
  0
ARC
  5
276
330
1F
100
AcDbEntity
  8
化粧台
  6
CONTINUOUS
 62
     6
100
AcDbCircle
 10
1169.827924500425
 20
3710.650766192642
 30
0.0
 40
2.1000366
100
AcDbArc
 50
353.434807188079
 51
226.5651928119227
  0
CIRCLE
  5
277
330
1F
100
AcDbEntity
  8
化粧台
  6
CONTINUOUS
 62
     6
100
AcDbCircle
 10
1025.000000000138
 20
3690.500000000037
 30
0.0
 40
30.50000000000002
  0
LINE
  5
278
330
1F
100
AcDbEntity
  8
化粧台
  6
EXLTYPE2
 62
     6
100
AcDbLine
 10
1227.033461596417
 20
3685.420969720809
 30
0.0
 11
1204.436726798661
 21
3623.336951110568
 31
0.0
  0
LINE
  5
279
330
1F
100
AcDbEntity
  8
化粧台
  6
EXLTYPE2
 62
     6
100
AcDbLine
 10
1212.938072284626
 20
3690.551271870694
 30
0.0
 11
1190.341337486869
 21
3628.467253260455
 31
0.0
  0
LINE
  5
27A
330
1F
100
AcDbEntity
  8
化粧台
  6
EXLTYPE2
 62
     6
100
AcDbLine
 10
1200.893071765705
 20
3723.644638813534
 30
0.0
 11
1143.67613071904
 21
3756.678855129033
 31
0.0
  0
LINE
  5
27B
330
1F
100
AcDbEntity
  8
化粧台
  6
EXLTYPE2
 62
     6
100
AcDbLine
 10
1208.393071765707
 20
3736.635019870302
 30
0.0
 11
1151.176130719042
 21
3769.669236185801
 31
0.0
  0
LINE
  5
27C
330
1F
100
AcDbEntity
  8
化粧台
  6
CONTINUOUS
 62
     2
100
AcDbLine
 10
800.0000000001004
 20
2728.30000000004
 30
0.0
 11
800.0000000001004
 21
2228.30000000004
 31
0.0
  0
LINE
  5
27D
330
1F
100
AcDbEntity
  8
化粧台
  6
CONTINUOUS
 62
     2
100
AcDbLine
 10
800.0000000001004
 20
2728.30000000004
 30
0.0
 11
801.5000000001004
 21
2728.30000000004
 31
0.0
  0
LINE
  5
27E
330
1F
100
AcDbEntity
  8
化粧台
  6
CONTINUOUS
 62
     2
100
AcDbLine
 10
800.0000000001004
 20
2228.30000000004
 30
0.0
 11
801.5000000001004
 21
2228.30000000004
 31
0.0
  0
LINE
  5
27F
330
1F
100
AcDbEntity
  8
化粧台
  6
CONTINUOUS
 62
     4
100
AcDbLine
 10
801.5000000001004
 20
2237.10000000004
 30
0.0
 11
801.5000000001004
 21
2227.10000000004
 31
0.0
  0
LINE
  5
280
330
1F
100
AcDbEntity
  8
化粧台
  6
CONTINUOUS
 62
     4
100
AcDbLine
 10
801.5000000001004
 20
2719.50000000004
 30
0.0
 11
801.5000000001004
 21
2729.50000000004
 31
0.0
  0
LINE
  5
281
330
1F
100
AcDbEntity
  8
化粧台
  6
CONTINUOUS
 62
     2
100
AcDbLine
 10
1248.5000000001
 20
2728.30000000004
 30
0.0
 11
1250.0000000001
 21
2728.30000000004
 31
0.0
  0
LINE
  5
282
330
1F
100
AcDbEntity
  8
化粧台
  6
CONTINUOUS
 62
     4
100
AcDbLine
 10
1248.5000000001
 20
2719.50000000004
 30
0.0
 11
1248.5000000001
 21
2729.50000000004
 31
0.0
  0
LINE
  5
283
330
1F
100
AcDbEntity
  8
化粧台
  6
CONTINUOUS
 62
     4
100
AcDbLine
 10
1248.5000000001
 20
2729.50000000004
 30
0.0
 11
801.5000000001004
 21
2729.50000000004
 31
0.0
  0
LINE
  5
284
330
1F
100
AcDbEntity
  8
化粧台
  6
CONTINUOUS
 62
     4
100
AcDbLine
 10
1248.5000000001
 20
2719.50000000004
 30
0.0
 11
801.5000000001004
 21
2719.50000000004
 31
0.0
  0
LINE
  5
285
330
1F
100
AcDbEntity
  8
化粧台
  6
EXLTYPE3
 62
     6
100
AcDbLine
 10
1250.0000000001
 20
2728.30000000004
 30
0.0
 11
800.0000000001004
 21
2478.30000000004
 31
0.0
  0
LINE
  5
286
330
1F
100
AcDbEntity
  8
化粧台
  6
CONTINUOUS
 62
     6
100
AcDbLine
 10
857.0000000001005
 20
2293.300000000039
 30
0.0
 11
893.0000000001005
 21
2293.300000000039
 31
0.0
  0
LINE
  5
287
330
1F
100
AcDbEntity
  8
化粧台
  6
CONTINUOUS
 62
     6
100
AcDbLine
 10
875.0000000001005
 20
2275.30000000004
 30
0.0
 11
875.0000000001005
 21
2311.30000000004
 31
0.0
  0
CIRCLE
  5
288
330
1F
100
AcDbEntity
  8
化粧台
  6
EXLTYPE2
 62
     6
100
AcDbCircle
 10
875.0000000001005
 20
2293.30000000004
 30
0.0
 40
2.5
  0
CIRCLE
  5
289
330
1F
100
AcDbEntity
  8
化粧台
  6
EXLTYPE2
 62
     6
100
AcDbCircle
 10
875.0000000001005
 20
2293.30000000004
 30
0.0
 40
8.0
  0
LINE
  5
28A
330
1F
100
AcDbEntity
  8
化粧台
  6
CONTINUOUS
 62
     6
100
AcDbLine
 10
1157.0000000001
 20
2293.300000000039
 30
0.0
 11
1193.0000000001
 21
2293.300000000039
 31
0.0
  0
LINE
  5
28B
330
1F
100
AcDbEntity
  8
化粧台
  6
CONTINUOUS
 62
     6
100
AcDbLine
 10
1175.0000000001
 20
2275.30000000004
 30
0.0
 11
1175.0000000001
 21
2311.30000000004
 31
0.0
  0
CIRCLE
  5
28C
330
1F
100
AcDbEntity
  8
化粧台
  6
EXLTYPE2
 62
     6
100
AcDbCircle
 10
1175.0000000001
 20
2293.30000000004
 30
0.0
 40
2.5
  0
CIRCLE
  5
28D
330
1F
100
AcDbEntity
  8
化粧台
  6
EXLTYPE2
 62
     6
100
AcDbCircle
 10
1175.0000000001
 20
2293.30000000004
 30
0.0
 40
8.0
  0
LINE
  5
28E
330
1F
100
AcDbEntity
  8
化粧台
  6
CONTINUOUS
 62
     6
100
AcDbLine
 10
1157.0000000001
 20
2673.300000000039
 30
0.0
 11
1193.0000000001
 21
2673.300000000039
 31
0.0
  0
LINE
  5
28F
330
1F
100
AcDbEntity
  8
化粧台
  6
CONTINUOUS
 62
     6
100
AcDbLine
 10
1175.0000000001
 20
2655.30000000004
 30
0.0
 11
1175.0000000001
 21
2691.30000000004
 31
0.0
  0
CIRCLE
  5
290
330
1F
100
AcDbEntity
  8
化粧台
  6
EXLTYPE2
 62
     6
100
AcDbCircle
 10
1175.0000000001
 20
2673.30000000004
 30
0.0
 40
2.5
  0
CIRCLE
  5
291
330
1F
100
AcDbEntity
  8
化粧台
  6
EXLTYPE2
 62
     6
100
AcDbCircle
 10
1175.0000000001
 20
2673.30000000004
 30
0.0
 40
8.0
  0
LINE
  5
292
330
1F
100
AcDbEntity
  8
化粧台
  6
CONTINUOUS
 62
     6
100
AcDbLine
 10
857.0000000001005
 20
2673.300000000039
 30
0.0
 11
893.0000000001005
 21
2673.300000000039
 31
0.0
  0
LINE
  5
293
330
1F
100
AcDbEntity
  8
化粧台
  6
CONTINUOUS
 62
     6
100
AcDbLine
 10
875.0000000001005
 20
2655.30000000004
 30
0.0
 11
875.0000000001005
 21
2691.30000000004
 31
0.0
  0
CIRCLE
  5
294
330
1F
100
AcDbEntity
  8
化粧台
  6
EXLTYPE2
 62
     6
100
AcDbCircle
 10
875.0000000001005
 20
2673.30000000004
 30
0.0
 40
2.5
  0
CIRCLE
  5
295
330
1F
100
AcDbEntity
  8
化粧台
  6
EXLTYPE2
 62
     6
100
AcDbCircle
 10
875.0000000001005
 20
2673.30000000004
 30
0.0
 40
8.0
  0
LINE
  5
296
330
1F
100
AcDbEntity
  8
化粧台
  6
CONTINUOUS
 62
     2
100
AcDbLine
 10
1250.0000000001
 20
2228.30000000004
 30
0.0
 11
1248.5000000001
 21
2228.30000000004
 31
0.0
  0
LINE
  5
297
330
1F
100
AcDbEntity
  8
化粧台
  6
CONTINUOUS
 62
     4
100
AcDbLine
 10
1248.5000000001
 20
2237.10000000004
 30
0.0
 11
1248.5000000001
 21
2227.10000000004
 31
0.0
  0
LINE
  5
298
330
1F
100
AcDbEntity
  8
化粧台
  6
CONTINUOUS
 62
     2
100
AcDbLine
 10
1250.0000000001
 20
2728.30000000004
 30
0.0
 11
1250.0000000001
 21
2228.300000000039
 31
0.0
  0
LINE
  5
299
330
1F
100
AcDbEntity
  8
化粧台
  6
CONTINUOUS
 62
     4
100
AcDbLine
 10
1248.5000000001
 20
2237.10000000004
 30
0.0
 11
801.5000000001004
 21
2237.10000000004
 31
0.0
  0
LINE
  5
29A
330
1F
100
AcDbEntity
  8
化粧台
  6
CONTINUOUS
 62
     4
100
AcDbLine
 10
1248.5000000001
 20
2227.10000000004
 30
0.0
 11
801.5000000001004
 21
2227.10000000004
 31
0.0
  0
LINE
  5
29B
330
1F
100
AcDbEntity
  8
化粧台
  6
EXLTYPE3
 62
     6
100
AcDbLine
 10
1250.0000000001
 20
2228.30000000004
 30
0.0
 11
800.0000000001004
 21
2478.30000000004
 31
0.0
  0
LINE
  5
29C
330
1F
100
AcDbEntity
  8
化粧台
  6
EXLTYPE2
 62
     6
100
AcDbLine
 10
1250.0000000001
 20
2722.30000000004
 30
0.0
 11
800.0000000001004
 21
2722.30000000004
 31
0.0
  0
LINE
  5
29D
330
1F
100
AcDbEntity
  8
化粧台
  6
EXLTYPE2
 62
     6
100
AcDbLine
 10
1250.0000000001
 20
2243.300000000039
 30
0.0
 11
800.0000000001003
 21
2243.300000000039
 31
0.0
  0
LINE
  5
29E
330
1F
100
AcDbEntity
  8
化粧台
  6
CONTINUOUS
 62
     6
100
AcDbLine
 10
942.2144660941688
 20
2354.585533905942
 30
0.0
 11
929.4644660941688
 21
2341.835533905945
 31
0.0
  0
LINE
  5
29F
330
1F
100
AcDbEntity
  8
化粧台
  6
CONTINUOUS
 62
     6
100
AcDbLine
 10
921.5000000001003
 20
2326.800000000014
 30
0.0
 11
954.0000000001039
 21
2359.300000000011
 31
0.0
  0
LINE
  5
2A0
330
1F
100
AcDbEntity
  8
化粧台
  6
CONTINUOUS
 62
     6
100
AcDbLine
 10
932.0355339060336
 20
2330.264466094077
 30
0.0
 11
947.0355339060354
 21
2345.264466094075
 31
0.0
  0
LINE
  5
2A1
330
1F
100
AcDbEntity
  8
化粧台
  6
CONTINUOUS
 62
     6
100
AcDbLine
 10
1116.214466094169
 20
2457.585533905942
 30
0.0
 11
1103.464466094169
 21
2444.835533905945
 31
0.0
  0
LINE
  5
2A2
330
1F
100
AcDbEntity
  8
化粧台
  6
CONTINUOUS
 62
     6
100
AcDbLine
 10
1095.500000000099
 20
2429.800000000014
 30
0.0
 11
1128.000000000102
 21
2462.300000000011
 31
0.0
  0
LINE
  5
2A3
330
1F
100
AcDbEntity
  8
化粧台
  6
CONTINUOUS
 62
     6
100
AcDbLine
 10
1106.035533906034
 20
2433.264466094077
 30
0.0
 11
1121.035533906036
 21
2448.264466094075
 31
0.0
  0
LINE
  5
2A4
330
1F
100
AcDbEntity
  8
化粧台
  6
CONTINUOUS
 62
     6
100
AcDbLine
 10
960.1106925092589
 20
2622.972326358742
 30
0.0
 11
947.3606925092589
 21
2610.222326358746
 31
0.0
  0
LINE
  5
2A5
330
1F
100
AcDbEntity
  8
化粧台
  6
CONTINUOUS
 62
     6
100
AcDbLine
 10
939.3962264151886
 20
2595.186792452814
 30
0.0
 11
971.8962264151922
 21
2627.686792452811
 31
0.0
  0
LINE
  5
2A6
330
1F
100
AcDbEntity
  8
化粧台
  6
CONTINUOUS
 62
     6
100
AcDbLine
 10
949.9317603211238
 20
2598.651258546877
 30
0.0
 11
964.9317603211256
 21
2613.651258546875
 31
0.0
  0
LINE
  5
2A7
330
1F
100
AcDbEntity
  8
化粧台
  6
EXLTYPE2
 62
     6
100
AcDbLine
 10
816.0000000001002
 20
2540.30000000004
 30
0.0
 11
816.0000000001002
 21
2500.30000000004
 31
0.0
  0
LINE
  5
2A8
330
1F
100
AcDbEntity
  8
化粧台
  6
EXLTYPE2
 62
     6
100
AcDbLine
 10
1234.0000000001
 20
2540.30000000004
 30
0.0
 11
1234.0000000001
 21
2500.30000000004
 31
0.0
  0
LINE
  5
2A9
330
1F
100
AcDbEntity
  8
化粧台
  6
EXLTYPE2
 62
     6
100
AcDbLine
 10
1234.0000000001
 20
2540.30000000004
 30
0.0
 11
816.0000000001002
 21
2540.30000000004
 31
0.0
  0
LINE
  5
2AA
330
1F
100
AcDbEntity
  8
化粧台
  6
EXLTYPE2
 62
     6
100
AcDbLine
 10
1234.0000000001
 20
2500.30000000004
 30
0.0
 11
816.0000000001002
 21
2500.30000000004
 31
0.0
  0
LINE
  5
2AB
330
1F
100
AcDbEntity
  8
化粧台
  6
EXLTYPE2
 62
     6
100
AcDbLine
 10
816.0000000001002
 20
2300.30000000004
 30
0.0
 11
816.0000000001002
 21
2260.30000000004
 31
0.0
  0
LINE
  5
2AC
330
1F
100
AcDbEntity
  8
化粧台
  6
EXLTYPE2
 62
     6
100
AcDbLine
 10
1234.0000000001
 20
2300.30000000004
 30
0.0
 11
1234.0000000001
 21
2260.30000000004
 31
0.0
  0
LINE
  5
2AD
330
1F
100
AcDbEntity
  8
化粧台
  6
EXLTYPE2
 62
     6
100
AcDbLine
 10
1234.0000000001
 20
2300.30000000004
 30
0.0
 11
816.0000000001002
 21
2300.30000000004
 31
0.0
  0
LINE
  5
2AE
330
1F
100
AcDbEntity
  8
化粧台
  6
EXLTYPE2
 62
     6
100
AcDbLine
 10
1234.0000000001
 20
2260.30000000004
 30
0.0
 11
816.0000000001002
 21
2260.30000000004
 31
0.0
  0
DIMENSION
  5
2AF
330
1F
100
AcDbEntity
  8
化粧台
  6
CONTINUOUS
 62
     3
100
AcDbDimension
  2
*D32
 10
1639.5
 20
979.5
 30
0.0
 11
1602.0
 21
1854.5
 31
0.0
 70
   160
  1
（1750）
  3
ISO-25
100
AcDbAlignedDimension
 13
1258.9999998213
 23
2729.5
 33
0.0
 14
1615.9749952038
 24
979.5
 34
0.0
 50
90.0
100
AcDbRotatedDimension
1001
ACAD
1000
DSTYLE
1002
{
1070
   270
1070
     2
1070
     6
1000
EX_NORM
1070
     7
1000
EX_NORM
1070
    41
1040
44.99999618530273
1070
    42
1040
10.49999982118607
1070
    44
1040
15.0
1070
    73
1070
     0
1070
    74
1070
     0
1070
    75
1070
     0
1070
    76
1070
     0
1070
    77
1070
     1
1070
    78
1070
     8
1070
   140
1040
59.99999618530273
1070
   147
1040
0.0
1070
   173
1070
     1
1070
   176
1070
     3
1070
   177
1070
     3
1070
   178
1070
     2
1070
   271
1070
     1
1070
   277
1070
     2
1070
   279
1070
     2
1070
   280
1070
     0
1070
   287
1070
     5
1070
   340
1005
118
1002
}
  0
LINE
  5
2BC
330
1F
100
AcDbEntity
  8
化粧台
  6
EXLTYPE4
 62
     6
100
AcDbLine
 10
2528.000000000097
 20
979.5
 30
0.0
 11
2528.000000000094
 21
3112.5
 31
0.0
  0
TEXT
  5
2BD
330
1F
100
AcDbEntity
  8
化粧台
  6
CONTINUOUS
 62
     2
100
AcDbText
 10
2528.000000000097
 20
3009.000000536442
 30
0.0
 40
59.99999618530273
  1
W.L.
 50
90.0
 41
0.5571963512150626
  7
EXCADSTD
 72
     5
 11
2528.000000000097
 21
3099.743400536442
 31
0.0
100
AcDbText
  0
LINE
  5
2BE
330
1F
100
AcDbEntity
  8
化粧台
  6
CONTINUOUS
 62
     2
100
AcDbLine
 10
2411.0000000001
 20
2728.3
 30
0.0
 11
2426.0000000001
 21
2728.3
 31
0.0
  0
LINE
  5
2BF
330
1F
100
AcDbEntity
  8
化粧台
  6
CONTINUOUS
 62
     2
100
AcDbLine
 10
2411.0000000001
 20
2228.3
 30
0.0
 11
2426.0000000001
 21
2228.3
 31
0.0
  0
LINE
  5
2C0
330
1F
100
AcDbEntity
  8
化粧台
  6
CONTINUOUS
 62
     2
100
AcDbLine
 10
2408.0000000001
 20
2727.8
 30
0.0
 11
2408.0000000001
 21
2228.8
 31
0.0
  0
LINE
  5
2C1
330
1F
100
AcDbEntity
  8
化粧台
  6
CONTINUOUS
 62
     2
100
AcDbLine
 10
2408.0000000001
 20
2727.8
 30
0.0
 11
2411.0000000001
 21
2727.8
 31
0.0
  0
LINE
  5
2C2
330
1F
100
AcDbEntity
  8
化粧台
  6
CONTINUOUS
 62
     2
100
AcDbLine
 10
2408.0000000001
 20
2228.8
 30
0.0
 11
2411.0000000001
 21
2228.8
 31
0.0
  0
LINE
  5
2C3
330
1F
100
AcDbEntity
  8
化粧台
  6
CONTINUOUS
 62
     2
100
AcDbLine
 10
2411.0000000001
 20
2728.3
 30
0.0
 11
2411.0000000001
 21
2228.3
 31
0.0
  0
LINE
  5
2C4
330
1F
100
AcDbEntity
  8
化粧台
  6
CONTINUOUS
 62
     4
100
AcDbLine
 10
2406.800000000103
 20
2729.5
 30
0.0
 11
2406.800000000103
 21
2719.5
 31
0.0
  0
LINE
  5
2C5
330
1F
100
AcDbEntity
  8
化粧台
  6
CONTINUOUS
 62
     4
100
AcDbLine
 10
2406.8000000001
 20
2719.5
 30
0.0
 11
2408.0000000001
 21
2719.5
 31
0.0
  0
LINE
  5
2C6
330
1F
100
AcDbEntity
  8
化粧台
  6
CONTINUOUS
 62
     4
100
AcDbLine
 10
2408.0000000001
 20
2719.5
 30
0.0
 11
2408.0000000001
 21
2728.3
 31
0.0
  0
LINE
  5
2C7
330
1F
100
AcDbEntity
  8
化粧台
  6
CONTINUOUS
 62
     4
100
AcDbLine
 10
2406.8000000001
 20
2237.1
 30
0.0
 11
2408.0000000001
 21
2237.1
 31
0.0
  0
LINE
  5
2C8
330
1F
100
AcDbEntity
  8
化粧台
  6
CONTINUOUS
 62
     4
100
AcDbLine
 10
2406.800000000103
 20
2227.1
 30
0.0
 11
2406.800000000103
 21
2237.1
 31
0.0
  0
LINE
  5
2C9
330
1F
100
AcDbEntity
  8
化粧台
  6
CONTINUOUS
 62
     4
100
AcDbLine
 10
2408.0000000001
 20
2237.1
 30
0.0
 11
2408.0000000001
 21
2228.3
 31
0.0
  0
LINE
  5
2CA
330
1F
100
AcDbEntity
  8
化粧台
  6
CONTINUOUS
 62
     4
100
AcDbLine
 10
2426.8000000001
 20
2729.5
 30
0.0
 11
2426.8000000001
 21
2728.3
 31
0.0
  0
LINE
  5
2CB
330
1F
100
AcDbEntity
  8
化粧台
  6
CONTINUOUS
 62
     4
100
AcDbLine
 10
2408.0000000001
 20
2728.3
 30
0.0
 11
2426.8000000001
 21
2728.3
 31
0.0
  0
LINE
  5
2CC
330
1F
100
AcDbEntity
  8
化粧台
  6
CONTINUOUS
 62
     4
100
AcDbLine
 10
2406.800000000103
 20
2729.5
 30
0.0
 11
2426.8000000001
 21
2729.5
 31
0.0
  0
LINE
  5
2CD
330
1F
100
AcDbEntity
  8
化粧台
  6
CONTINUOUS
 62
     4
100
AcDbLine
 10
2426.8000000001
 20
2227.1
 30
0.0
 11
2426.8000000001
 21
2228.3
 31
0.0
  0
LINE
  5
2CE
330
1F
100
AcDbEntity
  8
化粧台
  6
CONTINUOUS
 62
     4
100
AcDbLine
 10
2406.800000000103
 20
2227.1
 30
0.0
 11
2426.8000000001
 21
2227.1
 31
0.0
  0
LINE
  5
2CF
330
1F
100
AcDbEntity
  8
化粧台
  6
CONTINUOUS
 62
     4
100
AcDbLine
 10
2408.0000000001
 20
2228.3
 30
0.0
 11
2426.8000000001
 21
2228.3
 31
0.0
  0
LINE
  5
2D0
330
1F
100
AcDbEntity
  8
化粧台
  6
CONTINUOUS
 62
     2
100
AcDbLine
 10
2428.0000000001
 20
2723.3
 30
0.0
 11
2428.0000000001
 21
2243.3
 31
0.0
  0
LINE
  5
2D1
330
1F
100
AcDbEntity
  8
化粧台
  6
CONTINUOUS
 62
     2
100
AcDbLine
 10
2528.0000000001
 20
2723.3
 30
0.0
 11
2528.0000000001
 21
2243.3
 31
0.0
  0
LINE
  5
2D2
330
1F
100
AcDbEntity
  8
化粧台
  6
CONTINUOUS
 62
     2
100
AcDbLine
 10
2428.0000000001
 20
2723.3
 30
0.0
 11
2528.0000000001
 21
2723.3
 31
0.0
  0
LINE
  5
2D3
330
1F
100
AcDbEntity
  8
化粧台
  6
CONTINUOUS
 62
     2
100
AcDbLine
 10
2428.0000000001
 20
2243.3
 30
0.0
 11
2528.0000000001
 21
2243.3
 31
0.0
  0
LINE
  5
2D4
330
1F
100
AcDbEntity
  8
化粧台
  6
CONTINUOUS
 62
     2
100
AcDbLine
 10
2426.0000000001
 20
2728.3
 30
0.0
 11
2426.0000000001
 21
2228.3
 31
0.0
  0
LINE
  5
2D5
330
1F
100
AcDbEntity
  8
化粧台
  6
EXLTYPE3
 62
     6
100
AcDbLine
 10
2568.79999999994
 20
2673.299999999999
 30
0.0
 11
2526.04999999994
 21
2673.299999999999
 31
0.0
  0
ARC
  5
2D6
330
1F
100
AcDbEntity
  8
化粧台
  6
CONTINUOUS
 62
     6
100
AcDbCircle
 10
2554.661651584799
 20
2659.799999999999
 30
0.0
 40
15.00000000000001
100
AcDbArc
 50
64.15806723683205
 51
90.00000000000004
  0
ARC
  5
2D7
330
1F
100
AcDbEntity
  8
化粧台
  6
CONTINUOUS
 62
     6
100
AcDbCircle
 10
2554.66165158483
 20
2686.799999999999
 30
0.0
 40
15.00000000000001
100
AcDbArc
 50
270.0000000000002
 51
295.8419327630793
  0
LINE
  5
2D8
330
1F
100
AcDbEntity
  8
化粧台
  6
CONTINUOUS
 62
     6
100
AcDbLine
 10
2528.000000000099
 20
2671.799999999999
 30
0.0
 11
2554.66165158483
 21
2671.799999999999
 31
0.0
  0
LINE
  5
2D9
330
1F
100
AcDbEntity
  8
化粧台
  6
CONTINUOUS
 62
     6
100
AcDbLine
 10
2528.000000000099
 20
2674.799999999999
 30
0.0
 11
2554.661651584799
 21
2674.799999999999
 31
0.0
  0
LINE
  5
2DA
330
1F
100
AcDbEntity
  8
化粧台
  6
EXLTYPE3
 62
     6
100
AcDbLine
 10
2568.79999999994
 20
2293.299999999999
 30
0.0
 11
2526.04999999994
 21
2293.3
 31
0.0
  0
ARC
  5
2DB
330
1F
100
AcDbEntity
  8
化粧台
  6
CONTINUOUS
 62
     6
100
AcDbCircle
 10
2554.661651584799
 20
2279.799999999999
 30
0.0
 40
15.00000000000001
100
AcDbArc
 50
64.15806723683205
 51
90.00000000000004
  0
ARC
  5
2DC
330
1F
100
AcDbEntity
  8
化粧台
  6
CONTINUOUS
 62
     6
100
AcDbCircle
 10
2554.66165158483
 20
2306.799999999999
 30
0.0
 40
15.00000000000001
100
AcDbArc
 50
270.0000000000002
 51
295.8419327630793
  0
LINE
  5
2DD
330
1F
100
AcDbEntity
  8
化粧台
  6
CONTINUOUS
 62
     6
100
AcDbLine
 10
2528.000000000099
 20
2291.8
 30
0.0
 11
2554.66165158483
 21
2291.799999999999
 31
0.0
  0
LINE
  5
2DE
330
1F
100
AcDbEntity
  8
化粧台
  6
CONTINUOUS
 62
     6
100
AcDbLine
 10
2528.000000000099
 20
2294.8
 30
0.0
 11
2554.661651584799
 21
2294.799999999999
 31
0.0
  0
ARC
  5
2DF
330
1F
100
AcDbEntity
  8
化粧台
  6
EXLTYPE2
 62
     6
100
AcDbCircle
 10
2447.7500000001
 20
2508.549999999999
 30
0.0
 40
1.250000000000569
100
AcDbArc
 50
180.0
 51
0.0
  0
ARC
  5
2E0
330
1F
100
AcDbEntity
  8
化粧台
  6
EXLTYPE2
 62
     6
100
AcDbCircle
 10
2503.7500000001
 20
2504.049999999999
 30
0.0
 40
1.249999999999631
100
AcDbArc
 50
270.0000000000002
 51
90.00000000000004
  0
LINE
  5
2E1
330
1F
100
AcDbEntity
  8
化粧台
  6
EXLTYPE2
 62
     6
100
AcDbLine
 10
2434.5000000001
 20
2540.299999999999
 30
0.0
 11
2434.5000000001
 21
2517.799999999999
 31
0.0
  0
LINE
  5
2E2
330
1F
100
AcDbEntity
  8
化粧台
  6
EXLTYPE2
 62
     6
100
AcDbLine
 10
2432.0000000001
 20
2540.299999999999
 30
0.0
 11
2434.5000000001
 21
2540.299999999999
 31
0.0
  0
LINE
  5
2E3
330
1F
100
AcDbEntity
  8
化粧台
  6
EXLTYPE2
 62
     6
100
AcDbLine
 10
2432.0000000001
 20
2540.299999999999
 30
0.0
 11
2432.0000000001
 21
2500.3
 31
0.0
  0
LINE
  5
2E4
330
1F
100
AcDbEntity
  8
化粧台
  6
EXLTYPE2
 62
     6
100
AcDbLine
 10
2432.0000000001
 20
2500.299999999999
 30
0.0
 11
2434.5000000001
 21
2500.299999999999
 31
0.0
  0
LINE
  5
2E5
330
1F
100
AcDbEntity
  8
化粧台
  6
EXLTYPE2
 62
     6
100
AcDbLine
 10
2434.5000000001
 20
2515.299999999999
 30
0.0
 11
2434.5000000001
 21
2500.299999999999
 31
0.0
  0
LINE
  5
2E6
330
1F
100
AcDbEntity
  8
化粧台
  6
EXLTYPE2
 62
     6
100
AcDbLine
 10
2434.5000000001
 20
2515.299999999999
 30
0.0
 11
2446.5000000001
 21
2515.299999999999
 31
0.0
  0
LINE
  5
2E7
330
1F
100
AcDbEntity
  8
化粧台
  6
EXLTYPE2
 62
     6
100
AcDbLine
 10
2446.5000000001
 20
2515.299999999999
 30
0.0
 11
2446.5000000001
 21
2508.55
 31
0.0
  0
LINE
  5
2E8
330
1F
100
AcDbEntity
  8
化粧台
  6
EXLTYPE2
 62
     6
100
AcDbLine
 10
2449.0000000001
 20
2515.299999999999
 30
0.0
 11
2449.0000000001
 21
2508.55
 31
0.0
  0
LINE
  5
2E9
330
1F
100
AcDbEntity
  8
化粧台
  6
EXLTYPE2
 62
     6
100
AcDbLine
 10
2449.0000000001
 20
2515.299999999999
 30
0.0
 11
2494.5000000001
 21
2515.299999999999
 31
0.0
  0
LINE
  5
2EA
330
1F
100
AcDbEntity
  8
化粧台
  6
EXLTYPE2
 62
     6
100
AcDbLine
 10
2434.5000000001
 20
2517.799999999999
 30
0.0
 11
2510.0000000001
 21
2517.799999999999
 31
0.0
  0
LINE
  5
2EB
330
1F
100
AcDbEntity
  8
化粧台
  6
EXLTYPE2
 62
     6
100
AcDbLine
 10
2510.0000000001
 20
2517.8
 30
0.0
 11
2510.0000000001
 21
2515.299999999998
 31
0.0
  0
LINE
  5
2EC
330
1F
100
AcDbEntity
  8
化粧台
  6
EXLTYPE2
 62
     6
100
AcDbLine
 10
2497.0000000001
 20
2515.299999999998
 30
0.0
 11
2510.0000000001
 21
2515.299999999998
 31
0.0
  0
LINE
  5
2ED
330
1F
100
AcDbEntity
  8
化粧台
  6
EXLTYPE2
 62
     6
100
AcDbLine
 10
2497.0000000001
 20
2515.299999999998
 30
0.0
 11
2497.0000000001
 21
2505.299999999998
 31
0.0
  0
LINE
  5
2EE
330
1F
100
AcDbEntity
  8
化粧台
  6
EXLTYPE2
 62
     6
100
AcDbLine
 10
2497.0000000001
 20
2505.299999999998
 30
0.0
 11
2503.7500000001
 21
2505.299999999999
 31
0.0
  0
LINE
  5
2EF
330
1F
100
AcDbEntity
  8
化粧台
  6
EXLTYPE2
 62
     6
100
AcDbLine
 10
2494.5000000001
 20
2515.299999999999
 30
0.0
 11
2494.5000000001
 21
2502.799999999999
 31
0.0
  0
LINE
  5
2F0
330
1F
100
AcDbEntity
  8
化粧台
  6
EXLTYPE2
 62
     6
100
AcDbLine
 10
2494.5000000001
 20
2502.799999999999
 30
0.0
 11
2503.7500000001
 21
2502.799999999998
 31
0.0
  0
ARC
  5
2F1
330
1F
100
AcDbEntity
  8
化粧台
  6
EXLTYPE2
 62
     6
100
AcDbCircle
 10
2447.7500000001
 20
2268.549999999999
 30
0.0
 40
1.250000000000569
100
AcDbArc
 50
180.0
 51
0.0
  0
ARC
  5
2F2
330
1F
100
AcDbEntity
  8
化粧台
  6
EXLTYPE2
 62
     6
100
AcDbCircle
 10
2503.7500000001
 20
2264.049999999999
 30
0.0
 40
1.249999999999631
100
AcDbArc
 50
270.0000000000002
 51
90.00000000000004
  0
LINE
  5
2F3
330
1F
100
AcDbEntity
  8
化粧台
  6
EXLTYPE2
 62
     6
100
AcDbLine
 10
2434.5000000001
 20
2300.299999999999
 30
0.0
 11
2434.5000000001
 21
2277.799999999999
 31
0.0
  0
LINE
  5
2F4
330
1F
100
AcDbEntity
  8
化粧台
  6
EXLTYPE2
 62
     6
100
AcDbLine
 10
2432.0000000001
 20
2300.299999999999
 30
0.0
 11
2434.5000000001
 21
2300.299999999999
 31
0.0
  0
LINE
  5
2F5
330
1F
100
AcDbEntity
  8
化粧台
  6
EXLTYPE2
 62
     6
100
AcDbLine
 10
2432.0000000001
 20
2300.299999999999
 30
0.0
 11
2432.0000000001
 21
2260.3
 31
0.0
  0
LINE
  5
2F6
330
1F
100
AcDbEntity
  8
化粧台
  6
EXLTYPE2
 62
     6
100
AcDbLine
 10
2432.0000000001
 20
2260.299999999999
 30
0.0
 11
2434.5000000001
 21
2260.299999999999
 31
0.0
  0
LINE
  5
2F7
330
1F
100
AcDbEntity
  8
化粧台
  6
EXLTYPE2
 62
     6
100
AcDbLine
 10
2434.5000000001
 20
2275.299999999999
 30
0.0
 11
2434.5000000001
 21
2260.299999999999
 31
0.0
  0
LINE
  5
2F8
330
1F
100
AcDbEntity
  8
化粧台
  6
EXLTYPE2
 62
     6
100
AcDbLine
 10
2434.5000000001
 20
2275.299999999999
 30
0.0
 11
2446.5000000001
 21
2275.299999999999
 31
0.0
  0
LINE
  5
2F9
330
1F
100
AcDbEntity
  8
化粧台
  6
EXLTYPE2
 62
     6
100
AcDbLine
 10
2446.5000000001
 20
2275.299999999999
 30
0.0
 11
2446.5000000001
 21
2268.55
 31
0.0
  0
LINE
  5
2FA
330
1F
100
AcDbEntity
  8
化粧台
  6
EXLTYPE2
 62
     6
100
AcDbLine
 10
2449.0000000001
 20
2275.299999999999
 30
0.0
 11
2449.0000000001
 21
2268.55
 31
0.0
  0
LINE
  5
2FB
330
1F
100
AcDbEntity
  8
化粧台
  6
EXLTYPE2
 62
     6
100
AcDbLine
 10
2449.0000000001
 20
2275.299999999999
 30
0.0
 11
2494.5000000001
 21
2275.299999999999
 31
0.0
  0
LINE
  5
2FC
330
1F
100
AcDbEntity
  8
化粧台
  6
EXLTYPE2
 62
     6
100
AcDbLine
 10
2434.5000000001
 20
2277.799999999999
 30
0.0
 11
2510.0000000001
 21
2277.799999999999
 31
0.0
  0
LINE
  5
2FD
330
1F
100
AcDbEntity
  8
化粧台
  6
EXLTYPE2
 62
     6
100
AcDbLine
 10
2510.0000000001
 20
2277.8
 30
0.0
 11
2510.0000000001
 21
2275.299999999998
 31
0.0
  0
LINE
  5
2FE
330
1F
100
AcDbEntity
  8
化粧台
  6
EXLTYPE2
 62
     6
100
AcDbLine
 10
2497.0000000001
 20
2275.299999999998
 30
0.0
 11
2510.0000000001
 21
2275.299999999998
 31
0.0
  0
LINE
  5
2FF
330
1F
100
AcDbEntity
  8
化粧台
  6
EXLTYPE2
 62
     6
100
AcDbLine
 10
2497.0000000001
 20
2275.299999999998
 30
0.0
 11
2497.0000000001
 21
2265.299999999998
 31
0.0
  0
LINE
  5
300
330
1F
100
AcDbEntity
  8
化粧台
  6
EXLTYPE2
 62
     6
100
AcDbLine
 10
2497.0000000001
 20
2265.299999999998
 30
0.0
 11
2503.7500000001
 21
2265.299999999999
 31
0.0
  0
LINE
  5
301
330
1F
100
AcDbEntity
  8
化粧台
  6
EXLTYPE2
 62
     6
100
AcDbLine
 10
2494.5000000001
 20
2275.299999999999
 30
0.0
 11
2494.5000000001
 21
2262.799999999999
 31
0.0
  0
LINE
  5
302
330
1F
100
AcDbEntity
  8
化粧台
  6
EXLTYPE2
 62
     6
100
AcDbLine
 10
2494.5000000001
 20
2262.799999999999
 30
0.0
 11
2503.7500000001
 21
2262.799999999998
 31
0.0
  0
DIMENSION
  5
303
330
1F
100
AcDbEntity
  8
化粧台
  6
CONTINUOUS
 62
     3
100
AcDbDimension
  2
*D33
 10
2899.5
 20
979.5
 30
0.0
 11
2862.0
 21
1636.4
 31
0.0
 70
   160
  1
（1314）
  3
ISO-25
100
AcDbAlignedDimension
 13
2874.5000000001
 23
2293.3
 33
0.0
 14
2868.0
 24
979.5
 34
0.0
 50
90.0
100
AcDbRotatedDimension
1001
ACAD
1000
DSTYLE
1002
{
1070
   270
1070
     2
1070
     6
1000
EX_NORM
1070
     7
1000
EX_NORM
1070
    41
1040
44.99999618530273
1070
    42
1040
10.49999982118607
1070
    44
1040
15.0
1070
    73
1070
     0
1070
    74
1070
     0
1070
    75
1070
     0
1070
    76
1070
     0
1070
    77
1070
     1
1070
    78
1070
     8
1070
   140
1040
59.99999618530273
1070
   147
1040
0.0
1070
   173
1070
     1
1070
   176
1070
     3
1070
   177
1070
     3
1070
   178
1070
     2
1070
   271
1070
     1
1070
   277
1070
     2
1070
   279
1070
     2
1070
   280
1070
     0
1070
   287
1070
     5
1070
   340
1005
118
1002
}
  0
DIMENSION
  5
310
330
1F
100
AcDbEntity
  8
化粧台
  6
CONTINUOUS
 62
     3
100
AcDbDimension
  2
*D34
 10
2899.5
 20
2293.3
 30
0.0
 11
2862.0
 21
2483.3
 31
0.0
 70
   160
  1
380（壁固定）
  3
ISO-25
100
AcDbAlignedDimension
 13
2568.7999999999
 23
2673.3
 33
0.0
 14
2568.7999999999
 24
2293.3
 34
0.0
 50
90.0
100
AcDbRotatedDimension
1001
ACAD
1000
DSTYLE
1002
{
1070
   270
1070
     2
1070
     6
1000
EX_NORM
1070
     7
1000
EX_NORM
1070
    41
1040
44.99999618530273
1070
    42
1040
10.49999982118607
1070
    44
1040
15.0
1070
    73
1070
     0
1070
    74
1070
     0
1070
    75
1070
     0
1070
    76
1070
     0
1070
    77
1070
     1
1070
    78
1070
     8
1070
   140
1040
59.99999618530273
1070
   147
1040
0.0
1070
   173
1070
     1
1070
   176
1070
     3
1070
   177
1070
     3
1070
   178
1070
     2
1070
   271
1070
     1
1070
   277
1070
     2
1070
   279
1070
     2
1070
   280
1070
     0
1070
   287
1070
     5
1070
   340
1005
118
1002
}
  0
LINE
  5
31D
330
1F
100
AcDbEntity
  8
化粧台
  6
CONTINUOUS
 62
     3
100
AcDbLine
 10
2589.799999642286
 20
2673.3
 30
0.0
 11
2914.5
 21
2673.3
 31
0.0
  0
DIMENSION
  5
31E
330
1F
100
AcDbEntity
  8
化粧台
  6
CONTINUOUS
 62
     3
100
AcDbDimension
  2
*D35
 10
2899.5
 20
2729.5
 30
0.0
 11
2862.0
 21
2828.499999910593
 31
0.0
 70
   160
  1
56
  3
ISO-25
100
AcDbAlignedDimension
 13
2579.2999998211
 23
2673.3
 33
0.0
 14
2426.1
 24
2729.5
 34
0.0
 50
90.0
100
AcDbRotatedDimension
1001
ACAD
1000
DSTYLE
1002
{
1070
   270
1070
     2
1070
     6
1000
EX_NORM
1070
     7
1000
EX_NORM
1070
    41
1040
44.99999618530273
1070
    42
1040
10.49999982118607
1070
    44
1040
15.0
1070
    73
1070
     0
1070
    74
1070
     0
1070
    75
1070
     0
1070
    76
1070
     0
1070
    77
1070
     1
1070
    78
1070
     8
1070
   140
1040
59.99999618530273
1070
   147
1040
0.0
1070
   173
1070
     1
1070
   176
1070
     3
1070
   177
1070
     3
1070
   178
1070
     2
1070
   271
1070
     1
1070
   277
1070
     2
1070
   279
1070
     2
1070
   280
1070
     2
1070
   287
1070
     5
1070
   340
1005
118
1002
}
  0
LINE
  5
32D
330
1F
100
AcDbEntity
  8
化粧台
  6
CONTINUOUS
 62
     3
100
AcDbLine
 10
2584.831878287686
 20
1509.5
 30
0.0
 11
2823.0000000001
 21
1509.5
 31
0.0
  0
LINE
  5
32E
330
1F
100
AcDbEntity
  8
化粧台
  6
CONTINUOUS
 62
     3
100
AcDbLine
 10
2808.0000000001
 20
979.5
 30
0.0
 11
2808.0000000001
 21
1509.5
 31
0.0
  0
LINE
  5
32F
330
1F
100
AcDbEntity
  8
化粧台
  6
CONTINUOUS
 62
     3
100
AcDbLine
 10
2800.5000000001
 20
1024.5
 30
0.0
 11
2808.0000000001
 21
979.5
 31
0.0
  0
LINE
  5
330
330
1F
100
AcDbEntity
  8
化粧台
  6
CONTINUOUS
 62
     3
100
AcDbLine
 10
2808.0000000001
 20
979.5
 30
0.0
 11
2815.5000000001
 21
1024.5
 31
0.0
  0
LINE
  5
331
330
1F
100
AcDbEntity
  8
化粧台
  6
CONTINUOUS
 62
     3
100
AcDbLine
 10
2815.5000000001
 20
1464.5
 30
0.0
 11
2808.0000000001
 21
1509.5
 31
0.0
  0
LINE
  5
332
330
1F
100
AcDbEntity
  8
化粧台
  6
CONTINUOUS
 62
     3
100
AcDbLine
 10
2808.0000000001
 20
1509.5
 30
0.0
 11
2800.5000000001
 21
1464.5
 31
0.0
  0
TEXT
  5
333
330
1F
100
AcDbEntity
  8
化粧台
  6
CONTINUOUS
 62
     2
100
AcDbText
 10
425.0000000001335
 20
979.5
 30
0.0
 40
59.99999618530273
  1
F.L.
 41
0.6227488631227179
  7
EXCADSTD
 72
     5
 11
515.7434000001334
 21
979.5
 31
0.0
100
AcDbText
  0
LINE
  5
334
330
1F
100
AcDbEntity
  8
化粧台
  6
CONTINUOUS
 62
     2
100
AcDbLine
 10
2528.000000000113
 20
1764.49999999997
 30
0.0
 11
2528.000000000113
 21
1589.49999999995
 31
0.0
  0
LINE
  5
335
330
1F
100
AcDbEntity
  8
化粧台
  6
CONTINUOUS
 62
     2
100
AcDbLine
 10
2247.5000000001
 20
1568.0
 30
0.0
 11
2268.0000000001
 21
1568.0
 31
0.0
  0
LINE
  5
336
330
1F
100
AcDbEntity
  8
化粧台
  6
CONTINUOUS
 62
     2
100
AcDbLine
 10
2249.0000000001
 20
1561.0
 30
0.0
 11
2266.0000000001
 21
1561.0
 31
0.0
  0
LINE
  5
337
330
1F
100
AcDbEntity
  8
化粧台
  6
CONTINUOUS
 62
     2
100
AcDbLine
 10
2249.0000000001
 20
1071.0
 30
0.0
 11
2266.0000000001
 21
1071.0
 31
0.0
  0
LINE
  5
338
330
1F
100
AcDbEntity
  8
化粧台
  6
CONTINUOUS
 62
     2
100
AcDbLine
 10
2249.0000000001
 20
1071.0
 30
0.0
 11
2249.0000000001
 21
1560.999999999999
 31
0.0
  0
LINE
  5
339
330
1F
100
AcDbEntity
  8
化粧台
  6
CONTINUOUS
 62
     2
100
AcDbLine
 10
2266.0000000001
 20
1071.0
 30
0.0
 11
2266.0000000001
 21
1560.999999999999
 31
0.0
  0
LINE
  5
33A
330
1F
100
AcDbEntity
  8
化粧台
  6
CONTINUOUS
 62
     2
100
AcDbLine
 10
2268.0000000001
 20
983.0000000000001
 30
0.0
 11
2528.0000000001
 21
983.0000000000001
 31
0.0
  0
LINE
  5
33B
330
1F
100
AcDbEntity
  8
化粧台
  6
CONTINUOUS
 62
     2
100
AcDbLine
 10
2309.000000000094
 20
983.0000000000001
 30
0.0
 11
2309.000000000094
 21
979.5000000000001
 31
0.0
  0
LINE
  5
33C
330
1F
100
AcDbEntity
  8
化粧台
  6
CONTINUOUS
 62
     2
100
AcDbLine
 10
2297.00000000013
 20
983.0000000000001
 30
0.0
 11
2297.00000000013
 21
979.5000000000001
 31
0.0
  0
LINE
  5
33D
330
1F
100
AcDbEntity
  8
化粧台
  6
CONTINUOUS
 62
     2
100
AcDbLine
 10
2297.000000000099
 20
979.5000000000001
 30
0.0
 11
2309.000000000094
 21
979.5000000000001
 31
0.0
  0
ARC
  5
33E
330
1F
100
AcDbEntity
  8
化粧台
  6
CONTINUOUS
 62
     2
100
AcDbCircle
 10
2239.5000000001
 20
1516.0
 30
0.0
 40
18.5
100
AcDbArc
 50
163.3984504009939
 51
196.6015495990061
  0
LINE
  5
33F
330
1F
100
AcDbEntity
  8
化粧台
  6
CONTINUOUS
 62
     2
100
AcDbLine
 10
2249.0000000001
 20
1511.5
 30
0.0
 11
2222.786557396651
 21
1510.001629662143
 31
0.0
  0
ARC
  5
340
330
1F
100
AcDbEntity
  8
化粧台
  6
CONTINUOUS
 62
     2
100
AcDbCircle
 10
2222.729490168852
 20
1511.0
 30
0.0
 40
1.0
100
AcDbArc
 50
196.6015495990198
 51
273.2714886349227
  0
LINE
  5
341
330
1F
100
AcDbEntity
  8
化粧台
  6
CONTINUOUS
 62
     2
100
AcDbLine
 10
2249.0000000001
 20
1520.5
 30
0.0
 11
2222.786557396651
 21
1521.998370337856
 31
0.0
  0
LINE
  5
342
330
1F
100
AcDbEntity
  8
化粧台
  6
CONTINUOUS
 62
     2
100
AcDbLine
 10
2249.0000000001
 20
1511.5
 30
0.0
 11
2249.0000000001
 21
1520.5
 31
0.0
  0
ARC
  5
343
330
1F
100
AcDbEntity
  8
化粧台
  6
CONTINUOUS
 62
     2
100
AcDbCircle
 10
2222.729490168852
 20
1521.0
 30
0.0
 40
1.0
100
AcDbArc
 50
86.72851136507767
 51
163.3984504009802
  0
LINE
  5
344
330
1F
100
AcDbEntity
  8
化粧台
  6
CONTINUOUS
 62
     6
100
AcDbLine
 10
2503.000000000052
 20
1509.499999999954
 30
0.0
 11
2538.0000000001
 21
1509.499999999954
 31
0.0
  0
LINE
  5
345
330
1F
100
AcDbEntity
  8
化粧台
  6
CONTINUOUS
 62
     6
100
AcDbLine
 10
2513.300005722061
 20
1509.499999999958
 30
0.0
 11
2575.500005722064
 21
1509.499999999958
 31
0.0
  0
LINE
  5
346
330
1F
100
AcDbEntity
  8
化粧台
  6
CONTINUOUS
 62
     6
100
AcDbLine
 10
2560.500005722064
 20
1509.499999999958
 30
0.0
 11
2528.000005722064
 21
1507.49999999996
 31
0.0
  0
LINE
  5
347
330
1F
100
AcDbEntity
  8
化粧台
  6
CONTINUOUS
 62
     6
100
AcDbLine
 10
2528.000005722064
 20
1511.49999999996
 30
0.0
 11
2560.500005722064
 21
1509.499999999958
 31
0.0
  0
LINE
  5
348
330
1F
100
AcDbEntity
  8
化粧台
  6
EXLTYPE4
 62
     6
100
AcDbLine
 10
2549.000000000099
 20
1438.5
 30
0.0
 11
2453.750000000139
 21
1438.5
 31
0.0
  0
LINE
  5
349
330
1F
100
AcDbEntity
  8
化粧台
  6
EXLTYPE4
 62
     6
100
AcDbLine
 10
2549.000000000099
 20
1470.5
 30
0.0
 11
2453.750000000095
 21
1470.5
 31
0.0
  0
LINE
  5
34A
330
1F
100
AcDbEntity
  8
化粧台
  6
CONTINUOUS
 62
     6
100
AcDbLine
 10
2549.000000000103
 20
1470.5
 30
0.0
 11
2549.000000000103
 21
1438.5
 31
0.0
  0
LINE
  5
34B
330
1F
100
AcDbEntity
  8
化粧台
  6
EXLTYPE2
 62
     6
100
AcDbLine
 10
2474.500000000095
 20
1289.0
 30
0.0
 11
2536.000000000095
 21
1289.0
 31
0.0
  0
LINE
  5
34C
330
1F
100
AcDbEntity
  8
化粧台
  6
EXLTYPE2
 62
     6
100
AcDbLine
 10
2474.500000000095
 20
1310.0
 30
0.0
 11
2536.000000000095
 21
1310.0
 31
0.0
  0
LINE
  5
34D
330
1F
100
AcDbEntity
  8
化粧台
  6
CONTINUOUS
 62
     6
100
AcDbLine
 10
2536.000000000095
 20
1310.0
 30
0.0
 11
2536.000000000095
 21
1289.0
 31
0.0
  0
LINE
  5
34E
330
1F
100
AcDbEntity
  8
化粧台
  6
EXLTYPE3
 62
     6
100
AcDbLine
 10
2556.750000000097
 20
1454.499999999998
 30
0.0
 11
2452.650000000097
 21
1454.499999999998
 31
0.0
  0
LINE
  5
34F
330
1F
100
AcDbEntity
  8
化粧台
  6
EXLTYPE2
 62
     6
100
AcDbLine
 10
2362.642588912776
 20
1572.089877715614
 30
0.0
 11
2359.090297380908
 21
1597.830547224205
 31
0.0
  0
LINE
  5
350
330
1F
100
AcDbEntity
  8
化粧台
  6
EXLTYPE2
 62
     6
100
AcDbLine
 10
2318.841358740615
 20
1609.156324434974
 30
0.0
 11
2350.055740135632
 21
1606.425419923936
 31
0.0
  0
ARC
  5
351
330
1F
100
AcDbEntity
  8
化粧台
  6
EXLTYPE2
 62
     6
100
AcDbCircle
 10
2349.184182708155
 20
1596.463472943019
 30
0.0
 40
10.0
100
AcDbArc
 50
7.857363790234437
 51
85.00000000000034
  0
ARC
  5
352
330
1F
100
AcDbEntity
  8
化粧台
  6
EXLTYPE2
 62
     6
100
AcDbCircle
 10
2365.614423314601
 20
1572.49999999997
 30
0.0
 40
3.000000000000002
100
AcDbArc
 50
187.8573637902339
 51
270.0000000000002
  0
ARC
  5
353
330
1F
100
AcDbEntity
  8
化粧台
  6
EXLTYPE2
 62
     6
100
AcDbCircle
 10
2440.385576685625
 20
1572.49999999997
 30
0.0
 40
3.000000000000003
100
AcDbArc
 50
270.0000000000002
 51
352.5295987197604
  0
ARC
  5
354
330
1F
100
AcDbEntity
  8
化粧台
  6
EXLTYPE2
 62
     6
100
AcDbCircle
 10
2446.334649635247
 20
1571.719916004443
 30
0.0
 40
3.000000000000003
100
AcDbArc
 50
94.99999999999989
 51
172.5295987197601
  0
LINE
  5
355
330
1F
100
AcDbEntity
  8
化粧台
  6
EXLTYPE2
 62
     6
100
AcDbLine
 10
2446.073182407004
 20
1574.708500098718
 30
0.0
 11
2451.521774780625
 21
1575.185190163584
 31
0.0
  0
LINE
  5
356
330
1F
100
AcDbEntity
  8
化粧台
  6
EXLTYPE2
 62
     6
100
AcDbLine
 10
2403.000000000114
 20
1624.49999999997
 30
0.0
 11
2403.000000000114
 21
1559.49999999997
 31
0.0
  0
LINE
  5
357
330
1F
100
AcDbEntity
  8
化粧台
  6
EXLTYPE2
 62
     6
100
AcDbLine
 10
2513.000000000052
 20
1047.999999999877
 30
0.0
 11
2510.500000000079
 21
1047.999999999877
 31
0.0
  0
LINE
  5
358
330
1F
100
AcDbEntity
  8
化粧台
  6
EXLTYPE2
 62
     6
100
AcDbLine
 10
2510.500000000079
 20
1542.999999999959
 30
0.0
 11
2510.500000000079
 21
1047.9999999999
 31
0.0
  0
LINE
  5
359
330
1F
100
AcDbEntity
  8
化粧台
  6
EXLTYPE2
 62
     6
100
AcDbLine
 10
2513.000000000052
 20
1542.999999999959
 30
0.0
 11
2513.000000000052
 21
1047.999999999877
 31
0.0
  0
LINE
  5
35A
330
1F
100
AcDbEntity
  8
化粧台
  6
EXLTYPE2
 62
     6
100
AcDbLine
 10
2510.500000000079
 20
1542.999999999959
 30
0.0
 11
2528.0000000001
 21
1542.999999999959
 31
0.0
  0
LINE
  5
35B
330
1F
100
AcDbEntity
  8
化粧台
  6
EXLTYPE2
 62
     6
100
AcDbLine
 10
2476.000003814795
 20
1009.49999809265
 30
0.0
 11
2409.999996185399
 21
1009.49999809265
 31
0.0
  0
LINE
  5
35C
330
1F
100
AcDbEntity
  8
化粧台
  6
EXLTYPE2
 62
     6
100
AcDbLine
 10
2473.500003814795
 20
1032.499999999998
 30
0.0
 11
2412.499996185404
 21
1032.499999999998
 31
0.0
  0
LINE
  5
35D
330
1F
100
AcDbEntity
  8
化粧台
  6
EXLTYPE2
 62
     6
100
AcDbLine
 10
2467.000000000098
 20
1047.500001907347
 30
0.0
 11
2419.000000000101
 21
1047.500001907347
 31
0.0
  0
LINE
  5
35E
330
1F
100
AcDbEntity
  8
化粧台
  6
EXLTYPE2
 62
     6
100
AcDbLine
 10
2465.999996185401
 20
1049.546517734527
 30
0.0
 11
2420.000003814799
 21
1049.546517734527
 31
0.0
  0
LINE
  5
35F
330
1F
100
AcDbEntity
  8
化粧台
  6
EXLTYPE2
 62
     6
100
AcDbLine
 10
2463.999996185401
 20
1067.346516971587
 30
0.0
 11
2422.000003814799
 21
1067.346516971587
 31
0.0
  0
ARC
  5
360
330
1F
100
AcDbEntity
  8
化粧台
  6
EXLTYPE2
 62
     6
100
AcDbCircle
 10
2422.000003814799
 20
1065.346516971587
 30
0.0
 40
2.0
100
AcDbArc
 50
89.99999567428607
 51
179.9999913485771
  0
LINE
  5
361
330
1F
100
AcDbEntity
  8
化粧台
  6
EXLTYPE2
 62
     6
100
AcDbLine
 10
2420.000003814799
 20
1065.346516971587
 30
0.0
 11
2420.000003814799
 21
1049.546517734527
 31
0.0
  0
ARC
  5
362
330
1F
100
AcDbEntity
  8
化粧台
  6
EXLTYPE2
 62
     6
100
AcDbCircle
 10
2409.999996185404
 20
1009.99999809265
 30
0.0
 40
0.5
100
AcDbArc
 50
180.0
 51
270.0000000000002
  0
ARC
  5
363
330
1F
100
AcDbEntity
  8
化粧台
  6
EXLTYPE2
 62
     6
100
AcDbCircle
 10
2412.499996185404
 20
1029.499999999998
 30
0.0
 40
3.000000000000002
100
AcDbArc
 50
90.00000250448174
 51
180.000005008957
  0
ARC
  5
364
330
1F
100
AcDbEntity
  8
化粧台
  6
EXLTYPE2
 62
     6
100
AcDbCircle
 10
2415.000000000101
 20
1033.499999999998
 30
0.0
 40
1.0
100
AcDbArc
 50
270.0000000000002
 51
0.0
  0
ARC
  5
365
330
1F
100
AcDbEntity
  8
化粧台
  6
EXLTYPE2
 62
     6
100
AcDbCircle
 10
2419.000000000101
 20
1044.500001907347
 30
0.0
 40
3.000000000000002
100
AcDbArc
 50
90.00000250448174
 51
180.000005008957
  0
LINE
  5
366
330
1F
100
AcDbEntity
  8
化粧台
  6
EXLTYPE2
 62
     6
100
AcDbLine
 10
2409.499996185404
 20
1029.499999999998
 30
0.0
 11
2409.499996185404
 21
1009.99999809265
 31
0.0
  0
LINE
  5
367
330
1F
100
AcDbEntity
  8
化粧台
  6
EXLTYPE2
 62
     6
100
AcDbLine
 10
2422.299995422465
 20
1049.546517734527
 30
0.0
 11
2422.299995422465
 21
1047.499993769308
 31
0.0
  0
LINE
  5
368
330
1F
100
AcDbEntity
  8
化粧台
  6
EXLTYPE2
 62
     6
100
AcDbLine
 10
2416.000000000101
 20
1044.500001907347
 30
0.0
 11
2416.000000000101
 21
1033.499999999998
 31
0.0
  0
ARC
  5
369
330
1F
100
AcDbEntity
  8
化粧台
  6
EXLTYPE2
 62
     6
100
AcDbCircle
 10
2463.999996185401
 20
1065.346516971587
 30
0.0
 40
2.0
100
AcDbArc
 50
0.0000086514229809
 51
90.0000043257139
  0
LINE
  5
36A
330
1F
100
AcDbEntity
  8
化粧台
  6
EXLTYPE2
 62
     6
100
AcDbLine
 10
2465.999996185401
 20
1065.346516971587
 30
0.0
 11
2465.999996185401
 21
1049.546517734527
 31
0.0
  0
ARC
  5
36B
330
1F
100
AcDbEntity
  8
化粧台
  6
EXLTYPE2
 62
     6
100
AcDbCircle
 10
2476.000003814795
 20
1009.99999809265
 30
0.0
 40
0.5
100
AcDbArc
 50
270.0000000000002
 51
0.0
  0
ARC
  5
36C
330
1F
100
AcDbEntity
  8
化粧台
  6
EXLTYPE2
 62
     6
100
AcDbCircle
 10
2473.500003814795
 20
1029.499999999998
 30
0.0
 40
3.000000000000002
100
AcDbArc
 50
359.9999949910431
 51
89.99999749552043
  0
ARC
  5
36D
330
1F
100
AcDbEntity
  8
化粧台
  6
EXLTYPE2
 62
     6
100
AcDbCircle
 10
2471.000000000098
 20
1033.499999999998
 30
0.0
 40
1.0
100
AcDbArc
 50
180.0
 51
270.0000000000002
  0
ARC
  5
36E
330
1F
100
AcDbEntity
  8
化粧台
  6
EXLTYPE2
 62
     6
100
AcDbCircle
 10
2467.000000000098
 20
1044.500001907347
 30
0.0
 40
3.000000000000002
100
AcDbArc
 50
359.9999949910431
 51
89.99999749552043
  0
LINE
  5
36F
330
1F
100
AcDbEntity
  8
化粧台
  6
EXLTYPE2
 62
     6
100
AcDbLine
 10
2476.500003814795
 20
1029.499999999998
 30
0.0
 11
2476.500003814795
 21
1009.99999809265
 31
0.0
  0
LINE
  5
370
330
1F
100
AcDbEntity
  8
化粧台
  6
EXLTYPE2
 62
     6
100
AcDbLine
 10
2463.700004577734
 20
1049.546517734527
 30
0.0
 11
2463.700004577734
 21
1047.499993769308
 31
0.0
  0
LINE
  5
371
330
1F
100
AcDbEntity
  8
化粧台
  6
EXLTYPE2
 62
     6
100
AcDbLine
 10
2470.000000000098
 20
1044.500001907347
 30
0.0
 11
2470.000000000098
 21
1033.499999999998
 31
0.0
  0
LINE
  5
372
330
1F
100
AcDbEntity
  8
化粧台
  6
EXLTYPE2
 62
     6
100
AcDbLine
 10
2403.000000000061
 20
1601.49999999996
 30
0.0
 11
2403.000000000061
 21
1384.499999999962
 31
0.0
  0
LINE
  5
373
330
1F
100
AcDbEntity
  8
化粧台
  6
EXLTYPE2
 62
     6
100
AcDbLine
 10
2403.000000000061
 20
1601.49999999996
 30
0.0
 11
2403.000000000061
 21
1384.499999999962
 31
0.0
  0
LINE
  5
374
330
1F
100
AcDbEntity
  8
化粧台
  6
EXLTYPE2
 62
     6
100
AcDbLine
 10
2419.20000000006
 20
1524.2
 30
0.0
 11
2422.75000000006
 21
1530.7
 31
0.0
  0
LINE
  5
375
330
1F
100
AcDbEntity
  8
化粧台
  6
EXLTYPE2
 62
     6
100
AcDbLine
 10
2424.25000000006
 20
1545.7
 30
0.0
 11
2424.25000000006
 21
1532.2
 31
0.0
  0
ARC
  5
376
330
1F
100
AcDbEntity
  8
化粧台
  6
EXLTYPE2
 62
     6
100
AcDbCircle
 10
2422.750000000059
 20
1532.2
 30
0.0
 40
1.5
100
AcDbArc
 50
270.0000000000002
 51
0.0
  0
LINE
  5
377
330
1F
100
AcDbEntity
  8
化粧台
  6
EXLTYPE2
 62
     6
100
AcDbLine
 10
2386.800000000061
 20
1524.2
 30
0.0
 11
2383.25000000006
 21
1530.7
 31
0.0
  0
LINE
  5
378
330
1F
100
AcDbEntity
  8
化粧台
  6
EXLTYPE2
 62
     6
100
AcDbLine
 10
2381.75000000006
 20
1545.7
 30
0.0
 11
2381.75000000006
 21
1532.2
 31
0.0
  0
ARC
  5
379
330
1F
100
AcDbEntity
  8
化粧台
  6
EXLTYPE2
 62
     6
100
AcDbCircle
 10
2383.25000000006
 20
1532.2
 30
0.0
 40
1.5
100
AcDbArc
 50
180.0
 51
270.0000000000002
  0
LINE
  5
37A
330
1F
100
AcDbEntity
  8
化粧台
  6
EXLTYPE2
 62
     6
100
AcDbLine
 10
2386.800000000061
 20
1524.2
 30
0.0
 11
2419.20000000006
 21
1524.2
 31
0.0
  0
LINE
  5
37B
330
1F
100
AcDbEntity
  8
化粧台
  6
EXLTYPE2
 62
     6
100
AcDbLine
 10
2383.25000000006
 20
1530.7
 30
0.0
 11
2422.750000000059
 21
1530.7
 31
0.0
  0
LINE
  5
37C
330
1F
100
AcDbEntity
  8
化粧台
  6
EXLTYPE2
 62
     6
100
AcDbLine
 10
2374.50000000006
 20
1563.7
 30
0.0
 11
2431.50000000006
 21
1563.7
 31
0.0
  0
LINE
  5
37D
330
1F
100
AcDbEntity
  8
化粧台
  6
EXLTYPE2
 62
     6
100
AcDbLine
 10
2374.50000000006
 20
1566.2
 30
0.0
 11
2431.50000000006
 21
1566.2
 31
0.0
  0
LINE
  5
37E
330
1F
100
AcDbEntity
  8
化粧台
  6
EXLTYPE2
 62
     6
100
AcDbLine
 10
2374.500000000059
 20
1566.2
 30
0.0
 11
2374.500000000059
 21
1560.2
 31
0.0
  0
LINE
  5
37F
330
1F
100
AcDbEntity
  8
化粧台
  6
EXLTYPE2
 62
     6
100
AcDbLine
 10
2374.500000000059
 20
1560.2
 30
0.0
 11
2431.50000000006
 21
1560.2
 31
0.0
  0
LINE
  5
380
330
1F
100
AcDbEntity
  8
化粧台
  6
EXLTYPE2
 62
     6
100
AcDbLine
 10
2431.50000000006
 20
1566.2
 30
0.0
 11
2431.50000000006
 21
1560.2
 31
0.0
  0
LINE
  5
381
330
1F
100
AcDbEntity
  8
化粧台
  6
EXLTYPE2
 62
     6
100
AcDbLine
 10
2377.600000000059
 20
1560.2
 30
0.0
 11
2377.600000000059
 21
1547.7
 31
0.0
  0
ARC
  5
382
330
1F
100
AcDbEntity
  8
化粧台
  6
EXLTYPE2
 62
     6
100
AcDbCircle
 10
2379.600000000059
 20
1547.7
 30
0.0
 40
2.0
100
AcDbArc
 50
180.0
 51
270.0000000000002
  0
LINE
  5
383
330
1F
100
AcDbEntity
  8
化粧台
  6
EXLTYPE2
 62
     6
100
AcDbLine
 10
2428.400000000059
 20
1560.2
 30
0.0
 11
2428.400000000059
 21
1547.7
 31
0.0
  0
ARC
  5
384
330
1F
100
AcDbEntity
  8
化粧台
  6
EXLTYPE2
 62
     6
100
AcDbCircle
 10
2426.400000000059
 20
1547.7
 30
0.0
 40
2.0
100
AcDbArc
 50
270.0000000000002
 51
0.0
  0
LINE
  5
385
330
1F
100
AcDbEntity
  8
化粧台
  6
EXLTYPE2
 62
     6
100
AcDbLine
 10
2379.600000000059
 20
1545.7
 30
0.0
 11
2426.400000000059
 21
1545.7
 31
0.0
  0
ARC
  5
386
330
1F
100
AcDbEntity
  8
化粧台
  6
EXLTYPE2
 62
     6
100
AcDbCircle
 10
2406.96151618806
 20
1365.047912245001
 30
0.0
 40
15.00000000000001
100
AcDbArc
 50
216.1437885097004
 51
310.3739745502023
  0
ARC
  5
387
330
1F
100
AcDbEntity
  8
化粧台
  6
EXLTYPE2
 62
     6
100
AcDbCircle
 10
2427.15000000006
 20
1379.793254606
 30
0.0
 40
40.0
100
AcDbArc
 50
180.0
 51
216.1437885097004
  0
LINE
  5
388
330
1F
100
AcDbEntity
  8
化粧台
  6
EXLTYPE2
 62
     6
100
AcDbLine
 10
2387.15000000006
 20
1417.55
 30
0.0
 11
2418.85000000006
 21
1417.55
 31
0.0
  0
ARC
  5
389
330
1F
100
AcDbEntity
  8
化粧台
  6
EXLTYPE2
 62
     6
100
AcDbCircle
 10
2395.17812500006
 20
1332.700000000001
 30
0.0
 40
1.5
100
AcDbArc
 50
180.0
 51
270.0000000000002
  0
LINE
  5
38A
330
1F
100
AcDbEntity
  8
化粧台
  6
EXLTYPE2
 62
     6
100
AcDbLine
 10
2393.678125000059
 20
1332.700000000001
 30
0.0
 11
2393.678125000059
 21
1347.700000000001
 31
0.0
  0
ARC
  5
38B
330
1F
100
AcDbEntity
  8
化粧台
  6
EXLTYPE2
 62
     6
100
AcDbCircle
 10
2424.40000000006
 20
1471.2
 30
0.0
 40
2.0
100
AcDbArc
 50
0.0
 51
90.00000000000001
  0
ARC
  5
38C
330
1F
100
AcDbEntity
  8
化粧台
  6
EXLTYPE2
 62
     6
100
AcDbCircle
 10
2381.60000000006
 20
1471.2
 30
0.0
 40
2.0
100
AcDbArc
 50
90.00000000000001
 51
180.0
  0
LINE
  5
38D
330
1F
100
AcDbEntity
  8
化粧台
  6
EXLTYPE2
 62
     6
100
AcDbLine
 10
2426.40000000006
 20
1471.2
 30
0.0
 11
2426.40000000006
 21
1455.200000000001
 31
0.0
  0
LINE
  5
38E
330
1F
100
AcDbEntity
  8
化粧台
  6
EXLTYPE2
 62
     6
100
AcDbLine
 10
2379.60000000006
 20
1471.2
 30
0.0
 11
2379.60000000006
 21
1455.200000000001
 31
0.0
  0
LINE
  5
38F
330
1F
100
AcDbEntity
  8
化粧台
  6
EXLTYPE2
 62
     6
100
AcDbLine
 10
2381.60000000006
 20
1473.200000000001
 30
0.0
 11
2424.40000000006
 21
1473.200000000001
 31
0.0
  0
LINE
  5
390
330
1F
100
AcDbEntity
  8
化粧台
  6
EXLTYPE2
 62
     6
100
AcDbLine
 10
2379.60000000006
 20
1455.200000000001
 30
0.0
 11
2426.40000000006
 21
1455.200000000001
 31
0.0
  0
LINE
  5
391
330
1F
100
AcDbEntity
  8
化粧台
  6
EXLTYPE2
 62
     6
100
AcDbLine
 10
2384.50000000006
 20
1420.200000000001
 30
0.0
 11
2387.15000000006
 21
1417.55
 31
0.0
  0
LINE
  5
392
330
1F
100
AcDbEntity
  8
化粧台
  6
EXLTYPE2
 62
     6
100
AcDbLine
 10
2421.50000000006
 20
1420.200000000001
 30
0.0
 11
2418.85000000006
 21
1417.55
 31
0.0
  0
LINE
  5
393
330
1F
100
AcDbEntity
  8
化粧台
  6
EXLTYPE2
 62
     6
100
AcDbLine
 10
2399.17812500006
 20
1352.225321960001
 30
0.0
 11
2399.17812500006
 21
1347.700000000001
 31
0.0
  0
LINE
  5
394
330
1F
100
AcDbEntity
  8
化粧台
  6
EXLTYPE2
 62
     6
100
AcDbLine
 10
2418.85000000006
 20
1417.55
 30
0.0
 11
2418.85000000006
 21
1377.200000000001
 31
0.0
  0
LINE
  5
395
330
1F
100
AcDbEntity
  8
化粧台
  6
EXLTYPE2
 62
     6
100
AcDbLine
 10
2387.15000000006
 20
1417.55
 30
0.0
 11
2387.15000000006
 21
1379.793254606
 31
0.0
  0
LINE
  5
396
330
1F
100
AcDbEntity
  8
化粧台
  6
EXLTYPE2
 62
     6
100
AcDbLine
 10
2421.50000000006
 20
1455.200000000001
 30
0.0
 11
2421.50000000006
 21
1420.200000000001
 31
0.0
  0
LINE
  5
397
330
1F
100
AcDbEntity
  8
化粧台
  6
EXLTYPE2
 62
     6
100
AcDbLine
 10
2384.50000000006
 20
1455.200000000001
 30
0.0
 11
2384.50000000006
 21
1420.200000000001
 31
0.0
  0
LINE
  5
398
330
1F
100
AcDbEntity
  8
化粧台
  6
EXLTYPE2
 62
     6
100
AcDbLine
 10
2387.15000000006
 20
1524.2
 30
0.0
 11
2387.15000000006
 21
1473.200000000001
 31
0.0
  0
LINE
  5
399
330
1F
100
AcDbEntity
  8
化粧台
  6
EXLTYPE2
 62
     6
100
AcDbLine
 10
2418.85000000006
 20
1524.2
 30
0.0
 11
2418.85000000006
 21
1473.200000000001
 31
0.0
  0
LINE
  5
39A
330
1F
100
AcDbEntity
  8
化粧台
  6
EXLTYPE2
 62
     6
100
AcDbLine
 10
2458.50000000006
 20
1067.34651697159
 30
0.0
 11
2458.50000000006
 21
1436.6
 31
0.0
  0
LINE
  5
39B
330
1F
100
AcDbEntity
  8
化粧台
  6
EXLTYPE2
 62
     6
100
AcDbLine
 10
2395.17812500006
 20
1331.200000000001
 30
0.0
 11
2408.630601860897
 21
1331.200000000001
 31
0.0
  0
LINE
  5
39C
330
1F
100
AcDbEntity
  8
化粧台
  6
EXLTYPE2
 62
     6
100
AcDbLine
 10
2393.678125000059
 20
1347.700000000001
 30
0.0
 11
2426.80000000006
 21
1347.700000000001
 31
0.0
  0
ARC
  5
39D
330
1F
100
AcDbEntity
  8
化粧台
  6
EXLTYPE2
 62
     6
100
AcDbCircle
 10
2423.250000000061
 20
1303.49999999996
 30
0.0
 40
7.500000000000006
100
AcDbArc
 50
0.0
 51
90.00000000000001
  0
LINE
  5
39E
330
1F
100
AcDbEntity
  8
化粧台
  6
EXLTYPE2
 62
     6
100
AcDbLine
 10
2419.500000000061
 20
1334.99999999996
 30
0.0
 11
2425.000000000061
 21
1334.99999999996
 31
0.0
  0
LINE
  5
39F
330
1F
100
AcDbEntity
  8
化粧台
  6
EXLTYPE2
 62
     6
100
AcDbLine
 10
2419.500000000061
 20
1310.99999999996
 30
0.0
 11
2423.250000000061
 21
1310.99999999996
 31
0.0
  0
LINE
  5
3A0
330
1F
100
AcDbEntity
  8
化粧台
  6
EXLTYPE2
 62
     6
100
AcDbLine
 10
2406.60000000006
 20
1328.299999999961
 30
0.0
 11
2406.60000000006
 21
1317.699999999961
 31
0.0
  0
LINE
  5
3A1
330
1F
100
AcDbEntity
  8
化粧台
  6
EXLTYPE2
 62
     6
100
AcDbLine
 10
2419.500000000061
 20
1335.74999999996
 30
0.0
 11
2419.500000000061
 21
1310.24999999996
 31
0.0
  0
ARC
  5
3A2
330
1F
100
AcDbEntity
  8
化粧台
  6
EXLTYPE2
 62
     6
100
AcDbCircle
 10
2415.72508278242
 20
1331.74999999996
 30
0.0
 40
5.5
100
AcDbArc
 50
46.65824177280091
 51
142.8123740608005
  0
LINE
  5
3A3
330
1F
100
AcDbEntity
  8
化粧台
  6
EXLTYPE2
 62
     6
100
AcDbLine
 10
2406.60000000006
 20
1328.299999999961
 30
0.0
 11
2411.343450177781
 21
1335.074348916351
 31
0.0
  0
ARC
  5
3A4
330
1F
100
AcDbEntity
  8
化粧台
  6
EXLTYPE2
 62
     6
100
AcDbCircle
 10
2415.72508278242
 20
1314.24999999996
 30
0.0
 40
5.5
100
AcDbArc
 50
217.1876259391994
 51
313.3417582272003
  0
LINE
  5
3A5
330
1F
100
AcDbEntity
  8
化粧台
  6
EXLTYPE2
 62
     6
100
AcDbLine
 10
2406.60000000006
 20
1317.699999999961
 30
0.0
 11
2411.343450177781
 21
1310.925651083571
 31
0.0
  0
LINE
  5
3A6
330
1F
100
AcDbEntity
  8
化粧台
  6
EXLTYPE2
 62
     6
100
AcDbLine
 10
2411.343450177781
 20
1335.074348916351
 30
0.0
 11
2411.343450177781
 21
1310.925651083471
 31
0.0
  0
LINE
  5
3A7
330
1F
100
AcDbEntity
  8
化粧台
  6
EXLTYPE2
 62
     6
100
AcDbLine
 10
2401.000000000061
 20
1318.24999999996
 30
0.0
 11
2406.60000000006
 21
1318.24999999996
 31
0.0
  0
LINE
  5
3A8
330
1F
100
AcDbEntity
  8
化粧台
  6
EXLTYPE2
 62
     6
100
AcDbLine
 10
2401.000000000061
 20
1327.74999999996
 30
0.0
 11
2406.60000000006
 21
1327.74999999996
 31
0.0
  0
LINE
  5
3A9
330
1F
100
AcDbEntity
  8
化粧台
  6
EXLTYPE2
 62
     6
100
AcDbLine
 10
2401.000000000061
 20
1327.74999999996
 30
0.0
 11
2401.000000000061
 21
1318.24999999996
 31
0.0
  0
ARC
  5
3AA
330
1F
100
AcDbEntity
  8
化粧台
  6
EXLTYPE2
 62
     6
100
AcDbCircle
 10
2416.000000000061
 20
1322.99999999996
 30
0.0
 40
40.0
100
AcDbArc
 50
352.1483099782984
 51
14.36151156291629
  0
ARC
  5
3AB
330
1F
100
AcDbEntity
  8
化粧台
  6
EXLTYPE2
 62
     6
100
AcDbCircle
 10
2495.250000000061
 20
1312.071253502763
 30
0.0
 40
40.0
100
AcDbArc
 50
172.1483099782986
 51
180.0
  0
LINE
  5
3AC
330
1F
100
AcDbEntity
  8
化粧台
  6
EXLTYPE2
 62
     6
100
AcDbLine
 10
2455.250000000061
 20
1287.999999999958
 30
0.0
 11
2457.7224318644
 21
1289.427459202387
 31
0.0
  0
ARC
  5
3AD
330
1F
100
AcDbEntity
  8
化粧台
  6
EXLTYPE2
 62
     6
100
AcDbCircle
 10
2462.750000000061
 20
1302.865389352135
 30
0.0
 40
7.500000000000006
100
AcDbArc
 50
180.0
 51
227.9065017039047
  0
LINE
  5
3AE
330
1F
100
AcDbEntity
  8
化粧台
  6
EXLTYPE2
 62
     6
100
AcDbLine
 10
2455.250000000061
 20
1312.071253502763
 30
0.0
 11
2455.250000000061
 21
1302.865389352135
 31
0.0
  0
LINE
  5
3AF
330
1F
100
AcDbEntity
  8
化粧台
  6
EXLTYPE2
 62
     6
100
AcDbLine
 10
2457.7224318644
 20
1289.42745920239
 30
0.0
 11
2457.7224318644
 21
1297.299999999961
 31
0.0
  0
LINE
  5
3B0
330
1F
100
AcDbEntity
  8
化粧台
  6
EXLTYPE2
 62
     6
100
AcDbLine
 10
2430.750000000058
 20
1287.999999999958
 30
0.0
 11
2428.277568135719
 21
1289.427459202387
 31
0.0
  0
ARC
  5
3B1
330
1F
100
AcDbEntity
  8
化粧台
  6
EXLTYPE2
 62
     6
100
AcDbCircle
 10
2423.250000000061
 20
1302.865389352135
 30
0.0
 40
7.500000000000006
100
AcDbArc
 50
312.0934982960959
 51
0.0
  0
LINE
  5
3B2
330
1F
100
AcDbEntity
  8
化粧台
  6
EXLTYPE2
 62
     6
100
AcDbLine
 10
2428.277568135719
 20
1289.42745920239
 30
0.0
 11
2428.277568135719
 21
1297.299999999961
 31
0.0
  0
LINE
  5
3B3
330
1F
100
AcDbEntity
  8
化粧台
  6
EXLTYPE2
 62
     6
100
AcDbLine
 10
2455.250000000069
 20
1287.99999999996
 30
0.0
 11
2430.75000000005
 21
1287.99999999996
 31
0.0
  0
ARC
  5
3B4
330
1F
100
AcDbEntity
  8
化粧台
  6
EXLTYPE2
 62
     6
100
AcDbCircle
 10
2444.750000000061
 20
1351.699999999961
 30
0.0
 40
11.0
100
AcDbArc
 50
326.9442688491002
 51
33.05573115089991
  0
LINE
  5
3B5
330
1F
100
AcDbEntity
  8
化粧台
  6
EXLTYPE2
 62
     6
100
AcDbLine
 10
2453.969544457351
 20
1357.699999999961
 30
0.0
 11
2432.03045554277
 21
1357.699999999961
 31
0.0
  0
ARC
  5
3B6
330
1F
100
AcDbEntity
  8
化粧台
  6
EXLTYPE2
 62
     6
100
AcDbCircle
 10
2441.250000000061
 20
1351.699999999961
 30
0.0
 40
11.0
100
AcDbArc
 50
146.9442688491499
 51
213.0557311508992
  0
LINE
  5
3B7
330
1F
100
AcDbEntity
  8
化粧台
  6
EXLTYPE2
 62
     6
100
AcDbLine
 10
2437.53178353706
 20
1331.200000000001
 30
0.0
 11
2437.53178353706
 21
1347.700000000001
 31
0.0
  0
LINE
  5
3B8
330
1F
100
AcDbEntity
  8
化粧台
  6
EXLTYPE2
 62
     6
100
AcDbLine
 10
2430.750000000061
 20
1303.49999999996
 30
0.0
 11
2430.750000000061
 21
1302.865389352135
 31
0.0
  0
LINE
  5
3B9
330
1F
100
AcDbEntity
  8
化粧台
  6
EXLTYPE2
 62
     6
100
AcDbLine
 10
2449.000000000058
 20
1357.699999999959
 30
0.0
 11
2449.000000000058
 21
1575.022837084935
 31
0.0
  0
LINE
  5
3BA
330
1F
100
AcDbEntity
  8
化粧台
  6
EXLTYPE2
 62
     6
100
AcDbLine
 10
2437.000000000061
 20
1357.699999999959
 30
0.0
 11
2437.000000000061
 21
1570.0
 31
0.0
  0
LINE
  5
3BB
330
1F
100
AcDbEntity
  8
化粧台
  6
EXLTYPE2
 62
     6
100
AcDbLine
 10
2432.500000000061
 20
1287.99999999996
 30
0.0
 11
2432.500000000061
 21
1006.49999999996
 31
0.0
  0
ARC
  5
3BC
330
1F
100
AcDbEntity
  8
化粧台
  6
EXLTYPE2
 62
     6
100
AcDbCircle
 10
2384.37655090056
 20
1377.2129706584
 30
0.0
 40
40.0
100
AcDbArc
 50
323.8562114902995
 51
0.0
  0
LINE
  5
3BD
330
1F
100
AcDbEntity
  8
化粧台
  6
EXLTYPE2
 62
     6
100
AcDbLine
 10
2424.37655090056
 20
1427.2
 30
0.0
 11
2424.37655090056
 21
1377.2129706584
 31
0.0
  0
LINE
  5
3BE
330
1F
100
AcDbEntity
  8
化粧台
  6
EXLTYPE2
 62
     6
100
AcDbLine
 10
2421.50000000006
 20
1425.200000000001
 30
0.0
 11
2424.37655090056
 21
1425.200000000001
 31
0.0
  0
LINE
  5
3BF
330
1F
100
AcDbEntity
  8
化粧台
  6
EXLTYPE2
 62
     6
100
AcDbLine
 10
2418.85000000006
 20
1407.200000000001
 30
0.0
 11
2424.37655090056
 21
1407.200000000001
 31
0.0
  0
LINE
  5
3C0
330
1F
100
AcDbEntity
  8
化粧台
  6
EXLTYPE2
 62
     6
100
AcDbLine
 10
2418.85000000006
 20
1382.200000000001
 30
0.0
 11
2424.37655090056
 21
1382.200000000001
 31
0.0
  0
ARC
  5
3C1
330
1F
100
AcDbEntity
  8
化粧台
  6
EXLTYPE2
 62
     6
100
AcDbCircle
 10
2425.58827545031
 20
1426.8
 30
0.0
 40
1.211724549749761
100
AcDbArc
 50
0.0
 51
180.0
  0
ARC
  5
3C2
330
1F
100
AcDbEntity
  8
化粧台
  6
EXLTYPE2
 62
     6
100
AcDbCircle
 10
2493.500000000061
 20
1342.843134832945
 30
0.0
 40
40.0
100
AcDbArc
 50
180.0
 51
194.3615115629164
  0
LINE
  5
3C3
330
1F
100
AcDbEntity
  8
化粧台
  6
EXLTYPE2
 62
     6
100
AcDbLine
 10
2453.969544457351
 20
1345.699999999961
 30
0.0
 11
2432.03045554277
 21
1345.699999999961
 31
0.0
  0
LINE
  5
3C4
330
1F
100
AcDbEntity
  8
化粧台
  6
EXLTYPE2
 62
     6
100
AcDbLine
 10
2432.500000000061
 20
1345.699999999961
 30
0.0
 11
2432.500000000061
 21
1342.49999999996
 31
0.0
  0
LINE
  5
3C5
330
1F
100
AcDbEntity
  8
化粧台
  6
EXLTYPE2
 62
     6
100
AcDbLine
 10
2453.500000000061
 20
1345.699999999961
 30
0.0
 11
2453.500000000061
 21
1342.843134832941
 31
0.0
  0
ARC
  5
3C6
330
1F
100
AcDbEntity
  8
化粧台
  6
EXLTYPE2
 62
     6
100
AcDbCircle
 10
2425.000000000021
 20
1342.5
 30
0.0
 40
7.500000000038202
100
AcDbArc
 50
270.0000000000002
 51
0.0
  0
LINE
  5
3C7
330
1F
100
AcDbEntity
  8
化粧台
  6
EXLTYPE2
 62
     6
100
AcDbLine
 10
2426.80000000006
 20
1427.028125000001
 30
0.0
 11
2426.80000000006
 21
1335.219203340263
 31
0.0
  0
LINE
  5
3C8
330
1F
100
AcDbEntity
  8
化粧台
  6
EXLTYPE2
 62
     6
100
AcDbLine
 10
2426.80000000006
 20
1310.106625462327
 30
0.0
 11
2426.80000000006
 21
1067.34651697159
 31
0.0
  0
LINE
  5
3C9
330
1F
100
AcDbEntity
  8
化粧台
  6
EXLTYPE2
 62
     6
100
AcDbLine
 10
2396.000005722062
 20
1322.99999999996
 30
0.0
 11
2460.725004796359
 21
1322.99999999996
 31
0.0
  0
ARC
  5
3CA
330
1F
100
AcDbEntity
  8
化粧台
  6
EXLTYPE2
 62
     6
100
AcDbCircle
 10
2433.88500555156
 20
1436.950345822979
 30
0.0
 40
24.61499444850051
100
AcDbArc
 50
0.0
 51
52.11661267612578
  0
ARC
  5
3CB
330
1F
100
AcDbEntity
  8
化粧台
  6
EXLTYPE2
 62
     6
100
AcDbCircle
 10
2433.88500555156
 20
1436.950345822979
 30
0.0
 40
24.61499444850051
100
AcDbArc
 50
82.72980252722901
 51
107.7030137526023
  0
LINE
  5
3CC
330
1F
100
AcDbEntity
  8
化粧台
  6
EXLTYPE2
 62
     6
100
AcDbLine
 10
2374.50000000006
 20
1566.2
 30
0.0
 11
2379.725000000014
 21
1569.49999999997
 31
0.0
  0
LINE
  5
3CD
330
1F
100
AcDbEntity
  8
化粧台
  6
EXLTYPE2
 62
     6
100
AcDbLine
 10
2426.275000000107
 20
1569.49999999997
 30
0.0
 11
2431.50000000006
 21
1566.2
 31
0.0
  0
LINE
  5
3CE
330
1F
100
AcDbEntity
  8
化粧台
  6
EXLTYPE2
 62
     6
100
AcDbLine
 10
2494.800000000092
 20
1080.999999999959
 30
0.0
 11
2494.800000000092
 21
1040.999999999956
 31
0.0
  0
LINE
  5
3CF
330
1F
100
AcDbEntity
  8
化粧台
  6
EXLTYPE2
 62
     6
100
AcDbLine
 10
2494.800000000092
 20
1040.999999999956
 30
0.0
 11
2509.80000000014
 21
1040.999999999956
 31
0.0
  0
LINE
  5
3D0
330
1F
100
AcDbEntity
  8
化粧台
  6
EXLTYPE2
 62
     6
100
AcDbLine
 10
2509.80000000014
 20
1083.50000000005
 30
0.0
 11
2509.80000000014
 21
1040.999999999956
 31
0.0
  0
LINE
  5
3D1
330
1F
100
AcDbEntity
  8
化粧台
  6
EXLTYPE2
 62
     6
100
AcDbLine
 10
2426.800000000059
 20
1083.500000000047
 30
0.0
 11
2351.000000000201
 21
1083.500000000047
 31
0.0
  0
LINE
  5
3D2
330
1F
100
AcDbEntity
  8
化粧台
  6
EXLTYPE2
 62
     6
100
AcDbLine
 10
2426.800000000059
 20
1081.000000000027
 30
0.0
 11
2351.000000000201
 21
1081.000000000027
 31
0.0
  0
LINE
  5
3D3
330
1F
100
AcDbEntity
  8
化粧台
  6
EXLTYPE2
 62
     6
100
AcDbLine
 10
2509.80000000014
 20
1083.500000000047
 30
0.0
 11
2458.50000000006
 21
1083.500000000047
 31
0.0
  0
LINE
  5
3D4
330
1F
100
AcDbEntity
  8
化粧台
  6
EXLTYPE2
 62
     6
100
AcDbLine
 10
2509.80000000012
 20
1081.000000000027
 30
0.0
 11
2458.50000000006
 21
1081.000000000027
 31
0.0
  0
LINE
  5
3D5
330
1F
100
AcDbEntity
  8
化粧台
  6
EXLTYPE2
 62
     6
100
AcDbLine
 10
2365.614423314602
 20
1569.49999999997
 30
0.0
 11
2403.000000000114
 21
1569.49999999997
 31
0.0
  0
LINE
  5
3D6
330
1F
100
AcDbEntity
  8
化粧台
  6
EXLTYPE2
 62
     6
100
AcDbLine
 10
2403.0000000001
 20
1569.49999999997
 30
0.0
 11
2440.385576685625
 21
1569.49999999997
 31
0.0
  0
LINE
  5
3D7
330
1F
100
AcDbEntity
  8
化粧台
  6
EXLTYPE2
 62
     6
100
AcDbLine
 10
2356.621924411517
 20
1606.8933644245
 30
0.0
 11
2435.863934228297
 21
1606.8933644245
 31
0.0
  0
LINE
  5
3D8
330
1F
100
AcDbEntity
  8
化粧台
  6
EXLTYPE2
 62
     6
100
AcDbLine
 10
2525.933934172085
 20
1584.42367166559
 30
0.0
 11
2435.946250350601
 21
1607.218328180045
 31
0.0
  0
ARC
  5
3D9
330
1F
100
AcDbEntity
  8
化粧台
  6
EXLTYPE2
 62
     6
100
AcDbCircle
 10
2446.728208929504
 20
1629.97589855863
 30
0.0
 40
55.00000000000004
100
AcDbArc
 50
274.9999999999988
 51
319.0903700927721
  0
LINE
  5
3DA
330
1F
100
AcDbEntity
  8
化粧台
  6
CONTINUOUS
 62
     2
100
AcDbLine
 10
2528.0000000001
 20
1589.49999999997
 30
0.0
 11
2528.0000000001
 21
983.0000000000001
 31
0.0
  0
LINE
  5
3DB
330
1F
100
AcDbEntity
  8
化粧台
  6
EXLTYPE2
 62
     6
100
AcDbLine
 10
2366.000000000199
 20
1069.000000000032
 30
0.0
 11
2271.0000000002
 21
1069.000000000032
 31
0.0
  0
LINE
  5
3DC
330
1F
100
AcDbEntity
  8
化粧台
  6
EXLTYPE2
 62
     6
100
AcDbLine
 10
2271.0000000002
 20
1084.000000000032
 30
0.0
 11
2271.0000000002
 21
1069.000000000032
 31
0.0
  0
LINE
  5
3DD
330
1F
100
AcDbEntity
  8
化粧台
  6
EXLTYPE2
 62
     6
100
AcDbLine
 10
2351.0000000002
 20
1084.000000000032
 30
0.0
 11
2271.0000000002
 21
1084.000000000032
 31
0.0
  0
LINE
  5
3DE
330
1F
100
AcDbEntity
  8
化粧台
  6
EXLTYPE2
 62
     6
100
AcDbLine
 10
2271.000000000126
 20
1070.0
 30
0.0
 11
2271.000000000126
 21
983.0000000000001
 31
0.0
  0
LINE
  5
3DF
330
1F
100
AcDbEntity
  8
化粧台
  6
EXLTYPE2
 62
     6
100
AcDbLine
 10
2286.000000000126
 20
1069.000000000032
 30
0.0
 11
2286.000000000126
 21
983.0000000000001
 31
0.0
  0
LINE
  5
3E0
330
1F
100
AcDbEntity
  8
化粧台
  6
EXLTYPE2
 62
     6
100
AcDbLine
 10
2366.000000000199
 20
1081.000000000033
 30
0.0
 11
2351.0000000002
 21
1081.000000000033
 31
0.0
  0
LINE
  5
3E1
330
1F
100
AcDbEntity
  8
化粧台
  6
EXLTYPE2
 62
     6
100
AcDbLine
 10
2351.0000000002
 20
1084.000000000032
 30
0.0
 11
2351.0000000002
 21
1081.000000000033
 31
0.0
  0
LINE
  5
3E2
330
1F
100
AcDbEntity
  8
化粧台
  6
EXLTYPE2
 62
     6
100
AcDbLine
 10
2366.000000000199
 20
1081.000000000033
 30
0.0
 11
2366.000000000199
 21
1069.000000000032
 31
0.0
  0
LINE
  5
3E3
330
1F
100
AcDbEntity
  8
化粧台
  6
EXLTYPE2
 62
     6
100
AcDbLine
 10
2351.0000000002
 20
1083.500000000047
 30
0.0
 11
2351.0000000002
 21
1081.000000000047
 31
0.0
  0
LINE
  5
3E4
330
1F
100
AcDbEntity
  8
化粧台
  6
CONTINUOUS
 62
     2
100
AcDbLine
 10
2494.000000000111
 20
983.0000000000001
 30
0.0
 11
2494.000000000111
 21
979.5000000000001
 31
0.0
  0
LINE
  5
3E5
330
1F
100
AcDbEntity
  8
化粧台
  6
CONTINUOUS
 62
     2
100
AcDbLine
 10
2482.0000000001
 20
983.0000000000001
 30
0.0
 11
2482.0000000001
 21
979.5000000000001
 31
0.0
  0
LINE
  5
3E6
330
1F
100
AcDbEntity
  8
化粧台
  6
CONTINUOUS
 62
     2
100
AcDbLine
 10
2482.000000000099
 20
979.5000000000001
 30
0.0
 11
2494.0000000001
 21
979.5000000000001
 31
0.0
  0
LINE
  5
3E7
330
1F
100
AcDbEntity
  8
化粧台
  6
CONTINUOUS
 62
     2
100
AcDbLine
 10
2242.875230942404
 20
1706.630311672887
 30
0.0
 11
2238.207948429597
 21
1599.282813878659
 31
0.0
  0
LINE
  5
3E8
330
1F
100
AcDbEntity
  8
化粧台
  6
CONTINUOUS
 62
     2
100
AcDbLine
 10
2245.87239941746
 20
1709.500000000058
 30
0.0
 11
2528.000000000099
 21
1709.500000000058
 31
0.0
  0
ARC
  5
3E9
330
1F
100
AcDbEntity
  8
化粧台
  6
CONTINUOUS
 62
     2
100
AcDbCircle
 10
2245.87239941746
 20
1706.500000000058
 30
0.0
 40
3.000000000000002
100
AcDbArc
 50
90.00000000000001
 51
177.5104470780026
  0
ARC
  5
3EA
330
1F
100
AcDbEntity
  8
化粧台
  6
CONTINUOUS
 62
     2
100
AcDbCircle
 10
2239.692817974039
 20
1702.500000000058
 30
0.0
 40
3.000000000000002
100
AcDbArc
 50
270.0000000000002
 51
357.5104470780028
  0
LINE
  5
3EB
330
1F
100
AcDbEntity
  8
化粧台
  6
CONTINUOUS
 62
     2
100
AcDbLine
 10
2235.535462764283
 20
1699.500000000058
 30
0.0
 11
2239.692817974039
 21
1699.500000000058
 31
0.0
  0
ARC
  5
3EC
330
1F
100
AcDbEntity
  8
化粧台
  6
CONTINUOUS
 62
     2
100
AcDbCircle
 10
2235.535462764283
 20
1702.500000000058
 30
0.0
 40
3.000000000000002
100
AcDbArc
 50
189.5940682268655
 51
270.0000000000002
  0
ARC
  5
3ED
330
1F
100
AcDbEntity
  8
化粧台
  6
CONTINUOUS
 62
     2
100
AcDbCircle
 10
2233.000000000098
 20
1729.500000000058
 30
0.0
 40
5.0
100
AcDbArc
 50
180.0000000000002
 51
189.5940682268592
  0
LINE
  5
3EE
330
1F
100
AcDbEntity
  8
化粧台
  6
CONTINUOUS
 62
     2
100
AcDbLine
 10
2228.06993351418
 20
1728.666666666726
 30
0.0
 11
2232.577422872733
 21
1702.000000000058
 31
0.0
  0
ARC
  5
3EF
330
1F
100
AcDbEntity
  8
化粧台
  6
CONTINUOUS
 62
     2
100
AcDbCircle
 10
2163.000000000098
 20
1724.500000000058
 30
0.0
 40
5.0
100
AcDbArc
 50
90.00000000000001
 51
183.5724826096913
  0
ARC
  5
3F0
330
1F
100
AcDbEntity
  8
化粧台
  6
CONTINUOUS
 62
     2
100
AcDbCircle
 10
2163.000000000098
 20
2217.000000000058
 30
0.0
 40
487.4999999999997
100
AcDbArc
 50
270.0000000000002
 51
277.6622556607654
  0
ARC
  5
3F1
330
1F
100
AcDbEntity
  8
化粧台
  6
CONTINUOUS
 62
     2
100
AcDbCircle
 10
2233.000000000098
 20
1734.500000000058
 30
0.0
 40
5.0
100
AcDbArc
 50
90.00000000000001
 51
180.0000000000002
  0
ARC
  5
3F2
330
1F
100
AcDbEntity
  8
化粧台
  6
CONTINUOUS
 62
     2
100
AcDbCircle
 10
2244.355281156228
 20
1625.562822258888
 30
0.0
 40
5.0
100
AcDbArc
 50
62.78007261292363
 51
177.5104470779939
  0
ARC
  5
3F3
330
1F
100
AcDbEntity
  8
化粧台
  6
CONTINUOUS
 62
     2
100
AcDbCircle
 10
2327.679366995557
 20
1734.781346505984
 30
0.0
 40
170.0
100
AcDbArc
 50
183.5724826096917
 51
235.0734784673748
  0
ARC
  5
3F4
330
1F
100
AcDbEntity
  8
化粧台
  6
CONTINUOUS
 62
     2
100
AcDbCircle
 10
2233.212667637827
 20
1599.500000000058
 30
0.0
 40
5.0
100
AcDbArc
 50
235.0734784673726
 51
357.5104470780592
  0
ARC
  5
3F5
330
1F
100
AcDbEntity
  8
化粧台
  6
CONTINUOUS
 62
     2
100
AcDbCircle
 10
2501.70788147549
 20
1759.500000000058
 30
0.0
 40
5.0
100
AcDbArc
 50
90.00000000000001
 51
163.1195105726872
  0
LINE
  5
3F6
330
1F
100
AcDbEntity
  8
化粧台
  6
CONTINUOUS
 62
     2
100
AcDbLine
 10
2528.000000000099
 20
1764.500000000058
 30
0.0
 11
2501.70788147549
 21
1764.500000000058
 31
0.0
  0
LINE
  5
3F7
330
1F
100
AcDbEntity
  8
化粧台
  6
CONTINUOUS
 62
     2
100
AcDbLine
 10
2496.923318877604
 20
1760.951881795147
 30
0.0
 11
2491.490398336114
 21
1743.048118204972
 31
0.0
  0
ARC
  5
3F8
330
1F
100
AcDbEntity
  8
化粧台
  6
CONTINUOUS
 62
     2
100
AcDbCircle
 10
2486.705835738226
 20
1744.500000000058
 30
0.0
 40
5.0
100
AcDbArc
 50
270.0000000000002
 51
343.1195105726896
  0
LINE
  5
3F9
330
1F
100
AcDbEntity
  8
化粧台
  6
CONTINUOUS
 62
     2
100
AcDbLine
 10
2486.705835738226
 20
1739.500000000058
 30
0.0
 11
2233.000000000098
 21
1739.500000000058
 31
0.0
  0
LINE
  5
3FA
330
1F
100
AcDbEntity
  8
化粧台
  6
CONTINUOUS
 62
     2
100
AcDbLine
 10
2228.000000000098
 20
1729.500000000058
 30
0.0
 11
2228.000000000098
 21
1734.500000000058
 31
0.0
  0
LINE
  5
3FB
330
1F
100
AcDbEntity
  8
化粧台
  6
CONTINUOUS
 62
     2
100
AcDbLine
 10
2528.000000000099
 20
1764.500000000058
 30
0.0
 11
2528.000000000099
 21
1709.500000000058
 31
0.0
  0
LINE
  5
3FC
330
1F
100
AcDbEntity
  8
化粧台
  6
CONTINUOUS
 62
     2
100
AcDbLine
 10
2248.000000000095
 20
1706.50000000004
 30
0.0
 11
2268.500000000095
 21
1706.50000000004
 31
0.0
  0
LINE
  5
3FD
330
1F
100
AcDbEntity
  8
化粧台
  6
CONTINUOUS
 62
     2
100
AcDbLine
 10
2268.500000000095
 20
1709.50000000004
 30
0.0
 11
2528.000000000095
 21
1709.50000000004
 31
0.0
  0
ARC
  5
3FE
330
1F
100
AcDbEntity
  8
化粧台
  6
CONTINUOUS
 62
     2
100
AcDbCircle
 10
2501.707881475509
 20
1759.50000000006
 30
0.0
 40
5.0
100
AcDbArc
 50
90.00000000000001
 51
163.1195105726872
  0
LINE
  5
3FF
330
1F
100
AcDbEntity
  8
化粧台
  6
CONTINUOUS
 62
     2
100
AcDbLine
 10
2528.000000000117
 20
1764.50000000006
 30
0.0
 11
2501.707881475509
 21
1764.50000000006
 31
0.0
  0
LINE
  5
400
330
1F
100
AcDbEntity
  8
化粧台
  6
CONTINUOUS
 62
     6
100
AcDbLine
 10
2403.000000000119
 20
1846.557813855932
 30
0.0
 11
2453.000000000121
 21
1846.557813855919
 31
0.0
  0
ARC
  5
401
330
1F
100
AcDbEntity
  8
化粧台
  6
CONTINUOUS
 62
     6
100
AcDbCircle
 10
2451.000000000121
 20
1841.02173913046
 30
0.0
 40
2.0
100
AcDbArc
 50
0.0
 51
91.59964278381122
  0
ARC
  5
402
330
1F
100
AcDbEntity
  8
化粧台
  6
CONTINUOUS
 62
     6
100
AcDbCircle
 10
2405.000000000121
 20
1841.02173913046
 30
0.0
 40
2.0
100
AcDbArc
 50
90.00000000000001
 51
180.0
  0
LINE
  5
403
330
1F
100
AcDbEntity
  8
化粧台
  6
CONTINUOUS
 62
     6
100
AcDbLine
 10
2405.084007032257
 20
1843.02173913046
 30
0.0
 11
2405.000000000121
 21
1843.02173913046
 31
0.0
  0
ARC
  5
404
330
1F
100
AcDbEntity
  8
化粧台
  6
CONTINUOUS
 62
     6
100
AcDbCircle
 10
2428.020088785123
 20
1838.904498289357
 30
0.0
 40
22.5
100
AcDbArc
 50
160.1141478017074
 51
169.4561605025638
  0
ARC
  5
405
330
1F
100
AcDbEntity
  8
化粧台
  6
CONTINUOUS
 62
     6
100
AcDbCircle
 10
2427.979911215119
 20
1838.904498289357
 30
0.0
 40
22.5
100
AcDbArc
 50
10.54189726956417
 51
19.88585219825839
  0
LINE
  5
406
330
1F
100
AcDbEntity
  8
化粧台
  6
CONTINUOUS
 62
     6
100
AcDbLine
 10
2453.000000000119
 20
1883.867490143846
 30
0.0
 11
2453.000000000119
 21
1846.557813855927
 31
0.0
  0
LINE
  5
407
330
1F
100
AcDbEntity
  8
化粧台
  6
CONTINUOUS
 62
     6
100
AcDbLine
 10
2403.000000000119
 20
1883.867490143846
 30
0.0
 11
2403.000000000119
 21
1846.557813855929
 31
0.0
  0
LINE
  5
408
330
1F
100
AcDbEntity
  8
化粧台
  6
CONTINUOUS
 62
     6
100
AcDbLine
 10
2405.000000000121
 20
1843.02173913046
 30
0.0
 11
2450.94416918701
 21
1843.020959708661
 31
0.0
  0
LINE
  5
409
330
1F
100
AcDbEntity
  8
化粧台
  6
CONTINUOUS
 62
     6
100
AcDbLine
 10
2403.000000000121
 20
1837.02173913046
 30
0.0
 11
2453.000000000119
 21
1837.02173913046
 31
0.0
  0
ARC
  5
40A
330
1F
100
AcDbEntity
  8
化粧台
  6
CONTINUOUS
 62
     6
100
AcDbCircle
 10
2428.000000000121
 20
1706.537740023554
 30
0.0
 40
179.0833333331875
100
AcDbArc
 50
81.97531013013935
 51
98.02468986986145
  0
LINE
  5
40B
330
1F
100
AcDbEntity
  8
化粧台
  6
CONTINUOUS
 62
     6
100
AcDbLine
 10
2420.500000000121
 20
1885.463954642109
 30
0.0
 11
2420.500000000121
 21
1888.65145459353
 31
0.0
  0
LINE
  5
40C
330
1F
100
AcDbEntity
  8
化粧台
  6
CONTINUOUS
 62
     6
100
AcDbLine
 10
2435.500000000121
 20
1885.463954642109
 30
0.0
 11
2435.500000000121
 21
1888.65145459353
 31
0.0
  0
ELLIPSE
  5
40D
330
1F
100
AcDbEntity
  8
化粧台
  6
CONTINUOUS
 62
     6
100
AcDbEllipse
 10
2428.000000000121
 20
1888.65145459353
 30
0.0
 11
-7.500000000000006
 21
9.184850993605156E-16
 31
0.0
210
0.0
220
0.0
230
1.0
 40
0.9636802955882259
 41
3.141592653589793
 42
6.283185307179586
  0
LINE
  5
40E
330
1F
100
AcDbEntity
  8
化粧台
  6
CONTINUOUS
 62
     6
100
AcDbLine
 10
2403.000000000119
 20
1841.02173913046
 30
0.0
 11
2403.000000000119
 21
1739.499999999958
 31
0.0
  0
LINE
  5
40F
330
1F
100
AcDbEntity
  8
化粧台
  6
CONTINUOUS
 62
     6
100
AcDbLine
 10
2453.000000000119
 20
1841.02173913046
 30
0.0
 11
2453.000000000119
 21
1739.499999999958
 31
0.0
  0
LINE
  5
410
330
1F
100
AcDbEntity
  8
化粧台
  6
CONTINUOUS
 62
     2
100
AcDbLine
 10
2247.5000000001
 20
1568.0
 30
0.0
 11
2247.5000000001
 21
1706.5
 31
0.0
  0
LINE
  5
411
330
1F
100
AcDbEntity
  8
化粧台
  6
CONTINUOUS
 62
     2
100
AcDbLine
 10
2268.0000000001
 20
983.0000000000001
 30
0.0
 11
2268.0000000001
 21
1706.5
 31
0.0
  0
ARC
  5
412
330
1F
100
AcDbEntity
  8
化粧台
  6
EXLTYPE2
 62
     6
100
AcDbCircle
 10
2335.836728576406
 20
1803.414290562865
 30
0.0
 40
195.0000000000001
100
AcDbArc
 50
249.6422585559242
 51
265.0000000000005
  0
LINE
  5
413
330
1F
100
AcDbEntity
  8
化粧台
  6
EXLTYPE3
 62
     6
100
AcDbLine
 10
2558.400000000001
 20
1299.599999999998
 30
0.0
 11
2479.400000000197
 21
1299.599999999998
 31
0.0
  0
DIMENSION
  5
414
330
1F
100
AcDbEntity
  8
化粧台
  6
CONTINUOUS
 62
     3
100
AcDbDimension
  2
*D36
 10
2528.0000000001
 20
1968.0
 30
0.0
 11
2648.0000000001
 21
2003.249999910593
 31
0.0
 70
   160
  3
ISO-25
100
AcDbAlignedDimension
 13
2428.0000000001
 23
1774.5
 33
0.0
 14
2528.0000000001
 24
1975.5
 34
0.0
100
AcDbRotatedDimension
1001
ACAD
1000
DSTYLE
1002
{
1070
   270
1070
     2
1070
     6
1000
EX_NORM
1070
     7
1000
EX_NORM
1070
    41
1040
44.99999618530273
1070
    42
1040
10.49999982118607
1070
    44
1040
15.0
1070
    73
1070
     0
1070
    74
1070
     0
1070
    75
1070
     0
1070
    76
1070
     0
1070
    77
1070
     1
1070
    78
1070
     8
1070
   140
1040
59.99999618530273
1070
   147
1040
0.0
1070
   173
1070
     1
1070
   176
1070
     3
1070
   177
1070
     3
1070
   178
1070
     2
1070
   271
1070
     1
1070
   277
1070
     2
1070
   279
1070
     2
1070
   280
1070
     2
1070
   287
1070
     5
1070
   340
1005
118
1002
}
  0
LINE
  5
421
330
1F
100
AcDbEntity
  8
化粧台
  6
EXLTYPE3
 62
     6
100
AcDbLine
 10
1025.000000000138
 20
1825.5
 30
0.0
 11
1025.000000000138
 21
964.5
 31
0.0
  0
LINE
  5
422
330
1F
100
AcDbEntity
  8
化粧台
  6
EXLTYPE4
 62
     6
100
AcDbLine
 10
1714.5
 20
979.5
 30
0.0
 11
425.0000000001366
 21
979.5
 31
0.0
  0
LINE
  5
423
330
1F
100
AcDbEntity
  8
化粧台
  6
EXLTYPE4
 62
     6
100
AcDbLine
 10
2528.000000000097
 20
979.5
 30
0.0
 11
2098.5
 21
979.5
 31
0.0
  0
LINE
  5
424
330
1F
100
AcDbEntity
  8
化粧台
  6
EXLTYPE4
 62
     6
100
AcDbLine
 10
498.0000000000001
 20
3815.5
 30
0.0
 11
1698.000000000133
 21
3815.5
 31
0.0
  0
LINE
  5
425
330
1F
100
AcDbEntity
  8
化粧台
  6
EXLTYPE2
 62
     6
100
AcDbLine
 10
2427.150000000059
 20
1006.49999999996
 30
0.0
 11
2427.150000000059
 21
983.0000000000002
 31
0.0
  0
LINE
  5
426
330
1F
100
AcDbEntity
  8
化粧台
  6
EXLTYPE2
 62
     6
100
AcDbLine
 10
2432.500000000061
 20
1006.49999999996
 30
0.0
 11
2432.500000000061
 21
983.0000000000002
 31
0.0
  0
LINE
  5
427
330
1F
100
AcDbEntity
  8
化粧台
  6
EXLTYPE2
 62
     6
100
AcDbLine
 10
2453.500000000061
 20
1287.99999999996
 30
0.0
 11
2453.500000000061
 21
983.0000000000002
 31
0.0
  0
LINE
  5
428
330
1F
100
AcDbEntity
  8
化粧台
  6
EXLTYPE2
 62
     6
100
AcDbLine
 10
2458.850000000063
 20
982.9999999999936
 30
0.0
 11
2458.850000000064
 21
1006.49999999996
 31
0.0
  0
LINE
  5
429
330
1F
100
AcDbEntity
  8
化粧台
  6
CONTINUOUS
 62
     6
100
AcDbLine
 10
2427.150000000061
 20
945.5
 30
0.0
 11
2458.850000000062
 21
945.5
 31
0.0
  0
LINE
  5
42A
330
1F
100
AcDbEntity
  8
化粧台
  6
CONTINUOUS
 62
     6
100
AcDbLine
 10
2427.150000000059
 20
979.5
 30
0.0
 11
2427.150000000059
 21
945.5
 31
0.0
  0
LINE
  5
42B
330
1F
100
AcDbEntity
  8
化粧台
  6
CONTINUOUS
 62
     6
100
AcDbLine
 10
2458.850000000062
 20
945.5
 30
0.0
 11
2458.850000000063
 21
979.5000000000023
 31
0.0
  0
LINE
  5
42C
330
1F
100
AcDbEntity
  8
化粧台
  6
CONTINUOUS
 62
     6
100
AcDbLine
 10
2432.500000000061
 20
979.5
 30
0.0
 11
2432.500000000061
 21
967.5
 31
0.0
  0
LINE
  5
42D
330
1F
100
AcDbEntity
  8
化粧台
  6
CONTINUOUS
 62
     6
100
AcDbLine
 10
2453.500000000061
 20
979.5
 30
0.0
 11
2453.500000000061
 21
967.5
 31
0.0
  0
LINE
  5
42E
330
1F
100
AcDbEntity
  8
化粧台
  6
CONTINUOUS
 62
     6
100
AcDbLine
 10
2432.5000000001
 20
967.5
 30
0.0
 11
2453.5000000001
 21
967.5
 31
0.0
  0
LINE
  5
42F
330
1F
100
AcDbEntity
  8
化粧台
  6
EXLTYPE2
 62
     6
100
AcDbLine
 10
2443.0000000001
 20
1077.346516971587
 30
0.0
 11
2443.0000000001
 21
938.25
 31
0.0
  0
LINE
  5
430
330
1F
100
AcDbEntity
  8
化粧台
  6
CONTINUOUS
 62
     3
100
AcDbLine
 10
1024.0000000001
 20
1077.999999880831
 30
0.0
 11
1024.0000000001
 21
1167.500000119209
 31
0.0
  0
LINE
  5
431
330
1F
100
AcDbEntity
  8
化粧台
  6
CONTINUOUS
 62
     3
100
AcDbLine
 10
1026.000000000141
 20
1077.999999880791
 30
0.0
 11
1026.000000000141
 21
1167.299999713898
 31
0.0
  0
LINE
  5
432
330
1F
100
AcDbEntity
  8
化粧台
  6
EXLTYPE2
 62
     6
100
AcDbLine
 10
1025.000000000141
 20
1541.50000000004
 30
0.0
 11
1025.000000000141
 21
1558.50000000004
 31
0.0
  0
LINE
  5
433
330
1F
100
AcDbEntity
  8
化粧台
  6
EXLTYPE2
 62
     6
100
AcDbLine
 10
990.0000000001414
 20
1558.50000000004
 30
0.0
 11
1060.000000000141
 21
1558.50000000004
 31
0.0
  0
ARC
  5
434
330
1F
100
AcDbEntity
  8
化粧台
  6
EXLTYPE2
 62
     6
100
AcDbCircle
 10
1049.251837728141
 20
1542.885594593441
 30
0.0
 40
4.385594593380002
100
AcDbArc
 50
198.4177055184001
 51
270.0000000000002
  0
LINE
  5
435
330
1F
100
AcDbEntity
  8
化粧台
  6
EXLTYPE2
 62
     6
100
AcDbLine
 10
1045.090880199142
 20
1541.50000000004
 30
0.0
 11
1045.090880199142
 21
1558.50000000004
 31
0.0
  0
ARC
  5
436
330
1F
100
AcDbEntity
  8
化粧台
  6
EXLTYPE2
 62
     6
100
AcDbCircle
 10
1035.04544010014
 20
1556.818477799141
 30
0.0
 40
18.31847779905
100
AcDbArc
 50
236.7442298452004
 51
303.2557701548001
  0
ARC
  5
437
330
1F
100
AcDbEntity
  8
化粧台
  6
EXLTYPE2
 62
     6
100
AcDbCircle
 10
1014.954559900143
 20
1556.818477799141
 30
0.0
 40
18.31847779905
100
AcDbArc
 50
236.7442298452004
 51
303.2557701548001
  0
LINE
  5
438
330
1F
100
AcDbEntity
  8
化粧台
  6
EXLTYPE2
 62
     6
100
AcDbLine
 10
1004.909119801141
 20
1541.50000000004
 30
0.0
 11
1004.909119801141
 21
1558.50000000004
 31
0.0
  0
ARC
  5
439
330
1F
100
AcDbEntity
  8
化粧台
  6
EXLTYPE2
 62
     6
100
AcDbCircle
 10
1000.748162272142
 20
1542.885594593441
 30
0.0
 40
4.385594593380002
100
AcDbArc
 50
270.0000000000002
 51
341.5822944816002
  0
LINE
  5
43A
330
1F
100
AcDbEntity
  8
化粧台
  6
EXLTYPE2
 62
     6
100
AcDbLine
 10
1060.000000000141
 20
1566.00000000004
 30
0.0
 11
1055.813953488512
 21
1569.00000000004
 31
0.0
  0
LINE
  5
43B
330
1F
100
AcDbEntity
  8
化粧台
  6
EXLTYPE2
 62
     6
100
AcDbLine
 10
990.0000000001414
 20
1566.00000000004
 30
0.0
 11
994.1860465117711
 21
1569.00000000004
 31
0.0
  0
LINE
  5
43C
330
1F
100
AcDbEntity
  8
化粧台
  6
EXLTYPE2
 62
     6
100
AcDbLine
 10
1060.000000000141
 20
1566.00000000004
 30
0.0
 11
1060.000000000141
 21
1558.50000000004
 31
0.0
  0
LINE
  5
43D
330
1F
100
AcDbEntity
  8
化粧台
  6
EXLTYPE2
 62
     6
100
AcDbLine
 10
990.0000000001414
 20
1566.00000000004
 30
0.0
 11
990.0000000001414
 21
1558.50000000004
 31
0.0
  0
LINE
  5
43E
330
1F
100
AcDbEntity
  8
化粧台
  6
EXLTYPE2
 62
     6
100
AcDbLine
 10
1053.412795258143
 20
1541.50000000004
 30
0.0
 11
1051.250000000141
 21
1538.50000000004
 31
0.0
  0
LINE
  5
43F
330
1F
100
AcDbEntity
  8
化粧台
  6
EXLTYPE2
 62
     6
100
AcDbLine
 10
1053.412795258143
 20
1558.50000000004
 30
0.0
 11
1053.412795258143
 21
1541.50000000004
 31
0.0
  0
LINE
  5
440
330
1F
100
AcDbEntity
  8
化粧台
  6
EXLTYPE2
 62
     6
100
AcDbLine
 10
1051.250000000141
 20
1538.50000000004
 30
0.0
 11
1051.250000000141
 21
1514.00000000004
 31
0.0
  0
LINE
  5
441
330
1F
100
AcDbEntity
  8
化粧台
  6
EXLTYPE2
 62
     6
100
AcDbLine
 10
1040.750000000141
 20
1505.00000000004
 30
0.0
 11
1040.750000000141
 21
1459.00000000004
 31
0.0
  0
LINE
  5
442
330
1F
100
AcDbEntity
  8
化粧台
  6
EXLTYPE2
 62
     6
100
AcDbLine
 10
996.5872047421431
 20
1541.50000000004
 30
0.0
 11
998.7500000001414
 21
1538.50000000004
 31
0.0
  0
LINE
  5
443
330
1F
100
AcDbEntity
  8
化粧台
  6
EXLTYPE2
 62
     6
100
AcDbLine
 10
996.5872047421431
 20
1558.50000000004
 30
0.0
 11
996.5872047421431
 21
1541.50000000004
 31
0.0
  0
LINE
  5
444
330
1F
100
AcDbEntity
  8
化粧台
  6
EXLTYPE2
 62
     6
100
AcDbLine
 10
1009.250000000141
 20
1505.00000000004
 30
0.0
 11
1009.250000000141
 21
1459.00000000004
 31
0.0
  0
LINE
  5
445
330
1F
100
AcDbEntity
  8
化粧台
  6
EXLTYPE2
 62
     6
100
AcDbLine
 10
998.7500000001414
 20
1538.50000000004
 30
0.0
 11
998.7500000001414
 21
1514.00000000004
 31
0.0
  0
LINE
  5
446
330
1F
100
AcDbEntity
  8
化粧台
  6
EXLTYPE2
 62
     6
100
AcDbLine
 10
998.7500000001414
 20
1538.50000000004
 30
0.0
 11
1051.250000000141
 21
1538.50000000004
 31
0.0
  0
LINE
  5
447
330
1F
100
AcDbEntity
  8
化粧台
  6
EXLTYPE2
 62
     6
100
AcDbLine
 10
1009.250000000141
 20
1459.00000000004
 30
0.0
 11
1040.750000000141
 21
1459.00000000004
 31
0.0
  0
LINE
  5
448
330
1F
100
AcDbEntity
  8
化粧台
  6
EXLTYPE2
 62
     6
100
AcDbLine
 10
1051.250000000141
 20
1514.00000000004
 30
0.0
 11
1040.750000000141
 21
1505.00000000004
 31
0.0
  0
LINE
  5
449
330
1F
100
AcDbEntity
  8
化粧台
  6
EXLTYPE2
 62
     6
100
AcDbLine
 10
998.7500000001414
 20
1514.00000000004
 30
0.0
 11
1009.250000000141
 21
1505.00000000004
 31
0.0
  0
LINE
  5
44A
330
1F
100
AcDbEntity
  8
化粧台
  6
EXLTYPE2
 62
     6
100
AcDbLine
 10
998.7500000001414
 20
1514.00000000004
 30
0.0
 11
1051.250000000141
 21
1514.00000000004
 31
0.0
  0
LINE
  5
44B
330
1F
100
AcDbEntity
  8
化粧台
  6
EXLTYPE2
 62
     6
100
AcDbLine
 10
1009.250000000141
 20
1505.00000000004
 30
0.0
 11
1040.750000000141
 21
1505.00000000004
 31
0.0
  0
LINE
  5
44C
330
1F
100
AcDbEntity
  8
化粧台
  6
EXLTYPE2
 62
     6
100
AcDbLine
 10
1043.250000000141
 20
1477.200000000041
 30
0.0
 11
1043.250000000141
 21
1437.111863703343
 31
0.0
  0
LINE
  5
44D
330
1F
100
AcDbEntity
  8
化粧台
  6
EXLTYPE2
 62
     6
100
AcDbLine
 10
1006.750000000141
 20
1477.200000000041
 30
0.0
 11
1006.750000000141
 21
1437.111863703343
 31
0.0
  0
LINE
  5
44E
330
1F
100
AcDbEntity
  8
化粧台
  6
EXLTYPE2
 62
     6
100
AcDbLine
 10
1043.250000000141
 20
1437.111863703343
 30
0.0
 11
1042.000000000141
 21
1436.11186367134
 31
0.0
  0
LINE
  5
44F
330
1F
100
AcDbEntity
  8
化粧台
  6
EXLTYPE2
 62
     6
100
AcDbLine
 10
1008.000000000141
 20
1436.11186367134
 30
0.0
 11
1006.750000000141
 21
1437.111863703343
 31
0.0
  0
LINE
  5
450
330
1F
100
AcDbEntity
  8
化粧台
  6
EXLTYPE2
 62
     6
100
AcDbLine
 10
1042.000000000145
 20
1436.111863671344
 30
0.0
 11
1008.000000000141
 21
1436.111863671344
 31
0.0
  0
LINE
  5
451
330
1F
100
AcDbEntity
  8
化粧台
  6
EXLTYPE2
 62
     6
100
AcDbLine
 10
1049.250000000141
 20
1477.200000000041
 30
0.0
 11
1000.750000000141
 21
1477.200000000041
 31
0.0
  0
LINE
  5
452
330
1F
100
AcDbEntity
  8
化粧台
  6
EXLTYPE2
 62
     6
100
AcDbLine
 10
1049.250000000141
 20
1492.00000000004
 30
0.0
 11
1049.250000000141
 21
1477.200000000041
 31
0.0
  0
LINE
  5
453
330
1F
100
AcDbEntity
  8
化粧台
  6
EXLTYPE2
 62
     6
100
AcDbLine
 10
1046.250000000141
 20
1495.00000000004
 30
0.0
 11
1003.750000000141
 21
1495.00000000004
 31
0.0
  0
LINE
  5
454
330
1F
100
AcDbEntity
  8
化粧台
  6
EXLTYPE2
 62
     6
100
AcDbLine
 10
1000.750000000141
 20
1492.00000000004
 30
0.0
 11
1000.750000000141
 21
1477.200000000041
 31
0.0
  0
ARC
  5
455
330
1F
100
AcDbEntity
  8
化粧台
  6
EXLTYPE2
 62
     6
100
AcDbCircle
 10
1046.250000000141
 20
1492.00000000004
 30
0.0
 40
3.000000000000002
100
AcDbArc
 50
0.0
 51
90.00000000000001
  0
ARC
  5
456
330
1F
100
AcDbEntity
  8
化粧台
  6
EXLTYPE2
 62
     6
100
AcDbCircle
 10
1003.750000000141
 20
1492.00000000004
 30
0.0
 40
3.000000000000002
100
AcDbArc
 50
90.00000000000001
 51
180.0
  0
LINE
  5
457
330
1F
100
AcDbEntity
  8
化粧台
  6
EXLTYPE2
 62
     6
100
AcDbLine
 10
1008.000000000141
 20
1436.111863671344
 30
0.0
 11
1008.000000000141
 21
1402.48686234378
 31
0.0
  0
ARC
  5
458
330
1F
100
AcDbEntity
  8
化粧台
  6
EXLTYPE2
 62
     6
100
AcDbCircle
 10
964.223169372242
 20
1439.311312276041
 30
0.0
 40
3.000000000000002
100
AcDbArc
 50
90.00000000000001
 51
180.0
  0
LINE
  5
459
330
1F
100
AcDbEntity
  8
化粧台
  6
EXLTYPE2
 62
     6
100
AcDbLine
 10
1003.723169372242
 20
1424.511312276041
 30
0.0
 11
1003.723169372242
 21
1402.48686234378
 31
0.0
  0
LINE
  5
45A
330
1F
100
AcDbEntity
  8
化粧台
  6
EXLTYPE2
 62
     6
100
AcDbLine
 10
967.223169372242
 20
1424.511312276041
 30
0.0
 11
967.223169372242
 21
1396.411862369041
 31
0.0
  0
LINE
  5
45B
330
1F
100
AcDbEntity
  8
化粧台
  6
EXLTYPE2
 62
     6
100
AcDbLine
 10
1042.000000000145
 20
1436.111863671344
 30
0.0
 11
1042.000000000145
 21
1404.418261759489
 31
0.0
  0
ARC
  5
45C
330
1F
100
AcDbEntity
  8
化粧台
  6
EXLTYPE2
 62
     6
100
AcDbCircle
 10
1005.23658468619
 20
1472.648448271008
 30
0.0
 40
3.763415313933366
100
AcDbArc
 50
66.28804661525457
 51
180.0
  0
LINE
  5
45D
330
1F
100
AcDbEntity
  8
化粧台
  6
EXLTYPE2
 62
     6
100
AcDbLine
 10
1001.473169372242
 20
1472.648448271008
 30
0.0
 11
1001.473169372242
 21
1442.311312276041
 31
0.0
  0
LINE
  5
45E
330
1F
100
AcDbEntity
  8
化粧台
  6
EXLTYPE2
 62
     6
100
AcDbLine
 10
969.473169372242
 20
1472.648448270989
 30
0.0
 11
969.473169372242
 21
1442.311312276041
 31
0.0
  0
LINE
  5
45F
330
1F
100
AcDbEntity
  8
化粧台
  6
EXLTYPE2
 62
     6
100
AcDbLine
 10
1006.750000000141
 20
1442.311312276041
 30
0.0
 11
964.223169372242
 21
1442.311312276041
 31
0.0
  0
LINE
  5
460
330
1F
100
AcDbEntity
  8
化粧台
  6
EXLTYPE2
 62
     6
100
AcDbLine
 10
1008.000000000141
 20
1424.511312276041
 30
0.0
 11
961.223169372242
 21
1424.511312276041
 31
0.0
  0
ARC
  5
461
330
1F
100
AcDbEntity
  8
化粧台
  6
EXLTYPE2
 62
     6
100
AcDbCircle
 10
1005.23658468619
 20
1472.648448270989
 30
0.0
 40
35.76341531395246
100
AcDbArc
 50
89.94725080561494
 51
180.0
  0
LINE
  5
462
330
1F
100
AcDbEntity
  8
化粧台
  6
EXLTYPE2
 62
     6
100
AcDbLine
 10
1058.500003814839
 20
1019.000001907341
 30
0.0
 11
1058.500003814839
 21
999.4999999999928
 31
0.0
  0
ARC
  5
463
330
1F
100
AcDbEntity
  8
化粧台
  6
EXLTYPE2
 62
     6
100
AcDbCircle
 10
1058.000003814839
 20
999.4999999999928
 30
0.0
 40
0.5
100
AcDbArc
 50
270.0000000000002
 51
0.0
  0
LINE
  5
464
330
1F
100
AcDbEntity
  8
化粧台
  6
EXLTYPE2
 62
     6
100
AcDbLine
 10
991.4999961854478
 20
1019.000001907341
 30
0.0
 11
991.4999961854478
 21
999.4999999999928
 31
0.0
  0
ARC
  5
465
330
1F
100
AcDbEntity
  8
化粧台
  6
EXLTYPE2
 62
     6
100
AcDbCircle
 10
991.9999961854478
 20
999.4999999999928
 30
0.0
 40
0.5
100
AcDbArc
 50
180.0
 51
270.0000000000002
  0
LINE
  5
466
330
1F
100
AcDbEntity
  8
化粧台
  6
EXLTYPE2
 62
     6
100
AcDbLine
 10
1058.000003814839
 20
998.9999999999928
 30
0.0
 11
991.9999961854442
 21
998.9999999999928
 31
0.0
  0
LINE
  5
467
330
1F
100
AcDbEntity
  8
化粧台
  6
EXLTYPE2
 62
     6
100
AcDbLine
 10
1052.000000000141
 20
1034.00000381469
 30
0.0
 11
1052.000000000141
 21
1023.000001907341
 31
0.0
  0
ARC
  5
468
330
1F
100
AcDbEntity
  8
化粧台
  6
EXLTYPE2
 62
     6
100
AcDbCircle
 10
1049.000000000141
 20
1034.00000381469
 30
0.0
 40
3.000000000000002
100
AcDbArc
 50
359.9999949910431
 51
89.99999749552043
  0
ARC
  5
469
330
1F
100
AcDbEntity
  8
化粧台
  6
EXLTYPE2
 62
     6
100
AcDbCircle
 10
1053.000000000141
 20
1023.000001907341
 30
0.0
 40
1.0
100
AcDbArc
 50
180.0
 51
270.0000000000002
  0
ARC
  5
46A
330
1F
100
AcDbEntity
  8
化粧台
  6
EXLTYPE2
 62
     6
100
AcDbCircle
 10
1055.500003814839
 20
1019.000001907341
 30
0.0
 40
3.000000000000002
100
AcDbArc
 50
359.9999949910431
 51
89.99999749552043
  0
LINE
  5
46B
330
1F
100
AcDbEntity
  8
化粧台
  6
EXLTYPE2
 62
     6
100
AcDbLine
 10
1047.999996185444
 20
1054.846518878931
 30
0.0
 11
1047.999996185444
 21
1039.04651964187
 31
0.0
  0
ARC
  5
46C
330
1F
100
AcDbEntity
  8
化粧台
  6
EXLTYPE2
 62
     6
100
AcDbCircle
 10
1045.999996185444
 20
1054.846518878931
 30
0.0
 40
2.0
100
AcDbArc
 50
0.0000086514229809
 51
90.0000043257139
  0
LINE
  5
46D
330
1F
100
AcDbEntity
  8
化粧台
  6
EXLTYPE2
 62
     6
100
AcDbLine
 10
998.0000000001451
 20
1034.00000381469
 30
0.0
 11
998.0000000001451
 21
1023.000001907341
 31
0.0
  0
ARC
  5
46E
330
1F
100
AcDbEntity
  8
化粧台
  6
EXLTYPE2
 62
     6
100
AcDbCircle
 10
1001.000000000145
 20
1034.00000381469
 30
0.0
 40
3.000000000000002
100
AcDbArc
 50
90.00000250448174
 51
180.000005008957
  0
ARC
  5
46F
330
1F
100
AcDbEntity
  8
化粧台
  6
EXLTYPE2
 62
     6
100
AcDbCircle
 10
997.0000000001451
 20
1023.000001907341
 30
0.0
 40
1.0
100
AcDbArc
 50
270.0000000000002
 51
0.0
  0
ARC
  5
470
330
1F
100
AcDbEntity
  8
化粧台
  6
EXLTYPE2
 62
     6
100
AcDbCircle
 10
994.4999961854478
 20
1019.000001907341
 30
0.0
 40
3.000000000000002
100
AcDbArc
 50
90.00000250448174
 51
180.000005008957
  0
LINE
  5
471
330
1F
100
AcDbEntity
  8
化粧台
  6
EXLTYPE2
 62
     6
100
AcDbLine
 10
1002.000003814842
 20
1054.846518878931
 30
0.0
 11
1002.000003814842
 21
1039.04651964187
 31
0.0
  0
ARC
  5
472
330
1F
100
AcDbEntity
  8
化粧台
  6
EXLTYPE2
 62
     6
100
AcDbCircle
 10
1004.000003814842
 20
1054.846518878931
 30
0.0
 40
2.0
100
AcDbArc
 50
89.99999567428607
 51
179.9999913485771
  0
LINE
  5
473
330
1F
100
AcDbEntity
  8
化粧台
  6
EXLTYPE2
 62
     6
100
AcDbLine
 10
1045.999996185444
 20
1056.846518878931
 30
0.0
 11
1004.000003814842
 21
1056.846518878931
 31
0.0
  0
LINE
  5
474
330
1F
100
AcDbEntity
  8
化粧台
  6
EXLTYPE2
 62
     6
100
AcDbLine
 10
1047.999996185444
 20
1039.04651964187
 30
0.0
 11
1002.000003814842
 21
1039.04651964187
 31
0.0
  0
LINE
  5
475
330
1F
100
AcDbEntity
  8
化粧台
  6
EXLTYPE2
 62
     6
100
AcDbLine
 10
1049.000000000141
 20
1037.00000381469
 30
0.0
 11
1001.000000000145
 21
1037.00000381469
 31
0.0
  0
LINE
  5
476
330
1F
100
AcDbEntity
  8
化粧台
  6
EXLTYPE2
 62
     6
100
AcDbLine
 10
1055.500003814839
 20
1022.000001907341
 30
0.0
 11
994.4999961854478
 21
1022.000001907341
 31
0.0
  0
LINE
  5
477
330
1F
100
AcDbEntity
  8
化粧台
  6
EXLTYPE2
 62
     6
100
AcDbLine
 10
1020.236584686139
 20
1363.111861335172
 30
0.0
 11
990.2365846861389
 21
1363.111861335172
 31
0.0
  0
LINE
  5
478
330
1F
100
AcDbEntity
  8
化粧台
  6
EXLTYPE2
 62
     6
100
AcDbLine
 10
1020.236584686143
 20
1365.881770843342
 30
0.0
 11
990.2365846861426
 21
1365.881770843342
 31
0.0
  0
LINE
  5
479
330
1F
100
AcDbEntity
  8
化粧台
  6
EXLTYPE2
 62
     6
100
AcDbLine
 10
1020.236584686139
 20
1365.881770843305
 30
0.0
 11
1020.236584686139
 21
1350.611865271341
 31
0.0
  0
LINE
  5
47A
330
1F
100
AcDbEntity
  8
化粧台
  6
EXLTYPE2
 62
     6
100
AcDbLine
 10
1018.736584686139
 20
1349.111865271341
 30
0.0
 11
991.7365846861389
 21
1349.111865271341
 31
0.0
  0
LINE
  5
47B
330
1F
100
AcDbEntity
  8
化粧台
  6
EXLTYPE2
 62
     6
100
AcDbLine
 10
990.2365846861389
 20
1365.881770843309
 30
0.0
 11
990.2365846861389
 21
1350.611865271341
 31
0.0
  0
ARC
  5
47C
330
1F
100
AcDbEntity
  8
化粧台
  6
EXLTYPE2
 62
     6
100
AcDbCircle
 10
1018.736584686139
 20
1350.611865271341
 30
0.0
 40
1.5
100
AcDbArc
 50
270.0000000000002
 51
0.0
  0
ARC
  5
47D
330
1F
100
AcDbEntity
  8
化粧台
  6
EXLTYPE2
 62
     6
100
AcDbCircle
 10
991.7365846861389
 20
1350.611865271341
 30
0.0
 40
1.5
100
AcDbArc
 50
180.0
 51
270.0000000000002
  0
ARC
  5
47E
330
1F
100
AcDbEntity
  8
化粧台
  6
EXLTYPE2
 62
     6
100
AcDbCircle
 10
968.223169372242
 20
1396.411862369041
 30
0.0
 40
1.0
100
AcDbArc
 50
180.0
 51
270.0000000000002
  0
ARC
  5
47F
330
1F
100
AcDbEntity
  8
化粧台
  6
EXLTYPE2
 62
     6
100
AcDbCircle
 10
1011.598169372344
 20
1402.48686234378
 30
0.0
 40
7.87499999998454
100
AcDbArc
 50
180.0
 51
223.2429562691451
  0
ARC
  5
480
330
1F
100
AcDbEntity
  8
化粧台
  6
EXLTYPE2
 62
     6
100
AcDbCircle
 10
1000.125000000141
 20
1402.48686234378
 30
0.0
 40
7.87499999998454
100
AcDbArc
 50
284.0576142764539
 51
0.0
  0
ARC
  5
481
330
1F
100
AcDbEntity
  8
化粧台
  6
EXLTYPE2
 62
     6
100
AcDbCircle
 10
1014.868122253239
 20
1403.541926938087
 30
0.0
 40
45.0
100
AcDbArc
 50
190.4086772393206
 51
236.8134006511469
  0
ARC
  5
482
330
1F
100
AcDbEntity
  8
化粧台
  6
EXLTYPE2
 62
     6
100
AcDbCircle
 10
997.0000000001451
 20
1404.418261759489
 30
0.0
 40
45.0
100
AcDbArc
 50
301.0889746232344
 51
0.0
  0
LINE
  5
483
330
1F
100
AcDbEntity
  8
化粧台
  6
EXLTYPE2
 62
     6
100
AcDbLine
 10
978.9000000001429
 20
1395.411862369041
 30
0.0
 11
968.223169372242
 21
1395.411862369041
 31
0.0
  0
LINE
  5
484
330
1F
100
AcDbEntity
  8
化粧台
  6
EXLTYPE2
 62
     6
100
AcDbLine
 10
1009.000000000141
 20
983.0000000000401
 30
0.0
 11
1009.000000000141
 21
1349.111865271341
 31
0.0
  0
LINE
  5
485
330
1F
100
AcDbEntity
  8
化粧台
  6
EXLTYPE2
 62
     6
100
AcDbLine
 10
1041.000000000141
 20
983.0000000000401
 30
0.0
 11
1041.000000000141
 21
1394.984280627425
 31
0.0
  0
LINE
  5
486
330
1F
100
AcDbEntity
  8
化粧台
  6
CONTINUOUS
 62
     6
100
AcDbLine
 10
1009.000000000141
 20
949.0000000000401
 30
0.0
 11
1041.000000000141
 21
949.0000000000401
 31
0.0
  0
LINE
  5
487
330
1F
100
AcDbEntity
  8
化粧台
  6
CONTINUOUS
 62
     6
100
AcDbLine
 10
1009.000000000141
 20
949.0000000000401
 30
0.0
 11
1009.000000000141
 21
983.0000000000401
 31
0.0
  0
LINE
  5
488
330
1F
100
AcDbEntity
  8
化粧台
  6
CONTINUOUS
 62
     6
100
AcDbLine
 10
1041.000000000141
 20
949.0000000000401
 30
0.0
 11
1041.000000000141
 21
983.0000000000401
 31
0.0
  0
LINE
  5
489
330
1F
100
AcDbEntity
  8
化粧台
  6
CONTINUOUS
 62
     6
100
AcDbLine
 10
1245.5000000001
 20
971.0000000000401
 30
0.0
 11
1224.5000000001
 21
971.0000000000401
 31
0.0
  0
LINE
  5
48A
330
1F
100
AcDbEntity
  8
化粧台
  6
CONTINUOUS
 62
     6
100
AcDbLine
 10
1224.5000000001
 20
983.0000000000401
 30
0.0
 11
1224.5000000001
 21
971.0000000000401
 31
0.0
  0
LINE
  5
48B
330
1F
100
AcDbEntity
  8
化粧台
  6
CONTINUOUS
 62
     6
100
AcDbLine
 10
1245.5000000001
 20
983.0000000000401
 30
0.0
 11
1245.5000000001
 21
971.0000000000401
 31
0.0
  0
LINE
  5
48C
330
1F
100
AcDbEntity
  8
化粧台
  6
EXLTYPE3
 62
     6
100
AcDbLine
 10
1235.0000000001
 20
1365.50000000004
 30
0.0
 11
1235.0000000001
 21
956.0000000000401
 31
0.0
  0
LINE
  5
48D
330
1F
100
AcDbEntity
  8
化粧台
  6
CONTINUOUS
 62
     6
100
AcDbLine
 10
1155.5000000001
 20
971.0000000000001
 30
0.0
 11
1134.5000000001
 21
971.0000000000001
 31
0.0
  0
LINE
  5
48E
330
1F
100
AcDbEntity
  8
化粧台
  6
CONTINUOUS
 62
     6
100
AcDbLine
 10
1134.5000000001
 20
983.0000000000001
 30
0.0
 11
1134.5000000001
 21
971.0000000000001
 31
0.0
  0
LINE
  5
48F
330
1F
100
AcDbEntity
  8
化粧台
  6
CONTINUOUS
 62
     6
100
AcDbLine
 10
1155.5000000001
 20
983.0000000000001
 30
0.0
 11
1155.5000000001
 21
971.0000000000001
 31
0.0
  0
LINE
  5
490
330
1F
100
AcDbEntity
  8
化粧台
  6
EXLTYPE3
 62
     6
100
AcDbLine
 10
1145.0000000001
 20
1368.5
 30
0.0
 11
1145.0000000001
 21
956.0000000000001
 31
0.0
  0
ARC
  5
491
330
1F
100
AcDbEntity
  8
化粧台
  6
EXLTYPE2
 62
     6
100
AcDbCircle
 10
1184.5000000001
 20
1322.843134833023
 30
0.0
 40
40.0
100
AcDbArc
 50
345.6384884370835
 51
0.0
  0
ARC
  5
492
330
1F
100
AcDbEntity
  8
化粧台
  6
EXLTYPE2
 62
     6
100
AcDbCircle
 10
1285.5000000001
 20
1322.843134833023
 30
0.0
 40
40.0
100
AcDbArc
 50
180.0
 51
194.3615115629164
  0
LINE
  5
493
330
1F
100
AcDbEntity
  8
化粧台
  6
EXLTYPE2
 62
     6
100
AcDbLine
 10
1222.75000000009
 20
1268.00000000004
 30
0.0
 11
1247.250000000111
 21
1268.00000000004
 31
0.0
  0
LINE
  5
494
330
1F
100
AcDbEntity
  8
化粧台
  6
EXLTYPE2
 62
     6
100
AcDbLine
 10
1222.2500000001
 20
1268.28867513463
 30
0.0
 11
1222.2500000001
 21
1280.172806948645
 31
0.0
  0
LINE
  5
495
330
1F
100
AcDbEntity
  8
化粧台
  6
EXLTYPE2
 62
     6
100
AcDbLine
 10
1247.7500000001
 20
1268.28867513463
 30
0.0
 11
1247.7500000001
 21
1280.172806948645
 31
0.0
  0
ARC
  5
496
330
1F
100
AcDbEntity
  8
化粧台
  6
EXLTYPE2
 62
     6
100
AcDbCircle
 10
1215.2500000001
 20
1282.865389352213
 30
0.0
 40
7.500000000000004
100
AcDbArc
 50
338.9605302186827
 51
0.0
  0
LINE
  5
497
330
1F
100
AcDbEntity
  8
化粧台
  6
EXLTYPE2
 62
     6
100
AcDbLine
 10
1222.7500000001
 20
1268.000000000036
 30
0.0
 11
1222.2500000001
 21
1268.28867513463
 31
0.0
  0
LINE
  5
498
330
1F
100
AcDbEntity
  8
化粧台
  6
EXLTYPE2
 62
     6
100
AcDbLine
 10
1247.250000000104
 20
1268.000000000036
 30
0.0
 11
1247.7500000001
 21
1268.28867513463
 31
0.0
  0
ARC
  5
499
330
1F
100
AcDbEntity
  8
化粧台
  6
EXLTYPE2
 62
     6
100
AcDbCircle
 10
1254.7500000001
 20
1282.865389352213
 30
0.0
 40
7.500000000000004
100
AcDbArc
 50
180.0
 51
201.039469781297
  0
LINE
  5
49A
330
1F
100
AcDbEntity
  8
化粧台
  6
EXLTYPE2
 62
     6
100
AcDbLine
 10
1248.0000000001
 20
1297.16369123508
 30
0.0
 11
1248.0000000001
 21
1308.836308765
 31
0.0
  0
LINE
  5
49B
330
1F
100
AcDbEntity
  8
化粧台
  6
EXLTYPE2
 62
     6
100
AcDbLine
 10
1246.554391654891
 20
1311.340175866761
 30
0.0
 11
1236.44560834531
 21
1317.17648463172
 31
0.0
  0
LINE
  5
49C
330
1F
100
AcDbEntity
  8
化粧台
  6
EXLTYPE2
 62
     6
100
AcDbLine
 10
1233.554391654891
 20
1317.17648463172
 30
0.0
 11
1223.44560834531
 21
1311.340175866761
 31
0.0
  0
LINE
  5
49D
330
1F
100
AcDbEntity
  8
化粧台
  6
EXLTYPE2
 62
     6
100
AcDbLine
 10
1222.0000000001
 20
1308.836308765
 30
0.0
 11
1222.0000000001
 21
1297.16369123508
 31
0.0
  0
LINE
  5
49E
330
1F
100
AcDbEntity
  8
化粧台
  6
EXLTYPE2
 62
     6
100
AcDbLine
 10
1223.44560834531
 20
1294.659824133319
 30
0.0
 11
1233.554391654891
 21
1288.82351536836
 31
0.0
  0
LINE
  5
49F
330
1F
100
AcDbEntity
  8
化粧台
  6
EXLTYPE2
 62
     6
100
AcDbLine
 10
1236.44560834531
 20
1288.82351536836
 30
0.0
 11
1246.554391654891
 21
1294.659824133319
 31
0.0
  0
ARC
  5
4A0
330
1F
100
AcDbEntity
  8
化粧台
  6
EXLTYPE2
 62
     6
100
AcDbCircle
 10
1235.0000000001
 20
1303.00000000004
 30
0.0
 40
14.25000000000001
100
AcDbArc
 50
264.1775448336001
 51
275.8224551664
  0
ARC
  5
4A1
330
1F
100
AcDbEntity
  8
化粧台
  6
EXLTYPE2
 62
     6
100
AcDbCircle
 10
1235.0000000001
 20
1303.00000000004
 30
0.0
 40
14.25000000000001
100
AcDbArc
 50
324.1775448336006
 51
335.8224551664001
  0
ARC
  5
4A2
330
1F
100
AcDbEntity
  8
化粧台
  6
EXLTYPE2
 62
     6
100
AcDbCircle
 10
1235.0000000001
 20
1303.00000000004
 30
0.0
 40
14.25000000000001
100
AcDbArc
 50
24.17754483359991
 51
35.82245516639971
  0
ARC
  5
4A3
330
1F
100
AcDbEntity
  8
化粧台
  6
EXLTYPE2
 62
     6
100
AcDbCircle
 10
1235.0000000001
 20
1303.00000000004
 30
0.0
 40
14.25000000000001
100
AcDbArc
 50
84.17754483360022
 51
95.82245516636002
  0
ARC
  5
4A4
330
1F
100
AcDbEntity
  8
化粧台
  6
EXLTYPE2
 62
     6
100
AcDbCircle
 10
1235.0000000001
 20
1303.00000000004
 30
0.0
 40
14.25000000000001
100
AcDbArc
 50
144.1775448336397
 51
155.8224551663601
  0
ARC
  5
4A5
330
1F
100
AcDbEntity
  8
化粧台
  6
EXLTYPE2
 62
     6
100
AcDbCircle
 10
1235.0000000001
 20
1303.00000000004
 30
0.0
 40
14.25000000000001
100
AcDbArc
 50
204.1775448336
 51
215.8224551663998
  0
CIRCLE
  5
4A6
330
1F
100
AcDbEntity
  8
化粧台
  6
EXLTYPE2
 62
     6
100
AcDbCircle
 10
1235.0000000001
 20
1303.00000000004
 30
0.0
 40
4.75
  0
ARC
  5
4A7
330
1F
100
AcDbEntity
  8
化粧台
  6
EXLTYPE2
 62
     6
100
AcDbCircle
 10
1262.0000000001
 20
1303.00000000004
 30
0.0
 40
40.0
100
AcDbArc
 50
165.6384884370866
 51
169.8112385239512
  0
ARC
  5
4A8
330
1F
100
AcDbEntity
  8
化粧台
  6
EXLTYPE2
 62
     6
100
AcDbCircle
 10
1208.0000000001
 20
1303.00000000004
 30
0.0
 40
40.0
100
AcDbArc
 50
10.18876147604892
 51
14.36151156291657
  0
LINE
  5
4A9
330
1F
100
AcDbEntity
  8
化粧台
  6
EXLTYPE2
 62
     6
100
AcDbLine
 10
1222.7500000001
 20
1295.719890110759
 30
0.0
 11
1222.7500000001
 21
1282.865389352213
 31
0.0
  0
LINE
  5
4AA
330
1F
100
AcDbEntity
  8
化粧台
  6
EXLTYPE2
 62
     6
100
AcDbLine
 10
1247.2500000001
 20
1295.719890110759
 30
0.0
 11
1247.2500000001
 21
1282.865389352213
 31
0.0
  0
LINE
  5
4AB
330
1F
100
AcDbEntity
  8
化粧台
  6
EXLTYPE2
 62
     6
100
AcDbLine
 10
1224.030455542811
 20
1325.700000000041
 30
0.0
 11
1245.96954445739
 21
1325.700000000041
 31
0.0
  0
LINE
  5
4AC
330
1F
100
AcDbEntity
  8
化粧台
  6
EXLTYPE2
 62
     6
100
AcDbLine
 10
1224.030455542811
 20
1337.700000000041
 30
0.0
 11
1245.96954445739
 21
1337.700000000041
 31
0.0
  0
LINE
  5
4AD
330
1F
100
AcDbEntity
  8
化粧台
  6
EXLTYPE2
 62
     6
100
AcDbLine
 10
1223.5000000001
 20
1336.792887196909
 30
0.0
 11
1223.5000000001
 21
1326.607112803169
 31
0.0
  0
LINE
  5
4AE
330
1F
100
AcDbEntity
  8
化粧台
  6
EXLTYPE2
 62
     6
100
AcDbLine
 10
1246.5000000001
 20
1336.792887196909
 30
0.0
 11
1246.5000000001
 21
1326.607112803169
 31
0.0
  0
ARC
  5
4AF
330
1F
100
AcDbEntity
  8
化粧台
  6
EXLTYPE2
 62
     6
100
AcDbCircle
 10
1233.2500000001
 20
1331.700000000041
 30
0.0
 40
11.0
100
AcDbArc
 50
146.9442688490998
 51
152.4198007963999
  0
ARC
  5
4B0
330
1F
100
AcDbEntity
  8
化粧台
  6
EXLTYPE2
 62
     6
100
AcDbCircle
 10
1233.2500000001
 20
1331.700000000041
 30
0.0
 40
11.0
100
AcDbArc
 50
207.5801992036001
 51
213.0557311509001
  0
ARC
  5
4B1
330
1F
100
AcDbEntity
  8
化粧台
  6
EXLTYPE2
 62
     6
100
AcDbCircle
 10
1236.7500000001
 20
1331.700000000041
 30
0.0
 40
11.0
100
AcDbArc
 50
326.9442688491004
 51
332.4198007964001
  0
ARC
  5
4B2
330
1F
100
AcDbEntity
  8
化粧台
  6
EXLTYPE2
 62
     6
100
AcDbCircle
 10
1236.7500000001
 20
1331.700000000041
 30
0.0
 40
11.0
100
AcDbArc
 50
27.58019920359027
 51
33.05573115085006
  0
LINE
  5
4B3
330
1F
100
AcDbEntity
  8
化粧台
  6
EXLTYPE2
 62
     6
100
AcDbLine
 10
1224.5000000001
 20
1325.700000000041
 30
0.0
 11
1224.5000000001
 21
1322.84313483302
 31
0.0
  0
LINE
  5
4B4
330
1F
100
AcDbEntity
  8
化粧台
  6
EXLTYPE2
 62
     6
100
AcDbLine
 10
1245.5000000001
 20
1325.700000000041
 30
0.0
 11
1245.5000000001
 21
1322.84313483302
 31
0.0
  0
ARC
  5
4B5
330
1F
100
AcDbEntity
  8
化粧台
  6
EXLTYPE2
 62
     6
100
AcDbCircle
 10
1094.5000000001
 20
1322.843134832983
 30
0.0
 40
40.0
100
AcDbArc
 50
345.6384884370835
 51
0.0
  0
ARC
  5
4B6
330
1F
100
AcDbEntity
  8
化粧台
  6
EXLTYPE2
 62
     6
100
AcDbCircle
 10
1195.5000000001
 20
1322.843134832983
 30
0.0
 40
40.0
100
AcDbArc
 50
180.0
 51
194.3615115629164
  0
LINE
  5
4B7
330
1F
100
AcDbEntity
  8
化粧台
  6
EXLTYPE2
 62
     6
100
AcDbLine
 10
1132.75000000009
 20
1268.0
 30
0.0
 11
1157.250000000111
 21
1268.0
 31
0.0
  0
LINE
  5
4B8
330
1F
100
AcDbEntity
  8
化粧台
  6
EXLTYPE2
 62
     6
100
AcDbLine
 10
1132.2500000001
 20
1268.28867513459
 30
0.0
 11
1132.2500000001
 21
1280.172806948605
 31
0.0
  0
LINE
  5
4B9
330
1F
100
AcDbEntity
  8
化粧台
  6
EXLTYPE2
 62
     6
100
AcDbLine
 10
1157.7500000001
 20
1268.28867513459
 30
0.0
 11
1157.7500000001
 21
1280.172806948605
 31
0.0
  0
ARC
  5
4BA
330
1F
100
AcDbEntity
  8
化粧台
  6
EXLTYPE2
 62
     6
100
AcDbCircle
 10
1125.2500000001
 20
1282.865389352173
 30
0.0
 40
7.500000000000004
100
AcDbArc
 50
338.9605302186827
 51
0.0
  0
LINE
  5
4BB
330
1F
100
AcDbEntity
  8
化粧台
  6
EXLTYPE2
 62
     6
100
AcDbLine
 10
1132.7500000001
 20
1267.999999999996
 30
0.0
 11
1132.2500000001
 21
1268.28867513459
 31
0.0
  0
LINE
  5
4BC
330
1F
100
AcDbEntity
  8
化粧台
  6
EXLTYPE2
 62
     6
100
AcDbLine
 10
1157.250000000104
 20
1267.999999999996
 30
0.0
 11
1157.7500000001
 21
1268.28867513459
 31
0.0
  0
ARC
  5
4BD
330
1F
100
AcDbEntity
  8
化粧台
  6
EXLTYPE2
 62
     6
100
AcDbCircle
 10
1164.7500000001
 20
1282.865389352173
 30
0.0
 40
7.500000000000004
100
AcDbArc
 50
180.0
 51
201.039469781297
  0
LINE
  5
4BE
330
1F
100
AcDbEntity
  8
化粧台
  6
EXLTYPE2
 62
     6
100
AcDbLine
 10
1158.0000000001
 20
1297.16369123504
 30
0.0
 11
1158.0000000001
 21
1308.83630876496
 31
0.0
  0
LINE
  5
4BF
330
1F
100
AcDbEntity
  8
化粧台
  6
EXLTYPE2
 62
     6
100
AcDbLine
 10
1156.554391654891
 20
1311.340175866721
 30
0.0
 11
1146.44560834531
 21
1317.17648463168
 31
0.0
  0
LINE
  5
4C0
330
1F
100
AcDbEntity
  8
化粧台
  6
EXLTYPE2
 62
     6
100
AcDbLine
 10
1143.554391654891
 20
1317.17648463168
 30
0.0
 11
1133.44560834531
 21
1311.340175866721
 31
0.0
  0
LINE
  5
4C1
330
1F
100
AcDbEntity
  8
化粧台
  6
EXLTYPE2
 62
     6
100
AcDbLine
 10
1132.0000000001
 20
1308.83630876496
 30
0.0
 11
1132.0000000001
 21
1297.16369123504
 31
0.0
  0
LINE
  5
4C2
330
1F
100
AcDbEntity
  8
化粧台
  6
EXLTYPE2
 62
     6
100
AcDbLine
 10
1133.44560834531
 20
1294.659824133279
 30
0.0
 11
1143.554391654891
 21
1288.82351536832
 31
0.0
  0
LINE
  5
4C3
330
1F
100
AcDbEntity
  8
化粧台
  6
EXLTYPE2
 62
     6
100
AcDbLine
 10
1146.44560834531
 20
1288.82351536832
 30
0.0
 11
1156.554391654891
 21
1294.659824133279
 31
0.0
  0
ARC
  5
4C4
330
1F
100
AcDbEntity
  8
化粧台
  6
EXLTYPE2
 62
     6
100
AcDbCircle
 10
1145.0000000001
 20
1303.0
 30
0.0
 40
14.25000000000001
100
AcDbArc
 50
264.1775448336001
 51
275.8224551664
  0
ARC
  5
4C5
330
1F
100
AcDbEntity
  8
化粧台
  6
EXLTYPE2
 62
     6
100
AcDbCircle
 10
1145.0000000001
 20
1303.0
 30
0.0
 40
14.25000000000001
100
AcDbArc
 50
324.1775448336006
 51
335.8224551664001
  0
ARC
  5
4C6
330
1F
100
AcDbEntity
  8
化粧台
  6
EXLTYPE2
 62
     6
100
AcDbCircle
 10
1145.0000000001
 20
1303.0
 30
0.0
 40
14.25000000000001
100
AcDbArc
 50
24.17754483359991
 51
35.82245516639971
  0
ARC
  5
4C7
330
1F
100
AcDbEntity
  8
化粧台
  6
EXLTYPE2
 62
     6
100
AcDbCircle
 10
1145.0000000001
 20
1303.0
 30
0.0
 40
14.25000000000001
100
AcDbArc
 50
84.17754483360022
 51
95.82245516636002
  0
ARC
  5
4C8
330
1F
100
AcDbEntity
  8
化粧台
  6
EXLTYPE2
 62
     6
100
AcDbCircle
 10
1145.0000000001
 20
1303.0
 30
0.0
 40
14.25000000000001
100
AcDbArc
 50
144.1775448336397
 51
155.8224551663601
  0
ARC
  5
4C9
330
1F
100
AcDbEntity
  8
化粧台
  6
EXLTYPE2
 62
     6
100
AcDbCircle
 10
1145.0000000001
 20
1303.0
 30
0.0
 40
14.25000000000001
100
AcDbArc
 50
204.1775448336
 51
215.8224551663998
  0
CIRCLE
  5
4CA
330
1F
100
AcDbEntity
  8
化粧台
  6
EXLTYPE2
 62
     6
100
AcDbCircle
 10
1145.0000000001
 20
1303.0
 30
0.0
 40
4.75
  0
ARC
  5
4CB
330
1F
100
AcDbEntity
  8
化粧台
  6
EXLTYPE2
 62
     6
100
AcDbCircle
 10
1172.0000000001
 20
1303.0
 30
0.0
 40
40.0
100
AcDbArc
 50
165.6384884370866
 51
169.8112385239512
  0
ARC
  5
4CC
330
1F
100
AcDbEntity
  8
化粧台
  6
EXLTYPE2
 62
     6
100
AcDbCircle
 10
1118.0000000001
 20
1303.0
 30
0.0
 40
40.0
100
AcDbArc
 50
10.18876147604892
 51
14.36151156291657
  0
LINE
  5
4CD
330
1F
100
AcDbEntity
  8
化粧台
  6
EXLTYPE2
 62
     6
100
AcDbLine
 10
1132.7500000001
 20
1295.719890110719
 30
0.0
 11
1132.7500000001
 21
1282.865389352173
 31
0.0
  0
LINE
  5
4CE
330
1F
100
AcDbEntity
  8
化粧台
  6
EXLTYPE2
 62
     6
100
AcDbLine
 10
1157.2500000001
 20
1295.719890110719
 30
0.0
 11
1157.2500000001
 21
1282.865389352173
 31
0.0
  0
LINE
  5
4CF
330
1F
100
AcDbEntity
  8
化粧台
  6
EXLTYPE2
 62
     6
100
AcDbLine
 10
1134.030455542811
 20
1325.700000000001
 30
0.0
 11
1155.96954445739
 21
1325.700000000001
 31
0.0
  0
LINE
  5
4D0
330
1F
100
AcDbEntity
  8
化粧台
  6
EXLTYPE2
 62
     6
100
AcDbLine
 10
1134.030455542811
 20
1337.700000000001
 30
0.0
 11
1155.96954445739
 21
1337.700000000001
 31
0.0
  0
LINE
  5
4D1
330
1F
100
AcDbEntity
  8
化粧台
  6
EXLTYPE2
 62
     6
100
AcDbLine
 10
1133.5000000001
 20
1336.792887196869
 30
0.0
 11
1133.5000000001
 21
1326.607112803129
 31
0.0
  0
LINE
  5
4D2
330
1F
100
AcDbEntity
  8
化粧台
  6
EXLTYPE2
 62
     6
100
AcDbLine
 10
1156.5000000001
 20
1336.792887196869
 30
0.0
 11
1156.5000000001
 21
1326.607112803129
 31
0.0
  0
ARC
  5
4D3
330
1F
100
AcDbEntity
  8
化粧台
  6
EXLTYPE2
 62
     6
100
AcDbCircle
 10
1143.2500000001
 20
1331.700000000001
 30
0.0
 40
11.0
100
AcDbArc
 50
146.9442688490998
 51
152.4198007963999
  0
ARC
  5
4D4
330
1F
100
AcDbEntity
  8
化粧台
  6
EXLTYPE2
 62
     6
100
AcDbCircle
 10
1143.2500000001
 20
1331.700000000001
 30
0.0
 40
11.0
100
AcDbArc
 50
207.5801992036001
 51
213.0557311509001
  0
ARC
  5
4D5
330
1F
100
AcDbEntity
  8
化粧台
  6
EXLTYPE2
 62
     6
100
AcDbCircle
 10
1146.7500000001
 20
1331.700000000001
 30
0.0
 40
11.0
100
AcDbArc
 50
326.9442688491004
 51
332.4198007964001
  0
ARC
  5
4D6
330
1F
100
AcDbEntity
  8
化粧台
  6
EXLTYPE2
 62
     6
100
AcDbCircle
 10
1146.7500000001
 20
1331.700000000001
 30
0.0
 40
11.0
100
AcDbArc
 50
27.58019920359027
 51
33.05573115085006
  0
LINE
  5
4D7
330
1F
100
AcDbEntity
  8
化粧台
  6
EXLTYPE2
 62
     6
100
AcDbLine
 10
1134.5000000001
 20
1325.700000000001
 30
0.0
 11
1134.5000000001
 21
1322.84313483298
 31
0.0
  0
LINE
  5
4D8
330
1F
100
AcDbEntity
  8
化粧台
  6
EXLTYPE2
 62
     6
100
AcDbLine
 10
1155.5000000001
 20
1325.700000000001
 30
0.0
 11
1155.5000000001
 21
1322.84313483298
 31
0.0
  0
LINE
  5
4D9
330
1F
100
AcDbEntity
  8
化粧台
  6
CONTINUOUS
 62
     6
100
AcDbLine
 10
1118.4000000001
 20
1303.00000000004
 30
0.0
 11
1165.0500000001
 21
1303.00000000004
 31
0.0
  0
LINE
  5
4DA
330
1F
100
AcDbEntity
  8
化粧台
  6
CONTINUOUS
 62
     6
100
AcDbLine
 10
1215.0000000001
 20
1303.00000000004
 30
0.0
 11
1262.5000000001
 21
1303.00000000004
 31
0.0
  0
LINE
  5
4DB
330
1F
100
AcDbEntity
  8
化粧台
  6
EXLTYPE2
 62
     6
100
AcDbLine
 10
1138.000000000104
 20
1337.700000000001
 30
0.0
 11
1138.000000000104
 21
1551.950000000039
 31
0.0
  0
LINE
  5
4DC
330
1F
100
AcDbEntity
  8
化粧台
  6
EXLTYPE2
 62
     6
100
AcDbLine
 10
1152.000000000097
 20
1337.700000000039
 30
0.0
 11
1152.000000000097
 21
1557.65000000004
 31
0.0
  0
LINE
  5
4DD
330
1F
100
AcDbEntity
  8
化粧台
  6
EXLTYPE2
 62
     6
100
AcDbLine
 10
1134.5000000001
 20
1268.0
 30
0.0
 11
1134.5000000001
 21
983.0000000000001
 31
0.0
  0
LINE
  5
4DE
330
1F
100
AcDbEntity
  8
化粧台
  6
EXLTYPE2
 62
     6
100
AcDbLine
 10
1155.5000000001
 20
1268.00000000004
 30
0.0
 11
1155.5000000001
 21
983.0000000000001
 31
0.0
  0
LINE
  5
4DF
330
1F
100
AcDbEntity
  8
化粧台
  6
EXLTYPE2
 62
     6
100
AcDbLine
 10
1224.5000000001
 20
1268.00000000004
 30
0.0
 11
1224.5000000001
 21
983.0000000000401
 31
0.0
  0
LINE
  5
4E0
330
1F
100
AcDbEntity
  8
化粧台
  6
EXLTYPE2
 62
     6
100
AcDbLine
 10
1245.5000000001
 20
1268.00000000004
 30
0.0
 11
1245.5000000001
 21
983.0000000000401
 31
0.0
  0
LINE
  5
4E1
330
1F
100
AcDbEntity
  8
化粧台
  6
CONTINUOUS
 62
     2
100
AcDbLine
 10
756.5000000001805
 20
983.0000000000001
 30
0.0
 11
741.5000000001805
 21
983.0000000000001
 31
0.0
  0
LINE
  5
4E2
330
1F
100
AcDbEntity
  8
化粧台
  6
CONTINUOUS
 62
     2
100
AcDbLine
 10
755.0000000001733
 20
983.0000000000001
 30
0.0
 11
755.0000000001733
 21
979.5000000000001
 31
0.0
  0
LINE
  5
4E3
330
1F
100
AcDbEntity
  8
化粧台
  6
CONTINUOUS
 62
     2
100
AcDbLine
 10
743.0000000001733
 20
983.0000000000001
 30
0.0
 11
743.0000000001733
 21
979.5000000000001
 31
0.0
  0
LINE
  5
4E4
330
1F
100
AcDbEntity
  8
化粧台
  6
CONTINUOUS
 62
     2
100
AcDbLine
 10
743.0000000001733
 20
979.5000000000001
 30
0.0
 11
755.0000000001733
 21
979.5000000000001
 31
0.0
  0
LINE
  5
4E5
330
1F
100
AcDbEntity
  8
化粧台
  6
CONTINUOUS
 62
     2
100
AcDbLine
 10
1293.500000000183
 20
983.0000000000001
 30
0.0
 11
1308.500000000183
 21
983.0000000000001
 31
0.0
  0
LINE
  5
4E6
330
1F
100
AcDbEntity
  8
化粧台
  6
CONTINUOUS
 62
     2
100
AcDbLine
 10
1295.000000000191
 20
983.0000000000001
 30
0.0
 11
1295.000000000191
 21
979.5000000000001
 31
0.0
  0
LINE
  5
4E7
330
1F
100
AcDbEntity
  8
化粧台
  6
CONTINUOUS
 62
     2
100
AcDbLine
 10
1307.000000000191
 20
983.0000000000001
 30
0.0
 11
1307.000000000191
 21
979.5000000000001
 31
0.0
  0
LINE
  5
4E8
330
1F
100
AcDbEntity
  8
化粧台
  6
CONTINUOUS
 62
     2
100
AcDbLine
 10
1307.000000000191
 20
979.5000000000001
 30
0.0
 11
1295.000000000191
 21
979.5000000000001
 31
0.0
  0
LINE
  5
4E9
330
1F
100
AcDbEntity
  8
化粧台
  6
CONTINUOUS
 62
     2
100
AcDbLine
 10
1293.500000000183
 20
1070.0
 30
0.0
 11
1293.500000000183
 21
983.0000000000001
 31
0.0
  0
LINE
  5
4EA
330
1F
100
AcDbEntity
  8
化粧台
  6
CONTINUOUS
 62
     2
100
AcDbLine
 10
756.5000000001805
 20
1070.0
 30
0.0
 11
756.5000000001805
 21
983.0000000000001
 31
0.0
  0
LINE
  5
4EB
330
1F
100
AcDbEntity
  8
化粧台
  6
CONTINUOUS
 62
     2
100
AcDbLine
 10
1293.500000000181
 20
1070.0
 30
0.0
 11
756.5000000001805
 21
1070.0
 31
0.0
  0
LINE
  5
4EC
330
1F
100
AcDbEntity
  8
化粧台
  6
CONTINUOUS
 62
     2
100
AcDbLine
 10
1026.000000000141
 20
1071.00000000004
 30
0.0
 11
1305.000000000181
 21
1071.00000000004
 31
0.0
  0
LINE
  5
4ED
330
1F
100
AcDbEntity
  8
化粧台
  6
CONTINUOUS
 62
     2
100
AcDbLine
 10
745.0000000001405
 20
1071.00000000004
 30
0.0
 11
1024.000000000141
 21
1071.00000000004
 31
0.0
  0
LINE
  5
4EE
330
1F
100
AcDbEntity
  8
化粧台
  6
CONTINUOUS
 62
     2
100
AcDbLine
 10
1024.000000000141
 20
1155.6
 30
0.0
 11
1024.000000000141
 21
1071.0
 31
0.0
  0
LINE
  5
4EF
330
1F
100
AcDbEntity
  8
化粧台
  6
CONTINUOUS
 62
     2
100
AcDbLine
 10
1026.000000000141
 20
1155.6
 30
0.0
 11
1026.000000000141
 21
1071.0
 31
0.0
  0
LINE
  5
4F0
330
1F
100
AcDbEntity
  8
化粧台
  6
CONTINUOUS
 62
     2
100
AcDbLine
 10
1026.000000000141
 20
1561.0
 30
0.0
 11
1026.000000000141
 21
1214.4
 31
0.0
  0
LINE
  5
4F1
330
1F
100
AcDbEntity
  8
化粧台
  6
CONTINUOUS
 62
     2
100
AcDbLine
 10
1024.000000000141
 20
1561.0
 30
0.0
 11
1024.000000000141
 21
1214.4
 31
0.0
  0
LINE
  5
4F2
330
1F
100
AcDbEntity
  8
化粧台
  6
CONTINUOUS
 62
     2
100
AcDbLine
 10
745.0000000001423
 20
1561.0
 30
0.0
 11
745.0000000001419
 21
1071.0
 31
0.0
  0
LINE
  5
4F3
330
1F
100
AcDbEntity
  8
化粧台
  6
CONTINUOUS
 62
     2
100
AcDbLine
 10
1305.000000000142
 20
1561.0
 30
0.0
 11
1305.000000000142
 21
1071.0
 31
0.0
  0
LINE
  5
4F4
330
1F
100
AcDbEntity
  8
化粧台
  6
CONTINUOUS
 62
     2
100
AcDbLine
 10
1305.000000000181
 20
1561.00000000004
 30
0.0
 11
1026.000000000141
 21
1561.00000000004
 31
0.0
  0
LINE
  5
4F5
330
1F
100
AcDbEntity
  8
化粧台
  6
CONTINUOUS
 62
     2
100
AcDbLine
 10
1307.000000000213
 20
1568.0
 30
0.0
 11
743.0000000002133
 21
1568.0
 31
0.0
  0
LINE
  5
4F6
330
1F
100
AcDbEntity
  8
化粧台
  6
CONTINUOUS
 62
     2
100
AcDbLine
 10
1024.000000000141
 20
1561.00000000004
 30
0.0
 11
745.0000000001405
 21
1561.00000000004
 31
0.0
  0
ARC
  5
4F7
330
1F
100
AcDbEntity
  8
化粧台
  6
CONTINUOUS
 62
     2
100
AcDbCircle
 10
897.3702665095939
 20
1518.5
 30
0.0
 40
2.0
100
AcDbArc
 50
90.00000000000001
 51
163.1507203771844
  0
ARC
  5
4F8
330
1F
100
AcDbEntity
  8
化粧台
  6
CONTINUOUS
 62
     2
100
AcDbCircle
 10
897.3702665095939
 20
1513.5
 30
0.0
 40
2.0
100
AcDbArc
 50
196.8492796228166
 51
270.0
  0
ARC
  5
4F9
330
1F
100
AcDbEntity
  8
化粧台
  6
CONTINUOUS
 62
     2
100
AcDbCircle
 10
905.6250000001437
 20
1516.0
 30
0.0
 40
10.625
100
AcDbArc
 50
163.1507203771702
 51
196.8492796228299
  0
ARC
  5
4FA
330
1F
100
AcDbEntity
  8
化粧台
  6
CONTINUOUS
 62
     2
100
AcDbCircle
 10
954.5000000001437
 20
2600.685482900405
 30
0.0
 40
1090.685482900405
100
AcDbArc
 50
266.9919716782234
 51
273.0080283217766
  0
ARC
  5
4FB
330
1F
100
AcDbEntity
  8
化粧台
  6
CONTINUOUS
 62
     2
100
AcDbCircle
 10
954.5000000001432
 20
431.3145170995949
 30
0.0
 40
1090.685482900405
100
AcDbArc
 50
86.99197167822344
 51
93.00802832177662
  0
ARC
  5
4FC
330
1F
100
AcDbEntity
  8
化粧台
  6
CONTINUOUS
 62
     2
100
AcDbCircle
 10
1003.375000000143
 20
1516.0
 30
0.0
 40
10.625
100
AcDbArc
 50
343.1507203771704
 51
16.8492796228307
  0
ARC
  5
4FD
330
1F
100
AcDbEntity
  8
化粧台
  6
CONTINUOUS
 62
     2
100
AcDbCircle
 10
1011.629733490693
 20
1513.5
 30
0.0
 40
2.0
100
AcDbArc
 50
270.0
 51
343.1507203771844
  0
ARC
  5
4FE
330
1F
100
AcDbEntity
  8
化粧台
  6
CONTINUOUS
 62
     2
100
AcDbCircle
 10
1011.629733490693
 20
1518.5
 30
0.0
 40
2.0
100
AcDbArc
 50
16.84927962281563
 51
90.00000000000001
  0
ARC
  5
4FF
330
1F
100
AcDbEntity
  8
化粧台
  6
CONTINUOUS
 62
     2
100
AcDbCircle
 10
1152.62973349069
 20
1518.5
 30
0.0
 40
2.0
100
AcDbArc
 50
16.84927962281586
 51
90.00000000000001
  0
ARC
  5
500
330
1F
100
AcDbEntity
  8
化粧台
  6
CONTINUOUS
 62
     2
100
AcDbCircle
 10
1152.62973349069
 20
1513.5
 30
0.0
 40
2.0
100
AcDbArc
 50
270.0000000000002
 51
343.1507203771823
  0
ARC
  5
501
330
1F
100
AcDbEntity
  8
化粧台
  6
CONTINUOUS
 62
     2
100
AcDbCircle
 10
1144.375000000141
 20
1516.0
 30
0.0
 40
10.625
100
AcDbArc
 50
343.15072037717
 51
16.84927962283012
  0
ARC
  5
502
330
1F
100
AcDbEntity
  8
化粧台
  6
CONTINUOUS
 62
     2
100
AcDbCircle
 10
1095.500000000141
 20
2600.685482900405
 30
0.0
 40
1090.685482900405
100
AcDbArc
 50
266.9919716782235
 51
273.0080283217767
  0
ARC
  5
503
330
1F
100
AcDbEntity
  8
化粧台
  6
CONTINUOUS
 62
     2
100
AcDbCircle
 10
1095.500000000141
 20
431.3145170995949
 30
0.0
 40
1090.685482900405
100
AcDbArc
 50
86.99197167822338
 51
93.00802832177656
  0
ARC
  5
504
330
1F
100
AcDbEntity
  8
化粧台
  6
CONTINUOUS
 62
     2
100
AcDbCircle
 10
1046.625000000141
 20
1516.0
 30
0.0
 40
10.625
100
AcDbArc
 50
163.1507203771698
 51
196.8492796228301
  0
ARC
  5
505
330
1F
100
AcDbEntity
  8
化粧台
  6
CONTINUOUS
 62
     2
100
AcDbCircle
 10
1038.370266509591
 20
1513.5
 30
0.0
 40
2.0
100
AcDbArc
 50
196.8492796228176
 51
270.0000000000002
  0
ARC
  5
506
330
1F
100
AcDbEntity
  8
化粧台
  6
CONTINUOUS
 62
     2
100
AcDbCircle
 10
1038.370266509591
 20
1518.5
 30
0.0
 40
2.0
100
AcDbArc
 50
90.00000000000001
 51
163.1507203771841
  0
CIRCLE
  5
507
330
1F
100
AcDbEntity
  8
化粧台
  6
EXLTYPE2
 62
     6
100
AcDbCircle
 10
1034.000000000142
 20
1553.0
 30
0.0
 40
4.0
  0
CIRCLE
  5
508
330
1F
100
AcDbEntity
  8
化粧台
  6
EXLTYPE2
 62
     6
100
AcDbCircle
 10
1016.000000000222
 20
1553.0
 30
0.0
 40
4.0
  0
CIRCLE
  5
509
330
1F
100
AcDbEntity
  8
化粧台
  6
EXLTYPE2
 62
     6
100
AcDbCircle
 10
1016.000000000222
 20
1079.0
 30
0.0
 40
4.0
  0
CIRCLE
  5
50A
330
1F
100
AcDbEntity
  8
化粧台
  6
EXLTYPE2
 62
     6
100
AcDbCircle
 10
1034.000000000142
 20
1079.0
 30
0.0
 40
4.0
  0
LINE
  5
50B
330
1F
100
AcDbEntity
  8
化粧台
  6
CONTINUOUS
 62
     2
100
AcDbLine
 10
831.9964931643221
 20
1699.500000000108
 30
0.0
 11
730.2565282705004
 21
1699.500000000108
 31
0.0
  0
ARC
  5
50C
330
1F
100
AcDbEntity
  8
化粧台
  6
CONTINUOUS
 62
     2
100
AcDbCircle
 10
829.5350115097922
 20
1727.604339212761
 30
0.0
 40
3.000000000000002
100
AcDbArc
 50
87.51044707800041
 51
202.7033731173424
  0
ARC
  5
50D
330
1F
100
AcDbEntity
  8
化粧台
  6
CONTINUOUS
 62
     2
100
AcDbCircle
 10
730.2565282705004
 20
1702.500000000108
 30
0.0
 40
3.000000000000002
100
AcDbArc
 50
182.082565279727
 51
270.0000000000002
  0
LINE
  5
50E
330
1F
100
AcDbEntity
  8
化粧台
  6
CONTINUOUS
 62
     2
100
AcDbLine
 10
727.258509776661
 20
1702.390981145787
 30
0.0
 11
725.1884253852518
 21
1759.318301909572
 31
0.0
  0
ARC
  5
50F
330
1F
100
AcDbEntity
  8
化粧台
  6
CONTINUOUS
 62
     2
100
AcDbCircle
 10
831.9964931643221
 20
1684.500000000108
 30
0.0
 40
15.00000000000001
100
AcDbArc
 50
32.90482742074656
 51
90.00000000000001
  0
ARC
  5
510
330
1F
100
AcDbEntity
  8
化粧台
  6
CONTINUOUS
 62
     2
100
AcDbCircle
 10
730.1851228749842
 20
1759.500000000108
 30
0.0
 40
5.0
100
AcDbArc
 50
90.00000000000001
 51
182.0825652797287
  0
ARC
  5
511
330
1F
100
AcDbEntity
  8
化粧台
  6
CONTINUOUS
 62
     2
100
AcDbCircle
 10
746.4359574454234
 20
1754.239070429828
 30
0.0
 40
20.0
100
AcDbArc
 50
232.1446748345211
 51
267.5104470780012
  0
LINE
  5
512
330
1F
100
AcDbEntity
  8
化粧台
  6
CONTINUOUS
 62
     2
100
AcDbLine
 10
855.0000000001405
 20
1729.500000000108
 30
0.0
 11
745.5672129598975
 21
1734.257947262727
 31
0.0
  0
ARC
  5
513
330
1F
100
AcDbEntity
  8
化粧台
  6
CONTINUOUS
 62
     2
100
AcDbCircle
 10
731.0942137840743
 20
1734.500000000108
 30
0.0
 40
5.0
100
AcDbArc
 50
52.14467483452227
 51
182.0825652797287
  0
LINE
  5
514
330
1F
100
AcDbEntity
  8
化粧台
  6
CONTINUOUS
 62
     2
100
AcDbLine
 10
855.0000000001405
 20
1729.500000000108
 30
0.0
 11
1195.000000000141
 21
1729.500000000108
 31
0.0
  0
ARC
  5
515
330
1F
100
AcDbEntity
  8
化粧台
  6
CONTINUOUS
 62
     2
100
AcDbCircle
 10
1025.000000000141
 20
1809.382636433079
 30
0.0
 40
214.8826364329721
100
AcDbArc
 50
202.703373117341
 51
337.2966268826593
  0
LINE
  5
516
330
1F
100
AcDbEntity
  8
化粧台
  6
CONTINUOUS
 62
     2
100
AcDbLine
 10
1218.003506835961
 20
1699.500000000108
 30
0.0
 11
1319.743471729782
 21
1699.500000000108
 31
0.0
  0
ARC
  5
517
330
1F
100
AcDbEntity
  8
化粧台
  6
CONTINUOUS
 62
     2
100
AcDbCircle
 10
1218.003506835961
 20
1684.500000000108
 30
0.0
 40
15.00000000000001
100
AcDbArc
 50
90.00000000000001
 51
147.0951725792534
  0
ARC
  5
518
330
1F
100
AcDbEntity
  8
化粧台
  6
CONTINUOUS
 62
     2
100
AcDbCircle
 10
1319.743471729782
 20
1702.500000000108
 30
0.0
 40
3.000000000000002
100
AcDbArc
 50
270.0000000000002
 51
357.9174347202712
  0
ARC
  5
519
330
1F
100
AcDbEntity
  8
化粧台
  6
CONTINUOUS
 62
     2
100
AcDbCircle
 10
1319.8148771253
 20
1759.500000000108
 30
0.0
 40
5.0
100
AcDbArc
 50
357.9174347202689
 51
90.00000000000001
  0
ARC
  5
51A
330
1F
100
AcDbEntity
  8
化粧台
  6
CONTINUOUS
 62
     2
100
AcDbCircle
 10
1303.564042554859
 20
1754.239070429828
 30
0.0
 40
20.0
100
AcDbArc
 50
272.4895529219991
 51
307.8553251654786
  0
ARC
  5
51B
330
1F
100
AcDbEntity
  8
化粧台
  6
CONTINUOUS
 62
     2
100
AcDbCircle
 10
1318.905786216208
 20
1734.500000000108
 30
0.0
 40
5.0
100
AcDbArc
 50
357.9174347202689
 51
127.8553251654777
  0
LINE
  5
51C
330
1F
100
AcDbEntity
  8
化粧台
  6
CONTINUOUS
 62
     2
100
AcDbLine
 10
1322.741490223621
 20
1702.390981145787
 30
0.0
 11
1324.811574615032
 21
1759.318301909572
 31
0.0
  0
LINE
  5
51D
330
1F
100
AcDbEntity
  8
化粧台
  6
CONTINUOUS
 62
     6
100
AcDbLine
 10
1205.000000000971
 20
1837.021739130599
 30
0.0
 11
1230.000000000969
 21
1837.021739130599
 31
0.0
  0
LINE
  5
51E
330
1F
100
AcDbEntity
  8
化粧台
  6
CONTINUOUS
 62
     6
100
AcDbLine
 10
1230.000000000969
 20
1837.021739130599
 30
0.0
 11
1255.000000000971
 21
1837.021739130599
 31
0.0
  0
ARC
  5
51F
330
1F
100
AcDbEntity
  8
化粧台
  6
CONTINUOUS
 62
     6
100
AcDbCircle
 10
1187.583227050465
 20
1794.021739130604
 30
0.0
 40
23.13740480126591
100
AcDbArc
 50
318.8295003524853
 51
41.17049964751445
  0
LINE
  5
520
330
1F
100
AcDbEntity
  8
化粧台
  6
CONTINUOUS
 62
     6
100
AcDbLine
 10
1205.000000000969
 20
1778.790339952315
 30
0.0
 11
1205.000000000969
 21
1736.11803033238
 31
0.0
  0
LINE
  5
521
330
1F
100
AcDbEntity
  8
化粧台
  6
CONTINUOUS
 62
     6
100
AcDbLine
 10
1122.630798149082
 20
1800.11761091786
 30
0.0
 11
1137.402914444264
 21
1797.512888252855
 31
0.0
  0
LINE
  5
522
330
1F
100
AcDbEntity
  8
化粧台
  6
CONTINUOUS
 62
     6
100
AcDbLine
 10
1255.000000000969
 20
1775.55809552572
 30
0.0
 11
1255.000000000967
 21
1736.118030332381
 31
0.0
  0
LINE
  5
523
330
1F
100
AcDbEntity
  8
化粧台
  6
CONTINUOUS
 62
     6
100
AcDbLine
 10
1137.402914444264
 20
1797.512888252855
 30
0.0
 11
1141.847710806359
 21
1789.925792430829
 31
0.0
  0
LINE
  5
524
330
1F
100
AcDbEntity
  8
化粧台
  6
CONTINUOUS
 62
     6
100
AcDbLine
 10
1141.847710806359
 20
1789.925792430829
 30
0.0
 11
1205.000000000969
 21
1778.790339952315
 31
0.0
  0
LINE
  5
525
330
1F
100
AcDbEntity
  8
化粧台
  6
CONTINUOUS
 62
     6
100
AcDbLine
 10
1204.964238346412
 20
1735.932334994203
 30
0.0
 11
1203.000000000967
 21
1731.0217391306
 31
0.0
  0
ARC
  5
526
330
1F
100
AcDbEntity
  8
化粧台
  6
CONTINUOUS
 62
     6
100
AcDbCircle
 10
1204.500000000967
 20
1736.11803033238
 30
0.0
 40
0.5
100
AcDbArc
 50
338.1985905136144
 51
0.0
  0
ARC
  5
527
330
1F
100
AcDbEntity
  8
化粧台
  6
CONTINUOUS
 62
     6
100
AcDbCircle
 10
1204.500000000969
 20
1736.11803033238
 30
0.0
 40
0.5
100
AcDbArc
 50
338.1985905136144
 51
0.0
  0
ARC
  5
528
330
1F
100
AcDbEntity
  8
化粧台
  6
CONTINUOUS
 62
     6
100
AcDbCircle
 10
1255.500000000971
 20
1736.118030332381
 30
0.0
 40
0.5
100
AcDbArc
 50
180.0
 51
201.8014094863857
  0
ARC
  5
529
330
1F
100
AcDbEntity
  8
化粧台
  6
CONTINUOUS
 62
     6
100
AcDbCircle
 10
1255.500000000971
 20
1736.118030332381
 30
0.0
 40
0.5
100
AcDbArc
 50
180.0
 51
201.8014094863857
  0
LINE
  5
52A
330
1F
100
AcDbEntity
  8
化粧台
  6
CONTINUOUS
 62
     6
100
AcDbLine
 10
1255.035761655526
 20
1735.932334994204
 30
0.0
 11
1257.000000000971
 21
1731.0217391306
 31
0.0
  0
ARC
  5
52B
330
1F
100
AcDbEntity
  8
化粧台
  6
CONTINUOUS
 62
     6
100
AcDbCircle
 10
1230.020088785971
 20
1838.904498289498
 30
0.0
 40
22.5
100
AcDbArc
 50
160.114147801709
 51
169.4561209550643
  0
LINE
  5
52C
330
1F
100
AcDbEntity
  8
化粧台
  6
CONTINUOUS
 62
     6
100
AcDbLine
 10
1205.000000000971
 20
1841.021739130599
 30
0.0
 11
1205.000000000967
 21
1809.253138308888
 31
0.0
  0
ARC
  5
52D
330
1F
100
AcDbEntity
  8
化粧台
  6
CONTINUOUS
 62
     6
100
AcDbCircle
 10
1207.000000000971
 20
1841.021739130599
 30
0.0
 40
2.0
100
AcDbArc
 50
90.00000000000001
 51
179.9999999999936
  0
LINE
  5
52E
330
1F
100
AcDbEntity
  8
化粧台
  6
CONTINUOUS
 62
     6
100
AcDbLine
 10
1255.000000000969
 20
1841.021739130599
 30
0.0
 11
1255.000000000969
 21
1775.55809552572
 31
0.0
  0
LINE
  5
52F
330
1F
100
AcDbEntity
  8
化粧台
  6
CONTINUOUS
 62
     6
100
AcDbLine
 10
1253.000000000971
 20
1843.021739130599
 30
0.0
 11
1207.000000000971
 21
1843.021739130599
 31
0.0
  0
ARC
  5
530
330
1F
100
AcDbEntity
  8
化粧台
  6
CONTINUOUS
 62
     6
100
AcDbCircle
 10
1253.000000000971
 20
1841.021739130599
 30
0.0
 40
2.0
100
AcDbArc
 50
0.0
 51
90.00000000000001
  0
ARC
  5
531
330
1F
100
AcDbEntity
  8
化粧台
  6
CONTINUOUS
 62
     6
100
AcDbCircle
 10
1229.979911215969
 20
1838.904498289498
 30
0.0
 40
22.5
100
AcDbArc
 50
10.54387904493575
 51
19.88585219831368
  0
LINE
  5
532
330
1F
100
AcDbEntity
  8
化粧台
  6
CONTINUOUS
 62
     6
100
AcDbLine
 10
1109.123947364709
 20
1826.158673192485
 30
0.0
 11
1205.000000000969
 21
1809.253138308887
 31
0.0
  0
LINE
  5
533
330
1F
100
AcDbEntity
  8
化粧台
  6
CONTINUOUS
 62
     6
100
AcDbLine
 10
1105.07794482507
 20
1803.212652547301
 30
0.0
 11
1122.630798149082
 21
1800.117610917858
 31
0.0
  0
LINE
  5
534
330
1F
100
AcDbEntity
  8
化粧台
  6
CONTINUOUS
 62
     6
100
AcDbLine
 10
1110.813105112936
 20
1802.201389049862
 30
0.0
 11
1109.419706280285
 21
1794.299031582778
 31
0.0
  0
LINE
  5
535
330
1F
100
AcDbEntity
  8
化粧台
  6
CONTINUOUS
 62
     6
100
AcDbLine
 10
1109.419706280286
 20
1794.299031582778
 30
0.0
 11
1133.055092352578
 21
1790.131475318769
 31
0.0
  0
LINE
  5
536
330
1F
100
AcDbEntity
  8
化粧台
  6
CONTINUOUS
 62
     6
100
AcDbLine
 10
1134.44849118523
 20
1798.033832785856
 30
0.0
 11
1133.055092352578
 21
1790.131475318769
 31
0.0
  0
LINE
  5
537
330
1F
100
AcDbEntity
  8
化粧台
  6
CONTINUOUS
 62
     6
100
AcDbLine
 10
1230.000000000969
 20
1731.0217391306
 30
0.0
 11
1203.000000000971
 21
1731.0217391306
 31
0.0
  0
LINE
  5
538
330
1F
100
AcDbEntity
  8
化粧台
  6
CONTINUOUS
 62
     6
100
AcDbLine
 10
1230.000000000969
 20
1731.0217391306
 30
0.0
 11
1257.000000000967
 21
1731.0217391306
 31
0.0
  0
LINE
  5
539
330
1F
100
AcDbEntity
  8
化粧台
  6
CONTINUOUS
 62
     6
100
AcDbLine
 10
1255.000000000967
 20
1736.118030332379
 30
0.0
 11
1205.000000000969
 21
1736.118030332379
 31
0.0
  0
LINE
  5
53A
330
1F
100
AcDbEntity
  8
化粧台
  6
CONTINUOUS
 62
     6
100
AcDbLine
 10
1105.07794482507
 20
1803.212652547301
 30
0.0
 11
1109.123947364709
 21
1826.158673192485
 31
0.0
  0
ARC
  5
53B
330
1F
100
AcDbEntity
  8
化粧台
  6
CONTINUOUS
 62
     6
100
AcDbCircle
 10
1200.184405713171
 20
1876.180811864949
 30
0.0
 40
6.29979425145349
100
AcDbArc
 50
319.8540880800269
 51
40.14591191997305
  0
LINE
  5
53C
330
1F
100
AcDbEntity
  8
化粧台
  6
CONTINUOUS
 62
     6
100
AcDbLine
 10
1205.000000000969
 20
1860.621739130601
 30
0.0
 11
1205.000000000969
 21
1872.119105417411
 31
0.0
  0
LINE
  5
53D
330
1F
100
AcDbEntity
  8
化粧台
  6
CONTINUOUS
 62
     6
100
AcDbLine
 10
1205.000000000969
 20
1846.557813856066
 30
0.0
 11
1205.000000000967
 21
1860.621739130601
 31
0.0
  0
LINE
  5
53E
330
1F
100
AcDbEntity
  8
化粧台
  6
CONTINUOUS
 62
     6
100
AcDbLine
 10
1205.000000000975
 20
1846.557813856066
 30
0.0
 11
1205.000000000975
 21
1854.521739130599
 31
0.0
  0
LINE
  5
53F
330
1F
100
AcDbEntity
  8
化粧台
  6
CONTINUOUS
 62
     6
100
AcDbLine
 10
1205.000000000969
 20
1865.721739130599
 30
0.0
 11
1204.502252577631
 21
1865.721739130599
 31
0.0
  0
LINE
  5
540
330
1F
100
AcDbEntity
  8
化粧台
  6
CONTINUOUS
 62
     6
100
AcDbLine
 10
1205.000000000969
 20
1855.521739130599
 30
0.0
 11
1204.502252577633
 21
1855.521739130598
 31
0.0
  0
ARC
  5
541
330
1F
100
AcDbEntity
  8
化粧台
  6
CONTINUOUS
 62
     6
100
AcDbCircle
 10
1210.06944001918
 20
1860.621739130599
 30
0.0
 40
7.55007125855991
100
AcDbArc
 50
137.5077625694678
 51
222.4922374305324
  0
POLYLINE
  5
542
330
1F
100
AcDbEntity
  8
化粧台
  6
CONTINUOUS
 62
     6
100
AcDb2dPolyline
 66
     1
 10
0.0
 20
0.0
 30
0.0
 70
   128
  0
VERTEX
  5
543
330
542
100
AcDbEntity
  8
化粧台
  6
CONTINUOUS
 62
     6
100
AcDbVertex
100
AcDb2dVertex
 10
1205.017563043762
 20
1855.619778346298
 30
0.0
  0
VERTEX
  5
544
330
542
100
AcDbEntity
  8
化粧台
  6
CONTINUOUS
 62
     6
100
AcDbVertex
100
AcDb2dVertex
 10
1205.017565618768
 20
1855.615965209146
 30
0.0
  0
VERTEX
  5
545
330
542
100
AcDbEntity
  8
化粧台
  6
CONTINUOUS
 62
     6
100
AcDbVertex
100
AcDb2dVertex
 10
1205.017570843481
 20
1855.605137148207
 30
0.0
  0
VERTEX
  5
546
330
542
100
AcDbEntity
  8
化粧台
  6
CONTINUOUS
 62
     6
100
AcDbVertex
100
AcDb2dVertex
 10
1205.017574967445
 20
1855.58821118925
 30
0.0
  0
VERTEX
  5
547
330
542
100
AcDbEntity
  8
化粧台
  6
CONTINUOUS
 62
     6
100
AcDbVertex
100
AcDb2dVertex
 10
1205.017574240204
 20
1855.566104358046
 30
0.0
  0
VERTEX
  5
548
330
542
100
AcDbEntity
  8
化粧台
  6
CONTINUOUS
 62
     6
100
AcDbVertex
100
AcDb2dVertex
 10
1205.017564911302
 20
1855.539733680367
 30
0.0
  0
VERTEX
  5
549
330
542
100
AcDbEntity
  8
化粧台
  6
CONTINUOUS
 62
     6
100
AcDbVertex
100
AcDb2dVertex
 10
1205.017543230283
 20
1855.510016181984
 30
0.0
  0
VERTEX
  5
54A
330
542
100
AcDbEntity
  8
化粧台
  6
CONTINUOUS
 62
     6
100
AcDbVertex
100
AcDb2dVertex
 10
1205.01750544669
 20
1855.477868888669
 30
0.0
  0
VERTEX
  5
54B
330
542
100
AcDbEntity
  8
化粧台
  6
CONTINUOUS
 62
     6
100
AcDbVertex
100
AcDb2dVertex
 10
1205.017447810067
 20
1855.444208826191
 30
0.0
  0
VERTEX
  5
54C
330
542
100
AcDbEntity
  8
化粧台
  6
CONTINUOUS
 62
     6
100
AcDbVertex
100
AcDb2dVertex
 10
1205.017366569959
 20
1855.409953020322
 30
0.0
  0
VERTEX
  5
54D
330
542
100
AcDbEntity
  8
化粧台
  6
CONTINUOUS
 62
     6
100
AcDbVertex
100
AcDb2dVertex
 10
1205.017257975909
 20
1855.376018496834
 30
0.0
  0
VERTEX
  5
54E
330
542
100
AcDbEntity
  8
化粧台
  6
CONTINUOUS
 62
     6
100
AcDbVertex
100
AcDb2dVertex
 10
1205.01711827746
 20
1855.343322281498
 30
0.0
  0
VERTEX
  5
54F
330
542
100
AcDbEntity
  8
化粧台
  6
CONTINUOUS
 62
     6
100
AcDbVertex
100
AcDb2dVertex
 10
1205.016952105271
 20
1855.313763279329
 30
0.0
  0
VERTEX
  5
550
330
542
100
AcDbEntity
  8
化粧台
  6
CONTINUOUS
 62
     6
100
AcDbVertex
100
AcDb2dVertex
 10
1205.016755094224
 20
1855.28596660251
 30
0.0
  0
VERTEX
  5
551
330
542
100
AcDbEntity
  8
化粧台
  6
CONTINUOUS
 62
     6
100
AcDbVertex
100
AcDb2dVertex
 10
1205.016528559217
 20
1855.259706271519
 30
0.0
  0
VERTEX
  5
552
330
542
100
AcDbEntity
  8
化粧台
  6
CONTINUOUS
 62
     6
100
AcDbVertex
100
AcDb2dVertex
 10
1205.016273815145
 20
1855.234756306832
 30
0.0
  0
VERTEX
  5
553
330
542
100
AcDbEntity
  8
化粧台
  6
CONTINUOUS
 62
     6
100
AcDbVertex
100
AcDb2dVertex
 10
1205.015992176906
 20
1855.210890728929
 30
0.0
  0
VERTEX
  5
554
330
542
100
AcDbEntity
  8
化粧台
  6
CONTINUOUS
 62
     6
100
AcDbVertex
100
AcDb2dVertex
 10
1205.015684959396
 20
1855.187883558286
 30
0.0
  0
VERTEX
  5
555
330
542
100
AcDbEntity
  8
化粧台
  6
CONTINUOUS
 62
     6
100
AcDbVertex
100
AcDb2dVertex
 10
1205.015353477512
 20
1855.165508815381
 30
0.0
  0
VERTEX
  5
556
330
542
100
AcDbEntity
  8
化粧台
  6
CONTINUOUS
 62
     6
100
AcDbVertex
100
AcDb2dVertex
 10
1205.01499904615
 20
1855.143540520693
 30
0.0
  0
VERTEX
  5
557
330
542
100
AcDbEntity
  8
化粧台
  6
CONTINUOUS
 62
     6
100
AcDbVertex
100
AcDb2dVertex
 10
1205.014622980207
 20
1855.121752694697
 30
0.0
  0
VERTEX
  5
558
330
542
100
AcDbEntity
  8
化粧台
  6
CONTINUOUS
 62
     6
100
AcDbVertex
100
AcDb2dVertex
 10
1205.014226594579
 20
1855.099919357873
 30
0.0
  0
VERTEX
  5
559
330
542
100
AcDbEntity
  8
化粧台
  6
CONTINUOUS
 62
     6
100
AcDbVertex
100
AcDb2dVertex
 10
1205.013811204164
 20
1855.077814530699
 30
0.0
  0
VERTEX
  5
55A
330
542
100
AcDbEntity
  8
化粧台
  6
CONTINUOUS
 62
     6
100
AcDbVertex
100
AcDb2dVertex
 10
1205.013438971582
 20
1855.058419965191
 30
0.0
  0
VERTEX
  5
55B
330
542
100
AcDbEntity
  8
化粧台
  6
CONTINUOUS
 62
     6
100
AcDbVertex
100
AcDb2dVertex
 10
1205.013052305322
 20
1855.038679615702
 30
0.0
  0
VERTEX
  5
55C
330
542
100
AcDbEntity
  8
化粧台
  6
CONTINUOUS
 62
     6
100
AcDbVertex
100
AcDb2dVertex
 10
1205.012649885617
 20
1855.018616483786
 30
0.0
  0
VERTEX
  5
55D
330
542
100
AcDbEntity
  8
化粧台
  6
CONTINUOUS
 62
     6
100
AcDbVertex
100
AcDb2dVertex
 10
1205.012230392701
 20
1854.998253570993
 30
0.0
  0
VERTEX
  5
55E
330
542
100
AcDbEntity
  8
化粧台
  6
CONTINUOUS
 62
     6
100
AcDbVertex
100
AcDb2dVertex
 10
1205.011792506806
 20
1854.977613878877
 30
0.0
  0
VERTEX
  5
55F
330
542
100
AcDbEntity
  8
化粧台
  6
CONTINUOUS
 62
     6
100
AcDbVertex
100
AcDb2dVertex
 10
1205.011334908166
 20
1854.956720408988
 30
0.0
  0
VERTEX
  5
560
330
542
100
AcDbEntity
  8
化粧台
  6
CONTINUOUS
 62
     6
100
AcDbVertex
100
AcDb2dVertex
 10
1205.010856277015
 20
1854.93559616288
 30
0.0
  0
VERTEX
  5
561
330
542
100
AcDbEntity
  8
化粧台
  6
CONTINUOUS
 62
     6
100
AcDbVertex
100
AcDb2dVertex
 10
1205.010355293586
 20
1854.914264142105
 30
0.0
  0
VERTEX
  5
562
330
542
100
AcDbEntity
  8
化粧台
  6
CONTINUOUS
 62
     6
100
AcDbVertex
100
AcDb2dVertex
 10
1205.009830638112
 20
1854.892747348215
 30
0.0
  0
VERTEX
  5
563
330
542
100
AcDbEntity
  8
化粧台
  6
CONTINUOUS
 62
     6
100
AcDbVertex
100
AcDb2dVertex
 10
1205.009280990826
 20
1854.871068782762
 30
0.0
  0
VERTEX
  5
564
330
542
100
AcDbEntity
  8
化粧台
  6
CONTINUOUS
 62
     6
100
AcDbVertex
100
AcDb2dVertex
 10
1205.008705031963
 20
1854.849251447298
 30
0.0
  0
VERTEX
  5
565
330
542
100
AcDbEntity
  8
化粧台
  6
CONTINUOUS
 62
     6
100
AcDbVertex
100
AcDb2dVertex
 10
1205.008236888
 20
1854.83214759848
 30
0.0
  0
VERTEX
  5
566
330
542
100
AcDbEntity
  8
化粧台
  6
CONTINUOUS
 62
     6
100
AcDbVertex
100
AcDb2dVertex
 10
1205.007754812139
 20
1854.815035219754
 30
0.0
  0
VERTEX
  5
567
330
542
100
AcDbEntity
  8
化粧台
  6
CONTINUOUS
 62
     6
100
AcDbVertex
100
AcDb2dVertex
 10
1205.007261709511
 20
1854.797976324166
 30
0.0
  0
VERTEX
  5
568
330
542
100
AcDbEntity
  8
化粧台
  6
CONTINUOUS
 62
     6
100
AcDbVertex
100
AcDb2dVertex
 10
1205.006760485246
 20
1854.781032924764
 30
0.0
  0
VERTEX
  5
569
330
542
100
AcDbEntity
  8
化粧台
  6
CONTINUOUS
 62
     6
100
AcDbVertex
100
AcDb2dVertex
 10
1205.006254044473
 20
1854.764267034591
 30
0.0
  0
VERTEX
  5
56A
330
542
100
AcDbEntity
  8
化粧台
  6
CONTINUOUS
 62
     6
100
AcDbVertex
100
AcDb2dVertex
 10
1205.005745292323
 20
1854.747740666696
 30
0.0
  0
VERTEX
  5
56B
330
542
100
AcDbEntity
  8
化粧台
  6
CONTINUOUS
 62
     6
100
AcDbVertex
100
AcDb2dVertex
 10
1205.005237133926
 20
1854.731515834125
 30
0.0
  0
VERTEX
  5
56C
330
542
100
AcDbEntity
  8
化粧台
  6
CONTINUOUS
 62
     6
100
AcDbVertex
100
AcDb2dVertex
 10
1205.004732474411
 20
1854.715654549923
 30
0.0
  0
VERTEX
  5
56D
330
542
100
AcDbEntity
  8
化粧台
  6
CONTINUOUS
 62
     6
100
AcDbVertex
100
AcDb2dVertex
 10
1205.004234218909
 20
1854.700218827137
 30
0.0
  0
VERTEX
  5
56E
330
542
100
AcDbEntity
  8
化粧台
  6
CONTINUOUS
 62
     6
100
AcDbVertex
100
AcDb2dVertex
 10
1205.003745272549
 20
1854.685270678813
 30
0.0
  0
VERTEX
  5
56F
330
542
100
AcDbEntity
  8
化粧台
  6
CONTINUOUS
 62
     6
100
AcDbVertex
100
AcDb2dVertex
 10
1205.003268540462
 20
1854.670872117998
 30
0.0
  0
VERTEX
  5
570
330
542
100
AcDbEntity
  8
化粧台
  6
CONTINUOUS
 62
     6
100
AcDbVertex
100
AcDb2dVertex
 10
1205.002977152423
 20
1854.662157589103
 30
0.0
  0
VERTEX
  5
571
330
542
100
AcDbEntity
  8
化粧台
  6
CONTINUOUS
 62
     6
100
AcDbVertex
100
AcDb2dVertex
 10
1205.002686389888
 20
1854.65355134298
 30
0.0
  0
VERTEX
  5
572
330
542
100
AcDbEntity
  8
化粧台
  6
CONTINUOUS
 62
     6
100
AcDbVertex
100
AcDb2dVertex
 10
1205.002390975379
 20
1854.644922878667
 30
0.0
  0
VERTEX
  5
573
330
542
100
AcDbEntity
  8
化粧台
  6
CONTINUOUS
 62
     6
100
AcDbVertex
100
AcDb2dVertex
 10
1205.002085631416
 20
1854.636141695203
 30
0.0
  0
VERTEX
  5
574
330
542
100
AcDbEntity
  8
化粧台
  6
CONTINUOUS
 62
     6
100
AcDbVertex
100
AcDb2dVertex
 10
1205.00176508052
 20
1854.627077291627
 30
0.0
  0
VERTEX
  5
575
330
542
100
AcDbEntity
  8
化粧台
  6
CONTINUOUS
 62
     6
100
AcDbVertex
100
AcDb2dVertex
 10
1205.001424045214
 20
1854.617599166977
 30
0.0
  0
VERTEX
  5
576
330
542
100
AcDbEntity
  8
化粧台
  6
CONTINUOUS
 62
     6
100
AcDbVertex
100
AcDb2dVertex
 10
1205.001057248017
 20
1854.607576820294
 30
0.0
  0
VERTEX
  5
577
330
542
100
AcDbEntity
  8
化粧台
  6
CONTINUOUS
 62
     6
100
AcDbVertex
100
AcDb2dVertex
 10
1205.000659411453
 20
1854.596879750616
 30
0.0
  0
VERTEX
  5
578
330
542
100
AcDbEntity
  8
化粧台
  6
CONTINUOUS
 62
     6
100
AcDbVertex
100
AcDb2dVertex
 10
1205.000225258041
 20
1854.585377456981
 30
0.0
  0
VERTEX
  5
579
330
542
100
AcDbEntity
  8
化粧台
  6
CONTINUOUS
 62
     6
100
AcDbVertex
100
AcDb2dVertex
 10
1204.999749510304
 20
1854.572939438428
 30
0.0
  0
VERTEX
  5
57A
330
542
100
AcDbEntity
  8
化粧台
  6
CONTINUOUS
 62
     6
100
AcDbVertex
100
AcDb2dVertex
 10
1204.999226890762
 20
1854.559435193998
 30
0.0
  0
VERTEX
  5
57B
330
542
100
AcDbEntity
  8
化粧台
  6
CONTINUOUS
 62
     6
100
AcDbVertex
100
AcDb2dVertex
 10
1204.999039266327
 20
1854.554620278617
 30
0.0
  0
VERTEX
  5
57C
330
542
100
AcDbEntity
  8
化粧台
  6
CONTINUOUS
 62
     6
100
AcDbVertex
100
AcDb2dVertex
 10
1204.998849821742
 20
1854.54977203555
 30
0.0
  0
VERTEX
  5
57D
330
542
100
AcDbEntity
  8
化粧台
  6
CONTINUOUS
 62
     6
100
AcDbVertex
100
AcDb2dVertex
 10
1204.998662705556
 20
1854.544994107396
 30
0.0
  0
VERTEX
  5
57E
330
542
100
AcDbEntity
  8
化粧台
  6
CONTINUOUS
 62
     6
100
AcDbVertex
100
AcDb2dVertex
 10
1204.998482066317
 20
1854.54039013675
 30
0.0
  0
VERTEX
  5
57F
330
542
100
AcDbEntity
  8
化粧台
  6
CONTINUOUS
 62
     6
100
AcDbVertex
100
AcDb2dVertex
 10
1204.998312052574
 20
1854.536063766209
 30
0.0
  0
VERTEX
  5
580
330
542
100
AcDbEntity
  8
化粧台
  6
CONTINUOUS
 62
     6
100
AcDbVertex
100
AcDb2dVertex
 10
1204.998156812876
 20
1854.53211863837
 30
0.0
  0
VERTEX
  5
581
330
542
100
AcDbEntity
  8
化粧台
  6
CONTINUOUS
 62
     6
100
AcDbVertex
100
AcDb2dVertex
 10
1204.998020495771
 20
1854.528658395831
 30
0.0
  0
VERTEX
  5
582
330
542
100
AcDbEntity
  8
化粧台
  6
CONTINUOUS
 62
     6
100
AcDbVertex
100
AcDb2dVertex
 10
1204.997907249809
 20
1854.525786681186
 30
0.0
  0
VERTEX
  5
583
330
542
100
AcDbEntity
  8
化粧台
  6
CONTINUOUS
 62
     6
100
AcDbVertex
100
AcDb2dVertex
 10
1204.997821223538
 20
1854.523607137035
 30
0.0
  0
VERTEX
  5
584
330
542
100
AcDbEntity
  8
化粧台
  6
CONTINUOUS
 62
     6
100
AcDbVertex
100
AcDb2dVertex
 10
1204.997766565506
 20
1854.522223405974
 30
0.0
  0
VERTEX
  5
585
330
542
100
AcDbEntity
  8
化粧台
  6
CONTINUOUS
 62
     6
100
AcDbVertex
100
AcDb2dVertex
 10
1204.997747424262
 20
1854.521739130598
 30
0.0
  0
SEQEND
  5
586
330
542
100
AcDbEntity
  8
化粧台
  6
CONTINUOUS
 62
     6
  0
LINE
  5
587
330
1F
100
AcDbEntity
  8
化粧台
  6
CONTINUOUS
 62
     6
100
AcDbLine
 10
1255.000000000973
 20
1846.557813856066
 30
0.0
 11
1255.000000000973
 21
1882.121073356876
 31
0.0
  0
LINE
  5
588
330
1F
100
AcDbEntity
  8
化粧台
  6
CONTINUOUS
 62
     6
100
AcDbLine
 10
1202.022702649655
 20
1884.321489306724
 30
0.0
 11
1135.577831947161
 21
1896.037512741252
 31
0.0
  0
LINE
  5
589
330
1F
100
AcDbEntity
  8
化粧台
  6
CONTINUOUS
 62
     6
100
AcDbLine
 10
1199.417979984655
 20
1869.549373011537
 30
0.0
 11
1132.973109282158
 21
1881.265396446066
 31
0.0
  0
LINE
  5
58A
330
1F
100
AcDbEntity
  8
化粧台
  6
CONTINUOUS
 62
     6
100
AcDbLine
 10
1132.97310928216
 20
1881.265396446073
 30
0.0
 11
1135.577831947161
 21
1896.037512741252
 31
0.0
  0
LINE
  5
58B
330
1F
100
AcDbEntity
  8
化粧台
  6
CONTINUOUS
 62
     6
100
AcDbLine
 10
1199.417979984655
 20
1869.549373011537
 30
0.0
 11
1202.022702649657
 21
1884.321489306724
 31
0.0
  0
LINE
  5
58C
330
1F
100
AcDbEntity
  8
化粧台
  6
CONTINUOUS
 62
     6
100
AcDbLine
 10
1201.414934027823
 20
1880.874662171178
 30
0.0
 11
1205.000000000969
 21
1880.242518312493
 31
0.0
  0
LINE
  5
58D
330
1F
100
AcDbEntity
  8
化粧台
  6
CONTINUOUS
 62
     6
100
AcDbLine
 10
1200.025748606489
 20
1872.996200147081
 30
0.0
 11
1205.000000000969
 21
1872.119105417407
 31
0.0
  0
LINE
  5
58E
330
1F
100
AcDbEntity
  8
化粧台
  6
CONTINUOUS
 62
     6
100
AcDbLine
 10
1205.000000000969
 20
1846.557813856066
 30
0.0
 11
1255.000000000973
 21
1846.557813856066
 31
0.0
  0
LINE
  5
58F
330
1F
100
AcDbEntity
  8
化粧台
  6
CONTINUOUS
 62
     6
100
AcDbLine
 10
1205.000000000969
 20
1880.242518312486
 30
0.0
 11
1205.000000000969
 21
1883.867490143984
 31
0.0
  0
ARC
  5
590
330
1F
100
AcDbEntity
  8
化粧台
  6
CONTINUOUS
 62
     6
100
AcDbCircle
 10
1230.000000000967
 20
1706.53774002369
 30
0.0
 40
179.0833333331875
100
AcDbArc
 50
81.97531013013682
 51
98.02468986986013
  0
LINE
  5
591
330
1F
100
AcDbEntity
  8
化粧台
  6
CONTINUOUS
 62
     6
100
AcDbLine
 10
1255.000000000973
 20
1853.256543666844
 30
0.0
 11
1255.000000000973
 21
1883.867490143982
 31
0.0
  0
LINE
  5
592
330
1F
100
AcDbEntity
  8
化粧台
  6
CONTINUOUS
 62
     2
100
AcDbLine
 10
1195.000000000141
 20
1729.500000000108
 30
0.0
 11
1304.432787040386
 21
1734.257947262727
 31
0.0
  0
ARC
  5
593
330
1F
100
AcDbEntity
  8
化粧台
  6
CONTINUOUS
 62
     6
100
AcDbCircle
 10
1204.500000000975
 20
1736.118030332379
 30
0.0
 40
0.5
100
AcDbArc
 50
338.1985905136144
 51
0.0
  0
ARC
  5
594
330
1F
100
AcDbEntity
  8
化粧台
  6
CONTINUOUS
 62
     6
100
AcDbCircle
 10
1204.500000000973
 20
1736.118030332379
 30
0.0
 40
0.5
100
AcDbArc
 50
338.1985905136144
 51
0.0
  0
LINE
  5
595
330
1F
100
AcDbEntity
  8
化粧台
  6
CONTINUOUS
 62
     6
100
AcDbLine
 10
1204.964238346418
 20
1735.932334994202
 30
0.0
 11
1203.000000000973
 21
1731.021739130599
 31
0.0
  0
LINE
  5
596
330
1F
100
AcDbEntity
  8
化粧台
  6
CONTINUOUS
 62
     6
100
AcDbLine
 10
1204.96423834638
 20
1735.932334994264
 30
0.0
 11
1203.000000000935
 21
1731.021739130661
 31
0.0
  0
ARC
  5
597
330
1F
100
AcDbEntity
  8
化粧台
  6
CONTINUOUS
 62
     6
100
AcDbCircle
 10
1204.500000000935
 20
1736.118030332441
 30
0.0
 40
0.5
100
AcDbArc
 50
338.1985905136144
 51
0.0
  0
ARC
  5
598
330
1F
100
AcDbEntity
  8
化粧台
  6
CONTINUOUS
 62
     6
100
AcDbCircle
 10
1204.500000000937
 20
1736.118030332441
 30
0.0
 40
0.5
100
AcDbArc
 50
338.1985905136144
 51
0.0
  0
LINE
  5
599
330
1F
100
AcDbEntity
  8
化粧台
  6
CONTINUOUS
 62
     6
100
AcDbLine
 10
1202.314677500941
 20
1740.71340620014
 30
0.0
 11
1202.314677500941
 21
1741.92835350014
 31
0.0
  0
LINE
  5
59A
330
1F
100
AcDbEntity
  8
化粧台
  6
CONTINUOUS
 62
     6
100
AcDbLine
 10
1202.314677500941
 20
1743.17272180014
 30
0.0
 11
1202.581397100941
 21
1743.40977890014
 31
0.0
  0
LINE
  5
59B
330
1F
100
AcDbEntity
  8
化粧台
  6
CONTINUOUS
 62
     6
100
AcDbLine
 10
1202.314677500941
 20
1743.17272180014
 30
0.0
 11
1202.314677500941
 21
1741.92835350014
 31
0.0
  0
LINE
  5
59C
330
1F
100
AcDbEntity
  8
化粧台
  6
CONTINUOUS
 62
     6
100
AcDbLine
 10
1202.581397100941
 20
1743.40977890014
 30
0.0
 11
1205.000000000941
 21
1743.40977890014
 31
0.0
  0
POLYLINE
  5
59D
330
1F
100
AcDbEntity
  8
化粧台
  6
CONTINUOUS
 62
     6
100
AcDb2dPolyline
 66
     1
 10
0.0
 20
0.0
 30
0.0
 70
   128
  0
VERTEX
  5
59E
330
59D
100
AcDbEntity
  8
化粧台
  6
CONTINUOUS
 62
     6
100
AcDbVertex
100
AcDb2dVertex
 10
1202.314677500941
 20
1740.71340620014
 30
0.0
  0
VERTEX
  5
59F
330
59D
100
AcDbEntity
  8
化粧台
  6
CONTINUOUS
 62
     6
100
AcDbVertex
100
AcDb2dVertex
 10
1202.581397100941
 20
1740.44668660014
 30
0.0
  0
VERTEX
  5
5A0
330
59D
100
AcDbEntity
  8
化粧台
  6
CONTINUOUS
 62
     6
100
AcDbVertex
100
AcDb2dVertex
 10
1203.83594655029
 20
1740.44668660014
 30
0.0
  0
SEQEND
  5
5A1
330
59D
100
AcDbEntity
  8
化粧台
  6
CONTINUOUS
 62
     6
  0
POLYLINE
  5
5A2
330
1F
100
AcDbEntity
  8
化粧台
  6
CONTINUOUS
 62
     6
100
AcDb2dPolyline
 66
     1
 10
0.0
 20
0.0
 30
0.0
 70
   128
  0
VERTEX
  5
5A3
330
5A2
100
AcDbEntity
  8
化粧台
  6
CONTINUOUS
 62
     6
100
AcDbVertex
100
AcDb2dVertex
 10
1204.224420673708
 20
1740.44668660014
 30
0.0
  0
VERTEX
  5
5A4
330
5A2
100
AcDbEntity
  8
化粧台
  6
CONTINUOUS
 62
     6
100
AcDbVertex
100
AcDb2dVertex
 10
1205.000000000941
 20
1740.44668660014
 30
0.0
  0
SEQEND
  5
5A5
330
5A2
100
AcDbEntity
  8
化粧台
  6
CONTINUOUS
 62
     6
  0
SPLINE
  5
5A6
330
1F
100
AcDbEntity
  8
化粧台
  6
CONTINUOUS
 62
     6
100
AcDbSpline
210
0.0
220
0.0
230
1.0
 70
     8
 71
     3
 72
    11
 73
     7
 74
     0
 42
0.00000001
 43
0.00000001
 12
1.0
 22
0.0
 32
0.0
 13
1.0
 23
0.0
 33
0.0
 40
0.0
 40
0.0
 40
0.0
 40
0.0
 40
1.0
 40
1.0
 40
1.0
 40
2.0
 40
2.0
 40
2.0
 40
2.0
 10
1203.899921258102
 20
1742.668945772188
 30
0.0
 10
1204.300964823641
 20
1742.668945772188
 30
0.0
 10
1204.625923455369
 20
1742.344107718803
 30
0.0
 10
1204.625923455369
 20
1741.943064153265
 30
0.0
 10
1204.625923455369
 20
1741.63373581132
 30
0.0
 10
1204.432600066626
 20
1741.369743418054
 30
0.0
 10
1204.16015260011
 20
1741.265175626185
 30
0.0
  0
ELLIPSE
  5
5A7
330
1F
100
AcDbEntity
  8
化粧台
  6
CONTINUOUS
 62
     6
100
AcDbEllipse
 10
1202.443843224639
 20
1739.72258608054
 30
0.0
 11
-0.9999999999999996
 21
-1.75
 31
0.0
210
0.0
220
0.0
230
1.0
 40
0.5574667979075156
 41
2.76655311412044
 42
2.86495270709261
  0
SPLINE
  5
5A8
330
1F
100
AcDbEntity
  8
化粧台
  6
CONTINUOUS
 62
     6
100
AcDbSpline
210
0.0
220
0.0
230
1.0
 70
     8
 71
     3
 72
    11
 73
     7
 74
     0
 42
0.00000001
 43
0.00000001
 12
1.0
 22
0.0
 32
0.0
 13
1.0
 23
0.0
 33
0.0
 40
0.0
 40
0.0
 40
0.0
 40
0.0
 40
1.0
 40
1.0
 40
1.0
 40
2.0
 40
2.0
 40
2.0
 40
2.0
 10
1203.73169561057
 20
1741.236763485249
 30
0.0
 10
1203.411873610588
 20
1741.31260905734
 30
0.0
 10
1203.173919060837
 20
1741.599945790123
 30
0.0
 10
1203.173919060837
 20
1741.943064153265
 30
0.0
 10
1203.173919060837
 20
1742.344107718803
 30
0.0
 10
1203.498998270906
 20
1742.668945772188
 30
0.0
 10
1203.899921258102
 20
1742.668945772188
 30
0.0
  0
CIRCLE
  5
5A9
330
1F
100
AcDbEntity
  8
化粧台
  6
CONTINUOUS
 62
     6
100
AcDbCircle
 10
1201.504149660585
 20
1738.294920628582
 30
0.0
 40
2.1000366
  0
ELLIPSE
  5
5AA
330
1F
100
AcDbEntity
  8
化粧台
  6
CONTINUOUS
 62
     6
100
AcDbEllipse
 10
1202.443843224639
 20
1739.72258608054
 30
0.0
 11
-0.9999999999999996
 21
-1.75
 31
0.0
210
0.0
220
0.0
230
1.0
 40
0.5574667979075156
 41
1.5685672036623
 42
2.766553114120512
  0
ELLIPSE
  5
5AB
330
1F
100
AcDbEntity
  8
化粧台
  6
CONTINUOUS
 62
     6
100
AcDbEllipse
 10
1202.39384322464
 20
1739.72258608054
 30
0.0
 11
-1.450000000000011
 21
-2.150000000000124
 31
0.0
210
0.0
220
0.0
230
1.0
 40
0.5503816039039365
 41
1.537657602852176
 42
3.588302332129237
  0
ELLIPSE
  5
5AC
330
1F
100
AcDbEntity
  8
化粧台
  6
CONTINUOUS
 62
     6
100
AcDbEllipse
 10
1202.443843224639
 20
1739.72258608054
 30
0.0
 11
-0.9999999999999996
 21
-1.75
 31
0.0
210
0.0
220
0.0
230
1.0
 40
0.5574667979075156
 41
4.031946534333598
 42
4.646125326161145
  0
ELLIPSE
  5
5AD
330
1F
100
AcDbEntity
  8
化粧台
  6
CONTINUOUS
 62
     6
100
AcDbEllipse
 10
1202.39384322464
 20
1739.72258608054
 30
0.0
 11
-1.450000000000011
 21
-2.150000000000124
 31
0.0
210
0.0
220
0.0
230
1.0
 40
0.5503816039039365
 41
4.070229820860886
 42
4.787689108662072
  0
CIRCLE
  5
5AE
330
1F
100
AcDbEntity
  8
化粧台
  6
CONTINUOUS
 62
     6
100
AcDbCircle
 10
1199.796023147085
 20
1734.304579005582
 30
0.0
 40
2.1000366
  0
ARC
  5
5AF
330
1F
100
AcDbEntity
  8
化粧台
  6
CONTINUOUS
 62
     6
100
AcDbCircle
 10
1199.310330571295
 20
1729.923153469681
 30
0.0
 40
2.1000366
100
AcDbArc
 50
356.0501147243097
 51
188.9289911196864
  0
LINE
  5
5B0
330
1F
100
AcDbEntity
  8
化粧台
  6
CONTINUOUS
 62
     2
100
AcDbLine
 10
730.1851228749833
 20
1764.500000000108
 30
0.0
 11
1205.000000000969
 21
1764.500000000108
 31
0.0
  0
LINE
  5
5B1
330
1F
100
AcDbEntity
  8
化粧台
  6
CONTINUOUS
 62
     2
100
AcDbLine
 10
1255.000000000969
 20
1764.500000000108
 30
0.0
 11
1319.8148771253
 21
1764.500000000108
 31
0.0
  0
LINE
  5
5B2
330
1F
100
AcDbEntity
  8
化粧台
  6
CONTINUOUS
 62
     2
100
AcDbLine
 10
741.5000000001801
 20
1699.50000000014
 30
0.0
 11
741.5000000001801
 21
983.0000000000001
 31
0.0
  0
ARC
  5
5B3
330
1F
100
AcDbEntity
  8
化粧台
  6
EXLTYPE2
 62
     6
100
AcDbCircle
 10
1352.000000000097
 20
1557.650000000065
 30
0.0
 40
200.0000000000001
100
AcDbArc
 50
148.544131348489
 51
180.0
  0
ARC
  5
5B4
330
1F
100
AcDbEntity
  8
化粧台
  6
EXLTYPE2
 62
     6
100
AcDbCircle
 10
1352.000000000097
 20
1551.950000000064
 30
0.0
 40
214.0000000000001
100
AcDbArc
 50
155.8006203273897
 51
180.0
  0
LINE
  5
5B5
330
1F
100
AcDbEntity
  8
化粧台
  6
EXLTYPE2
 62
     6
100
AcDbLine
 10
1228.000000000105
 20
1337.700000000041
 30
0.0
 11
1228.000000000105
 21
1699.50000000014
 31
0.0
  0
LINE
  5
5B6
330
1F
100
AcDbEntity
  8
化粧台
  6
EXLTYPE2
 62
     6
100
AcDbLine
 10
1242.000000000097
 20
1337.700000000041
 30
0.0
 11
1242.000000000097
 21
1699.50000000014
 31
0.0
  0
LINE
  5
5B7
330
1F
100
AcDbEntity
  8
化粧台
  6
CONTINUOUS
 62
     2
100
AcDbLine
 10
1307.000000000151
 20
1699.50000000014
 30
0.0
 11
1307.000000000151
 21
1568.0
 31
0.0
  0
LINE
  5
5B8
330
1F
100
AcDbEntity
  8
化粧台
  6
CONTINUOUS
 62
     2
100
AcDbLine
 10
1308.500000000185
 20
1699.50000000014
 30
0.0
 11
1308.500000000184
 21
982.9999999999999
 31
0.0
  0
LINE
  5
5B9
330
1F
100
AcDbEntity
  8
化粧台
  6
CONTINUOUS
 62
     2
100
AcDbLine
 10
755.0000000001405
 20
983.0000000000001
 30
0.0
 11
1295.000000000141
 21
983.0000000000001
 31
0.0
  0
LINE
  5
5BA
330
1F
100
AcDbEntity
  8
化粧台
  6
CONTINUOUS
 62
     6
100
AcDbLine
 10
842.5000000001014
 20
1509.5
 30
0.0
 11
817.5000000000996
 21
1509.5
 31
0.0
  0
CIRCLE
  5
5BB
330
1F
100
AcDbEntity
  8
化粧台
  6
EXLTYPE2
 62
     6
100
AcDbCircle
 10
830.0000000001014
 20
1509.5
 30
0.0
 40
7.500000000000014
  0
LINE
  5
5BC
330
1F
100
AcDbEntity
  8
化粧台
  6
EXLTYPE3
 62
     6
100
AcDbLine
 10
830.0000000001842
 20
1497.100000000099
 30
0.0
 11
830.0000000001842
 21
1522.3000000001
 31
0.0
  0
LINE
  5
5BD
330
1F
100
AcDbEntity
  8
化粧台
  6
CONTINUOUS
 62
     6
100
AcDbLine
 10
1207.500000000182
 20
1509.5
 30
0.0
 11
1232.500000000184
 21
1509.5
 31
0.0
  0
CIRCLE
  5
5BE
330
1F
100
AcDbEntity
  8
化粧台
  6
EXLTYPE2
 62
     6
100
AcDbCircle
 10
1220.000000000182
 20
1509.5
 30
0.0
 40
7.500000000000014
  0
LINE
  5
5BF
330
1F
100
AcDbEntity
  8
化粧台
  6
EXLTYPE3
 62
     6
100
AcDbLine
 10
1220.000000000181
 20
1497.100000000099
 30
0.0
 11
1220.000000000181
 21
1522.3000000001
 31
0.0
  0
DIMENSION
  5
5C0
330
1F
100
AcDbEntity
  8
化粧台
  6
CONTINUOUS
 62
     3
100
AcDbDimension
  2
*D37
 10
1308.5000000002
 20
691.5
 30
0.0
 11
1025.00000000019
 21
726.749999910593
 31
0.0
 70
   160
  3
ISO-25
100
AcDbAlignedDimension
 13
741.50000000018
 23
983.0
 33
0.0
 14
1308.5000000002
 24
983.0
 34
0.0
100
AcDbRotatedDimension
1001
ACAD
1000
DSTYLE
1002
{
1070
   270
1070
     2
1070
     6
1000
EX_NORM
1070
     7
1000
EX_NORM
1070
    41
1040
44.99999618530273
1070
    42
1040
10.49999982118607
1070
    44
1040
15.0
1070
    73
1070
     0
1070
    74
1070
     0
1070
    75
1070
     0
1070
    76
1070
     0
1070
    77
1070
     1
1070
    78
1070
     8
1070
   140
1040
59.99999618530273
1070
   147
1040
0.0
1070
   173
1070
     1
1070
   176
1070
     3
1070
   177
1070
     3
1070
   178
1070
     2
1070
   271
1070
     1
1070
   277
1070
     2
1070
   279
1070
     2
1070
   280
1070
     0
1070
   287
1070
     5
1070
   340
1005
118
1002
}
  0
DIMENSION
  5
5CD
330
1F
100
AcDbEntity
  8
寸法
  6
CONTINUOUS
 62
     3
100
AcDbDimension
  2
*D38
 10
1220.000000000137
 20
4056.0
 30
0.0
 11
1025.000000000138
 21
4091.249999910593
 31
0.0
 70
   160
  1
<>（壁固定）
  3
ISO-25
100
AcDbAlignedDimension
 13
830.0000000001385
 23
3848.0
 33
0.0
 14
1220.000000000137
 24
3848.0
 34
0.0
100
AcDbRotatedDimension
1001
ACAD
1000
DSTYLE
1002
{
1070
   270
1070
     2
1070
     6
1000
EX_NORM
1070
     7
1000
EX_NORM
1070
    41
1040
44.99999618530273
1070
    42
1040
157.0000000000005
1070
    44
1040
15.0
1070
    73
1070
     0
1070
    74
1070
     0
1070
    75
1070
     0
1070
    76
1070
     0
1070
    77
1070
     1
1070
    78
1070
     0
1070
   140
1040
59.99999618530273
1070
   147
1040
0.0
1070
   173
1070
     1
1070
   176
1070
     3
1070
   177
1070
     3
1070
   178
1070
     2
1070
   271
1070
     0
1070
   277
1070
     2
1070
   279
1070
     2
1070
   280
1070
     0
1070
   287
1070
     5
1070
   340
1005
118
1002
}
  0
LINE
  5
5DA
330
1F
100
AcDbEntity
  8
寸法
  6
CONTINUOUS
 62
     3
100
AcDbLine
 10
2538.499999821283
 20
979.5
 30
0.0
 11
2733.000000000099
 21
979.4999999999986
 31
0.0
  0
LINE
  5
5DB
330
1F
100
AcDbEntity
  8
寸法
  6
CONTINUOUS
 62
     3
100
AcDbLine
 10
2538.499999821283
 20
979.5
 30
0.0
 11
2823.000000000099
 21
979.4999999999986
 31
0.0
  0
TEXT
  5
5DC
330
1F
100
AcDbEntity
  8
寸法
  6
CONTINUOUS
 62
     2
100
AcDbText
 10
2802.750000089506
 20
1070.999999999999
 30
0.0
 40
59.99999618530273
  1
５３０
 50
90.0
 41
1.029411764705882
  7
EXCADSTD
 72
     5
 11
2802.750000089506
 21
1220.999990463256
 31
0.0
100
AcDbText
  0
TEXT
  5
5DD
330
1F
100
AcDbEntity
  8
寸法
  6
CONTINUOUS
 62
     2
100
AcDbText
 10
2802.750000089506
 20
1213.499999999999
 30
0.0
 40
59.99999618530273
  1
（壁固定）
 50
90.0
 41
0.9655172413793104
  7
EXCADSTD
 72
     5
 11
2802.750000089506
 21
1453.49998474121
 31
0.0
100
AcDbText
  0
LINE
  5
5DE
330
1F
100
AcDbEntity
  8
寸法
  6
CONTINUOUS
 62
     3
100
AcDbLine
 10
2528.000000000097
 20
969.0000001788139
 30
0.0
 11
2528.000000000097
 21
844.5
 31
0.0
  0
TEXT
  5
5DF
330
1F
100
AcDbEntity
  8
寸法
  6
CONTINUOUS
 62
     2
100
AcDbText
 10
2587.500000000097
 20
1544.249999910593
 30
0.0
 40
59.99999618530273
  1
Ｒ１/２
 41
0.8342465643686785
  7
EXCADSTD
 72
     5
 11
2761.499986648656
 21
1544.249999910593
 31
0.0
100
AcDbText
  0
LEADER
  5
5E0
330
1F
100
AcDbEntity
  8
寸法
  6
CONTINUOUS
 62
     3
100
AcDbLeader
  3
ISO-25
 76
     3
 10
2536.000005722097
 20
1310.0
 30
0.0
 10
2580.000000000097
 20
1539.0
 30
0.0
 10
2749.500000000099
 20
1539.0
 30
0.0
1001
ACAD
1000
DSTYLE
1002
{
1070
     5
1000
EX_NORM
1070
    41
1040
45.0
1070
   341
1005
4D
1002
}
  0
LINE
  5
5E1
330
1F
100
AcDbEntity
  8
寸法
  6
CONTINUOUS
 62
     3
100
AcDbLine
 10
2538.499999821283
 20
979.5
 30
0.0
 11
2913.000000000099
 21
979.4999999999995
 31
0.0
  0
LEADER
  5
5E2
330
1F
100
AcDbEntity
  8
寸法
  6
CONTINUOUS
 62
     3
100
AcDbLeader
  3
ISO-25
 76
     3
 10
2427.150000000096
 20
961.4999999999973
 30
0.0
 10
2210.167762183191
 20
805.3922970611602
 30
0.0
 10
1763.167762183191
 20
805.3922970611602
 30
0.0
1001
ACAD
1000
DSTYLE
1002
{
1070
     5
1000
EX_NORM
1070
    41
1040
45.0
1070
   341
1005
4D
1002
}
  0
TEXT
  5
5E3
330
1F
100
AcDbEntity
  8
寸法
  6
CONTINUOUS
 62
     2
100
AcDbText
 10
1775.811137614602
 20
872.3302112023557
 30
0.0
 40
59.99999618530273
  1
ＶＰ･ＶＵ４０･５０
 41
0.8542372745578565
  7
EXCADSTD
 72
     5
 11
2207.811103282327
 21
872.3302112023557
 31
0.0
100
AcDbText
  0
TEXT
  5
5E4
330
1F
100
AcDbEntity
  8
寸法
  6
CONTINUOUS
 62
     2
100
AcDbText
 10
1775.811137614602
 20
812.330215017053
 30
0.0
 40
59.99999618530273
  1
４０～５０㎜立上げ
 41
0.9773584771306252
  7
EXCADSTD
 72
     5
 11
2219.811103282327
 21
812.330215017053
 31
0.0
100
AcDbText
  0
ENDSEC
  0
SECTION
  2
OBJECTS
  0
DICTIONARY
  5
C
330
0
100
AcDbDictionary
  3
ACAD_GROUP
350
D
  3
ACAD_LAYOUT
350
1A
  3
ACAD_MATERIAL
350
3B
  3
ACAD_MLEADERSTYLE
350
607
  3
ACAD_MLINESTYLE
350
17
  3
ACAD_PLOTSETTINGS
350
19
  3
ACAD_VISUALSTYLE
350
2A
  3
ACDBHEADERROUNDTRIPXREC
350
5E5
  3
ACDBVARIABLEDICTIONARY
350
605
  0
DICTIONARY
  5
D
102
{ACAD_REACTORS
330
C
102
}
330
C
100
AcDbDictionary
  0
DICTIONARY
  5
1A
102
{ACAD_REACTORS
330
C
102
}
330
C
100
AcDbDictionary
  0
DICTIONARY
  5
3B
102
{ACAD_REACTORS
330
C
102
}
330
C
100
AcDbDictionary
  3
BYBLOCK
350
3D
  3
BYLAYER
350
3C
  3
GLOBAL
350
3E
  0
DICTIONARY
  5
607
102
{ACAD_REACTORS
330
C
102
}
330
C
100
AcDbDictionary
  0
DICTIONARY
  5
17
102
{ACAD_REACTORS
330
C
102
}
330
C
100
AcDbDictionary
  3
STANDARD
350
18
  0
DICTIONARY
  5
19
102
{ACAD_REACTORS
330
C
102
}
330
C
100
AcDbDictionary
  0
DICTIONARY
  5
2A
102
{ACAD_REACTORS
330
C
102
}
330
C
100
AcDbDictionary
  3
2DWIREFRAME
350
2F
  3
3D_HIDDEN
350
31
  3
3DWIREFRAME
350
30
  3
BASIC
350
32
  3
BRIGHTEN
350
36
  3
COLORCHANGE
350
3A
  3
CONCEPTUAL
350
34
  3
DIM
350
35
  3
FACEPATTERN
350
39
  3
FLAT
350
2B
  3
FLATWITHEDGES
350
2C
  3
GOURAUD
350
2D
  3
GOURAUDWITHEDGES
350
2E
  3
LINEPATTERN
350
38
  3
REALISTIC
350
33
  3
THICKEN
350
37
  0
DICTIONARY
  5
5E5
102
{ACAD_REACTORS
330
C
102
}
330
C
100
AcDbDictionary
  3
CEPSNTYPE
350
5EE
  3
DIMSTYLEDATA
350
604
  3
FINGERPRINTGUID
350
5EF
  3
HYPERLINKBASE
350
5E8
  3
INSUNITS
350
5ED
  3
LAYOUTDICT
350
5EA
  3
LWETCUNION
350
5EC
  3
PLOTSETDICT
350
5EB
  3
PSVPSCALE
350
5F1
  3
PUCSBASE
350
5F4
  3
PUCSORGBACK
350
5FA
  3
PUCSORGBOTTOM
350
5F6
  3
PUCSORGFRONT
350
5F9
  3
PUCSORGLEFT
350
5F7
  3
PUCSORGRIGHT
350
5F8
  3
PUCSORGTOP
350
5F5
  3
PUCSORTHOREF
350
5F2
  3
PUCSORTHOVIEW
350
5F3
  3
STYLESHEET
350
5E9
  3
TSTACKALIGN
350
5E6
  3
TSTACKSIZE
350
5E7
  3
UCSBASE
350
5FD
  3
UCSORGBACK
350
603
  3
UCSORGBOTTOM
350
5FF
  3
UCSORGFRONT
350
602
  3
UCSORGLEFT
350
600
  3
UCSORGRIGHT
350
601
  3
UCSORGTOP
350
5FE
  3
UCSORTHOREF
350
5FB
  3
UCSORTHOVIEW
350
5FC
  3
VERSIONGUID
350
5F0
  0
DICTIONARY
  5
605
102
{ACAD_REACTORS
330
C
102
}
330
C
100
AcDbDictionary
  3
DIMASSOC
350
60A
  3
HIDETEXT
350
60B
  3
PSOLHEIGHT
350
609
  3
PSOLWIDTH
350
608
  0
MATERIAL
  5
3D
102
{ACAD_REACTORS
330
3B
102
}
102
{ACAD_XDICTIONARY
360
60E
102
}
330
3B
100
AcDbMaterial
  1
ByBlock
  0
MATERIAL
  5
3C
102
{ACAD_REACTORS
330
3B
102
}
102
{ACAD_XDICTIONARY
360
60C
102
}
330
3B
100
AcDbMaterial
  1
ByLayer
  0
MATERIAL
  5
3E
102
{ACAD_REACTORS
330
3B
102
}
102
{ACAD_XDICTIONARY
360
610
102
}
330
3B
100
AcDbMaterial
  1
Global
  0
MLINESTYLE
  5
18
102
{ACAD_REACTORS
330
17
102
}
330
17
100
AcDbMlineStyle
  2
Standard
 70
     0
  3

 62
   256
 51
90.0
 52
90.0
 71
     2
 49
0.5
 62
   256
  6
BYLAYER
 49
-0.5
 62
   256
  6
BYLAYER
  0
ACAD_PROXY_OBJECT
  5
2F
102
{ACAD_REACTORS
330
2A
102
}
330
2A
100
AcDbProxyObject
 90
      499
 91
      501
 93
      436
310
42CC9915DA5C99599C985B595049028333333333333E3BF0000000000000FB0107901411070040501600405405064090741402480A0340
1001
ACAD
1000
AcDbSavedByObjectVersion
1070
     0
  0
ACAD_PROXY_OBJECT
  5
31
102
{ACAD_REACTORS
330
2A
102
}
330
2A
100
AcDbProxyObject
 90
      499
 91
      501
 93
      500
310
424CD108121A5919195B90640502408333333333333E3BF0000000000000FB01079024090700405020000000000001110200405405064090740C02480A0340
1001
ACAD
1000
AcDbSavedByObjectVersion
1070
     0
  0
ACAD_PROXY_OBJECT
  5
30
102
{ACAD_REACTORS
330
2A
102
}
330
2A
100
AcDbProxyObject
 90
      499
 91
      501
 93
      436
310
42CCD915DA5C99599C985B595059028333333333333E3BF0000000000000FB0107901411070040501600405405064090741402480A0340
1001
ACAD
1000
AcDbSavedByObjectVersion
1070
     0
  0
ACAD_PROXY_OBJECT
  5
32
102
{ACAD_REACTORS
330
2A
102
}
330
2A
100
AcDbProxyObject
 90
      499
 91
      501
 93
      388
310
4150985CDA58D07406404333333333333E3BF0000000000000FB0107A41107004050150841D405064090741402480A0350
1001
ACAD
1000
AcDbSavedByObjectVersion
1070
     0
  0
ACAD_PROXY_OBJECT
  5
36
102
{ACAD_REACTORS
330
2A
102
}
330
2A
100
AcDbProxyObject
 90
      499
 91
      501
 93
      428
310
42109C9A59DA1D195B90C409028333333333333E3BF0000000000000FB010790141107004050150841D405064090741402480A029950
1001
ACAD
1000
AcDbSavedByObjectVersion
1070
     0
  0
ACAD_PROXY_OBJECT
  5
3A
102
{ACAD_REACTORS
330
2A
102
}
330
2A
100
AcDbProxyObject
 90
      499
 91
      501
 93
      452
310
42D0DBDB1BDC90DA185B99D95104090240C333333333333E3BF0000000000000FB0108901411070040501508421405064090741402480A0350
1001
ACAD
1000
AcDbSavedByObjectVersion
1070
     0
  0
ACAD_PROXY_OBJECT
  5
34
102
{ACAD_REACTORS
330
2A
102
}
330
2A
100
AcDbProxyObject
 90
      499
 91
      501
 93
      500
310
4290DBDB98D95C1D1D585B10940D028333333333333E3BF0000000000000FB0107902409070040501000000000000111010841D405064090740C02480A0340
1001
ACAD
1000
AcDbSavedByObjectVersion
1070
     0
  0
ACAD_PROXY_OBJECT
  5
35
102
{ACAD_REACTORS
330
2A
102
}
330
2A
100
AcDbProxyObject
 90
      499
 91
      501
 93
      412
310
40D11A5B50B409028333333333333E3BF0000000000000FB010790141107004050150841D405064090741402480A02677FFFFFD0
1001
ACAD
1000
AcDbSavedByObjectVersion
1070
     0
  0
ACAD_PROXY_OBJECT
  5
39
102
{ACAD_REACTORS
330
2A
102
}
330
2A
100
AcDbProxyObject
 90
      499
 91
      501
 93
      444
310
42D19858D95C185D1D195C9B90F409028333333333333E3BF0000000000000FB010790141107004050150841D405064090741402480A0350
1001
ACAD
1000
AcDbSavedByObjectVersion
1070
     0
  0
ACAD_PROXY_OBJECT
  5
2B
102
{ACAD_REACTORS
330
2A
102
}
330
2A
100
AcDbProxyObject
 90
      499
 91
      501
 93
      388
310
41119B185D240901404333333333333E3BF0000000000000F9010740A41107004050150841D405064090741402480A1B50
1001
ACAD
1000
AcDbSavedByObjectVersion
1070
     0
  0
ACAD_PROXY_OBJECT
  5
2C
102
{ACAD_REACTORS
330
2A
102
}
330
2A
100
AcDbProxyObject
 90
      499
 91
      501
 93
      476
310
43519B185D15DA5D1A115919D95CD0140901404333333333333E3BF0000000000000F9010740901411070040501600405405064090741402480A1B50
1001
ACAD
1000
AcDbSavedByObjectVersion
1070
     0
  0
ACAD_PROXY_OBJECT
  5
2D
102
{ACAD_REACTORS
330
2A
102
}
330
2A
100
AcDbProxyObject
 90
      499
 91
      501
 93
      412
310
41D1DBDD5C985D5910240902404333333333333E3BF0000000000000F9010740A411070040501641D405064090741402480A1B50
1001
ACAD
1000
AcDbSavedByObjectVersion
1070
     0
  0
ACAD_PROXY_OBJECT
  5
2E
102
{ACAD_REACTORS
330
2A
102
}
330
2A
100
AcDbProxyObject
 90
      499
 91
      501
 93
      500
310
4411DBDD5C985D5915DA5D1A115919D95CD0340902404333333333333E3BF0000000000000F9010740901411070040501600405405064090741402480A1B50
1001
ACAD
1000
AcDbSavedByObjectVersion
1070
     0
  0
ACAD_PROXY_OBJECT
  5
38
102
{ACAD_REACTORS
330
2A
102
}
330
2A
100
AcDbProxyObject
 90
      499
 91
      501
 93
      444
310
42D31A5B995C185D1D195C9B90E409028333333333333E3BF0000000000000FB010790141107004050750841D405064090741402483A0350
1001
ACAD
1000
AcDbSavedByObjectVersion
1070
     0
  0
ACAD_PROXY_OBJECT
  5
33
102
{ACAD_REACTORS
330
2A
102
}
330
2A
100
AcDbProxyObject
 90
      499
 91
      501
 93
      420
310
425499585B1A5CDD1A58D08409028333333333333E3BF0000000000000FB01079019070040501508421405064090741402480A1B40
1001
ACAD
1000
AcDbSavedByObjectVersion
1070
     0
  0
ACAD_PROXY_OBJECT
  5
37
102
{ACAD_REACTORS
330
2A
102
}
330
2A
100
AcDbProxyObject
 90
      499
 91
      501
 93
      412
310
41D51A1A58DAD95B90D409028333333333333E3BF0000000000000FB010790141107004050150C41D405064090741402480A0350
1001
ACAD
1000
AcDbSavedByObjectVersion
1070
     0
  0
XRECORD
  5
5EE
102
{ACAD_REACTORS
330
5E5
102
}
330
5E5
100
AcDbXrecord
 90
        0
  0
XRECORD
  5
604
102
{ACAD_REACTORS
330
5E5
102
}
330
5E5
100
AcDbXrecord
1000
DSTYLE
1002
{
1070
   340
340
11
1002
}
  0
XRECORD
  5
5EF
102
{ACAD_REACTORS
330
5E5
102
}
330
5E5
100
AcDbXrecord
  1
{0D20AE36-F6E6-4942-BDE4-4DD961585C22}
  0
XRECORD
  5
5E8
102
{ACAD_REACTORS
330
5E5
102
}
330
5E5
100
AcDbXrecord
  1

  0
XRECORD
  5
5ED
102
{ACAD_REACTORS
330
5E5
102
}
330
5E5
100
AcDbXrecord
 90
        4
  0
XRECORD
  5
5EA
102
{ACAD_REACTORS
330
5E5
102
}
330
5E5
100
AcDbXrecord
340
1A
  0
XRECORD
  5
5EC
102
{ACAD_REACTORS
330
5E5
102
}
330
5E5
100
AcDbXrecord
 90
    10781
  0
XRECORD
  5
5EB
102
{ACAD_REACTORS
330
5E5
102
}
330
5E5
100
AcDbXrecord
340
19
  0
XRECORD
  5
5F1
102
{ACAD_REACTORS
330
5E5
102
}
330
5E5
100
AcDbXrecord
 40
0.0
  0
XRECORD
  5
5F4
102
{ACAD_REACTORS
330
5E5
102
}
330
5E5
100
AcDbXrecord
340
0
  0
XRECORD
  5
5FA
102
{ACAD_REACTORS
330
5E5
102
}
330
5E5
100
AcDbXrecord
 10
0.0
 20
0.0
 30
0.0
  0
XRECORD
  5
5F6
102
{ACAD_REACTORS
330
5E5
102
}
330
5E5
100
AcDbXrecord
 10
0.0
 20
0.0
 30
0.0
  0
XRECORD
  5
5F9
102
{ACAD_REACTORS
330
5E5
102
}
330
5E5
100
AcDbXrecord
 10
0.0
 20
0.0
 30
0.0
  0
XRECORD
  5
5F7
102
{ACAD_REACTORS
330
5E5
102
}
330
5E5
100
AcDbXrecord
 10
0.0
 20
0.0
 30
0.0
  0
XRECORD
  5
5F8
102
{ACAD_REACTORS
330
5E5
102
}
330
5E5
100
AcDbXrecord
 10
0.0
 20
0.0
 30
0.0
  0
XRECORD
  5
5F5
102
{ACAD_REACTORS
330
5E5
102
}
330
5E5
100
AcDbXrecord
 10
0.0
 20
0.0
 30
0.0
  0
XRECORD
  5
5F2
102
{ACAD_REACTORS
330
5E5
102
}
330
5E5
100
AcDbXrecord
340
0
  0
XRECORD
  5
5F3
102
{ACAD_REACTORS
330
5E5
102
}
330
5E5
100
AcDbXrecord
 70
     0
  0
XRECORD
  5
5E9
102
{ACAD_REACTORS
330
5E5
102
}
330
5E5
100
AcDbXrecord
  1

  0
XRECORD
  5
5E6
102
{ACAD_REACTORS
330
5E5
102
}
330
5E5
100
AcDbXrecord
 90
        1
  0
XRECORD
  5
5E7
102
{ACAD_REACTORS
330
5E5
102
}
330
5E5
100
AcDbXrecord
 90
       70
  0
XRECORD
  5
5FD
102
{ACAD_REACTORS
330
5E5
102
}
330
5E5
100
AcDbXrecord
340
0
  0
XRECORD
  5
603
102
{ACAD_REACTORS
330
5E5
102
}
330
5E5
100
AcDbXrecord
 10
0.0
 20
0.0
 30
0.0
  0
XRECORD
  5
5FF
102
{ACAD_REACTORS
330
5E5
102
}
330
5E5
100
AcDbXrecord
 10
0.0
 20
0.0
 30
0.0
  0
XRECORD
  5
602
102
{ACAD_REACTORS
330
5E5
102
}
330
5E5
100
AcDbXrecord
 10
0.0
 20
0.0
 30
0.0
  0
XRECORD
  5
600
102
{ACAD_REACTORS
330
5E5
102
}
330
5E5
100
AcDbXrecord
 10
0.0
 20
0.0
 30
0.0
  0
XRECORD
  5
601
102
{ACAD_REACTORS
330
5E5
102
}
330
5E5
100
AcDbXrecord
 10
0.0
 20
0.0
 30
0.0
  0
XRECORD
  5
5FE
102
{ACAD_REACTORS
330
5E5
102
}
330
5E5
100
AcDbXrecord
 10
0.0
 20
0.0
 30
0.0
  0
XRECORD
  5
5FB
102
{ACAD_REACTORS
330
5E5
102
}
330
5E5
100
AcDbXrecord
340
0
  0
XRECORD
  5
5FC
102
{ACAD_REACTORS
330
5E5
102
}
330
5E5
100
AcDbXrecord
 70
     0
  0
XRECORD
  5
5F0
102
{ACAD_REACTORS
330
5E5
102
}
330
5E5
100
AcDbXrecord
  1
{FAEB1C32-E019-11D5-929B-00C0DF256EC4}
  0
DICTIONARYVAR
  5
60A
102
{ACAD_REACTORS
330
605
102
}
330
605
100
DictionaryVariables
280
     0
  1
2
  0
DICTIONARYVAR
  5
60B
102
{ACAD_REACTORS
330
605
102
}
330
605
100
DictionaryVariables
280
     0
  1
1
  0
DICTIONARYVAR
  5
609
102
{ACAD_REACTORS
330
605
102
}
330
605
100
DictionaryVariables
280
     0
  1
80.000000
  0
DICTIONARYVAR
  5
608
102
{ACAD_REACTORS
330
605
102
}
330
605
100
DictionaryVariables
280
     0
  1
5.000000
  0
DICTIONARY
  5
60E
330
3D
100
AcDbDictionary
280
     1
  3
ACAD_XREC_ROUNDTRIP
360
60F
  0
DICTIONARY
  5
60C
330
3C
100
AcDbDictionary
280
     1
  3
ACAD_XREC_ROUNDTRIP
360
60D
  0
DICTIONARY
  5
610
330
3E
100
AcDbDictionary
280
     1
  3
ACAD_XREC_ROUNDTRIP
360
611
  0
XRECORD
  5
60F
102
{ACAD_REACTORS
330
60E
102
}
330
60E
100
AcDbXrecord
102
MATERIAL
148
0.0
149
0.0
149
0.0
 93
        0
 94
      127
282
     0
 72
     1
 77
     1
171
     1
175
     1
179
     1
273
     0
  0
XRECORD
  5
60D
102
{ACAD_REACTORS
330
60C
102
}
330
60C
100
AcDbXrecord
102
MATERIAL
148
0.0
149
0.0
149
0.0
 93
        0
 94
      127
282
     0
 72
     1
 77
     1
171
     1
175
     1
179
     1
273
     0
  0
XRECORD
  5
611
102
{ACAD_REACTORS
330
610
102
}
330
610
100
AcDbXrecord
102
MATERIAL
148
0.0
149
0.0
149
0.0
 93
        0
 94
      127
282
     0
 72
     1
 77
     1
171
     1
175
     1
179
     1
273
     0
  0
ENDSEC
  0
EOF
