  0
SECTION
  2
HEADER
  9
$ACADVER
  1
AC1014
  9
$ACADMAINTVER
 70
     9
  9
$DWGCODEPAGE
  3
ANSI_932
  9
$INSBASE
 10
0.0
 20
0.0
 30
0.0
  9
$EXTMIN
 10
-0.7999999999933705
 20
13.4
 30
0.0
  9
$EXTMAX
 10
204.2000000000066
 20
288.4
 30
0.0
  9
$LIMMIN
 10
0.0
 20
0.0
  9
$LIMMAX
 10
210.0
 20
297.0
  9
$ORTHOMODE
 70
     0
  9
$REGENMODE
 70
     1
  9
$FILLMODE
 70
     1
  9
$QTEXTMODE
 70
     0
  9
$MIRRTEXT
 70
     1
  9
$DRAGMODE
 70
     2
  9
$LTSCALE
 40
1.0
  9
$OSMODE
 70
    37
  9
$ATTMODE
 70
     1
  9
$TEXTSIZE
 40
2.5
  9
$TRACEWID
 40
1.0
  9
$TEXTSTYLE
  7
STANDARD
  9
$CLAYER
  8
化粧台
  9
$CELTYPE
  6
BYLAYER
  9
$CECOLOR
 62
   256
  9
$CELTSCALE
 40
1.0
  9
$DELOBJ
 70
     1
  9
$DISPSILH
 70
     0
  9
$DIMSCALE
 40
1.0
  9
$DIMASZ
 40
2.5
  9
$DIMEXO
 40
0.625
  9
$DIMDLI
 40
3.75
  9
$DIMRND
 40
0.0
  9
$DIMDLE
 40
0.0
  9
$DIMEXE
 40
1.25
  9
$DIMTP
 40
0.0
  9
$DIMTM
 40
0.0
  9
$DIMTXT
 40
2.5
  9
$DIMCEN
 40
2.5
  9
$DIMTSZ
 40
0.0
  9
$DIMTOL
 70
     0
  9
$DIMLIM
 70
     0
  9
$DIMTIH
 70
     0
  9
$DIMTOH
 70
     0
  9
$DIMSE1
 70
     0
  9
$DIMSE2
 70
     0
  9
$DIMTAD
 70
     1
  9
$DIMZIN
 70
     8
  9
$DIMBLK
  1

  9
$DIMASO
 70
     1
  9
$DIMSHO
 70
     1
  9
$DIMPOST
  1

  9
$DIMAPOST
  1

  9
$DIMALT
 70
     0
  9
$DIMALTD
 70
     3
  9
$DIMALTF
 40
0.03937007874016
  9
$DIMLFAC
 40
1.0
  9
$DIMTOFL
 70
     1
  9
$DIMTVP
 40
0.0
  9
$DIMTIX
 70
     0
  9
$DIMSOXD
 70
     0
  9
$DIMSAH
 70
     0
  9
$DIMBLK1
  1

  9
$DIMBLK2
  1

  9
$DIMSTYLE
  2
ISO-25
  9
$DIMCLRD
 70
     0
  9
$DIMCLRE
 70
     0
  9
$DIMCLRT
 70
     0
  9
$DIMTFAC
 40
1.0
  9
$DIMGAP
 40
0.625
  9
$DIMJUST
 70
     0
  9
$DIMSD1
 70
     0
  9
$DIMSD2
 70
     0
  9
$DIMTOLJ
 70
     0
  9
$DIMTZIN
 70
     8
  9
$DIMALTZ
 70
     0
  9
$DIMALTTZ
 70
     0
  9
$DIMFIT
 70
     3
  9
$DIMUPT
 70
     0
  9
$DIMUNIT
 70
     2
  9
$DIMDEC
 70
     2
  9
$DIMTDEC
 70
     2
  9
$DIMALTU
 70
     2
  9
$DIMALTTD
 70
     3
  9
$DIMTXSTY
  7
STANDARD
  9
$DIMAUNIT
 70
     0
  9
$LUNITS
 70
     2
  9
$LUPREC
 70
     4
  9
$SKETCHINC
 40
1.0
  9
$FILLETRAD
 40
10.0
  9
$AUNITS
 70
     0
  9
$AUPREC
 70
     0
  9
$MENU
  1
.
  9
$ELEVATION
 40
0.0
  9
$PELEVATION
 40
0.0
  9
$THICKNESS
 40
0.0
  9
$LIMCHECK
 70
     0
  9
$CHAMFERA
 40
10.0
  9
$CHAMFERB
 40
10.0
  9
$CHAMFERC
 40
20.0
  9
$CHAMFERD
 40
0.0
  9
$SKPOLY
 70
     0
  9
$TDCREATE
 40
2457432.487691088
  9
$TDUPDATE
 40
2457432.487691447
  9
$TDINDWG
 40
0.0000000116
  9
$TDUSRTIMER
 40
0.0000000116
  9
$USRTIMER
 70
     1
  9
$ANGBASE
 50
0.0
  9
$ANGDIR
 70
     0
  9
$PDMODE
 70
     0
  9
$PDSIZE
 40
0.0
  9
$PLINEWID
 40
0.0
  9
$COORDS
 70
     1
  9
$SPLFRAME
 70
     0
  9
$SPLINETYPE
 70
     6
  9
$SPLINESEGS
 70
     8
  9
$ATTDIA
 70
     0
  9
$ATTREQ
 70
     1
  9
$HANDLING
 70
     1
  9
$HANDSEED
  5
6A9
  9
$SURFTAB1
 70
     6
  9
$SURFTAB2
 70
     6
  9
$SURFTYPE
 70
     6
  9
$SURFU
 70
     6
  9
$SURFV
 70
     6
  9
$UCSNAME
  2

  9
$UCSORG
 10
0.0
 20
0.0
 30
0.0
  9
$UCSXDIR
 10
1.0
 20
0.0
 30
0.0
  9
$UCSYDIR
 10
0.0
 20
1.0
 30
0.0
  9
$PUCSNAME
  2

  9
$PUCSORG
 10
0.0
 20
0.0
 30
0.0
  9
$PUCSXDIR
 10
1.0
 20
0.0
 30
0.0
  9
$PUCSYDIR
 10
0.0
 20
1.0
 30
0.0
  9
$USERI1
 70
     0
  9
$USERI2
 70
     0
  9
$USERI3
 70
     0
  9
$USERI4
 70
     0
  9
$USERI5
 70
     0
  9
$USERR1
 40
0.0
  9
$USERR2
 40
0.0
  9
$USERR3
 40
0.0
  9
$USERR4
 40
0.0
  9
$USERR5
 40
0.0
  9
$WORLDVIEW
 70
     1
  9
$SHADEDGE
 70
     3
  9
$SHADEDIF
 70
    70
  9
$TILEMODE
 70
     1
  9
$MAXACTVP
 70
    64
  9
$PINSBASE
 10
0.0
 20
0.0
 30
0.0
  9
$PLIMCHECK
 70
     0
  9
$PEXTMIN
 10
1.000000000000000E+20
 20
1.000000000000000E+20
 30
1.000000000000000E+20
  9
$PEXTMAX
 10
-1.000000000000000E+20
 20
-1.000000000000000E+20
 30
-1.000000000000000E+20
  9
$PLIMMIN
 10
0.0
 20
0.0
  9
$PLIMMAX
 10
420.0
 20
297.0
  9
$UNITMODE
 70
     0
  9
$VISRETAIN
 70
     1
  9
$PLINEGEN
 70
     0
  9
$PSLTSCALE
 70
     1
  9
$TREEDEPTH
 70
  3020
  9
$PICKSTYLE
 70
     1
  9
$CMLSTYLE
  2
STANDARD
  9
$CMLJUST
 70
     0
  9
$CMLSCALE
 40
20.0
  9
$PROXYGRAPHICS
 70
     1
  9
$MEASUREMENT
 70
     1
  0
ENDSEC
  0
SECTION
  2
CLASSES
  0
CLASS
  1
ACDBDICTIONARYWDFLT
  2
AcDbDictionaryWithDefault
  3
ObjectDBX Classes
 90
        0
280
     0
281
     0
  0
CLASS
  1
VISUALSTYLE
  2
AcDbVisualStyle
  3
ObjectDBX Classes
 90
     4095
280
     0
281
     0
  0
CLASS
  1
MATERIAL
  2
AcDbMaterial
  3
ObjectDBX Classes
 90
     1153
280
     0
281
     0
  0
CLASS
  1
SUN
  2
AcDbSun
  3
SCENEOE
 90
     1024
280
     0
281
     0
  0
CLASS
  1
DICTIONARYVAR
  2
AcDbDictionaryVar
  3
ObjectDBX Classes
 90
        0
280
     0
281
     0
  0
CLASS
  1
XRECORD
  2
AcDbXrecord
  3
AutoCAD 2000
 90
        0
280
     0
281
     0
  0
CLASS
  1
LWPOLYLINE
  2
AcDbPolyline
  3
AutoCAD 2000
 90
        0
280
     0
281
     1
  0
CLASS
  1
HATCH
  2
AcDbHatch
  3
AutoCAD 2000
 90
        0
280
     0
281
     1
  0
CLASS
  1
ACDBPLACEHOLDER
  2
AcDbPlaceHolder
  3
ObjectDBX Classes
 90
        0
280
     0
281
     0
  0
CLASS
  1
LAYOUT
  2
AcDbLayout
  3
ObjectDBX Classes
 90
        0
280
     0
281
     0
  0
ENDSEC
  0
SECTION
  2
TABLES
  0
TABLE
  2
VPORT
  5
8
330
0
100
AcDbSymbolTable
 70
     1
  0
VPORT
  5
29
330
8
100
AcDbSymbolTableRecord
100
AcDbViewportTableRecord
  2
*ACTIVE
 70
     0
 10
0.0
 20
0.0
 11
1.0
 21
1.0
 12
1525.500000000099
 22
2263.5
 13
0.0
 23
0.0
 14
10.0
 24
10.0
 15
10.0
 25
10.0
 16
0.0
 26
0.0
 36
1.0
 17
0.0
 27
0.0
 37
0.0
 40
4125.0
 41
0.7454545454545453
 42
50.0
 43
0.0
 44
0.0
 50
0.0
 51
0.0
 71
     0
 72
  1000
 73
     1
 74
     3
 75
     0
 76
     0
 77
     0
 78
     0
  0
ENDTAB
  0
TABLE
  2
LTYPE
  5
5
330
0
100
AcDbSymbolTable
 70
     7
  0
LTYPE
  5
14
330
5
100
AcDbSymbolTableRecord
100
AcDbLinetypeTableRecord
  2
BYBLOCK
 70
     0
  3

 72
    65
 73
     0
 40
0.0
  0
LTYPE
  5
15
330
5
100
AcDbSymbolTableRecord
100
AcDbLinetypeTableRecord
  2
BYLAYER
 70
     0
  3

 72
    65
 73
     0
 40
0.0
  0
LTYPE
  5
16
330
5
100
AcDbSymbolTableRecord
100
AcDbLinetypeTableRecord
  2
CONTINUOUS
 70
     0
  3
Solid line
 72
    65
 73
     0
 40
0.0
  0
LTYPE
  5
40
330
5
100
AcDbSymbolTableRecord
100
AcDbLinetypeTableRecord
  2
EXLTYPE1
 70
     0
  3
破線
 72
    65
 73
     2
 40
3.0
 49
2.0
 74
     0
 49
-1.0
 74
     0
  0
LTYPE
  5
41
330
5
100
AcDbSymbolTableRecord
100
AcDbLinetypeTableRecord
  2
EXLTYPE2
 70
     0
  3
点線
 72
    65
 73
     2
 40
2.0
 49
1.0
 74
     0
 49
-1.0
 74
     0
  0
LTYPE
  5
42
330
5
100
AcDbSymbolTableRecord
100
AcDbLinetypeTableRecord
  2
EXLTYPE3
 70
     0
  3
一点鎖線
 72
    65
 73
     4
 40
10.0
 49
7.0
 74
     0
 49
-1.0
 74
     0
 49
1.0
 74
     0
 49
-1.0
 74
     0
  0
LTYPE
  5
43
330
5
100
AcDbSymbolTableRecord
100
AcDbLinetypeTableRecord
  2
EXLTYPE4
 70
     0
  3
二点鎖線
 72
    65
 73
     6
 40
12.0
 49
7.0
 74
     0
 49
-1.0
 74
     0
 49
1.0
 74
     0
 49
-1.0
 74
     0
 49
1.0
 74
     0
 49
-1.0
 74
     0
  0
LTYPE
  5
44
330
5
100
AcDbSymbolTableRecord
100
AcDbLinetypeTableRecord
  2
EXLTYPE5
 70
     0
  3
三点鎖線
 72
    65
 73
     8
 40
37.0
 49
30.0
 74
     0
 49
-1.0
 74
     0
 49
1.0
 74
     0
 49
-1.0
 74
     0
 49
1.0
 74
     0
 49
-1.0
 74
     0
 49
1.0
 74
     0
 49
-1.0
 74
     0
  0
LTYPE
  5
45
330
5
100
AcDbSymbolTableRecord
100
AcDbLinetypeTableRecord
  2
EXLTYPE6
 70
     0
  3
四点鎖線
 72
    65
 73
    10
 40
39.0
 49
30.0
 74
     0
 49
-1.0
 74
     0
 49
1.0
 74
     0
 49
-1.0
 74
     0
 49
1.0
 74
     0
 49
-1.0
 74
     0
 49
1.0
 74
     0
 49
-1.0
 74
     0
 49
1.0
 74
     0
 49
-1.0
 74
     0
  0
ENDTAB
  0
TABLE
  2
LAYER
  5
2
330
0
100
AcDbSymbolTable
 70
     7
  0
LAYER
  5
10
330
2
100
AcDbSymbolTableRecord
100
AcDbLayerTableRecord
  2
0
 70
     0
 62
     7
  6
CONTINUOUS
  0
LAYER
  5
48
330
2
100
AcDbSymbolTableRecord
100
AcDbLayerTableRecord
  2
枠_表
 70
     0
 62
     7
  6
CONTINUOUS
  0
LAYER
  5
49
330
2
100
AcDbSymbolTableRecord
100
AcDbLayerTableRecord
  2
化粧台
 70
     0
 62
     7
  6
CONTINUOUS
  0
LAYER
  5
4A
330
2
100
AcDbSymbolTableRecord
100
AcDbLayerTableRecord
  2
鏡台
 70
     0
 62
     7
  6
CONTINUOUS
  0
LAYER
  5
4B
330
2
100
AcDbSymbolTableRecord
100
AcDbLayerTableRecord
  2
付属金具
 70
     0
 62
     7
  6
CONTINUOUS
  0
LAYER
  5
4C
330
2
100
AcDbSymbolTableRecord
100
AcDbLayerTableRecord
  2
寸法
 70
     0
 62
     7
  6
CONTINUOUS
  0
LAYER
  5
11D
330
2
100
AcDbSymbolTableRecord
100
AcDbLayerTableRecord
  2
DEFPOINTS
 70
     0
 62
     7
  6
CONTINUOUS
  0
ENDTAB
  0
TABLE
  2
STYLE
  5
3
330
0
100
AcDbSymbolTable
 70
     6
  0
STYLE
  5
11
330
3
100
AcDbSymbolTableRecord
100
AcDbTextStyleTableRecord
  2
STANDARD
 70
     0
 40
0.0
 41
1.0
 50
0.0
 71
     0
 42
2.5
  3
monotxt
  4
extfont
  0
STYLE
  5
46
330
3
100
AcDbSymbolTableRecord
100
AcDbTextStyleTableRecord
  2
EXCADSTD
 70
     0
 40
0.0
 41
1.0
 50
0.0
 71
     0
 42
0.2
  3
monotxt
  4
extfont
  0
STYLE
  5
47
330
3
100
AcDbSymbolTableRecord
100
AcDbTextStyleTableRecord
  2
EXCADVERT
 70
     4
 40
0.0
 41
1.0
 50
0.0
 71
     0
 42
0.286885
  3
monotxt
  4
extfont
  0
STYLE
  5
CB
330
3
100
AcDbSymbolTableRecord
100
AcDbTextStyleTableRecord
  2
EXCADTTF1
 70
     0
 40
0.0
 41
1.0
 50
0.0
 71
     0
 42
0.2
  3
MSGOTHIC.TTC
  4

1001
ACAD
1000
MS Gothic
1071
    32817
  0
STYLE
  5
11B
330
3
100
AcDbSymbolTableRecord
100
AcDbTextStyleTableRecord
  2
EXCADDIM1
 70
     0
 40
0.0
 41
0.84
 50
0.0
 71
     0
 42
0.2
  3
monotxt
  4
extfont
  0
STYLE
  5
1BB
330
3
100
AcDbSymbolTableRecord
100
AcDbTextStyleTableRecord
  2
EXCADDIM2
 70
     0
 40
0.0
 41
0.82
 50
0.0
 71
     0
 42
0.2
  3
monotxt
  4
extfont
  0
ENDTAB
  0
TABLE
  2
VIEW
  5
6
330
0
100
AcDbSymbolTable
 70
     0
  0
ENDTAB
  0
TABLE
  2
UCS
  5
7
330
0
100
AcDbSymbolTable
 70
     0
  0
ENDTAB
  0
TABLE
  2
APPID
  5
9
330
0
100
AcDbSymbolTable
 70
     1
  0
APPID
  5
12
330
9
100
AcDbSymbolTableRecord
100
AcDbRegAppTableRecord
  2
ACAD
 70
     0
  0
ENDTAB
  0
TABLE
  2
DIMSTYLE
  5
A
330
0
100
AcDbSymbolTable
 70
     1
  0
DIMSTYLE
105
27
102
{ACAD_REACTORS
330
11C
330
12A
330
136
330
143
330
14E
330
15B
330
16A
330
177
330
184
330
191
330
19E
330
1AE
330
1BC
330
1C9
330
1D6
330
1E3
330
1F0
330
374
330
383
330
390
330
52F
330
630
330
63D
330
64A
330
657
330
664
102
}
330
A
100
AcDbSymbolTableRecord
100
AcDbDimStyleTableRecord
  2
ISO-25
 70
     0
  3

  4

  5

  6

  7

 40
1.0
 41
2.5
 42
0.625
 43
3.75
 44
1.25
 45
0.0
 46
0.0
 47
0.0
 48
0.0
140
2.5
141
2.5
142
0.0
143
0.03937007874016
144
1.0
145
0.0
146
1.0
147
0.625
 71
     0
 72
     0
 73
     0
 74
     0
 75
     0
 76
     0
 77
     1
 78
     8
170
     0
171
     3
172
     1
173
     0
174
     0
175
     0
176
     0
177
     0
178
     0
270
     2
271
     2
272
     2
273
     2
274
     3
340
11
275
     0
280
     0
281
     0
282
     0
283
     0
284
     8
285
     0
286
     0
287
     5
288
     0
  0
ENDTAB
  0
TABLE
  2
BLOCK_RECORD
  5
1
330
0
100
AcDbSymbolTable
 70
    41
  0
BLOCK_RECORD
  5
1F
330
1
100
AcDbSymbolTableRecord
100
AcDbBlockTableRecord
  2
*MODEL_SPACE
  0
BLOCK_RECORD
  5
1B
330
1
100
AcDbSymbolTableRecord
100
AcDbBlockTableRecord
  2
*PAPER_SPACE
  0
BLOCK_RECORD
  5
4D
330
1
100
AcDbSymbolTableRecord
100
AcDbBlockTableRecord
  2
EX_NORM
  0
BLOCK_RECORD
  5
50
330
1
100
AcDbSymbolTableRecord
100
AcDbBlockTableRecord
  2
EX_BNORM
  0
BLOCK_RECORD
  5
53
330
1
100
AcDbSymbolTableRecord
100
AcDbBlockTableRecord
  2
EX_BCIR
  0
BLOCK_RECORD
  5
56
330
1
100
AcDbSymbolTableRecord
100
AcDbBlockTableRecord
  2
EX_RCIVIL
  0
BLOCK_RECORD
  5
59
330
1
100
AcDbSymbolTableRecord
100
AcDbBlockTableRecord
  2
EX_SLANT
  0
BLOCK_RECORD
  5
5C
330
1
100
AcDbSymbolTableRecord
100
AcDbBlockTableRecord
  2
EX_NONE
  0
BLOCK_RECORD
  5
5F
330
1
100
AcDbSymbolTableRecord
100
AcDbBlockTableRecord
  2
EX_CIVIL
  0
BLOCK_RECORD
  5
62
330
1
100
AcDbSymbolTableRecord
100
AcDbBlockTableRecord
  2
EX_WCIR
  0
BLOCK_RECORD
  5
65
330
1
100
AcDbSymbolTableRecord
100
AcDbBlockTableRecord
  2
EX_WCIR2
  0
BLOCK_RECORD
  5
68
330
1
100
AcDbSymbolTableRecord
100
AcDbBlockTableRecord
  2
EX_WNORM
  0
BLOCK_RECORD
  5
6B
330
1
100
AcDbSymbolTableRecord
100
AcDbBlockTableRecord
  2
EX_NNORM
  0
BLOCK_RECORD
  5
6E
330
1
100
AcDbSymbolTableRecord
100
AcDbBlockTableRecord
  2
EX_BBOX
  0
BLOCK_RECORD
  5
71
330
1
100
AcDbSymbolTableRecord
100
AcDbBlockTableRecord
  2
EX_WBOX
  0
BLOCK_RECORD
  5
74
330
1
100
AcDbSymbolTableRecord
100
AcDbBlockTableRecord
  2
EX_INTEGRAL
  0
BLOCK_RECORD
  5
11E
330
1
100
AcDbSymbolTableRecord
100
AcDbBlockTableRecord
  2
*D15
  0
BLOCK_RECORD
  5
12B
330
1
100
AcDbSymbolTableRecord
100
AcDbBlockTableRecord
  2
*D16
  0
BLOCK_RECORD
  5
137
330
1
100
AcDbSymbolTableRecord
100
AcDbBlockTableRecord
  2
*D17
  0
BLOCK_RECORD
  5
144
330
1
100
AcDbSymbolTableRecord
100
AcDbBlockTableRecord
  2
*D18
  0
BLOCK_RECORD
  5
14F
330
1
100
AcDbSymbolTableRecord
100
AcDbBlockTableRecord
  2
*D19
  0
BLOCK_RECORD
  5
15C
330
1
100
AcDbSymbolTableRecord
100
AcDbBlockTableRecord
  2
*D20
  0
BLOCK_RECORD
  5
16B
330
1
100
AcDbSymbolTableRecord
100
AcDbBlockTableRecord
  2
*D21
  0
BLOCK_RECORD
  5
178
330
1
100
AcDbSymbolTableRecord
100
AcDbBlockTableRecord
  2
*D22
  0
BLOCK_RECORD
  5
185
330
1
100
AcDbSymbolTableRecord
100
AcDbBlockTableRecord
  2
*D23
  0
BLOCK_RECORD
  5
192
330
1
100
AcDbSymbolTableRecord
100
AcDbBlockTableRecord
  2
*D24
  0
BLOCK_RECORD
  5
19F
330
1
100
AcDbSymbolTableRecord
100
AcDbBlockTableRecord
  2
*D25
  0
BLOCK_RECORD
  5
1AF
330
1
100
AcDbSymbolTableRecord
100
AcDbBlockTableRecord
  2
*D26
  0
BLOCK_RECORD
  5
1BD
330
1
100
AcDbSymbolTableRecord
100
AcDbBlockTableRecord
  2
*D27
  0
BLOCK_RECORD
  5
1CA
330
1
100
AcDbSymbolTableRecord
100
AcDbBlockTableRecord
  2
*D28
  0
BLOCK_RECORD
  5
1D7
330
1
100
AcDbSymbolTableRecord
100
AcDbBlockTableRecord
  2
*D29
  0
BLOCK_RECORD
  5
1E4
330
1
100
AcDbSymbolTableRecord
100
AcDbBlockTableRecord
  2
*D30
  0
BLOCK_RECORD
  5
1F1
330
1
100
AcDbSymbolTableRecord
100
AcDbBlockTableRecord
  2
*D31
  0
BLOCK_RECORD
  5
375
330
1
100
AcDbSymbolTableRecord
100
AcDbBlockTableRecord
  2
*D32
  0
BLOCK_RECORD
  5
384
330
1
100
AcDbSymbolTableRecord
100
AcDbBlockTableRecord
  2
*D33
  0
BLOCK_RECORD
  5
391
330
1
100
AcDbSymbolTableRecord
100
AcDbBlockTableRecord
  2
*D34
  0
BLOCK_RECORD
  5
530
330
1
100
AcDbSymbolTableRecord
100
AcDbBlockTableRecord
  2
*D35
  0
BLOCK_RECORD
  5
631
330
1
100
AcDbSymbolTableRecord
100
AcDbBlockTableRecord
  2
*D36
  0
BLOCK_RECORD
  5
63E
330
1
100
AcDbSymbolTableRecord
100
AcDbBlockTableRecord
  2
*D37
  0
BLOCK_RECORD
  5
64B
330
1
100
AcDbSymbolTableRecord
100
AcDbBlockTableRecord
  2
*D38
  0
BLOCK_RECORD
  5
658
330
1
100
AcDbSymbolTableRecord
100
AcDbBlockTableRecord
  2
*D39
  0
BLOCK_RECORD
  5
665
330
1
100
AcDbSymbolTableRecord
100
AcDbBlockTableRecord
  2
*D40
  0
ENDTAB
  0
ENDSEC
  0
SECTION
  2
BLOCKS
  0
BLOCK
  5
20
330
1F
100
AcDbEntity
  8
0
100
AcDbBlockBegin
  2
*MODEL_SPACE
 70
     0
 10
0.0
 20
0.0
 30
0.0
  3
*MODEL_SPACE
  1

  0
ENDBLK
  5
21
330
1F
100
AcDbEntity
  8
0
100
AcDbBlockEnd
  0
BLOCK
  5
1C
330
1B
100
AcDbEntity
 67
     1
  8
0
100
AcDbBlockBegin
  2
*PAPER_SPACE
 70
     0
 10
0.0
 20
0.0
 30
0.0
  3
*PAPER_SPACE
  1

  0
ENDBLK
  5
1D
330
1B
100
AcDbEntity
 67
     1
  8
0
100
AcDbBlockEnd
  0
BLOCK
  5
4E
330
4D
100
AcDbEntity
  8
0
100
AcDbBlockBegin
  2
EX_NORM
 70
     0
 10
0.0
 20
0.0
 30
0.0
  3
EX_NORM
  1

  0
LINE
  5
77
330
4D
100
AcDbEntity
  8
0
  6
CONTINUOUS
 62
     0
100
AcDbLine
 10
0.0
 20
0.0
 30
0.0
 11
-1.0
 21
0.0
 31
0.0
  0
LINE
  5
78
330
4D
100
AcDbEntity
  8
0
  6
CONTINUOUS
 62
     0
100
AcDbLine
 10
0.0
 20
0.0
 30
0.0
 11
-1.0
 21
0.166666667
 31
0.0
  0
LINE
  5
79
330
4D
100
AcDbEntity
  8
0
  6
CONTINUOUS
 62
     0
100
AcDbLine
 10
0.0
 20
0.0
 30
0.0
 11
-1.0
 21
-0.166666667
 31
0.0
  0
ENDBLK
  5
4F
330
4D
100
AcDbEntity
  8
0
100
AcDbBlockEnd
  0
BLOCK
  5
51
330
50
100
AcDbEntity
  8
0
100
AcDbBlockBegin
  2
EX_BNORM
 70
     0
 10
0.0
 20
0.0
 30
0.0
  3
EX_BNORM
  1

  0
LINE
  5
7A
330
50
100
AcDbEntity
  8
0
  6
CONTINUOUS
 62
     0
100
AcDbLine
 10
0.0
 20
0.0
 30
0.0
 11
-1.0
 21
0.0
 31
0.0
  0
LINE
  5
7B
330
50
100
AcDbEntity
  8
0
  6
CONTINUOUS
 62
     0
100
AcDbLine
 10
0.0
 20
0.0
 30
0.0
 11
-1.0
 21
0.166666667
 31
0.0
  0
LINE
  5
7C
330
50
100
AcDbEntity
  8
0
  6
CONTINUOUS
 62
     0
100
AcDbLine
 10
0.0
 20
0.0
 30
0.0
 11
-1.0
 21
-0.166666667
 31
0.0
  0
LINE
  5
7D
330
50
100
AcDbEntity
  8
0
  6
CONTINUOUS
 62
     0
100
AcDbLine
 10
0.0
 20
0.0
 30
0.0
 11
-1.0
 21
0.083333333
 31
0.0
  0
LINE
  5
7E
330
50
100
AcDbEntity
  8
0
  6
CONTINUOUS
 62
     0
100
AcDbLine
 10
0.0
 20
0.0
 30
0.0
 11
-1.0
 21
-0.083333333
 31
0.0
  0
LINE
  5
7F
330
50
100
AcDbEntity
  8
0
  6
CONTINUOUS
 62
     0
100
AcDbLine
 10
-1.0
 20
0.166666667
 30
0.0
 11
-1.0
 21
-0.166666667
 31
0.0
  0
ENDBLK
  5
52
330
50
100
AcDbEntity
  8
0
100
AcDbBlockEnd
  0
BLOCK
  5
54
330
53
100
AcDbEntity
  8
0
100
AcDbBlockBegin
  2
EX_BCIR
 70
     0
 10
0.0
 20
0.0
 30
0.0
  3
EX_BCIR
  1

  0
LINE
  5
80
330
53
100
AcDbEntity
  8
0
  6
CONTINUOUS
 62
     0
100
AcDbLine
 10
0.0
 20
0.0
 30
0.0
 11
-1.0
 21
0.0
 31
0.0
  0
CIRCLE
  5
81
330
53
100
AcDbEntity
  8
0
  6
CONTINUOUS
 62
     0
100
AcDbCircle
 10
0.0
 20
0.0
 30
0.0
 40
0.5
  0
CIRCLE
  5
82
330
53
100
AcDbEntity
  8
0
  6
CONTINUOUS
 62
     0
100
AcDbCircle
 10
0.0
 20
0.0
 30
0.0
 40
0.25
  0
ENDBLK
  5
55
330
53
100
AcDbEntity
  8
0
100
AcDbBlockEnd
  0
BLOCK
  5
57
330
56
100
AcDbEntity
  8
0
100
AcDbBlockBegin
  2
EX_RCIVIL
 70
     0
 10
0.0
 20
0.0
 30
0.0
  3
EX_RCIVIL
  1

  0
LINE
  5
83
330
56
100
AcDbEntity
  8
0
  6
CONTINUOUS
 62
     0
100
AcDbLine
 10
0.0
 20
0.0
 30
0.0
 11
-1.0
 21
0.0
 31
0.0
  0
LINE
  5
84
330
56
100
AcDbEntity
  8
0
  6
CONTINUOUS
 62
     0
100
AcDbLine
 10
-1.0
 20
-0.25
 30
0.0
 11
0.0
 21
-0.25
 31
0.0
  0
LINE
  5
85
330
56
100
AcDbEntity
  8
0
  6
CONTINUOUS
 62
     0
100
AcDbLine
 10
-1.0
 20
-0.125
 30
0.0
 11
0.0
 21
-0.125
 31
0.0
  0
ENDBLK
  5
58
330
56
100
AcDbEntity
  8
0
100
AcDbBlockEnd
  0
BLOCK
  5
5A
330
59
100
AcDbEntity
  8
0
100
AcDbBlockBegin
  2
EX_SLANT
 70
     0
 10
0.0
 20
0.0
 30
0.0
  3
EX_SLANT
  1

  0
LINE
  5
86
330
59
100
AcDbEntity
  8
0
  6
CONTINUOUS
 62
     0
100
AcDbLine
 10
0.0
 20
0.0
 30
0.0
 11
-1.0
 21
0.0
 31
0.0
  0
LINE
  5
87
330
59
100
AcDbEntity
  8
0
  6
CONTINUOUS
 62
     0
100
AcDbLine
 10
0.707106781
 20
0.707106781
 30
0.0
 11
-0.707106781
 21
-0.707106781
 31
0.0
  0
ENDBLK
  5
5B
330
59
100
AcDbEntity
  8
0
100
AcDbBlockEnd
  0
BLOCK
  5
5D
330
5C
100
AcDbEntity
  8
0
100
AcDbBlockBegin
  2
EX_NONE
 70
     0
 10
0.0
 20
0.0
 30
0.0
  3
EX_NONE
  1

  0
LINE
  5
88
330
5C
100
AcDbEntity
  8
0
  6
CONTINUOUS
 62
     0
100
AcDbLine
 10
0.0
 20
0.0
 30
0.0
 11
-1.0
 21
0.0
 31
0.0
  0
ENDBLK
  5
5E
330
5C
100
AcDbEntity
  8
0
100
AcDbBlockEnd
  0
BLOCK
  5
60
330
5F
100
AcDbEntity
  8
0
100
AcDbBlockBegin
  2
EX_CIVIL
 70
     0
 10
0.0
 20
0.0
 30
0.0
  3
EX_CIVIL
  1

  0
LINE
  5
89
330
5F
100
AcDbEntity
  8
0
  6
CONTINUOUS
 62
     0
100
AcDbLine
 10
0.0
 20
0.0
 30
0.0
 11
-1.0
 21
0.0
 31
0.0
  0
LINE
  5
8A
330
5F
100
AcDbEntity
  8
0
  6
CONTINUOUS
 62
     0
100
AcDbLine
 10
-1.0
 20
0.25
 30
0.0
 11
0.0
 21
0.25
 31
0.0
  0
LINE
  5
8B
330
5F
100
AcDbEntity
  8
0
  6
CONTINUOUS
 62
     0
100
AcDbLine
 10
-1.0
 20
0.125
 30
0.0
 11
0.0
 21
0.125
 31
0.0
  0
ENDBLK
  5
61
330
5F
100
AcDbEntity
  8
0
100
AcDbBlockEnd
  0
BLOCK
  5
63
330
62
100
AcDbEntity
  8
0
100
AcDbBlockBegin
  2
EX_WCIR
 70
     0
 10
0.0
 20
0.0
 30
0.0
  3
EX_WCIR
  1

  0
LINE
  5
8C
330
62
100
AcDbEntity
  8
0
  6
CONTINUOUS
 62
     0
100
AcDbLine
 10
0.0
 20
0.0
 30
0.0
 11
-1.0
 21
0.0
 31
0.0
  0
CIRCLE
  5
8D
330
62
100
AcDbEntity
  8
0
  6
CONTINUOUS
 62
     0
100
AcDbCircle
 10
0.0
 20
0.0
 30
0.0
 40
0.5
  0
ENDBLK
  5
64
330
62
100
AcDbEntity
  8
0
100
AcDbBlockEnd
  0
BLOCK
  5
66
330
65
100
AcDbEntity
  8
0
100
AcDbBlockBegin
  2
EX_WCIR2
 70
     0
 10
0.0
 20
0.0
 30
0.0
  3
EX_WCIR2
  1

  0
LINE
  5
8E
330
65
100
AcDbEntity
  8
0
  6
CONTINUOUS
 62
     0
100
AcDbLine
 10
-0.5
 20
0.0
 30
0.0
 11
-1.0
 21
0.0
 31
0.0
  0
CIRCLE
  5
8F
330
65
100
AcDbEntity
  8
0
  6
CONTINUOUS
 62
     0
100
AcDbCircle
 10
0.0
 20
0.0
 30
0.0
 40
0.5
  0
ENDBLK
  5
67
330
65
100
AcDbEntity
  8
0
100
AcDbBlockEnd
  0
BLOCK
  5
69
330
68
100
AcDbEntity
  8
0
100
AcDbBlockBegin
  2
EX_WNORM
 70
     0
 10
0.0
 20
0.0
 30
0.0
  3
EX_WNORM
  1

  0
LINE
  5
90
330
68
100
AcDbEntity
  8
0
  6
CONTINUOUS
 62
     0
100
AcDbLine
 10
-1.0
 20
0.0
 30
0.0
 11
-1.0
 21
0.0
 31
0.0
  0
LINE
  5
91
330
68
100
AcDbEntity
  8
0
  6
CONTINUOUS
 62
     0
100
AcDbLine
 10
0.0
 20
0.0
 30
0.0
 11
-1.0
 21
0.166666667
 31
0.0
  0
LINE
  5
92
330
68
100
AcDbEntity
  8
0
  6
CONTINUOUS
 62
     0
100
AcDbLine
 10
0.0
 20
0.0
 30
0.0
 11
-1.0
 21
-0.166666667
 31
0.0
  0
LINE
  5
93
330
68
100
AcDbEntity
  8
0
  6
CONTINUOUS
 62
     0
100
AcDbLine
 10
-1.0
 20
0.166666667
 30
0.0
 11
-1.0
 21
-0.166666667
 31
0.0
  0
ENDBLK
  5
6A
330
68
100
AcDbEntity
  8
0
100
AcDbBlockEnd
  0
BLOCK
  5
6C
330
6B
100
AcDbEntity
  8
0
100
AcDbBlockBegin
  2
EX_NNORM
 70
     0
 10
0.0
 20
0.0
 30
0.0
  3
EX_NNORM
  1

  0
LINE
  5
94
330
6B
100
AcDbEntity
  8
0
  6
CONTINUOUS
 62
     0
100
AcDbLine
 10
0.0
 20
0.0
 30
0.0
 11
-1.0
 21
0.0
 31
0.0
  0
LINE
  5
95
330
6B
100
AcDbEntity
  8
0
  6
CONTINUOUS
 62
     0
100
AcDbLine
 10
0.0
 20
0.0
 30
0.0
 11
-1.0
 21
0.166666667
 31
0.0
  0
LINE
  5
96
330
6B
100
AcDbEntity
  8
0
  6
CONTINUOUS
 62
     0
100
AcDbLine
 10
0.0
 20
0.0
 30
0.0
 11
-1.0
 21
-0.166666667
 31
0.0
  0
LINE
  5
97
330
6B
100
AcDbEntity
  8
0
  6
CONTINUOUS
 62
     0
100
AcDbLine
 10
-1.0
 20
0.166666667
 30
0.0
 11
-1.0
 21
-0.166666667
 31
0.0
  0
ENDBLK
  5
6D
330
6B
100
AcDbEntity
  8
0
100
AcDbBlockEnd
  0
BLOCK
  5
6F
330
6E
100
AcDbEntity
  8
0
100
AcDbBlockBegin
  2
EX_BBOX
 70
     0
 10
0.0
 20
0.0
 30
0.0
  3
EX_BBOX
  1

  0
LINE
  5
98
330
6E
100
AcDbEntity
  8
0
  6
CONTINUOUS
 62
     0
100
AcDbLine
 10
0.0
 20
0.0
 30
0.0
 11
-1.0
 21
0.0
 31
0.0
  0
LINE
  5
99
330
6E
100
AcDbEntity
  8
0
  6
CONTINUOUS
 62
     0
100
AcDbLine
 10
-0.5
 20
0.5
 30
0.0
 11
0.5
 21
0.5
 31
0.0
  0
LINE
  5
9A
330
6E
100
AcDbEntity
  8
0
  6
CONTINUOUS
 62
     0
100
AcDbLine
 10
0.5
 20
0.5
 30
0.0
 11
0.5
 21
-0.5
 31
0.0
  0
LINE
  5
9B
330
6E
100
AcDbEntity
  8
0
  6
CONTINUOUS
 62
     0
100
AcDbLine
 10
0.5
 20
-0.5
 30
0.0
 11
-0.5
 21
-0.5
 31
0.0
  0
LINE
  5
9C
330
6E
100
AcDbEntity
  8
0
  6
CONTINUOUS
 62
     0
100
AcDbLine
 10
-0.5
 20
-0.5
 30
0.0
 11
-0.5
 21
0.5
 31
0.0
  0
LINE
  5
9D
330
6E
100
AcDbEntity
  8
0
  6
CONTINUOUS
 62
     0
100
AcDbLine
 10
-0.25
 20
0.25
 30
0.0
 11
0.25
 21
0.25
 31
0.0
  0
LINE
  5
9E
330
6E
100
AcDbEntity
  8
0
  6
CONTINUOUS
 62
     0
100
AcDbLine
 10
0.25
 20
0.25
 30
0.0
 11
0.25
 21
-0.25
 31
0.0
  0
LINE
  5
9F
330
6E
100
AcDbEntity
  8
0
  6
CONTINUOUS
 62
     0
100
AcDbLine
 10
0.25
 20
-0.25
 30
0.0
 11
-0.25
 21
-0.25
 31
0.0
  0
LINE
  5
A0
330
6E
100
AcDbEntity
  8
0
  6
CONTINUOUS
 62
     0
100
AcDbLine
 10
-0.25
 20
-0.25
 30
0.0
 11
-0.25
 21
0.25
 31
0.0
  0
ENDBLK
  5
70
330
6E
100
AcDbEntity
  8
0
100
AcDbBlockEnd
  0
BLOCK
  5
72
330
71
100
AcDbEntity
  8
0
100
AcDbBlockBegin
  2
EX_WBOX
 70
     0
 10
0.0
 20
0.0
 30
0.0
  3
EX_WBOX
  1

  0
LINE
  5
A1
330
71
100
AcDbEntity
  8
0
  6
CONTINUOUS
 62
     0
100
AcDbLine
 10
-0.5
 20
0.0
 30
0.0
 11
-1.0
 21
0.0
 31
0.0
  0
LINE
  5
A2
330
71
100
AcDbEntity
  8
0
  6
CONTINUOUS
 62
     0
100
AcDbLine
 10
-0.5
 20
0.5
 30
0.0
 11
0.5
 21
0.5
 31
0.0
  0
LINE
  5
A3
330
71
100
AcDbEntity
  8
0
  6
CONTINUOUS
 62
     0
100
AcDbLine
 10
0.5
 20
0.5
 30
0.0
 11
0.5
 21
-0.5
 31
0.0
  0
LINE
  5
A4
330
71
100
AcDbEntity
  8
0
  6
CONTINUOUS
 62
     0
100
AcDbLine
 10
0.5
 20
-0.5
 30
0.0
 11
-0.5
 21
-0.5
 31
0.0
  0
LINE
  5
A5
330
71
100
AcDbEntity
  8
0
  6
CONTINUOUS
 62
     0
100
AcDbLine
 10
-0.5
 20
-0.5
 30
0.0
 11
-0.5
 21
0.5
 31
0.0
  0
ENDBLK
  5
73
330
71
100
AcDbEntity
  8
0
100
AcDbBlockEnd
  0
BLOCK
  5
75
330
74
100
AcDbEntity
  8
0
100
AcDbBlockBegin
  2
EX_INTEGRAL
 70
     0
 10
0.0
 20
0.0
 30
0.0
  3
EX_INTEGRAL
  1

  0
LINE
  5
A6
330
74
100
AcDbEntity
  8
0
  6
CONTINUOUS
 62
     0
100
AcDbLine
 10
0.0
 20
0.0
 30
0.0
 11
-1.0
 21
0.0
 31
0.0
  0
ARC
  5
A7
330
74
100
AcDbEntity
  8
0
  6
CONTINUOUS
 62
     0
100
AcDbCircle
 10
0.542115
 20
0.164992
 30
0.0
 40
0.56667
100
AcDbArc
 50
73.07249033629006
 51
196.9275130221199
  0
ARC
  5
A8
330
74
100
AcDbEntity
  8
0
  6
CONTINUOUS
 62
     0
100
AcDbCircle
 10
-0.542115
 20
-0.164992
 30
0.0
 40
0.56667
100
AcDbArc
 50
253.0724869220464
 51
16.9275130559125
  0
ENDBLK
  5
76
330
74
100
AcDbEntity
  8
0
100
AcDbBlockEnd
  0
BLOCK
  5
11F
330
11E
100
AcDbEntity
  8
0
100
AcDbBlockBegin
  2
*D15
 70
     1
 10
0.0
 20
0.0
 30
0.0
  3
*D15
  1

  0
LINE
  5
121
330
11E
100
AcDbEntity
  8
化粧台
  6
CONTINUOUS
 62
     3
100
AcDbLine
 10
683.0000000001394
 20
3649.5
 30
0.0
 11
683.0000000001394
 21
3414.0
 31
0.0
  0
LINE
  5
122
330
11E
100
AcDbEntity
  8
化粧台
  6
CONTINUOUS
 62
     3
100
AcDbLine
 10
1283.000000000098
 20
3649.5
 30
0.0
 11
1283.000000000098
 21
3414.0
 31
0.0
  0
LINE
  5
123
330
11E
100
AcDbEntity
  8
化粧台
  6
CONTINUOUS
 62
     3
100
AcDbLine
 10
727.9999961854421
 20
3429.0
 30
0.0
 11
1238.000003814795
 21
3429.0
 31
0.0
  0
INSERT
  5
124
330
11E
100
AcDbEntity
  8
化粧台
 62
     3
100
AcDbBlockReference
  2
EX_NORM
 10
683.0000000001394
 20
3429.0
 30
0.0
 41
44.99999618530273
 42
44.99999618530273
 43
44.99999618530273
 50
180.0
  0
INSERT
  5
125
330
11E
100
AcDbEntity
  8
化粧台
 62
     3
100
AcDbBlockReference
  2
EX_NORM
 10
1283.000000000098
 20
3429.0
 30
0.0
 41
44.99999618530273
 42
44.99999618530273
 43
44.99999618530273
  0
MTEXT
  5
126
330
11E
100
AcDbEntity
  8
化粧台
 62
     2
100
AcDbMText
 10
983.0000000001187
 20
3464.249999910593
 30
0.0
 40
59.99999618530273
 41
0.0
 71
     5
 72
     1
  1
600
  7
EXCADDIM1
  0
POINT
  5
127
330
11E
100
AcDbEntity
  8
DEFPOINTS
 62
     0
100
AcDbPoint
 10
683.0000000001394
 20
3651.50000000004
 30
0.0
  0
POINT
  5
128
330
11E
100
AcDbEntity
  8
DEFPOINTS
 62
     0
100
AcDbPoint
 10
1283.000000000098
 20
3651.50000000004
 30
0.0
  0
POINT
  5
129
330
11E
100
AcDbEntity
  8
DEFPOINTS
 62
     0
100
AcDbPoint
 10
1283.000000000098
 20
3429.0
 30
0.0
  0
ENDBLK
  5
120
330
11E
100
AcDbEntity
  8
0
100
AcDbBlockEnd
  0
BLOCK
  5
12C
330
12B
100
AcDbEntity
  8
0
100
AcDbBlockBegin
  2
*D16
 70
     1
 10
0.0
 20
0.0
 30
0.0
  3
*D16
  1

  0
LINE
  5
12E
330
12B
100
AcDbEntity
  8
化粧台
  6
CONTINUOUS
 62
     3
100
AcDbLine
 10
1288.499999821284
 20
3671.50000000004
 30
0.0
 11
1431.0
 21
3671.50000000004
 31
0.0
  0
LINE
  5
12F
330
12B
100
AcDbEntity
  8
化粧台
  6
CONTINUOUS
 62
     3
100
AcDbLine
 10
1416.0
 20
3926.500003814737
 30
0.0
 11
1416.0
 21
3716.499996185342
 31
0.0
  0
INSERT
  5
130
330
12B
100
AcDbEntity
  8
化粧台
 62
     3
100
AcDbBlockReference
  2
EX_NORM
 10
1416.0
 20
3971.50000000004
 30
0.0
 41
44.99999618530273
 42
44.99999618530273
 43
44.99999618530273
 50
90.0
  0
INSERT
  5
131
330
12B
100
AcDbEntity
  8
化粧台
 62
     3
100
AcDbBlockReference
  2
EX_NORM
 10
1416.0
 20
3671.50000000004
 30
0.0
 41
44.99999618530273
 42
44.99999618530273
 43
44.99999618530273
 50
270.0
  0
MTEXT
  5
132
330
12B
100
AcDbEntity
  8
化粧台
 62
     2
100
AcDbMText
 10
1380.750000089407
 20
3821.50000000004
 30
0.0
 40
59.99999618530273
 41
0.0
 71
     5
 72
     1
  1
300
  7
EXCADDIM1
 11
0.0
 21
1.0
 31
0.0
  0
POINT
  5
133
330
12B
100
AcDbEntity
  8
DEFPOINTS
 62
     0
100
AcDbPoint
 10
1283.000000000098
 20
3971.50000000004
 30
0.0
  0
POINT
  5
134
330
12B
100
AcDbEntity
  8
DEFPOINTS
 62
     0
100
AcDbPoint
 10
1278.000000000098
 20
3671.50000000004
 30
0.0
  0
POINT
  5
135
330
12B
100
AcDbEntity
  8
DEFPOINTS
 62
     0
100
AcDbPoint
 10
1416.0
 20
3671.50000000004
 30
0.0
  0
ENDBLK
  5
12D
330
12B
100
AcDbEntity
  8
0
100
AcDbBlockEnd
  0
BLOCK
  5
138
330
137
100
AcDbEntity
  8
0
100
AcDbBlockBegin
  2
*D17
 70
     1
 10
0.0
 20
0.0
 30
0.0
  3
*D17
  1

  0
LINE
  5
13A
330
137
100
AcDbEntity
  8
化粧台
  6
CONTINUOUS
 62
     3
100
AcDbLine
 10
993.4999998212837
 20
3971.5
 30
0.0
 11
1550.999999999998
 21
3971.5
 31
0.0
  0
LINE
  5
13B
330
137
100
AcDbEntity
  8
化粧台
  6
CONTINUOUS
 62
     3
100
AcDbLine
 10
993.4999998212837
 20
3601.5
 30
0.0
 11
1550.999999999998
 21
3601.5
 31
0.0
  0
LINE
  5
13C
330
137
100
AcDbEntity
  8
化粧台
  6
CONTINUOUS
 62
     3
100
AcDbLine
 10
1536.0
 20
3926.500003814697
 30
0.0
 11
1536.0
 21
3646.499996185303
 31
0.0
  0
INSERT
  5
13D
330
137
100
AcDbEntity
  8
化粧台
 62
     3
100
AcDbBlockReference
  2
EX_NORM
 10
1536.0
 20
3971.5
 30
0.0
 41
44.99999618530273
 42
44.99999618530273
 43
44.99999618530273
 50
90.0
  0
INSERT
  5
13E
330
137
100
AcDbEntity
  8
化粧台
 62
     3
100
AcDbBlockReference
  2
EX_NORM
 10
1536.0
 20
3601.5
 30
0.0
 41
44.99999618530273
 42
44.99999618530273
 43
44.99999618530273
 50
270.0
  0
MTEXT
  5
13F
330
137
100
AcDbEntity
  8
化粧台
 62
     2
100
AcDbMText
 10
1498.5
 20
3786.5
 30
0.0
 40
59.99999618530273
 41
0.0
 71
     5
 72
     1
  1
370
  7
EXCADDIM1
 11
0.0
 21
1.0
 31
0.0
  0
POINT
  5
140
330
137
100
AcDbEntity
  8
DEFPOINTS
 62
     0
100
AcDbPoint
 10
983.0000000000977
 20
3971.5
 30
0.0
  0
POINT
  5
141
330
137
100
AcDbEntity
  8
DEFPOINTS
 62
     0
100
AcDbPoint
 10
983.0000000000977
 20
3601.5
 30
0.0
  0
POINT
  5
142
330
137
100
AcDbEntity
  8
DEFPOINTS
 62
     0
100
AcDbPoint
 10
1536.0
 20
3601.5
 30
0.0
  0
ENDBLK
  5
139
330
137
100
AcDbEntity
  8
0
100
AcDbBlockEnd
  0
BLOCK
  5
145
330
144
100
AcDbEntity
  8
0
100
AcDbBlockBegin
  2
*D18
 70
     1
 10
0.0
 20
0.0
 30
0.0
  3
*D18
  1

  0
LINE
  5
147
330
144
100
AcDbEntity
  8
化粧台
  6
CONTINUOUS
 62
     3
100
AcDbLine
 10
1557.0
 20
1637.000003814797
 30
0.0
 11
1557.0
 21
941.9999961853027
 31
0.0
  0
INSERT
  5
148
330
144
100
AcDbEntity
  8
化粧台
 62
     3
100
AcDbBlockReference
  2
EX_NORM
 10
1557.0
 20
1682.0000000001
 30
0.0
 41
44.99999618530273
 42
44.99999618530273
 43
44.99999618530273
 50
90.0
  0
INSERT
  5
149
330
144
100
AcDbEntity
  8
化粧台
 62
     3
100
AcDbBlockReference
  2
EX_NORM
 10
1557.0
 20
897.0
 30
0.0
 41
44.99999618530273
 42
44.99999618530273
 43
44.99999618530273
 50
270.0
  0
MTEXT
  5
14A
330
144
100
AcDbEntity
  8
化粧台
 62
     2
100
AcDbMText
 10
1519.5
 20
1289.50000000005
 30
0.0
 40
59.99999618530273
 41
0.0
 71
     5
 72
     1
  1
785
  7
EXCADDIM1
 11
0.0
 21
1.0
 31
0.0
  0
POINT
  5
14B
330
144
100
AcDbEntity
  8
DEFPOINTS
 62
     0
100
AcDbPoint
 10
1479.474995203798
 20
1682.0000000001
 30
0.0
  0
POINT
  5
14C
330
144
100
AcDbEntity
  8
DEFPOINTS
 62
     0
100
AcDbPoint
 10
1479.474995203798
 20
897.0
 30
0.0
  0
POINT
  5
14D
330
144
100
AcDbEntity
  8
DEFPOINTS
 62
     0
100
AcDbPoint
 10
1557.0
 20
897.0
 30
0.0
  0
ENDBLK
  5
146
330
144
100
AcDbEntity
  8
0
100
AcDbBlockEnd
  0
BLOCK
  5
150
330
14F
100
AcDbEntity
  8
0
100
AcDbBlockBegin
  2
*D19
 70
     1
 10
0.0
 20
0.0
 30
0.0
  3
*D19
  1

  0
LINE
  5
152
330
14F
100
AcDbEntity
  8
化粧台
  6
CONTINUOUS
 62
     3
100
AcDbLine
 10
1298.999999642484
 20
2812.0000000001
 30
0.0
 11
1572.0
 21
2812.0000000001
 31
0.0
  0
LINE
  5
153
330
14F
100
AcDbEntity
  8
化粧台
  6
CONTINUOUS
 62
     3
100
AcDbLine
 10
1263.474995024984
 20
1682.0000000001
 30
0.0
 11
1572.0
 21
1682.0000000001
 31
0.0
  0
LINE
  5
154
330
14F
100
AcDbEntity
  8
化粧台
  6
CONTINUOUS
 62
     3
100
AcDbLine
 10
1557.0
 20
2767.000003814797
 30
0.0
 11
1557.0
 21
1726.999996185403
 31
0.0
  0
INSERT
  5
155
330
14F
100
AcDbEntity
  8
化粧台
 62
     3
100
AcDbBlockReference
  2
EX_NORM
 10
1557.0
 20
2812.0000000001
 30
0.0
 41
44.99999618530273
 42
44.99999618530273
 43
44.99999618530273
 50
90.0
  0
INSERT
  5
156
330
14F
100
AcDbEntity
  8
化粧台
 62
     3
100
AcDbBlockReference
  2
EX_NORM
 10
1557.0
 20
1682.0000000001
 30
0.0
 41
44.99999618530273
 42
44.99999618530273
 43
44.99999618530273
 50
270.0
  0
MTEXT
  5
157
330
14F
100
AcDbEntity
  8
化粧台
 62
     2
100
AcDbMText
 10
1519.5
 20
2247.0000000001
 30
0.0
 40
59.99999618530273
 41
0.0
 71
     5
 72
     1
  1
1130
  7
EXCADDIM1
 11
0.0
 21
1.0
 31
0.0
  0
POINT
  5
158
330
14F
100
AcDbEntity
  8
DEFPOINTS
 62
     0
100
AcDbPoint
 10
1288.499999821298
 20
2812.0000000001
 30
0.0
  0
POINT
  5
159
330
14F
100
AcDbEntity
  8
DEFPOINTS
 62
     0
100
AcDbPoint
 10
1252.974995203798
 20
1682.0000000001
 30
0.0
  0
POINT
  5
15A
330
14F
100
AcDbEntity
  8
DEFPOINTS
 62
     0
100
AcDbPoint
 10
1557.0
 20
1682.0000000001
 30
0.0
  0
ENDBLK
  5
151
330
14F
100
AcDbEntity
  8
0
100
AcDbBlockEnd
  0
BLOCK
  5
15D
330
15C
100
AcDbEntity
  8
0
100
AcDbBlockBegin
  2
*D20
 70
     1
 10
0.0
 20
0.0
 30
0.0
  3
*D20
  1

  0
LINE
  5
15F
330
15C
100
AcDbEntity
  8
化粧台
  6
CONTINUOUS
 62
     3
100
AcDbLine
 10
1288.499999821284
 20
2812.0000000001
 30
0.0
 11
1714.5
 21
2812.0000000001
 31
0.0
  0
LINE
  5
160
330
15C
100
AcDbEntity
  8
化粧台
  6
CONTINUOUS
 62
     3
100
AcDbLine
 10
1265.499999821284
 20
897.0
 30
0.0
 11
1714.5
 21
897.0
 31
0.0
  0
LINE
  5
161
330
15C
100
AcDbEntity
  8
化粧台
  6
CONTINUOUS
 62
     3
100
AcDbLine
 10
1699.5
 20
2767.000003814797
 30
0.0
 11
1699.5
 21
941.9999961853027
 31
0.0
  0
INSERT
  5
162
330
15C
100
AcDbEntity
  8
化粧台
 62
     3
100
AcDbBlockReference
  2
EX_NORM
 10
1699.5
 20
2812.0000000001
 30
0.0
 41
44.99999618530273
 42
44.99999618530273
 43
44.99999618530273
 50
90.0
  0
INSERT
  5
163
330
15C
100
AcDbEntity
  8
化粧台
 62
     3
100
AcDbBlockReference
  2
EX_NORM
 10
1699.5
 20
897.0
 30
0.0
 41
44.99999618530273
 42
44.99999618530273
 43
44.99999618530273
 50
270.0
  0
MTEXT
  5
164
330
15C
100
AcDbEntity
  8
化粧台
 62
     2
100
AcDbMText
 10
1662.0
 20
1854.50000000005
 30
0.0
 40
59.99999618530273
 41
0.0
 71
     5
 72
     1
  1
1915
  7
EXCADDIM1
 11
1.187329897875824E-16
 21
1.0
 31
0.0
  0
POINT
  5
165
330
15C
100
AcDbEntity
  8
DEFPOINTS
 62
     0
100
AcDbPoint
 10
1278.000000000098
 20
2812.0000000001
 30
0.0
  0
POINT
  5
166
330
15C
100
AcDbEntity
  8
DEFPOINTS
 62
     0
100
AcDbPoint
 10
1255.000000000098
 20
897.0
 30
0.0
  0
POINT
  5
167
330
15C
100
AcDbEntity
  8
DEFPOINTS
 62
     0
100
AcDbPoint
 10
1699.5
 20
897.0
 30
0.0
  0
ENDBLK
  5
15E
330
15C
100
AcDbEntity
  8
0
100
AcDbBlockEnd
  0
BLOCK
  5
16C
330
16B
100
AcDbEntity
  8
0
100
AcDbBlockBegin
  2
*D21
 70
     1
 10
0.0
 20
0.0
 30
0.0
  3
*D21
  1

  0
LINE
  5
16E
330
16B
100
AcDbEntity
  8
化粧台
  6
CONTINUOUS
 62
     3
100
AcDbLine
 10
1280.499999821244
 20
897.0000000001
 30
0.0
 11
1458.0000000001
 21
897.0000000001002
 31
0.0
  0
LINE
  5
16F
330
16B
100
AcDbEntity
  8
化粧台
  6
CONTINUOUS
 62
     3
100
AcDbLine
 10
993.4999998212436
 20
1647.0000000001
 30
0.0
 11
1458.0000000001
 21
1647.0000000001
 31
0.0
  0
LINE
  5
170
330
16B
100
AcDbEntity
  8
化粧台
  6
CONTINUOUS
 62
     3
100
AcDbLine
 10
1443.0000000001
 20
941.9999961854029
 30
0.0
 11
1443.0000000001
 21
1602.000003814797
 31
0.0
  0
INSERT
  5
171
330
16B
100
AcDbEntity
  8
化粧台
 62
     3
100
AcDbBlockReference
  2
EX_NORM
 10
1443.0000000001
 20
897.0000000001002
 30
0.0
 41
44.99999618530273
 42
44.99999618530273
 43
44.99999618530273
 50
270.0
  0
INSERT
  5
172
330
16B
100
AcDbEntity
  8
化粧台
 62
     3
100
AcDbBlockReference
  2
EX_NORM
 10
1443.0000000001
 20
1647.0000000001
 30
0.0
 41
44.99999618530273
 42
44.99999618530273
 43
44.99999618530273
 50
90.0
  0
MTEXT
  5
173
330
16B
100
AcDbEntity
  8
化粧台
 62
     2
100
AcDbMText
 10
1407.750000089507
 20
1272.000000000099
 30
0.0
 40
59.99999618530273
 41
0.0
 71
     5
 72
     1
  1
750
  7
EXCADDIM1
 11
0.0
 21
1.0
 31
0.0
  0
POINT
  5
174
330
16B
100
AcDbEntity
  8
DEFPOINTS
 62
     0
100
AcDbPoint
 10
1270.000000000058
 20
897.0000000001
 30
0.0
  0
POINT
  5
175
330
16B
100
AcDbEntity
  8
DEFPOINTS
 62
     0
100
AcDbPoint
 10
983.0000000000575
 20
1647.0000000001
 30
0.0
  0
POINT
  5
176
330
16B
100
AcDbEntity
  8
DEFPOINTS
 62
     0
100
AcDbPoint
 10
1443.0000000001
 20
1647.0000000001
 30
0.0
  0
ENDBLK
  5
16D
330
16B
100
AcDbEntity
  8
0
100
AcDbBlockEnd
  0
BLOCK
  5
179
330
178
100
AcDbEntity
  8
0
100
AcDbBlockBegin
  2
*D22
 70
     1
 10
0.0
 20
0.0
 30
0.0
  3
*D22
  1

  0
LINE
  5
17B
330
178
100
AcDbEntity
  8
化粧台
  6
CONTINUOUS
 62
     3
100
AcDbLine
 10
683.0000000000575
 20
2817.499999821286
 30
0.0
 11
683.0000000000575
 21
3106.5
 31
0.0
  0
LINE
  5
17C
330
178
100
AcDbEntity
  8
化粧台
  6
CONTINUOUS
 62
     3
100
AcDbLine
 10
1283.000000000098
 20
2817.499999821286
 30
0.0
 11
1283.000000000098
 21
3106.5
 31
0.0
  0
LINE
  5
17D
330
178
100
AcDbEntity
  8
化粧台
  6
CONTINUOUS
 62
     3
100
AcDbLine
 10
727.9999961853603
 20
3091.5
 30
0.0
 11
1238.000003814795
 21
3091.5
 31
0.0
  0
INSERT
  5
17E
330
178
100
AcDbEntity
  8
化粧台
 62
     3
100
AcDbBlockReference
  2
EX_NORM
 10
683.0000000000575
 20
3091.5
 30
0.0
 41
44.99999618530273
 42
44.99999618530273
 43
44.99999618530273
 50
180.0
  0
INSERT
  5
17F
330
178
100
AcDbEntity
  8
化粧台
 62
     3
100
AcDbBlockReference
  2
EX_NORM
 10
1283.000000000098
 20
3091.5
 30
0.0
 41
44.99999618530273
 42
44.99999618530273
 43
44.99999618530273
  0
MTEXT
  5
180
330
178
100
AcDbEntity
  8
化粧台
 62
     2
100
AcDbMText
 10
983.0000000000778
 20
3129.0
 30
0.0
 40
59.99999618530273
 41
0.0
 71
     5
 72
     1
  1
600
  7
EXCADDIM1
  0
POINT
  5
181
330
178
100
AcDbEntity
  8
DEFPOINTS
 62
     0
100
AcDbPoint
 10
683.0000000000575
 20
2807.0000000001
 30
0.0
  0
POINT
  5
182
330
178
100
AcDbEntity
  8
DEFPOINTS
 62
     0
100
AcDbPoint
 10
1283.000000000098
 20
2807.0000000001
 30
0.0
  0
POINT
  5
183
330
178
100
AcDbEntity
  8
DEFPOINTS
 62
     0
100
AcDbPoint
 10
1283.000000000098
 20
3091.5
 30
0.0
  0
ENDBLK
  5
17A
330
178
100
AcDbEntity
  8
0
100
AcDbBlockEnd
  0
BLOCK
  5
186
330
185
100
AcDbEntity
  8
0
100
AcDbBlockBegin
  2
*D23
 70
     1
 10
0.0
 20
0.0
 30
0.0
  3
*D23
  1

  0
LINE
  5
188
330
185
100
AcDbEntity
  8
化粧台
  6
CONTINUOUS
 62
     3
100
AcDbLine
 10
763.0000025146576
 20
2649.999983131986
 30
0.0
 11
763.0000025146576
 21
2995.5
 31
0.0
  0
LINE
  5
189
330
185
100
AcDbEntity
  8
化粧台
  6
CONTINUOUS
 62
     3
100
AcDbLine
 10
1203.000000012197
 20
2672.499983131986
 30
0.0
 11
1203.000000012197
 21
2995.5
 31
0.0
  0
LINE
  5
18A
330
185
100
AcDbEntity
  8
化粧台
  6
CONTINUOUS
 62
     3
100
AcDbLine
 10
807.9999986999603
 20
2980.5
 30
0.0
 11
1158.000003826895
 21
2980.5
 31
0.0
  0
INSERT
  5
18B
330
185
100
AcDbEntity
  8
化粧台
 62
     3
100
AcDbBlockReference
  2
EX_NORM
 10
763.0000025146576
 20
2980.5
 30
0.0
 41
44.99999618530273
 42
44.99999618530273
 43
44.99999618530273
 50
180.0
  0
INSERT
  5
18C
330
185
100
AcDbEntity
  8
化粧台
 62
     3
100
AcDbBlockReference
  2
EX_NORM
 10
1203.000000012197
 20
2980.5
 30
0.0
 41
44.99999618530273
 42
44.99999618530273
 43
44.99999618530273
  0
MTEXT
  5
18D
330
185
100
AcDbEntity
  8
化粧台
 62
     2
100
AcDbMText
 10
983.0000012634277
 20
3018.0
 30
0.0
 40
59.99999618530273
 41
0.0
 71
     5
 72
     1
  1
440（壁固定）
  7
EXCADDIM1
  0
POINT
  5
18E
330
185
100
AcDbEntity
  8
DEFPOINTS
 62
     0
100
AcDbPoint
 10
763.0000025146576
 20
2639.4999833108
 30
0.0
  0
POINT
  5
18F
330
185
100
AcDbEntity
  8
DEFPOINTS
 62
     0
100
AcDbPoint
 10
1203.000000012197
 20
2661.9999833108
 30
0.0
  0
POINT
  5
190
330
185
100
AcDbEntity
  8
DEFPOINTS
 62
     0
100
AcDbPoint
 10
1203.000000012197
 20
2980.5
 30
0.0
  0
ENDBLK
  5
187
330
185
100
AcDbEntity
  8
0
100
AcDbBlockEnd
  0
BLOCK
  5
193
330
192
100
AcDbEntity
  8
0
100
AcDbBlockBegin
  2
*D24
 70
     1
 10
0.0
 20
0.0
 30
0.0
  3
*D24
  1

  0
LINE
  5
195
330
192
100
AcDbEntity
  8
化粧台
  6
CONTINUOUS
 62
     3
100
AcDbLine
 10
1326.576696651883
 20
1972.0000000001
 30
0.0
 11
1458.000000000099
 21
1972.0000000001
 31
0.0
  0
LINE
  5
196
330
192
100
AcDbEntity
  8
化粧台
  6
CONTINUOUS
 62
     3
100
AcDbLine
 10
1356.149999821283
 20
1682.0000000001
 30
0.0
 11
1458.000000000099
 21
1682.0000000001
 31
0.0
  0
LINE
  5
197
330
192
100
AcDbEntity
  8
化粧台
  6
CONTINUOUS
 62
     3
100
AcDbLine
 10
1443.0000000001
 20
1927.000003814798
 30
0.0
 11
1443.0000000001
 21
1726.999996185403
 31
0.0
  0
INSERT
  5
198
330
192
100
AcDbEntity
  8
化粧台
 62
     3
100
AcDbBlockReference
  2
EX_NORM
 10
1443.0000000001
 20
1972.0000000001
 30
0.0
 41
44.99999618530273
 42
44.99999618530273
 43
44.99999618530273
 50
90.0
  0
INSERT
  5
199
330
192
100
AcDbEntity
  8
化粧台
 62
     3
100
AcDbBlockReference
  2
EX_NORM
 10
1443.0000000001
 20
1682.0000000001
 30
0.0
 41
44.99999618530273
 42
44.99999618530273
 43
44.99999618530273
 50
270.0
  0
MTEXT
  5
19A
330
192
100
AcDbEntity
  8
化粧台
 62
     2
100
AcDbMText
 10
1405.5000000001
 20
1827.0000000001
 30
0.0
 40
59.99999618530273
 41
0.0
 71
     5
 72
     1
  1
290
  7
EXCADDIM1
 11
0.0
 21
1.0
 31
0.0
  0
POINT
  5
19B
330
192
100
AcDbEntity
  8
DEFPOINTS
 62
     0
100
AcDbPoint
 10
1316.076696830697
 20
1972.0000000001
 30
0.0
  0
POINT
  5
19C
330
192
100
AcDbEntity
  8
DEFPOINTS
 62
     0
100
AcDbPoint
 10
1345.650000000097
 20
1682.0000000001
 30
0.0
  0
POINT
  5
19D
330
192
100
AcDbEntity
  8
DEFPOINTS
 62
     0
100
AcDbPoint
 10
1443.0000000001
 20
1682.0000000001
 30
0.0
  0
ENDBLK
  5
194
330
192
100
AcDbEntity
  8
0
100
AcDbBlockEnd
  0
BLOCK
  5
1A0
330
19F
100
AcDbEntity
  8
0
100
AcDbBlockBegin
  2
*D25
 70
     1
 10
0.0
 20
0.0
 30
0.0
  3
*D25
  1

  0
LINE
  5
1A2
330
19F
100
AcDbEntity
  8
化粧台
  6
CONTINUOUS
 62
     3
100
AcDbLine
 10
2443.000000000096
 20
841.5000001788139
 30
0.0
 11
2443.000000000096
 21
762.0
 31
0.0
  0
LINE
  5
1A3
330
19F
100
AcDbEntity
  8
化粧台
  6
CONTINUOUS
 62
     3
100
AcDbLine
 10
2528.000000000096
 20
886.5000001788139
 30
0.0
 11
2528.000000000096
 21
762.0
 31
0.0
  0
LINE
  5
1A4
330
19F
100
AcDbEntity
  8
化粧台
  6
CONTINUOUS
 62
     3
100
AcDbLine
 10
2443.000000000096
 20
777.0
 30
0.0
 11
2528.000000000096
 21
777.0
 31
0.0
  0
LINE
  5
1A5
330
19F
100
AcDbEntity
  8
化粧台
  6
CONTINUOUS
 62
     3
100
AcDbLine
 10
2398.000003814794
 20
777.0
 30
0.0
 11
2353.000007629491
 21
777.0
 31
0.0
  0
LINE
  5
1A6
330
19F
100
AcDbEntity
  8
化粧台
  6
CONTINUOUS
 62
     3
100
AcDbLine
 10
2572.999996185399
 20
777.0
 30
0.0
 11
2617.999992370702
 21
777.0
 31
0.0
  0
INSERT
  5
1A7
330
19F
100
AcDbEntity
  8
化粧台
 62
     3
100
AcDbBlockReference
  2
EX_NORM
 10
2443.000000000096
 20
777.0
 30
0.0
 41
44.99999618530273
 42
44.99999618530273
 43
44.99999618530273
  0
INSERT
  5
1A8
330
19F
100
AcDbEntity
  8
化粧台
 62
     3
100
AcDbBlockReference
  2
EX_NORM
 10
2528.000000000096
 20
777.0
 30
0.0
 41
44.99999618530273
 42
44.99999618530273
 43
44.99999618530273
 50
180.0
  0
MTEXT
  5
1A9
330
19F
100
AcDbEntity
  8
化粧台
 62
     2
100
AcDbMText
 10
2770.999997139073
 20
814.5
 30
0.0
 40
59.99999618530273
 41
0.0
 71
     5
 72
     1
  1
85（床・給排水）
  7
EXCADDIM1
  0
POINT
  5
1AA
330
19F
100
AcDbEntity
  8
DEFPOINTS
 62
     0
100
AcDbPoint
 10
2443.000000000096
 20
852.0
 30
0.0
  0
POINT
  5
1AB
330
19F
100
AcDbEntity
  8
DEFPOINTS
 62
     0
100
AcDbPoint
 10
2528.000000000096
 20
897.0
 30
0.0
  0
POINT
  5
1AC
330
19F
100
AcDbEntity
  8
DEFPOINTS
 62
     0
100
AcDbPoint
 10
2528.000000000096
 20
777.0
 30
0.0
  0
ENDBLK
  5
1A1
330
19F
100
AcDbEntity
  8
0
100
AcDbBlockEnd
  0
BLOCK
  5
1B0
330
1AF
100
AcDbEntity
  8
0
100
AcDbBlockBegin
  2
*D26
 70
     1
 10
0.0
 20
0.0
 30
0.0
  3
*D26
  1

  0
LINE
  5
1B2
330
1AF
100
AcDbEntity
  8
化粧台
  6
CONTINUOUS
 62
     3
100
AcDbLine
 10
2268.500000000096
 20
886.5000001788139
 30
0.0
 11
2268.500000000096
 21
643.5
 31
0.0
  0
LINE
  5
1B3
330
1AF
100
AcDbEntity
  8
化粧台
  6
CONTINUOUS
 62
     3
100
AcDbLine
 10
2528.000000000096
 20
886.5000001788139
 30
0.0
 11
2528.000000000096
 21
643.5
 31
0.0
  0
LINE
  5
1B4
330
1AF
100
AcDbEntity
  8
化粧台
  6
CONTINUOUS
 62
     3
100
AcDbLine
 10
2313.499996185399
 20
658.5
 30
0.0
 11
2483.000003814794
 21
658.5
 31
0.0
  0
INSERT
  5
1B5
330
1AF
100
AcDbEntity
  8
化粧台
 62
     3
100
AcDbBlockReference
  2
EX_NORM
 10
2268.500000000096
 20
658.5
 30
0.0
 41
44.99999618530273
 42
44.99999618530273
 43
44.99999618530273
 50
180.0
  0
INSERT
  5
1B6
330
1AF
100
AcDbEntity
  8
化粧台
 62
     3
100
AcDbBlockReference
  2
EX_NORM
 10
2528.000000000096
 20
658.5
 30
0.0
 41
44.99999618530273
 42
44.99999618530273
 43
44.99999618530273
  0
MTEXT
  5
1B7
330
1AF
100
AcDbEntity
  8
化粧台
 62
     2
100
AcDbMText
 10
2398.250000000096
 20
696.0
 30
0.0
 40
59.99999618530273
 41
0.0
 71
     5
 72
     1
  1
260
  7
EXCADDIM1
  0
POINT
  5
1B8
330
1AF
100
AcDbEntity
  8
DEFPOINTS
 62
     0
100
AcDbPoint
 10
2268.500000000096
 20
897.0
 30
0.0
  0
POINT
  5
1B9
330
1AF
100
AcDbEntity
  8
DEFPOINTS
 62
     0
100
AcDbPoint
 10
2528.000000000096
 20
897.0
 30
0.0
  0
POINT
  5
1BA
330
1AF
100
AcDbEntity
  8
DEFPOINTS
 62
     0
100
AcDbPoint
 10
2528.000000000096
 20
658.5
 30
0.0
  0
ENDBLK
  5
1B1
330
1AF
100
AcDbEntity
  8
0
100
AcDbBlockEnd
  0
BLOCK
  5
1BE
330
1BD
100
AcDbEntity
  8
0
100
AcDbBlockBegin
  2
*D27
 70
     1
 10
0.0
 20
0.0
 30
0.0
  3
*D27
  1

  0
LINE
  5
1C0
330
1BD
100
AcDbEntity
  8
化粧台
  6
CONTINUOUS
 62
     3
100
AcDbLine
 10
2548.999999642483
 20
897.0
 30
0.0
 11
2683.5
 21
896.9999999999999
 31
0.0
  0
LINE
  5
1C1
330
1BD
100
AcDbEntity
  8
化粧台
  6
CONTINUOUS
 62
     3
100
AcDbLine
 10
2561.500005543283
 20
1217.0
 30
0.0
 11
2683.5
 21
1217.0
 31
0.0
  0
LINE
  5
1C2
330
1BD
100
AcDbEntity
  8
化粧台
  6
CONTINUOUS
 62
     3
100
AcDbLine
 10
2668.5
 20
941.9999961853026
 30
0.0
 11
2668.5
 21
1172.000003814697
 31
0.0
  0
INSERT
  5
1C3
330
1BD
100
AcDbEntity
  8
化粧台
 62
     3
100
AcDbBlockReference
  2
EX_NORM
 10
2668.5
 20
896.9999999999999
 30
0.0
 41
44.99999618530273
 42
44.99999618530273
 43
44.99999618530273
 50
270.0
  0
INSERT
  5
1C4
330
1BD
100
AcDbEntity
  8
化粧台
 62
     3
100
AcDbBlockReference
  2
EX_NORM
 10
2668.5
 20
1217.0
 30
0.0
 41
44.99999618530273
 42
44.99999618530273
 43
44.99999618530273
 50
90.0
  0
MTEXT
  5
1C5
330
1BD
100
AcDbEntity
  8
化粧台
 62
     2
100
AcDbMText
 10
2631.0
 20
1057.0
 30
0.0
 40
59.99999618530273
 41
0.0
 71
     5
 72
     1
  1
320（壁給水）
  7
EXCADDIM2
 11
0.0
 21
1.0
 31
0.0
  0
POINT
  5
1C6
330
1BD
100
AcDbEntity
  8
DEFPOINTS
 62
     0
100
AcDbPoint
 10
2538.499999821297
 20
897.0
 30
0.0
  0
POINT
  5
1C7
330
1BD
100
AcDbEntity
  8
DEFPOINTS
 62
     0
100
AcDbPoint
 10
2551.000005722097
 20
1217.0
 30
0.0
  0
POINT
  5
1C8
330
1BD
100
AcDbEntity
  8
DEFPOINTS
 62
     0
100
AcDbPoint
 10
2668.5
 20
1217.0
 30
0.0
  0
ENDBLK
  5
1BF
330
1BD
100
AcDbEntity
  8
0
100
AcDbBlockEnd
  0
BLOCK
  5
1CB
330
1CA
100
AcDbEntity
  8
0
100
AcDbBlockBegin
  2
*D28
 70
     1
 10
0.0
 20
0.0
 30
0.0
  3
*D28
  1

  0
LINE
  5
1CD
330
1CA
100
AcDbEntity
  8
化粧台
  6
CONTINUOUS
 62
     3
100
AcDbLine
 10
2548.999999642483
 20
897.0
 30
0.0
 11
2776.5
 21
896.9999999999999
 31
0.0
  0
LINE
  5
1CE
330
1CA
100
AcDbEntity
  8
化粧台
  6
CONTINUOUS
 62
     3
100
AcDbLine
 10
2567.249999821282
 20
1372.0
 30
0.0
 11
2776.5
 21
1372.0
 31
0.0
  0
LINE
  5
1CF
330
1CA
100
AcDbEntity
  8
化粧台
  6
CONTINUOUS
 62
     3
100
AcDbLine
 10
2761.5
 20
941.9999961853026
 30
0.0
 11
2761.5
 21
1327.000003814697
 31
0.0
  0
INSERT
  5
1D0
330
1CA
100
AcDbEntity
  8
化粧台
 62
     3
100
AcDbBlockReference
  2
EX_NORM
 10
2761.5
 20
896.9999999999999
 30
0.0
 41
44.99999618530273
 42
44.99999618530273
 43
44.99999618530273
 50
270.0
  0
INSERT
  5
1D1
330
1CA
100
AcDbEntity
  8
化粧台
 62
     3
100
AcDbBlockReference
  2
EX_NORM
 10
2761.5
 20
1372.0
 30
0.0
 41
44.99999618530273
 42
44.99999618530273
 43
44.99999618530273
 50
90.0
  0
MTEXT
  5
1D2
330
1CA
100
AcDbEntity
  8
化粧台
 62
     2
100
AcDbMText
 10
2724.0
 20
1134.5
 30
0.0
 40
59.99999618530273
 41
0.0
 71
     5
 72
     1
  1
475（壁排水）
  7
EXCADDIM1
 11
0.0
 21
1.0
 31
0.0
  0
POINT
  5
1D3
330
1CA
100
AcDbEntity
  8
DEFPOINTS
 62
     0
100
AcDbPoint
 10
2538.499999821297
 20
897.0
 30
0.0
  0
POINT
  5
1D4
330
1CA
100
AcDbEntity
  8
DEFPOINTS
 62
     0
100
AcDbPoint
 10
2556.750000000096
 20
1372.0
 30
0.0
  0
POINT
  5
1D5
330
1CA
100
AcDbEntity
  8
DEFPOINTS
 62
     0
100
AcDbPoint
 10
2761.5
 20
1372.0
 30
0.0
  0
ENDBLK
  5
1CC
330
1CA
100
AcDbEntity
  8
0
100
AcDbBlockEnd
  0
BLOCK
  5
1D8
330
1D7
100
AcDbEntity
  8
0
100
AcDbBlockBegin
  2
*D29
 70
     1
 10
0.0
 20
0.0
 30
0.0
  3
*D29
  1

  0
LINE
  5
1DA
330
1D7
100
AcDbEntity
  8
化粧台
  6
CONTINUOUS
 62
     3
100
AcDbLine
 10
1103.000000000096
 20
4022.399999821186
 30
0.0
 11
1103.000000000096
 21
4113.0
 31
0.0
  0
LINE
  5
1DB
330
1D7
100
AcDbEntity
  8
化粧台
  6
CONTINUOUS
 62
     3
100
AcDbLine
 10
1193.000000000096
 20
4010.099999821186
 30
0.0
 11
1193.000000000096
 21
4113.0
 31
0.0
  0
LINE
  5
1DC
330
1D7
100
AcDbEntity
  8
化粧台
  6
CONTINUOUS
 62
     3
100
AcDbLine
 10
1132.999998092747
 20
4098.0
 30
0.0
 11
1163.000001907444
 21
4098.0
 31
0.0
  0
INSERT
  5
1DD
330
1D7
100
AcDbEntity
  8
化粧台
 62
     3
100
AcDbBlockReference
  2
EX_NORM
 10
1103.000000000096
 20
4098.0
 30
0.0
 41
29.99999809265137
 42
29.99999809265137
 43
29.99999809265137
 50
180.0
  0
INSERT
  5
1DE
330
1D7
100
AcDbEntity
  8
化粧台
 62
     3
100
AcDbBlockReference
  2
EX_NORM
 10
1193.000000000096
 20
4098.0
 30
0.0
 41
29.99999809265137
 42
29.99999809265137
 43
29.99999809265137
  0
MTEXT
  5
1DF
330
1D7
100
AcDbEntity
  8
化粧台
 62
     2
100
AcDbMText
 10
1396.999999463654
 20
4135.5
 30
0.0
 40
59.99999618530273
 41
0.0
 71
     5
 72
     1
  1
90（壁給水）
  7
EXCADDIM1
  0
POINT
  5
1E0
330
1D7
100
AcDbEntity
  8
DEFPOINTS
 62
     0
100
AcDbPoint
 10
1103.000000000096
 20
4011.9
 30
0.0
  0
POINT
  5
1E1
330
1D7
100
AcDbEntity
  8
DEFPOINTS
 62
     0
100
AcDbPoint
 10
1193.000000000096
 20
3999.6
 30
0.0
  0
POINT
  5
1E2
330
1D7
100
AcDbEntity
  8
DEFPOINTS
 62
     0
100
AcDbPoint
 10
1193.000000000096
 20
4098.0
 30
0.0
  0
ENDBLK
  5
1D9
330
1D7
100
AcDbEntity
  8
0
100
AcDbBlockEnd
  0
BLOCK
  5
1E5
330
1E4
100
AcDbEntity
  8
0
100
AcDbBlockBegin
  2
*D30
 70
     1
 10
0.0
 20
0.0
 30
0.0
  3
*D30
  1

  0
LINE
  5
1E7
330
1E4
100
AcDbEntity
  8
化粧台
  6
CONTINUOUS
 62
     3
100
AcDbLine
 10
2428.000000000096
 20
1722.795839721386
 30
0.0
 11
2428.000000000096
 21
1863.0
 31
0.0
  0
LINE
  5
1E8
330
1E4
100
AcDbEntity
  8
化粧台
  6
CONTINUOUS
 62
     3
100
AcDbLine
 10
2528.000000000096
 20
1724.999999821186
 30
0.0
 11
2528.000000000096
 21
1863.0
 31
0.0
  0
LINE
  5
1E9
330
1E4
100
AcDbEntity
  8
化粧台
  6
CONTINUOUS
 62
     3
100
AcDbLine
 10
2472.999996185399
 20
1848.0
 30
0.0
 11
2483.000003814794
 21
1848.0
 31
0.0
  0
INSERT
  5
1EA
330
1E4
100
AcDbEntity
  8
化粧台
 62
     3
100
AcDbBlockReference
  2
EX_NORM
 10
2428.000000000096
 20
1848.0
 30
0.0
 41
44.99999618530273
 42
44.99999618530273
 43
44.99999618530273
 50
180.0
  0
INSERT
  5
1EB
330
1E4
100
AcDbEntity
  8
化粧台
 62
     3
100
AcDbBlockReference
  2
EX_NORM
 10
2528.000000000096
 20
1848.0
 30
0.0
 41
44.99999618530273
 42
44.99999618530273
 43
44.99999618530273
  0
MTEXT
  5
1EC
330
1E4
100
AcDbEntity
  8
化粧台
 62
     2
100
AcDbMText
 10
2650.999999821282
 20
1885.5
 30
0.0
 40
59.99999618530273
 41
0.0
 71
     5
 72
     1
  1
100
  7
EXCADDIM1
  0
POINT
  5
1ED
330
1E4
100
AcDbEntity
  8
DEFPOINTS
 62
     0
100
AcDbPoint
 10
2428.000000000096
 20
1712.2958399002
 30
0.0
  0
POINT
  5
1EE
330
1E4
100
AcDbEntity
  8
DEFPOINTS
 62
     0
100
AcDbPoint
 10
2528.000000000096
 20
1714.5
 30
0.0
  0
POINT
  5
1EF
330
1E4
100
AcDbEntity
  8
DEFPOINTS
 62
     0
100
AcDbPoint
 10
2528.000000000096
 20
1848.0
 30
0.0
  0
ENDBLK
  5
1E6
330
1E4
100
AcDbEntity
  8
0
100
AcDbBlockEnd
  0
BLOCK
  5
1F2
330
1F1
100
AcDbEntity
  8
0
100
AcDbBlockBegin
  2
*D31
 70
     1
 10
0.0
 20
0.0
 30
0.0
  3
*D31
  1

  0
LINE
  5
1F4
330
1F1
100
AcDbEntity
  8
化粧台
  6
CONTINUOUS
 62
     3
100
AcDbLine
 10
983.000000000094
 20
3992.999999821186
 30
0.0
 11
983.000000000094
 21
4113.0
 31
0.0
  0
LINE
  5
1F5
330
1F1
100
AcDbEntity
  8
化粧台
  6
CONTINUOUS
 62
     3
100
AcDbLine
 10
983.000000000094
 20
4098.0
 30
0.0
 11
1023.000000000094
 21
4098.0
 31
0.0
  0
LINE
  5
1F6
330
1F1
100
AcDbEntity
  8
化粧台
  6
CONTINUOUS
 62
     3
100
AcDbLine
 10
953.0000019074427
 20
4098.0
 30
0.0
 11
923.0000038147913
 21
4098.0
 31
0.0
  0
LINE
  5
1F7
330
1F1
100
AcDbEntity
  8
化粧台
  6
CONTINUOUS
 62
     3
100
AcDbLine
 10
1052.999998092745
 20
4098.0
 30
0.0
 11
1082.999996185396
 21
4098.0
 31
0.0
  0
INSERT
  5
1F8
330
1F1
100
AcDbEntity
  8
化粧台
 62
     3
100
AcDbBlockReference
  2
EX_NORM
 10
983.000000000094
 20
4098.0
 30
0.0
 41
29.99999809265137
 42
29.99999809265137
 43
29.99999809265137
  0
INSERT
  5
1F9
330
1F1
100
AcDbEntity
  8
化粧台
 62
     3
100
AcDbBlockReference
  2
EX_NORM
 10
1023.000000000094
 20
4098.0
 30
0.0
 41
29.99999809265137
 42
29.99999809265137
 43
29.99999809265137
 50
180.0
  0
MTEXT
  5
1FA
330
1F1
100
AcDbEntity
  8
化粧台
 62
     2
100
AcDbMText
 10
779.000000536536
 20
4135.5
 30
0.0
 40
59.99999618530273
 41
0.0
 71
     5
 72
     1
  1
40（壁排水）
  7
EXCADDIM1
  0
POINT
  5
1FB
330
1F1
100
AcDbEntity
  8
DEFPOINTS
 62
     0
100
AcDbPoint
 10
983.000000000094
 20
3982.5
 30
0.0
  0
POINT
  5
1FC
330
1F1
100
AcDbEntity
  8
DEFPOINTS
 62
     0
100
AcDbPoint
 10
1023.000000000094
 20
4057.5
 30
0.0
  0
POINT
  5
1FD
330
1F1
100
AcDbEntity
  8
DEFPOINTS
 62
     0
100
AcDbPoint
 10
1023.000000000094
 20
4098.0
 30
0.0
  0
ENDBLK
  5
1F3
330
1F1
100
AcDbEntity
  8
0
100
AcDbBlockEnd
  0
BLOCK
  5
376
330
375
100
AcDbEntity
  8
0
100
AcDbBlockBegin
  2
*D32
 70
     1
 10
0.0
 20
0.0
 30
0.0
  3
*D32
  1

  0
LINE
  5
378
330
375
100
AcDbEntity
  8
化粧台
  6
CONTINUOUS
 62
     3
100
AcDbLine
 10
2584.822271301986
 20
1426.95
 30
0.0
 11
2875.5
 21
1426.95
 31
0.0
  0
LINE
  5
379
330
375
100
AcDbEntity
  8
化粧台
  6
CONTINUOUS
 62
     3
100
AcDbLine
 10
2813.999999821186
 20
897.0
 30
0.0
 11
2875.5
 21
897.0
 31
0.0
  0
LINE
  5
37A
330
375
100
AcDbEntity
  8
化粧台
  6
CONTINUOUS
 62
     3
100
AcDbLine
 10
2860.5
 20
1381.950003814697
 30
0.0
 11
2860.5
 21
941.9999961853027
 31
0.0
  0
INSERT
  5
37B
330
375
100
AcDbEntity
  8
化粧台
 62
     3
100
AcDbBlockReference
  2
EX_NORM
 10
2860.5
 20
1426.95
 30
0.0
 41
44.99999618530273
 42
44.99999618530273
 43
44.99999618530273
 50
90.0
  0
INSERT
  5
37C
330
375
100
AcDbEntity
  8
化粧台
 62
     3
100
AcDbBlockReference
  2
EX_NORM
 10
2860.5
 20
897.0
 30
0.0
 41
44.99999618530273
 42
44.99999618530273
 43
44.99999618530273
 50
270.0
  0
MTEXT
  5
37D
330
375
100
AcDbEntity
  8
化粧台
 62
     2
100
AcDbMText
 10
2823.0
 20
1161.975
 30
0.0
 40
59.99999618530273
 41
0.0
 71
     5
 72
     1
  1
530（壁固定）
  7
EXCADDIM1
 11
0.0
 21
1.0
 31
0.0
  0
POINT
  5
37E
330
375
100
AcDbEntity
  8
DEFPOINTS
 62
     0
100
AcDbPoint
 10
2574.3222714808
 20
1426.95
 30
0.0
  0
POINT
  5
37F
330
375
100
AcDbEntity
  8
DEFPOINTS
 62
     0
100
AcDbPoint
 10
2803.5
 20
897.0
 30
0.0
  0
POINT
  5
380
330
375
100
AcDbEntity
  8
DEFPOINTS
 62
     0
100
AcDbPoint
 10
2860.5
 20
897.0
 30
0.0
  0
ENDBLK
  5
377
330
375
100
AcDbEntity
  8
0
100
AcDbBlockEnd
  0
BLOCK
  5
385
330
384
100
AcDbEntity
  8
0
100
AcDbBlockBegin
  2
*D33
 70
     1
 10
0.0
 20
0.0
 30
0.0
  3
*D33
  1

  0
LINE
  5
387
330
384
100
AcDbEntity
  8
化粧台
  6
CONTINUOUS
 62
     3
100
AcDbLine
 10
1103.000000000137
 20
859.5000001787739
 30
0.0
 11
1103.000000000137
 21
730.5
 31
0.0
  0
LINE
  5
388
330
384
100
AcDbEntity
  8
化粧台
  6
CONTINUOUS
 62
     3
100
AcDbLine
 10
1193.000000000137
 20
859.5000001788139
 30
0.0
 11
1193.000000000137
 21
730.5
 31
0.0
  0
LINE
  5
389
330
384
100
AcDbEntity
  8
化粧台
  6
CONTINUOUS
 62
     3
100
AcDbLine
 10
1147.99999618544
 20
745.5
 30
0.0
 11
1148.000003814834
 21
745.5
 31
0.0
  0
INSERT
  5
38A
330
384
100
AcDbEntity
  8
化粧台
 62
     3
100
AcDbBlockReference
  2
EX_NORM
 10
1103.000000000137
 20
745.5
 30
0.0
 41
44.99999618530273
 42
44.99999618530273
 43
44.99999618530273
 50
180.0
  0
INSERT
  5
38B
330
384
100
AcDbEntity
  8
化粧台
 62
     3
100
AcDbBlockReference
  2
EX_NORM
 10
1193.000000000137
 20
745.5
 30
0.0
 41
44.99999618530273
 42
44.99999618530273
 43
44.99999618530273
  0
MTEXT
  5
38C
330
384
100
AcDbEntity
  8
化粧台
 62
     2
100
AcDbMText
 10
1429.999999284881
 20
783.0
 30
0.0
 40
59.99999618530273
 41
0.0
 71
     5
 72
     1
  1
  90（床給水）
  7
EXCADDIM1
  0
POINT
  5
38D
330
384
100
AcDbEntity
  8
DEFPOINTS
 62
     0
100
AcDbPoint
 10
1103.000000000137
 20
869.99999999996
 30
0.0
  0
POINT
  5
38E
330
384
100
AcDbEntity
  8
DEFPOINTS
 62
     0
100
AcDbPoint
 10
1193.000000000137
 20
870.0
 30
0.0
  0
POINT
  5
38F
330
384
100
AcDbEntity
  8
DEFPOINTS
 62
     0
100
AcDbPoint
 10
1193.000000000137
 20
745.5
 30
0.0
  0
ENDBLK
  5
386
330
384
100
AcDbEntity
  8
0
100
AcDbBlockEnd
  0
BLOCK
  5
392
330
391
100
AcDbEntity
  8
0
100
AcDbBlockBegin
  2
*D34
 70
     1
 10
0.0
 20
0.0
 30
0.0
  3
*D34
  1

  0
LINE
  5
394
330
391
100
AcDbEntity
  8
化粧台
  6
CONTINUOUS
 62
     3
100
AcDbLine
 10
983.0000000001368
 20
825.0000001788139
 30
0.0
 11
983.0000000001368
 21
730.5
 31
0.0
  0
LINE
  5
395
330
391
100
AcDbEntity
  8
化粧台
  6
CONTINUOUS
 62
     3
100
AcDbLine
 10
1103.000000000137
 20
859.5000001787739
 30
0.0
 11
1103.000000000137
 21
730.5
 31
0.0
  0
LINE
  5
396
330
391
100
AcDbEntity
  8
化粧台
  6
CONTINUOUS
 62
     3
100
AcDbLine
 10
1027.99999618544
 20
745.5
 30
0.0
 11
1058.000003814834
 21
745.5
 31
0.0
  0
INSERT
  5
397
330
391
100
AcDbEntity
  8
化粧台
 62
     3
100
AcDbBlockReference
  2
EX_NORM
 10
983.0000000001368
 20
745.5
 30
0.0
 41
44.99999618530273
 42
44.99999618530273
 43
44.99999618530273
 50
180.0
  0
INSERT
  5
398
330
391
100
AcDbEntity
  8
化粧台
 62
     3
100
AcDbBlockReference
  2
EX_NORM
 10
1103.000000000137
 20
745.5
 30
0.0
 41
44.99999618530273
 42
44.99999618530273
 43
44.99999618530273
  0
MTEXT
  5
399
330
391
100
AcDbEntity
  8
化粧台
 62
     2
100
AcDbMText
 10
1043.000000000137
 20
783.0
 30
0.0
 40
59.99999618530273
 41
0.0
 71
     5
 72
     1
  1
120
  7
EXCADDIM1
  0
POINT
  5
39A
330
391
100
AcDbEntity
  8
DEFPOINTS
 62
     0
100
AcDbPoint
 10
983.0000000001368
 20
835.5
 30
0.0
  0
POINT
  5
39B
330
391
100
AcDbEntity
  8
DEFPOINTS
 62
     0
100
AcDbPoint
 10
1103.000000000137
 20
869.99999999996
 30
0.0
  0
POINT
  5
39C
330
391
100
AcDbEntity
  8
DEFPOINTS
 62
     0
100
AcDbPoint
 10
1103.000000000137
 20
745.5
 30
0.0
  0
ENDBLK
  5
393
330
391
100
AcDbEntity
  8
0
100
AcDbBlockEnd
  0
BLOCK
  5
531
330
530
100
AcDbEntity
  8
0
100
AcDbBlockBegin
  2
*D35
 70
     1
 10
0.0
 20
0.0
 30
0.0
  3
*D35
  1

  0
LINE
  5
533
330
530
100
AcDbEntity
  8
化粧台
  6
CONTINUOUS
 62
     3
100
AcDbLine
 10
699.5000000001804
 20
890.0000001788139
 30
0.0
 11
699.5000000001804
 21
613.5
 31
0.0
  0
LINE
  5
534
330
530
100
AcDbEntity
  8
化粧台
  6
CONTINUOUS
 62
     3
100
AcDbLine
 10
1266.500000000201
 20
890.0000001788139
 30
0.0
 11
1266.500000000201
 21
613.5
 31
0.0
  0
LINE
  5
535
330
530
100
AcDbEntity
  8
化粧台
  6
CONTINUOUS
 62
     3
100
AcDbLine
 10
744.4999961854832
 20
628.5
 30
0.0
 11
1221.500003814898
 21
628.5
 31
0.0
  0
INSERT
  5
536
330
530
100
AcDbEntity
  8
化粧台
 62
     3
100
AcDbBlockReference
  2
EX_NORM
 10
699.5000000001804
 20
628.5
 30
0.0
 41
44.99999618530273
 42
44.99999618530273
 43
44.99999618530273
 50
180.0
  0
INSERT
  5
537
330
530
100
AcDbEntity
  8
化粧台
 62
     3
100
AcDbBlockReference
  2
EX_NORM
 10
1266.500000000201
 20
628.5
 30
0.0
 41
44.99999618530273
 42
44.99999618530273
 43
44.99999618530273
  0
MTEXT
  5
538
330
530
100
AcDbEntity
  8
化粧台
 62
     2
100
AcDbMText
 10
983.0000000001905
 20
663.749999910593
 30
0.0
 40
59.99999618530273
 41
0.0
 71
     5
 72
     1
  1
567
  7
EXCADDIM1
  0
POINT
  5
539
330
530
100
AcDbEntity
  8
DEFPOINTS
 62
     0
100
AcDbPoint
 10
699.5000000001804
 20
900.5
 30
0.0
  0
POINT
  5
53A
330
530
100
AcDbEntity
  8
DEFPOINTS
 62
     0
100
AcDbPoint
 10
1266.500000000201
 20
900.5
 30
0.0
  0
POINT
  5
53B
330
530
100
AcDbEntity
  8
DEFPOINTS
 62
     0
100
AcDbPoint
 10
1266.500000000201
 20
628.5
 30
0.0
  0
ENDBLK
  5
532
330
530
100
AcDbEntity
  8
0
100
AcDbBlockEnd
  0
BLOCK
  5
632
330
631
100
AcDbEntity
  8
0
100
AcDbBlockBegin
  2
*D36
 70
     1
 10
0.0
 20
0.0
 30
0.0
  3
*D36
  1

  0
LINE
  5
634
330
631
100
AcDbEntity
  8
化粧台
  6
CONTINUOUS
 62
     3
100
AcDbLine
 10
2885.999999821186
 20
897.0
 30
0.0
 11
2985.0
 21
897.0
 31
0.0
  0
LINE
  5
635
330
631
100
AcDbEntity
  8
化粧台
  6
CONTINUOUS
 62
     3
100
AcDbLine
 10
2570.999999821286
 20
1731.9999833108
 30
0.0
 11
2985.0
 21
1731.9999833108
 31
0.0
  0
LINE
  5
636
330
631
100
AcDbEntity
  8
化粧台
  6
CONTINUOUS
 62
     3
100
AcDbLine
 10
2970.0
 20
941.9999961853027
 30
0.0
 11
2970.0
 21
1686.999987125497
 31
0.0
  0
INSERT
  5
637
330
631
100
AcDbEntity
  8
化粧台
 62
     3
100
AcDbBlockReference
  2
EX_NORM
 10
2970.0
 20
897.0
 30
0.0
 41
44.99999618530273
 42
44.99999618530273
 43
44.99999618530273
 50
270.0
  0
INSERT
  5
638
330
631
100
AcDbEntity
  8
化粧台
 62
     3
100
AcDbBlockReference
  2
EX_NORM
 10
2970.0
 20
1731.9999833108
 30
0.0
 41
44.99999618530273
 42
44.99999618530273
 43
44.99999618530273
 50
90.0
  0
MTEXT
  5
639
330
631
100
AcDbEntity
  8
化粧台
 62
     2
100
AcDbMText
 10
2934.750000089407
 20
1314.4999916554
 30
0.0
 40
59.99999618530273
 41
0.0
 71
     5
 72
     1
  1
835（壁固定）
  7
EXCADDIM1
 11
0.0
 21
1.0
 31
0.0
  0
POINT
  5
63A
330
631
100
AcDbEntity
  8
DEFPOINTS
 62
     0
100
AcDbPoint
 10
2875.5
 20
897.0
 30
0.0
  0
POINT
  5
63B
330
631
100
AcDbEntity
  8
DEFPOINTS
 62
     0
100
AcDbPoint
 10
2560.5000000001
 20
1731.9999833108
 30
0.0
  0
POINT
  5
63C
330
631
100
AcDbEntity
  8
DEFPOINTS
 62
     0
100
AcDbPoint
 10
2970.0
 20
1731.9999833108
 30
0.0
  0
ENDBLK
  5
633
330
631
100
AcDbEntity
  8
0
100
AcDbBlockEnd
  0
BLOCK
  5
63F
330
63E
100
AcDbEntity
  8
0
100
AcDbBlockBegin
  2
*D37
 70
     1
 10
0.0
 20
0.0
 30
0.0
  3
*D37
  1

  0
LINE
  5
641
330
63E
100
AcDbEntity
  8
化粧台
  6
CONTINUOUS
 62
     3
100
AcDbLine
 10
2570.999999821286
 20
1731.9999833108
 30
0.0
 11
2983.5
 21
1731.9999833108
 31
0.0
  0
LINE
  5
642
330
63E
100
AcDbEntity
  8
化粧台
  6
CONTINUOUS
 62
     3
100
AcDbLine
 10
2570.999999821286
 20
2031.9999833108
 30
0.0
 11
2983.5
 21
2031.9999833108
 31
0.0
  0
LINE
  5
643
330
63E
100
AcDbEntity
  8
化粧台
  6
CONTINUOUS
 62
     3
100
AcDbLine
 10
2968.5
 20
1776.999979496103
 30
0.0
 11
2968.5
 21
1986.999987125497
 31
0.0
  0
INSERT
  5
644
330
63E
100
AcDbEntity
  8
化粧台
 62
     3
100
AcDbBlockReference
  2
EX_NORM
 10
2968.5
 20
1731.9999833108
 30
0.0
 41
44.99999618530273
 42
44.99999618530273
 43
44.99999618530273
 50
270.0
  0
INSERT
  5
645
330
63E
100
AcDbEntity
  8
化粧台
 62
     3
100
AcDbBlockReference
  2
EX_NORM
 10
2968.5
 20
2031.9999833108
 30
0.0
 41
44.99999618530273
 42
44.99999618530273
 43
44.99999618530273
 50
90.0
  0
MTEXT
  5
646
330
63E
100
AcDbEntity
  8
化粧台
 62
     2
100
AcDbMText
 10
2933.250000089407
 20
1881.9999833108
 30
0.0
 40
59.99999618530273
 41
0.0
 71
     5
 72
     1
  1
300
  7
EXCADDIM1
 11
0.0
 21
1.0
 31
0.0
  0
POINT
  5
647
330
63E
100
AcDbEntity
  8
DEFPOINTS
 62
     0
100
AcDbPoint
 10
2560.5000000001
 20
1731.9999833108
 30
0.0
  0
POINT
  5
648
330
63E
100
AcDbEntity
  8
DEFPOINTS
 62
     0
100
AcDbPoint
 10
2560.5000000001
 20
2031.9999833108
 30
0.0
  0
POINT
  5
649
330
63E
100
AcDbEntity
  8
DEFPOINTS
 62
     0
100
AcDbPoint
 10
2968.5
 20
2031.9999833108
 30
0.0
  0
ENDBLK
  5
640
330
63E
100
AcDbEntity
  8
0
100
AcDbBlockEnd
  0
BLOCK
  5
64C
330
64B
100
AcDbEntity
  8
0
100
AcDbBlockBegin
  2
*D38
 70
     1
 10
0.0
 20
0.0
 30
0.0
  3
*D38
  1

  0
LINE
  5
64E
330
64B
100
AcDbEntity
  8
化粧台
  6
CONTINUOUS
 62
     3
100
AcDbLine
 10
2570.999999821286
 20
2031.9999833108
 30
0.0
 11
2983.5
 21
2031.9999833108
 31
0.0
  0
LINE
  5
64F
330
64B
100
AcDbEntity
  8
化粧台
  6
CONTINUOUS
 62
     3
100
AcDbLine
 10
2570.999999821286
 20
2631.9999833108
 30
0.0
 11
2983.5
 21
2631.9999833108
 31
0.0
  0
LINE
  5
650
330
64B
100
AcDbEntity
  8
化粧台
  6
CONTINUOUS
 62
     3
100
AcDbLine
 10
2968.5
 20
2076.999979496103
 30
0.0
 11
2968.5
 21
2586.999987125497
 31
0.0
  0
INSERT
  5
651
330
64B
100
AcDbEntity
  8
化粧台
 62
     3
100
AcDbBlockReference
  2
EX_NORM
 10
2968.5
 20
2031.9999833108
 30
0.0
 41
44.99999618530273
 42
44.99999618530273
 43
44.99999618530273
 50
270.0
  0
INSERT
  5
652
330
64B
100
AcDbEntity
  8
化粧台
 62
     3
100
AcDbBlockReference
  2
EX_NORM
 10
2968.5
 20
2631.9999833108
 30
0.0
 41
44.99999618530273
 42
44.99999618530273
 43
44.99999618530273
 50
90.0
  0
MTEXT
  5
653
330
64B
100
AcDbEntity
  8
化粧台
 62
     2
100
AcDbMText
 10
2933.250000089407
 20
2331.9999833108
 30
0.0
 40
59.99999618530273
 41
0.0
 71
     5
 72
     1
  1
600
  7
EXCADDIM1
 11
0.0
 21
1.0
 31
0.0
  0
POINT
  5
654
330
64B
100
AcDbEntity
  8
DEFPOINTS
 62
     0
100
AcDbPoint
 10
2560.5000000001
 20
2031.9999833108
 30
0.0
  0
POINT
  5
655
330
64B
100
AcDbEntity
  8
DEFPOINTS
 62
     0
100
AcDbPoint
 10
2560.5000000001
 20
2631.9999833108
 30
0.0
  0
POINT
  5
656
330
64B
100
AcDbEntity
  8
DEFPOINTS
 62
     0
100
AcDbPoint
 10
2968.5
 20
2631.9999833108
 30
0.0
  0
ENDBLK
  5
64D
330
64B
100
AcDbEntity
  8
0
100
AcDbBlockEnd
  0
BLOCK
  5
659
330
658
100
AcDbEntity
  8
0
100
AcDbBlockBegin
  2
*D39
 70
     1
 10
0.0
 20
0.0
 30
0.0
  3
*D39
  1

  0
LINE
  5
65B
330
658
100
AcDbEntity
  8
化粧台
  6
CONTINUOUS
 62
     3
100
AcDbLine
 10
2528.0000000001
 20
2822.499999821286
 30
0.0
 11
2528.0000000001
 21
2904.45
 31
0.0
  0
LINE
  5
65C
330
658
100
AcDbEntity
  8
化粧台
  6
CONTINUOUS
 62
     3
100
AcDbLine
 10
2298.000000000135
 20
2804.500002205483
 30
0.0
 11
2298.000000000135
 21
2904.45
 31
0.0
  0
LINE
  5
65D
330
658
100
AcDbEntity
  8
化粧台
  6
CONTINUOUS
 62
     3
100
AcDbLine
 10
2483.000003814797
 20
2889.45
 30
0.0
 11
2342.999996185437
 21
2889.45
 31
0.0
  0
INSERT
  5
65E
330
658
100
AcDbEntity
  8
化粧台
 62
     3
100
AcDbBlockReference
  2
EX_NORM
 10
2528.0000000001
 20
2889.45
 30
0.0
 41
44.99999618530273
 42
44.99999618530273
 43
44.99999618530273
  0
INSERT
  5
65F
330
658
100
AcDbEntity
  8
化粧台
 62
     3
100
AcDbBlockReference
  2
EX_NORM
 10
2298.000000000135
 20
2889.45
 30
0.0
 41
44.99999618530273
 42
44.99999618530273
 43
44.99999618530273
 50
180.0
  0
MTEXT
  5
660
330
658
100
AcDbEntity
  8
化粧台
 62
     2
100
AcDbMText
 10
2413.000000000117
 20
2924.699999910593
 30
0.0
 40
59.99999618530273
 41
0.0
 71
     5
 72
     1
  1
230
  7
EXCADDIM1
  0
POINT
  5
661
330
658
100
AcDbEntity
  8
DEFPOINTS
 62
     0
100
AcDbPoint
 10
2528.0000000001
 20
2812.0000000001
 30
0.0
  0
POINT
  5
662
330
658
100
AcDbEntity
  8
DEFPOINTS
 62
     0
100
AcDbPoint
 10
2298.000000000135
 20
2794.000002384297
 30
0.0
  0
POINT
  5
663
330
658
100
AcDbEntity
  8
DEFPOINTS
 62
     0
100
AcDbPoint
 10
2298.000000000135
 20
2889.45
 30
0.0
  0
ENDBLK
  5
65A
330
658
100
AcDbEntity
  8
0
100
AcDbBlockEnd
  0
BLOCK
  5
666
330
665
100
AcDbEntity
  8
0
100
AcDbBlockBegin
  2
*D40
 70
     1
 10
0.0
 20
0.0
 30
0.0
  3
*D40
  1

  0
LINE
  5
668
330
665
100
AcDbEntity
  8
寸法
  6
CONTINUOUS
 62
     3
100
AcDbLine
 10
1178.000000000098
 20
4026.0
 30
0.0
 11
1178.000000000098
 21
4228.5
 31
0.0
  0
LINE
  5
669
330
665
100
AcDbEntity
  8
寸法
  6
CONTINUOUS
 62
     3
100
AcDbLine
 10
832.9999961854021
 20
4213.5
 30
0.0
 11
1133.000003814795
 21
4213.5
 31
0.0
  0
INSERT
  5
66A
330
665
100
AcDbEntity
  8
寸法
 62
     3
100
AcDbBlockReference
  2
EX_NORM
 10
788.0000000000994
 20
4213.5
 30
0.0
 41
44.99999618530273
 42
44.99999618530273
 43
44.99999618530273
 50
180.0
  0
INSERT
  5
66B
330
665
100
AcDbEntity
  8
寸法
 62
     3
100
AcDbBlockReference
  2
EX_NORM
 10
1178.000000000098
 20
4213.5
 30
0.0
 41
44.99999618530273
 42
44.99999618530273
 43
44.99999618530273
  0
MTEXT
  5
66C
330
665
100
AcDbEntity
  8
寸法
 62
     2
100
AcDbMText
 10
983.0000000000987
 20
4248.749999910593
 30
0.0
 40
59.99999618530273
 41
0.0
 71
     5
 72
     1
  1
390（壁固定）
  7
EXCADDIM1
  0
POINT
  5
66D
330
665
100
AcDbEntity
  8
DEFPOINTS
 62
     0
100
AcDbPoint
 10
788.0000000000994
 20
4004.0
 30
0.0
  0
POINT
  5
66E
330
665
100
AcDbEntity
  8
DEFPOINTS
 62
     0
100
AcDbPoint
 10
1178.000000000098
 20
4004.0
 30
0.0
  0
POINT
  5
66F
330
665
100
AcDbEntity
  8
DEFPOINTS
 62
     0
100
AcDbPoint
 10
1178.000000000098
 20
4213.5
 30
0.0
  0
ENDBLK
  5
667
330
665
100
AcDbEntity
  8
0
100
AcDbBlockEnd
  0
ENDSEC
  0
SECTION
  2
ENTITIES
  0
LINE
  5
A9
330
1F
100
AcDbEntity
  8
枠_表
  6
CONTINUOUS
 62
     7
100
AcDbLine
 10
333.0000000000938
 20
201.0
 30
0.0
 11
3063.000000000098
 21
201.0
 31
0.0
  0
LINE
  5
AA
330
1F
100
AcDbEntity
  8
枠_表
  6
CONTINUOUS
 62
     7
100
AcDbLine
 10
3063.000000000098
 20
201.0
 30
0.0
 11
3063.000000000098
 21
4326.0
 31
0.0
  0
LINE
  5
AB
330
1F
100
AcDbEntity
  8
枠_表
  6
CONTINUOUS
 62
     7
100
AcDbLine
 10
333.0000000000938
 20
201.0
 30
0.0
 11
333.0000000000938
 21
4326.0
 31
0.0
  0
LINE
  5
AC
330
1F
100
AcDbEntity
  8
枠_表
  6
CONTINUOUS
 62
     7
100
AcDbLine
 10
333.0000000000938
 20
4326.0
 30
0.0
 11
3063.000000000098
 21
4326.0
 31
0.0
  0
LINE
  5
AD
330
1F
100
AcDbEntity
  8
枠_表
  6
CONTINUOUS
 62
     7
100
AcDbLine
 10
333.0000000000938
 20
531.0
 30
0.0
 11
3063.000000000098
 21
531.0
 31
0.0
  0
LINE
  5
AE
330
1F
100
AcDbEntity
  8
枠_表
  6
CONTINUOUS
 62
     6
100
AcDbLine
 10
3063.000000000098
 20
351.0
 30
0.0
 11
1188.000000000096
 21
351.0
 31
0.0
  0
LINE
  5
AF
330
1F
100
AcDbEntity
  8
枠_表
  6
CONTINUOUS
 62
     6
100
AcDbLine
 10
2853.0000000001
 20
531.0
 30
0.0
 11
2853.0000000001
 21
351.0
 31
0.0
  0
LINE
  5
B0
330
1F
100
AcDbEntity
  8
枠_表
  6
CONTINUOUS
 62
     6
100
AcDbLine
 10
2778.000000000098
 20
531.0
 30
0.0
 11
2778.000000000098
 21
351.0
 31
0.0
  0
LINE
  5
B1
330
1F
100
AcDbEntity
  8
枠_表
  6
CONTINUOUS
 62
     6
100
AcDbLine
 10
2223.000000000095
 20
531.0
 30
0.0
 11
2223.000000000095
 21
201.0
 31
0.0
  0
LINE
  5
B2
330
1F
100
AcDbEntity
  8
枠_表
  6
CONTINUOUS
 62
     6
100
AcDbLine
 10
2148.000000000095
 20
531.0
 30
0.0
 11
2148.000000000095
 21
201.0
 31
0.0
  0
LINE
  5
B3
330
1F
100
AcDbEntity
  8
枠_表
  6
CONTINUOUS
 62
     6
100
AcDbLine
 10
1263.000000000096
 20
531.0
 30
0.0
 11
1263.000000000096
 21
351.0
 31
0.0
  0
LINE
  5
B4
330
1F
100
AcDbEntity
  8
枠_表
  6
CONTINUOUS
 62
     6
100
AcDbLine
 10
1188.000000000096
 20
531.0
 30
0.0
 11
1188.000000000096
 21
201.0
 31
0.0
  0
LINE
  5
B5
330
1F
100
AcDbEntity
  8
枠_表
  6
CONTINUOUS
 62
     6
100
AcDbLine
 10
993.0000000000957
 20
531.0
 30
0.0
 11
993.0000000000957
 21
201.0
 31
0.0
  0
LINE
  5
B6
330
1F
100
AcDbEntity
  8
枠_表
  6
CONTINUOUS
 62
     6
100
AcDbLine
 10
798.0000000000957
 20
531.0
 30
0.0
 11
798.0000000000957
 21
201.0
 31
0.0
  0
LINE
  5
B7
330
1F
100
AcDbEntity
  8
枠_表
  6
CONTINUOUS
 62
     6
100
AcDbLine
 10
565.5000000000939
 20
531.0
 30
0.0
 11
565.5000000000939
 21
201.0
 31
0.0
  0
LINE
  5
B8
330
1F
100
AcDbEntity
  8
枠_表
  6
CONTINUOUS
 62
     6
100
AcDbLine
 10
333.0000000000938
 20
456.0
 30
0.0
 11
1188.000000000096
 21
456.0
 31
0.0
  0
LINE
  5
B9
330
1F
100
AcDbEntity
  8
枠_表
  6
CONTINUOUS
 62
     6
100
AcDbLine
 10
2901.9807129001
 20
385.5043945499997
 30
0.0
 11
3017.990844750098
 21
503.5497436500009
 31
0.0
  0
CIRCLE
  5
BA
330
1F
100
AcDbEntity
  8
枠_表
  6
CONTINUOUS
 62
     6
100
AcDbCircle
 10
640.5000000000939
 20
238.5
 30
0.0
 40
1.5000003
  0
CIRCLE
  5
BB
330
1F
100
AcDbEntity
  8
枠_表
  6
CONTINUOUS
 62
     6
100
AcDbCircle
 10
715.5000000000939
 20
238.5
 30
0.0
 40
1.5000003
  0
LINE
  5
BC
330
1F
100
AcDbEntity
  8
枠_表
  6
EXLTYPE2
 62
     6
100
AcDbLine
 10
333.0000000000938
 20
276.0
 30
0.0
 11
798.0000000000957
 21
276.0
 31
0.0
  0
TEXT
  5
BD
330
1F
100
AcDbEntity
  8
枠_表
  6
CONTINUOUS
 62
     2
100
AcDbText
 10
2898.805664100099
 20
452.5841674500002
 30
0.0
 40
44.99999618530273
  1
１
 41
1.101333426694527
  7
EXCADSTD
 72
     5
 11
2934.205664100099
 21
452.5841674500002
 31
0.0
100
AcDbText
  0
TEXT
  5
BE
330
1F
100
AcDbEntity
  8
枠_表
  6
CONTINUOUS
 62
     2
100
AcDbText
 10
2959.918945350099
 20
386.0232695999989
 30
0.0
 40
44.99999618530273
  1
１５
 41
1.098531308335248
  7
EXCADSTD
 72
     5
 11
3037.600795568633
 21
386.0232695999989
 31
0.0
100
AcDbText
  0
TEXT
  5
BF
330
1F
100
AcDbEntity
  8
枠_表
  6
CONTINUOUS
 62
     2
100
AcDbText
 10
366.7500000000938
 20
461.6250019073486
 30
0.0
 40
63.74999618530273
  1
製図
 41
1.509694103275157
  7
EXCADSTD
 72
     5
 11
517.9889895104393
 21
461.6250019073486
 31
0.0
100
AcDbText
  0
TEXT
  5
C0
330
1F
100
AcDbEntity
  8
枠_表
  6
CONTINUOUS
 62
     2
100
AcDbText
 10
599.2500000000939
 20
461.6250019073486
 30
0.0
 40
63.74999618530273
  1
写図
 41
1.509694103275156
  7
EXCADSTD
 72
     5
 11
750.4889895104393
 21
461.6250019073486
 31
0.0
100
AcDbText
  0
TEXT
  5
C1
330
1F
100
AcDbEntity
  8
枠_表
  6
CONTINUOUS
 62
     2
100
AcDbText
 10
824.249999106026
 20
461.6250019073486
 30
0.0
 40
63.74999618530273
  1
検図
 41
1.303826754906227
  7
EXCADSTD
 72
     5
 11
954.8654929870609
 21
461.6250019073486
 31
0.0
100
AcDbText
  0
TEXT
  5
C2
330
1F
100
AcDbEntity
  8
枠_表
  6
CONTINUOUS
 62
     2
100
AcDbText
 10
1019.249999106026
 20
461.6250019073486
 30
0.0
 40
63.74999618530273
  1
承認
 41
1.303826754906227
  7
EXCADSTD
 72
     5
 11
1149.865492987061
 21
461.6250019073486
 31
0.0
100
AcDbText
  0
TEXT
  5
C3
330
1F
100
AcDbEntity
  8
枠_表
  6
CONTINUOUS
 62
     2
100
AcDbText
 10
1196.625000000096
 20
446.6250019073486
 30
0.0
 40
63.74999618530273
  1
品
 41
1.119999999999999
  7
EXCADSTD
 72
     5
 11
1247.624996948338
 21
446.6250019073486
 31
0.0
100
AcDbText
  0
TEXT
  5
C4
330
1F
100
AcDbEntity
  8
枠_表
  6
CONTINUOUS
 62
     2
100
AcDbText
 10
1196.625000000096
 20
371.6250019073486
 30
0.0
 40
63.74999618530273
  1
名
 41
1.119999999999999
  7
EXCADSTD
 72
     5
 11
1247.624996948338
 21
371.6250019073486
 31
0.0
100
AcDbText
  0
TEXT
  5
C5
330
1F
100
AcDbEntity
  8
枠_表
  6
CONTINUOUS
 62
     2
100
AcDbText
 10
2156.625000000095
 20
446.6250019073486
 30
0.0
 40
63.74999618530273
  1
品
 41
1.120000000000004
  7
EXCADSTD
 72
     5
 11
2207.624996948337
 21
446.6250019073486
 31
0.0
100
AcDbText
  0
TEXT
  5
C6
330
1F
100
AcDbEntity
  8
枠_表
  6
CONTINUOUS
 62
     2
100
AcDbText
 10
2156.625000000095
 20
371.6250019073486
 30
0.0
 40
63.74999618530273
  1
番
 41
1.120000000000004
  7
EXCADSTD
 72
     5
 11
2207.624996948337
 21
371.6250019073486
 31
0.0
100
AcDbText
  0
TEXT
  5
C7
330
1F
100
AcDbEntity
  8
枠_表
  6
CONTINUOUS
 62
     2
100
AcDbText
 10
2788.1250000001
 20
446.6250019073486
 30
0.0
 40
63.74999618530273
  1
尺
 41
1.120000000000004
  7
EXCADSTD
 72
     5
 11
2839.124996948342
 21
446.6250019073486
 31
0.0
100
AcDbText
  0
TEXT
  5
C8
330
1F
100
AcDbEntity
  8
枠_表
  6
CONTINUOUS
 62
     2
100
AcDbText
 10
2788.1250000001
 20
371.6250019073486
 30
0.0
 40
63.74999618530273
  1
度
 41
1.120000000000004
  7
EXCADSTD
 72
     5
 11
2839.124996948342
 21
371.6250019073486
 31
0.0
100
AcDbText
  0
TEXT
  5
C9
330
1F
100
AcDbEntity
  8
枠_表
  6
CONTINUOUS
 62
     2
100
AcDbText
 10
2156.625000000095
 20
277.1250019073495
 30
0.0
 40
63.74999618530273
  1
図
 41
1.120000000000004
  7
EXCADSTD
 72
     5
 11
2207.624996948337
 21
277.1250019073495
 31
0.0
100
AcDbText
  0
TEXT
  5
CA
330
1F
100
AcDbEntity
  8
枠_表
  6
CONTINUOUS
 62
     2
100
AcDbText
 10
2156.625000000095
 20
212.6250019073486
 30
0.0
 40
63.74999618530273
  1
番
 41
1.120000000000004
  7
EXCADSTD
 72
     5
 11
2207.624996948337
 21
212.6250019073486
 31
0.0
100
AcDbText
  0
TEXT
  5
CC
330
1F
100
AcDbEntity
  8
枠_表
  6
CONTINUOUS
 62
     2
100
AcDbText
 10
1218.000000000098
 20
231.0000038146973
 30
0.0
 40
67.4999942779541
  1
ジャニス工業株式会社
 41
1.025641044209626
  7
EXCADTTF1
 72
     5
 11
2117.999940000097
 21
231.0000038146973
 31
0.0
100
AcDbText
  0
CIRCLE
  5
CD
330
1F
100
AcDbEntity
  8
枠_表
  6
CONTINUOUS
 62
     6
100
AcDbCircle
 10
408.0000000000957
 20
238.5
 30
0.0
 40
1.5000003
  0
CIRCLE
  5
CE
330
1F
100
AcDbEntity
  8
枠_表
  6
CONTINUOUS
 62
     6
100
AcDbCircle
 10
483.0000000000957
 20
238.5
 30
0.0
 40
1.5000003
  0
TEXT
  5
CF
330
1F
100
AcDbEntity
  8
枠_表
  6
CONTINUOUS
 62
     2
100
AcDbText
 10
1278.000000000096
 20
441.0
 30
0.0
 40
74.99999237060547
  1
600㎜幅
 41
0.8693548467492553
  7
EXCADSTD
 72
     5
 11
1566.749973297215
 21
441.0
 31
0.0
100
AcDbText
  0
TEXT
  5
D0
330
1F
100
AcDbEntity
  8
枠_表
  6
CONTINUOUS
 62
     2
100
AcDbText
 10
1278.000000000096
 20
366.0000076293945
 30
0.0
 40
74.99999237060547
  1
　洗面化粧ユニット
 41
1.307547181903193
  7
EXCADSTD
 72
     5
 11
2020.499931335545
 21
366.0000076293945
 31
0.0
100
AcDbText
  0
TEXT
  5
D1
330
1F
100
AcDbEntity
  8
枠_表
  6
CONTINUOUS
 62
     2
100
AcDbText
 10
1908.000000000091
 20
4209.750001907349
 30
0.0
 40
59.99999618530273
  1
品番
 41
2.041518237445143
  7
EXCADSTD
 72
     5
 11
2100.485993006988
 21
4209.750001907349
 31
0.0
100
AcDbText
  0
TEXT
  5
D2
330
1F
100
AcDbEntity
  8
枠_表
  6
CONTINUOUS
 62
     2
100
AcDbText
 10
2358.000000000096
 20
4209.750001907349
 30
0.0
 40
59.99999618530273
  1
品名
 41
2.041518237445141
  7
EXCADSTD
 72
     5
 11
2550.485993006993
 21
4209.750001907349
 31
0.0
100
AcDbText
  0
TEXT
  5
D3
330
1F
100
AcDbEntity
  8
枠_表
  6
CONTINUOUS
 62
     2
100
AcDbText
 10
2253.000000000093
 20
4127.250001907349
 30
0.0
 40
59.99999618530273
  1
洗面化粧台
 41
1.164655246460579
  7
EXCADSTD
 72
     5
 11
2542.500000000093
 21
4127.250001907349
 31
0.0
100
AcDbText
  0
TEXT
  5
D4
330
1F
100
AcDbEntity
  8
枠_表
  6
CONTINUOUS
 62
     2
100
AcDbText
 10
2851.500000536542
 20
4209.750001907349
 30
0.0
 40
59.99999618530273
  1
個数
 41
1.195746439659873
  7
EXCADSTD
 72
     5
 11
2964.241800536542
 21
4209.750001907349
 31
0.0
100
AcDbText
  0
LINE
  5
D5
330
1F
100
AcDbEntity
  8
枠_表
  6
CONTINUOUS
 62
     6
100
AcDbLine
 10
1788.000000000088
 20
4198.5
 30
0.0
 11
2988.0000000001
 21
4198.5
 31
0.0
  0
LINE
  5
D6
330
1F
100
AcDbEntity
  8
枠_表
  6
CONTINUOUS
 62
     6
100
AcDbLine
 10
1788.000000000088
 20
4281.0
 30
0.0
 11
2988.0000000001
 21
4281.0
 31
0.0
  0
LINE
  5
D7
330
1F
100
AcDbEntity
  8
枠_表
  6
EXLTYPE2
 62
     1
100
AcDbLine
 10
333.0000000000993
 20
2263.5
 30
0.0
 11
-11.99999999990069
 21
2263.5
 31
0.0
  0
TEXT
  5
D8
330
1F
100
AcDbEntity
  8
枠_表
  6
CONTINUOUS
 62
     2
100
AcDbText
 10
374.2500000000884
 20
328.5000038146973
 30
0.0
 40
74.99999237060547
  1
亀井
 41
1.224910918732916
  7
EXCADSTD
 72
     5
 11
518.6144864509513
 21
328.5000038146973
 31
0.0
100
AcDbText
  0
TEXT
  5
D9
330
1F
100
AcDbEntity
  8
枠_表
  6
CONTINUOUS
 62
     2
100
AcDbText
 10
2881.5000000001
 20
4129.050001907348
 30
0.0
 40
59.99999618530273
  1
１
 41
1.260000080108648
  7
EXCADSTD
 72
     5
 11
2935.5000000001
 21
4129.050001907348
 31
0.0
100
AcDbText
  0
LINE
  5
DA
330
1F
100
AcDbEntity
  8
枠_表
  6
CONTINUOUS
 62
     6
100
AcDbLine
 10
1788.000000000088
 20
4116.0
 30
0.0
 11
2988.0000000001
 21
4116.0
 31
0.0
  0
TEXT
  5
DB
330
1F
100
AcDbEntity
  8
枠_表
  6
CONTINUOUS
 62
     2
100
AcDbText
 10
2253.000000000095
 20
4044.750001907347
 30
0.0
 40
59.99999618530273
  1
化粧鏡台（くもり止めヒーター付）
 41
0.6631578619438285
  7
EXCADSTD
 72
     5
 11
2792.999938964938
 21
4044.750001907347
 31
0.0
100
AcDbText
  0
TEXT
  5
DC
330
1F
100
AcDbEntity
  8
枠_表
  6
CONTINUOUS
 62
     2
100
AcDbText
 10
2879.2500000001
 20
4044.750001907349
 30
0.0
 40
59.99999618530273
  1
１
 41
1.260000080108648
  7
EXCADSTD
 72
     5
 11
2933.2500000001
 21
4044.750001907349
 31
0.0
100
AcDbText
  0
LINE
  5
DD
330
1F
100
AcDbEntity
  8
枠_表
  6
CONTINUOUS
 62
     6
100
AcDbLine
 10
1788.000000000088
 20
4033.499999999998
 30
0.0
 11
2988.0000000001
 21
4033.499999999998
 31
0.0
  0
LINE
  5
DE
330
1F
100
AcDbEntity
  8
枠_表
  6
CONTINUOUS
 62
     6
100
AcDbLine
 10
1788.000000000088
 20
4033.5
 30
0.0
 11
1788.000000000088
 21
4281.0
 31
0.0
  0
LINE
  5
DF
330
1F
100
AcDbEntity
  8
枠_表
  6
CONTINUOUS
 62
     6
100
AcDbLine
 10
2238.000000000093
 20
4033.5
 30
0.0
 11
2238.000000000093
 21
4281.0
 31
0.0
  0
LINE
  5
E0
330
1F
100
AcDbEntity
  8
枠_表
  6
CONTINUOUS
 62
     6
100
AcDbLine
 10
2838.0000000001
 20
4033.5
 30
0.0
 11
2838.0000000001
 21
4281.0
 31
0.0
  0
LINE
  5
E1
330
1F
100
AcDbEntity
  8
枠_表
  6
CONTINUOUS
 62
     6
100
AcDbLine
 10
2988.0000000001
 20
4033.5
 30
0.0
 11
2988.0000000001
 21
4281.0
 31
0.0
  0
TEXT
  5
E2
330
1F
100
AcDbEntity
  8
枠_表
  6
CONTINUOUS
 62
     7
100
AcDbText
 10
2240.999996245004
 20
225.7500038146973
 30
0.0
 40
104.9999923706055
  1
ＬＵ２１７１６０
 41
1.140425547142764
  7
EXCADSTD
 72
     5
 11
3044.999948561288
 21
225.7500038146973
 31
0.0
100
AcDbText
  0
LINE
  5
E3
330
1F
100
AcDbEntity
  8
枠_表
  6
CONTINUOUS
 62
     6
100
AcDbLine
 10
1788.000000000088
 20
3868.5
 30
0.0
 11
1788.000000000088
 21
3950.999999999996
 31
0.0
  0
LINE
  5
E4
330
1F
100
AcDbEntity
  8
枠_表
  6
CONTINUOUS
 62
     6
100
AcDbLine
 10
2238.000000000093
 20
3868.5
 30
0.0
 11
2238.000000000093
 21
3950.999999999996
 31
0.0
  0
LINE
  5
E5
330
1F
100
AcDbEntity
  8
枠_表
  6
CONTINUOUS
 62
     6
100
AcDbLine
 10
1788.000000000088
 20
3703.5
 30
0.0
 11
1788.000000000088
 21
3785.999999999996
 31
0.0
  0
LINE
  5
E6
330
1F
100
AcDbEntity
  8
枠_表
  6
CONTINUOUS
 62
     6
100
AcDbLine
 10
2238.000000000093
 20
3703.5
 30
0.0
 11
2238.000000000093
 21
3785.999999999996
 31
0.0
  0
LINE
  5
E7
330
1F
100
AcDbEntity
  8
枠_表
  6
CONTINUOUS
 62
     6
100
AcDbLine
 10
2988.0000000001
 20
3703.5
 30
0.0
 11
2988.0000000001
 21
3785.999999999996
 31
0.0
  0
LINE
  5
E8
330
1F
100
AcDbEntity
  8
枠_表
  6
CONTINUOUS
 62
     6
100
AcDbLine
 10
2838.0000000001
 20
3703.5
 30
0.0
 11
2838.0000000001
 21
3785.999999999996
 31
0.0
  0
TEXT
  5
E9
330
1F
100
AcDbEntity
  8
枠_表
  6
CONTINUOUS
 62
     2
100
AcDbText
 10
2879.2500000001
 20
3714.750001907345
 30
0.0
 40
59.99999618530273
  1
２
 41
1.260000080108648
  7
EXCADSTD
 72
     5
 11
2933.2500000001
 21
3714.750001907345
 31
0.0
100
AcDbText
  0
LINE
  5
EA
330
1F
100
AcDbEntity
  8
枠_表
  6
CONTINUOUS
 62
     6
100
AcDbLine
 10
1788.000000000088
 20
3703.499999999996
 30
0.0
 11
2988.0000000001
 21
3703.499999999996
 31
0.0
  0
LINE
  5
EB
330
1F
100
AcDbEntity
  8
枠_表
  6
CONTINUOUS
 62
     6
100
AcDbLine
 10
1788.000000000088
 20
3785.999999999996
 30
0.0
 11
2988.0000000001
 21
3785.999999999996
 31
0.0
  0
LINE
  5
EC
330
1F
100
AcDbEntity
  8
枠_表
  6
CONTINUOUS
 62
     6
100
AcDbLine
 10
2988.0000000001
 20
3868.5
 30
0.0
 11
2988.0000000001
 21
3950.999999999996
 31
0.0
  0
LINE
  5
ED
330
1F
100
AcDbEntity
  8
枠_表
  6
CONTINUOUS
 62
     6
100
AcDbLine
 10
2838.0000000001
 20
3868.5
 30
0.0
 11
2838.0000000001
 21
3950.999999999996
 31
0.0
  0
TEXT
  5
EE
330
1F
100
AcDbEntity
  8
枠_表
  6
CONTINUOUS
 62
     2
100
AcDbText
 10
2879.2500000001
 20
3879.750001907345
 30
0.0
 40
59.99999618530273
  1
２
 41
1.260000080108648
  7
EXCADSTD
 72
     5
 11
2933.2500000001
 21
3879.750001907345
 31
0.0
100
AcDbText
  0
LINE
  5
EF
330
1F
100
AcDbEntity
  8
枠_表
  6
CONTINUOUS
 62
     6
100
AcDbLine
 10
1788.000000000088
 20
3868.499999999996
 30
0.0
 11
2988.0000000001
 21
3868.499999999996
 31
0.0
  0
LINE
  5
F0
330
1F
100
AcDbEntity
  8
枠_表
  6
CONTINUOUS
 62
     6
100
AcDbLine
 10
1788.000000000088
 20
3950.999999999996
 30
0.0
 11
2988.0000000001
 21
3950.999999999996
 31
0.0
  0
TEXT
  5
F1
330
1F
100
AcDbEntity
  8
枠_表
  6
CONTINUOUS
 62
     2
100
AcDbText
 10
2253.000000000096
 20
3714.750001907345
 30
0.0
 40
59.99999618530273
  1
ストレート形止水栓（共用形）
 41
0.7590361351947703
  7
EXCADSTD
 72
     5
 11
2792.999958992101
 21
3714.750001907345
 31
0.0
100
AcDbText
  0
TEXT
  5
F2
330
1F
100
AcDbEntity
  8
枠_表
  6
CONTINUOUS
 62
     2
100
AcDbText
 10
1803.00000000009
 20
3962.250001907345
 30
0.0
 40
59.99999618530273
  1
止水栓手配品番（アングル形の場合）
 41
0.9564356294638243
  7
EXCADSTD
 72
     5
 11
2630.999935150237
 21
3962.250001907345
 31
0.0
100
AcDbText
  0
TEXT
  5
F3
330
1F
100
AcDbEntity
  8
枠_表
  6
CONTINUOUS
 62
     2
100
AcDbText
 10
2253.000000000096
 20
3879.750001907345
 30
0.0
 40
59.99999618530273
  1
アングル形止水栓（共用形）
 41
0.8159090676452161
  7
EXCADSTD
 72
     5
 11
2791.499950409032
 21
3879.750001907345
 31
0.0
100
AcDbText
  0
LINE
  5
F4
330
1F
100
AcDbEntity
  8
枠_表
  6
CONTINUOUS
 62
     6
100
AcDbLine
 10
1788.000000000088
 20
3538.5
 30
0.0
 11
1788.000000000088
 21
3620.999999999996
 31
0.0
  0
LINE
  5
F5
330
1F
100
AcDbEntity
  8
枠_表
  6
CONTINUOUS
 62
     6
100
AcDbLine
 10
2238.000000000093
 20
3538.5
 30
0.0
 11
2238.000000000093
 21
3620.999999999996
 31
0.0
  0
LINE
  5
F6
330
1F
100
AcDbEntity
  8
枠_表
  6
CONTINUOUS
 62
     6
100
AcDbLine
 10
2988.0000000001
 20
3538.5
 30
0.0
 11
2988.0000000001
 21
3620.999999999996
 31
0.0
  0
LINE
  5
F7
330
1F
100
AcDbEntity
  8
枠_表
  6
CONTINUOUS
 62
     6
100
AcDbLine
 10
2838.0000000001
 20
3538.5
 30
0.0
 11
2838.0000000001
 21
3620.999999999996
 31
0.0
  0
LINE
  5
F8
330
1F
100
AcDbEntity
  8
枠_表
  6
CONTINUOUS
 62
     6
100
AcDbLine
 10
1788.000000000088
 20
3538.499999999996
 30
0.0
 11
2988.0000000001
 21
3538.499999999996
 31
0.0
  0
LINE
  5
F9
330
1F
100
AcDbEntity
  8
枠_表
  6
CONTINUOUS
 62
     6
100
AcDbLine
 10
1788.000000000088
 20
3620.999999999996
 30
0.0
 11
2988.0000000001
 21
3620.999999999996
 31
0.0
  0
TEXT
  5
FA
330
1F
100
AcDbEntity
  8
枠_表
  6
CONTINUOUS
 62
     2
100
AcDbText
 10
1803.00000000009
 20
3797.250001907345
 30
0.0
 40
59.99999618530273
  1
止水栓手配品番（一般地、ストレート形の場合）
 41
0.9511450238992228
  7
EXCADSTD
 72
     5
 11
2870.99991607675
 21
3797.250001907345
 31
0.0
100
AcDbText
  0
TEXT
  5
FB
330
1F
100
AcDbEntity
  8
枠_表
  6
CONTINUOUS
 62
     2
100
AcDbText
 10
1803.000000000088
 20
3549.750001907345
 30
0.0
 40
59.99999618530273
  1
Ｐ２３７６
 41
0.8025861811911906
  7
EXCADSTD
 72
     5
 11
2002.499980926602
 21
3549.750001907345
 31
0.0
100
AcDbText
  0
TEXT
  5
FC
330
1F
100
AcDbEntity
  8
枠_表
  6
CONTINUOUS
 62
     2
100
AcDbText
 10
1803.00000000009
 20
3632.250001907345
 30
0.0
 40
59.99999618530273
  1
トラップ手配品番（壁排水の場合）
 41
0.9578947227879565
  7
EXCADSTD
 72
     5
 11
2582.999938964934
 21
3632.250001907345
 31
0.0
100
AcDbText
  0
TEXT
  5
FD
330
1F
100
AcDbEntity
  8
枠_表
  6
CONTINUOUS
 62
     2
100
AcDbText
 10
2253.000000000096
 20
3549.750001907345
 30
0.0
 40
59.99999618530273
  1
壁排水トラップセット
 41
0.7711864312489822
  7
EXCADSTD
 72
     5
 11
2642.999970436193
 21
3549.750001907345
 31
0.0
100
AcDbText
  0
TEXT
  5
FE
330
1F
100
AcDbEntity
  8
枠_表
  6
CONTINUOUS
 62
     2
100
AcDbText
 10
1815.00000000009
 20
3469.500003814694
 30
0.0
 40
52.49999618530273
  1
※止水栓は別途 ※壁排水トラップセットはオプション
 41
0.8873333147321416
  7
EXCADSTD
 72
     5
 11
2813.249906540007
 21
3469.500003814694
 31
0.0
100
AcDbText
  0
TEXT
  5
FF
330
1F
100
AcDbEntity
  8
枠_表
  6
CONTINUOUS
 62
     2
100
AcDbText
 10
1815.00000000009
 20
3409.500007629391
 30
0.0
 40
52.49999618530273
  1
※化粧鏡台
 41
0.9862068805162137
  7
EXCADSTD
 72
     5
 11
2029.499980926604
 21
3409.500007629391
 31
0.0
100
AcDbText
  0
TEXT
  5
100
330
1F
100
AcDbEntity
  8
枠_表
  6
CONTINUOUS
 62
     2
100
AcDbText
 10
1815.00000000009
 20
3349.500011444088
 30
0.0
 40
52.49999618530273
  1
・電源：１００Ｖ，５０/６０Ｈｚ
 41
0.8771626116554141
  7
EXCADSTD
 72
     5
 11
2448.749940872282
 21
3349.500011444088
 31
0.0
100
AcDbText
  0
TEXT
  5
101
330
1F
100
AcDbEntity
  8
枠_表
  6
CONTINUOUS
 62
     2
100
AcDbText
 10
1815.00000000009
 20
3289.500015258785
 30
0.0
 40
52.49999618530273
  1
・コンセント容量：１２００Ｗ
 41
0.9301204637187122
  7
EXCADSTD
 72
     5
 11
2393.999946594328
 21
3289.500015258785
 31
0.0
100
AcDbText
  0
TEXT
  5
102
330
1F
100
AcDbEntity
  8
枠_表
  6
CONTINUOUS
 62
     2
100
AcDbText
 10
1815.00000000009
 20
3229.500019073483
 30
0.0
 40
52.49999618530273
  1
・電源コードの取出しは、左または右
 41
0.9247524568305027
  7
EXCADSTD
 72
     5
 11
2515.499935150237
 21
3229.500019073483
 31
0.0
100
AcDbText
  0
TEXT
  5
103
330
1F
100
AcDbEntity
  8
枠_表
  6
CONTINUOUS
 62
     2
100
AcDbText
 10
2879.2500000001
 20
3549.750001907345
 30
0.0
 40
59.99999618530273
  1
１
 41
1.260000080108648
  7
EXCADSTD
 72
     5
 11
2933.2500000001
 21
3549.750001907345
 31
0.0
100
AcDbText
  0
TEXT
  5
104
330
1F
100
AcDbEntity
  8
枠_表
  6
CONTINUOUS
 62
     2
100
AcDbText
 10
1803.00000000009
 20
4127.250001907349
 30
0.0
 40
59.99999618530273
  1
ＬＵ６０１ＡＳＤ
 41
0.7446808984093657
  7
EXCADSTD
 72
     5
 11
2103.00000000009
 21
4127.250001907349
 31
0.0
100
AcDbText
  0
TEXT
  5
105
330
1F
100
AcDbEntity
  8
枠_表
  6
CONTINUOUS
 62
     2
100
AcDbText
 10
815.2500000000684
 20
328.5000038146973
 30
0.0
 40
74.99999237060547
  1
村上
 41
1.224910918732915
  7
EXCADSTD
 72
     5
 11
959.6144864509313
 21
328.5000038146973
 31
0.0
100
AcDbText
  0
TEXT
  5
106
330
1F
100
AcDbEntity
  8
枠_表
  6
CONTINUOUS
 62
     2
100
AcDbText
 10
1011.750000000068
 20
336.0000038146973
 30
0.0
 40
74.99999237060547
  1
間瀬
 41
1.224910918732915
  7
EXCADSTD
 72
     5
 11
1156.11448645093
 21
336.0000038146973
 31
0.0
100
AcDbText
  0
TEXT
  5
107
330
1F
100
AcDbEntity
  8
枠_表
  6
CONTINUOUS
 62
     2
100
AcDbText
 10
2238.000000000095
 20
441.0
 30
0.0
 40
74.99999237060547
  1
ＬＵ６０１ＡＳＤ
 41
0.7446808794711528
  7
EXCADSTD
 72
     5
 11
2612.999976158237
 21
441.0
 31
0.0
100
AcDbText
  0
TEXT
  5
108
330
1F
100
AcDbEntity
  8
枠_表
  6
CONTINUOUS
 62
     2
100
AcDbText
 10
2238.000000000095
 20
366.0000076293945
 30
0.0
 40
74.99999237060547
  1
ＬＵＭ６０２ＳＫＨ
 41
0.7396226697238015
  7
EXCADSTD
 72
     5
 11
2657.999973297214
 21
366.0000076293945
 31
0.0
100
AcDbText
  0
TEXT
  5
109
330
1F
100
AcDbEntity
  8
枠_表
  6
CONTINUOUS
 62
     2
100
AcDbText
 10
1803.00000000009
 20
4044.750001907347
 30
0.0
 40
59.99999618530273
  1
ＬＵＭ６０２ＳＫＨ
 41
0.7396226885333776
  7
EXCADSTD
 72
     5
 11
2139.00000000009
 21
4044.750001907347
 31
0.0
100
AcDbText
  0
TEXT
  5
10A
330
1F
100
AcDbEntity
  8
枠_表
  6
CONTINUOUS
 62
     2
100
AcDbText
 10
1803.000000000088
 20
3879.750001907345
 30
0.0
 40
59.99999618530273
  1
ＮＬ２２１－７５ＷＭＹ
 41
0.6784615987141962
  7
EXCADSTD
 72
     5
 11
2181.000009536831
 21
3879.750001907345
 31
0.0
100
AcDbText
  0
TEXT
  5
10B
330
1F
100
AcDbEntity
  8
枠_表
  6
CONTINUOUS
 62
     2
100
AcDbText
 10
1803.000000000088
 20
3714.750001907345
 30
0.0
 40
59.99999618530273
  1
ＮＬ２１１－３００ＷＭＹ
 41
0.6778168692835037
  7
EXCADSTD
 72
     5
 11
2215.499954223721
 21
3714.750001907345
 31
0.0
100
AcDbText
  0
TEXT
  5
10C
330
1F
100
AcDbEntity
  8
枠_表
  6
CONTINUOUS
 62
     2
100
AcDbText
 10
339.7499998500963
 20
208.5000019073486
 30
0.0
 40
59.99999618530273
  1
28
 41
0.4540540865305332
  7
EXCADSTD
 72
     5
 11
387.7500002315661
 21
208.5000019073486
 31
0.0
100
AcDbText
  0
TEXT
  5
10D
330
1F
100
AcDbEntity
  8
枠_表
  6
CONTINUOUS
 62
     2
100
AcDbText
 10
428.6250000000957
 20
208.5000019073486
 30
0.0
 40
59.99999618530273
  1
2
 41
0.4516544404801219
  7
EXCADSTD
 72
     5
 11
450.5625000000957
 21
208.5000019073486
 31
0.0
100
AcDbText
  0
TEXT
  5
10E
330
1F
100
AcDbEntity
  8
枠_表
  6
CONTINUOUS
 62
     2
100
AcDbText
 10
495.0000001500969
 20
208.5000019073486
 30
0.0
 40
59.99999618530273
  1
12
 41
0.4540540865305326
  7
EXCADSTD
 72
     5
 11
543.0000005315666
 21
208.5000019073486
 31
0.0
100
AcDbText
  0
POLYLINE
  5
10F
330
1F
100
AcDbEntity
  8
化粧台
  6
CONTINUOUS
 62
     3
100
AcDb2dPolyline
 66
     1
 10
0.0
 20
0.0
 30
0.0
 70
   128
  0
VERTEX
  5
110
330
10F
100
AcDbEntity
  8
化粧台
  6
CONTINUOUS
 62
     3
100
AcDbVertex
100
AcDb2dVertex
 10
2026.000000000095
 20
897.0
 30
0.0
  0
VERTEX
  5
111
330
10F
100
AcDbEntity
  8
化粧台
  6
CONTINUOUS
 62
     3
100
AcDbVertex
100
AcDb2dVertex
 10
2007.000000000095
 20
946.0
 30
0.0
  0
SEQEND
  5
112
330
10F
100
AcDbEntity
  8
化粧台
  6
CONTINUOUS
 62
     3
  0
LINE
  5
113
330
1F
100
AcDbEntity
  8
化粧台
  6
CONTINUOUS
 62
     3
100
AcDbLine
 10
2002.73853673088
 20
936.2447999940749
 30
0.0
 11
2026.000000000095
 21
897.0
 31
0.0
  0
LINE
  5
114
330
1F
100
AcDbEntity
  8
化粧台
  6
CONTINUOUS
 62
     3
100
AcDbLine
 10
2026.000000000095
 20
897.0
 30
0.0
 11
2016.723956365132
 21
941.667717811438
 31
0.0
  0
POLYLINE
  5
115
330
1F
100
AcDbEntity
  8
化粧台
  6
CONTINUOUS
 62
     3
100
AcDb2dPolyline
 66
     1
 10
0.0
 20
0.0
 30
0.0
 70
   128
  0
VERTEX
  5
116
330
115
100
AcDbEntity
  8
化粧台
  6
CONTINUOUS
 62
     3
100
AcDbVertex
100
AcDb2dVertex
 10
2528.000000000096
 20
2958.5
 30
0.0
  0
VERTEX
  5
117
330
115
100
AcDbEntity
  8
化粧台
  6
CONTINUOUS
 62
     3
100
AcDbVertex
100
AcDb2dVertex
 10
2482.000000000096
 20
2978.5
 30
0.0
  0
SEQEND
  5
118
330
115
100
AcDbEntity
  8
化粧台
  6
CONTINUOUS
 62
     3
  0
LINE
  5
119
330
1F
100
AcDbEntity
  8
化粧台
  6
CONTINUOUS
 62
     3
100
AcDbLine
 10
2483.741401633093
 20
2969.564649591751
 30
0.0
 11
2528.000000000096
 21
2958.5
 31
0.0
  0
LINE
  5
11A
330
1F
100
AcDbEntity
  8
化粧台
  6
CONTINUOUS
 62
     3
100
AcDbLine
 10
2528.000000000096
 20
2958.5
 30
0.0
 11
2489.722293304309
 21
2983.320700435549
 31
0.0
  0
DIMENSION
  5
11C
330
1F
100
AcDbEntity
  8
化粧台
  6
CONTINUOUS
 62
     3
100
AcDbDimension
  2
*D15
 10
1283.000000000098
 20
3429.0
 30
0.0
 11
983.0000000001187
 21
3464.249999910593
 31
0.0
 70
   160
  3
ISO-25
100
AcDbAlignedDimension
 13
683.0000000001394
 23
3651.50000000004
 33
0.0
 14
1283.000000000098
 24
3651.50000000004
 34
0.0
100
AcDbRotatedDimension
1001
ACAD
1000
DSTYLE
1002
{
1070
   270
1070
     2
1070
     6
1000
EX_NORM
1070
     7
1000
EX_NORM
1070
    41
1040
44.99999618530273
1070
    42
1040
2.000000000040018
1070
    44
1040
15.0
1070
    73
1070
     0
1070
    74
1070
     0
1070
    75
1070
     0
1070
    76
1070
     0
1070
    77
1070
     1
1070
    78
1070
     0
1070
   140
1040
59.99999618530273
1070
   147
1040
0.0
1070
   173
1070
     1
1070
   176
1070
     3
1070
   177
1070
     3
1070
   178
1070
     2
1070
   271
1070
     0
1070
   277
1070
     2
1070
   279
1070
     2
1070
   280
1070
     0
1070
   287
1070
     5
1070
   340
1005
11B
1002
}
  0
DIMENSION
  5
12A
330
1F
100
AcDbEntity
  8
化粧台
  6
CONTINUOUS
 62
     3
100
AcDbDimension
  2
*D16
 10
1416.0
 20
3671.50000000004
 30
0.0
 11
1380.750000089407
 21
3821.50000000004
 31
0.0
 70
   160
  3
ISO-25
100
AcDbAlignedDimension
 13
1283.000000000098
 23
3971.50000000004
 33
0.0
 14
1278.000000000098
 24
3671.50000000004
 34
0.0
 50
90.0
100
AcDbRotatedDimension
1001
ACAD
1000
DSTYLE
1002
{
1070
   270
1070
     2
1070
     6
1000
EX_NORM
1070
     7
1000
EX_NORM
1070
    41
1040
44.99999618530273
1070
    42
1040
10.49999982118607
1070
    44
1040
15.0
1070
    73
1070
     0
1070
    74
1070
     0
1070
    75
1070
     1
1070
    76
1070
     0
1070
    77
1070
     1
1070
    78
1070
     0
1070
   140
1040
59.99999618530273
1070
   147
1040
0.0
1070
   173
1070
     1
1070
   176
1070
     3
1070
   177
1070
     3
1070
   178
1070
     2
1070
   271
1070
     0
1070
   277
1070
     2
1070
   279
1070
     2
1070
   280
1070
     0
1070
   287
1070
     5
1070
   340
1005
11B
1002
}
  0
DIMENSION
  5
136
330
1F
100
AcDbEntity
  8
化粧台
  6
CONTINUOUS
 62
     3
100
AcDbDimension
  2
*D17
 10
1536.0
 20
3601.5
 30
0.0
 11
1498.5
 21
3786.5
 31
0.0
 70
   160
  3
ISO-25
100
AcDbAlignedDimension
 13
983.0000000000977
 23
3971.5
 33
0.0
 14
983.0000000000977
 24
3601.5
 34
0.0
 50
90.0
100
AcDbRotatedDimension
1001
ACAD
1000
DSTYLE
1002
{
1070
   270
1070
     2
1070
     6
1000
EX_NORM
1070
     7
1000
EX_NORM
1070
    41
1040
44.99999618530273
1070
    42
1040
10.49999982118607
1070
    44
1040
14.99999999999818
1070
    73
1070
     0
1070
    74
1070
     0
1070
    75
1070
     0
1070
    76
1070
     0
1070
    77
1070
     1
1070
    78
1070
     8
1070
   140
1040
59.99999618530273
1070
   147
1040
0.0
1070
   173
1070
     1
1070
   176
1070
     3
1070
   177
1070
     3
1070
   178
1070
     2
1070
   271
1070
     1
1070
   277
1070
     2
1070
   279
1070
     2
1070
   280
1070
     0
1070
   287
1070
     5
1070
   340
1005
11B
1002
}
  0
DIMENSION
  5
143
330
1F
100
AcDbEntity
  8
化粧台
  6
CONTINUOUS
 62
     3
100
AcDbDimension
  2
*D18
 10
1557.0
 20
897.0
 30
0.0
 11
1519.5
 21
1289.50000000005
 31
0.0
 70
   160
  3
ISO-25
100
AcDbAlignedDimension
 13
1479.474995203798
 23
1682.0000000001
 33
0.0
 14
1479.474995203798
 24
897.0
 34
0.0
 50
90.0
100
AcDbRotatedDimension
1001
ACAD
1000
DSTYLE
1002
{
1070
   270
1070
     2
1070
     6
1000
EX_NORM
1070
     7
1000
EX_NORM
1070
    41
1040
44.99999618530273
1070
    42
1040
0.0
1070
    44
1040
0.0
1070
    73
1070
     0
1070
    74
1070
     0
1070
    75
1070
     1
1070
    76
1070
     1
1070
    77
1070
     1
1070
    78
1070
     8
1070
   140
1040
59.99999618530273
1070
   147
1040
0.0
1070
   173
1070
     1
1070
   176
1070
     3
1070
   177
1070
     3
1070
   178
1070
     2
1070
   271
1070
     1
1070
   277
1070
     2
1070
   279
1070
     2
1070
   280
1070
     0
1070
   287
1070
     5
1070
   340
1005
11B
1002
}
  0
DIMENSION
  5
14E
330
1F
100
AcDbEntity
  8
化粧台
  6
CONTINUOUS
 62
     3
100
AcDbDimension
  2
*D19
 10
1557.0
 20
1682.0000000001
 30
0.0
 11
1519.5
 21
2247.0000000001
 31
0.0
 70
   160
  3
ISO-25
100
AcDbAlignedDimension
 13
1288.499999821298
 23
2812.0000000001
 33
0.0
 14
1252.974995203798
 24
1682.0000000001
 34
0.0
 50
90.0
100
AcDbRotatedDimension
1001
ACAD
1000
DSTYLE
1002
{
1070
   270
1070
     2
1070
     6
1000
EX_NORM
1070
     7
1000
EX_NORM
1070
    41
1040
44.99999618530273
1070
    42
1040
10.49999982118607
1070
    44
1040
14.99999999999932
1070
    73
1070
     0
1070
    74
1070
     0
1070
    75
1070
     0
1070
    76
1070
     0
1070
    77
1070
     1
1070
    78
1070
     8
1070
   140
1040
59.99999618530273
1070
   147
1040
0.0
1070
   173
1070
     1
1070
   176
1070
     3
1070
   177
1070
     3
1070
   178
1070
     2
1070
   271
1070
     1
1070
   277
1070
     2
1070
   279
1070
     2
1070
   280
1070
     0
1070
   287
1070
     5
1070
   340
1005
11B
1002
}
  0
DIMENSION
  5
15B
330
1F
100
AcDbEntity
  8
化粧台
  6
CONTINUOUS
 62
     3
100
AcDbDimension
  2
*D20
 10
1699.5
 20
897.0
 30
0.0
 11
1662.0
 21
1854.50000000005
 31
0.0
 70
   160
  3
ISO-25
100
AcDbAlignedDimension
 13
1278.000000000098
 23
2812.0000000001
 33
0.0
 14
1255.000000000098
 24
897.0
 34
0.0
 50
90.0
100
AcDbRotatedDimension
1001
ACAD
1000
DSTYLE
1002
{
1070
   270
1070
     2
1070
     6
1000
EX_NORM
1070
     7
1000
EX_NORM
1070
    41
1040
44.99999618530273
1070
    42
1040
10.49999982118607
1070
    44
1040
14.99999999999932
1070
    73
1070
     0
1070
    74
1070
     0
1070
    75
1070
     0
1070
    76
1070
     0
1070
    77
1070
     1
1070
    78
1070
     8
1070
   140
1040
59.99999618530273
1070
   147
1040
0.0
1070
   173
1070
     1
1070
   176
1070
     3
1070
   177
1070
     3
1070
   178
1070
     2
1070
   271
1070
     1
1070
   277
1070
     2
1070
   279
1070
     2
1070
   280
1070
     0
1070
   287
1070
     5
1070
   340
1005
11B
1002
}
  0
LINE
  5
168
330
1F
100
AcDbEntity
  8
化粧台
  6
CONTINUOUS
 62
     3
100
AcDbLine
 10
1288.314876946484
 20
1682.0000000001
 30
0.0
 11
1443.000000000098
 21
1682.0000000001
 31
0.0
  0
LINE
  5
169
330
1F
100
AcDbEntity
  8
化粧台
  6
CONTINUOUS
 62
     3
100
AcDbLine
 10
1280.499999821244
 20
897.0000000001
 30
0.0
 11
1443.000000000058
 21
897.0000000000991
 31
0.0
  0
DIMENSION
  5
16A
330
1F
100
AcDbEntity
  8
化粧台
  6
CONTINUOUS
 62
     3
100
AcDbDimension
  2
*D21
 10
1443.0000000001
 20
1647.0000000001
 30
0.0
 11
1407.750000089507
 21
1272.000000000099
 31
0.0
 70
   160
  3
ISO-25
100
AcDbAlignedDimension
 13
1270.000000000058
 23
897.0000000001
 33
0.0
 14
983.0000000000575
 24
1647.0000000001
 34
0.0
 50
90.0
100
AcDbRotatedDimension
1001
ACAD
1000
DSTYLE
1002
{
1070
   270
1070
     2
1070
     6
1000
EX_NORM
1070
     7
1000
EX_NORM
1070
    41
1040
44.99999618530273
1070
    42
1040
10.49999982118607
1070
    44
1040
14.99999999999977
1070
    73
1070
     0
1070
    74
1070
     0
1070
    75
1070
     0
1070
    76
1070
     0
1070
    77
1070
     1
1070
    78
1070
     0
1070
   140
1040
59.99999618530273
1070
   147
1040
0.0
1070
   173
1070
     1
1070
   176
1070
     3
1070
   177
1070
     3
1070
   178
1070
     2
1070
   271
1070
     0
1070
   277
1070
     2
1070
   279
1070
     2
1070
   280
1070
     0
1070
   287
1070
     5
1070
   340
1005
11B
1002
}
  0
DIMENSION
  5
177
330
1F
100
AcDbEntity
  8
化粧台
  6
CONTINUOUS
 62
     3
100
AcDbDimension
  2
*D22
 10
1283.000000000098
 20
3091.5
 30
0.0
 11
983.0000000000778
 21
3129.0
 31
0.0
 70
   160
  3
ISO-25
100
AcDbAlignedDimension
 13
683.0000000000575
 23
2807.0000000001
 33
0.0
 14
1283.000000000098
 24
2807.0000000001
 34
0.0
100
AcDbRotatedDimension
1001
ACAD
1000
DSTYLE
1002
{
1070
   270
1070
     2
1070
     6
1000
EX_NORM
1070
     7
1000
EX_NORM
1070
    41
1040
44.99999618530273
1070
    42
1040
10.49999982118607
1070
    44
1040
15.0
1070
    73
1070
     0
1070
    74
1070
     0
1070
    75
1070
     0
1070
    76
1070
     0
1070
    77
1070
     1
1070
    78
1070
     8
1070
   140
1040
59.99999618530273
1070
   147
1040
0.0
1070
   173
1070
     1
1070
   176
1070
     3
1070
   177
1070
     3
1070
   178
1070
     2
1070
   271
1070
     1
1070
   277
1070
     2
1070
   279
1070
     2
1070
   280
1070
     0
1070
   287
1070
     5
1070
   340
1005
11B
1002
}
  0
DIMENSION
  5
184
330
1F
100
AcDbEntity
  8
化粧台
  6
CONTINUOUS
 62
     3
100
AcDbDimension
  2
*D23
 10
1203.000000012197
 20
2980.5
 30
0.0
 11
983.0000012634277
 21
3018.0
 31
0.0
 70
   160
  1
440（壁固定）
  3
ISO-25
100
AcDbAlignedDimension
 13
763.0000025146576
 23
2639.4999833108
 33
0.0
 14
1203.000000012197
 24
2661.9999833108
 34
0.0
100
AcDbRotatedDimension
1001
ACAD
1000
DSTYLE
1002
{
1070
   270
1070
     2
1070
     6
1000
EX_NORM
1070
     7
1000
EX_NORM
1070
    41
1040
44.99999618530273
1070
    42
1040
10.49999982118607
1070
    44
1040
15.0
1070
    73
1070
     0
1070
    74
1070
     0
1070
    75
1070
     0
1070
    76
1070
     0
1070
    77
1070
     1
1070
    78
1070
     8
1070
   140
1040
59.99999618530273
1070
   147
1040
0.0
1070
   173
1070
     1
1070
   176
1070
     3
1070
   177
1070
     3
1070
   178
1070
     2
1070
   271
1070
     1
1070
   277
1070
     2
1070
   279
1070
     2
1070
   280
1070
     0
1070
   287
1070
     5
1070
   340
1005
11B
1002
}
  0
DIMENSION
  5
191
330
1F
100
AcDbEntity
  8
化粧台
  6
CONTINUOUS
 62
     3
100
AcDbDimension
  2
*D24
 10
1443.0000000001
 20
1682.0000000001
 30
0.0
 11
1405.5000000001
 21
1827.0000000001
 31
0.0
 70
   160
  3
ISO-25
100
AcDbAlignedDimension
 13
1316.076696830697
 23
1972.0000000001
 33
0.0
 14
1345.650000000097
 24
1682.0000000001
 34
0.0
 50
90.0
100
AcDbRotatedDimension
1001
ACAD
1000
DSTYLE
1002
{
1070
   270
1070
     2
1070
     6
1000
EX_NORM
1070
     7
1000
EX_NORM
1070
    41
1040
44.99999618530273
1070
    42
1040
10.49999982118607
1070
    44
1040
14.99999999999886
1070
    73
1070
     0
1070
    74
1070
     0
1070
    75
1070
     0
1070
    76
1070
     0
1070
    77
1070
     1
1070
    78
1070
     8
1070
   140
1040
59.99999618530273
1070
   147
1040
0.0
1070
   173
1070
     1
1070
   176
1070
     3
1070
   177
1070
     3
1070
   178
1070
     2
1070
   271
1070
     1
1070
   277
1070
     2
1070
   279
1070
     2
1070
   280
1070
     0
1070
   287
1070
     5
1070
   340
1005
11B
1002
}
  0
DIMENSION
  5
19E
330
1F
100
AcDbEntity
  8
化粧台
  6
CONTINUOUS
 62
     3
100
AcDbDimension
  2
*D25
 10
2528.000000000096
 20
777.0
 30
0.0
 11
2770.999997139073
 21
814.5
 31
0.0
 70
   160
  1
85（床・給排水）
  3
ISO-25
100
AcDbAlignedDimension
 13
2443.000000000096
 23
852.0
 33
0.0
 14
2528.000000000096
 24
897.0
 34
0.0
100
AcDbRotatedDimension
1001
ACAD
1000
DSTYLE
1002
{
1070
   270
1070
     2
1070
     6
1000
EX_NORM
1070
     7
1000
EX_NORM
1070
    41
1040
44.99999618530273
1070
    42
1040
10.49999982118607
1070
    44
1040
15.0
1070
    73
1070
     0
1070
    74
1070
     0
1070
    75
1070
     0
1070
    76
1070
     0
1070
    77
1070
     1
1070
    78
1070
     8
1070
   140
1040
59.99999618530273
1070
   147
1040
0.0
1070
   173
1070
     1
1070
   176
1070
     3
1070
   177
1070
     3
1070
   178
1070
     2
1070
   271
1070
     1
1070
   277
1070
     2
1070
   279
1070
     2
1070
   280
1070
     2
1070
   287
1070
     5
1070
   340
1005
11B
1002
}
  0
LINE
  5
1AD
330
1F
100
AcDbEntity
  8
化粧台
  6
CONTINUOUS
 62
     3
100
AcDbLine
 10
2528.000000000095
 20
886.5000001788521
 30
0.0
 11
2528.000000000095
 21
808.0000000001
 31
0.0
  0
DIMENSION
  5
1AE
330
1F
100
AcDbEntity
  8
化粧台
  6
CONTINUOUS
 62
     3
100
AcDbDimension
  2
*D26
 10
2528.000000000096
 20
658.5
 30
0.0
 11
2398.250000000096
 21
696.0
 31
0.0
 70
   160
  1
260
  3
ISO-25
100
AcDbAlignedDimension
 13
2268.500000000096
 23
897.0
 33
0.0
 14
2528.000000000096
 24
897.0
 34
0.0
100
AcDbRotatedDimension
1001
ACAD
1000
DSTYLE
1002
{
1070
   270
1070
     2
1070
     6
1000
EX_NORM
1070
     7
1000
EX_NORM
1070
    41
1040
44.99999618530273
1070
    42
1040
10.49999982118607
1070
    44
1040
15.0
1070
    73
1070
     0
1070
    74
1070
     0
1070
    75
1070
     0
1070
    76
1070
     0
1070
    77
1070
     1
1070
    78
1070
     8
1070
   140
1040
59.99999618530273
1070
   147
1040
0.0
1070
   173
1070
     1
1070
   176
1070
     3
1070
   177
1070
     3
1070
   178
1070
     2
1070
   271
1070
     1
1070
   277
1070
     2
1070
   279
1070
     2
1070
   280
1070
     0
1070
   287
1070
     5
1070
   340
1005
11B
1002
}
  0
DIMENSION
  5
1BC
330
1F
100
AcDbEntity
  8
化粧台
  6
CONTINUOUS
 62
     3
100
AcDbDimension
  2
*D27
 10
2668.5
 20
1217.0
 30
0.0
 11
2631.0
 21
1057.0
 31
0.0
 70
   160
  1
320（壁給水）
  3
ISO-25
100
AcDbAlignedDimension
 13
2538.499999821297
 23
897.0
 33
0.0
 14
2551.000005722097
 24
1217.0
 34
0.0
 50
90.0
100
AcDbRotatedDimension
1001
ACAD
1000
DSTYLE
1002
{
1070
   270
1070
     2
1070
     6
1000
EX_NORM
1070
     7
1000
EX_NORM
1070
    41
1040
44.99999618530273
1070
    42
1040
10.49999982118607
1070
    44
1040
15.0
1070
    73
1070
     0
1070
    74
1070
     0
1070
    75
1070
     0
1070
    76
1070
     0
1070
    77
1070
     1
1070
    78
1070
     8
1070
   140
1040
59.99999618530273
1070
   147
1040
0.0
1070
   173
1070
     1
1070
   176
1070
     3
1070
   177
1070
     3
1070
   178
1070
     2
1070
   271
1070
     1
1070
   277
1070
     2
1070
   279
1070
     2
1070
   280
1070
     0
1070
   287
1070
     5
1070
   340
1005
1BB
1002
}
  0
DIMENSION
  5
1C9
330
1F
100
AcDbEntity
  8
化粧台
  6
CONTINUOUS
 62
     3
100
AcDbDimension
  2
*D28
 10
2761.5
 20
1372.0
 30
0.0
 11
2724.0
 21
1134.5
 31
0.0
 70
   160
  1
475（壁排水）
  3
ISO-25
100
AcDbAlignedDimension
 13
2538.499999821297
 23
897.0
 33
0.0
 14
2556.750000000096
 24
1372.0
 34
0.0
 50
90.0
100
AcDbRotatedDimension
1001
ACAD
1000
DSTYLE
1002
{
1070
   270
1070
     2
1070
     6
1000
EX_NORM
1070
     7
1000
EX_NORM
1070
    41
1040
44.99999618530273
1070
    42
1040
10.49999982118607
1070
    44
1040
15.0
1070
    73
1070
     0
1070
    74
1070
     0
1070
    75
1070
     0
1070
    76
1070
     0
1070
    77
1070
     1
1070
    78
1070
     8
1070
   140
1040
59.99999618530273
1070
   147
1040
0.0
1070
   173
1070
     1
1070
   176
1070
     3
1070
   177
1070
     3
1070
   178
1070
     2
1070
   271
1070
     1
1070
   277
1070
     2
1070
   279
1070
     2
1070
   280
1070
     0
1070
   287
1070
     5
1070
   340
1005
11B
1002
}
  0
DIMENSION
  5
1D6
330
1F
100
AcDbEntity
  8
化粧台
  6
CONTINUOUS
 62
     3
100
AcDbDimension
  2
*D29
 10
1193.000000000096
 20
4098.0
 30
0.0
 11
1396.999999463654
 21
4135.5
 31
0.0
 70
   160
  1
90（壁給水）
  3
ISO-25
100
AcDbAlignedDimension
 13
1103.000000000096
 23
4011.9
 33
0.0
 14
1193.000000000096
 24
3999.6
 34
0.0
100
AcDbRotatedDimension
1001
ACAD
1000
DSTYLE
1002
{
1070
   270
1070
     2
1070
     6
1000
EX_NORM
1070
     7
1000
EX_NORM
1070
    41
1040
29.99999809265137
1070
    42
1040
10.49999982118607
1070
    44
1040
15.0
1070
    73
1070
     0
1070
    74
1070
     0
1070
    75
1070
     0
1070
    76
1070
     0
1070
    77
1070
     1
1070
    78
1070
     8
1070
   140
1040
59.99999618530273
1070
   147
1040
0.0
1070
   173
1070
     1
1070
   176
1070
     3
1070
   177
1070
     3
1070
   178
1070
     2
1070
   271
1070
     1
1070
   277
1070
     2
1070
   279
1070
     2
1070
   280
1070
     2
1070
   287
1070
     5
1070
   340
1005
11B
1002
}
  0
DIMENSION
  5
1E3
330
1F
100
AcDbEntity
  8
化粧台
  6
CONTINUOUS
 62
     3
100
AcDbDimension
  2
*D30
 10
2528.000000000096
 20
1848.0
 30
0.0
 11
2650.999999821282
 21
1885.5
 31
0.0
 70
   160
  3
ISO-25
100
AcDbAlignedDimension
 13
2428.000000000096
 23
1712.2958399002
 33
0.0
 14
2528.000000000096
 24
1714.5
 34
0.0
100
AcDbRotatedDimension
1001
ACAD
1000
DSTYLE
1002
{
1070
   270
1070
     2
1070
     6
1000
EX_NORM
1070
     7
1000
EX_NORM
1070
    41
1040
44.99999618530273
1070
    42
1040
10.49999982118607
1070
    44
1040
15.0
1070
    73
1070
     0
1070
    74
1070
     0
1070
    75
1070
     0
1070
    76
1070
     0
1070
    77
1070
     1
1070
    78
1070
     8
1070
   140
1040
59.99999618530273
1070
   147
1040
0.0
1070
   173
1070
     1
1070
   176
1070
     3
1070
   177
1070
     3
1070
   178
1070
     2
1070
   271
1070
     1
1070
   277
1070
     2
1070
   279
1070
     2
1070
   280
1070
     2
1070
   287
1070
     5
1070
   340
1005
11B
1002
}
  0
DIMENSION
  5
1F0
330
1F
100
AcDbEntity
  8
化粧台
  6
CONTINUOUS
 62
     3
100
AcDbDimension
  2
*D31
 10
1023.000000000094
 20
4098.0
 30
0.0
 11
779.000000536536
 21
4135.5
 31
0.0
 70
   160
  1
40（壁排水）
  3
ISO-25
100
AcDbAlignedDimension
 13
983.000000000094
 23
3982.5
 33
0.0
 14
1023.000000000094
 24
4057.5
 34
0.0
100
AcDbRotatedDimension
1001
ACAD
1000
DSTYLE
1002
{
1070
   270
1070
     2
1070
     6
1000
EX_NORM
1070
     7
1000
EX_NORM
1070
    41
1040
29.99999809265137
1070
    42
1040
10.49999982118607
1070
    44
1040
15.0
1070
    73
1070
     0
1070
    74
1070
     0
1070
    75
1070
     0
1070
    76
1070
     1
1070
    77
1070
     1
1070
    78
1070
     8
1070
   140
1040
59.99999618530273
1070
   147
1040
0.0
1070
   173
1070
     1
1070
   176
1070
     3
1070
   177
1070
     3
1070
   178
1070
     2
1070
   271
1070
     1
1070
   277
1070
     2
1070
   279
1070
     2
1070
   280
1070
     1
1070
   287
1070
     5
1070
   340
1005
11B
1002
}
  0
LINE
  5
1FE
330
1F
100
AcDbEntity
  8
化粧台
  6
CONTINUOUS
 62
     3
100
AcDbLine
 10
1023.000000000094
 20
3992.999999821186
 30
0.0
 11
1023.000000000094
 21
4113.0
 31
0.0
  0
TEXT
  5
1FF
330
1F
100
AcDbEntity
  8
化粧台
  6
CONTINUOUS
 62
     2
100
AcDbText
 10
1557.000000536536
 20
3911.500003814697
 30
0.0
 40
59.99999618530273
  1
W.L.
 41
0.5571963512150641
  7
EXCADSTD
 72
     5
 11
1647.743400536536
 21
3911.500003814697
 31
0.0
100
AcDbText
  0
LINE
  5
200
330
1F
100
AcDbEntity
  8
化粧台
  6
EXLTYPE4
 62
     6
100
AcDbLine
 10
2528.000000000096
 20
897.0
 30
0.0
 11
1899.500000000095
 21
897.0
 31
0.0
  0
TEXT
  5
201
330
1F
100
AcDbEntity
  8
化粧台
  6
CONTINUOUS
 62
     2
100
AcDbText
 10
1899.500000000095
 20
897.0
 30
0.0
 40
59.99999618530273
  1
F.L.
 41
0.6227488631227187
  7
EXCADSTD
 72
     5
 11
1990.243400000095
 21
897.0
 31
0.0
100
AcDbText
  0
TEXT
  5
202
330
1F
100
AcDbEntity
  8
化粧台
  6
CONTINUOUS
 62
     2
100
AcDbText
 10
2528.000000000096
 20
2994.500000536442
 30
0.0
 40
59.99999618530273
  1
W.L.
 50
90.0
 41
0.5571963512150626
  7
EXCADSTD
 72
     5
 11
2528.000000000096
 21
3085.243400536442
 31
0.0
100
AcDbText
  0
LINE
  5
203
330
1F
100
AcDbEntity
  8
化粧台
  6
EXLTYPE4
 62
     6
100
AcDbLine
 10
2528.000000000096
 20
897.0
 30
0.0
 11
2528.000000000096
 21
3093.5
 31
0.0
  0
LINE
  5
204
330
1F
100
AcDbEntity
  8
化粧台
  6
CONTINUOUS
 62
     6
100
AcDbLine
 10
788.0000000000994
 20
3956.8
 30
0.0
 11
788.0000000000994
 21
4019.000000000002
 31
0.0
  0
LINE
  5
205
330
1F
100
AcDbEntity
  8
化粧台
  6
CONTINUOUS
 62
     6
100
AcDbLine
 10
788.0000000000994
 20
4004.000000000002
 30
0.0
 11
786.0000000000994
 21
3971.500000000002
 31
0.0
  0
LINE
  5
206
330
1F
100
AcDbEntity
  8
化粧台
  6
CONTINUOUS
 62
     6
100
AcDbLine
 10
790.0000000001012
 20
3971.500000000002
 30
0.0
 11
788.0000000000994
 21
4004.000000000002
 31
0.0
  0
LINE
  5
207
330
1F
100
AcDbEntity
  8
化粧台
  6
CONTINUOUS
 62
     6
100
AcDbLine
 10
1178.000000000098
 20
3956.8
 30
0.0
 11
1178.000000000098
 21
4019.000000000002
 31
0.0
  0
LINE
  5
208
330
1F
100
AcDbEntity
  8
化粧台
  6
CONTINUOUS
 62
     6
100
AcDbLine
 10
1178.000000000098
 20
4004.000000000002
 30
0.0
 11
1176.000000000098
 21
3971.500000000002
 31
0.0
  0
LINE
  5
209
330
1F
100
AcDbEntity
  8
化粧台
  6
CONTINUOUS
 62
     6
100
AcDbLine
 10
1180.000000000099
 20
3971.500000000002
 30
0.0
 11
1178.000000000098
 21
4004.000000000002
 31
0.0
  0
ARC
  5
20A
330
1F
100
AcDbEntity
  8
化粧台
  6
CONTINUOUS
 62
     2
100
AcDbCircle
 10
688.0000000000994
 20
3946.500000000038
 30
0.0
 40
5.0
100
AcDbArc
 50
180.0
 51
270.0000000000002
  0
ARC
  5
20B
330
1F
100
AcDbEntity
  8
化粧台
  6
CONTINUOUS
 62
     2
100
AcDbCircle
 10
781.2575899817778
 20
3666.500000000038
 30
0.0
 40
5.0
100
AcDbArc
 50
51.72879195205692
 51
90.00000000000004
  0
ARC
  5
20C
330
1F
100
AcDbEntity
  8
化粧台
  6
CONTINUOUS
 62
     2
100
AcDbCircle
 10
688.0000000000994
 20
3676.500000000038
 30
0.0
 40
5.0
100
AcDbArc
 50
180.0
 51
270.0000000000002
  0
LINE
  5
20D
330
1F
100
AcDbEntity
  8
化粧台
  6
CONTINUOUS
 62
     2
100
AcDbLine
 10
683.0000000000994
 20
3971.500000000038
 30
0.0
 11
683.0000000000994
 21
3676.500000000038
 31
0.0
  0
LINE
  5
20E
330
1F
100
AcDbEntity
  8
化粧台
  6
CONTINUOUS
 62
     2
100
AcDbLine
 10
781.2575899817778
 20
3671.500000000038
 30
0.0
 11
688.0000000000994
 21
3671.500000000038
 31
0.0
  0
ELLIPSE
  5
20F
330
1F
100
AcDbEntity
  8
化粧台
  6
CONTINUOUS
 62
     2
100
AcDbEllipse
 10
983.0000000000975
 20
3917.67389827691
 30
0.0
 11
12.00000000000001
 21
0.0
 31
0.0
210
0.0
220
0.0
230
1.0
 40
0.2903763590166665
 41
0.0
 42
6.283185307179586
  0
LINE
  5
210
330
1F
100
AcDbEntity
  8
化粧台
  6
CONTINUOUS
 62
     6
100
AcDbLine
 10
998.0000000000975
 20
3917.673898276938
 30
0.0
 11
968.0000000000975
 21
3917.673898276938
 31
0.0
  0
ARC
  5
211
330
1F
100
AcDbEntity
  8
化粧台
  6
CONTINUOUS
 62
     2
100
AcDbCircle
 10
983.0000000000975
 20
4009.4721187686
 30
0.0
 40
112.9721187685906
100
AcDbArc
 50
224.0817618104601
 51
315.9182381895401
  0
ARC
  5
212
330
1F
100
AcDbEntity
  8
化粧台
  6
CONTINUOUS
 62
     2
100
AcDbCircle
 10
1278.000000000098
 20
3946.500000000038
 30
0.0
 40
5.0
100
AcDbArc
 50
270.0000000000002
 51
0.0
  0
LINE
  5
213
330
1F
100
AcDbEntity
  8
化粧台
  6
CONTINUOUS
 62
     2
100
AcDbLine
 10
688.0000000000975
 20
3941.500000000038
 30
0.0
 11
1278.000000000098
 21
3941.500000000038
 31
0.0
  0
LINE
  5
214
330
1F
100
AcDbEntity
  8
化粧台
  6
CONTINUOUS
 62
     2
100
AcDbLine
 10
683.0000000000975
 20
3971.500000000038
 30
0.0
 11
1283.000000000098
 21
3971.500000000038
 31
0.0
  0
ARC
  5
215
330
1F
100
AcDbEntity
  8
化粧台
  6
CONTINUOUS
 62
     2
100
AcDbCircle
 10
1184.742410018417
 20
3666.500000000038
 30
0.0
 40
5.0
100
AcDbArc
 50
90.00000000000004
 51
128.2712080479444
  0
LINE
  5
216
330
1F
100
AcDbEntity
  8
化粧台
  6
EXLTYPE3
 62
     6
100
AcDbLine
 10
1166.000000000098
 20
3871.500000000038
 30
0.0
 11
1210.000000000098
 21
3871.500000000038
 31
0.0
  0
LINE
  5
217
330
1F
100
AcDbEntity
  8
化粧台
  6
EXLTYPE3
 62
     6
100
AcDbLine
 10
1188.000000000098
 20
3849.500000000038
 30
0.0
 11
1188.000000000098
 21
3893.500000000038
 31
0.0
  0
ARC
  5
218
330
1F
100
AcDbEntity
  8
化粧台
  6
CONTINUOUS
 62
     2
100
AcDbCircle
 10
1278.000000000098
 20
3676.500000000038
 30
0.0
 40
5.0
100
AcDbArc
 50
270.0000000000002
 51
0.0
  0
ARC
  5
219
330
1F
100
AcDbEntity
  8
化粧台
  6
CONTINUOUS
 62
     2
100
AcDbCircle
 10
983.0000000000975
 20
3922.214285714324
 30
0.0
 40
320.7142857142863
100
AcDbArc
 50
231.7287919520556
 51
308.2712080479444
  0
LINE
  5
21A
330
1F
100
AcDbEntity
  8
化粧台
  6
CONTINUOUS
 62
     2
100
AcDbLine
 10
1283.000000000098
 20
3971.500000000038
 30
0.0
 11
1283.000000000098
 21
3676.500000000038
 31
0.0
  0
LINE
  5
21B
330
1F
100
AcDbEntity
  8
化粧台
  6
CONTINUOUS
 62
     2
100
AcDbLine
 10
1184.742410018417
 20
3671.500000000038
 30
0.0
 11
1278.000000000098
 21
3671.500000000038
 31
0.0
  0
LINE
  5
21C
330
1F
100
AcDbEntity
  8
化粧台
  6
EXLTYPE3
 62
     6
100
AcDbLine
 10
937.5000000000975
 20
3846.500000000038
 30
0.0
 11
1028.500000000098
 21
3846.500000000038
 31
0.0
  0
ARC
  5
21D
330
1F
100
AcDbEntity
  8
化粧台
  6
CONTINUOUS
 62
     2
100
AcDbCircle
 10
983.0000000000975
 20
3781.500000000038
 30
0.0
 40
170.0
100
AcDbArc
 50
29.97878780140052
 51
61.48608474031997
  0
ARC
  5
21E
330
1F
100
AcDbEntity
  8
化粧台
  6
CONTINUOUS
 62
     2
100
AcDbCircle
 10
983.0000000000975
 20
3781.500000000038
 30
0.0
 40
170.0
100
AcDbArc
 50
118.5139152596804
 51
19.8173968582466
  0
LINE
  5
21F
330
1F
100
AcDbEntity
  8
化粧台
  6
CONTINUOUS
 62
     6
100
AcDbLine
 10
1174.662461703582
 20
3846.55063230001
 30
0.0
 11
1175.80088194884
 21
3849.678416217667
 31
0.0
  0
LINE
  5
220
330
1F
100
AcDbEntity
  8
化粧台
  6
CONTINUOUS
 62
     6
100
AcDbLine
 10
1182.18000266987
 20
3843.814471153406
 30
0.0
 11
1183.31842291513
 21
3846.94225507107
 31
0.0
  0
ELLIPSE
  5
221
330
1F
100
AcDbEntity
  8
化粧台
  6
CONTINUOUS
 62
     6
100
AcDbEllipse
 10
1177.985766940486
 20
3843.986120795752
 30
0.0
 11
-7.047694655894399
 21
2.565151074942548
 31
0.0
210
0.0
220
0.0
230
1.0
 40
0.2006868301783938
 41
3.141592653589788
 42
6.283185307179586
  0
ELLIPSE
  5
222
330
1F
100
AcDbEntity
  8
化粧台
  6
CONTINUOUS
 62
     6
100
AcDbEllipse
 10
1155.389032142727
 20
3781.902102185509
 30
0.0
 11
-7.047694655894399
 21
2.565151074942548
 31
0.0
210
0.0
220
0.0
230
1.0
 40
0.2006868301783938
 41
0.0
 42
6.283185307179586
  0
LINE
  5
223
330
1F
100
AcDbEntity
  8
化粧台
  6
CONTINUOUS
 62
     6
100
AcDbLine
 10
1165.745708475967
 20
3888.967323355522
 30
0.0
 11
1168.628289726815
 21
3887.303064294372
 31
0.0
  0
LINE
  5
224
330
1F
100
AcDbEntity
  8
化粧台
  6
CONTINUOUS
 62
     6
100
AcDbLine
 10
1161.745708475967
 20
3882.039120125248
 30
0.0
 11
1164.628289726822
 21
3880.374861064092
 31
0.0
  0
ELLIPSE
  5
225
330
1F
100
AcDbEntity
  8
化粧台
  6
CONTINUOUS
 62
     6
100
AcDbEllipse
 10
1162.643071765665
 20
3886.139829341916
 30
0.0
 11
3.750000000000112
 21
6.495190528383489
 31
0.0
210
0.0
220
0.0
230
1.0
 40
0.2006868301783902
 41
3.141592653589788
 42
6.283185307179586
  0
ELLIPSE
  5
226
330
1F
100
AcDbEntity
  8
化粧台
  6
CONTINUOUS
 62
     6
100
AcDbEllipse
 10
1105.426130718998
 20
3919.174045657416
 30
0.0
 11
3.750000000000112
 21
6.495190528383489
 31
0.0
210
0.0
220
0.0
230
1.0
 40
0.2006868301783902
 41
0.0
 42
6.283185307179586
  0
LINE
  5
227
330
1F
100
AcDbEntity
  8
化粧台
  6
CONTINUOUS
 62
     6
100
AcDbLine
 10
1160.314471153329
 20
3865.680002669812
 30
0.0
 11
1163.442255070994
 21
3866.818422915047
 31
0.0
  0
LINE
  5
228
330
1F
100
AcDbEntity
  8
化粧台
  6
CONTINUOUS
 62
     6
100
AcDbLine
 10
1163.050632299935
 20
3858.162461703526
 30
0.0
 11
1166.178416217607
 21
3859.300881948764
 31
0.0
  0
LINE
  5
229
330
1F
100
AcDbEntity
  8
化粧台
  6
CONTINUOUS
 62
     6
100
AcDbLine
 10
1163.051271870606
 20
3854.438072284567
 30
0.0
 11
1100.967253260367
 21
3831.841337486811
 31
0.0
  0
LINE
  5
22A
330
1F
100
AcDbEntity
  8
化粧台
  6
CONTINUOUS
 62
     6
100
AcDbLine
 10
1157.92096972072
 20
3868.533461596358
 30
0.0
 11
1095.836951110482
 21
3845.936726798602
 31
0.0
  0
ELLIPSE
  5
22B
330
1F
100
AcDbEntity
  8
化粧台
  6
CONTINUOUS
 62
     6
100
AcDbEllipse
 10
1160.486120795663
 20
3861.48576694046
 30
0.0
 11
-2.56515107494252
 21
7.047694655894312
 31
0.0
210
0.0
220
0.0
230
1.0
 40
0.2006868301783963
 41
3.141592653589788
 42
6.283185307179586
  0
ARC
  5
22C
330
1F
100
AcDbEntity
  8
化粧台
  6
CONTINUOUS
 62
     6
100
AcDbCircle
 10
1187.999999999977
 20
3871.500000000025
 30
0.0
 40
27.00000000000002
100
AcDbArc
 50
233.7489885958695
 51
166.2510114040933
  0
LINE
  5
22D
330
1F
100
AcDbEntity
  8
化粧台
  6
CONTINUOUS
 62
     6
100
AcDbLine
 10
1079.154223073055
 20
3815.920710485913
 30
0.0
 11
1174.336449734147
 21
3850.564207821732
 31
0.0
  0
LINE
  5
22E
330
1F
100
AcDbEntity
  8
化粧台
  6
CONTINUOUS
 62
     6
100
AcDbLine
 10
1068.893618773283
 20
3844.111489109492
 30
0.0
 11
1164.075845434386
 21
3878.754986445313
 31
0.0
  0
CIRCLE
  5
22F
330
1F
100
AcDbEntity
  8
化粧台
  6
CONTINUOUS
 62
     6
100
AcDbCircle
 10
1187.999999999977
 20
3871.500000000025
 30
0.0
 40
24.99999999999103
  0
ELLIPSE
  5
230
330
1F
100
AcDbEntity
  8
化粧台
  6
CONTINUOUS
 62
     6
100
AcDbEllipse
 10
1098.402102185422
 20
3838.889032142703
 30
0.0
 11
-2.56515107494252
 21
7.047694655894312
 31
0.0
210
0.0
220
0.0
230
1.0
 40
0.2006868301783963
 41
0.0
 42
6.283185307179586
  0
ELLIPSE
  5
231
330
1F
100
AcDbEntity
  8
化粧台
  6
CONTINUOUS
 62
     6
100
AcDbEllipse
 10
1074.023920923171
 20
3830.016099797696
 30
0.0
 11
-5.130302149885037
 21
14.09538931178862
 31
0.0
210
0.0
220
0.0
230
1.0
 40
0.2032242918773345
 41
0.0
 42
6.283185307179586
  0
ARC
  5
232
330
1F
100
AcDbEntity
  8
化粧台
  6
CONTINUOUS
 62
     6
100
AcDbCircle
 10
688.0000000000994
 20
3938.433478461557
 30
0.0
 40
5.0
100
AcDbArc
 50
180.0
 51
264.2241517557764
  0
LINE
  5
233
330
1F
100
AcDbEntity
  8
化粧台
  6
CONTINUOUS
 62
     6
100
AcDbLine
 10
698.0000000001394
 20
3932.39646065621
 30
0.0
 11
687.4968154076898
 21
3933.458862369238
 31
0.0
  0
LINE
  5
234
330
1F
100
AcDbEntity
  8
化粧台
  6
CONTINUOUS
 62
     6
100
AcDbLine
 10
901.8467290691781
 20
3930.87920409891
 30
0.0
 11
698.0000000001394
 21
3932.39646065621
 31
0.0
  0
LINE
  5
235
330
1F
100
AcDbEntity
  8
化粧台
  6
CONTINUOUS
 62
     6
100
AcDbLine
 10
698.0000000000975
 20
3932.396460656214
 30
0.0
 11
698.0000000000975
 21
3671.500000000038
 31
0.0
  0
LINE
  5
236
330
1F
100
AcDbEntity
  8
化粧台
  6
CONTINUOUS
 62
     6
100
AcDbLine
 10
1064.153270931017
 20
3930.87920409891
 30
0.0
 11
1268.000000000058
 21
3932.39646065621
 31
0.0
  0
LINE
  5
237
330
1F
100
AcDbEntity
  8
化粧台
  6
CONTINUOUS
 62
     6
100
AcDbLine
 10
1268.000000000058
 20
3932.39646065621
 30
0.0
 11
1278.503184592505
 21
3933.458862369238
 31
0.0
  0
ARC
  5
238
330
1F
100
AcDbEntity
  8
化粧台
  6
CONTINUOUS
 62
     6
100
AcDbCircle
 10
1278.000000000098
 20
3938.433478461557
 30
0.0
 40
5.0
100
AcDbArc
 50
275.7758482442237
 51
0.0
  0
LINE
  5
239
330
1F
100
AcDbEntity
  8
化粧台
  6
CONTINUOUS
 62
     6
100
AcDbLine
 10
1268.000000000098
 20
3932.396460656214
 30
0.0
 11
1268.000000000098
 21
3671.500000000038
 31
0.0
  0
LINE
  5
23A
330
1F
100
AcDbEntity
  8
化粧台
  6
CONTINUOUS
 62
     6
100
AcDbLine
 10
1218.000000000056
 20
1967.00000000011
 30
0.0
 11
1218.000000000056
 21
1937.00000000011
 31
0.0
  0
LINE
  5
23B
330
1F
100
AcDbEntity
  8
化粧台
  6
CONTINUOUS
 62
     6
100
AcDbLine
 10
1233.000000000056
 20
1952.00000000011
 30
0.0
 11
1203.000000000056
 21
1952.00000000011
 31
0.0
  0
CIRCLE
  5
23C
330
1F
100
AcDbEntity
  8
化粧台
  6
CONTINUOUS
 62
     6
100
AcDbCircle
 10
1218.000000000058
 20
1952.0000000001
 30
0.0
 40
5.0
  0
LINE
  5
23D
330
1F
100
AcDbEntity
  8
化粧台
  6
CONTINUOUS
 62
     2
100
AcDbLine
 10
688.0000000000575
 20
2812.0000000001
 30
0.0
 11
1278.000000000058
 21
2812.0000000001
 31
0.0
  0
LINE
  5
23E
330
1F
100
AcDbEntity
  8
化粧台
  6
CONTINUOUS
 62
     2
100
AcDbLine
 10
1283.000000000058
 20
2807.0000000001
 30
0.0
 11
1283.000000000058
 21
1687.0000000001
 31
0.0
  0
ARC
  5
23F
330
1F
100
AcDbEntity
  8
化粧台
  6
CONTINUOUS
 62
     2
100
AcDbCircle
 10
1278.000000000058
 20
1687.0000000001
 30
0.0
 40
5.0
100
AcDbArc
 50
270.0000000000002
 51
0.0
  0
LINE
  5
240
330
1F
100
AcDbEntity
  8
化粧台
  6
CONTINUOUS
 62
     2
100
AcDbLine
 10
683.0000000000575
 20
2807.0000000001
 30
0.0
 11
683.0000000000575
 21
1687.0000000001
 31
0.0
  0
ARC
  5
241
330
1F
100
AcDbEntity
  8
化粧台
  6
CONTINUOUS
 62
     2
100
AcDbCircle
 10
688.0000000000575
 20
1687.0000000001
 30
0.0
 40
5.0
100
AcDbArc
 50
180.0
 51
270.0000000000002
  0
ARC
  5
242
330
1F
100
AcDbEntity
  8
化粧台
  6
CONTINUOUS
 62
     2
100
AcDbCircle
 10
688.0000000000575
 20
2807.0000000001
 30
0.0
 40
5.0
100
AcDbArc
 50
90.00000000000004
 51
180.0
  0
ARC
  5
243
330
1F
100
AcDbEntity
  8
化粧台
  6
CONTINUOUS
 62
     2
100
AcDbCircle
 10
693.735375776999
 20
2801.219601154438
 30
0.0
 40
5.0
100
AcDbArc
 50
90.00000000000004
 51
179.2070426958561
  0
LINE
  5
244
330
1F
100
AcDbEntity
  8
化粧台
  6
CONTINUOUS
 62
     2
100
AcDbLine
 10
687.5563640960074
 20
2716.06918540278
 30
0.0
 11
688.7358546136886
 21
2801.288797524362
 31
0.0
  0
ARC
  5
245
330
1F
100
AcDbEntity
  8
化粧台
  6
CONTINUOUS
 62
     2
100
AcDbCircle
 10
692.5558852593178
 20
2715.999989032858
 30
0.0
 40
5.0
100
AcDbArc
 50
179.2070426958561
 51
270.0000000000002
  0
ARC
  5
246
330
1F
100
AcDbEntity
  8
化粧台
  6
CONTINUOUS
 62
     2
100
AcDbCircle
 10
752.6850027415505
 20
2715.999989032858
 30
0.0
 40
5.0
100
AcDbArc
 50
270.0000000000002
 51
0.3568489566055377
  0
LINE
  5
247
330
1F
100
AcDbEntity
  8
化粧台
  6
CONTINUOUS
 62
     2
100
AcDbLine
 10
757.1541350330856
 20
2801.250741899236
 30
0.0
 11
757.6849057660122
 21
2716.031129777655
 31
0.0
  0
ARC
  5
248
330
1F
100
AcDbEntity
  8
化粧台
  6
CONTINUOUS
 62
     2
100
AcDbCircle
 10
752.1542320086257
 20
2801.219601154438
 30
0.0
 40
5.0
100
AcDbArc
 50
0.3568489566055377
 51
90.00000000000004
  0
ARC
  5
249
330
1F
100
AcDbEntity
  8
化粧台
  6
CONTINUOUS
 62
     2
100
AcDbCircle
 10
762.5250047963575
 20
2797.0000023843
 30
0.0
 40
4.0
100
AcDbArc
 50
90.00000000000004
 51
180.0
  0
LINE
  5
24A
330
1F
100
AcDbEntity
  8
化粧台
  6
CONTINUOUS
 62
     2
100
AcDbLine
 10
758.5250047963575
 20
2797.0000023843
 30
0.0
 11
758.5250047963575
 21
2714.5796797536
 31
0.0
  0
ARC
  5
24B
330
1F
100
AcDbEntity
  8
化粧台
  6
CONTINUOUS
 62
     2
100
AcDbCircle
 10
761.0250047963575
 20
2714.5796797536
 30
0.0
 40
2.5
100
AcDbArc
 50
180.0
 51
270.0000000000002
  0
ARC
  5
24C
330
1F
100
AcDbEntity
  8
化粧台
  6
CONTINUOUS
 62
     2
100
AcDbCircle
 10
1278.000000000058
 20
2807.0000000001
 30
0.0
 40
5.0
100
AcDbArc
 50
0.0
 51
90.00000000000004
  0
ARC
  5
24D
330
1F
100
AcDbEntity
  8
化粧台
  6
CONTINUOUS
 62
     2
100
AcDbCircle
 10
1272.264624223116
 20
2801.219601154438
 30
0.0
 40
5.0
100
AcDbArc
 50
0.7929573041439498
 51
90.00000000000004
  0
LINE
  5
24E
330
1F
100
AcDbEntity
  8
化粧台
  6
CONTINUOUS
 62
     2
100
AcDbLine
 10
1278.443635904108
 20
2716.06918540278
 30
0.0
 11
1277.264145386426
 21
2801.288797524362
 31
0.0
  0
ARC
  5
24F
330
1F
100
AcDbEntity
  8
化粧台
  6
CONTINUOUS
 62
     2
100
AcDbCircle
 10
1273.444114740797
 20
2715.999989032858
 30
0.0
 40
5.0
100
AcDbArc
 50
270.0000000000002
 51
0.7929573041439498
  0
ARC
  5
250
330
1F
100
AcDbEntity
  8
化粧台
  6
CONTINUOUS
 62
     2
100
AcDbCircle
 10
1213.314997258565
 20
2715.999989032858
 30
0.0
 40
5.0
100
AcDbArc
 50
179.6431510433946
 51
270.0000000000002
  0
LINE
  5
251
330
1F
100
AcDbEntity
  8
化粧台
  6
CONTINUOUS
 62
     2
100
AcDbLine
 10
1208.845864967029
 20
2801.250741899236
 30
0.0
 11
1208.315094234103
 21
2716.031129777655
 31
0.0
  0
ARC
  5
252
330
1F
100
AcDbEntity
  8
化粧台
  6
CONTINUOUS
 62
     2
100
AcDbCircle
 10
1213.845767991489
 20
2801.219601154438
 30
0.0
 40
5.0
100
AcDbArc
 50
90.00000000000004
 51
179.6431510433946
  0
ARC
  5
253
330
1F
100
AcDbEntity
  8
化粧台
  6
CONTINUOUS
 62
     2
100
AcDbCircle
 10
1203.474995203758
 20
2797.0000023843
 30
0.0
 40
4.0
100
AcDbArc
 50
0.0
 51
90.00000000000004
  0
LINE
  5
254
330
1F
100
AcDbEntity
  8
化粧台
  6
CONTINUOUS
 62
     2
100
AcDbLine
 10
1207.474995203758
 20
2797.0000023843
 30
0.0
 11
1207.474995203758
 21
2714.5796797536
 31
0.0
  0
ARC
  5
255
330
1F
100
AcDbEntity
  8
化粧台
  6
CONTINUOUS
 62
     2
100
AcDbCircle
 10
1204.974995203758
 20
2714.5796797536
 30
0.0
 40
2.5
100
AcDbArc
 50
270.0000000000002
 51
0.0
  0
LINE
  5
256
330
1F
100
AcDbEntity
  8
化粧台
  6
CONTINUOUS
 62
     2
100
AcDbLine
 10
1203.474995203758
 20
2801.0000023843
 30
0.0
 11
762.5250047963575
 21
2801.0000023843
 31
0.0
  0
LINE
  5
257
330
1F
100
AcDbEntity
  8
化粧台
  6
CONTINUOUS
 62
     2
100
AcDbLine
 10
1204.974995203758
 20
2712.079679753599
 30
0.0
 11
761.0250047963575
 21
2712.0796797536
 31
0.0
  0
ARC
  5
258
330
1F
100
AcDbEntity
  8
化粧台
  6
CONTINUOUS
 62
     2
100
AcDbCircle
 10
702.6418217051571
 20
2701.499983310813
 30
0.0
 40
7.000000000000004
100
AcDbArc
 50
270.0000000000002
 51
327.7243556854218
  0
ARC
  5
259
330
1F
100
AcDbEntity
  8
化粧台
  6
CONTINUOUS
 62
     2
100
AcDbCircle
 10
717.4605206982044
 20
2694.999983310813
 30
0.0
 40
9.0
100
AcDbArc
 50
90.00000000000004
 51
147.7243556854208
  0
ARC
  5
25A
330
1F
100
AcDbEntity
  8
化粧台
  6
CONTINUOUS
 62
     2
100
AcDbCircle
 10
1042.539484331023
 20
2694.999983310813
 30
0.0
 40
9.0
100
AcDbArc
 50
32.27564431460496
 51
90.00000000000004
  0
ARC
  5
25B
330
1F
100
AcDbEntity
  8
化粧台
  6
CONTINUOUS
 62
     2
100
AcDbCircle
 10
1057.358183324073
 20
2701.499983310813
 30
0.0
 40
7.000000000000004
100
AcDbArc
 50
212.2756443146019
 51
270.0000000000002
  0
ARC
  5
25C
330
1F
100
AcDbEntity
  8
化粧台
  6
CONTINUOUS
 62
     2
100
AcDbCircle
 10
1085.641821705153
 20
2701.499981403463
 30
0.0
 40
7.000000000000004
100
AcDbArc
 50
270.0000000000002
 51
327.72435568538
  0
ARC
  5
25D
330
1F
100
AcDbEntity
  8
化粧台
  6
CONTINUOUS
 62
     2
100
AcDbCircle
 10
1100.460520698204
 20
2694.999981403463
 30
0.0
 40
9.0
100
AcDbArc
 50
90.00000000000004
 51
147.7243556853742
  0
ARC
  5
25E
330
1F
100
AcDbEntity
  8
化粧台
  6
CONTINUOUS
 62
     2
100
AcDbCircle
 10
1248.539484331023
 20
2694.999981403463
 30
0.0
 40
9.0
100
AcDbArc
 50
32.27564431457362
 51
90.00000000000004
  0
ARC
  5
25F
330
1F
100
AcDbEntity
  8
化粧台
  6
CONTINUOUS
 62
     2
100
AcDbCircle
 10
1263.358183324073
 20
2701.499981403463
 30
0.0
 40
7.000000000000004
100
AcDbArc
 50
212.2756443145753
 51
270.0000000000002
  0
ARC
  5
260
330
1F
100
AcDbEntity
  8
化粧台
  6
CONTINUOUS
 62
     2
100
AcDbCircle
 10
1263.358183324073
 20
1946.50032304269
 30
0.0
 40
7.000000000000004
100
AcDbArc
 50
90.00000000000004
 51
147.724355685413
  0
ARC
  5
261
330
1F
100
AcDbEntity
  8
化粧台
  6
CONTINUOUS
 62
     2
100
AcDbCircle
 10
1248.539484331025
 20
1953.00032304269
 30
0.0
 40
9.0
100
AcDbArc
 50
270.0000000000002
 51
327.7243556854137
  0
ARC
  5
262
330
1F
100
AcDbEntity
  8
化粧台
  6
CONTINUOUS
 62
     2
100
AcDbCircle
 10
1100.460520698204
 20
1953.00032304269
 30
0.0
 40
9.0
100
AcDbArc
 50
212.2756443146302
 51
270.0000000000002
  0
ARC
  5
263
330
1F
100
AcDbEntity
  8
化粧台
  6
CONTINUOUS
 62
     2
100
AcDbCircle
 10
1085.641821705153
 20
1946.50032304269
 30
0.0
 40
7.000000000000004
100
AcDbArc
 50
32.27564431463194
 51
90.00000000000004
  0
ARC
  5
264
330
1F
100
AcDbEntity
  8
化粧台
  6
CONTINUOUS
 62
     2
100
AcDbCircle
 10
1057.358183324156
 20
1946.500324950039
 30
0.0
 40
7.000000000000004
100
AcDbArc
 50
90.00000000000004
 51
147.724355685447
  0
ARC
  5
265
330
1F
100
AcDbEntity
  8
化粧台
  6
CONTINUOUS
 62
     2
100
AcDbCircle
 10
1042.539484331111
 20
1953.000324950039
 30
0.0
 40
9.0
100
AcDbArc
 50
270.0000000000002
 51
327.7243556854473
  0
ARC
  5
266
330
1F
100
AcDbEntity
  8
化粧台
  6
CONTINUOUS
 62
     2
100
AcDbCircle
 10
717.4605206982026
 20
1953.000324950039
 30
0.0
 40
9.0
100
AcDbArc
 50
212.2756443145578
 51
270.0000000000002
  0
ARC
  5
267
330
1F
100
AcDbEntity
  8
化粧台
  6
CONTINUOUS
 62
     2
100
AcDbCircle
 10
702.6418217051571
 20
1946.500324950039
 30
0.0
 40
7.000000000000004
100
AcDbArc
 50
32.275644314557
 51
90.00000000000004
  0
LINE
  5
268
330
1F
100
AcDbEntity
  8
化粧台
  6
CONTINUOUS
 62
     2
100
AcDbLine
 10
1278.000000000058
 20
1892.0000000001
 30
0.0
 11
688.0000000000575
 21
1892.0000000001
 31
0.0
  0
ARC
  5
269
330
1F
100
AcDbEntity
  8
化粧台
  6
CONTINUOUS
 62
     2
100
AcDbCircle
 10
688.0000000000575
 20
1897.0000000001
 30
0.0
 40
5.0
100
AcDbArc
 50
180.0
 51
270.0000000000002
  0
ARC
  5
26A
330
1F
100
AcDbEntity
  8
化粧台
  6
CONTINUOUS
 62
     2
100
AcDbCircle
 10
1278.000000000058
 20
1897.0000000001
 30
0.0
 40
5.0
100
AcDbArc
 50
270.0000000000002
 51
0.0
  0
ARC
  5
26B
330
1F
100
AcDbEntity
  8
化粧台
  6
CONTINUOUS
 62
     2
100
AcDbCircle
 10
1088.999989163184
 20
1933.499983400218
 30
0.0
 40
4.5
100
AcDbArc
 50
90.00000000000004
 51
180.0
  0
ARC
  5
26C
330
1F
100
AcDbEntity
  8
化粧台
  6
CONTINUOUS
 62
     2
100
AcDbCircle
 10
1259.999996315742
 20
1933.499983400218
 30
0.0
 40
4.5
100
AcDbArc
 50
0.0
 51
90.00000000000004
  0
LINE
  5
26D
330
1F
100
AcDbEntity
  8
化粧台
  6
CONTINUOUS
 62
     2
100
AcDbLine
 10
752.6850027415505
 20
2710.999989032858
 30
0.0
 11
692.5558852593178
 21
2710.999989032858
 31
0.0
  0
LINE
  5
26E
330
1F
100
AcDbEntity
  8
化粧台
  6
CONTINUOUS
 62
     2
100
AcDbLine
 10
693.735375776999
 20
2806.219601154438
 30
0.0
 11
752.1542320086239
 21
2806.219601154438
 31
0.0
  0
LINE
  5
26F
330
1F
100
AcDbEntity
  8
化粧台
  6
CONTINUOUS
 62
     2
100
AcDbLine
 10
1213.314997258565
 20
2710.999989032858
 30
0.0
 11
1273.444114740797
 21
2710.999989032858
 31
0.0
  0
LINE
  5
270
330
1F
100
AcDbEntity
  8
化粧台
  6
CONTINUOUS
 62
     2
100
AcDbLine
 10
1272.264624223116
 20
2806.219601154438
 30
0.0
 11
1213.845767991491
 21
2806.219601154438
 31
0.0
  0
LINE
  5
271
330
1F
100
AcDbEntity
  8
化粧台
  6
CONTINUOUS
 62
     2
100
AcDbLine
 10
1276.000002514614
 20
2680.499981403463
 30
0.0
 11
1073.000002514614
 21
2680.499981403463
 31
0.0
  0
LINE
  5
272
330
1F
100
AcDbEntity
  8
化粧台
  6
CONTINUOUS
 62
     2
100
AcDbLine
 10
1070.000002514616
 20
2680.499983310813
 30
0.0
 11
690.0000025146157
 21
2680.499983310813
 31
0.0
  0
LINE
  5
273
330
1F
100
AcDbEntity
  8
化粧台
  6
CONTINUOUS
 62
     2
100
AcDbLine
 10
1070.000002514616
 20
1967.500324950039
 30
0.0
 11
690.0000025146157
 21
1967.500324950039
 31
0.0
  0
LINE
  5
274
330
1F
100
AcDbEntity
  8
化粧台
  6
CONTINUOUS
 62
     2
100
AcDbLine
 10
1276.000002514614
 20
1967.500323042688
 30
0.0
 11
1073.000002514614
 21
1967.500323042688
 31
0.0
  0
LINE
  5
275
330
1F
100
AcDbEntity
  8
化粧台
  6
CONTINUOUS
 62
     2
100
AcDbLine
 10
702.6418217051553
 20
2694.499983310813
 30
0.0
 11
690.0000025146157
 21
2694.499983310813
 31
0.0
  0
LINE
  5
276
330
1F
100
AcDbEntity
  8
化粧台
  6
CONTINUOUS
 62
     2
100
AcDbLine
 10
709.8511205709267
 20
2699.805920233305
 30
0.0
 11
708.5602440263731
 21
2697.762032371097
 31
0.0
  0
LINE
  5
277
330
1F
100
AcDbEntity
  8
化粧台
  6
CONTINUOUS
 62
     2
100
AcDbLine
 10
1057.358183324071
 20
2694.499983310813
 30
0.0
 11
1070.000002514616
 21
2694.499983310813
 31
0.0
  0
LINE
  5
278
330
1F
100
AcDbEntity
  8
化粧台
  6
CONTINUOUS
 62
     2
100
AcDbLine
 10
1050.148884458299
 20
2699.805920233308
 30
0.0
 11
1051.439761002857
 21
2697.762032371094
 31
0.0
  0
LINE
  5
279
330
1F
100
AcDbEntity
  8
化粧台
  6
CONTINUOUS
 62
     2
100
AcDbLine
 10
1085.641821705153
 20
2694.499981403463
 30
0.0
 11
1073.000002514614
 21
2694.499981403463
 31
0.0
  0
LINE
  5
27A
330
1F
100
AcDbEntity
  8
化粧台
  6
CONTINUOUS
 62
     2
100
AcDbLine
 10
1092.851120570929
 20
2699.805918325962
 30
0.0
 11
1091.560244026368
 21
2697.762030463743
 31
0.0
  0
LINE
  5
27B
330
1F
100
AcDbEntity
  8
化粧台
  6
CONTINUOUS
 62
     2
100
AcDbLine
 10
1263.358183324073
 20
2694.499981403463
 30
0.0
 11
1276.000002514614
 21
2694.499981403463
 31
0.0
  0
LINE
  5
27C
330
1F
100
AcDbEntity
  8
化粧台
  6
CONTINUOUS
 62
     2
100
AcDbLine
 10
1256.148884458303
 20
2699.805918325955
 30
0.0
 11
1257.439761002855
 21
2697.762030463748
 31
0.0
  0
LINE
  5
27D
330
1F
100
AcDbEntity
  8
化粧台
  6
CONTINUOUS
 62
     2
100
AcDbLine
 10
1263.358183324073
 20
1953.50032304269
 30
0.0
 11
1276.000002514614
 21
1953.50032304269
 31
0.0
  0
LINE
  5
27E
330
1F
100
AcDbEntity
  8
化粧台
  6
CONTINUOUS
 62
     2
100
AcDbLine
 10
1256.148884458303
 20
1948.194386120197
 30
0.0
 11
1257.439761002857
 21
1950.238273982406
 31
0.0
  0
LINE
  5
27F
330
1F
100
AcDbEntity
  8
化粧台
  6
CONTINUOUS
 62
     2
100
AcDbLine
 10
1085.641821705153
 20
1953.50032304269
 30
0.0
 11
1073.000002514614
 21
1953.50032304269
 31
0.0
  0
LINE
  5
280
330
1F
100
AcDbEntity
  8
化粧台
  6
CONTINUOUS
 62
     2
100
AcDbLine
 10
1092.85112057093
 20
1948.194386120191
 30
0.0
 11
1091.560244026368
 21
1950.238273982411
 31
0.0
  0
LINE
  5
281
330
1F
100
AcDbEntity
  8
化粧台
  6
CONTINUOUS
 62
     2
100
AcDbLine
 10
1057.358183324156
 20
1953.500324950039
 30
0.0
 11
1070.000002514698
 21
1953.500324950039
 31
0.0
  0
LINE
  5
282
330
1F
100
AcDbEntity
  8
化粧台
  6
CONTINUOUS
 62
     2
100
AcDbLine
 10
1050.14888445839
 20
1948.194388027551
 30
0.0
 11
1051.439761002938
 21
1950.238275889753
 31
0.0
  0
LINE
  5
283
330
1F
100
AcDbEntity
  8
化粧台
  6
CONTINUOUS
 62
     2
100
AcDbLine
 10
702.6418217051553
 20
1953.500324950039
 30
0.0
 11
690.0000025146157
 21
1953.500324950039
 31
0.0
  0
LINE
  5
284
330
1F
100
AcDbEntity
  8
化粧台
  6
CONTINUOUS
 62
     2
100
AcDbLine
 10
709.8511205709231
 20
1948.19438802755
 30
0.0
 11
708.5602440263749
 21
1950.238275889753
 31
0.0
  0
LINE
  5
285
330
1F
100
AcDbEntity
  8
化粧台
  6
CONTINUOUS
 62
     2
100
AcDbLine
 10
1070.000002514616
 20
2694.499983310813
 30
0.0
 11
1070.000002514616
 21
1953.50032304269
 31
0.0
  0
LINE
  5
286
330
1F
100
AcDbEntity
  8
化粧台
  6
CONTINUOUS
 62
     2
100
AcDbLine
 10
1276.000002514614
 20
2694.499981403463
 30
0.0
 11
1276.000002514614
 21
1953.50032304269
 31
0.0
  0
LINE
  5
287
330
1F
100
AcDbEntity
  8
化粧台
  6
CONTINUOUS
 62
     2
100
AcDbLine
 10
1042.539484331022
 20
2703.999983310813
 30
0.0
 11
690.0000025146157
 21
2703.999983310813
 31
0.0
  0
LINE
  5
288
330
1F
100
AcDbEntity
  8
化粧台
  6
CONTINUOUS
 62
     2
100
AcDbLine
 10
690.0000025146157
 20
2703.999983310813
 30
0.0
 11
690.0000025146157
 21
1944.000324950039
 31
0.0
  0
LINE
  5
289
330
1F
100
AcDbEntity
  8
化粧台
  6
CONTINUOUS
 62
     2
100
AcDbLine
 10
1042.539484331111
 20
1944.000324950039
 30
0.0
 11
690.0000025146157
 21
1944.000324950039
 31
0.0
  0
LINE
  5
28A
330
1F
100
AcDbEntity
  8
化粧台
  6
CONTINUOUS
 62
     2
100
AcDbLine
 10
1248.539484331025
 20
1944.00032304269
 30
0.0
 11
1073.000002514614
 21
1944.00032304269
 31
0.0
  0
LINE
  5
28B
330
1F
100
AcDbEntity
  8
化粧台
  6
CONTINUOUS
 62
     2
100
AcDbLine
 10
1073.000002514614
 20
2703.999981403463
 30
0.0
 11
1073.000002514614
 21
1944.00032304269
 31
0.0
  0
LINE
  5
28C
330
1F
100
AcDbEntity
  8
化粧台
  6
CONTINUOUS
 62
     2
100
AcDbLine
 10
1248.539484331023
 20
2703.999981403463
 30
0.0
 11
1073.000002514614
 21
2703.999981403463
 31
0.0
  0
LINE
  5
28D
330
1F
100
AcDbEntity
  8
化粧台
  6
CONTINUOUS
 62
     2
100
AcDbLine
 10
1084.499989163184
 20
1892.0000000001
 30
0.0
 11
1084.499989163184
 21
1933.499983400218
 31
0.0
  0
LINE
  5
28E
330
1F
100
AcDbEntity
  8
化粧台
  6
CONTINUOUS
 62
     2
100
AcDbLine
 10
1264.499996315742
 20
1933.499983400218
 30
0.0
 11
1264.499996315742
 21
1892.0000000001
 31
0.0
  0
LINE
  5
28F
330
1F
100
AcDbEntity
  8
化粧台
  6
CONTINUOUS
 62
     2
100
AcDbLine
 10
1088.999989163184
 20
1937.999983400218
 30
0.0
 11
1259.99999631574
 21
1937.999983400218
 31
0.0
  0
CIRCLE
  5
290
330
1F
100
AcDbEntity
  8
化粧台
  6
CONTINUOUS
 62
     2
100
AcDbCircle
 10
763.0000025146576
 20
1731.999983310809
 30
0.0
 40
7.500000000000004
  0
ARC
  5
291
330
1F
100
AcDbEntity
  8
化粧台
  6
CONTINUOUS
 62
     6
100
AcDbCircle
 10
763.5000032596574
 20
2718.999983310799
 30
0.0
 40
4.0
100
AcDbArc
 50
180.0
 51
270.0000000000002
  0
LINE
  5
292
330
1F
100
AcDbEntity
  8
化粧台
  6
CONTINUOUS
 62
     6
100
AcDbLine
 10
1202.499996740456
 20
2714.999983310799
 30
0.0
 11
763.5000032596574
 21
2714.999983310799
 31
0.0
  0
ARC
  5
293
330
1F
100
AcDbEntity
  8
化粧台
  6
CONTINUOUS
 62
     6
100
AcDbCircle
 10
1202.499996740458
 20
2718.999983310799
 30
0.0
 40
4.0
100
AcDbArc
 50
270.0000000000002
 51
0.0
  0
ARC
  5
294
330
1F
100
AcDbEntity
  8
化粧台
  6
CONTINUOUS
 62
     6
100
AcDbCircle
 10
1091.999992739463
 20
1930.495839900189
 30
0.0
 40
5.0
100
AcDbArc
 50
90.00000000000004
 51
180.0
  0
ARC
  5
295
330
1F
100
AcDbEntity
  8
化粧台
  6
CONTINUOUS
 62
     6
100
AcDbCircle
 10
1091.999992739463
 20
1904.495839900189
 30
0.0
 40
5.0
100
AcDbArc
 50
180.0
 51
270.0000000000002
  0
ARC
  5
296
330
1F
100
AcDbEntity
  8
化粧台
  6
CONTINUOUS
 62
     6
100
AcDbCircle
 10
1256.999992739463
 20
1904.495839900189
 30
0.0
 40
5.0
100
AcDbArc
 50
270.0000000000002
 51
0.0
  0
ARC
  5
297
330
1F
100
AcDbEntity
  8
化粧台
  6
CONTINUOUS
 62
     6
100
AcDbCircle
 10
1256.999992739463
 20
1930.495839900189
 30
0.0
 40
5.0
100
AcDbArc
 50
0.0
 51
90.00000000000004
  0
LINE
  5
298
330
1F
100
AcDbEntity
  8
化粧台
  6
CONTINUOUS
 62
     6
100
AcDbLine
 10
1215.999992739458
 20
1923.495839900189
 30
0.0
 11
1222.999992739463
 21
1923.495839900189
 31
0.0
  0
LINE
  5
299
330
1F
100
AcDbEntity
  8
化粧台
  6
CONTINUOUS
 62
     6
100
AcDbLine
 10
1214.999992739458
 20
1911.495839900189
 30
0.0
 11
1223.999992739463
 21
1911.495839900189
 31
0.0
  0
LINE
  5
29A
330
1F
100
AcDbEntity
  8
化粧台
  6
CONTINUOUS
 62
     6
100
AcDbLine
 10
1180.749992739458
 20
1914.495839900189
 30
0.0
 11
1180.749992739458
 21
1920.495839900189
 31
0.0
  0
LINE
  5
29B
330
1F
100
AcDbEntity
  8
化粧台
  6
CONTINUOUS
 62
     6
100
AcDbLine
 10
1086.999992739463
 20
1930.495839900189
 30
0.0
 11
1086.999992739463
 21
1904.495839900189
 31
0.0
  0
LINE
  5
29C
330
1F
100
AcDbEntity
  8
化粧台
  6
CONTINUOUS
 62
     6
100
AcDbLine
 10
1091.999992739463
 20
1899.495839900189
 30
0.0
 11
1256.999992739463
 21
1899.495839900189
 31
0.0
  0
LINE
  5
29D
330
1F
100
AcDbEntity
  8
化粧台
  6
CONTINUOUS
 62
     6
100
AcDbLine
 10
1091.999992739463
 20
1935.495839900189
 30
0.0
 11
1256.999992739463
 21
1935.495839900189
 31
0.0
  0
LINE
  5
29E
330
1F
100
AcDbEntity
  8
化粧台
  6
CONTINUOUS
 62
     6
100
AcDbLine
 10
1261.999992739463
 20
1930.495839900189
 30
0.0
 11
1261.999992739463
 21
1904.495839900189
 31
0.0
  0
LINE
  5
29F
330
1F
100
AcDbEntity
  8
化粧台
  6
CONTINUOUS
 62
     6
100
AcDbLine
 10
1160.249992739463
 20
1929.09583990019
 30
0.0
 11
1188.749992739463
 21
1929.09583990019
 31
0.0
  0
LINE
  5
2A0
330
1F
100
AcDbEntity
  8
化粧台
  6
CONTINUOUS
 62
     6
100
AcDbLine
 10
1160.249992739463
 20
1929.09583990019
 30
0.0
 11
1160.249992739463
 21
1905.89583990019
 31
0.0
  0
LINE
  5
2A1
330
1F
100
AcDbEntity
  8
化粧台
  6
CONTINUOUS
 62
     6
100
AcDbLine
 10
1160.249992739463
 20
1905.89583990019
 30
0.0
 11
1188.749992739463
 21
1905.89583990019
 31
0.0
  0
LINE
  5
2A2
330
1F
100
AcDbEntity
  8
化粧台
  6
CONTINUOUS
 62
     6
100
AcDbLine
 10
1188.749992739463
 20
1929.09583990019
 30
0.0
 11
1188.749992739463
 21
1905.89583990019
 31
0.0
  0
LINE
  5
2A3
330
1F
100
AcDbEntity
  8
化粧台
  6
CONTINUOUS
 62
     6
100
AcDbLine
 10
1186.249992739463
 20
1909.695839900189
 30
0.0
 11
1162.749992739463
 21
1909.695839900189
 31
0.0
  0
LINE
  5
2A4
330
1F
100
AcDbEntity
  8
化粧台
  6
CONTINUOUS
 62
     6
100
AcDbLine
 10
1186.249992739463
 20
1909.695839900189
 30
0.0
 11
1186.249992739463
 21
1925.29583990019
 31
0.0
  0
LINE
  5
2A5
330
1F
100
AcDbEntity
  8
化粧台
  6
CONTINUOUS
 62
     6
100
AcDbLine
 10
1162.749992739463
 20
1925.29583990019
 30
0.0
 11
1162.749992739463
 21
1909.695839900189
 31
0.0
  0
CIRCLE
  5
2A6
330
1F
100
AcDbEntity
  8
化粧台
  6
CONTINUOUS
 62
     6
100
AcDbCircle
 10
1219.499992739463
 20
1917.495839900189
 30
0.0
 40
10.5
  0
LINE
  5
2A7
330
1F
100
AcDbEntity
  8
化粧台
  6
CONTINUOUS
 62
     6
100
AcDbLine
 10
1205.249992739463
 20
1929.09583990019
 30
0.0
 11
1233.749992739463
 21
1929.09583990019
 31
0.0
  0
LINE
  5
2A8
330
1F
100
AcDbEntity
  8
化粧台
  6
CONTINUOUS
 62
     6
100
AcDbLine
 10
1205.249992739463
 20
1929.09583990019
 30
0.0
 11
1205.249992739463
 21
1905.89583990019
 31
0.0
  0
LINE
  5
2A9
330
1F
100
AcDbEntity
  8
化粧台
  6
CONTINUOUS
 62
     6
100
AcDbLine
 10
1205.249992739463
 20
1905.89583990019
 30
0.0
 11
1233.749992739463
 21
1905.89583990019
 31
0.0
  0
LINE
  5
2AA
330
1F
100
AcDbEntity
  8
化粧台
  6
CONTINUOUS
 62
     6
100
AcDbLine
 10
1233.749992739463
 20
1929.09583990019
 30
0.0
 11
1233.749992739463
 21
1905.89583990019
 31
0.0
  0
LINE
  5
2AB
330
1F
100
AcDbEntity
  8
化粧台
  6
CONTINUOUS
 62
     6
100
AcDbLine
 10
1186.249992739463
 20
1925.29583990019
 30
0.0
 11
1162.749992739463
 21
1925.29583990019
 31
0.0
  0
LINE
  5
2AC
330
1F
100
AcDbEntity
  8
化粧台
  6
CONTINUOUS
 62
     6
100
AcDbLine
 10
763.0000025146576
 20
1761.999983310809
 30
0.0
 11
763.0000025146576
 21
1701.999983310809
 31
0.0
  0
LINE
  5
2AD
330
1F
100
AcDbEntity
  8
化粧台
  6
CONTINUOUS
 62
     6
100
AcDbLine
 10
793.0000025146576
 20
1731.999983310809
 30
0.0
 11
733.0000025146576
 21
1731.999983310809
 31
0.0
  0
LINE
  5
2AE
330
1F
100
AcDbEntity
  8
化粧台
  6
CONTINUOUS
 62
     6
100
AcDbLine
 10
1233.000000012156
 20
2031.999983310809
 30
0.0
 11
1173.000000012156
 21
2031.999983310809
 31
0.0
  0
LINE
  5
2AF
330
1F
100
AcDbEntity
  8
化粧台
  6
CONTINUOUS
 62
     6
100
AcDbLine
 10
1203.000000012156
 20
2061.999983310809
 30
0.0
 11
1203.000000012156
 21
2001.999983310809
 31
0.0
  0
LINE
  5
2B0
330
1F
100
AcDbEntity
  8
化粧台
  6
CONTINUOUS
 62
     6
100
AcDbLine
 10
793.0000025146576
 20
2031.999983310809
 30
0.0
 11
733.0000025146576
 21
2031.999983310809
 31
0.0
  0
LINE
  5
2B1
330
1F
100
AcDbEntity
  8
化粧台
  6
CONTINUOUS
 62
     6
100
AcDbLine
 10
763.0000025146576
 20
2061.999983310809
 30
0.0
 11
763.0000025146576
 21
2001.999983310809
 31
0.0
  0
LINE
  5
2B2
330
1F
100
AcDbEntity
  8
化粧台
  6
CONTINUOUS
 62
     6
100
AcDbLine
 10
1233.000000012156
 20
2631.999983310799
 30
0.0
 11
1173.000000012156
 21
2631.999983310799
 31
0.0
  0
LINE
  5
2B3
330
1F
100
AcDbEntity
  8
化粧台
  6
CONTINUOUS
 62
     6
100
AcDbLine
 10
1203.000000012156
 20
2661.999983310799
 30
0.0
 11
1203.000000012156
 21
2601.999983310799
 31
0.0
  0
LINE
  5
2B4
330
1F
100
AcDbEntity
  8
化粧台
  6
CONTINUOUS
 62
     6
100
AcDbLine
 10
793.0000025146576
 20
2631.999983310799
 30
0.0
 11
733.0000025146576
 21
2631.999983310799
 31
0.0
  0
LINE
  5
2B5
330
1F
100
AcDbEntity
  8
化粧台
  6
CONTINUOUS
 62
     6
100
AcDbLine
 10
763.0000025146576
 20
2661.999983310799
 30
0.0
 11
763.0000025146576
 21
2601.999983310799
 31
0.0
  0
LINE
  5
2B6
330
1F
100
AcDbEntity
  8
化粧台
  6
CONTINUOUS
 62
     6
100
AcDbLine
 10
1158.833008589057
 20
2461.3330085891
 30
0.0
 11
1105.800000000057
 21
2408.3000000001
 31
0.0
  0
LINE
  5
2B7
330
1F
100
AcDbEntity
  8
化粧台
  6
CONTINUOUS
 62
     6
100
AcDbLine
 10
1136.193145750557
 20
2450.006854249099
 30
0.0
 11
1117.243145750557
 21
2431.0568542491
 31
0.0
  0
LINE
  5
2B8
330
1F
100
AcDbEntity
  8
化粧台
  6
CONTINUOUS
 62
     6
100
AcDbLine
 10
1152.706854249557
 20
2443.893145751098
 30
0.0
 11
1123.006854249557
 21
2414.1931457511
 31
0.0
  0
LINE
  5
2B9
330
1F
100
AcDbEntity
  8
化粧台
  6
CONTINUOUS
 62
     6
100
AcDbLine
 10
1251.833008589057
 20
2218.3330085891
 30
0.0
 11
1198.800000000057
 21
2165.3000000001
 31
0.0
  0
LINE
  5
2BA
330
1F
100
AcDbEntity
  8
化粧台
  6
CONTINUOUS
 62
     6
100
AcDbLine
 10
1229.193145750557
 20
2207.006854249099
 30
0.0
 11
1210.243145750557
 21
2188.0568542491
 31
0.0
  0
LINE
  5
2BB
330
1F
100
AcDbEntity
  8
化粧台
  6
CONTINUOUS
 62
     6
100
AcDbLine
 10
1245.706854249557
 20
2200.893145751098
 30
0.0
 11
1216.006854249557
 21
2171.1931457511
 31
0.0
  0
LINE
  5
2BC
330
1F
100
AcDbEntity
  8
化粧台
  6
CONTINUOUS
 62
     6
100
AcDbLine
 10
804.8330085890586
 20
2324.8330085891
 30
0.0
 11
751.8000000000586
 21
2271.8000000001
 31
0.0
  0
LINE
  5
2BD
330
1F
100
AcDbEntity
  8
化粧台
  6
CONTINUOUS
 62
     6
100
AcDbLine
 10
782.1931457505573
 20
2313.506854249099
 30
0.0
 11
763.2431457505584
 21
2294.5568542491
 31
0.0
  0
LINE
  5
2BE
330
1F
100
AcDbEntity
  8
化粧台
  6
CONTINUOUS
 62
     6
100
AcDbLine
 10
798.7068542495574
 20
2307.393145751098
 30
0.0
 11
769.0068542495585
 21
2277.6931457511
 31
0.0
  0
LINE
  5
2BF
330
1F
100
AcDbEntity
  8
化粧台
  6
CONTINUOUS
 62
     6
100
AcDbLine
 10
947.3330085890568
 20
2210.8330085891
 30
0.0
 11
894.3000000000568
 21
2157.8000000001
 31
0.0
  0
LINE
  5
2C0
330
1F
100
AcDbEntity
  8
化粧台
  6
CONTINUOUS
 62
     6
100
AcDbLine
 10
924.6931457505573
 20
2199.506854249099
 30
0.0
 11
905.7431457505566
 21
2180.5568542491
 31
0.0
  0
LINE
  5
2C1
330
1F
100
AcDbEntity
  8
化粧台
  6
CONTINUOUS
 62
     6
100
AcDbLine
 10
941.2068542495574
 20
2193.393145751098
 30
0.0
 11
911.5068542495567
 21
2163.6931457511
 31
0.0
  0
LINE
  5
2C2
330
1F
100
AcDbEntity
  8
化粧台
  6
CONTINUOUS
 62
     6
100
AcDbLine
 10
1050.833008589057
 20
2513.8330085891
 30
0.0
 11
997.8000000000568
 21
2460.8000000001
 31
0.0
  0
LINE
  5
2C3
330
1F
100
AcDbEntity
  8
化粧台
  6
CONTINUOUS
 62
     6
100
AcDbLine
 10
1028.193145750557
 20
2502.506854249099
 30
0.0
 11
1009.243145750557
 21
2483.5568542491
 31
0.0
  0
LINE
  5
2C4
330
1F
100
AcDbEntity
  8
化粧台
  6
CONTINUOUS
 62
     6
100
AcDbLine
 10
1044.706854249557
 20
2496.393145751098
 30
0.0
 11
1015.006854249557
 21
2466.6931457511
 31
0.0
  0
LINE
  5
2C5
330
1F
100
AcDbEntity
  8
化粧台
  6
CONTINUOUS
 62
     6
100
AcDbLine
 10
1338.607801639058
 20
1857.4127330899
 30
0.0
 11
1327.982689379057
 21
1854.565731941799
 31
0.0
  0
LINE
  5
2C6
330
1F
100
AcDbEntity
  8
化粧台
  6
CONTINUOUS
 62
     6
100
AcDbLine
 10
1334.854861994057
 20
1871.418607914399
 30
0.0
 11
1321.004666241058
 21
1867.085071598399
 31
0.0
  0
LINE
  5
2C7
330
1F
100
AcDbEntity
  8
化粧台
  6
CONTINUOUS
 62
     6
100
AcDbLine
 10
1329.052538554058
 20
1874.5226736306
 30
0.0
 11
1319.997530400057
 21
1872.096337650899
 31
0.0
  0
LINE
  5
2C8
330
1F
100
AcDbEntity
  8
化粧台
  6
CONTINUOUS
 62
     6
100
AcDbLine
 10
1321.004666241058
 20
1867.085071598399
 30
0.0
 11
1316.529978233058
 21
1889.3501968789
 31
0.0
  0
LINE
  5
2C9
330
1F
100
AcDbEntity
  8
化粧台
  6
CONTINUOUS
 62
     6
100
AcDbLine
 10
1323.407174018056
 20
1891.194228870799
 30
0.0
 11
1329.614595965058
 21
1872.8627556103
 31
0.0
  0
LINE
  5
2CA
330
1F
100
AcDbEntity
  8
化粧台
  6
CONTINUOUS
 62
     6
100
AcDbLine
 10
1353.674427211057
 20
1863.002697650199
 30
0.0
 11
1338.219541936057
 21
1858.861630645299
 31
0.0
  0
LINE
  5
2CB
330
1F
100
AcDbEntity
  8
化粧台
  6
CONTINUOUS
 62
     6
100
AcDbLine
 10
1351.344993955057
 20
1871.6960770692
 30
0.0
 11
1335.890230303057
 21
1867.5550004274
 31
0.0
  0
LINE
  5
2CC
330
1F
100
AcDbEntity
  8
化粧台
  6
CONTINUOUS
 62
     6
100
AcDbLine
 10
1327.982567844057
 20
1854.5657425748
 30
0.0
 11
1324.876848791058
 21
1866.156776207999
 31
0.0
  0
LINE
  5
2CD
330
1F
100
AcDbEntity
  8
化粧台
  6
CONTINUOUS
 62
     6
100
AcDbLine
 10
1335.501971683057
 20
1869.003898891899
 30
0.0
 11
1324.876848791058
 21
1866.156776207999
 31
0.0
  0
LINE
  5
2CE
330
1F
100
AcDbEntity
  8
化粧台
  6
CONTINUOUS
 62
     6
100
AcDbLine
 10
1334.854861994057
 20
1871.418607914399
 30
0.0
 11
1333.328637359057
 21
1870.9546466433
 31
0.0
  0
LINE
  5
2CF
330
1F
100
AcDbEntity
  8
化粧台
  6
CONTINUOUS
 62
     6
100
AcDbLine
 10
1339.384198338058
 20
1854.514946706799
 30
0.0
 11
1325.554394119056
 21
1851.780076559
 31
0.0
  0
LINE
  5
2D0
330
1F
100
AcDbEntity
  8
化粧台
  6
CONTINUOUS
 62
     6
100
AcDbLine
 10
1334.854861994057
 20
1871.418607914399
 30
0.0
 11
1339.384198338058
 21
1854.514946706799
 31
0.0
  0
LINE
  5
2D1
330
1F
100
AcDbEntity
  8
化粧台
  6
CONTINUOUS
 62
     6
100
AcDbLine
 10
1320.745784779057
 20
1866.119095774899
 30
0.0
 11
1324.394412078057
 21
1852.5022095896
 31
0.0
  0
LINE
  5
2D2
330
1F
100
AcDbEntity
  8
化粧台
  6
CONTINUOUS
 62
     6
100
AcDbLine
 10
1322.201123577058
 20
1891.839395145199
 30
0.0
 11
1317.251515880057
 21
1890.513172201699
 31
0.0
  0
ARC
  5
2D3
330
1F
100
AcDbEntity
  8
化粧台
  6
CONTINUOUS
 62
     6
100
AcDbCircle
 10
1464.656677000057
 20
1917.165039000099
 30
0.0
 40
150.0
100
AcDbArc
 50
184.0109859999999
 51
190.2635811660001
  0
ARC
  5
2D4
330
1F
100
AcDbEntity
  8
化粧台
  6
CONTINUOUS
 62
     6
100
AcDbCircle
 10
1470.149475000058
 20
1916.883301000099
 30
0.0
 40
150.0
100
AcDbArc
 50
184.3858640000001
 51
189.6062823292001
  0
ARC
  5
2D5
330
1F
100
AcDbEntity
  8
化粧台
  6
CONTINUOUS
 62
     6
100
AcDbCircle
 10
1332.456094715058
 20
1873.8249410824
 30
0.0
 40
3.000000000000002
100
AcDbArc
 50
198.7072749999914
 51
286.9092409999939
  0
ARC
  5
2D6
330
1F
100
AcDbEntity
  8
化粧台
  6
CONTINUOUS
 62
     6
100
AcDbCircle
 10
1317.510355234056
 20
1889.5472391988
 30
0.0
 40
1.0
100
AcDbArc
 50
105.0000609999936
 51
191.363464000021
  0
ARC
  5
2D7
330
1F
100
AcDbEntity
  8
化粧台
  6
CONTINUOUS
 62
     6
100
AcDbCircle
 10
1322.459963018058
 20
1890.873463138599
 30
0.0
 40
1.0
100
AcDbArc
 50
18.70727500001271
 51
104.9999999999882
  0
ARC
  5
2D8
330
1F
100
AcDbEntity
  8
化粧台
  6
CONTINUOUS
 62
     6
100
AcDbCircle
 10
1343.883656701058
 20
1865.0380807734
 30
0.0
 40
10.0
100
AcDbArc
 50
348.2563479999997
 51
41.74362200000009
  0
ARC
  5
2D9
330
1F
100
AcDbEntity
  8
化粧台
  6
CONTINUOUS
 62
     6
100
AcDbCircle
 10
1325.360344084057
 20
1852.7610490304
 30
0.0
 40
1.0
100
AcDbArc
 50
195.0000000000164
 51
281.1862180000118
  0
ARC
  5
2DA
330
1F
100
AcDbEntity
  8
化粧台
  6
CONTINUOUS
 62
     6
100
AcDbCircle
 10
1321.711716785057
 20
1866.377935215599
 30
0.0
 40
1.0
100
AcDbArc
 50
106.9091190000231
 51
195.000000000023
  0
ARC
  5
2DB
330
1F
100
AcDbEntity
  8
化粧台
  6
CONTINUOUS
 62
     6
100
AcDbCircle
 10
1194.748657000058
 20
1905.189941000099
 30
0.0
 40
120.0000000000001
100
AcDbArc
 50
4.590392999999939
 51
27.57687399999967
  0
ARC
  5
2DC
330
1F
100
AcDbEntity
  8
化粧台
  6
CONTINUOUS
 62
     6
100
AcDbCircle
 10
1200.644653000057
 20
1906.416992000099
 30
0.0
 40
120.0000000000001
100
AcDbArc
 50
3.349120999999885
 51
29.22186300000007
  0
ARC
  5
2DD
330
1F
100
AcDbEntity
  8
化粧台
  6
CONTINUOUS
 62
     6
100
AcDbCircle
 10
1332.456094715058
 20
1873.8249410824
 30
0.0
 40
3.000000000000002
100
AcDbArc
 50
198.7072749999914
 51
286.9092409999939
  0
ARC
  5
2DE
330
1F
100
AcDbEntity
  8
化粧台
  6
CONTINUOUS
 62
     6
100
AcDbCircle
 10
1317.510355234056
 20
1889.5472391988
 30
0.0
 40
1.0
100
AcDbArc
 50
105.0000609999936
 51
191.363464000021
  0
ARC
  5
2DF
330
1F
100
AcDbEntity
  8
化粧台
  6
CONTINUOUS
 62
     6
100
AcDbCircle
 10
1322.459963018058
 20
1890.873463138599
 30
0.0
 40
1.0
100
AcDbArc
 50
18.70727500001271
 51
104.9999999999882
  0
ARC
  5
2E0
330
1F
100
AcDbEntity
  8
化粧台
  6
CONTINUOUS
 62
     6
100
AcDbCircle
 10
1343.883656701058
 20
1865.0380807734
 30
0.0
 40
10.0
100
AcDbArc
 50
348.2563479999997
 51
41.74362200000009
  0
ARC
  5
2E1
330
1F
100
AcDbEntity
  8
化粧台
  6
CONTINUOUS
 62
     6
100
AcDbCircle
 10
1325.360344084057
 20
1852.7610490304
 30
0.0
 40
1.0
100
AcDbArc
 50
195.0000000000164
 51
281.1862180000118
  0
ARC
  5
2E2
330
1F
100
AcDbEntity
  8
化粧台
  6
CONTINUOUS
 62
     6
100
AcDbCircle
 10
1321.711716785057
 20
1866.377935215599
 30
0.0
 40
1.0
100
AcDbArc
 50
106.9091190000231
 51
195.000000000023
  0
ARC
  5
2E3
330
1F
100
AcDbEntity
  8
化粧台
  6
CONTINUOUS
 62
     6
100
AcDbCircle
 10
1311.627808000057
 20
1898.015259000099
 30
0.0
 40
17.00025
100
AcDbArc
 50
71.92889400000011
 51
128.0728760000007
  0
ARC
  5
2E4
330
1F
100
AcDbEntity
  8
化粧台
  6
CONTINUOUS
 62
     6
100
AcDbCircle
 10
1322.174561000057
 20
1930.3385620001
 30
0.0
 40
17.000208
100
AcDbArc
 50
251.9289550000005
 51
280.0010380000001
  0
ARC
  5
2E5
330
1F
100
AcDbEntity
  8
化粧台
  6
CONTINUOUS
 62
     6
100
AcDbCircle
 10
1322.174683000057
 20
1930.338379000099
 30
0.0
 40
17.000029
100
AcDbArc
 50
280.001038000001
 51
308.0736080000002
  0
ARC
  5
2E6
330
1F
100
AcDbEntity
  8
化粧台
  6
CONTINUOUS
 62
     6
100
AcDbCircle
 10
1311.627808000057
 20
1890.015259000099
 30
0.0
 40
17.00025
100
AcDbArc
 50
71.92889400000011
 51
128.0728760000007
  0
ARC
  5
2E7
330
1F
100
AcDbEntity
  8
化粧台
  6
CONTINUOUS
 62
     6
100
AcDbCircle
 10
1322.174561000057
 20
1922.3385620001
 30
0.0
 40
17.000208
100
AcDbArc
 50
251.9289550000005
 51
280.0010380000001
  0
ARC
  5
2E8
330
1F
100
AcDbEntity
  8
化粧台
  6
CONTINUOUS
 62
     6
100
AcDbCircle
 10
1322.174683000057
 20
1922.338379000099
 30
0.0
 40
17.000029
100
AcDbArc
 50
280.001038000001
 51
308.0736080000002
  0
ARC
  5
2E9
330
1F
100
AcDbEntity
  8
化粧台
  6
CONTINUOUS
 62
     6
100
AcDbCircle
 10
1283.000000000058
 20
1945.0000000001
 30
0.0
 40
30.00000000000002
100
AcDbArc
 50
41.79367100000115
 51
90.00000000000004
  0
ARC
  5
2EA
330
1F
100
AcDbEntity
  8
化粧台
  6
CONTINUOUS
 62
     6
100
AcDbCircle
 10
1283.000000000058
 20
1945.0000000001
 30
0.0
 40
24.00000000000002
100
AcDbArc
 50
40.99096699999992
 51
90.00000000000004
  0
LINE
  5
2EB
330
1F
100
AcDbEntity
  8
化粧台
  6
CONTINUOUS
 62
     6
100
AcDbLine
 10
1253.000000000058
 20
1972.0000000001
 30
0.0
 11
1316.076696830657
 21
1972.0000000001
 31
0.0
  0
LINE
  5
2EC
330
1F
100
AcDbEntity
  8
化粧台
  6
CONTINUOUS
 62
     6
100
AcDbLine
 10
1206.499996740458
 20
2790.0000023843
 30
0.0
 11
759.5000032596574
 21
2790.0000023843
 31
0.0
  0
LINE
  5
2ED
330
1F
100
AcDbEntity
  8
化粧台
  6
CONTINUOUS
 62
     6
100
AcDbLine
 10
1206.499996740458
 20
2785.0000023843
 30
0.0
 11
759.5000032596574
 21
2785.0000023843
 31
0.0
  0
CIRCLE
  5
2EE
330
1F
100
AcDbEntity
  8
化粧台
  6
EXLTYPE2
 62
     6
100
AcDbCircle
 10
763.0000025146576
 20
2631.999983310799
 30
0.0
 40
7.500000000000004
  0
CIRCLE
  5
2EF
330
1F
100
AcDbEntity
  8
化粧台
  6
EXLTYPE2
 62
     6
100
AcDbCircle
 10
763.0000025146576
 20
2031.999983310809
 30
0.0
 40
7.500000000000004
  0
CIRCLE
  5
2F0
330
1F
100
AcDbEntity
  8
化粧台
  6
EXLTYPE2
 62
     6
100
AcDbCircle
 10
1203.000000012156
 20
2031.999983310809
 30
0.0
 40
7.500000000000004
  0
CIRCLE
  5
2F1
330
1F
100
AcDbEntity
  8
化粧台
  6
EXLTYPE2
 62
     6
100
AcDbCircle
 10
1203.000000012156
 20
2631.999983310799
 30
0.0
 40
7.500000000000004
  0
LINE
  5
2F2
330
1F
100
AcDbEntity
  8
化粧台
  6
EXLTYPE3
 62
     6
100
AcDbLine
 10
1070.000002514618
 20
2694.499983310799
 30
0.0
 11
690.0000025146176
 21
2324.0001541304
 31
0.0
  0
LINE
  5
2F3
330
1F
100
AcDbEntity
  8
化粧台
  6
EXLTYPE3
 62
     6
100
AcDbLine
 10
690.0000025146176
 20
2324.0001541304
 30
0.0
 11
1070.000002514618
 21
1953.500324949999
 31
0.0
  0
LINE
  5
2F4
330
1F
100
AcDbEntity
  8
化粧台
  6
EXLTYPE3
 62
     6
100
AcDbLine
 10
1276.000002514658
 20
2694.4999814035
 30
0.0
 11
1073.000002514618
 21
2324.000152223099
 31
0.0
  0
LINE
  5
2F5
330
1F
100
AcDbEntity
  8
化粧台
  6
EXLTYPE3
 62
     6
100
AcDbLine
 10
1073.000002514618
 20
2324.000152223099
 30
0.0
 11
1276.000002514658
 21
1953.5003230427
 31
0.0
  0
LINE
  5
2F6
330
1F
100
AcDbEntity
  8
化粧台
  6
CONTINUOUS
 62
     2
100
AcDbLine
 10
1213.000000000925
 20
1682.000000000068
 30
0.0
 11
1277.814877125256
 21
1682.000000000068
 31
0.0
  0
LINE
  5
2F7
330
1F
100
AcDbEntity
  8
化粧台
  6
CONTINUOUS
 62
     2
100
AcDbLine
 10
688.1851228749413
 20
1682.000000000068
 30
0.0
 11
1163.000000000925
 21
1682.000000000068
 31
0.0
  0
LINE
  5
2F8
330
1F
100
AcDbEntity
  8
化粧台
  6
EXLTYPE3
 62
     6
100
AcDbLine
 10
983.0000000000975
 20
2904.0
 30
0.0
 11
983.0000000000975
 21
835.5
 31
0.0
  0
LINE
  5
2F9
330
1F
100
AcDbEntity
  8
化粧台
  6
CONTINUOUS
 62
     2
100
AcDbLine
 10
2528.0000000001
 20
1682.000000000058
 30
0.0
 11
2501.707881475491
 21
1682.000000000058
 31
0.0
  0
LINE
  5
2FA
330
1F
100
AcDbEntity
  8
化粧台
  6
CONTINUOUS
 62
     2
100
AcDbLine
 10
2528.0000000001
 20
1682.000000000058
 30
0.0
 11
2528.0000000001
 21
1627.000000000058
 31
0.0
  0
LINE
  5
2FB
330
1F
100
AcDbEntity
  8
化粧台
  6
CONTINUOUS
 62
     6
100
AcDbLine
 10
2349.159683681935
 20
2785.0000023843
 30
0.0
 11
2299.759012716046
 21
2785.0000023843
 31
0.0
  0
LINE
  5
2FC
330
1F
100
AcDbEntity
  8
化粧台
  6
CONTINUOUS
 62
     6
100
AcDbLine
 10
2348.127117736136
 20
2790.0000023843
 30
0.0
 11
2298.659825100876
 21
2790.0000023843
 31
0.0
  0
LINE
  5
2FD
330
1F
100
AcDbEntity
  8
化粧台
  6
CONTINUOUS
 62
     6
100
AcDbLine
 10
2392.000002682695
 20
2703.499982357143
 30
0.0
 11
2408.000002682726
 21
2703.499982357143
 31
0.0
  0
LINE
  5
2FE
330
1F
100
AcDbEntity
  8
化粧台
  6
CONTINUOUS
 62
     6
100
AcDbLine
 10
2392.000002682695
 20
1944.499982357151
 30
0.0
 11
2408.000002682726
 21
1944.499982357151
 31
0.0
  0
LINE
  5
2FF
330
1F
100
AcDbEntity
  8
化粧台
  6
CONTINUOUS
 62
     6
100
AcDbLine
 10
2389.998368823883
 20
1967.499982357152
 30
0.0
 11
2392.000002682695
 21
1967.499982357152
 31
0.0
  0
ARC
  5
300
330
1F
100
AcDbEntity
  8
化粧台
  6
CONTINUOUS
 62
     6
100
AcDbCircle
 10
2458.643407649481
 20
1955.749982357151
 30
0.0
 40
69.64340496678665
100
AcDbArc
 50
170.2867908916126
 51
189.7132091083869
  0
LINE
  5
301
330
1F
100
AcDbEntity
  8
化粧台
  6
CONTINUOUS
 62
     6
100
AcDbLine
 10
2392.000002682695
 20
1943.999982357151
 30
0.0
 11
2389.998368823883
 21
1943.999982357151
 31
0.0
  0
LINE
  5
302
330
1F
100
AcDbEntity
  8
化粧台
  6
CONTINUOUS
 62
     6
100
AcDbLine
 10
2392.000002682695
 20
1951.499982357151
 30
0.0
 11
2392.000002682695
 21
1943.999982357151
 31
0.0
  0
LINE
  5
303
330
1F
100
AcDbEntity
  8
化粧台
  6
CONTINUOUS
 62
     6
100
AcDbLine
 10
2400.5000026827
 20
1951.499982357151
 30
0.0
 11
2392.000002682695
 21
1951.499982357151
 31
0.0
  0
LINE
  5
304
330
1F
100
AcDbEntity
  8
化粧台
  6
CONTINUOUS
 62
     6
100
AcDbLine
 10
2400.500002682695
 20
1971.999982357152
 30
0.0
 11
2400.5000026827
 21
1951.499982357151
 31
0.0
  0
LINE
  5
305
330
1F
100
AcDbEntity
  8
化粧台
  6
CONTINUOUS
 62
     6
100
AcDbLine
 10
2400.500002682695
 20
1971.999982357152
 30
0.0
 11
2398.000002682695
 21
1971.999982357152
 31
0.0
  0
LINE
  5
306
330
1F
100
AcDbEntity
  8
化粧台
  6
CONTINUOUS
 62
     6
100
AcDbLine
 10
2398.000002682695
 20
1962.499982357152
 30
0.0
 11
2398.000002682695
 21
1982.499982357152
 31
0.0
  0
LINE
  5
307
330
1F
100
AcDbEntity
  8
化粧台
  6
CONTINUOUS
 62
     6
100
AcDbLine
 10
2392.000002682695
 20
1962.499982357152
 30
0.0
 11
2398.000002682695
 21
1962.499982357152
 31
0.0
  0
LINE
  5
308
330
1F
100
AcDbEntity
  8
化粧台
  6
CONTINUOUS
 62
     6
100
AcDbLine
 10
2392.000002682695
 20
1962.499982357152
 30
0.0
 11
2392.000002682695
 21
2685.499982357142
 31
0.0
  0
LINE
  5
309
330
1F
100
AcDbEntity
  8
化粧台
  6
CONTINUOUS
 62
     6
100
AcDbLine
 10
2406.000002682695
 20
1990.499982357156
 30
0.0
 11
2398.000002682695
 21
1982.499982357152
 31
0.0
  0
LINE
  5
30A
330
1F
100
AcDbEntity
  8
化粧台
  6
CONTINUOUS
 62
     6
100
AcDbLine
 10
2406.000002682695
 20
1990.499982357156
 30
0.0
 11
2406.000002682695
 21
2657.499982357138
 31
0.0
  0
LINE
  5
30B
330
1F
100
AcDbEntity
  8
化粧台
  6
CONTINUOUS
 62
     6
100
AcDbLine
 10
2406.000002682695
 20
2657.499982357138
 30
0.0
 11
2398.000002682695
 21
2665.49998235714
 31
0.0
  0
LINE
  5
30C
330
1F
100
AcDbEntity
  8
化粧台
  6
CONTINUOUS
 62
     6
100
AcDbLine
 10
2398.000002682695
 20
2685.499982357142
 30
0.0
 11
2398.000002682695
 21
2665.49998235714
 31
0.0
  0
LINE
  5
30D
330
1F
100
AcDbEntity
  8
化粧台
  6
CONTINUOUS
 62
     6
100
AcDbLine
 10
2400.500002682695
 20
2675.999982357142
 30
0.0
 11
2400.500002682695
 21
2696.499982357143
 31
0.0
  0
LINE
  5
30E
330
1F
100
AcDbEntity
  8
化粧台
  6
CONTINUOUS
 62
     6
100
AcDbLine
 10
2400.500002682695
 20
2675.999982357142
 30
0.0
 11
2398.000002682695
 21
2675.999982357142
 31
0.0
  0
LINE
  5
30F
330
1F
100
AcDbEntity
  8
化粧台
  6
CONTINUOUS
 62
     6
100
AcDbLine
 10
2392.000002682695
 20
2685.499982357142
 30
0.0
 11
2398.000002682695
 21
2685.499982357142
 31
0.0
  0
ARC
  5
310
330
1F
100
AcDbEntity
  8
化粧台
  6
CONTINUOUS
 62
     6
100
AcDbCircle
 10
2458.643407649481
 20
2692.249982357143
 30
0.0
 40
69.64340496678665
100
AcDbArc
 50
170.2867908916132
 51
189.7132091083882
  0
LINE
  5
311
330
1F
100
AcDbEntity
  8
化粧台
  6
CONTINUOUS
 62
     6
100
AcDbLine
 10
2389.998368823883
 20
2680.499982357142
 30
0.0
 11
2392.000002682695
 21
2680.499982357142
 31
0.0
  0
LINE
  5
312
330
1F
100
AcDbEntity
  8
化粧台
  6
CONTINUOUS
 62
     6
100
AcDbLine
 10
2400.500002682695
 20
2696.499982357143
 30
0.0
 11
2392.000002682695
 21
2696.499982357143
 31
0.0
  0
LINE
  5
313
330
1F
100
AcDbEntity
  8
化粧台
  6
CONTINUOUS
 62
     6
100
AcDbLine
 10
2392.000002682695
 20
2696.499982357143
 30
0.0
 11
2392.000002682695
 21
2703.999982357143
 31
0.0
  0
LINE
  5
314
330
1F
100
AcDbEntity
  8
化粧台
  6
CONTINUOUS
 62
     6
100
AcDbLine
 10
2389.998368823883
 20
2703.999982357143
 30
0.0
 11
2392.000002682695
 21
2703.999982357143
 31
0.0
  0
LINE
  5
315
330
1F
100
AcDbEntity
  8
化粧台
  6
CONTINUOUS
 62
     2
100
AcDbLine
 10
2334.672549216431
 20
2714.846827898917
 30
0.0
 11
2397.279276005132
 21
2712.079679753555
 31
0.0
  0
LINE
  5
316
330
1F
100
AcDbEntity
  8
化粧台
  6
CONTINUOUS
 62
     2
100
AcDbLine
 10
2305.000000000135
 20
2801.000002384297
 30
0.0
 11
2364.060017752934
 21
2801.000002384297
 31
0.0
  0
ARC
  5
317
330
1F
100
AcDbEntity
  8
化粧台
  6
CONTINUOUS
 62
     2
100
AcDbCircle
 10
2349.892635543159
 20
2794.000002384297
 30
0.0
 40
7.000000000000004
100
AcDbArc
 50
90.00000000000004
 51
190.1301674541918
  0
ARC
  5
318
330
1F
100
AcDbEntity
  8
化粧台
  6
CONTINUOUS
 62
     2
100
AcDbCircle
 10
2539.883902414847
 20
2827.945819689088
 30
0.0
 40
200.0000000000001
100
AcDbArc
 50
190.1301674541918
 51
214.0613052480137
  0
ARC
  5
319
330
1F
100
AcDbEntity
  8
化粧台
  6
CONTINUOUS
 62
     2
100
AcDbCircle
 10
2379.995219078595
 20
2719.850450033402
 30
0.0
 40
7.000000000000004
100
AcDbArc
 50
214.0613052480137
 51
267.4692369823522
  0
LINE
  5
31A
330
1F
100
AcDbEntity
  8
化粧台
  6
CONTINUOUS
 62
     6
100
AcDbLine
 10
2392.000002682695
 20
1946.499982357151
 30
0.0
 11
2408.000002682726
 21
1946.499982357151
 31
0.0
  0
LINE
  5
31B
330
1F
100
AcDbEntity
  8
化粧台
  6
CONTINUOUS
 62
     6
100
AcDbLine
 10
2392.000002682695
 20
2701.499982357143
 30
0.0
 11
2408.000002682726
 21
2701.499982357143
 31
0.0
  0
LINE
  5
31C
330
1F
100
AcDbEntity
  8
化粧台
  6
CONTINUOUS
 62
     2
100
AcDbLine
 10
2408.000002682726
 20
1944.001351565234
 30
0.0
 11
2408.000002682726
 21
2705.999989032858
 31
0.0
  0
LINE
  5
31D
330
1F
100
AcDbEntity
  8
化粧台
  6
CONTINUOUS
 62
     6
100
AcDbLine
 10
2395.000002682695
 20
1962.499982357152
 30
0.0
 11
2395.000002682695
 21
2685.499982357142
 31
0.0
  0
ARC
  5
31E
330
1F
100
AcDbEntity
  8
化粧台
  6
CONTINUOUS
 62
     2
100
AcDbCircle
 10
2403.000002682726
 20
2705.999989032858
 30
0.0
 40
5.0
100
AcDbArc
 50
0.0
 51
90.00000000000004
  0
LINE
  5
31F
330
1F
100
AcDbEntity
  8
化粧台
  6
CONTINUOUS
 62
     2
100
AcDbLine
 10
2403.000002682726
 20
2710.999989032858
 30
0.0
 11
2397.999996155284
 21
2710.999989032858
 31
0.0
  0
LINE
  5
320
330
1F
100
AcDbEntity
  8
化粧台
  6
CONTINUOUS
 62
     2
100
AcDbLine
 10
2411.500002325098
 20
1936.137843657934
 30
0.0
 11
2411.500002325098
 21
1941.041943812183
 31
0.0
  0
ARC
  5
321
330
1F
100
AcDbEntity
  8
化粧台
  6
CONTINUOUS
 62
     2
100
AcDbCircle
 10
2411.000000000518
 20
1943.999983310807
 30
0.0
 40
3.000000000000114
100
AcDbArc
 50
180.0
 51
279.5941132528228
  0
LINE
  5
322
330
1F
100
AcDbEntity
  8
化粧台
  6
CONTINUOUS
 62
     2
100
AcDbLine
 10
2528.000000000135
 20
1682.0000000001
 30
0.0
 11
2528.000000000135
 21
2812.0000000001
 31
0.0
  0
LINE
  5
323
330
1F
100
AcDbEntity
  8
化粧台
  6
CONTINUOUS
 62
     2
100
AcDbLine
 10
2368.892140659651
 20
2806.219702852328
 30
0.0
 11
2528.000000000135
 21
2812.0000000001
 31
0.0
  0
ARC
  5
324
330
1F
100
AcDbEntity
  8
化粧台
  6
CONTINUOUS
 62
     2
100
AcDbCircle
 10
2334.981639718242
 20
2721.84000050237
 30
0.0
 40
7.000000000000004
100
AcDbArc
 50
214.241818030446
 51
267.4692369823577
  0
ARC
  5
325
330
1F
100
AcDbEntity
  8
化粧台
  6
CONTINUOUS
 62
     2
100
AcDbCircle
 10
2494.52897105274
 20
2830.438568927742
 30
0.0
 40
200.0000000000001
100
AcDbArc
 50
190.8828122024801
 51
214.2418180304466
  0
ARC
  5
326
330
1F
100
AcDbEntity
  8
化粧台
  6
CONTINUOUS
 62
     2
100
AcDbCircle
 10
2305.000000000135
 20
2794.000002384297
 30
0.0
 40
7.000000000000004
100
AcDbArc
 50
90.00000000000004
 51
190.8828122024797
  0
ARC
  5
327
330
1F
100
AcDbEntity
  8
化粧台
  6
CONTINUOUS
 62
     2
100
AcDbCircle
 10
2572.30016976711
 20
2828.130042729113
 30
0.0
 40
210.0000000000001
100
AcDbArc
 50
187.5420547298436
 51
213.9011770723439
  0
ARC
  5
328
330
1F
100
AcDbEntity
  8
化粧台
  6
CONTINUOUS
 62
     2
100
AcDbCircle
 10
2503.000000671069
 20
1687.0000000001
 30
0.0
 40
5.0
100
AcDbArc
 50
180.0
 51
270.0000000000002
  0
LINE
  5
329
330
1F
100
AcDbEntity
  8
化粧台
  6
CONTINUOUS
 62
     2
100
AcDbLine
 10
2498.000000671069
 20
1687.0000000001
 30
0.0
 11
2498.000000671069
 21
1887.123421041781
 31
0.0
  0
ARC
  5
32A
330
1F
100
AcDbEntity
  8
化粧台
  6
CONTINUOUS
 62
     2
100
AcDbCircle
 10
2493.000000671069
 20
1887.123421041781
 30
0.0
 40
5.0
100
AcDbArc
 50
0.0
 51
88.5679038426411
  0
LINE
  5
32B
330
1F
100
AcDbEntity
  8
化粧台
  6
CONTINUOUS
 62
     2
100
AcDbLine
 10
2493.124961624531
 20
1892.121859273879
 30
0.0
 11
2421.617428913902
 21
1893.909547558174
 31
0.0
  0
ARC
  5
32C
330
1F
100
AcDbEntity
  8
化粧台
  6
CONTINUOUS
 62
     2
100
AcDbCircle
 10
2421.742389867364
 20
1898.907985790274
 30
0.0
 40
5.0
100
AcDbArc
 50
196.0195721690387
 51
268.5679038426411
  0
ARC
  5
32D
330
1F
100
AcDbEntity
  8
化粧台
  6
CONTINUOUS
 62
     2
100
AcDbCircle
 10
2551.50000000052
 20
1936.163356041176
 30
0.0
 40
140.0
100
AcDbArc
 50
180.0104410849366
 51
196.0195721690396
  0
ARC
  5
32E
330
1F
100
AcDbEntity
  8
化粧台
  6
CONTINUOUS
 62
     2
100
AcDbCircle
 10
2369.073668035067
 20
2801.222999157693
 30
0.0
 40
5.00000000000006
100
AcDbArc
 50
92.0806077368306
 51
187.5420547298436
  0
LINE
  5
32F
330
1F
100
AcDbEntity
  8
化粧台
  6
CONTINUOUS
 62
     2
100
AcDbLine
 10
2528.000000000096
 20
1627.00000000004
 30
0.0
 11
2528.000000000096
 21
897.0000000000382
 31
0.0
  0
LINE
  5
330
330
1F
100
AcDbEntity
  8
化粧台
  6
CONTINUOUS
 62
     6
100
AcDbLine
 10
1103.000000000096
 20
3949.8
 30
0.0
 11
1103.000000000096
 21
4011.9
 31
0.0
  0
LINE
  5
331
330
1F
100
AcDbEntity
  8
化粧台
  6
CONTINUOUS
 62
     6
100
AcDbLine
 10
1182.500000000099
 20
3979.5
 30
0.0
 11
1203.500000000096
 21
3979.5
 31
0.0
  0
LINE
  5
332
330
1F
100
AcDbEntity
  8
化粧台
  6
CONTINUOUS
 62
     6
100
AcDbLine
 10
1203.500000000096
 20
3971.5
 30
0.0
 11
1203.500000000096
 21
3979.5
 31
0.0
  0
LINE
  5
333
330
1F
100
AcDbEntity
  8
化粧台
  6
CONTINUOUS
 62
     6
100
AcDbLine
 10
1182.500000000099
 20
3971.5
 30
0.0
 11
1182.500000000099
 21
3979.5
 31
0.0
  0
LINE
  5
334
330
1F
100
AcDbEntity
  8
化粧台
  6
CONTINUOUS
 62
     6
100
AcDbLine
 10
1193.000000000098
 20
3956.5
 30
0.0
 11
1193.000000000098
 21
3994.5
 31
0.0
  0
LINE
  5
335
330
1F
100
AcDbEntity
  8
化粧台
  6
CONTINUOUS
 62
     6
100
AcDbLine
 10
1092.500000000099
 20
3979.5
 30
0.0
 11
1113.500000000099
 21
3979.5
 31
0.0
  0
LINE
  5
336
330
1F
100
AcDbEntity
  8
化粧台
  6
CONTINUOUS
 62
     6
100
AcDbLine
 10
1113.500000000099
 20
3971.5
 30
0.0
 11
1113.500000000099
 21
3979.5
 31
0.0
  0
LINE
  5
337
330
1F
100
AcDbEntity
  8
化粧台
  6
CONTINUOUS
 62
     6
100
AcDbLine
 10
1092.500000000099
 20
3971.5
 30
0.0
 11
1092.500000000099
 21
3979.5
 31
0.0
  0
LINE
  5
338
330
1F
100
AcDbEntity
  8
化粧台
  6
CONTINUOUS
 62
     6
100
AcDbLine
 10
1103.000000000098
 20
3956.5
 30
0.0
 11
1103.000000000098
 21
3994.5
 31
0.0
  0
LINE
  5
339
330
1F
100
AcDbEntity
  8
化粧台
  6
EXLTYPE3
 62
     6
100
AcDbLine
 10
983.0000000000975
 20
3982.5
 30
0.0
 11
983.0000000000975
 21
3586.5
 31
0.0
  0
LINE
  5
33A
330
1F
100
AcDbEntity
  8
化粧台
  6
CONTINUOUS
 62
     6
100
AcDbLine
 10
1007.000000000136
 20
3991.050000000001
 30
0.0
 11
1039.000000000136
 21
3991.050000000001
 31
0.0
  0
LINE
  5
33B
330
1F
100
AcDbEntity
  8
化粧台
  6
CONTINUOUS
 62
     6
100
AcDbLine
 10
1007.000000000136
 20
3991.050000000001
 30
0.0
 11
1007.000000000136
 21
3971.050000000001
 31
0.0
  0
LINE
  5
33C
330
1F
100
AcDbEntity
  8
化粧台
  6
CONTINUOUS
 62
     6
100
AcDbLine
 10
1039.000000000136
 20
3991.050000000001
 30
0.0
 11
1039.000000000136
 21
3971.050000000001
 31
0.0
  0
LINE
  5
33D
330
1F
100
AcDbEntity
  8
化粧台
  6
EXLTYPE4
 62
     6
100
AcDbLine
 10
507.0000000000957
 20
3971.5
 30
0.0
 11
1656.000000000094
 21
3971.5
 31
0.0
  0
LINE
  5
33E
330
1F
100
AcDbEntity
  8
化粧台
  6
EXLTYPE4
 62
     6
100
AcDbLine
 10
1792.000000000094
 20
897.0
 30
0.0
 11
507.0000000000938
 21
897.0
 31
0.0
  0
LINE
  5
33F
330
1F
100
AcDbEntity
  8
化粧台
  6
EXLTYPE3
 62
     6
100
AcDbLine
 10
937.5000000001385
 20
3846.500000000037
 30
0.0
 11
1028.500000000138
 21
3846.500000000037
 31
0.0
  0
CIRCLE
  5
340
330
1F
100
AcDbEntity
  8
化粧台
  6
CONTINUOUS
 62
     6
100
AcDbCircle
 10
983.0001314583399
 20
3846.589548496029
 30
0.0
 40
20.5
  0
CIRCLE
  5
341
330
1F
100
AcDbEntity
  8
化粧台
  6
CONTINUOUS
 62
     6
100
AcDbCircle
 10
1005.544545878805
 20
3883.744531279959
 30
0.0
 40
2.1000366
  0
CIRCLE
  5
342
330
1F
100
AcDbEntity
  8
化粧台
  6
CONTINUOUS
 62
     6
100
AcDbCircle
 10
1002.716664998805
 20
3887.354843719959
 30
0.0
 40
2.1000366
  0
CIRCLE
  5
343
330
1F
100
AcDbEntity
  8
化粧台
  6
CONTINUOUS
 62
     6
100
AcDbCircle
 10
1026.413823158805
 20
3854.076171919959
 30
0.0
 40
2.1000366
  0
CIRCLE
  5
344
330
1F
100
AcDbEntity
  8
化粧台
  6
CONTINUOUS
 62
     6
100
AcDbCircle
 10
1021.845707918806
 20
3852.989257759959
 30
0.0
 40
2.1000366
  0
CIRCLE
  5
345
330
1F
100
AcDbEntity
  8
化粧台
  6
CONTINUOUS
 62
     6
100
AcDbCircle
 10
1017.929997518805
 20
3856.90624999996
 30
0.0
 40
2.1000366
  0
CIRCLE
  5
346
330
1F
100
AcDbEntity
  8
化粧台
  6
CONTINUOUS
 62
     6
100
AcDbCircle
 10
1015.754704478805
 20
3861.037109359959
 30
0.0
 40
2.1000366
  0
CIRCLE
  5
347
330
1F
100
AcDbEntity
  8
化粧台
  6
CONTINUOUS
 62
     6
100
AcDbCircle
 10
1013.579228438806
 20
3865.387695319959
 30
0.0
 40
2.1000366
  0
CIRCLE
  5
348
330
1F
100
AcDbEntity
  8
化粧台
  6
CONTINUOUS
 62
     6
100
AcDbCircle
 10
1011.621464798805
 20
3870.391601599959
 30
0.0
 40
2.1000366
  0
CIRCLE
  5
349
330
1F
100
AcDbEntity
  8
化粧台
  6
CONTINUOUS
 62
     6
100
AcDbCircle
 10
1009.663701158806
 20
3875.17871095996
 30
0.0
 40
2.1000366
  0
CIRCLE
  5
34A
330
1F
100
AcDbEntity
  8
化粧台
  6
CONTINUOUS
 62
     6
100
AcDbCircle
 10
1008.140812958805
 20
3879.962890639959
 30
0.0
 40
2.1000366
  0
CIRCLE
  5
34B
330
1F
100
AcDbEntity
  8
化粧台
  6
CONTINUOUS
 62
     6
100
AcDbCircle
 10
998.5537767988055
 20
3888.883789039959
 30
0.0
 40
2.1000366
  0
CIRCLE
  5
34C
330
1F
100
AcDbEntity
  8
化粧台
  6
CONTINUOUS
 62
     6
100
AcDbCircle
 10
993.333073598805
 20
3888.013671919959
 30
0.0
 40
2.1000366
  0
CIRCLE
  5
34D
330
1F
100
AcDbEntity
  8
化粧台
  6
CONTINUOUS
 62
     6
100
AcDbCircle
 10
989.4173631988044
 20
3884.313476599959
 30
0.0
 40
2.1000366
  0
CIRCLE
  5
34E
330
1F
100
AcDbEntity
  8
化粧台
  6
CONTINUOUS
 62
     6
100
AcDbCircle
 10
984.4140062788049
 20
3881.922851599959
 30
0.0
 40
2.1000366
  0
CIRCLE
  5
34F
330
1F
100
AcDbEntity
  8
化粧台
  6
CONTINUOUS
 62
     6
100
AcDbCircle
 10
981.368596118805
 20
3877.352539039959
 30
0.0
 40
2.1000366
  0
CIRCLE
  5
350
330
1F
100
AcDbEntity
  8
化粧台
  6
CONTINUOUS
 62
     6
100
AcDbCircle
 10
980.2807664788054
 20
3871.69824211996
 30
0.0
 40
2.1000366
  0
CIRCLE
  5
351
330
1F
100
AcDbEntity
  8
化粧台
  6
CONTINUOUS
 62
     6
100
AcDbCircle
 10
980.7160082788043
 20
3866.69433595996
 30
0.0
 40
2.1000366
  0
ARC
  5
352
330
1F
100
AcDbEntity
  8
化粧台
  6
CONTINUOUS
 62
     6
100
AcDbCircle
 10
983.0077562788049
 20
3855.139648399959
 30
0.0
 40
10.08007044000001
100
AcDbArc
 50
290.361129760002
 51
249.6389617899985
  0
ARC
  5
353
330
1F
100
AcDbEntity
  8
化粧台
  6
CONTINUOUS
 62
     6
100
AcDbCircle
 10
983.0077562788049
 20
3855.139648399959
 30
0.0
 40
8.639966040000004
100
AcDbArc
 50
294.0516357400017
 51
245.9483642599983
  0
CIRCLE
  5
354
330
1F
100
AcDbEntity
  8
化粧台
  6
CONTINUOUS
 62
     6
100
AcDbCircle
 10
983.0077562788049
 20
3846.49999999996
 30
0.0
 40
3.600036600000004
  0
LINE
  5
355
330
1F
100
AcDbEntity
  8
化粧台
  6
CONTINUOUS
 62
     6
100
AcDbLine
 10
1031.007756278805
 20
3846.49999999996
 30
0.0
 11
987.6771288388056
 21
3846.49999999996
 31
0.0
  0
CIRCLE
  5
356
330
1F
100
AcDbEntity
  8
化粧台
  6
CONTINUOUS
 62
     6
100
AcDbCircle
 10
1043.228694773895
 20
3858.972312923242
 30
0.0
 40
2.1000366
  0
CIRCLE
  5
357
330
1F
100
AcDbEntity
  8
化粧台
  6
CONTINUOUS
 62
     6
100
AcDbCircle
 10
1048.016137138875
 20
3860.965444231342
 30
0.0
 40
2.1000366
  0
CIRCLE
  5
358
330
1F
100
AcDbEntity
  8
化粧台
  6
CONTINUOUS
 62
     6
100
AcDbCircle
 10
1039.543192499886
 20
3856.145348131542
 30
0.0
 40
2.1000366
  0
CIRCLE
  5
359
330
1F
100
AcDbEntity
  8
化粧台
  6
CONTINUOUS
 62
     6
100
AcDbCircle
 10
1035.975545753755
 20
3853.106918508243
 30
0.0
 40
2.1000366
  0
CIRCLE
  5
35A
330
1F
100
AcDbEntity
  8
化粧台
  6
CONTINUOUS
 62
     6
100
AcDbCircle
 10
1031.214177892695
 20
3853.27743218986
 30
0.0
 40
2.1000366
  0
CIRCLE
  5
35B
330
1F
100
AcDbEntity
  8
化粧台
  6
CONTINUOUS
 62
     6
100
AcDbCircle
 10
1051.512612311474
 20
3865.045943833059
 30
0.0
 40
2.1000366
  0
CIRCLE
  5
35C
330
1F
100
AcDbEntity
  8
化粧台
  6
CONTINUOUS
 62
     6
100
AcDbCircle
 10
1053.637268790495
 20
3870.169194196759
 30
0.0
 40
2.1000366
  0
CIRCLE
  5
35D
330
1F
100
AcDbEntity
  8
化粧台
  6
CONTINUOUS
 62
     6
100
AcDbCircle
 10
1055.116331492525
 20
3874.862803055159
 30
0.0
 40
2.1000366
  0
CIRCLE
  5
35E
330
1F
100
AcDbEntity
  8
化粧台
  6
CONTINUOUS
 62
     6
100
AcDbCircle
 10
1057.795971793336
 20
3885.30030314346
 30
0.0
 40
2.1000366
  0
CIRCLE
  5
35F
330
1F
100
AcDbEntity
  8
化粧台
  6
CONTINUOUS
 62
     6
100
AcDbCircle
 10
1057.143383953336
 20
3879.643076543459
 30
0.0
 40
2.1000366
  0
CIRCLE
  5
360
330
1F
100
AcDbEntity
  8
化粧台
  6
CONTINUOUS
 62
     6
100
AcDbCircle
 10
1077.519945599606
 20
3888.861662269859
 30
0.0
 40
2.1000366
  0
CIRCLE
  5
361
330
1F
100
AcDbEntity
  8
化粧台
  6
CONTINUOUS
 62
     6
100
AcDbCircle
 10
1081.541895106975
 20
3886.232077929642
 30
0.0
 40
2.1000366
  0
CIRCLE
  5
362
330
1F
100
AcDbEntity
  8
化粧台
  6
CONTINUOUS
 62
     6
100
AcDbCircle
 10
1072.558829130366
 20
3890.380671553759
 30
0.0
 40
2.1000366
  0
CIRCLE
  5
363
330
1F
100
AcDbEntity
  8
化粧台
  6
CONTINUOUS
 62
     6
100
AcDbCircle
 10
1067.730032420697
 20
3890.406264448558
 30
0.0
 40
2.1000366
  0
CIRCLE
  5
364
330
1F
100
AcDbEntity
  8
化粧台
  6
CONTINUOUS
 62
     6
100
AcDbCircle
 10
1062.952044777471
 20
3889.001566480499
 30
0.0
 40
2.1000366
  0
CIRCLE
  5
365
330
1F
100
AcDbEntity
  8
化粧台
  6
CONTINUOUS
 62
     6
100
AcDbCircle
 10
1085.700297455816
 20
3883.359005850342
 30
0.0
 40
2.1000366
  0
CIRCLE
  5
366
330
1F
100
AcDbEntity
  8
化粧台
  6
CONTINUOUS
 62
     6
100
AcDbCircle
 10
1090.174934138585
 20
3881.528574754842
 30
0.0
 40
2.1000366
  0
CIRCLE
  5
367
330
1F
100
AcDbEntity
  8
化粧台
  6
CONTINUOUS
 62
     6
100
AcDbCircle
 10
1095.153935234546
 20
3880.062090571642
 30
0.0
 40
2.1000366
  0
CIRCLE
  5
368
330
1F
100
AcDbEntity
  8
化粧台
  6
CONTINUOUS
 62
     6
100
AcDbCircle
 10
1100.036194175785
 20
3878.765766548642
 30
0.0
 40
2.1000366
  0
CIRCLE
  5
369
330
1F
100
AcDbEntity
  8
化粧台
  6
CONTINUOUS
 62
     6
100
AcDbCircle
 10
1110.193934865485
 20
3875.450337890858
 30
0.0
 40
2.1000366
  0
CIRCLE
  5
36A
330
1F
100
AcDbEntity
  8
化粧台
  6
CONTINUOUS
 62
     6
100
AcDbCircle
 10
1114.215884372855
 20
3872.820753550642
 30
0.0
 40
2.1000366
  0
CIRCLE
  5
36B
330
1F
100
AcDbEntity
  8
化粧台
  6
CONTINUOUS
 62
     6
100
AcDbCircle
 10
1105.232818396245
 20
3876.969347174759
 30
0.0
 40
2.1000366
  0
CIRCLE
  5
36C
330
1F
100
AcDbEntity
  8
化粧台
  6
CONTINUOUS
 62
     6
100
AcDbCircle
 10
1118.374286721694
 20
3869.947681471342
 30
0.0
 40
2.1000366
  0
CIRCLE
  5
36D
330
1F
100
AcDbEntity
  8
化粧台
  6
CONTINUOUS
 62
     6
100
AcDbCircle
 10
1122.848923404466
 20
3868.117250375842
 30
0.0
 40
2.1000366
  0
ARC
  5
36E
330
1F
100
AcDbEntity
  8
化粧台
  6
CONTINUOUS
 62
     6
100
AcDbCircle
 10
1127.827924500425
 20
3866.650766192642
 30
0.0
 40
2.1000366
100
AcDbArc
 50
353.434807188079
 51
226.5651928119227
  0
CIRCLE
  5
36F
330
1F
100
AcDbEntity
  8
化粧台
  6
CONTINUOUS
 62
     6
100
AcDbCircle
 10
983.0000000001385
 20
3846.500000000037
 30
0.0
 40
30.50000000000002
  0
LINE
  5
370
330
1F
100
AcDbEntity
  8
化粧台
  6
EXLTYPE2
 62
     6
100
AcDbLine
 10
1185.033461596378
 20
3841.420969720809
 30
0.0
 11
1162.436726798621
 21
3779.336951110569
 31
0.0
  0
LINE
  5
371
330
1F
100
AcDbEntity
  8
化粧台
  6
EXLTYPE2
 62
     6
100
AcDbLine
 10
1170.938072284586
 20
3846.551271870695
 30
0.0
 11
1148.34133748683
 21
3784.467253260455
 31
0.0
  0
LINE
  5
372
330
1F
100
AcDbEntity
  8
化粧台
  6
EXLTYPE2
 62
     6
100
AcDbLine
 10
1158.893071765665
 20
3879.644638813534
 30
0.0
 11
1101.676130719
 21
3912.678855129033
 31
0.0
  0
LINE
  5
373
330
1F
100
AcDbEntity
  8
化粧台
  6
EXLTYPE2
 62
     6
100
AcDbLine
 10
1166.393071765667
 20
3892.635019870303
 30
0.0
 11
1109.176130719002
 21
3925.669236185802
 31
0.0
  0
DIMENSION
  5
374
330
1F
100
AcDbEntity
  8
化粧台
  6
CONTINUOUS
 62
     3
100
AcDbDimension
  2
*D32
 10
2860.5
 20
897.0
 30
0.0
 11
2823.0
 21
1161.975
 31
0.0
 70
   160
  1
530（壁固定）
  3
ISO-25
100
AcDbAlignedDimension
 13
2574.3222714808
 23
1426.95
 33
0.0
 14
2803.5
 24
897.0
 34
0.0
 50
90.0
100
AcDbRotatedDimension
1001
ACAD
1000
DSTYLE
1002
{
1070
   270
1070
     2
1070
     6
1000
EX_NORM
1070
     7
1000
EX_NORM
1070
    41
1040
44.99999618530273
1070
    42
1040
10.49999982118607
1070
    44
1040
14.99999999999955
1070
    73
1070
     0
1070
    74
1070
     0
1070
    75
1070
     0
1070
    76
1070
     0
1070
    77
1070
     1
1070
    78
1070
     8
1070
   140
1040
59.99999618530273
1070
   147
1040
0.0
1070
   173
1070
     1
1070
   176
1070
     3
1070
   177
1070
     3
1070
   178
1070
     2
1070
   271
1070
     1
1070
   277
1070
     2
1070
   279
1070
     2
1070
   280
1070
     0
1070
   287
1070
     5
1070
   340
1005
11B
1002
}
  0
LINE
  5
381
330
1F
100
AcDbEntity
  8
化粧台
  6
CONTINUOUS
 62
     6
100
AcDbLine
 10
1193.000000000098
 20
3952.5
 30
0.0
 11
1193.000000000098
 21
3999.0
 31
0.0
  0
LINE
  5
382
330
1F
100
AcDbEntity
  8
化粧台
  6
CONTINUOUS
 62
     3
100
AcDbLine
 10
1103.000000000137
 20
859.5000001787739
 30
0.0
 11
1103.000000000137
 21
777.0
 31
0.0
  0
DIMENSION
  5
383
330
1F
100
AcDbEntity
  8
化粧台
  6
CONTINUOUS
 62
     3
100
AcDbDimension
  2
*D33
 10
1193.000000000137
 20
745.5
 30
0.0
 11
1429.999999284881
 21
783.0
 31
0.0
 70
   160
  1
  90（床給水）
  3
ISO-25
100
AcDbAlignedDimension
 13
1103.000000000137
 23
869.99999999996
 33
0.0
 14
1193.000000000137
 24
870.0
 34
0.0
100
AcDbRotatedDimension
1001
ACAD
1000
DSTYLE
1002
{
1070
   270
1070
     2
1070
     6
1000
EX_NORM
1070
     7
1000
EX_NORM
1070
    41
1040
44.99999618530273
1070
    42
1040
10.49999982118607
1070
    44
1040
15.0
1070
    73
1070
     0
1070
    74
1070
     0
1070
    75
1070
     0
1070
    76
1070
     0
1070
    77
1070
     1
1070
    78
1070
     8
1070
   140
1040
59.99999618530273
1070
   147
1040
0.0
1070
   173
1070
     1
1070
   176
1070
     3
1070
   177
1070
     3
1070
   178
1070
     2
1070
   271
1070
     1
1070
   277
1070
     2
1070
   279
1070
     2
1070
   280
1070
     2
1070
   287
1070
     5
1070
   340
1005
11B
1002
}
  0
DIMENSION
  5
390
330
1F
100
AcDbEntity
  8
化粧台
  6
CONTINUOUS
 62
     3
100
AcDbDimension
  2
*D34
 10
1103.000000000137
 20
745.5
 30
0.0
 11
1043.000000000137
 21
783.0
 31
0.0
 70
   160
  3
ISO-25
100
AcDbAlignedDimension
 13
983.0000000001368
 23
835.5
 33
0.0
 14
1103.000000000137
 24
869.99999999996
 34
0.0
100
AcDbRotatedDimension
1001
ACAD
1000
DSTYLE
1002
{
1070
   270
1070
     2
1070
     6
1000
EX_NORM
1070
     7
1000
EX_NORM
1070
    41
1040
44.99999618530273
1070
    42
1040
10.49999982118607
1070
    44
1040
15.0
1070
    73
1070
     0
1070
    74
1070
     0
1070
    75
1070
     0
1070
    76
1070
     0
1070
    77
1070
     1
1070
    78
1070
     8
1070
   140
1040
59.99999618530273
1070
   147
1040
0.0
1070
   173
1070
     1
1070
   176
1070
     3
1070
   177
1070
     3
1070
   178
1070
     2
1070
   271
1070
     1
1070
   277
1070
     2
1070
   279
1070
     2
1070
   280
1070
     0
1070
   287
1070
     5
1070
   340
1005
11B
1002
}
  0
TEXT
  5
39D
330
1F
100
AcDbEntity
  8
化粧台
  6
CONTINUOUS
 62
     2
100
AcDbText
 10
708.0000003577651
 20
777.249999910593
 30
0.0
 40
59.99999618530273
  1
床排水
 41
1.070588224822399
  7
EXCADSTD
 72
     5
 11
863.9999889136733
 21
777.249999910593
 31
0.0
100
AcDbText
  0
LEADER
  5
39E
330
1F
100
AcDbEntity
  8
化粧台
  6
CONTINUOUS
 62
     3
100
AcDbLeader
  3
ISO-25
 76
     3
 10
967.0000000001359
 20
888.0
 30
0.0
 10
844.5000000001372
 20
775.0
 30
0.0
 10
707.2500000001381
 20
775.0
 30
0.0
1001
ACAD
1000
DSTYLE
1002
{
1070
     5
1000
EX_NORM
1070
    41
1040
45.0
1070
   341
1005
4D
1002
}
  0
LINE
  5
39F
330
1F
100
AcDbEntity
  8
化粧台
  6
CONTINUOUS
 62
     3
100
AcDbLine
 10
982.0000000001013
 20
995.4999998808307
 30
0.0
 11
982.0000000001013
 21
1085.000000119209
 31
0.0
  0
LINE
  5
3A0
330
1F
100
AcDbEntity
  8
化粧台
  6
CONTINUOUS
 62
     3
100
AcDbLine
 10
984.0000000001413
 20
995.4999998807907
 30
0.0
 11
984.0000000001413
 21
1084.799999713898
 31
0.0
  0
LINE
  5
3A1
330
1F
100
AcDbEntity
  8
化粧台
  6
EXLTYPE2
 62
     6
100
AcDbLine
 10
983.0000000001422
 20
1459.00000000004
 30
0.0
 11
983.0000000001422
 21
1476.00000000004
 31
0.0
  0
LINE
  5
3A2
330
1F
100
AcDbEntity
  8
化粧台
  6
EXLTYPE2
 62
     6
100
AcDbLine
 10
948.0000000001422
 20
1476.00000000004
 30
0.0
 11
1018.000000000142
 21
1476.00000000004
 31
0.0
  0
ARC
  5
3A3
330
1F
100
AcDbEntity
  8
化粧台
  6
EXLTYPE2
 62
     6
100
AcDbCircle
 10
1007.251837728142
 20
1460.385594593441
 30
0.0
 40
4.385594593380002
100
AcDbArc
 50
198.4177055184001
 51
270.0000000000002
  0
LINE
  5
3A4
330
1F
100
AcDbEntity
  8
化粧台
  6
EXLTYPE2
 62
     6
100
AcDbLine
 10
1003.090880199143
 20
1459.00000000004
 30
0.0
 11
1003.090880199143
 21
1476.00000000004
 31
0.0
  0
ARC
  5
3A5
330
1F
100
AcDbEntity
  8
化粧台
  6
EXLTYPE2
 62
     6
100
AcDbCircle
 10
993.045440100141
 20
1474.318477799141
 30
0.0
 40
18.31847779905
100
AcDbArc
 50
236.7442298452004
 51
303.2557701548001
  0
ARC
  5
3A6
330
1F
100
AcDbEntity
  8
化粧台
  6
EXLTYPE2
 62
     6
100
AcDbCircle
 10
972.9545599001434
 20
1474.318477799141
 30
0.0
 40
18.31847779905
100
AcDbArc
 50
236.7442298452004
 51
303.2557701548001
  0
LINE
  5
3A7
330
1F
100
AcDbEntity
  8
化粧台
  6
EXLTYPE2
 62
     6
100
AcDbLine
 10
962.9091198011414
 20
1459.00000000004
 30
0.0
 11
962.9091198011414
 21
1476.00000000004
 31
0.0
  0
ARC
  5
3A8
330
1F
100
AcDbEntity
  8
化粧台
  6
EXLTYPE2
 62
     6
100
AcDbCircle
 10
958.7481622721428
 20
1460.385594593441
 30
0.0
 40
4.385594593380002
100
AcDbArc
 50
270.0000000000002
 51
341.5822944816002
  0
LINE
  5
3A9
330
1F
100
AcDbEntity
  8
化粧台
  6
EXLTYPE2
 62
     6
100
AcDbLine
 10
1018.000000000142
 20
1483.50000000004
 30
0.0
 11
1013.813953488513
 21
1486.50000000004
 31
0.0
  0
LINE
  5
3AA
330
1F
100
AcDbEntity
  8
化粧台
  6
EXLTYPE2
 62
     6
100
AcDbLine
 10
948.0000000001422
 20
1483.50000000004
 30
0.0
 11
952.1860465117719
 21
1486.50000000004
 31
0.0
  0
LINE
  5
3AB
330
1F
100
AcDbEntity
  8
化粧台
  6
EXLTYPE2
 62
     6
100
AcDbLine
 10
1018.000000000142
 20
1483.50000000004
 30
0.0
 11
1018.000000000142
 21
1476.00000000004
 31
0.0
  0
LINE
  5
3AC
330
1F
100
AcDbEntity
  8
化粧台
  6
EXLTYPE2
 62
     6
100
AcDbLine
 10
948.0000000001422
 20
1483.50000000004
 30
0.0
 11
948.0000000001422
 21
1476.00000000004
 31
0.0
  0
LINE
  5
3AD
330
1F
100
AcDbEntity
  8
化粧台
  6
EXLTYPE2
 62
     6
100
AcDbLine
 10
1011.412795258144
 20
1459.00000000004
 30
0.0
 11
1009.250000000142
 21
1456.00000000004
 31
0.0
  0
LINE
  5
3AE
330
1F
100
AcDbEntity
  8
化粧台
  6
EXLTYPE2
 62
     6
100
AcDbLine
 10
1011.412795258144
 20
1476.00000000004
 30
0.0
 11
1011.412795258144
 21
1459.00000000004
 31
0.0
  0
LINE
  5
3AF
330
1F
100
AcDbEntity
  8
化粧台
  6
EXLTYPE2
 62
     6
100
AcDbLine
 10
1009.250000000142
 20
1456.00000000004
 30
0.0
 11
1009.250000000142
 21
1431.50000000004
 31
0.0
  0
LINE
  5
3B0
330
1F
100
AcDbEntity
  8
化粧台
  6
EXLTYPE2
 62
     6
100
AcDbLine
 10
998.7500000001422
 20
1422.50000000004
 30
0.0
 11
998.7500000001422
 21
1376.50000000004
 31
0.0
  0
LINE
  5
3B1
330
1F
100
AcDbEntity
  8
化粧台
  6
EXLTYPE2
 62
     6
100
AcDbLine
 10
954.5872047421439
 20
1459.00000000004
 30
0.0
 11
956.7500000001422
 21
1456.00000000004
 31
0.0
  0
LINE
  5
3B2
330
1F
100
AcDbEntity
  8
化粧台
  6
EXLTYPE2
 62
     6
100
AcDbLine
 10
954.5872047421439
 20
1476.00000000004
 30
0.0
 11
954.5872047421439
 21
1459.00000000004
 31
0.0
  0
LINE
  5
3B3
330
1F
100
AcDbEntity
  8
化粧台
  6
EXLTYPE2
 62
     6
100
AcDbLine
 10
967.2500000001422
 20
1422.50000000004
 30
0.0
 11
967.2500000001422
 21
1376.50000000004
 31
0.0
  0
LINE
  5
3B4
330
1F
100
AcDbEntity
  8
化粧台
  6
EXLTYPE2
 62
     6
100
AcDbLine
 10
956.7500000001422
 20
1456.00000000004
 30
0.0
 11
956.7500000001422
 21
1431.50000000004
 31
0.0
  0
LINE
  5
3B5
330
1F
100
AcDbEntity
  8
化粧台
  6
EXLTYPE2
 62
     6
100
AcDbLine
 10
956.7500000001422
 20
1456.00000000004
 30
0.0
 11
1009.250000000142
 21
1456.00000000004
 31
0.0
  0
LINE
  5
3B6
330
1F
100
AcDbEntity
  8
化粧台
  6
EXLTYPE2
 62
     6
100
AcDbLine
 10
967.2500000001422
 20
1376.50000000004
 30
0.0
 11
998.7500000001422
 21
1376.50000000004
 31
0.0
  0
LINE
  5
3B7
330
1F
100
AcDbEntity
  8
化粧台
  6
EXLTYPE2
 62
     6
100
AcDbLine
 10
1009.250000000142
 20
1431.50000000004
 30
0.0
 11
998.7500000001422
 21
1422.50000000004
 31
0.0
  0
LINE
  5
3B8
330
1F
100
AcDbEntity
  8
化粧台
  6
EXLTYPE2
 62
     6
100
AcDbLine
 10
956.7500000001422
 20
1431.50000000004
 30
0.0
 11
967.2500000001422
 21
1422.50000000004
 31
0.0
  0
LINE
  5
3B9
330
1F
100
AcDbEntity
  8
化粧台
  6
EXLTYPE2
 62
     6
100
AcDbLine
 10
956.7500000001422
 20
1431.50000000004
 30
0.0
 11
1009.250000000142
 21
1431.50000000004
 31
0.0
  0
LINE
  5
3BA
330
1F
100
AcDbEntity
  8
化粧台
  6
EXLTYPE2
 62
     6
100
AcDbLine
 10
967.2500000001422
 20
1422.50000000004
 30
0.0
 11
998.7500000001422
 21
1422.50000000004
 31
0.0
  0
LINE
  5
3BB
330
1F
100
AcDbEntity
  8
化粧台
  6
EXLTYPE2
 62
     6
100
AcDbLine
 10
1001.250000000142
 20
1394.700000000041
 30
0.0
 11
1001.250000000142
 21
1354.611863703343
 31
0.0
  0
LINE
  5
3BC
330
1F
100
AcDbEntity
  8
化粧台
  6
EXLTYPE2
 62
     6
100
AcDbLine
 10
964.7500000001422
 20
1394.700000000041
 30
0.0
 11
964.7500000001422
 21
1354.611863703343
 31
0.0
  0
LINE
  5
3BD
330
1F
100
AcDbEntity
  8
化粧台
  6
EXLTYPE2
 62
     6
100
AcDbLine
 10
1001.250000000142
 20
1354.611863703343
 30
0.0
 11
1000.000000000142
 21
1353.61186367134
 31
0.0
  0
LINE
  5
3BE
330
1F
100
AcDbEntity
  8
化粧台
  6
EXLTYPE2
 62
     6
100
AcDbLine
 10
966.0000000001422
 20
1353.61186367134
 30
0.0
 11
964.7500000001422
 21
1354.611863703343
 31
0.0
  0
LINE
  5
3BF
330
1F
100
AcDbEntity
  8
化粧台
  6
EXLTYPE2
 62
     6
100
AcDbLine
 10
1000.000000000146
 20
1353.611863671344
 30
0.0
 11
966.0000000001422
 21
1353.611863671344
 31
0.0
  0
LINE
  5
3C0
330
1F
100
AcDbEntity
  8
化粧台
  6
EXLTYPE2
 62
     6
100
AcDbLine
 10
1007.250000000142
 20
1394.700000000041
 30
0.0
 11
958.7500000001422
 21
1394.700000000041
 31
0.0
  0
LINE
  5
3C1
330
1F
100
AcDbEntity
  8
化粧台
  6
EXLTYPE2
 62
     6
100
AcDbLine
 10
1007.250000000142
 20
1409.50000000004
 30
0.0
 11
1007.250000000142
 21
1394.700000000041
 31
0.0
  0
LINE
  5
3C2
330
1F
100
AcDbEntity
  8
化粧台
  6
EXLTYPE2
 62
     6
100
AcDbLine
 10
1004.250000000142
 20
1412.50000000004
 30
0.0
 11
961.7500000001422
 21
1412.50000000004
 31
0.0
  0
LINE
  5
3C3
330
1F
100
AcDbEntity
  8
化粧台
  6
EXLTYPE2
 62
     6
100
AcDbLine
 10
958.7500000001422
 20
1409.50000000004
 30
0.0
 11
958.7500000001422
 21
1394.700000000041
 31
0.0
  0
ARC
  5
3C4
330
1F
100
AcDbEntity
  8
化粧台
  6
EXLTYPE2
 62
     6
100
AcDbCircle
 10
1004.250000000142
 20
1409.50000000004
 30
0.0
 40
3.000000000000002
100
AcDbArc
 50
0.0
 51
90.00000000000001
  0
ARC
  5
3C5
330
1F
100
AcDbEntity
  8
化粧台
  6
EXLTYPE2
 62
     6
100
AcDbCircle
 10
961.7500000001422
 20
1409.50000000004
 30
0.0
 40
3.000000000000002
100
AcDbArc
 50
90.00000000000001
 51
180.0
  0
LINE
  5
3C6
330
1F
100
AcDbEntity
  8
化粧台
  6
EXLTYPE2
 62
     6
100
AcDbLine
 10
966.0000000001422
 20
1353.611863671344
 30
0.0
 11
966.0000000001422
 21
1319.98686234378
 31
0.0
  0
ARC
  5
3C7
330
1F
100
AcDbEntity
  8
化粧台
  6
EXLTYPE2
 62
     6
100
AcDbCircle
 10
922.2231693722428
 20
1356.811312276041
 30
0.0
 40
3.000000000000002
100
AcDbArc
 50
90.00000000000001
 51
180.0
  0
LINE
  5
3C8
330
1F
100
AcDbEntity
  8
化粧台
  6
EXLTYPE2
 62
     6
100
AcDbLine
 10
961.7231693722428
 20
1342.011312276041
 30
0.0
 11
961.7231693722428
 21
1319.98686234378
 31
0.0
  0
LINE
  5
3C9
330
1F
100
AcDbEntity
  8
化粧台
  6
EXLTYPE2
 62
     6
100
AcDbLine
 10
925.2231693722428
 20
1342.011312276041
 30
0.0
 11
925.2231693722428
 21
1313.911862369041
 31
0.0
  0
LINE
  5
3CA
330
1F
100
AcDbEntity
  8
化粧台
  6
EXLTYPE2
 62
     6
100
AcDbLine
 10
1000.000000000146
 20
1353.611863671344
 30
0.0
 11
1000.000000000146
 21
1321.918261759489
 31
0.0
  0
ARC
  5
3CB
330
1F
100
AcDbEntity
  8
化粧台
  6
EXLTYPE2
 62
     6
100
AcDbCircle
 10
963.2365846861907
 20
1390.148448271008
 30
0.0
 40
3.763415313933366
100
AcDbArc
 50
66.28804661525457
 51
180.0
  0
LINE
  5
3CC
330
1F
100
AcDbEntity
  8
化粧台
  6
EXLTYPE2
 62
     6
100
AcDbLine
 10
959.4731693722428
 20
1390.148448271008
 30
0.0
 11
959.4731693722428
 21
1359.811312276041
 31
0.0
  0
LINE
  5
3CD
330
1F
100
AcDbEntity
  8
化粧台
  6
EXLTYPE2
 62
     6
100
AcDbLine
 10
927.4731693722428
 20
1390.148448270989
 30
0.0
 11
927.4731693722428
 21
1359.811312276041
 31
0.0
  0
LINE
  5
3CE
330
1F
100
AcDbEntity
  8
化粧台
  6
EXLTYPE2
 62
     6
100
AcDbLine
 10
964.7500000001422
 20
1359.811312276041
 30
0.0
 11
922.2231693722428
 21
1359.811312276041
 31
0.0
  0
LINE
  5
3CF
330
1F
100
AcDbEntity
  8
化粧台
  6
EXLTYPE2
 62
     6
100
AcDbLine
 10
966.0000000001422
 20
1342.011312276041
 30
0.0
 11
919.2231693722428
 21
1342.011312276041
 31
0.0
  0
ARC
  5
3D0
330
1F
100
AcDbEntity
  8
化粧台
  6
EXLTYPE2
 62
     6
100
AcDbCircle
 10
963.2365846861907
 20
1390.148448270989
 30
0.0
 40
35.76341531395246
100
AcDbArc
 50
89.94725080561494
 51
180.0
  0
LINE
  5
3D1
330
1F
100
AcDbEntity
  8
化粧台
  6
EXLTYPE2
 62
     6
100
AcDbLine
 10
1016.500003814839
 20
936.5000019073414
 30
0.0
 11
1016.500003814839
 21
916.9999999999927
 31
0.0
  0
ARC
  5
3D2
330
1F
100
AcDbEntity
  8
化粧台
  6
EXLTYPE2
 62
     6
100
AcDbCircle
 10
1016.000003814839
 20
916.9999999999927
 30
0.0
 40
0.5
100
AcDbArc
 50
270.0000000000002
 51
0.0
  0
LINE
  5
3D3
330
1F
100
AcDbEntity
  8
化粧台
  6
EXLTYPE2
 62
     6
100
AcDbLine
 10
949.4999961854486
 20
936.5000019073414
 30
0.0
 11
949.4999961854486
 21
916.9999999999927
 31
0.0
  0
ARC
  5
3D4
330
1F
100
AcDbEntity
  8
化粧台
  6
EXLTYPE2
 62
     6
100
AcDbCircle
 10
949.9999961854486
 20
916.9999999999927
 30
0.0
 40
0.5
100
AcDbArc
 50
180.0
 51
270.0000000000002
  0
LINE
  5
3D5
330
1F
100
AcDbEntity
  8
化粧台
  6
EXLTYPE2
 62
     6
100
AcDbLine
 10
1016.000003814839
 20
916.4999999999927
 30
0.0
 11
949.999996185445
 21
916.4999999999927
 31
0.0
  0
LINE
  5
3D6
330
1F
100
AcDbEntity
  8
化粧台
  6
EXLTYPE2
 62
     6
100
AcDbLine
 10
1010.000000000142
 20
951.50000381469
 30
0.0
 11
1010.000000000142
 21
940.5000019073414
 31
0.0
  0
ARC
  5
3D7
330
1F
100
AcDbEntity
  8
化粧台
  6
EXLTYPE2
 62
     6
100
AcDbCircle
 10
1007.000000000142
 20
951.50000381469
 30
0.0
 40
3.000000000000002
100
AcDbArc
 50
359.9999949910431
 51
89.99999749552043
  0
ARC
  5
3D8
330
1F
100
AcDbEntity
  8
化粧台
  6
EXLTYPE2
 62
     6
100
AcDbCircle
 10
1011.000000000142
 20
940.5000019073414
 30
0.0
 40
1.0
100
AcDbArc
 50
180.0
 51
270.0000000000002
  0
ARC
  5
3D9
330
1F
100
AcDbEntity
  8
化粧台
  6
EXLTYPE2
 62
     6
100
AcDbCircle
 10
1013.500003814839
 20
936.5000019073414
 30
0.0
 40
3.000000000000002
100
AcDbArc
 50
359.9999949910431
 51
89.99999749552043
  0
LINE
  5
3DA
330
1F
100
AcDbEntity
  8
化粧台
  6
EXLTYPE2
 62
     6
100
AcDbLine
 10
1005.999996185445
 20
972.3465188789305
 30
0.0
 11
1005.999996185445
 21
956.54651964187
 31
0.0
  0
ARC
  5
3DB
330
1F
100
AcDbEntity
  8
化粧台
  6
EXLTYPE2
 62
     6
100
AcDbCircle
 10
1003.999996185445
 20
972.3465188789305
 30
0.0
 40
2.0
100
AcDbArc
 50
0.0000086514229809
 51
90.0000043257139
  0
LINE
  5
3DC
330
1F
100
AcDbEntity
  8
化粧台
  6
EXLTYPE2
 62
     6
100
AcDbLine
 10
956.0000000001459
 20
951.50000381469
 30
0.0
 11
956.0000000001459
 21
940.5000019073414
 31
0.0
  0
ARC
  5
3DD
330
1F
100
AcDbEntity
  8
化粧台
  6
EXLTYPE2
 62
     6
100
AcDbCircle
 10
959.0000000001459
 20
951.50000381469
 30
0.0
 40
3.000000000000002
100
AcDbArc
 50
90.00000250448174
 51
180.000005008957
  0
ARC
  5
3DE
330
1F
100
AcDbEntity
  8
化粧台
  6
EXLTYPE2
 62
     6
100
AcDbCircle
 10
955.0000000001459
 20
940.5000019073414
 30
0.0
 40
1.0
100
AcDbArc
 50
270.0000000000002
 51
0.0
  0
ARC
  5
3DF
330
1F
100
AcDbEntity
  8
化粧台
  6
EXLTYPE2
 62
     6
100
AcDbCircle
 10
952.4999961854486
 20
936.5000019073414
 30
0.0
 40
3.000000000000002
100
AcDbArc
 50
90.00000250448174
 51
180.000005008957
  0
LINE
  5
3E0
330
1F
100
AcDbEntity
  8
化粧台
  6
EXLTYPE2
 62
     6
100
AcDbLine
 10
960.0000038148431
 20
972.3465188789305
 30
0.0
 11
960.0000038148431
 21
956.54651964187
 31
0.0
  0
ARC
  5
3E1
330
1F
100
AcDbEntity
  8
化粧台
  6
EXLTYPE2
 62
     6
100
AcDbCircle
 10
962.0000038148431
 20
972.3465188789305
 30
0.0
 40
2.0
100
AcDbArc
 50
89.99999567428607
 51
179.9999913485771
  0
LINE
  5
3E2
330
1F
100
AcDbEntity
  8
化粧台
  6
EXLTYPE2
 62
     6
100
AcDbLine
 10
1003.999996185445
 20
974.3465188789305
 30
0.0
 11
962.0000038148431
 21
974.3465188789305
 31
0.0
  0
LINE
  5
3E3
330
1F
100
AcDbEntity
  8
化粧台
  6
EXLTYPE2
 62
     6
100
AcDbLine
 10
1005.999996185445
 20
956.54651964187
 30
0.0
 11
960.0000038148431
 21
956.54651964187
 31
0.0
  0
LINE
  5
3E4
330
1F
100
AcDbEntity
  8
化粧台
  6
EXLTYPE2
 62
     6
100
AcDbLine
 10
1007.000000000142
 20
954.50000381469
 30
0.0
 11
959.0000000001459
 21
954.50000381469
 31
0.0
  0
LINE
  5
3E5
330
1F
100
AcDbEntity
  8
化粧台
  6
EXLTYPE2
 62
     6
100
AcDbLine
 10
1013.500003814839
 20
939.5000019073414
 30
0.0
 11
952.4999961854486
 21
939.5000019073414
 31
0.0
  0
LINE
  5
3E6
330
1F
100
AcDbEntity
  8
化粧台
  6
EXLTYPE2
 62
     6
100
AcDbLine
 10
978.2365846861397
 20
1280.611861335172
 30
0.0
 11
948.2365846861397
 21
1280.611861335172
 31
0.0
  0
LINE
  5
3E7
330
1F
100
AcDbEntity
  8
化粧台
  6
EXLTYPE2
 62
     6
100
AcDbLine
 10
978.2365846861434
 20
1283.381770843342
 30
0.0
 11
948.2365846861434
 21
1283.381770843342
 31
0.0
  0
LINE
  5
3E8
330
1F
100
AcDbEntity
  8
化粧台
  6
EXLTYPE2
 62
     6
100
AcDbLine
 10
978.2365846861397
 20
1283.381770843305
 30
0.0
 11
978.2365846861397
 21
1268.111865271341
 31
0.0
  0
LINE
  5
3E9
330
1F
100
AcDbEntity
  8
化粧台
  6
EXLTYPE2
 62
     6
100
AcDbLine
 10
976.7365846861397
 20
1266.611865271341
 30
0.0
 11
949.7365846861397
 21
1266.611865271341
 31
0.0
  0
LINE
  5
3EA
330
1F
100
AcDbEntity
  8
化粧台
  6
EXLTYPE2
 62
     6
100
AcDbLine
 10
948.2365846861397
 20
1283.381770843309
 30
0.0
 11
948.2365846861397
 21
1268.111865271341
 31
0.0
  0
ARC
  5
3EB
330
1F
100
AcDbEntity
  8
化粧台
  6
EXLTYPE2
 62
     6
100
AcDbCircle
 10
976.7365846861397
 20
1268.111865271341
 30
0.0
 40
1.5
100
AcDbArc
 50
270.0000000000002
 51
0.0
  0
ARC
  5
3EC
330
1F
100
AcDbEntity
  8
化粧台
  6
EXLTYPE2
 62
     6
100
AcDbCircle
 10
949.7365846861397
 20
1268.111865271341
 30
0.0
 40
1.5
100
AcDbArc
 50
180.0
 51
270.0000000000002
  0
ARC
  5
3ED
330
1F
100
AcDbEntity
  8
化粧台
  6
EXLTYPE2
 62
     6
100
AcDbCircle
 10
926.2231693722428
 20
1313.911862369041
 30
0.0
 40
1.0
100
AcDbArc
 50
180.0
 51
270.0000000000002
  0
ARC
  5
3EE
330
1F
100
AcDbEntity
  8
化粧台
  6
EXLTYPE2
 62
     6
100
AcDbCircle
 10
969.5981693723446
 20
1319.98686234378
 30
0.0
 40
7.87499999998454
100
AcDbArc
 50
180.0
 51
223.2429562691451
  0
ARC
  5
3EF
330
1F
100
AcDbEntity
  8
化粧台
  6
EXLTYPE2
 62
     6
100
AcDbCircle
 10
958.1250000001422
 20
1319.98686234378
 30
0.0
 40
7.87499999998454
100
AcDbArc
 50
284.0576142764539
 51
0.0
  0
ARC
  5
3F0
330
1F
100
AcDbEntity
  8
化粧台
  6
EXLTYPE2
 62
     6
100
AcDbCircle
 10
972.8681222532399
 20
1321.041926938087
 30
0.0
 40
45.0
100
AcDbArc
 50
190.4086772393206
 51
236.8134006511469
  0
ARC
  5
3F1
330
1F
100
AcDbEntity
  8
化粧台
  6
EXLTYPE2
 62
     6
100
AcDbCircle
 10
955.0000000001459
 20
1321.918261759489
 30
0.0
 40
45.0
100
AcDbArc
 50
301.0889746232344
 51
0.0
  0
LINE
  5
3F2
330
1F
100
AcDbEntity
  8
化粧台
  6
EXLTYPE2
 62
     6
100
AcDbLine
 10
936.9000000001437
 20
1312.911862369041
 30
0.0
 11
926.2231693722428
 21
1312.911862369041
 31
0.0
  0
LINE
  5
3F3
330
1F
100
AcDbEntity
  8
化粧台
  6
EXLTYPE2
 62
     6
100
AcDbLine
 10
967.0000000001422
 20
900.50000000004
 30
0.0
 11
967.0000000001422
 21
1266.611865271341
 31
0.0
  0
LINE
  5
3F4
330
1F
100
AcDbEntity
  8
化粧台
  6
EXLTYPE2
 62
     6
100
AcDbLine
 10
999.0000000001422
 20
900.50000000004
 30
0.0
 11
999.0000000001422
 21
1312.484280627425
 31
0.0
  0
LINE
  5
3F5
330
1F
100
AcDbEntity
  8
化粧台
  6
CONTINUOUS
 62
     6
100
AcDbLine
 10
967.0000000001422
 20
866.5000000000401
 30
0.0
 11
999.0000000001422
 21
866.5000000000401
 31
0.0
  0
LINE
  5
3F6
330
1F
100
AcDbEntity
  8
化粧台
  6
CONTINUOUS
 62
     6
100
AcDbLine
 10
967.0000000001422
 20
866.5000000000401
 30
0.0
 11
967.0000000001422
 21
900.50000000004
 31
0.0
  0
LINE
  5
3F7
330
1F
100
AcDbEntity
  8
化粧台
  6
CONTINUOUS
 62
     6
100
AcDbLine
 10
999.0000000001422
 20
866.5000000000401
 30
0.0
 11
999.0000000001422
 21
900.50000000004
 31
0.0
  0
LINE
  5
3F8
330
1F
100
AcDbEntity
  8
化粧台
  6
CONTINUOUS
 62
     6
100
AcDbLine
 10
1203.500000000101
 20
888.50000000004
 30
0.0
 11
1182.500000000101
 21
888.50000000004
 31
0.0
  0
LINE
  5
3F9
330
1F
100
AcDbEntity
  8
化粧台
  6
CONTINUOUS
 62
     6
100
AcDbLine
 10
1182.500000000101
 20
900.50000000004
 30
0.0
 11
1182.500000000101
 21
888.50000000004
 31
0.0
  0
LINE
  5
3FA
330
1F
100
AcDbEntity
  8
化粧台
  6
CONTINUOUS
 62
     6
100
AcDbLine
 10
1203.500000000101
 20
900.50000000004
 30
0.0
 11
1203.500000000101
 21
888.50000000004
 31
0.0
  0
LINE
  5
3FB
330
1F
100
AcDbEntity
  8
化粧台
  6
EXLTYPE3
 62
     6
100
AcDbLine
 10
1193.000000000101
 20
1283.00000000004
 30
0.0
 11
1193.000000000101
 21
873.50000000004
 31
0.0
  0
LINE
  5
3FC
330
1F
100
AcDbEntity
  8
化粧台
  6
CONTINUOUS
 62
     6
100
AcDbLine
 10
1113.500000000101
 20
888.5
 30
0.0
 11
1092.500000000101
 21
888.5
 31
0.0
  0
LINE
  5
3FD
330
1F
100
AcDbEntity
  8
化粧台
  6
CONTINUOUS
 62
     6
100
AcDbLine
 10
1092.500000000101
 20
900.5
 30
0.0
 11
1092.500000000101
 21
888.5
 31
0.0
  0
LINE
  5
3FE
330
1F
100
AcDbEntity
  8
化粧台
  6
CONTINUOUS
 62
     6
100
AcDbLine
 10
1113.500000000101
 20
900.5
 30
0.0
 11
1113.500000000101
 21
888.5
 31
0.0
  0
LINE
  5
3FF
330
1F
100
AcDbEntity
  8
化粧台
  6
EXLTYPE3
 62
     6
100
AcDbLine
 10
1103.000000000101
 20
1286.0
 30
0.0
 11
1103.000000000101
 21
873.5
 31
0.0
  0
ARC
  5
400
330
1F
100
AcDbEntity
  8
化粧台
  6
EXLTYPE2
 62
     6
100
AcDbCircle
 10
1142.500000000101
 20
1240.343134833023
 30
0.0
 40
40.0
100
AcDbArc
 50
345.6384884370835
 51
0.0
  0
ARC
  5
401
330
1F
100
AcDbEntity
  8
化粧台
  6
EXLTYPE2
 62
     6
100
AcDbCircle
 10
1243.500000000101
 20
1240.343134833023
 30
0.0
 40
40.0
100
AcDbArc
 50
180.0
 51
194.3615115629164
  0
LINE
  5
402
330
1F
100
AcDbEntity
  8
化粧台
  6
EXLTYPE2
 62
     6
100
AcDbLine
 10
1180.75000000009
 20
1185.50000000004
 30
0.0
 11
1205.250000000112
 21
1185.50000000004
 31
0.0
  0
LINE
  5
403
330
1F
100
AcDbEntity
  8
化粧台
  6
EXLTYPE2
 62
     6
100
AcDbLine
 10
1180.250000000101
 20
1185.78867513463
 30
0.0
 11
1180.250000000101
 21
1197.672806948645
 31
0.0
  0
LINE
  5
404
330
1F
100
AcDbEntity
  8
化粧台
  6
EXLTYPE2
 62
     6
100
AcDbLine
 10
1205.750000000101
 20
1185.78867513463
 30
0.0
 11
1205.750000000101
 21
1197.672806948645
 31
0.0
  0
ARC
  5
405
330
1F
100
AcDbEntity
  8
化粧台
  6
EXLTYPE2
 62
     6
100
AcDbCircle
 10
1173.250000000101
 20
1200.365389352213
 30
0.0
 40
7.500000000000004
100
AcDbArc
 50
338.9605302186827
 51
0.0
  0
LINE
  5
406
330
1F
100
AcDbEntity
  8
化粧台
  6
EXLTYPE2
 62
     6
100
AcDbLine
 10
1180.750000000101
 20
1185.500000000036
 30
0.0
 11
1180.250000000101
 21
1185.78867513463
 31
0.0
  0
LINE
  5
407
330
1F
100
AcDbEntity
  8
化粧台
  6
EXLTYPE2
 62
     6
100
AcDbLine
 10
1205.250000000105
 20
1185.500000000036
 30
0.0
 11
1205.750000000101
 21
1185.78867513463
 31
0.0
  0
ARC
  5
408
330
1F
100
AcDbEntity
  8
化粧台
  6
EXLTYPE2
 62
     6
100
AcDbCircle
 10
1212.750000000101
 20
1200.365389352213
 30
0.0
 40
7.500000000000004
100
AcDbArc
 50
180.0
 51
201.039469781297
  0
LINE
  5
409
330
1F
100
AcDbEntity
  8
化粧台
  6
EXLTYPE2
 62
     6
100
AcDbLine
 10
1206.000000000101
 20
1214.66369123508
 30
0.0
 11
1206.000000000101
 21
1226.336308765
 31
0.0
  0
LINE
  5
40A
330
1F
100
AcDbEntity
  8
化粧台
  6
EXLTYPE2
 62
     6
100
AcDbLine
 10
1204.554391654892
 20
1228.840175866761
 30
0.0
 11
1194.445608345311
 21
1234.67648463172
 31
0.0
  0
LINE
  5
40B
330
1F
100
AcDbEntity
  8
化粧台
  6
EXLTYPE2
 62
     6
100
AcDbLine
 10
1191.554391654892
 20
1234.67648463172
 30
0.0
 11
1181.445608345311
 21
1228.840175866761
 31
0.0
  0
LINE
  5
40C
330
1F
100
AcDbEntity
  8
化粧台
  6
EXLTYPE2
 62
     6
100
AcDbLine
 10
1180.000000000101
 20
1226.336308765
 30
0.0
 11
1180.000000000101
 21
1214.66369123508
 31
0.0
  0
LINE
  5
40D
330
1F
100
AcDbEntity
  8
化粧台
  6
EXLTYPE2
 62
     6
100
AcDbLine
 10
1181.445608345311
 20
1212.159824133319
 30
0.0
 11
1191.554391654892
 21
1206.32351536836
 31
0.0
  0
LINE
  5
40E
330
1F
100
AcDbEntity
  8
化粧台
  6
EXLTYPE2
 62
     6
100
AcDbLine
 10
1194.445608345311
 20
1206.32351536836
 30
0.0
 11
1204.554391654892
 21
1212.159824133319
 31
0.0
  0
ARC
  5
40F
330
1F
100
AcDbEntity
  8
化粧台
  6
EXLTYPE2
 62
     6
100
AcDbCircle
 10
1193.000000000101
 20
1220.50000000004
 30
0.0
 40
14.25000000000001
100
AcDbArc
 50
264.1775448336001
 51
275.8224551664
  0
ARC
  5
410
330
1F
100
AcDbEntity
  8
化粧台
  6
EXLTYPE2
 62
     6
100
AcDbCircle
 10
1193.000000000101
 20
1220.50000000004
 30
0.0
 40
14.25000000000001
100
AcDbArc
 50
324.1775448336006
 51
335.8224551664001
  0
ARC
  5
411
330
1F
100
AcDbEntity
  8
化粧台
  6
EXLTYPE2
 62
     6
100
AcDbCircle
 10
1193.000000000101
 20
1220.50000000004
 30
0.0
 40
14.25000000000001
100
AcDbArc
 50
24.17754483359991
 51
35.82245516639971
  0
ARC
  5
412
330
1F
100
AcDbEntity
  8
化粧台
  6
EXLTYPE2
 62
     6
100
AcDbCircle
 10
1193.000000000101
 20
1220.50000000004
 30
0.0
 40
14.25000000000001
100
AcDbArc
 50
84.17754483360022
 51
95.82245516636002
  0
ARC
  5
413
330
1F
100
AcDbEntity
  8
化粧台
  6
EXLTYPE2
 62
     6
100
AcDbCircle
 10
1193.000000000101
 20
1220.50000000004
 30
0.0
 40
14.25000000000001
100
AcDbArc
 50
144.1775448336397
 51
155.8224551663601
  0
ARC
  5
414
330
1F
100
AcDbEntity
  8
化粧台
  6
EXLTYPE2
 62
     6
100
AcDbCircle
 10
1193.000000000101
 20
1220.50000000004
 30
0.0
 40
14.25000000000001
100
AcDbArc
 50
204.1775448336
 51
215.8224551663998
  0
CIRCLE
  5
415
330
1F
100
AcDbEntity
  8
化粧台
  6
EXLTYPE2
 62
     6
100
AcDbCircle
 10
1193.000000000101
 20
1220.50000000004
 30
0.0
 40
4.75
  0
ARC
  5
416
330
1F
100
AcDbEntity
  8
化粧台
  6
EXLTYPE2
 62
     6
100
AcDbCircle
 10
1220.000000000101
 20
1220.50000000004
 30
0.0
 40
40.0
100
AcDbArc
 50
165.6384884370866
 51
169.8112385239512
  0
ARC
  5
417
330
1F
100
AcDbEntity
  8
化粧台
  6
EXLTYPE2
 62
     6
100
AcDbCircle
 10
1166.000000000101
 20
1220.50000000004
 30
0.0
 40
40.0
100
AcDbArc
 50
10.18876147604892
 51
14.36151156291657
  0
LINE
  5
418
330
1F
100
AcDbEntity
  8
化粧台
  6
EXLTYPE2
 62
     6
100
AcDbLine
 10
1180.750000000101
 20
1213.219890110759
 30
0.0
 11
1180.750000000101
 21
1200.365389352213
 31
0.0
  0
LINE
  5
419
330
1F
100
AcDbEntity
  8
化粧台
  6
EXLTYPE2
 62
     6
100
AcDbLine
 10
1205.250000000101
 20
1213.219890110759
 30
0.0
 11
1205.250000000101
 21
1200.365389352213
 31
0.0
  0
LINE
  5
41A
330
1F
100
AcDbEntity
  8
化粧台
  6
EXLTYPE2
 62
     6
100
AcDbLine
 10
1182.030455542812
 20
1243.200000000041
 30
0.0
 11
1203.969544457391
 21
1243.200000000041
 31
0.0
  0
LINE
  5
41B
330
1F
100
AcDbEntity
  8
化粧台
  6
EXLTYPE2
 62
     6
100
AcDbLine
 10
1182.030455542812
 20
1255.200000000041
 30
0.0
 11
1203.969544457391
 21
1255.200000000041
 31
0.0
  0
LINE
  5
41C
330
1F
100
AcDbEntity
  8
化粧台
  6
EXLTYPE2
 62
     6
100
AcDbLine
 10
1181.500000000101
 20
1254.292887196909
 30
0.0
 11
1181.500000000101
 21
1244.107112803169
 31
0.0
  0
LINE
  5
41D
330
1F
100
AcDbEntity
  8
化粧台
  6
EXLTYPE2
 62
     6
100
AcDbLine
 10
1204.500000000101
 20
1254.292887196909
 30
0.0
 11
1204.500000000101
 21
1244.107112803169
 31
0.0
  0
ARC
  5
41E
330
1F
100
AcDbEntity
  8
化粧台
  6
EXLTYPE2
 62
     6
100
AcDbCircle
 10
1191.250000000101
 20
1249.200000000041
 30
0.0
 40
11.0
100
AcDbArc
 50
146.9442688490998
 51
152.4198007963999
  0
ARC
  5
41F
330
1F
100
AcDbEntity
  8
化粧台
  6
EXLTYPE2
 62
     6
100
AcDbCircle
 10
1191.250000000101
 20
1249.200000000041
 30
0.0
 40
11.0
100
AcDbArc
 50
207.5801992036001
 51
213.0557311509001
  0
ARC
  5
420
330
1F
100
AcDbEntity
  8
化粧台
  6
EXLTYPE2
 62
     6
100
AcDbCircle
 10
1194.750000000101
 20
1249.200000000041
 30
0.0
 40
11.0
100
AcDbArc
 50
326.9442688491004
 51
332.4198007964001
  0
ARC
  5
421
330
1F
100
AcDbEntity
  8
化粧台
  6
EXLTYPE2
 62
     6
100
AcDbCircle
 10
1194.750000000101
 20
1249.200000000041
 30
0.0
 40
11.0
100
AcDbArc
 50
27.58019920359027
 51
33.05573115085006
  0
LINE
  5
422
330
1F
100
AcDbEntity
  8
化粧台
  6
EXLTYPE2
 62
     6
100
AcDbLine
 10
1182.500000000101
 20
1243.200000000041
 30
0.0
 11
1182.500000000101
 21
1240.34313483302
 31
0.0
  0
LINE
  5
423
330
1F
100
AcDbEntity
  8
化粧台
  6
EXLTYPE2
 62
     6
100
AcDbLine
 10
1203.500000000101
 20
1243.200000000041
 30
0.0
 11
1203.500000000101
 21
1240.34313483302
 31
0.0
  0
ARC
  5
424
330
1F
100
AcDbEntity
  8
化粧台
  6
EXLTYPE2
 62
     6
100
AcDbCircle
 10
1052.500000000101
 20
1240.343134832983
 30
0.0
 40
40.0
100
AcDbArc
 50
345.6384884370835
 51
0.0
  0
ARC
  5
425
330
1F
100
AcDbEntity
  8
化粧台
  6
EXLTYPE2
 62
     6
100
AcDbCircle
 10
1153.500000000101
 20
1240.343134832983
 30
0.0
 40
40.0
100
AcDbArc
 50
180.0
 51
194.3615115629164
  0
LINE
  5
426
330
1F
100
AcDbEntity
  8
化粧台
  6
EXLTYPE2
 62
     6
100
AcDbLine
 10
1090.75000000009
 20
1185.5
 30
0.0
 11
1115.250000000112
 21
1185.5
 31
0.0
  0
LINE
  5
427
330
1F
100
AcDbEntity
  8
化粧台
  6
EXLTYPE2
 62
     6
100
AcDbLine
 10
1090.250000000101
 20
1185.78867513459
 30
0.0
 11
1090.250000000101
 21
1197.672806948605
 31
0.0
  0
LINE
  5
428
330
1F
100
AcDbEntity
  8
化粧台
  6
EXLTYPE2
 62
     6
100
AcDbLine
 10
1115.750000000101
 20
1185.78867513459
 30
0.0
 11
1115.750000000101
 21
1197.672806948605
 31
0.0
  0
ARC
  5
429
330
1F
100
AcDbEntity
  8
化粧台
  6
EXLTYPE2
 62
     6
100
AcDbCircle
 10
1083.250000000101
 20
1200.365389352173
 30
0.0
 40
7.500000000000004
100
AcDbArc
 50
338.9605302186827
 51
0.0
  0
LINE
  5
42A
330
1F
100
AcDbEntity
  8
化粧台
  6
EXLTYPE2
 62
     6
100
AcDbLine
 10
1090.750000000101
 20
1185.499999999996
 30
0.0
 11
1090.250000000101
 21
1185.78867513459
 31
0.0
  0
LINE
  5
42B
330
1F
100
AcDbEntity
  8
化粧台
  6
EXLTYPE2
 62
     6
100
AcDbLine
 10
1115.250000000105
 20
1185.499999999996
 30
0.0
 11
1115.750000000101
 21
1185.78867513459
 31
0.0
  0
ARC
  5
42C
330
1F
100
AcDbEntity
  8
化粧台
  6
EXLTYPE2
 62
     6
100
AcDbCircle
 10
1122.750000000101
 20
1200.365389352173
 30
0.0
 40
7.500000000000004
100
AcDbArc
 50
180.0
 51
201.039469781297
  0
LINE
  5
42D
330
1F
100
AcDbEntity
  8
化粧台
  6
EXLTYPE2
 62
     6
100
AcDbLine
 10
1116.000000000101
 20
1214.66369123504
 30
0.0
 11
1116.000000000101
 21
1226.33630876496
 31
0.0
  0
LINE
  5
42E
330
1F
100
AcDbEntity
  8
化粧台
  6
EXLTYPE2
 62
     6
100
AcDbLine
 10
1114.554391654892
 20
1228.840175866721
 30
0.0
 11
1104.445608345311
 21
1234.67648463168
 31
0.0
  0
LINE
  5
42F
330
1F
100
AcDbEntity
  8
化粧台
  6
EXLTYPE2
 62
     6
100
AcDbLine
 10
1101.554391654892
 20
1234.67648463168
 30
0.0
 11
1091.445608345311
 21
1228.840175866721
 31
0.0
  0
LINE
  5
430
330
1F
100
AcDbEntity
  8
化粧台
  6
EXLTYPE2
 62
     6
100
AcDbLine
 10
1090.000000000101
 20
1226.33630876496
 30
0.0
 11
1090.000000000101
 21
1214.66369123504
 31
0.0
  0
LINE
  5
431
330
1F
100
AcDbEntity
  8
化粧台
  6
EXLTYPE2
 62
     6
100
AcDbLine
 10
1091.445608345311
 20
1212.159824133279
 30
0.0
 11
1101.554391654892
 21
1206.32351536832
 31
0.0
  0
LINE
  5
432
330
1F
100
AcDbEntity
  8
化粧台
  6
EXLTYPE2
 62
     6
100
AcDbLine
 10
1104.445608345311
 20
1206.32351536832
 30
0.0
 11
1114.554391654892
 21
1212.159824133279
 31
0.0
  0
ARC
  5
433
330
1F
100
AcDbEntity
  8
化粧台
  6
EXLTYPE2
 62
     6
100
AcDbCircle
 10
1103.000000000101
 20
1220.5
 30
0.0
 40
14.25000000000001
100
AcDbArc
 50
264.1775448336001
 51
275.8224551664
  0
ARC
  5
434
330
1F
100
AcDbEntity
  8
化粧台
  6
EXLTYPE2
 62
     6
100
AcDbCircle
 10
1103.000000000101
 20
1220.5
 30
0.0
 40
14.25000000000001
100
AcDbArc
 50
324.1775448336006
 51
335.8224551664001
  0
ARC
  5
435
330
1F
100
AcDbEntity
  8
化粧台
  6
EXLTYPE2
 62
     6
100
AcDbCircle
 10
1103.000000000101
 20
1220.5
 30
0.0
 40
14.25000000000001
100
AcDbArc
 50
24.17754483359991
 51
35.82245516639971
  0
ARC
  5
436
330
1F
100
AcDbEntity
  8
化粧台
  6
EXLTYPE2
 62
     6
100
AcDbCircle
 10
1103.000000000101
 20
1220.5
 30
0.0
 40
14.25000000000001
100
AcDbArc
 50
84.17754483360022
 51
95.82245516636002
  0
ARC
  5
437
330
1F
100
AcDbEntity
  8
化粧台
  6
EXLTYPE2
 62
     6
100
AcDbCircle
 10
1103.000000000101
 20
1220.5
 30
0.0
 40
14.25000000000001
100
AcDbArc
 50
144.1775448336397
 51
155.8224551663601
  0
ARC
  5
438
330
1F
100
AcDbEntity
  8
化粧台
  6
EXLTYPE2
 62
     6
100
AcDbCircle
 10
1103.000000000101
 20
1220.5
 30
0.0
 40
14.25000000000001
100
AcDbArc
 50
204.1775448336
 51
215.8224551663998
  0
CIRCLE
  5
439
330
1F
100
AcDbEntity
  8
化粧台
  6
EXLTYPE2
 62
     6
100
AcDbCircle
 10
1103.000000000101
 20
1220.5
 30
0.0
 40
4.75
  0
ARC
  5
43A
330
1F
100
AcDbEntity
  8
化粧台
  6
EXLTYPE2
 62
     6
100
AcDbCircle
 10
1130.000000000101
 20
1220.5
 30
0.0
 40
40.0
100
AcDbArc
 50
165.6384884370866
 51
169.8112385239512
  0
ARC
  5
43B
330
1F
100
AcDbEntity
  8
化粧台
  6
EXLTYPE2
 62
     6
100
AcDbCircle
 10
1076.000000000101
 20
1220.5
 30
0.0
 40
40.0
100
AcDbArc
 50
10.18876147604892
 51
14.36151156291657
  0
LINE
  5
43C
330
1F
100
AcDbEntity
  8
化粧台
  6
EXLTYPE2
 62
     6
100
AcDbLine
 10
1090.750000000101
 20
1213.219890110719
 30
0.0
 11
1090.750000000101
 21
1200.365389352173
 31
0.0
  0
LINE
  5
43D
330
1F
100
AcDbEntity
  8
化粧台
  6
EXLTYPE2
 62
     6
100
AcDbLine
 10
1115.250000000101
 20
1213.219890110719
 30
0.0
 11
1115.250000000101
 21
1200.365389352173
 31
0.0
  0
LINE
  5
43E
330
1F
100
AcDbEntity
  8
化粧台
  6
EXLTYPE2
 62
     6
100
AcDbLine
 10
1092.030455542812
 20
1243.200000000001
 30
0.0
 11
1113.969544457391
 21
1243.200000000001
 31
0.0
  0
LINE
  5
43F
330
1F
100
AcDbEntity
  8
化粧台
  6
EXLTYPE2
 62
     6
100
AcDbLine
 10
1092.030455542812
 20
1255.200000000001
 30
0.0
 11
1113.969544457391
 21
1255.200000000001
 31
0.0
  0
LINE
  5
440
330
1F
100
AcDbEntity
  8
化粧台
  6
EXLTYPE2
 62
     6
100
AcDbLine
 10
1091.500000000101
 20
1254.292887196869
 30
0.0
 11
1091.500000000101
 21
1244.107112803129
 31
0.0
  0
LINE
  5
441
330
1F
100
AcDbEntity
  8
化粧台
  6
EXLTYPE2
 62
     6
100
AcDbLine
 10
1114.500000000101
 20
1254.292887196869
 30
0.0
 11
1114.500000000101
 21
1244.107112803129
 31
0.0
  0
ARC
  5
442
330
1F
100
AcDbEntity
  8
化粧台
  6
EXLTYPE2
 62
     6
100
AcDbCircle
 10
1101.250000000101
 20
1249.200000000001
 30
0.0
 40
11.0
100
AcDbArc
 50
146.9442688490998
 51
152.4198007963999
  0
ARC
  5
443
330
1F
100
AcDbEntity
  8
化粧台
  6
EXLTYPE2
 62
     6
100
AcDbCircle
 10
1101.250000000101
 20
1249.200000000001
 30
0.0
 40
11.0
100
AcDbArc
 50
207.5801992036001
 51
213.0557311509001
  0
ARC
  5
444
330
1F
100
AcDbEntity
  8
化粧台
  6
EXLTYPE2
 62
     6
100
AcDbCircle
 10
1104.750000000101
 20
1249.200000000001
 30
0.0
 40
11.0
100
AcDbArc
 50
326.9442688491004
 51
332.4198007964001
  0
ARC
  5
445
330
1F
100
AcDbEntity
  8
化粧台
  6
EXLTYPE2
 62
     6
100
AcDbCircle
 10
1104.750000000101
 20
1249.200000000001
 30
0.0
 40
11.0
100
AcDbArc
 50
27.58019920359027
 51
33.05573115085006
  0
LINE
  5
446
330
1F
100
AcDbEntity
  8
化粧台
  6
EXLTYPE2
 62
     6
100
AcDbLine
 10
1092.500000000101
 20
1243.200000000001
 30
0.0
 11
1092.500000000101
 21
1240.34313483298
 31
0.0
  0
LINE
  5
447
330
1F
100
AcDbEntity
  8
化粧台
  6
EXLTYPE2
 62
     6
100
AcDbLine
 10
1113.500000000101
 20
1243.200000000001
 30
0.0
 11
1113.500000000101
 21
1240.34313483298
 31
0.0
  0
LINE
  5
448
330
1F
100
AcDbEntity
  8
化粧台
  6
CONTINUOUS
 62
     6
100
AcDbLine
 10
1076.4000000001
 20
1220.50000000004
 30
0.0
 11
1123.050000000101
 21
1220.50000000004
 31
0.0
  0
LINE
  5
449
330
1F
100
AcDbEntity
  8
化粧台
  6
CONTINUOUS
 62
     6
100
AcDbLine
 10
1173.0000000001
 20
1220.50000000004
 30
0.0
 11
1220.500000000101
 21
1220.50000000004
 31
0.0
  0
LINE
  5
44A
330
1F
100
AcDbEntity
  8
化粧台
  6
EXLTYPE2
 62
     6
100
AcDbLine
 10
1096.000000000105
 20
1255.200000000001
 30
0.0
 11
1096.000000000105
 21
1469.450000000039
 31
0.0
  0
LINE
  5
44B
330
1F
100
AcDbEntity
  8
化粧台
  6
EXLTYPE2
 62
     6
100
AcDbLine
 10
1110.000000000098
 20
1255.200000000039
 30
0.0
 11
1110.000000000098
 21
1475.15000000004
 31
0.0
  0
LINE
  5
44C
330
1F
100
AcDbEntity
  8
化粧台
  6
EXLTYPE2
 62
     6
100
AcDbLine
 10
1092.500000000101
 20
1185.5
 30
0.0
 11
1092.500000000101
 21
900.5
 31
0.0
  0
LINE
  5
44D
330
1F
100
AcDbEntity
  8
化粧台
  6
EXLTYPE2
 62
     6
100
AcDbLine
 10
1113.500000000101
 20
1185.50000000004
 30
0.0
 11
1113.500000000101
 21
900.5
 31
0.0
  0
LINE
  5
44E
330
1F
100
AcDbEntity
  8
化粧台
  6
EXLTYPE2
 62
     6
100
AcDbLine
 10
1182.500000000101
 20
1185.50000000004
 30
0.0
 11
1182.500000000101
 21
900.50000000004
 31
0.0
  0
LINE
  5
44F
330
1F
100
AcDbEntity
  8
化粧台
  6
EXLTYPE2
 62
     6
100
AcDbLine
 10
1203.500000000101
 20
1185.50000000004
 30
0.0
 11
1203.500000000101
 21
900.50000000004
 31
0.0
  0
LINE
  5
450
330
1F
100
AcDbEntity
  8
化粧台
  6
CONTINUOUS
 62
     2
100
AcDbLine
 10
714.5000000001813
 20
900.5
 30
0.0
 11
699.5000000001813
 21
900.5
 31
0.0
  0
LINE
  5
451
330
1F
100
AcDbEntity
  8
化粧台
  6
CONTINUOUS
 62
     2
100
AcDbLine
 10
713.000000000174
 20
900.5
 30
0.0
 11
713.000000000174
 21
897.0
 31
0.0
  0
LINE
  5
452
330
1F
100
AcDbEntity
  8
化粧台
  6
CONTINUOUS
 62
     2
100
AcDbLine
 10
701.000000000174
 20
900.5
 30
0.0
 11
701.000000000174
 21
897.0
 31
0.0
  0
LINE
  5
453
330
1F
100
AcDbEntity
  8
化粧台
  6
CONTINUOUS
 62
     2
100
AcDbLine
 10
701.000000000174
 20
897.0
 30
0.0
 11
713.000000000174
 21
897.0
 31
0.0
  0
LINE
  5
454
330
1F
100
AcDbEntity
  8
化粧台
  6
CONTINUOUS
 62
     2
100
AcDbLine
 10
1251.500000000184
 20
900.5
 30
0.0
 11
1266.500000000184
 21
900.5
 31
0.0
  0
LINE
  5
455
330
1F
100
AcDbEntity
  8
化粧台
  6
CONTINUOUS
 62
     2
100
AcDbLine
 10
1253.000000000191
 20
900.5
 30
0.0
 11
1253.000000000191
 21
897.0
 31
0.0
  0
LINE
  5
456
330
1F
100
AcDbEntity
  8
化粧台
  6
CONTINUOUS
 62
     2
100
AcDbLine
 10
1265.000000000191
 20
900.5
 30
0.0
 11
1265.000000000191
 21
897.0
 31
0.0
  0
LINE
  5
457
330
1F
100
AcDbEntity
  8
化粧台
  6
CONTINUOUS
 62
     2
100
AcDbLine
 10
1265.000000000191
 20
897.0
 30
0.0
 11
1253.000000000191
 21
897.0
 31
0.0
  0
LINE
  5
458
330
1F
100
AcDbEntity
  8
化粧台
  6
CONTINUOUS
 62
     2
100
AcDbLine
 10
1251.500000000184
 20
987.5
 30
0.0
 11
1251.500000000184
 21
900.5
 31
0.0
  0
LINE
  5
459
330
1F
100
AcDbEntity
  8
化粧台
  6
CONTINUOUS
 62
     2
100
AcDbLine
 10
714.5000000001813
 20
987.5
 30
0.0
 11
714.5000000001813
 21
900.5
 31
0.0
  0
LINE
  5
45A
330
1F
100
AcDbEntity
  8
化粧台
  6
CONTINUOUS
 62
     2
100
AcDbLine
 10
1251.500000000181
 20
987.5
 30
0.0
 11
714.5000000001813
 21
987.5
 31
0.0
  0
LINE
  5
45B
330
1F
100
AcDbEntity
  8
化粧台
  6
CONTINUOUS
 62
     2
100
AcDbLine
 10
984.0000000001413
 20
988.5000000000396
 30
0.0
 11
1263.000000000181
 21
988.5000000000396
 31
0.0
  0
LINE
  5
45C
330
1F
100
AcDbEntity
  8
化粧台
  6
CONTINUOUS
 62
     2
100
AcDbLine
 10
703.0000000001413
 20
988.5000000000396
 30
0.0
 11
982.0000000001422
 21
988.5000000000396
 31
0.0
  0
LINE
  5
45D
330
1F
100
AcDbEntity
  8
化粧台
  6
CONTINUOUS
 62
     2
100
AcDbLine
 10
982.0000000001422
 20
1073.1
 30
0.0
 11
982.0000000001422
 21
988.5
 31
0.0
  0
LINE
  5
45E
330
1F
100
AcDbEntity
  8
化粧台
  6
CONTINUOUS
 62
     2
100
AcDbLine
 10
984.0000000001413
 20
1073.1
 30
0.0
 11
984.0000000001413
 21
988.5
 31
0.0
  0
LINE
  5
45F
330
1F
100
AcDbEntity
  8
化粧台
  6
CONTINUOUS
 62
     2
100
AcDbLine
 10
984.0000000001413
 20
1478.5
 30
0.0
 11
984.0000000001413
 21
1131.9
 31
0.0
  0
LINE
  5
460
330
1F
100
AcDbEntity
  8
化粧台
  6
CONTINUOUS
 62
     2
100
AcDbLine
 10
982.0000000001422
 20
1478.5
 30
0.0
 11
982.0000000001422
 21
1131.9
 31
0.0
  0
LINE
  5
461
330
1F
100
AcDbEntity
  8
化粧台
  6
CONTINUOUS
 62
     2
100
AcDbLine
 10
703.0000000001431
 20
1478.5
 30
0.0
 11
703.0000000001422
 21
988.4999999999995
 31
0.0
  0
LINE
  5
462
330
1F
100
AcDbEntity
  8
化粧台
  6
CONTINUOUS
 62
     2
100
AcDbLine
 10
1263.000000000142
 20
1478.5
 30
0.0
 11
1263.000000000142
 21
988.4999999999995
 31
0.0
  0
LINE
  5
463
330
1F
100
AcDbEntity
  8
化粧台
  6
CONTINUOUS
 62
     2
100
AcDbLine
 10
1263.000000000181
 20
1478.50000000004
 30
0.0
 11
984.0000000001413
 21
1478.50000000004
 31
0.0
  0
LINE
  5
464
330
1F
100
AcDbEntity
  8
化粧台
  6
CONTINUOUS
 62
     2
100
AcDbLine
 10
1265.000000000214
 20
1485.5
 30
0.0
 11
701.0000000002141
 21
1485.5
 31
0.0
  0
LINE
  5
465
330
1F
100
AcDbEntity
  8
化粧台
  6
CONTINUOUS
 62
     2
100
AcDbLine
 10
982.0000000001422
 20
1478.50000000004
 30
0.0
 11
703.0000000001413
 21
1478.50000000004
 31
0.0
  0
ARC
  5
466
330
1F
100
AcDbEntity
  8
化粧台
  6
CONTINUOUS
 62
     2
100
AcDbCircle
 10
855.3702665095947
 20
1436.0
 30
0.0
 40
2.0
100
AcDbArc
 50
90.00000000000001
 51
163.1507203771844
  0
ARC
  5
467
330
1F
100
AcDbEntity
  8
化粧台
  6
CONTINUOUS
 62
     2
100
AcDbCircle
 10
855.3702665095947
 20
1431.0
 30
0.0
 40
2.0
100
AcDbArc
 50
196.8492796228166
 51
270.0
  0
ARC
  5
468
330
1F
100
AcDbEntity
  8
化粧台
  6
CONTINUOUS
 62
     2
100
AcDbCircle
 10
863.625000000144
 20
1433.5
 30
0.0
 40
10.625
100
AcDbArc
 50
163.1507203771702
 51
196.8492796228299
  0
ARC
  5
469
330
1F
100
AcDbEntity
  8
化粧台
  6
CONTINUOUS
 62
     2
100
AcDbCircle
 10
912.500000000144
 20
2518.185482900405
 30
0.0
 40
1090.685482900405
100
AcDbArc
 50
266.9919716782234
 51
273.0080283217766
  0
ARC
  5
46A
330
1F
100
AcDbEntity
  8
化粧台
  6
CONTINUOUS
 62
     2
100
AcDbCircle
 10
912.500000000144
 20
348.8145170995949
 30
0.0
 40
1090.685482900405
100
AcDbArc
 50
86.99197167822344
 51
93.00802832177662
  0
ARC
  5
46B
330
1F
100
AcDbEntity
  8
化粧台
  6
CONTINUOUS
 62
     2
100
AcDbCircle
 10
961.375000000144
 20
1433.5
 30
0.0
 40
10.625
100
AcDbArc
 50
343.1507203771704
 51
16.8492796228307
  0
ARC
  5
46C
330
1F
100
AcDbEntity
  8
化粧台
  6
CONTINUOUS
 62
     2
100
AcDbCircle
 10
969.6297334906934
 20
1431.0
 30
0.0
 40
2.0
100
AcDbArc
 50
270.0
 51
343.1507203771844
  0
ARC
  5
46D
330
1F
100
AcDbEntity
  8
化粧台
  6
CONTINUOUS
 62
     2
100
AcDbCircle
 10
969.6297334906934
 20
1436.0
 30
0.0
 40
2.0
100
AcDbArc
 50
16.84927962281563
 51
90.00000000000001
  0
ARC
  5
46E
330
1F
100
AcDbEntity
  8
化粧台
  6
CONTINUOUS
 62
     2
100
AcDbCircle
 10
1110.629733490691
 20
1436.0
 30
0.0
 40
2.0
100
AcDbArc
 50
16.84927962281586
 51
90.00000000000001
  0
ARC
  5
46F
330
1F
100
AcDbEntity
  8
化粧台
  6
CONTINUOUS
 62
     2
100
AcDbCircle
 10
1110.629733490691
 20
1431.0
 30
0.0
 40
2.0
100
AcDbArc
 50
270.0000000000002
 51
343.1507203771823
  0
ARC
  5
470
330
1F
100
AcDbEntity
  8
化粧台
  6
CONTINUOUS
 62
     2
100
AcDbCircle
 10
1102.375000000141
 20
1433.5
 30
0.0
 40
10.625
100
AcDbArc
 50
343.15072037717
 51
16.84927962283012
  0
ARC
  5
471
330
1F
100
AcDbEntity
  8
化粧台
  6
CONTINUOUS
 62
     2
100
AcDbCircle
 10
1053.500000000141
 20
2518.185482900405
 30
0.0
 40
1090.685482900405
100
AcDbArc
 50
266.9919716782235
 51
273.0080283217767
  0
ARC
  5
472
330
1F
100
AcDbEntity
  8
化粧台
  6
CONTINUOUS
 62
     2
100
AcDbCircle
 10
1053.500000000141
 20
348.8145170995949
 30
0.0
 40
1090.685482900405
100
AcDbArc
 50
86.99197167822338
 51
93.00802832177656
  0
ARC
  5
473
330
1F
100
AcDbEntity
  8
化粧台
  6
CONTINUOUS
 62
     2
100
AcDbCircle
 10
1004.625000000141
 20
1433.5
 30
0.0
 40
10.625
100
AcDbArc
 50
163.1507203771698
 51
196.8492796228301
  0
ARC
  5
474
330
1F
100
AcDbEntity
  8
化粧台
  6
CONTINUOUS
 62
     2
100
AcDbCircle
 10
996.370266509591
 20
1431.0
 30
0.0
 40
2.0
100
AcDbArc
 50
196.8492796228176
 51
270.0000000000002
  0
ARC
  5
475
330
1F
100
AcDbEntity
  8
化粧台
  6
CONTINUOUS
 62
     2
100
AcDbCircle
 10
996.370266509591
 20
1436.0
 30
0.0
 40
2.0
100
AcDbArc
 50
90.00000000000001
 51
163.1507203771841
  0
CIRCLE
  5
476
330
1F
100
AcDbEntity
  8
化粧台
  6
EXLTYPE2
 62
     6
100
AcDbCircle
 10
992.0000000001422
 20
1470.5
 30
0.0
 40
4.0
  0
CIRCLE
  5
477
330
1F
100
AcDbEntity
  8
化粧台
  6
EXLTYPE2
 62
     6
100
AcDbCircle
 10
974.0000000002232
 20
1470.5
 30
0.0
 40
4.0
  0
CIRCLE
  5
478
330
1F
100
AcDbEntity
  8
化粧台
  6
EXLTYPE2
 62
     6
100
AcDbCircle
 10
974.0000000002232
 20
996.4999999999995
 30
0.0
 40
4.0
  0
CIRCLE
  5
479
330
1F
100
AcDbEntity
  8
化粧台
  6
EXLTYPE2
 62
     6
100
AcDbCircle
 10
992.0000000001422
 20
996.4999999999995
 30
0.0
 40
4.0
  0
LINE
  5
47A
330
1F
100
AcDbEntity
  8
化粧台
  6
CONTINUOUS
 62
     2
100
AcDbLine
 10
789.9964931643229
 20
1617.000000000108
 30
0.0
 11
688.2565282705012
 21
1617.000000000108
 31
0.0
  0
ARC
  5
47B
330
1F
100
AcDbEntity
  8
化粧台
  6
CONTINUOUS
 62
     2
100
AcDbCircle
 10
787.535011509793
 20
1645.104339212761
 30
0.0
 40
3.000000000000002
100
AcDbArc
 50
87.51044707800041
 51
202.7033731173424
  0
ARC
  5
47C
330
1F
100
AcDbEntity
  8
化粧台
  6
CONTINUOUS
 62
     2
100
AcDbCircle
 10
688.2565282705012
 20
1620.000000000108
 30
0.0
 40
3.000000000000002
100
AcDbArc
 50
182.082565279727
 51
270.0000000000002
  0
LINE
  5
47D
330
1F
100
AcDbEntity
  8
化粧台
  6
CONTINUOUS
 62
     2
100
AcDbLine
 10
685.2585097766618
 20
1619.890981145787
 30
0.0
 11
683.1884253852526
 21
1676.818301909572
 31
0.0
  0
ARC
  5
47E
330
1F
100
AcDbEntity
  8
化粧台
  6
CONTINUOUS
 62
     2
100
AcDbCircle
 10
789.9964931643229
 20
1602.000000000108
 30
0.0
 40
15.00000000000001
100
AcDbArc
 50
32.90482742074656
 51
90.00000000000001
  0
ARC
  5
47F
330
1F
100
AcDbEntity
  8
化粧台
  6
CONTINUOUS
 62
     2
100
AcDbCircle
 10
688.185122874985
 20
1677.000000000108
 30
0.0
 40
5.0
100
AcDbArc
 50
90.00000000000001
 51
182.0825652797287
  0
ARC
  5
480
330
1F
100
AcDbEntity
  8
化粧台
  6
CONTINUOUS
 62
     2
100
AcDbCircle
 10
704.4359574454242
 20
1671.739070429828
 30
0.0
 40
20.0
100
AcDbArc
 50
232.1446748345211
 51
267.5104470780012
  0
LINE
  5
481
330
1F
100
AcDbEntity
  8
化粧台
  6
CONTINUOUS
 62
     2
100
AcDbLine
 10
813.0000000001413
 20
1647.000000000108
 30
0.0
 11
703.5672129598983
 21
1651.757947262727
 31
0.0
  0
ARC
  5
482
330
1F
100
AcDbEntity
  8
化粧台
  6
CONTINUOUS
 62
     2
100
AcDbCircle
 10
689.0942137840751
 20
1652.000000000108
 30
0.0
 40
5.0
100
AcDbArc
 50
52.14467483452227
 51
182.0825652797287
  0
LINE
  5
483
330
1F
100
AcDbEntity
  8
化粧台
  6
CONTINUOUS
 62
     2
100
AcDbLine
 10
813.0000000001413
 20
1647.000000000108
 30
0.0
 11
1153.000000000142
 21
1647.000000000108
 31
0.0
  0
ARC
  5
484
330
1F
100
AcDbEntity
  8
化粧台
  6
CONTINUOUS
 62
     2
100
AcDbCircle
 10
983.0000000001422
 20
1726.882636433079
 30
0.0
 40
214.8826364329721
100
AcDbArc
 50
202.703373117341
 51
337.2966268826593
  0
LINE
  5
485
330
1F
100
AcDbEntity
  8
化粧台
  6
CONTINUOUS
 62
     2
100
AcDbLine
 10
1176.003506835962
 20
1617.000000000108
 30
0.0
 11
1277.743471729782
 21
1617.000000000108
 31
0.0
  0
ARC
  5
486
330
1F
100
AcDbEntity
  8
化粧台
  6
CONTINUOUS
 62
     2
100
AcDbCircle
 10
1176.003506835962
 20
1602.000000000108
 30
0.0
 40
15.00000000000001
100
AcDbArc
 50
90.00000000000001
 51
147.0951725792534
  0
ARC
  5
487
330
1F
100
AcDbEntity
  8
化粧台
  6
CONTINUOUS
 62
     2
100
AcDbCircle
 10
1277.743471729782
 20
1620.000000000108
 30
0.0
 40
3.000000000000002
100
AcDbArc
 50
270.0000000000002
 51
357.9174347202712
  0
ARC
  5
488
330
1F
100
AcDbEntity
  8
化粧台
  6
CONTINUOUS
 62
     2
100
AcDbCircle
 10
1277.8148771253
 20
1677.000000000108
 30
0.0
 40
5.0
100
AcDbArc
 50
357.9174347202689
 51
90.00000000000001
  0
ARC
  5
489
330
1F
100
AcDbEntity
  8
化粧台
  6
CONTINUOUS
 62
     2
100
AcDbCircle
 10
1261.564042554859
 20
1671.739070429828
 30
0.0
 40
20.0
100
AcDbArc
 50
272.4895529219991
 51
307.8553251654786
  0
ARC
  5
48A
330
1F
100
AcDbEntity
  8
化粧台
  6
CONTINUOUS
 62
     2
100
AcDbCircle
 10
1276.905786216209
 20
1652.000000000108
 30
0.0
 40
5.0
100
AcDbArc
 50
357.9174347202689
 51
127.8553251654777
  0
LINE
  5
48B
330
1F
100
AcDbEntity
  8
化粧台
  6
CONTINUOUS
 62
     2
100
AcDbLine
 10
1280.741490223622
 20
1619.890981145787
 30
0.0
 11
1282.811574615033
 21
1676.818301909572
 31
0.0
  0
LINE
  5
48C
330
1F
100
AcDbEntity
  8
化粧台
  6
CONTINUOUS
 62
     6
100
AcDbLine
 10
1163.000000000972
 20
1754.521739130599
 30
0.0
 11
1188.00000000097
 21
1754.521739130599
 31
0.0
  0
LINE
  5
48D
330
1F
100
AcDbEntity
  8
化粧台
  6
CONTINUOUS
 62
     6
100
AcDbLine
 10
1188.00000000097
 20
1754.521739130599
 30
0.0
 11
1213.000000000972
 21
1754.521739130599
 31
0.0
  0
ARC
  5
48E
330
1F
100
AcDbEntity
  8
化粧台
  6
CONTINUOUS
 62
     6
100
AcDbCircle
 10
1145.583227050466
 20
1711.521739130604
 30
0.0
 40
23.13740480126591
100
AcDbArc
 50
318.8295003524853
 51
41.17049964751445
  0
LINE
  5
48F
330
1F
100
AcDbEntity
  8
化粧台
  6
CONTINUOUS
 62
     6
100
AcDbLine
 10
1163.00000000097
 20
1696.290339952315
 30
0.0
 11
1163.00000000097
 21
1653.61803033238
 31
0.0
  0
LINE
  5
490
330
1F
100
AcDbEntity
  8
化粧台
  6
CONTINUOUS
 62
     6
100
AcDbLine
 10
1080.630798149083
 20
1717.61761091786
 30
0.0
 11
1095.402914444265
 21
1715.012888252855
 31
0.0
  0
LINE
  5
491
330
1F
100
AcDbEntity
  8
化粧台
  6
CONTINUOUS
 62
     6
100
AcDbLine
 10
1213.00000000097
 20
1693.05809552572
 30
0.0
 11
1213.000000000968
 21
1653.618030332381
 31
0.0
  0
LINE
  5
492
330
1F
100
AcDbEntity
  8
化粧台
  6
CONTINUOUS
 62
     6
100
AcDbLine
 10
1095.402914444265
 20
1715.012888252855
 30
0.0
 11
1099.84771080636
 21
1707.425792430829
 31
0.0
  0
LINE
  5
493
330
1F
100
AcDbEntity
  8
化粧台
  6
CONTINUOUS
 62
     6
100
AcDbLine
 10
1099.84771080636
 20
1707.425792430829
 30
0.0
 11
1163.00000000097
 21
1696.290339952315
 31
0.0
  0
LINE
  5
494
330
1F
100
AcDbEntity
  8
化粧台
  6
CONTINUOUS
 62
     6
100
AcDbLine
 10
1162.964238346413
 20
1653.432334994203
 30
0.0
 11
1161.000000000968
 21
1648.5217391306
 31
0.0
  0
ARC
  5
495
330
1F
100
AcDbEntity
  8
化粧台
  6
CONTINUOUS
 62
     6
100
AcDbCircle
 10
1162.500000000968
 20
1653.61803033238
 30
0.0
 40
0.5
100
AcDbArc
 50
338.1985905136144
 51
0.0
  0
ARC
  5
496
330
1F
100
AcDbEntity
  8
化粧台
  6
CONTINUOUS
 62
     6
100
AcDbCircle
 10
1162.50000000097
 20
1653.61803033238
 30
0.0
 40
0.5
100
AcDbArc
 50
338.1985905136144
 51
0.0
  0
ARC
  5
497
330
1F
100
AcDbEntity
  8
化粧台
  6
CONTINUOUS
 62
     6
100
AcDbCircle
 10
1213.500000000972
 20
1653.618030332381
 30
0.0
 40
0.5
100
AcDbArc
 50
180.0
 51
201.8014094863857
  0
ARC
  5
498
330
1F
100
AcDbEntity
  8
化粧台
  6
CONTINUOUS
 62
     6
100
AcDbCircle
 10
1213.500000000972
 20
1653.618030332381
 30
0.0
 40
0.5
100
AcDbArc
 50
180.0
 51
201.8014094863857
  0
LINE
  5
499
330
1F
100
AcDbEntity
  8
化粧台
  6
CONTINUOUS
 62
     6
100
AcDbLine
 10
1213.035761655527
 20
1653.432334994204
 30
0.0
 11
1215.000000000972
 21
1648.5217391306
 31
0.0
  0
ARC
  5
49A
330
1F
100
AcDbEntity
  8
化粧台
  6
CONTINUOUS
 62
     6
100
AcDbCircle
 10
1188.020088785972
 20
1756.404498289498
 30
0.0
 40
22.5
100
AcDbArc
 50
160.114147801709
 51
169.4561209550643
  0
LINE
  5
49B
330
1F
100
AcDbEntity
  8
化粧台
  6
CONTINUOUS
 62
     6
100
AcDbLine
 10
1163.000000000972
 20
1758.521739130599
 30
0.0
 11
1163.000000000968
 21
1726.753138308888
 31
0.0
  0
ARC
  5
49C
330
1F
100
AcDbEntity
  8
化粧台
  6
CONTINUOUS
 62
     6
100
AcDbCircle
 10
1165.000000000972
 20
1758.521739130599
 30
0.0
 40
2.0
100
AcDbArc
 50
90.00000000000001
 51
179.9999999999936
  0
LINE
  5
49D
330
1F
100
AcDbEntity
  8
化粧台
  6
CONTINUOUS
 62
     6
100
AcDbLine
 10
1213.00000000097
 20
1758.521739130599
 30
0.0
 11
1213.00000000097
 21
1693.05809552572
 31
0.0
  0
LINE
  5
49E
330
1F
100
AcDbEntity
  8
化粧台
  6
CONTINUOUS
 62
     6
100
AcDbLine
 10
1211.000000000972
 20
1760.521739130599
 30
0.0
 11
1165.000000000972
 21
1760.521739130599
 31
0.0
  0
ARC
  5
49F
330
1F
100
AcDbEntity
  8
化粧台
  6
CONTINUOUS
 62
     6
100
AcDbCircle
 10
1211.000000000972
 20
1758.521739130599
 30
0.0
 40
2.0
100
AcDbArc
 50
0.0
 51
90.00000000000001
  0
ARC
  5
4A0
330
1F
100
AcDbEntity
  8
化粧台
  6
CONTINUOUS
 62
     6
100
AcDbCircle
 10
1187.979911215969
 20
1756.404498289498
 30
0.0
 40
22.5
100
AcDbArc
 50
10.54387904493575
 51
19.88585219831368
  0
LINE
  5
4A1
330
1F
100
AcDbEntity
  8
化粧台
  6
CONTINUOUS
 62
     6
100
AcDbLine
 10
1067.12394736471
 20
1743.658673192485
 30
0.0
 11
1163.00000000097
 21
1726.753138308887
 31
0.0
  0
LINE
  5
4A2
330
1F
100
AcDbEntity
  8
化粧台
  6
CONTINUOUS
 62
     6
100
AcDbLine
 10
1063.077944825071
 20
1720.712652547301
 30
0.0
 11
1080.630798149083
 21
1717.617610917858
 31
0.0
  0
LINE
  5
4A3
330
1F
100
AcDbEntity
  8
化粧台
  6
CONTINUOUS
 62
     6
100
AcDbLine
 10
1068.813105112937
 20
1719.701389049862
 30
0.0
 11
1067.419706280285
 21
1711.799031582778
 31
0.0
  0
LINE
  5
4A4
330
1F
100
AcDbEntity
  8
化粧台
  6
CONTINUOUS
 62
     6
100
AcDbLine
 10
1067.419706280287
 20
1711.799031582778
 30
0.0
 11
1091.055092352579
 21
1707.631475318769
 31
0.0
  0
LINE
  5
4A5
330
1F
100
AcDbEntity
  8
化粧台
  6
CONTINUOUS
 62
     6
100
AcDbLine
 10
1092.448491185231
 20
1715.533832785856
 30
0.0
 11
1091.055092352579
 21
1707.631475318769
 31
0.0
  0
LINE
  5
4A6
330
1F
100
AcDbEntity
  8
化粧台
  6
CONTINUOUS
 62
     6
100
AcDbLine
 10
1188.00000000097
 20
1648.5217391306
 30
0.0
 11
1161.000000000972
 21
1648.5217391306
 31
0.0
  0
LINE
  5
4A7
330
1F
100
AcDbEntity
  8
化粧台
  6
CONTINUOUS
 62
     6
100
AcDbLine
 10
1188.00000000097
 20
1648.5217391306
 30
0.0
 11
1215.000000000968
 21
1648.5217391306
 31
0.0
  0
LINE
  5
4A8
330
1F
100
AcDbEntity
  8
化粧台
  6
CONTINUOUS
 62
     6
100
AcDbLine
 10
1213.000000000968
 20
1653.618030332379
 30
0.0
 11
1163.00000000097
 21
1653.618030332379
 31
0.0
  0
LINE
  5
4A9
330
1F
100
AcDbEntity
  8
化粧台
  6
CONTINUOUS
 62
     6
100
AcDbLine
 10
1063.077944825071
 20
1720.712652547301
 30
0.0
 11
1067.12394736471
 21
1743.658673192485
 31
0.0
  0
ARC
  5
4AA
330
1F
100
AcDbEntity
  8
化粧台
  6
CONTINUOUS
 62
     6
100
AcDbCircle
 10
1158.184405713172
 20
1793.680811864949
 30
0.0
 40
6.29979425145349
100
AcDbArc
 50
319.8540880800269
 51
40.14591191997305
  0
LINE
  5
4AB
330
1F
100
AcDbEntity
  8
化粧台
  6
CONTINUOUS
 62
     6
100
AcDbLine
 10
1163.00000000097
 20
1778.121739130601
 30
0.0
 11
1163.00000000097
 21
1789.619105417411
 31
0.0
  0
LINE
  5
4AC
330
1F
100
AcDbEntity
  8
化粧台
  6
CONTINUOUS
 62
     6
100
AcDbLine
 10
1163.00000000097
 20
1764.057813856066
 30
0.0
 11
1163.000000000968
 21
1778.121739130601
 31
0.0
  0
LINE
  5
4AD
330
1F
100
AcDbEntity
  8
化粧台
  6
CONTINUOUS
 62
     6
100
AcDbLine
 10
1163.000000000975
 20
1764.057813856066
 30
0.0
 11
1163.000000000975
 21
1772.021739130599
 31
0.0
  0
LINE
  5
4AE
330
1F
100
AcDbEntity
  8
化粧台
  6
CONTINUOUS
 62
     6
100
AcDbLine
 10
1163.00000000097
 20
1783.221739130599
 30
0.0
 11
1162.502252577632
 21
1783.221739130599
 31
0.0
  0
LINE
  5
4AF
330
1F
100
AcDbEntity
  8
化粧台
  6
CONTINUOUS
 62
     6
100
AcDbLine
 10
1163.00000000097
 20
1773.021739130599
 30
0.0
 11
1162.502252577633
 21
1773.021739130598
 31
0.0
  0
ARC
  5
4B0
330
1F
100
AcDbEntity
  8
化粧台
  6
CONTINUOUS
 62
     6
100
AcDbCircle
 10
1168.069440019181
 20
1778.121739130599
 30
0.0
 40
7.55007125855991
100
AcDbArc
 50
137.5077625694678
 51
222.4922374305324
  0
POLYLINE
  5
4B1
330
1F
100
AcDbEntity
  8
化粧台
  6
CONTINUOUS
 62
     6
100
AcDb2dPolyline
 66
     1
 10
0.0
 20
0.0
 30
0.0
 70
   128
  0
VERTEX
  5
4B2
330
4B1
100
AcDbEntity
  8
化粧台
  6
CONTINUOUS
 62
     6
100
AcDbVertex
100
AcDb2dVertex
 10
1163.017563043763
 20
1773.119778346298
 30
0.0
  0
VERTEX
  5
4B3
330
4B1
100
AcDbEntity
  8
化粧台
  6
CONTINUOUS
 62
     6
100
AcDbVertex
100
AcDb2dVertex
 10
1163.017565618768
 20
1773.115965209146
 30
0.0
  0
VERTEX
  5
4B4
330
4B1
100
AcDbEntity
  8
化粧台
  6
CONTINUOUS
 62
     6
100
AcDbVertex
100
AcDb2dVertex
 10
1163.017570843482
 20
1773.105137148207
 30
0.0
  0
VERTEX
  5
4B5
330
4B1
100
AcDbEntity
  8
化粧台
  6
CONTINUOUS
 62
     6
100
AcDbVertex
100
AcDb2dVertex
 10
1163.017574967446
 20
1773.08821118925
 30
0.0
  0
VERTEX
  5
4B6
330
4B1
100
AcDbEntity
  8
化粧台
  6
CONTINUOUS
 62
     6
100
AcDbVertex
100
AcDb2dVertex
 10
1163.017574240205
 20
1773.066104358046
 30
0.0
  0
VERTEX
  5
4B7
330
4B1
100
AcDbEntity
  8
化粧台
  6
CONTINUOUS
 62
     6
100
AcDbVertex
100
AcDb2dVertex
 10
1163.017564911303
 20
1773.039733680367
 30
0.0
  0
VERTEX
  5
4B8
330
4B1
100
AcDbEntity
  8
化粧台
  6
CONTINUOUS
 62
     6
100
AcDbVertex
100
AcDb2dVertex
 10
1163.017543230284
 20
1773.010016181984
 30
0.0
  0
VERTEX
  5
4B9
330
4B1
100
AcDbEntity
  8
化粧台
  6
CONTINUOUS
 62
     6
100
AcDbVertex
100
AcDb2dVertex
 10
1163.017505446691
 20
1772.977868888669
 30
0.0
  0
VERTEX
  5
4BA
330
4B1
100
AcDbEntity
  8
化粧台
  6
CONTINUOUS
 62
     6
100
AcDbVertex
100
AcDb2dVertex
 10
1163.017447810068
 20
1772.944208826191
 30
0.0
  0
VERTEX
  5
4BB
330
4B1
100
AcDbEntity
  8
化粧台
  6
CONTINUOUS
 62
     6
100
AcDbVertex
100
AcDb2dVertex
 10
1163.01736656996
 20
1772.909953020322
 30
0.0
  0
VERTEX
  5
4BC
330
4B1
100
AcDbEntity
  8
化粧台
  6
CONTINUOUS
 62
     6
100
AcDbVertex
100
AcDb2dVertex
 10
1163.01725797591
 20
1772.876018496835
 30
0.0
  0
VERTEX
  5
4BD
330
4B1
100
AcDbEntity
  8
化粧台
  6
CONTINUOUS
 62
     6
100
AcDbVertex
100
AcDb2dVertex
 10
1163.017118277462
 20
1772.843322281498
 30
0.0
  0
VERTEX
  5
4BE
330
4B1
100
AcDbEntity
  8
化粧台
  6
CONTINUOUS
 62
     6
100
AcDbVertex
100
AcDb2dVertex
 10
1163.016952105272
 20
1772.813763279329
 30
0.0
  0
VERTEX
  5
4BF
330
4B1
100
AcDbEntity
  8
化粧台
  6
CONTINUOUS
 62
     6
100
AcDbVertex
100
AcDb2dVertex
 10
1163.016755094225
 20
1772.78596660251
 30
0.0
  0
VERTEX
  5
4C0
330
4B1
100
AcDbEntity
  8
化粧台
  6
CONTINUOUS
 62
     6
100
AcDbVertex
100
AcDb2dVertex
 10
1163.016528559218
 20
1772.759706271519
 30
0.0
  0
VERTEX
  5
4C1
330
4B1
100
AcDbEntity
  8
化粧台
  6
CONTINUOUS
 62
     6
100
AcDbVertex
100
AcDb2dVertex
 10
1163.016273815146
 20
1772.734756306832
 30
0.0
  0
VERTEX
  5
4C2
330
4B1
100
AcDbEntity
  8
化粧台
  6
CONTINUOUS
 62
     6
100
AcDbVertex
100
AcDb2dVertex
 10
1163.015992176907
 20
1772.710890728929
 30
0.0
  0
VERTEX
  5
4C3
330
4B1
100
AcDbEntity
  8
化粧台
  6
CONTINUOUS
 62
     6
100
AcDbVertex
100
AcDb2dVertex
 10
1163.015684959397
 20
1772.687883558286
 30
0.0
  0
VERTEX
  5
4C4
330
4B1
100
AcDbEntity
  8
化粧台
  6
CONTINUOUS
 62
     6
100
AcDbVertex
100
AcDb2dVertex
 10
1163.015353477513
 20
1772.665508815381
 30
0.0
  0
VERTEX
  5
4C5
330
4B1
100
AcDbEntity
  8
化粧台
  6
CONTINUOUS
 62
     6
100
AcDbVertex
100
AcDb2dVertex
 10
1163.01499904615
 20
1772.643540520693
 30
0.0
  0
VERTEX
  5
4C6
330
4B1
100
AcDbEntity
  8
化粧台
  6
CONTINUOUS
 62
     6
100
AcDbVertex
100
AcDb2dVertex
 10
1163.014622980207
 20
1772.621752694697
 30
0.0
  0
VERTEX
  5
4C7
330
4B1
100
AcDbEntity
  8
化粧台
  6
CONTINUOUS
 62
     6
100
AcDbVertex
100
AcDb2dVertex
 10
1163.01422659458
 20
1772.599919357874
 30
0.0
  0
VERTEX
  5
4C8
330
4B1
100
AcDbEntity
  8
化粧台
  6
CONTINUOUS
 62
     6
100
AcDbVertex
100
AcDb2dVertex
 10
1163.013811204165
 20
1772.577814530699
 30
0.0
  0
VERTEX
  5
4C9
330
4B1
100
AcDbEntity
  8
化粧台
  6
CONTINUOUS
 62
     6
100
AcDbVertex
100
AcDb2dVertex
 10
1163.013438971583
 20
1772.558419965191
 30
0.0
  0
VERTEX
  5
4CA
330
4B1
100
AcDbEntity
  8
化粧台
  6
CONTINUOUS
 62
     6
100
AcDbVertex
100
AcDb2dVertex
 10
1163.013052305323
 20
1772.538679615702
 30
0.0
  0
VERTEX
  5
4CB
330
4B1
100
AcDbEntity
  8
化粧台
  6
CONTINUOUS
 62
     6
100
AcDbVertex
100
AcDb2dVertex
 10
1163.012649885618
 20
1772.518616483786
 30
0.0
  0
VERTEX
  5
4CC
330
4B1
100
AcDbEntity
  8
化粧台
  6
CONTINUOUS
 62
     6
100
AcDbVertex
100
AcDb2dVertex
 10
1163.012230392701
 20
1772.498253570993
 30
0.0
  0
VERTEX
  5
4CD
330
4B1
100
AcDbEntity
  8
化粧台
  6
CONTINUOUS
 62
     6
100
AcDbVertex
100
AcDb2dVertex
 10
1163.011792506807
 20
1772.477613878877
 30
0.0
  0
VERTEX
  5
4CE
330
4B1
100
AcDbEntity
  8
化粧台
  6
CONTINUOUS
 62
     6
100
AcDbVertex
100
AcDb2dVertex
 10
1163.011334908167
 20
1772.456720408988
 30
0.0
  0
VERTEX
  5
4CF
330
4B1
100
AcDbEntity
  8
化粧台
  6
CONTINUOUS
 62
     6
100
AcDbVertex
100
AcDb2dVertex
 10
1163.010856277015
 20
1772.43559616288
 30
0.0
  0
VERTEX
  5
4D0
330
4B1
100
AcDbEntity
  8
化粧台
  6
CONTINUOUS
 62
     6
100
AcDbVertex
100
AcDb2dVertex
 10
1163.010355293586
 20
1772.414264142105
 30
0.0
  0
VERTEX
  5
4D1
330
4B1
100
AcDbEntity
  8
化粧台
  6
CONTINUOUS
 62
     6
100
AcDbVertex
100
AcDb2dVertex
 10
1163.009830638112
 20
1772.392747348215
 30
0.0
  0
VERTEX
  5
4D2
330
4B1
100
AcDbEntity
  8
化粧台
  6
CONTINUOUS
 62
     6
100
AcDbVertex
100
AcDb2dVertex
 10
1163.009280990827
 20
1772.371068782762
 30
0.0
  0
VERTEX
  5
4D3
330
4B1
100
AcDbEntity
  8
化粧台
  6
CONTINUOUS
 62
     6
100
AcDbVertex
100
AcDb2dVertex
 10
1163.008705031964
 20
1772.349251447298
 30
0.0
  0
VERTEX
  5
4D4
330
4B1
100
AcDbEntity
  8
化粧台
  6
CONTINUOUS
 62
     6
100
AcDbVertex
100
AcDb2dVertex
 10
1163.008236888
 20
1772.33214759848
 30
0.0
  0
VERTEX
  5
4D5
330
4B1
100
AcDbEntity
  8
化粧台
  6
CONTINUOUS
 62
     6
100
AcDbVertex
100
AcDb2dVertex
 10
1163.007754812139
 20
1772.315035219754
 30
0.0
  0
VERTEX
  5
4D6
330
4B1
100
AcDbEntity
  8
化粧台
  6
CONTINUOUS
 62
     6
100
AcDbVertex
100
AcDb2dVertex
 10
1163.007261709512
 20
1772.297976324167
 30
0.0
  0
VERTEX
  5
4D7
330
4B1
100
AcDbEntity
  8
化粧台
  6
CONTINUOUS
 62
     6
100
AcDbVertex
100
AcDb2dVertex
 10
1163.006760485247
 20
1772.281032924764
 30
0.0
  0
VERTEX
  5
4D8
330
4B1
100
AcDbEntity
  8
化粧台
  6
CONTINUOUS
 62
     6
100
AcDbVertex
100
AcDb2dVertex
 10
1163.006254044474
 20
1772.264267034592
 30
0.0
  0
VERTEX
  5
4D9
330
4B1
100
AcDbEntity
  8
化粧台
  6
CONTINUOUS
 62
     6
100
AcDbVertex
100
AcDb2dVertex
 10
1163.005745292324
 20
1772.247740666696
 30
0.0
  0
VERTEX
  5
4DA
330
4B1
100
AcDbEntity
  8
化粧台
  6
CONTINUOUS
 62
     6
100
AcDbVertex
100
AcDb2dVertex
 10
1163.005237133927
 20
1772.231515834124
 30
0.0
  0
VERTEX
  5
4DB
330
4B1
100
AcDbEntity
  8
化粧台
  6
CONTINUOUS
 62
     6
100
AcDbVertex
100
AcDb2dVertex
 10
1163.004732474412
 20
1772.215654549923
 30
0.0
  0
VERTEX
  5
4DC
330
4B1
100
AcDbEntity
  8
化粧台
  6
CONTINUOUS
 62
     6
100
AcDbVertex
100
AcDb2dVertex
 10
1163.004234218909
 20
1772.200218827137
 30
0.0
  0
VERTEX
  5
4DD
330
4B1
100
AcDbEntity
  8
化粧台
  6
CONTINUOUS
 62
     6
100
AcDbVertex
100
AcDb2dVertex
 10
1163.00374527255
 20
1772.185270678813
 30
0.0
  0
VERTEX
  5
4DE
330
4B1
100
AcDbEntity
  8
化粧台
  6
CONTINUOUS
 62
     6
100
AcDbVertex
100
AcDb2dVertex
 10
1163.003268540463
 20
1772.170872117998
 30
0.0
  0
VERTEX
  5
4DF
330
4B1
100
AcDbEntity
  8
化粧台
  6
CONTINUOUS
 62
     6
100
AcDbVertex
100
AcDb2dVertex
 10
1163.002977152424
 20
1772.162157589103
 30
0.0
  0
VERTEX
  5
4E0
330
4B1
100
AcDbEntity
  8
化粧台
  6
CONTINUOUS
 62
     6
100
AcDbVertex
100
AcDb2dVertex
 10
1163.002686389889
 20
1772.15355134298
 30
0.0
  0
VERTEX
  5
4E1
330
4B1
100
AcDbEntity
  8
化粧台
  6
CONTINUOUS
 62
     6
100
AcDbVertex
100
AcDb2dVertex
 10
1163.00239097538
 20
1772.144922878667
 30
0.0
  0
VERTEX
  5
4E2
330
4B1
100
AcDbEntity
  8
化粧台
  6
CONTINUOUS
 62
     6
100
AcDbVertex
100
AcDb2dVertex
 10
1163.002085631417
 20
1772.136141695203
 30
0.0
  0
VERTEX
  5
4E3
330
4B1
100
AcDbEntity
  8
化粧台
  6
CONTINUOUS
 62
     6
100
AcDbVertex
100
AcDb2dVertex
 10
1163.001765080521
 20
1772.127077291627
 30
0.0
  0
VERTEX
  5
4E4
330
4B1
100
AcDbEntity
  8
化粧台
  6
CONTINUOUS
 62
     6
100
AcDbVertex
100
AcDb2dVertex
 10
1163.001424045214
 20
1772.117599166977
 30
0.0
  0
VERTEX
  5
4E5
330
4B1
100
AcDbEntity
  8
化粧台
  6
CONTINUOUS
 62
     6
100
AcDbVertex
100
AcDb2dVertex
 10
1163.001057248018
 20
1772.107576820295
 30
0.0
  0
VERTEX
  5
4E6
330
4B1
100
AcDbEntity
  8
化粧台
  6
CONTINUOUS
 62
     6
100
AcDbVertex
100
AcDb2dVertex
 10
1163.000659411454
 20
1772.096879750616
 30
0.0
  0
VERTEX
  5
4E7
330
4B1
100
AcDbEntity
  8
化粧台
  6
CONTINUOUS
 62
     6
100
AcDbVertex
100
AcDb2dVertex
 10
1163.000225258042
 20
1772.085377456981
 30
0.0
  0
VERTEX
  5
4E8
330
4B1
100
AcDbEntity
  8
化粧台
  6
CONTINUOUS
 62
     6
100
AcDbVertex
100
AcDb2dVertex
 10
1162.999749510305
 20
1772.072939438428
 30
0.0
  0
VERTEX
  5
4E9
330
4B1
100
AcDbEntity
  8
化粧台
  6
CONTINUOUS
 62
     6
100
AcDbVertex
100
AcDb2dVertex
 10
1162.999226890763
 20
1772.059435193998
 30
0.0
  0
VERTEX
  5
4EA
330
4B1
100
AcDbEntity
  8
化粧台
  6
CONTINUOUS
 62
     6
100
AcDbVertex
100
AcDb2dVertex
 10
1162.999039266328
 20
1772.054620278617
 30
0.0
  0
VERTEX
  5
4EB
330
4B1
100
AcDbEntity
  8
化粧台
  6
CONTINUOUS
 62
     6
100
AcDbVertex
100
AcDb2dVertex
 10
1162.998849821744
 20
1772.04977203555
 30
0.0
  0
VERTEX
  5
4EC
330
4B1
100
AcDbEntity
  8
化粧台
  6
CONTINUOUS
 62
     6
100
AcDbVertex
100
AcDb2dVertex
 10
1162.998662705557
 20
1772.044994107396
 30
0.0
  0
VERTEX
  5
4ED
330
4B1
100
AcDbEntity
  8
化粧台
  6
CONTINUOUS
 62
     6
100
AcDbVertex
100
AcDb2dVertex
 10
1162.998482066318
 20
1772.04039013675
 30
0.0
  0
VERTEX
  5
4EE
330
4B1
100
AcDbEntity
  8
化粧台
  6
CONTINUOUS
 62
     6
100
AcDbVertex
100
AcDb2dVertex
 10
1162.998312052575
 20
1772.036063766209
 30
0.0
  0
VERTEX
  5
4EF
330
4B1
100
AcDbEntity
  8
化粧台
  6
CONTINUOUS
 62
     6
100
AcDbVertex
100
AcDb2dVertex
 10
1162.998156812877
 20
1772.03211863837
 30
0.0
  0
VERTEX
  5
4F0
330
4B1
100
AcDbEntity
  8
化粧台
  6
CONTINUOUS
 62
     6
100
AcDbVertex
100
AcDb2dVertex
 10
1162.998020495773
 20
1772.02865839583
 30
0.0
  0
VERTEX
  5
4F1
330
4B1
100
AcDbEntity
  8
化粧台
  6
CONTINUOUS
 62
     6
100
AcDbVertex
100
AcDb2dVertex
 10
1162.99790724981
 20
1772.025786681187
 30
0.0
  0
VERTEX
  5
4F2
330
4B1
100
AcDbEntity
  8
化粧台
  6
CONTINUOUS
 62
     6
100
AcDbVertex
100
AcDb2dVertex
 10
1162.997821223538
 20
1772.023607137035
 30
0.0
  0
VERTEX
  5
4F3
330
4B1
100
AcDbEntity
  8
化粧台
  6
CONTINUOUS
 62
     6
100
AcDbVertex
100
AcDb2dVertex
 10
1162.997766565506
 20
1772.022223405974
 30
0.0
  0
VERTEX
  5
4F4
330
4B1
100
AcDbEntity
  8
化粧台
  6
CONTINUOUS
 62
     6
100
AcDbVertex
100
AcDb2dVertex
 10
1162.997747424263
 20
1772.021739130598
 30
0.0
  0
SEQEND
  5
4F5
330
4B1
100
AcDbEntity
  8
化粧台
  6
CONTINUOUS
 62
     6
  0
LINE
  5
4F6
330
1F
100
AcDbEntity
  8
化粧台
  6
CONTINUOUS
 62
     6
100
AcDbLine
 10
1213.000000000974
 20
1764.057813856066
 30
0.0
 11
1213.000000000974
 21
1799.621073356876
 31
0.0
  0
LINE
  5
4F7
330
1F
100
AcDbEntity
  8
化粧台
  6
CONTINUOUS
 62
     6
100
AcDbLine
 10
1160.022702649656
 20
1801.821489306724
 30
0.0
 11
1093.577831947161
 21
1813.537512741252
 31
0.0
  0
LINE
  5
4F8
330
1F
100
AcDbEntity
  8
化粧台
  6
CONTINUOUS
 62
     6
100
AcDbLine
 10
1157.417979984656
 20
1787.049373011537
 30
0.0
 11
1090.973109282159
 21
1798.765396446066
 31
0.0
  0
LINE
  5
4F9
330
1F
100
AcDbEntity
  8
化粧台
  6
CONTINUOUS
 62
     6
100
AcDbLine
 10
1090.973109282161
 20
1798.765396446073
 30
0.0
 11
1093.577831947161
 21
1813.537512741252
 31
0.0
  0
LINE
  5
4FA
330
1F
100
AcDbEntity
  8
化粧台
  6
CONTINUOUS
 62
     6
100
AcDbLine
 10
1157.417979984656
 20
1787.049373011537
 30
0.0
 11
1160.022702649658
 21
1801.821489306724
 31
0.0
  0
LINE
  5
4FB
330
1F
100
AcDbEntity
  8
化粧台
  6
CONTINUOUS
 62
     6
100
AcDbLine
 10
1159.414934027824
 20
1798.374662171178
 30
0.0
 11
1163.00000000097
 21
1797.742518312493
 31
0.0
  0
LINE
  5
4FC
330
1F
100
AcDbEntity
  8
化粧台
  6
CONTINUOUS
 62
     6
100
AcDbLine
 10
1158.02574860649
 20
1790.496200147081
 30
0.0
 11
1163.00000000097
 21
1789.619105417407
 31
0.0
  0
LINE
  5
4FD
330
1F
100
AcDbEntity
  8
化粧台
  6
CONTINUOUS
 62
     6
100
AcDbLine
 10
1163.00000000097
 20
1764.057813856066
 30
0.0
 11
1213.000000000974
 21
1764.057813856066
 31
0.0
  0
LINE
  5
4FE
330
1F
100
AcDbEntity
  8
化粧台
  6
CONTINUOUS
 62
     6
100
AcDbLine
 10
1163.00000000097
 20
1797.742518312486
 30
0.0
 11
1163.00000000097
 21
1801.367490143984
 31
0.0
  0
ARC
  5
4FF
330
1F
100
AcDbEntity
  8
化粧台
  6
CONTINUOUS
 62
     6
100
AcDbCircle
 10
1188.000000000968
 20
1624.03774002369
 30
0.0
 40
179.0833333331875
100
AcDbArc
 50
81.97531013013682
 51
98.02468986986013
  0
LINE
  5
500
330
1F
100
AcDbEntity
  8
化粧台
  6
CONTINUOUS
 62
     6
100
AcDbLine
 10
1213.000000000974
 20
1770.756543666844
 30
0.0
 11
1213.000000000974
 21
1801.367490143982
 31
0.0
  0
LINE
  5
501
330
1F
100
AcDbEntity
  8
化粧台
  6
CONTINUOUS
 62
     2
100
AcDbLine
 10
1153.000000000142
 20
1647.000000000108
 30
0.0
 11
1262.432787040387
 21
1651.757947262727
 31
0.0
  0
ARC
  5
502
330
1F
100
AcDbEntity
  8
化粧台
  6
CONTINUOUS
 62
     6
100
AcDbCircle
 10
1162.500000000975
 20
1653.618030332379
 30
0.0
 40
0.5
100
AcDbArc
 50
338.1985905136144
 51
0.0
  0
ARC
  5
503
330
1F
100
AcDbEntity
  8
化粧台
  6
CONTINUOUS
 62
     6
100
AcDbCircle
 10
1162.500000000974
 20
1653.618030332379
 30
0.0
 40
0.5
100
AcDbArc
 50
338.1985905136144
 51
0.0
  0
LINE
  5
504
330
1F
100
AcDbEntity
  8
化粧台
  6
CONTINUOUS
 62
     6
100
AcDbLine
 10
1162.964238346418
 20
1653.432334994202
 30
0.0
 11
1161.000000000974
 21
1648.521739130599
 31
0.0
  0
LINE
  5
505
330
1F
100
AcDbEntity
  8
化粧台
  6
CONTINUOUS
 62
     6
100
AcDbLine
 10
1162.964238346381
 20
1653.432334994264
 30
0.0
 11
1161.000000000936
 21
1648.521739130661
 31
0.0
  0
ARC
  5
506
330
1F
100
AcDbEntity
  8
化粧台
  6
CONTINUOUS
 62
     6
100
AcDbCircle
 10
1162.500000000936
 20
1653.618030332441
 30
0.0
 40
0.5
100
AcDbArc
 50
338.1985905136144
 51
0.0
  0
ARC
  5
507
330
1F
100
AcDbEntity
  8
化粧台
  6
CONTINUOUS
 62
     6
100
AcDbCircle
 10
1162.500000000938
 20
1653.618030332441
 30
0.0
 40
0.5
100
AcDbArc
 50
338.1985905136144
 51
0.0
  0
LINE
  5
508
330
1F
100
AcDbEntity
  8
化粧台
  6
CONTINUOUS
 62
     6
100
AcDbLine
 10
1160.314677500941
 20
1658.21340620014
 30
0.0
 11
1160.314677500941
 21
1659.42835350014
 31
0.0
  0
LINE
  5
509
330
1F
100
AcDbEntity
  8
化粧台
  6
CONTINUOUS
 62
     6
100
AcDbLine
 10
1160.314677500941
 20
1660.67272180014
 30
0.0
 11
1160.581397100942
 21
1660.90977890014
 31
0.0
  0
LINE
  5
50A
330
1F
100
AcDbEntity
  8
化粧台
  6
CONTINUOUS
 62
     6
100
AcDbLine
 10
1160.314677500941
 20
1660.67272180014
 30
0.0
 11
1160.314677500941
 21
1659.42835350014
 31
0.0
  0
LINE
  5
50B
330
1F
100
AcDbEntity
  8
化粧台
  6
CONTINUOUS
 62
     6
100
AcDbLine
 10
1160.581397100942
 20
1660.90977890014
 30
0.0
 11
1163.000000000942
 21
1660.90977890014
 31
0.0
  0
POLYLINE
  5
50C
330
1F
100
AcDbEntity
  8
化粧台
  6
CONTINUOUS
 62
     6
100
AcDb2dPolyline
 66
     1
 10
0.0
 20
0.0
 30
0.0
 70
   128
  0
VERTEX
  5
50D
330
50C
100
AcDbEntity
  8
化粧台
  6
CONTINUOUS
 62
     6
100
AcDbVertex
100
AcDb2dVertex
 10
1160.314677500941
 20
1658.21340620014
 30
0.0
  0
VERTEX
  5
50E
330
50C
100
AcDbEntity
  8
化粧台
  6
CONTINUOUS
 62
     6
100
AcDbVertex
100
AcDb2dVertex
 10
1160.581397100942
 20
1657.94668660014
 30
0.0
  0
VERTEX
  5
50F
330
50C
100
AcDbEntity
  8
化粧台
  6
CONTINUOUS
 62
     6
100
AcDbVertex
100
AcDb2dVertex
 10
1161.835946550291
 20
1657.94668660014
 30
0.0
  0
SEQEND
  5
510
330
50C
100
AcDbEntity
  8
化粧台
  6
CONTINUOUS
 62
     6
  0
POLYLINE
  5
511
330
1F
100
AcDbEntity
  8
化粧台
  6
CONTINUOUS
 62
     6
100
AcDb2dPolyline
 66
     1
 10
0.0
 20
0.0
 30
0.0
 70
   128
  0
VERTEX
  5
512
330
511
100
AcDbEntity
  8
化粧台
  6
CONTINUOUS
 62
     6
100
AcDbVertex
100
AcDb2dVertex
 10
1162.224420673709
 20
1657.94668660014
 30
0.0
  0
VERTEX
  5
513
330
511
100
AcDbEntity
  8
化粧台
  6
CONTINUOUS
 62
     6
100
AcDbVertex
100
AcDb2dVertex
 10
1163.000000000942
 20
1657.94668660014
 30
0.0
  0
SEQEND
  5
514
330
511
100
AcDbEntity
  8
化粧台
  6
CONTINUOUS
 62
     6
  0
SPLINE
  5
515
330
1F
100
AcDbEntity
  8
化粧台
  6
CONTINUOUS
 62
     6
100
AcDbSpline
210
0.0
220
0.0
230
1.0
 70
     8
 71
     3
 72
    11
 73
     7
 74
     0
 42
0.00000001
 43
0.00000001
 12
1.0
 22
0.0
 32
0.0
 13
1.0
 23
0.0
 33
0.0
 40
0.0
 40
0.0
 40
0.0
 40
0.0
 40
1.0
 40
1.0
 40
1.0
 40
2.0
 40
2.0
 40
2.0
 40
2.0
 10
1161.899921258103
 20
1660.168945772188
 30
0.0
 10
1162.300964823642
 20
1660.168945772188
 30
0.0
 10
1162.62592345537
 20
1659.844107718803
 30
0.0
 10
1162.62592345537
 20
1659.443064153265
 30
0.0
 10
1162.62592345537
 20
1659.13373581132
 30
0.0
 10
1162.432600066626
 20
1658.869743418054
 30
0.0
 10
1162.160152600111
 20
1658.765175626185
 30
0.0
  0
ELLIPSE
  5
516
330
1F
100
AcDbEntity
  8
化粧台
  6
CONTINUOUS
 62
     6
100
AcDbEllipse
 10
1160.44384322464
 20
1657.22258608054
 30
0.0
 11
-0.9999999999999996
 21
-1.75
 31
0.0
210
0.0
220
0.0
230
1.0
 40
0.5574667979075156
 41
2.76655311412044
 42
2.86495270709261
  0
SPLINE
  5
517
330
1F
100
AcDbEntity
  8
化粧台
  6
CONTINUOUS
 62
     6
100
AcDbSpline
210
0.0
220
0.0
230
1.0
 70
     8
 71
     3
 72
    11
 73
     7
 74
     0
 42
0.00000001
 43
0.00000001
 12
1.0
 22
0.0
 32
0.0
 13
1.0
 23
0.0
 33
0.0
 40
0.0
 40
0.0
 40
0.0
 40
0.0
 40
1.0
 40
1.0
 40
1.0
 40
2.0
 40
2.0
 40
2.0
 40
2.0
 10
1161.731695610571
 20
1658.736763485249
 30
0.0
 10
1161.411873610589
 20
1658.81260905734
 30
0.0
 10
1161.173919060838
 20
1659.099945790123
 30
0.0
 10
1161.173919060838
 20
1659.443064153265
 30
0.0
 10
1161.173919060838
 20
1659.844107718803
 30
0.0
 10
1161.498998270907
 20
1660.168945772188
 30
0.0
 10
1161.899921258103
 20
1660.168945772188
 30
0.0
  0
CIRCLE
  5
518
330
1F
100
AcDbEntity
  8
化粧台
  6
CONTINUOUS
 62
     6
100
AcDbCircle
 10
1159.504149660586
 20
1655.794920628582
 30
0.0
 40
2.1000366
  0
ELLIPSE
  5
519
330
1F
100
AcDbEntity
  8
化粧台
  6
CONTINUOUS
 62
     6
100
AcDbEllipse
 10
1160.44384322464
 20
1657.22258608054
 30
0.0
 11
-0.9999999999999996
 21
-1.75
 31
0.0
210
0.0
220
0.0
230
1.0
 40
0.5574667979075156
 41
1.5685672036623
 42
2.766553114120512
  0
ELLIPSE
  5
51A
330
1F
100
AcDbEntity
  8
化粧台
  6
CONTINUOUS
 62
     6
100
AcDbEllipse
 10
1160.39384322464
 20
1657.22258608054
 30
0.0
 11
-1.450000000000011
 21
-2.150000000000124
 31
0.0
210
0.0
220
0.0
230
1.0
 40
0.5503816039039365
 41
1.537657602852176
 42
3.588302332129237
  0
ELLIPSE
  5
51B
330
1F
100
AcDbEntity
  8
化粧台
  6
CONTINUOUS
 62
     6
100
AcDbEllipse
 10
1160.44384322464
 20
1657.22258608054
 30
0.0
 11
-0.9999999999999996
 21
-1.75
 31
0.0
210
0.0
220
0.0
230
1.0
 40
0.5574667979075156
 41
4.031946534333598
 42
4.646125326161145
  0
ELLIPSE
  5
51C
330
1F
100
AcDbEntity
  8
化粧台
  6
CONTINUOUS
 62
     6
100
AcDbEllipse
 10
1160.39384322464
 20
1657.22258608054
 30
0.0
 11
-1.450000000000011
 21
-2.150000000000124
 31
0.0
210
0.0
220
0.0
230
1.0
 40
0.5503816039039365
 41
4.070229820860886
 42
4.787689108662072
  0
CIRCLE
  5
51D
330
1F
100
AcDbEntity
  8
化粧台
  6
CONTINUOUS
 62
     6
100
AcDbCircle
 10
1157.796023147086
 20
1651.804579005582
 30
0.0
 40
2.1000366
  0
ARC
  5
51E
330
1F
100
AcDbEntity
  8
化粧台
  6
CONTINUOUS
 62
     6
100
AcDbCircle
 10
1157.310330571296
 20
1647.423153469681
 30
0.0
 40
2.1000366
100
AcDbArc
 50
356.0501147243097
 51
188.9289911196864
  0
LINE
  5
51F
330
1F
100
AcDbEntity
  8
化粧台
  6
CONTINUOUS
 62
     2
100
AcDbLine
 10
688.1851228749841
 20
1682.000000000108
 30
0.0
 11
1163.00000000097
 21
1682.000000000108
 31
0.0
  0
LINE
  5
520
330
1F
100
AcDbEntity
  8
化粧台
  6
CONTINUOUS
 62
     2
100
AcDbLine
 10
1213.00000000097
 20
1682.000000000108
 30
0.0
 11
1277.8148771253
 21
1682.000000000108
 31
0.0
  0
LINE
  5
521
330
1F
100
AcDbEntity
  8
化粧台
  6
CONTINUOUS
 62
     2
100
AcDbLine
 10
699.5000000001804
 20
1617.00000000014
 30
0.0
 11
699.5000000001804
 21
900.5
 31
0.0
  0
ARC
  5
522
330
1F
100
AcDbEntity
  8
化粧台
  6
EXLTYPE2
 62
     6
100
AcDbCircle
 10
1310.000000000098
 20
1475.150000000065
 30
0.0
 40
200.0000000000001
100
AcDbArc
 50
148.544131348489
 51
180.0
  0
ARC
  5
523
330
1F
100
AcDbEntity
  8
化粧台
  6
EXLTYPE2
 62
     6
100
AcDbCircle
 10
1310.000000000098
 20
1469.450000000064
 30
0.0
 40
214.0000000000001
100
AcDbArc
 50
155.8006203273897
 51
180.0
  0
LINE
  5
524
330
1F
100
AcDbEntity
  8
化粧台
  6
EXLTYPE2
 62
     6
100
AcDbLine
 10
1186.000000000105
 20
1255.200000000041
 30
0.0
 11
1186.000000000105
 21
1617.00000000014
 31
0.0
  0
LINE
  5
525
330
1F
100
AcDbEntity
  8
化粧台
  6
EXLTYPE2
 62
     6
100
AcDbLine
 10
1200.000000000098
 20
1255.200000000041
 30
0.0
 11
1200.000000000098
 21
1617.00000000014
 31
0.0
  0
LINE
  5
526
330
1F
100
AcDbEntity
  8
化粧台
  6
CONTINUOUS
 62
     2
100
AcDbLine
 10
1265.000000000151
 20
1617.00000000014
 30
0.0
 11
1265.000000000151
 21
1485.5
 31
0.0
  0
LINE
  5
527
330
1F
100
AcDbEntity
  8
化粧台
  6
CONTINUOUS
 62
     2
100
AcDbLine
 10
1266.500000000185
 20
1617.00000000014
 30
0.0
 11
1266.500000000185
 21
900.5
 31
0.0
  0
LINE
  5
528
330
1F
100
AcDbEntity
  8
化粧台
  6
CONTINUOUS
 62
     2
100
AcDbLine
 10
713.0000000001413
 20
900.5
 30
0.0
 11
1253.000000000141
 21
900.5
 31
0.0
  0
LINE
  5
529
330
1F
100
AcDbEntity
  8
化粧台
  6
CONTINUOUS
 62
     6
100
AcDbLine
 10
800.5000000001022
 20
1427.0
 30
0.0
 11
775.5000000001004
 21
1427.0
 31
0.0
  0
CIRCLE
  5
52A
330
1F
100
AcDbEntity
  8
化粧台
  6
EXLTYPE2
 62
     6
100
AcDbCircle
 10
788.0000000001022
 20
1427.0
 30
0.0
 40
7.500000000000014
  0
LINE
  5
52B
330
1F
100
AcDbEntity
  8
化粧台
  6
EXLTYPE3
 62
     6
100
AcDbLine
 10
788.000000000185
 20
1414.600000000099
 30
0.0
 11
788.000000000185
 21
1439.8000000001
 31
0.0
  0
LINE
  5
52C
330
1F
100
AcDbEntity
  8
化粧台
  6
CONTINUOUS
 62
     6
100
AcDbLine
 10
1165.500000000183
 20
1427.0
 30
0.0
 11
1190.500000000185
 21
1427.0
 31
0.0
  0
CIRCLE
  5
52D
330
1F
100
AcDbEntity
  8
化粧台
  6
EXLTYPE2
 62
     6
100
AcDbCircle
 10
1178.000000000183
 20
1427.0
 30
0.0
 40
7.500000000000014
  0
LINE
  5
52E
330
1F
100
AcDbEntity
  8
化粧台
  6
EXLTYPE3
 62
     6
100
AcDbLine
 10
1178.000000000181
 20
1414.600000000099
 30
0.0
 11
1178.000000000181
 21
1439.8000000001
 31
0.0
  0
DIMENSION
  5
52F
330
1F
100
AcDbEntity
  8
化粧台
  6
CONTINUOUS
 62
     3
100
AcDbDimension
  2
*D35
 10
1266.500000000201
 20
628.5
 30
0.0
 11
983.0000000001905
 21
663.749999910593
 31
0.0
 70
   160
  3
ISO-25
100
AcDbAlignedDimension
 13
699.5000000001804
 23
900.5
 33
0.0
 14
1266.500000000201
 24
900.5
 34
0.0
100
AcDbRotatedDimension
1001
ACAD
1000
DSTYLE
1002
{
1070
   270
1070
     2
1070
     6
1000
EX_NORM
1070
     7
1000
EX_NORM
1070
    41
1040
44.99999618530273
1070
    42
1040
10.49999982118607
1070
    44
1040
15.0
1070
    73
1070
     0
1070
    74
1070
     0
1070
    75
1070
     0
1070
    76
1070
     0
1070
    77
1070
     1
1070
    78
1070
     8
1070
   140
1040
59.99999618530273
1070
   147
1040
0.0
1070
   173
1070
     1
1070
   176
1070
     3
1070
   177
1070
     3
1070
   178
1070
     2
1070
   271
1070
     1
1070
   277
1070
     2
1070
   279
1070
     2
1070
   280
1070
     0
1070
   287
1070
     5
1070
   340
1005
11B
1002
}
  0
LINE
  5
53C
330
1F
100
AcDbEntity
  8
化粧台
  6
CONTINUOUS
 62
     2
100
AcDbLine
 10
2528.000000000114
 20
1681.99999999997
 30
0.0
 11
2528.000000000114
 21
1506.99999999995
 31
0.0
  0
LINE
  5
53D
330
1F
100
AcDbEntity
  8
化粧台
  6
CONTINUOUS
 62
     2
100
AcDbLine
 10
2247.5000000001
 20
1485.5
 30
0.0
 11
2268.0000000001
 21
1485.5
 31
0.0
  0
LINE
  5
53E
330
1F
100
AcDbEntity
  8
化粧台
  6
CONTINUOUS
 62
     2
100
AcDbLine
 10
2249.0000000001
 20
1478.5
 30
0.0
 11
2266.0000000001
 21
1478.5
 31
0.0
  0
LINE
  5
53F
330
1F
100
AcDbEntity
  8
化粧台
  6
CONTINUOUS
 62
     2
100
AcDbLine
 10
2249.0000000001
 20
988.5
 30
0.0
 11
2266.0000000001
 21
988.5
 31
0.0
  0
LINE
  5
540
330
1F
100
AcDbEntity
  8
化粧台
  6
CONTINUOUS
 62
     2
100
AcDbLine
 10
2249.0000000001
 20
988.5
 30
0.0
 11
2249.0000000001
 21
1478.499999999999
 31
0.0
  0
LINE
  5
541
330
1F
100
AcDbEntity
  8
化粧台
  6
CONTINUOUS
 62
     2
100
AcDbLine
 10
2266.0000000001
 20
988.5
 30
0.0
 11
2266.0000000001
 21
1478.499999999999
 31
0.0
  0
LINE
  5
542
330
1F
100
AcDbEntity
  8
化粧台
  6
CONTINUOUS
 62
     2
100
AcDbLine
 10
2268.0000000001
 20
900.5
 30
0.0
 11
2528.0000000001
 21
900.5
 31
0.0
  0
LINE
  5
543
330
1F
100
AcDbEntity
  8
化粧台
  6
CONTINUOUS
 62
     2
100
AcDbLine
 10
2309.000000000095
 20
900.5
 30
0.0
 11
2309.000000000095
 21
897.0
 31
0.0
  0
LINE
  5
544
330
1F
100
AcDbEntity
  8
化粧台
  6
CONTINUOUS
 62
     2
100
AcDbLine
 10
2297.000000000131
 20
900.5
 30
0.0
 11
2297.000000000131
 21
897.0
 31
0.0
  0
LINE
  5
545
330
1F
100
AcDbEntity
  8
化粧台
  6
CONTINUOUS
 62
     2
100
AcDbLine
 10
2297.0000000001
 20
897.0
 30
0.0
 11
2309.000000000095
 21
897.0
 31
0.0
  0
ARC
  5
546
330
1F
100
AcDbEntity
  8
化粧台
  6
CONTINUOUS
 62
     2
100
AcDbCircle
 10
2239.500000000101
 20
1433.5
 30
0.0
 40
18.5
100
AcDbArc
 50
163.3984504009939
 51
196.6015495990061
  0
LINE
  5
547
330
1F
100
AcDbEntity
  8
化粧台
  6
CONTINUOUS
 62
     2
100
AcDbLine
 10
2249.000000000101
 20
1429.0
 30
0.0
 11
2222.786557396651
 21
1427.501629662143
 31
0.0
  0
ARC
  5
548
330
1F
100
AcDbEntity
  8
化粧台
  6
CONTINUOUS
 62
     2
100
AcDbCircle
 10
2222.729490168853
 20
1428.5
 30
0.0
 40
1.0
100
AcDbArc
 50
196.6015495990198
 51
273.2714886349227
  0
LINE
  5
549
330
1F
100
AcDbEntity
  8
化粧台
  6
CONTINUOUS
 62
     2
100
AcDbLine
 10
2249.000000000101
 20
1438.0
 30
0.0
 11
2222.786557396651
 21
1439.498370337856
 31
0.0
  0
LINE
  5
54A
330
1F
100
AcDbEntity
  8
化粧台
  6
CONTINUOUS
 62
     2
100
AcDbLine
 10
2249.000000000101
 20
1429.0
 30
0.0
 11
2249.000000000101
 21
1438.0
 31
0.0
  0
ARC
  5
54B
330
1F
100
AcDbEntity
  8
化粧台
  6
CONTINUOUS
 62
     2
100
AcDbCircle
 10
2222.729490168853
 20
1438.5
 30
0.0
 40
1.0
100
AcDbArc
 50
86.72851136507767
 51
163.3984504009802
  0
LINE
  5
54C
330
1F
100
AcDbEntity
  8
化粧台
  6
CONTINUOUS
 62
     6
100
AcDbLine
 10
2503.000000000053
 20
1426.999999999954
 30
0.0
 11
2538.0000000001
 21
1426.999999999954
 31
0.0
  0
LINE
  5
54D
330
1F
100
AcDbEntity
  8
化粧台
  6
CONTINUOUS
 62
     6
100
AcDbLine
 10
2513.300005722062
 20
1426.999999999958
 30
0.0
 11
2575.500005722065
 21
1426.999999999958
 31
0.0
  0
LINE
  5
54E
330
1F
100
AcDbEntity
  8
化粧台
  6
CONTINUOUS
 62
     6
100
AcDbLine
 10
2560.500005722065
 20
1426.999999999958
 30
0.0
 11
2528.000005722065
 21
1424.99999999996
 31
0.0
  0
LINE
  5
54F
330
1F
100
AcDbEntity
  8
化粧台
  6
CONTINUOUS
 62
     6
100
AcDbLine
 10
2528.000005722065
 20
1428.99999999996
 30
0.0
 11
2560.500005722065
 21
1426.999999999958
 31
0.0
  0
LINE
  5
550
330
1F
100
AcDbEntity
  8
化粧台
  6
EXLTYPE4
 62
     6
100
AcDbLine
 10
2549.0000000001
 20
1356.0
 30
0.0
 11
2453.75000000014
 21
1356.0
 31
0.0
  0
LINE
  5
551
330
1F
100
AcDbEntity
  8
化粧台
  6
EXLTYPE4
 62
     6
100
AcDbLine
 10
2549.0000000001
 20
1388.0
 30
0.0
 11
2453.750000000096
 21
1388.0
 31
0.0
  0
LINE
  5
552
330
1F
100
AcDbEntity
  8
化粧台
  6
CONTINUOUS
 62
     6
100
AcDbLine
 10
2549.000000000103
 20
1388.0
 30
0.0
 11
2549.000000000103
 21
1356.0
 31
0.0
  0
LINE
  5
553
330
1F
100
AcDbEntity
  8
化粧台
  6
EXLTYPE2
 62
     6
100
AcDbLine
 10
2474.500000000096
 20
1206.5
 30
0.0
 11
2536.000000000096
 21
1206.5
 31
0.0
  0
LINE
  5
554
330
1F
100
AcDbEntity
  8
化粧台
  6
EXLTYPE2
 62
     6
100
AcDbLine
 10
2474.500000000096
 20
1227.5
 30
0.0
 11
2536.000000000096
 21
1227.5
 31
0.0
  0
LINE
  5
555
330
1F
100
AcDbEntity
  8
化粧台
  6
CONTINUOUS
 62
     6
100
AcDbLine
 10
2536.000000000096
 20
1227.5
 30
0.0
 11
2536.000000000096
 21
1206.5
 31
0.0
  0
LINE
  5
556
330
1F
100
AcDbEntity
  8
化粧台
  6
EXLTYPE3
 62
     6
100
AcDbLine
 10
2556.750000000098
 20
1371.999999999998
 30
0.0
 11
2452.650000000097
 21
1371.999999999998
 31
0.0
  0
LINE
  5
557
330
1F
100
AcDbEntity
  8
化粧台
  6
EXLTYPE2
 62
     6
100
AcDbLine
 10
2362.642588912777
 20
1489.589877715614
 30
0.0
 11
2359.090297380908
 21
1515.330547224205
 31
0.0
  0
LINE
  5
558
330
1F
100
AcDbEntity
  8
化粧台
  6
EXLTYPE2
 62
     6
100
AcDbLine
 10
2318.841358740615
 20
1526.656324434974
 30
0.0
 11
2350.055740135632
 21
1523.925419923936
 31
0.0
  0
ARC
  5
559
330
1F
100
AcDbEntity
  8
化粧台
  6
EXLTYPE2
 62
     6
100
AcDbCircle
 10
2349.184182708156
 20
1513.963472943019
 30
0.0
 40
10.0
100
AcDbArc
 50
7.857363790234437
 51
85.00000000000034
  0
ARC
  5
55A
330
1F
100
AcDbEntity
  8
化粧台
  6
EXLTYPE2
 62
     6
100
AcDbCircle
 10
2365.614423314602
 20
1489.99999999997
 30
0.0
 40
3.000000000000002
100
AcDbArc
 50
187.8573637902339
 51
270.0000000000002
  0
ARC
  5
55B
330
1F
100
AcDbEntity
  8
化粧台
  6
EXLTYPE2
 62
     6
100
AcDbCircle
 10
2440.385576685626
 20
1489.99999999997
 30
0.0
 40
3.000000000000003
100
AcDbArc
 50
270.0000000000002
 51
352.5295987197604
  0
ARC
  5
55C
330
1F
100
AcDbEntity
  8
化粧台
  6
EXLTYPE2
 62
     6
100
AcDbCircle
 10
2446.334649635247
 20
1489.219916004443
 30
0.0
 40
3.000000000000003
100
AcDbArc
 50
94.99999999999989
 51
172.5295987197601
  0
LINE
  5
55D
330
1F
100
AcDbEntity
  8
化粧台
  6
EXLTYPE2
 62
     6
100
AcDbLine
 10
2446.073182407005
 20
1492.208500098718
 30
0.0
 11
2451.521774780625
 21
1492.685190163584
 31
0.0
  0
LINE
  5
55E
330
1F
100
AcDbEntity
  8
化粧台
  6
EXLTYPE2
 62
     6
100
AcDbLine
 10
2403.000000000114
 20
1541.99999999997
 30
0.0
 11
2403.000000000114
 21
1476.99999999997
 31
0.0
  0
LINE
  5
55F
330
1F
100
AcDbEntity
  8
化粧台
  6
EXLTYPE2
 62
     6
100
AcDbLine
 10
2513.000000000053
 20
965.4999999998772
 30
0.0
 11
2510.50000000008
 21
965.4999999998772
 31
0.0
  0
LINE
  5
560
330
1F
100
AcDbEntity
  8
化粧台
  6
EXLTYPE2
 62
     6
100
AcDbLine
 10
2510.50000000008
 20
1460.499999999959
 30
0.0
 11
2510.50000000008
 21
965.4999999999
 31
0.0
  0
LINE
  5
561
330
1F
100
AcDbEntity
  8
化粧台
  6
EXLTYPE2
 62
     6
100
AcDbLine
 10
2513.000000000053
 20
1460.499999999959
 30
0.0
 11
2513.000000000053
 21
965.4999999998772
 31
0.0
  0
LINE
  5
562
330
1F
100
AcDbEntity
  8
化粧台
  6
EXLTYPE2
 62
     6
100
AcDbLine
 10
2510.50000000008
 20
1460.499999999959
 30
0.0
 11
2528.0000000001
 21
1460.499999999959
 31
0.0
  0
LINE
  5
563
330
1F
100
AcDbEntity
  8
化粧台
  6
EXLTYPE2
 62
     6
100
AcDbLine
 10
2476.000003814796
 20
926.9999980926495
 30
0.0
 11
2409.9999961854
 21
926.9999980926495
 31
0.0
  0
LINE
  5
564
330
1F
100
AcDbEntity
  8
化粧台
  6
EXLTYPE2
 62
     6
100
AcDbLine
 10
2473.500003814796
 20
949.9999999999982
 30
0.0
 11
2412.499996185405
 21
949.9999999999982
 31
0.0
  0
LINE
  5
565
330
1F
100
AcDbEntity
  8
化粧台
  6
EXLTYPE2
 62
     6
100
AcDbLine
 10
2467.000000000099
 20
965.0000019073468
 30
0.0
 11
2419.000000000102
 21
965.0000019073468
 31
0.0
  0
LINE
  5
566
330
1F
100
AcDbEntity
  8
化粧台
  6
EXLTYPE2
 62
     6
100
AcDbLine
 10
2465.999996185401
 20
967.0465177345268
 30
0.0
 11
2420.0000038148
 21
967.0465177345268
 31
0.0
  0
LINE
  5
567
330
1F
100
AcDbEntity
  8
化粧台
  6
EXLTYPE2
 62
     6
100
AcDbLine
 10
2463.999996185401
 20
984.8465169715873
 30
0.0
 11
2422.0000038148
 21
984.8465169715873
 31
0.0
  0
ARC
  5
568
330
1F
100
AcDbEntity
  8
化粧台
  6
EXLTYPE2
 62
     6
100
AcDbCircle
 10
2422.0000038148
 20
982.8465169715873
 30
0.0
 40
2.0
100
AcDbArc
 50
89.99999567428607
 51
179.9999913485771
  0
LINE
  5
569
330
1F
100
AcDbEntity
  8
化粧台
  6
EXLTYPE2
 62
     6
100
AcDbLine
 10
2420.0000038148
 20
982.8465169715873
 30
0.0
 11
2420.0000038148
 21
967.0465177345268
 31
0.0
  0
ARC
  5
56A
330
1F
100
AcDbEntity
  8
化粧台
  6
EXLTYPE2
 62
     6
100
AcDbCircle
 10
2409.999996185405
 20
927.4999980926495
 30
0.0
 40
0.5
100
AcDbArc
 50
180.0
 51
270.0000000000002
  0
ARC
  5
56B
330
1F
100
AcDbEntity
  8
化粧台
  6
EXLTYPE2
 62
     6
100
AcDbCircle
 10
2412.499996185405
 20
946.9999999999982
 30
0.0
 40
3.000000000000002
100
AcDbArc
 50
90.00000250448174
 51
180.000005008957
  0
ARC
  5
56C
330
1F
100
AcDbEntity
  8
化粧台
  6
EXLTYPE2
 62
     6
100
AcDbCircle
 10
2415.000000000102
 20
950.9999999999982
 30
0.0
 40
1.0
100
AcDbArc
 50
270.0000000000002
 51
0.0
  0
ARC
  5
56D
330
1F
100
AcDbEntity
  8
化粧台
  6
EXLTYPE2
 62
     6
100
AcDbCircle
 10
2419.000000000102
 20
962.0000019073468
 30
0.0
 40
3.000000000000002
100
AcDbArc
 50
90.00000250448174
 51
180.000005008957
  0
LINE
  5
56E
330
1F
100
AcDbEntity
  8
化粧台
  6
EXLTYPE2
 62
     6
100
AcDbLine
 10
2409.499996185405
 20
946.9999999999982
 30
0.0
 11
2409.499996185405
 21
927.4999980926495
 31
0.0
  0
LINE
  5
56F
330
1F
100
AcDbEntity
  8
化粧台
  6
EXLTYPE2
 62
     6
100
AcDbLine
 10
2422.299995422466
 20
967.0465177345268
 30
0.0
 11
2422.299995422466
 21
964.9999937693083
 31
0.0
  0
LINE
  5
570
330
1F
100
AcDbEntity
  8
化粧台
  6
EXLTYPE2
 62
     6
100
AcDbLine
 10
2416.000000000102
 20
962.0000019073468
 30
0.0
 11
2416.000000000102
 21
950.9999999999982
 31
0.0
  0
ARC
  5
571
330
1F
100
AcDbEntity
  8
化粧台
  6
EXLTYPE2
 62
     6
100
AcDbCircle
 10
2463.999996185401
 20
982.8465169715873
 30
0.0
 40
2.0
100
AcDbArc
 50
0.0000086514229809
 51
90.0000043257139
  0
LINE
  5
572
330
1F
100
AcDbEntity
  8
化粧台
  6
EXLTYPE2
 62
     6
100
AcDbLine
 10
2465.999996185401
 20
982.8465169715873
 30
0.0
 11
2465.999996185401
 21
967.0465177345268
 31
0.0
  0
ARC
  5
573
330
1F
100
AcDbEntity
  8
化粧台
  6
EXLTYPE2
 62
     6
100
AcDbCircle
 10
2476.000003814796
 20
927.4999980926495
 30
0.0
 40
0.5
100
AcDbArc
 50
270.0000000000002
 51
0.0
  0
ARC
  5
574
330
1F
100
AcDbEntity
  8
化粧台
  6
EXLTYPE2
 62
     6
100
AcDbCircle
 10
2473.500003814796
 20
946.9999999999982
 30
0.0
 40
3.000000000000002
100
AcDbArc
 50
359.9999949910431
 51
89.99999749552043
  0
ARC
  5
575
330
1F
100
AcDbEntity
  8
化粧台
  6
EXLTYPE2
 62
     6
100
AcDbCircle
 10
2471.000000000099
 20
950.9999999999982
 30
0.0
 40
1.0
100
AcDbArc
 50
180.0
 51
270.0000000000002
  0
ARC
  5
576
330
1F
100
AcDbEntity
  8
化粧台
  6
EXLTYPE2
 62
     6
100
AcDbCircle
 10
2467.000000000099
 20
962.0000019073468
 30
0.0
 40
3.000000000000002
100
AcDbArc
 50
359.9999949910431
 51
89.99999749552043
  0
LINE
  5
577
330
1F
100
AcDbEntity
  8
化粧台
  6
EXLTYPE2
 62
     6
100
AcDbLine
 10
2476.500003814796
 20
946.9999999999982
 30
0.0
 11
2476.500003814796
 21
927.4999980926495
 31
0.0
  0
LINE
  5
578
330
1F
100
AcDbEntity
  8
化粧台
  6
EXLTYPE2
 62
     6
100
AcDbLine
 10
2463.700004577735
 20
967.0465177345268
 30
0.0
 11
2463.700004577735
 21
964.9999937693083
 31
0.0
  0
LINE
  5
579
330
1F
100
AcDbEntity
  8
化粧台
  6
EXLTYPE2
 62
     6
100
AcDbLine
 10
2470.000000000099
 20
962.0000019073468
 30
0.0
 11
2470.000000000099
 21
950.9999999999982
 31
0.0
  0
LINE
  5
57A
330
1F
100
AcDbEntity
  8
化粧台
  6
EXLTYPE2
 62
     6
100
AcDbLine
 10
2403.000000000062
 20
1518.99999999996
 30
0.0
 11
2403.000000000062
 21
1301.999999999962
 31
0.0
  0
LINE
  5
57B
330
1F
100
AcDbEntity
  8
化粧台
  6
EXLTYPE2
 62
     6
100
AcDbLine
 10
2403.000000000062
 20
1518.99999999996
 30
0.0
 11
2403.000000000062
 21
1301.999999999962
 31
0.0
  0
LINE
  5
57C
330
1F
100
AcDbEntity
  8
化粧台
  6
EXLTYPE2
 62
     6
100
AcDbLine
 10
2419.200000000061
 20
1441.7
 30
0.0
 11
2422.750000000061
 21
1448.2
 31
0.0
  0
LINE
  5
57D
330
1F
100
AcDbEntity
  8
化粧台
  6
EXLTYPE2
 62
     6
100
AcDbLine
 10
2424.25000000006
 20
1463.2
 30
0.0
 11
2424.25000000006
 21
1449.7
 31
0.0
  0
ARC
  5
57E
330
1F
100
AcDbEntity
  8
化粧台
  6
EXLTYPE2
 62
     6
100
AcDbCircle
 10
2422.75000000006
 20
1449.7
 30
0.0
 40
1.5
100
AcDbArc
 50
270.0000000000002
 51
0.0
  0
LINE
  5
57F
330
1F
100
AcDbEntity
  8
化粧台
  6
EXLTYPE2
 62
     6
100
AcDbLine
 10
2386.800000000062
 20
1441.7
 30
0.0
 11
2383.250000000061
 21
1448.2
 31
0.0
  0
LINE
  5
580
330
1F
100
AcDbEntity
  8
化粧台
  6
EXLTYPE2
 62
     6
100
AcDbLine
 10
2381.750000000061
 20
1463.2
 30
0.0
 11
2381.750000000061
 21
1449.7
 31
0.0
  0
ARC
  5
581
330
1F
100
AcDbEntity
  8
化粧台
  6
EXLTYPE2
 62
     6
100
AcDbCircle
 10
2383.250000000061
 20
1449.7
 30
0.0
 40
1.5
100
AcDbArc
 50
180.0
 51
270.0000000000002
  0
LINE
  5
582
330
1F
100
AcDbEntity
  8
化粧台
  6
EXLTYPE2
 62
     6
100
AcDbLine
 10
2386.800000000062
 20
1441.7
 30
0.0
 11
2419.200000000061
 21
1441.7
 31
0.0
  0
LINE
  5
583
330
1F
100
AcDbEntity
  8
化粧台
  6
EXLTYPE2
 62
     6
100
AcDbLine
 10
2383.250000000061
 20
1448.2
 30
0.0
 11
2422.75000000006
 21
1448.2
 31
0.0
  0
LINE
  5
584
330
1F
100
AcDbEntity
  8
化粧台
  6
EXLTYPE2
 62
     6
100
AcDbLine
 10
2374.500000000061
 20
1481.2
 30
0.0
 11
2431.500000000061
 21
1481.2
 31
0.0
  0
LINE
  5
585
330
1F
100
AcDbEntity
  8
化粧台
  6
EXLTYPE2
 62
     6
100
AcDbLine
 10
2374.500000000061
 20
1483.7
 30
0.0
 11
2431.50000000006
 21
1483.7
 31
0.0
  0
LINE
  5
586
330
1F
100
AcDbEntity
  8
化粧台
  6
EXLTYPE2
 62
     6
100
AcDbLine
 10
2374.50000000006
 20
1483.7
 30
0.0
 11
2374.50000000006
 21
1477.7
 31
0.0
  0
LINE
  5
587
330
1F
100
AcDbEntity
  8
化粧台
  6
EXLTYPE2
 62
     6
100
AcDbLine
 10
2374.50000000006
 20
1477.7
 30
0.0
 11
2431.500000000061
 21
1477.7
 31
0.0
  0
LINE
  5
588
330
1F
100
AcDbEntity
  8
化粧台
  6
EXLTYPE2
 62
     6
100
AcDbLine
 10
2431.500000000061
 20
1483.7
 30
0.0
 11
2431.500000000061
 21
1477.7
 31
0.0
  0
LINE
  5
589
330
1F
100
AcDbEntity
  8
化粧台
  6
EXLTYPE2
 62
     6
100
AcDbLine
 10
2377.60000000006
 20
1477.7
 30
0.0
 11
2377.60000000006
 21
1465.2
 31
0.0
  0
ARC
  5
58A
330
1F
100
AcDbEntity
  8
化粧台
  6
EXLTYPE2
 62
     6
100
AcDbCircle
 10
2379.60000000006
 20
1465.2
 30
0.0
 40
2.0
100
AcDbArc
 50
180.0
 51
270.0000000000002
  0
LINE
  5
58B
330
1F
100
AcDbEntity
  8
化粧台
  6
EXLTYPE2
 62
     6
100
AcDbLine
 10
2428.40000000006
 20
1477.7
 30
0.0
 11
2428.40000000006
 21
1465.2
 31
0.0
  0
ARC
  5
58C
330
1F
100
AcDbEntity
  8
化粧台
  6
EXLTYPE2
 62
     6
100
AcDbCircle
 10
2426.40000000006
 20
1465.2
 30
0.0
 40
2.0
100
AcDbArc
 50
270.0000000000002
 51
0.0
  0
LINE
  5
58D
330
1F
100
AcDbEntity
  8
化粧台
  6
EXLTYPE2
 62
     6
100
AcDbLine
 10
2379.60000000006
 20
1463.2
 30
0.0
 11
2426.40000000006
 21
1463.2
 31
0.0
  0
ARC
  5
58E
330
1F
100
AcDbEntity
  8
化粧台
  6
EXLTYPE2
 62
     6
100
AcDbCircle
 10
2406.961516188061
 20
1282.547912245001
 30
0.0
 40
15.00000000000001
100
AcDbArc
 50
216.1437885097004
 51
310.3739745502023
  0
ARC
  5
58F
330
1F
100
AcDbEntity
  8
化粧台
  6
EXLTYPE2
 62
     6
100
AcDbCircle
 10
2427.15000000006
 20
1297.293254606
 30
0.0
 40
40.0
100
AcDbArc
 50
180.0
 51
216.1437885097004
  0
LINE
  5
590
330
1F
100
AcDbEntity
  8
化粧台
  6
EXLTYPE2
 62
     6
100
AcDbLine
 10
2387.15000000006
 20
1335.05
 30
0.0
 11
2418.850000000061
 21
1335.05
 31
0.0
  0
ARC
  5
591
330
1F
100
AcDbEntity
  8
化粧台
  6
EXLTYPE2
 62
     6
100
AcDbCircle
 10
2395.178125000061
 20
1250.200000000001
 30
0.0
 40
1.5
100
AcDbArc
 50
180.0
 51
270.0000000000002
  0
LINE
  5
592
330
1F
100
AcDbEntity
  8
化粧台
  6
EXLTYPE2
 62
     6
100
AcDbLine
 10
2393.67812500006
 20
1250.200000000001
 30
0.0
 11
2393.67812500006
 21
1265.200000000001
 31
0.0
  0
ARC
  5
593
330
1F
100
AcDbEntity
  8
化粧台
  6
EXLTYPE2
 62
     6
100
AcDbCircle
 10
2424.400000000061
 20
1388.7
 30
0.0
 40
2.0
100
AcDbArc
 50
0.0
 51
90.00000000000001
  0
ARC
  5
594
330
1F
100
AcDbEntity
  8
化粧台
  6
EXLTYPE2
 62
     6
100
AcDbCircle
 10
2381.600000000061
 20
1388.7
 30
0.0
 40
2.0
100
AcDbArc
 50
90.00000000000001
 51
180.0
  0
LINE
  5
595
330
1F
100
AcDbEntity
  8
化粧台
  6
EXLTYPE2
 62
     6
100
AcDbLine
 10
2426.400000000061
 20
1388.7
 30
0.0
 11
2426.400000000061
 21
1372.700000000001
 31
0.0
  0
LINE
  5
596
330
1F
100
AcDbEntity
  8
化粧台
  6
EXLTYPE2
 62
     6
100
AcDbLine
 10
2379.600000000061
 20
1388.7
 30
0.0
 11
2379.600000000061
 21
1372.700000000001
 31
0.0
  0
LINE
  5
597
330
1F
100
AcDbEntity
  8
化粧台
  6
EXLTYPE2
 62
     6
100
AcDbLine
 10
2381.600000000061
 20
1390.700000000001
 30
0.0
 11
2424.400000000061
 21
1390.700000000001
 31
0.0
  0
LINE
  5
598
330
1F
100
AcDbEntity
  8
化粧台
  6
EXLTYPE2
 62
     6
100
AcDbLine
 10
2379.600000000061
 20
1372.700000000001
 30
0.0
 11
2426.400000000061
 21
1372.700000000001
 31
0.0
  0
LINE
  5
599
330
1F
100
AcDbEntity
  8
化粧台
  6
EXLTYPE2
 62
     6
100
AcDbLine
 10
2384.500000000061
 20
1337.700000000001
 30
0.0
 11
2387.15000000006
 21
1335.05
 31
0.0
  0
LINE
  5
59A
330
1F
100
AcDbEntity
  8
化粧台
  6
EXLTYPE2
 62
     6
100
AcDbLine
 10
2421.50000000006
 20
1337.700000000001
 30
0.0
 11
2418.850000000061
 21
1335.05
 31
0.0
  0
LINE
  5
59B
330
1F
100
AcDbEntity
  8
化粧台
  6
EXLTYPE2
 62
     6
100
AcDbLine
 10
2399.178125000061
 20
1269.725321960001
 30
0.0
 11
2399.178125000061
 21
1265.200000000001
 31
0.0
  0
LINE
  5
59C
330
1F
100
AcDbEntity
  8
化粧台
  6
EXLTYPE2
 62
     6
100
AcDbLine
 10
2418.850000000061
 20
1335.05
 30
0.0
 11
2418.850000000061
 21
1294.700000000001
 31
0.0
  0
LINE
  5
59D
330
1F
100
AcDbEntity
  8
化粧台
  6
EXLTYPE2
 62
     6
100
AcDbLine
 10
2387.15000000006
 20
1335.05
 30
0.0
 11
2387.15000000006
 21
1297.293254606
 31
0.0
  0
LINE
  5
59E
330
1F
100
AcDbEntity
  8
化粧台
  6
EXLTYPE2
 62
     6
100
AcDbLine
 10
2421.50000000006
 20
1372.700000000001
 30
0.0
 11
2421.50000000006
 21
1337.700000000001
 31
0.0
  0
LINE
  5
59F
330
1F
100
AcDbEntity
  8
化粧台
  6
EXLTYPE2
 62
     6
100
AcDbLine
 10
2384.500000000061
 20
1372.700000000001
 30
0.0
 11
2384.500000000061
 21
1337.700000000001
 31
0.0
  0
LINE
  5
5A0
330
1F
100
AcDbEntity
  8
化粧台
  6
EXLTYPE2
 62
     6
100
AcDbLine
 10
2387.15000000006
 20
1441.7
 30
0.0
 11
2387.15000000006
 21
1390.700000000001
 31
0.0
  0
LINE
  5
5A1
330
1F
100
AcDbEntity
  8
化粧台
  6
EXLTYPE2
 62
     6
100
AcDbLine
 10
2418.850000000061
 20
1441.7
 30
0.0
 11
2418.850000000061
 21
1390.700000000001
 31
0.0
  0
LINE
  5
5A2
330
1F
100
AcDbEntity
  8
化粧台
  6
EXLTYPE2
 62
     6
100
AcDbLine
 10
2458.50000000006
 20
984.8465169715901
 30
0.0
 11
2458.50000000006
 21
1354.1
 31
0.0
  0
LINE
  5
5A3
330
1F
100
AcDbEntity
  8
化粧台
  6
EXLTYPE2
 62
     6
100
AcDbLine
 10
2395.178125000061
 20
1248.700000000001
 30
0.0
 11
2408.630601860897
 21
1248.700000000001
 31
0.0
  0
LINE
  5
5A4
330
1F
100
AcDbEntity
  8
化粧台
  6
EXLTYPE2
 62
     6
100
AcDbLine
 10
2393.67812500006
 20
1265.200000000001
 30
0.0
 11
2426.800000000061
 21
1265.200000000001
 31
0.0
  0
ARC
  5
5A5
330
1F
100
AcDbEntity
  8
化粧台
  6
EXLTYPE2
 62
     6
100
AcDbCircle
 10
2423.250000000062
 20
1220.99999999996
 30
0.0
 40
7.500000000000006
100
AcDbArc
 50
0.0
 51
90.00000000000001
  0
LINE
  5
5A6
330
1F
100
AcDbEntity
  8
化粧台
  6
EXLTYPE2
 62
     6
100
AcDbLine
 10
2419.500000000062
 20
1252.49999999996
 30
0.0
 11
2425.000000000062
 21
1252.49999999996
 31
0.0
  0
LINE
  5
5A7
330
1F
100
AcDbEntity
  8
化粧台
  6
EXLTYPE2
 62
     6
100
AcDbLine
 10
2419.500000000062
 20
1228.49999999996
 30
0.0
 11
2423.250000000062
 21
1228.49999999996
 31
0.0
  0
LINE
  5
5A8
330
1F
100
AcDbEntity
  8
化粧台
  6
EXLTYPE2
 62
     6
100
AcDbLine
 10
2406.600000000061
 20
1245.799999999961
 30
0.0
 11
2406.600000000061
 21
1235.199999999961
 31
0.0
  0
LINE
  5
5A9
330
1F
100
AcDbEntity
  8
化粧台
  6
EXLTYPE2
 62
     6
100
AcDbLine
 10
2419.500000000062
 20
1253.24999999996
 30
0.0
 11
2419.500000000062
 21
1227.74999999996
 31
0.0
  0
ARC
  5
5AA
330
1F
100
AcDbEntity
  8
化粧台
  6
EXLTYPE2
 62
     6
100
AcDbCircle
 10
2415.725082782421
 20
1249.24999999996
 30
0.0
 40
5.5
100
AcDbArc
 50
46.65824177280091
 51
142.8123740608005
  0
LINE
  5
5AB
330
1F
100
AcDbEntity
  8
化粧台
  6
EXLTYPE2
 62
     6
100
AcDbLine
 10
2406.600000000061
 20
1245.799999999961
 30
0.0
 11
2411.343450177782
 21
1252.574348916351
 31
0.0
  0
ARC
  5
5AC
330
1F
100
AcDbEntity
  8
化粧台
  6
EXLTYPE2
 62
     6
100
AcDbCircle
 10
2415.725082782421
 20
1231.74999999996
 30
0.0
 40
5.5
100
AcDbArc
 50
217.1876259391994
 51
313.3417582272003
  0
LINE
  5
5AD
330
1F
100
AcDbEntity
  8
化粧台
  6
EXLTYPE2
 62
     6
100
AcDbLine
 10
2406.600000000061
 20
1235.199999999961
 30
0.0
 11
2411.343450177782
 21
1228.425651083571
 31
0.0
  0
LINE
  5
5AE
330
1F
100
AcDbEntity
  8
化粧台
  6
EXLTYPE2
 62
     6
100
AcDbLine
 10
2411.343450177782
 20
1252.574348916351
 30
0.0
 11
2411.343450177782
 21
1228.425651083471
 31
0.0
  0
LINE
  5
5AF
330
1F
100
AcDbEntity
  8
化粧台
  6
EXLTYPE2
 62
     6
100
AcDbLine
 10
2401.000000000062
 20
1235.74999999996
 30
0.0
 11
2406.600000000061
 21
1235.74999999996
 31
0.0
  0
LINE
  5
5B0
330
1F
100
AcDbEntity
  8
化粧台
  6
EXLTYPE2
 62
     6
100
AcDbLine
 10
2401.000000000062
 20
1245.24999999996
 30
0.0
 11
2406.600000000061
 21
1245.24999999996
 31
0.0
  0
LINE
  5
5B1
330
1F
100
AcDbEntity
  8
化粧台
  6
EXLTYPE2
 62
     6
100
AcDbLine
 10
2401.000000000062
 20
1245.24999999996
 30
0.0
 11
2401.000000000062
 21
1235.74999999996
 31
0.0
  0
ARC
  5
5B2
330
1F
100
AcDbEntity
  8
化粧台
  6
EXLTYPE2
 62
     6
100
AcDbCircle
 10
2416.000000000062
 20
1240.49999999996
 30
0.0
 40
40.0
100
AcDbArc
 50
352.1483099782984
 51
14.36151156291629
  0
ARC
  5
5B3
330
1F
100
AcDbEntity
  8
化粧台
  6
EXLTYPE2
 62
     6
100
AcDbCircle
 10
2495.250000000062
 20
1229.571253502763
 30
0.0
 40
40.0
100
AcDbArc
 50
172.1483099782986
 51
180.0
  0
LINE
  5
5B4
330
1F
100
AcDbEntity
  8
化粧台
  6
EXLTYPE2
 62
     6
100
AcDbLine
 10
2455.250000000062
 20
1205.499999999958
 30
0.0
 11
2457.722431864401
 21
1206.927459202387
 31
0.0
  0
ARC
  5
5B5
330
1F
100
AcDbEntity
  8
化粧台
  6
EXLTYPE2
 62
     6
100
AcDbCircle
 10
2462.750000000062
 20
1220.365389352135
 30
0.0
 40
7.500000000000006
100
AcDbArc
 50
180.0
 51
227.9065017039047
  0
LINE
  5
5B6
330
1F
100
AcDbEntity
  8
化粧台
  6
EXLTYPE2
 62
     6
100
AcDbLine
 10
2455.250000000062
 20
1229.571253502763
 30
0.0
 11
2455.250000000062
 21
1220.365389352135
 31
0.0
  0
LINE
  5
5B7
330
1F
100
AcDbEntity
  8
化粧台
  6
EXLTYPE2
 62
     6
100
AcDbLine
 10
2457.722431864401
 20
1206.92745920239
 30
0.0
 11
2457.722431864401
 21
1214.799999999961
 31
0.0
  0
LINE
  5
5B8
330
1F
100
AcDbEntity
  8
化粧台
  6
EXLTYPE2
 62
     6
100
AcDbLine
 10
2430.750000000059
 20
1205.499999999958
 30
0.0
 11
2428.27756813572
 21
1206.927459202387
 31
0.0
  0
ARC
  5
5B9
330
1F
100
AcDbEntity
  8
化粧台
  6
EXLTYPE2
 62
     6
100
AcDbCircle
 10
2423.250000000062
 20
1220.365389352135
 30
0.0
 40
7.500000000000006
100
AcDbArc
 50
312.0934982960959
 51
0.0
  0
LINE
  5
5BA
330
1F
100
AcDbEntity
  8
化粧台
  6
EXLTYPE2
 62
     6
100
AcDbLine
 10
2428.27756813572
 20
1206.92745920239
 30
0.0
 11
2428.27756813572
 21
1214.799999999961
 31
0.0
  0
LINE
  5
5BB
330
1F
100
AcDbEntity
  8
化粧台
  6
EXLTYPE2
 62
     6
100
AcDbLine
 10
2455.25000000007
 20
1205.49999999996
 30
0.0
 11
2430.750000000051
 21
1205.49999999996
 31
0.0
  0
ARC
  5
5BC
330
1F
100
AcDbEntity
  8
化粧台
  6
EXLTYPE2
 62
     6
100
AcDbCircle
 10
2444.750000000062
 20
1269.199999999961
 30
0.0
 40
11.0
100
AcDbArc
 50
326.9442688491002
 51
33.05573115089991
  0
LINE
  5
5BD
330
1F
100
AcDbEntity
  8
化粧台
  6
EXLTYPE2
 62
     6
100
AcDbLine
 10
2453.969544457352
 20
1275.199999999961
 30
0.0
 11
2432.030455542771
 21
1275.199999999961
 31
0.0
  0
ARC
  5
5BE
330
1F
100
AcDbEntity
  8
化粧台
  6
EXLTYPE2
 62
     6
100
AcDbCircle
 10
2441.250000000062
 20
1269.199999999961
 30
0.0
 40
11.0
100
AcDbArc
 50
146.9442688491499
 51
213.0557311508992
  0
LINE
  5
5BF
330
1F
100
AcDbEntity
  8
化粧台
  6
EXLTYPE2
 62
     6
100
AcDbLine
 10
2437.53178353706
 20
1248.700000000001
 30
0.0
 11
2437.53178353706
 21
1265.200000000001
 31
0.0
  0
LINE
  5
5C0
330
1F
100
AcDbEntity
  8
化粧台
  6
EXLTYPE2
 62
     6
100
AcDbLine
 10
2430.750000000062
 20
1220.99999999996
 30
0.0
 11
2430.750000000062
 21
1220.365389352135
 31
0.0
  0
LINE
  5
5C1
330
1F
100
AcDbEntity
  8
化粧台
  6
EXLTYPE2
 62
     6
100
AcDbLine
 10
2449.000000000059
 20
1275.199999999959
 30
0.0
 11
2449.000000000059
 21
1492.522837084935
 31
0.0
  0
LINE
  5
5C2
330
1F
100
AcDbEntity
  8
化粧台
  6
EXLTYPE2
 62
     6
100
AcDbLine
 10
2437.000000000062
 20
1275.199999999959
 30
0.0
 11
2437.000000000062
 21
1487.5
 31
0.0
  0
LINE
  5
5C3
330
1F
100
AcDbEntity
  8
化粧台
  6
EXLTYPE2
 62
     6
100
AcDbLine
 10
2432.500000000062
 20
1205.49999999996
 30
0.0
 11
2432.500000000062
 21
923.99999999996
 31
0.0
  0
ARC
  5
5C4
330
1F
100
AcDbEntity
  8
化粧台
  6
EXLTYPE2
 62
     6
100
AcDbCircle
 10
2384.376550900561
 20
1294.7129706584
 30
0.0
 40
40.0
100
AcDbArc
 50
323.8562114902995
 51
0.0
  0
LINE
  5
5C5
330
1F
100
AcDbEntity
  8
化粧台
  6
EXLTYPE2
 62
     6
100
AcDbLine
 10
2424.376550900561
 20
1344.7
 30
0.0
 11
2424.376550900561
 21
1294.7129706584
 31
0.0
  0
LINE
  5
5C6
330
1F
100
AcDbEntity
  8
化粧台
  6
EXLTYPE2
 62
     6
100
AcDbLine
 10
2421.50000000006
 20
1342.700000000001
 30
0.0
 11
2424.37655090056
 21
1342.700000000001
 31
0.0
  0
LINE
  5
5C7
330
1F
100
AcDbEntity
  8
化粧台
  6
EXLTYPE2
 62
     6
100
AcDbLine
 10
2418.850000000061
 20
1324.700000000001
 30
0.0
 11
2424.37655090056
 21
1324.700000000001
 31
0.0
  0
LINE
  5
5C8
330
1F
100
AcDbEntity
  8
化粧台
  6
EXLTYPE2
 62
     6
100
AcDbLine
 10
2418.850000000061
 20
1299.700000000001
 30
0.0
 11
2424.37655090056
 21
1299.700000000001
 31
0.0
  0
ARC
  5
5C9
330
1F
100
AcDbEntity
  8
化粧台
  6
EXLTYPE2
 62
     6
100
AcDbCircle
 10
2425.58827545031
 20
1344.3
 30
0.0
 40
1.211724549749761
100
AcDbArc
 50
0.0
 51
180.0
  0
ARC
  5
5CA
330
1F
100
AcDbEntity
  8
化粧台
  6
EXLTYPE2
 62
     6
100
AcDbCircle
 10
2493.500000000062
 20
1260.343134832945
 30
0.0
 40
40.0
100
AcDbArc
 50
180.0
 51
194.3615115629164
  0
LINE
  5
5CB
330
1F
100
AcDbEntity
  8
化粧台
  6
EXLTYPE2
 62
     6
100
AcDbLine
 10
2453.969544457352
 20
1263.199999999961
 30
0.0
 11
2432.030455542771
 21
1263.199999999961
 31
0.0
  0
LINE
  5
5CC
330
1F
100
AcDbEntity
  8
化粧台
  6
EXLTYPE2
 62
     6
100
AcDbLine
 10
2432.500000000062
 20
1263.199999999961
 30
0.0
 11
2432.500000000062
 21
1259.99999999996
 31
0.0
  0
LINE
  5
5CD
330
1F
100
AcDbEntity
  8
化粧台
  6
EXLTYPE2
 62
     6
100
AcDbLine
 10
2453.500000000062
 20
1263.199999999961
 30
0.0
 11
2453.500000000062
 21
1260.343134832941
 31
0.0
  0
ARC
  5
5CE
330
1F
100
AcDbEntity
  8
化粧台
  6
EXLTYPE2
 62
     6
100
AcDbCircle
 10
2425.000000000022
 20
1260.0
 30
0.0
 40
7.500000000038202
100
AcDbArc
 50
270.0000000000002
 51
0.0
  0
LINE
  5
5CF
330
1F
100
AcDbEntity
  8
化粧台
  6
EXLTYPE2
 62
     6
100
AcDbLine
 10
2426.800000000061
 20
1344.528125000001
 30
0.0
 11
2426.800000000061
 21
1252.719203340263
 31
0.0
  0
LINE
  5
5D0
330
1F
100
AcDbEntity
  8
化粧台
  6
EXLTYPE2
 62
     6
100
AcDbLine
 10
2426.800000000061
 20
1227.606625462327
 30
0.0
 11
2426.800000000061
 21
984.8465169715901
 31
0.0
  0
LINE
  5
5D1
330
1F
100
AcDbEntity
  8
化粧台
  6
EXLTYPE2
 62
     6
100
AcDbLine
 10
2396.000005722063
 20
1240.49999999996
 30
0.0
 11
2460.72500479636
 21
1240.49999999996
 31
0.0
  0
ARC
  5
5D2
330
1F
100
AcDbEntity
  8
化粧台
  6
EXLTYPE2
 62
     6
100
AcDbCircle
 10
2433.885005551561
 20
1354.450345822979
 30
0.0
 40
24.61499444850051
100
AcDbArc
 50
0.0
 51
52.11661267612578
  0
ARC
  5
5D3
330
1F
100
AcDbEntity
  8
化粧台
  6
EXLTYPE2
 62
     6
100
AcDbCircle
 10
2433.885005551561
 20
1354.450345822979
 30
0.0
 40
24.61499444850051
100
AcDbArc
 50
82.72980252722901
 51
107.7030137526023
  0
LINE
  5
5D4
330
1F
100
AcDbEntity
  8
化粧台
  6
EXLTYPE2
 62
     6
100
AcDbLine
 10
2374.500000000061
 20
1483.7
 30
0.0
 11
2379.725000000014
 21
1486.99999999997
 31
0.0
  0
LINE
  5
5D5
330
1F
100
AcDbEntity
  8
化粧台
  6
EXLTYPE2
 62
     6
100
AcDbLine
 10
2426.275000000108
 20
1486.99999999997
 30
0.0
 11
2431.500000000061
 21
1483.7
 31
0.0
  0
LINE
  5
5D6
330
1F
100
AcDbEntity
  8
化粧台
  6
EXLTYPE2
 62
     6
100
AcDbLine
 10
2494.800000000093
 20
998.4999999999591
 30
0.0
 11
2494.800000000093
 21
958.4999999999563
 31
0.0
  0
LINE
  5
5D7
330
1F
100
AcDbEntity
  8
化粧台
  6
EXLTYPE2
 62
     6
100
AcDbLine
 10
2494.800000000093
 20
958.4999999999563
 30
0.0
 11
2509.800000000141
 21
958.4999999999563
 31
0.0
  0
LINE
  5
5D8
330
1F
100
AcDbEntity
  8
化粧台
  6
EXLTYPE2
 62
     6
100
AcDbLine
 10
2509.800000000141
 20
1001.00000000005
 30
0.0
 11
2509.800000000141
 21
958.4999999999563
 31
0.0
  0
LINE
  5
5D9
330
1F
100
AcDbEntity
  8
化粧台
  6
EXLTYPE2
 62
     6
100
AcDbLine
 10
2426.80000000006
 20
1001.000000000047
 30
0.0
 11
2351.000000000201
 21
1001.000000000047
 31
0.0
  0
LINE
  5
5DA
330
1F
100
AcDbEntity
  8
化粧台
  6
EXLTYPE2
 62
     6
100
AcDbLine
 10
2426.80000000006
 20
998.5000000000273
 30
0.0
 11
2351.000000000201
 21
998.5000000000273
 31
0.0
  0
LINE
  5
5DB
330
1F
100
AcDbEntity
  8
化粧台
  6
EXLTYPE2
 62
     6
100
AcDbLine
 10
2509.800000000141
 20
1001.000000000047
 30
0.0
 11
2458.50000000006
 21
1001.000000000047
 31
0.0
  0
LINE
  5
5DC
330
1F
100
AcDbEntity
  8
化粧台
  6
EXLTYPE2
 62
     6
100
AcDbLine
 10
2509.800000000121
 20
998.5000000000268
 30
0.0
 11
2458.50000000006
 21
998.5000000000273
 31
0.0
  0
LINE
  5
5DD
330
1F
100
AcDbEntity
  8
化粧台
  6
EXLTYPE2
 62
     6
100
AcDbLine
 10
2365.614423314603
 20
1486.99999999997
 30
0.0
 11
2403.000000000114
 21
1486.99999999997
 31
0.0
  0
LINE
  5
5DE
330
1F
100
AcDbEntity
  8
化粧台
  6
EXLTYPE2
 62
     6
100
AcDbLine
 10
2403.000000000101
 20
1486.99999999997
 30
0.0
 11
2440.385576685626
 21
1486.99999999997
 31
0.0
  0
LINE
  5
5DF
330
1F
100
AcDbEntity
  8
化粧台
  6
EXLTYPE2
 62
     6
100
AcDbLine
 10
2356.621924411518
 20
1524.3933644245
 30
0.0
 11
2435.863934228298
 21
1524.3933644245
 31
0.0
  0
LINE
  5
5E0
330
1F
100
AcDbEntity
  8
化粧台
  6
EXLTYPE2
 62
     6
100
AcDbLine
 10
2525.933934172086
 20
1501.92367166559
 30
0.0
 11
2435.946250350602
 21
1524.718328180045
 31
0.0
  0
ARC
  5
5E1
330
1F
100
AcDbEntity
  8
化粧台
  6
EXLTYPE2
 62
     6
100
AcDbCircle
 10
2446.728208929504
 20
1547.47589855863
 30
0.0
 40
55.00000000000004
100
AcDbArc
 50
274.9999999999988
 51
319.0903700927721
  0
LINE
  5
5E2
330
1F
100
AcDbEntity
  8
化粧台
  6
CONTINUOUS
 62
     2
100
AcDbLine
 10
2528.0000000001
 20
1506.99999999997
 30
0.0
 11
2528.0000000001
 21
900.5
 31
0.0
  0
LINE
  5
5E3
330
1F
100
AcDbEntity
  8
化粧台
  6
EXLTYPE2
 62
     6
100
AcDbLine
 10
2366.0000000002
 20
986.5000000000323
 30
0.0
 11
2271.000000000201
 21
986.5000000000318
 31
0.0
  0
LINE
  5
5E4
330
1F
100
AcDbEntity
  8
化粧台
  6
EXLTYPE2
 62
     6
100
AcDbLine
 10
2271.000000000201
 20
1001.500000000032
 30
0.0
 11
2271.000000000201
 21
986.5000000000318
 31
0.0
  0
LINE
  5
5E5
330
1F
100
AcDbEntity
  8
化粧台
  6
EXLTYPE2
 62
     6
100
AcDbLine
 10
2351.000000000201
 20
1001.500000000032
 30
0.0
 11
2271.000000000201
 21
1001.500000000032
 31
0.0
  0
LINE
  5
5E6
330
1F
100
AcDbEntity
  8
化粧台
  6
EXLTYPE2
 62
     6
100
AcDbLine
 10
2271.000000000127
 20
987.5
 30
0.0
 11
2271.000000000127
 21
900.5
 31
0.0
  0
LINE
  5
5E7
330
1F
100
AcDbEntity
  8
化粧台
  6
EXLTYPE2
 62
     6
100
AcDbLine
 10
2286.000000000127
 20
986.5000000000318
 30
0.0
 11
2286.000000000127
 21
900.5
 31
0.0
  0
LINE
  5
5E8
330
1F
100
AcDbEntity
  8
化粧台
  6
EXLTYPE2
 62
     6
100
AcDbLine
 10
2366.0000000002
 20
998.5000000000332
 30
0.0
 11
2351.000000000201
 21
998.5000000000332
 31
0.0
  0
LINE
  5
5E9
330
1F
100
AcDbEntity
  8
化粧台
  6
EXLTYPE2
 62
     6
100
AcDbLine
 10
2351.000000000201
 20
1001.500000000032
 30
0.0
 11
2351.000000000201
 21
998.5000000000332
 31
0.0
  0
LINE
  5
5EA
330
1F
100
AcDbEntity
  8
化粧台
  6
EXLTYPE2
 62
     6
100
AcDbLine
 10
2366.0000000002
 20
998.5000000000332
 30
0.0
 11
2366.0000000002
 21
986.5000000000323
 31
0.0
  0
LINE
  5
5EB
330
1F
100
AcDbEntity
  8
化粧台
  6
EXLTYPE2
 62
     6
100
AcDbLine
 10
2351.000000000201
 20
1001.000000000047
 30
0.0
 11
2351.000000000201
 21
998.5000000000473
 31
0.0
  0
LINE
  5
5EC
330
1F
100
AcDbEntity
  8
化粧台
  6
CONTINUOUS
 62
     2
100
AcDbLine
 10
2494.000000000111
 20
900.5
 30
0.0
 11
2494.000000000111
 21
897.0
 31
0.0
  0
LINE
  5
5ED
330
1F
100
AcDbEntity
  8
化粧台
  6
CONTINUOUS
 62
     2
100
AcDbLine
 10
2482.0000000001
 20
900.5
 30
0.0
 11
2482.0000000001
 21
897.0
 31
0.0
  0
LINE
  5
5EE
330
1F
100
AcDbEntity
  8
化粧台
  6
CONTINUOUS
 62
     2
100
AcDbLine
 10
2482.0000000001
 20
897.0
 30
0.0
 11
2494.0000000001
 21
897.0
 31
0.0
  0
LINE
  5
5EF
330
1F
100
AcDbEntity
  8
化粧台
  6
CONTINUOUS
 62
     2
100
AcDbLine
 10
2242.875230942404
 20
1624.130311672887
 30
0.0
 11
2238.207948429598
 21
1516.782813878659
 31
0.0
  0
LINE
  5
5F0
330
1F
100
AcDbEntity
  8
化粧台
  6
CONTINUOUS
 62
     2
100
AcDbLine
 10
2245.87239941746
 20
1627.000000000058
 30
0.0
 11
2528.0000000001
 21
1627.000000000058
 31
0.0
  0
ARC
  5
5F1
330
1F
100
AcDbEntity
  8
化粧台
  6
CONTINUOUS
 62
     2
100
AcDbCircle
 10
2245.87239941746
 20
1624.000000000058
 30
0.0
 40
3.000000000000002
100
AcDbArc
 50
90.00000000000001
 51
177.5104470780026
  0
ARC
  5
5F2
330
1F
100
AcDbEntity
  8
化粧台
  6
CONTINUOUS
 62
     2
100
AcDbCircle
 10
2239.692817974039
 20
1620.000000000058
 30
0.0
 40
3.000000000000002
100
AcDbArc
 50
270.0000000000002
 51
357.5104470780028
  0
LINE
  5
5F3
330
1F
100
AcDbEntity
  8
化粧台
  6
CONTINUOUS
 62
     2
100
AcDbLine
 10
2235.535462764283
 20
1617.000000000058
 30
0.0
 11
2239.692817974039
 21
1617.000000000058
 31
0.0
  0
ARC
  5
5F4
330
1F
100
AcDbEntity
  8
化粧台
  6
CONTINUOUS
 62
     2
100
AcDbCircle
 10
2235.535462764283
 20
1620.000000000058
 30
0.0
 40
3.000000000000002
100
AcDbArc
 50
189.5940682268655
 51
270.0000000000002
  0
ARC
  5
5F5
330
1F
100
AcDbEntity
  8
化粧台
  6
CONTINUOUS
 62
     2
100
AcDbCircle
 10
2233.000000000099
 20
1647.000000000058
 30
0.0
 40
5.0
100
AcDbArc
 50
180.0000000000002
 51
189.5940682268592
  0
LINE
  5
5F6
330
1F
100
AcDbEntity
  8
化粧台
  6
CONTINUOUS
 62
     2
100
AcDbLine
 10
2228.06993351418
 20
1646.166666666726
 30
0.0
 11
2232.577422872734
 21
1619.500000000058
 31
0.0
  0
ARC
  5
5F7
330
1F
100
AcDbEntity
  8
化粧台
  6
CONTINUOUS
 62
     2
100
AcDbCircle
 10
2163.000000000099
 20
1642.000000000058
 30
0.0
 40
5.0
100
AcDbArc
 50
90.00000000000001
 51
183.5724826096913
  0
ARC
  5
5F8
330
1F
100
AcDbEntity
  8
化粧台
  6
CONTINUOUS
 62
     2
100
AcDbCircle
 10
2163.000000000099
 20
2134.500000000058
 30
0.0
 40
487.4999999999997
100
AcDbArc
 50
270.0000000000002
 51
277.6622556607654
  0
ARC
  5
5F9
330
1F
100
AcDbEntity
  8
化粧台
  6
CONTINUOUS
 62
     2
100
AcDbCircle
 10
2233.000000000099
 20
1652.000000000058
 30
0.0
 40
5.0
100
AcDbArc
 50
90.00000000000001
 51
180.0000000000002
  0
ARC
  5
5FA
330
1F
100
AcDbEntity
  8
化粧台
  6
CONTINUOUS
 62
     2
100
AcDbCircle
 10
2244.355281156228
 20
1543.062822258888
 30
0.0
 40
5.0
100
AcDbArc
 50
62.78007261292363
 51
177.5104470779939
  0
ARC
  5
5FB
330
1F
100
AcDbEntity
  8
化粧台
  6
CONTINUOUS
 62
     2
100
AcDbCircle
 10
2327.679366995557
 20
1652.281346505984
 30
0.0
 40
170.0
100
AcDbArc
 50
183.5724826096917
 51
235.0734784673748
  0
ARC
  5
5FC
330
1F
100
AcDbEntity
  8
化粧台
  6
CONTINUOUS
 62
     2
100
AcDbCircle
 10
2233.212667637827
 20
1517.000000000058
 30
0.0
 40
5.0
100
AcDbArc
 50
235.0734784673726
 51
357.5104470780592
  0
ARC
  5
5FD
330
1F
100
AcDbEntity
  8
化粧台
  6
CONTINUOUS
 62
     2
100
AcDbCircle
 10
2501.707881475491
 20
1677.000000000058
 30
0.0
 40
5.0
100
AcDbArc
 50
90.00000000000001
 51
163.1195105726872
  0
LINE
  5
5FE
330
1F
100
AcDbEntity
  8
化粧台
  6
CONTINUOUS
 62
     2
100
AcDbLine
 10
2528.0000000001
 20
1682.000000000058
 30
0.0
 11
2501.707881475491
 21
1682.000000000058
 31
0.0
  0
LINE
  5
5FF
330
1F
100
AcDbEntity
  8
化粧台
  6
CONTINUOUS
 62
     2
100
AcDbLine
 10
2496.923318877605
 20
1678.451881795147
 30
0.0
 11
2491.490398336114
 21
1660.548118204972
 31
0.0
  0
ARC
  5
600
330
1F
100
AcDbEntity
  8
化粧台
  6
CONTINUOUS
 62
     2
100
AcDbCircle
 10
2486.705835738226
 20
1662.000000000058
 30
0.0
 40
5.0
100
AcDbArc
 50
270.0000000000002
 51
343.1195105726896
  0
LINE
  5
601
330
1F
100
AcDbEntity
  8
化粧台
  6
CONTINUOUS
 62
     2
100
AcDbLine
 10
2486.705835738226
 20
1657.000000000058
 30
0.0
 11
2233.000000000099
 21
1657.000000000058
 31
0.0
  0
LINE
  5
602
330
1F
100
AcDbEntity
  8
化粧台
  6
CONTINUOUS
 62
     2
100
AcDbLine
 10
2228.000000000099
 20
1647.000000000058
 30
0.0
 11
2228.000000000099
 21
1652.000000000058
 31
0.0
  0
LINE
  5
603
330
1F
100
AcDbEntity
  8
化粧台
  6
CONTINUOUS
 62
     2
100
AcDbLine
 10
2528.0000000001
 20
1682.000000000058
 30
0.0
 11
2528.0000000001
 21
1627.000000000058
 31
0.0
  0
LINE
  5
604
330
1F
100
AcDbEntity
  8
化粧台
  6
CONTINUOUS
 62
     2
100
AcDbLine
 10
2248.000000000095
 20
1624.00000000004
 30
0.0
 11
2268.500000000095
 21
1624.00000000004
 31
0.0
  0
LINE
  5
605
330
1F
100
AcDbEntity
  8
化粧台
  6
CONTINUOUS
 62
     2
100
AcDbLine
 10
2268.500000000095
 20
1627.00000000004
 30
0.0
 11
2528.000000000096
 21
1627.00000000004
 31
0.0
  0
ARC
  5
606
330
1F
100
AcDbEntity
  8
化粧台
  6
CONTINUOUS
 62
     2
100
AcDbCircle
 10
2501.707881475509
 20
1677.00000000006
 30
0.0
 40
5.0
100
AcDbArc
 50
90.00000000000001
 51
163.1195105726872
  0
LINE
  5
607
330
1F
100
AcDbEntity
  8
化粧台
  6
CONTINUOUS
 62
     2
100
AcDbLine
 10
2528.000000000118
 20
1682.00000000006
 30
0.0
 11
2501.707881475509
 21
1682.00000000006
 31
0.0
  0
LINE
  5
608
330
1F
100
AcDbEntity
  8
化粧台
  6
CONTINUOUS
 62
     6
100
AcDbLine
 10
2403.00000000012
 20
1764.057813855932
 30
0.0
 11
2453.000000000121
 21
1764.057813855919
 31
0.0
  0
ARC
  5
609
330
1F
100
AcDbEntity
  8
化粧台
  6
CONTINUOUS
 62
     6
100
AcDbCircle
 10
2451.000000000121
 20
1758.52173913046
 30
0.0
 40
2.0
100
AcDbArc
 50
0.0
 51
91.59964278381122
  0
ARC
  5
60A
330
1F
100
AcDbEntity
  8
化粧台
  6
CONTINUOUS
 62
     6
100
AcDbCircle
 10
2405.000000000121
 20
1758.52173913046
 30
0.0
 40
2.0
100
AcDbArc
 50
90.00000000000001
 51
180.0
  0
LINE
  5
60B
330
1F
100
AcDbEntity
  8
化粧台
  6
CONTINUOUS
 62
     6
100
AcDbLine
 10
2405.084007032257
 20
1760.52173913046
 30
0.0
 11
2405.000000000121
 21
1760.52173913046
 31
0.0
  0
ARC
  5
60C
330
1F
100
AcDbEntity
  8
化粧台
  6
CONTINUOUS
 62
     6
100
AcDbCircle
 10
2428.020088785124
 20
1756.404498289357
 30
0.0
 40
22.5
100
AcDbArc
 50
160.1141478017074
 51
169.4561605025638
  0
ARC
  5
60D
330
1F
100
AcDbEntity
  8
化粧台
  6
CONTINUOUS
 62
     6
100
AcDbCircle
 10
2427.979911215119
 20
1756.404498289357
 30
0.0
 40
22.5
100
AcDbArc
 50
10.54189726956417
 51
19.88585219825839
  0
LINE
  5
60E
330
1F
100
AcDbEntity
  8
化粧台
  6
CONTINUOUS
 62
     6
100
AcDbLine
 10
2453.00000000012
 20
1801.367490143846
 30
0.0
 11
2453.00000000012
 21
1764.057813855927
 31
0.0
  0
LINE
  5
60F
330
1F
100
AcDbEntity
  8
化粧台
  6
CONTINUOUS
 62
     6
100
AcDbLine
 10
2403.00000000012
 20
1801.367490143846
 30
0.0
 11
2403.00000000012
 21
1764.057813855929
 31
0.0
  0
LINE
  5
610
330
1F
100
AcDbEntity
  8
化粧台
  6
CONTINUOUS
 62
     6
100
AcDbLine
 10
2405.000000000121
 20
1760.52173913046
 30
0.0
 11
2450.94416918701
 21
1760.520959708661
 31
0.0
  0
LINE
  5
611
330
1F
100
AcDbEntity
  8
化粧台
  6
CONTINUOUS
 62
     6
100
AcDbLine
 10
2403.000000000121
 20
1754.52173913046
 30
0.0
 11
2453.00000000012
 21
1754.52173913046
 31
0.0
  0
ARC
  5
612
330
1F
100
AcDbEntity
  8
化粧台
  6
CONTINUOUS
 62
     6
100
AcDbCircle
 10
2428.000000000121
 20
1624.037740023554
 30
0.0
 40
179.0833333331875
100
AcDbArc
 50
81.97531013013935
 51
98.02468986986145
  0
LINE
  5
613
330
1F
100
AcDbEntity
  8
化粧台
  6
CONTINUOUS
 62
     6
100
AcDbLine
 10
2420.500000000121
 20
1802.963954642109
 30
0.0
 11
2420.500000000121
 21
1806.15145459353
 31
0.0
  0
LINE
  5
614
330
1F
100
AcDbEntity
  8
化粧台
  6
CONTINUOUS
 62
     6
100
AcDbLine
 10
2435.500000000121
 20
1802.963954642109
 30
0.0
 11
2435.500000000121
 21
1806.15145459353
 31
0.0
  0
ELLIPSE
  5
615
330
1F
100
AcDbEntity
  8
化粧台
  6
CONTINUOUS
 62
     6
100
AcDbEllipse
 10
2428.000000000121
 20
1806.15145459353
 30
0.0
 11
-7.500000000000006
 21
9.184850993605156E-16
 31
0.0
210
0.0
220
0.0
230
1.0
 40
0.9636802955882259
 41
3.141592653589793
 42
6.283185307179586
  0
LINE
  5
616
330
1F
100
AcDbEntity
  8
化粧台
  6
CONTINUOUS
 62
     6
100
AcDbLine
 10
2403.00000000012
 20
1758.52173913046
 30
0.0
 11
2403.00000000012
 21
1656.999999999958
 31
0.0
  0
LINE
  5
617
330
1F
100
AcDbEntity
  8
化粧台
  6
CONTINUOUS
 62
     6
100
AcDbLine
 10
2453.00000000012
 20
1758.52173913046
 30
0.0
 11
2453.00000000012
 21
1656.999999999958
 31
0.0
  0
LINE
  5
618
330
1F
100
AcDbEntity
  8
化粧台
  6
CONTINUOUS
 62
     2
100
AcDbLine
 10
2247.5000000001
 20
1485.5
 30
0.0
 11
2247.5000000001
 21
1624.0
 31
0.0
  0
LINE
  5
619
330
1F
100
AcDbEntity
  8
化粧台
  6
CONTINUOUS
 62
     2
100
AcDbLine
 10
2268.0000000001
 20
900.5
 30
0.0
 11
2268.0000000001
 21
1624.0
 31
0.0
  0
ARC
  5
61A
330
1F
100
AcDbEntity
  8
化粧台
  6
EXLTYPE2
 62
     6
100
AcDbCircle
 10
2335.836728576407
 20
1720.914290562865
 30
0.0
 40
195.0000000000001
100
AcDbArc
 50
249.6422585559242
 51
265.0000000000005
  0
LINE
  5
61B
330
1F
100
AcDbEntity
  8
化粧台
  6
EXLTYPE3
 62
     6
100
AcDbLine
 10
2558.400000000001
 20
1217.099999999998
 30
0.0
 11
2479.400000000197
 21
1217.099999999998
 31
0.0
  0
LINE
  5
61C
330
1F
100
AcDbEntity
  8
化粧台
  6
EXLTYPE2
 62
     6
100
AcDbLine
 10
2427.15000000006
 20
923.99999999996
 30
0.0
 11
2427.15000000006
 21
900.5000000000002
 31
0.0
  0
LINE
  5
61D
330
1F
100
AcDbEntity
  8
化粧台
  6
EXLTYPE2
 62
     6
100
AcDbLine
 10
2432.500000000062
 20
923.99999999996
 30
0.0
 11
2432.500000000062
 21
900.5000000000002
 31
0.0
  0
LINE
  5
61E
330
1F
100
AcDbEntity
  8
化粧台
  6
EXLTYPE2
 62
     6
100
AcDbLine
 10
2453.500000000062
 20
1205.49999999996
 30
0.0
 11
2453.500000000062
 21
900.5000000000002
 31
0.0
  0
LINE
  5
61F
330
1F
100
AcDbEntity
  8
化粧台
  6
EXLTYPE2
 62
     6
100
AcDbLine
 10
2458.850000000064
 20
900.4999999999936
 30
0.0
 11
2458.850000000064
 21
923.99999999996
 31
0.0
  0
LINE
  5
620
330
1F
100
AcDbEntity
  8
化粧台
  6
CONTINUOUS
 62
     6
100
AcDbLine
 10
2427.150000000062
 20
863.0
 30
0.0
 11
2458.850000000063
 21
863.0
 31
0.0
  0
LINE
  5
621
330
1F
100
AcDbEntity
  8
化粧台
  6
CONTINUOUS
 62
     6
100
AcDbLine
 10
2427.15000000006
 20
897.0
 30
0.0
 11
2427.15000000006
 21
863.0
 31
0.0
  0
LINE
  5
622
330
1F
100
AcDbEntity
  8
化粧台
  6
CONTINUOUS
 62
     6
100
AcDbLine
 10
2458.850000000063
 20
863.0
 30
0.0
 11
2458.850000000064
 21
897.0000000000023
 31
0.0
  0
LINE
  5
623
330
1F
100
AcDbEntity
  8
化粧台
  6
CONTINUOUS
 62
     6
100
AcDbLine
 10
2432.500000000062
 20
897.0
 30
0.0
 11
2432.500000000062
 21
885.0
 31
0.0
  0
LINE
  5
624
330
1F
100
AcDbEntity
  8
化粧台
  6
CONTINUOUS
 62
     6
100
AcDbLine
 10
2453.500000000062
 20
897.0
 30
0.0
 11
2453.500000000062
 21
885.0
 31
0.0
  0
LINE
  5
625
330
1F
100
AcDbEntity
  8
化粧台
  6
CONTINUOUS
 62
     6
100
AcDbLine
 10
2432.5000000001
 20
885.0
 30
0.0
 11
2453.5000000001
 21
885.0
 31
0.0
  0
LINE
  5
626
330
1F
100
AcDbEntity
  8
化粧台
  6
EXLTYPE2
 62
     6
100
AcDbLine
 10
2443.0000000001
 20
994.8465169715873
 30
0.0
 11
2443.0000000001
 21
855.75
 31
0.0
  0
LINE
  5
627
330
1F
100
AcDbEntity
  8
化粧台
  6
CONTINUOUS
 62
     6
100
AcDbLine
 10
2513.000000000099
 20
1731.9999833108
 30
0.0
 11
2575.500000000099
 21
1731.9999833108
 31
0.0
  0
LINE
  5
628
330
1F
100
AcDbEntity
  8
化粧台
  6
CONTINUOUS
 62
     6
100
AcDbLine
 10
2528.000000000099
 20
1733.9999833108
 30
0.0
 11
2560.500000000099
 21
1731.9999833108
 31
0.0
  0
LINE
  5
629
330
1F
100
AcDbEntity
  8
化粧台
  6
CONTINUOUS
 62
     6
100
AcDbLine
 10
2560.500000000099
 20
1731.9999833108
 30
0.0
 11
2528.000000000099
 21
1729.999983310799
 31
0.0
  0
LINE
  5
62A
330
1F
100
AcDbEntity
  8
化粧台
  6
CONTINUOUS
 62
     6
100
AcDbLine
 10
2513.000000000099
 20
2031.999983310799
 30
0.0
 11
2575.500000000099
 21
2031.999983310799
 31
0.0
  0
LINE
  5
62B
330
1F
100
AcDbEntity
  8
化粧台
  6
CONTINUOUS
 62
     6
100
AcDbLine
 10
2528.000000000099
 20
2033.999983310799
 30
0.0
 11
2560.500000000099
 21
2031.999983310799
 31
0.0
  0
LINE
  5
62C
330
1F
100
AcDbEntity
  8
化粧台
  6
CONTINUOUS
 62
     6
100
AcDbLine
 10
2560.500000000099
 20
2031.999983310799
 30
0.0
 11
2528.000000000099
 21
2029.999983310798
 31
0.0
  0
LINE
  5
62D
330
1F
100
AcDbEntity
  8
化粧台
  6
CONTINUOUS
 62
     6
100
AcDbLine
 10
2513.000000000099
 20
2631.9999833108
 30
0.0
 11
2575.500000000099
 21
2631.9999833108
 31
0.0
  0
LINE
  5
62E
330
1F
100
AcDbEntity
  8
化粧台
  6
CONTINUOUS
 62
     6
100
AcDbLine
 10
2528.000000000099
 20
2633.9999833108
 30
0.0
 11
2560.500000000099
 21
2631.9999833108
 31
0.0
  0
LINE
  5
62F
330
1F
100
AcDbEntity
  8
化粧台
  6
CONTINUOUS
 62
     6
100
AcDbLine
 10
2560.500000000099
 20
2631.9999833108
 30
0.0
 11
2528.000000000099
 21
2629.999983310799
 31
0.0
  0
DIMENSION
  5
630
330
1F
100
AcDbEntity
  8
化粧台
  6
CONTINUOUS
 62
     3
100
AcDbDimension
  2
*D36
 10
2970.0
 20
1731.9999833108
 30
0.0
 11
2934.750000089407
 21
1314.4999916554
 31
0.0
 70
   160
  1
835（壁固定）
  3
ISO-25
100
AcDbAlignedDimension
 13
2875.5
 23
897.0
 33
0.0
 14
2560.5000000001
 24
1731.9999833108
 34
0.0
 50
90.0
100
AcDbRotatedDimension
1001
ACAD
1000
DSTYLE
1002
{
1070
   270
1070
     2
1070
     6
1000
EX_NORM
1070
     7
1000
EX_NORM
1070
    41
1040
44.99999618530273
1070
    42
1040
10.49999982118607
1070
    44
1040
15.0
1070
    73
1070
     0
1070
    74
1070
     0
1070
    75
1070
     0
1070
    76
1070
     0
1070
    77
1070
     1
1070
    78
1070
     8
1070
   140
1040
59.99999618530273
1070
   147
1040
0.0
1070
   173
1070
     1
1070
   176
1070
     3
1070
   177
1070
     3
1070
   178
1070
     2
1070
   271
1070
     1
1070
   277
1070
     2
1070
   279
1070
     2
1070
   280
1070
     0
1070
   287
1070
     5
1070
   340
1005
11B
1002
}
  0
DIMENSION
  5
63D
330
1F
100
AcDbEntity
  8
化粧台
  6
CONTINUOUS
 62
     3
100
AcDbDimension
  2
*D37
 10
2968.5
 20
2031.9999833108
 30
0.0
 11
2933.250000089407
 21
1881.9999833108
 31
0.0
 70
   160
  3
ISO-25
100
AcDbAlignedDimension
 13
2560.5000000001
 23
1731.9999833108
 33
0.0
 14
2560.5000000001
 24
2031.9999833108
 34
0.0
 50
90.0
100
AcDbRotatedDimension
1001
ACAD
1000
DSTYLE
1002
{
1070
   270
1070
     2
1070
     6
1000
EX_NORM
1070
     7
1000
EX_NORM
1070
    41
1040
44.99999618530273
1070
    42
1040
10.49999982118607
1070
    44
1040
15.0
1070
    73
1070
     0
1070
    74
1070
     0
1070
    75
1070
     0
1070
    76
1070
     0
1070
    77
1070
     1
1070
    78
1070
     8
1070
   140
1040
59.99999618530273
1070
   147
1040
0.0
1070
   173
1070
     1
1070
   176
1070
     3
1070
   177
1070
     3
1070
   178
1070
     2
1070
   271
1070
     1
1070
   277
1070
     2
1070
   279
1070
     2
1070
   280
1070
     0
1070
   287
1070
     5
1070
   340
1005
11B
1002
}
  0
DIMENSION
  5
64A
330
1F
100
AcDbEntity
  8
化粧台
  6
CONTINUOUS
 62
     3
100
AcDbDimension
  2
*D38
 10
2968.5
 20
2631.9999833108
 30
0.0
 11
2933.250000089407
 21
2331.9999833108
 31
0.0
 70
   160
  3
ISO-25
100
AcDbAlignedDimension
 13
2560.5000000001
 23
2031.9999833108
 33
0.0
 14
2560.5000000001
 24
2631.9999833108
 34
0.0
 50
90.0
100
AcDbRotatedDimension
1001
ACAD
1000
DSTYLE
1002
{
1070
   270
1070
     2
1070
     6
1000
EX_NORM
1070
     7
1000
EX_NORM
1070
    41
1040
44.99999618530273
1070
    42
1040
10.49999982118607
1070
    44
1040
15.0
1070
    73
1070
     0
1070
    74
1070
     0
1070
    75
1070
     0
1070
    76
1070
     0
1070
    77
1070
     1
1070
    78
1070
     8
1070
   140
1040
59.99999618530273
1070
   147
1040
0.0
1070
   173
1070
     1
1070
   176
1070
     3
1070
   177
1070
     3
1070
   178
1070
     2
1070
   271
1070
     1
1070
   277
1070
     2
1070
   279
1070
     2
1070
   280
1070
     0
1070
   287
1070
     5
1070
   340
1005
11B
1002
}
  0
DIMENSION
  5
657
330
1F
100
AcDbEntity
  8
化粧台
  6
CONTINUOUS
 62
     3
100
AcDbDimension
  2
*D39
 10
2298.000000000135
 20
2889.45
 30
0.0
 11
2413.000000000117
 21
2924.699999910593
 31
0.0
 70
   160
  3
ISO-25
100
AcDbAlignedDimension
 13
2528.0000000001
 23
2812.0000000001
 33
0.0
 14
2298.000000000135
 24
2794.000002384297
 34
0.0
100
AcDbRotatedDimension
1001
ACAD
1000
DSTYLE
1002
{
1070
   270
1070
     2
1070
     6
1000
EX_NORM
1070
     7
1000
EX_NORM
1070
    41
1040
44.99999618530273
1070
    42
1040
10.49999982118607
1070
    44
1040
15.0
1070
    73
1070
     0
1070
    74
1070
     0
1070
    75
1070
     0
1070
    76
1070
     0
1070
    77
1070
     1
1070
    78
1070
     8
1070
   140
1040
59.99999618530273
1070
   147
1040
0.0
1070
   173
1070
     1
1070
   176
1070
     3
1070
   177
1070
     3
1070
   178
1070
     2
1070
   271
1070
     1
1070
   277
1070
     2
1070
   279
1070
     2
1070
   280
1070
     0
1070
   287
1070
     5
1070
   340
1005
11B
1002
}
  0
DIMENSION
  5
664
330
1F
100
AcDbEntity
  8
寸法
  6
CONTINUOUS
 62
     3
100
AcDbDimension
  2
*D40
 10
1178.000000000098
 20
4213.5
 30
0.0
 11
983.0000000000987
 21
4248.749999910593
 31
0.0
 70
   160
  1
<>（壁固定）
  3
ISO-25
100
AcDbAlignedDimension
 13
788.0000000000994
 23
4004.0
 33
0.0
 14
1178.000000000098
 24
4004.0
 34
0.0
100
AcDbRotatedDimension
1001
ACAD
1000
DSTYLE
1002
{
1070
   270
1070
     2
1070
     6
1000
EX_NORM
1070
     7
1000
EX_NORM
1070
    41
1040
44.99999618530273
1070
    42
1040
21.99999999999955
1070
    44
1040
15.0
1070
    73
1070
     0
1070
    74
1070
     0
1070
    75
1070
     1
1070
    76
1070
     0
1070
    77
1070
     1
1070
    78
1070
     0
1070
   140
1040
59.99999618530273
1070
   147
1040
0.0
1070
   173
1070
     1
1070
   176
1070
     3
1070
   177
1070
     3
1070
   178
1070
     2
1070
   271
1070
     0
1070
   277
1070
     2
1070
   279
1070
     2
1070
   280
1070
     0
1070
   287
1070
     5
1070
   340
1005
11B
1002
}
  0
LINE
  5
670
330
1F
100
AcDbEntity
  8
寸法
  6
CONTINUOUS
 62
     3
100
AcDbLine
 10
2538.499999821284
 20
897.0
 30
0.0
 11
2733.000000000098
 21
896.9999999999986
 31
0.0
  0
LINE
  5
671
330
1F
100
AcDbEntity
  8
寸法
  6
CONTINUOUS
 62
     3
100
AcDbLine
 10
2538.499999821284
 20
897.0000000000001
 30
0.0
 11
2823.000000000098
 21
896.9999999999985
 31
0.0
  0
LINE
  5
672
330
1F
100
AcDbEntity
  8
寸法
  6
CONTINUOUS
 62
     3
100
AcDbLine
 10
2528.000000000098
 20
886.5000001788139
 30
0.0
 11
2528.000000000098
 21
762.0
 31
0.0
  0
TEXT
  5
673
330
1F
100
AcDbEntity
  8
寸法
  6
CONTINUOUS
 62
     2
100
AcDbText
 10
2587.500000000098
 20
1461.749999910593
 30
0.0
 40
59.99999618530273
  1
Ｒ１/２
 41
0.8342465643686785
  7
EXCADSTD
 72
     5
 11
2761.499986648658
 21
1461.749999910593
 31
0.0
100
AcDbText
  0
LEADER
  5
674
330
1F
100
AcDbEntity
  8
寸法
  6
CONTINUOUS
 62
     3
100
AcDbLeader
  3
ISO-25
 76
     3
 10
2536.000005722099
 20
1227.5
 30
0.0
 10
2580.000000000098
 20
1456.5
 30
0.0
 10
2749.500000000098
 20
1456.5
 30
0.0
1001
ACAD
1000
DSTYLE
1002
{
1070
     5
1000
EX_NORM
1070
    41
1040
45.0
1070
   341
1005
4D
1002
}
  0
LEADER
  5
675
330
1F
100
AcDbEntity
  8
寸法
  6
CONTINUOUS
 62
     3
100
AcDbLeader
  3
ISO-25
 76
     3
 10
2442.999999999996
 20
896.99999999996
 30
0.0
 10
2152.499999999991
 20
687.99999999996
 30
0.0
 10
1705.49999999999
 20
687.99999999996
 30
0.0
1001
ACAD
1000
DSTYLE
1002
{
1070
     5
1000
EX_NORM
1070
    41
1040
45.0
1070
   341
1005
4D
1002
}
  0
TEXT
  5
676
330
1F
100
AcDbEntity
  8
寸法
  6
CONTINUOUS
 62
     2
100
AcDbText
 10
1707.150007152602
 20
756.2499960958958
 30
0.0
 40
59.99999618530273
  1
ＶＰ･ＶＵ４０･５０
 41
0.8542372745578565
  7
EXCADSTD
 72
     5
 11
2139.149972820327
 21
756.2499960958958
 31
0.0
100
AcDbText
  0
TEXT
  5
677
330
1F
100
AcDbEntity
  8
寸法
  6
CONTINUOUS
 62
     2
100
AcDbText
 10
1707.150007152602
 20
696.249999910593
 30
0.0
 40
59.99999618530273
  1
４０～５０㎜立上げ
 41
0.9773584771306252
  7
EXCADSTD
 72
     5
 11
2151.149972820327
 21
696.249999910593
 31
0.0
100
AcDbText
  0
LEADER
  5
678
330
1F
100
AcDbEntity
  8
寸法
  6
CONTINUOUS
 62
     3
100
AcDbLeader
  3
ISO-25
 76
     3
 10
1294.350620485247
 20
1972.6220195023
 30
0.0
 10
1392.474995203799
 20
2028.5000023843
 30
0.0
 10
1392.474995203799
 20
2771.0000023843
 30
0.0
1001
ACAD
1000
DSTYLE
1002
{
1070
     5
1000
EX_NORM
1070
    41
1040
45.0
1070
   341
1005
4D
1002
}
  0
TEXT
  5
679
330
1F
100
AcDbEntity
  8
寸法
  6
CONTINUOUS
 62
     2
100
AcDbText
 10
1386.713400909006
 20
2033.9349790289
 30
0.0
 40
59.99999618530273
  1
電源コード（有効長さ：１.６ｍ）
 50
90.00000000000004
 41
0.9476534151428438
  7
EXCADSTD
 72
     5
 11
1386.713400909006
 21
2783.934919901092
 31
0.0
100
AcDbText
  0
LINE
  5
67A
330
1F
100
AcDbEntity
  8
寸法
  6
CONTINUOUS
 62
     3
100
AcDbLine
 10
788.0000000000998
 20
4170.0
 30
0.0
 11
788.0000000000998
 21
4228.5
 31
0.0
  0
LINE
  5
67B
330
1F
100
AcDbEntity
  8
寸法
  6
CONTINUOUS
 62
     3
100
AcDbLine
 10
788.0000000000998
 20
4033.5
 30
0.0
 11
788.0000000000998
 21
4087.5
 31
0.0
  0
ENDSEC
  0
SECTION
  2
OBJECTS
  0
DICTIONARY
  5
C
330
0
100
AcDbDictionary
  3
ACAD_GROUP
350
D
  3
ACAD_LAYOUT
350
1A
  3
ACAD_MATERIAL
350
3B
  3
ACAD_MLEADERSTYLE
350
69E
  3
ACAD_MLINESTYLE
350
17
  3
ACAD_PLOTSETTINGS
350
19
  3
ACAD_VISUALSTYLE
350
2A
  3
ACDBHEADERROUNDTRIPXREC
350
67C
  3
ACDBVARIABLEDICTIONARY
350
69C
  0
DICTIONARY
  5
D
102
{ACAD_REACTORS
330
C
102
}
330
C
100
AcDbDictionary
  0
DICTIONARY
  5
1A
102
{ACAD_REACTORS
330
C
102
}
330
C
100
AcDbDictionary
  0
DICTIONARY
  5
3B
102
{ACAD_REACTORS
330
C
102
}
330
C
100
AcDbDictionary
  3
BYBLOCK
350
3D
  3
BYLAYER
350
3C
  3
GLOBAL
350
3E
  0
DICTIONARY
  5
69E
102
{ACAD_REACTORS
330
C
102
}
330
C
100
AcDbDictionary
  0
DICTIONARY
  5
17
102
{ACAD_REACTORS
330
C
102
}
330
C
100
AcDbDictionary
  3
STANDARD
350
18
  0
DICTIONARY
  5
19
102
{ACAD_REACTORS
330
C
102
}
330
C
100
AcDbDictionary
  0
DICTIONARY
  5
2A
102
{ACAD_REACTORS
330
C
102
}
330
C
100
AcDbDictionary
  3
2DWIREFRAME
350
2F
  3
3D_HIDDEN
350
31
  3
3DWIREFRAME
350
30
  3
BASIC
350
32
  3
BRIGHTEN
350
36
  3
COLORCHANGE
350
3A
  3
CONCEPTUAL
350
34
  3
DIM
350
35
  3
FACEPATTERN
350
39
  3
FLAT
350
2B
  3
FLATWITHEDGES
350
2C
  3
GOURAUD
350
2D
  3
GOURAUDWITHEDGES
350
2E
  3
LINEPATTERN
350
38
  3
REALISTIC
350
33
  3
THICKEN
350
37
  0
DICTIONARY
  5
67C
102
{ACAD_REACTORS
330
C
102
}
330
C
100
AcDbDictionary
  3
CEPSNTYPE
350
685
  3
DIMSTYLEDATA
350
69B
  3
FINGERPRINTGUID
350
686
  3
HYPERLINKBASE
350
67F
  3
INSUNITS
350
684
  3
LAYOUTDICT
350
681
  3
LWETCUNION
350
683
  3
PLOTSETDICT
350
682
  3
PSVPSCALE
350
688
  3
PUCSBASE
350
68B
  3
PUCSORGBACK
350
691
  3
PUCSORGBOTTOM
350
68D
  3
PUCSORGFRONT
350
690
  3
PUCSORGLEFT
350
68E
  3
PUCSORGRIGHT
350
68F
  3
PUCSORGTOP
350
68C
  3
PUCSORTHOREF
350
689
  3
PUCSORTHOVIEW
350
68A
  3
STYLESHEET
350
680
  3
TSTACKALIGN
350
67D
  3
TSTACKSIZE
350
67E
  3
UCSBASE
350
694
  3
UCSORGBACK
350
69A
  3
UCSORGBOTTOM
350
696
  3
UCSORGFRONT
350
699
  3
UCSORGLEFT
350
697
  3
UCSORGRIGHT
350
698
  3
UCSORGTOP
350
695
  3
UCSORTHOREF
350
692
  3
UCSORTHOVIEW
350
693
  3
VERSIONGUID
350
687
  0
DICTIONARY
  5
69C
102
{ACAD_REACTORS
330
C
102
}
330
C
100
AcDbDictionary
  3
DIMASSOC
350
6A1
  3
HIDETEXT
350
6A2
  3
PSOLHEIGHT
350
6A0
  3
PSOLWIDTH
350
69F
  0
MATERIAL
  5
3D
102
{ACAD_REACTORS
330
3B
102
}
102
{ACAD_XDICTIONARY
360
6A5
102
}
330
3B
100
AcDbMaterial
  1
ByBlock
  0
MATERIAL
  5
3C
102
{ACAD_REACTORS
330
3B
102
}
102
{ACAD_XDICTIONARY
360
6A3
102
}
330
3B
100
AcDbMaterial
  1
ByLayer
  0
MATERIAL
  5
3E
102
{ACAD_REACTORS
330
3B
102
}
102
{ACAD_XDICTIONARY
360
6A7
102
}
330
3B
100
AcDbMaterial
  1
Global
  0
MLINESTYLE
  5
18
102
{ACAD_REACTORS
330
17
102
}
330
17
100
AcDbMlineStyle
  2
Standard
 70
     0
  3

 62
   256
 51
90.0
 52
90.0
 71
     2
 49
0.5
 62
   256
  6
BYLAYER
 49
-0.5
 62
   256
  6
BYLAYER
  0
ACAD_PROXY_OBJECT
  5
2F
102
{ACAD_REACTORS
330
2A
102
}
330
2A
100
AcDbProxyObject
 90
      499
 91
      501
 93
      436
310
42CC9915DA5C99599C985B595049028333333333333E3BF0000000000000FB0107901411070040501600405405064090741402480A0340
1001
ACAD
1000
AcDbSavedByObjectVersion
1070
     0
  0
ACAD_PROXY_OBJECT
  5
31
102
{ACAD_REACTORS
330
2A
102
}
330
2A
100
AcDbProxyObject
 90
      499
 91
      501
 93
      500
310
424CD108121A5919195B90640502408333333333333E3BF0000000000000FB01079024090700405020000000000001110200405405064090740C02480A0340
1001
ACAD
1000
AcDbSavedByObjectVersion
1070
     0
  0
ACAD_PROXY_OBJECT
  5
30
102
{ACAD_REACTORS
330
2A
102
}
330
2A
100
AcDbProxyObject
 90
      499
 91
      501
 93
      436
310
42CCD915DA5C99599C985B595059028333333333333E3BF0000000000000FB0107901411070040501600405405064090741402480A0340
1001
ACAD
1000
AcDbSavedByObjectVersion
1070
     0
  0
ACAD_PROXY_OBJECT
  5
32
102
{ACAD_REACTORS
330
2A
102
}
330
2A
100
AcDbProxyObject
 90
      499
 91
      501
 93
      388
310
4150985CDA58D07406404333333333333E3BF0000000000000FB0107A41107004050150841D405064090741402480A0350
1001
ACAD
1000
AcDbSavedByObjectVersion
1070
     0
  0
ACAD_PROXY_OBJECT
  5
36
102
{ACAD_REACTORS
330
2A
102
}
330
2A
100
AcDbProxyObject
 90
      499
 91
      501
 93
      428
310
42109C9A59DA1D195B90C409028333333333333E3BF0000000000000FB010790141107004050150841D405064090741402480A029950
1001
ACAD
1000
AcDbSavedByObjectVersion
1070
     0
  0
ACAD_PROXY_OBJECT
  5
3A
102
{ACAD_REACTORS
330
2A
102
}
330
2A
100
AcDbProxyObject
 90
      499
 91
      501
 93
      452
310
42D0DBDB1BDC90DA185B99D95104090240C333333333333E3BF0000000000000FB0108901411070040501508421405064090741402480A0350
1001
ACAD
1000
AcDbSavedByObjectVersion
1070
     0
  0
ACAD_PROXY_OBJECT
  5
34
102
{ACAD_REACTORS
330
2A
102
}
330
2A
100
AcDbProxyObject
 90
      499
 91
      501
 93
      500
310
4290DBDB98D95C1D1D585B10940D028333333333333E3BF0000000000000FB0107902409070040501000000000000111010841D405064090740C02480A0340
1001
ACAD
1000
AcDbSavedByObjectVersion
1070
     0
  0
ACAD_PROXY_OBJECT
  5
35
102
{ACAD_REACTORS
330
2A
102
}
330
2A
100
AcDbProxyObject
 90
      499
 91
      501
 93
      412
310
40D11A5B50B409028333333333333E3BF0000000000000FB010790141107004050150841D405064090741402480A02677FFFFFD0
1001
ACAD
1000
AcDbSavedByObjectVersion
1070
     0
  0
ACAD_PROXY_OBJECT
  5
39
102
{ACAD_REACTORS
330
2A
102
}
330
2A
100
AcDbProxyObject
 90
      499
 91
      501
 93
      444
310
42D19858D95C185D1D195C9B90F409028333333333333E3BF0000000000000FB010790141107004050150841D405064090741402480A0350
1001
ACAD
1000
AcDbSavedByObjectVersion
1070
     0
  0
ACAD_PROXY_OBJECT
  5
2B
102
{ACAD_REACTORS
330
2A
102
}
330
2A
100
AcDbProxyObject
 90
      499
 91
      501
 93
      388
310
41119B185D240901404333333333333E3BF0000000000000F9010740A41107004050150841D405064090741402480A1B50
1001
ACAD
1000
AcDbSavedByObjectVersion
1070
     0
  0
ACAD_PROXY_OBJECT
  5
2C
102
{ACAD_REACTORS
330
2A
102
}
330
2A
100
AcDbProxyObject
 90
      499
 91
      501
 93
      476
310
43519B185D15DA5D1A115919D95CD0140901404333333333333E3BF0000000000000F9010740901411070040501600405405064090741402480A1B50
1001
ACAD
1000
AcDbSavedByObjectVersion
1070
     0
  0
ACAD_PROXY_OBJECT
  5
2D
102
{ACAD_REACTORS
330
2A
102
}
330
2A
100
AcDbProxyObject
 90
      499
 91
      501
 93
      412
310
41D1DBDD5C985D5910240902404333333333333E3BF0000000000000F9010740A411070040501641D405064090741402480A1B50
1001
ACAD
1000
AcDbSavedByObjectVersion
1070
     0
  0
ACAD_PROXY_OBJECT
  5
2E
102
{ACAD_REACTORS
330
2A
102
}
330
2A
100
AcDbProxyObject
 90
      499
 91
      501
 93
      500
310
4411DBDD5C985D5915DA5D1A115919D95CD0340902404333333333333E3BF0000000000000F9010740901411070040501600405405064090741402480A1B50
1001
ACAD
1000
AcDbSavedByObjectVersion
1070
     0
  0
ACAD_PROXY_OBJECT
  5
38
102
{ACAD_REACTORS
330
2A
102
}
330
2A
100
AcDbProxyObject
 90
      499
 91
      501
 93
      444
310
42D31A5B995C185D1D195C9B90E409028333333333333E3BF0000000000000FB010790141107004050750841D405064090741402483A0350
1001
ACAD
1000
AcDbSavedByObjectVersion
1070
     0
  0
ACAD_PROXY_OBJECT
  5
33
102
{ACAD_REACTORS
330
2A
102
}
330
2A
100
AcDbProxyObject
 90
      499
 91
      501
 93
      420
310
425499585B1A5CDD1A58D08409028333333333333E3BF0000000000000FB01079019070040501508421405064090741402480A1B40
1001
ACAD
1000
AcDbSavedByObjectVersion
1070
     0
  0
ACAD_PROXY_OBJECT
  5
37
102
{ACAD_REACTORS
330
2A
102
}
330
2A
100
AcDbProxyObject
 90
      499
 91
      501
 93
      412
310
41D51A1A58DAD95B90D409028333333333333E3BF0000000000000FB010790141107004050150C41D405064090741402480A0350
1001
ACAD
1000
AcDbSavedByObjectVersion
1070
     0
  0
XRECORD
  5
685
102
{ACAD_REACTORS
330
67C
102
}
330
67C
100
AcDbXrecord
 90
        0
  0
XRECORD
  5
69B
102
{ACAD_REACTORS
330
67C
102
}
330
67C
100
AcDbXrecord
1000
DSTYLE
1002
{
1070
   340
340
11
1002
}
  0
XRECORD
  5
686
102
{ACAD_REACTORS
330
67C
102
}
330
67C
100
AcDbXrecord
  1
{584A4179-3489-4C87-A373-C4755458D92C}
  0
XRECORD
  5
67F
102
{ACAD_REACTORS
330
67C
102
}
330
67C
100
AcDbXrecord
  1

  0
XRECORD
  5
684
102
{ACAD_REACTORS
330
67C
102
}
330
67C
100
AcDbXrecord
 90
        4
  0
XRECORD
  5
681
102
{ACAD_REACTORS
330
67C
102
}
330
67C
100
AcDbXrecord
340
1A
  0
XRECORD
  5
683
102
{ACAD_REACTORS
330
67C
102
}
330
67C
100
AcDbXrecord
 90
    10781
  0
XRECORD
  5
682
102
{ACAD_REACTORS
330
67C
102
}
330
67C
100
AcDbXrecord
340
19
  0
XRECORD
  5
688
102
{ACAD_REACTORS
330
67C
102
}
330
67C
100
AcDbXrecord
 40
0.0
  0
XRECORD
  5
68B
102
{ACAD_REACTORS
330
67C
102
}
330
67C
100
AcDbXrecord
340
0
  0
XRECORD
  5
691
102
{ACAD_REACTORS
330
67C
102
}
330
67C
100
AcDbXrecord
 10
0.0
 20
0.0
 30
0.0
  0
XRECORD
  5
68D
102
{ACAD_REACTORS
330
67C
102
}
330
67C
100
AcDbXrecord
 10
0.0
 20
0.0
 30
0.0
  0
XRECORD
  5
690
102
{ACAD_REACTORS
330
67C
102
}
330
67C
100
AcDbXrecord
 10
0.0
 20
0.0
 30
0.0
  0
XRECORD
  5
68E
102
{ACAD_REACTORS
330
67C
102
}
330
67C
100
AcDbXrecord
 10
0.0
 20
0.0
 30
0.0
  0
XRECORD
  5
68F
102
{ACAD_REACTORS
330
67C
102
}
330
67C
100
AcDbXrecord
 10
0.0
 20
0.0
 30
0.0
  0
XRECORD
  5
68C
102
{ACAD_REACTORS
330
67C
102
}
330
67C
100
AcDbXrecord
 10
0.0
 20
0.0
 30
0.0
  0
XRECORD
  5
689
102
{ACAD_REACTORS
330
67C
102
}
330
67C
100
AcDbXrecord
340
0
  0
XRECORD
  5
68A
102
{ACAD_REACTORS
330
67C
102
}
330
67C
100
AcDbXrecord
 70
     0
  0
XRECORD
  5
680
102
{ACAD_REACTORS
330
67C
102
}
330
67C
100
AcDbXrecord
  1

  0
XRECORD
  5
67D
102
{ACAD_REACTORS
330
67C
102
}
330
67C
100
AcDbXrecord
 90
        1
  0
XRECORD
  5
67E
102
{ACAD_REACTORS
330
67C
102
}
330
67C
100
AcDbXrecord
 90
       70
  0
XRECORD
  5
694
102
{ACAD_REACTORS
330
67C
102
}
330
67C
100
AcDbXrecord
340
0
  0
XRECORD
  5
69A
102
{ACAD_REACTORS
330
67C
102
}
330
67C
100
AcDbXrecord
 10
0.0
 20
0.0
 30
0.0
  0
XRECORD
  5
696
102
{ACAD_REACTORS
330
67C
102
}
330
67C
100
AcDbXrecord
 10
0.0
 20
0.0
 30
0.0
  0
XRECORD
  5
699
102
{ACAD_REACTORS
330
67C
102
}
330
67C
100
AcDbXrecord
 10
0.0
 20
0.0
 30
0.0
  0
XRECORD
  5
697
102
{ACAD_REACTORS
330
67C
102
}
330
67C
100
AcDbXrecord
 10
0.0
 20
0.0
 30
0.0
  0
XRECORD
  5
698
102
{ACAD_REACTORS
330
67C
102
}
330
67C
100
AcDbXrecord
 10
0.0
 20
0.0
 30
0.0
  0
XRECORD
  5
695
102
{ACAD_REACTORS
330
67C
102
}
330
67C
100
AcDbXrecord
 10
0.0
 20
0.0
 30
0.0
  0
XRECORD
  5
692
102
{ACAD_REACTORS
330
67C
102
}
330
67C
100
AcDbXrecord
340
0
  0
XRECORD
  5
693
102
{ACAD_REACTORS
330
67C
102
}
330
67C
100
AcDbXrecord
 70
     0
  0
XRECORD
  5
687
102
{ACAD_REACTORS
330
67C
102
}
330
67C
100
AcDbXrecord
  1
{FAEB1C32-E019-11D5-929B-00C0DF256EC4}
  0
DICTIONARYVAR
  5
6A1
102
{ACAD_REACTORS
330
69C
102
}
330
69C
100
DictionaryVariables
280
     0
  1
2
  0
DICTIONARYVAR
  5
6A2
102
{ACAD_REACTORS
330
69C
102
}
330
69C
100
DictionaryVariables
280
     0
  1
1
  0
DICTIONARYVAR
  5
6A0
102
{ACAD_REACTORS
330
69C
102
}
330
69C
100
DictionaryVariables
280
     0
  1
80.000000
  0
DICTIONARYVAR
  5
69F
102
{ACAD_REACTORS
330
69C
102
}
330
69C
100
DictionaryVariables
280
     0
  1
5.000000
  0
DICTIONARY
  5
6A5
330
3D
100
AcDbDictionary
280
     1
  3
ACAD_XREC_ROUNDTRIP
360
6A6
  0
DICTIONARY
  5
6A3
330
3C
100
AcDbDictionary
280
     1
  3
ACAD_XREC_ROUNDTRIP
360
6A4
  0
DICTIONARY
  5
6A7
330
3E
100
AcDbDictionary
280
     1
  3
ACAD_XREC_ROUNDTRIP
360
6A8
  0
XRECORD
  5
6A6
102
{ACAD_REACTORS
330
6A5
102
}
330
6A5
100
AcDbXrecord
102
MATERIAL
148
0.0
149
0.0
149
0.0
 93
        0
 94
      127
282
     0
 72
     1
 77
     1
171
     1
175
     1
179
     1
273
     0
  0
XRECORD
  5
6A4
102
{ACAD_REACTORS
330
6A3
102
}
330
6A3
100
AcDbXrecord
102
MATERIAL
148
0.0
149
0.0
149
0.0
 93
        0
 94
      127
282
     0
 72
     1
 77
     1
171
     1
175
     1
179
     1
273
     0
  0
XRECORD
  5
6A8
102
{ACAD_REACTORS
330
6A7
102
}
330
6A7
100
AcDbXrecord
102
MATERIAL
148
0.0
149
0.0
149
0.0
 93
        0
 94
      127
282
     0
 72
     1
 77
     1
171
     1
175
     1
179
     1
273
     0
  0
ENDSEC
  0
EOF
