  0
SECTION
  2
HEADER
  9
$ACADVER
  1
AC1014
  9
$ACADMAINTVER
 70
     9
  9
$DWGCODEPAGE
  3
ANSI_932
  9
$INSBASE
 10
0.0
 20
0.0
 30
0.0
  9
$EXTMIN
 10
-0.7999999999933705
 20
13.4
 30
0.0
  9
$EXTMAX
 10
204.2000000000066
 20
288.4
 30
0.0
  9
$LIMMIN
 10
0.0
 20
0.0
  9
$LIMMAX
 10
210.0
 20
297.0
  9
$ORTHOMODE
 70
     0
  9
$REGENMODE
 70
     1
  9
$FILLMODE
 70
     1
  9
$QTEXTMODE
 70
     0
  9
$MIRRTEXT
 70
     1
  9
$DRAGMODE
 70
     2
  9
$LTSCALE
 40
1.0
  9
$OSMODE
 70
    37
  9
$ATTMODE
 70
     1
  9
$TEXTSIZE
 40
2.5
  9
$TRACEWID
 40
1.0
  9
$TEXTSTYLE
  7
STANDARD
  9
$CLAYER
  8
寸法
  9
$CELTYPE
  6
BYLAYER
  9
$CECOLOR
 62
   256
  9
$CELTSCALE
 40
1.0
  9
$DELOBJ
 70
     1
  9
$DISPSILH
 70
     0
  9
$DIMSCALE
 40
1.0
  9
$DIMASZ
 40
2.5
  9
$DIMEXO
 40
0.625
  9
$DIMDLI
 40
3.75
  9
$DIMRND
 40
0.0
  9
$DIMDLE
 40
0.0
  9
$DIMEXE
 40
1.25
  9
$DIMTP
 40
0.0
  9
$DIMTM
 40
0.0
  9
$DIMTXT
 40
2.5
  9
$DIMCEN
 40
2.5
  9
$DIMTSZ
 40
0.0
  9
$DIMTOL
 70
     0
  9
$DIMLIM
 70
     0
  9
$DIMTIH
 70
     0
  9
$DIMTOH
 70
     0
  9
$DIMSE1
 70
     0
  9
$DIMSE2
 70
     0
  9
$DIMTAD
 70
     1
  9
$DIMZIN
 70
     8
  9
$DIMBLK
  1

  9
$DIMASO
 70
     1
  9
$DIMSHO
 70
     1
  9
$DIMPOST
  1

  9
$DIMAPOST
  1

  9
$DIMALT
 70
     0
  9
$DIMALTD
 70
     3
  9
$DIMALTF
 40
0.03937007874016
  9
$DIMLFAC
 40
1.0
  9
$DIMTOFL
 70
     1
  9
$DIMTVP
 40
0.0
  9
$DIMTIX
 70
     0
  9
$DIMSOXD
 70
     0
  9
$DIMSAH
 70
     0
  9
$DIMBLK1
  1

  9
$DIMBLK2
  1

  9
$DIMSTYLE
  2
ISO-25
  9
$DIMCLRD
 70
     0
  9
$DIMCLRE
 70
     0
  9
$DIMCLRT
 70
     0
  9
$DIMTFAC
 40
1.0
  9
$DIMGAP
 40
0.625
  9
$DIMJUST
 70
     0
  9
$DIMSD1
 70
     0
  9
$DIMSD2
 70
     0
  9
$DIMTOLJ
 70
     0
  9
$DIMTZIN
 70
     8
  9
$DIMALTZ
 70
     0
  9
$DIMALTTZ
 70
     0
  9
$DIMFIT
 70
     3
  9
$DIMUPT
 70
     0
  9
$DIMUNIT
 70
     2
  9
$DIMDEC
 70
     2
  9
$DIMTDEC
 70
     2
  9
$DIMALTU
 70
     2
  9
$DIMALTTD
 70
     3
  9
$DIMTXSTY
  7
STANDARD
  9
$DIMAUNIT
 70
     0
  9
$LUNITS
 70
     2
  9
$LUPREC
 70
     4
  9
$SKETCHINC
 40
1.0
  9
$FILLETRAD
 40
10.0
  9
$AUNITS
 70
     0
  9
$AUPREC
 70
     0
  9
$MENU
  1
.
  9
$ELEVATION
 40
0.0
  9
$PELEVATION
 40
0.0
  9
$THICKNESS
 40
0.0
  9
$LIMCHECK
 70
     0
  9
$CHAMFERA
 40
10.0
  9
$CHAMFERB
 40
10.0
  9
$CHAMFERC
 40
20.0
  9
$CHAMFERD
 40
0.0
  9
$SKPOLY
 70
     0
  9
$TDCREATE
 40
2457852.030611887
  9
$TDUPDATE
 40
2457852.030612257
  9
$TDINDWG
 40
0.0000000116
  9
$TDUSRTIMER
 40
0.0000000116
  9
$USRTIMER
 70
     1
  9
$ANGBASE
 50
0.0
  9
$ANGDIR
 70
     0
  9
$PDMODE
 70
     0
  9
$PDSIZE
 40
0.0
  9
$PLINEWID
 40
0.0
  9
$COORDS
 70
     1
  9
$SPLFRAME
 70
     0
  9
$SPLINETYPE
 70
     6
  9
$SPLINESEGS
 70
     8
  9
$ATTDIA
 70
     0
  9
$ATTREQ
 70
     1
  9
$HANDLING
 70
     1
  9
$HANDSEED
  5
68B
  9
$SURFTAB1
 70
     6
  9
$SURFTAB2
 70
     6
  9
$SURFTYPE
 70
     6
  9
$SURFU
 70
     6
  9
$SURFV
 70
     6
  9
$UCSNAME
  2

  9
$UCSORG
 10
0.0
 20
0.0
 30
0.0
  9
$UCSXDIR
 10
1.0
 20
0.0
 30
0.0
  9
$UCSYDIR
 10
0.0
 20
1.0
 30
0.0
  9
$PUCSNAME
  2

  9
$PUCSORG
 10
0.0
 20
0.0
 30
0.0
  9
$PUCSXDIR
 10
1.0
 20
0.0
 30
0.0
  9
$PUCSYDIR
 10
0.0
 20
1.0
 30
0.0
  9
$USERI1
 70
     0
  9
$USERI2
 70
     0
  9
$USERI3
 70
     0
  9
$USERI4
 70
     0
  9
$USERI5
 70
     0
  9
$USERR1
 40
0.0
  9
$USERR2
 40
0.0
  9
$USERR3
 40
0.0
  9
$USERR4
 40
0.0
  9
$USERR5
 40
0.0
  9
$WORLDVIEW
 70
     1
  9
$SHADEDGE
 70
     3
  9
$SHADEDIF
 70
    70
  9
$TILEMODE
 70
     1
  9
$MAXACTVP
 70
    64
  9
$PINSBASE
 10
0.0
 20
0.0
 30
0.0
  9
$PLIMCHECK
 70
     0
  9
$PEXTMIN
 10
1.000000000000000E+20
 20
1.000000000000000E+20
 30
1.000000000000000E+20
  9
$PEXTMAX
 10
-1.000000000000000E+20
 20
-1.000000000000000E+20
 30
-1.000000000000000E+20
  9
$PLIMMIN
 10
0.0
 20
0.0
  9
$PLIMMAX
 10
420.0
 20
297.0
  9
$UNITMODE
 70
     0
  9
$VISRETAIN
 70
     1
  9
$PLINEGEN
 70
     0
  9
$PSLTSCALE
 70
     1
  9
$TREEDEPTH
 70
  3020
  9
$PICKSTYLE
 70
     1
  9
$CMLSTYLE
  2
STANDARD
  9
$CMLJUST
 70
     0
  9
$CMLSCALE
 40
20.0
  9
$PROXYGRAPHICS
 70
     1
  9
$MEASUREMENT
 70
     1
  0
ENDSEC
  0
SECTION
  2
CLASSES
  0
CLASS
  1
ACDBDICTIONARYWDFLT
  2
AcDbDictionaryWithDefault
  3
ObjectDBX Classes
 90
        0
280
     0
281
     0
  0
CLASS
  1
VISUALSTYLE
  2
AcDbVisualStyle
  3
ObjectDBX Classes
 90
     4095
280
     0
281
     0
  0
CLASS
  1
MATERIAL
  2
AcDbMaterial
  3
ObjectDBX Classes
 90
     1153
280
     0
281
     0
  0
CLASS
  1
SUN
  2
AcDbSun
  3
SCENEOE
 90
     1024
280
     0
281
     0
  0
CLASS
  1
DICTIONARYVAR
  2
AcDbDictionaryVar
  3
ObjectDBX Classes
 90
        0
280
     0
281
     0
  0
CLASS
  1
XRECORD
  2
AcDbXrecord
  3
AutoCAD 2000
 90
        0
280
     0
281
     0
  0
CLASS
  1
LWPOLYLINE
  2
AcDbPolyline
  3
AutoCAD 2000
 90
        0
280
     0
281
     1
  0
CLASS
  1
HATCH
  2
AcDbHatch
  3
AutoCAD 2000
 90
        0
280
     0
281
     1
  0
CLASS
  1
ACDBPLACEHOLDER
  2
AcDbPlaceHolder
  3
ObjectDBX Classes
 90
        0
280
     0
281
     0
  0
CLASS
  1
LAYOUT
  2
AcDbLayout
  3
ObjectDBX Classes
 90
        0
280
     0
281
     0
  0
ENDSEC
  0
SECTION
  2
TABLES
  0
TABLE
  2
VPORT
  5
8
330
0
100
AcDbSymbolTable
 70
     1
  0
VPORT
  5
29
330
8
100
AcDbSymbolTableRecord
100
AcDbViewportTableRecord
  2
*ACTIVE
 70
     0
 10
0.0
 20
0.0
 11
1.0
 21
1.0
 12
1525.500000000099
 22
2263.5
 13
0.0
 23
0.0
 14
10.0
 24
10.0
 15
10.0
 25
10.0
 16
0.0
 26
0.0
 36
1.0
 17
0.0
 27
0.0
 37
0.0
 40
4125.0
 41
0.7454545454545454
 42
50.0
 43
0.0
 44
0.0
 50
0.0
 51
0.0
 71
     0
 72
  1000
 73
     1
 74
     3
 75
     0
 76
     0
 77
     0
 78
     0
  0
ENDTAB
  0
TABLE
  2
LTYPE
  5
5
330
0
100
AcDbSymbolTable
 70
     7
  0
LTYPE
  5
14
330
5
100
AcDbSymbolTableRecord
100
AcDbLinetypeTableRecord
  2
BYBLOCK
 70
     0
  3

 72
    65
 73
     0
 40
0.0
  0
LTYPE
  5
15
330
5
100
AcDbSymbolTableRecord
100
AcDbLinetypeTableRecord
  2
BYLAYER
 70
     0
  3

 72
    65
 73
     0
 40
0.0
  0
LTYPE
  5
16
330
5
100
AcDbSymbolTableRecord
100
AcDbLinetypeTableRecord
  2
CONTINUOUS
 70
     0
  3
Solid line
 72
    65
 73
     0
 40
0.0
  0
LTYPE
  5
40
330
5
100
AcDbSymbolTableRecord
100
AcDbLinetypeTableRecord
  2
EXLTYPE1
 70
     0
  3
破線
 72
    65
 73
     2
 40
3.0
 49
2.0
 74
     0
 49
-1.0
 74
     0
  0
LTYPE
  5
41
330
5
100
AcDbSymbolTableRecord
100
AcDbLinetypeTableRecord
  2
EXLTYPE2
 70
     0
  3
点線
 72
    65
 73
     2
 40
2.0
 49
1.0
 74
     0
 49
-1.0
 74
     0
  0
LTYPE
  5
42
330
5
100
AcDbSymbolTableRecord
100
AcDbLinetypeTableRecord
  2
EXLTYPE3
 70
     0
  3
一点鎖線
 72
    65
 73
     4
 40
10.0
 49
7.0
 74
     0
 49
-1.0
 74
     0
 49
1.0
 74
     0
 49
-1.0
 74
     0
  0
LTYPE
  5
43
330
5
100
AcDbSymbolTableRecord
100
AcDbLinetypeTableRecord
  2
EXLTYPE4
 70
     0
  3
二点鎖線
 72
    65
 73
     6
 40
12.0
 49
7.0
 74
     0
 49
-1.0
 74
     0
 49
1.0
 74
     0
 49
-1.0
 74
     0
 49
1.0
 74
     0
 49
-1.0
 74
     0
  0
LTYPE
  5
44
330
5
100
AcDbSymbolTableRecord
100
AcDbLinetypeTableRecord
  2
EXLTYPE5
 70
     0
  3
三点鎖線
 72
    65
 73
     8
 40
37.0
 49
30.0
 74
     0
 49
-1.0
 74
     0
 49
1.0
 74
     0
 49
-1.0
 74
     0
 49
1.0
 74
     0
 49
-1.0
 74
     0
 49
1.0
 74
     0
 49
-1.0
 74
     0
  0
LTYPE
  5
45
330
5
100
AcDbSymbolTableRecord
100
AcDbLinetypeTableRecord
  2
EXLTYPE6
 70
     0
  3
四点鎖線
 72
    65
 73
    10
 40
39.0
 49
30.0
 74
     0
 49
-1.0
 74
     0
 49
1.0
 74
     0
 49
-1.0
 74
     0
 49
1.0
 74
     0
 49
-1.0
 74
     0
 49
1.0
 74
     0
 49
-1.0
 74
     0
 49
1.0
 74
     0
 49
-1.0
 74
     0
  0
ENDTAB
  0
TABLE
  2
LAYER
  5
2
330
0
100
AcDbSymbolTable
 70
     7
  0
LAYER
  5
10
330
2
100
AcDbSymbolTableRecord
100
AcDbLayerTableRecord
  2
0
 70
     0
 62
     7
  6
CONTINUOUS
  0
LAYER
  5
48
330
2
100
AcDbSymbolTableRecord
100
AcDbLayerTableRecord
  2
枠_表
 70
     0
 62
     7
  6
CONTINUOUS
  0
LAYER
  5
49
330
2
100
AcDbSymbolTableRecord
100
AcDbLayerTableRecord
  2
化粧台
 70
     0
 62
     7
  6
CONTINUOUS
  0
LAYER
  5
4A
330
2
100
AcDbSymbolTableRecord
100
AcDbLayerTableRecord
  2
鏡台
 70
     0
 62
     7
  6
CONTINUOUS
  0
LAYER
  5
4B
330
2
100
AcDbSymbolTableRecord
100
AcDbLayerTableRecord
  2
付属金具
 70
     0
 62
     7
  6
CONTINUOUS
  0
LAYER
  5
4C
330
2
100
AcDbSymbolTableRecord
100
AcDbLayerTableRecord
  2
寸法
 70
     0
 62
     7
  6
CONTINUOUS
  0
LAYER
  5
309
330
2
100
AcDbSymbolTableRecord
100
AcDbLayerTableRecord
  2
DEFPOINTS
 70
     0
 62
     7
  6
CONTINUOUS
  0
ENDTAB
  0
TABLE
  2
STYLE
  5
3
330
0
100
AcDbSymbolTable
 70
     5
  0
STYLE
  5
11
330
3
100
AcDbSymbolTableRecord
100
AcDbTextStyleTableRecord
  2
STANDARD
 70
     0
 40
0.0
 41
1.0
 50
0.0
 71
     0
 42
2.5
  3
monotxt
  4
extfont
  0
STYLE
  5
46
330
3
100
AcDbSymbolTableRecord
100
AcDbTextStyleTableRecord
  2
EXCADSTD
 70
     0
 40
0.0
 41
1.0
 50
0.0
 71
     0
 42
0.2
  3
monotxt
  4
extfont
  0
STYLE
  5
47
330
3
100
AcDbSymbolTableRecord
100
AcDbTextStyleTableRecord
  2
EXCADVERT
 70
     4
 40
0.0
 41
1.0
 50
0.0
 71
     0
 42
0.286885
  3
monotxt
  4
extfont
  0
STYLE
  5
A9
330
3
100
AcDbSymbolTableRecord
100
AcDbTextStyleTableRecord
  2
EXCADTTF1
 70
     0
 40
0.0
 41
1.0
 50
0.0
 71
     0
 42
0.2
  3
MSGOTHIC.TTC
  4

1001
ACAD
1000
MS Gothic
1071
    32817
  0
STYLE
  5
307
330
3
100
AcDbSymbolTableRecord
100
AcDbTextStyleTableRecord
  2
EXCADDIM1
 70
     0
 40
0.0
 41
0.84
 50
0.0
 71
     0
 42
0.2
  3
monotxt
  4
extfont
  0
ENDTAB
  0
TABLE
  2
VIEW
  5
6
330
0
100
AcDbSymbolTable
 70
     0
  0
ENDTAB
  0
TABLE
  2
UCS
  5
7
330
0
100
AcDbSymbolTable
 70
     0
  0
ENDTAB
  0
TABLE
  2
APPID
  5
9
330
0
100
AcDbSymbolTable
 70
     1
  0
APPID
  5
12
330
9
100
AcDbSymbolTableRecord
100
AcDbRegAppTableRecord
  2
ACAD
 70
     0
  0
ENDTAB
  0
TABLE
  2
DIMSTYLE
  5
A
330
0
100
AcDbSymbolTable
 70
     1
  0
DIMSTYLE
105
27
102
{ACAD_REACTORS
330
308
330
316
330
323
330
32F
330
33D
330
34A
330
35A
330
367
330
374
330
381
330
3EE
330
4EA
330
5CE
330
5DB
330
5EA
330
5F8
330
64F
102
}
330
A
100
AcDbSymbolTableRecord
100
AcDbDimStyleTableRecord
  2
ISO-25
 70
     0
  3

  4

  5

  6

  7

 40
1.0
 41
2.5
 42
0.625
 43
3.75
 44
1.25
 45
0.0
 46
0.0
 47
0.0
 48
0.0
140
2.5
141
2.5
142
0.0
143
0.03937007874016
144
1.0
145
0.0
146
1.0
147
0.625
 71
     0
 72
     0
 73
     0
 74
     0
 75
     0
 76
     0
 77
     1
 78
     8
170
     0
171
     3
172
     1
173
     0
174
     0
175
     0
176
     0
177
     0
178
     0
270
     2
271
     2
272
     2
273
     2
274
     3
340
11
275
     0
280
     0
281
     0
282
     0
283
     0
284
     8
285
     0
286
     0
287
     5
288
     0
  0
ENDTAB
  0
TABLE
  2
BLOCK_RECORD
  5
1
330
0
100
AcDbSymbolTable
 70
    32
  0
BLOCK_RECORD
  5
1F
330
1
100
AcDbSymbolTableRecord
100
AcDbBlockTableRecord
  2
*MODEL_SPACE
  0
BLOCK_RECORD
  5
1B
330
1
100
AcDbSymbolTableRecord
100
AcDbBlockTableRecord
  2
*PAPER_SPACE
  0
BLOCK_RECORD
  5
4D
330
1
100
AcDbSymbolTableRecord
100
AcDbBlockTableRecord
  2
EX_NORM
  0
BLOCK_RECORD
  5
50
330
1
100
AcDbSymbolTableRecord
100
AcDbBlockTableRecord
  2
EX_BNORM
  0
BLOCK_RECORD
  5
53
330
1
100
AcDbSymbolTableRecord
100
AcDbBlockTableRecord
  2
EX_BCIR
  0
BLOCK_RECORD
  5
56
330
1
100
AcDbSymbolTableRecord
100
AcDbBlockTableRecord
  2
EX_RCIVIL
  0
BLOCK_RECORD
  5
59
330
1
100
AcDbSymbolTableRecord
100
AcDbBlockTableRecord
  2
EX_SLANT
  0
BLOCK_RECORD
  5
5C
330
1
100
AcDbSymbolTableRecord
100
AcDbBlockTableRecord
  2
EX_NONE
  0
BLOCK_RECORD
  5
5F
330
1
100
AcDbSymbolTableRecord
100
AcDbBlockTableRecord
  2
EX_CIVIL
  0
BLOCK_RECORD
  5
62
330
1
100
AcDbSymbolTableRecord
100
AcDbBlockTableRecord
  2
EX_WCIR
  0
BLOCK_RECORD
  5
65
330
1
100
AcDbSymbolTableRecord
100
AcDbBlockTableRecord
  2
EX_WCIR2
  0
BLOCK_RECORD
  5
68
330
1
100
AcDbSymbolTableRecord
100
AcDbBlockTableRecord
  2
EX_WNORM
  0
BLOCK_RECORD
  5
6B
330
1
100
AcDbSymbolTableRecord
100
AcDbBlockTableRecord
  2
EX_NNORM
  0
BLOCK_RECORD
  5
6E
330
1
100
AcDbSymbolTableRecord
100
AcDbBlockTableRecord
  2
EX_BBOX
  0
BLOCK_RECORD
  5
71
330
1
100
AcDbSymbolTableRecord
100
AcDbBlockTableRecord
  2
EX_WBOX
  0
BLOCK_RECORD
  5
74
330
1
100
AcDbSymbolTableRecord
100
AcDbBlockTableRecord
  2
EX_INTEGRAL
  0
BLOCK_RECORD
  5
30A
330
1
100
AcDbSymbolTableRecord
100
AcDbBlockTableRecord
  2
*D15
  0
BLOCK_RECORD
  5
317
330
1
100
AcDbSymbolTableRecord
100
AcDbBlockTableRecord
  2
*D16
  0
BLOCK_RECORD
  5
324
330
1
100
AcDbSymbolTableRecord
100
AcDbBlockTableRecord
  2
*D17
  0
BLOCK_RECORD
  5
330
330
1
100
AcDbSymbolTableRecord
100
AcDbBlockTableRecord
  2
*D18
  0
BLOCK_RECORD
  5
33E
330
1
100
AcDbSymbolTableRecord
100
AcDbBlockTableRecord
  2
*D19
  0
BLOCK_RECORD
  5
34B
330
1
100
AcDbSymbolTableRecord
100
AcDbBlockTableRecord
  2
*D20
  0
BLOCK_RECORD
  5
35B
330
1
100
AcDbSymbolTableRecord
100
AcDbBlockTableRecord
  2
*D21
  0
BLOCK_RECORD
  5
368
330
1
100
AcDbSymbolTableRecord
100
AcDbBlockTableRecord
  2
*D22
  0
BLOCK_RECORD
  5
375
330
1
100
AcDbSymbolTableRecord
100
AcDbBlockTableRecord
  2
*D23
  0
BLOCK_RECORD
  5
382
330
1
100
AcDbSymbolTableRecord
100
AcDbBlockTableRecord
  2
*D24
  0
BLOCK_RECORD
  5
3EF
330
1
100
AcDbSymbolTableRecord
100
AcDbBlockTableRecord
  2
*D25
  0
BLOCK_RECORD
  5
4EB
330
1
100
AcDbSymbolTableRecord
100
AcDbBlockTableRecord
  2
*D26
  0
BLOCK_RECORD
  5
5CF
330
1
100
AcDbSymbolTableRecord
100
AcDbBlockTableRecord
  2
*D27
  0
BLOCK_RECORD
  5
5DC
330
1
100
AcDbSymbolTableRecord
100
AcDbBlockTableRecord
  2
*D28
  0
BLOCK_RECORD
  5
5EB
330
1
100
AcDbSymbolTableRecord
100
AcDbBlockTableRecord
  2
*D29
  0
BLOCK_RECORD
  5
5F9
330
1
100
AcDbSymbolTableRecord
100
AcDbBlockTableRecord
  2
*D30
  0
BLOCK_RECORD
  5
650
330
1
100
AcDbSymbolTableRecord
100
AcDbBlockTableRecord
  2
*D31
  0
ENDTAB
  0
ENDSEC
  0
SECTION
  2
BLOCKS
  0
BLOCK
  5
20
330
1F
100
AcDbEntity
  8
0
100
AcDbBlockBegin
  2
*MODEL_SPACE
 70
     0
 10
0.0
 20
0.0
 30
0.0
  3
*MODEL_SPACE
  1

  0
ENDBLK
  5
21
330
1F
100
AcDbEntity
  8
0
100
AcDbBlockEnd
  0
BLOCK
  5
1C
330
1B
100
AcDbEntity
 67
     1
  8
0
100
AcDbBlockBegin
  2
*PAPER_SPACE
 70
     0
 10
0.0
 20
0.0
 30
0.0
  3
*PAPER_SPACE
  1

  0
ENDBLK
  5
1D
330
1B
100
AcDbEntity
 67
     1
  8
0
100
AcDbBlockEnd
  0
BLOCK
  5
4E
330
4D
100
AcDbEntity
  8
0
100
AcDbBlockBegin
  2
EX_NORM
 70
     0
 10
0.0
 20
0.0
 30
0.0
  3
EX_NORM
  1

  0
LINE
  5
77
330
4D
100
AcDbEntity
  8
0
  6
CONTINUOUS
 62
     0
100
AcDbLine
 10
0.0
 20
0.0
 30
0.0
 11
-1.0
 21
0.0
 31
0.0
  0
LINE
  5
78
330
4D
100
AcDbEntity
  8
0
  6
CONTINUOUS
 62
     0
100
AcDbLine
 10
0.0
 20
0.0
 30
0.0
 11
-1.0
 21
0.166666667
 31
0.0
  0
LINE
  5
79
330
4D
100
AcDbEntity
  8
0
  6
CONTINUOUS
 62
     0
100
AcDbLine
 10
0.0
 20
0.0
 30
0.0
 11
-1.0
 21
-0.166666667
 31
0.0
  0
ENDBLK
  5
4F
330
4D
100
AcDbEntity
  8
0
100
AcDbBlockEnd
  0
BLOCK
  5
51
330
50
100
AcDbEntity
  8
0
100
AcDbBlockBegin
  2
EX_BNORM
 70
     0
 10
0.0
 20
0.0
 30
0.0
  3
EX_BNORM
  1

  0
LINE
  5
7A
330
50
100
AcDbEntity
  8
0
  6
CONTINUOUS
 62
     0
100
AcDbLine
 10
0.0
 20
0.0
 30
0.0
 11
-1.0
 21
0.0
 31
0.0
  0
LINE
  5
7B
330
50
100
AcDbEntity
  8
0
  6
CONTINUOUS
 62
     0
100
AcDbLine
 10
0.0
 20
0.0
 30
0.0
 11
-1.0
 21
0.166666667
 31
0.0
  0
LINE
  5
7C
330
50
100
AcDbEntity
  8
0
  6
CONTINUOUS
 62
     0
100
AcDbLine
 10
0.0
 20
0.0
 30
0.0
 11
-1.0
 21
-0.166666667
 31
0.0
  0
LINE
  5
7D
330
50
100
AcDbEntity
  8
0
  6
CONTINUOUS
 62
     0
100
AcDbLine
 10
0.0
 20
0.0
 30
0.0
 11
-1.0
 21
0.083333333
 31
0.0
  0
LINE
  5
7E
330
50
100
AcDbEntity
  8
0
  6
CONTINUOUS
 62
     0
100
AcDbLine
 10
0.0
 20
0.0
 30
0.0
 11
-1.0
 21
-0.083333333
 31
0.0
  0
LINE
  5
7F
330
50
100
AcDbEntity
  8
0
  6
CONTINUOUS
 62
     0
100
AcDbLine
 10
-1.0
 20
0.166666667
 30
0.0
 11
-1.0
 21
-0.166666667
 31
0.0
  0
ENDBLK
  5
52
330
50
100
AcDbEntity
  8
0
100
AcDbBlockEnd
  0
BLOCK
  5
54
330
53
100
AcDbEntity
  8
0
100
AcDbBlockBegin
  2
EX_BCIR
 70
     0
 10
0.0
 20
0.0
 30
0.0
  3
EX_BCIR
  1

  0
LINE
  5
80
330
53
100
AcDbEntity
  8
0
  6
CONTINUOUS
 62
     0
100
AcDbLine
 10
0.0
 20
0.0
 30
0.0
 11
-1.0
 21
0.0
 31
0.0
  0
CIRCLE
  5
81
330
53
100
AcDbEntity
  8
0
  6
CONTINUOUS
 62
     0
100
AcDbCircle
 10
0.0
 20
0.0
 30
0.0
 40
0.5
  0
CIRCLE
  5
82
330
53
100
AcDbEntity
  8
0
  6
CONTINUOUS
 62
     0
100
AcDbCircle
 10
0.0
 20
0.0
 30
0.0
 40
0.25
  0
ENDBLK
  5
55
330
53
100
AcDbEntity
  8
0
100
AcDbBlockEnd
  0
BLOCK
  5
57
330
56
100
AcDbEntity
  8
0
100
AcDbBlockBegin
  2
EX_RCIVIL
 70
     0
 10
0.0
 20
0.0
 30
0.0
  3
EX_RCIVIL
  1

  0
LINE
  5
83
330
56
100
AcDbEntity
  8
0
  6
CONTINUOUS
 62
     0
100
AcDbLine
 10
0.0
 20
0.0
 30
0.0
 11
-1.0
 21
0.0
 31
0.0
  0
LINE
  5
84
330
56
100
AcDbEntity
  8
0
  6
CONTINUOUS
 62
     0
100
AcDbLine
 10
-1.0
 20
-0.25
 30
0.0
 11
0.0
 21
-0.25
 31
0.0
  0
LINE
  5
85
330
56
100
AcDbEntity
  8
0
  6
CONTINUOUS
 62
     0
100
AcDbLine
 10
-1.0
 20
-0.125
 30
0.0
 11
0.0
 21
-0.125
 31
0.0
  0
ENDBLK
  5
58
330
56
100
AcDbEntity
  8
0
100
AcDbBlockEnd
  0
BLOCK
  5
5A
330
59
100
AcDbEntity
  8
0
100
AcDbBlockBegin
  2
EX_SLANT
 70
     0
 10
0.0
 20
0.0
 30
0.0
  3
EX_SLANT
  1

  0
LINE
  5
86
330
59
100
AcDbEntity
  8
0
  6
CONTINUOUS
 62
     0
100
AcDbLine
 10
0.0
 20
0.0
 30
0.0
 11
-1.0
 21
0.0
 31
0.0
  0
LINE
  5
87
330
59
100
AcDbEntity
  8
0
  6
CONTINUOUS
 62
     0
100
AcDbLine
 10
0.707106781
 20
0.707106781
 30
0.0
 11
-0.707106781
 21
-0.707106781
 31
0.0
  0
ENDBLK
  5
5B
330
59
100
AcDbEntity
  8
0
100
AcDbBlockEnd
  0
BLOCK
  5
5D
330
5C
100
AcDbEntity
  8
0
100
AcDbBlockBegin
  2
EX_NONE
 70
     0
 10
0.0
 20
0.0
 30
0.0
  3
EX_NONE
  1

  0
LINE
  5
88
330
5C
100
AcDbEntity
  8
0
  6
CONTINUOUS
 62
     0
100
AcDbLine
 10
0.0
 20
0.0
 30
0.0
 11
-1.0
 21
0.0
 31
0.0
  0
ENDBLK
  5
5E
330
5C
100
AcDbEntity
  8
0
100
AcDbBlockEnd
  0
BLOCK
  5
60
330
5F
100
AcDbEntity
  8
0
100
AcDbBlockBegin
  2
EX_CIVIL
 70
     0
 10
0.0
 20
0.0
 30
0.0
  3
EX_CIVIL
  1

  0
LINE
  5
89
330
5F
100
AcDbEntity
  8
0
  6
CONTINUOUS
 62
     0
100
AcDbLine
 10
0.0
 20
0.0
 30
0.0
 11
-1.0
 21
0.0
 31
0.0
  0
LINE
  5
8A
330
5F
100
AcDbEntity
  8
0
  6
CONTINUOUS
 62
     0
100
AcDbLine
 10
-1.0
 20
0.25
 30
0.0
 11
0.0
 21
0.25
 31
0.0
  0
LINE
  5
8B
330
5F
100
AcDbEntity
  8
0
  6
CONTINUOUS
 62
     0
100
AcDbLine
 10
-1.0
 20
0.125
 30
0.0
 11
0.0
 21
0.125
 31
0.0
  0
ENDBLK
  5
61
330
5F
100
AcDbEntity
  8
0
100
AcDbBlockEnd
  0
BLOCK
  5
63
330
62
100
AcDbEntity
  8
0
100
AcDbBlockBegin
  2
EX_WCIR
 70
     0
 10
0.0
 20
0.0
 30
0.0
  3
EX_WCIR
  1

  0
LINE
  5
8C
330
62
100
AcDbEntity
  8
0
  6
CONTINUOUS
 62
     0
100
AcDbLine
 10
0.0
 20
0.0
 30
0.0
 11
-1.0
 21
0.0
 31
0.0
  0
CIRCLE
  5
8D
330
62
100
AcDbEntity
  8
0
  6
CONTINUOUS
 62
     0
100
AcDbCircle
 10
0.0
 20
0.0
 30
0.0
 40
0.5
  0
ENDBLK
  5
64
330
62
100
AcDbEntity
  8
0
100
AcDbBlockEnd
  0
BLOCK
  5
66
330
65
100
AcDbEntity
  8
0
100
AcDbBlockBegin
  2
EX_WCIR2
 70
     0
 10
0.0
 20
0.0
 30
0.0
  3
EX_WCIR2
  1

  0
LINE
  5
8E
330
65
100
AcDbEntity
  8
0
  6
CONTINUOUS
 62
     0
100
AcDbLine
 10
-0.5
 20
0.0
 30
0.0
 11
-1.0
 21
0.0
 31
0.0
  0
CIRCLE
  5
8F
330
65
100
AcDbEntity
  8
0
  6
CONTINUOUS
 62
     0
100
AcDbCircle
 10
0.0
 20
0.0
 30
0.0
 40
0.5
  0
ENDBLK
  5
67
330
65
100
AcDbEntity
  8
0
100
AcDbBlockEnd
  0
BLOCK
  5
69
330
68
100
AcDbEntity
  8
0
100
AcDbBlockBegin
  2
EX_WNORM
 70
     0
 10
0.0
 20
0.0
 30
0.0
  3
EX_WNORM
  1

  0
LINE
  5
90
330
68
100
AcDbEntity
  8
0
  6
CONTINUOUS
 62
     0
100
AcDbLine
 10
-1.0
 20
0.0
 30
0.0
 11
-1.0
 21
0.0
 31
0.0
  0
LINE
  5
91
330
68
100
AcDbEntity
  8
0
  6
CONTINUOUS
 62
     0
100
AcDbLine
 10
0.0
 20
0.0
 30
0.0
 11
-1.0
 21
0.166666667
 31
0.0
  0
LINE
  5
92
330
68
100
AcDbEntity
  8
0
  6
CONTINUOUS
 62
     0
100
AcDbLine
 10
0.0
 20
0.0
 30
0.0
 11
-1.0
 21
-0.166666667
 31
0.0
  0
LINE
  5
93
330
68
100
AcDbEntity
  8
0
  6
CONTINUOUS
 62
     0
100
AcDbLine
 10
-1.0
 20
0.166666667
 30
0.0
 11
-1.0
 21
-0.166666667
 31
0.0
  0
ENDBLK
  5
6A
330
68
100
AcDbEntity
  8
0
100
AcDbBlockEnd
  0
BLOCK
  5
6C
330
6B
100
AcDbEntity
  8
0
100
AcDbBlockBegin
  2
EX_NNORM
 70
     0
 10
0.0
 20
0.0
 30
0.0
  3
EX_NNORM
  1

  0
LINE
  5
94
330
6B
100
AcDbEntity
  8
0
  6
CONTINUOUS
 62
     0
100
AcDbLine
 10
0.0
 20
0.0
 30
0.0
 11
-1.0
 21
0.0
 31
0.0
  0
LINE
  5
95
330
6B
100
AcDbEntity
  8
0
  6
CONTINUOUS
 62
     0
100
AcDbLine
 10
0.0
 20
0.0
 30
0.0
 11
-1.0
 21
0.166666667
 31
0.0
  0
LINE
  5
96
330
6B
100
AcDbEntity
  8
0
  6
CONTINUOUS
 62
     0
100
AcDbLine
 10
0.0
 20
0.0
 30
0.0
 11
-1.0
 21
-0.166666667
 31
0.0
  0
LINE
  5
97
330
6B
100
AcDbEntity
  8
0
  6
CONTINUOUS
 62
     0
100
AcDbLine
 10
-1.0
 20
0.166666667
 30
0.0
 11
-1.0
 21
-0.166666667
 31
0.0
  0
ENDBLK
  5
6D
330
6B
100
AcDbEntity
  8
0
100
AcDbBlockEnd
  0
BLOCK
  5
6F
330
6E
100
AcDbEntity
  8
0
100
AcDbBlockBegin
  2
EX_BBOX
 70
     0
 10
0.0
 20
0.0
 30
0.0
  3
EX_BBOX
  1

  0
LINE
  5
98
330
6E
100
AcDbEntity
  8
0
  6
CONTINUOUS
 62
     0
100
AcDbLine
 10
0.0
 20
0.0
 30
0.0
 11
-1.0
 21
0.0
 31
0.0
  0
LINE
  5
99
330
6E
100
AcDbEntity
  8
0
  6
CONTINUOUS
 62
     0
100
AcDbLine
 10
-0.5
 20
0.5
 30
0.0
 11
0.5
 21
0.5
 31
0.0
  0
LINE
  5
9A
330
6E
100
AcDbEntity
  8
0
  6
CONTINUOUS
 62
     0
100
AcDbLine
 10
0.5
 20
0.5
 30
0.0
 11
0.5
 21
-0.5
 31
0.0
  0
LINE
  5
9B
330
6E
100
AcDbEntity
  8
0
  6
CONTINUOUS
 62
     0
100
AcDbLine
 10
0.5
 20
-0.5
 30
0.0
 11
-0.5
 21
-0.5
 31
0.0
  0
LINE
  5
9C
330
6E
100
AcDbEntity
  8
0
  6
CONTINUOUS
 62
     0
100
AcDbLine
 10
-0.5
 20
-0.5
 30
0.0
 11
-0.5
 21
0.5
 31
0.0
  0
LINE
  5
9D
330
6E
100
AcDbEntity
  8
0
  6
CONTINUOUS
 62
     0
100
AcDbLine
 10
-0.25
 20
0.25
 30
0.0
 11
0.25
 21
0.25
 31
0.0
  0
LINE
  5
9E
330
6E
100
AcDbEntity
  8
0
  6
CONTINUOUS
 62
     0
100
AcDbLine
 10
0.25
 20
0.25
 30
0.0
 11
0.25
 21
-0.25
 31
0.0
  0
LINE
  5
9F
330
6E
100
AcDbEntity
  8
0
  6
CONTINUOUS
 62
     0
100
AcDbLine
 10
0.25
 20
-0.25
 30
0.0
 11
-0.25
 21
-0.25
 31
0.0
  0
LINE
  5
A0
330
6E
100
AcDbEntity
  8
0
  6
CONTINUOUS
 62
     0
100
AcDbLine
 10
-0.25
 20
-0.25
 30
0.0
 11
-0.25
 21
0.25
 31
0.0
  0
ENDBLK
  5
70
330
6E
100
AcDbEntity
  8
0
100
AcDbBlockEnd
  0
BLOCK
  5
72
330
71
100
AcDbEntity
  8
0
100
AcDbBlockBegin
  2
EX_WBOX
 70
     0
 10
0.0
 20
0.0
 30
0.0
  3
EX_WBOX
  1

  0
LINE
  5
A1
330
71
100
AcDbEntity
  8
0
  6
CONTINUOUS
 62
     0
100
AcDbLine
 10
-0.5
 20
0.0
 30
0.0
 11
-1.0
 21
0.0
 31
0.0
  0
LINE
  5
A2
330
71
100
AcDbEntity
  8
0
  6
CONTINUOUS
 62
     0
100
AcDbLine
 10
-0.5
 20
0.5
 30
0.0
 11
0.5
 21
0.5
 31
0.0
  0
LINE
  5
A3
330
71
100
AcDbEntity
  8
0
  6
CONTINUOUS
 62
     0
100
AcDbLine
 10
0.5
 20
0.5
 30
0.0
 11
0.5
 21
-0.5
 31
0.0
  0
LINE
  5
A4
330
71
100
AcDbEntity
  8
0
  6
CONTINUOUS
 62
     0
100
AcDbLine
 10
0.5
 20
-0.5
 30
0.0
 11
-0.5
 21
-0.5
 31
0.0
  0
LINE
  5
A5
330
71
100
AcDbEntity
  8
0
  6
CONTINUOUS
 62
     0
100
AcDbLine
 10
-0.5
 20
-0.5
 30
0.0
 11
-0.5
 21
0.5
 31
0.0
  0
ENDBLK
  5
73
330
71
100
AcDbEntity
  8
0
100
AcDbBlockEnd
  0
BLOCK
  5
75
330
74
100
AcDbEntity
  8
0
100
AcDbBlockBegin
  2
EX_INTEGRAL
 70
     0
 10
0.0
 20
0.0
 30
0.0
  3
EX_INTEGRAL
  1

  0
LINE
  5
A6
330
74
100
AcDbEntity
  8
0
  6
CONTINUOUS
 62
     0
100
AcDbLine
 10
0.0
 20
0.0
 30
0.0
 11
-1.0
 21
0.0
 31
0.0
  0
ARC
  5
A7
330
74
100
AcDbEntity
  8
0
  6
CONTINUOUS
 62
     0
100
AcDbCircle
 10
0.542115
 20
0.164992
 30
0.0
 40
0.56667
100
AcDbArc
 50
73.07249033629006
 51
196.9275130221199
  0
ARC
  5
A8
330
74
100
AcDbEntity
  8
0
  6
CONTINUOUS
 62
     0
100
AcDbCircle
 10
-0.542115
 20
-0.164992
 30
0.0
 40
0.56667
100
AcDbArc
 50
253.0724869220464
 51
16.9275130559125
  0
ENDBLK
  5
76
330
74
100
AcDbEntity
  8
0
100
AcDbBlockEnd
  0
BLOCK
  5
30B
330
30A
100
AcDbEntity
  8
0
100
AcDbBlockBegin
  2
*D15
 70
     1
 10
0.0
 20
0.0
 30
0.0
  3
*D15
  1

  0
LINE
  5
30D
330
30A
100
AcDbEntity
  8
化粧台
  6
CONTINUOUS
 62
     3
100
AcDbLine
 10
1322.499999821283
 20
1254.0000000001
 30
0.0
 11
1507.5
 21
1254.0000000001
 31
0.0
  0
LINE
  5
30E
330
30A
100
AcDbEntity
  8
化粧台
  6
CONTINUOUS
 62
     3
100
AcDbLine
 10
1035.499999821284
 20
2004.0000000001
 30
0.0
 11
1507.5
 21
2004.0000000001
 31
0.0
  0
LINE
  5
30F
330
30A
100
AcDbEntity
  8
化粧台
  6
CONTINUOUS
 62
     3
100
AcDbLine
 10
1492.5
 20
1298.999996185403
 30
0.0
 11
1492.5
 21
1959.000003814797
 31
0.0
  0
INSERT
  5
310
330
30A
100
AcDbEntity
  8
化粧台
 62
     3
100
AcDbBlockReference
  2
EX_NORM
 10
1492.5
 20
1254.0000000001
 30
0.0
 41
44.99999618530273
 42
44.99999618530273
 43
44.99999618530273
 50
270.0
  0
INSERT
  5
311
330
30A
100
AcDbEntity
  8
化粧台
 62
     3
100
AcDbBlockReference
  2
EX_NORM
 10
1492.5
 20
2004.0000000001
 30
0.0
 41
44.99999618530273
 42
44.99999618530273
 43
44.99999618530273
 50
90.0
  0
MTEXT
  5
312
330
30A
100
AcDbEntity
  8
化粧台
 62
     2
100
AcDbMText
 10
1457.250000089407
 20
1629.000000000099
 30
0.0
 40
59.99999618530273
 41
0.0
 71
     5
 72
     1
  1
750
  7
EXCADDIM1
 11
0.0
 21
1.0
 31
0.0
  0
POINT
  5
313
330
30A
100
AcDbEntity
  8
DEFPOINTS
 62
     0
100
AcDbPoint
 10
1312.000000000097
 20
1254.0000000001
 30
0.0
  0
POINT
  5
314
330
30A
100
AcDbEntity
  8
DEFPOINTS
 62
     0
100
AcDbPoint
 10
1025.000000000098
 20
2004.0000000001
 30
0.0
  0
POINT
  5
315
330
30A
100
AcDbEntity
  8
DEFPOINTS
 62
     0
100
AcDbPoint
 10
1492.5
 20
2004.0000000001
 30
0.0
  0
ENDBLK
  5
30C
330
30A
100
AcDbEntity
  8
0
100
AcDbBlockEnd
  0
BLOCK
  5
318
330
317
100
AcDbEntity
  8
0
100
AcDbBlockBegin
  2
*D16
 70
     1
 10
0.0
 20
0.0
 30
0.0
  3
*D16
  1

  0
LINE
  5
31A
330
317
100
AcDbEntity
  8
化粧台
  6
CONTINUOUS
 62
     3
100
AcDbLine
 10
725.0000000001785
 20
3023.999999977687
 30
0.0
 11
725.0000000001785
 21
2826.0
 31
0.0
  0
LINE
  5
31B
330
317
100
AcDbEntity
  8
化粧台
  6
CONTINUOUS
 62
     3
100
AcDbLine
 10
1325.000000000137
 20
3023.999999977687
 30
0.0
 11
1325.000000000137
 21
2826.0
 31
0.0
  0
LINE
  5
31C
330
317
100
AcDbEntity
  8
化粧台
  6
CONTINUOUS
 62
     3
100
AcDbLine
 10
769.9999961854812
 20
2841.0
 30
0.0
 11
1280.000003814834
 21
2841.0
 31
0.0
  0
INSERT
  5
31D
330
317
100
AcDbEntity
  8
化粧台
 62
     3
100
AcDbBlockReference
  2
EX_NORM
 10
725.0000000001785
 20
2841.0
 30
0.0
 41
44.99999618530273
 42
44.99999618530273
 43
44.99999618530273
 50
180.0
  0
INSERT
  5
31E
330
317
100
AcDbEntity
  8
化粧台
 62
     3
100
AcDbBlockReference
  2
EX_NORM
 10
1325.000000000137
 20
2841.0
 30
0.0
 41
44.99999618530273
 42
44.99999618530273
 43
44.99999618530273
  0
MTEXT
  5
31F
330
317
100
AcDbEntity
  8
化粧台
 62
     2
100
AcDbMText
 10
1025.000000000158
 20
2876.249999910593
 30
0.0
 40
59.99999618530273
 41
0.0
 71
     5
 72
     1
  1
600
  7
EXCADDIM1
  0
POINT
  5
320
330
317
100
AcDbEntity
  8
DEFPOINTS
 62
     0
100
AcDbPoint
 10
725.0000000001785
 20
3025.500000000039
 30
0.0
  0
POINT
  5
321
330
317
100
AcDbEntity
  8
DEFPOINTS
 62
     0
100
AcDbPoint
 10
1325.000000000137
 20
3025.500000000039
 30
0.0
  0
POINT
  5
322
330
317
100
AcDbEntity
  8
DEFPOINTS
 62
     0
100
AcDbPoint
 10
1325.000000000137
 20
2841.0
 30
0.0
  0
ENDBLK
  5
319
330
317
100
AcDbEntity
  8
0
100
AcDbBlockEnd
  0
BLOCK
  5
325
330
324
100
AcDbEntity
  8
0
100
AcDbBlockBegin
  2
*D17
 70
     1
 10
0.0
 20
0.0
 30
0.0
  3
*D17
  1

  0
LINE
  5
327
330
324
100
AcDbEntity
  8
化粧台
  6
CONTINUOUS
 62
     3
100
AcDbLine
 10
1330.499999821323
 20
3061.000000000039
 30
0.0
 11
1518.0
 21
3061.000000000039
 31
0.0
  0
LINE
  5
328
330
324
100
AcDbEntity
  8
化粧台
  6
CONTINUOUS
 62
     3
100
AcDbLine
 10
1503.0
 20
3316.000003814736
 30
0.0
 11
1503.0
 21
3105.999996185342
 31
0.0
  0
INSERT
  5
329
330
324
100
AcDbEntity
  8
化粧台
 62
     3
100
AcDbBlockReference
  2
EX_NORM
 10
1503.0
 20
3361.000000000039
 30
0.0
 41
44.99999618530273
 42
44.99999618530273
 43
44.99999618530273
 50
90.0
  0
INSERT
  5
32A
330
324
100
AcDbEntity
  8
化粧台
 62
     3
100
AcDbBlockReference
  2
EX_NORM
 10
1503.0
 20
3061.000000000039
 30
0.0
 41
44.99999618530273
 42
44.99999618530273
 43
44.99999618530273
 50
270.0
  0
MTEXT
  5
32B
330
324
100
AcDbEntity
  8
化粧台
 62
     2
100
AcDbMText
 10
1467.750000089408
 20
3211.000000000039
 30
0.0
 40
59.99999618530273
 41
0.0
 71
     5
 72
     1
  1
300
  7
EXCADDIM1
 11
0.0
 21
1.0
 31
0.0
  0
POINT
  5
32C
330
324
100
AcDbEntity
  8
DEFPOINTS
 62
     0
100
AcDbPoint
 10
1325.000000000137
 20
3361.000000000039
 30
0.0
  0
POINT
  5
32D
330
324
100
AcDbEntity
  8
DEFPOINTS
 62
     0
100
AcDbPoint
 10
1320.000000000137
 20
3061.000000000039
 30
0.0
  0
POINT
  5
32E
330
324
100
AcDbEntity
  8
DEFPOINTS
 62
     0
100
AcDbPoint
 10
1503.0
 20
3061.000000000039
 30
0.0
  0
ENDBLK
  5
326
330
324
100
AcDbEntity
  8
0
100
AcDbBlockEnd
  0
BLOCK
  5
331
330
330
100
AcDbEntity
  8
0
100
AcDbBlockBegin
  2
*D18
 70
     1
 10
0.0
 20
0.0
 30
0.0
  3
*D18
  1

  0
LINE
  5
333
330
330
100
AcDbEntity
  8
化粧台
  6
CONTINUOUS
 62
     3
100
AcDbLine
 10
1035.499999821324
 20
3361.0
 30
0.0
 11
1611.0
 21
3361.0
 31
0.0
  0
LINE
  5
334
330
330
100
AcDbEntity
  8
化粧台
  6
CONTINUOUS
 62
     3
100
AcDbLine
 10
1035.499999821324
 20
2991.0
 30
0.0
 11
1611.0
 21
2991.0
 31
0.0
  0
LINE
  5
335
330
330
100
AcDbEntity
  8
化粧台
  6
CONTINUOUS
 62
     3
100
AcDbLine
 10
1596.0
 20
3316.000003814697
 30
0.0
 11
1596.0
 21
3035.999996185302
 31
0.0
  0
INSERT
  5
336
330
330
100
AcDbEntity
  8
化粧台
 62
     3
100
AcDbBlockReference
  2
EX_NORM
 10
1596.0
 20
3361.0
 30
0.0
 41
44.99999618530273
 42
44.99999618530273
 43
44.99999618530273
 50
90.0
  0
INSERT
  5
337
330
330
100
AcDbEntity
  8
化粧台
 62
     3
100
AcDbBlockReference
  2
EX_NORM
 10
1596.0
 20
2991.0
 30
0.0
 41
44.99999618530273
 42
44.99999618530273
 43
44.99999618530273
 50
270.0
  0
MTEXT
  5
338
330
330
100
AcDbEntity
  8
化粧台
 62
     2
100
AcDbMText
 10
1558.500000000001
 20
3176.0
 30
0.0
 40
59.99999618530273
 41
0.0
 71
     5
 72
     1
  1
370
  7
EXCADDIM1
 11
0.0
 21
1.0
 31
0.0
  0
POINT
  5
339
330
330
100
AcDbEntity
  8
DEFPOINTS
 62
     0
100
AcDbPoint
 10
1025.000000000138
 20
3361.0
 30
0.0
  0
POINT
  5
33A
330
330
100
AcDbEntity
  8
DEFPOINTS
 62
     0
100
AcDbPoint
 10
1025.000000000138
 20
2991.0
 30
0.0
  0
POINT
  5
33B
330
330
100
AcDbEntity
  8
DEFPOINTS
 62
     0
100
AcDbPoint
 10
1596.0
 20
2991.0
 30
0.0
  0
ENDBLK
  5
332
330
330
100
AcDbEntity
  8
0
100
AcDbBlockEnd
  0
BLOCK
  5
33F
330
33E
100
AcDbEntity
  8
0
100
AcDbBlockBegin
  2
*D19
 70
     1
 10
0.0
 20
0.0
 30
0.0
  3
*D19
  1

  0
LINE
  5
341
330
33E
100
AcDbEntity
  8
化粧台
  6
CONTINUOUS
 62
     3
100
AcDbLine
 10
1145.000000000136
 20
1216.500000178774
 30
0.0
 11
1145.000000000136
 21
1072.5
 31
0.0
  0
LINE
  5
342
330
33E
100
AcDbEntity
  8
化粧台
  6
CONTINUOUS
 62
     3
100
AcDbLine
 10
1235.000000000136
 20
1216.500000178814
 30
0.0
 11
1235.000000000136
 21
1072.5
 31
0.0
  0
LINE
  5
343
330
33E
100
AcDbEntity
  8
化粧台
  6
CONTINUOUS
 62
     3
100
AcDbLine
 10
1189.999996185439
 20
1087.5
 30
0.0
 11
1190.000003814833
 21
1087.5
 31
0.0
  0
INSERT
  5
344
330
33E
100
AcDbEntity
  8
化粧台
 62
     3
100
AcDbBlockReference
  2
EX_NORM
 10
1145.000000000136
 20
1087.5
 30
0.0
 41
44.99999618530273
 42
44.99999618530273
 43
44.99999618530273
 50
180.0
  0
INSERT
  5
345
330
33E
100
AcDbEntity
  8
化粧台
 62
     3
100
AcDbBlockReference
  2
EX_NORM
 10
1235.000000000136
 20
1087.5
 30
0.0
 41
44.99999618530273
 42
44.99999618530273
 43
44.99999618530273
  0
MTEXT
  5
346
330
33E
100
AcDbEntity
  8
化粧台
 62
     2
100
AcDbMText
 10
1471.99999928488
 20
1125.0
 30
0.0
 40
59.99999618530273
 41
0.0
 71
     5
 72
     1
  1
  90（床給水）
  7
EXCADDIM1
  0
POINT
  5
347
330
33E
100
AcDbEntity
  8
DEFPOINTS
 62
     0
100
AcDbPoint
 10
1145.000000000136
 20
1226.99999999996
 30
0.0
  0
POINT
  5
348
330
33E
100
AcDbEntity
  8
DEFPOINTS
 62
     0
100
AcDbPoint
 10
1235.000000000136
 20
1227.0
 30
0.0
  0
POINT
  5
349
330
33E
100
AcDbEntity
  8
DEFPOINTS
 62
     0
100
AcDbPoint
 10
1235.000000000136
 20
1087.5
 30
0.0
  0
ENDBLK
  5
340
330
33E
100
AcDbEntity
  8
0
100
AcDbBlockEnd
  0
BLOCK
  5
34C
330
34B
100
AcDbEntity
  8
0
100
AcDbBlockBegin
  2
*D20
 70
     1
 10
0.0
 20
0.0
 30
0.0
  3
*D20
  1

  0
LINE
  5
34E
330
34B
100
AcDbEntity
  8
化粧台
  6
CONTINUOUS
 62
     3
100
AcDbLine
 10
1025.000000000136
 20
1182.000000178814
 30
0.0
 11
1025.000000000136
 21
1072.5
 31
0.0
  0
LINE
  5
34F
330
34B
100
AcDbEntity
  8
化粧台
  6
CONTINUOUS
 62
     3
100
AcDbLine
 10
1145.000000000136
 20
1216.500000178774
 30
0.0
 11
1145.000000000136
 21
1072.5
 31
0.0
  0
LINE
  5
350
330
34B
100
AcDbEntity
  8
化粧台
  6
CONTINUOUS
 62
     3
100
AcDbLine
 10
1069.999996185439
 20
1087.5
 30
0.0
 11
1100.000003814833
 21
1087.5
 31
0.0
  0
INSERT
  5
351
330
34B
100
AcDbEntity
  8
化粧台
 62
     3
100
AcDbBlockReference
  2
EX_NORM
 10
1025.000000000136
 20
1087.5
 30
0.0
 41
44.99999618530273
 42
44.99999618530273
 43
44.99999618530273
 50
180.0
  0
INSERT
  5
352
330
34B
100
AcDbEntity
  8
化粧台
 62
     3
100
AcDbBlockReference
  2
EX_NORM
 10
1145.000000000136
 20
1087.5
 30
0.0
 41
44.99999618530273
 42
44.99999618530273
 43
44.99999618530273
  0
MTEXT
  5
353
330
34B
100
AcDbEntity
  8
化粧台
 62
     2
100
AcDbMText
 10
1085.000000000136
 20
1125.0
 30
0.0
 40
59.99999618530273
 41
0.0
 71
     5
 72
     1
  1
120
  7
EXCADDIM1
  0
POINT
  5
354
330
34B
100
AcDbEntity
  8
DEFPOINTS
 62
     0
100
AcDbPoint
 10
1025.000000000136
 20
1192.5
 30
0.0
  0
POINT
  5
355
330
34B
100
AcDbEntity
  8
DEFPOINTS
 62
     0
100
AcDbPoint
 10
1145.000000000136
 20
1226.99999999996
 30
0.0
  0
POINT
  5
356
330
34B
100
AcDbEntity
  8
DEFPOINTS
 62
     0
100
AcDbPoint
 10
1145.000000000136
 20
1087.5
 30
0.0
  0
ENDBLK
  5
34D
330
34B
100
AcDbEntity
  8
0
100
AcDbBlockEnd
  0
BLOCK
  5
35C
330
35B
100
AcDbEntity
  8
0
100
AcDbBlockBegin
  2
*D21
 70
     1
 10
0.0
 20
0.0
 30
0.0
  3
*D21
  1

  0
LINE
  5
35E
330
35B
100
AcDbEntity
  8
化粧台
  6
CONTINUOUS
 62
     3
100
AcDbLine
 10
2268.500000000096
 20
1243.500000178814
 30
0.0
 11
2268.500000000096
 21
933.0
 31
0.0
  0
LINE
  5
35F
330
35B
100
AcDbEntity
  8
化粧台
  6
CONTINUOUS
 62
     3
100
AcDbLine
 10
2528.000000000097
 20
1243.500000178814
 30
0.0
 11
2528.000000000097
 21
933.0
 31
0.0
  0
LINE
  5
360
330
35B
100
AcDbEntity
  8
化粧台
  6
CONTINUOUS
 62
     3
100
AcDbLine
 10
2313.499996185399
 20
948.0
 30
0.0
 11
2483.000003814794
 21
948.0
 31
0.0
  0
INSERT
  5
361
330
35B
100
AcDbEntity
  8
化粧台
 62
     3
100
AcDbBlockReference
  2
EX_NORM
 10
2268.500000000096
 20
948.0
 30
0.0
 41
44.99999618530273
 42
44.99999618530273
 43
44.99999618530273
 50
180.0
  0
INSERT
  5
362
330
35B
100
AcDbEntity
  8
化粧台
 62
     3
100
AcDbBlockReference
  2
EX_NORM
 10
2528.000000000097
 20
948.0
 30
0.0
 41
44.99999618530273
 42
44.99999618530273
 43
44.99999618530273
  0
MTEXT
  5
363
330
35B
100
AcDbEntity
  8
化粧台
 62
     2
100
AcDbMText
 10
2398.250000000096
 20
985.5
 30
0.0
 40
59.99999618530273
 41
0.0
 71
     5
 72
     1
  1
260
  7
EXCADDIM1
  0
POINT
  5
364
330
35B
100
AcDbEntity
  8
DEFPOINTS
 62
     0
100
AcDbPoint
 10
2268.500000000096
 20
1254.0
 30
0.0
  0
POINT
  5
365
330
35B
100
AcDbEntity
  8
DEFPOINTS
 62
     0
100
AcDbPoint
 10
2528.000000000097
 20
1254.0
 30
0.0
  0
POINT
  5
366
330
35B
100
AcDbEntity
  8
DEFPOINTS
 62
     0
100
AcDbPoint
 10
2528.000000000097
 20
948.0
 30
0.0
  0
ENDBLK
  5
35D
330
35B
100
AcDbEntity
  8
0
100
AcDbBlockEnd
  0
BLOCK
  5
369
330
368
100
AcDbEntity
  8
0
100
AcDbBlockBegin
  2
*D22
 70
     1
 10
0.0
 20
0.0
 30
0.0
  3
*D22
  1

  0
LINE
  5
36B
330
368
100
AcDbEntity
  8
化粧台
  6
CONTINUOUS
 62
     3
100
AcDbLine
 10
2548.999999642482
 20
1254.0
 30
0.0
 11
2721.0
 21
1254.0
 31
0.0
  0
LINE
  5
36C
330
368
100
AcDbEntity
  8
化粧台
  6
CONTINUOUS
 62
     3
100
AcDbLine
 10
2561.500005543282
 20
1574.0
 30
0.0
 11
2721.0
 21
1574.0
 31
0.0
  0
LINE
  5
36D
330
368
100
AcDbEntity
  8
化粧台
  6
CONTINUOUS
 62
     3
100
AcDbLine
 10
2706.0
 20
1298.999996185303
 30
0.0
 11
2706.0
 21
1529.000003814697
 31
0.0
  0
INSERT
  5
36E
330
368
100
AcDbEntity
  8
化粧台
 62
     3
100
AcDbBlockReference
  2
EX_NORM
 10
2706.0
 20
1254.0
 30
0.0
 41
44.99999618530273
 42
44.99999618530273
 43
44.99999618530273
 50
270.0
  0
INSERT
  5
36F
330
368
100
AcDbEntity
  8
化粧台
 62
     3
100
AcDbBlockReference
  2
EX_NORM
 10
2706.0
 20
1574.0
 30
0.0
 41
44.99999618530273
 42
44.99999618530273
 43
44.99999618530273
 50
90.0
  0
MTEXT
  5
370
330
368
100
AcDbEntity
  8
化粧台
 62
     2
100
AcDbMText
 10
2668.5
 20
1413.999999999999
 30
0.0
 40
59.99999618530273
 41
0.0
 71
     5
 72
     1
  1
　320（壁給水）
  7
EXCADDIM1
 11
0.0
 21
1.0
 31
0.0
  0
POINT
  5
371
330
368
100
AcDbEntity
  8
DEFPOINTS
 62
     0
100
AcDbPoint
 10
2538.499999821296
 20
1254.0
 30
0.0
  0
POINT
  5
372
330
368
100
AcDbEntity
  8
DEFPOINTS
 62
     0
100
AcDbPoint
 10
2551.000005722095
 20
1574.0
 30
0.0
  0
POINT
  5
373
330
368
100
AcDbEntity
  8
DEFPOINTS
 62
     0
100
AcDbPoint
 10
2706.0
 20
1574.0
 30
0.0
  0
ENDBLK
  5
36A
330
368
100
AcDbEntity
  8
0
100
AcDbBlockEnd
  0
BLOCK
  5
376
330
375
100
AcDbEntity
  8
0
100
AcDbBlockBegin
  2
*D23
 70
     1
 10
0.0
 20
0.0
 30
0.0
  3
*D23
  1

  0
LINE
  5
378
330
375
100
AcDbEntity
  8
化粧台
  6
CONTINUOUS
 62
     3
100
AcDbLine
 10
2548.999999642482
 20
1254.0
 30
0.0
 11
2820.0
 21
1254.0
 31
0.0
  0
LINE
  5
379
330
375
100
AcDbEntity
  8
化粧台
  6
CONTINUOUS
 62
     3
100
AcDbLine
 10
2567.249999821283
 20
1729.0
 30
0.0
 11
2820.0
 21
1729.0
 31
0.0
  0
LINE
  5
37A
330
375
100
AcDbEntity
  8
化粧台
  6
CONTINUOUS
 62
     3
100
AcDbLine
 10
2805.0
 20
1298.999996185303
 30
0.0
 11
2805.0
 21
1684.000003814697
 31
0.0
  0
INSERT
  5
37B
330
375
100
AcDbEntity
  8
化粧台
 62
     3
100
AcDbBlockReference
  2
EX_NORM
 10
2805.0
 20
1254.0
 30
0.0
 41
44.99999618530273
 42
44.99999618530273
 43
44.99999618530273
 50
270.0
  0
INSERT
  5
37C
330
375
100
AcDbEntity
  8
化粧台
 62
     3
100
AcDbBlockReference
  2
EX_NORM
 10
2805.0
 20
1729.0
 30
0.0
 41
44.99999618530273
 42
44.99999618530273
 43
44.99999618530273
 50
90.0
  0
MTEXT
  5
37D
330
375
100
AcDbEntity
  8
化粧台
 62
     2
100
AcDbMText
 10
2767.5
 20
1491.499999999999
 30
0.0
 40
59.99999618530273
 41
0.0
 71
     5
 72
     1
  1
475（壁排水）
  7
EXCADDIM1
 11
0.0
 21
1.0
 31
0.0
  0
POINT
  5
37E
330
375
100
AcDbEntity
  8
DEFPOINTS
 62
     0
100
AcDbPoint
 10
2538.499999821296
 20
1254.0
 30
0.0
  0
POINT
  5
37F
330
375
100
AcDbEntity
  8
DEFPOINTS
 62
     0
100
AcDbPoint
 10
2556.750000000097
 20
1729.0
 30
0.0
  0
POINT
  5
380
330
375
100
AcDbEntity
  8
DEFPOINTS
 62
     0
100
AcDbPoint
 10
2805.0
 20
1729.0
 30
0.0
  0
ENDBLK
  5
377
330
375
100
AcDbEntity
  8
0
100
AcDbBlockEnd
  0
BLOCK
  5
383
330
382
100
AcDbEntity
  8
0
100
AcDbBlockBegin
  2
*D24
 70
     1
 10
0.0
 20
0.0
 30
0.0
  3
*D24
  1

  0
LINE
  5
385
330
382
100
AcDbEntity
  8
化粧台
  6
CONTINUOUS
 62
     3
100
AcDbLine
 10
2443.000000000097
 20
1198.500000178814
 30
0.0
 11
2443.000000000097
 21
1071.0
 31
0.0
  0
LINE
  5
386
330
382
100
AcDbEntity
  8
化粧台
  6
CONTINUOUS
 62
     3
100
AcDbLine
 10
2528.000000000097
 20
1243.500000178814
 30
0.0
 11
2528.000000000097
 21
1071.0
 31
0.0
  0
LINE
  5
387
330
382
100
AcDbEntity
  8
化粧台
  6
CONTINUOUS
 62
     3
100
AcDbLine
 10
2443.000000000097
 20
1086.0
 30
0.0
 11
2528.000000000097
 21
1086.0
 31
0.0
  0
LINE
  5
388
330
382
100
AcDbEntity
  8
化粧台
  6
CONTINUOUS
 62
     3
100
AcDbLine
 10
2398.000003814794
 20
1086.0
 30
0.0
 11
2353.000007629491
 21
1086.0
 31
0.0
  0
LINE
  5
389
330
382
100
AcDbEntity
  8
化粧台
  6
CONTINUOUS
 62
     3
100
AcDbLine
 10
2572.9999961854
 20
1086.0
 30
0.0
 11
2617.999992370702
 21
1086.0
 31
0.0
  0
INSERT
  5
38A
330
382
100
AcDbEntity
  8
化粧台
 62
     3
100
AcDbBlockReference
  2
EX_NORM
 10
2443.000000000097
 20
1086.0
 30
0.0
 41
44.99999618530273
 42
44.99999618530273
 43
44.99999618530273
  0
INSERT
  5
38B
330
382
100
AcDbEntity
  8
化粧台
 62
     3
100
AcDbBlockReference
  2
EX_NORM
 10
2528.000000000097
 20
1086.0
 30
0.0
 41
44.99999618530273
 42
44.99999618530273
 43
44.99999618530273
 50
180.0
  0
MTEXT
  5
38C
330
382
100
AcDbEntity
  8
化粧台
 62
     2
100
AcDbMText
 10
2770.999997139074
 20
1123.5
 30
0.0
 40
59.99999618530273
 41
0.0
 71
     5
 72
     1
  1
85（床・給排水）
  7
EXCADDIM1
  0
POINT
  5
38D
330
382
100
AcDbEntity
  8
DEFPOINTS
 62
     0
100
AcDbPoint
 10
2443.000000000097
 20
1209.0
 30
0.0
  0
POINT
  5
38E
330
382
100
AcDbEntity
  8
DEFPOINTS
 62
     0
100
AcDbPoint
 10
2528.000000000097
 20
1254.0
 30
0.0
  0
POINT
  5
38F
330
382
100
AcDbEntity
  8
DEFPOINTS
 62
     0
100
AcDbPoint
 10
2528.000000000097
 20
1086.0
 30
0.0
  0
ENDBLK
  5
384
330
382
100
AcDbEntity
  8
0
100
AcDbBlockEnd
  0
BLOCK
  5
3F0
330
3EF
100
AcDbEntity
  8
0
100
AcDbBlockBegin
  2
*D25
 70
     1
 10
0.0
 20
0.0
 30
0.0
  3
*D25
  1

  0
LINE
  5
3F2
330
3EF
100
AcDbEntity
  8
化粧台
  6
CONTINUOUS
 62
     3
100
AcDbLine
 10
2571.000005543286
 20
1784.0
 30
0.0
 11
2919.0
 21
1784.0
 31
0.0
  0
LINE
  5
3F3
330
3EF
100
AcDbEntity
  8
化粧台
  6
CONTINUOUS
 62
     3
100
AcDbLine
 10
2812.499999821186
 20
1254.0
 30
0.0
 11
2919.0
 21
1254.0
 31
0.0
  0
LINE
  5
3F4
330
3EF
100
AcDbEntity
  8
化粧台
  6
CONTINUOUS
 62
     3
100
AcDbLine
 10
2904.0
 20
1739.000003814697
 30
0.0
 11
2904.0
 21
1298.999996185303
 31
0.0
  0
INSERT
  5
3F5
330
3EF
100
AcDbEntity
  8
化粧台
 62
     3
100
AcDbBlockReference
  2
EX_NORM
 10
2904.0
 20
1784.0
 30
0.0
 41
44.99999618530273
 42
44.99999618530273
 43
44.99999618530273
 50
90.0
  0
INSERT
  5
3F6
330
3EF
100
AcDbEntity
  8
化粧台
 62
     3
100
AcDbBlockReference
  2
EX_NORM
 10
2904.0
 20
1254.0
 30
0.0
 41
44.99999618530273
 42
44.99999618530273
 43
44.99999618530273
 50
270.0
  0
MTEXT
  5
3F7
330
3EF
100
AcDbEntity
  8
化粧台
 62
     2
100
AcDbMText
 10
2866.5
 20
1518.999999999999
 30
0.0
 40
59.99999618530273
 41
0.0
 71
     5
 72
     1
  1
530（壁固定）
  7
EXCADDIM1
 11
0.0
 21
1.0
 31
0.0
  0
POINT
  5
3F8
330
3EF
100
AcDbEntity
  8
DEFPOINTS
 62
     0
100
AcDbPoint
 10
2560.5000057221
 20
1784.0
 30
0.0
  0
POINT
  5
3F9
330
3EF
100
AcDbEntity
  8
DEFPOINTS
 62
     0
100
AcDbPoint
 10
2802.0
 20
1254.0
 30
0.0
  0
POINT
  5
3FA
330
3EF
100
AcDbEntity
  8
DEFPOINTS
 62
     0
100
AcDbPoint
 10
2904.0
 20
1254.0
 30
0.0
  0
ENDBLK
  5
3F1
330
3EF
100
AcDbEntity
  8
0
100
AcDbBlockEnd
  0
BLOCK
  5
4EC
330
4EB
100
AcDbEntity
  8
0
100
AcDbBlockBegin
  2
*D26
 70
     1
 10
0.0
 20
0.0
 30
0.0
  3
*D26
  1

  0
LINE
  5
4EE
330
4EB
100
AcDbEntity
  8
化粧台
  6
CONTINUOUS
 62
     3
100
AcDbLine
 10
741.50000000018
 20
1247.000000178814
 30
0.0
 11
741.50000000018
 21
922.5
 31
0.0
  0
LINE
  5
4EF
330
4EB
100
AcDbEntity
  8
化粧台
  6
CONTINUOUS
 62
     3
100
AcDbLine
 10
1308.5000000002
 20
1247.000000178814
 30
0.0
 11
1308.5000000002
 21
922.5
 31
0.0
  0
LINE
  5
4F0
330
4EB
100
AcDbEntity
  8
化粧台
  6
CONTINUOUS
 62
     3
100
AcDbLine
 10
786.4999961854827
 20
937.5
 30
0.0
 11
1263.500003814897
 21
937.5
 31
0.0
  0
INSERT
  5
4F1
330
4EB
100
AcDbEntity
  8
化粧台
 62
     3
100
AcDbBlockReference
  2
EX_NORM
 10
741.50000000018
 20
937.5
 30
0.0
 41
44.99999618530273
 42
44.99999618530273
 43
44.99999618530273
 50
180.0
  0
INSERT
  5
4F2
330
4EB
100
AcDbEntity
  8
化粧台
 62
     3
100
AcDbBlockReference
  2
EX_NORM
 10
1308.5000000002
 20
937.5
 30
0.0
 41
44.99999618530273
 42
44.99999618530273
 43
44.99999618530273
  0
MTEXT
  5
4F3
330
4EB
100
AcDbEntity
  8
化粧台
 62
     2
100
AcDbMText
 10
1025.00000000019
 20
972.749999910593
 30
0.0
 40
59.99999618530273
 41
0.0
 71
     5
 72
     1
  1
567
  7
EXCADDIM1
  0
POINT
  5
4F4
330
4EB
100
AcDbEntity
  8
DEFPOINTS
 62
     0
100
AcDbPoint
 10
741.50000000018
 20
1257.5
 30
0.0
  0
POINT
  5
4F5
330
4EB
100
AcDbEntity
  8
DEFPOINTS
 62
     0
100
AcDbPoint
 10
1308.5000000002
 20
1257.5
 30
0.0
  0
POINT
  5
4F6
330
4EB
100
AcDbEntity
  8
DEFPOINTS
 62
     0
100
AcDbPoint
 10
1308.5000000002
 20
937.5
 30
0.0
  0
ENDBLK
  5
4ED
330
4EB
100
AcDbEntity
  8
0
100
AcDbBlockEnd
  0
BLOCK
  5
5D0
330
5CF
100
AcDbEntity
  8
0
100
AcDbBlockBegin
  2
*D27
 70
     1
 10
0.0
 20
0.0
 30
0.0
  3
*D27
  1

  0
LINE
  5
5D2
330
5CF
100
AcDbEntity
  8
化粧台
  6
CONTINUOUS
 62
     3
100
AcDbLine
 10
1145.0000000001
 20
3411.899999821186
 30
0.0
 11
1145.0000000001
 21
3534.0
 31
0.0
  0
LINE
  5
5D3
330
5CF
100
AcDbEntity
  8
化粧台
  6
CONTINUOUS
 62
     3
100
AcDbLine
 10
1235.0000000001
 20
3394.499999821186
 30
0.0
 11
1235.0000000001
 21
3534.0
 31
0.0
  0
LINE
  5
5D4
330
5CF
100
AcDbEntity
  8
化粧台
  6
CONTINUOUS
 62
     3
100
AcDbLine
 10
1174.999998092751
 20
3519.0
 30
0.0
 11
1205.000001907449
 21
3519.0
 31
0.0
  0
INSERT
  5
5D5
330
5CF
100
AcDbEntity
  8
化粧台
 62
     3
100
AcDbBlockReference
  2
EX_NORM
 10
1145.0000000001
 20
3519.0
 30
0.0
 41
29.99999809265137
 42
29.99999809265137
 43
29.99999809265137
 50
180.0
  0
INSERT
  5
5D6
330
5CF
100
AcDbEntity
  8
化粧台
 62
     3
100
AcDbBlockReference
  2
EX_NORM
 10
1235.0000000001
 20
3519.0
 30
0.0
 41
29.99999809265137
 42
29.99999809265137
 43
29.99999809265137
  0
MTEXT
  5
5D7
330
5CF
100
AcDbEntity
  8
化粧台
 62
     2
100
AcDbMText
 10
1430.0000000001
 20
3554.249999910593
 30
0.0
 40
59.99999618530273
 41
0.0
 71
     5
 72
     1
  1
90（壁給水）
  7
EXCADDIM1
  0
POINT
  5
5D8
330
5CF
100
AcDbEntity
  8
DEFPOINTS
 62
     0
100
AcDbPoint
 10
1145.0000000001
 20
3401.4
 30
0.0
  0
POINT
  5
5D9
330
5CF
100
AcDbEntity
  8
DEFPOINTS
 62
     0
100
AcDbPoint
 10
1235.0000000001
 20
3384.0
 30
0.0
  0
POINT
  5
5DA
330
5CF
100
AcDbEntity
  8
DEFPOINTS
 62
     0
100
AcDbPoint
 10
1235.0000000001
 20
3519.0
 30
0.0
  0
ENDBLK
  5
5D1
330
5CF
100
AcDbEntity
  8
0
100
AcDbBlockEnd
  0
BLOCK
  5
5DD
330
5DC
100
AcDbEntity
  8
0
100
AcDbBlockBegin
  2
*D28
 70
     1
 10
0.0
 20
0.0
 30
0.0
  3
*D28
  1

  0
LINE
  5
5DF
330
5DC
100
AcDbEntity
  8
化粧台
  6
CONTINUOUS
 62
     3
100
AcDbLine
 10
1025.0000000001
 20
3382.499999821186
 30
0.0
 11
1025.0000000001
 21
3532.5
 31
0.0
  0
LINE
  5
5E0
330
5DC
100
AcDbEntity
  8
化粧台
  6
CONTINUOUS
 62
     3
100
AcDbLine
 10
1065.0000000001
 20
3398.999999821186
 30
0.0
 11
1065.0000000001
 21
3532.5
 31
0.0
  0
LINE
  5
5E1
330
5DC
100
AcDbEntity
  8
化粧台
  6
CONTINUOUS
 62
     3
100
AcDbLine
 10
1025.0000000001
 20
3517.5
 30
0.0
 11
1065.0000000001
 21
3517.5
 31
0.0
  0
LINE
  5
5E2
330
5DC
100
AcDbEntity
  8
化粧台
  6
CONTINUOUS
 62
     3
100
AcDbLine
 10
995.0000019074487
 20
3517.5
 30
0.0
 11
965.0000038147973
 21
3517.5
 31
0.0
  0
LINE
  5
5E3
330
5DC
100
AcDbEntity
  8
化粧台
  6
CONTINUOUS
 62
     3
100
AcDbLine
 10
1094.999998092751
 20
3517.5
 30
0.0
 11
1124.999996185403
 21
3517.5
 31
0.0
  0
INSERT
  5
5E4
330
5DC
100
AcDbEntity
  8
化粧台
 62
     3
100
AcDbBlockReference
  2
EX_NORM
 10
1025.0000000001
 20
3517.5
 30
0.0
 41
29.99999809265137
 42
29.99999809265137
 43
29.99999809265137
  0
INSERT
  5
5E5
330
5DC
100
AcDbEntity
  8
化粧台
 62
     3
100
AcDbBlockReference
  2
EX_NORM
 10
1065.0000000001
 20
3517.5
 30
0.0
 41
29.99999809265137
 42
29.99999809265137
 43
29.99999809265137
 50
180.0
  0
MTEXT
  5
5E6
330
5DC
100
AcDbEntity
  8
化粧台
 62
     2
100
AcDbMText
 10
830.0000000001004
 20
3552.749999910593
 30
0.0
 40
59.99999618530273
 41
0.0
 71
     5
 72
     1
  1
40（壁排水）
  7
EXCADDIM1
  0
POINT
  5
5E7
330
5DC
100
AcDbEntity
  8
DEFPOINTS
 62
     0
100
AcDbPoint
 10
1025.0000000001
 20
3372.0
 30
0.0
  0
POINT
  5
5E8
330
5DC
100
AcDbEntity
  8
DEFPOINTS
 62
     0
100
AcDbPoint
 10
1065.0000000001
 20
3388.5
 30
0.0
  0
POINT
  5
5E9
330
5DC
100
AcDbEntity
  8
DEFPOINTS
 62
     0
100
AcDbPoint
 10
1065.0000000001
 20
3517.5
 30
0.0
  0
ENDBLK
  5
5DE
330
5DC
100
AcDbEntity
  8
0
100
AcDbBlockEnd
  0
BLOCK
  5
5EC
330
5EB
100
AcDbEntity
  8
0
100
AcDbBlockBegin
  2
*D29
 70
     1
 10
0.0
 20
0.0
 30
0.0
  3
*D29
  1

  0
LINE
  5
5EE
330
5EB
100
AcDbEntity
  8
化粧台
  6
CONTINUOUS
 62
     3
100
AcDbLine
 10
1220.0000000001
 20
3418.999999821186
 30
0.0
 11
1220.0000000001
 21
3663.0
 31
0.0
  0
LINE
  5
5EF
330
5EB
100
AcDbEntity
  8
化粧台
  6
CONTINUOUS
 62
     3
100
AcDbLine
 10
874.9999961854427
 20
3648.0
 30
0.0
 11
1175.000003814797
 21
3648.0
 31
0.0
  0
INSERT
  5
5F0
330
5EB
100
AcDbEntity
  8
化粧台
 62
     3
100
AcDbBlockReference
  2
EX_NORM
 10
830.00000000014
 20
3648.0
 30
0.0
 41
44.99999618530273
 42
44.99999618530273
 43
44.99999618530273
 50
180.0
  0
INSERT
  5
5F1
330
5EB
100
AcDbEntity
  8
化粧台
 62
     3
100
AcDbBlockReference
  2
EX_NORM
 10
1220.0000000001
 20
3648.0
 30
0.0
 41
44.99999618530273
 42
44.99999618530273
 43
44.99999618530273
  0
MTEXT
  5
5F2
330
5EB
100
AcDbEntity
  8
化粧台
 62
     2
100
AcDbMText
 10
1025.00000000012
 20
3683.249999910593
 30
0.0
 40
59.99999618530273
 41
0.0
 71
     5
 72
     1
  1
390（壁固定）
  7
EXCADDIM1
  0
POINT
  5
5F3
330
5EB
100
AcDbEntity
  8
DEFPOINTS
 62
     0
100
AcDbPoint
 10
830.00000000014
 20
3408.5
 30
0.0
  0
POINT
  5
5F4
330
5EB
100
AcDbEntity
  8
DEFPOINTS
 62
     0
100
AcDbPoint
 10
1220.0000000001
 20
3408.5
 30
0.0
  0
POINT
  5
5F5
330
5EB
100
AcDbEntity
  8
DEFPOINTS
 62
     0
100
AcDbPoint
 10
1220.0000000001
 20
3648.0
 30
0.0
  0
ENDBLK
  5
5ED
330
5EB
100
AcDbEntity
  8
0
100
AcDbBlockEnd
  0
BLOCK
  5
5FA
330
5F9
100
AcDbEntity
  8
0
100
AcDbBlockBegin
  2
*D30
 70
     1
 10
0.0
 20
0.0
 30
0.0
  3
*D30
  1

  0
LINE
  5
5FC
330
5F9
100
AcDbEntity
  8
化粧台
  6
CONTINUOUS
 62
     3
100
AcDbLine
 10
1330.314876946486
 20
2039.0000000001
 30
0.0
 11
1591.5
 21
2039.0000000001
 31
0.0
  0
LINE
  5
5FD
330
5F9
100
AcDbEntity
  8
化粧台
  6
CONTINUOUS
 62
     3
100
AcDbLine
 10
1525.499999821186
 20
1254.0000000001
 30
0.0
 11
1591.5
 21
1254.0000000001
 31
0.0
  0
LINE
  5
5FE
330
5F9
100
AcDbEntity
  8
化粧台
  6
CONTINUOUS
 62
     3
100
AcDbLine
 10
1576.5
 20
1994.000003814797
 30
0.0
 11
1576.5
 21
1298.999996185403
 31
0.0
  0
INSERT
  5
5FF
330
5F9
100
AcDbEntity
  8
化粧台
 62
     3
100
AcDbBlockReference
  2
EX_NORM
 10
1576.5
 20
2039.0000000001
 30
0.0
 41
44.99999618530273
 42
44.99999618530273
 43
44.99999618530273
 50
90.0
  0
INSERT
  5
600
330
5F9
100
AcDbEntity
  8
化粧台
 62
     3
100
AcDbBlockReference
  2
EX_NORM
 10
1576.5
 20
1254.0000000001
 30
0.0
 41
44.99999618530273
 42
44.99999618530273
 43
44.99999618530273
 50
270.0
  0
MTEXT
  5
601
330
5F9
100
AcDbEntity
  8
化粧台
 62
     2
100
AcDbMText
 10
1541.250000089407
 20
1646.5000000001
 30
0.0
 40
59.99999618530273
 41
0.0
 71
     5
 72
     1
  1
785
  7
EXCADDIM1
 11
0.0
 21
1.0
 31
0.0
  0
POINT
  5
602
330
5F9
100
AcDbEntity
  8
DEFPOINTS
 62
     0
100
AcDbPoint
 10
1319.8148771253
 20
2039.0000000001
 30
0.0
  0
POINT
  5
603
330
5F9
100
AcDbEntity
  8
DEFPOINTS
 62
     0
100
AcDbPoint
 10
1515.0
 20
1254.0000000001
 30
0.0
  0
POINT
  5
604
330
5F9
100
AcDbEntity
  8
DEFPOINTS
 62
     0
100
AcDbPoint
 10
1576.5
 20
1254.0000000001
 30
0.0
  0
ENDBLK
  5
5FB
330
5F9
100
AcDbEntity
  8
0
100
AcDbBlockEnd
  0
BLOCK
  5
651
330
650
100
AcDbEntity
  8
0
100
AcDbBlockBegin
  2
*D31
 70
     1
 10
0.0
 20
0.0
 30
0.0
  3
*D31
  1

  0
LINE
  5
653
330
650
100
AcDbEntity
  8
寸法
  6
CONTINUOUS
 62
     3
100
AcDbLine
 10
2428.0000000001
 20
2153.139513969521
 30
0.0
 11
2428.0000000001
 21
2200.2
 31
0.0
  0
LINE
  5
654
330
650
100
AcDbEntity
  8
寸法
  6
CONTINUOUS
 62
     3
100
AcDbLine
 10
2528.0000000001
 20
2178.139513969521
 30
0.0
 11
2528.0000000001
 21
2200.2
 31
0.0
  0
LINE
  5
655
330
650
100
AcDbEntity
  8
寸法
  6
CONTINUOUS
 62
     3
100
AcDbLine
 10
2472.999996185403
 20
2185.2
 30
0.0
 11
2483.000003814797
 21
2185.2
 31
0.0
  0
INSERT
  5
656
330
650
100
AcDbEntity
  8
寸法
 62
     3
100
AcDbBlockReference
  2
EX_NORM
 10
2428.0000000001
 20
2185.2
 30
0.0
 41
44.99999618530273
 42
44.99999618530273
 43
44.99999618530273
 50
180.0
  0
INSERT
  5
657
330
650
100
AcDbEntity
  8
寸法
 62
     3
100
AcDbBlockReference
  2
EX_NORM
 10
2528.0000000001
 20
2185.2
 30
0.0
 41
44.99999618530273
 42
44.99999618530273
 43
44.99999618530273
  0
MTEXT
  5
658
330
650
100
AcDbEntity
  8
寸法
 62
     2
100
AcDbMText
 10
2648.0000000001
 20
2220.449999910593
 30
0.0
 40
59.99999618530273
 41
0.0
 71
     5
 72
     1
  1
100
  7
EXCADDIM1
  0
POINT
  5
659
330
650
100
AcDbEntity
  8
DEFPOINTS
 62
     0
100
AcDbPoint
 10
2428.0000000001
 20
2014.0000000001
 30
0.0
  0
POINT
  5
65A
330
650
100
AcDbEntity
  8
DEFPOINTS
 62
     0
100
AcDbPoint
 10
2528.0000000001
 20
2039.0000000001
 30
0.0
  0
POINT
  5
65B
330
650
100
AcDbEntity
  8
DEFPOINTS
 62
     0
100
AcDbPoint
 10
2528.0000000001
 20
2185.2
 30
0.0
  0
ENDBLK
  5
652
330
650
100
AcDbEntity
  8
0
100
AcDbBlockEnd
  0
ENDSEC
  0
SECTION
  2
ENTITIES
  0
TEXT
  5
AA
330
1F
100
AcDbEntity
  8
0
  6
CONTINUOUS
 62
     2
100
AcDbText
 10
97.0000000000102
 20
15.95000000000004
 30
0.0
 40
3.375
  1
ジャニス工業株式会社
 41
1.025641025641026
  7
EXCADTTF1
 72
     5
 11
142.0000000000102
 21
15.95000000000004
 31
0.0
100
AcDbText
  0
HATCH
  5
AB
330
1F
100
AcDbEntity
  8
0
  6
CONTINUOUS
 62
     3
100
AcDbHatch
 10
0.0
 20
0.0
 30
0.0
210
0.0
220
0.0
230
1.0
  2
SOLID
 70
     1
 71
     1
 91
        2
 92
        3
 72
     1
 73
     1
 93
       27
 10
84.71727657333494
 20
19.43644932975407
 42
-0.1769427732109284
 10
84.71727657333494
 20
19.43644932975408
 42
0.0
 10
84.71727657333494
 20
19.07194932975406
 42
0.0
 10
84.80502657333489
 20
19.07194932975405
 42
-0.207533601427307
 10
85.37474227896692
 20
19.49932359129046
 42
-0.1226604740888933
 10
85.87827657333487
 20
19.51002432975408
 42
-0.3213715781137954
 10
86.39883280223081
 20
18.87106514378473
 42
-0.064704004662446
 10
86.40140157333484
 20
18.53329932975403
 42
-0.257798906330806
 10
86.29542657333495
 20
18.40504932975404
 42
-0.056602577721096
 10
86.06862657333492
 20
18.32607432975407
 42
-0.0166741689362636
 10
85.23702657333494
 20
18.16812432975405
 42
0.1186092302783404
 10
84.68825157333497
 20
17.90487432975404
 42
0.1699204224386695
 10
84.44930157333492
 20
17.50527432975409
 42
0.1006533494296199
 10
84.42720866796806
 20
17.15853555095728
 42
0.1675695228968024
 10
84.64370157333497
 20
16.69392432975407
 42
0.1376980079804242
 10
85.0372265733349
 20
16.4664493297541
 42
0.0719813663796923
 10
85.21610157333484
 20
16.43674932975406
 42
0.0
 10
85.49015157333494
 20
16.43674932975406
 42
0.1944607457809085
 10
86.39937657333495
 20
16.90452432975408
 42
0.1288538183665954
 10
86.49117657333485
 20
16.67502432975405
 42
0.2098387395261546
 10
86.79087657333488
 20
16.50964932975409
 42
0.0
 10
87.00822657333482
 20
16.5082993297541
 42
0.0945009641609563
 10
87.32210157333495
 20
16.57512432975408
 42
0.0
 10
87.32210157333493
 20
16.73239932975407
 42
-0.2395739894657535
 10
87.04805157333489
 20
16.72969932975405
 42
-0.2502312110031057
 10
86.91305157333487
 20
16.98349932975415
 42
-0.0104343570771765
 10
86.93127657333491
 20
18.87619932975404
 42
0.4051015674140716
 97
        0
 92
        3
 72
     1
 73
     1
 93
        8
 10
86.41355157333489
 20
18.20254932975404
 42
-0.0339435190873666
 10
86.41355157333464
 20
18.20254932975295
 42
-0.0001110072973599
 10
86.38520157333501
 20
17.16844932975405
 42
-0.2253076310552528
 10
85.6764515733349
 20
16.69527432975411
 42
0.0
 10
85.50297657333472
 20
16.69527432975407
 42
-0.3657967558150132
 10
84.98727657333492
 20
17.24337432975411
 42
0.0
 10
84.98727657333501
 20
17.43912432975409
 42
-0.2530797830369341
 10
85.33557657333492
 20
17.92107432975406
 42
-0.0724473624720066
 97
        0
 75
     0
 76
     1
 98
        1
 10
0.0
 20
0.0
  0
HATCH
  5
AC
330
1F
100
AcDbEntity
  8
0
  6
CONTINUOUS
 62
     3
100
AcDbHatch
 10
0.0
 20
0.0
 30
0.0
210
0.0
220
0.0
230
1.0
  2
SOLID
 70
     1
 71
     1
 91
        1
 92
        3
 72
     1
 73
     1
 93
       30
 10
95.47340157333478
 20
19.63354932975416
 42
-0.0009362235736497
 10
95.47340157333491
 20
19.63354932975405
 42
0.0681165430304653
 10
95.30970934868296
 20
19.14282432975408
 42
0.0
 10
94.69310157333499
 20
19.56469932975406
 42
-0.302112590907374
 10
94.69310157333493
 20
19.56469932975408
 42
0.0
 10
94.07142657333482
 20
19.08814932975408
 42
-0.3704245237568778
 10
94.07142657333483
 20
19.08814932975402
 42
0.0
 10
94.10382657333486
 20
18.76954932975405
 42
-0.0262822419456939
 10
94.48722657333496
 20
18.46309932975402
 42
-0.180060563604375
 10
95.09877657333497
 20
18.27679932975409
 42
-0.0298130817160724
 10
95.09877657333483
 20
18.27679932975403
 42
-0.3153987453686078
 10
95.6624015733349
 20
17.63217432975409
 42
0.0
 10
95.65902657333496
 20
17.34394932975403
 42
-0.3510306079065168
 10
94.57227657333485
 20
16.43269932975405
 42
0.0
 10
94.25502657333477
 20
16.43269932975403
 42
-0.1053356344842436
 10
93.55302657333489
 20
16.63519932975405
 42
0.1188608286962634
 10
93.68127657333488
 20
17.14819932975407
 42
0.0
 10
94.45077657333498
 20
16.67569932975409
 42
-0.2447573632916039
 10
94.45077657333488
 20
16.67569932975407
 42
0.0
 10
95.19327657333486
 20
17.19544932975409
 42
-0.3734162676407277
 10
95.19327657333494
 20
17.19544932975406
 42
0.0
 10
94.92395157333493
 20
17.71452432975412
 42
-0.261219770190848
 10
94.2955265733349
 20
17.94267432975407
 42
-0.0572747914118363
 10
94.29552657333488
 20
17.94267432975406
 42
-0.1189658875692221
 10
93.79602657333487
 20
18.23562432975406
 42
-0.2005226878639636
 10
93.58677657333484
 20
18.70744932975625
 42
0.0
 10
93.58340157333497
 20
18.88632432975405
 42
-0.2622894489606957
 10
94.12002657333494
 20
19.70644932975407
 42
-0.0988461274137808
 10
94.62222657333493
 20
19.82727432975405
 42
0.0
 10
94.80852657333475
 20
19.82727432975407
 42
-0.0920156312561188
 97
        0
 75
     0
 76
     1
 98
        1
 10
0.0
 20
0.0
  0
ARC
  5
AD
330
1F
100
AcDbEntity
  8
0
  6
CONTINUOUS
 62
     3
100
AcDbCircle
 10
97.184248106897
 20
18.79019437507494
 30
0.0
 40
1.90741800373783
100
AcDbArc
 50
153.7591918158497
 51
169.3462759801917
  0
LINE
  5
AE
330
1F
100
AcDbEntity
  8
0
  6
CONTINUOUS
 62
     3
100
AcDbLine
 10
95.22432657333488
 20
19.14282432975408
 30
0.0
 11
95.30970934868296
 21
19.14282432975408
 31
0.0
  0
LINE
  5
AF
330
1F
100
AcDbEntity
  8
0
  6
CONTINUOUS
 62
     3
100
AcDbLine
 10
94.58375157333487
 20
19.56199932975408
 30
0.0
 11
94.69310157333493
 21
19.56469932975408
 31
0.0
  0
LINE
  5
B0
330
1F
100
AcDbEntity
  8
0
  6
CONTINUOUS
 62
     3
100
AcDbLine
 10
93.58340157333495
 20
18.88632432975404
 30
0.0
 11
93.58677657333484
 21
18.70744932975625
 31
0.0
  0
LINE
  5
B1
330
1F
100
AcDbEntity
  8
0
  6
CONTINUOUS
 62
     3
100
AcDbLine
 10
94.07142657333483
 20
19.08814932975402
 30
0.0
 11
94.06197657333482
 21
18.91129932975402
 31
0.0
  0
LINE
  5
B2
330
1F
100
AcDbEntity
  8
0
  6
CONTINUOUS
 62
     3
100
AcDbLine
 10
95.6624015733349
 20
17.63217432975409
 30
0.0
 11
95.6590265733349
 21
17.34394932975407
 31
0.0
  0
LINE
  5
B3
330
1F
100
AcDbEntity
  8
0
  6
CONTINUOUS
 62
     3
100
AcDbLine
 10
95.18652657333493
 20
17.35069932975409
 30
0.0
 11
95.19327657333494
 21
17.19544932975406
 31
0.0
  0
ARC
  5
B4
330
1F
100
AcDbEntity
  8
0
  6
CONTINUOUS
 62
     3
100
AcDbCircle
 10
92.55344131321928
 20
17.15779759565
 30
0.0
 40
1.12795374007884
100
AcDbArc
 50
332.3987521421788
 51
359.5124385477116
  0
LINE
  5
B5
330
1F
100
AcDbEntity
  8
0
  6
CONTINUOUS
 62
     3
100
AcDbLine
 10
84.71727657333494
 20
19.07194932975406
 30
0.0
 11
84.80502657333497
 21
19.07194932975406
 31
0.0
  0
HATCH
  5
B6
330
1F
100
AcDbEntity
  8
0
  6
CONTINUOUS
 62
     3
100
AcDbHatch
 10
0.0
 20
0.0
 30
0.0
210
0.0
220
0.0
230
1.0
  2
SOLID
 70
     1
 71
     1
 91
        2
 92
        1
 93
        1
 72
     2
 10
92.32855140384342
 20
20.95835466873708
 40
0.3572334466769884
 50
0.0
 51
360.0
 73
     1
 97
        0
 92
        3
 72
     1
 73
     1
 93
        3
 10
92.00930157333492
 20
19.76989932975407
 42
0.1200283885712921
 10
92.63030157333482
 20
16.50627432975401
 42
-0.0401820615762149
 10
92.00997657333481
 20
16.50424932975405
 42
-0.0237521668114666
 97
        0
 75
     0
 76
     1
 98
        1
 10
0.0
 20
0.0
  0
HATCH
  5
B7
330
1F
100
AcDbEntity
  8
0
  6
CONTINUOUS
 62
     3
100
AcDbHatch
 10
0.0
 20
0.0
 30
0.0
210
0.0
220
0.0
230
1.0
  2
SOLID
 70
     1
 71
     1
 91
        1
 92
        3
 72
     1
 73
     1
 93
       16
 10
88.08687657333489
 20
16.51032432975406
 42
-0.0386228372648426
 10
88.08080157333488
 20
19.76449932975407
 42
-0.0398707891902887
 10
88.67142657333486
 20
19.76719932975406
 42
-0.1256886216044368
 10
88.64442657333491
 20
19.21504932975408
 42
-0.0367815758121429
 10
88.64442657333491
 20
19.21504932975406
 42
-0.268021535028829
 10
89.83580157333489
 20
19.83334932975405
 42
-0.2571134422124888
 10
90.6505265733349
 20
19.43037432975411
 42
-0.1522526366014298
 10
90.85775157333495
 20
18.76009932975407
 42
-0.0158825412051521
 10
90.84290157333487
 20
16.50694932975407
 42
-0.0285251271418421
 10
90.27252657333494
 20
16.50694932975406
 42
-0.0452212723224612
 10
90.30155157333485
 20
18.58864932975407
 42
-0.0315567291532142
 10
90.12470157333476
 20
19.20357432975406
 42
-0.1476272403790709
 10
88.97315157333489
 20
19.29199932975406
 42
-0.3908144705745794
 10
88.64847657333493
 20
18.48402432975405
 42
-0.2046259928850854
 10
88.64847657333493
 20
18.48402432975407
 42
0.0
 10
88.69910157333491
 20
16.50492432975411
 42
-0.0304995761723369
 97
        0
 75
     0
 76
     1
 98
        1
 10
0.0
 20
0.0
  0
HATCH
  5
B8
330
1F
100
AcDbEntity
  8
0
  6
CONTINUOUS
 62
     3
100
AcDbHatch
 10
0.0
 20
0.0
 30
0.0
210
0.0
220
0.0
230
1.0
  2
SOLID
 70
     1
 71
     1
 91
        1
 92
        3
 72
     1
 73
     1
 93
       10
 10
82.17252657333496
 20
16.62169932975409
 42
-0.017362223501556
 10
82.18130157333492
 20
21.91842432975408
 42
-0.0267627618865285
 10
82.18130157333493
 20
21.91842432975408
 42
0.0737939047395297
 10
83.47325157333508
 20
21.92382432975401
 42
0.0183878899657109
 10
83.42127657333494
 20
17.14819932975406
 42
-0.1144749489451909
 10
83.21202657333485
 20
16.14244932975405
 42
-0.1929163439413163
 10
82.21640157333496
 20
15.36079932975402
 42
-0.0603888289562337
 10
81.68855157333493
 20
15.22917432975404
 42
0.0
 10
81.5650265733349
 20
15.60514932975406
 42
0.0860918333465722
 10
81.93425157333479
 20
15.80157432975404
 42
0.1331843103855141
 97
        0
 75
     0
 76
     1
 98
        1
 10
0.0
 20
0.0
  0
LINE
  5
B9
330
1F
100
AcDbEntity
  8
0
  6
CONTINUOUS
 62
     3
100
AcDbLine
 10
94.2550265733349
 20
16.43269932975405
 30
0.0
 11
94.57227657333485
 21
16.43269932975405
 31
0.0
  0
LINE
  5
BA
330
1F
100
AcDbEntity
  8
0
  6
CONTINUOUS
 62
     3
100
AcDbLine
 10
93.76902657333491
 20
17.14819932975407
 30
0.0
 11
93.68127657333488
 21
17.14819932975407
 31
0.0
  0
LINE
  5
BB
330
1F
100
AcDbEntity
  8
0
  6
CONTINUOUS
 62
     3
100
AcDbLine
 10
94.45077657333488
 20
16.67569932975407
 30
0.0
 11
94.61277657333491
 21
16.67569932975407
 31
0.0
  0
LINE
  5
BC
330
1F
100
AcDbEntity
  8
0
  6
CONTINUOUS
 62
     3
100
AcDbLine
 10
94.80852657333489
 20
19.82727432975405
 30
0.0
 11
94.62222657333493
 21
19.82727432975405
 31
0.0
  0
ARC
  5
BD
330
1F
100
AcDbEntity
  8
0
  6
CONTINUOUS
 62
     3
100
AcDbCircle
 10
94.64147339128496
 20
18.95429236291667
 30
0.0
 40
0.612586430102255
100
AcDbArc
 50
17.92452211681263
 51
85.16543319077402
  0
ARC
  5
BE
330
1F
100
AcDbEntity
  8
0
  6
CONTINUOUS
 62
     3
100
AcDbCircle
 10
94.60350964861513
 20
19.02674994707922
 30
0.0
 40
0.53561393110393
100
AcDbArc
 50
92.11404364449162
 51
173.4175047026091
  0
ARC
  5
BF
330
1F
100
AcDbEntity
  8
0
  6
CONTINUOUS
 62
     3
100
AcDbCircle
 10
95.43031407333612
 20
19.23823182975442
 30
0.0
 40
1.4068519372934
100
AcDbArc
 50
193.4375782160214
 51
199.459638038058
  0
ARC
  5
C0
330
1F
100
AcDbEntity
  8
0
  6
CONTINUOUS
 62
     3
100
AcDbCircle
 10
94.7072135238844
 20
19.1313864176661
 30
0.0
 40
0.703563707337185
100
AcDbArc
 50
210.9501336849607
 51
251.7794729821079
  0
ARC
  5
C1
330
1F
100
AcDbEntity
  8
0
  6
CONTINUOUS
 62
     3
100
AcDbCircle
 10
96.3538466969305
 20
23.49359310503512
 30
0.0
 40
5.36564425851668
100
AcDbArc
 50
249.6420733479936
 51
256.4727051201885
  0
ARC
  5
C2
330
1F
100
AcDbEntity
  8
0
  6
CONTINUOUS
 62
     3
100
AcDbCircle
 10
94.92045721292934
 20
17.55217258531572
 30
0.0
 40
0.746245075729605
100
AcDbArc
 50
6.154262763177246
 51
76.17509904255616
  0
ARC
  5
C3
330
1F
100
AcDbEntity
  8
0
  6
CONTINUOUS
 62
     3
100
AcDbCircle
 10
94.54663886468549
 20
17.56692467118042
 30
0.0
 40
1.134515058180645
100
AcDbArc
 50
271.2948770866743
 51
348.6654156292868
  0
ARC
  5
C4
330
1F
100
AcDbEntity
  8
0
  6
CONTINUOUS
 62
     3
100
AcDbCircle
 10
94.37930054593753
 20
18.18156576811023
 30
0.0
 40
1.75327631578002
100
AcDbArc
 50
241.8829576087176
 51
265.9354096935781
  0
ARC
  5
C5
330
1F
100
AcDbEntity
  8
0
  6
CONTINUOUS
 62
     3
100
AcDbCircle
 10
94.56361043235856
 20
17.56658639777384
 30
0.0
 40
0.89800403546253
100
AcDbArc
 50
207.7689879465537
 51
262.7817283832026
  0
ARC
  5
C6
330
1F
100
AcDbEntity
  8
0
  6
CONTINUOUS
 62
     3
100
AcDbCircle
 10
94.60357777447493
 20
17.27002363757168
 30
0.0
 40
0.594395491876675
100
AcDbArc
 50
270.8867385422408
 51
352.7925382056677
  0
ARC
  5
C7
330
1F
100
AcDbEntity
  8
0
  6
CONTINUOUS
 62
     3
100
AcDbCircle
 10
94.73080045854655
 20
17.29846225433172
 30
0.0
 40
0.458710152219015
100
AcDbArc
 50
6.53892419415897
 51
65.09756080693691
  0
ARC
  5
C8
330
1F
100
AcDbEntity
  8
0
  6
CONTINUOUS
 62
     3
100
AcDbCircle
 10
93.6171489183142
 20
15.09457141755208
 30
0.0
 40
2.927778413972755
100
AcDbArc
 50
63.49050203733571
 51
76.60259219849584
  0
ARC
  5
C9
330
1F
100
AcDbEntity
  8
0
  6
CONTINUOUS
 62
     3
100
AcDbCircle
 10
94.65268145800482
 20
19.12396411006684
 30
0.0
 40
1.23410095077957
100
AcDbArc
 50
226.0402388947521
 51
253.1776672992999
  0
ARC
  5
CA
330
1F
100
AcDbEntity
  8
0
  6
CONTINUOUS
 62
     3
100
AcDbCircle
 10
94.25599257926987
 20
18.72192769075527
 30
0.0
 40
0.66937260590561
100
AcDbArc
 50
181.2393899443581
 51
226.5942921332421
  0
ARC
  5
CB
330
1F
100
AcDbEntity
  8
0
  6
CONTINUOUS
 62
     3
100
AcDbCircle
 10
94.57963496800605
 20
18.82009291101866
 30
0.0
 40
0.99843256030919
100
AcDbArc
 50
117.4083995939977
 51
176.1964688215695
  0
ARC
  5
CC
330
1F
100
AcDbEntity
  8
0
  6
CONTINUOUS
 62
     3
100
AcDbCircle
 10
94.67711044284894
 20
18.5097909793761
 30
0.0
 40
1.319974865367525
100
AcDbArc
 50
92.38301574576484
 51
114.9635286746436
  0
ARC
  5
CD
330
1F
100
AcDbEntity
  8
0
  6
CONTINUOUS
 62
     3
100
AcDbCircle
 10
94.78542828461545
 20
18.81663038363953
 30
0.0
 40
1.01090786759216
100
AcDbArc
 50
67.66151957087348
 51
88.69073168448988
  0
ARC
  5
CE
330
1F
100
AcDbEntity
  8
0
  6
CONTINUOUS
 62
     3
100
AcDbCircle
 10
126.8644453232913
 20
100.8029743296421
 30
0.0
 40
87.02800228963156
100
AcDbArc
 50
248.6422112053103
 51
248.8567777804232
  0
ARC
  5
CF
330
1F
100
AcDbEntity
  8
0
  6
CONTINUOUS
 62
     3
100
AcDbCircle
 10
69.86900575364857
 20
18.13249792766234
 30
0.0
 40
22.20076085035812
100
AcDbArc
 50
355.7940354718673
 51
4.229650257234378
  0
ARC
  5
D0
330
1F
100
AcDbEntity
  8
0
  6
CONTINUOUS
 62
     3
100
AcDbCircle
 10
112.9254047179655
 20
18.11881005739385
 30
0.0
 40
20.35906390589
100
AcDbArc
 50
175.3387608397566
 51
184.5428594926176
  0
ARC
  5
D1
330
1F
100
AcDbEntity
  8
0
  6
CONTINUOUS
 62
     3
100
AcDbCircle
 10
92.34144089372316
 20
9.979804184123305
 30
0.0
 40
6.53285948525109
100
AcDbArc
 50
87.46575055044718
 51
92.90832285102188
  0
ARC
  5
D2
330
1F
100
AcDbEntity
  8
0
  6
CONTINUOUS
 62
     3
100
AcDbCircle
 10
92.31456076028721
 20
21.05332474358078
 30
0.0
 40
1.31922854884021
100
AcDbArc
 50
256.6209501743446
 51
283.9984576255729
  0
CIRCLE
  5
D3
330
1F
100
AcDbEntity
  8
0
  6
CONTINUOUS
 62
     3
100
AcDbCircle
 10
92.32855140384342
 20
20.95835466873708
 30
0.0
 40
0.35723344667699
  0
LINE
  5
D4
330
1F
100
AcDbEntity
  8
0
  6
CONTINUOUS
 62
     3
100
AcDbLine
 10
88.64847657333493
 20
18.48402432975407
 30
0.0
 11
88.64847657333493
 21
17.40469932975403
 31
0.0
  0
ARC
  5
D5
330
1F
100
AcDbEntity
  8
0
  6
CONTINUOUS
 62
     3
100
AcDbCircle
 10
67.71176988672582
 20
18.09938058671747
 30
0.0
 40
20.43697806131073
100
AcDbArc
 50
355.5405243117485
 51
4.673398698656258
  0
ARC
  5
D6
330
1F
100
AcDbEntity
  8
0
  6
CONTINUOUS
 62
     3
100
AcDbCircle
 10
88.37082849862222
 20
20.92206879814486
 30
0.0
 40
1.193349358546015
100
AcDbArc
 50
255.9341994177206
 51
284.5896440601899
  0
ARC
  5
D7
330
1F
100
AcDbEntity
  8
0
  6
CONTINUOUS
 62
     3
100
AcDbCircle
 10
92.40574727397151
 20
19.30785681383053
 30
0.0
 40
3.762465500458185
100
AcDbArc
 50
172.9875214416311
 51
181.4134392789641
  0
ARC
  5
D8
330
1F
100
AcDbEntity
  8
0
  6
CONTINUOUS
 62
     3
100
AcDbCircle
 10
89.77541069003539
 20
18.49275988818601
 30
0.0
 40
1.34194899665726
100
AcDbArc
 50
87.42068310381028
 51
147.4361518966862
  0
ARC
  5
D9
330
1F
100
AcDbEntity
  8
0
  6
CONTINUOUS
 62
     3
100
AcDbCircle
 10
89.87724057414752
 20
18.89204664797992
 30
0.0
 40
0.94221437555554
100
AcDbArc
 50
34.84393737091607
 51
92.5207065423111
  0
ARC
  5
DA
330
1F
100
AcDbEntity
  8
0
  6
CONTINUOUS
 62
     3
100
AcDbCircle
 10
89.67905515345817
 20
18.76285942451528
 30
0.0
 40
1.17869965146059
100
AcDbArc
 50
359.8658335690532
 51
34.49363429411157
  0
ARC
  5
DB
330
1F
100
AcDbEntity
  8
0
  6
CONTINUOUS
 62
     3
100
AcDbCircle
 10
84.71913601211051
 20
18.53315774812142
 30
0.0
 40
6.14280908786696
100
AcDbArc
 50
358.4775281223095
 51
2.117232414210064
  0
ARC
  5
DC
330
1F
100
AcDbEntity
  8
0
  6
CONTINUOUS
 62
     3
100
AcDbCircle
 10
107.1657633661797
 20
17.29067374739133
 30
0.0
 40
16.34166579853822
100
AcDbArc
 50
176.2131780319488
 51
182.7488833337936
  0
ARC
  5
DD
330
1F
100
AcDbEntity
  8
0
  6
CONTINUOUS
 62
     3
100
AcDbCircle
 10
90.55771407333495
 20
13.36015261922778
 30
0.0
 40
3.159693252126745
100
AcDbArc
 50
84.82155189294139
 51
95.17844810705873
  0
ARC
  5
DE
330
1F
100
AcDbEntity
  8
0
  6
CONTINUOUS
 62
     3
100
AcDbCircle
 10
73.81173378650723
 20
17.77751337882463
 30
0.0
 40
16.50975566668589
100
AcDbArc
 50
355.5862454873798
 51
2.816115806820253
  0
ARC
  5
DF
330
1F
100
AcDbEntity
  8
0
  6
CONTINUOUS
 62
     3
100
AcDbCircle
 10
89.19447404569505
 20
18.60315138821553
 30
0.0
 40
1.107172507744155
100
AcDbArc
 50
359.2495022237244
 51
32.84055016678327
  0
ARC
  5
E0
330
1F
100
AcDbEntity
  8
0
  6
CONTINUOUS
 62
     3
100
AcDbCircle
 10
89.5010014520652
 20
18.62366273138689
 30
0.0
 40
0.851645057047005
100
AcDbArc
 50
42.91644474042847
 51
128.3015542351336
  0
ARC
  5
E1
330
1F
100
AcDbEntity
  8
0
  6
CONTINUOUS
 62
     3
100
AcDbCircle
 10
89.75661722367394
 20
18.50795225138057
 30
0.0
 40
1.10839895631813
100
AcDbArc
 50
134.9787476233347
 51
181.2369872983282
  0
ARC
  5
E2
330
1F
100
AcDbEntity
  8
0
  6
CONTINUOUS
 62
     3
100
AcDbCircle
 10
96.04088578952027
 20
17.39150147009817
 30
0.0
 40
7.395120993114926
100
AcDbArc
 50
179.8977458165987
 51
186.8855675734268
  0
ARC
  5
E3
330
1F
100
AcDbEntity
  8
0
  6
CONTINUOUS
 62
     3
100
AcDbCircle
 10
88.35808780070303
 20
12.5506925451171
 30
0.0
 40
3.9689090944185
100
AcDbArc
 50
85.07099551674689
 51
93.91830029343228
  0
ARC
  5
E4
330
1F
100
AcDbEntity
  8
0
  6
CONTINUOUS
 62
     3
100
AcDbCircle
 10
-2242.501542217726
 20
81.53265245587832
 30
0.0
 40
2329.776001260591
100
AcDbArc
 50
358.4169008257799
 51
358.4423418242109
  0
ARC
  5
E5
330
1F
100
AcDbEntity
  8
0
  6
CONTINUOUS
 62
     3
100
AcDbCircle
 10
85.53244690766914
 20
17.67836489530207
 30
0.0
 40
0.993581603997915
100
AcDbArc
 50
278.3335103000368
 51
329.1221464187299
  0
LINE
  5
E6
330
1F
100
AcDbEntity
  8
0
  6
CONTINUOUS
 62
     3
100
AcDbLine
 10
85.50297657333485
 20
16.69527432975411
 30
0.0
 11
85.6764515733349
 21
16.69527432975411
 31
0.0
  0
ARC
  5
E7
330
1F
100
AcDbEntity
  8
0
  6
CONTINUOUS
 62
     3
100
AcDbCircle
 10
85.56959653489716
 20
17.27461380097784
 30
0.0
 40
0.583157304847
100
AcDbArc
 50
183.0707787095794
 51
263.4402016072427
  0
LINE
  5
E8
330
1F
100
AcDbEntity
  8
0
  6
CONTINUOUS
 62
     3
100
AcDbLine
 10
84.98727657333492
 20
17.43912432975406
 30
0.0
 11
84.98727657333492
 21
17.24337432975411
 31
0.0
  0
ARC
  5
E9
330
1F
100
AcDbEntity
  8
0
  6
CONTINUOUS
 62
     3
100
AcDbCircle
 10
85.60701866838835
 20
17.35807479047184
 30
0.0
 40
0.625019433457055
100
AcDbArc
 50
115.7403688633493
 51
172.5491744442191
  0
ARC
  5
EA
330
1F
100
AcDbEntity
  8
0
  6
CONTINUOUS
 62
     3
100
AcDbCircle
 10
86.15660651758694
 20
16.18318862667979
 30
0.0
 40
1.92206578615521
100
AcDbArc
 50
98.71271710191789
 51
115.2874718053599
  0
ARC
  5
EB
330
1F
100
AcDbEntity
  8
0
  6
CONTINUOUS
 62
     3
100
AcDbCircle
 10
85.26056099354716
 20
22.17501381160505
 30
0.0
 40
4.13640681469402
100
AcDbArc
 50
278.4088456599976
 51
286.1851416003176
  0
ARC
  5
EC
330
1F
100
AcDbEntity
  8
0
  6
CONTINUOUS
 62
     3
100
AcDbCircle
 10
82.80908200123267
 20
26.27417570522226
 30
0.0
 40
4.400758833490465
100
AcDbArc
 50
261.7986203004403
 51
278.6803384946418
  0
ARC
  5
ED
330
1F
100
AcDbEntity
  8
0
  6
CONTINUOUS
 62
     3
100
AcDbCircle
 10
148.3542531413535
 20
18.82960360950846
 30
0.0
 40
64.95474244683605
100
AcDbArc
 50
177.2695926307304
 51
181.4833117237826
  0
ARC
  5
EE
330
1F
100
AcDbEntity
  8
0
  6
CONTINUOUS
 62
     3
100
AcDbCircle
 10
81.14899361791603
 20
17.09631356880094
 30
0.0
 40
2.27287526311431
100
AcDbArc
 50
335.1860595856123
 51
1.308075913059364
  0
ARC
  5
EF
330
1F
100
AcDbEntity
  8
0
  6
CONTINUOUS
 62
     3
100
AcDbCircle
 10
81.73897327886468
 20
16.99383518626831
 30
0.0
 40
1.701394688196115
100
AcDbArc
 50
286.2966123578915
 51
329.973223283839
  0
ARC
  5
F0
330
1F
100
AcDbEntity
  8
0
  6
CONTINUOUS
 62
     3
100
AcDbCircle
 10
81.40955749867643
 20
17.47223152915384
 30
0.0
 40
2.260341410821366
100
AcDbArc
 50
277.0901027239701
 51
290.9134154817058
  0
LINE
  5
F1
330
1F
100
AcDbEntity
  8
0
  6
CONTINUOUS
 62
     3
100
AcDbLine
 10
81.68855157333493
 20
15.22917432975404
 30
0.0
 11
81.56502657333485
 21
15.60514932975405
 31
0.0
  0
ARC
  5
F2
330
1F
100
AcDbEntity
  8
0
  6
CONTINUOUS
 62
     3
100
AcDbCircle
 10
81.18347289686434
 20
16.7675985944599
 30
0.0
 40
1.223467000390025
100
AcDbArc
 50
288.1715191042997
 51
307.8537826235693
  0
ARC
  5
F3
330
1F
100
AcDbEntity
  8
0
  6
CONTINUOUS
 62
     3
100
AcDbCircle
 10
81.40927386497
 20
16.33407518472912
 30
0.0
 40
0.747769185530635
100
AcDbArc
 50
314.592391474832
 51
344.9374073189123
  0
ARC
  5
F4
330
1F
100
AcDbEntity
  8
0
  6
CONTINUOUS
 62
     3
100
AcDbCircle
 10
32.73385521230304
 20
19.35197335838838
 30
0.0
 40
49.51400430399008
100
AcDbArc
 50
356.8390243485978
 51
2.971133813187157
  0
ARC
  5
F5
330
1F
100
AcDbEntity
  8
0
  6
CONTINUOUS
 62
     3
100
AcDbCircle
 10
75.21439565228067
 20
16.97342761922791
 30
0.0
 40
6.9670150498006
100
AcDbArc
 50
353.1274757312911
 51
357.106204490141
  0
LINE
  5
F6
330
1F
100
AcDbEntity
  8
0
  6
CONTINUOUS
 62
     3
100
AcDbLine
 10
84.71727657333494
 20
19.43644932975408
 30
0.0
 11
84.71727657333494
 21
19.07194932975406
 31
0.0
  0
ARC
  5
F7
330
1F
100
AcDbEntity
  8
0
  6
CONTINUOUS
 62
     3
100
AcDbCircle
 10
85.58253617703971
 20
18.62890191857883
 30
0.0
 40
0.89488110517672
100
AcDbArc
 50
103.4267945469744
 51
150.3242613737993
  0
ARC
  5
F8
330
1F
100
AcDbEntity
  8
0
  6
CONTINUOUS
 62
     3
100
AcDbCircle
 10
85.64799095799296
 20
18.49383830513019
 30
0.0
 40
1.04195273466423
100
AcDbArc
 50
77.23143261361693
 51
105.203415964315
  0
ARC
  5
F9
330
1F
100
AcDbEntity
  8
0
  6
CONTINUOUS
 62
     3
100
AcDbCircle
 10
85.69283412818672
 20
18.82741886153422
 30
0.0
 40
0.707346538626
100
AcDbArc
 50
3.537639967999379
 51
74.8013566619203
  0
ARC
  5
FA
330
1F
100
AcDbEntity
  8
0
  6
CONTINUOUS
 62
     3
100
AcDbCircle
 10
85.1005387356756
 20
18.69229870375121
 30
0.0
 40
1.31054375101892
100
AcDbArc
 50
353.0315250986587
 51
7.839947970678348
  0
ARC
  5
FB
330
1F
100
AcDbEntity
  8
0
  6
CONTINUOUS
 62
     3
100
AcDbCircle
 10
86.23230955674327
 20
18.56511332504285
 30
0.0
 40
0.17205882822813
100
AcDbArc
 50
291.5204897073511
 51
349.3445900274031
  0
ARC
  5
FC
330
1F
100
AcDbEntity
  8
0
  6
CONTINUOUS
 62
     3
100
AcDbCircle
 10
85.83433050111884
 20
19.36407362688745
 30
0.0
 40
1.064113335272785
100
AcDbArc
 50
282.7195832898965
 51
295.6781112778079
  0
ARC
  5
FD
330
1F
100
AcDbEntity
  8
0
  6
CONTINUOUS
 62
     3
100
AcDbCircle
 10
83.28530099986776
 20
30.7120202977521
 30
0.0
 40
12.69482409370382
100
AcDbArc
 50
278.8438342053764
 51
282.6649181367123
  0
ARC
  5
FE
330
1F
100
AcDbEntity
  8
0
  6
CONTINUOUS
 62
     3
100
AcDbCircle
 10
85.50970138676777
 20
16.89608481482869
 30
0.0
 40
1.30093661698492
100
AcDbArc
 50
102.0988446293839
 51
129.1556705448828
  0
ARC
  5
FF
330
1F
100
AcDbEntity
  8
0
  6
CONTINUOUS
 62
     3
100
AcDbCircle
 10
85.13972379031142
 20
17.36366332500798
 30
0.0
 40
0.70479537055792
100
AcDbArc
 50
129.8344892359069
 51
168.4089447024628
  0
ARC
  5
100
330
1F
100
AcDbEntity
  8
0
  6
CONTINUOUS
 62
     3
100
AcDbCircle
 10
85.29075018570981
 20
17.27758712547747
 30
0.0
 40
0.87170937258867
100
AcDbArc
 50
164.8589457925044
 51
187.8495628504518
  0
ARC
  5
101
330
1F
100
AcDbEntity
  8
0
  6
CONTINUOUS
 62
     3
100
AcDbCircle
 10
85.20915332916488
 20
17.24015021572864
 30
0.0
 40
0.78619234712629
100
AcDbArc
 50
185.9586126338419
 51
224.0091989319859
  0
ARC
  5
102
330
1F
100
AcDbEntity
  8
0
  6
CONTINUOUS
 62
     3
100
AcDbCircle
 10
85.24562953037875
 20
17.28111104772596
 30
0.0
 40
0.840895657756365
100
AcDbArc
 50
224.289750990011
 51
255.6505938786759
  0
ARC
  5
103
330
1F
100
AcDbEntity
  8
0
  6
CONTINUOUS
 62
     3
100
AcDbCircle
 10
85.22928130737748
 20
17.06963494387411
 30
0.0
 40
0.633022832091785
100
AcDbArc
 50
252.3384873625213
 51
268.8069976857606
  0
LINE
  5
104
330
1F
100
AcDbEntity
  8
0
  6
CONTINUOUS
 62
     3
100
AcDbLine
 10
85.21610157333484
 20
16.43674932975406
 30
0.0
 11
85.49015157333494
 21
16.43674932975406
 31
0.0
  0
ARC
  5
105
330
1F
100
AcDbEntity
  8
0
  6
CONTINUOUS
 62
     3
100
AcDbCircle
 10
85.36613045867998
 20
17.79534026256825
 30
0.0
 40
1.36423992010393
100
AcDbArc
 50
275.2158792069686
 51
319.2336424873511
  0
ARC
  5
106
330
1F
100
AcDbEntity
  8
0
  6
CONTINUOUS
 62
     3
100
AcDbCircle
 10
86.88315560559303
 20
16.96492594265731
 30
0.0
 40
0.48753513400972
100
AcDbArc
 50
187.1167640402297
 51
216.4860549324747
  0
ARC
  5
107
330
1F
100
AcDbEntity
  8
0
  6
CONTINUOUS
 62
     3
100
AcDbCircle
 10
86.8293773508245
 20
16.9336745652863
 30
0.0
 40
0.4257695506204
100
AcDbArc
 50
217.4081478714985
 51
264.8118660441384
  0
ARC
  5
108
330
1F
100
AcDbEntity
  8
0
  6
CONTINUOUS
 62
     3
100
AcDbCircle
 10
86.98995891946569
 20
17.36464512823033
 30
0.0
 40
0.856540620020895
100
AcDbArc
 50
271.2220539293239
 51
292.8159509797653
  0
LINE
  5
109
330
1F
100
AcDbEntity
  8
0
  6
CONTINUOUS
 62
     3
100
AcDbLine
 10
86.79087657333488
 20
16.50964932975409
 30
0.0
 11
87.00822657333478
 21
16.50964932975409
 31
0.0
  0
LINE
  5
10A
330
1F
100
AcDbEntity
  8
0
  6
CONTINUOUS
 62
     3
100
AcDbLine
 10
87.32210157333495
 20
16.57512432975408
 30
0.0
 11
87.32210157333495
 21
16.73239932975405
 31
0.0
  0
ARC
  5
10B
330
1F
100
AcDbEntity
  8
0
  6
CONTINUOUS
 62
     3
100
AcDbCircle
 10
87.18242078458954
 20
17.0006118874109
 30
0.0
 40
0.30240485913648
100
AcDbArc
 50
243.6191685566582
 51
297.5097757939563
  0
ARC
  5
10C
330
1F
100
AcDbEntity
  8
0
  6
CONTINUOUS
 62
     3
100
AcDbCircle
 10
87.2182398944702
 20
16.98302928780475
 30
0.0
 40
0.30518868310739
100
AcDbArc
 50
179.9117548191414
 51
236.1065985968857
  0
ARC
  5
10D
330
1F
100
AcDbEntity
  8
0
  6
CONTINUOUS
 62
     3
100
AcDbCircle
 10
132.2650135838809
 20
17.49323843931733
 30
0.0
 40
45.35482655865663
100
AcDbArc
 50
178.2526643324597
 51
180.6439560401927
  0
ARC
  5
10E
330
1F
100
AcDbEntity
  8
0
  6
CONTINUOUS
 62
     3
100
AcDbCircle
 10
85.90706272603776
 20
18.80191625973313
 30
0.0
 40
1.02690407511459
100
AcDbArc
 50
4.148222840814693
 51
92.36000944257292
  0
ARC
  5
10F
330
1F
100
AcDbEntity
  8
0
  6
CONTINUOUS
 62
     3
100
AcDbCircle
 10
85.82685324126518
 20
18.06167288926886
 30
0.0
 40
1.766683515327065
100
AcDbArc
 50
88.77000393305703
 51
128.9068631829044
  0
LINE
  5
110
330
1F
100
AcDbEntity
  8
枠_表
  6
CONTINUOUS
 62
     7
100
AcDbLine
 10
333.0000000000952
 20
201.0
 30
0.0
 11
3063.000000000099
 21
201.0
 31
0.0
  0
LINE
  5
111
330
1F
100
AcDbEntity
  8
枠_表
  6
CONTINUOUS
 62
     7
100
AcDbLine
 10
3063.000000000099
 20
201.0
 30
0.0
 11
3063.000000000099
 21
4326.0
 31
0.0
  0
LINE
  5
112
330
1F
100
AcDbEntity
  8
枠_表
  6
CONTINUOUS
 62
     7
100
AcDbLine
 10
333.0000000000952
 20
4326.0
 30
0.0
 11
3063.000000000099
 21
4326.0
 31
0.0
  0
LINE
  5
113
330
1F
100
AcDbEntity
  8
枠_表
  6
CONTINUOUS
 62
     6
100
AcDbLine
 10
3063.000000000099
 20
351.0
 30
0.0
 11
1188.000000000095
 21
351.0
 31
0.0
  0
LINE
  5
114
330
1F
100
AcDbEntity
  8
枠_表
  6
CONTINUOUS
 62
     6
100
AcDbLine
 10
2853.000000000099
 20
531.0
 30
0.0
 11
2853.000000000099
 21
351.0
 31
0.0
  0
LINE
  5
115
330
1F
100
AcDbEntity
  8
枠_表
  6
CONTINUOUS
 62
     6
100
AcDbLine
 10
2778.000000000097
 20
531.0
 30
0.0
 11
2778.000000000097
 21
351.0
 31
0.0
  0
LINE
  5
116
330
1F
100
AcDbEntity
  8
枠_表
  6
CONTINUOUS
 62
     6
100
AcDbLine
 10
2223.000000000093
 20
531.0
 30
0.0
 11
2223.000000000093
 21
201.0
 31
0.0
  0
LINE
  5
117
330
1F
100
AcDbEntity
  8
枠_表
  6
CONTINUOUS
 62
     6
100
AcDbLine
 10
2148.000000000093
 20
531.0
 30
0.0
 11
2148.000000000093
 21
201.0
 31
0.0
  0
LINE
  5
118
330
1F
100
AcDbEntity
  8
枠_表
  6
CONTINUOUS
 62
     6
100
AcDbLine
 10
1263.000000000095
 20
531.0
 30
0.0
 11
1263.000000000095
 21
351.0
 31
0.0
  0
LINE
  5
119
330
1F
100
AcDbEntity
  8
枠_表
  6
CONTINUOUS
 62
     6
100
AcDbLine
 10
1188.000000000095
 20
531.0
 30
0.0
 11
1188.000000000095
 21
201.0
 31
0.0
  0
LINE
  5
11A
330
1F
100
AcDbEntity
  8
枠_表
  6
CONTINUOUS
 62
     6
100
AcDbLine
 10
993.0000000000962
 20
531.0
 30
0.0
 11
993.0000000000962
 21
201.0
 31
0.0
  0
LINE
  5
11B
330
1F
100
AcDbEntity
  8
枠_表
  6
CONTINUOUS
 62
     6
100
AcDbLine
 10
798.0000000000966
 20
531.0
 30
0.0
 11
798.0000000000966
 21
201.0
 31
0.0
  0
LINE
  5
11C
330
1F
100
AcDbEntity
  8
枠_表
  6
CONTINUOUS
 62
     6
100
AcDbLine
 10
565.5000000000948
 20
531.0
 30
0.0
 11
565.5000000000948
 21
201.0
 31
0.0
  0
LINE
  5
11D
330
1F
100
AcDbEntity
  8
枠_表
  6
CONTINUOUS
 62
     6
100
AcDbLine
 10
333.0000000000952
 20
456.0
 30
0.0
 11
1188.000000000095
 21
456.0
 31
0.0
  0
LINE
  5
11E
330
1F
100
AcDbEntity
  8
枠_表
  6
CONTINUOUS
 62
     6
100
AcDbLine
 10
2901.980712900101
 20
385.5043945499997
 30
0.0
 11
3017.990844750099
 21
503.5497436500009
 31
0.0
  0
CIRCLE
  5
11F
330
1F
100
AcDbEntity
  8
枠_表
  6
CONTINUOUS
 62
     6
100
AcDbCircle
 10
640.5000000000948
 20
238.5
 30
0.0
 40
1.5000003
  0
CIRCLE
  5
120
330
1F
100
AcDbEntity
  8
枠_表
  6
CONTINUOUS
 62
     6
100
AcDbCircle
 10
715.5000000000948
 20
238.5
 30
0.0
 40
1.5000003
  0
LINE
  5
121
330
1F
100
AcDbEntity
  8
枠_表
  6
EXLTYPE2
 62
     6
100
AcDbLine
 10
333.0000000000952
 20
276.0
 30
0.0
 11
798.0000000000966
 21
276.0
 31
0.0
  0
CIRCLE
  5
122
330
1F
100
AcDbEntity
  8
枠_表
  6
CONTINUOUS
 62
     6
100
AcDbCircle
 10
408.0000000000957
 20
238.5
 30
0.0
 40
1.5000003
  0
CIRCLE
  5
123
330
1F
100
AcDbEntity
  8
枠_表
  6
CONTINUOUS
 62
     6
100
AcDbCircle
 10
483.0000000000957
 20
238.5
 30
0.0
 40
1.5000003
  0
LINE
  5
124
330
1F
100
AcDbEntity
  8
枠_表
  6
EXLTYPE2
 62
     1
100
AcDbLine
 10
333.0000000000993
 20
2263.5
 30
0.0
 11
-11.99999999990069
 21
2263.5
 31
0.0
  0
LINE
  5
125
330
1F
100
AcDbEntity
  8
枠_表
  6
CONTINUOUS
 62
     7
100
AcDbLine
 10
333.0000000000952
 20
531.0
 30
0.0
 11
3063.000000000099
 21
531.0
 31
0.0
  0
TEXT
  5
126
330
1F
100
AcDbEntity
  8
枠_表
  6
CONTINUOUS
 62
     2
100
AcDbText
 10
824.2500000000966
 20
461.6250019073486
 30
0.0
 40
63.74999618530273
  1
検図
 41
1.303826737454632
  7
EXCADSTD
 72
     5
 11
954.8654921328557
 21
461.6250019073486
 31
0.0
100
AcDbText
  0
TEXT
  5
127
330
1F
100
AcDbEntity
  8
枠_表
  6
CONTINUOUS
 62
     2
100
AcDbText
 10
1019.250000000096
 20
461.6250019073486
 30
0.0
 40
63.74999618530273
  1
承認
 41
1.303826737454632
  7
EXCADSTD
 72
     5
 11
1149.865492132855
 21
461.6250019073486
 31
0.0
100
AcDbText
  0
TEXT
  5
128
330
1F
100
AcDbEntity
  8
枠_表
  6
CONTINUOUS
 62
     2
100
AcDbText
 10
1196.625000000096
 20
371.6250019073486
 30
0.0
 40
63.74999618530273
  1
名
 41
1.119999999999999
  7
EXCADSTD
 72
     5
 11
1247.624996948338
 21
371.6250019073486
 31
0.0
100
AcDbText
  0
TEXT
  5
129
330
1F
100
AcDbEntity
  8
枠_表
  6
CONTINUOUS
 62
     2
100
AcDbText
 10
1196.625000000096
 20
446.6250019073486
 30
0.0
 40
63.74999618530273
  1
品
 41
1.119999999999999
  7
EXCADSTD
 72
     5
 11
1247.624996948338
 21
446.6250019073486
 31
0.0
100
AcDbText
  0
TEXT
  5
12A
330
1F
100
AcDbEntity
  8
枠_表
  6
CONTINUOUS
 62
     2
100
AcDbText
 10
1419.000000000095
 20
442.5
 30
0.0
 40
74.99999237060547
  1
アルテシリーズ
 41
1.314634158498874
  7
EXCADSTD
 72
     5
 11
1996.499946594334
 21
442.5
 31
0.0
100
AcDbText
  0
TEXT
  5
12B
330
1F
100
AcDbEntity
  8
枠_表
  6
CONTINUOUS
 62
     2
100
AcDbText
 10
1419.000000000095
 20
367.5000076293945
 30
0.0
 40
74.99999237060547
  1
  洗面化粧台
 41
1.07441861458712
  7
EXCADSTD
 72
     5
 11
1913.999954223728
 21
367.5000076293945
 31
0.0
100
AcDbText
  0
TEXT
  5
12C
330
1F
100
AcDbEntity
  8
枠_表
  6
CONTINUOUS
 62
     2
100
AcDbText
 10
2156.625000000094
 20
446.6250019073486
 30
0.0
 40
63.74999618530273
  1
品
 41
1.120000000000004
  7
EXCADSTD
 72
     5
 11
2207.624996948337
 21
446.6250019073486
 31
0.0
100
AcDbText
  0
TEXT
  5
12D
330
1F
100
AcDbEntity
  8
枠_表
  6
CONTINUOUS
 62
     2
100
AcDbText
 10
2156.625000000094
 20
371.6250019073486
 30
0.0
 40
63.74999618530273
  1
番
 41
1.120000000000004
  7
EXCADSTD
 72
     5
 11
2207.624996948337
 21
371.6250019073486
 31
0.0
100
AcDbText
  0
TEXT
  5
12E
330
1F
100
AcDbEntity
  8
枠_表
  6
CONTINUOUS
 62
     2
100
AcDbText
 10
2156.625000000094
 20
277.1250019073495
 30
0.0
 40
63.74999618530273
  1
図
 41
1.120000000000004
  7
EXCADSTD
 72
     5
 11
2207.624996948337
 21
277.1250019073495
 31
0.0
100
AcDbText
  0
TEXT
  5
12F
330
1F
100
AcDbEntity
  8
枠_表
  6
CONTINUOUS
 62
     2
100
AcDbText
 10
2156.625000000094
 20
212.6250019073486
 30
0.0
 40
63.74999618530273
  1
番
 41
1.120000000000004
  7
EXCADSTD
 72
     5
 11
2207.624996948337
 21
212.6250019073486
 31
0.0
100
AcDbText
  0
TEXT
  5
130
330
1F
100
AcDbEntity
  8
枠_表
  6
CONTINUOUS
 62
     7
100
AcDbText
 10
2241.000002503492
 20
225.7500038146973
 30
0.0
 40
104.9999923706055
  1
ＬＵ２１７６９０
 41
1.140425528204549
  7
EXCADSTD
 72
     5
 11
3044.999941468336
 21
225.7500038146973
 31
0.0
100
AcDbText
  0
TEXT
  5
131
330
1F
100
AcDbEntity
  8
枠_表
  6
CONTINUOUS
 62
     2
100
AcDbText
 10
2788.1250000001
 20
446.6250019073486
 30
0.0
 40
63.74999618530273
  1
尺
 41
1.120000000000004
  7
EXCADSTD
 72
     5
 11
2839.124996948343
 21
446.6250019073486
 31
0.0
100
AcDbText
  0
TEXT
  5
132
330
1F
100
AcDbEntity
  8
枠_表
  6
CONTINUOUS
 62
     2
100
AcDbText
 10
2788.1250000001
 20
371.6250019073486
 30
0.0
 40
63.74999618530273
  1
度
 41
1.120000000000004
  7
EXCADSTD
 72
     5
 11
2839.124996948343
 21
371.6250019073486
 31
0.0
100
AcDbText
  0
TEXT
  5
133
330
1F
100
AcDbEntity
  8
枠_表
  6
CONTINUOUS
 62
     2
100
AcDbText
 10
2898.805664100099
 20
452.5841674500002
 30
0.0
 40
44.99999618530273
  1
１
 41
1.101333426694527
  7
EXCADSTD
 72
     5
 11
2934.205664100099
 21
452.5841674500002
 31
0.0
100
AcDbText
  0
TEXT
  5
134
330
1F
100
AcDbEntity
  8
枠_表
  6
CONTINUOUS
 62
     2
100
AcDbText
 10
2959.918945350099
 20
386.0232695999989
 30
0.0
 40
44.99999618530273
  1
１５
 41
1.098531308335255
  7
EXCADSTD
 72
     5
 11
3037.600795568634
 21
386.0232695999989
 31
0.0
100
AcDbText
  0
TEXT
  5
135
330
1F
100
AcDbEntity
  8
枠_表
  6
CONTINUOUS
 62
     6
100
AcDbText
 10
815.2500000000675
 20
328.5000038146973
 30
0.0
 40
74.99999237060547
  1
中村
 41
1.224910918732915
  7
EXCADSTD
 72
     5
 11
959.6144864509304
 21
328.5000038146973
 31
0.0
100
AcDbText
  0
TEXT
  5
136
330
1F
100
AcDbEntity
  8
枠_表
  6
CONTINUOUS
 62
     6
100
AcDbText
 10
1011.750000000067
 20
328.5000038146973
 30
0.0
 40
74.99999237060547
  1
間瀬
 41
1.224910918732915
  7
EXCADSTD
 72
     5
 11
1156.11448645093
 21
328.5000038146973
 31
0.0
100
AcDbText
  0
TEXT
  5
137
330
1F
100
AcDbEntity
  8
枠_表
  6
CONTINUOUS
 62
     6
100
AcDbText
 10
491.1750006686573
 20
219.0000019073486
 30
0.0
 40
38.99999618530273
  1
２７
 41
1.011785392295636
  7
EXCADSTD
 72
     5
 11
553.1829850741749
 21
219.0000019073486
 31
0.0
100
AcDbText
  0
TEXT
  5
138
330
1F
100
AcDbEntity
  8
枠_表
  6
CONTINUOUS
 62
     6
100
AcDbText
 10
425.5875002146724
 20
219.0000019073486
 30
0.0
 40
38.99999618530273
  1
２
 41
1.143692331919776
  7
EXCADSTD
 72
     5
 11
457.4474977732662
 21
219.0000019073486
 31
0.0
100
AcDbText
  0
TEXT
  5
139
330
1F
100
AcDbEntity
  8
枠_表
  6
CONTINUOUS
 62
     6
100
AcDbText
 10
342.3750000289116
 20
217.5000019073486
 30
0.0
 40
41.99999618530273
  1
'17
 41
0.5024768548251644
  7
EXCADSTD
 72
     5
 11
389.6078200925027
 21
217.5000019073486
 31
0.0
100
AcDbText
  0
LINE
  5
13A
330
1F
100
AcDbEntity
  8
枠_表
  6
CONTINUOUS
 62
     6
100
AcDbLine
 10
1788.000000000089
 20
4198.5
 30
0.0
 11
2988.000000000099
 21
4198.5
 31
0.0
  0
LINE
  5
13B
330
1F
100
AcDbEntity
  8
枠_表
  6
CONTINUOUS
 62
     6
100
AcDbLine
 10
1788.000000000089
 20
4116.0
 30
0.0
 11
2988.000000000099
 21
4116.0
 31
0.0
  0
LINE
  5
13C
330
1F
100
AcDbEntity
  8
枠_表
  6
CONTINUOUS
 62
     6
100
AcDbLine
 10
1788.000000000089
 20
4116.0
 30
0.0
 11
1788.000000000089
 21
4281.0
 31
0.0
  0
LINE
  5
13D
330
1F
100
AcDbEntity
  8
枠_表
  6
CONTINUOUS
 62
     6
100
AcDbLine
 10
2238.000000000091
 20
4116.0
 30
0.0
 11
2238.000000000091
 21
4281.0
 31
0.0
  0
LINE
  5
13E
330
1F
100
AcDbEntity
  8
枠_表
  6
CONTINUOUS
 62
     6
100
AcDbLine
 10
2838.000000000099
 20
4116.0
 30
0.0
 11
2838.000000000099
 21
4281.0
 31
0.0
  0
LINE
  5
13F
330
1F
100
AcDbEntity
  8
枠_表
  6
CONTINUOUS
 62
     6
100
AcDbLine
 10
2988.000000000099
 20
4116.0
 30
0.0
 11
2988.000000000099
 21
4281.0
 31
0.0
  0
LINE
  5
140
330
1F
100
AcDbEntity
  8
枠_表
  6
CONTINUOUS
 62
     6
100
AcDbLine
 10
1788.000000000089
 20
3951.0
 30
0.0
 11
1788.000000000089
 21
4033.499999999996
 31
0.0
  0
LINE
  5
141
330
1F
100
AcDbEntity
  8
枠_表
  6
CONTINUOUS
 62
     6
100
AcDbLine
 10
2238.000000000091
 20
3951.0
 30
0.0
 11
2238.000000000091
 21
4033.499999999996
 31
0.0
  0
LINE
  5
142
330
1F
100
AcDbEntity
  8
枠_表
  6
CONTINUOUS
 62
     6
100
AcDbLine
 10
1788.000000000089
 20
3786.0
 30
0.0
 11
1788.000000000089
 21
3868.499999999996
 31
0.0
  0
LINE
  5
143
330
1F
100
AcDbEntity
  8
枠_表
  6
CONTINUOUS
 62
     6
100
AcDbLine
 10
2238.000000000091
 20
3786.0
 30
0.0
 11
2238.000000000091
 21
3868.499999999996
 31
0.0
  0
LINE
  5
144
330
1F
100
AcDbEntity
  8
枠_表
  6
CONTINUOUS
 62
     6
100
AcDbLine
 10
2988.000000000099
 20
3786.0
 30
0.0
 11
2988.000000000099
 21
3868.499999999996
 31
0.0
  0
LINE
  5
145
330
1F
100
AcDbEntity
  8
枠_表
  6
CONTINUOUS
 62
     6
100
AcDbLine
 10
2838.000000000099
 20
3786.0
 30
0.0
 11
2838.000000000099
 21
3868.499999999996
 31
0.0
  0
LINE
  5
146
330
1F
100
AcDbEntity
  8
枠_表
  6
CONTINUOUS
 62
     6
100
AcDbLine
 10
1788.000000000089
 20
3785.999999999996
 30
0.0
 11
2988.000000000099
 21
3785.999999999996
 31
0.0
  0
LINE
  5
147
330
1F
100
AcDbEntity
  8
枠_表
  6
CONTINUOUS
 62
     6
100
AcDbLine
 10
1788.000000000089
 20
3868.499999999996
 30
0.0
 11
2988.000000000099
 21
3868.499999999996
 31
0.0
  0
LINE
  5
148
330
1F
100
AcDbEntity
  8
枠_表
  6
CONTINUOUS
 62
     6
100
AcDbLine
 10
2988.000000000099
 20
3951.0
 30
0.0
 11
2988.000000000099
 21
4033.499999999996
 31
0.0
  0
LINE
  5
149
330
1F
100
AcDbEntity
  8
枠_表
  6
CONTINUOUS
 62
     6
100
AcDbLine
 10
2838.000000000099
 20
3951.0
 30
0.0
 11
2838.000000000099
 21
4033.499999999996
 31
0.0
  0
LINE
  5
14A
330
1F
100
AcDbEntity
  8
枠_表
  6
CONTINUOUS
 62
     6
100
AcDbLine
 10
1788.000000000089
 20
3950.999999999996
 30
0.0
 11
2988.000000000099
 21
3950.999999999996
 31
0.0
  0
LINE
  5
14B
330
1F
100
AcDbEntity
  8
枠_表
  6
CONTINUOUS
 62
     6
100
AcDbLine
 10
1788.000000000089
 20
4033.499999999996
 30
0.0
 11
2988.000000000099
 21
4033.499999999996
 31
0.0
  0
LINE
  5
14C
330
1F
100
AcDbEntity
  8
枠_表
  6
CONTINUOUS
 62
     6
100
AcDbLine
 10
1788.000000000089
 20
3621.0
 30
0.0
 11
1788.000000000089
 21
3703.499999999996
 31
0.0
  0
LINE
  5
14D
330
1F
100
AcDbEntity
  8
枠_表
  6
CONTINUOUS
 62
     6
100
AcDbLine
 10
2238.000000000091
 20
3621.0
 30
0.0
 11
2238.000000000091
 21
3703.499999999996
 31
0.0
  0
LINE
  5
14E
330
1F
100
AcDbEntity
  8
枠_表
  6
CONTINUOUS
 62
     6
100
AcDbLine
 10
2988.000000000099
 20
3621.0
 30
0.0
 11
2988.000000000099
 21
3703.499999999996
 31
0.0
  0
LINE
  5
14F
330
1F
100
AcDbEntity
  8
枠_表
  6
CONTINUOUS
 62
     6
100
AcDbLine
 10
2838.000000000099
 20
3621.0
 30
0.0
 11
2838.000000000099
 21
3703.499999999996
 31
0.0
  0
LINE
  5
150
330
1F
100
AcDbEntity
  8
枠_表
  6
CONTINUOUS
 62
     6
100
AcDbLine
 10
1788.000000000089
 20
3620.999999999996
 30
0.0
 11
2988.000000000099
 21
3620.999999999996
 31
0.0
  0
LINE
  5
151
330
1F
100
AcDbEntity
  8
枠_表
  6
CONTINUOUS
 62
     6
100
AcDbLine
 10
1788.000000000089
 20
3703.499999999996
 30
0.0
 11
2988.000000000099
 21
3703.499999999996
 31
0.0
  0
LINE
  5
152
330
1F
100
AcDbEntity
  8
枠_表
  6
CONTINUOUS
 62
     6
100
AcDbLine
 10
1788.000000000089
 20
4281.0
 30
0.0
 11
2988.000000000099
 21
4281.0
 31
0.0
  0
TEXT
  5
153
330
1F
100
AcDbEntity
  8
枠_表
  6
CONTINUOUS
 62
     2
100
AcDbText
 10
1908.00000000009
 20
4209.750001907349
 30
0.0
 40
59.99999618530273
  1
品番
 41
2.041518237445143
  7
EXCADSTD
 72
     5
 11
2100.485993006987
 21
4209.750001907349
 31
0.0
100
AcDbText
  0
TEXT
  5
154
330
1F
100
AcDbEntity
  8
枠_表
  6
CONTINUOUS
 62
     2
100
AcDbText
 10
2358.000000000097
 20
4209.750001907349
 30
0.0
 40
59.99999618530273
  1
品名
 41
2.041518237445141
  7
EXCADSTD
 72
     5
 11
2550.485993006994
 21
4209.750001907349
 31
0.0
100
AcDbText
  0
TEXT
  5
155
330
1F
100
AcDbEntity
  8
枠_表
  6
CONTINUOUS
 62
     2
100
AcDbText
 10
2253.000000000092
 20
4127.250001907349
 30
0.0
 40
59.99999618530273
  1
洗面化粧台
 41
1.164655246460579
  7
EXCADSTD
 72
     5
 11
2542.500000000092
 21
4127.250001907349
 31
0.0
100
AcDbText
  0
TEXT
  5
156
330
1F
100
AcDbEntity
  8
枠_表
  6
CONTINUOUS
 62
     2
100
AcDbText
 10
2851.500000089506
 20
4209.750001907349
 30
0.0
 40
59.99999618530273
  1
個数
 41
1.195746439659873
  7
EXCADSTD
 72
     5
 11
2964.241800089506
 21
4209.750001907349
 31
0.0
100
AcDbText
  0
TEXT
  5
157
330
1F
100
AcDbEntity
  8
枠_表
  6
CONTINUOUS
 62
     2
100
AcDbText
 10
2879.250000000099
 20
4119.000001907349
 30
0.0
 40
59.99999618530273
  1
１
 41
1.260000080108648
  7
EXCADSTD
 72
     5
 11
2933.250000000099
 21
4119.000001907349
 31
0.0
100
AcDbText
  0
TEXT
  5
158
330
1F
100
AcDbEntity
  8
枠_表
  6
CONTINUOUS
 62
     2
100
AcDbText
 10
2879.250000000099
 20
3797.250001907345
 30
0.0
 40
59.99999618530273
  1
２
 41
1.260000080108648
  7
EXCADSTD
 72
     5
 11
2933.250000000099
 21
3797.250001907345
 31
0.0
100
AcDbText
  0
TEXT
  5
159
330
1F
100
AcDbEntity
  8
枠_表
  6
CONTINUOUS
 62
     2
100
AcDbText
 10
2879.250000000099
 20
3962.250001907345
 30
0.0
 40
59.99999618530273
  1
２
 41
1.260000080108648
  7
EXCADSTD
 72
     5
 11
2933.250000000099
 21
3962.250001907345
 31
0.0
100
AcDbText
  0
TEXT
  5
15A
330
1F
100
AcDbEntity
  8
枠_表
  6
CONTINUOUS
 62
     2
100
AcDbText
 10
2253.000000000095
 20
3797.250001907345
 30
0.0
 40
59.99999618530273
  1
ストレート形止水栓（共用形）
 41
0.7590361351947703
  7
EXCADSTD
 72
     5
 11
2792.9999589921
 21
3797.250001907345
 31
0.0
100
AcDbText
  0
TEXT
  5
15B
330
1F
100
AcDbEntity
  8
枠_表
  6
CONTINUOUS
 62
     2
100
AcDbText
 10
1803.000000000091
 20
4044.750001907345
 30
0.0
 40
59.99999618530273
  1
止水栓手配品番（アングル形の場合）
 41
0.9564356294638245
  7
EXCADSTD
 72
     5
 11
2630.999935150237
 21
4044.750001907345
 31
0.0
100
AcDbText
  0
TEXT
  5
15C
330
1F
100
AcDbEntity
  8
枠_表
  6
CONTINUOUS
 62
     2
100
AcDbText
 10
2253.000000000096
 20
3962.250001907345
 30
0.0
 40
59.99999618530273
  1
アングル形止水栓（共用形）
 41
0.8159090676452161
  7
EXCADSTD
 72
     5
 11
2791.499950409032
 21
3962.250001907345
 31
0.0
100
AcDbText
  0
TEXT
  5
15D
330
1F
100
AcDbEntity
  8
枠_表
  6
CONTINUOUS
 62
     2
100
AcDbText
 10
1803.000000000091
 20
3879.750001907345
 30
0.0
 40
59.99999618530273
  1
止水栓手配品番（一般地、ストレート形の場合）
 41
0.9511450238992231
  7
EXCADSTD
 72
     5
 11
2870.999916076751
 21
3879.750001907345
 31
0.0
100
AcDbText
  0
TEXT
  5
15E
330
1F
100
AcDbEntity
  8
枠_表
  6
CONTINUOUS
 62
     2
100
AcDbText
 10
1803.000000000089
 20
3632.250001907345
 30
0.0
 40
59.99999618530273
  1
Ｐ２３７６
 41
0.8025861811911906
  7
EXCADSTD
 72
     5
 11
2002.499980926603
 21
3632.250001907345
 31
0.0
100
AcDbText
  0
TEXT
  5
15F
330
1F
100
AcDbEntity
  8
枠_表
  6
CONTINUOUS
 62
     2
100
AcDbText
 10
1803.000000000091
 20
3714.750001907345
 30
0.0
 40
59.99999618530273
  1
トラップ手配品番（壁排水の場合）
 41
0.9578947227879567
  7
EXCADSTD
 72
     5
 11
2582.999938964935
 21
3714.750001907345
 31
0.0
100
AcDbText
  0
TEXT
  5
160
330
1F
100
AcDbEntity
  8
枠_表
  6
CONTINUOUS
 62
     2
100
AcDbText
 10
2253.000000000095
 20
3632.250001907345
 30
0.0
 40
59.99999618530273
  1
壁排水トラップセット
 41
0.7711864312489822
  7
EXCADSTD
 72
     5
 11
2642.999970436192
 21
3632.250001907345
 31
0.0
100
AcDbText
  0
TEXT
  5
161
330
1F
100
AcDbEntity
  8
枠_表
  6
CONTINUOUS
 62
     2
100
AcDbText
 10
2879.250000000099
 20
3632.250001907345
 30
0.0
 40
59.99999618530273
  1
１
 41
1.260000080108648
  7
EXCADSTD
 72
     5
 11
2933.250000000099
 21
3632.250001907345
 31
0.0
100
AcDbText
  0
TEXT
  5
162
330
1F
100
AcDbEntity
  8
枠_表
  6
CONTINUOUS
 62
     2
100
AcDbText
 10
1803.000000000089
 20
3962.250001907345
 30
0.0
 40
59.99999618530273
  1
ＮＬ２２１－７５ＷＭＹ
 41
0.6784615987141966
  7
EXCADSTD
 72
     5
 11
2181.000009536832
 21
3962.250001907345
 31
0.0
100
AcDbText
  0
TEXT
  5
163
330
1F
100
AcDbEntity
  8
枠_表
  6
CONTINUOUS
 62
     2
100
AcDbText
 10
1803.000000000089
 20
3797.250001907345
 30
0.0
 40
59.99999618530273
  1
ＮＬ２１１－３００ＷＭＹ
 41
0.677816869283504
  7
EXCADSTD
 72
     5
 11
2215.499954223722
 21
3797.250001907345
 31
0.0
100
AcDbText
  0
TEXT
  5
164
330
1F
100
AcDbEntity
  8
枠_表
  6
CONTINUOUS
 62
     2
100
AcDbText
 10
1803.00000000009
 20
4127.250001907349
 30
0.0
 40
59.99999618530273
  1
ＬＵ６０２ＡＳＤ
 41
0.7446808984093662
  7
EXCADSTD
 72
     5
 11
2103.00000000009
 21
4127.250001907349
 31
0.0
100
AcDbText
  0
LINE
  5
165
330
1F
100
AcDbEntity
  8
枠_表
  6
EXLTYPE3
 62
     6
100
AcDbLine
 10
1230.000000001044
 20
2001.52173913061
 30
0.0
 11
1230.000000001044
 21
2149.443117503711
 31
0.0
  0
ARC
  5
166
330
1F
100
AcDbEntity
  8
枠_表
  6
CONTINUOUS
 62
     6
100
AcDbCircle
 10
2428.000000000053
 20
2147.139513813016
 30
0.0
 40
6.0
100
AcDbArc
 50
0.0
 51
180.0
  0
LINE
  5
167
330
1F
100
AcDbEntity
  8
枠_表
  6
CONTINUOUS
 62
     6
100
AcDbLine
 10
2434.000000000052
 20
2145.161745336442
 30
0.0
 11
2434.000000000052
 21
2147.139513813016
 31
0.0
  0
LINE
  5
168
330
1F
100
AcDbEntity
  8
枠_表
  6
CONTINUOUS
 62
     6
100
AcDbLine
 10
2422.000000000053
 20
2145.161745336442
 30
0.0
 11
2422.000000000053
 21
2147.139513813016
 31
0.0
  0
ARC
  5
169
330
1F
100
AcDbEntity
  8
枠_表
  6
CONTINUOUS
 62
     6
100
AcDbCircle
 10
2428.000000000053
 20
1845.221751337642
 30
0.0
 40
300.0
100
AcDbArc
 50
85.87651071327295
 51
89.99999999999096
  0
ARC
  5
16A
330
1F
100
AcDbEntity
  8
枠_表
  6
CONTINUOUS
 62
     6
100
AcDbCircle
 10
2428.000000000053
 20
1845.221751337642
 30
0.0
 40
300.0
100
AcDbArc
 50
90.00000000000001
 51
94.1234892867271
  0
LINE
  5
16B
330
1F
100
AcDbEntity
  8
枠_表
  6
CONTINUOUS
 62
     6
100
AcDbLine
 10
2405.500000000038
 20
2143.447756239964
 30
0.0
 11
2405.500000000038
 21
2114.22175133765
 31
0.0
  0
LINE
  5
16C
330
1F
100
AcDbEntity
  8
枠_表
  6
CONTINUOUS
 62
     6
100
AcDbLine
 10
2450.500000000039
 20
2114.221751337643
 30
0.0
 11
2450.500000000039
 21
2143.447756239966
 31
0.0
  0
LINE
  5
16D
330
1F
100
AcDbEntity
  8
枠_表
  6
CONTINUOUS
 62
     6
100
AcDbLine
 10
2405.500000000052
 20
2109.821739130476
 30
0.0
 11
2406.000000000053
 21
2110.321739130476
 31
0.0
  0
LINE
  5
16E
330
1F
100
AcDbEntity
  8
枠_表
  6
CONTINUOUS
 62
     6
100
AcDbLine
 10
2450.000000000039
 20
2110.321739130488
 30
0.0
 11
2406.000000000053
 21
2110.321739130476
 31
0.0
  0
LINE
  5
16F
330
1F
100
AcDbEntity
  8
枠_表
  6
CONTINUOUS
 62
     6
100
AcDbLine
 10
2407.6940031739
 20
2114.221751337643
 30
0.0
 11
2406.680000000039
 21
2110.321739130486
 31
0.0
  0
LINE
  5
170
330
1F
100
AcDbEntity
  8
枠_表
  6
CONTINUOUS
 62
     6
100
AcDbLine
 10
2448.30599682618
 20
2114.221751337643
 30
0.0
 11
2449.320000000039
 21
2110.321739130487
 31
0.0
  0
LINE
  5
171
330
1F
100
AcDbEntity
  8
枠_表
  6
CONTINUOUS
 62
     6
100
AcDbLine
 10
2450.000000000039
 20
2110.321739130488
 30
0.0
 11
2450.500000000039
 21
2109.821739130488
 31
0.0
  0
ARC
  5
172
330
1F
100
AcDbEntity
  8
枠_表
  6
CONTINUOUS
 62
     6
100
AcDbCircle
 10
2406.500000000047
 20
2143.447756239964
 30
0.0
 40
1.0
100
AcDbArc
 50
94.1234892867271
 51
180.0
  0
ARC
  5
173
330
1F
100
AcDbEntity
  8
枠_表
  6
CONTINUOUS
 62
     6
100
AcDbCircle
 10
2449.500000000048
 20
2143.447756239966
 30
0.0
 40
1.0
100
AcDbArc
 50
0.0
 51
85.87651071327295
  0
LINE
  5
174
330
1F
100
AcDbEntity
  8
枠_表
  6
CONTINUOUS
 62
     6
100
AcDbLine
 10
2405.500000000043
 20
2114.221751337643
 30
0.0
 11
2450.500000000039
 21
2114.221751337643
 31
0.0
  0
LINE
  5
175
330
1F
100
AcDbEntity
  8
枠_表
  6
CONTINUOUS
 62
     6
100
AcDbLine
 10
2405.500000000052
 20
2109.821739130477
 30
0.0
 11
2405.500000000052
 21
2014.000000000058
 31
0.0
  0
LINE
  5
176
330
1F
100
AcDbEntity
  8
枠_表
  6
CONTINUOUS
 62
     6
100
AcDbLine
 10
2450.500000000039
 20
2014.000000000058
 30
0.0
 11
2450.500000000039
 21
2109.821739130488
 31
0.0
  0
LINE
  5
177
330
1F
100
AcDbEntity
  8
枠_表
  6
EXLTYPE3
 62
     6
100
AcDbLine
 10
2428.000000000053
 20
2014.000000000058
 30
0.0
 11
2428.000000000053
 21
2154.9738494277
 31
0.0
  0
LINE
  5
178
330
1F
100
AcDbEntity
  8
枠_表
  6
CONTINUOUS
 62
     6
100
AcDbLine
 10
1207.000000001041
 20
2009.521739130611
 30
0.0
 11
1256.500000001043
 21
2009.521739130611
 31
0.0
  0
LINE
  5
179
330
1F
100
AcDbEntity
  8
枠_表
  6
CONTINUOUS
 62
     6
100
AcDbLine
 10
1208.500000001041
 20
2110.321739130693
 30
0.0
 11
1249.710545060091
 21
2110.321739130693
 31
0.0
  0
LINE
  5
17A
330
1F
100
AcDbEntity
  8
枠_表
  6
CONTINUOUS
 62
     6
100
AcDbLine
 10
1113.81599325344
 20
2081.681763318083
 30
0.0
 11
1112.52285024291
 21
2074.3479848723
 31
0.0
  0
LINE
  5
17B
330
1F
100
AcDbEntity
  8
枠_表
  6
CONTINUOUS
 62
     6
100
AcDbLine
 10
1137.451379325734
 20
2077.514207054077
 30
0.0
 11
1136.158236315202
 21
2070.180428608294
 31
0.0
  0
LINE
  5
17C
330
1F
100
AcDbEntity
  8
枠_表
  6
CONTINUOUS
 62
     6
100
AcDbLine
 10
1110.100955169821
 20
2082.336824766584
 30
0.0
 11
1137.45137932573
 21
2077.514207054076
 31
0.0
  0
ARC
  5
17D
330
1F
100
AcDbEntity
  8
枠_表
  6
CONTINUOUS
 62
     6
100
AcDbCircle
 10
1110.448251525159
 20
2084.306440272608
 30
0.0
 40
2.0
100
AcDbArc
 50
172.1050093001814
 51
259.9999999999939
  0
LINE
  5
17E
330
1F
100
AcDbEntity
  8
枠_表
  6
CONTINUOUS
 62
     6
100
AcDbLine
 10
1137.451379325733
 20
2077.514207054077
 30
0.0
 11
1140.405802584767
 21
2076.993262521076
 31
0.0
  0
LINE
  5
17F
330
1F
100
AcDbEntity
  8
枠_表
  6
CONTINUOUS
 62
     6
100
AcDbLine
 10
1113.407402173799
 20
2073.605757673332
 30
0.0
 11
1112.522850242909
 21
2074.3479848723
 31
0.0
  0
LINE
  5
180
330
1F
100
AcDbEntity
  8
枠_表
  6
CONTINUOUS
 62
     6
100
AcDbLine
 10
1113.4074021738
 20
2073.605757673331
 30
0.0
 11
1112.52285024291
 21
2074.3479848723
 31
0.0
  0
LINE
  5
181
330
1F
100
AcDbEntity
  8
枠_表
  6
CONTINUOUS
 62
     6
100
AcDbLine
 10
1135.073172740067
 20
2069.785497764659
 30
0.0
 11
1136.1582363152
 21
2070.180428608294
 31
0.0
  0
LINE
  5
182
330
1F
100
AcDbEntity
  8
枠_表
  6
CONTINUOUS
 62
     6
100
AcDbLine
 10
1135.07317274007
 20
2069.785497764659
 30
0.0
 11
1136.158236315202
 21
2070.180428608294
 31
0.0
  0
LINE
  5
183
330
1F
100
AcDbEntity
  8
枠_表
  6
CONTINUOUS
 62
     6
100
AcDbLine
 10
1113.407402173799
 20
2073.605757673332
 30
0.0
 11
1135.07317274007
 21
2069.785497764659
 31
0.0
  0
LINE
  5
184
330
1F
100
AcDbEntity
  8
枠_表
  6
CONTINUOUS
 62
     6
100
AcDbLine
 10
1135.07317274007
 20
2069.785497764659
 30
0.0
 11
1113.407402173799
 21
2073.605757673333
 31
0.0
  0
LINE
  5
185
330
1F
100
AcDbEntity
  8
枠_表
  6
CONTINUOUS
 62
     6
100
AcDbLine
 10
1207.500000001043
 20
2081.4788928712
 30
0.0
 11
1207.500000001043
 21
2010.021739130612
 31
0.0
  0
LINE
  5
186
330
1F
100
AcDbEntity
  8
枠_表
  6
CONTINUOUS
 62
     6
100
AcDbLine
 10
1202.000000001042
 20
2023.521739130609
 30
0.0
 11
1207.500000001043
 21
2023.521739130609
 31
0.0
  0
LINE
  5
187
330
1F
100
AcDbEntity
  8
枠_表
  6
CONTINUOUS
 62
     6
100
AcDbLine
 10
1201.500000001042
 20
2018.021739130609
 30
0.0
 11
1201.500000001042
 21
2020.521739130609
 31
0.0
  0
LINE
  5
188
330
1F
100
AcDbEntity
  8
枠_表
  6
CONTINUOUS
 62
     6
100
AcDbLine
 10
1201.500000001042
 20
2023.021739130609
 30
0.0
 11
1202.000000001042
 21
2023.521739130609
 31
0.0
  0
LINE
  5
189
330
1F
100
AcDbEntity
  8
枠_表
  6
CONTINUOUS
 62
     6
100
AcDbLine
 10
1201.500000001042
 20
2023.021739130609
 30
0.0
 11
1201.500000001042
 21
2020.521739130609
 31
0.0
  0
LINE
  5
18A
330
1F
100
AcDbEntity
  8
枠_表
  6
CONTINUOUS
 62
     6
100
AcDbLine
 10
1202.707323691101
 20
2132.916959542992
 30
0.0
 11
1204.44380546777
 21
2142.76503707308
 31
0.0
  0
LINE
  5
18B
330
1F
100
AcDbEntity
  8
枠_表
  6
CONTINUOUS
 62
     6
100
AcDbLine
 10
1204.096509112441
 20
2140.795421567088
 30
0.0
 11
1207.000000001041
 21
2140.283457785187
 31
0.0
  0
LINE
  5
18C
330
1F
100
AcDbEntity
  8
枠_表
  6
CONTINUOUS
 62
     6
100
AcDbLine
 10
1202.707323691107
 20
2132.91695954299
 30
0.0
 11
1207.000000001041
 21
2132.160044890101
 31
0.0
  0
LINE
  5
18D
330
1F
100
AcDbEntity
  8
枠_表
  6
CONTINUOUS
 62
     6
100
AcDbLine
 10
1209.545005122366
 20
2114.221751337643
 30
0.0
 11
1208.500000001041
 21
2110.321739130693
 31
0.0
  0
LINE
  5
18E
330
1F
100
AcDbEntity
  8
枠_表
  6
CONTINUOUS
 62
     6
100
AcDbLine
 10
1230.000000001041
 20
2114.221751337643
 30
0.0
 11
1252.732135844445
 21
2124.821920367543
 31
0.0
  0
LINE
  5
18F
330
1F
100
AcDbEntity
  8
枠_表
  6
CONTINUOUS
 62
     6
100
AcDbLine
 10
1207.000000001043
 20
2114.221751337643
 30
0.0
 11
1250.454994879718
 21
2114.221751337643
 31
0.0
  0
LINE
  5
190
330
1F
100
AcDbEntity
  8
枠_表
  6
CONTINUOUS
 62
     6
100
AcDbLine
 10
1248.183078168165
 20
2122.700659935725
 30
0.0
 11
1251.500000001041
 21
2110.321739130693
 31
0.0
  0
LINE
  5
191
330
1F
100
AcDbEntity
  8
枠_表
  6
CONTINUOUS
 62
     6
100
AcDbLine
 10
1207.000000001043
 20
2114.221751337643
 30
0.0
 11
1207.00000000104
 21
2140.28345778519
 31
0.0
  0
LINE
  5
192
330
1F
100
AcDbEntity
  8
枠_表
  6
CONTINUOUS
 62
     6
100
AcDbLine
 10
1252.500000001043
 20
2109.82173913061
 30
0.0
 11
1252.500000001043
 21
2010.021739130612
 31
0.0
  0
LINE
  5
193
330
1F
100
AcDbEntity
  8
枠_表
  6
CONTINUOUS
 62
     6
100
AcDbLine
 10
1202.360027335772
 20
2130.947344036966
 30
0.0
 11
1202.707323691107
 21
2132.91695954299
 31
0.0
  0
LINE
  5
194
330
1F
100
AcDbEntity
  8
枠_表
  6
CONTINUOUS
 62
     6
100
AcDbLine
 10
1143.523446012711
 20
2141.321820776869
 30
0.0
 11
1202.360027335772
 21
2130.947344036966
 31
0.0
  0
ARC
  5
195
330
1F
100
AcDbEntity
  8
枠_表
  6
CONTINUOUS
 62
     6
100
AcDbCircle
 10
1145.433575967047
 20
2152.154706060003
 30
0.0
 40
1.0
100
AcDbArc
 50
79.99999999999613
 51
164.1432980900702
  0
ARC
  5
196
330
1F
100
AcDbEntity
  8
枠_表
  6
CONTINUOUS
 62
     6
100
AcDbCircle
 10
1143.697094190378
 20
2142.306628529881
 30
0.0
 40
1.0
100
AcDbArc
 50
175.8567019099283
 51
259.9999999999962
  0
ARC
  5
197
330
1F
100
AcDbEntity
  8
枠_表
  6
CONTINUOUS
 62
     6
100
AcDbCircle
 10
1192.56903111864
 20
2138.766320509374
 30
0.0
 40
50.0
100
AcDbArc
 50
164.1432980900754
 51
175.856701909917
  0
LINE
  5
198
330
1F
100
AcDbEntity
  8
枠_表
  6
CONTINUOUS
 62
     6
100
AcDbLine
 10
1145.607224144714
 20
2153.139513813016
 30
0.0
 11
1204.443805467776
 21
2142.765037073112
 31
0.0
  0
LINE
  5
199
330
1F
100
AcDbEntity
  8
枠_表
  6
CONTINUOUS
 62
     6
100
AcDbLine
 10
1207.000000001043
 20
2143.411288377442
 30
0.0
 11
1207.000000001041
 21
2140.283457785186
 31
0.0
  0
ARC
  5
19A
330
1F
100
AcDbEntity
  8
枠_表
  6
CONTINUOUS
 62
     6
100
AcDbCircle
 10
1208.000000001043
 20
2143.411288377442
 30
0.0
 40
1.0
100
AcDbArc
 50
94.21955614295965
 51
180.0
  0
ARC
  5
19B
330
1F
100
AcDbEntity
  8
枠_表
  6
CONTINUOUS
 62
     6
100
AcDbCircle
 10
1230.000000001044
 20
1845.221751337642
 30
0.0
 40
300.0
100
AcDbArc
 50
85.78044385704132
 51
94.21955614295862
  0
ARC
  5
19C
330
1F
100
AcDbEntity
  8
枠_表
  6
CONTINUOUS
 62
     6
100
AcDbCircle
 10
1252.000000001043
 20
2143.411288377442
 30
0.0
 40
1.0
100
AcDbArc
 50
0.0
 51
85.7804438570404
  0
LINE
  5
19D
330
1F
100
AcDbEntity
  8
枠_表
  6
CONTINUOUS
 62
     6
100
AcDbLine
 10
1253.000000001043
 20
2143.411288377442
 30
0.0
 11
1253.000000001043
 21
2137.221751337643
 31
0.0
  0
POLYLINE
  5
19E
330
1F
100
AcDbEntity
  8
枠_表
  6
CONTINUOUS
 62
     6
100
AcDb2dPolyline
 66
     1
 10
0.0
 20
0.0
 30
0.0
 70
   128
  0
VERTEX
  5
19F
330
19E
100
AcDbEntity
  8
枠_表
  6
CONTINUOUS
 62
     6
100
AcDbVertex
100
AcDb2dVertex
 10
1252.803508503045
 20
2134.221751337643
 30
0.0
  0
VERTEX
  5
1A0
330
19E
100
AcDbEntity
  8
枠_表
  6
CONTINUOUS
 62
     6
100
AcDbVertex
100
AcDb2dVertex
 10
1252.8035702338
 20
2134.229813358076
 30
0.0
  0
VERTEX
  5
1A1
330
19E
100
AcDbEntity
  8
枠_表
  6
CONTINUOUS
 62
     6
100
AcDbVertex
100
AcDb2dVertex
 10
1252.803755461603
 20
2134.252705609319
 30
0.0
  0
VERTEX
  5
1A2
330
19E
100
AcDbEntity
  8
枠_表
  6
CONTINUOUS
 62
     6
100
AcDbVertex
100
AcDb2dVertex
 10
1252.804064239762
 20
2134.288487376286
 30
0.0
  0
VERTEX
  5
1A3
330
19E
100
AcDbEntity
  8
枠_表
  6
CONTINUOUS
 62
     6
100
AcDbVertex
100
AcDb2dVertex
 10
1252.804496621584
 20
2134.335217943893
 30
0.0
  0
VERTEX
  5
1A4
330
19E
100
AcDbEntity
  8
枠_表
  6
CONTINUOUS
 62
     6
100
AcDbVertex
100
AcDb2dVertex
 10
1252.805052660377
 20
2134.390956597054
 30
0.0
  0
VERTEX
  5
1A5
330
19E
100
AcDbEntity
  8
枠_表
  6
CONTINUOUS
 62
     6
100
AcDbVertex
100
AcDb2dVertex
 10
1252.805732409449
 20
2134.453762620687
 30
0.0
  0
VERTEX
  5
1A6
330
19E
100
AcDbEntity
  8
枠_表
  6
CONTINUOUS
 62
     6
100
AcDbVertex
100
AcDb2dVertex
 10
1252.806535922106
 20
2134.521695299706
 30
0.0
  0
VERTEX
  5
1A7
330
19E
100
AcDbEntity
  8
枠_表
  6
CONTINUOUS
 62
     6
100
AcDbVertex
100
AcDb2dVertex
 10
1252.807463251656
 20
2134.592813919026
 30
0.0
  0
VERTEX
  5
1A8
330
19E
100
AcDbEntity
  8
枠_表
  6
CONTINUOUS
 62
     6
100
AcDbVertex
100
AcDb2dVertex
 10
1252.808514451408
 20
2134.665177763562
 30
0.0
  0
VERTEX
  5
1A9
330
19E
100
AcDbEntity
  8
枠_表
  6
CONTINUOUS
 62
     6
100
AcDbVertex
100
AcDb2dVertex
 10
1252.809689574668
 20
2134.736846118229
 30
0.0
  0
VERTEX
  5
1AA
330
19E
100
AcDbEntity
  8
枠_表
  6
CONTINUOUS
 62
     6
100
AcDbVertex
100
AcDb2dVertex
 10
1252.810988674744
 20
2134.805878267944
 30
0.0
  0
VERTEX
  5
1AB
330
19E
100
AcDbEntity
  8
枠_表
  6
CONTINUOUS
 62
     6
100
AcDbVertex
100
AcDb2dVertex
 10
1252.812362644893
 20
2134.868668140216
 30
0.0
  0
VERTEX
  5
1AC
330
19E
100
AcDbEntity
  8
枠_表
  6
CONTINUOUS
 62
     6
100
AcDbVertex
100
AcDb2dVertex
 10
1252.813852274092
 20
2134.92767494491
 30
0.0
  0
VERTEX
  5
1AD
330
19E
100
AcDbEntity
  8
枠_表
  6
CONTINUOUS
 62
     6
100
AcDbVertex
100
AcDb2dVertex
 10
1252.815457268128
 20
2134.983394484819
 30
0.0
  0
VERTEX
  5
1AE
330
19E
100
AcDbEntity
  8
枠_表
  6
CONTINUOUS
 62
     6
100
AcDbVertex
100
AcDb2dVertex
 10
1252.817177332784
 20
2135.03632256274
 30
0.0
  0
VERTEX
  5
1AF
330
19E
100
AcDbEntity
  8
枠_表
  6
CONTINUOUS
 62
     6
100
AcDbVertex
100
AcDb2dVertex
 10
1252.819012173847
 20
2135.086954981471
 30
0.0
  0
VERTEX
  5
1B0
330
19E
100
AcDbEntity
  8
枠_表
  6
CONTINUOUS
 62
     6
100
AcDbVertex
100
AcDb2dVertex
 10
1252.820961497102
 20
2135.135787543806
 30
0.0
  0
VERTEX
  5
1B1
330
19E
100
AcDbEntity
  8
枠_表
  6
CONTINUOUS
 62
     6
100
AcDbVertex
100
AcDb2dVertex
 10
1252.823025008334
 20
2135.183316052544
 30
0.0
  0
VERTEX
  5
1B2
330
19E
100
AcDbEntity
  8
枠_表
  6
CONTINUOUS
 62
     6
100
AcDbVertex
100
AcDb2dVertex
 10
1252.825202413329
 20
2135.23003631048
 30
0.0
  0
VERTEX
  5
1B3
330
19E
100
AcDbEntity
  8
枠_表
  6
CONTINUOUS
 62
     6
100
AcDbVertex
100
AcDb2dVertex
 10
1252.827493417873
 20
2135.276444120411
 30
0.0
  0
VERTEX
  5
1B4
330
19E
100
AcDbEntity
  8
枠_表
  6
CONTINUOUS
 62
     6
100
AcDbVertex
100
AcDb2dVertex
 10
1252.82989772775
 20
2135.323035285133
 30
0.0
  0
VERTEX
  5
1B5
330
19E
100
AcDbEntity
  8
枠_表
  6
CONTINUOUS
 62
     6
100
AcDbVertex
100
AcDb2dVertex
 10
1252.832415048746
 20
2135.370305607444
 30
0.0
  0
VERTEX
  5
1B6
330
19E
100
AcDbEntity
  8
枠_表
  6
CONTINUOUS
 62
     6
100
AcDbVertex
100
AcDb2dVertex
 10
1252.834836434551
 20
2135.414841953715
 30
0.0
  0
VERTEX
  5
1B7
330
19E
100
AcDbEntity
  8
枠_表
  6
CONTINUOUS
 62
     6
100
AcDbVertex
100
AcDb2dVertex
 10
1252.837354308591
 20
2135.460263889846
 30
0.0
  0
VERTEX
  5
1B8
330
19E
100
AcDbEntity
  8
枠_表
  6
CONTINUOUS
 62
     6
100
AcDbVertex
100
AcDb2dVertex
 10
1252.839969309812
 20
2135.506457873274
 30
0.0
  0
VERTEX
  5
1B9
330
19E
100
AcDbEntity
  8
枠_表
  6
CONTINUOUS
 62
     6
100
AcDbVertex
100
AcDb2dVertex
 10
1252.842682077162
 20
2135.553310361435
 30
0.0
  0
VERTEX
  5
1BA
330
19E
100
AcDbEntity
  8
枠_表
  6
CONTINUOUS
 62
     6
100
AcDbVertex
100
AcDb2dVertex
 10
1252.84549324959
 20
2135.600707811765
 30
0.0
  0
VERTEX
  5
1BB
330
19E
100
AcDbEntity
  8
枠_表
  6
CONTINUOUS
 62
     6
100
AcDbVertex
100
AcDb2dVertex
 10
1252.848403466042
 20
2135.648536681701
 30
0.0
  0
VERTEX
  5
1BC
330
19E
100
AcDbEntity
  8
枠_表
  6
CONTINUOUS
 62
     6
100
AcDbVertex
100
AcDb2dVertex
 10
1252.851413365467
 20
2135.69668342868
 30
0.0
  0
VERTEX
  5
1BD
330
19E
100
AcDbEntity
  8
枠_表
  6
CONTINUOUS
 62
     6
100
AcDbVertex
100
AcDb2dVertex
 10
1252.854523586812
 20
2135.745034510137
 30
0.0
  0
VERTEX
  5
1BE
330
19E
100
AcDbEntity
  8
枠_表
  6
CONTINUOUS
 62
     6
100
AcDbVertex
100
AcDb2dVertex
 10
1252.857734769026
 20
2135.793476383509
 30
0.0
  0
VERTEX
  5
1BF
330
19E
100
AcDbEntity
  8
枠_表
  6
CONTINUOUS
 62
     6
100
AcDbVertex
100
AcDb2dVertex
 10
1252.861047551055
 20
2135.841895506232
 30
0.0
  0
VERTEX
  5
1C0
330
19E
100
AcDbEntity
  8
枠_表
  6
CONTINUOUS
 62
     6
100
AcDbVertex
100
AcDb2dVertex
 10
1252.864462571848
 20
2135.890178335743
 30
0.0
  0
VERTEX
  5
1C1
330
19E
100
AcDbEntity
  8
枠_表
  6
CONTINUOUS
 62
     6
100
AcDbVertex
100
AcDb2dVertex
 10
1252.867527891595
 20
2135.932148018217
 30
0.0
  0
VERTEX
  5
1C2
330
19E
100
AcDbEntity
  8
枠_表
  6
CONTINUOUS
 62
     6
100
AcDbVertex
100
AcDb2dVertex
 10
1252.87066936402
 20
2135.973936436603
 30
0.0
  0
VERTEX
  5
1C3
330
19E
100
AcDbEntity
  8
枠_表
  6
CONTINUOUS
 62
     6
100
AcDbVertex
100
AcDb2dVertex
 10
1252.873884717067
 20
2136.015552779178
 30
0.0
  0
VERTEX
  5
1C4
330
19E
100
AcDbEntity
  8
枠_表
  6
CONTINUOUS
 62
     6
100
AcDbVertex
100
AcDb2dVertex
 10
1252.877171678681
 20
2136.057006234218
 30
0.0
  0
VERTEX
  5
1C5
330
19E
100
AcDbEntity
  8
枠_表
  6
CONTINUOUS
 62
     6
100
AcDbVertex
100
AcDb2dVertex
 10
1252.88052797681
 20
2136.098305989998
 30
0.0
  0
VERTEX
  5
1C6
330
19E
100
AcDbEntity
  8
枠_表
  6
CONTINUOUS
 62
     6
100
AcDbVertex
100
AcDb2dVertex
 10
1252.883951339398
 20
2136.139461234797
 30
0.0
  0
VERTEX
  5
1C7
330
19E
100
AcDbEntity
  8
枠_表
  6
CONTINUOUS
 62
     6
100
AcDbVertex
100
AcDb2dVertex
 10
1252.887439494392
 20
2136.180481156891
 30
0.0
  0
VERTEX
  5
1C8
330
19E
100
AcDbEntity
  8
枠_表
  6
CONTINUOUS
 62
     6
100
AcDbVertex
100
AcDb2dVertex
 10
1252.890990169738
 20
2136.221374944555
 30
0.0
  0
VERTEX
  5
1C9
330
19E
100
AcDbEntity
  8
枠_表
  6
CONTINUOUS
 62
     6
100
AcDbVertex
100
AcDb2dVertex
 10
1252.894601093381
 20
2136.262151786068
 30
0.0
  0
VERTEX
  5
1CA
330
19E
100
AcDbEntity
  8
枠_表
  6
CONTINUOUS
 62
     6
100
AcDbVertex
100
AcDb2dVertex
 10
1252.898269993267
 20
2136.302820869705
 30
0.0
  0
VERTEX
  5
1CB
330
19E
100
AcDbEntity
  8
枠_表
  6
CONTINUOUS
 62
     6
100
AcDbVertex
100
AcDb2dVertex
 10
1252.901994597343
 20
2136.343391383742
 30
0.0
  0
VERTEX
  5
1CC
330
19E
100
AcDbEntity
  8
枠_表
  6
CONTINUOUS
 62
     6
100
AcDbVertex
100
AcDb2dVertex
 10
1252.905101485924
 20
2136.376720968476
 30
0.0
  0
VERTEX
  5
1CD
330
19E
100
AcDbEntity
  8
枠_表
  6
CONTINUOUS
 62
     6
100
AcDbVertex
100
AcDb2dVertex
 10
1252.908250615146
 20
2136.410031412836
 30
0.0
  0
VERTEX
  5
1CE
330
19E
100
AcDbEntity
  8
枠_表
  6
CONTINUOUS
 62
     6
100
AcDbVertex
100
AcDb2dVertex
 10
1252.911448031332
 20
2136.443364122328
 30
0.0
  0
VERTEX
  5
1CF
330
19E
100
AcDbEntity
  8
枠_表
  6
CONTINUOUS
 62
     6
100
AcDbVertex
100
AcDb2dVertex
 10
1252.914699780811
 20
2136.476760502454
 30
0.0
  0
VERTEX
  5
1D0
330
19E
100
AcDbEntity
  8
枠_表
  6
CONTINUOUS
 62
     6
100
AcDbVertex
100
AcDb2dVertex
 10
1252.918011909907
 20
2136.510261958722
 30
0.0
  0
VERTEX
  5
1D1
330
19E
100
AcDbEntity
  8
枠_表
  6
CONTINUOUS
 62
     6
100
AcDbVertex
100
AcDb2dVertex
 10
1252.921390464949
 20
2136.543909896634
 30
0.0
  0
VERTEX
  5
1D2
330
19E
100
AcDbEntity
  8
枠_表
  6
CONTINUOUS
 62
     6
100
AcDbVertex
100
AcDb2dVertex
 10
1252.924841492261
 20
2136.577745721697
 30
0.0
  0
VERTEX
  5
1D3
330
19E
100
AcDbEntity
  8
枠_表
  6
CONTINUOUS
 62
     6
100
AcDbVertex
100
AcDb2dVertex
 10
1252.92837103817
 20
2136.611810839414
 30
0.0
  0
VERTEX
  5
1D4
330
19E
100
AcDbEntity
  8
枠_表
  6
CONTINUOUS
 62
     6
100
AcDbVertex
100
AcDb2dVertex
 10
1252.931985149003
 20
2136.646146655291
 30
0.0
  0
VERTEX
  5
1D5
330
19E
100
AcDbEntity
  8
枠_表
  6
CONTINUOUS
 62
     6
100
AcDbVertex
100
AcDb2dVertex
 10
1252.935689871086
 20
2136.680794574832
 30
0.0
  0
VERTEX
  5
1D6
330
19E
100
AcDbEntity
  8
枠_表
  6
CONTINUOUS
 62
     6
100
AcDbVertex
100
AcDb2dVertex
 10
1252.939491250745
 20
2136.715796003542
 30
0.0
  0
VERTEX
  5
1D7
330
19E
100
AcDbEntity
  8
枠_表
  6
CONTINUOUS
 62
     6
100
AcDbVertex
100
AcDb2dVertex
 10
1252.942407938624
 20
2136.742295663583
 30
0.0
  0
VERTEX
  5
1D8
330
19E
100
AcDbEntity
  8
枠_表
  6
CONTINUOUS
 62
     6
100
AcDbVertex
100
AcDb2dVertex
 10
1252.945367668681
 20
2136.768905411439
 30
0.0
  0
VERTEX
  5
1D9
330
19E
100
AcDbEntity
  8
枠_表
  6
CONTINUOUS
 62
     6
100
AcDbVertex
100
AcDb2dVertex
 10
1252.948355654344
 20
2136.795512973135
 30
0.0
  0
VERTEX
  5
1DA
330
19E
100
AcDbEntity
  8
枠_表
  6
CONTINUOUS
 62
     6
100
AcDbVertex
100
AcDb2dVertex
 10
1252.951357109036
 20
2136.82200607469
 30
0.0
  0
VERTEX
  5
1DB
330
19E
100
AcDbEntity
  8
枠_表
  6
CONTINUOUS
 62
     6
100
AcDbVertex
100
AcDb2dVertex
 10
1252.95435724618
 20
2136.848272442129
 30
0.0
  0
VERTEX
  5
1DC
330
19E
100
AcDbEntity
  8
枠_表
  6
CONTINUOUS
 62
     6
100
AcDbVertex
100
AcDb2dVertex
 10
1252.957341279203
 20
2136.874199801473
 30
0.0
  0
VERTEX
  5
1DD
330
19E
100
AcDbEntity
  8
枠_表
  6
CONTINUOUS
 62
     6
100
AcDbVertex
100
AcDb2dVertex
 10
1252.960294421528
 20
2136.899675878743
 30
0.0
  0
VERTEX
  5
1DE
330
19E
100
AcDbEntity
  8
枠_表
  6
CONTINUOUS
 62
     6
100
AcDbVertex
100
AcDb2dVertex
 10
1252.96320188658
 20
2136.924588399964
 30
0.0
  0
VERTEX
  5
1DF
330
19E
100
AcDbEntity
  8
枠_表
  6
CONTINUOUS
 62
     6
100
AcDbVertex
100
AcDb2dVertex
 10
1252.966048887784
 20
2136.948825091156
 30
0.0
  0
VERTEX
  5
1E0
330
19E
100
AcDbEntity
  8
枠_表
  6
CONTINUOUS
 62
     6
100
AcDbVertex
100
AcDb2dVertex
 10
1252.968820638564
 20
2136.972273678341
 30
0.0
  0
VERTEX
  5
1E1
330
19E
100
AcDbEntity
  8
枠_表
  6
CONTINUOUS
 62
     6
100
AcDbVertex
100
AcDb2dVertex
 10
1252.971502352344
 20
2136.994821887543
 30
0.0
  0
VERTEX
  5
1E2
330
19E
100
AcDbEntity
  8
枠_表
  6
CONTINUOUS
 62
     6
100
AcDbVertex
100
AcDb2dVertex
 10
1252.973114312599
 20
2137.008305189224
 30
0.0
  0
VERTEX
  5
1E3
330
19E
100
AcDbEntity
  8
枠_表
  6
CONTINUOUS
 62
     6
100
AcDbVertex
100
AcDb2dVertex
 10
1252.974713077334
 20
2137.021607309171
 30
0.0
  0
VERTEX
  5
1E4
330
19E
100
AcDbEntity
  8
枠_表
  6
CONTINUOUS
 62
     6
100
AcDbVertex
100
AcDb2dVertex
 10
1252.976325539377
 20
2137.034934340606
 30
0.0
  0
VERTEX
  5
1E5
330
19E
100
AcDbEntity
  8
枠_表
  6
CONTINUOUS
 62
     6
100
AcDbVertex
100
AcDb2dVertex
 10
1252.977978591556
 20
2137.048492376756
 30
0.0
  0
VERTEX
  5
1E6
330
19E
100
AcDbEntity
  8
枠_表
  6
CONTINUOUS
 62
     6
100
AcDbVertex
100
AcDb2dVertex
 10
1252.979699126701
 20
2137.062487510845
 30
0.0
  0
VERTEX
  5
1E7
330
19E
100
AcDbEntity
  8
枠_表
  6
CONTINUOUS
 62
     6
100
AcDbVertex
100
AcDb2dVertex
 10
1252.981514037639
 20
2137.077125836095
 30
0.0
  0
VERTEX
  5
1E8
330
19E
100
AcDbEntity
  8
枠_表
  6
CONTINUOUS
 62
     6
100
AcDbVertex
100
AcDb2dVertex
 10
1252.9834502172
 20
2137.092613445733
 30
0.0
  0
VERTEX
  5
1E9
330
19E
100
AcDbEntity
  8
枠_表
  6
CONTINUOUS
 62
     6
100
AcDbVertex
100
AcDb2dVertex
 10
1252.985534558212
 20
2137.109156432983
 30
0.0
  0
VERTEX
  5
1EA
330
19E
100
AcDbEntity
  8
枠_表
  6
CONTINUOUS
 62
     6
100
AcDbVertex
100
AcDb2dVertex
 10
1252.987793953505
 20
2137.126960891068
 30
0.0
  0
VERTEX
  5
1EB
330
19E
100
AcDbEntity
  8
枠_表
  6
CONTINUOUS
 62
     6
100
AcDbVertex
100
AcDb2dVertex
 10
1252.990255295905
 20
2137.146232913214
 30
0.0
  0
VERTEX
  5
1EC
330
19E
100
AcDbEntity
  8
枠_表
  6
CONTINUOUS
 62
     6
100
AcDbVertex
100
AcDb2dVertex
 10
1252.992945478243
 20
2137.167178592643
 30
0.0
  0
VERTEX
  5
1ED
330
19E
100
AcDbEntity
  8
枠_表
  6
CONTINUOUS
 62
     6
100
AcDbVertex
100
AcDb2dVertex
 10
1252.993846470002
 20
2137.174171015517
 30
0.0
  0
VERTEX
  5
1EE
330
19E
100
AcDbEntity
  8
枠_表
  6
CONTINUOUS
 62
     6
100
AcDbVertex
100
AcDb2dVertex
 10
1252.994753729904
 20
2137.18120338394
 30
0.0
  0
VERTEX
  5
1EF
330
19E
100
AcDbEntity
  8
枠_表
  6
CONTINUOUS
 62
     6
100
AcDbVertex
100
AcDb2dVertex
 10
1252.995647857133
 20
2137.188126965113
 30
0.0
  0
VERTEX
  5
1F0
330
19E
100
AcDbEntity
  8
枠_表
  6
CONTINUOUS
 62
     6
100
AcDbVertex
100
AcDb2dVertex
 10
1252.996509450877
 20
2137.194793026235
 30
0.0
  0
VERTEX
  5
1F1
330
19E
100
AcDbEntity
  8
枠_表
  6
CONTINUOUS
 62
     6
100
AcDbVertex
100
AcDb2dVertex
 10
1252.997319110319
 20
2137.201052834511
 30
0.0
  0
VERTEX
  5
1F2
330
19E
100
AcDbEntity
  8
枠_表
  6
CONTINUOUS
 62
     6
100
AcDbVertex
100
AcDb2dVertex
 10
1252.998057434646
 20
2137.206757657141
 30
0.0
  0
VERTEX
  5
1F3
330
19E
100
AcDbEntity
  8
枠_表
  6
CONTINUOUS
 62
     6
100
AcDbVertex
100
AcDb2dVertex
 10
1252.998705023044
 20
2137.211758761325
 30
0.0
  0
VERTEX
  5
1F4
330
19E
100
AcDbEntity
  8
枠_表
  6
CONTINUOUS
 62
     6
100
AcDbVertex
100
AcDb2dVertex
 10
1252.999242474697
 20
2137.215907414266
 30
0.0
  0
VERTEX
  5
1F5
330
19E
100
AcDbEntity
  8
枠_表
  6
CONTINUOUS
 62
     6
100
AcDbVertex
100
AcDb2dVertex
 10
1252.999650388791
 20
2137.219054883166
 30
0.0
  0
VERTEX
  5
1F6
330
19E
100
AcDbEntity
  8
枠_表
  6
CONTINUOUS
 62
     6
100
AcDbVertex
100
AcDb2dVertex
 10
1252.999909364511
 20
2137.221052435224
 30
0.0
  0
VERTEX
  5
1F7
330
19E
100
AcDbEntity
  8
枠_表
  6
CONTINUOUS
 62
     6
100
AcDbVertex
100
AcDb2dVertex
 10
1253.000000001043
 20
2137.221751337643
 30
0.0
  0
SEQEND
  5
1F8
330
19E
100
AcDbEntity
  8
枠_表
  6
CONTINUOUS
 62
     6
  0
POLYLINE
  5
1F9
330
1F
100
AcDbEntity
  8
枠_表
  6
CONTINUOUS
 62
     6
100
AcDb2dPolyline
 66
     1
 10
0.0
 20
0.0
 30
0.0
 70
   128
  0
VERTEX
  5
1FA
330
1F9
100
AcDbEntity
  8
枠_表
  6
CONTINUOUS
 62
     6
100
AcDbVertex
100
AcDb2dVertex
 10
1252.732135844445
 20
2124.821920367543
 30
0.0
  0
VERTEX
  5
1FB
330
1F9
100
AcDbEntity
  8
枠_表
  6
CONTINUOUS
 62
     6
100
AcDbVertex
100
AcDb2dVertex
 10
1252.732454493708
 20
2124.822372484964
 30
0.0
  0
VERTEX
  5
1FC
330
1F9
100
AcDbEntity
  8
枠_表
  6
CONTINUOUS
 62
     6
100
AcDbVertex
100
AcDb2dVertex
 10
1252.733356919079
 20
2124.823664745046
 30
0.0
  0
VERTEX
  5
1FD
330
1F9
100
AcDbEntity
  8
枠_表
  6
CONTINUOUS
 62
     6
100
AcDbVertex
100
AcDb2dVertex
 10
1252.73476283693
 20
2124.825701009516
 30
0.0
  0
VERTEX
  5
1FE
330
1F9
100
AcDbEntity
  8
枠_表
  6
CONTINUOUS
 62
     6
100
AcDbVertex
100
AcDb2dVertex
 10
1252.736591963633
 20
2124.8283851401
 30
0.0
  0
VERTEX
  5
1FF
330
1F9
100
AcDbEntity
  8
枠_表
  6
CONTINUOUS
 62
     6
100
AcDbVertex
100
AcDb2dVertex
 10
1252.738764015559
 20
2124.831620998526
 30
0.0
  0
VERTEX
  5
200
330
1F9
100
AcDbEntity
  8
枠_表
  6
CONTINUOUS
 62
     6
100
AcDbVertex
100
AcDb2dVertex
 10
1252.741198709081
 20
2124.835312446518
 30
0.0
  0
VERTEX
  5
201
330
1F9
100
AcDbEntity
  8
枠_表
  6
CONTINUOUS
 62
     6
100
AcDbVertex
100
AcDb2dVertex
 10
1252.743815760571
 20
2124.839363345807
 30
0.0
  0
VERTEX
  5
202
330
1F9
100
AcDbEntity
  8
枠_表
  6
CONTINUOUS
 62
     6
100
AcDbVertex
100
AcDb2dVertex
 10
1252.7465348864
 20
2124.843677558116
 30
0.0
  0
VERTEX
  5
203
330
1F9
100
AcDbEntity
  8
枠_表
  6
CONTINUOUS
 62
     6
100
AcDbVertex
100
AcDb2dVertex
 10
1252.749275802941
 20
2124.848158945174
 30
0.0
  0
VERTEX
  5
204
330
1F9
100
AcDbEntity
  8
枠_表
  6
CONTINUOUS
 62
     6
100
AcDbVertex
100
AcDb2dVertex
 10
1252.751958226565
 20
2124.852711368708
 30
0.0
  0
VERTEX
  5
205
330
1F9
100
AcDbEntity
  8
枠_表
  6
CONTINUOUS
 62
     6
100
AcDbVertex
100
AcDb2dVertex
 10
1252.754501873644
 20
2124.857238690443
 30
0.0
  0
VERTEX
  5
206
330
1F9
100
AcDbEntity
  8
枠_表
  6
CONTINUOUS
 62
     6
100
AcDbVertex
100
AcDb2dVertex
 10
1252.759147088157
 20
2124.866336629399
 30
0.0
  0
VERTEX
  5
207
330
1F9
100
AcDbEntity
  8
枠_表
  6
CONTINUOUS
 62
     6
100
AcDbVertex
100
AcDb2dVertex
 10
1252.762936249026
 20
2124.874969742618
 30
0.0
  0
VERTEX
  5
208
330
1F9
100
AcDbEntity
  8
枠_表
  6
CONTINUOUS
 62
     6
100
AcDbVertex
100
AcDb2dVertex
 10
1252.76596658385
 20
2124.883200803171
 30
0.0
  0
VERTEX
  5
209
330
1F9
100
AcDbEntity
  8
枠_表
  6
CONTINUOUS
 62
     6
100
AcDbVertex
100
AcDb2dVertex
 10
1252.768335320228
 20
2124.891092584129
 30
0.0
  0
VERTEX
  5
20A
330
1F9
100
AcDbEntity
  8
枠_表
  6
CONTINUOUS
 62
     6
100
AcDbVertex
100
AcDb2dVertex
 10
1252.770139685761
 20
2124.89870785856
 30
0.0
  0
VERTEX
  5
20B
330
1F9
100
AcDbEntity
  8
枠_表
  6
CONTINUOUS
 62
     6
100
AcDbVertex
100
AcDb2dVertex
 10
1252.771476908047
 20
2124.906109399536
 30
0.0
  0
VERTEX
  5
20C
330
1F9
100
AcDbEntity
  8
枠_表
  6
CONTINUOUS
 62
     6
100
AcDbVertex
100
AcDb2dVertex
 10
1252.772444214685
 20
2124.913359980127
 30
0.0
  0
VERTEX
  5
20D
330
1F9
100
AcDbEntity
  8
枠_表
  6
CONTINUOUS
 62
     6
100
AcDbVertex
100
AcDb2dVertex
 10
1252.773138833274
 20
2124.920522373402
 30
0.0
  0
VERTEX
  5
20E
330
1F9
100
AcDbEntity
  8
枠_表
  6
CONTINUOUS
 62
     6
100
AcDbVertex
100
AcDb2dVertex
 10
1252.773657991414
 20
2124.927659352433
 30
0.0
  0
VERTEX
  5
20F
330
1F9
100
AcDbEntity
  8
枠_表
  6
CONTINUOUS
 62
     6
100
AcDbVertex
100
AcDb2dVertex
 10
1252.774098916704
 20
2124.93483369029
 30
0.0
  0
VERTEX
  5
210
330
1F9
100
AcDbEntity
  8
枠_表
  6
CONTINUOUS
 62
     6
100
AcDbVertex
100
AcDb2dVertex
 10
1252.774558836743
 20
2124.942108160043
 30
0.0
  0
VERTEX
  5
211
330
1F9
100
AcDbEntity
  8
枠_表
  6
CONTINUOUS
 62
     6
100
AcDbVertex
100
AcDb2dVertex
 10
1252.775421514015
 20
2124.953132663913
 30
0.0
  0
VERTEX
  5
212
330
1F9
100
AcDbEntity
  8
枠_表
  6
CONTINUOUS
 62
     6
100
AcDbVertex
100
AcDb2dVertex
 10
1252.776502404214
 20
2124.964454379026
 30
0.0
  0
VERTEX
  5
213
330
1F9
100
AcDbEntity
  8
枠_表
  6
CONTINUOUS
 62
     6
100
AcDbVertex
100
AcDb2dVertex
 10
1252.777765845503
 20
2124.976014668886
 30
0.0
  0
VERTEX
  5
214
330
1F9
100
AcDbEntity
  8
枠_表
  6
CONTINUOUS
 62
     6
100
AcDbVertex
100
AcDb2dVertex
 10
1252.779176176042
 20
2124.987754896995
 30
0.0
  0
VERTEX
  5
215
330
1F9
100
AcDbEntity
  8
枠_表
  6
CONTINUOUS
 62
     6
100
AcDbVertex
100
AcDb2dVertex
 10
1252.780697733995
 20
2124.999616426855
 30
0.0
  0
VERTEX
  5
216
330
1F9
100
AcDbEntity
  8
枠_表
  6
CONTINUOUS
 62
     6
100
AcDbVertex
100
AcDb2dVertex
 10
1252.782294857523
 20
2125.011540621969
 30
0.0
  0
VERTEX
  5
217
330
1F9
100
AcDbEntity
  8
枠_表
  6
CONTINUOUS
 62
     6
100
AcDbVertex
100
AcDb2dVertex
 10
1252.783931884787
 20
2125.02346884584
 30
0.0
  0
VERTEX
  5
218
330
1F9
100
AcDbEntity
  8
枠_表
  6
CONTINUOUS
 62
     6
100
AcDbVertex
100
AcDb2dVertex
 10
1252.785573153949
 20
2125.03534246197
 30
0.0
  0
VERTEX
  5
219
330
1F9
100
AcDbEntity
  8
枠_表
  6
CONTINUOUS
 62
     6
100
AcDbVertex
100
AcDb2dVertex
 10
1252.787183003172
 20
2125.047102833862
 30
0.0
  0
VERTEX
  5
21A
330
1F9
100
AcDbEntity
  8
枠_表
  6
CONTINUOUS
 62
     6
100
AcDbVertex
100
AcDb2dVertex
 10
1252.788725770616
 20
2125.058691325019
 30
0.0
  0
VERTEX
  5
21B
330
1F9
100
AcDbEntity
  8
枠_表
  6
CONTINUOUS
 62
     6
100
AcDbVertex
100
AcDb2dVertex
 10
1252.790165794445
 20
2125.070049298944
 30
0.0
  0
VERTEX
  5
21C
330
1F9
100
AcDbEntity
  8
枠_表
  6
CONTINUOUS
 62
     6
100
AcDbVertex
100
AcDb2dVertex
 10
1252.791780925174
 20
2125.083870749498
 30
0.0
  0
VERTEX
  5
21D
330
1F9
100
AcDbEntity
  8
枠_表
  6
CONTINUOUS
 62
     6
100
AcDbVertex
100
AcDb2dVertex
 10
1252.793198496613
 20
2125.097393175728
 30
0.0
  0
VERTEX
  5
21E
330
1F9
100
AcDbEntity
  8
枠_表
  6
CONTINUOUS
 62
     6
100
AcDbVertex
100
AcDb2dVertex
 10
1252.79443698519
 20
2125.11076889054
 30
0.0
  0
VERTEX
  5
21F
330
1F9
100
AcDbEntity
  8
枠_表
  6
CONTINUOUS
 62
     6
100
AcDbVertex
100
AcDb2dVertex
 10
1252.795514867334
 20
2125.124150206841
 30
0.0
  0
VERTEX
  5
220
330
1F9
100
AcDbEntity
  8
枠_表
  6
CONTINUOUS
 62
     6
100
AcDbVertex
100
AcDb2dVertex
 10
1252.796450619477
 20
2125.137689437535
 30
0.0
  0
VERTEX
  5
221
330
1F9
100
AcDbEntity
  8
枠_表
  6
CONTINUOUS
 62
     6
100
AcDbVertex
100
AcDb2dVertex
 10
1252.797262718047
 20
2125.15153889553
 30
0.0
  0
VERTEX
  5
222
330
1F9
100
AcDbEntity
  8
枠_表
  6
CONTINUOUS
 62
     6
100
AcDbVertex
100
AcDb2dVertex
 10
1252.797969639474
 20
2125.165850893733
 30
0.0
  0
VERTEX
  5
223
330
1F9
100
AcDbEntity
  8
枠_表
  6
CONTINUOUS
 62
     6
100
AcDbVertex
100
AcDb2dVertex
 10
1252.798589860187
 20
2125.18077774505
 30
0.0
  0
VERTEX
  5
224
330
1F9
100
AcDbEntity
  8
枠_表
  6
CONTINUOUS
 62
     6
100
AcDbVertex
100
AcDb2dVertex
 10
1252.799141856617
 20
2125.196471762386
 30
0.0
  0
VERTEX
  5
225
330
1F9
100
AcDbEntity
  8
枠_表
  6
CONTINUOUS
 62
     6
100
AcDbVertex
100
AcDb2dVertex
 10
1252.799644105192
 20
2125.213085258648
 30
0.0
  0
VERTEX
  5
226
330
1F9
100
AcDbEntity
  8
枠_表
  6
CONTINUOUS
 62
     6
100
AcDbVertex
100
AcDb2dVertex
 10
1252.800115082343
 20
2125.230770546744
 30
0.0
  0
VERTEX
  5
227
330
1F9
100
AcDbEntity
  8
枠_表
  6
CONTINUOUS
 62
     6
100
AcDbVertex
100
AcDb2dVertex
 10
1252.800611345247
 20
2125.25139161243
 30
0.0
  0
VERTEX
  5
228
330
1F9
100
AcDbEntity
  8
枠_表
  6
CONTINUOUS
 62
     6
100
AcDbVertex
100
AcDb2dVertex
 10
1252.801086736146
 20
2125.272880805202
 30
0.0
  0
VERTEX
  5
229
330
1F9
100
AcDbEntity
  8
枠_表
  6
CONTINUOUS
 62
     6
100
AcDbVertex
100
AcDb2dVertex
 10
1252.801535694369
 20
2125.294641408002
 30
0.0
  0
VERTEX
  5
22A
330
1F9
100
AcDbEntity
  8
枠_表
  6
CONTINUOUS
 62
     6
100
AcDbVertex
100
AcDb2dVertex
 10
1252.801952659241
 20
2125.31607670377
 30
0.0
  0
VERTEX
  5
22B
330
1F9
100
AcDbEntity
  8
枠_表
  6
CONTINUOUS
 62
     6
100
AcDbVertex
100
AcDb2dVertex
 10
1252.802332070092
 20
2125.336589975448
 30
0.0
  0
VERTEX
  5
22C
330
1F9
100
AcDbEntity
  8
枠_表
  6
CONTINUOUS
 62
     6
100
AcDbVertex
100
AcDb2dVertex
 10
1252.802668366247
 20
2125.355584505977
 30
0.0
  0
VERTEX
  5
22D
330
1F9
100
AcDbEntity
  8
枠_表
  6
CONTINUOUS
 62
     6
100
AcDbVertex
100
AcDb2dVertex
 10
1252.802955987033
 20
2125.372463578299
 30
0.0
  0
VERTEX
  5
22E
330
1F9
100
AcDbEntity
  8
枠_表
  6
CONTINUOUS
 62
     6
100
AcDbVertex
100
AcDb2dVertex
 10
1252.803189371779
 20
2125.386630475355
 30
0.0
  0
VERTEX
  5
22F
330
1F9
100
AcDbEntity
  8
枠_表
  6
CONTINUOUS
 62
     6
100
AcDbVertex
100
AcDb2dVertex
 10
1252.803362959812
 20
2125.397488480087
 30
0.0
  0
VERTEX
  5
230
330
1F9
100
AcDbEntity
  8
枠_表
  6
CONTINUOUS
 62
     6
100
AcDbVertex
100
AcDb2dVertex
 10
1252.803471190458
 20
2125.404440875436
 30
0.0
  0
VERTEX
  5
231
330
1F9
100
AcDbEntity
  8
枠_表
  6
CONTINUOUS
 62
     6
100
AcDbVertex
100
AcDb2dVertex
 10
1252.803508503045
 20
2125.406890944343
 30
0.0
  0
SEQEND
  5
232
330
1F9
100
AcDbEntity
  8
枠_表
  6
CONTINUOUS
 62
     6
  0
LINE
  5
233
330
1F
100
AcDbEntity
  8
枠_表
  6
CONTINUOUS
 62
     6
100
AcDbLine
 10
1252.803508503045
 20
2134.221751337643
 30
0.0
 11
1252.803508503045
 21
2125.406890944343
 31
0.0
  0
LINE
  5
234
330
1F
100
AcDbEntity
  8
枠_表
  6
CONTINUOUS
 62
     6
100
AcDbLine
 10
1251.500000001041
 20
2110.321739130693
 30
0.0
 11
1249.710545060095
 21
2110.321739130693
 31
0.0
  0
LINE
  5
235
330
1F
100
AcDbEntity
  8
枠_表
  6
CONTINUOUS
 62
     6
100
AcDbLine
 10
1250.400000001055
 20
2110.32173913061
 30
0.0
 11
1252.000000001042
 21
2110.321739130611
 31
0.0
  0
LINE
  5
236
330
1F
100
AcDbEntity
  8
枠_表
  6
CONTINUOUS
 62
     6
100
AcDbLine
 10
1252.000000001042
 20
2110.321739130611
 30
0.0
 11
1252.500000001041
 21
2109.821739130612
 31
0.0
  0
LINE
  5
237
330
1F
100
AcDbEntity
  8
枠_表
  6
CONTINUOUS
 62
     6
100
AcDbLine
 10
1208.000000001042
 20
2110.321739130612
 30
0.0
 11
1207.500000001041
 21
2109.821739130611
 31
0.0
  0
LINE
  5
238
330
1F
100
AcDbEntity
  8
枠_表
  6
CONTINUOUS
 62
     6
100
AcDbLine
 10
1208.000000001042
 20
2110.321739130612
 30
0.0
 11
1210.289454941971
 21
2110.321739130612
 31
0.0
  0
LINE
  5
239
330
1F
100
AcDbEntity
  8
枠_表
  6
CONTINUOUS
 62
     6
100
AcDbLine
 10
1207.500000001043
 20
2109.821739130611
 30
0.0
 11
1207.500000001043
 21
2079.674777623341
 31
0.0
  0
LINE
  5
23A
330
1F
100
AcDbEntity
  8
枠_表
  6
CONTINUOUS
 62
     6
100
AcDbLine
 10
1114.590296518424
 20
2101.642111482322
 30
0.0
 11
1207.500000001043
 21
2085.259623988712
 31
0.0
  0
ARC
  5
23B
330
1F
100
AcDbEntity
  8
枠_表
  6
CONTINUOUS
 62
     6
100
AcDbCircle
 10
1114.243000163091
 20
2099.672495976297
 30
0.0
 40
2.0
100
AcDbArc
 50
79.99999999999383
 51
160.1509730893382
  0
ARC
  5
23C
330
1F
100
AcDbEntity
  8
枠_表
  6
CONTINUOUS
 62
     6
100
AcDbCircle
 10
1185.727883705859
 20
2073.867236340391
 30
0.0
 40
78.0
100
AcDbArc
 50
160.1509730893381
 51
172.1050093001814
  0
LINE
  5
23D
330
1F
100
AcDbEntity
  8
枠_表
  6
CONTINUOUS
 62
     6
100
AcDbLine
 10
1140.405802584767
 20
2076.993262521076
 30
0.0
 11
1147.178105300024
 21
2065.433203195385
 31
0.0
  0
LINE
  5
23E
330
1F
100
AcDbEntity
  8
枠_表
  6
CONTINUOUS
 62
     6
100
AcDbLine
 10
1147.178105300024
 20
2065.433203195385
 30
0.0
 11
1207.500000001043
 21
2054.79682563214
 31
0.0
  0
ARC
  5
23F
330
1F
100
AcDbEntity
  8
枠_表
  6
CONTINUOUS
 62
     6
100
AcDbCircle
 10
1207.000000001043
 20
2010.021739130612
 30
0.0
 40
0.5
100
AcDbArc
 50
270.0
 51
0.0
  0
LINE
  5
240
330
1F
100
AcDbEntity
  8
枠_表
  6
CONTINUOUS
 62
     6
100
AcDbLine
 10
1203.500000001043
 20
2009.521739130611
 30
0.0
 11
1207.000000001043
 21
2009.521739130611
 31
0.0
  0
LINE
  5
241
330
1F
100
AcDbEntity
  8
枠_表
  6
CONTINUOUS
 62
     6
100
AcDbLine
 10
1203.500000001043
 20
2009.521739130611
 30
0.0
 11
1203.000000001044
 21
2009.021739130612
 31
0.0
  0
LINE
  5
242
330
1F
100
AcDbEntity
  8
枠_表
  6
CONTINUOUS
 62
     6
100
AcDbLine
 10
1203.000000001044
 20
2009.021739130612
 30
0.0
 11
1203.000000001044
 21
2005.521739130611
 31
0.0
  0
LINE
  5
243
330
1F
100
AcDbEntity
  8
枠_表
  6
CONTINUOUS
 62
     6
100
AcDbLine
 10
1203.000000001044
 20
2005.521739130611
 30
0.0
 11
1206.000000001044
 21
2005.521739130611
 31
0.0
  0
ARC
  5
244
330
1F
100
AcDbEntity
  8
枠_表
  6
CONTINUOUS
 62
     6
100
AcDbCircle
 10
1253.000000001043
 20
2010.021739130612
 30
0.0
 40
0.5
100
AcDbArc
 50
180.0
 51
270.0
  0
LINE
  5
245
330
1F
100
AcDbEntity
  8
枠_表
  6
CONTINUOUS
 62
     6
100
AcDbLine
 10
1256.500000001043
 20
2009.521739130611
 30
0.0
 11
1257.000000001043
 21
2009.021739130612
 31
0.0
  0
LINE
  5
246
330
1F
100
AcDbEntity
  8
枠_表
  6
CONTINUOUS
 62
     6
100
AcDbLine
 10
1246.500000001043
 20
2114.221751337643
 30
0.0
 11
1248.696541886288
 21
2114.221751337643
 31
0.0
  0
LINE
  5
247
330
1F
100
AcDbEntity
  8
枠_表
  6
CONTINUOUS
 62
     6
100
AcDbLine
 10
1206.000000001044
 20
2004.478260869712
 30
0.0
 11
1206.000000001044
 21
2005.521739130611
 31
0.0
  0
LINE
  5
248
330
1F
100
AcDbEntity
  8
枠_表
  6
CONTINUOUS
 62
     6
100
AcDbLine
 10
1257.000000001043
 20
2009.021739130612
 30
0.0
 11
1257.000000001043
 21
2006.69565217406
 31
0.0
  0
LINE
  5
249
330
1F
100
AcDbEntity
  8
枠_表
  6
CONTINUOUS
 62
     6
100
AcDbLine
 10
1206.000000001041
 20
2005.521739130611
 30
0.0
 11
1230.000000001718
 21
2005.521739130611
 31
0.0
  0
LINE
  5
24A
330
1F
100
AcDbEntity
  8
枠_表
  6
CONTINUOUS
 62
     6
100
AcDbLine
 10
1201.500000001042
 20
2018.021739130609
 30
0.0
 11
1202.000000001042
 21
2017.521739130609
 31
0.0
  0
TEXT
  5
24B
330
1F
100
AcDbEntity
  8
枠_表
  6
CONTINUOUS
 62
     2
100
AcDbText
 10
366.7500000000953
 20
461.6250019073486
 30
0.0
 40
63.74999618530273
  1
製図
 41
1.509694103275157
  7
EXCADSTD
 72
     5
 11
517.9889895104408
 21
461.6250019073486
 31
0.0
100
AcDbText
  0
TEXT
  5
24C
330
1F
100
AcDbEntity
  8
枠_表
  6
CONTINUOUS
 62
     6
100
AcDbText
 10
411.7500000000884
 20
328.5000038146973
 30
0.0
 40
74.99999237060547
  1
堀
 41
1.232000011393231
  7
EXCADSTD
 72
     5
 11
477.7499938965728
 21
328.5000038146973
 31
0.0
100
AcDbText
  0
TEXT
  5
24D
330
1F
100
AcDbEntity
  8
枠_表
  6
CONTINUOUS
 62
     2
100
AcDbText
 10
599.2500000000948
 20
461.6250019073486
 30
0.0
 40
63.74999618530273
  1
写図
 41
1.509694103275156
  7
EXCADSTD
 72
     5
 11
750.4889895104402
 21
461.6250019073486
 31
0.0
100
AcDbText
  0
LINE
  5
24E
330
1F
100
AcDbEntity
  8
枠_表
  6
CONTINUOUS
 62
     6
100
AcDbLine
 10
1202.000000001042
 20
2017.521739130609
 30
0.0
 11
1203.291541795819
 21
2017.521739130609
 31
0.0
  0
LINE
  5
24F
330
1F
100
AcDbEntity
  8
枠_表
  6
CONTINUOUS
 62
     6
100
AcDbLine
 10
1203.761345577114
 20
2017.521739130609
 30
0.0
 11
1207.500000001043
 21
2017.521739130609
 31
0.0
  0
ARC
  5
250
330
1F
100
AcDbEntity
  8
枠_表
  6
CONTINUOUS
 62
     6
100
AcDbCircle
 10
1204.700000001043
 20
2020.521739130612
 30
0.0
 40
1.5
100
AcDbArc
 50
255.6299539365732
 51
238.5776027740901
  0
TEXT
  5
251
330
1F
100
AcDbEntity
  8
枠_表
  6
CONTINUOUS
 62
     2
100
AcDbText
 10
1815.00000000009
 20
3544.500003814694
 30
0.0
 40
59.99999618530273
  1
※止水栓は別途 
 41
0.8714285587129131
  7
EXCADSTD
 72
     5
 11
2180.999971389861
 21
3544.500003814694
 31
0.0
100
AcDbText
  0
TEXT
  5
252
330
1F
100
AcDbEntity
  8
枠_表
  6
CONTINUOUS
 62
     2
100
AcDbText
 10
1815.00000000009
 20
3477.000011444088
 30
0.0
 40
59.99999618530273
  1
※壁排水トラップセットはオプション
 41
0.9564356294638245
  7
EXCADSTD
 72
     5
 11
2642.999935150237
 21
3477.000011444088
 31
0.0
100
AcDbText
  0
ARC
  5
253
330
1F
100
AcDbEntity
  8
枠_表
  6
EXLTYPE2
 62
     3
100
AcDbCircle
 10
1169.387950764656
 20
2184.339998714679
 30
0.0
 40
1.0
100
AcDbArc
 50
54.99999999999615
 51
139.1432980900702
  0
ARC
  5
254
330
1F
100
AcDbEntity
  8
枠_表
  6
EXLTYPE2
 62
     3
100
AcDbCircle
 10
1163.652186401146
 20
2176.148478271789
 30
0.0
 40
1.0
100
AcDbArc
 50
150.8567019099283
 51
234.9999999999963
  0
ARC
  5
255
330
1F
100
AcDbEntity
  8
枠_表
  6
EXLTYPE2
 62
     3
100
AcDbCircle
 10
1206.44900458514
 20
2152.285696511772
 30
0.0
 40
50.0
100
AcDbArc
 50
139.1432980900754
 51
150.8567019099171
  0
LINE
  5
256
330
1F
100
AcDbEntity
  8
枠_表
  6
EXLTYPE2
 62
     3
100
AcDbLine
 10
1163.078609964795
 20
2175.3293262275
 30
0.0
 11
1212.018218454213
 21
2141.061443446178
 31
0.0
  0
LINE
  5
257
330
1F
100
AcDbEntity
  8
枠_表
  6
EXLTYPE2
 62
     3
100
AcDbLine
 10
1169.961527201008
 20
2185.159150758968
 30
0.0
 11
1218.901135690425
 21
2150.891267977645
 31
0.0
  0
LINE
  5
258
330
1F
100
AcDbEntity
  8
枠_表
  6
EXLTYPE2
 62
     3
100
AcDbLine
 10
1209.154920899214
 20
2123.941971357657
 30
0.0
 11
1220.16907397607
 21
2147.561898854533
 31
0.0
  0
LINE
  5
259
330
1F
100
AcDbEntity
  8
枠_表
  6
EXLTYPE2
 62
     3
100
AcDbLine
 10
1212.018218454213
 20
2141.061443446178
 30
0.0
 11
1213.165371326916
 21
2142.699747534755
 31
0.0
  0
LINE
  5
25A
330
1F
100
AcDbEntity
  8
枠_表
  6
EXLTYPE2
 62
     3
100
AcDbLine
 10
1213.165371326916
 20
2142.699747534755
 30
0.0
 11
1216.735971338947
 21
2140.1995864904
 31
0.0
  0
LINE
  5
25B
330
1F
100
AcDbEntity
  8
枠_表
  6
EXLTYPE2
 62
     3
100
AcDbLine
 10
1213.165371326911
 20
2142.69974753476
 30
0.0
 11
1218.901135690407
 21
2150.891267977619
 31
0.0
  0
LINE
  5
25C
330
1F
100
AcDbEntity
  8
枠_表
  6
EXLTYPE2
 62
     3
100
AcDbLine
 10
1221.49095230399
 20
2150.396676076822
 30
0.0
 11
1220.16907397607
 21
2147.561898854529
 31
0.0
  0
LINE
  5
25D
330
1F
100
AcDbEntity
  8
枠_表
  6
EXLTYPE2
 62
     3
100
AcDbLine
 10
1217.753982817723
 20
2149.252963889068
 30
0.0
 11
1220.16907397607
 21
2147.56189885453
 31
0.0
  0
ARC
  5
25E
330
1F
100
AcDbEntity
  8
枠_表
  6
EXLTYPE2
 62
     3
100
AcDbCircle
 10
1222.397260091027
 20
2149.974057815081
 30
0.0
 40
1.0
100
AcDbArc
 50
69.21955614295966
 51
155.0
  0
ARC
  5
25F
330
1F
100
AcDbEntity
  8
枠_表
  6
EXLTYPE2
 62
     3
100
AcDbCircle
 10
1116.315687592809
 20
1870.424956624761
 30
0.0
 40
300.0
100
AcDbArc
 50
60.78044385704134
 51
69.21955614295871
  0
LINE
  5
260
330
1F
100
AcDbEntity
  8
枠_表
  6
EXLTYPE2
 62
     3
100
AcDbLine
 10
1209.154920899214
 20
2123.941971357657
 30
0.0
 11
1230.000000001056
 21
2114.221751337621
 31
0.0
  0
LINE
  5
261
330
1F
100
AcDbEntity
  8
枠_表
  6
EXLTYPE2
 62
     3
100
AcDbLine
 10
1230.000000001055
 20
2114.221751337622
 30
0.0
 11
1255.082136741481
 21
2114.221751337532
 31
0.0
  0
LINE
  5
262
330
1F
100
AcDbEntity
  8
枠_表
  6
EXLTYPE2
 62
     3
100
AcDbLine
 10
1259.119362562992
 20
2122.710727953649
 30
0.0
 11
1255.394041586088
 21
2114.72175133756
 31
0.0
  0
ARC
  5
263
330
1F
100
AcDbEntity
  8
枠_表
  6
EXLTYPE2
 62
     3
100
AcDbCircle
 10
1262.274802720639
 20
2131.37885429849
 30
0.0
 40
1.0
100
AcDbArc
 50
335.0000000000001
 51
60.78044385704042
  0
POLYLINE
  5
264
330
1F
100
AcDbEntity
  8
枠_表
  6
EXLTYPE2
 62
     3
100
AcDb2dPolyline
 66
     1
 10
0.0
 20
0.0
 30
0.0
 70
   128
  0
VERTEX
  5
265
330
264
100
AcDbEntity
  8
枠_表
  6
EXLTYPE2
 62
     3
100
AcDbVertex
100
AcDb2dVertex
 10
1259.119362562992
 20
2122.710727953649
 30
0.0
  0
VERTEX
  5
266
330
264
100
AcDbEntity
  8
枠_表
  6
EXLTYPE2
 62
     3
100
AcDbVertex
100
AcDb2dVertex
 10
1259.122825667117
 20
2122.718008537002
 30
0.0
  0
VERTEX
  5
267
330
264
100
AcDbEntity
  8
枠_表
  6
EXLTYPE2
 62
     3
100
AcDbVertex
100
AcDb2dVertex
 10
1259.132668223945
 20
2122.738677681913
 30
0.0
  0
VERTEX
  5
268
330
264
100
AcDbEntity
  8
枠_表
  6
EXLTYPE2
 62
     3
100
AcDbVertex
100
AcDb2dVertex
 10
1259.148070100153
 20
2122.770976480661
 30
0.0
  0
VERTEX
  5
269
330
264
100
AcDbEntity
  8
枠_表
  6
EXLTYPE2
 62
     3
100
AcDbVertex
100
AcDb2dVertex
 10
1259.168211162417
 20
2122.813146025522
 30
0.0
  0
VERTEX
  5
26A
330
264
100
AcDbEntity
  8
枠_表
  6
EXLTYPE2
 62
     3
100
AcDbVertex
100
AcDb2dVertex
 10
1259.192271277417
 20
2122.863427408774
 30
0.0
  0
VERTEX
  5
26B
330
264
100
AcDbEntity
  8
枠_表
  6
EXLTYPE2
 62
     3
100
AcDbVertex
100
AcDb2dVertex
 10
1259.219430311828
 20
2122.920061722693
 30
0.0
  0
VERTEX
  5
26C
330
264
100
AcDbEntity
  8
枠_表
  6
EXLTYPE2
 62
     3
100
AcDbVertex
100
AcDb2dVertex
 10
1259.248868132328
 20
2122.98129005956
 30
0.0
  0
VERTEX
  5
26D
330
264
100
AcDbEntity
  8
枠_表
  6
EXLTYPE2
 62
     3
100
AcDbVertex
100
AcDb2dVertex
 10
1259.279764605595
 20
2123.04535351165
 30
0.0
  0
VERTEX
  5
26E
330
264
100
AcDbEntity
  8
枠_表
  6
EXLTYPE2
 62
     3
100
AcDbVertex
100
AcDb2dVertex
 10
1259.311299598307
 20
2123.110493171241
 30
0.0
  0
VERTEX
  5
26F
330
264
100
AcDbEntity
  8
枠_表
  6
EXLTYPE2
 62
     3
100
AcDbVertex
100
AcDb2dVertex
 10
1259.34265297714
 20
2123.17495013061
 30
0.0
  0
VERTEX
  5
270
330
264
100
AcDbEntity
  8
枠_表
  6
EXLTYPE2
 62
     3
100
AcDbVertex
100
AcDb2dVertex
 10
1259.373004608771
 20
2123.236965482037
 30
0.0
  0
VERTEX
  5
271
330
264
100
AcDbEntity
  8
枠_表
  6
EXLTYPE2
 62
     3
100
AcDbVertex
100
AcDb2dVertex
 10
1259.400785995291
 20
2123.293291767349
 30
0.0
  0
VERTEX
  5
272
330
264
100
AcDbEntity
  8
枠_表
  6
EXLTYPE2
 62
     3
100
AcDbVertex
100
AcDb2dVertex
 10
1259.427073411064
 20
2123.346140549427
 30
0.0
  0
VERTEX
  5
273
330
264
100
AcDbEntity
  8
枠_表
  6
EXLTYPE2
 62
     3
100
AcDbVertex
100
AcDb2dVertex
 10
1259.452076124758
 20
2123.395961302547
 30
0.0
  0
VERTEX
  5
274
330
264
100
AcDbEntity
  8
枠_表
  6
EXLTYPE2
 62
     3
100
AcDbVertex
100
AcDb2dVertex
 10
1259.476003405039
 20
2123.443203500985
 30
0.0
  0
VERTEX
  5
275
330
264
100
AcDbEntity
  8
枠_表
  6
EXLTYPE2
 62
     3
100
AcDbVertex
100
AcDb2dVertex
 10
1259.499064520573
 20
2123.488316619017
 30
0.0
  0
VERTEX
  5
276
330
264
100
AcDbEntity
  8
枠_表
  6
EXLTYPE2
 62
     3
100
AcDbVertex
100
AcDb2dVertex
 10
1259.521468740029
 20
2123.531750130917
 30
0.0
  0
VERTEX
  5
277
330
264
100
AcDbEntity
  8
枠_表
  6
EXLTYPE2
 62
     3
100
AcDbVertex
100
AcDb2dVertex
 10
1259.543425332074
 20
2123.573953510962
 30
0.0
  0
VERTEX
  5
278
330
264
100
AcDbEntity
  8
枠_表
  6
EXLTYPE2
 62
     3
100
AcDbVertex
100
AcDb2dVertex
 10
1259.565143565374
 20
2123.615376233428
 30
0.0
  0
VERTEX
  5
279
330
264
100
AcDbEntity
  8
枠_表
  6
EXLTYPE2
 62
     3
100
AcDbVertex
100
AcDb2dVertex
 10
1259.586832708595
 20
2123.65646777259
 30
0.0
  0
VERTEX
  5
27A
330
264
100
AcDbEntity
  8
枠_表
  6
EXLTYPE2
 62
     3
100
AcDbVertex
100
AcDb2dVertex
 10
1259.608702030407
 20
2123.697677602724
 30
0.0
  0
VERTEX
  5
27B
330
264
100
AcDbEntity
  8
枠_表
  6
EXLTYPE2
 62
     3
100
AcDbVertex
100
AcDb2dVertex
 10
1259.630960799474
 20
2123.739455198106
 30
0.0
  0
VERTEX
  5
27C
330
264
100
AcDbEntity
  8
枠_表
  6
EXLTYPE2
 62
     3
100
AcDbVertex
100
AcDb2dVertex
 10
1259.651977193531
 20
2123.778795513677
 30
0.0
  0
VERTEX
  5
27D
330
264
100
AcDbEntity
  8
枠_表
  6
EXLTYPE2
 62
     3
100
AcDbVertex
100
AcDb2dVertex
 10
1259.673455302073
 20
2123.818897668546
 30
0.0
  0
VERTEX
  5
27E
330
264
100
AcDbEntity
  8
枠_表
  6
EXLTYPE2
 62
     3
100
AcDbVertex
100
AcDb2dVertex
 10
1259.695347719022
 20
2123.85965848817
 30
0.0
  0
VERTEX
  5
27F
330
264
100
AcDbEntity
  8
枠_表
  6
EXLTYPE2
 62
     3
100
AcDbVertex
100
AcDb2dVertex
 10
1259.717607038301
 20
2123.90097479801
 30
0.0
  0
VERTEX
  5
280
330
264
100
AcDbEntity
  8
枠_表
  6
EXLTYPE2
 62
     3
100
AcDbVertex
100
AcDb2dVertex
 10
1259.740185853832
 20
2123.942743423526
 30
0.0
  0
VERTEX
  5
281
330
264
100
AcDbEntity
  8
枠_表
  6
EXLTYPE2
 62
     3
100
AcDbVertex
100
AcDb2dVertex
 10
1259.763036759538
 20
2123.984861190175
 30
0.0
  0
VERTEX
  5
282
330
264
100
AcDbEntity
  8
枠_表
  6
EXLTYPE2
 62
     3
100
AcDbVertex
100
AcDb2dVertex
 10
1259.786112349341
 20
2124.027224923419
 30
0.0
  0
VERTEX
  5
283
330
264
100
AcDbEntity
  8
枠_表
  6
EXLTYPE2
 62
     3
100
AcDbVertex
100
AcDb2dVertex
 10
1259.809365217165
 20
2124.069731448717
 30
0.0
  0
VERTEX
  5
284
330
264
100
AcDbEntity
  8
枠_表
  6
EXLTYPE2
 62
     3
100
AcDbVertex
100
AcDb2dVertex
 10
1259.83274795693
 20
2124.112277591527
 30
0.0
  0
VERTEX
  5
285
330
264
100
AcDbEntity
  8
枠_表
  6
EXLTYPE2
 62
     3
100
AcDbVertex
100
AcDb2dVertex
 10
1259.856213162561
 20
2124.15476017731
 30
0.0
  0
VERTEX
  5
286
330
264
100
AcDbEntity
  8
枠_表
  6
EXLTYPE2
 62
     3
100
AcDbVertex
100
AcDb2dVertex
 10
1259.879713427978
 20
2124.197076031525
 30
0.0
  0
VERTEX
  5
287
330
264
100
AcDbEntity
  8
枠_表
  6
EXLTYPE2
 62
     3
100
AcDbVertex
100
AcDb2dVertex
 10
1259.900228705388
 20
2124.233818021467
 30
0.0
  0
VERTEX
  5
288
330
264
100
AcDbEntity
  8
枠_表
  6
EXLTYPE2
 62
     3
100
AcDbVertex
100
AcDb2dVertex
 10
1259.920736395049
 20
2124.270363546843
 30
0.0
  0
VERTEX
  5
289
330
264
100
AcDbEntity
  8
枠_表
  6
EXLTYPE2
 62
     3
100
AcDbVertex
100
AcDb2dVertex
 10
1259.941238320912
 20
2124.306721895271
 30
0.0
  0
VERTEX
  5
28A
330
264
100
AcDbEntity
  8
枠_表
  6
EXLTYPE2
 62
     3
100
AcDbVertex
100
AcDb2dVertex
 10
1259.961736306931
 20
2124.342902354369
 30
0.0
  0
VERTEX
  5
28B
330
264
100
AcDbEntity
  8
枠_表
  6
EXLTYPE2
 62
     3
100
AcDbVertex
100
AcDb2dVertex
 10
1259.982232177059
 20
2124.378914211755
 30
0.0
  0
VERTEX
  5
28C
330
264
100
AcDbEntity
  8
枠_表
  6
EXLTYPE2
 62
     3
100
AcDbVertex
100
AcDb2dVertex
 10
1260.002727755249
 20
2124.414766755047
 30
0.0
  0
VERTEX
  5
28D
330
264
100
AcDbEntity
  8
枠_表
  6
EXLTYPE2
 62
     3
100
AcDbVertex
100
AcDb2dVertex
 10
1260.023224865455
 20
2124.450469271865
 30
0.0
  0
VERTEX
  5
28E
330
264
100
AcDbEntity
  8
枠_表
  6
EXLTYPE2
 62
     3
100
AcDbVertex
100
AcDb2dVertex
 10
1260.043725331629
 20
2124.486031049824
 30
0.0
  0
VERTEX
  5
28F
330
264
100
AcDbEntity
  8
枠_表
  6
EXLTYPE2
 62
     3
100
AcDbVertex
100
AcDb2dVertex
 10
1260.064230977724
 20
2124.521461376544
 30
0.0
  0
VERTEX
  5
290
330
264
100
AcDbEntity
  8
枠_表
  6
EXLTYPE2
 62
     3
100
AcDbVertex
100
AcDb2dVertex
 10
1260.084743627694
 20
2124.556769539643
 30
0.0
  0
VERTEX
  5
291
330
264
100
AcDbEntity
  8
枠_表
  6
EXLTYPE2
 62
     3
100
AcDbVertex
100
AcDb2dVertex
 10
1260.105265105491
 20
2124.591964826739
 30
0.0
  0
VERTEX
  5
292
330
264
100
AcDbEntity
  8
枠_表
  6
EXLTYPE2
 62
     3
100
AcDbVertex
100
AcDb2dVertex
 10
1260.122166593972
 20
2124.620858661071
 30
0.0
  0
VERTEX
  5
293
330
264
100
AcDbEntity
  8
枠_表
  6
EXLTYPE2
 62
     3
100
AcDbVertex
100
AcDb2dVertex
 10
1260.1390982764
 20
2124.649717296667
 30
0.0
  0
VERTEX
  5
294
330
264
100
AcDbEntity
  8
枠_表
  6
EXLTYPE2
 62
     3
100
AcDbVertex
100
AcDb2dVertex
 10
1260.156083131332
 20
2124.678575704371
 30
0.0
  0
VERTEX
  5
295
330
264
100
AcDbEntity
  8
枠_表
  6
EXLTYPE2
 62
     3
100
AcDbVertex
100
AcDb2dVertex
 10
1260.173144137324
 20
2124.707468855026
 30
0.0
  0
VERTEX
  5
296
330
264
100
AcDbEntity
  8
枠_表
  6
EXLTYPE2
 62
     3
100
AcDbVertex
100
AcDb2dVertex
 10
1260.190304272929
 20
2124.736431719477
 30
0.0
  0
VERTEX
  5
297
330
264
100
AcDbEntity
  8
枠_表
  6
EXLTYPE2
 62
     3
100
AcDbVertex
100
AcDb2dVertex
 10
1260.207586516704
 20
2124.765499268566
 30
0.0
  0
VERTEX
  5
298
330
264
100
AcDbEntity
  8
枠_表
  6
EXLTYPE2
 62
     3
100
AcDbVertex
100
AcDb2dVertex
 10
1260.225013847202
 20
2124.794706473137
 30
0.0
  0
VERTEX
  5
299
330
264
100
AcDbEntity
  8
枠_表
  6
EXLTYPE2
 62
     3
100
AcDbVertex
100
AcDb2dVertex
 10
1260.24260924298
 20
2124.824088304034
 30
0.0
  0
VERTEX
  5
29A
330
264
100
AcDbEntity
  8
枠_表
  6
EXLTYPE2
 62
     3
100
AcDbVertex
100
AcDb2dVertex
 10
1260.260395682593
 20
2124.853679732099
 30
0.0
  0
VERTEX
  5
29B
330
264
100
AcDbEntity
  8
枠_表
  6
EXLTYPE2
 62
     3
100
AcDbVertex
100
AcDb2dVertex
 10
1260.278396144595
 20
2124.883515728176
 30
0.0
  0
VERTEX
  5
29C
330
264
100
AcDbEntity
  8
枠_表
  6
EXLTYPE2
 62
     3
100
AcDbVertex
100
AcDb2dVertex
 10
1260.296633607541
 20
2124.91363126311
 30
0.0
  0
VERTEX
  5
29D
330
264
100
AcDbEntity
  8
枠_表
  6
EXLTYPE2
 62
     3
100
AcDbVertex
100
AcDb2dVertex
 10
1260.310476264741
 20
2124.936415465798
 30
0.0
  0
VERTEX
  5
29E
330
264
100
AcDbEntity
  8
枠_表
  6
EXLTYPE2
 62
     3
100
AcDbVertex
100
AcDb2dVertex
 10
1260.324404456525
 20
2124.959281251519
 30
0.0
  0
VERTEX
  5
29F
330
264
100
AcDbEntity
  8
枠_表
  6
EXLTYPE2
 62
     3
100
AcDbVertex
100
AcDb2dVertex
 10
1260.338357332671
 20
2124.982133114571
 30
0.0
  0
VERTEX
  5
2A0
330
264
100
AcDbEntity
  8
枠_表
  6
EXLTYPE2
 62
     3
100
AcDbVertex
100
AcDb2dVertex
 10
1260.352274042957
 20
2125.004875549249
 30
0.0
  0
VERTEX
  5
2A1
330
264
100
AcDbEntity
  8
枠_表
  6
EXLTYPE2
 62
     3
100
AcDbVertex
100
AcDb2dVertex
 10
1260.366093737163
 20
2125.027413049851
 30
0.0
  0
VERTEX
  5
2A2
330
264
100
AcDbEntity
  8
枠_表
  6
EXLTYPE2
 62
     3
100
AcDbVertex
100
AcDb2dVertex
 10
1260.379755565065
 20
2125.049650110672
 30
0.0
  0
VERTEX
  5
2A3
330
264
100
AcDbEntity
  8
枠_表
  6
EXLTYPE2
 62
     3
100
AcDbVertex
100
AcDb2dVertex
 10
1260.393198676443
 20
2125.071491226009
 30
0.0
  0
VERTEX
  5
2A4
330
264
100
AcDbEntity
  8
枠_表
  6
EXLTYPE2
 62
     3
100
AcDbVertex
100
AcDb2dVertex
 10
1260.406362221074
 20
2125.09284089016
 30
0.0
  0
VERTEX
  5
2A5
330
264
100
AcDbEntity
  8
枠_表
  6
EXLTYPE2
 62
     3
100
AcDbVertex
100
AcDb2dVertex
 10
1260.419185348737
 20
2125.113603597419
 30
0.0
  0
VERTEX
  5
2A6
330
264
100
AcDbEntity
  8
枠_表
  6
EXLTYPE2
 62
     3
100
AcDbVertex
100
AcDb2dVertex
 10
1260.431607209209
 20
2125.133683842084
 30
0.0
  0
VERTEX
  5
2A7
330
264
100
AcDbEntity
  8
枠_表
  6
EXLTYPE2
 62
     3
100
AcDbVertex
100
AcDb2dVertex
 10
1260.443566952269
 20
2125.152986118451
 30
0.0
  0
VERTEX
  5
2A8
330
264
100
AcDbEntity
  8
枠_表
  6
EXLTYPE2
 62
     3
100
AcDbVertex
100
AcDb2dVertex
 10
1260.45072617392
 20
2125.164524895918
 30
0.0
  0
VERTEX
  5
2A9
330
264
100
AcDbEntity
  8
枠_表
  6
EXLTYPE2
 62
     3
100
AcDbVertex
100
AcDb2dVertex
 10
1260.457796865658
 20
2125.175905043637
 30
0.0
  0
VERTEX
  5
2AA
330
264
100
AcDbEntity
  8
枠_表
  6
EXLTYPE2
 62
     3
100
AcDbVertex
100
AcDb2dVertex
 10
1260.464890499423
 20
2125.1873019801
 30
0.0
  0
VERTEX
  5
2AB
330
264
100
AcDbEntity
  8
枠_表
  6
EXLTYPE2
 62
     3
100
AcDbVertex
100
AcDb2dVertex
 10
1260.472118547156
 20
2125.198891123801
 30
0.0
  0
VERTEX
  5
2AC
330
264
100
AcDbEntity
  8
枠_表
  6
EXLTYPE2
 62
     3
100
AcDbVertex
100
AcDb2dVertex
 10
1260.479592480796
 20
2125.210847893233
 30
0.0
  0
VERTEX
  5
2AD
330
264
100
AcDbEntity
  8
枠_表
  6
EXLTYPE2
 62
     3
100
AcDbVertex
100
AcDb2dVertex
 10
1260.487423772285
 20
2125.223347706891
 30
0.0
  0
VERTEX
  5
2AE
330
264
100
AcDbEntity
  8
枠_表
  6
EXLTYPE2
 62
     3
100
AcDbVertex
100
AcDb2dVertex
 10
1260.495723893562
 20
2125.236565983269
 30
0.0
  0
VERTEX
  5
2AF
330
264
100
AcDbEntity
  8
枠_表
  6
EXLTYPE2
 62
     3
100
AcDbVertex
100
AcDb2dVertex
 10
1260.504604316568
 20
2125.250678140858
 30
0.0
  0
VERTEX
  5
2B0
330
264
100
AcDbEntity
  8
枠_表
  6
EXLTYPE2
 62
     3
100
AcDbVertex
100
AcDb2dVertex
 10
1260.514176513242
 20
2125.265859598154
 30
0.0
  0
VERTEX
  5
2B1
330
264
100
AcDbEntity
  8
枠_表
  6
EXLTYPE2
 62
     3
100
AcDbVertex
100
AcDb2dVertex
 10
1260.524551955526
 20
2125.282285773649
 30
0.0
  0
VERTEX
  5
2B2
330
264
100
AcDbEntity
  8
枠_表
  6
EXLTYPE2
 62
     3
100
AcDbVertex
100
AcDb2dVertex
 10
1260.535842115358
 20
2125.300132085838
 30
0.0
  0
VERTEX
  5
2B3
330
264
100
AcDbEntity
  8
枠_表
  6
EXLTYPE2
 62
     3
100
AcDbVertex
100
AcDb2dVertex
 10
1260.539613816806
 20
2125.306088597568
 30
0.0
  0
VERTEX
  5
2B4
330
264
100
AcDbEntity
  8
枠_表
  6
EXLTYPE2
 62
     3
100
AcDbVertex
100
AcDb2dVertex
 10
1260.543408080839
 20
2125.312078663228
 30
0.0
  0
VERTEX
  5
2B5
330
264
100
AcDbEntity
  8
枠_表
  6
EXLTYPE2
 62
     3
100
AcDbVertex
100
AcDb2dVertex
 10
1260.54714446715
 20
2125.317975684263
 30
0.0
  0
VERTEX
  5
2B6
330
264
100
AcDbEntity
  8
枠_表
  6
EXLTYPE2
 62
     3
100
AcDbVertex
100
AcDb2dVertex
 10
1260.550742535433
 20
2125.323653062118
 30
0.0
  0
VERTEX
  5
2B7
330
264
100
AcDbEntity
  8
枠_表
  6
EXLTYPE2
 62
     3
100
AcDbVertex
100
AcDb2dVertex
 10
1260.554121845383
 20
2125.328984198237
 30
0.0
  0
VERTEX
  5
2B8
330
264
100
AcDbEntity
  8
枠_表
  6
EXLTYPE2
 62
     3
100
AcDbVertex
100
AcDb2dVertex
 10
1260.557201956693
 20
2125.333842494066
 30
0.0
  0
VERTEX
  5
2B9
330
264
100
AcDbEntity
  8
枠_表
  6
EXLTYPE2
 62
     3
100
AcDbVertex
100
AcDb2dVertex
 10
1260.559902429058
 20
2125.338101351049
 30
0.0
  0
VERTEX
  5
2BA
330
264
100
AcDbEntity
  8
枠_表
  6
EXLTYPE2
 62
     3
100
AcDbVertex
100
AcDb2dVertex
 10
1260.56214282217
 20
2125.341634170632
 30
0.0
  0
VERTEX
  5
2BB
330
264
100
AcDbEntity
  8
枠_表
  6
EXLTYPE2
 62
     3
100
AcDbVertex
100
AcDb2dVertex
 10
1260.563842695725
 20
2125.34431435426
 30
0.0
  0
VERTEX
  5
2BC
330
264
100
AcDbEntity
  8
枠_表
  6
EXLTYPE2
 62
     3
100
AcDbVertex
100
AcDb2dVertex
 10
1260.564921609416
 20
2125.346015303377
 30
0.0
  0
VERTEX
  5
2BD
330
264
100
AcDbEntity
  8
枠_表
  6
EXLTYPE2
 62
     3
100
AcDbVertex
100
AcDb2dVertex
 10
1260.565299122936
 20
2125.346610419428
 30
0.0
  0
SEQEND
  5
2BE
330
264
100
AcDbEntity
  8
枠_表
  6
EXLTYPE2
 62
     3
  0
POLYLINE
  5
2BF
330
1F
100
AcDbEntity
  8
枠_表
  6
EXLTYPE2
 62
     3
100
AcDb2dPolyline
 66
     1
 10
0.0
 20
0.0
 30
0.0
 70
   128
  0
VERTEX
  5
2C0
330
2BF
100
AcDbEntity
  8
枠_表
  6
EXLTYPE2
 62
     3
100
AcDbVertex
100
AcDb2dVertex
 10
1255.082136741481
 20
2114.221751337532
 30
0.0
  0
VERTEX
  5
2C1
330
2BF
100
AcDbEntity
  8
枠_表
  6
EXLTYPE2
 62
     3
100
AcDbVertex
100
AcDb2dVertex
 10
1255.082616608869
 20
2114.222026428074
 30
0.0
  0
VERTEX
  5
2C2
330
2BF
100
AcDbEntity
  8
枠_表
  6
EXLTYPE2
 62
     3
100
AcDbVertex
100
AcDb2dVertex
 10
1255.083980616719
 20
2114.222816232008
 30
0.0
  0
VERTEX
  5
2C3
330
2BF
100
AcDbEntity
  8
枠_表
  6
EXLTYPE2
 62
     3
100
AcDbVertex
100
AcDb2dVertex
 10
1255.086115373566
 20
2114.224067547795
 30
0.0
  0
VERTEX
  5
2C4
330
2BF
100
AcDbEntity
  8
枠_表
  6
EXLTYPE2
 62
     3
100
AcDbVertex
100
AcDb2dVertex
 10
1255.088907487942
 20
2114.225727173897
 30
0.0
  0
VERTEX
  5
2C5
330
2BF
100
AcDbEntity
  8
枠_表
  6
EXLTYPE2
 62
     3
100
AcDbVertex
100
AcDb2dVertex
 10
1255.092243568379
 20
2114.227741908776
 30
0.0
  0
VERTEX
  5
2C6
330
2BF
100
AcDbEntity
  8
枠_表
  6
EXLTYPE2
 62
     3
100
AcDbVertex
100
AcDb2dVertex
 10
1255.096010223412
 20
2114.230058550894
 30
0.0
  0
VERTEX
  5
2C7
330
2BF
100
AcDbEntity
  8
枠_表
  6
EXLTYPE2
 62
     3
100
AcDbVertex
100
AcDb2dVertex
 10
1255.100094061571
 20
2114.232623898711
 30
0.0
  0
VERTEX
  5
2C8
330
2BF
100
AcDbEntity
  8
枠_表
  6
EXLTYPE2
 62
     3
100
AcDbVertex
100
AcDb2dVertex
 10
1255.104381691391
 20
2114.235384750691
 30
0.0
  0
VERTEX
  5
2C9
330
2BF
100
AcDbEntity
  8
枠_表
  6
EXLTYPE2
 62
     3
100
AcDbVertex
100
AcDb2dVertex
 10
1255.108759721405
 20
2114.238287905294
 30
0.0
  0
VERTEX
  5
2CA
330
2BF
100
AcDbEntity
  8
枠_表
  6
EXLTYPE2
 62
     3
100
AcDbVertex
100
AcDb2dVertex
 10
1255.113114760143
 20
2114.241280160983
 30
0.0
  0
VERTEX
  5
2CB
330
2BF
100
AcDbEntity
  8
枠_表
  6
EXLTYPE2
 62
     3
100
AcDbVertex
100
AcDb2dVertex
 10
1255.117333416141
 20
2114.244308316219
 30
0.0
  0
VERTEX
  5
2CC
330
2BF
100
AcDbEntity
  8
枠_表
  6
EXLTYPE2
 62
     3
100
AcDbVertex
100
AcDb2dVertex
 10
1255.125388365373
 20
2114.250590696658
 30
0.0
  0
VERTEX
  5
2CD
330
2BF
100
AcDbEntity
  8
枠_表
  6
EXLTYPE2
 62
     3
100
AcDbVertex
100
AcDb2dVertex
 10
1255.132471022677
 20
2114.256813585816
 30
0.0
  0
VERTEX
  5
2CE
330
2BF
100
AcDbEntity
  8
枠_表
  6
EXLTYPE2
 62
     3
100
AcDbVertex
100
AcDb2dVertex
 10
1255.138696035229
 20
2114.262992785254
 30
0.0
  0
VERTEX
  5
2CF
330
2BF
100
AcDbEntity
  8
枠_表
  6
EXLTYPE2
 62
     3
100
AcDbVertex
100
AcDb2dVertex
 10
1255.144178050204
 20
2114.269144096538
 30
0.0
  0
VERTEX
  5
2D0
330
2BF
100
AcDbEntity
  8
枠_表
  6
EXLTYPE2
 62
     3
100
AcDbVertex
100
AcDb2dVertex
 10
1255.14903171478
 20
2114.275283321231
 30
0.0
  0
VERTEX
  5
2D1
330
2BF
100
AcDbEntity
  8
枠_表
  6
EXLTYPE2
 62
     3
100
AcDbVertex
100
AcDb2dVertex
 10
1255.153371676132
 20
2114.281426260896
 30
0.0
  0
VERTEX
  5
2D2
330
2BF
100
AcDbEntity
  8
枠_表
  6
EXLTYPE2
 62
     3
100
AcDbVertex
100
AcDb2dVertex
 10
1255.157312581436
 20
2114.287588717096
 30
0.0
  0
VERTEX
  5
2D3
330
2BF
100
AcDbEntity
  8
枠_表
  6
EXLTYPE2
 62
     3
100
AcDbVertex
100
AcDb2dVertex
 10
1255.160969077869
 20
2114.293786491395
 30
0.0
  0
VERTEX
  5
2D4
330
2BF
100
AcDbEntity
  8
枠_表
  6
EXLTYPE2
 62
     3
100
AcDbVertex
100
AcDb2dVertex
 10
1255.164455812606
 20
2114.300035385356
 30
0.0
  0
VERTEX
  5
2D5
330
2BF
100
AcDbEntity
  8
枠_表
  6
EXLTYPE2
 62
     3
100
AcDbVertex
100
AcDb2dVertex
 10
1255.167887432824
 20
2114.306351200543
 30
0.0
  0
VERTEX
  5
2D6
330
2BF
100
AcDbEntity
  8
枠_表
  6
EXLTYPE2
 62
     3
100
AcDbVertex
100
AcDb2dVertex
 10
1255.171378585699
 20
2114.312749738519
 30
0.0
  0
VERTEX
  5
2D7
330
2BF
100
AcDbEntity
  8
枠_表
  6
EXLTYPE2
 62
     3
100
AcDbVertex
100
AcDb2dVertex
 10
1255.176819593491
 20
2114.322376749055
 30
0.0
  0
VERTEX
  5
2D8
330
2BF
100
AcDbEntity
  8
枠_表
  6
EXLTYPE2
 62
     3
100
AcDbVertex
100
AcDb2dVertex
 10
1255.182583976256
 20
2114.332180903688
 30
0.0
  0
VERTEX
  5
2D9
330
2BF
100
AcDbEntity
  8
枠_表
  6
EXLTYPE2
 62
     3
100
AcDbVertex
100
AcDb2dVertex
 10
1255.18861463254
 20
2114.342124131048
 30
0.0
  0
VERTEX
  5
2DA
330
2BF
100
AcDbEntity
  8
枠_表
  6
EXLTYPE2
 62
     3
100
AcDbVertex
100
AcDb2dVertex
 10
1255.194854460887
 20
2114.352168359763
 30
0.0
  0
VERTEX
  5
2DB
330
2BF
100
AcDbEntity
  8
枠_表
  6
EXLTYPE2
 62
     3
100
AcDbVertex
100
AcDb2dVertex
 10
1255.201246359838
 20
2114.362275518464
 30
0.0
  0
VERTEX
  5
2DC
330
2BF
100
AcDbEntity
  8
枠_表
  6
EXLTYPE2
 62
     3
100
AcDbVertex
100
AcDb2dVertex
 10
1255.20773322794
 20
2114.37240753578
 30
0.0
  0
VERTEX
  5
2DD
330
2BF
100
AcDbEntity
  8
枠_表
  6
EXLTYPE2
 62
     3
100
AcDbVertex
100
AcDb2dVertex
 10
1255.214257963735
 20
2114.382526340344
 30
0.0
  0
VERTEX
  5
2DE
330
2BF
100
AcDbEntity
  8
枠_表
  6
EXLTYPE2
 62
     3
100
AcDbVertex
100
AcDb2dVertex
 10
1255.220763465767
 20
2114.392593860782
 30
0.0
  0
VERTEX
  5
2DF
330
2BF
100
AcDbEntity
  8
枠_表
  6
EXLTYPE2
 62
     3
100
AcDbVertex
100
AcDb2dVertex
 10
1255.22719263258
 20
2114.402572025726
 30
0.0
  0
VERTEX
  5
2E0
330
2BF
100
AcDbEntity
  8
枠_表
  6
EXLTYPE2
 62
     3
100
AcDbVertex
100
AcDb2dVertex
 10
1255.233488362718
 20
2114.412422763806
 30
0.0
  0
VERTEX
  5
2E1
330
2BF
100
AcDbEntity
  8
枠_表
  6
EXLTYPE2
 62
     3
100
AcDbVertex
100
AcDb2dVertex
 10
1255.239593554724
 20
2114.422108003651
 30
0.0
  0
VERTEX
  5
2E2
330
2BF
100
AcDbEntity
  8
枠_表
  6
EXLTYPE2
 62
     3
100
AcDbVertex
100
AcDb2dVertex
 10
1255.246898557689
 20
2114.433951908176
 30
0.0
  0
VERTEX
  5
2E3
330
2BF
100
AcDbEntity
  8
枠_表
  6
EXLTYPE2
 62
     3
100
AcDbVertex
100
AcDb2dVertex
 10
1255.25389813799
 20
2114.44560829679
 30
0.0
  0
VERTEX
  5
2E4
330
2BF
100
AcDbEntity
  8
枠_表
  6
EXLTYPE2
 62
     3
100
AcDbVertex
100
AcDb2dVertex
 10
1255.260673411175
 20
2114.457207403392
 30
0.0
  0
VERTEX
  5
2E5
330
2BF
100
AcDbEntity
  8
枠_表
  6
EXLTYPE2
 62
     3
100
AcDbVertex
100
AcDb2dVertex
 10
1255.26730549279
 20
2114.468879461877
 30
0.0
  0
VERTEX
  5
2E6
330
2BF
100
AcDbEntity
  8
枠_表
  6
EXLTYPE2
 62
     3
100
AcDbVertex
100
AcDb2dVertex
 10
1255.273875498386
 20
2114.480754706142
 30
0.0
  0
VERTEX
  5
2E7
330
2BF
100
AcDbEntity
  8
枠_表
  6
EXLTYPE2
 62
     3
100
AcDbVertex
100
AcDb2dVertex
 10
1255.280464543508
 20
2114.492963370084
 30
0.0
  0
VERTEX
  5
2E8
330
2BF
100
AcDbEntity
  8
枠_表
  6
EXLTYPE2
 62
     3
100
AcDbVertex
100
AcDb2dVertex
 10
1255.287153743704
 20
2114.505635687599
 30
0.0
  0
VERTEX
  5
2E9
330
2BF
100
AcDbEntity
  8
枠_表
  6
EXLTYPE2
 62
     3
100
AcDbVertex
100
AcDb2dVertex
 10
1255.294024214523
 20
2114.518901892583
 30
0.0
  0
VERTEX
  5
2EA
330
2BF
100
AcDbEntity
  8
枠_表
  6
EXLTYPE2
 62
     3
100
AcDbVertex
100
AcDb2dVertex
 10
1255.301157071512
 20
2114.532892218933
 30
0.0
  0
VERTEX
  5
2EB
330
2BF
100
AcDbEntity
  8
枠_表
  6
EXLTYPE2
 62
     3
100
AcDbVertex
100
AcDb2dVertex
 10
1255.308633430219
 20
2114.547736900546
 30
0.0
  0
VERTEX
  5
2EC
330
2BF
100
AcDbEntity
  8
枠_表
  6
EXLTYPE2
 62
     3
100
AcDbVertex
100
AcDb2dVertex
 10
1255.316534406191
 20
2114.563566171318
 30
0.0
  0
VERTEX
  5
2ED
330
2BF
100
AcDbEntity
  8
枠_表
  6
EXLTYPE2
 62
     3
100
AcDbVertex
100
AcDb2dVertex
 10
1255.325699012061
 20
2114.582045473961
 30
0.0
  0
VERTEX
  5
2EE
330
2BF
100
AcDbEntity
  8
枠_表
  6
EXLTYPE2
 62
     3
100
AcDbVertex
100
AcDb2dVertex
 10
1255.335211587831
 20
2114.601320387832
 30
0.0
  0
VERTEX
  5
2EF
330
2BF
100
AcDbEntity
  8
枠_表
  6
EXLTYPE2
 62
     3
100
AcDbVertex
100
AcDb2dVertex
 10
1255.344814910293
 20
2114.620852453656
 30
0.0
  0
VERTEX
  5
2F0
330
2BF
100
AcDbEntity
  8
枠_表
  6
EXLTYPE2
 62
     3
100
AcDbVertex
100
AcDb2dVertex
 10
1255.354251756241
 20
2114.640103212158
 30
0.0
  0
VERTEX
  5
2F1
330
2BF
100
AcDbEntity
  8
枠_表
  6
EXLTYPE2
 62
     3
100
AcDbVertex
100
AcDb2dVertex
 10
1255.363264902469
 20
2114.658534204063
 30
0.0
  0
VERTEX
  5
2F2
330
2BF
100
AcDbEntity
  8
枠_表
  6
EXLTYPE2
 62
     3
100
AcDbVertex
100
AcDb2dVertex
 10
1255.371597125767
 20
2114.675606970097
 30
0.0
  0
VERTEX
  5
2F3
330
2BF
100
AcDbEntity
  8
枠_表
  6
EXLTYPE2
 62
     3
100
AcDbVertex
100
AcDb2dVertex
 10
1255.378991202931
 20
2114.690783050984
 30
0.0
  0
VERTEX
  5
2F4
330
2BF
100
AcDbEntity
  8
枠_表
  6
EXLTYPE2
 62
     3
100
AcDbVertex
100
AcDb2dVertex
 10
1255.385189910752
 20
2114.703523987449
 30
0.0
  0
VERTEX
  5
2F5
330
2BF
100
AcDbEntity
  8
枠_表
  6
EXLTYPE2
 62
     3
100
AcDbVertex
100
AcDb2dVertex
 10
1255.389936026023
 20
2114.713291320216
 30
0.0
  0
VERTEX
  5
2F6
330
2BF
100
AcDbEntity
  8
枠_表
  6
EXLTYPE2
 62
     3
100
AcDbVertex
100
AcDb2dVertex
 10
1255.392972325537
 20
2114.719546590012
 30
0.0
  0
VERTEX
  5
2F7
330
2BF
100
AcDbEntity
  8
枠_表
  6
EXLTYPE2
 62
     3
100
AcDbVertex
100
AcDb2dVertex
 10
1255.394041586088
 20
2114.72175133756
 30
0.0
  0
SEQEND
  5
2F8
330
2BF
100
AcDbEntity
  8
枠_表
  6
EXLTYPE2
 62
     3
  0
LINE
  5
2F9
330
1F
100
AcDbEntity
  8
枠_表
  6
EXLTYPE2
 62
     3
100
AcDbLine
 10
1263.181110507676
 20
2130.95623603675
 30
0.0
 11
1260.565299122936
 21
2125.346610419428
 31
0.0
  0
POLYLINE
  5
2FA
330
1F
100
AcDbEntity
  8
化粧台
  6
CONTINUOUS
 62
     3
100
AcDb2dPolyline
 66
     1
 10
0.0
 20
0.0
 30
0.0
 70
   128
  0
VERTEX
  5
2FB
330
2FA
100
AcDbEntity
  8
化粧台
  6
CONTINUOUS
 62
     3
100
AcDbVertex
100
AcDb2dVertex
 10
571.9999999999934
 20
1254.0
 30
0.0
  0
VERTEX
  5
2FC
330
2FA
100
AcDbEntity
  8
化粧台
  6
CONTINUOUS
 62
     3
100
AcDbVertex
100
AcDb2dVertex
 10
552.9999999999934
 20
1303.0
 30
0.0
  0
SEQEND
  5
2FD
330
2FA
100
AcDbEntity
  8
化粧台
  6
CONTINUOUS
 62
     3
  0
LINE
  5
2FE
330
1F
100
AcDbEntity
  8
化粧台
  6
CONTINUOUS
 62
     3
100
AcDbLine
 10
548.7385367307782
 20
1293.244799994075
 30
0.0
 11
571.9999999999934
 21
1254.0
 31
0.0
  0
LINE
  5
2FF
330
1F
100
AcDbEntity
  8
化粧台
  6
CONTINUOUS
 62
     3
100
AcDbLine
 10
571.9999999999934
 20
1254.0
 30
0.0
 11
562.7239563650302
 21
1298.667717811438
 31
0.0
  0
POLYLINE
  5
300
330
1F
100
AcDbEntity
  8
化粧台
  6
CONTINUOUS
 62
     3
100
AcDb2dPolyline
 66
     1
 10
0.0
 20
0.0
 30
0.0
 70
   128
  0
VERTEX
  5
301
330
300
100
AcDbEntity
  8
化粧台
  6
CONTINUOUS
 62
     3
100
AcDbVertex
100
AcDb2dVertex
 10
2528.000000000097
 20
2337.5
 30
0.0
  0
VERTEX
  5
302
330
300
100
AcDbEntity
  8
化粧台
  6
CONTINUOUS
 62
     3
100
AcDbVertex
100
AcDb2dVertex
 10
2482.000000000097
 20
2357.5
 30
0.0
  0
SEQEND
  5
303
330
300
100
AcDbEntity
  8
化粧台
  6
CONTINUOUS
 62
     3
  0
LINE
  5
304
330
1F
100
AcDbEntity
  8
化粧台
  6
CONTINUOUS
 62
     3
100
AcDbLine
 10
2483.741401633093
 20
2348.564649591751
 30
0.0
 11
2528.000000000097
 21
2337.5
 31
0.0
  0
LINE
  5
305
330
1F
100
AcDbEntity
  8
化粧台
  6
CONTINUOUS
 62
     3
100
AcDbLine
 10
2528.000000000097
 20
2337.5
 30
0.0
 11
2489.722293304309
 21
2362.320700435549
 31
0.0
  0
LINE
  5
306
330
1F
100
AcDbEntity
  8
化粧台
  6
CONTINUOUS
 62
     3
100
AcDbLine
 10
1322.499999821283
 20
1254.0000000001
 30
0.0
 11
1531.5
 21
1254.000000000099
 31
0.0
  0
DIMENSION
  5
308
330
1F
100
AcDbEntity
  8
化粧台
  6
CONTINUOUS
 62
     3
100
AcDbDimension
  2
*D15
 10
1492.5
 20
2004.0000000001
 30
0.0
 11
1457.250000089407
 21
1629.000000000099
 31
0.0
 70
   160
  3
ISO-25
100
AcDbAlignedDimension
 13
1312.000000000097
 23
1254.0000000001
 33
0.0
 14
1025.000000000098
 24
2004.0000000001
 34
0.0
 50
90.0
100
AcDbRotatedDimension
1001
ACAD
1000
DSTYLE
1002
{
1070
   270
1070
     2
1070
     6
1000
EX_NORM
1070
     7
1000
EX_NORM
1070
    41
1040
44.99999618530273
1070
    42
1040
10.49999982118607
1070
    44
1040
15.0
1070
    73
1070
     0
1070
    74
1070
     0
1070
    75
1070
     0
1070
    76
1070
     0
1070
    77
1070
     1
1070
    78
1070
     0
1070
   140
1040
59.99999618530273
1070
   147
1040
0.0
1070
   173
1070
     1
1070
   176
1070
     3
1070
   177
1070
     3
1070
   178
1070
     2
1070
   271
1070
     0
1070
   277
1070
     2
1070
   279
1070
     2
1070
   280
1070
     0
1070
   287
1070
     5
1070
   340
1005
307
1002
}
  0
DIMENSION
  5
316
330
1F
100
AcDbEntity
  8
化粧台
  6
CONTINUOUS
 62
     3
100
AcDbDimension
  2
*D16
 10
1325.000000000137
 20
2841.0
 30
0.0
 11
1025.000000000158
 21
2876.249999910593
 31
0.0
 70
   160
  3
ISO-25
100
AcDbAlignedDimension
 13
725.0000000001785
 23
3025.500000000039
 33
0.0
 14
1325.000000000137
 24
3025.500000000039
 34
0.0
100
AcDbRotatedDimension
1001
ACAD
1000
DSTYLE
1002
{
1070
   270
1070
     2
1070
     6
1000
EX_NORM
1070
     7
1000
EX_NORM
1070
    41
1040
44.99999618530273
1070
    42
1040
1.500000022351742
1070
    44
1040
15.0
1070
    73
1070
     0
1070
    74
1070
     0
1070
    75
1070
     0
1070
    76
1070
     0
1070
    77
1070
     1
1070
    78
1070
     0
1070
   140
1040
59.99999618530273
1070
   147
1040
0.0
1070
   173
1070
     1
1070
   176
1070
     3
1070
   177
1070
     3
1070
   178
1070
     2
1070
   271
1070
     0
1070
   277
1070
     2
1070
   279
1070
     2
1070
   280
1070
     0
1070
   287
1070
     5
1070
   340
1005
307
1002
}
  0
DIMENSION
  5
323
330
1F
100
AcDbEntity
  8
化粧台
  6
CONTINUOUS
 62
     3
100
AcDbDimension
  2
*D17
 10
1503.0
 20
3061.000000000039
 30
0.0
 11
1467.750000089408
 21
3211.000000000039
 31
0.0
 70
   160
  3
ISO-25
100
AcDbAlignedDimension
 13
1325.000000000137
 23
3361.000000000039
 33
0.0
 14
1320.000000000137
 24
3061.000000000039
 34
0.0
 50
90.0
100
AcDbRotatedDimension
1001
ACAD
1000
DSTYLE
1002
{
1070
   270
1070
     2
1070
     6
1000
EX_NORM
1070
     7
1000
EX_NORM
1070
    41
1040
44.99999618530273
1070
    42
1040
10.49999982118607
1070
    44
1040
15.0
1070
    73
1070
     0
1070
    74
1070
     0
1070
    75
1070
     1
1070
    76
1070
     0
1070
    77
1070
     1
1070
    78
1070
     0
1070
   140
1040
59.99999618530273
1070
   147
1040
0.0
1070
   173
1070
     1
1070
   176
1070
     3
1070
   177
1070
     3
1070
   178
1070
     2
1070
   271
1070
     0
1070
   277
1070
     2
1070
   279
1070
     2
1070
   280
1070
     0
1070
   287
1070
     5
1070
   340
1005
307
1002
}
  0
DIMENSION
  5
32F
330
1F
100
AcDbEntity
  8
化粧台
  6
CONTINUOUS
 62
     3
100
AcDbDimension
  2
*D18
 10
1596.0
 20
2991.0
 30
0.0
 11
1558.500000000001
 21
3176.0
 31
0.0
 70
   160
  3
ISO-25
100
AcDbAlignedDimension
 13
1025.000000000138
 23
3361.0
 33
0.0
 14
1025.000000000138
 24
2991.0
 34
0.0
 50
90.0
100
AcDbRotatedDimension
1001
ACAD
1000
DSTYLE
1002
{
1070
   270
1070
     2
1070
     6
1000
EX_NORM
1070
     7
1000
EX_NORM
1070
    41
1040
44.99999618530273
1070
    42
1040
10.49999982118607
1070
    44
1040
15.0
1070
    73
1070
     0
1070
    74
1070
     0
1070
    75
1070
     0
1070
    76
1070
     0
1070
    77
1070
     1
1070
    78
1070
     8
1070
   140
1040
59.99999618530273
1070
   147
1040
0.0
1070
   173
1070
     1
1070
   176
1070
     3
1070
   177
1070
     3
1070
   178
1070
     2
1070
   271
1070
     1
1070
   277
1070
     2
1070
   279
1070
     2
1070
   280
1070
     0
1070
   287
1070
     5
1070
   340
1005
307
1002
}
  0
LINE
  5
33C
330
1F
100
AcDbEntity
  8
化粧台
  6
CONTINUOUS
 62
     3
100
AcDbLine
 10
1145.000000000136
 20
1216.500000178774
 30
0.0
 11
1145.000000000136
 21
1134.0
 31
0.0
  0
DIMENSION
  5
33D
330
1F
100
AcDbEntity
  8
化粧台
  6
CONTINUOUS
 62
     3
100
AcDbDimension
  2
*D19
 10
1235.000000000136
 20
1087.5
 30
0.0
 11
1471.99999928488
 21
1125.0
 31
0.0
 70
   160
  1
  90（床給水）
  3
ISO-25
100
AcDbAlignedDimension
 13
1145.000000000136
 23
1226.99999999996
 33
0.0
 14
1235.000000000136
 24
1227.0
 34
0.0
100
AcDbRotatedDimension
1001
ACAD
1000
DSTYLE
1002
{
1070
   270
1070
     2
1070
     6
1000
EX_NORM
1070
     7
1000
EX_NORM
1070
    41
1040
44.99999618530273
1070
    42
1040
10.49999982118607
1070
    44
1040
15.0
1070
    73
1070
     0
1070
    74
1070
     0
1070
    75
1070
     0
1070
    76
1070
     0
1070
    77
1070
     1
1070
    78
1070
     8
1070
   140
1040
59.99999618530273
1070
   147
1040
0.0
1070
   173
1070
     1
1070
   176
1070
     3
1070
   177
1070
     3
1070
   178
1070
     2
1070
   271
1070
     1
1070
   277
1070
     2
1070
   279
1070
     2
1070
   280
1070
     2
1070
   287
1070
     5
1070
   340
1005
307
1002
}
  0
DIMENSION
  5
34A
330
1F
100
AcDbEntity
  8
化粧台
  6
CONTINUOUS
 62
     3
100
AcDbDimension
  2
*D20
 10
1145.000000000136
 20
1087.5
 30
0.0
 11
1085.000000000136
 21
1125.0
 31
0.0
 70
   160
  3
ISO-25
100
AcDbAlignedDimension
 13
1025.000000000136
 23
1192.5
 33
0.0
 14
1145.000000000136
 24
1226.99999999996
 34
0.0
100
AcDbRotatedDimension
1001
ACAD
1000
DSTYLE
1002
{
1070
   270
1070
     2
1070
     6
1000
EX_NORM
1070
     7
1000
EX_NORM
1070
    41
1040
44.99999618530273
1070
    42
1040
10.49999982118607
1070
    44
1040
15.0
1070
    73
1070
     0
1070
    74
1070
     0
1070
    75
1070
     0
1070
    76
1070
     0
1070
    77
1070
     1
1070
    78
1070
     8
1070
   140
1040
59.99999618530273
1070
   147
1040
0.0
1070
   173
1070
     1
1070
   176
1070
     3
1070
   177
1070
     3
1070
   178
1070
     2
1070
   271
1070
     1
1070
   277
1070
     2
1070
   279
1070
     2
1070
   280
1070
     0
1070
   287
1070
     5
1070
   340
1005
307
1002
}
  0
LEADER
  5
357
330
1F
100
AcDbEntity
  8
化粧台
  6
CONTINUOUS
 62
     6
100
AcDbLeader
  3
ISO-25
 76
     3
 10
1027.499999999995
 20
1223.499999999956
 30
0.0
 10
920.4893295290572
 20
1124.7881162186
 30
0.0
 10
783.2393295290603
 20
1124.7881162186
 30
0.0
1001
ACAD
1000
DSTYLE
1002
{
1070
     5
1000
EX_NORM
1070
    41
1040
45.0
1070
   341
1005
4D
1002
}
  0
TEXT
  5
358
330
1F
100
AcDbEntity
  8
化粧台
  6
CONTINUOUS
 62
     2
100
AcDbText
 10
783.9893298866848
 20
1127.038116129193
 30
0.0
 40
59.99999618530273
  1
床排水
 41
1.070588224822399
  7
EXCADSTD
 72
     5
 11
939.989318442593
 21
1127.038116129193
 31
0.0
100
AcDbText
  0
LINE
  5
359
330
1F
100
AcDbEntity
  8
化粧台
  6
CONTINUOUS
 62
     3
100
AcDbLine
 10
2528.000000000095
 20
1243.500000178852
 30
0.0
 11
2528.000000000095
 21
1165.0000000001
 31
0.0
  0
DIMENSION
  5
35A
330
1F
100
AcDbEntity
  8
化粧台
  6
CONTINUOUS
 62
     3
100
AcDbDimension
  2
*D21
 10
2528.000000000097
 20
948.0
 30
0.0
 11
2398.250000000096
 21
985.5
 31
0.0
 70
   160
  1
260
  3
ISO-25
100
AcDbAlignedDimension
 13
2268.500000000096
 23
1254.0
 33
0.0
 14
2528.000000000097
 24
1254.0
 34
0.0
100
AcDbRotatedDimension
1001
ACAD
1000
DSTYLE
1002
{
1070
   270
1070
     2
1070
     6
1000
EX_NORM
1070
     7
1000
EX_NORM
1070
    41
1040
44.99999618530273
1070
    42
1040
10.49999982118607
1070
    44
1040
15.0
1070
    73
1070
     0
1070
    74
1070
     0
1070
    75
1070
     0
1070
    76
1070
     0
1070
    77
1070
     1
1070
    78
1070
     8
1070
   140
1040
59.99999618530273
1070
   147
1040
0.0
1070
   173
1070
     1
1070
   176
1070
     3
1070
   177
1070
     3
1070
   178
1070
     2
1070
   271
1070
     1
1070
   277
1070
     2
1070
   279
1070
     2
1070
   280
1070
     0
1070
   287
1070
     5
1070
   340
1005
307
1002
}
  0
DIMENSION
  5
367
330
1F
100
AcDbEntity
  8
化粧台
  6
CONTINUOUS
 62
     3
100
AcDbDimension
  2
*D22
 10
2706.0
 20
1574.0
 30
0.0
 11
2668.5
 21
1413.999999999999
 31
0.0
 70
   160
  1
　320（壁給水）
  3
ISO-25
100
AcDbAlignedDimension
 13
2538.499999821296
 23
1254.0
 33
0.0
 14
2551.000005722095
 24
1574.0
 34
0.0
 50
90.0
100
AcDbRotatedDimension
1001
ACAD
1000
DSTYLE
1002
{
1070
   270
1070
     2
1070
     6
1000
EX_NORM
1070
     7
1000
EX_NORM
1070
    41
1040
44.99999618530273
1070
    42
1040
10.49999982118607
1070
    44
1040
15.0
1070
    73
1070
     0
1070
    74
1070
     0
1070
    75
1070
     0
1070
    76
1070
     0
1070
    77
1070
     1
1070
    78
1070
     8
1070
   140
1040
59.99999618530273
1070
   147
1040
0.0
1070
   173
1070
     1
1070
   176
1070
     3
1070
   177
1070
     3
1070
   178
1070
     2
1070
   271
1070
     1
1070
   277
1070
     2
1070
   279
1070
     2
1070
   280
1070
     0
1070
   287
1070
     5
1070
   340
1005
307
1002
}
  0
DIMENSION
  5
374
330
1F
100
AcDbEntity
  8
化粧台
  6
CONTINUOUS
 62
     3
100
AcDbDimension
  2
*D23
 10
2805.0
 20
1729.0
 30
0.0
 11
2767.5
 21
1491.499999999999
 31
0.0
 70
   160
  1
475（壁排水）
  3
ISO-25
100
AcDbAlignedDimension
 13
2538.499999821296
 23
1254.0
 33
0.0
 14
2556.750000000097
 24
1729.0
 34
0.0
 50
90.0
100
AcDbRotatedDimension
1001
ACAD
1000
DSTYLE
1002
{
1070
   270
1070
     2
1070
     6
1000
EX_NORM
1070
     7
1000
EX_NORM
1070
    41
1040
44.99999618530273
1070
    42
1040
10.49999982118607
1070
    44
1040
15.0
1070
    73
1070
     0
1070
    74
1070
     0
1070
    75
1070
     0
1070
    76
1070
     0
1070
    77
1070
     1
1070
    78
1070
     8
1070
   140
1040
59.99999618530273
1070
   147
1040
0.0
1070
   173
1070
     1
1070
   176
1070
     3
1070
   177
1070
     3
1070
   178
1070
     2
1070
   271
1070
     1
1070
   277
1070
     2
1070
   279
1070
     2
1070
   280
1070
     0
1070
   287
1070
     5
1070
   340
1005
307
1002
}
  0
DIMENSION
  5
381
330
1F
100
AcDbEntity
  8
化粧台
  6
CONTINUOUS
 62
     3
100
AcDbDimension
  2
*D24
 10
2528.000000000097
 20
1086.0
 30
0.0
 11
2770.999997139074
 21
1123.5
 31
0.0
 70
   160
  1
85（床・給排水）
  3
ISO-25
100
AcDbAlignedDimension
 13
2443.000000000097
 23
1209.0
 33
0.0
 14
2528.000000000097
 24
1254.0
 34
0.0
100
AcDbRotatedDimension
1001
ACAD
1000
DSTYLE
1002
{
1070
   270
1070
     2
1070
     6
1000
EX_NORM
1070
     7
1000
EX_NORM
1070
    41
1040
44.99999618530273
1070
    42
1040
10.49999982118607
1070
    44
1040
15.0
1070
    73
1070
     0
1070
    74
1070
     0
1070
    75
1070
     0
1070
    76
1070
     0
1070
    77
1070
     1
1070
    78
1070
     8
1070
   140
1040
59.99999618530273
1070
   147
1040
0.0
1070
   173
1070
     1
1070
   176
1070
     3
1070
   177
1070
     3
1070
   178
1070
     2
1070
   271
1070
     1
1070
   277
1070
     2
1070
   279
1070
     2
1070
   280
1070
     2
1070
   287
1070
     5
1070
   340
1005
307
1002
}
  0
LINE
  5
390
330
1F
100
AcDbEntity
  8
化粧台
  6
EXLTYPE4
 62
     6
100
AcDbLine
 10
2528.000000000097
 20
1254.0
 30
0.0
 11
1899.500000000093
 21
1254.0
 31
0.0
  0
LINE
  5
391
330
1F
100
AcDbEntity
  8
化粧台
  6
EXLTYPE4
 62
     6
100
AcDbLine
 10
2528.000000000097
 20
1254.0
 30
0.0
 11
2528.000000000095
 21
2466.0
 31
0.0
  0
LINE
  5
392
330
1F
100
AcDbEntity
  8
化粧台
  6
CONTINUOUS
 62
     6
100
AcDbLine
 10
830.0000000001385
 20
3346.3
 30
0.0
 11
830.0000000001385
 21
3408.500000000001
 31
0.0
  0
LINE
  5
393
330
1F
100
AcDbEntity
  8
化粧台
  6
CONTINUOUS
 62
     6
100
AcDbLine
 10
830.0000000001385
 20
3393.500000000001
 30
0.0
 11
828.0000000001385
 21
3361.000000000001
 31
0.0
  0
LINE
  5
394
330
1F
100
AcDbEntity
  8
化粧台
  6
CONTINUOUS
 62
     6
100
AcDbLine
 10
832.0000000001403
 20
3361.000000000001
 30
0.0
 11
830.0000000001385
 21
3393.500000000001
 31
0.0
  0
LINE
  5
395
330
1F
100
AcDbEntity
  8
化粧台
  6
CONTINUOUS
 62
     6
100
AcDbLine
 10
1220.000000000137
 20
3346.3
 30
0.0
 11
1220.000000000137
 21
3408.500000000001
 31
0.0
  0
LINE
  5
396
330
1F
100
AcDbEntity
  8
化粧台
  6
CONTINUOUS
 62
     6
100
AcDbLine
 10
1220.000000000137
 20
3393.500000000001
 30
0.0
 11
1218.000000000137
 21
3361.000000000001
 31
0.0
  0
LINE
  5
397
330
1F
100
AcDbEntity
  8
化粧台
  6
CONTINUOUS
 62
     6
100
AcDbLine
 10
1222.000000000139
 20
3361.000000000001
 30
0.0
 11
1220.000000000137
 21
3393.500000000001
 31
0.0
  0
ARC
  5
398
330
1F
100
AcDbEntity
  8
化粧台
  6
CONTINUOUS
 62
     2
100
AcDbCircle
 10
730.0000000001385
 20
3336.000000000037
 30
0.0
 40
5.0
100
AcDbArc
 50
180.0
 51
270.0000000000002
  0
ARC
  5
399
330
1F
100
AcDbEntity
  8
化粧台
  6
CONTINUOUS
 62
     2
100
AcDbCircle
 10
823.2575899818178
 20
3056.000000000037
 30
0.0
 40
5.0
100
AcDbArc
 50
51.72879195205692
 51
90.00000000000004
  0
ARC
  5
39A
330
1F
100
AcDbEntity
  8
化粧台
  6
CONTINUOUS
 62
     2
100
AcDbCircle
 10
730.0000000001385
 20
3066.000000000037
 30
0.0
 40
5.0
100
AcDbArc
 50
180.0
 51
270.0000000000002
  0
LINE
  5
39B
330
1F
100
AcDbEntity
  8
化粧台
  6
CONTINUOUS
 62
     2
100
AcDbLine
 10
725.0000000001385
 20
3361.000000000037
 30
0.0
 11
725.0000000001385
 21
3066.000000000037
 31
0.0
  0
LINE
  5
39C
330
1F
100
AcDbEntity
  8
化粧台
  6
CONTINUOUS
 62
     6
100
AcDbLine
 10
1040.000000000138
 20
3307.173898276938
 30
0.0
 11
1010.000000000138
 21
3307.173898276938
 31
0.0
  0
ARC
  5
39D
330
1F
100
AcDbEntity
  8
化粧台
  6
CONTINUOUS
 62
     2
100
AcDbCircle
 10
1025.000000000138
 20
3398.9721187686
 30
0.0
 40
112.9721187685906
100
AcDbArc
 50
224.0817618104601
 51
315.9182381895401
  0
ARC
  5
39E
330
1F
100
AcDbEntity
  8
化粧台
  6
CONTINUOUS
 62
     2
100
AcDbCircle
 10
1320.000000000137
 20
3336.000000000037
 30
0.0
 40
5.0
100
AcDbArc
 50
270.0000000000002
 51
0.0
  0
LINE
  5
39F
330
1F
100
AcDbEntity
  8
化粧台
  6
CONTINUOUS
 62
     2
100
AcDbLine
 10
730.0000000001376
 20
3331.000000000037
 30
0.0
 11
1320.000000000137
 21
3331.000000000037
 31
0.0
  0
LINE
  5
3A0
330
1F
100
AcDbEntity
  8
化粧台
  6
CONTINUOUS
 62
     2
100
AcDbLine
 10
725.0000000001376
 20
3361.000000000037
 30
0.0
 11
1325.000000000137
 21
3361.000000000037
 31
0.0
  0
ARC
  5
3A1
330
1F
100
AcDbEntity
  8
化粧台
  6
CONTINUOUS
 62
     2
100
AcDbCircle
 10
1226.742410018457
 20
3056.000000000037
 30
0.0
 40
5.0
100
AcDbArc
 50
90.00000000000004
 51
128.2712080479444
  0
ARC
  5
3A2
330
1F
100
AcDbEntity
  8
化粧台
  6
CONTINUOUS
 62
     2
100
AcDbCircle
 10
1320.000000000137
 20
3066.000000000037
 30
0.0
 40
5.0
100
AcDbArc
 50
270.0000000000002
 51
0.0
  0
ARC
  5
3A3
330
1F
100
AcDbEntity
  8
化粧台
  6
CONTINUOUS
 62
     2
100
AcDbCircle
 10
1025.000000000138
 20
3311.714285714324
 30
0.0
 40
320.7142857142863
100
AcDbArc
 50
231.7287919520556
 51
308.2712080479444
  0
LINE
  5
3A4
330
1F
100
AcDbEntity
  8
化粧台
  6
CONTINUOUS
 62
     2
100
AcDbLine
 10
1325.000000000137
 20
3361.000000000037
 30
0.0
 11
1325.000000000137
 21
3066.000000000037
 31
0.0
  0
LINE
  5
3A5
330
1F
100
AcDbEntity
  8
化粧台
  6
CONTINUOUS
 62
     2
100
AcDbLine
 10
1226.742410018457
 20
3061.000000000037
 30
0.0
 11
1320.000000000137
 21
3061.000000000037
 31
0.0
  0
ARC
  5
3A6
330
1F
100
AcDbEntity
  8
化粧台
  6
CONTINUOUS
 62
     2
100
AcDbCircle
 10
1025.000000000138
 20
3171.000000000037
 30
0.0
 40
170.0
100
AcDbArc
 50
29.97878780140052
 51
61.48608474031997
  0
ARC
  5
3A7
330
1F
100
AcDbEntity
  8
化粧台
  6
CONTINUOUS
 62
     6
100
AcDbCircle
 10
730.0000000001385
 20
3327.933478461557
 30
0.0
 40
5.0
100
AcDbArc
 50
180.0
 51
264.2241517557764
  0
LINE
  5
3A8
330
1F
100
AcDbEntity
  8
化粧台
  6
CONTINUOUS
 62
     6
100
AcDbLine
 10
740.0000000001794
 20
3321.896460656209
 30
0.0
 11
729.4968154077299
 21
3322.958862369237
 31
0.0
  0
LINE
  5
3A9
330
1F
100
AcDbEntity
  8
化粧台
  6
CONTINUOUS
 62
     6
100
AcDbLine
 10
943.8467290692176
 20
3320.379204098909
 30
0.0
 11
740.0000000001794
 21
3321.896460656209
 31
0.0
  0
LINE
  5
3AA
330
1F
100
AcDbEntity
  8
化粧台
  6
CONTINUOUS
 62
     6
100
AcDbLine
 10
740.0000000001376
 20
3321.896460656213
 30
0.0
 11
740.0000000001376
 21
3061.000000000037
 31
0.0
  0
LINE
  5
3AB
330
1F
100
AcDbEntity
  8
化粧台
  6
CONTINUOUS
 62
     6
100
AcDbLine
 10
1106.153270931057
 20
3320.379204098909
 30
0.0
 11
1310.000000000097
 21
3321.896460656209
 31
0.0
  0
LINE
  5
3AC
330
1F
100
AcDbEntity
  8
化粧台
  6
CONTINUOUS
 62
     6
100
AcDbLine
 10
1310.000000000097
 20
3321.896460656209
 30
0.0
 11
1320.503184592545
 21
3322.958862369237
 31
0.0
  0
ARC
  5
3AD
330
1F
100
AcDbEntity
  8
化粧台
  6
CONTINUOUS
 62
     6
100
AcDbCircle
 10
1320.000000000137
 20
3327.933478461557
 30
0.0
 40
5.0
100
AcDbArc
 50
275.7758482442237
 51
0.0
  0
LINE
  5
3AE
330
1F
100
AcDbEntity
  8
化粧台
  6
CONTINUOUS
 62
     6
100
AcDbLine
 10
1310.000000000137
 20
3321.896460656213
 30
0.0
 11
1310.000000000137
 21
3061.000000000037
 31
0.0
  0
LINE
  5
3AF
330
1F
100
AcDbEntity
  8
化粧台
  6
CONTINUOUS
 62
     6
100
AcDbLine
 10
1145.000000000136
 20
3339.3
 30
0.0
 11
1145.000000000136
 21
3401.4
 31
0.0
  0
LINE
  5
3B0
330
1F
100
AcDbEntity
  8
化粧台
  6
CONTINUOUS
 62
     6
100
AcDbLine
 10
1224.500000000139
 20
3369.0
 30
0.0
 11
1245.500000000136
 21
3369.0
 31
0.0
  0
LINE
  5
3B1
330
1F
100
AcDbEntity
  8
化粧台
  6
CONTINUOUS
 62
     6
100
AcDbLine
 10
1245.500000000136
 20
3361.0
 30
0.0
 11
1245.500000000136
 21
3369.0
 31
0.0
  0
LINE
  5
3B2
330
1F
100
AcDbEntity
  8
化粧台
  6
CONTINUOUS
 62
     6
100
AcDbLine
 10
1224.500000000139
 20
3361.0
 30
0.0
 11
1224.500000000139
 21
3369.0
 31
0.0
  0
LINE
  5
3B3
330
1F
100
AcDbEntity
  8
化粧台
  6
CONTINUOUS
 62
     6
100
AcDbLine
 10
1235.000000000137
 20
3346.0
 30
0.0
 11
1235.000000000137
 21
3384.0
 31
0.0
  0
LINE
  5
3B4
330
1F
100
AcDbEntity
  8
化粧台
  6
CONTINUOUS
 62
     6
100
AcDbLine
 10
1134.50000000014
 20
3369.0
 30
0.0
 11
1155.50000000014
 21
3369.0
 31
0.0
  0
LINE
  5
3B5
330
1F
100
AcDbEntity
  8
化粧台
  6
CONTINUOUS
 62
     6
100
AcDbLine
 10
1155.50000000014
 20
3361.0
 30
0.0
 11
1155.50000000014
 21
3369.0
 31
0.0
  0
LINE
  5
3B6
330
1F
100
AcDbEntity
  8
化粧台
  6
CONTINUOUS
 62
     6
100
AcDbLine
 10
1134.50000000014
 20
3361.0
 30
0.0
 11
1134.50000000014
 21
3369.0
 31
0.0
  0
LINE
  5
3B7
330
1F
100
AcDbEntity
  8
化粧台
  6
CONTINUOUS
 62
     6
100
AcDbLine
 10
1145.000000000138
 20
3346.0
 30
0.0
 11
1145.000000000138
 21
3384.0
 31
0.0
  0
LINE
  5
3B8
330
1F
100
AcDbEntity
  8
化粧台
  6
CONTINUOUS
 62
     6
100
AcDbLine
 10
1048.700000000176
 20
3381.0
 30
0.0
 11
1080.700000000175
 21
3381.0
 31
0.0
  0
LINE
  5
3B9
330
1F
100
AcDbEntity
  8
化粧台
  6
CONTINUOUS
 62
     6
100
AcDbLine
 10
1048.700000000176
 20
3381.0
 30
0.0
 11
1048.700000000176
 21
3361.0
 31
0.0
  0
LINE
  5
3BA
330
1F
100
AcDbEntity
  8
化粧台
  6
CONTINUOUS
 62
     6
100
AcDbLine
 10
1080.700000000175
 20
3381.0
 30
0.0
 11
1080.700000000175
 21
3361.0
 31
0.0
  0
CIRCLE
  5
3BB
330
1F
100
AcDbEntity
  8
化粧台
  6
CONTINUOUS
 62
     6
100
AcDbCircle
 10
1047.544545878804
 20
3273.244531279959
 30
0.0
 40
2.1000366
  0
CIRCLE
  5
3BC
330
1F
100
AcDbEntity
  8
化粧台
  6
CONTINUOUS
 62
     6
100
AcDbCircle
 10
1044.716664998805
 20
3276.854843719959
 30
0.0
 40
2.1000366
  0
CIRCLE
  5
3BD
330
1F
100
AcDbEntity
  8
化粧台
  6
CONTINUOUS
 62
     6
100
AcDbCircle
 10
1068.413823158805
 20
3243.576171919959
 30
0.0
 40
2.1000366
  0
CIRCLE
  5
3BE
330
1F
100
AcDbEntity
  8
化粧台
  6
CONTINUOUS
 62
     6
100
AcDbCircle
 10
1063.845707918805
 20
3242.489257759959
 30
0.0
 40
2.1000366
  0
CIRCLE
  5
3BF
330
1F
100
AcDbEntity
  8
化粧台
  6
CONTINUOUS
 62
     6
100
AcDbCircle
 10
1059.929997518805
 20
3246.40624999996
 30
0.0
 40
2.1000366
  0
CIRCLE
  5
3C0
330
1F
100
AcDbEntity
  8
化粧台
  6
CONTINUOUS
 62
     6
100
AcDbCircle
 10
1057.754704478805
 20
3250.537109359959
 30
0.0
 40
2.1000366
  0
CIRCLE
  5
3C1
330
1F
100
AcDbEntity
  8
化粧台
  6
CONTINUOUS
 62
     6
100
AcDbCircle
 10
1055.579228438805
 20
3254.887695319959
 30
0.0
 40
2.1000366
  0
CIRCLE
  5
3C2
330
1F
100
AcDbEntity
  8
化粧台
  6
CONTINUOUS
 62
     6
100
AcDbCircle
 10
1053.621464798804
 20
3259.891601599959
 30
0.0
 40
2.1000366
  0
CIRCLE
  5
3C3
330
1F
100
AcDbEntity
  8
化粧台
  6
CONTINUOUS
 62
     6
100
AcDbCircle
 10
1051.663701158805
 20
3264.67871095996
 30
0.0
 40
2.1000366
  0
CIRCLE
  5
3C4
330
1F
100
AcDbEntity
  8
化粧台
  6
CONTINUOUS
 62
     6
100
AcDbCircle
 10
1050.140812958804
 20
3269.462890639959
 30
0.0
 40
2.1000366
  0
CIRCLE
  5
3C5
330
1F
100
AcDbEntity
  8
化粧台
  6
CONTINUOUS
 62
     6
100
AcDbCircle
 10
1040.553776798805
 20
3278.383789039959
 30
0.0
 40
2.1000366
  0
CIRCLE
  5
3C6
330
1F
100
AcDbEntity
  8
化粧台
  6
CONTINUOUS
 62
     6
100
AcDbCircle
 10
1035.333073598805
 20
3277.513671919959
 30
0.0
 40
2.1000366
  0
CIRCLE
  5
3C7
330
1F
100
AcDbEntity
  8
化粧台
  6
CONTINUOUS
 62
     6
100
AcDbCircle
 10
1031.417363198804
 20
3273.813476599959
 30
0.0
 40
2.1000366
  0
CIRCLE
  5
3C8
330
1F
100
AcDbEntity
  8
化粧台
  6
CONTINUOUS
 62
     6
100
AcDbCircle
 10
1026.414006278804
 20
3271.422851599959
 30
0.0
 40
2.1000366
  0
CIRCLE
  5
3C9
330
1F
100
AcDbEntity
  8
化粧台
  6
CONTINUOUS
 62
     6
100
AcDbCircle
 10
1023.368596118805
 20
3266.852539039959
 30
0.0
 40
2.1000366
  0
CIRCLE
  5
3CA
330
1F
100
AcDbEntity
  8
化粧台
  6
CONTINUOUS
 62
     6
100
AcDbCircle
 10
1022.280766478805
 20
3261.19824211996
 30
0.0
 40
2.1000366
  0
CIRCLE
  5
3CB
330
1F
100
AcDbEntity
  8
化粧台
  6
CONTINUOUS
 62
     6
100
AcDbCircle
 10
1022.716008278804
 20
3256.19433595996
 30
0.0
 40
2.1000366
  0
ARC
  5
3CC
330
1F
100
AcDbEntity
  8
化粧台
  6
CONTINUOUS
 62
     6
100
AcDbCircle
 10
1025.007756278804
 20
3244.639648399959
 30
0.0
 40
10.08007044000001
100
AcDbArc
 50
290.361129760002
 51
249.6389617899985
  0
CIRCLE
  5
3CD
330
1F
100
AcDbEntity
  8
化粧台
  6
CONTINUOUS
 62
     6
100
AcDbCircle
 10
1025.007756278804
 20
3235.99999999996
 30
0.0
 40
3.600036600000004
  0
CIRCLE
  5
3CE
330
1F
100
AcDbEntity
  8
化粧台
  6
CONTINUOUS
 62
     6
100
AcDbCircle
 10
1085.228694773895
 20
3248.472312923242
 30
0.0
 40
2.1000366
  0
CIRCLE
  5
3CF
330
1F
100
AcDbEntity
  8
化粧台
  6
CONTINUOUS
 62
     6
100
AcDbCircle
 10
1090.016137138875
 20
3250.465444231342
 30
0.0
 40
2.1000366
  0
CIRCLE
  5
3D0
330
1F
100
AcDbEntity
  8
化粧台
  6
CONTINUOUS
 62
     6
100
AcDbCircle
 10
1081.543192499885
 20
3245.645348131542
 30
0.0
 40
2.1000366
  0
CIRCLE
  5
3D1
330
1F
100
AcDbEntity
  8
化粧台
  6
CONTINUOUS
 62
     6
100
AcDbCircle
 10
1073.214177892695
 20
3242.77743218986
 30
0.0
 40
2.1000366
  0
CIRCLE
  5
3D2
330
1F
100
AcDbEntity
  8
化粧台
  6
CONTINUOUS
 62
     6
100
AcDbCircle
 10
1093.512612311474
 20
3254.545943833059
 30
0.0
 40
2.1000366
  0
CIRCLE
  5
3D3
330
1F
100
AcDbEntity
  8
化粧台
  6
CONTINUOUS
 62
     6
100
AcDbCircle
 10
1095.637268790495
 20
3259.669194196759
 30
0.0
 40
2.1000366
  0
CIRCLE
  5
3D4
330
1F
100
AcDbEntity
  8
化粧台
  6
CONTINUOUS
 62
     6
100
AcDbCircle
 10
1097.116331492525
 20
3264.362803055159
 30
0.0
 40
2.1000366
  0
CIRCLE
  5
3D5
330
1F
100
AcDbEntity
  8
化粧台
  6
CONTINUOUS
 62
     6
100
AcDbCircle
 10
1099.795971793335
 20
3274.80030314346
 30
0.0
 40
2.1000366
  0
CIRCLE
  5
3D6
330
1F
100
AcDbEntity
  8
化粧台
  6
CONTINUOUS
 62
     6
100
AcDbCircle
 10
1099.143383953335
 20
3269.143076543459
 30
0.0
 40
2.1000366
  0
CIRCLE
  5
3D7
330
1F
100
AcDbEntity
  8
化粧台
  6
CONTINUOUS
 62
     6
100
AcDbCircle
 10
1119.519945599605
 20
3278.361662269859
 30
0.0
 40
2.1000366
  0
CIRCLE
  5
3D8
330
1F
100
AcDbEntity
  8
化粧台
  6
CONTINUOUS
 62
     6
100
AcDbCircle
 10
1123.541895106975
 20
3275.732077929642
 30
0.0
 40
2.1000366
  0
CIRCLE
  5
3D9
330
1F
100
AcDbEntity
  8
化粧台
  6
CONTINUOUS
 62
     6
100
AcDbCircle
 10
1114.558829130365
 20
3279.880671553759
 30
0.0
 40
2.1000366
  0
CIRCLE
  5
3DA
330
1F
100
AcDbEntity
  8
化粧台
  6
CONTINUOUS
 62
     6
100
AcDbCircle
 10
1109.730032420697
 20
3279.906264448558
 30
0.0
 40
2.1000366
  0
CIRCLE
  5
3DB
330
1F
100
AcDbEntity
  8
化粧台
  6
CONTINUOUS
 62
     6
100
AcDbCircle
 10
1104.952044777471
 20
3278.501566480499
 30
0.0
 40
2.1000366
  0
CIRCLE
  5
3DC
330
1F
100
AcDbEntity
  8
化粧台
  6
CONTINUOUS
 62
     6
100
AcDbCircle
 10
1127.700297455815
 20
3272.859005850342
 30
0.0
 40
2.1000366
  0
CIRCLE
  5
3DD
330
1F
100
AcDbEntity
  8
化粧台
  6
CONTINUOUS
 62
     6
100
AcDbCircle
 10
1132.174934138585
 20
3271.028574754842
 30
0.0
 40
2.1000366
  0
CIRCLE
  5
3DE
330
1F
100
AcDbEntity
  8
化粧台
  6
CONTINUOUS
 62
     6
100
AcDbCircle
 10
1137.153935234545
 20
3269.562090571642
 30
0.0
 40
2.1000366
  0
CIRCLE
  5
3DF
330
1F
100
AcDbEntity
  8
化粧台
  6
CONTINUOUS
 62
     6
100
AcDbCircle
 10
1142.036194175784
 20
3268.265766548642
 30
0.0
 40
2.1000366
  0
CIRCLE
  5
3E0
330
1F
100
AcDbEntity
  8
化粧台
  6
CONTINUOUS
 62
     6
100
AcDbCircle
 10
1152.193934865485
 20
3264.950337890858
 30
0.0
 40
2.1000366
  0
CIRCLE
  5
3E1
330
1F
100
AcDbEntity
  8
化粧台
  6
CONTINUOUS
 62
     6
100
AcDbCircle
 10
1156.215884372855
 20
3262.320753550642
 30
0.0
 40
2.1000366
  0
CIRCLE
  5
3E2
330
1F
100
AcDbEntity
  8
化粧台
  6
CONTINUOUS
 62
     6
100
AcDbCircle
 10
1147.232818396244
 20
3266.469347174759
 30
0.0
 40
2.1000366
  0
CIRCLE
  5
3E3
330
1F
100
AcDbEntity
  8
化粧台
  6
CONTINUOUS
 62
     6
100
AcDbCircle
 10
1160.374286721694
 20
3259.447681471342
 30
0.0
 40
2.1000366
  0
CIRCLE
  5
3E4
330
1F
100
AcDbEntity
  8
化粧台
  6
CONTINUOUS
 62
     6
100
AcDbCircle
 10
1164.848923404465
 20
3257.617250375842
 30
0.0
 40
2.1000366
  0
ARC
  5
3E5
330
1F
100
AcDbEntity
  8
化粧台
  6
CONTINUOUS
 62
     6
100
AcDbCircle
 10
1169.827924500425
 20
3256.150766192642
 30
0.0
 40
2.1000366
100
AcDbArc
 50
353.434807188079
 51
226.5651928119227
  0
LINE
  5
3E6
330
1F
100
AcDbEntity
  8
化粧台
  6
EXLTYPE3
 62
     6
100
AcDbLine
 10
1025.000000000097
 20
2080.5
 30
0.0
 11
1025.000000000097
 21
1244.000000000039
 31
0.0
  0
POLYLINE
  5
3E7
330
1F
100
AcDbEntity
  8
化粧台
  6
CONTINUOUS
 62
     3
100
AcDb2dPolyline
 66
     1
 10
0.0
 20
0.0
 30
0.0
 70
   128
  0
VERTEX
  5
3E8
330
3E7
100
AcDbEntity
  8
化粧台
  6
CONTINUOUS
 62
     3
100
AcDbVertex
100
AcDb2dVertex
 10
2046.499999999953
 20
1254.0
 30
0.0
  0
VERTEX
  5
3E9
330
3E7
100
AcDbEntity
  8
化粧台
  6
CONTINUOUS
 62
     3
100
AcDbVertex
100
AcDb2dVertex
 10
2027.499999999953
 20
1303.0
 30
0.0
  0
SEQEND
  5
3EA
330
3E7
100
AcDbEntity
  8
化粧台
  6
CONTINUOUS
 62
     3
  0
LINE
  5
3EB
330
1F
100
AcDbEntity
  8
化粧台
  6
CONTINUOUS
 62
     3
100
AcDbLine
 10
2023.238536730738
 20
1293.244799994075
 30
0.0
 11
2046.499999999953
 21
1254.0
 31
0.0
  0
LINE
  5
3EC
330
1F
100
AcDbEntity
  8
化粧台
  6
CONTINUOUS
 62
     3
100
AcDbLine
 10
2046.499999999953
 20
1254.0
 30
0.0
 11
2037.22395636499
 21
1298.667717811438
 31
0.0
  0
LINE
  5
3ED
330
1F
100
AcDbEntity
  8
化粧台
  6
EXLTYPE4
 62
     6
100
AcDbLine
 10
438.0000000001366
 20
3361.0
 30
0.0
 11
1633.5
 21
3361.0
 31
0.0
  0
DIMENSION
  5
3EE
330
1F
100
AcDbEntity
  8
化粧台
  6
CONTINUOUS
 62
     3
100
AcDbDimension
  2
*D25
 10
2904.0
 20
1254.0
 30
0.0
 11
2866.5
 21
1518.999999999999
 31
0.0
 70
   160
  1
530（壁固定）
  3
ISO-25
100
AcDbAlignedDimension
 13
2560.5000057221
 23
1784.0
 33
0.0
 14
2802.0
 24
1254.0
 34
0.0
 50
90.0
100
AcDbRotatedDimension
1001
ACAD
1000
DSTYLE
1002
{
1070
   270
1070
     2
1070
     6
1000
EX_NORM
1070
     7
1000
EX_NORM
1070
    41
1040
44.99999618530273
1070
    42
1040
10.49999982118607
1070
    44
1040
15.0
1070
    73
1070
     0
1070
    74
1070
     0
1070
    75
1070
     0
1070
    76
1070
     0
1070
    77
1070
     1
1070
    78
1070
     8
1070
   140
1040
59.99999618530273
1070
   147
1040
0.0
1070
   173
1070
     1
1070
   176
1070
     3
1070
   177
1070
     3
1070
   178
1070
     2
1070
   271
1070
     1
1070
   277
1070
     2
1070
   279
1070
     2
1070
   280
1070
     0
1070
   287
1070
     5
1070
   340
1005
307
1002
}
  0
LINE
  5
3FB
330
1F
100
AcDbEntity
  8
化粧台
  6
EXLTYPE2
 62
     6
100
AcDbLine
 10
1025.000000000141
 20
1816.00000000004
 30
0.0
 11
1025.000000000141
 21
1833.00000000004
 31
0.0
  0
LINE
  5
3FC
330
1F
100
AcDbEntity
  8
化粧台
  6
EXLTYPE2
 62
     6
100
AcDbLine
 10
990.000000000141
 20
1833.00000000004
 30
0.0
 11
1060.000000000141
 21
1833.00000000004
 31
0.0
  0
ARC
  5
3FD
330
1F
100
AcDbEntity
  8
化粧台
  6
EXLTYPE2
 62
     6
100
AcDbCircle
 10
1049.25183772814
 20
1817.385594593441
 30
0.0
 40
4.385594593380002
100
AcDbArc
 50
198.4177055184001
 51
270.0000000000002
  0
LINE
  5
3FE
330
1F
100
AcDbEntity
  8
化粧台
  6
EXLTYPE2
 62
     6
100
AcDbLine
 10
1045.090880199142
 20
1816.00000000004
 30
0.0
 11
1045.090880199142
 21
1833.00000000004
 31
0.0
  0
ARC
  5
3FF
330
1F
100
AcDbEntity
  8
化粧台
  6
EXLTYPE2
 62
     6
100
AcDbCircle
 10
1035.04544010014
 20
1831.318477799141
 30
0.0
 40
18.31847779905
100
AcDbArc
 50
236.7442298452004
 51
303.2557701548001
  0
ARC
  5
400
330
1F
100
AcDbEntity
  8
化粧台
  6
EXLTYPE2
 62
     6
100
AcDbCircle
 10
1014.954559900142
 20
1831.318477799141
 30
0.0
 40
18.31847779905
100
AcDbArc
 50
236.7442298452004
 51
303.2557701548001
  0
LINE
  5
401
330
1F
100
AcDbEntity
  8
化粧台
  6
EXLTYPE2
 62
     6
100
AcDbLine
 10
1004.90911980114
 20
1816.00000000004
 30
0.0
 11
1004.90911980114
 21
1833.00000000004
 31
0.0
  0
ARC
  5
402
330
1F
100
AcDbEntity
  8
化粧台
  6
EXLTYPE2
 62
     6
100
AcDbCircle
 10
1000.748162272142
 20
1817.385594593441
 30
0.0
 40
4.385594593380002
100
AcDbArc
 50
270.0000000000002
 51
341.5822944816002
  0
LINE
  5
403
330
1F
100
AcDbEntity
  8
化粧台
  6
EXLTYPE2
 62
     6
100
AcDbLine
 10
1060.000000000141
 20
1840.50000000004
 30
0.0
 11
1055.813953488511
 21
1843.50000000004
 31
0.0
  0
LINE
  5
404
330
1F
100
AcDbEntity
  8
化粧台
  6
EXLTYPE2
 62
     6
100
AcDbLine
 10
990.000000000141
 20
1840.50000000004
 30
0.0
 11
994.1860465117707
 21
1843.50000000004
 31
0.0
  0
LINE
  5
405
330
1F
100
AcDbEntity
  8
化粧台
  6
EXLTYPE2
 62
     6
100
AcDbLine
 10
1060.000000000141
 20
1840.50000000004
 30
0.0
 11
1060.000000000141
 21
1833.00000000004
 31
0.0
  0
LINE
  5
406
330
1F
100
AcDbEntity
  8
化粧台
  6
EXLTYPE2
 62
     6
100
AcDbLine
 10
990.000000000141
 20
1840.50000000004
 30
0.0
 11
990.000000000141
 21
1833.00000000004
 31
0.0
  0
LINE
  5
407
330
1F
100
AcDbEntity
  8
化粧台
  6
EXLTYPE2
 62
     6
100
AcDbLine
 10
1053.412795258143
 20
1816.00000000004
 30
0.0
 11
1051.250000000141
 21
1813.00000000004
 31
0.0
  0
LINE
  5
408
330
1F
100
AcDbEntity
  8
化粧台
  6
EXLTYPE2
 62
     6
100
AcDbLine
 10
1053.412795258143
 20
1833.00000000004
 30
0.0
 11
1053.412795258143
 21
1816.00000000004
 31
0.0
  0
LINE
  5
409
330
1F
100
AcDbEntity
  8
化粧台
  6
EXLTYPE2
 62
     6
100
AcDbLine
 10
1051.250000000141
 20
1813.00000000004
 30
0.0
 11
1051.250000000141
 21
1788.50000000004
 31
0.0
  0
LINE
  5
40A
330
1F
100
AcDbEntity
  8
化粧台
  6
EXLTYPE2
 62
     6
100
AcDbLine
 10
1040.750000000141
 20
1779.50000000004
 30
0.0
 11
1040.750000000141
 21
1733.50000000004
 31
0.0
  0
LINE
  5
40B
330
1F
100
AcDbEntity
  8
化粧台
  6
EXLTYPE2
 62
     6
100
AcDbLine
 10
996.5872047421426
 20
1816.00000000004
 30
0.0
 11
998.750000000141
 21
1813.00000000004
 31
0.0
  0
LINE
  5
40C
330
1F
100
AcDbEntity
  8
化粧台
  6
EXLTYPE2
 62
     6
100
AcDbLine
 10
996.5872047421426
 20
1833.00000000004
 30
0.0
 11
996.5872047421426
 21
1816.00000000004
 31
0.0
  0
LINE
  5
40D
330
1F
100
AcDbEntity
  8
化粧台
  6
EXLTYPE2
 62
     6
100
AcDbLine
 10
1009.250000000141
 20
1779.50000000004
 30
0.0
 11
1009.250000000141
 21
1733.50000000004
 31
0.0
  0
LINE
  5
40E
330
1F
100
AcDbEntity
  8
化粧台
  6
EXLTYPE2
 62
     6
100
AcDbLine
 10
998.750000000141
 20
1813.00000000004
 30
0.0
 11
998.750000000141
 21
1788.50000000004
 31
0.0
  0
LINE
  5
40F
330
1F
100
AcDbEntity
  8
化粧台
  6
EXLTYPE2
 62
     6
100
AcDbLine
 10
998.750000000141
 20
1813.00000000004
 30
0.0
 11
1051.250000000141
 21
1813.00000000004
 31
0.0
  0
LINE
  5
410
330
1F
100
AcDbEntity
  8
化粧台
  6
EXLTYPE2
 62
     6
100
AcDbLine
 10
1009.250000000141
 20
1733.50000000004
 30
0.0
 11
1040.750000000141
 21
1733.50000000004
 31
0.0
  0
LINE
  5
411
330
1F
100
AcDbEntity
  8
化粧台
  6
EXLTYPE2
 62
     6
100
AcDbLine
 10
1051.250000000141
 20
1788.50000000004
 30
0.0
 11
1040.750000000141
 21
1779.50000000004
 31
0.0
  0
LINE
  5
412
330
1F
100
AcDbEntity
  8
化粧台
  6
EXLTYPE2
 62
     6
100
AcDbLine
 10
998.750000000141
 20
1788.50000000004
 30
0.0
 11
1009.250000000141
 21
1779.50000000004
 31
0.0
  0
LINE
  5
413
330
1F
100
AcDbEntity
  8
化粧台
  6
EXLTYPE2
 62
     6
100
AcDbLine
 10
1009.250000000141
 20
1779.50000000004
 30
0.0
 11
1040.750000000141
 21
1779.50000000004
 31
0.0
  0
LINE
  5
414
330
1F
100
AcDbEntity
  8
化粧台
  6
EXLTYPE2
 62
     6
100
AcDbLine
 10
1043.250000000141
 20
1751.700000000041
 30
0.0
 11
1043.250000000141
 21
1711.611863703343
 31
0.0
  0
LINE
  5
415
330
1F
100
AcDbEntity
  8
化粧台
  6
EXLTYPE2
 62
     6
100
AcDbLine
 10
1006.750000000141
 20
1751.700000000041
 30
0.0
 11
1006.750000000141
 21
1711.611863703343
 31
0.0
  0
LINE
  5
416
330
1F
100
AcDbEntity
  8
化粧台
  6
EXLTYPE2
 62
     6
100
AcDbLine
 10
1043.250000000141
 20
1711.611863703343
 30
0.0
 11
1042.000000000141
 21
1710.61186367134
 31
0.0
  0
LINE
  5
417
330
1F
100
AcDbEntity
  8
化粧台
  6
EXLTYPE2
 62
     6
100
AcDbLine
 10
1008.000000000141
 20
1710.61186367134
 30
0.0
 11
1006.750000000141
 21
1711.611863703343
 31
0.0
  0
LINE
  5
418
330
1F
100
AcDbEntity
  8
化粧台
  6
EXLTYPE2
 62
     6
100
AcDbLine
 10
1042.000000000145
 20
1710.611863671344
 30
0.0
 11
1008.000000000141
 21
1710.611863671344
 31
0.0
  0
LINE
  5
419
330
1F
100
AcDbEntity
  8
化粧台
  6
EXLTYPE2
 62
     6
100
AcDbLine
 10
1049.250000000141
 20
1751.700000000041
 30
0.0
 11
1000.750000000141
 21
1751.700000000041
 31
0.0
  0
LINE
  5
41A
330
1F
100
AcDbEntity
  8
化粧台
  6
EXLTYPE2
 62
     6
100
AcDbLine
 10
1049.250000000141
 20
1766.50000000004
 30
0.0
 11
1049.250000000141
 21
1751.700000000041
 31
0.0
  0
LINE
  5
41B
330
1F
100
AcDbEntity
  8
化粧台
  6
EXLTYPE2
 62
     6
100
AcDbLine
 10
1046.250000000141
 20
1769.50000000004
 30
0.0
 11
1003.750000000141
 21
1769.50000000004
 31
0.0
  0
LINE
  5
41C
330
1F
100
AcDbEntity
  8
化粧台
  6
EXLTYPE2
 62
     6
100
AcDbLine
 10
1000.750000000141
 20
1766.50000000004
 30
0.0
 11
1000.750000000141
 21
1751.700000000041
 31
0.0
  0
ARC
  5
41D
330
1F
100
AcDbEntity
  8
化粧台
  6
EXLTYPE2
 62
     6
100
AcDbCircle
 10
1046.250000000141
 20
1766.50000000004
 30
0.0
 40
3.000000000000002
100
AcDbArc
 50
0.0
 51
90.00000000000001
  0
ARC
  5
41E
330
1F
100
AcDbEntity
  8
化粧台
  6
EXLTYPE2
 62
     6
100
AcDbCircle
 10
1003.750000000141
 20
1766.50000000004
 30
0.0
 40
3.000000000000002
100
AcDbArc
 50
90.00000000000001
 51
180.0
  0
LINE
  5
41F
330
1F
100
AcDbEntity
  8
化粧台
  6
EXLTYPE2
 62
     6
100
AcDbLine
 10
1008.000000000141
 20
1710.611863671344
 30
0.0
 11
1008.000000000141
 21
1676.98686234378
 31
0.0
  0
ARC
  5
420
330
1F
100
AcDbEntity
  8
化粧台
  6
EXLTYPE2
 62
     6
100
AcDbCircle
 10
964.2231693722415
 20
1713.811312276041
 30
0.0
 40
3.000000000000002
100
AcDbArc
 50
90.00000000000001
 51
180.0
  0
LINE
  5
421
330
1F
100
AcDbEntity
  8
化粧台
  6
EXLTYPE2
 62
     6
100
AcDbLine
 10
1003.723169372242
 20
1699.011312276041
 30
0.0
 11
1003.723169372242
 21
1676.98686234378
 31
0.0
  0
LINE
  5
422
330
1F
100
AcDbEntity
  8
化粧台
  6
EXLTYPE2
 62
     6
100
AcDbLine
 10
967.2231693722415
 20
1699.011312276041
 30
0.0
 11
967.2231693722415
 21
1670.911862369041
 31
0.0
  0
LINE
  5
423
330
1F
100
AcDbEntity
  8
化粧台
  6
EXLTYPE2
 62
     6
100
AcDbLine
 10
1042.000000000145
 20
1710.611863671344
 30
0.0
 11
1042.000000000145
 21
1678.918261759489
 31
0.0
  0
ARC
  5
424
330
1F
100
AcDbEntity
  8
化粧台
  6
EXLTYPE2
 62
     6
100
AcDbCircle
 10
1005.236584686189
 20
1747.148448271008
 30
0.0
 40
3.763415313933366
100
AcDbArc
 50
66.28804661525457
 51
180.0
  0
LINE
  5
425
330
1F
100
AcDbEntity
  8
化粧台
  6
EXLTYPE2
 62
     6
100
AcDbLine
 10
1001.473169372242
 20
1747.148448271008
 30
0.0
 11
1001.473169372242
 21
1716.811312276041
 31
0.0
  0
LINE
  5
426
330
1F
100
AcDbEntity
  8
化粧台
  6
EXLTYPE2
 62
     6
100
AcDbLine
 10
969.4731693722415
 20
1747.148448270989
 30
0.0
 11
969.4731693722415
 21
1716.811312276041
 31
0.0
  0
LINE
  5
427
330
1F
100
AcDbEntity
  8
化粧台
  6
EXLTYPE2
 62
     6
100
AcDbLine
 10
1006.750000000141
 20
1716.811312276041
 30
0.0
 11
964.2231693722415
 21
1716.811312276041
 31
0.0
  0
LINE
  5
428
330
1F
100
AcDbEntity
  8
化粧台
  6
EXLTYPE2
 62
     6
100
AcDbLine
 10
1008.000000000141
 20
1699.011312276041
 30
0.0
 11
961.2231693722415
 21
1699.011312276041
 31
0.0
  0
ARC
  5
429
330
1F
100
AcDbEntity
  8
化粧台
  6
EXLTYPE2
 62
     6
100
AcDbCircle
 10
1005.236584686189
 20
1747.148448270989
 30
0.0
 40
35.76341531395246
100
AcDbArc
 50
89.94725080561494
 51
180.0
  0
LINE
  5
42A
330
1F
100
AcDbEntity
  8
化粧台
  6
EXLTYPE2
 62
     6
100
AcDbLine
 10
1058.500003814838
 20
1293.500001907341
 30
0.0
 11
1058.500003814838
 21
1273.999999999993
 31
0.0
  0
ARC
  5
42B
330
1F
100
AcDbEntity
  8
化粧台
  6
EXLTYPE2
 62
     6
100
AcDbCircle
 10
1058.000003814838
 20
1273.999999999993
 30
0.0
 40
0.5
100
AcDbArc
 50
270.0000000000002
 51
0.0
  0
LINE
  5
42C
330
1F
100
AcDbEntity
  8
化粧台
  6
EXLTYPE2
 62
     6
100
AcDbLine
 10
991.4999961854473
 20
1293.500001907341
 30
0.0
 11
991.4999961854473
 21
1273.999999999993
 31
0.0
  0
ARC
  5
42D
330
1F
100
AcDbEntity
  8
化粧台
  6
EXLTYPE2
 62
     6
100
AcDbCircle
 10
991.9999961854473
 20
1273.999999999993
 30
0.0
 40
0.5
100
AcDbArc
 50
180.0
 51
270.0000000000002
  0
LINE
  5
42E
330
1F
100
AcDbEntity
  8
化粧台
  6
EXLTYPE2
 62
     6
100
AcDbLine
 10
1058.000003814838
 20
1273.499999999993
 30
0.0
 11
991.9999961854437
 21
1273.499999999993
 31
0.0
  0
LINE
  5
42F
330
1F
100
AcDbEntity
  8
化粧台
  6
EXLTYPE2
 62
     6
100
AcDbLine
 10
1052.000000000141
 20
1308.50000381469
 30
0.0
 11
1052.000000000141
 21
1297.500001907341
 31
0.0
  0
ARC
  5
430
330
1F
100
AcDbEntity
  8
化粧台
  6
EXLTYPE2
 62
     6
100
AcDbCircle
 10
1049.000000000141
 20
1308.50000381469
 30
0.0
 40
3.000000000000002
100
AcDbArc
 50
359.9999949910431
 51
89.99999749552043
  0
ARC
  5
431
330
1F
100
AcDbEntity
  8
化粧台
  6
EXLTYPE2
 62
     6
100
AcDbCircle
 10
1053.000000000141
 20
1297.500001907341
 30
0.0
 40
1.0
100
AcDbArc
 50
180.0
 51
270.0000000000002
  0
ARC
  5
432
330
1F
100
AcDbEntity
  8
化粧台
  6
EXLTYPE2
 62
     6
100
AcDbCircle
 10
1055.500003814838
 20
1293.500001907341
 30
0.0
 40
3.000000000000002
100
AcDbArc
 50
359.9999949910431
 51
89.99999749552043
  0
LINE
  5
433
330
1F
100
AcDbEntity
  8
化粧台
  6
EXLTYPE2
 62
     6
100
AcDbLine
 10
1047.999996185444
 20
1329.346518878931
 30
0.0
 11
1047.999996185444
 21
1313.54651964187
 31
0.0
  0
ARC
  5
434
330
1F
100
AcDbEntity
  8
化粧台
  6
EXLTYPE2
 62
     6
100
AcDbCircle
 10
1045.999996185444
 20
1329.346518878931
 30
0.0
 40
2.0
100
AcDbArc
 50
0.0000086514229809
 51
90.0000043257139
  0
LINE
  5
435
330
1F
100
AcDbEntity
  8
化粧台
  6
EXLTYPE2
 62
     6
100
AcDbLine
 10
998.0000000001446
 20
1308.50000381469
 30
0.0
 11
998.0000000001446
 21
1297.500001907341
 31
0.0
  0
ARC
  5
436
330
1F
100
AcDbEntity
  8
化粧台
  6
EXLTYPE2
 62
     6
100
AcDbCircle
 10
1001.000000000145
 20
1308.50000381469
 30
0.0
 40
3.000000000000002
100
AcDbArc
 50
90.00000250448174
 51
180.000005008957
  0
ARC
  5
437
330
1F
100
AcDbEntity
  8
化粧台
  6
EXLTYPE2
 62
     6
100
AcDbCircle
 10
997.0000000001446
 20
1297.500001907341
 30
0.0
 40
1.0
100
AcDbArc
 50
270.0000000000002
 51
0.0
  0
ARC
  5
438
330
1F
100
AcDbEntity
  8
化粧台
  6
EXLTYPE2
 62
     6
100
AcDbCircle
 10
994.4999961854473
 20
1293.500001907341
 30
0.0
 40
3.000000000000002
100
AcDbArc
 50
90.00000250448174
 51
180.000005008957
  0
LINE
  5
439
330
1F
100
AcDbEntity
  8
化粧台
  6
EXLTYPE2
 62
     6
100
AcDbLine
 10
1002.000003814842
 20
1329.346518878931
 30
0.0
 11
1002.000003814842
 21
1313.54651964187
 31
0.0
  0
ARC
  5
43A
330
1F
100
AcDbEntity
  8
化粧台
  6
EXLTYPE2
 62
     6
100
AcDbCircle
 10
1004.000003814842
 20
1329.346518878931
 30
0.0
 40
2.0
100
AcDbArc
 50
89.99999567428607
 51
179.9999913485771
  0
LINE
  5
43B
330
1F
100
AcDbEntity
  8
化粧台
  6
EXLTYPE2
 62
     6
100
AcDbLine
 10
1045.999996185444
 20
1331.346518878931
 30
0.0
 11
1004.000003814842
 21
1331.346518878931
 31
0.0
  0
LINE
  5
43C
330
1F
100
AcDbEntity
  8
化粧台
  6
EXLTYPE2
 62
     6
100
AcDbLine
 10
1047.999996185444
 20
1313.54651964187
 30
0.0
 11
1002.000003814842
 21
1313.54651964187
 31
0.0
  0
LINE
  5
43D
330
1F
100
AcDbEntity
  8
化粧台
  6
EXLTYPE2
 62
     6
100
AcDbLine
 10
1049.000000000141
 20
1311.50000381469
 30
0.0
 11
1001.000000000145
 21
1311.50000381469
 31
0.0
  0
LINE
  5
43E
330
1F
100
AcDbEntity
  8
化粧台
  6
EXLTYPE2
 62
     6
100
AcDbLine
 10
1055.500003814838
 20
1296.500001907341
 30
0.0
 11
994.4999961854473
 21
1296.500001907341
 31
0.0
  0
LINE
  5
43F
330
1F
100
AcDbEntity
  8
化粧台
  6
EXLTYPE2
 62
     6
100
AcDbLine
 10
1020.236584686138
 20
1637.611861335172
 30
0.0
 11
990.2365846861385
 21
1637.611861335172
 31
0.0
  0
LINE
  5
440
330
1F
100
AcDbEntity
  8
化粧台
  6
EXLTYPE2
 62
     6
100
AcDbLine
 10
1020.236584686142
 20
1640.381770843342
 30
0.0
 11
990.2365846861421
 21
1640.381770843342
 31
0.0
  0
LINE
  5
441
330
1F
100
AcDbEntity
  8
化粧台
  6
EXLTYPE2
 62
     6
100
AcDbLine
 10
1020.236584686138
 20
1640.381770843305
 30
0.0
 11
1020.236584686138
 21
1625.111865271341
 31
0.0
  0
LINE
  5
442
330
1F
100
AcDbEntity
  8
化粧台
  6
EXLTYPE2
 62
     6
100
AcDbLine
 10
1018.736584686138
 20
1623.611865271341
 30
0.0
 11
991.7365846861385
 21
1623.611865271341
 31
0.0
  0
LINE
  5
443
330
1F
100
AcDbEntity
  8
化粧台
  6
EXLTYPE2
 62
     6
100
AcDbLine
 10
990.2365846861385
 20
1640.381770843309
 30
0.0
 11
990.2365846861385
 21
1625.111865271341
 31
0.0
  0
ARC
  5
444
330
1F
100
AcDbEntity
  8
化粧台
  6
EXLTYPE2
 62
     6
100
AcDbCircle
 10
1018.736584686138
 20
1625.111865271341
 30
0.0
 40
1.5
100
AcDbArc
 50
270.0000000000002
 51
0.0
  0
ARC
  5
445
330
1F
100
AcDbEntity
  8
化粧台
  6
EXLTYPE2
 62
     6
100
AcDbCircle
 10
991.7365846861385
 20
1625.111865271341
 30
0.0
 40
1.5
100
AcDbArc
 50
180.0
 51
270.0000000000002
  0
ARC
  5
446
330
1F
100
AcDbEntity
  8
化粧台
  6
EXLTYPE2
 62
     6
100
AcDbCircle
 10
968.2231693722415
 20
1670.911862369041
 30
0.0
 40
1.0
100
AcDbArc
 50
180.0
 51
270.0000000000002
  0
ARC
  5
447
330
1F
100
AcDbEntity
  8
化粧台
  6
EXLTYPE2
 62
     6
100
AcDbCircle
 10
1011.598169372343
 20
1676.98686234378
 30
0.0
 40
7.87499999998454
100
AcDbArc
 50
180.0
 51
223.2429562691451
  0
ARC
  5
448
330
1F
100
AcDbEntity
  8
化粧台
  6
EXLTYPE2
 62
     6
100
AcDbCircle
 10
1000.125000000141
 20
1676.98686234378
 30
0.0
 40
7.87499999998454
100
AcDbArc
 50
284.0576142764539
 51
0.0
  0
ARC
  5
449
330
1F
100
AcDbEntity
  8
化粧台
  6
EXLTYPE2
 62
     6
100
AcDbCircle
 10
1014.868122253239
 20
1678.041926938087
 30
0.0
 40
45.0
100
AcDbArc
 50
190.4086772393206
 51
236.8134006511469
  0
ARC
  5
44A
330
1F
100
AcDbEntity
  8
化粧台
  6
EXLTYPE2
 62
     6
100
AcDbCircle
 10
997.0000000001446
 20
1678.918261759489
 30
0.0
 40
45.0
100
AcDbArc
 50
301.0889746232344
 51
0.0
  0
LINE
  5
44B
330
1F
100
AcDbEntity
  8
化粧台
  6
EXLTYPE2
 62
     6
100
AcDbLine
 10
978.9000000001424
 20
1669.911862369041
 30
0.0
 11
968.2231693722415
 21
1669.911862369041
 31
0.0
  0
LINE
  5
44C
330
1F
100
AcDbEntity
  8
化粧台
  6
EXLTYPE2
 62
     6
100
AcDbLine
 10
1009.000000000141
 20
1257.50000000004
 30
0.0
 11
1009.000000000141
 21
1623.611865271341
 31
0.0
  0
LINE
  5
44D
330
1F
100
AcDbEntity
  8
化粧台
  6
EXLTYPE2
 62
     6
100
AcDbLine
 10
1041.000000000141
 20
1257.50000000004
 30
0.0
 11
1041.000000000141
 21
1669.484280627425
 31
0.0
  0
LINE
  5
44E
330
1F
100
AcDbEntity
  8
化粧台
  6
CONTINUOUS
 62
     6
100
AcDbLine
 10
1009.000000000141
 20
1223.50000000004
 30
0.0
 11
1041.000000000141
 21
1223.50000000004
 31
0.0
  0
LINE
  5
44F
330
1F
100
AcDbEntity
  8
化粧台
  6
CONTINUOUS
 62
     6
100
AcDbLine
 10
1009.000000000141
 20
1223.50000000004
 30
0.0
 11
1009.000000000141
 21
1257.50000000004
 31
0.0
  0
LINE
  5
450
330
1F
100
AcDbEntity
  8
化粧台
  6
CONTINUOUS
 62
     6
100
AcDbLine
 10
1041.000000000141
 20
1223.50000000004
 30
0.0
 11
1041.000000000141
 21
1257.50000000004
 31
0.0
  0
LINE
  5
451
330
1F
100
AcDbEntity
  8
化粧台
  6
CONTINUOUS
 62
     6
100
AcDbLine
 10
1245.5000000001
 20
1245.50000000004
 30
0.0
 11
1224.5000000001
 21
1245.50000000004
 31
0.0
  0
LINE
  5
452
330
1F
100
AcDbEntity
  8
化粧台
  6
CONTINUOUS
 62
     6
100
AcDbLine
 10
1224.5000000001
 20
1257.50000000004
 30
0.0
 11
1224.5000000001
 21
1245.50000000004
 31
0.0
  0
LINE
  5
453
330
1F
100
AcDbEntity
  8
化粧台
  6
CONTINUOUS
 62
     6
100
AcDbLine
 10
1245.5000000001
 20
1257.50000000004
 30
0.0
 11
1245.5000000001
 21
1245.50000000004
 31
0.0
  0
LINE
  5
454
330
1F
100
AcDbEntity
  8
化粧台
  6
EXLTYPE3
 62
     6
100
AcDbLine
 10
1235.0000000001
 20
1640.00000000004
 30
0.0
 11
1235.0000000001
 21
1230.50000000004
 31
0.0
  0
LINE
  5
455
330
1F
100
AcDbEntity
  8
化粧台
  6
CONTINUOUS
 62
     6
100
AcDbLine
 10
1155.5000000001
 20
1245.5
 30
0.0
 11
1134.5000000001
 21
1245.5
 31
0.0
  0
LINE
  5
456
330
1F
100
AcDbEntity
  8
化粧台
  6
CONTINUOUS
 62
     6
100
AcDbLine
 10
1134.5000000001
 20
1257.5
 30
0.0
 11
1134.5000000001
 21
1245.5
 31
0.0
  0
LINE
  5
457
330
1F
100
AcDbEntity
  8
化粧台
  6
CONTINUOUS
 62
     6
100
AcDbLine
 10
1155.5000000001
 20
1257.5
 30
0.0
 11
1155.5000000001
 21
1245.5
 31
0.0
  0
LINE
  5
458
330
1F
100
AcDbEntity
  8
化粧台
  6
EXLTYPE3
 62
     6
100
AcDbLine
 10
1145.0000000001
 20
1643.0
 30
0.0
 11
1145.0000000001
 21
1230.5
 31
0.0
  0
ARC
  5
459
330
1F
100
AcDbEntity
  8
化粧台
  6
EXLTYPE2
 62
     6
100
AcDbCircle
 10
1184.5000000001
 20
1597.343134833023
 30
0.0
 40
40.0
100
AcDbArc
 50
345.6384884370835
 51
0.0
  0
ARC
  5
45A
330
1F
100
AcDbEntity
  8
化粧台
  6
EXLTYPE2
 62
     6
100
AcDbCircle
 10
1285.5000000001
 20
1597.343134833023
 30
0.0
 40
40.0
100
AcDbArc
 50
180.0
 51
194.3615115629164
  0
LINE
  5
45B
330
1F
100
AcDbEntity
  8
化粧台
  6
EXLTYPE2
 62
     6
100
AcDbLine
 10
1222.750000000089
 20
1542.50000000004
 30
0.0
 11
1247.250000000111
 21
1542.50000000004
 31
0.0
  0
LINE
  5
45C
330
1F
100
AcDbEntity
  8
化粧台
  6
EXLTYPE2
 62
     6
100
AcDbLine
 10
1222.2500000001
 20
1542.78867513463
 30
0.0
 11
1222.2500000001
 21
1554.672806948645
 31
0.0
  0
LINE
  5
45D
330
1F
100
AcDbEntity
  8
化粧台
  6
EXLTYPE2
 62
     6
100
AcDbLine
 10
1247.7500000001
 20
1542.78867513463
 30
0.0
 11
1247.7500000001
 21
1554.672806948645
 31
0.0
  0
ARC
  5
45E
330
1F
100
AcDbEntity
  8
化粧台
  6
EXLTYPE2
 62
     6
100
AcDbCircle
 10
1215.2500000001
 20
1557.365389352213
 30
0.0
 40
7.500000000000004
100
AcDbArc
 50
338.9605302186827
 51
0.0
  0
LINE
  5
45F
330
1F
100
AcDbEntity
  8
化粧台
  6
EXLTYPE2
 62
     6
100
AcDbLine
 10
1222.7500000001
 20
1542.500000000036
 30
0.0
 11
1222.2500000001
 21
1542.78867513463
 31
0.0
  0
LINE
  5
460
330
1F
100
AcDbEntity
  8
化粧台
  6
EXLTYPE2
 62
     6
100
AcDbLine
 10
1247.250000000104
 20
1542.500000000036
 30
0.0
 11
1247.7500000001
 21
1542.78867513463
 31
0.0
  0
ARC
  5
461
330
1F
100
AcDbEntity
  8
化粧台
  6
EXLTYPE2
 62
     6
100
AcDbCircle
 10
1254.7500000001
 20
1557.365389352213
 30
0.0
 40
7.500000000000004
100
AcDbArc
 50
180.0
 51
201.039469781297
  0
LINE
  5
462
330
1F
100
AcDbEntity
  8
化粧台
  6
EXLTYPE2
 62
     6
100
AcDbLine
 10
1248.0000000001
 20
1571.66369123508
 30
0.0
 11
1248.0000000001
 21
1583.336308765
 31
0.0
  0
LINE
  5
463
330
1F
100
AcDbEntity
  8
化粧台
  6
EXLTYPE2
 62
     6
100
AcDbLine
 10
1246.55439165489
 20
1585.840175866761
 30
0.0
 11
1236.44560834531
 21
1591.67648463172
 31
0.0
  0
LINE
  5
464
330
1F
100
AcDbEntity
  8
化粧台
  6
EXLTYPE2
 62
     6
100
AcDbLine
 10
1233.55439165489
 20
1591.67648463172
 30
0.0
 11
1223.44560834531
 21
1585.840175866761
 31
0.0
  0
LINE
  5
465
330
1F
100
AcDbEntity
  8
化粧台
  6
EXLTYPE2
 62
     6
100
AcDbLine
 10
1222.0000000001
 20
1583.336308765
 30
0.0
 11
1222.0000000001
 21
1571.66369123508
 31
0.0
  0
LINE
  5
466
330
1F
100
AcDbEntity
  8
化粧台
  6
EXLTYPE2
 62
     6
100
AcDbLine
 10
1223.44560834531
 20
1569.159824133319
 30
0.0
 11
1233.55439165489
 21
1563.32351536836
 31
0.0
  0
LINE
  5
467
330
1F
100
AcDbEntity
  8
化粧台
  6
EXLTYPE2
 62
     6
100
AcDbLine
 10
1236.44560834531
 20
1563.32351536836
 30
0.0
 11
1246.55439165489
 21
1569.159824133319
 31
0.0
  0
ARC
  5
468
330
1F
100
AcDbEntity
  8
化粧台
  6
EXLTYPE2
 62
     6
100
AcDbCircle
 10
1235.0000000001
 20
1577.50000000004
 30
0.0
 40
14.25000000000001
100
AcDbArc
 50
264.1775448336001
 51
275.8224551664
  0
ARC
  5
469
330
1F
100
AcDbEntity
  8
化粧台
  6
EXLTYPE2
 62
     6
100
AcDbCircle
 10
1235.0000000001
 20
1577.50000000004
 30
0.0
 40
14.25000000000001
100
AcDbArc
 50
324.1775448336006
 51
335.8224551664001
  0
ARC
  5
46A
330
1F
100
AcDbEntity
  8
化粧台
  6
EXLTYPE2
 62
     6
100
AcDbCircle
 10
1235.0000000001
 20
1577.50000000004
 30
0.0
 40
14.25000000000001
100
AcDbArc
 50
24.17754483359991
 51
35.82245516639971
  0
ARC
  5
46B
330
1F
100
AcDbEntity
  8
化粧台
  6
EXLTYPE2
 62
     6
100
AcDbCircle
 10
1235.0000000001
 20
1577.50000000004
 30
0.0
 40
14.25000000000001
100
AcDbArc
 50
84.17754483360022
 51
95.82245516636002
  0
ARC
  5
46C
330
1F
100
AcDbEntity
  8
化粧台
  6
EXLTYPE2
 62
     6
100
AcDbCircle
 10
1235.0000000001
 20
1577.50000000004
 30
0.0
 40
14.25000000000001
100
AcDbArc
 50
144.1775448336397
 51
155.8224551663601
  0
ARC
  5
46D
330
1F
100
AcDbEntity
  8
化粧台
  6
EXLTYPE2
 62
     6
100
AcDbCircle
 10
1235.0000000001
 20
1577.50000000004
 30
0.0
 40
14.25000000000001
100
AcDbArc
 50
204.1775448336
 51
215.8224551663998
  0
CIRCLE
  5
46E
330
1F
100
AcDbEntity
  8
化粧台
  6
EXLTYPE2
 62
     6
100
AcDbCircle
 10
1235.0000000001
 20
1577.50000000004
 30
0.0
 40
4.75
  0
ARC
  5
46F
330
1F
100
AcDbEntity
  8
化粧台
  6
EXLTYPE2
 62
     6
100
AcDbCircle
 10
1262.0000000001
 20
1577.50000000004
 30
0.0
 40
40.0
100
AcDbArc
 50
165.6384884370866
 51
169.8112385239512
  0
ARC
  5
470
330
1F
100
AcDbEntity
  8
化粧台
  6
EXLTYPE2
 62
     6
100
AcDbCircle
 10
1208.0000000001
 20
1577.50000000004
 30
0.0
 40
40.0
100
AcDbArc
 50
10.18876147604892
 51
14.36151156291657
  0
LINE
  5
471
330
1F
100
AcDbEntity
  8
化粧台
  6
EXLTYPE2
 62
     6
100
AcDbLine
 10
1222.7500000001
 20
1570.219890110759
 30
0.0
 11
1222.7500000001
 21
1557.365389352213
 31
0.0
  0
LINE
  5
472
330
1F
100
AcDbEntity
  8
化粧台
  6
EXLTYPE2
 62
     6
100
AcDbLine
 10
1247.2500000001
 20
1570.219890110759
 30
0.0
 11
1247.2500000001
 21
1557.365389352213
 31
0.0
  0
LINE
  5
473
330
1F
100
AcDbEntity
  8
化粧台
  6
EXLTYPE2
 62
     6
100
AcDbLine
 10
1224.03045554281
 20
1600.200000000041
 30
0.0
 11
1245.96954445739
 21
1600.200000000041
 31
0.0
  0
LINE
  5
474
330
1F
100
AcDbEntity
  8
化粧台
  6
EXLTYPE2
 62
     6
100
AcDbLine
 10
1224.03045554281
 20
1612.200000000041
 30
0.0
 11
1245.96954445739
 21
1612.200000000041
 31
0.0
  0
LINE
  5
475
330
1F
100
AcDbEntity
  8
化粧台
  6
EXLTYPE2
 62
     6
100
AcDbLine
 10
1223.5000000001
 20
1611.292887196909
 30
0.0
 11
1223.5000000001
 21
1601.107112803169
 31
0.0
  0
LINE
  5
476
330
1F
100
AcDbEntity
  8
化粧台
  6
EXLTYPE2
 62
     6
100
AcDbLine
 10
1246.5000000001
 20
1611.292887196909
 30
0.0
 11
1246.5000000001
 21
1601.107112803169
 31
0.0
  0
ARC
  5
477
330
1F
100
AcDbEntity
  8
化粧台
  6
EXLTYPE2
 62
     6
100
AcDbCircle
 10
1233.2500000001
 20
1606.200000000041
 30
0.0
 40
11.0
100
AcDbArc
 50
146.9442688490998
 51
152.4198007963999
  0
ARC
  5
478
330
1F
100
AcDbEntity
  8
化粧台
  6
EXLTYPE2
 62
     6
100
AcDbCircle
 10
1233.2500000001
 20
1606.200000000041
 30
0.0
 40
11.0
100
AcDbArc
 50
207.5801992036001
 51
213.0557311509001
  0
ARC
  5
479
330
1F
100
AcDbEntity
  8
化粧台
  6
EXLTYPE2
 62
     6
100
AcDbCircle
 10
1236.7500000001
 20
1606.200000000041
 30
0.0
 40
11.0
100
AcDbArc
 50
326.9442688491004
 51
332.4198007964001
  0
ARC
  5
47A
330
1F
100
AcDbEntity
  8
化粧台
  6
EXLTYPE2
 62
     6
100
AcDbCircle
 10
1236.7500000001
 20
1606.200000000041
 30
0.0
 40
11.0
100
AcDbArc
 50
27.58019920359027
 51
33.05573115085006
  0
LINE
  5
47B
330
1F
100
AcDbEntity
  8
化粧台
  6
EXLTYPE2
 62
     6
100
AcDbLine
 10
1224.5000000001
 20
1600.200000000041
 30
0.0
 11
1224.5000000001
 21
1597.34313483302
 31
0.0
  0
LINE
  5
47C
330
1F
100
AcDbEntity
  8
化粧台
  6
EXLTYPE2
 62
     6
100
AcDbLine
 10
1245.5000000001
 20
1600.200000000041
 30
0.0
 11
1245.5000000001
 21
1597.34313483302
 31
0.0
  0
ARC
  5
47D
330
1F
100
AcDbEntity
  8
化粧台
  6
EXLTYPE2
 62
     6
100
AcDbCircle
 10
1094.5000000001
 20
1597.343134832983
 30
0.0
 40
40.0
100
AcDbArc
 50
345.6384884370835
 51
0.0
  0
ARC
  5
47E
330
1F
100
AcDbEntity
  8
化粧台
  6
EXLTYPE2
 62
     6
100
AcDbCircle
 10
1195.5000000001
 20
1597.343134832983
 30
0.0
 40
40.0
100
AcDbArc
 50
180.0
 51
194.3615115629164
  0
LINE
  5
47F
330
1F
100
AcDbEntity
  8
化粧台
  6
EXLTYPE2
 62
     6
100
AcDbLine
 10
1132.750000000089
 20
1542.5
 30
0.0
 11
1157.250000000111
 21
1542.5
 31
0.0
  0
LINE
  5
480
330
1F
100
AcDbEntity
  8
化粧台
  6
EXLTYPE2
 62
     6
100
AcDbLine
 10
1132.2500000001
 20
1542.78867513459
 30
0.0
 11
1132.2500000001
 21
1554.672806948605
 31
0.0
  0
LINE
  5
481
330
1F
100
AcDbEntity
  8
化粧台
  6
EXLTYPE2
 62
     6
100
AcDbLine
 10
1157.7500000001
 20
1542.78867513459
 30
0.0
 11
1157.7500000001
 21
1554.672806948605
 31
0.0
  0
ARC
  5
482
330
1F
100
AcDbEntity
  8
化粧台
  6
EXLTYPE2
 62
     6
100
AcDbCircle
 10
1125.2500000001
 20
1557.365389352173
 30
0.0
 40
7.500000000000004
100
AcDbArc
 50
338.9605302186827
 51
0.0
  0
LINE
  5
483
330
1F
100
AcDbEntity
  8
化粧台
  6
EXLTYPE2
 62
     6
100
AcDbLine
 10
1132.7500000001
 20
1542.499999999996
 30
0.0
 11
1132.2500000001
 21
1542.78867513459
 31
0.0
  0
LINE
  5
484
330
1F
100
AcDbEntity
  8
化粧台
  6
EXLTYPE2
 62
     6
100
AcDbLine
 10
1157.250000000104
 20
1542.499999999996
 30
0.0
 11
1157.7500000001
 21
1542.78867513459
 31
0.0
  0
ARC
  5
485
330
1F
100
AcDbEntity
  8
化粧台
  6
EXLTYPE2
 62
     6
100
AcDbCircle
 10
1164.7500000001
 20
1557.365389352173
 30
0.0
 40
7.500000000000004
100
AcDbArc
 50
180.0
 51
201.039469781297
  0
LINE
  5
486
330
1F
100
AcDbEntity
  8
化粧台
  6
EXLTYPE2
 62
     6
100
AcDbLine
 10
1158.0000000001
 20
1571.66369123504
 30
0.0
 11
1158.0000000001
 21
1583.33630876496
 31
0.0
  0
LINE
  5
487
330
1F
100
AcDbEntity
  8
化粧台
  6
EXLTYPE2
 62
     6
100
AcDbLine
 10
1156.55439165489
 20
1585.840175866721
 30
0.0
 11
1146.44560834531
 21
1591.67648463168
 31
0.0
  0
LINE
  5
488
330
1F
100
AcDbEntity
  8
化粧台
  6
EXLTYPE2
 62
     6
100
AcDbLine
 10
1143.55439165489
 20
1591.67648463168
 30
0.0
 11
1133.44560834531
 21
1585.840175866721
 31
0.0
  0
LINE
  5
489
330
1F
100
AcDbEntity
  8
化粧台
  6
EXLTYPE2
 62
     6
100
AcDbLine
 10
1132.0000000001
 20
1583.33630876496
 30
0.0
 11
1132.0000000001
 21
1571.66369123504
 31
0.0
  0
LINE
  5
48A
330
1F
100
AcDbEntity
  8
化粧台
  6
EXLTYPE2
 62
     6
100
AcDbLine
 10
1133.44560834531
 20
1569.159824133279
 30
0.0
 11
1143.55439165489
 21
1563.32351536832
 31
0.0
  0
LINE
  5
48B
330
1F
100
AcDbEntity
  8
化粧台
  6
EXLTYPE2
 62
     6
100
AcDbLine
 10
1146.44560834531
 20
1563.32351536832
 30
0.0
 11
1156.55439165489
 21
1569.159824133279
 31
0.0
  0
ARC
  5
48C
330
1F
100
AcDbEntity
  8
化粧台
  6
EXLTYPE2
 62
     6
100
AcDbCircle
 10
1145.0000000001
 20
1577.5
 30
0.0
 40
14.25000000000001
100
AcDbArc
 50
264.1775448336001
 51
275.8224551664
  0
ARC
  5
48D
330
1F
100
AcDbEntity
  8
化粧台
  6
EXLTYPE2
 62
     6
100
AcDbCircle
 10
1145.0000000001
 20
1577.5
 30
0.0
 40
14.25000000000001
100
AcDbArc
 50
324.1775448336006
 51
335.8224551664001
  0
ARC
  5
48E
330
1F
100
AcDbEntity
  8
化粧台
  6
EXLTYPE2
 62
     6
100
AcDbCircle
 10
1145.0000000001
 20
1577.5
 30
0.0
 40
14.25000000000001
100
AcDbArc
 50
24.17754483359991
 51
35.82245516639971
  0
ARC
  5
48F
330
1F
100
AcDbEntity
  8
化粧台
  6
EXLTYPE2
 62
     6
100
AcDbCircle
 10
1145.0000000001
 20
1577.5
 30
0.0
 40
14.25000000000001
100
AcDbArc
 50
84.17754483360022
 51
95.82245516636002
  0
ARC
  5
490
330
1F
100
AcDbEntity
  8
化粧台
  6
EXLTYPE2
 62
     6
100
AcDbCircle
 10
1145.0000000001
 20
1577.5
 30
0.0
 40
14.25000000000001
100
AcDbArc
 50
144.1775448336397
 51
155.8224551663601
  0
ARC
  5
491
330
1F
100
AcDbEntity
  8
化粧台
  6
EXLTYPE2
 62
     6
100
AcDbCircle
 10
1145.0000000001
 20
1577.5
 30
0.0
 40
14.25000000000001
100
AcDbArc
 50
204.1775448336
 51
215.8224551663998
  0
CIRCLE
  5
492
330
1F
100
AcDbEntity
  8
化粧台
  6
EXLTYPE2
 62
     6
100
AcDbCircle
 10
1145.0000000001
 20
1577.5
 30
0.0
 40
4.75
  0
ARC
  5
493
330
1F
100
AcDbEntity
  8
化粧台
  6
EXLTYPE2
 62
     6
100
AcDbCircle
 10
1172.0000000001
 20
1577.5
 30
0.0
 40
40.0
100
AcDbArc
 50
165.6384884370866
 51
169.8112385239512
  0
ARC
  5
494
330
1F
100
AcDbEntity
  8
化粧台
  6
EXLTYPE2
 62
     6
100
AcDbCircle
 10
1118.0000000001
 20
1577.5
 30
0.0
 40
40.0
100
AcDbArc
 50
10.18876147604892
 51
14.36151156291657
  0
LINE
  5
495
330
1F
100
AcDbEntity
  8
化粧台
  6
EXLTYPE2
 62
     6
100
AcDbLine
 10
1132.7500000001
 20
1570.219890110719
 30
0.0
 11
1132.7500000001
 21
1557.365389352173
 31
0.0
  0
LINE
  5
496
330
1F
100
AcDbEntity
  8
化粧台
  6
EXLTYPE2
 62
     6
100
AcDbLine
 10
1157.2500000001
 20
1570.219890110719
 30
0.0
 11
1157.2500000001
 21
1557.365389352173
 31
0.0
  0
LINE
  5
497
330
1F
100
AcDbEntity
  8
化粧台
  6
EXLTYPE2
 62
     6
100
AcDbLine
 10
1134.03045554281
 20
1600.200000000001
 30
0.0
 11
1155.96954445739
 21
1600.200000000001
 31
0.0
  0
LINE
  5
498
330
1F
100
AcDbEntity
  8
化粧台
  6
EXLTYPE2
 62
     6
100
AcDbLine
 10
1134.03045554281
 20
1612.200000000001
 30
0.0
 11
1155.96954445739
 21
1612.200000000001
 31
0.0
  0
LINE
  5
499
330
1F
100
AcDbEntity
  8
化粧台
  6
EXLTYPE2
 62
     6
100
AcDbLine
 10
1133.5000000001
 20
1611.292887196869
 30
0.0
 11
1133.5000000001
 21
1601.107112803129
 31
0.0
  0
LINE
  5
49A
330
1F
100
AcDbEntity
  8
化粧台
  6
EXLTYPE2
 62
     6
100
AcDbLine
 10
1156.5000000001
 20
1611.292887196869
 30
0.0
 11
1156.5000000001
 21
1601.107112803129
 31
0.0
  0
ARC
  5
49B
330
1F
100
AcDbEntity
  8
化粧台
  6
EXLTYPE2
 62
     6
100
AcDbCircle
 10
1143.2500000001
 20
1606.200000000001
 30
0.0
 40
11.0
100
AcDbArc
 50
146.9442688490998
 51
152.4198007963999
  0
ARC
  5
49C
330
1F
100
AcDbEntity
  8
化粧台
  6
EXLTYPE2
 62
     6
100
AcDbCircle
 10
1143.2500000001
 20
1606.200000000001
 30
0.0
 40
11.0
100
AcDbArc
 50
207.5801992036001
 51
213.0557311509001
  0
ARC
  5
49D
330
1F
100
AcDbEntity
  8
化粧台
  6
EXLTYPE2
 62
     6
100
AcDbCircle
 10
1146.7500000001
 20
1606.200000000001
 30
0.0
 40
11.0
100
AcDbArc
 50
326.9442688491004
 51
332.4198007964001
  0
ARC
  5
49E
330
1F
100
AcDbEntity
  8
化粧台
  6
EXLTYPE2
 62
     6
100
AcDbCircle
 10
1146.7500000001
 20
1606.200000000001
 30
0.0
 40
11.0
100
AcDbArc
 50
27.58019920359027
 51
33.05573115085006
  0
LINE
  5
49F
330
1F
100
AcDbEntity
  8
化粧台
  6
EXLTYPE2
 62
     6
100
AcDbLine
 10
1134.5000000001
 20
1600.200000000001
 30
0.0
 11
1134.5000000001
 21
1597.34313483298
 31
0.0
  0
LINE
  5
4A0
330
1F
100
AcDbEntity
  8
化粧台
  6
EXLTYPE2
 62
     6
100
AcDbLine
 10
1155.5000000001
 20
1600.200000000001
 30
0.0
 11
1155.5000000001
 21
1597.34313483298
 31
0.0
  0
LINE
  5
4A1
330
1F
100
AcDbEntity
  8
化粧台
  6
EXLTYPE2
 62
     6
100
AcDbLine
 10
1138.000000000104
 20
1612.200000000001
 30
0.0
 11
1138.000000000104
 21
1826.450000000039
 31
0.0
  0
LINE
  5
4A2
330
1F
100
AcDbEntity
  8
化粧台
  6
EXLTYPE2
 62
     6
100
AcDbLine
 10
1152.000000000096
 20
1612.200000000039
 30
0.0
 11
1152.000000000096
 21
1832.15000000004
 31
0.0
  0
LINE
  5
4A3
330
1F
100
AcDbEntity
  8
化粧台
  6
EXLTYPE2
 62
     6
100
AcDbLine
 10
1134.5000000001
 20
1542.5
 30
0.0
 11
1134.5000000001
 21
1257.5
 31
0.0
  0
LINE
  5
4A4
330
1F
100
AcDbEntity
  8
化粧台
  6
EXLTYPE2
 62
     6
100
AcDbLine
 10
1155.5000000001
 20
1542.50000000004
 30
0.0
 11
1155.5000000001
 21
1257.5
 31
0.0
  0
LINE
  5
4A5
330
1F
100
AcDbEntity
  8
化粧台
  6
EXLTYPE2
 62
     6
100
AcDbLine
 10
1224.5000000001
 20
1542.50000000004
 30
0.0
 11
1224.5000000001
 21
1257.50000000004
 31
0.0
  0
LINE
  5
4A6
330
1F
100
AcDbEntity
  8
化粧台
  6
EXLTYPE2
 62
     6
100
AcDbLine
 10
1245.5000000001
 20
1542.50000000004
 30
0.0
 11
1245.5000000001
 21
1257.50000000004
 31
0.0
  0
LINE
  5
4A7
330
1F
100
AcDbEntity
  8
化粧台
  6
CONTINUOUS
 62
     2
100
AcDbLine
 10
756.5000000001801
 20
1257.5
 30
0.0
 11
741.5000000001801
 21
1257.5
 31
0.0
  0
LINE
  5
4A8
330
1F
100
AcDbEntity
  8
化粧台
  6
CONTINUOUS
 62
     2
100
AcDbLine
 10
755.0000000001728
 20
1257.5
 30
0.0
 11
755.0000000001728
 21
1254.0
 31
0.0
  0
LINE
  5
4A9
330
1F
100
AcDbEntity
  8
化粧台
  6
CONTINUOUS
 62
     2
100
AcDbLine
 10
743.0000000001728
 20
1257.5
 30
0.0
 11
743.0000000001728
 21
1254.0
 31
0.0
  0
LINE
  5
4AA
330
1F
100
AcDbEntity
  8
化粧台
  6
CONTINUOUS
 62
     2
100
AcDbLine
 10
743.0000000001728
 20
1254.0
 30
0.0
 11
755.0000000001728
 21
1254.0
 31
0.0
  0
LINE
  5
4AB
330
1F
100
AcDbEntity
  8
化粧台
  6
CONTINUOUS
 62
     2
100
AcDbLine
 10
1293.500000000183
 20
1257.5
 30
0.0
 11
1308.500000000183
 21
1257.5
 31
0.0
  0
LINE
  5
4AC
330
1F
100
AcDbEntity
  8
化粧台
  6
CONTINUOUS
 62
     2
100
AcDbLine
 10
1295.00000000019
 20
1257.5
 30
0.0
 11
1295.00000000019
 21
1254.0
 31
0.0
  0
LINE
  5
4AD
330
1F
100
AcDbEntity
  8
化粧台
  6
CONTINUOUS
 62
     2
100
AcDbLine
 10
1307.00000000019
 20
1257.5
 30
0.0
 11
1307.00000000019
 21
1254.0
 31
0.0
  0
LINE
  5
4AE
330
1F
100
AcDbEntity
  8
化粧台
  6
CONTINUOUS
 62
     2
100
AcDbLine
 10
1307.00000000019
 20
1254.0
 30
0.0
 11
1295.00000000019
 21
1254.0
 31
0.0
  0
LINE
  5
4AF
330
1F
100
AcDbEntity
  8
化粧台
  6
CONTINUOUS
 62
     2
100
AcDbLine
 10
1293.500000000183
 20
1344.5
 30
0.0
 11
1293.500000000183
 21
1257.5
 31
0.0
  0
LINE
  5
4B0
330
1F
100
AcDbEntity
  8
化粧台
  6
CONTINUOUS
 62
     2
100
AcDbLine
 10
756.5000000001801
 20
1344.5
 30
0.0
 11
756.5000000001801
 21
1257.5
 31
0.0
  0
LINE
  5
4B1
330
1F
100
AcDbEntity
  8
化粧台
  6
CONTINUOUS
 62
     2
100
AcDbLine
 10
1293.50000000018
 20
1344.5
 30
0.0
 11
756.5000000001801
 21
1344.5
 31
0.0
  0
LINE
  5
4B2
330
1F
100
AcDbEntity
  8
化粧台
  6
CONTINUOUS
 62
     2
100
AcDbLine
 10
1026.00000000014
 20
1345.50000000004
 30
0.0
 11
1305.00000000018
 21
1345.50000000004
 31
0.0
  0
LINE
  5
4B3
330
1F
100
AcDbEntity
  8
化粧台
  6
CONTINUOUS
 62
     2
100
AcDbLine
 10
745.0000000001401
 20
1345.50000000004
 30
0.0
 11
1024.000000000141
 21
1345.50000000004
 31
0.0
  0
LINE
  5
4B4
330
1F
100
AcDbEntity
  8
化粧台
  6
CONTINUOUS
 62
     2
100
AcDbLine
 10
1024.000000000141
 20
1430.1
 30
0.0
 11
1024.000000000141
 21
1345.5
 31
0.0
  0
LINE
  5
4B5
330
1F
100
AcDbEntity
  8
化粧台
  6
CONTINUOUS
 62
     2
100
AcDbLine
 10
1026.00000000014
 20
1430.1
 30
0.0
 11
1026.00000000014
 21
1345.5
 31
0.0
  0
LINE
  5
4B6
330
1F
100
AcDbEntity
  8
化粧台
  6
CONTINUOUS
 62
     2
100
AcDbLine
 10
745.0000000001419
 20
1835.5
 30
0.0
 11
745.0000000001414
 21
1345.5
 31
0.0
  0
LINE
  5
4B7
330
1F
100
AcDbEntity
  8
化粧台
  6
CONTINUOUS
 62
     2
100
AcDbLine
 10
1305.000000000141
 20
1835.5
 30
0.0
 11
1305.000000000141
 21
1345.5
 31
0.0
  0
LINE
  5
4B8
330
1F
100
AcDbEntity
  8
化粧台
  6
CONTINUOUS
 62
     2
100
AcDbLine
 10
1305.00000000018
 20
1835.50000000004
 30
0.0
 11
1026.00000000014
 21
1835.50000000004
 31
0.0
  0
LINE
  5
4B9
330
1F
100
AcDbEntity
  8
化粧台
  6
CONTINUOUS
 62
     2
100
AcDbLine
 10
1307.000000000213
 20
1842.5
 30
0.0
 11
743.0000000002128
 21
1842.5
 31
0.0
  0
LINE
  5
4BA
330
1F
100
AcDbEntity
  8
化粧台
  6
CONTINUOUS
 62
     2
100
AcDbLine
 10
1024.000000000141
 20
1835.50000000004
 30
0.0
 11
745.0000000001401
 21
1835.50000000004
 31
0.0
  0
ARC
  5
4BB
330
1F
100
AcDbEntity
  8
化粧台
  6
CONTINUOUS
 62
     2
100
AcDbCircle
 10
897.3702665095934
 20
1793.0
 30
0.0
 40
2.0
100
AcDbArc
 50
90.00000000000001
 51
163.1507203771844
  0
ARC
  5
4BC
330
1F
100
AcDbEntity
  8
化粧台
  6
CONTINUOUS
 62
     2
100
AcDbCircle
 10
897.3702665095934
 20
1788.0
 30
0.0
 40
2.0
100
AcDbArc
 50
196.8492796228166
 51
270.0
  0
ARC
  5
4BD
330
1F
100
AcDbEntity
  8
化粧台
  6
CONTINUOUS
 62
     2
100
AcDbCircle
 10
905.6250000001432
 20
1790.5
 30
0.0
 40
10.625
100
AcDbArc
 50
163.1507203771702
 51
196.8492796228299
  0
ARC
  5
4BE
330
1F
100
AcDbEntity
  8
化粧台
  6
CONTINUOUS
 62
     2
100
AcDbCircle
 10
954.5000000001432
 20
2875.185482900405
 30
0.0
 40
1090.685482900405
100
AcDbArc
 50
266.9919716782234
 51
273.0080283217766
  0
ARC
  5
4BF
330
1F
100
AcDbEntity
  8
化粧台
  6
CONTINUOUS
 62
     2
100
AcDbCircle
 10
954.5000000001428
 20
705.8145170995948
 30
0.0
 40
1090.685482900405
100
AcDbArc
 50
86.99197167822344
 51
93.00802832177662
  0
ARC
  5
4C0
330
1F
100
AcDbEntity
  8
化粧台
  6
CONTINUOUS
 62
     2
100
AcDbCircle
 10
1003.375000000143
 20
1790.5
 30
0.0
 40
10.625
100
AcDbArc
 50
343.1507203771704
 51
16.8492796228307
  0
ARC
  5
4C1
330
1F
100
AcDbEntity
  8
化粧台
  6
CONTINUOUS
 62
     2
100
AcDbCircle
 10
1011.629733490693
 20
1788.0
 30
0.0
 40
2.0
100
AcDbArc
 50
270.0
 51
343.1507203771844
  0
ARC
  5
4C2
330
1F
100
AcDbEntity
  8
化粧台
  6
CONTINUOUS
 62
     2
100
AcDbCircle
 10
1011.629733490693
 20
1793.0
 30
0.0
 40
2.0
100
AcDbArc
 50
16.84927962281563
 51
90.00000000000001
  0
ARC
  5
4C3
330
1F
100
AcDbEntity
  8
化粧台
  6
CONTINUOUS
 62
     2
100
AcDbCircle
 10
1152.629733490689
 20
1793.0
 30
0.0
 40
2.0
100
AcDbArc
 50
16.84927962281586
 51
90.00000000000001
  0
ARC
  5
4C4
330
1F
100
AcDbEntity
  8
化粧台
  6
CONTINUOUS
 62
     2
100
AcDbCircle
 10
1152.629733490689
 20
1788.0
 30
0.0
 40
2.0
100
AcDbArc
 50
270.0000000000002
 51
343.1507203771823
  0
ARC
  5
4C5
330
1F
100
AcDbEntity
  8
化粧台
  6
CONTINUOUS
 62
     2
100
AcDbCircle
 10
1144.37500000014
 20
1790.5
 30
0.0
 40
10.625
100
AcDbArc
 50
343.15072037717
 51
16.84927962283012
  0
ARC
  5
4C6
330
1F
100
AcDbEntity
  8
化粧台
  6
CONTINUOUS
 62
     2
100
AcDbCircle
 10
1095.50000000014
 20
2875.185482900405
 30
0.0
 40
1090.685482900405
100
AcDbArc
 50
266.9919716782235
 51
273.0080283217767
  0
ARC
  5
4C7
330
1F
100
AcDbEntity
  8
化粧台
  6
CONTINUOUS
 62
     2
100
AcDbCircle
 10
1095.50000000014
 20
705.8145170995948
 30
0.0
 40
1090.685482900405
100
AcDbArc
 50
86.99197167822338
 51
93.00802832177656
  0
ARC
  5
4C8
330
1F
100
AcDbEntity
  8
化粧台
  6
CONTINUOUS
 62
     2
100
AcDbCircle
 10
1046.62500000014
 20
1790.5
 30
0.0
 40
10.625
100
AcDbArc
 50
163.1507203771698
 51
196.8492796228301
  0
ARC
  5
4C9
330
1F
100
AcDbEntity
  8
化粧台
  6
CONTINUOUS
 62
     2
100
AcDbCircle
 10
1038.37026650959
 20
1788.0
 30
0.0
 40
2.0
100
AcDbArc
 50
196.8492796228176
 51
270.0000000000002
  0
ARC
  5
4CA
330
1F
100
AcDbEntity
  8
化粧台
  6
CONTINUOUS
 62
     2
100
AcDbCircle
 10
1038.37026650959
 20
1793.0
 30
0.0
 40
2.0
100
AcDbArc
 50
90.00000000000001
 51
163.1507203771841
  0
CIRCLE
  5
4CB
330
1F
100
AcDbEntity
  8
化粧台
  6
EXLTYPE2
 62
     6
100
AcDbCircle
 10
1016.000000000222
 20
1353.5
 30
0.0
 40
4.0
  0
CIRCLE
  5
4CC
330
1F
100
AcDbEntity
  8
化粧台
  6
EXLTYPE2
 62
     6
100
AcDbCircle
 10
1034.000000000141
 20
1353.5
 30
0.0
 40
4.0
  0
LINE
  5
4CD
330
1F
100
AcDbEntity
  8
化粧台
  6
CONTINUOUS
 62
     2
100
AcDbLine
 10
831.9964931643217
 20
1974.000000000108
 30
0.0
 11
730.2565282705
 21
1974.000000000108
 31
0.0
  0
ARC
  5
4CE
330
1F
100
AcDbEntity
  8
化粧台
  6
CONTINUOUS
 62
     2
100
AcDbCircle
 10
829.5350115097917
 20
2002.104339212761
 30
0.0
 40
3.000000000000002
100
AcDbArc
 50
87.51044707800041
 51
202.7033731173424
  0
ARC
  5
4CF
330
1F
100
AcDbEntity
  8
化粧台
  6
CONTINUOUS
 62
     2
100
AcDbCircle
 10
730.2565282705
 20
1977.000000000108
 30
0.0
 40
3.000000000000002
100
AcDbArc
 50
182.082565279727
 51
270.0000000000002
  0
LINE
  5
4D0
330
1F
100
AcDbEntity
  8
化粧台
  6
CONTINUOUS
 62
     2
100
AcDbLine
 10
727.2585097766605
 20
1976.890981145787
 30
0.0
 11
725.1884253852513
 21
2033.818301909572
 31
0.0
  0
ARC
  5
4D1
330
1F
100
AcDbEntity
  8
化粧台
  6
CONTINUOUS
 62
     2
100
AcDbCircle
 10
831.9964931643217
 20
1959.000000000108
 30
0.0
 40
15.00000000000001
100
AcDbArc
 50
32.90482742074656
 51
90.00000000000001
  0
ARC
  5
4D2
330
1F
100
AcDbEntity
  8
化粧台
  6
CONTINUOUS
 62
     2
100
AcDbCircle
 10
730.1851228749838
 20
2034.000000000108
 30
0.0
 40
5.0
100
AcDbArc
 50
90.00000000000001
 51
182.0825652797287
  0
ARC
  5
4D3
330
1F
100
AcDbEntity
  8
化粧台
  6
CONTINUOUS
 62
     2
100
AcDbCircle
 10
746.4359574454229
 20
2028.739070429828
 30
0.0
 40
20.0
100
AcDbArc
 50
232.1446748345211
 51
267.5104470780012
  0
LINE
  5
4D4
330
1F
100
AcDbEntity
  8
化粧台
  6
CONTINUOUS
 62
     2
100
AcDbLine
 10
855.0000000001401
 20
2004.000000000108
 30
0.0
 11
745.567212959897
 21
2008.757947262727
 31
0.0
  0
ARC
  5
4D5
330
1F
100
AcDbEntity
  8
化粧台
  6
CONTINUOUS
 62
     2
100
AcDbCircle
 10
731.0942137840739
 20
2009.000000000108
 30
0.0
 40
5.0
100
AcDbArc
 50
52.14467483452227
 51
182.0825652797287
  0
LINE
  5
4D6
330
1F
100
AcDbEntity
  8
化粧台
  6
CONTINUOUS
 62
     2
100
AcDbLine
 10
855.0000000001401
 20
2004.000000000108
 30
0.0
 11
1195.000000000141
 21
2004.000000000108
 31
0.0
  0
ARC
  5
4D7
330
1F
100
AcDbEntity
  8
化粧台
  6
CONTINUOUS
 62
     2
100
AcDbCircle
 10
1025.000000000141
 20
2083.882636433079
 30
0.0
 40
214.8826364329721
100
AcDbArc
 50
202.703373117341
 51
337.2966268826593
  0
LINE
  5
4D8
330
1F
100
AcDbEntity
  8
化粧台
  6
CONTINUOUS
 62
     2
100
AcDbLine
 10
1218.00350683596
 20
1974.000000000108
 30
0.0
 11
1319.743471729781
 21
1974.000000000108
 31
0.0
  0
ARC
  5
4D9
330
1F
100
AcDbEntity
  8
化粧台
  6
CONTINUOUS
 62
     2
100
AcDbCircle
 10
1218.00350683596
 20
1959.000000000108
 30
0.0
 40
15.00000000000001
100
AcDbArc
 50
90.00000000000001
 51
147.0951725792534
  0
ARC
  5
4DA
330
1F
100
AcDbEntity
  8
化粧台
  6
CONTINUOUS
 62
     2
100
AcDbCircle
 10
1319.743471729781
 20
1977.000000000108
 30
0.0
 40
3.000000000000002
100
AcDbArc
 50
270.0000000000002
 51
357.9174347202712
  0
ARC
  5
4DB
330
1F
100
AcDbEntity
  8
化粧台
  6
CONTINUOUS
 62
     2
100
AcDbCircle
 10
1319.814877125299
 20
2034.000000000108
 30
0.0
 40
5.0
100
AcDbArc
 50
357.9174347202689
 51
90.00000000000001
  0
ARC
  5
4DC
330
1F
100
AcDbEntity
  8
化粧台
  6
CONTINUOUS
 62
     2
100
AcDbCircle
 10
1303.564042554858
 20
2028.739070429828
 30
0.0
 40
20.0
100
AcDbArc
 50
272.4895529219991
 51
307.8553251654786
  0
ARC
  5
4DD
330
1F
100
AcDbEntity
  8
化粧台
  6
CONTINUOUS
 62
     2
100
AcDbCircle
 10
1318.905786216207
 20
2009.000000000108
 30
0.0
 40
5.0
100
AcDbArc
 50
357.9174347202689
 51
127.8553251654777
  0
LINE
  5
4DE
330
1F
100
AcDbEntity
  8
化粧台
  6
CONTINUOUS
 62
     2
100
AcDbLine
 10
1322.741490223621
 20
1976.890981145787
 30
0.0
 11
1324.811574615032
 21
2033.818301909572
 31
0.0
  0
LINE
  5
4DF
330
1F
100
AcDbEntity
  8
化粧台
  6
CONTINUOUS
 62
     2
100
AcDbLine
 10
1195.000000000141
 20
2004.000000000108
 30
0.0
 11
1304.432787040386
 21
2008.757947262727
 31
0.0
  0
LINE
  5
4E0
330
1F
100
AcDbEntity
  8
化粧台
  6
CONTINUOUS
 62
     2
100
AcDbLine
 10
730.1851228749829
 20
2039.000000000108
 30
0.0
 11
1205.000000000969
 21
2039.000000000108
 31
0.0
  0
LINE
  5
4E1
330
1F
100
AcDbEntity
  8
化粧台
  6
CONTINUOUS
 62
     2
100
AcDbLine
 10
1255.000000000969
 20
2039.000000000108
 30
0.0
 11
1319.814877125299
 21
2039.000000000108
 31
0.0
  0
LINE
  5
4E2
330
1F
100
AcDbEntity
  8
化粧台
  6
CONTINUOUS
 62
     2
100
AcDbLine
 10
741.5000000001796
 20
1974.00000000014
 30
0.0
 11
741.5000000001796
 21
1257.5
 31
0.0
  0
ARC
  5
4E3
330
1F
100
AcDbEntity
  8
化粧台
  6
EXLTYPE2
 62
     6
100
AcDbCircle
 10
1352.000000000096
 20
1832.150000000065
 30
0.0
 40
200.0000000000001
100
AcDbArc
 50
148.544131348489
 51
180.0
  0
ARC
  5
4E4
330
1F
100
AcDbEntity
  8
化粧台
  6
EXLTYPE2
 62
     6
100
AcDbCircle
 10
1352.000000000096
 20
1826.450000000064
 30
0.0
 40
214.0000000000001
100
AcDbArc
 50
155.8006203273897
 51
180.0
  0
LINE
  5
4E5
330
1F
100
AcDbEntity
  8
化粧台
  6
EXLTYPE2
 62
     6
100
AcDbLine
 10
1228.000000000104
 20
1612.200000000041
 30
0.0
 11
1228.000000000104
 21
1974.00000000014
 31
0.0
  0
LINE
  5
4E6
330
1F
100
AcDbEntity
  8
化粧台
  6
EXLTYPE2
 62
     6
100
AcDbLine
 10
1242.000000000096
 20
1612.200000000041
 30
0.0
 11
1242.000000000096
 21
1974.00000000014
 31
0.0
  0
LINE
  5
4E7
330
1F
100
AcDbEntity
  8
化粧台
  6
CONTINUOUS
 62
     2
100
AcDbLine
 10
1307.000000000151
 20
1974.00000000014
 30
0.0
 11
1307.000000000151
 21
1842.5
 31
0.0
  0
LINE
  5
4E8
330
1F
100
AcDbEntity
  8
化粧台
  6
CONTINUOUS
 62
     2
100
AcDbLine
 10
1308.500000000184
 20
1974.00000000014
 30
0.0
 11
1308.500000000184
 21
1257.5
 31
0.0
  0
LINE
  5
4E9
330
1F
100
AcDbEntity
  8
化粧台
  6
CONTINUOUS
 62
     2
100
AcDbLine
 10
755.0000000001401
 20
1257.5
 30
0.0
 11
1295.00000000014
 21
1257.5
 31
0.0
  0
DIMENSION
  5
4EA
330
1F
100
AcDbEntity
  8
化粧台
  6
CONTINUOUS
 62
     3
100
AcDbDimension
  2
*D26
 10
1308.5000000002
 20
937.5
 30
0.0
 11
1025.00000000019
 21
972.749999910593
 31
0.0
 70
   160
  3
ISO-25
100
AcDbAlignedDimension
 13
741.50000000018
 23
1257.5
 33
0.0
 14
1308.5000000002
 24
1257.5
 34
0.0
100
AcDbRotatedDimension
1001
ACAD
1000
DSTYLE
1002
{
1070
   270
1070
     2
1070
     6
1000
EX_NORM
1070
     7
1000
EX_NORM
1070
    41
1040
44.99999618530273
1070
    42
1040
10.49999982118607
1070
    44
1040
15.0
1070
    73
1070
     0
1070
    74
1070
     0
1070
    75
1070
     0
1070
    76
1070
     0
1070
    77
1070
     1
1070
    78
1070
     8
1070
   140
1040
59.99999618530273
1070
   147
1040
0.0
1070
   173
1070
     1
1070
   176
1070
     3
1070
   177
1070
     3
1070
   178
1070
     2
1070
   271
1070
     1
1070
   277
1070
     2
1070
   279
1070
     2
1070
   280
1070
     0
1070
   287
1070
     5
1070
   340
1005
307
1002
}
  0
LINE
  5
4F7
330
1F
100
AcDbEntity
  8
化粧台
  6
CONTINUOUS
 62
     2
100
AcDbLine
 10
2528.000000000113
 20
2038.99999999997
 30
0.0
 11
2528.000000000113
 21
1863.99999999995
 31
0.0
  0
LINE
  5
4F8
330
1F
100
AcDbEntity
  8
化粧台
  6
CONTINUOUS
 62
     2
100
AcDbLine
 10
2247.500000000099
 20
1842.5
 30
0.0
 11
2268.000000000099
 21
1842.5
 31
0.0
  0
LINE
  5
4F9
330
1F
100
AcDbEntity
  8
化粧台
  6
CONTINUOUS
 62
     2
100
AcDbLine
 10
2249.000000000099
 20
1835.5
 30
0.0
 11
2266.000000000099
 21
1835.5
 31
0.0
  0
LINE
  5
4FA
330
1F
100
AcDbEntity
  8
化粧台
  6
CONTINUOUS
 62
     2
100
AcDbLine
 10
2249.000000000099
 20
1345.5
 30
0.0
 11
2266.000000000099
 21
1345.5
 31
0.0
  0
LINE
  5
4FB
330
1F
100
AcDbEntity
  8
化粧台
  6
CONTINUOUS
 62
     2
100
AcDbLine
 10
2249.000000000099
 20
1345.5
 30
0.0
 11
2249.000000000099
 21
1835.499999999999
 31
0.0
  0
LINE
  5
4FC
330
1F
100
AcDbEntity
  8
化粧台
  6
CONTINUOUS
 62
     2
100
AcDbLine
 10
2266.000000000099
 20
1345.5
 30
0.0
 11
2266.000000000099
 21
1835.499999999999
 31
0.0
  0
LINE
  5
4FD
330
1F
100
AcDbEntity
  8
化粧台
  6
CONTINUOUS
 62
     2
100
AcDbLine
 10
2268.000000000099
 20
1257.5
 30
0.0
 11
2528.000000000099
 21
1257.5
 31
0.0
  0
LINE
  5
4FE
330
1F
100
AcDbEntity
  8
化粧台
  6
CONTINUOUS
 62
     2
100
AcDbLine
 10
2309.000000000094
 20
1257.5
 30
0.0
 11
2309.000000000094
 21
1254.0
 31
0.0
  0
LINE
  5
4FF
330
1F
100
AcDbEntity
  8
化粧台
  6
CONTINUOUS
 62
     2
100
AcDbLine
 10
2297.000000000129
 20
1257.5
 30
0.0
 11
2297.000000000129
 21
1254.0
 31
0.0
  0
LINE
  5
500
330
1F
100
AcDbEntity
  8
化粧台
  6
CONTINUOUS
 62
     2
100
AcDbLine
 10
2297.000000000098
 20
1254.0
 30
0.0
 11
2309.000000000094
 21
1254.0
 31
0.0
  0
ARC
  5
501
330
1F
100
AcDbEntity
  8
化粧台
  6
CONTINUOUS
 62
     2
100
AcDbCircle
 10
2239.5000000001
 20
1790.5
 30
0.0
 40
18.5
100
AcDbArc
 50
163.3984504009939
 51
196.6015495990061
  0
LINE
  5
502
330
1F
100
AcDbEntity
  8
化粧台
  6
CONTINUOUS
 62
     2
100
AcDbLine
 10
2249.0000000001
 20
1786.0
 30
0.0
 11
2222.786557396651
 21
1784.501629662143
 31
0.0
  0
ARC
  5
503
330
1F
100
AcDbEntity
  8
化粧台
  6
CONTINUOUS
 62
     2
100
AcDbCircle
 10
2222.729490168852
 20
1785.5
 30
0.0
 40
1.0
100
AcDbArc
 50
196.6015495990198
 51
273.2714886349227
  0
LINE
  5
504
330
1F
100
AcDbEntity
  8
化粧台
  6
CONTINUOUS
 62
     2
100
AcDbLine
 10
2249.0000000001
 20
1795.0
 30
0.0
 11
2222.786557396651
 21
1796.498370337856
 31
0.0
  0
LINE
  5
505
330
1F
100
AcDbEntity
  8
化粧台
  6
CONTINUOUS
 62
     2
100
AcDbLine
 10
2249.0000000001
 20
1786.0
 30
0.0
 11
2249.0000000001
 21
1795.0
 31
0.0
  0
ARC
  5
506
330
1F
100
AcDbEntity
  8
化粧台
  6
CONTINUOUS
 62
     2
100
AcDbCircle
 10
2222.729490168852
 20
1795.5
 30
0.0
 40
1.0
100
AcDbArc
 50
86.72851136507767
 51
163.3984504009802
  0
LINE
  5
507
330
1F
100
AcDbEntity
  8
化粧台
  6
CONTINUOUS
 62
     6
100
AcDbLine
 10
2503.000000000052
 20
1783.999999999954
 30
0.0
 11
2538.000000000099
 21
1783.999999999954
 31
0.0
  0
LINE
  5
508
330
1F
100
AcDbEntity
  8
化粧台
  6
CONTINUOUS
 62
     6
100
AcDbLine
 10
2513.300005722061
 20
1783.999999999958
 30
0.0
 11
2575.500005722063
 21
1783.999999999958
 31
0.0
  0
LINE
  5
509
330
1F
100
AcDbEntity
  8
化粧台
  6
CONTINUOUS
 62
     6
100
AcDbLine
 10
2560.500005722063
 20
1783.999999999958
 30
0.0
 11
2528.000005722063
 21
1781.99999999996
 31
0.0
  0
LINE
  5
50A
330
1F
100
AcDbEntity
  8
化粧台
  6
CONTINUOUS
 62
     6
100
AcDbLine
 10
2528.000005722063
 20
1785.99999999996
 30
0.0
 11
2560.500005722063
 21
1783.999999999958
 31
0.0
  0
LINE
  5
50B
330
1F
100
AcDbEntity
  8
化粧台
  6
EXLTYPE4
 62
     6
100
AcDbLine
 10
2549.000000000099
 20
1713.0
 30
0.0
 11
2453.750000000139
 21
1713.0
 31
0.0
  0
LINE
  5
50C
330
1F
100
AcDbEntity
  8
化粧台
  6
EXLTYPE4
 62
     6
100
AcDbLine
 10
2549.000000000099
 20
1745.0
 30
0.0
 11
2453.750000000095
 21
1745.0
 31
0.0
  0
LINE
  5
50D
330
1F
100
AcDbEntity
  8
化粧台
  6
CONTINUOUS
 62
     6
100
AcDbLine
 10
2549.000000000102
 20
1745.0
 30
0.0
 11
2549.000000000102
 21
1713.0
 31
0.0
  0
LINE
  5
50E
330
1F
100
AcDbEntity
  8
化粧台
  6
EXLTYPE2
 62
     6
100
AcDbLine
 10
2474.500000000095
 20
1563.5
 30
0.0
 11
2536.000000000095
 21
1563.5
 31
0.0
  0
LINE
  5
50F
330
1F
100
AcDbEntity
  8
化粧台
  6
EXLTYPE2
 62
     6
100
AcDbLine
 10
2474.500000000095
 20
1584.5
 30
0.0
 11
2536.000000000095
 21
1584.5
 31
0.0
  0
LINE
  5
510
330
1F
100
AcDbEntity
  8
化粧台
  6
CONTINUOUS
 62
     6
100
AcDbLine
 10
2536.000000000095
 20
1584.5
 30
0.0
 11
2536.000000000095
 21
1563.5
 31
0.0
  0
LINE
  5
511
330
1F
100
AcDbEntity
  8
化粧台
  6
EXLTYPE3
 62
     6
100
AcDbLine
 10
2556.750000000097
 20
1728.999999999998
 30
0.0
 11
2452.650000000096
 21
1728.999999999998
 31
0.0
  0
LINE
  5
512
330
1F
100
AcDbEntity
  8
化粧台
  6
EXLTYPE2
 62
     6
100
AcDbLine
 10
2362.642588912776
 20
1846.589877715614
 30
0.0
 11
2359.090297380907
 21
1872.330547224205
 31
0.0
  0
LINE
  5
513
330
1F
100
AcDbEntity
  8
化粧台
  6
EXLTYPE2
 62
     6
100
AcDbLine
 10
2318.841358740614
 20
1883.656324434974
 30
0.0
 11
2350.055740135631
 21
1880.925419923936
 31
0.0
  0
ARC
  5
514
330
1F
100
AcDbEntity
  8
化粧台
  6
EXLTYPE2
 62
     6
100
AcDbCircle
 10
2349.184182708155
 20
1870.963472943019
 30
0.0
 40
10.0
100
AcDbArc
 50
7.857363790234437
 51
85.00000000000034
  0
ARC
  5
515
330
1F
100
AcDbEntity
  8
化粧台
  6
EXLTYPE2
 62
     6
100
AcDbCircle
 10
2365.614423314601
 20
1846.99999999997
 30
0.0
 40
3.000000000000002
100
AcDbArc
 50
187.8573637902339
 51
270.0000000000002
  0
ARC
  5
516
330
1F
100
AcDbEntity
  8
化粧台
  6
EXLTYPE2
 62
     6
100
AcDbCircle
 10
2440.385576685625
 20
1846.99999999997
 30
0.0
 40
3.000000000000003
100
AcDbArc
 50
270.0000000000002
 51
352.5295987197604
  0
ARC
  5
517
330
1F
100
AcDbEntity
  8
化粧台
  6
EXLTYPE2
 62
     6
100
AcDbCircle
 10
2446.334649635246
 20
1846.219916004443
 30
0.0
 40
3.000000000000003
100
AcDbArc
 50
94.99999999999989
 51
172.5295987197601
  0
LINE
  5
518
330
1F
100
AcDbEntity
  8
化粧台
  6
EXLTYPE2
 62
     6
100
AcDbLine
 10
2446.073182407004
 20
1849.208500098718
 30
0.0
 11
2451.521774780624
 21
1849.685190163584
 31
0.0
  0
LINE
  5
519
330
1F
100
AcDbEntity
  8
化粧台
  6
EXLTYPE2
 62
     6
100
AcDbLine
 10
2403.000000000113
 20
1898.99999999997
 30
0.0
 11
2403.000000000113
 21
1833.99999999997
 31
0.0
  0
LINE
  5
51A
330
1F
100
AcDbEntity
  8
化粧台
  6
EXLTYPE2
 62
     6
100
AcDbLine
 10
2513.000000000052
 20
1322.499999999877
 30
0.0
 11
2510.500000000078
 21
1322.499999999877
 31
0.0
  0
LINE
  5
51B
330
1F
100
AcDbEntity
  8
化粧台
  6
EXLTYPE2
 62
     6
100
AcDbLine
 10
2510.500000000078
 20
1817.499999999959
 30
0.0
 11
2510.500000000078
 21
1322.4999999999
 31
0.0
  0
LINE
  5
51C
330
1F
100
AcDbEntity
  8
化粧台
  6
EXLTYPE2
 62
     6
100
AcDbLine
 10
2513.000000000052
 20
1817.499999999959
 30
0.0
 11
2513.000000000052
 21
1322.499999999877
 31
0.0
  0
LINE
  5
51D
330
1F
100
AcDbEntity
  8
化粧台
  6
EXLTYPE2
 62
     6
100
AcDbLine
 10
2510.500000000078
 20
1817.499999999959
 30
0.0
 11
2528.000000000099
 21
1817.499999999959
 31
0.0
  0
LINE
  5
51E
330
1F
100
AcDbEntity
  8
化粧台
  6
EXLTYPE2
 62
     6
100
AcDbLine
 10
2476.000003814795
 20
1283.99999809265
 30
0.0
 11
2409.999996185398
 21
1283.99999809265
 31
0.0
  0
LINE
  5
51F
330
1F
100
AcDbEntity
  8
化粧台
  6
EXLTYPE2
 62
     6
100
AcDbLine
 10
2473.500003814795
 20
1306.999999999998
 30
0.0
 11
2412.499996185404
 21
1306.999999999998
 31
0.0
  0
LINE
  5
520
330
1F
100
AcDbEntity
  8
化粧台
  6
EXLTYPE2
 62
     6
100
AcDbLine
 10
2467.000000000097
 20
1322.000001907347
 30
0.0
 11
2419.000000000101
 21
1322.000001907347
 31
0.0
  0
LINE
  5
521
330
1F
100
AcDbEntity
  8
化粧台
  6
EXLTYPE2
 62
     6
100
AcDbLine
 10
2465.9999961854
 20
1324.046517734527
 30
0.0
 11
2420.000003814798
 21
1324.046517734527
 31
0.0
  0
LINE
  5
522
330
1F
100
AcDbEntity
  8
化粧台
  6
EXLTYPE2
 62
     6
100
AcDbLine
 10
2463.9999961854
 20
1341.846516971587
 30
0.0
 11
2422.000003814798
 21
1341.846516971587
 31
0.0
  0
ARC
  5
523
330
1F
100
AcDbEntity
  8
化粧台
  6
EXLTYPE2
 62
     6
100
AcDbCircle
 10
2422.000003814798
 20
1339.846516971587
 30
0.0
 40
2.0
100
AcDbArc
 50
89.99999567428607
 51
179.9999913485771
  0
LINE
  5
524
330
1F
100
AcDbEntity
  8
化粧台
  6
EXLTYPE2
 62
     6
100
AcDbLine
 10
2420.000003814798
 20
1339.846516971587
 30
0.0
 11
2420.000003814798
 21
1324.046517734527
 31
0.0
  0
ARC
  5
525
330
1F
100
AcDbEntity
  8
化粧台
  6
EXLTYPE2
 62
     6
100
AcDbCircle
 10
2409.999996185404
 20
1284.49999809265
 30
0.0
 40
0.5
100
AcDbArc
 50
180.0
 51
270.0000000000002
  0
ARC
  5
526
330
1F
100
AcDbEntity
  8
化粧台
  6
EXLTYPE2
 62
     6
100
AcDbCircle
 10
2412.499996185404
 20
1303.999999999998
 30
0.0
 40
3.000000000000002
100
AcDbArc
 50
90.00000250448174
 51
180.000005008957
  0
ARC
  5
527
330
1F
100
AcDbEntity
  8
化粧台
  6
EXLTYPE2
 62
     6
100
AcDbCircle
 10
2415.000000000101
 20
1307.999999999998
 30
0.0
 40
1.0
100
AcDbArc
 50
270.0000000000002
 51
0.0
  0
ARC
  5
528
330
1F
100
AcDbEntity
  8
化粧台
  6
EXLTYPE2
 62
     6
100
AcDbCircle
 10
2419.000000000101
 20
1319.000001907347
 30
0.0
 40
3.000000000000002
100
AcDbArc
 50
90.00000250448174
 51
180.000005008957
  0
LINE
  5
529
330
1F
100
AcDbEntity
  8
化粧台
  6
EXLTYPE2
 62
     6
100
AcDbLine
 10
2409.499996185404
 20
1303.999999999998
 30
0.0
 11
2409.499996185404
 21
1284.49999809265
 31
0.0
  0
LINE
  5
52A
330
1F
100
AcDbEntity
  8
化粧台
  6
EXLTYPE2
 62
     6
100
AcDbLine
 10
2422.299995422464
 20
1324.046517734527
 30
0.0
 11
2422.299995422464
 21
1321.999993769308
 31
0.0
  0
LINE
  5
52B
330
1F
100
AcDbEntity
  8
化粧台
  6
EXLTYPE2
 62
     6
100
AcDbLine
 10
2416.000000000101
 20
1319.000001907347
 30
0.0
 11
2416.000000000101
 21
1307.999999999998
 31
0.0
  0
ARC
  5
52C
330
1F
100
AcDbEntity
  8
化粧台
  6
EXLTYPE2
 62
     6
100
AcDbCircle
 10
2463.9999961854
 20
1339.846516971587
 30
0.0
 40
2.0
100
AcDbArc
 50
0.0000086514229809
 51
90.0000043257139
  0
LINE
  5
52D
330
1F
100
AcDbEntity
  8
化粧台
  6
EXLTYPE2
 62
     6
100
AcDbLine
 10
2465.9999961854
 20
1339.846516971587
 30
0.0
 11
2465.9999961854
 21
1324.046517734527
 31
0.0
  0
ARC
  5
52E
330
1F
100
AcDbEntity
  8
化粧台
  6
EXLTYPE2
 62
     6
100
AcDbCircle
 10
2476.000003814795
 20
1284.49999809265
 30
0.0
 40
0.5
100
AcDbArc
 50
270.0000000000002
 51
0.0
  0
ARC
  5
52F
330
1F
100
AcDbEntity
  8
化粧台
  6
EXLTYPE2
 62
     6
100
AcDbCircle
 10
2473.500003814795
 20
1303.999999999998
 30
0.0
 40
3.000000000000002
100
AcDbArc
 50
359.9999949910431
 51
89.99999749552043
  0
ARC
  5
530
330
1F
100
AcDbEntity
  8
化粧台
  6
EXLTYPE2
 62
     6
100
AcDbCircle
 10
2471.000000000097
 20
1307.999999999998
 30
0.0
 40
1.0
100
AcDbArc
 50
180.0
 51
270.0000000000002
  0
ARC
  5
531
330
1F
100
AcDbEntity
  8
化粧台
  6
EXLTYPE2
 62
     6
100
AcDbCircle
 10
2467.000000000097
 20
1319.000001907347
 30
0.0
 40
3.000000000000002
100
AcDbArc
 50
359.9999949910431
 51
89.99999749552043
  0
LINE
  5
532
330
1F
100
AcDbEntity
  8
化粧台
  6
EXLTYPE2
 62
     6
100
AcDbLine
 10
2476.500003814795
 20
1303.999999999998
 30
0.0
 11
2476.500003814795
 21
1284.49999809265
 31
0.0
  0
LINE
  5
533
330
1F
100
AcDbEntity
  8
化粧台
  6
EXLTYPE2
 62
     6
100
AcDbLine
 10
2463.700004577734
 20
1324.046517734527
 30
0.0
 11
2463.700004577734
 21
1321.999993769308
 31
0.0
  0
LINE
  5
534
330
1F
100
AcDbEntity
  8
化粧台
  6
EXLTYPE2
 62
     6
100
AcDbLine
 10
2470.000000000097
 20
1319.000001907347
 30
0.0
 11
2470.000000000097
 21
1307.999999999998
 31
0.0
  0
LINE
  5
535
330
1F
100
AcDbEntity
  8
化粧台
  6
EXLTYPE2
 62
     6
100
AcDbLine
 10
2403.000000000061
 20
1875.99999999996
 30
0.0
 11
2403.000000000061
 21
1658.999999999962
 31
0.0
  0
LINE
  5
536
330
1F
100
AcDbEntity
  8
化粧台
  6
EXLTYPE2
 62
     6
100
AcDbLine
 10
2403.000000000061
 20
1875.99999999996
 30
0.0
 11
2403.000000000061
 21
1658.999999999962
 31
0.0
  0
LINE
  5
537
330
1F
100
AcDbEntity
  8
化粧台
  6
EXLTYPE2
 62
     6
100
AcDbLine
 10
2419.20000000006
 20
1798.7
 30
0.0
 11
2422.75000000006
 21
1805.2
 31
0.0
  0
LINE
  5
538
330
1F
100
AcDbEntity
  8
化粧台
  6
EXLTYPE2
 62
     6
100
AcDbLine
 10
2424.250000000059
 20
1820.2
 30
0.0
 11
2424.250000000059
 21
1806.7
 31
0.0
  0
ARC
  5
539
330
1F
100
AcDbEntity
  8
化粧台
  6
EXLTYPE2
 62
     6
100
AcDbCircle
 10
2422.750000000059
 20
1806.7
 30
0.0
 40
1.5
100
AcDbArc
 50
270.0000000000002
 51
0.0
  0
LINE
  5
53A
330
1F
100
AcDbEntity
  8
化粧台
  6
EXLTYPE2
 62
     6
100
AcDbLine
 10
2386.80000000006
 20
1798.7
 30
0.0
 11
2383.25000000006
 21
1805.2
 31
0.0
  0
LINE
  5
53B
330
1F
100
AcDbEntity
  8
化粧台
  6
EXLTYPE2
 62
     6
100
AcDbLine
 10
2381.75000000006
 20
1820.2
 30
0.0
 11
2381.75000000006
 21
1806.7
 31
0.0
  0
ARC
  5
53C
330
1F
100
AcDbEntity
  8
化粧台
  6
EXLTYPE2
 62
     6
100
AcDbCircle
 10
2383.25000000006
 20
1806.7
 30
0.0
 40
1.5
100
AcDbArc
 50
180.0
 51
270.0000000000002
  0
LINE
  5
53D
330
1F
100
AcDbEntity
  8
化粧台
  6
EXLTYPE2
 62
     6
100
AcDbLine
 10
2386.80000000006
 20
1798.7
 30
0.0
 11
2419.20000000006
 21
1798.7
 31
0.0
  0
LINE
  5
53E
330
1F
100
AcDbEntity
  8
化粧台
  6
EXLTYPE2
 62
     6
100
AcDbLine
 10
2383.25000000006
 20
1805.2
 30
0.0
 11
2422.750000000059
 21
1805.2
 31
0.0
  0
LINE
  5
53F
330
1F
100
AcDbEntity
  8
化粧台
  6
EXLTYPE2
 62
     6
100
AcDbLine
 10
2374.50000000006
 20
1838.2
 30
0.0
 11
2431.50000000006
 21
1838.2
 31
0.0
  0
LINE
  5
540
330
1F
100
AcDbEntity
  8
化粧台
  6
EXLTYPE2
 62
     6
100
AcDbLine
 10
2374.50000000006
 20
1840.7
 30
0.0
 11
2431.50000000006
 21
1840.7
 31
0.0
  0
LINE
  5
541
330
1F
100
AcDbEntity
  8
化粧台
  6
EXLTYPE2
 62
     6
100
AcDbLine
 10
2374.500000000058
 20
1840.7
 30
0.0
 11
2374.500000000058
 21
1834.7
 31
0.0
  0
LINE
  5
542
330
1F
100
AcDbEntity
  8
化粧台
  6
EXLTYPE2
 62
     6
100
AcDbLine
 10
2374.500000000058
 20
1834.7
 30
0.0
 11
2431.50000000006
 21
1834.7
 31
0.0
  0
LINE
  5
543
330
1F
100
AcDbEntity
  8
化粧台
  6
EXLTYPE2
 62
     6
100
AcDbLine
 10
2431.50000000006
 20
1840.7
 30
0.0
 11
2431.50000000006
 21
1834.7
 31
0.0
  0
LINE
  5
544
330
1F
100
AcDbEntity
  8
化粧台
  6
EXLTYPE2
 62
     6
100
AcDbLine
 10
2377.600000000059
 20
1834.7
 30
0.0
 11
2377.600000000059
 21
1822.2
 31
0.0
  0
ARC
  5
545
330
1F
100
AcDbEntity
  8
化粧台
  6
EXLTYPE2
 62
     6
100
AcDbCircle
 10
2379.600000000059
 20
1822.2
 30
0.0
 40
2.0
100
AcDbArc
 50
180.0
 51
270.0000000000002
  0
LINE
  5
546
330
1F
100
AcDbEntity
  8
化粧台
  6
EXLTYPE2
 62
     6
100
AcDbLine
 10
2428.400000000059
 20
1834.7
 30
0.0
 11
2428.400000000059
 21
1822.2
 31
0.0
  0
ARC
  5
547
330
1F
100
AcDbEntity
  8
化粧台
  6
EXLTYPE2
 62
     6
100
AcDbCircle
 10
2426.400000000059
 20
1822.2
 30
0.0
 40
2.0
100
AcDbArc
 50
270.0000000000002
 51
0.0
  0
LINE
  5
548
330
1F
100
AcDbEntity
  8
化粧台
  6
EXLTYPE2
 62
     6
100
AcDbLine
 10
2379.600000000059
 20
1820.2
 30
0.0
 11
2426.400000000059
 21
1820.2
 31
0.0
  0
ARC
  5
549
330
1F
100
AcDbEntity
  8
化粧台
  6
EXLTYPE2
 62
     6
100
AcDbCircle
 10
2406.961516188059
 20
1639.547912245001
 30
0.0
 40
15.00000000000001
100
AcDbArc
 50
216.1437885097004
 51
310.3739745502023
  0
ARC
  5
54A
330
1F
100
AcDbEntity
  8
化粧台
  6
EXLTYPE2
 62
     6
100
AcDbCircle
 10
2427.150000000059
 20
1654.293254606
 30
0.0
 40
40.0
100
AcDbArc
 50
180.0
 51
216.1437885097004
  0
LINE
  5
54B
330
1F
100
AcDbEntity
  8
化粧台
  6
EXLTYPE2
 62
     6
100
AcDbLine
 10
2387.150000000059
 20
1692.05
 30
0.0
 11
2418.850000000059
 21
1692.05
 31
0.0
  0
ARC
  5
54C
330
1F
100
AcDbEntity
  8
化粧台
  6
EXLTYPE2
 62
     6
100
AcDbCircle
 10
2395.178125000059
 20
1607.200000000001
 30
0.0
 40
1.5
100
AcDbArc
 50
180.0
 51
270.0000000000002
  0
LINE
  5
54D
330
1F
100
AcDbEntity
  8
化粧台
  6
EXLTYPE2
 62
     6
100
AcDbLine
 10
2393.678125000059
 20
1607.200000000001
 30
0.0
 11
2393.678125000059
 21
1622.200000000001
 31
0.0
  0
ARC
  5
54E
330
1F
100
AcDbEntity
  8
化粧台
  6
EXLTYPE2
 62
     6
100
AcDbCircle
 10
2424.40000000006
 20
1745.7
 30
0.0
 40
2.0
100
AcDbArc
 50
0.0
 51
90.00000000000001
  0
ARC
  5
54F
330
1F
100
AcDbEntity
  8
化粧台
  6
EXLTYPE2
 62
     6
100
AcDbCircle
 10
2381.600000000059
 20
1745.7
 30
0.0
 40
2.0
100
AcDbArc
 50
90.00000000000001
 51
180.0
  0
LINE
  5
550
330
1F
100
AcDbEntity
  8
化粧台
  6
EXLTYPE2
 62
     6
100
AcDbLine
 10
2426.40000000006
 20
1745.7
 30
0.0
 11
2426.40000000006
 21
1729.700000000001
 31
0.0
  0
LINE
  5
551
330
1F
100
AcDbEntity
  8
化粧台
  6
EXLTYPE2
 62
     6
100
AcDbLine
 10
2379.600000000059
 20
1745.7
 30
0.0
 11
2379.600000000059
 21
1729.700000000001
 31
0.0
  0
LINE
  5
552
330
1F
100
AcDbEntity
  8
化粧台
  6
EXLTYPE2
 62
     6
100
AcDbLine
 10
2381.600000000059
 20
1747.700000000001
 30
0.0
 11
2424.40000000006
 21
1747.700000000001
 31
0.0
  0
LINE
  5
553
330
1F
100
AcDbEntity
  8
化粧台
  6
EXLTYPE2
 62
     6
100
AcDbLine
 10
2379.600000000059
 20
1729.700000000001
 30
0.0
 11
2426.40000000006
 21
1729.700000000001
 31
0.0
  0
LINE
  5
554
330
1F
100
AcDbEntity
  8
化粧台
  6
EXLTYPE2
 62
     6
100
AcDbLine
 10
2384.50000000006
 20
1694.700000000001
 30
0.0
 11
2387.150000000059
 21
1692.05
 31
0.0
  0
LINE
  5
555
330
1F
100
AcDbEntity
  8
化粧台
  6
EXLTYPE2
 62
     6
100
AcDbLine
 10
2421.50000000006
 20
1694.700000000001
 30
0.0
 11
2418.850000000059
 21
1692.05
 31
0.0
  0
LINE
  5
556
330
1F
100
AcDbEntity
  8
化粧台
  6
EXLTYPE2
 62
     6
100
AcDbLine
 10
2399.178125000059
 20
1626.725321960001
 30
0.0
 11
2399.178125000059
 21
1622.200000000001
 31
0.0
  0
LINE
  5
557
330
1F
100
AcDbEntity
  8
化粧台
  6
EXLTYPE2
 62
     6
100
AcDbLine
 10
2418.850000000059
 20
1692.05
 30
0.0
 11
2418.850000000059
 21
1651.700000000001
 31
0.0
  0
LINE
  5
558
330
1F
100
AcDbEntity
  8
化粧台
  6
EXLTYPE2
 62
     6
100
AcDbLine
 10
2387.150000000059
 20
1692.05
 30
0.0
 11
2387.150000000059
 21
1654.293254606
 31
0.0
  0
LINE
  5
559
330
1F
100
AcDbEntity
  8
化粧台
  6
EXLTYPE2
 62
     6
100
AcDbLine
 10
2421.50000000006
 20
1729.700000000001
 30
0.0
 11
2421.50000000006
 21
1694.700000000001
 31
0.0
  0
LINE
  5
55A
330
1F
100
AcDbEntity
  8
化粧台
  6
EXLTYPE2
 62
     6
100
AcDbLine
 10
2384.50000000006
 20
1729.700000000001
 30
0.0
 11
2384.50000000006
 21
1694.700000000001
 31
0.0
  0
LINE
  5
55B
330
1F
100
AcDbEntity
  8
化粧台
  6
EXLTYPE2
 62
     6
100
AcDbLine
 10
2387.150000000059
 20
1798.7
 30
0.0
 11
2387.150000000059
 21
1747.700000000001
 31
0.0
  0
LINE
  5
55C
330
1F
100
AcDbEntity
  8
化粧台
  6
EXLTYPE2
 62
     6
100
AcDbLine
 10
2418.85000000006
 20
1798.7
 30
0.0
 11
2418.85000000006
 21
1747.700000000001
 31
0.0
  0
LINE
  5
55D
330
1F
100
AcDbEntity
  8
化粧台
  6
EXLTYPE2
 62
     6
100
AcDbLine
 10
2458.50000000006
 20
1341.84651697159
 30
0.0
 11
2458.50000000006
 21
1711.1
 31
0.0
  0
LINE
  5
55E
330
1F
100
AcDbEntity
  8
化粧台
  6
EXLTYPE2
 62
     6
100
AcDbLine
 10
2395.178125000059
 20
1605.700000000001
 30
0.0
 11
2408.630601860896
 21
1605.700000000001
 31
0.0
  0
LINE
  5
55F
330
1F
100
AcDbEntity
  8
化粧台
  6
EXLTYPE2
 62
     6
100
AcDbLine
 10
2393.678125000059
 20
1622.200000000001
 30
0.0
 11
2426.800000000059
 21
1622.200000000001
 31
0.0
  0
ARC
  5
560
330
1F
100
AcDbEntity
  8
化粧台
  6
EXLTYPE2
 62
     6
100
AcDbCircle
 10
2423.250000000061
 20
1577.99999999996
 30
0.0
 40
7.500000000000006
100
AcDbArc
 50
0.0
 51
90.00000000000001
  0
LINE
  5
561
330
1F
100
AcDbEntity
  8
化粧台
  6
EXLTYPE2
 62
     6
100
AcDbLine
 10
2419.500000000061
 20
1609.49999999996
 30
0.0
 11
2425.000000000061
 21
1609.49999999996
 31
0.0
  0
LINE
  5
562
330
1F
100
AcDbEntity
  8
化粧台
  6
EXLTYPE2
 62
     6
100
AcDbLine
 10
2419.500000000061
 20
1585.49999999996
 30
0.0
 11
2423.250000000061
 21
1585.49999999996
 31
0.0
  0
LINE
  5
563
330
1F
100
AcDbEntity
  8
化粧台
  6
EXLTYPE2
 62
     6
100
AcDbLine
 10
2406.600000000059
 20
1602.799999999961
 30
0.0
 11
2406.600000000059
 21
1592.199999999961
 31
0.0
  0
LINE
  5
564
330
1F
100
AcDbEntity
  8
化粧台
  6
EXLTYPE2
 62
     6
100
AcDbLine
 10
2419.500000000061
 20
1610.24999999996
 30
0.0
 11
2419.500000000061
 21
1584.74999999996
 31
0.0
  0
ARC
  5
565
330
1F
100
AcDbEntity
  8
化粧台
  6
EXLTYPE2
 62
     6
100
AcDbCircle
 10
2415.72508278242
 20
1606.24999999996
 30
0.0
 40
5.5
100
AcDbArc
 50
46.65824177280091
 51
142.8123740608005
  0
LINE
  5
566
330
1F
100
AcDbEntity
  8
化粧台
  6
EXLTYPE2
 62
     6
100
AcDbLine
 10
2406.600000000059
 20
1602.799999999961
 30
0.0
 11
2411.34345017778
 21
1609.574348916351
 31
0.0
  0
ARC
  5
567
330
1F
100
AcDbEntity
  8
化粧台
  6
EXLTYPE2
 62
     6
100
AcDbCircle
 10
2415.72508278242
 20
1588.74999999996
 30
0.0
 40
5.5
100
AcDbArc
 50
217.1876259391994
 51
313.3417582272003
  0
LINE
  5
568
330
1F
100
AcDbEntity
  8
化粧台
  6
EXLTYPE2
 62
     6
100
AcDbLine
 10
2406.600000000059
 20
1592.199999999961
 30
0.0
 11
2411.34345017778
 21
1585.425651083571
 31
0.0
  0
LINE
  5
569
330
1F
100
AcDbEntity
  8
化粧台
  6
EXLTYPE2
 62
     6
100
AcDbLine
 10
2411.34345017778
 20
1609.574348916351
 30
0.0
 11
2411.34345017778
 21
1585.425651083471
 31
0.0
  0
LINE
  5
56A
330
1F
100
AcDbEntity
  8
化粧台
  6
EXLTYPE2
 62
     6
100
AcDbLine
 10
2401.000000000061
 20
1592.74999999996
 30
0.0
 11
2406.600000000059
 21
1592.74999999996
 31
0.0
  0
LINE
  5
56B
330
1F
100
AcDbEntity
  8
化粧台
  6
EXLTYPE2
 62
     6
100
AcDbLine
 10
2401.000000000061
 20
1602.24999999996
 30
0.0
 11
2406.600000000059
 21
1602.24999999996
 31
0.0
  0
LINE
  5
56C
330
1F
100
AcDbEntity
  8
化粧台
  6
EXLTYPE2
 62
     6
100
AcDbLine
 10
2401.000000000061
 20
1602.24999999996
 30
0.0
 11
2401.000000000061
 21
1592.74999999996
 31
0.0
  0
ARC
  5
56D
330
1F
100
AcDbEntity
  8
化粧台
  6
EXLTYPE2
 62
     6
100
AcDbCircle
 10
2416.000000000061
 20
1597.49999999996
 30
0.0
 40
40.0
100
AcDbArc
 50
352.1483099782984
 51
14.36151156291629
  0
ARC
  5
56E
330
1F
100
AcDbEntity
  8
化粧台
  6
EXLTYPE2
 62
     6
100
AcDbCircle
 10
2495.250000000061
 20
1586.571253502763
 30
0.0
 40
40.0
100
AcDbArc
 50
172.1483099782986
 51
180.0
  0
LINE
  5
56F
330
1F
100
AcDbEntity
  8
化粧台
  6
EXLTYPE2
 62
     6
100
AcDbLine
 10
2455.250000000061
 20
1562.499999999958
 30
0.0
 11
2457.722431864399
 21
1563.927459202387
 31
0.0
  0
ARC
  5
570
330
1F
100
AcDbEntity
  8
化粧台
  6
EXLTYPE2
 62
     6
100
AcDbCircle
 10
2462.750000000061
 20
1577.365389352135
 30
0.0
 40
7.500000000000006
100
AcDbArc
 50
180.0
 51
227.9065017039047
  0
LINE
  5
571
330
1F
100
AcDbEntity
  8
化粧台
  6
EXLTYPE2
 62
     6
100
AcDbLine
 10
2455.250000000061
 20
1586.571253502763
 30
0.0
 11
2455.250000000061
 21
1577.365389352135
 31
0.0
  0
LINE
  5
572
330
1F
100
AcDbEntity
  8
化粧台
  6
EXLTYPE2
 62
     6
100
AcDbLine
 10
2457.722431864399
 20
1563.92745920239
 30
0.0
 11
2457.722431864399
 21
1571.799999999961
 31
0.0
  0
LINE
  5
573
330
1F
100
AcDbEntity
  8
化粧台
  6
EXLTYPE2
 62
     6
100
AcDbLine
 10
2430.750000000057
 20
1562.499999999958
 30
0.0
 11
2428.277568135719
 21
1563.927459202387
 31
0.0
  0
ARC
  5
574
330
1F
100
AcDbEntity
  8
化粧台
  6
EXLTYPE2
 62
     6
100
AcDbCircle
 10
2423.250000000061
 20
1577.365389352135
 30
0.0
 40
7.500000000000006
100
AcDbArc
 50
312.0934982960959
 51
0.0
  0
LINE
  5
575
330
1F
100
AcDbEntity
  8
化粧台
  6
EXLTYPE2
 62
     6
100
AcDbLine
 10
2428.277568135719
 20
1563.92745920239
 30
0.0
 11
2428.277568135719
 21
1571.799999999961
 31
0.0
  0
LINE
  5
576
330
1F
100
AcDbEntity
  8
化粧台
  6
EXLTYPE2
 62
     6
100
AcDbLine
 10
2455.250000000068
 20
1562.49999999996
 30
0.0
 11
2430.75000000005
 21
1562.49999999996
 31
0.0
  0
ARC
  5
577
330
1F
100
AcDbEntity
  8
化粧台
  6
EXLTYPE2
 62
     6
100
AcDbCircle
 10
2444.750000000061
 20
1626.199999999961
 30
0.0
 40
11.0
100
AcDbArc
 50
326.9442688491002
 51
33.05573115089991
  0
LINE
  5
578
330
1F
100
AcDbEntity
  8
化粧台
  6
EXLTYPE2
 62
     6
100
AcDbLine
 10
2453.969544457351
 20
1632.199999999961
 30
0.0
 11
2432.030455542769
 21
1632.199999999961
 31
0.0
  0
ARC
  5
579
330
1F
100
AcDbEntity
  8
化粧台
  6
EXLTYPE2
 62
     6
100
AcDbCircle
 10
2441.250000000061
 20
1626.199999999961
 30
0.0
 40
11.0
100
AcDbArc
 50
146.9442688491499
 51
213.0557311508992
  0
LINE
  5
57A
330
1F
100
AcDbEntity
  8
化粧台
  6
EXLTYPE2
 62
     6
100
AcDbLine
 10
2430.750000000061
 20
1577.99999999996
 30
0.0
 11
2430.750000000061
 21
1577.365389352135
 31
0.0
  0
LINE
  5
57B
330
1F
100
AcDbEntity
  8
化粧台
  6
EXLTYPE2
 62
     6
100
AcDbLine
 10
2449.000000000057
 20
1632.199999999959
 30
0.0
 11
2449.000000000057
 21
1849.522837084935
 31
0.0
  0
LINE
  5
57C
330
1F
100
AcDbEntity
  8
化粧台
  6
EXLTYPE2
 62
     6
100
AcDbLine
 10
2437.000000000061
 20
1632.199999999959
 30
0.0
 11
2437.000000000061
 21
1844.5
 31
0.0
  0
LINE
  5
57D
330
1F
100
AcDbEntity
  8
化粧台
  6
EXLTYPE2
 62
     6
100
AcDbLine
 10
2432.500000000061
 20
1562.49999999996
 30
0.0
 11
2432.500000000061
 21
1280.99999999996
 31
0.0
  0
ARC
  5
57E
330
1F
100
AcDbEntity
  8
化粧台
  6
EXLTYPE2
 62
     6
100
AcDbCircle
 10
2384.37655090056
 20
1651.7129706584
 30
0.0
 40
40.0
100
AcDbArc
 50
323.8562114902995
 51
0.0
  0
LINE
  5
57F
330
1F
100
AcDbEntity
  8
化粧台
  6
EXLTYPE2
 62
     6
100
AcDbLine
 10
2424.37655090056
 20
1701.7
 30
0.0
 11
2424.37655090056
 21
1651.7129706584
 31
0.0
  0
LINE
  5
580
330
1F
100
AcDbEntity
  8
化粧台
  6
EXLTYPE2
 62
     6
100
AcDbLine
 10
2421.50000000006
 20
1699.700000000001
 30
0.0
 11
2424.376550900559
 21
1699.700000000001
 31
0.0
  0
LINE
  5
581
330
1F
100
AcDbEntity
  8
化粧台
  6
EXLTYPE2
 62
     6
100
AcDbLine
 10
2418.850000000059
 20
1681.700000000001
 30
0.0
 11
2424.376550900559
 21
1681.700000000001
 31
0.0
  0
LINE
  5
582
330
1F
100
AcDbEntity
  8
化粧台
  6
EXLTYPE2
 62
     6
100
AcDbLine
 10
2418.850000000059
 20
1656.700000000001
 30
0.0
 11
2424.376550900559
 21
1656.700000000001
 31
0.0
  0
ARC
  5
583
330
1F
100
AcDbEntity
  8
化粧台
  6
EXLTYPE2
 62
     6
100
AcDbCircle
 10
2425.58827545031
 20
1701.3
 30
0.0
 40
1.211724549749761
100
AcDbArc
 50
0.0
 51
180.0
  0
ARC
  5
584
330
1F
100
AcDbEntity
  8
化粧台
  6
EXLTYPE2
 62
     6
100
AcDbCircle
 10
2493.500000000061
 20
1617.343134832945
 30
0.0
 40
40.0
100
AcDbArc
 50
180.0
 51
194.3615115629164
  0
LINE
  5
585
330
1F
100
AcDbEntity
  8
化粧台
  6
EXLTYPE2
 62
     6
100
AcDbLine
 10
2453.969544457351
 20
1620.199999999961
 30
0.0
 11
2432.030455542769
 21
1620.199999999961
 31
0.0
  0
LINE
  5
586
330
1F
100
AcDbEntity
  8
化粧台
  6
EXLTYPE2
 62
     6
100
AcDbLine
 10
2432.500000000061
 20
1620.199999999961
 30
0.0
 11
2432.500000000061
 21
1616.99999999996
 31
0.0
  0
LINE
  5
587
330
1F
100
AcDbEntity
  8
化粧台
  6
EXLTYPE2
 62
     6
100
AcDbLine
 10
2453.500000000061
 20
1620.199999999961
 30
0.0
 11
2453.500000000061
 21
1617.343134832941
 31
0.0
  0
ARC
  5
588
330
1F
100
AcDbEntity
  8
化粧台
  6
EXLTYPE2
 62
     6
100
AcDbCircle
 10
2425.000000000021
 20
1617.0
 30
0.0
 40
7.500000000038202
100
AcDbArc
 50
270.0000000000002
 51
0.0
  0
LINE
  5
589
330
1F
100
AcDbEntity
  8
化粧台
  6
EXLTYPE2
 62
     6
100
AcDbLine
 10
2426.800000000059
 20
1701.528125000001
 30
0.0
 11
2426.800000000059
 21
1609.719203340263
 31
0.0
  0
LINE
  5
58A
330
1F
100
AcDbEntity
  8
化粧台
  6
EXLTYPE2
 62
     6
100
AcDbLine
 10
2426.800000000059
 20
1584.606625462327
 30
0.0
 11
2426.800000000059
 21
1341.84651697159
 31
0.0
  0
LINE
  5
58B
330
1F
100
AcDbEntity
  8
化粧台
  6
EXLTYPE2
 62
     6
100
AcDbLine
 10
2396.000005722061
 20
1597.49999999996
 30
0.0
 11
2460.725004796359
 21
1597.49999999996
 31
0.0
  0
ARC
  5
58C
330
1F
100
AcDbEntity
  8
化粧台
  6
EXLTYPE2
 62
     6
100
AcDbCircle
 10
2433.88500555156
 20
1711.450345822979
 30
0.0
 40
24.61499444850051
100
AcDbArc
 50
0.0
 51
52.11661267612578
  0
ARC
  5
58D
330
1F
100
AcDbEntity
  8
化粧台
  6
EXLTYPE2
 62
     6
100
AcDbCircle
 10
2433.88500555156
 20
1711.450345822979
 30
0.0
 40
24.61499444850051
100
AcDbArc
 50
82.72980252722901
 51
107.7030137526023
  0
LINE
  5
58E
330
1F
100
AcDbEntity
  8
化粧台
  6
EXLTYPE2
 62
     6
100
AcDbLine
 10
2443.000000000099
 20
1351.846516971587
 30
0.0
 11
2443.000000000099
 21
1239.2
 31
0.0
  0
LINE
  5
58F
330
1F
100
AcDbEntity
  8
化粧台
  6
EXLTYPE2
 62
     6
100
AcDbLine
 10
2374.50000000006
 20
1840.7
 30
0.0
 11
2379.725000000013
 21
1843.99999999997
 31
0.0
  0
LINE
  5
590
330
1F
100
AcDbEntity
  8
化粧台
  6
EXLTYPE2
 62
     6
100
AcDbLine
 10
2426.275000000107
 20
1843.99999999997
 30
0.0
 11
2431.50000000006
 21
1840.7
 31
0.0
  0
LINE
  5
591
330
1F
100
AcDbEntity
  8
化粧台
  6
EXLTYPE2
 62
     6
100
AcDbLine
 10
2494.800000000092
 20
1355.499999999959
 30
0.0
 11
2494.800000000092
 21
1315.499999999956
 31
0.0
  0
LINE
  5
592
330
1F
100
AcDbEntity
  8
化粧台
  6
EXLTYPE2
 62
     6
100
AcDbLine
 10
2494.800000000092
 20
1315.499999999956
 30
0.0
 11
2509.800000000139
 21
1315.499999999956
 31
0.0
  0
LINE
  5
593
330
1F
100
AcDbEntity
  8
化粧台
  6
EXLTYPE2
 62
     6
100
AcDbLine
 10
2509.800000000139
 20
1358.00000000005
 30
0.0
 11
2509.800000000139
 21
1315.499999999956
 31
0.0
  0
LINE
  5
594
330
1F
100
AcDbEntity
  8
化粧台
  6
EXLTYPE2
 62
     6
100
AcDbLine
 10
2426.800000000059
 20
1358.000000000047
 30
0.0
 11
2351.0000000002
 21
1358.000000000047
 31
0.0
  0
LINE
  5
595
330
1F
100
AcDbEntity
  8
化粧台
  6
EXLTYPE2
 62
     6
100
AcDbLine
 10
2426.800000000059
 20
1355.500000000027
 30
0.0
 11
2351.0000000002
 21
1355.500000000027
 31
0.0
  0
LINE
  5
596
330
1F
100
AcDbEntity
  8
化粧台
  6
EXLTYPE2
 62
     6
100
AcDbLine
 10
2509.80000000014
 20
1358.000000000047
 30
0.0
 11
2458.50000000006
 21
1358.000000000047
 31
0.0
  0
LINE
  5
597
330
1F
100
AcDbEntity
  8
化粧台
  6
EXLTYPE2
 62
     6
100
AcDbLine
 10
2509.80000000012
 20
1355.500000000027
 30
0.0
 11
2458.50000000006
 21
1355.500000000027
 31
0.0
  0
LINE
  5
598
330
1F
100
AcDbEntity
  8
化粧台
  6
EXLTYPE2
 62
     6
100
AcDbLine
 10
2365.614423314601
 20
1843.99999999997
 30
0.0
 11
2403.000000000113
 21
1843.99999999997
 31
0.0
  0
LINE
  5
599
330
1F
100
AcDbEntity
  8
化粧台
  6
EXLTYPE2
 62
     6
100
AcDbLine
 10
2403.0000000001
 20
1843.99999999997
 30
0.0
 11
2440.385576685625
 21
1843.99999999997
 31
0.0
  0
LINE
  5
59A
330
1F
100
AcDbEntity
  8
化粧台
  6
EXLTYPE2
 62
     6
100
AcDbLine
 10
2356.621924411516
 20
1881.3933644245
 30
0.0
 11
2435.863934228297
 21
1881.3933644245
 31
0.0
  0
LINE
  5
59B
330
1F
100
AcDbEntity
  8
化粧台
  6
EXLTYPE2
 62
     6
100
AcDbLine
 10
2525.933934172084
 20
1858.92367166559
 30
0.0
 11
2435.9462503506
 21
1881.718328180045
 31
0.0
  0
ARC
  5
59C
330
1F
100
AcDbEntity
  8
化粧台
  6
EXLTYPE2
 62
     6
100
AcDbCircle
 10
2446.728208929504
 20
1904.47589855863
 30
0.0
 40
55.00000000000004
100
AcDbArc
 50
274.9999999999988
 51
319.0903700927721
  0
LINE
  5
59D
330
1F
100
AcDbEntity
  8
化粧台
  6
CONTINUOUS
 62
     2
100
AcDbLine
 10
2528.000000000099
 20
1863.99999999997
 30
0.0
 11
2528.000000000099
 21
1257.5
 31
0.0
  0
LINE
  5
59E
330
1F
100
AcDbEntity
  8
化粧台
  6
EXLTYPE2
 62
     6
100
AcDbLine
 10
2366.000000000199
 20
1343.500000000032
 30
0.0
 11
2271.000000000199
 21
1343.500000000032
 31
0.0
  0
LINE
  5
59F
330
1F
100
AcDbEntity
  8
化粧台
  6
EXLTYPE2
 62
     6
100
AcDbLine
 10
2271.0000000002
 20
1358.500000000032
 30
0.0
 11
2271.000000000199
 21
1343.500000000032
 31
0.0
  0
LINE
  5
5A0
330
1F
100
AcDbEntity
  8
化粧台
  6
EXLTYPE2
 62
     6
100
AcDbLine
 10
2351.0000000002
 20
1358.500000000032
 30
0.0
 11
2271.0000000002
 21
1358.500000000032
 31
0.0
  0
LINE
  5
5A1
330
1F
100
AcDbEntity
  8
化粧台
  6
EXLTYPE2
 62
     6
100
AcDbLine
 10
2271.000000000126
 20
1344.5
 30
0.0
 11
2271.000000000126
 21
1257.5
 31
0.0
  0
LINE
  5
5A2
330
1F
100
AcDbEntity
  8
化粧台
  6
EXLTYPE2
 62
     6
100
AcDbLine
 10
2286.000000000126
 20
1343.500000000032
 30
0.0
 11
2286.000000000126
 21
1257.5
 31
0.0
  0
LINE
  5
5A3
330
1F
100
AcDbEntity
  8
化粧台
  6
EXLTYPE2
 62
     6
100
AcDbLine
 10
2366.000000000199
 20
1355.500000000033
 30
0.0
 11
2351.0000000002
 21
1355.500000000033
 31
0.0
  0
LINE
  5
5A4
330
1F
100
AcDbEntity
  8
化粧台
  6
EXLTYPE2
 62
     6
100
AcDbLine
 10
2351.0000000002
 20
1358.500000000032
 30
0.0
 11
2351.0000000002
 21
1355.500000000033
 31
0.0
  0
LINE
  5
5A5
330
1F
100
AcDbEntity
  8
化粧台
  6
EXLTYPE2
 62
     6
100
AcDbLine
 10
2366.000000000199
 20
1355.500000000033
 30
0.0
 11
2366.000000000199
 21
1343.500000000032
 31
0.0
  0
LINE
  5
5A6
330
1F
100
AcDbEntity
  8
化粧台
  6
EXLTYPE2
 62
     6
100
AcDbLine
 10
2351.0000000002
 20
1358.000000000047
 30
0.0
 11
2351.0000000002
 21
1355.500000000047
 31
0.0
  0
LINE
  5
5A7
330
1F
100
AcDbEntity
  8
化粧台
  6
CONTINUOUS
 62
     2
100
AcDbLine
 10
2494.00000000011
 20
1257.5
 30
0.0
 11
2494.00000000011
 21
1254.0
 31
0.0
  0
LINE
  5
5A8
330
1F
100
AcDbEntity
  8
化粧台
  6
CONTINUOUS
 62
     2
100
AcDbLine
 10
2482.000000000099
 20
1257.5
 30
0.0
 11
2482.000000000099
 21
1254.0
 31
0.0
  0
LINE
  5
5A9
330
1F
100
AcDbEntity
  8
化粧台
  6
CONTINUOUS
 62
     2
100
AcDbLine
 10
2482.000000000098
 20
1254.0
 30
0.0
 11
2494.000000000099
 21
1254.0
 31
0.0
  0
LINE
  5
5AA
330
1F
100
AcDbEntity
  8
化粧台
  6
CONTINUOUS
 62
     2
100
AcDbLine
 10
2242.875230942403
 20
1981.130311672887
 30
0.0
 11
2238.207948429597
 21
1873.782813878659
 31
0.0
  0
LINE
  5
5AB
330
1F
100
AcDbEntity
  8
化粧台
  6
CONTINUOUS
 62
     2
100
AcDbLine
 10
2245.872399417459
 20
1984.000000000058
 30
0.0
 11
2528.000000000099
 21
1984.000000000058
 31
0.0
  0
ARC
  5
5AC
330
1F
100
AcDbEntity
  8
化粧台
  6
CONTINUOUS
 62
     2
100
AcDbCircle
 10
2245.872399417459
 20
1981.000000000058
 30
0.0
 40
3.000000000000002
100
AcDbArc
 50
90.00000000000001
 51
177.5104470780026
  0
ARC
  5
5AD
330
1F
100
AcDbEntity
  8
化粧台
  6
CONTINUOUS
 62
     2
100
AcDbCircle
 10
2239.692817974038
 20
1977.000000000058
 30
0.0
 40
3.000000000000002
100
AcDbArc
 50
270.0000000000002
 51
357.5104470780028
  0
LINE
  5
5AE
330
1F
100
AcDbEntity
  8
化粧台
  6
CONTINUOUS
 62
     2
100
AcDbLine
 10
2235.535462764282
 20
1974.000000000058
 30
0.0
 11
2239.692817974038
 21
1974.000000000058
 31
0.0
  0
ARC
  5
5AF
330
1F
100
AcDbEntity
  8
化粧台
  6
CONTINUOUS
 62
     2
100
AcDbCircle
 10
2235.535462764282
 20
1977.000000000058
 30
0.0
 40
3.000000000000002
100
AcDbArc
 50
189.5940682268655
 51
270.0000000000002
  0
ARC
  5
5B0
330
1F
100
AcDbEntity
  8
化粧台
  6
CONTINUOUS
 62
     2
100
AcDbCircle
 10
2233.000000000098
 20
2004.000000000058
 30
0.0
 40
5.0
100
AcDbArc
 50
180.0000000000002
 51
189.5940682268592
  0
LINE
  5
5B1
330
1F
100
AcDbEntity
  8
化粧台
  6
CONTINUOUS
 62
     2
100
AcDbLine
 10
2228.069933514179
 20
2003.166666666726
 30
0.0
 11
2232.577422872733
 21
1976.500000000058
 31
0.0
  0
ARC
  5
5B2
330
1F
100
AcDbEntity
  8
化粧台
  6
CONTINUOUS
 62
     2
100
AcDbCircle
 10
2163.000000000098
 20
1999.000000000058
 30
0.0
 40
5.0
100
AcDbArc
 50
90.00000000000001
 51
183.5724826096913
  0
ARC
  5
5B3
330
1F
100
AcDbEntity
  8
化粧台
  6
CONTINUOUS
 62
     2
100
AcDbCircle
 10
2163.000000000098
 20
2491.500000000058
 30
0.0
 40
487.4999999999997
100
AcDbArc
 50
270.0000000000002
 51
277.6622556607654
  0
ARC
  5
5B4
330
1F
100
AcDbEntity
  8
化粧台
  6
CONTINUOUS
 62
     2
100
AcDbCircle
 10
2233.000000000098
 20
2009.000000000058
 30
0.0
 40
5.0
100
AcDbArc
 50
90.00000000000001
 51
180.0000000000002
  0
ARC
  5
5B5
330
1F
100
AcDbEntity
  8
化粧台
  6
CONTINUOUS
 62
     2
100
AcDbCircle
 10
2244.355281156227
 20
1900.062822258888
 30
0.0
 40
5.0
100
AcDbArc
 50
62.78007261292363
 51
177.5104470779939
  0
ARC
  5
5B6
330
1F
100
AcDbEntity
  8
化粧台
  6
CONTINUOUS
 62
     2
100
AcDbCircle
 10
2327.679366995556
 20
2009.281346505984
 30
0.0
 40
170.0
100
AcDbArc
 50
183.5724826096917
 51
235.0734784673748
  0
ARC
  5
5B7
330
1F
100
AcDbEntity
  8
化粧台
  6
CONTINUOUS
 62
     2
100
AcDbCircle
 10
2233.212667637826
 20
1874.000000000058
 30
0.0
 40
5.0
100
AcDbArc
 50
235.0734784673726
 51
357.5104470780592
  0
ARC
  5
5B8
330
1F
100
AcDbEntity
  8
化粧台
  6
CONTINUOUS
 62
     2
100
AcDbCircle
 10
2501.70788147549
 20
2034.000000000058
 30
0.0
 40
5.0
100
AcDbArc
 50
90.00000000000001
 51
163.1195105726872
  0
LINE
  5
5B9
330
1F
100
AcDbEntity
  8
化粧台
  6
CONTINUOUS
 62
     2
100
AcDbLine
 10
2528.000000000099
 20
2039.000000000058
 30
0.0
 11
2501.70788147549
 21
2039.000000000058
 31
0.0
  0
LINE
  5
5BA
330
1F
100
AcDbEntity
  8
化粧台
  6
CONTINUOUS
 62
     2
100
AcDbLine
 10
2496.923318877604
 20
2035.451881795147
 30
0.0
 11
2491.490398336113
 21
2017.548118204972
 31
0.0
  0
ARC
  5
5BB
330
1F
100
AcDbEntity
  8
化粧台
  6
CONTINUOUS
 62
     2
100
AcDbCircle
 10
2486.705835738225
 20
2019.000000000058
 30
0.0
 40
5.0
100
AcDbArc
 50
270.0000000000002
 51
343.1195105726896
  0
LINE
  5
5BC
330
1F
100
AcDbEntity
  8
化粧台
  6
CONTINUOUS
 62
     2
100
AcDbLine
 10
2486.705835738225
 20
2014.000000000058
 30
0.0
 11
2233.000000000098
 21
2014.000000000058
 31
0.0
  0
LINE
  5
5BD
330
1F
100
AcDbEntity
  8
化粧台
  6
CONTINUOUS
 62
     2
100
AcDbLine
 10
2228.000000000098
 20
2004.000000000058
 30
0.0
 11
2228.000000000098
 21
2009.000000000058
 31
0.0
  0
LINE
  5
5BE
330
1F
100
AcDbEntity
  8
化粧台
  6
CONTINUOUS
 62
     2
100
AcDbLine
 10
2528.000000000099
 20
2039.000000000058
 30
0.0
 11
2528.000000000099
 21
1984.000000000058
 31
0.0
  0
LINE
  5
5BF
330
1F
100
AcDbEntity
  8
化粧台
  6
CONTINUOUS
 62
     2
100
AcDbLine
 10
2248.000000000094
 20
1981.00000000004
 30
0.0
 11
2268.500000000094
 21
1981.00000000004
 31
0.0
  0
LINE
  5
5C0
330
1F
100
AcDbEntity
  8
化粧台
  6
CONTINUOUS
 62
     2
100
AcDbLine
 10
2268.500000000094
 20
1984.00000000004
 30
0.0
 11
2528.000000000095
 21
1984.00000000004
 31
0.0
  0
ARC
  5
5C1
330
1F
100
AcDbEntity
  8
化粧台
  6
CONTINUOUS
 62
     2
100
AcDbCircle
 10
2501.707881475508
 20
2034.00000000006
 30
0.0
 40
5.0
100
AcDbArc
 50
90.00000000000001
 51
163.1195105726872
  0
LINE
  5
5C2
330
1F
100
AcDbEntity
  8
化粧台
  6
CONTINUOUS
 62
     2
100
AcDbLine
 10
2528.000000000117
 20
2039.00000000006
 30
0.0
 11
2501.707881475508
 21
2039.00000000006
 31
0.0
  0
LINE
  5
5C3
330
1F
100
AcDbEntity
  8
化粧台
  6
CONTINUOUS
 62
     2
100
AcDbLine
 10
2247.500000000099
 20
1842.5
 30
0.0
 11
2247.500000000099
 21
1981.0
 31
0.0
  0
LINE
  5
5C4
330
1F
100
AcDbEntity
  8
化粧台
  6
CONTINUOUS
 62
     2
100
AcDbLine
 10
2268.000000000099
 20
1257.5
 30
0.0
 11
2268.000000000099
 21
1981.0
 31
0.0
  0
ARC
  5
5C5
330
1F
100
AcDbEntity
  8
化粧台
  6
EXLTYPE2
 62
     6
100
AcDbCircle
 10
2335.836728576406
 20
2077.914290562865
 30
0.0
 40
195.0000000000001
100
AcDbArc
 50
249.6422585559242
 51
265.0000000000005
  0
LINE
  5
5C6
330
1F
100
AcDbEntity
  8
化粧台
  6
EXLTYPE4
 62
     6
100
AcDbLine
 10
1650.0
 20
1254.0
 30
0.0
 11
425.0000000001366
 21
1254.0
 31
0.0
  0
LINE
  5
5C7
330
1F
100
AcDbEntity
  8
化粧台
  6
EXLTYPE3
 62
     6
100
AcDbLine
 10
2558.4
 20
1574.099999999998
 30
0.0
 11
2479.400000000197
 21
1574.099999999998
 31
0.0
  0
LINE
  5
5C8
330
1F
100
AcDbEntity
  8
化粧台
  6
CONTINUOUS
 62
     6
100
AcDbLine
 10
842.500000000101
 20
1784.0
 30
0.0
 11
817.5000000000991
 21
1784.0
 31
0.0
  0
CIRCLE
  5
5C9
330
1F
100
AcDbEntity
  8
化粧台
  6
EXLTYPE2
 62
     6
100
AcDbCircle
 10
830.000000000101
 20
1784.0
 30
0.0
 40
7.500000000000014
  0
LINE
  5
5CA
330
1F
100
AcDbEntity
  8
化粧台
  6
EXLTYPE3
 62
     6
100
AcDbLine
 10
830.0000000001837
 20
1771.600000000099
 30
0.0
 11
830.0000000001837
 21
1796.8000000001
 31
0.0
  0
LINE
  5
5CB
330
1F
100
AcDbEntity
  8
化粧台
  6
CONTINUOUS
 62
     6
100
AcDbLine
 10
1207.500000000182
 20
1784.0
 30
0.0
 11
1232.500000000184
 21
1784.0
 31
0.0
  0
CIRCLE
  5
5CC
330
1F
100
AcDbEntity
  8
化粧台
  6
EXLTYPE2
 62
     6
100
AcDbCircle
 10
1220.000000000182
 20
1784.0
 30
0.0
 40
7.500000000000014
  0
LINE
  5
5CD
330
1F
100
AcDbEntity
  8
化粧台
  6
EXLTYPE3
 62
     6
100
AcDbLine
 10
1220.00000000018
 20
1771.600000000099
 30
0.0
 11
1220.00000000018
 21
1796.8000000001
 31
0.0
  0
DIMENSION
  5
5CE
330
1F
100
AcDbEntity
  8
化粧台
  6
CONTINUOUS
 62
     3
100
AcDbDimension
  2
*D27
 10
1235.0000000001
 20
3519.0
 30
0.0
 11
1430.0000000001
 21
3554.249999910593
 31
0.0
 70
   160
  1
90（壁給水）
  3
ISO-25
100
AcDbAlignedDimension
 13
1145.0000000001
 23
3401.4
 33
0.0
 14
1235.0000000001
 24
3384.0
 34
0.0
100
AcDbRotatedDimension
1001
ACAD
1000
DSTYLE
1002
{
1070
   270
1070
     2
1070
     6
1000
EX_NORM
1070
     7
1000
EX_NORM
1070
    41
1040
29.99999809265137
1070
    42
1040
10.49999982118607
1070
    44
1040
15.0
1070
    73
1070
     0
1070
    74
1070
     0
1070
    75
1070
     0
1070
    76
1070
     0
1070
    77
1070
     1
1070
    78
1070
     8
1070
   140
1040
59.99999618530273
1070
   147
1040
0.0
1070
   173
1070
     1
1070
   176
1070
     3
1070
   177
1070
     3
1070
   178
1070
     2
1070
   271
1070
     1
1070
   277
1070
     2
1070
   279
1070
     2
1070
   280
1070
     2
1070
   287
1070
     5
1070
   340
1005
307
1002
}
  0
DIMENSION
  5
5DB
330
1F
100
AcDbEntity
  8
化粧台
  6
CONTINUOUS
 62
     3
100
AcDbDimension
  2
*D28
 10
1065.0000000001
 20
3517.5
 30
0.0
 11
830.0000000001004
 21
3552.749999910593
 31
0.0
 70
   160
  1
40（壁排水）
  3
ISO-25
100
AcDbAlignedDimension
 13
1025.0000000001
 23
3372.0
 33
0.0
 14
1065.0000000001
 24
3388.5
 34
0.0
100
AcDbRotatedDimension
1001
ACAD
1000
DSTYLE
1002
{
1070
   270
1070
     2
1070
     6
1000
EX_NORM
1070
     7
1000
EX_NORM
1070
    41
1040
29.99999809265137
1070
    42
1040
10.49999982118607
1070
    44
1040
15.0
1070
    73
1070
     0
1070
    74
1070
     0
1070
    75
1070
     0
1070
    76
1070
     0
1070
    77
1070
     1
1070
    78
1070
     8
1070
   140
1040
59.99999618530273
1070
   147
1040
0.0
1070
   173
1070
     1
1070
   176
1070
     3
1070
   177
1070
     3
1070
   178
1070
     2
1070
   271
1070
     1
1070
   277
1070
     2
1070
   279
1070
     2
1070
   280
1070
     1
1070
   287
1070
     5
1070
   340
1005
307
1002
}
  0
DIMENSION
  5
5EA
330
1F
100
AcDbEntity
  8
化粧台
  6
CONTINUOUS
 62
     3
100
AcDbDimension
  2
*D29
 10
1220.0000000001
 20
3648.0
 30
0.0
 11
1025.00000000012
 21
3683.249999910593
 31
0.0
 70
   160
  1
390（壁固定）
  3
ISO-25
100
AcDbAlignedDimension
 13
830.00000000014
 23
3408.5
 33
0.0
 14
1220.0000000001
 24
3408.5
 34
0.0
100
AcDbRotatedDimension
1001
ACAD
1000
DSTYLE
1002
{
1070
   270
1070
     2
1070
     6
1000
EX_NORM
1070
     7
1000
EX_NORM
1070
    41
1040
44.99999618530273
1070
    42
1040
10.49999982118607
1070
    44
1040
15.0
1070
    73
1070
     0
1070
    74
1070
     0
1070
    75
1070
     1
1070
    76
1070
     0
1070
    77
1070
     1
1070
    78
1070
     8
1070
   140
1040
59.99999618530273
1070
   147
1040
0.0
1070
   173
1070
     1
1070
   176
1070
     3
1070
   177
1070
     3
1070
   178
1070
     2
1070
   271
1070
     1
1070
   277
1070
     2
1070
   279
1070
     2
1070
   280
1070
     0
1070
   287
1070
     5
1070
   340
1005
307
1002
}
  0
LINE
  5
5F6
330
1F
100
AcDbEntity
  8
化粧台
  6
CONTINUOUS
 62
     3
100
AcDbLine
 10
830.0000000001402
 20
3595.5
 30
0.0
 11
830.0000000001402
 21
3663.0
 31
0.0
  0
LINE
  5
5F7
330
1F
100
AcDbEntity
  8
化粧台
  6
CONTINUOUS
 62
     3
100
AcDbLine
 10
830.0000000001402
 20
3418.999999821186
 30
0.0
 11
830.0000000001402
 21
3505.5
 31
0.0
  0
DIMENSION
  5
5F8
330
1F
100
AcDbEntity
  8
化粧台
  6
CONTINUOUS
 62
     3
100
AcDbDimension
  2
*D30
 10
1576.5
 20
1254.0000000001
 30
0.0
 11
1541.250000089407
 21
1646.5000000001
 31
0.0
 70
   160
  3
ISO-25
100
AcDbAlignedDimension
 13
1319.8148771253
 23
2039.0000000001
 33
0.0
 14
1515.0
 24
1254.0000000001
 34
0.0
 50
90.0
100
AcDbRotatedDimension
1001
ACAD
1000
DSTYLE
1002
{
1070
   270
1070
     2
1070
     6
1000
EX_NORM
1070
     7
1000
EX_NORM
1070
    41
1040
44.99999618530273
1070
    42
1040
10.49999982118607
1070
    44
1040
15.0
1070
    73
1070
     0
1070
    74
1070
     0
1070
    75
1070
     0
1070
    76
1070
     0
1070
    77
1070
     1
1070
    78
1070
     8
1070
   140
1040
59.99999618530273
1070
   147
1040
0.0
1070
   173
1070
     1
1070
   176
1070
     3
1070
   177
1070
     3
1070
   178
1070
     2
1070
   271
1070
     1
1070
   277
1070
     2
1070
   279
1070
     2
1070
   280
1070
     0
1070
   287
1070
     5
1070
   340
1005
307
1002
}
  0
LINE
  5
605
330
1F
100
AcDbEntity
  8
化粧台
  6
EXLTYPE2
 62
     6
100
AcDbLine
 10
2427.150000000059
 20
1280.99999999996
 30
0.0
 11
2427.150000000059
 21
1257.5
 31
0.0
  0
LINE
  5
606
330
1F
100
AcDbEntity
  8
化粧台
  6
EXLTYPE2
 62
     6
100
AcDbLine
 10
2432.500000000061
 20
1280.99999999996
 30
0.0
 11
2432.500000000061
 21
1257.5
 31
0.0
  0
LINE
  5
607
330
1F
100
AcDbEntity
  8
化粧台
  6
EXLTYPE2
 62
     6
100
AcDbLine
 10
2453.500000000061
 20
1562.49999999996
 30
0.0
 11
2453.500000000061
 21
1257.5
 31
0.0
  0
LINE
  5
608
330
1F
100
AcDbEntity
  8
化粧台
  6
EXLTYPE2
 62
     6
100
AcDbLine
 10
2458.850000000063
 20
1257.499999999993
 30
0.0
 11
2458.850000000063
 21
1280.99999999996
 31
0.0
  0
LINE
  5
609
330
1F
100
AcDbEntity
  8
化粧台
  6
CONTINUOUS
 62
     6
100
AcDbLine
 10
2427.150000000061
 20
1223.49999999996
 30
0.0
 11
2458.850000000061
 21
1223.49999999996
 31
0.0
  0
LINE
  5
60A
330
1F
100
AcDbEntity
  8
化粧台
  6
CONTINUOUS
 62
     6
100
AcDbLine
 10
2427.150000000059
 20
1254.0
 30
0.0
 11
2427.150000000059
 21
1223.5
 31
0.0
  0
LINE
  5
60B
330
1F
100
AcDbEntity
  8
化粧台
  6
CONTINUOUS
 62
     6
100
AcDbLine
 10
2432.500000000061
 20
1254.0
 30
0.0
 11
2432.500000000061
 21
1245.5
 31
0.0
  0
LINE
  5
60C
330
1F
100
AcDbEntity
  8
化粧台
  6
CONTINUOUS
 62
     6
100
AcDbLine
 10
2453.500000000061
 20
1254.0
 30
0.0
 11
2453.500000000061
 21
1245.5
 31
0.0
  0
LINE
  5
60D
330
1F
100
AcDbEntity
  8
化粧台
  6
CONTINUOUS
 62
     6
100
AcDbLine
 10
2458.850000000061
 20
1223.5
 30
0.0
 11
2458.850000000063
 21
1254.000000000003
 31
0.0
  0
LINE
  5
60E
330
1F
100
AcDbEntity
  8
化粧台
  6
CONTINUOUS
 62
     6
100
AcDbLine
 10
2432.5000000001
 20
1245.5
 30
0.0
 11
2453.5000000001
 21
1245.5
 31
0.0
  0
ELLIPSE
  5
60F
330
1F
100
AcDbEntity
  8
化粧台
  6
CONTINUOUS
 62
     6
100
AcDbEllipse
 10
1115.8273465747
 20
3219.44455258585
 30
0.0
 11
-5.13030214989999
 21
14.09538931174984
 31
0.0
210
0.0
220
0.0
230
1.0
 40
0.2000000000024553
 41
0.0
 42
6.283185307179586
  0
ELLIPSE
  5
610
330
1F
100
AcDbEntity
  8
化粧台
  6
CONTINUOUS
 62
     6
100
AcDbEllipse
 10
1205.41801039665
 20
3252.0528569225
 30
0.0
 11
-2.052120859949908
 21
5.63815572469999
 31
0.0
210
0.0
220
0.0
230
1.0
 40
0.2499999999967845
 41
3.141592653572209
 42
6.283185307179586
  0
LINE
  5
611
330
1F
100
AcDbEntity
  8
化粧台
  6
CONTINUOUS
 62
     6
100
AcDbLine
 10
1207.825630855273
 20
3257.185900757566
 30
0.0
 11
1205.100522255025
 21
3256.194042341933
 31
0.0
  0
LINE
  5
612
330
1F
100
AcDbEntity
  8
化粧台
  6
CONTINUOUS
 62
     6
100
AcDbLine
 10
1110.893618773323
 20
3233.611489109491
 30
0.0
 11
1209.110573515003
 21
3269.359537135734
 31
0.0
  0
LINE
  5
613
330
1F
100
AcDbEntity
  8
化粧台
  6
CONTINUOUS
 62
     6
100
AcDbLine
 10
1208.000000000137
 20
3261.000000000037
 30
0.0
 11
1252.000000000137
 21
3261.000000000037
 31
0.0
  0
LINE
  5
614
330
1F
100
AcDbEntity
  8
化粧台
  6
CONTINUOUS
 62
     6
100
AcDbLine
 10
1230.000000000137
 20
3239.000000000037
 30
0.0
 11
1230.000000000137
 21
3283.000000000037
 31
0.0
  0
CIRCLE
  5
615
330
1F
100
AcDbEntity
  8
化粧台
  6
CONTINUOUS
 62
     6
100
AcDbCircle
 10
1230.0000000001
 20
3261.0
 30
0.0
 40
22.5
  0
LINE
  5
616
330
1F
100
AcDbEntity
  8
化粧台
  6
CONTINUOUS
 62
     6
100
AcDbLine
 10
1210.561792001903
 20
3249.668359791292
 30
0.0
 11
1207.836683401628
 21
3248.676501375649
 31
0.0
  0
LINE
  5
617
330
1F
100
AcDbEntity
  8
化粧台
  6
EXLTYPE3
 62
     6
100
AcDbLine
 10
1230.000000000969
 20
1997.55
 30
0.0
 11
1230.000000000969
 21
2161.5
 31
0.0
  0
LINE
  5
618
330
1F
100
AcDbEntity
  8
化粧台
  6
CONTINUOUS
 62
     6
100
AcDbLine
 10
1230.000000000969
 20
2005.5217391306
 30
0.0
 11
1203.00000000097
 21
2005.5217391306
 31
0.0
  0
CIRCLE
  5
619
330
1F
100
AcDbEntity
  8
化粧台
  6
CONTINUOUS
 62
     6
100
AcDbCircle
 10
1198.981345647184
 20
2011.612911936082
 30
0.0
 40
2.1000366
  0
CIRCLE
  5
61A
330
1F
100
AcDbEntity
  8
化粧台
  6
CONTINUOUS
 62
     6
100
AcDbCircle
 10
1200.689472160685
 20
2015.603253559082
 30
0.0
 40
2.1000366
  0
ELLIPSE
  5
61B
330
1F
100
AcDbEntity
  8
化粧台
  6
CONTINUOUS
 62
     6
100
AcDbEllipse
 10
1202.06270639685
 20
2017.56190173845
 30
0.0
 11
1.972293603150092
 21
2.653098261549986
 31
0.0
210
0.0
220
0.0
230
1.0
 40
0.4394100487536486
 41
1.285102748245467
 42
1.842528939451141
  0
ELLIPSE
  5
61C
330
1F
100
AcDbEntity
  8
化粧台
  6
CONTINUOUS
 62
     6
100
AcDbEllipse
 10
1202.025
 20
2017.5525
 30
0.0
 11
1.679999999999988
 21
2.347500000000136
 31
0.0
210
0.0
220
0.0
230
1.0
 40
0.3745687272207198
 41
1.36914498094135
 42
1.772475355443592
  0
CIRCLE
  5
61D
330
1F
100
AcDbEntity
  8
化粧台
  6
CONTINUOUS
 62
     6
100
AcDbCircle
 10
1198.495653071395
 20
2007.231486400182
 30
0.0
 40
2.1000366
  0
ARC
  5
61E
330
1F
100
AcDbEntity
  8
化粧台
  6
CONTINUOUS
 62
     6
100
AcDbCircle
 10
1196.833674257495
 20
2003.102485998982
 30
0.0
 40
2.1000366
100
AcDbArc
 50
30.19359900390612
 51
154.6985862606192
  0
LINE
  5
61F
330
1F
100
AcDbEntity
  8
化粧台
  6
CONTINUOUS
 62
     2
100
AcDbLine
 10
823.2575899818178
 20
3061.000000000037
 30
0.0
 11
730.0000000001385
 21
3061.000000000037
 31
0.0
  0
ARC
  5
620
330
1F
100
AcDbEntity
  8
化粧台
  6
CONTINUOUS
 62
     2
100
AcDbCircle
 10
1025.000000000138
 20
3171.000000000037
 30
0.0
 40
170.0
100
AcDbArc
 50
118.5139152596804
 51
19.81739685824659
  0
TEXT
  5
621
330
1F
100
AcDbEntity
  8
化粧台
  6
CONTINUOUS
 62
     2
100
AcDbText
 10
457.5000005367152
 20
3301.000003814697
 30
0.0
 40
59.99999618530273
  1
W.L.
 41
0.5571963512150634
  7
EXCADSTD
 72
     5
 11
548.2434005367152
 21
3301.000003814697
 31
0.0
100
AcDbText
  0
TEXT
  5
622
330
1F
100
AcDbEntity
  8
化粧台
  6
CONTINUOUS
 62
     2
100
AcDbText
 10
445.4999999999935
 20
1254.0
 30
0.0
 40
59.99999618530273
  1
F.L.
 41
0.6227488631227183
  7
EXCADSTD
 72
     5
 11
536.2433999999935
 21
1254.0
 31
0.0
100
AcDbText
  0
CIRCLE
  5
623
330
1F
100
AcDbEntity
  8
化粧台
  6
EXLTYPE2
 62
     6
100
AcDbCircle
 10
1016.000000000222
 20
1827.5
 30
0.0
 40
4.0
  0
CIRCLE
  5
624
330
1F
100
AcDbEntity
  8
化粧台
  6
EXLTYPE2
 62
     6
100
AcDbCircle
 10
1034.000000000141
 20
1827.5
 30
0.0
 40
4.0
  0
LINE
  5
625
330
1F
100
AcDbEntity
  8
化粧台
  6
EXLTYPE2
 62
     6
100
AcDbLine
 10
998.750000000141
 20
1788.50000000004
 30
0.0
 11
1051.250000000141
 21
1788.50000000004
 31
0.0
  0
LINE
  5
626
330
1F
100
AcDbEntity
  8
化粧台
  6
CONTINUOUS
 62
     2
100
AcDbLine
 10
1024.000000000141
 20
1835.5
 30
0.0
 11
1024.000000000141
 21
1430.1
 31
0.0
  0
LINE
  5
627
330
1F
100
AcDbEntity
  8
化粧台
  6
CONTINUOUS
 62
     2
100
AcDbLine
 10
1026.00000000014
 20
1835.5
 30
0.0
 11
1026.00000000014
 21
1430.1
 31
0.0
  0
LINE
  5
628
330
1F
100
AcDbEntity
  8
化粧台
  6
CONTINUOUS
 62
     6
100
AcDbLine
 10
1142.454232868109
 20
3222.750849430329
 30
0.0
 11
1207.470131256589
 21
3246.414701197831
 31
0.0
  0
ARC
  5
629
330
1F
100
AcDbEntity
  8
化粧台
  6
CONTINUOUS
 62
     6
100
AcDbCircle
 10
1230.0000000001
 20
3261.0
 30
0.0
 40
27.0
100
AcDbArc
 50
233.7489885957386
 51
237.1604741010481
  0
LINE
  5
62A
330
1F
100
AcDbEntity
  8
化粧台
  6
EXLTYPE2
 62
     3
100
AcDbLine
 10
1173.307716954835
 20
3184.102380367493
 30
0.0
 11
1217.781210725375
 21
3237.103826343779
 31
0.0
  0
ELLIPSE
  5
62B
330
1F
100
AcDbEntity
  8
化粧台
  6
EXLTYPE2
 62
     3
100
AcDbEllipse
 10
1213.184944066697
 20
3240.960552001866
 30
0.0
 11
-4.596266658702584
 21
3.856725658107898
 31
0.0
210
0.0
220
0.0
230
1.0
 40
0.2499999999967845
 41
3.141592653572209
 42
6.283185307179586
  0
LINE
  5
62C
330
1F
100
AcDbEntity
  8
化粧台
  6
EXLTYPE2
 62
     3
100
AcDbLine
 10
1212.703482629003
 20
3246.609708591083
 30
0.0
 11
1210.839398560933
 21
3244.388179706064
 31
0.0
  0
ARC
  5
62D
330
1F
100
AcDbEntity
  8
化粧台
  6
CONTINUOUS
 62
     6
100
AcDbCircle
 10
1230.0000000001
 20
3261.0
 30
0.0
 40
27.0
100
AcDbArc
 50
237.1604741011217
 51
166.2510114039619
  0
ARC
  5
62E
330
1F
100
AcDbEntity
  8
化粧台
  6
CONTINUOUS
 62
     2
100
AcDbCircle
 10
1025.000131458339
 20
3236.089548496029
 30
0.0
 40
20.5
100
AcDbArc
 50
102.3445136012618
 51
90.61875407890697
  0
CIRCLE
  5
62F
330
1F
100
AcDbEntity
  8
化粧台
  6
CONTINUOUS
 62
     6
100
AcDbCircle
 10
1077.975545753755
 20
3242.606918508243
 30
0.0
 40
2.1000366
  0
ARC
  5
630
330
1F
100
AcDbEntity
  8
化粧台
  6
CONTINUOUS
 62
     6
100
AcDbCircle
 10
1025.007756278804
 20
3244.639648399959
 30
0.0
 40
8.639966040000004
100
AcDbArc
 50
294.0516357400017
 51
245.9483642599983
  0
LINE
  5
631
330
1F
100
AcDbEntity
  8
化粧台
  6
EXLTYPE3
 62
     6
100
AcDbLine
 10
1025.000000000138
 20
3372.0
 30
0.0
 11
1025.000000000138
 21
2976.0
 31
0.0
  0
LINE
  5
632
330
1F
100
AcDbEntity
  8
化粧台
  6
EXLTYPE3
 62
     6
100
AcDbLine
 10
979.500000000138
 20
3236.000000000037
 30
0.0
 11
1070.500000000138
 21
3236.000000000037
 31
0.0
  0
ARC
  5
633
330
1F
100
AcDbEntity
  8
化粧台
  6
CONTINUOUS
 62
     2
100
AcDbCircle
 10
1025.000000000138
 20
3236.000000000037
 30
0.0
 40
30.50000000000002
100
AcDbArc
 50
96.87705378156737
 51
90.00000000000001
  0
ELLIPSE
  5
634
330
1F
100
AcDbEntity
  8
化粧台
  6
CONTINUOUS
 62
     2
100
AcDbEllipse
 10
1025.000000000138
 20
3307.173898276909
 30
0.0
 11
12.00000000000001
 21
0.0
 31
0.0
210
0.0
220
0.0
230
1.0
 40
0.2903763590166665
 41
0.0
 42
6.283185307179586
  0
ELLIPSE
  5
635
330
1F
100
AcDbEntity
  8
化粧台
  6
EXLTYPE2
 62
     3
100
AcDbEllipse
 10
1168.711428295581
 20
3187.959124486255
 30
0.0
 11
-4.596266658702437
 21
3.856725658107532
 31
0.0
210
0.0
220
0.0
230
1.0
 40
0.2500000000067646
 41
0.0
 42
6.283185307179586
  0
LINE
  5
636
330
1F
100
AcDbEntity
  8
化粧台
  6
EXLTYPE2
 62
     3
100
AcDbLine
 10
1164.115183637458
 20
3191.815831683684
 30
0.0
 11
1208.588677407998
 21
3244.817277659971
 31
0.0
  0
ELLIPSE
  5
637
330
1F
100
AcDbEntity
  8
化粧台
  6
CONTINUOUS
 62
     6
100
AcDbEllipse
 10
1140.40210218545
 20
3228.3890321427
 30
0.0
 11
-2.052120859949965
 21
5.638155724699601
 31
0.0
210
0.0
220
0.0
230
1.0
 40
0.2500000000067645
 41
0.0
 42
6.283185307179586
  0
LINE
  5
638
330
1F
100
AcDbEntity
  8
化粧台
  6
CONTINUOUS
 62
     6
100
AcDbLine
 10
1138.349991148222
 20
3234.027160879693
 30
0.0
 11
1203.365889536702
 21
3257.691012647196
 31
0.0
  0
LINE
  5
639
330
1F
100
AcDbEntity
  8
化粧台
  6
EXLTYPE2
 62
     3
100
AcDbLine
 10
1218.83183817397
 20
3241.467407713615
 30
0.0
 11
1216.967754105881
 21
3239.245878828573
 31
0.0
  0
LINE
  5
63A
330
1F
100
AcDbEntity
  8
化粧台
  6
CONTINUOUS
 62
     6
100
AcDbLine
 10
1121.154223073094
 20
3205.420710485912
 30
0.0
 11
1219.371177814674
 21
3241.168758512121
 31
0.0
  0
ELLIPSE
  5
63B
330
1F
100
AcDbEntity
  8
化粧台
  6
CONTINUOUS
 62
     6
100
AcDbEllipse
 10
1202.06270639685
 20
2017.56190173845
 30
0.0
 11
1.972293603150092
 21
2.653098261549986
 31
0.0
210
0.0
220
0.0
230
1.0
 40
0.4394100487536486
 41
4.474628678597051
 42
6.792450729802056
  0
ELLIPSE
  5
63C
330
1F
100
AcDbEntity
  8
化粧台
  6
CONTINUOUS
 62
     6
100
AcDbEllipse
 10
1202.025
 20
2017.5525
 30
0.0
 11
1.679999999999988
 21
2.347500000000136
 31
0.0
210
0.0
220
0.0
230
1.0
 40
0.3745687272207198
 41
4.529889091386531
 42
6.631729845778613
  0
LINE
  5
63D
330
1F
100
AcDbEntity
  8
化粧台
  6
EXLTYPE3
 62
     6
100
AcDbLine
 10
1215.000000000099
 20
1577.50000000004
 30
0.0
 11
1262.5000000001
 21
1577.50000000004
 31
0.0
  0
LINE
  5
63E
330
1F
100
AcDbEntity
  8
化粧台
  6
EXLTYPE3
 62
     6
100
AcDbLine
 10
1118.400000000099
 20
1577.50000000004
 30
0.0
 11
1165.050000000099
 21
1577.50000000004
 31
0.0
  0
TEXT
  5
63F
330
1F
100
AcDbEntity
  8
化粧台
  6
CONTINUOUS
 62
     2
100
AcDbText
 10
1919.999999999953
 20
1254.0
 30
0.0
 40
59.99999618530273
  1
F.L.
 41
0.6227488631227187
  7
EXCADSTD
 72
     5
 11
2010.743399999953
 21
1254.0
 31
0.0
100
AcDbText
  0
TEXT
  5
640
330
1F
100
AcDbEntity
  8
化粧台
  6
CONTINUOUS
 62
     2
100
AcDbText
 10
2528.000000000097
 20
2373.500000536442
 30
0.0
 40
59.99999618530273
  1
W.L.
 50
90.0
 41
0.5571963512150626
  7
EXCADSTD
 72
     5
 11
2528.000000000097
 21
2464.243400536442
 31
0.0
100
AcDbText
  0
ELLIPSE
  5
641
330
1F
100
AcDbEntity
  8
化粧台
  6
EXLTYPE2
 62
     3
100
AcDbEllipse
 10
1156.959124486355
 20
3322.288571704519
 30
0.0
 11
3.856725658107529
 21
4.596266658702439
 31
0.0
210
0.0
220
0.0
230
1.0
 40
0.2500000000067646
 41
0.0
 42
6.283185307179586
  0
LINE
  5
642
330
1F
100
AcDbEntity
  8
化粧台
  6
EXLTYPE2
 62
     3
100
AcDbLine
 10
1160.815831683785
 20
3326.884816362642
 30
0.0
 11
1213.817277660023
 21
3282.411322592142
 31
0.0
  0
LINE
  5
643
330
1F
100
AcDbEntity
  8
化粧台
  6
EXLTYPE2
 62
     3
100
AcDbLine
 10
1153.102380367593
 20
3317.692283045265
 30
0.0
 11
1206.10382634388
 21
3273.218789274726
 31
0.0
  0
ELLIPSE
  5
644
330
1F
100
AcDbEntity
  8
化粧台
  6
EXLTYPE2
 62
     3
100
AcDbEllipse
 10
1209.960552001966
 20
3277.815055933403
 30
0.0
 11
3.856725658107897
 21
4.596266658702588
 31
0.0
210
0.0
220
0.0
230
1.0
 40
0.2499999999967844
 41
3.141592653572209
 42
6.283185307179586
  0
LINE
  5
645
330
1F
100
AcDbEntity
  8
化粧台
  6
EXLTYPE2
 62
     3
100
AcDbLine
 10
1210.467407713715
 20
3272.16816182613
 30
0.0
 11
1208.245878828673
 21
3274.032245894219
 31
0.0
  0
LINE
  5
646
330
1F
100
AcDbEntity
  8
化粧台
  6
EXLTYPE2
 62
     3
100
AcDbLine
 10
1215.609708591184
 20
3278.296517371097
 30
0.0
 11
1213.388179706164
 21
3280.160601439167
 31
0.0
  0
LINE
  5
647
330
1F
100
AcDbEntity
  8
寸法
  6
CONTINUOUS
 62
     3
100
AcDbLine
 10
2538.499999821283
 20
1254.0
 30
0.0
 11
2733.000000000099
 21
1253.999999999999
 31
0.0
  0
LINE
  5
648
330
1F
100
AcDbEntity
  8
寸法
  6
CONTINUOUS
 62
     3
100
AcDbLine
 10
2538.499999821283
 20
1254.0
 30
0.0
 11
2823.000000000099
 21
1253.999999999999
 31
0.0
  0
LINE
  5
649
330
1F
100
AcDbEntity
  8
寸法
  6
CONTINUOUS
 62
     3
100
AcDbLine
 10
2528.000000000097
 20
1243.500000178814
 30
0.0
 11
2528.000000000097
 21
1119.0
 31
0.0
  0
LEADER
  5
64A
330
1F
100
AcDbEntity
  8
寸法
  6
CONTINUOUS
 62
     6
100
AcDbLeader
  3
ISO-25
 76
     3
 10
2536.000005722097
 20
1584.5
 30
0.0
 10
2580.000000000097
 20
1813.5
 30
0.0
 10
2749.500000000099
 20
1813.5
 30
0.0
1001
ACAD
1000
DSTYLE
1002
{
1070
     5
1000
EX_NORM
1070
    41
1040
45.0
1070
   341
1005
4D
1002
}
  0
TEXT
  5
64B
330
1F
100
AcDbEntity
  8
寸法
  6
CONTINUOUS
 62
     2
100
AcDbText
 10
2587.500000000097
 20
1818.75
 30
0.0
 40
59.99999618530273
  1
Ｒ１/２
 41
0.8342465643686785
  7
EXCADSTD
 72
     5
 11
2761.499986648656
 21
1818.75
 31
0.0
100
AcDbText
  0
LEADER
  5
64C
330
1F
100
AcDbEntity
  8
寸法
  6
CONTINUOUS
 62
     6
100
AcDbLeader
  3
ISO-25
 76
     3
 10
2443.134449760811
 20
1247.49999999996
 30
0.0
 10
2210.167762183191
 20
1079.89229706116
 30
0.0
 10
1763.167762183191
 20
1079.89229706116
 30
0.0
1001
ACAD
1000
DSTYLE
1002
{
1070
     5
1000
EX_NORM
1070
    41
1040
45.0
1070
   341
1005
4D
1002
}
  0
TEXT
  5
64D
330
1F
100
AcDbEntity
  8
寸法
  6
CONTINUOUS
 62
     2
100
AcDbText
 10
1775.811137614602
 20
1146.830211202356
 30
0.0
 40
59.99999618530273
  1
ＶＰ･ＶＵ４０･５０
 41
0.8542372745578565
  7
EXCADSTD
 72
     5
 11
2207.811103282327
 21
1146.830211202356
 31
0.0
100
AcDbText
  0
TEXT
  5
64E
330
1F
100
AcDbEntity
  8
寸法
  6
CONTINUOUS
 62
     2
100
AcDbText
 10
1775.811137614602
 20
1086.830215017053
 30
0.0
 40
59.99999618530273
  1
４０～５０㎜立上げ
 41
0.9773584771306252
  7
EXCADSTD
 72
     5
 11
2219.811103282327
 21
1086.830215017053
 31
0.0
100
AcDbText
  0
DIMENSION
  5
64F
330
1F
100
AcDbEntity
  8
寸法
  6
CONTINUOUS
 62
     3
100
AcDbDimension
  2
*D31
 10
2528.0000000001
 20
2185.2
 30
0.0
 11
2648.0000000001
 21
2220.449999910593
 31
0.0
 70
   160
  3
ISO-25
100
AcDbAlignedDimension
 13
2428.0000000001
 23
2014.0000000001
 33
0.0
 14
2528.0000000001
 24
2039.0000000001
 34
0.0
100
AcDbRotatedDimension
1001
ACAD
1000
DSTYLE
1002
{
1070
   270
1070
     2
1070
     6
1000
EX_NORM
1070
     7
1000
EX_NORM
1070
    41
1040
44.99999618530273
1070
    42
1040
139.1395139694214
1070
    44
1040
15.0
1070
    73
1070
     0
1070
    74
1070
     0
1070
    75
1070
     0
1070
    76
1070
     0
1070
    77
1070
     1
1070
    78
1070
     8
1070
   140
1040
59.99999618530273
1070
   147
1040
0.0
1070
   173
1070
     1
1070
   176
1070
     3
1070
   177
1070
     3
1070
   178
1070
     2
1070
   271
1070
     1
1070
   277
1070
     2
1070
   279
1070
     2
1070
   280
1070
     2
1070
   287
1070
     5
1070
   340
1005
307
1002
}
  0
TEXT
  5
65C
330
1F
100
AcDbEntity
  8
枠_表
  6
CONTINUOUS
 62
     2
100
AcDbText
 10
2238.000000000093
 20
403.5000038146973
 30
0.0
 40
74.99999237060547
  1
ＬＵ６０２ＡＳＤ型
 41
0.8584906668033343
  7
EXCADSTD
 72
     5
 11
2725.500007629488
 21
403.5000038146973
 31
0.0
100
AcDbText
  0
LINE
  5
65D
330
1F
100
AcDbEntity
  8
枠_表
  6
CONTINUOUS
 62
     7
100
AcDbLine
 10
333.0000000000952
 20
201.0
 30
0.0
 11
333.0000000000952
 21
4326.0
 31
0.0
  0
ENDSEC
  0
SECTION
  2
OBJECTS
  0
DICTIONARY
  5
C
330
0
100
AcDbDictionary
  3
ACAD_GROUP
350
D
  3
ACAD_LAYOUT
350
1A
  3
ACAD_MATERIAL
350
3B
  3
ACAD_MLEADERSTYLE
350
680
  3
ACAD_MLINESTYLE
350
17
  3
ACAD_PLOTSETTINGS
350
19
  3
ACAD_VISUALSTYLE
350
2A
  3
ACDBHEADERROUNDTRIPXREC
350
65E
  3
ACDBVARIABLEDICTIONARY
350
67E
  0
DICTIONARY
  5
D
102
{ACAD_REACTORS
330
C
102
}
330
C
100
AcDbDictionary
  0
DICTIONARY
  5
1A
102
{ACAD_REACTORS
330
C
102
}
330
C
100
AcDbDictionary
  0
DICTIONARY
  5
3B
102
{ACAD_REACTORS
330
C
102
}
330
C
100
AcDbDictionary
  3
BYBLOCK
350
3D
  3
BYLAYER
350
3C
  3
GLOBAL
350
3E
  0
DICTIONARY
  5
680
102
{ACAD_REACTORS
330
C
102
}
330
C
100
AcDbDictionary
  0
DICTIONARY
  5
17
102
{ACAD_REACTORS
330
C
102
}
330
C
100
AcDbDictionary
  3
STANDARD
350
18
  0
DICTIONARY
  5
19
102
{ACAD_REACTORS
330
C
102
}
330
C
100
AcDbDictionary
  0
DICTIONARY
  5
2A
102
{ACAD_REACTORS
330
C
102
}
330
C
100
AcDbDictionary
  3
2DWIREFRAME
350
2F
  3
3D_HIDDEN
350
31
  3
3DWIREFRAME
350
30
  3
BASIC
350
32
  3
BRIGHTEN
350
36
  3
COLORCHANGE
350
3A
  3
CONCEPTUAL
350
34
  3
DIM
350
35
  3
FACEPATTERN
350
39
  3
FLAT
350
2B
  3
FLATWITHEDGES
350
2C
  3
GOURAUD
350
2D
  3
GOURAUDWITHEDGES
350
2E
  3
LINEPATTERN
350
38
  3
REALISTIC
350
33
  3
THICKEN
350
37
  0
DICTIONARY
  5
65E
102
{ACAD_REACTORS
330
C
102
}
330
C
100
AcDbDictionary
  3
CEPSNTYPE
350
667
  3
DIMSTYLEDATA
350
67D
  3
FINGERPRINTGUID
350
668
  3
HYPERLINKBASE
350
661
  3
INSUNITS
350
666
  3
LAYOUTDICT
350
663
  3
LWETCUNION
350
665
  3
PLOTSETDICT
350
664
  3
PSVPSCALE
350
66A
  3
PUCSBASE
350
66D
  3
PUCSORGBACK
350
673
  3
PUCSORGBOTTOM
350
66F
  3
PUCSORGFRONT
350
672
  3
PUCSORGLEFT
350
670
  3
PUCSORGRIGHT
350
671
  3
PUCSORGTOP
350
66E
  3
PUCSORTHOREF
350
66B
  3
PUCSORTHOVIEW
350
66C
  3
STYLESHEET
350
662
  3
TSTACKALIGN
350
65F
  3
TSTACKSIZE
350
660
  3
UCSBASE
350
676
  3
UCSORGBACK
350
67C
  3
UCSORGBOTTOM
350
678
  3
UCSORGFRONT
350
67B
  3
UCSORGLEFT
350
679
  3
UCSORGRIGHT
350
67A
  3
UCSORGTOP
350
677
  3
UCSORTHOREF
350
674
  3
UCSORTHOVIEW
350
675
  3
VERSIONGUID
350
669
  0
DICTIONARY
  5
67E
102
{ACAD_REACTORS
330
C
102
}
330
C
100
AcDbDictionary
  3
DIMASSOC
350
683
  3
HIDETEXT
350
684
  3
PSOLHEIGHT
350
682
  3
PSOLWIDTH
350
681
  0
MATERIAL
  5
3D
102
{ACAD_REACTORS
330
3B
102
}
102
{ACAD_XDICTIONARY
360
687
102
}
330
3B
100
AcDbMaterial
  1
ByBlock
  0
MATERIAL
  5
3C
102
{ACAD_REACTORS
330
3B
102
}
102
{ACAD_XDICTIONARY
360
685
102
}
330
3B
100
AcDbMaterial
  1
ByLayer
  0
MATERIAL
  5
3E
102
{ACAD_REACTORS
330
3B
102
}
102
{ACAD_XDICTIONARY
360
689
102
}
330
3B
100
AcDbMaterial
  1
Global
  0
MLINESTYLE
  5
18
102
{ACAD_REACTORS
330
17
102
}
330
17
100
AcDbMlineStyle
  2
Standard
 70
     0
  3

 62
   256
 51
90.0
 52
90.0
 71
     2
 49
0.5
 62
   256
  6
BYLAYER
 49
-0.5
 62
   256
  6
BYLAYER
  0
ACAD_PROXY_OBJECT
  5
2F
102
{ACAD_REACTORS
330
2A
102
}
330
2A
100
AcDbProxyObject
 90
      499
 91
      501
 93
      436
310
42CC9915DA5C99599C985B595049028333333333333E3BF0000000000000FB0107901411070040501600405405064090741402480A0340
1001
ACAD
1000
AcDbSavedByObjectVersion
1070
     0
  0
ACAD_PROXY_OBJECT
  5
31
102
{ACAD_REACTORS
330
2A
102
}
330
2A
100
AcDbProxyObject
 90
      499
 91
      501
 93
      500
310
424CD108121A5919195B90640502408333333333333E3BF0000000000000FB01079024090700405020000000000001110200405405064090740C02480A0340
1001
ACAD
1000
AcDbSavedByObjectVersion
1070
     0
  0
ACAD_PROXY_OBJECT
  5
30
102
{ACAD_REACTORS
330
2A
102
}
330
2A
100
AcDbProxyObject
 90
      499
 91
      501
 93
      436
310
42CCD915DA5C99599C985B595059028333333333333E3BF0000000000000FB0107901411070040501600405405064090741402480A0340
1001
ACAD
1000
AcDbSavedByObjectVersion
1070
     0
  0
ACAD_PROXY_OBJECT
  5
32
102
{ACAD_REACTORS
330
2A
102
}
330
2A
100
AcDbProxyObject
 90
      499
 91
      501
 93
      388
310
4150985CDA58D07406404333333333333E3BF0000000000000FB0107A41107004050150841D405064090741402480A0350
1001
ACAD
1000
AcDbSavedByObjectVersion
1070
     0
  0
ACAD_PROXY_OBJECT
  5
36
102
{ACAD_REACTORS
330
2A
102
}
330
2A
100
AcDbProxyObject
 90
      499
 91
      501
 93
      428
310
42109C9A59DA1D195B90C409028333333333333E3BF0000000000000FB010790141107004050150841D405064090741402480A029950
1001
ACAD
1000
AcDbSavedByObjectVersion
1070
     0
  0
ACAD_PROXY_OBJECT
  5
3A
102
{ACAD_REACTORS
330
2A
102
}
330
2A
100
AcDbProxyObject
 90
      499
 91
      501
 93
      452
310
42D0DBDB1BDC90DA185B99D95104090240C333333333333E3BF0000000000000FB0108901411070040501508421405064090741402480A0350
1001
ACAD
1000
AcDbSavedByObjectVersion
1070
     0
  0
ACAD_PROXY_OBJECT
  5
34
102
{ACAD_REACTORS
330
2A
102
}
330
2A
100
AcDbProxyObject
 90
      499
 91
      501
 93
      500
310
4290DBDB98D95C1D1D585B10940D028333333333333E3BF0000000000000FB0107902409070040501000000000000111010841D405064090740C02480A0340
1001
ACAD
1000
AcDbSavedByObjectVersion
1070
     0
  0
ACAD_PROXY_OBJECT
  5
35
102
{ACAD_REACTORS
330
2A
102
}
330
2A
100
AcDbProxyObject
 90
      499
 91
      501
 93
      412
310
40D11A5B50B409028333333333333E3BF0000000000000FB010790141107004050150841D405064090741402480A02677FFFFFD0
1001
ACAD
1000
AcDbSavedByObjectVersion
1070
     0
  0
ACAD_PROXY_OBJECT
  5
39
102
{ACAD_REACTORS
330
2A
102
}
330
2A
100
AcDbProxyObject
 90
      499
 91
      501
 93
      444
310
42D19858D95C185D1D195C9B90F409028333333333333E3BF0000000000000FB010790141107004050150841D405064090741402480A0350
1001
ACAD
1000
AcDbSavedByObjectVersion
1070
     0
  0
ACAD_PROXY_OBJECT
  5
2B
102
{ACAD_REACTORS
330
2A
102
}
330
2A
100
AcDbProxyObject
 90
      499
 91
      501
 93
      388
310
41119B185D240901404333333333333E3BF0000000000000F9010740A41107004050150841D405064090741402480A1B50
1001
ACAD
1000
AcDbSavedByObjectVersion
1070
     0
  0
ACAD_PROXY_OBJECT
  5
2C
102
{ACAD_REACTORS
330
2A
102
}
330
2A
100
AcDbProxyObject
 90
      499
 91
      501
 93
      476
310
43519B185D15DA5D1A115919D95CD0140901404333333333333E3BF0000000000000F9010740901411070040501600405405064090741402480A1B50
1001
ACAD
1000
AcDbSavedByObjectVersion
1070
     0
  0
ACAD_PROXY_OBJECT
  5
2D
102
{ACAD_REACTORS
330
2A
102
}
330
2A
100
AcDbProxyObject
 90
      499
 91
      501
 93
      412
310
41D1DBDD5C985D5910240902404333333333333E3BF0000000000000F9010740A411070040501641D405064090741402480A1B50
1001
ACAD
1000
AcDbSavedByObjectVersion
1070
     0
  0
ACAD_PROXY_OBJECT
  5
2E
102
{ACAD_REACTORS
330
2A
102
}
330
2A
100
AcDbProxyObject
 90
      499
 91
      501
 93
      500
310
4411DBDD5C985D5915DA5D1A115919D95CD0340902404333333333333E3BF0000000000000F9010740901411070040501600405405064090741402480A1B50
1001
ACAD
1000
AcDbSavedByObjectVersion
1070
     0
  0
ACAD_PROXY_OBJECT
  5
38
102
{ACAD_REACTORS
330
2A
102
}
330
2A
100
AcDbProxyObject
 90
      499
 91
      501
 93
      444
310
42D31A5B995C185D1D195C9B90E409028333333333333E3BF0000000000000FB010790141107004050750841D405064090741402483A0350
1001
ACAD
1000
AcDbSavedByObjectVersion
1070
     0
  0
ACAD_PROXY_OBJECT
  5
33
102
{ACAD_REACTORS
330
2A
102
}
330
2A
100
AcDbProxyObject
 90
      499
 91
      501
 93
      420
310
425499585B1A5CDD1A58D08409028333333333333E3BF0000000000000FB01079019070040501508421405064090741402480A1B40
1001
ACAD
1000
AcDbSavedByObjectVersion
1070
     0
  0
ACAD_PROXY_OBJECT
  5
37
102
{ACAD_REACTORS
330
2A
102
}
330
2A
100
AcDbProxyObject
 90
      499
 91
      501
 93
      412
310
41D51A1A58DAD95B90D409028333333333333E3BF0000000000000FB010790141107004050150C41D405064090741402480A0350
1001
ACAD
1000
AcDbSavedByObjectVersion
1070
     0
  0
XRECORD
  5
667
102
{ACAD_REACTORS
330
65E
102
}
330
65E
100
AcDbXrecord
 90
        0
  0
XRECORD
  5
67D
102
{ACAD_REACTORS
330
65E
102
}
330
65E
100
AcDbXrecord
1000
DSTYLE
1002
{
1070
   340
340
11
1002
}
  0
XRECORD
  5
668
102
{ACAD_REACTORS
330
65E
102
}
330
65E
100
AcDbXrecord
  1
{6DF7FE71-57C0-4F24-A0CD-5231FF429BA8}
  0
XRECORD
  5
661
102
{ACAD_REACTORS
330
65E
102
}
330
65E
100
AcDbXrecord
  1

  0
XRECORD
  5
666
102
{ACAD_REACTORS
330
65E
102
}
330
65E
100
AcDbXrecord
 90
        4
  0
XRECORD
  5
663
102
{ACAD_REACTORS
330
65E
102
}
330
65E
100
AcDbXrecord
340
1A
  0
XRECORD
  5
665
102
{ACAD_REACTORS
330
65E
102
}
330
65E
100
AcDbXrecord
 90
    10781
  0
XRECORD
  5
664
102
{ACAD_REACTORS
330
65E
102
}
330
65E
100
AcDbXrecord
340
19
  0
XRECORD
  5
66A
102
{ACAD_REACTORS
330
65E
102
}
330
65E
100
AcDbXrecord
 40
0.0
  0
XRECORD
  5
66D
102
{ACAD_REACTORS
330
65E
102
}
330
65E
100
AcDbXrecord
340
0
  0
XRECORD
  5
673
102
{ACAD_REACTORS
330
65E
102
}
330
65E
100
AcDbXrecord
 10
0.0
 20
0.0
 30
0.0
  0
XRECORD
  5
66F
102
{ACAD_REACTORS
330
65E
102
}
330
65E
100
AcDbXrecord
 10
0.0
 20
0.0
 30
0.0
  0
XRECORD
  5
672
102
{ACAD_REACTORS
330
65E
102
}
330
65E
100
AcDbXrecord
 10
0.0
 20
0.0
 30
0.0
  0
XRECORD
  5
670
102
{ACAD_REACTORS
330
65E
102
}
330
65E
100
AcDbXrecord
 10
0.0
 20
0.0
 30
0.0
  0
XRECORD
  5
671
102
{ACAD_REACTORS
330
65E
102
}
330
65E
100
AcDbXrecord
 10
0.0
 20
0.0
 30
0.0
  0
XRECORD
  5
66E
102
{ACAD_REACTORS
330
65E
102
}
330
65E
100
AcDbXrecord
 10
0.0
 20
0.0
 30
0.0
  0
XRECORD
  5
66B
102
{ACAD_REACTORS
330
65E
102
}
330
65E
100
AcDbXrecord
340
0
  0
XRECORD
  5
66C
102
{ACAD_REACTORS
330
65E
102
}
330
65E
100
AcDbXrecord
 70
     0
  0
XRECORD
  5
662
102
{ACAD_REACTORS
330
65E
102
}
330
65E
100
AcDbXrecord
  1

  0
XRECORD
  5
65F
102
{ACAD_REACTORS
330
65E
102
}
330
65E
100
AcDbXrecord
 90
        1
  0
XRECORD
  5
660
102
{ACAD_REACTORS
330
65E
102
}
330
65E
100
AcDbXrecord
 90
       70
  0
XRECORD
  5
676
102
{ACAD_REACTORS
330
65E
102
}
330
65E
100
AcDbXrecord
340
0
  0
XRECORD
  5
67C
102
{ACAD_REACTORS
330
65E
102
}
330
65E
100
AcDbXrecord
 10
0.0
 20
0.0
 30
0.0
  0
XRECORD
  5
678
102
{ACAD_REACTORS
330
65E
102
}
330
65E
100
AcDbXrecord
 10
0.0
 20
0.0
 30
0.0
  0
XRECORD
  5
67B
102
{ACAD_REACTORS
330
65E
102
}
330
65E
100
AcDbXrecord
 10
0.0
 20
0.0
 30
0.0
  0
XRECORD
  5
679
102
{ACAD_REACTORS
330
65E
102
}
330
65E
100
AcDbXrecord
 10
0.0
 20
0.0
 30
0.0
  0
XRECORD
  5
67A
102
{ACAD_REACTORS
330
65E
102
}
330
65E
100
AcDbXrecord
 10
0.0
 20
0.0
 30
0.0
  0
XRECORD
  5
677
102
{ACAD_REACTORS
330
65E
102
}
330
65E
100
AcDbXrecord
 10
0.0
 20
0.0
 30
0.0
  0
XRECORD
  5
674
102
{ACAD_REACTORS
330
65E
102
}
330
65E
100
AcDbXrecord
340
0
  0
XRECORD
  5
675
102
{ACAD_REACTORS
330
65E
102
}
330
65E
100
AcDbXrecord
 70
     0
  0
XRECORD
  5
669
102
{ACAD_REACTORS
330
65E
102
}
330
65E
100
AcDbXrecord
  1
{FAEB1C32-E019-11D5-929B-00C0DF256EC4}
  0
DICTIONARYVAR
  5
683
102
{ACAD_REACTORS
330
67E
102
}
330
67E
100
DictionaryVariables
280
     0
  1
2
  0
DICTIONARYVAR
  5
684
102
{ACAD_REACTORS
330
67E
102
}
330
67E
100
DictionaryVariables
280
     0
  1
1
  0
DICTIONARYVAR
  5
682
102
{ACAD_REACTORS
330
67E
102
}
330
67E
100
DictionaryVariables
280
     0
  1
80.000000
  0
DICTIONARYVAR
  5
681
102
{ACAD_REACTORS
330
67E
102
}
330
67E
100
DictionaryVariables
280
     0
  1
5.000000
  0
DICTIONARY
  5
687
330
3D
100
AcDbDictionary
280
     1
  3
ACAD_XREC_ROUNDTRIP
360
688
  0
DICTIONARY
  5
685
330
3C
100
AcDbDictionary
280
     1
  3
ACAD_XREC_ROUNDTRIP
360
686
  0
DICTIONARY
  5
689
330
3E
100
AcDbDictionary
280
     1
  3
ACAD_XREC_ROUNDTRIP
360
68A
  0
XRECORD
  5
688
102
{ACAD_REACTORS
330
687
102
}
330
687
100
AcDbXrecord
102
MATERIAL
148
0.0
149
0.0
149
0.0
 93
        0
 94
      127
282
     0
 72
     1
 77
     1
171
     1
175
     1
179
     1
273
     0
  0
XRECORD
  5
686
102
{ACAD_REACTORS
330
685
102
}
330
685
100
AcDbXrecord
102
MATERIAL
148
0.0
149
0.0
149
0.0
 93
        0
 94
      127
282
     0
 72
     1
 77
     1
171
     1
175
     1
179
     1
273
     0
  0
XRECORD
  5
68A
102
{ACAD_REACTORS
330
689
102
}
330
689
100
AcDbXrecord
102
MATERIAL
148
0.0
149
0.0
149
0.0
 93
        0
 94
      127
282
     0
 72
     1
 77
     1
171
     1
175
     1
179
     1
273
     0
  0
ENDSEC
  0
EOF
