  0
SECTION
  2
HEADER
  9
$ACADVER
  1
AC1014
  9
$ACADMAINTVER
 70
     9
  9
$DWGCODEPAGE
  3
ANSI_932
  9
$INSBASE
 10
0.0
 20
0.0
 30
0.0
  9
$EXTMIN
 10
0.0000000000000092
 20
13.5
 30
0.0
  9
$EXTMAX
 10
200.0000000000001
 20
288.5
 30
0.0
  9
$LIMMIN
 10
0.0
 20
0.0
  9
$LIMMAX
 10
210.0
 20
297.0
  9
$ORTHOMODE
 70
     0
  9
$REGENMODE
 70
     1
  9
$FILLMODE
 70
     1
  9
$QTEXTMODE
 70
     0
  9
$MIRRTEXT
 70
     1
  9
$DRAGMODE
 70
     2
  9
$LTSCALE
 40
1.0
  9
$OSMODE
 70
    37
  9
$ATTMODE
 70
     1
  9
$TEXTSIZE
 40
2.5
  9
$TRACEWID
 40
1.0
  9
$TEXTSTYLE
  7
STANDARD
  9
$CLAYER
  8
0
  9
$CELTYPE
  6
BYLAYER
  9
$CECOLOR
 62
   256
  9
$CELTSCALE
 40
1.0
  9
$DELOBJ
 70
     1
  9
$DISPSILH
 70
     0
  9
$DIMSCALE
 40
1.0
  9
$DIMASZ
 40
2.5
  9
$DIMEXO
 40
0.625
  9
$DIMDLI
 40
3.75
  9
$DIMRND
 40
0.0
  9
$DIMDLE
 40
0.0
  9
$DIMEXE
 40
1.25
  9
$DIMTP
 40
0.0
  9
$DIMTM
 40
0.0
  9
$DIMTXT
 40
2.5
  9
$DIMCEN
 40
2.5
  9
$DIMTSZ
 40
0.0
  9
$DIMTOL
 70
     0
  9
$DIMLIM
 70
     0
  9
$DIMTIH
 70
     0
  9
$DIMTOH
 70
     0
  9
$DIMSE1
 70
     0
  9
$DIMSE2
 70
     0
  9
$DIMTAD
 70
     1
  9
$DIMZIN
 70
     8
  9
$DIMBLK
  1

  9
$DIMASO
 70
     1
  9
$DIMSHO
 70
     1
  9
$DIMPOST
  1

  9
$DIMAPOST
  1

  9
$DIMALT
 70
     0
  9
$DIMALTD
 70
     3
  9
$DIMALTF
 40
0.03937007874016
  9
$DIMLFAC
 40
1.0
  9
$DIMTOFL
 70
     1
  9
$DIMTVP
 40
0.0
  9
$DIMTIX
 70
     0
  9
$DIMSOXD
 70
     0
  9
$DIMSAH
 70
     0
  9
$DIMBLK1
  1

  9
$DIMBLK2
  1

  9
$DIMSTYLE
  2
ISO-25
  9
$DIMCLRD
 70
     0
  9
$DIMCLRE
 70
     0
  9
$DIMCLRT
 70
     0
  9
$DIMTFAC
 40
1.0
  9
$DIMGAP
 40
0.625
  9
$DIMJUST
 70
     0
  9
$DIMSD1
 70
     0
  9
$DIMSD2
 70
     0
  9
$DIMTOLJ
 70
     0
  9
$DIMTZIN
 70
     8
  9
$DIMALTZ
 70
     0
  9
$DIMALTTZ
 70
     0
  9
$DIMFIT
 70
     3
  9
$DIMUPT
 70
     0
  9
$DIMUNIT
 70
     2
  9
$DIMDEC
 70
     2
  9
$DIMTDEC
 70
     2
  9
$DIMALTU
 70
     2
  9
$DIMALTTD
 70
     3
  9
$DIMTXSTY
  7
STANDARD
  9
$DIMAUNIT
 70
     0
  9
$LUNITS
 70
     2
  9
$LUPREC
 70
     4
  9
$SKETCHINC
 40
1.0
  9
$FILLETRAD
 40
10.0
  9
$AUNITS
 70
     0
  9
$AUPREC
 70
     0
  9
$MENU
  1
.
  9
$ELEVATION
 40
0.0
  9
$PELEVATION
 40
0.0
  9
$THICKNESS
 40
0.0
  9
$LIMCHECK
 70
     0
  9
$CHAMFERA
 40
10.0
  9
$CHAMFERB
 40
10.0
  9
$CHAMFERC
 40
20.0
  9
$CHAMFERD
 40
0.0
  9
$SKPOLY
 70
     0
  9
$TDCREATE
 40
2457660.46977338
  9
$TDUPDATE
 40
2457660.469773611
  9
$TDINDWG
 40
0.0000000116
  9
$TDUSRTIMER
 40
0.0000000116
  9
$USRTIMER
 70
     1
  9
$ANGBASE
 50
0.0
  9
$ANGDIR
 70
     0
  9
$PDMODE
 70
     0
  9
$PDSIZE
 40
0.0
  9
$PLINEWID
 40
0.0
  9
$COORDS
 70
     1
  9
$SPLFRAME
 70
     0
  9
$SPLINETYPE
 70
     6
  9
$SPLINESEGS
 70
     8
  9
$ATTDIA
 70
     0
  9
$ATTREQ
 70
     1
  9
$HANDLING
 70
     1
  9
$HANDSEED
  5
695
  9
$SURFTAB1
 70
     6
  9
$SURFTAB2
 70
     6
  9
$SURFTYPE
 70
     6
  9
$SURFU
 70
     6
  9
$SURFV
 70
     6
  9
$UCSNAME
  2

  9
$UCSORG
 10
0.0
 20
0.0
 30
0.0
  9
$UCSXDIR
 10
1.0
 20
0.0
 30
0.0
  9
$UCSYDIR
 10
0.0
 20
1.0
 30
0.0
  9
$PUCSNAME
  2

  9
$PUCSORG
 10
0.0
 20
0.0
 30
0.0
  9
$PUCSXDIR
 10
1.0
 20
0.0
 30
0.0
  9
$PUCSYDIR
 10
0.0
 20
1.0
 30
0.0
  9
$USERI1
 70
     0
  9
$USERI2
 70
     0
  9
$USERI3
 70
     0
  9
$USERI4
 70
     0
  9
$USERI5
 70
     0
  9
$USERR1
 40
0.0
  9
$USERR2
 40
0.0
  9
$USERR3
 40
0.0
  9
$USERR4
 40
0.0
  9
$USERR5
 40
0.0
  9
$WORLDVIEW
 70
     1
  9
$SHADEDGE
 70
     3
  9
$SHADEDIF
 70
    70
  9
$TILEMODE
 70
     1
  9
$MAXACTVP
 70
    64
  9
$PINSBASE
 10
0.0
 20
0.0
 30
0.0
  9
$PLIMCHECK
 70
     0
  9
$PEXTMIN
 10
1.000000000000000E+20
 20
1.000000000000000E+20
 30
1.000000000000000E+20
  9
$PEXTMAX
 10
-1.000000000000000E+20
 20
-1.000000000000000E+20
 30
-1.000000000000000E+20
  9
$PLIMMIN
 10
0.0
 20
0.0
  9
$PLIMMAX
 10
420.0
 20
297.0
  9
$UNITMODE
 70
     0
  9
$VISRETAIN
 70
     1
  9
$PLINEGEN
 70
     0
  9
$PSLTSCALE
 70
     1
  9
$TREEDEPTH
 70
  3020
  9
$PICKSTYLE
 70
     1
  9
$CMLSTYLE
  2
STANDARD
  9
$CMLJUST
 70
     0
  9
$CMLSCALE
 40
20.0
  9
$PROXYGRAPHICS
 70
     1
  9
$MEASUREMENT
 70
     1
  0
ENDSEC
  0
SECTION
  2
CLASSES
  0
CLASS
  1
ACDBDICTIONARYWDFLT
  2
AcDbDictionaryWithDefault
  3
ObjectDBX Classes
 90
        0
280
     0
281
     0
  0
CLASS
  1
VISUALSTYLE
  2
AcDbVisualStyle
  3
ObjectDBX Classes
 90
     4095
280
     0
281
     0
  0
CLASS
  1
MATERIAL
  2
AcDbMaterial
  3
ObjectDBX Classes
 90
     1153
280
     0
281
     0
  0
CLASS
  1
SUN
  2
AcDbSun
  3
SCENEOE
 90
     1024
280
     0
281
     0
  0
CLASS
  1
DICTIONARYVAR
  2
AcDbDictionaryVar
  3
ObjectDBX Classes
 90
        0
280
     0
281
     0
  0
CLASS
  1
XRECORD
  2
AcDbXrecord
  3
AutoCAD 2000
 90
        0
280
     0
281
     0
  0
CLASS
  1
LWPOLYLINE
  2
AcDbPolyline
  3
AutoCAD 2000
 90
        0
280
     0
281
     1
  0
CLASS
  1
HATCH
  2
AcDbHatch
  3
AutoCAD 2000
 90
        0
280
     0
281
     1
  0
CLASS
  1
ACDBPLACEHOLDER
  2
AcDbPlaceHolder
  3
ObjectDBX Classes
 90
        0
280
     0
281
     0
  0
CLASS
  1
LAYOUT
  2
AcDbLayout
  3
ObjectDBX Classes
 90
        0
280
     0
281
     0
  0
ENDSEC
  0
SECTION
  2
TABLES
  0
TABLE
  2
VPORT
  5
8
330
0
100
AcDbSymbolTable
 70
     1
  0
VPORT
  5
29
330
8
100
AcDbSymbolTableRecord
100
AcDbViewportTableRecord
  2
*ACTIVE
 70
     0
 10
0.0
 20
0.0
 11
1.0
 21
1.0
 12
100.0
 22
151.0
 13
0.0
 23
0.0
 14
10.0
 24
10.0
 15
10.0
 25
10.0
 16
0.0
 26
0.0
 36
1.0
 17
0.0
 27
0.0
 37
0.0
 40
275.0
 41
0.7272727272727275
 42
50.0
 43
0.0
 44
0.0
 50
0.0
 51
0.0
 71
     0
 72
  1000
 73
     1
 74
     3
 75
     0
 76
     0
 77
     0
 78
     0
  0
ENDTAB
  0
TABLE
  2
LTYPE
  5
5
330
0
100
AcDbSymbolTable
 70
     7
  0
LTYPE
  5
14
330
5
100
AcDbSymbolTableRecord
100
AcDbLinetypeTableRecord
  2
BYBLOCK
 70
     0
  3

 72
    65
 73
     0
 40
0.0
  0
LTYPE
  5
15
330
5
100
AcDbSymbolTableRecord
100
AcDbLinetypeTableRecord
  2
BYLAYER
 70
     0
  3

 72
    65
 73
     0
 40
0.0
  0
LTYPE
  5
16
330
5
100
AcDbSymbolTableRecord
100
AcDbLinetypeTableRecord
  2
CONTINUOUS
 70
     0
  3
Solid line
 72
    65
 73
     0
 40
0.0
  0
LTYPE
  5
40
330
5
100
AcDbSymbolTableRecord
100
AcDbLinetypeTableRecord
  2
EXLTYPE1
 70
     0
  3
破線
 72
    65
 73
     2
 40
3.0
 49
2.0
 74
     0
 49
-1.0
 74
     0
  0
LTYPE
  5
41
330
5
100
AcDbSymbolTableRecord
100
AcDbLinetypeTableRecord
  2
EXLTYPE2
 70
     0
  3
点線
 72
    65
 73
     2
 40
2.0
 49
1.0
 74
     0
 49
-1.0
 74
     0
  0
LTYPE
  5
42
330
5
100
AcDbSymbolTableRecord
100
AcDbLinetypeTableRecord
  2
EXLTYPE3
 70
     0
  3
一点鎖線
 72
    65
 73
     4
 40
10.0
 49
7.0
 74
     0
 49
-1.0
 74
     0
 49
1.0
 74
     0
 49
-1.0
 74
     0
  0
LTYPE
  5
43
330
5
100
AcDbSymbolTableRecord
100
AcDbLinetypeTableRecord
  2
EXLTYPE4
 70
     0
  3
二点鎖線
 72
    65
 73
     6
 40
12.0
 49
7.0
 74
     0
 49
-1.0
 74
     0
 49
1.0
 74
     0
 49
-1.0
 74
     0
 49
1.0
 74
     0
 49
-1.0
 74
     0
  0
LTYPE
  5
44
330
5
100
AcDbSymbolTableRecord
100
AcDbLinetypeTableRecord
  2
EXLTYPE5
 70
     0
  3
三点鎖線
 72
    65
 73
     8
 40
37.0
 49
30.0
 74
     0
 49
-1.0
 74
     0
 49
1.0
 74
     0
 49
-1.0
 74
     0
 49
1.0
 74
     0
 49
-1.0
 74
     0
 49
1.0
 74
     0
 49
-1.0
 74
     0
  0
LTYPE
  5
45
330
5
100
AcDbSymbolTableRecord
100
AcDbLinetypeTableRecord
  2
EXLTYPE6
 70
     0
  3
四点鎖線
 72
    65
 73
    10
 40
39.0
 49
30.0
 74
     0
 49
-1.0
 74
     0
 49
1.0
 74
     0
 49
-1.0
 74
     0
 49
1.0
 74
     0
 49
-1.0
 74
     0
 49
1.0
 74
     0
 49
-1.0
 74
     0
 49
1.0
 74
     0
 49
-1.0
 74
     0
  0
ENDTAB
  0
TABLE
  2
LAYER
  5
2
330
0
100
AcDbSymbolTable
 70
     7
  0
LAYER
  5
10
330
2
100
AcDbSymbolTableRecord
100
AcDbLayerTableRecord
  2
0
 70
     0
 62
     7
  6
CONTINUOUS
  0
LAYER
  5
48
330
2
100
AcDbSymbolTableRecord
100
AcDbLayerTableRecord
  2
枠_表
 70
     0
 62
     7
  6
CONTINUOUS
  0
LAYER
  5
49
330
2
100
AcDbSymbolTableRecord
100
AcDbLayerTableRecord
  2
化粧台
 70
     0
 62
     7
  6
CONTINUOUS
  0
LAYER
  5
4A
330
2
100
AcDbSymbolTableRecord
100
AcDbLayerTableRecord
  2
鏡台
 70
     0
 62
     7
  6
CONTINUOUS
  0
LAYER
  5
4B
330
2
100
AcDbSymbolTableRecord
100
AcDbLayerTableRecord
  2
付属金具
 70
     0
 62
     7
  6
CONTINUOUS
  0
LAYER
  5
4C
330
2
100
AcDbSymbolTableRecord
100
AcDbLayerTableRecord
  2
寸法
 70
     0
 62
     7
  6
CONTINUOUS
  0
LAYER
  5
507
330
2
100
AcDbSymbolTableRecord
100
AcDbLayerTableRecord
  2
DEFPOINTS
 70
     0
 62
     7
  6
CONTINUOUS
  0
ENDTAB
  0
TABLE
  2
STYLE
  5
3
330
0
100
AcDbSymbolTable
 70
     5
  0
STYLE
  5
11
330
3
100
AcDbSymbolTableRecord
100
AcDbTextStyleTableRecord
  2
STANDARD
 70
     0
 40
0.0
 41
1.0
 50
0.0
 71
     0
 42
2.5
  3
monotxt
  4
extfont
  0
STYLE
  5
46
330
3
100
AcDbSymbolTableRecord
100
AcDbTextStyleTableRecord
  2
EXCADSTD
 70
     0
 40
0.0
 41
1.0
 50
0.0
 71
     0
 42
0.2
  3
monotxt
  4
extfont
  0
STYLE
  5
47
330
3
100
AcDbSymbolTableRecord
100
AcDbTextStyleTableRecord
  2
EXCADVERT
 70
     4
 40
0.0
 41
1.0
 50
0.0
 71
     0
 42
0.286885
  3
monotxt
  4
extfont
  0
STYLE
  5
10E
330
3
100
AcDbSymbolTableRecord
100
AcDbTextStyleTableRecord
  2
EXCADTTF1
 70
     0
 40
0.0
 41
1.0
 50
0.0
 71
     0
 42
0.2
  3
MSGOTHIC.TTC
  4

1001
ACAD
1000
MS Gothic
1071
    32817
  0
STYLE
  5
505
330
3
100
AcDbSymbolTableRecord
100
AcDbTextStyleTableRecord
  2
EXCADDIM1
 70
     0
 40
0.0
 41
0.84
 50
0.0
 71
     0
 42
0.2
  3
monotxt
  4
extfont
  0
ENDTAB
  0
TABLE
  2
VIEW
  5
6
330
0
100
AcDbSymbolTable
 70
     0
  0
ENDTAB
  0
TABLE
  2
UCS
  5
7
330
0
100
AcDbSymbolTable
 70
     0
  0
ENDTAB
  0
TABLE
  2
APPID
  5
9
330
0
100
AcDbSymbolTable
 70
     1
  0
APPID
  5
12
330
9
100
AcDbSymbolTableRecord
100
AcDbRegAppTableRecord
  2
ACAD
 70
     0
  0
ENDTAB
  0
TABLE
  2
DIMSTYLE
  5
A
330
0
100
AcDbSymbolTable
 70
     1
  0
DIMSTYLE
105
27
102
{ACAD_REACTORS
330
506
330
516
330
523
330
530
330
53D
330
54C
330
559
330
56C
330
579
330
588
330
595
330
5A2
330
5AE
330
5BB
330
5C8
330
5D4
330
5E0
330
5ED
330
5FA
330
607
330
613
330
620
330
62F
330
640
330
64D
330
65C
102
}
330
A
100
AcDbSymbolTableRecord
100
AcDbDimStyleTableRecord
  2
ISO-25
 70
     0
  3

  4

  5

  6

  7

 40
1.0
 41
2.5
 42
0.625
 43
3.75
 44
1.25
 45
0.0
 46
0.0
 47
0.0
 48
0.0
140
2.5
141
2.5
142
0.0
143
0.03937007874016
144
1.0
145
0.0
146
1.0
147
0.625
 71
     0
 72
     0
 73
     0
 74
     0
 75
     0
 76
     0
 77
     1
 78
     8
170
     0
171
     3
172
     1
173
     0
174
     0
175
     0
176
     0
177
     0
178
     0
270
     2
271
     2
272
     2
273
     2
274
     3
340
11
275
     0
280
     0
281
     0
282
     0
283
     0
284
     8
285
     0
286
     0
287
     5
288
     0
  0
ENDTAB
  0
TABLE
  2
BLOCK_RECORD
  5
1
330
0
100
AcDbSymbolTable
 70
    41
  0
BLOCK_RECORD
  5
1F
330
1
100
AcDbSymbolTableRecord
100
AcDbBlockTableRecord
  2
*MODEL_SPACE
  0
BLOCK_RECORD
  5
1B
330
1
100
AcDbSymbolTableRecord
100
AcDbBlockTableRecord
  2
*PAPER_SPACE
  0
BLOCK_RECORD
  5
4D
330
1
100
AcDbSymbolTableRecord
100
AcDbBlockTableRecord
  2
EX_NORM
  0
BLOCK_RECORD
  5
50
330
1
100
AcDbSymbolTableRecord
100
AcDbBlockTableRecord
  2
EX_BNORM
  0
BLOCK_RECORD
  5
53
330
1
100
AcDbSymbolTableRecord
100
AcDbBlockTableRecord
  2
EX_BCIR
  0
BLOCK_RECORD
  5
56
330
1
100
AcDbSymbolTableRecord
100
AcDbBlockTableRecord
  2
EX_RCIVIL
  0
BLOCK_RECORD
  5
59
330
1
100
AcDbSymbolTableRecord
100
AcDbBlockTableRecord
  2
EX_SLANT
  0
BLOCK_RECORD
  5
5C
330
1
100
AcDbSymbolTableRecord
100
AcDbBlockTableRecord
  2
EX_NONE
  0
BLOCK_RECORD
  5
5F
330
1
100
AcDbSymbolTableRecord
100
AcDbBlockTableRecord
  2
EX_CIVIL
  0
BLOCK_RECORD
  5
62
330
1
100
AcDbSymbolTableRecord
100
AcDbBlockTableRecord
  2
EX_WCIR
  0
BLOCK_RECORD
  5
65
330
1
100
AcDbSymbolTableRecord
100
AcDbBlockTableRecord
  2
EX_WCIR2
  0
BLOCK_RECORD
  5
68
330
1
100
AcDbSymbolTableRecord
100
AcDbBlockTableRecord
  2
EX_WNORM
  0
BLOCK_RECORD
  5
6B
330
1
100
AcDbSymbolTableRecord
100
AcDbBlockTableRecord
  2
EX_NNORM
  0
BLOCK_RECORD
  5
6E
330
1
100
AcDbSymbolTableRecord
100
AcDbBlockTableRecord
  2
EX_BBOX
  0
BLOCK_RECORD
  5
71
330
1
100
AcDbSymbolTableRecord
100
AcDbBlockTableRecord
  2
EX_WBOX
  0
BLOCK_RECORD
  5
74
330
1
100
AcDbSymbolTableRecord
100
AcDbBlockTableRecord
  2
EX_INTEGRAL
  0
BLOCK_RECORD
  5
508
330
1
100
AcDbSymbolTableRecord
100
AcDbBlockTableRecord
  2
*D15
  0
BLOCK_RECORD
  5
517
330
1
100
AcDbSymbolTableRecord
100
AcDbBlockTableRecord
  2
*D16
  0
BLOCK_RECORD
  5
524
330
1
100
AcDbSymbolTableRecord
100
AcDbBlockTableRecord
  2
*D17
  0
BLOCK_RECORD
  5
531
330
1
100
AcDbSymbolTableRecord
100
AcDbBlockTableRecord
  2
*D18
  0
BLOCK_RECORD
  5
53E
330
1
100
AcDbSymbolTableRecord
100
AcDbBlockTableRecord
  2
*D19
  0
BLOCK_RECORD
  5
54D
330
1
100
AcDbSymbolTableRecord
100
AcDbBlockTableRecord
  2
*D20
  0
BLOCK_RECORD
  5
55A
330
1
100
AcDbSymbolTableRecord
100
AcDbBlockTableRecord
  2
*D21
  0
BLOCK_RECORD
  5
56D
330
1
100
AcDbSymbolTableRecord
100
AcDbBlockTableRecord
  2
*D22
  0
BLOCK_RECORD
  5
57A
330
1
100
AcDbSymbolTableRecord
100
AcDbBlockTableRecord
  2
*D23
  0
BLOCK_RECORD
  5
589
330
1
100
AcDbSymbolTableRecord
100
AcDbBlockTableRecord
  2
*D24
  0
BLOCK_RECORD
  5
596
330
1
100
AcDbSymbolTableRecord
100
AcDbBlockTableRecord
  2
*D25
  0
BLOCK_RECORD
  5
5A3
330
1
100
AcDbSymbolTableRecord
100
AcDbBlockTableRecord
  2
*D26
  0
BLOCK_RECORD
  5
5AF
330
1
100
AcDbSymbolTableRecord
100
AcDbBlockTableRecord
  2
*D27
  0
BLOCK_RECORD
  5
5BC
330
1
100
AcDbSymbolTableRecord
100
AcDbBlockTableRecord
  2
*D28
  0
BLOCK_RECORD
  5
5C9
330
1
100
AcDbSymbolTableRecord
100
AcDbBlockTableRecord
  2
*D29
  0
BLOCK_RECORD
  5
5D5
330
1
100
AcDbSymbolTableRecord
100
AcDbBlockTableRecord
  2
*D30
  0
BLOCK_RECORD
  5
5E1
330
1
100
AcDbSymbolTableRecord
100
AcDbBlockTableRecord
  2
*D31
  0
BLOCK_RECORD
  5
5EE
330
1
100
AcDbSymbolTableRecord
100
AcDbBlockTableRecord
  2
*D32
  0
BLOCK_RECORD
  5
5FB
330
1
100
AcDbSymbolTableRecord
100
AcDbBlockTableRecord
  2
*D33
  0
BLOCK_RECORD
  5
608
330
1
100
AcDbSymbolTableRecord
100
AcDbBlockTableRecord
  2
*D34
  0
BLOCK_RECORD
  5
614
330
1
100
AcDbSymbolTableRecord
100
AcDbBlockTableRecord
  2
*D35
  0
BLOCK_RECORD
  5
621
330
1
100
AcDbSymbolTableRecord
100
AcDbBlockTableRecord
  2
*D36
  0
BLOCK_RECORD
  5
630
330
1
100
AcDbSymbolTableRecord
100
AcDbBlockTableRecord
  2
*D37
  0
BLOCK_RECORD
  5
641
330
1
100
AcDbSymbolTableRecord
100
AcDbBlockTableRecord
  2
*D38
  0
BLOCK_RECORD
  5
64E
330
1
100
AcDbSymbolTableRecord
100
AcDbBlockTableRecord
  2
*D39
  0
BLOCK_RECORD
  5
65D
330
1
100
AcDbSymbolTableRecord
100
AcDbBlockTableRecord
  2
*D40
  0
ENDTAB
  0
ENDSEC
  0
SECTION
  2
BLOCKS
  0
BLOCK
  5
20
330
1F
100
AcDbEntity
  8
0
100
AcDbBlockBegin
  2
*MODEL_SPACE
 70
     0
 10
0.0
 20
0.0
 30
0.0
  3
*MODEL_SPACE
  1

  0
ENDBLK
  5
21
330
1F
100
AcDbEntity
  8
0
100
AcDbBlockEnd
  0
BLOCK
  5
1C
330
1B
100
AcDbEntity
 67
     1
  8
0
100
AcDbBlockBegin
  2
*PAPER_SPACE
 70
     0
 10
0.0
 20
0.0
 30
0.0
  3
*PAPER_SPACE
  1

  0
ENDBLK
  5
1D
330
1B
100
AcDbEntity
 67
     1
  8
0
100
AcDbBlockEnd
  0
BLOCK
  5
4E
330
4D
100
AcDbEntity
  8
0
100
AcDbBlockBegin
  2
EX_NORM
 70
     0
 10
0.0
 20
0.0
 30
0.0
  3
EX_NORM
  1

  0
LINE
  5
77
330
4D
100
AcDbEntity
  8
0
  6
CONTINUOUS
 62
     0
100
AcDbLine
 10
0.0
 20
0.0
 30
0.0
 11
-1.0
 21
0.0
 31
0.0
  0
LINE
  5
78
330
4D
100
AcDbEntity
  8
0
  6
CONTINUOUS
 62
     0
100
AcDbLine
 10
0.0
 20
0.0
 30
0.0
 11
-1.0
 21
0.166666667
 31
0.0
  0
LINE
  5
79
330
4D
100
AcDbEntity
  8
0
  6
CONTINUOUS
 62
     0
100
AcDbLine
 10
0.0
 20
0.0
 30
0.0
 11
-1.0
 21
-0.166666667
 31
0.0
  0
ENDBLK
  5
4F
330
4D
100
AcDbEntity
  8
0
100
AcDbBlockEnd
  0
BLOCK
  5
51
330
50
100
AcDbEntity
  8
0
100
AcDbBlockBegin
  2
EX_BNORM
 70
     0
 10
0.0
 20
0.0
 30
0.0
  3
EX_BNORM
  1

  0
LINE
  5
7A
330
50
100
AcDbEntity
  8
0
  6
CONTINUOUS
 62
     0
100
AcDbLine
 10
0.0
 20
0.0
 30
0.0
 11
-1.0
 21
0.0
 31
0.0
  0
LINE
  5
7B
330
50
100
AcDbEntity
  8
0
  6
CONTINUOUS
 62
     0
100
AcDbLine
 10
0.0
 20
0.0
 30
0.0
 11
-1.0
 21
0.166666667
 31
0.0
  0
LINE
  5
7C
330
50
100
AcDbEntity
  8
0
  6
CONTINUOUS
 62
     0
100
AcDbLine
 10
0.0
 20
0.0
 30
0.0
 11
-1.0
 21
-0.166666667
 31
0.0
  0
LINE
  5
7D
330
50
100
AcDbEntity
  8
0
  6
CONTINUOUS
 62
     0
100
AcDbLine
 10
0.0
 20
0.0
 30
0.0
 11
-1.0
 21
0.083333333
 31
0.0
  0
LINE
  5
7E
330
50
100
AcDbEntity
  8
0
  6
CONTINUOUS
 62
     0
100
AcDbLine
 10
0.0
 20
0.0
 30
0.0
 11
-1.0
 21
-0.083333333
 31
0.0
  0
LINE
  5
7F
330
50
100
AcDbEntity
  8
0
  6
CONTINUOUS
 62
     0
100
AcDbLine
 10
-1.0
 20
0.166666667
 30
0.0
 11
-1.0
 21
-0.166666667
 31
0.0
  0
ENDBLK
  5
52
330
50
100
AcDbEntity
  8
0
100
AcDbBlockEnd
  0
BLOCK
  5
54
330
53
100
AcDbEntity
  8
0
100
AcDbBlockBegin
  2
EX_BCIR
 70
     0
 10
0.0
 20
0.0
 30
0.0
  3
EX_BCIR
  1

  0
LINE
  5
80
330
53
100
AcDbEntity
  8
0
  6
CONTINUOUS
 62
     0
100
AcDbLine
 10
0.0
 20
0.0
 30
0.0
 11
-1.0
 21
0.0
 31
0.0
  0
CIRCLE
  5
81
330
53
100
AcDbEntity
  8
0
  6
CONTINUOUS
 62
     0
100
AcDbCircle
 10
0.0
 20
0.0
 30
0.0
 40
0.5
  0
CIRCLE
  5
82
330
53
100
AcDbEntity
  8
0
  6
CONTINUOUS
 62
     0
100
AcDbCircle
 10
0.0
 20
0.0
 30
0.0
 40
0.25
  0
ENDBLK
  5
55
330
53
100
AcDbEntity
  8
0
100
AcDbBlockEnd
  0
BLOCK
  5
57
330
56
100
AcDbEntity
  8
0
100
AcDbBlockBegin
  2
EX_RCIVIL
 70
     0
 10
0.0
 20
0.0
 30
0.0
  3
EX_RCIVIL
  1

  0
LINE
  5
83
330
56
100
AcDbEntity
  8
0
  6
CONTINUOUS
 62
     0
100
AcDbLine
 10
0.0
 20
0.0
 30
0.0
 11
-1.0
 21
0.0
 31
0.0
  0
LINE
  5
84
330
56
100
AcDbEntity
  8
0
  6
CONTINUOUS
 62
     0
100
AcDbLine
 10
-1.0
 20
-0.25
 30
0.0
 11
0.0
 21
-0.25
 31
0.0
  0
LINE
  5
85
330
56
100
AcDbEntity
  8
0
  6
CONTINUOUS
 62
     0
100
AcDbLine
 10
-1.0
 20
-0.125
 30
0.0
 11
0.0
 21
-0.125
 31
0.0
  0
ENDBLK
  5
58
330
56
100
AcDbEntity
  8
0
100
AcDbBlockEnd
  0
BLOCK
  5
5A
330
59
100
AcDbEntity
  8
0
100
AcDbBlockBegin
  2
EX_SLANT
 70
     0
 10
0.0
 20
0.0
 30
0.0
  3
EX_SLANT
  1

  0
LINE
  5
86
330
59
100
AcDbEntity
  8
0
  6
CONTINUOUS
 62
     0
100
AcDbLine
 10
0.0
 20
0.0
 30
0.0
 11
-1.0
 21
0.0
 31
0.0
  0
LINE
  5
87
330
59
100
AcDbEntity
  8
0
  6
CONTINUOUS
 62
     0
100
AcDbLine
 10
0.707106781
 20
0.707106781
 30
0.0
 11
-0.707106781
 21
-0.707106781
 31
0.0
  0
ENDBLK
  5
5B
330
59
100
AcDbEntity
  8
0
100
AcDbBlockEnd
  0
BLOCK
  5
5D
330
5C
100
AcDbEntity
  8
0
100
AcDbBlockBegin
  2
EX_NONE
 70
     0
 10
0.0
 20
0.0
 30
0.0
  3
EX_NONE
  1

  0
LINE
  5
88
330
5C
100
AcDbEntity
  8
0
  6
CONTINUOUS
 62
     0
100
AcDbLine
 10
0.0
 20
0.0
 30
0.0
 11
-1.0
 21
0.0
 31
0.0
  0
ENDBLK
  5
5E
330
5C
100
AcDbEntity
  8
0
100
AcDbBlockEnd
  0
BLOCK
  5
60
330
5F
100
AcDbEntity
  8
0
100
AcDbBlockBegin
  2
EX_CIVIL
 70
     0
 10
0.0
 20
0.0
 30
0.0
  3
EX_CIVIL
  1

  0
LINE
  5
89
330
5F
100
AcDbEntity
  8
0
  6
CONTINUOUS
 62
     0
100
AcDbLine
 10
0.0
 20
0.0
 30
0.0
 11
-1.0
 21
0.0
 31
0.0
  0
LINE
  5
8A
330
5F
100
AcDbEntity
  8
0
  6
CONTINUOUS
 62
     0
100
AcDbLine
 10
-1.0
 20
0.25
 30
0.0
 11
0.0
 21
0.25
 31
0.0
  0
LINE
  5
8B
330
5F
100
AcDbEntity
  8
0
  6
CONTINUOUS
 62
     0
100
AcDbLine
 10
-1.0
 20
0.125
 30
0.0
 11
0.0
 21
0.125
 31
0.0
  0
ENDBLK
  5
61
330
5F
100
AcDbEntity
  8
0
100
AcDbBlockEnd
  0
BLOCK
  5
63
330
62
100
AcDbEntity
  8
0
100
AcDbBlockBegin
  2
EX_WCIR
 70
     0
 10
0.0
 20
0.0
 30
0.0
  3
EX_WCIR
  1

  0
LINE
  5
8C
330
62
100
AcDbEntity
  8
0
  6
CONTINUOUS
 62
     0
100
AcDbLine
 10
0.0
 20
0.0
 30
0.0
 11
-1.0
 21
0.0
 31
0.0
  0
CIRCLE
  5
8D
330
62
100
AcDbEntity
  8
0
  6
CONTINUOUS
 62
     0
100
AcDbCircle
 10
0.0
 20
0.0
 30
0.0
 40
0.5
  0
ENDBLK
  5
64
330
62
100
AcDbEntity
  8
0
100
AcDbBlockEnd
  0
BLOCK
  5
66
330
65
100
AcDbEntity
  8
0
100
AcDbBlockBegin
  2
EX_WCIR2
 70
     0
 10
0.0
 20
0.0
 30
0.0
  3
EX_WCIR2
  1

  0
LINE
  5
8E
330
65
100
AcDbEntity
  8
0
  6
CONTINUOUS
 62
     0
100
AcDbLine
 10
-0.5
 20
0.0
 30
0.0
 11
-1.0
 21
0.0
 31
0.0
  0
CIRCLE
  5
8F
330
65
100
AcDbEntity
  8
0
  6
CONTINUOUS
 62
     0
100
AcDbCircle
 10
0.0
 20
0.0
 30
0.0
 40
0.5
  0
ENDBLK
  5
67
330
65
100
AcDbEntity
  8
0
100
AcDbBlockEnd
  0
BLOCK
  5
69
330
68
100
AcDbEntity
  8
0
100
AcDbBlockBegin
  2
EX_WNORM
 70
     0
 10
0.0
 20
0.0
 30
0.0
  3
EX_WNORM
  1

  0
LINE
  5
90
330
68
100
AcDbEntity
  8
0
  6
CONTINUOUS
 62
     0
100
AcDbLine
 10
-1.0
 20
0.0
 30
0.0
 11
-1.0
 21
0.0
 31
0.0
  0
LINE
  5
91
330
68
100
AcDbEntity
  8
0
  6
CONTINUOUS
 62
     0
100
AcDbLine
 10
0.0
 20
0.0
 30
0.0
 11
-1.0
 21
0.166666667
 31
0.0
  0
LINE
  5
92
330
68
100
AcDbEntity
  8
0
  6
CONTINUOUS
 62
     0
100
AcDbLine
 10
0.0
 20
0.0
 30
0.0
 11
-1.0
 21
-0.166666667
 31
0.0
  0
LINE
  5
93
330
68
100
AcDbEntity
  8
0
  6
CONTINUOUS
 62
     0
100
AcDbLine
 10
-1.0
 20
0.166666667
 30
0.0
 11
-1.0
 21
-0.166666667
 31
0.0
  0
ENDBLK
  5
6A
330
68
100
AcDbEntity
  8
0
100
AcDbBlockEnd
  0
BLOCK
  5
6C
330
6B
100
AcDbEntity
  8
0
100
AcDbBlockBegin
  2
EX_NNORM
 70
     0
 10
0.0
 20
0.0
 30
0.0
  3
EX_NNORM
  1

  0
LINE
  5
94
330
6B
100
AcDbEntity
  8
0
  6
CONTINUOUS
 62
     0
100
AcDbLine
 10
0.0
 20
0.0
 30
0.0
 11
-1.0
 21
0.0
 31
0.0
  0
LINE
  5
95
330
6B
100
AcDbEntity
  8
0
  6
CONTINUOUS
 62
     0
100
AcDbLine
 10
0.0
 20
0.0
 30
0.0
 11
-1.0
 21
0.166666667
 31
0.0
  0
LINE
  5
96
330
6B
100
AcDbEntity
  8
0
  6
CONTINUOUS
 62
     0
100
AcDbLine
 10
0.0
 20
0.0
 30
0.0
 11
-1.0
 21
-0.166666667
 31
0.0
  0
LINE
  5
97
330
6B
100
AcDbEntity
  8
0
  6
CONTINUOUS
 62
     0
100
AcDbLine
 10
-1.0
 20
0.166666667
 30
0.0
 11
-1.0
 21
-0.166666667
 31
0.0
  0
ENDBLK
  5
6D
330
6B
100
AcDbEntity
  8
0
100
AcDbBlockEnd
  0
BLOCK
  5
6F
330
6E
100
AcDbEntity
  8
0
100
AcDbBlockBegin
  2
EX_BBOX
 70
     0
 10
0.0
 20
0.0
 30
0.0
  3
EX_BBOX
  1

  0
LINE
  5
98
330
6E
100
AcDbEntity
  8
0
  6
CONTINUOUS
 62
     0
100
AcDbLine
 10
0.0
 20
0.0
 30
0.0
 11
-1.0
 21
0.0
 31
0.0
  0
LINE
  5
99
330
6E
100
AcDbEntity
  8
0
  6
CONTINUOUS
 62
     0
100
AcDbLine
 10
-0.5
 20
0.5
 30
0.0
 11
0.5
 21
0.5
 31
0.0
  0
LINE
  5
9A
330
6E
100
AcDbEntity
  8
0
  6
CONTINUOUS
 62
     0
100
AcDbLine
 10
0.5
 20
0.5
 30
0.0
 11
0.5
 21
-0.5
 31
0.0
  0
LINE
  5
9B
330
6E
100
AcDbEntity
  8
0
  6
CONTINUOUS
 62
     0
100
AcDbLine
 10
0.5
 20
-0.5
 30
0.0
 11
-0.5
 21
-0.5
 31
0.0
  0
LINE
  5
9C
330
6E
100
AcDbEntity
  8
0
  6
CONTINUOUS
 62
     0
100
AcDbLine
 10
-0.5
 20
-0.5
 30
0.0
 11
-0.5
 21
0.5
 31
0.0
  0
LINE
  5
9D
330
6E
100
AcDbEntity
  8
0
  6
CONTINUOUS
 62
     0
100
AcDbLine
 10
-0.25
 20
0.25
 30
0.0
 11
0.25
 21
0.25
 31
0.0
  0
LINE
  5
9E
330
6E
100
AcDbEntity
  8
0
  6
CONTINUOUS
 62
     0
100
AcDbLine
 10
0.25
 20
0.25
 30
0.0
 11
0.25
 21
-0.25
 31
0.0
  0
LINE
  5
9F
330
6E
100
AcDbEntity
  8
0
  6
CONTINUOUS
 62
     0
100
AcDbLine
 10
0.25
 20
-0.25
 30
0.0
 11
-0.25
 21
-0.25
 31
0.0
  0
LINE
  5
A0
330
6E
100
AcDbEntity
  8
0
  6
CONTINUOUS
 62
     0
100
AcDbLine
 10
-0.25
 20
-0.25
 30
0.0
 11
-0.25
 21
0.25
 31
0.0
  0
ENDBLK
  5
70
330
6E
100
AcDbEntity
  8
0
100
AcDbBlockEnd
  0
BLOCK
  5
72
330
71
100
AcDbEntity
  8
0
100
AcDbBlockBegin
  2
EX_WBOX
 70
     0
 10
0.0
 20
0.0
 30
0.0
  3
EX_WBOX
  1

  0
LINE
  5
A1
330
71
100
AcDbEntity
  8
0
  6
CONTINUOUS
 62
     0
100
AcDbLine
 10
-0.5
 20
0.0
 30
0.0
 11
-1.0
 21
0.0
 31
0.0
  0
LINE
  5
A2
330
71
100
AcDbEntity
  8
0
  6
CONTINUOUS
 62
     0
100
AcDbLine
 10
-0.5
 20
0.5
 30
0.0
 11
0.5
 21
0.5
 31
0.0
  0
LINE
  5
A3
330
71
100
AcDbEntity
  8
0
  6
CONTINUOUS
 62
     0
100
AcDbLine
 10
0.5
 20
0.5
 30
0.0
 11
0.5
 21
-0.5
 31
0.0
  0
LINE
  5
A4
330
71
100
AcDbEntity
  8
0
  6
CONTINUOUS
 62
     0
100
AcDbLine
 10
0.5
 20
-0.5
 30
0.0
 11
-0.5
 21
-0.5
 31
0.0
  0
LINE
  5
A5
330
71
100
AcDbEntity
  8
0
  6
CONTINUOUS
 62
     0
100
AcDbLine
 10
-0.5
 20
-0.5
 30
0.0
 11
-0.5
 21
0.5
 31
0.0
  0
ENDBLK
  5
73
330
71
100
AcDbEntity
  8
0
100
AcDbBlockEnd
  0
BLOCK
  5
75
330
74
100
AcDbEntity
  8
0
100
AcDbBlockBegin
  2
EX_INTEGRAL
 70
     0
 10
0.0
 20
0.0
 30
0.0
  3
EX_INTEGRAL
  1

  0
LINE
  5
A6
330
74
100
AcDbEntity
  8
0
  6
CONTINUOUS
 62
     0
100
AcDbLine
 10
0.0
 20
0.0
 30
0.0
 11
-1.0
 21
0.0
 31
0.0
  0
ARC
  5
A7
330
74
100
AcDbEntity
  8
0
  6
CONTINUOUS
 62
     0
100
AcDbCircle
 10
0.542115
 20
0.164992
 30
0.0
 40
0.56667
100
AcDbArc
 50
73.07249033629006
 51
196.9275130221199
  0
ARC
  5
A8
330
74
100
AcDbEntity
  8
0
  6
CONTINUOUS
 62
     0
100
AcDbCircle
 10
-0.542115
 20
-0.164992
 30
0.0
 40
0.56667
100
AcDbArc
 50
253.0724869220464
 51
16.9275130559125
  0
ENDBLK
  5
76
330
74
100
AcDbEntity
  8
0
100
AcDbBlockEnd
  0
BLOCK
  5
509
330
508
100
AcDbEntity
  8
0
100
AcDbBlockBegin
  2
*D15
 70
     1
 10
0.0
 20
0.0
 30
0.0
  3
*D15
  1

  0
LINE
  5
50B
330
508
100
AcDbEntity
  8
寸法
  6
CONTINUOUS
 62
     3
100
AcDbLine
 10
2380.0
 20
880.0000001788139
 30
0.0
 11
2380.0
 21
763.5
 31
0.0
  0
LINE
  5
50C
330
508
100
AcDbEntity
  8
寸法
  6
CONTINUOUS
 62
     3
100
AcDbLine
 10
2465.0
 20
888.0000001788139
 30
0.0
 11
2465.0
 21
763.5
 31
0.0
  0
LINE
  5
50D
330
508
100
AcDbEntity
  8
寸法
  6
CONTINUOUS
 62
     3
100
AcDbLine
 10
2380.0
 20
778.5
 30
0.0
 11
2465.0
 21
778.5
 31
0.0
  0
LINE
  5
50E
330
508
100
AcDbEntity
  8
寸法
  6
CONTINUOUS
 62
     3
100
AcDbLine
 10
2335.000003814698
 20
778.5
 30
0.0
 11
2290.000007629395
 21
778.5
 31
0.0
  0
LINE
  5
50F
330
508
100
AcDbEntity
  8
寸法
  6
CONTINUOUS
 62
     3
100
AcDbLine
 10
2509.999996185303
 20
778.5
 30
0.0
 11
2554.999992370606
 21
778.5
 31
0.0
  0
INSERT
  5
510
330
508
100
AcDbEntity
  8
寸法
 62
     3
100
AcDbBlockReference
  2
EX_NORM
 10
2380.0
 20
778.5
 30
0.0
 41
44.99999618530273
 42
44.99999618530273
 43
44.99999618530273
  0
INSERT
  5
511
330
508
100
AcDbEntity
  8
寸法
 62
     3
100
AcDbBlockReference
  2
EX_NORM
 10
2465.0
 20
778.5
 30
0.0
 41
44.99999618530273
 42
44.99999618530273
 43
44.99999618530273
 50
180.0
  0
MTEXT
  5
512
330
508
100
AcDbEntity
  8
寸法
 62
     2
100
AcDbMText
 10
2675.0
 20
813.749999910593
 30
0.0
 40
59.99999618530273
 41
0.0
 71
     5
 72
     1
  1
85（床給水）
  7
EXCADDIM1
  0
POINT
  5
513
330
508
100
AcDbEntity
  8
DEFPOINTS
 62
     0
100
AcDbPoint
 10
2380.0
 20
890.5
 30
0.0
  0
POINT
  5
514
330
508
100
AcDbEntity
  8
DEFPOINTS
 62
     0
100
AcDbPoint
 10
2465.0
 20
898.5
 30
0.0
  0
POINT
  5
515
330
508
100
AcDbEntity
  8
DEFPOINTS
 62
     0
100
AcDbPoint
 10
2465.0
 20
778.5
 30
0.0
  0
ENDBLK
  5
50A
330
508
100
AcDbEntity
  8
0
100
AcDbBlockEnd
  0
BLOCK
  5
518
330
517
100
AcDbEntity
  8
0
100
AcDbBlockBegin
  2
*D16
 70
     1
 10
0.0
 20
0.0
 30
0.0
  3
*D16
  1

  0
LINE
  5
51A
330
517
100
AcDbEntity
  8
寸法
  6
CONTINUOUS
 62
     3
100
AcDbLine
 10
2475.499999821187
 20
898.5
 30
0.0
 11
2585.0
 21
898.4999999999999
 31
0.0
  0
LINE
  5
51B
330
517
100
AcDbEntity
  8
寸法
  6
CONTINUOUS
 62
     3
100
AcDbLine
 10
2483.499999821187
 20
1248.5
 30
0.0
 11
2585.0
 21
1248.5
 31
0.0
  0
LINE
  5
51C
330
517
100
AcDbEntity
  8
寸法
  6
CONTINUOUS
 62
     3
100
AcDbLine
 10
2570.0
 20
943.4999961853026
 30
0.0
 11
2570.0
 21
1203.500003814697
 31
0.0
  0
INSERT
  5
51D
330
517
100
AcDbEntity
  8
寸法
 62
     3
100
AcDbBlockReference
  2
EX_NORM
 10
2570.0
 20
898.4999999999999
 30
0.0
 41
44.99999618530273
 42
44.99999618530273
 43
44.99999618530273
 50
270.0
  0
INSERT
  5
51E
330
517
100
AcDbEntity
  8
寸法
 62
     3
100
AcDbBlockReference
  2
EX_NORM
 10
2570.0
 20
1248.5
 30
0.0
 41
44.99999618530273
 42
44.99999618530273
 43
44.99999618530273
 50
90.0
  0
MTEXT
  5
51F
330
517
100
AcDbEntity
  8
寸法
 62
     2
100
AcDbMText
 10
2534.750000089407
 20
1073.5
 30
0.0
 40
59.99999618530273
 41
0.0
 71
     5
 72
     1
  1
350（壁給水）
  7
EXCADDIM1
 11
0.0
 21
1.0
 31
0.0
  0
POINT
  5
520
330
517
100
AcDbEntity
  8
DEFPOINTS
 62
     0
100
AcDbPoint
 10
2465.0
 20
898.5
 30
0.0
  0
POINT
  5
521
330
517
100
AcDbEntity
  8
DEFPOINTS
 62
     0
100
AcDbPoint
 10
2473.0
 20
1248.5
 30
0.0
  0
POINT
  5
522
330
517
100
AcDbEntity
  8
DEFPOINTS
 62
     0
100
AcDbPoint
 10
2570.0
 20
1248.5
 30
0.0
  0
ENDBLK
  5
519
330
517
100
AcDbEntity
  8
0
100
AcDbBlockEnd
  0
BLOCK
  5
525
330
524
100
AcDbEntity
  8
0
100
AcDbBlockBegin
  2
*D17
 70
     1
 10
0.0
 20
0.0
 30
0.0
  3
*D17
  1

  0
LINE
  5
527
330
524
100
AcDbEntity
  8
寸法
  6
CONTINUOUS
 62
     3
100
AcDbLine
 10
2475.499999821187
 20
898.5
 30
0.0
 11
2675.0
 21
898.4999999999999
 31
0.0
  0
LINE
  5
528
330
524
100
AcDbEntity
  8
寸法
  6
CONTINUOUS
 62
     3
100
AcDbLine
 10
2496.499999821187
 20
1398.5
 30
0.0
 11
2675.0
 21
1398.5
 31
0.0
  0
LINE
  5
529
330
524
100
AcDbEntity
  8
寸法
  6
CONTINUOUS
 62
     3
100
AcDbLine
 10
2660.0
 20
943.4999961853026
 30
0.0
 11
2660.0
 21
1353.500003814697
 31
0.0
  0
INSERT
  5
52A
330
524
100
AcDbEntity
  8
寸法
 62
     3
100
AcDbBlockReference
  2
EX_NORM
 10
2660.0
 20
898.4999999999999
 30
0.0
 41
44.99999618530273
 42
44.99999618530273
 43
44.99999618530273
 50
270.0
  0
INSERT
  5
52B
330
524
100
AcDbEntity
  8
寸法
 62
     3
100
AcDbBlockReference
  2
EX_NORM
 10
2660.0
 20
1398.5
 30
0.0
 41
44.99999618530273
 42
44.99999618530273
 43
44.99999618530273
 50
90.0
  0
MTEXT
  5
52C
330
524
100
AcDbEntity
  8
寸法
 62
     2
100
AcDbMText
 10
2624.750000089407
 20
1148.5
 30
0.0
 40
59.99999618530273
 41
0.0
 71
     5
 72
     1
  1
500（壁排水）
  7
EXCADDIM1
 11
0.0
 21
1.0
 31
0.0
  0
POINT
  5
52D
330
524
100
AcDbEntity
  8
DEFPOINTS
 62
     0
100
AcDbPoint
 10
2465.0
 20
898.5
 30
0.0
  0
POINT
  5
52E
330
524
100
AcDbEntity
  8
DEFPOINTS
 62
     0
100
AcDbPoint
 10
2486.0
 20
1398.5
 30
0.0
  0
POINT
  5
52F
330
524
100
AcDbEntity
  8
DEFPOINTS
 62
     0
100
AcDbPoint
 10
2660.0
 20
1398.5
 30
0.0
  0
ENDBLK
  5
526
330
524
100
AcDbEntity
  8
0
100
AcDbBlockEnd
  0
BLOCK
  5
532
330
531
100
AcDbEntity
  8
0
100
AcDbBlockBegin
  2
*D18
 70
     1
 10
0.0
 20
0.0
 30
0.0
  3
*D18
  1

  0
LINE
  5
534
330
531
100
AcDbEntity
  8
寸法
  6
CONTINUOUS
 62
     3
100
AcDbLine
 10
2475.499999821187
 20
898.5
 30
0.0
 11
2765.0
 21
898.4999999999999
 31
0.0
  0
LINE
  5
535
330
531
100
AcDbEntity
  8
寸法
  6
CONTINUOUS
 62
     3
100
AcDbLine
 10
2507.999999821187
 20
1453.5
 30
0.0
 11
2765.0
 21
1453.5
 31
0.0
  0
LINE
  5
536
330
531
100
AcDbEntity
  8
寸法
  6
CONTINUOUS
 62
     3
100
AcDbLine
 10
2750.0
 20
943.4999961853026
 30
0.0
 11
2750.0
 21
1408.500003814697
 31
0.0
  0
INSERT
  5
537
330
531
100
AcDbEntity
  8
寸法
 62
     3
100
AcDbBlockReference
  2
EX_NORM
 10
2750.0
 20
898.4999999999999
 30
0.0
 41
44.99999618530273
 42
44.99999618530273
 43
44.99999618530273
 50
270.0
  0
INSERT
  5
538
330
531
100
AcDbEntity
  8
寸法
 62
     3
100
AcDbBlockReference
  2
EX_NORM
 10
2750.0
 20
1453.5
 30
0.0
 41
44.99999618530273
 42
44.99999618530273
 43
44.99999618530273
 50
90.0
  0
MTEXT
  5
539
330
531
100
AcDbEntity
  8
寸法
 62
     2
100
AcDbMText
 10
2714.750000089407
 20
1176.0
 30
0.0
 40
59.99999618530273
 41
0.0
 71
     5
 72
     1
  1
555（壁固定）
  7
EXCADDIM1
 11
0.0
 21
1.0
 31
0.0
  0
POINT
  5
53A
330
531
100
AcDbEntity
  8
DEFPOINTS
 62
     0
100
AcDbPoint
 10
2465.0
 20
898.5
 30
0.0
  0
POINT
  5
53B
330
531
100
AcDbEntity
  8
DEFPOINTS
 62
     0
100
AcDbPoint
 10
2497.5
 20
1453.5
 30
0.0
  0
POINT
  5
53C
330
531
100
AcDbEntity
  8
DEFPOINTS
 62
     0
100
AcDbPoint
 10
2750.0
 20
1453.5
 30
0.0
  0
ENDBLK
  5
533
330
531
100
AcDbEntity
  8
0
100
AcDbBlockEnd
  0
BLOCK
  5
53F
330
53E
100
AcDbEntity
  8
0
100
AcDbBlockBegin
  2
*D19
 70
     1
 10
0.0
 20
0.0
 30
0.0
  3
*D19
  1

  0
LINE
  5
541
330
53E
100
AcDbEntity
  8
寸法
  6
CONTINUOUS
 62
     3
100
AcDbLine
 10
2075.0
 20
891.5000001788139
 30
0.0
 11
2075.0
 21
583.5
 31
0.0
  0
LINE
  5
542
330
53E
100
AcDbEntity
  8
寸法
  6
CONTINUOUS
 62
     3
100
AcDbLine
 10
2465.0
 20
888.0000001788139
 30
0.0
 11
2465.0
 21
583.5
 31
0.0
  0
LINE
  5
543
330
53E
100
AcDbEntity
  8
寸法
  6
CONTINUOUS
 62
     3
100
AcDbLine
 10
2119.999996185303
 20
598.5
 30
0.0
 11
2420.000003814698
 21
598.5
 31
0.0
  0
INSERT
  5
544
330
53E
100
AcDbEntity
  8
寸法
 62
     3
100
AcDbBlockReference
  2
EX_NORM
 10
2075.0
 20
598.5
 30
0.0
 41
44.99999618530273
 42
44.99999618530273
 43
44.99999618530273
 50
180.0
  0
INSERT
  5
545
330
53E
100
AcDbEntity
  8
寸法
 62
     3
100
AcDbBlockReference
  2
EX_NORM
 10
2465.0
 20
598.5
 30
0.0
 41
44.99999618530273
 42
44.99999618530273
 43
44.99999618530273
  0
MTEXT
  5
546
330
53E
100
AcDbEntity
  8
寸法
 62
     2
100
AcDbMText
 10
2270.0
 20
633.749999910593
 30
0.0
 40
59.99999618530273
 41
0.0
 71
     5
 72
     1
  1
390
  7
EXCADDIM1
  0
POINT
  5
547
330
53E
100
AcDbEntity
  8
DEFPOINTS
 62
     0
100
AcDbPoint
 10
2075.0
 20
902.0
 30
0.0
  0
POINT
  5
548
330
53E
100
AcDbEntity
  8
DEFPOINTS
 62
     0
100
AcDbPoint
 10
2465.0
 20
898.5
 30
0.0
  0
POINT
  5
549
330
53E
100
AcDbEntity
  8
DEFPOINTS
 62
     0
100
AcDbPoint
 10
2465.0
 20
598.5
 30
0.0
  0
ENDBLK
  5
540
330
53E
100
AcDbEntity
  8
0
100
AcDbBlockEnd
  0
BLOCK
  5
54E
330
54D
100
AcDbEntity
  8
0
100
AcDbBlockBegin
  2
*D20
 70
     1
 10
0.0
 20
0.0
 30
0.0
  3
*D20
  1

  0
LINE
  5
550
330
54D
100
AcDbEntity
  8
寸法
  6
CONTINUOUS
 62
     3
100
AcDbLine
 10
869.0000000000002
 20
1691.222387519186
 30
0.0
 11
869.0000000000002
 21
1888.5
 31
0.0
  0
LINE
  5
551
330
54D
100
AcDbEntity
  8
寸法
  6
CONTINUOUS
 62
     3
100
AcDbLine
 10
971.0000000000002
 20
1700.722387519186
 30
0.0
 11
971.0000000000002
 21
1888.5
 31
0.0
  0
LINE
  5
552
330
54D
100
AcDbEntity
  8
寸法
  6
CONTINUOUS
 62
     3
100
AcDbLine
 10
913.999996185303
 20
1873.5
 30
0.0
 11
926.0000038146975
 21
1873.5
 31
0.0
  0
INSERT
  5
553
330
54D
100
AcDbEntity
  8
寸法
 62
     3
100
AcDbBlockReference
  2
EX_NORM
 10
869.0000000000002
 20
1873.5
 30
0.0
 41
44.99999618530273
 42
44.99999618530273
 43
44.99999618530273
 50
180.0
  0
INSERT
  5
554
330
54D
100
AcDbEntity
  8
寸法
 62
     3
100
AcDbBlockReference
  2
EX_NORM
 10
971.0000000000002
 20
1873.5
 30
0.0
 41
44.99999618530273
 42
44.99999618530273
 43
44.99999618530273
  0
MTEXT
  5
555
330
54D
100
AcDbEntity
  8
寸法
 62
     2
100
AcDbMText
 10
920.0000000000002
 20
1908.749999910593
 30
0.0
 40
59.99999618530273
 41
0.0
 71
     5
 72
     1
  1
102
  7
EXCADDIM1
  0
POINT
  5
556
330
54D
100
AcDbEntity
  8
DEFPOINTS
 62
     0
100
AcDbPoint
 10
869.0000000000002
 20
1680.722387698
 30
0.0
  0
POINT
  5
557
330
54D
100
AcDbEntity
  8
DEFPOINTS
 62
     0
100
AcDbPoint
 10
971.0000000000002
 20
1690.222387698
 30
0.0
  0
POINT
  5
558
330
54D
100
AcDbEntity
  8
DEFPOINTS
 62
     0
100
AcDbPoint
 10
971.0000000000002
 20
1873.5
 30
0.0
  0
ENDBLK
  5
54F
330
54D
100
AcDbEntity
  8
0
100
AcDbBlockEnd
  0
BLOCK
  5
55B
330
55A
100
AcDbEntity
  8
0
100
AcDbBlockBegin
  2
*D21
 70
     1
 10
0.0
 20
0.0
 30
0.0
  3
*D21
  1

  0
LINE
  5
55D
330
55A
100
AcDbEntity
  8
寸法
  6
CONTINUOUS
 62
     3
100
AcDbLine
 10
2385.0
 20
1693.999999821186
 30
0.0
 11
2385.0
 21
1888.5
 31
0.0
  0
LINE
  5
55E
330
55A
100
AcDbEntity
  8
寸法
  6
CONTINUOUS
 62
     3
100
AcDbLine
 10
2385.0
 20
1873.5
 30
0.0
 11
2465.0
 21
1873.5
 31
0.0
  0
LINE
  5
55F
330
55A
100
AcDbEntity
  8
寸法
  6
CONTINUOUS
 62
     3
100
AcDbLine
 10
2340.000003814698
 20
1873.5
 30
0.0
 11
2295.000007629395
 21
1873.5
 31
0.0
  0
LINE
  5
560
330
55A
100
AcDbEntity
  8
寸法
  6
CONTINUOUS
 62
     3
100
AcDbLine
 10
2509.999996185303
 20
1873.5
 30
0.0
 11
2554.999992370606
 21
1873.5
 31
0.0
  0
INSERT
  5
561
330
55A
100
AcDbEntity
  8
寸法
 62
     3
100
AcDbBlockReference
  2
EX_NORM
 10
2385.0
 20
1873.5
 30
0.0
 41
44.99999618530273
 42
44.99999618530273
 43
44.99999618530273
  0
INSERT
  5
562
330
55A
100
AcDbEntity
  8
寸法
 62
     3
100
AcDbBlockReference
  2
EX_NORM
 10
2465.0
 20
1873.5
 30
0.0
 41
44.99999618530273
 42
44.99999618530273
 43
44.99999618530273
 50
180.0
  0
MTEXT
  5
563
330
55A
100
AcDbEntity
  8
寸法
 62
     2
100
AcDbMText
 10
2287.5
 20
1908.749999910593
 30
0.0
 40
59.99999618530273
 41
0.0
 71
     5
 72
     1
  1
80
  7
EXCADDIM1
  0
POINT
  5
564
330
55A
100
AcDbEntity
  8
DEFPOINTS
 62
     0
100
AcDbPoint
 10
2385.0
 20
1683.5
 30
0.0
  0
POINT
  5
565
330
55A
100
AcDbEntity
  8
DEFPOINTS
 62
     0
100
AcDbPoint
 10
2465.0
 20
1693.5
 30
0.0
  0
POINT
  5
566
330
55A
100
AcDbEntity
  8
DEFPOINTS
 62
     0
100
AcDbPoint
 10
2465.0
 20
1873.5
 30
0.0
  0
ENDBLK
  5
55C
330
55A
100
AcDbEntity
  8
0
100
AcDbBlockEnd
  0
BLOCK
  5
56E
330
56D
100
AcDbEntity
  8
0
100
AcDbBlockBegin
  2
*D22
 70
     1
 10
0.0
 20
0.0
 30
0.0
  3
*D22
  1

  0
LINE
  5
570
330
56D
100
AcDbEntity
  8
寸法
  6
CONTINUOUS
 62
     3
100
AcDbLine
 10
2345.0
 20
858.0000001788139
 30
0.0
 11
2345.0
 21
673.5
 31
0.0
  0
LINE
  5
571
330
56D
100
AcDbEntity
  8
寸法
  6
CONTINUOUS
 62
     3
100
AcDbLine
 10
2465.0
 20
888.0000001788139
 30
0.0
 11
2465.0
 21
673.5
 31
0.0
  0
LINE
  5
572
330
56D
100
AcDbEntity
  8
寸法
  6
CONTINUOUS
 62
     3
100
AcDbLine
 10
2389.999996185303
 20
688.5
 30
0.0
 11
2420.000003814698
 21
688.5
 31
0.0
  0
INSERT
  5
573
330
56D
100
AcDbEntity
  8
寸法
 62
     3
100
AcDbBlockReference
  2
EX_NORM
 10
2345.0
 20
688.5
 30
0.0
 41
44.99999618530273
 42
44.99999618530273
 43
44.99999618530273
 50
180.0
  0
INSERT
  5
574
330
56D
100
AcDbEntity
  8
寸法
 62
     3
100
AcDbBlockReference
  2
EX_NORM
 10
2465.0
 20
688.5
 30
0.0
 41
44.99999618530273
 42
44.99999618530273
 43
44.99999618530273
  0
MTEXT
  5
575
330
56D
100
AcDbEntity
  8
寸法
 62
     2
100
AcDbMText
 10
2697.5
 20
723.749999910593
 30
0.0
 40
59.99999618530273
 41
0.0
 71
     5
 72
     1
  1
120（床排水）
  7
EXCADDIM1
  0
POINT
  5
576
330
56D
100
AcDbEntity
  8
DEFPOINTS
 62
     0
100
AcDbPoint
 10
2345.0
 20
868.5
 30
0.0
  0
POINT
  5
577
330
56D
100
AcDbEntity
  8
DEFPOINTS
 62
     0
100
AcDbPoint
 10
2465.0
 20
898.5
 30
0.0
  0
POINT
  5
578
330
56D
100
AcDbEntity
  8
DEFPOINTS
 62
     0
100
AcDbPoint
 10
2465.0
 20
688.5
 30
0.0
  0
ENDBLK
  5
56F
330
56D
100
AcDbEntity
  8
0
100
AcDbBlockEnd
  0
BLOCK
  5
57B
330
57A
100
AcDbEntity
  8
0
100
AcDbBlockBegin
  2
*D23
 70
     1
 10
0.0
 20
0.0
 30
0.0
  3
*D23
  1

  0
LINE
  5
57D
330
57A
100
AcDbEntity
  8
寸法
  6
CONTINUOUS
 62
     3
100
AcDbLine
 10
820.000000000002
 20
880.0000001788139
 30
0.0
 11
820.000000000002
 21
673.5
 31
0.0
  0
LINE
  5
57E
330
57A
100
AcDbEntity
  8
寸法
  6
CONTINUOUS
 62
     3
100
AcDbLine
 10
1020.0
 20
880.0000001788139
 30
0.0
 11
1020.0
 21
673.5
 31
0.0
  0
LINE
  5
57F
330
57A
100
AcDbEntity
  8
寸法
  6
CONTINUOUS
 62
     3
100
AcDbLine
 10
864.9999961853048
 20
688.5
 30
0.0
 11
975.0000038146975
 21
688.5
 31
0.0
  0
INSERT
  5
580
330
57A
100
AcDbEntity
  8
寸法
 62
     3
100
AcDbBlockReference
  2
EX_NORM
 10
820.000000000002
 20
688.5
 30
0.0
 41
44.99999618530273
 42
44.99999618530273
 43
44.99999618530273
 50
180.0
  0
INSERT
  5
581
330
57A
100
AcDbEntity
  8
寸法
 62
     3
100
AcDbBlockReference
  2
EX_NORM
 10
1020.0
 20
688.5
 30
0.0
 41
44.99999618530273
 42
44.99999618530273
 43
44.99999618530273
  0
MTEXT
  5
582
330
57A
100
AcDbEntity
  8
寸法
 62
     2
100
AcDbMText
 10
1252.5
 20
723.749999910593
 30
0.0
 40
59.99999618530273
 41
0.0
 71
     5
 72
     1
  1
200（床給水）
  7
EXCADDIM1
  0
POINT
  5
583
330
57A
100
AcDbEntity
  8
DEFPOINTS
 62
     0
100
AcDbPoint
 10
820.000000000002
 20
890.5
 30
0.0
  0
POINT
  5
584
330
57A
100
AcDbEntity
  8
DEFPOINTS
 62
     0
100
AcDbPoint
 10
1020.0
 20
890.5
 30
0.0
  0
POINT
  5
585
330
57A
100
AcDbEntity
  8
DEFPOINTS
 62
     0
100
AcDbPoint
 10
1020.0
 20
688.5
 30
0.0
  0
ENDBLK
  5
57C
330
57A
100
AcDbEntity
  8
0
100
AcDbBlockEnd
  0
BLOCK
  5
58A
330
589
100
AcDbEntity
  8
0
100
AcDbBlockBegin
  2
*D24
 70
     1
 10
0.0
 20
0.0
 30
0.0
  3
*D24
  1

  0
LINE
  5
58C
330
589
100
AcDbEntity
  8
寸法
  6
CONTINUOUS
 62
     3
100
AcDbLine
 10
820.000000000002
 20
3991.499999821186
 30
0.0
 11
820.000000000002
 21
4093.0
 31
0.0
  0
LINE
  5
58D
330
589
100
AcDbEntity
  8
寸法
  6
CONTINUOUS
 62
     3
100
AcDbLine
 10
1020.0
 20
3991.499999821186
 30
0.0
 11
1020.0
 21
4093.0
 31
0.0
  0
LINE
  5
58E
330
589
100
AcDbEntity
  8
寸法
  6
CONTINUOUS
 62
     3
100
AcDbLine
 10
864.9999961853048
 20
4078.0
 30
0.0
 11
975.0000038146975
 21
4078.0
 31
0.0
  0
INSERT
  5
58F
330
589
100
AcDbEntity
  8
寸法
 62
     3
100
AcDbBlockReference
  2
EX_NORM
 10
820.000000000002
 20
4078.0
 30
0.0
 41
44.99999618530273
 42
44.99999618530273
 43
44.99999618530273
 50
180.0
  0
INSERT
  5
590
330
589
100
AcDbEntity
  8
寸法
 62
     3
100
AcDbBlockReference
  2
EX_NORM
 10
1020.0
 20
4078.0
 30
0.0
 41
44.99999618530273
 42
44.99999618530273
 43
44.99999618530273
  0
MTEXT
  5
591
330
589
100
AcDbEntity
  8
寸法
 62
     2
100
AcDbMText
 10
1252.5
 20
4113.249999910593
 30
0.0
 40
59.99999618530273
 41
0.0
 71
     5
 72
     1
  1
200（壁給水）
  7
EXCADDIM1
  0
POINT
  5
592
330
589
100
AcDbEntity
  8
DEFPOINTS
 62
     0
100
AcDbPoint
 10
820.000000000002
 20
3981.0
 30
0.0
  0
POINT
  5
593
330
589
100
AcDbEntity
  8
DEFPOINTS
 62
     0
100
AcDbPoint
 10
1020.0
 20
3981.0
 30
0.0
  0
POINT
  5
594
330
589
100
AcDbEntity
  8
DEFPOINTS
 62
     0
100
AcDbPoint
 10
1020.0
 20
4078.0
 30
0.0
  0
ENDBLK
  5
58B
330
589
100
AcDbEntity
  8
0
100
AcDbBlockEnd
  0
BLOCK
  5
597
330
596
100
AcDbEntity
  8
0
100
AcDbBlockBegin
  2
*D25
 70
     1
 10
0.0
 20
0.0
 30
0.0
  3
*D25
  1

  0
LINE
  5
599
330
596
100
AcDbEntity
  8
寸法
  6
CONTINUOUS
 62
     3
100
AcDbLine
 10
620.0000000000002
 20
3521.957949503714
 30
0.0
 11
620.0000000000002
 21
3373.0
 31
0.0
  0
LINE
  5
59A
330
596
100
AcDbEntity
  8
寸法
  6
CONTINUOUS
 62
     3
100
AcDbLine
 10
1219.999999999997
 20
3521.957949503714
 30
0.0
 11
1219.999999999997
 21
3373.0
 31
0.0
  0
LINE
  5
59B
330
596
100
AcDbEntity
  8
寸法
  6
CONTINUOUS
 62
     3
100
AcDbLine
 10
664.999996185303
 20
3388.0
 30
0.0
 11
1175.000003814694
 21
3388.0
 31
0.0
  0
INSERT
  5
59C
330
596
100
AcDbEntity
  8
寸法
 62
     3
100
AcDbBlockReference
  2
EX_NORM
 10
620.0000000000002
 20
3388.0
 30
0.0
 41
44.99999618530273
 42
44.99999618530273
 43
44.99999618530273
 50
180.0
  0
INSERT
  5
59D
330
596
100
AcDbEntity
  8
寸法
 62
     3
100
AcDbBlockReference
  2
EX_NORM
 10
1219.999999999997
 20
3388.0
 30
0.0
 41
44.99999618530273
 42
44.99999618530273
 43
44.99999618530273
  0
MTEXT
  5
59E
330
596
100
AcDbEntity
  8
寸法
 62
     2
100
AcDbMText
 10
919.9999999999986
 20
3423.249999910593
 30
0.0
 40
59.99999618530273
 41
0.0
 71
     5
 72
     1
  1
600
  7
EXCADDIM1
  0
POINT
  5
59F
330
596
100
AcDbEntity
  8
DEFPOINTS
 62
     0
100
AcDbPoint
 10
620.0000000000002
 20
3532.4579493249
 30
0.0
  0
POINT
  5
5A0
330
596
100
AcDbEntity
  8
DEFPOINTS
 62
     0
100
AcDbPoint
 10
1219.999999999997
 20
3532.4579493249
 30
0.0
  0
POINT
  5
5A1
330
596
100
AcDbEntity
  8
DEFPOINTS
 62
     0
100
AcDbPoint
 10
1219.999999999997
 20
3388.0
 30
0.0
  0
ENDBLK
  5
598
330
596
100
AcDbEntity
  8
0
100
AcDbBlockEnd
  0
BLOCK
  5
5A4
330
5A3
100
AcDbEntity
  8
0
100
AcDbBlockBegin
  2
*D26
 70
     1
 10
0.0
 20
0.0
 30
0.0
  3
*D26
  1

  0
LINE
  5
5A6
330
5A3
100
AcDbEntity
  8
寸法
  6
CONTINUOUS
 62
     3
100
AcDbLine
 10
930.4999998211863
 20
3493.0
 30
0.0
 11
1339.999999999997
 21
3493.0
 31
0.0
  0
LINE
  5
5A7
330
5A3
100
AcDbEntity
  8
寸法
  6
CONTINUOUS
 62
     3
100
AcDbLine
 10
1324.999999999997
 20
3537.999996185303
 30
0.0
 11
1324.999999999997
 21
3928.000003814697
 31
0.0
  0
INSERT
  5
5A8
330
5A3
100
AcDbEntity
  8
寸法
 62
     3
100
AcDbBlockReference
  2
EX_NORM
 10
1324.999999999997
 20
3493.0
 30
0.0
 41
44.99999618530273
 42
44.99999618530273
 43
44.99999618530273
 50
270.0
  0
INSERT
  5
5A9
330
5A3
100
AcDbEntity
  8
寸法
 62
     3
100
AcDbBlockReference
  2
EX_NORM
 10
1324.999999999997
 20
3973.0
 30
0.0
 41
44.99999618530273
 42
44.99999618530273
 43
44.99999618530273
 50
90.0
  0
MTEXT
  5
5AA
330
5A3
100
AcDbEntity
  8
寸法
 62
     2
100
AcDbMText
 10
1289.750000089404
 20
3732.999999999999
 30
0.0
 40
59.99999618530273
 41
0.0
 71
     5
 72
     1
  1
480
  7
EXCADDIM1
 11
0.0
 21
1.0
 31
0.0
  0
POINT
  5
5AB
330
5A3
100
AcDbEntity
  8
DEFPOINTS
 62
     0
100
AcDbPoint
 10
920.0000000000002
 20
3493.0
 30
0.0
  0
POINT
  5
5AC
330
5A3
100
AcDbEntity
  8
DEFPOINTS
 62
     0
100
AcDbPoint
 10
1294.999999999997
 20
3973.0
 30
0.0
  0
POINT
  5
5AD
330
5A3
100
AcDbEntity
  8
DEFPOINTS
 62
     0
100
AcDbPoint
 10
1324.999999999997
 20
3973.0
 30
0.0
  0
ENDBLK
  5
5A5
330
5A3
100
AcDbEntity
  8
0
100
AcDbBlockEnd
  0
BLOCK
  5
5B0
330
5AF
100
AcDbEntity
  8
0
100
AcDbBlockBegin
  2
*D27
 70
     1
 10
0.0
 20
0.0
 30
0.0
  3
*D27
  1

  0
LINE
  5
5B2
330
5AF
100
AcDbEntity
  8
寸法
  6
CONTINUOUS
 62
     3
100
AcDbLine
 10
725.0000000000002
 20
4150.500004768372
 30
0.0
 11
725.0000000000002
 21
4183.0
 31
0.0
  0
LINE
  5
5B3
330
5AF
100
AcDbEntity
  8
寸法
  6
CONTINUOUS
 62
     3
100
AcDbLine
 10
1114.999999999997
 20
4150.500004768372
 30
0.0
 11
1114.999999999997
 21
4183.0
 31
0.0
  0
LINE
  5
5B4
330
5AF
100
AcDbEntity
  8
寸法
  6
CONTINUOUS
 62
     3
100
AcDbLine
 10
769.999996185303
 20
4168.0
 30
0.0
 11
1070.000003814694
 21
4168.0
 31
0.0
  0
INSERT
  5
5B5
330
5AF
100
AcDbEntity
  8
寸法
 62
     3
100
AcDbBlockReference
  2
EX_NORM
 10
725.0000000000002
 20
4168.0
 30
0.0
 41
44.99999618530273
 42
44.99999618530273
 43
44.99999618530273
 50
180.0
  0
INSERT
  5
5B6
330
5AF
100
AcDbEntity
  8
寸法
 62
     3
100
AcDbBlockReference
  2
EX_NORM
 10
1114.999999999997
 20
4168.0
 30
0.0
 41
44.99999618530273
 42
44.99999618530273
 43
44.99999618530273
  0
MTEXT
  5
5B7
330
5AF
100
AcDbEntity
  8
寸法
 62
     2
100
AcDbMText
 10
919.9999999999986
 20
4203.249999910593
 30
0.0
 40
59.99999618530273
 41
0.0
 71
     5
 72
     1
  1
390（壁固定）
  7
EXCADDIM1
  0
POINT
  5
5B8
330
5AF
100
AcDbEntity
  8
DEFPOINTS
 62
     0
100
AcDbPoint
 10
725.0000000000002
 20
4005.5
 30
0.0
  0
POINT
  5
5B9
330
5AF
100
AcDbEntity
  8
DEFPOINTS
 62
     0
100
AcDbPoint
 10
1114.999999999997
 20
4005.5
 30
0.0
  0
POINT
  5
5BA
330
5AF
100
AcDbEntity
  8
DEFPOINTS
 62
     0
100
AcDbPoint
 10
1114.999999999997
 20
4168.0
 30
0.0
  0
ENDBLK
  5
5B1
330
5AF
100
AcDbEntity
  8
0
100
AcDbBlockEnd
  0
BLOCK
  5
5BD
330
5BC
100
AcDbEntity
  8
0
100
AcDbBlockBegin
  2
*D28
 70
     1
 10
0.0
 20
0.0
 30
0.0
  3
*D28
  1

  0
LINE
  5
5BF
330
5BC
100
AcDbEntity
  8
寸法
  6
CONTINUOUS
 62
     3
100
AcDbLine
 10
636.5000000000002
 20
661.0000047683716
 30
0.0
 11
636.5000000000002
 21
583.5
 31
0.0
  0
LINE
  5
5C0
330
5BC
100
AcDbEntity
  8
寸法
  6
CONTINUOUS
 62
     3
100
AcDbLine
 10
1203.499999999997
 20
661.0000047683716
 30
0.0
 11
1203.499999999997
 21
583.5
 31
0.0
  0
LINE
  5
5C1
330
5BC
100
AcDbEntity
  8
寸法
  6
CONTINUOUS
 62
     3
100
AcDbLine
 10
681.499996185303
 20
598.5
 30
0.0
 11
1158.500003814694
 21
598.5
 31
0.0
  0
INSERT
  5
5C2
330
5BC
100
AcDbEntity
  8
寸法
 62
     3
100
AcDbBlockReference
  2
EX_NORM
 10
636.5000000000002
 20
598.5
 30
0.0
 41
44.99999618530273
 42
44.99999618530273
 43
44.99999618530273
 50
180.0
  0
INSERT
  5
5C3
330
5BC
100
AcDbEntity
  8
寸法
 62
     3
100
AcDbBlockReference
  2
EX_NORM
 10
1203.499999999997
 20
598.5
 30
0.0
 41
44.99999618530273
 42
44.99999618530273
 43
44.99999618530273
  0
MTEXT
  5
5C4
330
5BC
100
AcDbEntity
  8
寸法
 62
     2
100
AcDbMText
 10
919.9999999999984
 20
633.749999910593
 30
0.0
 40
59.99999618530273
 41
0.0
 71
     5
 72
     1
  1
567
  7
EXCADDIM1
  0
POINT
  5
5C5
330
5BC
100
AcDbEntity
  8
DEFPOINTS
 62
     0
100
AcDbPoint
 10
636.5000000000002
 20
898.5
 30
0.0
  0
POINT
  5
5C6
330
5BC
100
AcDbEntity
  8
DEFPOINTS
 62
     0
100
AcDbPoint
 10
1203.499999999997
 20
898.5
 30
0.0
  0
POINT
  5
5C7
330
5BC
100
AcDbEntity
  8
DEFPOINTS
 62
     0
100
AcDbPoint
 10
1203.499999999997
 20
598.5
 30
0.0
  0
ENDBLK
  5
5BE
330
5BC
100
AcDbEntity
  8
0
100
AcDbBlockEnd
  0
BLOCK
  5
5CA
330
5C9
100
AcDbEntity
  8
0
100
AcDbBlockBegin
  2
*D29
 70
     1
 10
0.0
 20
0.0
 30
0.0
  3
*D29
  1

  0
LINE
  5
5CC
330
5C9
100
AcDbEntity
  8
寸法
  6
CONTINUOUS
 62
     3
100
AcDbLine
 10
930.4999998211863
 20
1678.5
 30
0.0
 11
1387.499999999998
 21
1678.5
 31
0.0
  0
LINE
  5
5CD
330
5C9
100
AcDbEntity
  8
寸法
  6
CONTINUOUS
 62
     3
100
AcDbLine
 10
1372.499999999998
 20
943.4999961853028
 30
0.0
 11
1372.499999999998
 21
1633.500003814697
 31
0.0
  0
INSERT
  5
5CE
330
5C9
100
AcDbEntity
  8
寸法
 62
     3
100
AcDbBlockReference
  2
EX_NORM
 10
1372.499999999998
 20
898.5000000000001
 30
0.0
 41
44.99999618530273
 42
44.99999618530273
 43
44.99999618530273
 50
270.0
  0
INSERT
  5
5CF
330
5C9
100
AcDbEntity
  8
寸法
 62
     3
100
AcDbBlockReference
  2
EX_NORM
 10
1372.499999999998
 20
1678.5
 30
0.0
 41
44.99999618530273
 42
44.99999618530273
 43
44.99999618530273
 50
90.0
  0
MTEXT
  5
5D0
330
5C9
100
AcDbEntity
  8
寸法
 62
     2
100
AcDbMText
 10
1337.250000089405
 20
1288.5
 30
0.0
 40
59.99999618530273
 41
0.0
 71
     5
 72
     1
  1
780
  7
EXCADDIM1
 11
0.0
 21
1.0
 31
0.0
  0
POINT
  5
5D1
330
5C9
100
AcDbEntity
  8
DEFPOINTS
 62
     0
100
AcDbPoint
 10
1278.499999999997
 20
898.5
 30
0.0
  0
POINT
  5
5D2
330
5C9
100
AcDbEntity
  8
DEFPOINTS
 62
     0
100
AcDbPoint
 10
920.0000000000002
 20
1678.5
 30
0.0
  0
POINT
  5
5D3
330
5C9
100
AcDbEntity
  8
DEFPOINTS
 62
     0
100
AcDbPoint
 10
1372.499999999998
 20
1678.5
 30
0.0
  0
ENDBLK
  5
5CB
330
5C9
100
AcDbEntity
  8
0
100
AcDbBlockEnd
  0
BLOCK
  5
5D6
330
5D5
100
AcDbEntity
  8
0
100
AcDbBlockBegin
  2
*D30
 70
     1
 10
0.0
 20
0.0
 30
0.0
  3
*D30
  1

  0
LINE
  5
5D8
330
5D5
100
AcDbEntity
  8
寸法
  6
CONTINUOUS
 62
     3
100
AcDbLine
 10
1225.499999821183
 20
1693.5
 30
0.0
 11
1477.499999999998
 21
1693.5
 31
0.0
  0
LINE
  5
5D9
330
5D5
100
AcDbEntity
  8
寸法
  6
CONTINUOUS
 62
     3
100
AcDbLine
 10
1462.499999999998
 20
943.4999961853028
 30
0.0
 11
1462.499999999998
 21
1648.500003814697
 31
0.0
  0
INSERT
  5
5DA
330
5D5
100
AcDbEntity
  8
寸法
 62
     3
100
AcDbBlockReference
  2
EX_NORM
 10
1462.499999999998
 20
898.5000000000001
 30
0.0
 41
44.99999618530273
 42
44.99999618530273
 43
44.99999618530273
 50
270.0
  0
INSERT
  5
5DB
330
5D5
100
AcDbEntity
  8
寸法
 62
     3
100
AcDbBlockReference
  2
EX_NORM
 10
1462.499999999998
 20
1693.5
 30
0.0
 41
44.99999618530273
 42
44.99999618530273
 43
44.99999618530273
 50
90.0
  0
MTEXT
  5
5DC
330
5D5
100
AcDbEntity
  8
寸法
 62
     2
100
AcDbMText
 10
1427.250000089405
 20
1296.0
 30
0.0
 40
59.99999618530273
 41
0.0
 71
     5
 72
     1
  1
795
  7
EXCADDIM1
 11
0.0
 21
1.0
 31
0.0
  0
POINT
  5
5DD
330
5D5
100
AcDbEntity
  8
DEFPOINTS
 62
     0
100
AcDbPoint
 10
1203.499999999997
 20
898.5
 30
0.0
  0
POINT
  5
5DE
330
5D5
100
AcDbEntity
  8
DEFPOINTS
 62
     0
100
AcDbPoint
 10
1214.999999999997
 20
1693.5
 30
0.0
  0
POINT
  5
5DF
330
5D5
100
AcDbEntity
  8
DEFPOINTS
 62
     0
100
AcDbPoint
 10
1462.499999999998
 20
1693.5
 30
0.0
  0
ENDBLK
  5
5D7
330
5D5
100
AcDbEntity
  8
0
100
AcDbBlockEnd
  0
BLOCK
  5
5E2
330
5E1
100
AcDbEntity
  8
0
100
AcDbBlockBegin
  2
*D31
 70
     1
 10
0.0
 20
0.0
 30
0.0
  3
*D31
  1

  0
LINE
  5
5E4
330
5E1
100
AcDbEntity
  8
寸法
  6
CONTINUOUS
 62
     3
100
AcDbLine
 10
2475.499999821187
 20
898.5
 30
0.0
 11
2855.0
 21
898.4999999999999
 31
0.0
  0
LINE
  5
5E5
330
5E1
100
AcDbEntity
  8
寸法
  6
CONTINUOUS
 62
     3
100
AcDbLine
 10
2507.999999821187
 20
1738.5
 30
0.0
 11
2855.0
 21
1738.5
 31
0.0
  0
LINE
  5
5E6
330
5E1
100
AcDbEntity
  8
寸法
  6
CONTINUOUS
 62
     3
100
AcDbLine
 10
2840.0
 20
943.4999961853026
 30
0.0
 11
2840.0
 21
1693.500003814697
 31
0.0
  0
INSERT
  5
5E7
330
5E1
100
AcDbEntity
  8
寸法
 62
     3
100
AcDbBlockReference
  2
EX_NORM
 10
2840.0
 20
898.4999999999999
 30
0.0
 41
44.99999618530273
 42
44.99999618530273
 43
44.99999618530273
 50
270.0
  0
INSERT
  5
5E8
330
5E1
100
AcDbEntity
  8
寸法
 62
     3
100
AcDbBlockReference
  2
EX_NORM
 10
2840.0
 20
1738.5
 30
0.0
 41
44.99999618530273
 42
44.99999618530273
 43
44.99999618530273
 50
90.0
  0
MTEXT
  5
5E9
330
5E1
100
AcDbEntity
  8
寸法
 62
     2
100
AcDbMText
 10
2804.750000089407
 20
1318.5
 30
0.0
 40
59.99999618530273
 41
0.0
 71
     5
 72
     1
  1
840（壁固定）
  7
EXCADDIM1
 11
0.0
 21
1.0
 31
0.0
  0
POINT
  5
5EA
330
5E1
100
AcDbEntity
  8
DEFPOINTS
 62
     0
100
AcDbPoint
 10
2465.0
 20
898.5
 30
0.0
  0
POINT
  5
5EB
330
5E1
100
AcDbEntity
  8
DEFPOINTS
 62
     0
100
AcDbPoint
 10
2497.5
 20
1738.5
 30
0.0
  0
POINT
  5
5EC
330
5E1
100
AcDbEntity
  8
DEFPOINTS
 62
     0
100
AcDbPoint
 10
2840.0
 20
1738.5
 30
0.0
  0
ENDBLK
  5
5E3
330
5E1
100
AcDbEntity
  8
0
100
AcDbBlockEnd
  0
BLOCK
  5
5EF
330
5EE
100
AcDbEntity
  8
0
100
AcDbBlockBegin
  2
*D32
 70
     1
 10
0.0
 20
0.0
 30
0.0
  3
*D32
  1

  0
LINE
  5
5F1
330
5EE
100
AcDbEntity
  8
寸法
  6
CONTINUOUS
 62
     3
100
AcDbLine
 10
2507.999999821187
 20
1738.5
 30
0.0
 11
2855.0
 21
1738.5
 31
0.0
  0
LINE
  5
5F2
330
5EE
100
AcDbEntity
  8
寸法
  6
CONTINUOUS
 62
     3
100
AcDbLine
 10
2507.999999821187
 20
2018.5
 30
0.0
 11
2855.0
 21
2018.5
 31
0.0
  0
LINE
  5
5F3
330
5EE
100
AcDbEntity
  8
寸法
  6
CONTINUOUS
 62
     3
100
AcDbLine
 10
2840.0
 20
1783.499996185303
 30
0.0
 11
2840.0
 21
1973.500003814697
 31
0.0
  0
INSERT
  5
5F4
330
5EE
100
AcDbEntity
  8
寸法
 62
     3
100
AcDbBlockReference
  2
EX_NORM
 10
2840.0
 20
1738.5
 30
0.0
 41
44.99999618530273
 42
44.99999618530273
 43
44.99999618530273
 50
270.0
  0
INSERT
  5
5F5
330
5EE
100
AcDbEntity
  8
寸法
 62
     3
100
AcDbBlockReference
  2
EX_NORM
 10
2840.0
 20
2018.5
 30
0.0
 41
44.99999618530273
 42
44.99999618530273
 43
44.99999618530273
 50
90.0
  0
MTEXT
  5
5F6
330
5EE
100
AcDbEntity
  8
寸法
 62
     2
100
AcDbMText
 10
2804.750000089407
 20
1878.5
 30
0.0
 40
59.99999618530273
 41
0.0
 71
     5
 72
     1
  1
280
  7
EXCADDIM1
 11
0.0
 21
1.0
 31
0.0
  0
POINT
  5
5F7
330
5EE
100
AcDbEntity
  8
DEFPOINTS
 62
     0
100
AcDbPoint
 10
2497.5
 20
1738.5
 30
0.0
  0
POINT
  5
5F8
330
5EE
100
AcDbEntity
  8
DEFPOINTS
 62
     0
100
AcDbPoint
 10
2497.5
 20
2018.5
 30
0.0
  0
POINT
  5
5F9
330
5EE
100
AcDbEntity
  8
DEFPOINTS
 62
     0
100
AcDbPoint
 10
2840.0
 20
2018.5
 30
0.0
  0
ENDBLK
  5
5F0
330
5EE
100
AcDbEntity
  8
0
100
AcDbBlockEnd
  0
BLOCK
  5
5FC
330
5FB
100
AcDbEntity
  8
0
100
AcDbBlockBegin
  2
*D33
 70
     1
 10
0.0
 20
0.0
 30
0.0
  3
*D33
  1

  0
LINE
  5
5FE
330
5FB
100
AcDbEntity
  8
寸法
  6
CONTINUOUS
 62
     3
100
AcDbLine
 10
2507.999999821187
 20
2018.5
 30
0.0
 11
2855.0
 21
2018.5
 31
0.0
  0
LINE
  5
5FF
330
5FB
100
AcDbEntity
  8
寸法
  6
CONTINUOUS
 62
     3
100
AcDbLine
 10
2507.999999821187
 20
2518.5
 30
0.0
 11
2855.0
 21
2518.5
 31
0.0
  0
LINE
  5
600
330
5FB
100
AcDbEntity
  8
寸法
  6
CONTINUOUS
 62
     3
100
AcDbLine
 10
2840.0
 20
2063.499996185303
 30
0.0
 11
2840.0
 21
2473.500003814697
 31
0.0
  0
INSERT
  5
601
330
5FB
100
AcDbEntity
  8
寸法
 62
     3
100
AcDbBlockReference
  2
EX_NORM
 10
2840.0
 20
2018.5
 30
0.0
 41
44.99999618530273
 42
44.99999618530273
 43
44.99999618530273
 50
270.0
  0
INSERT
  5
602
330
5FB
100
AcDbEntity
  8
寸法
 62
     3
100
AcDbBlockReference
  2
EX_NORM
 10
2840.0
 20
2518.5
 30
0.0
 41
44.99999618530273
 42
44.99999618530273
 43
44.99999618530273
 50
90.0
  0
MTEXT
  5
603
330
5FB
100
AcDbEntity
  8
寸法
 62
     2
100
AcDbMText
 10
2804.750000089407
 20
2268.5
 30
0.0
 40
59.99999618530273
 41
0.0
 71
     5
 72
     1
  1
500
  7
EXCADDIM1
 11
0.0
 21
1.0
 31
0.0
  0
POINT
  5
604
330
5FB
100
AcDbEntity
  8
DEFPOINTS
 62
     0
100
AcDbPoint
 10
2497.5
 20
2018.5
 30
0.0
  0
POINT
  5
605
330
5FB
100
AcDbEntity
  8
DEFPOINTS
 62
     0
100
AcDbPoint
 10
2497.5
 20
2518.5
 30
0.0
  0
POINT
  5
606
330
5FB
100
AcDbEntity
  8
DEFPOINTS
 62
     0
100
AcDbPoint
 10
2840.0
 20
2518.5
 30
0.0
  0
ENDBLK
  5
5FD
330
5FB
100
AcDbEntity
  8
0
100
AcDbBlockEnd
  0
BLOCK
  5
609
330
608
100
AcDbEntity
  8
0
100
AcDbBlockBegin
  2
*D34
 70
     1
 10
0.0
 20
0.0
 30
0.0
  3
*D34
  1

  0
LINE
  5
60B
330
608
100
AcDbEntity
  8
寸法
  6
CONTINUOUS
 62
     3
100
AcDbLine
 10
2288.0
 20
2694.999999821186
 30
0.0
 11
2288.0
 21
2759.5
 31
0.0
  0
LINE
  5
60C
330
608
100
AcDbEntity
  8
寸法
  6
CONTINUOUS
 62
     3
100
AcDbLine
 10
2332.999996185303
 20
2744.5
 30
0.0
 11
2420.000003814698
 21
2744.5
 31
0.0
  0
INSERT
  5
60D
330
608
100
AcDbEntity
  8
寸法
 62
     3
100
AcDbBlockReference
  2
EX_NORM
 10
2288.0
 20
2744.5
 30
0.0
 41
44.99999618530273
 42
44.99999618530273
 43
44.99999618530273
 50
180.0
  0
INSERT
  5
60E
330
608
100
AcDbEntity
  8
寸法
 62
     3
100
AcDbBlockReference
  2
EX_NORM
 10
2465.0
 20
2744.5
 30
0.0
 41
44.99999618530273
 42
44.99999618530273
 43
44.99999618530273
  0
MTEXT
  5
60F
330
608
100
AcDbEntity
  8
寸法
 62
     2
100
AcDbMText
 10
2376.5
 20
2779.749999910593
 30
0.0
 40
59.99999618530273
 41
0.0
 71
     5
 72
     1
  1
177
  7
EXCADDIM1
  0
POINT
  5
610
330
608
100
AcDbEntity
  8
DEFPOINTS
 62
     0
100
AcDbPoint
 10
2288.0
 20
2684.5
 30
0.0
  0
POINT
  5
611
330
608
100
AcDbEntity
  8
DEFPOINTS
 62
     0
100
AcDbPoint
 10
2465.0
 20
2698.5
 30
0.0
  0
POINT
  5
612
330
608
100
AcDbEntity
  8
DEFPOINTS
 62
     0
100
AcDbPoint
 10
2465.0
 20
2744.5
 30
0.0
  0
ENDBLK
  5
60A
330
608
100
AcDbEntity
  8
0
100
AcDbBlockEnd
  0
BLOCK
  5
615
330
614
100
AcDbEntity
  8
0
100
AcDbBlockBegin
  2
*D35
 70
     1
 10
0.0
 20
0.0
 30
0.0
  3
*D35
  1

  0
LINE
  5
617
330
614
100
AcDbEntity
  8
寸法
  6
CONTINUOUS
 62
     3
100
AcDbLine
 10
620.0000000000002
 20
2700.999999821186
 30
0.0
 11
620.0000000000002
 21
2849.5
 31
0.0
  0
LINE
  5
618
330
614
100
AcDbEntity
  8
寸法
  6
CONTINUOUS
 62
     3
100
AcDbLine
 10
1220.0
 20
2700.999999821186
 30
0.0
 11
1220.0
 21
2849.5
 31
0.0
  0
LINE
  5
619
330
614
100
AcDbEntity
  8
寸法
  6
CONTINUOUS
 62
     3
100
AcDbLine
 10
664.999996185303
 20
2834.5
 30
0.0
 11
1175.000003814697
 21
2834.5
 31
0.0
  0
INSERT
  5
61A
330
614
100
AcDbEntity
  8
寸法
 62
     3
100
AcDbBlockReference
  2
EX_NORM
 10
620.0000000000002
 20
2834.5
 30
0.0
 41
44.99999618530273
 42
44.99999618530273
 43
44.99999618530273
 50
180.0
  0
INSERT
  5
61B
330
614
100
AcDbEntity
  8
寸法
 62
     3
100
AcDbBlockReference
  2
EX_NORM
 10
1220.0
 20
2834.5
 30
0.0
 41
44.99999618530273
 42
44.99999618530273
 43
44.99999618530273
  0
MTEXT
  5
61C
330
614
100
AcDbEntity
  8
寸法
 62
     2
100
AcDbMText
 10
920.0000000000003
 20
2869.749999910593
 30
0.0
 40
59.99999618530273
 41
0.0
 71
     5
 72
     1
  1
600
  7
EXCADDIM1
  0
POINT
  5
61D
330
614
100
AcDbEntity
  8
DEFPOINTS
 62
     0
100
AcDbPoint
 10
620.0000000000002
 20
2690.5
 30
0.0
  0
POINT
  5
61E
330
614
100
AcDbEntity
  8
DEFPOINTS
 62
     0
100
AcDbPoint
 10
1220.0
 20
2690.5
 30
0.0
  0
POINT
  5
61F
330
614
100
AcDbEntity
  8
DEFPOINTS
 62
     0
100
AcDbPoint
 10
1220.0
 20
2834.5
 30
0.0
  0
ENDBLK
  5
616
330
614
100
AcDbEntity
  8
0
100
AcDbBlockEnd
  0
BLOCK
  5
622
330
621
100
AcDbEntity
  8
0
100
AcDbBlockBegin
  2
*D36
 70
     1
 10
0.0
 20
0.0
 30
0.0
  3
*D36
  1

  0
LINE
  5
624
330
621
100
AcDbEntity
  8
寸法
  6
CONTINUOUS
 62
     3
100
AcDbLine
 10
620.0000000000002
 20
2700.999999821186
 30
0.0
 11
620.0000000000002
 21
2759.5
 31
0.0
  0
LINE
  5
625
330
621
100
AcDbEntity
  8
寸法
  6
CONTINUOUS
 62
     3
100
AcDbLine
 10
640.0000000000002
 20
2535.999999821186
 30
0.0
 11
640.0000000000002
 21
2759.5
 31
0.0
  0
LINE
  5
626
330
621
100
AcDbEntity
  8
寸法
  6
CONTINUOUS
 62
     3
100
AcDbLine
 10
620.0000000000002
 20
2744.5
 30
0.0
 11
640.0000000000002
 21
2744.5
 31
0.0
  0
LINE
  5
627
330
621
100
AcDbEntity
  8
寸法
  6
CONTINUOUS
 62
     3
100
AcDbLine
 10
575.0000038146975
 20
2744.5
 30
0.0
 11
530.0000076293948
 21
2744.5
 31
0.0
  0
LINE
  5
628
330
621
100
AcDbEntity
  8
寸法
  6
CONTINUOUS
 62
     3
100
AcDbLine
 10
684.999996185303
 20
2744.5
 30
0.0
 11
729.9999923706057
 21
2744.5
 31
0.0
  0
INSERT
  5
629
330
621
100
AcDbEntity
  8
寸法
 62
     3
100
AcDbBlockReference
  2
EX_NORM
 10
620.0000000000002
 20
2744.5
 30
0.0
 41
44.99999618530273
 42
44.99999618530273
 43
44.99999618530273
  0
INSERT
  5
62A
330
621
100
AcDbEntity
  8
寸法
 62
     3
100
AcDbBlockReference
  2
EX_NORM
 10
640.0000000000002
 20
2744.5
 30
0.0
 41
44.99999618530273
 42
44.99999618530273
 43
44.99999618530273
 50
180.0
  0
MTEXT
  5
62B
330
621
100
AcDbEntity
  8
寸法
 62
     2
100
AcDbMText
 10
737.5000000000005
 20
2779.749999910593
 30
0.0
 40
59.99999618530273
 41
0.0
 71
     5
 72
     1
  1
20
  7
EXCADDIM1
  0
POINT
  5
62C
330
621
100
AcDbEntity
  8
DEFPOINTS
 62
     0
100
AcDbPoint
 10
620.0000000000002
 20
2690.5
 30
0.0
  0
POINT
  5
62D
330
621
100
AcDbEntity
  8
DEFPOINTS
 62
     0
100
AcDbPoint
 10
640.0000000000002
 20
2525.5
 30
0.0
  0
POINT
  5
62E
330
621
100
AcDbEntity
  8
DEFPOINTS
 62
     0
100
AcDbPoint
 10
640.0000000000002
 20
2744.5
 30
0.0
  0
ENDBLK
  5
623
330
621
100
AcDbEntity
  8
0
100
AcDbBlockEnd
  0
BLOCK
  5
631
330
630
100
AcDbEntity
  8
0
100
AcDbBlockBegin
  2
*D37
 70
     1
 10
0.0
 20
0.0
 30
0.0
  3
*D37
  1

  0
LINE
  5
633
330
630
100
AcDbEntity
  8
寸法
  6
CONTINUOUS
 62
     3
100
AcDbLine
 10
1145.0
 20
2535.999999821186
 30
0.0
 11
1145.0
 21
2759.5
 31
0.0
  0
LINE
  5
634
330
630
100
AcDbEntity
  8
寸法
  6
CONTINUOUS
 62
     3
100
AcDbLine
 10
1220.0
 20
2700.999999821186
 30
0.0
 11
1220.0
 21
2759.5
 31
0.0
  0
LINE
  5
635
330
630
100
AcDbEntity
  8
寸法
  6
CONTINUOUS
 62
     3
100
AcDbLine
 10
1145.0
 20
2744.5
 30
0.0
 11
1220.0
 21
2744.5
 31
0.0
  0
LINE
  5
636
330
630
100
AcDbEntity
  8
寸法
  6
CONTINUOUS
 62
     3
100
AcDbLine
 10
1100.000003814697
 20
2744.5
 30
0.0
 11
1055.000007629395
 21
2744.5
 31
0.0
  0
LINE
  5
637
330
630
100
AcDbEntity
  8
寸法
  6
CONTINUOUS
 62
     3
100
AcDbLine
 10
1264.999996185303
 20
2744.5
 30
0.0
 11
1309.999992370606
 21
2744.5
 31
0.0
  0
INSERT
  5
638
330
630
100
AcDbEntity
  8
寸法
 62
     3
100
AcDbBlockReference
  2
EX_NORM
 10
1145.0
 20
2744.5
 30
0.0
 41
44.99999618530273
 42
44.99999618530273
 43
44.99999618530273
  0
INSERT
  5
639
330
630
100
AcDbEntity
  8
寸法
 62
     3
100
AcDbBlockReference
  2
EX_NORM
 10
1220.0
 20
2744.5
 30
0.0
 41
44.99999618530273
 42
44.99999618530273
 43
44.99999618530273
 50
180.0
  0
MTEXT
  5
63A
330
630
100
AcDbEntity
  8
寸法
 62
     2
100
AcDbMText
 10
1047.5
 20
2779.749999910593
 30
0.0
 40
59.99999618530273
 41
0.0
 71
     5
 72
     1
  1
75
  7
EXCADDIM1
  0
POINT
  5
63B
330
630
100
AcDbEntity
  8
DEFPOINTS
 62
     0
100
AcDbPoint
 10
1145.0
 20
2525.5
 30
0.0
  0
POINT
  5
63C
330
630
100
AcDbEntity
  8
DEFPOINTS
 62
     0
100
AcDbPoint
 10
1220.0
 20
2690.5
 30
0.0
  0
POINT
  5
63D
330
630
100
AcDbEntity
  8
DEFPOINTS
 62
     0
100
AcDbPoint
 10
1220.0
 20
2744.5
 30
0.0
  0
ENDBLK
  5
632
330
630
100
AcDbEntity
  8
0
100
AcDbBlockEnd
  0
BLOCK
  5
642
330
641
100
AcDbEntity
  8
0
100
AcDbBlockBegin
  2
*D38
 70
     1
 10
0.0
 20
0.0
 30
0.0
  3
*D38
  1

  0
LINE
  5
644
330
641
100
AcDbEntity
  8
寸法
  6
CONTINUOUS
 62
     3
100
AcDbLine
 10
1225.499999821186
 20
1693.5
 30
0.0
 11
1477.5
 21
1693.5
 31
0.0
  0
LINE
  5
645
330
641
100
AcDbEntity
  8
寸法
  6
CONTINUOUS
 62
     3
100
AcDbLine
 10
1222.499999821186
 20
2698.5
 30
0.0
 11
1477.5
 21
2698.5
 31
0.0
  0
LINE
  5
646
330
641
100
AcDbEntity
  8
寸法
  6
CONTINUOUS
 62
     3
100
AcDbLine
 10
1462.5
 20
1738.499996185303
 30
0.0
 11
1462.5
 21
2653.500003814697
 31
0.0
  0
INSERT
  5
647
330
641
100
AcDbEntity
  8
寸法
 62
     3
100
AcDbBlockReference
  2
EX_NORM
 10
1462.5
 20
1693.5
 30
0.0
 41
44.99999618530273
 42
44.99999618530273
 43
44.99999618530273
 50
270.0
  0
INSERT
  5
648
330
641
100
AcDbEntity
  8
寸法
 62
     3
100
AcDbBlockReference
  2
EX_NORM
 10
1462.5
 20
2698.5
 30
0.0
 41
44.99999618530273
 42
44.99999618530273
 43
44.99999618530273
 50
90.0
  0
MTEXT
  5
649
330
641
100
AcDbEntity
  8
寸法
 62
     2
100
AcDbMText
 10
1427.250000089407
 20
2195.999999999999
 30
0.0
 40
59.99999618530273
 41
0.0
 71
     5
 72
     1
  1
1005
  7
EXCADDIM1
 11
0.0
 21
1.0
 31
0.0
  0
POINT
  5
64A
330
641
100
AcDbEntity
  8
DEFPOINTS
 62
     0
100
AcDbPoint
 10
1215.0
 20
1693.5
 30
0.0
  0
POINT
  5
64B
330
641
100
AcDbEntity
  8
DEFPOINTS
 62
     0
100
AcDbPoint
 10
1212.0
 20
2698.5
 30
0.0
  0
POINT
  5
64C
330
641
100
AcDbEntity
  8
DEFPOINTS
 62
     0
100
AcDbPoint
 10
1462.5
 20
2698.5
 30
0.0
  0
ENDBLK
  5
643
330
641
100
AcDbEntity
  8
0
100
AcDbBlockEnd
  0
BLOCK
  5
64F
330
64E
100
AcDbEntity
  8
0
100
AcDbBlockBegin
  2
*D39
 70
     1
 10
0.0
 20
0.0
 30
0.0
  3
*D39
  1

  0
LINE
  5
651
330
64E
100
AcDbEntity
  8
寸法
  6
CONTINUOUS
 62
     3
100
AcDbLine
 10
1225.499999821186
 20
1693.5
 30
0.0
 11
1432.5
 21
1693.5
 31
0.0
  0
LINE
  5
652
330
64E
100
AcDbEntity
  8
寸法
  6
CONTINUOUS
 62
     3
100
AcDbLine
 10
1243.576696652186
 20
1748.5
 30
0.0
 11
1432.5
 21
1748.5
 31
0.0
  0
LINE
  5
653
330
64E
100
AcDbEntity
  8
寸法
  6
CONTINUOUS
 62
     3
100
AcDbLine
 10
1417.5
 20
1693.5
 30
0.0
 11
1417.5
 21
1748.5
 31
0.0
  0
LINE
  5
654
330
64E
100
AcDbEntity
  8
寸法
  6
CONTINUOUS
 62
     3
100
AcDbLine
 10
1417.5
 20
1648.500003814697
 30
0.0
 11
1417.5
 21
1603.500007629395
 31
0.0
  0
LINE
  5
655
330
64E
100
AcDbEntity
  8
寸法
  6
CONTINUOUS
 62
     3
100
AcDbLine
 10
1417.5
 20
1793.499996185303
 30
0.0
 11
1417.5
 21
1838.499992370605
 31
0.0
  0
INSERT
  5
656
330
64E
100
AcDbEntity
  8
寸法
 62
     3
100
AcDbBlockReference
  2
EX_NORM
 10
1417.5
 20
1693.5
 30
0.0
 41
44.99999618530273
 42
44.99999618530273
 43
44.99999618530273
 50
90.0
  0
INSERT
  5
657
330
64E
100
AcDbEntity
  8
寸法
 62
     3
100
AcDbBlockReference
  2
EX_NORM
 10
1417.5
 20
1748.5
 30
0.0
 41
44.99999618530273
 42
44.99999618530273
 43
44.99999618530273
 50
270.0
  0
MTEXT
  5
658
330
64E
100
AcDbEntity
  8
寸法
 62
     2
100
AcDbMText
 10
1382.250000089408
 20
1846.0
 30
0.0
 40
59.99999618530273
 41
0.0
 71
     5
 72
     1
  1
55
  7
EXCADDIM1
 11
0.0
 21
1.0
 31
0.0
  0
POINT
  5
659
330
64E
100
AcDbEntity
  8
DEFPOINTS
 62
     0
100
AcDbPoint
 10
1215.0
 20
1693.5
 30
0.0
  0
POINT
  5
65A
330
64E
100
AcDbEntity
  8
DEFPOINTS
 62
     0
100
AcDbPoint
 10
1233.076696831
 20
1748.5
 30
0.0
  0
POINT
  5
65B
330
64E
100
AcDbEntity
  8
DEFPOINTS
 62
     0
100
AcDbPoint
 10
1417.5
 20
1748.5
 30
0.0
  0
ENDBLK
  5
650
330
64E
100
AcDbEntity
  8
0
100
AcDbBlockEnd
  0
BLOCK
  5
65E
330
65D
100
AcDbEntity
  8
0
100
AcDbBlockBegin
  2
*D40
 70
     1
 10
0.0
 20
0.0
 30
0.0
  3
*D40
  1

  0
LINE
  5
660
330
65D
100
AcDbEntity
  8
寸法
  6
CONTINUOUS
 62
     3
100
AcDbLine
 10
1222.499999821186
 20
2698.5
 30
0.0
 11
1567.5
 21
2698.5
 31
0.0
  0
LINE
  5
661
330
65D
100
AcDbEntity
  8
寸法
  6
CONTINUOUS
 62
     3
100
AcDbLine
 10
1552.5
 20
943.4999961853027
 30
0.0
 11
1552.5
 21
2653.500003814697
 31
0.0
  0
INSERT
  5
662
330
65D
100
AcDbEntity
  8
寸法
 62
     3
100
AcDbBlockReference
  2
EX_NORM
 10
1552.5
 20
898.5
 30
0.0
 41
44.99999618530273
 42
44.99999618530273
 43
44.99999618530273
 50
270.0
  0
INSERT
  5
663
330
65D
100
AcDbEntity
  8
寸法
 62
     3
100
AcDbBlockReference
  2
EX_NORM
 10
1552.5
 20
2698.5
 30
0.0
 41
44.99999618530273
 42
44.99999618530273
 43
44.99999618530273
 50
90.0
  0
MTEXT
  5
664
330
65D
100
AcDbEntity
  8
寸法
 62
     2
100
AcDbMText
 10
1517.250000089407
 20
1798.499999999999
 30
0.0
 40
59.99999618530273
 41
0.0
 71
     5
 72
     1
  1
1800
  7
EXCADDIM1
 11
0.0
 21
1.0
 31
0.0
  0
POINT
  5
665
330
65D
100
AcDbEntity
  8
DEFPOINTS
 62
     0
100
AcDbPoint
 10
1203.5
 20
898.5
 30
0.0
  0
POINT
  5
666
330
65D
100
AcDbEntity
  8
DEFPOINTS
 62
     0
100
AcDbPoint
 10
1212.0
 20
2698.5
 30
0.0
  0
POINT
  5
667
330
65D
100
AcDbEntity
  8
DEFPOINTS
 62
     0
100
AcDbPoint
 10
1552.5
 20
2698.5
 30
0.0
  0
ENDBLK
  5
65F
330
65D
100
AcDbEntity
  8
0
100
AcDbBlockEnd
  0
ENDSEC
  0
SECTION
  2
ENTITIES
  0
ARC
  5
A9
330
1F
100
AcDbEntity
  8
0
  6
CONTINUOUS
 62
     3
100
AcDbCircle
 10
83.46121191528124
 20
17.75611012269383
 30
0.0
 40
1.766683515327064
100
AcDbArc
 50
88.77000393305703
 51
128.9068631829044
  0
ARC
  5
AA
330
1F
100
AcDbEntity
  8
0
  6
CONTINUOUS
 62
     3
100
AcDbCircle
 10
83.54142140005392
 20
18.49635349315813
 30
0.0
 40
1.02690407511459
100
AcDbArc
 50
4.148222840814693
 51
92.36000944257292
  0
ARC
  5
AB
330
1F
100
AcDbEntity
  8
0
  6
CONTINUOUS
 62
     3
100
AcDbCircle
 10
129.899372257897
 20
17.18767567274228
 30
0.0
 40
45.35482655865662
100
AcDbArc
 50
178.2526643324597
 51
180.6439560401927
  0
ARC
  5
AC
330
1F
100
AcDbEntity
  8
0
  6
CONTINUOUS
 62
     3
100
AcDbCircle
 10
84.85259856848637
 20
16.67746652122974
 30
0.0
 40
0.305188683107389
100
AcDbArc
 50
179.9117548191414
 51
236.1065985968857
  0
ARC
  5
AD
330
1F
100
AcDbEntity
  8
0
  6
CONTINUOUS
 62
     3
100
AcDbCircle
 10
84.8167794586056
 20
16.69504912083588
 30
0.0
 40
0.30240485913648
100
AcDbArc
 50
243.6191685566582
 51
297.5097757939563
  0
LINE
  5
AE
330
1F
100
AcDbEntity
  8
0
  6
CONTINUOUS
 62
     3
100
AcDbLine
 10
84.956460247351
 20
16.26956156317904
 30
0.0
 11
84.956460247351
 21
16.42683656317904
 31
0.0
  0
LINE
  5
AF
330
1F
100
AcDbEntity
  8
0
  6
CONTINUOUS
 62
     3
100
AcDbLine
 10
84.42523524735104
 20
16.20408656317904
 30
0.0
 11
84.64258524735101
 21
16.20408656317904
 31
0.0
  0
ARC
  5
B0
330
1F
100
AcDbEntity
  8
0
  6
CONTINUOUS
 62
     3
100
AcDbCircle
 10
84.62431759348192
 20
17.05908236165528
 30
0.0
 40
0.856540620020894
100
AcDbArc
 50
271.2220539293239
 51
292.8159509797653
  0
ARC
  5
B1
330
1F
100
AcDbEntity
  8
0
  6
CONTINUOUS
 62
     3
100
AcDbCircle
 10
84.46373602484064
 20
16.6281117987113
 30
0.0
 40
0.425769550620398
100
AcDbArc
 50
217.4081478714985
 51
264.8118660441384
  0
ARC
  5
B2
330
1F
100
AcDbEntity
  8
0
  6
CONTINUOUS
 62
     3
100
AcDbCircle
 10
84.51751427960914
 20
16.65936317608228
 30
0.0
 40
0.487535134009722
100
AcDbArc
 50
187.1167640402297
 51
216.4860549324747
  0
ARC
  5
B3
330
1F
100
AcDbEntity
  8
0
  6
CONTINUOUS
 62
     3
100
AcDbCircle
 10
83.00048913269609
 20
17.48977749599323
 30
0.0
 40
1.364239920103932
100
AcDbArc
 50
275.2158792069686
 51
319.2336424873511
  0
LINE
  5
B4
330
1F
100
AcDbEntity
  8
0
  6
CONTINUOUS
 62
     3
100
AcDbLine
 10
82.85046024735098
 20
16.13118656317905
 30
0.0
 11
83.12451024735105
 21
16.13118656317905
 31
0.0
  0
ARC
  5
B5
330
1F
100
AcDbEntity
  8
0
  6
CONTINUOUS
 62
     3
100
AcDbCircle
 10
82.86363998139358
 20
16.76407217729907
 30
0.0
 40
0.633022832091786
100
AcDbArc
 50
252.3384873625213
 51
268.8069976857606
  0
ARC
  5
B6
330
1F
100
AcDbEntity
  8
0
  6
CONTINUOUS
 62
     3
100
AcDbCircle
 10
82.87998820439486
 20
16.97554828115094
 30
0.0
 40
0.840895657756366
100
AcDbArc
 50
224.289750990011
 51
255.6505938786759
  0
ARC
  5
B7
330
1F
100
AcDbEntity
  8
0
  6
CONTINUOUS
 62
     3
100
AcDbCircle
 10
82.84351200318103
 20
16.93458744915359
 30
0.0
 40
0.78619234712629
100
AcDbArc
 50
185.9586126338419
 51
224.0091989319859
  0
ARC
  5
B8
330
1F
100
AcDbEntity
  8
0
  6
CONTINUOUS
 62
     3
100
AcDbCircle
 10
82.92510885972592
 20
16.97202435890243
 30
0.0
 40
0.871709372588669
100
AcDbArc
 50
164.8589457925044
 51
187.8495628504518
  0
ARC
  5
B9
330
1F
100
AcDbEntity
  8
0
  6
CONTINUOUS
 62
     3
100
AcDbCircle
 10
82.7740824643275
 20
17.05810055843299
 30
0.0
 40
0.704795370557922
100
AcDbArc
 50
129.8344892359069
 51
168.4089447024628
  0
ARC
  5
BA
330
1F
100
AcDbEntity
  8
0
  6
CONTINUOUS
 62
     3
100
AcDbCircle
 10
83.14406006078386
 20
16.59052204825368
 30
0.0
 40
1.30093661698492
100
AcDbArc
 50
102.0988446293839
 51
129.1556705448828
  0
ARC
  5
BB
330
1F
100
AcDbEntity
  8
0
  6
CONTINUOUS
 62
     3
100
AcDbCircle
 10
80.91965967388387
 20
30.40645753117708
 30
0.0
 40
12.69482409370382
100
AcDbArc
 50
278.8438342053764
 51
282.6649181367123
  0
ARC
  5
BC
330
1F
100
AcDbEntity
  8
0
  6
CONTINUOUS
 62
     3
100
AcDbCircle
 10
83.46868917513495
 20
19.05851086031246
 30
0.0
 40
1.064113335272784
100
AcDbArc
 50
282.7195832898965
 51
295.6781112778079
  0
ARC
  5
BD
330
1F
100
AcDbEntity
  8
0
  6
CONTINUOUS
 62
     3
100
AcDbCircle
 10
83.86666823075943
 20
18.25955055846786
 30
0.0
 40
0.172058828228131
100
AcDbArc
 50
291.5204897073511
 51
349.3445900274031
  0
ARC
  5
BE
330
1F
100
AcDbEntity
  8
0
  6
CONTINUOUS
 62
     3
100
AcDbCircle
 10
82.73489740969168
 20
18.38673593717623
 30
0.0
 40
1.310543751018921
100
AcDbArc
 50
353.0315250986587
 51
7.839947970678348
  0
ARC
  5
BF
330
1F
100
AcDbEntity
  8
0
  6
CONTINUOUS
 62
     3
100
AcDbCircle
 10
83.32719280220289
 20
18.52185609495918
 30
0.0
 40
0.707346538626002
100
AcDbArc
 50
3.537639967999379
 51
74.8013566619203
  0
ARC
  5
C0
330
1F
100
AcDbEntity
  8
0
  6
CONTINUOUS
 62
     3
100
AcDbCircle
 10
83.28234963200912
 20
18.18827553855518
 30
0.0
 40
1.04195273466423
100
AcDbArc
 50
77.23143261361693
 51
105.203415964315
  0
ARC
  5
C1
330
1F
100
AcDbEntity
  8
0
  6
CONTINUOUS
 62
     3
100
AcDbCircle
 10
83.21689485105588
 20
18.32333915200382
 30
0.0
 40
0.894881105176719
100
AcDbArc
 50
103.4267945469744
 51
150.3242613737993
  0
LINE
  5
C2
330
1F
100
AcDbEntity
  8
0
  6
CONTINUOUS
 62
     3
100
AcDbLine
 10
82.35163524735106
 20
19.13088656317905
 30
0.0
 11
82.35163524735106
 21
18.76638656317905
 31
0.0
  0
ARC
  5
C3
330
1F
100
AcDbEntity
  8
0
  6
CONTINUOUS
 62
     3
100
AcDbCircle
 10
72.84875432629677
 20
16.66786485265287
 30
0.0
 40
6.967015049800598
100
AcDbArc
 50
353.1274757312911
 51
357.106204490141
  0
ARC
  5
C4
330
1F
100
AcDbEntity
  8
0
  6
CONTINUOUS
 62
     3
100
AcDbCircle
 10
30.36821388631915
 20
19.04641059181337
 30
0.0
 40
49.51400430399008
100
AcDbArc
 50
356.8390243485978
 51
2.971133813187157
  0
ARC
  5
C5
330
1F
100
AcDbEntity
  8
0
  6
CONTINUOUS
 62
     3
100
AcDbCircle
 10
79.04363253898626
 20
16.02851241815413
 30
0.0
 40
0.747769185530633
100
AcDbArc
 50
314.592391474832
 51
344.9374073189123
  0
ARC
  5
C6
330
1F
100
AcDbEntity
  8
0
  6
CONTINUOUS
 62
     3
100
AcDbCircle
 10
78.81783157088044
 20
16.46203582788489
 30
0.0
 40
1.223467000390025
100
AcDbArc
 50
288.1715191042997
 51
307.8537826235693
  0
LINE
  5
C7
330
1F
100
AcDbEntity
  8
0
  6
CONTINUOUS
 62
     3
100
AcDbLine
 10
79.32291024735102
 20
14.92361156317904
 30
0.0
 11
79.19938524735102
 21
15.29958656317904
 31
0.0
  0
ARC
  5
C8
330
1F
100
AcDbEntity
  8
0
  6
CONTINUOUS
 62
     3
100
AcDbCircle
 10
79.04391617269255
 20
17.16666876257886
 30
0.0
 40
2.260341410821362
100
AcDbArc
 50
277.0901027239701
 51
290.9134154817058
  0
ARC
  5
C9
330
1F
100
AcDbEntity
  8
0
  6
CONTINUOUS
 62
     3
100
AcDbCircle
 10
79.37333195288082
 20
16.68827241969331
 30
0.0
 40
1.701394688196115
100
AcDbArc
 50
286.2966123578915
 51
329.973223283839
  0
ARC
  5
CA
330
1F
100
AcDbEntity
  8
0
  6
CONTINUOUS
 62
     3
100
AcDbCircle
 10
78.78335229193218
 20
16.79075080222593
 30
0.0
 40
2.272875263114311
100
AcDbArc
 50
335.1860595856123
 51
1.308075913059364
  0
ARC
  5
CB
330
1F
100
AcDbEntity
  8
0
  6
CONTINUOUS
 62
     3
100
AcDbCircle
 10
145.9886118153694
 20
18.52404084293345
 30
0.0
 40
64.95474244683605
100
AcDbArc
 50
177.2695926307304
 51
181.4833117237826
  0
ARC
  5
CC
330
1F
100
AcDbEntity
  8
0
  6
CONTINUOUS
 62
     3
100
AcDbCircle
 10
80.44344067524872
 20
25.96861293864723
 30
0.0
 40
4.400758833490466
100
AcDbArc
 50
261.7986203004403
 51
278.6803384946418
  0
ARC
  5
CD
330
1F
100
AcDbEntity
  8
0
  6
CONTINUOUS
 62
     3
100
AcDbCircle
 10
82.89491966756331
 20
21.86945104503006
 30
0.0
 40
4.136406814694017
100
AcDbArc
 50
278.4088456599976
 51
286.1851416003176
  0
ARC
  5
CE
330
1F
100
AcDbEntity
  8
0
  6
CONTINUOUS
 62
     3
100
AcDbCircle
 10
83.79096519160305
 20
15.87762586010476
 30
0.0
 40
1.922065786155208
100
AcDbArc
 50
98.71271710191789
 51
115.2874718053599
  0
ARC
  5
CF
330
1F
100
AcDbEntity
  8
0
  6
CONTINUOUS
 62
     3
100
AcDbCircle
 10
83.2413773424044
 20
17.0525120238968
 30
0.0
 40
0.625019433457053
100
AcDbArc
 50
115.7403688633493
 51
172.5491744442191
  0
LINE
  5
D0
330
1F
100
AcDbEntity
  8
0
  6
CONTINUOUS
 62
     3
100
AcDbLine
 10
82.62163524735102
 20
17.13356156317905
 30
0.0
 11
82.62163524735102
 21
16.93781156317904
 31
0.0
  0
ARC
  5
D1
330
1F
100
AcDbEntity
  8
0
  6
CONTINUOUS
 62
     3
100
AcDbCircle
 10
83.20395520891343
 20
16.96905103440281
 30
0.0
 40
0.583157304846997
100
AcDbArc
 50
183.0707787095794
 51
263.4402016072427
  0
LINE
  5
D2
330
1F
100
AcDbEntity
  8
0
  6
CONTINUOUS
 62
     3
100
AcDbLine
 10
83.137335247351
 20
16.38971156317905
 30
0.0
 11
83.31081024735104
 21
16.38971156317905
 31
0.0
  0
ARC
  5
D3
330
1F
100
AcDbEntity
  8
0
  6
CONTINUOUS
 62
     3
100
AcDbCircle
 10
83.1668055816852
 20
17.37280212872707
 30
0.0
 40
0.993581603997916
100
AcDbArc
 50
278.3335103000368
 51
329.1221464187299
  0
ARC
  5
D4
330
1F
100
AcDbEntity
  8
0
  6
CONTINUOUS
 62
     3
100
AcDbCircle
 10
-2244.867183543709
 20
81.22708968930328
 30
0.0
 40
2329.776001260591
100
AcDbArc
 50
358.4169008257799
 51
358.4423418242109
  0
ARC
  5
D5
330
1F
100
AcDbEntity
  8
0
  6
CONTINUOUS
 62
     3
100
AcDbCircle
 10
85.99244647471915
 20
12.24512977854208
 30
0.0
 40
3.968909094418497
100
AcDbArc
 50
85.07099551674689
 51
93.91830029343228
  0
ARC
  5
D6
330
1F
100
AcDbEntity
  8
0
  6
CONTINUOUS
 62
     3
100
AcDbCircle
 10
93.67524446353643
 20
17.08593870352311
 30
0.0
 40
7.395120993114926
100
AcDbArc
 50
179.8977458165987
 51
186.8855675734268
  0
ARC
  5
D7
330
1F
100
AcDbEntity
  8
0
  6
CONTINUOUS
 62
     3
100
AcDbCircle
 10
87.39097589769001
 20
18.20238948480556
 30
0.0
 40
1.108398956318131
100
AcDbArc
 50
134.9787476233347
 51
181.2369872983282
  0
ARC
  5
D8
330
1F
100
AcDbEntity
  8
0
  6
CONTINUOUS
 62
     3
100
AcDbCircle
 10
87.13536012608134
 20
18.31809996481188
 30
0.0
 40
0.851645057047003
100
AcDbArc
 50
42.91644474042847
 51
128.3015542351336
  0
ARC
  5
D9
330
1F
100
AcDbEntity
  8
0
  6
CONTINUOUS
 62
     3
100
AcDbCircle
 10
86.82883271971129
 20
18.2975886216405
 30
0.0
 40
1.107172507744154
100
AcDbArc
 50
359.2495022237244
 51
32.84055016678327
  0
ARC
  5
DA
330
1F
100
AcDbEntity
  8
0
  6
CONTINUOUS
 62
     3
100
AcDbCircle
 10
71.4460924605234
 20
17.47195061224961
 30
0.0
 40
16.50975566668588
100
AcDbArc
 50
355.5862454873798
 51
2.816115806820253
  0
ARC
  5
DB
330
1F
100
AcDbEntity
  8
0
  6
CONTINUOUS
 62
     3
100
AcDbCircle
 10
88.19207274735106
 20
13.05458985265276
 30
0.0
 40
3.159693252126744
100
AcDbArc
 50
84.82155189294139
 51
95.17844810705873
  0
ARC
  5
DC
330
1F
100
AcDbEntity
  8
0
  6
CONTINUOUS
 62
     3
100
AcDbCircle
 10
104.8001220401958
 20
16.98511098081632
 30
0.0
 40
16.34166579853822
100
AcDbArc
 50
176.2131780319488
 51
182.7488833337936
  0
ARC
  5
DD
330
1F
100
AcDbEntity
  8
0
  6
CONTINUOUS
 62
     3
100
AcDbCircle
 10
82.3534946861266
 20
18.22759498154639
 30
0.0
 40
6.142809087866958
100
AcDbArc
 50
358.4775281223095
 51
2.117232414210064
  0
ARC
  5
DE
330
1F
100
AcDbEntity
  8
0
  6
CONTINUOUS
 62
     3
100
AcDbCircle
 10
87.31341382747426
 20
18.45729665794022
 30
0.0
 40
1.17869965146059
100
AcDbArc
 50
359.8658335690532
 51
34.49363429411157
  0
ARC
  5
DF
330
1F
100
AcDbEntity
  8
0
  6
CONTINUOUS
 62
     3
100
AcDbCircle
 10
87.51159924816368
 20
18.58648388140492
 30
0.0
 40
0.94221437555554
100
AcDbArc
 50
34.84393737091607
 51
92.5207065423111
  0
ARC
  5
E0
330
1F
100
AcDbEntity
  8
0
  6
CONTINUOUS
 62
     3
100
AcDbCircle
 10
87.40976936405151
 20
18.187197121611
 30
0.0
 40
1.34194899665726
100
AcDbArc
 50
87.42068310381028
 51
147.4361518966862
  0
ARC
  5
E1
330
1F
100
AcDbEntity
  8
0
  6
CONTINUOUS
 62
     3
100
AcDbCircle
 10
90.04010594798763
 20
19.00229404725551
 30
0.0
 40
3.762465500458181
100
AcDbArc
 50
172.9875214416311
 51
181.4134392789641
  0
ARC
  5
E2
330
1F
100
AcDbEntity
  8
0
  6
CONTINUOUS
 62
     3
100
AcDbCircle
 10
86.00518717263837
 20
20.61650603156984
 30
0.0
 40
1.193349358546016
100
AcDbArc
 50
255.9341994177206
 51
284.5896440601899
  0
ARC
  5
E3
330
1F
100
AcDbEntity
  8
0
  6
CONTINUOUS
 62
     3
100
AcDbCircle
 10
65.34612856074196
 20
17.79381782014245
 30
0.0
 40
20.43697806131072
100
AcDbArc
 50
355.5405243117485
 51
4.673398698656258
  0
LINE
  5
E4
330
1F
100
AcDbEntity
  8
0
  6
CONTINUOUS
 62
     3
100
AcDbLine
 10
86.28283524735102
 20
18.17846156317905
 30
0.0
 11
86.28283524735102
 21
17.09913656317904
 31
0.0
  0
CIRCLE
  5
E5
330
1F
100
AcDbEntity
  8
0
  6
CONTINUOUS
 62
     3
100
AcDbCircle
 10
89.96291007785953
 20
20.65279190216209
 30
0.0
 40
0.357233446676989
  0
ARC
  5
E6
330
1F
100
AcDbEntity
  8
0
  6
CONTINUOUS
 62
     3
100
AcDbCircle
 10
89.94891943430329
 20
20.74776197700576
 30
0.0
 40
1.319228548840207
100
AcDbArc
 50
256.6209501743446
 51
283.9984576255729
  0
ARC
  5
E7
330
1F
100
AcDbEntity
  8
0
  6
CONTINUOUS
 62
     3
100
AcDbCircle
 10
89.97579956773934
 20
9.674241417548298
 30
0.0
 40
6.532859485251088
100
AcDbArc
 50
87.46575055044718
 51
92.90832285102188
  0
ARC
  5
E8
330
1F
100
AcDbEntity
  8
0
  6
CONTINUOUS
 62
     3
100
AcDbCircle
 10
110.5597633919817
 20
17.81324729081888
 30
0.0
 40
20.35906390589
100
AcDbArc
 50
175.3387608397566
 51
184.5428594926176
  0
ARC
  5
E9
330
1F
100
AcDbEntity
  8
0
  6
CONTINUOUS
 62
     3
100
AcDbCircle
 10
67.50336442766468
 20
17.82693516108735
 30
0.0
 40
22.20076085035812
100
AcDbArc
 50
355.7940354718673
 51
4.229650257234378
  0
ARC
  5
EA
330
1F
100
AcDbEntity
  8
0
  6
CONTINUOUS
 62
     3
100
AcDbCircle
 10
124.4988039973074
 20
100.497411563067
 30
0.0
 40
87.02800228963156
100
AcDbArc
 50
248.6422112053103
 51
248.8567777804232
  0
ARC
  5
EB
330
1F
100
AcDbEntity
  8
0
  6
CONTINUOUS
 62
     3
100
AcDbCircle
 10
92.41978695863169
 20
18.51106761706451
 30
0.0
 40
1.010907867592157
100
AcDbArc
 50
67.66151957087348
 51
88.69073168448988
  0
ARC
  5
EC
330
1F
100
AcDbEntity
  8
0
  6
CONTINUOUS
 62
     3
100
AcDbCircle
 10
92.31146911686506
 20
18.20422821280107
 30
0.0
 40
1.319974865367525
100
AcDbArc
 50
92.38301574576484
 51
114.9635286746436
  0
ARC
  5
ED
330
1F
100
AcDbEntity
  8
0
  6
CONTINUOUS
 62
     3
100
AcDbCircle
 10
92.21399364202212
 20
18.51453014444364
 30
0.0
 40
0.99843256030919
100
AcDbArc
 50
117.4083995939977
 51
176.1964688215695
  0
ARC
  5
EE
330
1F
100
AcDbEntity
  8
0
  6
CONTINUOUS
 62
     3
100
AcDbCircle
 10
91.89035125328601
 20
18.41636492418026
 30
0.0
 40
0.669372605905611
100
AcDbArc
 50
181.2393899443581
 51
226.5942921332421
  0
ARC
  5
EF
330
1F
100
AcDbEntity
  8
0
  6
CONTINUOUS
 62
     3
100
AcDbCircle
 10
92.28704013202102
 20
18.81840134349182
 30
0.0
 40
1.234100950779567
100
AcDbArc
 50
226.0402388947521
 51
253.1776672992999
  0
ARC
  5
F0
330
1F
100
AcDbEntity
  8
0
  6
CONTINUOUS
 62
     3
100
AcDbCircle
 10
91.2515075923303
 20
14.78900865097706
 30
0.0
 40
2.927778413972754
100
AcDbArc
 50
63.49050203733571
 51
76.60259219849584
  0
ARC
  5
F1
330
1F
100
AcDbEntity
  8
0
  6
CONTINUOUS
 62
     3
100
AcDbCircle
 10
92.3651591325627
 20
16.99289948775663
 30
0.0
 40
0.458710152219014
100
AcDbArc
 50
6.53892419415897
 51
65.09756080693691
  0
ARC
  5
F2
330
1F
100
AcDbEntity
  8
0
  6
CONTINUOUS
 62
     3
100
AcDbCircle
 10
92.23793644849113
 20
16.96446087099663
 30
0.0
 40
0.594395491876676
100
AcDbArc
 50
270.8867385422408
 51
352.7925382056677
  0
ARC
  5
F3
330
1F
100
AcDbEntity
  8
0
  6
CONTINUOUS
 62
     3
100
AcDbCircle
 10
92.19796910637461
 20
17.26102363119879
 30
0.0
 40
0.898004035462527
100
AcDbArc
 50
207.7689879465537
 51
262.7817283832026
  0
ARC
  5
F4
330
1F
100
AcDbEntity
  8
0
  6
CONTINUOUS
 62
     3
100
AcDbCircle
 10
92.01365921995372
 20
17.87600300153525
 30
0.0
 40
1.75327631578002
100
AcDbArc
 50
241.8829576087176
 51
265.9354096935781
  0
ARC
  5
F5
330
1F
100
AcDbEntity
  8
0
  6
CONTINUOUS
 62
     3
100
AcDbCircle
 10
92.1809975387016
 20
17.26136190460545
 30
0.0
 40
1.134515058180645
100
AcDbArc
 50
271.2948770866743
 51
348.6654156292868
  0
ARC
  5
F6
330
1F
100
AcDbEntity
  8
0
  6
CONTINUOUS
 62
     3
100
AcDbCircle
 10
92.55481588694552
 20
17.24660981874074
 30
0.0
 40
0.746245075729606
100
AcDbArc
 50
6.154262763177246
 51
76.17509904255616
  0
ARC
  5
F7
330
1F
100
AcDbEntity
  8
0
  6
CONTINUOUS
 62
     3
100
AcDbCircle
 10
93.98820537094657
 20
23.18803033846007
 30
0.0
 40
5.36564425851668
100
AcDbArc
 50
249.6420733479936
 51
256.4727051201885
  0
ARC
  5
F8
330
1F
100
AcDbEntity
  8
0
  6
CONTINUOUS
 62
     3
100
AcDbCircle
 10
92.34157219790048
 20
18.82582365109112
 30
0.0
 40
0.703563707337184
100
AcDbArc
 50
210.9501336849607
 51
251.7794729821079
  0
ARC
  5
F9
330
1F
100
AcDbEntity
  8
0
  6
CONTINUOUS
 62
     3
100
AcDbCircle
 10
93.06467274735228
 20
18.93266906317942
 30
0.0
 40
1.4068519372934
100
AcDbArc
 50
193.4375782160214
 51
199.459638038058
  0
ARC
  5
FA
330
1F
100
AcDbEntity
  8
0
  6
CONTINUOUS
 62
     3
100
AcDbCircle
 10
92.23786832263131
 20
18.72118718050417
 30
0.0
 40
0.535613931103931
100
AcDbArc
 50
92.11404364449162
 51
173.4175047026091
  0
ARC
  5
FB
330
1F
100
AcDbEntity
  8
0
  6
CONTINUOUS
 62
     3
100
AcDbCircle
 10
92.27583206530105
 20
18.64872959634165
 30
0.0
 40
0.612586430102253
100
AcDbArc
 50
17.92452211681263
 51
85.16543319077402
  0
LINE
  5
FC
330
1F
100
AcDbEntity
  8
0
  6
CONTINUOUS
 62
     3
100
AcDbLine
 10
92.44288524735104
 20
19.52171156317904
 30
0.0
 11
92.25658524735105
 21
19.52171156317904
 31
0.0
  0
LINE
  5
FD
330
1F
100
AcDbEntity
  8
0
  6
CONTINUOUS
 62
     3
100
AcDbLine
 10
92.08513524735102
 20
16.37013656317904
 30
0.0
 11
92.24713524735107
 21
16.37013656317904
 31
0.0
  0
LINE
  5
FE
330
1F
100
AcDbEntity
  8
0
  6
CONTINUOUS
 62
     3
100
AcDbLine
 10
91.40338524735107
 20
16.84263656317905
 30
0.0
 11
91.315635247351
 21
16.84263656317905
 31
0.0
  0
LINE
  5
FF
330
1F
100
AcDbEntity
  8
0
  6
CONTINUOUS
 62
     3
100
AcDbLine
 10
91.88938524735104
 20
16.12713656317904
 30
0.0
 11
92.206635247351
 21
16.12713656317904
 31
0.0
  0
HATCH
  5
100
330
1F
100
AcDbEntity
  8
0
  6
CONTINUOUS
 62
     3
100
AcDbHatch
 10
0.0
 20
0.0
 30
0.0
210
0.0
220
0.0
230
1.0
  2
SOLID
 70
     1
 71
     1
 91
        1
 92
        3
 72
     1
 73
     1
 93
       10
 10
79.80688524735106
 20
16.31613656317905
 42
-0.017362223501556
 10
79.81566024735103
 20
21.61286156317906
 42
-0.0267627618865285
 10
79.81566024735099
 20
21.61286156317905
 42
0.0737939047395297
 10
81.10761024735102
 20
21.61826156317899
 42
0.0183878899657109
 10
81.05563524735108
 20
16.84263656317904
 42
-0.1144749489451909
 10
80.846385247351
 20
15.83688656317905
 42
-0.1929163439413163
 10
79.85076024735108
 20
15.05523656317905
 42
-0.0603888289562337
 10
79.32291024735102
 20
14.92361156317904
 42
0.0
 10
79.199385247351
 20
15.29958656317904
 42
0.0860918333465722
 10
79.56861024735105
 20
15.49601156317904
 42
0.1331843103855141
 97
        0
 75
     0
 76
     1
 98
        1
 10
0.0
 20
0.0
  0
HATCH
  5
101
330
1F
100
AcDbEntity
  8
0
  6
CONTINUOUS
 62
     3
100
AcDbHatch
 10
0.0
 20
0.0
 30
0.0
210
0.0
220
0.0
230
1.0
  2
SOLID
 70
     1
 71
     1
 91
        1
 92
        3
 72
     1
 73
     1
 93
       16
 10
85.721235247351
 20
16.20476156317904
 42
-0.0386228372648426
 10
85.71516024735102
 20
19.45893656317905
 42
-0.0398707891902887
 10
86.30578524735101
 20
19.46163656317904
 42
-0.1256886216044368
 10
86.27878524735102
 20
18.90948656317905
 42
-0.0367815758121429
 10
86.27878524735104
 20
18.90948656317905
 42
-0.268021535028829
 10
87.47016024735105
 20
19.52778656317905
 42
-0.2571134422124888
 10
88.284885247351
 20
19.12481156317905
 42
-0.1522526366014298
 10
88.49211024735104
 20
18.45453656317904
 42
-0.0158825412051521
 10
88.477260247351
 20
16.20138656317906
 42
-0.0285251271418421
 10
87.90688524735106
 20
16.20138656317905
 42
-0.0452212723224612
 10
87.93591024735102
 20
18.28308656317905
 42
-0.0315567291532142
 10
87.759060247351
 20
18.89801156317904
 42
-0.1476272403790709
 10
86.60751024735103
 20
18.98643656317905
 42
-0.3908144705745794
 10
86.282835247351
 20
18.17846156317905
 42
-0.2046259928850854
 10
86.28283524735102
 20
18.17846156317905
 42
0.0
 10
86.33346024735107
 20
16.19936156317905
 42
-0.0304995761723369
 97
        0
 75
     0
 76
     1
 98
        1
 10
0.0
 20
0.0
  0
HATCH
  5
102
330
1F
100
AcDbEntity
  8
0
  6
CONTINUOUS
 62
     3
100
AcDbHatch
 10
0.0
 20
0.0
 30
0.0
210
0.0
220
0.0
230
1.0
  2
SOLID
 70
     1
 71
     1
 91
        2
 92
        1
 93
        1
 72
     2
 10
89.96291007785953
 20
20.65279190216209
 40
0.3572334466769884
 50
0.0
 51
360.0
 73
     1
 97
        0
 92
        3
 72
     1
 73
     1
 93
        3
 10
89.64366024735101
 20
19.46433656317905
 42
0.1200283885712921
 10
90.26466024735099
 20
16.20071156317903
 42
-0.0401820615762149
 10
89.644335247351
 20
16.19868656317905
 42
-0.0237521668114666
 97
        0
 75
     0
 76
     1
 98
        1
 10
0.0
 20
0.0
  0
LINE
  5
103
330
1F
100
AcDbEntity
  8
0
  6
CONTINUOUS
 62
     3
100
AcDbLine
 10
82.35163524735106
 20
18.76638656317905
 30
0.0
 11
82.43938524735103
 21
18.76638656317905
 31
0.0
  0
ARC
  5
104
330
1F
100
AcDbEntity
  8
0
  6
CONTINUOUS
 62
     3
100
AcDbCircle
 10
90.18779998723542
 20
16.85223482907499
 30
0.0
 40
1.127953740078838
100
AcDbArc
 50
332.3987521421788
 51
359.5124385477116
  0
LINE
  5
105
330
1F
100
AcDbEntity
  8
0
  6
CONTINUOUS
 62
     3
100
AcDbLine
 10
92.82088524735101
 20
17.04513656317904
 30
0.0
 11
92.82763524735105
 21
16.88988656317904
 31
0.0
  0
LINE
  5
106
330
1F
100
AcDbEntity
  8
0
  6
CONTINUOUS
 62
     3
100
AcDbLine
 10
93.29676024735106
 20
17.32661156317905
 30
0.0
 11
93.29338524735098
 21
17.03838656317905
 31
0.0
  0
LINE
  5
107
330
1F
100
AcDbEntity
  8
0
  6
CONTINUOUS
 62
     3
100
AcDbLine
 10
91.70578524735097
 20
18.78258656317905
 30
0.0
 11
91.696335247351
 21
18.60573656317905
 31
0.0
  0
LINE
  5
108
330
1F
100
AcDbEntity
  8
0
  6
CONTINUOUS
 62
     3
100
AcDbLine
 10
91.21776024735101
 20
18.58076156317905
 30
0.0
 11
91.22113524735099
 21
18.40188656318125
 31
0.0
  0
LINE
  5
109
330
1F
100
AcDbEntity
  8
0
  6
CONTINUOUS
 62
     3
100
AcDbLine
 10
92.21811024735099
 20
19.25643656317905
 30
0.0
 11
92.32746024735107
 21
19.25913656317905
 31
0.0
  0
LINE
  5
10A
330
1F
100
AcDbEntity
  8
0
  6
CONTINUOUS
 62
     3
100
AcDbLine
 10
92.85868524735103
 20
18.83726156317904
 30
0.0
 11
92.94406802269916
 21
18.83726156317904
 31
0.0
  0
ARC
  5
10B
330
1F
100
AcDbEntity
  8
0
  6
CONTINUOUS
 62
     3
100
AcDbCircle
 10
94.81860678091309
 20
18.48463160849993
 30
0.0
 40
1.907418003737831
100
AcDbArc
 50
153.7591918158497
 51
169.3462759801917
  0
HATCH
  5
10C
330
1F
100
AcDbEntity
  8
0
  6
CONTINUOUS
 62
     3
100
AcDbHatch
 10
0.0
 20
0.0
 30
0.0
210
0.0
220
0.0
230
1.0
  2
SOLID
 70
     1
 71
     1
 91
        1
 92
        3
 72
     1
 73
     1
 93
       30
 10
93.10776024735095
 20
19.3279865631791
 42
-0.0009362235736497
 10
93.107760247351
 20
19.32798656317904
 42
0.0681165430304653
 10
92.94406802269916
 20
18.83726156317904
 42
0.0
 10
92.32746024735107
 20
19.25913656317905
 42
-0.302112590907374
 10
92.32746024735107
 20
19.25913656317905
 42
0.0
 10
91.705785247351
 20
18.78258656317904
 42
-0.3704245237568778
 10
91.70578524735097
 20
18.78258656317905
 42
0.0
 10
91.73818524735101
 20
18.46398656317905
 42
-0.0262822419456939
 10
92.12158524735104
 20
18.15753656317904
 42
-0.180060563604375
 10
92.73313524735104
 20
17.97123656317904
 42
-0.0298130817160724
 10
92.73313524735102
 20
17.97123656317904
 42
-0.3153987453686078
 10
93.29676024735106
 20
17.32661156317905
 42
0.0
 10
93.29338524735107
 20
17.03838656317905
 42
-0.3510306079065168
 10
92.206635247351
 20
16.12713656317904
 42
0.0
 10
91.88938524735097
 20
16.12713656317905
 42
-0.1053356344842436
 10
91.18738524735103
 20
16.32963656317904
 42
0.1188608286962634
 10
91.315635247351
 20
16.84263656317905
 42
0.0
 10
92.08513524735103
 20
16.37013656317903
 42
-0.2447573632916039
 10
92.08513524735102
 20
16.37013656317904
 42
0.0
 10
92.82763524735105
 20
16.88988656317904
 42
-0.3734162676407277
 10
92.82763524735105
 20
16.88988656317904
 42
0.0
 10
92.55831024735107
 20
17.40896156317904
 42
-0.261219770190848
 10
91.929885247351
 20
17.63711156317905
 42
-0.0572747914118363
 10
91.92988524735108
 20
17.63711156317904
 42
-0.1189658875692221
 10
91.43038524735101
 20
17.93006156317904
 42
-0.2005226878639636
 10
91.22113524735099
 20
18.40188656318125
 42
0.0
 10
91.21776024735104
 20
18.58076156317904
 42
-0.2622894489606957
 10
91.75438524735105
 20
19.40088656317905
 42
-0.0988461274137808
 10
92.25658524735105
 20
19.52171156317904
 42
0.0
 10
92.44288524735099
 20
19.52171156317905
 42
-0.0920156312561188
 97
        0
 75
     0
 76
     1
 98
        1
 10
0.0
 20
0.0
  0
HATCH
  5
10D
330
1F
100
AcDbEntity
  8
0
  6
CONTINUOUS
 62
     3
100
AcDbHatch
 10
0.0
 20
0.0
 30
0.0
210
0.0
220
0.0
230
1.0
  2
SOLID
 70
     1
 71
     1
 91
        2
 92
        3
 72
     1
 73
     1
 93
       27
 10
82.351635247351
 20
19.13088656317904
 42
-0.1769427732109284
 10
82.35163524735106
 20
19.13088656317905
 42
0.0
 10
82.35163524735106
 20
18.76638656317905
 42
0.0
 10
82.43938524735105
 20
18.76638656317904
 42
-0.207533601427307
 10
83.00910095298308
 20
19.19376082471544
 42
-0.1226604740888933
 10
83.51263524735104
 20
19.20446156317904
 42
-0.3213715781137954
 10
84.0331914762469
 20
18.56550237720975
 42
-0.064704004662446
 10
84.03576024735099
 20
18.22773656317904
 42
-0.257798906330806
 10
83.92978524735106
 20
18.09948656317904
 42
-0.056602577721096
 10
83.70298524735104
 20
18.02051156317906
 42
-0.0166741689362636
 10
82.87138524735103
 20
17.86256156317904
 42
0.1186092302783404
 10
82.32261024735105
 20
17.59931156317905
 42
0.1699204224386695
 10
82.08366024735103
 20
17.19971156317905
 42
0.1006533494296199
 10
82.06156734198422
 20
16.85297278438222
 42
0.1675695228968024
 10
82.27806024735108
 20
16.38836156317905
 42
0.1376980079804242
 10
82.671585247351
 20
16.16088656317905
 42
0.0719813663796923
 10
82.85046024735098
 20
16.13118656317905
 42
0.0
 10
83.12451024735105
 20
16.13118656317905
 42
0.1944607457809085
 10
84.03373524735106
 20
16.59896156317904
 42
0.1288538183665954
 10
84.125535247351
 20
16.36946156317904
 42
0.2098387395261546
 10
84.42523524735104
 20
16.20408656317904
 42
0.0
 10
84.64258524735105
 20
16.20273656317905
 42
0.0945009641609563
 10
84.956460247351
 20
16.26956156317904
 42
0.0
 10
84.95646024735099
 20
16.42683656317905
 42
-0.2395739894657535
 10
84.68241024735106
 20
16.42413656317904
 42
-0.2502312110031057
 10
84.547410247351
 20
16.6779365631791
 42
-0.0104343570771765
 10
84.56563524735107
 20
18.57063656317904
 42
0.4051015674140716
 97
        0
 92
        3
 72
     1
 73
     1
 93
        8
 10
84.04791024735104
 20
17.89698656317904
 42
-0.0339435190873666
 10
84.04791024735187
 20
17.89698656317791
 42
-0.0001110072973599
 10
84.01956024735107
 20
16.86288656317904
 42
-0.2253076310552528
 10
83.31081024735104
 20
16.38971156317905
 42
0.0
 10
83.13733524735099
 20
16.38971156317905
 42
-0.3657967558150132
 10
82.62163524735102
 20
16.93781156317904
 42
0.0
 10
82.62163524735107
 20
17.13356156317905
 42
-0.2530797830369341
 10
82.96993524735103
 20
17.61551156317904
 42
-0.0724473624720066
 97
        0
 75
     0
 76
     1
 98
        1
 10
0.0
 20
0.0
  0
TEXT
  5
10F
330
1F
100
AcDbEntity
  8
0
  6
CONTINUOUS
 62
     2
100
AcDbText
 10
94.69999999999024
 20
15.8
 30
0.0
 40
3.0
  1
ジャニス工業株式会社
 41
1.025641025641026
  7
EXCADTTF1
 72
     5
 11
134.6999999999902
 21
15.8
 31
0.0
100
AcDbText
  0
LINE
  5
110
330
1F
100
AcDbEntity
  8
枠_表
  6
CONTINUOUS
 62
     7
100
AcDbLine
 10
270.0000000000003
 20
202.5
 30
0.0
 11
3000.0
 21
202.5
 31
0.0
  0
LINE
  5
111
330
1F
100
AcDbEntity
  8
枠_表
  6
CONTINUOUS
 62
     7
100
AcDbLine
 10
3000.0
 20
202.5
 30
0.0
 11
3000.0
 21
4327.5
 31
0.0
  0
LINE
  5
112
330
1F
100
AcDbEntity
  8
枠_表
  6
CONTINUOUS
 62
     7
100
AcDbLine
 10
270.0000000000003
 20
202.5
 30
0.0
 11
270.0000000000003
 21
4327.5
 31
0.0
  0
LINE
  5
113
330
1F
100
AcDbEntity
  8
枠_表
  6
CONTINUOUS
 62
     7
100
AcDbLine
 10
270.0000000000003
 20
4327.5
 30
0.0
 11
3000.0
 21
4327.5
 31
0.0
  0
LINE
  5
114
330
1F
100
AcDbEntity
  8
枠_表
  6
CONTINUOUS
 62
     7
100
AcDbLine
 10
270.0000000000003
 20
532.5
 30
0.0
 11
3000.0
 21
532.5
 31
0.0
  0
LINE
  5
115
330
1F
100
AcDbEntity
  8
枠_表
  6
CONTINUOUS
 62
     6
100
AcDbLine
 10
3000.0
 20
352.5
 30
0.0
 11
1124.999999999998
 21
352.5
 31
0.0
  0
LINE
  5
116
330
1F
100
AcDbEntity
  8
枠_表
  6
CONTINUOUS
 62
     6
100
AcDbLine
 10
2790.0
 20
532.5
 30
0.0
 11
2790.0
 21
352.5
 31
0.0
  0
LINE
  5
117
330
1F
100
AcDbEntity
  8
枠_表
  6
CONTINUOUS
 62
     6
100
AcDbLine
 10
2715.0
 20
532.5
 30
0.0
 11
2715.0
 21
352.5
 31
0.0
  0
LINE
  5
118
330
1F
100
AcDbEntity
  8
枠_表
  6
CONTINUOUS
 62
     6
100
AcDbLine
 10
2160.0
 20
532.5
 30
0.0
 11
2160.0
 21
202.5
 31
0.0
  0
LINE
  5
119
330
1F
100
AcDbEntity
  8
枠_表
  6
CONTINUOUS
 62
     6
100
AcDbLine
 10
2085.0
 20
532.5
 30
0.0
 11
2085.0
 21
202.5
 31
0.0
  0
LINE
  5
11A
330
1F
100
AcDbEntity
  8
枠_表
  6
CONTINUOUS
 62
     6
100
AcDbLine
 10
1199.999999999998
 20
532.5
 30
0.0
 11
1199.999999999998
 21
352.5
 31
0.0
  0
LINE
  5
11B
330
1F
100
AcDbEntity
  8
枠_表
  6
CONTINUOUS
 62
     6
100
AcDbLine
 10
1124.999999999998
 20
532.5
 30
0.0
 11
1124.999999999998
 21
202.5
 31
0.0
  0
LINE
  5
11C
330
1F
100
AcDbEntity
  8
枠_表
  6
CONTINUOUS
 62
     6
100
AcDbLine
 10
930.0000000000002
 20
532.5
 30
0.0
 11
930.0000000000002
 21
202.5
 31
0.0
  0
LINE
  5
11D
330
1F
100
AcDbEntity
  8
枠_表
  6
CONTINUOUS
 62
     6
100
AcDbLine
 10
735.0000000000002
 20
532.5
 30
0.0
 11
735.0000000000002
 21
202.5
 31
0.0
  0
LINE
  5
11E
330
1F
100
AcDbEntity
  8
枠_表
  6
CONTINUOUS
 62
     6
100
AcDbLine
 10
502.5000000000003
 20
532.5
 30
0.0
 11
502.5000000000003
 21
202.5
 31
0.0
  0
LINE
  5
11F
330
1F
100
AcDbEntity
  8
枠_表
  6
CONTINUOUS
 62
     6
100
AcDbLine
 10
270.0000000000003
 20
457.5
 30
0.0
 11
1124.999999999998
 21
457.5
 31
0.0
  0
LINE
  5
120
330
1F
100
AcDbEntity
  8
枠_表
  6
CONTINUOUS
 62
     6
100
AcDbLine
 10
2838.980712899997
 20
387.0043945499997
 30
0.0
 11
2954.990844750001
 21
505.0497436500009
 31
0.0
  0
CIRCLE
  5
121
330
1F
100
AcDbEntity
  8
枠_表
  6
CONTINUOUS
 62
     6
100
AcDbCircle
 10
577.5000000000002
 20
240.0
 30
0.0
 40
1.5000003
  0
CIRCLE
  5
122
330
1F
100
AcDbEntity
  8
枠_表
  6
CONTINUOUS
 62
     6
100
AcDbCircle
 10
652.5000000000002
 20
240.0
 30
0.0
 40
1.5000003
  0
LINE
  5
123
330
1F
100
AcDbEntity
  8
枠_表
  6
EXLTYPE2
 62
     6
100
AcDbLine
 10
270.0000000000003
 20
277.5
 30
0.0
 11
735.0000000000002
 21
277.5
 31
0.0
  0
TEXT
  5
124
330
1F
100
AcDbEntity
  8
枠_表
  6
CONTINUOUS
 62
     2
100
AcDbText
 10
2835.805664100001
 20
454.0841674500002
 30
0.0
 40
44.99999618530273
  1
１
 41
1.101333426694527
  7
EXCADSTD
 72
     5
 11
2871.205664100001
 21
454.0841674500002
 31
0.0
100
AcDbText
  0
TEXT
  5
125
330
1F
100
AcDbEntity
  8
枠_表
  6
CONTINUOUS
 62
     2
100
AcDbText
 10
2896.918945350001
 20
387.5232695999989
 30
0.0
 40
44.99999618530273
  1
１５
 41
1.098531308335255
  7
EXCADSTD
 72
     5
 11
2974.600795568535
 21
387.5232695999989
 31
0.0
100
AcDbText
  0
TEXT
  5
126
330
1F
100
AcDbEntity
  8
枠_表
  6
CONTINUOUS
 62
     2
100
AcDbText
 10
303.7500000000003
 20
463.1250019073486
 30
0.0
 40
63.74999618530273
  1
製図
 41
1.509694103275157
  7
EXCADSTD
 72
     5
 11
454.9889895103457
 21
463.1250019073486
 31
0.0
100
AcDbText
  0
TEXT
  5
127
330
1F
100
AcDbEntity
  8
枠_表
  6
CONTINUOUS
 62
     2
100
AcDbText
 10
536.2500000000002
 20
463.1250019073486
 30
0.0
 40
63.74999618530273
  1
写図
 41
1.509694103275156
  7
EXCADSTD
 72
     5
 11
687.4889895103456
 21
463.1250019073486
 31
0.0
100
AcDbText
  0
TEXT
  5
128
330
1F
100
AcDbEntity
  8
枠_表
  6
CONTINUOUS
 62
     2
100
AcDbText
 10
761.2499991059306
 20
463.1250019073486
 30
0.0
 40
63.74999618530273
  1
検図
 41
1.303826754906227
  7
EXCADSTD
 72
     5
 11
891.8654929869654
 21
463.1250019073486
 31
0.0
100
AcDbText
  0
TEXT
  5
129
330
1F
100
AcDbEntity
  8
枠_表
  6
CONTINUOUS
 62
     2
100
AcDbText
 10
956.2499991059287
 20
463.1250019073486
 30
0.0
 40
63.74999618530273
  1
承認
 41
1.303826754906227
  7
EXCADSTD
 72
     5
 11
1086.865492986964
 21
463.1250019073486
 31
0.0
100
AcDbText
  0
TEXT
  5
12A
330
1F
100
AcDbEntity
  8
枠_表
  6
CONTINUOUS
 62
     2
100
AcDbText
 10
1133.624999999997
 20
448.1250019073486
 30
0.0
 40
63.74999618530273
  1
品
 41
1.119999999999999
  7
EXCADSTD
 72
     5
 11
1184.624996948239
 21
448.1250019073486
 31
0.0
100
AcDbText
  0
TEXT
  5
12B
330
1F
100
AcDbEntity
  8
枠_表
  6
CONTINUOUS
 62
     2
100
AcDbText
 10
1133.624999999997
 20
373.1250019073486
 30
0.0
 40
63.74999618530273
  1
名
 41
1.119999999999999
  7
EXCADSTD
 72
     5
 11
1184.624996948239
 21
373.1250019073486
 31
0.0
100
AcDbText
  0
TEXT
  5
12C
330
1F
100
AcDbEntity
  8
枠_表
  6
CONTINUOUS
 62
     2
100
AcDbText
 10
2093.624999999997
 20
448.1250019073486
 30
0.0
 40
63.74999618530273
  1
品
 41
1.120000000000004
  7
EXCADSTD
 72
     5
 11
2144.624996948239
 21
448.1250019073486
 31
0.0
100
AcDbText
  0
TEXT
  5
12D
330
1F
100
AcDbEntity
  8
枠_表
  6
CONTINUOUS
 62
     2
100
AcDbText
 10
2093.624999999997
 20
373.1250019073486
 30
0.0
 40
63.74999618530273
  1
番
 41
1.120000000000004
  7
EXCADSTD
 72
     5
 11
2144.624996948239
 21
373.1250019073486
 31
0.0
100
AcDbText
  0
TEXT
  5
12E
330
1F
100
AcDbEntity
  8
枠_表
  6
CONTINUOUS
 62
     2
100
AcDbText
 10
2725.125
 20
448.1250019073486
 30
0.0
 40
63.74999618530273
  1
尺
 41
1.120000000000004
  7
EXCADSTD
 72
     5
 11
2776.124996948243
 21
448.1250019073486
 31
0.0
100
AcDbText
  0
TEXT
  5
12F
330
1F
100
AcDbEntity
  8
枠_表
  6
CONTINUOUS
 62
     2
100
AcDbText
 10
2725.125
 20
373.1250019073486
 30
0.0
 40
63.74999618530273
  1
度
 41
1.120000000000004
  7
EXCADSTD
 72
     5
 11
2776.124996948243
 21
373.1250019073486
 31
0.0
100
AcDbText
  0
TEXT
  5
130
330
1F
100
AcDbEntity
  8
枠_表
  6
CONTINUOUS
 62
     2
100
AcDbText
 10
2093.624999999997
 20
278.6250019073495
 30
0.0
 40
63.74999618530273
  1
図
 41
1.120000000000004
  7
EXCADSTD
 72
     5
 11
2144.624996948239
 21
278.6250019073495
 31
0.0
100
AcDbText
  0
TEXT
  5
131
330
1F
100
AcDbEntity
  8
枠_表
  6
CONTINUOUS
 62
     2
100
AcDbText
 10
2093.624999999997
 20
214.1250019073486
 30
0.0
 40
63.74999618530273
  1
番
 41
1.120000000000004
  7
EXCADSTD
 72
     5
 11
2144.624996948239
 21
214.1250019073486
 31
0.0
100
AcDbText
  0
TEXT
  5
132
330
1F
100
AcDbEntity
  8
枠_表
  6
CONTINUOUS
 62
     2
100
AcDbText
 10
1214.999999999998
 20
442.5
 30
0.0
 40
74.99999237060547
  1
600㎜幅
 41
0.8693548467492553
  7
EXCADSTD
 72
     5
 11
1503.749973297118
 21
442.5
 31
0.0
100
AcDbText
  0
TEXT
  5
133
330
1F
100
AcDbEntity
  8
枠_表
  6
CONTINUOUS
 62
     2
100
AcDbText
 10
1214.999999999998
 20
367.5000076293945
 30
0.0
 40
74.99999237060547
  1
　洗面化粧ユニット
 41
1.307547181903193
  7
EXCADSTD
 72
     5
 11
1957.499931335448
 21
367.5000076293945
 31
0.0
100
AcDbText
  0
TEXT
  5
134
330
1F
100
AcDbEntity
  8
枠_表
  6
CONTINUOUS
 62
     2
100
AcDbText
 10
1844.999999999993
 20
4211.250001907349
 30
0.0
 40
59.99999618530273
  1
品番
 41
2.041518237445141
  7
EXCADSTD
 72
     5
 11
2037.48599300689
 21
4211.250001907349
 31
0.0
100
AcDbText
  0
TEXT
  5
135
330
1F
100
AcDbEntity
  8
枠_表
  6
CONTINUOUS
 62
     2
100
AcDbText
 10
2295.0
 20
4211.250001907349
 30
0.0
 40
59.99999618530273
  1
品名
 41
2.041518237445141
  7
EXCADSTD
 72
     5
 11
2487.485993006897
 21
4211.250001907349
 31
0.0
100
AcDbText
  0
TEXT
  5
136
330
1F
100
AcDbEntity
  8
枠_表
  6
CONTINUOUS
 62
     2
100
AcDbText
 10
1739.999999999993
 20
3798.750001907345
 30
0.0
 40
59.99999618530273
  1
止水栓手配品番（アングル形の場合）
 41
0.9564356294638243
  7
EXCADSTD
 72
     5
 11
2567.999935150139
 21
3798.750001907345
 31
0.0
100
AcDbText
  0
TEXT
  5
137
330
1F
100
AcDbEntity
  8
枠_表
  6
CONTINUOUS
 62
     2
100
AcDbText
 10
1739.999999999989
 20
3716.250001907345
 30
0.0
 40
59.99999618530273
  1
ＮＬ２２１-７５ＷＭＹ
 41
0.662069007610455
  7
EXCADSTD
 72
     5
 11
2123.999999999989
 21
3716.250001907345
 31
0.0
100
AcDbText
  0
LINE
  5
138
330
1F
100
AcDbEntity
  8
枠_表
  6
CONTINUOUS
 62
     6
100
AcDbLine
 10
1724.999999999989
 20
3869.999999999998
 30
0.0
 11
1724.999999999989
 21
4282.5
 31
0.0
  0
LINE
  5
139
330
1F
100
AcDbEntity
  8
枠_表
  6
CONTINUOUS
 62
     6
100
AcDbLine
 10
2174.999999999993
 20
3869.999999999998
 30
0.0
 11
2174.999999999993
 21
4282.5
 31
0.0
  0
TEXT
  5
13A
330
1F
100
AcDbEntity
  8
枠_表
  6
CONTINUOUS
 62
     2
100
AcDbText
 10
2816.25
 20
3922.500001907349
 30
0.0
 40
59.99999618530273
  1
１
 41
1.260000080108648
  7
EXCADSTD
 72
     5
 11
2870.25
 21
3922.500001907349
 31
0.0
100
AcDbText
  0
LINE
  5
13B
330
1F
100
AcDbEntity
  8
枠_表
  6
CONTINUOUS
 62
     6
100
AcDbLine
 10
1724.999999999989
 20
3952.499999999998
 30
0.0
 11
2775.0
 21
3952.499999999998
 31
0.0
  0
LINE
  5
13C
330
1F
100
AcDbEntity
  8
枠_表
  6
CONTINUOUS
 62
     6
100
AcDbLine
 10
2925.0
 20
3869.999999999998
 30
0.0
 11
2925.0
 21
4282.5
 31
0.0
  0
LINE
  5
13D
330
1F
100
AcDbEntity
  8
枠_表
  6
CONTINUOUS
 62
     6
100
AcDbLine
 10
2775.0
 20
3869.999999999998
 30
0.0
 11
2775.0
 21
4282.5
 31
0.0
  0
LINE
  5
13E
330
1F
100
AcDbEntity
  8
枠_表
  6
CONTINUOUS
 62
     6
100
AcDbLine
 10
1724.999999999989
 20
3869.999999999998
 30
0.0
 11
2925.0
 21
3869.999999999998
 31
0.0
  0
TEXT
  5
13F
330
1F
100
AcDbEntity
  8
枠_表
  6
CONTINUOUS
 62
     2
100
AcDbText
 10
2816.25
 20
3716.250001907345
 30
0.0
 40
59.99999618530273
  1
２
 41
1.260000080108648
  7
EXCADSTD
 72
     5
 11
2870.25
 21
3716.250001907345
 31
0.0
100
AcDbText
  0
LINE
  5
140
330
1F
100
AcDbEntity
  8
枠_表
  6
CONTINUOUS
 62
     6
100
AcDbLine
 10
1724.999999999989
 20
3704.999999999996
 30
0.0
 11
2925.0
 21
3704.999999999996
 31
0.0
  0
LINE
  5
141
330
1F
100
AcDbEntity
  8
枠_表
  6
CONTINUOUS
 62
     6
100
AcDbLine
 10
1724.999999999989
 20
3787.499999999996
 30
0.0
 11
2925.0
 21
3787.499999999996
 31
0.0
  0
LINE
  5
142
330
1F
100
AcDbEntity
  8
枠_表
  6
CONTINUOUS
 62
     6
100
AcDbLine
 10
1724.999999999989
 20
4035.0
 30
0.0
 11
2925.0
 21
4035.0
 31
0.0
  0
TEXT
  5
143
330
1F
100
AcDbEntity
  8
枠_表
  6
CONTINUOUS
 62
     2
100
AcDbText
 10
2816.25
 20
4087.500001907349
 30
0.0
 40
59.99999618530273
  1
１
 41
1.260000080108648
  7
EXCADSTD
 72
     5
 11
2870.25
 21
4087.500001907349
 31
0.0
100
AcDbText
  0
LINE
  5
144
330
1F
100
AcDbEntity
  8
枠_表
  6
CONTINUOUS
 62
     6
100
AcDbLine
 10
1724.999999999989
 20
4117.5
 30
0.0
 11
2775.0
 21
4117.5
 31
0.0
  0
TEXT
  5
145
330
1F
100
AcDbEntity
  8
枠_表
  6
CONTINUOUS
 62
     2
100
AcDbText
 10
2788.500000536442
 20
4211.250001907349
 30
0.0
 40
59.99999618530273
  1
個数
 41
1.195746439659873
  7
EXCADSTD
 72
     5
 11
2901.241800536442
 21
4211.250001907349
 31
0.0
100
AcDbText
  0
LINE
  5
146
330
1F
100
AcDbEntity
  8
枠_表
  6
CONTINUOUS
 62
     6
100
AcDbLine
 10
1724.999999999989
 20
4200.0
 30
0.0
 11
2925.0
 21
4200.0
 31
0.0
  0
LINE
  5
147
330
1F
100
AcDbEntity
  8
枠_表
  6
CONTINUOUS
 62
     6
100
AcDbLine
 10
1724.999999999989
 20
4282.5
 30
0.0
 11
2925.0
 21
4282.5
 31
0.0
  0
TEXT
  5
148
330
1F
100
AcDbEntity
  8
枠_表
  6
CONTINUOUS
 62
     2
100
AcDbText
 10
1739.999999999993
 20
3551.250001907345
 30
0.0
 40
59.99999618530273
  1
止水栓手配品番（ストレート形の場合）
 41
0.9551401727741743
  7
EXCADSTD
 72
     5
 11
2615.999931335442
 21
3551.250001907345
 31
0.0
100
AcDbText
  0
TEXT
  5
149
330
1F
100
AcDbEntity
  8
枠_表
  6
CONTINUOUS
 62
     2
100
AcDbText
 10
1739.999999999989
 20
3468.750001907345
 30
0.0
 40
59.99999618530273
  1
ＮＬ２１１-３３０ＷＭＹ
 41
0.6924773501163136
  7
EXCADSTD
 72
     5
 11
2177.249956130971
 21
3468.750001907345
 31
0.0
100
AcDbText
  0
TEXT
  5
14A
330
1F
100
AcDbEntity
  8
枠_表
  6
CONTINUOUS
 62
     2
100
AcDbText
 10
2816.25
 20
3468.750001907345
 30
0.0
 40
59.99999618530273
  1
２
 41
1.260000080108648
  7
EXCADSTD
 72
     5
 11
2870.25
 21
3468.750001907345
 31
0.0
100
AcDbText
  0
LINE
  5
14B
330
1F
100
AcDbEntity
  8
枠_表
  6
CONTINUOUS
 62
     6
100
AcDbLine
 10
1724.999999999989
 20
3457.499999999996
 30
0.0
 11
2925.0
 21
3457.499999999996
 31
0.0
  0
LINE
  5
14C
330
1F
100
AcDbEntity
  8
枠_表
  6
CONTINUOUS
 62
     6
100
AcDbLine
 10
1724.999999999989
 20
3539.999999999996
 30
0.0
 11
2925.0
 21
3539.999999999996
 31
0.0
  0
LINE
  5
14D
330
1F
100
AcDbEntity
  8
枠_表
  6
CONTINUOUS
 62
     6
100
AcDbLine
 10
1724.999999999989
 20
3622.499999999996
 30
0.0
 11
2925.0
 21
3622.499999999996
 31
0.0
  0
LINE
  5
14E
330
1F
100
AcDbEntity
  8
枠_表
  6
CONTINUOUS
 62
     6
100
AcDbLine
 10
1724.999999999989
 20
3374.999999999996
 30
0.0
 11
2925.0
 21
3374.999999999996
 31
0.0
  0
LINE
  5
14F
330
1F
100
AcDbEntity
  8
枠_表
  6
CONTINUOUS
 62
     6
100
AcDbLine
 10
1724.999999999989
 20
3622.499999999996
 30
0.0
 11
1724.999999999989
 21
3787.499999999996
 31
0.0
  0
LINE
  5
150
330
1F
100
AcDbEntity
  8
枠_表
  6
CONTINUOUS
 62
     6
100
AcDbLine
 10
2174.999999999993
 20
3622.499999999996
 30
0.0
 11
2174.999999999993
 21
3787.499999999996
 31
0.0
  0
LINE
  5
151
330
1F
100
AcDbEntity
  8
枠_表
  6
CONTINUOUS
 62
     6
100
AcDbLine
 10
2775.0
 20
3622.499999999996
 30
0.0
 11
2775.0
 21
3787.499999999996
 31
0.0
  0
LINE
  5
152
330
1F
100
AcDbEntity
  8
枠_表
  6
CONTINUOUS
 62
     6
100
AcDbLine
 10
2925.0
 20
3622.499999999996
 30
0.0
 11
2925.0
 21
3787.499999999996
 31
0.0
  0
LINE
  5
153
330
1F
100
AcDbEntity
  8
枠_表
  6
CONTINUOUS
 62
     6
100
AcDbLine
 10
2925.0
 20
3374.999999999996
 30
0.0
 11
2925.0
 21
3539.999999999996
 31
0.0
  0
LINE
  5
154
330
1F
100
AcDbEntity
  8
枠_表
  6
CONTINUOUS
 62
     6
100
AcDbLine
 10
2775.0
 20
3374.999999999996
 30
0.0
 11
2775.0
 21
3539.999999999996
 31
0.0
  0
LINE
  5
155
330
1F
100
AcDbEntity
  8
枠_表
  6
CONTINUOUS
 62
     6
100
AcDbLine
 10
2174.999999999993
 20
3374.999999999996
 30
0.0
 11
2174.999999999993
 21
3539.999999999996
 31
0.0
  0
LINE
  5
156
330
1F
100
AcDbEntity
  8
枠_表
  6
CONTINUOUS
 62
     6
100
AcDbLine
 10
1724.999999999989
 20
3374.999999999996
 30
0.0
 11
1724.999999999989
 21
3539.999999999996
 31
0.0
  0
TEXT
  5
157
330
1F
100
AcDbEntity
  8
枠_表
  6
CONTINUOUS
 62
     2
100
AcDbText
 10
1739.999999999989
 20
3386.250001907345
 30
0.0
 40
59.99999618530273
  1
ＮＬ３０Ｓ４０
 41
0.7512195599563753
  7
EXCADSTD
 72
     5
 11
2003.999999999989
 21
3386.250001907345
 31
0.0
100
AcDbText
  0
TEXT
  5
158
330
1F
100
AcDbEntity
  8
枠_表
  6
CONTINUOUS
 62
     2
100
AcDbText
 10
2816.249999999997
 20
3386.250001907345
 30
0.0
 40
59.99999618530273
  1
２
 41
1.260000080108648
  7
EXCADSTD
 72
     5
 11
2870.249999999997
 21
3386.250001907345
 31
0.0
100
AcDbText
  0
TEXT
  5
159
330
1F
100
AcDbEntity
  8
枠_表
  6
CONTINUOUS
 62
     2
100
AcDbText
 10
1739.999999999989
 20
3633.750001907345
 30
0.0
 40
59.99999618530273
  1
ＮＬ３０Ｓ４０
 41
0.7512195599563753
  7
EXCADSTD
 72
     5
 11
2003.999999999989
 21
3633.750001907345
 31
0.0
100
AcDbText
  0
TEXT
  5
15A
330
1F
100
AcDbEntity
  8
枠_表
  6
CONTINUOUS
 62
     2
100
AcDbText
 10
2816.249999999997
 20
3633.750001907345
 30
0.0
 40
59.99999618530273
  1
２
 41
1.260000080108648
  7
EXCADSTD
 72
     5
 11
2870.249999999997
 21
3633.750001907345
 31
0.0
100
AcDbText
  0
TEXT
  5
15B
330
1F
100
AcDbEntity
  8
枠_表
  6
CONTINUOUS
 62
     2
100
AcDbText
 10
2189.999999999993
 20
4128.750001907349
 30
0.0
 40
59.99999618530273
  1
洗面化粧台
 41
1.164655246460579
  7
EXCADSTD
 72
     5
 11
2479.499999999993
 21
4128.750001907349
 31
0.0
100
AcDbText
  0
TEXT
  5
15C
330
1F
100
AcDbEntity
  8
枠_表
  6
CONTINUOUS
 62
     2
100
AcDbText
 10
2191.499999999995
 20
4046.250001907349
 30
0.0
 40
59.99999618530273
  1
洗面化粧台・寒冷地
 41
1.099528405381455
  7
EXCADSTD
 72
     5
 11
2691.000015258784
 21
4046.250001907349
 31
0.0
100
AcDbText
  0
TEXT
  5
15D
330
1F
100
AcDbEntity
  8
枠_表
  6
CONTINUOUS
 62
     2
100
AcDbText
 10
2189.999999999993
 20
3881.250001907347
 30
0.0
 40
59.99999618530273
  1
化粧鏡台
 41
1.186956597203799
  7
EXCADSTD
 72
     5
 11
2423.999999999993
 21
3881.250001907347
 31
0.0
100
AcDbText
  0
TEXT
  5
15E
330
1F
100
AcDbEntity
  8
枠_表
  6
CONTINUOUS
 62
     2
100
AcDbText
 10
2189.999999999997
 20
3716.250001907345
 30
0.0
 40
59.99999618530273
  1
アングル形止水栓（共用形）
 41
0.8159090676452161
  7
EXCADSTD
 72
     5
 11
2728.499950408932
 21
3716.250001907345
 31
0.0
100
AcDbText
  0
TEXT
  5
15F
330
1F
100
AcDbEntity
  8
枠_表
  6
CONTINUOUS
 62
     2
100
AcDbText
 10
2189.999999999993
 20
3633.750001907345
 30
0.0
 40
59.99999618530273
  1
フレキシブルパイプ
 41
0.8287735620234734
  7
EXCADSTD
 72
     5
 11
2566.499965667718
 21
3633.750001907345
 31
0.0
100
AcDbText
  0
TEXT
  5
160
330
1F
100
AcDbEntity
  8
枠_表
  6
CONTINUOUS
 62
     2
100
AcDbText
 10
2189.999999999997
 20
3468.750001907345
 30
0.0
 40
59.99999618530273
  1
ストレート形止水栓（共用形）
 41
0.7590361351947703
  7
EXCADSTD
 72
     5
 11
2729.999958992001
 21
3468.750001907345
 31
0.0
100
AcDbText
  0
TEXT
  5
161
330
1F
100
AcDbEntity
  8
枠_表
  6
CONTINUOUS
 62
     2
100
AcDbText
 10
2189.999999999993
 20
3386.250001907345
 30
0.0
 40
59.99999618530273
  1
フレキシブルパイプ
 41
0.8287735620234734
  7
EXCADSTD
 72
     5
 11
2566.499965667718
 21
3386.250001907345
 31
0.0
100
AcDbText
  0
CIRCLE
  5
162
330
1F
100
AcDbEntity
  8
枠_表
  6
CONTINUOUS
 62
     6
100
AcDbCircle
 10
344.9999999999966
 20
240.0
 30
0.0
 40
1.5000003
  0
CIRCLE
  5
163
330
1F
100
AcDbEntity
  8
枠_表
  6
CONTINUOUS
 62
     6
100
AcDbCircle
 10
419.9999999999966
 20
240.0
 30
0.0
 40
1.5000003
  0
LINE
  5
164
330
1F
100
AcDbEntity
  8
枠_表
  6
EXLTYPE2
 62
     6
100
AcDbLine
 10
270.0
 20
2265.0
 30
0.0
 11
0.0
 21
2265.0
 31
0.0
  0
TEXT
  5
165
330
1F
100
AcDbEntity
  8
枠_表
  6
CONTINUOUS
 62
     2
100
AcDbText
 10
1739.999999999993
 20
3963.750001907347
 30
0.0
 40
59.99999618530273
  1
ＬＵＭ６０１１ＳＬＨ
 41
0.7355932671067431
  7
EXCADSTD
 72
     5
 11
2111.999999999993
 21
3963.750001907347
 31
0.0
100
AcDbText
  0
TEXT
  5
166
330
1F
100
AcDbEntity
  8
枠_表
  6
CONTINUOUS
 62
     2
100
AcDbText
 10
1739.999999999993
 20
3881.250001907347
 30
0.0
 40
59.99999618530273
  1
ＬＵＭ６０１１ＳＬＮ
 41
0.7355932671067431
  7
EXCADSTD
 72
     5
 11
2111.999999999993
 21
3881.250001907347
 31
0.0
100
AcDbText
  0
TEXT
  5
167
330
1F
100
AcDbEntity
  8
枠_表
  6
CONTINUOUS
 62
     2
100
AcDbText
 10
311.2499999999912
 20
330.0000038146973
 30
0.0
 40
74.99999237060547
  1
亀井
 41
1.224910918732916
  7
EXCADSTD
 72
     5
 11
455.6144864508541
 21
330.0000038146973
 31
0.0
100
AcDbText
  0
TEXT
  5
168
330
1F
100
AcDbEntity
  8
枠_表
  6
CONTINUOUS
 62
     2
100
AcDbText
 10
276.7499998499991
 20
210.0000019073486
 30
0.0
 40
59.99999618530273
  1
28
 41
0.4540540865305332
  7
EXCADSTD
 72
     5
 11
324.7500002314689
 21
210.0000019073486
 31
0.0
100
AcDbText
  0
TEXT
  5
169
330
1F
100
AcDbEntity
  8
枠_表
  6
CONTINUOUS
 62
     2
100
AcDbText
 10
432.0000001499978
 20
210.0000019073486
 30
0.0
 40
59.99999618530273
  1
25
 41
0.4540540865305332
  7
EXCADSTD
 72
     5
 11
480.0000005314675
 21
210.0000019073486
 31
0.0
100
AcDbText
  0
TEXT
  5
16A
330
1F
100
AcDbEntity
  8
枠_表
  6
CONTINUOUS
 62
     2
100
AcDbText
 10
948.7499999999911
 20
330.0000038146973
 30
0.0
 40
74.99999237060547
  1
間瀬
 41
1.224910918732915
  7
EXCADSTD
 72
     5
 11
1093.114486450854
 21
330.0000038146973
 31
0.0
100
AcDbText
  0
TEXT
  5
16B
330
1F
100
AcDbEntity
  8
枠_表
  6
CONTINUOUS
 62
     2
100
AcDbText
 10
2189.999999999997
 20
3963.750001907347
 30
0.0
 40
59.99999618530273
  1
化粧鏡台（くもり止めヒーター付）
 41
0.722105309068114
  7
EXCADSTD
 72
     5
 11
2777.999999999997
 21
3963.750001907347
 31
0.0
100
AcDbText
  0
TEXT
  5
16C
330
1F
100
AcDbEntity
  8
枠_表
  6
CONTINUOUS
 62
     2
100
AcDbText
 10
1754.999999999993
 20
3298.500003814694
 30
0.0
 40
52.49999618530273
  1
※止水栓は別途
 41
0.9609755927428115
  7
EXCADSTD
 72
     5
 11
2050.499973297112
 21
3298.500003814694
 31
0.0
100
AcDbText
  0
TEXT
  5
16D
330
1F
100
AcDbEntity
  8
枠_表
  6
CONTINUOUS
 62
     2
100
AcDbText
 10
1754.999999999993
 20
3246.000007629391
 30
0.0
 40
52.49999618530273
  1
※化粧鏡台
 41
0.9862068805162137
  7
EXCADSTD
 72
     5
 11
1969.499980926507
 21
3246.000007629391
 31
0.0
100
AcDbText
  0
TEXT
  5
16E
330
1F
100
AcDbEntity
  8
枠_表
  6
CONTINUOUS
 62
     2
100
AcDbText
 10
1754.999999999993
 20
3193.500011444088
 30
0.0
 40
52.49999618530273
  1
・電源：１００Ｖ，５０/６０Ｈｚ
 41
0.8771626116554141
  7
EXCADSTD
 72
     5
 11
2388.749940872185
 21
3193.500011444088
 31
0.0
100
AcDbText
  0
TEXT
  5
16F
330
1F
100
AcDbEntity
  8
枠_表
  6
CONTINUOUS
 62
     2
100
AcDbText
 10
1754.999999999993
 20
3141.000015258785
 30
0.0
 40
52.49999618530273
  1
・照明器具：５Ｗ　ＬＥＤ電球　昼白色　口金Ｅ２６
 41
0.9174824987837669
  7
EXCADSTD
 72
     5
 11
2738.999908447258
 21
3141.000015258785
 31
0.0
100
AcDbText
  0
TEXT
  5
170
330
1F
100
AcDbEntity
  8
枠_表
  6
CONTINUOUS
 62
     2
100
AcDbText
 10
1754.999999999993
 20
3088.500019073483
 30
0.0
 40
52.49999618530273
  1
・コンセント容量：１２００Ｗ（外付１コ）
 41
0.9210083847992306
  7
EXCADSTD
 72
     5
 11
2576.999923706047
 21
3088.500019073483
 31
0.0
100
AcDbText
  0
TEXT
  5
171
330
1F
100
AcDbEntity
  8
枠_表
  6
CONTINUOUS
 62
     2
100
AcDbText
 10
1754.999999999993
 20
3036.00002288818
 30
0.0
 40
52.49999618530273
  1
・電源コードの取出しは、右
 41
0.9324675143494877
  7
EXCADSTD
 72
     5
 11
2293.499950408928
 21
3036.00002288818
 31
0.0
100
AcDbText
  0
TEXT
  5
172
330
1F
100
AcDbEntity
  8
枠_表
  6
CONTINUOUS
 62
     2
100
AcDbText
 10
753.7499999999911
 20
327.0000038146973
 30
0.0
 40
74.99999237060547
  1
間瀬
 41
1.224910918732915
  7
EXCADSTD
 72
     5
 11
898.114486450854
 21
327.0000038146973
 31
0.0
100
AcDbText
  0
TEXT
  5
173
330
1F
100
AcDbEntity
  8
枠_表
  6
CONTINUOUS
 62
     7
100
AcDbText
 10
2177.999996244908
 20
227.2500038146973
 30
0.0
 40
104.9999923706055
  1
ＬＵ２１７４４０
 41
1.140425547142764
  7
EXCADSTD
 72
     5
 11
2981.999948561192
 21
227.2500038146973
 31
0.0
100
AcDbText
  0
TEXT
  5
174
330
1F
100
AcDbEntity
  8
枠_表
  6
CONTINUOUS
 62
     2
100
AcDbText
 10
2175.0
 20
442.5
 30
0.0
 40
74.99999237060547
  1
ＬＵ６０２ＲＳＤ型
 41
0.7396226697238015
  7
EXCADSTD
 72
     5
 11
2594.99997329712
 21
442.5
 31
0.0
100
AcDbText
  0
TEXT
  5
175
330
1F
100
AcDbEntity
  8
枠_表
  6
CONTINUOUS
 62
     2
100
AcDbText
 10
2175.0
 20
367.5000076293945
 30
0.0
 40
74.99999237060547
  1
ＬＵＭ６０１１ＳＬ型
 41
0.7355932483996405
  7
EXCADSTD
 72
     5
 11
2639.999970436097
 21
367.5000076293945
 31
0.0
100
AcDbText
  0
TEXT
  5
176
330
1F
100
AcDbEntity
  8
枠_表
  6
CONTINUOUS
 62
     2
100
AcDbText
 10
1739.999999999993
 20
4128.750001907349
 30
0.0
 40
59.99999618530273
  1
ＬＵ６０２ＲＳＤ
 41
0.7446808984093662
  7
EXCADSTD
 72
     5
 11
2039.999999999993
 21
4128.750001907349
 31
0.0
100
AcDbText
  0
TEXT
  5
177
330
1F
100
AcDbEntity
  8
枠_表
  6
CONTINUOUS
 62
     2
100
AcDbText
 10
1739.999999999993
 20
4046.250001907349
 30
0.0
 40
59.99999618530273
  1
ＬＵ６０２ＲＳＤＹ
 41
0.7396226885333776
  7
EXCADSTD
 72
     5
 11
2075.999999999993
 21
4046.250001907349
 31
0.0
100
AcDbText
  0
TEXT
  5
178
330
1F
100
AcDbEntity
  8
枠_表
  6
CONTINUOUS
 62
     2
100
AcDbText
 10
365.6249999999966
 20
210.0000019073486
 30
0.0
 40
59.99999618530273
  1
9
 41
0.4798828430101295
  7
EXCADSTD
 72
     5
 11
387.5624999999966
 21
210.0000019073486
 31
0.0
100
AcDbText
  0
POLYLINE
  5
179
330
1F
100
AcDbEntity
  8
化粧台
  6
CONTINUOUS
 62
     3
100
AcDb2dPolyline
 66
     1
 10
0.0
 20
0.0
 30
0.0
 70
   128
  0
VERTEX
  5
17A
330
179
100
AcDbEntity
  8
化粧台
  6
CONTINUOUS
 62
     3
100
AcDbVertex
100
AcDb2dVertex
 10
1451.999999999998
 20
3973.0
 30
0.0
  0
VERTEX
  5
17B
330
179
100
AcDbEntity
  8
化粧台
  6
CONTINUOUS
 62
     3
100
AcDbVertex
100
AcDb2dVertex
 10
1474.999999999998
 20
3923.5
 30
0.0
  0
SEQEND
  5
17C
330
179
100
AcDbEntity
  8
化粧台
  6
CONTINUOUS
 62
     3
  0
LINE
  5
17D
330
1F
100
AcDbEntity
  8
化粧台
  6
CONTINUOUS
 62
     3
100
AcDbLine
 10
1477.763749118669
 20
3935.350574621249
 30
0.0
 11
1451.999999999998
 21
3973.0
 31
0.0
  0
LINE
  5
17E
330
1F
100
AcDbEntity
  8
化粧台
  6
CONTINUOUS
 62
     3
100
AcDbLine
 10
1451.999999999998
 20
3973.0
 30
0.0
 11
1464.160489584011
 21
3929.029868170801
 31
0.0
  0
POLYLINE
  5
17F
330
1F
100
AcDbEntity
  8
化粧台
  6
CONTINUOUS
 62
     3
100
AcDb2dPolyline
 66
     1
 10
0.0
 20
0.0
 30
0.0
 70
   128
  0
VERTEX
  5
180
330
17F
100
AcDbEntity
  8
化粧台
  6
CONTINUOUS
 62
     3
100
AcDbVertex
100
AcDb2dVertex
 10
2465.0
 20
2885.0
 30
0.0
  0
VERTEX
  5
181
330
17F
100
AcDbEntity
  8
化粧台
  6
CONTINUOUS
 62
     3
100
AcDbVertex
100
AcDb2dVertex
 10
2419.0
 20
2905.0
 30
0.0
  0
SEQEND
  5
182
330
17F
100
AcDbEntity
  8
化粧台
  6
CONTINUOUS
 62
     3
  0
LINE
  5
183
330
1F
100
AcDbEntity
  8
化粧台
  6
CONTINUOUS
 62
     3
100
AcDbLine
 10
2420.741401632997
 20
2896.064649591751
 30
0.0
 11
2465.0
 21
2885.0
 31
0.0
  0
LINE
  5
184
330
1F
100
AcDbEntity
  8
化粧台
  6
CONTINUOUS
 62
     3
100
AcDbLine
 10
2465.0
 20
2885.0
 30
0.0
 11
2426.722293304213
 21
2909.820700435549
 31
0.0
  0
POLYLINE
  5
185
330
1F
100
AcDbEntity
  8
化粧台
  6
CONTINUOUS
 62
     3
100
AcDb2dPolyline
 66
     1
 10
0.0
 20
0.0
 30
0.0
 70
   128
  0
VERTEX
  5
186
330
185
100
AcDbEntity
  8
化粧台
  6
CONTINUOUS
 62
     3
100
AcDbVertex
100
AcDb2dVertex
 10
1963.0
 20
898.5
 30
0.0
  0
VERTEX
  5
187
330
185
100
AcDbEntity
  8
化粧台
  6
CONTINUOUS
 62
     3
100
AcDbVertex
100
AcDb2dVertex
 10
1944.0
 20
947.5
 30
0.0
  0
SEQEND
  5
188
330
185
100
AcDbEntity
  8
化粧台
  6
CONTINUOUS
 62
     3
  0
LINE
  5
189
330
1F
100
AcDbEntity
  8
化粧台
  6
CONTINUOUS
 62
     3
100
AcDbLine
 10
1939.738536730785
 20
937.7447999940749
 30
0.0
 11
1963.0
 21
898.5
 31
0.0
  0
LINE
  5
18A
330
1F
100
AcDbEntity
  8
化粧台
  6
CONTINUOUS
 62
     3
100
AcDbLine
 10
1963.0
 20
898.5
 30
0.0
 11
1953.723956365037
 21
943.167717811438
 31
0.0
  0
LINE
  5
18B
330
1F
100
AcDbEntity
  8
化粧台
  6
EXLTYPE4
 62
     6
100
AcDbLine
 10
333.0000000000003
 20
3973.0
 30
0.0
 11
1592.999999999998
 21
3973.0
 31
0.0
  0
TEXT
  5
18C
330
1F
100
AcDbEntity
  8
化粧台
  6
CONTINUOUS
 62
     2
100
AcDbText
 10
1494.00000053644
 20
3913.000003814697
 30
0.0
 40
59.99999618530273
  1
W.L.
 41
0.5571963512150641
  7
EXCADSTD
 72
     5
 11
1584.74340053644
 21
3913.000003814697
 31
0.0
100
AcDbText
  0
LINE
  5
18D
330
1F
100
AcDbEntity
  8
化粧台
  6
CONTINUOUS
 62
     2
100
AcDbLine
 10
620.0000000000002
 20
3973.0
 30
0.0
 11
1219.999999999997
 21
3973.0
 31
0.0
  0
LINE
  5
18E
330
1F
100
AcDbEntity
  8
化粧台
  6
CONTINUOUS
 62
     2
100
AcDbLine
 10
620.0000000000002
 20
3973.0
 30
0.0
 11
620.0000000000002
 21
3532.457949324905
 31
0.0
  0
ARC
  5
18F
330
1F
100
AcDbEntity
  8
化粧台
  6
CONTINUOUS
 62
     2
100
AcDbCircle
 10
920.0000000000002
 20
4778.000000000029
 30
0.0
 40
1285.0
100
AcDbArc
 50
256.6753294189022
 51
283.3246705810978
  0
LINE
  5
190
330
1F
100
AcDbEntity
  8
化粧台
  6
CONTINUOUS
 62
     2
100
AcDbLine
 10
1219.999999999997
 20
3973.0
 30
0.0
 11
1219.999999999997
 21
3532.457949324905
 31
0.0
  0
ARC
  5
191
330
1F
100
AcDbEntity
  8
化粧台
  6
CONTINUOUS
 62
     2
100
AcDbCircle
 10
920.0000000000002
 20
4777.999999999993
 30
0.0
 40
1240.0
100
AcDbArc
 50
258.5105794349054
 51
281.4894205650947
  0
ARC
  5
192
330
1F
100
AcDbEntity
  8
化粧台
  6
CONTINUOUS
 62
     2
100
AcDbCircle
 10
675.0000000000002
 20
3862.245130541993
 30
0.0
 40
10.0
100
AcDbArc
 50
78.69685327512443
 51
180.0
  0
ARC
  5
193
330
1F
100
AcDbEntity
  8
化粧台
  6
CONTINUOUS
 62
     2
100
AcDbCircle
 10
675.0000000000002
 20
3572.647354505739
 30
0.0
 40
10.0
100
AcDbArc
 50
180.0
 51
258.5105794349051
  0
ARC
  5
194
330
1F
100
AcDbEntity
  8
化粧台
  6
CONTINUOUS
 62
     2
100
AcDbCircle
 10
1164.999999999997
 20
3572.647354505739
 30
0.0
 40
10.0
100
AcDbArc
 50
281.489420565095
 51
0.0
  0
ARC
  5
195
330
1F
100
AcDbEntity
  8
化粧台
  6
CONTINUOUS
 62
     2
100
AcDbCircle
 10
1164.999999999997
 20
3862.245130541993
 30
0.0
 40
10.0
100
AcDbArc
 50
0.0
 51
101.3031467248756
  0
ARC
  5
196
330
1F
100
AcDbEntity
  8
化粧台
  6
CONTINUOUS
 62
     2
100
AcDbCircle
 10
625.0000000000002
 20
3532.457949324905
 30
0.0
 40
5.0
100
AcDbArc
 50
180.0
 51
256.6753294189025
  0
ARC
  5
197
330
1F
100
AcDbEntity
  8
化粧台
  6
CONTINUOUS
 62
     2
100
AcDbCircle
 10
1214.999999999997
 20
3532.457949324905
 30
0.0
 40
5.0
100
AcDbArc
 50
283.3246705810978
 51
0.0
  0
ARC
  5
198
330
1F
100
AcDbEntity
  8
化粧台
  6
CONTINUOUS
 62
     2
100
AcDbCircle
 10
1214.999999999997
 20
3955.0
 30
0.0
 40
5.0
100
AcDbArc
 50
270.0000000000002
 51
0.0
  0
ARC
  5
199
330
1F
100
AcDbEntity
  8
化粧台
  6
CONTINUOUS
 62
     2
100
AcDbCircle
 10
625.0000000000002
 20
3955.0
 30
0.0
 40
5.0
100
AcDbArc
 50
180.0
 51
270.0000000000002
  0
LINE
  5
19A
330
1F
100
AcDbEntity
  8
化粧台
  6
CONTINUOUS
 62
     2
100
AcDbLine
 10
625.0000000000002
 20
3950.0
 30
0.0
 11
1214.999999999997
 21
3950.0
 31
0.0
  0
LINE
  5
19B
330
1F
100
AcDbEntity
  8
化粧台
  6
CONTINUOUS
 62
     2
100
AcDbLine
 10
665.0000000000002
 20
3946.0
 30
0.0
 11
665.0000000000002
 21
3572.647354505739
 31
0.0
  0
LINE
  5
19C
330
1F
100
AcDbEntity
  8
化粧台
  6
CONTINUOUS
 62
     2
100
AcDbLine
 10
1174.999999999997
 20
3946.0
 30
0.0
 11
1174.999999999997
 21
3572.647354505739
 31
0.0
  0
LINE
  5
19D
330
1F
100
AcDbEntity
  8
化粧台
  6
CONTINUOUS
 62
     6
100
AcDbLine
 10
872.5000000000002
 20
3763.0
 30
0.0
 11
967.5000000000002
 21
3763.0
 31
0.0
  0
LINE
  5
19E
330
1F
100
AcDbEntity
  8
化粧台
  6
CONTINUOUS
 62
     6
100
AcDbLine
 10
723.0000000000002
 20
3973.000000000004
 30
0.0
 11
725.0000000000002
 21
4005.500000000004
 31
0.0
  0
LINE
  5
19F
330
1F
100
AcDbEntity
  8
化粧台
  6
CONTINUOUS
 62
     6
100
AcDbLine
 10
725.0000000000002
 20
4005.500000000004
 30
0.0
 11
727.0000000000002
 21
3973.000000000004
 31
0.0
  0
LINE
  5
1A0
330
1F
100
AcDbEntity
  8
化粧台
  6
CONTINUOUS
 62
     6
100
AcDbLine
 10
725.0000000000002
 20
3963.0
 30
0.0
 11
725.0000000000002
 21
4015.5
 31
0.0
  0
LINE
  5
1A1
330
1F
100
AcDbEntity
  8
化粧台
  6
CONTINUOUS
 62
     6
100
AcDbLine
 10
1112.999999999997
 20
3973.000000000004
 30
0.0
 11
1114.999999999997
 21
4005.500000000004
 31
0.0
  0
LINE
  5
1A2
330
1F
100
AcDbEntity
  8
化粧台
  6
CONTINUOUS
 62
     6
100
AcDbLine
 10
1114.999999999997
 20
4005.500000000004
 30
0.0
 11
1116.999999999997
 21
3973.000000000004
 31
0.0
  0
LINE
  5
1A3
330
1F
100
AcDbEntity
  8
化粧台
  6
CONTINUOUS
 62
     6
100
AcDbLine
 10
1114.999999999997
 20
3963.0
 30
0.0
 11
1114.999999999997
 21
4015.5
 31
0.0
  0
LINE
  5
1A4
330
1F
100
AcDbEntity
  8
化粧台
  6
CONTINUOUS
 62
     6
100
AcDbLine
 10
868.9999999999984
 20
3933.0
 30
0.0
 11
868.9999999999984
 21
3853.0
 31
0.0
  0
LINE
  5
1A5
330
1F
100
AcDbEntity
  8
化粧台
  6
CONTINUOUS
 62
     6
100
AcDbLine
 10
970.9999999999984
 20
3933.0
 30
0.0
 11
970.9999999999966
 21
3853.0
 31
0.0
  0
LINE
  5
1A6
330
1F
100
AcDbEntity
  8
化粧台
  6
EXLTYPE3
 62
     6
100
AcDbLine
 10
829.0000000000002
 20
3893.0
 30
0.0
 11
1011.0
 21
3893.0
 31
0.0
  0
CIRCLE
  5
1A7
330
1F
100
AcDbEntity
  8
化粧台
  6
CONTINUOUS
 62
     6
100
AcDbCircle
 10
940.528769741599
 20
3781.196579507301
 30
0.0
 40
3.000000000000002
  0
CIRCLE
  5
1A8
330
1F
100
AcDbEntity
  8
化粧台
  6
CONTINUOUS
 62
     6
100
AcDbCircle
 10
951.8999999999999
 20
3796.200000000001
 30
0.0
 40
3.000000000000002
  0
CIRCLE
  5
1A9
330
1F
100
AcDbEntity
  8
化粧台
  6
CONTINUOUS
 62
     6
100
AcDbCircle
 10
948.6999999999991
 20
3787.599999999999
 30
0.0
 40
3.000000000000002
  0
CIRCLE
  5
1AA
330
1F
100
AcDbEntity
  8
化粧台
  6
CONTINUOUS
 62
     6
100
AcDbCircle
 10
953.1999999999991
 20
3805.299999999999
 30
0.0
 40
3.000000000000002
  0
CIRCLE
  5
1AB
330
1F
100
AcDbEntity
  8
化粧台
  6
CONTINUOUS
 62
     6
100
AcDbCircle
 10
952.3255140941003
 20
3814.346331543202
 30
0.0
 40
3.000000000000002
  0
CIRCLE
  5
1AC
330
1F
100
AcDbEntity
  8
化粧台
  6
CONTINUOUS
 62
     6
100
AcDbCircle
 10
949.5213203435999
 20
3822.4786796564
 30
0.0
 40
3.000000000000002
  0
CIRCLE
  5
1AD
330
1F
100
AcDbEntity
  8
化粧台
  6
CONTINUOUS
 62
     6
100
AcDbCircle
 10
943.7453993667989
 20
3829.8162703085
 30
0.0
 40
3.000000000000002
  0
LINE
  5
1AE
330
1F
100
AcDbEntity
  8
化粧台
  6
CONTINUOUS
 62
     6
100
AcDbLine
 10
809.500000000002
 20
3981.0
 30
0.0
 11
830.500000000002
 21
3981.0
 31
0.0
  0
LINE
  5
1AF
330
1F
100
AcDbEntity
  8
化粧台
  6
CONTINUOUS
 62
     6
100
AcDbLine
 10
830.500000000002
 20
3973.0
 30
0.0
 11
830.500000000002
 21
3981.0
 31
0.0
  0
LINE
  5
1B0
330
1F
100
AcDbEntity
  8
化粧台
  6
CONTINUOUS
 62
     6
100
AcDbLine
 10
809.500000000002
 20
3973.0
 30
0.0
 11
809.500000000002
 21
3981.0
 31
0.0
  0
LINE
  5
1B1
330
1F
100
AcDbEntity
  8
化粧台
  6
CONTINUOUS
 62
     6
100
AcDbLine
 10
820.0000000000002
 20
3958.0
 30
0.0
 11
820.0000000000002
 21
3996.0
 31
0.0
  0
LINE
  5
1B2
330
1F
100
AcDbEntity
  8
化粧台
  6
CONTINUOUS
 62
     6
100
AcDbLine
 10
1009.500000000002
 20
3981.0
 30
0.0
 11
1030.500000000002
 21
3981.0
 31
0.0
  0
LINE
  5
1B3
330
1F
100
AcDbEntity
  8
化粧台
  6
CONTINUOUS
 62
     6
100
AcDbLine
 10
1030.500000000002
 20
3973.0
 30
0.0
 11
1030.500000000002
 21
3981.0
 31
0.0
  0
LINE
  5
1B4
330
1F
100
AcDbEntity
  8
化粧台
  6
CONTINUOUS
 62
     6
100
AcDbLine
 10
1009.500000000002
 20
3973.0
 30
0.0
 11
1009.500000000002
 21
3981.0
 31
0.0
  0
LINE
  5
1B5
330
1F
100
AcDbEntity
  8
化粧台
  6
CONTINUOUS
 62
     6
100
AcDbLine
 10
1020.0
 20
3958.0
 30
0.0
 11
1020.0
 21
3996.0
 31
0.0
  0
LINE
  5
1B6
330
1F
100
AcDbEntity
  8
化粧台
  6
CONTINUOUS
 62
     6
100
AcDbLine
 10
904.0000000000402
 20
3993.0
 30
0.0
 11
936.0000000000402
 21
3993.0
 31
0.0
  0
LINE
  5
1B7
330
1F
100
AcDbEntity
  8
化粧台
  6
CONTINUOUS
 62
     6
100
AcDbLine
 10
904.0000000000402
 20
3993.0
 30
0.0
 11
904.0000000000402
 21
3973.0
 31
0.0
  0
LINE
  5
1B8
330
1F
100
AcDbEntity
  8
化粧台
  6
CONTINUOUS
 62
     6
100
AcDbLine
 10
936.0000000000402
 20
3993.0
 30
0.0
 11
936.0000000000402
 21
3973.0
 31
0.0
  0
LINE
  5
1B9
330
1F
100
AcDbEntity
  8
化粧台
  6
EXLTYPE3
 62
     6
100
AcDbLine
 10
920.0000000000002
 20
4008.0
 30
0.0
 11
920.0000000000002
 21
3478.00000000003
 31
0.0
  0
ARC
  5
1BA
330
1F
100
AcDbEntity
  8
化粧台
  6
CONTINUOUS
 62
     6
100
AcDbCircle
 10
869.0000000000002
 20
3893.0
 30
0.0
 40
20.0
100
AcDbArc
 50
92.981359
 51
257.1887990000001
  0
ARC
  5
1BB
330
1F
100
AcDbEntity
  8
化粧台
  6
CONTINUOUS
 62
     6
100
AcDbCircle
 10
971.0000000000002
 20
3893.0
 30
0.0
 40
20.0
100
AcDbArc
 50
282.8112010000003
 51
87.01864100000002
  0
ARC
  5
1BC
330
1F
100
AcDbEntity
  8
化粧台
  6
CONTINUOUS
 62
     6
100
AcDbCircle
 10
920.0000000000002
 20
2913.766366
 30
0.0
 40
1000.560814
100
AcDbArc
 50
87.01864100000002
 51
92.981359
  0
ARC
  5
1BD
330
1F
100
AcDbEntity
  8
化粧台
  6
CONTINUOUS
 62
     6
100
AcDbCircle
 10
920.0000000000002
 20
4117.247438
 30
0.0
 40
249.9737240000002
100
AcDbArc
 50
257.18731
 51
262.2031780000002
  0
ARC
  5
1BE
330
1F
100
AcDbEntity
  8
化粧台
  6
CONTINUOUS
 62
     6
100
AcDbCircle
 10
920.0000000000002
 20
4117.247438
 30
0.0
 40
249.9737240000002
100
AcDbArc
 50
277.7968220000001
 51
282.81269
  0
ARC
  5
1BF
330
1F
100
AcDbEntity
  8
化粧台
  6
CONTINUOUS
 62
     6
100
AcDbCircle
 10
920.0000000000002
 20
3776.102779999999
 30
0.0
 40
16.0
100
AcDbArc
 50
186.4144620000002
 51
353.5855380000003
  0
ARC
  5
1C0
330
1F
100
AcDbEntity
  8
化粧台
  6
CONTINUOUS
 62
     6
100
AcDbCircle
 10
-1051.579667000003
 20
3997.754800000001
 30
0.0
 40
2000.000000000001
100
AcDbArc
 50
353.5855380000003
 51
356.0083010000001
  0
ARC
  5
1C1
330
1F
100
AcDbEntity
  8
化粧台
  6
CONTINUOUS
 62
     6
100
AcDbCircle
 10
955.5395150000006
 20
3857.695566
 30
0.0
 40
12.00000000000001
100
AcDbArc
 50
97.79682200000002
 51
176.0083010000001
  0
ARC
  5
1C2
330
1F
100
AcDbEntity
  8
化粧台
  6
CONTINUOUS
 62
     6
100
AcDbCircle
 10
2891.579665999998
 20
3997.754800000001
 30
0.0
 40
2000.000000000001
100
AcDbArc
 50
183.9916990000001
 51
186.4144620000002
  0
ARC
  5
1C3
330
1F
100
AcDbEntity
  8
化粧台
  6
CONTINUOUS
 62
     6
100
AcDbCircle
 10
884.4604840000013
 20
3857.695566
 30
0.0
 40
12.00000000000001
100
AcDbArc
 50
3.991698999999992
 51
82.203178
  0
LINE
  5
1C4
330
1F
100
AcDbEntity
  8
化粧台
  6
CONTINUOUS
 62
     6
100
AcDbLine
 10
912.0881790000005
 20
3772.292828
 30
0.0
 11
902.5461620000008
 21
3836.027244999999
 31
0.0
  0
LINE
  5
1C5
330
1F
100
AcDbEntity
  8
化粧台
  6
CONTINUOUS
 62
     6
100
AcDbLine
 10
927.9118209999999
 20
3772.292828
 30
0.0
 11
937.5961790000003
 21
3836.977998
 31
0.0
  0
ARC
  5
1C6
330
1F
100
AcDbEntity
  8
化粧台
  6
CONTINUOUS
 62
     6
100
AcDbCircle
 10
920.0000000000002
 20
3773.477349000001
 30
0.0
 40
8.0
100
AcDbArc
 50
188.5148110000002
 51
351.485189
  0
ARC
  5
1C7
330
1F
100
AcDbEntity
  8
化粧台
  6
CONTINUOUS
 62
     6
100
AcDbCircle
 10
865.1231180000016
 20
3830.424443
 30
0.0
 40
37.84013200000001
100
AcDbArc
 50
8.514811000000007
 51
31.17138799999999
  0
ARC
  5
1C8
330
1F
100
AcDbEntity
  8
化粧台
  6
CONTINUOUS
 62
     6
100
AcDbCircle
 10
974.8768810000004
 20
3830.424443
 30
0.0
 40
37.84013200000001
100
AcDbArc
 50
148.828612
 51
171.485189
  0
ELLIPSE
  5
1C9
330
1F
100
AcDbEntity
  8
化粧台
  6
CONTINUOUS
 62
     6
100
AcDbEllipse
 10
920.0000000000002
 20
3850.010488
 30
0.0
 11
-22.5
 21
2.755455298081545E-15
 31
0.0
210
0.0
220
0.0
230
1.0
 40
0.9848
 41
2.458661
 42
6.966116307179587
  0
ELLIPSE
  5
1CA
330
1F
100
AcDbEntity
  8
化粧台
  6
CONTINUOUS
 62
     6
100
AcDbEllipse
 10
920.0000000000002
 20
3860.677298000001
 30
0.0
 11
23.446
 21
0.0
 31
0.0
210
0.0
220
0.0
230
1.0
 40
0.984816
 41
0.45368
 42
2.763067000000003
  0
ARC
  5
1CB
330
1F
100
AcDbEntity
  8
化粧台
  6
CONTINUOUS
 62
     2
100
AcDbCircle
 10
920.0000000000002
 20
3763.0
 30
0.0
 40
22.6
100
AcDbArc
 50
136.4295695189817
 51
43.57043377724169
  0
ARC
  5
1CC
330
1F
100
AcDbEntity
  8
化粧台
  6
CONTINUOUS
 62
     2
100
AcDbCircle
 10
920.0000000000002
 20
3763.0
 30
0.0
 40
32.3
100
AcDbArc
 50
123.0356829242538
 51
56.96431905717044
  0
ARC
  5
1CD
330
1F
100
AcDbEntity
  8
化粧台
  6
CONTINUOUS
 62
     6
100
AcDbCircle
 10
920.0000000000002
 20
4587.864959339739
 30
0.0
 40
765.8649593397387
100
AcDbArc
 50
251.3431384126827
 51
268.4506363501993
  0
ARC
  5
1CE
330
1F
100
AcDbEntity
  8
化粧台
  6
CONTINUOUS
 62
     6
100
AcDbCircle
 10
920.0000000000002
 20
4587.864959339739
 30
0.0
 40
765.8649593397387
100
AcDbArc
 50
271.5493635747828
 51
288.6568615873173
  0
ARC
  5
1CF
330
1F
100
AcDbEntity
  8
化粧台
  6
CONTINUOUS
 62
     2
100
AcDbCircle
 10
920.0000000000002
 20
5087.999999999993
 30
0.0
 40
1240.0
100
AcDbArc
 50
271.0545600278105
 51
281.3031467248758
  0
ARC
  5
1D0
330
1F
100
AcDbEntity
  8
化粧台
  6
CONTINUOUS
 62
     2
100
AcDbCircle
 10
920.0000000000002
 20
5087.999999999993
 30
0.0
 40
1240.0
100
AcDbArc
 50
258.6968532751243
 51
268.9454399259117
  0
LINE
  5
1D1
330
1F
100
AcDbEntity
  8
化粧台
  6
EXLTYPE4
 62
     6
100
AcDbLine
 10
1728.999999999998
 20
898.5
 30
0.0
 11
320.0000000000003
 21
898.5
 31
0.0
  0
LINE
  5
1D2
330
1F
100
AcDbEntity
  8
化粧台
  6
EXLTYPE4
 62
     6
100
AcDbLine
 10
2465.0
 20
898.5
 30
0.0
 11
1836.499999999998
 21
898.5
 31
0.0
  0
TEXT
  5
1D3
330
1F
100
AcDbEntity
  8
化粧台
  6
CONTINUOUS
 62
     2
100
AcDbText
 10
1836.499999999998
 20
898.5
 30
0.0
 40
59.99999618530273
  1
F.L.
 41
0.6227488631227187
  7
EXCADSTD
 72
     5
 11
1927.243399999998
 21
898.5
 31
0.0
100
AcDbText
  0
TEXT
  5
1D4
330
1F
100
AcDbEntity
  8
化粧台
  6
CONTINUOUS
 62
     2
100
AcDbText
 10
2465.0
 20
2921.000000536442
 30
0.0
 40
59.99999618530273
  1
W.L.
 50
90.0
 41
0.5571963512150626
  7
EXCADSTD
 72
     5
 11
2465.0
 21
3011.743400536442
 31
0.0
100
AcDbText
  0
LINE
  5
1D5
330
1F
100
AcDbEntity
  8
化粧台
  6
EXLTYPE4
 62
     6
100
AcDbLine
 10
2465.0
 20
898.5
 30
0.0
 11
2464.999999999997
 21
3019.0
 31
0.0
  0
LINE
  5
1D6
330
1F
100
AcDbEntity
  8
化粧台
  6
CONTINUOUS
 62
     2
100
AcDbLine
 10
651.5000000000002
 20
1563.500000000001
 30
0.0
 11
651.5000000000002
 21
1548.500000000001
 31
0.0
  0
LINE
  5
1D7
330
1F
100
AcDbEntity
  8
化粧台
  6
EXLTYPE2
 62
     6
100
AcDbLine
 10
651.5000000000002
 20
1548.500000000001
 30
0.0
 11
651.5000000000002
 21
993.5000000000009
 31
0.0
  0
LINE
  5
1D8
330
1F
100
AcDbEntity
  8
化粧台
  6
CONTINUOUS
 62
     2
100
AcDbLine
 10
1188.499999999997
 20
1563.500000000001
 30
0.0
 11
1188.499999999997
 21
1548.500000000001
 31
0.0
  0
LINE
  5
1D9
330
1F
100
AcDbEntity
  8
化粧台
  6
EXLTYPE2
 62
     6
100
AcDbLine
 10
1188.499999999997
 20
1548.500000000001
 30
0.0
 11
1188.499999999997
 21
993.5000000000009
 31
0.0
  0
LINE
  5
1DA
330
1F
100
AcDbEntity
  8
化粧台
  6
CONTINUOUS
 62
     2
100
AcDbLine
 10
1199.999999999997
 20
1548.500000000001
 30
0.0
 11
1199.999999999997
 21
993.5000000000009
 31
0.0
  0
LINE
  5
1DB
330
1F
100
AcDbEntity
  8
化粧台
  6
CONTINUOUS
 62
     2
100
AcDbLine
 10
921.0000000000002
 20
1548.500000000001
 30
0.0
 11
921.0000000000002
 21
993.5000000000009
 31
0.0
  0
LINE
  5
1DC
330
1F
100
AcDbEntity
  8
化粧台
  6
CONTINUOUS
 62
     2
100
AcDbLine
 10
919.0000000000039
 20
1548.500000000001
 30
0.0
 11
919.0000000000039
 21
993.5000000000009
 31
0.0
  0
LINE
  5
1DD
330
1F
100
AcDbEntity
  8
化粧台
  6
CONTINUOUS
 62
     2
100
AcDbLine
 10
640.0000000000039
 20
1548.500000000001
 30
0.0
 11
640.0000000000039
 21
993.5000000000009
 31
0.0
  0
LINE
  5
1DE
330
1F
100
AcDbEntity
  8
化粧台
  6
CONTINUOUS
 62
     2
100
AcDbLine
 10
921.0000000000002
 20
1548.500000000001
 30
0.0
 11
1199.999999999997
 21
1548.500000000001
 31
0.0
  0
LINE
  5
1DF
330
1F
100
AcDbEntity
  8
化粧台
  6
CONTINUOUS
 62
     2
100
AcDbLine
 10
919.0000000000039
 20
1548.500000000001
 30
0.0
 11
640.0000000000039
 21
1548.500000000001
 31
0.0
  0
LINE
  5
1E0
330
1F
100
AcDbEntity
  8
化粧台
  6
EXLTYPE2
 62
     6
100
AcDbLine
 10
920.0000000000002
 20
1461.000000000001
 30
0.0
 11
920.0000000000002
 21
1478.000000000001
 31
0.0
  0
LINE
  5
1E1
330
1F
100
AcDbEntity
  8
化粧台
  6
EXLTYPE2
 62
     6
100
AcDbLine
 10
885.0000000000002
 20
1478.000000000001
 30
0.0
 11
955.0000000000002
 21
1478.000000000001
 31
0.0
  0
ARC
  5
1E2
330
1F
100
AcDbEntity
  8
化粧台
  6
EXLTYPE2
 62
     6
100
AcDbCircle
 10
944.2518377279996
 20
1462.385594593402
 30
0.0
 40
4.385594593380002
100
AcDbArc
 50
198.4177055184001
 51
270.0000000000002
  0
LINE
  5
1E3
330
1F
100
AcDbEntity
  8
化粧台
  6
EXLTYPE2
 62
     6
100
AcDbLine
 10
940.090880199001
 20
1461.000000000001
 30
0.0
 11
940.090880199001
 21
1478.000000000001
 31
0.0
  0
ARC
  5
1E4
330
1F
100
AcDbEntity
  8
化粧台
  6
EXLTYPE2
 62
     6
100
AcDbCircle
 10
930.045440099999
 20
1476.318477799102
 30
0.0
 40
18.31847779905
100
AcDbArc
 50
236.7442298452004
 51
303.2557701548001
  0
ARC
  5
1E5
330
1F
100
AcDbEntity
  8
化粧台
  6
EXLTYPE2
 62
     6
100
AcDbCircle
 10
909.9545599000014
 20
1476.318477799102
 30
0.0
 40
18.31847779905
100
AcDbArc
 50
236.7442298452004
 51
303.2557701548001
  0
LINE
  5
1E6
330
1F
100
AcDbEntity
  8
化粧台
  6
EXLTYPE2
 62
     6
100
AcDbLine
 10
899.9091198009994
 20
1461.000000000001
 30
0.0
 11
899.9091198009994
 21
1478.000000000001
 31
0.0
  0
ARC
  5
1E7
330
1F
100
AcDbEntity
  8
化粧台
  6
EXLTYPE2
 62
     6
100
AcDbCircle
 10
895.7481622720009
 20
1462.385594593402
 30
0.0
 40
4.385594593380002
100
AcDbArc
 50
270.0000000000002
 51
341.5822944816002
  0
LINE
  5
1E8
330
1F
100
AcDbEntity
  8
化粧台
  6
EXLTYPE2
 62
     6
100
AcDbLine
 10
955.0000000000002
 20
1485.500000000001
 30
0.0
 11
950.8139534883705
 21
1488.500000000001
 31
0.0
  0
LINE
  5
1E9
330
1F
100
AcDbEntity
  8
化粧台
  6
EXLTYPE2
 62
     6
100
AcDbLine
 10
885.0000000000002
 20
1485.500000000001
 30
0.0
 11
889.1860465116299
 21
1488.500000000001
 31
0.0
  0
LINE
  5
1EA
330
1F
100
AcDbEntity
  8
化粧台
  6
EXLTYPE2
 62
     6
100
AcDbLine
 10
955.0000000000002
 20
1485.500000000001
 30
0.0
 11
955.0000000000002
 21
1478.000000000001
 31
0.0
  0
LINE
  5
1EB
330
1F
100
AcDbEntity
  8
化粧台
  6
EXLTYPE2
 62
     6
100
AcDbLine
 10
885.0000000000002
 20
1485.500000000001
 30
0.0
 11
885.0000000000002
 21
1478.000000000001
 31
0.0
  0
LINE
  5
1EC
330
1F
100
AcDbEntity
  8
化粧台
  6
EXLTYPE2
 62
     6
100
AcDbLine
 10
948.4127952580022
 20
1461.000000000001
 30
0.0
 11
946.2500000000002
 21
1458.000000000001
 31
0.0
  0
LINE
  5
1ED
330
1F
100
AcDbEntity
  8
化粧台
  6
EXLTYPE2
 62
     6
100
AcDbLine
 10
948.4127952580022
 20
1478.000000000001
 30
0.0
 11
948.4127952580022
 21
1461.000000000001
 31
0.0
  0
LINE
  5
1EE
330
1F
100
AcDbEntity
  8
化粧台
  6
EXLTYPE2
 62
     6
100
AcDbLine
 10
946.2500000000002
 20
1458.000000000001
 30
0.0
 11
946.2500000000002
 21
1433.500000000001
 31
0.0
  0
LINE
  5
1EF
330
1F
100
AcDbEntity
  8
化粧台
  6
EXLTYPE2
 62
     6
100
AcDbLine
 10
935.7500000000002
 20
1424.500000000001
 30
0.0
 11
935.7500000000002
 21
1378.500000000001
 31
0.0
  0
LINE
  5
1F0
330
1F
100
AcDbEntity
  8
化粧台
  6
EXLTYPE2
 62
     6
100
AcDbLine
 10
891.5872047420019
 20
1461.000000000001
 30
0.0
 11
893.7500000000002
 21
1458.000000000001
 31
0.0
  0
LINE
  5
1F1
330
1F
100
AcDbEntity
  8
化粧台
  6
EXLTYPE2
 62
     6
100
AcDbLine
 10
891.5872047420019
 20
1478.000000000001
 30
0.0
 11
891.5872047420019
 21
1461.000000000001
 31
0.0
  0
LINE
  5
1F2
330
1F
100
AcDbEntity
  8
化粧台
  6
EXLTYPE2
 62
     6
100
AcDbLine
 10
904.2500000000002
 20
1424.500000000001
 30
0.0
 11
904.2500000000002
 21
1378.500000000001
 31
0.0
  0
LINE
  5
1F3
330
1F
100
AcDbEntity
  8
化粧台
  6
EXLTYPE2
 62
     6
100
AcDbLine
 10
893.7500000000002
 20
1458.000000000001
 30
0.0
 11
893.7500000000002
 21
1433.500000000001
 31
0.0
  0
LINE
  5
1F4
330
1F
100
AcDbEntity
  8
化粧台
  6
EXLTYPE2
 62
     6
100
AcDbLine
 10
893.7500000000002
 20
1458.000000000001
 30
0.0
 11
946.2500000000002
 21
1458.000000000001
 31
0.0
  0
LINE
  5
1F5
330
1F
100
AcDbEntity
  8
化粧台
  6
EXLTYPE2
 62
     6
100
AcDbLine
 10
904.2500000000002
 20
1378.500000000001
 30
0.0
 11
935.7500000000002
 21
1378.500000000001
 31
0.0
  0
LINE
  5
1F6
330
1F
100
AcDbEntity
  8
化粧台
  6
EXLTYPE2
 62
     2
100
AcDbLine
 10
1156.021587567706
 20
1512.353758920149
 30
0.0
 11
1161.923076923075
 21
1563.500000000001
 31
0.0
  0
ARC
  5
1F7
330
1F
100
AcDbEntity
  8
化粧台
  6
EXLTYPE2
 62
     2
100
AcDbCircle
 10
1146.087498208996
 20
1513.500000000001
 30
0.0
 40
10.0
100
AcDbArc
 50
270.0000000000002
 51
353.4180553448222
  0
LINE
  5
1F8
330
1F
100
AcDbEntity
  8
化粧台
  6
EXLTYPE2
 62
     2
100
AcDbLine
 10
1093.299262872563
 20
1503.500000000001
 30
0.0
 11
1146.087498208996
 21
1503.500000000001
 31
0.0
  0
ARC
  5
1F9
330
1F
100
AcDbEntity
  8
化粧台
  6
EXLTYPE2
 62
     2
100
AcDbCircle
 10
1093.299262872563
 20
1513.500000000001
 30
0.0
 40
10.0
100
AcDbArc
 50
190.6196552761535
 51
270.0000000000002
  0
LINE
  5
1FA
330
1F
100
AcDbEntity
  8
化粧台
  6
EXLTYPE2
 62
     2
100
AcDbLine
 10
1078.034661285085
 20
1540.648473146225
 30
0.0
 11
1083.470541003219
 21
1511.657114649498
 31
0.0
  0
ARC
  5
1FB
330
1F
100
AcDbEntity
  8
化粧台
  6
EXLTYPE2
 62
     2
100
AcDbCircle
 10
1068.205939415741
 20
1538.805587795724
 30
0.0
 40
10.0
100
AcDbArc
 50
10.61965527615595
 51
112.2681269464453
  0
ARC
  5
1FC
330
1F
100
AcDbEntity
  8
化粧台
  6
EXLTYPE2
 62
     2
100
AcDbCircle
 10
985.2177692721455
 20
1741.472712944865
 30
0.0
 40
209.0000000000001
100
AcDbArc
 50
280.0000000000028
 51
292.2681269464458
  0
LINE
  5
1FD
330
1F
100
AcDbEntity
  8
化粧台
  6
EXLTYPE2
 62
     2
100
AcDbLine
 10
967.2719018895953
 20
1526.084210448983
 30
0.0
 11
1021.510238404542
 21
1535.647892565315
 31
0.0
  0
ARC
  5
1FE
330
1F
100
AcDbEntity
  8
化粧台
  6
EXLTYPE2
 62
     2
100
AcDbCircle
 10
969.5316993990784
 20
1517.372533502715
 30
0.0
 40
9.0
100
AcDbArc
 50
100.8321188249615
 51
172.2138167733558
  0
LINE
  5
1FF
330
1F
100
AcDbEntity
  8
化粧台
  6
EXLTYPE2
 62
     2
100
AcDbLine
 10
960.6146745460248
 20
1518.591823365718
 30
0.0
 11
957.0910629232278
 21
1492.822616742776
 31
0.0
  0
ARC
  5
200
330
1F
100
AcDbEntity
  8
化粧台
  6
EXLTYPE2
 62
     2
100
AcDbCircle
 10
952.1371602270849
 20
1493.500000000001
 30
0.0
 40
5.0
100
AcDbArc
 50
270.0000000000002
 51
352.2138167733555
  0
LINE
  5
201
330
1F
100
AcDbEntity
  8
化粧台
  6
EXLTYPE2
 62
     2
100
AcDbLine
 10
952.1371602270849
 20
1488.500000000001
 30
0.0
 11
887.8628397729155
 21
1488.500000000001
 31
0.0
  0
ARC
  5
202
330
1F
100
AcDbEntity
  8
化粧台
  6
EXLTYPE2
 62
     2
100
AcDbCircle
 10
887.8628397729155
 20
1493.500000000001
 30
0.0
 40
5.0
100
AcDbArc
 50
187.7861832266448
 51
270.0000000000002
  0
LINE
  5
203
330
1F
100
AcDbEntity
  8
化粧台
  6
EXLTYPE2
 62
     2
100
AcDbLine
 10
879.385325453972
 20
1518.591823365718
 30
0.0
 11
882.9089370767763
 21
1492.822616742776
 31
0.0
  0
ARC
  5
204
330
1F
100
AcDbEntity
  8
化粧台
  6
EXLTYPE2
 62
     2
100
AcDbCircle
 10
870.4683006009184
 20
1517.372533502715
 30
0.0
 40
9.0
100
AcDbArc
 50
7.786183226644878
 51
79.16788117503869
  0
LINE
  5
205
330
1F
100
AcDbEntity
  8
化粧台
  6
EXLTYPE2
 62
     2
100
AcDbLine
 10
872.7280981104052
 20
1526.084210448983
 30
0.0
 11
818.489761595458
 21
1535.647892565315
 31
0.0
  0
ARC
  5
206
330
1F
100
AcDbEntity
  8
化粧台
  6
EXLTYPE2
 62
     2
100
AcDbCircle
 10
854.782230727855
 20
1741.472712944865
 30
0.0
 40
209.0000000000001
100
AcDbArc
 50
247.7318730535543
 51
259.9999999999972
  0
ARC
  5
207
330
1F
100
AcDbEntity
  8
化粧台
  6
EXLTYPE2
 62
     2
100
AcDbCircle
 10
771.7940605842598
 20
1538.805587795724
 30
0.0
 40
10.0
100
AcDbArc
 50
67.73187305355464
 51
169.380344723844
  0
LINE
  5
208
330
1F
100
AcDbEntity
  8
化粧台
  6
EXLTYPE2
 62
     2
100
AcDbLine
 10
761.9653387149194
 20
1540.648473146225
 30
0.0
 11
756.5294589967818
 21
1511.657114649498
 31
0.0
  0
ARC
  5
209
330
1F
100
AcDbEntity
  8
化粧台
  6
EXLTYPE2
 62
     2
100
AcDbCircle
 10
746.7007371274378
 20
1513.500000000001
 30
0.0
 40
10.0
100
AcDbArc
 50
270.0000000000002
 51
349.3803447238455
  0
LINE
  5
20A
330
1F
100
AcDbEntity
  8
化粧台
  6
EXLTYPE2
 62
     2
100
AcDbLine
 10
746.7007371274378
 20
1503.500000000001
 30
0.0
 11
693.9125017910012
 21
1503.500000000001
 31
0.0
  0
ARC
  5
20B
330
1F
100
AcDbEntity
  8
化粧台
  6
EXLTYPE2
 62
     2
100
AcDbCircle
 10
693.9125017910012
 20
1513.500000000001
 30
0.0
 40
10.0
100
AcDbArc
 50
186.5819446551778
 51
270.0000000000002
  0
LINE
  5
20C
330
1F
100
AcDbEntity
  8
化粧台
  6
EXLTYPE2
 62
     2
100
AcDbLine
 10
683.9784124322907
 20
1512.353758920149
 30
0.0
 11
678.0769230769222
 21
1563.500000000001
 31
0.0
  0
LINE
  5
20D
330
1F
100
AcDbEntity
  8
化粧台
  6
CONTINUOUS
 62
     2
100
AcDbLine
 10
1203.499999999997
 20
1563.500000000001
 30
0.0
 11
1203.499999999997
 21
898.5000000000009
 31
0.0
  0
LINE
  5
20E
330
1F
100
AcDbEntity
  8
化粧台
  6
CONTINUOUS
 62
     2
100
AcDbLine
 10
636.5000000000002
 20
1563.500000000001
 30
0.0
 11
636.5000000000002
 21
898.5000000000009
 31
0.0
  0
LINE
  5
20F
330
1F
100
AcDbEntity
  8
化粧台
  6
CONTINUOUS
 62
     2
100
AcDbLine
 10
1212.118616470878
 20
1563.500000000001
 30
0.0
 11
627.8813835291223
 21
1563.500000000001
 31
0.0
  0
ARC
  5
210
330
1F
100
AcDbEntity
  8
化粧台
  6
CONTINUOUS
 62
     2
100
AcDbCircle
 10
1214.759884705906
 20
1678.500000000001
 30
0.0
 40
5.0
100
AcDbArc
 50
358.6245050134004
 51
91.94362557345586
  0
ARC
  5
211
330
1F
100
AcDbEntity
  8
化粧台
  6
CONTINUOUS
 62
     2
100
AcDbCircle
 10
920.0000000000002
 20
10364.33896318394
 30
0.0
 40
8685.838963183942
100
AcDbArc
 50
268.0563744265444
 51
271.9436255734557
  0
LINE
  5
212
330
1F
100
AcDbEntity
  8
化粧台
  6
CONTINUOUS
 62
     2
100
AcDbLine
 10
1219.99855923911
 20
1688.379976947826
 30
0.0
 11
1217.117175709995
 21
1568.3799769478
 31
0.0
  0
ARC
  5
213
330
1F
100
AcDbEntity
  8
化粧台
  6
CONTINUOUS
 62
     2
100
AcDbCircle
 10
1212.118616470878
 20
1568.500000000001
 30
0.0
 40
5.0
100
AcDbArc
 50
270.0000000000002
 51
358.6245050134004
  0
ARC
  5
214
330
1F
100
AcDbEntity
  8
化粧台
  6
CONTINUOUS
 62
     2
100
AcDbCircle
 10
1214.999999999997
 20
1688.500000000001
 30
0.0
 40
5.0
100
AcDbArc
 50
358.6245050134004
 51
90.00000000000004
  0
ARC
  5
215
330
1F
100
AcDbEntity
  8
化粧台
  6
CONTINUOUS
 62
     2
100
AcDbCircle
 10
625.240115294095
 20
1678.500000000001
 30
0.0
 40
5.0
100
AcDbArc
 50
88.05637442654415
 51
181.3754949865997
  0
LINE
  5
216
330
1F
100
AcDbEntity
  8
化粧台
  6
CONTINUOUS
 62
     2
100
AcDbLine
 10
620.0014407608871
 20
1688.379976947826
 30
0.0
 11
622.882824290002
 21
1568.3799769478
 31
0.0
  0
ARC
  5
217
330
1F
100
AcDbEntity
  8
化粧台
  6
CONTINUOUS
 62
     2
100
AcDbCircle
 10
627.881383529115
 20
1568.500000000001
 30
0.0
 40
5.0
100
AcDbArc
 50
181.3754949866004
 51
270.0000000000002
  0
ARC
  5
218
330
1F
100
AcDbEntity
  8
化粧台
  6
CONTINUOUS
 62
     2
100
AcDbCircle
 10
625.0000000000002
 20
1688.500000000001
 30
0.0
 40
5.0
100
AcDbArc
 50
90.00000000000004
 51
181.3754949865997
  0
LINE
  5
219
330
1F
100
AcDbEntity
  8
化粧台
  6
EXLTYPE2
 62
     6
100
AcDbLine
 10
1188.499999999997
 20
1518.500000000001
 30
0.0
 11
651.5000000000002
 21
1518.500000000001
 31
0.0
  0
LINE
  5
21A
330
1F
100
AcDbEntity
  8
化粧台
  6
CONTINUOUS
 62
     6
100
AcDbLine
 10
1120.499999999997
 20
1453.500000000001
 30
0.0
 11
1109.499999999997
 21
1453.500000000001
 31
0.0
  0
LINE
  5
21B
330
1F
100
AcDbEntity
  8
化粧台
  6
CONTINUOUS
 62
     6
100
AcDbLine
 10
730.5000000000002
 20
1453.500000000001
 30
0.0
 11
719.5000000000002
 21
1453.500000000001
 31
0.0
  0
LINE
  5
21C
330
1F
100
AcDbEntity
  8
化粧台
  6
CONTINUOUS
 62
     6
100
AcDbLine
 10
725.0000000000002
 20
1459.000000000001
 30
0.0
 11
725.0000000000002
 21
1448.000000000001
 31
0.0
  0
CIRCLE
  5
21D
330
1F
100
AcDbEntity
  8
化粧台
  6
CONTINUOUS
 62
     6
100
AcDbCircle
 10
725.0000000000002
 20
1453.500000000001
 30
0.0
 40
2.5
  0
LINE
  5
21E
330
1F
100
AcDbEntity
  8
化粧台
  6
CONTINUOUS
 62
     6
100
AcDbLine
 10
1114.999999999997
 20
1459.000000000001
 30
0.0
 11
1114.999999999997
 21
1448.000000000001
 31
0.0
  0
CIRCLE
  5
21F
330
1F
100
AcDbEntity
  8
化粧台
  6
CONTINUOUS
 62
     6
100
AcDbCircle
 10
1114.999999999997
 20
1453.500000000001
 30
0.0
 40
2.5
  0
LINE
  5
220
330
1F
100
AcDbEntity
  8
化粧台
  6
CONTINUOUS
 62
     2
100
AcDbLine
 10
1188.499999999997
 20
993.5000000000009
 30
0.0
 11
1188.499999999997
 21
898.5000000000009
 31
0.0
  0
LINE
  5
221
330
1F
100
AcDbEntity
  8
化粧台
  6
CONTINUOUS
 62
     2
100
AcDbLine
 10
651.5000000000002
 20
993.5000000000009
 30
0.0
 11
651.5000000000002
 21
898.5000000000009
 31
0.0
  0
LINE
  5
222
330
1F
100
AcDbEntity
  8
化粧台
  6
CONTINUOUS
 62
     2
100
AcDbLine
 10
919.0000000000039
 20
993.5000000000009
 30
0.0
 11
640.0000000000039
 21
993.5000000000009
 31
0.0
  0
LINE
  5
223
330
1F
100
AcDbEntity
  8
化粧台
  6
CONTINUOUS
 62
     2
100
AcDbLine
 10
921.0000000000002
 20
993.5000000000009
 30
0.0
 11
1199.999999999997
 21
993.5000000000009
 31
0.0
  0
LINE
  5
224
330
1F
100
AcDbEntity
  8
化粧台
  6
EXLTYPE2
 62
     6
100
AcDbLine
 10
1188.499999999997
 20
1006.250000000001
 30
0.0
 11
651.5000000000002
 21
1006.250000000001
 31
0.0
  0
LINE
  5
225
330
1F
100
AcDbEntity
  8
化粧台
  6
CONTINUOUS
 62
     2
100
AcDbLine
 10
1188.499999999997
 20
988.7500000000009
 30
0.0
 11
651.5000000000002
 21
988.7500000000009
 31
0.0
  0
LINE
  5
226
330
1F
100
AcDbEntity
  8
化粧台
  6
CONTINUOUS
 62
     2
100
AcDbLine
 10
1188.499999999997
 20
902.5000000000009
 30
0.0
 11
651.5000000000002
 21
902.5000000000009
 31
0.0
  0
LINE
  5
227
330
1F
100
AcDbEntity
  8
化粧台
  6
CONTINUOUS
 62
     2
100
AcDbLine
 10
1188.499999999997
 20
902.0000000000009
 30
0.0
 11
1203.499999999997
 21
902.0000000000009
 31
0.0
  0
LINE
  5
228
330
1F
100
AcDbEntity
  8
化粧台
  6
CONTINUOUS
 62
     2
100
AcDbLine
 10
1203.499999999997
 20
898.5000000000009
 30
0.0
 11
1188.499999999997
 21
898.5000000000009
 31
0.0
  0
LINE
  5
229
330
1F
100
AcDbEntity
  8
化粧台
  6
CONTINUOUS
 62
     2
100
AcDbLine
 10
651.5000000000002
 20
902.0000000000009
 30
0.0
 11
636.5000000000002
 21
902.0000000000009
 31
0.0
  0
LINE
  5
22A
330
1F
100
AcDbEntity
  8
化粧台
  6
CONTINUOUS
 62
     2
100
AcDbLine
 10
636.5000000000002
 20
898.5000000000009
 30
0.0
 11
651.5000000000002
 21
898.5000000000009
 31
0.0
  0
LINE
  5
22B
330
1F
100
AcDbEntity
  8
化粧台
  6
EXLTYPE2
 62
     6
100
AcDbLine
 10
946.2500000000002
 20
1433.500000000001
 30
0.0
 11
935.7500000000002
 21
1424.500000000001
 31
0.0
  0
LINE
  5
22C
330
1F
100
AcDbEntity
  8
化粧台
  6
EXLTYPE2
 62
     6
100
AcDbLine
 10
893.7500000000002
 20
1433.500000000001
 30
0.0
 11
904.2500000000002
 21
1424.500000000001
 31
0.0
  0
LINE
  5
22D
330
1F
100
AcDbEntity
  8
化粧台
  6
EXLTYPE2
 62
     6
100
AcDbLine
 10
893.7500000000002
 20
1433.500000000001
 30
0.0
 11
946.2500000000002
 21
1433.500000000001
 31
0.0
  0
LINE
  5
22E
330
1F
100
AcDbEntity
  8
化粧台
  6
EXLTYPE2
 62
     6
100
AcDbLine
 10
904.2500000000002
 20
1424.500000000001
 30
0.0
 11
935.7500000000002
 21
1424.500000000001
 31
0.0
  0
LINE
  5
22F
330
1F
100
AcDbEntity
  8
化粧台
  6
EXLTYPE2
 62
     6
100
AcDbLine
 10
938.2500000000002
 20
1396.700000000002
 30
0.0
 11
938.2500000000002
 21
1356.611863703302
 31
0.0
  0
LINE
  5
230
330
1F
100
AcDbEntity
  8
化粧台
  6
EXLTYPE2
 62
     6
100
AcDbLine
 10
901.7500000000002
 20
1396.700000000002
 30
0.0
 11
901.7500000000002
 21
1356.611863703302
 31
0.0
  0
LINE
  5
231
330
1F
100
AcDbEntity
  8
化粧台
  6
EXLTYPE2
 62
     6
100
AcDbLine
 10
938.2500000000002
 20
1356.611863703302
 30
0.0
 11
937.0000000000002
 21
1355.611863671301
 31
0.0
  0
LINE
  5
232
330
1F
100
AcDbEntity
  8
化粧台
  6
EXLTYPE2
 62
     6
100
AcDbLine
 10
903.0000000000002
 20
1355.611863671301
 30
0.0
 11
901.7500000000002
 21
1356.611863703302
 31
0.0
  0
LINE
  5
233
330
1F
100
AcDbEntity
  8
化粧台
  6
EXLTYPE2
 62
     6
100
AcDbLine
 10
937.0000000000039
 20
1355.611863671303
 30
0.0
 11
903.0000000000002
 21
1355.611863671303
 31
0.0
  0
LINE
  5
234
330
1F
100
AcDbEntity
  8
化粧台
  6
EXLTYPE2
 62
     6
100
AcDbLine
 10
944.2500000000002
 20
1396.700000000002
 30
0.0
 11
895.7500000000002
 21
1396.700000000002
 31
0.0
  0
LINE
  5
235
330
1F
100
AcDbEntity
  8
化粧台
  6
EXLTYPE2
 62
     6
100
AcDbLine
 10
944.2500000000002
 20
1411.500000000001
 30
0.0
 11
944.2500000000002
 21
1396.700000000002
 31
0.0
  0
LINE
  5
236
330
1F
100
AcDbEntity
  8
化粧台
  6
EXLTYPE2
 62
     6
100
AcDbLine
 10
941.2500000000002
 20
1414.500000000001
 30
0.0
 11
898.7500000000002
 21
1414.500000000001
 31
0.0
  0
LINE
  5
237
330
1F
100
AcDbEntity
  8
化粧台
  6
EXLTYPE2
 62
     6
100
AcDbLine
 10
895.7500000000002
 20
1411.500000000001
 30
0.0
 11
895.7500000000002
 21
1396.700000000002
 31
0.0
  0
ARC
  5
238
330
1F
100
AcDbEntity
  8
化粧台
  6
EXLTYPE2
 62
     6
100
AcDbCircle
 10
941.2500000000002
 20
1411.500000000001
 30
0.0
 40
3.000000000000002
100
AcDbArc
 50
0.0
 51
90.00000000000004
  0
ARC
  5
239
330
1F
100
AcDbEntity
  8
化粧台
  6
EXLTYPE2
 62
     6
100
AcDbCircle
 10
898.7500000000002
 20
1411.500000000001
 30
0.0
 40
3.000000000000002
100
AcDbArc
 50
90.00000000000004
 51
180.0
  0
LINE
  5
23A
330
1F
100
AcDbEntity
  8
化粧台
  6
EXLTYPE2
 62
     6
100
AcDbLine
 10
903.0000000000002
 20
1355.611863671303
 30
0.0
 11
903.0000000000002
 21
1321.986862343741
 31
0.0
  0
LINE
  5
23B
330
1F
100
AcDbEntity
  8
化粧台
  6
EXLTYPE2
 62
     6
100
AcDbLine
 10
856.2231693721008
 20
1358.811312276001
 30
0.0
 11
856.2231693721008
 21
1344.011312276002
 31
0.0
  0
ARC
  5
23C
330
1F
100
AcDbEntity
  8
化粧台
  6
EXLTYPE2
 62
     6
100
AcDbCircle
 10
859.2231693721008
 20
1358.811312276001
 30
0.0
 40
3.000000000000002
100
AcDbArc
 50
90.00000000000004
 51
180.0
  0
LINE
  5
23D
330
1F
100
AcDbEntity
  8
化粧台
  6
EXLTYPE2
 62
     6
100
AcDbLine
 10
898.7231693721008
 20
1344.011312276002
 30
0.0
 11
898.7231693721008
 21
1321.986862343741
 31
0.0
  0
LINE
  5
23E
330
1F
100
AcDbEntity
  8
化粧台
  6
EXLTYPE2
 62
     6
100
AcDbLine
 10
862.2231693721008
 20
1344.011312276002
 30
0.0
 11
862.2231693721008
 21
1315.911862369002
 31
0.0
  0
LINE
  5
23F
330
1F
100
AcDbEntity
  8
化粧台
  6
EXLTYPE2
 62
     6
100
AcDbLine
 10
937.0000000000039
 20
1355.611863671303
 30
0.0
 11
937.0000000000039
 21
1323.91826175945
 31
0.0
  0
ARC
  5
240
330
1F
100
AcDbEntity
  8
化粧台
  6
EXLTYPE2
 62
     6
100
AcDbCircle
 10
900.2365846860487
 20
1392.148448270968
 30
0.0
 40
3.763415313933366
100
AcDbArc
 50
66.28804661525457
 51
180.0
  0
LINE
  5
241
330
1F
100
AcDbEntity
  8
化粧台
  6
EXLTYPE2
 62
     6
100
AcDbLine
 10
896.4731693721008
 20
1392.148448270968
 30
0.0
 11
896.4731693721008
 21
1361.811312276001
 31
0.0
  0
LINE
  5
242
330
1F
100
AcDbEntity
  8
化粧台
  6
EXLTYPE2
 62
     6
100
AcDbLine
 10
864.4731693721008
 20
1392.14844827095
 30
0.0
 11
864.4731693721008
 21
1361.811312276001
 31
0.0
  0
LINE
  5
243
330
1F
100
AcDbEntity
  8
化粧台
  6
EXLTYPE2
 62
     6
100
AcDbLine
 10
901.7500000000002
 20
1361.811312276001
 30
0.0
 11
859.2231693721008
 21
1361.811312276001
 31
0.0
  0
LINE
  5
244
330
1F
100
AcDbEntity
  8
化粧台
  6
EXLTYPE2
 62
     6
100
AcDbLine
 10
903.0000000000002
 20
1344.011312276002
 30
0.0
 11
856.2231693721008
 21
1344.011312276002
 31
0.0
  0
ARC
  5
245
330
1F
100
AcDbEntity
  8
化粧台
  6
EXLTYPE2
 62
     6
100
AcDbCircle
 10
900.2365846860487
 20
1392.14844827095
 30
0.0
 40
35.76341531395246
100
AcDbArc
 50
89.94725080561497
 51
180.0
  0
LINE
  5
246
330
1F
100
AcDbEntity
  8
化粧台
  6
EXLTYPE2
 62
     6
100
AcDbLine
 10
953.5000038146975
 20
938.5000019073022
 30
0.0
 11
953.5000038146975
 21
918.9999999999536
 31
0.0
  0
ARC
  5
247
330
1F
100
AcDbEntity
  8
化粧台
  6
EXLTYPE2
 62
     6
100
AcDbCircle
 10
953.0000038146975
 20
918.9999999999536
 30
0.0
 40
0.5
100
AcDbArc
 50
270.0000000000002
 51
0.0
  0
LINE
  5
248
330
1F
100
AcDbEntity
  8
化粧台
  6
EXLTYPE2
 62
     6
100
AcDbLine
 10
886.4999961853066
 20
938.5000019073022
 30
0.0
 11
886.4999961853066
 21
918.9999999999536
 31
0.0
  0
ARC
  5
249
330
1F
100
AcDbEntity
  8
化粧台
  6
EXLTYPE2
 62
     6
100
AcDbCircle
 10
886.9999961853066
 20
918.9999999999536
 30
0.0
 40
0.5
100
AcDbArc
 50
180.0
 51
270.0000000000002
  0
LINE
  5
24A
330
1F
100
AcDbEntity
  8
化粧台
  6
EXLTYPE2
 62
     6
100
AcDbLine
 10
953.0000038146975
 20
918.4999999999536
 30
0.0
 11
886.999996185303
 21
918.4999999999536
 31
0.0
  0
LINE
  5
24B
330
1F
100
AcDbEntity
  8
化粧台
  6
EXLTYPE2
 62
     6
100
AcDbLine
 10
947.0000000000002
 20
953.5000038146509
 30
0.0
 11
947.0000000000002
 21
942.5000019073022
 31
0.0
  0
ARC
  5
24C
330
1F
100
AcDbEntity
  8
化粧台
  6
EXLTYPE2
 62
     6
100
AcDbCircle
 10
944.0000000000002
 20
953.5000038146509
 30
0.0
 40
3.000000000000002
100
AcDbArc
 50
359.9999949910431
 51
89.99999749552043
  0
ARC
  5
24D
330
1F
100
AcDbEntity
  8
化粧台
  6
EXLTYPE2
 62
     6
100
AcDbCircle
 10
948.0000000000002
 20
942.5000019073022
 30
0.0
 40
1.0
100
AcDbArc
 50
180.0
 51
270.0000000000002
  0
ARC
  5
24E
330
1F
100
AcDbEntity
  8
化粧台
  6
EXLTYPE2
 62
     6
100
AcDbCircle
 10
950.5000038146975
 20
938.5000019073022
 30
0.0
 40
3.000000000000002
100
AcDbArc
 50
359.9999949910431
 51
89.99999749552043
  0
LINE
  5
24F
330
1F
100
AcDbEntity
  8
化粧台
  6
EXLTYPE2
 62
     6
100
AcDbLine
 10
942.999996185303
 20
974.3465188788914
 30
0.0
 11
942.999996185303
 21
958.5465196418309
 31
0.0
  0
ARC
  5
250
330
1F
100
AcDbEntity
  8
化粧台
  6
EXLTYPE2
 62
     6
100
AcDbCircle
 10
940.999996185303
 20
974.3465188788914
 30
0.0
 40
2.0
100
AcDbArc
 50
0.0000086514229809
 51
90.00000432571393
  0
LINE
  5
251
330
1F
100
AcDbEntity
  8
化粧台
  6
EXLTYPE2
 62
     6
100
AcDbLine
 10
893.0000000000039
 20
953.5000038146509
 30
0.0
 11
893.0000000000039
 21
942.5000019073022
 31
0.0
  0
ARC
  5
252
330
1F
100
AcDbEntity
  8
化粧台
  6
EXLTYPE2
 62
     6
100
AcDbCircle
 10
896.0000000000039
 20
953.5000038146509
 30
0.0
 40
3.000000000000002
100
AcDbArc
 50
90.00000250448174
 51
180.000005008957
  0
ARC
  5
253
330
1F
100
AcDbEntity
  8
化粧台
  6
EXLTYPE2
 62
     6
100
AcDbCircle
 10
892.0000000000039
 20
942.5000019073022
 30
0.0
 40
1.0
100
AcDbArc
 50
270.0000000000002
 51
0.0
  0
ARC
  5
254
330
1F
100
AcDbEntity
  8
化粧台
  6
EXLTYPE2
 62
     6
100
AcDbCircle
 10
889.4999961853066
 20
938.5000019073022
 30
0.0
 40
3.000000000000002
100
AcDbArc
 50
90.00000250448174
 51
180.000005008957
  0
LINE
  5
255
330
1F
100
AcDbEntity
  8
化粧台
  6
EXLTYPE2
 62
     6
100
AcDbLine
 10
897.0000038147011
 20
974.3465188788914
 30
0.0
 11
897.0000038147011
 21
958.5465196418309
 31
0.0
  0
ARC
  5
256
330
1F
100
AcDbEntity
  8
化粧台
  6
EXLTYPE2
 62
     6
100
AcDbCircle
 10
899.0000038147011
 20
974.3465188788914
 30
0.0
 40
2.0
100
AcDbArc
 50
89.99999567428608
 51
179.9999913485771
  0
LINE
  5
257
330
1F
100
AcDbEntity
  8
化粧台
  6
EXLTYPE2
 62
     6
100
AcDbLine
 10
940.999996185303
 20
976.3465188788914
 30
0.0
 11
899.0000038147011
 21
976.3465188788914
 31
0.0
  0
LINE
  5
258
330
1F
100
AcDbEntity
  8
化粧台
  6
EXLTYPE2
 62
     6
100
AcDbLine
 10
942.999996185303
 20
958.5465196418309
 30
0.0
 11
897.0000038147011
 21
958.5465196418309
 31
0.0
  0
LINE
  5
259
330
1F
100
AcDbEntity
  8
化粧台
  6
EXLTYPE2
 62
     6
100
AcDbLine
 10
944.0000000000002
 20
956.5000038146509
 30
0.0
 11
896.0000000000039
 21
956.5000038146509
 31
0.0
  0
LINE
  5
25A
330
1F
100
AcDbEntity
  8
化粧台
  6
EXLTYPE2
 62
     6
100
AcDbLine
 10
950.5000038146975
 20
941.5000019073022
 30
0.0
 11
889.4999961853066
 21
941.5000019073022
 31
0.0
  0
LINE
  5
25B
330
1F
100
AcDbEntity
  8
化粧台
  6
EXLTYPE2
 62
     6
100
AcDbLine
 10
915.2365846859977
 20
1282.611861335133
 30
0.0
 11
885.2365846859977
 21
1282.611861335133
 31
0.0
  0
LINE
  5
25C
330
1F
100
AcDbEntity
  8
化粧台
  6
EXLTYPE2
 62
     6
100
AcDbLine
 10
915.2365846860014
 20
1285.381770843303
 30
0.0
 11
885.2365846860014
 21
1285.381770843303
 31
0.0
  0
LINE
  5
25D
330
1F
100
AcDbEntity
  8
化粧台
  6
EXLTYPE2
 62
     6
100
AcDbLine
 10
915.2365846859977
 20
1285.381770843266
 30
0.0
 11
915.2365846859977
 21
1270.111865271302
 31
0.0
  0
LINE
  5
25E
330
1F
100
AcDbEntity
  8
化粧台
  6
EXLTYPE2
 62
     6
100
AcDbLine
 10
913.7365846859977
 20
1268.611865271302
 30
0.0
 11
886.7365846859977
 21
1268.611865271302
 31
0.0
  0
LINE
  5
25F
330
1F
100
AcDbEntity
  8
化粧台
  6
EXLTYPE2
 62
     6
100
AcDbLine
 10
885.2365846859977
 20
1285.38177084327
 30
0.0
 11
885.2365846859977
 21
1270.111865271302
 31
0.0
  0
ARC
  5
260
330
1F
100
AcDbEntity
  8
化粧台
  6
EXLTYPE2
 62
     6
100
AcDbCircle
 10
913.7365846859977
 20
1270.111865271302
 30
0.0
 40
1.5
100
AcDbArc
 50
270.0000000000002
 51
0.0
  0
ARC
  5
261
330
1F
100
AcDbEntity
  8
化粧台
  6
EXLTYPE2
 62
     6
100
AcDbCircle
 10
886.7365846859977
 20
1270.111865271302
 30
0.0
 40
1.5
100
AcDbArc
 50
180.0
 51
270.0000000000002
  0
ARC
  5
262
330
1F
100
AcDbEntity
  8
化粧台
  6
EXLTYPE2
 62
     6
100
AcDbCircle
 10
863.2231693721008
 20
1315.911862369002
 30
0.0
 40
1.0
100
AcDbArc
 50
180.0
 51
270.0000000000002
  0
ARC
  5
263
330
1F
100
AcDbEntity
  8
化粧台
  6
EXLTYPE2
 62
     6
100
AcDbCircle
 10
906.5981693722026
 20
1321.986862343741
 30
0.0
 40
7.87499999998454
100
AcDbArc
 50
180.0
 51
223.2429562691451
  0
ARC
  5
264
330
1F
100
AcDbEntity
  8
化粧台
  6
EXLTYPE2
 62
     6
100
AcDbCircle
 10
895.1250000000002
 20
1321.986862343741
 30
0.0
 40
7.87499999998454
100
AcDbArc
 50
284.0576142764539
 51
0.0
  0
ARC
  5
265
330
1F
100
AcDbEntity
  8
化粧台
  6
EXLTYPE2
 62
     6
100
AcDbCircle
 10
909.8681222530979
 20
1323.041926938048
 30
0.0
 40
45.0
100
AcDbArc
 50
190.4086772393206
 51
236.8134006511469
  0
ARC
  5
266
330
1F
100
AcDbEntity
  8
化粧台
  6
EXLTYPE2
 62
     6
100
AcDbCircle
 10
892.0000000000039
 20
1323.91826175945
 30
0.0
 40
45.0
100
AcDbArc
 50
301.0889746232344
 51
0.0
  0
LINE
  5
267
330
1F
100
AcDbEntity
  8
化粧台
  6
EXLTYPE2
 62
     6
100
AcDbLine
 10
873.9000000000017
 20
1314.911862369002
 30
0.0
 11
863.2231693721008
 21
1314.911862369002
 31
0.0
  0
LINE
  5
268
330
1F
100
AcDbEntity
  8
化粧台
  6
EXLTYPE2
 62
     6
100
AcDbLine
 10
904.0000000000002
 20
902.5000000000009
 30
0.0
 11
904.0000000000002
 21
1268.611865271302
 31
0.0
  0
LINE
  5
269
330
1F
100
AcDbEntity
  8
化粧台
  6
EXLTYPE2
 62
     6
100
AcDbLine
 10
936.0000000000002
 20
902.5000000000009
 30
0.0
 11
936.0000000000002
 21
1314.484280627385
 31
0.0
  0
LINE
  5
26A
330
1F
100
AcDbEntity
  8
化粧台
  6
CONTINUOUS
 62
     2
100
AcDbLine
 10
941.5000000000002
 20
1497.000000000012
 30
0.0
 11
1046.5
 21
1497.000000000012
 31
0.0
  0
LINE
  5
26B
330
1F
100
AcDbEntity
  8
化粧台
  6
CONTINUOUS
 62
     2
100
AcDbLine
 10
941.5000000000002
 20
1510.000000000012
 30
0.0
 11
1046.5
 21
1510.000000000012
 31
0.0
  0
LINE
  5
26C
330
1F
100
AcDbEntity
  8
化粧台
  6
CONTINUOUS
 62
     2
100
AcDbLine
 10
941.5000000000002
 20
1497.000000000012
 30
0.0
 11
941.5000000000002
 21
1510.000000000012
 31
0.0
  0
LINE
  5
26D
330
1F
100
AcDbEntity
  8
化粧台
  6
CONTINUOUS
 62
     2
100
AcDbLine
 10
1046.5
 20
1497.000000000012
 30
0.0
 11
1046.5
 21
1510.000000000012
 31
0.0
  0
LINE
  5
26E
330
1F
100
AcDbEntity
  8
化粧台
  6
CONTINUOUS
 62
     2
100
AcDbLine
 10
945.0000000000002
 20
1497.000000000012
 30
0.0
 11
945.0000000000002
 21
1510.000000000012
 31
0.0
  0
LINE
  5
26F
330
1F
100
AcDbEntity
  8
化粧台
  6
CONTINUOUS
 62
     2
100
AcDbLine
 10
1043.0
 20
1497.000000000012
 30
0.0
 11
1043.0
 21
1510.000000000012
 31
0.0
  0
LINE
  5
270
330
1F
100
AcDbEntity
  8
化粧台
  6
CONTINUOUS
 62
     2
100
AcDbLine
 10
898.5000000000002
 20
1497.000000000012
 30
0.0
 11
793.5000000000002
 21
1497.000000000012
 31
0.0
  0
LINE
  5
271
330
1F
100
AcDbEntity
  8
化粧台
  6
CONTINUOUS
 62
     2
100
AcDbLine
 10
898.5000000000002
 20
1510.000000000012
 30
0.0
 11
793.5000000000002
 21
1510.000000000012
 31
0.0
  0
LINE
  5
272
330
1F
100
AcDbEntity
  8
化粧台
  6
CONTINUOUS
 62
     2
100
AcDbLine
 10
898.5000000000002
 20
1497.000000000012
 30
0.0
 11
898.5000000000002
 21
1510.000000000012
 31
0.0
  0
LINE
  5
273
330
1F
100
AcDbEntity
  8
化粧台
  6
CONTINUOUS
 62
     2
100
AcDbLine
 10
793.5000000000002
 20
1497.000000000012
 30
0.0
 11
793.5000000000002
 21
1510.000000000012
 31
0.0
  0
LINE
  5
274
330
1F
100
AcDbEntity
  8
化粧台
  6
CONTINUOUS
 62
     2
100
AcDbLine
 10
895.0000000000002
 20
1497.000000000012
 30
0.0
 11
895.0000000000002
 21
1510.000000000012
 31
0.0
  0
LINE
  5
275
330
1F
100
AcDbEntity
  8
化粧台
  6
CONTINUOUS
 62
     2
100
AcDbLine
 10
797.0000000000002
 20
1497.000000000012
 30
0.0
 11
797.0000000000002
 21
1510.000000000012
 31
0.0
  0
LINE
  5
276
330
1F
100
AcDbEntity
  8
化粧台
  6
CONTINUOUS
 62
     6
100
AcDbLine
 10
904.0000000000002
 20
868.5000000000009
 30
0.0
 11
936.0000000000002
 21
868.5000000000009
 31
0.0
  0
LINE
  5
277
330
1F
100
AcDbEntity
  8
化粧台
  6
CONTINUOUS
 62
     6
100
AcDbLine
 10
904.0000000000002
 20
868.5000000000009
 30
0.0
 11
904.0000000000002
 21
902.5000000000009
 31
0.0
  0
LINE
  5
278
330
1F
100
AcDbEntity
  8
化粧台
  6
CONTINUOUS
 62
     6
100
AcDbLine
 10
936.0000000000002
 20
868.5000000000009
 30
0.0
 11
936.0000000000002
 21
902.5000000000009
 31
0.0
  0
LINE
  5
279
330
1F
100
AcDbEntity
  8
化粧台
  6
CONTINUOUS
 62
     6
100
AcDbLine
 10
792.5000000000002
 20
1248.499999999999
 30
0.0
 11
847.5000000000002
 21
1248.499999999999
 31
0.0
  0
LINE
  5
27A
330
1F
100
AcDbEntity
  8
化粧台
  6
CONTINUOUS
 62
     6
100
AcDbLine
 10
830.5000000000002
 20
890.5000000000009
 30
0.0
 11
809.5000000000002
 21
890.5000000000009
 31
0.0
  0
ARC
  5
27B
330
1F
100
AcDbEntity
  8
化粧台
  6
EXLTYPE2
 62
     6
100
AcDbCircle
 10
769.5000000000002
 20
1268.343134832984
 30
0.0
 40
40.0
100
AcDbArc
 50
345.6384884370835
 51
0.0
  0
ARC
  5
27C
330
1F
100
AcDbEntity
  8
化粧台
  6
EXLTYPE2
 62
     6
100
AcDbCircle
 10
870.5000000000002
 20
1268.343134832984
 30
0.0
 40
40.0
100
AcDbArc
 50
180.0
 51
194.3615115629165
  0
LINE
  5
27D
330
1F
100
AcDbEntity
  8
化粧台
  6
EXLTYPE2
 62
     6
100
AcDbLine
 10
807.7499999999893
 20
1213.499999999999
 30
0.0
 11
832.2500000000111
 21
1213.499999999999
 31
0.0
  0
LINE
  5
27E
330
1F
100
AcDbEntity
  8
化粧台
  6
EXLTYPE2
 62
     6
100
AcDbLine
 10
807.2500000000002
 20
1213.78867513459
 30
0.0
 11
807.2500000000002
 21
1225.672806948606
 31
0.0
  0
LINE
  5
27F
330
1F
100
AcDbEntity
  8
化粧台
  6
EXLTYPE2
 62
     6
100
AcDbLine
 10
832.7500000000002
 20
1213.78867513459
 30
0.0
 11
832.7500000000002
 21
1225.672806948606
 31
0.0
  0
ARC
  5
280
330
1F
100
AcDbEntity
  8
化粧台
  6
EXLTYPE2
 62
     6
100
AcDbCircle
 10
800.2500000000002
 20
1228.365389352174
 30
0.0
 40
7.500000000000004
100
AcDbArc
 50
338.9605302186827
 51
0.0
  0
LINE
  5
281
330
1F
100
AcDbEntity
  8
化粧台
  6
EXLTYPE2
 62
     6
100
AcDbLine
 10
807.7500000000002
 20
1213.499999999997
 30
0.0
 11
807.2500000000002
 21
1213.788675134591
 31
0.0
  0
LINE
  5
282
330
1F
100
AcDbEntity
  8
化粧台
  6
EXLTYPE2
 62
     6
100
AcDbLine
 10
832.2500000000039
 20
1213.499999999997
 30
0.0
 11
832.7500000000002
 21
1213.788675134591
 31
0.0
  0
ARC
  5
283
330
1F
100
AcDbEntity
  8
化粧台
  6
EXLTYPE2
 62
     6
100
AcDbCircle
 10
839.7500000000002
 20
1228.365389352174
 30
0.0
 40
7.500000000000004
100
AcDbArc
 50
180.0
 51
201.039469781297
  0
LINE
  5
284
330
1F
100
AcDbEntity
  8
化粧台
  6
EXLTYPE2
 62
     6
100
AcDbLine
 10
833.0000000000002
 20
1242.66369123504
 30
0.0
 11
833.0000000000002
 21
1254.33630876496
 31
0.0
  0
LINE
  5
285
330
1F
100
AcDbEntity
  8
化粧台
  6
EXLTYPE2
 62
     6
100
AcDbLine
 10
831.5543916547906
 20
1256.84017586672
 30
0.0
 11
821.4456083452098
 21
1262.676484631679
 31
0.0
  0
LINE
  5
286
330
1F
100
AcDbEntity
  8
化粧台
  6
EXLTYPE2
 62
     6
100
AcDbLine
 10
818.5543916547906
 20
1262.676484631679
 30
0.0
 11
808.4456083452098
 21
1256.84017586672
 31
0.0
  0
LINE
  5
287
330
1F
100
AcDbEntity
  8
化粧台
  6
EXLTYPE2
 62
     6
100
AcDbLine
 10
807.0000000000002
 20
1254.33630876496
 30
0.0
 11
807.0000000000002
 21
1242.66369123504
 31
0.0
  0
LINE
  5
288
330
1F
100
AcDbEntity
  8
化粧台
  6
EXLTYPE2
 62
     6
100
AcDbLine
 10
808.4456083452098
 20
1240.15982413328
 30
0.0
 11
818.5543916547906
 21
1234.323515368319
 31
0.0
  0
LINE
  5
289
330
1F
100
AcDbEntity
  8
化粧台
  6
EXLTYPE2
 62
     6
100
AcDbLine
 10
821.4456083452098
 20
1234.323515368319
 30
0.0
 11
831.5543916547906
 21
1240.15982413328
 31
0.0
  0
ARC
  5
28A
330
1F
100
AcDbEntity
  8
化粧台
  6
EXLTYPE2
 62
     6
100
AcDbCircle
 10
820.0000000000002
 20
1248.499999999999
 30
0.0
 40
14.25000000000001
100
AcDbArc
 50
264.1775448336001
 51
275.8224551664
  0
ARC
  5
28B
330
1F
100
AcDbEntity
  8
化粧台
  6
EXLTYPE2
 62
     6
100
AcDbCircle
 10
820.0000000000002
 20
1248.499999999999
 30
0.0
 40
14.25000000000001
100
AcDbArc
 50
324.1775448336006
 51
335.8224551664001
  0
ARC
  5
28C
330
1F
100
AcDbEntity
  8
化粧台
  6
EXLTYPE2
 62
     6
100
AcDbCircle
 10
820.0000000000002
 20
1248.499999999999
 30
0.0
 40
14.25000000000001
100
AcDbArc
 50
24.17754483359991
 51
35.82245516639971
  0
ARC
  5
28D
330
1F
100
AcDbEntity
  8
化粧台
  6
EXLTYPE2
 62
     6
100
AcDbCircle
 10
820.0000000000002
 20
1248.499999999999
 30
0.0
 40
14.25000000000001
100
AcDbArc
 50
84.17754483360022
 51
95.82245516636003
  0
ARC
  5
28E
330
1F
100
AcDbEntity
  8
化粧台
  6
EXLTYPE2
 62
     6
100
AcDbCircle
 10
820.0000000000002
 20
1248.499999999999
 30
0.0
 40
14.25000000000001
100
AcDbArc
 50
144.1775448336397
 51
155.8224551663601
  0
ARC
  5
28F
330
1F
100
AcDbEntity
  8
化粧台
  6
EXLTYPE2
 62
     6
100
AcDbCircle
 10
820.0000000000002
 20
1248.499999999999
 30
0.0
 40
14.25000000000001
100
AcDbArc
 50
204.1775448336
 51
215.8224551663998
  0
CIRCLE
  5
290
330
1F
100
AcDbEntity
  8
化粧台
  6
EXLTYPE2
 62
     6
100
AcDbCircle
 10
820.0000000000002
 20
1248.499999999999
 30
0.0
 40
4.75
  0
ARC
  5
291
330
1F
100
AcDbEntity
  8
化粧台
  6
EXLTYPE2
 62
     6
100
AcDbCircle
 10
847.0000000000002
 20
1248.499999999999
 30
0.0
 40
40.0
100
AcDbArc
 50
165.6384884370866
 51
169.8112385239512
  0
ARC
  5
292
330
1F
100
AcDbEntity
  8
化粧台
  6
EXLTYPE2
 62
     6
100
AcDbCircle
 10
793.0000000000002
 20
1248.499999999999
 30
0.0
 40
40.0
100
AcDbArc
 50
10.18876147604892
 51
14.36151156291657
  0
LINE
  5
293
330
1F
100
AcDbEntity
  8
化粧台
  6
EXLTYPE2
 62
     6
100
AcDbLine
 10
807.7500000000002
 20
1241.219890110719
 30
0.0
 11
807.7500000000002
 21
1228.365389352174
 31
0.0
  0
LINE
  5
294
330
1F
100
AcDbEntity
  8
化粧台
  6
EXLTYPE2
 62
     6
100
AcDbLine
 10
832.2500000000002
 20
1241.219890110719
 30
0.0
 11
832.2500000000002
 21
1228.365389352174
 31
0.0
  0
LINE
  5
295
330
1F
100
AcDbEntity
  8
化粧台
  6
EXLTYPE2
 62
     6
100
AcDbLine
 10
809.0304555427103
 20
1271.2
 30
0.0
 11
830.9695444572901
 21
1271.2
 31
0.0
  0
LINE
  5
296
330
1F
100
AcDbEntity
  8
化粧台
  6
EXLTYPE2
 62
     6
100
AcDbLine
 10
809.0304555427103
 20
1283.2
 30
0.0
 11
830.9695444572901
 21
1283.2
 31
0.0
  0
LINE
  5
297
330
1F
100
AcDbEntity
  8
化粧台
  6
EXLTYPE2
 62
     6
100
AcDbLine
 10
808.5000000000002
 20
1282.29288719687
 30
0.0
 11
808.5000000000002
 21
1272.10711280313
 31
0.0
  0
LINE
  5
298
330
1F
100
AcDbEntity
  8
化粧台
  6
EXLTYPE2
 62
     6
100
AcDbLine
 10
831.5000000000002
 20
1282.29288719687
 30
0.0
 11
831.5000000000002
 21
1272.10711280313
 31
0.0
  0
ARC
  5
299
330
1F
100
AcDbEntity
  8
化粧台
  6
EXLTYPE2
 62
     6
100
AcDbCircle
 10
818.2500000000002
 20
1277.2
 30
0.0
 40
11.0
100
AcDbArc
 50
146.9442688490998
 51
152.4198007963999
  0
ARC
  5
29A
330
1F
100
AcDbEntity
  8
化粧台
  6
EXLTYPE2
 62
     6
100
AcDbCircle
 10
818.2500000000002
 20
1277.2
 30
0.0
 40
11.0
100
AcDbArc
 50
207.5801992036001
 51
213.0557311509001
  0
ARC
  5
29B
330
1F
100
AcDbEntity
  8
化粧台
  6
EXLTYPE2
 62
     6
100
AcDbCircle
 10
821.7500000000002
 20
1277.2
 30
0.0
 40
11.0
100
AcDbArc
 50
326.9442688491004
 51
332.4198007964001
  0
ARC
  5
29C
330
1F
100
AcDbEntity
  8
化粧台
  6
EXLTYPE2
 62
     6
100
AcDbCircle
 10
821.7500000000002
 20
1277.2
 30
0.0
 40
11.0
100
AcDbArc
 50
27.58019920359027
 51
33.05573115085006
  0
LINE
  5
29D
330
1F
100
AcDbEntity
  8
化粧台
  6
EXLTYPE2
 62
     6
100
AcDbLine
 10
809.5000000000002
 20
1271.2
 30
0.0
 11
809.5000000000002
 21
1268.34313483298
 31
0.0
  0
LINE
  5
29E
330
1F
100
AcDbEntity
  8
化粧台
  6
EXLTYPE2
 62
     6
100
AcDbLine
 10
830.5000000000002
 20
1271.2
 30
0.0
 11
830.5000000000002
 21
1268.34313483298
 31
0.0
  0
LINE
  5
29F
330
1F
100
AcDbEntity
  8
化粧台
  6
EXLTYPE3
 62
     6
100
AcDbLine
 10
820.0000000000002
 20
1298.2
 30
0.0
 11
820.0000000000002
 21
875.5000000000009
 31
0.0
  0
LINE
  5
2A0
330
1F
100
AcDbEntity
  8
化粧台
  6
CONTINUOUS
 62
     6
100
AcDbLine
 10
809.5000000000002
 20
902.5000000000009
 30
0.0
 11
809.5000000000002
 21
890.5000000000009
 31
0.0
  0
LINE
  5
2A1
330
1F
100
AcDbEntity
  8
化粧台
  6
CONTINUOUS
 62
     6
100
AcDbLine
 10
830.5000000000002
 20
902.5000000000009
 30
0.0
 11
830.5000000000002
 21
890.5000000000009
 31
0.0
  0
LINE
  5
2A2
330
1F
100
AcDbEntity
  8
化粧台
  6
EXLTYPE2
 62
     6
100
AcDbLine
 10
830.5000000000002
 20
1213.499999999999
 30
0.0
 11
830.5000000000002
 21
902.5000000000009
 31
0.0
  0
LINE
  5
2A3
330
1F
100
AcDbEntity
  8
化粧台
  6
EXLTYPE2
 62
     6
100
AcDbLine
 10
809.5000000000002
 20
1213.499999999999
 30
0.0
 11
809.5000000000002
 21
902.5000000000009
 31
0.0
  0
LINE
  5
2A4
330
1F
100
AcDbEntity
  8
化粧台
  6
CONTINUOUS
 62
     6
100
AcDbLine
 10
992.5000000000002
 20
1248.499999999999
 30
0.0
 11
1047.5
 21
1248.499999999999
 31
0.0
  0
LINE
  5
2A5
330
1F
100
AcDbEntity
  8
化粧台
  6
CONTINUOUS
 62
     6
100
AcDbLine
 10
1030.5
 20
890.5000000000009
 30
0.0
 11
1009.5
 21
890.5000000000009
 31
0.0
  0
ARC
  5
2A6
330
1F
100
AcDbEntity
  8
化粧台
  6
EXLTYPE2
 62
     6
100
AcDbCircle
 10
969.5000000000002
 20
1268.343134832984
 30
0.0
 40
40.0
100
AcDbArc
 50
345.6384884370835
 51
0.0
  0
ARC
  5
2A7
330
1F
100
AcDbEntity
  8
化粧台
  6
EXLTYPE2
 62
     6
100
AcDbCircle
 10
1070.5
 20
1268.343134832984
 30
0.0
 40
40.0
100
AcDbArc
 50
180.0
 51
194.3615115629165
  0
LINE
  5
2A8
330
1F
100
AcDbEntity
  8
化粧台
  6
EXLTYPE2
 62
     6
100
AcDbLine
 10
1007.749999999989
 20
1213.499999999999
 30
0.0
 11
1032.250000000011
 21
1213.499999999999
 31
0.0
  0
LINE
  5
2A9
330
1F
100
AcDbEntity
  8
化粧台
  6
EXLTYPE2
 62
     6
100
AcDbLine
 10
1007.25
 20
1213.78867513459
 30
0.0
 11
1007.25
 21
1225.672806948606
 31
0.0
  0
LINE
  5
2AA
330
1F
100
AcDbEntity
  8
化粧台
  6
EXLTYPE2
 62
     6
100
AcDbLine
 10
1032.75
 20
1213.78867513459
 30
0.0
 11
1032.75
 21
1225.672806948606
 31
0.0
  0
ARC
  5
2AB
330
1F
100
AcDbEntity
  8
化粧台
  6
EXLTYPE2
 62
     6
100
AcDbCircle
 10
1000.25
 20
1228.365389352174
 30
0.0
 40
7.500000000000004
100
AcDbArc
 50
338.9605302186827
 51
0.0
  0
LINE
  5
2AC
330
1F
100
AcDbEntity
  8
化粧台
  6
EXLTYPE2
 62
     6
100
AcDbLine
 10
1007.75
 20
1213.499999999997
 30
0.0
 11
1007.25
 21
1213.788675134591
 31
0.0
  0
LINE
  5
2AD
330
1F
100
AcDbEntity
  8
化粧台
  6
EXLTYPE2
 62
     6
100
AcDbLine
 10
1032.250000000004
 20
1213.499999999997
 30
0.0
 11
1032.75
 21
1213.788675134591
 31
0.0
  0
ARC
  5
2AE
330
1F
100
AcDbEntity
  8
化粧台
  6
EXLTYPE2
 62
     6
100
AcDbCircle
 10
1039.75
 20
1228.365389352174
 30
0.0
 40
7.500000000000004
100
AcDbArc
 50
180.0
 51
201.039469781297
  0
LINE
  5
2AF
330
1F
100
AcDbEntity
  8
化粧台
  6
EXLTYPE2
 62
     6
100
AcDbLine
 10
1033.0
 20
1242.66369123504
 30
0.0
 11
1033.0
 21
1254.33630876496
 31
0.0
  0
LINE
  5
2B0
330
1F
100
AcDbEntity
  8
化粧台
  6
EXLTYPE2
 62
     6
100
AcDbLine
 10
1031.554391654791
 20
1256.84017586672
 30
0.0
 11
1021.44560834521
 21
1262.676484631679
 31
0.0
  0
LINE
  5
2B1
330
1F
100
AcDbEntity
  8
化粧台
  6
EXLTYPE2
 62
     6
100
AcDbLine
 10
1018.554391654791
 20
1262.676484631679
 30
0.0
 11
1008.44560834521
 21
1256.84017586672
 31
0.0
  0
LINE
  5
2B2
330
1F
100
AcDbEntity
  8
化粧台
  6
EXLTYPE2
 62
     6
100
AcDbLine
 10
1007.0
 20
1254.33630876496
 30
0.0
 11
1007.0
 21
1242.66369123504
 31
0.0
  0
LINE
  5
2B3
330
1F
100
AcDbEntity
  8
化粧台
  6
EXLTYPE2
 62
     6
100
AcDbLine
 10
1008.44560834521
 20
1240.15982413328
 30
0.0
 11
1018.554391654791
 21
1234.323515368319
 31
0.0
  0
LINE
  5
2B4
330
1F
100
AcDbEntity
  8
化粧台
  6
EXLTYPE2
 62
     6
100
AcDbLine
 10
1021.44560834521
 20
1234.323515368319
 30
0.0
 11
1031.554391654791
 21
1240.15982413328
 31
0.0
  0
ARC
  5
2B5
330
1F
100
AcDbEntity
  8
化粧台
  6
EXLTYPE2
 62
     6
100
AcDbCircle
 10
1020.0
 20
1248.499999999999
 30
0.0
 40
14.25000000000001
100
AcDbArc
 50
264.1775448336001
 51
275.8224551664
  0
ARC
  5
2B6
330
1F
100
AcDbEntity
  8
化粧台
  6
EXLTYPE2
 62
     6
100
AcDbCircle
 10
1020.0
 20
1248.499999999999
 30
0.0
 40
14.25000000000001
100
AcDbArc
 50
324.1775448336006
 51
335.8224551664001
  0
ARC
  5
2B7
330
1F
100
AcDbEntity
  8
化粧台
  6
EXLTYPE2
 62
     6
100
AcDbCircle
 10
1020.0
 20
1248.499999999999
 30
0.0
 40
14.25000000000001
100
AcDbArc
 50
24.17754483359991
 51
35.82245516639971
  0
ARC
  5
2B8
330
1F
100
AcDbEntity
  8
化粧台
  6
EXLTYPE2
 62
     6
100
AcDbCircle
 10
1020.0
 20
1248.499999999999
 30
0.0
 40
14.25000000000001
100
AcDbArc
 50
84.17754483360022
 51
95.82245516636003
  0
ARC
  5
2B9
330
1F
100
AcDbEntity
  8
化粧台
  6
EXLTYPE2
 62
     6
100
AcDbCircle
 10
1020.0
 20
1248.499999999999
 30
0.0
 40
14.25000000000001
100
AcDbArc
 50
144.1775448336397
 51
155.8224551663601
  0
ARC
  5
2BA
330
1F
100
AcDbEntity
  8
化粧台
  6
EXLTYPE2
 62
     6
100
AcDbCircle
 10
1020.0
 20
1248.499999999999
 30
0.0
 40
14.25000000000001
100
AcDbArc
 50
204.1775448336
 51
215.8224551663998
  0
CIRCLE
  5
2BB
330
1F
100
AcDbEntity
  8
化粧台
  6
EXLTYPE2
 62
     6
100
AcDbCircle
 10
1020.0
 20
1248.499999999999
 30
0.0
 40
4.75
  0
ARC
  5
2BC
330
1F
100
AcDbEntity
  8
化粧台
  6
EXLTYPE2
 62
     6
100
AcDbCircle
 10
1047.0
 20
1248.499999999999
 30
0.0
 40
40.0
100
AcDbArc
 50
165.6384884370866
 51
169.8112385239512
  0
ARC
  5
2BD
330
1F
100
AcDbEntity
  8
化粧台
  6
EXLTYPE2
 62
     6
100
AcDbCircle
 10
993.0000000000002
 20
1248.499999999999
 30
0.0
 40
40.0
100
AcDbArc
 50
10.18876147604892
 51
14.36151156291657
  0
LINE
  5
2BE
330
1F
100
AcDbEntity
  8
化粧台
  6
EXLTYPE2
 62
     6
100
AcDbLine
 10
1007.75
 20
1241.219890110719
 30
0.0
 11
1007.75
 21
1228.365389352174
 31
0.0
  0
LINE
  5
2BF
330
1F
100
AcDbEntity
  8
化粧台
  6
EXLTYPE2
 62
     6
100
AcDbLine
 10
1032.25
 20
1241.219890110719
 30
0.0
 11
1032.25
 21
1228.365389352174
 31
0.0
  0
LINE
  5
2C0
330
1F
100
AcDbEntity
  8
化粧台
  6
EXLTYPE2
 62
     6
100
AcDbLine
 10
1009.03045554271
 20
1271.2
 30
0.0
 11
1030.96954445729
 21
1271.2
 31
0.0
  0
LINE
  5
2C1
330
1F
100
AcDbEntity
  8
化粧台
  6
EXLTYPE2
 62
     6
100
AcDbLine
 10
1009.03045554271
 20
1283.2
 30
0.0
 11
1030.96954445729
 21
1283.2
 31
0.0
  0
LINE
  5
2C2
330
1F
100
AcDbEntity
  8
化粧台
  6
EXLTYPE2
 62
     6
100
AcDbLine
 10
1008.5
 20
1282.29288719687
 30
0.0
 11
1008.5
 21
1272.10711280313
 31
0.0
  0
LINE
  5
2C3
330
1F
100
AcDbEntity
  8
化粧台
  6
EXLTYPE2
 62
     6
100
AcDbLine
 10
1031.5
 20
1282.29288719687
 30
0.0
 11
1031.5
 21
1272.10711280313
 31
0.0
  0
ARC
  5
2C4
330
1F
100
AcDbEntity
  8
化粧台
  6
EXLTYPE2
 62
     6
100
AcDbCircle
 10
1018.25
 20
1277.2
 30
0.0
 40
11.0
100
AcDbArc
 50
146.9442688490998
 51
152.4198007963999
  0
ARC
  5
2C5
330
1F
100
AcDbEntity
  8
化粧台
  6
EXLTYPE2
 62
     6
100
AcDbCircle
 10
1018.25
 20
1277.2
 30
0.0
 40
11.0
100
AcDbArc
 50
207.5801992036001
 51
213.0557311509001
  0
ARC
  5
2C6
330
1F
100
AcDbEntity
  8
化粧台
  6
EXLTYPE2
 62
     6
100
AcDbCircle
 10
1021.75
 20
1277.2
 30
0.0
 40
11.0
100
AcDbArc
 50
326.9442688491004
 51
332.4198007964001
  0
ARC
  5
2C7
330
1F
100
AcDbEntity
  8
化粧台
  6
EXLTYPE2
 62
     6
100
AcDbCircle
 10
1021.75
 20
1277.2
 30
0.0
 40
11.0
100
AcDbArc
 50
27.58019920359027
 51
33.05573115085006
  0
LINE
  5
2C8
330
1F
100
AcDbEntity
  8
化粧台
  6
EXLTYPE2
 62
     6
100
AcDbLine
 10
1009.5
 20
1271.2
 30
0.0
 11
1009.5
 21
1268.34313483298
 31
0.0
  0
LINE
  5
2C9
330
1F
100
AcDbEntity
  8
化粧台
  6
EXLTYPE2
 62
     6
100
AcDbLine
 10
1030.5
 20
1271.2
 30
0.0
 11
1030.5
 21
1268.34313483298
 31
0.0
  0
LINE
  5
2CA
330
1F
100
AcDbEntity
  8
化粧台
  6
EXLTYPE3
 62
     6
100
AcDbLine
 10
1020.0
 20
1298.2
 30
0.0
 11
1020.0
 21
875.5000000000009
 31
0.0
  0
LINE
  5
2CB
330
1F
100
AcDbEntity
  8
化粧台
  6
CONTINUOUS
 62
     6
100
AcDbLine
 10
1009.5
 20
902.5000000000009
 30
0.0
 11
1009.5
 21
890.5000000000009
 31
0.0
  0
LINE
  5
2CC
330
1F
100
AcDbEntity
  8
化粧台
  6
CONTINUOUS
 62
     6
100
AcDbLine
 10
1030.5
 20
902.5000000000009
 30
0.0
 11
1030.5
 21
890.5000000000009
 31
0.0
  0
LINE
  5
2CD
330
1F
100
AcDbEntity
  8
化粧台
  6
EXLTYPE2
 62
     6
100
AcDbLine
 10
1030.5
 20
1213.499999999999
 30
0.0
 11
1030.5
 21
902.5000000000009
 31
0.0
  0
LINE
  5
2CE
330
1F
100
AcDbEntity
  8
化粧台
  6
EXLTYPE2
 62
     6
100
AcDbLine
 10
1009.5
 20
1213.499999999999
 30
0.0
 11
1009.5
 21
902.5000000000009
 31
0.0
  0
LINE
  5
2CF
330
1F
100
AcDbEntity
  8
化粧台
  6
CONTINUOUS
 62
     6
100
AcDbLine
 10
1116.473062555895
 20
1680.722387698
 30
0.0
 11
723.5269374440543
 21
1680.722387698002
 31
0.0
  0
ARC
  5
2D0
330
1F
100
AcDbEntity
  8
化粧台
  6
EXLTYPE2
 62
     6
100
AcDbCircle
 10
1026.999999999997
 20
1404.355042033626
 30
0.0
 40
214.0000000000001
100
AcDbArc
 50
144.2144699726478
 51
180.0
  0
LINE
  5
2D1
330
1F
100
AcDbEntity
  8
化粧台
  6
EXLTYPE2
 62
     6
100
AcDbLine
 10
813.0000000000039
 20
1283.200000000002
 30
0.0
 11
813.0000000000039
 21
1404.355042033626
 31
0.0
  0
ARC
  5
2D2
330
1F
100
AcDbEntity
  8
化粧台
  6
EXLTYPE2
 62
     6
100
AcDbCircle
 10
1026.999999999997
 20
1404.355042033626
 30
0.0
 40
200.0000000000001
100
AcDbArc
 50
142.2603937737965
 51
180.0
  0
LINE
  5
2D3
330
1F
100
AcDbEntity
  8
化粧台
  6
EXLTYPE2
 62
     6
100
AcDbLine
 10
826.9999999999966
 20
1283.2
 30
0.0
 11
826.9999999999966
 21
1404.355042033626
 31
0.0
  0
ARC
  5
2D4
330
1F
100
AcDbEntity
  8
化粧台
  6
EXLTYPE2
 62
     6
100
AcDbCircle
 10
813.0000000000039
 20
1404.355042033626
 30
0.0
 40
200.0000000000001
100
AcDbArc
 50
0.0
 51
37.73960622620351
  0
LINE
  5
2D5
330
1F
100
AcDbEntity
  8
化粧台
  6
EXLTYPE2
 62
     6
100
AcDbLine
 10
1013.000000000004
 20
1283.2
 30
0.0
 11
1013.000000000004
 21
1404.355042033626
 31
0.0
  0
ARC
  5
2D6
330
1F
100
AcDbEntity
  8
化粧台
  6
EXLTYPE2
 62
     6
100
AcDbCircle
 10
813.0000000000039
 20
1404.355042033626
 30
0.0
 40
214.0000000000001
100
AcDbArc
 50
0.0
 51
35.78553002735229
  0
LINE
  5
2D7
330
1F
100
AcDbEntity
  8
化粧台
  6
EXLTYPE2
 62
     6
100
AcDbLine
 10
1026.999999999997
 20
1283.200000000002
 30
0.0
 11
1026.999999999997
 21
1404.355042033626
 31
0.0
  0
LINE
  5
2D8
330
1F
100
AcDbEntity
  8
化粧台
  6
CONTINUOUS
 62
     2
100
AcDbLine
 10
2058.000000000004
 20
1548.500000000001
 30
0.0
 11
2058.000000000004
 21
993.5000000000009
 31
0.0
  0
LINE
  5
2D9
330
1F
100
AcDbEntity
  8
化粧台
  6
CONTINUOUS
 62
     2
100
AcDbLine
 10
2073.000000000004
 20
1548.500000000001
 30
0.0
 11
2073.000000000004
 21
993.5000000000009
 31
0.0
  0
LINE
  5
2DA
330
1F
100
AcDbEntity
  8
化粧台
  6
CONTINUOUS
 62
     2
100
AcDbLine
 10
2073.000000000004
 20
1548.500000000001
 30
0.0
 11
2058.000000000004
 21
1548.500000000001
 31
0.0
  0
LINE
  5
2DB
330
1F
100
AcDbEntity
  8
化粧台
  6
EXLTYPE3
 62
     6
100
AcDbLine
 10
2255.0
 20
1538.500000000001
 30
0.0
 11
2255.0
 21
1373.500000000001
 31
0.0
  0
LINE
  5
2DC
330
1F
100
AcDbEntity
  8
化粧台
  6
CONTINUOUS
 62
     2
100
AcDbLine
 10
2465.0
 20
1483.500000000001
 30
0.0
 11
2465.0
 21
1443.500000000001
 31
0.0
  0
LINE
  5
2DD
330
1F
100
AcDbEntity
  8
化粧台
  6
CONTINUOUS
 62
     2
100
AcDbLine
 10
2073.000000000004
 20
993.5000000000009
 30
0.0
 11
2058.000000000004
 21
993.5000000000009
 31
0.0
  0
LINE
  5
2DE
330
1F
100
AcDbEntity
  8
化粧台
  6
CONTINUOUS
 62
     2
100
AcDbLine
 10
2403.25
 20
898.5000000000009
 30
0.0
 11
2416.75
 21
898.5000000000009
 31
0.0
  0
LINE
  5
2DF
330
1F
100
AcDbEntity
  8
化粧台
  6
CONTINUOUS
 62
     2
100
AcDbLine
 10
2416.75
 20
898.5000000000009
 30
0.0
 11
2416.75
 21
902.0000000000009
 31
0.0
  0
LINE
  5
2E0
330
1F
100
AcDbEntity
  8
化粧台
  6
CONTINUOUS
 62
     2
100
AcDbLine
 10
2403.25
 20
898.5000000000009
 30
0.0
 11
2403.25
 21
902.0000000000009
 31
0.0
  0
LINE
  5
2E1
330
1F
100
AcDbEntity
  8
化粧台
  6
CONTINUOUS
 62
     2
100
AcDbLine
 10
2123.25
 20
898.5000000000009
 30
0.0
 11
2136.75
 21
898.5000000000009
 31
0.0
  0
LINE
  5
2E2
330
1F
100
AcDbEntity
  8
化粧台
  6
CONTINUOUS
 62
     2
100
AcDbLine
 10
2136.75
 20
898.5000000000009
 30
0.0
 11
2136.75
 21
902.0000000000009
 31
0.0
  0
LINE
  5
2E3
330
1F
100
AcDbEntity
  8
化粧台
  6
CONTINUOUS
 62
     2
100
AcDbLine
 10
2123.25
 20
898.5000000000009
 30
0.0
 11
2123.25
 21
902.0000000000009
 31
0.0
  0
LINE
  5
2E4
330
1F
100
AcDbEntity
  8
化粧台
  6
CONTINUOUS
 62
     2
100
AcDbLine
 10
2032.999999999993
 20
1510.000000000001
 30
0.0
 11
2057.999999999993
 21
1510.000000000001
 31
0.0
  0
LINE
  5
2E5
330
1F
100
AcDbEntity
  8
化粧台
  6
CONTINUOUS
 62
     2
100
AcDbLine
 10
2032.999999999993
 20
1497.000000000001
 30
0.0
 11
2032.999999999993
 21
1510.000000000001
 31
0.0
  0
LINE
  5
2E6
330
1F
100
AcDbEntity
  8
化粧台
  6
CONTINUOUS
 62
     2
100
AcDbLine
 10
2032.999999999993
 20
1497.000000000001
 30
0.0
 11
2057.999999999993
 21
1497.000000000001
 31
0.0
  0
LINE
  5
2E7
330
1F
100
AcDbEntity
  8
化粧台
  6
CONTINUOUS
 62
     2
100
AcDbLine
 10
2039.999999999993
 20
1497.000000000001
 30
0.0
 11
2039.999999999993
 21
1510.000000000001
 31
0.0
  0
LINE
  5
2E8
330
1F
100
AcDbEntity
  8
化粧台
  6
CONTINUOUS
 62
     2
100
AcDbLine
 10
2075.0
 20
902.0000000000009
 30
0.0
 11
2465.0
 21
902.0000000000009
 31
0.0
  0
LINE
  5
2E9
330
1F
100
AcDbEntity
  8
化粧台
  6
EXLTYPE2
 62
     6
100
AcDbLine
 10
2078.0
 20
988.7500000000009
 30
0.0
 11
2078.0
 21
902.0000000000009
 31
0.0
  0
LINE
  5
2EA
330
1F
100
AcDbEntity
  8
化粧台
  6
EXLTYPE2
 62
     6
100
AcDbLine
 10
2093.0
 20
988.7500000000009
 30
0.0
 11
2093.0
 21
902.0000000000009
 31
0.0
  0
LINE
  5
2EB
330
1F
100
AcDbEntity
  8
化粧台
  6
EXLTYPE2
 62
     6
100
AcDbLine
 10
2450.0
 20
988.7500000000009
 30
0.0
 11
2075.0
 21
988.7500000000009
 31
0.0
  0
LINE
  5
2EC
330
1F
100
AcDbEntity
  8
化粧台
  6
EXLTYPE2
 62
     6
100
AcDbLine
 10
2447.5
 20
1003.750000000001
 30
0.0
 11
2075.0
 21
1003.750000000001
 31
0.0
  0
LINE
  5
2ED
330
1F
100
AcDbEntity
  8
化粧台
  6
EXLTYPE2
 62
     6
100
AcDbLine
 10
2447.5
 20
1006.250000000001
 30
0.0
 11
2075.0
 21
1006.250000000001
 31
0.0
  0
LINE
  5
2EE
330
1F
100
AcDbEntity
  8
化粧台
  6
EXLTYPE2
 62
     6
100
AcDbLine
 10
2447.5
 20
1483.500000000001
 30
0.0
 11
2447.5
 21
988.7500000000009
 31
0.0
  0
LINE
  5
2EF
330
1F
100
AcDbEntity
  8
化粧台
  6
EXLTYPE2
 62
     6
100
AcDbLine
 10
2450.0
 20
1483.500000000001
 30
0.0
 11
2450.0
 21
988.7500000000009
 31
0.0
  0
LINE
  5
2F0
330
1F
100
AcDbEntity
  8
化粧台
  6
CONTINUOUS
 62
     6
100
AcDbLine
 10
2195.000000000004
 20
1003.750000000001
 30
0.0
 11
2195.000000000004
 21
988.7500000000009
 31
0.0
  0
LINE
  5
2F1
330
1F
100
AcDbEntity
  8
化粧台
  6
CONTINUOUS
 62
     6
100
AcDbLine
 10
2160.000000000004
 20
1003.750000000001
 30
0.0
 11
2160.000000000004
 21
988.7500000000009
 31
0.0
  0
LINE
  5
2F2
330
1F
100
AcDbEntity
  8
化粧台
  6
CONTINUOUS
 62
     6
100
AcDbLine
 10
2108.0
 20
1003.750000000001
 30
0.0
 11
2108.0
 21
988.7500000000009
 31
0.0
  0
LINE
  5
2F3
330
1F
100
AcDbEntity
  8
化粧台
  6
CONTINUOUS
 62
     6
100
AcDbLine
 10
2415.000000000004
 20
1003.750000000001
 30
0.0
 11
2415.000000000004
 21
988.7500000000009
 31
0.0
  0
LINE
  5
2F4
330
1F
100
AcDbEntity
  8
化粧台
  6
EXLTYPE2
 62
     6
100
AcDbLine
 10
2093.25
 20
1568.500000000001
 30
0.0
 11
2093.25
 21
1518.500000000001
 31
0.0
  0
LINE
  5
2F5
330
1F
100
AcDbEntity
  8
化粧台
  6
EXLTYPE2
 62
     6
100
AcDbLine
 10
2075.0
 20
1568.500000000001
 30
0.0
 11
2093.25
 21
1568.500000000001
 31
0.0
  0
LINE
  5
2F6
330
1F
100
AcDbEntity
  8
化粧台
  6
EXLTYPE2
 62
     6
100
AcDbLine
 10
2075.0
 20
1518.500000000001
 30
0.0
 11
2093.25
 21
1518.500000000001
 31
0.0
  0
LINE
  5
2F7
330
1F
100
AcDbEntity
  8
化粧台
  6
EXLTYPE2
 62
     6
100
AcDbLine
 10
2450.0
 20
1443.500000000001
 30
0.0
 11
2465.0
 21
1443.500000000001
 31
0.0
  0
LINE
  5
2F8
330
1F
100
AcDbEntity
  8
化粧台
  6
EXLTYPE2
 62
     6
100
AcDbLine
 10
2447.5
 20
1483.500000000001
 30
0.0
 11
2465.0
 21
1483.500000000001
 31
0.0
  0
LINE
  5
2F9
330
1F
100
AcDbEntity
  8
化粧台
  6
CONTINUOUS
 62
     6
100
AcDbLine
 10
2465.000000000004
 20
1455.500000000001
 30
0.0
 11
2497.500000000004
 21
1453.499999999999
 31
0.0
  0
LINE
  5
2FA
330
1F
100
AcDbEntity
  8
化粧台
  6
CONTINUOUS
 62
     6
100
AcDbLine
 10
2497.500000000004
 20
1453.499999999999
 30
0.0
 11
2465.000000000004
 21
1451.500000000001
 31
0.0
  0
LINE
  5
2FB
330
1F
100
AcDbEntity
  8
化粧台
  6
CONTINUOUS
 62
     6
100
AcDbLine
 10
2447.0
 20
1461.000000000001
 30
0.0
 11
2446.0
 21
1461.000000000001
 31
0.0
  0
LINE
  5
2FC
330
1F
100
AcDbEntity
  8
化粧台
  6
CONTINUOUS
 62
     6
100
AcDbLine
 10
2447.0
 20
1445.999999999999
 30
0.0
 11
2446.0
 21
1445.999999999999
 31
0.0
  0
ARC
  5
2FD
330
1F
100
AcDbEntity
  8
化粧台
  6
CONTINUOUS
 62
     6
100
AcDbCircle
 10
2447.039655172416
 20
1453.499999999999
 30
0.0
 40
3.939655172413634
100
AcDbArc
 50
105.3013019106999
 51
254.6986980892994
  0
LINE
  5
2FE
330
1F
100
AcDbEntity
  8
化粧台
  6
CONTINUOUS
 62
     6
100
AcDbLine
 10
2446.0
 20
1461.000000000001
 30
0.0
 11
2446.0
 21
1445.999999999999
 31
0.0
  0
LINE
  5
2FF
330
1F
100
AcDbEntity
  8
化粧台
  6
CONTINUOUS
 62
     6
100
AcDbLine
 10
2433.100000000003
 20
1453.499999999999
 30
0.0
 11
2507.5
 21
1453.499999999999
 31
0.0
  0
LINE
  5
300
330
1F
100
AcDbEntity
  8
化粧台
  6
EXLTYPE3
 62
     6
100
AcDbLine
 10
2345.000000000044
 20
1069.000000000001
 30
0.0
 11
2345.000000000044
 21
853.5000000000045
 31
0.0
  0
LINE
  5
301
330
1F
100
AcDbEntity
  8
化粧台
  6
EXLTYPE2
 62
     6
100
AcDbLine
 10
2220.0
 20
1485.500000000001
 30
0.0
 11
2224.18604651163
 21
1488.500000000001
 31
0.0
  0
LINE
  5
302
330
1F
100
AcDbEntity
  8
化粧台
  6
EXLTYPE2
 62
     6
100
AcDbLine
 10
2220.0
 20
1485.500000000001
 30
0.0
 11
2220.0
 21
1478.000000000001
 31
0.0
  0
LINE
  5
303
330
1F
100
AcDbEntity
  8
化粧台
  6
EXLTYPE2
 62
     6
100
AcDbLine
 10
2281.25
 20
1433.500000000001
 30
0.0
 11
2270.75
 21
1424.500000000001
 31
0.0
  0
LINE
  5
304
330
1F
100
AcDbEntity
  8
化粧台
  6
EXLTYPE2
 62
     6
100
AcDbLine
 10
2283.412795258002
 20
1461.000000000001
 30
0.0
 11
2281.25
 21
1458.000000000001
 31
0.0
  0
LINE
  5
305
330
1F
100
AcDbEntity
  8
化粧台
  6
EXLTYPE2
 62
     6
100
AcDbLine
 10
2283.412795258002
 20
1478.000000000001
 30
0.0
 11
2283.412795258002
 21
1461.000000000001
 31
0.0
  0
LINE
  5
306
330
1F
100
AcDbEntity
  8
化粧台
  6
EXLTYPE2
 62
     6
100
AcDbLine
 10
2281.25
 20
1458.000000000001
 30
0.0
 11
2281.25
 21
1433.500000000001
 31
0.0
  0
LINE
  5
307
330
1F
100
AcDbEntity
  8
化粧台
  6
EXLTYPE2
 62
     6
100
AcDbLine
 10
2228.75
 20
1433.500000000001
 30
0.0
 11
2239.250000000004
 21
1424.500000000001
 31
0.0
  0
LINE
  5
308
330
1F
100
AcDbEntity
  8
化粧台
  6
EXLTYPE2
 62
     6
100
AcDbLine
 10
2226.587204742002
 20
1461.000000000001
 30
0.0
 11
2228.75
 21
1458.000000000001
 31
0.0
  0
LINE
  5
309
330
1F
100
AcDbEntity
  8
化粧台
  6
EXLTYPE2
 62
     6
100
AcDbLine
 10
2226.587204742002
 20
1478.000000000001
 30
0.0
 11
2226.587204742002
 21
1461.000000000001
 31
0.0
  0
LINE
  5
30A
330
1F
100
AcDbEntity
  8
化粧台
  6
EXLTYPE2
 62
     6
100
AcDbLine
 10
2228.75
 20
1458.000000000001
 30
0.0
 11
2228.75
 21
1433.500000000001
 31
0.0
  0
LINE
  5
30B
330
1F
100
AcDbEntity
  8
化粧台
  6
EXLTYPE2
 62
     6
100
AcDbLine
 10
2220.0
 20
1478.000000000001
 30
0.0
 11
2290.0
 21
1478.000000000001
 31
0.0
  0
LINE
  5
30C
330
1F
100
AcDbEntity
  8
化粧台
  6
EXLTYPE2
 62
     6
100
AcDbLine
 10
2228.75
 20
1458.000000000001
 30
0.0
 11
2281.25
 21
1458.000000000001
 31
0.0
  0
LINE
  5
30D
330
1F
100
AcDbEntity
  8
化粧台
  6
EXLTYPE2
 62
     6
100
AcDbLine
 10
2228.75
 20
1433.500000000001
 30
0.0
 11
2281.25
 21
1433.500000000001
 31
0.0
  0
LINE
  5
30E
330
1F
100
AcDbEntity
  8
化粧台
  6
EXLTYPE2
 62
     6
100
AcDbLine
 10
2239.250000000004
 20
1424.500000000001
 30
0.0
 11
2270.75
 21
1424.500000000001
 31
0.0
  0
LINE
  5
30F
330
1F
100
AcDbEntity
  8
化粧台
  6
EXLTYPE2
 62
     6
100
AcDbLine
 10
2372.0
 20
953.5000038146509
 30
0.0
 11
2372.0
 21
942.5000019073022
 31
0.0
  0
LINE
  5
310
330
1F
100
AcDbEntity
  8
化粧台
  6
EXLTYPE2
 62
     6
100
AcDbLine
 10
2378.500003814698
 20
938.5000019073022
 30
0.0
 11
2378.500003814698
 21
918.9999999999536
 31
0.0
  0
ARC
  5
311
330
1F
100
AcDbEntity
  8
化粧台
  6
EXLTYPE2
 62
     6
100
AcDbCircle
 10
2369.0
 20
953.5000038146509
 30
0.0
 40
3.000000000000002
100
AcDbArc
 50
359.9999949910431
 51
89.99999749552043
  0
ARC
  5
312
330
1F
100
AcDbEntity
  8
化粧台
  6
EXLTYPE2
 62
     6
100
AcDbCircle
 10
2373.0
 20
942.5000019073022
 30
0.0
 40
1.0
100
AcDbArc
 50
180.0
 51
270.0000000000002
  0
ARC
  5
313
330
1F
100
AcDbEntity
  8
化粧台
  6
EXLTYPE2
 62
     6
100
AcDbCircle
 10
2375.500003814698
 20
938.5000019073022
 30
0.0
 40
3.000000000000002
100
AcDbArc
 50
359.9999949910431
 51
89.99999749552043
  0
ARC
  5
314
330
1F
100
AcDbEntity
  8
化粧台
  6
EXLTYPE2
 62
     6
100
AcDbCircle
 10
2378.000003814698
 20
918.9999999999536
 30
0.0
 40
0.5
100
AcDbArc
 50
270.0000000000002
 51
0.0
  0
LINE
  5
315
330
1F
100
AcDbEntity
  8
化粧台
  6
EXLTYPE2
 62
     6
100
AcDbLine
 10
2367.999996185303
 20
974.3465188788914
 30
0.0
 11
2367.999996185303
 21
958.5465196418309
 31
0.0
  0
ARC
  5
316
330
1F
100
AcDbEntity
  8
化粧台
  6
EXLTYPE2
 62
     6
100
AcDbCircle
 10
2365.999996185303
 20
974.3465188788914
 30
0.0
 40
2.0
100
AcDbArc
 50
0.0000086514229809
 51
90.00000432571393
  0
LINE
  5
317
330
1F
100
AcDbEntity
  8
化粧台
  6
EXLTYPE2
 62
     6
100
AcDbLine
 10
2318.000000000004
 20
953.5000038146509
 30
0.0
 11
2318.000000000004
 21
942.5000019073022
 31
0.0
  0
LINE
  5
318
330
1F
100
AcDbEntity
  8
化粧台
  6
EXLTYPE2
 62
     6
100
AcDbLine
 10
2311.499996185307
 20
938.5000019073022
 30
0.0
 11
2311.499996185307
 21
918.9999999999536
 31
0.0
  0
ARC
  5
319
330
1F
100
AcDbEntity
  8
化粧台
  6
EXLTYPE2
 62
     6
100
AcDbCircle
 10
2321.000000000004
 20
953.5000038146509
 30
0.0
 40
3.000000000000002
100
AcDbArc
 50
90.00000250448174
 51
180.000005008957
  0
ARC
  5
31A
330
1F
100
AcDbEntity
  8
化粧台
  6
EXLTYPE2
 62
     6
100
AcDbCircle
 10
2317.000000000004
 20
942.5000019073022
 30
0.0
 40
1.0
100
AcDbArc
 50
270.0000000000002
 51
0.0
  0
ARC
  5
31B
330
1F
100
AcDbEntity
  8
化粧台
  6
EXLTYPE2
 62
     6
100
AcDbCircle
 10
2314.499996185307
 20
938.5000019073022
 30
0.0
 40
3.000000000000002
100
AcDbArc
 50
90.00000250448174
 51
180.000005008957
  0
ARC
  5
31C
330
1F
100
AcDbEntity
  8
化粧台
  6
EXLTYPE2
 62
     6
100
AcDbCircle
 10
2311.999996185307
 20
918.9999999999536
 30
0.0
 40
0.5
100
AcDbArc
 50
180.0
 51
270.0000000000002
  0
LINE
  5
31D
330
1F
100
AcDbEntity
  8
化粧台
  6
EXLTYPE2
 62
     6
100
AcDbLine
 10
2322.000003814701
 20
974.3465188788914
 30
0.0
 11
2322.000003814701
 21
958.5465196418309
 31
0.0
  0
ARC
  5
31E
330
1F
100
AcDbEntity
  8
化粧台
  6
EXLTYPE2
 62
     6
100
AcDbCircle
 10
2324.000003814701
 20
974.3465188788914
 30
0.0
 40
2.0
100
AcDbArc
 50
89.99999567428608
 51
179.9999913485771
  0
LINE
  5
31F
330
1F
100
AcDbEntity
  8
化粧台
  6
EXLTYPE2
 62
     6
100
AcDbLine
 10
2365.999996185303
 20
976.3465188788914
 30
0.0
 11
2324.000003814701
 21
976.3465188788914
 31
0.0
  0
LINE
  5
320
330
1F
100
AcDbEntity
  8
化粧台
  6
EXLTYPE2
 62
     6
100
AcDbLine
 10
2367.999996185303
 20
958.5465196418309
 30
0.0
 11
2322.000003814701
 21
958.5465196418309
 31
0.0
  0
LINE
  5
321
330
1F
100
AcDbEntity
  8
化粧台
  6
EXLTYPE2
 62
     6
100
AcDbLine
 10
2369.0
 20
956.5000038146509
 30
0.0
 11
2321.000000000004
 21
956.5000038146509
 31
0.0
  0
LINE
  5
322
330
1F
100
AcDbEntity
  8
化粧台
  6
EXLTYPE2
 62
     6
100
AcDbLine
 10
2375.500003814698
 20
941.5000019073022
 30
0.0
 11
2314.499996185307
 21
941.5000019073022
 31
0.0
  0
LINE
  5
323
330
1F
100
AcDbEntity
  8
化粧台
  6
EXLTYPE2
 62
     6
100
AcDbLine
 10
2378.000003814698
 20
918.4999999999536
 30
0.0
 11
2311.999996185303
 21
918.4999999999536
 31
0.0
  0
LINE
  5
324
330
1F
100
AcDbEntity
  8
化粧台
  6
EXLTYPE2
 62
     6
100
AcDbLine
 10
2236.750000000004
 20
1396.700000000002
 30
0.0
 11
2236.750000000004
 21
1356.611863703302
 31
0.0
  0
LINE
  5
325
330
1F
100
AcDbEntity
  8
化粧台
  6
EXLTYPE2
 62
     6
100
AcDbLine
 10
2273.250000000004
 20
1396.700000000002
 30
0.0
 11
2273.250000000004
 21
1356.611863703302
 31
0.0
  0
LINE
  5
326
330
1F
100
AcDbEntity
  8
化粧台
  6
EXLTYPE2
 62
     6
100
AcDbLine
 10
2236.750000000004
 20
1356.611863703302
 30
0.0
 11
2238.000000000004
 21
1355.611863671301
 31
0.0
  0
LINE
  5
327
330
1F
100
AcDbEntity
  8
化粧台
  6
EXLTYPE2
 62
     6
100
AcDbLine
 10
2272.000000000004
 20
1355.611863671301
 30
0.0
 11
2273.250000000004
 21
1356.611863703302
 31
0.0
  0
LINE
  5
328
330
1F
100
AcDbEntity
  8
化粧台
  6
EXLTYPE2
 62
     6
100
AcDbLine
 10
2238.0
 20
1355.611863671303
 30
0.0
 11
2272.000000000004
 21
1355.611863671303
 31
0.0
  0
LINE
  5
329
330
1F
100
AcDbEntity
  8
化粧台
  6
EXLTYPE2
 62
     6
100
AcDbLine
 10
2230.750000000004
 20
1396.700000000002
 30
0.0
 11
2279.250000000004
 21
1396.700000000002
 31
0.0
  0
LINE
  5
32A
330
1F
100
AcDbEntity
  8
化粧台
  6
EXLTYPE2
 62
     6
100
AcDbLine
 10
2230.750000000004
 20
1411.500000000001
 30
0.0
 11
2230.750000000004
 21
1396.700000000002
 31
0.0
  0
LINE
  5
32B
330
1F
100
AcDbEntity
  8
化粧台
  6
EXLTYPE2
 62
     6
100
AcDbLine
 10
2233.750000000004
 20
1414.500000000001
 30
0.0
 11
2276.250000000004
 21
1414.500000000001
 31
0.0
  0
LINE
  5
32C
330
1F
100
AcDbEntity
  8
化粧台
  6
EXLTYPE2
 62
     6
100
AcDbLine
 10
2279.250000000004
 20
1411.500000000001
 30
0.0
 11
2279.250000000004
 21
1396.700000000002
 31
0.0
  0
ARC
  5
32D
330
1F
100
AcDbEntity
  8
化粧台
  6
EXLTYPE2
 62
     6
100
AcDbCircle
 10
2233.750000000004
 20
1411.500000000001
 30
0.0
 40
3.000000000000002
100
AcDbArc
 50
90.00000000000004
 51
180.0
  0
ARC
  5
32E
330
1F
100
AcDbEntity
  8
化粧台
  6
EXLTYPE2
 62
     6
100
AcDbCircle
 10
2276.250000000004
 20
1411.500000000001
 30
0.0
 40
3.000000000000002
100
AcDbArc
 50
0.0
 51
90.00000000000004
  0
LINE
  5
32F
330
1F
100
AcDbEntity
  8
化粧台
  6
EXLTYPE2
 62
     6
100
AcDbLine
 10
2256.113888888908
 20
1282.611861335133
 30
0.0
 11
2286.113888888908
 21
1282.611861335133
 31
0.0
  0
LINE
  5
330
330
1F
100
AcDbEntity
  8
化粧台
  6
EXLTYPE2
 62
     6
100
AcDbLine
 10
2256.113888888904
 20
1285.381770843303
 30
0.0
 11
2286.113888888904
 21
1285.381770843303
 31
0.0
  0
LINE
  5
331
330
1F
100
AcDbEntity
  8
化粧台
  6
EXLTYPE2
 62
     6
100
AcDbLine
 10
2256.113888888908
 20
1285.381770843266
 30
0.0
 11
2256.113888888908
 21
1270.111865271302
 31
0.0
  0
LINE
  5
332
330
1F
100
AcDbEntity
  8
化粧台
  6
EXLTYPE2
 62
     6
100
AcDbLine
 10
2257.613888888908
 20
1268.611865271302
 30
0.0
 11
2284.613888888908
 21
1268.611865271302
 31
0.0
  0
LINE
  5
333
330
1F
100
AcDbEntity
  8
化粧台
  6
EXLTYPE2
 62
     6
100
AcDbLine
 10
2286.113888888908
 20
1285.38177084327
 30
0.0
 11
2286.113888888908
 21
1270.111865271302
 31
0.0
  0
ARC
  5
334
330
1F
100
AcDbEntity
  8
化粧台
  6
EXLTYPE2
 62
     6
100
AcDbCircle
 10
2257.613888888908
 20
1270.111865271302
 30
0.0
 40
1.5
100
AcDbArc
 50
180.0
 51
270.0000000000002
  0
ARC
  5
335
330
1F
100
AcDbEntity
  8
化粧台
  6
EXLTYPE2
 62
     6
100
AcDbCircle
 10
2284.613888888908
 20
1270.111865271302
 30
0.0
 40
1.5
100
AcDbArc
 50
270.0000000000002
 51
0.0
  0
LINE
  5
336
330
1F
100
AcDbEntity
  8
化粧台
  6
EXLTYPE2
 62
     6
100
AcDbLine
 10
2311.477777777804
 20
1358.811312276001
 30
0.0
 11
2311.477777777804
 21
1344.011312276002
 31
0.0
  0
ARC
  5
337
330
1F
100
AcDbEntity
  8
化粧台
  6
EXLTYPE2
 62
     6
100
AcDbCircle
 10
2308.477777777804
 20
1358.811312276001
 30
0.0
 40
3.000000000000002
100
AcDbArc
 50
0.0
 51
90.00000000000004
  0
LINE
  5
338
330
1F
100
AcDbEntity
  8
化粧台
  6
EXLTYPE2
 62
     6
100
AcDbLine
 10
2305.477777777804
 20
1344.011312276002
 30
0.0
 11
2305.477777777804
 21
1315.911862369002
 31
0.0
  0
ARC
  5
339
330
1F
100
AcDbEntity
  8
化粧台
  6
EXLTYPE2
 62
     6
100
AcDbCircle
 10
2304.477777777804
 20
1315.911862369002
 30
0.0
 40
1.0
100
AcDbArc
 50
270.0000000000002
 51
0.0
  0
LINE
  5
33A
330
1F
100
AcDbEntity
  8
化粧台
  6
EXLTYPE2
 62
     6
100
AcDbLine
 10
2238.000000000004
 20
1355.611863671303
 30
0.0
 11
2238.000000000004
 21
1323.895092151785
 31
0.0
  0
LINE
  5
33B
330
1F
100
AcDbEntity
  8
化粧台
  6
EXLTYPE2
 62
     6
100
AcDbLine
 10
2272.000000000004
 20
1355.611863671303
 30
0.0
 11
2272.000000000004
 21
1315.959506678352
 31
0.0
  0
LINE
  5
33C
330
1F
100
AcDbEntity
  8
化粧台
  6
EXLTYPE2
 62
     6
100
AcDbLine
 10
2298.400000000002
 20
1314.911862369002
 30
0.0
 11
2304.477777777804
 21
1314.911862369002
 31
0.0
  0
LINE
  5
33D
330
1F
100
AcDbEntity
  8
化粧台
  6
EXLTYPE2
 62
     6
100
AcDbLine
 10
2273.25
 20
1361.811312276001
 30
0.0
 11
2308.477777777804
 21
1361.811312276001
 31
0.0
  0
LINE
  5
33E
330
1F
100
AcDbEntity
  8
化粧台
  6
EXLTYPE2
 62
     6
100
AcDbLine
 10
2272.0
 20
1344.011312276002
 30
0.0
 11
2311.477777777804
 21
1344.011312276002
 31
0.0
  0
ARC
  5
33F
330
1F
100
AcDbEntity
  8
化粧台
  6
EXLTYPE2
 62
     6
100
AcDbCircle
 10
2273.847644335551
 20
1315.959506678352
 30
0.0
 40
1.847644335545738
100
AcDbArc
 50
179.9999999984488
 51
0.0
  0
ARC
  5
340
330
1F
100
AcDbEntity
  8
化粧台
  6
EXLTYPE2
 62
     6
100
AcDbCircle
 10
2288.000000000004
 20
1323.895092151785
 30
0.0
 40
50.00000000000004
100
AcDbArc
 50
180.0
 51
230.3778197205396
  0
ARC
  5
341
330
1F
100
AcDbEntity
  8
化粧台
  6
EXLTYPE2
 62
     6
100
AcDbCircle
 10
2264.705100939551
 20
1319.170286622183
 30
0.0
 40
40.0
100
AcDbArc
 50
302.3588120657595
 51
353.8886751333242
  0
LINE
  5
342
330
1F
100
AcDbEntity
  8
化粧台
  6
EXLTYPE2
 62
     6
100
AcDbLine
 10
2303.227777777815
 20
1383.025752473813
 30
0.0
 11
2303.227777777815
 21
1361.811312276001
 31
0.0
  0
ARC
  5
343
330
1F
100
AcDbEntity
  8
化粧台
  6
EXLTYPE2
 62
     6
100
AcDbCircle
 10
2316.113888888908
 20
1383.025752473813
 30
0.0
 40
12.88611111108913
100
AcDbArc
 50
0.0
 51
180.0
  0
ARC
  5
344
330
1F
100
AcDbEntity
  8
化粧台
  6
EXLTYPE2
 62
     6
100
AcDbCircle
 10
2316.1138888889
 20
1383.025752473834
 30
0.0
 40
44.88611111106731
100
AcDbArc
 50
0.0
 51
145.2127379158767
  0
LINE
  5
345
330
1F
100
AcDbEntity
  8
化粧台
  6
EXLTYPE2
 62
     6
100
AcDbLine
 10
2239.250000000004
 20
1424.500000000001
 30
0.0
 11
2239.250000000004
 21
1414.500000000001
 31
0.0
  0
LINE
  5
346
330
1F
100
AcDbEntity
  8
化粧台
  6
EXLTYPE2
 62
     6
100
AcDbLine
 10
2270.75
 20
1424.500000000001
 30
0.0
 11
2270.75
 21
1414.500000000001
 31
0.0
  0
LINE
  5
347
330
1F
100
AcDbEntity
  8
化粧台
  6
EXLTYPE2
 62
     6
100
AcDbLine
 10
2290.0
 20
1485.500000000001
 30
0.0
 11
2290.0
 21
1478.000000000001
 31
0.0
  0
LINE
  5
348
330
1F
100
AcDbEntity
  8
化粧台
  6
EXLTYPE2
 62
     6
100
AcDbLine
 10
2290.0
 20
1485.500000000001
 30
0.0
 11
2285.813953488374
 21
1488.500000000001
 31
0.0
  0
LINE
  5
349
330
1F
100
AcDbEntity
  8
化粧台
  6
EXLTYPE2
 62
     6
100
AcDbLine
 10
2329.0
 20
902.0000000000009
 30
0.0
 11
2329.0
 21
1383.025752473813
 31
0.0
  0
LINE
  5
34A
330
1F
100
AcDbEntity
  8
化粧台
  6
EXLTYPE2
 62
     6
100
AcDbLine
 10
2361.0
 20
902.0000000000009
 30
0.0
 11
2361.0
 21
1383.025752473834
 31
0.0
  0
LINE
  5
34B
330
1F
100
AcDbEntity
  8
化粧台
  6
EXLTYPE3
 62
     6
100
AcDbLine
 10
2375.750000000004
 20
1398.500000000001
 30
0.0
 11
2501.000000000004
 21
1398.500000000001
 31
0.0
  0
LINE
  5
34C
330
1F
100
AcDbEntity
  8
化粧台
  6
EXLTYPE4
 62
     6
100
AcDbLine
 10
2486.000000000004
 20
1382.500000000001
 30
0.0
 11
2390.750000000044
 21
1382.500000000001
 31
0.0
  0
LINE
  5
34D
330
1F
100
AcDbEntity
  8
化粧台
  6
EXLTYPE4
 62
     6
100
AcDbLine
 10
2486.000000000004
 20
1414.500000000001
 30
0.0
 11
2390.75
 21
1414.500000000001
 31
0.0
  0
LINE
  5
34E
330
1F
100
AcDbEntity
  8
化粧台
  6
CONTINUOUS
 62
     6
100
AcDbLine
 10
2486.000000000008
 20
1414.500000000001
 30
0.0
 11
2486.000000000008
 21
1382.500000000001
 31
0.0
  0
LINE
  5
34F
330
1F
100
AcDbEntity
  8
化粧台
  6
CONTINUOUS
 62
     6
100
AcDbLine
 10
2390.5
 20
890.5000000000009
 30
0.0
 11
2369.5
 21
890.5000000000009
 31
0.0
  0
ARC
  5
350
330
1F
100
AcDbEntity
  8
化粧台
  6
EXLTYPE2
 62
     6
100
AcDbCircle
 10
2430.5
 20
1268.343134832984
 30
0.0
 40
40.0
100
AcDbArc
 50
180.0
 51
194.3615115629165
  0
ARC
  5
351
330
1F
100
AcDbEntity
  8
化粧台
  6
EXLTYPE2
 62
     6
100
AcDbCircle
 10
2353.0
 20
1248.499999999999
 30
0.0
 40
40.0
100
AcDbArc
 50
352.1483099782984
 51
14.36151156291629
  0
ARC
  5
352
330
1F
100
AcDbEntity
  8
化粧台
  6
EXLTYPE2
 62
     6
100
AcDbCircle
 10
2432.25
 20
1237.571253502802
 30
0.0
 40
40.0
100
AcDbArc
 50
172.1483099782986
 51
180.0
  0
LINE
  5
353
330
1F
100
AcDbEntity
  8
化粧台
  6
EXLTYPE2
 62
     6
100
AcDbLine
 10
2392.250000000004
 20
1213.499999999997
 30
0.0
 11
2394.722431864343
 21
1214.927459202426
 31
0.0
  0
ARC
  5
354
330
1F
100
AcDbEntity
  8
化粧台
  6
EXLTYPE2
 62
     6
100
AcDbCircle
 10
2399.75
 20
1228.365389352174
 30
0.0
 40
7.500000000000004
100
AcDbArc
 50
180.0
 51
227.9065017039047
  0
LINE
  5
355
330
1F
100
AcDbEntity
  8
化粧台
  6
EXLTYPE2
 62
     6
100
AcDbLine
 10
2392.25
 20
1237.571253502802
 30
0.0
 11
2392.25
 21
1228.365389352174
 31
0.0
  0
LINE
  5
356
330
1F
100
AcDbEntity
  8
化粧台
  6
EXLTYPE2
 62
     6
100
AcDbLine
 10
2394.722431864343
 20
1214.927459202429
 30
0.0
 11
2394.722431864343
 21
1222.8
 31
0.0
  0
LINE
  5
357
330
1F
100
AcDbEntity
  8
化粧台
  6
EXLTYPE2
 62
     6
100
AcDbLine
 10
2367.75
 20
1213.499999999997
 30
0.0
 11
2365.277568135662
 21
1214.927459202426
 31
0.0
  0
ARC
  5
358
330
1F
100
AcDbEntity
  8
化粧台
  6
EXLTYPE2
 62
     6
100
AcDbCircle
 10
2360.25
 20
1228.365389352174
 30
0.0
 40
7.500000000000004
100
AcDbArc
 50
312.0934982960959
 51
0.0
  0
LINE
  5
359
330
1F
100
AcDbEntity
  8
化粧台
  6
EXLTYPE2
 62
     6
100
AcDbLine
 10
2365.277568135662
 20
1214.927459202429
 30
0.0
 11
2365.277568135662
 21
1222.8
 31
0.0
  0
LINE
  5
35A
330
1F
100
AcDbEntity
  8
化粧台
  6
EXLTYPE2
 62
     6
100
AcDbLine
 10
2392.250000000011
 20
1213.499999999999
 30
0.0
 11
2367.749999999993
 21
1213.499999999999
 31
0.0
  0
ARC
  5
35B
330
1F
100
AcDbEntity
  8
化粧台
  6
EXLTYPE2
 62
     6
100
AcDbCircle
 10
2362.0
 20
1267.999999999999
 30
0.0
 40
7.500000000000004
100
AcDbArc
 50
270.0000000000002
 51
0.0
  0
ARC
  5
35C
330
1F
100
AcDbEntity
  8
化粧台
  6
EXLTYPE2
 62
     6
100
AcDbCircle
 10
2360.25
 20
1228.999999999999
 30
0.0
 40
7.500000000000004
100
AcDbArc
 50
0.0
 51
90.00000000000004
  0
LINE
  5
35D
330
1F
100
AcDbEntity
  8
化粧台
  6
EXLTYPE2
 62
     6
100
AcDbLine
 10
2367.75
 20
1228.999999999999
 30
0.0
 11
2367.75
 21
1228.365389352174
 31
0.0
  0
LINE
  5
35E
330
1F
100
AcDbEntity
  8
化粧台
  6
EXLTYPE2
 62
     6
100
AcDbLine
 10
2356.5
 20
1260.499999999999
 30
0.0
 11
2362.0
 21
1260.499999999999
 31
0.0
  0
LINE
  5
35F
330
1F
100
AcDbEntity
  8
化粧台
  6
EXLTYPE2
 62
     6
100
AcDbLine
 10
2356.5
 20
1236.499999999999
 30
0.0
 11
2360.25
 21
1236.499999999999
 31
0.0
  0
LINE
  5
360
330
1F
100
AcDbEntity
  8
化粧台
  6
EXLTYPE2
 62
     6
100
AcDbLine
 10
2343.600000000003
 20
1253.8
 30
0.0
 11
2343.600000000003
 21
1243.2
 31
0.0
  0
LINE
  5
361
330
1F
100
AcDbEntity
  8
化粧台
  6
EXLTYPE2
 62
     6
100
AcDbLine
 10
2356.5
 20
1261.249999999999
 30
0.0
 11
2356.5
 21
1235.749999999999
 31
0.0
  0
ARC
  5
362
330
1F
100
AcDbEntity
  8
化粧台
  6
EXLTYPE2
 62
     6
100
AcDbCircle
 10
2352.725082782363
 20
1257.249999999999
 30
0.0
 40
5.5
100
AcDbArc
 50
46.65824177280092
 51
142.8123740608005
  0
LINE
  5
363
330
1F
100
AcDbEntity
  8
化粧台
  6
EXLTYPE2
 62
     6
100
AcDbLine
 10
2343.600000000003
 20
1253.8
 30
0.0
 11
2348.343450177723
 21
1260.57434891639
 31
0.0
  0
ARC
  5
364
330
1F
100
AcDbEntity
  8
化粧台
  6
EXLTYPE2
 62
     6
100
AcDbCircle
 10
2352.725082782363
 20
1239.749999999999
 30
0.0
 40
5.5
100
AcDbArc
 50
217.1876259391994
 51
313.3417582272003
  0
LINE
  5
365
330
1F
100
AcDbEntity
  8
化粧台
  6
EXLTYPE2
 62
     6
100
AcDbLine
 10
2343.600000000003
 20
1243.2
 30
0.0
 11
2348.343450177723
 21
1236.42565108361
 31
0.0
  0
LINE
  5
366
330
1F
100
AcDbEntity
  8
化粧台
  6
EXLTYPE2
 62
     6
100
AcDbLine
 10
2348.343450177723
 20
1260.57434891639
 30
0.0
 11
2348.343450177723
 21
1236.42565108351
 31
0.0
  0
ARC
  5
367
330
1F
100
AcDbEntity
  8
化粧台
  6
EXLTYPE2
 62
     6
100
AcDbCircle
 10
2381.75
 20
1277.2
 30
0.0
 40
11.0
100
AcDbArc
 50
326.9442688491002
 51
33.05573115089992
  0
LINE
  5
368
330
1F
100
AcDbEntity
  8
化粧台
  6
EXLTYPE2
 62
     6
100
AcDbLine
 10
2390.96954445729
 20
1271.2
 30
0.0
 11
2369.030455542711
 21
1271.2
 31
0.0
  0
LINE
  5
369
330
1F
100
AcDbEntity
  8
化粧台
  6
EXLTYPE2
 62
     6
100
AcDbLine
 10
2390.96954445729
 20
1283.2
 30
0.0
 11
2369.030455542711
 21
1283.2
 31
0.0
  0
ARC
  5
36A
330
1F
100
AcDbEntity
  8
化粧台
  6
EXLTYPE2
 62
     6
100
AcDbCircle
 10
2378.25
 20
1277.2
 30
0.0
 40
11.0
100
AcDbArc
 50
146.9442688491499
 51
213.0557311508992
  0
LINE
  5
36B
330
1F
100
AcDbEntity
  8
化粧台
  6
EXLTYPE2
 62
     6
100
AcDbLine
 10
2369.5
 20
1271.2
 30
0.0
 11
2369.5
 21
1267.999999999999
 31
0.0
  0
LINE
  5
36C
330
1F
100
AcDbEntity
  8
化粧台
  6
EXLTYPE2
 62
     6
100
AcDbLine
 10
2390.5
 20
1271.2
 30
0.0
 11
2390.5
 21
1268.34313483298
 31
0.0
  0
LINE
  5
36D
330
1F
100
AcDbEntity
  8
化粧台
  6
EXLTYPE2
 62
     6
100
AcDbLine
 10
2338.0
 20
1243.749999999999
 30
0.0
 11
2343.600000000003
 21
1243.749999999999
 31
0.0
  0
LINE
  5
36E
330
1F
100
AcDbEntity
  8
化粧台
  6
EXLTYPE2
 62
     6
100
AcDbLine
 10
2338.0
 20
1253.249999999999
 30
0.0
 11
2343.600000000003
 21
1253.249999999999
 31
0.0
  0
LINE
  5
36F
330
1F
100
AcDbEntity
  8
化粧台
  6
EXLTYPE2
 62
     6
100
AcDbLine
 10
2338.0
 20
1253.249999999999
 30
0.0
 11
2338.0
 21
1243.749999999999
 31
0.0
  0
LINE
  5
370
330
1F
100
AcDbEntity
  8
化粧台
  6
EXLTYPE3
 62
     6
100
AcDbLine
 10
2380.0
 20
1298.2
 30
0.0
 11
2380.0
 21
875.5000000000009
 31
0.0
  0
LINE
  5
371
330
1F
100
AcDbEntity
  8
化粧台
  6
CONTINUOUS
 62
     6
100
AcDbLine
 10
2369.500000000004
 20
902.0000000000009
 30
0.0
 11
2369.500000000004
 21
890.5000000000009
 31
0.0
  0
LINE
  5
372
330
1F
100
AcDbEntity
  8
化粧台
  6
CONTINUOUS
 62
     6
100
AcDbLine
 10
2390.5
 20
902.0000000000009
 30
0.0
 11
2390.5
 21
890.5000000000009
 31
0.0
  0
LINE
  5
373
330
1F
100
AcDbEntity
  8
化粧台
  6
EXLTYPE2
 62
     6
100
AcDbLine
 10
2390.5
 20
1213.499999999999
 30
0.0
 11
2390.5
 21
902.0000000000009
 31
0.0
  0
LINE
  5
374
330
1F
100
AcDbEntity
  8
化粧台
  6
EXLTYPE2
 62
     6
100
AcDbLine
 10
2369.500000000004
 20
1213.499999999999
 30
0.0
 11
2369.500000000004
 21
902.0000000000009
 31
0.0
  0
LINE
  5
375
330
1F
100
AcDbEntity
  8
化粧台
  6
EXLTYPE2
 62
     6
100
AcDbLine
 10
2411.5
 20
1238.000000000001
 30
0.0
 11
2473.0
 21
1238.000000000001
 31
0.0
  0
LINE
  5
376
330
1F
100
AcDbEntity
  8
化粧台
  6
EXLTYPE2
 62
     6
100
AcDbLine
 10
2411.5
 20
1259.000000000001
 30
0.0
 11
2473.0
 21
1259.000000000001
 31
0.0
  0
LINE
  5
377
330
1F
100
AcDbEntity
  8
化粧台
  6
CONTINUOUS
 62
     6
100
AcDbLine
 10
2473.0
 20
1259.000000000001
 30
0.0
 11
2473.0
 21
1238.000000000001
 31
0.0
  0
LINE
  5
378
330
1F
100
AcDbEntity
  8
化粧台
  6
EXLTYPE3
 62
     6
100
AcDbLine
 10
2328.0
 20
1248.499999999999
 30
0.0
 11
2488.0
 21
1248.499999999999
 31
0.0
  0
LINE
  5
379
330
1F
100
AcDbEntity
  8
化粧台
  6
CONTINUOUS
 62
     2
100
AcDbLine
 10
2465.0
 20
1693.500000000001
 30
0.0
 11
2465.0
 21
902.0000000000009
 31
0.0
  0
ARC
  5
37A
330
1F
100
AcDbEntity
  8
化粧台
  6
CONTINUOUS
 62
     2
100
AcDbCircle
 10
2065.0
 20
1568.500000000001
 30
0.0
 40
5.0
100
AcDbArc
 50
270.0000000000002
 51
0.0000000000000573
  0
LINE
  5
37B
330
1F
100
AcDbEntity
  8
化粧台
  6
CONTINUOUS
 62
     2
100
AcDbLine
 10
1985.456008390888
 20
1671.413821614454
 30
0.0
 11
2033.662244080904
 21
1566.413821614454
 31
0.0
  0
LINE
  5
37C
330
1F
100
AcDbEntity
  8
化粧台
  6
CONTINUOUS
 62
     2
100
AcDbLine
 10
2065.0
 20
1563.500000000001
 30
0.0
 11
2038.206235690017
 21
1563.500000000001
 31
0.0
  0
LINE
  5
37D
330
1F
100
AcDbEntity
  8
化粧台
  6
CONTINUOUS
 62
     2
100
AcDbLine
 10
2465.0
 20
1693.500000000001
 30
0.0
 11
2445.385164807136
 21
1693.500000000001
 31
0.0
  0
ARC
  5
37E
330
1F
100
AcDbEntity
  8
化粧台
  6
CONTINUOUS
 62
     2
100
AcDbCircle
 10
2445.385164807136
 20
1688.500000000001
 30
0.0
 40
5.0
100
AcDbArc
 50
90.00000000000004
 51
158.1985905136498
  0
LINE
  5
37F
330
1F
100
AcDbEntity
  8
化粧台
  6
CONTINUOUS
 62
     2
100
AcDbLine
 10
2440.742781352711
 20
1690.356953381769
 30
0.0
 11
2439.257218647294
 21
1686.643046618229
 31
0.0
  0
ARC
  5
380
330
1F
100
AcDbEntity
  8
化粧台
  6
CONTINUOUS
 62
     2
100
AcDbCircle
 10
2434.614835192868
 20
1688.500000000001
 30
0.0
 40
5.0
100
AcDbArc
 50
270.0000000000002
 51
338.1985905136468
  0
ARC
  5
381
330
1F
100
AcDbEntity
  8
化粧台
  6
CONTINUOUS
 62
     2
100
AcDbCircle
 10
1990.0
 20
1673.500000000001
 30
0.0
 40
5.0
100
AcDbArc
 50
99.18802446073022
 51
204.6601868323252
  0
LINE
  5
382
330
1F
100
AcDbEntity
  8
化粧台
  6
CONTINUOUS
 62
     2
100
AcDbLine
 10
2015.000783419964
 20
1682.608866447044
 30
0.0
 11
1989.201625698534
 21
1678.435848303458
 31
0.0
  0
LINE
  5
383
330
1F
100
AcDbEntity
  8
化粧台
  6
CONTINUOUS
 62
     2
100
AcDbLine
 10
2070.0
 20
1618.499999999999
 30
0.0
 11
2070.0
 21
1568.500000000001
 31
0.0
  0
ARC
  5
384
330
1F
100
AcDbEntity
  8
化粧台
  6
CONTINUOUS
 62
     2
100
AcDbCircle
 10
2080.0
 20
1618.499999999999
 30
0.0
 40
10.0
100
AcDbArc
 50
90.00000000000004
 51
180.0000000000002
  0
LINE
  5
385
330
1F
100
AcDbEntity
  8
化粧台
  6
CONTINUOUS
 62
     2
100
AcDbLine
 10
2434.614835192868
 20
1683.500000000001
 30
0.0
 11
2026.091029917145
 21
1683.500000000001
 31
0.0
  0
ARC
  5
386
330
1F
100
AcDbEntity
  8
化粧台
  6
CONTINUOUS
 62
     2
100
AcDbCircle
 10
2038.206235690017
 20
1568.500000000001
 30
0.0
 40
5.0
100
AcDbArc
 50
186.2851239246986
 51
270.0000000000002
  0
LINE
  5
387
330
1F
100
AcDbEntity
  8
化粧台
  6
CONTINUOUS
 62
     2
100
AcDbLine
 10
2021.121082852224
 20
1677.952618805711
 30
0.0
 11
2033.236288625092
 21
1567.952618805711
 31
0.0
  0
ARC
  5
388
330
1F
100
AcDbEntity
  8
化粧台
  6
CONTINUOUS
 62
     2
100
AcDbCircle
 10
2026.091029917101
 20
1614.044817908453
 30
0.0
 40
69.45518209154604
100
AcDbArc
 50
89.99999999996061
 51
99.18802446073038
  0
ARC
  5
389
330
1F
100
AcDbEntity
  8
化粧台
  6
CONTINUOUS
 62
     2
100
AcDbCircle
 10
2026.091029917145
 20
1678.500000000001
 30
0.0
 40
5.0
100
AcDbArc
 50
90.00000000000004
 51
186.285123924698
  0
ARC
  5
38A
330
1F
100
AcDbEntity
  8
化粧台
  6
CONTINUOUS
 62
     6
100
AcDbCircle
 10
2078.0
 20
1581.438976509601
 30
0.0
 40
8.0
100
AcDbArc
 50
48.23744232788194
 51
180.0000000000002
  0
ARC
  5
38B
330
1F
100
AcDbEntity
  8
化粧台
  6
EXLTYPE2
 62
     6
100
AcDbCircle
 10
2205.468300600919
 20
1517.372533502713
 30
0.0
 40
9.0
100
AcDbArc
 50
7.786183226644878
 51
79.16788117503869
  0
LINE
  5
38C
330
1F
100
AcDbEntity
  8
化粧台
  6
EXLTYPE2
 62
     6
100
AcDbLine
 10
2214.385325453972
 20
1518.591823365718
 30
0.0
 11
2217.908937076777
 21
1492.822616742776
 31
0.0
  0
ARC
  5
38D
330
1F
100
AcDbEntity
  8
化粧台
  6
EXLTYPE2
 62
     6
100
AcDbCircle
 10
2222.862839772916
 20
1493.500000000001
 30
0.0
 40
5.0
100
AcDbArc
 50
187.786183226645
 51
270.0000000000002
  0
LINE
  5
38E
330
1F
100
AcDbEntity
  8
化粧台
  6
EXLTYPE2
 62
     6
100
AcDbLine
 10
2287.137160227085
 20
1488.500000000001
 30
0.0
 11
2222.862839772916
 21
1488.500000000001
 31
0.0
  0
ARC
  5
38F
330
1F
100
AcDbEntity
  8
化粧台
  6
EXLTYPE2
 62
     6
100
AcDbCircle
 10
2295.802605958994
 20
1488.50900307881
 30
0.0
 40
5.0
100
AcDbArc
 50
91.03671106963131
 51
150.0595460361044
  0
ARC
  5
390
330
1F
100
AcDbEntity
  8
化粧台
  6
EXLTYPE2
 62
     6
100
AcDbCircle
 10
2287.137160227085
 20
1493.500000000001
 30
0.0
 40
5.0
100
AcDbArc
 50
270.0000000000002
 51
330.0595460361045
  0
ARC
  5
391
330
1F
100
AcDbEntity
  8
化粧台
  6
EXLTYPE2
 62
     6
100
AcDbCircle
 10
2255.834059170866
 20
1780.597324059519
 30
0.0
 40
259.0
100
AcDbArc
 50
228.2374423278815
 51
259.1678811750384
  0
ARC
  5
392
330
1F
100
AcDbEntity
  8
化粧台
  6
EXLTYPE2
 62
     6
100
AcDbCircle
 10
2294.807489074589
 20
1543.500000000001
 30
0.0
 40
50.00000000000004
100
AcDbArc
 50
271.0367110696319
 51
309.3911978432377
  0
ARC
  5
393
330
1F
100
AcDbEntity
  8
化粧台
  6
EXLTYPE2
 62
     6
100
AcDbCircle
 10
2338.11388300841
 20
1553.500000000005
 30
0.0
 40
50.00000000000004
100
AcDbArc
 50
251.5650511770786
 51
270.0000000000002
  0
LINE
  5
394
330
1F
100
AcDbEntity
  8
化粧台
  6
EXLTYPE2
 62
     6
100
AcDbLine
 10
2125.711845828494
 20
1571.596051390502
 30
0.0
 11
2322.302494707565
 21
1506.065835097478
 31
0.0
  0
ARC
  5
395
330
1F
100
AcDbEntity
  8
化粧台
  6
EXLTYPE2
 62
     6
100
AcDbCircle
 10
2128.874123488662
 20
1581.082884371007
 30
0.0
 40
10.0
100
AcDbArc
 50
189.4623222080253
 51
251.5650511770781
  0
LINE
  5
396
330
1F
100
AcDbEntity
  8
化粧台
  6
EXLTYPE2
 62
     6
100
AcDbLine
 10
2110.833333333336
 20
1628.499999999999
 30
0.0
 11
2119.010184250343
 21
1579.438894497954
 31
0.0
  0
LINE
  5
397
330
1F
100
AcDbEntity
  8
化粧台
  6
EXLTYPE2
 62
     6
100
AcDbLine
 10
2455.0
 20
1503.500000000005
 30
0.0
 11
2338.11388300841
 21
1503.500000000005
 31
0.0
  0
ARC
  5
398
330
1F
100
AcDbEntity
  8
化粧台
  6
EXLTYPE2
 62
     6
100
AcDbCircle
 10
2455.0
 20
1513.500000000005
 30
0.0
 40
10.0
100
AcDbArc
 50
270.0000000000002
 51
0.0000000000000573
  0
LINE
  5
399
330
1F
100
AcDbEntity
  8
化粧台
  6
CONTINUOUS
 62
     2
100
AcDbLine
 10
2465.0
 20
1628.499999999999
 30
0.0
 11
2080.0
 21
1628.499999999999
 31
0.0
  0
LINE
  5
39A
330
1F
100
AcDbEntity
  8
化粧台
  6
CONTINUOUS
 62
     2
100
AcDbLine
 10
2075.0
 20
1627.160254037844
 30
0.0
 11
2075.0
 21
902.0000000000009
 31
0.0
  0
LINE
  5
39B
330
1F
100
AcDbEntity
  8
化粧台
  6
CONTINUOUS
 62
     6
100
AcDbLine
 10
2385.0
 20
1700.722387698
 30
0.0
 11
2385.0
 21
1660.722387698
 31
0.0
  0
LINE
  5
39C
330
1F
100
AcDbEntity
  8
化粧台
  6
EXLTYPE2
 62
     6
100
AcDbLine
 10
2372.999999999997
 20
1503.500000000005
 30
0.0
 11
2372.999999999997
 21
1283.200000000002
 31
0.0
  0
LINE
  5
39D
330
1F
100
AcDbEntity
  8
化粧台
  6
EXLTYPE2
 62
     6
100
AcDbLine
 10
2387.000000000008
 20
1283.200000000002
 30
0.0
 11
2387.000000000008
 21
1503.500000000005
 31
0.0
  0
LINE
  5
39E
330
1F
100
AcDbEntity
  8
化粧台
  6
CONTINUOUS
 62
     6
100
AcDbLine
 10
2329.0
 20
868.5000000000009
 30
0.0
 11
2361.0
 21
868.5000000000009
 31
0.0
  0
LINE
  5
39F
330
1F
100
AcDbEntity
  8
化粧台
  6
CONTINUOUS
 62
     6
100
AcDbLine
 10
2329.0
 20
868.5000000000009
 30
0.0
 11
2329.0
 21
902.0000000000009
 31
0.0
  0
LINE
  5
3A0
330
1F
100
AcDbEntity
  8
化粧台
  6
CONTINUOUS
 62
     6
100
AcDbLine
 10
2361.0
 20
868.5000000000009
 30
0.0
 11
2361.0
 21
902.0000000000009
 31
0.0
  0
LINE
  5
3A1
330
1F
100
AcDbEntity
  8
化粧台
  6
CONTINUOUS
 62
     6
100
AcDbLine
 10
907.9998859999998
 20
1720.600844698
 30
0.0
 11
907.9998859999998
 21
1729.892160698
 31
0.0
  0
LINE
  5
3A2
330
1F
100
AcDbEntity
  8
化粧台
  6
CONTINUOUS
 62
     6
100
AcDbLine
 10
931.9998859999998
 20
1720.600844698
 30
0.0
 11
931.9998859999998
 21
1729.892160698
 31
0.0
  0
ELLIPSE
  5
3A3
330
1F
100
AcDbEntity
  8
化粧台
  6
CONTINUOUS
 62
     6
100
AcDbEllipse
 10
919.9998859999998
 20
1720.600844698
 30
0.0
 11
12.0
 21
0.0
 31
0.0
210
0.0
220
0.0
230
1.0
 40
0.173667
 41
5.87204744485427
 42
9.835915823094709
  0
ARC
  5
3A4
330
1F
100
AcDbEntity
  8
化粧台
  6
CONTINUOUS
 62
     6
100
AcDbCircle
 10
913.9998859999998
 20
1737.049024698
 30
0.0
 40
10.0
100
AcDbArc
 50
163.3914570000001
 51
176.942005
  0
ARC
  5
3A5
330
1F
100
AcDbEntity
  8
化粧台
  6
CONTINUOUS
 62
     6
100
AcDbCircle
 10
919.9998859999998
 20
1717.970240698
 30
0.0
 40
30.00000000000002
100
AcDbArc
 50
90.00000000000004
 51
107.457603
  0
LINE
  5
3A6
330
1F
100
AcDbEntity
  8
化粧台
  6
CONTINUOUS
 62
     6
100
AcDbLine
 10
905.6603830000006
 20
1742.567421698001
 30
0.0
 11
900.3056359999994
 21
1734.475229698
 31
0.0
  0
LINE
  5
3A7
330
1F
100
AcDbEntity
  8
化粧台
  6
CONTINUOUS
 62
     6
100
AcDbLine
 10
904.0141249999999
 20
1734.915917698
 30
0.0
 11
904.0141249999999
 21
1737.582492698
 31
0.0
  0
ARC
  5
3A8
330
1F
100
AcDbEntity
  8
化粧台
  6
CONTINUOUS
 62
     6
100
AcDbCircle
 10
913.9998859999998
 20
1737.049024698
 30
0.0
 40
10.0
100
AcDbArc
 50
107.457603
 51
146.506687
  0
LINE
  5
3A9
330
1F
100
AcDbEntity
  8
化粧台
  6
CONTINUOUS
 62
     6
100
AcDbLine
 10
934.3393880000006
 20
1742.567421698001
 30
0.0
 11
939.694135
 21
1734.475229698
 31
0.0
  0
ARC
  5
3AA
330
1F
100
AcDbEntity
  8
化粧台
  6
CONTINUOUS
 62
     6
100
AcDbCircle
 10
925.9998859999998
 20
1737.049024698
 30
0.0
 40
10.0
100
AcDbArc
 50
33.49331300000004
 51
72.54239700000001
  0
ARC
  5
3AB
330
1F
100
AcDbEntity
  8
化粧台
  6
CONTINUOUS
 62
     6
100
AcDbCircle
 10
925.9998859999998
 20
1737.049024698
 30
0.0
 40
10.0
100
AcDbArc
 50
3.057995
 51
16.60854300000003
  0
ARC
  5
3AC
330
1F
100
AcDbEntity
  8
化粧台
  6
CONTINUOUS
 62
     6
100
AcDbCircle
 10
919.9998859999998
 20
1717.970240698
 30
0.0
 40
30.00000000000002
100
AcDbArc
 50
72.54239700000001
 51
90.00000000000004
  0
LINE
  5
3AD
330
1F
100
AcDbEntity
  8
化粧台
  6
CONTINUOUS
 62
     6
100
AcDbLine
 10
935.9856459999994
 20
1734.915917698
 30
0.0
 11
935.9856459999994
 21
1737.582492698
 31
0.0
  0
LINE
  5
3AE
330
1F
100
AcDbEntity
  8
化粧台
  6
CONTINUOUS
 62
     6
100
AcDbLine
 10
919.9998859999998
 20
1783.938663698
 30
0.0
 11
919.9998859999998
 21
1773.598663698
 31
0.0
  0
ELLIPSE
  5
3AF
330
1F
100
AcDbEntity
  8
化粧台
  6
CONTINUOUS
 62
     6
100
AcDbEllipse
 10
919.9998859999998
 20
1778.768663698
 30
0.0
 11
5.25
 21
0.0
 31
0.0
210
0.0
220
0.0
230
1.0
 40
0.9847620000000001
 41
0.0
 42
6.283185000000004
  0
LINE
  5
3B0
330
1F
100
AcDbEntity
  8
化粧台
  6
CONTINUOUS
 62
     6
100
AcDbLine
 10
911.9998859999998
 20
1801.883928698
 30
0.0
 11
911.9998859999998
 21
1798.600599698
 31
0.0
  0
LINE
  5
3B1
330
1F
100
AcDbEntity
  8
化粧台
  6
CONTINUOUS
 62
     6
100
AcDbLine
 10
927.9998859999998
 20
1801.883928698
 30
0.0
 11
927.9998859999998
 21
1798.600599698
 31
0.0
  0
ARC
  5
3B2
330
1F
100
AcDbEntity
  8
化粧台
  6
CONTINUOUS
 62
     6
100
AcDbCircle
 10
913.4669589999996
 20
1772.335266698
 30
0.0
 40
29.03292600000001
100
AcDbArc
 50
22.88048500000001
 51
50.45593600000003
  0
LINE
  5
3B3
330
1F
100
AcDbEntity
  8
化粧台
  6
CONTINUOUS
 62
     6
100
AcDbLine
 10
928.3350320000011
 20
1797.709350698
 30
0.0
 11
931.9513950000003
 21
1794.723577698
 31
0.0
  0
LINE
  5
3B4
330
1F
100
AcDbEntity
  8
化粧台
  6
CONTINUOUS
 62
     6
100
AcDbLine
 10
911.6647400000004
 20
1797.709350698
 30
0.0
 11
908.0483760000009
 21
1794.723577698
 31
0.0
  0
LINE
  5
3B5
330
1F
100
AcDbEntity
  8
化粧台
  6
CONTINUOUS
 62
     6
100
AcDbLine
 10
927.530398000001
 20
1797.986057698
 30
0.0
 11
911.9998859999998
 21
1797.986057698
 31
0.0
  0
ARC
  5
3B6
330
1F
100
AcDbEntity
  8
化粧台
  6
CONTINUOUS
 62
     6
100
AcDbCircle
 10
926.5328119999997
 20
1772.335266698
 30
0.0
 40
29.03292600000001
100
AcDbArc
 50
129.5440640000001
 51
158.021405
  0
ELLIPSE
  5
3B7
330
1F
100
AcDbEntity
  8
化粧台
  6
CONTINUOUS
 62
     6
100
AcDbEllipse
 10
919.9998859999998
 20
1717.023861698
 30
0.0
 11
3.000000000000002
 21
0.0
 31
0.0
210
0.0
220
0.0
230
1.0
 40
0.4226669999999997
 41
0.0
 42
3.141593000000003
  0
LINE
  5
3B8
330
1F
100
AcDbEntity
  8
化粧台
  6
CONTINUOUS
 62
     6
100
AcDbLine
 10
916.9998859999998
 20
1717.023861698
 30
0.0
 11
916.9998859999998
 21
1711.586141698001
 31
0.0
  0
LINE
  5
3B9
330
1F
100
AcDbEntity
  8
化粧台
  6
CONTINUOUS
 62
     6
100
AcDbLine
 10
922.9998859999998
 20
1717.023861698
 30
0.0
 11
922.9998859999998
 21
1711.586141698001
 31
0.0
  0
ELLIPSE
  5
3BA
330
1F
100
AcDbEntity
  8
化粧台
  6
CONTINUOUS
 62
     6
100
AcDbEllipse
 10
919.9998859999998
 20
1711.586141698001
 30
0.0
 11
3.000000000000002
 21
0.0
 31
0.0
210
0.0
220
0.0
230
1.0
 40
0.4226669999999997
 41
0.0
 42
6.283185000000005
  0
ARC
  5
3BB
330
1F
100
AcDbEntity
  8
化粧台
  6
CONTINUOUS
 62
     6
100
AcDbCircle
 10
919.9998859999998
 20
1113.755805698
 30
0.0
 40
585.010946
100
AcDbArc
 50
84.10152600000004
 51
85.90150700000002
  0
ARC
  5
3BC
330
1F
100
AcDbEntity
  8
化粧台
  6
CONTINUOUS
 62
     6
100
AcDbCircle
 10
963.2407540000006
 20
1717.219534698001
 30
0.0
 40
20.0
100
AcDbArc
 50
182.0
 51
265.901507
  0
ELLIPSE
  5
3BD
330
1F
100
AcDbEntity
  8
化粧台
  6
CONTINUOUS
 62
     6
100
AcDbEllipse
 10
919.9998859999998
 20
1720.600844698
 30
0.0
 11
12.0
 21
0.0
 31
0.0
210
0.0
220
0.0
230
1.0
 40
0.173667
 41
3.552730999999998
 42
5.872047000000019
  0
ELLIPSE
  5
3BE
330
1F
100
AcDbEntity
  8
化粧台
  6
CONTINUOUS
 62
     6
100
AcDbEllipse
 10
919.9998859999998
 20
1772.335266698
 30
0.0
 11
22.49999999999996
 21
0.0
 31
0.0
210
0.0
220
0.0
230
1.0
 40
0.1736440000000004
 41
3.141592999999999
 42
6.283185307179586
  0
ARC
  5
3BF
330
1F
100
AcDbEntity
  8
化粧台
  6
CONTINUOUS
 62
     6
100
AcDbCircle
 10
908.7221620000003
 20
1787.117543698
 30
0.0
 40
10.0
100
AcDbArc
 50
129.5440640000001
 51
170.5464760000001
  0
LINE
  5
3C0
330
1F
100
AcDbEntity
  8
化粧台
  6
CONTINUOUS
 62
     6
100
AcDbLine
 10
911.4928920000004
 20
1802.373033698001
 30
0.0
 11
902.3554470000001
 21
1794.828895698
 31
0.0
  0
ARC
  5
3C1
330
1F
100
AcDbEntity
  8
化粧台
  6
CONTINUOUS
 62
     6
100
AcDbCircle
 10
913.4029060000014
 20
1800.059627698
 30
0.0
 40
3.000000000000002
100
AcDbArc
 50
104.1423940000001
 51
129.5440640000001
  0
ARC
  5
3C2
330
1F
100
AcDbEntity
  8
化粧台
  6
CONTINUOUS
 62
     6
100
AcDbCircle
 10
919.9998859999998
 20
1773.877957698001
 30
0.0
 40
30.00000000000002
100
AcDbArc
 50
90.00000000000004
 51
104.1423940000001
  0
ARC
  5
3C3
330
1F
100
AcDbEntity
  8
化粧台
  6
CONTINUOUS
 62
     6
100
AcDbCircle
 10
926.5968650000016
 20
1800.059627698
 30
0.0
 40
3.000000000000002
100
AcDbArc
 50
50.45593600000003
 51
75.85760600000002
  0
ARC
  5
3C4
330
1F
100
AcDbEntity
  8
化粧台
  6
CONTINUOUS
 62
     6
100
AcDbCircle
 10
919.9998859999998
 20
1773.877957698001
 30
0.0
 40
30.00000000000002
100
AcDbArc
 50
75.85760600000002
 51
90.00000000000004
  0
ARC
  5
3C5
330
1F
100
AcDbEntity
  8
化粧台
  6
CONTINUOUS
 62
     6
100
AcDbCircle
 10
931.2776099999994
 20
1787.117543698
 30
0.0
 40
10.0
100
AcDbArc
 50
9.453523999999977
 51
50.45593600000003
  0
LINE
  5
3C6
330
1F
100
AcDbEntity
  8
化粧台
  6
CONTINUOUS
 62
     6
100
AcDbLine
 10
928.5068790000007
 20
1802.373033698001
 30
0.0
 11
937.644324000001
 21
1794.828895698
 31
0.0
  0
ARC
  5
3C7
330
1F
100
AcDbEntity
  8
化粧台
  6
CONTINUOUS
 62
     6
100
AcDbCircle
 10
842.4998859999998
 20
1772.335266698
 30
0.0
 40
100.0000000000001
100
AcDbArc
 50
0.0
 51
9.453523999999977
  0
ARC
  5
3C8
330
1F
100
AcDbEntity
  8
化粧台
  6
CONTINUOUS
 62
     6
100
AcDbCircle
 10
997.4998859999998
 20
1772.335266698
 30
0.0
 40
100.0000000000001
100
AcDbArc
 50
170.5464760000001
 51
180.0
  0
ARC
  5
3C9
330
1F
100
AcDbEntity
  8
化粧台
  6
CONTINUOUS
 62
     6
100
AcDbCircle
 10
920.9998859999998
 20
1766.721862698
 30
0.0
 40
20.0
100
AcDbArc
 50
0.0
 51
11.64634399999997
  0
ARC
  5
3CA
330
1F
100
AcDbEntity
  8
化粧台
  6
CONTINUOUS
 62
     6
100
AcDbCircle
 10
918.9998859999998
 20
1766.721862698
 30
0.0
 40
20.0
100
AcDbArc
 50
168.3536560000001
 51
180.0
  0
ARC
  5
3CB
330
1F
100
AcDbEntity
  8
化粧台
  6
CONTINUOUS
 62
     6
100
AcDbCircle
 10
897.9900880000007
 20
1670.724387698
 30
0.0
 40
50.00000000000004
100
AcDbArc
 50
157.978777
 51
168.465379
  0
ARC
  5
3CC
330
1F
100
AcDbEntity
  8
化粧台
  6
CONTINUOUS
 62
     6
100
AcDbCircle
 10
860.9082870000004
 20
1685.722387698001
 30
0.0
 40
10.0
100
AcDbArc
 50
95.89847400000004
 51
157.978777
  0
ARC
  5
3CD
330
1F
100
AcDbEntity
  8
化粧台
  6
CONTINUOUS
 62
     6
100
AcDbCircle
 10
919.9998859999998
 20
1113.755805698
 30
0.0
 40
585.010946
100
AcDbArc
 50
94.09849300000003
 51
95.89847400000004
  0
LINE
  5
3CE
330
1F
100
AcDbEntity
  8
化粧台
  6
CONTINUOUS
 62
     6
100
AcDbLine
 10
898.4998859999998
 20
1766.722387698001
 30
0.0
 11
896.7468329999995
 21
1716.521544698
 31
0.0
  0
ARC
  5
3CF
330
1F
100
AcDbEntity
  8
化粧台
  6
CONTINUOUS
 62
     6
100
AcDbCircle
 10
876.7590170000005
 20
1717.219534698001
 30
0.0
 40
20.0
100
AcDbArc
 50
274.098493
 51
358.0000000000003
  0
ARC
  5
3D0
330
1F
100
AcDbEntity
  8
化粧台
  6
CONTINUOUS
 62
     6
100
AcDbCircle
 10
888.7704980000001
 20
1688.722387698001
 30
0.0
 40
8.0
100
AcDbArc
 50
270.0000000000002
 51
350.1125760000001
  0
LINE
  5
3D1
330
1F
100
AcDbEntity
  8
化粧台
  6
CONTINUOUS
 62
     6
100
AcDbLine
 10
904.0072070000008
 20
1729.548671698
 30
0.0
 11
896.6516749999994
 21
1687.348684698
 31
0.0
  0
ELLIPSE
  5
3D2
330
1F
100
AcDbEntity
  8
化粧台
  6
CONTINUOUS
 62
     6
100
AcDbEllipse
 10
919.9998859999998
 20
1729.464639698001
 30
0.0
 11
-12.25
 21
1.500192328955508E-15
 31
0.0
210
0.0
220
0.0
230
1.0
 40
0.173633
 41
4.712388983790555
 42
6.485561307179584
  0
ELLIPSE
  5
3D3
330
1F
100
AcDbEntity
  8
化粧台
  6
CONTINUOUS
 62
     6
100
AcDbEllipse
 10
919.9998859999998
 20
1729.464639698001
 30
0.0
 11
-16.0
 21
1.959434878635765E-15
 31
0.0
210
0.0
220
0.0
230
1.0
 40
0.173625
 41
4.712388983790397
 42
6.252931
  0
ELLIPSE
  5
3D4
330
1F
100
AcDbEntity
  8
化粧台
  6
CONTINUOUS
 62
     6
100
AcDbEllipse
 10
919.9998859999998
 20
1766.722387698001
 30
0.0
 11
-21.49999999999999
 21
2.632990618166808E-15
 31
0.0
210
0.0
220
0.0
230
1.0
 40
0.1736510000000002
 41
6.063917000000006
 42
7.853981307179586
  0
ELLIPSE
  5
3D5
330
1F
100
AcDbEntity
  8
化粧台
  6
CONTINUOUS
 62
     6
100
AcDbEllipse
 10
919.9998859999998
 20
1729.464639698001
 30
0.0
 11
12.25
 21
0.0
 31
0.0
210
0.0
220
0.0
230
1.0
 40
0.173633
 41
6.080809999999998
 42
7.853981307179586
  0
ELLIPSE
  5
3D6
330
1F
100
AcDbEntity
  8
化粧台
  6
CONTINUOUS
 62
     6
100
AcDbEllipse
 10
919.9998859999998
 20
1729.464639698001
 30
0.0
 11
16.0
 21
0.0
 31
0.0
210
0.0
220
0.0
230
1.0
 40
0.173625
 41
0.0302539999999974
 42
1.570796
  0
ELLIPSE
  5
3D7
330
1F
100
AcDbEntity
  8
化粧台
  6
CONTINUOUS
 62
     6
100
AcDbEllipse
 10
919.9998859999998
 20
1766.722387698001
 30
0.0
 11
21.49999999999999
 21
0.0
 31
0.0
210
0.0
220
0.0
230
1.0
 40
0.1736510000000002
 41
4.712388983790908
 42
6.502454307179588
  0
ARC
  5
3D8
330
1F
100
AcDbEntity
  8
化粧台
  6
CONTINUOUS
 62
     6
100
AcDbCircle
 10
951.2292730000011
 20
1688.722387698001
 30
0.0
 40
8.0
100
AcDbArc
 50
189.887424
 51
270.0000000000002
  0
LINE
  5
3D9
330
1F
100
AcDbEntity
  8
化粧台
  6
CONTINUOUS
 62
     6
100
AcDbLine
 10
935.9925640000004
 20
1729.548671698
 30
0.0
 11
943.3480959999999
 21
1687.348684698
 31
0.0
  0
LINE
  5
3DA
330
1F
100
AcDbEntity
  8
化粧台
  6
CONTINUOUS
 62
     6
100
AcDbLine
 10
941.4998859999998
 20
1766.722387698001
 30
0.0
 11
943.2529379999999
 21
1716.521544698
 31
0.0
  0
ARC
  5
3DB
330
1F
100
AcDbEntity
  8
化粧台
  6
CONTINUOUS
 62
     6
100
AcDbCircle
 10
979.0914840000007
 20
1685.722387698001
 30
0.0
 40
10.0
100
AcDbArc
 50
22.02122299999999
 51
84.10152600000004
  0
ARC
  5
3DC
330
1F
100
AcDbEntity
  8
化粧台
  6
CONTINUOUS
 62
     6
100
AcDbCircle
 10
942.0096830000005
 20
1670.724387698
 30
0.0
 40
50.00000000000004
100
AcDbArc
 50
11.53462100000001
 51
22.02122299999999
  0
LINE
  5
3DD
330
1F
100
AcDbEntity
  8
化粧台
  6
CONTINUOUS
 62
     6
100
AcDbLine
 10
2252.202026724623
 20
1715.782562725866
 30
0.0
 11
2276.023134421951
 21
1712.857698508133
 31
0.0
  0
LINE
  5
3DE
330
1F
100
AcDbEntity
  8
化粧台
  6
CONTINUOUS
 62
     6
100
AcDbLine
 10
2312.354636050605
 20
1706.551720227623
 30
0.0
 11
2306.791532806743
 21
1708.7993594611
 31
0.0
  0
LINE
  5
3DF
330
1F
100
AcDbEntity
  8
化粧台
  6
CONTINUOUS
 62
     6
100
AcDbLine
 10
2312.354636058761
 20
1706.551720247812
 30
0.0
 11
2314.588731145716
 21
1712.081299911555
 31
0.0
  0
LINE
  5
3E0
330
1F
100
AcDbEntity
  8
化粧台
  6
CONTINUOUS
 62
     6
100
AcDbLine
 10
2309.025636605671
 20
1714.328961381059
 30
0.0
 11
2306.791532806743
 21
1708.7993594611
 31
0.0
  0
LINE
  5
3E1
330
1F
100
AcDbEntity
  8
化粧台
  6
CONTINUOUS
 62
     6
100
AcDbLine
 10
2277.11995845769
 20
1721.790613520718
 30
0.0
 11
2276.023134421951
 21
1712.857698508132
 31
0.0
  0
LINE
  5
3E2
330
1F
100
AcDbEntity
  8
化粧台
  6
CONTINUOUS
 62
     6
100
AcDbLine
 10
2253.298850746462
 20
1724.715477641912
 30
0.0
 11
2252.202026724623
 21
1715.782562725866
 31
0.0
  0
CIRCLE
  5
3E3
330
1F
100
AcDbEntity
  8
化粧台
  6
CONTINUOUS
 62
     6
100
AcDbCircle
 10
2310.696904032433
 20
1710.457091496866
 30
0.0
 40
1.5
  0
ARC
  5
3E4
330
1F
100
AcDbEntity
  8
化粧台
  6
CONTINUOUS
 62
     6
100
AcDbCircle
 10
2337.533546075873
 20
1771.192346376543
 30
0.0
 40
22.0
100
AcDbArc
 50
18.24395800000002
 51
77.50271000000004
  0
LINE
  5
3E5
330
1F
100
AcDbEntity
  8
化粧台
  6
CONTINUOUS
 62
     6
100
AcDbLine
 10
2337.274473393322
 20
1769.959802401284
 30
0.0
 11
2358.427654004012
 21
1778.079747438593
 31
0.0
  0
ARC
  5
3E6
330
1F
100
AcDbEntity
  8
化粧台
  6
CONTINUOUS
 62
     6
100
AcDbCircle
 10
2339.42737261465
 20
1765.106298882836
 30
0.0
 40
20.0
100
AcDbArc
 50
11.60586999999998
 51
36.37487200000001
  0
ARC
  5
3E7
330
1F
100
AcDbEntity
  8
化粧台
  6
CONTINUOUS
 62
     6
100
AcDbCircle
 10
2337.467095555531
 20
1764.65373368357
 30
0.0
 40
20.0
100
AcDbArc
 50
177.8901640000001
 51
194.3941300000002
  0
ARC
  5
3E8
330
1F
100
AcDbEntity
  8
化粧台
  6
CONTINUOUS
 62
     6
100
AcDbCircle
 10
2315.969609612039
 20
1774.678818229851
 30
0.0
 40
5.0
100
AcDbArc
 50
209.1482600000002
 51
248.9064870000001
  0
LINE
  5
3E9
330
1F
100
AcDbEntity
  8
化粧台
  6
CONTINUOUS
 62
     6
100
AcDbLine
 10
2311.040420552843
 20
1774.67938718667
 30
0.0
 11
2311.60279877609
 21
1772.243461437174
 31
0.0
  0
ARC
  5
3EA
330
1F
100
AcDbEntity
  8
化粧台
  6
CONTINUOUS
 62
     6
100
AcDbCircle
 10
2315.470496792172
 20
1776.84071248409
 30
0.0
 40
5.0
100
AcDbArc
 50
137.093513
 51
176.8517400000001
  0
LINE
  5
3EB
330
1F
100
AcDbEntity
  8
化粧台
  6
CONTINUOUS
 62
     6
100
AcDbLine
 10
2311.040420552843
 20
1774.67938718667
 30
0.0
 11
2310.478043380561
 21
1777.115311989874
 31
0.0
  0
ARC
  5
3EC
330
1F
100
AcDbEntity
  8
化粧台
  6
CONTINUOUS
 62
     6
100
AcDbCircle
 10
2252.684996123819
 20
1791.837693109152
 30
0.0
 40
0.5
100
AcDbArc
 50
193.0000000000002
 51
288.0000000000003
  0
ARC
  5
3ED
330
1F
100
AcDbEntity
  8
化粧台
  6
CONTINUOUS
 62
     6
100
AcDbCircle
 10
2251.762402116674
 20
1795.833886914288
 30
0.0
 40
0.5
100
AcDbArc
 50
97.17580200000003
 51
193.0000000000002
  0
ARC
  5
3EE
330
1F
100
AcDbEntity
  8
化粧台
  6
CONTINUOUS
 62
     6
100
AcDbCircle
 10
2272.434974668708
 20
1680.569106391072
 30
0.0
 40
114.0000000000001
100
AcDbArc
 50
74.84822900000002
 51
95.80090700000005
  0
ARC
  5
3EF
330
1F
100
AcDbEntity
  8
化粧台
  6
CONTINUOUS
 62
     6
100
AcDbCircle
 10
2300.642480274161
 20
1779.721547144212
 30
0.0
 40
11.0
100
AcDbArc
 50
14.29208799999998
 51
81.69195200000003
  0
LINE
  5
3F0
330
1F
100
AcDbEntity
  8
化粧台
  6
CONTINUOUS
 62
     6
100
AcDbLine
 10
2252.839504103719
 20
1791.36216473692
 30
0.0
 11
2260.912760605439
 21
1793.985325286298
 31
0.0
  0
ARC
  5
3F1
330
1F
100
AcDbEntity
  8
化粧台
  6
CONTINUOUS
 62
     6
100
AcDbCircle
 10
2286.051357146819
 20
1523.483895967177
 30
0.0
 40
275.0
100
AcDbArc
 50
78.198631
 51
97.17580200000003
  0
LINE
  5
3F2
330
1F
100
AcDbEntity
  8
化粧台
  6
CONTINUOUS
 62
     6
100
AcDbLine
 10
2252.197810963455
 20
1791.725217664229
 30
0.0
 11
2251.275216956307
 21
1795.721411469365
 31
0.0
  0
LINE
  5
3F3
330
1F
100
AcDbEntity
  8
化粧台
  6
CONTINUOUS
 62
     6
100
AcDbLine
 10
2315.351147377951
 20
1764.89840369923
 30
0.0
 11
2311.30202762787
 21
1782.43706426993
 31
0.0
  0
LINE
  5
3F4
330
1F
100
AcDbEntity
  8
化粧台
  6
CONTINUOUS
 62
     6
100
AcDbLine
 10
2337.274473393322
 20
1769.959802401284
 30
0.0
 11
2315.351147377951
 21
1764.89840369923
 31
0.0
  0
ARC
  5
3F5
330
1F
100
AcDbEntity
  8
化粧台
  6
CONTINUOUS
 62
     6
100
AcDbCircle
 10
2309.632447205277
 20
1748.190328220464
 30
0.0
 40
10.0
100
AcDbArc
 50
266.0000000000001
 51
10.99999999999999
  0
LINE
  5
3F6
330
1F
100
AcDbEntity
  8
化粧台
  6
CONTINUOUS
 62
     6
100
AcDbLine
 10
2317.607738086525
 20
1759.56944537964
 30
0.0
 11
2319.448719352411
 21
1750.098418181002
 31
0.0
  0
ARC
  5
3F7
330
1F
100
AcDbEntity
  8
化粧台
  6
CONTINUOUS
 62
     6
100
AcDbCircle
 10
2260.938598837016
 20
1731.546496309778
 30
0.0
 40
10.0
100
AcDbArc
 50
86.00000000000004
 51
161.8850040000001
  0
LINE
  5
3F8
330
1F
100
AcDbEntity
  8
化粧台
  6
CONTINUOUS
 62
     6
100
AcDbLine
 10
2261.636163168027
 20
1741.522136273954
 30
0.0
 11
2308.934882874266
 21
1738.214688256288
 31
0.0
  0
ARC
  5
3F9
330
1F
100
AcDbEntity
  8
化粧台
  6
CONTINUOUS
 62
     6
100
AcDbCircle
 10
2251.02331800072
 20
1726.506142976726
 30
0.0
 40
1.5
100
AcDbArc
 50
171.2276830000001
 51
263.0000000000003
  0
ARC
  5
3FA
330
1F
100
AcDbEntity
  8
化粧台
  6
CONTINUOUS
 62
     6
100
AcDbCircle
 10
2298.955974076919
 20
1719.109487508485
 30
0.0
 40
50.00000000000004
100
AcDbArc
 50
161.8850040000001
 51
171.2276830000001
  0
LINE
  5
3FB
330
1F
100
AcDbEntity
  8
化粧台
  6
CONTINUOUS
 62
     6
100
AcDbLine
 10
2250.840514271135
 20
1725.017323393236
 30
0.0
 11
2280.228054592714
 21
1721.408987318411
 31
0.0
  0
ARC
  5
3FC
330
1F
100
AcDbEntity
  8
化粧台
  6
CONTINUOUS
 62
     6
100
AcDbCircle
 10
2393.2571979875
 20
1720.55391777821
 30
0.0
 40
20.0
100
AcDbArc
 50
195.0000000000002
 51
267.1289420000001
  0
LINE
  5
3FD
330
1F
100
AcDbEntity
  8
化粧台
  6
CONTINUOUS
 62
     6
100
AcDbLine
 10
2359.505650526764
 20
1769.242340057763
 30
0.0
 11
2373.938681485983
 21
1715.377536693535
 31
0.0
  0
LINE
  5
3FE
330
1F
100
AcDbEntity
  8
化粧台
  6
CONTINUOUS
 62
     6
100
AcDbLine
 10
2317.607738086525
 20
1759.56944537964
 30
0.0
 11
2359.505650526764
 21
1769.242340057763
 31
0.0
  0
ARC
  5
3FF
330
1F
100
AcDbEntity
  8
化粧台
  6
CONTINUOUS
 62
     6
100
AcDbCircle
 10
2376.52563884746
 20
1686.201858327595
 30
0.0
 40
10.0
100
AcDbArc
 50
93.00000000000004
 51
159.5561590000002
  0
ARC
  5
400
330
1F
100
AcDbEntity
  8
化粧台
  6
CONTINUOUS
 62
     6
100
AcDbCircle
 10
2393.71330642065
 20
1687.102625816161
 30
0.0
 40
10.0
100
AcDbArc
 50
26.44384100000001
 51
93.00000000000004
  0
LINE
  5
401
330
1F
100
AcDbEntity
  8
化粧台
  6
CONTINUOUS
 62
     6
100
AcDbLine
 10
2376.002279285029
 20
1696.188153675141
 30
0.0
 11
2393.18994685822
 21
1697.088921163707
 31
0.0
  0
ARC
  5
402
330
1F
100
AcDbEntity
  8
化粧台
  6
CONTINUOUS
 62
     6
100
AcDbCircle
 10
2391.75454453348
 20
1690.591574622827
 30
0.0
 40
10.0
100
AcDbArc
 50
32.17751400000002
 51
87.128942
  0
LINE
  5
403
330
1F
100
AcDbEntity
  8
化粧台
  6
CONTINUOUS
 62
     6
100
AcDbLine
 10
869.0000000000002
 20
1713.500000000001
 30
0.0
 11
869.0000000000002
 21
1660.722387698
 31
0.0
  0
LINE
  5
404
330
1F
100
AcDbEntity
  8
化粧台
  6
CONTINUOUS
 62
     6
100
AcDbLine
 10
971.0000000000002
 20
1713.500000000001
 30
0.0
 11
971.0000000000002
 21
1660.722387698
 31
0.0
  0
LINE
  5
405
330
1F
100
AcDbEntity
  8
化粧台
  6
CONTINUOUS
 62
     2
100
AcDbLine
 10
625.0000000000002
 20
1693.500000000001
 30
0.0
 11
854.622688629139
 21
1693.500000000001
 31
0.0
  0
LINE
  5
406
330
1F
100
AcDbEntity
  8
化粧台
  6
CONTINUOUS
 62
     2
100
AcDbLine
 10
849.6497970378116
 20
1683.500000000001
 30
0.0
 11
625.240115294095
 21
1683.500000000001
 31
0.0
  0
LINE
  5
407
330
1F
100
AcDbEntity
  8
化粧台
  6
CONTINUOUS
 62
     2
100
AcDbLine
 10
1214.759884705906
 20
1683.500000000001
 30
0.0
 11
990.3499739621877
 21
1683.500000000001
 31
0.0
  0
LINE
  5
408
330
1F
100
AcDbEntity
  8
化粧台
  6
CONTINUOUS
 62
     2
100
AcDbLine
 10
985.3770823708621
 20
1693.500000000001
 30
0.0
 11
1214.999999999997
 21
1693.500000000001
 31
0.0
  0
ARC
  5
409
330
1F
100
AcDbEntity
  8
化粧台
  6
CONTINUOUS
 62
     6
100
AcDbCircle
 10
2414.00623894783
 20
1672.230292829468
 30
0.0
 40
50.00000000000004
100
AcDbArc
 50
159.5561589999998
 51
166.9739437118868
  0
ARC
  5
40A
330
1F
100
AcDbEntity
  8
化粧台
  6
CONTINUOUS
 62
     6
100
AcDbCircle
 10
2264.99438686853
 20
1597.340718500503
 30
0.0
 40
125.0000000000001
100
AcDbArc
 50
43.57268704885334
 51
83.00000100000001
  0
ARC
  5
40B
330
1F
100
AcDbEntity
  8
化粧台
  6
CONTINUOUS
 62
     6
100
AcDbCircle
 10
2357.898455240251
 20
1669.28980848486
 30
0.0
 40
50.00000000000004
100
AcDbArc
 50
16.511263581083
 51
32.17751400000008
  0
LINE
  5
40C
330
1F
100
AcDbEntity
  8
化粧台
  6
EXLTYPE3
 62
     6
100
AcDbLine
 10
920.0000000000002
 20
1818.877957698
 30
0.0
 11
920.0000000000002
 21
853.5000000000009
 31
0.0
  0
LINE
  5
40D
330
1F
100
AcDbEntity
  8
鏡台
  6
CONTINUOUS
 62
     2
100
AcDbLine
 10
620.0000000000002
 20
2588.5
 30
0.0
 11
1220.0
 21
2588.5
 31
0.0
  0
LINE
  5
40E
330
1F
100
AcDbEntity
  8
鏡台
  6
CONTINUOUS
 62
     2
100
AcDbLine
 10
732.5000000000002
 20
1827.5
 30
0.0
 11
732.5000000000002
 21
1826.500000000033
 31
0.0
  0
LINE
  5
40F
330
1F
100
AcDbEntity
  8
鏡台
  6
CONTINUOUS
 62
     2
100
AcDbLine
 10
717.5000000000002
 20
1827.5
 30
0.0
 11
717.5000000000002
 21
1826.500000000033
 31
0.0
  0
ARC
  5
410
330
1F
100
AcDbEntity
  8
鏡台
  6
CONTINUOUS
 62
     2
100
AcDbCircle
 10
725.0000000000002
 20
1827.5
 30
0.0
 40
7.500000000000006
100
AcDbArc
 50
0.0
 51
180.0
  0
LINE
  5
411
330
1F
100
AcDbEntity
  8
鏡台
  6
CONTINUOUS
 62
     2
100
AcDbLine
 10
717.5000000000002
 20
1826.500000000033
 30
0.0
 11
732.5000000000002
 21
1826.500000000033
 31
0.0
  0
LINE
  5
412
330
1F
100
AcDbEntity
  8
鏡台
  6
CONTINUOUS
 62
     2
100
AcDbLine
 10
922.5000000000002
 20
1827.5
 30
0.0
 11
922.5000000000002
 21
1826.500000000033
 31
0.0
  0
LINE
  5
413
330
1F
100
AcDbEntity
  8
鏡台
  6
CONTINUOUS
 62
     2
100
AcDbLine
 10
937.5000000000002
 20
1827.5
 30
0.0
 11
937.5000000000002
 21
1826.500000000033
 31
0.0
  0
ARC
  5
414
330
1F
100
AcDbEntity
  8
鏡台
  6
CONTINUOUS
 62
     2
100
AcDbCircle
 10
930.0000000000002
 20
1827.5
 30
0.0
 40
7.500000000000006
100
AcDbArc
 50
0.0
 51
180.0
  0
LINE
  5
415
330
1F
100
AcDbEntity
  8
鏡台
  6
CONTINUOUS
 62
     2
100
AcDbLine
 10
937.5000000000002
 20
1826.500000000033
 30
0.0
 11
922.5000000000002
 21
1826.500000000033
 31
0.0
  0
LINE
  5
416
330
1F
100
AcDbEntity
  8
鏡台
  6
CONTINUOUS
 62
     2
100
AcDbLine
 10
732.5000000000002
 20
2587.5
 30
0.0
 11
732.5000000000002
 21
2588.499999999967
 31
0.0
  0
LINE
  5
417
330
1F
100
AcDbEntity
  8
鏡台
  6
CONTINUOUS
 62
     2
100
AcDbLine
 10
717.5000000000002
 20
2587.5
 30
0.0
 11
717.5000000000002
 21
2588.499999999967
 31
0.0
  0
ARC
  5
418
330
1F
100
AcDbEntity
  8
鏡台
  6
CONTINUOUS
 62
     2
100
AcDbCircle
 10
725.0000000000002
 20
2587.5
 30
0.0
 40
7.500000000000006
100
AcDbArc
 50
180.0
 51
0.0
  0
LINE
  5
419
330
1F
100
AcDbEntity
  8
鏡台
  6
CONTINUOUS
 62
     2
100
AcDbLine
 10
717.5000000000002
 20
2588.499999999967
 30
0.0
 11
732.5000000000002
 21
2588.499999999967
 31
0.0
  0
LINE
  5
41A
330
1F
100
AcDbEntity
  8
鏡台
  6
CONTINUOUS
 62
     2
100
AcDbLine
 10
922.5000000000002
 20
2587.5
 30
0.0
 11
922.5000000000002
 21
2588.499999999967
 31
0.0
  0
LINE
  5
41B
330
1F
100
AcDbEntity
  8
鏡台
  6
CONTINUOUS
 62
     2
100
AcDbLine
 10
937.5000000000002
 20
2587.5
 30
0.0
 11
937.5000000000002
 21
2588.499999999967
 31
0.0
  0
ARC
  5
41C
330
1F
100
AcDbEntity
  8
鏡台
  6
CONTINUOUS
 62
     2
100
AcDbCircle
 10
930.0000000000002
 20
2587.5
 30
0.0
 40
7.500000000000006
100
AcDbArc
 50
180.0
 51
0.0
  0
LINE
  5
41D
330
1F
100
AcDbEntity
  8
鏡台
  6
CONTINUOUS
 62
     2
100
AcDbLine
 10
937.5000000000002
 20
2588.499999999967
 30
0.0
 11
922.5000000000002
 21
2588.499999999967
 31
0.0
  0
LINE
  5
41E
330
1F
100
AcDbEntity
  8
鏡台
  6
CONTINUOUS
 62
     2
100
AcDbLine
 10
659.1213203435402
 20
1829.000000000032
 30
0.0
 11
656.999999999982
 21
1831.121320343592
 31
0.0
  0
LINE
  5
41F
330
1F
100
AcDbEntity
  8
鏡台
  6
CONTINUOUS
 62
     2
100
AcDbLine
 10
997.999999999982
 20
1831.121320343592
 30
0.0
 11
995.8786796564202
 21
1829.000000000032
 31
0.0
  0
LINE
  5
420
330
1F
100
AcDbEntity
  8
鏡台
  6
CONTINUOUS
 62
     2
100
AcDbLine
 10
656.999999999982
 20
2584.878679656471
 30
0.0
 11
656.999999999982
 21
1831.121320343592
 31
0.0
  0
LINE
  5
421
330
1F
100
AcDbEntity
  8
鏡台
  6
CONTINUOUS
 62
     2
100
AcDbLine
 10
656.999999999982
 20
2584.878679656471
 30
0.0
 11
659.1213203435402
 21
2587.000000000031
 31
0.0
  0
LINE
  5
422
330
1F
100
AcDbEntity
  8
鏡台
  6
CONTINUOUS
 62
     2
100
AcDbLine
 10
997.999999999982
 20
2584.878679656471
 30
0.0
 11
997.999999999982
 21
1831.121320343592
 31
0.0
  0
LINE
  5
423
330
1F
100
AcDbEntity
  8
鏡台
  6
CONTINUOUS
 62
     2
100
AcDbLine
 10
997.999999999982
 20
2584.878679656471
 30
0.0
 11
995.8786796564202
 21
2587.000000000031
 31
0.0
  0
LINE
  5
424
330
1F
100
AcDbEntity
  8
鏡台
  6
CONTINUOUS
 62
     2
100
AcDbLine
 10
717.5166852264504
 20
2587.000000000031
 30
0.0
 11
659.1213203435402
 21
2587.000000000031
 31
0.0
  0
LINE
  5
425
330
1F
100
AcDbEntity
  8
鏡台
  6
CONTINUOUS
 62
     2
100
AcDbLine
 10
995.8786796564202
 20
2587.000000000031
 30
0.0
 11
937.4833147735501
 21
2587.000000000031
 31
0.0
  0
LINE
  5
426
330
1F
100
AcDbEntity
  8
鏡台
  6
CONTINUOUS
 62
     2
100
AcDbLine
 10
922.5166852264504
 20
2587.000000000031
 30
0.0
 11
732.4833147735501
 21
2587.000000000031
 31
0.0
  0
LINE
  5
427
330
1F
100
AcDbEntity
  8
鏡台
  6
CONTINUOUS
 62
     2
100
AcDbLine
 10
995.8786796564202
 20
1829.000000000032
 30
0.0
 11
937.3484692283421
 21
1829.000000000032
 31
0.0
  0
LINE
  5
428
330
1F
100
AcDbEntity
  8
鏡台
  6
CONTINUOUS
 62
     2
100
AcDbLine
 10
922.6515307716584
 20
1829.000000000032
 30
0.0
 11
732.3484692283421
 21
1829.000000000032
 31
0.0
  0
LINE
  5
429
330
1F
100
AcDbEntity
  8
鏡台
  6
CONTINUOUS
 62
     2
100
AcDbLine
 10
717.6515307716584
 20
1829.000000000032
 30
0.0
 11
659.1213203435402
 21
1829.000000000032
 31
0.0
  0
LINE
  5
42A
330
1F
100
AcDbEntity
  8
鏡台
  6
CONTINUOUS
 62
     2
100
AcDbLine
 10
749.5000000000002
 20
2698.5
 30
0.0
 11
749.5000000000002
 21
2588.5
 31
0.0
  0
LINE
  5
42B
330
1F
100
AcDbEntity
  8
鏡台
  6
CONTINUOUS
 62
     2
100
AcDbLine
 10
1090.500000000004
 20
2698.5
 30
0.0
 11
1090.500000000004
 21
2588.5
 31
0.0
  0
LINE
  5
42C
330
1F
100
AcDbEntity
  8
鏡台
  6
CONTINUOUS
 62
     2
100
AcDbLine
 10
1010.5
 20
2332.0
 30
0.0
 11
1012.235222707921
 21
2337.784075693066
 31
0.0
  0
ARC
  5
42D
330
1F
100
AcDbEntity
  8
鏡台
  6
CONTINUOUS
 62
     2
100
AcDbCircle
 10
1021.813485560131
 20
2334.910596837402
 30
0.0
 40
10.0
100
AcDbArc
 50
95.3100592767302
 51
163.3007557660029
  0
LINE
  5
42E
330
1F
100
AcDbEntity
  8
鏡台
  6
CONTINUOUS
 62
     2
100
AcDbLine
 10
1209.5
 20
2332.0
 30
0.0
 11
1207.764777292081
 21
2337.784075693066
 31
0.0
  0
ARC
  5
42F
330
1F
100
AcDbEntity
  8
鏡台
  6
CONTINUOUS
 62
     2
100
AcDbCircle
 10
1198.186514439869
 20
2334.910596837402
 30
0.0
 40
10.0
100
AcDbArc
 50
16.69924423399711
 51
84.68994072326981
  0
ARC
  5
430
330
1F
100
AcDbEntity
  8
鏡台
  6
CONTINUOUS
 62
     2
100
AcDbCircle
 10
1110.0
 20
1386.100000000005
 30
0.0
 40
962.8999999999953
100
AcDbArc
 50
84.68994072327212
 51
95.31005927672784
  0
ARC
  5
431
330
1F
100
AcDbEntity
  8
鏡台
  6
CONTINUOUS
 62
     2
100
AcDbCircle
 10
1009.0
 20
2385.5
 30
0.0
 40
3.000000000000002
100
AcDbArc
 50
90.00000000000004
 51
180.0
  0
LINE
  5
432
330
1F
100
AcDbEntity
  8
鏡台
  6
CONTINUOUS
 62
     2
100
AcDbLine
 10
1010.5
 20
2332.0
 30
0.0
 11
1009.0
 21
2332.0
 31
0.0
  0
LINE
  5
433
330
1F
100
AcDbEntity
  8
鏡台
  6
CONTINUOUS
 62
     2
100
AcDbLine
 10
1006.0
 20
2385.5
 30
0.0
 11
1006.0
 21
2335.0
 31
0.0
  0
ARC
  5
434
330
1F
100
AcDbEntity
  8
鏡台
  6
CONTINUOUS
 62
     2
100
AcDbCircle
 10
1009.0
 20
2335.0
 30
0.0
 40
3.000000000000002
100
AcDbArc
 50
180.0
 51
270.0000000000002
  0
LINE
  5
435
330
1F
100
AcDbEntity
  8
鏡台
  6
CONTINUOUS
 62
     2
100
AcDbLine
 10
1009.0
 20
2388.5
 30
0.0
 11
1211.0
 21
2388.5
 31
0.0
  0
ARC
  5
436
330
1F
100
AcDbEntity
  8
鏡台
  6
CONTINUOUS
 62
     2
100
AcDbCircle
 10
1211.0
 20
2385.5
 30
0.0
 40
3.000000000000002
100
AcDbArc
 50
0.0
 51
90.00000000000004
  0
LINE
  5
437
330
1F
100
AcDbEntity
  8
鏡台
  6
CONTINUOUS
 62
     2
100
AcDbLine
 10
1211.0
 20
2332.0
 30
0.0
 11
1209.5
 21
2332.0
 31
0.0
  0
LINE
  5
438
330
1F
100
AcDbEntity
  8
鏡台
  6
CONTINUOUS
 62
     2
100
AcDbLine
 10
1214.0
 20
2385.5
 30
0.0
 11
1214.0
 21
2335.0
 31
0.0
  0
ARC
  5
439
330
1F
100
AcDbEntity
  8
鏡台
  6
CONTINUOUS
 62
     2
100
AcDbCircle
 10
1211.0
 20
2335.0
 30
0.0
 40
3.000000000000002
100
AcDbArc
 50
270.0000000000002
 51
0.0
  0
LINE
  5
43A
330
1F
100
AcDbEntity
  8
鏡台
  6
CONTINUOUS
 62
     2
100
AcDbLine
 10
1010.5
 20
2079.0
 30
0.0
 11
1012.235222707921
 21
2084.784075693066
 31
0.0
  0
ARC
  5
43B
330
1F
100
AcDbEntity
  8
鏡台
  6
CONTINUOUS
 62
     2
100
AcDbCircle
 10
1021.813485560131
 20
2081.910596837402
 30
0.0
 40
10.0
100
AcDbArc
 50
95.3100592767302
 51
163.3007557660029
  0
LINE
  5
43C
330
1F
100
AcDbEntity
  8
鏡台
  6
CONTINUOUS
 62
     2
100
AcDbLine
 10
1209.5
 20
2079.0
 30
0.0
 11
1207.764777292081
 21
2084.784075693066
 31
0.0
  0
ARC
  5
43D
330
1F
100
AcDbEntity
  8
鏡台
  6
CONTINUOUS
 62
     2
100
AcDbCircle
 10
1198.186514439869
 20
2081.910596837402
 30
0.0
 40
10.0
100
AcDbArc
 50
16.69924423399711
 51
84.68994072326981
  0
ARC
  5
43E
330
1F
100
AcDbEntity
  8
鏡台
  6
CONTINUOUS
 62
     2
100
AcDbCircle
 10
1110.0
 20
1133.100000000005
 30
0.0
 40
962.8999999999953
100
AcDbArc
 50
84.68994072327212
 51
95.31005927672784
  0
ARC
  5
43F
330
1F
100
AcDbEntity
  8
鏡台
  6
CONTINUOUS
 62
     2
100
AcDbCircle
 10
1009.0
 20
2132.5
 30
0.0
 40
3.000000000000002
100
AcDbArc
 50
90.00000000000004
 51
180.0
  0
LINE
  5
440
330
1F
100
AcDbEntity
  8
鏡台
  6
CONTINUOUS
 62
     2
100
AcDbLine
 10
1010.5
 20
2079.0
 30
0.0
 11
1009.0
 21
2079.0
 31
0.0
  0
LINE
  5
441
330
1F
100
AcDbEntity
  8
鏡台
  6
CONTINUOUS
 62
     2
100
AcDbLine
 10
1006.0
 20
2132.5
 30
0.0
 11
1006.0
 21
2082.0
 31
0.0
  0
ARC
  5
442
330
1F
100
AcDbEntity
  8
鏡台
  6
CONTINUOUS
 62
     2
100
AcDbCircle
 10
1009.0
 20
2082.0
 30
0.0
 40
3.000000000000002
100
AcDbArc
 50
180.0
 51
270.0000000000002
  0
LINE
  5
443
330
1F
100
AcDbEntity
  8
鏡台
  6
CONTINUOUS
 62
     2
100
AcDbLine
 10
1009.0
 20
2135.5
 30
0.0
 11
1211.0
 21
2135.5
 31
0.0
  0
ARC
  5
444
330
1F
100
AcDbEntity
  8
鏡台
  6
CONTINUOUS
 62
     2
100
AcDbCircle
 10
1211.0
 20
2132.5
 30
0.0
 40
3.000000000000002
100
AcDbArc
 50
0.0
 51
90.00000000000004
  0
LINE
  5
445
330
1F
100
AcDbEntity
  8
鏡台
  6
CONTINUOUS
 62
     2
100
AcDbLine
 10
1211.0
 20
2079.0
 30
0.0
 11
1209.5
 21
2079.0
 31
0.0
  0
LINE
  5
446
330
1F
100
AcDbEntity
  8
鏡台
  6
CONTINUOUS
 62
     2
100
AcDbLine
 10
1214.0
 20
2132.5
 30
0.0
 11
1214.0
 21
2082.0
 31
0.0
  0
ARC
  5
447
330
1F
100
AcDbEntity
  8
鏡台
  6
CONTINUOUS
 62
     2
100
AcDbCircle
 10
1211.0
 20
2082.0
 30
0.0
 40
3.000000000000002
100
AcDbArc
 50
270.0000000000002
 51
0.0
  0
LINE
  5
448
330
1F
100
AcDbEntity
  8
鏡台
  6
CONTINUOUS
 62
     2
100
AcDbLine
 10
1010.5
 20
1777.0
 30
0.0
 11
1012.235222707921
 21
1782.784075693066
 31
0.0
  0
ARC
  5
449
330
1F
100
AcDbEntity
  8
鏡台
  6
CONTINUOUS
 62
     2
100
AcDbCircle
 10
1021.813485560131
 20
1779.910596837402
 30
0.0
 40
10.0
100
AcDbArc
 50
95.3100592767302
 51
163.3007557660029
  0
LINE
  5
44A
330
1F
100
AcDbEntity
  8
鏡台
  6
CONTINUOUS
 62
     2
100
AcDbLine
 10
1209.5
 20
1777.0
 30
0.0
 11
1207.764777292081
 21
1782.784075693066
 31
0.0
  0
ARC
  5
44B
330
1F
100
AcDbEntity
  8
鏡台
  6
CONTINUOUS
 62
     2
100
AcDbCircle
 10
1198.186514439869
 20
1779.910596837402
 30
0.0
 40
10.0
100
AcDbArc
 50
16.69924423399711
 51
84.68994072326981
  0
ARC
  5
44C
330
1F
100
AcDbEntity
  8
鏡台
  6
CONTINUOUS
 62
     2
100
AcDbCircle
 10
1110.0
 20
831.1000000000049
 30
0.0
 40
962.8999999999953
100
AcDbArc
 50
84.68994072327212
 51
95.31005927672784
  0
ARC
  5
44D
330
1F
100
AcDbEntity
  8
鏡台
  6
CONTINUOUS
 62
     2
100
AcDbCircle
 10
1009.0
 20
1830.5
 30
0.0
 40
3.000000000000002
100
AcDbArc
 50
90.00000000000004
 51
180.0
  0
LINE
  5
44E
330
1F
100
AcDbEntity
  8
鏡台
  6
CONTINUOUS
 62
     2
100
AcDbLine
 10
1010.5
 20
1777.0
 30
0.0
 11
1009.0
 21
1777.0
 31
0.0
  0
LINE
  5
44F
330
1F
100
AcDbEntity
  8
鏡台
  6
CONTINUOUS
 62
     2
100
AcDbLine
 10
1006.0
 20
1830.5
 30
0.0
 11
1006.0
 21
1780.0
 31
0.0
  0
ARC
  5
450
330
1F
100
AcDbEntity
  8
鏡台
  6
CONTINUOUS
 62
     2
100
AcDbCircle
 10
1009.0
 20
1780.0
 30
0.0
 40
3.000000000000002
100
AcDbArc
 50
180.0
 51
270.0000000000002
  0
LINE
  5
451
330
1F
100
AcDbEntity
  8
鏡台
  6
CONTINUOUS
 62
     2
100
AcDbLine
 10
1009.0
 20
1833.5
 30
0.0
 11
1211.0
 21
1833.5
 31
0.0
  0
ARC
  5
452
330
1F
100
AcDbEntity
  8
鏡台
  6
CONTINUOUS
 62
     2
100
AcDbCircle
 10
1211.0
 20
1830.5
 30
0.0
 40
3.000000000000002
100
AcDbArc
 50
0.0
 51
90.00000000000004
  0
LINE
  5
453
330
1F
100
AcDbEntity
  8
鏡台
  6
CONTINUOUS
 62
     2
100
AcDbLine
 10
1211.0
 20
1777.0
 30
0.0
 11
1209.5
 21
1777.0
 31
0.0
  0
LINE
  5
454
330
1F
100
AcDbEntity
  8
鏡台
  6
CONTINUOUS
 62
     2
100
AcDbLine
 10
1214.0
 20
1830.5
 30
0.0
 11
1214.0
 21
1780.0
 31
0.0
  0
ARC
  5
455
330
1F
100
AcDbEntity
  8
鏡台
  6
CONTINUOUS
 62
     2
100
AcDbCircle
 10
1211.0
 20
1780.0
 30
0.0
 40
3.000000000000002
100
AcDbArc
 50
270.0000000000002
 51
0.0
  0
LINE
  5
456
330
1F
100
AcDbEntity
  8
鏡台
  6
CONTINUOUS
 62
     2
100
AcDbLine
 10
1011.1827156455
 20
1779.2757188184
 30
0.0
 11
1208.8172843545
 21
1779.2757188184
 31
0.0
  0
LINE
  5
457
330
1F
100
AcDbEntity
  8
鏡台
  6
CONTINUOUS
 62
     2
100
AcDbLine
 10
1013.0
 20
2081.137928387215
 30
0.0
 11
1013.0
 21
1833.5
 31
0.0
  0
LINE
  5
458
330
1F
100
AcDbEntity
  8
鏡台
  6
CONTINUOUS
 62
     2
100
AcDbLine
 10
1207.0
 20
2081.137928387216
 30
0.0
 11
1207.0
 21
1833.5
 31
0.0
  0
LINE
  5
459
330
1F
100
AcDbEntity
  8
鏡台
  6
CONTINUOUS
 62
     2
100
AcDbLine
 10
1207.0
 20
2334.137928387216
 30
0.0
 11
1207.0
 21
2135.5
 31
0.0
  0
LINE
  5
45A
330
1F
100
AcDbEntity
  8
鏡台
  6
CONTINUOUS
 62
     2
100
AcDbLine
 10
1013.0
 20
2334.137928387215
 30
0.0
 11
1013.0
 21
2135.5
 31
0.0
  0
ARC
  5
45B
330
1F
100
AcDbEntity
  8
鏡台
  6
CONTINUOUS
 62
     2
100
AcDbCircle
 10
1110.0
 20
3372.499999999975
 30
0.0
 40
1295.0
100
AcDbArc
 50
265.7043237762043
 51
274.295676223796
  0
LINE
  5
45C
330
1F
100
AcDbEntity
  8
鏡台
  6
CONTINUOUS
 62
     2
100
AcDbLine
 10
1013.0
 20
2585.5
 30
0.0
 11
1013.0
 21
2388.5
 31
0.0
  0
LINE
  5
45D
330
1F
100
AcDbEntity
  8
鏡台
  6
CONTINUOUS
 62
     2
100
AcDbLine
 10
1207.0
 20
2585.5
 30
0.0
 11
1207.0
 21
2388.5
 31
0.0
  0
ARC
  5
45E
330
1F
100
AcDbEntity
  8
鏡台
  6
CONTINUOUS
 62
     2
100
AcDbCircle
 10
1016.0
 20
2585.5
 30
0.0
 40
3.000000000000002
100
AcDbArc
 50
90.00000000000004
 51
180.0
  0
ARC
  5
45F
330
1F
100
AcDbEntity
  8
鏡台
  6
CONTINUOUS
 62
     2
100
AcDbCircle
 10
1204.0
 20
2585.5
 30
0.0
 40
3.000000000000002
100
AcDbArc
 50
0.0
 51
90.00000000000004
  0
LINE
  5
460
330
1F
100
AcDbEntity
  8
鏡台
  6
CONTINUOUS
 62
     2
100
AcDbLine
 10
1090.285055128203
 20
2684.5
 30
0.0
 11
749.7149448718012
 21
2684.5
 31
0.0
  0
LINE
  5
461
330
1F
100
AcDbEntity
  8
鏡台
  6
CONTINUOUS
 62
     6
100
AcDbLine
 10
1090.285055128203
 20
2673.500000000005
 30
0.0
 11
749.7149448718012
 21
2673.5
 31
0.0
  0
LINE
  5
462
330
1F
100
AcDbEntity
  8
鏡台
  6
CONTINUOUS
 62
     6
100
AcDbLine
 10
1090.285055128203
 20
2668.500000000005
 30
0.0
 11
749.7149448718012
 21
2668.5
 31
0.0
  0
ARC
  5
463
330
1F
100
AcDbEntity
  8
鏡台
  6
CONTINUOUS
 62
     2
100
AcDbCircle
 10
1032.000000000008
 20
2156.499999999998
 30
0.0
 40
10.0
100
AcDbArc
 50
180.0
 51
270.0000000000002
  0
LINE
  5
464
330
1F
100
AcDbEntity
  8
鏡台
  6
CONTINUOUS
 62
     2
100
AcDbLine
 10
1032.000000000008
 20
2146.499999999998
 30
0.0
 11
1058.000000000004
 21
2146.499999999998
 31
0.0
  0
ARC
  5
465
330
1F
100
AcDbEntity
  8
鏡台
  6
CONTINUOUS
 62
     2
100
AcDbCircle
 10
1058.000000000004
 20
2156.499999999998
 30
0.0
 40
10.0
100
AcDbArc
 50
270.0000000000002
 51
0.0
  0
LINE
  5
466
330
1F
100
AcDbEntity
  8
鏡台
  6
CONTINUOUS
 62
     2
100
AcDbLine
 10
1068.000000000004
 20
2319.499999999988
 30
0.0
 11
1068.000000000004
 21
2156.499999999998
 31
0.0
  0
ARC
  5
467
330
1F
100
AcDbEntity
  8
鏡台
  6
CONTINUOUS
 62
     2
100
AcDbCircle
 10
1058.000000000004
 20
2319.499999999988
 30
0.0
 40
10.0
100
AcDbArc
 50
0.0
 51
90.00000000000004
  0
LINE
  5
468
330
1F
100
AcDbEntity
  8
鏡台
  6
CONTINUOUS
 62
     2
100
AcDbLine
 10
1032.000000000008
 20
2329.499999999988
 30
0.0
 11
1058.000000000004
 21
2329.499999999988
 31
0.0
  0
LINE
  5
469
330
1F
100
AcDbEntity
  8
鏡台
  6
CONTINUOUS
 62
     2
100
AcDbLine
 10
1022.000000000008
 20
2319.499999999988
 30
0.0
 11
1022.000000000008
 21
2156.499999999998
 31
0.0
  0
ARC
  5
46A
330
1F
100
AcDbEntity
  8
鏡台
  6
CONTINUOUS
 62
     2
100
AcDbCircle
 10
1032.000000000008
 20
2319.499999999988
 30
0.0
 40
10.0
100
AcDbArc
 50
90.00000000000004
 51
180.0
  0
ARC
  5
46B
330
1F
100
AcDbEntity
  8
鏡台
  6
CONTINUOUS
 62
     2
100
AcDbCircle
 10
1110.0
 20
3625.499999999975
 30
0.0
 40
1295.0
100
AcDbArc
 50
268.504388190688
 51
274.295676223796
  0
LINE
  5
46C
330
1F
100
AcDbEntity
  8
鏡台
  6
CONTINUOUS
 62
     2
100
AcDbLine
 10
1011.1827156455
 20
2334.2757188184
 30
0.0
 11
1076.199999999994
 21
2334.2757188184
 31
0.0
  0
LINE
  5
46D
330
1F
100
AcDbEntity
  8
鏡台
  6
CONTINUOUS
 62
     2
100
AcDbLine
 10
1076.199999999994
 20
2334.2757188184
 30
0.0
 11
1076.199999999994
 21
2135.5
 31
0.0
  0
LINE
  5
46E
330
1F
100
AcDbEntity
  8
鏡台
  6
CONTINUOUS
 62
     6
100
AcDbLine
 10
670.0000000000002
 20
2518.499999999999
 30
0.0
 11
610.0000000000002
 21
2518.499999999999
 31
0.0
  0
LINE
  5
46F
330
1F
100
AcDbEntity
  8
鏡台
  6
CONTINUOUS
 62
     6
100
AcDbLine
 10
640.0000000000002
 20
2548.499999999999
 30
0.0
 11
640.0000000000002
 21
2488.499999999999
 31
0.0
  0
CIRCLE
  5
470
330
1F
100
AcDbEntity
  8
鏡台
  6
CONTINUOUS
 62
     2
100
AcDbCircle
 10
640.0000000000002
 20
2518.5
 30
0.0
 40
7.000000000000004
  0
LINE
  5
471
330
1F
100
AcDbEntity
  8
鏡台
  6
CONTINUOUS
 62
     6
100
AcDbLine
 10
1175.0
 20
2518.499999999999
 30
0.0
 11
1115.0
 21
2518.499999999999
 31
0.0
  0
LINE
  5
472
330
1F
100
AcDbEntity
  8
鏡台
  6
CONTINUOUS
 62
     6
100
AcDbLine
 10
1145.0
 20
2548.499999999999
 30
0.0
 11
1145.0
 21
2488.499999999999
 31
0.0
  0
CIRCLE
  5
473
330
1F
100
AcDbEntity
  8
鏡台
  6
CONTINUOUS
 62
     2
100
AcDbCircle
 10
1145.0
 20
2518.5
 30
0.0
 40
7.000000000000004
  0
LINE
  5
474
330
1F
100
AcDbEntity
  8
鏡台
  6
CONTINUOUS
 62
     6
100
AcDbLine
 10
1175.0
 20
2018.499999999999
 30
0.0
 11
1115.0
 21
2018.499999999999
 31
0.0
  0
LINE
  5
475
330
1F
100
AcDbEntity
  8
鏡台
  6
CONTINUOUS
 62
     6
100
AcDbLine
 10
1145.0
 20
2048.499999999999
 30
0.0
 11
1145.0
 21
1988.499999999999
 31
0.0
  0
CIRCLE
  5
476
330
1F
100
AcDbEntity
  8
鏡台
  6
CONTINUOUS
 62
     2
100
AcDbCircle
 10
1145.0
 20
2018.5
 30
0.0
 40
7.000000000000004
  0
LINE
  5
477
330
1F
100
AcDbEntity
  8
鏡台
  6
CONTINUOUS
 62
     6
100
AcDbLine
 10
1048.000000000011
 20
2266.75
 30
0.0
 11
1042.000000000011
 21
2266.75
 31
0.0
  0
LINE
  5
478
330
1F
100
AcDbEntity
  8
鏡台
  6
CONTINUOUS
 62
     6
100
AcDbLine
 10
1033.400000000009
 20
2246.250000000006
 30
0.0
 11
1033.400000000009
 21
2274.750000000006
 31
0.0
  0
LINE
  5
479
330
1F
100
AcDbEntity
  8
鏡台
  6
CONTINUOUS
 62
     6
100
AcDbLine
 10
1033.400000000009
 20
2246.250000000006
 30
0.0
 11
1056.60000000001
 21
2246.250000000006
 31
0.0
  0
LINE
  5
47A
330
1F
100
AcDbEntity
  8
鏡台
  6
CONTINUOUS
 62
     6
100
AcDbLine
 10
1056.60000000001
 20
2246.250000000006
 30
0.0
 11
1056.60000000001
 21
2274.750000000006
 31
0.0
  0
LINE
  5
47B
330
1F
100
AcDbEntity
  8
鏡台
  6
CONTINUOUS
 62
     6
100
AcDbLine
 10
1033.400000000009
 20
2274.750000000006
 30
0.0
 11
1056.60000000001
 21
2274.750000000006
 31
0.0
  0
LINE
  5
47C
330
1F
100
AcDbEntity
  8
鏡台
  6
CONTINUOUS
 62
     6
100
AcDbLine
 10
1052.80000000001
 20
2272.250000000006
 30
0.0
 11
1052.80000000001
 21
2248.750000000006
 31
0.0
  0
LINE
  5
47D
330
1F
100
AcDbEntity
  8
鏡台
  6
CONTINUOUS
 62
     6
100
AcDbLine
 10
1052.80000000001
 20
2272.250000000006
 30
0.0
 11
1037.200000000012
 21
2272.250000000006
 31
0.0
  0
LINE
  5
47E
330
1F
100
AcDbEntity
  8
鏡台
  6
CONTINUOUS
 62
     6
100
AcDbLine
 10
1037.20000000001
 20
2248.750000000006
 30
0.0
 11
1052.80000000001
 21
2248.750000000006
 31
0.0
  0
LINE
  5
47F
330
1F
100
AcDbEntity
  8
鏡台
  6
CONTINUOUS
 62
     6
100
AcDbLine
 10
1037.200000000012
 20
2272.250000000006
 30
0.0
 11
1037.20000000001
 21
2248.750000000006
 31
0.0
  0
LINE
  5
480
330
1F
100
AcDbEntity
  8
鏡台
  6
CONTINUOUS
 62
     6
100
AcDbLine
 10
1033.400000000009
 20
2201.250000000006
 30
0.0
 11
1033.400000000011
 21
2229.750000000006
 31
0.0
  0
LINE
  5
481
330
1F
100
AcDbEntity
  8
鏡台
  6
CONTINUOUS
 62
     6
100
AcDbLine
 10
1033.400000000009
 20
2201.250000000006
 30
0.0
 11
1056.60000000001
 21
2201.250000000006
 31
0.0
  0
LINE
  5
482
330
1F
100
AcDbEntity
  8
鏡台
  6
CONTINUOUS
 62
     6
100
AcDbLine
 10
1056.60000000001
 20
2201.250000000006
 30
0.0
 11
1056.60000000001
 21
2229.750000000006
 31
0.0
  0
LINE
  5
483
330
1F
100
AcDbEntity
  8
鏡台
  6
CONTINUOUS
 62
     6
100
AcDbLine
 10
1033.400000000011
 20
2229.750000000006
 30
0.0
 11
1056.60000000001
 21
2229.750000000006
 31
0.0
  0
LINE
  5
484
330
1F
100
AcDbEntity
  8
鏡台
  6
CONTINUOUS
 62
     6
100
AcDbLine
 10
1041.5
 20
2221.499999999989
 30
0.0
 11
1048.500000000008
 21
2221.499999999989
 31
0.0
  0
LINE
  5
485
330
1F
100
AcDbEntity
  8
鏡台
  6
CONTINUOUS
 62
     6
100
AcDbLine
 10
1040.5
 20
2209.499999999989
 30
0.0
 11
1049.500000000006
 21
2209.499999999989
 31
0.0
  0
ARC
  5
486
330
1F
100
AcDbEntity
  8
鏡台
  6
CONTINUOUS
 62
     6
100
AcDbCircle
 10
1034.0
 20
2305.0
 30
0.0
 40
8.0
100
AcDbArc
 50
90.00000000000004
 51
180.0
  0
LINE
  5
487
330
1F
100
AcDbEntity
  8
鏡台
  6
CONTINUOUS
 62
     6
100
AcDbLine
 10
1034.0
 20
2313.0
 30
0.0
 11
1056.0
 21
2313.0
 31
0.0
  0
ARC
  5
488
330
1F
100
AcDbEntity
  8
鏡台
  6
CONTINUOUS
 62
     6
100
AcDbCircle
 10
1056.0
 20
2305.0
 30
0.0
 40
8.0
100
AcDbArc
 50
0.0
 51
90.00000000000004
  0
LINE
  5
489
330
1F
100
AcDbEntity
  8
鏡台
  6
CONTINUOUS
 62
     6
100
AcDbLine
 10
1064.0
 20
2305.0
 30
0.0
 11
1064.0
 21
2171.0
 31
0.0
  0
ARC
  5
48A
330
1F
100
AcDbEntity
  8
鏡台
  6
CONTINUOUS
 62
     6
100
AcDbCircle
 10
1056.0
 20
2171.0
 30
0.0
 40
8.0
100
AcDbArc
 50
270.0000000000002
 51
0.0
  0
LINE
  5
48B
330
1F
100
AcDbEntity
  8
鏡台
  6
CONTINUOUS
 62
     6
100
AcDbLine
 10
1026.0
 20
2305.0
 30
0.0
 11
1026.0
 21
2171.0
 31
0.0
  0
LINE
  5
48C
330
1F
100
AcDbEntity
  8
鏡台
  6
CONTINUOUS
 62
     6
100
AcDbLine
 10
1034.0
 20
2163.0
 30
0.0
 11
1056.0
 21
2163.0
 31
0.0
  0
ARC
  5
48D
330
1F
100
AcDbEntity
  8
鏡台
  6
CONTINUOUS
 62
     6
100
AcDbCircle
 10
1034.0
 20
2171.0
 30
0.0
 40
8.0
100
AcDbArc
 50
180.0
 51
270.0000000000002
  0
ARC
  5
48E
330
1F
100
AcDbEntity
  8
鏡台
  6
CONTINUOUS
 62
     6
100
AcDbCircle
 10
920.0000000000002
 20
5491.700000001376
 30
0.0
 40
2902.200000001376
100
AcDbArc
 50
266.6362684044902
 51
273.3637315955098
  0
LINE
  5
48F
330
1F
100
AcDbEntity
  8
鏡台
  6
CONTINUOUS
 62
     6
100
AcDbLine
 10
1090.285055128203
 20
2684.5
 30
0.0
 11
1090.285055128203
 21
2594.5
 31
0.0
  0
LINE
  5
490
330
1F
100
AcDbEntity
  8
鏡台
  6
CONTINUOUS
 62
     6
100
AcDbLine
 10
749.7149448718012
 20
2684.5
 30
0.0
 11
749.7149448718012
 21
2594.5
 31
0.0
  0
LINE
  5
491
330
1F
100
AcDbEntity
  8
鏡台
  6
CONTINUOUS
 62
     2
100
AcDbLine
 10
628.0000000000002
 20
2698.5
 30
0.0
 11
1212.0
 21
2698.5
 31
0.0
  0
ARC
  5
492
330
1F
100
AcDbEntity
  8
鏡台
  6
CONTINUOUS
 62
     2
100
AcDbCircle
 10
1212.0
 20
2690.5
 30
0.0
 40
8.0
100
AcDbArc
 50
0.0
 51
90.00000000000004
  0
ARC
  5
493
330
1F
100
AcDbEntity
  8
鏡台
  6
CONTINUOUS
 62
     2
100
AcDbCircle
 10
628.0000000000002
 20
2690.5
 30
0.0
 40
8.0
100
AcDbArc
 50
90.00000000000004
 51
180.0
  0
LINE
  5
494
330
1F
100
AcDbEntity
  8
鏡台
  6
CONTINUOUS
 62
     6
100
AcDbLine
 10
919.5830085889995
 20
2473.833008589
 30
0.0
 11
866.5499999999995
 21
2420.8
 31
0.0
  0
LINE
  5
495
330
1F
100
AcDbEntity
  8
鏡台
  6
CONTINUOUS
 62
     6
100
AcDbLine
 10
896.9431457505
 20
2462.506854249
 30
0.0
 11
877.9931457505011
 21
2443.556854249
 31
0.0
  0
LINE
  5
496
330
1F
100
AcDbEntity
  8
鏡台
  6
CONTINUOUS
 62
     6
100
AcDbLine
 10
913.4568542495001
 20
2456.393145750999
 30
0.0
 11
883.7568542494994
 21
2426.693145751
 31
0.0
  0
LINE
  5
497
330
1F
100
AcDbEntity
  8
鏡台
  6
CONTINUOUS
 62
     6
100
AcDbLine
 10
763.5830085889995
 20
2211.333008589
 30
0.0
 11
710.5499999999995
 21
2158.3
 31
0.0
  0
LINE
  5
498
330
1F
100
AcDbEntity
  8
鏡台
  6
CONTINUOUS
 62
     6
100
AcDbLine
 10
740.9431457505
 20
2200.006854249
 30
0.0
 11
721.9931457505011
 21
2181.056854249
 31
0.0
  0
LINE
  5
499
330
1F
100
AcDbEntity
  8
鏡台
  6
CONTINUOUS
 62
     6
100
AcDbLine
 10
757.4568542495001
 20
2193.893145750999
 30
0.0
 11
727.7568542494994
 21
2164.193145751
 31
0.0
  0
LINE
  5
49A
330
1F
100
AcDbEntity
  8
鏡台
  6
CONTINUOUS
 62
     6
100
AcDbLine
 10
883.5830085889995
 20
1999.833008589
 30
0.0
 11
830.5499999999995
 21
1946.8
 31
0.0
  0
LINE
  5
49B
330
1F
100
AcDbEntity
  8
鏡台
  6
CONTINUOUS
 62
     6
100
AcDbLine
 10
860.9431457505
 20
1988.506854249
 30
0.0
 11
841.9931457505011
 21
1969.556854249
 31
0.0
  0
LINE
  5
49C
330
1F
100
AcDbEntity
  8
鏡台
  6
CONTINUOUS
 62
     6
100
AcDbLine
 10
877.4568542495001
 20
1982.393145750999
 30
0.0
 11
847.7568542494994
 21
1952.693145751
 31
0.0
  0
LINE
  5
49D
330
1F
100
AcDbEntity
  8
鏡台
  6
CONTINUOUS
 62
     6
100
AcDbLine
 10
1010.5
 20
2383.500000000018
 30
0.0
 11
1010.5
 21
2332.0
 31
0.0
  0
LINE
  5
49E
330
1F
100
AcDbEntity
  8
鏡台
  6
CONTINUOUS
 62
     6
100
AcDbLine
 10
1009.5
 20
2388.5
 30
0.0
 11
1009.5
 21
2383.500000000018
 31
0.0
  0
LINE
  5
49F
330
1F
100
AcDbEntity
  8
鏡台
  6
CONTINUOUS
 62
     6
100
AcDbLine
 10
1009.5
 20
2383.500000000018
 30
0.0
 11
1210.5
 21
2383.500000000018
 31
0.0
  0
LINE
  5
4A0
330
1F
100
AcDbEntity
  8
鏡台
  6
CONTINUOUS
 62
     6
100
AcDbLine
 10
1210.5
 20
2388.5
 30
0.0
 11
1210.5
 21
2383.500000000018
 31
0.0
  0
LINE
  5
4A1
330
1F
100
AcDbEntity
  8
鏡台
  6
CONTINUOUS
 62
     6
100
AcDbLine
 10
1209.5
 20
2383.500000000018
 30
0.0
 11
1209.5
 21
2332.0
 31
0.0
  0
LINE
  5
4A2
330
1F
100
AcDbEntity
  8
鏡台
  6
CONTINUOUS
 62
     6
100
AcDbLine
 10
1009.5
 20
2135.5
 30
0.0
 11
1009.5
 21
2130.500000000018
 31
0.0
  0
LINE
  5
4A3
330
1F
100
AcDbEntity
  8
鏡台
  6
CONTINUOUS
 62
     6
100
AcDbLine
 10
1009.5
 20
2130.500000000018
 30
0.0
 11
1210.5
 21
2130.500000000018
 31
0.0
  0
LINE
  5
4A4
330
1F
100
AcDbEntity
  8
鏡台
  6
CONTINUOUS
 62
     6
100
AcDbLine
 10
1210.5
 20
2135.5
 30
0.0
 11
1210.5
 21
2130.500000000018
 31
0.0
  0
LINE
  5
4A5
330
1F
100
AcDbEntity
  8
鏡台
  6
CONTINUOUS
 62
     6
100
AcDbLine
 10
1209.5
 20
2130.500000000018
 30
0.0
 11
1209.5
 21
2079.0
 31
0.0
  0
LINE
  5
4A6
330
1F
100
AcDbEntity
  8
鏡台
  6
CONTINUOUS
 62
     6
100
AcDbLine
 10
1010.5
 20
2130.500000000018
 30
0.0
 11
1010.5
 21
2079.0
 31
0.0
  0
LINE
  5
4A7
330
1F
100
AcDbEntity
  8
鏡台
  6
CONTINUOUS
 62
     6
100
AcDbLine
 10
1009.5
 20
1833.5
 30
0.0
 11
1009.5
 21
1828.500000000018
 31
0.0
  0
LINE
  5
4A8
330
1F
100
AcDbEntity
  8
鏡台
  6
CONTINUOUS
 62
     6
100
AcDbLine
 10
1009.5
 20
1828.500000000018
 30
0.0
 11
1210.5
 21
1828.500000000018
 31
0.0
  0
LINE
  5
4A9
330
1F
100
AcDbEntity
  8
鏡台
  6
CONTINUOUS
 62
     6
100
AcDbLine
 10
1210.5
 20
1833.5
 30
0.0
 11
1210.5
 21
1828.500000000018
 31
0.0
  0
LINE
  5
4AA
330
1F
100
AcDbEntity
  8
鏡台
  6
CONTINUOUS
 62
     6
100
AcDbLine
 10
1209.5
 20
1828.500000000018
 30
0.0
 11
1209.5
 21
1777.0
 31
0.0
  0
LINE
  5
4AB
330
1F
100
AcDbEntity
  8
鏡台
  6
CONTINUOUS
 62
     6
100
AcDbLine
 10
1010.5
 20
1828.500000000018
 30
0.0
 11
1010.5
 21
1777.0
 31
0.0
  0
LINE
  5
4AC
330
1F
100
AcDbEntity
  8
鏡台
  6
CONTINUOUS
 62
     6
100
AcDbLine
 10
1190.0
 20
1748.5
 30
0.0
 11
1253.0766968306
 21
1748.5
 31
0.0
  0
LINE
  5
4AD
330
1F
100
AcDbEntity
  8
鏡台
  6
CONTINUOUS
 62
     6
100
AcDbLine
 10
1275.607801639
 20
1863.0872669102
 30
0.0
 11
1264.982689379
 21
1865.934268058299
 31
0.0
  0
LINE
  5
4AE
330
1F
100
AcDbEntity
  8
鏡台
  6
CONTINUOUS
 62
     6
100
AcDbLine
 10
1271.854861994
 20
1849.0813920857
 30
0.0
 11
1258.004666240999
 21
1853.4149284017
 31
0.0
  0
LINE
  5
4AF
330
1F
100
AcDbEntity
  8
鏡台
  6
CONTINUOUS
 62
     6
100
AcDbLine
 10
1266.052538553999
 20
1845.9773263695
 30
0.0
 11
1256.9975304
 21
1848.4036623492
 31
0.0
  0
LINE
  5
4B0
330
1F
100
AcDbEntity
  8
鏡台
  6
CONTINUOUS
 62
     6
100
AcDbLine
 10
1258.004666240999
 20
1853.4149284017
 30
0.0
 11
1253.529978233001
 21
1831.1498031212
 31
0.0
  0
LINE
  5
4B1
330
1F
100
AcDbEntity
  8
鏡台
  6
CONTINUOUS
 62
     6
100
AcDbLine
 10
1260.407174018001
 20
1829.3057711293
 30
0.0
 11
1266.614595964999
 21
1847.6372443898
 31
0.0
  0
LINE
  5
4B2
330
1F
100
AcDbEntity
  8
鏡台
  6
CONTINUOUS
 62
     6
100
AcDbLine
 10
1290.674427211001
 20
1857.497302349901
 30
0.0
 11
1275.219541936
 21
1861.6383693548
 31
0.0
  0
LINE
  5
4B3
330
1F
100
AcDbEntity
  8
鏡台
  6
CONTINUOUS
 62
     6
100
AcDbLine
 10
1288.344993955001
 20
1848.8039229309
 30
0.0
 11
1272.890230303001
 21
1852.9449995727
 31
0.0
  0
LINE
  5
4B4
330
1F
100
AcDbEntity
  8
鏡台
  6
CONTINUOUS
 62
     6
100
AcDbLine
 10
1264.982567844
 20
1865.9342574253
 30
0.0
 11
1261.876848791
 21
1854.343223792101
 31
0.0
  0
LINE
  5
4B5
330
1F
100
AcDbEntity
  8
鏡台
  6
CONTINUOUS
 62
     6
100
AcDbLine
 10
1272.501971683
 20
1851.4961011082
 30
0.0
 11
1261.876848791
 21
1854.343223792101
 31
0.0
  0
LINE
  5
4B6
330
1F
100
AcDbEntity
  8
鏡台
  6
CONTINUOUS
 62
     6
100
AcDbLine
 10
1271.854861994
 20
1849.0813920857
 30
0.0
 11
1270.328637359
 21
1849.5453533568
 31
0.0
  0
LINE
  5
4B7
330
1F
100
AcDbEntity
  8
鏡台
  6
CONTINUOUS
 62
     6
100
AcDbLine
 10
1276.384198338001
 20
1865.9850532933
 30
0.0
 11
1262.554394119001
 21
1868.7199234411
 31
0.0
  0
LINE
  5
4B8
330
1F
100
AcDbEntity
  8
鏡台
  6
CONTINUOUS
 62
     6
100
AcDbLine
 10
1271.854861994
 20
1849.0813920857
 30
0.0
 11
1276.384198338001
 21
1865.9850532933
 31
0.0
  0
LINE
  5
4B9
330
1F
100
AcDbEntity
  8
鏡台
  6
CONTINUOUS
 62
     6
100
AcDbLine
 10
1257.745784778999
 20
1854.3809042252
 30
0.0
 11
1261.394412078
 21
1867.9977904105
 31
0.0
  0
LINE
  5
4BA
330
1F
100
AcDbEntity
  8
鏡台
  6
CONTINUOUS
 62
     6
100
AcDbLine
 10
1259.201123577001
 20
1828.6606048549
 30
0.0
 11
1254.25151588
 21
1829.986827798401
 31
0.0
  0
ARC
  5
4BB
330
1F
100
AcDbEntity
  8
鏡台
  6
CONTINUOUS
 62
     6
100
AcDbCircle
 10
1401.656676999999
 20
1803.334961
 30
0.0
 40
150.0
100
AcDbArc
 50
169.7364188339999
 51
175.9890140000003
  0
ARC
  5
4BC
330
1F
100
AcDbEntity
  8
鏡台
  6
CONTINUOUS
 62
     6
100
AcDbCircle
 10
1407.149474999999
 20
1803.616699
 30
0.0
 40
150.0
100
AcDbArc
 50
170.3937176707998
 51
175.6141359999999
  0
ARC
  5
4BD
330
1F
100
AcDbEntity
  8
鏡台
  6
CONTINUOUS
 62
     6
100
AcDbCircle
 10
1269.456094715001
 20
1846.6750589177
 30
0.0
 40
3.000000000000002
100
AcDbArc
 50
73.09075899999961
 51
161.29272500001
  0
ARC
  5
4BE
330
1F
100
AcDbEntity
  8
鏡台
  6
CONTINUOUS
 62
     6
100
AcDbCircle
 10
1254.510355234001
 20
1830.9527608013
 30
0.0
 40
1.0
100
AcDbArc
 50
168.6365359999535
 51
254.9999389999938
  0
ARC
  5
4BF
330
1F
100
AcDbEntity
  8
鏡台
  6
CONTINUOUS
 62
     6
100
AcDbCircle
 10
1259.459963018
 20
1829.6265368615
 30
0.0
 40
1.0
100
AcDbArc
 50
255.0000000000056
 51
341.2927249999935
  0
ARC
  5
4C0
330
1F
100
AcDbEntity
  8
鏡台
  6
CONTINUOUS
 62
     6
100
AcDbCircle
 10
1280.883656701001
 20
1855.4619192267
 30
0.0
 40
10.0
100
AcDbArc
 50
318.2563779999982
 51
11.74365199999793
  0
ARC
  5
4C1
330
1F
100
AcDbEntity
  8
鏡台
  6
CONTINUOUS
 62
     6
100
AcDbCircle
 10
1262.360344084
 20
1867.7389509697
 30
0.0
 40
1.0
100
AcDbArc
 50
78.8137819999758
 51
165.0000000000056
  0
ARC
  5
4C2
330
1F
100
AcDbEntity
  8
鏡台
  6
CONTINUOUS
 62
     6
100
AcDbCircle
 10
1258.711716784999
 20
1854.1220647845
 30
0.0
 40
1.0
100
AcDbArc
 50
164.9999999999553
 51
253.0908809999582
  0
ARC
  5
4C3
330
1F
100
AcDbEntity
  8
鏡台
  6
CONTINUOUS
 62
     6
100
AcDbCircle
 10
1131.748657
 20
1815.310058999999
 30
0.0
 40
120.0000000000001
100
AcDbArc
 50
332.4231260000005
 51
355.4096070000001
  0
ARC
  5
4C4
330
1F
100
AcDbEntity
  8
鏡台
  6
CONTINUOUS
 62
     6
100
AcDbCircle
 10
1137.644653
 20
1814.083008
 30
0.0
 40
120.0000000000001
100
AcDbArc
 50
330.778137
 51
356.6508789999999
  0
ARC
  5
4C5
330
1F
100
AcDbEntity
  8
鏡台
  6
CONTINUOUS
 62
     6
100
AcDbCircle
 10
1269.456094715001
 20
1846.6750589177
 30
0.0
 40
3.000000000000002
100
AcDbArc
 50
73.09075899999961
 51
161.29272500001
  0
ARC
  5
4C6
330
1F
100
AcDbEntity
  8
鏡台
  6
CONTINUOUS
 62
     6
100
AcDbCircle
 10
1254.510355234001
 20
1830.9527608013
 30
0.0
 40
1.0
100
AcDbArc
 50
168.6365359999535
 51
254.9999389999938
  0
ARC
  5
4C7
330
1F
100
AcDbEntity
  8
鏡台
  6
CONTINUOUS
 62
     6
100
AcDbCircle
 10
1259.459963018
 20
1829.6265368615
 30
0.0
 40
1.0
100
AcDbArc
 50
255.0000000000056
 51
341.2927249999935
  0
ARC
  5
4C8
330
1F
100
AcDbEntity
  8
鏡台
  6
CONTINUOUS
 62
     6
100
AcDbCircle
 10
1280.883656701001
 20
1855.4619192267
 30
0.0
 40
10.0
100
AcDbArc
 50
318.2563779999982
 51
11.74365199999793
  0
ARC
  5
4C9
330
1F
100
AcDbEntity
  8
鏡台
  6
CONTINUOUS
 62
     6
100
AcDbCircle
 10
1262.360344084
 20
1867.7389509697
 30
0.0
 40
1.0
100
AcDbArc
 50
78.8137819999758
 51
165.0000000000056
  0
ARC
  5
4CA
330
1F
100
AcDbEntity
  8
鏡台
  6
CONTINUOUS
 62
     6
100
AcDbCircle
 10
1258.711716784999
 20
1854.1220647845
 30
0.0
 40
1.0
100
AcDbArc
 50
164.9999999999553
 51
253.0908809999582
  0
ARC
  5
4CB
330
1F
100
AcDbEntity
  8
鏡台
  6
CONTINUOUS
 62
     6
100
AcDbCircle
 10
1248.627808
 20
1822.484741
 30
0.0
 40
17.00025
100
AcDbArc
 50
231.9271239999991
 51
288.0711059999998
  0
ARC
  5
4CC
330
1F
100
AcDbEntity
  8
鏡台
  6
CONTINUOUS
 62
     6
100
AcDbCircle
 10
1259.174561
 20
1790.161437999999
 30
0.0
 40
17.000208
100
AcDbArc
 50
79.99896199999944
 51
108.0710449999981
  0
ARC
  5
4CD
330
1F
100
AcDbEntity
  8
鏡台
  6
CONTINUOUS
 62
     6
100
AcDbCircle
 10
1259.174683
 20
1790.161621
 30
0.0
 40
17.000029
100
AcDbArc
 50
51.92639200000016
 51
79.99896199999789
  0
ARC
  5
4CE
330
1F
100
AcDbEntity
  8
鏡台
  6
CONTINUOUS
 62
     6
100
AcDbCircle
 10
1248.627808
 20
1830.484741
 30
0.0
 40
17.00025
100
AcDbArc
 50
231.9271239999991
 51
288.0711059999998
  0
ARC
  5
4CF
330
1F
100
AcDbEntity
  8
鏡台
  6
CONTINUOUS
 62
     6
100
AcDbCircle
 10
1259.174561
 20
1798.161437999999
 30
0.0
 40
17.000208
100
AcDbArc
 50
79.99896199999944
 51
108.0710449999981
  0
ARC
  5
4D0
330
1F
100
AcDbEntity
  8
鏡台
  6
CONTINUOUS
 62
     6
100
AcDbCircle
 10
1259.174683
 20
1798.161621
 30
0.0
 40
17.000029
100
AcDbArc
 50
51.92639200000016
 51
79.99896199999789
  0
ARC
  5
4D1
330
1F
100
AcDbEntity
  8
鏡台
  6
CONTINUOUS
 62
     6
100
AcDbCircle
 10
1220.0
 20
1775.5
 30
0.0
 40
30.00000000000002
100
AcDbArc
 50
270.0000000000002
 51
318.2063289999991
  0
ARC
  5
4D2
330
1F
100
AcDbEntity
  8
鏡台
  6
CONTINUOUS
 62
     6
100
AcDbCircle
 10
1220.0
 20
1775.5
 30
0.0
 40
24.00000000000002
100
AcDbArc
 50
270.0000000000002
 51
319.0090329999999
  0
LINE
  5
4D3
330
1F
100
AcDbEntity
  8
鏡台
  6
CONTINUOUS
 62
     6
100
AcDbLine
 10
670.0000000000002
 20
1738.499999999999
 30
0.0
 11
610.0000000000002
 21
1738.499999999999
 31
0.0
  0
LINE
  5
4D4
330
1F
100
AcDbEntity
  8
鏡台
  6
CONTINUOUS
 62
     6
100
AcDbLine
 10
640.0000000000002
 20
1768.499999999999
 30
0.0
 11
640.0000000000002
 21
1708.499999999999
 31
0.0
  0
CIRCLE
  5
4D5
330
1F
100
AcDbEntity
  8
鏡台
  6
CONTINUOUS
 62
     2
100
AcDbCircle
 10
640.0000000000002
 20
1738.5
 30
0.0
 40
7.000000000000004
  0
LINE
  5
4D6
330
1F
100
AcDbEntity
  8
鏡台
  6
CONTINUOUS
 62
     6
100
AcDbLine
 10
1175.0
 20
1738.499999999999
 30
0.0
 11
1115.0
 21
1738.499999999999
 31
0.0
  0
LINE
  5
4D7
330
1F
100
AcDbEntity
  8
鏡台
  6
CONTINUOUS
 62
     6
100
AcDbLine
 10
1145.0
 20
1768.499999999999
 30
0.0
 11
1145.0
 21
1708.499999999999
 31
0.0
  0
CIRCLE
  5
4D8
330
1F
100
AcDbEntity
  8
鏡台
  6
CONTINUOUS
 62
     2
100
AcDbCircle
 10
1145.0
 20
1738.5
 30
0.0
 40
7.000000000000004
  0
LINE
  5
4D9
330
1F
100
AcDbEntity
  8
鏡台
  6
CONTINUOUS
 62
     2
100
AcDbLine
 10
1220.0
 20
2690.5
 30
0.0
 11
1220.0
 21
1693.5
 31
0.0
  0
LINE
  5
4DA
330
1F
100
AcDbEntity
  8
鏡台
  6
CONTINUOUS
 62
     2
100
AcDbLine
 10
620.0000000000002
 20
2690.5
 30
0.0
 11
620.0000000000002
 21
1693.5
 31
0.0
  0
LINE
  5
4DB
330
1F
100
AcDbEntity
  8
鏡台
  6
CONTINUOUS
 62
     2
100
AcDbLine
 10
2435.0
 20
2697.5
 30
0.0
 11
2465.0
 21
2698.5
 31
0.0
  0
LINE
  5
4DC
330
1F
100
AcDbEntity
  8
鏡台
  6
CONTINUOUS
 62
     2
100
AcDbLine
 10
2288.0
 20
2684.5
 30
0.0
 11
2288.0
 21
2589.5
 31
0.0
  0
LINE
  5
4DD
330
1F
100
AcDbEntity
  8
鏡台
  6
CONTINUOUS
 62
     2
100
AcDbLine
 10
2288.0
 20
2589.5
 30
0.0
 11
2395.0
 21
2594.5
 31
0.0
  0
LINE
  5
4DE
330
1F
100
AcDbEntity
  8
鏡台
  6
CONTINUOUS
 62
     2
100
AcDbLine
 10
2288.0
 20
2684.5
 30
0.0
 11
2395.0
 21
2684.5
 31
0.0
  0
LINE
  5
4DF
330
1F
100
AcDbEntity
  8
鏡台
  6
CONTINUOUS
 62
     6
100
AcDbLine
 10
2288.0
 20
2673.5
 30
0.0
 11
2395.0
 21
2673.5
 31
0.0
  0
LINE
  5
4E0
330
1F
100
AcDbEntity
  8
鏡台
  6
CONTINUOUS
 62
     6
100
AcDbLine
 10
2288.0
 20
2668.5
 30
0.0
 11
2395.0
 21
2668.5
 31
0.0
  0
LINE
  5
4E1
330
1F
100
AcDbEntity
  8
鏡台
  6
CONTINUOUS
 62
     2
100
AcDbLine
 10
2341.5
 20
2388.5
 30
0.0
 11
2341.5
 21
2383.5
 31
0.0
  0
LINE
  5
4E2
330
1F
100
AcDbEntity
  8
鏡台
  6
CONTINUOUS
 62
     2
100
AcDbLine
 10
2342.5
 20
2349.0
 30
0.0
 11
2435.0
 21
2332.0
 31
0.0
  0
LINE
  5
4E3
330
1F
100
AcDbEntity
  8
鏡台
  6
CONTINUOUS
 62
     2
100
AcDbLine
 10
2341.5
 20
2388.5
 30
0.0
 11
2435.0
 21
2388.5
 31
0.0
  0
LINE
  5
4E4
330
1F
100
AcDbEntity
  8
鏡台
  6
CONTINUOUS
 62
     2
100
AcDbLine
 10
2342.5
 20
2383.5
 30
0.0
 11
2342.5
 21
2349.0
 31
0.0
  0
LINE
  5
4E5
330
1F
100
AcDbEntity
  8
鏡台
  6
CONTINUOUS
 62
     2
100
AcDbLine
 10
2341.5
 20
2135.5
 30
0.0
 11
2341.5
 21
2130.5
 31
0.0
  0
LINE
  5
4E6
330
1F
100
AcDbEntity
  8
鏡台
  6
CONTINUOUS
 62
     2
100
AcDbLine
 10
2342.5
 20
2096.0
 30
0.0
 11
2435.0
 21
2079.0
 31
0.0
  0
LINE
  5
4E7
330
1F
100
AcDbEntity
  8
鏡台
  6
CONTINUOUS
 62
     2
100
AcDbLine
 10
2341.5
 20
2135.5
 30
0.0
 11
2435.0
 21
2135.5
 31
0.0
  0
LINE
  5
4E8
330
1F
100
AcDbEntity
  8
鏡台
  6
CONTINUOUS
 62
     2
100
AcDbLine
 10
2342.5
 20
2130.5
 30
0.0
 11
2342.5
 21
2096.0
 31
0.0
  0
LINE
  5
4E9
330
1F
100
AcDbEntity
  8
鏡台
  6
CONTINUOUS
 62
     2
100
AcDbLine
 10
2341.5
 20
1833.5
 30
0.0
 11
2341.5
 21
1828.5
 31
0.0
  0
LINE
  5
4EA
330
1F
100
AcDbEntity
  8
鏡台
  6
CONTINUOUS
 62
     2
100
AcDbLine
 10
2342.5
 20
1794.0
 30
0.0
 11
2435.0
 21
1777.0
 31
0.0
  0
LINE
  5
4EB
330
1F
100
AcDbEntity
  8
鏡台
  6
CONTINUOUS
 62
     2
100
AcDbLine
 10
2341.5
 20
1833.5
 30
0.0
 11
2435.0
 21
1833.5
 31
0.0
  0
LINE
  5
4EC
330
1F
100
AcDbEntity
  8
鏡台
  6
CONTINUOUS
 62
     2
100
AcDbLine
 10
2342.5
 20
1828.5
 30
0.0
 11
2342.5
 21
1794.0
 31
0.0
  0
LINE
  5
4ED
330
1F
100
AcDbEntity
  8
鏡台
  6
CONTINUOUS
 62
     2
100
AcDbLine
 10
2415.0
 20
2335.675675675676
 30
0.0
 11
2415.0
 21
2135.5
 31
0.0
  0
LINE
  5
4EE
330
1F
100
AcDbEntity
  8
鏡台
  6
CONTINUOUS
 62
     6
100
AcDbLine
 10
2450.0
 20
2518.5
 30
0.0
 11
2512.5
 21
2518.5
 31
0.0
  0
LINE
  5
4EF
330
1F
100
AcDbEntity
  8
鏡台
  6
CONTINUOUS
 62
     6
100
AcDbLine
 10
2465.0
 20
2520.5
 30
0.0
 11
2497.5
 21
2518.5
 31
0.0
  0
LINE
  5
4F0
330
1F
100
AcDbEntity
  8
鏡台
  6
CONTINUOUS
 62
     6
100
AcDbLine
 10
2497.5
 20
2518.5
 30
0.0
 11
2465.0
 21
2516.5
 31
0.0
  0
LINE
  5
4F1
330
1F
100
AcDbEntity
  8
鏡台
  6
CONTINUOUS
 62
     6
100
AcDbLine
 10
2450.0
 20
2018.5
 30
0.0
 11
2512.5
 21
2018.5
 31
0.0
  0
LINE
  5
4F2
330
1F
100
AcDbEntity
  8
鏡台
  6
CONTINUOUS
 62
     6
100
AcDbLine
 10
2465.0
 20
2020.5
 30
0.0
 11
2497.5
 21
2018.5
 31
0.0
  0
LINE
  5
4F3
330
1F
100
AcDbEntity
  8
鏡台
  6
CONTINUOUS
 62
     6
100
AcDbLine
 10
2497.5
 20
2018.5
 30
0.0
 11
2465.0
 21
2016.5
 31
0.0
  0
LINE
  5
4F4
330
1F
100
AcDbEntity
  8
鏡台
  6
CONTINUOUS
 62
     2
100
AcDbLine
 10
2399.502481404896
 20
2693.95024814049
 30
0.0
 11
2435.0
 21
2697.5
 31
0.0
  0
ARC
  5
4F5
330
1F
100
AcDbEntity
  8
鏡台
  6
CONTINUOUS
 62
     2
100
AcDbCircle
 10
2400.0
 20
2688.97506218944
 30
0.0
 40
5.0
100
AcDbArc
 50
95.7105931375006
 51
180.0
  0
ARC
  5
4F6
330
1F
100
AcDbEntity
  8
鏡台
  6
CONTINUOUS
 62
     2
100
AcDbCircle
 10
2440.0
 20
2692.663889660066
 30
0.0
 40
5.0
100
AcDbArc
 50
91.90915243299736
 51
180.0
  0
LINE
  5
4F7
330
1F
100
AcDbEntity
  8
鏡台
  6
CONTINUOUS
 62
     2
100
AcDbLine
 10
2395.0
 20
2688.97506218944
 30
0.0
 11
2395.0
 21
2593.353747659175
 31
0.0
  0
LINE
  5
4F8
330
1F
100
AcDbEntity
  8
鏡台
  6
CONTINUOUS
 62
     2
100
AcDbLine
 10
2435.0
 20
2588.5
 30
0.0
 11
2397.850187149169
 21
2590.357490642542
 31
0.0
  0
ARC
  5
4F9
330
1F
100
AcDbEntity
  8
鏡台
  6
CONTINUOUS
 62
     2
100
AcDbCircle
 10
2398.0
 20
2593.353747659175
 30
0.0
 40
3.000000000000002
100
AcDbArc
 50
180.0
 51
267.1375947738941
  0
LINE
  5
4FA
330
1F
100
AcDbEntity
  8
鏡台
  6
CONTINUOUS
 62
     6
100
AcDbLine
 10
2432.0
 20
2388.5
 30
0.0
 11
2432.0
 21
2332.551351351352
 31
0.0
  0
LINE
  5
4FB
330
1F
100
AcDbEntity
  8
鏡台
  6
CONTINUOUS
 62
     6
100
AcDbLine
 10
2341.5
 20
2383.5
 30
0.0
 11
2432.0
 21
2383.5
 31
0.0
  0
LINE
  5
4FC
330
1F
100
AcDbEntity
  8
鏡台
  6
CONTINUOUS
 62
     6
100
AcDbLine
 10
2341.5
 20
2130.5
 30
0.0
 11
2432.0
 21
2130.5
 31
0.0
  0
LINE
  5
4FD
330
1F
100
AcDbEntity
  8
鏡台
  6
CONTINUOUS
 62
     6
100
AcDbLine
 10
2432.0
 20
2135.5
 30
0.0
 11
2432.0
 21
2079.551351351352
 31
0.0
  0
LINE
  5
4FE
330
1F
100
AcDbEntity
  8
鏡台
  6
CONTINUOUS
 62
     6
100
AcDbLine
 10
2341.5
 20
1828.5
 30
0.0
 11
2432.0
 21
1828.5
 31
0.0
  0
LINE
  5
4FF
330
1F
100
AcDbEntity
  8
鏡台
  6
CONTINUOUS
 62
     6
100
AcDbLine
 10
2432.0
 20
1833.5
 30
0.0
 11
2432.0
 21
1777.551351351352
 31
0.0
  0
LINE
  5
500
330
1F
100
AcDbEntity
  8
鏡台
  6
CONTINUOUS
 62
     6
100
AcDbLine
 10
2450.0
 20
1738.5
 30
0.0
 11
2512.5
 21
1738.5
 31
0.0
  0
LINE
  5
501
330
1F
100
AcDbEntity
  8
鏡台
  6
CONTINUOUS
 62
     6
100
AcDbLine
 10
2465.0
 20
1740.5
 30
0.0
 11
2497.5
 21
1738.5
 31
0.0
  0
LINE
  5
502
330
1F
100
AcDbEntity
  8
鏡台
  6
CONTINUOUS
 62
     6
100
AcDbLine
 10
2497.5
 20
1738.5
 30
0.0
 11
2465.0
 21
1736.5
 31
0.0
  0
LINE
  5
503
330
1F
100
AcDbEntity
  8
鏡台
  6
CONTINUOUS
 62
     2
100
AcDbLine
 10
2465.0
 20
1693.5
 30
0.0
 11
2465.0
 21
2698.5
 31
0.0
  0
LINE
  5
504
330
1F
100
AcDbEntity
  8
鏡台
  6
CONTINUOUS
 62
     2
100
AcDbLine
 10
2435.0
 20
1693.5
 30
0.0
 11
2435.0
 21
2692.663889660066
 31
0.0
  0
DIMENSION
  5
506
330
1F
100
AcDbEntity
  8
寸法
  6
CONTINUOUS
 62
     3
100
AcDbDimension
  2
*D15
 10
2465.0
 20
778.5
 30
0.0
 11
2675.0
 21
813.749999910593
 31
0.0
 70
   160
  1
85（床給水）
  3
ISO-25
100
AcDbAlignedDimension
 13
2380.0
 23
890.5
 33
0.0
 14
2465.0
 24
898.5
 34
0.0
100
AcDbRotatedDimension
1001
ACAD
1000
DSTYLE
1002
{
1070
   270
1070
     2
1070
     6
1000
EX_NORM
1070
     7
1000
EX_NORM
1070
    41
1040
44.99999618530273
1070
    42
1040
10.49999982118607
1070
    44
1040
15.0
1070
    73
1070
     0
1070
    74
1070
     0
1070
    75
1070
     0
1070
    76
1070
     0
1070
    77
1070
     1
1070
    78
1070
     0
1070
   140
1040
59.99999618530273
1070
   147
1040
0.0
1070
   173
1070
     1
1070
   176
1070
     3
1070
   177
1070
     3
1070
   178
1070
     2
1070
   271
1070
     0
1070
   277
1070
     2
1070
   279
1070
     2
1070
   280
1070
     2
1070
   287
1070
     5
1070
   340
1005
505
1002
}
  0
DIMENSION
  5
516
330
1F
100
AcDbEntity
  8
寸法
  6
CONTINUOUS
 62
     3
100
AcDbDimension
  2
*D16
 10
2570.0
 20
1248.5
 30
0.0
 11
2534.750000089407
 21
1073.5
 31
0.0
 70
   160
  1
350（壁給水）
  3
ISO-25
100
AcDbAlignedDimension
 13
2465.0
 23
898.5
 33
0.0
 14
2473.0
 24
1248.5
 34
0.0
 50
90.0
100
AcDbRotatedDimension
1001
ACAD
1000
DSTYLE
1002
{
1070
   270
1070
     2
1070
     6
1000
EX_NORM
1070
     7
1000
EX_NORM
1070
    41
1040
44.99999618530273
1070
    42
1040
10.49999982118607
1070
    44
1040
15.0
1070
    73
1070
     0
1070
    74
1070
     0
1070
    75
1070
     0
1070
    76
1070
     0
1070
    77
1070
     1
1070
    78
1070
     0
1070
   140
1040
59.99999618530273
1070
   147
1040
0.0
1070
   173
1070
     1
1070
   176
1070
     3
1070
   177
1070
     3
1070
   178
1070
     2
1070
   271
1070
     0
1070
   277
1070
     2
1070
   279
1070
     2
1070
   280
1070
     0
1070
   287
1070
     5
1070
   340
1005
505
1002
}
  0
DIMENSION
  5
523
330
1F
100
AcDbEntity
  8
寸法
  6
CONTINUOUS
 62
     3
100
AcDbDimension
  2
*D17
 10
2660.0
 20
1398.5
 30
0.0
 11
2624.750000089407
 21
1148.5
 31
0.0
 70
   160
  1
500（壁排水）
  3
ISO-25
100
AcDbAlignedDimension
 13
2465.0
 23
898.5
 33
0.0
 14
2486.0
 24
1398.5
 34
0.0
 50
90.0
100
AcDbRotatedDimension
1001
ACAD
1000
DSTYLE
1002
{
1070
   270
1070
     2
1070
     6
1000
EX_NORM
1070
     7
1000
EX_NORM
1070
    41
1040
44.99999618530273
1070
    42
1040
10.49999982118607
1070
    44
1040
15.0
1070
    73
1070
     0
1070
    74
1070
     0
1070
    75
1070
     0
1070
    76
1070
     0
1070
    77
1070
     1
1070
    78
1070
     0
1070
   140
1040
59.99999618530273
1070
   147
1040
0.0
1070
   173
1070
     1
1070
   176
1070
     3
1070
   177
1070
     3
1070
   178
1070
     2
1070
   271
1070
     0
1070
   277
1070
     2
1070
   279
1070
     2
1070
   280
1070
     0
1070
   287
1070
     5
1070
   340
1005
505
1002
}
  0
DIMENSION
  5
530
330
1F
100
AcDbEntity
  8
寸法
  6
CONTINUOUS
 62
     3
100
AcDbDimension
  2
*D18
 10
2750.0
 20
1453.5
 30
0.0
 11
2714.750000089407
 21
1176.0
 31
0.0
 70
   160
  1
555（壁固定）
  3
ISO-25
100
AcDbAlignedDimension
 13
2465.0
 23
898.5
 33
0.0
 14
2497.5
 24
1453.5
 34
0.0
 50
90.0
100
AcDbRotatedDimension
1001
ACAD
1000
DSTYLE
1002
{
1070
   270
1070
     2
1070
     6
1000
EX_NORM
1070
     7
1000
EX_NORM
1070
    41
1040
44.99999618530273
1070
    42
1040
10.49999982118607
1070
    44
1040
15.0
1070
    73
1070
     0
1070
    74
1070
     0
1070
    75
1070
     0
1070
    76
1070
     0
1070
    77
1070
     1
1070
    78
1070
     0
1070
   140
1040
59.99999618530273
1070
   147
1040
0.0
1070
   173
1070
     1
1070
   176
1070
     3
1070
   177
1070
     3
1070
   178
1070
     2
1070
   271
1070
     0
1070
   277
1070
     2
1070
   279
1070
     2
1070
   280
1070
     0
1070
   287
1070
     5
1070
   340
1005
505
1002
}
  0
DIMENSION
  5
53D
330
1F
100
AcDbEntity
  8
寸法
  6
CONTINUOUS
 62
     3
100
AcDbDimension
  2
*D19
 10
2465.0
 20
598.5
 30
0.0
 11
2270.0
 21
633.749999910593
 31
0.0
 70
   160
  3
ISO-25
100
AcDbAlignedDimension
 13
2075.0
 23
902.0
 33
0.0
 14
2465.0
 24
898.5
 34
0.0
100
AcDbRotatedDimension
1001
ACAD
1000
DSTYLE
1002
{
1070
   270
1070
     2
1070
     6
1000
EX_NORM
1070
     7
1000
EX_NORM
1070
    41
1040
44.99999618530273
1070
    42
1040
10.49999982118607
1070
    44
1040
15.0
1070
    73
1070
     0
1070
    74
1070
     0
1070
    75
1070
     0
1070
    76
1070
     0
1070
    77
1070
     1
1070
    78
1070
     0
1070
   140
1040
59.99999618530273
1070
   147
1040
0.0
1070
   173
1070
     1
1070
   176
1070
     3
1070
   177
1070
     3
1070
   178
1070
     2
1070
   271
1070
     0
1070
   277
1070
     2
1070
   279
1070
     2
1070
   280
1070
     0
1070
   287
1070
     5
1070
   340
1005
505
1002
}
  0
TEXT
  5
54A
330
1F
100
AcDbEntity
  8
寸法
  6
CONTINUOUS
 62
     2
100
AcDbText
 10
618.0000003576283
 20
4055.249999910593
 30
0.0
 40
59.99999618530273
  1
壁排水
 41
1.070588224822399
  7
EXCADSTD
 72
     5
 11
773.9999889135365
 21
4055.249999910593
 31
0.0
100
AcDbText
  0
LEADER
  5
54B
330
1F
100
AcDbEntity
  8
寸法
  6
CONTINUOUS
 62
     3
100
AcDbLeader
  3
ISO-25
 76
     3
 10
904.0000000000402
 20
3993.0
 30
0.0
 10
781.5000000000002
 20
4050.0
 30
0.0
 10
610.5000000000002
 20
4050.0
 30
0.0
1001
ACAD
1000
DSTYLE
1002
{
1070
     5
1000
EX_NORM
1070
    41
1040
45.0
1070
   341
1005
4D
1002
}
  0
DIMENSION
  5
54C
330
1F
100
AcDbEntity
  8
寸法
  6
CONTINUOUS
 62
     3
100
AcDbDimension
  2
*D20
 10
971.0000000000002
 20
1873.5
 30
0.0
 11
920.0000000000002
 21
1908.749999910593
 31
0.0
 70
   160
  3
ISO-25
100
AcDbAlignedDimension
 13
869.0000000000002
 23
1680.722387698
 33
0.0
 14
971.0000000000002
 24
1690.222387698
 34
0.0
100
AcDbRotatedDimension
1001
ACAD
1000
DSTYLE
1002
{
1070
   270
1070
     2
1070
     6
1000
EX_NORM
1070
     7
1000
EX_NORM
1070
    41
1040
44.99999618530273
1070
    42
1040
10.49999982118607
1070
    44
1040
15.0
1070
    73
1070
     0
1070
    74
1070
     0
1070
    75
1070
     0
1070
    76
1070
     0
1070
    77
1070
     1
1070
    78
1070
     0
1070
   140
1040
59.99999618530273
1070
   147
1040
0.0
1070
   173
1070
     1
1070
   176
1070
     3
1070
   177
1070
     3
1070
   178
1070
     2
1070
   271
1070
     0
1070
   277
1070
     2
1070
   279
1070
     2
1070
   280
1070
     0
1070
   287
1070
     5
1070
   340
1005
505
1002
}
  0
DIMENSION
  5
559
330
1F
100
AcDbEntity
  8
寸法
  6
CONTINUOUS
 62
     3
100
AcDbDimension
  2
*D21
 10
2465.0
 20
1873.5
 30
0.0
 11
2287.5
 21
1908.749999910593
 31
0.0
 70
   160
  3
ISO-25
100
AcDbAlignedDimension
 13
2385.0
 23
1683.5
 33
0.0
 14
2465.0
 24
1693.5
 34
0.0
100
AcDbRotatedDimension
1001
ACAD
1000
DSTYLE
1002
{
1070
   270
1070
     2
1070
     6
1000
EX_NORM
1070
     7
1000
EX_NORM
1070
    41
1040
44.99999618530273
1070
    42
1040
10.49999982118607
1070
    44
1040
15.0
1070
    73
1070
     0
1070
    74
1070
     0
1070
    75
1070
     0
1070
    76
1070
     1
1070
    77
1070
     1
1070
    78
1070
     0
1070
   140
1040
59.99999618530273
1070
   147
1040
0.0
1070
   173
1070
     1
1070
   176
1070
     3
1070
   177
1070
     3
1070
   178
1070
     2
1070
   271
1070
     0
1070
   277
1070
     2
1070
   279
1070
     2
1070
   280
1070
     1
1070
   287
1070
     5
1070
   340
1005
505
1002
}
  0
TEXT
  5
567
330
1F
100
AcDbEntity
  8
寸法
  6
CONTINUOUS
 62
     2
100
AcDbText
 10
1587.000001430511
 20
754.7499960958958
 30
0.0
 40
59.99999618530273
  1
ＶＰ･ＶＵ４０･５０
 41
0.8542372745578565
  7
EXCADSTD
 72
     5
 11
2018.999967098236
 21
754.7499960958958
 31
0.0
100
AcDbText
  0
TEXT
  5
568
330
1F
100
AcDbEntity
  8
寸法
  6
CONTINUOUS
 62
     2
100
AcDbText
 10
1587.000001430511
 20
694.749999910593
 30
0.0
 40
59.99999618530273
  1
４０～５０㎜立上げ
 41
0.9773584771306252
  7
EXCADSTD
 72
     5
 11
2030.999967098236
 21
694.749999910593
 31
0.0
100
AcDbText
  0
LEADER
  5
569
330
1F
100
AcDbEntity
  8
寸法
  6
CONTINUOUS
 62
     3
100
AcDbLeader
  3
ISO-25
 76
     3
 10
2329.0
 20
898.5
 30
0.0
 10
2038.5
 20
689.5
 30
0.0
 10
1591.499999999998
 20
689.5
 30
0.0
1001
ACAD
1000
DSTYLE
1002
{
1070
     5
1000
EX_NORM
1070
    41
1040
45.0
1070
   341
1005
4D
1002
}
  0
TEXT
  5
56A
330
1F
100
AcDbEntity
  8
寸法
  6
CONTINUOUS
 62
     2
100
AcDbText
 10
2572.5
 20
1500.249999910593
 30
0.0
 40
59.99999618530273
  1
Ｒ１/２
 41
0.8342465643686785
  7
EXCADSTD
 72
     5
 11
2746.49998664856
 21
1500.249999910593
 31
0.0
100
AcDbText
  0
LEADER
  5
56B
330
1F
100
AcDbEntity
  8
寸法
  6
CONTINUOUS
 62
     3
100
AcDbLeader
  3
ISO-25
 76
     3
 10
2473.0
 20
1259.0
 30
0.0
 10
2565.0
 20
1495.0
 30
0.0
 10
2731.5
 20
1495.0
 30
0.0
1001
ACAD
1000
DSTYLE
1002
{
1070
     5
1000
EX_NORM
1070
    41
1040
45.0
1070
   341
1005
4D
1002
}
  0
DIMENSION
  5
56C
330
1F
100
AcDbEntity
  8
寸法
  6
CONTINUOUS
 62
     3
100
AcDbDimension
  2
*D22
 10
2465.0
 20
688.5
 30
0.0
 11
2697.5
 21
723.749999910593
 31
0.0
 70
   160
  1
120（床排水）
  3
ISO-25
100
AcDbAlignedDimension
 13
2345.0
 23
868.5
 33
0.0
 14
2465.0
 24
898.5
 34
0.0
100
AcDbRotatedDimension
1001
ACAD
1000
DSTYLE
1002
{
1070
   270
1070
     2
1070
     6
1000
EX_NORM
1070
     7
1000
EX_NORM
1070
    41
1040
44.99999618530273
1070
    42
1040
10.49999982118607
1070
    44
1040
15.0
1070
    73
1070
     0
1070
    74
1070
     0
1070
    75
1070
     0
1070
    76
1070
     0
1070
    77
1070
     1
1070
    78
1070
     0
1070
   140
1040
59.99999618530273
1070
   147
1040
0.0
1070
   173
1070
     1
1070
   176
1070
     3
1070
   177
1070
     3
1070
   178
1070
     2
1070
   271
1070
     0
1070
   277
1070
     2
1070
   279
1070
     2
1070
   280
1070
     2
1070
   287
1070
     5
1070
   340
1005
505
1002
}
  0
DIMENSION
  5
579
330
1F
100
AcDbEntity
  8
寸法
  6
CONTINUOUS
 62
     3
100
AcDbDimension
  2
*D23
 10
1020.0
 20
688.5
 30
0.0
 11
1252.5
 21
723.749999910593
 31
0.0
 70
   160
  1
200（床給水）
  3
ISO-25
100
AcDbAlignedDimension
 13
820.000000000002
 23
890.5
 33
0.0
 14
1020.0
 24
890.5
 34
0.0
100
AcDbRotatedDimension
1001
ACAD
1000
DSTYLE
1002
{
1070
   270
1070
     2
1070
     6
1000
EX_NORM
1070
     7
1000
EX_NORM
1070
    41
1040
44.99999618530273
1070
    42
1040
10.49999982118607
1070
    44
1040
15.0
1070
    73
1070
     0
1070
    74
1070
     0
1070
    75
1070
     0
1070
    76
1070
     0
1070
    77
1070
     1
1070
    78
1070
     0
1070
   140
1040
59.99999618530273
1070
   147
1040
0.0
1070
   173
1070
     1
1070
   176
1070
     3
1070
   177
1070
     3
1070
   178
1070
     2
1070
   271
1070
     0
1070
   277
1070
     2
1070
   279
1070
     2
1070
   280
1070
     2
1070
   287
1070
     5
1070
   340
1005
505
1002
}
  0
TEXT
  5
586
330
1F
100
AcDbEntity
  8
寸法
  6
CONTINUOUS
 62
     2
100
AcDbText
 10
618.0000003576281
 20
760.749999910593
 30
0.0
 40
59.99999618530273
  1
床排水
 41
1.070588224822399
  7
EXCADSTD
 72
     5
 11
773.9999889135363
 21
760.749999910593
 31
0.0
100
AcDbText
  0
LEADER
  5
587
330
1F
100
AcDbEntity
  8
寸法
  6
CONTINUOUS
 62
     3
100
AcDbLeader
  3
ISO-25
 76
     3
 10
904.0000000000002
 20
868.5
 30
0.0
 10
781.5000000000002
 20
755.5
 30
0.0
 10
606.0000000000002
 20
755.5
 30
0.0
1001
ACAD
1000
DSTYLE
1002
{
1070
     5
1000
EX_NORM
1070
    41
1040
45.0
1070
   341
1005
4D
1002
}
  0
DIMENSION
  5
588
330
1F
100
AcDbEntity
  8
寸法
  6
CONTINUOUS
 62
     3
100
AcDbDimension
  2
*D24
 10
1020.0
 20
4078.0
 30
0.0
 11
1252.5
 21
4113.249999910593
 31
0.0
 70
   160
  1
200（壁給水）
  3
ISO-25
100
AcDbAlignedDimension
 13
820.000000000002
 23
3981.0
 33
0.0
 14
1020.0
 24
3981.0
 34
0.0
100
AcDbRotatedDimension
1001
ACAD
1000
DSTYLE
1002
{
1070
   270
1070
     2
1070
     6
1000
EX_NORM
1070
     7
1000
EX_NORM
1070
    41
1040
44.99999618530273
1070
    42
1040
10.49999982118607
1070
    44
1040
15.0
1070
    73
1070
     0
1070
    74
1070
     0
1070
    75
1070
     0
1070
    76
1070
     0
1070
    77
1070
     1
1070
    78
1070
     0
1070
   140
1040
59.99999618530273
1070
   147
1040
0.0
1070
   173
1070
     1
1070
   176
1070
     3
1070
   177
1070
     3
1070
   178
1070
     2
1070
   271
1070
     0
1070
   277
1070
     2
1070
   279
1070
     2
1070
   280
1070
     2
1070
   287
1070
     5
1070
   340
1005
505
1002
}
  0
DIMENSION
  5
595
330
1F
100
AcDbEntity
  8
寸法
  6
CONTINUOUS
 62
     3
100
AcDbDimension
  2
*D25
 10
1219.999999999997
 20
3388.0
 30
0.0
 11
919.9999999999986
 21
3423.249999910593
 31
0.0
 70
   160
  3
ISO-25
100
AcDbAlignedDimension
 13
620.0000000000002
 23
3532.4579493249
 33
0.0
 14
1219.999999999997
 24
3532.4579493249
 34
0.0
100
AcDbRotatedDimension
1001
ACAD
1000
DSTYLE
1002
{
1070
   270
1070
     2
1070
     6
1000
EX_NORM
1070
     7
1000
EX_NORM
1070
    41
1040
44.99999618530273
1070
    42
1040
10.49999982118607
1070
    44
1040
15.0
1070
    73
1070
     0
1070
    74
1070
     0
1070
    75
1070
     0
1070
    76
1070
     0
1070
    77
1070
     1
1070
    78
1070
     0
1070
   140
1040
59.99999618530273
1070
   147
1040
0.0
1070
   173
1070
     1
1070
   176
1070
     3
1070
   177
1070
     3
1070
   178
1070
     2
1070
   271
1070
     0
1070
   277
1070
     2
1070
   279
1070
     2
1070
   280
1070
     0
1070
   287
1070
     5
1070
   340
1005
505
1002
}
  0
DIMENSION
  5
5A2
330
1F
100
AcDbEntity
  8
寸法
  6
CONTINUOUS
 62
     3
100
AcDbDimension
  2
*D26
 10
1324.999999999997
 20
3973.0
 30
0.0
 11
1289.750000089404
 21
3732.999999999999
 31
0.0
 70
   160
  3
ISO-25
100
AcDbAlignedDimension
 13
920.0000000000002
 23
3493.0
 33
0.0
 14
1294.999999999997
 24
3973.0
 34
0.0
 50
90.0
100
AcDbRotatedDimension
1001
ACAD
1000
DSTYLE
1002
{
1070
   270
1070
     2
1070
     6
1000
EX_NORM
1070
     7
1000
EX_NORM
1070
    41
1040
44.99999618530273
1070
    42
1040
10.49999982118607
1070
    44
1040
15.0
1070
    73
1070
     0
1070
    74
1070
     0
1070
    75
1070
     0
1070
    76
1070
     1
1070
    77
1070
     1
1070
    78
1070
     0
1070
   140
1040
59.99999618530273
1070
   147
1040
0.0
1070
   173
1070
     1
1070
   176
1070
     3
1070
   177
1070
     3
1070
   178
1070
     2
1070
   271
1070
     0
1070
   277
1070
     2
1070
   279
1070
     2
1070
   280
1070
     0
1070
   287
1070
     5
1070
   340
1005
505
1002
}
  0
DIMENSION
  5
5AE
330
1F
100
AcDbEntity
  8
寸法
  6
CONTINUOUS
 62
     3
100
AcDbDimension
  2
*D27
 10
1114.999999999997
 20
4168.0
 30
0.0
 11
919.9999999999986
 21
4203.249999910593
 31
0.0
 70
   160
  1
<>（壁固定）
  3
ISO-25
100
AcDbAlignedDimension
 13
725.0000000000002
 23
4005.5
 33
0.0
 14
1114.999999999997
 24
4005.5
 34
0.0
100
AcDbRotatedDimension
1001
ACAD
1000
DSTYLE
1002
{
1070
   270
1070
     2
1070
     6
1000
EX_NORM
1070
     7
1000
EX_NORM
1070
    41
1040
44.99999618530273
1070
    42
1040
145.0000047683716
1070
    44
1040
15.0
1070
    73
1070
     0
1070
    74
1070
     0
1070
    75
1070
     0
1070
    76
1070
     0
1070
    77
1070
     1
1070
    78
1070
     0
1070
   140
1040
59.99999618530273
1070
   147
1040
0.0
1070
   173
1070
     1
1070
   176
1070
     3
1070
   177
1070
     3
1070
   178
1070
     2
1070
   271
1070
     0
1070
   277
1070
     2
1070
   279
1070
     2
1070
   280
1070
     0
1070
   287
1070
     5
1070
   340
1005
505
1002
}
  0
DIMENSION
  5
5BB
330
1F
100
AcDbEntity
  8
寸法
  6
CONTINUOUS
 62
     3
100
AcDbDimension
  2
*D28
 10
1203.499999999997
 20
598.5
 30
0.0
 11
919.9999999999984
 21
633.749999910593
 31
0.0
 70
   160
  3
ISO-25
100
AcDbAlignedDimension
 13
636.5000000000002
 23
898.5
 33
0.0
 14
1203.499999999997
 24
898.5
 34
0.0
100
AcDbRotatedDimension
1001
ACAD
1000
DSTYLE
1002
{
1070
   270
1070
     2
1070
     6
1000
EX_NORM
1070
     7
1000
EX_NORM
1070
    41
1040
44.99999618530273
1070
    42
1040
237.4999952316284
1070
    44
1040
15.0
1070
    73
1070
     0
1070
    74
1070
     0
1070
    75
1070
     0
1070
    76
1070
     0
1070
    77
1070
     1
1070
    78
1070
     0
1070
   140
1040
59.99999618530273
1070
   147
1040
0.0
1070
   173
1070
     1
1070
   176
1070
     3
1070
   177
1070
     3
1070
   178
1070
     2
1070
   271
1070
     0
1070
   277
1070
     2
1070
   279
1070
     2
1070
   280
1070
     0
1070
   287
1070
     5
1070
   340
1005
505
1002
}
  0
DIMENSION
  5
5C8
330
1F
100
AcDbEntity
  8
寸法
  6
CONTINUOUS
 62
     3
100
AcDbDimension
  2
*D29
 10
1372.499999999998
 20
1678.5
 30
0.0
 11
1337.250000089405
 21
1288.5
 31
0.0
 70
   160
  3
ISO-25
100
AcDbAlignedDimension
 13
1278.499999999997
 23
898.5
 33
0.0
 14
920.0000000000002
 24
1678.5
 34
0.0
 50
90.0
100
AcDbRotatedDimension
1001
ACAD
1000
DSTYLE
1002
{
1070
   270
1070
     2
1070
     6
1000
EX_NORM
1070
     7
1000
EX_NORM
1070
    41
1040
44.99999618530273
1070
    42
1040
10.49999982118607
1070
    44
1040
15.0
1070
    73
1070
     0
1070
    74
1070
     0
1070
    75
1070
     1
1070
    76
1070
     0
1070
    77
1070
     1
1070
    78
1070
     0
1070
   140
1040
59.99999618530273
1070
   147
1040
0.0
1070
   173
1070
     1
1070
   176
1070
     3
1070
   177
1070
     3
1070
   178
1070
     2
1070
   271
1070
     0
1070
   277
1070
     2
1070
   279
1070
     2
1070
   280
1070
     0
1070
   287
1070
     5
1070
   340
1005
505
1002
}
  0
DIMENSION
  5
5D4
330
1F
100
AcDbEntity
  8
寸法
  6
CONTINUOUS
 62
     3
100
AcDbDimension
  2
*D30
 10
1462.499999999998
 20
1693.5
 30
0.0
 11
1427.250000089405
 21
1296.0
 31
0.0
 70
   160
  3
ISO-25
100
AcDbAlignedDimension
 13
1203.499999999997
 23
898.5
 33
0.0
 14
1214.999999999997
 24
1693.5
 34
0.0
 50
90.0
100
AcDbRotatedDimension
1001
ACAD
1000
DSTYLE
1002
{
1070
   270
1070
     2
1070
     6
1000
EX_NORM
1070
     7
1000
EX_NORM
1070
    41
1040
44.99999618530273
1070
    42
1040
10.49999982118607
1070
    44
1040
15.0
1070
    73
1070
     0
1070
    74
1070
     0
1070
    75
1070
     1
1070
    76
1070
     0
1070
    77
1070
     1
1070
    78
1070
     0
1070
   140
1040
59.99999618530273
1070
   147
1040
0.0
1070
   173
1070
     1
1070
   176
1070
     3
1070
   177
1070
     3
1070
   178
1070
     2
1070
   271
1070
     0
1070
   277
1070
     2
1070
   279
1070
     2
1070
   280
1070
     0
1070
   287
1070
     5
1070
   340
1005
505
1002
}
  0
DIMENSION
  5
5E0
330
1F
100
AcDbEntity
  8
寸法
  6
CONTINUOUS
 62
     3
100
AcDbDimension
  2
*D31
 10
2840.0
 20
1738.5
 30
0.0
 11
2804.750000089407
 21
1318.5
 31
0.0
 70
   160
  1
840（壁固定）
  3
ISO-25
100
AcDbAlignedDimension
 13
2465.0
 23
898.5
 33
0.0
 14
2497.5
 24
1738.5
 34
0.0
 50
90.0
100
AcDbRotatedDimension
1001
ACAD
1000
DSTYLE
1002
{
1070
   270
1070
     2
1070
     6
1000
EX_NORM
1070
     7
1000
EX_NORM
1070
    41
1040
44.99999618530273
1070
    42
1040
10.49999982118607
1070
    44
1040
15.0
1070
    73
1070
     0
1070
    74
1070
     0
1070
    75
1070
     0
1070
    76
1070
     0
1070
    77
1070
     1
1070
    78
1070
     0
1070
   140
1040
59.99999618530273
1070
   147
1040
0.0
1070
   173
1070
     1
1070
   176
1070
     3
1070
   177
1070
     3
1070
   178
1070
     2
1070
   271
1070
     0
1070
   277
1070
     2
1070
   279
1070
     2
1070
   280
1070
     0
1070
   287
1070
     5
1070
   340
1005
505
1002
}
  0
DIMENSION
  5
5ED
330
1F
100
AcDbEntity
  8
寸法
  6
CONTINUOUS
 62
     3
100
AcDbDimension
  2
*D32
 10
2840.0
 20
2018.5
 30
0.0
 11
2804.750000089407
 21
1878.5
 31
0.0
 70
   160
  3
ISO-25
100
AcDbAlignedDimension
 13
2497.5
 23
1738.5
 33
0.0
 14
2497.5
 24
2018.5
 34
0.0
 50
90.0
100
AcDbRotatedDimension
1001
ACAD
1000
DSTYLE
1002
{
1070
   270
1070
     2
1070
     6
1000
EX_NORM
1070
     7
1000
EX_NORM
1070
    41
1040
44.99999618530273
1070
    42
1040
10.49999982118607
1070
    44
1040
15.0
1070
    73
1070
     0
1070
    74
1070
     0
1070
    75
1070
     0
1070
    76
1070
     0
1070
    77
1070
     1
1070
    78
1070
     0
1070
   140
1040
59.99999618530273
1070
   147
1040
0.0
1070
   173
1070
     1
1070
   176
1070
     3
1070
   177
1070
     3
1070
   178
1070
     2
1070
   271
1070
     0
1070
   277
1070
     2
1070
   279
1070
     2
1070
   280
1070
     0
1070
   287
1070
     5
1070
   340
1005
505
1002
}
  0
DIMENSION
  5
5FA
330
1F
100
AcDbEntity
  8
寸法
  6
CONTINUOUS
 62
     3
100
AcDbDimension
  2
*D33
 10
2840.0
 20
2518.5
 30
0.0
 11
2804.750000089407
 21
2268.5
 31
0.0
 70
   160
  3
ISO-25
100
AcDbAlignedDimension
 13
2497.5
 23
2018.5
 33
0.0
 14
2497.5
 24
2518.5
 34
0.0
 50
90.0
100
AcDbRotatedDimension
1001
ACAD
1000
DSTYLE
1002
{
1070
   270
1070
     2
1070
     6
1000
EX_NORM
1070
     7
1000
EX_NORM
1070
    41
1040
44.99999618530273
1070
    42
1040
10.49999982118607
1070
    44
1040
15.0
1070
    73
1070
     0
1070
    74
1070
     0
1070
    75
1070
     0
1070
    76
1070
     0
1070
    77
1070
     1
1070
    78
1070
     0
1070
   140
1040
59.99999618530273
1070
   147
1040
0.0
1070
   173
1070
     1
1070
   176
1070
     3
1070
   177
1070
     3
1070
   178
1070
     2
1070
   271
1070
     0
1070
   277
1070
     2
1070
   279
1070
     2
1070
   280
1070
     0
1070
   287
1070
     5
1070
   340
1005
505
1002
}
  0
DIMENSION
  5
607
330
1F
100
AcDbEntity
  8
寸法
  6
CONTINUOUS
 62
     3
100
AcDbDimension
  2
*D34
 10
2465.0
 20
2744.5
 30
0.0
 11
2376.5
 21
2779.749999910593
 31
0.0
 70
   160
  3
ISO-25
100
AcDbAlignedDimension
 13
2288.0
 23
2684.5
 33
0.0
 14
2465.0
 24
2698.5
 34
0.0
100
AcDbRotatedDimension
1001
ACAD
1000
DSTYLE
1002
{
1070
   270
1070
     2
1070
     6
1000
EX_NORM
1070
     7
1000
EX_NORM
1070
    41
1040
44.99999618530273
1070
    42
1040
10.49999982118607
1070
    44
1040
15.0
1070
    73
1070
     0
1070
    74
1070
     0
1070
    75
1070
     0
1070
    76
1070
     1
1070
    77
1070
     1
1070
    78
1070
     0
1070
   140
1040
59.99999618530273
1070
   147
1040
0.0
1070
   173
1070
     1
1070
   176
1070
     3
1070
   177
1070
     3
1070
   178
1070
     2
1070
   271
1070
     0
1070
   277
1070
     2
1070
   279
1070
     2
1070
   280
1070
     0
1070
   287
1070
     5
1070
   340
1005
505
1002
}
  0
DIMENSION
  5
613
330
1F
100
AcDbEntity
  8
寸法
  6
CONTINUOUS
 62
     3
100
AcDbDimension
  2
*D35
 10
1220.0
 20
2834.5
 30
0.0
 11
920.0000000000003
 21
2869.749999910593
 31
0.0
 70
   160
  3
ISO-25
100
AcDbAlignedDimension
 13
620.0000000000002
 23
2690.5
 33
0.0
 14
1220.0
 24
2690.5
 34
0.0
100
AcDbRotatedDimension
1001
ACAD
1000
DSTYLE
1002
{
1070
   270
1070
     2
1070
     6
1000
EX_NORM
1070
     7
1000
EX_NORM
1070
    41
1040
44.99999618530273
1070
    42
1040
10.49999982118607
1070
    44
1040
15.0
1070
    73
1070
     0
1070
    74
1070
     0
1070
    75
1070
     0
1070
    76
1070
     0
1070
    77
1070
     1
1070
    78
1070
     0
1070
   140
1040
59.99999618530273
1070
   147
1040
0.0
1070
   173
1070
     1
1070
   176
1070
     3
1070
   177
1070
     3
1070
   178
1070
     2
1070
   271
1070
     0
1070
   277
1070
     2
1070
   279
1070
     2
1070
   280
1070
     0
1070
   287
1070
     5
1070
   340
1005
505
1002
}
  0
DIMENSION
  5
620
330
1F
100
AcDbEntity
  8
寸法
  6
CONTINUOUS
 62
     3
100
AcDbDimension
  2
*D36
 10
640.0000000000002
 20
2744.5
 30
0.0
 11
737.5000000000005
 21
2779.749999910593
 31
0.0
 70
   160
  3
ISO-25
100
AcDbAlignedDimension
 13
620.0000000000002
 23
2690.5
 33
0.0
 14
640.0000000000002
 24
2525.5
 34
0.0
100
AcDbRotatedDimension
1001
ACAD
1000
DSTYLE
1002
{
1070
   270
1070
     2
1070
     6
1000
EX_NORM
1070
     7
1000
EX_NORM
1070
    41
1040
44.99999618530273
1070
    42
1040
10.49999982118607
1070
    44
1040
15.0
1070
    73
1070
     0
1070
    74
1070
     0
1070
    75
1070
     0
1070
    76
1070
     0
1070
    77
1070
     1
1070
    78
1070
     0
1070
   140
1040
59.99999618530273
1070
   147
1040
0.0
1070
   173
1070
     1
1070
   176
1070
     3
1070
   177
1070
     3
1070
   178
1070
     2
1070
   271
1070
     0
1070
   277
1070
     2
1070
   279
1070
     2
1070
   280
1070
     2
1070
   287
1070
     5
1070
   340
1005
505
1002
}
  0
DIMENSION
  5
62F
330
1F
100
AcDbEntity
  8
寸法
  6
CONTINUOUS
 62
     3
100
AcDbDimension
  2
*D37
 10
1220.0
 20
2744.5
 30
0.0
 11
1047.5
 21
2779.749999910593
 31
0.0
 70
   160
  3
ISO-25
100
AcDbAlignedDimension
 13
1145.0
 23
2525.5
 33
0.0
 14
1220.0
 24
2690.5
 34
0.0
100
AcDbRotatedDimension
1001
ACAD
1000
DSTYLE
1002
{
1070
   270
1070
     2
1070
     6
1000
EX_NORM
1070
     7
1000
EX_NORM
1070
    41
1040
44.99999618530273
1070
    42
1040
10.49999982118607
1070
    44
1040
15.0
1070
    73
1070
     0
1070
    74
1070
     0
1070
    75
1070
     0
1070
    76
1070
     0
1070
    77
1070
     1
1070
    78
1070
     0
1070
   140
1040
59.99999618530273
1070
   147
1040
0.0
1070
   173
1070
     1
1070
   176
1070
     3
1070
   177
1070
     3
1070
   178
1070
     2
1070
   271
1070
     0
1070
   277
1070
     2
1070
   279
1070
     2
1070
   280
1070
     1
1070
   287
1070
     5
1070
   340
1005
505
1002
}
  0
TEXT
  5
63E
330
1F
100
AcDbEntity
  8
寸法
  6
CONTINUOUS
 62
     2
100
AcDbText
 10
1340.287397772809
 20
1951.396368818
 30
0.0
 40
59.99999618530273
  1
電源コード（有効長さ：１.６ｍ）
 50
90.00000000000004
 41
0.9476534151428438
  7
EXCADSTD
 72
     5
 11
1340.287397772809
 21
2701.396309690193
 31
0.0
100
AcDbText
  0
LEADER
  5
63F
330
1F
100
AcDbEntity
  8
寸法
  6
CONTINUOUS
 62
     3
100
AcDbLeader
  3
ISO-25
 76
     3
 10
1270.5046137351
 20
1867.1477523567
 30
0.0
 10
1345.537397683402
 20
1943.896368818
 30
0.0
 10
1345.537397683402
 20
2686.396368818
 30
0.0
1001
ACAD
1000
DSTYLE
1002
{
1070
     5
1000
EX_NORM
1070
    41
1040
45.0
1070
   341
1005
4D
1002
}
  0
DIMENSION
  5
640
330
1F
100
AcDbEntity
  8
寸法
  6
CONTINUOUS
 62
     3
100
AcDbDimension
  2
*D38
 10
1462.5
 20
2698.5
 30
0.0
 11
1427.250000089407
 21
2195.999999999999
 31
0.0
 70
   160
  3
ISO-25
100
AcDbAlignedDimension
 13
1215.0
 23
1693.5
 33
0.0
 14
1212.0
 24
2698.5
 34
0.0
 50
90.0
100
AcDbRotatedDimension
1001
ACAD
1000
DSTYLE
1002
{
1070
   270
1070
     2
1070
     6
1000
EX_NORM
1070
     7
1000
EX_NORM
1070
    41
1040
44.99999618530273
1070
    42
1040
10.49999982118607
1070
    44
1040
15.0
1070
    73
1070
     0
1070
    74
1070
     0
1070
    75
1070
     0
1070
    76
1070
     0
1070
    77
1070
     1
1070
    78
1070
     0
1070
   140
1040
59.99999618530273
1070
   147
1040
0.0
1070
   173
1070
     1
1070
   176
1070
     3
1070
   177
1070
     3
1070
   178
1070
     2
1070
   271
1070
     0
1070
   277
1070
     2
1070
   279
1070
     2
1070
   280
1070
     0
1070
   287
1070
     5
1070
   340
1005
505
1002
}
  0
DIMENSION
  5
64D
330
1F
100
AcDbEntity
  8
寸法
  6
CONTINUOUS
 62
     3
100
AcDbDimension
  2
*D39
 10
1417.5
 20
1748.5
 30
0.0
 11
1382.250000089408
 21
1846.0
 31
0.0
 70
   160
  3
ISO-25
100
AcDbAlignedDimension
 13
1215.0
 23
1693.5
 33
0.0
 14
1233.076696831
 24
1748.5
 34
0.0
 50
90.0
100
AcDbRotatedDimension
1001
ACAD
1000
DSTYLE
1002
{
1070
   270
1070
     2
1070
     6
1000
EX_NORM
1070
     7
1000
EX_NORM
1070
    41
1040
44.99999618530273
1070
    42
1040
10.49999982118607
1070
    44
1040
15.0
1070
    73
1070
     0
1070
    74
1070
     0
1070
    75
1070
     0
1070
    76
1070
     0
1070
    77
1070
     1
1070
    78
1070
     0
1070
   140
1040
59.99999618530273
1070
   147
1040
0.0
1070
   173
1070
     1
1070
   176
1070
     3
1070
   177
1070
     3
1070
   178
1070
     2
1070
   271
1070
     0
1070
   277
1070
     2
1070
   279
1070
     2
1070
   280
1070
     2
1070
   287
1070
     5
1070
   340
1005
505
1002
}
  0
DIMENSION
  5
65C
330
1F
100
AcDbEntity
  8
寸法
  6
CONTINUOUS
 62
     3
100
AcDbDimension
  2
*D40
 10
1552.5
 20
2698.5
 30
0.0
 11
1517.250000089407
 21
1798.499999999999
 31
0.0
 70
   160
  3
ISO-25
100
AcDbAlignedDimension
 13
1203.5
 23
898.5
 33
0.0
 14
1212.0
 24
2698.5
 34
0.0
 50
90.0
100
AcDbRotatedDimension
1001
ACAD
1000
DSTYLE
1002
{
1070
   270
1070
     2
1070
     6
1000
EX_NORM
1070
     7
1000
EX_NORM
1070
    41
1040
44.99999618530273
1070
    42
1040
10.49999982118607
1070
    44
1040
15.0
1070
    73
1070
     0
1070
    74
1070
     0
1070
    75
1070
     1
1070
    76
1070
     0
1070
    77
1070
     1
1070
    78
1070
     0
1070
   140
1040
59.99999618530273
1070
   147
1040
0.0
1070
   173
1070
     1
1070
   176
1070
     3
1070
   177
1070
     3
1070
   178
1070
     2
1070
   271
1070
     0
1070
   277
1070
     2
1070
   279
1070
     2
1070
   280
1070
     0
1070
   287
1070
     5
1070
   340
1005
505
1002
}
  0
ENDSEC
  0
SECTION
  2
OBJECTS
  0
DICTIONARY
  5
C
330
0
100
AcDbDictionary
  3
ACAD_GROUP
350
D
  3
ACAD_LAYOUT
350
1A
  3
ACAD_MATERIAL
350
3B
  3
ACAD_MLEADERSTYLE
350
68A
  3
ACAD_MLINESTYLE
350
17
  3
ACAD_PLOTSETTINGS
350
19
  3
ACAD_VISUALSTYLE
350
2A
  3
ACDBHEADERROUNDTRIPXREC
350
668
  3
ACDBVARIABLEDICTIONARY
350
688
  0
DICTIONARY
  5
D
102
{ACAD_REACTORS
330
C
102
}
330
C
100
AcDbDictionary
  0
DICTIONARY
  5
1A
102
{ACAD_REACTORS
330
C
102
}
330
C
100
AcDbDictionary
  0
DICTIONARY
  5
3B
102
{ACAD_REACTORS
330
C
102
}
330
C
100
AcDbDictionary
  3
BYBLOCK
350
3D
  3
BYLAYER
350
3C
  3
GLOBAL
350
3E
  0
DICTIONARY
  5
68A
102
{ACAD_REACTORS
330
C
102
}
330
C
100
AcDbDictionary
  0
DICTIONARY
  5
17
102
{ACAD_REACTORS
330
C
102
}
330
C
100
AcDbDictionary
  3
STANDARD
350
18
  0
DICTIONARY
  5
19
102
{ACAD_REACTORS
330
C
102
}
330
C
100
AcDbDictionary
  0
DICTIONARY
  5
2A
102
{ACAD_REACTORS
330
C
102
}
330
C
100
AcDbDictionary
  3
2DWIREFRAME
350
2F
  3
3D_HIDDEN
350
31
  3
3DWIREFRAME
350
30
  3
BASIC
350
32
  3
BRIGHTEN
350
36
  3
COLORCHANGE
350
3A
  3
CONCEPTUAL
350
34
  3
DIM
350
35
  3
FACEPATTERN
350
39
  3
FLAT
350
2B
  3
FLATWITHEDGES
350
2C
  3
GOURAUD
350
2D
  3
GOURAUDWITHEDGES
350
2E
  3
LINEPATTERN
350
38
  3
REALISTIC
350
33
  3
THICKEN
350
37
  0
DICTIONARY
  5
668
102
{ACAD_REACTORS
330
C
102
}
330
C
100
AcDbDictionary
  3
CEPSNTYPE
350
671
  3
DIMSTYLEDATA
350
687
  3
FINGERPRINTGUID
350
672
  3
HYPERLINKBASE
350
66B
  3
INSUNITS
350
670
  3
LAYOUTDICT
350
66D
  3
LWETCUNION
350
66F
  3
PLOTSETDICT
350
66E
  3
PSVPSCALE
350
674
  3
PUCSBASE
350
677
  3
PUCSORGBACK
350
67D
  3
PUCSORGBOTTOM
350
679
  3
PUCSORGFRONT
350
67C
  3
PUCSORGLEFT
350
67A
  3
PUCSORGRIGHT
350
67B
  3
PUCSORGTOP
350
678
  3
PUCSORTHOREF
350
675
  3
PUCSORTHOVIEW
350
676
  3
STYLESHEET
350
66C
  3
TSTACKALIGN
350
669
  3
TSTACKSIZE
350
66A
  3
UCSBASE
350
680
  3
UCSORGBACK
350
686
  3
UCSORGBOTTOM
350
682
  3
UCSORGFRONT
350
685
  3
UCSORGLEFT
350
683
  3
UCSORGRIGHT
350
684
  3
UCSORGTOP
350
681
  3
UCSORTHOREF
350
67E
  3
UCSORTHOVIEW
350
67F
  3
VERSIONGUID
350
673
  0
DICTIONARY
  5
688
102
{ACAD_REACTORS
330
C
102
}
330
C
100
AcDbDictionary
  3
DIMASSOC
350
68D
  3
HIDETEXT
350
68E
  3
PSOLHEIGHT
350
68C
  3
PSOLWIDTH
350
68B
  0
MATERIAL
  5
3D
102
{ACAD_REACTORS
330
3B
102
}
102
{ACAD_XDICTIONARY
360
691
102
}
330
3B
100
AcDbMaterial
  1
ByBlock
  0
MATERIAL
  5
3C
102
{ACAD_REACTORS
330
3B
102
}
102
{ACAD_XDICTIONARY
360
68F
102
}
330
3B
100
AcDbMaterial
  1
ByLayer
  0
MATERIAL
  5
3E
102
{ACAD_REACTORS
330
3B
102
}
102
{ACAD_XDICTIONARY
360
693
102
}
330
3B
100
AcDbMaterial
  1
Global
  0
MLINESTYLE
  5
18
102
{ACAD_REACTORS
330
17
102
}
330
17
100
AcDbMlineStyle
  2
Standard
 70
     0
  3

 62
   256
 51
90.0
 52
90.0
 71
     2
 49
0.5
 62
   256
  6
BYLAYER
 49
-0.5
 62
   256
  6
BYLAYER
  0
ACAD_PROXY_OBJECT
  5
2F
102
{ACAD_REACTORS
330
2A
102
}
330
2A
100
AcDbProxyObject
 90
      499
 91
      501
 93
      436
310
42CC9915DA5C99599C985B595049028333333333333E3BF0000000000000FB0107901411070040501600405405064090741402480A0340
1001
ACAD
1000
AcDbSavedByObjectVersion
1070
     0
  0
ACAD_PROXY_OBJECT
  5
31
102
{ACAD_REACTORS
330
2A
102
}
330
2A
100
AcDbProxyObject
 90
      499
 91
      501
 93
      500
310
424CD108121A5919195B90640502408333333333333E3BF0000000000000FB01079024090700405020000000000001110200405405064090740C02480A0340
1001
ACAD
1000
AcDbSavedByObjectVersion
1070
     0
  0
ACAD_PROXY_OBJECT
  5
30
102
{ACAD_REACTORS
330
2A
102
}
330
2A
100
AcDbProxyObject
 90
      499
 91
      501
 93
      436
310
42CCD915DA5C99599C985B595059028333333333333E3BF0000000000000FB0107901411070040501600405405064090741402480A0340
1001
ACAD
1000
AcDbSavedByObjectVersion
1070
     0
  0
ACAD_PROXY_OBJECT
  5
32
102
{ACAD_REACTORS
330
2A
102
}
330
2A
100
AcDbProxyObject
 90
      499
 91
      501
 93
      388
310
4150985CDA58D07406404333333333333E3BF0000000000000FB0107A41107004050150841D405064090741402480A0350
1001
ACAD
1000
AcDbSavedByObjectVersion
1070
     0
  0
ACAD_PROXY_OBJECT
  5
36
102
{ACAD_REACTORS
330
2A
102
}
330
2A
100
AcDbProxyObject
 90
      499
 91
      501
 93
      428
310
42109C9A59DA1D195B90C409028333333333333E3BF0000000000000FB010790141107004050150841D405064090741402480A029950
1001
ACAD
1000
AcDbSavedByObjectVersion
1070
     0
  0
ACAD_PROXY_OBJECT
  5
3A
102
{ACAD_REACTORS
330
2A
102
}
330
2A
100
AcDbProxyObject
 90
      499
 91
      501
 93
      452
310
42D0DBDB1BDC90DA185B99D95104090240C333333333333E3BF0000000000000FB0108901411070040501508421405064090741402480A0350
1001
ACAD
1000
AcDbSavedByObjectVersion
1070
     0
  0
ACAD_PROXY_OBJECT
  5
34
102
{ACAD_REACTORS
330
2A
102
}
330
2A
100
AcDbProxyObject
 90
      499
 91
      501
 93
      500
310
4290DBDB98D95C1D1D585B10940D028333333333333E3BF0000000000000FB0107902409070040501000000000000111010841D405064090740C02480A0340
1001
ACAD
1000
AcDbSavedByObjectVersion
1070
     0
  0
ACAD_PROXY_OBJECT
  5
35
102
{ACAD_REACTORS
330
2A
102
}
330
2A
100
AcDbProxyObject
 90
      499
 91
      501
 93
      412
310
40D11A5B50B409028333333333333E3BF0000000000000FB010790141107004050150841D405064090741402480A02677FFFFFD0
1001
ACAD
1000
AcDbSavedByObjectVersion
1070
     0
  0
ACAD_PROXY_OBJECT
  5
39
102
{ACAD_REACTORS
330
2A
102
}
330
2A
100
AcDbProxyObject
 90
      499
 91
      501
 93
      444
310
42D19858D95C185D1D195C9B90F409028333333333333E3BF0000000000000FB010790141107004050150841D405064090741402480A0350
1001
ACAD
1000
AcDbSavedByObjectVersion
1070
     0
  0
ACAD_PROXY_OBJECT
  5
2B
102
{ACAD_REACTORS
330
2A
102
}
330
2A
100
AcDbProxyObject
 90
      499
 91
      501
 93
      388
310
41119B185D240901404333333333333E3BF0000000000000F9010740A41107004050150841D405064090741402480A1B50
1001
ACAD
1000
AcDbSavedByObjectVersion
1070
     0
  0
ACAD_PROXY_OBJECT
  5
2C
102
{ACAD_REACTORS
330
2A
102
}
330
2A
100
AcDbProxyObject
 90
      499
 91
      501
 93
      476
310
43519B185D15DA5D1A115919D95CD0140901404333333333333E3BF0000000000000F9010740901411070040501600405405064090741402480A1B50
1001
ACAD
1000
AcDbSavedByObjectVersion
1070
     0
  0
ACAD_PROXY_OBJECT
  5
2D
102
{ACAD_REACTORS
330
2A
102
}
330
2A
100
AcDbProxyObject
 90
      499
 91
      501
 93
      412
310
41D1DBDD5C985D5910240902404333333333333E3BF0000000000000F9010740A411070040501641D405064090741402480A1B50
1001
ACAD
1000
AcDbSavedByObjectVersion
1070
     0
  0
ACAD_PROXY_OBJECT
  5
2E
102
{ACAD_REACTORS
330
2A
102
}
330
2A
100
AcDbProxyObject
 90
      499
 91
      501
 93
      500
310
4411DBDD5C985D5915DA5D1A115919D95CD0340902404333333333333E3BF0000000000000F9010740901411070040501600405405064090741402480A1B50
1001
ACAD
1000
AcDbSavedByObjectVersion
1070
     0
  0
ACAD_PROXY_OBJECT
  5
38
102
{ACAD_REACTORS
330
2A
102
}
330
2A
100
AcDbProxyObject
 90
      499
 91
      501
 93
      444
310
42D31A5B995C185D1D195C9B90E409028333333333333E3BF0000000000000FB010790141107004050750841D405064090741402483A0350
1001
ACAD
1000
AcDbSavedByObjectVersion
1070
     0
  0
ACAD_PROXY_OBJECT
  5
33
102
{ACAD_REACTORS
330
2A
102
}
330
2A
100
AcDbProxyObject
 90
      499
 91
      501
 93
      420
310
425499585B1A5CDD1A58D08409028333333333333E3BF0000000000000FB01079019070040501508421405064090741402480A1B40
1001
ACAD
1000
AcDbSavedByObjectVersion
1070
     0
  0
ACAD_PROXY_OBJECT
  5
37
102
{ACAD_REACTORS
330
2A
102
}
330
2A
100
AcDbProxyObject
 90
      499
 91
      501
 93
      412
310
41D51A1A58DAD95B90D409028333333333333E3BF0000000000000FB010790141107004050150C41D405064090741402480A0350
1001
ACAD
1000
AcDbSavedByObjectVersion
1070
     0
  0
XRECORD
  5
671
102
{ACAD_REACTORS
330
668
102
}
330
668
100
AcDbXrecord
 90
        0
  0
XRECORD
  5
687
102
{ACAD_REACTORS
330
668
102
}
330
668
100
AcDbXrecord
1000
DSTYLE
1002
{
1070
   340
340
11
1002
}
  0
XRECORD
  5
672
102
{ACAD_REACTORS
330
668
102
}
330
668
100
AcDbXrecord
  1
{689D6456-961A-4E3D-9D3E-2BC66185D7AF}
  0
XRECORD
  5
66B
102
{ACAD_REACTORS
330
668
102
}
330
668
100
AcDbXrecord
  1

  0
XRECORD
  5
670
102
{ACAD_REACTORS
330
668
102
}
330
668
100
AcDbXrecord
 90
        4
  0
XRECORD
  5
66D
102
{ACAD_REACTORS
330
668
102
}
330
668
100
AcDbXrecord
340
1A
  0
XRECORD
  5
66F
102
{ACAD_REACTORS
330
668
102
}
330
668
100
AcDbXrecord
 90
    10781
  0
XRECORD
  5
66E
102
{ACAD_REACTORS
330
668
102
}
330
668
100
AcDbXrecord
340
19
  0
XRECORD
  5
674
102
{ACAD_REACTORS
330
668
102
}
330
668
100
AcDbXrecord
 40
0.0
  0
XRECORD
  5
677
102
{ACAD_REACTORS
330
668
102
}
330
668
100
AcDbXrecord
340
0
  0
XRECORD
  5
67D
102
{ACAD_REACTORS
330
668
102
}
330
668
100
AcDbXrecord
 10
0.0
 20
0.0
 30
0.0
  0
XRECORD
  5
679
102
{ACAD_REACTORS
330
668
102
}
330
668
100
AcDbXrecord
 10
0.0
 20
0.0
 30
0.0
  0
XRECORD
  5
67C
102
{ACAD_REACTORS
330
668
102
}
330
668
100
AcDbXrecord
 10
0.0
 20
0.0
 30
0.0
  0
XRECORD
  5
67A
102
{ACAD_REACTORS
330
668
102
}
330
668
100
AcDbXrecord
 10
0.0
 20
0.0
 30
0.0
  0
XRECORD
  5
67B
102
{ACAD_REACTORS
330
668
102
}
330
668
100
AcDbXrecord
 10
0.0
 20
0.0
 30
0.0
  0
XRECORD
  5
678
102
{ACAD_REACTORS
330
668
102
}
330
668
100
AcDbXrecord
 10
0.0
 20
0.0
 30
0.0
  0
XRECORD
  5
675
102
{ACAD_REACTORS
330
668
102
}
330
668
100
AcDbXrecord
340
0
  0
XRECORD
  5
676
102
{ACAD_REACTORS
330
668
102
}
330
668
100
AcDbXrecord
 70
     0
  0
XRECORD
  5
66C
102
{ACAD_REACTORS
330
668
102
}
330
668
100
AcDbXrecord
  1

  0
XRECORD
  5
669
102
{ACAD_REACTORS
330
668
102
}
330
668
100
AcDbXrecord
 90
        1
  0
XRECORD
  5
66A
102
{ACAD_REACTORS
330
668
102
}
330
668
100
AcDbXrecord
 90
       70
  0
XRECORD
  5
680
102
{ACAD_REACTORS
330
668
102
}
330
668
100
AcDbXrecord
340
0
  0
XRECORD
  5
686
102
{ACAD_REACTORS
330
668
102
}
330
668
100
AcDbXrecord
 10
0.0
 20
0.0
 30
0.0
  0
XRECORD
  5
682
102
{ACAD_REACTORS
330
668
102
}
330
668
100
AcDbXrecord
 10
0.0
 20
0.0
 30
0.0
  0
XRECORD
  5
685
102
{ACAD_REACTORS
330
668
102
}
330
668
100
AcDbXrecord
 10
0.0
 20
0.0
 30
0.0
  0
XRECORD
  5
683
102
{ACAD_REACTORS
330
668
102
}
330
668
100
AcDbXrecord
 10
0.0
 20
0.0
 30
0.0
  0
XRECORD
  5
684
102
{ACAD_REACTORS
330
668
102
}
330
668
100
AcDbXrecord
 10
0.0
 20
0.0
 30
0.0
  0
XRECORD
  5
681
102
{ACAD_REACTORS
330
668
102
}
330
668
100
AcDbXrecord
 10
0.0
 20
0.0
 30
0.0
  0
XRECORD
  5
67E
102
{ACAD_REACTORS
330
668
102
}
330
668
100
AcDbXrecord
340
0
  0
XRECORD
  5
67F
102
{ACAD_REACTORS
330
668
102
}
330
668
100
AcDbXrecord
 70
     0
  0
XRECORD
  5
673
102
{ACAD_REACTORS
330
668
102
}
330
668
100
AcDbXrecord
  1
{FAEB1C32-E019-11D5-929B-00C0DF256EC4}
  0
DICTIONARYVAR
  5
68D
102
{ACAD_REACTORS
330
688
102
}
330
688
100
DictionaryVariables
280
     0
  1
2
  0
DICTIONARYVAR
  5
68E
102
{ACAD_REACTORS
330
688
102
}
330
688
100
DictionaryVariables
280
     0
  1
1
  0
DICTIONARYVAR
  5
68C
102
{ACAD_REACTORS
330
688
102
}
330
688
100
DictionaryVariables
280
     0
  1
80.000000
  0
DICTIONARYVAR
  5
68B
102
{ACAD_REACTORS
330
688
102
}
330
688
100
DictionaryVariables
280
     0
  1
5.000000
  0
DICTIONARY
  5
691
330
3D
100
AcDbDictionary
280
     1
  3
ACAD_XREC_ROUNDTRIP
360
692
  0
DICTIONARY
  5
68F
330
3C
100
AcDbDictionary
280
     1
  3
ACAD_XREC_ROUNDTRIP
360
690
  0
DICTIONARY
  5
693
330
3E
100
AcDbDictionary
280
     1
  3
ACAD_XREC_ROUNDTRIP
360
694
  0
XRECORD
  5
692
102
{ACAD_REACTORS
330
691
102
}
330
691
100
AcDbXrecord
102
MATERIAL
148
0.0
149
0.0
149
0.0
 93
        0
 94
      127
282
     0
 72
     1
 77
     1
171
     1
175
     1
179
     1
273
     0
  0
XRECORD
  5
690
102
{ACAD_REACTORS
330
68F
102
}
330
68F
100
AcDbXrecord
102
MATERIAL
148
0.0
149
0.0
149
0.0
 93
        0
 94
      127
282
     0
 72
     1
 77
     1
171
     1
175
     1
179
     1
273
     0
  0
XRECORD
  5
694
102
{ACAD_REACTORS
330
693
102
}
330
693
100
AcDbXrecord
102
MATERIAL
148
0.0
149
0.0
149
0.0
 93
        0
 94
      127
282
     0
 72
     1
 77
     1
171
     1
175
     1
179
     1
273
     0
  0
ENDSEC
  0
EOF
