  0
SECTION
  2
HEADER
  9
$ACADVER
  1
AC1014
  9
$ACADMAINTVER
 70
     9
  9
$DWGCODEPAGE
  3
ANSI_932
  9
$INSBASE
 10
0.0
 20
0.0
 30
0.0
  9
$EXTMIN
 10
-0.9999999999999908
 20
13.5
 30
0.0
  9
$EXTMAX
 10
199.9999999999999
 20
288.5
 30
0.0
  9
$LIMMIN
 10
0.0
 20
0.0
  9
$LIMMAX
 10
210.0
 20
297.0
  9
$ORTHOMODE
 70
     0
  9
$REGENMODE
 70
     1
  9
$FILLMODE
 70
     1
  9
$QTEXTMODE
 70
     0
  9
$MIRRTEXT
 70
     1
  9
$DRAGMODE
 70
     2
  9
$LTSCALE
 40
1.0
  9
$OSMODE
 70
    37
  9
$ATTMODE
 70
     1
  9
$TEXTSIZE
 40
2.5
  9
$TRACEWID
 40
1.0
  9
$TEXTSTYLE
  7
STANDARD
  9
$CLAYER
  8
化粧台
  9
$CELTYPE
  6
BYLAYER
  9
$CECOLOR
 62
   256
  9
$CELTSCALE
 40
1.0
  9
$DELOBJ
 70
     1
  9
$DISPSILH
 70
     0
  9
$DIMSCALE
 40
1.0
  9
$DIMASZ
 40
2.5
  9
$DIMEXO
 40
0.625
  9
$DIMDLI
 40
3.75
  9
$DIMRND
 40
0.0
  9
$DIMDLE
 40
0.0
  9
$DIMEXE
 40
1.25
  9
$DIMTP
 40
0.0
  9
$DIMTM
 40
0.0
  9
$DIMTXT
 40
2.5
  9
$DIMCEN
 40
2.5
  9
$DIMTSZ
 40
0.0
  9
$DIMTOL
 70
     0
  9
$DIMLIM
 70
     0
  9
$DIMTIH
 70
     0
  9
$DIMTOH
 70
     0
  9
$DIMSE1
 70
     0
  9
$DIMSE2
 70
     0
  9
$DIMTAD
 70
     1
  9
$DIMZIN
 70
     8
  9
$DIMBLK
  1

  9
$DIMASO
 70
     1
  9
$DIMSHO
 70
     1
  9
$DIMPOST
  1

  9
$DIMAPOST
  1

  9
$DIMALT
 70
     0
  9
$DIMALTD
 70
     3
  9
$DIMALTF
 40
0.03937007874016
  9
$DIMLFAC
 40
1.0
  9
$DIMTOFL
 70
     1
  9
$DIMTVP
 40
0.0
  9
$DIMTIX
 70
     0
  9
$DIMSOXD
 70
     0
  9
$DIMSAH
 70
     0
  9
$DIMBLK1
  1

  9
$DIMBLK2
  1

  9
$DIMSTYLE
  2
ISO-25
  9
$DIMCLRD
 70
     0
  9
$DIMCLRE
 70
     0
  9
$DIMCLRT
 70
     0
  9
$DIMTFAC
 40
1.0
  9
$DIMGAP
 40
0.625
  9
$DIMJUST
 70
     0
  9
$DIMSD1
 70
     0
  9
$DIMSD2
 70
     0
  9
$DIMTOLJ
 70
     0
  9
$DIMTZIN
 70
     8
  9
$DIMALTZ
 70
     0
  9
$DIMALTTZ
 70
     0
  9
$DIMFIT
 70
     3
  9
$DIMUPT
 70
     0
  9
$DIMUNIT
 70
     2
  9
$DIMDEC
 70
     2
  9
$DIMTDEC
 70
     2
  9
$DIMALTU
 70
     2
  9
$DIMALTTD
 70
     3
  9
$DIMTXSTY
  7
STANDARD
  9
$DIMAUNIT
 70
     0
  9
$LUNITS
 70
     2
  9
$LUPREC
 70
     4
  9
$SKETCHINC
 40
1.0
  9
$FILLETRAD
 40
10.0
  9
$AUNITS
 70
     0
  9
$AUPREC
 70
     0
  9
$MENU
  1
.
  9
$ELEVATION
 40
0.0
  9
$PELEVATION
 40
0.0
  9
$THICKNESS
 40
0.0
  9
$LIMCHECK
 70
     0
  9
$CHAMFERA
 40
10.0
  9
$CHAMFERB
 40
10.0
  9
$CHAMFERC
 40
20.0
  9
$CHAMFERD
 40
0.0
  9
$SKPOLY
 70
     0
  9
$TDCREATE
 40
2460076.663322245
  9
$TDUPDATE
 40
2460076.663322465
  9
$TDINDWG
 40
0.0000000116
  9
$TDUSRTIMER
 40
0.0000000116
  9
$USRTIMER
 70
     1
  9
$ANGBASE
 50
0.0
  9
$ANGDIR
 70
     0
  9
$PDMODE
 70
     0
  9
$PDSIZE
 40
0.0
  9
$PLINEWID
 40
0.0
  9
$COORDS
 70
     1
  9
$SPLFRAME
 70
     0
  9
$SPLINETYPE
 70
     6
  9
$SPLINESEGS
 70
     8
  9
$ATTDIA
 70
     0
  9
$ATTREQ
 70
     1
  9
$HANDLING
 70
     1
  9
$HANDSEED
  5
666
  9
$SURFTAB1
 70
     6
  9
$SURFTAB2
 70
     6
  9
$SURFTYPE
 70
     6
  9
$SURFU
 70
     6
  9
$SURFV
 70
     6
  9
$UCSNAME
  2

  9
$UCSORG
 10
0.0
 20
0.0
 30
0.0
  9
$UCSXDIR
 10
1.0
 20
0.0
 30
0.0
  9
$UCSYDIR
 10
0.0
 20
1.0
 30
0.0
  9
$PUCSNAME
  2

  9
$PUCSORG
 10
0.0
 20
0.0
 30
0.0
  9
$PUCSXDIR
 10
1.0
 20
0.0
 30
0.0
  9
$PUCSYDIR
 10
0.0
 20
1.0
 30
0.0
  9
$USERI1
 70
     0
  9
$USERI2
 70
     0
  9
$USERI3
 70
     0
  9
$USERI4
 70
     0
  9
$USERI5
 70
     0
  9
$USERR1
 40
0.0
  9
$USERR2
 40
0.0
  9
$USERR3
 40
0.0
  9
$USERR4
 40
0.0
  9
$USERR5
 40
0.0
  9
$WORLDVIEW
 70
     1
  9
$SHADEDGE
 70
     3
  9
$SHADEDIF
 70
    70
  9
$TILEMODE
 70
     1
  9
$MAXACTVP
 70
    64
  9
$PINSBASE
 10
0.0
 20
0.0
 30
0.0
  9
$PLIMCHECK
 70
     0
  9
$PEXTMIN
 10
1.000000000000000E+20
 20
1.000000000000000E+20
 30
1.000000000000000E+20
  9
$PEXTMAX
 10
-1.000000000000000E+20
 20
-1.000000000000000E+20
 30
-1.000000000000000E+20
  9
$PLIMMIN
 10
0.0
 20
0.0
  9
$PLIMMAX
 10
420.0
 20
297.0
  9
$UNITMODE
 70
     0
  9
$VISRETAIN
 70
     1
  9
$PLINEGEN
 70
     0
  9
$PSLTSCALE
 70
     1
  9
$TREEDEPTH
 70
  3020
  9
$PICKSTYLE
 70
     1
  9
$CMLSTYLE
  2
STANDARD
  9
$CMLJUST
 70
     0
  9
$CMLSCALE
 40
20.0
  9
$PROXYGRAPHICS
 70
     1
  9
$MEASUREMENT
 70
     1
  0
ENDSEC
  0
SECTION
  2
CLASSES
  0
CLASS
  1
ACDBDICTIONARYWDFLT
  2
AcDbDictionaryWithDefault
  3
ObjectDBX Classes
 90
        0
280
     0
281
     0
  0
CLASS
  1
VISUALSTYLE
  2
AcDbVisualStyle
  3
ObjectDBX Classes
 90
     4095
280
     0
281
     0
  0
CLASS
  1
MATERIAL
  2
AcDbMaterial
  3
ObjectDBX Classes
 90
     1153
280
     0
281
     0
  0
CLASS
  1
SUN
  2
AcDbSun
  3
SCENEOE
 90
     1024
280
     0
281
     0
  0
CLASS
  1
DICTIONARYVAR
  2
AcDbDictionaryVar
  3
ObjectDBX Classes
 90
        0
280
     0
281
     0
  0
CLASS
  1
XRECORD
  2
AcDbXrecord
  3
AutoCAD 2000
 90
        0
280
     0
281
     0
  0
CLASS
  1
LWPOLYLINE
  2
AcDbPolyline
  3
AutoCAD 2000
 90
        0
280
     0
281
     1
  0
CLASS
  1
HATCH
  2
AcDbHatch
  3
AutoCAD 2000
 90
        0
280
     0
281
     1
  0
CLASS
  1
ACDBPLACEHOLDER
  2
AcDbPlaceHolder
  3
ObjectDBX Classes
 90
        0
280
     0
281
     0
  0
CLASS
  1
LAYOUT
  2
AcDbLayout
  3
ObjectDBX Classes
 90
        0
280
     0
281
     0
  0
ENDSEC
  0
SECTION
  2
TABLES
  0
TABLE
  2
VPORT
  5
8
330
0
100
AcDbSymbolTable
 70
     1
  0
VPORT
  5
29
330
8
100
AcDbSymbolTableRecord
100
AcDbViewportTableRecord
  2
*ACTIVE
 70
     0
 10
0.0
 20
0.0
 11
1.0
 21
1.0
 12
1492.499999999999
 22
2265.0
 13
0.0
 23
0.0
 14
10.0
 24
10.0
 15
10.0
 25
10.0
 16
0.0
 26
0.0
 36
1.0
 17
0.0
 27
0.0
 37
0.0
 40
4125.0
 41
0.7309090909090905
 42
50.0
 43
0.0
 44
0.0
 50
0.0
 51
0.0
 71
     0
 72
  1000
 73
     1
 74
     3
 75
     0
 76
     0
 77
     0
 78
     0
  0
ENDTAB
  0
TABLE
  2
LTYPE
  5
5
330
0
100
AcDbSymbolTable
 70
     7
  0
LTYPE
  5
14
330
5
100
AcDbSymbolTableRecord
100
AcDbLinetypeTableRecord
  2
BYBLOCK
 70
     0
  3

 72
    65
 73
     0
 40
0.0
  0
LTYPE
  5
15
330
5
100
AcDbSymbolTableRecord
100
AcDbLinetypeTableRecord
  2
BYLAYER
 70
     0
  3

 72
    65
 73
     0
 40
0.0
  0
LTYPE
  5
16
330
5
100
AcDbSymbolTableRecord
100
AcDbLinetypeTableRecord
  2
CONTINUOUS
 70
     0
  3
Solid line
 72
    65
 73
     0
 40
0.0
  0
LTYPE
  5
40
330
5
100
AcDbSymbolTableRecord
100
AcDbLinetypeTableRecord
  2
EXLTYPE1
 70
     0
  3
破線
 72
    65
 73
     2
 40
3.0
 49
2.0
 74
     0
 49
-1.0
 74
     0
  0
LTYPE
  5
41
330
5
100
AcDbSymbolTableRecord
100
AcDbLinetypeTableRecord
  2
EXLTYPE2
 70
     0
  3
点線
 72
    65
 73
     2
 40
2.0
 49
1.0
 74
     0
 49
-1.0
 74
     0
  0
LTYPE
  5
42
330
5
100
AcDbSymbolTableRecord
100
AcDbLinetypeTableRecord
  2
EXLTYPE3
 70
     0
  3
一点鎖線
 72
    65
 73
     4
 40
10.0
 49
7.0
 74
     0
 49
-1.0
 74
     0
 49
1.0
 74
     0
 49
-1.0
 74
     0
  0
LTYPE
  5
43
330
5
100
AcDbSymbolTableRecord
100
AcDbLinetypeTableRecord
  2
EXLTYPE4
 70
     0
  3
二点鎖線
 72
    65
 73
     6
 40
12.0
 49
7.0
 74
     0
 49
-1.0
 74
     0
 49
1.0
 74
     0
 49
-1.0
 74
     0
 49
1.0
 74
     0
 49
-1.0
 74
     0
  0
LTYPE
  5
44
330
5
100
AcDbSymbolTableRecord
100
AcDbLinetypeTableRecord
  2
EXLTYPE5
 70
     0
  3
三点鎖線
 72
    65
 73
     8
 40
37.0
 49
30.0
 74
     0
 49
-1.0
 74
     0
 49
1.0
 74
     0
 49
-1.0
 74
     0
 49
1.0
 74
     0
 49
-1.0
 74
     0
 49
1.0
 74
     0
 49
-1.0
 74
     0
  0
LTYPE
  5
45
330
5
100
AcDbSymbolTableRecord
100
AcDbLinetypeTableRecord
  2
EXLTYPE6
 70
     0
  3
四点鎖線
 72
    65
 73
    10
 40
39.0
 49
30.0
 74
     0
 49
-1.0
 74
     0
 49
1.0
 74
     0
 49
-1.0
 74
     0
 49
1.0
 74
     0
 49
-1.0
 74
     0
 49
1.0
 74
     0
 49
-1.0
 74
     0
 49
1.0
 74
     0
 49
-1.0
 74
     0
  0
ENDTAB
  0
TABLE
  2
LAYER
  5
2
330
0
100
AcDbSymbolTable
 70
     7
  0
LAYER
  5
10
330
2
100
AcDbSymbolTableRecord
100
AcDbLayerTableRecord
  2
0
 70
     0
 62
     7
  6
CONTINUOUS
  0
LAYER
  5
48
330
2
100
AcDbSymbolTableRecord
100
AcDbLayerTableRecord
  2
枠_表
 70
     0
 62
     7
  6
CONTINUOUS
  0
LAYER
  5
49
330
2
100
AcDbSymbolTableRecord
100
AcDbLayerTableRecord
  2
化粧台
 70
     0
 62
     7
  6
CONTINUOUS
  0
LAYER
  5
4A
330
2
100
AcDbSymbolTableRecord
100
AcDbLayerTableRecord
  2
鏡台
 70
     0
 62
     7
  6
CONTINUOUS
  0
LAYER
  5
4B
330
2
100
AcDbSymbolTableRecord
100
AcDbLayerTableRecord
  2
付属金具
 70
     0
 62
     7
  6
CONTINUOUS
  0
LAYER
  5
4C
330
2
100
AcDbSymbolTableRecord
100
AcDbLayerTableRecord
  2
寸法
 70
     0
 62
     7
  6
CONTINUOUS
  0
LAYER
  5
561
330
2
100
AcDbSymbolTableRecord
100
AcDbLayerTableRecord
  2
DEFPOINTS
 70
     0
 62
     7
  6
CONTINUOUS
  0
ENDTAB
  0
TABLE
  2
STYLE
  5
3
330
0
100
AcDbSymbolTable
 70
     5
  0
STYLE
  5
11
330
3
100
AcDbSymbolTableRecord
100
AcDbTextStyleTableRecord
  2
STANDARD
 70
     0
 40
0.0
 41
1.0
 50
0.0
 71
     0
 42
2.5
  3
monotxt
  4
extfont
  0
STYLE
  5
46
330
3
100
AcDbSymbolTableRecord
100
AcDbTextStyleTableRecord
  2
EXCADSTD
 70
     0
 40
0.0
 41
1.0
 50
0.0
 71
     0
 42
0.2
  3
monotxt
  4
extfont
  0
STYLE
  5
47
330
3
100
AcDbSymbolTableRecord
100
AcDbTextStyleTableRecord
  2
EXCADVERT
 70
     4
 40
0.0
 41
1.0
 50
0.0
 71
     0
 42
0.286885
  3
monotxt
  4
extfont
  0
STYLE
  5
10E
330
3
100
AcDbSymbolTableRecord
100
AcDbTextStyleTableRecord
  2
EXCADTTF1
 70
     0
 40
0.0
 41
1.0
 50
0.0
 71
     0
 42
0.2
  3
MSGOTHIC.TTC
  4

1001
ACAD
1000
MS Gothic
1071
    32817
  0
STYLE
  5
55F
330
3
100
AcDbSymbolTableRecord
100
AcDbTextStyleTableRecord
  2
EXCADDIM1
 70
     0
 40
0.0
 41
0.84
 50
0.0
 71
     0
 42
0.2
  3
monotxt
  4
extfont
  0
ENDTAB
  0
TABLE
  2
VIEW
  5
6
330
0
100
AcDbSymbolTable
 70
     0
  0
ENDTAB
  0
TABLE
  2
UCS
  5
7
330
0
100
AcDbSymbolTable
 70
     0
  0
ENDTAB
  0
TABLE
  2
APPID
  5
9
330
0
100
AcDbSymbolTable
 70
     1
  0
APPID
  5
12
330
9
100
AcDbSymbolTableRecord
100
AcDbRegAppTableRecord
  2
ACAD
 70
     0
  0
ENDTAB
  0
TABLE
  2
DIMSTYLE
  5
A
330
0
100
AcDbSymbolTable
 70
     1
  0
DIMSTYLE
105
27
102
{ACAD_REACTORS
330
560
330
56C
330
579
330
585
330
591
330
59C
330
5AA
330
5B6
330
5C2
330
5CF
330
5DE
330
5EA
330
5F7
330
60A
330
616
330
625
102
}
330
A
100
AcDbSymbolTableRecord
100
AcDbDimStyleTableRecord
  2
ISO-25
 70
     0
  3

  4

  5

  6

  7

 40
1.0
 41
2.5
 42
0.625
 43
3.75
 44
1.25
 45
0.0
 46
0.0
 47
0.0
 48
0.0
140
2.5
141
2.5
142
0.0
143
0.03937007874016
144
1.0
145
0.0
146
1.0
147
0.625
 71
     0
 72
     0
 73
     0
 74
     0
 75
     0
 76
     0
 77
     1
 78
     8
170
     0
171
     3
172
     1
173
     0
174
     0
175
     0
176
     0
177
     0
178
     0
270
     2
271
     2
272
     2
273
     2
274
     3
340
11
275
     0
280
     0
281
     0
282
     0
283
     0
284
     8
285
     0
286
     0
287
     5
288
     0
  0
ENDTAB
  0
TABLE
  2
BLOCK_RECORD
  5
1
330
0
100
AcDbSymbolTable
 70
    31
  0
BLOCK_RECORD
  5
1F
330
1
100
AcDbSymbolTableRecord
100
AcDbBlockTableRecord
  2
*MODEL_SPACE
  0
BLOCK_RECORD
  5
1B
330
1
100
AcDbSymbolTableRecord
100
AcDbBlockTableRecord
  2
*PAPER_SPACE
  0
BLOCK_RECORD
  5
4D
330
1
100
AcDbSymbolTableRecord
100
AcDbBlockTableRecord
  2
EX_NORM
  0
BLOCK_RECORD
  5
50
330
1
100
AcDbSymbolTableRecord
100
AcDbBlockTableRecord
  2
EX_BNORM
  0
BLOCK_RECORD
  5
53
330
1
100
AcDbSymbolTableRecord
100
AcDbBlockTableRecord
  2
EX_BCIR
  0
BLOCK_RECORD
  5
56
330
1
100
AcDbSymbolTableRecord
100
AcDbBlockTableRecord
  2
EX_RCIVIL
  0
BLOCK_RECORD
  5
59
330
1
100
AcDbSymbolTableRecord
100
AcDbBlockTableRecord
  2
EX_SLANT
  0
BLOCK_RECORD
  5
5C
330
1
100
AcDbSymbolTableRecord
100
AcDbBlockTableRecord
  2
EX_NONE
  0
BLOCK_RECORD
  5
5F
330
1
100
AcDbSymbolTableRecord
100
AcDbBlockTableRecord
  2
EX_CIVIL
  0
BLOCK_RECORD
  5
62
330
1
100
AcDbSymbolTableRecord
100
AcDbBlockTableRecord
  2
EX_WCIR
  0
BLOCK_RECORD
  5
65
330
1
100
AcDbSymbolTableRecord
100
AcDbBlockTableRecord
  2
EX_WCIR2
  0
BLOCK_RECORD
  5
68
330
1
100
AcDbSymbolTableRecord
100
AcDbBlockTableRecord
  2
EX_WNORM
  0
BLOCK_RECORD
  5
6B
330
1
100
AcDbSymbolTableRecord
100
AcDbBlockTableRecord
  2
EX_NNORM
  0
BLOCK_RECORD
  5
6E
330
1
100
AcDbSymbolTableRecord
100
AcDbBlockTableRecord
  2
EX_BBOX
  0
BLOCK_RECORD
  5
71
330
1
100
AcDbSymbolTableRecord
100
AcDbBlockTableRecord
  2
EX_WBOX
  0
BLOCK_RECORD
  5
74
330
1
100
AcDbSymbolTableRecord
100
AcDbBlockTableRecord
  2
EX_INTEGRAL
  0
BLOCK_RECORD
  5
562
330
1
100
AcDbSymbolTableRecord
100
AcDbBlockTableRecord
  2
*D15
  0
BLOCK_RECORD
  5
56D
330
1
100
AcDbSymbolTableRecord
100
AcDbBlockTableRecord
  2
*D16
  0
BLOCK_RECORD
  5
57A
330
1
100
AcDbSymbolTableRecord
100
AcDbBlockTableRecord
  2
*D17
  0
BLOCK_RECORD
  5
586
330
1
100
AcDbSymbolTableRecord
100
AcDbBlockTableRecord
  2
*D18
  0
BLOCK_RECORD
  5
592
330
1
100
AcDbSymbolTableRecord
100
AcDbBlockTableRecord
  2
*D19
  0
BLOCK_RECORD
  5
59D
330
1
100
AcDbSymbolTableRecord
100
AcDbBlockTableRecord
  2
*D20
  0
BLOCK_RECORD
  5
5AB
330
1
100
AcDbSymbolTableRecord
100
AcDbBlockTableRecord
  2
*D21
  0
BLOCK_RECORD
  5
5B7
330
1
100
AcDbSymbolTableRecord
100
AcDbBlockTableRecord
  2
*D22
  0
BLOCK_RECORD
  5
5C3
330
1
100
AcDbSymbolTableRecord
100
AcDbBlockTableRecord
  2
*D23
  0
BLOCK_RECORD
  5
5D0
330
1
100
AcDbSymbolTableRecord
100
AcDbBlockTableRecord
  2
*D24
  0
BLOCK_RECORD
  5
5DF
330
1
100
AcDbSymbolTableRecord
100
AcDbBlockTableRecord
  2
*D25
  0
BLOCK_RECORD
  5
5EB
330
1
100
AcDbSymbolTableRecord
100
AcDbBlockTableRecord
  2
*D26
  0
BLOCK_RECORD
  5
5F8
330
1
100
AcDbSymbolTableRecord
100
AcDbBlockTableRecord
  2
*D27
  0
BLOCK_RECORD
  5
60B
330
1
100
AcDbSymbolTableRecord
100
AcDbBlockTableRecord
  2
*D28
  0
BLOCK_RECORD
  5
617
330
1
100
AcDbSymbolTableRecord
100
AcDbBlockTableRecord
  2
*D29
  0
BLOCK_RECORD
  5
626
330
1
100
AcDbSymbolTableRecord
100
AcDbBlockTableRecord
  2
*D30
  0
ENDTAB
  0
ENDSEC
  0
SECTION
  2
BLOCKS
  0
BLOCK
  5
20
330
1F
100
AcDbEntity
  8
0
100
AcDbBlockBegin
  2
*MODEL_SPACE
 70
     0
 10
0.0
 20
0.0
 30
0.0
  3
*MODEL_SPACE
  1

  0
ENDBLK
  5
21
330
1F
100
AcDbEntity
  8
0
100
AcDbBlockEnd
  0
BLOCK
  5
1C
330
1B
100
AcDbEntity
 67
     1
  8
0
100
AcDbBlockBegin
  2
*PAPER_SPACE
 70
     0
 10
0.0
 20
0.0
 30
0.0
  3
*PAPER_SPACE
  1

  0
ENDBLK
  5
1D
330
1B
100
AcDbEntity
 67
     1
  8
0
100
AcDbBlockEnd
  0
BLOCK
  5
4E
330
4D
100
AcDbEntity
  8
0
100
AcDbBlockBegin
  2
EX_NORM
 70
     0
 10
0.0
 20
0.0
 30
0.0
  3
EX_NORM
  1

  0
LINE
  5
77
330
4D
100
AcDbEntity
  8
0
  6
CONTINUOUS
 62
     0
100
AcDbLine
 10
0.0
 20
0.0
 30
0.0
 11
-1.0
 21
0.0
 31
0.0
  0
LINE
  5
78
330
4D
100
AcDbEntity
  8
0
  6
CONTINUOUS
 62
     0
100
AcDbLine
 10
0.0
 20
0.0
 30
0.0
 11
-1.0
 21
0.166666667
 31
0.0
  0
LINE
  5
79
330
4D
100
AcDbEntity
  8
0
  6
CONTINUOUS
 62
     0
100
AcDbLine
 10
0.0
 20
0.0
 30
0.0
 11
-1.0
 21
-0.166666667
 31
0.0
  0
ENDBLK
  5
4F
330
4D
100
AcDbEntity
  8
0
100
AcDbBlockEnd
  0
BLOCK
  5
51
330
50
100
AcDbEntity
  8
0
100
AcDbBlockBegin
  2
EX_BNORM
 70
     0
 10
0.0
 20
0.0
 30
0.0
  3
EX_BNORM
  1

  0
LINE
  5
7A
330
50
100
AcDbEntity
  8
0
  6
CONTINUOUS
 62
     0
100
AcDbLine
 10
0.0
 20
0.0
 30
0.0
 11
-1.0
 21
0.0
 31
0.0
  0
LINE
  5
7B
330
50
100
AcDbEntity
  8
0
  6
CONTINUOUS
 62
     0
100
AcDbLine
 10
0.0
 20
0.0
 30
0.0
 11
-1.0
 21
0.166666667
 31
0.0
  0
LINE
  5
7C
330
50
100
AcDbEntity
  8
0
  6
CONTINUOUS
 62
     0
100
AcDbLine
 10
0.0
 20
0.0
 30
0.0
 11
-1.0
 21
-0.166666667
 31
0.0
  0
LINE
  5
7D
330
50
100
AcDbEntity
  8
0
  6
CONTINUOUS
 62
     0
100
AcDbLine
 10
0.0
 20
0.0
 30
0.0
 11
-1.0
 21
0.083333333
 31
0.0
  0
LINE
  5
7E
330
50
100
AcDbEntity
  8
0
  6
CONTINUOUS
 62
     0
100
AcDbLine
 10
0.0
 20
0.0
 30
0.0
 11
-1.0
 21
-0.083333333
 31
0.0
  0
LINE
  5
7F
330
50
100
AcDbEntity
  8
0
  6
CONTINUOUS
 62
     0
100
AcDbLine
 10
-1.0
 20
0.166666667
 30
0.0
 11
-1.0
 21
-0.166666667
 31
0.0
  0
ENDBLK
  5
52
330
50
100
AcDbEntity
  8
0
100
AcDbBlockEnd
  0
BLOCK
  5
54
330
53
100
AcDbEntity
  8
0
100
AcDbBlockBegin
  2
EX_BCIR
 70
     0
 10
0.0
 20
0.0
 30
0.0
  3
EX_BCIR
  1

  0
LINE
  5
80
330
53
100
AcDbEntity
  8
0
  6
CONTINUOUS
 62
     0
100
AcDbLine
 10
0.0
 20
0.0
 30
0.0
 11
-1.0
 21
0.0
 31
0.0
  0
CIRCLE
  5
81
330
53
100
AcDbEntity
  8
0
  6
CONTINUOUS
 62
     0
100
AcDbCircle
 10
0.0
 20
0.0
 30
0.0
 40
0.5
  0
CIRCLE
  5
82
330
53
100
AcDbEntity
  8
0
  6
CONTINUOUS
 62
     0
100
AcDbCircle
 10
0.0
 20
0.0
 30
0.0
 40
0.25
  0
ENDBLK
  5
55
330
53
100
AcDbEntity
  8
0
100
AcDbBlockEnd
  0
BLOCK
  5
57
330
56
100
AcDbEntity
  8
0
100
AcDbBlockBegin
  2
EX_RCIVIL
 70
     0
 10
0.0
 20
0.0
 30
0.0
  3
EX_RCIVIL
  1

  0
LINE
  5
83
330
56
100
AcDbEntity
  8
0
  6
CONTINUOUS
 62
     0
100
AcDbLine
 10
0.0
 20
0.0
 30
0.0
 11
-1.0
 21
0.0
 31
0.0
  0
LINE
  5
84
330
56
100
AcDbEntity
  8
0
  6
CONTINUOUS
 62
     0
100
AcDbLine
 10
-1.0
 20
-0.25
 30
0.0
 11
0.0
 21
-0.25
 31
0.0
  0
LINE
  5
85
330
56
100
AcDbEntity
  8
0
  6
CONTINUOUS
 62
     0
100
AcDbLine
 10
-1.0
 20
-0.125
 30
0.0
 11
0.0
 21
-0.125
 31
0.0
  0
ENDBLK
  5
58
330
56
100
AcDbEntity
  8
0
100
AcDbBlockEnd
  0
BLOCK
  5
5A
330
59
100
AcDbEntity
  8
0
100
AcDbBlockBegin
  2
EX_SLANT
 70
     0
 10
0.0
 20
0.0
 30
0.0
  3
EX_SLANT
  1

  0
LINE
  5
86
330
59
100
AcDbEntity
  8
0
  6
CONTINUOUS
 62
     0
100
AcDbLine
 10
0.0
 20
0.0
 30
0.0
 11
-1.0
 21
0.0
 31
0.0
  0
LINE
  5
87
330
59
100
AcDbEntity
  8
0
  6
CONTINUOUS
 62
     0
100
AcDbLine
 10
0.707106781
 20
0.707106781
 30
0.0
 11
-0.707106781
 21
-0.707106781
 31
0.0
  0
ENDBLK
  5
5B
330
59
100
AcDbEntity
  8
0
100
AcDbBlockEnd
  0
BLOCK
  5
5D
330
5C
100
AcDbEntity
  8
0
100
AcDbBlockBegin
  2
EX_NONE
 70
     0
 10
0.0
 20
0.0
 30
0.0
  3
EX_NONE
  1

  0
LINE
  5
88
330
5C
100
AcDbEntity
  8
0
  6
CONTINUOUS
 62
     0
100
AcDbLine
 10
0.0
 20
0.0
 30
0.0
 11
-1.0
 21
0.0
 31
0.0
  0
ENDBLK
  5
5E
330
5C
100
AcDbEntity
  8
0
100
AcDbBlockEnd
  0
BLOCK
  5
60
330
5F
100
AcDbEntity
  8
0
100
AcDbBlockBegin
  2
EX_CIVIL
 70
     0
 10
0.0
 20
0.0
 30
0.0
  3
EX_CIVIL
  1

  0
LINE
  5
89
330
5F
100
AcDbEntity
  8
0
  6
CONTINUOUS
 62
     0
100
AcDbLine
 10
0.0
 20
0.0
 30
0.0
 11
-1.0
 21
0.0
 31
0.0
  0
LINE
  5
8A
330
5F
100
AcDbEntity
  8
0
  6
CONTINUOUS
 62
     0
100
AcDbLine
 10
-1.0
 20
0.25
 30
0.0
 11
0.0
 21
0.25
 31
0.0
  0
LINE
  5
8B
330
5F
100
AcDbEntity
  8
0
  6
CONTINUOUS
 62
     0
100
AcDbLine
 10
-1.0
 20
0.125
 30
0.0
 11
0.0
 21
0.125
 31
0.0
  0
ENDBLK
  5
61
330
5F
100
AcDbEntity
  8
0
100
AcDbBlockEnd
  0
BLOCK
  5
63
330
62
100
AcDbEntity
  8
0
100
AcDbBlockBegin
  2
EX_WCIR
 70
     0
 10
0.0
 20
0.0
 30
0.0
  3
EX_WCIR
  1

  0
LINE
  5
8C
330
62
100
AcDbEntity
  8
0
  6
CONTINUOUS
 62
     0
100
AcDbLine
 10
0.0
 20
0.0
 30
0.0
 11
-1.0
 21
0.0
 31
0.0
  0
CIRCLE
  5
8D
330
62
100
AcDbEntity
  8
0
  6
CONTINUOUS
 62
     0
100
AcDbCircle
 10
0.0
 20
0.0
 30
0.0
 40
0.5
  0
ENDBLK
  5
64
330
62
100
AcDbEntity
  8
0
100
AcDbBlockEnd
  0
BLOCK
  5
66
330
65
100
AcDbEntity
  8
0
100
AcDbBlockBegin
  2
EX_WCIR2
 70
     0
 10
0.0
 20
0.0
 30
0.0
  3
EX_WCIR2
  1

  0
LINE
  5
8E
330
65
100
AcDbEntity
  8
0
  6
CONTINUOUS
 62
     0
100
AcDbLine
 10
-0.5
 20
0.0
 30
0.0
 11
-1.0
 21
0.0
 31
0.0
  0
CIRCLE
  5
8F
330
65
100
AcDbEntity
  8
0
  6
CONTINUOUS
 62
     0
100
AcDbCircle
 10
0.0
 20
0.0
 30
0.0
 40
0.5
  0
ENDBLK
  5
67
330
65
100
AcDbEntity
  8
0
100
AcDbBlockEnd
  0
BLOCK
  5
69
330
68
100
AcDbEntity
  8
0
100
AcDbBlockBegin
  2
EX_WNORM
 70
     0
 10
0.0
 20
0.0
 30
0.0
  3
EX_WNORM
  1

  0
LINE
  5
90
330
68
100
AcDbEntity
  8
0
  6
CONTINUOUS
 62
     0
100
AcDbLine
 10
-1.0
 20
0.0
 30
0.0
 11
-1.0
 21
0.0
 31
0.0
  0
LINE
  5
91
330
68
100
AcDbEntity
  8
0
  6
CONTINUOUS
 62
     0
100
AcDbLine
 10
0.0
 20
0.0
 30
0.0
 11
-1.0
 21
0.166666667
 31
0.0
  0
LINE
  5
92
330
68
100
AcDbEntity
  8
0
  6
CONTINUOUS
 62
     0
100
AcDbLine
 10
0.0
 20
0.0
 30
0.0
 11
-1.0
 21
-0.166666667
 31
0.0
  0
LINE
  5
93
330
68
100
AcDbEntity
  8
0
  6
CONTINUOUS
 62
     0
100
AcDbLine
 10
-1.0
 20
0.166666667
 30
0.0
 11
-1.0
 21
-0.166666667
 31
0.0
  0
ENDBLK
  5
6A
330
68
100
AcDbEntity
  8
0
100
AcDbBlockEnd
  0
BLOCK
  5
6C
330
6B
100
AcDbEntity
  8
0
100
AcDbBlockBegin
  2
EX_NNORM
 70
     0
 10
0.0
 20
0.0
 30
0.0
  3
EX_NNORM
  1

  0
LINE
  5
94
330
6B
100
AcDbEntity
  8
0
  6
CONTINUOUS
 62
     0
100
AcDbLine
 10
0.0
 20
0.0
 30
0.0
 11
-1.0
 21
0.0
 31
0.0
  0
LINE
  5
95
330
6B
100
AcDbEntity
  8
0
  6
CONTINUOUS
 62
     0
100
AcDbLine
 10
0.0
 20
0.0
 30
0.0
 11
-1.0
 21
0.166666667
 31
0.0
  0
LINE
  5
96
330
6B
100
AcDbEntity
  8
0
  6
CONTINUOUS
 62
     0
100
AcDbLine
 10
0.0
 20
0.0
 30
0.0
 11
-1.0
 21
-0.166666667
 31
0.0
  0
LINE
  5
97
330
6B
100
AcDbEntity
  8
0
  6
CONTINUOUS
 62
     0
100
AcDbLine
 10
-1.0
 20
0.166666667
 30
0.0
 11
-1.0
 21
-0.166666667
 31
0.0
  0
ENDBLK
  5
6D
330
6B
100
AcDbEntity
  8
0
100
AcDbBlockEnd
  0
BLOCK
  5
6F
330
6E
100
AcDbEntity
  8
0
100
AcDbBlockBegin
  2
EX_BBOX
 70
     0
 10
0.0
 20
0.0
 30
0.0
  3
EX_BBOX
  1

  0
LINE
  5
98
330
6E
100
AcDbEntity
  8
0
  6
CONTINUOUS
 62
     0
100
AcDbLine
 10
0.0
 20
0.0
 30
0.0
 11
-1.0
 21
0.0
 31
0.0
  0
LINE
  5
99
330
6E
100
AcDbEntity
  8
0
  6
CONTINUOUS
 62
     0
100
AcDbLine
 10
-0.5
 20
0.5
 30
0.0
 11
0.5
 21
0.5
 31
0.0
  0
LINE
  5
9A
330
6E
100
AcDbEntity
  8
0
  6
CONTINUOUS
 62
     0
100
AcDbLine
 10
0.5
 20
0.5
 30
0.0
 11
0.5
 21
-0.5
 31
0.0
  0
LINE
  5
9B
330
6E
100
AcDbEntity
  8
0
  6
CONTINUOUS
 62
     0
100
AcDbLine
 10
0.5
 20
-0.5
 30
0.0
 11
-0.5
 21
-0.5
 31
0.0
  0
LINE
  5
9C
330
6E
100
AcDbEntity
  8
0
  6
CONTINUOUS
 62
     0
100
AcDbLine
 10
-0.5
 20
-0.5
 30
0.0
 11
-0.5
 21
0.5
 31
0.0
  0
LINE
  5
9D
330
6E
100
AcDbEntity
  8
0
  6
CONTINUOUS
 62
     0
100
AcDbLine
 10
-0.25
 20
0.25
 30
0.0
 11
0.25
 21
0.25
 31
0.0
  0
LINE
  5
9E
330
6E
100
AcDbEntity
  8
0
  6
CONTINUOUS
 62
     0
100
AcDbLine
 10
0.25
 20
0.25
 30
0.0
 11
0.25
 21
-0.25
 31
0.0
  0
LINE
  5
9F
330
6E
100
AcDbEntity
  8
0
  6
CONTINUOUS
 62
     0
100
AcDbLine
 10
0.25
 20
-0.25
 30
0.0
 11
-0.25
 21
-0.25
 31
0.0
  0
LINE
  5
A0
330
6E
100
AcDbEntity
  8
0
  6
CONTINUOUS
 62
     0
100
AcDbLine
 10
-0.25
 20
-0.25
 30
0.0
 11
-0.25
 21
0.25
 31
0.0
  0
ENDBLK
  5
70
330
6E
100
AcDbEntity
  8
0
100
AcDbBlockEnd
  0
BLOCK
  5
72
330
71
100
AcDbEntity
  8
0
100
AcDbBlockBegin
  2
EX_WBOX
 70
     0
 10
0.0
 20
0.0
 30
0.0
  3
EX_WBOX
  1

  0
LINE
  5
A1
330
71
100
AcDbEntity
  8
0
  6
CONTINUOUS
 62
     0
100
AcDbLine
 10
-0.5
 20
0.0
 30
0.0
 11
-1.0
 21
0.0
 31
0.0
  0
LINE
  5
A2
330
71
100
AcDbEntity
  8
0
  6
CONTINUOUS
 62
     0
100
AcDbLine
 10
-0.5
 20
0.5
 30
0.0
 11
0.5
 21
0.5
 31
0.0
  0
LINE
  5
A3
330
71
100
AcDbEntity
  8
0
  6
CONTINUOUS
 62
     0
100
AcDbLine
 10
0.5
 20
0.5
 30
0.0
 11
0.5
 21
-0.5
 31
0.0
  0
LINE
  5
A4
330
71
100
AcDbEntity
  8
0
  6
CONTINUOUS
 62
     0
100
AcDbLine
 10
0.5
 20
-0.5
 30
0.0
 11
-0.5
 21
-0.5
 31
0.0
  0
LINE
  5
A5
330
71
100
AcDbEntity
  8
0
  6
CONTINUOUS
 62
     0
100
AcDbLine
 10
-0.5
 20
-0.5
 30
0.0
 11
-0.5
 21
0.5
 31
0.0
  0
ENDBLK
  5
73
330
71
100
AcDbEntity
  8
0
100
AcDbBlockEnd
  0
BLOCK
  5
75
330
74
100
AcDbEntity
  8
0
100
AcDbBlockBegin
  2
EX_INTEGRAL
 70
     0
 10
0.0
 20
0.0
 30
0.0
  3
EX_INTEGRAL
  1

  0
LINE
  5
A6
330
74
100
AcDbEntity
  8
0
  6
CONTINUOUS
 62
     0
100
AcDbLine
 10
0.0
 20
0.0
 30
0.0
 11
-1.0
 21
0.0
 31
0.0
  0
ARC
  5
A7
330
74
100
AcDbEntity
  8
0
  6
CONTINUOUS
 62
     0
100
AcDbCircle
 10
0.542115
 20
0.164992
 30
0.0
 40
0.56667
100
AcDbArc
 50
73.07249033629006
 51
196.9275130221199
  0
ARC
  5
A8
330
74
100
AcDbEntity
  8
0
  6
CONTINUOUS
 62
     0
100
AcDbCircle
 10
-0.542115
 20
-0.164992
 30
0.0
 40
0.56667
100
AcDbArc
 50
253.0724869220464
 51
16.9275130559125
  0
ENDBLK
  5
76
330
74
100
AcDbEntity
  8
0
100
AcDbBlockEnd
  0
BLOCK
  5
563
330
562
100
AcDbEntity
  8
0
100
AcDbBlockBegin
  2
*D15
 70
     1
 10
0.0
 20
0.0
 30
0.0
  3
*D15
  1

  0
LINE
  5
565
330
562
100
AcDbEntity
  8
寸法
  6
CONTINUOUS
 62
     3
100
AcDbLine
 10
694.9999961853002
 20
3770.5
 30
0.0
 11
1145.000003814694
 21
3770.5
 31
0.0
  0
INSERT
  5
566
330
562
100
AcDbEntity
  8
寸法
 62
     3
100
AcDbBlockReference
  2
EX_NORM
 10
649.9999999999975
 20
3770.5
 30
0.0
 41
44.99999618530273
 42
44.99999618530273
 43
44.99999618530273
 50
180.0
  0
INSERT
  5
567
330
562
100
AcDbEntity
  8
寸法
 62
     3
100
AcDbBlockReference
  2
EX_NORM
 10
1189.999999999997
 20
3770.5
 30
0.0
 41
44.99999618530273
 42
44.99999618530273
 43
44.99999618530273
  0
MTEXT
  5
568
330
562
100
AcDbEntity
  8
寸法
 62
     2
100
AcDbMText
 10
919.9999999999973
 20
3805.749999910593
 30
0.0
 40
59.99999618530273
 41
0.0
 71
     5
 72
     1
  1
540（壁固定）
  7
EXCADDIM1
  0
POINT
  5
569
330
562
100
AcDbEntity
  8
DEFPOINTS
 62
     0
100
AcDbPoint
 10
649.9999999999975
 20
3608.0
 30
0.0
  0
POINT
  5
56A
330
562
100
AcDbEntity
  8
DEFPOINTS
 62
     0
100
AcDbPoint
 10
1189.999999999997
 20
3608.0
 30
0.0
  0
POINT
  5
56B
330
562
100
AcDbEntity
  8
DEFPOINTS
 62
     0
100
AcDbPoint
 10
1189.999999999997
 20
3770.5
 30
0.0
  0
ENDBLK
  5
564
330
562
100
AcDbEntity
  8
0
100
AcDbBlockEnd
  0
BLOCK
  5
56E
330
56D
100
AcDbEntity
  8
0
100
AcDbBlockBegin
  2
*D16
 70
     1
 10
0.0
 20
0.0
 30
0.0
  3
*D16
  1

  0
LINE
  5
570
330
56D
100
AcDbEntity
  8
寸法
  6
CONTINUOUS
 62
     3
100
AcDbLine
 10
544.9999999999975
 20
3114.598404741813
 30
0.0
 11
544.9999999999975
 21
2975.5
 31
0.0
  0
LINE
  5
571
330
56D
100
AcDbEntity
  8
寸法
  6
CONTINUOUS
 62
     3
100
AcDbLine
 10
1294.999999999993
 20
3114.598404741813
 30
0.0
 11
1294.999999999993
 21
2975.5
 31
0.0
  0
LINE
  5
572
330
56D
100
AcDbEntity
  8
寸法
  6
CONTINUOUS
 62
     3
100
AcDbLine
 10
589.9999961853002
 20
2990.5
 30
0.0
 11
1250.00000381469
 21
2990.5
 31
0.0
  0
INSERT
  5
573
330
56D
100
AcDbEntity
  8
寸法
 62
     3
100
AcDbBlockReference
  2
EX_NORM
 10
544.9999999999975
 20
2990.5
 30
0.0
 41
44.99999618530273
 42
44.99999618530273
 43
44.99999618530273
 50
180.0
  0
INSERT
  5
574
330
56D
100
AcDbEntity
  8
寸法
 62
     3
100
AcDbBlockReference
  2
EX_NORM
 10
1294.999999999993
 20
2990.5
 30
0.0
 41
44.99999618530273
 42
44.99999618530273
 43
44.99999618530273
  0
MTEXT
  5
575
330
56D
100
AcDbEntity
  8
寸法
 62
     2
100
AcDbMText
 10
919.9999999999955
 20
3025.749999910593
 30
0.0
 40
59.99999618530273
 41
0.0
 71
     5
 72
     1
  1
750
  7
EXCADDIM1
  0
POINT
  5
576
330
56D
100
AcDbEntity
  8
DEFPOINTS
 62
     0
100
AcDbPoint
 10
544.9999999999975
 20
3125.098404562999
 30
0.0
  0
POINT
  5
577
330
56D
100
AcDbEntity
  8
DEFPOINTS
 62
     0
100
AcDbPoint
 10
1294.999999999993
 20
3125.098404562999
 30
0.0
  0
POINT
  5
578
330
56D
100
AcDbEntity
  8
DEFPOINTS
 62
     0
100
AcDbPoint
 10
1294.999999999993
 20
2990.5
 30
0.0
  0
ENDBLK
  5
56F
330
56D
100
AcDbEntity
  8
0
100
AcDbBlockEnd
  0
BLOCK
  5
57B
330
57A
100
AcDbEntity
  8
0
100
AcDbBlockBegin
  2
*D17
 70
     1
 10
0.0
 20
0.0
 30
0.0
  3
*D17
  1

  0
LINE
  5
57D
330
57A
100
AcDbEntity
  8
寸法
  6
CONTINUOUS
 62
     3
100
AcDbLine
 10
930.4999998211836
 20
3095.5
 30
0.0
 11
1414.999999999993
 21
3095.5
 31
0.0
  0
LINE
  5
57E
330
57A
100
AcDbEntity
  8
寸法
  6
CONTINUOUS
 62
     3
100
AcDbLine
 10
1399.999999999993
 20
3140.499996185303
 30
0.0
 11
1399.999999999993
 21
3530.500003814697
 31
0.0
  0
INSERT
  5
57F
330
57A
100
AcDbEntity
  8
寸法
 62
     3
100
AcDbBlockReference
  2
EX_NORM
 10
1399.999999999993
 20
3095.5
 30
0.0
 41
44.99999618530273
 42
44.99999618530273
 43
44.99999618530273
 50
270.0
  0
INSERT
  5
580
330
57A
100
AcDbEntity
  8
寸法
 62
     3
100
AcDbBlockReference
  2
EX_NORM
 10
1399.999999999993
 20
3575.5
 30
0.0
 41
44.99999618530273
 42
44.99999618530273
 43
44.99999618530273
 50
90.0
  0
MTEXT
  5
581
330
57A
100
AcDbEntity
  8
寸法
 62
     2
100
AcDbMText
 10
1364.750000089401
 20
3335.5
 30
0.0
 40
59.99999618530273
 41
0.0
 71
     5
 72
     1
  1
480
  7
EXCADDIM1
 11
0.0
 21
1.0
 31
0.0
  0
POINT
  5
582
330
57A
100
AcDbEntity
  8
DEFPOINTS
 62
     0
100
AcDbPoint
 10
919.9999999999975
 20
3095.5
 30
0.0
  0
POINT
  5
583
330
57A
100
AcDbEntity
  8
DEFPOINTS
 62
     0
100
AcDbPoint
 10
1294.999999999993
 20
3575.5
 30
0.0
  0
POINT
  5
584
330
57A
100
AcDbEntity
  8
DEFPOINTS
 62
     0
100
AcDbPoint
 10
1399.999999999993
 20
3575.5
 30
0.0
  0
ENDBLK
  5
57C
330
57A
100
AcDbEntity
  8
0
100
AcDbBlockEnd
  0
BLOCK
  5
587
330
586
100
AcDbEntity
  8
0
100
AcDbBlockBegin
  2
*D18
 70
     1
 10
0.0
 20
0.0
 30
0.0
  3
*D18
  1

  0
LINE
  5
589
330
586
100
AcDbEntity
  8
寸法
  6
CONTINUOUS
 62
     3
100
AcDbLine
 10
930.4999998211836
 20
2046.0
 30
0.0
 11
1462.499999999995
 21
2046.0
 31
0.0
  0
LINE
  5
58A
330
586
100
AcDbEntity
  8
寸法
  6
CONTINUOUS
 62
     3
100
AcDbLine
 10
1447.499999999995
 20
1310.999996185303
 30
0.0
 11
1447.499999999995
 21
2001.000003814697
 31
0.0
  0
INSERT
  5
58B
330
586
100
AcDbEntity
  8
寸法
 62
     3
100
AcDbBlockReference
  2
EX_NORM
 10
1447.499999999995
 20
1266.0
 30
0.0
 41
44.99999618530273
 42
44.99999618530273
 43
44.99999618530273
 50
270.0
  0
INSERT
  5
58C
330
586
100
AcDbEntity
  8
寸法
 62
     3
100
AcDbBlockReference
  2
EX_NORM
 10
1447.499999999995
 20
2046.0
 30
0.0
 41
44.99999618530273
 42
44.99999618530273
 43
44.99999618530273
 50
90.0
  0
MTEXT
  5
58D
330
586
100
AcDbEntity
  8
寸法
 62
     2
100
AcDbMText
 10
1412.250000089402
 20
1656.0
 30
0.0
 40
59.99999618530273
 41
0.0
 71
     5
 72
     1
  1
780
  7
EXCADDIM1
 11
0.0
 21
1.0
 31
0.0
  0
POINT
  5
58E
330
586
100
AcDbEntity
  8
DEFPOINTS
 62
     0
100
AcDbPoint
 10
1278.499999999993
 20
1266.0
 30
0.0
  0
POINT
  5
58F
330
586
100
AcDbEntity
  8
DEFPOINTS
 62
     0
100
AcDbPoint
 10
919.9999999999975
 20
2046.0
 30
0.0
  0
POINT
  5
590
330
586
100
AcDbEntity
  8
DEFPOINTS
 62
     0
100
AcDbPoint
 10
1447.499999999995
 20
2046.0
 30
0.0
  0
ENDBLK
  5
588
330
586
100
AcDbEntity
  8
0
100
AcDbBlockEnd
  0
BLOCK
  5
593
330
592
100
AcDbEntity
  8
0
100
AcDbBlockBegin
  2
*D19
 70
     1
 10
0.0
 20
0.0
 30
0.0
  3
*D19
  1

  0
LINE
  5
595
330
592
100
AcDbEntity
  8
寸法
  6
CONTINUOUS
 62
     3
100
AcDbLine
 10
1537.499999999993
 20
1310.999996185303
 30
0.0
 11
1537.499999999993
 21
2016.000003814697
 31
0.0
  0
INSERT
  5
596
330
592
100
AcDbEntity
  8
寸法
 62
     3
100
AcDbBlockReference
  2
EX_NORM
 10
1537.499999999993
 20
1266.0
 30
0.0
 41
44.99999618530273
 42
44.99999618530273
 43
44.99999618530273
 50
270.0
  0
INSERT
  5
597
330
592
100
AcDbEntity
  8
寸法
 62
     3
100
AcDbBlockReference
  2
EX_NORM
 10
1537.499999999993
 20
2061.0
 30
0.0
 41
44.99999618530273
 42
44.99999618530273
 43
44.99999618530273
 50
90.0
  0
MTEXT
  5
598
330
592
100
AcDbEntity
  8
寸法
 62
     2
100
AcDbMText
 10
1502.2500000894
 20
1663.5
 30
0.0
 40
59.99999618530273
 41
0.0
 71
     5
 72
     1
  1
795
  7
EXCADDIM1
 11
0.0
 21
1.0
 31
0.0
  0
POINT
  5
599
330
592
100
AcDbEntity
  8
DEFPOINTS
 62
     0
100
AcDbPoint
 10
1278.499999999993
 20
1266.0
 30
0.0
  0
POINT
  5
59A
330
592
100
AcDbEntity
  8
DEFPOINTS
 62
     0
100
AcDbPoint
 10
1289.999999999993
 20
2061.0
 30
0.0
  0
POINT
  5
59B
330
592
100
AcDbEntity
  8
DEFPOINTS
 62
     0
100
AcDbPoint
 10
1537.499999999993
 20
2061.0
 30
0.0
  0
ENDBLK
  5
594
330
592
100
AcDbEntity
  8
0
100
AcDbBlockEnd
  0
BLOCK
  5
59E
330
59D
100
AcDbEntity
  8
0
100
AcDbBlockBegin
  2
*D20
 70
     1
 10
0.0
 20
0.0
 30
0.0
  3
*D20
  1

  0
LINE
  5
5A0
330
59D
100
AcDbEntity
  8
寸法
  6
CONTINUOUS
 62
     3
100
AcDbLine
 10
2379.999999999998
 20
1247.500000178814
 30
0.0
 11
2379.999999999998
 21
1131.0
 31
0.0
  0
LINE
  5
5A1
330
59D
100
AcDbEntity
  8
寸法
  6
CONTINUOUS
 62
     3
100
AcDbLine
 10
2379.999999999998
 20
1146.0
 30
0.0
 11
2464.999999999998
 21
1146.0
 31
0.0
  0
LINE
  5
5A2
330
59D
100
AcDbEntity
  8
寸法
  6
CONTINUOUS
 62
     3
100
AcDbLine
 10
2335.000003814695
 20
1146.0
 30
0.0
 11
2290.000007629392
 21
1146.0
 31
0.0
  0
LINE
  5
5A3
330
59D
100
AcDbEntity
  8
寸法
  6
CONTINUOUS
 62
     3
100
AcDbLine
 10
2509.9999961853
 20
1146.0
 30
0.0
 11
2554.999992370603
 21
1146.0
 31
0.0
  0
INSERT
  5
5A4
330
59D
100
AcDbEntity
  8
寸法
 62
     3
100
AcDbBlockReference
  2
EX_NORM
 10
2379.999999999998
 20
1146.0
 30
0.0
 41
44.99999618530273
 42
44.99999618530273
 43
44.99999618530273
  0
INSERT
  5
5A5
330
59D
100
AcDbEntity
  8
寸法
 62
     3
100
AcDbBlockReference
  2
EX_NORM
 10
2464.999999999998
 20
1146.0
 30
0.0
 41
44.99999618530273
 42
44.99999618530273
 43
44.99999618530273
 50
180.0
  0
MTEXT
  5
5A6
330
59D
100
AcDbEntity
  8
寸法
 62
     2
100
AcDbMText
 10
2683.999999463555
 20
1181.249999910593
 30
0.0
 40
59.99999618530273
 41
0.0
 71
     5
 72
     1
  1
85（床給水）
  7
EXCADDIM1
  0
POINT
  5
5A7
330
59D
100
AcDbEntity
  8
DEFPOINTS
 62
     0
100
AcDbPoint
 10
2379.999999999998
 20
1258.0
 30
0.0
  0
POINT
  5
5A8
330
59D
100
AcDbEntity
  8
DEFPOINTS
 62
     0
100
AcDbPoint
 10
2464.999999999998
 20
1266.0
 30
0.0
  0
POINT
  5
5A9
330
59D
100
AcDbEntity
  8
DEFPOINTS
 62
     0
100
AcDbPoint
 10
2464.999999999998
 20
1146.0
 30
0.0
  0
ENDBLK
  5
59F
330
59D
100
AcDbEntity
  8
0
100
AcDbBlockEnd
  0
BLOCK
  5
5AC
330
5AB
100
AcDbEntity
  8
0
100
AcDbBlockBegin
  2
*D21
 70
     1
 10
0.0
 20
0.0
 30
0.0
  3
*D21
  1

  0
LINE
  5
5AE
330
5AB
100
AcDbEntity
  8
寸法
  6
CONTINUOUS
 62
     3
100
AcDbLine
 10
2483.499999821184
 20
1616.0
 30
0.0
 11
2584.999999999998
 21
1616.0
 31
0.0
  0
LINE
  5
5AF
330
5AB
100
AcDbEntity
  8
寸法
  6
CONTINUOUS
 62
     3
100
AcDbLine
 10
2569.999999999998
 20
1310.999996185303
 30
0.0
 11
2569.999999999998
 21
1571.000003814697
 31
0.0
  0
INSERT
  5
5B0
330
5AB
100
AcDbEntity
  8
寸法
 62
     3
100
AcDbBlockReference
  2
EX_NORM
 10
2569.999999999998
 20
1266.0
 30
0.0
 41
44.99999618530273
 42
44.99999618530273
 43
44.99999618530273
 50
270.0
  0
INSERT
  5
5B1
330
5AB
100
AcDbEntity
  8
寸法
 62
     3
100
AcDbBlockReference
  2
EX_NORM
 10
2569.999999999998
 20
1616.0
 30
0.0
 41
44.99999618530273
 42
44.99999618530273
 43
44.99999618530273
 50
90.0
  0
MTEXT
  5
5B2
330
5AB
100
AcDbEntity
  8
寸法
 62
     2
100
AcDbMText
 10
2534.750000089405
 20
1446.55
 30
0.0
 40
59.99999618530273
 41
0.0
 71
     5
 72
     1
  1
350（壁給水）
  7
EXCADDIM1
 11
-3.828568698926949E-16
 21
1.0
 31
0.0
  0
POINT
  5
5B3
330
5AB
100
AcDbEntity
  8
DEFPOINTS
 62
     0
100
AcDbPoint
 10
2464.999999999998
 20
1266.0
 30
0.0
  0
POINT
  5
5B4
330
5AB
100
AcDbEntity
  8
DEFPOINTS
 62
     0
100
AcDbPoint
 10
2472.999999999998
 20
1616.0
 30
0.0
  0
POINT
  5
5B5
330
5AB
100
AcDbEntity
  8
DEFPOINTS
 62
     0
100
AcDbPoint
 10
2569.999999999998
 20
1616.0
 30
0.0
  0
ENDBLK
  5
5AD
330
5AB
100
AcDbEntity
  8
0
100
AcDbBlockEnd
  0
BLOCK
  5
5B8
330
5B7
100
AcDbEntity
  8
0
100
AcDbBlockBegin
  2
*D22
 70
     1
 10
0.0
 20
0.0
 30
0.0
  3
*D22
  1

  0
LINE
  5
5BA
330
5B7
100
AcDbEntity
  8
寸法
  6
CONTINUOUS
 62
     3
100
AcDbLine
 10
2496.499999821184
 20
1766.0
 30
0.0
 11
2674.999999999998
 21
1766.0
 31
0.0
  0
LINE
  5
5BB
330
5B7
100
AcDbEntity
  8
寸法
  6
CONTINUOUS
 62
     3
100
AcDbLine
 10
2659.999999999998
 20
1310.999996185303
 30
0.0
 11
2659.999999999998
 21
1721.000003814697
 31
0.0
  0
INSERT
  5
5BC
330
5B7
100
AcDbEntity
  8
寸法
 62
     3
100
AcDbBlockReference
  2
EX_NORM
 10
2659.999999999998
 20
1266.0
 30
0.0
 41
44.99999618530273
 42
44.99999618530273
 43
44.99999618530273
 50
270.0
  0
INSERT
  5
5BD
330
5B7
100
AcDbEntity
  8
寸法
 62
     3
100
AcDbBlockReference
  2
EX_NORM
 10
2659.999999999998
 20
1766.0
 30
0.0
 41
44.99999618530273
 42
44.99999618530273
 43
44.99999618530273
 50
90.0
  0
MTEXT
  5
5BE
330
5B7
100
AcDbEntity
  8
寸法
 62
     2
100
AcDbMText
 10
2624.750000089405
 20
1516.0
 30
0.0
 40
59.99999618530273
 41
0.0
 71
     5
 72
     1
  1
500（壁排水）
  7
EXCADDIM1
 11
0.0
 21
1.0
 31
0.0
  0
POINT
  5
5BF
330
5B7
100
AcDbEntity
  8
DEFPOINTS
 62
     0
100
AcDbPoint
 10
2464.999999999998
 20
1266.0
 30
0.0
  0
POINT
  5
5C0
330
5B7
100
AcDbEntity
  8
DEFPOINTS
 62
     0
100
AcDbPoint
 10
2485.999999999998
 20
1766.0
 30
0.0
  0
POINT
  5
5C1
330
5B7
100
AcDbEntity
  8
DEFPOINTS
 62
     0
100
AcDbPoint
 10
2659.999999999998
 20
1766.0
 30
0.0
  0
ENDBLK
  5
5B9
330
5B7
100
AcDbEntity
  8
0
100
AcDbBlockEnd
  0
BLOCK
  5
5C4
330
5C3
100
AcDbEntity
  8
0
100
AcDbBlockBegin
  2
*D23
 70
     1
 10
0.0
 20
0.0
 30
0.0
  3
*D23
  1

  0
LINE
  5
5C6
330
5C3
100
AcDbEntity
  8
寸法
  6
CONTINUOUS
 62
     3
100
AcDbLine
 10
2475.499999821184
 20
1266.0
 30
0.0
 11
2764.999999999998
 21
1266.0
 31
0.0
  0
LINE
  5
5C7
330
5C3
100
AcDbEntity
  8
寸法
  6
CONTINUOUS
 62
     3
100
AcDbLine
 10
2507.999999821184
 20
1821.0
 30
0.0
 11
2764.999999999998
 21
1821.0
 31
0.0
  0
LINE
  5
5C8
330
5C3
100
AcDbEntity
  8
寸法
  6
CONTINUOUS
 62
     3
100
AcDbLine
 10
2749.999999999998
 20
1310.999996185303
 30
0.0
 11
2749.999999999998
 21
1776.000003814697
 31
0.0
  0
INSERT
  5
5C9
330
5C3
100
AcDbEntity
  8
寸法
 62
     3
100
AcDbBlockReference
  2
EX_NORM
 10
2749.999999999998
 20
1266.0
 30
0.0
 41
44.99999618530273
 42
44.99999618530273
 43
44.99999618530273
 50
270.0
  0
INSERT
  5
5CA
330
5C3
100
AcDbEntity
  8
寸法
 62
     3
100
AcDbBlockReference
  2
EX_NORM
 10
2749.999999999998
 20
1821.0
 30
0.0
 41
44.99999618530273
 42
44.99999618530273
 43
44.99999618530273
 50
90.0
  0
MTEXT
  5
5CB
330
5C3
100
AcDbEntity
  8
寸法
 62
     2
100
AcDbMText
 10
2714.750000089405
 20
1543.5
 30
0.0
 40
59.99999618530273
 41
0.0
 71
     5
 72
     1
  1
555（壁固定）
  7
EXCADDIM1
 11
0.0
 21
1.0
 31
0.0
  0
POINT
  5
5CC
330
5C3
100
AcDbEntity
  8
DEFPOINTS
 62
     0
100
AcDbPoint
 10
2464.999999999998
 20
1266.0
 30
0.0
  0
POINT
  5
5CD
330
5C3
100
AcDbEntity
  8
DEFPOINTS
 62
     0
100
AcDbPoint
 10
2497.499999999998
 20
1821.0
 30
0.0
  0
POINT
  5
5CE
330
5C3
100
AcDbEntity
  8
DEFPOINTS
 62
     0
100
AcDbPoint
 10
2749.999999999998
 20
1821.0
 30
0.0
  0
ENDBLK
  5
5C5
330
5C3
100
AcDbEntity
  8
0
100
AcDbBlockEnd
  0
BLOCK
  5
5D1
330
5D0
100
AcDbEntity
  8
0
100
AcDbBlockBegin
  2
*D24
 70
     1
 10
0.0
 20
0.0
 30
0.0
  3
*D24
  1

  0
LINE
  5
5D3
330
5D0
100
AcDbEntity
  8
寸法
  6
CONTINUOUS
 62
     3
100
AcDbLine
 10
2074.999999999996
 20
1259.000000178814
 30
0.0
 11
2074.999999999996
 21
951.0000000000001
 31
0.0
  0
LINE
  5
5D4
330
5D0
100
AcDbEntity
  8
寸法
  6
CONTINUOUS
 62
     3
100
AcDbLine
 10
2464.999999999998
 20
1255.500000178814
 30
0.0
 11
2464.999999999998
 21
951.0000000000001
 31
0.0
  0
LINE
  5
5D5
330
5D0
100
AcDbEntity
  8
寸法
  6
CONTINUOUS
 62
     3
100
AcDbLine
 10
2119.999996185299
 20
966.0000000000001
 30
0.0
 11
2420.000003814695
 21
966.0000000000001
 31
0.0
  0
INSERT
  5
5D6
330
5D0
100
AcDbEntity
  8
寸法
 62
     3
100
AcDbBlockReference
  2
EX_NORM
 10
2074.999999999996
 20
966.0000000000001
 30
0.0
 41
44.99999618530273
 42
44.99999618530273
 43
44.99999618530273
 50
180.0
  0
INSERT
  5
5D7
330
5D0
100
AcDbEntity
  8
寸法
 62
     3
100
AcDbBlockReference
  2
EX_NORM
 10
2464.999999999998
 20
966.0000000000001
 30
0.0
 41
44.99999618530273
 42
44.99999618530273
 43
44.99999618530273
  0
MTEXT
  5
5D8
330
5D0
100
AcDbEntity
  8
寸法
 62
     2
100
AcDbMText
 10
2269.999999999997
 20
1001.249999910593
 30
0.0
 40
59.99999618530273
 41
0.0
 71
     5
 72
     1
  1
390
  7
EXCADDIM1
  0
POINT
  5
5D9
330
5D0
100
AcDbEntity
  8
DEFPOINTS
 62
     0
100
AcDbPoint
 10
2074.999999999996
 20
1269.5
 30
0.0
  0
POINT
  5
5DA
330
5D0
100
AcDbEntity
  8
DEFPOINTS
 62
     0
100
AcDbPoint
 10
2464.999999999998
 20
1266.0
 30
0.0
  0
POINT
  5
5DB
330
5D0
100
AcDbEntity
  8
DEFPOINTS
 62
     0
100
AcDbPoint
 10
2464.999999999998
 20
966.0000000000001
 30
0.0
  0
ENDBLK
  5
5D2
330
5D0
100
AcDbEntity
  8
0
100
AcDbBlockEnd
  0
BLOCK
  5
5E0
330
5DF
100
AcDbEntity
  8
0
100
AcDbBlockBegin
  2
*D25
 70
     1
 10
0.0
 20
0.0
 30
0.0
  3
*D25
  1

  0
LINE
  5
5E2
330
5DF
100
AcDbEntity
  8
寸法
  6
CONTINUOUS
 62
     3
100
AcDbLine
 10
561.4999999999975
 20
1266.0
 30
0.0
 11
561.4999999999975
 21
951.0000000000001
 31
0.0
  0
LINE
  5
5E3
330
5DF
100
AcDbEntity
  8
寸法
  6
CONTINUOUS
 62
     3
100
AcDbLine
 10
606.4999961853002
 20
966.0000000000001
 30
0.0
 11
1233.50000381469
 21
966.0000000000001
 31
0.0
  0
INSERT
  5
5E4
330
5DF
100
AcDbEntity
  8
寸法
 62
     3
100
AcDbBlockReference
  2
EX_NORM
 10
561.4999999999975
 20
966.0000000000001
 30
0.0
 41
44.99999618530273
 42
44.99999618530273
 43
44.99999618530273
 50
180.0
  0
INSERT
  5
5E5
330
5DF
100
AcDbEntity
  8
寸法
 62
     3
100
AcDbBlockReference
  2
EX_NORM
 10
1278.499999999993
 20
966.0000000000001
 30
0.0
 41
44.99999618530273
 42
44.99999618530273
 43
44.99999618530273
  0
MTEXT
  5
5E6
330
5DF
100
AcDbEntity
  8
寸法
 62
     2
100
AcDbMText
 10
919.9999999999955
 20
1001.249999910593
 30
0.0
 40
59.99999618530273
 41
0.0
 71
     5
 72
     1
  1
717
  7
EXCADDIM1
  0
POINT
  5
5E7
330
5DF
100
AcDbEntity
  8
DEFPOINTS
 62
     0
100
AcDbPoint
 10
561.4999999999975
 20
1266.0
 30
0.0
  0
POINT
  5
5E8
330
5DF
100
AcDbEntity
  8
DEFPOINTS
 62
     0
100
AcDbPoint
 10
1278.499999999993
 20
1266.0
 30
0.0
  0
POINT
  5
5E9
330
5DF
100
AcDbEntity
  8
DEFPOINTS
 62
     0
100
AcDbPoint
 10
1278.499999999993
 20
966.0000000000001
 30
0.0
  0
ENDBLK
  5
5E1
330
5DF
100
AcDbEntity
  8
0
100
AcDbBlockEnd
  0
BLOCK
  5
5EC
330
5EB
100
AcDbEntity
  8
0
100
AcDbBlockBegin
  2
*D26
 70
     1
 10
0.0
 20
0.0
 30
0.0
  3
*D26
  1

  0
LINE
  5
5EE
330
5EB
100
AcDbEntity
  8
寸法
  6
CONTINUOUS
 62
     3
100
AcDbLine
 10
868.9999999999975
 20
2058.722387519186
 30
0.0
 11
868.9999999999975
 21
2214.0
 31
0.0
  0
LINE
  5
5EF
330
5EB
100
AcDbEntity
  8
寸法
  6
CONTINUOUS
 62
     3
100
AcDbLine
 10
970.9999999999966
 20
2068.222387519186
 30
0.0
 11
970.9999999999966
 21
2214.0
 31
0.0
  0
LINE
  5
5F0
330
5EB
100
AcDbEntity
  8
寸法
  6
CONTINUOUS
 62
     3
100
AcDbLine
 10
913.9999961853002
 20
2199.0
 30
0.0
 11
926.0000038146939
 21
2199.0
 31
0.0
  0
INSERT
  5
5F1
330
5EB
100
AcDbEntity
  8
寸法
 62
     3
100
AcDbBlockReference
  2
EX_NORM
 10
868.9999999999975
 20
2199.0
 30
0.0
 41
44.99999618530273
 42
44.99999618530273
 43
44.99999618530273
 50
180.0
  0
INSERT
  5
5F2
330
5EB
100
AcDbEntity
  8
寸法
 62
     3
100
AcDbBlockReference
  2
EX_NORM
 10
970.9999999999966
 20
2199.0
 30
0.0
 41
44.99999618530273
 42
44.99999618530273
 43
44.99999618530273
  0
MTEXT
  5
5F3
330
5EB
100
AcDbEntity
  8
寸法
 62
     2
100
AcDbMText
 10
919.9999999999972
 20
2241.149999910593
 30
0.0
 40
59.99999618530273
 41
0.0
 71
     5
 72
     1
  1
102
  7
EXCADDIM1
  0
POINT
  5
5F4
330
5EB
100
AcDbEntity
  8
DEFPOINTS
 62
     0
100
AcDbPoint
 10
868.9999999999975
 20
2048.222387698
 30
0.0
  0
POINT
  5
5F5
330
5EB
100
AcDbEntity
  8
DEFPOINTS
 62
     0
100
AcDbPoint
 10
970.9999999999966
 20
2057.722387698
 30
0.0
  0
POINT
  5
5F6
330
5EB
100
AcDbEntity
  8
DEFPOINTS
 62
     0
100
AcDbPoint
 10
970.9999999999966
 20
2199.0
 30
0.0
  0
ENDBLK
  5
5ED
330
5EB
100
AcDbEntity
  8
0
100
AcDbBlockEnd
  0
BLOCK
  5
5F9
330
5F8
100
AcDbEntity
  8
0
100
AcDbBlockBegin
  2
*D27
 70
     1
 10
0.0
 20
0.0
 30
0.0
  3
*D27
  1

  0
LINE
  5
5FB
330
5F8
100
AcDbEntity
  8
寸法
  6
CONTINUOUS
 62
     3
100
AcDbLine
 10
2385.0
 20
2061.499999821186
 30
0.0
 11
2385.0
 21
2214.0
 31
0.0
  0
LINE
  5
5FC
330
5F8
100
AcDbEntity
  8
寸法
  6
CONTINUOUS
 62
     3
100
AcDbLine
 10
2385.0
 20
2199.0
 30
0.0
 11
2464.999999999998
 21
2199.0
 31
0.0
  0
LINE
  5
5FD
330
5F8
100
AcDbEntity
  8
寸法
  6
CONTINUOUS
 62
     3
100
AcDbLine
 10
2340.000003814697
 20
2199.0
 30
0.0
 11
2295.000007629394
 21
2199.0
 31
0.0
  0
LINE
  5
5FE
330
5F8
100
AcDbEntity
  8
寸法
  6
CONTINUOUS
 62
     3
100
AcDbLine
 10
2509.9999961853
 20
2199.0
 30
0.0
 11
2554.999992370603
 21
2199.0
 31
0.0
  0
INSERT
  5
5FF
330
5F8
100
AcDbEntity
  8
寸法
 62
     3
100
AcDbBlockReference
  2
EX_NORM
 10
2385.0
 20
2199.0
 30
0.0
 41
44.99999618530273
 42
44.99999618530273
 43
44.99999618530273
  0
INSERT
  5
600
330
5F8
100
AcDbEntity
  8
寸法
 62
     3
100
AcDbBlockReference
  2
EX_NORM
 10
2464.999999999998
 20
2199.0
 30
0.0
 41
44.99999618530273
 42
44.99999618530273
 43
44.99999618530273
 50
180.0
  0
MTEXT
  5
601
330
5F8
100
AcDbEntity
  8
寸法
 62
     2
100
AcDbMText
 10
2287.5
 20
2234.249999910593
 30
0.0
 40
59.99999618530273
 41
0.0
 71
     5
 72
     1
  1
80
  7
EXCADDIM1
  0
POINT
  5
602
330
5F8
100
AcDbEntity
  8
DEFPOINTS
 62
     0
100
AcDbPoint
 10
2385.0
 20
2051.0
 30
0.0
  0
POINT
  5
603
330
5F8
100
AcDbEntity
  8
DEFPOINTS
 62
     0
100
AcDbPoint
 10
2464.999999999998
 20
2061.0
 30
0.0
  0
POINT
  5
604
330
5F8
100
AcDbEntity
  8
DEFPOINTS
 62
     0
100
AcDbPoint
 10
2464.999999999998
 20
2199.0
 30
0.0
  0
ENDBLK
  5
5FA
330
5F8
100
AcDbEntity
  8
0
100
AcDbBlockEnd
  0
BLOCK
  5
60C
330
60B
100
AcDbEntity
  8
0
100
AcDbBlockBegin
  2
*D28
 70
     1
 10
0.0
 20
0.0
 30
0.0
  3
*D28
  1

  0
LINE
  5
60E
330
60B
100
AcDbEntity
  8
寸法
  6
CONTINUOUS
 62
     3
100
AcDbLine
 10
2344.999999999998
 20
1225.500000178814
 30
0.0
 11
2344.999999999998
 21
1041.0
 31
0.0
  0
LINE
  5
60F
330
60B
100
AcDbEntity
  8
寸法
  6
CONTINUOUS
 62
     3
100
AcDbLine
 10
2389.9999961853
 20
1056.0
 30
0.0
 11
2420.000003814695
 21
1056.0
 31
0.0
  0
INSERT
  5
610
330
60B
100
AcDbEntity
  8
寸法
 62
     3
100
AcDbBlockReference
  2
EX_NORM
 10
2344.999999999998
 20
1056.0
 30
0.0
 41
44.99999618530273
 42
44.99999618530273
 43
44.99999618530273
 50
180.0
  0
INSERT
  5
611
330
60B
100
AcDbEntity
  8
寸法
 62
     3
100
AcDbBlockReference
  2
EX_NORM
 10
2464.999999999998
 20
1056.0
 30
0.0
 41
44.99999618530273
 42
44.99999618530273
 43
44.99999618530273
  0
MTEXT
  5
612
330
60B
100
AcDbEntity
  8
寸法
 62
     2
100
AcDbMText
 10
2707.999999374149
 20
1091.249999910593
 30
0.0
 40
59.99999618530273
 41
0.0
 71
     5
 72
     1
  1
120（床排水）
  7
EXCADDIM1
  0
POINT
  5
613
330
60B
100
AcDbEntity
  8
DEFPOINTS
 62
     0
100
AcDbPoint
 10
2344.999999999998
 20
1236.0
 30
0.0
  0
POINT
  5
614
330
60B
100
AcDbEntity
  8
DEFPOINTS
 62
     0
100
AcDbPoint
 10
2464.999999999998
 20
1266.0
 30
0.0
  0
POINT
  5
615
330
60B
100
AcDbEntity
  8
DEFPOINTS
 62
     0
100
AcDbPoint
 10
2464.999999999998
 20
1056.0
 30
0.0
  0
ENDBLK
  5
60D
330
60B
100
AcDbEntity
  8
0
100
AcDbBlockEnd
  0
BLOCK
  5
618
330
617
100
AcDbEntity
  8
0
100
AcDbBlockBegin
  2
*D29
 70
     1
 10
0.0
 20
0.0
 30
0.0
  3
*D29
  1

  0
LINE
  5
61A
330
617
100
AcDbEntity
  8
寸法
  6
CONTINUOUS
 62
     3
100
AcDbLine
 10
819.9999999999975
 20
1247.500000178814
 30
0.0
 11
819.9999999999975
 21
1041.0
 31
0.0
  0
LINE
  5
61B
330
617
100
AcDbEntity
  8
寸法
  6
CONTINUOUS
 62
     3
100
AcDbLine
 10
1019.999999999997
 20
1247.500000178814
 30
0.0
 11
1019.999999999997
 21
1041.0
 31
0.0
  0
LINE
  5
61C
330
617
100
AcDbEntity
  8
寸法
  6
CONTINUOUS
 62
     3
100
AcDbLine
 10
864.9999961853002
 20
1056.0
 30
0.0
 11
975.0000038146939
 21
1056.0
 31
0.0
  0
INSERT
  5
61D
330
617
100
AcDbEntity
  8
寸法
 62
     3
100
AcDbBlockReference
  2
EX_NORM
 10
819.9999999999975
 20
1056.0
 30
0.0
 41
44.99999618530273
 42
44.99999618530273
 43
44.99999618530273
 50
180.0
  0
INSERT
  5
61E
330
617
100
AcDbEntity
  8
寸法
 62
     3
100
AcDbBlockReference
  2
EX_NORM
 10
1019.999999999997
 20
1056.0
 30
0.0
 41
44.99999618530273
 42
44.99999618530273
 43
44.99999618530273
  0
MTEXT
  5
61F
330
617
100
AcDbEntity
  8
寸法
 62
     2
100
AcDbMText
 10
1262.999999374148
 20
1091.249999910593
 30
0.0
 40
59.99999618530273
 41
0.0
 71
     5
 72
     1
  1
200（床給水）
  7
EXCADDIM1
  0
POINT
  5
620
330
617
100
AcDbEntity
  8
DEFPOINTS
 62
     0
100
AcDbPoint
 10
819.9999999999975
 20
1258.0
 30
0.0
  0
POINT
  5
621
330
617
100
AcDbEntity
  8
DEFPOINTS
 62
     0
100
AcDbPoint
 10
1019.999999999997
 20
1258.0
 30
0.0
  0
POINT
  5
622
330
617
100
AcDbEntity
  8
DEFPOINTS
 62
     0
100
AcDbPoint
 10
1019.999999999997
 20
1056.0
 30
0.0
  0
ENDBLK
  5
619
330
617
100
AcDbEntity
  8
0
100
AcDbBlockEnd
  0
BLOCK
  5
627
330
626
100
AcDbEntity
  8
0
100
AcDbBlockBegin
  2
*D30
 70
     1
 10
0.0
 20
0.0
 30
0.0
  3
*D30
  1

  0
LINE
  5
629
330
626
100
AcDbEntity
  8
寸法
  6
CONTINUOUS
 62
     3
100
AcDbLine
 10
819.9999999999975
 20
3593.999999821186
 30
0.0
 11
819.9999999999975
 21
3695.5
 31
0.0
  0
LINE
  5
62A
330
626
100
AcDbEntity
  8
寸法
  6
CONTINUOUS
 62
     3
100
AcDbLine
 10
1019.999999999997
 20
3593.999999821186
 30
0.0
 11
1019.999999999997
 21
3695.5
 31
0.0
  0
LINE
  5
62B
330
626
100
AcDbEntity
  8
寸法
  6
CONTINUOUS
 62
     3
100
AcDbLine
 10
864.9999961853002
 20
3680.5
 30
0.0
 11
975.0000038146939
 21
3680.5
 31
0.0
  0
INSERT
  5
62C
330
626
100
AcDbEntity
  8
寸法
 62
     3
100
AcDbBlockReference
  2
EX_NORM
 10
819.9999999999975
 20
3680.5
 30
0.0
 41
44.99999618530273
 42
44.99999618530273
 43
44.99999618530273
 50
180.0
  0
INSERT
  5
62D
330
626
100
AcDbEntity
  8
寸法
 62
     3
100
AcDbBlockReference
  2
EX_NORM
 10
1019.999999999997
 20
3680.5
 30
0.0
 41
44.99999618530273
 42
44.99999618530273
 43
44.99999618530273
  0
MTEXT
  5
62E
330
626
100
AcDbEntity
  8
寸法
 62
     2
100
AcDbMText
 10
1262.999999374148
 20
3715.749999910593
 30
0.0
 40
59.99999618530273
 41
0.0
 71
     5
 72
     1
  1
200（壁給水）
  7
EXCADDIM1
  0
POINT
  5
62F
330
626
100
AcDbEntity
  8
DEFPOINTS
 62
     0
100
AcDbPoint
 10
819.9999999999975
 20
3583.5
 30
0.0
  0
POINT
  5
630
330
626
100
AcDbEntity
  8
DEFPOINTS
 62
     0
100
AcDbPoint
 10
1019.999999999997
 20
3583.5
 30
0.0
  0
POINT
  5
631
330
626
100
AcDbEntity
  8
DEFPOINTS
 62
     0
100
AcDbPoint
 10
1019.999999999997
 20
3680.5
 30
0.0
  0
ENDBLK
  5
628
330
626
100
AcDbEntity
  8
0
100
AcDbBlockEnd
  0
ENDSEC
  0
SECTION
  2
ENTITIES
  0
ARC
  5
A9
330
1F
100
AcDbEntity
  8
0
  6
CONTINUOUS
 62
     3
100
AcDbCircle
 10
1251.918178729219
 20
266.3416518404074
 30
0.0
 40
26.50025272990596
100
AcDbArc
 50
88.77000393305703
 51
128.9068631829044
  0
ARC
  5
AA
330
1F
100
AcDbEntity
  8
0
  6
CONTINUOUS
 62
     3
100
AcDbCircle
 10
1253.121321000809
 20
277.4453023973719
 30
0.0
 40
15.40356112671885
100
AcDbArc
 50
4.148222840814693
 51
92.36000944257292
  0
ARC
  5
AB
330
1F
100
AcDbEntity
  8
0
  6
CONTINUOUS
 62
     3
100
AcDbCircle
 10
1948.490583868455
 20
257.8151350911342
 30
0.0
 40
680.3223983798493
100
AcDbArc
 50
178.2526643324597
 51
180.6439560401927
  0
ARC
  5
AC
330
1F
100
AcDbEntity
  8
0
  6
CONTINUOUS
 62
     3
100
AcDbCircle
 10
1272.788978527296
 20
250.1619978184461
 30
0.0
 40
4.577830246610835
100
AcDbArc
 50
179.9117548191414
 51
236.1065985968857
  0
ARC
  5
AD
330
1F
100
AcDbEntity
  8
0
  6
CONTINUOUS
 62
     3
100
AcDbCircle
 10
1272.251691879084
 20
250.4257368125382
 30
0.0
 40
4.5360728870472
100
AcDbArc
 50
243.6191685566582
 51
297.5097757939563
  0
LINE
  5
AE
330
1F
100
AcDbEntity
  8
0
  6
CONTINUOUS
 62
     3
100
AcDbLine
 10
1274.346903710265
 20
244.0434234476856
 30
0.0
 11
1274.346903710265
 21
246.4025484476856
 31
0.0
  0
LINE
  5
AF
330
1F
100
AcDbEntity
  8
0
  6
CONTINUOUS
 62
     3
100
AcDbLine
 10
1266.378528710266
 20
243.0612984476856
 30
0.0
 11
1269.638778710265
 21
243.0612984476856
 31
0.0
  0
ARC
  5
B0
330
1F
100
AcDbEntity
  8
0
  6
CONTINUOUS
 62
     3
100
AcDbCircle
 10
1269.364763902229
 20
255.8862354248292
 30
0.0
 40
12.84810930031341
100
AcDbArc
 50
271.2220539293239
 51
292.8159509797653
  0
ARC
  5
B1
330
1F
100
AcDbEntity
  8
0
  6
CONTINUOUS
 62
     3
100
AcDbCircle
 10
1266.95604037261
 20
249.4216769806695
 30
0.0
 40
6.38654325930597
100
AcDbArc
 50
217.4081478714985
 51
264.8118660441384
  0
ARC
  5
B2
330
1F
100
AcDbEntity
  8
0
  6
CONTINUOUS
 62
     3
100
AcDbCircle
 10
1267.762714194137
 20
249.8904476412341
 30
0.0
 40
7.31302701014583
100
AcDbArc
 50
187.1167640402297
 51
216.4860549324747
  0
ARC
  5
B3
330
1F
100
AcDbEntity
  8
0
  6
CONTINUOUS
 62
     3
100
AcDbCircle
 10
1245.007336990441
 20
262.3466624398985
 30
0.0
 40
20.46359880155898
100
AcDbArc
 50
275.2158792069686
 51
319.2336424873511
  0
LINE
  5
B4
330
1F
100
AcDbEntity
  8
0
  6
CONTINUOUS
 62
     3
100
AcDbLine
 10
1242.756903710265
 20
241.9677984476857
 30
0.0
 11
1246.867653710266
 21
241.9677984476857
 31
0.0
  0
ARC
  5
B5
330
1F
100
AcDbEntity
  8
0
  6
CONTINUOUS
 62
     3
100
AcDbCircle
 10
1242.954599720904
 20
251.461082659486
 30
0.0
 40
9.49534248137679
100
AcDbArc
 50
252.3384873625213
 51
268.8069976857606
  0
ARC
  5
B6
330
1F
100
AcDbEntity
  8
0
  6
CONTINUOUS
 62
     3
100
AcDbCircle
 10
1243.199823065923
 20
254.6332242172641
 30
0.0
 40
12.61343486634549
100
AcDbArc
 50
224.289750990011
 51
255.6505938786759
  0
ARC
  5
B7
330
1F
100
AcDbEntity
  8
0
  6
CONTINUOUS
 62
     3
100
AcDbCircle
 10
1242.652680047715
 20
254.0188117373038
 30
0.0
 40
11.79288520689435
100
AcDbArc
 50
185.9586126338419
 51
224.0091989319859
  0
ARC
  5
B8
330
1F
100
AcDbEntity
  8
0
  6
CONTINUOUS
 62
     3
100
AcDbCircle
 10
1243.876632895889
 20
254.5803653835365
 30
0.0
 40
13.07564058883004
100
AcDbArc
 50
164.8589457925044
 51
187.8495628504518
  0
ARC
  5
B9
330
1F
100
AcDbEntity
  8
0
  6
CONTINUOUS
 62
     3
100
AcDbCircle
 10
1241.611236964913
 20
255.8715083764949
 30
0.0
 40
10.57193055836883
100
AcDbArc
 50
129.8344892359069
 51
168.4089447024628
  0
ARC
  5
BA
330
1F
100
AcDbEntity
  8
0
  6
CONTINUOUS
 62
     3
100
AcDbCircle
 10
1247.160900911758
 20
248.8578307238052
 30
0.0
 40
19.5140492547738
100
AcDbArc
 50
102.0988446293839
 51
129.1556705448828
  0
ARC
  5
BB
330
1F
100
AcDbEntity
  8
0
  6
CONTINUOUS
 62
     3
100
AcDbCircle
 10
1213.794895108258
 20
456.0968629676563
 30
0.0
 40
190.4223614055573
100
AcDbArc
 50
278.8438342053764
 51
282.6649181367123
  0
ARC
  5
BC
330
1F
100
AcDbEntity
  8
0
  6
CONTINUOUS
 62
     3
100
AcDbCircle
 10
1252.030337627024
 20
285.8776629046869
 30
0.0
 40
15.96170002909176
100
AcDbArc
 50
282.7195832898965
 51
295.6781112778079
  0
ARC
  5
BD
330
1F
100
AcDbEntity
  8
0
  6
CONTINUOUS
 62
     3
100
AcDbCircle
 10
1258.000023461391
 20
273.8932583770178
 30
0.0
 40
2.580882423421965
100
AcDbArc
 50
291.5204897073511
 51
349.3445900274031
  0
ARC
  5
BE
330
1F
100
AcDbEntity
  8
0
  6
CONTINUOUS
 62
     3
100
AcDbCircle
 10
1241.023461145375
 20
275.8010390576434
 30
0.0
 40
19.65815626528382
100
AcDbArc
 50
353.0315250986587
 51
7.839947970678348
  0
ARC
  5
BF
330
1F
100
AcDbEntity
  8
0
  6
CONTINUOUS
 62
     3
100
AcDbCircle
 10
1249.907892033043
 20
277.8278414243877
 30
0.0
 40
10.61019807939003
100
AcDbArc
 50
3.537639967999379
 51
74.8013566619203
  0
ARC
  5
C0
330
1F
100
AcDbEntity
  8
0
  6
CONTINUOUS
 62
     3
100
AcDbCircle
 10
1249.235244480137
 20
272.8241330783277
 30
0.0
 40
15.62929101996345
100
AcDbArc
 50
77.23143261361693
 51
105.203415964315
  0
ARC
  5
C1
330
1F
100
AcDbEntity
  8
0
  6
CONTINUOUS
 62
     3
100
AcDbCircle
 10
1248.253422765838
 20
274.8500872800573
 30
0.0
 40
13.42321657765079
100
AcDbArc
 50
103.4267945469744
 51
150.3242613737993
  0
LINE
  5
C2
330
1F
100
AcDbEntity
  8
0
  6
CONTINUOUS
 62
     3
100
AcDbLine
 10
1235.274528710266
 20
286.9632984476857
 30
0.0
 11
1235.274528710266
 21
281.4957984476857
 31
0.0
  0
ARC
  5
C3
330
1F
100
AcDbEntity
  8
0
  6
CONTINUOUS
 62
     3
100
AcDbCircle
 10
1092.731314894452
 20
250.0179727897931
 30
0.0
 40
104.505225747009
100
AcDbArc
 50
353.1274757312911
 51
357.106204490141
  0
ARC
  5
C4
330
1F
100
AcDbEntity
  8
0
  6
CONTINUOUS
 62
     3
100
AcDbCircle
 10
455.5232082947873
 20
285.6961588772005
 30
0.0
 40
742.7100645598513
100
AcDbArc
 50
356.8390243485978
 51
2.971133813187157
  0
ARC
  5
C5
330
1F
100
AcDbEntity
  8
0
  6
CONTINUOUS
 62
     3
100
AcDbCircle
 10
1185.654488084794
 20
240.4276862723119
 30
0.0
 40
11.2165377829595
100
AcDbArc
 50
314.592391474832
 51
344.9374073189123
  0
ARC
  5
C6
330
1F
100
AcDbEntity
  8
0
  6
CONTINUOUS
 62
     3
100
AcDbCircle
 10
1182.267473563207
 20
246.9305374182733
 30
0.0
 40
18.35200500585038
100
AcDbArc
 50
288.1715191042997
 51
307.8537826235693
  0
LINE
  5
C7
330
1F
100
AcDbEntity
  8
0
  6
CONTINUOUS
 62
     3
100
AcDbLine
 10
1189.843653710265
 20
223.8541734476857
 30
0.0
 11
1187.990778710265
 21
229.4937984476856
 31
0.0
  0
ARC
  5
C8
330
1F
100
AcDbEntity
  8
0
  6
CONTINUOUS
 62
     3
100
AcDbCircle
 10
1185.658742590388
 20
257.5000314386829
 30
0.0
 40
33.90512116232043
100
AcDbArc
 50
277.0901027239701
 51
290.9134154817058
  0
ARC
  5
C9
330
1F
100
AcDbEntity
  8
0
  6
CONTINUOUS
 62
     3
100
AcDbCircle
 10
1190.599979293212
 20
250.3240862953996
 30
0.0
 40
25.52092032294173
100
AcDbArc
 50
286.2966123578915
 51
329.973223283839
  0
ARC
  5
CA
330
1F
100
AcDbEntity
  8
0
  6
CONTINUOUS
 62
     3
100
AcDbCircle
 10
1181.750284378983
 20
251.861262033389
 30
0.0
 40
34.09312894671467
100
AcDbArc
 50
335.1860595856123
 51
1.308075913059364
  0
ARC
  5
CB
330
1F
100
AcDbEntity
  8
0
  6
CONTINUOUS
 62
     3
100
AcDbCircle
 10
2189.829177230542
 20
277.8606126440017
 30
0.0
 40
974.3211367025408
100
AcDbArc
 50
177.2695926307304
 51
181.4833117237826
  0
ARC
  5
CC
330
1F
100
AcDbEntity
  8
0
  6
CONTINUOUS
 62
     3
100
AcDbCircle
 10
1206.651610128731
 20
389.5291940797084
 30
0.0
 40
66.01138250235698
100
AcDbArc
 50
261.7986203004403
 51
278.6803384946418
  0
ARC
  5
CD
330
1F
100
AcDbEntity
  8
0
  6
CONTINUOUS
 62
     3
100
AcDbCircle
 10
1243.42379501345
 20
328.0417656754508
 30
0.0
 40
62.04610222041025
100
AcDbArc
 50
278.4088456599976
 51
286.1851416003176
  0
ARC
  5
CE
330
1F
100
AcDbEntity
  8
0
  6
CONTINUOUS
 62
     3
100
AcDbCircle
 10
1256.864477874046
 20
238.1643879015715
 30
0.0
 40
28.83098679232812
100
AcDbArc
 50
98.71271710191789
 51
115.2874718053599
  0
ARC
  5
CF
330
1F
100
AcDbEntity
  8
0
  6
CONTINUOUS
 62
     3
100
AcDbCircle
 10
1248.620660136066
 20
255.787680358452
 30
0.0
 40
9.375291501855795
100
AcDbArc
 50
115.7403688633493
 51
172.5491744442191
  0
LINE
  5
D0
330
1F
100
AcDbEntity
  8
0
  6
CONTINUOUS
 62
     3
100
AcDbLine
 10
1239.324528710265
 20
257.0034234476857
 30
0.0
 11
1239.324528710265
 21
254.0671734476856
 31
0.0
  0
ARC
  5
D1
330
1F
100
AcDbEntity
  8
0
  6
CONTINUOUS
 62
     3
100
AcDbCircle
 10
1248.059328133701
 20
254.5357655160422
 30
0.0
 40
8.747359572704955
100
AcDbArc
 50
183.0707787095794
 51
263.4402016072427
  0
LINE
  5
D2
330
1F
100
AcDbEntity
  8
0
  6
CONTINUOUS
 62
     3
100
AcDbLine
 10
1247.060028710265
 20
245.8456734476857
 30
0.0
 11
1249.662153710266
 21
245.8456734476857
 31
0.0
  0
ARC
  5
D3
330
1F
100
AcDbEntity
  8
0
  6
CONTINUOUS
 62
     3
100
AcDbCircle
 10
1247.502083725278
 20
260.592031930906
 30
0.0
 40
14.90372405996874
100
AcDbArc
 50
278.3335103000368
 51
329.1221464187299
  0
ARC
  5
D4
330
1F
100
AcDbEntity
  8
0
  6
CONTINUOUS
 62
     3
100
AcDbCircle
 10
-33673.00775315563
 20
1218.406345339549
 30
0.0
 40
34946.64001890887
100
AcDbArc
 50
358.4169008257799
 51
358.4423418242109
  0
ARC
  5
D5
330
1F
100
AcDbEntity
  8
0
  6
CONTINUOUS
 62
     3
100
AcDbCircle
 10
1289.886697120787
 20
183.6769466781311
 30
0.0
 40
59.53363641627745
100
AcDbArc
 50
85.07099551674689
 51
93.91830029343228
  0
ARC
  5
D6
330
1F
100
AcDbEntity
  8
0
  6
CONTINUOUS
 62
     3
100
AcDbCircle
 10
1405.128666953046
 20
256.2890805528466
 30
0.0
 40
110.9268148967239
100
AcDbArc
 50
179.8977458165987
 51
186.8855675734268
  0
ARC
  5
D7
330
1F
100
AcDbEntity
  8
0
  6
CONTINUOUS
 62
     3
100
AcDbCircle
 10
1310.86463846535
 20
273.0358422720834
 30
0.0
 40
16.62598434477196
100
AcDbArc
 50
134.9787476233347
 51
181.2369872983282
  0
ARC
  5
D8
330
1F
100
AcDbEntity
  8
0
  6
CONTINUOUS
 62
     3
100
AcDbCircle
 10
1307.03040189122
 20
274.7714994721782
 30
0.0
 40
12.77467585570504
100
AcDbArc
 50
42.91644474042847
 51
128.3015542351336
  0
ARC
  5
D9
330
1F
100
AcDbEntity
  8
0
  6
CONTINUOUS
 62
     3
100
AcDbCircle
 10
1302.432490795669
 20
274.4638293246076
 30
0.0
 40
16.60758761616231
100
AcDbArc
 50
359.2495022237244
 51
32.84055016678327
  0
ARC
  5
DA
330
1F
100
AcDbEntity
  8
0
  6
CONTINUOUS
 62
     3
100
AcDbCircle
 10
1071.691386907851
 20
262.0792591837441
 30
0.0
 40
247.6463350002882
100
AcDbArc
 50
355.5862454873798
 51
2.816115806820253
  0
ARC
  5
DB
330
1F
100
AcDbEntity
  8
0
  6
CONTINUOUS
 62
     3
100
AcDbCircle
 10
1322.881091210266
 20
195.8188477897915
 30
0.0
 40
47.39539878190116
100
AcDbArc
 50
84.82155189294139
 51
95.17844810705873
  0
ARC
  5
DC
330
1F
100
AcDbEntity
  8
0
  6
CONTINUOUS
 62
     3
100
AcDbCircle
 10
1572.001830602937
 20
254.7766647122448
 30
0.0
 40
245.1249869780733
100
AcDbArc
 50
176.2131780319488
 51
182.7488833337936
  0
ARC
  5
DD
330
1F
100
AcDbEntity
  8
0
  6
CONTINUOUS
 62
     3
100
AcDbCircle
 10
1235.302420291899
 20
273.4139247231959
 30
0.0
 40
92.14213631800438
100
AcDbArc
 50
358.4775281223095
 51
2.117232414210064
  0
ARC
  5
DE
330
1F
100
AcDbEntity
  8
0
  6
CONTINUOUS
 62
     3
100
AcDbCircle
 10
1309.701207412114
 20
276.8594498691033
 30
0.0
 40
17.68049477190885
100
AcDbArc
 50
359.8658335690532
 51
34.49363429411157
  0
ARC
  5
DF
330
1F
100
AcDbEntity
  8
0
  6
CONTINUOUS
 62
     3
100
AcDbCircle
 10
1312.673988722455
 20
278.7972582210738
 30
0.0
 40
14.1332156333331
100
AcDbArc
 50
34.84393737091607
 51
92.5207065423111
  0
ARC
  5
E0
330
1F
100
AcDbEntity
  8
0
  6
CONTINUOUS
 62
     3
100
AcDbCircle
 10
1311.146540460773
 20
272.807956824165
 30
0.0
 40
20.1292349498589
100
AcDbArc
 50
87.42068310381028
 51
147.4361518966862
  0
ARC
  5
E1
330
1F
100
AcDbEntity
  8
0
  6
CONTINUOUS
 62
     3
100
AcDbCircle
 10
1350.601589219815
 20
285.0344107088326
 30
0.0
 40
56.43698250687272
100
AcDbArc
 50
172.9875214416311
 51
181.4134392789641
  0
ARC
  5
E2
330
1F
100
AcDbEntity
  8
0
  6
CONTINUOUS
 62
     3
100
AcDbCircle
 10
1290.077807589576
 20
309.2475904735476
 30
0.0
 40
17.90024037819024
100
AcDbArc
 50
255.9341994177206
 51
284.5896440601899
  0
ARC
  5
E3
330
1F
100
AcDbEntity
  8
0
  6
CONTINUOUS
 62
     3
100
AcDbCircle
 10
980.1919284111294
 20
266.9072673021367
 30
0.0
 40
306.5546709196609
100
AcDbArc
 50
355.5405243117485
 51
4.673398698656258
  0
LINE
  5
E4
330
1F
100
AcDbEntity
  8
0
  6
CONTINUOUS
 62
     3
100
AcDbLine
 10
1294.242528710265
 20
272.6769234476857
 30
0.0
 11
1294.242528710265
 21
256.4870484476856
 31
0.0
  0
CIRCLE
  5
E5
330
1F
100
AcDbEntity
  8
0
  6
CONTINUOUS
 62
     3
100
AcDbCircle
 10
1349.443651167893
 20
309.7918785324314
 30
0.0
 40
5.358501700154835
  0
ARC
  5
E6
330
1F
100
AcDbEntity
  8
0
  6
CONTINUOUS
 62
     3
100
AcDbCircle
 10
1349.233791514549
 20
311.2164296550864
 30
0.0
 40
19.7884282326031
100
AcDbArc
 50
256.6209501743446
 51
283.9984576255729
  0
ARC
  5
E7
330
1F
100
AcDbEntity
  8
0
  6
CONTINUOUS
 62
     3
100
AcDbCircle
 10
1349.63699351609
 20
145.1136212632245
 30
0.0
 40
97.99289227876633
100
AcDbArc
 50
87.46575055044718
 51
92.90832285102188
  0
ARC
  5
E8
330
1F
100
AcDbEntity
  8
0
  6
CONTINUOUS
 62
     3
100
AcDbCircle
 10
1658.396450879725
 20
267.1987093622831
 30
0.0
 40
305.38595858835
100
AcDbArc
 50
175.3387608397566
 51
184.5428594926176
  0
ARC
  5
E9
330
1F
100
AcDbEntity
  8
0
  6
CONTINUOUS
 62
     3
100
AcDbCircle
 10
1012.55046641497
 20
267.4040274163103
 30
0.0
 40
333.0114127553719
100
AcDbArc
 50
355.7940354718673
 51
4.229650257234378
  0
ARC
  5
EA
330
1F
100
AcDbEntity
  8
0
  6
CONTINUOUS
 62
     3
100
AcDbCircle
 10
1867.482059959612
 20
1507.461173446005
 30
0.0
 40
1305.420034344473
100
AcDbArc
 50
248.6422112053103
 51
248.8567777804232
  0
ARC
  5
EB
330
1F
100
AcDbEntity
  8
0
  6
CONTINUOUS
 62
     3
100
AcDbCircle
 10
1386.296804379475
 20
277.6660142559677
 30
0.0
 40
15.16361801388235
100
AcDbArc
 50
67.66151957087348
 51
88.69073168448988
  0
ARC
  5
EC
330
1F
100
AcDbEntity
  8
0
  6
CONTINUOUS
 62
     3
100
AcDbCircle
 10
1384.672036752976
 20
273.0634231920161
 30
0.0
 40
19.79962298051288
100
AcDbArc
 50
92.38301574576484
 51
114.9635286746436
  0
ARC
  5
ED
330
1F
100
AcDbEntity
  8
0
  6
CONTINUOUS
 62
     3
100
AcDbCircle
 10
1383.209904630332
 20
277.7179521666546
 30
0.0
 40
14.97648840463785
100
AcDbArc
 50
117.4083995939977
 51
176.1964688215695
  0
ARC
  5
EE
330
1F
100
AcDbEntity
  8
0
  6
CONTINUOUS
 62
     3
100
AcDbCircle
 10
1378.35526879929
 20
276.2454738627039
 30
0.0
 40
10.04058908858416
100
AcDbArc
 50
181.2393899443581
 51
226.5942921332421
  0
ARC
  5
EF
330
1F
100
AcDbEntity
  8
0
  6
CONTINUOUS
 62
     3
100
AcDbCircle
 10
1384.305601980315
 20
282.2760201523774
 30
0.0
 40
18.51151426169351
100
AcDbArc
 50
226.0402388947521
 51
253.1776672992999
  0
ARC
  5
F0
330
1F
100
AcDbEntity
  8
0
  6
CONTINUOUS
 62
     3
100
AcDbCircle
 10
1368.772613884955
 20
221.8351297646559
 30
0.0
 40
43.91667620959131
100
AcDbArc
 50
63.49050203733571
 51
76.60259219849584
  0
ARC
  5
F1
330
1F
100
AcDbEntity
  8
0
  6
CONTINUOUS
 62
     3
100
AcDbCircle
 10
1385.47738698844
 20
254.8934923163495
 30
0.0
 40
6.88065228328521
100
AcDbArc
 50
6.53892419415897
 51
65.09756080693691
  0
ARC
  5
F2
330
1F
100
AcDbEntity
  8
0
  6
CONTINUOUS
 62
     3
100
AcDbCircle
 10
1383.569046727367
 20
254.4669130649494
 30
0.0
 40
8.91593237815014
100
AcDbArc
 50
270.8867385422408
 51
352.7925382056677
  0
ARC
  5
F3
330
1F
100
AcDbEntity
  8
0
  6
CONTINUOUS
 62
     3
100
AcDbCircle
 10
1382.969536595619
 20
258.9153544679818
 30
0.0
 40
13.47006053193791
100
AcDbArc
 50
207.7689879465537
 51
262.7817283832026
  0
ARC
  5
F4
330
1F
100
AcDbEntity
  8
0
  6
CONTINUOUS
 62
     3
100
AcDbCircle
 10
1380.204888299306
 20
268.1400450230287
 30
0.0
 40
26.2991447367003
100
AcDbArc
 50
241.8829576087176
 51
265.9354096935781
  0
ARC
  5
F5
330
1F
100
AcDbEntity
  8
0
  6
CONTINUOUS
 62
     3
100
AcDbCircle
 10
1382.714963080524
 20
258.9204285690817
 30
0.0
 40
17.01772587270968
100
AcDbArc
 50
271.2948770866743
 51
348.6654156292868
  0
ARC
  5
F6
330
1F
100
AcDbEntity
  8
0
  6
CONTINUOUS
 62
     3
100
AcDbCircle
 10
1388.322238304183
 20
258.699147281111
 30
0.0
 40
11.19367613594409
100
AcDbArc
 50
6.154262763177246
 51
76.17509904255616
  0
ARC
  5
F7
330
1F
100
AcDbEntity
  8
0
  6
CONTINUOUS
 62
     3
100
AcDbCircle
 10
1409.823080564199
 20
347.8204550769011
 30
0.0
 40
80.4846638777502
100
AcDbArc
 50
249.6420733479936
 51
256.4727051201885
  0
ARC
  5
F8
330
1F
100
AcDbEntity
  8
0
  6
CONTINUOUS
 62
     3
100
AcDbCircle
 10
1385.123582968507
 20
282.3873547663667
 30
0.0
 40
10.55345561005776
100
AcDbArc
 50
210.9501336849607
 51
251.7794729821079
  0
ARC
  5
F9
330
1F
100
AcDbEntity
  8
0
  6
CONTINUOUS
 62
     3
100
AcDbCircle
 10
1395.970091210284
 20
283.9900359476913
 30
0.0
 40
21.102779059401
100
AcDbArc
 50
193.4375782160214
 51
199.459638038058
  0
ARC
  5
FA
330
1F
100
AcDbEntity
  8
0
  6
CONTINUOUS
 62
     3
100
AcDbCircle
 10
1383.56802483947
 20
280.8178077075626
 30
0.0
 40
8.034208966558964
100
AcDbArc
 50
92.11404364449162
 51
173.4175047026091
  0
ARC
  5
FB
330
1F
100
AcDbEntity
  8
0
  6
CONTINUOUS
 62
     3
100
AcDbCircle
 10
1384.137480979516
 20
279.7309439451248
 30
0.0
 40
9.188796451533795
100
AcDbArc
 50
17.92452211681263
 51
85.16543319077402
  0
LINE
  5
FC
330
1F
100
AcDbEntity
  8
0
  6
CONTINUOUS
 62
     3
100
AcDbLine
 10
1386.643278710266
 20
292.8256734476856
 30
0.0
 11
1383.848778710266
 21
292.8256734476856
 31
0.0
  0
LINE
  5
FD
330
1F
100
AcDbEntity
  8
0
  6
CONTINUOUS
 62
     3
100
AcDbLine
 10
1381.277028710265
 20
245.5520484476856
 30
0.0
 11
1383.707028710266
 21
245.5520484476856
 31
0.0
  0
LINE
  5
FE
330
1F
100
AcDbEntity
  8
0
  6
CONTINUOUS
 62
     3
100
AcDbLine
 10
1371.050778710266
 20
252.6395484476857
 30
0.0
 11
1369.734528710265
 21
252.6395484476857
 31
0.0
  0
LINE
  5
FF
330
1F
100
AcDbEntity
  8
0
  6
CONTINUOUS
 62
     3
100
AcDbLine
 10
1378.340778710266
 20
241.9070484476856
 30
0.0
 11
1383.099528710265
 21
241.9070484476856
 31
0.0
  0
HATCH
  5
100
330
1F
100
AcDbEntity
  8
0
  6
CONTINUOUS
 62
     3
100
AcDbHatch
 10
0.0
 20
0.0
 30
0.0
210
0.0
220
0.0
230
1.0
  2
SOLID
 70
     1
 71
     1
 91
        1
 92
        3
 72
     1
 73
     1
 93
       10
 10
1197.103278710266
 20
244.7420484476857
 42
-0.017362223501556
 10
1197.234903710265
 20
324.1929234476859
 42
-0.0267627618865285
 10
1197.234903710265
 20
324.1929234476858
 42
0.0737939047395297
 10
1216.614153710265
 20
324.2739234476848
 42
0.0183878899657109
 10
1215.834528710266
 20
252.6395484476856
 42
-0.1144749489451909
 10
1212.695778710265
 20
237.5532984476857
 42
-0.1929163439413163
 10
1197.761403710266
 20
225.8285484476857
 42
-0.0603888289562337
 10
1189.843653710265
 20
223.8541734476857
 42
0.0
 10
1187.990778710265
 20
229.4937984476856
 42
0.0860918333465722
 10
1193.529153710266
 20
232.4401734476856
 42
0.1331843103855141
 97
        0
 75
     0
 76
     1
 98
        1
 10
0.0
 20
0.0
  0
HATCH
  5
101
330
1F
100
AcDbEntity
  8
0
  6
CONTINUOUS
 62
     3
100
AcDbHatch
 10
0.0
 20
0.0
 30
0.0
210
0.0
220
0.0
230
1.0
  2
SOLID
 70
     1
 71
     1
 91
        1
 92
        3
 72
     1
 73
     1
 93
       16
 10
1285.818528710265
 20
243.0714234476856
 42
-0.0386228372648426
 10
1285.727403710265
 20
291.8840484476858
 42
-0.0398707891902887
 10
1294.586778710265
 20
291.9245484476857
 42
-0.1256886216044368
 10
1294.181778710265
 20
283.6422984476858
 42
-0.0367815758121429
 10
1294.181778710266
 20
283.6422984476857
 42
-0.268021535028829
 10
1312.052403710266
 20
292.9167984476858
 42
-0.2571134422124888
 10
1324.273278710265
 20
286.8721734476858
 42
-0.1522526366014298
 10
1327.381653710266
 20
276.8180484476857
 42
-0.0158825412051521
 10
1327.158903710265
 20
243.0207984476858
 42
-0.0285251271418421
 10
1318.603278710266
 20
243.0207984476857
 42
-0.0452212723224612
 10
1319.038653710265
 20
274.2462984476857
 42
-0.0315567291532142
 10
1316.385903710265
 20
283.4701734476856
 42
-0.1476272403790709
 10
1299.112653710265
 20
284.7965484476857
 42
-0.3908144705745794
 10
1294.242528710265
 20
272.6769234476857
 42
-0.2046259928850854
 10
1294.242528710265
 20
272.6769234476857
 42
0.0
 10
1295.001903710266
 20
242.9904234476857
 42
-0.0304995761723369
 97
        0
 75
     0
 76
     1
 98
        1
 10
0.0
 20
0.0
  0
HATCH
  5
102
330
1F
100
AcDbEntity
  8
0
  6
CONTINUOUS
 62
     3
100
AcDbHatch
 10
0.0
 20
0.0
 30
0.0
210
0.0
220
0.0
230
1.0
  2
SOLID
 70
     1
 71
     1
 91
        2
 92
        1
 93
        1
 72
     2
 10
1349.443651167893
 20
309.7918785324314
 40
5.358501700154826
 50
0.0
 51
360.0
 73
     1
 97
        0
 92
        3
 72
     1
 73
     1
 93
        3
 10
1344.654903710265
 20
291.9650484476857
 42
0.1200283885712921
 10
1353.969903710265
 20
243.0106734476855
 42
-0.0401820615762149
 10
1344.665028710265
 20
242.9802984476857
 42
-0.0237521668114666
 97
        0
 75
     0
 76
     1
 98
        1
 10
0.0
 20
0.0
  0
LINE
  5
103
330
1F
100
AcDbEntity
  8
0
  6
CONTINUOUS
 62
     3
100
AcDbLine
 10
1235.274528710266
 20
281.4957984476857
 30
0.0
 11
1236.590778710265
 21
281.4957984476857
 31
0.0
  0
ARC
  5
104
330
1F
100
AcDbEntity
  8
0
  6
CONTINUOUS
 62
     3
100
AcDbCircle
 10
1352.816999808531
 20
252.7835224361249
 30
0.0
 40
16.91930610118257
100
AcDbArc
 50
332.3987521421788
 51
359.5124385477116
  0
LINE
  5
105
330
1F
100
AcDbEntity
  8
0
  6
CONTINUOUS
 62
     3
100
AcDbLine
 10
1392.313278710265
 20
255.6770484476856
 30
0.0
 11
1392.414528710266
 21
253.3482984476856
 31
0.0
  0
LINE
  5
106
330
1F
100
AcDbEntity
  8
0
  6
CONTINUOUS
 62
     3
100
AcDbLine
 10
1399.451403710266
 20
259.8991734476857
 30
0.0
 11
1399.400778710265
 21
255.5757984476857
 31
0.0
  0
LINE
  5
107
330
1F
100
AcDbEntity
  8
0
  6
CONTINUOUS
 62
     3
100
AcDbLine
 10
1375.586778710265
 20
281.7387984476857
 30
0.0
 11
1375.445028710265
 21
279.0860484476857
 31
0.0
  0
LINE
  5
108
330
1F
100
AcDbEntity
  8
0
  6
CONTINUOUS
 62
     3
100
AcDbLine
 10
1368.266403710265
 20
278.7114234476857
 30
0.0
 11
1368.317028710265
 21
276.0282984477187
 31
0.0
  0
LINE
  5
109
330
1F
100
AcDbEntity
  8
0
  6
CONTINUOUS
 62
     3
100
AcDbLine
 10
1383.271653710265
 20
288.8465484476857
 30
0.0
 11
1384.911903710266
 21
288.8870484476857
 31
0.0
  0
LINE
  5
10A
330
1F
100
AcDbEntity
  8
0
  6
CONTINUOUS
 62
     3
100
AcDbLine
 10
1392.880278710265
 20
282.5589234476857
 30
0.0
 11
1394.161020340487
 21
282.5589234476857
 31
0.0
  0
ARC
  5
10B
330
1F
100
AcDbEntity
  8
0
  6
CONTINUOUS
 62
     3
100
AcDbCircle
 10
1422.279101713696
 20
277.2694741274989
 30
0.0
 40
28.61127005606746
100
AcDbArc
 50
153.7591918158497
 51
169.3462759801917
  0
HATCH
  5
10C
330
1F
100
AcDbEntity
  8
0
  6
CONTINUOUS
 62
     3
100
AcDbHatch
 10
0.0
 20
0.0
 30
0.0
210
0.0
220
0.0
230
1.0
  2
SOLID
 70
     1
 71
     1
 91
        1
 92
        3
 72
     1
 73
     1
 93
       30
 10
1396.616403710264
 20
289.9197984476864
 42
-0.0009362235736497
 10
1396.616403710265
 20
289.9197984476856
 42
0.0681165430304653
 10
1394.161020340487
 20
282.5589234476857
 42
0.0
 10
1384.911903710266
 20
288.8870484476857
 42
-0.302112590907374
 10
1384.911903710266
 20
288.8870484476857
 42
0.0
 10
1375.586778710265
 20
281.7387984476856
 42
-0.3704245237568778
 10
1375.586778710265
 20
281.7387984476857
 42
0.0
 10
1376.072778710265
 20
276.9597984476857
 42
-0.0262822419456939
 10
1381.823778710266
 20
272.3630484476856
 42
-0.180060563604375
 10
1390.997028710266
 20
269.5685484476856
 42
-0.0298130817160724
 10
1390.997028710265
 20
269.5685484476857
 42
-0.3153987453686078
 10
1399.451403710266
 20
259.8991734476857
 42
0.0
 10
1399.400778710266
 20
255.5757984476857
 42
-0.3510306079065168
 10
1383.099528710265
 20
241.9070484476856
 42
0.0
 10
1378.340778710265
 20
241.9070484476857
 42
-0.1053356344842436
 10
1367.810778710265
 20
244.9445484476857
 42
0.1188608286962634
 10
1369.734528710265
 20
252.6395484476857
 42
0.0
 10
1381.277028710266
 20
245.5520484476855
 42
-0.2447573632916039
 10
1381.277028710265
 20
245.5520484476856
 42
0.0
 10
1392.414528710266
 20
253.3482984476857
 42
-0.3734162676407277
 10
1392.414528710266
 20
253.3482984476856
 42
0.0
 10
1388.374653710266
 20
261.1344234476856
 42
-0.261219770190848
 10
1378.948278710265
 20
264.5566734476857
 42
-0.0572747914118363
 10
1378.948278710266
 20
264.5566734476856
 42
-0.1189658875692221
 10
1371.455778710265
 20
268.9509234476857
 42
-0.2005226878639636
 10
1368.317028710265
 20
276.0282984477187
 42
0.0
 10
1368.266403710266
 20
278.7114234476855
 42
-0.2622894489606957
 10
1376.315778710266
 20
291.0132984476857
 42
-0.0988461274137808
 10
1383.848778710266
 20
292.8256734476856
 42
0.0
 10
1386.643278710265
 20
292.8256734476857
 42
-0.0920156312561188
 97
        0
 75
     0
 76
     1
 98
        1
 10
0.0
 20
0.0
  0
HATCH
  5
10D
330
1F
100
AcDbEntity
  8
0
  6
CONTINUOUS
 62
     3
100
AcDbHatch
 10
0.0
 20
0.0
 30
0.0
210
0.0
220
0.0
230
1.0
  2
SOLID
 70
     1
 71
     1
 91
        2
 92
        3
 72
     1
 73
     1
 93
       27
 10
1235.274528710265
 20
286.9632984476856
 42
-0.1769427732109284
 10
1235.274528710266
 20
286.9632984476857
 42
0.0
 10
1235.274528710266
 20
281.4957984476857
 42
0.0
 10
1236.590778710266
 20
281.4957984476856
 42
-0.207533601427307
 10
1245.136514294746
 20
287.9064123707317
 42
-0.1226604740888933
 10
1252.689528710266
 20
288.0669234476857
 42
-0.3213715781137954
 10
1260.497872143703
 20
278.4825356581462
 42
-0.064704004662446
 10
1260.536403710265
 20
273.4160484476856
 42
-0.257798906330806
 10
1258.946778710266
 20
271.4922984476856
 42
-0.056602577721096
 10
1255.544778710266
 20
270.3076734476858
 42
-0.0166741689362636
 10
1243.070778710265
 20
267.9384234476855
 42
0.1186092302783404
 10
1234.839153710266
 20
263.9896734476858
 42
0.1699204224386695
 10
1231.254903710266
 20
257.9956734476857
 42
0.1006533494296199
 10
1230.923510129763
 20
252.7945917657334
 42
0.1675695228968024
 10
1234.170903710266
 20
245.8254234476858
 42
0.1376980079804242
 10
1240.073778710265
 20
242.4132984476857
 42
0.0719813663796923
 10
1242.756903710265
 20
241.9677984476857
 42
0.0
 10
1246.867653710266
 20
241.9677984476857
 42
0.1944607457809085
 10
1260.506028710266
 20
248.9844234476856
 42
0.1288538183665954
 10
1261.883028710265
 20
245.5419234476856
 42
0.2098387395261546
 10
1266.378528710266
 20
243.0612984476856
 42
0.0
 10
1269.638778710266
 20
243.0410484476857
 42
0.0945009641609563
 10
1274.346903710265
 20
244.0434234476856
 42
0.0
 10
1274.346903710265
 20
246.4025484476857
 42
-0.2395739894657535
 10
1270.236153710266
 20
246.3620484476857
 42
-0.2502312110031057
 10
1268.211153710265
 20
250.1690484476865
 42
-0.0104343570771765
 10
1268.484528710266
 20
278.5595484476856
 42
0.4051015674140716
 97
        0
 92
        3
 72
     1
 73
     1
 93
        8
 10
1260.718653710266
 20
268.4547984476856
 42
-0.0339435190873666
 10
1260.718653710275
 20
268.4547984476686
 42
-0.0001110072973599
 10
1260.293403710266
 20
252.9432984476856
 42
-0.2253076310552528
 10
1249.662153710266
 20
245.8456734476857
 42
0.0
 10
1247.060028710265
 20
245.8456734476857
 42
-0.3657967558150132
 10
1239.324528710265
 20
254.0671734476856
 42
0.0
 10
1239.324528710266
 20
257.0034234476857
 42
-0.2530797830369341
 10
1244.549028710266
 20
264.2326734476856
 42
-0.0724473624720066
 97
        0
 75
     0
 76
     1
 98
        1
 10
0.0
 20
0.0
  0
TEXT
  5
10F
330
1F
100
AcDbEntity
  8
0
  6
CONTINUOUS
 62
     2
100
AcDbText
 10
1420.499999999854
 20
237.0000019073487
 30
0.0
 40
44.99999713897705
  1
ジャニス工業株式会社
 41
1.02564109084953
  7
EXCADTTF1
 72
     5
 11
2020.499999999854
 21
237.0000019073487
 31
0.0
100
AcDbText
  0
TEXT
  5
110
330
1F
100
AcDbEntity
  8
0
  6
CONTINUOUS
 62
     2
100
AcDbText
 10
2456.000000003959
 20
2320.500000536449
 30
0.0
 40
59.99999618530273
  1
Ｗ.Ｌ.
 50
90.0
 41
1.120673148173557
  7
EXCADSTD
 72
     5
 11
2456.000000003959
 21
2487.000000536449
 31
0.0
100
AcDbText
  0
LINE
  5
111
330
1F
100
AcDbEntity
  8
枠_表
  6
CONTINUOUS
 62
     7
100
AcDbLine
 10
269.9999999999966
 20
202.5
 30
0.0
 11
2999.999999999998
 21
202.5
 31
0.0
  0
LINE
  5
112
330
1F
100
AcDbEntity
  8
枠_表
  6
CONTINUOUS
 62
     7
100
AcDbLine
 10
269.9999999999966
 20
4327.5
 30
0.0
 11
2999.999999999998
 21
4327.5
 31
0.0
  0
LINE
  5
113
330
1F
100
AcDbEntity
  8
枠_表
  6
CONTINUOUS
 62
     7
100
AcDbLine
 10
269.9999999999966
 20
532.5
 30
0.0
 11
2999.999999999998
 21
532.5
 31
0.0
  0
LINE
  5
114
330
1F
100
AcDbEntity
  8
枠_表
  6
CONTINUOUS
 62
     6
100
AcDbLine
 10
2999.999999999998
 20
352.5
 30
0.0
 11
1124.999999999993
 21
352.5
 31
0.0
  0
LINE
  5
115
330
1F
100
AcDbEntity
  8
枠_表
  6
CONTINUOUS
 62
     6
100
AcDbLine
 10
2789.999999999998
 20
532.5
 30
0.0
 11
2789.999999999998
 21
352.5
 31
0.0
  0
LINE
  5
116
330
1F
100
AcDbEntity
  8
枠_表
  6
CONTINUOUS
 62
     6
100
AcDbLine
 10
2714.999999999998
 20
532.5
 30
0.0
 11
2714.999999999998
 21
352.5
 31
0.0
  0
LINE
  5
117
330
1F
100
AcDbEntity
  8
枠_表
  6
CONTINUOUS
 62
     6
100
AcDbLine
 10
2159.999999999994
 20
532.5
 30
0.0
 11
2159.999999999994
 21
202.5
 31
0.0
  0
LINE
  5
118
330
1F
100
AcDbEntity
  8
枠_表
  6
CONTINUOUS
 62
     6
100
AcDbLine
 10
2084.999999999994
 20
532.5
 30
0.0
 11
2084.999999999994
 21
202.5
 31
0.0
  0
LINE
  5
119
330
1F
100
AcDbEntity
  8
枠_表
  6
CONTINUOUS
 62
     6
100
AcDbLine
 10
1199.999999999993
 20
532.5
 30
0.0
 11
1199.999999999993
 21
352.5
 31
0.0
  0
LINE
  5
11A
330
1F
100
AcDbEntity
  8
枠_表
  6
CONTINUOUS
 62
     6
100
AcDbLine
 10
1124.999999999993
 20
532.5
 30
0.0
 11
1124.999999999993
 21
202.5
 31
0.0
  0
LINE
  5
11B
330
1F
100
AcDbEntity
  8
枠_表
  6
CONTINUOUS
 62
     6
100
AcDbLine
 10
929.9999999999966
 20
532.5
 30
0.0
 11
929.9999999999966
 21
202.5
 31
0.0
  0
LINE
  5
11C
330
1F
100
AcDbEntity
  8
枠_表
  6
CONTINUOUS
 62
     6
100
AcDbLine
 10
734.9999999999966
 20
532.5
 30
0.0
 11
734.9999999999966
 21
202.5
 31
0.0
  0
LINE
  5
11D
330
1F
100
AcDbEntity
  8
枠_表
  6
CONTINUOUS
 62
     6
100
AcDbLine
 10
502.4999999999976
 20
532.5
 30
0.0
 11
502.4999999999976
 21
202.5
 31
0.0
  0
LINE
  5
11E
330
1F
100
AcDbEntity
  8
枠_表
  6
CONTINUOUS
 62
     6
100
AcDbLine
 10
269.9999999999966
 20
457.5
 30
0.0
 11
1124.999999999993
 21
457.5
 31
0.0
  0
LINE
  5
11F
330
1F
100
AcDbEntity
  8
枠_表
  6
CONTINUOUS
 62
     6
100
AcDbLine
 10
2838.980712899998
 20
387.0043945500001
 30
0.0
 11
2954.990844749998
 21
505.0497436500009
 31
0.0
  0
CIRCLE
  5
120
330
1F
100
AcDbEntity
  8
枠_表
  6
CONTINUOUS
 62
     6
100
AcDbCircle
 10
577.4999999999975
 20
240.0
 30
0.0
 40
1.5000003
  0
CIRCLE
  5
121
330
1F
100
AcDbEntity
  8
枠_表
  6
CONTINUOUS
 62
     6
100
AcDbCircle
 10
652.4999999999975
 20
240.0
 30
0.0
 40
1.5000003
  0
LINE
  5
122
330
1F
100
AcDbEntity
  8
枠_表
  6
EXLTYPE2
 62
     6
100
AcDbLine
 10
269.9999999999966
 20
277.5
 30
0.0
 11
734.9999999999966
 21
277.5
 31
0.0
  0
TEXT
  5
123
330
1F
100
AcDbEntity
  8
枠_表
  6
CONTINUOUS
 62
     2
100
AcDbText
 10
1844.999999999992
 20
4211.250001907349
 30
0.0
 40
59.99999618530273
  1
品番
 41
2.041518237445141
  7
EXCADSTD
 72
     5
 11
2037.485993006889
 21
4211.250001907349
 31
0.0
100
AcDbText
  0
TEXT
  5
124
330
1F
100
AcDbEntity
  8
枠_表
  6
CONTINUOUS
 62
     2
100
AcDbText
 10
2295.0
 20
4211.250001907349
 30
0.0
 40
59.99999618530273
  1
品名
 41
2.041518237445141
  7
EXCADSTD
 72
     5
 11
2487.485993006896
 21
4211.250001907349
 31
0.0
100
AcDbText
  0
TEXT
  5
125
330
1F
100
AcDbEntity
  8
枠_表
  6
CONTINUOUS
 62
     2
100
AcDbText
 10
2816.25
 20
4087.500001907349
 30
0.0
 40
59.99999618530273
  1
１
 41
1.260000080108648
  7
EXCADSTD
 72
     5
 11
2870.25
 21
4087.500001907349
 31
0.0
100
AcDbText
  0
TEXT
  5
126
330
1F
100
AcDbEntity
  8
枠_表
  6
CONTINUOUS
 62
     2
100
AcDbText
 10
2788.500000536441
 20
4211.250001907349
 30
0.0
 40
59.99999618530273
  1
個数
 41
1.195746439659873
  7
EXCADSTD
 72
     5
 11
2901.241800536441
 21
4211.250001907349
 31
0.0
100
AcDbText
  0
TEXT
  5
127
330
1F
100
AcDbEntity
  8
枠_表
  6
CONTINUOUS
 62
     2
100
AcDbText
 10
2189.999999999992
 20
4128.750001907349
 30
0.0
 40
59.99999618530273
  1
洗面化粧台
 41
1.164655246460579
  7
EXCADSTD
 72
     5
 11
2479.499999999992
 21
4128.750001907349
 31
0.0
100
AcDbText
  0
TEXT
  5
128
330
1F
100
AcDbEntity
  8
枠_表
  6
CONTINUOUS
 62
     2
100
AcDbText
 10
2191.499999999994
 20
4046.250001907349
 30
0.0
 40
59.99999618530273
  1
洗面化粧台・寒冷地
 41
1.09952838858719
  7
EXCADSTD
 72
     5
 11
2691.000007629389
 21
4046.250001907349
 31
0.0
100
AcDbText
  0
TEXT
  5
129
330
1F
100
AcDbEntity
  8
枠_表
  6
CONTINUOUS
 62
     2
100
AcDbText
 10
1739.999999999992
 20
4128.750001907349
 30
0.0
 40
59.99999618530273
  1
ＬＵ７５１ＲＳＣ
 41
0.7446808984093662
  7
EXCADSTD
 72
     5
 11
2039.999999999992
 21
4128.750001907349
 31
0.0
100
AcDbText
  0
TEXT
  5
12A
330
1F
100
AcDbEntity
  8
枠_表
  6
CONTINUOUS
 62
     2
100
AcDbText
 10
1739.999999999992
 20
4046.250001907349
 30
0.0
 40
59.99999618530273
  1
ＬＵ７５１ＲＳＣＹ
 41
0.7396226885333776
  7
EXCADSTD
 72
     5
 11
2075.999999999992
 21
4046.250001907349
 31
0.0
100
AcDbText
  0
CIRCLE
  5
12B
330
1F
100
AcDbEntity
  8
枠_表
  6
CONTINUOUS
 62
     6
100
AcDbCircle
 10
344.9999999999957
 20
240.0
 30
0.0
 40
1.5000003
  0
CIRCLE
  5
12C
330
1F
100
AcDbEntity
  8
枠_表
  6
CONTINUOUS
 62
     6
100
AcDbCircle
 10
419.9999999999957
 20
240.0
 30
0.0
 40
1.5000003
  0
LINE
  5
12D
330
1F
100
AcDbEntity
  8
枠_表
  6
CONTINUOUS
 62
     7
100
AcDbLine
 10
2999.999999999998
 20
202.5
 30
0.0
 11
2999.999999999998
 21
4327.5
 31
0.0
  0
LINE
  5
12E
330
1F
100
AcDbEntity
  8
枠_表
  6
CONTINUOUS
 62
     7
100
AcDbLine
 10
269.9999999999966
 20
202.5
 30
0.0
 11
269.9999999999966
 21
4327.5
 31
0.0
  0
LINE
  5
12F
330
1F
100
AcDbEntity
  8
枠_表
  6
EXLTYPE2
 62
     6
100
AcDbLine
 10
270.0
 20
2265.0
 30
0.0
 11
-15.0
 21
2265.0
 31
0.0
  0
LINE
  5
130
330
1F
100
AcDbEntity
  8
枠_表
  6
CONTINUOUS
 62
     2
100
AcDbLine
 10
549.9999999999983
 20
2061.0
 30
0.0
 11
809.5222089841445
 21
2061.0
 31
0.0
  0
LINE
  5
131
330
1F
100
AcDbEntity
  8
枠_表
  6
CONTINUOUS
 62
     2
100
AcDbLine
 10
1031.300000000059
 20
2061.0
 30
0.0
 11
1289.999999999994
 21
2061.0
 31
0.0
  0
LINE
  5
132
330
1F
100
AcDbEntity
  8
枠_表
  6
CONTINUOUS
 62
     2
100
AcDbLine
 10
2465.00000000481
 20
2061.0
 30
0.0
 11
2445.385164811942
 21
2061.0
 31
0.0
  0
LINE
  5
133
330
1F
100
AcDbEntity
  8
枠_表
  6
CONTINUOUS
 62
     2
100
AcDbLine
 10
550.0000000000001
 20
2061.000000000001
 30
0.0
 11
848.9999999999975
 21
2061.000000000001
 31
0.0
  0
LINE
  5
134
330
1F
100
AcDbEntity
  8
枠_表
  6
CONTINUOUS
 62
     2
100
AcDbLine
 10
990.9999999999966
 20
2061.000000000001
 30
0.0
 11
1289.999999999991
 21
2061.000000000001
 31
0.0
  0
LINE
  5
135
330
1F
100
AcDbEntity
  8
枠_表
  6
CONTINUOUS
 62
     2
100
AcDbLine
 10
549.9999999999975
 20
2061.000000000044
 30
0.0
 11
848.9999999999975
 21
2061.000000000044
 31
0.0
  0
LINE
  5
136
330
1F
100
AcDbEntity
  8
枠_表
  6
CONTINUOUS
 62
     2
100
AcDbLine
 10
990.9999999999966
 20
2061.000000000044
 30
0.0
 11
1289.999999999989
 21
2061.000000000044
 31
0.0
  0
LINE
  5
137
330
1F
100
AcDbEntity
  8
枠_表
  6
CONTINUOUS
 62
     7
100
AcDbLine
 10
2465.00000000481
 20
1266.0
 30
0.0
 11
2465.00000000481
 21
2487.0
 31
0.0
  0
TEXT
  5
138
330
1F
100
AcDbEntity
  8
枠_表
  6
CONTINUOUS
 62
     2
100
AcDbText
 10
303.7499999999966
 20
463.1250019073486
 30
0.0
 40
63.74999618530273
  1
製図
 41
1.509694103275157
  7
EXCADSTD
 72
     5
 11
454.9889895103421
 21
463.1250019073486
 31
0.0
100
AcDbText
  0
TEXT
  5
139
330
1F
100
AcDbEntity
  8
枠_表
  6
CONTINUOUS
 62
     2
100
AcDbText
 10
536.2499999999975
 20
463.1250019073486
 30
0.0
 40
63.74999618530273
  1
写図
 41
1.509694103275156
  7
EXCADSTD
 72
     5
 11
687.4889895103429
 21
463.1250019073486
 31
0.0
100
AcDbText
  0
TEXT
  5
13A
330
1F
100
AcDbEntity
  8
枠_表
  6
CONTINUOUS
 62
     2
100
AcDbText
 10
761.2499999999966
 20
463.1250019073486
 30
0.0
 40
63.74999618530273
  1
検図
 41
1.303826737454632
  7
EXCADSTD
 72
     5
 11
891.8654921327557
 21
463.1250019073486
 31
0.0
100
AcDbText
  0
TEXT
  5
13B
330
1F
100
AcDbEntity
  8
枠_表
  6
CONTINUOUS
 62
     2
100
AcDbText
 10
956.249999999993
 20
463.1250019073486
 30
0.0
 40
63.74999618530273
  1
承認
 41
1.303826737454632
  7
EXCADSTD
 72
     5
 11
1086.865492132752
 21
463.1250019073486
 31
0.0
100
AcDbText
  0
TEXT
  5
13C
330
1F
100
AcDbEntity
  8
枠_表
  6
CONTINUOUS
 62
     2
100
AcDbText
 10
1133.624999999994
 20
448.1250019073486
 30
0.0
 40
63.74999618530273
  1
品
 41
1.119999999999999
  7
EXCADSTD
 72
     5
 11
1184.624996948236
 21
448.1250019073486
 31
0.0
100
AcDbText
  0
TEXT
  5
13D
330
1F
100
AcDbEntity
  8
枠_表
  6
CONTINUOUS
 62
     2
100
AcDbText
 10
1133.624999999994
 20
373.1250019073486
 30
0.0
 40
63.74999618530273
  1
名
 41
1.119999999999999
  7
EXCADSTD
 72
     5
 11
1184.624996948236
 21
373.1250019073486
 31
0.0
100
AcDbText
  0
TEXT
  5
13E
330
1F
100
AcDbEntity
  8
枠_表
  6
CONTINUOUS
 62
     2
100
AcDbText
 10
2093.624999999996
 20
448.1250019073486
 30
0.0
 40
63.74999618530273
  1
品
 41
1.120000000000004
  7
EXCADSTD
 72
     5
 11
2144.624996948238
 21
448.1250019073486
 31
0.0
100
AcDbText
  0
TEXT
  5
13F
330
1F
100
AcDbEntity
  8
枠_表
  6
CONTINUOUS
 62
     2
100
AcDbText
 10
2093.624999999996
 20
373.1250019073486
 30
0.0
 40
63.74999618530273
  1
番
 41
1.120000000000004
  7
EXCADSTD
 72
     5
 11
2144.624996948238
 21
373.1250019073486
 31
0.0
100
AcDbText
  0
TEXT
  5
140
330
1F
100
AcDbEntity
  8
枠_表
  6
CONTINUOUS
 62
     2
100
AcDbText
 10
2093.624999999996
 20
278.6250019073495
 30
0.0
 40
63.74999618530273
  1
図
 41
1.120000000000004
  7
EXCADSTD
 72
     5
 11
2144.624996948238
 21
278.6250019073495
 31
0.0
100
AcDbText
  0
TEXT
  5
141
330
1F
100
AcDbEntity
  8
枠_表
  6
CONTINUOUS
 62
     2
100
AcDbText
 10
2093.624999999996
 20
214.1250019073486
 30
0.0
 40
63.74999618530273
  1
番
 41
1.120000000000004
  7
EXCADSTD
 72
     5
 11
2144.624996948238
 21
214.1250019073486
 31
0.0
100
AcDbText
  0
TEXT
  5
142
330
1F
100
AcDbEntity
  8
枠_表
  6
CONTINUOUS
 62
     2
100
AcDbText
 10
2725.125
 20
448.1250019073486
 30
0.0
 40
63.74999618530273
  1
尺
 41
1.120000000000004
  7
EXCADSTD
 72
     5
 11
2776.124996948242
 21
448.1250019073486
 31
0.0
100
AcDbText
  0
TEXT
  5
143
330
1F
100
AcDbEntity
  8
枠_表
  6
CONTINUOUS
 62
     2
100
AcDbText
 10
2725.125
 20
373.1250019073486
 30
0.0
 40
63.74999618530273
  1
度
 41
1.120000000000004
  7
EXCADSTD
 72
     5
 11
2776.124996948242
 21
373.1250019073486
 31
0.0
100
AcDbText
  0
TEXT
  5
144
330
1F
100
AcDbEntity
  8
枠_表
  6
CONTINUOUS
 62
     2
100
AcDbText
 10
2896.918945349998
 20
387.5232695999985
 30
0.0
 40
44.99999618530273
  1
１５
 41
1.098531308335255
  7
EXCADSTD
 72
     5
 11
2974.600795568533
 21
387.5232695999985
 31
0.0
100
AcDbText
  0
TEXT
  5
145
330
1F
100
AcDbEntity
  8
枠_表
  6
CONTINUOUS
 62
     2
100
AcDbText
 10
2835.805664099998
 20
454.0841674499998
 30
0.0
 40
44.99999618530273
  1
１
 41
1.101333426694527
  7
EXCADSTD
 72
     5
 11
2871.205664099998
 21
454.0841674499998
 31
0.0
100
AcDbText
  0
LINE
  5
146
330
1F
100
AcDbEntity
  8
枠_表
  6
CONTINUOUS
 62
     6
100
AcDbLine
 10
1724.999999999989
 20
4035.0
 30
0.0
 11
2925.0
 21
4035.0
 31
0.0
  0
LINE
  5
147
330
1F
100
AcDbEntity
  8
枠_表
  6
CONTINUOUS
 62
     6
100
AcDbLine
 10
1724.999999999989
 20
4117.5
 30
0.0
 11
2775.0
 21
4117.5
 31
0.0
  0
LINE
  5
148
330
1F
100
AcDbEntity
  8
枠_表
  6
CONTINUOUS
 62
     6
100
AcDbLine
 10
1724.999999999989
 20
4200.0
 30
0.0
 11
2925.0
 21
4200.0
 31
0.0
  0
LINE
  5
149
330
1F
100
AcDbEntity
  8
枠_表
  6
CONTINUOUS
 62
     6
100
AcDbLine
 10
1724.999999999989
 20
4282.5
 30
0.0
 11
2925.0
 21
4282.5
 31
0.0
  0
LINE
  5
14A
330
1F
100
AcDbEntity
  8
枠_表
  6
CONTINUOUS
 62
     6
100
AcDbLine
 10
1724.999999999989
 20
4035.0
 30
0.0
 11
1724.999999999989
 21
4282.5
 31
0.0
  0
LINE
  5
14B
330
1F
100
AcDbEntity
  8
枠_表
  6
CONTINUOUS
 62
     6
100
AcDbLine
 10
2174.999999999992
 20
4035.0
 30
0.0
 11
2174.999999999992
 21
4282.5
 31
0.0
  0
LINE
  5
14C
330
1F
100
AcDbEntity
  8
枠_表
  6
CONTINUOUS
 62
     6
100
AcDbLine
 10
2775.0
 20
4035.0
 30
0.0
 11
2775.0
 21
4282.5
 31
0.0
  0
LINE
  5
14D
330
1F
100
AcDbEntity
  8
枠_表
  6
CONTINUOUS
 62
     6
100
AcDbLine
 10
2925.0
 20
4035.0
 30
0.0
 11
2925.0
 21
4282.5
 31
0.0
  0
TEXT
  5
14E
330
1F
100
AcDbEntity
  8
枠_表
  6
CONTINUOUS
 62
     7
100
AcDbText
 10
2272.499999999998
 20
234.7500038146973
 30
0.0
 40
89.99999237060547
  1
ＬＵ３１８４６１
 41
1.01773049277147
  7
EXCADSTD
 72
     5
 11
2887.499945640562
 21
234.7500038146973
 31
0.0
100
AcDbText
  0
TEXT
  5
14F
330
1F
100
AcDbEntity
  8
枠_表
  6
CONTINUOUS
 62
     2
100
AcDbText
 10
543.7499999999914
 20
330.0000038146973
 30
0.0
 40
74.99999237060547
  1
川野
 41
1.224910918732915
  7
EXCADSTD
 72
     5
 11
688.1144864508542
 21
330.0000038146973
 31
0.0
100
AcDbText
  0
TEXT
  5
150
330
1F
100
AcDbEntity
  8
枠_表
  6
CONTINUOUS
 62
     6
100
AcDbText
 10
511.8750000288132
 20
217.5000019073486
 30
0.0
 40
44.99999618530273
  1
'23
 41
0.4689783949971204
  7
EXCADSTD
 72
     5
 11
559.1078200924043
 21
217.5000019073486
 31
0.0
100
AcDbText
  0
TEXT
  5
151
330
1F
100
AcDbEntity
  8
枠_表
  6
CONTINUOUS
 62
     6
100
AcDbText
 10
601.8749999999968
 20
217.5000019073486
 30
0.0
 40
44.99999618530273
  1
5
 41
0.4683823586133588
  7
EXCADSTD
 72
     5
 11
618.9374987602203
 21
217.5000019073486
 31
0.0
100
AcDbText
  0
TEXT
  5
152
330
1F
100
AcDbEntity
  8
枠_表
  6
CONTINUOUS
 62
     6
100
AcDbText
 10
674.2500002394049
 20
217.5000019073486
 30
0.0
 40
44.99999618530273
  1
11
 41
0.4877419308898273
  7
EXCADSTD
 72
     5
 11
706.6499971876472
 21
217.5000019073486
 31
0.0
100
AcDbText
  0
TEXT
  5
153
330
1F
100
AcDbEntity
  8
枠_表
  6
CONTINUOUS
 62
     2
100
AcDbText
 10
311.2499999999902
 20
330.0000038146973
 30
0.0
 40
74.99999237060547
  1
岩田
 41
1.224910918732915
  7
EXCADSTD
 72
     5
 11
455.6144864508531
 21
330.0000038146973
 31
0.0
100
AcDbText
  0
TEXT
  5
154
330
1F
100
AcDbEntity
  8
枠_表
  6
CONTINUOUS
 62
     6
100
AcDbText
 10
279.3750000288122
 20
217.5000019073486
 30
0.0
 40
44.99999618530273
  1
'19
 41
0.4791735774970578
  7
EXCADSTD
 72
     5
 11
326.6078200924032
 21
217.5000019073486
 31
0.0
100
AcDbText
  0
TEXT
  5
155
330
1F
100
AcDbEntity
  8
枠_表
  6
CONTINUOUS
 62
     6
100
AcDbText
 10
369.3749999999957
 20
217.5000019073486
 30
0.0
 40
44.99999618530273
  1
6
 41
0.4683823586133572
  7
EXCADSTD
 72
     5
 11
386.4374987602191
 21
217.5000019073486
 31
0.0
100
AcDbText
  0
TEXT
  5
156
330
1F
100
AcDbEntity
  8
枠_表
  6
CONTINUOUS
 62
     6
100
AcDbText
 10
441.7500002394038
 20
217.5000019073486
 30
0.0
 40
44.99999618530273
  1
12
 41
0.4086486447995843
  7
EXCADSTD
 72
     5
 11
474.149997187646
 21
217.5000019073486
 31
0.0
100
AcDbText
  0
TEXT
  5
157
330
1F
100
AcDbEntity
  8
枠_表
  6
CONTINUOUS
 62
     2
100
AcDbText
 10
2349.0
 20
402.0000038146973
 30
0.0
 40
89.99999237060547
  1
別記
 41
1.166581818181818
  7
EXCADSTD
 72
     5
 11
2513.987986013794
 21
402.0000038146973
 31
0.0
100
AcDbText
  0
TEXT
  5
158
330
1F
100
AcDbEntity
  8
枠_表
  6
CONTINUOUS
 62
     2
100
AcDbText
 10
2188.49999999981
 20
3535.125001907345
 30
0.0
 40
59.99999618530273
  1
フレキシブルパイプ
 41
0.9773584771306252
  7
EXCADSTD
 72
     5
 11
2632.499965667535
 21
3535.125001907345
 31
0.0
100
AcDbText
  0
TEXT
  5
159
330
1F
100
AcDbEntity
  8
枠_表
  6
CONTINUOUS
 62
     2
100
AcDbText
 10
2820.000000000012
 20
3863.625001907344
 30
0.0
 40
59.99999618530273
  1
２
 41
1.120000000000004
  7
EXCADSTD
 72
     5
 11
2867.999996948255
 21
3863.625001907344
 31
0.0
100
AcDbText
  0
TEXT
  5
15A
330
1F
100
AcDbEntity
  8
枠_表
  6
CONTINUOUS
 62
     2
100
AcDbText
 10
2820.000000000012
 20
3787.875001907345
 30
0.0
 40
59.99999618530273
  1
２
 41
1.120000000000004
  7
EXCADSTD
 72
     5
 11
2867.999996948255
 21
3787.875001907345
 31
0.0
100
AcDbText
  0
TEXT
  5
15B
330
1F
100
AcDbEntity
  8
枠_表
  6
CONTINUOUS
 62
     2
100
AcDbText
 10
2820.000000000012
 20
3535.125001907345
 30
0.0
 40
59.99999618530273
  1
２
 41
1.120000000000004
  7
EXCADSTD
 72
     5
 11
2867.999996948255
 21
3535.125001907345
 31
0.0
100
AcDbText
  0
TEXT
  5
15C
330
1F
100
AcDbEntity
  8
枠_表
  6
CONTINUOUS
 62
     2
100
AcDbText
 10
2820.000000000012
 20
3610.875001907345
 30
0.0
 40
59.99999618530273
  1
２
 41
1.120000000000004
  7
EXCADSTD
 72
     5
 11
2867.999996948255
 21
3610.875001907345
 31
0.0
100
AcDbText
  0
TEXT
  5
15D
330
1F
100
AcDbEntity
  8
枠_表
  6
CONTINUOUS
 62
     2
100
AcDbText
 10
1735.500000000004
 20
3789.375001907347
 30
0.0
 40
59.99999618530273
  1
ＮＬ３０Ｓ４０
 41
0.7896341368434869
  7
EXCADSTD
 72
     5
 11
2012.999979019169
 21
3789.375001907347
 31
0.0
100
AcDbText
  0
TEXT
  5
15E
330
1F
100
AcDbEntity
  8
枠_表
  6
CONTINUOUS
 62
     2
100
AcDbText
 10
1735.500000000004
 20
3536.625001907347
 30
0.0
 40
59.99999618530273
  1
ＮＬ３０Ｓ４０
 41
0.7896341368434869
  7
EXCADSTD
 72
     5
 11
2012.999979019169
 21
3536.625001907347
 31
0.0
100
AcDbText
  0
TEXT
  5
15F
330
1F
100
AcDbEntity
  8
枠_表
  6
CONTINUOUS
 62
     2
100
AcDbText
 10
2188.49999999981
 20
3787.875001907345
 30
0.0
 40
59.99999618530273
  1
フレキシブルパイプ
 41
0.9773584771306252
  7
EXCADSTD
 72
     5
 11
2632.499965667535
 21
3787.875001907345
 31
0.0
100
AcDbText
  0
LINE
  5
160
330
1F
100
AcDbEntity
  8
枠_表
  6
CONTINUOUS
 62
     6
100
AcDbLine
 10
1725.000000000013
 20
3782.249999999996
 30
0.0
 11
2925.000000000012
 21
3782.249999999996
 31
0.0
  0
LINE
  5
161
330
1F
100
AcDbEntity
  8
枠_表
  6
CONTINUOUS
 62
     6
100
AcDbLine
 10
1725.000000000013
 20
3856.499999999997
 30
0.0
 11
2925.000000000012
 21
3856.499999999997
 31
0.0
  0
LINE
  5
162
330
1F
100
AcDbEntity
  8
枠_表
  6
CONTINUOUS
 62
     6
100
AcDbLine
 10
1725.000000000013
 20
3930.749999999998
 30
0.0
 11
2925.000000000012
 21
3930.749999999998
 31
0.0
  0
LINE
  5
163
330
1F
100
AcDbEntity
  8
枠_表
  6
CONTINUOUS
 62
     6
100
AcDbLine
 10
1725.000000000013
 20
3782.249999999997
 30
0.0
 11
1725.000000000013
 21
3930.749999999998
 31
0.0
  0
LINE
  5
164
330
1F
100
AcDbEntity
  8
枠_表
  6
CONTINUOUS
 62
     6
100
AcDbLine
 10
2775.000000000012
 20
3782.249999999997
 30
0.0
 11
2775.000000000012
 21
3930.749999999998
 31
0.0
  0
LINE
  5
165
330
1F
100
AcDbEntity
  8
枠_表
  6
CONTINUOUS
 62
     6
100
AcDbLine
 10
2925.000000000012
 20
3782.249999999997
 30
0.0
 11
2925.000000000012
 21
3930.749999999998
 31
0.0
  0
LINE
  5
166
330
1F
100
AcDbEntity
  8
枠_表
  6
CONTINUOUS
 62
     6
100
AcDbLine
 10
1725.000000000013
 20
3529.499999999996
 30
0.0
 11
2925.000000000012
 21
3529.499999999996
 31
0.0
  0
LINE
  5
167
330
1F
100
AcDbEntity
  8
枠_表
  6
CONTINUOUS
 62
     6
100
AcDbLine
 10
1725.000000000013
 20
3603.749999999997
 30
0.0
 11
2925.000000000012
 21
3603.749999999997
 31
0.0
  0
LINE
  5
168
330
1F
100
AcDbEntity
  8
枠_表
  6
CONTINUOUS
 62
     6
100
AcDbLine
 10
1725.000000000013
 20
3677.999999999998
 30
0.0
 11
2925.000000000012
 21
3677.999999999998
 31
0.0
  0
LINE
  5
169
330
1F
100
AcDbEntity
  8
枠_表
  6
CONTINUOUS
 62
     6
100
AcDbLine
 10
1725.000000000013
 20
3529.499999999997
 30
0.0
 11
1725.000000000013
 21
3677.999999999998
 31
0.0
  0
LINE
  5
16A
330
1F
100
AcDbEntity
  8
枠_表
  6
CONTINUOUS
 62
     6
100
AcDbLine
 10
2775.000000000012
 20
3529.499999999997
 30
0.0
 11
2775.000000000012
 21
3677.999999999998
 31
0.0
  0
LINE
  5
16B
330
1F
100
AcDbEntity
  8
枠_表
  6
CONTINUOUS
 62
     6
100
AcDbLine
 10
2925.000000000012
 20
3529.499999999997
 30
0.0
 11
2925.000000000012
 21
3677.999999999998
 31
0.0
  0
LINE
  5
16C
330
1F
100
AcDbEntity
  8
枠_表
  6
CONTINUOUS
 62
     6
100
AcDbLine
 10
2175.000000000002
 20
3529.499999999996
 30
0.0
 11
2175.000000000002
 21
3677.999999999998
 31
0.0
  0
LINE
  5
16D
330
1F
100
AcDbEntity
  8
枠_表
  6
CONTINUOUS
 62
     6
100
AcDbLine
 10
2175.000000000002
 20
3782.249999999996
 30
0.0
 11
2175.000000000002
 21
3930.749999999998
 31
0.0
  0
TEXT
  5
16E
330
1F
100
AcDbEntity
  8
枠_表
  6
CONTINUOUS
 62
     2
100
AcDbText
 10
1725.000000000007
 20
3939.375001907347
 30
0.0
 40
59.99999618530273
  1
※止水栓（別途手配）
 41
1.052966101694915
  7
EXCADSTD
 72
     5
 11
2257.499966144569
 21
3939.375001907347
 31
0.0
100
AcDbText
  0
TEXT
  5
16F
330
1F
100
AcDbEntity
  8
枠_表
  6
CONTINUOUS
 62
     2
100
AcDbText
 10
1725.000000000007
 20
3686.625001907347
 30
0.0
 40
59.99999618530273
  1
※止水栓（別途手配）
 41
1.052966101694915
  7
EXCADSTD
 72
     5
 11
2257.499966144569
 21
3686.625001907347
 31
0.0
100
AcDbText
  0
TEXT
  5
170
330
1F
100
AcDbEntity
  8
枠_表
  6
CONTINUOUS
 62
     2
100
AcDbText
 10
2188.49999999981
 20
3862.125001907345
 30
0.0
 40
59.99999618530273
  1
壁給水用止水栓
 41
0.990243889413228
  7
EXCADSTD
 72
     5
 11
2536.49997329693
 21
3862.125001907345
 31
0.0
100
AcDbText
  0
TEXT
  5
171
330
1F
100
AcDbEntity
  8
枠_表
  6
CONTINUOUS
 62
     2
100
AcDbText
 10
2188.49999999981
 20
3609.375001907345
 30
0.0
 40
59.99999618530273
  1
床給水用止水栓
 41
0.990243889413228
  7
EXCADSTD
 72
     5
 11
2536.49997329693
 21
3609.375001907345
 31
0.0
100
AcDbText
  0
TEXT
  5
172
330
1F
100
AcDbEntity
  8
枠_表
  6
CONTINUOUS
 62
     2
100
AcDbText
 10
1735.500000000004
 20
3863.625001907343
 30
0.0
 40
59.99999618530273
  1
ＪＬ２２１-７５ＷＭＳＹ
 41
0.6948529324919925
  7
EXCADSTD
 72
     5
 11
2174.249966621403
 21
3863.625001907343
 31
0.0
100
AcDbText
  0
TEXT
  5
173
330
1F
100
AcDbEntity
  8
枠_表
  6
CONTINUOUS
 62
     2
100
AcDbText
 10
1735.500000000004
 20
3610.875001907344
 30
0.0
 40
59.99999618530273
  1
ＪＬ２１１-３３０ＷＭＹ
 41
0.6948529324919925
  7
EXCADSTD
 72
     5
 11
2174.249966621403
 21
3610.875001907344
 31
0.0
100
AcDbText
  0
LINE
  5
174
330
1F
100
AcDbEntity
  8
枠_表
  6
EXLTYPE2
 62
     6
100
AcDbLine
 10
808.5000000000001
 20
1638.00000000001
 30
0.0
 11
808.5000000000001
 21
1650.00000000001
 31
0.0
  0
LINE
  5
175
330
1F
100
AcDbEntity
  8
枠_表
  6
EXLTYPE2
 62
     6
100
AcDbLine
 10
831.5000000000001
 20
1638.00000000001
 30
0.0
 11
831.5000000000001
 21
1650.00000000001
 31
0.0
  0
LINE
  5
176
330
1F
100
AcDbEntity
  8
枠_表
  6
EXLTYPE2
 62
     6
100
AcDbLine
 10
808.5000000000001
 20
1650.00000000001
 30
0.0
 11
831.5000000000001
 21
1650.00000000001
 31
0.0
  0
LINE
  5
177
330
1F
100
AcDbEntity
  8
枠_表
  6
EXLTYPE2
 62
     6
100
AcDbLine
 10
808.5000000000001
 20
1638.00000000001
 30
0.0
 11
831.5000000000001
 21
1638.00000000001
 31
0.0
  0
LINE
  5
178
330
1F
100
AcDbEntity
  8
枠_表
  6
EXLTYPE2
 62
     6
100
AcDbLine
 10
806.5000000000001
 20
1598.01739062479
 30
0.0
 11
833.5000000000051
 21
1598.01739062479
 31
0.0
  0
LINE
  5
179
330
1F
100
AcDbEntity
  8
枠_表
  6
EXLTYPE2
 62
     6
100
AcDbLine
 10
806.4999999999997
 20
1598.017390624795
 30
0.0
 11
805.7500000000001
 21
1597.267390624795
 31
0.0
  0
CIRCLE
  5
17A
330
1F
100
AcDbEntity
  8
枠_表
  6
EXLTYPE2
 62
     6
100
AcDbCircle
 10
820.0000000000001
 20
1616.0
 30
0.0
 40
13.5
  0
LINE
  5
17B
330
1F
100
AcDbEntity
  8
枠_表
  6
EXLTYPE2
 62
     6
100
AcDbLine
 10
833.500000000001
 20
1598.017390624795
 30
0.0
 11
834.2500000000002
 21
1597.584377922903
 31
0.0
  0
LINE
  5
17C
330
1F
100
AcDbEntity
  8
枠_表
  6
EXLTYPE2
 62
     6
100
AcDbLine
 10
834.2500000000002
 20
1597.584377922903
 30
0.0
 11
834.2500000000002
 21
1583.69999999999
 31
0.0
  0
LINE
  5
17D
330
1F
100
AcDbEntity
  8
枠_表
  6
EXLTYPE2
 62
     6
100
AcDbLine
 10
805.7500000000001
 20
1597.267390624795
 30
0.0
 11
805.7500000000001
 21
1583.69999999999
 31
0.0
  0
LINE
  5
17E
330
1F
100
AcDbEntity
  8
枠_表
  6
EXLTYPE2
 62
     6
100
AcDbLine
 10
834.2500000000002
 20
1583.69999999999
 30
0.0
 11
831.5500000000101
 21
1581.0
 31
0.0
  0
LINE
  5
17F
330
1F
100
AcDbEntity
  8
枠_表
  6
EXLTYPE2
 62
     6
100
AcDbLine
 10
805.7499999999997
 20
1583.69999999999
 30
0.0
 11
808.4499999999897
 21
1581.0
 31
0.0
  0
LINE
  5
180
330
1F
100
AcDbEntity
  8
枠_表
  6
EXLTYPE2
 62
     6
100
AcDbLine
 10
808.4499999999897
 20
1581.0
 30
0.0
 11
831.5500000000101
 21
1581.0
 31
0.0
  0
LINE
  5
181
330
1F
100
AcDbEntity
  8
枠_表
  6
EXLTYPE2
 62
     6
100
AcDbLine
 10
809.5225000000002
 20
1638.00000000001
 30
0.0
 11
809.5225000000002
 21
1635.5
 31
0.0
  0
CIRCLE
  5
182
330
1F
100
AcDbEntity
  8
枠_表
  6
EXLTYPE2
 62
     6
100
AcDbCircle
 10
820.0000000000001
 20
1616.0
 30
0.0
 40
4.75
  0
LINE
  5
183
330
1F
100
AcDbEntity
  8
枠_表
  6
EXLTYPE2
 62
     6
100
AcDbLine
 10
833.4999999999999
 20
1634.5
 30
0.0
 11
833.4999999999999
 21
1598.01739062479
 31
0.0
  0
LINE
  5
184
330
1F
100
AcDbEntity
  8
枠_表
  6
EXLTYPE2
 62
     6
100
AcDbLine
 10
833.4999999999999
 20
1634.5
 30
0.0
 11
832.4999999999999
 21
1635.5
 31
0.0
  0
LINE
  5
185
330
1F
100
AcDbEntity
  8
枠_表
  6
EXLTYPE2
 62
     6
100
AcDbLine
 10
806.4999999999999
 20
1634.5
 30
0.0
 11
807.4999999999999
 21
1635.5
 31
0.0
  0
LINE
  5
186
330
1F
100
AcDbEntity
  8
枠_表
  6
EXLTYPE2
 62
     6
100
AcDbLine
 10
806.4999999999999
 20
1634.5
 30
0.0
 11
806.4999999999999
 21
1598.017390624795
 31
0.0
  0
LINE
  5
187
330
1F
100
AcDbEntity
  8
枠_表
  6
EXLTYPE2
 62
     6
100
AcDbLine
 10
832.4999999999999
 20
1635.5
 30
0.0
 11
807.4999999999999
 21
1635.5
 31
0.0
  0
LINE
  5
188
330
1F
100
AcDbEntity
  8
枠_表
  6
EXLTYPE2
 62
     6
100
AcDbLine
 10
830.4775000000001
 20
1638.00000000001
 30
0.0
 11
830.4775000000001
 21
1635.5
 31
0.0
  0
LINE
  5
189
330
1F
100
AcDbEntity
  8
枠_表
  6
EXLTYPE2
 62
     6
100
AcDbLine
 10
1008.5
 20
1638.00000000001
 30
0.0
 11
1008.5
 21
1650.00000000001
 31
0.0
  0
LINE
  5
18A
330
1F
100
AcDbEntity
  8
枠_表
  6
EXLTYPE2
 62
     6
100
AcDbLine
 10
1031.5
 20
1638.00000000001
 30
0.0
 11
1031.5
 21
1650.00000000001
 31
0.0
  0
LINE
  5
18B
330
1F
100
AcDbEntity
  8
枠_表
  6
EXLTYPE2
 62
     6
100
AcDbLine
 10
1008.5
 20
1650.00000000001
 30
0.0
 11
1031.5
 21
1650.00000000001
 31
0.0
  0
LINE
  5
18C
330
1F
100
AcDbEntity
  8
枠_表
  6
EXLTYPE2
 62
     6
100
AcDbLine
 10
1008.5
 20
1638.00000000001
 30
0.0
 11
1031.5
 21
1638.00000000001
 31
0.0
  0
LINE
  5
18D
330
1F
100
AcDbEntity
  8
枠_表
  6
EXLTYPE2
 62
     6
100
AcDbLine
 10
1006.5
 20
1598.01739062479
 30
0.0
 11
1033.500000000005
 21
1598.01739062479
 31
0.0
  0
LINE
  5
18E
330
1F
100
AcDbEntity
  8
枠_表
  6
EXLTYPE2
 62
     6
100
AcDbLine
 10
1006.5
 20
1598.017390624795
 30
0.0
 11
1005.75
 21
1597.267390624795
 31
0.0
  0
CIRCLE
  5
18F
330
1F
100
AcDbEntity
  8
枠_表
  6
EXLTYPE2
 62
     6
100
AcDbCircle
 10
1020.0
 20
1616.0
 30
0.0
 40
13.5
  0
LINE
  5
190
330
1F
100
AcDbEntity
  8
枠_表
  6
EXLTYPE2
 62
     6
100
AcDbLine
 10
1033.500000000001
 20
1598.017390624795
 30
0.0
 11
1034.25
 21
1597.584377922903
 31
0.0
  0
LINE
  5
191
330
1F
100
AcDbEntity
  8
枠_表
  6
EXLTYPE2
 62
     6
100
AcDbLine
 10
1034.25
 20
1597.584377922903
 30
0.0
 11
1034.25
 21
1583.69999999999
 31
0.0
  0
LINE
  5
192
330
1F
100
AcDbEntity
  8
枠_表
  6
EXLTYPE2
 62
     6
100
AcDbLine
 10
1005.75
 20
1597.267390624795
 30
0.0
 11
1005.75
 21
1583.69999999999
 31
0.0
  0
LINE
  5
193
330
1F
100
AcDbEntity
  8
枠_表
  6
EXLTYPE2
 62
     6
100
AcDbLine
 10
1034.25
 20
1583.69999999999
 30
0.0
 11
1031.55000000001
 21
1581.0
 31
0.0
  0
LINE
  5
194
330
1F
100
AcDbEntity
  8
枠_表
  6
EXLTYPE2
 62
     6
100
AcDbLine
 10
1005.75
 20
1583.69999999999
 30
0.0
 11
1008.44999999999
 21
1581.0
 31
0.0
  0
LINE
  5
195
330
1F
100
AcDbEntity
  8
枠_表
  6
EXLTYPE2
 62
     6
100
AcDbLine
 10
1008.44999999999
 20
1581.0
 30
0.0
 11
1031.55000000001
 21
1581.0
 31
0.0
  0
LINE
  5
196
330
1F
100
AcDbEntity
  8
枠_表
  6
EXLTYPE2
 62
     6
100
AcDbLine
 10
1009.5225
 20
1638.00000000001
 30
0.0
 11
1009.5225
 21
1635.5
 31
0.0
  0
CIRCLE
  5
197
330
1F
100
AcDbEntity
  8
枠_表
  6
EXLTYPE2
 62
     6
100
AcDbCircle
 10
1020.0
 20
1616.0
 30
0.0
 40
4.75
  0
LINE
  5
198
330
1F
100
AcDbEntity
  8
枠_表
  6
EXLTYPE2
 62
     6
100
AcDbLine
 10
1033.5
 20
1634.5
 30
0.0
 11
1033.5
 21
1598.01739062479
 31
0.0
  0
LINE
  5
199
330
1F
100
AcDbEntity
  8
枠_表
  6
EXLTYPE2
 62
     6
100
AcDbLine
 10
1033.5
 20
1634.5
 30
0.0
 11
1032.5
 21
1635.5
 31
0.0
  0
LINE
  5
19A
330
1F
100
AcDbEntity
  8
枠_表
  6
EXLTYPE2
 62
     6
100
AcDbLine
 10
1006.5
 20
1634.5
 30
0.0
 11
1007.5
 21
1635.5
 31
0.0
  0
LINE
  5
19B
330
1F
100
AcDbEntity
  8
枠_表
  6
EXLTYPE2
 62
     6
100
AcDbLine
 10
1006.5
 20
1634.5
 30
0.0
 11
1006.5
 21
1598.017390624795
 31
0.0
  0
LINE
  5
19C
330
1F
100
AcDbEntity
  8
枠_表
  6
EXLTYPE2
 62
     6
100
AcDbLine
 10
1032.5
 20
1635.5
 30
0.0
 11
1007.5
 21
1635.5
 31
0.0
  0
LINE
  5
19D
330
1F
100
AcDbEntity
  8
枠_表
  6
EXLTYPE2
 62
     6
100
AcDbLine
 10
1030.4775
 20
1638.00000000001
 30
0.0
 11
1030.4775
 21
1635.5
 31
0.0
  0
LINE
  5
19E
330
1F
100
AcDbEntity
  8
枠_表
  6
EXLTYPE2
 62
     6
100
AcDbLine
 10
2393.500000000001
 20
1598.01739062479
 30
0.0
 11
2366.500000000001
 21
1598.01739062479
 31
0.0
  0
LINE
  5
19F
330
1F
100
AcDbEntity
  8
枠_表
  6
EXLTYPE2
 62
     6
100
AcDbLine
 10
2363.500000000001
 20
1629.500000000005
 30
0.0
 11
2348.000000000001
 21
1629.500000000005
 31
0.0
  0
LINE
  5
1A0
330
1F
100
AcDbEntity
  8
枠_表
  6
EXLTYPE2
 62
     6
100
AcDbLine
 10
2348.000000000001
 20
1629.500000000005
 30
0.0
 11
2347.000000000001
 21
1628.500000000005
 31
0.0
  0
LINE
  5
1A1
330
1F
100
AcDbEntity
  8
枠_表
  6
EXLTYPE2
 62
     6
100
AcDbLine
 10
2347.000000000001
 20
1603.499999999995
 30
0.0
 11
2348.000000000001
 21
1602.499999999995
 31
0.0
  0
LINE
  5
1A2
330
1F
100
AcDbEntity
  8
枠_表
  6
EXLTYPE2
 62
     6
100
AcDbLine
 10
2363.500000000001
 20
1602.499999999995
 30
0.0
 11
2348.000000000001
 21
1602.499999999995
 31
0.0
  0
ARC
  5
1A3
330
1F
100
AcDbEntity
  8
枠_表
  6
EXLTYPE2
 62
     6
100
AcDbCircle
 10
2363.500000000001
 20
1599.499999999995
 30
0.0
 40
3.0
100
AcDbArc
 50
0.0
 51
90.00000000000001
  0
LINE
  5
1A4
330
1F
100
AcDbEntity
  8
枠_表
  6
EXLTYPE2
 62
     6
100
AcDbLine
 10
2347.000000000001
 20
1628.500000000005
 30
0.0
 11
2347.000000000001
 21
1603.499999999995
 31
0.0
  0
ARC
  5
1A5
330
1F
100
AcDbEntity
  8
枠_表
  6
EXLTYPE2
 62
     6
100
AcDbCircle
 10
2363.500000000001
 20
1632.500000000005
 30
0.0
 40
3.0
100
AcDbArc
 50
270.0
 51
0.0
  0
LINE
  5
1A6
330
1F
100
AcDbEntity
  8
枠_表
  6
EXLTYPE2
 62
     6
100
AcDbLine
 10
2366.500000000001
 20
1598.01739062479
 30
0.0
 11
2366.500000000001
 21
1599.499999999995
 31
0.0
  0
LINE
  5
1A7
330
1F
100
AcDbEntity
  8
枠_表
  6
EXLTYPE2
 62
     6
100
AcDbLine
 10
2366.5
 20
1598.017390624795
 30
0.0
 11
2363.550000000001
 21
1596.314207330686
 31
0.0
  0
LINE
  5
1A8
330
1F
100
AcDbEntity
  8
枠_表
  6
EXLTYPE2
 62
     6
100
AcDbLine
 10
2393.500000000002
 20
1598.017390624795
 30
0.0
 11
2396.450000000001
 21
1596.314207330686
 31
0.0
  0
LINE
  5
1A9
330
1F
100
AcDbEntity
  8
枠_表
  6
EXLTYPE2
 62
     6
100
AcDbLine
 10
2393.750000000001
 20
1581.0
 30
0.0
 11
2366.24999999999
 21
1581.0
 31
0.0
  0
LINE
  5
1AA
330
1F
100
AcDbEntity
  8
枠_表
  6
EXLTYPE2
 62
     6
100
AcDbLine
 10
2363.550000000001
 20
1583.69999999999
 30
0.0
 11
2363.550000000001
 21
1596.31420733069
 31
0.0
  0
LINE
  5
1AB
330
1F
100
AcDbEntity
  8
枠_表
  6
EXLTYPE2
 62
     6
100
AcDbLine
 10
2396.450000000001
 20
1583.69999999999
 30
0.0
 11
2396.450000000001
 21
1596.31420733069
 31
0.0
  0
LINE
  5
1AC
330
1F
100
AcDbEntity
  8
枠_表
  6
EXLTYPE2
 62
     6
100
AcDbLine
 10
2393.750000000011
 20
1581.0
 30
0.0
 11
2396.450000000001
 21
1583.69999999999
 31
0.0
  0
LINE
  5
1AD
330
1F
100
AcDbEntity
  8
枠_表
  6
EXLTYPE2
 62
     6
100
AcDbLine
 10
2366.249999999991
 20
1581.0
 30
0.0
 11
2363.550000000001
 21
1583.69999999999
 31
0.0
  0
LINE
  5
1AE
330
1F
100
AcDbEntity
  8
枠_表
  6
EXLTYPE2
 62
     6
100
AcDbLine
 10
2343.400000000001
 20
1615.0
 30
0.0
 11
2346.400000000001
 21
1615.0
 31
0.0
  0
LINE
  5
1AF
330
1F
100
AcDbEntity
  8
枠_表
  6
EXLTYPE2
 62
     6
100
AcDbLine
 10
2343.400000000001
 20
1617.0
 30
0.0
 11
2346.400000000001
 21
1617.0
 31
0.0
  0
LINE
  5
1B0
330
1F
100
AcDbEntity
  8
枠_表
  6
EXLTYPE2
 62
     6
100
AcDbLine
 10
2346.400000000001
 20
1617.0
 30
0.0
 11
2346.400000000001
 21
1615.0
 31
0.0
  0
ARC
  5
1B1
330
1F
100
AcDbEntity
  8
枠_表
  6
EXLTYPE2
 62
     6
100
AcDbCircle
 10
2378.410714285701
 20
1644.00000000001
 30
0.0
 40
11.16071428571
100
AcDbArc
 50
147.4795905833799
 51
212.5204094166
  0
LINE
  5
1B2
330
1F
100
AcDbEntity
  8
枠_表
  6
EXLTYPE2
 62
     6
100
AcDbLine
 10
2391.00000000001
 20
1650.00000000001
 30
0.0
 11
2369.000000000001
 21
1650.00000000001
 31
0.0
  0
ARC
  5
1B3
330
1F
100
AcDbEntity
  8
枠_表
  6
EXLTYPE2
 62
     6
100
AcDbCircle
 10
2381.589285714301
 20
1644.00000000001
 30
0.0
 40
11.16071428571
100
AcDbArc
 50
327.4795905834
 51
32.52040941659907
  0
LINE
  5
1B4
330
1F
100
AcDbEntity
  8
枠_表
  6
EXLTYPE2
 62
     6
100
AcDbLine
 10
2391.000000000011
 20
1638.00000000001
 30
0.0
 11
2368.999999999991
 21
1638.00000000001
 31
0.0
  0
LINE
  5
1B5
330
1F
100
AcDbEntity
  8
枠_表
  6
EXLTYPE2
 62
     6
100
AcDbLine
 10
2369.522500000001
 20
1638.00000000001
 30
0.0
 11
2369.522500000001
 21
1635.5
 31
0.0
  0
LINE
  5
1B6
330
1F
100
AcDbEntity
  8
枠_表
  6
EXLTYPE2
 62
     6
100
AcDbLine
 10
2390.477500000001
 20
1638.00000000001
 30
0.0
 11
2390.477500000001
 21
1635.5
 31
0.0
  0
LINE
  5
1B7
330
1F
100
AcDbEntity
  8
枠_表
  6
EXLTYPE2
 62
     6
100
AcDbLine
 10
2347.000000000001
 20
1611.25
 30
0.0
 11
2344.400000000001
 21
1611.25
 31
0.0
  0
LINE
  5
1B8
330
1F
100
AcDbEntity
  8
枠_表
  6
EXLTYPE2
 62
     6
100
AcDbLine
 10
2344.400000000001
 20
1611.25
 30
0.0
 11
2343.400000000001
 21
1612.25
 31
0.0
  0
LINE
  5
1B9
330
1F
100
AcDbEntity
  8
枠_表
  6
EXLTYPE2
 62
     6
100
AcDbLine
 10
2347.000000000001
 20
1620.75
 30
0.0
 11
2344.400000000001
 21
1620.75
 31
0.0
  0
LINE
  5
1BA
330
1F
100
AcDbEntity
  8
枠_表
  6
EXLTYPE2
 62
     6
100
AcDbLine
 10
2344.400000000001
 20
1620.75
 30
0.0
 11
2343.400000000001
 21
1619.75
 31
0.0
  0
LINE
  5
1BB
330
1F
100
AcDbEntity
  8
枠_表
  6
EXLTYPE2
 62
     6
100
AcDbLine
 10
2343.400000000001
 20
1617.0
 30
0.0
 11
2343.400000000001
 21
1619.75
 31
0.0
  0
LINE
  5
1BC
330
1F
100
AcDbEntity
  8
枠_表
  6
EXLTYPE2
 62
     6
100
AcDbLine
 10
2343.400000000001
 20
1615.0
 30
0.0
 11
2343.400000000001
 21
1612.25
 31
0.0
  0
LINE
  5
1BD
330
1F
100
AcDbEntity
  8
枠_表
  6
EXLTYPE2
 62
     6
100
AcDbLine
 10
2367.500000000001
 20
1635.5
 30
0.0
 11
2366.500000000001
 21
1634.5
 31
0.0
  0
LINE
  5
1BE
330
1F
100
AcDbEntity
  8
枠_表
  6
EXLTYPE2
 62
     6
100
AcDbLine
 10
2366.500000000001
 20
1632.500000000005
 30
0.0
 11
2366.500000000001
 21
1634.5
 31
0.0
  0
LINE
  5
1BF
330
1F
100
AcDbEntity
  8
枠_表
  6
EXLTYPE2
 62
     6
100
AcDbLine
 10
2392.500000000001
 20
1635.5
 30
0.0
 11
2393.500000000001
 21
1634.5
 31
0.0
  0
LINE
  5
1C0
330
1F
100
AcDbEntity
  8
枠_表
  6
EXLTYPE2
 62
     6
100
AcDbLine
 10
2392.500000000001
 20
1635.5
 30
0.0
 11
2367.500000000001
 21
1635.5
 31
0.0
  0
LINE
  5
1C1
330
1F
100
AcDbEntity
  8
枠_表
  6
EXLTYPE2
 62
     6
100
AcDbLine
 10
2393.500000000001
 20
1634.5
 30
0.0
 11
2393.500000000001
 21
1598.017390624795
 31
0.0
  0
TEXT
  5
1C2
330
1F
100
AcDbEntity
  8
枠_表
  6
CONTINUOUS
 62
     2
100
AcDbText
 10
1384.499997496661
 20
367.5000038146975
 30
0.0
 40
74.99999237060547
  1
洗面化粧ユニット
 41
1.02468084735194
  7
EXCADSTD
 72
     5
 11
1900.499943137225
 21
367.5000038146975
 31
0.0
100
AcDbText
  0
TEXT
  5
1C3
330
1F
100
AcDbEntity
  8
枠_表
  6
CONTINUOUS
 62
     2
100
AcDbText
 10
1215.000000000002
 20
450.0000019073489
 30
0.0
 40
59.99999618530273
  1
７５０ｍｍ幅
 41
0.9999999872843416
  7
EXCADSTD
 72
     5
 11
1514.999977111818
 21
450.0000019073489
 31
0.0
100
AcDbText
  0
LINE
  5
1C4
330
1F
100
AcDbEntity
  8
化粧台
  6
CONTINUOUS
 62
     2
100
AcDbLine
 10
544.9999999999975
 20
3575.5
 30
0.0
 11
544.9999999999957
 21
3125.098404563018
 31
0.0
  0
LINE
  5
1C5
330
1F
100
AcDbEntity
  8
化粧台
  6
CONTINUOUS
 62
     2
100
AcDbLine
 10
1294.999999999993
 20
3575.5
 30
0.0
 11
1294.999999999993
 21
3125.098404563018
 31
0.0
  0
ARC
  5
1C6
330
1F
100
AcDbEntity
  8
化粧台
  6
CONTINUOUS
 62
     2
100
AcDbCircle
 10
549.9999999999957
 20
3125.098404563018
 30
0.0
 40
5.0
100
AcDbArc
 50
180.0
 51
262.3928982892142
  0
ARC
  5
1C7
330
1F
100
AcDbEntity
  8
化粧台
  6
CONTINUOUS
 62
     2
100
AcDbCircle
 10
919.9999999999975
 20
5895.500000000042
 30
0.0
 40
2800.0
100
AcDbArc
 50
262.3928982892142
 51
277.607101710786
  0
ARC
  5
1C8
330
1F
100
AcDbEntity
  8
化粧台
  6
CONTINUOUS
 62
     2
100
AcDbCircle
 10
1289.999999999993
 20
3125.098404563018
 30
0.0
 40
5.0
100
AcDbArc
 50
277.6071017107856
 51
0.0
  0
ARC
  5
1C9
330
1F
100
AcDbEntity
  8
化粧台
  6
CONTINUOUS
 62
     2
100
AcDbCircle
 10
919.9999999999975
 20
5895.499999999976
 30
0.0
 40
2755.0
100
AcDbArc
 50
263.3054888682067
 51
276.6945111317933
  0
LINE
  5
1CA
330
1F
100
AcDbEntity
  8
化粧台
  6
CONTINUOUS
 62
     7
100
AcDbLine
 10
332.9999999999976
 20
3575.5
 30
0.0
 11
1592.999999999991
 21
3575.5
 31
0.0
  0
LINE
  5
1CB
330
1F
100
AcDbEntity
  8
化粧台
  6
CONTINUOUS
 62
     2
100
AcDbLine
 10
576.4999999999975
 20
1931.000000000001
 30
0.0
 11
576.4999999999975
 21
1916.000000000001
 31
0.0
  0
LINE
  5
1CC
330
1F
100
AcDbEntity
  8
化粧台
  6
CONTINUOUS
 62
     2
100
AcDbLine
 10
1263.499999999993
 20
1931.000000000001
 30
0.0
 11
1263.499999999993
 21
1916.000000000001
 31
0.0
  0
LINE
  5
1CD
330
1F
100
AcDbEntity
  8
化粧台
  6
CONTINUOUS
 62
     2
100
AcDbLine
 10
1274.999999999989
 20
1916.000000000001
 30
0.0
 11
1274.999999999989
 21
1361.000000000001
 31
0.0
  0
LINE
  5
1CE
330
1F
100
AcDbEntity
  8
化粧台
  6
CONTINUOUS
 62
     2
100
AcDbLine
 10
920.9999999999939
 20
1916.000000000001
 30
0.0
 11
920.9999999999939
 21
1361.000000000001
 31
0.0
  0
LINE
  5
1CF
330
1F
100
AcDbEntity
  8
化粧台
  6
CONTINUOUS
 62
     2
100
AcDbLine
 10
918.9999999999975
 20
1916.000000000001
 30
0.0
 11
918.9999999999975
 21
1361.000000000001
 31
0.0
  0
LINE
  5
1D0
330
1F
100
AcDbEntity
  8
化粧台
  6
CONTINUOUS
 62
     2
100
AcDbLine
 10
564.9999999999975
 20
1916.000000000001
 30
0.0
 11
564.9999999999975
 21
1361.000000000001
 31
0.0
  0
LINE
  5
1D1
330
1F
100
AcDbEntity
  8
化粧台
  6
CONTINUOUS
 62
     2
100
AcDbLine
 10
920.9999999999939
 20
1916.000000000001
 30
0.0
 11
1274.999999999989
 21
1916.000000000001
 31
0.0
  0
LINE
  5
1D2
330
1F
100
AcDbEntity
  8
化粧台
  6
CONTINUOUS
 62
     2
100
AcDbLine
 10
918.9999999999975
 20
1916.000000000001
 30
0.0
 11
564.9999999999975
 21
1916.000000000001
 31
0.0
  0
LINE
  5
1D3
330
1F
100
AcDbEntity
  8
化粧台
  6
EXLTYPE2
 62
     2
100
AcDbLine
 10
952.1371602270813
 20
1856.000000000001
 30
0.0
 11
887.8628397729092
 21
1856.000000000001
 31
0.0
  0
LINE
  5
1D4
330
1F
100
AcDbEntity
  8
化粧台
  6
EXLTYPE2
 62
     2
100
AcDbLine
 10
1231.021587567699
 20
1879.853758920149
 30
0.0
 11
1236.923076923067
 21
1931.000000000001
 31
0.0
  0
ARC
  5
1D5
330
1F
100
AcDbEntity
  8
化粧台
  6
EXLTYPE2
 62
     2
100
AcDbCircle
 10
1221.087498208988
 20
1881.000000000001
 30
0.0
 40
10.0
100
AcDbArc
 50
270.0000000000002
 51
353.4180553448222
  0
LINE
  5
1D6
330
1F
100
AcDbEntity
  8
化粧台
  6
EXLTYPE2
 62
     2
100
AcDbLine
 10
1166.930004681643
 20
1871.000000000001
 30
0.0
 11
1221.087498208988
 21
1871.000000000001
 31
0.0
  0
ARC
  5
1D7
330
1F
100
AcDbEntity
  8
化粧台
  6
EXLTYPE2
 62
     2
100
AcDbCircle
 10
1166.930004681643
 20
1881.000000000001
 30
0.0
 40
10.0
100
AcDbArc
 50
200.5560452195829
 51
270.0000000000002
  0
LINE
  5
1D8
330
1F
100
AcDbEntity
  8
化粧台
  6
EXLTYPE2
 62
     2
100
AcDbLine
 10
1157.566712905951
 20
1877.488765584117
 30
0.0
 11
1137.499999999993
 21
1931.000000000001
 31
0.0
  0
ARC
  5
1D9
330
1F
100
AcDbEntity
  8
化粧台
  6
EXLTYPE2
 62
     2
100
AcDbCircle
 10
910.0832538036532
 20
2501.89511543961
 30
0.0
 40
609.0
100
AcDbArc
 50
280.0000000000025
 51
290.3755908643894
  0
LINE
  5
1DA
330
1F
100
AcDbEntity
  8
化粧台
  6
EXLTYPE2
 62
     2
100
AcDbLine
 10
967.9648445834904
 20
1893.706394942002
 30
0.0
 11
1015.834994002842
 21
1902.147193855181
 31
0.0
  0
ARC
  5
1DB
330
1F
100
AcDbEntity
  8
化粧台
  6
EXLTYPE2
 62
     2
100
AcDbCircle
 10
969.5276781824945
 20
1884.843125164892
 30
0.0
 40
9.0
100
AcDbArc
 50
100.0000000000024
 51
172.2138167733558
  0
LINE
  5
1DC
330
1F
100
AcDbEntity
  8
化粧台
  6
EXLTYPE2
 62
     2
100
AcDbLine
 10
960.6106533294407
 20
1886.062415027897
 30
0.0
 11
957.0910629232205
 21
1860.322616742776
 31
0.0
  0
ARC
  5
1DD
330
1F
100
AcDbEntity
  8
化粧台
  6
EXLTYPE2
 62
     2
100
AcDbCircle
 10
952.1371602270776
 20
1861.000000000001
 30
0.0
 40
5.0
100
AcDbArc
 50
270.0000000000002
 51
352.2138167733555
  0
ARC
  5
1DE
330
1F
100
AcDbEntity
  8
化粧台
  6
EXLTYPE2
 62
     2
100
AcDbCircle
 10
887.8628397729092
 20
1861.000000000001
 30
0.0
 40
5.0
100
AcDbArc
 50
187.7861832266448
 51
270.0000000000002
  0
LINE
  5
1DF
330
1F
100
AcDbEntity
  8
化粧台
  6
EXLTYPE2
 62
     2
100
AcDbLine
 10
879.3893466705497
 20
1886.062415027897
 30
0.0
 11
882.9089370767699
 21
1860.322616742776
 31
0.0
  0
ARC
  5
1E0
330
1F
100
AcDbEntity
  8
化粧台
  6
EXLTYPE2
 62
     2
100
AcDbCircle
 10
870.4723218174961
 20
1884.843125164892
 30
0.0
 40
9.0
100
AcDbArc
 50
7.786183226645566
 51
79.99999999999739
  0
LINE
  5
1E1
330
1F
100
AcDbEntity
  8
化粧台
  6
EXLTYPE2
 62
     2
100
AcDbLine
 10
872.0351554165002
 20
1893.706394942002
 30
0.0
 11
824.1650059971482
 21
1902.147193855181
 31
0.0
  0
ARC
  5
1E2
330
1F
100
AcDbEntity
  8
化粧台
  6
EXLTYPE2
 62
     2
100
AcDbCircle
 10
929.9167461963382
 20
2501.89511543961
 30
0.0
 40
609.0
100
AcDbArc
 50
249.6244091356107
 51
259.9999999999976
  0
LINE
  5
1E3
330
1F
100
AcDbEntity
  8
化粧台
  6
EXLTYPE2
 62
     2
100
AcDbLine
 10
682.4332870940391
 20
1877.488765584117
 30
0.0
 11
702.4999999999939
 21
1931.000000000001
 31
0.0
  0
ARC
  5
1E4
330
1F
100
AcDbEntity
  8
化粧台
  6
EXLTYPE2
 62
     2
100
AcDbCircle
 10
673.0699953183478
 20
1881.000000000001
 30
0.0
 40
10.0
100
AcDbArc
 50
270.0000000000002
 51
339.443954780416
  0
LINE
  5
1E5
330
1F
100
AcDbEntity
  8
化粧台
  6
EXLTYPE2
 62
     2
100
AcDbLine
 10
673.0699953183478
 20
1871.000000000001
 30
0.0
 11
618.9125017909967
 21
1871.000000000001
 31
0.0
  0
ARC
  5
1E6
330
1F
100
AcDbEntity
  8
化粧台
  6
EXLTYPE2
 62
     2
100
AcDbCircle
 10
618.9125017909967
 20
1881.000000000001
 30
0.0
 40
10.0
100
AcDbArc
 50
186.581944655178
 51
270.0000000000002
  0
LINE
  5
1E7
330
1F
100
AcDbEntity
  8
化粧台
  6
EXLTYPE2
 62
     2
100
AcDbLine
 10
608.9784124322844
 20
1879.853758920149
 30
0.0
 11
603.0769230769195
 21
1931.000000000001
 31
0.0
  0
LINE
  5
1E8
330
1F
100
AcDbEntity
  8
化粧台
  6
CONTINUOUS
 62
     2
100
AcDbLine
 10
561.4999999999975
 20
1931.000000000001
 30
0.0
 11
561.4999999999975
 21
1266.000000000001
 31
0.0
  0
LINE
  5
1E9
330
1F
100
AcDbEntity
  8
化粧台
  6
CONTINUOUS
 62
     2
100
AcDbLine
 10
1278.499999999993
 20
1931.000000000001
 30
0.0
 11
1278.499999999993
 21
1266.000000000001
 31
0.0
  0
LINE
  5
1EA
330
1F
100
AcDbEntity
  8
化粧台
  6
CONTINUOUS
 62
     2
100
AcDbLine
 10
1287.118616470874
 20
1931.000000000001
 30
0.0
 11
552.8813835291123
 21
1931.000000000001
 31
0.0
  0
ARC
  5
1EB
330
1F
100
AcDbEntity
  8
化粧台
  6
CONTINUOUS
 62
     2
100
AcDbCircle
 10
1289.759884705898
 20
2046.000000000001
 30
0.0
 40
5.0
100
AcDbArc
 50
358.6245050134004
 51
91.54944573611778
  0
ARC
  5
1EC
330
1F
100
AcDbEntity
  8
化粧台
  6
CONTINUOUS
 62
     2
100
AcDbCircle
 10
1287.118616470874
 20
1936.000000000001
 30
0.0
 40
5.0
100
AcDbArc
 50
270.0000000000002
 51
358.6245050134004
  0
ARC
  5
1ED
330
1F
100
AcDbEntity
  8
化粧台
  6
CONTINUOUS
 62
     2
100
AcDbCircle
 10
1289.999999999989
 20
2056.000000000001
 30
0.0
 40
5.0
100
AcDbArc
 50
358.6245050134004
 51
90.00000000000001
  0
LINE
  5
1EE
330
1F
100
AcDbEntity
  8
化粧台
  6
CONTINUOUS
 62
     2
100
AcDbLine
 10
1294.998559239106
 20
2055.879976947826
 30
0.0
 11
1292.117175709988
 21
1935.8799769478
 31
0.0
  0
ARC
  5
1EF
330
1F
100
AcDbEntity
  8
化粧台
  6
CONTINUOUS
 62
     2
100
AcDbCircle
 10
550.2401152940886
 20
2046.000000000001
 30
0.0
 40
5.0
100
AcDbArc
 50
88.45055426388221
 51
181.3754949865997
  0
ARC
  5
1F0
330
1F
100
AcDbEntity
  8
化粧台
  6
CONTINUOUS
 62
     2
100
AcDbCircle
 10
552.8813835291123
 20
1936.000000000001
 30
0.0
 40
5.0
100
AcDbArc
 50
181.3754949865997
 51
270.0000000000002
  0
ARC
  5
1F1
330
1F
100
AcDbEntity
  8
化粧台
  6
CONTINUOUS
 62
     2
100
AcDbCircle
 10
549.9999999999975
 20
2056.000000000001
 30
0.0
 40
5.0
100
AcDbArc
 50
90.00000000000001
 51
181.3754949865997
  0
LINE
  5
1F2
330
1F
100
AcDbEntity
  8
化粧台
  6
CONTINUOUS
 62
     2
100
AcDbLine
 10
545.0014407608808
 20
2055.879976947826
 30
0.0
 11
547.8828242899956
 21
1935.8799769478
 31
0.0
  0
LINE
  5
1F3
330
1F
100
AcDbEntity
  8
化粧台
  6
CONTINUOUS
 62
     2
100
AcDbLine
 10
1263.499999999993
 20
1356.250000000001
 30
0.0
 11
576.4999999999975
 21
1356.250000000001
 31
0.0
  0
LINE
  5
1F4
330
1F
100
AcDbEntity
  8
化粧台
  6
CONTINUOUS
 62
     2
100
AcDbLine
 10
1263.499999999993
 20
1270.000000000001
 30
0.0
 11
576.4999999999975
 21
1270.000000000001
 31
0.0
  0
LINE
  5
1F5
330
1F
100
AcDbEntity
  8
化粧台
  6
CONTINUOUS
 62
     2
100
AcDbLine
 10
576.4999999999975
 20
1361.000000000001
 30
0.0
 11
576.4999999999975
 21
1266.000000000001
 31
0.0
  0
LINE
  5
1F6
330
1F
100
AcDbEntity
  8
化粧台
  6
CONTINUOUS
 62
     2
100
AcDbLine
 10
918.9999999999975
 20
1361.000000000001
 30
0.0
 11
564.9999999999975
 21
1361.000000000001
 31
0.0
  0
LINE
  5
1F7
330
1F
100
AcDbEntity
  8
化粧台
  6
CONTINUOUS
 62
     2
100
AcDbLine
 10
576.4999999999975
 20
1269.500000000001
 30
0.0
 11
561.4999999999975
 21
1269.500000000001
 31
0.0
  0
LINE
  5
1F8
330
1F
100
AcDbEntity
  8
化粧台
  6
CONTINUOUS
 62
     2
100
AcDbLine
 10
1263.499999999993
 20
1361.000000000001
 30
0.0
 11
1263.499999999993
 21
1266.000000000001
 31
0.0
  0
LINE
  5
1F9
330
1F
100
AcDbEntity
  8
化粧台
  6
CONTINUOUS
 62
     2
100
AcDbLine
 10
920.9999999999939
 20
1361.000000000001
 30
0.0
 11
1274.999999999989
 21
1361.000000000001
 31
0.0
  0
LINE
  5
1FA
330
1F
100
AcDbEntity
  8
化粧台
  6
CONTINUOUS
 62
     2
100
AcDbLine
 10
1263.499999999993
 20
1269.500000000001
 30
0.0
 11
1278.499999999993
 21
1269.500000000001
 31
0.0
  0
LINE
  5
1FB
330
1F
100
AcDbEntity
  8
化粧台
  6
CONTINUOUS
 62
     2
100
AcDbLine
 10
941.4999999999957
 20
1864.500000000012
 30
0.0
 11
1046.499999999995
 21
1864.500000000012
 31
0.0
  0
LINE
  5
1FC
330
1F
100
AcDbEntity
  8
化粧台
  6
CONTINUOUS
 62
     2
100
AcDbLine
 10
941.4999999999957
 20
1877.500000000012
 30
0.0
 11
1046.499999999995
 21
1877.500000000012
 31
0.0
  0
LINE
  5
1FD
330
1F
100
AcDbEntity
  8
化粧台
  6
CONTINUOUS
 62
     2
100
AcDbLine
 10
941.4999999999957
 20
1864.500000000012
 30
0.0
 11
941.4999999999957
 21
1877.500000000012
 31
0.0
  0
LINE
  5
1FE
330
1F
100
AcDbEntity
  8
化粧台
  6
CONTINUOUS
 62
     2
100
AcDbLine
 10
1046.499999999995
 20
1864.500000000012
 30
0.0
 11
1046.499999999995
 21
1877.500000000012
 31
0.0
  0
LINE
  5
1FF
330
1F
100
AcDbEntity
  8
化粧台
  6
CONTINUOUS
 62
     2
100
AcDbLine
 10
944.9999999999957
 20
1864.500000000012
 30
0.0
 11
944.9999999999957
 21
1877.500000000012
 31
0.0
  0
LINE
  5
200
330
1F
100
AcDbEntity
  8
化粧台
  6
CONTINUOUS
 62
     2
100
AcDbLine
 10
1042.999999999995
 20
1864.500000000012
 30
0.0
 11
1042.999999999995
 21
1877.500000000012
 31
0.0
  0
LINE
  5
201
330
1F
100
AcDbEntity
  8
化粧台
  6
CONTINUOUS
 62
     2
100
AcDbLine
 10
898.4999999999939
 20
1864.500000000012
 30
0.0
 11
793.4999999999939
 21
1864.500000000012
 31
0.0
  0
LINE
  5
202
330
1F
100
AcDbEntity
  8
化粧台
  6
CONTINUOUS
 62
     2
100
AcDbLine
 10
898.4999999999939
 20
1877.500000000012
 30
0.0
 11
793.4999999999939
 21
1877.500000000012
 31
0.0
  0
LINE
  5
203
330
1F
100
AcDbEntity
  8
化粧台
  6
CONTINUOUS
 62
     2
100
AcDbLine
 10
898.4999999999939
 20
1864.500000000012
 30
0.0
 11
898.4999999999939
 21
1877.500000000012
 31
0.0
  0
LINE
  5
204
330
1F
100
AcDbEntity
  8
化粧台
  6
CONTINUOUS
 62
     2
100
AcDbLine
 10
793.4999999999939
 20
1864.500000000012
 30
0.0
 11
793.4999999999939
 21
1877.500000000012
 31
0.0
  0
LINE
  5
205
330
1F
100
AcDbEntity
  8
化粧台
  6
CONTINUOUS
 62
     2
100
AcDbLine
 10
894.9999999999939
 20
1864.500000000012
 30
0.0
 11
894.9999999999939
 21
1877.500000000012
 31
0.0
  0
LINE
  5
206
330
1F
100
AcDbEntity
  8
化粧台
  6
CONTINUOUS
 62
     2
100
AcDbLine
 10
796.9999999999939
 20
1864.500000000012
 30
0.0
 11
796.9999999999939
 21
1877.500000000012
 31
0.0
  0
LINE
  5
207
330
1F
100
AcDbEntity
  8
化粧台
  6
CONTINUOUS
 62
     2
100
AcDbLine
 10
2057.999999999996
 20
1916.000000000001
 30
0.0
 11
2057.999999999996
 21
1361.000000000001
 31
0.0
  0
LINE
  5
208
330
1F
100
AcDbEntity
  8
化粧台
  6
CONTINUOUS
 62
     2
100
AcDbLine
 10
2072.999999999996
 20
1916.000000000001
 30
0.0
 11
2072.999999999996
 21
1361.000000000001
 31
0.0
  0
LINE
  5
209
330
1F
100
AcDbEntity
  8
化粧台
  6
CONTINUOUS
 62
     2
100
AcDbLine
 10
2072.999999999996
 20
1916.000000000001
 30
0.0
 11
2057.999999999996
 21
1916.000000000001
 31
0.0
  0
LINE
  5
20A
330
1F
100
AcDbEntity
  8
化粧台
  6
CONTINUOUS
 62
     2
100
AcDbLine
 10
2464.999999999998
 20
1851.000000000001
 30
0.0
 11
2464.999999999998
 21
1811.000000000001
 31
0.0
  0
LINE
  5
20B
330
1F
100
AcDbEntity
  8
化粧台
  6
CONTINUOUS
 62
     2
100
AcDbLine
 10
2072.999999999996
 20
1361.000000000001
 30
0.0
 11
2057.999999999996
 21
1361.000000000001
 31
0.0
  0
LINE
  5
20C
330
1F
100
AcDbEntity
  8
化粧台
  6
CONTINUOUS
 62
     2
100
AcDbLine
 10
2416.749999999998
 20
1266.000000000001
 30
0.0
 11
2416.749999999998
 21
1269.500000000001
 31
0.0
  0
LINE
  5
20D
330
1F
100
AcDbEntity
  8
化粧台
  6
CONTINUOUS
 62
     2
100
AcDbLine
 10
2403.249999999998
 20
1266.000000000001
 30
0.0
 11
2403.249999999998
 21
1269.500000000001
 31
0.0
  0
LINE
  5
20E
330
1F
100
AcDbEntity
  8
化粧台
  6
CONTINUOUS
 62
     2
100
AcDbLine
 10
2136.749999999996
 20
1266.000000000001
 30
0.0
 11
2136.749999999996
 21
1269.500000000001
 31
0.0
  0
LINE
  5
20F
330
1F
100
AcDbEntity
  8
化粧台
  6
CONTINUOUS
 62
     2
100
AcDbLine
 10
2123.249999999996
 20
1266.000000000001
 30
0.0
 11
2123.249999999996
 21
1269.500000000001
 31
0.0
  0
LINE
  5
210
330
1F
100
AcDbEntity
  8
化粧台
  6
CONTINUOUS
 62
     2
100
AcDbLine
 10
2032.999999999983
 20
1877.500000000001
 30
0.0
 11
2057.999999999985
 21
1877.500000000001
 31
0.0
  0
LINE
  5
211
330
1F
100
AcDbEntity
  8
化粧台
  6
CONTINUOUS
 62
     2
100
AcDbLine
 10
2032.999999999983
 20
1864.500000000001
 30
0.0
 11
2032.999999999983
 21
1877.500000000001
 31
0.0
  0
LINE
  5
212
330
1F
100
AcDbEntity
  8
化粧台
  6
CONTINUOUS
 62
     2
100
AcDbLine
 10
2032.999999999983
 20
1864.500000000001
 30
0.0
 11
2057.999999999985
 21
1864.500000000001
 31
0.0
  0
LINE
  5
213
330
1F
100
AcDbEntity
  8
化粧台
  6
CONTINUOUS
 62
     2
100
AcDbLine
 10
2039.999999999983
 20
1864.500000000001
 30
0.0
 11
2039.999999999983
 21
1877.500000000001
 31
0.0
  0
LINE
  5
214
330
1F
100
AcDbEntity
  8
化粧台
  6
CONTINUOUS
 62
     2
100
AcDbLine
 10
2074.999999999996
 20
1269.500000000001
 30
0.0
 11
2464.999999999998
 21
1269.500000000001
 31
0.0
  0
ARC
  5
215
330
1F
100
AcDbEntity
  8
化粧台
  6
CONTINUOUS
 62
     2
100
AcDbCircle
 10
2064.999999999996
 20
1936.000000000001
 30
0.0
 40
5.0
100
AcDbArc
 50
270.0000000000002
 51
0.0000000000000573
  0
LINE
  5
216
330
1F
100
AcDbEntity
  8
化粧台
  6
CONTINUOUS
 62
     2
100
AcDbLine
 10
2464.999999999998
 20
2061.000000000001
 30
0.0
 11
2445.38516480713
 21
2061.000000000001
 31
0.0
  0
ARC
  5
217
330
1F
100
AcDbEntity
  8
化粧台
  6
CONTINUOUS
 62
     2
100
AcDbCircle
 10
2445.38516480713
 20
2056.000000000001
 30
0.0
 40
5.0
100
AcDbArc
 50
90.00000000000001
 51
158.1985905136498
  0
LINE
  5
218
330
1F
100
AcDbEntity
  8
化粧台
  6
CONTINUOUS
 62
     2
100
AcDbLine
 10
2440.742781352704
 20
2057.856953381769
 30
0.0
 11
2439.257218647288
 21
2054.143046618229
 31
0.0
  0
ARC
  5
219
330
1F
100
AcDbEntity
  8
化粧台
  6
CONTINUOUS
 62
     2
100
AcDbCircle
 10
2434.614835192862
 20
2056.000000000001
 30
0.0
 40
5.0
100
AcDbArc
 50
270.0000000000002
 51
338.1985905136467
  0
LINE
  5
21A
330
1F
100
AcDbEntity
  8
化粧台
  6
CONTINUOUS
 62
     2
100
AcDbLine
 10
2069.999999999996
 20
1985.999999999999
 30
0.0
 11
2069.999999999996
 21
1936.000000000001
 31
0.0
  0
ARC
  5
21B
330
1F
100
AcDbEntity
  8
化粧台
  6
CONTINUOUS
 62
     2
100
AcDbCircle
 10
2079.999999999996
 20
1985.999999999999
 30
0.0
 40
10.0
100
AcDbArc
 50
90.00000000000001
 51
180.0000000000002
  0
LINE
  5
21C
330
1F
100
AcDbEntity
  8
化粧台
  6
CONTINUOUS
 62
     2
100
AcDbLine
 10
2464.999999999998
 20
1995.999999999999
 30
0.0
 11
2079.999999999996
 21
1995.999999999999
 31
0.0
  0
LINE
  5
21D
330
1F
100
AcDbEntity
  8
化粧台
  6
CONTINUOUS
 62
     2
100
AcDbLine
 10
2434.614835192862
 20
2051.000000000001
 30
0.0
 11
2016.31817054415
 21
2051.000000000001
 31
0.0
  0
LINE
  5
21E
330
1F
100
AcDbEntity
  8
化粧台
  6
CONTINUOUS
 62
     2
100
AcDbLine
 10
1985.456008390881
 20
2038.913821614454
 30
0.0
 11
2033.662244080898
 21
1933.913821614454
 31
0.0
  0
LINE
  5
21F
330
1F
100
AcDbEntity
  8
化粧台
  6
CONTINUOUS
 62
     2
100
AcDbLine
 10
2064.999999999996
 20
1931.000000000001
 30
0.0
 11
2038.206235690007
 21
1931.000000000001
 31
0.0
  0
ARC
  5
220
330
1F
100
AcDbEntity
  8
化粧台
  6
CONTINUOUS
 62
     2
100
AcDbCircle
 10
2038.206235690007
 20
1936.000000000001
 30
0.0
 40
5.0
100
AcDbArc
 50
186.2851239246986
 51
270.0000000000002
  0
ARC
  5
221
330
1F
100
AcDbEntity
  8
化粧台
  6
CONTINUOUS
 62
     2
100
AcDbCircle
 10
1989.999999999994
 20
2041.000000000001
 30
0.0
 40
5.0
100
AcDbArc
 50
103.5057605601144
 51
204.6601868323252
  0
ARC
  5
222
330
1F
100
AcDbEntity
  8
化粧台
  6
CONTINUOUS
 62
     2
100
AcDbCircle
 10
2016.31817054415
 20
1999.543203809154
 30
0.0
 40
51.45679619085606
100
AcDbArc
 50
89.99999999996176
 51
103.5057605601132
  0
LINE
  5
223
330
1F
100
AcDbEntity
  8
化粧台
  6
CONTINUOUS
 62
     2
100
AcDbLine
 10
2004.300789535172
 20
2049.57703664167
 30
0.0
 11
1988.832284372654
 21
2045.861732223567
 31
0.0
  0
LINE
  5
224
330
1F
100
AcDbEntity
  8
化粧台
  6
CONTINUOUS
 62
     2
100
AcDbLine
 10
2011.414309875597
 20
2045.024217983818
 30
0.0
 11
2033.302375021425
 21
1935.024217983818
 31
0.0
  0
ARC
  5
225
330
1F
100
AcDbEntity
  8
化粧台
  6
CONTINUOUS
 62
     2
100
AcDbCircle
 10
2016.318170544183
 20
2046.000000000001
 30
0.0
 40
5.0
100
AcDbArc
 50
90.00000000000001
 51
191.2538603764545
  0
LINE
  5
226
330
1F
100
AcDbEntity
  8
化粧台
  6
CONTINUOUS
 62
     2
100
AcDbLine
 10
2074.999999999996
 20
1994.660254037844
 30
0.0
 11
2074.999999999996
 21
1269.500000000001
 31
0.0
  0
ARC
  5
227
330
1F
100
AcDbEntity
  8
化粧台
  6
CONTINUOUS
 62
     2
100
AcDbCircle
 10
919.999999999992
 20
15715.73723377253
 30
0.0
 40
13669.73723377254
100
AcDbArc
 50
268.4505542638817
 51
271.5494457361182
  0
LINE
  5
228
330
1F
100
AcDbEntity
  8
化粧台
  6
CONTINUOUS
 62
     2
100
AcDbLine
 10
549.9999999999975
 20
2061.000000000001
 30
0.0
 11
848.9999999999975
 21
2061.000000000001
 31
0.0
  0
LINE
  5
229
330
1F
100
AcDbEntity
  8
化粧台
  6
CONTINUOUS
 62
     2
100
AcDbLine
 10
848.9999999999975
 20
2051.000000000001
 30
0.0
 11
550.2401152940886
 21
2051.000000000001
 31
0.0
  0
LINE
  5
22A
330
1F
100
AcDbEntity
  8
化粧台
  6
CONTINUOUS
 62
     2
100
AcDbLine
 10
1289.759884705898
 20
2051.000000000001
 30
0.0
 11
990.9999999999966
 21
2051.000000000001
 31
0.0
  0
LINE
  5
22B
330
1F
100
AcDbEntity
  8
化粧台
  6
CONTINUOUS
 62
     2
100
AcDbLine
 10
990.9999999999966
 20
2061.000000000001
 30
0.0
 11
1289.999999999989
 21
2061.000000000001
 31
0.0
  0
LINE
  5
22C
330
1F
100
AcDbEntity
  8
化粧台
  6
CONTINUOUS
 62
     7
100
AcDbLine
 10
2464.999999999998
 20
1266.0
 30
0.0
 11
1836.499999999991
 21
1266.0
 31
0.0
  0
LINE
  5
22D
330
1F
100
AcDbEntity
  8
化粧台
  6
CONTINUOUS
 62
     7
100
AcDbLine
 10
1728.999999999991
 20
1266.0
 30
0.0
 11
319.9999999999976
 21
1266.0
 31
0.0
  0
TEXT
  5
22E
330
1F
100
AcDbEntity
  8
化粧台
  6
CONTINUOUS
 62
     2
100
AcDbText
 10
1426.500000536433
 20
3515.500003814697
 30
0.0
 40
59.99999618530273
  1
Ｗ.Ｌ.
 41
1.120673148173557
  7
EXCADSTD
 72
     5
 11
1593.000000536433
 21
3515.500003814697
 31
0.0
100
AcDbText
  0
TEXT
  5
22F
330
1F
100
AcDbEntity
  8
化粧台
  6
CONTINUOUS
 62
     2
100
AcDbText
 10
1836.499999999991
 20
1266.0
 30
0.0
 40
59.99999618530273
  1
Ｆ.Ｌ.
 41
1.120673148173557
  7
EXCADSTD
 72
     5
 11
2002.999999999991
 21
1266.0
 31
0.0
100
AcDbText
  0
LINE
  5
230
330
1F
100
AcDbEntity
  8
化粧台
  6
CONTINUOUS
 62
     6
100
AcDbLine
 10
647.9999999999975
 20
3575.500000000004
 30
0.0
 11
649.9999999999975
 21
3608.000000000004
 31
0.0
  0
LINE
  5
231
330
1F
100
AcDbEntity
  8
化粧台
  6
CONTINUOUS
 62
     6
100
AcDbLine
 10
649.9999999999975
 20
3608.000000000004
 30
0.0
 11
651.9999999999975
 21
3575.500000000004
 31
0.0
  0
LINE
  5
232
330
1F
100
AcDbEntity
  8
化粧台
  6
CONTINUOUS
 62
     6
100
AcDbLine
 10
1191.999999999993
 20
3575.5
 30
0.0
 11
1189.999999999993
 21
3608.0
 31
0.0
  0
LINE
  5
233
330
1F
100
AcDbEntity
  8
化粧台
  6
CONTINUOUS
 62
     6
100
AcDbLine
 10
1189.999999999993
 20
3608.0
 30
0.0
 11
1187.999999999993
 21
3575.5
 31
0.0
  0
CIRCLE
  5
234
330
1F
100
AcDbEntity
  8
化粧台
  6
CONTINUOUS
 62
     6
100
AcDbCircle
 10
919.9999999999957
 20
3365.5
 30
0.0
 40
4.0
  0
ARC
  5
235
330
1F
100
AcDbEntity
  8
化粧台
  6
CONTINUOUS
 62
     6
100
AcDbCircle
 10
919.9999999999957
 20
3371.8442887702
 30
0.0
 40
7.500000000000005
100
AcDbArc
 50
302.2309526355032
 51
237.7690473644968
  0
CIRCLE
  5
236
330
1F
100
AcDbEntity
  8
化粧台
  6
CONTINUOUS
 62
     6
100
AcDbCircle
 10
931.3655011513958
 20
3378.406163920099
 30
0.0
 40
3.000000000000002
  0
CIRCLE
  5
237
330
1F
100
AcDbEntity
  8
化粧台
  6
CONTINUOUS
 62
     6
100
AcDbCircle
 10
940.5287697415963
 20
3383.696579507301
 30
0.0
 40
3.000000000000002
  0
CIRCLE
  5
238
330
1F
100
AcDbEntity
  8
化粧台
  6
CONTINUOUS
 62
     6
100
AcDbCircle
 10
951.8999999999944
 20
3398.700000000001
 30
0.0
 40
3.000000000000002
  0
CIRCLE
  5
239
330
1F
100
AcDbEntity
  8
化粧台
  6
CONTINUOUS
 62
     6
100
AcDbCircle
 10
948.6999999999937
 20
3390.099999999999
 30
0.0
 40
3.000000000000002
  0
CIRCLE
  5
23A
330
1F
100
AcDbEntity
  8
化粧台
  6
CONTINUOUS
 62
     6
100
AcDbCircle
 10
953.1999999999937
 20
3407.799999999999
 30
0.0
 40
3.000000000000002
  0
CIRCLE
  5
23B
330
1F
100
AcDbEntity
  8
化粧台
  6
CONTINUOUS
 62
     6
100
AcDbCircle
 10
952.3255140940948
 20
3416.846331543202
 30
0.0
 40
3.000000000000002
  0
CIRCLE
  5
23C
330
1F
100
AcDbEntity
  8
化粧台
  6
CONTINUOUS
 62
     6
100
AcDbCircle
 10
949.5213203435944
 20
3424.9786796564
 30
0.0
 40
3.000000000000002
  0
CIRCLE
  5
23D
330
1F
100
AcDbEntity
  8
化粧台
  6
CONTINUOUS
 62
     6
100
AcDbCircle
 10
943.7453993667962
 20
3432.3162703085
 30
0.0
 40
3.000000000000002
  0
LINE
  5
23E
330
1F
100
AcDbEntity
  8
化粧台
  6
EXLTYPE3
 62
     6
100
AcDbLine
 10
828.9999999999975
 20
3495.5
 30
0.0
 11
1010.999999999997
 21
3495.5
 31
0.0
  0
LINE
  5
23F
330
1F
100
AcDbEntity
  8
化粧台
  6
CONTINUOUS
 62
     6
100
AcDbLine
 10
809.4999999999975
 20
3583.5
 30
0.0
 11
830.4999999999975
 21
3583.5
 31
0.0
  0
LINE
  5
240
330
1F
100
AcDbEntity
  8
化粧台
  6
CONTINUOUS
 62
     6
100
AcDbLine
 10
830.4999999999975
 20
3575.5
 30
0.0
 11
830.4999999999975
 21
3583.5
 31
0.0
  0
LINE
  5
241
330
1F
100
AcDbEntity
  8
化粧台
  6
CONTINUOUS
 62
     6
100
AcDbLine
 10
809.4999999999975
 20
3575.5
 30
0.0
 11
809.4999999999975
 21
3583.5
 31
0.0
  0
LINE
  5
242
330
1F
100
AcDbEntity
  8
化粧台
  6
CONTINUOUS
 62
     6
100
AcDbLine
 10
1009.499999999997
 20
3583.5
 30
0.0
 11
1030.499999999997
 21
3583.5
 31
0.0
  0
LINE
  5
243
330
1F
100
AcDbEntity
  8
化粧台
  6
CONTINUOUS
 62
     6
100
AcDbLine
 10
1030.499999999997
 20
3575.5
 30
0.0
 11
1030.499999999997
 21
3583.5
 31
0.0
  0
LINE
  5
244
330
1F
100
AcDbEntity
  8
化粧台
  6
CONTINUOUS
 62
     6
100
AcDbLine
 10
1009.499999999997
 20
3575.5
 30
0.0
 11
1009.499999999997
 21
3583.5
 31
0.0
  0
LINE
  5
245
330
1F
100
AcDbEntity
  8
化粧台
  6
CONTINUOUS
 62
     6
100
AcDbLine
 10
904.0000000000375
 20
3595.5
 30
0.0
 11
936.0000000000375
 21
3595.5
 31
0.0
  0
LINE
  5
246
330
1F
100
AcDbEntity
  8
化粧台
  6
CONTINUOUS
 62
     6
100
AcDbLine
 10
904.0000000000375
 20
3595.5
 30
0.0
 11
904.0000000000375
 21
3575.5
 31
0.0
  0
LINE
  5
247
330
1F
100
AcDbEntity
  8
化粧台
  6
CONTINUOUS
 62
     6
100
AcDbLine
 10
936.0000000000375
 20
3595.5
 30
0.0
 11
936.0000000000375
 21
3575.5
 31
0.0
  0
ARC
  5
248
330
1F
100
AcDbEntity
  8
化粧台
  6
CONTINUOUS
 62
     6
100
AcDbCircle
 10
913.0819999999978
 20
3393.222999999987
 30
0.0
 40
10.0
100
AcDbArc
 50
184.505000000002
 51
236.3989999999983
  0
ARC
  5
249
330
1F
100
AcDbEntity
  8
化粧台
  6
CONTINUOUS
 62
     6
100
AcDbCircle
 10
851.041999999997
 20
3477.395999999988
 30
0.0
 40
1.0
100
AcDbArc
 50
150.0009999999976
 51
225.2330000000024
  0
ARC
  5
24A
330
1F
100
AcDbEntity
  8
化粧台
  6
CONTINUOUS
 62
     6
100
AcDbCircle
 10
868.9999999999975
 20
3495.499999999987
 30
0.0
 40
26.50000000000002
100
AcDbArc
 50
225.2330000000024
 51
239.9999999999997
  0
ARC
  5
24B
330
1F
100
AcDbEntity
  8
化粧台
  6
CONTINUOUS
 62
     6
100
AcDbCircle
 10
868.9999999999975
 20
3495.499999999987
 30
0.0
 40
24.50000000000002
100
AcDbArc
 50
225.2330000000024
 51
239.9999999999997
  0
ARC
  5
24C
330
1F
100
AcDbEntity
  8
化粧台
  6
CONTINUOUS
 62
     6
100
AcDbCircle
 10
868.9999999999975
 20
3495.499999999987
 30
0.0
 40
24.50000000000002
100
AcDbArc
 50
239.9999999999997
 51
254.7679999999993
  0
ARC
  5
24D
330
1F
100
AcDbEntity
  8
化粧台
  6
CONTINUOUS
 62
     6
100
AcDbCircle
 10
868.9999999999975
 20
3495.499999999987
 30
0.0
 40
26.50000000000002
100
AcDbArc
 50
239.9999999999997
 51
254.7679999999993
  0
LINE
  5
24E
330
1F
100
AcDbEntity
  8
化粧台
  6
CONTINUOUS
 62
     6
100
AcDbLine
 10
863.166999999997
 20
3470.395999999988
 30
0.0
 11
864.6699999999976
 21
3472.999999999987
 31
0.0
  0
ARC
  5
24F
330
1F
100
AcDbEntity
  8
化粧台
  6
CONTINUOUS
 62
     6
100
AcDbCircle
 10
862.300999999997
 20
3470.895999999988
 30
0.0
 40
1.0
100
AcDbArc
 50
254.7679999999993
 51
329.9999999999995
  0
ARC
  5
250
330
1F
100
AcDbEntity
  8
化粧台
  6
CONTINUOUS
 62
     6
100
AcDbCircle
 10
866.4699999999968
 20
3468.116999999987
 30
0.0
 40
4.0
100
AcDbArc
 50
84.72000000000327
 51
146.3119999999965
  0
ARC
  5
251
330
1F
100
AcDbEntity
  8
化粧台
  6
CONTINUOUS
 62
     6
100
AcDbCircle
 10
868.9999999999975
 20
3495.499999999987
 30
0.0
 40
23.50000000000002
100
AcDbArc
 50
264.7199999999966
 51
317.2558032154741
  0
ARC
  5
252
330
1F
100
AcDbEntity
  8
化粧台
  6
CONTINUOUS
 62
     6
100
AcDbCircle
 10
890.6509999999973
 20
3457.999999999987
 30
0.0
 40
30.00000000000002
100
AcDbArc
 50
133.917078185606
 51
150.0009999999976
  0
LINE
  5
253
330
1F
100
AcDbEntity
  8
化粧台
  6
CONTINUOUS
 62
     6
100
AcDbLine
 10
850.175999999997
 20
3477.895999999988
 30
0.0
 11
851.2222483292546
 21
3479.707456548813
 31
0.0
  0
ARC
  5
254
330
1F
100
AcDbEntity
  8
化粧台
  6
CONTINUOUS
 62
     6
100
AcDbCircle
 10
846.550999999997
 20
3479.616999999987
 30
0.0
 40
4.0
100
AcDbArc
 50
333.6890000000033
 51
1.354205369352269
  0
ARC
  5
255
330
1F
100
AcDbEntity
  8
化粧台
  6
CONTINUOUS
 62
     6
100
AcDbCircle
 10
919.9999999999975
 20
3222.271999999988
 30
0.0
 40
300.0
100
AcDbArc
 50
90.00000000000001
 51
98.96202737293272
  0
CIRCLE
  5
256
330
1F
100
AcDbEntity
  8
化粧台
  6
CONTINUOUS
 62
     6
100
AcDbCircle
 10
868.9999999999975
 20
3495.499999999987
 30
0.0
 40
8.499999999999986
  0
ARC
  5
257
330
1F
100
AcDbEntity
  8
化粧台
  6
CONTINUOUS
 62
     6
100
AcDbCircle
 10
866.4699999999968
 20
3522.882999999987
 30
0.0
 40
4.0
100
AcDbArc
 50
213.6900000000022
 51
275.2799999999967
  0
ARC
  5
258
330
1F
100
AcDbEntity
  8
化粧台
  6
CONTINUOUS
 62
     6
100
AcDbCircle
 10
846.550999999997
 20
3511.382999999987
 30
0.0
 40
4.0
100
AcDbArc
 50
324.7200000000026
 51
26.31199999999862
  0
ARC
  5
259
330
1F
100
AcDbEntity
  8
化粧台
  6
CONTINUOUS
 62
     6
100
AcDbCircle
 10
825.698999999998
 20
3495.499999999987
 30
0.0
 40
30.00000000000002
100
AcDbArc
 50
330.0009999999979
 51
30.00000000000053
  0
ARC
  5
25A
330
1F
100
AcDbEntity
  8
化粧台
  6
CONTINUOUS
 62
     6
100
AcDbCircle
 10
851.041999999997
 20
3513.603999999987
 30
0.0
 40
1.0
100
AcDbArc
 50
134.7680000000017
 51
210.0009999999958
  0
LINE
  5
25B
330
1F
100
AcDbEntity
  8
化粧台
  6
CONTINUOUS
 62
     6
100
AcDbLine
 10
850.175999999997
 20
3513.103999999987
 30
0.0
 11
851.6799999999978
 21
3510.499999999987
 31
0.0
  0
ARC
  5
25C
330
1F
100
AcDbEntity
  8
化粧台
  6
CONTINUOUS
 62
     6
100
AcDbCircle
 10
868.9999999999975
 20
3495.499999999987
 30
0.0
 40
26.50000000000002
100
AcDbArc
 50
120.0009999999993
 51
134.7680000000017
  0
ARC
  5
25D
330
1F
100
AcDbEntity
  8
化粧台
  6
CONTINUOUS
 62
     6
100
AcDbCircle
 10
868.9999999999975
 20
3495.499999999987
 30
0.0
 40
24.50000000000002
100
AcDbArc
 50
120.0009999999993
 51
134.7680000000017
  0
ARC
  5
25E
330
1F
100
AcDbEntity
  8
化粧台
  6
CONTINUOUS
 62
     6
100
AcDbCircle
 10
890.6509999999973
 20
3532.999999999987
 30
0.0
 40
30.00000000000002
100
AcDbArc
 50
210.0009999999958
 51
270.0000000000002
  0
ARC
  5
25F
330
1F
100
AcDbEntity
  8
化粧台
  6
CONTINUOUS
 62
     6
100
AcDbCircle
 10
862.300999999997
 20
3520.103999999987
 30
0.0
 40
1.0
100
AcDbArc
 50
30.00000000000053
 51
105.2329999999974
  0
LINE
  5
260
330
1F
100
AcDbEntity
  8
化粧台
  6
CONTINUOUS
 62
     6
100
AcDbLine
 10
863.166999999997
 20
3520.603999999987
 30
0.0
 11
864.6699999999976
 21
3517.999999999987
 31
0.0
  0
ARC
  5
261
330
1F
100
AcDbEntity
  8
化粧台
  6
CONTINUOUS
 62
     6
100
AcDbCircle
 10
868.9999999999975
 20
3495.499999999987
 30
0.0
 40
23.50000000000002
100
AcDbArc
 50
24.72000000000022
 51
95.28100000000154
  0
ARC
  5
262
330
1F
100
AcDbEntity
  8
化粧台
  6
CONTINUOUS
 62
     6
100
AcDbCircle
 10
868.9999999999975
 20
3495.499999999987
 30
0.0
 40
26.50000000000002
100
AcDbArc
 50
105.2329999999974
 51
120.0009999999993
  0
ARC
  5
263
330
1F
100
AcDbEntity
  8
化粧台
  6
CONTINUOUS
 62
     6
100
AcDbCircle
 10
868.9999999999975
 20
3495.499999999987
 30
0.0
 40
24.50000000000002
100
AcDbArc
 50
105.2329999999974
 51
120.0009999999993
  0
ARC
  5
264
330
1F
100
AcDbEntity
  8
化粧台
  6
CONTINUOUS
 62
     6
100
AcDbCircle
 10
868.9999999999975
 20
3495.499999999987
 30
0.0
 40
23.50000000000002
100
AcDbArc
 50
144.7210000000028
 51
215.2810000000015
  0
ARC
  5
265
330
1F
100
AcDbEntity
  8
化粧台
  6
CONTINUOUS
 62
     6
100
AcDbCircle
 10
868.9999999999975
 20
3495.499999999987
 30
0.0
 40
21.5
100
AcDbArc
 50
144.7210000000028
 51
215.2810000000015
  0
LINE
  5
266
330
1F
100
AcDbEntity
  8
化粧台
  6
CONTINUOUS
 62
     6
100
AcDbLine
 10
851.2222483292546
 20
3479.707456548813
 30
0.0
 11
851.6799999999978
 21
3480.499999999987
 31
0.0
  0
ARC
  5
267
330
1F
100
AcDbEntity
  8
化粧台
  6
CONTINUOUS
 62
     6
100
AcDbCircle
 10
846.550999999997
 20
3479.616999999987
 30
0.0
 40
4.0
100
AcDbArc
 50
1.354205369352269
 51
35.27999999999745
  0
ARC
  5
268
330
1F
100
AcDbEntity
  8
化粧台
  6
CONTINUOUS
 62
     6
100
AcDbCircle
 10
2398.479999999997
 20
3510.244999999988
 30
0.0
 40
1500.000000000001
100
AcDbArc
 50
182.6995606736386
 51
184.5082188707152
  0
ARC
  5
269
330
1F
100
AcDbEntity
  8
化粧台
  6
CONTINUOUS
 62
     6
100
AcDbCircle
 10
929.8669999999977
 20
3848.203999999987
 30
0.0
 40
380.0000000000003
100
AcDbArc
 50
261.4575894055847
 51
264.0300000000004
  0
ARC
  5
26A
330
1F
100
AcDbEntity
  8
化粧台
  6
CONTINUOUS
 62
     6
100
AcDbCircle
 10
889.305999999998
 20
3460.318999999987
 30
0.0
 40
10.0
100
AcDbArc
 50
1.894999999996474
 51
84.03000000000034
  0
ARC
  5
26B
330
1F
100
AcDbEntity
  8
化粧台
  6
CONTINUOUS
 62
     6
100
AcDbCircle
 10
868.9999999999975
 20
3495.499999999987
 30
0.0
 40
21.5
100
AcDbArc
 50
264.7199999999966
 51
312.1442749940838
  0
ARC
  5
26C
330
1F
100
AcDbEntity
  8
化粧台
  6
CONTINUOUS
 62
     6
100
AcDbCircle
 10
868.9999999999975
 20
3495.499999999987
 30
0.0
 40
26.50000000000002
100
AcDbArc
 50
345.2329999999969
 51
0.0
  0
LINE
  5
26D
330
1F
100
AcDbEntity
  8
化粧台
  6
CONTINUOUS
 62
     6
100
AcDbLine
 10
893.657999999997
 20
3487.999999999987
 30
0.0
 11
890.6509999999973
 21
3487.999999999987
 31
0.0
  0
ARC
  5
26E
330
1F
100
AcDbEntity
  8
化粧台
  6
CONTINUOUS
 62
     6
100
AcDbCircle
 10
893.657999999997
 20
3488.999999999987
 30
0.0
 40
1.0
100
AcDbArc
 50
270.0000000000002
 51
345.2329999999969
  0
ARC
  5
26F
330
1F
100
AcDbEntity
  8
化粧台
  6
CONTINUOUS
 62
     6
100
AcDbCircle
 10
893.9799999999971
 20
3483.999999999987
 30
0.0
 40
4.0
100
AcDbArc
 50
93.68899999999913
 51
155.2810000000003
  0
ARC
  5
270
330
1F
100
AcDbEntity
  8
化粧台
  6
CONTINUOUS
 62
     6
100
AcDbCircle
 10
893.9799999999971
 20
3506.999999999987
 30
0.0
 40
4.0
100
AcDbArc
 50
204.7209999999978
 51
266.312000000001
  0
ARC
  5
271
330
1F
100
AcDbEntity
  8
化粧台
  6
CONTINUOUS
 62
     6
100
AcDbCircle
 10
893.657999999997
 20
3501.999999999987
 30
0.0
 40
1.0
100
AcDbArc
 50
14.76800000000335
 51
90.00000000000001
  0
LINE
  5
272
330
1F
100
AcDbEntity
  8
化粧台
  6
CONTINUOUS
 62
     6
100
AcDbLine
 10
893.657999999997
 20
3502.999999999987
 30
0.0
 11
890.6509999999973
 21
3502.999999999987
 31
0.0
  0
ARC
  5
273
330
1F
100
AcDbEntity
  8
化粧台
  6
CONTINUOUS
 62
     6
100
AcDbCircle
 10
868.9999999999975
 20
3495.499999999987
 30
0.0
 40
26.50000000000002
100
AcDbArc
 50
0.0
 51
14.76800000000335
  0
ARC
  5
274
330
1F
100
AcDbEntity
  8
化粧台
  6
CONTINUOUS
 62
     6
100
AcDbCircle
 10
868.9999999999975
 20
3495.499999999987
 30
0.0
 40
24.50000000000002
100
AcDbArc
 50
0.0
 51
14.76800000000335
  0
ARC
  5
275
330
1F
100
AcDbEntity
  8
化粧台
  6
CONTINUOUS
 62
     6
100
AcDbCircle
 10
868.9999999999975
 20
3495.499999999987
 30
0.0
 40
21.5
100
AcDbArc
 50
24.72000000000022
 51
95.28100000000154
  0
ARC
  5
276
330
1F
100
AcDbEntity
  8
化粧台
  6
CONTINUOUS
 62
     6
100
AcDbCircle
 10
868.9999999999975
 20
3495.499999999987
 30
0.0
 40
24.50000000000002
100
AcDbArc
 50
345.2329999999969
 51
0.0
  0
ARC
  5
277
330
1F
100
AcDbEntity
  8
化粧台
  6
CONTINUOUS
 62
     6
100
AcDbCircle
 10
2398.479999999997
 20
3510.244999999988
 30
0.0
 40
1500.000000000001
100
AcDbArc
 50
181.0279999999989
 51
181.1737013148854
  0
ARC
  5
278
330
1F
100
AcDbEntity
  8
化粧台
  6
CONTINUOUS
 62
     6
100
AcDbCircle
 10
868.9999999999975
 20
3495.499999999987
 30
0.0
 40
23.50000000000002
100
AcDbArc
 50
317.2558032154741
 51
335.2810000000002
  0
ARC
  5
279
330
1F
100
AcDbEntity
  8
化粧台
  6
CONTINUOUS
 62
     6
100
AcDbCircle
 10
868.9999999999975
 20
3495.499999999987
 30
0.0
 40
21.5
100
AcDbArc
 50
312.1442749940838
 51
335.2810000000002
  0
ARC
  5
27A
330
1F
100
AcDbEntity
  8
化粧台
  6
CONTINUOUS
 62
     6
100
AcDbCircle
 10
890.6509999999973
 20
3457.999999999987
 30
0.0
 40
30.00000000000002
100
AcDbArc
 50
90.00000000000001
 51
133.917078185606
  0
ARC
  5
27B
330
1F
100
AcDbEntity
  8
化粧台
  6
CONTINUOUS
 62
     6
100
AcDbCircle
 10
2398.479999999997
 20
3510.244999999988
 30
0.0
 40
1500.000000000001
100
AcDbArc
 50
181.1737013148854
 51
182.6995606736386
  0
ARC
  5
27C
330
1F
100
AcDbEntity
  8
化粧台
  6
CONTINUOUS
 62
     6
100
AcDbCircle
 10
-558.4800000000021
 20
3510.244999999988
 30
0.0
 40
1500.000000000001
100
AcDbArc
 50
357.3004641597614
 51
358.8262986829827
  0
ARC
  5
27D
330
1F
100
AcDbEntity
  8
化粧台
  6
CONTINUOUS
 62
     6
100
AcDbCircle
 10
-558.4800000000021
 20
3510.244999999988
 30
0.0
 40
1500.000000000001
100
AcDbArc
 50
358.8262986829827
 51
358.9720000000012
  0
LINE
  5
27E
330
1F
100
AcDbEntity
  8
化粧台
  6
CONTINUOUS
 62
     6
100
AcDbLine
 10
953.1302295019034
 20
3479.548136717402
 30
0.0
 11
953.6799999999969
 21
3480.499999999987
 31
0.0
  0
ARC
  5
27F
330
1F
100
AcDbEntity
  8
化粧台
  6
CONTINUOUS
 62
     6
100
AcDbCircle
 10
948.5509999999961
 20
3479.616999999987
 30
0.0
 40
4.0
100
AcDbArc
 50
358.9896291435241
 51
35.27999999999745
  0
ARC
  5
280
330
1F
100
AcDbEntity
  8
化粧台
  6
CONTINUOUS
 62
     6
100
AcDbCircle
 10
970.9999999999966
 20
3495.499999999987
 30
0.0
 40
23.50000000000002
100
AcDbArc
 50
144.7210000000028
 51
215.2810000000015
  0
ARC
  5
281
330
1F
100
AcDbEntity
  8
化粧台
  6
CONTINUOUS
 62
     6
100
AcDbCircle
 10
970.9999999999966
 20
3495.499999999987
 30
0.0
 40
21.5
100
AcDbArc
 50
144.7210000000028
 51
215.2810000000015
  0
ARC
  5
282
330
1F
100
AcDbEntity
  8
化粧台
  6
CONTINUOUS
 62
     6
100
AcDbCircle
 10
970.9999999999966
 20
3495.499999999987
 30
0.0
 40
24.50000000000002
100
AcDbArc
 50
120.0009999999993
 51
134.7680000000017
  0
ARC
  5
283
330
1F
100
AcDbEntity
  8
化粧台
  6
CONTINUOUS
 62
     6
100
AcDbCircle
 10
970.9999999999966
 20
3495.499999999987
 30
0.0
 40
26.50000000000002
100
AcDbArc
 50
120.0009999999993
 51
134.7680000000017
  0
LINE
  5
284
330
1F
100
AcDbEntity
  8
化粧台
  6
CONTINUOUS
 62
     6
100
AcDbLine
 10
952.1759999999961
 20
3513.103999999987
 30
0.0
 11
953.6799999999969
 21
3510.499999999987
 31
0.0
  0
ARC
  5
285
330
1F
100
AcDbEntity
  8
化粧台
  6
CONTINUOUS
 62
     6
100
AcDbCircle
 10
953.041999999996
 20
3513.603999999987
 30
0.0
 40
1.0
100
AcDbArc
 50
134.7680000000017
 51
210.0009999999958
  0
ARC
  5
286
330
1F
100
AcDbEntity
  8
化粧台
  6
CONTINUOUS
 62
     6
100
AcDbCircle
 10
927.698999999998
 20
3495.499999999987
 30
0.0
 40
30.00000000000002
100
AcDbArc
 50
330.0009999999979
 51
30.00000000000053
  0
ARC
  5
287
330
1F
100
AcDbEntity
  8
化粧台
  6
CONTINUOUS
 62
     6
100
AcDbCircle
 10
948.5509999999961
 20
3511.382999999987
 30
0.0
 40
4.0
100
AcDbArc
 50
324.7200000000026
 51
26.31199999999862
  0
ARC
  5
288
330
1F
100
AcDbEntity
  8
化粧台
  6
CONTINUOUS
 62
     6
100
AcDbCircle
 10
920.0149999999969
 20
3483.749999999987
 30
0.0
 40
21.25
100
AcDbArc
 50
90.00000000000001
 51
90.03799999999877
  0
LINE
  5
289
330
1F
100
AcDbEntity
  8
化粧台
  6
CONTINUOUS
 62
     6
100
AcDbLine
 10
952.1759999999961
 20
3477.895999999988
 30
0.0
 11
953.1302295019034
 21
3479.548136717402
 31
0.0
  0
ARC
  5
28A
330
1F
100
AcDbEntity
  8
化粧台
  6
CONTINUOUS
 62
     6
100
AcDbCircle
 10
948.5509999999961
 20
3479.616999999987
 30
0.0
 40
4.0
100
AcDbArc
 50
333.6890000000033
 51
358.9896291435241
  0
ARC
  5
28B
330
1F
100
AcDbEntity
  8
化粧台
  6
CONTINUOUS
 62
     6
100
AcDbCircle
 10
970.9999999999966
 20
3495.499999999987
 30
0.0
 40
24.50000000000002
100
AcDbArc
 50
239.9999999999997
 51
254.7679999999993
  0
ARC
  5
28C
330
1F
100
AcDbEntity
  8
化粧台
  6
CONTINUOUS
 62
     6
100
AcDbCircle
 10
970.9999999999966
 20
3495.499999999987
 30
0.0
 40
24.50000000000002
100
AcDbArc
 50
225.2330000000024
 51
239.9999999999997
  0
ARC
  5
28D
330
1F
100
AcDbEntity
  8
化粧台
  6
CONTINUOUS
 62
     6
100
AcDbCircle
 10
970.9999999999966
 20
3495.499999999987
 30
0.0
 40
26.50000000000002
100
AcDbArc
 50
225.2330000000024
 51
239.9999999999997
  0
ARC
  5
28E
330
1F
100
AcDbEntity
  8
化粧台
  6
CONTINUOUS
 62
     6
100
AcDbCircle
 10
953.041999999996
 20
3477.395999999988
 30
0.0
 40
1.0
100
AcDbArc
 50
150.0009999999976
 51
225.2330000000024
  0
ARC
  5
28F
330
1F
100
AcDbEntity
  8
化粧台
  6
CONTINUOUS
 62
     6
100
AcDbCircle
 10
964.3009999999962
 20
3470.895999999988
 30
0.0
 40
1.0
100
AcDbArc
 50
254.7679999999993
 51
329.9999999999995
  0
ARC
  5
290
330
1F
100
AcDbEntity
  8
化粧台
  6
CONTINUOUS
 62
     6
100
AcDbCircle
 10
970.9999999999966
 20
3495.499999999987
 30
0.0
 40
26.50000000000002
100
AcDbArc
 50
239.9999999999997
 51
254.7679999999993
  0
ARC
  5
291
330
1F
100
AcDbEntity
  8
化粧台
  6
CONTINUOUS
 62
     6
100
AcDbCircle
 10
910.1329999999973
 20
3848.203999999987
 30
0.0
 40
380.0000000000003
100
AcDbArc
 50
275.9699999999997
 51
277.5151214654631
  0
ARC
  5
292
330
1F
100
AcDbEntity
  8
化粧台
  6
CONTINUOUS
 62
     6
100
AcDbCircle
 10
950.6949999999963
 20
3460.318999999987
 30
0.0
 40
10.0
100
AcDbArc
 50
95.96999999999973
 51
178.1050000000035
  0
ARC
  5
293
330
1F
100
AcDbEntity
  8
化粧台
  6
CONTINUOUS
 62
     6
100
AcDbCircle
 10
-558.4800000000021
 20
3510.244999999988
 30
0.0
 40
1500.000000000001
100
AcDbArc
 50
355.4917811292851
 51
357.3004641597614
  0
ARC
  5
294
330
1F
100
AcDbEntity
  8
化粧台
  6
CONTINUOUS
 62
     6
100
AcDbCircle
 10
992.6509999999963
 20
3457.999999999987
 30
0.0
 40
30.00000000000002
100
AcDbArc
 50
90.00000000000001
 51
133.8962214704481
  0
ARC
  5
295
330
1F
100
AcDbEntity
  8
化粧台
  6
CONTINUOUS
 62
     6
100
AcDbCircle
 10
970.9999999999966
 20
3495.499999999987
 30
0.0
 40
23.50000000000002
100
AcDbArc
 50
317.7691212089354
 51
335.2810000000002
  0
ARC
  5
296
330
1F
100
AcDbEntity
  8
化粧台
  6
CONTINUOUS
 62
     6
100
AcDbCircle
 10
970.9999999999966
 20
3495.499999999987
 30
0.0
 40
21.5
100
AcDbArc
 50
312.6575929001024
 51
335.2810000000002
  0
ARC
  5
297
330
1F
100
AcDbEntity
  8
化粧台
  6
CONTINUOUS
 62
     6
100
AcDbCircle
 10
970.9999999999966
 20
3495.499999999987
 30
0.0
 40
24.50000000000002
100
AcDbArc
 50
345.2329999999969
 51
0.0
  0
ARC
  5
298
330
1F
100
AcDbEntity
  8
化粧台
  6
CONTINUOUS
 62
     6
100
AcDbCircle
 10
970.9999999999966
 20
3495.499999999987
 30
0.0
 40
21.5
100
AcDbArc
 50
24.72000000000022
 51
95.28100000000154
  0
ARC
  5
299
330
1F
100
AcDbEntity
  8
化粧台
  6
CONTINUOUS
 62
     6
100
AcDbCircle
 10
970.9999999999966
 20
3495.499999999987
 30
0.0
 40
24.50000000000002
100
AcDbArc
 50
105.2329999999974
 51
120.0009999999993
  0
ARC
  5
29A
330
1F
100
AcDbEntity
  8
化粧台
  6
CONTINUOUS
 62
     6
100
AcDbCircle
 10
970.9999999999966
 20
3495.499999999987
 30
0.0
 40
24.50000000000002
100
AcDbArc
 50
0.0
 51
14.76800000000335
  0
ARC
  5
29B
330
1F
100
AcDbEntity
  8
化粧台
  6
CONTINUOUS
 62
     6
100
AcDbCircle
 10
970.9999999999966
 20
3495.499999999987
 30
0.0
 40
26.50000000000002
100
AcDbArc
 50
105.2329999999974
 51
120.0009999999993
  0
ARC
  5
29C
330
1F
100
AcDbEntity
  8
化粧台
  6
CONTINUOUS
 62
     6
100
AcDbCircle
 10
970.9999999999966
 20
3495.499999999987
 30
0.0
 40
26.50000000000002
100
AcDbArc
 50
0.0
 51
14.76800000000335
  0
ARC
  5
29D
330
1F
100
AcDbEntity
  8
化粧台
  6
CONTINUOUS
 62
     6
100
AcDbCircle
 10
970.9999999999966
 20
3495.499999999987
 30
0.0
 40
23.50000000000002
100
AcDbArc
 50
24.72000000000022
 51
95.28100000000154
  0
LINE
  5
29E
330
1F
100
AcDbEntity
  8
化粧台
  6
CONTINUOUS
 62
     6
100
AcDbLine
 10
965.166999999996
 20
3520.603999999987
 30
0.0
 11
966.6699999999968
 21
3517.999999999987
 31
0.0
  0
ARC
  5
29F
330
1F
100
AcDbEntity
  8
化粧台
  6
CONTINUOUS
 62
     6
100
AcDbCircle
 10
964.3009999999962
 20
3520.103999999987
 30
0.0
 40
1.0
100
AcDbArc
 50
30.00000000000053
 51
105.2329999999974
  0
LINE
  5
2A0
330
1F
100
AcDbEntity
  8
化粧台
  6
CONTINUOUS
 62
     6
100
AcDbLine
 10
995.657999999996
 20
3502.999999999987
 30
0.0
 11
992.6509999999963
 21
3502.999999999987
 31
0.0
  0
ARC
  5
2A1
330
1F
100
AcDbEntity
  8
化粧台
  6
CONTINUOUS
 62
     6
100
AcDbCircle
 10
995.657999999996
 20
3501.999999999987
 30
0.0
 40
1.0
100
AcDbArc
 50
14.76800000000335
 51
90.00000000000001
  0
ARC
  5
2A2
330
1F
100
AcDbEntity
  8
化粧台
  6
CONTINUOUS
 62
     6
100
AcDbCircle
 10
992.6509999999963
 20
3532.999999999987
 30
0.0
 40
30.00000000000002
100
AcDbArc
 50
210.0009999999958
 51
270.0000000000002
  0
ARC
  5
2A3
330
1F
100
AcDbEntity
  8
化粧台
  6
CONTINUOUS
 62
     6
100
AcDbCircle
 10
968.4699999999959
 20
3522.882999999987
 30
0.0
 40
4.0
100
AcDbArc
 50
213.6900000000022
 51
275.2799999999967
  0
ARC
  5
2A4
330
1F
100
AcDbEntity
  8
化粧台
  6
CONTINUOUS
 62
     6
100
AcDbCircle
 10
995.9799999999963
 20
3506.999999999987
 30
0.0
 40
4.0
100
AcDbArc
 50
204.7209999999978
 51
266.312000000001
  0
ARC
  5
2A5
330
1F
100
AcDbEntity
  8
化粧台
  6
CONTINUOUS
 62
     6
100
AcDbCircle
 10
995.9799999999963
 20
3483.999999999987
 30
0.0
 40
4.0
100
AcDbArc
 50
93.68899999999913
 51
155.2810000000003
  0
ARC
  5
2A6
330
1F
100
AcDbEntity
  8
化粧台
  6
CONTINUOUS
 62
     6
100
AcDbCircle
 10
995.657999999996
 20
3488.999999999987
 30
0.0
 40
1.0
100
AcDbArc
 50
270.0000000000002
 51
345.2329999999969
  0
LINE
  5
2A7
330
1F
100
AcDbEntity
  8
化粧台
  6
CONTINUOUS
 62
     6
100
AcDbLine
 10
995.657999999996
 20
3487.999999999987
 30
0.0
 11
992.6509999999963
 21
3487.999999999987
 31
0.0
  0
ARC
  5
2A8
330
1F
100
AcDbEntity
  8
化粧台
  6
CONTINUOUS
 62
     6
100
AcDbCircle
 10
970.9999999999966
 20
3495.499999999987
 30
0.0
 40
26.50000000000002
100
AcDbArc
 50
345.2329999999969
 51
0.0
  0
CIRCLE
  5
2A9
330
1F
100
AcDbEntity
  8
化粧台
  6
CONTINUOUS
 62
     6
100
AcDbCircle
 10
970.9999999999966
 20
3495.499999999987
 30
0.0
 40
8.499999999999986
  0
ARC
  5
2AA
330
1F
100
AcDbEntity
  8
化粧台
  6
CONTINUOUS
 62
     6
100
AcDbCircle
 10
919.9999999999975
 20
3222.271999999988
 30
0.0
 40
300.0
100
AcDbArc
 50
82.34287691948089
 51
90.00000000000001
  0
ARC
  5
2AB
330
1F
100
AcDbEntity
  8
化粧台
  6
CONTINUOUS
 62
     6
100
AcDbCircle
 10
970.9999999999966
 20
3495.499999999987
 30
0.0
 40
23.50000000000002
100
AcDbArc
 50
264.7199999999966
 51
317.7691212089354
  0
ARC
  5
2AC
330
1F
100
AcDbEntity
  8
化粧台
  6
CONTINUOUS
 62
     6
100
AcDbCircle
 10
970.9999999999966
 20
3495.499999999987
 30
0.0
 40
21.5
100
AcDbArc
 50
264.7199999999966
 51
312.6575929001024
  0
ARC
  5
2AD
330
1F
100
AcDbEntity
  8
化粧台
  6
CONTINUOUS
 62
     6
100
AcDbCircle
 10
992.6509999999963
 20
3457.999999999987
 30
0.0
 40
30.00000000000002
100
AcDbArc
 50
133.8962214704481
 51
150.0009999999976
  0
ARC
  5
2AE
330
1F
100
AcDbEntity
  8
化粧台
  6
CONTINUOUS
 62
     6
100
AcDbCircle
 10
968.4699999999959
 20
3468.116999999987
 30
0.0
 40
4.0
100
AcDbArc
 50
84.72000000000327
 51
146.3119999999965
  0
LINE
  5
2AF
330
1F
100
AcDbEntity
  8
化粧台
  6
CONTINUOUS
 62
     6
100
AcDbLine
 10
965.166999999996
 20
3470.395999999988
 30
0.0
 11
966.6699999999968
 21
3472.999999999987
 31
0.0
  0
ARC
  5
2B0
330
1F
100
AcDbEntity
  8
化粧台
  6
CONTINUOUS
 62
     6
100
AcDbCircle
 10
926.9179999999972
 20
3393.222999999987
 30
0.0
 40
10.0
100
AcDbArc
 50
303.6010000000016
 51
355.4949999999983
  0
ARC
  5
2B1
330
1F
100
AcDbEntity
  8
化粧台
  6
CONTINUOUS
 62
     6
100
AcDbCircle
 10
919.9999999999975
 20
3403.633999999987
 30
0.0
 40
22.5
100
AcDbArc
 50
236.3989999999978
 51
303.6024554705911
  0
ARC
  5
2B2
330
1F
100
AcDbEntity
  8
化粧台
  6
CONTINUOUS
 62
     6
100
AcDbCircle
 10
920.0139999999967
 20
3483.749999999987
 30
0.0
 40
21.25
100
AcDbArc
 50
358.8778264056979
 51
181.1229999999998
  0
ARC
  5
2B3
330
1F
100
AcDbEntity
  8
化粧台
  6
CONTINUOUS
 62
     4
100
AcDbCircle
 10
919.9999999999975
 20
4922.431461380173
 30
0.0
 40
1497.931461380173
100
AcDbArc
 50
257.6649564770681
 51
269.2703930675516
  0
ARC
  5
2B4
330
1F
100
AcDbEntity
  8
化粧台
  6
CONTINUOUS
 62
     4
100
AcDbCircle
 10
919.9999999999975
 20
4922.431461380173
 30
0.0
 40
1497.931461380173
100
AcDbArc
 50
270.7296069324485
 51
282.3350435229319
  0
LINE
  5
2B5
330
1F
100
AcDbEntity
  8
化粧台
  6
EXLTYPE3
 62
     6
100
AcDbLine
 10
868.9999999999939
 20
3535.5
 30
0.0
 11
868.9999999999939
 21
3455.5
 31
0.0
  0
LINE
  5
2B6
330
1F
100
AcDbEntity
  8
化粧台
  6
EXLTYPE3
 62
     6
100
AcDbLine
 10
970.999999999993
 20
3535.5
 30
0.0
 11
970.999999999993
 21
3455.5
 31
0.0
  0
LINE
  5
2B7
330
1F
100
AcDbEntity
  8
化粧台
  6
EXLTYPE3
 62
     6
100
AcDbLine
 10
649.9999999999975
 20
3565.5
 30
0.0
 11
649.9999999999975
 21
3618.0
 31
0.0
  0
LINE
  5
2B8
330
1F
100
AcDbEntity
  8
化粧台
  6
EXLTYPE2
 62
     6
100
AcDbLine
 10
576.4999999999975
 20
1916.000000000001
 30
0.0
 11
576.4999999999975
 21
1361.000000000001
 31
0.0
  0
LINE
  5
2B9
330
1F
100
AcDbEntity
  8
化粧台
  6
EXLTYPE2
 62
     6
100
AcDbLine
 10
1263.499999999993
 20
1916.000000000001
 30
0.0
 11
1263.499999999993
 21
1361.000000000001
 31
0.0
  0
LINE
  5
2BA
330
1F
100
AcDbEntity
  8
化粧台
  6
EXLTYPE2
 62
     6
100
AcDbLine
 10
919.9999999999975
 20
1828.500000000001
 30
0.0
 11
919.9999999999975
 21
1845.500000000001
 31
0.0
  0
LINE
  5
2BB
330
1F
100
AcDbEntity
  8
化粧台
  6
EXLTYPE2
 62
     6
100
AcDbLine
 10
884.9999999999975
 20
1845.500000000001
 30
0.0
 11
954.9999999999966
 21
1845.500000000001
 31
0.0
  0
ARC
  5
2BC
330
1F
100
AcDbEntity
  8
化粧台
  6
EXLTYPE2
 62
     6
100
AcDbCircle
 10
944.2518377279969
 20
1829.885594593402
 30
0.0
 40
4.385594593380002
100
AcDbArc
 50
198.4177055184001
 51
270.0000000000002
  0
LINE
  5
2BD
330
1F
100
AcDbEntity
  8
化粧台
  6
EXLTYPE2
 62
     6
100
AcDbLine
 10
940.0908801989947
 20
1828.500000000001
 30
0.0
 11
940.0908801989947
 21
1845.500000000001
 31
0.0
  0
ARC
  5
2BE
330
1F
100
AcDbEntity
  8
化粧台
  6
EXLTYPE2
 62
     6
100
AcDbCircle
 10
930.0454400999963
 20
1843.818477799102
 30
0.0
 40
18.31847779905
100
AcDbArc
 50
236.7442298452004
 51
303.2557701548001
  0
ARC
  5
2BF
330
1F
100
AcDbEntity
  8
化粧台
  6
EXLTYPE2
 62
     6
100
AcDbCircle
 10
909.954559899995
 20
1843.818477799102
 30
0.0
 40
18.31847779905
100
AcDbArc
 50
236.7442298452004
 51
303.2557701548001
  0
LINE
  5
2C0
330
1F
100
AcDbEntity
  8
化粧台
  6
EXLTYPE2
 62
     6
100
AcDbLine
 10
899.9091198009967
 20
1828.500000000001
 30
0.0
 11
899.9091198009967
 21
1845.500000000001
 31
0.0
  0
ARC
  5
2C1
330
1F
100
AcDbEntity
  8
化粧台
  6
EXLTYPE2
 62
     6
100
AcDbCircle
 10
895.7481622719945
 20
1829.885594593402
 30
0.0
 40
4.385594593380002
100
AcDbArc
 50
270.0000000000002
 51
341.5822944816002
  0
LINE
  5
2C2
330
1F
100
AcDbEntity
  8
化粧台
  6
EXLTYPE2
 62
     6
100
AcDbLine
 10
954.9999999999966
 20
1853.000000000001
 30
0.0
 11
950.8139534883669
 21
1856.000000000001
 31
0.0
  0
LINE
  5
2C3
330
1F
100
AcDbEntity
  8
化粧台
  6
EXLTYPE2
 62
     6
100
AcDbLine
 10
884.9999999999975
 20
1853.000000000001
 30
0.0
 11
889.1860465116235
 21
1856.000000000001
 31
0.0
  0
LINE
  5
2C4
330
1F
100
AcDbEntity
  8
化粧台
  6
EXLTYPE2
 62
     6
100
AcDbLine
 10
954.9999999999966
 20
1853.000000000001
 30
0.0
 11
954.9999999999966
 21
1845.500000000001
 31
0.0
  0
LINE
  5
2C5
330
1F
100
AcDbEntity
  8
化粧台
  6
EXLTYPE2
 62
     6
100
AcDbLine
 10
884.9999999999975
 20
1853.000000000001
 30
0.0
 11
884.9999999999975
 21
1845.500000000001
 31
0.0
  0
LINE
  5
2C6
330
1F
100
AcDbEntity
  8
化粧台
  6
EXLTYPE2
 62
     6
100
AcDbLine
 10
948.412795257995
 20
1828.500000000001
 30
0.0
 11
946.2499999999966
 21
1825.500000000001
 31
0.0
  0
LINE
  5
2C7
330
1F
100
AcDbEntity
  8
化粧台
  6
EXLTYPE2
 62
     6
100
AcDbLine
 10
948.412795257995
 20
1845.500000000001
 30
0.0
 11
948.412795257995
 21
1828.500000000001
 31
0.0
  0
LINE
  5
2C8
330
1F
100
AcDbEntity
  8
化粧台
  6
EXLTYPE2
 62
     6
100
AcDbLine
 10
946.2499999999966
 20
1825.500000000001
 30
0.0
 11
946.2499999999966
 21
1801.000000000001
 31
0.0
  0
LINE
  5
2C9
330
1F
100
AcDbEntity
  8
化粧台
  6
EXLTYPE2
 62
     6
100
AcDbLine
 10
891.5872047419955
 20
1828.500000000001
 30
0.0
 11
893.7499999999975
 21
1825.500000000001
 31
0.0
  0
LINE
  5
2CA
330
1F
100
AcDbEntity
  8
化粧台
  6
EXLTYPE2
 62
     6
100
AcDbLine
 10
891.5872047419955
 20
1845.500000000001
 30
0.0
 11
891.5872047419955
 21
1828.500000000001
 31
0.0
  0
LINE
  5
2CB
330
1F
100
AcDbEntity
  8
化粧台
  6
EXLTYPE2
 62
     6
100
AcDbLine
 10
893.7499999999975
 20
1825.500000000001
 30
0.0
 11
893.7499999999975
 21
1801.000000000001
 31
0.0
  0
LINE
  5
2CC
330
1F
100
AcDbEntity
  8
化粧台
  6
EXLTYPE2
 62
     6
100
AcDbLine
 10
893.7499999999975
 20
1825.500000000001
 30
0.0
 11
946.2499999999966
 21
1825.500000000001
 31
0.0
  0
CIRCLE
  5
2CD
330
1F
100
AcDbEntity
  8
化粧台
  6
CONTINUOUS
 62
     6
100
AcDbCircle
 10
649.9999999999975
 20
1821.000000000001
 30
0.0
 40
2.5
  0
CIRCLE
  5
2CE
330
1F
100
AcDbEntity
  8
化粧台
  6
CONTINUOUS
 62
     6
100
AcDbCircle
 10
1189.999999999997
 20
1821.000000000001
 30
0.0
 40
2.5
  0
LINE
  5
2CF
330
1F
100
AcDbEntity
  8
化粧台
  6
EXLTYPE2
 62
     6
100
AcDbLine
 10
1263.499999999993
 20
1373.750000000001
 30
0.0
 11
576.4999999999975
 21
1373.750000000001
 31
0.0
  0
LINE
  5
2D0
330
1F
100
AcDbEntity
  8
化粧台
  6
EXLTYPE2
 62
     6
100
AcDbLine
 10
946.2499999999966
 20
1801.000000000001
 30
0.0
 11
935.7499999999975
 21
1792.000000000001
 31
0.0
  0
LINE
  5
2D1
330
1F
100
AcDbEntity
  8
化粧台
  6
EXLTYPE2
 62
     6
100
AcDbLine
 10
893.7499999999975
 20
1801.000000000001
 30
0.0
 11
904.2499999999975
 21
1792.000000000001
 31
0.0
  0
LINE
  5
2D2
330
1F
100
AcDbEntity
  8
化粧台
  6
EXLTYPE2
 62
     6
100
AcDbLine
 10
893.7499999999975
 20
1801.000000000001
 30
0.0
 11
946.2499999999966
 21
1801.000000000001
 31
0.0
  0
LINE
  5
2D3
330
1F
100
AcDbEntity
  8
化粧台
  6
EXLTYPE2
 62
     6
100
AcDbLine
 10
904.2499999999975
 20
1792.000000000001
 30
0.0
 11
935.7499999999975
 21
1792.000000000001
 31
0.0
  0
LINE
  5
2D4
330
1F
100
AcDbEntity
  8
化粧台
  6
EXLTYPE2
 62
     6
100
AcDbLine
 10
938.2499999999957
 20
1764.200000000002
 30
0.0
 11
938.2499999999957
 21
1724.111863703302
 31
0.0
  0
LINE
  5
2D5
330
1F
100
AcDbEntity
  8
化粧台
  6
EXLTYPE2
 62
     6
100
AcDbLine
 10
901.7499999999957
 20
1764.200000000002
 30
0.0
 11
901.7499999999957
 21
1724.111863703302
 31
0.0
  0
LINE
  5
2D6
330
1F
100
AcDbEntity
  8
化粧台
  6
EXLTYPE2
 62
     6
100
AcDbLine
 10
938.2499999999975
 20
1724.111863703302
 30
0.0
 11
936.9999999999975
 21
1723.111863671301
 31
0.0
  0
LINE
  5
2D7
330
1F
100
AcDbEntity
  8
化粧台
  6
EXLTYPE2
 62
     6
100
AcDbLine
 10
902.9999999999975
 20
1723.111863671301
 30
0.0
 11
901.7499999999975
 21
1724.111863703302
 31
0.0
  0
LINE
  5
2D8
330
1F
100
AcDbEntity
  8
化粧台
  6
EXLTYPE2
 62
     6
100
AcDbLine
 10
936.9999999999975
 20
1723.111863671303
 30
0.0
 11
902.9999999999957
 21
1723.111863671303
 31
0.0
  0
LINE
  5
2D9
330
1F
100
AcDbEntity
  8
化粧台
  6
EXLTYPE2
 62
     6
100
AcDbLine
 10
944.2499999999957
 20
1764.200000000002
 30
0.0
 11
895.7499999999957
 21
1764.200000000002
 31
0.0
  0
LINE
  5
2DA
330
1F
100
AcDbEntity
  8
化粧台
  6
EXLTYPE2
 62
     6
100
AcDbLine
 10
944.2499999999957
 20
1779.000000000001
 30
0.0
 11
944.2499999999957
 21
1764.200000000002
 31
0.0
  0
LINE
  5
2DB
330
1F
100
AcDbEntity
  8
化粧台
  6
EXLTYPE2
 62
     6
100
AcDbLine
 10
941.2499999999957
 20
1782.000000000001
 30
0.0
 11
898.7499999999957
 21
1782.000000000001
 31
0.0
  0
LINE
  5
2DC
330
1F
100
AcDbEntity
  8
化粧台
  6
EXLTYPE2
 62
     6
100
AcDbLine
 10
895.7499999999957
 20
1779.000000000001
 30
0.0
 11
895.7499999999957
 21
1764.200000000002
 31
0.0
  0
ARC
  5
2DD
330
1F
100
AcDbEntity
  8
化粧台
  6
EXLTYPE2
 62
     6
100
AcDbCircle
 10
941.2499999999957
 20
1779.000000000001
 30
0.0
 40
3.000000000000002
100
AcDbArc
 50
0.0
 51
90.00000000000001
  0
ARC
  5
2DE
330
1F
100
AcDbEntity
  8
化粧台
  6
EXLTYPE2
 62
     6
100
AcDbCircle
 10
898.7499999999957
 20
1779.000000000001
 30
0.0
 40
3.000000000000002
100
AcDbArc
 50
90.00000000000001
 51
180.0
  0
LINE
  5
2DF
330
1F
100
AcDbEntity
  8
化粧台
  6
EXLTYPE2
 62
     6
100
AcDbLine
 10
902.9999999999957
 20
1723.111863671303
 30
0.0
 11
902.9999999999957
 21
1689.486862343741
 31
0.0
  0
LINE
  5
2E0
330
1F
100
AcDbEntity
  8
化粧台
  6
EXLTYPE2
 62
     6
100
AcDbLine
 10
856.2231693720944
 20
1726.311312276001
 30
0.0
 11
856.2231693720944
 21
1711.511312276002
 31
0.0
  0
ARC
  5
2E1
330
1F
100
AcDbEntity
  8
化粧台
  6
EXLTYPE2
 62
     6
100
AcDbCircle
 10
859.2231693720944
 20
1726.311312276001
 30
0.0
 40
3.000000000000002
100
AcDbArc
 50
90.00000000000001
 51
180.0
  0
LINE
  5
2E2
330
1F
100
AcDbEntity
  8
化粧台
  6
EXLTYPE2
 62
     6
100
AcDbLine
 10
898.7231693720944
 20
1711.511312276002
 30
0.0
 11
898.7231693720944
 21
1689.486862343741
 31
0.0
  0
LINE
  5
2E3
330
1F
100
AcDbEntity
  8
化粧台
  6
EXLTYPE2
 62
     6
100
AcDbLine
 10
862.2231693720944
 20
1711.511312276002
 30
0.0
 11
862.2231693720944
 21
1683.411862369002
 31
0.0
  0
LINE
  5
2E4
330
1F
100
AcDbEntity
  8
化粧台
  6
EXLTYPE2
 62
     6
100
AcDbLine
 10
936.9999999999975
 20
1723.111863671303
 30
0.0
 11
936.9999999999975
 21
1691.41826175945
 31
0.0
  0
ARC
  5
2E5
330
1F
100
AcDbEntity
  8
化粧台
  6
EXLTYPE2
 62
     6
100
AcDbCircle
 10
900.236584686046
 20
1759.648448270968
 30
0.0
 40
3.763415313933366
100
AcDbArc
 50
66.28804661525457
 51
180.0
  0
LINE
  5
2E6
330
1F
100
AcDbEntity
  8
化粧台
  6
EXLTYPE2
 62
     6
100
AcDbLine
 10
896.4731693720944
 20
1759.648448270968
 30
0.0
 11
896.4731693720944
 21
1729.311312276001
 31
0.0
  0
LINE
  5
2E7
330
1F
100
AcDbEntity
  8
化粧台
  6
EXLTYPE2
 62
     6
100
AcDbLine
 10
864.4731693720944
 20
1759.64844827095
 30
0.0
 11
864.4731693720944
 21
1729.311312276001
 31
0.0
  0
LINE
  5
2E8
330
1F
100
AcDbEntity
  8
化粧台
  6
EXLTYPE2
 62
     6
100
AcDbLine
 10
901.7499999999975
 20
1729.311312276001
 30
0.0
 11
859.2231693720944
 21
1729.311312276001
 31
0.0
  0
LINE
  5
2E9
330
1F
100
AcDbEntity
  8
化粧台
  6
EXLTYPE2
 62
     6
100
AcDbLine
 10
902.9999999999975
 20
1711.511312276002
 30
0.0
 11
856.2231693720962
 21
1711.511312276002
 31
0.0
  0
ARC
  5
2EA
330
1F
100
AcDbEntity
  8
化粧台
  6
EXLTYPE2
 62
     6
100
AcDbCircle
 10
900.236584686046
 20
1759.64844827095
 30
0.0
 40
35.76341531395246
100
AcDbArc
 50
89.94725080561494
 51
180.0
  0
LINE
  5
2EB
330
1F
100
AcDbEntity
  8
化粧台
  6
EXLTYPE2
 62
     6
100
AcDbLine
 10
904.2499999999975
 20
1792.000000000001
 30
0.0
 11
904.2499999999975
 21
1782.000000000001
 31
0.0
  0
LINE
  5
2EC
330
1F
100
AcDbEntity
  8
化粧台
  6
EXLTYPE2
 62
     6
100
AcDbLine
 10
935.7499999999975
 20
1792.000000000001
 30
0.0
 11
935.7499999999975
 21
1782.000000000001
 31
0.0
  0
LINE
  5
2ED
330
1F
100
AcDbEntity
  8
化粧台
  6
EXLTYPE2
 62
     6
100
AcDbLine
 10
953.5000038146902
 20
1306.000001907302
 30
0.0
 11
953.5000038146902
 21
1286.499999999954
 31
0.0
  0
ARC
  5
2EE
330
1F
100
AcDbEntity
  8
化粧台
  6
EXLTYPE2
 62
     6
100
AcDbCircle
 10
953.0000038146902
 20
1286.499999999954
 30
0.0
 40
0.5
100
AcDbArc
 50
270.0000000000002
 51
0.0
  0
LINE
  5
2EF
330
1F
100
AcDbEntity
  8
化粧台
  6
EXLTYPE2
 62
     6
100
AcDbLine
 10
886.4999961853002
 20
1306.000001907302
 30
0.0
 11
886.4999961853002
 21
1286.499999999954
 31
0.0
  0
ARC
  5
2F0
330
1F
100
AcDbEntity
  8
化粧台
  6
EXLTYPE2
 62
     6
100
AcDbCircle
 10
886.9999961853002
 20
1286.499999999954
 30
0.0
 40
0.5
100
AcDbArc
 50
180.0
 51
270.0000000000002
  0
LINE
  5
2F1
330
1F
100
AcDbEntity
  8
化粧台
  6
EXLTYPE2
 62
     6
100
AcDbLine
 10
953.0000038146902
 20
1285.999999999954
 30
0.0
 11
886.9999961852966
 21
1285.999999999954
 31
0.0
  0
LINE
  5
2F2
330
1F
100
AcDbEntity
  8
化粧台
  6
EXLTYPE2
 62
     6
100
AcDbLine
 10
946.999999999993
 20
1321.000003814651
 30
0.0
 11
946.999999999993
 21
1310.000001907302
 31
0.0
  0
ARC
  5
2F3
330
1F
100
AcDbEntity
  8
化粧台
  6
EXLTYPE2
 62
     6
100
AcDbCircle
 10
943.9999999999939
 20
1321.000003814651
 30
0.0
 40
3.000000000000002
100
AcDbArc
 50
359.9999949910431
 51
89.99999749552043
  0
ARC
  5
2F4
330
1F
100
AcDbEntity
  8
化粧台
  6
EXLTYPE2
 62
     6
100
AcDbCircle
 10
947.999999999993
 20
1310.000001907302
 30
0.0
 40
1.0
100
AcDbArc
 50
180.0
 51
270.0000000000002
  0
ARC
  5
2F5
330
1F
100
AcDbEntity
  8
化粧台
  6
EXLTYPE2
 62
     6
100
AcDbCircle
 10
950.5000038146902
 20
1306.000001907302
 30
0.0
 40
3.000000000000002
100
AcDbArc
 50
359.9999949910431
 51
89.99999749552043
  0
LINE
  5
2F6
330
1F
100
AcDbEntity
  8
化粧台
  6
EXLTYPE2
 62
     6
100
AcDbLine
 10
942.9999961852966
 20
1341.846518878891
 30
0.0
 11
942.9999961852966
 21
1326.046519641831
 31
0.0
  0
ARC
  5
2F7
330
1F
100
AcDbEntity
  8
化粧台
  6
EXLTYPE2
 62
     6
100
AcDbCircle
 10
940.9999961852966
 20
1341.846518878891
 30
0.0
 40
2.0
100
AcDbArc
 50
0.0000086514229809
 51
90.0000043257139
  0
LINE
  5
2F8
330
1F
100
AcDbEntity
  8
化粧台
  6
EXLTYPE2
 62
     6
100
AcDbLine
 10
892.9999999999975
 20
1321.000003814651
 30
0.0
 11
892.9999999999975
 21
1310.000001907302
 31
0.0
  0
ARC
  5
2F9
330
1F
100
AcDbEntity
  8
化粧台
  6
EXLTYPE2
 62
     6
100
AcDbCircle
 10
895.9999999999975
 20
1321.000003814651
 30
0.0
 40
3.000000000000002
100
AcDbArc
 50
90.00000250448174
 51
180.000005008957
  0
ARC
  5
2FA
330
1F
100
AcDbEntity
  8
化粧台
  6
EXLTYPE2
 62
     6
100
AcDbCircle
 10
891.9999999999975
 20
1310.000001907302
 30
0.0
 40
1.0
100
AcDbArc
 50
270.0000000000002
 51
0.0
  0
ARC
  5
2FB
330
1F
100
AcDbEntity
  8
化粧台
  6
EXLTYPE2
 62
     6
100
AcDbCircle
 10
889.4999961853002
 20
1306.000001907302
 30
0.0
 40
3.000000000000002
100
AcDbArc
 50
90.00000250448174
 51
180.000005008957
  0
LINE
  5
2FC
330
1F
100
AcDbEntity
  8
化粧台
  6
EXLTYPE2
 62
     6
100
AcDbLine
 10
897.0000038146948
 20
1341.846518878891
 30
0.0
 11
897.0000038146948
 21
1326.046519641831
 31
0.0
  0
ARC
  5
2FD
330
1F
100
AcDbEntity
  8
化粧台
  6
EXLTYPE2
 62
     6
100
AcDbCircle
 10
899.0000038146948
 20
1341.846518878891
 30
0.0
 40
2.0
100
AcDbArc
 50
89.99999567428607
 51
179.9999913485771
  0
LINE
  5
2FE
330
1F
100
AcDbEntity
  8
化粧台
  6
EXLTYPE2
 62
     6
100
AcDbLine
 10
940.9999961852966
 20
1343.846518878891
 30
0.0
 11
899.0000038146948
 21
1343.846518878891
 31
0.0
  0
LINE
  5
2FF
330
1F
100
AcDbEntity
  8
化粧台
  6
EXLTYPE2
 62
     6
100
AcDbLine
 10
942.9999961852966
 20
1326.046519641831
 30
0.0
 11
897.0000038146948
 21
1326.046519641831
 31
0.0
  0
LINE
  5
300
330
1F
100
AcDbEntity
  8
化粧台
  6
EXLTYPE2
 62
     6
100
AcDbLine
 10
943.9999999999939
 20
1324.000003814651
 30
0.0
 11
895.9999999999975
 21
1324.000003814651
 31
0.0
  0
LINE
  5
301
330
1F
100
AcDbEntity
  8
化粧台
  6
EXLTYPE2
 62
     6
100
AcDbLine
 10
950.5000038146902
 20
1309.000001907302
 30
0.0
 11
889.4999961853002
 21
1309.000001907302
 31
0.0
  0
LINE
  5
302
330
1F
100
AcDbEntity
  8
化粧台
  6
EXLTYPE2
 62
     6
100
AcDbLine
 10
915.2365846859932
 20
1650.111861335133
 30
0.0
 11
885.2365846859914
 21
1650.111861335133
 31
0.0
  0
LINE
  5
303
330
1F
100
AcDbEntity
  8
化粧台
  6
EXLTYPE2
 62
     6
100
AcDbLine
 10
915.2365846859968
 20
1652.881770843303
 30
0.0
 11
885.2365846859968
 21
1652.881770843303
 31
0.0
  0
LINE
  5
304
330
1F
100
AcDbEntity
  8
化粧台
  6
EXLTYPE2
 62
     6
100
AcDbLine
 10
915.2365846859932
 20
1652.881770843266
 30
0.0
 11
915.2365846859932
 21
1637.611865271302
 31
0.0
  0
LINE
  5
305
330
1F
100
AcDbEntity
  8
化粧台
  6
EXLTYPE2
 62
     6
100
AcDbLine
 10
913.7365846859932
 20
1636.111865271302
 30
0.0
 11
886.7365846859914
 21
1636.111865271302
 31
0.0
  0
LINE
  5
306
330
1F
100
AcDbEntity
  8
化粧台
  6
EXLTYPE2
 62
     6
100
AcDbLine
 10
885.2365846859914
 20
1652.88177084327
 30
0.0
 11
885.2365846859914
 21
1637.611865271302
 31
0.0
  0
ARC
  5
307
330
1F
100
AcDbEntity
  8
化粧台
  6
EXLTYPE2
 62
     6
100
AcDbCircle
 10
913.7365846859932
 20
1637.611865271302
 30
0.0
 40
1.5
100
AcDbArc
 50
270.0000000000002
 51
0.0
  0
ARC
  5
308
330
1F
100
AcDbEntity
  8
化粧台
  6
EXLTYPE2
 62
     6
100
AcDbCircle
 10
886.7365846859914
 20
1637.611865271302
 30
0.0
 40
1.5
100
AcDbArc
 50
180.0
 51
270.0000000000002
  0
ARC
  5
309
330
1F
100
AcDbEntity
  8
化粧台
  6
EXLTYPE2
 62
     6
100
AcDbCircle
 10
863.2231693720944
 20
1683.411862369002
 30
0.0
 40
1.0
100
AcDbArc
 50
180.0
 51
270.0000000000002
  0
ARC
  5
30A
330
1F
100
AcDbEntity
  8
化粧台
  6
EXLTYPE2
 62
     6
100
AcDbCircle
 10
906.5981693721963
 20
1689.486862343741
 30
0.0
 40
7.874999999984541
100
AcDbArc
 50
180.0
 51
223.2429562691451
  0
ARC
  5
30B
330
1F
100
AcDbEntity
  8
化粧台
  6
EXLTYPE2
 62
     6
100
AcDbCircle
 10
895.1249999999957
 20
1689.486862343741
 30
0.0
 40
7.874999999984541
100
AcDbArc
 50
284.0576142764539
 51
0.0
  0
ARC
  5
30C
330
1F
100
AcDbEntity
  8
化粧台
  6
EXLTYPE2
 62
     6
100
AcDbCircle
 10
909.8681222530915
 20
1690.541926938048
 30
0.0
 40
45.0
100
AcDbArc
 50
190.4086772393206
 51
236.8134006511469
  0
ARC
  5
30D
330
1F
100
AcDbEntity
  8
化粧台
  6
EXLTYPE2
 62
     6
100
AcDbCircle
 10
891.9999999999975
 20
1691.41826175945
 30
0.0
 40
45.0
100
AcDbArc
 50
301.0889746232344
 51
0.0
  0
LINE
  5
30E
330
1F
100
AcDbEntity
  8
化粧台
  6
EXLTYPE2
 62
     6
100
AcDbLine
 10
873.8999999999953
 20
1682.411862369002
 30
0.0
 11
863.2231693720962
 21
1682.411862369002
 31
0.0
  0
LINE
  5
30F
330
1F
100
AcDbEntity
  8
化粧台
  6
EXLTYPE2
 62
     6
100
AcDbLine
 10
903.9999999999957
 20
1270.000000000001
 30
0.0
 11
903.9999999999957
 21
1636.111865271302
 31
0.0
  0
LINE
  5
310
330
1F
100
AcDbEntity
  8
化粧台
  6
EXLTYPE2
 62
     6
100
AcDbLine
 10
935.9999999999957
 20
1270.000000000001
 30
0.0
 11
935.9999999999957
 21
1681.984280627385
 31
0.0
  0
LINE
  5
311
330
1F
100
AcDbEntity
  8
化粧台
  6
CONTINUOUS
 62
     6
100
AcDbLine
 10
903.9999999999957
 20
1236.000000000001
 30
0.0
 11
935.9999999999957
 21
1236.000000000001
 31
0.0
  0
LINE
  5
312
330
1F
100
AcDbEntity
  8
化粧台
  6
CONTINUOUS
 62
     6
100
AcDbLine
 10
903.9999999999975
 20
1236.000000000001
 30
0.0
 11
903.9999999999975
 21
1270.000000000001
 31
0.0
  0
LINE
  5
313
330
1F
100
AcDbEntity
  8
化粧台
  6
CONTINUOUS
 62
     6
100
AcDbLine
 10
935.9999999999975
 20
1236.000000000001
 30
0.0
 11
935.9999999999975
 21
1270.000000000001
 31
0.0
  0
LINE
  5
314
330
1F
100
AcDbEntity
  8
化粧台
  6
CONTINUOUS
 62
     6
100
AcDbLine
 10
1030.499999999995
 20
1258.000000000001
 30
0.0
 11
1009.499999999995
 21
1258.000000000001
 31
0.0
  0
LINE
  5
315
330
1F
100
AcDbEntity
  8
化粧台
  6
EXLTYPE3
 62
     6
100
AcDbLine
 10
1019.999999999995
 20
1665.7
 30
0.0
 11
1019.999999999995
 21
1243.000000000001
 31
0.0
  0
LINE
  5
316
330
1F
100
AcDbEntity
  8
化粧台
  6
CONTINUOUS
 62
     6
100
AcDbLine
 10
830.4999999999957
 20
1258.000000000001
 30
0.0
 11
809.4999999999957
 21
1258.000000000001
 31
0.0
  0
LINE
  5
317
330
1F
100
AcDbEntity
  8
化粧台
  6
EXLTYPE3
 62
     6
100
AcDbLine
 10
819.9999999999957
 20
1665.7
 30
0.0
 11
819.9999999999957
 21
1243.000000000001
 31
0.0
  0
LINE
  5
318
330
1F
100
AcDbEntity
  8
化粧台
  6
CONTINUOUS
 62
     6
100
AcDbLine
 10
809.4999999999957
 20
1270.000000000001
 30
0.0
 11
809.4999999999957
 21
1258.000000000001
 31
0.0
  0
LINE
  5
319
330
1F
100
AcDbEntity
  8
化粧台
  6
CONTINUOUS
 62
     6
100
AcDbLine
 10
830.4999999999939
 20
1270.000000000001
 30
0.0
 11
830.4999999999939
 21
1258.000000000001
 31
0.0
  0
LINE
  5
31A
330
1F
100
AcDbEntity
  8
化粧台
  6
EXLTYPE2
 62
     6
100
AcDbLine
 10
830.4999999999939
 20
1580.999999999999
 30
0.0
 11
830.4999999999939
 21
1270.000000000001
 31
0.0
  0
LINE
  5
31B
330
1F
100
AcDbEntity
  8
化粧台
  6
EXLTYPE2
 62
     6
100
AcDbLine
 10
809.4999999999957
 20
1580.999999999999
 30
0.0
 11
809.4999999999957
 21
1270.000000000001
 31
0.0
  0
LINE
  5
31C
330
1F
100
AcDbEntity
  8
化粧台
  6
CONTINUOUS
 62
     6
100
AcDbLine
 10
1009.499999999995
 20
1270.000000000001
 30
0.0
 11
1009.499999999995
 21
1258.000000000001
 31
0.0
  0
LINE
  5
31D
330
1F
100
AcDbEntity
  8
化粧台
  6
CONTINUOUS
 62
     6
100
AcDbLine
 10
1030.499999999993
 20
1270.000000000001
 30
0.0
 11
1030.499999999993
 21
1258.000000000001
 31
0.0
  0
LINE
  5
31E
330
1F
100
AcDbEntity
  8
化粧台
  6
EXLTYPE2
 62
     6
100
AcDbLine
 10
1030.499999999993
 20
1580.999999999999
 30
0.0
 11
1030.499999999993
 21
1270.000000000001
 31
0.0
  0
LINE
  5
31F
330
1F
100
AcDbEntity
  8
化粧台
  6
EXLTYPE2
 62
     6
100
AcDbLine
 10
1009.499999999995
 20
1580.999999999999
 30
0.0
 11
1009.499999999995
 21
1270.000000000001
 31
0.0
  0
LINE
  5
320
330
1F
100
AcDbEntity
  8
化粧台
  6
EXLTYPE2
 62
     6
100
AcDbLine
 10
1263.499999999993
 20
1886.000000000001
 30
0.0
 11
576.4999999999975
 21
1886.000000000001
 31
0.0
  0
ARC
  5
321
330
1F
100
AcDbEntity
  8
化粧台
  6
EXLTYPE2
 62
     6
100
AcDbCircle
 10
1026.999999999989
 20
1771.855042033626
 30
0.0
 40
214.0000000000001
100
AcDbArc
 50
144.2144699726478
 51
180.0
  0
LINE
  5
322
330
1F
100
AcDbEntity
  8
化粧台
  6
EXLTYPE2
 62
     6
100
AcDbLine
 10
812.9999999999975
 20
1650.700000000002
 30
0.0
 11
812.9999999999975
 21
1771.855042033626
 31
0.0
  0
ARC
  5
323
330
1F
100
AcDbEntity
  8
化粧台
  6
EXLTYPE2
 62
     6
100
AcDbCircle
 10
1026.999999999989
 20
1771.855042033626
 30
0.0
 40
200.0000000000001
100
AcDbArc
 50
142.2603937737965
 51
180.0
  0
LINE
  5
324
330
1F
100
AcDbEntity
  8
化粧台
  6
EXLTYPE2
 62
     6
100
AcDbLine
 10
826.9999999999902
 20
1650.7
 30
0.0
 11
826.9999999999902
 21
1771.855042033626
 31
0.0
  0
ARC
  5
325
330
1F
100
AcDbEntity
  8
化粧台
  6
EXLTYPE2
 62
     6
100
AcDbCircle
 10
812.9999999999975
 20
1771.855042033626
 30
0.0
 40
200.0000000000001
100
AcDbArc
 50
0.0
 51
37.73960622620351
  0
ARC
  5
326
330
1F
100
AcDbEntity
  8
化粧台
  6
EXLTYPE2
 62
     6
100
AcDbCircle
 10
812.9999999999975
 20
1771.855042033626
 30
0.0
 40
214.0000000000001
100
AcDbArc
 50
0.0
 51
35.78553002735229
  0
LINE
  5
327
330
1F
100
AcDbEntity
  8
化粧台
  6
EXLTYPE2
 62
     6
100
AcDbLine
 10
1012.999999999997
 20
1650.7
 30
0.0
 11
1012.999999999997
 21
1771.855042033626
 31
0.0
  0
LINE
  5
328
330
1F
100
AcDbEntity
  8
化粧台
  6
EXLTYPE2
 62
     6
100
AcDbLine
 10
1026.999999999991
 20
1650.700000000002
 30
0.0
 11
1026.999999999991
 21
1771.855042033626
 31
0.0
  0
LINE
  5
329
330
1F
100
AcDbEntity
  8
化粧台
  6
CONTINUOUS
 62
     6
100
AcDbLine
 10
1166.483209812825
 20
2048.222387698
 30
0.0
 11
673.5167901871584
 21
2048.222387698002
 31
0.0
  0
LINE
  5
32A
330
1F
100
AcDbEntity
  8
化粧台
  6
CONTINUOUS
 62
     6
100
AcDbLine
 10
848.9999999999975
 20
2048.222387697997
 30
0.0
 11
848.9999999999975
 21
2065.978387697997
 31
0.0
  0
LINE
  5
32B
330
1F
100
AcDbEntity
  8
化粧台
  6
CONTINUOUS
 62
     6
100
AcDbLine
 10
899.8899999999987
 20
2048.222387697997
 30
0.0
 11
900.0579999999984
 21
2054.978387697997
 31
0.0
  0
LINE
  5
32C
330
1F
100
AcDbEntity
  8
化粧台
  6
CONTINUOUS
 62
     6
100
AcDbLine
 10
900.0579999999984
 20
2054.978387697997
 30
0.0
 11
901.3219999999976
 21
2084.870387697997
 31
0.0
  0
LINE
  5
32D
330
1F
100
AcDbEntity
  8
化粧台
  6
CONTINUOUS
 62
     6
100
AcDbLine
 10
939.9429999999986
 20
2054.978387697997
 30
0.0
 11
938.6789999999976
 21
2084.870387697997
 31
0.0
  0
LINE
  5
32E
330
1F
100
AcDbEntity
  8
化粧台
  6
CONTINUOUS
 62
     6
100
AcDbLine
 10
940.1109999999983
 20
2048.222387697997
 30
0.0
 11
939.9429999999986
 21
2054.978387697997
 31
0.0
  0
LINE
  5
32F
330
1F
100
AcDbEntity
  8
化粧台
  6
CONTINUOUS
 62
     6
100
AcDbLine
 10
990.9999999999966
 20
2048.222387697997
 30
0.0
 11
990.9999999999966
 21
2065.978387697997
 31
0.0
  0
ARC
  5
330
330
1F
100
AcDbEntity
  8
化粧台
  6
CONTINUOUS
 62
     6
100
AcDbCircle
 10
888.5009999999977
 20
2079.119387697997
 30
0.0
 40
4.0
100
AcDbArc
 50
180.0
 51
274.7050000000001
  0
LINE
  5
331
330
1F
100
AcDbEntity
  8
化粧台
  6
CONTINUOUS
 62
     6
100
AcDbLine
 10
853.5009999999977
 20
2079.222387697997
 30
0.0
 11
853.5009999999977
 21
2073.478387697996
 31
0.0
  0
ARC
  5
332
330
1F
100
AcDbEntity
  8
化粧台
  6
CONTINUOUS
 62
     6
100
AcDbCircle
 10
853.4999999999975
 20
2065.978387697997
 30
0.0
 40
4.5
100
AcDbArc
 50
100.2009999999999
 51
180.0
  0
ARC
  5
333
330
1F
100
AcDbEntity
  8
化粧台
  6
CONTINUOUS
 62
     6
100
AcDbCircle
 10
849.5009999999977
 20
2073.478387697996
 30
0.0
 40
4.0
100
AcDbArc
 50
298.0700000000001
 51
0.0
  0
ARC
  5
334
330
1F
100
AcDbEntity
  8
化粧台
  6
CONTINUOUS
 62
     6
100
AcDbCircle
 10
919.9999999999975
 20
1696.414387697997
 30
0.0
 40
380.0000000000003
100
AcDbArc
 50
94.20600000000006
 51
100.2009999999999
  0
ARC
  5
335
330
1F
100
AcDbEntity
  8
化粧台
  6
CONTINUOUS
 62
     6
100
AcDbCircle
 10
986.4999999999966
 20
2065.978387697997
 30
0.0
 40
4.5
100
AcDbArc
 50
0.0
 51
79.79900000000005
  0
ARC
  5
336
330
1F
100
AcDbEntity
  8
化粧台
  6
CONTINUOUS
 62
     6
100
AcDbCircle
 10
995.9379999999968
 20
2080.722387697997
 30
0.0
 40
1.5
100
AcDbArc
 50
270.0000000000002
 51
2.336999999999399
  0
LINE
  5
337
330
1F
100
AcDbEntity
  8
化粧台
  6
CONTINUOUS
 62
     6
100
AcDbLine
 10
995.9379999999968
 20
2079.222387697997
 30
0.0
 11
970.9999999999966
 21
2079.222387697997
 31
0.0
  0
ARC
  5
338
330
1F
100
AcDbEntity
  8
化粧台
  6
CONTINUOUS
 62
     6
100
AcDbCircle
 10
985.8749999999965
 20
2118.840387697996
 30
0.0
 40
10.0
100
AcDbArc
 50
2.336999999999399
 51
87.06000000000004
  0
LINE
  5
339
330
1F
100
AcDbEntity
  8
化粧台
  6
CONTINUOUS
 62
     6
100
AcDbLine
 10
995.8659999999965
 20
2119.248387697997
 30
0.0
 11
997.4359999999981
 21
2080.783387697997
 31
0.0
  0
LINE
  5
33A
330
1F
100
AcDbEntity
  8
化粧台
  6
CONTINUOUS
 62
     6
100
AcDbLine
 10
869.0009999999977
 20
2129.141387697997
 30
0.0
 11
860.5009999999977
 21
2129.141387697997
 31
0.0
  0
LINE
  5
33B
330
1F
100
AcDbEntity
  8
化粧台
  6
CONTINUOUS
 62
     6
100
AcDbLine
 10
860.5009999999977
 20
2129.141387697997
 30
0.0
 11
860.5009999999977
 21
2129.990387697997
 31
0.0
  0
ARC
  5
33C
330
1F
100
AcDbEntity
  8
化粧台
  6
CONTINUOUS
 62
     6
100
AcDbCircle
 10
869.0009999999977
 20
2081.141387697997
 30
0.0
 40
50.00000000000004
100
AcDbArc
 50
90.00000000000001
 51
99.30200000000005
  0
ARC
  5
33D
330
1F
100
AcDbEntity
  8
化粧台
  6
CONTINUOUS
 62
     6
100
AcDbCircle
 10
861.0009999999977
 20
2129.990387697997
 30
0.0
 40
0.5
100
AcDbArc
 50
99.30200000000005
 51
180.0019999999997
  0
ARC
  5
33E
330
1F
100
AcDbEntity
  8
化粧台
  6
CONTINUOUS
 62
     6
100
AcDbCircle
 10
869.0009999999977
 20
1829.222387697996
 30
0.0
 40
300.0
100
AcDbArc
 50
91.37400000000002
 51
92.18500000000003
  0
LINE
  5
33F
330
1F
100
AcDbEntity
  8
化粧台
  6
CONTINUOUS
 62
     6
100
AcDbLine
 10
847.1189999999981
 20
2119.663387697997
 30
0.0
 11
845.5629999999976
 21
2080.782387697996
 31
0.0
  0
LINE
  5
340
330
1F
100
AcDbEntity
  8
化粧台
  6
CONTINUOUS
 62
     6
100
AcDbLine
 10
847.0619999999992
 20
2079.222387697997
 30
0.0
 11
869.0009999999977
 21
2079.222387697997
 31
0.0
  0
ARC
  5
341
330
1F
100
AcDbEntity
  8
化粧台
  6
CONTINUOUS
 62
     6
100
AcDbCircle
 10
847.0619999999992
 20
2080.722387697997
 30
0.0
 40
1.5
100
AcDbArc
 50
177.7120000000008
 51
270.0000000000002
  0
ARC
  5
342
330
1F
100
AcDbEntity
  8
化粧台
  6
CONTINUOUS
 62
     6
100
AcDbCircle
 10
883.8759999999977
 20
2118.840387697996
 30
0.0
 40
10.0
100
AcDbArc
 50
2.336999999999399
 51
87.06000000000004
  0
LINE
  5
343
330
1F
100
AcDbEntity
  8
化粧台
  6
CONTINUOUS
 62
     6
100
AcDbLine
 10
893.9389999999978
 20
2079.222387697997
 30
0.0
 11
869.0009999999977
 21
2079.222387697997
 31
0.0
  0
ARC
  5
344
330
1F
100
AcDbEntity
  8
化粧台
  6
CONTINUOUS
 62
     6
100
AcDbCircle
 10
857.7989999999984
 20
2123.008387697997
 30
0.0
 40
6.000000000000004
100
AcDbArc
 50
92.18500000000003
 51
177.7110000000005
  0
ARC
  5
345
330
1F
100
AcDbEntity
  8
化粧台
  6
CONTINUOUS
 62
     6
100
AcDbCircle
 10
851.6039999999987
 20
2080.722387697997
 30
0.0
 40
1.5
100
AcDbArc
 50
177.7110000000005
 51
270.0000000000002
  0
ARC
  5
346
330
1F
100
AcDbEntity
  8
化粧台
  6
CONTINUOUS
 62
     6
100
AcDbCircle
 10
854.1129999999987
 20
2119.383387697997
 30
0.0
 40
7.000000000000004
100
AcDbArc
 50
101.2320000000001
 51
177.7120000000008
  0
LINE
  5
347
330
1F
100
AcDbEntity
  8
化粧台
  6
CONTINUOUS
 62
     6
100
AcDbLine
 10
850.1049999999989
 20
2080.782387697996
 30
0.0
 11
851.8039999999976
 21
2123.248387697997
 31
0.0
  0
LINE
  5
348
330
1F
100
AcDbEntity
  8
化粧台
  6
CONTINUOUS
 62
     6
100
AcDbLine
 10
853.5019999999979
 20
2079.119387697997
 30
0.0
 11
853.5019999999979
 21
2079.222387697997
 31
0.0
  0
ARC
  5
349
330
1F
100
AcDbEntity
  8
化粧台
  6
CONTINUOUS
 62
     6
100
AcDbCircle
 10
868.796999999998
 20
2124.222387697997
 30
0.0
 40
5.0
100
AcDbArc
 50
100.6429999999998
 51
179.0140000000006
  0
ARC
  5
34A
330
1F
100
AcDbEntity
  8
化粧台
  6
CONTINUOUS
 62
     6
100
AcDbCircle
 10
880.6789999999976
 20
2118.987387697996
 30
0.0
 40
10.0
100
AcDbArc
 50
2.336999999999399
 51
87.69200000000004
  0
ARC
  5
34B
330
1F
100
AcDbEntity
  8
化粧台
  6
CONTINUOUS
 62
     6
100
AcDbCircle
 10
864.037999999998
 20
2080.222387697997
 30
0.0
 40
1.0
100
AcDbArc
 50
179.0140000000006
 51
270.0000000000002
  0
LINE
  5
34C
330
1F
100
AcDbEntity
  8
化粧台
  6
CONTINUOUS
 62
     6
100
AcDbLine
 10
863.037999999998
 20
2080.239387697997
 30
0.0
 11
863.7979999999982
 21
2124.308387697997
 31
0.0
  0
ARC
  5
34D
330
1F
100
AcDbEntity
  8
化粧台
  6
CONTINUOUS
 62
     6
100
AcDbCircle
 10
877.0009999999977
 20
2129.990387697997
 30
0.0
 40
0.5
100
AcDbArc
 50
0.0
 51
80.69900000000005
  0
ARC
  5
34E
330
1F
100
AcDbEntity
  8
化粧台
  6
CONTINUOUS
 62
     6
100
AcDbCircle
 10
869.0009999999977
 20
2081.141387697997
 30
0.0
 40
50.00000000000004
100
AcDbArc
 50
80.69900000000005
 51
90.00000000000001
  0
LINE
  5
34F
330
1F
100
AcDbEntity
  8
化粧台
  6
CONTINUOUS
 62
     6
100
AcDbLine
 10
877.5009999999977
 20
2129.141387697997
 30
0.0
 11
877.5009999999977
 21
2129.990387697997
 31
0.0
  0
LINE
  5
350
330
1F
100
AcDbEntity
  8
化粧台
  6
CONTINUOUS
 62
     6
100
AcDbLine
 10
869.0009999999977
 20
2129.141387697997
 30
0.0
 11
877.5009999999977
 21
2129.141387697997
 31
0.0
  0
ARC
  5
351
330
1F
100
AcDbEntity
  8
化粧台
  6
CONTINUOUS
 62
     6
100
AcDbCircle
 10
869.0009999999977
 20
1829.222387697996
 30
0.0
 40
300.0
100
AcDbArc
 50
87.06000000000004
 51
88.62700000000002
  0
ARC
  5
352
330
1F
100
AcDbEntity
  8
化粧台
  6
CONTINUOUS
 62
     6
100
AcDbCircle
 10
982.6779999999983
 20
2118.987387697996
 30
0.0
 40
10.0
100
AcDbArc
 50
2.336999999999399
 51
87.69200000000004
  0
LINE
  5
353
330
1F
100
AcDbEntity
  8
化粧台
  6
CONTINUOUS
 62
     6
100
AcDbLine
 10
994.2449999999975
 20
2080.783387697997
 30
0.0
 11
992.6809999999971
 21
2119.118387697997
 31
0.0
  0
ARC
  5
354
330
1F
100
AcDbEntity
  8
化粧台
  6
CONTINUOUS
 62
     6
100
AcDbCircle
 10
992.7469999999978
 20
2080.722387697997
 30
0.0
 40
1.5
100
AcDbArc
 50
270.0000000000002
 51
2.336999999999399
  0
LINE
  5
355
330
1F
100
AcDbEntity
  8
化粧台
  6
CONTINUOUS
 62
     6
100
AcDbLine
 10
989.5119999999972
 20
2118.989387697997
 30
0.0
 11
991.1349999999968
 21
2079.222387697997
 31
0.0
  0
ARC
  5
356
330
1F
100
AcDbEntity
  8
化粧台
  6
CONTINUOUS
 62
     6
100
AcDbCircle
 10
982.5019999999971
 20
2119.094387697997
 30
0.0
 40
7.000000000000004
100
AcDbArc
 50
2.336999999999399
 51
90.00000000000001
  0
LINE
  5
357
330
1F
100
AcDbEntity
  8
化粧台
  6
CONTINUOUS
 62
     6
100
AcDbLine
 10
887.5129999999983
 20
2118.989387697997
 30
0.0
 11
889.1359999999979
 21
2079.222387697997
 31
0.0
  0
ARC
  5
358
330
1F
100
AcDbEntity
  8
化粧台
  6
CONTINUOUS
 62
     6
100
AcDbCircle
 10
880.5029999999981
 20
2119.094387697997
 30
0.0
 40
7.000000000000004
100
AcDbArc
 50
2.336999999999399
 51
90.00000000000001
  0
LINE
  5
359
330
1F
100
AcDbEntity
  8
化粧台
  6
CONTINUOUS
 62
     6
100
AcDbLine
 10
870.3459999999989
 20
2126.094387697997
 30
0.0
 11
880.5029999999981
 21
2126.094387697997
 31
0.0
  0
ARC
  5
35A
330
1F
100
AcDbEntity
  8
化粧台
  6
CONTINUOUS
 62
     6
100
AcDbCircle
 10
870.3459999999989
 20
2121.094387697997
 30
0.0
 40
5.0
100
AcDbArc
 50
90.00000000000001
 51
178.6640000000001
  0
LINE
  5
35B
330
1F
100
AcDbEntity
  8
化粧台
  6
CONTINUOUS
 62
     6
100
AcDbLine
 10
865.3479999999975
 20
2121.211387697997
 30
0.0
 11
864.3669999999977
 21
2079.222387697997
 31
0.0
  0
LINE
  5
35C
330
1F
100
AcDbEntity
  8
化粧台
  6
CONTINUOUS
 62
     6
100
AcDbLine
 10
908.9999999999975
 20
2091.274387697997
 30
0.0
 11
908.9999999999975
 21
2100.128387697997
 31
0.0
  0
ARC
  5
35D
330
1F
100
AcDbEntity
  8
化粧台
  6
CONTINUOUS
 62
     6
100
AcDbCircle
 10
891.3969999999983
 20
2085.363387697997
 30
0.0
 40
10.0
100
AcDbArc
 50
274.206
 51
357.5800000000005
  0
LINE
  5
35E
330
1F
100
AcDbEntity
  8
化粧台
  6
CONTINUOUS
 62
     6
100
AcDbLine
 10
904.0209999999981
 20
2114.476387697997
 30
0.0
 11
903.0059999999987
 21
2108.350387697997
 31
0.0
  0
LINE
  5
35F
330
1F
100
AcDbEntity
  8
化粧台
  6
CONTINUOUS
 62
     6
100
AcDbLine
 10
905.332999999998
 20
2117.789387697997
 30
0.0
 11
904.0209999999981
 21
2114.476387697997
 31
0.0
  0
LINE
  5
360
330
1F
100
AcDbEntity
  8
化粧台
  6
CONTINUOUS
 62
     6
100
AcDbLine
 10
907.4729999999975
 20
2120.136387697997
 30
0.0
 11
905.332999999998
 21
2117.789387697997
 31
0.0
  0
LINE
  5
361
330
1F
100
AcDbEntity
  8
化粧台
  6
CONTINUOUS
 62
     6
100
AcDbLine
 10
902.5849999999984
 20
2105.763387697997
 30
0.0
 11
901.3219999999976
 21
2084.870387697997
 31
0.0
  0
LINE
  5
362
330
1F
100
AcDbEntity
  8
化粧台
  6
CONTINUOUS
 62
     6
100
AcDbLine
 10
904.3069999999982
 20
2109.491387697996
 30
0.0
 11
903.0059999999987
 21
2108.350387697997
 31
0.0
  0
LINE
  5
363
330
1F
100
AcDbEntity
  8
化粧台
  6
CONTINUOUS
 62
     6
100
AcDbLine
 10
902.7949999999976
 20
2107.061387697997
 30
0.0
 11
903.0059999999987
 21
2108.350387697997
 31
0.0
  0
LINE
  5
364
330
1F
100
AcDbEntity
  8
化粧台
  6
CONTINUOUS
 62
     6
100
AcDbLine
 10
902.5849999999984
 20
2105.763387697997
 30
0.0
 11
902.7949999999976
 21
2107.061387697997
 31
0.0
  0
LINE
  5
365
330
1F
100
AcDbEntity
  8
化粧台
  6
CONTINUOUS
 62
     6
100
AcDbLine
 10
902.5849999999984
 20
2097.962387697997
 30
0.0
 11
902.7949999999976
 21
2099.260387697997
 31
0.0
  0
LINE
  5
366
330
1F
100
AcDbEntity
  8
化粧台
  6
CONTINUOUS
 62
     6
100
AcDbLine
 10
902.7949999999976
 20
2099.260387697997
 30
0.0
 11
903.0059999999987
 21
2100.550387697996
 31
0.0
  0
LINE
  5
367
330
1F
100
AcDbEntity
  8
化粧台
  6
CONTINUOUS
 62
     6
100
AcDbLine
 10
904.3069999999982
 20
2101.690387697997
 30
0.0
 11
903.0059999999987
 21
2100.550387697996
 31
0.0
  0
LINE
  5
368
330
1F
100
AcDbEntity
  8
化粧台
  6
CONTINUOUS
 62
     6
100
AcDbLine
 10
902.5839999999982
 20
2097.950387697997
 30
0.0
 11
901.3219999999976
 21
2084.870387697997
 31
0.0
  0
LINE
  5
369
330
1F
100
AcDbEntity
  8
化粧台
  6
CONTINUOUS
 62
     6
100
AcDbLine
 10
937.4169999999988
 20
2097.950387697997
 30
0.0
 11
938.6789999999976
 21
2084.870387697997
 31
0.0
  0
LINE
  5
36A
330
1F
100
AcDbEntity
  8
化粧台
  6
CONTINUOUS
 62
     6
100
AcDbLine
 10
935.6939999999988
 20
2101.690387697997
 30
0.0
 11
936.9949999999983
 21
2100.550387697996
 31
0.0
  0
LINE
  5
36B
330
1F
100
AcDbEntity
  8
化粧台
  6
CONTINUOUS
 62
     6
100
AcDbLine
 10
937.2059999999976
 20
2099.260387697997
 30
0.0
 11
936.9949999999983
 21
2100.550387697996
 31
0.0
  0
LINE
  5
36C
330
1F
100
AcDbEntity
  8
化粧台
  6
CONTINUOUS
 62
     6
100
AcDbLine
 10
937.4159999999986
 20
2097.962387697997
 30
0.0
 11
937.2059999999976
 21
2099.260387697997
 31
0.0
  0
LINE
  5
36D
330
1F
100
AcDbEntity
  8
化粧台
  6
CONTINUOUS
 62
     6
100
AcDbLine
 10
937.4159999999986
 20
2105.763387697997
 30
0.0
 11
937.2059999999976
 21
2107.061387697997
 31
0.0
  0
LINE
  5
36E
330
1F
100
AcDbEntity
  8
化粧台
  6
CONTINUOUS
 62
     6
100
AcDbLine
 10
937.2059999999976
 20
2107.061387697997
 30
0.0
 11
936.9949999999983
 21
2108.350387697997
 31
0.0
  0
LINE
  5
36F
330
1F
100
AcDbEntity
  8
化粧台
  6
CONTINUOUS
 62
     6
100
AcDbLine
 10
935.6939999999988
 20
2109.491387697996
 30
0.0
 11
936.9949999999983
 21
2108.350387697997
 31
0.0
  0
LINE
  5
370
330
1F
100
AcDbEntity
  8
化粧台
  6
CONTINUOUS
 62
     6
100
AcDbLine
 10
937.4159999999986
 20
2105.763387697997
 30
0.0
 11
938.6789999999976
 21
2084.870387697997
 31
0.0
  0
LINE
  5
371
330
1F
100
AcDbEntity
  8
化粧台
  6
CONTINUOUS
 62
     6
100
AcDbLine
 10
932.5279999999977
 20
2120.136387697997
 30
0.0
 11
934.667999999999
 21
2117.789387697997
 31
0.0
  0
LINE
  5
372
330
1F
100
AcDbEntity
  8
化粧台
  6
CONTINUOUS
 62
     6
100
AcDbLine
 10
934.667999999999
 20
2117.789387697997
 30
0.0
 11
935.9799999999989
 21
2114.476387697997
 31
0.0
  0
LINE
  5
373
330
1F
100
AcDbEntity
  8
化粧台
  6
CONTINUOUS
 62
     6
100
AcDbLine
 10
935.9799999999989
 20
2114.476387697997
 30
0.0
 11
936.9949999999983
 21
2108.350387697997
 31
0.0
  0
ARC
  5
374
330
1F
100
AcDbEntity
  8
化粧台
  6
CONTINUOUS
 62
     6
100
AcDbCircle
 10
919.9999999999975
 20
1696.414387697997
 30
0.0
 40
380.0000000000003
100
AcDbArc
 50
79.79900000000005
 51
85.79399999999994
  0
ARC
  5
375
330
1F
100
AcDbEntity
  8
化粧台
  6
CONTINUOUS
 62
     6
100
AcDbCircle
 10
948.6039999999978
 20
2085.363387697997
 30
0.0
 40
10.0
100
AcDbArc
 50
182.4199999999994
 51
265.794
  0
ARC
  5
376
330
1F
100
AcDbEntity
  8
化粧台
  6
CONTINUOUS
 62
     6
100
AcDbCircle
 10
990.4999999999966
 20
2073.478387697996
 30
0.0
 40
4.0
100
AcDbArc
 50
180.0
 51
241.9300000000002
  0
LINE
  5
377
330
1F
100
AcDbEntity
  8
化粧台
  6
CONTINUOUS
 62
     6
100
AcDbLine
 10
986.4999999999966
 20
2079.222387697997
 30
0.0
 11
986.4999999999966
 21
2073.478387697996
 31
0.0
  0
ARC
  5
378
330
1F
100
AcDbEntity
  8
化粧台
  6
CONTINUOUS
 62
     6
100
AcDbCircle
 10
951.4999999999966
 20
2079.119387697997
 30
0.0
 40
4.0
100
AcDbArc
 50
265.2950000000001
 51
0.0
  0
LINE
  5
379
330
1F
100
AcDbEntity
  8
化粧台
  6
CONTINUOUS
 62
     6
100
AcDbLine
 10
955.5009999999968
 20
2079.119387697997
 30
0.0
 11
955.5009999999968
 21
2079.222387697997
 31
0.0
  0
LINE
  5
37A
330
1F
100
AcDbEntity
  8
化粧台
  6
CONTINUOUS
 62
     6
100
AcDbLine
 10
930.9999999999975
 20
2091.274387697997
 30
0.0
 11
930.9999999999975
 21
2100.128387697997
 31
0.0
  0
LINE
  5
37B
330
1F
100
AcDbEntity
  8
化粧台
  6
CONTINUOUS
 62
     6
100
AcDbLine
 10
952.104999999998
 20
2080.782387697996
 30
0.0
 11
953.8029999999983
 21
2123.248387697997
 31
0.0
  0
ARC
  5
37C
330
1F
100
AcDbEntity
  8
化粧台
  6
CONTINUOUS
 62
     6
100
AcDbCircle
 10
956.1119999999976
 20
2119.383387697997
 30
0.0
 40
7.000000000000004
100
AcDbArc
 50
101.2320000000001
 51
177.7120000000008
  0
ARC
  5
37D
330
1F
100
AcDbEntity
  8
化粧台
  6
CONTINUOUS
 62
     6
100
AcDbCircle
 10
953.6029999999976
 20
2080.722387697997
 30
0.0
 40
1.5
100
AcDbArc
 50
177.7110000000005
 51
270.0000000000002
  0
ARC
  5
37E
330
1F
100
AcDbEntity
  8
化粧台
  6
CONTINUOUS
 62
     6
100
AcDbCircle
 10
959.7979999999973
 20
2123.008387697997
 30
0.0
 40
6.000000000000004
100
AcDbArc
 50
92.18500000000003
 51
177.7110000000005
  0
ARC
  5
37F
330
1F
100
AcDbEntity
  8
化粧台
  6
CONTINUOUS
 62
     6
100
AcDbCircle
 10
949.0609999999981
 20
2080.722387697997
 30
0.0
 40
1.5
100
AcDbArc
 50
177.7120000000008
 51
270.0000000000002
  0
LINE
  5
380
330
1F
100
AcDbEntity
  8
化粧台
  6
CONTINUOUS
 62
     6
100
AcDbLine
 10
949.0609999999981
 20
2079.222387697997
 30
0.0
 11
970.9999999999966
 21
2079.222387697997
 31
0.0
  0
LINE
  5
381
330
1F
100
AcDbEntity
  8
化粧台
  6
CONTINUOUS
 62
     6
100
AcDbLine
 10
949.117999999997
 20
2119.663387697997
 30
0.0
 11
947.5629999999967
 21
2080.782387697996
 31
0.0
  0
ARC
  5
382
330
1F
100
AcDbEntity
  8
化粧台
  6
CONTINUOUS
 62
     6
100
AcDbCircle
 10
970.9999999999966
 20
1829.222387697996
 30
0.0
 40
300.0
100
AcDbArc
 50
91.37400000000002
 51
92.18500000000003
  0
LINE
  5
383
330
1F
100
AcDbEntity
  8
化粧台
  6
CONTINUOUS
 62
     6
100
AcDbLine
 10
979.4999999999966
 20
2129.141387697997
 30
0.0
 11
979.4999999999966
 21
2129.990387697997
 31
0.0
  0
ARC
  5
384
330
1F
100
AcDbEntity
  8
化粧台
  6
CONTINUOUS
 62
     6
100
AcDbCircle
 10
970.9999999999966
 20
2081.141387697997
 30
0.0
 40
50.00000000000004
100
AcDbArc
 50
80.69900000000005
 51
90.00000000000001
  0
ARC
  5
385
330
1F
100
AcDbEntity
  8
化粧台
  6
CONTINUOUS
 62
     6
100
AcDbCircle
 10
978.9999999999966
 20
2129.990387697997
 30
0.0
 40
0.5
100
AcDbArc
 50
0.0
 51
80.69900000000005
  0
ARC
  5
386
330
1F
100
AcDbEntity
  8
化粧台
  6
CONTINUOUS
 62
     6
100
AcDbCircle
 10
962.9999999999966
 20
2129.990387697997
 30
0.0
 40
0.5
100
AcDbArc
 50
99.30200000000005
 51
180.0019999999997
  0
ARC
  5
387
330
1F
100
AcDbEntity
  8
化粧台
  6
CONTINUOUS
 62
     6
100
AcDbCircle
 10
970.9999999999966
 20
2081.141387697997
 30
0.0
 40
50.00000000000004
100
AcDbArc
 50
90.00000000000001
 51
99.30200000000005
  0
LINE
  5
388
330
1F
100
AcDbEntity
  8
化粧台
  6
CONTINUOUS
 62
     6
100
AcDbLine
 10
962.4999999999967
 20
2129.141387697997
 30
0.0
 11
962.4999999999967
 21
2129.990387697997
 31
0.0
  0
LINE
  5
389
330
1F
100
AcDbEntity
  8
化粧台
  6
CONTINUOUS
 62
     6
100
AcDbLine
 10
893.8669999999977
 20
2119.248387697997
 30
0.0
 11
895.4369999999992
 21
2080.783387697997
 31
0.0
  0
ARC
  5
38A
330
1F
100
AcDbEntity
  8
化粧台
  6
CONTINUOUS
 62
     6
100
AcDbCircle
 10
893.9389999999978
 20
2080.722387697997
 30
0.0
 40
1.5
100
AcDbArc
 50
270.0000000000002
 51
2.336999999999399
  0
ARC
  5
38B
330
1F
100
AcDbEntity
  8
化粧台
  6
CONTINUOUS
 62
     6
100
AcDbCircle
 10
890.7479999999989
 20
2080.722387697997
 30
0.0
 40
1.5
100
AcDbArc
 50
270.0000000000002
 51
2.336999999999399
  0
LINE
  5
38C
330
1F
100
AcDbEntity
  8
化粧台
  6
CONTINUOUS
 62
     6
100
AcDbLine
 10
892.2459999999985
 20
2080.783387697997
 30
0.0
 11
890.6819999999982
 21
2119.118387697997
 31
0.0
  0
LINE
  5
38D
330
1F
100
AcDbEntity
  8
化粧台
  6
CONTINUOUS
 62
     6
100
AcDbLine
 10
965.0369999999969
 20
2080.239387697997
 30
0.0
 11
965.796999999997
 21
2124.308387697997
 31
0.0
  0
ARC
  5
38E
330
1F
100
AcDbEntity
  8
化粧台
  6
CONTINUOUS
 62
     6
100
AcDbCircle
 10
966.0369999999969
 20
2080.222387697997
 30
0.0
 40
1.0
100
AcDbArc
 50
179.0140000000006
 51
270.0000000000002
  0
ARC
  5
38F
330
1F
100
AcDbEntity
  8
化粧台
  6
CONTINUOUS
 62
     6
100
AcDbCircle
 10
970.7959999999969
 20
2124.222387697997
 30
0.0
 40
5.0
100
AcDbArc
 50
100.6429999999998
 51
179.0140000000006
  0
LINE
  5
390
330
1F
100
AcDbEntity
  8
化粧台
  6
CONTINUOUS
 62
     6
100
AcDbLine
 10
970.9999999999966
 20
2129.141387697997
 30
0.0
 11
962.4999999999967
 21
2129.141387697997
 31
0.0
  0
LINE
  5
391
330
1F
100
AcDbEntity
  8
化粧台
  6
CONTINUOUS
 62
     6
100
AcDbLine
 10
970.9999999999966
 20
2129.141387697997
 30
0.0
 11
979.4999999999966
 21
2129.141387697997
 31
0.0
  0
ARC
  5
392
330
1F
100
AcDbEntity
  8
化粧台
  6
CONTINUOUS
 62
     6
100
AcDbCircle
 10
970.9999999999966
 20
1829.222387697996
 30
0.0
 40
300.0
100
AcDbArc
 50
87.06000000000004
 51
88.62700000000002
  0
LINE
  5
393
330
1F
100
AcDbEntity
  8
化粧台
  6
CONTINUOUS
 62
     6
100
AcDbLine
 10
972.3459999999981
 20
2126.094387697997
 30
0.0
 11
982.5019999999971
 21
2126.094387697997
 31
0.0
  0
ARC
  5
394
330
1F
100
AcDbEntity
  8
化粧台
  6
CONTINUOUS
 62
     6
100
AcDbCircle
 10
972.3459999999981
 20
2121.094387697997
 30
0.0
 40
5.0
100
AcDbArc
 50
90.00000000000001
 51
178.6640000000001
  0
LINE
  5
395
330
1F
100
AcDbEntity
  8
化粧台
  6
CONTINUOUS
 62
     6
100
AcDbLine
 10
967.3469999999982
 20
2121.211387697997
 30
0.0
 11
966.3659999999965
 21
2079.222387697997
 31
0.0
  0
LINE
  5
396
330
1F
100
AcDbEntity
  8
化粧台
  6
CONTINUOUS
 62
     6
100
AcDbLine
 10
932.4439999999988
 20
2120.203387697997
 30
0.0
 11
930.1929999999986
 21
2120.883387697997
 31
0.0
  0
LINE
  5
397
330
1F
100
AcDbEntity
  8
化粧台
  6
CONTINUOUS
 62
     6
100
AcDbLine
 10
930.1929999999986
 20
2120.883387697997
 30
0.0
 11
928.2839999999971
 21
2121.271387697997
 31
0.0
  0
LINE
  5
398
330
1F
100
AcDbEntity
  8
化粧台
  6
CONTINUOUS
 62
     6
100
AcDbLine
 10
928.2839999999971
 20
2121.271387697997
 30
0.0
 11
926.7769999999975
 21
2121.498387697997
 31
0.0
  0
LINE
  5
399
330
1F
100
AcDbEntity
  8
化粧台
  6
CONTINUOUS
 62
     6
100
AcDbLine
 10
926.7769999999975
 20
2121.498387697997
 30
0.0
 11
925.5899999999976
 21
2121.637387697997
 31
0.0
  0
LINE
  5
39A
330
1F
100
AcDbEntity
  8
化粧台
  6
CONTINUOUS
 62
     6
100
AcDbLine
 10
925.5899999999976
 20
2121.637387697997
 30
0.0
 11
924.6369999999981
 21
2121.727387697997
 31
0.0
  0
LINE
  5
39B
330
1F
100
AcDbEntity
  8
化粧台
  6
CONTINUOUS
 62
     6
100
AcDbLine
 10
924.6369999999981
 20
2121.727387697997
 30
0.0
 11
923.8509999999981
 21
2121.787387697997
 31
0.0
  0
LINE
  5
39C
330
1F
100
AcDbEntity
  8
化粧台
  6
CONTINUOUS
 62
     6
100
AcDbLine
 10
923.8509999999981
 20
2121.787387697997
 30
0.0
 11
923.1849999999988
 21
2121.829387697997
 31
0.0
  0
LINE
  5
39D
330
1F
100
AcDbEntity
  8
化粧台
  6
CONTINUOUS
 62
     6
100
AcDbLine
 10
923.1849999999988
 20
2121.829387697997
 30
0.0
 11
922.6059999999973
 21
2121.858387697996
 31
0.0
  0
LINE
  5
39E
330
1F
100
AcDbEntity
  8
化粧台
  6
CONTINUOUS
 62
     6
100
AcDbLine
 10
922.6059999999973
 20
2121.858387697996
 30
0.0
 11
922.091999999998
 21
2121.879387697997
 31
0.0
  0
LINE
  5
39F
330
1F
100
AcDbEntity
  8
化粧台
  6
CONTINUOUS
 62
     6
100
AcDbLine
 10
922.091999999998
 20
2121.879387697997
 30
0.0
 11
921.6239999999973
 21
2121.894387697997
 31
0.0
  0
LINE
  5
3A0
330
1F
100
AcDbEntity
  8
化粧台
  6
CONTINUOUS
 62
     6
100
AcDbLine
 10
921.6239999999973
 20
2121.894387697997
 30
0.0
 11
921.189999999998
 21
2121.905387697997
 31
0.0
  0
LINE
  5
3A1
330
1F
100
AcDbEntity
  8
化粧台
  6
CONTINUOUS
 62
     6
100
AcDbLine
 10
921.189999999998
 20
2121.905387697997
 30
0.0
 11
920.778999999998
 21
2121.912387697997
 31
0.0
  0
LINE
  5
3A2
330
1F
100
AcDbEntity
  8
化粧台
  6
CONTINUOUS
 62
     6
100
AcDbLine
 10
920.778999999998
 20
2121.912387697997
 30
0.0
 11
920.3829999999973
 21
2121.916387697996
 31
0.0
  0
LINE
  5
3A3
330
1F
100
AcDbEntity
  8
化粧台
  6
CONTINUOUS
 62
     6
100
AcDbLine
 10
920.3829999999973
 20
2121.916387697996
 30
0.0
 11
919.9999999999975
 21
2121.917387697997
 31
0.0
  0
LINE
  5
3A4
330
1F
100
AcDbEntity
  8
化粧台
  6
CONTINUOUS
 62
     6
100
AcDbLine
 10
935.4179999999972
 20
2109.733387697996
 30
0.0
 11
931.8089999999986
 21
2110.260387697997
 31
0.0
  0
LINE
  5
3A5
330
1F
100
AcDbEntity
  8
化粧台
  6
CONTINUOUS
 62
     6
100
AcDbLine
 10
931.8089999999986
 20
2110.260387697997
 30
0.0
 11
929.2539999999983
 21
2110.519387697997
 31
0.0
  0
LINE
  5
3A6
330
1F
100
AcDbEntity
  8
化粧台
  6
CONTINUOUS
 62
     6
100
AcDbLine
 10
929.2539999999983
 20
2110.519387697997
 30
0.0
 11
927.4179999999972
 21
2110.659387697997
 31
0.0
  0
LINE
  5
3A7
330
1F
100
AcDbEntity
  8
化粧台
  6
CONTINUOUS
 62
     6
100
AcDbLine
 10
927.4179999999972
 20
2110.659387697997
 30
0.0
 11
926.0439999999974
 21
2110.741387697997
 31
0.0
  0
LINE
  5
3A8
330
1F
100
AcDbEntity
  8
化粧台
  6
CONTINUOUS
 62
     6
100
AcDbLine
 10
926.0439999999974
 20
2110.741387697997
 30
0.0
 11
924.970999999997
 21
2110.793387697997
 31
0.0
  0
LINE
  5
3A9
330
1F
100
AcDbEntity
  8
化粧台
  6
CONTINUOUS
 62
     6
100
AcDbLine
 10
924.970999999997
 20
2110.793387697997
 30
0.0
 11
924.0989999999977
 21
2110.827387697997
 31
0.0
  0
LINE
  5
3AA
330
1F
100
AcDbEntity
  8
化粧台
  6
CONTINUOUS
 62
     6
100
AcDbLine
 10
924.0989999999977
 20
2110.827387697997
 30
0.0
 11
923.3679999999979
 21
2110.851387697997
 31
0.0
  0
LINE
  5
3AB
330
1F
100
AcDbEntity
  8
化粧台
  6
CONTINUOUS
 62
     6
100
AcDbLine
 10
923.3679999999979
 20
2110.851387697997
 30
0.0
 11
922.7359999999983
 21
2110.867387697996
 31
0.0
  0
LINE
  5
3AC
330
1F
100
AcDbEntity
  8
化粧台
  6
CONTINUOUS
 62
     6
100
AcDbLine
 10
922.7359999999983
 20
2110.867387697996
 30
0.0
 11
922.1749999999986
 21
2110.879387697997
 31
0.0
  0
LINE
  5
3AD
330
1F
100
AcDbEntity
  8
化粧台
  6
CONTINUOUS
 62
     6
100
AcDbLine
 10
922.1749999999986
 20
2110.879387697997
 30
0.0
 11
921.6639999999982
 21
2110.887387697997
 31
0.0
  0
LINE
  5
3AE
330
1F
100
AcDbEntity
  8
化粧台
  6
CONTINUOUS
 62
     6
100
AcDbLine
 10
921.6639999999982
 20
2110.887387697997
 30
0.0
 11
921.189999999998
 21
2110.893387697997
 31
0.0
  0
LINE
  5
3AF
330
1F
100
AcDbEntity
  8
化粧台
  6
CONTINUOUS
 62
     6
100
AcDbLine
 10
921.189999999998
 20
2110.893387697997
 30
0.0
 11
920.7399999999973
 21
2110.897387697997
 31
0.0
  0
LINE
  5
3B0
330
1F
100
AcDbEntity
  8
化粧台
  6
CONTINUOUS
 62
     6
100
AcDbLine
 10
920.7399999999973
 20
2110.897387697997
 30
0.0
 11
920.3039999999976
 21
2110.899387697997
 31
0.0
  0
LINE
  5
3B1
330
1F
100
AcDbEntity
  8
化粧台
  6
CONTINUOUS
 62
     6
100
AcDbLine
 10
920.3039999999976
 20
2110.899387697997
 30
0.0
 11
919.9999999999975
 21
2110.899387697997
 31
0.0
  0
LINE
  5
3B2
330
1F
100
AcDbEntity
  8
化粧台
  6
CONTINUOUS
 62
     6
100
AcDbLine
 10
935.6939999999988
 20
2101.690387697997
 30
0.0
 11
932.0089999999975
 21
2102.244387697997
 31
0.0
  0
LINE
  5
3B3
330
1F
100
AcDbEntity
  8
化粧台
  6
CONTINUOUS
 62
     6
100
AcDbLine
 10
932.0089999999975
 20
2102.244387697997
 30
0.0
 11
929.3949999999979
 21
2102.514387697997
 31
0.0
  0
LINE
  5
3B4
330
1F
100
AcDbEntity
  8
化粧台
  6
CONTINUOUS
 62
     6
100
AcDbLine
 10
929.3949999999979
 20
2102.514387697997
 30
0.0
 11
927.5209999999981
 21
2102.660387697997
 31
0.0
  0
LINE
  5
3B5
330
1F
100
AcDbEntity
  8
化粧台
  6
CONTINUOUS
 62
     6
100
AcDbLine
 10
927.5209999999981
 20
2102.660387697997
 30
0.0
 11
926.1229999999971
 21
2102.745387697997
 31
0.0
  0
LINE
  5
3B6
330
1F
100
AcDbEntity
  8
化粧台
  6
CONTINUOUS
 62
     6
100
AcDbLine
 10
926.1229999999971
 20
2102.745387697997
 30
0.0
 11
925.0339999999971
 21
2102.798387697997
 31
0.0
  0
LINE
  5
3B7
330
1F
100
AcDbEntity
  8
化粧台
  6
CONTINUOUS
 62
     6
100
AcDbLine
 10
925.0339999999971
 20
2102.798387697997
 30
0.0
 11
924.1509999999973
 21
2102.833387697997
 31
0.0
  0
LINE
  5
3B8
330
1F
100
AcDbEntity
  8
化粧台
  6
CONTINUOUS
 62
     6
100
AcDbLine
 10
924.1509999999973
 20
2102.833387697997
 30
0.0
 11
923.412999999998
 21
2102.857387697997
 31
0.0
  0
LINE
  5
3B9
330
1F
100
AcDbEntity
  8
化粧台
  6
CONTINUOUS
 62
     6
100
AcDbLine
 10
923.412999999998
 20
2102.857387697997
 30
0.0
 11
922.7749999999971
 21
2102.874387697997
 31
0.0
  0
LINE
  5
3BA
330
1F
100
AcDbEntity
  8
化粧台
  6
CONTINUOUS
 62
     6
100
AcDbLine
 10
922.7749999999971
 20
2102.874387697997
 30
0.0
 11
922.2099999999984
 21
2102.886387697997
 31
0.0
  0
LINE
  5
3BB
330
1F
100
AcDbEntity
  8
化粧台
  6
CONTINUOUS
 62
     6
100
AcDbLine
 10
922.2099999999984
 20
2102.886387697997
 30
0.0
 11
921.6969999999976
 21
2102.894387697997
 31
0.0
  0
LINE
  5
3BC
330
1F
100
AcDbEntity
  8
化粧台
  6
CONTINUOUS
 62
     6
100
AcDbLine
 10
921.6969999999976
 20
2102.894387697997
 30
0.0
 11
921.2199999999987
 21
2102.900387697997
 31
0.0
  0
LINE
  5
3BD
330
1F
100
AcDbEntity
  8
化粧台
  6
CONTINUOUS
 62
     6
100
AcDbLine
 10
921.2199999999987
 20
2102.900387697997
 30
0.0
 11
920.7689999999977
 21
2102.904387697997
 31
0.0
  0
LINE
  5
3BE
330
1F
100
AcDbEntity
  8
化粧台
  6
CONTINUOUS
 62
     6
100
AcDbLine
 10
920.7689999999977
 20
2102.904387697997
 30
0.0
 11
920.332999999998
 21
2102.906387697997
 31
0.0
  0
LINE
  5
3BF
330
1F
100
AcDbEntity
  8
化粧台
  6
CONTINUOUS
 62
     6
100
AcDbLine
 10
920.332999999998
 20
2102.906387697997
 30
0.0
 11
919.9999999999975
 21
2102.907387697997
 31
0.0
  0
LINE
  5
3C0
330
1F
100
AcDbEntity
  8
化粧台
  6
CONTINUOUS
 62
     6
100
AcDbLine
 10
919.9999999999975
 20
2088.427387697997
 30
0.0
 11
920.2859999999976
 21
2088.428387697997
 31
0.0
  0
LINE
  5
3C1
330
1F
100
AcDbEntity
  8
化粧台
  6
CONTINUOUS
 62
     6
100
AcDbLine
 10
920.2859999999976
 20
2088.428387697997
 30
0.0
 11
920.5769999999986
 21
2088.431387697997
 31
0.0
  0
LINE
  5
3C2
330
1F
100
AcDbEntity
  8
化粧台
  6
CONTINUOUS
 62
     6
100
AcDbLine
 10
920.5769999999986
 20
2088.431387697997
 30
0.0
 11
920.8779999999981
 21
2088.436387697997
 31
0.0
  0
LINE
  5
3C3
330
1F
100
AcDbEntity
  8
化粧台
  6
CONTINUOUS
 62
     6
100
AcDbLine
 10
920.8779999999981
 20
2088.436387697997
 30
0.0
 11
921.1969999999976
 21
2088.444387697997
 31
0.0
  0
LINE
  5
3C4
330
1F
100
AcDbEntity
  8
化粧台
  6
CONTINUOUS
 62
     6
100
AcDbLine
 10
921.1969999999976
 20
2088.444387697997
 30
0.0
 11
921.5399999999984
 21
2088.455387697997
 31
0.0
  0
LINE
  5
3C5
330
1F
100
AcDbEntity
  8
化粧台
  6
CONTINUOUS
 62
     6
100
AcDbLine
 10
921.5399999999984
 20
2088.455387697997
 30
0.0
 11
921.9179999999972
 21
2088.471387697997
 31
0.0
  0
LINE
  5
3C6
330
1F
100
AcDbEntity
  8
化粧台
  6
CONTINUOUS
 62
     6
100
AcDbLine
 10
921.9179999999972
 20
2088.471387697997
 30
0.0
 11
922.3429999999983
 21
2088.493387697997
 31
0.0
  0
LINE
  5
3C7
330
1F
100
AcDbEntity
  8
化粧台
  6
CONTINUOUS
 62
     6
100
AcDbLine
 10
922.3429999999983
 20
2088.493387697997
 30
0.0
 11
922.832999999998
 21
2088.523387697997
 31
0.0
  0
LINE
  5
3C8
330
1F
100
AcDbEntity
  8
化粧台
  6
CONTINUOUS
 62
     6
100
AcDbLine
 10
922.832999999998
 20
2088.523387697997
 30
0.0
 11
923.4109999999976
 21
2088.568387697997
 31
0.0
  0
LINE
  5
3C9
330
1F
100
AcDbEntity
  8
化粧台
  6
CONTINUOUS
 62
     6
100
AcDbLine
 10
923.4109999999976
 20
2088.568387697997
 30
0.0
 11
924.1129999999987
 21
2088.634387697997
 31
0.0
  0
LINE
  5
3CA
330
1F
100
AcDbEntity
  8
化粧台
  6
CONTINUOUS
 62
     6
100
AcDbLine
 10
924.1129999999987
 20
2088.634387697997
 30
0.0
 11
924.9859999999983
 21
2088.737387697997
 31
0.0
  0
LINE
  5
3CB
330
1F
100
AcDbEntity
  8
化粧台
  6
CONTINUOUS
 62
     6
100
AcDbLine
 10
924.9859999999983
 20
2088.737387697997
 30
0.0
 11
926.095999999997
 21
2088.904387697997
 31
0.0
  0
LINE
  5
3CC
330
1F
100
AcDbEntity
  8
化粧台
  6
CONTINUOUS
 62
     6
100
AcDbLine
 10
926.095999999997
 20
2088.904387697997
 30
0.0
 11
927.5009999999977
 21
2089.192387697997
 31
0.0
  0
LINE
  5
3CD
330
1F
100
AcDbEntity
  8
化粧台
  6
CONTINUOUS
 62
     6
100
AcDbLine
 10
927.5009999999977
 20
2089.192387697997
 30
0.0
 11
929.153999999998
 21
2089.695387697997
 31
0.0
  0
LINE
  5
3CE
330
1F
100
AcDbEntity
  8
化粧台
  6
CONTINUOUS
 62
     6
100
AcDbLine
 10
929.153999999998
 20
2089.695387697997
 30
0.0
 11
930.6089999999979
 21
2090.522387697997
 31
0.0
  0
LINE
  5
3CF
330
1F
100
AcDbEntity
  8
化粧台
  6
CONTINUOUS
 62
     6
100
AcDbLine
 10
930.6089999999979
 20
2090.522387697997
 30
0.0
 11
930.9999999999975
 21
2091.274387697997
 31
0.0
  0
LINE
  5
3D0
330
1F
100
AcDbEntity
  8
化粧台
  6
CONTINUOUS
 62
     6
100
AcDbLine
 10
930.9999999999975
 20
2091.274387697997
 30
0.0
 11
930.930999999998
 21
2091.594387697997
 31
0.0
  0
LINE
  5
3D1
330
1F
100
AcDbEntity
  8
化粧台
  6
CONTINUOUS
 62
     6
100
AcDbLine
 10
930.930999999998
 20
2091.594387697997
 30
0.0
 11
929.8309999999976
 21
2092.552387697997
 31
0.0
  0
LINE
  5
3D2
330
1F
100
AcDbEntity
  8
化粧台
  6
CONTINUOUS
 62
     6
100
AcDbLine
 10
929.8309999999976
 20
2092.552387697997
 30
0.0
 11
928.1709999999978
 21
2093.180387697997
 31
0.0
  0
LINE
  5
3D3
330
1F
100
AcDbEntity
  8
化粧台
  6
CONTINUOUS
 62
     6
100
AcDbLine
 10
928.1709999999978
 20
2093.180387697997
 30
0.0
 11
926.6429999999975
 21
2093.544387697997
 31
0.0
  0
LINE
  5
3D4
330
1F
100
AcDbEntity
  8
化粧台
  6
CONTINUOUS
 62
     6
100
AcDbLine
 10
926.6429999999975
 20
2093.544387697997
 30
0.0
 11
925.4149999999984
 21
2093.752387697997
 31
0.0
  0
LINE
  5
3D5
330
1F
100
AcDbEntity
  8
化粧台
  6
CONTINUOUS
 62
     6
100
AcDbLine
 10
925.4149999999984
 20
2093.752387697997
 30
0.0
 11
924.4519999999986
 21
2093.878387697997
 31
0.0
  0
LINE
  5
3D6
330
1F
100
AcDbEntity
  8
化粧台
  6
CONTINUOUS
 62
     6
100
AcDbLine
 10
924.4519999999986
 20
2093.878387697997
 30
0.0
 11
923.6859999999972
 21
2093.957387697997
 31
0.0
  0
LINE
  5
3D7
330
1F
100
AcDbEntity
  8
化粧台
  6
CONTINUOUS
 62
     6
100
AcDbLine
 10
923.6859999999972
 20
2093.957387697997
 30
0.0
 11
923.0609999999972
 21
2094.009387697997
 31
0.0
  0
LINE
  5
3D8
330
1F
100
AcDbEntity
  8
化粧台
  6
CONTINUOUS
 62
     6
100
AcDbLine
 10
923.0609999999972
 20
2094.009387697997
 30
0.0
 11
922.537999999998
 21
2094.044387697997
 31
0.0
  0
LINE
  5
3D9
330
1F
100
AcDbEntity
  8
化粧台
  6
CONTINUOUS
 62
     6
100
AcDbLine
 10
922.537999999998
 20
2094.044387697997
 30
0.0
 11
922.0889999999974
 21
2094.070387697997
 31
0.0
  0
LINE
  5
3DA
330
1F
100
AcDbEntity
  8
化粧台
  6
CONTINUOUS
 62
     6
100
AcDbLine
 10
922.0889999999974
 20
2094.070387697997
 30
0.0
 11
921.6929999999986
 21
2094.087387697997
 31
0.0
  0
LINE
  5
3DB
330
1F
100
AcDbEntity
  8
化粧台
  6
CONTINUOUS
 62
     6
100
AcDbLine
 10
921.6929999999986
 20
2094.087387697997
 30
0.0
 11
921.3359999999986
 21
2094.100387697997
 31
0.0
  0
LINE
  5
3DC
330
1F
100
AcDbEntity
  8
化粧台
  6
CONTINUOUS
 62
     6
100
AcDbLine
 10
921.3359999999986
 20
2094.100387697997
 30
0.0
 11
921.0079999999973
 21
2094.109387697997
 31
0.0
  0
LINE
  5
3DD
330
1F
100
AcDbEntity
  8
化粧台
  6
CONTINUOUS
 62
     6
100
AcDbLine
 10
921.0079999999973
 20
2094.109387697997
 30
0.0
 11
920.7009999999984
 21
2094.116387697997
 31
0.0
  0
LINE
  5
3DE
330
1F
100
AcDbEntity
  8
化粧台
  6
CONTINUOUS
 62
     6
100
AcDbLine
 10
920.7009999999984
 20
2094.116387697997
 30
0.0
 11
920.4059999999984
 21
2094.119387697997
 31
0.0
  0
LINE
  5
3DF
330
1F
100
AcDbEntity
  8
化粧台
  6
CONTINUOUS
 62
     6
100
AcDbLine
 10
920.4059999999984
 20
2094.119387697997
 30
0.0
 11
920.1189999999981
 21
2094.121387697997
 31
0.0
  0
LINE
  5
3E0
330
1F
100
AcDbEntity
  8
化粧台
  6
CONTINUOUS
 62
     6
100
AcDbLine
 10
920.1189999999981
 20
2094.121387697997
 30
0.0
 11
919.9999999999975
 21
2094.121387697997
 31
0.0
  0
LINE
  5
3E1
330
1F
100
AcDbEntity
  8
化粧台
  6
CONTINUOUS
 62
     6
100
AcDbLine
 10
919.9999999999975
 20
2121.917387697997
 30
0.0
 11
919.6109999999983
 21
2121.916387697996
 31
0.0
  0
LINE
  5
3E2
330
1F
100
AcDbEntity
  8
化粧台
  6
CONTINUOUS
 62
     6
100
AcDbLine
 10
919.6109999999983
 20
2121.916387697996
 30
0.0
 11
919.2149999999976
 21
2121.912387697997
 31
0.0
  0
LINE
  5
3E3
330
1F
100
AcDbEntity
  8
化粧台
  6
CONTINUOUS
 62
     6
100
AcDbLine
 10
919.2149999999976
 20
2121.912387697997
 30
0.0
 11
918.8029999999974
 21
2121.905387697997
 31
0.0
  0
LINE
  5
3E4
330
1F
100
AcDbEntity
  8
化粧台
  6
CONTINUOUS
 62
     6
100
AcDbLine
 10
918.8029999999974
 20
2121.905387697997
 30
0.0
 11
918.3689999999981
 21
2121.894387697997
 31
0.0
  0
LINE
  5
3E5
330
1F
100
AcDbEntity
  8
化粧台
  6
CONTINUOUS
 62
     6
100
AcDbLine
 10
918.3689999999981
 20
2121.894387697997
 30
0.0
 11
917.8999999999971
 21
2121.879387697997
 31
0.0
  0
LINE
  5
3E6
330
1F
100
AcDbEntity
  8
化粧台
  6
CONTINUOUS
 62
     6
100
AcDbLine
 10
917.8999999999971
 20
2121.879387697997
 30
0.0
 11
917.3849999999977
 21
2121.858387697996
 31
0.0
  0
LINE
  5
3E7
330
1F
100
AcDbEntity
  8
化粧台
  6
CONTINUOUS
 62
     6
100
AcDbLine
 10
917.3849999999977
 20
2121.858387697996
 30
0.0
 11
916.805999999998
 21
2121.828387697997
 31
0.0
  0
LINE
  5
3E8
330
1F
100
AcDbEntity
  8
化粧台
  6
CONTINUOUS
 62
     6
100
AcDbLine
 10
916.805999999998
 20
2121.828387697997
 30
0.0
 11
916.1379999999983
 21
2121.786387697996
 31
0.0
  0
LINE
  5
3E9
330
1F
100
AcDbEntity
  8
化粧台
  6
CONTINUOUS
 62
     6
100
AcDbLine
 10
916.1379999999983
 20
2121.786387697996
 30
0.0
 11
915.3489999999977
 21
2121.726387697997
 31
0.0
  0
LINE
  5
3EA
330
1F
100
AcDbEntity
  8
化粧台
  6
CONTINUOUS
 62
     6
100
AcDbLine
 10
915.3489999999977
 20
2121.726387697997
 30
0.0
 11
914.3929999999975
 21
2121.635387697997
 31
0.0
  0
LINE
  5
3EB
330
1F
100
AcDbEntity
  8
化粧台
  6
CONTINUOUS
 62
     6
100
AcDbLine
 10
914.3929999999975
 20
2121.635387697997
 30
0.0
 11
913.2009999999984
 21
2121.495387697997
 31
0.0
  0
LINE
  5
3EC
330
1F
100
AcDbEntity
  8
化粧台
  6
CONTINUOUS
 62
     6
100
AcDbLine
 10
913.2009999999984
 20
2121.495387697997
 30
0.0
 11
911.6879999999976
 21
2121.266387697997
 31
0.0
  0
LINE
  5
3ED
330
1F
100
AcDbEntity
  8
化粧台
  6
CONTINUOUS
 62
     6
100
AcDbLine
 10
911.6879999999976
 20
2121.266387697997
 30
0.0
 11
909.7719999999983
 21
2120.874387697997
 31
0.0
  0
LINE
  5
3EE
330
1F
100
AcDbEntity
  8
化粧台
  6
CONTINUOUS
 62
     6
100
AcDbLine
 10
909.7719999999983
 20
2120.874387697997
 30
0.0
 11
907.5569999999982
 21
2120.203387697997
 31
0.0
  0
LINE
  5
3EF
330
1F
100
AcDbEntity
  8
化粧台
  6
CONTINUOUS
 62
     6
100
AcDbLine
 10
919.9999999999975
 20
2110.899387697997
 30
0.0
 11
919.5699999999972
 21
2110.898387697997
 31
0.0
  0
LINE
  5
3F0
330
1F
100
AcDbEntity
  8
化粧台
  6
CONTINUOUS
 62
     6
100
AcDbLine
 10
919.5699999999972
 20
2110.898387697997
 30
0.0
 11
919.1309999999987
 21
2110.896387697997
 31
0.0
  0
LINE
  5
3F1
330
1F
100
AcDbEntity
  8
化粧台
  6
CONTINUOUS
 62
     6
100
AcDbLine
 10
919.1309999999987
 20
2110.896387697997
 30
0.0
 11
918.6749999999986
 21
2110.891387697997
 31
0.0
  0
LINE
  5
3F2
330
1F
100
AcDbEntity
  8
化粧台
  6
CONTINUOUS
 62
     6
100
AcDbLine
 10
918.6749999999986
 20
2110.891387697997
 30
0.0
 11
918.1909999999982
 21
2110.885387697997
 31
0.0
  0
LINE
  5
3F3
330
1F
100
AcDbEntity
  8
化粧台
  6
CONTINUOUS
 62
     6
100
AcDbLine
 10
918.1909999999982
 20
2110.885387697997
 30
0.0
 11
917.6679999999972
 21
2110.876387697997
 31
0.0
  0
LINE
  5
3F4
330
1F
100
AcDbEntity
  8
化粧台
  6
CONTINUOUS
 62
     6
100
AcDbLine
 10
917.6679999999972
 20
2110.876387697997
 30
0.0
 11
917.0879999999972
 21
2110.863387697997
 31
0.0
  0
LINE
  5
3F5
330
1F
100
AcDbEntity
  8
化粧台
  6
CONTINUOUS
 62
     6
100
AcDbLine
 10
917.0879999999972
 20
2110.863387697997
 30
0.0
 11
916.4299999999978
 21
2110.845387697997
 31
0.0
  0
LINE
  5
3F6
330
1F
100
AcDbEntity
  8
化粧台
  6
CONTINUOUS
 62
     6
100
AcDbLine
 10
916.4299999999978
 20
2110.845387697997
 30
0.0
 11
915.662999999998
 21
2110.818387697997
 31
0.0
  0
LINE
  5
3F7
330
1F
100
AcDbEntity
  8
化粧台
  6
CONTINUOUS
 62
     6
100
AcDbLine
 10
915.662999999998
 20
2110.818387697997
 30
0.0
 11
914.7399999999973
 21
2110.780387697997
 31
0.0
  0
LINE
  5
3F8
330
1F
100
AcDbEntity
  8
化粧台
  6
CONTINUOUS
 62
     6
100
AcDbLine
 10
914.7399999999973
 20
2110.780387697997
 30
0.0
 11
913.5909999999978
 21
2110.721387697997
 31
0.0
  0
LINE
  5
3F9
330
1F
100
AcDbEntity
  8
化粧台
  6
CONTINUOUS
 62
     6
100
AcDbLine
 10
913.5909999999978
 20
2110.721387697997
 30
0.0
 11
912.1019999999983
 21
2110.626387697997
 31
0.0
  0
LINE
  5
3FA
330
1F
100
AcDbEntity
  8
化粧台
  6
CONTINUOUS
 62
     6
100
AcDbLine
 10
912.1019999999983
 20
2110.626387697997
 30
0.0
 11
910.086999999997
 21
2110.460387697997
 31
0.0
  0
LINE
  5
3FB
330
1F
100
AcDbEntity
  8
化粧台
  6
CONTINUOUS
 62
     6
100
AcDbLine
 10
910.086999999997
 20
2110.460387697997
 30
0.0
 11
907.2559999999987
 21
2110.144387697997
 31
0.0
  0
LINE
  5
3FC
330
1F
100
AcDbEntity
  8
化粧台
  6
CONTINUOUS
 62
     6
100
AcDbLine
 10
907.2559999999987
 20
2110.144387697997
 30
0.0
 11
904.582999999998
 21
2109.733387697996
 31
0.0
  0
LINE
  5
3FD
330
1F
100
AcDbEntity
  8
化粧台
  6
CONTINUOUS
 62
     6
100
AcDbLine
 10
919.9999999999975
 20
2102.907387697997
 30
0.0
 11
919.5699999999972
 21
2102.906387697997
 31
0.0
  0
LINE
  5
3FE
330
1F
100
AcDbEntity
  8
化粧台
  6
CONTINUOUS
 62
     6
100
AcDbLine
 10
919.5699999999972
 20
2102.906387697997
 30
0.0
 11
919.1309999999987
 21
2102.903387697997
 31
0.0
  0
LINE
  5
3FF
330
1F
100
AcDbEntity
  8
化粧台
  6
CONTINUOUS
 62
     6
100
AcDbLine
 10
919.1309999999987
 20
2102.903387697997
 30
0.0
 11
918.6749999999986
 21
2102.899387697997
 31
0.0
  0
LINE
  5
400
330
1F
100
AcDbEntity
  8
化粧台
  6
CONTINUOUS
 62
     6
100
AcDbLine
 10
918.6749999999986
 20
2102.899387697997
 30
0.0
 11
918.1909999999982
 21
2102.893387697997
 31
0.0
  0
LINE
  5
401
330
1F
100
AcDbEntity
  8
化粧台
  6
CONTINUOUS
 62
     6
100
AcDbLine
 10
918.1909999999982
 20
2102.893387697997
 30
0.0
 11
917.6679999999972
 21
2102.883387697997
 31
0.0
  0
LINE
  5
402
330
1F
100
AcDbEntity
  8
化粧台
  6
CONTINUOUS
 62
     6
100
AcDbLine
 10
917.6679999999972
 20
2102.883387697997
 30
0.0
 11
917.0879999999972
 21
2102.870387697997
 31
0.0
  0
LINE
  5
403
330
1F
100
AcDbEntity
  8
化粧台
  6
CONTINUOUS
 62
     6
100
AcDbLine
 10
917.0879999999972
 20
2102.870387697997
 30
0.0
 11
916.4299999999978
 21
2102.852387697997
 31
0.0
  0
LINE
  5
404
330
1F
100
AcDbEntity
  8
化粧台
  6
CONTINUOUS
 62
     6
100
AcDbLine
 10
916.4299999999978
 20
2102.852387697997
 30
0.0
 11
915.662999999998
 21
2102.826387697997
 31
0.0
  0
LINE
  5
405
330
1F
100
AcDbEntity
  8
化粧台
  6
CONTINUOUS
 62
     6
100
AcDbLine
 10
915.662999999998
 20
2102.826387697997
 30
0.0
 11
914.7399999999973
 21
2102.788387697997
 31
0.0
  0
LINE
  5
406
330
1F
100
AcDbEntity
  8
化粧台
  6
CONTINUOUS
 62
     6
100
AcDbLine
 10
914.7399999999973
 20
2102.788387697997
 30
0.0
 11
913.5909999999978
 21
2102.729387697997
 31
0.0
  0
LINE
  5
407
330
1F
100
AcDbEntity
  8
化粧台
  6
CONTINUOUS
 62
     6
100
AcDbLine
 10
913.5909999999978
 20
2102.729387697997
 30
0.0
 11
912.1019999999983
 21
2102.633387697997
 31
0.0
  0
LINE
  5
408
330
1F
100
AcDbEntity
  8
化粧台
  6
CONTINUOUS
 62
     6
100
AcDbLine
 10
912.1019999999983
 20
2102.633387697997
 30
0.0
 11
910.086999999997
 21
2102.467387697997
 31
0.0
  0
LINE
  5
409
330
1F
100
AcDbEntity
  8
化粧台
  6
CONTINUOUS
 62
     6
100
AcDbLine
 10
910.086999999997
 20
2102.467387697997
 30
0.0
 11
907.2559999999987
 21
2102.151387697997
 31
0.0
  0
LINE
  5
40A
330
1F
100
AcDbEntity
  8
化粧台
  6
CONTINUOUS
 62
     6
100
AcDbLine
 10
907.2559999999987
 20
2102.151387697997
 30
0.0
 11
904.3069999999982
 21
2101.690387697997
 31
0.0
  0
LINE
  5
40B
330
1F
100
AcDbEntity
  8
化粧台
  6
CONTINUOUS
 62
     6
100
AcDbLine
 10
919.9999999999975
 20
2094.121387697997
 30
0.0
 11
919.7149999999976
 21
2094.120387697997
 31
0.0
  0
LINE
  5
40C
330
1F
100
AcDbEntity
  8
化粧台
  6
CONTINUOUS
 62
     6
100
AcDbLine
 10
919.7149999999976
 20
2094.120387697997
 30
0.0
 11
919.4239999999984
 21
2094.117387697996
 31
0.0
  0
LINE
  5
40D
330
1F
100
AcDbEntity
  8
化粧台
  6
CONTINUOUS
 62
     6
100
AcDbLine
 10
919.4239999999984
 20
2094.117387697996
 30
0.0
 11
919.1229999999971
 21
2094.112387697997
 31
0.0
  0
LINE
  5
40E
330
1F
100
AcDbEntity
  8
化粧台
  6
CONTINUOUS
 62
     6
100
AcDbLine
 10
919.1229999999971
 20
2094.112387697997
 30
0.0
 11
918.8039999999976
 21
2094.104387697997
 31
0.0
  0
LINE
  5
40F
330
1F
100
AcDbEntity
  8
化粧台
  6
CONTINUOUS
 62
     6
100
AcDbLine
 10
918.8039999999976
 20
2094.104387697997
 30
0.0
 11
918.4599999999984
 21
2094.093387697997
 31
0.0
  0
LINE
  5
410
330
1F
100
AcDbEntity
  8
化粧台
  6
CONTINUOUS
 62
     6
100
AcDbLine
 10
918.4599999999984
 20
2094.093387697997
 30
0.0
 11
918.082999999998
 21
2094.078387697997
 31
0.0
  0
LINE
  5
411
330
1F
100
AcDbEntity
  8
化粧台
  6
CONTINUOUS
 62
     6
100
AcDbLine
 10
918.082999999998
 20
2094.078387697997
 30
0.0
 11
917.6569999999986
 21
2094.056387697997
 31
0.0
  0
LINE
  5
412
330
1F
100
AcDbEntity
  8
化粧台
  6
CONTINUOUS
 62
     6
100
AcDbLine
 10
917.6569999999986
 20
2094.056387697997
 30
0.0
 11
917.1679999999972
 21
2094.025387697997
 31
0.0
  0
LINE
  5
413
330
1F
100
AcDbEntity
  8
化粧台
  6
CONTINUOUS
 62
     6
100
AcDbLine
 10
917.1679999999972
 20
2094.025387697997
 30
0.0
 11
916.5899999999976
 21
2093.981387697997
 31
0.0
  0
LINE
  5
414
330
1F
100
AcDbEntity
  8
化粧台
  6
CONTINUOUS
 62
     6
100
AcDbLine
 10
916.5899999999976
 20
2093.981387697997
 30
0.0
 11
915.8879999999983
 21
2093.915387697997
 31
0.0
  0
LINE
  5
415
330
1F
100
AcDbEntity
  8
化粧台
  6
CONTINUOUS
 62
     6
100
AcDbLine
 10
915.8879999999983
 20
2093.915387697997
 30
0.0
 11
915.0139999999985
 21
2093.812387697997
 31
0.0
  0
LINE
  5
416
330
1F
100
AcDbEntity
  8
化粧台
  6
CONTINUOUS
 62
     6
100
AcDbLine
 10
915.0139999999985
 20
2093.812387697997
 30
0.0
 11
913.9049999999982
 21
2093.644387697997
 31
0.0
  0
LINE
  5
417
330
1F
100
AcDbEntity
  8
化粧台
  6
CONTINUOUS
 62
     6
100
AcDbLine
 10
913.9049999999982
 20
2093.644387697997
 30
0.0
 11
912.4989999999973
 21
2093.357387697997
 31
0.0
  0
LINE
  5
418
330
1F
100
AcDbEntity
  8
化粧台
  6
CONTINUOUS
 62
     6
100
AcDbLine
 10
912.4989999999973
 20
2093.357387697997
 30
0.0
 11
910.8469999999973
 21
2092.853387697997
 31
0.0
  0
LINE
  5
419
330
1F
100
AcDbEntity
  8
化粧台
  6
CONTINUOUS
 62
     6
100
AcDbLine
 10
910.8469999999973
 20
2092.853387697997
 30
0.0
 11
909.3909999999971
 21
2092.027387697996
 31
0.0
  0
LINE
  5
41A
330
1F
100
AcDbEntity
  8
化粧台
  6
CONTINUOUS
 62
     6
100
AcDbLine
 10
909.3909999999971
 20
2092.027387697996
 30
0.0
 11
908.9999999999975
 21
2091.274387697997
 31
0.0
  0
LINE
  5
41B
330
1F
100
AcDbEntity
  8
化粧台
  6
CONTINUOUS
 62
     6
100
AcDbLine
 10
908.9999999999975
 20
2091.274387697997
 30
0.0
 11
909.0699999999972
 21
2090.955387697997
 31
0.0
  0
LINE
  5
41C
330
1F
100
AcDbEntity
  8
化粧台
  6
CONTINUOUS
 62
     6
100
AcDbLine
 10
909.0699999999972
 20
2090.955387697997
 30
0.0
 11
910.1699999999976
 21
2089.997387697997
 31
0.0
  0
LINE
  5
41D
330
1F
100
AcDbEntity
  8
化粧台
  6
CONTINUOUS
 62
     6
100
AcDbLine
 10
910.1699999999976
 20
2089.997387697997
 30
0.0
 11
911.8299999999974
 21
2089.368387697997
 31
0.0
  0
LINE
  5
41E
330
1F
100
AcDbEntity
  8
化粧台
  6
CONTINUOUS
 62
     6
100
AcDbLine
 10
911.8299999999974
 20
2089.368387697997
 30
0.0
 11
913.3579999999977
 21
2089.005387697997
 31
0.0
  0
LINE
  5
41F
330
1F
100
AcDbEntity
  8
化粧台
  6
CONTINUOUS
 62
     6
100
AcDbLine
 10
913.3579999999977
 20
2089.005387697997
 30
0.0
 11
914.5859999999986
 21
2088.796387697997
 31
0.0
  0
LINE
  5
420
330
1F
100
AcDbEntity
  8
化粧台
  6
CONTINUOUS
 62
     6
100
AcDbLine
 10
914.5859999999986
 20
2088.796387697997
 30
0.0
 11
915.5489999999984
 21
2088.671387697997
 31
0.0
  0
LINE
  5
421
330
1F
100
AcDbEntity
  8
化粧台
  6
CONTINUOUS
 62
     6
100
AcDbLine
 10
915.5489999999984
 20
2088.671387697997
 30
0.0
 11
916.314999999998
 21
2088.592387697997
 31
0.0
  0
LINE
  5
422
330
1F
100
AcDbEntity
  8
化粧台
  6
CONTINUOUS
 62
     6
100
AcDbLine
 10
916.314999999998
 20
2088.592387697997
 30
0.0
 11
916.939999999998
 21
2088.540387697997
 31
0.0
  0
LINE
  5
423
330
1F
100
AcDbEntity
  8
化粧台
  6
CONTINUOUS
 62
     6
100
AcDbLine
 10
916.939999999998
 20
2088.540387697997
 30
0.0
 11
917.4629999999972
 21
2088.504387697997
 31
0.0
  0
LINE
  5
424
330
1F
100
AcDbEntity
  8
化粧台
  6
CONTINUOUS
 62
     6
100
AcDbLine
 10
917.4629999999972
 20
2088.504387697997
 30
0.0
 11
917.9119999999978
 21
2088.479387697997
 31
0.0
  0
LINE
  5
425
330
1F
100
AcDbEntity
  8
化粧台
  6
CONTINUOUS
 62
     6
100
AcDbLine
 10
917.9119999999978
 20
2088.479387697997
 30
0.0
 11
918.3079999999984
 21
2088.461387697997
 31
0.0
  0
LINE
  5
426
330
1F
100
AcDbEntity
  8
化粧台
  6
CONTINUOUS
 62
     6
100
AcDbLine
 10
918.3079999999984
 20
2088.461387697997
 30
0.0
 11
918.6649999999984
 21
2088.448387697997
 31
0.0
  0
LINE
  5
427
330
1F
100
AcDbEntity
  8
化粧台
  6
CONTINUOUS
 62
     6
100
AcDbLine
 10
918.6649999999984
 20
2088.448387697997
 30
0.0
 11
918.9929999999979
 21
2088.439387697997
 31
0.0
  0
LINE
  5
428
330
1F
100
AcDbEntity
  8
化粧台
  6
CONTINUOUS
 62
     6
100
AcDbLine
 10
918.9929999999979
 20
2088.439387697997
 30
0.0
 11
919.2999999999986
 21
2088.433387697997
 31
0.0
  0
LINE
  5
429
330
1F
100
AcDbEntity
  8
化粧台
  6
CONTINUOUS
 62
     6
100
AcDbLine
 10
919.2999999999986
 20
2088.433387697997
 30
0.0
 11
919.5949999999987
 21
2088.429387697996
 31
0.0
  0
LINE
  5
42A
330
1F
100
AcDbEntity
  8
化粧台
  6
CONTINUOUS
 62
     6
100
AcDbLine
 10
919.5949999999987
 20
2088.429387697996
 30
0.0
 11
919.8819999999971
 21
2088.427387697997
 31
0.0
  0
LINE
  5
42B
330
1F
100
AcDbEntity
  8
化粧台
  6
CONTINUOUS
 62
     6
100
AcDbLine
 10
919.8819999999971
 20
2088.427387697997
 30
0.0
 11
919.9999999999975
 21
2088.427387697997
 31
0.0
  0
LINE
  5
42C
330
1F
100
AcDbEntity
  8
化粧台
  6
CONTINUOUS
 62
     6
100
AcDbLine
 10
919.9999999999975
 20
2054.543387697997
 30
0.0
 11
920.1679999999972
 21
2054.548387697997
 31
0.0
  0
LINE
  5
42D
330
1F
100
AcDbEntity
  8
化粧台
  6
CONTINUOUS
 62
     6
100
AcDbLine
 10
920.1679999999972
 20
2054.548387697997
 30
0.0
 11
920.3359999999986
 21
2054.565387697997
 31
0.0
  0
LINE
  5
42E
330
1F
100
AcDbEntity
  8
化粧台
  6
CONTINUOUS
 62
     6
100
AcDbLine
 10
920.3359999999986
 20
2054.565387697997
 30
0.0
 11
920.5039999999983
 21
2054.594387697997
 31
0.0
  0
LINE
  5
42F
330
1F
100
AcDbEntity
  8
化粧台
  6
CONTINUOUS
 62
     6
100
AcDbLine
 10
920.5039999999983
 20
2054.594387697997
 30
0.0
 11
920.6709999999978
 21
2054.635387697997
 31
0.0
  0
LINE
  5
430
330
1F
100
AcDbEntity
  8
化粧台
  6
CONTINUOUS
 62
     6
100
AcDbLine
 10
920.6709999999978
 20
2054.635387697997
 30
0.0
 11
920.8379999999972
 21
2054.689387697997
 31
0.0
  0
LINE
  5
431
330
1F
100
AcDbEntity
  8
化粧台
  6
CONTINUOUS
 62
     6
100
AcDbLine
 10
920.8379999999972
 20
2054.689387697997
 30
0.0
 11
921.0029999999981
 21
2054.757387697997
 31
0.0
  0
LINE
  5
432
330
1F
100
AcDbEntity
  8
化粧台
  6
CONTINUOUS
 62
     6
100
AcDbLine
 10
921.0029999999981
 20
2054.757387697997
 30
0.0
 11
921.1649999999984
 21
2054.840387697996
 31
0.0
  0
LINE
  5
433
330
1F
100
AcDbEntity
  8
化粧台
  6
CONTINUOUS
 62
     6
100
AcDbLine
 10
921.1649999999984
 20
2054.840387697996
 30
0.0
 11
921.3219999999976
 21
2054.938387697996
 31
0.0
  0
LINE
  5
434
330
1F
100
AcDbEntity
  8
化粧台
  6
CONTINUOUS
 62
     6
100
AcDbLine
 10
921.3219999999976
 20
2054.938387697996
 30
0.0
 11
921.4729999999975
 21
2055.053387697997
 31
0.0
  0
LINE
  5
435
330
1F
100
AcDbEntity
  8
化粧台
  6
CONTINUOUS
 62
     6
100
AcDbLine
 10
921.4729999999975
 20
2055.053387697997
 30
0.0
 11
921.6139999999971
 21
2055.186387697997
 31
0.0
  0
LINE
  5
436
330
1F
100
AcDbEntity
  8
化粧台
  6
CONTINUOUS
 62
     6
100
AcDbLine
 10
921.6139999999971
 20
2055.186387697997
 30
0.0
 11
921.7419999999977
 21
2055.336387697997
 31
0.0
  0
LINE
  5
437
330
1F
100
AcDbEntity
  8
化粧台
  6
CONTINUOUS
 62
     6
100
AcDbLine
 10
921.7419999999977
 20
2055.336387697997
 30
0.0
 11
921.8519999999983
 21
2055.502387697997
 31
0.0
  0
LINE
  5
438
330
1F
100
AcDbEntity
  8
化粧台
  6
CONTINUOUS
 62
     6
100
AcDbLine
 10
921.8519999999983
 20
2055.502387697997
 30
0.0
 11
921.9419999999984
 21
2055.683387697997
 31
0.0
  0
LINE
  5
439
330
1F
100
AcDbEntity
  8
化粧台
  6
CONTINUOUS
 62
     6
100
AcDbLine
 10
921.9419999999984
 20
2055.683387697997
 30
0.0
 11
922.0059999999987
 21
2055.876387697997
 31
0.0
  0
LINE
  5
43A
330
1F
100
AcDbEntity
  8
化粧台
  6
CONTINUOUS
 62
     6
100
AcDbLine
 10
922.0059999999987
 20
2055.876387697997
 30
0.0
 11
922.0429999999972
 21
2056.077387697997
 31
0.0
  0
LINE
  5
43B
330
1F
100
AcDbEntity
  8
化粧台
  6
CONTINUOUS
 62
     6
100
AcDbLine
 10
922.0429999999972
 20
2056.077387697997
 30
0.0
 11
922.0499999999986
 21
2056.222387697997
 31
0.0
  0
LINE
  5
43C
330
1F
100
AcDbEntity
  8
化粧台
  6
CONTINUOUS
 62
     6
100
AcDbLine
 10
922.0499999999986
 20
2056.222387697997
 30
0.0
 11
922.0489999999984
 21
2056.282387697996
 31
0.0
  0
LINE
  5
43D
330
1F
100
AcDbEntity
  8
化粧台
  6
CONTINUOUS
 62
     6
100
AcDbLine
 10
922.0489999999984
 20
2056.282387697996
 30
0.0
 11
922.0249999999971
 21
2056.485387697997
 31
0.0
  0
LINE
  5
43E
330
1F
100
AcDbEntity
  8
化粧台
  6
CONTINUOUS
 62
     6
100
AcDbLine
 10
922.0249999999971
 20
2056.485387697997
 30
0.0
 11
921.9719999999973
 21
2056.682387697997
 31
0.0
  0
LINE
  5
43F
330
1F
100
AcDbEntity
  8
化粧台
  6
CONTINUOUS
 62
     6
100
AcDbLine
 10
921.9719999999973
 20
2056.682387697997
 30
0.0
 11
921.8929999999975
 21
2056.868387697997
 31
0.0
  0
LINE
  5
440
330
1F
100
AcDbEntity
  8
化粧台
  6
CONTINUOUS
 62
     6
100
AcDbLine
 10
921.8929999999975
 20
2056.868387697997
 30
0.0
 11
921.7899999999984
 21
2057.041387697996
 31
0.0
  0
LINE
  5
441
330
1F
100
AcDbEntity
  8
化粧台
  6
CONTINUOUS
 62
     6
100
AcDbLine
 10
921.7899999999984
 20
2057.041387697996
 30
0.0
 11
921.6689999999974
 21
2057.198387697997
 31
0.0
  0
LINE
  5
442
330
1F
100
AcDbEntity
  8
化粧台
  6
CONTINUOUS
 62
     6
100
AcDbLine
 10
921.6689999999974
 20
2057.198387697997
 30
0.0
 11
921.5329999999988
 21
2057.337387697997
 31
0.0
  0
LINE
  5
443
330
1F
100
AcDbEntity
  8
化粧台
  6
CONTINUOUS
 62
     6
100
AcDbLine
 10
921.5329999999988
 20
2057.337387697997
 30
0.0
 11
921.3859999999979
 21
2057.460387697997
 31
0.0
  0
LINE
  5
444
330
1F
100
AcDbEntity
  8
化粧台
  6
CONTINUOUS
 62
     6
100
AcDbLine
 10
921.3859999999979
 20
2057.460387697997
 30
0.0
 11
921.2309999999973
 21
2057.565387697997
 31
0.0
  0
LINE
  5
445
330
1F
100
AcDbEntity
  8
化粧台
  6
CONTINUOUS
 62
     6
100
AcDbLine
 10
921.2309999999973
 20
2057.565387697997
 30
0.0
 11
921.0699999999972
 21
2057.654387697997
 31
0.0
  0
LINE
  5
446
330
1F
100
AcDbEntity
  8
化粧台
  6
CONTINUOUS
 62
     6
100
AcDbLine
 10
921.0699999999972
 20
2057.654387697997
 30
0.0
 11
920.9069999999986
 21
2057.728387697997
 31
0.0
  0
LINE
  5
447
330
1F
100
AcDbEntity
  8
化粧台
  6
CONTINUOUS
 62
     6
100
AcDbLine
 10
920.9069999999986
 20
2057.728387697997
 30
0.0
 11
920.7409999999975
 21
2057.788387697997
 31
0.0
  0
LINE
  5
448
330
1F
100
AcDbEntity
  8
化粧台
  6
CONTINUOUS
 62
     6
100
AcDbLine
 10
920.7409999999975
 20
2057.788387697997
 30
0.0
 11
920.573999999998
 21
2057.834387697997
 31
0.0
  0
LINE
  5
449
330
1F
100
AcDbEntity
  8
化粧台
  6
CONTINUOUS
 62
     6
100
AcDbLine
 10
920.573999999998
 20
2057.834387697997
 30
0.0
 11
920.4059999999984
 21
2057.868387697997
 31
0.0
  0
LINE
  5
44A
330
1F
100
AcDbEntity
  8
化粧台
  6
CONTINUOUS
 62
     6
100
AcDbLine
 10
920.4059999999984
 20
2057.868387697997
 30
0.0
 11
920.2379999999987
 21
2057.890387697997
 31
0.0
  0
LINE
  5
44B
330
1F
100
AcDbEntity
  8
化粧台
  6
CONTINUOUS
 62
     6
100
AcDbLine
 10
920.2379999999987
 20
2057.890387697997
 30
0.0
 11
920.0699999999972
 21
2057.900387697997
 31
0.0
  0
LINE
  5
44C
330
1F
100
AcDbEntity
  8
化粧台
  6
CONTINUOUS
 62
     6
100
AcDbLine
 10
920.0699999999972
 20
2057.900387697997
 30
0.0
 11
919.9999999999975
 21
2057.901387697997
 31
0.0
  0
LINE
  5
44D
330
1F
100
AcDbEntity
  8
化粧台
  6
CONTINUOUS
 62
     6
100
AcDbLine
 10
919.9999999999975
 20
2054.543387697997
 30
0.0
 11
919.8319999999978
 21
2054.548387697997
 31
0.0
  0
LINE
  5
44E
330
1F
100
AcDbEntity
  8
化粧台
  6
CONTINUOUS
 62
     6
100
AcDbLine
 10
919.8319999999978
 20
2054.548387697997
 30
0.0
 11
919.6639999999982
 21
2054.565387697997
 31
0.0
  0
LINE
  5
44F
330
1F
100
AcDbEntity
  8
化粧台
  6
CONTINUOUS
 62
     6
100
AcDbLine
 10
919.6639999999982
 20
2054.565387697997
 30
0.0
 11
919.4959999999985
 21
2054.594387697997
 31
0.0
  0
LINE
  5
450
330
1F
100
AcDbEntity
  8
化粧台
  6
CONTINUOUS
 62
     6
100
AcDbLine
 10
919.4959999999985
 20
2054.594387697997
 30
0.0
 11
919.3289999999972
 21
2054.635387697997
 31
0.0
  0
LINE
  5
451
330
1F
100
AcDbEntity
  8
化粧台
  6
CONTINUOUS
 62
     6
100
AcDbLine
 10
919.3289999999972
 20
2054.635387697997
 30
0.0
 11
919.1619999999978
 21
2054.689387697997
 31
0.0
  0
LINE
  5
452
330
1F
100
AcDbEntity
  8
化粧台
  6
CONTINUOUS
 62
     6
100
AcDbLine
 10
919.1619999999978
 20
2054.689387697997
 30
0.0
 11
918.9969999999987
 21
2054.757387697997
 31
0.0
  0
LINE
  5
453
330
1F
100
AcDbEntity
  8
化粧台
  6
CONTINUOUS
 62
     6
100
AcDbLine
 10
918.9969999999987
 20
2054.757387697997
 30
0.0
 11
918.8349999999984
 21
2054.840387697996
 31
0.0
  0
LINE
  5
454
330
1F
100
AcDbEntity
  8
化粧台
  6
CONTINUOUS
 62
     6
100
AcDbLine
 10
918.8349999999984
 20
2054.840387697996
 30
0.0
 11
918.6779999999974
 21
2054.938387697996
 31
0.0
  0
LINE
  5
455
330
1F
100
AcDbEntity
  8
化粧台
  6
CONTINUOUS
 62
     6
100
AcDbLine
 10
918.6779999999974
 20
2054.938387697996
 30
0.0
 11
918.5269999999975
 21
2055.053387697997
 31
0.0
  0
LINE
  5
456
330
1F
100
AcDbEntity
  8
化粧台
  6
CONTINUOUS
 62
     6
100
AcDbLine
 10
918.5269999999975
 20
2055.053387697997
 30
0.0
 11
918.3859999999979
 21
2055.186387697997
 31
0.0
  0
LINE
  5
457
330
1F
100
AcDbEntity
  8
化粧台
  6
CONTINUOUS
 62
     6
100
AcDbLine
 10
918.3859999999979
 20
2055.186387697997
 30
0.0
 11
918.2579999999973
 21
2055.336387697997
 31
0.0
  0
LINE
  5
458
330
1F
100
AcDbEntity
  8
化粧台
  6
CONTINUOUS
 62
     6
100
AcDbLine
 10
918.2579999999973
 20
2055.336387697997
 30
0.0
 11
918.1479999999985
 21
2055.502387697997
 31
0.0
  0
LINE
  5
459
330
1F
100
AcDbEntity
  8
化粧台
  6
CONTINUOUS
 62
     6
100
AcDbLine
 10
918.1479999999985
 20
2055.502387697997
 30
0.0
 11
918.0579999999984
 21
2055.683387697997
 31
0.0
  0
LINE
  5
45A
330
1F
100
AcDbEntity
  8
化粧台
  6
CONTINUOUS
 62
     6
100
AcDbLine
 10
918.0579999999984
 20
2055.683387697997
 30
0.0
 11
917.9939999999981
 21
2055.876387697997
 31
0.0
  0
LINE
  5
45B
330
1F
100
AcDbEntity
  8
化粧台
  6
CONTINUOUS
 62
     6
100
AcDbLine
 10
917.9939999999981
 20
2055.876387697997
 30
0.0
 11
917.9569999999978
 21
2056.077387697997
 31
0.0
  0
LINE
  5
45C
330
1F
100
AcDbEntity
  8
化粧台
  6
CONTINUOUS
 62
     6
100
AcDbLine
 10
917.9569999999978
 20
2056.077387697997
 30
0.0
 11
917.9499999999982
 21
2056.222387697997
 31
0.0
  0
LINE
  5
45D
330
1F
100
AcDbEntity
  8
化粧台
  6
CONTINUOUS
 62
     6
100
AcDbLine
 10
917.9499999999982
 20
2056.222387697997
 30
0.0
 11
917.9509999999984
 21
2056.282387697996
 31
0.0
  0
LINE
  5
45E
330
1F
100
AcDbEntity
  8
化粧台
  6
CONTINUOUS
 62
     6
100
AcDbLine
 10
917.9509999999984
 20
2056.282387697996
 30
0.0
 11
917.9749999999979
 21
2056.485387697997
 31
0.0
  0
LINE
  5
45F
330
1F
100
AcDbEntity
  8
化粧台
  6
CONTINUOUS
 62
     6
100
AcDbLine
 10
917.9749999999979
 20
2056.485387697997
 30
0.0
 11
918.0279999999977
 21
2056.682387697997
 31
0.0
  0
LINE
  5
460
330
1F
100
AcDbEntity
  8
化粧台
  6
CONTINUOUS
 62
     6
100
AcDbLine
 10
918.0279999999977
 20
2056.682387697997
 30
0.0
 11
918.1069999999975
 21
2056.868387697997
 31
0.0
  0
LINE
  5
461
330
1F
100
AcDbEntity
  8
化粧台
  6
CONTINUOUS
 62
     6
100
AcDbLine
 10
918.1069999999975
 20
2056.868387697997
 30
0.0
 11
918.2099999999984
 21
2057.041387697996
 31
0.0
  0
LINE
  5
462
330
1F
100
AcDbEntity
  8
化粧台
  6
CONTINUOUS
 62
     6
100
AcDbLine
 10
918.2099999999984
 20
2057.041387697996
 30
0.0
 11
918.3309999999976
 21
2057.198387697997
 31
0.0
  0
LINE
  5
463
330
1F
100
AcDbEntity
  8
化粧台
  6
CONTINUOUS
 62
     6
100
AcDbLine
 10
918.3309999999976
 20
2057.198387697997
 30
0.0
 11
918.466999999998
 21
2057.337387697997
 31
0.0
  0
LINE
  5
464
330
1F
100
AcDbEntity
  8
化粧台
  6
CONTINUOUS
 62
     6
100
AcDbLine
 10
918.466999999998
 20
2057.337387697997
 30
0.0
 11
918.6139999999971
 21
2057.460387697997
 31
0.0
  0
LINE
  5
465
330
1F
100
AcDbEntity
  8
化粧台
  6
CONTINUOUS
 62
     6
100
AcDbLine
 10
918.6139999999971
 20
2057.460387697997
 30
0.0
 11
918.7689999999977
 21
2057.565387697997
 31
0.0
  0
LINE
  5
466
330
1F
100
AcDbEntity
  8
化粧台
  6
CONTINUOUS
 62
     6
100
AcDbLine
 10
918.7689999999977
 20
2057.565387697997
 30
0.0
 11
918.9299999999978
 21
2057.654387697997
 31
0.0
  0
LINE
  5
467
330
1F
100
AcDbEntity
  8
化粧台
  6
CONTINUOUS
 62
     6
100
AcDbLine
 10
918.9299999999978
 20
2057.654387697997
 30
0.0
 11
919.0929999999983
 21
2057.728387697997
 31
0.0
  0
LINE
  5
468
330
1F
100
AcDbEntity
  8
化粧台
  6
CONTINUOUS
 62
     6
100
AcDbLine
 10
919.0929999999983
 20
2057.728387697997
 30
0.0
 11
919.2589999999975
 21
2057.788387697997
 31
0.0
  0
LINE
  5
469
330
1F
100
AcDbEntity
  8
化粧台
  6
CONTINUOUS
 62
     6
100
AcDbLine
 10
919.2589999999975
 20
2057.788387697997
 30
0.0
 11
919.4259999999988
 21
2057.834387697997
 31
0.0
  0
LINE
  5
46A
330
1F
100
AcDbEntity
  8
化粧台
  6
CONTINUOUS
 62
     6
100
AcDbLine
 10
919.4259999999988
 20
2057.834387697997
 30
0.0
 11
919.5939999999985
 21
2057.868387697997
 31
0.0
  0
LINE
  5
46B
330
1F
100
AcDbEntity
  8
化粧台
  6
CONTINUOUS
 62
     6
100
AcDbLine
 10
919.5939999999985
 20
2057.868387697997
 30
0.0
 11
919.7619999999981
 21
2057.890387697997
 31
0.0
  0
LINE
  5
46C
330
1F
100
AcDbEntity
  8
化粧台
  6
CONTINUOUS
 62
     6
100
AcDbLine
 10
919.7619999999981
 20
2057.890387697997
 30
0.0
 11
919.9299999999978
 21
2057.900387697997
 31
0.0
  0
LINE
  5
46D
330
1F
100
AcDbEntity
  8
化粧台
  6
CONTINUOUS
 62
     6
100
AcDbLine
 10
919.9299999999978
 20
2057.900387697997
 30
0.0
 11
919.9999999999975
 21
2057.901387697997
 31
0.0
  0
LINE
  5
46E
330
1F
100
AcDbEntity
  8
化粧台
  6
EXLTYPE3
 62
     6
100
AcDbLine
 10
919.9999999999957
 20
2136.912387698
 30
0.0
 11
919.9999999999957
 21
1221.000000000001
 31
0.0
  0
LINE
  5
46F
330
1F
100
AcDbEntity
  8
化粧台
  6
EXLTYPE3
 62
     6
100
AcDbLine
 10
2254.999999999998
 20
1906.000000000001
 30
0.0
 11
2254.999999999998
 21
1741.000000000001
 31
0.0
  0
LINE
  5
470
330
1F
100
AcDbEntity
  8
化粧台
  6
EXLTYPE2
 62
     6
100
AcDbLine
 10
2077.999999999996
 20
1356.250000000001
 30
0.0
 11
2077.999999999996
 21
1269.500000000001
 31
0.0
  0
LINE
  5
471
330
1F
100
AcDbEntity
  8
化粧台
  6
EXLTYPE2
 62
     6
100
AcDbLine
 10
2092.999999999996
 20
1356.250000000001
 30
0.0
 11
2092.999999999996
 21
1269.500000000001
 31
0.0
  0
LINE
  5
472
330
1F
100
AcDbEntity
  8
化粧台
  6
EXLTYPE2
 62
     6
100
AcDbLine
 10
2449.999999999998
 20
1356.250000000001
 30
0.0
 11
2074.999999999996
 21
1356.250000000001
 31
0.0
  0
LINE
  5
473
330
1F
100
AcDbEntity
  8
化粧台
  6
EXLTYPE2
 62
     6
100
AcDbLine
 10
2447.499999999998
 20
1371.250000000001
 30
0.0
 11
2074.999999999996
 21
1371.250000000001
 31
0.0
  0
LINE
  5
474
330
1F
100
AcDbEntity
  8
化粧台
  6
EXLTYPE2
 62
     6
100
AcDbLine
 10
2447.499999999998
 20
1373.750000000001
 30
0.0
 11
2074.999999999996
 21
1373.750000000001
 31
0.0
  0
LINE
  5
475
330
1F
100
AcDbEntity
  8
化粧台
  6
EXLTYPE2
 62
     6
100
AcDbLine
 10
2447.499999999998
 20
1851.000000000001
 30
0.0
 11
2447.499999999998
 21
1356.250000000001
 31
0.0
  0
LINE
  5
476
330
1F
100
AcDbEntity
  8
化粧台
  6
EXLTYPE2
 62
     6
100
AcDbLine
 10
2449.999999999998
 20
1851.000000000001
 30
0.0
 11
2449.999999999998
 21
1356.250000000001
 31
0.0
  0
LINE
  5
477
330
1F
100
AcDbEntity
  8
化粧台
  6
CONTINUOUS
 62
     6
100
AcDbLine
 10
2194.999999999996
 20
1371.250000000001
 30
0.0
 11
2194.999999999996
 21
1356.250000000001
 31
0.0
  0
LINE
  5
478
330
1F
100
AcDbEntity
  8
化粧台
  6
CONTINUOUS
 62
     6
100
AcDbLine
 10
2159.999999999996
 20
1371.250000000001
 30
0.0
 11
2159.999999999996
 21
1356.250000000001
 31
0.0
  0
LINE
  5
479
330
1F
100
AcDbEntity
  8
化粧台
  6
CONTINUOUS
 62
     6
100
AcDbLine
 10
2107.999999999996
 20
1371.250000000001
 30
0.0
 11
2107.999999999996
 21
1356.250000000001
 31
0.0
  0
LINE
  5
47A
330
1F
100
AcDbEntity
  8
化粧台
  6
CONTINUOUS
 62
     6
100
AcDbLine
 10
2414.999999999998
 20
1371.250000000001
 30
0.0
 11
2414.999999999998
 21
1356.250000000001
 31
0.0
  0
LINE
  5
47B
330
1F
100
AcDbEntity
  8
化粧台
  6
EXLTYPE2
 62
     6
100
AcDbLine
 10
2093.249999999996
 20
1936.000000000001
 30
0.0
 11
2093.249999999996
 21
1886.000000000001
 31
0.0
  0
LINE
  5
47C
330
1F
100
AcDbEntity
  8
化粧台
  6
EXLTYPE2
 62
     6
100
AcDbLine
 10
2074.999999999996
 20
1936.000000000001
 30
0.0
 11
2093.249999999996
 21
1936.000000000001
 31
0.0
  0
LINE
  5
47D
330
1F
100
AcDbEntity
  8
化粧台
  6
EXLTYPE2
 62
     6
100
AcDbLine
 10
2074.999999999996
 20
1886.000000000001
 30
0.0
 11
2093.249999999996
 21
1886.000000000001
 31
0.0
  0
LINE
  5
47E
330
1F
100
AcDbEntity
  8
化粧台
  6
EXLTYPE2
 62
     6
100
AcDbLine
 10
2449.999999999998
 20
1811.000000000001
 30
0.0
 11
2464.999999999998
 21
1811.000000000001
 31
0.0
  0
LINE
  5
47F
330
1F
100
AcDbEntity
  8
化粧台
  6
EXLTYPE2
 62
     6
100
AcDbLine
 10
2447.499999999998
 20
1851.000000000001
 30
0.0
 11
2464.999999999998
 21
1851.000000000001
 31
0.0
  0
LINE
  5
480
330
1F
100
AcDbEntity
  8
化粧台
  6
CONTINUOUS
 62
     6
100
AcDbLine
 10
2464.999999999998
 20
1823.000000000001
 30
0.0
 11
2497.499999999998
 21
1820.999999999999
 31
0.0
  0
LINE
  5
481
330
1F
100
AcDbEntity
  8
化粧台
  6
CONTINUOUS
 62
     6
100
AcDbLine
 10
2497.499999999998
 20
1820.999999999999
 30
0.0
 11
2464.999999999998
 21
1819.000000000001
 31
0.0
  0
LINE
  5
482
330
1F
100
AcDbEntity
  8
化粧台
  6
CONTINUOUS
 62
     6
100
AcDbLine
 10
2446.999999999994
 20
1828.500000000001
 30
0.0
 11
2445.999999999994
 21
1828.500000000001
 31
0.0
  0
LINE
  5
483
330
1F
100
AcDbEntity
  8
化粧台
  6
CONTINUOUS
 62
     6
100
AcDbLine
 10
2446.999999999994
 20
1813.499999999999
 30
0.0
 11
2445.999999999994
 21
1813.499999999999
 31
0.0
  0
ARC
  5
484
330
1F
100
AcDbEntity
  8
化粧台
  6
CONTINUOUS
 62
     6
100
AcDbCircle
 10
2447.039655172409
 20
1820.999999999999
 30
0.0
 40
3.939655172413634
100
AcDbArc
 50
105.3013019106999
 51
254.6986980892994
  0
LINE
  5
485
330
1F
100
AcDbEntity
  8
化粧台
  6
CONTINUOUS
 62
     6
100
AcDbLine
 10
2445.999999999994
 20
1828.500000000001
 30
0.0
 11
2445.999999999994
 21
1813.499999999999
 31
0.0
  0
LINE
  5
486
330
1F
100
AcDbEntity
  8
化粧台
  6
EXLTYPE3
 62
     6
100
AcDbLine
 10
2345.000000000038
 20
1436.500000000001
 30
0.0
 11
2345.000000000038
 21
1221.000000000005
 31
0.0
  0
LINE
  5
487
330
1F
100
AcDbEntity
  8
化粧台
  6
EXLTYPE2
 62
     6
100
AcDbLine
 10
2219.999999999998
 20
1853.000000000001
 30
0.0
 11
2224.186046511627
 21
1856.000000000001
 31
0.0
  0
LINE
  5
488
330
1F
100
AcDbEntity
  8
化粧台
  6
EXLTYPE2
 62
     6
100
AcDbLine
 10
2219.999999999998
 20
1853.000000000001
 30
0.0
 11
2219.999999999998
 21
1845.500000000001
 31
0.0
  0
LINE
  5
489
330
1F
100
AcDbEntity
  8
化粧台
  6
EXLTYPE2
 62
     6
100
AcDbLine
 10
2281.249999999998
 20
1801.000000000001
 30
0.0
 11
2270.749999999998
 21
1792.000000000001
 31
0.0
  0
LINE
  5
48A
330
1F
100
AcDbEntity
  8
化粧台
  6
EXLTYPE2
 62
     6
100
AcDbLine
 10
2283.412795257996
 20
1828.500000000001
 30
0.0
 11
2281.249999999998
 21
1825.500000000001
 31
0.0
  0
LINE
  5
48B
330
1F
100
AcDbEntity
  8
化粧台
  6
EXLTYPE2
 62
     6
100
AcDbLine
 10
2283.412795257996
 20
1845.500000000001
 30
0.0
 11
2283.412795257996
 21
1828.500000000001
 31
0.0
  0
LINE
  5
48C
330
1F
100
AcDbEntity
  8
化粧台
  6
EXLTYPE2
 62
     6
100
AcDbLine
 10
2281.249999999998
 20
1825.500000000001
 30
0.0
 11
2281.249999999998
 21
1801.000000000001
 31
0.0
  0
LINE
  5
48D
330
1F
100
AcDbEntity
  8
化粧台
  6
EXLTYPE2
 62
     6
100
AcDbLine
 10
2228.749999999998
 20
1801.000000000001
 30
0.0
 11
2239.249999999998
 21
1792.000000000001
 31
0.0
  0
LINE
  5
48E
330
1F
100
AcDbEntity
  8
化粧台
  6
EXLTYPE2
 62
     6
100
AcDbLine
 10
2226.587204741996
 20
1828.500000000001
 30
0.0
 11
2228.749999999998
 21
1825.500000000001
 31
0.0
  0
LINE
  5
48F
330
1F
100
AcDbEntity
  8
化粧台
  6
EXLTYPE2
 62
     6
100
AcDbLine
 10
2226.587204741996
 20
1845.500000000001
 30
0.0
 11
2226.587204741996
 21
1828.500000000001
 31
0.0
  0
LINE
  5
490
330
1F
100
AcDbEntity
  8
化粧台
  6
EXLTYPE2
 62
     6
100
AcDbLine
 10
2228.749999999998
 20
1825.500000000001
 30
0.0
 11
2228.749999999998
 21
1801.000000000001
 31
0.0
  0
LINE
  5
491
330
1F
100
AcDbEntity
  8
化粧台
  6
EXLTYPE2
 62
     6
100
AcDbLine
 10
2219.999999999998
 20
1845.500000000001
 30
0.0
 11
2289.999999999998
 21
1845.500000000001
 31
0.0
  0
LINE
  5
492
330
1F
100
AcDbEntity
  8
化粧台
  6
EXLTYPE2
 62
     6
100
AcDbLine
 10
2228.749999999998
 20
1825.500000000001
 30
0.0
 11
2281.249999999998
 21
1825.500000000001
 31
0.0
  0
LINE
  5
493
330
1F
100
AcDbEntity
  8
化粧台
  6
EXLTYPE2
 62
     6
100
AcDbLine
 10
2228.749999999998
 20
1801.000000000001
 30
0.0
 11
2281.249999999998
 21
1801.000000000001
 31
0.0
  0
LINE
  5
494
330
1F
100
AcDbEntity
  8
化粧台
  6
EXLTYPE2
 62
     6
100
AcDbLine
 10
2239.249999999998
 20
1792.000000000001
 30
0.0
 11
2270.749999999998
 21
1792.000000000001
 31
0.0
  0
LINE
  5
495
330
1F
100
AcDbEntity
  8
化粧台
  6
EXLTYPE2
 62
     6
100
AcDbLine
 10
2371.999999999994
 20
1321.000003814651
 30
0.0
 11
2371.999999999994
 21
1310.000001907302
 31
0.0
  0
LINE
  5
496
330
1F
100
AcDbEntity
  8
化粧台
  6
EXLTYPE2
 62
     6
100
AcDbLine
 10
2378.500003814691
 20
1306.000001907302
 30
0.0
 11
2378.500003814691
 21
1286.499999999954
 31
0.0
  0
ARC
  5
497
330
1F
100
AcDbEntity
  8
化粧台
  6
EXLTYPE2
 62
     6
100
AcDbCircle
 10
2368.999999999994
 20
1321.000003814651
 30
0.0
 40
3.000000000000002
100
AcDbArc
 50
359.9999949910431
 51
89.99999749552043
  0
ARC
  5
498
330
1F
100
AcDbEntity
  8
化粧台
  6
EXLTYPE2
 62
     6
100
AcDbCircle
 10
2372.999999999994
 20
1310.000001907302
 30
0.0
 40
1.0
100
AcDbArc
 50
180.0
 51
270.0000000000002
  0
ARC
  5
499
330
1F
100
AcDbEntity
  8
化粧台
  6
EXLTYPE2
 62
     6
100
AcDbCircle
 10
2375.500003814691
 20
1306.000001907302
 30
0.0
 40
3.000000000000002
100
AcDbArc
 50
359.9999949910431
 51
89.99999749552043
  0
ARC
  5
49A
330
1F
100
AcDbEntity
  8
化粧台
  6
EXLTYPE2
 62
     6
100
AcDbCircle
 10
2378.000003814691
 20
1286.499999999954
 30
0.0
 40
0.5
100
AcDbArc
 50
270.0000000000002
 51
0.0
  0
LINE
  5
49B
330
1F
100
AcDbEntity
  8
化粧台
  6
EXLTYPE2
 62
     6
100
AcDbLine
 10
2367.999996185297
 20
1341.846518878891
 30
0.0
 11
2367.999996185297
 21
1326.046519641831
 31
0.0
  0
ARC
  5
49C
330
1F
100
AcDbEntity
  8
化粧台
  6
EXLTYPE2
 62
     6
100
AcDbCircle
 10
2365.999996185297
 20
1341.846518878891
 30
0.0
 40
2.0
100
AcDbArc
 50
0.0000086514229809
 51
90.0000043257139
  0
LINE
  5
49D
330
1F
100
AcDbEntity
  8
化粧台
  6
EXLTYPE2
 62
     6
100
AcDbLine
 10
2317.999999999998
 20
1321.000003814651
 30
0.0
 11
2317.999999999998
 21
1310.000001907302
 31
0.0
  0
LINE
  5
49E
330
1F
100
AcDbEntity
  8
化粧台
  6
EXLTYPE2
 62
     6
100
AcDbLine
 10
2311.4999961853
 20
1306.000001907302
 30
0.0
 11
2311.4999961853
 21
1286.499999999954
 31
0.0
  0
ARC
  5
49F
330
1F
100
AcDbEntity
  8
化粧台
  6
EXLTYPE2
 62
     6
100
AcDbCircle
 10
2320.999999999998
 20
1321.000003814651
 30
0.0
 40
3.000000000000002
100
AcDbArc
 50
90.00000250448174
 51
180.000005008957
  0
ARC
  5
4A0
330
1F
100
AcDbEntity
  8
化粧台
  6
EXLTYPE2
 62
     6
100
AcDbCircle
 10
2316.999999999998
 20
1310.000001907302
 30
0.0
 40
1.0
100
AcDbArc
 50
270.0000000000002
 51
0.0
  0
ARC
  5
4A1
330
1F
100
AcDbEntity
  8
化粧台
  6
EXLTYPE2
 62
     6
100
AcDbCircle
 10
2314.4999961853
 20
1306.000001907302
 30
0.0
 40
3.000000000000002
100
AcDbArc
 50
90.00000250448174
 51
180.000005008957
  0
ARC
  5
4A2
330
1F
100
AcDbEntity
  8
化粧台
  6
EXLTYPE2
 62
     6
100
AcDbCircle
 10
2311.9999961853
 20
1286.499999999954
 30
0.0
 40
0.5
100
AcDbArc
 50
180.0
 51
270.0000000000002
  0
LINE
  5
4A3
330
1F
100
AcDbEntity
  8
化粧台
  6
EXLTYPE2
 62
     6
100
AcDbLine
 10
2322.000003814695
 20
1341.846518878891
 30
0.0
 11
2322.000003814695
 21
1326.046519641831
 31
0.0
  0
ARC
  5
4A4
330
1F
100
AcDbEntity
  8
化粧台
  6
EXLTYPE2
 62
     6
100
AcDbCircle
 10
2324.000003814695
 20
1341.846518878891
 30
0.0
 40
2.0
100
AcDbArc
 50
89.99999567428607
 51
179.9999913485771
  0
LINE
  5
4A5
330
1F
100
AcDbEntity
  8
化粧台
  6
EXLTYPE2
 62
     6
100
AcDbLine
 10
2365.999996185297
 20
1343.846518878891
 30
0.0
 11
2324.000003814695
 21
1343.846518878891
 31
0.0
  0
LINE
  5
4A6
330
1F
100
AcDbEntity
  8
化粧台
  6
EXLTYPE2
 62
     6
100
AcDbLine
 10
2367.999996185297
 20
1326.046519641831
 30
0.0
 11
2322.000003814695
 21
1326.046519641831
 31
0.0
  0
LINE
  5
4A7
330
1F
100
AcDbEntity
  8
化粧台
  6
EXLTYPE2
 62
     6
100
AcDbLine
 10
2368.999999999994
 20
1324.000003814651
 30
0.0
 11
2320.999999999998
 21
1324.000003814651
 31
0.0
  0
LINE
  5
4A8
330
1F
100
AcDbEntity
  8
化粧台
  6
EXLTYPE2
 62
     6
100
AcDbLine
 10
2375.500003814691
 20
1309.000001907302
 30
0.0
 11
2314.4999961853
 21
1309.000001907302
 31
0.0
  0
LINE
  5
4A9
330
1F
100
AcDbEntity
  8
化粧台
  6
EXLTYPE2
 62
     6
100
AcDbLine
 10
2378.000003814691
 20
1285.999999999954
 30
0.0
 11
2311.999996185297
 21
1285.999999999954
 31
0.0
  0
LINE
  5
4AA
330
1F
100
AcDbEntity
  8
化粧台
  6
EXLTYPE2
 62
     6
100
AcDbLine
 10
2236.749999999998
 20
1764.200000000002
 30
0.0
 11
2236.749999999998
 21
1724.111863703302
 31
0.0
  0
LINE
  5
4AB
330
1F
100
AcDbEntity
  8
化粧台
  6
EXLTYPE2
 62
     6
100
AcDbLine
 10
2273.249999999998
 20
1764.200000000002
 30
0.0
 11
2273.249999999998
 21
1724.111863703302
 31
0.0
  0
LINE
  5
4AC
330
1F
100
AcDbEntity
  8
化粧台
  6
EXLTYPE2
 62
     6
100
AcDbLine
 10
2236.749999999998
 20
1724.111863703302
 30
0.0
 11
2237.999999999998
 21
1723.111863671301
 31
0.0
  0
LINE
  5
4AD
330
1F
100
AcDbEntity
  8
化粧台
  6
EXLTYPE2
 62
     6
100
AcDbLine
 10
2271.999999999998
 20
1723.111863671301
 30
0.0
 11
2273.249999999998
 21
1724.111863703302
 31
0.0
  0
LINE
  5
4AE
330
1F
100
AcDbEntity
  8
化粧台
  6
EXLTYPE2
 62
     6
100
AcDbLine
 10
2237.999999999998
 20
1723.111863671303
 30
0.0
 11
2271.999999999998
 21
1723.111863671303
 31
0.0
  0
LINE
  5
4AF
330
1F
100
AcDbEntity
  8
化粧台
  6
EXLTYPE2
 62
     6
100
AcDbLine
 10
2230.749999999998
 20
1764.200000000002
 30
0.0
 11
2279.249999999998
 21
1764.200000000002
 31
0.0
  0
LINE
  5
4B0
330
1F
100
AcDbEntity
  8
化粧台
  6
EXLTYPE2
 62
     6
100
AcDbLine
 10
2230.749999999998
 20
1779.000000000001
 30
0.0
 11
2230.749999999998
 21
1764.200000000002
 31
0.0
  0
LINE
  5
4B1
330
1F
100
AcDbEntity
  8
化粧台
  6
EXLTYPE2
 62
     6
100
AcDbLine
 10
2233.749999999998
 20
1782.000000000001
 30
0.0
 11
2276.249999999998
 21
1782.000000000001
 31
0.0
  0
LINE
  5
4B2
330
1F
100
AcDbEntity
  8
化粧台
  6
EXLTYPE2
 62
     6
100
AcDbLine
 10
2279.249999999998
 20
1779.000000000001
 30
0.0
 11
2279.249999999998
 21
1764.200000000002
 31
0.0
  0
ARC
  5
4B3
330
1F
100
AcDbEntity
  8
化粧台
  6
EXLTYPE2
 62
     6
100
AcDbCircle
 10
2233.749999999998
 20
1779.000000000001
 30
0.0
 40
3.000000000000002
100
AcDbArc
 50
90.00000000000001
 51
180.0
  0
ARC
  5
4B4
330
1F
100
AcDbEntity
  8
化粧台
  6
EXLTYPE2
 62
     6
100
AcDbCircle
 10
2276.249999999998
 20
1779.000000000001
 30
0.0
 40
3.000000000000002
100
AcDbArc
 50
0.0
 51
90.00000000000001
  0
LINE
  5
4B5
330
1F
100
AcDbEntity
  8
化粧台
  6
EXLTYPE2
 62
     6
100
AcDbLine
 10
2256.113888888901
 20
1650.111861335133
 30
0.0
 11
2286.113888888901
 21
1650.111861335133
 31
0.0
  0
LINE
  5
4B6
330
1F
100
AcDbEntity
  8
化粧台
  6
EXLTYPE2
 62
     6
100
AcDbLine
 10
2256.113888888898
 20
1652.881770843303
 30
0.0
 11
2286.113888888898
 21
1652.881770843303
 31
0.0
  0
LINE
  5
4B7
330
1F
100
AcDbEntity
  8
化粧台
  6
EXLTYPE2
 62
     6
100
AcDbLine
 10
2256.113888888901
 20
1652.881770843266
 30
0.0
 11
2256.113888888901
 21
1637.611865271302
 31
0.0
  0
LINE
  5
4B8
330
1F
100
AcDbEntity
  8
化粧台
  6
EXLTYPE2
 62
     6
100
AcDbLine
 10
2257.613888888901
 20
1636.111865271302
 30
0.0
 11
2284.613888888901
 21
1636.111865271302
 31
0.0
  0
LINE
  5
4B9
330
1F
100
AcDbEntity
  8
化粧台
  6
EXLTYPE2
 62
     6
100
AcDbLine
 10
2286.113888888901
 20
1652.88177084327
 30
0.0
 11
2286.113888888901
 21
1637.611865271302
 31
0.0
  0
ARC
  5
4BA
330
1F
100
AcDbEntity
  8
化粧台
  6
EXLTYPE2
 62
     6
100
AcDbCircle
 10
2257.613888888901
 20
1637.611865271302
 30
0.0
 40
1.5
100
AcDbArc
 50
180.0
 51
270.0000000000002
  0
ARC
  5
4BB
330
1F
100
AcDbEntity
  8
化粧台
  6
EXLTYPE2
 62
     6
100
AcDbCircle
 10
2284.613888888901
 20
1637.611865271302
 30
0.0
 40
1.5
100
AcDbArc
 50
270.0000000000002
 51
0.0
  0
LINE
  5
4BC
330
1F
100
AcDbEntity
  8
化粧台
  6
EXLTYPE2
 62
     6
100
AcDbLine
 10
2311.477777777798
 20
1726.311312276001
 30
0.0
 11
2311.477777777798
 21
1711.511312276002
 31
0.0
  0
ARC
  5
4BD
330
1F
100
AcDbEntity
  8
化粧台
  6
EXLTYPE2
 62
     6
100
AcDbCircle
 10
2308.477777777798
 20
1726.311312276001
 30
0.0
 40
3.000000000000002
100
AcDbArc
 50
0.0
 51
90.00000000000001
  0
LINE
  5
4BE
330
1F
100
AcDbEntity
  8
化粧台
  6
EXLTYPE2
 62
     6
100
AcDbLine
 10
2305.477777777798
 20
1711.511312276002
 30
0.0
 11
2305.477777777798
 21
1683.411862369002
 31
0.0
  0
ARC
  5
4BF
330
1F
100
AcDbEntity
  8
化粧台
  6
EXLTYPE2
 62
     6
100
AcDbCircle
 10
2304.477777777798
 20
1683.411862369002
 30
0.0
 40
1.0
100
AcDbArc
 50
270.0000000000002
 51
0.0
  0
LINE
  5
4C0
330
1F
100
AcDbEntity
  8
化粧台
  6
EXLTYPE2
 62
     6
100
AcDbLine
 10
2237.999999999998
 20
1723.111863671303
 30
0.0
 11
2237.999999999998
 21
1691.395092151785
 31
0.0
  0
LINE
  5
4C1
330
1F
100
AcDbEntity
  8
化粧台
  6
EXLTYPE2
 62
     6
100
AcDbLine
 10
2271.999999999998
 20
1723.111863671303
 30
0.0
 11
2271.999999999998
 21
1683.459506678352
 31
0.0
  0
LINE
  5
4C2
330
1F
100
AcDbEntity
  8
化粧台
  6
EXLTYPE2
 62
     6
100
AcDbLine
 10
2298.399999999996
 20
1682.411862369002
 30
0.0
 11
2304.477777777798
 21
1682.411862369002
 31
0.0
  0
LINE
  5
4C3
330
1F
100
AcDbEntity
  8
化粧台
  6
EXLTYPE2
 62
     6
100
AcDbLine
 10
2273.249999999998
 20
1729.311312276001
 30
0.0
 11
2308.477777777798
 21
1729.311312276001
 31
0.0
  0
LINE
  5
4C4
330
1F
100
AcDbEntity
  8
化粧台
  6
EXLTYPE2
 62
     6
100
AcDbLine
 10
2271.999999999998
 20
1711.511312276002
 30
0.0
 11
2311.477777777798
 21
1711.511312276002
 31
0.0
  0
ARC
  5
4C5
330
1F
100
AcDbEntity
  8
化粧台
  6
EXLTYPE2
 62
     6
100
AcDbCircle
 10
2273.847644335548
 20
1683.459506678352
 30
0.0
 40
1.847644335545738
100
AcDbArc
 50
179.9999999984488
 51
0.0
  0
ARC
  5
4C6
330
1F
100
AcDbEntity
  8
化粧台
  6
EXLTYPE2
 62
     6
100
AcDbCircle
 10
2287.999999999998
 20
1691.395092151785
 30
0.0
 40
50.00000000000004
100
AcDbArc
 50
180.0
 51
230.3778197205396
  0
ARC
  5
4C7
330
1F
100
AcDbEntity
  8
化粧台
  6
EXLTYPE2
 62
     6
100
AcDbCircle
 10
2264.705100939545
 20
1686.670286622183
 30
0.0
 40
40.0
100
AcDbArc
 50
302.3588120657595
 51
353.8886751333242
  0
LINE
  5
4C8
330
1F
100
AcDbEntity
  8
化粧台
  6
EXLTYPE2
 62
     6
100
AcDbLine
 10
2303.227777777809
 20
1750.525752473813
 30
0.0
 11
2303.227777777809
 21
1729.311312276001
 31
0.0
  0
ARC
  5
4C9
330
1F
100
AcDbEntity
  8
化粧台
  6
EXLTYPE2
 62
     6
100
AcDbCircle
 10
2316.113888888901
 20
1750.525752473813
 30
0.0
 40
12.88611111108913
100
AcDbArc
 50
0.0
 51
180.0
  0
ARC
  5
4CA
330
1F
100
AcDbEntity
  8
化粧台
  6
EXLTYPE2
 62
     6
100
AcDbCircle
 10
2316.113888888894
 20
1750.525752473834
 30
0.0
 40
44.8861111110673
100
AcDbArc
 50
0.0
 51
145.2127379158767
  0
LINE
  5
4CB
330
1F
100
AcDbEntity
  8
化粧台
  6
EXLTYPE2
 62
     6
100
AcDbLine
 10
2239.249999999998
 20
1792.000000000001
 30
0.0
 11
2239.249999999998
 21
1782.000000000001
 31
0.0
  0
LINE
  5
4CC
330
1F
100
AcDbEntity
  8
化粧台
  6
EXLTYPE2
 62
     6
100
AcDbLine
 10
2270.749999999998
 20
1792.000000000001
 30
0.0
 11
2270.749999999998
 21
1782.000000000001
 31
0.0
  0
LINE
  5
4CD
330
1F
100
AcDbEntity
  8
化粧台
  6
EXLTYPE2
 62
     6
100
AcDbLine
 10
2289.999999999998
 20
1853.000000000001
 30
0.0
 11
2289.999999999998
 21
1845.500000000001
 31
0.0
  0
LINE
  5
4CE
330
1F
100
AcDbEntity
  8
化粧台
  6
EXLTYPE2
 62
     6
100
AcDbLine
 10
2289.999999999998
 20
1853.000000000001
 30
0.0
 11
2285.813953488368
 21
1856.000000000001
 31
0.0
  0
LINE
  5
4CF
330
1F
100
AcDbEntity
  8
化粧台
  6
EXLTYPE2
 62
     6
100
AcDbLine
 10
2328.999999999998
 20
1269.500000000001
 30
0.0
 11
2328.999999999998
 21
1750.525752473813
 31
0.0
  0
LINE
  5
4D0
330
1F
100
AcDbEntity
  8
化粧台
  6
EXLTYPE2
 62
     6
100
AcDbLine
 10
2360.999999999998
 20
1269.500000000001
 30
0.0
 11
2360.999999999998
 21
1750.525752473834
 31
0.0
  0
LINE
  5
4D1
330
1F
100
AcDbEntity
  8
化粧台
  6
EXLTYPE3
 62
     6
100
AcDbLine
 10
2375.749999999998
 20
1766.000000000001
 30
0.0
 11
2500.999999999998
 21
1766.000000000001
 31
0.0
  0
LINE
  5
4D2
330
1F
100
AcDbEntity
  8
化粧台
  6
EXLTYPE4
 62
     6
100
AcDbLine
 10
2485.999999999998
 20
1750.000000000001
 30
0.0
 11
2390.750000000038
 21
1750.000000000001
 31
0.0
  0
LINE
  5
4D3
330
1F
100
AcDbEntity
  8
化粧台
  6
EXLTYPE4
 62
     6
100
AcDbLine
 10
2485.999999999998
 20
1782.000000000001
 30
0.0
 11
2390.749999999998
 21
1782.000000000001
 31
0.0
  0
LINE
  5
4D4
330
1F
100
AcDbEntity
  8
化粧台
  6
CONTINUOUS
 62
     6
100
AcDbLine
 10
2486.000000000001
 20
1782.000000000001
 30
0.0
 11
2486.000000000001
 21
1750.000000000001
 31
0.0
  0
LINE
  5
4D5
330
1F
100
AcDbEntity
  8
化粧台
  6
CONTINUOUS
 62
     6
100
AcDbLine
 10
2390.499999999998
 20
1258.000000000001
 30
0.0
 11
2369.499999999998
 21
1258.000000000001
 31
0.0
  0
LINE
  5
4D6
330
1F
100
AcDbEntity
  8
化粧台
  6
EXLTYPE3
 62
     6
100
AcDbLine
 10
2379.999999999998
 20
1665.7
 30
0.0
 11
2379.999999999998
 21
1243.000000000001
 31
0.0
  0
LINE
  5
4D7
330
1F
100
AcDbEntity
  8
化粧台
  6
CONTINUOUS
 62
     6
100
AcDbLine
 10
2369.499999999998
 20
1269.500000000001
 30
0.0
 11
2369.499999999998
 21
1258.000000000001
 31
0.0
  0
LINE
  5
4D8
330
1F
100
AcDbEntity
  8
化粧台
  6
CONTINUOUS
 62
     6
100
AcDbLine
 10
2390.499999999998
 20
1269.500000000001
 30
0.0
 11
2390.499999999998
 21
1258.000000000001
 31
0.0
  0
LINE
  5
4D9
330
1F
100
AcDbEntity
  8
化粧台
  6
EXLTYPE2
 62
     6
100
AcDbLine
 10
2390.499999999998
 20
1580.999999999999
 30
0.0
 11
2390.499999999998
 21
1269.500000000001
 31
0.0
  0
LINE
  5
4DA
330
1F
100
AcDbEntity
  8
化粧台
  6
EXLTYPE2
 62
     6
100
AcDbLine
 10
2369.499999999998
 20
1580.999999999999
 30
0.0
 11
2369.499999999998
 21
1269.500000000001
 31
0.0
  0
LINE
  5
4DB
330
1F
100
AcDbEntity
  8
化粧台
  6
EXLTYPE2
 62
     6
100
AcDbLine
 10
2411.499999999998
 20
1605.500000000001
 30
0.0
 11
2472.999999999998
 21
1605.500000000001
 31
0.0
  0
LINE
  5
4DC
330
1F
100
AcDbEntity
  8
化粧台
  6
EXLTYPE2
 62
     6
100
AcDbLine
 10
2411.499999999998
 20
1626.500000000001
 30
0.0
 11
2472.999999999998
 21
1626.500000000001
 31
0.0
  0
LINE
  5
4DD
330
1F
100
AcDbEntity
  8
化粧台
  6
CONTINUOUS
 62
     6
100
AcDbLine
 10
2472.999999999998
 20
1626.500000000001
 30
0.0
 11
2472.999999999998
 21
1605.500000000001
 31
0.0
  0
LINE
  5
4DE
330
1F
100
AcDbEntity
  8
化粧台
  6
EXLTYPE3
 62
     6
100
AcDbLine
 10
2327.999999999998
 20
1615.999999999999
 30
0.0
 11
2487.999999999998
 21
1615.999999999999
 31
0.0
  0
ARC
  5
4DF
330
1F
100
AcDbEntity
  8
化粧台
  6
EXLTYPE2
 62
     6
100
AcDbCircle
 10
2205.468300600916
 20
1884.872533502713
 30
0.0
 40
9.0
100
AcDbArc
 50
7.786183226644877
 51
79.16788117503866
  0
LINE
  5
4E0
330
1F
100
AcDbEntity
  8
化粧台
  6
EXLTYPE2
 62
     6
100
AcDbLine
 10
2214.385325453969
 20
1886.091823365718
 30
0.0
 11
2217.90893707677
 21
1860.322616742776
 31
0.0
  0
ARC
  5
4E1
330
1F
100
AcDbEntity
  8
化粧台
  6
EXLTYPE2
 62
     6
100
AcDbCircle
 10
2222.862839772913
 20
1861.000000000001
 30
0.0
 40
5.0
100
AcDbArc
 50
187.786183226645
 51
270.0000000000002
  0
LINE
  5
4E2
330
1F
100
AcDbEntity
  8
化粧台
  6
EXLTYPE2
 62
     6
100
AcDbLine
 10
2287.137160227079
 20
1856.000000000001
 30
0.0
 11
2222.862839772913
 21
1856.000000000001
 31
0.0
  0
ARC
  5
4E3
330
1F
100
AcDbEntity
  8
化粧台
  6
EXLTYPE2
 62
     6
100
AcDbCircle
 10
2295.802605958988
 20
1856.00900307881
 30
0.0
 40
5.0
100
AcDbArc
 50
91.03671106963131
 51
150.0595460361044
  0
ARC
  5
4E4
330
1F
100
AcDbEntity
  8
化粧台
  6
EXLTYPE2
 62
     6
100
AcDbCircle
 10
2287.137160227079
 20
1861.000000000001
 30
0.0
 40
5.0
100
AcDbArc
 50
270.0000000000002
 51
330.0595460361045
  0
ARC
  5
4E5
330
1F
100
AcDbEntity
  8
化粧台
  6
EXLTYPE2
 62
     6
100
AcDbCircle
 10
2294.807489074582
 20
1911.000000000001
 30
0.0
 40
50.00000000000004
100
AcDbArc
 50
271.0367110696319
 51
309.3911978432377
  0
ARC
  5
4E6
330
1F
100
AcDbEntity
  8
化粧台
  6
EXLTYPE2
 62
     6
100
AcDbCircle
 10
2338.113883008403
 20
1921.000000000005
 30
0.0
 40
50.00000000000004
100
AcDbArc
 50
251.5650511770786
 51
270.0000000000002
  0
LINE
  5
4E7
330
1F
100
AcDbEntity
  8
化粧台
  6
EXLTYPE2
 62
     6
100
AcDbLine
 10
2125.711845828489
 20
1939.096051390502
 30
0.0
 11
2322.302494707562
 21
1873.565835097478
 31
0.0
  0
ARC
  5
4E8
330
1F
100
AcDbEntity
  8
化粧台
  6
EXLTYPE2
 62
     6
100
AcDbCircle
 10
2128.874123488658
 20
1948.582884371007
 30
0.0
 40
10.0
100
AcDbArc
 50
189.4623222080253
 51
251.5650511770781
  0
LINE
  5
4E9
330
1F
100
AcDbEntity
  8
化粧台
  6
EXLTYPE2
 62
     6
100
AcDbLine
 10
2110.833333333328
 20
1995.999999999999
 30
0.0
 11
2119.010184250335
 21
1946.938894497952
 31
0.0
  0
LINE
  5
4EA
330
1F
100
AcDbEntity
  8
化粧台
  6
EXLTYPE2
 62
     6
100
AcDbLine
 10
2454.999999999998
 20
1871.000000000005
 30
0.0
 11
2338.113883008403
 21
1871.000000000005
 31
0.0
  0
ARC
  5
4EB
330
1F
100
AcDbEntity
  8
化粧台
  6
EXLTYPE2
 62
     6
100
AcDbCircle
 10
2454.999999999998
 20
1881.000000000005
 30
0.0
 40
10.0
100
AcDbArc
 50
270.0000000000002
 51
0.0000000000000573
  0
ARC
  5
4EC
330
1F
100
AcDbEntity
  8
化粧台
  6
EXLTYPE2
 62
     6
100
AcDbCircle
 10
2255.83405917086
 20
2148.09732405952
 30
0.0
 40
259.0
100
AcDbArc
 50
228.2374423278815
 51
259.1678811750384
  0
ARC
  5
4ED
330
1F
100
AcDbEntity
  8
化粧台
  6
CONTINUOUS
 62
     6
100
AcDbCircle
 10
2077.999999999996
 20
1948.938976509601
 30
0.0
 40
8.0
100
AcDbArc
 50
48.23744232788194
 51
180.0000000000002
  0
LINE
  5
4EE
330
1F
100
AcDbEntity
  8
化粧台
  6
CONTINUOUS
 62
     6
100
AcDbLine
 10
2328.999999999998
 20
1236.000000000001
 30
0.0
 11
2360.999999999998
 21
1236.000000000001
 31
0.0
  0
LINE
  5
4EF
330
1F
100
AcDbEntity
  8
化粧台
  6
CONTINUOUS
 62
     6
100
AcDbLine
 10
2328.999999999998
 20
1236.000000000001
 30
0.0
 11
2328.999999999998
 21
1269.500000000001
 31
0.0
  0
LINE
  5
4F0
330
1F
100
AcDbEntity
  8
化粧台
  6
CONTINUOUS
 62
     6
100
AcDbLine
 10
2360.999999999998
 20
1236.000000000001
 30
0.0
 11
2360.999999999998
 21
1269.500000000001
 31
0.0
  0
ARC
  5
4F1
330
1F
100
AcDbEntity
  8
化粧台
  6
CONTINUOUS
 62
     6
100
AcDbCircle
 10
2398.874909885888
 20
2080.993455984805
 30
0.0
 40
1.0
100
AcDbArc
 50
273.0000000000003
 51
4.323000000000008
  0
ARC
  5
4F2
330
1F
100
AcDbEntity
  8
化粧台
  6
CONTINUOUS
 62
     6
100
AcDbCircle
 10
2395.878022652092
 20
2080.83639578012
 30
0.0
 40
1.0
100
AcDbArc
 50
273.0000000000003
 51
4.323000000000008
  0
ARC
  5
4F3
330
1F
100
AcDbEntity
  8
化粧台
  6
CONTINUOUS
 62
     6
100
AcDbCircle
 10
2370.77247614836
 20
2079.520669840173
 30
0.0
 40
1.0
100
AcDbArc
 50
181.6770000000001
 51
273.0000000000003
  0
ARC
  5
4F4
330
1F
100
AcDbEntity
  8
化粧台
  6
CONTINUOUS
 62
     6
100
AcDbCircle
 10
2367.775588914561
 20
2079.363609635488
 30
0.0
 40
1.0
100
AcDbArc
 50
181.6770000000001
 51
273.0000000000003
  0
LINE
  5
4F5
330
1F
100
AcDbEntity
  8
化粧台
  6
CONTINUOUS
 62
     6
100
AcDbLine
 10
2399.872335693651
 20
2081.068760420348
 30
0.0
 11
2396.700836153939
 21
2123.012259066379
 31
0.0
  0
ARC
  5
4F6
330
1F
100
AcDbEntity
  8
化粧台
  6
CONTINUOUS
 62
     6
100
AcDbCircle
 10
2378.612344204591
 20
2170.106121044329
 30
0.0
 40
101.051
100
AcDbArc
 50
264.3900000000002
 51
281.3370000000002
  0
ARC
  5
4F7
330
1F
100
AcDbEntity
  8
化粧台
  6
CONTINUOUS
 62
     6
100
AcDbCircle
 10
2372.542479837791
 20
2121.583950940669
 30
0.0
 40
7.000000000000004
100
AcDbArc
 50
94.678
 51
181.676
  0
ARC
  5
4F8
330
1F
100
AcDbEntity
  8
化粧台
  6
CONTINUOUS
 62
     6
100
AcDbCircle
 10
2372.542479837791
 20
2121.583950940669
 30
0.0
 40
4.0
100
AcDbArc
 50
94.678
 51
181.676
  0
ARC
  5
4F9
330
1F
100
AcDbEntity
  8
化粧台
  6
CONTINUOUS
 62
     6
100
AcDbCircle
 10
2396.438562094683
 20
1829.560367083523
 30
0.0
 40
297.0
100
AcDbArc
 50
93.00000000000003
 51
94.678
  0
ARC
  5
4FA
330
1F
100
AcDbEntity
  8
化粧台
  6
CONTINUOUS
 62
     6
100
AcDbCircle
 10
2396.479505905606
 20
1829.562512857729
 30
0.0
 40
297.0
100
AcDbArc
 50
91.32200000000003
 51
93.00000000000003
  0
ARC
  5
4FB
330
1F
100
AcDbEntity
  8
化粧台
  6
CONTINUOUS
 62
     6
100
AcDbCircle
 10
2389.720905094638
 20
2122.48423405996
 30
0.0
 40
4.0
100
AcDbArc
 50
4.324000000000011
 51
91.32200000000003
  0
ARC
  5
4FC
330
1F
100
AcDbEntity
  8
化粧台
  6
CONTINUOUS
 62
     6
100
AcDbCircle
 10
2389.720905094638
 20
2122.48423405996
 30
0.0
 40
7.000000000000004
100
AcDbArc
 50
4.324000000000011
 51
91.32200000000003
  0
LINE
  5
4FD
330
1F
100
AcDbEntity
  8
化粧台
  6
CONTINUOUS
 62
     6
100
AcDbLine
 10
2396.875448459852
 20
2080.911700215663
 30
0.0
 11
2393.709609696148
 21
2122.785399466174
 31
0.0
  0
LINE
  5
4FE
330
1F
100
AcDbEntity
  8
化粧台
  6
CONTINUOUS
 62
     6
100
AcDbLine
 10
2369.772642886613
 20
2079.491302363229
 30
0.0
 11
2368.544145420333
 21
2121.466533368852
 31
0.0
  0
LINE
  5
4FF
330
1F
100
AcDbEntity
  8
化粧台
  6
CONTINUOUS
 62
     6
100
AcDbLine
 10
2366.775755652814
 20
2079.334242158544
 30
0.0
 11
2365.545591928666
 21
2121.379481903511
 31
0.0
  0
ARC
  5
500
330
1F
100
AcDbEntity
  8
化粧台
  6
CONTINUOUS
 62
     6
100
AcDbCircle
 10
2403.035378121307
 20
2077.061809883986
 30
0.0
 40
4.0
100
AcDbArc
 50
183.0000000000001
 51
251.8320000000001
  0
ARC
  5
501
330
1F
100
AcDbEntity
  8
化粧台
  6
CONTINUOUS
 62
     6
100
AcDbCircle
 10
2406.361476238829
 20
2066.542468017091
 30
0.0
 40
4.5
100
AcDbArc
 50
3.000000000000007
 51
63.69399999999999
  0
LINE
  5
502
330
1F
100
AcDbEntity
  8
化粧台
  6
CONTINUOUS
 62
     6
100
AcDbLine
 10
2399.040859982289
 20
2076.852466059014
 30
0.0
 11
2398.87631573586
 21
2079.992157316283
 31
0.0
  0
ARC
  5
503
330
1F
100
AcDbEntity
  8
化粧台
  6
CONTINUOUS
 62
     6
100
AcDbCircle
 10
2364.859768266707
 20
2075.06111094873
 30
0.0
 40
4.0
100
AcDbArc
 50
294.1680000000001
 51
3.000000000000007
  0
ARC
  5
504
330
1F
100
AcDbEntity
  8
化粧台
  6
CONTINUOUS
 62
     6
100
AcDbCircle
 10
2362.650462873085
 20
2064.251670876381
 30
0.0
 40
4.5
100
AcDbArc
 50
122.306
 51
183.0000000000001
  0
LINE
  5
505
330
1F
100
AcDbEntity
  8
化粧台
  6
CONTINUOUS
 62
     6
100
AcDbLine
 10
2368.854286405725
 20
2075.270454773702
 30
0.0
 11
2368.6897421593
 21
2078.41014603097
 31
0.0
  0
ARC
  5
506
330
1F
100
AcDbEntity
  8
化粧台
  6
CONTINUOUS
 62
     6
100
AcDbCircle
 10
2386.967474977458
 20
2025.794620907411
 30
0.0
 40
50.00000000000004
100
AcDbArc
 50
114.1680000000001
 51
122.306
  0
ARC
  5
507
330
1F
100
AcDbEntity
  8
化粧台
  6
CONTINUOUS
 62
     6
100
AcDbCircle
 10
2386.197531606163
 20
2025.754269885147
 30
0.0
 40
50.00000000000004
100
AcDbArc
 50
63.69399999999999
 51
71.83200000000002
  0
ARC
  5
508
330
1F
100
AcDbEntity
  8
化粧台
  6
CONTINUOUS
 62
     6
100
AcDbCircle
 10
2276.950517362029
 20
1937.407646951713
 30
0.0
 40
180.0
100
AcDbArc
 50
63.40200000000002
 51
85.938
  0
ARC
  5
509
330
1F
100
AcDbEntity
  8
化粧台
  6
CONTINUOUS
 62
     6
100
AcDbCircle
 10
2396.479505905606
 20
1829.562512857729
 30
0.0
 40
300.0
100
AcDbArc
 50
90.22700000000003
 51
91.37600000000002
  0
ARC
  5
50A
330
1F
100
AcDbEntity
  8
化粧台
  6
CONTINUOUS
 62
     6
100
AcDbCircle
 10
2407.841604478451
 20
2081.463380535911
 30
0.0
 40
1.0
100
AcDbArc
 50
273.0000000000003
 51
5.210000000000026
  0
ARC
  5
50B
330
1F
100
AcDbEntity
  8
化粧台
  6
CONTINUOUS
 62
     6
100
AcDbCircle
 10
2395.330645192882
 20
2119.559817360827
 30
0.0
 40
10.0
100
AcDbArc
 50
5.210000000000026
 51
90.22700000000003
  0
LINE
  5
50C
330
1F
100
AcDbEntity
  8
化粧台
  6
CONTINUOUS
 62
     6
100
AcDbLine
 10
2405.28874982504
 20
2120.468229236022
 30
0.0
 11
2408.837246617333
 21
2081.553612078518
 31
0.0
  0
ARC
  5
50D
330
1F
100
AcDbEntity
  8
化粧台
  6
CONTINUOUS
 62
     6
100
AcDbCircle
 10
2396.479505905606
 20
1829.562512857729
 30
0.0
 40
297.0
100
AcDbArc
 50
93.00000000000003
 51
93.00399999999999
  0
LINE
  5
50E
330
1F
100
AcDbEntity
  8
化粧台
  6
CONTINUOUS
 62
     6
100
AcDbLine
 10
2383.377585356467
 20
2079.179903275392
 30
0.0
 11
2407.893940434694
 21
2080.464751001156
 31
0.0
  0
LINE
  5
50F
330
1F
100
AcDbEntity
  8
化粧台
  6
CONTINUOUS
 62
     6
100
AcDbLine
 10
2383.377585356467
 20
2079.179903275392
 30
0.0
 11
2358.861230278244
 21
2077.895055549628
 31
0.0
  0
LINE
  5
510
330
1F
100
AcDbEntity
  8
化粧台
  6
CONTINUOUS
 62
     6
100
AcDbLine
 10
2357.2706472759
 20
2117.951707116036
 30
0.0
 11
2357.809274650442
 21
2078.879349386416
 31
0.0
  0
ARC
  5
511
330
1F
100
AcDbEntity
  8
化粧台
  6
CONTINUOUS
 62
     6
100
AcDbCircle
 10
2367.269155266278
 20
2118.0891769904
 30
0.0
 40
10.0
100
AcDbArc
 50
95.773
 51
180.79
  0
ARC
  5
512
330
1F
100
AcDbEntity
  8
化粧台
  6
CONTINUOUS
 62
     6
100
AcDbCircle
 10
2358.808894322
 20
2078.893685084382
 30
0.0
 40
1.0
100
AcDbArc
 50
180.79
 51
273.0000000000003
  0
ARC
  5
513
330
1F
100
AcDbEntity
  8
化粧台
  6
CONTINUOUS
 62
     6
100
AcDbCircle
 10
2396.438562094683
 20
1829.560367083523
 30
0.0
 40
300.0
100
AcDbArc
 50
94.62400000000004
 51
95.773
  0
LINE
  5
514
330
1F
100
AcDbEntity
  8
化粧台
  6
CONTINUOUS
 62
     6
100
AcDbLine
 10
2380.765026756778
 20
2129.030491020805
 30
0.0
 11
2372.276675711362
 21
2128.58563539274
 31
0.0
  0
LINE
  5
515
330
1F
100
AcDbEntity
  8
化粧台
  6
CONTINUOUS
 62
     6
100
AcDbLine
 10
2372.276675711362
 20
2128.58563539274
 30
0.0
 11
2372.232242484513
 21
2129.433471867747
 31
0.0
  0
ARC
  5
516
330
1F
100
AcDbEntity
  8
化粧台
  6
CONTINUOUS
 62
     6
100
AcDbCircle
 10
2383.277152656437
 20
2081.096273352586
 30
0.0
 40
50.00000000000004
100
AcDbArc
 50
93.00000000000003
 51
102.3020000000001
  0
ARC
  5
517
330
1F
100
AcDbEntity
  8
化粧台
  6
CONTINUOUS
 62
     6
100
AcDbCircle
 10
2372.731557251891
 20
2129.459639845869
 30
0.0
 40
0.5
100
AcDbArc
 50
102.3020000000001
 51
183.0020000000002
  0
ARC
  5
518
330
1F
100
AcDbEntity
  8
化粧台
  6
CONTINUOUS
 62
     6
100
AcDbCircle
 10
2388.709629807965
 20
2130.297015145756
 30
0.0
 40
0.5
100
AcDbArc
 50
3.000000000000007
 51
83.69900000000001
  0
ARC
  5
519
330
1F
100
AcDbEntity
  8
化粧台
  6
CONTINUOUS
 62
     6
100
AcDbCircle
 10
2383.277152656437
 20
2081.096273352586
 30
0.0
 40
50.00000000000004
100
AcDbArc
 50
83.69900000000001
 51
93.00000000000003
  0
LINE
  5
51A
330
1F
100
AcDbEntity
  8
化粧台
  6
CONTINUOUS
 62
     6
100
AcDbLine
 10
2389.253377802191
 20
2129.47534664887
 30
0.0
 11
2389.208944575339
 21
2130.323183123877
 31
0.0
  0
LINE
  5
51B
330
1F
100
AcDbEntity
  8
化粧台
  6
CONTINUOUS
 62
     6
100
AcDbLine
 10
2380.765026756778
 20
2129.030491020805
 30
0.0
 11
2389.253377802191
 21
2129.47534664887
 31
0.0
  0
LINE
  5
51C
330
1F
100
AcDbEntity
  8
化粧台
  6
CONTINUOUS
 62
     6
100
AcDbLine
 10
2268.166098643638
 20
2098.260349035887
 30
0.0
 11
2269.513334295208
 21
2104.596541433466
 31
0.0
  0
ARC
  5
51D
330
1F
100
AcDbEntity
  8
化粧台
  6
CONTINUOUS
 62
     6
100
AcDbCircle
 10
2269.144329786877
 20
2098.052260520116
 30
0.0
 40
1.0
100
AcDbArc
 50
168.0000000000003
 51
264.432
  0
ARC
  5
51E
330
1F
100
AcDbEntity
  8
化粧台
  6
CONTINUOUS
 62
     6
100
AcDbCircle
 10
2251.583373830582
 20
1917.906307329651
 30
0.0
 40
180.0
100
AcDbArc
 50
73.965
 51
84.43200000000003
  0
ARC
  5
51F
330
1F
100
AcDbEntity
  8
化粧台
  6
CONTINUOUS
 62
     6
100
AcDbCircle
 10
2276.462434132876
 20
2089.204134459696
 30
0.0
 40
1.0
100
AcDbArc
 50
168.0000000000003
 51
258.0000000000003
  0
LINE
  5
520
330
1F
100
AcDbEntity
  8
化粧台
  6
CONTINUOUS
 62
     6
100
AcDbLine
 10
2276.254345617106
 20
2088.225903316456
 30
0.0
 11
2286.035553748055
 21
2086.146963081862
 31
0.0
  0
ARC
  5
521
330
1F
100
AcDbEntity
  8
化粧台
  6
CONTINUOUS
 62
     6
100
AcDbCircle
 10
2296.024850394778
 20
2085.046253990508
 30
0.0
 40
1.0
100
AcDbArc
 50
258.0000000000003
 51
348.0000000000005
  0
LINE
  5
522
330
1F
100
AcDbEntity
  8
化粧台
  6
CONTINUOUS
 62
     6
100
AcDbLine
 10
2295.816761879008
 20
2084.068022847268
 30
0.0
 11
2286.035553748055
 21
2086.146963081862
 31
0.0
  0
LINE
  5
523
330
1F
100
AcDbEntity
  8
化粧台
  6
CONTINUOUS
 62
     6
100
AcDbLine
 10
2298.460228754343
 20
2091.694823479185
 30
0.0
 11
2297.003081538017
 21
2084.838165474737
 31
0.0
  0
LINE
  5
524
330
1F
100
AcDbEntity
  8
化粧台
  6
CONTINUOUS
 62
     6
100
AcDbLine
 10
2276.909307753963
 20
2096.115994481917
 30
0.0
 11
2275.484202989637
 21
2089.412222975467
 31
0.0
  0
LINE
  5
525
330
1F
100
AcDbEntity
  8
化粧台
  6
CONTINUOUS
 62
     6
100
AcDbLine
 10
2290.972900209066
 20
2116.86045560427
 30
0.0
 11
2289.603764998255
 21
2116.960938311844
 31
0.0
  0
LINE
  5
526
330
1F
100
AcDbEntity
  8
化粧台
  6
CONTINUOUS
 62
     6
100
AcDbLine
 10
2289.603764998255
 20
2116.960938311844
 30
0.0
 11
2288.321537414731
 21
2116.950817835378
 31
0.0
  0
LINE
  5
527
330
1F
100
AcDbEntity
  8
化粧台
  6
CONTINUOUS
 62
     6
100
AcDbLine
 10
2288.321537414731
 20
2116.950817835378
 30
0.0
 11
2287.130534485093
 21
2116.86236433572
 31
0.0
  0
LINE
  5
528
330
1F
100
AcDbEntity
  8
化粧台
  6
CONTINUOUS
 62
     6
100
AcDbLine
 10
2287.130534485093
 20
2116.86236433572
 30
0.0
 11
2286.025610300175
 21
2116.717338318811
 31
0.0
  0
LINE
  5
529
330
1F
100
AcDbEntity
  8
化粧台
  6
CONTINUOUS
 62
     6
100
AcDbLine
 10
2286.025610300175
 20
2116.717338318811
 30
0.0
 11
2284.997990784349
 21
2116.530300540021
 31
0.0
  0
LINE
  5
52A
330
1F
100
AcDbEntity
  8
化粧台
  6
CONTINUOUS
 62
     6
100
AcDbLine
 10
2284.997990784349
 20
2116.530300540021
 30
0.0
 11
2284.035116687684
 21
2116.311607892758
 31
0.0
  0
LINE
  5
52B
330
1F
100
AcDbEntity
  8
化粧台
  6
CONTINUOUS
 62
     6
100
AcDbLine
 10
2284.035116687684
 20
2116.311607892758
 30
0.0
 11
2283.127633992668
 21
2116.067779760158
 31
0.0
  0
LINE
  5
52C
330
1F
100
AcDbEntity
  8
化粧台
  6
CONTINUOUS
 62
     6
100
AcDbLine
 10
2283.127633992668
 20
2116.067779760158
 30
0.0
 11
2282.263454472975
 21
2115.800185369818
 31
0.0
  0
LINE
  5
52D
330
1F
100
AcDbEntity
  8
化粧台
  6
CONTINUOUS
 62
     6
100
AcDbLine
 10
2282.263454472975
 20
2115.800185369818
 30
0.0
 11
2281.432434825384
 21
2115.511297250778
 31
0.0
  0
LINE
  5
52E
330
1F
100
AcDbEntity
  8
化粧台
  6
CONTINUOUS
 62
     6
100
AcDbLine
 10
2281.432434825384
 20
2115.511297250778
 30
0.0
 11
2280.624641090513
 21
2115.199593413941
 31
0.0
  0
LINE
  5
52F
330
1F
100
AcDbEntity
  8
化粧台
  6
CONTINUOUS
 62
     6
100
AcDbLine
 10
2280.624641090513
 20
2115.199593413941
 30
0.0
 11
2279.832188903988
 21
2114.862657912588
 31
0.0
  0
LINE
  5
530
330
1F
100
AcDbEntity
  8
化粧台
  6
CONTINUOUS
 62
     6
100
AcDbLine
 10
2279.832188903988
 20
2114.862657912588
 30
0.0
 11
2279.047193901444
 21
2114.498074799999
 31
0.0
  0
LINE
  5
531
330
1F
100
AcDbEntity
  8
化粧台
  6
CONTINUOUS
 62
     6
100
AcDbLine
 10
2279.047193901444
 20
2114.498074799999
 30
0.0
 11
2278.261876390433
 21
2114.101430870385
 31
0.0
  0
LINE
  5
532
330
1F
100
AcDbEntity
  8
化粧台
  6
CONTINUOUS
 62
     6
100
AcDbLine
 10
2278.261876390433
 20
2114.101430870385
 30
0.0
 11
2277.468666022325
 21
2113.664318399819
 31
0.0
  0
LINE
  5
533
330
1F
100
AcDbEntity
  8
化粧台
  6
CONTINUOUS
 62
     6
100
AcDbLine
 10
2277.468666022325
 20
2113.664318399819
 30
0.0
 11
2276.662831329225
 21
2113.181482560845
 31
0.0
  0
LINE
  5
534
330
1F
100
AcDbEntity
  8
化粧台
  6
CONTINUOUS
 62
     6
100
AcDbLine
 10
2276.662831329225
 20
2113.181482560845
 30
0.0
 11
2275.837011306333
 21
2112.640521111397
 31
0.0
  0
LINE
  5
535
330
1F
100
AcDbEntity
  8
化粧台
  6
CONTINUOUS
 62
     6
100
AcDbLine
 10
2275.837011306333
 20
2112.640521111397
 30
0.0
 11
2274.988785760562
 21
2112.030292118724
 31
0.0
  0
LINE
  5
536
330
1F
100
AcDbEntity
  8
化粧台
  6
CONTINUOUS
 62
     6
100
AcDbLine
 10
2274.988785760562
 20
2112.030292118724
 30
0.0
 11
2274.116890136227
 21
2111.336710097426
 31
0.0
  0
LINE
  5
537
330
1F
100
AcDbEntity
  8
化粧台
  6
CONTINUOUS
 62
     6
100
AcDbLine
 10
2274.116890136227
 20
2111.336710097426
 30
0.0
 11
2273.225367041062
 21
2110.539959464676
 31
0.0
  0
LINE
  5
538
330
1F
100
AcDbEntity
  8
化粧台
  6
CONTINUOUS
 62
     6
100
AcDbLine
 10
2273.225367041062
 20
2110.539959464676
 30
0.0
 11
2272.32708974074
 21
2109.623691549859
 31
0.0
  0
LINE
  5
539
330
1F
100
AcDbEntity
  8
化粧台
  6
CONTINUOUS
 62
     6
100
AcDbLine
 10
2272.32708974074
 20
2109.623691549859
 30
0.0
 11
2271.448123028703
 21
2108.568243531652
 31
0.0
  0
LINE
  5
53A
330
1F
100
AcDbEntity
  8
化粧台
  6
CONTINUOUS
 62
     6
100
AcDbLine
 10
2271.448123028703
 20
2108.568243531652
 30
0.0
 11
2270.635084230993
 21
2107.363040680089
 31
0.0
  0
LINE
  5
53B
330
1F
100
AcDbEntity
  8
化粧台
  6
CONTINUOUS
 62
     6
100
AcDbLine
 10
2270.635084230993
 20
2107.363040680089
 30
0.0
 11
2269.956983457412
 21
2106.009696917083
 31
0.0
  0
LINE
  5
53C
330
1F
100
AcDbEntity
  8
化粧台
  6
CONTINUOUS
 62
     6
100
AcDbLine
 10
2269.956983457412
 20
2106.009696917083
 30
0.0
 11
2269.507329778904
 21
2104.539148526378
 31
0.0
  0
LINE
  5
53D
330
1F
100
AcDbEntity
  8
化粧台
  6
CONTINUOUS
 62
     6
100
AcDbLine
 10
2269.507329778904
 20
2104.539148526378
 30
0.0
 11
2269.503278678441
 21
2104.520911514971
 31
0.0
  0
ARC
  5
53E
330
1F
100
AcDbEntity
  8
化粧台
  6
CONTINUOUS
 62
     6
100
AcDbCircle
 10
2273.680657995037
 20
1994.794161959335
 30
0.0
 40
100.0000000000001
100
AcDbArc
 50
34.19826832662174
 51
73.96499999999978
  0
LINE
  5
53F
330
1F
100
AcDbEntity
  8
化粧台
  6
CONTINUOUS
 62
     6
100
AcDbLine
 10
2358.838777958515
 20
2051.000000000001
 30
0.0
 11
2358.15662996669
 21
2064.016159073288
 31
0.0
  0
LINE
  5
540
330
1F
100
AcDbEntity
  8
化粧台
  6
CONTINUOUS
 62
     6
100
AcDbLine
 10
2411.682198029173
 20
2051.000000000001
 30
0.0
 11
2410.855309145225
 21
2066.777979820184
 31
0.0
  0
ARC
  5
541
330
1F
100
AcDbEntity
  8
化粧台
  6
CONTINUOUS
 62
     2
100
AcDbCircle
 10
919.9999999999975
 20
6205.499999999976
 30
0.0
 40
2755.0
100
AcDbArc
 50
263.3541312435004
 51
269.5771367734724
  0
ARC
  5
542
330
1F
100
AcDbEntity
  8
化粧台
  6
CONTINUOUS
 62
     2
100
AcDbCircle
 10
919.9999999999975
 20
3365.5
 30
0.0
 40
32.3
100
AcDbArc
 50
121.613809939204
 51
58.38619006079604
  0
ARC
  5
543
330
1F
100
AcDbEntity
  8
化粧台
  6
CONTINUOUS
 62
     2
100
AcDbCircle
 10
919.9999999999975
 20
3365.5
 30
0.0
 40
22.6
100
AcDbArc
 50
122.1896839223027
 51
57.81031607769484
  0
ARC
  5
544
330
1F
100
AcDbEntity
  8
化粧台
  6
CONTINUOUS
 62
     2
100
AcDbCircle
 10
919.9999999999975
 20
6205.499999999976
 30
0.0
 40
2755.0
100
AcDbArc
 50
270.4228632265275
 51
276.6458687564997
  0
LINE
  5
545
330
1F
100
AcDbEntity
  8
化粧台
  6
CONTINUOUS
 62
     2
100
AcDbLine
 10
549.9999999999975
 20
3552.5
 30
0.0
 11
1289.999999999993
 21
3552.5
 31
0.0
  0
ARC
  5
546
330
1F
100
AcDbEntity
  8
化粧台
  6
CONTINUOUS
 62
     2
100
AcDbCircle
 10
549.9999999999975
 20
3557.5
 30
0.0
 40
5.0
100
AcDbArc
 50
180.0
 51
270.0000000000002
  0
ARC
  5
547
330
1F
100
AcDbEntity
  8
化粧台
  6
CONTINUOUS
 62
     2
100
AcDbCircle
 10
1289.999999999993
 20
3557.5
 30
0.0
 40
5.0
100
AcDbArc
 50
270.0000000000002
 51
0.0
  0
LINE
  5
548
330
1F
100
AcDbEntity
  8
化粧台
  6
CONTINUOUS
 62
     2
100
AcDbLine
 10
589.9999999999975
 20
3548.5
 30
0.0
 11
589.9999999999939
 21
3169.215898883588
 31
0.0
  0
LINE
  5
549
330
1F
100
AcDbEntity
  8
化粧台
  6
CONTINUOUS
 62
     2
100
AcDbLine
 10
1249.999999999993
 20
3548.5
 30
0.0
 11
1249.999999999989
 21
3169.215898883586
 31
0.0
  0
ARC
  5
54A
330
1F
100
AcDbEntity
  8
化粧台
  6
CONTINUOUS
 62
     2
100
AcDbCircle
 10
1239.999999999993
 20
3459.079602464302
 30
0.0
 40
10.0
100
AcDbArc
 50
0.0
 51
96.64586875649961
  0
ARC
  5
54B
330
1F
100
AcDbEntity
  8
化粧台
  6
CONTINUOUS
 62
     2
100
AcDbCircle
 10
599.9999999999939
 20
3459.079602464306
 30
0.0
 40
10.0
100
AcDbArc
 50
83.35413124350028
 51
180.0
  0
LINE
  5
54C
330
1F
100
AcDbEntity
  8
化粧台
  6
EXLTYPE3
 62
     6
100
AcDbLine
 10
819.9999999999975
 20
3560.5
 30
0.0
 11
819.9999999999975
 21
3598.5
 31
0.0
  0
LINE
  5
54D
330
1F
100
AcDbEntity
  8
化粧台
  6
EXLTYPE3
 62
     6
100
AcDbLine
 10
919.9999999999975
 20
3610.5
 30
0.0
 11
919.9999999999939
 21
3080.50000000003
 31
0.0
  0
LINE
  5
54E
330
1F
100
AcDbEntity
  8
化粧台
  6
EXLTYPE3
 62
     6
100
AcDbLine
 10
1019.999999999997
 20
3560.5
 30
0.0
 11
1019.999999999997
 21
3598.5
 31
0.0
  0
LINE
  5
54F
330
1F
100
AcDbEntity
  8
化粧台
  6
EXLTYPE3
 62
     6
100
AcDbLine
 10
1189.999999999993
 20
3565.5
 30
0.0
 11
1189.999999999993
 21
3617.999999999996
 31
0.0
  0
LINE
  5
550
330
1F
100
AcDbEntity
  8
化粧台
  6
EXLTYPE3
 62
     6
100
AcDbLine
 10
872.4999999999975
 20
3365.5
 30
0.0
 11
967.4999999999966
 21
3365.5
 31
0.0
  0
LINE
  5
551
330
1F
100
AcDbEntity
  8
化粧台
  6
EXLTYPE3
 62
     6
100
AcDbLine
 10
970.9999999999966
 20
2081.000000000001
 30
0.0
 11
970.9999999999966
 21
2028.222387697999
 31
0.0
  0
LINE
  5
552
330
1F
100
AcDbEntity
  8
化粧台
  6
EXLTYPE3
 62
     6
100
AcDbLine
 10
868.9999999999957
 20
2081.000000000001
 30
0.0
 11
868.9999999999957
 21
2028.222387697999
 31
0.0
  0
LINE
  5
553
330
1F
100
AcDbEntity
  8
化粧台
  6
EXLTYPE3
 62
     6
100
AcDbLine
 10
655.4999999999975
 20
1821.000000000001
 30
0.0
 11
644.4999999999975
 21
1821.000000000001
 31
0.0
  0
LINE
  5
554
330
1F
100
AcDbEntity
  8
化粧台
  6
EXLTYPE3
 62
     6
100
AcDbLine
 10
649.9999999999975
 20
1826.500000000001
 30
0.0
 11
649.9999999999975
 21
1815.500000000001
 31
0.0
  0
LINE
  5
555
330
1F
100
AcDbEntity
  8
化粧台
  6
EXLTYPE3
 62
     6
100
AcDbLine
 10
1195.499999999993
 20
1821.000000000001
 30
0.0
 11
1184.499999999997
 21
1821.000000000001
 31
0.0
  0
LINE
  5
556
330
1F
100
AcDbEntity
  8
化粧台
  6
EXLTYPE3
 62
     6
100
AcDbLine
 10
1189.999999999997
 20
1826.500000000001
 30
0.0
 11
1189.999999999997
 21
1815.500000000001
 31
0.0
  0
LINE
  5
557
330
1F
100
AcDbEntity
  8
化粧台
  6
EXLTYPE3
 62
     6
100
AcDbLine
 10
992.4999999999948
 20
1615.999999999999
 30
0.0
 11
1047.499999999995
 21
1615.999999999999
 31
0.0
  0
LINE
  5
558
330
1F
100
AcDbEntity
  8
化粧台
  6
EXLTYPE3
 62
     6
100
AcDbLine
 10
792.4999999999957
 20
1615.999999999999
 30
0.0
 11
847.4999999999957
 21
1615.999999999999
 31
0.0
  0
LINE
  5
559
330
1F
100
AcDbEntity
  8
化粧台
  6
EXLTYPE3
 62
     6
100
AcDbLine
 10
2433.099999999996
 20
1820.999999999999
 30
0.0
 11
2507.499999999994
 21
1820.999999999999
 31
0.0
  0
LINE
  5
55A
330
1F
100
AcDbEntity
  8
化粧台
  6
EXLTYPE3
 62
     6
100
AcDbLine
 10
2384.999999999998
 20
2068.222387698
 30
0.0
 11
2384.999999999998
 21
2028.222387697999
 31
0.0
  0
ARC
  5
55B
330
1F
100
AcDbEntity
  8
化粧台
  6
CONTINUOUS
 62
     2
100
AcDbCircle
 10
599.9999999999939
 20
3169.215898883588
 30
0.0
 40
10.0
100
AcDbArc
 50
180.0
 51
218.5754967070027
  0
ARC
  5
55C
330
1F
100
AcDbEntity
  8
化粧台
  6
CONTINUOUS
 62
     2
100
AcDbCircle
 10
599.9999999999939
 20
3169.215898883588
 30
0.0
 40
10.0
100
AcDbArc
 50
230.7077246940038
 51
263.3054888682066
  0
ARC
  5
55D
330
1F
100
AcDbEntity
  8
化粧台
  6
CONTINUOUS
 62
     2
100
AcDbCircle
 10
599.9999999999939
 20
3169.215898883588
 30
0.0
 40
10.0
100
AcDbArc
 50
218.5754967070031
 51
230.7077246939769
  0
ARC
  5
55E
330
1F
100
AcDbEntity
  8
化粧台
  6
CONTINUOUS
 62
     2
100
AcDbCircle
 10
1239.999999999989
 20
3169.215898883586
 30
0.0
 40
10.0
100
AcDbArc
 50
276.6945111317934
 51
0.0
  0
DIMENSION
  5
560
330
1F
100
AcDbEntity
  8
寸法
  6
CONTINUOUS
 62
     3
100
AcDbDimension
  2
*D15
 10
1189.999999999997
 20
3770.5
 30
0.0
 11
919.9999999999973
 21
3805.749999910593
 31
0.0
 70
   160
  1
540（壁固定）
  3
ISO-25
100
AcDbAlignedDimension
 13
649.9999999999975
 23
3608.0
 33
0.0
 14
1189.999999999997
 24
3608.0
 34
0.0
100
AcDbRotatedDimension
1001
ACAD
1000
DSTYLE
1002
{
1070
   270
1070
     2
1070
     6
1000
EX_NORM
1070
     7
1000
EX_NORM
1070
    41
1040
44.99999618530273
1070
    42
1040
0.0
1070
    44
1040
0.0
1070
    73
1070
     0
1070
    74
1070
     0
1070
    75
1070
     1
1070
    76
1070
     1
1070
    77
1070
     1
1070
    78
1070
     0
1070
   140
1040
59.99999618530273
1070
   147
1040
0.0
1070
   173
1070
     1
1070
   176
1070
     3
1070
   177
1070
     3
1070
   178
1070
     2
1070
   271
1070
     0
1070
   277
1070
     2
1070
   279
1070
     2
1070
   280
1070
     0
1070
   287
1070
     5
1070
   340
1005
55F
1002
}
  0
DIMENSION
  5
56C
330
1F
100
AcDbEntity
  8
寸法
  6
CONTINUOUS
 62
     3
100
AcDbDimension
  2
*D16
 10
1294.999999999993
 20
2990.5
 30
0.0
 11
919.9999999999955
 21
3025.749999910593
 31
0.0
 70
   160
  3
ISO-25
100
AcDbAlignedDimension
 13
544.9999999999975
 23
3125.098404562999
 33
0.0
 14
1294.999999999993
 24
3125.098404562999
 34
0.0
100
AcDbRotatedDimension
1001
ACAD
1000
DSTYLE
1002
{
1070
   270
1070
     2
1070
     6
1000
EX_NORM
1070
     7
1000
EX_NORM
1070
    41
1040
44.99999618530273
1070
    42
1040
10.49999982118607
1070
    44
1040
15.0
1070
    73
1070
     0
1070
    74
1070
     0
1070
    75
1070
     0
1070
    76
1070
     0
1070
    77
1070
     1
1070
    78
1070
     0
1070
   140
1040
59.99999618530273
1070
   147
1040
0.0
1070
   173
1070
     1
1070
   176
1070
     3
1070
   177
1070
     3
1070
   178
1070
     2
1070
   271
1070
     0
1070
   277
1070
     2
1070
   279
1070
     2
1070
   280
1070
     0
1070
   287
1070
     5
1070
   340
1005
55F
1002
}
  0
DIMENSION
  5
579
330
1F
100
AcDbEntity
  8
寸法
  6
CONTINUOUS
 62
     3
100
AcDbDimension
  2
*D17
 10
1399.999999999993
 20
3575.5
 30
0.0
 11
1364.750000089401
 21
3335.5
 31
0.0
 70
   160
  3
ISO-25
100
AcDbAlignedDimension
 13
919.9999999999975
 23
3095.5
 33
0.0
 14
1294.999999999993
 24
3575.5
 34
0.0
 50
90.0
100
AcDbRotatedDimension
1001
ACAD
1000
DSTYLE
1002
{
1070
   270
1070
     2
1070
     6
1000
EX_NORM
1070
     7
1000
EX_NORM
1070
    41
1040
44.99999618530273
1070
    42
1040
10.49999982118607
1070
    44
1040
15.0
1070
    73
1070
     0
1070
    74
1070
     0
1070
    75
1070
     0
1070
    76
1070
     1
1070
    77
1070
     1
1070
    78
1070
     0
1070
   140
1040
59.99999618530273
1070
   147
1040
0.0
1070
   173
1070
     1
1070
   176
1070
     3
1070
   177
1070
     3
1070
   178
1070
     2
1070
   271
1070
     0
1070
   277
1070
     2
1070
   279
1070
     2
1070
   280
1070
     0
1070
   287
1070
     5
1070
   340
1005
55F
1002
}
  0
DIMENSION
  5
585
330
1F
100
AcDbEntity
  8
寸法
  6
CONTINUOUS
 62
     3
100
AcDbDimension
  2
*D18
 10
1447.499999999995
 20
2046.0
 30
0.0
 11
1412.250000089402
 21
1656.0
 31
0.0
 70
   160
  3
ISO-25
100
AcDbAlignedDimension
 13
1278.499999999993
 23
1266.0
 33
0.0
 14
919.9999999999975
 24
2046.0
 34
0.0
 50
90.0
100
AcDbRotatedDimension
1001
ACAD
1000
DSTYLE
1002
{
1070
   270
1070
     2
1070
     6
1000
EX_NORM
1070
     7
1000
EX_NORM
1070
    41
1040
44.99999618530273
1070
    42
1040
10.49999982118607
1070
    44
1040
15.0
1070
    73
1070
     0
1070
    74
1070
     0
1070
    75
1070
     1
1070
    76
1070
     0
1070
    77
1070
     1
1070
    78
1070
     0
1070
   140
1040
59.99999618530273
1070
   147
1040
0.0
1070
   173
1070
     1
1070
   176
1070
     3
1070
   177
1070
     3
1070
   178
1070
     2
1070
   271
1070
     0
1070
   277
1070
     2
1070
   279
1070
     2
1070
   280
1070
     0
1070
   287
1070
     5
1070
   340
1005
55F
1002
}
  0
DIMENSION
  5
591
330
1F
100
AcDbEntity
  8
寸法
  6
CONTINUOUS
 62
     3
100
AcDbDimension
  2
*D19
 10
1537.499999999993
 20
2061.0
 30
0.0
 11
1502.2500000894
 21
1663.5
 31
0.0
 70
   160
  3
ISO-25
100
AcDbAlignedDimension
 13
1278.499999999993
 23
1266.0
 33
0.0
 14
1289.999999999993
 24
2061.0
 34
0.0
 50
90.0
100
AcDbRotatedDimension
1001
ACAD
1000
DSTYLE
1002
{
1070
   270
1070
     2
1070
     6
1000
EX_NORM
1070
     7
1000
EX_NORM
1070
    41
1040
44.99999618530273
1070
    42
1040
0.0
1070
    44
1040
0.0
1070
    73
1070
     0
1070
    74
1070
     0
1070
    75
1070
     1
1070
    76
1070
     1
1070
    77
1070
     1
1070
    78
1070
     0
1070
   140
1040
59.99999618530273
1070
   147
1040
0.0
1070
   173
1070
     1
1070
   176
1070
     3
1070
   177
1070
     3
1070
   178
1070
     2
1070
   271
1070
     0
1070
   277
1070
     2
1070
   279
1070
     2
1070
   280
1070
     0
1070
   287
1070
     5
1070
   340
1005
55F
1002
}
  0
DIMENSION
  5
59C
330
1F
100
AcDbEntity
  8
寸法
  6
CONTINUOUS
 62
     3
100
AcDbDimension
  2
*D20
 10
2464.999999999998
 20
1146.0
 30
0.0
 11
2683.999999463555
 21
1181.249999910593
 31
0.0
 70
   160
  1
85（床給水）
  3
ISO-25
100
AcDbAlignedDimension
 13
2379.999999999998
 23
1258.0
 33
0.0
 14
2464.999999999998
 24
1266.0
 34
0.0
100
AcDbRotatedDimension
1001
ACAD
1000
DSTYLE
1002
{
1070
   270
1070
     2
1070
     6
1000
EX_NORM
1070
     7
1000
EX_NORM
1070
    41
1040
44.99999618530273
1070
    42
1040
10.49999982118607
1070
    44
1040
15.0
1070
    73
1070
     0
1070
    74
1070
     0
1070
    75
1070
     0
1070
    76
1070
     1
1070
    77
1070
     1
1070
    78
1070
     0
1070
   140
1040
59.99999618530273
1070
   147
1040
0.0
1070
   173
1070
     1
1070
   176
1070
     3
1070
   177
1070
     3
1070
   178
1070
     2
1070
   271
1070
     0
1070
   277
1070
     2
1070
   279
1070
     2
1070
   280
1070
     2
1070
   287
1070
     5
1070
   340
1005
55F
1002
}
  0
DIMENSION
  5
5AA
330
1F
100
AcDbEntity
  8
寸法
  6
CONTINUOUS
 62
     3
100
AcDbDimension
  2
*D21
 10
2569.999999999998
 20
1616.0
 30
0.0
 11
2534.750000089405
 21
1446.55
 31
0.0
 70
   160
  1
350（壁給水）
 53
90.00000000000001
  3
ISO-25
100
AcDbAlignedDimension
 13
2464.999999999998
 23
1266.0
 33
0.0
 14
2472.999999999998
 24
1616.0
 34
0.0
 50
90.0
100
AcDbRotatedDimension
1001
ACAD
1000
DSTYLE
1002
{
1070
   270
1070
     2
1070
     6
1000
EX_NORM
1070
     7
1000
EX_NORM
1070
    41
1040
44.99999618530273
1070
    42
1040
10.49999982118607
1070
    44
1040
15.0
1070
    73
1070
     0
1070
    74
1070
     0
1070
    75
1070
     1
1070
    76
1070
     0
1070
    77
1070
     1
1070
    78
1070
     0
1070
   140
1040
59.99999618530273
1070
   147
1040
0.0
1070
   173
1070
     1
1070
   176
1070
     3
1070
   177
1070
     3
1070
   178
1070
     2
1070
   271
1070
     0
1070
   277
1070
     2
1070
   279
1070
     2
1070
   280
1070
     0
1070
   287
1070
     5
1070
   340
1005
55F
1002
}
  0
DIMENSION
  5
5B6
330
1F
100
AcDbEntity
  8
寸法
  6
CONTINUOUS
 62
     3
100
AcDbDimension
  2
*D22
 10
2659.999999999998
 20
1766.0
 30
0.0
 11
2624.750000089405
 21
1516.0
 31
0.0
 70
   160
  1
500（壁排水）
  3
ISO-25
100
AcDbAlignedDimension
 13
2464.999999999998
 23
1266.0
 33
0.0
 14
2485.999999999998
 24
1766.0
 34
0.0
 50
90.0
100
AcDbRotatedDimension
1001
ACAD
1000
DSTYLE
1002
{
1070
   270
1070
     2
1070
     6
1000
EX_NORM
1070
     7
1000
EX_NORM
1070
    41
1040
44.99999618530273
1070
    42
1040
10.49999982118607
1070
    44
1040
15.0
1070
    73
1070
     0
1070
    74
1070
     0
1070
    75
1070
     1
1070
    76
1070
     0
1070
    77
1070
     1
1070
    78
1070
     0
1070
   140
1040
59.99999618530273
1070
   147
1040
0.0
1070
   173
1070
     1
1070
   176
1070
     3
1070
   177
1070
     3
1070
   178
1070
     2
1070
   271
1070
     0
1070
   277
1070
     2
1070
   279
1070
     2
1070
   280
1070
     0
1070
   287
1070
     5
1070
   340
1005
55F
1002
}
  0
DIMENSION
  5
5C2
330
1F
100
AcDbEntity
  8
寸法
  6
CONTINUOUS
 62
     3
100
AcDbDimension
  2
*D23
 10
2749.999999999998
 20
1821.0
 30
0.0
 11
2714.750000089405
 21
1543.5
 31
0.0
 70
   160
  1
555（壁固定）
  3
ISO-25
100
AcDbAlignedDimension
 13
2464.999999999998
 23
1266.0
 33
0.0
 14
2497.499999999998
 24
1821.0
 34
0.0
 50
90.0
100
AcDbRotatedDimension
1001
ACAD
1000
DSTYLE
1002
{
1070
   270
1070
     2
1070
     6
1000
EX_NORM
1070
     7
1000
EX_NORM
1070
    41
1040
44.99999618530273
1070
    42
1040
10.49999982118607
1070
    44
1040
15.0
1070
    73
1070
     0
1070
    74
1070
     0
1070
    75
1070
     0
1070
    76
1070
     0
1070
    77
1070
     1
1070
    78
1070
     0
1070
   140
1040
59.99999618530273
1070
   147
1040
0.0
1070
   173
1070
     1
1070
   176
1070
     3
1070
   177
1070
     3
1070
   178
1070
     2
1070
   271
1070
     0
1070
   277
1070
     2
1070
   279
1070
     2
1070
   280
1070
     0
1070
   287
1070
     5
1070
   340
1005
55F
1002
}
  0
DIMENSION
  5
5CF
330
1F
100
AcDbEntity
  8
寸法
  6
CONTINUOUS
 62
     3
100
AcDbDimension
  2
*D24
 10
2464.999999999998
 20
966.0000000000001
 30
0.0
 11
2269.999999999997
 21
1001.249999910593
 31
0.0
 70
   160
  3
ISO-25
100
AcDbAlignedDimension
 13
2074.999999999996
 23
1269.5
 33
0.0
 14
2464.999999999998
 24
1266.0
 34
0.0
100
AcDbRotatedDimension
1001
ACAD
1000
DSTYLE
1002
{
1070
   270
1070
     2
1070
     6
1000
EX_NORM
1070
     7
1000
EX_NORM
1070
    41
1040
44.99999618530273
1070
    42
1040
10.49999982118607
1070
    44
1040
15.0
1070
    73
1070
     0
1070
    74
1070
     0
1070
    75
1070
     0
1070
    76
1070
     0
1070
    77
1070
     1
1070
    78
1070
     0
1070
   140
1040
59.99999618530273
1070
   147
1040
0.0
1070
   173
1070
     1
1070
   176
1070
     3
1070
   177
1070
     3
1070
   178
1070
     2
1070
   271
1070
     0
1070
   277
1070
     2
1070
   279
1070
     2
1070
   280
1070
     0
1070
   287
1070
     5
1070
   340
1005
55F
1002
}
  0
LEADER
  5
5DC
330
1F
100
AcDbEntity
  8
寸法
  6
CONTINUOUS
 62
     3
100
AcDbLeader
  3
ISO-25
 76
     3
 10
904.0000000000375
 20
3595.5
 30
0.0
 10
781.4999999999975
 20
3652.5
 30
0.0
 10
610.4999999999975
 20
3652.5
 30
0.0
1001
ACAD
1000
DSTYLE
1002
{
1070
     5
1000
EX_NORM
1070
    41
1040
45.0
1070
   341
1005
4D
1002
}
  0
TEXT
  5
5DD
330
1F
100
AcDbEntity
  8
寸法
  6
CONTINUOUS
 62
     2
100
AcDbText
 10
618.0000003576256
 20
3657.75
 30
0.0
 40
59.99999618530273
  1
壁排水
 41
1.070588224822399
  7
EXCADSTD
 72
     5
 11
773.9999889135338
 21
3657.75
 31
0.0
100
AcDbText
  0
DIMENSION
  5
5DE
330
1F
100
AcDbEntity
  8
寸法
  6
CONTINUOUS
 62
     3
100
AcDbDimension
  2
*D25
 10
1278.499999999993
 20
966.0000000000001
 30
0.0
 11
919.9999999999955
 21
1001.249999910593
 31
0.0
 70
   160
  3
ISO-25
100
AcDbAlignedDimension
 13
561.4999999999975
 23
1266.0
 33
0.0
 14
1278.499999999993
 24
1266.0
 34
0.0
100
AcDbRotatedDimension
1001
ACAD
1000
DSTYLE
1002
{
1070
   270
1070
     2
1070
     6
1000
EX_NORM
1070
     7
1000
EX_NORM
1070
    41
1040
44.99999618530273
1070
    42
1040
0.0000000000001137
1070
    44
1040
15.0
1070
    73
1070
     0
1070
    74
1070
     0
1070
    75
1070
     0
1070
    76
1070
     1
1070
    77
1070
     1
1070
    78
1070
     0
1070
   140
1040
59.99999618530273
1070
   147
1040
0.0
1070
   173
1070
     1
1070
   176
1070
     3
1070
   177
1070
     3
1070
   178
1070
     2
1070
   271
1070
     0
1070
   277
1070
     2
1070
   279
1070
     2
1070
   280
1070
     0
1070
   287
1070
     5
1070
   340
1005
55F
1002
}
  0
DIMENSION
  5
5EA
330
1F
100
AcDbEntity
  8
寸法
  6
CONTINUOUS
 62
     3
100
AcDbDimension
  2
*D26
 10
970.9999999999966
 20
2199.0
 30
0.0
 11
919.9999999999972
 21
2241.149999910593
 31
0.0
 70
   160
  3
ISO-25
100
AcDbAlignedDimension
 13
868.9999999999975
 23
2048.222387698
 33
0.0
 14
970.9999999999966
 24
2057.722387698
 34
0.0
100
AcDbRotatedDimension
1001
ACAD
1000
DSTYLE
1002
{
1070
   270
1070
     2
1070
     6
1000
EX_NORM
1070
     7
1000
EX_NORM
1070
    41
1040
44.99999618530273
1070
    42
1040
10.49999982118607
1070
    44
1040
15.0
1070
    73
1070
     0
1070
    74
1070
     0
1070
    75
1070
     0
1070
    76
1070
     0
1070
    77
1070
     1
1070
    78
1070
     0
1070
   140
1040
59.99999618530273
1070
   147
1040
0.0
1070
   173
1070
     1
1070
   176
1070
     3
1070
   177
1070
     3
1070
   178
1070
     2
1070
   271
1070
     0
1070
   277
1070
     2
1070
   279
1070
     2
1070
   280
1070
     0
1070
   287
1070
     5
1070
   340
1005
55F
1002
}
  0
DIMENSION
  5
5F7
330
1F
100
AcDbEntity
  8
寸法
  6
CONTINUOUS
 62
     3
100
AcDbDimension
  2
*D27
 10
2464.999999999998
 20
2199.0
 30
0.0
 11
2287.5
 21
2234.249999910593
 31
0.0
 70
   160
  3
ISO-25
100
AcDbAlignedDimension
 13
2385.0
 23
2051.0
 33
0.0
 14
2464.999999999998
 24
2061.0
 34
0.0
100
AcDbRotatedDimension
1001
ACAD
1000
DSTYLE
1002
{
1070
   270
1070
     2
1070
     6
1000
EX_NORM
1070
     7
1000
EX_NORM
1070
    41
1040
44.99999618530273
1070
    42
1040
10.49999982118607
1070
    44
1040
15.0
1070
    73
1070
     0
1070
    74
1070
     0
1070
    75
1070
     0
1070
    76
1070
     1
1070
    77
1070
     1
1070
    78
1070
     0
1070
   140
1040
59.99999618530273
1070
   147
1040
0.0
1070
   173
1070
     1
1070
   176
1070
     3
1070
   177
1070
     3
1070
   178
1070
     2
1070
   271
1070
     0
1070
   277
1070
     2
1070
   279
1070
     2
1070
   280
1070
     1
1070
   287
1070
     5
1070
   340
1005
55F
1002
}
  0
LEADER
  5
605
330
1F
100
AcDbEntity
  8
寸法
  6
CONTINUOUS
 62
     3
100
AcDbLeader
  3
ISO-25
 76
     3
 10
2328.999999999998
 20
1266.0
 30
0.0
 10
2038.499999999994
 20
1057.0
 30
0.0
 10
1591.499999999991
 20
1057.0
 30
0.0
1001
ACAD
1000
DSTYLE
1002
{
1070
     5
1000
EX_NORM
1070
    41
1040
45.0
1070
   341
1005
4D
1002
}
  0
TEXT
  5
606
330
1F
100
AcDbEntity
  8
寸法
  6
CONTINUOUS
 62
     2
100
AcDbText
 10
1587.000001430505
 20
1122.249996185303
 30
0.0
 40
59.99999618530273
  1
ＶＰ･ＶＵ４０･５０
 41
0.8542372745578565
  7
EXCADSTD
 72
     5
 11
2018.99996709823
 21
1122.249996185303
 31
0.0
100
AcDbText
  0
TEXT
  5
607
330
1F
100
AcDbEntity
  8
寸法
  6
CONTINUOUS
 62
     2
100
AcDbText
 10
1587.000001430505
 20
1062.25
 30
0.0
 40
59.99999618530273
  1
４０～５０㎜立上げ
 41
0.9773584771306252
  7
EXCADSTD
 72
     5
 11
2030.99996709823
 21
1062.25
 31
0.0
100
AcDbText
  0
LEADER
  5
608
330
1F
100
AcDbEntity
  8
寸法
  6
CONTINUOUS
 62
     3
100
AcDbLeader
  3
ISO-25
 76
     3
 10
2472.999999999998
 20
1626.5
 30
0.0
 10
2564.999999999998
 20
1862.5
 30
0.0
 10
2731.499999999998
 20
1862.5
 30
0.0
1001
ACAD
1000
DSTYLE
1002
{
1070
     5
1000
EX_NORM
1070
    41
1040
45.0
1070
   341
1005
4D
1002
}
  0
TEXT
  5
609
330
1F
100
AcDbEntity
  8
寸法
  6
CONTINUOUS
 62
     2
100
AcDbText
 10
2572.499999999998
 20
1867.0
 30
0.0
 40
59.99999618530273
  1
Ｒ１/２
 41
0.791095890410959
  7
EXCADSTD
 72
     5
 11
2737.49998950958
 21
1867.0
 31
0.0
100
AcDbText
  0
DIMENSION
  5
60A
330
1F
100
AcDbEntity
  8
寸法
  6
CONTINUOUS
 62
     3
100
AcDbDimension
  2
*D28
 10
2464.999999999998
 20
1056.0
 30
0.0
 11
2707.999999374149
 21
1091.249999910593
 31
0.0
 70
   160
  1
120（床排水）
  3
ISO-25
100
AcDbAlignedDimension
 13
2344.999999999998
 23
1236.0
 33
0.0
 14
2464.999999999998
 24
1266.0
 34
0.0
100
AcDbRotatedDimension
1001
ACAD
1000
DSTYLE
1002
{
1070
   270
1070
     2
1070
     6
1000
EX_NORM
1070
     7
1000
EX_NORM
1070
    41
1040
44.99999618530273
1070
    42
1040
10.49999982118607
1070
    44
1040
15.0
1070
    73
1070
     0
1070
    74
1070
     0
1070
    75
1070
     0
1070
    76
1070
     1
1070
    77
1070
     1
1070
    78
1070
     0
1070
   140
1040
59.99999618530273
1070
   147
1040
0.0
1070
   173
1070
     1
1070
   176
1070
     3
1070
   177
1070
     3
1070
   178
1070
     2
1070
   271
1070
     0
1070
   277
1070
     2
1070
   279
1070
     2
1070
   280
1070
     2
1070
   287
1070
     5
1070
   340
1005
55F
1002
}
  0
DIMENSION
  5
616
330
1F
100
AcDbEntity
  8
寸法
  6
CONTINUOUS
 62
     3
100
AcDbDimension
  2
*D29
 10
1019.999999999997
 20
1056.0
 30
0.0
 11
1262.999999374148
 21
1091.249999910593
 31
0.0
 70
   160
  1
200（床給水）
  3
ISO-25
100
AcDbAlignedDimension
 13
819.9999999999975
 23
1258.0
 33
0.0
 14
1019.999999999997
 24
1258.0
 34
0.0
100
AcDbRotatedDimension
1001
ACAD
1000
DSTYLE
1002
{
1070
   270
1070
     2
1070
     6
1000
EX_NORM
1070
     7
1000
EX_NORM
1070
    41
1040
44.99999618530273
1070
    42
1040
10.49999982118607
1070
    44
1040
15.0
1070
    73
1070
     0
1070
    74
1070
     0
1070
    75
1070
     0
1070
    76
1070
     0
1070
    77
1070
     1
1070
    78
1070
     0
1070
   140
1040
59.99999618530273
1070
   147
1040
0.0
1070
   173
1070
     1
1070
   176
1070
     3
1070
   177
1070
     3
1070
   178
1070
     2
1070
   271
1070
     0
1070
   277
1070
     2
1070
   279
1070
     2
1070
   280
1070
     2
1070
   287
1070
     5
1070
   340
1005
55F
1002
}
  0
LEADER
  5
623
330
1F
100
AcDbEntity
  8
寸法
  6
CONTINUOUS
 62
     3
100
AcDbLeader
  3
ISO-25
 76
     3
 10
903.9999999999975
 20
1236.0
 30
0.0
 10
781.4999999999975
 20
1123.0
 30
0.0
 10
605.9999999999975
 20
1123.0
 30
0.0
1001
ACAD
1000
DSTYLE
1002
{
1070
     5
1000
EX_NORM
1070
    41
1040
45.0
1070
   341
1005
4D
1002
}
  0
TEXT
  5
624
330
1F
100
AcDbEntity
  8
寸法
  6
CONTINUOUS
 62
     2
100
AcDbText
 10
618.0000003576255
 20
1128.25
 30
0.0
 40
59.99999618530273
  1
床排水
 41
1.070588224822399
  7
EXCADSTD
 72
     5
 11
773.9999889135337
 21
1128.25
 31
0.0
100
AcDbText
  0
DIMENSION
  5
625
330
1F
100
AcDbEntity
  8
寸法
  6
CONTINUOUS
 62
     3
100
AcDbDimension
  2
*D30
 10
1019.999999999997
 20
3680.5
 30
0.0
 11
1262.999999374148
 21
3715.749999910593
 31
0.0
 70
   160
  1
200（壁給水）
  3
ISO-25
100
AcDbAlignedDimension
 13
819.9999999999975
 23
3583.5
 33
0.0
 14
1019.999999999997
 24
3583.5
 34
0.0
100
AcDbRotatedDimension
1001
ACAD
1000
DSTYLE
1002
{
1070
   270
1070
     2
1070
     6
1000
EX_NORM
1070
     7
1000
EX_NORM
1070
    41
1040
44.99999618530273
1070
    42
1040
10.49999982118607
1070
    44
1040
15.0
1070
    73
1070
     0
1070
    74
1070
     0
1070
    75
1070
     0
1070
    76
1070
     0
1070
    77
1070
     1
1070
    78
1070
     0
1070
   140
1040
59.99999618530273
1070
   147
1040
0.0
1070
   173
1070
     1
1070
   176
1070
     3
1070
   177
1070
     3
1070
   178
1070
     2
1070
   271
1070
     0
1070
   277
1070
     2
1070
   279
1070
     2
1070
   280
1070
     2
1070
   287
1070
     5
1070
   340
1005
55F
1002
}
  0
LINE
  5
632
330
1F
100
AcDbEntity
  8
寸法
  6
CONTINUOUS
 62
     3
100
AcDbLine
 10
1300.499999821185
 20
2061.0
 30
0.0
 11
1552.500000000001
 21
2061.0
 31
0.0
  0
LINE
  5
633
330
1F
100
AcDbEntity
  8
寸法
  6
CONTINUOUS
 62
     3
100
AcDbLine
 10
1278.499999999993
 20
1042.65
 30
0.0
 11
1278.499999999993
 21
951.0
 31
0.0
  0
LINE
  5
634
330
1F
100
AcDbEntity
  8
寸法
  6
CONTINUOUS
 62
     3
100
AcDbLine
 10
1278.499999999993
 20
1266.0
 30
0.0
 11
1278.499999999993
 21
1127.55
 31
0.0
  0
LINE
  5
635
330
1F
100
AcDbEntity
  8
寸法
  6
CONTINUOUS
 62
     3
100
AcDbLine
 10
649.9999999999982
 20
3731.55
 30
0.0
 11
649.9999999999982
 21
3785.5
 31
0.0
  0
LINE
  5
636
330
1F
100
AcDbEntity
  8
寸法
  6
CONTINUOUS
 62
     3
100
AcDbLine
 10
1189.999999999997
 20
3754.95
 30
0.0
 11
1189.999999999997
 21
3785.5
 31
0.0
  0
LINE
  5
637
330
1F
100
AcDbEntity
  8
寸法
  6
CONTINUOUS
 62
     3
100
AcDbLine
 10
1189.999999999997
 20
3619.35
 30
0.0
 11
1189.999999999997
 21
3670.95
 31
0.0
  0
LINE
  5
638
330
1F
100
AcDbEntity
  8
寸法
  6
CONTINUOUS
 62
     3
100
AcDbLine
 10
649.9999999999982
 20
3618.15
 30
0.0
 11
649.9999999999982
 21
3644.1
 31
0.0
  0
ENDSEC
  0
SECTION
  2
OBJECTS
  0
DICTIONARY
  5
C
330
0
100
AcDbDictionary
  3
ACAD_GROUP
350
D
  3
ACAD_LAYOUT
350
1A
  3
ACAD_MATERIAL
350
3B
  3
ACAD_MLEADERSTYLE
350
65B
  3
ACAD_MLINESTYLE
350
17
  3
ACAD_PLOTSETTINGS
350
19
  3
ACAD_VISUALSTYLE
350
2A
  3
ACDBHEADERROUNDTRIPXREC
350
639
  3
ACDBVARIABLEDICTIONARY
350
659
  0
DICTIONARY
  5
D
102
{ACAD_REACTORS
330
C
102
}
330
C
100
AcDbDictionary
  0
DICTIONARY
  5
1A
102
{ACAD_REACTORS
330
C
102
}
330
C
100
AcDbDictionary
  0
DICTIONARY
  5
3B
102
{ACAD_REACTORS
330
C
102
}
330
C
100
AcDbDictionary
  3
BYBLOCK
350
3D
  3
BYLAYER
350
3C
  3
GLOBAL
350
3E
  0
DICTIONARY
  5
65B
102
{ACAD_REACTORS
330
C
102
}
330
C
100
AcDbDictionary
  0
DICTIONARY
  5
17
102
{ACAD_REACTORS
330
C
102
}
330
C
100
AcDbDictionary
  3
STANDARD
350
18
  0
DICTIONARY
  5
19
102
{ACAD_REACTORS
330
C
102
}
330
C
100
AcDbDictionary
  0
DICTIONARY
  5
2A
102
{ACAD_REACTORS
330
C
102
}
330
C
100
AcDbDictionary
  3
2DWIREFRAME
350
2F
  3
3D_HIDDEN
350
31
  3
3DWIREFRAME
350
30
  3
BASIC
350
32
  3
BRIGHTEN
350
36
  3
COLORCHANGE
350
3A
  3
CONCEPTUAL
350
34
  3
DIM
350
35
  3
FACEPATTERN
350
39
  3
FLAT
350
2B
  3
FLATWITHEDGES
350
2C
  3
GOURAUD
350
2D
  3
GOURAUDWITHEDGES
350
2E
  3
LINEPATTERN
350
38
  3
REALISTIC
350
33
  3
THICKEN
350
37
  0
DICTIONARY
  5
639
102
{ACAD_REACTORS
330
C
102
}
330
C
100
AcDbDictionary
  3
CEPSNTYPE
350
642
  3
DIMSTYLEDATA
350
658
  3
FINGERPRINTGUID
350
643
  3
HYPERLINKBASE
350
63C
  3
INSUNITS
350
641
  3
LAYOUTDICT
350
63E
  3
LWETCUNION
350
640
  3
PLOTSETDICT
350
63F
  3
PSVPSCALE
350
645
  3
PUCSBASE
350
648
  3
PUCSORGBACK
350
64E
  3
PUCSORGBOTTOM
350
64A
  3
PUCSORGFRONT
350
64D
  3
PUCSORGLEFT
350
64B
  3
PUCSORGRIGHT
350
64C
  3
PUCSORGTOP
350
649
  3
PUCSORTHOREF
350
646
  3
PUCSORTHOVIEW
350
647
  3
STYLESHEET
350
63D
  3
TSTACKALIGN
350
63A
  3
TSTACKSIZE
350
63B
  3
UCSBASE
350
651
  3
UCSORGBACK
350
657
  3
UCSORGBOTTOM
350
653
  3
UCSORGFRONT
350
656
  3
UCSORGLEFT
350
654
  3
UCSORGRIGHT
350
655
  3
UCSORGTOP
350
652
  3
UCSORTHOREF
350
64F
  3
UCSORTHOVIEW
350
650
  3
VERSIONGUID
350
644
  0
DICTIONARY
  5
659
102
{ACAD_REACTORS
330
C
102
}
330
C
100
AcDbDictionary
  3
DIMASSOC
350
65E
  3
HIDETEXT
350
65F
  3
PSOLHEIGHT
350
65D
  3
PSOLWIDTH
350
65C
  0
MATERIAL
  5
3D
102
{ACAD_REACTORS
330
3B
102
}
102
{ACAD_XDICTIONARY
360
662
102
}
330
3B
100
AcDbMaterial
  1
ByBlock
  0
MATERIAL
  5
3C
102
{ACAD_REACTORS
330
3B
102
}
102
{ACAD_XDICTIONARY
360
660
102
}
330
3B
100
AcDbMaterial
  1
ByLayer
  0
MATERIAL
  5
3E
102
{ACAD_REACTORS
330
3B
102
}
102
{ACAD_XDICTIONARY
360
664
102
}
330
3B
100
AcDbMaterial
  1
Global
  0
MLINESTYLE
  5
18
102
{ACAD_REACTORS
330
17
102
}
330
17
100
AcDbMlineStyle
  2
Standard
 70
     0
  3

 62
   256
 51
90.0
 52
90.0
 71
     2
 49
0.5
 62
   256
  6
BYLAYER
 49
-0.5
 62
   256
  6
BYLAYER
  0
ACAD_PROXY_OBJECT
  5
2F
102
{ACAD_REACTORS
330
2A
102
}
330
2A
100
AcDbProxyObject
 90
      499
 91
      501
 93
      436
310
42CC9915DA5C99599C985B595049028333333333333E3BF0000000000000FB0107901411070040501600405405064090741402480A0340
1001
ACAD
1000
AcDbSavedByObjectVersion
1070
     0
  0
ACAD_PROXY_OBJECT
  5
31
102
{ACAD_REACTORS
330
2A
102
}
330
2A
100
AcDbProxyObject
 90
      499
 91
      501
 93
      500
310
424CD108121A5919195B90640502408333333333333E3BF0000000000000FB01079024090700405020000000000001110200405405064090740C02480A0340
1001
ACAD
1000
AcDbSavedByObjectVersion
1070
     0
  0
ACAD_PROXY_OBJECT
  5
30
102
{ACAD_REACTORS
330
2A
102
}
330
2A
100
AcDbProxyObject
 90
      499
 91
      501
 93
      436
310
42CCD915DA5C99599C985B595059028333333333333E3BF0000000000000FB0107901411070040501600405405064090741402480A0340
1001
ACAD
1000
AcDbSavedByObjectVersion
1070
     0
  0
ACAD_PROXY_OBJECT
  5
32
102
{ACAD_REACTORS
330
2A
102
}
330
2A
100
AcDbProxyObject
 90
      499
 91
      501
 93
      388
310
4150985CDA58D07406404333333333333E3BF0000000000000FB0107A41107004050150841D405064090741402480A0350
1001
ACAD
1000
AcDbSavedByObjectVersion
1070
     0
  0
ACAD_PROXY_OBJECT
  5
36
102
{ACAD_REACTORS
330
2A
102
}
330
2A
100
AcDbProxyObject
 90
      499
 91
      501
 93
      428
310
42109C9A59DA1D195B90C409028333333333333E3BF0000000000000FB010790141107004050150841D405064090741402480A029950
1001
ACAD
1000
AcDbSavedByObjectVersion
1070
     0
  0
ACAD_PROXY_OBJECT
  5
3A
102
{ACAD_REACTORS
330
2A
102
}
330
2A
100
AcDbProxyObject
 90
      499
 91
      501
 93
      452
310
42D0DBDB1BDC90DA185B99D95104090240C333333333333E3BF0000000000000FB0108901411070040501508421405064090741402480A0350
1001
ACAD
1000
AcDbSavedByObjectVersion
1070
     0
  0
ACAD_PROXY_OBJECT
  5
34
102
{ACAD_REACTORS
330
2A
102
}
330
2A
100
AcDbProxyObject
 90
      499
 91
      501
 93
      500
310
4290DBDB98D95C1D1D585B10940D028333333333333E3BF0000000000000FB0107902409070040501000000000000111010841D405064090740C02480A0340
1001
ACAD
1000
AcDbSavedByObjectVersion
1070
     0
  0
ACAD_PROXY_OBJECT
  5
35
102
{ACAD_REACTORS
330
2A
102
}
330
2A
100
AcDbProxyObject
 90
      499
 91
      501
 93
      412
310
40D11A5B50B409028333333333333E3BF0000000000000FB010790141107004050150841D405064090741402480A02677FFFFFD0
1001
ACAD
1000
AcDbSavedByObjectVersion
1070
     0
  0
ACAD_PROXY_OBJECT
  5
39
102
{ACAD_REACTORS
330
2A
102
}
330
2A
100
AcDbProxyObject
 90
      499
 91
      501
 93
      444
310
42D19858D95C185D1D195C9B90F409028333333333333E3BF0000000000000FB010790141107004050150841D405064090741402480A0350
1001
ACAD
1000
AcDbSavedByObjectVersion
1070
     0
  0
ACAD_PROXY_OBJECT
  5
2B
102
{ACAD_REACTORS
330
2A
102
}
330
2A
100
AcDbProxyObject
 90
      499
 91
      501
 93
      388
310
41119B185D240901404333333333333E3BF0000000000000F9010740A41107004050150841D405064090741402480A1B50
1001
ACAD
1000
AcDbSavedByObjectVersion
1070
     0
  0
ACAD_PROXY_OBJECT
  5
2C
102
{ACAD_REACTORS
330
2A
102
}
330
2A
100
AcDbProxyObject
 90
      499
 91
      501
 93
      476
310
43519B185D15DA5D1A115919D95CD0140901404333333333333E3BF0000000000000F9010740901411070040501600405405064090741402480A1B50
1001
ACAD
1000
AcDbSavedByObjectVersion
1070
     0
  0
ACAD_PROXY_OBJECT
  5
2D
102
{ACAD_REACTORS
330
2A
102
}
330
2A
100
AcDbProxyObject
 90
      499
 91
      501
 93
      412
310
41D1DBDD5C985D5910240902404333333333333E3BF0000000000000F9010740A411070040501641D405064090741402480A1B50
1001
ACAD
1000
AcDbSavedByObjectVersion
1070
     0
  0
ACAD_PROXY_OBJECT
  5
2E
102
{ACAD_REACTORS
330
2A
102
}
330
2A
100
AcDbProxyObject
 90
      499
 91
      501
 93
      500
310
4411DBDD5C985D5915DA5D1A115919D95CD0340902404333333333333E3BF0000000000000F9010740901411070040501600405405064090741402480A1B50
1001
ACAD
1000
AcDbSavedByObjectVersion
1070
     0
  0
ACAD_PROXY_OBJECT
  5
38
102
{ACAD_REACTORS
330
2A
102
}
330
2A
100
AcDbProxyObject
 90
      499
 91
      501
 93
      444
310
42D31A5B995C185D1D195C9B90E409028333333333333E3BF0000000000000FB010790141107004050750841D405064090741402483A0350
1001
ACAD
1000
AcDbSavedByObjectVersion
1070
     0
  0
ACAD_PROXY_OBJECT
  5
33
102
{ACAD_REACTORS
330
2A
102
}
330
2A
100
AcDbProxyObject
 90
      499
 91
      501
 93
      420
310
425499585B1A5CDD1A58D08409028333333333333E3BF0000000000000FB01079019070040501508421405064090741402480A1B40
1001
ACAD
1000
AcDbSavedByObjectVersion
1070
     0
  0
ACAD_PROXY_OBJECT
  5
37
102
{ACAD_REACTORS
330
2A
102
}
330
2A
100
AcDbProxyObject
 90
      499
 91
      501
 93
      412
310
41D51A1A58DAD95B90D409028333333333333E3BF0000000000000FB010790141107004050150C41D405064090741402480A0350
1001
ACAD
1000
AcDbSavedByObjectVersion
1070
     0
  0
XRECORD
  5
642
102
{ACAD_REACTORS
330
639
102
}
330
639
100
AcDbXrecord
 90
        0
  0
XRECORD
  5
658
102
{ACAD_REACTORS
330
639
102
}
330
639
100
AcDbXrecord
1000
DSTYLE
1002
{
1070
   340
340
11
1002
}
  0
XRECORD
  5
643
102
{ACAD_REACTORS
330
639
102
}
330
639
100
AcDbXrecord
  1
{0E589EFD-56D9-4AB1-ACC4-1507115EC37E}
  0
XRECORD
  5
63C
102
{ACAD_REACTORS
330
639
102
}
330
639
100
AcDbXrecord
  1

  0
XRECORD
  5
641
102
{ACAD_REACTORS
330
639
102
}
330
639
100
AcDbXrecord
 90
        4
  0
XRECORD
  5
63E
102
{ACAD_REACTORS
330
639
102
}
330
639
100
AcDbXrecord
340
1A
  0
XRECORD
  5
640
102
{ACAD_REACTORS
330
639
102
}
330
639
100
AcDbXrecord
 90
    10781
  0
XRECORD
  5
63F
102
{ACAD_REACTORS
330
639
102
}
330
639
100
AcDbXrecord
340
19
  0
XRECORD
  5
645
102
{ACAD_REACTORS
330
639
102
}
330
639
100
AcDbXrecord
 40
0.0
  0
XRECORD
  5
648
102
{ACAD_REACTORS
330
639
102
}
330
639
100
AcDbXrecord
340
0
  0
XRECORD
  5
64E
102
{ACAD_REACTORS
330
639
102
}
330
639
100
AcDbXrecord
 10
0.0
 20
0.0
 30
0.0
  0
XRECORD
  5
64A
102
{ACAD_REACTORS
330
639
102
}
330
639
100
AcDbXrecord
 10
0.0
 20
0.0
 30
0.0
  0
XRECORD
  5
64D
102
{ACAD_REACTORS
330
639
102
}
330
639
100
AcDbXrecord
 10
0.0
 20
0.0
 30
0.0
  0
XRECORD
  5
64B
102
{ACAD_REACTORS
330
639
102
}
330
639
100
AcDbXrecord
 10
0.0
 20
0.0
 30
0.0
  0
XRECORD
  5
64C
102
{ACAD_REACTORS
330
639
102
}
330
639
100
AcDbXrecord
 10
0.0
 20
0.0
 30
0.0
  0
XRECORD
  5
649
102
{ACAD_REACTORS
330
639
102
}
330
639
100
AcDbXrecord
 10
0.0
 20
0.0
 30
0.0
  0
XRECORD
  5
646
102
{ACAD_REACTORS
330
639
102
}
330
639
100
AcDbXrecord
340
0
  0
XRECORD
  5
647
102
{ACAD_REACTORS
330
639
102
}
330
639
100
AcDbXrecord
 70
     0
  0
XRECORD
  5
63D
102
{ACAD_REACTORS
330
639
102
}
330
639
100
AcDbXrecord
  1

  0
XRECORD
  5
63A
102
{ACAD_REACTORS
330
639
102
}
330
639
100
AcDbXrecord
 90
        1
  0
XRECORD
  5
63B
102
{ACAD_REACTORS
330
639
102
}
330
639
100
AcDbXrecord
 90
       70
  0
XRECORD
  5
651
102
{ACAD_REACTORS
330
639
102
}
330
639
100
AcDbXrecord
340
0
  0
XRECORD
  5
657
102
{ACAD_REACTORS
330
639
102
}
330
639
100
AcDbXrecord
 10
0.0
 20
0.0
 30
0.0
  0
XRECORD
  5
653
102
{ACAD_REACTORS
330
639
102
}
330
639
100
AcDbXrecord
 10
0.0
 20
0.0
 30
0.0
  0
XRECORD
  5
656
102
{ACAD_REACTORS
330
639
102
}
330
639
100
AcDbXrecord
 10
0.0
 20
0.0
 30
0.0
  0
XRECORD
  5
654
102
{ACAD_REACTORS
330
639
102
}
330
639
100
AcDbXrecord
 10
0.0
 20
0.0
 30
0.0
  0
XRECORD
  5
655
102
{ACAD_REACTORS
330
639
102
}
330
639
100
AcDbXrecord
 10
0.0
 20
0.0
 30
0.0
  0
XRECORD
  5
652
102
{ACAD_REACTORS
330
639
102
}
330
639
100
AcDbXrecord
 10
0.0
 20
0.0
 30
0.0
  0
XRECORD
  5
64F
102
{ACAD_REACTORS
330
639
102
}
330
639
100
AcDbXrecord
340
0
  0
XRECORD
  5
650
102
{ACAD_REACTORS
330
639
102
}
330
639
100
AcDbXrecord
 70
     0
  0
XRECORD
  5
644
102
{ACAD_REACTORS
330
639
102
}
330
639
100
AcDbXrecord
  1
{FAEB1C32-E019-11D5-929B-00C0DF256EC4}
  0
DICTIONARYVAR
  5
65E
102
{ACAD_REACTORS
330
659
102
}
330
659
100
DictionaryVariables
280
     0
  1
2
  0
DICTIONARYVAR
  5
65F
102
{ACAD_REACTORS
330
659
102
}
330
659
100
DictionaryVariables
280
     0
  1
1
  0
DICTIONARYVAR
  5
65D
102
{ACAD_REACTORS
330
659
102
}
330
659
100
DictionaryVariables
280
     0
  1
80.000000
  0
DICTIONARYVAR
  5
65C
102
{ACAD_REACTORS
330
659
102
}
330
659
100
DictionaryVariables
280
     0
  1
5.000000
  0
DICTIONARY
  5
662
330
3D
100
AcDbDictionary
280
     1
  3
ACAD_XREC_ROUNDTRIP
360
663
  0
DICTIONARY
  5
660
330
3C
100
AcDbDictionary
280
     1
  3
ACAD_XREC_ROUNDTRIP
360
661
  0
DICTIONARY
  5
664
330
3E
100
AcDbDictionary
280
     1
  3
ACAD_XREC_ROUNDTRIP
360
665
  0
XRECORD
  5
663
102
{ACAD_REACTORS
330
662
102
}
330
662
100
AcDbXrecord
102
MATERIAL
148
0.0
149
0.0
149
0.0
 93
        0
 94
      127
282
     0
 72
     1
 77
     1
171
     1
175
     1
179
     1
273
     0
  0
XRECORD
  5
661
102
{ACAD_REACTORS
330
660
102
}
330
660
100
AcDbXrecord
102
MATERIAL
148
0.0
149
0.0
149
0.0
 93
        0
 94
      127
282
     0
 72
     1
 77
     1
171
     1
175
     1
179
     1
273
     0
  0
XRECORD
  5
665
102
{ACAD_REACTORS
330
664
102
}
330
664
100
AcDbXrecord
102
MATERIAL
148
0.0
149
0.0
149
0.0
 93
        0
 94
      127
282
     0
 72
     1
 77
     1
171
     1
175
     1
179
     1
273
     0
  0
ENDSEC
  0
EOF
